  0
SECTION
  2
HEADER
  9
$ACADVER
  1
AC1024
  9
$DWGCODEPAGE
  3
ANSI_1252
  9
$EXTMAX
 10
297.0
 20
210.0
 30
0.0
  9
$EXTMIN
 10
0.0
 20
0.0
 30
0.0
  9
$LIMMIN
 10
0.0
 20
0.0
  9
$LIMMAX
 10
297.0
 20
210.0
  9
$VIEWCTR
 10
148.5
 20
105.0
  9
$VIEWSIZE
 40
210.0
  9
$CLAYER
  8
0
  9
$LTSCALE
 40
16.335
  9
$CELTYPE
  6
BYLAYER
  9
$DIMSCALE
 40
1.0
  9
$DIMASZ
 40
3.0
  9
$DIMEXO
 40
0.5
  9
$DIMDLI
 40
11.286
  9
$DIMEXE
 40
1.5
  9
$DIMCEN
 40
2.673
  9
$DIMLFAC
 40
1.0
  9
$DIMBLK
  1
_FILLED
  9
$DIMALT
 70
0
  9
$DIMALTF
 40
0.0393700787
  9
$DIMTXT
 40
3.0
  9
$DIMTOL
 70
1
  9
$DIMLIM
 70
0
  9
$DIMTFAC
 40
1.0
  9
$DIMTP
 40
0.01
  9
$DIMTM
 40
0.01
  9
$DIMGAP
 40
0.625
  9
$DIMDSEP
 70
44
  9
$AUNITS
 70
0
  9
$PDMODE
 70
3
  9
$PDSIZE
 40
3.0
  9
$HANDSEED
  5
5D3
  9
$TILEMODE
 70
1
  9
$MEASUREMENT
 70
1
  9
$INSUNITS
 70
4
  0
ENDSEC
  0
SECTION
  2
CLASSES
  0
CLASS
  1
ACDBDICTIONARYWDFLT
  2
AcDbDictionaryWithDefault
  3
AutoCAD 2000
 90
0
 91
1
280
0
281
0
  0
CLASS
  1
ACDBPLACEHOLDER
  2
AcDbPlaceHolder
  3
AutoCAD 2000
 90
0
 91
1
280
0
281
0
  0
CLASS
  1
LAYOUT
  2
AcDbLayout
  3
AutoCAD 2000
 90
0
 91
0
280
0
281
0
  0
ENDSEC
  0
SECTION
  2
TABLES
  0
TABLE
  2
VPORT
  5
8
100
AcDbSymbolTable
 70
2
  0
VPORT
  5
1F4
100
AcDbSymbolTableRecord
100
AcDbViewportTableRecord
  2
*ACTIVE
 70
0
 10
0.0
 20
0.0
 11
1.0
 21
1.0
 12
148.5
 22
105.0
 13
0.0
 23
0.0
 14
1.0
 24
1.0
 15
0.0
 25
0.0
 16
0.0
 26
0.0
 36
1.0
 17
0.0
 27
0.0
 37
0.0
 40
210.0
 41
1.4142857143
 42
50.0
 43
0.0
 44
0.0
 50
0.0
 51
0.0
 71
0
 72
100
 73
1
 74
1
 75
0
 76
0
 77
0
 78
0
  0
ENDTAB
  0
TABLE
  2
LTYPE
  5
5
100
AcDbSymbolTable
 70
6
  0
LTYPE
  5
14
100
AcDbSymbolTableRecord
100
AcDbLinetypeTableRecord
  2
BYBLOCK
 70
0
  3

 72
65
 73
0
 40
0.0
  0
LTYPE
  5
15
100
AcDbSymbolTableRecord
100
AcDbLinetypeTableRecord
  2
BYLAYER
 70
0
  3

 72
65
 73
0
 40
0.0
  0
LTYPE
  5
16
100
AcDbSymbolTableRecord
100
AcDbLinetypeTableRecord
  2
CONTINUOUS
 70
64
  3
Solid line
 72
65
 73
0
 40
0.0
  0
LTYPE
  5
1F5
100
AcDbSymbolTableRecord
100
AcDbLinetypeTableRecord
  2
CENTER
 70
64
  3
____ _ ____ _ ____ _ ____ _ ____ _ ____ _ ____
 72
65
 73
4
 40
0.6
 49
0.375
 74
0
 49
-0.075
 74
0
 49
0.075
 74
0
 49
-0.075
 74
0
  0
LTYPE
  5
1F6
100
AcDbSymbolTableRecord
100
AcDbLinetypeTableRecord
  2
HIDDEN
 70
64
  3
- - - - - - - - - - - - - - - - - - - -
 72
65
 73
2
 40
0.2
 49
0.1
 74
0
 49
-0.1
 74
0
  0
LTYPE
  5
1F7
100
AcDbSymbolTableRecord
100
AcDbLinetypeTableRecord
  2
PHANTOM
 70
64
  3
_____ _ _ _____ _ _ _____ _ _ _____
 72
65
 73
6
 40
0.8
 49
0.45
 74
0
 49
-0.05
 74
0
 49
0.1
 74
0
 49
-0.05
 74
0
 49
0.1
 74
0
 49
-0.05
 74
0
  0
LTYPE
  5
1F8
100
AcDbSymbolTableRecord
100
AcDbLinetypeTableRecord
  2
DOT
 70
64
  3
. . . . . . . . . . . . . . . . . . . .
 72
65
 73
2
 40
0.2
 49
0.1
 74
0
 49
-0.1
 74
0
  0
LTYPE
  5
1F9
100
AcDbSymbolTableRecord
100
AcDbLinetypeTableRecord
  2
DASHED
 70
64
  3
- - - - - - - - - - - - - - - - - - - -
 72
65
 73
2
 40
0.2
 49
0.1
 74
0
 49
-0.1
 74
0
  0
ENDTAB
  0
TABLE
  2
LAYER
  5
2
100
AcDbSymbolTable
 70
36
  0
LAYER
  5
10
100
AcDbSymbolTableRecord
100
AcDbLayerTableRecord
  2
0
 70
0
 62
7
  6
CONTINUOUS
370
-3
390
F
  0
LAYER
  5
1FA
100
AcDbSymbolTableRecord
100
AcDbLayerTableRecord
  2
DEFAULT_1
 70
0
 62
7
  6
CENTER
370
-3
390
F
  0
LAYER
  5
1FB
100
AcDbSymbolTableRecord
100
AcDbLayerTableRecord
  2
DEFAULT_2
 70
0
 62
7
  6
HIDDEN
370
-3
390
F
  0
LAYER
  5
1FC
100
AcDbSymbolTableRecord
100
AcDbLayerTableRecord
  2
DEFAULT_3
 70
0
 62
7
  6
PHANTOM
370
-3
390
F
  0
LAYER
  5
1FD
100
AcDbSymbolTableRecord
100
AcDbLayerTableRecord
  2
ASSI
 70
0
 62
7
  6
CONTINUOUS
370
-3
390
F
  0
LAYER
  5
1FE
100
AcDbSymbolTableRecord
100
AcDbLayerTableRecord
  2
COORDINATE
 70
0
 62
7
  6
CONTINUOUS
370
-3
390
F
  0
LAYER
  5
1FF
100
AcDbSymbolTableRecord
100
AcDbLayerTableRecord
  2
COORD_ORIGINE
 70
0
 62
7
  6
CONTINUOUS
370
-3
390
F
  0
LAYER
  5
200
100
AcDbSymbolTableRecord
100
AcDbLayerTableRecord
  2
CURVE
 70
0
 62
7
  6
CONTINUOUS
370
-3
390
F
  0
LAYER
  5
201
100
AcDbSymbolTableRecord
100
AcDbLayerTableRecord
  2
DRAFT
 70
0
 62
7
  6
CONTINUOUS
370
-3
390
F
  0
LAYER
  5
202
100
AcDbSymbolTableRecord
100
AcDbLayerTableRecord
  2
IMPORT_FEATURES
 70
0
 62
7
  6
CONTINUOUS
370
-3
390
F
  0
LAYER
  5
203
100
AcDbSymbolTableRecord
100
AcDbLayerTableRecord
  2
INTF_1
 70
0
 62
7
  6
CONTINUOUS
370
-3
390
F
  0
LAYER
  5
204
100
AcDbSymbolTableRecord
100
AcDbLayerTableRecord
  2
INTF_11
 70
0
 62
7
  6
CONTINUOUS
370
-3
390
F
  0
LAYER
  5
205
100
AcDbSymbolTableRecord
100
AcDbLayerTableRecord
  2
INTF_8
 70
0
 62
7
  6
CONTINUOUS
370
-3
390
F
  0
LAYER
  5
206
100
AcDbSymbolTableRecord
100
AcDbLayerTableRecord
  2
NOTE
 70
0
 62
7
  6
CONTINUOUS
370
-3
390
F
  0
LAYER
  5
207
100
AcDbSymbolTableRecord
100
AcDbLayerTableRecord
  2
PIANI
 70
0
 62
7
  6
CONTINUOUS
370
-3
390
F
  0
LAYER
  5
208
100
AcDbSymbolTableRecord
100
AcDbLayerTableRecord
  2
PIANI_ORIGINE
 70
0
 62
7
  6
CONTINUOUS
370
-3
390
F
  0
LAYER
  5
209
100
AcDbSymbolTableRecord
100
AcDbLayerTableRecord
  2
PUNTI
 70
0
 62
7
  6
CONTINUOUS
370
-3
390
F
  0
LAYER
  5
20A
100
AcDbSymbolTableRecord
100
AcDbLayerTableRecord
  2
RACCORDO
 70
0
 62
7
  6
CONTINUOUS
370
-3
390
F
  0
LAYER
  5
20B
100
AcDbSymbolTableRecord
100
AcDbLayerTableRecord
  2
RGB____0____0____0__
 70
0
 62
7
  6
CONTINUOUS
370
-3
390
F
  0
LAYER
  5
20C
100
AcDbSymbolTableRecord
100
AcDbLayerTableRecord
  2
SMUSSO
 70
0
 62
7
  6
CONTINUOUS
370
-3
390
F
  0
LAYER
  5
20D
100
AcDbSymbolTableRecord
100
AcDbLayerTableRecord
  2
SNAPLINE
 70
0
 62
7
  6
CONTINUOUS
370
-3
390
F
  0
LAYER
  5
20E
100
AcDbSymbolTableRecord
100
AcDbLayerTableRecord
  2
SUPERFICI
 70
0
 62
7
  6
CONTINUOUS
370
-3
390
F
  0
LAYER
  5
20F
100
AcDbSymbolTableRecord
100
AcDbLayerTableRecord
  2
TRASH
 70
0
 62
7
  6
CONTINUOUS
370
-3
390
F
  0
ENDTAB
  0
TABLE
  2
STYLE
  5
3
100
AcDbSymbolTable
 70
1
  0
STYLE
  5
11
100
AcDbSymbolTableRecord
100
AcDbTextStyleTableRecord
  2
STANDARD
 70
0
 40
0.0
 41
0.8
 50
0.0
 71
0
 42
0.2
  3
txt
  4

  0
STYLE
  5
210
100
AcDbSymbolTableRecord
100
AcDbTextStyleTableRecord
  2
TEXTSTYLE_1
 70
0
 40
0.0
 41
0.8
 50
0.0
 71
0
 42
0.2
  3
gdt
  4

  0
ENDTAB
  0
TABLE
  2
VIEW
  5
6
100
AcDbSymbolTable
 70
0
  0
ENDTAB
  0
TABLE
  2
UCS
  5
7
100
AcDbSymbolTable
 70
0
  0
ENDTAB
  0
TABLE
  2
APPID
  5
9
100
AcDbSymbolTable
 70
1
  0
APPID
  5
211
100
AcDbSymbolTableRecord
100
AcDbRegAppTableRecord
  2
ACAD
 70
0
  0
ENDTAB
  0
TABLE
  2
BLOCK_RECORD
  5
1
100
AcDbSymbolTable
 70
0
  0
BLOCK_RECORD
  5
212
100
AcDbSymbolTableRecord
100
AcDbBlockTableRecord
  2
*Model_Space
  0
BLOCK_RECORD
  5
213
100
AcDbSymbolTableRecord
100
AcDbBlockTableRecord
  2
*Paper_Space
  0
BLOCK_RECORD
  5
214
100
AcDbSymbolTableRecord
100
AcDbBlockTableRecord
  2
_FILLED
  0
BLOCK_RECORD
  5
215
100
AcDbSymbolTableRecord
100
AcDbBlockTableRecord
  2
*D0
  0
BLOCK_RECORD
  5
216
100
AcDbSymbolTableRecord
100
AcDbBlockTableRecord
  2
*D1
  0
BLOCK_RECORD
  5
217
100
AcDbSymbolTableRecord
100
AcDbBlockTableRecord
  2
*D2
  0
BLOCK_RECORD
  5
218
100
AcDbSymbolTableRecord
100
AcDbBlockTableRecord
  2
*D3
  0
ENDTAB
  0
TABLE
  2
DIMSTYLE
  5
A
100
AcDbSymbolTable
 70
1
100
AcDbDimStyleTable
 71
0
  0
DIMSTYLE
105
219
100
AcDbSymbolTableRecord
100
AcDbDimStyleTableRecord
  2
STANDARD
 70
0
  3

  4

 40
1.0
 41
3.0
 42
0.5
 43
0.38
 44
1.5
 45
0.0
 46
0.0
 47
0.01
 48
0.01
140
3.0
141
0.09
142
0.0
143
25.4
144
1.0
145
0.0
146
1.0
147
0.625
 71
1
 72
0
 73
0
 74
0
 75
0
 76
0
 77
1
 78
8
 79
2
170
0
171
1
172
0
173
0
174
0
175
0
176
0
177
0
178
0
270
2
179
2
271
2
272
2
273
2
274
2
275
0
280
0
281
0
282
0
283
1
284
8
285
0
286
0
287
3
288
0
340
11
278
44
341
214
342
214
343
214
344
214
  0
DIMSTYLE
105
21A
100
AcDbSymbolTableRecord
100
AcDbDimStyleTableRecord
  2
DIMSTYLE_1
 70
0
  3

  4

 40
1.0
 41
3.0
 42
0.5
 43
0.38
 44
1.5
 45
0.0
 46
0.0
 47
0.0
 48
0.0
140
3.0
141
0.09
142
0.0
143
25.4
144
1.0
145
0.0
146
1.0
147
0.75
 71
0
 72
0
 73
0
 74
0
 75
0
 76
0
 77
1
 78
8
 79
2
170
0
171
1
172
0
173
0
174
0
175
0
176
0
177
0
178
0
270
2
179
2
271
2
272
2
273
2
274
2
275
0
280
0
281
0
282
0
283
1
284
8
285
0
286
0
287
3
288
0
340
11
278
44
341
214
342
214
343
214
344
214
  0
ENDTAB
  0
ENDSEC
  0
SECTION
  2
BLOCKS
  0
BLOCK
  5
20
100
AcDbEntity
  8
0
100
AcDbBlockBegin
  2
*Model_Space
 70
0
 10
0.0
 20
0.0
 30
0.0
  3
*Model_Space
  1

  0
ENDBLK
  5
21
100
AcDbEntity
  8
0
100
AcDbBlockEnd
  0
BLOCK
  5
1C
100
AcDbEntity
  8
0
100
AcDbBlockBegin
  2
*Paper_Space
 70
0
 10
0.0
 20
0.0
 30
0.0
  3
*Paper_Space
  1

  0
ENDBLK
  5
1D
100
AcDbEntity
  8
0
100
AcDbBlockEnd
  0
BLOCK
  5
21B
100
AcDbEntity
  8
0
100
AcDbBlockBegin
  2
_FILLED
 70
64
 10
0.0
 20
0.0
  3
_FILLED
  1

  0
SOLID
  5
21C
100
AcDbEntity
  8
0
  6
BYBLOCK
 62
0
100
AcDbTrace
 10
0.0
 20
0.0
 11
-1.0
 21
0.3166666667
 12
-1.0
 22
-0.3166666667
 13
-1.0
 23
-0.3166666667
  0
ENDBLK
  5
21D
100
AcDbEntity
  8
0
  6
BYBLOCK
 62
0
100
AcDbBlockEnd
  0
BLOCK
  5
21E
100
AcDbEntity
  8
0
100
AcDbBlockBegin
 62
7
  6
CONTINUOUS
  2
*D0
 70
65
 10
0.0
 20
0.0
  3
*D0
  1

  0
LINE
  5
21F
100
AcDbEntity
  8
0
100
AcDbLine
 62
7
  6
CONTINUOUS
 10
26.6177377476
 20
11.907271751
 11
26.6177377476
 21
49.1986203826
  0
LINE
  5
220
100
AcDbEntity
  8
0
100
AcDbLine
 62
7
  6
CONTINUOUS
 10
-16.4822622524
 20
6.6986203826
 11
-16.4822622524
 21
49.1986203826
  0
LINE
  5
221
100
AcDbEntity
  8
0
100
AcDbLine
 62
7
  6
CONTINUOUS
 10
26.6177377476
 20
47.6986203826
 11
5.0677377476
 21
47.6986203826
  0
LINE
  5
222
100
AcDbEntity
  8
0
100
AcDbLine
 62
7
  6
CONTINUOUS
 10
-16.4822622524
 20
47.6986203826
 11
5.0677377476
 21
47.6986203826
  0
INSERT
  5
223
100
AcDbEntity
  8
0
100
AcDbBlockReference
 62
7
  6
CONTINUOUS
  2
_FILLED
 10
26.6177377476
 20
47.6986203826
 41
3.0
 42
3.0
 43
3.0
  0
INSERT
  5
224
100
AcDbEntity
  8
0
100
AcDbBlockReference
 62
7
  6
CONTINUOUS
  2
_FILLED
 10
-16.4822622524
 20
47.6986203826
 41
3.0
 42
3.0
 43
3.0
 50
180.0
  0
ENDBLK
  5
225
100
AcDbEntity
  8
0
  6
BYBLOCK
 62
0
100
AcDbBlockEnd
  0
BLOCK
  5
226
100
AcDbEntity
  8
0
100
AcDbBlockBegin
 62
7
  6
CONTINUOUS
  2
*D1
 70
65
 10
0.0
 20
0.0
  3
*D1
  1

  0
LINE
  5
227
100
AcDbEntity
  8
0
100
AcDbLine
 62
7
  6
CONTINUOUS
 10
-6.9822622524
 20
28.5983915305
 11
-6.9822622524
 21
39.1986203826
  0
LINE
  5
228
100
AcDbEntity
  8
0
100
AcDbLine
 62
7
  6
CONTINUOUS
 10
26.6177377476
 20
11.907271751
 11
26.6177377476
 21
39.1986203826
  0
LINE
  5
229
100
AcDbEntity
  8
0
100
AcDbLine
 62
7
  6
CONTINUOUS
 10
-6.9822622524
 20
37.6986203826
 11
9.8177377476
 21
37.6986203826
  0
LINE
  5
22A
100
AcDbEntity
  8
0
100
AcDbLine
 62
7
  6
CONTINUOUS
 10
26.6177377476
 20
37.6986203826
 11
9.8177377476
 21
37.6986203826
  0
INSERT
  5
22B
100
AcDbEntity
  8
0
100
AcDbBlockReference
 62
7
  6
CONTINUOUS
  2
_FILLED
 10
-6.9822622524
 20
37.6986203826
 41
3.0
 42
3.0
 43
3.0
 50
180.0
  0
INSERT
  5
22C
100
AcDbEntity
  8
0
100
AcDbBlockReference
 62
7
  6
CONTINUOUS
  2
_FILLED
 10
26.6177377476
 20
37.6986203826
 41
3.0
 42
3.0
 43
3.0
  0
ENDBLK
  5
22D
100
AcDbEntity
  8
0
  6
BYBLOCK
 62
0
100
AcDbBlockEnd
  0
BLOCK
  5
22E
100
AcDbEntity
  8
0
100
AcDbBlockBegin
 62
7
  6
CONTINUOUS
  2
*D2
 70
65
 10
0.0
 20
0.0
  3
*D2
  1

  0
LINE
  5
22F
100
AcDbEntity
  8
0
100
AcDbLine
 62
7
  6
CONTINUOUS
 10
42.1111510554
 20
28.5983915305
 11
42.1111510554
 21
39.1986203826
  0
LINE
  5
230
100
AcDbEntity
  8
0
100
AcDbLine
 62
7
  6
CONTINUOUS
 10
64.4111510554
 20
28.5983915305
 11
64.4111510554
 21
39.1986203826
  0
LINE
  5
231
100
AcDbEntity
  8
0
100
AcDbLine
 62
7
  6
CONTINUOUS
 10
42.1111510554
 20
37.6986203826
 11
53.2611510554
 21
37.6986203826
  0
LINE
  5
232
100
AcDbEntity
  8
0
100
AcDbLine
 62
7
  6
CONTINUOUS
 10
64.4111510554
 20
37.6986203826
 11
53.2611510554
 21
37.6986203826
  0
INSERT
  5
233
100
AcDbEntity
  8
0
100
AcDbBlockReference
 62
7
  6
CONTINUOUS
  2
_FILLED
 10
42.1111510554
 20
37.6986203826
 41
3.0
 42
3.0
 43
3.0
 50
180.0
  0
INSERT
  5
234
100
AcDbEntity
  8
0
100
AcDbBlockReference
 62
7
  6
CONTINUOUS
  2
_FILLED
 10
64.4111510554
 20
37.6986203826
 41
3.0
 42
3.0
 43
3.0
  0
ENDBLK
  5
235
100
AcDbEntity
  8
0
  6
BYBLOCK
 62
0
100
AcDbBlockEnd
  0
BLOCK
  5
236
100
AcDbEntity
  8
0
100
AcDbBlockBegin
 62
7
  6
CONTINUOUS
  2
*D3
 70
65
 10
0.0
 20
0.0
  3
*D3
  1

  0
LINE
  5
237
100
AcDbEntity
  8
0
100
AcDbLine
 62
7
  6
CONTINUOUS
 10
57.4360087194
 20
29.6986203826
 11
73.9111510554
 21
29.6986203826
  0
LINE
  5
238
100
AcDbEntity
  8
0
100
AcDbLine
 62
7
  6
CONTINUOUS
 10
57.436008822
 20
-17.3013796174
 11
73.9111510554
 21
-17.3013796174
  0
LINE
  5
239
100
AcDbEntity
  8
0
100
AcDbLine
 62
7
  6
CONTINUOUS
 10
72.4111510554
 20
29.6986203826
 11
72.4111510554
 21
6.1986203826
  0
LINE
  5
23A
100
AcDbEntity
  8
0
100
AcDbLine
 62
7
  6
CONTINUOUS
 10
72.4111510554
 20
-17.3013796174
 11
72.4111510554
 21
6.1986203826
  0
INSERT
  5
23B
100
AcDbEntity
  8
0
100
AcDbBlockReference
 62
7
  6
CONTINUOUS
  2
_FILLED
 10
72.4111510554
 20
29.6986203826
 41
3.0
 42
3.0
 43
3.0
 50
90.0
  0
INSERT
  5
23C
100
AcDbEntity
  8
0
100
AcDbBlockReference
 62
7
  6
CONTINUOUS
  2
_FILLED
 10
72.4111510554
 20
-17.3013796174
 41
3.0
 42
3.0
 43
3.0
 50
270.0
  0
ENDBLK
  5
23D
100
AcDbEntity
  8
0
  6
BYBLOCK
 62
0
100
AcDbBlockEnd
  0
ENDSEC
  0
SECTION
  2
ENTITIES
  0
DIMENSION
  5
23E
100
AcDbEntity
  8
0
100
AcDbDimension
 62
7
  6
CONTINUOUS
  2
*D0
 10
-16.4822622524
 20
47.6986203826
 11
1.1034520334
 21
47.6986203826
 70
160
 71
2
 72
2
 41
0.9
 42
43.1
  3
DIMSTYLE_1
100
AcDbAlignedDimension
 13
26.6177377476
 23
11.407271751
 14
-16.4822622524
 24
6.1986203826
 50
180.0
100
AcDbRotatedDimension
  0
DIMENSION
  5
23F
100
AcDbEntity
  8
0
100
AcDbDimension
 62
7
  6
CONTINUOUS
  2
*D1
 10
26.6177377476
 20
37.6986203826
 11
5.6391663191
 21
37.6986203826
 70
160
 71
2
 72
2
 41
0.9
 42
33.6
  3
DIMSTYLE_1
100
AcDbAlignedDimension
 13
-6.9822622524
 23
28.0983915305
 14
26.6177377476
 24
11.407271751
100
AcDbRotatedDimension
  0
DIMENSION
  5
240
100
AcDbEntity
  8
0
100
AcDbDimension
 62
7
  6
CONTINUOUS
  2
*D2
 10
64.4111510554
 20
37.6986203826
 11
48.9754367697
 21
37.6986203826
 70
160
 71
2
 72
2
 41
0.9
 42
22.3
  3
DIMSTYLE_1
100
AcDbAlignedDimension
 13
42.1111510554
 23
28.0983915305
 14
64.4111510554
 24
28.0983915305
100
AcDbRotatedDimension
  0
DIMENSION
  5
241
100
AcDbEntity
  8
0
100
AcDbDimension
 62
7
  6
CONTINUOUS
  2
*D3
 10
72.4111510554
 20
-17.3013796174
 11
72.4111510554
 21
3.8414775254
 70
160
 71
2
 72
2
 41
0.9
 42
47.0
  3
DIMSTYLE_1
100
AcDbAlignedDimension
 13
56.9360087194
 23
29.6986203826
 14
56.936008822
 24
-17.3013796174
 50
270.0
100
AcDbRotatedDimension
  0
LWPOLYLINE
  5
242
100
AcDbEntity
  8
0
100
AcDbPolyline
 62
7
  6
CONTINUOUS
 90
5
 70
0
 43
0.3500000006
 10
4.3177378807
 20
50.1629081268
 10
4.6748804827
 20
50.3771926117
 10
4.6748804827
 20
51.0200505981
 10
4.3177378807
 20
51.4486195679
 10
3.4605948429
 20
51.4486195679
  0
LWPOLYLINE
  5
243
100
AcDbEntity
  8
0
100
AcDbPolyline
 62
7
  6
CONTINUOUS
 90
3
 70
0
 43
0.3500000006
 10
7.3177376633
 20
50.5914770966
 10
8.1748807011
 20
51.4486195679
 10
8.1748807011
 20
48.4486186523
  0
LWPOLYLINE
  5
244
100
AcDbEntity
  8
0
100
AcDbPolyline
 62
7
  6
CONTINUOUS
 90
5
 70
0
 43
0.3500000006
 10
6.4963090839
 20
40.1629050751
 10
6.8534519691
 20
40.3771895599
 10
6.8534519691
 20
41.0200475464
 10
6.4963090839
 20
41.448621048
 10
5.6391660461
 20
41.448621048
  0
LWPOLYLINE
  5
245
100
AcDbEntity
  8
0
100
AcDbPolyline
 62
250
  6
CONTINUOUS
 90
8
 70
0
 10
-15.0935172723
 20
28.1735275198
 10
-15.0942832
 20
28.1707477539
 10
-15.0947543768
 20
28.1625341657
 10
-15.0949256464
 20
28.1489766405
 10
-15.0947951345
 20
28.1302235447
 10
-15.0943642693
 20
28.1064801027
 10
-15.0936377662
 20
28.0780061502
 10
-15.0913327966
 20
28.0081614893
  0
LWPOLYLINE
  5
246
100
AcDbEntity
  8
0
100
AcDbPolyline
 62
7
  6
CONTINUOUS
 90
5
 70
0
 43
0.3500000006
 10
8.6391663952
 20
40.1629050751
 10
8.9963092804
 20
40.3771895599
 10
8.9963092804
 20
41.0200475464
 10
8.6391663952
 20
41.448621048
 10
7.7820233574
 20
41.448621048
  0
LWPOLYLINE
  5
247
100
AcDbEntity
  8
0
100
AcDbPolyline
 62
250
  6
CONTINUOUS
 90
7
 70
0
 10
-15.0935172723
 20
-15.7762867546
 10
-15.094283202
 20
-15.7735068915
 10
-15.0947543707
 20
-15.7652930359
 10
-15.0949256237
 20
-15.7517351106
 10
-15.0947950882
 20
-15.7329815159
 10
-15.0943641946
 20
-15.7092375193
 10
-15.0936376615
 20
-15.6807630215
  0
LINE
  5
248
100
AcDbEntity
  8
0
100
AcDbLine
 62
7
  6
CONTINUOUS
 10
-6.9822622524
 20
-17.3013796174
 11
-2.9822622524
 21
-17.2315593577
  0
LWPOLYLINE
  5
249
100
AcDbEntity
  8
0
100
AcDbPolyline
 62
250
  6
CONTINUOUS
 90
19
 70
0
 10
-15.0760754974
 20
-15.2769719872
 10
-15.1172230958
 20
-15.2730665328
 10
-15.1574284965
 20
-15.2659509331
 10
-15.1966916993
 20
-15.2556251881
 10
-15.2352787738
 20
-15.2419745798
 10
-15.2729236504
 20
-15.2251138261
 10
-15.3088281212
 20
-15.2053870816
 10
-15.3429404369
 20
-15.1827402416
 10
-15.3753123467
 20
-15.1572274106
 10
-15.4053008908
 20
-15.1293550568
 10
-15.4328588815
 20
-15.0990751239
 10
-15.4580335065
 20
-15.0664356682
 10
-15.4803233682
 20
-15.0320873259
 10
-15.4996729698
 20
-14.9959779534
 10
-15.5161378082
 20
-14.9581596943
 10
-15.5293829765
 20
-14.9194396161
 10
-15.5392968392
 20
-14.8800867412
 10
-15.5459910318
 20
-14.8398320472
 10
-15.5494655544
 20
-14.7986755341
  0
LWPOLYLINE
  5
24A
100
AcDbEntity
  8
0
100
AcDbPolyline
 62
250
  6
CONTINUOUS
 90
10
 70
0
 10
-15.5494655544
 20
-14.7986755341
 10
-15.7238914068
 20
-10.133844095
 10
-15.8547107905
 20
-5.4683952175
 10
-15.9419237056
 20
-0.8023289015
 10
-15.9855301448
 20
3.8647666642
 10
-15.9855301152
 20
8.5324796683
 10
-15.9419236392
 20
13.1995746773
 10
-15.8547107241
 20
17.8656398798
 10
-15.7238913625
 20
22.5310870871
 10
-15.5494655544
 20
27.1959162993
  0
LWPOLYLINE
  5
24B
100
AcDbEntity
  8
0
100
AcDbPolyline
 62
250
  6
CONTINUOUS
 90
19
 70
0
 10
-15.5494655544
 20
27.1959162993
 10
-15.5459910317
 20
27.2370728124
 10
-15.539296839
 20
27.2773275064
 10
-15.5293829764
 20
27.3166803812
 10
-15.5161378081
 20
27.3554004595
 10
-15.4996729699
 20
27.3932187186
 10
-15.4803233683
 20
27.4293280912
 10
-15.4580335066
 20
27.4636764334
 10
-15.4328588816
 20
27.4963158892
 10
-15.4053008908
 20
27.526595822
 10
-15.3753123467
 20
27.5544681757
 10
-15.3429404368
 20
27.5799810066
 10
-15.3088281211
 20
27.6026278466
 10
-15.2729236503
 20
27.6223545912
 10
-15.2352787738
 20
27.639215345
 10
-15.1966916994
 20
27.6528659535
 10
-15.1574284965
 20
27.6631916985
 10
-15.1172230959
 20
27.6703072981
 10
-15.0760754974
 20
27.6742127524
  0
LINE
  5
24C
100
AcDbEntity
  8
0
100
AcDbLine
 62
7
  6
CONTINUOUS
 10
-2.9822622524
 20
-16.9012700922
 11
-5.1910488969
 21
-16.9464874426
  0
LINE
  5
24D
100
AcDbEntity
  8
0
100
AcDbLine
 62
7
  6
CONTINUOUS
 10
-5.1910488969
 20
-16.9464874426
 11
-6.9822622524
 21
-16.9812881792
  0
LINE
  5
24E
100
AcDbEntity
  8
0
100
AcDbLine
 62
250
  6
CONTINUOUS
 10
-6.9822622524
 20
-17.1347392749
 11
-2.9822622524
 21
-17.0644869792
  0
LINE
  5
24F
100
AcDbEntity
  8
RACCORDO
100
AcDbLine
 62
7
  6
CONTINUOUS
 10
0.9885925456
 20
-14.9320680891
 11
-2.7857527336
 21
-14.997949531
  0
LINE
  5
250
100
AcDbEntity
  8
0
100
AcDbLine
 62
7
  6
CONTINUOUS
 10
-2.9822622524
 20
-16.4312462201
 11
-6.9822622524
 21
-16.4645462394
  0
LINE
  5
251
100
AcDbEntity
  8
0
100
AcDbLine
 62
7
  6
CONTINUOUS
 10
-0.8327667685
 20
-16.0013796174
 11
-1.3822622524
 21
-16.0013796174
  0
LINE
  5
252
100
AcDbEntity
  8
0
100
AcDbLine
 62
7
  6
CONTINUOUS
 10
-6.9822622524
 20
-16.2013796174
 11
-15.0935172723
 21
-15.7762867546
  0
LINE
  5
253
100
AcDbEntity
  8
0
100
AcDbLine
 62
250
  6
CONTINUOUS
 10
-6.9822622524
 20
-15.7011507653
 11
-15.0760754974
 21
-15.2769719872
  0
LINE
  5
254
100
AcDbEntity
  8
0
100
AcDbLine
 62
250
  6
CONTINUOUS
 10
-15.0837282444
 20
27.8284228134
 11
-15.0760754974
 21
27.6742127524
  0
LINE
  5
255
100
AcDbEntity
  8
0
100
AcDbLine
 62
250
  6
CONTINUOUS
 10
-15.0879808471
 20
27.9237385729
 11
-15.0837282444
 21
27.8284228134
  0
LINE
  5
256
100
AcDbEntity
  8
0
100
AcDbLine
 62
250
  6
CONTINUOUS
 10
-15.0913327966
 20
28.0081614893
 11
-15.0879808471
 21
27.9237385729
  0
LINE
  5
257
100
AcDbEntity
  8
0
100
AcDbLine
 62
250
  6
CONTINUOUS
 10
-15.0936376615
 20
-15.6807630215
 11
-15.0913326386
 21
-15.6109174936
  0
LINE
  5
258
100
AcDbEntity
  8
0
100
AcDbLine
 62
250
  6
CONTINUOUS
 10
-15.0913326386
 20
-15.6109174936
 11
-15.087980665
 21
-15.5264943387
  0
LINE
  5
259
100
AcDbEntity
  8
0
100
AcDbLine
 62
250
  6
CONTINUOUS
 10
-15.087980665
 20
-15.5264943387
 11
-15.0813207664
 21
-15.3807238187
  0
LINE
  5
25A
100
AcDbEntity
  8
0
100
AcDbLine
 62
250
  6
CONTINUOUS
 10
-15.0813207664
 20
-15.3807238187
 11
-15.0760754974
 21
-15.2769719872
  0
LWPOLYLINE
  5
25B
100
AcDbEntity
  8
0
100
AcDbPolyline
 62
7
  6
CONTINUOUS
 90
10
 70
0
 43
0.3500000006
 10
12.7105948334
 20
41.448621048
 10
12.0677379799
 20
40.8057630615
 10
11.6391667442
 20
39.9486205902
 10
11.6391667442
 20
38.877193634
 10
12.0677379799
 20
38.4486201324
 10
12.7105948334
 20
38.4486201324
 10
13.139166069
 20
38.877193634
 10
13.139166069
 20
39.7343361053
 10
12.7105948334
 20
40.1629050751
 10
11.7820234451
 20
40.1629050751
  0
LWPOLYLINE
  5
25C
100
AcDbEntity
  8
RACCORDO
100
AcDbPolyline
 62
250
  6
CONTINUOUS
 90
15
 70
0
 10
2.7216272548
 20
-13.4732124807
 10
2.6637098044
 20
-13.478540824
 10
2.6057264615
 20
-13.4868753816
 10
2.5475418691
 20
-13.4981490558
 10
2.4892913841
 20
-13.5124213204
 10
2.4313810776
 20
-13.5298777753
 10
2.3737094643
 20
-13.5505658985
 10
2.3163780296
 20
-13.574420734
 10
2.2600972996
 20
-13.6014562979
 10
2.2048820874
 20
-13.6317150455
 10
2.1507175801
 20
-13.6651268781
 10
2.0982698652
 20
-13.7015349613
 10
2.047760972
 20
-13.7408753212
 10
1.9989688713
 20
-13.7831761393
 10
1.951893563
 20
-13.8284170749
  0
LINE
  5
25D
100
AcDbEntity
  8
0
100
AcDbLine
 62
250
  6
CONTINUOUS
 10
-16.0402973776
 20
-14.819693848
 11
-16.0376227097
 21
-14.8195433564
  0
LINE
  5
25E
100
AcDbEntity
  8
0
100
AcDbLine
 62
250
  6
CONTINUOUS
 10
-16.0376227097
 20
-14.8195433564
 11
-15.5494655544
 21
-14.7986755341
  0
LINE
  5
25F
100
AcDbEntity
  8
RACCORDO
100
AcDbLine
 62
250
  6
CONTINUOUS
 10
2.7794788127
 20
-13.4708921376
 11
2.7216272548
 21
-13.4732124807
  0
LINE
  5
260
100
AcDbEntity
  8
RACCORDO
100
AcDbLine
 62
250
  6
CONTINUOUS
 10
0.9886124371
 20
-14.809098381
 11
-2.7857525934
 21
-14.8752748386
  0
LINE
  5
261
100
AcDbEntity
  8
RACCORDO
100
AcDbLine
 62
7
  6
CONTINUOUS
 10
26.1264639509
 20
-13.2099548334
 11
2.7794788127
 21
-13.6174779749
  0
LINE
  5
262
100
AcDbEntity
  8
RACCORDO
100
AcDbLine
 62
250
  6
CONTINUOUS
 10
26.1264639509
 20
-13.0611499481
 11
2.7794788127
 21
-13.4708921376
  0
LINE
  5
263
100
AcDbEntity
  8
CURVE
100
AcDbLine
 62
7
  6
CONTINUOUS
 10
-4.6840002585
 20
20.8235178652
 11
-4.6046034627
 21
20.902914661
  0
LINE
  5
264
100
AcDbEntity
  8
CURVE
100
AcDbLine
 62
7
  6
CONTINUOUS
 10
-4.7825759087
 20
20.5149315009
 11
-4.6625130134
 21
20.6349943962
  0
LINE
  5
265
100
AcDbEntity
  8
CURVE
100
AcDbLine
 62
7
  6
CONTINUOUS
 10
-4.4373539077
 20
20.860153502
 11
-4.3006459659
 21
20.9968614437
  0
LINE
  5
266
100
AcDbEntity
  8
CURVE
100
AcDbLine
 62
7
  6
CONTINUOUS
 10
-4.7838159582
 20
20.3036807374
 11
-4.6878603334
 21
20.3996363622
  0
LINE
  5
267
100
AcDbEntity
  8
CURVE
100
AcDbLine
 62
7
  6
CONTINUOUS
 10
-4.2077489847
 20
20.8797477109
 11
-4.1125099001
 21
20.9749867956
  0
LINE
  5
268
100
AcDbEntity
  8
CURVE
100
AcDbLine
 62
7
  6
CONTINUOUS
 10
-4.7838159582
 20
20.0936700234
 11
-4.6878603334
 21
20.1896256482
  0
LINE
  5
269
100
AcDbEntity
  8
CURVE
100
AcDbLine
 62
7
  6
CONTINUOUS
 10
-4.0549628976
 20
20.822523084
 11
-3.9733178326
 21
20.9041681491
  0
LINE
  5
26A
100
AcDbEntity
  8
RACCORDO
100
AcDbLine
 62
250
  6
CONTINUOUS
 10
26.1264639509
 20
-10.9710656217
 11
-6.9822622524
 21
-11.1608091866
  0
LINE
  5
26B
100
AcDbEntity
  8
CURVE
100
AcDbLine
 62
250
  6
CONTINUOUS
 10
-2.2842447447
 20
20.8486203826
 11
-2.4984651777
 21
20.6343347705
  0
LINE
  5
26C
100
AcDbEntity
  8
CURVE
100
AcDbLine
 62
250
  6
CONTINUOUS
 10
-2.4984651777
 20
19.5629059947
 11
-2.2842447447
 21
19.7771919644
  0
LINE
  5
26D
100
AcDbEntity
  8
CURVE
100
AcDbLine
 62
7
  6
CONTINUOUS
 10
-4.7838159582
 20
19.8836593094
 11
-4.6878603334
 21
19.9796149342
  0
LINE
  5
26E
100
AcDbEntity
  8
CURVE
100
AcDbLine
 62
7
  6
CONTINUOUS
 10
-3.9496943776
 20
20.71778089
 11
-3.8730510206
 21
20.794424247
  0
LINE
  5
26F
100
AcDbEntity
  8
CURVE
100
AcDbLine
 62
7
  6
CONTINUOUS
 10
-4.7532544365
 20
19.7042101171
 11
-4.6420646825
 21
19.815399871
  0
LINE
  5
270
100
AcDbEntity
  8
CURVE
100
AcDbLine
 62
7
  6
CONTINUOUS
 10
-3.8906355462
 20
20.5668290074
 11
-3.8105542307
 21
20.6469103229
  0
LINE
  5
271
100
AcDbEntity
  8
CURVE
100
AcDbLine
 62
7
  6
CONTINUOUS
 10
-4.5432437224
 20
19.7042101171
 11
-4.4320539685
 21
19.815399871
  0
LINE
  5
272
100
AcDbEntity
  8
CURVE
100
AcDbLine
 62
7
  6
CONTINUOUS
 10
-3.8799058514
 20
20.3675479882
 11
-3.7847938704
 21
20.4626599692
  0
LINE
  5
273
100
AcDbEntity
  8
CURVE
100
AcDbLine
 62
7
  6
CONTINUOUS
 10
-4.7624246878
 20
19.2750184377
 11
-4.6513047146
 21
19.386138411
  0
LINE
  5
274
100
AcDbEntity
  8
CURVE
100
AcDbLine
 62
7
  6
CONTINUOUS
 10
-4.3332330084
 20
19.7042101171
 11
-4.2220432545
 21
19.815399871
  0
LINE
  5
275
100
AcDbEntity
  8
CURVE
100
AcDbLine
 62
7
  6
CONTINUOUS
 10
-3.8799058514
 20
20.1575372742
 11
-3.7839502266
 21
20.253492899
  0
LINE
  5
276
100
AcDbEntity
  8
CURVE
100
AcDbLine
 62
7
  6
CONTINUOUS
 10
-4.5524139738
 20
19.2750184377
 11
-4.4412940006
 21
19.386138411
  0
LINE
  5
277
100
AcDbEntity
  8
CURVE
100
AcDbLine
 62
7
  6
CONTINUOUS
 10
-4.1232222944
 20
19.7042101171
 11
-4.0120325405
 21
19.815399871
  0
LINE
  5
278
100
AcDbEntity
  8
CURVE
100
AcDbLine
 62
7
  6
CONTINUOUS
 10
-3.8799058514
 20
19.9475265602
 11
-3.7839502266
 21
20.043482185
  0
LINE
  5
279
100
AcDbEntity
  8
CURVE
100
AcDbLine
 62
7
  6
CONTINUOUS
 10
-4.3424032598
 20
19.2750184377
 11
-4.2312832865
 21
19.386138411
  0
LINE
  5
27A
100
AcDbEntity
  8
CURVE
100
AcDbLine
 62
7
  6
CONTINUOUS
 10
-3.9132115804
 20
19.7042101171
 11
-3.7839502266
 21
19.833471471
  0
LINE
  5
27B
100
AcDbEntity
  8
CURVE
100
AcDbLine
 62
7
  6
CONTINUOUS
 10
-4.1323925458
 20
19.2750184377
 11
-4.0212725725
 21
19.386138411
  0
LINE
  5
27C
100
AcDbEntity
  8
CURVE
100
AcDbLine
 62
7
  6
CONTINUOUS
 10
-3.7032008664
 20
19.7042101171
 11
-3.5920111125
 21
19.815399871
  0
LINE
  5
27D
100
AcDbEntity
  8
CURVE
100
AcDbLine
 62
7
  6
CONTINUOUS
 10
-3.9223818318
 20
19.2750184377
 11
-3.8112618585
 21
19.386138411
  0
LINE
  5
27E
100
AcDbEntity
  8
CURVE
100
AcDbLine
 62
7
  6
CONTINUOUS
 10
-3.4931901524
 20
19.7042101171
 11
-3.3820003985
 21
19.815399871
  0
LINE
  5
27F
100
AcDbEntity
  8
CURVE
100
AcDbLine
 62
7
  6
CONTINUOUS
 10
-3.7123711178
 20
19.2750184377
 11
-3.6041759174
 21
19.3832136381
  0
LINE
  5
280
100
AcDbEntity
  8
CURVE
100
AcDbLine
 62
7
  6
CONTINUOUS
 10
-3.2831794384
 20
19.7042101171
 11
-3.1719896845
 21
19.815399871
  0
LINE
  5
281
100
AcDbEntity
  8
CURVE
100
AcDbLine
 62
7
  6
CONTINUOUS
 10
-4.7702312582
 20
18.0071475833
 11
-4.6591102434
 21
18.1182685981
  0
LINE
  5
282
100
AcDbEntity
  8
CURVE
100
AcDbLine
 62
7
  6
CONTINUOUS
 10
-3.5148761582
 20
19.2625026833
 11
-3.420916991
 21
19.3564618504
  0
LINE
  5
283
100
AcDbEntity
  8
CURVE
100
AcDbLine
 62
7
  6
CONTINUOUS
 10
-3.0731687244
 20
19.7042101171
 11
-2.981061631
 21
19.7963172105
  0
LINE
  5
284
100
AcDbEntity
  8
CURVE
100
AcDbLine
 62
7
  6
CONTINUOUS
 10
-4.5602205442
 20
18.0071475833
 11
-4.4490995294
 21
18.1182685981
  0
LINE
  5
285
100
AcDbEntity
  8
CURVE
100
AcDbLine
 62
7
  6
CONTINUOUS
 10
-3.3474978317
 20
19.2198702957
 11
-3.2651407736
 21
19.3022273539
  0
LINE
  5
286
100
AcDbEntity
  8
CURVE
100
AcDbLine
 62
7
  6
CONTINUOUS
 10
-4.3502098302
 20
18.0071475833
 11
-4.2390888154
 21
18.1182685981
  0
LINE
  5
287
100
AcDbEntity
  8
CURVE
100
AcDbLine
 62
7
  6
CONTINUOUS
 10
-3.2136597437
 20
19.1436976697
 11
-3.13826225
 21
19.2190951635
  0
LINE
  5
288
100
AcDbEntity
  8
CURVE
100
AcDbLine
 62
7
  6
CONTINUOUS
 10
-4.7821378675
 20
17.3652088319
 11
-4.7643113169
 21
17.3830353826
  0
LINE
  5
289
100
AcDbEntity
  8
CURVE
100
AcDbLine
 62
7
  6
CONTINUOUS
 10
-4.1401991161
 20
18.0071475833
 11
-4.0290781014
 21
18.1182685981
  0
LINE
  5
28A
100
AcDbEntity
  8
CURVE
100
AcDbLine
 62
7
  6
CONTINUOUS
 10
-3.116351923
 20
19.0309947765
 11
-3.0416273739
 21
19.1057193256
  0
LINE
  5
28B
100
AcDbEntity
  8
CURVE
100
AcDbLine
 62
7
  6
CONTINUOUS
 10
-4.7821378675
 20
17.1551981179
 11
-4.5805202962
 21
17.3568156892
  0
LINE
  5
28C
100
AcDbEntity
  8
CURVE
100
AcDbLine
 62
7
  6
CONTINUOUS
 10
-3.9301884021
 20
18.0071475833
 11
-3.8190673874
 21
18.1182685981
  0
LINE
  5
28D
100
AcDbEntity
  8
CURVE
100
AcDbLine
 62
7
  6
CONTINUOUS
 10
-3.0549867055
 20
18.8823492799
 11
-2.9765674154
 21
18.9607685701
  0
LINE
  5
28E
100
AcDbEntity
  8
CURVE
100
AcDbLine
 62
250
  6
CONTINUOUS
 10
-2.0700243117
 20
20.9557631886
 11
-2.2842447447
 21
20.8486203826
  0
LINE
  5
28F
100
AcDbEntity
  8
CURVE
100
AcDbLine
 62
250
  6
CONTINUOUS
 10
-1.4273629681
 20
20.2057631886
 11
-1.2131425127
 21
20.3129059947
  0
LINE
  5
290
100
AcDbEntity
  8
RACCORDO
100
AcDbLine
 62
250
  6
CONTINUOUS
 10
26.1264639509
 20
-9.7190039381
 11
-6.9822622524
 21
-9.9210387834
  0
LINE
  5
291
100
AcDbEntity
  8
0
100
AcDbLine
 62
7
  6
CONTINUOUS
 10
26.6177377476
 20
-10.3753916174
 11
26.7177377476
 21
-10.3753916174
  0
LINE
  5
292
100
AcDbEntity
  8
RACCORDO
100
AcDbLine
 62
250
  6
CONTINUOUS
 10
26.6177377476
 20
-9.7190039381
 11
26.1264639509
 21
-9.7190039369
  0
LINE
  5
293
100
AcDbEntity
  8
0
100
AcDbLine
 62
7
  6
CONTINUOUS
 10
26.6177377476
 20
-9.2253916174
 11
26.7177377476
 21
-9.2253916174
  0
LINE
  5
294
100
AcDbEntity
  8
CURVE
100
AcDbLine
 62
250
  6
CONTINUOUS
 10
-1.2131425127
 20
20.3129059947
 11
-0.9989220574
 21
20.5271919644
  0
LINE
  5
295
100
AcDbEntity
  8
CURVE
100
AcDbLine
 62
250
  6
CONTINUOUS
 10
-1.8558038787
 20
18.3843345917
 11
-1.641583401
 21
18.5986203826
  0
LINE
  5
296
100
AcDbEntity
  8
CURVE
100
AcDbLine
 62
250
  6
CONTINUOUS
 10
-2.4984651777
 20
17.3129061735
 11
-2.2842447447
 21
17.5271917856
  0
LINE
  5
297
100
AcDbEntity
  8
CURVE
100
AcDbLine
 62
7
  6
CONTINUOUS
 10
-4.7821378675
 20
16.9451874039
 11
-4.5805202962
 21
17.1468049752
  0
LINE
  5
298
100
AcDbEntity
  8
CURVE
100
AcDbLine
 62
7
  6
CONTINUOUS
 10
-3.7201776881
 20
18.0071475833
 11
-3.605374059
 21
18.1219512125
  0
LINE
  5
299
100
AcDbEntity
  8
CURVE
100
AcDbLine
 62
7
  6
CONTINUOUS
 10
-3.0342553703
 20
18.6930699012
 11
-2.9425094591
 21
18.7848158123
  0
LINE
  5
29A
100
AcDbEntity
  8
CURVE
100
AcDbLine
 62
7
  6
CONTINUOUS
 10
-4.7821378675
 20
16.7351766899
 11
-4.5805202962
 21
16.9367942612
  0
LINE
  5
29B
100
AcDbEntity
  8
CURVE
100
AcDbLine
 62
7
  6
CONTINUOUS
 10
-3.4963987082
 20
18.0209158492
 11
-3.3324954236
 21
18.1848191338
  0
LINE
  5
29C
100
AcDbEntity
  8
CURVE
100
AcDbLine
 62
7
  6
CONTINUOUS
 10
-3.0762646114
 20
18.441049946
 11
-2.9445662465
 21
18.5727483109
  0
LINE
  5
29D
100
AcDbEntity
  8
CURVE
100
AcDbLine
 62
7
  6
CONTINUOUS
 10
-4.7821378675
 20
16.5251659759
 11
-4.5805202962
 21
16.7267835472
  0
LINE
  5
29E
100
AcDbEntity
  8
CURVE
100
AcDbLine
 62
7
  6
CONTINUOUS
 10
-4.0084196035
 20
17.2988842399
 11
-3.9922854608
 21
17.3150183826
  0
LINE
  5
29F
100
AcDbEntity
  8
CURVE
100
AcDbLine
 62
7
  6
CONTINUOUS
 10
-3.128200553
 20
18.1791032904
 11
-3.0855701742
 21
18.2217336692
  0
LINE
  5
2A0
100
AcDbEntity
  8
CURVE
100
AcDbLine
 62
7
  6
CONTINUOUS
 10
-4.7821378675
 20
16.3151552619
 11
-4.5805202962
 21
16.5167728332
  0
LINE
  5
2A1
100
AcDbEntity
  8
CURVE
100
AcDbLine
 62
7
  6
CONTINUOUS
 10
-4.0084196035
 20
17.0888735259
 11
-3.8067850373
 21
17.2905080921
  0
LINE
  5
2A2
100
AcDbEntity
  8
CURVE
100
AcDbLine
 62
7
  6
CONTINUOUS
 10
-4.7471020328
 20
16.1401803826
 11
-4.5076090328
 21
16.3796733826
  0
LINE
  5
2A3
100
AcDbEntity
  8
CURVE
100
AcDbLine
 62
7
  6
CONTINUOUS
 10
-4.0084196035
 20
16.8788628119
 11
-3.8067850373
 21
17.080497378
  0
LINE
  5
2A4
100
AcDbEntity
  8
CURVE
100
AcDbLine
 62
7
  6
CONTINUOUS
 10
-4.5370913188
 20
16.1401803826
 11
-4.2975983188
 21
16.3796733826
  0
LINE
  5
2A5
100
AcDbEntity
  8
CURVE
100
AcDbLine
 62
7
  6
CONTINUOUS
 10
-4.0084196035
 20
16.6688520979
 11
-3.8067850373
 21
16.870486664
  0
LINE
  5
2A6
100
AcDbEntity
  8
CURVE
100
AcDbLine
 62
7
  6
CONTINUOUS
 10
-4.782132869
 20
15.6851281183
 11
-4.6714879144
 21
15.7957730729
  0
LINE
  5
2A7
100
AcDbEntity
  8
CURVE
100
AcDbLine
 62
7
  6
CONTINUOUS
 10
-4.3270806048
 20
16.1401803826
 11
-4.0875876048
 21
16.3796733826
  0
LINE
  5
2A8
100
AcDbEntity
  8
CURVE
100
AcDbLine
 62
7
  6
CONTINUOUS
 10
-4.0084196035
 20
16.4588413839
 11
-3.8067850373
 21
16.66047595
  0
LINE
  5
2A9
100
AcDbEntity
  8
CURVE
100
AcDbLine
 62
7
  6
CONTINUOUS
 10
-3.1842926979
 20
17.2829682895
 11
-3.0766336048
 21
17.3906273826
  0
LINE
  5
2AA
100
AcDbEntity
  8
CURVE
100
AcDbLine
 62
7
  6
CONTINUOUS
 10
-4.6992785043
 20
15.5579717691
 11
-4.5165969673
 21
15.740653306
  0
LINE
  5
2AB
100
AcDbEntity
  8
CURVE
100
AcDbLine
 62
7
  6
CONTINUOUS
 10
-4.1170698908
 20
16.1401803826
 11
-3.8067850373
 21
16.450465236
  0
LINE
  5
2AC
100
AcDbEntity
  8
CURVE
100
AcDbLine
 62
7
  6
CONTINUOUS
 10
-3.1842926979
 20
17.0729575755
 11
-2.9826751266
 21
17.2745751468
  0
LINE
  5
2AD
100
AcDbEntity
  8
CURVE
100
AcDbLine
 62
7
  6
CONTINUOUS
 10
-4.5417169729
 20
15.5055225865
 11
-4.3617060202
 21
15.6855335391
  0
LINE
  5
2AE
100
AcDbEntity
  8
CURVE
100
AcDbLine
 62
7
  6
CONTINUOUS
 10
-3.9070591767
 20
16.1401803826
 11
-3.6675661767
 21
16.3796733826
  0
LINE
  5
2AF
100
AcDbEntity
  8
CURVE
100
AcDbLine
 62
7
  6
CONTINUOUS
 10
-3.1842926979
 20
16.8629468615
 11
-2.9826751266
 21
17.0645644328
  0
LINE
  5
2B0
100
AcDbEntity
  8
CURVE
100
AcDbLine
 62
7
  6
CONTINUOUS
 10
-4.3841554414
 20
15.4530734039
 11
-4.2068150732
 21
15.6304137722
  0
LINE
  5
2B1
100
AcDbEntity
  8
CURVE
100
AcDbLine
 62
7
  6
CONTINUOUS
 10
-3.6970484627
 20
16.1401803826
 11
-3.4575554627
 21
16.3796733826
  0
LINE
  5
2B2
100
AcDbEntity
  8
CURVE
100
AcDbLine
 62
7
  6
CONTINUOUS
 10
-3.1842926979
 20
16.6529361475
 11
-2.9826751266
 21
16.8545537188
  0
LINE
  5
2B3
100
AcDbEntity
  8
CURVE
100
AcDbLine
 62
7
  6
CONTINUOUS
 10
-4.22659391
 20
15.4006242213
 11
-4.0519241261
 21
15.5752940052
  0
LINE
  5
2B4
100
AcDbEntity
  8
CURVE
100
AcDbLine
 62
7
  6
CONTINUOUS
 10
-3.4870377487
 20
16.1401803826
 11
-3.2475447487
 21
16.3796733826
  0
LINE
  5
2B5
100
AcDbEntity
  8
CURVE
100
AcDbLine
 62
7
  6
CONTINUOUS
 10
-3.1842926979
 20
16.4429254334
 11
-2.9826751266
 21
16.6445430047
  0
LINE
  5
2B6
100
AcDbEntity
  8
CURVE
100
AcDbLine
 62
7
  6
CONTINUOUS
 10
-4.0690323786
 20
15.3481750387
 11
-3.897033179
 21
15.5201742383
  0
LINE
  5
2B7
100
AcDbEntity
  8
CURVE
100
AcDbLine
 62
7
  6
CONTINUOUS
 10
-3.2770270347
 20
16.1401803826
 11
-2.9826751266
 21
16.4345322907
  0
LINE
  5
2B8
100
AcDbEntity
  8
CURVE
100
AcDbLine
 62
7
  6
CONTINUOUS
 10
-4.782132869
 20
14.4250638342
 11
-4.6004187453
 21
14.606777958
  0
LINE
  5
2B9
100
AcDbEntity
  8
CURVE
100
AcDbLine
 62
7
  6
CONTINUOUS
 10
-3.9114708472
 20
15.2957258561
 11
-3.7421422319
 21
15.4650544714
  0
LINE
  5
2BA
100
AcDbEntity
  8
CURVE
100
AcDbLine
 62
7
  6
CONTINUOUS
 10
-3.0670163207
 20
16.1401803826
 11
-2.9826751266
 21
16.2245215767
  0
LINE
  5
2BB
100
AcDbEntity
  8
CURVE
100
AcDbLine
 62
7
  6
CONTINUOUS
 10
-4.6705527679
 20
14.3266332213
 11
-4.2871168194
 21
14.7100691699
  0
LINE
  5
2BC
100
AcDbEntity
  8
CURVE
100
AcDbLine
 62
7
  6
CONTINUOUS
 10
-3.7539093158
 20
15.2432766735
 11
-3.5872512848
 21
15.4099347045
  0
LINE
  5
2BD
100
AcDbEntity
  8
CURVE
100
AcDbLine
 62
7
  6
CONTINUOUS
 10
-4.7821378675
 20
14.0050374077
 11
-4.7116678927
 21
14.0755073826
  0
LINE
  5
2BE
100
AcDbEntity
  8
CURVE
100
AcDbLine
 62
7
  6
CONTINUOUS
 10
-4.3459384809
 20
14.4412367944
 11
-3.9738148935
 21
14.8133603817
  0
LINE
  5
2BF
100
AcDbEntity
  8
CURVE
100
AcDbLine
 62
7
  6
CONTINUOUS
 10
-3.5963477843
 20
15.1908274909
 11
-3.4323603377
 21
15.3548149375
  0
LINE
  5
2C0
100
AcDbEntity
  8
CURVE
100
AcDbLine
 62
250
  6
CONTINUOUS
 10
-2.4984651777
 20
18.3843345917
 11
-2.2842447447
 21
18.5629060543
  0
LINE
  5
2C1
100
AcDbEntity
  8
0
100
AcDbLine
 62
250
  6
CONTINUOUS
 10
-0.2822622524
 20
-6.8013796174
 11
1.0177377476
 21
-6.8013796174
  0
LINE
  5
2C2
100
AcDbEntity
  8
0
100
AcDbLine
 62
250
  6
CONTINUOUS
 10
1.7177377476
 20
-6.4299510294
 11
3.0177377476
 21
-6.4299510294
  0
LINE
  5
2C3
100
AcDbEntity
  8
0
100
AcDbLine
 62
250
  6
CONTINUOUS
 10
-0.2822622524
 20
-5.3156652653
 11
1.0177377476
 21
-5.6870938921
  0
LINE
  5
2C4
100
AcDbEntity
  8
0
100
AcDbLine
 62
250
  6
CONTINUOUS
 10
-0.2822622524
 20
-6.0585224413
 11
0.460594885
 21
-6.4299510294
  0
LINE
  5
2C5
100
AcDbEntity
  8
0
100
AcDbLine
 62
7
  6
CONTINUOUS
 10
-6.9822622524
 20
-17.3013796174
 11
-6.9822622524
 21
29.6986203826
  0
LWPOLYLINE
  5
2C6
100
AcDbEntity
  8
0
100
AcDbPolyline
 62
7
  6
CONTINUOUS
 90
3
 70
0
 43
0.3500000006
 10
6.3177379246
 20
48.7343343201
 10
6.2463090076
 20
48.5200498352
 10
6.1034523067
 20
48.2343341675
  0
LINE
  5
2C7
100
AcDbEntity
  8
CURVE
100
AcDbLine
 62
250
  6
CONTINUOUS
 10
-1.641583401
 20
16.9914774871
 11
-1.8558038787
 21
16.7771917856
  0
LINE
  5
2C8
100
AcDbEntity
  8
CURVE
100
AcDbLine
 62
250
  6
CONTINUOUS
 10
-2.2842447447
 20
16.2414775318
 11
-2.4984651777
 21
16.0271918303
  0
LINE
  5
2C9
100
AcDbEntity
  8
CURVE
100
AcDbLine
 62
250
  6
CONTINUOUS
 10
-1.2131425127
 20
15.7057632445
 11
-0.9989220574
 21
15.9200489572
  0
LINE
  5
2CA
100
AcDbEntity
  8
CURVE
100
AcDbLine
 62
7
  6
CONTINUOUS
 10
-4.7821378675
 20
13.7950266937
 11
-4.5805202962
 21
13.996644265
  0
LINE
  5
2CB
100
AcDbEntity
  8
CURVE
100
AcDbLine
 62
7
  6
CONTINUOUS
 10
-4.0213241938
 20
14.5558403674
 11
-3.6605129677
 21
14.9166515936
  0
LINE
  5
2CC
100
AcDbEntity
  8
CURVE
100
AcDbLine
 62
7
  6
CONTINUOUS
 10
-3.4387862529
 20
15.1383783083
 11
-3.2774693906
 21
15.2996951706
  0
LINE
  5
2CD
100
AcDbEntity
  8
CURVE
100
AcDbLine
 62
7
  6
CONTINUOUS
 10
-4.7821378675
 20
13.5850159797
 11
-4.5805202962
 21
13.786633551
  0
LINE
  5
2CE
100
AcDbEntity
  8
CURVE
100
AcDbLine
 62
7
  6
CONTINUOUS
 10
-3.6967099068
 20
14.6704439404
 11
-3.3472110418
 21
15.0199428054
  0
LINE
  5
2CF
100
AcDbEntity
  8
CURVE
100
AcDbLine
 62
7
  6
CONTINUOUS
 10
-3.2812247215
 20
15.0859291257
 11
-3.1225784436
 21
15.2445754037
  0
LINE
  5
2D0
100
AcDbEntity
  8
CURVE
100
AcDbLine
 62
7
  6
CONTINUOUS
 10
-4.7821378675
 20
13.3750052657
 11
-4.5805202962
 21
13.576622837
  0
LINE
  5
2D1
100
AcDbEntity
  8
CURVE
100
AcDbLine
 62
7
  6
CONTINUOUS
 10
-3.3720956198
 20
14.7850475134
 11
-2.9826701281
 21
15.1744730051
  0
LINE
  5
2D2
100
AcDbEntity
  8
CURVE
100
AcDbLine
 62
7
  6
CONTINUOUS
 10
-4.7821378675
 20
13.1649945517
 11
-4.5805202962
 21
13.366612123
  0
LINE
  5
2D3
100
AcDbEntity
  8
CURVE
100
AcDbLine
 62
7
  6
CONTINUOUS
 10
-4.0084196035
 20
13.9387128157
 11
-3.9396940366
 21
14.0074383826
  0
LINE
  5
2D4
100
AcDbEntity
  8
CURVE
100
AcDbLine
 62
7
  6
CONTINUOUS
 10
-3.0474813327
 20
14.8996510865
 11
-2.9826701281
 21
14.9644622911
  0
LINE
  5
2D5
100
AcDbEntity
  8
CURVE
100
AcDbLine
 62
7
  6
CONTINUOUS
 10
-4.7821378675
 20
12.9549838377
 11
-4.5805202962
 21
13.156601409
  0
LINE
  5
2D6
100
AcDbEntity
  8
CURVE
100
AcDbLine
 62
7
  6
CONTINUOUS
 10
-4.0084196035
 20
13.7287021017
 11
-3.8067850373
 21
13.9303366679
  0
LINE
  5
2D7
100
AcDbEntity
  8
CURVE
100
AcDbLine
 62
7
  6
CONTINUOUS
 10
-4.6944756086
 20
12.8326353826
 11
-4.4549646086
 21
13.0721463826
  0
LINE
  5
2D8
100
AcDbEntity
  8
CURVE
100
AcDbLine
 62
7
  6
CONTINUOUS
 10
-4.0084196035
 20
13.5186913877
 11
-3.8067850373
 21
13.7203259538
  0
LINE
  5
2D9
100
AcDbEntity
  8
CURVE
100
AcDbLine
 62
7
  6
CONTINUOUS
 10
-4.4844648946
 20
12.8326353826
 11
-4.2449538946
 21
13.0721463826
  0
LINE
  5
2DA
100
AcDbEntity
  8
CURVE
100
AcDbLine
 62
7
  6
CONTINUOUS
 10
-4.0084196035
 20
13.3086806737
 11
-3.8067850373
 21
13.5103152398
  0
LINE
  5
2DB
100
AcDbEntity
  8
CURVE
100
AcDbLine
 62
7
  6
CONTINUOUS
 10
-4.7821378675
 20
12.3249516956
 11
-4.7760821806
 21
12.3310073826
  0
LINE
  5
2DC
100
AcDbEntity
  8
CURVE
100
AcDbLine
 62
7
  6
CONTINUOUS
 10
-4.2744541806
 20
12.8326353826
 11
-4.0349431806
 21
13.0721463826
  0
LINE
  5
2DD
100
AcDbEntity
  8
CURVE
100
AcDbLine
 62
7
  6
CONTINUOUS
 10
-4.0084196035
 20
13.0986699597
 11
-3.8067850373
 21
13.3003045258
  0
LINE
  5
2DE
100
AcDbEntity
  8
CURVE
100
AcDbLine
 62
7
  6
CONTINUOUS
 10
-3.1842926979
 20
13.9227968653
 11
-3.0240231806
 21
14.0830663826
  0
LINE
  5
2DF
100
AcDbEntity
  8
CURVE
100
AcDbLine
 62
7
  6
CONTINUOUS
 10
-4.7821378675
 20
12.1149409816
 11
-4.5660714666
 21
12.3310073826
  0
LINE
  5
2E0
100
AcDbEntity
  8
CURVE
100
AcDbLine
 62
7
  6
CONTINUOUS
 10
-4.0644434666
 20
12.8326353826
 11
-3.8067850373
 21
13.0902938118
  0
LINE
  5
2E1
100
AcDbEntity
  8
CURVE
100
AcDbLine
 62
7
  6
CONTINUOUS
 10
-3.1842926979
 20
13.7127861513
 11
-2.9826751266
 21
13.9144037226
  0
LINE
  5
2E2
100
AcDbEntity
  8
CURVE
100
AcDbLine
 62
7
  6
CONTINUOUS
 10
-4.5829597525
 20
12.1041083826
 11
-4.3560607525
 21
12.3310073826
  0
LINE
  5
2E3
100
AcDbEntity
  8
CURVE
100
AcDbLine
 62
7
  6
CONTINUOUS
 10
-3.8544327525
 20
12.8326353826
 11
-3.6149217525
 21
13.0721463826
  0
LINE
  5
2E4
100
AcDbEntity
  8
CURVE
100
AcDbLine
 62
7
  6
CONTINUOUS
 10
-3.1842926979
 20
13.5027754373
 11
-2.9826751266
 21
13.7043930086
  0
LINE
  5
2E5
100
AcDbEntity
  8
CURVE
100
AcDbLine
 62
7
  6
CONTINUOUS
 10
-4.3729490385
 20
12.1041083826
 11
-4.1460500385
 21
12.3310073826
  0
LINE
  5
2E6
100
AcDbEntity
  8
CURVE
100
AcDbLine
 62
7
  6
CONTINUOUS
 10
-3.6444220385
 20
12.8326353826
 11
-3.4049110385
 21
13.0721463826
  0
LINE
  5
2E7
100
AcDbEntity
  8
CURVE
100
AcDbLine
 62
7
  6
CONTINUOUS
 10
-3.1842926979
 20
13.2927647233
 11
-2.9826751266
 21
13.4943822946
  0
LINE
  5
2E8
100
AcDbEntity
  8
CURVE
100
AcDbLine
 62
7
  6
CONTINUOUS
 10
-4.1629383245
 20
12.1041083826
 11
-3.9360393245
 21
12.3310073826
  0
LINE
  5
2E9
100
AcDbEntity
  8
CURVE
100
AcDbLine
 62
7
  6
CONTINUOUS
 10
-3.4344113245
 20
12.8326353826
 11
-3.1949003245
 21
13.0721463826
  0
LINE
  5
2EA
100
AcDbEntity
  8
CURVE
100
AcDbLine
 62
7
  6
CONTINUOUS
 10
-3.1842926979
 20
13.0827540092
 11
-2.9826751266
 21
13.2843715805
  0
LINE
  5
2EB
100
AcDbEntity
  8
CURVE
100
AcDbLine
 62
7
  6
CONTINUOUS
 10
-3.9529276105
 20
12.1041083826
 11
-3.7260286105
 21
12.3310073826
  0
LINE
  5
2EC
100
AcDbEntity
  8
CURVE
100
AcDbLine
 62
7
  6
CONTINUOUS
 10
-3.2244006105
 20
12.8326353826
 11
-2.9826751266
 21
13.0743608665
  0
LINE
  5
2ED
100
AcDbEntity
  8
0
100
AcDbLine
 62
7
  6
CONTINUOUS
 10
-2.1195511633
 20
13.7410148603
 11
-2.091535641
 21
13.7690303826
  0
LINE
  5
2EE
100
AcDbEntity
  8
CURVE
100
AcDbLine
 62
7
  6
CONTINUOUS
 10
-4.7821378675
 20
11.0648874116
 11
-4.5359459245
 21
11.3110793545
  0
LINE
  5
2EF
100
AcDbEntity
  8
CURVE
100
AcDbLine
 62
7
  6
CONTINUOUS
 10
-3.7429168965
 20
12.1041083826
 11
-3.5160178965
 21
12.3310073826
  0
LINE
  5
2F0
100
AcDbEntity
  8
CURVE
100
AcDbLine
 62
7
  6
CONTINUOUS
 10
-3.0143898965
 20
12.8326353826
 11
-2.9826751266
 21
12.8643501525
  0
LINE
  5
2F1
100
AcDbEntity
  8
CURVE
100
AcDbLine
 62
250
  6
CONTINUOUS
 10
-2.0700243117
 20
16.3486203826
 11
-2.2842447447
 21
16.2414775318
  0
LINE
  5
2F2
100
AcDbEntity
  8
CURVE
100
AcDbLine
 62
250
  6
CONTINUOUS
 10
-1.4273629681
 20
15.5986203826
 11
-1.2131425127
 21
15.7057632445
  0
LINE
  5
2F3
100
AcDbEntity
  8
CURVE
100
AcDbLine
 62
250
  6
CONTINUOUS
 10
-2.9826701281
 20
14.9225323826
 11
-4.782132869
 21
14.2872403826
  0
LINE
  5
2F4
100
AcDbEntity
  8
CURVE
100
AcDbLine
 62
250
  6
CONTINUOUS
 10
-4.782132869
 20
14.5468693826
 11
-3.2220901818
 21
15.0611933826
  0
LINE
  5
2F5
100
AcDbEntity
  8
0
100
AcDbLine
 62
250
  6
CONTINUOUS
 10
1.0177377476
 20
-6.0585224413
 11
-0.2822622524
 21
-6.0585224413
  0
LINE
  5
2F6
100
AcDbEntity
  8
0
100
AcDbLine
 62
250
  6
CONTINUOUS
 10
2.8320234536
 20
-5.6870938921
 11
1.7177377476
 21
-5.6870938921
  0
LINE
  5
2F7
100
AcDbEntity
  8
0
100
AcDbLine
 62
250
  6
CONTINUOUS
 10
1.7177377476
 20
-5.0370939695
 11
2.8320234536
 21
-5.0370939695
  0
LINE
  5
2F8
100
AcDbEntity
  8
0
100
AcDbLine
 62
250
  6
CONTINUOUS
 10
1.7177377476
 20
-4.6656652653
 11
3.0177377476
 21
-4.6656652653
  0
LINE
  5
2F9
100
AcDbEntity
  8
0
100
AcDbLine
 62
250
  6
CONTINUOUS
 10
-0.2822622524
 20
-4.5728081667
 11
1.0177377476
 21
-4.5728081667
  0
LWPOLYLINE
  5
2FA
100
AcDbEntity
  8
RACCORDO
100
AcDbPolyline
 62
250
  6
CONTINUOUS
 90
5
 70
0
 10
-2.7857527347
 20
-14.9979494697
 10
-2.7857999432
 20
-14.9975864752
 10
-2.7858432601
 20
-14.9964511824
 10
-2.7858821108
 20
-14.9944742192
 10
-2.7859158489
 20
-14.9915899092
  0
LWPOLYLINE
  5
2FB
100
AcDbEntity
  8
0
100
AcDbPolyline
 62
250
  6
CONTINUOUS
 90
55
 70
0
 10
-3.6093785844
 20
3.041693053
 10
-3.6079872132
 20
3.0063484454
 10
-3.6063388278
 20
2.9716040753
 10
-3.604387693
 20
2.9374576042
 10
-3.6020880735
 20
2.9039066936
 10
-3.5993942339
 20
2.8709490052
 10
-3.5962658114
 20
2.8385845495
 10
-3.5926839326
 20
2.8068227336
 10
-3.5886350967
 20
2.7756753138
 10
-3.5841058028
 20
2.7451540463
 10
-3.57908255
 20
2.7152706872
 10
-3.573556453
 20
2.6860350154
 10
-3.5675370885
 20
2.6574488998
 10
-3.5610386487
 20
2.6295122318
 10
-3.5540753257
 20
2.6022249031
 10
-3.546661312
 20
2.5755868052
 10
-3.5388126205
 20
2.5495962237
 10
-3.5305525481
 20
2.5242450215
 10
-3.5219062128
 20
2.4995234557
 10
-3.5128987324
 20
2.4754217835
 10
-3.5035552246
 20
2.4519302619
 10
-3.4955300519
 20
2.4328107123
 10
-3.4873014059
 20
2.4140884354
 10
-3.4788817225
 20
2.3957437541
 10
-3.4702815345
 20
2.377761689
 10
-3.461503761
 20
2.3601460524
 10
-3.4525494181
 20
2.3429053545
 10
-3.443419364
 20
2.3260523847
 10
-3.4341138279
 20
2.3096170497
 10
-3.4246328813
 20
2.2936335354
 10
-3.414975226
 20
2.2781327806
 10
-3.4051340852
 20
2.2631327333
 10
-3.3951013122
 20
2.2486480944
 10
-3.384870112
 20
2.2346954878
 10
-3.3744390954
 20
2.2212992302
 10
-3.3638082247
 20
2.2084855613
 10
-3.3529701313
 20
2.1962758901
 10
-3.3418881231
 20
2.1846723022
 10
-3.3305181766
 20
2.173672052
 10
-3.3217803464
 20
2.1658214798
 10
-3.312867646
 20
2.1583395419
 10
-3.3037919336
 20
2.1512570394
 10
-3.2945650673
 20
2.1446047732
 10
-3.2851981692
 20
2.1384108287
 10
-3.2756994168
 20
2.1326924283
 10
-3.2660762515
 20
2.1274640786
 10
-3.2563361149
 20
2.1227402863
 10
-3.2464839957
 20
2.1185345961
 10
-3.2365150721
 20
2.1148567061
 10
-3.2264220697
 20
2.1117153524
 10
-3.2161977142
 20
2.1091192711
 10
-3.2058366971
 20
2.1070779195
 10
-3.195341574
 20
2.1056036388
 10
-3.1847168664
 20
2.1047094914
 10
-3.1739670958
 20
2.1044085396
  0
LWPOLYLINE
  5
2FC
100
AcDbEntity
  8
CURVE
100
AcDbPolyline
 62
250
  6
CONTINUOUS
 90
54
 70
0
 10
-3.7839502266
 20
20.4316307991
 10
-3.7841392201
 20
20.451239424
 10
-3.7847173187
 20
20.4708496216
 10
-3.7857011992
 20
20.4904508735
 10
-3.7871075385
 20
20.5100326612
 10
-3.7889530136
 20
20.5295844663
 10
-3.7912543012
 20
20.5490957701
 10
-3.7940280784
 20
20.5685560544
 10
-3.797291022
 20
20.5879548005
 10
-3.8010598089
 20
20.60728149
 10
-3.805351116
 20
20.6265256044
 10
-3.8101816202
 20
20.6456766252
 10
-3.8142951498
 20
20.6604040199
 10
-3.8187508779
 20
20.6750483244
 10
-3.8235589948
 20
20.6895883332
 10
-3.8287296911
 20
20.7040028409
 10
-3.8342731573
 20
20.7182706417
 10
-3.8401995839
 20
20.7323705303
 10
-3.8465191613
 20
20.746281301
 10
-3.8532420801
 20
20.7599817482
 10
-3.8603785308
 20
20.7734506665
 10
-3.8679387037
 20
20.7866668503
 10
-3.8759327895
 20
20.799609094
 10
-3.8843709786
 20
20.8122561921
 10
-3.8932634616
 20
20.824586939
 10
-3.9026204288
 20
20.8365801292
 10
-3.9123382043
 20
20.8480923612
 10
-3.922500199
 20
20.8592424498
 10
-3.9330861635
 20
20.8700192997
 10
-3.9440758485
 20
20.8804118158
 10
-3.9554490048
 20
20.8904089027
 10
-3.9671853831
 20
20.8999994654
 10
-3.9792647341
 20
20.9091724085
 10
-3.9916668084
 20
20.9179166368
 10
-4.004371357
 20
20.9262210551
 10
-4.0173581303
 20
20.9340745682
 10
-4.0306068792
 20
20.9414660808
 10
-4.0440973544
 20
20.9483844978
 10
-4.0578093066
 20
20.9548187239
 10
-4.0717224865
 20
20.9607576639
 10
-4.0858549648
 20
20.9662082264
 10
-4.1001533948
 20
20.9711642531
 10
-4.1146017892
 20
20.9756402776
 10
-4.1291841605
 20
20.9796508335
 10
-4.1438845213
 20
20.9832104546
 10
-4.1586868842
 20
20.9863336744
 10
-4.1735752618
 20
20.9890350267
 10
-4.1885336667
 20
20.991329045
 10
-4.2035461115
 20
20.9932302631
 10
-4.2185966087
 20
20.9947532145
 10
-4.233669171
 20
20.995912433
 10
-4.2487478109
 20
20.9967224522
 10
-4.263816541
 20
20.9971978056
 10
-4.2788593739
 20
20.9973530271
  0
LINE
  5
2FD
100
AcDbEntity
  8
CURVE
100
AcDbLine
 62
250
  6
CONTINUOUS
 10
-4.7838211641
 20
18.0071475833
 11
-4.7838211641
 21
18.1182685981
  0
LINE
  5
2FE
100
AcDbEntity
  8
CURVE
100
AcDbLine
 62
250
  6
CONTINUOUS
 10
-4.7838211641
 20
19.2750184377
 11
-4.7838211641
 21
19.386138411
  0
LINE
  5
2FF
100
AcDbEntity
  8
CURVE
100
AcDbLine
 62
250
  6
CONTINUOUS
 10
-4.7838159582
 20
19.7042101171
 11
-4.7838159582
 21
20.4720213034
  0
LINE
  5
300
100
AcDbEntity
  8
CURVE
100
AcDbLine
 62
250
  6
CONTINUOUS
 10
-4.7821378675
 20
10.8965243826
 11
-4.7821378675
 21
11.1511533826
  0
LINE
  5
301
100
AcDbEntity
  8
CURVE
100
AcDbLine
 62
250
  6
CONTINUOUS
 10
-4.7821378675
 20
12.1041083826
 11
-4.7821378675
 21
12.3310073826
  0
LINE
  5
302
100
AcDbEntity
  8
CURVE
100
AcDbLine
 62
250
  6
CONTINUOUS
 10
-4.7821378675
 20
12.8326353826
 11
-4.7821378675
 21
14.0755073826
  0
LINE
  5
303
100
AcDbEntity
  8
CURVE
100
AcDbLine
 62
250
  6
CONTINUOUS
 10
-4.7821378675
 20
16.1401803826
 11
-4.7821378675
 21
17.3830353826
  0
LINE
  5
304
100
AcDbEntity
  8
CURVE
100
AcDbLine
 62
250
  6
CONTINUOUS
 10
-4.782132869
 20
14.2872403826
 11
-4.782132869
 21
14.5468693826
  0
LINE
  5
305
100
AcDbEntity
  8
CURVE
100
AcDbLine
 62
250
  6
CONTINUOUS
 10
-4.782132869
 20
15.5855523826
 11
-4.782132869
 21
15.8351473826
  0
LINE
  5
306
100
AcDbEntity
  8
CURVE
100
AcDbLine
 62
250
  6
CONTINUOUS
 10
-4.6878603334
 20
20.4644277094
 11
-4.6878603334
 21
19.815399871
  0
LINE
  5
307
100
AcDbEntity
  8
CURVE
100
AcDbLine
 62
250
  6
CONTINUOUS
 10
-4.5805202962
 20
17.3830353826
 11
-4.5805202962
 21
16.3796733826
  0
LINE
  5
308
100
AcDbEntity
  8
CURVE
100
AcDbLine
 62
250
  6
CONTINUOUS
 10
-4.5805202962
 20
14.0755073826
 11
-4.5805202962
 21
13.0721463826
  0
LINE
  5
309
100
AcDbEntity
  8
CURVE
100
AcDbLine
 62
250
  6
CONTINUOUS
 10
-4.0084196035
 20
13.0721463826
 11
-4.0084196035
 21
14.0074383826
  0
LINE
  5
30A
100
AcDbEntity
  8
CURVE
100
AcDbLine
 62
250
  6
CONTINUOUS
 10
-4.0084196035
 20
16.3796733826
 11
-4.0084196035
 21
17.3150183826
  0
LINE
  5
30B
100
AcDbEntity
  8
CURVE
100
AcDbLine
 62
250
  6
CONTINUOUS
 10
-3.8799058514
 20
19.815399871
 11
-3.8799058514
 21
20.4492915552
  0
LINE
  5
30C
100
AcDbEntity
  8
CURVE
100
AcDbLine
 62
250
  6
CONTINUOUS
 10
-3.8067850373
 20
17.3150183826
 11
-3.8067850373
 21
16.3796733826
  0
LINE
  5
30D
100
AcDbEntity
  8
CURVE
100
AcDbLine
 62
250
  6
CONTINUOUS
 10
-3.8067850373
 20
14.0074383826
 11
-3.8067850373
 21
13.0721463826
  0
LINE
  5
30E
100
AcDbEntity
  8
CURVE
100
AcDbLine
 62
250
  6
CONTINUOUS
 10
-3.7839502266
 20
20.4316307991
 11
-3.7839502266
 21
19.815399871
  0
LINE
  5
30F
100
AcDbEntity
  8
0
100
AcDbLine
 62
250
  6
CONTINUOUS
 10
-3.5685852524
 20
2.5162103826
 11
-3.5685852524
 21
2.4168363826
  0
LINE
  5
310
100
AcDbEntity
  8
CURVE
100
AcDbLine
 62
250
  6
CONTINUOUS
 10
-3.1842926979
 20
13.0721463826
 11
-3.1842926979
 21
14.0830663826
  0
LINE
  5
311
100
AcDbEntity
  8
CURVE
100
AcDbLine
 62
250
  6
CONTINUOUS
 10
-3.1842926979
 20
16.3796733826
 11
-3.1842926979
 21
17.3906273826
  0
LINE
  5
312
100
AcDbEntity
  8
0
100
AcDbLine
 62
250
  6
CONTINUOUS
 10
-3.1739672524
 20
4.3265543826
 11
-3.1739672524
 21
1.8886473826
  0
LINE
  5
313
100
AcDbEntity
  8
0
100
AcDbLine
 62
250
  6
CONTINUOUS
 10
-3.6610012524
 20
3.6146963826
 11
-3.6615592524
 21
3.0416933826
  0
LINE
  5
314
100
AcDbEntity
  8
0
100
AcDbLine
 62
250
  6
CONTINUOUS
 10
-3.4440652524
 20
3.0416933826
 11
-3.4435072524
 21
3.6146963826
  0
LWPOLYLINE
  5
315
100
AcDbEntity
  8
CURVE
100
AcDbPolyline
 62
250
  6
CONTINUOUS
 90
56
 70
0
 10
-3.0340681074
 20
18.6840408182
 10
-3.0342462555
 20
18.6661615466
 10
-3.0347938552
 20
18.6482360565
 10
-3.0357306396
 20
18.6302874747
 10
-3.0370763419
 20
18.6123389281
 10
-3.0388506952
 20
18.5944135436
 10
-3.0410734325
 20
18.5765344479
 10
-3.0437642872
 20
18.5587247681
 10
-3.0469429921
 20
18.5410076309
 10
-3.0506292806
 20
18.5234061632
 10
-3.0548428858
 20
18.505943492
 10
-3.0596035406
 20
18.4886427441
 10
-3.0649309784
 20
18.4715270462
 10
-3.0708449322
 20
18.4546195254
 10
-3.0773651351
 20
18.4379433085
 10
-3.0835524431
 20
18.4236214178
 10
-3.090210263
 20
18.4095112203
 10
-3.0973339465
 20
18.3956312803
 10
-3.1049188454
 20
18.3820001618
 10
-3.1129603113
 20
18.3686364291
 10
-3.121453696
 20
18.3555586463
 10
-3.1303943512
 20
18.3427853778
 10
-3.1397776287
 20
18.3303351875
 10
-3.1496630875
 20
18.3181459768
 10
-3.1599740832
 20
18.3063117346
 10
-3.1706923608
 20
18.2948412491
 10
-3.1817996659
 20
18.2837433083
 10
-3.1932777437
 20
18.2730267004
 10
-3.2051083395
 20
18.2627002134
 10
-3.2172731986
 20
18.2527726355
 10
-3.2297540663
 20
18.2432527547
 10
-3.2442249462
 20
18.2329866513
 10
-3.2590534878
 20
18.2232429824
 10
-3.2742166543
 20
18.2140116779
 10
-3.2896914088
 20
18.2052826675
 10
-3.3054547144
 20
18.197045881
 10
-3.3214835342
 20
18.1892912484
 10
-3.3377548313
 20
18.1820086993
 10
-3.3542455687
 20
18.1751881636
 10
-3.3709327097
 20
18.1688195711
 10
-3.3877932173
 20
18.1628928517
 10
-3.4048040545
 20
18.1573979351
 10
-3.4219421846
 20
18.1523247511
 10
-3.4391845706
 20
18.1476632296
 10
-3.4565081756
 20
18.1434033003
 10
-3.4786578975
 20
18.1385420805
 10
-3.5008919952
 20
18.1342859298
 10
-3.5232004791
 20
18.1306049084
 10
-3.5455733594
 20
18.1274690763
 10
-3.5680006465
 20
18.1248484935
 10
-3.5904723507
 20
18.1227132202
 10
-3.6129784824
 20
18.1210333164
 10
-3.6355090518
 20
18.1197788423
 10
-3.6580540694
 20
18.1189198578
 10
-3.6806035453
 20
18.118426423
 10
-3.7031474901
 20
18.1182685981
  0
LWPOLYLINE
  5
316
100
AcDbEntity
  8
CURVE
100
AcDbPolyline
 62
250
  6
CONTINUOUS
 90
85
 70
0
 10
-4.6878603334
 20
20.4644277094
 10
-4.6876784972
 20
20.4811103152
 10
-4.6871106443
 20
20.4978129471
 10
-4.6861232579
 20
20.5145130953
 10
-4.6846828212
 20
20.5311882501
 10
-4.6827558174
 20
20.5478159017
 10
-4.6803087299
 20
20.5643735402
 10
-4.6773080418
 20
20.5808386558
 10
-4.6737202364
 20
20.5971887388
 10
-4.6695117969
 20
20.6134012794
 10
-4.6646492065
 20
20.6294537677
 10
-4.6596632436
 20
20.6438173072
 10
-4.654118926
 20
20.657998397
 10
-4.6480207628
 20
20.6719640168
 10
-4.6413732631
 20
20.6856811459
 10
-4.6341809361
 20
20.6991167638
 10
-4.6264482909
 20
20.7122378501
 10
-4.6181798366
 20
20.7250113842
 10
-4.6093800823
 20
20.7374043457
 10
-4.6000535371
 20
20.7493837141
 10
-4.5902047102
 20
20.7609164688
 10
-4.5798381106
 20
20.7719695893
 10
-4.5690311809
 20
20.7824523186
 10
-4.5577491783
 20
20.7924283233
 10
-4.5460240106
 20
20.801897258
 10
-4.5338875853
 20
20.8108587773
 10
-4.5213718102
 20
20.8193125358
 10
-4.5085085929
 20
20.8272581881
 10
-4.4953298412
 20
20.8346953887
 10
-4.4818674627
 20
20.8416237922
 10
-4.468153365
 20
20.8480430532
 10
-4.454219456
 20
20.8539528263
 10
-4.4400976432
 20
20.859352766
 10
-4.4243634435
 20
20.8647101569
 10
-4.4084586812
 20
20.869455728
 10
-4.3924019615
 20
20.8735963254
 10
-4.3762118896
 20
20.8771387954
 10
-4.3599070709
 20
20.8800899845
 10
-4.3435061107
 20
20.8824567388
 10
-4.3270276143
 20
20.8842459047
 10
-4.310490187
 20
20.8854643284
 10
-4.293912434
 20
20.8861188562
 10
-4.2773129606
 20
20.8862163344
 10
-4.2607243497
 20
20.8857608272
 10
-4.2441580607
 20
20.8847427397
 10
-4.2276395256
 20
20.8831488444
 10
-4.2111941766
 20
20.8809659138
 10
-4.1948474457
 20
20.8781807206
 10
-4.178624765
 20
20.8747800373
 10
-4.1625515666
 20
20.8707506364
 10
-4.1466532827
 20
20.8660792904
 10
-4.1309553452
 20
20.8607527719
 10
-4.1154831863
 20
20.8547578534
 10
-4.1016587092
 20
20.8487304642
 10
-4.0880691905
 20
20.8421521876
 10
-4.07474265
 20
20.8350336378
 10
-4.0617071071
 20
20.827385429
 10
-4.0489905817
 20
20.8192181752
 10
-4.0366210933
 20
20.8105424905
 10
-4.0246266617
 20
20.801368989
 10
-4.0130353064
 20
20.7917082848
 10
-4.0018750471
 20
20.781570992
 10
-3.9911739036
 20
20.7709677247
 10
-3.9809598953
 20
20.7599090971
 10
-3.9711796471
 20
20.748313948
 10
-3.9619213521
 20
20.7362965827
 10
-3.9531834329
 20
20.7238867622
 10
-3.944964312
 20
20.7111142474
 10
-3.937262412
 20
20.6980087995
 10
-3.9300761554
 20
20.6846001793
 10
-3.9234039649
 20
20.6709181479
 10
-3.9172442628
 20
20.6569924663
 10
-3.9115954719
 20
20.6428528955
 10
-3.9064560147
 20
20.6285291964
 10
-3.9018243137
 20
20.6140511301
 10
-3.8973033033
 20
20.5979533312
 10
-3.8933703052
 20
20.5817226121
 10
-3.8899989118
 20
20.5653773047
 10
-3.8871627155
 20
20.5489357409
 10
-3.8848353087
 20
20.5324162524
 10
-3.8829902838
 20
20.5158371711
 10
-3.8816012332
 20
20.499216829
 10
-3.8806417494
 20
20.4825735577
 10
-3.8800854246
 20
20.4659256891
 10
-3.8799058514
 20
20.4492915552
  0
LINE
  5
317
100
AcDbEntity
  8
0
100
AcDbLine
 62
7
  6
CONTINUOUS
 10
-2.1261678582
 20
13.5243874514
 11
-1.881524927
 21
13.7690303826
  0
LINE
  5
318
100
AcDbEntity
  8
CURVE
100
AcDbLine
 62
7
  6
CONTINUOUS
 10
-4.7404901825
 20
10.8965243826
 11
-3.9366024626
 21
11.7004121025
  0
LINE
  5
319
100
AcDbEntity
  8
CURVE
100
AcDbLine
 62
7
  6
CONTINUOUS
 10
-3.5329061825
 20
12.1041083826
 11
-3.3060071825
 21
12.3310073826
  0
LINE
  5
31A
100
AcDbEntity
  8
0
100
AcDbLine
 62
7
  6
CONTINUOUS
 10
-2.1193574102
 20
13.3211871854
 11
-1.671514213
 21
13.7690303826
  0
LINE
  5
31B
100
AcDbEntity
  8
CURVE
100
AcDbLine
 62
7
  6
CONTINUOUS
 10
-4.5304794685
 20
10.8965243826
 11
-4.2989779474
 21
11.1280259036
  0
LINE
  5
31C
100
AcDbEntity
  8
CURVE
100
AcDbLine
 62
7
  6
CONTINUOUS
 10
-4.0591453081
 20
11.367858543
 11
-3.3372590006
 21
12.0897448504
  0
LINE
  5
31D
100
AcDbEntity
  8
CURVE
100
AcDbLine
 62
7
  6
CONTINUOUS
 10
-3.3228954685
 20
12.1041083826
 11
-3.0959964685
 21
12.3310073826
  0
LINE
  5
31E
100
AcDbEntity
  8
0
100
AcDbLine
 62
7
  6
CONTINUOUS
 10
-2.0986990667
 20
13.1318348149
 11
-1.461503499
 21
13.7690303826
  0
LINE
  5
31F
100
AcDbEntity
  8
CURVE
100
AcDbLine
 62
7
  6
CONTINUOUS
 10
-4.3204687545
 20
10.8965243826
 11
-4.0897016815
 21
11.1272914555
  0
LINE
  5
320
100
AcDbEntity
  8
CURVE
100
AcDbLine
 62
7
  6
CONTINUOUS
 10
-3.4571089638
 20
11.7598841732
 11
-2.9826751266
 21
12.2343180105
  0
LINE
  5
321
100
AcDbEntity
  8
0
100
AcDbLine
 62
7
  6
CONTINUOUS
 10
-2.0643418672
 20
12.9561813004
 11
-1.3584179186
 21
13.662105249
  0
LINE
  5
322
100
AcDbEntity
  8
CURVE
100
AcDbLine
 62
7
  6
CONTINUOUS
 10
-4.1104580404
 20
10.8965243826
 11
-3.8804254156
 21
11.1265570074
  0
LINE
  5
323
100
AcDbEntity
  8
0
100
AcDbLine
 62
7
  6
CONTINUOUS
 10
-2.0219264582
 20
12.7885859953
 11
-1.3640820501
 21
13.4464304035
  0
LINE
  5
324
100
AcDbEntity
  8
CURVE
100
AcDbLine
 62
7
  6
CONTINUOUS
 10
-3.9004473264
 20
10.8965243826
 11
-3.6711491497
 21
11.1258225593
  0
LINE
  5
325
100
AcDbEntity
  8
0
100
AcDbLine
 62
7
  6
CONTINUOUS
 10
-1.9688846115
 20
12.631617128
 11
-1.3468237134
 21
13.2536780261
  0
LINE
  5
326
100
AcDbEntity
  8
CURVE
100
AcDbLine
 62
7
  6
CONTINUOUS
 10
-3.6904366124
 20
10.8965243826
 11
-3.4618728838
 21
11.1250881112
  0
LINE
  5
327
100
AcDbEntity
  8
0
100
AcDbLine
 62
7
  6
CONTINUOUS
 10
-1.9080654865
 20
12.4824255391
 11
-1.311980575
 21
13.0785104506
  0
LINE
  5
328
100
AcDbEntity
  8
CURVE
100
AcDbLine
 62
7
  6
CONTINUOUS
 10
-3.4804258984
 20
10.8965243826
 11
-3.2525966179
 21
11.1243536631
  0
LINE
  5
329
100
AcDbEntity
  8
0
100
AcDbLine
 62
7
  6
CONTINUOUS
 10
-1.8411073878
 20
12.3393729237
 11
-1.2629190946
 21
12.9175612169
  0
LINE
  5
32A
100
AcDbEntity
  8
CURVE
100
AcDbLine
 62
7
  6
CONTINUOUS
 10
-3.2704151844
 20
10.8965243826
 11
-3.043320352
 21
11.123619215
  0
LINE
  5
32B
100
AcDbEntity
  8
0
100
AcDbLine
 62
7
  6
CONTINUOUS
 10
-1.7639330332
 20
12.2065365643
 11
-1.2018440276
 21
12.7686255699
  0
LINE
  5
32C
100
AcDbEntity
  8
CURVE
100
AcDbLine
 62
7
  6
CONTINUOUS
 10
-3.0604044704
 20
10.8965243826
 11
-2.9826751266
 21
10.9742537264
  0
LINE
  5
32D
100
AcDbEntity
  8
0
100
AcDbLine
 62
7
  6
CONTINUOUS
 10
-1.6857550793
 20
12.0747038042
 11
-1.1302296624
 21
12.6302292211
  0
LINE
  5
32E
100
AcDbEntity
  8
0
100
AcDbLine
 62
7
  6
CONTINUOUS
 10
-1.5933957694
 20
11.9570524001
 11
-1.0490616716
 21
12.5013864979
  0
LINE
  5
32F
100
AcDbEntity
  8
0
100
AcDbLine
 62
7
  6
CONTINUOUS
 10
-1.5010364596
 20
11.8394009959
 11
-0.9589767531
 21
12.3814607024
  0
LINE
  5
330
100
AcDbEntity
  8
0
100
AcDbLine
 62
7
  6
CONTINUOUS
 10
-1.3984829429
 20
11.7319437985
 11
-0.860342726
 21
12.2700840155
  0
LINE
  5
331
100
AcDbEntity
  8
0
100
AcDbLine
 62
7
  6
CONTINUOUS
 10
0.0353662423
 20
13.1657929838
 11
0.1286036411
 21
13.2590303826
  0
LINE
  5
332
100
AcDbEntity
  8
0
100
AcDbLine
 62
7
  6
CONTINUOUS
 10
-1.2914415312
 20
11.6289744962
 11
-0.7532420721
 21
12.1671739553
  0
LINE
  5
333
100
AcDbEntity
  8
0
100
AcDbLine
 62
7
  6
CONTINUOUS
 10
0.0353662289
 20
12.9557822563
 11
0.3386143551
 21
13.2590303826
  0
LINE
  5
334
100
AcDbEntity
  8
CURVE
100
AcDbLine
 62
250
  6
CONTINUOUS
 10
-2.9826751266
 20
12.0688193826
 11
-4.426769141
 21
11.1284743826
  0
LINE
  5
335
100
AcDbEntity
  8
CURVE
100
AcDbLine
 62
250
  6
CONTINUOUS
 10
-4.7821378675
 20
11.1511533826
 11
-3.3228954685
 21
12.0990753826
  0
LINE
  5
336
100
AcDbEntity
  8
0
100
AcDbLine
 62
250
  6
CONTINUOUS
 10
1.7177377476
 20
-4.0156654203
 11
3.0177377476
 21
-4.0156654203
  0
LINE
  5
337
100
AcDbEntity
  8
0
100
AcDbLine
 62
250
  6
CONTINUOUS
 10
0.8320234536
 20
-3.9228083217
 11
-0.0965479777
 21
-3.9228083217
  0
LINE
  5
338
100
AcDbEntity
  8
0
100
AcDbLine
 62
250
  6
CONTINUOUS
 10
-0.2822622524
 20
-3.3966176831
 11
1.0177377476
 21
-3.3966176831
  0
LINE
  5
339
100
AcDbEntity
  8
0
100
AcDbLine
 62
250
  6
CONTINUOUS
 10
1.7177377476
 20
-3.3966176831
 11
3.0177377476
 21
-3.3966176831
  0
LINE
  5
33A
100
AcDbEntity
  8
0
100
AcDbLine
 62
250
  6
CONTINUOUS
 10
1.9034520223
 20
-2.8085225188
 11
2.0891662969
 21
-2.8085225188
  0
LINE
  5
33B
100
AcDbEntity
  8
0
100
AcDbLine
 62
250
  6
CONTINUOUS
 10
2.6463091596
 20
-2.1585225188
 11
2.8320234536
 21
-2.1585225188
  0
LINE
  5
33C
100
AcDbEntity
  8
0
100
AcDbLine
 62
250
  6
CONTINUOUS
 10
1.0177377476
 20
-4.1085225188
 11
0.8320234536
 21
-3.9228083217
  0
LINE
  5
33D
100
AcDbEntity
  8
0
100
AcDbLine
 62
250
  6
CONTINUOUS
 10
2.8320234536
 20
-5.0370939695
 11
3.0177377476
 21
-5.2228081667
  0
LINE
  5
33E
100
AcDbEntity
  8
0
100
AcDbLine
 62
250
  6
CONTINUOUS
 10
1.7177377476
 20
-2.6228083217
 11
1.9034520223
 21
-2.8085225188
  0
LINE
  5
33F
100
AcDbEntity
  8
RACCORDO
100
AcDbLine
 62
250
  6
CONTINUOUS
 10
-2.7859158489
 20
-14.9915899092
 11
-2.7859658389
 21
-14.9827921797
  0
LINE
  5
340
100
AcDbEntity
  8
CURVE
100
AcDbLine
 62
250
  6
CONTINUOUS
 10
-2.9826751266
 20
17.3906273826
 11
-2.9826751266
 21
16.1401803826
  0
LINE
  5
341
100
AcDbEntity
  8
CURVE
100
AcDbLine
 62
250
  6
CONTINUOUS
 10
-2.9826751266
 20
14.0830663826
 11
-2.9826751266
 21
12.8326353826
  0
LINE
  5
342
100
AcDbEntity
  8
CURVE
100
AcDbLine
 62
250
  6
CONTINUOUS
 10
-2.9826751266
 20
12.3310073826
 11
-2.9826751266
 21
12.0688193826
  0
LINE
  5
343
100
AcDbEntity
  8
CURVE
100
AcDbLine
 62
250
  6
CONTINUOUS
 10
-2.9826751266
 20
11.1234063826
 11
-2.9826751266
 21
10.8965243826
  0
LINE
  5
344
100
AcDbEntity
  8
CURVE
100
AcDbLine
 62
250
  6
CONTINUOUS
 10
-2.9826701281
 20
15.1947873826
 11
-2.9826701281
 21
14.9225323826
  0
LINE
  5
345
100
AcDbEntity
  8
0
100
AcDbLine
 62
7
  6
CONTINUOUS
 10
-2.9822622524
 20
-17.2315593577
 11
-2.9822622524
 21
-16.4030179233
  0
LINE
  5
346
100
AcDbEntity
  8
RACCORDO
100
AcDbLine
 62
7
  6
CONTINUOUS
 10
-2.9822622524
 20
-16.4312462201
 11
-2.9822622524
 21
-15.19791907
  0
LINE
  5
347
100
AcDbEntity
  8
RACCORDO
100
AcDbLine
 62
7
  6
CONTINUOUS
 10
-2.9822622524
 20
27.5951598352
 11
-2.9822622524
 21
28.8284869852
  0
LINE
  5
348
100
AcDbEntity
  8
0
100
AcDbLine
 62
7
  6
CONTINUOUS
 10
-2.9822622524
 20
28.8284869852
 11
-2.9822622524
 21
29.6288001229
  0
LINE
  5
349
100
AcDbEntity
  8
CURVE
100
AcDbLine
 62
250
  6
CONTINUOUS
 10
-2.981061631
 20
19.815399871
 11
-2.981061631
 21
19.7042101171
  0
LINE
  5
34A
100
AcDbEntity
  8
0
100
AcDbLine
 62
250
  6
CONTINUOUS
 10
-2.8110572524
 20
4.6165673826
 11
-2.8110572524
 21
4.2665073826
  0
LINE
  5
34B
100
AcDbEntity
  8
RACCORDO
100
AcDbLine
 62
250
  6
CONTINUOUS
 10
-2.7857528325
 20
27.2725115056
 11
-2.7859880665
 21
27.3667534986
  0
LINE
  5
34C
100
AcDbEntity
  8
CURVE
100
AcDbLine
 62
250
  6
CONTINUOUS
 10
-2.4984651777
 20
20.6343347705
 11
-2.4984651777
 21
20.5271919644
  0
LINE
  5
34D
100
AcDbEntity
  8
CURVE
100
AcDbLine
 62
250
  6
CONTINUOUS
 10
-2.4984651777
 20
16.0271918303
 11
-2.4984651777
 21
15.9200489572
  0
LINE
  5
34E
100
AcDbEntity
  8
CURVE
100
AcDbLine
 62
250
  6
CONTINUOUS
 10
-2.4984651777
 20
16.9914774871
 11
-2.4984651777
 21
17.3129061735
  0
LINE
  5
34F
100
AcDbEntity
  8
CURVE
100
AcDbLine
 62
250
  6
CONTINUOUS
 10
-2.4984651777
 20
17.9557631886
 11
-2.4984651777
 21
18.3843345917
  0
LINE
  5
350
100
AcDbEntity
  8
CURVE
100
AcDbLine
 62
250
  6
CONTINUOUS
 10
-2.4984651777
 20
19.2414775765
 11
-2.4984651777
 21
19.5629059947
  0
LINE
  5
351
100
AcDbEntity
  8
0
100
AcDbLine
 62
250
  6
CONTINUOUS
 10
-2.4385932524
 20
4.2665073826
 11
-2.4385932524
 21
4.6165673826
  0
LINE
  5
352
100
AcDbEntity
  8
0
100
AcDbLine
 62
250
  6
CONTINUOUS
 10
-2.3461772524
 20
3.8100303826
 11
-2.3461772524
 21
2.9866903826
  0
LINE
  5
353
100
AcDbEntity
  8
0
100
AcDbLine
 62
250
  6
CONTINUOUS
 10
-2.1305412524
 20
2.9866903826
 11
-2.1305412524
 21
3.8100303826
  0
LINE
  5
354
100
AcDbEntity
  8
CURVE
100
AcDbLine
 62
250
  6
CONTINUOUS
 10
-1.8558038787
 20
18.1700489796
 11
-1.8558038787
 21
18.3843345917
  0
LINE
  5
355
100
AcDbEntity
  8
CURVE
100
AcDbLine
 62
250
  6
CONTINUOUS
 10
-1.641583401
 20
17.4557633078
 11
-1.641583401
 21
16.9914774871
  0
LINE
  5
356
100
AcDbEntity
  8
0
100
AcDbLine
 62
7
  6
CONTINUOUS
 10
-1.3822622524
 20
28.3986203826
 11
-1.3822622524
 21
27.3706922787
  0
LINE
  5
357
100
AcDbEntity
  8
0
100
AcDbLine
 62
7
  6
CONTINUOUS
 10
-1.3822622524
 20
-16.0013796174
 11
-1.3822622524
 21
-14.9734515135
  0
LINE
  5
358
100
AcDbEntity
  8
CURVE
100
AcDbLine
 62
250
  6
CONTINUOUS
 10
-0.9989220574
 20
18.4914775765
 11
-0.9989220574
 21
17.9557631886
  0
LINE
  5
359
100
AcDbEntity
  8
CURVE
100
AcDbLine
 62
250
  6
CONTINUOUS
 10
-0.9989220574
 20
15.9200489572
 11
-0.9989220574
 21
16.0271918303
  0
LINE
  5
35A
100
AcDbEntity
  8
CURVE
100
AcDbLine
 62
250
  6
CONTINUOUS
 10
-0.9989220574
 20
19.0271919644
 11
-0.9989220574
 21
19.7771919644
  0
LINE
  5
35B
100
AcDbEntity
  8
CURVE
100
AcDbLine
 62
250
  6
CONTINUOUS
 10
-0.9989220574
 20
20.5271919644
 11
-0.9989220574
 21
20.6343347705
  0
LINE
  5
35C
100
AcDbEntity
  8
RACCORDO
100
AcDbLine
 62
250
  6
CONTINUOUS
 10
-2.7859658389
 20
-14.9827921797
 11
-2.7859560411
 21
-14.9390249256
  0
LINE
  5
35D
100
AcDbEntity
  8
RACCORDO
100
AcDbLine
 62
250
  6
CONTINUOUS
 10
-2.7859560411
 20
-14.9390249256
 11
-2.7857528303
 21
-14.8752708313
  0
LWPOLYLINE
  5
35E
100
AcDbEntity
  8
RACCORDO
100
AcDbPolyline
 62
250
  6
CONTINUOUS
 90
7
 70
0
 10
-2.7859880665
 20
27.3667534986
 10
-2.7859435816
 20
27.3850293682
 10
-2.7859154717
 20
27.3888713926
 10
-2.7858817575
 20
27.3917384039
 10
-2.7858429745
 20
27.3937026425
 10
-2.7857997747
 20
27.3948299766
 10
-2.7857527348
 20
27.3951902294
  0
LINE
  5
35F
100
AcDbEntity
  8
0
100
AcDbLine
 62
7
  6
CONTINUOUS
 10
-1.1798828594
 20
11.530522454
 11
-0.6356512399
 21
12.0747540735
  0
LINE
  5
360
100
AcDbEntity
  8
0
100
AcDbLine
 62
7
  6
CONTINUOUS
 10
0.0353662154
 20
12.7457715289
 11
0.5486250692
 21
13.2590303826
  0
LINE
  5
361
100
AcDbEntity
  8
0
100
AcDbLine
 62
7
  6
CONTINUOUS
 10
-1.058078068
 20
11.4423165315
 11
-0.5093215837
 21
11.9910730157
  0
LINE
  5
362
100
AcDbEntity
  8
0
100
AcDbLine
 62
7
  6
CONTINUOUS
 10
0.035366202
 20
12.5357608014
 11
0.7586357832
 21
13.2590303826
  0
LINE
  5
363
100
AcDbEntity
  8
0
100
AcDbLine
 62
7
  6
CONTINUOUS
 10
-0.9362732765
 20
11.3541106089
 11
-0.3737192728
 21
11.9166646126
  0
LINE
  5
364
100
AcDbEntity
  8
0
100
AcDbLine
 62
7
  6
CONTINUOUS
 10
0.0353661885
 20
12.3257500739
 11
0.8001332397
 21
13.0905171251
  0
LINE
  5
365
100
AcDbEntity
  8
0
100
AcDbLine
 62
7
  6
CONTINUOUS
 10
-0.7998407534
 20
11.280532418
 11
-0.2280028681
 21
11.8523703033
  0
LINE
  5
366
100
AcDbEntity
  8
0
100
AcDbLine
 62
7
  6
CONTINUOUS
 10
0.0353661751
 20
12.1157393465
 11
0.8001332397
 21
12.8805064111
  0
LINE
  5
367
100
AcDbEntity
  8
0
100
AcDbLine
 62
7
  6
CONTINUOUS
 10
-0.6625940061
 20
11.2077684512
 11
-0.0709143081
 21
11.7994481493
  0
LINE
  5
368
100
AcDbEntity
  8
0
100
AcDbLine
 62
7
  6
CONTINUOUS
 10
0.0353661616
 20
11.905728619
 11
0.8001332397
 21
12.670495697
  0
LINE
  5
369
100
AcDbEntity
  8
0
100
AcDbLine
 62
7
  6
CONTINUOUS
 10
-0.514172804
 20
11.1461789394
 11
0.8001332397
 21
12.460484983
  0
LINE
  5
36A
100
AcDbEntity
  8
0
100
AcDbLine
 62
7
  6
CONTINUOUS
 10
-2.1219212369
 20
9.3284197925
 11
-2.0163106468
 21
9.4340303826
  0
LINE
  5
36B
100
AcDbEntity
  8
0
100
AcDbLine
 62
7
  6
CONTINUOUS
 10
-0.3600938491
 20
11.0902471802
 11
0.8001332397
 21
12.250474269
  0
LINE
  5
36C
100
AcDbEntity
  8
0
100
AcDbLine
 62
7
  6
CONTINUOUS
 10
2.1954452659
 20
13.6457862952
 11
2.3186893532
 21
13.7690303826
  0
LINE
  5
36D
100
AcDbEntity
  8
0
100
AcDbLine
 62
7
  6
CONTINUOUS
 10
-2.1285379318
 20
9.1117923836
 11
-1.8062999328
 21
9.4340303826
  0
LINE
  5
36E
100
AcDbEntity
  8
0
100
AcDbLine
 62
7
  6
CONTINUOUS
 10
-0.1964184745
 20
11.0439118409
 11
0.8001332397
 21
12.040463555
  0
LINE
  5
36F
100
AcDbEntity
  8
0
100
AcDbLine
 62
7
  6
CONTINUOUS
 10
2.1995386482
 20
13.4398689635
 11
2.5287000672
 21
13.7690303826
  0
LINE
  5
370
100
AcDbEntity
  8
0
100
AcDbLine
 62
7
  6
CONTINUOUS
 10
-2.1119576746
 20
8.9183619268
 11
-1.5962892187
 21
9.4340303826
  0
LINE
  5
371
100
AcDbEntity
  8
0
100
AcDbLine
 62
7
  6
CONTINUOUS
 10
-0.023146091
 20
11.0071735104
 11
0.8001332397
 21
11.830452841
  0
LINE
  5
372
100
AcDbEntity
  8
0
100
AcDbLine
 62
7
  6
CONTINUOUS
 10
2.1737360104
 20
13.2040556117
 11
2.7387107813
 21
13.7690303826
  0
LINE
  5
373
100
AcDbEntity
  8
0
100
AcDbLine
 62
7
  6
CONTINUOUS
 10
-2.0912993311
 20
8.7290095563
 11
-1.3862785047
 21
9.4340303826
  0
LINE
  5
374
100
AcDbEntity
  8
0
100
AcDbLine
 62
7
  6
CONTINUOUS
 10
0.1615904781
 20
10.9818993655
 11
1.012534492
 21
11.8328433794
  0
LINE
  5
375
100
AcDbEntity
  8
0
100
AcDbLine
 62
7
  6
CONTINUOUS
 10
2.0989565582
 20
12.9192654456
 11
2.9487214953
 21
13.7690303826
  0
LINE
  5
376
100
AcDbEntity
  8
0
100
AcDbLine
 62
7
  6
CONTINUOUS
 10
-2.049148838
 20
8.5611493353
 11
-1.3623407684
 21
9.247957405
  0
LINE
  5
377
100
AcDbEntity
  8
0
100
AcDbLine
 62
7
  6
CONTINUOUS
 10
0.3579066742
 20
10.9682048475
 11
1.4432943686
 21
12.053592542
  0
LINE
  5
378
100
AcDbEntity
  8
0
100
AcDbLine
 62
7
  6
CONTINUOUS
 10
1.869867478
 20
12.4801656513
 11
2.9602571878
 21
13.5705553611
  0
LINE
  5
379
100
AcDbEntity
  8
0
100
AcDbLine
 62
7
  6
CONTINUOUS
 10
-2.0067334291
 20
8.3935540302
 11
-1.3574780079
 21
9.0428094514
  0
LINE
  5
37A
100
AcDbEntity
  8
0
100
AcDbLine
 62
7
  6
CONTINUOUS
 10
0.5746906887
 20
10.974978148
 11
2.9590153082
 21
13.3593027675
  0
LINE
  5
37B
100
AcDbEntity
  8
0
100
AcDbLine
 62
7
  6
CONTINUOUS
 10
-1.9470994452
 20
8.2431773001
 11
-1.3334179438
 21
8.8568588015
  0
LINE
  5
37C
100
AcDbEntity
  8
0
100
AcDbLine
 62
7
  6
CONTINUOUS
 10
0.8056630714
 20
10.9959398167
 11
2.9332973053
 21
13.1235740506
  0
LINE
  5
37D
100
AcDbEntity
  8
0
100
AcDbLine
 62
7
  6
CONTINUOUS
 10
-1.8862803201
 20
8.0939857111
 11
-1.2954698274
 21
8.6847962039
  0
LINE
  5
37E
100
AcDbEntity
  8
0
100
AcDbLine
 62
7
  6
CONTINUOUS
 10
1.0721830801
 20
11.0524491113
 11
2.8740648026
 21
12.8543308339
  0
LINE
  5
37F
100
AcDbEntity
  8
0
100
AcDbLine
 62
7
  6
CONTINUOUS
 10
-1.8134638439
 20
7.9567914733
 11
-1.2410429205
 21
8.5292123968
  0
LINE
  5
380
100
AcDbEntity
  8
0
100
AcDbLine
 62
7
  6
CONTINUOUS
 10
1.3908836325
 20
11.1611389498
 11
2.7651712679
 21
12.5354265851
  0
LINE
  5
381
100
AcDbEntity
  8
0
100
AcDbLine
 62
250
  6
CONTINUOUS
 10
1.7177377476
 20
-1.5394750917
 11
3.0177377476
 21
-1.5394750917
  0
LINE
  5
382
100
AcDbEntity
  8
0
100
AcDbLine
 62
250
  6
CONTINUOUS
 10
-0.2822622524
 20
-1.1989989602
 11
1.0177377476
 21
-1.1989989602
  0
LINE
  5
383
100
AcDbEntity
  8
0
100
AcDbLine
 62
250
  6
CONTINUOUS
 10
-0.2822622524
 20
-0.610903486
 11
1.0177377476
 21
-0.610903486
  0
LINE
  5
384
100
AcDbEntity
  8
0
100
AcDbLine
 62
250
  6
CONTINUOUS
 10
-0.2822622524
 20
0.039096514
 11
1.0177377476
 21
0.039096514
  0
LINE
  5
385
100
AcDbEntity
  8
0
100
AcDbLine
 62
250
  6
CONTINUOUS
 10
1.7177377476
 20
-0.5799512231
 11
3.0177377476
 21
-0.9513796174
  0
LINE
  5
386
100
AcDbEntity
  8
0
100
AcDbLine
 62
250
  6
CONTINUOUS
 10
-4.0822622524
 20
5.7596303826
 11
0.9280157476
 21
0.8229983826
  0
LINE
  5
387
100
AcDbEntity
  8
0
100
AcDbLine
 62
250
  6
CONTINUOUS
 10
2.8320234536
 20
-2.1585225188
 11
3.0177377476
 21
-2.344236716
  0
LINE
  5
388
100
AcDbEntity
  8
RACCORDO
100
AcDbLine
 62
250
  6
CONTINUOUS
 10
0.9891178503
 20
-14.8760942444
 11
0.9885925456
 21
-14.8090980152
  0
LINE
  5
389
100
AcDbEntity
  8
RACCORDO
100
AcDbLine
 62
250
  6
CONTINUOUS
 10
0.9892077114
 20
-14.8929705202
 11
0.9891178503
 21
-14.8760942444
  0
LWPOLYLINE
  5
38A
100
AcDbEntity
  8
RACCORDO
100
AcDbPolyline
 62
250
  6
CONTINUOUS
 90
4
 70
0
 10
0.9891176614
 20
27.3151160429
 10
0.9892077114
 20
27.2902112854
 10
0.9891178504
 20
27.2733350096
 10
0.9885925456
 20
27.2063387804
  0
LINE
  5
38B
100
AcDbEntity
  8
0
100
AcDbLine
 62
250
  6
CONTINUOUS
 10
-0.2822622524
 20
-2.8394747817
 11
-0.2822622524
 21
-3.3966176831
  0
LINE
  5
38C
100
AcDbEntity
  8
0
100
AcDbLine
 62
250
  6
CONTINUOUS
 10
-0.2822622524
 20
-4.1085225188
 11
-0.2822622524
 21
-4.5728081667
  0
LINE
  5
38D
100
AcDbEntity
  8
0
100
AcDbLine
 62
250
  6
CONTINUOUS
 10
0.0353662483
 20
13.2590303826
 11
0.0353662483
 21
11.7704943826
  0
LINE
  5
38E
100
AcDbEntity
  8
0
100
AcDbLine
 62
250
  6
CONTINUOUS
 10
0.1882537476
 20
3.7696613826
 11
0.1882537476
 21
2.4237943826
  0
LINE
  5
38F
100
AcDbEntity
  8
0
100
AcDbLine
 62
250
  6
CONTINUOUS
 10
0.2748805716
 20
-3.3966176831
 11
0.2748805716
 21
-3.0251892888
  0
LINE
  5
390
100
AcDbEntity
  8
0
100
AcDbLine
 62
250
  6
CONTINUOUS
 10
0.3847017476
 20
2.4805033826
 11
0.3847017476
 21
2.5981233826
  0
LINE
  5
391
100
AcDbEntity
  8
0
100
AcDbLine
 62
250
  6
CONTINUOUS
 10
0.6463091596
 20
-5.0680462324
 11
0.6463091596
 21
-5.5632843756
  0
LINE
  5
392
100
AcDbEntity
  8
0
100
AcDbLine
 62
250
  6
CONTINUOUS
 10
0.8001332397
 20
13.2590303826
 11
0.8001332397
 21
11.7704943826
  0
LINE
  5
393
100
AcDbEntity
  8
0
100
AcDbLine
 62
250
  6
CONTINUOUS
 10
1.0177377476
 20
-4.5728081667
 11
1.0177377476
 21
-4.1085225188
  0
LINE
  5
394
100
AcDbEntity
  8
0
100
AcDbLine
 62
250
  6
CONTINUOUS
 10
1.0177377476
 20
-3.3966176831
 11
1.0177377476
 21
-2.8394747817
  0
LWPOLYLINE
  5
395
100
AcDbEntity
  8
0
100
AcDbPolyline
 62
7
  6
CONTINUOUS
 90
3
 70
0
 43
0.3500000006
 10
10.6391664391
 20
38.7343358002
 10
10.5677375221
 20
38.5200467834
 10
10.4248808212
 20
38.2343356476
  0
LWPOLYLINE
  5
396
100
AcDbEntity
  8
0
100
AcDbPolyline
 62
250
  6
CONTINUOUS
 90
34
 70
0
 10
-3.3271498424
 20
4.3021632736
 10
-3.3399513852
 20
4.2890914763
 10
-3.3523247045
 20
4.2757187534
 10
-3.3642826928
 20
4.2620545953
 10
-3.3758382422
 20
4.2481084924
 10
-3.3870042452
 20
4.2338899352
 10
-3.397793594
 20
4.2194084139
 10
-3.4082191809
 20
4.2046734191
 10
-3.4199378064
 20
4.1871764218
 10
-3.4311873052
 20
4.1693715942
 10
-3.4419761233
 20
4.1512831938
 10
-3.4523127064
 20
4.1329354786
 10
-3.4622055006
 20
4.1143527063
 10
-3.4716629515
 20
4.0955591345
 10
-3.4806940982
 20
4.0765779898
 10
-3.4893103517
 20
4.0574283727
 10
-3.4975237165
 20
4.0381283525
 10
-3.5053461966
 20
4.0186959985
 10
-3.5127897965
 20
3.99914938
 10
-3.5198665204
 20
3.9795065662
 10
-3.527890689
 20
3.95582899
 10
-3.5354214317
 20
3.9320421559
 10
-3.5424763376
 20
3.908149307
 10
-3.5490729962
 20
3.8841536868
 10
-3.5552289968
 20
3.8600585386
 10
-3.5609644841
 20
3.8358674414
 10
-3.5663098251
 20
3.8115853163
 10
-3.5712979422
 20
3.7872174202
 10
-3.5759617577
 20
3.7627690097
 10
-3.5803341939
 20
3.7382453416
 10
-3.5854445073
 20
3.7074931635
 10
-3.5902414733
 20
3.676643254
 10
-3.5948155833
 20
3.6457072581
 10
-3.5992573286
 20
3.6146968207
  0
LINE
  5
397
100
AcDbEntity
  8
0
100
AcDbLine
 62
7
  6
CONTINUOUS
 10
-1.7362894893
 20
7.8239551139
 11
-1.1756667791
 21
8.3845778241
  0
LINE
  5
398
100
AcDbEntity
  8
0
100
AcDbLine
 62
7
  6
CONTINUOUS
 10
1.8518666105
 20
11.4121112137
 11
2.5344627621
 21
12.0947073653
  0
LINE
  5
399
100
AcDbEntity
  8
0
100
AcDbLine
 62
7
  6
CONTINUOUS
 10
-1.6526723454
 20
7.6975615438
 11
-1.1031764339
 21
8.2470574553
  0
LINE
  5
39A
100
AcDbEntity
  8
0
100
AcDbLine
 62
7
  6
CONTINUOUS
 10
-1.5603130356
 20
7.5799101396
 11
-1.0167007124
 21
8.1235224628
  0
LINE
  5
39B
100
AcDbEntity
  8
0
100
AcDbLine
 62
7
  6
CONTINUOUS
 10
-1.4671825509
 20
7.4630299103
 11
-0.9234451923
 21
8.0067672689
  0
LINE
  5
39C
100
AcDbEntity
  8
0
100
AcDbLine
 62
7
  6
CONTINUOUS
 10
-1.3601411392
 20
7.360060608
 11
-0.8223838824
 21
7.8978178648
  0
LINE
  5
39D
100
AcDbEntity
  8
0
100
AcDbLine
 62
7
  6
CONTINUOUS
 10
-1.2530997275
 20
7.2570913057
 11
-0.7094968132
 21
7.80069422
  0
LINE
  5
39E
100
AcDbEntity
  8
0
100
AcDbLine
 62
7
  6
CONTINUOUS
 10
-1.1362528723
 20
7.1639274468
 11
-0.5913192737
 21
7.7088610455
  0
LINE
  5
39F
100
AcDbEntity
  8
0
100
AcDbLine
 62
7
  6
CONTINUOUS
 10
-1.0144480809
 20
7.0757215243
 11
-0.4609802627
 21
7.6291893425
  0
LINE
  5
3A0
100
AcDbEntity
  8
0
100
AcDbLine
 62
7
  6
CONTINUOUS
 10
-0.887926267
 20
6.9922326242
 11
-0.3214427145
 21
7.5587161766
  0
LINE
  5
3A1
100
AcDbEntity
  8
0
100
AcDbLine
 62
7
  6
CONTINUOUS
 10
-0.7506795198
 20
6.9194686574
 11
-0.1744089504
 21
7.4957392267
  0
LINE
  5
3A2
100
AcDbEntity
  8
0
100
AcDbLine
 62
7
  6
CONTINUOUS
 10
-0.6130612961
 20
6.847076167
 11
-0.010522306
 21
7.4496151572
  0
LINE
  5
3A3
100
AcDbEntity
  8
0
100
AcDbLine
 62
7
  6
CONTINUOUS
 10
-0.4589823412
 20
6.7911444079
 11
0.1659761521
 21
7.4161029013
  0
LINE
  5
3A4
100
AcDbEntity
  8
0
100
AcDbLine
 62
7
  6
CONTINUOUS
 10
-0.3049033863
 20
6.7352126488
 11
0.3581084069
 21
7.398224442
  0
LINE
  5
3A5
100
AcDbEntity
  8
0
100
AcDbLine
 62
7
  6
CONTINUOUS
 10
2.1985371316
 20
9.2386531667
 11
2.3939143475
 21
9.4340303826
  0
LINE
  5
3A6
100
AcDbEntity
  8
0
100
AcDbLine
 62
7
  6
CONTINUOUS
 10
-0.1343530026
 20
6.6957523184
 11
0.5726212491
 21
7.4027265702
  0
LINE
  5
3A7
100
AcDbEntity
  8
0
100
AcDbLine
 62
7
  6
CONTINUOUS
 10
2.1916643704
 20
9.0217696915
 11
2.6039250615
 21
9.4340303826
  0
LINE
  5
3A8
100
AcDbEntity
  8
0
100
AcDbLine
 62
250
  6
CONTINUOUS
 10
3.0177377476
 20
1.1062583826
 11
1.9990361249
 21
1.1062583826
  0
LINE
  5
3A9
100
AcDbEntity
  8
RACCORDO
100
AcDbLine
 62
7
  6
CONTINUOUS
 10
26.1264639509
 20
1.0071194578
 11
5.8817756902
 21
1.3604918058
  0
LINE
  5
3AA
100
AcDbEntity
  8
SMUSSO
100
AcDbLine
 62
7
  6
CONTINUOUS
 10
26.6177377476
 20
1.4986203826
 11
5.8817730319
 21
1.860567993
  0
LINE
  5
3AB
100
AcDbEntity
  8
RACCORDO
100
AcDbLine
 62
250
  6
CONTINUOUS
 10
2.7801176195
 20
-13.5504141529
 11
2.7794788105
 21
-13.4708920469
  0
LINE
  5
3AC
100
AcDbEntity
  8
0
100
AcDbLine
 62
250
  6
CONTINUOUS
 10
1.7177377476
 20
-2.2513796174
 11
1.7177377476
 21
-2.6228083217
  0
LINE
  5
3AD
100
AcDbEntity
  8
0
100
AcDbLine
 62
250
  6
CONTINUOUS
 10
1.7177377476
 20
-6.0585224413
 11
1.7177377476
 21
-6.8013796174
  0
LINE
  5
3AE
100
AcDbEntity
  8
0
100
AcDbLine
 62
250
  6
CONTINUOUS
 10
1.9990361249
 20
1.1062583826
 11
1.9990361249
 21
5.2909823826
  0
LWPOLYLINE
  5
3AF
100
AcDbEntity
  8
0
100
AcDbPolyline
 62
7
  6
CONTINUOUS
 90
2
 70
0
 43
0.3500000006
 10
2.1034520774
 20
48.4486186523
 10
2.1034520774
 20
49.9486191101
  0
LINE
  5
3B0
100
AcDbEntity
  8
0
100
AcDbLine
 62
250
  6
CONTINUOUS
 10
2.6463091596
 20
-0.3323318803
 11
2.6463091596
 21
-0.827569946
  0
LINE
  5
3B1
100
AcDbEntity
  8
0
100
AcDbLine
 62
250
  6
CONTINUOUS
 10
3.0177377476
 20
5.2909823826
 11
3.0177377476
 21
1.1062583826
  0
LINE
  5
3B2
100
AcDbEntity
  8
0
100
AcDbLine
 62
250
  6
CONTINUOUS
 10
3.0177377476
 20
-2.344236716
 11
3.0177377476
 21
-2.7156654203
  0
LINE
  5
3B3
100
AcDbEntity
  8
0
100
AcDbLine
 62
250
  6
CONTINUOUS
 10
3.0177377476
 20
-5.2228081667
 11
3.0177377476
 21
-5.5013796174
  0
LINE
  5
3B4
100
AcDbEntity
  8
RACCORDO
100
AcDbLine
 62
250
  6
CONTINUOUS
 10
2.7801894328
 20
25.9845229177
 11
2.7801175524
 21
25.9476549707
  0
LINE
  5
3B5
100
AcDbEntity
  8
RACCORDO
100
AcDbLine
 62
250
  6
CONTINUOUS
 10
2.7801175524
 20
25.9476549707
 11
2.7794788127
 21
25.8681329027
  0
LINE
  5
3B6
100
AcDbEntity
  8
RACCORDO
100
AcDbLine
 62
7
  6
CONTINUOUS
 10
-2.9787299675
 20
-15.160496658
 11
-2.9745415362
 21
-15.1427764591
  0
LINE
  5
3B7
100
AcDbEntity
  8
0
100
AcDbLine
 62
7
  6
CONTINUOUS
 10
0.0389193808
 20
6.6590139879
 11
0.8230575076
 21
7.4431521147
  0
LINE
  5
3B8
100
AcDbEntity
  8
0
100
AcDbLine
 62
7
  6
CONTINUOUS
 10
2.1517316359
 20
8.7718262429
 11
2.8139357755
 21
9.4340303826
  0
LINE
  5
3B9
100
AcDbEntity
  8
0
100
AcDbLine
 62
7
  6
CONTINUOUS
 10
0.2319101511
 20
6.6419940441
 11
1.1421972422
 21
7.5522811353
  0
LINE
  5
3BA
100
AcDbEntity
  8
0
100
AcDbLine
 62
7
  6
CONTINUOUS
 10
2.0497237271
 20
8.4598076202
 11
2.9562622962
 21
9.3663461893
  0
LINE
  5
3BB
100
AcDbEntity
  8
0
100
AcDbLine
 62
7
  6
CONTINUOUS
 10
0.4297975958
 20
6.6298707748
 11
2.9624867689
 21
9.1625599479
  0
LINE
  5
3BC
100
AcDbEntity
  8
0
100
AcDbLine
 62
7
  6
CONTINUOUS
 10
0.6555566893
 20
6.6456191543
 11
2.9498032229
 21
8.9398656879
  0
LINE
  5
3BD
100
AcDbEntity
  8
0
100
AcDbLine
 62
7
  6
CONTINUOUS
 10
0.9011294681
 20
6.6811812191
 11
2.9197350068
 21
8.6997867579
  0
LINE
  5
3BE
100
AcDbEntity
  8
0
100
AcDbLine
 62
7
  6
CONTINUOUS
 10
1.1792867278
 20
6.7493277648
 11
2.8485758943
 21
8.4186169313
  0
LINE
  5
3BF
100
AcDbEntity
  8
0
100
AcDbLine
 62
7
  6
CONTINUOUS
 10
1.5292634961
 20
6.8892938191
 11
2.7134004093
 21
8.0734307323
  0
LINE
  5
3C0
100
AcDbEntity
  8
0
100
AcDbLine
 62
250
  6
CONTINUOUS
 10
0.9186987476
 20
5.4301763826
 11
-4.0585872524
 21
0.6984903826
  0
LINE
  5
3C1
100
AcDbEntity
  8
0
100
AcDbLine
 62
250
  6
CONTINUOUS
 10
0.1882537476
 20
2.4237943826
 11
-3.1739672524
 21
2.1297443826
  0
LINE
  5
3C2
100
AcDbEntity
  8
0
100
AcDbLine
 62
250
  6
CONTINUOUS
 10
-3.5685852524
 20
2.4168363826
 11
-3.1739672524
 21
2.4168363826
  0
LINE
  5
3C3
100
AcDbEntity
  8
0
100
AcDbLine
 62
250
  6
CONTINUOUS
 10
0.1882537476
 20
2.4805033826
 11
0.3847017476
 21
2.4805033826
  0
LINE
  5
3C4
100
AcDbEntity
  8
0
100
AcDbLine
 62
250
  6
CONTINUOUS
 10
-3.1739672524
 20
2.5162103826
 11
-3.5685852524
 21
2.5162103826
  0
LINE
  5
3C5
100
AcDbEntity
  8
0
100
AcDbLine
 62
250
  6
CONTINUOUS
 10
0.3847017476
 20
2.5981233826
 11
0.1882537476
 21
2.5981233826
  0
LINE
  5
3C6
100
AcDbEntity
  8
0
100
AcDbLine
 62
250
  6
CONTINUOUS
 10
-2.3461772524
 20
2.9866903826
 11
-2.1305412524
 21
2.9866903826
  0
LINE
  5
3C7
100
AcDbEntity
  8
0
100
AcDbLine
 62
250
  6
CONTINUOUS
 10
-3.6615592524
 20
3.0416933826
 11
-3.4440652524
 21
3.0416933826
  0
LINE
  5
3C8
100
AcDbEntity
  8
0
100
AcDbLine
 62
250
  6
CONTINUOUS
 10
-3.4435072524
 20
3.6146963826
 11
-3.6610012524
 21
3.6146963826
  0
LINE
  5
3C9
100
AcDbEntity
  8
ASSI
100
AcDbLine
 62
7
  6
CONTINUOUS
 10
15.5677377476
 20
3.7986203826
 11
18.0677377476
 21
3.7986203826
  0
LINE
  5
3CA
100
AcDbEntity
  8
ASSI
100
AcDbLine
 62
7
  6
CONTINUOUS
 10
20.5677377476
 20
3.7986203826
 11
23.0677377476
 21
3.7986203826
  0
LINE
  5
3CB
100
AcDbEntity
  8
0
100
AcDbLine
 62
250
  6
CONTINUOUS
 10
-2.1305412524
 20
3.8100303826
 11
-2.3461772524
 21
3.8100303826
  0
LINE
  5
3CC
100
AcDbEntity
  8
ASSI
100
AcDbLine
 62
250
  6
CONTINUOUS
 10
15.5677377476
 20
4.1986203826
 11
18.0677377476
 21
4.1986203826
  0
LINE
  5
3CD
100
AcDbEntity
  8
ASSI
100
AcDbLine
 62
250
  6
CONTINUOUS
 10
20.5677377476
 20
4.1986203826
 11
23.0677377476
 21
4.1986203826
  0
LINE
  5
3CE
100
AcDbEntity
  8
0
100
AcDbLine
 62
250
  6
CONTINUOUS
 10
-2.8110572524
 20
4.2665073826
 11
-2.4385932524
 21
4.2665073826
  0
LINE
  5
3CF
100
AcDbEntity
  8
0
100
AcDbLine
 62
250
  6
CONTINUOUS
 10
-3.1464152524
 20
4.3484593826
 11
-0.2498902524
 21
4.0792133826
  0
LWPOLYLINE
  5
3D0
100
AcDbEntity
  8
RACCORDO
100
AcDbPolyline
 62
250
  6
CONTINUOUS
 90
7
 70
0
 10
4.5126241772
 20
12.1380516126
 10
4.5125186571
 20
12.1811680669
 10
4.5122039028
 20
12.2175018554
 10
4.5116852978
 20
12.2464315419
 10
4.510971712
 20
12.2674623259
 10
4.5100753505
 20
12.280234506
 10
4.5090115444
 20
12.2845296339
  0
LINE
  5
3D1
100
AcDbEntity
  8
RACCORDO
100
AcDbLine
 62
7
  6
CONTINUOUS
 10
4.0177377476
 20
12.7844534815
 11
4.0177377476
 21
25.5017562184
  0
LINE
  5
3D2
100
AcDbEntity
  8
RACCORDO
100
AcDbLine
 62
250
  6
CONTINUOUS
 10
3.5264639509
 20
12.7844534815
 11
3.5264639509
 21
25.8550230935
  0
LINE
  5
3D3
100
AcDbEntity
  8
RACCORDO
100
AcDbLine
 62
250
  6
CONTINUOUS
 10
3.5264637268
 20
22.2544289899
 11
3.5266208292
 21
22.3662244927
  0
LINE
  5
3D4
100
AcDbEntity
  8
RACCORDO
100
AcDbLine
 62
250
  6
CONTINUOUS
 10
3.5271749534
 20
25.9714691943
 11
3.527103034
 21
25.9345833053
  0
LINE
  5
3D5
100
AcDbEntity
  8
RACCORDO
100
AcDbLine
 62
250
  6
CONTINUOUS
 10
4.5122039045
 20
12.0345238862
 11
4.5126241772
 21
12.1380516126
  0
LINE
  5
3D6
100
AcDbEntity
  8
RACCORDO
100
AcDbLine
 62
250
  6
CONTINUOUS
 10
3.527103034
 20
25.9345833053
 11
3.5264639509
 21
25.8550242609
  0
LINE
  5
3D7
100
AcDbEntity
  8
RACCORDO
100
AcDbLine
 62
250
  6
CONTINUOUS
 10
4.510971714
 20
11.9139711798
 11
4.5122039045
 21
12.0345238862
  0
LINE
  5
3D8
100
AcDbEntity
  8
RACCORDO
100
AcDbLine
 62
250
  6
CONTINUOUS
 10
4.5090115444
 20
11.7846057864
 11
4.510971714
 21
11.9139711798
  0
LWPOLYLINE
  5
3D9
100
AcDbEntity
  8
RACCORDO
100
AcDbPolyline
 62
250
  6
CONTINUOUS
 90
5
 70
0
 10
0.9885925456
 20
-14.9320680891
 10
0.9888710472
 20
-14.930471768
 10
0.9890377599
 20
-14.9257261468
 10
0.9891176614
 20
-14.9178752777
 10
0.9892077114
 20
-14.8929705202
  0
LINE
  5
3DA
100
AcDbEntity
  8
RACCORDO
100
AcDbLine
 62
7
  6
CONTINUOUS
 10
-2.9745415362
 20
-15.1427764591
 11
-2.9689259235
 21
-15.1248407694
  0
LWPOLYLINE
  5
3DB
100
AcDbEntity
  8
RACCORDO
100
AcDbPolyline
 62
7
  6
CONTINUOUS
 90
3
 70
0
 10
-2.9689259235
 20
-15.1248407694
 10
-2.9618831292
 20
-15.1066890374
 10
-2.953353227
 20
-15.0883020846
  0
LINE
  5
3DC
100
AcDbEntity
  8
0
100
AcDbLine
 62
7
  6
CONTINUOUS
 10
1.9990361249
 20
5.1278138962
 11
2.1622046113
 21
5.2909823826
  0
LINE
  5
3DD
100
AcDbEntity
  8
0
100
AcDbLine
 62
7
  6
CONTINUOUS
 10
1.9990361249
 20
4.9178031822
 11
2.3722153254
 21
5.2909823826
  0
LINE
  5
3DE
100
AcDbEntity
  8
0
100
AcDbLine
 62
7
  6
CONTINUOUS
 10
1.9990361249
 20
4.7077924681
 11
2.5822260394
 21
5.2909823826
  0
LINE
  5
3DF
100
AcDbEntity
  8
0
100
AcDbLine
 62
7
  6
CONTINUOUS
 10
1.9990361249
 20
4.4977817541
 11
2.7922367534
 21
5.2909823826
  0
LINE
  5
3E0
100
AcDbEntity
  8
0
100
AcDbLine
 62
7
  6
CONTINUOUS
 10
1.9990361249
 20
4.2877710401
 11
3.0022474674
 21
5.2909823826
  0
LINE
  5
3E1
100
AcDbEntity
  8
0
100
AcDbLine
 62
7
  6
CONTINUOUS
 10
1.9990361249
 20
4.0777603261
 11
3.0177377476
 21
5.0964619488
  0
LINE
  5
3E2
100
AcDbEntity
  8
0
100
AcDbLine
 62
7
  6
CONTINUOUS
 10
1.9990361249
 20
3.8677496121
 11
3.0177377476
 21
4.8864512348
  0
LINE
  5
3E3
100
AcDbEntity
  8
0
100
AcDbLine
 62
7
  6
CONTINUOUS
 10
1.9990361249
 20
3.6577388981
 11
3.0177377476
 21
4.6764405208
  0
LINE
  5
3E4
100
AcDbEntity
  8
0
100
AcDbLine
 62
7
  6
CONTINUOUS
 10
1.9990361249
 20
3.4477281841
 11
3.0177377476
 21
4.4664298068
  0
LINE
  5
3E5
100
AcDbEntity
  8
0
100
AcDbLine
 62
7
  6
CONTINUOUS
 10
1.9990361249
 20
3.2377174701
 11
3.0177377476
 21
4.2564190928
  0
LINE
  5
3E6
100
AcDbEntity
  8
0
100
AcDbLine
 62
7
  6
CONTINUOUS
 10
1.9990361249
 20
3.027706756
 11
3.0177377476
 21
4.0464083788
  0
LINE
  5
3E7
100
AcDbEntity
  8
0
100
AcDbLine
 62
7
  6
CONTINUOUS
 10
1.9990361249
 20
2.817696042
 11
3.0177377476
 21
3.8363976647
  0
LWPOLYLINE
  5
3E8
100
AcDbEntity
  8
SMUSSO
100
AcDbPolyline
 62
7
  6
CONTINUOUS
 90
46
 70
0
 10
5.8817756902
 20
5.1367489594
 10
5.7493436816
 20
5.1301909192
 10
5.6191591565
 20
5.1148683604
 10
5.4912221148
 20
5.090781283
 10
5.3650441993
 20
5.0577388272
 10
5.2411137672
 20
5.0159318528
 10
5.1208958908
 20
4.9659329389
 10
5.0043381566
 20
4.9076201292
 10
4.891492978
 20
4.8411153799
 10
4.7839826672
 20
4.7673571385
 10
4.6818952984
 20
4.6862580824
 10
4.5851427974
 20
4.5979055342
 10
4.4950832537
 20
4.5034999089
 10
4.41178218
 20
4.402912749
 10
4.3351740636
 20
4.2962725121
 10
4.2664204558
 20
4.185164986
 10
4.2056573915
 20
4.0695219796
 10
4.1527488359
 20
3.9494116841
 10
4.1084482358
 20
3.8266244609
 10
4.0728945509
 20
3.7011651721
 10
4.0459488215
 20
3.5730289556
 10
4.0279476153
 20
3.4439915863
 10
4.0190031222
 20
3.3140442169
 10
4.0190031524
 20
3.1831956949
 10
4.0279477028
 20
3.053248337
 10
4.0459489635
 20
2.9242109916
 10
4.0728947445
 20
2.7960748104
 10
4.1084484734
 20
2.6706155655
 10
4.152749109
 20
2.5478283955
 10
4.2056576926
 20
2.4277181617
 10
4.2664207752
 20
2.3120752199
 10
4.3351743904
 20
2.2009677615
 10
4.4117825046
 20
2.0943275951
 10
4.4950835683
 20
1.9937405025
 10
4.5851430934
 20
1.8993349405
 10
4.6818955681
 20
1.8109824523
 10
4.7839829068
 20
1.7298834497
 10
4.8914931832
 20
1.6561252542
 10
5.0043383237
 20
1.5896205443
 10
5.1208960213
 20
1.5313077666
 10
5.2411138629
 20
1.4813088764
 10
5.3650442617
 20
1.4395019184
 10
5.4912221505
 20
1.4064594742
 10
5.6191591737
 20
1.3823724043
 10
5.7493436869
 20
1.3670498481
 10
5.8817756902
 20
1.3604918058
  0
LINE
  5
3E9
100
AcDbEntity
  8
SMUSSO
100
AcDbLine
 62
7
  6
CONTINUOUS
 10
26.6177377476
 20
4.9986203826
 11
5.8817730319
 21
4.6366727721
  0
LINE
  5
3EA
100
AcDbEntity
  8
RACCORDO
100
AcDbLine
 62
7
  6
CONTINUOUS
 10
26.1264639509
 20
5.4901213074
 11
5.8817756902
 21
5.1367489594
  0
LINE
  5
3EB
100
AcDbEntity
  8
0
100
AcDbLine
 62
250
  6
CONTINUOUS
 10
-2.4385932524
 20
4.6165673826
 11
-2.8110572524
 21
4.6165673826
  0
LINE
  5
3EC
100
AcDbEntity
  8
0
100
AcDbLine
 62
250
  6
CONTINUOUS
 10
1.9990361249
 20
5.2909823826
 11
3.0177377476
 21
5.2909823826
  0
LINE
  5
3ED
100
AcDbEntity
  8
ASSI
100
AcDbLine
 62
7
  6
CONTINUOUS
 10
26.6177377476
 20
6.2035643826
 11
26.7177377476
 21
6.2035643826
  0
LINE
  5
3EE
100
AcDbEntity
  8
CURVE
100
AcDbLine
 62
7
420
10991288
  6
CONTINUOUS
 10
15.2768069884
 20
6.3986203826
 11
15.8859026845
 21
6.3986203826
  0
LINE
  5
3EF
100
AcDbEntity
  8
CURVE
100
AcDbLine
 62
7
420
10991288
  6
CONTINUOUS
 10
16.7995462285
 20
6.3986203826
 11
18.0177377476
 21
6.3986203826
  0
LWPOLYLINE
  5
3F0
100
AcDbEntity
  8
RACCORDO
100
AcDbPolyline
 62
7
  6
CONTINUOUS
 90
3
 70
0
 10
-2.9685654529
 20
27.5211864971
 10
-2.9743454955
 20
27.5395045049
 10
-2.9787299675
 20
27.5577374233
  0
LWPOLYLINE
  5
3F1
100
AcDbEntity
  8
RACCORDO
100
AcDbPolyline
 62
250
  6
CONTINUOUS
 90
4
 70
0
 10
0.9885925456
 20
27.3293088543
 10
0.9888710472
 20
27.3277125332
 10
0.9890377599
 20
27.322966912
 10
0.9891176614
 20
27.3151160429
  0
LINE
  5
3F2
100
AcDbEntity
  8
SMUSSO
100
AcDbLine
 62
250
  6
CONTINUOUS
 10
5.8817756902
 20
1.3604918058
 11
5.8817730319
 21
1.860567993
  0
LINE
  5
3F3
100
AcDbEntity
  8
SMUSSO
100
AcDbLine
 62
250
  6
CONTINUOUS
 10
5.8817756902
 20
5.1367489594
 11
5.8817730319
 21
4.6366727721
  0
LWPOLYLINE
  5
3F4
100
AcDbEntity
  8
RACCORDO
100
AcDbPolyline
 62
250
  6
CONTINUOUS
 90
6
 70
0
 10
2.7794788119
 20
-13.6174779312
 10
2.7797609094
 20
-13.6155684711
 10
2.7799743859
 20
-13.6098656285
 10
2.7801176146
 20
-13.6004128421
 10
2.780189504
 20
-13.5872821139
 10
2.7801176195
 20
-13.5504141529
  0
LINE
  5
3F5
100
AcDbEntity
  8
0
100
AcDbLine
 62
7
  6
CONTINUOUS
 10
1.9990361249
 20
2.607685328
 11
3.0177377476
 21
3.6263869507
  0
LINE
  5
3F6
100
AcDbEntity
  8
0
100
AcDbLine
 62
7
  6
CONTINUOUS
 10
1.9990361249
 20
2.397674614
 11
3.0177377476
 21
3.4163762367
  0
LINE
  5
3F7
100
AcDbEntity
  8
0
100
AcDbLine
 62
7
  6
CONTINUOUS
 10
1.9990361249
 20
2.1876639
 11
3.0177377476
 21
3.2063655227
  0
LINE
  5
3F8
100
AcDbEntity
  8
0
100
AcDbLine
 62
7
  6
CONTINUOUS
 10
1.9990361249
 20
1.977653186
 11
3.0177377476
 21
2.9963548087
  0
LINE
  5
3F9
100
AcDbEntity
  8
0
100
AcDbLine
 62
7
  6
CONTINUOUS
 10
1.9990361249
 20
1.767642472
 11
3.0177377476
 21
2.7863440947
  0
LINE
  5
3FA
100
AcDbEntity
  8
0
100
AcDbLine
 62
7
  6
CONTINUOUS
 10
1.9990361249
 20
1.557631758
 11
3.0177377476
 21
2.5763333807
  0
LINE
  5
3FB
100
AcDbEntity
  8
0
100
AcDbLine
 62
7
  6
CONTINUOUS
 10
1.9990361249
 20
1.347621044
 11
3.0177377476
 21
2.3663226667
  0
LINE
  5
3FC
100
AcDbEntity
  8
0
100
AcDbLine
 62
7
  6
CONTINUOUS
 10
1.9990361249
 20
1.1376103299
 11
3.0177377476
 21
2.1563119526
  0
LINE
  5
3FD
100
AcDbEntity
  8
0
100
AcDbLine
 62
7
  6
CONTINUOUS
 10
2.1776948916
 20
1.1062583826
 11
3.0177377476
 21
1.9463012386
  0
LINE
  5
3FE
100
AcDbEntity
  8
0
100
AcDbLine
 62
7
  6
CONTINUOUS
 10
2.3877056056
 20
1.1062583826
 11
3.0177377476
 21
1.7362905246
  0
LINE
  5
3FF
100
AcDbEntity
  8
0
100
AcDbLine
 62
7
  6
CONTINUOUS
 10
2.5977163196
 20
1.1062583826
 11
3.0177377476
 21
1.5262798106
  0
LINE
  5
400
100
AcDbEntity
  8
0
100
AcDbLine
 62
7
  6
CONTINUOUS
 10
2.8077270336
 20
1.1062583826
 11
3.0177377476
 21
1.3162690966
  0
LINE
  5
401
100
AcDbEntity
  8
ASSI
100
AcDbLine
 62
7
  6
CONTINUOUS
 10
26.6177377476
 20
8.2536613826
 11
26.7177377476
 21
8.2536613826
  0
LINE
  5
402
100
AcDbEntity
  8
CURVE
100
AcDbLine
 62
7
420
10991288
  6
CONTINUOUS
 10
15.4290808489
 20
8.2986203826
 11
16.038176672
 21
8.2986203826
  0
LINE
  5
403
100
AcDbEntity
  8
CURVE
100
AcDbLine
 62
7
420
10991288
  6
CONTINUOUS
 10
22.2563680641
 20
8.2986203826
 11
23.0177377476
 21
8.2986203826
  0
LINE
  5
404
100
AcDbEntity
  8
CURVE
100
AcDbLine
 62
250
  6
CONTINUOUS
 10
-2.4984651777
 20
15.9200489572
 11
-2.2842447447
 21
15.7057632445
  0
LINE
  5
405
100
AcDbEntity
  8
CURVE
100
AcDbLine
 62
250
  6
CONTINUOUS
 10
-2.2842447447
 20
16.7771917856
 11
-2.4984651777
 21
16.9914774871
  0
LINE
  5
406
100
AcDbEntity
  8
CURVE
100
AcDbLine
 62
250
  6
CONTINUOUS
 10
-1.9629140505
 20
18.5629060543
 11
-1.8558038787
 21
18.3843345917
  0
LWPOLYLINE
  5
407
100
AcDbEntity
  8
RACCORDO
100
AcDbPolyline
 62
250
  6
CONTINUOUS
 90
5
 70
0
 10
2.7794788127
 20
26.0147187401
 10
2.779760884
 20
26.0128092744
 10
2.7799743392
 20
26.0071064292
 10
2.7801175524
 20
25.9976536429
 10
2.7801894328
 20
25.9845229177
  0
LWPOLYLINE
  5
408
100
AcDbEntity
  8
RACCORDO
100
AcDbPolyline
 62
250
  6
CONTINUOUS
 90
5
 70
0
 10
3.5264639509
 20
26.001680066
 10
3.5267461729
 20
25.9997696394
 10
3.5269597431
 20
25.9940639317
 10
3.527103034
 20
25.9846064253
 10
3.5271749534
 20
25.9714691943
  0
LWPOLYLINE
  5
409
100
AcDbEntity
  8
RACCORDO
100
AcDbPolyline
 62
7
  6
CONTINUOUS
 90
3
 70
0
 10
-2.953353227
 20
-15.0883020846
 10
-2.9433961432
 20
-15.069697934
 10
-2.9321916572
 20
-15.0509320161
  0
LINE
  5
40A
100
AcDbEntity
  8
0
100
AcDbLine
 62
250
  6
CONTINUOUS
 10
2.0891662969
 20
-2.8085225188
 11
2.6463091596
 21
-2.1585225188
  0
LINE
  5
40B
100
AcDbEntity
  8
0
100
AcDbLine
 62
250
  6
CONTINUOUS
 10
-0.0965479777
 20
-3.9228083217
 11
-0.2822622524
 21
-4.1085225188
  0
LINE
  5
40C
100
AcDbEntity
  8
0
100
AcDbLine
 62
250
  6
CONTINUOUS
 10
1.8105949237
 20
-2.1585225188
 11
1.7177377476
 21
-2.2513796174
  0
LINE
  5
40D
100
AcDbEntity
  8
0
100
AcDbLine
 62
250
  6
CONTINUOUS
 10
1.0177377476
 20
0.039096514
 11
-0.2822622524
 21
-0.610903486
  0
LINE
  5
40E
100
AcDbEntity
  8
0
100
AcDbLine
 62
250
  6
CONTINUOUS
 10
-2.1186954537
 20
9.4340303826
 11
-1.3484041455
 21
9.4340303826
  0
LINE
  5
40F
100
AcDbEntity
  8
0
100
AcDbLine
 62
250
  6
CONTINUOUS
 10
2.1839036335
 20
9.4340303826
 11
2.9541949417
 21
9.4340303826
  0
LINE
  5
410
100
AcDbEntity
  8
CURVE
100
AcDbLine
 62
250
  6
CONTINUOUS
 10
-0.9989220574
 20
16.0271918303
 11
-1.2131425127
 21
16.2414775318
  0
LINE
  5
411
100
AcDbEntity
  8
CURVE
100
AcDbLine
 62
250
  6
CONTINUOUS
 10
-1.4273629681
 20
17.4200489796
 11
-0.9989220574
 21
16.9914774871
  0
LINE
  5
412
100
AcDbEntity
  8
CURVE
100
AcDbLine
 62
250
  6
CONTINUOUS
 10
-1.1060322851
 20
18.5986203826
 11
-0.9989220574
 21
18.4914775765
  0
LWPOLYLINE
  5
413
100
AcDbEntity
  8
RACCORDO
100
AcDbPolyline
 62
7
  6
CONTINUOUS
 90
5
 70
0
 10
-2.9314895777
 20
27.4470616999
 10
-2.9427152088
 20
27.4657295808
 10
-2.9527503096
 20
27.4842991216
 10
-2.9613898399
 20
27.5027833062
 10
-2.9685654529
 20
27.5211864971
  0
LWPOLYLINE
  5
414
100
AcDbEntity
  8
RACCORDO
100
AcDbPolyline
 62
7
  6
CONTINUOUS
 90
9
 70
0
 10
-2.9321916572
 20
-15.0509320161
 10
-2.9197128443
 20
-15.0320136631
 10
-2.9059866291
 20
-15.0129328075
 10
-2.8912735653
 20
-14.9937160395
 10
-2.8755508694
 20
-14.9743839417
 10
-2.8588413248
 20
-14.9549153687
 10
-2.8414738346
 20
-14.9352742356
 10
-2.8235580332
 20
-14.9154481302
 10
-2.8049842861
 20
-14.8954484891
  0
LINE
  5
415
100
AcDbEntity
  8
0
100
AcDbLine
 62
250
  6
CONTINUOUS
 10
3.0177377476
 20
-2.7156654203
 11
2.9248806006
 21
-2.8085225188
  0
LINE
  5
416
100
AcDbEntity
  8
CURVE
100
AcDbLine
 62
7
420
10991288
  6
CONTINUOUS
 10
15.124533128
 20
8.027191799
 11
15.4290808489
 21
8.2986203826
  0
LINE
  5
417
100
AcDbEntity
  8
0
100
AcDbLine
 62
250
  6
CONTINUOUS
 10
3.0177377476
 20
-0.2085222089
 11
1.7177377476
 21
-0.5799512231
  0
LINE
  5
418
100
AcDbEntity
  8
CURVE
100
AcDbLine
 62
250
  6
CONTINUOUS
 10
-2.9826751266
 20
10.8965243826
 11
-4.7821378675
 21
10.8965243826
  0
LINE
  5
419
100
AcDbEntity
  8
CURVE
100
AcDbLine
 62
250
  6
CONTINUOUS
 10
-4.426769141
 20
11.1234063826
 11
-2.9826751266
 21
11.1234063826
  0
LINE
  5
41A
100
AcDbEntity
  8
RACCORDO
100
AcDbLine
 62
250
  6
CONTINUOUS
 10
26.6177377476
 20
11.407271751
 11
26.1264639509
 21
11.407271751
  0
LINE
  5
41B
100
AcDbEntity
  8
CURVE
100
AcDbLine
 62
250
  6
CONTINUOUS
 10
-3.3228954685
 20
12.1041083826
 11
-4.7821378675
 21
12.1041083826
  0
LINE
  5
41C
100
AcDbEntity
  8
CURVE
100
AcDbLine
 62
250
  6
CONTINUOUS
 10
-4.7821378675
 20
12.3310073826
 11
-2.9826751266
 21
12.3310073826
  0
LINE
  5
41D
100
AcDbEntity
  8
RACCORDO
100
AcDbLine
 62
250
  6
CONTINUOUS
 10
3.5264639509
 20
12.7844534815
 11
4.0177377476
 21
12.7844534815
  0
LINE
  5
41E
100
AcDbEntity
  8
CURVE
100
AcDbLine
 62
250
  6
CONTINUOUS
 10
-2.9826751266
 20
12.8326353826
 11
-4.7821378675
 21
12.8326353826
  0
LINE
  5
41F
100
AcDbEntity
  8
RACCORDO
100
AcDbLine
 62
250
  6
CONTINUOUS
 10
26.1264639509
 20
11.407271751
 11
4.5090115444
 21
11.7846057864
  0
LINE
  5
420
100
AcDbEntity
  8
RACCORDO
100
AcDbLine
 62
7
  6
CONTINUOUS
 10
26.1264639509
 20
11.9071955986
 11
4.5090115444
 21
12.2845296339
  0
LWPOLYLINE
  5
421
100
AcDbEntity
  8
RACCORDO
100
AcDbPolyline
 62
250
  6
CONTINUOUS
 90
25
 70
0
 10
4.5090115444
 20
11.7846057864
 10
4.4563774663
 20
11.7862372086
 10
4.4019692872
 20
11.7916725349
 10
4.3457870072
 20
11.800911765
 10
4.2872607935
 20
11.8137203309
 10
4.2269604789
 20
11.8303328007
 10
4.1665955613
 20
11.8514528794
 10
4.1061086948
 20
11.8773488231
 10
4.0455572253
 20
11.9077523756
 10
3.9868226881
 20
11.9425624736
 10
3.93002653
 20
11.9820158354
 10
3.8750473043
 20
12.0258757426
 10
3.8234022059
 20
12.073330977
 10
3.7752726246
 20
12.1245621692
 10
3.7304771707
 20
12.1793886885
 10
3.6899888702
 20
12.2364574244
 10
3.6540297209
 20
12.2958945358
 10
3.622377725
 20
12.3575738637
 10
3.5953399145
 20
12.419763821
 10
3.5731727467
 20
12.4824690684
 10
3.5556197642
 20
12.5456849451
 10
3.5422186273
 20
12.6076658818
 10
3.5328152229
 20
12.6678300218
 10
3.527563664
 20
12.7267592217
 10
3.5264639509
 20
12.7844534815
  0
LINE
  5
422
100
AcDbEntity
  8
CURVE
100
AcDbLine
 62
250
  6
CONTINUOUS
 10
-3.2220901818
 20
15.0662443826
 11
-4.782132869
 21
15.5855523826
  0
LINE
  5
423
100
AcDbEntity
  8
CURVE
100
AcDbLine
 62
250
  6
CONTINUOUS
 10
-4.782132869
 20
15.8351473826
 11
-2.9826701281
 21
15.1947873826
  0
LINE
  5
424
100
AcDbEntity
  8
CURVE
100
AcDbLine
 62
250
  6
CONTINUOUS
 10
-2.2842447447
 20
15.7057632445
 11
-2.0700243117
 21
15.5986203826
  0
LINE
  5
425
100
AcDbEntity
  8
CURVE
100
AcDbLine
 62
250
  6
CONTINUOUS
 10
-1.2131425127
 20
16.2414775318
 11
-1.4273629681
 21
16.3486203826
  0
LINE
  5
426
100
AcDbEntity
  8
CURVE
100
AcDbLine
 62
250
  6
CONTINUOUS
 10
-2.1771344835
 20
19.0271919644
 11
-2.4984651777
 21
19.2414775765
  0
LINE
  5
427
100
AcDbEntity
  8
CURVE
100
AcDbLine
 62
250
  6
CONTINUOUS
 10
-2.4984651777
 20
20.5271919644
 11
-2.2842447447
 21
20.3129059947
  0
LINE
  5
428
100
AcDbEntity
  8
CURVE
100
AcDbLine
 62
250
  6
CONTINUOUS
 10
-0.9989220574
 20
20.6343347705
 11
-1.2131425127
 21
20.8486203826
  0
LINE
  5
429
100
AcDbEntity
  8
0
100
AcDbLine
 62
250
  6
CONTINUOUS
 10
3.0177377476
 20
-5.5013796174
 11
2.8320234536
 21
-5.6870938921
  0
LINE
  5
42A
100
AcDbEntity
  8
CURVE
100
AcDbLine
 62
7
420
10991288
  6
CONTINUOUS
 10
15.8859026845
 20
6.3986203826
 11
16.1904505325
 21
6.6700489378
  0
LINE
  5
42B
100
AcDbEntity
  8
0
100
AcDbLine
 62
250
  6
CONTINUOUS
 10
3.0177377476
 20
-4.0156654203
 11
1.7177377476
 21
-4.6656652653
  0
LINE
  5
42C
100
AcDbEntity
  8
CURVE
100
AcDbLine
 62
250
  6
CONTINUOUS
 10
-4.5805202962
 20
13.0721463826
 11
-4.0084196035
 21
13.0721463826
  0
LINE
  5
42D
100
AcDbEntity
  8
CURVE
100
AcDbLine
 62
250
  6
CONTINUOUS
 10
-3.8067850373
 20
13.0721463826
 11
-3.1842926979
 21
13.0721463826
  0
LINE
  5
42E
100
AcDbEntity
  8
0
100
AcDbLine
 62
250
  6
CONTINUOUS
 10
0.0353662483
 20
13.2590303826
 11
0.8001332397
 21
13.2590303826
  0
LINE
  5
42F
100
AcDbEntity
  8
0
100
AcDbLine
 62
250
  6
CONTINUOUS
 10
-2.1186954537
 20
13.7690303826
 11
-1.3484041455
 21
13.7690303826
  0
LINE
  5
430
100
AcDbEntity
  8
0
100
AcDbLine
 62
250
  6
CONTINUOUS
 10
2.1839036335
 20
13.7690303826
 11
2.9541949417
 21
13.7690303826
  0
LINE
  5
431
100
AcDbEntity
  8
CURVE
100
AcDbLine
 62
250
  6
CONTINUOUS
 10
-4.0084196035
 20
14.0074383826
 11
-3.8067850373
 21
14.0074383826
  0
LINE
  5
432
100
AcDbEntity
  8
CURVE
100
AcDbLine
 62
250
  6
CONTINUOUS
 10
-4.7821378675
 20
14.0755073826
 11
-4.5805202962
 21
14.0755073826
  0
LINE
  5
433
100
AcDbEntity
  8
CURVE
100
AcDbLine
 62
250
  6
CONTINUOUS
 10
-3.1842926979
 20
14.0830663826
 11
-2.9826751266
 21
14.0830663826
  0
LINE
  5
434
100
AcDbEntity
  8
CURVE
100
AcDbLine
 62
250
  6
CONTINUOUS
 10
-2.0700243117
 20
19.7771919644
 11
-0.9989220574
 21
19.0271919644
  0
LINE
  5
435
100
AcDbEntity
  8
CURVE
100
AcDbLine
 62
7
420
10991288
  6
CONTINUOUS
 10
16.1904505325
 20
6.9414774931
 11
15.124533128
 21
7.7557632155
  0
LINE
  5
436
100
AcDbEntity
  8
CURVE
100
AcDbLine
 62
7
420
10991288
  6
CONTINUOUS
 10
15.124533128
 20
6.5343347168
 11
15.2768069884
 21
6.3986203826
  0
LWPOLYLINE
  5
437
100
AcDbEntity
  8
RACCORDO
100
AcDbPolyline
 62
7
  6
CONTINUOUS
 90
6
 70
0
 10
-2.8587610088
 20
27.352058959
 10
-2.8753039628
 20
27.3713281494
 10
-2.8908745434
 20
27.3904535053
 10
-2.9054579806
 20
27.4094512495
 10
-2.9190690443
 20
27.4283057879
 10
-2.9314895777
 20
27.4470616999
  0
LINE
  5
438
100
AcDbEntity
  8
ASSI
100
AcDbLine
 62
7
  6
CONTINUOUS
 10
15.5677377476
 20
4.1986203826
 11
15.2668033957
 21
4.8004890865
  0
LINE
  5
439
100
AcDbEntity
  8
0
100
AcDbLine
 62
7
  6
CONTINUOUS
 10
14.3177377476
 20
1.7133176812
 11
14.3177377476
 21
4.783923084
  0
LINE
  5
43A
100
AcDbEntity
  8
0
100
AcDbLine
 62
7
  6
CONTINUOUS
 10
14.7677377476
 20
1.705462902
 11
14.7677377476
 21
4.7917778632
  0
LINE
  5
43B
100
AcDbEntity
  8
CURVE
100
AcDbLine
 62
7
420
10991288
  6
CONTINUOUS
 10
15.124533128
 20
7.7557632155
 11
15.124533128
 21
8.027191799
  0
LINE
  5
43C
100
AcDbEntity
  8
ASSI
100
AcDbLine
 62
7
  6
CONTINUOUS
 10
15.5677377476
 20
4.1986203826
 11
15.5677377476
 21
3.7986203826
  0
LINE
  5
43D
100
AcDbEntity
  8
RACCORDO
100
AcDbLine
 62
7
  6
CONTINUOUS
 10
-2.8049842861
 20
-14.8954484891
 11
-2.7857525934
 21
-14.8752748386
  0
LINE
  5
43E
100
AcDbEntity
  8
CURVE
100
AcDbLine
 62
7
420
10991288
  6
CONTINUOUS
 10
21.647272368
 20
6.9414774931
 11
21.038176672
 21
6.3986203826
  0
LINE
  5
43F
100
AcDbEntity
  8
0
100
AcDbLine
 62
250
  6
CONTINUOUS
 10
0.460594885
 20
-6.4299510294
 11
-0.2822622524
 21
-6.8013796174
  0
LINE
  5
440
100
AcDbEntity
  8
0
100
AcDbLine
 62
250
  6
CONTINUOUS
 10
1.0177377476
 20
-4.944236716
 11
-0.2822622524
 21
-5.3156652653
  0
LINE
  5
441
100
AcDbEntity
  8
CURVE
100
AcDbLine
 62
250
  6
CONTINUOUS
 10
-2.0700243117
 20
15.5986203826
 11
-1.4273629681
 21
15.5986203826
  0
LINE
  5
442
100
AcDbEntity
  8
CURVE
100
AcDbLine
 62
250
  6
CONTINUOUS
 10
-2.9826751266
 20
16.1401803826
 11
-4.7821378675
 21
16.1401803826
  0
LINE
  5
443
100
AcDbEntity
  8
CURVE
100
AcDbLine
 62
250
  6
CONTINUOUS
 10
-1.4273629681
 20
16.3486203826
 11
-2.0700243117
 21
16.3486203826
  0
LINE
  5
444
100
AcDbEntity
  8
CURVE
100
AcDbLine
 62
250
  6
CONTINUOUS
 10
-4.5805202962
 20
16.3796733826
 11
-4.0084196035
 21
16.3796733826
  0
LINE
  5
445
100
AcDbEntity
  8
CURVE
100
AcDbLine
 62
250
  6
CONTINUOUS
 10
-3.8067850373
 20
16.3796733826
 11
-3.1842926979
 21
16.3796733826
  0
LINE
  5
446
100
AcDbEntity
  8
CURVE
100
AcDbLine
 62
250
  6
CONTINUOUS
 10
-1.8558038787
 20
16.7771917856
 11
-2.2842447447
 21
16.7771917856
  0
LINE
  5
447
100
AcDbEntity
  8
CURVE
100
AcDbLine
 62
250
  6
CONTINUOUS
 10
-1.8558038787
 20
17.5271917856
 11
-1.4273629681
 21
17.4200489796
  0
LINE
  5
448
100
AcDbEntity
  8
CURVE
100
AcDbLine
 62
250
  6
CONTINUOUS
 10
-2.2842447447
 20
20.3129059947
 11
-2.0700243117
 21
20.2057631886
  0
LINE
  5
449
100
AcDbEntity
  8
CURVE
100
AcDbLine
 62
250
  6
CONTINUOUS
 10
-1.2131425127
 20
20.8486203826
 11
-1.4273629681
 21
20.9557631886
  0
LINE
  5
44A
100
AcDbEntity
  8
CURVE
100
AcDbLine
 62
7
420
10991288
  6
CONTINUOUS
 10
16.038176672
 20
8.2986203826
 11
16.1904505325
 21
8.1629060908
  0
LWPOLYLINE
  5
44B
100
AcDbEntity
  8
RACCORDO
100
AcDbPolyline
 62
7
  6
CONTINUOUS
 90
5
 70
0
 10
-2.78575259
 20
27.2725156038
 10
-2.8050476828
 20
27.292766727
 10
-2.8236328687
 20
27.3127789878
 10
-2.8415081478
 20
27.3325530956
 10
-2.8587610088
 20
27.352058959
  0
LINE
  5
44C
100
AcDbEntity
  8
CURVE
100
AcDbLine
 62
7
420
10991288
  6
CONTINUOUS
 10
16.1904505325
 20
6.6700489378
 11
16.1904505325
 21
6.9414774931
  0
LINE
  5
44D
100
AcDbEntity
  8
CURVE
100
AcDbLine
 62
7
420
10991288
  6
CONTINUOUS
 10
17.4086419881
 20
6.3986203826
 11
17.4086419881
 21
8.2986203826
  0
LINE
  5
44E
100
AcDbEntity
  8
ASSI
100
AcDbLine
 62
7
  6
CONTINUOUS
 10
18.0677377476
 20
4.1986203826
 11
18.0677377476
 21
3.7986203826
  0
LINE
  5
44F
100
AcDbEntity
  8
ASSI
100
AcDbLine
 62
7
  6
CONTINUOUS
 10
18.3959821084
 20
4.8551091041
 11
18.0677377476
 21
4.1986203826
  0
LINE
  5
450
100
AcDbEntity
  8
RACCORDO
100
AcDbLine
 62
250
  6
CONTINUOUS
 10
1.951893563
 20
-13.8284170749
 11
0.9886124371
 21
-14.809098381
  0
LINE
  5
451
100
AcDbEntity
  8
RACCORDO
100
AcDbLine
 62
7
  6
CONTINUOUS
 10
2.2967207504
 20
-13.8223966147
 11
0.661667246
 21
-15.4574501191
  0
LWPOLYLINE
  5
452
100
AcDbEntity
  8
CURVE
100
AcDbPolyline
 62
250
  6
CONTINUOUS
 90
90
 70
0
 10
-3.7031474901
 20
18.0071475833
 10
-3.6736867357
 20
18.00735334
 10
-3.6442174776
 20
18.0080122433
 10
-3.6147564373
 20
18.0091867427
 10
-3.5853203363
 20
18.0109392879
 10
-3.5559258964
 20
18.0133323286
 10
-3.5265898392
 20
18.0164283143
 10
-3.4973288863
 20
18.0202896947
 10
-3.4681597592
 20
18.0249789195
 10
-3.4390991797
 20
18.0305584382
 10
-3.4101638694
 20
18.0370907006
 10
-3.3862934463
 20
18.0432693554
 10
-3.3625741629
 20
18.0501643372
 10
-3.339059599
 20
18.0577944478
 10
-3.3158033344
 20
18.066178489
 10
-3.292858949
 20
18.0753352624
 10
-3.2702800225
 20
18.0852835698
 10
-3.2481201347
 20
18.0960422129
 10
-3.2264328655
 20
18.1076299934
 10
-3.2052717946
 20
18.1200657131
 10
-3.1846905019
 20
18.1333681738
 10
-3.1647425672
 20
18.1475561771
 10
-3.1454815702
 20
18.1626485248
 10
-3.1268344616
 20
18.1787658521
 10
-3.1089774508
 20
18.1957721738
 10
-3.0919499468
 20
18.2136206583
 10
-3.0757913587
 20
18.2322644743
 10
-3.0605410956
 20
18.2516567904
 10
-3.0462385665
 20
18.271750775
 10
-3.03293317
 20
18.2924662656
 10
-3.0205991862
 20
18.3137722612
 10
-3.0092237601
 20
18.3356063372
 10
-2.9987940372
 20
18.3579060692
 10
-2.9892971627
 20
18.3806090324
 10
-2.9807202817
 20
18.4036528025
 10
-2.9724160982
 20
18.4290386658
 10
-2.9651386204
 20
18.454723081
 10
-2.958841419
 20
18.4806752766
 10
-2.9534780645
 20
18.5068644816
 10
-2.9490021276
 20
18.5332599245
 10
-2.9453671789
 20
18.5598308341
 10
-2.9425267891
 20
18.5865464392
 10
-2.9404345288
 20
18.6133759685
 10
-2.9390439686
 20
18.6402886507
 10
-2.9383086791
 20
18.6672537145
 10
-2.938182231
 20
18.6942403887
 10
-2.9386329807
 20
18.7212269191
 10
-2.9396874182
 20
18.7481768977
 10
-2.9413864666
 20
18.7750629394
 10
-2.9437710493
 20
18.801857659
 10
-2.9468820895
 20
18.8285336716
 10
-2.9507605104
 20
18.8550635918
 10
-2.9554472353
 20
18.8814200347
 10
-2.9609831875
 20
18.907575615
 10
-2.9674092902
 20
18.9335029477
 10
-2.9747664667
 20
18.9591746476
 10
-2.9830956402
 20
18.9845633296
 10
-2.9916503235
 20
19.0076406969
 10
-3.0010832592
 20
19.0303933717
 10
-3.0114153597
 20
19.052759388
 10
-3.0226675373
 20
19.0746767798
 10
-3.0348607044
 20
19.096083581
 10
-3.0480157735
 20
19.1169178256
 10
-3.0621402535
 20
19.137114215
 10
-3.0772104783
 20
19.1566256705
 10
-3.0931898921
 20
19.1754014488
 10
-3.1100419393
 20
19.1933908068
 10
-3.1277300643
 20
19.2105430012
 10
-3.1462177116
 20
19.2268072888
 10
-3.1653426217
 20
19.2420517908
 10
-3.1851666541
 20
19.2563893977
 10
-3.2056354728
 20
19.2698401663
 10
-3.2266947423
 20
19.2824241535
 10
-3.2482901265
 20
19.294161416
 10
-3.2703672898
 20
19.3050720108
 10
-3.2928718964
 20
19.3151759945
 10
-3.3157496104
 20
19.3244934241
 10
-3.3389460961
 20
19.3330443564
 10
-3.3624070177
 20
19.3408488482
 10
-3.3860780393
 20
19.3479269563
 10
-3.4099048252
 20
19.3542987376
 10
-3.4420676647
 20
19.3617834308
 10
-3.4743900043
 20
19.3681058845
 10
-3.5068484524
 20
19.3733413138
 10
-3.5394196175
 20
19.3775649335
 10
-3.5720801078
 20
19.3808519585
 10
-3.6048065319
 20
19.3832776039
 10
-3.637575498
 20
19.3849170845
 10
-3.6703636146
 20
19.3858456152
 10
-3.7031474901
 20
19.386138411
  0
LINE
  5
453
100
AcDbEntity
  8
CURVE
100
AcDbLine
 62
250
  6
CONTINUOUS
 10
-4.0084196035
 20
17.3150183826
 11
-3.8067850373
 21
17.3150183826
  0
LINE
  5
454
100
AcDbEntity
  8
CURVE
100
AcDbLine
 62
250
  6
CONTINUOUS
 10
-4.7821378675
 20
17.3830353826
 11
-4.5805202962
 21
17.3830353826
  0
LINE
  5
455
100
AcDbEntity
  8
CURVE
100
AcDbLine
 62
250
  6
CONTINUOUS
 10
-3.1842926979
 20
17.3906273826
 11
-2.9826751266
 21
17.3906273826
  0
LINE
  5
456
100
AcDbEntity
  8
CURVE
100
AcDbLine
 62
250
  6
CONTINUOUS
 10
-2.2842447447
 20
17.5271917856
 11
-1.8558038787
 21
17.5271917856
  0
LINE
  5
457
100
AcDbEntity
  8
CURVE
100
AcDbLine
 62
250
  6
CONTINUOUS
 10
-3.7031474901
 20
18.0071475833
 11
-4.7838211641
 21
18.0071475833
  0
LINE
  5
458
100
AcDbEntity
  8
CURVE
100
AcDbLine
 62
250
  6
CONTINUOUS
 10
-4.7838211641
 20
18.1182685981
 11
-3.7031474901
 21
18.1182685981
  0
LINE
  5
459
100
AcDbEntity
  8
CURVE
100
AcDbLine
 62
250
  6
CONTINUOUS
 10
-2.2842447447
 20
18.5629060543
 11
-1.9629140505
 21
18.5629060543
  0
LINE
  5
45A
100
AcDbEntity
  8
CURVE
100
AcDbLine
 62
250
  6
CONTINUOUS
 10
-1.641583401
 20
18.5986203826
 11
-1.1060322851
 21
18.5986203826
  0
LWPOLYLINE
  5
45B
100
AcDbEntity
  8
CURVE
100
AcDbPolyline
 62
250
  6
CONTINUOUS
 90
58
 70
0
 10
-3.7031474901
 20
19.2750184377
 10
-3.6799437594
 20
19.2748694978
 10
-3.656745272
 20
19.2744008151
 10
-3.6335574454
 20
19.2735795953
 10
-3.610385697
 20
19.2723730443
 10
-3.5872354445
 20
19.2707483679
 10
-3.5641121053
 20
19.2686727716
 10
-3.5410210968
 20
19.2661134614
 10
-3.5179678368
 20
19.2630376429
 10
-3.4949577425
 20
19.259412522
 10
-3.4719962316
 20
19.2552053043
 10
-3.4490887215
 20
19.2503831956
 10
-3.4333917845
 20
19.2466974719
 10
-3.4177449966
 20
19.2426935425
 10
-3.4021704742
 20
19.2383587708
 10
-3.3866903334
 20
19.2336805205
 10
-3.3713266905
 20
19.2286461553
 10
-3.356101662
 20
19.2232430388
 10
-3.3410373641
 20
19.2174585347
 10
-3.326155913
 20
19.2112800066
 10
-3.311479425
 20
19.2046948182
 10
-3.2970300165
 20
19.197690333
 10
-3.2828298038
 20
19.1902539148
 10
-3.2689009031
 20
19.1823729272
 10
-3.2552654307
 20
19.1740347338
 10
-3.2419455029
 20
19.1652266983
 10
-3.2289632361
 20
19.1559361844
 10
-3.2163407464
 20
19.1461505556
 10
-3.2041206957
 20
19.1358833577
 10
-3.1922880049
 20
19.12513368
 10
-3.1808496013
 20
19.1139248515
 10
-3.1698124122
 20
19.1022802013
 10
-3.1591833649
 20
19.0902230584
 10
-3.1489693866
 20
19.0777767519
 10
-3.1391774047
 20
19.0649646109
 10
-3.1298143465
 20
19.0518099643
 10
-3.1208871392
 20
19.0383361412
 10
-3.1124027101
 20
19.0245664706
 10
-3.1043679866
 20
19.0105242817
 10
-3.0967898959
 20
18.9962329034
 10
-3.0896753653
 20
18.9817156648
 10
-3.0830313221
 20
18.966995895
 10
-3.0768646936
 20
18.9520969229
 10
-3.071182407
 20
18.9370420777
 10
-3.065258761
 20
18.9195939557
 10
-3.0599537619
 20
18.9019869094
 10
-3.0552386181
 20
18.8842366933
 10
-3.0510845381
 20
18.8663590615
 10
-3.0474627304
 20
18.8483697682
 10
-3.0443444034
 20
18.8302845678
 10
-3.0417007656
 20
18.8121192145
 10
-3.0395030254
 20
18.7938894626
 10
-3.0377223912
 20
18.7756110663
 10
-3.0363300716
 20
18.7572997799
 10
-3.0352972749
 20
18.7389713576
 10
-3.0345952097
 20
18.7206415537
 10
-3.0341950844
 20
18.7023261225
 10
-3.0340681074
 20
18.6840408182
  0
LWPOLYLINE
  5
45C
100
AcDbEntity
  8
RACCORDO
100
AcDbPolyline
 62
250
  6
CONTINUOUS
 90
16
 70
0
 10
1.951893563
 20
26.22565784
 10
1.9989689086
 20
26.1804169301
 10
2.0477610301
 20
26.1381161259
 10
2.0982699275
 20
26.0987757681
 10
2.1507176204
 20
26.0623676678
 10
2.2048820893
 20
26.028955806
 10
2.2600972754
 20
25.9986970395
 10
2.3163780068
 20
25.9716614786
 10
2.3737094555
 20
25.9478066563
 10
2.4313810796
 20
25.9271185437
 10
2.4892913879
 20
25.9096620913
 10
2.5475418717
 20
25.8953898265
 10
2.6057264629
 20
25.8841161514
 10
2.6637098055
 20
25.8757815929
 10
2.7216272554
 20
25.8704532481
 10
2.7794788127
 20
25.8681329027
  0
LINE
  5
45D
100
AcDbEntity
  8
RACCORDO
100
AcDbLine
 62
7
  6
CONTINUOUS
 10
0.661667246
 20
27.8546908843
 11
2.2967207504
 21
26.2196373799
  0
LINE
  5
45E
100
AcDbEntity
  8
RACCORDO
100
AcDbLine
 62
250
  6
CONTINUOUS
 10
0.9886129865
 20
27.2063384056
 11
1.951893563
 21
26.22565784
  0
LINE
  5
45F
100
AcDbEntity
  8
ASSI
100
AcDbLine
 62
7
  6
CONTINUOUS
 10
20.5677377476
 20
4.1986203826
 11
20.2235432874
 21
4.8870093031
  0
LINE
  5
460
100
AcDbEntity
  8
0
100
AcDbLine
 62
7
  6
CONTINUOUS
 10
18.8677377476
 20
1.6338971358
 11
18.8677377476
 21
4.8633436294
  0
LINE
  5
461
100
AcDbEntity
  8
0
100
AcDbLine
 62
7
  6
CONTINUOUS
 10
19.7677377476
 20
1.6181875773
 11
19.7677377476
 21
4.8790531878
  0
LWPOLYLINE
  5
462
100
AcDbEntity
  8
RACCORDO
100
AcDbPolyline
 62
250
  6
CONTINUOUS
 90
10
 70
0
 10
1.3334197329
 20
-14.7856976321
 10
1.3067326504
 20
-14.8081239895
 10
1.2764690527
 20
-14.825548842
 10
1.2427633119
 20
-14.8379152975
 10
1.2056616382
 20
-14.8455657786
 10
1.1656295851
 20
-14.8484630227
 10
1.1234894301
 20
-14.8460150947
 10
1.079744489
 20
-14.8381986484
 10
1.0346326354
 20
-14.8257150931
 10
0.9885925456
 20
-14.8090980152
  0
LWPOLYLINE
  5
463
100
AcDbEntity
  8
RACCORDO
100
AcDbPolyline
 62
250
  6
CONTINUOUS
 90
10
 70
0
 10
2.2967207504
 20
-13.8223966147
 10
2.2711325503
 20
-13.8434222774
 10
2.2413120255
 20
-13.8596140727
 10
2.2076440038
 20
-13.8707630487
 10
2.1705629642
 20
-13.87672533
 10
2.1305474302
 20
-13.8774239748
 10
2.0881137941
 20
-13.872849967
 10
2.0438096534
 20
-13.8630623334
 10
1.9982067442
 20
-13.8481873814
 10
1.9518935629
 20
-13.8284170692
  0
LWPOLYLINE
  5
464
100
AcDbEntity
  8
CURVE
100
AcDbPolyline
 62
250
  6
CONTINUOUS
 90
56
 70
0
 10
-4.2788593739
 20
20.9973530271
 10
-4.294808089
 20
20.9972204693
 10
-4.3107801967
 20
20.9968078163
 10
-4.3267609288
 20
20.9960925992
 10
-4.3427355168
 20
20.9950523486
 10
-4.3586891925
 20
20.9936645955
 10
-4.3746071875
 20
20.9919068707
 10
-4.3904747335
 20
20.989756705
 10
-4.4062770621
 20
20.9871916293
 10
-4.4219994048
 20
20.9841891745
 10
-4.4376269935
 20
20.9807268714
 10
-4.4531450598
 20
20.9767822509
 10
-4.4685388352
 20
20.9723328438
 10
-4.4837935515
 20
20.9673561809
 10
-4.4968131463
 20
20.9626312667
 10
-4.5097007048
 20
20.9575027495
 10
-4.5224383912
 20
20.9519751392
 10
-4.53500837
 20
20.9460529457
 10
-4.5473928054
 20
20.9397406786
 10
-4.5595738619
 20
20.933042848
 10
-4.5715337037
 20
20.9259639635
 10
-4.5832544952
 20
20.918508535
 10
-4.5947184008
 20
20.9106810724
 10
-4.6059075848
 20
20.9024860855
 10
-4.6168042116
 20
20.893928084
 10
-4.6273904454
 20
20.8850115779
 10
-4.6376484506
 20
20.875741077
 10
-4.6475603917
 20
20.866121091
 10
-4.6571084328
 20
20.8561561298
 10
-4.6662580879
 20
20.8458763876
 10
-4.6750309183
 20
20.8352752195
 10
-4.6834301228
 20
20.8243701379
 10
-4.6914589003
 20
20.8131786554
 10
-4.6991204495
 20
20.8017182845
 10
-4.7064179695
 20
20.7900065377
 10
-4.7133546589
 20
20.7780609276
 10
-4.7199337167
 20
20.7658989667
 10
-4.7261583417
 20
20.7535381675
 10
-4.7320317327
 20
20.7409960425
 10
-4.7375570886
 20
20.7282901042
 10
-4.7427376082
 20
20.7154378652
 10
-4.7475764904
 20
20.702456838
 10
-4.752076934
 20
20.6893645352
 10
-4.7562421379
 20
20.6761784691
 10
-4.7609954906
 20
20.6595439837
 10
-4.7652446633
 20
20.6428014913
 10
-4.7690069719
 20
20.6259627426
 10
-4.772299732
 20
20.6090394879
 10
-4.7751402594
 20
20.5920434779
 10
-4.7775458699
 20
20.5749864632
 10
-4.7795338791
 20
20.5578801941
 10
-4.7811216029
 20
20.5407364213
 10
-4.782326357
 20
20.5235668953
 10
-4.783165457
 20
20.5063833666
 10
-4.7836562188
 20
20.4891975858
 10
-4.7838159582
 20
20.4720213034
  0
LINE
  5
465
100
AcDbEntity
  8
CURVE
100
AcDbLine
 62
250
  6
CONTINUOUS
 10
-3.7031474901
 20
19.2750184377
 11
-4.7838211641
 21
19.2750184377
  0
LINE
  5
466
100
AcDbEntity
  8
CURVE
100
AcDbLine
 62
250
  6
CONTINUOUS
 10
-4.7838211641
 20
19.386138411
 11
-3.7031474901
 21
19.386138411
  0
LINE
  5
467
100
AcDbEntity
  8
CURVE
100
AcDbLine
 62
250
  6
CONTINUOUS
 10
-2.981061631
 20
19.7042101171
 11
-4.7838159582
 21
19.7042101171
  0
LINE
  5
468
100
AcDbEntity
  8
CURVE
100
AcDbLine
 62
250
  6
CONTINUOUS
 10
-2.2842447447
 20
19.7771919644
 11
-2.0700243117
 21
19.7771919644
  0
LINE
  5
469
100
AcDbEntity
  8
CURVE
100
AcDbLine
 62
250
  6
CONTINUOUS
 10
-4.6878603334
 20
19.815399871
 11
-3.8799058514
 21
19.815399871
  0
LINE
  5
46A
100
AcDbEntity
  8
CURVE
100
AcDbLine
 62
250
  6
CONTINUOUS
 10
-3.7839502266
 20
19.815399871
 11
-2.981061631
 21
19.815399871
  0
LINE
  5
46B
100
AcDbEntity
  8
CURVE
100
AcDbLine
 62
250
  6
CONTINUOUS
 10
-2.0700243117
 20
20.2057631886
 11
-1.4273629681
 21
20.2057631886
  0
LINE
  5
46C
100
AcDbEntity
  8
CURVE
100
AcDbLine
 62
250
  6
CONTINUOUS
 10
-1.4273629681
 20
20.9557631886
 11
-2.0700243117
 21
20.9557631886
  0
LWPOLYLINE
  5
46D
100
AcDbEntity
  8
RACCORDO
100
AcDbPolyline
 62
250
  6
CONTINUOUS
 90
10
 70
0
 10
2.2967195845
 20
26.2196362139
 10
2.271131352
 20
26.2406621662
 10
2.2413108535
 20
26.2568543201
 10
2.2076429123
 20
26.2680037203
 10
2.170562001
 20
26.2739664866
 10
2.1305466353
 20
26.27466567
 10
2.0881131984
 20
26.2700922461
 10
2.0438092779
 20
26.2603052313
 10
1.9982065989
 20
26.2454309212
 10
1.9518936465
 20
26.225661261
  0
LWPOLYLINE
  5
46E
100
AcDbEntity
  8
RACCORDO
100
AcDbPolyline
 62
250
  6
CONTINUOUS
 90
10
 70
0
 10
1.3334197329
 20
27.1829383973
 10
1.3067326481
 20
27.205364757
 10
1.2764690486
 20
27.2227896114
 10
1.2427633064
 20
27.2351560681
 10
1.2056616321
 20
27.2428065499
 10
1.165629579
 20
27.245703794
 10
1.1234894246
 20
27.2432558654
 10
1.0797444848
 20
27.2354394179
 10
1.0346326331
 20
27.2229558607
 10
0.9885925456
 20
27.2063387804
  0
LINE
  5
46F
100
AcDbEntity
  8
ASSI
100
AcDbLine
 62
7
  6
CONTINUOUS
 10
20.5677377476
 20
4.1986203826
 11
20.5677377476
 21
3.7986203826
  0
LINE
  5
470
100
AcDbEntity
  8
CURVE
100
AcDbLine
 62
7
420
10991288
  6
CONTINUOUS
 10
21.038176672
 20
6.3986203826
 11
21.038176672
 21
8.2986203826
  0
LINE
  5
471
100
AcDbEntity
  8
ASSI
100
AcDbLine
 62
7
  6
CONTINUOUS
 10
23.440003973
 20
4.9431528332
 11
23.0677377476
 21
4.1986203826
  0
LINE
  5
472
100
AcDbEntity
  8
RACCORDO
100
AcDbLine
 62
250
  6
CONTINUOUS
 10
3.5264639509
 20
22.2544289912
 11
4.0177377476
 21
22.2544289912
  0
LINE
  5
473
100
AcDbEntity
  8
RACCORDO
100
AcDbLine
 62
250
  6
CONTINUOUS
 10
3.5264639509
 20
23.4980623728
 11
-6.9822622524
 21
23.5580499517
  0
LINE
  5
474
100
AcDbEntity
  8
RACCORDO
100
AcDbLine
 62
250
  6
CONTINUOUS
 10
3.5264639509
 20
22.2544289912
 11
-6.9822622524
 21
22.3182795486
  0
LWPOLYLINE
  5
475
100
AcDbEntity
  8
RACCORDO
100
AcDbPolyline
 62
250
  6
CONTINUOUS
 90
13
 70
0
 10
3.5264639509
 20
23.4980623728
 10
3.5909231548
 20
23.4947606759
 10
3.6541577681
 20
23.4863118908
 10
3.7151097053
 20
23.4728573888
 10
3.7727590769
 20
23.4546223002
 10
3.8261412535
 20
23.4319117475
 10
3.874363007
 20
23.4051057403
 10
3.9166174584
 20
23.374652816
 10
3.9521975779
 20
23.3410625342
 10
3.9805080153
 20
23.3048969516
 10
4.001075062
 20
23.2667612159
 10
4.0135545775
 20
23.2272934405
 10
4.0177377476
 20
23.1871540274
  0
LINE
  5
476
100
AcDbEntity
  8
CURVE
100
AcDbLine
 62
7
420
10991288
  6
CONTINUOUS
 10
23.0177377476
 20
8.2986203826
 11
23.0177377476
 21
6.3986203826
  0
LINE
  5
477
100
AcDbEntity
  8
ASSI
100
AcDbLine
 62
7
  6
CONTINUOUS
 10
23.0677377476
 20
4.1986203826
 11
23.0677377476
 21
3.7986203826
  0
LINE
  5
478
100
AcDbEntity
  8
0
100
AcDbLine
 62
7
  6
CONTINUOUS
 10
23.8677377476
 20
1.5466218111
 11
23.8677377476
 21
4.950618954
  0
LINE
  5
479
100
AcDbEntity
  8
0
100
AcDbLine
 62
7
  6
CONTINUOUS
 10
24.3177377476
 20
1.5387670319
 11
24.3177377476
 21
4.9584737333
  0
LINE
  5
47A
100
AcDbEntity
  8
0
100
AcDbLine
 62
7
  6
CONTINUOUS
 10
0.661667246
 20
-15.4574501191
 11
-0.8327667685
 21
-16.0013796174
  0
LINE
  5
47B
100
AcDbEntity
  8
0
100
AcDbLine
 62
7
  6
CONTINUOUS
 10
0.661667246
 20
27.8546908843
 11
-0.8327667685
 21
28.3986203826
  0
LINE
  5
47C
100
AcDbEntity
  8
RACCORDO
100
AcDbLine
 62
250
  6
CONTINUOUS
 10
26.1264639509
 20
-13.2099548334
 11
26.1262246289
 21
-13.2079902544
  0
LWPOLYLINE
  5
47D
100
AcDbEntity
  8
RACCORDO
100
AcDbPolyline
 62
250
  6
CONTINUOUS
 90
7
 70
0
 10
26.1299194621
 20
11.8124591148
 10
26.12964637
 20
11.8409396544
 10
26.1292418688
 20
11.8646362418
 10
26.1287130207
 20
11.8832159938
 10
26.1280682693
 20
11.8965269195
 10
26.1273154181
 20
11.9045252878
 10
26.1264639509
 20
11.9071955986
  0
LWPOLYLINE
  5
47E
100
AcDbEntity
  8
RACCORDO
100
AcDbPolyline
 62
250
  6
CONTINUOUS
 90
5
 70
0
 10
26.1274064513
 20
-13.1789217134
 10
26.1271085325
 20
-13.1412093748
 10
26.1271387793
 20
-13.1177666573
 10
26.1269933803
 20
-13.0911453739
 10
26.1264639509
 20
-13.0611501133
  0
LINE
  5
47F
100
AcDbEntity
  8
DRAFT
100
AcDbLine
 62
7
  6
CONTINUOUS
 10
25.2177377476
 20
1.5230574735
 11
25.2177377476
 21
4.9741832917
  0
LINE
  5
480
100
AcDbEntity
  8
RACCORDO
100
AcDbLine
 62
250
  6
CONTINUOUS
 10
26.1264639509
 20
11.407271751
 11
26.1264639509
 21
5.4901213074
  0
LINE
  5
481
100
AcDbEntity
  8
RACCORDO
100
AcDbLine
 62
250
  6
CONTINUOUS
 10
26.1264639509
 20
1.0071194578
 11
26.1269880543
 21
-10.3826380854
  0
LINE
  5
482
100
AcDbEntity
  8
RACCORDO
100
AcDbLine
 62
250
  6
CONTINUOUS
 10
26.1300611206
 20
11.7425798005
 11
26.1299194621
 21
11.8124591148
  0
LINE
  5
483
100
AcDbEntity
  8
RACCORDO
100
AcDbLine
 62
7
  6
CONTINUOUS
 10
26.6177377476
 20
11.407271751
 11
26.6177377476
 21
4.9986203826
  0
LINE
  5
484
100
AcDbEntity
  8
RACCORDO
100
AcDbLine
 62
7
  6
CONTINUOUS
 10
26.6177377476
 20
-12.7100309859
 11
26.6177377476
 21
1.4986203826
  0
LINE
  5
485
100
AcDbEntity
  8
DRAFT
100
AcDbLine
 62
7
  6
CONTINUOUS
 10
26.6177377476
 20
1.4986203826
 11
26.6177377476
 21
4.9986203826
  0
LINE
  5
486
100
AcDbEntity
  8
RACCORDO
100
AcDbLine
 62
250
  6
CONTINUOUS
 10
26.1269880543
 20
-10.3826380854
 11
26.1264639509
 21
-13.0611499481
  0
LINE
  5
487
100
AcDbEntity
  8
RACCORDO
100
AcDbLine
 62
250
  6
CONTINUOUS
 10
26.1296617578
 20
11.65793046
 11
26.1300611206
 21
11.7425798005
  0
LINE
  5
488
100
AcDbEntity
  8
RACCORDO
100
AcDbLine
 62
250
  6
CONTINUOUS
 10
26.1280911693
 20
11.5115161069
 11
26.1296617578
 21
11.65793046
  0
LINE
  5
489
100
AcDbEntity
  8
RACCORDO
100
AcDbLine
 62
250
  6
CONTINUOUS
 10
26.1264639509
 20
11.407271751
 11
26.1280911693
 21
11.5115161069
  0
LINE
  5
48A
100
AcDbEntity
  8
RACCORDO
100
AcDbLine
 62
7
  6
CONTINUOUS
 10
3.5264639509
 20
26.001680066
 11
2.7794788127
 21
26.0147187401
  0
LINE
  5
48B
100
AcDbEntity
  8
RACCORDO
100
AcDbLine
 62
7
  6
CONTINUOUS
 10
-2.7857527336
 20
27.3951902962
 11
0.9885925456
 21
27.3293088543
  0
LINE
  5
48C
100
AcDbEntity
  8
RACCORDO
100
AcDbLine
 62
250
  6
CONTINUOUS
 10
2.7794788127
 20
25.8681329027
 11
3.5264639509
 21
25.8550230935
  0
LINE
  5
48D
100
AcDbEntity
  8
RACCORDO
100
AcDbLine
 62
250
  6
CONTINUOUS
 10
-2.78575259
 20
27.2725156038
 11
0.9886129865
 21
27.2063384056
  0
LWPOLYLINE
  5
48E
100
AcDbEntity
  8
RACCORDO
100
AcDbPolyline
 62
250
  6
CONTINUOUS
 90
16
 70
0
 10
3.5264639509
 20
25.8550242609
 10
3.5779985397
 20
25.852502607
 10
3.6289180991
 20
25.8462324736
 10
3.6786769608
 20
25.8362746408
 10
3.726749133
 20
25.8227267051
 10
3.77260684
 20
25.8057294609
 10
3.8157307955
 20
25.7854718142
 10
3.8556515786
 20
25.7621755118
 10
3.8919491908
 20
25.7360869824
 10
3.9242338935
 20
25.7074865068
 10
3.952159459
 20
25.6766812647
 10
3.9754271869
 20
25.6440012929
 10
3.9937882105
 20
25.6097963728
 10
4.0070457577
 20
25.5744329739
 10
4.0150575671
 20
25.538290431
 10
4.0177377476
 20
25.5017562184
  0
LWPOLYLINE
  5
48F
100
AcDbEntity
  8
0
100
AcDbPolyline
 62
250
  6
CONTINUOUS
 90
3
 70
0
 10
-16.040275322
 20
27.2169336864
 10
-16.0376008462
 20
27.2167831957
 10
-15.5494655544
 20
27.1959162993
  0
LWPOLYLINE
  5
490
100
AcDbEntity
  8
0
100
AcDbPolyline
 62
7
  6
CONTINUOUS
 90
10
 70
0
 43
0.3500000006
 10
10.5677375221
 20
38.948620285
 10
10.6391664391
 20
38.8057624512
 10
10.6391664391
 20
38.7343358002
 10
10.4963097382
 20
38.5914779663
 10
10.4248808212
 20
38.5914779663
 10
10.3534519043
 20
38.6629046173
 10
10.3534519043
 20
38.7343358002
 10
10.4248808212
 20
38.877193634
 10
10.4963097382
 20
38.948620285
 10
10.5677375221
 20
38.948620285
  0
LWPOLYLINE
  5
491
100
AcDbEntity
  8
0
100
AcDbPolyline
 62
7
  6
CONTINUOUS
 90
10
 70
0
 43
0.3500000006
 10
6.2463090076
 20
48.9486188049
 10
6.3177379246
 20
48.8057655029
 10
6.3177379246
 20
48.7343343201
 10
6.1748806572
 20
48.5914764862
 10
6.1034523067
 20
48.5914764862
 10
6.0320233898
 20
48.6629076691
 10
6.0320233898
 20
48.7343343201
 10
6.1034523067
 20
48.8771921539
 10
6.1748806572
 20
48.9486188049
 10
6.2463090076
 20
48.9486188049
  0
LINE
  5
492
100
AcDbEntity
  8
ASSI
100
AcDbLine
 62
7
  6
CONTINUOUS
 10
26.7177377476
 20
8.2536613826
 11
26.7177377476
 21
6.2035643826
  0
LINE
  5
493
100
AcDbEntity
  8
0
100
AcDbLine
 62
7
  6
CONTINUOUS
 10
26.7177377476
 20
-9.2253916174
 11
26.7177377476
 21
-10.3753916174
  0
LWPOLYLINE
  5
494
100
AcDbEntity
  8
RACCORDO
100
AcDbPolyline
 62
250
  6
CONTINUOUS
 90
3
 70
0
 10
26.1262246289
 20
-13.2079902544
 10
26.1271163232
 20
-13.1924518417
 10
26.1274064513
 20
-13.1789217134
  0
LWPOLYLINE
  5
495
100
AcDbEntity
  8
RACCORDO
100
AcDbPolyline
 62
250
  6
CONTINUOUS
 90
16
 70
0
 10
26.6177377476
 20
-12.7100309859
 10
26.6150591709
 20
-12.7463321252
 10
26.6070521398
 20
-12.7822443229
 10
26.593802444
 20
-12.8173828048
 10
26.575452045
 20
-12.8513710863
 10
26.5521975544
 20
-12.8838450067
 10
26.5242881282
 20
-12.9144566302
 10
26.4920227963
 20
-12.9428779747
 10
26.4557472596
 20
-12.968804525
 10
26.4158501851
 20
-12.9919584962
 10
26.3727590425
 20
-13.0120918095
 10
26.3269355235
 20
-13.0289887504
 10
26.2788705953
 20
-13.0424682799
 10
26.2290792402
 20
-13.0523859742
 10
26.1780949383
 20
-13.058635572
 10
26.1264639509
 20
-13.0611501133
  0
LWPOLYLINE
  5
496
100
AcDbEntity
  8
RACCORDO
100
AcDbPolyline
 62
250
  6
CONTINUOUS
 90
13
 70
0
 10
26.6177377476
 20
-10.6580502008
 10
26.61355458
 20
-10.6984616335
 10
26.6010750706
 20
-10.7381968796
 10
26.5805080321
 20
-10.7765910619
 10
26.5521976032
 20
-10.8130017424
 10
26.5166174908
 20
-10.8468196719
 10
26.4743630444
 20
-10.8774789835
 10
26.4261412926
 20
-10.9044666639
 10
26.3727591139
 20
-10.9273311352
 10
26.315109737
 20
-10.9456898112
 10
26.2541577919
 20
-10.9592355008
 10
26.1909231679
 20
-10.9677415476
 10
26.1264639509
 20
-10.9710656217
  0
LINE
  5
497
100
AcDbEntity
  8
0
100
AcDbLine
 62
250
  6
CONTINUOUS
 10
-15.0760754974
 20
27.6742127524
 11
-6.9822622524
 21
28.0983915305
  0
LINE
  5
498
100
AcDbEntity
  8
0
100
AcDbLine
 62
7
  6
CONTINUOUS
 10
-15.0935172723
 20
28.1735275198
 11
-6.9822622524
 21
28.5986203826
  0
LINE
  5
499
100
AcDbEntity
  8
0
100
AcDbLine
 62
7
  6
CONTINUOUS
 10
-0.8327667685
 20
28.3986203826
 11
-1.3822622524
 21
28.3986203826
  0
LINE
  5
49A
100
AcDbEntity
  8
0
100
AcDbLine
 62
7
  6
CONTINUOUS
 10
-2.9822622524
 20
28.8284869852
 11
-5.1910488969
 21
28.845806945
  0
LINE
  5
49B
100
AcDbEntity
  8
0
100
AcDbLine
 62
7
  6
CONTINUOUS
 10
-5.1910488969
 20
28.845806945
 11
-6.9822622524
 21
28.8617870046
  0
LINE
  5
49C
100
AcDbEntity
  8
0
100
AcDbLine
 62
7
  6
CONTINUOUS
 10
-6.9822622524
 20
29.6986203826
 11
-2.9822622524
 21
29.6288001229
  0
LINE
  5
49D
100
AcDbEntity
  8
0
100
AcDbLine
 62
250
  6
CONTINUOUS
 10
-6.9822622524
 20
29.5319800401
 11
-2.9822622524
 21
29.4617277444
  0
LINE
  5
49E
100
AcDbEntity
  8
0
100
AcDbLine
 62
7
  6
CONTINUOUS
 10
-2.9822622524
 20
29.2985108574
 11
-6.9822622524
 21
29.3785289443
  0
LWPOLYLINE
  5
49F
100
AcDbEntity
  8
0
100
AcDbPolyline
 62
7
  6
CONTINUOUS
 90
6
 70
0
 43
0.3500000006
 10
5.6391660461
 20
38.4486201324
 10
6.7105947018
 20
38.4486201324
 10
6.9248808861
 20
38.6629046173
 10
6.9248808861
 20
39.7343361053
 10
6.4963090839
 20
40.1629050751
 10
6.0677378483
 20
40.1629050751
  0
LWPOLYLINE
  5
4A0
100
AcDbEntity
  8
0
100
AcDbPolyline
 62
7
  6
CONTINUOUS
 90
6
 70
0
 43
0.3500000006
 10
7.7820233574
 20
38.4486201324
 10
8.853452013
 20
38.4486201324
 10
9.0677376308
 20
38.6629046173
 10
9.0677376308
 20
39.7343361053
 10
8.6391663952
 20
40.1629050751
 10
8.2105951595
 20
40.1629050751
  0
LWPOLYLINE
  5
4A1
100
AcDbEntity
  8
0
100
AcDbPolyline
 62
7
  6
CONTINUOUS
 90
6
 70
0
 43
0.3500000006
 10
3.4605948429
 20
48.4486186523
 10
4.5320234985
 20
48.4486186523
 10
4.7463091164
 20
48.6629076691
 10
4.7463091164
 20
49.7343346252
 10
4.3177378807
 20
50.1629081268
 10
3.8891663618
 20
50.1629081268
  0
LWPOLYLINE
  5
4A2
100
AcDbEntity
  8
0
100
AcDbPolyline
 62
7
  6
CONTINUOUS
 90
3
 70
0
 43
0.3500000006
 10
2.6034520884
 20
49.0914766388
 10
1.1034520555
 20
49.0914766388
 10
1.7463091922
 20
51.4486195679
  0
LWPOLYLINE
  5
4A3
100
AcDbEntity
  8
0
100
AcDbPolyline
 62
7
  6
CONTINUOUS
 90
5
 70
0
 43
0.3500000006
 10
56.261151947
 20
40.1629050751
 10
56.6182942657
 20
40.3771895599
 10
56.6182942657
 20
41.0200475464
 10
56.261151947
 20
41.448621048
 10
55.4040094757
 20
41.448621048
  0
LWPOLYLINE
  5
4A4
100
AcDbEntity
  8
0
100
AcDbPolyline
 62
250
  6
CONTINUOUS
 90
16
 70
0
 10
42.2606921453
 20
27.1959162993
 10
42.2642722775
 20
27.198089285
 10
42.2731703997
 20
27.2002389866
 10
42.2872911745
 20
27.2023423713
 10
42.3064833072
 20
27.204376903
 10
42.330541167
 20
27.206320783
 10
42.35920699
 20
27.2081531838
 10
42.392173641
 20
27.2098544726
 10
42.4290879044
 20
27.2114064211
 10
42.4695542685
 20
27.2127924012
 10
42.5131391633
 20
27.2139975632
 10
42.5593756057
 20
27.2150089943
 10
42.607768203
 20
27.2158158576
 10
42.6577984611
 20
27.2164095078
 10
42.708930339
 20
27.2167835846
 10
42.7606159929
 20
27.2169340797
  0
LWPOLYLINE
  5
4A5
100
AcDbEntity
  8
0
100
AcDbPolyline
 62
250
  6
CONTINUOUS
 90
16
 70
0
 10
63.7699491721
 20
-15.7762867546
 10
63.8221761139
 20
-15.7735068915
 10
63.8738313901
 20
-15.7652930359
 10
63.9243496993
 20
-15.7517351106
 10
63.9731782011
 20
-15.7329815159
 10
64.0197825264
 20
-15.7092375193
 10
64.063652632
 20
-15.6807630215
 10
64.1043084402
 20
-15.6478696784
 10
64.1413050634
 20
-15.6109174936
 10
64.1742376439
 20
-15.5703109088
 10
64.2027458249
 20
-15.5264943387
 10
64.2265176797
 20
-15.4799473098
 10
64.2452931106
 20
-15.4311792351
 10
64.2588667065
 20
-15.3807238187
 10
64.2670899866
 20
-15.3291332133
 10
64.2698730197
 20
-15.2769719872
  0
LWPOLYLINE
  5
4A6
100
AcDbEntity
  8
0
100
AcDbPolyline
 62
7
  6
CONTINUOUS
 90
10
 70
0
 10
56.936008822
 20
-17.3013796174
 10
57.001028628
 20
-17.2992905825
 10
57.0654446215
 20
-17.2930063173
 10
57.1292568023
 20
-17.282526822
 10
57.1928635503
 20
-17.2677339719
 10
57.2558664857
 20
-17.2487458916
 10
57.3170704693
 20
-17.2259169547
 10
57.3760771213
 20
-17.1993652858
 10
57.4332848216
 20
-17.1689727603
 10
57.4886935701
 20
-17.1347393783
  0
LINE
  5
4A7
100
AcDbEntity
  8
0
100
AcDbLine
 62
7
  6
CONTINUOUS
 10
56.936008822
 20
-17.3013796174
 11
49.5862932888
 21
-17.3013796174
  0
LINE
  5
4A8
100
AcDbEntity
  8
0
100
AcDbLine
 62
7
  6
CONTINUOUS
 10
56.7309713151
 20
-16.3013796174
 11
49.7913307957
 21
-16.3013796174
  0
LINE
  5
4A9
100
AcDbEntity
  8
0
100
AcDbLine
 62
7
  6
CONTINUOUS
 10
63.9115316551
 20
-16.2013796174
 11
56.5611510554
 21
-16.2013796174
  0
LINE
  5
4AA
100
AcDbEntity
  8
0
100
AcDbLine
 62
7
  6
CONTINUOUS
 10
49.9611510554
 20
-16.2013796174
 11
42.6107704557
 21
-16.2013796174
  0
LWPOLYLINE
  5
4AB
100
AcDbEntity
  8
0
100
AcDbPolyline
 62
250
  6
CONTINUOUS
 90
16
 70
0
 10
42.2606921453
 20
-14.7986755341
 10
42.2642716182
 20
-14.8008485746
 10
42.2731691824
 20
-14.8029983321
 10
42.2872895049
 20
-14.8051017728
 10
42.3064812931
 20
-14.8071363596
 10
42.3305389163
 20
-14.8090802927
 10
42.3592046086
 20
-14.8109127438
 10
42.3921712309
 20
-14.8126140791
 10
42.4290855617
 20
-14.8141660696
 10
42.4695520816
 20
-14.8155520865
 10
42.5131372115
 20
-14.8167572793
 10
42.5593739575
 20
-14.817768735
 10
42.6077669152
 20
-14.8185756159
 10
42.6577975772
 20
-14.8191692767
 10
42.7089298892
 20
-14.8195433567
 10
42.7606159929
 20
-14.8196938477
  0
LWPOLYLINE
  5
4AC
100
AcDbEntity
  8
0
100
AcDbPolyline
 62
250
  6
CONTINUOUS
 90
15
 70
0
 10
63.8133722221
 20
-14.8195433564
 10
63.8645045345
 20
-14.819169276
 10
63.9145351969
 20
-14.818575615
 10
63.9629281549
 20
-14.8177687341
 10
64.0091649012
 20
-14.8167572787
 10
64.0527500312
 20
-14.815552086
 10
64.0932165513
 20
-14.8141660692
 10
64.1301308821
 20
-14.8126140788
 10
64.1630975043
 20
-14.8109127436
 10
64.1917631965
 20
-14.8090802925
 10
64.2158208195
 20
-14.8071363595
 10
64.2350126074
 20
-14.8051017728
 10
64.2491329294
 20
-14.8029983321
 10
64.2580304932
 20
-14.8008485746
 10
64.2616099655
 20
-14.7986755341
  0
LINE
  5
4AD
100
AcDbEntity
  8
0
100
AcDbLine
 62
250
  6
CONTINUOUS
 10
63.7699491721
 20
-15.7762867546
 11
42.7523529387
 21
-15.7762867546
  0
LINE
  5
4AE
100
AcDbEntity
  8
0
100
AcDbLine
 62
250
  6
CONTINUOUS
 10
63.8133722221
 20
-14.8195433564
 11
42.7606159929
 21
-14.8196938483
  0
LWPOLYLINE
  5
4AF
100
AcDbEntity
  8
0
100
AcDbPolyline
 62
7
  6
CONTINUOUS
 90
10
 70
0
 10
49.0336085407
 20
-17.1347393783
 10
49.0890172892
 20
-17.1689727603
 10
49.1462249895
 20
-17.1993652858
 10
49.2052316416
 20
-17.2259169547
 10
49.2664356252
 20
-17.2487458916
 10
49.3294385606
 20
-17.2677339719
 10
49.3930453085
 20
-17.282526822
 10
49.4568574894
 20
-17.2930063173
 10
49.5212734828
 20
-17.2992905825
 10
49.5862932888
 20
-17.3013796174
  0
LINE
  5
4B0
100
AcDbEntity
  8
0
100
AcDbLine
 62
7
  6
CONTINUOUS
 10
50.027783853
 20
28.6986203826
 11
49.9611510554
 21
28.5986203826
  0
LINE
  5
4B1
100
AcDbEntity
  8
0
100
AcDbLine
 62
7
  6
CONTINUOUS
 10
49.9611510554
 20
-16.2013796174
 11
50.027783853
 21
-16.3013796174
  0
LWPOLYLINE
  5
4B2
100
AcDbEntity
  8
0
100
AcDbPolyline
 62
250
  6
CONTINUOUS
 90
16
 70
0
 10
42.2524290911
 20
-15.2769719872
 10
42.2552120989
 20
-15.3291329746
 10
42.2634353119
 20
-15.3807233862
 10
42.2770088121
 20
-15.4311786582
 10
42.2957841323
 20
-15.4799466406
 10
42.3195558746
 20
-15.5264936279
 10
42.3480639525
 20
-15.570310202
 10
42.380996451
 20
-15.6109168323
 10
42.4179930226
 20
-15.6478690957
 10
42.4586488128
 20
-15.6807625382
 10
42.5025189402
 20
-15.7092371477
 10
42.5491233298
 20
-15.7329812577
 10
42.5979519311
 20
-15.7517349544
 10
42.6484703709
 20
-15.7652929614
 10
42.7001258087
 20
-15.7735068716
 10
42.7523529387
 20
-15.7762867545
  0
LWPOLYLINE
  5
4B3
100
AcDbEntity
  8
0
100
AcDbPolyline
 62
250
  6
CONTINUOUS
 90
16
 70
0
 10
42.2524290911
 20
27.6742127524
 10
42.2552122478
 20
27.7263751414
 10
42.2634358551
 20
27.7779666921
 10
42.2770099182
 20
27.8284228134
 10
42.2957858896
 20
27.8771913395
 10
42.3195582946
 20
27.9237385728
 10
42.3480669804
 20
27.9675551247
 10
42.3809999627
 20
28.0081614893
 10
42.41799684
 20
28.0451132916
 10
42.4586527375
 20
28.0780061502
 10
42.5025227382
 20
28.1064801026
 10
42.5491267514
 20
28.1302235447
 10
42.597954767
 20
28.1489766405
 10
42.6484724364
 20
28.1625341657
 10
42.7001269203
 20
28.1707477539
 10
42.7523529387
 20
28.1735275198
  0
LWPOLYLINE
  5
4B4
100
AcDbEntity
  8
0
100
AcDbPolyline
 62
250
  6
CONTINUOUS
 90
7
 70
0
 10
42.256488765
 20
27.6027317596
 10
42.2558620944
 20
27.6224382631
 10
42.2552051364
 20
27.6392782413
 10
42.2545319511
 20
27.6529098625
 10
42.2538472251
 20
27.6632191828
 10
42.2531462718
 20
27.6703201461
 10
42.2524290911
 20
27.6742127524
  0
LINE
  5
4B5
100
AcDbEntity
  8
0
100
AcDbLine
 62
250
  6
CONTINUOUS
 10
42.2576494171
 20
27.554606734
 11
42.256488765
 21
27.6027317596
  0
LINE
  5
4B6
100
AcDbEntity
  8
0
100
AcDbLine
 62
250
  6
CONTINUOUS
 10
42.2586540674
 20
27.4965037814
 11
42.2576494171
 21
27.554606734
  0
LINE
  5
4B7
100
AcDbEntity
  8
0
100
AcDbLine
 62
250
  6
CONTINUOUS
 10
42.259820795
 20
27.3934887073
 11
42.2586540674
 21
27.4965037814
  0
LINE
  5
4B8
100
AcDbEntity
  8
0
100
AcDbLine
 62
250
  6
CONTINUOUS
 10
42.7580990786
 20
27.8783193587
 11
42.7564168339
 21
28.03026625
  0
LINE
  5
4B9
100
AcDbEntity
  8
0
100
AcDbLine
 62
250
  6
CONTINUOUS
 10
42.2605136903
 20
27.2775419267
 11
42.259820795
 21
27.3934887073
  0
LINE
  5
4BA
100
AcDbEntity
  8
0
100
AcDbLine
 62
250
  6
CONTINUOUS
 10
42.7600323973
 20
27.5366342148
 11
42.7580990786
 21
27.8783193587
  0
LINE
  5
4BB
100
AcDbEntity
  8
0
100
AcDbLine
 62
250
  6
CONTINUOUS
 10
42.2660202222
 20
17.8656324866
 11
42.2605136903
 21
27.2775419267
  0
LINE
  5
4BC
100
AcDbEntity
  8
0
100
AcDbLine
 62
250
  6
CONTINUOUS
 10
42.7674663795
 20
13.2065604735
 11
42.7600323973
 21
27.5366342148
  0
LINE
  5
4BD
100
AcDbEntity
  8
0
100
AcDbLine
 62
7
  6
CONTINUOUS
 10
42.1111510554
 20
-15.7011507653
 11
42.1111510554
 21
28.0983915305
  0
LINE
  5
4BE
100
AcDbEntity
  8
0
100
AcDbLine
 62
250
  6
CONTINUOUS
 10
42.2683036785
 20
3.8647486495
 11
42.2660202222
 21
17.8656324866
  0
LINE
  5
4BF
100
AcDbEntity
  8
0
100
AcDbLine
 62
250
  6
CONTINUOUS
 10
42.7674663798
 20
-0.8093197038
 11
42.7674663795
 21
13.2065604735
  0
LINE
  5
4C0
100
AcDbEntity
  8
0
100
AcDbLine
 62
250
  6
CONTINUOUS
 10
42.2637367572
 20
-10.1338532463
 11
42.2683036785
 21
3.8647486495
  0
LINE
  5
4C1
100
AcDbEntity
  8
0
100
AcDbLine
 62
250
  6
CONTINUOUS
 10
42.2603402088
 20
-14.919711556
 11
42.2637367572
 21
-10.1338532463
  0
LINE
  5
4C2
100
AcDbEntity
  8
0
100
AcDbLine
 62
250
  6
CONTINUOUS
 10
42.7594070302
 20
-15.2868279457
 11
42.7674663798
 21
-0.8093197038
  0
LINE
  5
4C3
100
AcDbEntity
  8
0
100
AcDbLine
 62
250
  6
CONTINUOUS
 10
42.2594827483
 20
-15.0323330616
 11
42.2603402088
 21
-14.919711556
  0
LINE
  5
4C4
100
AcDbEntity
  8
0
100
AcDbLine
 62
250
  6
CONTINUOUS
 10
42.7575761431
 20
-15.5369416818
 11
42.7594070302
 21
-15.2868279457
  0
LINE
  5
4C5
100
AcDbEntity
  8
0
100
AcDbLine
 62
250
  6
CONTINUOUS
 10
42.7564168339
 20
-15.6330254849
 11
42.7575761431
 21
-15.5369416818
  0
LINE
  5
4C6
100
AcDbEntity
  8
0
100
AcDbLine
 62
250
  6
CONTINUOUS
 10
42.2586540674
 20
-15.0992630162
 11
42.2594827483
 21
-15.0323330616
  0
LINE
  5
4C7
100
AcDbEntity
  8
0
100
AcDbLine
 62
250
  6
CONTINUOUS
 10
42.2576494171
 20
-15.1573659689
 11
42.2586540674
 21
-15.0992630162
  0
LWPOLYLINE
  5
4C8
100
AcDbEntity
  8
0
100
AcDbPolyline
 62
250
  6
CONTINUOUS
 90
5
 70
0
 10
42.7551353127
 20
28.103387519
 10
42.754462233
 20
28.1306943248
 10
42.753776323
 20
28.1515722373
 10
42.7530732249
 20
28.1658819114
 10
42.7523529387
 20
28.1735275198
  0
LINE
  5
4C9
100
AcDbEntity
  8
0
100
AcDbLine
 62
250
  6
CONTINUOUS
 10
42.7564168339
 20
28.03026625
 11
42.7551353127
 21
28.103387519
  0
LWPOLYLINE
  5
4CA
100
AcDbEntity
  8
0
100
AcDbPolyline
 62
7
  6
CONTINUOUS
 90
3
 70
0
 43
0.3500000006
 10
54.4040091705
 20
38.7343358002
 10
54.3325779877
 20
38.5200467834
 10
54.1897246857
 20
38.2343356476
  0
LWPOLYLINE
  5
4CB
100
AcDbEntity
  8
0
100
AcDbPolyline
 62
250
  6
CONTINUOUS
 90
6
 70
0
 10
42.7523529387
 20
-15.7762867546
 10
42.7530732249
 20
-15.7686411462
 10
42.753776323
 20
-15.7543314721
 10
42.754462233
 20
-15.7334535596
 10
42.7551353126
 20
-15.7061467539
 10
42.7564168339
 20
-15.6330254849
  0
LWPOLYLINE
  5
4CC
100
AcDbEntity
  8
0
100
AcDbPolyline
 62
250
  6
CONTINUOUS
 90
8
 70
0
 10
42.2524290911
 20
-15.2769719872
 10
42.2531462718
 20
-15.2730793808
 10
42.2538472251
 20
-15.2659784174
 10
42.2545319511
 20
-15.2556690971
 10
42.2552051364
 20
-15.2420374761
 10
42.2558620944
 20
-15.2251974981
 10
42.256488765
 20
-15.2054909946
 10
42.2576494171
 20
-15.1573659689
  0
LINE
  5
4CD
100
AcDbEntity
  8
0
100
AcDbLine
 62
7
  6
CONTINUOUS
 10
49.8762787783
 20
28.5986203826
 11
49.8978066918
 21
28.6986203826
  0
LINE
  5
4CE
100
AcDbEntity
  8
0
100
AcDbLine
 62
7
  6
CONTINUOUS
 10
49.8762787783
 20
-16.2013796174
 11
49.8978066918
 21
-16.3013796174
  0
LINE
  5
4CF
100
AcDbEntity
  8
RACCORDO
100
AcDbLine
 62
250
  6
CONTINUOUS
 10
46.6111510554
 20
11.4038255878
 11
46.6111510554
 21
2.3948165788
  0
LINE
  5
4D0
100
AcDbEntity
  8
RACCORDO
100
AcDbLine
 62
7
  6
CONTINUOUS
 10
47.1111510554
 20
10.8986203826
 11
47.1111510554
 21
2.8986203826
  0
LINE
  5
4D1
100
AcDbEntity
  8
0
100
AcDbLine
 62
7
  6
CONTINUOUS
 10
47.5611510554
 20
8.4986203826
 11
47.5611510554
 21
6.7986203826
  0
LINE
  5
4D2
100
AcDbEntity
  8
0
100
AcDbLine
 62
7
  6
CONTINUOUS
 10
48.2861510554
 20
10.3986203826
 11
48.2861510554
 21
8.4986203826
  0
LINE
  5
4D3
100
AcDbEntity
  8
0
100
AcDbLine
 62
7
  6
CONTINUOUS
 10
48.2861510554
 20
6.7986203826
 11
48.2861510554
 21
3.4486203826
  0
LINE
  5
4D4
100
AcDbEntity
  8
RACCORDO
100
AcDbLine
 62
250
  6
CONTINUOUS
 10
50.4611510554
 20
-0.407986224
 11
56.0611510554
 21
-0.407986224
  0
LINE
  5
4D5
100
AcDbEntity
  8
RACCORDO
100
AcDbLine
 62
7
  6
CONTINUOUS
 10
50.9611510554
 20
0.0986203826
 11
55.5611510554
 21
0.0986203826
  0
LINE
  5
4D6
100
AcDbEntity
  8
RACCORDO
100
AcDbLine
 62
250
  6
CONTINUOUS
 10
49.4111510554
 20
0.7932149772
 11
50.4611510554
 21
0.7932149772
  0
LINE
  5
4D7
100
AcDbEntity
  8
RACCORDO
100
AcDbLine
 62
250
  6
CONTINUOUS
 10
56.0611510554
 20
0.7932149772
 11
57.1111510554
 21
0.7932149772
  0
LINE
  5
4D8
100
AcDbEntity
  8
0
100
AcDbLine
 62
7
  6
CONTINUOUS
 10
51.2211510554
 20
0.9486203826
 11
55.3011510554
 21
0.9486203826
  0
LINE
  5
4D9
100
AcDbEntity
  8
0
100
AcDbLine
 62
7
  6
CONTINUOUS
 10
48.4811510554
 20
10.3986203826
 11
48.4811510554
 21
6.8986203826
  0
LINE
  5
4DA
100
AcDbEntity
  8
0
100
AcDbLine
 62
7
  6
CONTINUOUS
 10
48.9811510554
 20
10.3986203826
 11
48.9811510554
 21
6.8986203826
  0
LINE
  5
4DB
100
AcDbEntity
  8
RACCORDO
100
AcDbLine
 62
250
  6
CONTINUOUS
 10
49.4111510554
 20
2.3948165788
 11
49.4111510554
 21
0.7932149772
  0
LINE
  5
4DC
100
AcDbEntity
  8
0
100
AcDbLine
 62
7
  6
CONTINUOUS
 10
49.5011510554
 20
10.3986203826
 11
49.5011510554
 21
6.8986203826
  0
LINE
  5
4DD
100
AcDbEntity
  8
0
100
AcDbLine
 62
7
  6
CONTINUOUS
 10
49.7913307957
 20
-16.2013796174
 11
49.7913307957
 21
-16.3013796174
  0
LINE
  5
4DE
100
AcDbEntity
  8
0
100
AcDbLine
 62
7
  6
CONTINUOUS
 10
49.7913307957
 20
28.5986203826
 11
49.7913307957
 21
28.6986203826
  0
LINE
  5
4DF
100
AcDbEntity
  8
RACCORDO
100
AcDbLine
 62
7
  6
CONTINUOUS
 10
49.9111510554
 20
2.8986203826
 11
49.9111510554
 21
1.2986203826
  0
LINE
  5
4E0
100
AcDbEntity
  8
0
100
AcDbLine
 62
7
  6
CONTINUOUS
 10
49.9611510554
 20
3.4486203826
 11
49.9611510554
 21
1.8486203826
  0
LINE
  5
4E1
100
AcDbEntity
  8
0
100
AcDbLine
 62
7
  6
CONTINUOUS
 10
50.0011510554
 20
10.3986203826
 11
50.0011510554
 21
6.8986203826
  0
LINE
  5
4E2
100
AcDbEntity
  8
0
100
AcDbLine
 62
250
  6
CONTINUOUS
 10
42.1111510554
 20
-15.7011507653
 11
42.2524290911
 21
-15.2769719872
  0
LINE
  5
4E3
100
AcDbEntity
  8
RACCORDO
100
AcDbLine
 62
7
  6
CONTINUOUS
 10
49.9111510554
 20
1.2986203826
 11
50.9611510554
 21
1.2986203826
  0
LINE
  5
4E4
100
AcDbEntity
  8
RACCORDO
100
AcDbLine
 62
7
  6
CONTINUOUS
 10
55.5611510554
 20
1.2986203826
 11
56.6111510554
 21
1.2986203826
  0
LINE
  5
4E5
100
AcDbEntity
  8
0
100
AcDbLine
 62
7
  6
CONTINUOUS
 10
49.9611510554
 20
1.8486203826
 11
51.2211510554
 21
1.8486203826
  0
LINE
  5
4E6
100
AcDbEntity
  8
0
100
AcDbLine
 62
7
  6
CONTINUOUS
 10
55.3011510554
 20
1.8486203826
 11
56.5611510554
 21
1.8486203826
  0
LINE
  5
4E7
100
AcDbEntity
  8
RACCORDO
100
AcDbLine
 62
250
  6
CONTINUOUS
 10
46.6111510554
 20
2.3948165788
 11
49.4111510554
 21
2.3948165788
  0
LINE
  5
4E8
100
AcDbEntity
  8
RACCORDO
100
AcDbLine
 62
250
  6
CONTINUOUS
 10
57.1111510554
 20
2.3948165788
 11
59.9111510554
 21
2.3948165788
  0
LINE
  5
4E9
100
AcDbEntity
  8
RACCORDO
100
AcDbLine
 62
7
  6
CONTINUOUS
 10
47.1111510554
 20
2.8986203826
 11
49.9111510554
 21
2.8986203826
  0
LINE
  5
4EA
100
AcDbEntity
  8
RACCORDO
100
AcDbLine
 62
7
  6
CONTINUOUS
 10
56.6111510554
 20
2.8986203826
 11
59.4111510554
 21
2.8986203826
  0
LINE
  5
4EB
100
AcDbEntity
  8
0
100
AcDbLine
 62
250
  6
CONTINUOUS
 10
42.2524290911
 20
27.6742127524
 11
42.1111510554
 21
28.0983915305
  0
LINE
  5
4EC
100
AcDbEntity
  8
RACCORDO
100
AcDbLine
 62
250
  6
CONTINUOUS
 10
50.4611510554
 20
0.7932149772
 11
50.4611510554
 21
-0.407986224
  0
LINE
  5
4ED
100
AcDbEntity
  8
0
100
AcDbLine
 62
7
  6
CONTINUOUS
 10
50.5211510554
 20
10.3986203826
 11
50.5211510554
 21
6.8986203826
  0
LINE
  5
4EE
100
AcDbEntity
  8
RACCORDO
100
AcDbLine
 62
7
  6
CONTINUOUS
 10
50.9611510554
 20
1.2986203826
 11
50.9611510554
 21
0.0985799774
  0
LINE
  5
4EF
100
AcDbEntity
  8
0
100
AcDbLine
 62
7
  6
CONTINUOUS
 10
51.0211510554
 20
10.3986203826
 11
51.0211510554
 21
6.8986203826
  0
LINE
  5
4F0
100
AcDbEntity
  8
0
100
AcDbLine
 62
7
  6
CONTINUOUS
 10
51.2211510554
 20
1.8486203826
 11
51.2211510554
 21
0.9486203826
  0
LINE
  5
4F1
100
AcDbEntity
  8
0
100
AcDbLine
 62
7
  6
CONTINUOUS
 10
51.5411510554
 20
10.3986203826
 11
51.5411510554
 21
6.8986203826
  0
LINE
  5
4F2
100
AcDbEntity
  8
ASSI
100
AcDbLine
 62
7
  6
CONTINUOUS
 10
51.5661510554
 20
10.3986203826
 11
51.5661510554
 21
6.8986203826
  0
LINE
  5
4F3
100
AcDbEntity
  8
0
100
AcDbLine
 62
250
  6
CONTINUOUS
 10
42.6107704557
 20
-16.2013796174
 11
42.7523529387
 21
-15.7762867546
  0
LWPOLYLINE
  5
4F4
100
AcDbEntity
  8
RACCORDO
100
AcDbPolyline
 62
7
  6
CONTINUOUS
 90
3
 70
0
 10
47.0201858802
 20
2.8053890937
 10
46.9965397575
 20
2.7817420033
 10
46.9450737639
 20
2.7296988319
  0
LINE
  5
4F5
100
AcDbEntity
  8
RACCORDO
100
AcDbLine
 62
7
  6
CONTINUOUS
 10
46.9450737639
 20
2.7296988319
 11
46.6420461765
 21
2.4255000082
  0
LINE
  5
4F6
100
AcDbEntity
  8
RACCORDO
100
AcDbLine
 62
7
  6
CONTINUOUS
 10
46.6420461765
 20
2.4255000082
 11
46.6111510554
 21
2.3948165788
  0
LINE
  5
4F7
100
AcDbEntity
  8
0
100
AcDbLine
 62
7
  6
CONTINUOUS
 10
49.9611510554
 20
2.9986203826
 11
56.5611510554
 21
2.9986203826
  0
LINE
  5
4F8
100
AcDbEntity
  8
0
100
AcDbLine
 62
7
  6
CONTINUOUS
 10
48.2861510554
 20
3.4486203826
 11
49.9611510554
 21
3.4486203826
  0
LINE
  5
4F9
100
AcDbEntity
  8
0
100
AcDbLine
 62
7
  6
CONTINUOUS
 10
56.5611510554
 20
3.4486203826
 11
58.2361510554
 21
3.4486203826
  0
LWPOLYLINE
  5
4FA
100
AcDbEntity
  8
RACCORDO
100
AcDbPolyline
 62
7
  6
CONTINUOUS
 90
6
 70
0
 10
56.6111510554
 20
1.2986203826
 10
56.6141776799
 20
1.2961019636
 10
56.6206368105
 20
1.2889536433
 10
56.6305284474
 20
1.277793416
 10
56.6442672346
 20
1.2633167699
 10
56.6614385281
 20
1.2460770532
  0
LWPOLYLINE
  5
4FB
100
AcDbEntity
  8
RACCORDO
100
AcDbPolyline
 62
7
  6
CONTINUOUS
 90
6
 70
0
 10
55.5611510554
 20
1.2986203826
 10
55.5640926594
 20
1.2961406542
 10
55.5704727353
 20
1.2890853076
 10
55.580291283
 20
1.2780391712
 10
55.5939506629
 20
1.2636611907
 10
55.6110485146
 20
1.2464814787
  0
LINE
  5
4FC
100
AcDbEntity
  8
RACCORDO
100
AcDbLine
 62
7
  6
CONTINUOUS
 10
55.5611510554
 20
0.0985799774
 11
55.5643594957
 21
0.0955949763
  0
LINE
  5
4FD
100
AcDbEntity
  8
RACCORDO
100
AcDbLine
 62
7
  6
CONTINUOUS
 10
56.0302002356
 20
-0.3772421062
 11
56.0611510554
 21
-0.407986224
  0
LINE
  5
4FE
100
AcDbEntity
  8
RACCORDO
100
AcDbLine
 62
7
  6
CONTINUOUS
 10
56.0302807965
 20
0.8238749832
 11
56.0611510554
 21
0.7932149772
  0
LINE
  5
4FF
100
AcDbEntity
  8
RACCORDO
100
AcDbLine
 62
7
  6
CONTINUOUS
 10
55.8134799095
 20
-0.1594513137
 11
56.0302002356
 21
-0.3772421062
  0
LINE
  5
500
100
AcDbEntity
  8
RACCORDO
100
AcDbLine
 62
7
  6
CONTINUOUS
 10
55.726980411
 20
1.1287471093
 11
56.0302807965
 21
0.8238749832
  0
LINE
  5
501
100
AcDbEntity
  8
RACCORDO
100
AcDbLine
 62
7
  6
CONTINUOUS
 10
55.7277768226
 20
-0.0729614535
 11
55.8134799095
 21
-0.1594513137
  0
LINE
  5
502
100
AcDbEntity
  8
RACCORDO
100
AcDbLine
 62
7
  6
CONTINUOUS
 10
55.6754624034
 20
1.1810157631
 11
55.726980411
 21
1.1287471093
  0
LINE
  5
503
100
AcDbEntity
  8
RACCORDO
100
AcDbLine
 62
7
  6
CONTINUOUS
 10
55.6764269712
 20
-0.0207424575
 11
55.7277768226
 21
-0.0729614535
  0
LWPOLYLINE
  5
504
100
AcDbEntity
  8
RACCORDO
100
AcDbPolyline
 62
7
  6
CONTINUOUS
 90
3
 70
0
 10
55.6110485146
 20
1.2464814787
 10
55.6518043849
 20
1.2047729477
 10
55.6754624034
 20
1.1810157631
  0
LWPOLYLINE
  5
505
100
AcDbEntity
  8
RACCORDO
100
AcDbPolyline
 62
7
  6
CONTINUOUS
 90
3
 70
0
 10
55.6119833339
 20
0.0450245409
 10
55.6528078215
 20
0.0030467271
 10
55.6764269712
 20
-0.0207424575
  0
LWPOLYLINE
  5
506
100
AcDbEntity
  8
RACCORDO
100
AcDbPolyline
 62
7
  6
CONTINUOUS
 90
4
 70
0
 10
55.5643594957
 20
0.0955949763
 10
55.5809707993
 20
0.0769870341
 10
55.5947779961
 20
0.0624253815
 10
55.6119833339
 20
0.0450245409
  0
LINE
  5
507
100
AcDbEntity
  8
0
100
AcDbLine
 62
250
  6
CONTINUOUS
 10
42.7523529387
 20
28.1735275198
 11
42.6107704557
 21
28.5986203826
  0
LINE
  5
508
100
AcDbEntity
  8
ASSI
100
AcDbLine
 62
7
  6
CONTINUOUS
 10
52.0161510554
 20
10.3986203826
 11
52.0161510554
 21
6.8986203826
  0
LINE
  5
509
100
AcDbEntity
  8
0
100
AcDbLine
 62
7
  6
CONTINUOUS
 10
52.0411510554
 20
10.3986203826
 11
52.0411510554
 21
6.8986203826
  0
LINE
  5
50A
100
AcDbEntity
  8
0
100
AcDbLine
 62
7
  6
CONTINUOUS
 10
52.5611510554
 20
10.3986203826
 11
52.5611510554
 21
6.8986203826
  0
LINE
  5
50B
100
AcDbEntity
  8
ASSI
100
AcDbLine
 62
7
  6
CONTINUOUS
 10
52.5661510554
 20
10.3986203826
 11
52.5661510554
 21
6.8986203826
  0
LINE
  5
50C
100
AcDbEntity
  8
ASSI
100
AcDbLine
 62
7
  6
CONTINUOUS
 10
53.0161510554
 20
10.3986203826
 11
53.0161510554
 21
6.8986203826
  0
LINE
  5
50D
100
AcDbEntity
  8
0
100
AcDbLine
 62
7
  6
CONTINUOUS
 10
53.0611510554
 20
10.3986203826
 11
53.0611510554
 21
6.8986203826
  0
LINE
  5
50E
100
AcDbEntity
  8
0
100
AcDbLine
 62
7
  6
CONTINUOUS
 10
56.6762787783
 20
28.5986203826
 11
56.6978066918
 21
28.6986203826
  0
LWPOLYLINE
  5
50F
100
AcDbEntity
  8
RACCORDO
100
AcDbPolyline
 62
7
  6
CONTINUOUS
 90
3
 70
0
 10
49.8199157658
 20
2.8051100605
 10
49.7963194643
 20
2.7815156645
 10
49.7450164311
 20
2.7296398612
  0
LINE
  5
510
100
AcDbEntity
  8
RACCORDO
100
AcDbLine
 62
7
  6
CONTINUOUS
 10
49.7450164311
 20
2.7296398612
 11
49.4422477456
 21
2.4257019998
  0
LINE
  5
511
100
AcDbEntity
  8
RACCORDO
100
AcDbLine
 62
7
  6
CONTINUOUS
 10
49.4422477456
 20
2.4257019998
 11
49.4111510554
 21
2.3948165788
  0
LWPOLYLINE
  5
512
100
AcDbEntity
  8
RACCORDO
100
AcDbPolyline
 62
7
  6
CONTINUOUS
 90
7
 70
0
 10
47.1111510554
 20
2.8986203826
 10
47.1081270481
 20
2.896175787
 10
47.1016769074
 20
2.8892080072
 10
47.0918006335
 20
2.8782760527
 10
47.0780951788
 20
2.8640046589
 10
47.0609635908
 20
2.8469084708
 10
47.0201858802
 20
2.8053890937
  0
LWPOLYLINE
  5
513
100
AcDbEntity
  8
0
100
AcDbPolyline
 62
7
  6
CONTINUOUS
 90
2
 70
0
 43
0.3500000006
 10
71.6611521149
 20
4.8414767303
 10
70.1611516571
 20
4.8414767303
  0
LWPOLYLINE
  5
514
100
AcDbEntity
  8
0
100
AcDbPolyline
 62
7
  6
CONTINUOUS
 90
4
 70
0
 43
0.3500000006
 10
69.3040091858
 20
6.1986193542
 10
68.6611511993
 20
6.1986193542
 10
68.6611511993
 20
7.698619812
 10
71.6611521149
 20
6.8414773407
  0
LWPOLYLINE
  5
515
100
AcDbEntity
  8
RACCORDO
100
AcDbPolyline
 62
7
  6
CONTINUOUS
 90
6
 70
0
 10
56.6111510554
 20
2.8986203826
 10
56.6141750628
 20
2.896175787
 10
56.6206252034
 20
2.8892080072
 10
56.6305014773
 20
2.8782760527
 10
56.644206932
 20
2.8640046589
 10
56.66133852
 20
2.8469084708
  0
LWPOLYLINE
  5
516
100
AcDbEntity
  8
RACCORDO
100
AcDbPolyline
 62
7
  6
CONTINUOUS
 90
6
 70
0
 10
47.1111510554
 20
10.8986203826
 10
47.1081991756
 20
10.9010957082
 10
47.1018103569
 20
10.9081400855
 10
47.0919845991
 20
10.9191719262
 10
47.0783194523
 20
10.9335365736
 10
47.0612173666
 20
10.9507058475
  0
LINE
  5
517
100
AcDbEntity
  8
RACCORDO
100
AcDbLine
 62
7
  6
CONTINUOUS
 10
57.0799884567
 20
0.8241679842
 11
57.1111510554
 21
0.7932149772
  0
LINE
  5
518
100
AcDbEntity
  8
RACCORDO
100
AcDbLine
 62
7
  6
CONTINUOUS
 10
46.6420244139
 20
11.3731626444
 11
46.6111510554
 21
11.4038255878
  0
LINE
  5
519
100
AcDbEntity
  8
RACCORDO
100
AcDbLine
 62
7
  6
CONTINUOUS
 10
57.0802559343
 20
2.4255000082
 11
57.1111510554
 21
2.3948165788
  0
LINE
  5
51A
100
AcDbEntity
  8
RACCORDO
100
AcDbLine
 62
7
  6
CONTINUOUS
 10
56.7772283469
 20
2.7296988319
 11
57.0802559343
 21
2.4255000082
  0
LINE
  5
51B
100
AcDbEntity
  8
RACCORDO
100
AcDbLine
 62
7
  6
CONTINUOUS
 10
46.9452906828
 20
11.0683746056
 11
46.6420244139
 21
11.3731626444
  0
LINE
  5
51C
100
AcDbEntity
  8
RACCORDO
100
AcDbLine
 62
7
  6
CONTINUOUS
 10
56.7770635525
 20
1.1286613458
 11
57.0799884567
 21
0.8241679842
  0
LINE
  5
51D
100
AcDbEntity
  8
RACCORDO
100
AcDbLine
 62
7
  6
CONTINUOUS
 10
56.7257623534
 20
2.7817420033
 11
56.7772283469
 21
2.7296988319
  0
LINE
  5
51E
100
AcDbEntity
  8
RACCORDO
100
AcDbLine
 62
7
  6
CONTINUOUS
 10
46.9968022
 20
11.016134147
 11
46.9452906828
 21
11.0683746056
  0
LINE
  5
51F
100
AcDbEntity
  8
RACCORDO
100
AcDbLine
 62
7
  6
CONTINUOUS
 10
56.7257816849
 20
1.180686444
 11
56.7770635525
 21
1.1286613458
  0
LWPOLYLINE
  5
520
100
AcDbEntity
  8
RACCORDO
100
AcDbPolyline
 62
7
  6
CONTINUOUS
 90
3
 70
0
 10
56.66133852
 20
2.8469084708
 10
56.7021162307
 20
2.8053890937
 10
56.7257623534
 20
2.7817420033
  0
LWPOLYLINE
  5
521
100
AcDbEntity
  8
RACCORDO
100
AcDbPolyline
 62
7
  6
CONTINUOUS
 90
3
 70
0
 10
47.0612173666
 20
10.9507058475
 10
47.0204587404
 20
10.9923907303
 10
46.9968022
 20
11.016134147
  0
LWPOLYLINE
  5
522
100
AcDbEntity
  8
RACCORDO
100
AcDbPolyline
 62
7
  6
CONTINUOUS
 90
3
 70
0
 10
56.6614385281
 20
1.2460770532
 10
56.7021957532
 20
1.2043668073
 10
56.7257816849
 20
1.180686444
  0
LINE
  5
523
100
AcDbEntity
  8
0
100
AcDbLine
 62
7
  6
CONTINUOUS
 10
56.6762787783
 20
-16.2013796174
 11
56.6978066918
 21
-16.3013796174
  0
LINE
  5
524
100
AcDbEntity
  8
ASSI
100
AcDbLine
 62
7
  6
CONTINUOUS
 10
53.5661510554
 20
10.3986203826
 11
53.5661510554
 21
6.8986203826
  0
LINE
  5
525
100
AcDbEntity
  8
ASSI
100
AcDbLine
 62
7
  6
CONTINUOUS
 10
54.0161510554
 20
10.3986203826
 11
54.0161510554
 21
6.8986203826
  0
LINE
  5
526
100
AcDbEntity
  8
0
100
AcDbLine
 62
7
  6
CONTINUOUS
 10
54.0811510554
 20
10.3986203826
 11
54.0811510554
 21
6.8986203826
  0
LINE
  5
527
100
AcDbEntity
  8
ASSI
100
AcDbLine
 62
7
  6
CONTINUOUS
 10
54.5661510554
 20
10.3986203826
 11
54.5661510554
 21
6.8986203826
  0
LINE
  5
528
100
AcDbEntity
  8
ASSI
100
AcDbLine
 62
7
  6
CONTINUOUS
 10
55.0161510554
 20
10.3986203826
 11
55.0161510554
 21
6.8986203826
  0
LINE
  5
529
100
AcDbEntity
  8
0
100
AcDbLine
 62
7
  6
CONTINUOUS
 10
55.1011510554
 20
10.3986203826
 11
55.1011510554
 21
6.8986203826
  0
LINE
  5
52A
100
AcDbEntity
  8
0
100
AcDbLine
 62
7
  6
CONTINUOUS
 10
49.8460233325
 20
-16.2013796174
 11
49.8244954191
 21
-16.3013796174
  0
LWPOLYLINE
  5
52B
100
AcDbEntity
  8
RACCORDO
100
AcDbPolyline
 62
7
  6
CONTINUOUS
 90
3
 70
0
 10
49.8204977259
 20
1.2047729477
 10
49.7968397074
 20
1.1810157631
 10
49.7453216998
 20
1.1287471093
  0
LWPOLYLINE
  5
52C
100
AcDbEntity
  8
RACCORDO
100
AcDbPolyline
 62
7
  6
CONTINUOUS
 90
3
 70
0
 10
50.8701063576
 20
1.2043668073
 10
50.8465204259
 20
1.180686444
 10
50.7952385583
 20
1.1286613458
  0
LWPOLYLINE
  5
52D
100
AcDbEntity
  8
RACCORDO
100
AcDbPolyline
 62
7
  6
CONTINUOUS
 90
3
 70
0
 10
59.5018433704
 20
10.9923907303
 10
59.5254999108
 20
11.016134147
 10
59.577011428
 20
11.0683746056
  0
LINE
  5
52E
100
AcDbEntity
  8
RACCORDO
100
AcDbLine
 62
7
  6
CONTINUOUS
 10
59.577011428
 20
11.0683746056
 11
59.8802776969
 21
11.3731626444
  0
LINE
  5
52F
100
AcDbEntity
  8
RACCORDO
100
AcDbLine
 62
7
  6
CONTINUOUS
 10
49.7453216998
 20
1.1287471093
 11
49.4420213144
 21
0.8238749832
  0
LINE
  5
530
100
AcDbEntity
  8
RACCORDO
100
AcDbLine
 62
7
  6
CONTINUOUS
 10
50.7952385583
 20
1.1286613458
 11
50.4923136541
 21
0.8241679842
  0
LINE
  5
531
100
AcDbEntity
  8
RACCORDO
100
AcDbLine
 62
7
  6
CONTINUOUS
 10
59.8802776969
 20
11.3731626444
 11
59.9111510554
 21
11.4038255878
  0
LINE
  5
532
100
AcDbEntity
  8
RACCORDO
100
AcDbLine
 62
7
  6
CONTINUOUS
 10
49.4420213144
 20
0.8238749832
 11
49.4111510554
 21
0.7932149772
  0
LINE
  5
533
100
AcDbEntity
  8
RACCORDO
100
AcDbLine
 62
7
  6
CONTINUOUS
 10
50.4923136541
 20
0.8241679842
 11
50.4611510554
 21
0.7932149772
  0
LWPOLYLINE
  5
534
100
AcDbEntity
  8
RACCORDO
100
AcDbPolyline
 62
7
  6
CONTINUOUS
 90
7
 70
0
 10
49.9111510554
 20
1.2986203826
 10
49.9082094514
 20
1.2961406542
 10
49.9018293755
 20
1.2890853076
 10
49.8920108279
 20
1.2780391712
 10
49.8783514479
 20
1.2636611907
 10
49.8612535962
 20
1.2464814787
 10
49.8204977259
 20
1.2047729477
  0
LWPOLYLINE
  5
535
100
AcDbEntity
  8
RACCORDO
100
AcDbPolyline
 62
7
  6
CONTINUOUS
 90
7
 70
0
 10
59.4111510554
 20
10.8986203826
 10
59.4141029352
 20
10.9010957082
 10
59.420491754
 20
10.9081400855
 10
59.4303175117
 20
10.9191719262
 10
59.4439826585
 20
10.9335365736
 10
59.4610847442
 20
10.9507058475
 10
59.5018433704
 20
10.9923907303
  0
LWPOLYLINE
  5
536
100
AcDbEntity
  8
RACCORDO
100
AcDbPolyline
 62
7
  6
CONTINUOUS
 90
7
 70
0
 10
49.9111510554
 20
2.8986203826
 10
49.9080680784
 20
2.8961493321
 10
49.9015631952
 20
2.8891179066
 10
49.8916364055
 20
2.8781077311
 10
49.8778762303
 20
2.8637685188
 10
49.8606941488
 20
2.8466309244
 10
49.8199157658
 20
2.8051100605
  0
LINE
  5
537
100
AcDbEntity
  8
0
100
AcDbLine
 62
7
  6
CONTINUOUS
 10
47.5611510554
 20
6.7986203826
 11
48.2861510554
 21
6.7986203826
  0
LINE
  5
538
100
AcDbEntity
  8
0
100
AcDbLine
 62
7
  6
CONTINUOUS
 10
58.2361510554
 20
6.7986203826
 11
58.9611510554
 21
6.7986203826
  0
LINE
  5
539
100
AcDbEntity
  8
0
100
AcDbLine
 62
7
  6
CONTINUOUS
 10
48.4811510554
 20
6.8986203826
 11
48.9811510554
 21
6.8986203826
  0
LINE
  5
53A
100
AcDbEntity
  8
0
100
AcDbLine
 62
7
  6
CONTINUOUS
 10
49.5011510554
 20
6.8986203826
 11
50.0011510554
 21
6.8986203826
  0
LINE
  5
53B
100
AcDbEntity
  8
0
100
AcDbLine
 62
7
  6
CONTINUOUS
 10
50.5211510554
 20
6.8986203826
 11
51.0211510554
 21
6.8986203826
  0
LINE
  5
53C
100
AcDbEntity
  8
ASSI
100
AcDbLine
 62
7
  6
CONTINUOUS
 10
51.5661510554
 20
6.8986203826
 11
52.0161510554
 21
6.8986203826
  0
LINE
  5
53D
100
AcDbEntity
  8
0
100
AcDbLine
 62
7
  6
CONTINUOUS
 10
51.5411510554
 20
6.8986203826
 11
52.0411510554
 21
6.8986203826
  0
LINE
  5
53E
100
AcDbEntity
  8
ASSI
100
AcDbLine
 62
7
  6
CONTINUOUS
 10
52.5661510554
 20
6.8986203826
 11
53.0161510554
 21
6.8986203826
  0
LINE
  5
53F
100
AcDbEntity
  8
0
100
AcDbLine
 62
7
  6
CONTINUOUS
 10
52.5611510554
 20
6.8986203826
 11
53.0611510554
 21
6.8986203826
  0
LINE
  5
540
100
AcDbEntity
  8
ASSI
100
AcDbLine
 62
7
  6
CONTINUOUS
 10
53.5661510554
 20
6.8986203826
 11
54.0161510554
 21
6.8986203826
  0
LINE
  5
541
100
AcDbEntity
  8
0
100
AcDbLine
 62
7
  6
CONTINUOUS
 10
53.5811510554
 20
6.8986203826
 11
54.0811510554
 21
6.8986203826
  0
LINE
  5
542
100
AcDbEntity
  8
ASSI
100
AcDbLine
 62
7
  6
CONTINUOUS
 10
54.5661510554
 20
6.8986203826
 11
55.0161510554
 21
6.8986203826
  0
LINE
  5
543
100
AcDbEntity
  8
0
100
AcDbLine
 62
7
  6
CONTINUOUS
 10
54.6011510554
 20
6.8986203826
 11
55.1011510554
 21
6.8986203826
  0
LINE
  5
544
100
AcDbEntity
  8
0
100
AcDbLine
 62
7
  6
CONTINUOUS
 10
55.6211510554
 20
6.8986203826
 11
56.1211510554
 21
6.8986203826
  0
LINE
  5
545
100
AcDbEntity
  8
0
100
AcDbLine
 62
7
  6
CONTINUOUS
 10
56.6411510554
 20
6.8986203826
 11
57.1411510554
 21
6.8986203826
  0
LINE
  5
546
100
AcDbEntity
  8
0
100
AcDbLine
 62
7
  6
CONTINUOUS
 10
57.6611510554
 20
6.8986203826
 11
58.1611510554
 21
6.8986203826
  0
LWPOLYLINE
  5
547
100
AcDbEntity
  8
RACCORDO
100
AcDbPolyline
 62
7
  6
CONTINUOUS
 90
6
 70
0
 10
59.4111510554
 20
2.8986203826
 10
59.4142340324
 20
2.8961493321
 10
59.4207389157
 20
2.8891179066
 10
59.4306657053
 20
2.8781077311
 10
59.4444258805
 20
2.8637685188
 10
59.4616079621
 20
2.8466309244
  0
LINE
  5
548
100
AcDbEntity
  8
0
100
AcDbLine
 62
7
  6
CONTINUOUS
 10
49.8460233325
 20
28.5986203826
 11
49.8244954191
 21
28.6986203826
  0
LINE
  5
549
100
AcDbEntity
  8
0
100
AcDbLine
 62
7
  6
CONTINUOUS
 10
55.3011510554
 20
0.9486203826
 11
55.3011510554
 21
1.8486203826
  0
LINE
  5
54A
100
AcDbEntity
  8
RACCORDO
100
AcDbLine
 62
7
  6
CONTINUOUS
 10
55.5611510554
 20
0.0985799774
 11
55.5611510554
 21
1.2986203826
  0
LINE
  5
54B
100
AcDbEntity
  8
0
100
AcDbLine
 62
7
  6
CONTINUOUS
 10
55.6211510554
 20
10.3986203826
 11
55.6211510554
 21
6.8986203826
  0
LINE
  5
54C
100
AcDbEntity
  8
RACCORDO
100
AcDbLine
 62
250
  6
CONTINUOUS
 10
56.0611510554
 20
-0.407986224
 11
56.0611510554
 21
0.7932149772
  0
LINE
  5
54D
100
AcDbEntity
  8
0
100
AcDbLine
 62
7
  6
CONTINUOUS
 10
56.1211510554
 20
10.3986203826
 11
56.1211510554
 21
6.8986203826
  0
LINE
  5
54E
100
AcDbEntity
  8
0
100
AcDbLine
 62
7
  6
CONTINUOUS
 10
56.5611510554
 20
1.8486203826
 11
56.5611510554
 21
3.4486203826
  0
LINE
  5
54F
100
AcDbEntity
  8
RACCORDO
100
AcDbLine
 62
7
  6
CONTINUOUS
 10
56.6111510554
 20
1.2986203826
 11
56.6111510554
 21
2.8986203826
  0
LINE
  5
550
100
AcDbEntity
  8
0
100
AcDbLine
 62
7
  6
CONTINUOUS
 10
56.6411510554
 20
10.3986203826
 11
56.6411510554
 21
6.8986203826
  0
LINE
  5
551
100
AcDbEntity
  8
0
100
AcDbLine
 62
7
  6
CONTINUOUS
 10
56.7309713151
 20
28.6986203826
 11
56.7309713151
 21
28.5986203826
  0
LINE
  5
552
100
AcDbEntity
  8
0
100
AcDbLine
 62
7
  6
CONTINUOUS
 10
56.7309713151
 20
-16.3013796174
 11
56.7309713151
 21
-16.2013796174
  0
LINE
  5
553
100
AcDbEntity
  8
0
100
AcDbLine
 62
250
  6
CONTINUOUS
 10
63.7699491721
 20
28.1735275198
 11
63.9115316551
 21
28.5986203826
  0
LINE
  5
554
100
AcDbEntity
  8
0
100
AcDbLine
 62
250
  6
CONTINUOUS
 10
64.2698730197
 20
27.6742127524
 11
64.4111510554
 21
28.0983915305
  0
LWPOLYLINE
  5
555
100
AcDbEntity
  8
RACCORDO
100
AcDbPolyline
 62
7
  6
CONTINUOUS
 90
4
 70
0
 10
50.9413313115
 20
0.0769870341
 10
50.9275241147
 20
0.0624253815
 10
50.9103187769
 20
0.0450245409
 10
50.8694942894
 20
0.0030467271
  0
LWPOLYLINE
  5
556
100
AcDbEntity
  8
RACCORDO
100
AcDbPolyline
 62
7
  6
CONTINUOUS
 90
3
 70
0
 10
50.8694942894
 20
0.0030467271
 10
50.8458751397
 20
-0.0207424575
 10
50.7945252882
 20
-0.0729614535
  0
LINE
  5
557
100
AcDbEntity
  8
RACCORDO
100
AcDbLine
 62
7
  6
CONTINUOUS
 10
50.7945252882
 20
-0.0729614535
 11
50.4921018752
 21
-0.3772421062
  0
LINE
  5
558
100
AcDbEntity
  8
RACCORDO
100
AcDbLine
 62
7
  6
CONTINUOUS
 10
50.4921018752
 20
-0.3772421062
 11
50.4611510554
 21
-0.407986224
  0
LWPOLYLINE
  5
559
100
AcDbEntity
  8
RACCORDO
100
AcDbPolyline
 62
7
  6
CONTINUOUS
 90
3
 70
0
 10
50.9611510554
 20
0.0985799774
 10
50.9579426151
 20
0.0955949763
 10
50.9413313115
 20
0.0769870341
  0
LWPOLYLINE
  5
55A
100
AcDbEntity
  8
RACCORDO
100
AcDbPolyline
 62
7
  6
CONTINUOUS
 90
7
 70
0
 10
50.9611510554
 20
1.2986203826
 10
50.958124431
 20
1.2961019636
 10
50.9516653003
 20
1.2889536433
 10
50.9417736634
 20
1.277793416
 10
50.9280348762
 20
1.2633167699
 10
50.9108635828
 20
1.2460770532
 10
50.8701063576
 20
1.2043668073
  0
LINE
  5
55B
100
AcDbEntity
  8
0
100
AcDbLine
 62
7
  6
CONTINUOUS
 10
58.9611510554
 20
8.4986203826
 11
58.2361510554
 21
8.4986203826
  0
LINE
  5
55C
100
AcDbEntity
  8
0
100
AcDbLine
 62
7
  6
CONTINUOUS
 10
48.2861510554
 20
8.4986203826
 11
47.5611510554
 21
8.4986203826
  0
LINE
  5
55D
100
AcDbEntity
  8
RACCORDO
100
AcDbLine
 62
7
  6
CONTINUOUS
 10
59.8800543652
 20
2.4257019998
 11
59.9111510554
 21
2.3948165788
  0
LINE
  5
55E
100
AcDbEntity
  8
RACCORDO
100
AcDbLine
 62
7
  6
CONTINUOUS
 10
59.5772856797
 20
2.7296398612
 11
59.8800543652
 21
2.4257019998
  0
LINE
  5
55F
100
AcDbEntity
  8
RACCORDO
100
AcDbLine
 62
7
  6
CONTINUOUS
 10
59.5259826465
 20
2.7815156645
 11
59.5772856797
 21
2.7296398612
  0
LWPOLYLINE
  5
560
100
AcDbEntity
  8
RACCORDO
100
AcDbPolyline
 62
7
  6
CONTINUOUS
 90
3
 70
0
 10
59.4616079621
 20
2.8466309244
 10
59.5023863451
 20
2.8051100605
 10
59.5259826465
 20
2.7815156645
  0
LINE
  5
561
100
AcDbEntity
  8
0
100
AcDbLine
 62
250
  6
CONTINUOUS
 10
63.9115316551
 20
-16.2013796174
 11
63.7699491721
 21
-15.7762867546
  0
LINE
  5
562
100
AcDbEntity
  8
0
100
AcDbLine
 62
250
  6
CONTINUOUS
 10
64.4111510554
 20
-15.7011507653
 11
64.2698730197
 21
-15.2769719872
  0
LINE
  5
563
100
AcDbEntity
  8
RACCORDO
100
AcDbLine
 62
250
  6
CONTINUOUS
 10
57.1111510554
 20
0.7932149772
 11
57.1111510554
 21
2.3948165788
  0
LINE
  5
564
100
AcDbEntity
  8
0
100
AcDbLine
 62
7
  6
CONTINUOUS
 10
57.1411510554
 20
10.3986203826
 11
57.1411510554
 21
6.8986203826
  0
LINE
  5
565
100
AcDbEntity
  8
0
100
AcDbLine
 62
7
  6
CONTINUOUS
 10
57.6611510554
 20
10.3986203826
 11
57.6611510554
 21
6.8986203826
  0
LINE
  5
566
100
AcDbEntity
  8
0
100
AcDbLine
 62
7
  6
CONTINUOUS
 10
58.1611510554
 20
10.3986203826
 11
58.1611510554
 21
6.8986203826
  0
LINE
  5
567
100
AcDbEntity
  8
0
100
AcDbLine
 62
7
  6
CONTINUOUS
 10
58.2361510554
 20
3.4486203826
 11
58.2361510554
 21
6.7986203826
  0
LINE
  5
568
100
AcDbEntity
  8
0
100
AcDbLine
 62
7
  6
CONTINUOUS
 10
58.2361510554
 20
8.4986203826
 11
58.2361510554
 21
10.3986203826
  0
LINE
  5
569
100
AcDbEntity
  8
ASSI
100
AcDbLine
 62
250
  6
CONTINUOUS
 10
51.5661510554
 20
9.9756203691
 11
52.0161510554
 21
9.9756203691
  0
LINE
  5
56A
100
AcDbEntity
  8
ASSI
100
AcDbLine
 62
250
  6
CONTINUOUS
 10
52.5661510554
 20
9.9756203691
 11
53.0161510554
 21
9.9756203691
  0
LINE
  5
56B
100
AcDbEntity
  8
ASSI
100
AcDbLine
 62
250
  6
CONTINUOUS
 10
53.5661510554
 20
9.9756203691
 11
54.0161510554
 21
9.9756203691
  0
LINE
  5
56C
100
AcDbEntity
  8
ASSI
100
AcDbLine
 62
250
  6
CONTINUOUS
 10
54.5661510554
 20
9.9756203691
 11
55.0161510554
 21
9.9756203691
  0
LINE
  5
56D
100
AcDbEntity
  8
0
100
AcDbLine
 62
7
  6
CONTINUOUS
 10
58.2361510554
 20
10.3986203826
 11
48.2861510554
 21
10.3986203826
  0
LINE
  5
56E
100
AcDbEntity
  8
RACCORDO
100
AcDbLine
 62
7
  6
CONTINUOUS
 10
59.4111510554
 20
10.8986203826
 11
47.1111510554
 21
10.8986203826
  0
LINE
  5
56F
100
AcDbEntity
  8
RACCORDO
100
AcDbLine
 62
250
  6
CONTINUOUS
 10
59.9111510554
 20
11.4038255878
 11
46.6111510554
 21
11.4038255878
  0
LINE
  5
570
100
AcDbEntity
  8
0
100
AcDbLine
 62
7
  6
CONTINUOUS
 10
58.9611510554
 20
6.7986203826
 11
58.9611510554
 21
8.4986203826
  0
LINE
  5
571
100
AcDbEntity
  8
RACCORDO
100
AcDbLine
 62
7
  6
CONTINUOUS
 10
59.4111510554
 20
2.8986203826
 11
59.4111510554
 21
10.8986203826
  0
LINE
  5
572
100
AcDbEntity
  8
RACCORDO
100
AcDbLine
 62
250
  6
CONTINUOUS
 10
59.9111510554
 20
2.3948165788
 11
59.9111510554
 21
11.4038255878
  0
LWPOLYLINE
  5
573
100
AcDbEntity
  8
0
100
AcDbPolyline
 62
250
  6
CONTINUOUS
 90
7
 70
0
 10
64.2698730197
 20
-15.2769719872
 10
64.2691547857
 20
-15.2730665328
 10
64.2684529978
 20
-15.2659509331
 10
64.2677676561
 20
-15.2556251881
 10
64.2670941162
 20
-15.2419745798
 10
64.2664370224
 20
-15.2251138261
 10
64.2658103075
 20
-15.2053870816
  0
LWPOLYLINE
  5
574
100
AcDbEntity
  8
0
100
AcDbPolyline
 62
250
  6
CONTINUOUS
 90
5
 70
0
 10
63.7699491721
 20
-15.7762867546
 10
63.7692289069
 20
-15.7686420268
 10
63.7685257954
 20
-15.754333733
 10
63.7678398376
 20
-15.7334570493
 10
63.7671666378
 20
-15.706149645
  0
LINE
  5
575
100
AcDbEntity
  8
0
100
AcDbLine
 62
7
  6
CONTINUOUS
 10
56.6460233325
 20
-16.2013796174
 11
56.6244954191
 21
-16.3013796174
  0
LINE
  5
576
100
AcDbEntity
  8
0
100
AcDbLine
 62
7
  6
CONTINUOUS
 10
56.6460233325
 20
28.5986203826
 11
56.6244954191
 21
28.6986203826
  0
LWPOLYLINE
  5
577
100
AcDbEntity
  8
0
100
AcDbPolyline
 62
250
  6
CONTINUOUS
 90
3
 70
0
 10
64.2658103075
 20
-15.2053870816
 10
64.2646498211
 20
-15.1572274106
 10
64.2641263691
 20
-15.1293550568
  0
LINE
  5
578
100
AcDbEntity
  8
0
100
AcDbLine
 62
250
  6
CONTINUOUS
 10
63.7671666378
 20
-15.706149645
 11
63.7658848862
 21
-15.6330255812
  0
LINE
  5
579
100
AcDbEntity
  8
0
100
AcDbLine
 62
250
  6
CONTINUOUS
 10
63.7658848862
 20
-15.6330255812
 11
63.7642030003
 21
-15.4811075253
  0
LINE
  5
57A
100
AcDbEntity
  8
0
100
AcDbLine
 62
250
  6
CONTINUOUS
 10
63.7642030003
 20
-15.4811075253
 11
63.7622696274
 21
-15.1394079484
  0
LINE
  5
57B
100
AcDbEntity
  8
0
100
AcDbLine
 62
250
  6
CONTINUOUS
 10
63.7622696274
 20
-15.1394079484
 11
63.7563580394
 21
-5.4806000324
  0
LINE
  5
57C
100
AcDbEntity
  8
0
100
AcDbLine
 62
250
  6
CONTINUOUS
 10
63.7563580394
 20
-5.4806000324
 11
63.7540745771
 21
3.862572387
  0
LINE
  5
57D
100
AcDbEntity
  8
0
100
AcDbLine
 62
250
  6
CONTINUOUS
 10
63.7540745771
 20
3.862572387
 11
63.7548357312
 21
13.2065604712
  0
LINE
  5
57E
100
AcDbEntity
  8
0
100
AcDbLine
 62
250
  6
CONTINUOUS
 10
63.7548357312
 20
13.2065604712
 11
63.7586415016
 21
22.5481014372
  0
LINE
  5
57F
100
AcDbEntity
  8
0
100
AcDbLine
 62
250
  6
CONTINUOUS
 10
63.7586415016
 20
22.5481014372
 11
63.7628947473
 21
27.6840559634
  0
LINE
  5
580
100
AcDbEntity
  8
0
100
AcDbLine
 62
250
  6
CONTINUOUS
 10
63.7628947473
 20
27.6840559634
 11
63.7647258389
 21
27.9342035177
  0
LINE
  5
581
100
AcDbEntity
  8
0
100
AcDbLine
 62
250
  6
CONTINUOUS
 10
63.7647258389
 20
27.9342035177
 11
63.7658848862
 21
28.0302663464
  0
LWPOLYLINE
  5
582
100
AcDbEntity
  8
0
100
AcDbPolyline
 62
250
  6
CONTINUOUS
 90
6
 70
0
 10
63.7658848862
 20
28.0302663464
 10
63.7671666378
 20
28.1033904102
 10
63.7678398376
 20
28.1306978145
 10
63.7685257954
 20
28.1515744982
 10
63.7692289069
 20
28.165882792
 10
63.7699491721
 20
28.1735275198
  0
LWPOLYLINE
  5
583
100
AcDbEntity
  8
0
100
AcDbPolyline
 62
250
  6
CONTINUOUS
 90
9
 70
0
 10
64.2641263691
 20
27.526595822
 10
64.2652148749
 20
27.5799810066
 10
64.2658103075
 20
27.6026278466
 10
64.2664370224
 20
27.6223545912
 10
64.2670941162
 20
27.639215345
 10
64.2677676561
 20
27.6528659535
 10
64.2684529978
 20
27.6631916985
 10
64.2691547857
 20
27.6703072981
 10
64.2698730197
 20
27.6742127524
  0
LINE
  5
584
100
AcDbEntity
  8
0
100
AcDbLine
 62
250
  6
CONTINUOUS
 10
64.2641263691
 20
-15.1293550568
 11
64.2632059179
 21
-15.0664356682
  0
LINE
  5
585
100
AcDbEntity
  8
0
100
AcDbLine
 62
250
  6
CONTINUOUS
 10
64.2632059179
 20
-15.0664356682
 11
64.2621917035
 21
-14.9581596943
  0
LINE
  5
586
100
AcDbEntity
  8
0
100
AcDbLine
 62
250
  6
CONTINUOUS
 10
64.2621917035
 20
-14.9581596943
 11
64.2616706135
 21
-14.8398320472
  0
LINE
  5
587
100
AcDbEntity
  8
0
100
AcDbLine
 62
250
  6
CONTINUOUS
 10
64.2616706135
 20
-14.8398320472
 11
64.2562818901
 21
-5.4683952175
  0
LINE
  5
588
100
AcDbEntity
  8
0
100
AcDbLine
 62
250
  6
CONTINUOUS
 10
64.2562818901
 20
-5.4683952175
 11
64.2539984298
 21
3.8647666642
  0
LINE
  5
589
100
AcDbEntity
  8
0
100
AcDbLine
 62
7
  6
CONTINUOUS
 10
64.4111510554
 20
28.0983915305
 11
64.4111510554
 21
-15.7011507653
  0
LINE
  5
58A
100
AcDbEntity
  8
0
100
AcDbLine
 62
250
  6
CONTINUOUS
 10
64.2539984298
 20
3.8647666642
 11
64.2547595842
 21
13.1995746773
  0
LINE
  5
58B
100
AcDbEntity
  8
0
100
AcDbLine
 62
250
  6
CONTINUOUS
 10
64.2547595842
 20
13.1995746773
 11
64.2585653517
 21
22.5310870871
  0
LINE
  5
58C
100
AcDbEntity
  8
0
100
AcDbLine
 62
250
  6
CONTINUOUS
 10
64.2585653517
 20
22.5310870871
 11
64.2619605082
 21
27.3166803812
  0
LINE
  5
58D
100
AcDbEntity
  8
0
100
AcDbLine
 62
250
  6
CONTINUOUS
 10
64.2619605082
 20
27.3166803812
 11
64.2628168469
 21
27.4293280912
  0
LWPOLYLINE
  5
58E
100
AcDbEntity
  8
0
100
AcDbPolyline
 62
250
  6
CONTINUOUS
 90
3
 70
0
 10
64.2628168469
 20
27.4293280912
 10
64.2636453426
 20
27.4963158892
 10
64.2641263691
 20
27.526595822
  0
LINE
  5
58F
100
AcDbEntity
  8
0
100
AcDbLine
 62
7
  6
CONTINUOUS
 10
56.5611510554
 20
-16.2013796174
 11
56.4945182578
 21
-16.3013796174
  0
LINE
  5
590
100
AcDbEntity
  8
0
100
AcDbLine
 62
7
  6
CONTINUOUS
 10
56.4945182578
 20
28.6986203826
 11
56.5611510554
 21
28.5986203826
  0
LWPOLYLINE
  5
591
100
AcDbEntity
  8
0
100
AcDbPolyline
 62
7
  6
CONTINUOUS
 90
10
 70
0
 43
0.3500000006
 10
54.3325779877
 20
38.948620285
 10
54.4040091705
 20
38.8057624512
 10
54.4040091705
 20
38.7343358002
 10
54.2611513367
 20
38.5914779663
 10
54.1897246857
 20
38.5914779663
 10
54.1182935028
 20
38.6629046173
 10
54.1182935028
 20
38.7343358002
 10
54.1897246857
 20
38.877193634
 10
54.2611513367
 20
38.948620285
 10
54.3325779877
 20
38.948620285
  0
LWPOLYLINE
  5
592
100
AcDbEntity
  8
0
100
AcDbPolyline
 62
7
  6
CONTINUOUS
 90
3
 70
0
 43
0.3500000006
 10
71.0182941284
 20
5.3414768829
 10
71.0182941284
 20
3.8414764252
 10
68.6611511993
 20
4.4843344116
  0
LINE
  5
593
100
AcDbEntity
  8
0
100
AcDbLine
 62
250
  6
CONTINUOUS
 10
42.7606159929
 20
27.2169346135
 11
63.7616861179
 21
27.2169346135
  0
LINE
  5
594
100
AcDbEntity
  8
0
100
AcDbLine
 62
250
  6
CONTINUOUS
 10
42.7523529387
 20
28.1735275198
 11
63.7699491721
 21
28.1735275198
  0
LINE
  5
595
100
AcDbEntity
  8
0
100
AcDbLine
 62
7
  6
CONTINUOUS
 10
42.6107704557
 20
28.5986203826
 11
49.9611510554
 21
28.5986203826
  0
LINE
  5
596
100
AcDbEntity
  8
0
100
AcDbLine
 62
7
  6
CONTINUOUS
 10
56.5611510554
 20
28.5986203826
 11
63.9115316551
 21
28.5986203826
  0
LINE
  5
597
100
AcDbEntity
  8
0
100
AcDbLine
 62
7
  6
CONTINUOUS
 10
56.7309713151
 20
28.6986203826
 11
49.7913307957
 21
28.6986203826
  0
LWPOLYLINE
  5
598
100
AcDbEntity
  8
0
100
AcDbPolyline
 62
250
  6
CONTINUOUS
 90
16
 70
0
 10
63.761686118
 20
27.2169336864
 10
63.8133714327
 20
27.2167831957
 10
63.8645029834
 20
27.2164091282
 10
63.9145329369
 20
27.2158154918
 10
63.9629252626
 20
27.2150086468
 10
64.009161476
 20
27.2139972379
 10
64.0527461935
 20
27.2127921018
 10
64.0932124401
 20
27.2114061504
 10
64.1301266526
 20
27.2098542333
 10
64.1630933252
 20
27.2081529778
 10
64.1917592467
 20
27.2063206116
 10
64.215817285
 20
27.2043767671
 10
64.2350096775
 20
27.2023422709
 10
64.2491307933
 20
27.2002389211
 10
64.2580293362
 20
27.1980892532
 10
64.2616099654
 20
27.1959162993
  0
LWPOLYLINE
  5
599
100
AcDbEntity
  8
0
100
AcDbPolyline
 62
250
  6
CONTINUOUS
 90
16
 70
0
 10
63.7699491721
 20
28.1735275198
 10
63.8221751905
 20
28.1707477539
 10
63.8738296744
 20
28.1625341657
 10
63.9243473437
 20
28.1489766405
 10
63.9731753593
 20
28.1302235447
 10
64.0197793725
 20
28.1064801027
 10
64.0636493732
 20
28.0780061502
 10
64.1043052708
 20
28.0451132916
 10
64.141302148
 20
28.0081614893
 10
64.1742351304
 20
27.9675551247
 10
64.2027438162
 20
27.9237385729
 10
64.2265162212
 20
27.8771913395
 10
64.2452921926
 20
27.8284228134
 10
64.2588662557
 20
27.7779666921
 10
64.267089863
 20
27.7263751414
 10
64.2698730197
 20
27.6742127524
  0
LWPOLYLINE
  5
59A
100
AcDbEntity
  8
0
100
AcDbPolyline
 62
7
  6
CONTINUOUS
 90
10
 70
0
 10
57.4886934924
 20
29.5319801953
 10
57.433353786
 20
29.5661808138
 10
57.3761994639
 20
29.5965513229
 10
57.3172305262
 20
29.6230917227
 10
57.2560507227
 20
29.6459235481
 10
57.1930563037
 20
29.6649252642
 10
57.1294360188
 20
29.6797322661
 10
57.0655861181
 20
29.6902230191
 10
57.0011103516
 20
29.6965190579
 10
56.9360087194
 20
29.6986203826
  0
LWPOLYLINE
  5
59B
100
AcDbEntity
  8
0
100
AcDbPolyline
 62
7
  6
CONTINUOUS
 90
10
 70
0
 10
49.5862933914
 20
29.6986203826
 10
49.5211917592
 20
29.6965190579
 10
49.4567159927
 20
29.6902230191
 10
49.392866092
 20
29.6797322661
 10
49.3292458072
 20
29.6649252642
 10
49.2662513881
 20
29.6459235481
 10
49.2050715847
 20
29.6230917227
 10
49.1461026469
 20
29.5965513229
 10
49.0889483248
 20
29.5661808138
 10
49.0336086184
 20
29.5319801953
  0
LINE
  5
59C
100
AcDbEntity
  8
0
100
AcDbLine
 62
7
  6
CONTINUOUS
 10
56.9360087194
 20
29.6986203826
 11
49.5862933914
 21
29.6986203826
  0
LWPOLYLINE
  5
59D
100
AcDbEntity
  8
0
100
AcDbPolyline
 62
7
  6
CONTINUOUS
 90
7
 70
0
 43
0.3500000006
 10
52.8325775299
 20
38.4486201324
 10
51.332581604
 20
38.4486201324
 10
52.8325775299
 20
40.5914785767
 10
52.8325775299
 20
41.0200475464
 10
52.4040085602
 20
41.448621048
 10
51.7611505737
 20
41.448621048
 10
51.332581604
 20
40.8057630615
  0
LWPOLYLINE
  5
59E
100
AcDbEntity
  8
0
100
AcDbPolyline
 62
7
  6
CONTINUOUS
 90
7
 70
0
 43
0.3500000006
 10
50.4754346008
 20
38.4486201324
 10
48.9754386749
 20
38.4486201324
 10
50.4754346008
 20
40.5914785767
 10
50.4754346008
 20
41.0200475464
 10
50.0468656311
 20
41.448621048
 10
49.4040076447
 20
41.448621048
 10
48.9754386749
 20
40.8057630615
  0
LWPOLYLINE
  5
59F
100
AcDbEntity
  8
0
100
AcDbPolyline
 62
7
  6
CONTINUOUS
 90
6
 70
0
 43
0.3500000006
 10
55.4040094757
 20
38.4486201324
 10
56.4754364319
 20
38.4486201324
 10
56.6897209167
 20
38.6629046173
 10
56.6897209167
 20
39.7343361053
 10
56.261151947
 20
40.1629050751
 10
55.8325784454
 20
40.1629050751
  0
ARC
  5
5A0
100
AcDbEntity
  8
0
100
AcDbCircle
 62
7
  6
CONTINUOUS
 10
16.8177377476
 20
3.3986203826
 40
1.75
100
AcDbArc
 50
0.0
 51
37.6855336254
  0
ARC
  5
5A1
100
AcDbEntity
  8
ASSI
100
AcDbCircle
 62
7
  6
CONTINUOUS
 10
16.8177377476
 20
3.3986203826
 40
1.75
100
AcDbArc
 50
277.7793779301
 51
360.0
  0
ARC
  5
5A2
100
AcDbEntity
  8
ASSI
100
AcDbCircle
 62
7
  6
CONTINUOUS
 10
16.8177377476
 20
3.3986203826
 40
1.75
100
AcDbArc
 50
180.0
 51
260.2572202723
  0
ARC
  5
5A3
100
AcDbEntity
  8
0
100
AcDbCircle
 62
7
  6
CONTINUOUS
 10
16.8177377476
 20
3.3986203826
 40
1.75
100
AcDbArc
 50
142.3144663746
 51
180.0
  0
ARC
  5
5A4
100
AcDbEntity
  8
0
100
AcDbCircle
 62
7
  6
CONTINUOUS
 10
21.8177377476
 20
3.3986203826
 40
1.75
100
AcDbArc
 50
0.0
 51
37.6855336254
  0
ARC
  5
5A5
100
AcDbEntity
  8
ASSI
100
AcDbCircle
 62
7
  6
CONTINUOUS
 10
21.8177377476
 20
3.3986203826
 40
1.75
100
AcDbArc
 50
180.0
 51
360.0
  0
ARC
  5
5A6
100
AcDbEntity
  8
0
100
AcDbCircle
 62
7
  6
CONTINUOUS
 10
21.8177377476
 20
3.3986203826
 40
1.75
100
AcDbArc
 50
142.3144663746
 51
180.0
  0
ARC
  5
5A7
100
AcDbEntity
  8
SMUSSO
100
AcDbCircle
 62
7
  6
CONTINUOUS
 10
5.9060015765
 20
3.2486203826
 40
1.3882638288
100
AcDbArc
 50
91.0
 51
269.0
  0
ARC
  5
5A8
100
AcDbEntity
  8
0
100
AcDbCircle
 62
7
  6
CONTINUOUS
 10
-15.041181316
 20
-14.7776572199
 40
1.0
100
AcDbArc
 50
182.4092313014
 51
267.0
  0
ARC
  5
5A9
100
AcDbEntity
  8
RACCORDO
100
AcDbCircle
 62
7
  6
CONTINUOUS
 10
2.7916954972
 20
-14.3173713615
 40
0.7
100
AcDbArc
 50
91.0
 51
135.0
  0
ARC
  5
5AA
100
AcDbEntity
  8
RACCORDO
100
AcDbCircle
 62
7
  6
CONTINUOUS
 10
0.9798663424
 20
-14.4321442415
 40
0.5
100
AcDbArc
 50
271.0
 51
315.0
  0
ARC
  5
5AB
100
AcDbEntity
  8
RACCORDO
100
AcDbCircle
 62
7
  6
CONTINUOUS
 10
26.1177377476
 20
-12.7100309859
 40
0.5
100
AcDbArc
 50
271.0
 51
360.0
  0
ARC
  5
5AC
100
AcDbEntity
  8
RACCORDO
100
AcDbCircle
 62
7
  6
CONTINUOUS
 10
-2.7822622524
 20
-15.19791907
 40
0.2
100
AcDbArc
 50
91.0
 51
180.0
  0
ARC
  5
5AD
100
AcDbEntity
  8
0
100
AcDbCircle
 62
7
  6
CONTINUOUS
 10
-15.041181316
 20
27.174897985
 40
1.0
100
AcDbArc
 50
93.0
 51
177.5907686986
  0
ARC
  5
5AE
100
AcDbEntity
  8
RACCORDO
100
AcDbCircle
 62
7
  6
CONTINUOUS
 10
2.7916954972
 20
26.7146121267
 40
0.7
100
AcDbArc
 50
225.0
 51
269.0
  0
ARC
  5
5AF
100
AcDbEntity
  8
RACCORDO
100
AcDbCircle
 62
7
  6
CONTINUOUS
 10
0.9798663424
 20
26.8293850067
 40
0.5
100
AcDbArc
 50
45.0
 51
89.0
  0
ARC
  5
5B0
100
AcDbEntity
  8
RACCORDO
100
AcDbCircle
 62
7
  6
CONTINUOUS
 10
3.5177377476
 20
25.5017562184
 40
0.5
100
AcDbArc
 50
0.0
 51
89.0
  0
ARC
  5
5B1
100
AcDbEntity
  8
RACCORDO
100
AcDbCircle
 62
7
  6
CONTINUOUS
 10
4.5177377476
 20
12.7844534815
 40
0.5
100
AcDbArc
 50
180.0
 51
269.0
  0
ARC
  5
5B2
100
AcDbEntity
  8
RACCORDO
100
AcDbCircle
 62
7
  6
CONTINUOUS
 10
26.1177377476
 20
11.407271751
 40
0.5
100
AcDbArc
 50
0.0
 51
89.0
  0
ARC
  5
5B3
100
AcDbEntity
  8
RACCORDO
100
AcDbCircle
 62
7
  6
CONTINUOUS
 10
-2.7822622524
 20
27.5951598352
 40
0.2
100
AcDbArc
 50
180.0
 51
269.0
  0
ARC
  5
5B4
100
AcDbEntity
  8
0
100
AcDbCircle
 62
7
  6
CONTINUOUS
 10
483.5177377476
 20
6.1986203826
 40
500.0
100
AcDbArc
 50
177.5907686986
 51
182.4092313014
  0
ARC
  5
5B5
100
AcDbEntity
  8
RACCORDO
100
AcDbCircle
 62
7
  6
CONTINUOUS
 10
483.5177377476
 20
6.1986203826
 40
500.0
100
AcDbArc
 50
180.6194258987
 51
180.7570833818
  0
ARC
  5
5B6
100
AcDbEntity
  8
RACCORDO
100
AcDbCircle
 62
7
  6
CONTINUOUS
 10
483.5177377476
 20
6.1986203826
 40
500.0
100
AcDbArc
 50
179.403516646
 51
179.7347678381
  0
ARC
  5
5B7
100
AcDbEntity
  8
0
100
AcDbCircle
 62
7
  6
CONTINUOUS
 10
64.5111510554
 20
6.1986203826
 40
28.0
100
AcDbArc
 50
125.9627651514
 51
126.8614238325
  0
ARC
  5
5B8
100
AcDbEntity
  8
0
100
AcDbCircle
 62
7
  6
CONTINUOUS
 10
64.5111510554
 20
6.1986203826
 40
28.0
100
AcDbArc
 50
123.557211741
 51
124.1210936517
  0
ARC
  5
5B9
100
AcDbEntity
  8
0
100
AcDbCircle
 62
7
  6
CONTINUOUS
 10
42.0111510554
 20
6.1986203826
 40
28.0
100
AcDbArc
 50
55.8789063483
 51
56.442788259
  0
ARC
  5
5BA
100
AcDbEntity
  8
0
100
AcDbCircle
 62
7
  6
CONTINUOUS
 10
42.0111510554
 20
6.1986203826
 40
28.0
100
AcDbArc
 50
53.1385761675
 51
54.0372348486
  0
ARC
  5
5BB
100
AcDbEntity
  8
0
100
AcDbCircle
 62
7
  6
CONTINUOUS
 10
42.0111510554
 20
6.1986203826
 40
28.0
100
AcDbArc
 50
305.9627651514
 51
306.8614238325
  0
ARC
  5
5BC
100
AcDbEntity
  8
0
100
AcDbCircle
 62
7
  6
CONTINUOUS
 10
42.0111510554
 20
6.1986203826
 40
28.0
100
AcDbArc
 50
303.5572119323
 51
304.1210936517
  0
ARC
  5
5BD
100
AcDbEntity
  8
0
100
AcDbCircle
 62
7
  6
CONTINUOUS
 10
64.5111510554
 20
6.1986203826
 40
28.0
100
AcDbArc
 50
235.8789063483
 51
236.4427880677
  0
ARC
  5
5BE
100
AcDbEntity
  8
0
100
AcDbCircle
 62
7
  6
CONTINUOUS
 10
64.5111510554
 20
6.1986203826
 40
28.0
100
AcDbArc
 50
233.1385761675
 51
234.0372348486
  0
ARC
  5
5BF
100
AcDbEntity
  8
0
100
AcDbCircle
 62
7
  6
CONTINUOUS
 10
48.3111510554
 20
29.2986203826
 40
0.5
100
AcDbArc
 50
240.887577224
 51
9.196281579
  0
ARC
  5
5C0
100
AcDbEntity
  8
0
100
AcDbCircle
 62
7
  6
CONTINUOUS
 10
58.2111510554
 20
29.2986203826
 40
0.5
100
AcDbArc
 50
170.803718421
 51
299.112422776
  0
ARC
  5
5C1
100
AcDbEntity
  8
0
100
AcDbCircle
 62
7
  6
CONTINUOUS
 10
58.2111510554
 20
-16.9013796174
 40
0.5
100
AcDbArc
 50
60.887577224
 51
189.196281579
  0
ARC
  5
5C2
100
AcDbEntity
  8
0
100
AcDbCircle
 62
7
  6
CONTINUOUS
 10
48.3111510554
 20
-16.9013796174
 40
0.5
100
AcDbArc
 50
350.803718421
 51
119.112422776
  0
ELLIPSE
  5
5C3
100
AcDbEntity
  8
RACCORDO
100
AcDbEllipse
 62
7
  6
CONTINUOUS
 10
26.1177377476
 20
1.5071955986
 30
0.0
 11
-0.3581510876
 21
0.3612900226
 31
0.0
 40
0.9656926268
 41
-3.9226278261
 42
-2.3692847918
  0
ELLIPSE
  5
5C4
100
AcDbEntity
  8
RACCORDO
100
AcDbEllipse
 62
7
  6
CONTINUOUS
 10
26.1177377476
 20
4.9900451666
 30
0.0
 11
0.3581510876
 21
0.3612900226
 31
0.0
 40
0.9656926268
 41
5.5108774454
 42
7.0642204797
  0
ELLIPSE
  5
5C5
100
AcDbEntity
  8
0
100
AcDbEllipse
 62
250
  6
CONTINUOUS
 10
0.417749744
 20
13.5140303826
 30
0.0
 11
-0.0
 21
1.7850001745
 31
0.0
 40
0.9996954135
 41
1.427448772
 42
2.9256321216
  0
ELLIPSE
  5
5C6
100
AcDbEntity
  8
0
100
AcDbEllipse
 62
250
  6
CONTINUOUS
 10
0.417749744
 20
13.5140303826
 30
0.0
 11
0.0
 21
1.7849997292
 31
0.0
 40
0.9996954135
 41
-2.9256321216
 42
-1.427448772
  0
ELLIPSE
  5
5C7
100
AcDbEntity
  8
0
100
AcDbEllipse
 62
250
  6
CONTINUOUS
 10
0.0671097476
 20
4.0633203826
 30
0.0
 11
0.0
 21
0.14051
 31
0.0
 40
1.0
 41
0.0
 42
6.2831853072
  0
ELLIPSE
  5
5C8
100
AcDbEntity
  8
0
100
AcDbEllipse
 62
250
  6
CONTINUOUS
 10
0.0671097476
 20
4.0633203826
 30
0.0
 11
0.317592
 21
-0.0
 31
0.0
 40
1.0
 41
0.0
 42
6.2831853072
  0
ELLIPSE
  5
5C9
100
AcDbEntity
  8
0
100
AcDbEllipse
 62
250
  6
CONTINUOUS
 10
-3.2784442524
 20
4.4885333826
 30
0.0
 11
0.0
 21
0.192582
 31
0.0
 40
1.0
 41
0.0
 42
6.2831853072
  0
ELLIPSE
  5
5CA
100
AcDbEntity
  8
0
100
AcDbEllipse
 62
250
  6
CONTINUOUS
 10
0.417749744
 20
13.5140303826
 30
0.0
 11
0.0
 21
2.5500000352
 31
0.0
 40
0.9996954135
 41
1.470628907
 42
4.8125564002
  0
ELLIPSE
  5
5CB
100
AcDbEntity
  8
0
100
AcDbEllipse
 62
250
  6
CONTINUOUS
 10
0.417749744
 20
9.1790303826
 30
0.0
 11
0.0
 21
2.5500000352
 31
0.0
 40
0.9996954135
 41
1.470628907
 42
4.8125564002
  0
ELLIPSE
  5
5CC
100
AcDbEntity
  8
0
100
AcDbEllipse
 62
250
  6
CONTINUOUS
 10
0.417749744
 20
9.1790303826
 30
0.0
 11
0.0
 21
1.7850001745
 31
0.0
 40
0.9996954135
 41
1.427448772
 42
4.8557365352
  0
ELLIPSE
  5
5CD
100
AcDbEntity
  8
0
100
AcDbEllipse
 62
7
  6
CONTINUOUS
 10
63.9110748914
 20
-15.7006934444
 30
0.0
 11
-0.1582391023
 21
0.4751033573
 31
0.0
 40
0.9984778551
 41
-3.4626430041
 42
-1.8927600658
  0
ELLIPSE
  5
5CE
100
AcDbEntity
  8
0
100
AcDbEllipse
 62
7
  6
CONTINUOUS
 10
63.9110748914
 20
28.0979342096
 30
0.0
 11
0.1582391023
 21
0.4751033573
 31
0.0
 40
0.9984778551
 41
-1.2488325878
 42
0.3210503505
  0
ELLIPSE
  5
5CF
100
AcDbEntity
  8
0
100
AcDbEllipse
 62
7
  6
CONTINUOUS
 10
42.6112272194
 20
-15.7006934444
 30
0.0
 11
0.1582391023
 21
0.4751033573
 31
0.0
 40
0.9984778551
 41
-4.3904252414
 42
-2.8205423031
  0
ELLIPSE
  5
5D0
100
AcDbEntity
  8
0
100
AcDbEllipse
 62
7
  6
CONTINUOUS
 10
42.6112272194
 20
28.0979342096
 30
0.0
 11
-0.1582391023
 21
0.4751033573
 31
0.0
 40
0.9984778551
 41
-0.3210503505
 42
1.2488325878
  0
ENDSEC
  0
SECTION
  2
OBJECTS
  0
DICTIONARY
  5
C
100
AcDbDictionary
280
0
281
1
  3
ACAD_GROUP
350
D
  3
ACAD_MLINESTYLE
350
17
  3
ACAD_LAYOUT
350
1A
  3
ACAD_PLOTSETTINGS
350
19
  3
ACAD_PLOTSTYLENAME
350
E
  0
DICTIONARY
  5
D
102
{ACAD_REACTORS
330
C
102
}
100
AcDbDictionary
280
0
281
1
  0
ACDBDICTIONARYWDFLT
  5
E
102
{ACAD_REACTORS
330
C
102
}
100
AcDbDictionary
281
1
  3
Normal
350
F
100
AcDbDictionaryWithDefault
340
F
  0
DICTIONARY
  5
17
102
{ACAD_REACTORS
330
C
102
}
100
AcDbDictionary
280
0
281
1
  3
Standard
350
18
  0
DICTIONARY
  5
19
102
{ACAD_REACTORS
330
C
102
}
100
AcDbDictionary
281
1
  0
DICTIONARY
  5
1A
102
{ACAD_REACTORS
330
C
102
}
100
AcDbDictionary
281
1
  3
Model
350
5D1
  3
Layout1
350
5D2
  0
ACDBPLACEHOLDER
  5
F
102
{ACAD_REACTORS
330
E
102
}
  0
MLINESTYLE
  5
18
102
{ACAD_REACTORS
330
17
102
}
100
AcDbMlineStyle
  2
STANDARD
 70
0
  3

 62
256
 51
90.0
 52
90.0
 71
2
 49
0.5
 62
256
  6
BYLAYER
 49
-0.5
 62
256
  6
BYLAYER
  0
LAYOUT
  5
5D1
102
{ACAD_REACTORS
330
1A
102
}
100
AcDbPlotSettings
  1

  2
none_device
  4
ISO_A4_(297.00_x_210.00_MM)
  6

 40
0.0
 41
0.0
 42
0.0
 43
0.0
 44
297.0
 45
210.0
 46
0.0
 47
0.0
 48
0.0
 49
0.0
140
0.0
141
0.0
142
1.0
143
1.0
 70
1024
 72
1
 73
0
 74
0
  7

 75
0
147
1.0
148
0.0
149
0.0
100
AcDbLayout
  1
Model
 70
0
 71
0
 10
0.0
 20
0.0
 11
297.0
 21
210.0
 12
0.0
 22
0.0
 32
0.0
 14
0.0
 24
0.0
 34
0.0
 15
0.0
 25
0.0
 35
0.0
146
0.0
 13
0.0
 23
0.0
 33
0.0
 16
1.0
 26
0.0
 36
0.0
 17
0.0
 27
1.0
 37
0.0
 76
0
330
212
345
0
346
0
  0
LAYOUT
  5
5D2
102
{ACAD_REACTORS
330
1A
102
}
100
AcDbPlotSettings
  1

  2
none_device
  4
ISO_A4_(297.00_x_210.00_MM)
  6

 40
0.0
 41
0.0
 42
0.0
 43
0.0
 44
297.0
 45
210.0
 46
0.0
 47
0.0
 48
0.0
 49
0.0
140
0.0
141
0.0
142
1.0
143
1.0
 70
0
 72
1
 73
0
 74
0
  7

 75
0
147
1.0
148
0.0
149
0.0
100
AcDbLayout
  1
Layout1
 70
0
 71
1
 10
0.0
 20
0.0
 11
297.0
 21
210.0
 12
0.0
 22
0.0
 32
0.0
 14
0.0
 24
0.0
 34
0.0
 15
0.0
 25
0.0
 35
0.0
146
0.0
 13
0.0
 23
0.0
 33
0.0
 16
1.0
 26
0.0
 36
0.0
 17
0.0
 27
1.0
 37
0.0
 76
0
330
213
345
0
346
0
  0
ENDSEC
  0
EOF
