  0
SECTION
  2
HEADER
  9
$ACADVER
  1
AC1015
  9
$DWGCODEPAGE
  3
ANSI_1252
  9
$EXTMAX
 10
297.0
 20
210.0
 30
0.0
  9
$EXTMIN
 10
0.0
 20
0.0
 30
0.0
  9
$LIMMIN
 10
0.0
 20
0.0
  9
$LIMMAX
 10
297.0
 20
210.0
  9
$VIEWCTR
 10
148.5
 20
105.0
  9
$VIEWSIZE
 40
210.0
  9
$CLAYER
  8
0
  9
$LTSCALE
 40
16.335
  9
$CELTYPE
  6
BYLAYER
  9
$DIMSCALE
 40
1.0
  9
$DIMASZ
 40
3.0
  9
$DIMEXO
 40
1.85625
  9
$DIMDLI
 40
11.286
  9
$DIMEXE
 40
5.346
  9
$DIMCEN
 40
2.673
  9
$DIMLFAC
 40
1.0
  9
$DIMBLK
  1
_FILLED
  9
$DIMTXT
 40
3.0
  9
$DIMTOL
 70
1
  9
$DIMLIM
 70
0
  9
$DIMTFAC
 40
1.0
  9
$DIMTP
 40
0.01
  9
$DIMTM
 40
0.01
  9
$PDMODE
 70
3
  9
$PDSIZE
 40
3.0
  9
$HANDSEED
  5
65B
  9
$TILEMODE
 70
1
  9
$MEASUREMENT
 70
1
  9
$INSUNITS
 70
4
  0
ENDSEC
  0
SECTION
  2
CLASSES
  0
CLASS
  1
ACDBDICTIONARYWDFLT
  2
AcDbDictionaryWithDefault
  3
AutoCAD 2000
 90
0
280
0
281
0
  0
CLASS
  1
ACDBPLACEHOLDER
  2
AcDbPlaceHolder
  3
AutoCAD 2000
 90
0
280
0
281
0
  0
CLASS
  1
LAYOUT
  2
AcDbLayout
  3
AutoCAD 2000
 90
0
280
0
281
0
  0
ENDSEC
  0
SECTION
  2
TABLES
  0
TABLE
  2
VPORT
  5
8
100
AcDbSymbolTable
 70
2
  0
VPORT
  5
1F4
100
AcDbSymbolTableRecord
100
AcDbViewportTableRecord
  2
*ACTIVE
 70
0
 10
0.0
 20
0.0
 11
1.0
 21
1.0
 12
148.5
 22
105.0
 13
0.0
 23
0.0
 14
1.0
 24
1.0
 15
0.0
 25
0.0
 16
0.0
 26
0.0
 36
1.0
 17
0.0
 27
0.0
 37
0.0
 40
210.0
 41
1.4142857143
 42
50.0
 43
0.0
 44
0.0
 50
0.0
 51
0.0
 71
0
 72
100
 73
1
 74
1
 75
0
 76
0
 77
0
 78
0
  0
ENDTAB
  0
TABLE
  2
LTYPE
  5
5
100
AcDbSymbolTable
 70
6
  0
LTYPE
  5
14
100
AcDbSymbolTableRecord
100
AcDbLinetypeTableRecord
  2
BYBLOCK
 70
0
  3

 72
65
 73
0
 40
0.0
  0
LTYPE
  5
15
100
AcDbSymbolTableRecord
100
AcDbLinetypeTableRecord
  2
BYLAYER
 70
0
  3

 72
65
 73
0
 40
0.0
  0
LTYPE
  5
16
100
AcDbSymbolTableRecord
100
AcDbLinetypeTableRecord
  2
CONTINUOUS
 70
64
  3
Solid line
 72
65
 73
0
 40
0.0
  0
LTYPE
  5
1F5
100
AcDbSymbolTableRecord
100
AcDbLinetypeTableRecord
  2
CENTER
 70
64
  3
____ _ ____ _ ____ _ ____ _ ____ _ ____ _ ____
 72
65
 73
4
 40
0.6
 49
0.375
 74
0
 49
-0.075
 74
0
 49
0.075
 74
0
 49
-0.075
 74
0
  0
LTYPE
  5
1F6
100
AcDbSymbolTableRecord
100
AcDbLinetypeTableRecord
  2
HIDDEN
 70
64
  3
- - - - - - - - - - - - - - - - - - - -
 72
65
 73
2
 40
0.2
 49
0.1
 74
0
 49
-0.1
 74
0
  0
LTYPE
  5
1F7
100
AcDbSymbolTableRecord
100
AcDbLinetypeTableRecord
  2
PHANTOM
 70
64
  3
_____ _ _ _____ _ _ _____ _ _ _____
 72
65
 73
6
 40
0.8
 49
0.45
 74
0
 49
-0.05
 74
0
 49
0.1
 74
0
 49
-0.05
 74
0
 49
0.1
 74
0
 49
-0.05
 74
0
  0
LTYPE
  5
1F8
100
AcDbSymbolTableRecord
100
AcDbLinetypeTableRecord
  2
DOT
 70
64
  3
. . . . . . . . . . . . . . . . . . . .
 72
65
 73
2
 40
0.2
 49
0.1
 74
0
 49
-0.1
 74
0
  0
LTYPE
  5
1F9
100
AcDbSymbolTableRecord
100
AcDbLinetypeTableRecord
  2
DASHED
 70
64
  3
- - - - - - - - - - - - - - - - - - - -
 72
65
 73
2
 40
0.2
 49
0.1
 74
0
 49
-0.1
 74
0
  0
ENDTAB
  0
TABLE
  2
LAYER
  5
2
100
AcDbSymbolTable
 70
36
  0
LAYER
  5
10
100
AcDbSymbolTableRecord
100
AcDbLayerTableRecord
  2
0
 70
0
 62
7
  6
CONTINUOUS
370
-3
390
F
  0
LAYER
  5
1FA
100
AcDbSymbolTableRecord
100
AcDbLayerTableRecord
  2
DEFAULT_1
 70
0
 62
7
  6
CENTER
370
-3
390
F
  0
LAYER
  5
1FB
100
AcDbSymbolTableRecord
100
AcDbLayerTableRecord
  2
DEFAULT_2
 70
0
 62
7
  6
HIDDEN
370
-3
390
F
  0
LAYER
  5
1FC
100
AcDbSymbolTableRecord
100
AcDbLayerTableRecord
  2
DEFAULT_3
 70
0
 62
7
  6
PHANTOM
370
-3
390
F
  0
LAYER
  5
1FD
100
AcDbSymbolTableRecord
100
AcDbLayerTableRecord
  2
ASSI
 70
0
 62
7
  6
CONTINUOUS
370
-3
390
F
  0
LAYER
  5
1FE
100
AcDbSymbolTableRecord
100
AcDbLayerTableRecord
  2
COLOR1
 70
0
 62
7
  6
CONTINUOUS
370
-3
390
F
  0
LAYER
  5
1FF
100
AcDbSymbolTableRecord
100
AcDbLayerTableRecord
  2
COORDINATE
 70
0
 62
7
  6
CONTINUOUS
370
-3
390
F
  0
LAYER
  5
200
100
AcDbSymbolTableRecord
100
AcDbLayerTableRecord
  2
COORD_ORIGINE
 70
0
 62
7
  6
CONTINUOUS
370
-3
390
F
  0
LAYER
  5
201
100
AcDbSymbolTableRecord
100
AcDbLayerTableRecord
  2
COPY_PUBLISH
 70
0
 62
7
  6
CONTINUOUS
370
-3
390
F
  0
LAYER
  5
202
100
AcDbSymbolTableRecord
100
AcDbLayerTableRecord
  2
COSMETIC
 70
0
 62
7
  6
CONTINUOUS
370
-3
390
F
  0
LAYER
  5
203
100
AcDbSymbolTableRecord
100
AcDbLayerTableRecord
  2
CURVE
 70
0
 62
7
  6
CONTINUOUS
370
-3
390
F
  0
LAYER
  5
204
100
AcDbSymbolTableRecord
100
AcDbLayerTableRecord
  2
DRAFT
 70
0
 62
7
  6
CONTINUOUS
370
-3
390
F
  0
LAYER
  5
205
100
AcDbSymbolTableRecord
100
AcDbLayerTableRecord
  2
IMPORT_FEATURES
 70
0
 62
7
  6
CONTINUOUS
370
-3
390
F
  0
LAYER
  5
206
100
AcDbSymbolTableRecord
100
AcDbLayerTableRecord
  2
IMPORT_IGES
 70
0
 62
7
  6
CONTINUOUS
370
-3
390
F
  0
LAYER
  5
207
100
AcDbSymbolTableRecord
100
AcDbLayerTableRecord
  2
INTFCLR_2
 70
0
 62
7
  6
CONTINUOUS
370
-3
390
F
  0
LAYER
  5
208
100
AcDbSymbolTableRecord
100
AcDbLayerTableRecord
  2
INTF_1
 70
0
 62
7
  6
CONTINUOUS
370
-3
390
F
  0
LAYER
  5
209
100
AcDbSymbolTableRecord
100
AcDbLayerTableRecord
  2
INTF_5
 70
0
 62
7
  6
CONTINUOUS
370
-3
390
F
  0
LAYER
  5
20A
100
AcDbSymbolTableRecord
100
AcDbLayerTableRecord
  2
INTF_CYAN
 70
0
 62
7
  6
CONTINUOUS
370
-3
390
F
  0
LAYER
  5
20B
100
AcDbSymbolTableRecord
100
AcDbLayerTableRecord
  2
INTF_YELLOW
 70
0
 62
7
  6
CONTINUOUS
370
-3
390
F
  0
LAYER
  5
20C
100
AcDbSymbolTableRecord
100
AcDbLayerTableRecord
  2
NOTE
 70
0
 62
7
  6
CONTINUOUS
370
-3
390
F
  0
LAYER
  5
20D
100
AcDbSymbolTableRecord
100
AcDbLayerTableRecord
  2
PIANI
 70
0
 62
7
  6
CONTINUOUS
370
-3
390
F
  0
LAYER
  5
20E
100
AcDbSymbolTableRecord
100
AcDbLayerTableRecord
  2
PIANI_ORIGINE
 70
0
 62
7
  6
CONTINUOUS
370
-3
390
F
  0
LAYER
  5
20F
100
AcDbSymbolTableRecord
100
AcDbLayerTableRecord
  2
PUNTI
 70
0
 62
7
  6
CONTINUOUS
370
-3
390
F
  0
LAYER
  5
210
100
AcDbSymbolTableRecord
100
AcDbLayerTableRecord
  2
RACCORDO
 70
0
 62
7
  6
CONTINUOUS
370
-3
390
F
  0
LAYER
  5
211
100
AcDbSymbolTableRecord
100
AcDbLayerTableRecord
  2
RGB____0____0____0__
 70
0
 62
7
  6
CONTINUOUS
370
-3
390
F
  0
LAYER
  5
212
100
AcDbSymbolTableRecord
100
AcDbLayerTableRecord
  2
SCRITTE
 70
0
 62
7
  6
CONTINUOUS
370
-3
390
F
  0
LAYER
  5
213
100
AcDbSymbolTableRecord
100
AcDbLayerTableRecord
  2
SMUSSO
 70
0
 62
7
  6
CONTINUOUS
370
-3
390
F
  0
LAYER
  5
214
100
AcDbSymbolTableRecord
100
AcDbLayerTableRecord
  2
SNAPLINE
 70
0
 62
7
  6
CONTINUOUS
370
-3
390
F
  0
LAYER
  5
215
100
AcDbSymbolTableRecord
100
AcDbLayerTableRecord
  2
SUPERFICI
 70
0
 62
7
  6
CONTINUOUS
370
-3
390
F
  0
LAYER
  5
216
100
AcDbSymbolTableRecord
100
AcDbLayerTableRecord
  2
TRASH
 70
0
 62
7
  6
CONTINUOUS
370
-3
390
F
  0
LAYER
  5
217
100
AcDbSymbolTableRecord
100
AcDbLayerTableRecord
  2
XSEC_DATUMS
 70
0
 62
7
  6
CONTINUOUS
370
-3
390
F
  0
ENDTAB
  0
TABLE
  2
STYLE
  5
3
100
AcDbSymbolTable
 70
1
  0
STYLE
  5
11
100
AcDbSymbolTableRecord
100
AcDbTextStyleTableRecord
  2
STANDARD
 70
0
 40
0.0
 41
0.8
 50
0.0
 71
0
 42
0.2
  3
txt
  4

  0
STYLE
  5
218
100
AcDbSymbolTableRecord
100
AcDbTextStyleTableRecord
  2
TEXTSTYLE_1
 70
0
 40
0.0
 41
0.8
 50
0.0
 71
0
 42
0.2
  3
gdt
  4

  0
ENDTAB
  0
TABLE
  2
VIEW
  5
6
100
AcDbSymbolTable
 70
0
  0
ENDTAB
  0
TABLE
  2
UCS
  5
7
100
AcDbSymbolTable
 70
0
  0
ENDTAB
  0
TABLE
  2
APPID
  5
9
100
AcDbSymbolTable
 70
1
  0
APPID
  5
219
100
AcDbSymbolTableRecord
100
AcDbRegAppTableRecord
  2
ACAD
 70
0
  0
ENDTAB
  0
TABLE
  2
BLOCK_RECORD
  5
1
100
AcDbSymbolTable
 70
0
  0
BLOCK_RECORD
  5
21A
100
AcDbSymbolTableRecord
100
AcDbBlockTableRecord
  2
*Model_Space
  0
BLOCK_RECORD
  5
21B
100
AcDbSymbolTableRecord
100
AcDbBlockTableRecord
  2
*Paper_Space
  0
BLOCK_RECORD
  5
21C
100
AcDbSymbolTableRecord
100
AcDbBlockTableRecord
  2
_FILLED
  0
BLOCK_RECORD
  5
21D
100
AcDbSymbolTableRecord
100
AcDbBlockTableRecord
  2
*D0
  0
BLOCK_RECORD
  5
21E
100
AcDbSymbolTableRecord
100
AcDbBlockTableRecord
  2
*D1
  0
BLOCK_RECORD
  5
21F
100
AcDbSymbolTableRecord
100
AcDbBlockTableRecord
  2
*D2
  0
BLOCK_RECORD
  5
220
100
AcDbSymbolTableRecord
100
AcDbBlockTableRecord
  2
*D3
  0
ENDTAB
  0
TABLE
  2
DIMSTYLE
  5
A
100
AcDbSymbolTable
 70
1
100
AcDbDimStyleTable
 71
0
  0
DIMSTYLE
105
221
100
AcDbSymbolTableRecord
100
AcDbDimStyleTableRecord
  2
STANDARD
 70
0
  3

  4

 40
1.0
 41
3.0
 42
0.0625
 43
0.38
 44
0.18
 45
0.0
 46
0.0
 47
0.01
 48
0.01
140
3.0
141
0.09
142
0.0
143
25.4
144
1.0
145
0.0
146
1.0
147
0.09
 71
1.0
 72
0.0
 73
0
 74
0
 75
0
 76
0
 77
1
 78
8
170
0
171
2
172
0
173
0
174
0
175
0
176
0
177
0
178
0
270
2
271
2
272
2
273
2
274
2
275
0
280
0
281
0
282
0
283
1
284
8
285
0
286
0
287
3
288
0
340
11
341
21C
342
21C
343
21C
344
21C
  0
DIMSTYLE
105
222
100
AcDbSymbolTableRecord
100
AcDbDimStyleTableRecord
  2
DIMSTYLE_1
 70
0
  3

  4

 40
1.0
 41
3.0
 42
0.0625
 43
0.38
 44
0.18
 45
0.0
 46
0.0
 47
0.0
 48
0.0
140
3.0
141
0.09
142
0.0
143
25.4
144
1.0
145
0.0
146
1.0
147
0.09
 71
0.0
 72
0.0
 73
0
 74
0
 75
0
 76
0
 77
1
 78
8
170
0
171
2
172
0
173
0
174
0
175
0
176
0
177
0
178
0
270
2
271
2
272
2
273
2
274
2
275
0
280
0
281
0
282
0
283
1
284
8
285
0
286
0
287
3
288
0
340
11
341
21C
342
21C
343
21C
344
21C
  0
ENDTAB
  0
ENDSEC
  0
SECTION
  2
BLOCKS
  0
BLOCK
  5
20
100
AcDbEntity
  8
0
100
AcDbBlockBegin
  2
*Model_Space
 70
0
 10
0.0
 20
0.0
 30
0.0
  3
*Model_Space
  1

  0
ENDBLK
  5
21
100
AcDbEntity
  8
0
100
AcDbBlockEnd
  0
BLOCK
  5
1C
100
AcDbEntity
  8
0
100
AcDbBlockBegin
  2
*Paper_Space
 70
0
 10
0.0
 20
0.0
 30
0.0
  3
*Paper_Space
  1

  0
ENDBLK
  5
1D
100
AcDbEntity
  8
0
100
AcDbBlockEnd
  0
BLOCK
  5
223
100
AcDbEntity
  8
0
100
AcDbBlockBegin
  2
_FILLED
 70
64
 10
0.0
 20
0.0
  3
_FILLED
  1

  0
SOLID
  5
224
100
AcDbEntity
  8
0
  6
BYBLOCK
 62
0
100
AcDbTrace
 10
0.0
 20
0.0
 11
-1.0
 21
0.3166666667
 12
-1.0
 22
-0.3166666667
 13
-1.0
 23
-0.3166666667
  0
ENDBLK
  5
225
100
AcDbEntity
  8
0
  6
BYBLOCK
 62
0
100
AcDbBlockEnd
  0
BLOCK
  5
226
100
AcDbEntity
  8
0
100
AcDbBlockBegin
 62
7
  6
CONTINUOUS
  2
*D0
 70
65
 10
0.0
 20
0.0
  3
*D0
  1

  0
MTEXT
  5
227
100
AcDbEntity
  8
0
100
AcDbMText
 62
7
  6
CONTINUOUS
  7
STANDARD
 71
2
 72
1
 10
0.2999286486
 20
41.3961542453
 30
0.0
 11
1.0
 21
0.0
 31
0.0
 44
0.9
  1
22,3
 40
3.0
 41
8.5714285714
  0
LINE
  5
228
100
AcDbEntity
  8
0
100
AcDbLine
 62
7
  6
CONTINUOUS
 10
-10.8500713514
 20
23.9459253933
 11
-10.8500713514
 21
39.1461542453
  0
LINE
  5
229
100
AcDbEntity
  8
0
100
AcDbLine
 62
7
  6
CONTINUOUS
 10
11.4499286486
 20
23.9459253933
 11
11.4499286486
 21
39.1461542453
  0
LINE
  5
22A
100
AcDbEntity
  8
0
100
AcDbLine
 62
7
  6
CONTINUOUS
 10
-10.8500713514
 20
37.6461542453
 11
0.2999286486
 21
37.6461542453
  0
LINE
  5
22B
100
AcDbEntity
  8
0
100
AcDbLine
 62
7
  6
CONTINUOUS
 10
11.4499286486
 20
37.6461542453
 11
0.2999286486
 21
37.6461542453
  0
INSERT
  5
22C
100
AcDbEntity
  8
0
100
AcDbBlockReference
 62
7
  6
CONTINUOUS
  2
_FILLED
 10
-10.8500713514
 20
37.6461542453
 41
3.0
 42
3.0
 43
3.0
 50
180.0
  0
INSERT
  5
22D
100
AcDbEntity
  8
0
100
AcDbBlockReference
 62
7
  6
CONTINUOUS
  2
_FILLED
 10
11.4499286486
 20
37.6461542453
 41
3.0
 42
3.0
 43
3.0
  0
ENDBLK
  5
22E
100
AcDbEntity
  8
0
  6
BYBLOCK
 62
0
100
AcDbBlockEnd
  0
BLOCK
  5
22F
100
AcDbEntity
  8
0
100
AcDbBlockBegin
 62
7
  6
CONTINUOUS
  2
*D1
 70
65
 10
0.0
 20
0.0
  3
*D1
  1

  0
MTEXT
  5
230
100
AcDbEntity
  8
0
100
AcDbMText
 62
7
  6
CONTINUOUS
  7
STANDARD
 71
2
 72
1
 10
16.3290026785
 20
1.5461542453
 30
0.0
 11
0.0
 21
1.0
 31
0.0
 44
0.9
  1
47
 40
3.0
 41
4.7142857143
  0
LINE
  5
231
100
AcDbEntity
  8
0
100
AcDbLine
 62
7
  6
CONTINUOUS
 10
3.7999286486
 20
25.0461542453
 11
21.5790026785
 21
25.0461542453
  0
LINE
  5
232
100
AcDbEntity
  8
0
100
AcDbLine
 62
7
  6
CONTINUOUS
 10
4.7732659963
 20
-21.9538457547
 11
21.5790026785
 21
-21.9538457547
  0
LINE
  5
233
100
AcDbEntity
  8
0
100
AcDbLine
 62
7
  6
CONTINUOUS
 10
20.0790026785
 20
25.0461542453
 11
20.0790026785
 21
1.5461542453
  0
LINE
  5
234
100
AcDbEntity
  8
0
100
AcDbLine
 62
7
  6
CONTINUOUS
 10
20.0790026785
 20
-21.9538457547
 11
20.0790026785
 21
1.5461542453
  0
INSERT
  5
235
100
AcDbEntity
  8
0
100
AcDbBlockReference
 62
7
  6
CONTINUOUS
  2
_FILLED
 10
20.0790026785
 20
25.0461542453
 41
3.0
 42
3.0
 43
3.0
 50
90.0
  0
INSERT
  5
236
100
AcDbEntity
  8
0
100
AcDbBlockReference
 62
7
  6
CONTINUOUS
  2
_FILLED
 10
20.0790026785
 20
-21.9538457547
 41
3.0
 42
3.0
 43
3.0
 50
270.0
  0
ENDBLK
  5
237
100
AcDbEntity
  8
0
  6
BYBLOCK
 62
0
100
AcDbBlockEnd
  0
BLOCK
  5
238
100
AcDbEntity
  8
0
100
AcDbBlockBegin
 62
7
  6
CONTINUOUS
  2
*D2
 70
65
 10
0.0
 20
0.0
  3
*D2
  1

  0
MTEXT
  5
239
100
AcDbEntity
  8
0
100
AcDbMText
 62
7
  6
CONTINUOUS
  7
STANDARD
 71
2
 72
1
 10
-37.5759652233
 20
41.3961542453
 30
0.0
 11
1.0
 21
0.0
 31
0.0
 44
0.9
  1
33,4
 40
3.0
 41
8.3571428571
  0
LINE
  5
23A
100
AcDbEntity
  8
0
100
AcDbLine
 62
7
  6
CONTINUOUS
 10
-20.8759652233
 20
19.0046768611
 11
-20.8759652233
 21
39.1461542453
  0
LINE
  5
23B
100
AcDbEntity
  8
0
100
AcDbLine
 62
7
  6
CONTINUOUS
 10
-54.2759652233
 20
23.9459253933
 11
-54.2759652233
 21
39.1461542453
  0
LINE
  5
23C
100
AcDbEntity
  8
0
100
AcDbLine
 62
7
  6
CONTINUOUS
 10
-20.8759652233
 20
37.6461542453
 11
-37.5759652233
 21
37.6461542453
  0
LINE
  5
23D
100
AcDbEntity
  8
0
100
AcDbLine
 62
7
  6
CONTINUOUS
 10
-54.2759652233
 20
37.6461542453
 11
-37.5759652233
 21
37.6461542453
  0
INSERT
  5
23E
100
AcDbEntity
  8
0
100
AcDbBlockReference
 62
7
  6
CONTINUOUS
  2
_FILLED
 10
-20.8759652233
 20
37.6461542453
 41
3.0
 42
3.0
 43
3.0
  0
INSERT
  5
23F
100
AcDbEntity
  8
0
100
AcDbBlockReference
 62
7
  6
CONTINUOUS
  2
_FILLED
 10
-54.2759652233
 20
37.6461542453
 41
3.0
 42
3.0
 43
3.0
 50
180.0
  0
ENDBLK
  5
240
100
AcDbEntity
  8
0
  6
BYBLOCK
 62
0
100
AcDbBlockEnd
  0
BLOCK
  5
241
100
AcDbEntity
  8
0
100
AcDbBlockBegin
 62
7
  6
CONTINUOUS
  2
*D3
 70
65
 10
0.0
 20
0.0
  3
*D3
  1

  0
MTEXT
  5
242
100
AcDbEntity
  8
0
100
AcDbMText
 62
7
  6
CONTINUOUS
  7
STANDARD
 71
2
 72
1
 10
-42.3259652233
 20
51.3961542453
 30
0.0
 11
1.0
 21
0.0
 31
0.0
 44
0.9
  1
42,9
 40
3.0
 41
8.7857142857
  0
LINE
  5
243
100
AcDbEntity
  8
0
100
AcDbLine
 62
7
  6
CONTINUOUS
 10
-20.8759652233
 20
19.0046768611
 11
-20.8759652233
 21
49.1461542453
  0
LINE
  5
244
100
AcDbEntity
  8
0
100
AcDbLine
 62
7
  6
CONTINUOUS
 10
-63.7759652233
 20
2.0461542453
 11
-63.7759652233
 21
49.1461542453
  0
LINE
  5
245
100
AcDbEntity
  8
0
100
AcDbLine
 62
7
  6
CONTINUOUS
 10
-20.8759652233
 20
47.6461542453
 11
-42.3259652233
 21
47.6461542453
  0
LINE
  5
246
100
AcDbEntity
  8
0
100
AcDbLine
 62
7
  6
CONTINUOUS
 10
-63.7759652233
 20
47.6461542453
 11
-42.3259652233
 21
47.6461542453
  0
INSERT
  5
247
100
AcDbEntity
  8
0
100
AcDbBlockReference
 62
7
  6
CONTINUOUS
  2
_FILLED
 10
-20.8759652233
 20
47.6461542453
 41
3.0
 42
3.0
 43
3.0
 50
0.0
  0
INSERT
  5
248
100
AcDbEntity
  8
0
100
AcDbBlockReference
 62
7
  6
CONTINUOUS
  2
_FILLED
 10
-63.7759652233
 20
47.6461542453
 41
3.0
 42
3.0
 43
3.0
 50
180.0
  0
ENDBLK
  5
249
100
AcDbEntity
  8
0
  6
BYBLOCK
 62
0
100
AcDbBlockEnd
  0
ENDSEC
  0
SECTION
  2
ENTITIES
  0
DIMENSION
  5
24A
100
AcDbEntity
  8
0
100
AcDbDimension
 62
7
  6
CONTINUOUS
  2
*D0
 10
11.4499286486
 20
37.6461542453
 11
-3.9857856371
 21
39.8961542453
 70
160
 71
2
 42
22.3
  3
DIMSTYLE_1
100
AcDbAlignedDimension
 13
-10.8500713514
 23
23.9459253933
 14
11.4499286486
 24
23.9459253933
100
AcDbRotatedDimension
  0
DIMENSION
  5
24B
100
AcDbEntity
  8
0
100
AcDbDimension
 62
7
  6
CONTINUOUS
  2
*D1
 10
20.0790026785
 20
-21.9538457547
 11
18.8851762022
 21
-0.5611236046
 70
160
 71
2
 42
47.0
  3
DIMSTYLE_1
100
AcDbAlignedDimension
 13
3.7999286486
 23
25.0461542453
 14
4.7732659963
 24
-21.9538457547
 50
270.0
100
AcDbRotatedDimension
  0
DIMENSION
  5
24C
100
AcDbEntity
  8
0
100
AcDbDimension
 62
7
  6
CONTINUOUS
  2
*D2
 10
-54.2759652233
 20
37.6461542453
 11
-41.7545366519
 21
39.8961542453
 70
160
 71
2
 42
33.4
  3
DIMSTYLE_1
100
AcDbAlignedDimension
 13
-20.8759652233
 23
19.0046768611
 14
-54.2759652233
 24
23.9459253933
 50
180.0
100
AcDbRotatedDimension
  0
DIMENSION
  5
24D
100
AcDbEntity
  8
0
100
AcDbDimension
 62
7
  6
CONTINUOUS
  2
*D3
 10
-63.7759652233
 20
47.6461542453
 11
-46.7188223662
 21
49.8961542453
 70
160
 71
2
 42
42.9
  3
DIMSTYLE_1
100
AcDbAlignedDimension
 13
-20.8759652233
 23
19.0046768611
 14
-63.7759652233
 24
2.0461542453
 50
180.0
100
AcDbRotatedDimension
  0
LINE
  5
24E
100
AcDbEntity
  8
ASSI
100
AcDbLine
 62
7
  6
CONTINUOUS
 10
-2.7000713514
 20
23.9461542453
 11
-2.4813496925
 21
24.0771736935
  0
LINE
  5
24F
100
AcDbEntity
  8
DRAFT
100
AcDbLine
 62
7
  6
CONTINUOUS
 10
-2.7000713514
 20
23.9461542453
 11
-2.4813496925
 21
24.0771736935
  0
LINE
  5
250
100
AcDbEntity
  8
ASSI
100
AcDbLine
 62
7
  6
CONTINUOUS
 10
-2.4813496925
 20
-20.9848652029
 11
-2.7000713514
 21
-20.8538457547
  0
LINE
  5
251
100
AcDbEntity
  8
DRAFT
100
AcDbLine
 62
7
  6
CONTINUOUS
 10
-2.4813496925
 20
-20.9848652029
 11
-2.7000713514
 21
-20.8538457547
  0
LINE
  5
252
100
AcDbEntity
  8
ASSI
100
AcDbLine
 62
7
  6
CONTINUOUS
 10
4.2732659963
 20
-21.9538457547
 11
3.2999286486
 21
-21.9538457547
  0
LINE
  5
253
100
AcDbEntity
  8
DRAFT
100
AcDbLine
 62
7
  6
CONTINUOUS
 10
4.2732659963
 20
-21.9538457547
 11
3.2999286486
 21
-21.9538457547
  0
LINE
  5
254
100
AcDbEntity
  8
ASSI
100
AcDbLine
 62
7
  6
CONTINUOUS
 10
-2.7000713514
 20
-21.9538457547
 11
-3.673408699
 21
-21.9538457547
  0
LINE
  5
255
100
AcDbEntity
  8
DRAFT
100
AcDbLine
 62
7
  6
CONTINUOUS
 10
-2.7000713514
 20
-21.9538457547
 11
-3.673408699
 21
-21.9538457547
  0
LINE
  5
256
100
AcDbEntity
  8
ASSI
100
AcDbLine
 62
7
  6
CONTINUOUS
 10
3.2999286486
 20
-21.9538457547
 11
3.0812069898
 21
-21.9102080924
  0
LINE
  5
257
100
AcDbEntity
  8
DRAFT
100
AcDbLine
 62
7
  6
CONTINUOUS
 10
3.2999286486
 20
-21.9538457547
 11
3.0812069898
 21
-21.9102080924
  0
LINE
  5
258
100
AcDbEntity
  8
ASSI
100
AcDbLine
 62
7
  6
CONTINUOUS
 10
-10.8500713514
 20
-20.3536169026
 11
-10.8500713514
 21
23.4459253933
  0
LINE
  5
259
100
AcDbEntity
  8
0
100
AcDbLine
 62
7
  6
CONTINUOUS
 10
-10.8500713514
 20
-20.3536169026
 11
-10.8500713514
 21
23.4459253933
  0
LINE
  5
25A
100
AcDbEntity
  8
0
100
AcDbLine
 62
253
  6
CONTINUOUS
 10
-10.2006064139
 20
-19.4721599856
 11
-10.2006064139
 21
22.5644684762
  0
LINE
  5
25B
100
AcDbEntity
  8
ASSI
100
AcDbLine
 62
7
  6
CONTINUOUS
 10
-2.4813496925
 20
-21.9102080924
 11
3.0812069898
 21
-21.9102080924
  0
LINE
  5
25C
100
AcDbEntity
  8
DRAFT
100
AcDbLine
 62
7
  6
CONTINUOUS
 10
-2.4813496925
 20
-21.9102080924
 11
3.0812069898
 21
-21.9102080924
  0
LINE
  5
25D
100
AcDbEntity
  8
ASSI
100
AcDbLine
 62
7
  6
CONTINUOUS
 10
3.0812069898
 20
-20.9848652029
 11
-2.4813496925
 21
-20.9848652029
  0
LINE
  5
25E
100
AcDbEntity
  8
DRAFT
100
AcDbLine
 62
7
  6
CONTINUOUS
 10
3.0812069898
 20
-20.9848652029
 11
-2.4813496925
 21
-20.9848652029
  0
LINE
  5
25F
100
AcDbEntity
  8
ASSI
100
AcDbLine
 62
7
  6
CONTINUOUS
 10
3.2999286486
 20
-20.8538457547
 11
10.9503092484
 21
-20.8538457547
  0
LINE
  5
260
100
AcDbEntity
  8
DRAFT
100
AcDbLine
 62
7
  6
CONTINUOUS
 10
3.2999286486
 20
-20.8538457547
 11
10.9503092484
 21
-20.8538457547
  0
LINE
  5
261
100
AcDbEntity
  8
ASSI
100
AcDbLine
 62
7
  6
CONTINUOUS
 10
-2.7000713514
 20
-20.8538457547
 11
-10.3504519511
 21
-20.8538457547
  0
LINE
  5
262
100
AcDbEntity
  8
DRAFT
100
AcDbLine
 62
7
  6
CONTINUOUS
 10
-2.7000713514
 20
-20.8538457547
 11
-10.3504519511
 21
-20.8538457547
  0
LINE
  5
263
100
AcDbEntity
  8
ASSI
100
AcDbLine
 62
253
  6
CONTINUOUS
 10
10.8087267654
 20
-20.4287528919
 11
-10.2088694681
 21
-20.4287528919
  0
LINE
  5
264
100
AcDbEntity
  8
0
100
AcDbLine
 62
253
  6
CONTINUOUS
 10
10.8087267654
 20
-20.4287528919
 11
-10.2088694681
 21
-20.4287528919
  0
LINE
  5
265
100
AcDbEntity
  8
ASSI
100
AcDbLine
 62
253
  6
CONTINUOUS
 10
10.8004637112
 20
-19.4721599856
 11
-10.2006064139
 21
-19.4721599856
  0
LINE
  5
266
100
AcDbEntity
  8
0
100
AcDbLine
 62
253
  6
CONTINUOUS
 10
10.8004637112
 20
-19.4721599856
 11
-10.2006064139
 21
-19.4721599856
  0
LINE
  5
267
100
AcDbEntity
  8
ASSI
100
AcDbLine
 62
7
  6
CONTINUOUS
 10
-9.2000713514
 20
13.2961542453
 11
-9.2000713514
 21
-10.9038457547
  0
LINE
  5
268
100
AcDbEntity
  8
RACCORDO
100
AcDbLine
 62
7
  6
CONTINUOUS
 10
-9.2000713514
 20
13.2961542453
 11
-9.2000713514
 21
-10.9038457547
  0
LINE
  5
269
100
AcDbEntity
  8
ASSI
100
AcDbLine
 62
7
  6
CONTINUOUS
 10
-8.9000713514
 20
13.2961542453
 11
-8.9000713514
 21
-10.9038457547
  0
LINE
  5
26A
100
AcDbEntity
  8
RACCORDO
100
AcDbLine
 62
7
  6
CONTINUOUS
 10
-8.9000713514
 20
13.2961542453
 11
-8.9000713514
 21
-10.9038457547
  0
LINE
  5
26B
100
AcDbEntity
  8
ASSI
100
AcDbLine
 62
253
  6
CONTINUOUS
 10
-8.0668661729
 20
-4.9522455894
 11
-8.0675025628
 21
3.9410870029
  0
LINE
  5
26C
100
AcDbEntity
  8
RACCORDO
100
AcDbLine
 62
253
  6
CONTINUOUS
 10
-8.0668661729
 20
-4.9522455894
 11
-8.0675025628
 21
3.9410870029
  0
LINE
  5
26D
100
AcDbEntity
  8
ASSI
100
AcDbLine
 62
7
  6
CONTINUOUS
 10
-7.5500713514
 20
3.9211847063
 11
-7.5500713514
 21
-4.9288762156
  0
LINE
  5
26E
100
AcDbEntity
  8
RACCORDO
100
AcDbLine
 62
7
  6
CONTINUOUS
 10
-7.5500713514
 20
3.9211847063
 11
-7.5500713514
 21
-4.9288762156
  0
LINE
  5
26F
100
AcDbEntity
  8
ASSI
100
AcDbLine
 62
253
  6
CONTINUOUS
 10
-7.3675421072
 20
4.6416138474
 11
-7.3675421072
 21
4.1385945402
  0
LINE
  5
270
100
AcDbEntity
  8
RACCORDO
100
AcDbLine
 62
253
  6
CONTINUOUS
 10
-7.3675421072
 20
4.6416138474
 11
-7.3675421072
 21
4.1385945402
  0
LINE
  5
271
100
AcDbEntity
  8
ASSI
100
AcDbLine
 62
253
  6
CONTINUOUS
 10
-7.3668054758
 20
-5.6526720921
 11
-7.3668054759
 21
-5.1455494182
  0
LINE
  5
272
100
AcDbEntity
  8
RACCORDO
100
AcDbLine
 62
253
  6
CONTINUOUS
 10
-7.3668054758
 20
-5.6526720921
 11
-7.3668054759
 21
-5.1455494182
  0
LINE
  5
273
100
AcDbEntity
  8
ASSI
100
AcDbLine
 62
7
  6
CONTINUOUS
 10
-2.7000713514
 20
-21.9538457547
 11
-2.4813496925
 21
-21.9102080924
  0
LINE
  5
274
100
AcDbEntity
  8
DRAFT
100
AcDbLine
 62
7
  6
CONTINUOUS
 10
-2.7000713514
 20
-21.9538457547
 11
-2.4813496925
 21
-21.9102080924
  0
LINE
  5
275
100
AcDbEntity
  8
0
100
AcDbLine
 62
7
  6
CONTINUOUS
 10
-6.5000713514
 20
3.0961542453
 11
-6.5000713514
 21
-1.9038457547
  0
LINE
  5
276
100
AcDbEntity
  8
0
100
AcDbLine
 62
7
  6
CONTINUOUS
 10
-6.1000713514
 20
-1.9038457547
 11
-6.1000713514
 21
-3.6038457547
  0
LINE
  5
277
100
AcDbEntity
  8
RACCORDO
100
AcDbLine
 62
7
  6
CONTINUOUS
 10
-5.7736338944
 20
1.1375402724
 11
-5.7736338944
 21
3.0961542453
  0
LINE
  5
278
100
AcDbEntity
  8
ASSI
100
AcDbLine
 62
7
  6
CONTINUOUS
 10
-5.7736338944
 20
1.1375402724
 11
-5.7736338944
 21
3.0961542453
  0
LINE
  5
279
100
AcDbEntity
  8
0
100
AcDbLine
 62
7
  6
CONTINUOUS
 10
-4.8500713514
 20
-1.0512093812
 11
-4.8500713514
 21
3.0961542453
  0
LINE
  5
27A
100
AcDbEntity
  8
0
100
AcDbLine
 62
7
  6
CONTINUOUS
 10
-4.0500713514
 20
-1.0512093812
 11
-4.0500713514
 21
3.0961542453
  0
LINE
  5
27B
100
AcDbEntity
  8
0
100
AcDbLine
 62
7
  6
CONTINUOUS
 10
-6.5000713514
 20
-0.2038457547
 11
-5.8000713514
 21
-1.7038457547
  0
LINE
  5
27C
100
AcDbEntity
  8
0
100
AcDbLine
 62
7
  6
CONTINUOUS
 10
-3.3500713514
 20
-1.0512093812
 11
-3.3500713514
 21
3.0961542453
  0
LINE
  5
27D
100
AcDbEntity
  8
ASSI
100
AcDbLine
 62
7
  6
CONTINUOUS
 10
-2.7000713514
 20
-21.9538457547
 11
-2.7000713514
 21
-20.8538457547
  0
LINE
  5
27E
100
AcDbEntity
  8
DRAFT
100
AcDbLine
 62
7
  6
CONTINUOUS
 10
-2.7000713514
 20
-21.9538457547
 11
-2.7000713514
 21
-20.8538457547
  0
LINE
  5
27F
100
AcDbEntity
  8
ASSI
100
AcDbLine
 62
7
  6
CONTINUOUS
 10
-2.7000713514
 20
23.9461542453
 11
-2.7000713514
 21
25.0461542453
  0
LINE
  5
280
100
AcDbEntity
  8
DRAFT
100
AcDbLine
 62
7
  6
CONTINUOUS
 10
-2.7000713514
 20
23.9461542453
 11
-2.7000713514
 21
25.0461542453
  0
LINE
  5
281
100
AcDbEntity
  8
0
100
AcDbLine
 62
7
  6
CONTINUOUS
 10
-2.5500713514
 20
-1.0512093812
 11
-2.5500713514
 21
3.0961542453
  0
LINE
  5
282
100
AcDbEntity
  8
ASSI
100
AcDbLine
 62
7
  6
CONTINUOUS
 10
-2.4813496925
 20
-21.9102080924
 11
-2.4813496925
 21
-20.9848652029
  0
LINE
  5
283
100
AcDbEntity
  8
DRAFT
100
AcDbLine
 62
7
  6
CONTINUOUS
 10
-2.4813496925
 20
-21.9102080924
 11
-2.4813496925
 21
-20.9848652029
  0
LINE
  5
284
100
AcDbEntity
  8
ASSI
100
AcDbLine
 62
7
  6
CONTINUOUS
 10
-2.4813496925
 20
24.0771736935
 11
-2.4813496925
 21
25.002516583
  0
LINE
  5
285
100
AcDbEntity
  8
DRAFT
100
AcDbLine
 62
7
  6
CONTINUOUS
 10
-2.4813496925
 20
24.0771736935
 11
-2.4813496925
 21
25.002516583
  0
LINE
  5
286
100
AcDbEntity
  8
0
100
AcDbLine
 62
7
  6
CONTINUOUS
 10
-1.8500713514
 20
-1.0512093812
 11
-1.8500713514
 21
3.0961542453
  0
LINE
  5
287
100
AcDbEntity
  8
ASSI
100
AcDbLine
 62
253
  6
CONTINUOUS
 10
-10.8500713514
 20
-20.3536169026
 11
-10.7087933156
 21
-19.9294381245
  0
LINE
  5
288
100
AcDbEntity
  8
0
100
AcDbLine
 62
253
  6
CONTINUOUS
 10
-10.8500713514
 20
-20.3536169026
 11
-10.7087933156
 21
-19.9294381245
  0
LINE
  5
289
100
AcDbEntity
  8
ASSI
100
AcDbLine
 62
253
  6
CONTINUOUS
 10
-10.3504519511
 20
-20.8538457547
 11
-10.2088694681
 21
-20.4287528919
  0
LINE
  5
28A
100
AcDbEntity
  8
0
100
AcDbLine
 62
253
  6
CONTINUOUS
 10
-10.3504519511
 20
-20.8538457547
 11
-10.2088694681
 21
-20.4287528919
  0
LINE
  5
28B
100
AcDbEntity
  8
SCRITTE
100
AcDbLine
 62
253
  6
CONTINUOUS
 10
11.3782231721
 20
-11.8447807547
 11
11.3276065035
 21
-11.8447807547
  0
LINE
  5
28C
100
AcDbEntity
  8
ASSI
100
AcDbLine
 62
7
  6
CONTINUOUS
 10
-8.4000713514
 20
-11.7038457547
 11
8.9999286486
 21
-11.7038457547
  0
LINE
  5
28D
100
AcDbEntity
  8
RACCORDO
100
AcDbLine
 62
7
  6
CONTINUOUS
 10
-8.4000713514
 20
-11.7038457547
 11
8.9999286486
 21
-11.7038457547
  0
LINE
  5
28E
100
AcDbEntity
  8
ASSI
100
AcDbLine
 62
7
  6
CONTINUOUS
 10
-8.4000713514
 20
-11.4038457547
 11
8.9999286486
 21
-11.4038457547
  0
LINE
  5
28F
100
AcDbEntity
  8
RACCORDO
100
AcDbLine
 62
7
  6
CONTINUOUS
 10
-8.4000713514
 20
-11.4038457547
 11
8.9999286486
 21
-11.4038457547
  0
LINE
  5
290
100
AcDbEntity
  8
ASSI
100
AcDbLine
 62
253
  6
CONTINUOUS
 10
-10.7087933156
 20
23.0217466152
 11
-10.8500713514
 21
23.4459253933
  0
LINE
  5
291
100
AcDbEntity
  8
0
100
AcDbLine
 62
253
  6
CONTINUOUS
 10
-10.7087933156
 20
23.0217466152
 11
-10.8500713514
 21
23.4459253933
  0
LINE
  5
292
100
AcDbEntity
  8
ASSI
100
AcDbLine
 62
253
  6
CONTINUOUS
 10
-10.2088694681
 20
23.5210613825
 11
-10.3504519511
 21
23.9461542453
  0
LINE
  5
293
100
AcDbEntity
  8
0
100
AcDbLine
 62
253
  6
CONTINUOUS
 10
-10.2088694681
 20
23.5210613825
 11
-10.3504519511
 21
23.9461542453
  0
LINE
  5
294
100
AcDbEntity
  8
0
100
AcDbLine
 62
7
  6
CONTINUOUS
 10
-1.0500713514
 20
-1.0512093812
 11
-1.0500713514
 21
3.0961542453
  0
LINE
  5
295
100
AcDbEntity
  8
0
100
AcDbLine
 62
7
  6
CONTINUOUS
 10
-0.3500713514
 20
-1.0512093812
 11
-0.3500713514
 21
3.0961542453
  0
LINE
  5
296
100
AcDbEntity
  8
0
100
AcDbLine
 62
7
  6
CONTINUOUS
 10
0.4499286486
 20
-1.0512093812
 11
0.4499286486
 21
3.0961542453
  0
LINE
  5
297
100
AcDbEntity
  8
0
100
AcDbLine
 62
7
  6
CONTINUOUS
 10
1.1499286486
 20
-1.0512093812
 11
1.1499286486
 21
3.0961542453
  0
LINE
  5
298
100
AcDbEntity
  8
SCRITTE
100
AcDbLine
 62
7
  6
CONTINUOUS
 10
11.3277586194
 20
17.492233585
 11
11.3334285392
 21
17.4979035048
  0
LINE
  5
299
100
AcDbEntity
  8
SCRITTE
100
AcDbLine
 62
7
  6
CONTINUOUS
 10
11.3726929626
 20
17.5371679282
 11
11.3783628824
 21
17.542837848
  0
LINE
  5
29A
100
AcDbEntity
  8
SCRITTE
100
AcDbLine
 62
7
  6
CONTINUOUS
 10
11.3277586194
 20
17.0722121569
 11
11.3334285392
 21
17.0778820768
  0
LINE
  5
29B
100
AcDbEntity
  8
SCRITTE
100
AcDbLine
 62
7
  6
CONTINUOUS
 10
11.349517278
 20
17.0939708155
 11
11.3551871978
 21
17.0996407354
  0
LINE
  5
29C
100
AcDbEntity
  8
SCRITTE
100
AcDbLine
 62
7
  6
CONTINUOUS
 10
11.3726929626
 20
17.1171465001
 11
11.3783628824
 21
17.12281642
  0
LINE
  5
29D
100
AcDbEntity
  8
SCRITTE
100
AcDbLine
 62
7
  6
CONTINUOUS
 10
11.3277586194
 20
16.6521907289
 11
11.3334285392
 21
16.6578606487
  0
LINE
  5
29E
100
AcDbEntity
  8
SCRITTE
100
AcDbLine
 62
7
  6
CONTINUOUS
 10
11.349517278
 20
16.6739493875
 11
11.3551871978
 21
16.6796193073
  0
LINE
  5
29F
100
AcDbEntity
  8
SCRITTE
100
AcDbLine
 62
7
  6
CONTINUOUS
 10
11.3726929626
 20
16.6971250721
 11
11.3783628824
 21
16.702794992
  0
LINE
  5
2A0
100
AcDbEntity
  8
SCRITTE
100
AcDbLine
 62
7
  6
CONTINUOUS
 10
11.3277586194
 20
16.2321693009
 11
11.3334285392
 21
16.2378392207
  0
LINE
  5
2A1
100
AcDbEntity
  8
SCRITTE
100
AcDbLine
 62
7
  6
CONTINUOUS
 10
11.349517278
 20
16.2539279595
 11
11.3551871978
 21
16.2595978793
  0
LINE
  5
2A2
100
AcDbEntity
  8
SCRITTE
100
AcDbLine
 62
7
  6
CONTINUOUS
 10
11.3726929626
 20
16.2771036441
 11
11.3783628824
 21
16.2827735639
  0
LINE
  5
2A3
100
AcDbEntity
  8
SCRITTE
100
AcDbLine
 62
7
  6
CONTINUOUS
 10
11.3277586194
 20
15.8121478729
 11
11.3783628824
 21
15.8627521359
  0
LINE
  5
2A4
100
AcDbEntity
  8
SCRITTE
100
AcDbLine
 62
253
  6
CONTINUOUS
 10
11.3276065035
 20
-11.2395097547
 11
11.3782231721
 21
-11.2395097547
  0
LINE
  5
2A5
100
AcDbEntity
  8
RACCORDO
100
AcDbLine
 62
253
  6
CONTINUOUS
 10
-7.3675534385
 20
4.1385945402
 11
-7.3501018123
 21
4.1211542453
  0
LINE
  5
2A6
100
AcDbEntity
  8
ASSI
100
AcDbLine
 62
253
  6
CONTINUOUS
 10
-7.5675787148
 20
3.938706095
 11
-7.5500713514
 21
3.9211847063
  0
LINE
  5
2A7
100
AcDbEntity
  8
RACCORDO
100
AcDbLine
 62
253
  6
CONTINUOUS
 10
-7.5675787148
 20
3.938706095
 11
-7.5500713514
 21
3.9211847063
  0
LINE
  5
2A8
100
AcDbEntity
  8
0
100
AcDbLine
 62
7
  6
CONTINUOUS
 10
1.9499286486
 20
-1.0512093812
 11
1.9499286486
 21
3.0961542453
  0
LINE
  5
2A9
100
AcDbEntity
  8
0
100
AcDbLine
 62
7
  6
CONTINUOUS
 10
2.6499286486
 20
-1.0512093812
 11
2.6499286486
 21
3.0961542453
  0
LINE
  5
2AA
100
AcDbEntity
  8
ASSI
100
AcDbLine
 62
7
  6
CONTINUOUS
 10
3.0812069898
 20
-21.9102080924
 11
3.0812069898
 21
-20.9848652029
  0
LINE
  5
2AB
100
AcDbEntity
  8
DRAFT
100
AcDbLine
 62
7
  6
CONTINUOUS
 10
3.0812069898
 20
-21.9102080924
 11
3.0812069898
 21
-20.9848652029
  0
LINE
  5
2AC
100
AcDbEntity
  8
ASSI
100
AcDbLine
 62
7
  6
CONTINUOUS
 10
3.0812069898
 20
24.0771736935
 11
3.0812069898
 21
25.002516583
  0
LINE
  5
2AD
100
AcDbEntity
  8
DRAFT
100
AcDbLine
 62
7
  6
CONTINUOUS
 10
3.0812069898
 20
24.0771736935
 11
3.0812069898
 21
25.002516583
  0
LINE
  5
2AE
100
AcDbEntity
  8
ASSI
100
AcDbLine
 62
7
  6
CONTINUOUS
 10
3.2999286486
 20
-21.9538457547
 11
3.2999286486
 21
-20.8538457547
  0
LINE
  5
2AF
100
AcDbEntity
  8
DRAFT
100
AcDbLine
 62
7
  6
CONTINUOUS
 10
3.2999286486
 20
-21.9538457547
 11
3.2999286486
 21
-20.8538457547
  0
LINE
  5
2B0
100
AcDbEntity
  8
ASSI
100
AcDbLine
 62
7
  6
CONTINUOUS
 10
3.2999286486
 20
23.9461542453
 11
3.2999286486
 21
25.0461542453
  0
LINE
  5
2B1
100
AcDbEntity
  8
DRAFT
100
AcDbLine
 62
7
  6
CONTINUOUS
 10
3.2999286486
 20
23.9461542453
 11
3.2999286486
 21
25.0461542453
  0
LINE
  5
2B2
100
AcDbEntity
  8
0
100
AcDbLine
 62
7
  6
CONTINUOUS
 10
3.4499286486
 20
-1.0512093812
 11
3.4499286486
 21
3.0961542453
  0
LINE
  5
2B3
100
AcDbEntity
  8
ASSI
100
AcDbLine
 62
253
  6
CONTINUOUS
 10
10.8087267654
 20
23.5210613825
 11
10.9503092484
 21
23.9461542453
  0
LINE
  5
2B4
100
AcDbEntity
  8
0
100
AcDbLine
 62
253
  6
CONTINUOUS
 10
10.8087267654
 20
23.5210613825
 11
10.9503092484
 21
23.9461542453
  0
LINE
  5
2B5
100
AcDbEntity
  8
0
100
AcDbLine
 62
7
  6
CONTINUOUS
 10
-1.7000713514
 20
-1.7038457547
 11
-1.2649804357
 21
-1.0512093812
  0
LINE
  5
2B6
100
AcDbEntity
  8
0
100
AcDbLine
 62
7
  6
CONTINUOUS
 10
-1.0500713514
 20
-0.7288457547
 11
-0.3500713514
 21
0.3211542453
  0
LINE
  5
2B7
100
AcDbEntity
  8
ASSI
100
AcDbLine
 62
253
  6
CONTINUOUS
 10
-7.5669423234
 20
-4.9457582268
 11
-7.5500713514
 21
-4.9288762156
  0
LINE
  5
2B8
100
AcDbEntity
  8
RACCORDO
100
AcDbLine
 62
253
  6
CONTINUOUS
 10
-7.5669423234
 20
-4.9457582268
 11
-7.5500713514
 21
-4.9288762156
  0
LINE
  5
2B9
100
AcDbEntity
  8
SCRITTE
100
AcDbLine
 62
7
  6
CONTINUOUS
 10
11.3277586194
 20
14.9721050168
 11
11.3309390161
 21
14.9752854135
  0
LINE
  5
2BA
100
AcDbEntity
  8
SCRITTE
100
AcDbLine
 62
7
  6
CONTINUOUS
 10
11.3320385512
 20
14.5563635206
 11
11.3505777456
 21
14.574902715
  0
LINE
  5
2BB
100
AcDbEntity
  8
SCRITTE
100
AcDbLine
 62
7
  6
CONTINUOUS
 10
11.3529658278
 20
14.1572693692
 11
11.3702164751
 21
14.1745200164
  0
LINE
  5
2BC
100
AcDbEntity
  8
SCRITTE
100
AcDbLine
 62
7
  6
CONTINUOUS
 10
11.3695456621
 20
13.7538277754
 11
11.3783628824
 21
13.7626449958
  0
LINE
  5
2BD
100
AcDbEntity
  8
SCRITTE
100
AcDbLine
 62
7
  6
CONTINUOUS
 10
11.3460641408
 20
13.3103248261
 11
11.3665465538
 21
13.3308072391
  0
LINE
  5
2BE
100
AcDbEntity
  8
SCRITTE
100
AcDbLine
 62
7
  6
CONTINUOUS
 10
11.3277586194
 20
12.8719978767
 11
11.3446999183
 21
12.8889391756
  0
LINE
  5
2BF
100
AcDbEntity
  8
RACCORDO
100
AcDbLine
 62
253
  6
CONTINUOUS
 10
-7.366819584
 20
-5.1455494182
 11
-7.3501018123
 21
-5.1288457547
  0
LINE
  5
2C0
100
AcDbEntity
  8
0
100
AcDbLine
 62
7
  6
CONTINUOUS
 10
0.4499286486
 20
1.0711542453
 11
1.1499286486
 21
0.0211542453
  0
LINE
  5
2C1
100
AcDbEntity
  8
0
100
AcDbLine
 62
7
  6
CONTINUOUS
 10
1.864837733
 20
-1.0512093812
 11
2.2999286486
 21
-1.7038457547
  0
LINE
  5
2C2
100
AcDbEntity
  8
ASSI
100
AcDbLine
 62
253
  6
CONTINUOUS
 10
10.9503092484
 20
-20.8538457547
 11
10.8087267654
 21
-20.4287528919
  0
LINE
  5
2C3
100
AcDbEntity
  8
0
100
AcDbLine
 62
253
  6
CONTINUOUS
 10
10.9503092484
 20
-20.8538457547
 11
10.8087267654
 21
-20.4287528919
  0
LINE
  5
2C4
100
AcDbEntity
  8
0
100
AcDbLine
 62
7
  6
CONTINUOUS
 10
5.0999286486
 20
-3.6038457547
 11
5.0999286486
 21
-2.6838457547
  0
LINE
  5
2C5
100
AcDbEntity
  8
0
100
AcDbLine
 62
7
  6
CONTINUOUS
 10
5.0999286486
 20
2.1761542453
 11
5.0999286486
 21
3.0961542453
  0
LINE
  5
2C6
100
AcDbEntity
  8
RACCORDO
100
AcDbLine
 62
7
  6
CONTINUOUS
 10
6.3734911917
 20
1.1375402724
 11
6.3734911917
 21
2.1761542453
  0
LINE
  5
2C7
100
AcDbEntity
  8
ASSI
100
AcDbLine
 62
7
  6
CONTINUOUS
 10
6.3734911917
 20
1.1375402724
 11
6.3734911917
 21
2.1761542453
  0
LINE
  5
2C8
100
AcDbEntity
  8
0
100
AcDbLine
 62
7
  6
CONTINUOUS
 10
6.3999286486
 20
-2.6838457547
 11
6.3999286486
 21
-1.3438457547
  0
LINE
  5
2C9
100
AcDbEntity
  8
0
100
AcDbLine
 62
7
  6
CONTINUOUS
 10
6.3999286486
 20
0.8361542453
 11
6.3999286486
 21
2.1761542453
  0
LINE
  5
2CA
100
AcDbEntity
  8
ASSI
100
AcDbLine
 62
253
  6
CONTINUOUS
 10
11.3086506129
 20
23.0217466152
 11
11.4499286486
 21
23.4459253933
  0
LINE
  5
2CB
100
AcDbEntity
  8
0
100
AcDbLine
 62
253
  6
CONTINUOUS
 10
11.3086506129
 20
23.0217466152
 11
11.4499286486
 21
23.4459253933
  0
LINE
  5
2CC
100
AcDbEntity
  8
SCRITTE
100
AcDbLine
 62
7
  6
CONTINUOUS
 10
11.3277586194
 20
12.0319550206
 11
11.3334285392
 21
12.0376249405
  0
LINE
  5
2CD
100
AcDbEntity
  8
SCRITTE
100
AcDbLine
 62
7
  6
CONTINUOUS
 10
11.349517278
 20
12.0537136792
 11
11.3551871978
 21
12.0593835991
  0
LINE
  5
2CE
100
AcDbEntity
  8
SCRITTE
100
AcDbLine
 62
7
  6
CONTINUOUS
 10
11.3726929626
 20
12.0768893638
 11
11.3783628824
 21
12.0825592837
  0
LINE
  5
2CF
100
AcDbEntity
  8
SCRITTE
100
AcDbLine
 62
7
  6
CONTINUOUS
 10
11.3277586194
 20
11.6119335926
 11
11.3334285392
 21
11.6176035125
  0
LINE
  5
2D0
100
AcDbEntity
  8
SCRITTE
100
AcDbLine
 62
7
  6
CONTINUOUS
 10
11.349517278
 20
11.6336922512
 11
11.3551871978
 21
11.639362171
  0
LINE
  5
2D1
100
AcDbEntity
  8
SCRITTE
100
AcDbLine
 62
7
  6
CONTINUOUS
 10
11.3726929626
 20
11.6568679358
 11
11.3783628824
 21
11.6625378557
  0
LINE
  5
2D2
100
AcDbEntity
  8
SCRITTE
100
AcDbLine
 62
7
  6
CONTINUOUS
 10
11.3277586194
 20
11.1919121646
 11
11.3334285392
 21
11.1975820844
  0
LINE
  5
2D3
100
AcDbEntity
  8
SCRITTE
100
AcDbLine
 62
7
  6
CONTINUOUS
 10
11.349517278
 20
11.2136708232
 11
11.3551871978
 21
11.219340743
  0
LINE
  5
2D4
100
AcDbEntity
  8
SCRITTE
100
AcDbLine
 62
7
  6
CONTINUOUS
 10
11.3726929626
 20
11.2368465078
 11
11.3783628824
 21
11.2425164276
  0
LINE
  5
2D5
100
AcDbEntity
  8
SCRITTE
100
AcDbLine
 62
7
  6
CONTINUOUS
 10
11.3277586194
 20
10.7718907366
 11
11.3334285392
 21
10.7775606564
  0
LINE
  5
2D6
100
AcDbEntity
  8
SCRITTE
100
AcDbLine
 62
7
  6
CONTINUOUS
 10
11.349517278
 20
10.7936493951
 11
11.3551871978
 21
10.799319315
  0
LINE
  5
2D7
100
AcDbEntity
  8
SCRITTE
100
AcDbLine
 62
7
  6
CONTINUOUS
 10
11.3726929626
 20
10.8168250798
 11
11.3783628824
 21
10.8224949996
  0
LINE
  5
2D8
100
AcDbEntity
  8
SCRITTE
100
AcDbLine
 62
7
  6
CONTINUOUS
 10
11.3277586194
 20
10.3518693085
 11
11.3783628824
 21
10.4024735716
  0
LINE
  5
2D9
100
AcDbEntity
  8
SCRITTE
100
AcDbLine
 62
7
  6
CONTINUOUS
 10
11.3277586194
 20
9.0918050245
 11
11.3783628824
 21
9.1424092875
  0
LINE
  5
2DA
100
AcDbEntity
  8
SCRITTE
100
AcDbLine
 62
7
  6
CONTINUOUS
 10
11.360286784
 20
8.704311761
 11
11.3714816694
 21
8.7155066465
  0
LINE
  5
2DB
100
AcDbEntity
  8
ASSI
100
AcDbLine
 62
253
  6
CONTINUOUS
 10
7.9666627731
 20
-5.6526720921
 11
-7.3668054758
 21
-5.6526720921
  0
LINE
  5
2DC
100
AcDbEntity
  8
RACCORDO
100
AcDbLine
 62
253
  6
CONTINUOUS
 10
7.9666627731
 20
-5.6526720921
 11
-7.3668054758
 21
-5.6526720921
  0
LINE
  5
2DD
100
AcDbEntity
  8
SCRITTE
100
AcDbLine
 62
253
  6
CONTINUOUS
 10
11.3782231783
 20
-5.315413099
 11
11.3282008773
 21
-5.315413099
  0
LINE
  5
2DE
100
AcDbEntity
  8
ASSI
100
AcDbLine
 62
253
  6
CONTINUOUS
 10
7.9666740938
 20
-5.1455494182
 11
-7.366819584
 21
-5.1455494182
  0
LINE
  5
2DF
100
AcDbEntity
  8
RACCORDO
100
AcDbLine
 62
253
  6
CONTINUOUS
 10
7.9666740938
 20
-5.1455494182
 11
-7.366819584
 21
-5.1455494182
  0
LINE
  5
2E0
100
AcDbEntity
  8
ASSI
100
AcDbLine
 62
7
  6
CONTINUOUS
 10
-7.3501018123
 20
-5.1288457547
 11
7.9499591096
 21
-5.1288457547
  0
LINE
  5
2E1
100
AcDbEntity
  8
RACCORDO
100
AcDbLine
 62
7
  6
CONTINUOUS
 10
-7.3501018123
 20
-5.1288457547
 11
7.9499591096
 21
-5.1288457547
  0
LINE
  5
2E2
100
AcDbEntity
  8
SCRITTE
100
AcDbLine
 62
253
  6
CONTINUOUS
 10
11.3362320765
 20
-4.7326470265
 11
11.3501265064
 21
-4.7326470265
  0
LINE
  5
2E3
100
AcDbEntity
  8
SCRITTE
100
AcDbLine
 62
253
  6
CONTINUOUS
 10
11.358415797
 20
-4.7125771379
 11
11.3782231783
 21
-4.7125771379
  0
LINE
  5
2E4
100
AcDbEntity
  8
SCRITTE
100
AcDbLine
 62
253
  6
CONTINUOUS
 10
11.3542980995
 20
-3.7592900447
 11
11.3545971819
 21
-3.7592900447
  0
LINE
  5
2E5
100
AcDbEntity
  8
0
100
AcDbLine
 62
7
  6
CONTINUOUS
 10
-6.1000713514
 20
-3.6038457547
 11
5.0999286486
 21
-3.6038457547
  0
LINE
  5
2E6
100
AcDbEntity
  8
RACCORDO
100
AcDbLine
 62
253
  6
CONTINUOUS
 10
7.9666740938
 20
-5.1455494182
 11
7.9499591096
 21
-5.1288457547
  0
LINE
  5
2E7
100
AcDbEntity
  8
ASSI
100
AcDbLine
 62
253
  6
CONTINUOUS
 10
8.1667996201
 20
-4.9457612547
 11
8.1499286486
 21
-4.9288762156
  0
LINE
  5
2E8
100
AcDbEntity
  8
RACCORDO
100
AcDbLine
 62
253
  6
CONTINUOUS
 10
8.1667996201
 20
-4.9457612547
 11
8.1499286486
 21
-4.9288762156
  0
LINE
  5
2E9
100
AcDbEntity
  8
ASSI
100
AcDbLine
 62
253
  6
CONTINUOUS
 10
11.4499286486
 20
-20.3536169026
 11
11.3086506129
 21
-19.9294381245
  0
LINE
  5
2EA
100
AcDbEntity
  8
0
100
AcDbLine
 62
253
  6
CONTINUOUS
 10
11.4499286486
 20
-20.3536169026
 11
11.3086506129
 21
-19.9294381245
  0
LINE
  5
2EB
100
AcDbEntity
  8
0
100
AcDbLine
 62
7
  6
CONTINUOUS
 10
7.0999286486
 20
-1.3438457547
 11
7.0999286486
 21
0.8361542453
  0
LINE
  5
2EC
100
AcDbEntity
  8
ASSI
100
AcDbLine
 62
253
  6
CONTINUOUS
 10
7.9666627731
 20
-5.6526720921
 11
7.9666627731
 21
-5.1455494182
  0
LINE
  5
2ED
100
AcDbEntity
  8
RACCORDO
100
AcDbLine
 62
253
  6
CONTINUOUS
 10
7.9666627731
 20
-5.6526720921
 11
7.9666627731
 21
-5.1455494182
  0
LINE
  5
2EE
100
AcDbEntity
  8
ASSI
100
AcDbLine
 62
253
  6
CONTINUOUS
 10
7.9673994045
 20
4.6416138474
 11
7.9673994045
 21
4.1385945402
  0
LINE
  5
2EF
100
AcDbEntity
  8
RACCORDO
100
AcDbLine
 62
253
  6
CONTINUOUS
 10
7.9673994045
 20
4.6416138474
 11
7.9673994045
 21
4.1385945402
  0
LINE
  5
2F0
100
AcDbEntity
  8
ASSI
100
AcDbLine
 62
7
  6
CONTINUOUS
 10
8.1499286486
 20
-4.9288762156
 11
8.1499286486
 21
3.9211847063
  0
LINE
  5
2F1
100
AcDbEntity
  8
RACCORDO
100
AcDbLine
 62
7
  6
CONTINUOUS
 10
8.1499286486
 20
-4.9288762156
 11
8.1499286486
 21
3.9211847063
  0
LINE
  5
2F2
100
AcDbEntity
  8
ASSI
100
AcDbLine
 62
253
  6
CONTINUOUS
 10
8.6673598601
 20
3.9410870029
 11
8.6667234702
 21
-4.9522455894
  0
LINE
  5
2F3
100
AcDbEntity
  8
RACCORDO
100
AcDbLine
 62
253
  6
CONTINUOUS
 10
8.6673598601
 20
3.9410870029
 11
8.6667234702
 21
-4.9522455894
  0
LINE
  5
2F4
100
AcDbEntity
  8
0
100
AcDbLine
 62
7
  6
CONTINUOUS
 10
6.5679286486
 20
-1.3438457547
 11
7.0999286486
 21
-0.2038457547
  0
LINE
  5
2F5
100
AcDbEntity
  8
SCRITTE
100
AcDbLine
 62
7
  6
CONTINUOUS
 10
11.3486888532
 20
8.2726924022
 11
11.3599123838
 21
8.2839159328
  0
LINE
  5
2F6
100
AcDbEntity
  8
SCRITTE
100
AcDbLine
 62
7
  6
CONTINUOUS
 10
11.3370909223
 20
7.8410730433
 11
11.3483430982
 21
7.8523252192
  0
LINE
  5
2F7
100
AcDbEntity
  8
SCRITTE
100
AcDbLine
 62
7
  6
CONTINUOUS
 10
11.3277586194
 20
7.4117193124
 11
11.3651213018
 21
7.4490819948
  0
LINE
  5
2F8
100
AcDbEntity
  8
ASSI
100
AcDbLine
 62
253
  6
CONTINUOUS
 10
8.1674360125
 20
3.9386920701
 11
8.1499286486
 21
3.9211847063
  0
LINE
  5
2F9
100
AcDbEntity
  8
RACCORDO
100
AcDbLine
 62
253
  6
CONTINUOUS
 10
8.1674360125
 20
3.9386920701
 11
8.1499286486
 21
3.9211847063
  0
LINE
  5
2FA
100
AcDbEntity
  8
RACCORDO
100
AcDbLine
 62
253
  6
CONTINUOUS
 10
7.9674135258
 20
4.1385945402
 11
7.9499591096
 21
4.1211542453
  0
LINE
  5
2FB
100
AcDbEntity
  8
0
100
AcDbLine
 62
7
  6
CONTINUOUS
 10
5.0999286486
 20
-2.6838457547
 11
6.3999286486
 21
-2.6838457547
  0
LINE
  5
2FC
100
AcDbEntity
  8
0
100
AcDbLine
 62
7
  6
CONTINUOUS
 10
-6.5000713514
 20
-1.9038457547
 11
-6.1000713514
 21
-1.9038457547
  0
LINE
  5
2FD
100
AcDbEntity
  8
0
100
AcDbLine
 62
7
  6
CONTINUOUS
 10
-5.8000713514
 20
-1.7038457547
 11
-1.7000713514
 21
-1.7038457547
  0
LINE
  5
2FE
100
AcDbEntity
  8
0
100
AcDbLine
 62
7
  6
CONTINUOUS
 10
2.2999286486
 20
-1.7038457547
 11
6.3999286486
 21
-1.7038457547
  0
LINE
  5
2FF
100
AcDbEntity
  8
0
100
AcDbLine
 62
7
  6
CONTINUOUS
 10
6.3999286486
 20
-1.3438457547
 11
7.0999286486
 21
-1.3438457547
  0
LINE
  5
300
100
AcDbEntity
  8
0
100
AcDbLine
 62
7
  6
CONTINUOUS
 10
3.4499286486
 20
-1.0512093812
 11
2.6499286486
 21
-1.0512093812
  0
LINE
  5
301
100
AcDbEntity
  8
0
100
AcDbLine
 62
7
  6
CONTINUOUS
 10
1.9499286486
 20
-1.0512093812
 11
1.1499286486
 21
-1.0512093812
  0
LINE
  5
302
100
AcDbEntity
  8
0
100
AcDbLine
 62
7
  6
CONTINUOUS
 10
0.4499286486
 20
-1.0512093812
 11
-0.3500713514
 21
-1.0512093812
  0
LINE
  5
303
100
AcDbEntity
  8
0
100
AcDbLine
 62
7
  6
CONTINUOUS
 10
-1.0500713514
 20
-1.0512093812
 11
-1.8500713514
 21
-1.0512093812
  0
LINE
  5
304
100
AcDbEntity
  8
0
100
AcDbLine
 62
7
  6
CONTINUOUS
 10
-2.5500713514
 20
-1.0512093812
 11
-3.3500713514
 21
-1.0512093812
  0
LINE
  5
305
100
AcDbEntity
  8
0
100
AcDbLine
 62
7
  6
CONTINUOUS
 10
-4.0500713514
 20
-1.0512093812
 11
-4.8500713514
 21
-1.0512093812
  0
LINE
  5
306
100
AcDbEntity
  8
SCRITTE
100
AcDbLine
 62
253
  6
CONTINUOUS
 10
11.3782231721
 20
-10.3346247547
 11
11.3451734205
 21
-10.2040077547
  0
LINE
  5
307
100
AcDbEntity
  8
SCRITTE
100
AcDbLine
 62
253
  6
CONTINUOUS
 10
11.3276095407
 20
-10.6518507547
 11
11.3782231721
 21
-10.9136727547
  0
LINE
  5
308
100
AcDbEntity
  8
SCRITTE
100
AcDbLine
 62
253
  6
CONTINUOUS
 10
11.3603002416
 20
-6.9883457547
 11
11.3415168812
 21
-6.6869717547
  0
LINE
  5
309
100
AcDbEntity
  8
SCRITTE
100
AcDbLine
 62
253
  6
CONTINUOUS
 10
11.3276095407
 20
-12.6742557547
 11
11.3624484714
 21
-13.2438667547
  0
LINE
  5
30A
100
AcDbEntity
  8
SCRITTE
100
AcDbLine
 62
253
  6
CONTINUOUS
 10
11.3782231721
 20
-7.2791747547
 11
11.3681188888
 21
-7.1121577547
  0
LINE
  5
30B
100
AcDbEntity
  8
SCRITTE
100
AcDbLine
 62
253
  6
CONTINUOUS
 10
11.3276095407
 20
-6.9683627547
 11
11.3782231721
 21
-7.8778787547
  0
LINE
  5
30C
100
AcDbEntity
  8
SCRITTE
100
AcDbLine
 62
253
  6
CONTINUOUS
 10
11.3782231721
 20
-13.0014627547
 11
11.3276095407
 21
-12.0693977547
  0
LINE
  5
30D
100
AcDbEntity
  8
SCRITTE
100
AcDbLine
 62
253
  6
CONTINUOUS
 10
11.3276095407
 20
-8.8429297547
 11
11.3557103799
 21
-9.4482007547
  0
LINE
  5
30E
100
AcDbEntity
  8
SCRITTE
100
AcDbLine
 62
253
  6
CONTINUOUS
 10
11.3782231721
 20
-9.4090617547
 11
11.3453111933
 21
-8.6893937547
  0
LINE
  5
30F
100
AcDbEntity
  8
SCRITTE
100
AcDbLine
 62
253
  6
CONTINUOUS
 10
11.4092832829
 20
10.8818685371
 11
11.4140210859
 21
10.7461542453
  0
LINE
  5
310
100
AcDbEntity
  8
SCRITTE
100
AcDbLine
 62
253
  6
CONTINUOUS
 10
11.4329722996
 20
11.5604399677
 11
11.4282344961
 21
11.6961542453
  0
LINE
  5
311
100
AcDbEntity
  8
SCRITTE
100
AcDbLine
 62
253
  6
CONTINUOUS
 10
11.4116521854
 20
15.0890115823
 11
11.4045454798
 21
15.3604400243
  0
LINE
  5
312
100
AcDbEntity
  8
SCRITTE
100
AcDbLine
 62
253
  6
CONTINUOUS
 10
11.4140210859
 20
16.0390115823
 11
11.4377101032
 21
15.0890115823
  0
LINE
  5
313
100
AcDbEntity
  8
SCRITTE
100
AcDbLine
 62
253
  6
CONTINUOUS
 10
11.4045454798
 20
11.1532971065
 11
11.4092832829
 21
10.8818685371
  0
LINE
  5
314
100
AcDbEntity
  8
SCRITTE
100
AcDbLine
 62
253
  6
CONTINUOUS
 10
11.4092832829
 20
12.2390113558
 11
11.4045454798
 21
12.5104399111
  0
LINE
  5
315
100
AcDbEntity
  8
SCRITTE
100
AcDbLine
 62
253
  6
CONTINUOUS
 10
11.4377101032
 20
11.2890114124
 11
11.4329722996
 21
11.5604399677
  0
LINE
  5
316
100
AcDbEntity
  8
SCRITTE
100
AcDbLine
 62
253
  6
CONTINUOUS
 10
11.4282344961
 20
13.0532971348
 11
11.4377101032
 21
12.5104399111
  0
LINE
  5
317
100
AcDbEntity
  8
SCRITTE
100
AcDbLine
 62
253
  6
CONTINUOUS
 10
11.4353412014
 20
14.5461542453
 11
11.4377101032
 21
14.4104400243
  0
LINE
  5
318
100
AcDbEntity
  8
SCRITTE
100
AcDbLine
 62
253
  6
CONTINUOUS
 10
11.4163899885
 20
14.5009160962
 11
11.418758889
 21
14.2747255768
  0
LINE
  5
319
100
AcDbEntity
  8
ASSI
100
AcDbLine
 62
7
  6
CONTINUOUS
 10
9.4999286486
 20
13.2961542453
 11
9.4999286486
 21
-10.9038457547
  0
LINE
  5
31A
100
AcDbEntity
  8
RACCORDO
100
AcDbLine
 62
7
  6
CONTINUOUS
 10
9.4999286486
 20
13.2961542453
 11
9.4999286486
 21
-10.9038457547
  0
LINE
  5
31B
100
AcDbEntity
  8
ASSI
100
AcDbLine
 62
7
  6
CONTINUOUS
 10
9.7999286486
 20
13.2961542453
 11
9.7999286486
 21
-10.9038457547
  0
LINE
  5
31C
100
AcDbEntity
  8
RACCORDO
100
AcDbLine
 62
7
  6
CONTINUOUS
 10
9.7999286486
 20
13.2961542453
 11
9.7999286486
 21
-10.9038457547
  0
LINE
  5
31D
100
AcDbEntity
  8
0
100
AcDbLine
 62
253
  6
CONTINUOUS
 10
10.8004637112
 20
-19.4721599856
 11
10.8004637112
 21
22.5644684762
  0
LINE
  5
31E
100
AcDbEntity
  8
SCRITTE
100
AcDbLine
 62
253
  6
CONTINUOUS
 10
11.3276065035
 20
-11.8447807547
 11
11.3276065035
 21
-11.2395097547
  0
LINE
  5
31F
100
AcDbEntity
  8
SCRITTE
100
AcDbLine
 62
253
  6
CONTINUOUS
 10
11.3276095407
 20
-6.3828357547
 11
11.3276095407
 21
-6.9683627547
  0
LINE
  5
320
100
AcDbEntity
  8
SCRITTE
100
AcDbLine
 62
253
  6
CONTINUOUS
 10
11.3276095407
 20
-8.2440727547
 11
11.3276095407
 21
-8.8429297547
  0
LINE
  5
321
100
AcDbEntity
  8
SCRITTE
100
AcDbLine
 62
253
  6
CONTINUOUS
 10
11.3276095407
 20
-10.0470797547
 11
11.3276095407
 21
-10.6518507547
  0
LINE
  5
322
100
AcDbEntity
  8
SCRITTE
100
AcDbLine
 62
253
  6
CONTINUOUS
 10
11.3276095407
 20
-12.0693977547
 11
11.3276095407
 21
-12.6742557547
  0
LINE
  5
323
100
AcDbEntity
  8
SCRITTE
100
AcDbLine
 62
253
  6
CONTINUOUS
 10
11.3276095407
 20
-13.7965937547
 11
11.3276095407
 21
-14.4541057547
  0
LINE
  5
324
100
AcDbEntity
  8
SCRITTE
100
AcDbLine
 62
253
  6
CONTINUOUS
 10
11.3277586194
 20
7.0835376915
 11
11.3277586194
 21
7.4937694874
  0
LINE
  5
325
100
AcDbEntity
  8
SCRITTE
100
AcDbLine
 62
253
  6
CONTINUOUS
 10
11.3277586194
 20
9.0290606784
 11
11.3277586194
 21
9.3946305681
  0
LINE
  5
326
100
AcDbEntity
  8
SCRITTE
100
AcDbLine
 62
253
  6
CONTINUOUS
 10
11.3277586194
 20
10.2028007496
 11
11.3277586194
 21
12.2051750015
  0
LINE
  5
327
100
AcDbEntity
  8
SCRITTE
100
AcDbLine
 62
253
  6
CONTINUOUS
 10
11.3277586194
 20
12.5462860029
 11
11.3277586194
 21
12.9645826306
  0
LINE
  5
328
100
AcDbEntity
  8
SCRITTE
100
AcDbLine
 62
253
  6
CONTINUOUS
 10
11.3277586194
 20
14.6379840671
 11
11.3277586194
 21
15.0401254447
  0
LINE
  5
329
100
AcDbEntity
  8
SCRITTE
100
AcDbLine
 62
253
  6
CONTINUOUS
 10
11.3277586194
 20
15.5315360503
 11
11.3277586194
 21
17.5338847158
  0
LINE
  5
32A
100
AcDbEntity
  8
SCRITTE
100
AcDbLine
 62
253
  6
CONTINUOUS
 10
11.3334285392
 20
17.5338847158
 11
11.3334285392
 21
15.9173891286
  0
LINE
  5
32B
100
AcDbEntity
  8
SCRITTE
100
AcDbLine
 62
253
  6
CONTINUOUS
 10
11.3334285392
 20
12.2051750015
 11
11.3334285392
 21
10.5886521221
  0
LINE
  5
32C
100
AcDbEntity
  8
SCRITTE
100
AcDbLine
 62
253
  6
CONTINUOUS
 10
11.3377520358
 20
7.4572269974
 11
11.3377520358
 21
7.4490819948
  0
LINE
  5
32D
100
AcDbEntity
  8
SCRITTE
100
AcDbLine
 62
253
  6
CONTINUOUS
 10
11.349517278
 20
10.5886521221
 11
11.349517278
 21
12.0955168278
  0
LINE
  5
32E
100
AcDbEntity
  8
SCRITTE
100
AcDbLine
 62
253
  6
CONTINUOUS
 10
11.349517278
 20
15.9173891286
 11
11.349517278
 21
17.4243067128
  0
LINE
  5
32F
100
AcDbEntity
  8
SCRITTE
100
AcDbLine
 62
253
  6
CONTINUOUS
 10
11.3501265064
 20
-4.7326470265
 11
11.3501265064
 21
-4.3867404304
  0
LINE
  5
330
100
AcDbEntity
  8
SCRITTE
100
AcDbLine
 62
253
  6
CONTINUOUS
 10
11.3551871978
 20
17.4243067128
 11
11.3551871978
 21
15.9173891286
  0
LINE
  5
331
100
AcDbEntity
  8
SCRITTE
100
AcDbLine
 62
253
  6
CONTINUOUS
 10
11.3551871978
 20
12.0955168278
 11
11.3551871978
 21
10.5886521221
  0
LINE
  5
332
100
AcDbEntity
  8
SCRITTE
100
AcDbLine
 62
253
  6
CONTINUOUS
 10
11.358415797
 20
-4.3880450819
 11
11.358415797
 21
-4.7125771379
  0
LINE
  5
333
100
AcDbEntity
  8
SCRITTE
100
AcDbLine
 62
253
  6
CONTINUOUS
 10
11.3603002416
 20
-6.4088417547
 11
11.3603002416
 21
-6.9883457547
  0
LINE
  5
334
100
AcDbEntity
  8
SCRITTE
100
AcDbLine
 62
253
  6
CONTINUOUS
 10
11.3681188888
 20
-7.1121577547
 11
11.3681188888
 21
-6.2878787547
  0
LINE
  5
335
100
AcDbEntity
  8
SCRITTE
100
AcDbLine
 62
253
  6
CONTINUOUS
 10
11.3687948983
 20
9.020942968
 11
11.3687948983
 21
9.0290606784
  0
LINE
  5
336
100
AcDbEntity
  8
SCRITTE
100
AcDbLine
 62
253
  6
CONTINUOUS
 10
11.3716298731
 20
13.7931929306
 11
11.3716298731
 21
13.8013362274
  0
LINE
  5
337
100
AcDbEntity
  8
SCRITTE
100
AcDbLine
 62
253
  6
CONTINUOUS
 10
11.3726929626
 20
10.5886521221
 11
11.3726929626
 21
12.2173643603
  0
LINE
  5
338
100
AcDbEntity
  8
SCRITTE
100
AcDbLine
 62
253
  6
CONTINUOUS
 10
11.3726929626
 20
15.9173891286
 11
11.3726929626
 21
17.5461542453
  0
LINE
  5
339
100
AcDbEntity
  8
SCRITTE
100
AcDbLine
 62
253
  6
CONTINUOUS
 10
11.3782231721
 20
-11.2395097547
 11
11.3782231721
 21
-11.8447807547
  0
LINE
  5
33A
100
AcDbEntity
  8
SCRITTE
100
AcDbLine
 62
253
  6
CONTINUOUS
 10
11.3782231721
 20
-13.5348587547
 11
11.3782231721
 21
-13.0014627547
  0
LINE
  5
33B
100
AcDbEntity
  8
SCRITTE
100
AcDbLine
 62
253
  6
CONTINUOUS
 10
11.3782231721
 20
-10.9136727547
 11
11.3782231721
 21
-10.3346247547
  0
LINE
  5
33C
100
AcDbEntity
  8
SCRITTE
100
AcDbLine
 62
253
  6
CONTINUOUS
 10
11.3782231721
 20
-9.4939507547
 11
11.3782231721
 21
-9.4090617547
  0
LINE
  5
33D
100
AcDbEntity
  8
SCRITTE
100
AcDbLine
 62
253
  6
CONTINUOUS
 10
11.3782231721
 20
-8.5650387547
 11
11.3782231721
 21
-7.9729227547
  0
LINE
  5
33E
100
AcDbEntity
  8
SCRITTE
100
AcDbLine
 62
253
  6
CONTINUOUS
 10
11.3782231721
 20
-7.8778787547
 11
11.3782231721
 21
-7.2791747547
  0
LINE
  5
33F
100
AcDbEntity
  8
SCRITTE
100
AcDbLine
 62
253
  6
CONTINUOUS
 10
11.3782231721
 20
-6.1310807547
 11
11.3782231721
 21
-5.4931497547
  0
LINE
  5
340
100
AcDbEntity
  8
SCRITTE
100
AcDbLine
 62
253
  6
CONTINUOUS
 10
11.3782231783
 20
-3.2034867695
 11
11.3782231783
 21
-3.785687493
  0
LINE
  5
341
100
AcDbEntity
  8
SCRITTE
100
AcDbLine
 62
253
  6
CONTINUOUS
 10
11.3782231783
 20
-4.7125771379
 11
11.3782231783
 21
-5.315413099
  0
LINE
  5
342
100
AcDbEntity
  8
SCRITTE
100
AcDbLine
 62
253
  6
CONTINUOUS
 10
11.3783628824
 20
17.5461542453
 11
11.3783628824
 21
15.5315360503
  0
LINE
  5
343
100
AcDbEntity
  8
SCRITTE
100
AcDbLine
 62
253
  6
CONTINUOUS
 10
11.3783628824
 20
14.0084359238
 11
11.3783628824
 21
13.569803229
  0
LINE
  5
344
100
AcDbEntity
  8
SCRITTE
100
AcDbLine
 62
253
  6
CONTINUOUS
 10
11.3783628824
 20
12.2173643603
 11
11.3783628824
 21
10.2028007496
  0
LINE
  5
345
100
AcDbEntity
  8
SCRITTE
100
AcDbLine
 62
253
  6
CONTINUOUS
 10
11.3783628824
 20
9.3946305681
 11
11.3783628824
 21
8.9722094134
  0
LINE
  5
346
100
AcDbEntity
  8
SCRITTE
100
AcDbLine
 62
253
  6
CONTINUOUS
 10
11.3783628824
 20
7.4490819948
 11
11.3783628824
 21
7.0835376915
  0
LINE
  5
347
100
AcDbEntity
  8
SCRITTE
100
AcDbLine
 62
253
  6
CONTINUOUS
 10
11.4045454798
 20
11.2890114124
 11
11.4045454798
 21
11.1532971065
  0
LINE
  5
348
100
AcDbEntity
  8
SCRITTE
100
AcDbLine
 62
253
  6
CONTINUOUS
 10
11.4045454798
 20
12.5104399111
 11
11.4045454798
 21
12.9175829138
  0
LINE
  5
349
100
AcDbEntity
  8
SCRITTE
100
AcDbLine
 62
253
  6
CONTINUOUS
 10
11.4045454798
 20
13.7318684663
 11
11.4045454798
 21
14.2747255768
  0
LINE
  5
34A
100
AcDbEntity
  8
SCRITTE
100
AcDbLine
 62
253
  6
CONTINUOUS
 10
11.4045454798
 20
15.3604400243
 11
11.4045454798
 21
15.7675826873
  0
LINE
  5
34B
100
AcDbEntity
  8
SCRITTE
100
AcDbLine
 62
253
  6
CONTINUOUS
 10
11.418758889
 20
14.0032971348
 11
11.418758889
 21
14.2747255768
  0
LINE
  5
34C
100
AcDbEntity
  8
SCRITTE
100
AcDbLine
 62
253
  6
CONTINUOUS
 10
11.423496693
 20
13.098535284
 11
11.423496693
 21
12.5104399111
  0
LINE
  5
34D
100
AcDbEntity
  8
SCRITTE
100
AcDbLine
 62
253
  6
CONTINUOUS
 10
11.4306033981
 20
16.5818684663
 11
11.4306033981
 21
17.5318684663
  0
LINE
  5
34E
100
AcDbEntity
  8
SCRITTE
100
AcDbLine
 62
253
  6
CONTINUOUS
 10
11.4377101032
 20
14.4104400243
 11
11.4377101032
 21
13.7318684663
  0
LINE
  5
34F
100
AcDbEntity
  8
SCRITTE
100
AcDbLine
 62
253
  6
CONTINUOUS
 10
11.4377101032
 20
11.1532971065
 11
11.4377101032
 21
11.2890114124
  0
LINE
  5
350
100
AcDbEntity
  8
SCRITTE
100
AcDbLine
 62
253
  6
CONTINUOUS
 10
11.4377101032
 20
15.0890115823
 11
11.4377101032
 21
16.0390115823
  0
LINE
  5
351
100
AcDbEntity
  8
ASSI
100
AcDbLine
 62
7
  6
CONTINUOUS
 10
11.4499286486
 20
23.4459253933
 11
11.4499286486
 21
-20.3536169026
  0
LINE
  5
352
100
AcDbEntity
  8
0
100
AcDbLine
 62
7
  6
CONTINUOUS
 10
11.4499286486
 20
23.4459253933
 11
11.4499286486
 21
-20.3536169026
  0
LINE
  5
353
100
AcDbEntity
  8
SCRITTE
100
AcDbLine
 62
253
  6
CONTINUOUS
 10
11.4045454798
 20
15.7675826873
 11
11.4092832829
 21
16.0390115823
  0
LINE
  5
354
100
AcDbEntity
  8
SCRITTE
100
AcDbLine
 62
253
  6
CONTINUOUS
 10
11.418758889
 20
14.2747255768
 11
11.423496693
 21
14.5461542453
  0
LINE
  5
355
100
AcDbEntity
  8
SCRITTE
100
AcDbLine
 62
253
  6
CONTINUOUS
 10
11.4045454798
 20
12.9175829138
 11
11.4092832829
 21
13.1890113558
  0
LINE
  5
356
100
AcDbEntity
  8
SCRITTE
100
AcDbLine
 62
253
  6
CONTINUOUS
 10
11.423496693
 20
12.5104399111
 11
11.418758889
 21
12.2390113558
  0
LINE
  5
357
100
AcDbEntity
  8
SCRITTE
100
AcDbLine
 62
253
  6
CONTINUOUS
 10
11.4092832829
 20
11.5604399677
 11
11.4045454798
 21
11.2890114124
  0
LINE
  5
358
100
AcDbEntity
  8
SCRITTE
100
AcDbLine
 62
253
  6
CONTINUOUS
 10
11.4329722996
 20
10.8818685371
 11
11.4377101032
 21
11.1532971065
  0
LINE
  5
359
100
AcDbEntity
  8
SCRITTE
100
AcDbLine
 62
253
  6
CONTINUOUS
 10
11.4045454798
 20
14.2747255768
 11
11.4092832829
 21
14.5009160962
  0
LINE
  5
35A
100
AcDbEntity
  8
SCRITTE
100
AcDbLine
 62
253
  6
CONTINUOUS
 10
11.3277586194
 20
7.4937694874
 11
11.3687948983
 21
9.020942968
  0
LINE
  5
35B
100
AcDbEntity
  8
SCRITTE
100
AcDbLine
 62
253
  6
CONTINUOUS
 10
11.3783628824
 20
8.9722094134
 11
11.3377520358
 21
7.4572269974
  0
LINE
  5
35C
100
AcDbEntity
  8
SCRITTE
100
AcDbLine
 62
253
  6
CONTINUOUS
 10
11.4140210859
 20
11.6961542453
 11
11.4092832829
 21
11.5604399677
  0
LINE
  5
35D
100
AcDbEntity
  8
SCRITTE
100
AcDbLine
 62
253
  6
CONTINUOUS
 10
11.4282344961
 20
10.7461542453
 11
11.4329722996
 21
10.8818685371
  0
LINE
  5
35E
100
AcDbEntity
  8
SCRITTE
100
AcDbLine
 62
253
  6
CONTINUOUS
 10
11.3451734205
 20
-10.2040077547
 11
11.3782231721
 21
-9.4939507547
  0
LINE
  5
35F
100
AcDbEntity
  8
SCRITTE
100
AcDbLine
 62
253
  6
CONTINUOUS
 10
11.3557103799
 20
-9.4482007547
 11
11.3276095407
 21
-10.0470797547
  0
LINE
  5
360
100
AcDbEntity
  8
SCRITTE
100
AcDbLine
 62
253
  6
CONTINUOUS
 10
11.3783628824
 20
13.569803229
 11
11.3277586194
 21
12.5462860029
  0
LINE
  5
361
100
AcDbEntity
  8
SCRITTE
100
AcDbLine
 62
253
  6
CONTINUOUS
 10
11.3277586194
 20
12.9645826306
 11
11.3716298731
 21
13.7931929306
  0
LINE
  5
362
100
AcDbEntity
  8
SCRITTE
100
AcDbLine
 62
253
  6
CONTINUOUS
 10
11.3782231721
 20
-5.4931497547
 11
11.3276095407
 21
-6.3828357547
  0
LINE
  5
363
100
AcDbEntity
  8
SCRITTE
100
AcDbLine
 62
253
  6
CONTINUOUS
 10
11.3681188888
 20
-6.2878787547
 11
11.3782231721
 21
-6.1310807547
  0
LINE
  5
364
100
AcDbEntity
  8
SCRITTE
100
AcDbLine
 62
253
  6
CONTINUOUS
 10
11.3415168812
 20
-6.6869717547
 11
11.3603002416
 21
-6.4088417547
  0
LINE
  5
365
100
AcDbEntity
  8
0
100
AcDbLine
 62
7
  6
CONTINUOUS
 10
7.0999286486
 20
0.8361542453
 11
6.3999286486
 21
0.8361542453
  0
LINE
  5
366
100
AcDbEntity
  8
RACCORDO
100
AcDbLine
 62
7
  6
CONTINUOUS
 10
-6.5000713514
 20
0.9375402712
 11
-5.9736110491
 21
0.9375402712
  0
LINE
  5
367
100
AcDbEntity
  8
ASSI
100
AcDbLine
 62
7
  6
CONTINUOUS
 10
-6.5000713514
 20
0.9375402712
 11
-5.9736110491
 21
0.9375402712
  0
LINE
  5
368
100
AcDbEntity
  8
SCRITTE
100
AcDbLine
 62
253
  6
CONTINUOUS
 10
11.418758889
 20
13.1890113558
 11
11.4282344961
 21
13.0532971348
  0
LINE
  5
369
100
AcDbEntity
  8
SCRITTE
100
AcDbLine
 62
253
  6
CONTINUOUS
 10
11.4045454798
 20
16.9890115823
 11
11.4306033981
 21
16.5818684663
  0
LINE
  5
36A
100
AcDbEntity
  8
SCRITTE
100
AcDbLine
 62
253
  6
CONTINUOUS
 10
11.3716298731
 20
13.8013362274
 11
11.3277586194
 21
14.6379840671
  0
LINE
  5
36B
100
AcDbEntity
  8
SCRITTE
100
AcDbLine
 62
253
  6
CONTINUOUS
 10
11.3277586194
 20
15.0401254447
 11
11.3783628824
 21
14.0084359238
  0
LINE
  5
36C
100
AcDbEntity
  8
SCRITTE
100
AcDbLine
 62
253
  6
CONTINUOUS
 10
11.3276095407
 20
-14.4541057547
 11
11.3782231721
 21
-13.5348587547
  0
LINE
  5
36D
100
AcDbEntity
  8
SCRITTE
100
AcDbLine
 62
253
  6
CONTINUOUS
 10
11.3624484714
 20
-13.2438667547
 11
11.3276095407
 21
-13.7965937547
  0
LINE
  5
36E
100
AcDbEntity
  8
SCRITTE
100
AcDbLine
 62
253
  6
CONTINUOUS
 10
11.3782231721
 20
-7.9729227547
 11
11.3276095407
 21
-8.2440727547
  0
LINE
  5
36F
100
AcDbEntity
  8
SCRITTE
100
AcDbLine
 62
253
  6
CONTINUOUS
 10
11.3453111933
 20
-8.6893937547
 11
11.3782231721
 21
-8.5650387547
  0
LINE
  5
370
100
AcDbEntity
  8
0
100
AcDbLine
 62
7
  6
CONTINUOUS
 10
6.3999286486
 20
2.1761542453
 11
5.0999286486
 21
2.1761542453
  0
LINE
  5
371
100
AcDbEntity
  8
0
100
AcDbLine
 62
7
  6
CONTINUOUS
 10
5.0999286486
 20
3.0961542453
 11
-6.5000713514
 21
3.0961542453
  0
LINE
  5
372
100
AcDbEntity
  8
ASSI
100
AcDbLine
 62
7
  6
CONTINUOUS
 10
7.9499591096
 20
4.1211542453
 11
-7.3501018123
 21
4.1211542453
  0
LINE
  5
373
100
AcDbEntity
  8
RACCORDO
100
AcDbLine
 62
7
  6
CONTINUOUS
 10
7.9499591096
 20
4.1211542453
 11
-7.3501018123
 21
4.1211542453
  0
LINE
  5
374
100
AcDbEntity
  8
ASSI
100
AcDbLine
 62
253
  6
CONTINUOUS
 10
-7.3675534385
 20
4.1385945402
 11
7.9674135258
 21
4.1385945402
  0
LINE
  5
375
100
AcDbEntity
  8
RACCORDO
100
AcDbLine
 62
253
  6
CONTINUOUS
 10
-7.3675534385
 20
4.1385945402
 11
7.9674135258
 21
4.1385945402
  0
LINE
  5
376
100
AcDbEntity
  8
ASSI
100
AcDbLine
 62
253
  6
CONTINUOUS
 10
-7.3675421072
 20
4.6416138474
 11
7.9673994045
 21
4.6416138474
  0
LINE
  5
377
100
AcDbEntity
  8
RACCORDO
100
AcDbLine
 62
253
  6
CONTINUOUS
 10
-7.3675421072
 20
4.6416138474
 11
7.9673994045
 21
4.6416138474
  0
LINE
  5
378
100
AcDbEntity
  8
SCRITTE
100
AcDbLine
 62
253
  6
CONTINUOUS
 10
11.3783628824
 20
7.0835376915
 11
11.3277586194
 21
7.0835376915
  0
LINE
  5
379
100
AcDbEntity
  8
SCRITTE
100
AcDbLine
 62
253
  6
CONTINUOUS
 10
11.3377520358
 20
7.4490819948
 11
11.3783628824
 21
7.4490819948
  0
LINE
  5
37A
100
AcDbEntity
  8
SCRITTE
100
AcDbLine
 62
253
  6
CONTINUOUS
 10
11.3687948983
 20
9.0290606784
 11
11.3277586194
 21
9.0290606784
  0
LINE
  5
37B
100
AcDbEntity
  8
SCRITTE
100
AcDbLine
 62
253
  6
CONTINUOUS
 10
11.3277586194
 20
9.3946305681
 11
11.3783628824
 21
9.3946305681
  0
LINE
  5
37C
100
AcDbEntity
  8
SCRITTE
100
AcDbLine
 62
253
  6
CONTINUOUS
 10
11.3783628824
 20
10.2028007496
 11
11.3277586194
 21
10.2028007496
  0
LINE
  5
37D
100
AcDbEntity
  8
SCRITTE
100
AcDbLine
 62
253
  6
CONTINUOUS
 10
11.3551871978
 20
10.5886521221
 11
11.3726929626
 21
10.5886521221
  0
LINE
  5
37E
100
AcDbEntity
  8
SCRITTE
100
AcDbLine
 62
253
  6
CONTINUOUS
 10
11.3334285392
 20
10.5886521221
 11
11.349517278
 21
10.5886521221
  0
LINE
  5
37F
100
AcDbEntity
  8
SCRITTE
100
AcDbLine
 62
253
  6
CONTINUOUS
 10
11.4140210859
 20
10.7461542453
 11
11.4282344961
 21
10.7461542453
  0
LINE
  5
380
100
AcDbEntity
  8
SCRITTE
100
AcDbLine
 62
253
  6
CONTINUOUS
 10
11.4282344961
 20
11.6961542453
 11
11.4140210859
 21
11.6961542453
  0
LINE
  5
381
100
AcDbEntity
  8
SCRITTE
100
AcDbLine
 62
253
  6
CONTINUOUS
 10
11.349517278
 20
12.0955168278
 11
11.3551871978
 21
12.0955168278
  0
LINE
  5
382
100
AcDbEntity
  8
SCRITTE
100
AcDbLine
 62
253
  6
CONTINUOUS
 10
11.3277586194
 20
12.2051750015
 11
11.3334285392
 21
12.2051750015
  0
LINE
  5
383
100
AcDbEntity
  8
SCRITTE
100
AcDbLine
 62
253
  6
CONTINUOUS
 10
11.3726929626
 20
12.2173643603
 11
11.3783628824
 21
12.2173643603
  0
LINE
  5
384
100
AcDbEntity
  8
SCRITTE
100
AcDbLine
 62
253
  6
CONTINUOUS
 10
11.418758889
 20
12.2390113558
 11
11.4092832829
 21
12.2390113558
  0
LINE
  5
385
100
AcDbEntity
  8
SCRITTE
100
AcDbLine
 62
253
  6
CONTINUOUS
 10
11.4092832829
 20
13.1890113558
 11
11.418758889
 21
13.1890113558
  0
LINE
  5
386
100
AcDbEntity
  8
ASSI
100
AcDbLine
 62
7
  6
CONTINUOUS
 10
-8.4000713514
 20
13.7961542453
 11
8.9999286486
 21
13.7961542453
  0
LINE
  5
387
100
AcDbEntity
  8
RACCORDO
100
AcDbLine
 62
7
  6
CONTINUOUS
 10
-8.4000713514
 20
13.7961542453
 11
8.9999286486
 21
13.7961542453
  0
LINE
  5
388
100
AcDbEntity
  8
ASSI
100
AcDbLine
 62
7
  6
CONTINUOUS
 10
-8.4000713514
 20
14.0961542453
 11
8.9999286486
 21
14.0961542453
  0
LINE
  5
389
100
AcDbEntity
  8
RACCORDO
100
AcDbLine
 62
7
  6
CONTINUOUS
 10
-8.4000713514
 20
14.0961542453
 11
8.9999286486
 21
14.0961542453
  0
LINE
  5
38A
100
AcDbEntity
  8
SCRITTE
100
AcDbLine
 62
253
  6
CONTINUOUS
 10
11.4092832829
 20
14.5009160962
 11
11.4163899885
 21
14.5009160962
  0
LINE
  5
38B
100
AcDbEntity
  8
SCRITTE
100
AcDbLine
 62
253
  6
CONTINUOUS
 10
11.423496693
 20
14.5461542453
 11
11.4353412014
 21
14.5461542453
  0
LINE
  5
38C
100
AcDbEntity
  8
ASSI
100
AcDbLine
 62
7
  6
CONTINUOUS
 10
3.0812069898
 20
-20.9848652029
 11
3.2999286486
 21
-20.8538457547
  0
LINE
  5
38D
100
AcDbEntity
  8
DRAFT
100
AcDbLine
 62
7
  6
CONTINUOUS
 10
3.0812069898
 20
-20.9848652029
 11
3.2999286486
 21
-20.8538457547
  0
LINE
  5
38E
100
AcDbEntity
  8
SCRITTE
100
AcDbLine
 62
253
  6
CONTINUOUS
 10
11.3783628824
 20
15.5315360503
 11
11.3277586194
 21
15.5315360503
  0
LINE
  5
38F
100
AcDbEntity
  8
SCRITTE
100
AcDbLine
 62
253
  6
CONTINUOUS
 10
11.3551871978
 20
15.9173891286
 11
11.3726929626
 21
15.9173891286
  0
LINE
  5
390
100
AcDbEntity
  8
SCRITTE
100
AcDbLine
 62
253
  6
CONTINUOUS
 10
11.3334285392
 20
15.9173891286
 11
11.349517278
 21
15.9173891286
  0
LINE
  5
391
100
AcDbEntity
  8
SCRITTE
100
AcDbLine
 62
253
  6
CONTINUOUS
 10
11.4092832829
 20
16.0390115823
 11
11.4140210859
 21
16.0390115823
  0
LINE
  5
392
100
AcDbEntity
  8
SCRITTE
100
AcDbLine
 62
253
  6
CONTINUOUS
 10
11.4211277915
 20
17.2152016487
 11
11.4377101032
 21
17.2152016487
  0
LINE
  5
393
100
AcDbEntity
  8
SCRITTE
100
AcDbLine
 62
253
  6
CONTINUOUS
 10
11.349517278
 20
17.4243067128
 11
11.3551871978
 21
17.4243067128
  0
LINE
  5
394
100
AcDbEntity
  8
SCRITTE
100
AcDbLine
 62
253
  6
CONTINUOUS
 10
11.3277586194
 20
17.5338847158
 11
11.3334285392
 21
17.5338847158
  0
LINE
  5
395
100
AcDbEntity
  8
SCRITTE
100
AcDbLine
 62
253
  6
CONTINUOUS
 10
11.3726929626
 20
17.5461542453
 11
11.3783628824
 21
17.5461542453
  0
LINE
  5
396
100
AcDbEntity
  8
ASSI
100
AcDbLine
 62
7
  6
CONTINUOUS
 10
3.2999286486
 20
23.9461542453
 11
3.0812069898
 21
24.0771736935
  0
LINE
  5
397
100
AcDbEntity
  8
DRAFT
100
AcDbLine
 62
7
  6
CONTINUOUS
 10
3.2999286486
 20
23.9461542453
 11
3.0812069898
 21
24.0771736935
  0
LINE
  5
398
100
AcDbEntity
  8
ASSI
100
AcDbLine
 62
253
  6
CONTINUOUS
 10
-10.2006064139
 20
22.5644684762
 11
10.8004637112
 21
22.5644684762
  0
LINE
  5
399
100
AcDbEntity
  8
0
100
AcDbLine
 62
253
  6
CONTINUOUS
 10
-10.2006064139
 20
22.5644684762
 11
10.8004637112
 21
22.5644684762
  0
LINE
  5
39A
100
AcDbEntity
  8
ASSI
100
AcDbLine
 62
7
  6
CONTINUOUS
 10
-2.7000713514
 20
25.0461542453
 11
-2.4813496925
 21
25.002516583
  0
LINE
  5
39B
100
AcDbEntity
  8
DRAFT
100
AcDbLine
 62
7
  6
CONTINUOUS
 10
-2.7000713514
 20
25.0461542453
 11
-2.4813496925
 21
25.002516583
  0
LINE
  5
39C
100
AcDbEntity
  8
ASSI
100
AcDbLine
 62
253
  6
CONTINUOUS
 10
-10.2088694681
 20
23.5210613825
 11
10.8087267654
 21
23.5210613825
  0
LINE
  5
39D
100
AcDbEntity
  8
0
100
AcDbLine
 62
253
  6
CONTINUOUS
 10
-10.2088694681
 20
23.5210613825
 11
10.8087267654
 21
23.5210613825
  0
LINE
  5
39E
100
AcDbEntity
  8
ASSI
100
AcDbLine
 62
7
  6
CONTINUOUS
 10
-10.3504519511
 20
23.9461542453
 11
-2.7000713514
 21
23.9461542453
  0
LINE
  5
39F
100
AcDbEntity
  8
DRAFT
100
AcDbLine
 62
7
  6
CONTINUOUS
 10
-10.3504519511
 20
23.9461542453
 11
-2.7000713514
 21
23.9461542453
  0
LINE
  5
3A0
100
AcDbEntity
  8
ASSI
100
AcDbLine
 62
7
  6
CONTINUOUS
 10
3.2999286486
 20
23.9461542453
 11
10.9503092484
 21
23.9461542453
  0
LINE
  5
3A1
100
AcDbEntity
  8
DRAFT
100
AcDbLine
 62
7
  6
CONTINUOUS
 10
3.2999286486
 20
23.9461542453
 11
10.9503092484
 21
23.9461542453
  0
LINE
  5
3A2
100
AcDbEntity
  8
ASSI
100
AcDbLine
 62
7
  6
CONTINUOUS
 10
3.0812069898
 20
24.0771736935
 11
-2.4813496925
 21
24.0771736935
  0
LINE
  5
3A3
100
AcDbEntity
  8
DRAFT
100
AcDbLine
 62
7
  6
CONTINUOUS
 10
3.0812069898
 20
24.0771736935
 11
-2.4813496925
 21
24.0771736935
  0
LINE
  5
3A4
100
AcDbEntity
  8
ASSI
100
AcDbLine
 62
7
  6
CONTINUOUS
 10
-2.4813496925
 20
25.002516583
 11
3.0812069898
 21
25.002516583
  0
LINE
  5
3A5
100
AcDbEntity
  8
DRAFT
100
AcDbLine
 62
7
  6
CONTINUOUS
 10
-2.4813496925
 20
25.002516583
 11
3.0812069898
 21
25.002516583
  0
LINE
  5
3A6
100
AcDbEntity
  8
ASSI
100
AcDbLine
 62
7
  6
CONTINUOUS
 10
-3.673408699
 20
25.0461542453
 11
-2.7000713514
 21
25.0461542453
  0
LINE
  5
3A7
100
AcDbEntity
  8
DRAFT
100
AcDbLine
 62
7
  6
CONTINUOUS
 10
-3.673408699
 20
25.0461542453
 11
-2.7000713514
 21
25.0461542453
  0
LINE
  5
3A8
100
AcDbEntity
  8
ASSI
100
AcDbLine
 62
7
  6
CONTINUOUS
 10
3.2999286486
 20
25.0461542453
 11
4.2732659963
 21
25.0461542453
  0
LINE
  5
3A9
100
AcDbEntity
  8
DRAFT
100
AcDbLine
 62
7
  6
CONTINUOUS
 10
3.2999286486
 20
25.0461542453
 11
4.2732659963
 21
25.0461542453
  0
LINE
  5
3AA
100
AcDbEntity
  8
ASSI
100
AcDbLine
 62
7
  6
CONTINUOUS
 10
3.2999286486
 20
25.0461542453
 11
3.0812069898
 21
25.002516583
  0
LINE
  5
3AB
100
AcDbEntity
  8
DRAFT
100
AcDbLine
 62
7
  6
CONTINUOUS
 10
3.2999286486
 20
25.0461542453
 11
3.0812069898
 21
25.002516583
  0
LINE
  5
3AC
100
AcDbEntity
  8
SCRITTE
100
AcDbLine
 62
7
  6
CONTINUOUS
 10
-61.2750815119
 20
17.1330790739
 11
-60.9502520216
 21
17.4579085642
  0
LINE
  5
3AD
100
AcDbEntity
  8
SCRITTE
100
AcDbLine
 62
7
  6
CONTINUOUS
 10
-61.2750815119
 20
16.7130576459
 11
-60.9502520216
 21
17.0378871362
  0
LINE
  5
3AE
100
AcDbEntity
  8
SCRITTE
100
AcDbLine
 62
7
  6
CONTINUOUS
 10
-61.2750815119
 20
16.2930362179
 11
-60.9502520216
 21
16.6178657082
  0
LINE
  5
3AF
100
AcDbEntity
  8
SCRITTE
100
AcDbLine
 62
7
  6
CONTINUOUS
 10
-61.2750815119
 20
15.8730147898
 11
-60.9502520216
 21
16.1978442801
  0
LINE
  5
3B0
100
AcDbEntity
  8
SCRITTE
100
AcDbLine
 62
7
  6
CONTINUOUS
 10
-60.0285287966
 20
17.1195675052
 11
-59.7237895889
 21
17.4243067128
  0
LINE
  5
3B1
100
AcDbEntity
  8
ASSI
100
AcDbLine
 62
7
  6
CONTINUOUS
 10
-54.2759652233
 20
-21.9538457547
 11
-50.2759652233
 21
-21.884025495
  0
LINE
  5
3B2
100
AcDbEntity
  8
DRAFT
100
AcDbLine
 62
7
  6
CONTINUOUS
 10
-54.2759652233
 20
-21.9538457547
 11
-50.2759652233
 21
-21.884025495
  0
LINE
  5
3B3
100
AcDbEntity
  8
SCRITTE
100
AcDbLine
 62
7
  6
CONTINUOUS
 10
-61.1965388234
 20
15.5315360503
 11
-60.8106857452
 21
15.9173891286
  0
LINE
  5
3B4
100
AcDbEntity
  8
SCRITTE
100
AcDbLine
 62
7
  6
CONTINUOUS
 10
-60.0285287966
 20
16.6995460771
 11
-59.7036993063
 21
17.0243755674
  0
LINE
  5
3B5
100
AcDbEntity
  8
SCRITTE
100
AcDbLine
 62
7
  6
CONTINUOUS
 10
-61.2750815119
 20
15.0329719338
 11
-61.2698055301
 21
15.0382479156
  0
LINE
  5
3B6
100
AcDbEntity
  8
SCRITTE
100
AcDbLine
 62
7
  6
CONTINUOUS
 10
-60.7765173954
 20
15.5315360503
 11
-60.3906643171
 21
15.9173891286
  0
LINE
  5
3B7
100
AcDbEntity
  8
SCRITTE
100
AcDbLine
 62
7
  6
CONTINUOUS
 10
-60.0285287966
 20
16.2795246491
 11
-59.7036993063
 21
16.6043541394
  0
LINE
  5
3B8
100
AcDbEntity
  8
SCRITTE
100
AcDbLine
 62
7
  6
CONTINUOUS
 10
-61.2562999165
 20
14.6317321012
 11
-60.960024019
 21
14.9280079987
  0
LINE
  5
3B9
100
AcDbEntity
  8
SCRITTE
100
AcDbLine
 62
7
  6
CONTINUOUS
 10
-60.3564959673
 20
15.5315360503
 11
-59.7036993063
 21
16.1843327114
  0
LINE
  5
3BA
100
AcDbEntity
  8
SCRITTE
100
AcDbLine
 62
7
  6
CONTINUOUS
 10
-58.7007947136
 20
17.1872373041
 11
-58.3759652233
 21
17.5120667943
  0
LINE
  5
3BB
100
AcDbEntity
  8
SCRITTE
100
AcDbLine
 62
7
  6
CONTINUOUS
 10
-60.9411760538
 20
14.5268345359
 11
-60.6502425079
 21
14.8177680818
  0
LINE
  5
3BC
100
AcDbEntity
  8
SCRITTE
100
AcDbLine
 62
7
  6
CONTINUOUS
 10
-59.9364745393
 20
15.5315360503
 11
-59.5506214611
 21
15.9173891286
  0
LINE
  5
3BD
100
AcDbEntity
  8
SCRITTE
100
AcDbLine
 62
7
  6
CONTINUOUS
 10
-58.7007947136
 20
16.767215876
 11
-58.3759652233
 21
17.0920453663
  0
LINE
  5
3BE
100
AcDbEntity
  8
SCRITTE
100
AcDbLine
 62
7
  6
CONTINUOUS
 10
-60.6260521912
 20
14.4219369705
 11
-60.3404609968
 21
14.7075281649
  0
LINE
  5
3BF
100
AcDbEntity
  8
SCRITTE
100
AcDbLine
 62
7
  6
CONTINUOUS
 10
-59.5164531113
 20
15.5315360503
 11
-59.1306000331
 21
15.9173891286
  0
LINE
  5
3C0
100
AcDbEntity
  8
SCRITTE
100
AcDbLine
 62
7
  6
CONTINUOUS
 10
-58.7007947136
 20
16.347194448
 11
-58.3759652233
 21
16.6720239383
  0
LINE
  5
3C1
100
AcDbEntity
  8
SCRITTE
100
AcDbLine
 62
7
  6
CONTINUOUS
 10
-60.3109283285
 20
14.3170394051
 11
-60.0306794856
 21
14.597288248
  0
LINE
  5
3C2
100
AcDbEntity
  8
SCRITTE
100
AcDbLine
 62
7
  6
CONTINUOUS
 10
-59.0964316833
 20
15.5315360503
 11
-58.710578605
 21
15.9173891286
  0
LINE
  5
3C3
100
AcDbEntity
  8
SCRITTE
100
AcDbLine
 62
7
  6
CONTINUOUS
 10
-58.7007947136
 20
15.92717302
 11
-58.3759652233
 21
16.2520025103
  0
LINE
  5
3C4
100
AcDbEntity
  8
SCRITTE
100
AcDbLine
 62
7
  6
CONTINUOUS
 10
-61.2750815119
 20
12.9328647937
 11
-61.2277641018
 21
12.9801822038
  0
LINE
  5
3C5
100
AcDbEntity
  8
SCRITTE
100
AcDbLine
 62
7
  6
CONTINUOUS
 10
-59.9958044658
 20
14.2121418397
 11
-59.7208979745
 21
14.4870483311
  0
LINE
  5
3C6
100
AcDbEntity
  8
SCRITTE
100
AcDbLine
 62
7
  6
CONTINUOUS
 10
-58.6764102552
 20
15.5315360503
 11
-58.3759652233
 21
15.8319810822
  0
LINE
  5
3C7
100
AcDbEntity
  8
SCRITTE
100
AcDbLine
 62
7
  6
CONTINUOUS
 10
-61.2233891773
 20
12.5645357003
 11
-60.6011663226
 21
13.186758555
  0
LINE
  5
3C8
100
AcDbEntity
  8
SCRITTE
100
AcDbLine
 62
7
  6
CONTINUOUS
 10
-59.6806806032
 20
14.1072442744
 11
-59.4111164634
 21
14.3768084141
  0
LINE
  5
3C9
100
AcDbEntity
  8
ASSI
100
AcDbLine
 62
7
  6
CONTINUOUS
 10
-50.2759652233
 20
-19.6538457547
 11
-46.2464583065
 21
-19.6186807806
  0
LINE
  5
3CA
100
AcDbEntity
  8
DRAFT
100
AcDbLine
 62
7
  6
CONTINUOUS
 10
-50.2759652233
 20
-19.6538457547
 11
-46.2464583065
 21
-19.6186807806
  0
LINE
  5
3CB
100
AcDbEntity
  8
ASSI
100
AcDbLine
 62
7
  6
CONTINUOUS
 10
-48.1759652233
 20
-20.6538457547
 11
-48.6759652233
 21
-20.6538457547
  0
LINE
  5
3CC
100
AcDbEntity
  8
0
100
AcDbLine
 62
7
  6
CONTINUOUS
 10
-48.1759652233
 20
-20.6538457547
 11
-48.6759652233
 21
-20.6538457547
  0
LINE
  5
3CD
100
AcDbEntity
  8
ASSI
100
AcDbLine
 62
7
  6
CONTINUOUS
 10
-50.2759652233
 20
-19.6538457547
 11
-46.2759652233
 21
-19.6538457547
  0
LINE
  5
3CE
100
AcDbEntity
  8
DRAFT
100
AcDbLine
 62
7
  6
CONTINUOUS
 10
-50.2759652233
 20
-19.6538457547
 11
-46.2759652233
 21
-19.6538457547
  0
LINE
  5
3CF
100
AcDbEntity
  8
ASSI
100
AcDbLine
 62
7
  6
CONTINUOUS
 10
-54.2759652233
 20
-20.8538457547
 11
-62.3872202433
 21
-20.4287528919
  0
LINE
  5
3D0
100
AcDbEntity
  8
0
100
AcDbLine
 62
7
  6
CONTINUOUS
 10
-54.2759652233
 20
-20.8538457547
 11
-62.3872202433
 21
-20.4287528919
  0
LINE
  5
3D1
100
AcDbEntity
  8
ASSI
100
AcDbLine
 62
253
  6
CONTINUOUS
 10
-54.2759652233
 20
-20.3536169026
 11
-62.3697784684
 21
-19.9294381245
  0
LINE
  5
3D2
100
AcDbEntity
  8
0
100
AcDbLine
 62
253
  6
CONTINUOUS
 10
-54.2759652233
 20
-20.3536169026
 11
-62.3697784684
 21
-19.9294381245
  0
LINE
  5
3D3
100
AcDbEntity
  8
SCRITTE
100
AcDbLine
 62
253
  6
CONTINUOUS
 10
-61.2837962233
 20
-11.8447807547
 11
-61.2837962233
 21
-11.2395097547
  0
LINE
  5
3D4
100
AcDbEntity
  8
SCRITTE
100
AcDbLine
 62
253
  6
CONTINUOUS
 10
-61.2836222233
 20
-6.3828357547
 11
-61.2836222233
 21
-6.9683627547
  0
LINE
  5
3D5
100
AcDbEntity
  8
SCRITTE
100
AcDbLine
 62
253
  6
CONTINUOUS
 10
-61.2836222233
 20
-8.2440727547
 11
-61.2836222233
 21
-8.8429297547
  0
LINE
  5
3D6
100
AcDbEntity
  8
SCRITTE
100
AcDbLine
 62
253
  6
CONTINUOUS
 10
-61.2836222233
 20
-10.0470797547
 11
-61.2836222233
 21
-10.6518507547
  0
LINE
  5
3D7
100
AcDbEntity
  8
SCRITTE
100
AcDbLine
 62
253
  6
CONTINUOUS
 10
-61.2836222233
 20
-12.0693977547
 11
-61.2836222233
 21
-12.6742557547
  0
LINE
  5
3D8
100
AcDbEntity
  8
SCRITTE
100
AcDbLine
 62
253
  6
CONTINUOUS
 10
-61.2836222233
 20
-13.7965937547
 11
-61.2836222233
 21
-14.4541057547
  0
LINE
  5
3D9
100
AcDbEntity
  8
SCRITTE
100
AcDbLine
 62
253
  6
CONTINUOUS
 10
-61.2750815119
 20
7.0835376915
 11
-61.2750815119
 21
7.4937694874
  0
LINE
  5
3DA
100
AcDbEntity
  8
SCRITTE
100
AcDbLine
 62
253
  6
CONTINUOUS
 10
-61.2750815119
 20
9.0290606784
 11
-61.2750815119
 21
9.3946305681
  0
LINE
  5
3DB
100
AcDbEntity
  8
SCRITTE
100
AcDbLine
 62
253
  6
CONTINUOUS
 10
-61.2750815119
 20
10.2028007496
 11
-61.2750815119
 21
12.2051750015
  0
LINE
  5
3DC
100
AcDbEntity
  8
SCRITTE
100
AcDbLine
 62
253
  6
CONTINUOUS
 10
-61.2750815119
 20
12.5462860029
 11
-61.2750815119
 21
12.9645826306
  0
LINE
  5
3DD
100
AcDbEntity
  8
SCRITTE
100
AcDbLine
 62
253
  6
CONTINUOUS
 10
-61.2750815119
 20
14.6379840671
 11
-61.2750815119
 21
15.0401254447
  0
LINE
  5
3DE
100
AcDbEntity
  8
SCRITTE
100
AcDbLine
 62
253
  6
CONTINUOUS
 10
-61.2750815119
 20
15.5315360503
 11
-61.2750815119
 21
17.5338847158
  0
LINE
  5
3DF
100
AcDbEntity
  8
SCRITTE
100
AcDbLine
 62
253
  6
CONTINUOUS
 10
-60.9502520216
 20
17.5338847158
 11
-60.9502520216
 21
15.9173891286
  0
LINE
  5
3E0
100
AcDbEntity
  8
SCRITTE
100
AcDbLine
 62
253
  6
CONTINUOUS
 10
-60.9502520216
 20
12.2051750015
 11
-60.9502520216
 21
10.5886521221
  0
LINE
  5
3E1
100
AcDbEntity
  8
SCRITTE
100
AcDbLine
 62
7
  6
CONTINUOUS
 10
-61.2750815119
 20
12.0928219376
 11
-61.162728448
 21
12.2051750015
  0
LINE
  5
3E2
100
AcDbEntity
  8
SCRITTE
100
AcDbLine
 62
7
  6
CONTINUOUS
 10
-60.574161425
 20
12.7937420245
 11
-59.9745685434
 21
13.3933349061
  0
LINE
  5
3E3
100
AcDbEntity
  8
SCRITTE
100
AcDbLine
 62
7
  6
CONTINUOUS
 10
-59.3655567405
 20
14.002346709
 11
-59.1013349523
 21
14.2665684972
  0
LINE
  5
3E4
100
AcDbEntity
  8
SCRITTE
100
AcDbLine
 62
7
  6
CONTINUOUS
 10
-61.2750815119
 20
11.6728005096
 11
-60.9502520216
 21
11.9976299999
  0
LINE
  5
3E5
100
AcDbEntity
  8
SCRITTE
100
AcDbLine
 62
7
  6
CONTINUOUS
 10
-59.9249336727
 20
13.0229483488
 11
-59.3479707642
 21
13.5999112573
  0
LINE
  5
3E6
100
AcDbEntity
  8
SCRITTE
100
AcDbLine
 62
7
  6
CONTINUOUS
 10
-59.0504328779
 20
13.8974491436
 11
-58.7915534412
 21
14.1563285803
  0
LINE
  5
3E7
100
AcDbEntity
  8
SCRITTE
100
AcDbLine
 62
253
  6
CONTINUOUS
 10
-56.8759652233
 20
15.7675826873
 11
-56.6045366681
 21
16.0390115823
  0
LINE
  5
3E8
100
AcDbEntity
  8
SCRITTE
100
AcDbLine
 62
7
  6
CONTINUOUS
 10
-61.2750815119
 20
11.2527790816
 11
-60.9502520216
 21
11.5776085719
  0
LINE
  5
3E9
100
AcDbEntity
  8
SCRITTE
100
AcDbLine
 62
7
  6
CONTINUOUS
 10
-59.2757059204
 20
13.2521546731
 11
-58.4817719301
 21
14.0460886634
  0
LINE
  5
3EA
100
AcDbEntity
  8
SCRITTE
100
AcDbLine
 62
7
  6
CONTINUOUS
 10
-61.2750815119
 20
10.8327576536
 11
-60.9502520216
 21
11.1575871438
  0
LINE
  5
3EB
100
AcDbEntity
  8
SCRITTE
100
AcDbLine
 62
7
  6
CONTINUOUS
 10
-60.0285287966
 20
12.0793103689
 11
-60.0123223376
 21
12.0955168278
  0
LINE
  5
3EC
100
AcDbEntity
  8
SCRITTE
100
AcDbLine
 62
7
  6
CONTINUOUS
 10
-58.6264781681
 20
13.4813609974
 11
-58.3759652233
 21
13.7318739421
  0
LINE
  5
3ED
100
AcDbEntity
  8
SCRITTE
100
AcDbLine
 62
7
  6
CONTINUOUS
 10
-61.2750815119
 20
10.4127362255
 11
-60.9502520216
 21
10.7375657158
  0
LINE
  5
3EE
100
AcDbEntity
  8
SCRITTE
100
AcDbLine
 62
7
  6
CONTINUOUS
 10
-60.0285287966
 20
11.6592889408
 11
-59.7036993063
 21
11.9841184311
  0
LINE
  5
3EF
100
AcDbEntity
  8
SCRITTE
100
AcDbLine
 62
7
  6
CONTINUOUS
 10
-61.0649955598
 20
10.2028007496
 11
-60.6791441873
 21
10.5886521221
  0
LINE
  5
3F0
100
AcDbEntity
  8
SCRITTE
100
AcDbLine
 62
7
  6
CONTINUOUS
 10
-60.0285287966
 20
11.2392675128
 11
-59.7036993063
 21
11.5640970031
  0
LINE
  5
3F1
100
AcDbEntity
  8
SCRITTE
100
AcDbLine
 62
7
  6
CONTINUOUS
 10
-60.6449741317
 20
10.2028007496
 11
-60.2591227593
 21
10.5886521221
  0
LINE
  5
3F2
100
AcDbEntity
  8
SCRITTE
100
AcDbLine
 62
7
  6
CONTINUOUS
 10
-60.0285287966
 20
10.8192460848
 11
-59.7036993063
 21
11.1440755751
  0
LINE
  5
3F3
100
AcDbEntity
  8
SCRITTE
100
AcDbLine
 62
7
  6
CONTINUOUS
 10
-58.7007947136
 20
12.1469801678
 11
-58.6304105211
 21
12.2173643603
  0
LINE
  5
3F4
100
AcDbEntity
  8
CURVE
100
AcDbLine
 62
253
  6
CONTINUOUS
 10
-53.0759652233
 20
17.7675826396
 11
-52.8902509487
 21
17.9532968368
  0
LINE
  5
3F5
100
AcDbEntity
  8
SCRITTE
100
AcDbLine
 62
7
  6
CONTINUOUS
 10
-61.2750815119
 20
9.1526719415
 11
-61.0331228853
 21
9.3946305681
  0
LINE
  5
3F6
100
AcDbEntity
  8
SCRITTE
100
AcDbLine
 62
7
  6
CONTINUOUS
 10
-60.2249527037
 20
10.2028007496
 11
-59.7036993063
 21
10.7240541471
  0
LINE
  5
3F7
100
AcDbEntity
  8
SCRITTE
100
AcDbLine
 62
7
  6
CONTINUOUS
 10
-58.7007947136
 20
11.7269587397
 11
-58.3759652233
 21
12.05178823
  0
LINE
  5
3F8
100
AcDbEntity
  8
SCRITTE
100
AcDbLine
 62
253
  6
CONTINUOUS
 10
-56.0616795576
 20
14.2747255768
 11
-55.7902509457
 21
14.5461542453
  0
LINE
  5
3F9
100
AcDbEntity
  8
SCRITTE
100
AcDbLine
 62
253
  6
CONTINUOUS
 10
-56.8759652233
 20
14.2747255768
 11
-56.6045366681
 21
14.5009160962
  0
LINE
  5
3FA
100
AcDbEntity
  8
ASSI
100
AcDbLine
 62
253
  6
CONTINUOUS
 10
-63.3340003466
 20
-19.4721599851
 11
-62.8431685254
 21
-19.4511416714
  0
LINE
  5
3FB
100
AcDbEntity
  8
0
100
AcDbLine
 62
253
  6
CONTINUOUS
 10
-63.3340003466
 20
-19.4721599851
 11
-62.8431685254
 21
-19.4511416714
  0
LINE
  5
3FC
100
AcDbEntity
  8
DRAFT
100
AcDbLine
 62
7
  6
CONTINUOUS
 10
-54.2759652233
 20
-19.3538457547
 11
-45.9696251011
 21
-19.2887638134
  0
LINE
  5
3FD
100
AcDbEntity
  8
SCRITTE
100
AcDbLine
 62
253
  6
CONTINUOUS
 10
-61.2836222233
 20
-12.6742557547
 11
-59.2877012233
 21
-13.2438667547
  0
LINE
  5
3FE
100
AcDbEntity
  8
SCRITTE
100
AcDbLine
 62
253
  6
CONTINUOUS
 10
-58.3839692233
 20
-13.0014627547
 11
-61.2836222233
 21
-12.0693977547
  0
LINE
  5
3FF
100
AcDbEntity
  8
SCRITTE
100
AcDbLine
 62
253
  6
CONTINUOUS
 10
-60.7025590694
 20
7.4572269974
 11
-60.7025590694
 21
7.4490819948
  0
LINE
  5
400
100
AcDbEntity
  8
SCRITTE
100
AcDbLine
 62
253
  6
CONTINUOUS
 10
-60.0285287966
 20
10.5886521221
 11
-60.0285287966
 21
12.0955168278
  0
LINE
  5
401
100
AcDbEntity
  8
SCRITTE
100
AcDbLine
 62
253
  6
CONTINUOUS
 10
-60.0285287966
 20
15.9173891286
 11
-60.0285287966
 21
17.4243067128
  0
LINE
  5
402
100
AcDbEntity
  8
SCRITTE
100
AcDbLine
 62
253
  6
CONTINUOUS
 10
-59.9936261245
 20
-4.7326470265
 11
-59.9936261245
 21
-4.3867404304
  0
LINE
  5
403
100
AcDbEntity
  8
SCRITTE
100
AcDbLine
 62
253
  6
CONTINUOUS
 10
-59.7036993063
 20
17.4243067128
 11
-59.7036993063
 21
15.9173891286
  0
LINE
  5
404
100
AcDbEntity
  8
SCRITTE
100
AcDbLine
 62
253
  6
CONTINUOUS
 10
-59.7036993063
 20
12.0955168278
 11
-59.7036993063
 21
10.5886521221
  0
LINE
  5
405
100
AcDbEntity
  8
SCRITTE
100
AcDbLine
 62
253
  6
CONTINUOUS
 10
-59.5187329853
 20
-4.3880450819
 11
-59.5187329853
 21
-4.7125771379
  0
LINE
  5
406
100
AcDbEntity
  8
SCRITTE
100
AcDbLine
 62
253
  6
CONTINUOUS
 10
-59.4107732233
 20
-6.4088417547
 11
-59.4107732233
 21
-6.9883457547
  0
LINE
  5
407
100
AcDbEntity
  8
SCRITTE
100
AcDbLine
 62
253
  6
CONTINUOUS
 10
-58.9628432233
 20
-7.1121577547
 11
-58.9628432233
 21
-6.2878787547
  0
LINE
  5
408
100
AcDbEntity
  8
SCRITTE
100
AcDbLine
 62
253
  6
CONTINUOUS
 10
-58.9241146685
 20
9.020942968
 11
-58.9241146685
 21
9.0290606784
  0
LINE
  5
409
100
AcDbEntity
  8
SCRITTE
100
AcDbLine
 62
253
  6
CONTINUOUS
 10
-58.7616990707
 20
13.7931929306
 11
-58.7616990707
 21
13.8013362274
  0
LINE
  5
40A
100
AcDbEntity
  8
SCRITTE
100
AcDbLine
 62
253
  6
CONTINUOUS
 10
-58.7007947136
 20
10.5886521221
 11
-58.7007947136
 21
12.2173643603
  0
LINE
  5
40B
100
AcDbEntity
  8
SCRITTE
100
AcDbLine
 62
253
  6
CONTINUOUS
 10
-58.7007947136
 20
15.9173891286
 11
-58.7007947136
 21
17.5461542453
  0
LINE
  5
40C
100
AcDbEntity
  8
SCRITTE
100
AcDbLine
 62
7
  6
CONTINUOUS
 10
-60.9786713469
 20
9.0290606784
 11
-60.6131014572
 21
9.3946305681
  0
LINE
  5
40D
100
AcDbEntity
  8
SCRITTE
100
AcDbLine
 62
7
  6
CONTINUOUS
 10
-59.8049312757
 20
10.2028007496
 11
-59.4190799032
 21
10.5886521221
  0
LINE
  5
40E
100
AcDbEntity
  8
SCRITTE
100
AcDbLine
 62
7
  6
CONTINUOUS
 10
-58.7007947136
 20
11.3069373117
 11
-58.3759652233
 21
11.631766802
  0
LINE
  5
40F
100
AcDbEntity
  8
SCRITTE
100
AcDbLine
 62
253
  6
CONTINUOUS
 10
-56.8759652233
 20
12.9175829138
 11
-56.6045366681
 21
13.1890113558
  0
LINE
  5
410
100
AcDbEntity
  8
SCRITTE
100
AcDbLine
 62
7
  6
CONTINUOUS
 10
-60.5586499189
 20
9.0290606784
 11
-60.1930800292
 21
9.3946305681
  0
LINE
  5
411
100
AcDbEntity
  8
SCRITTE
100
AcDbLine
 62
7
  6
CONTINUOUS
 10
-59.3849098477
 20
10.2028007496
 11
-58.9990584752
 21
10.5886521221
  0
LINE
  5
412
100
AcDbEntity
  8
SCRITTE
100
AcDbLine
 62
7
  6
CONTINUOUS
 10
-58.7007947136
 20
10.8869158837
 11
-58.3759652233
 21
11.211745374
  0
LINE
  5
413
100
AcDbEntity
  8
SCRITTE
100
AcDbLine
 62
7
  6
CONTINUOUS
 10
-60.1386284909
 20
9.0290606784
 11
-59.7730586012
 21
9.3946305681
  0
LINE
  5
414
100
AcDbEntity
  8
SCRITTE
100
AcDbLine
 62
7
  6
CONTINUOUS
 10
-58.9648884196
 20
10.2028007496
 11
-58.3759652233
 21
10.7917239459
  0
LINE
  5
415
100
AcDbEntity
  8
CURVE
100
AcDbLine
 62
253
  6
CONTINUOUS
 10
-53.0759652233
 20
16.0032968368
 11
-52.8902509487
 21
16.1890116538
  0
LINE
  5
416
100
AcDbEntity
  8
SCRITTE
100
AcDbLine
 62
7
  6
CONTINUOUS
 10
-61.2750815119
 20
7.4725862294
 11
-61.2146280785
 21
7.5330396628
  0
LINE
  5
417
100
AcDbEntity
  8
SCRITTE
100
AcDbLine
 62
7
  6
CONTINUOUS
 10
-59.7186070628
 20
9.0290606784
 11
-59.3530371732
 21
9.3946305681
  0
LINE
  5
418
100
AcDbEntity
  8
SCRITTE
100
AcDbLine
 62
7
  6
CONTINUOUS
 10
-58.5448669916
 20
10.2028007496
 11
-58.3759652233
 21
10.3717025179
  0
LINE
  5
419
100
AcDbEntity
  8
SCRITTE
100
AcDbLine
 62
7
  6
CONTINUOUS
 10
-61.2441086217
 20
7.0835376915
 11
-60.0159580049
 21
8.3116883084
  0
LINE
  5
41A
100
AcDbEntity
  8
SCRITTE
100
AcDbLine
 62
7
  6
CONTINUOUS
 10
-59.2985856348
 20
9.0290606784
 11
-58.9330157451
 21
9.3946305681
  0
LINE
  5
41B
100
AcDbEntity
  8
SCRITTE
100
AcDbLine
 62
253
  6
CONTINUOUS
 10
-55.7902509457
 20
12.5104399111
 11
-56.0616795576
 21
12.2390113558
  0
LINE
  5
41C
100
AcDbEntity
  8
SCRITTE
100
AcDbLine
 62
253
  6
CONTINUOUS
 10
-56.6045366681
 20
11.5604399677
 11
-56.8759652233
 21
11.2890114124
  0
LINE
  5
41D
100
AcDbEntity
  8
SCRITTE
100
AcDbLine
 62
7
  6
CONTINUOUS
 10
-60.8240871937
 20
7.0835376915
 11
-60.4585428904
 21
7.4490819948
  0
LINE
  5
41E
100
AcDbEntity
  8
SCRITTE
100
AcDbLine
 62
7
  6
CONTINUOUS
 10
-59.9797049652
 20
7.92791992
 11
-58.5129943171
 21
9.3946305681
  0
LINE
  5
41F
100
AcDbEntity
  8
CURVE
100
AcDbLine
 62
253
  6
CONTINUOUS
 10
-53.0759652233
 20
14.5175826396
 11
-52.8902509487
 21
14.7032968368
  0
LINE
  5
420
100
AcDbEntity
  8
SCRITTE
100
AcDbLine
 62
7
  6
CONTINUOUS
 10
-60.4040657657
 20
7.0835376915
 11
-60.0385214624
 21
7.4490819948
  0
LINE
  5
421
100
AcDbEntity
  8
SCRITTE
100
AcDbLine
 62
7
  6
CONTINUOUS
 10
-58.7756567796
 20
8.7119466776
 11
-58.3759652233
 21
9.1116382338
  0
LINE
  5
422
100
AcDbEntity
  8
SCRITTE
100
AcDbLine
 62
7
  6
CONTINUOUS
 10
-59.9840443376
 20
7.0835376915
 11
-59.6185000344
 21
7.4490819948
  0
LINE
  5
423
100
AcDbEntity
  8
CURVE
100
AcDbLine
 62
253
  6
CONTINUOUS
 10
-51.9307271286
 20
16.8699639167
 11
-51.9926318965
 21
16.8390116538
  0
LINE
  5
424
100
AcDbEntity
  8
CURVE
100
AcDbLine
 62
253
  6
CONTINUOUS
 10
-51.8997747495
 20
16.7461542453
 11
-51.8378699864
 21
16.7771065082
  0
LINE
  5
425
100
AcDbEntity
  8
SCRITTE
100
AcDbLine
 62
253
  6
CONTINUOUS
 10
-58.3759652233
 20
13.569803229
 11
-61.2750815119
 21
12.5462860029
  0
LINE
  5
426
100
AcDbEntity
  8
SCRITTE
100
AcDbLine
 62
253
  6
CONTINUOUS
 10
-61.2750815119
 20
12.9645826306
 11
-58.7616990707
 21
13.7931929306
  0
LINE
  5
427
100
AcDbEntity
  8
DRAFT
100
AcDbLine
 62
7
  6
CONTINUOUS
 10
-20.8759652233
 20
-15.4123683705
 11
-54.2759652233
 21
-15.7038457547
  0
LINE
  5
428
100
AcDbEntity
  8
ASSI
100
AcDbLine
 62
7
  6
CONTINUOUS
 10
-20.8759652233
 20
-15.4123683705
 11
-54.2759652233
 21
-15.7038457547
  0
LINE
  5
429
100
AcDbEntity
  8
ASSI
100
AcDbLine
 62
7
  6
CONTINUOUS
 10
-45.2759652233
 20
-15.8513298203
 11
-54.2765668275
 21
-15.7727827601
  0
LINE
  5
42A
100
AcDbEntity
  8
DRAFT
100
AcDbLine
 62
7
  6
CONTINUOUS
 10
-45.2759652233
 20
-15.8513298203
 11
-54.2765668275
 21
-15.7727827601
  0
LINE
  5
42B
100
AcDbEntity
  8
CURVE
100
AcDbLine
 62
253
  6
CONTINUOUS
 10
-53.1759652233
 20
-12.9895597547
 11
-52.3902512233
 21
-13.2038457547
  0
LINE
  5
42C
100
AcDbEntity
  8
SCRITTE
100
AcDbLine
 62
253
  6
CONTINUOUS
 10
-61.2836222233
 20
-8.8429297547
 11
-59.6737262233
 21
-9.4482007547
  0
LINE
  5
42D
100
AcDbEntity
  8
CURVE
100
AcDbLine
 62
253
  6
CONTINUOUS
 10
-50.0759652233
 20
-13.2038457547
 11
-50.3616792233
 21
-13.0609887547
  0
LINE
  5
42E
100
AcDbEntity
  8
CURVE
100
AcDbLine
 62
253
  6
CONTINUOUS
 10
-51.0188222233
 20
-12.7752747547
 11
-50.8759652233
 21
-12.9181317547
  0
LINE
  5
42F
100
AcDbEntity
  8
SCRITTE
100
AcDbLine
 62
253
  6
CONTINUOUS
 10
-58.3839688711
 20
-3.2034867695
 11
-58.3839688711
 21
-3.785687493
  0
LINE
  5
430
100
AcDbEntity
  8
SCRITTE
100
AcDbLine
 62
253
  6
CONTINUOUS
 10
-58.3839688711
 20
-4.7125771379
 11
-58.3839688711
 21
-5.315413099
  0
LINE
  5
431
100
AcDbEntity
  8
SCRITTE
100
AcDbLine
 62
253
  6
CONTINUOUS
 10
-58.3839692233
 20
-11.2395097547
 11
-58.3839692233
 21
-11.8447807547
  0
LINE
  5
432
100
AcDbEntity
  8
SCRITTE
100
AcDbLine
 62
253
  6
CONTINUOUS
 10
-58.3839692233
 20
-13.5348587547
 11
-58.3839692233
 21
-13.0014627547
  0
LINE
  5
433
100
AcDbEntity
  8
SCRITTE
100
AcDbLine
 62
253
  6
CONTINUOUS
 10
-58.3839692233
 20
-10.9136727547
 11
-58.3839692233
 21
-10.3346247547
  0
LINE
  5
434
100
AcDbEntity
  8
SCRITTE
100
AcDbLine
 62
253
  6
CONTINUOUS
 10
-58.3839692233
 20
-9.4939507547
 11
-58.3839692233
 21
-9.4090617547
  0
LINE
  5
435
100
AcDbEntity
  8
SCRITTE
100
AcDbLine
 62
253
  6
CONTINUOUS
 10
-58.3839692233
 20
-8.5650387547
 11
-58.3839692233
 21
-7.9729227547
  0
LINE
  5
436
100
AcDbEntity
  8
SCRITTE
100
AcDbLine
 62
253
  6
CONTINUOUS
 10
-58.3839692233
 20
-7.8778787547
 11
-58.3839692233
 21
-7.2791747547
  0
LINE
  5
437
100
AcDbEntity
  8
SCRITTE
100
AcDbLine
 62
253
  6
CONTINUOUS
 10
-58.3839692233
 20
-6.1310807547
 11
-58.3839692233
 21
-5.4931497547
  0
LINE
  5
438
100
AcDbEntity
  8
SCRITTE
100
AcDbLine
 62
253
  6
CONTINUOUS
 10
-58.3759652233
 20
17.5461542453
 11
-58.3759652233
 21
15.5315360503
  0
LINE
  5
439
100
AcDbEntity
  8
SCRITTE
100
AcDbLine
 62
253
  6
CONTINUOUS
 10
-58.3759652233
 20
14.0084359238
 11
-58.3759652233
 21
13.569803229
  0
LINE
  5
43A
100
AcDbEntity
  8
SCRITTE
100
AcDbLine
 62
253
  6
CONTINUOUS
 10
-58.3759652233
 20
12.2173643603
 11
-58.3759652233
 21
10.2028007496
  0
LINE
  5
43B
100
AcDbEntity
  8
SCRITTE
100
AcDbLine
 62
253
  6
CONTINUOUS
 10
-58.3759652233
 20
9.3946305681
 11
-58.3759652233
 21
8.9722094134
  0
LINE
  5
43C
100
AcDbEntity
  8
SCRITTE
100
AcDbLine
 62
253
  6
CONTINUOUS
 10
-58.3759652233
 20
7.4490819948
 11
-58.3759652233
 21
7.0835376915
  0
LINE
  5
43D
100
AcDbEntity
  8
SCRITTE
100
AcDbLine
 62
253
  6
CONTINUOUS
 10
-56.8759652233
 20
11.2890114124
 11
-56.8759652233
 21
11.1532971065
  0
LINE
  5
43E
100
AcDbEntity
  8
SCRITTE
100
AcDbLine
 62
253
  6
CONTINUOUS
 10
-56.8759652233
 20
12.5104399111
 11
-56.8759652233
 21
12.9175829138
  0
LINE
  5
43F
100
AcDbEntity
  8
SCRITTE
100
AcDbLine
 62
253
  6
CONTINUOUS
 10
-56.8759652233
 20
13.7318684663
 11
-56.8759652233
 21
14.2747255768
  0
LINE
  5
440
100
AcDbEntity
  8
SCRITTE
100
AcDbLine
 62
253
  6
CONTINUOUS
 10
-56.8759652233
 20
15.3604400243
 11
-56.8759652233
 21
15.7675826873
  0
LINE
  5
441
100
AcDbEntity
  8
SCRITTE
100
AcDbLine
 62
7
  6
CONTINUOUS
 10
-59.5640229096
 20
7.0835376915
 11
-59.1984786063
 21
7.4490819948
  0
LINE
  5
442
100
AcDbEntity
  8
SCRITTE
100
AcDbLine
 62
7
  6
CONTINUOUS
 10
-59.1440014816
 20
7.0835376915
 11
-58.7784571783
 21
7.4490819948
  0
LINE
  5
443
100
AcDbEntity
  8
SCRITTE
100
AcDbLine
 62
253
  6
CONTINUOUS
 10
-55.2473938069
 20
10.8818685371
 11
-54.9759652233
 21
11.1532971065
  0
LINE
  5
444
100
AcDbEntity
  8
SCRITTE
100
AcDbLine
 62
7
  6
CONTINUOUS
 10
-58.7239800536
 20
7.0835376915
 11
-58.3759652233
 21
7.4315525217
  0
LINE
  5
445
100
AcDbEntity
  8
CURVE
100
AcDbLine
 62
253
  6
CONTINUOUS
 10
-52.5188223994
 20
12.7532971467
 11
-52.333108086
 21
12.9390113439
  0
LINE
  5
446
100
AcDbEntity
  8
CURVE
100
AcDbLine
 62
253
  6
CONTINUOUS
 10
-52.5188223994
 20
11.8247255411
 11
-52.333108086
 21
12.0104400482
  0
LINE
  5
447
100
AcDbEntity
  8
CURVE
100
AcDbLine
 62
253
  6
CONTINUOUS
 10
-53.0759652233
 20
12.7532971467
 11
-52.8902509487
 21
12.908059081
  0
LINE
  5
448
100
AcDbEntity
  8
SCRITTE
100
AcDbLine
 62
253
  6
CONTINUOUS
 10
-58.3759652233
 20
8.9722094134
 11
-60.7025590694
 21
7.4572269974
  0
LINE
  5
449
100
AcDbEntity
  8
SCRITTE
100
AcDbLine
 62
253
  6
CONTINUOUS
 10
-61.2750815119
 20
7.4937694874
 11
-58.9241146685
 21
9.020942968
  0
LINE
  5
44A
100
AcDbEntity
  8
SCRITTE
100
AcDbLine
 62
253
  6
CONTINUOUS
 10
-56.3331081128
 20
11.6961542453
 11
-56.6045366681
 21
11.5604399677
  0
LINE
  5
44B
100
AcDbEntity
  8
SCRITTE
100
AcDbLine
 62
253
  6
CONTINUOUS
 10
-55.5188223905
 20
10.7461542453
 11
-55.2473938069
 21
10.8818685371
  0
LINE
  5
44C
100
AcDbEntity
  8
CURVE
100
AcDbLine
 62
253
  6
CONTINUOUS
 10
-51.8759652233
 20
-13.2038457547
 11
-51.4473942233
 21
-13.2038457547
  0
LINE
  5
44D
100
AcDbEntity
  8
CURVE
100
AcDbLine
 62
253
  6
CONTINUOUS
 10
-49.7188222233
 20
-13.2038457547
 11
-50.0759652233
 21
-13.2038457547
  0
LINE
  5
44E
100
AcDbEntity
  8
CURVE
100
AcDbLine
 62
253
  6
CONTINUOUS
 10
-52.6759652233
 20
-12.8705127547
 11
-52.1759652233
 21
-12.8705127547
  0
LINE
  5
44F
100
AcDbEntity
  8
CURVE
100
AcDbLine
 62
253
  6
CONTINUOUS
 10
-51.3045362233
 20
-12.7752747547
 11
-51.0188222233
 21
-12.7752747547
  0
LINE
  5
450
100
AcDbEntity
  8
CURVE
100
AcDbLine
 62
253
  6
CONTINUOUS
 10
-50.0045362233
 20
-12.7038457547
 11
-49.7188222233
 21
-12.7038457547
  0
LINE
  5
451
100
AcDbEntity
  8
SCRITTE
100
AcDbLine
 62
253
  6
CONTINUOUS
 10
-61.2836222233
 20
-10.6518507547
 11
-58.3839692233
 21
-10.9136727547
  0
LINE
  5
452
100
AcDbEntity
  8
SCRITTE
100
AcDbLine
 62
253
  6
CONTINUOUS
 10
-58.3839692233
 20
-9.4090617547
 11
-60.2694952233
 21
-8.6893937547
  0
LINE
  5
453
100
AcDbEntity
  8
CURVE
100
AcDbLine
 62
253
  6
CONTINUOUS
 10
-50.3616792233
 20
-13.0609887547
 11
-50.5759652233
 21
-12.8467027547
  0
LINE
  5
454
100
AcDbEntity
  8
CURVE
100
AcDbLine
 62
253
  6
CONTINUOUS
 10
-49.7188222233
 20
-12.7038457547
 11
-49.5759652233
 21
-12.8467027547
  0
LINE
  5
455
100
AcDbEntity
  8
SCRITTE
100
AcDbLine
 62
253
  6
CONTINUOUS
 10
-56.0616795576
 20
14.0032971348
 11
-56.0616795576
 21
14.2747255768
  0
LINE
  5
456
100
AcDbEntity
  8
SCRITTE
100
AcDbLine
 62
253
  6
CONTINUOUS
 10
-55.7902509457
 20
13.098535284
 11
-55.7902509457
 21
12.5104399111
  0
LINE
  5
457
100
AcDbEntity
  8
SCRITTE
100
AcDbLine
 62
253
  6
CONTINUOUS
 10
-55.3831080845
 20
16.5818684663
 11
-55.3831080845
 21
17.5318684663
  0
LINE
  5
458
100
AcDbEntity
  8
SCRITTE
100
AcDbLine
 62
253
  6
CONTINUOUS
 10
-54.9759652233
 20
14.4104400243
 11
-54.9759652233
 21
13.7318684663
  0
LINE
  5
459
100
AcDbEntity
  8
SCRITTE
100
AcDbLine
 62
253
  6
CONTINUOUS
 10
-54.9759652233
 20
11.1532971065
 11
-54.9759652233
 21
11.2890114124
  0
LINE
  5
45A
100
AcDbEntity
  8
SCRITTE
100
AcDbLine
 62
253
  6
CONTINUOUS
 10
-54.9759652233
 20
15.0890115823
 11
-54.9759652233
 21
16.0390115823
  0
LINE
  5
45B
100
AcDbEntity
  8
DRAFT
100
AcDbLine
 62
7
  6
CONTINUOUS
 10
-54.2759652233
 20
24.2093208673
 11
-54.2759652233
 21
23.9461542453
  0
LINE
  5
45C
100
AcDbEntity
  8
0
100
AcDbLine
 62
7
  6
CONTINUOUS
 10
-54.2759652233
 20
23.9461542453
 11
-54.2759652233
 21
-20.8538457547
  0
LINE
  5
45D
100
AcDbEntity
  8
DRAFT
100
AcDbLine
 62
7
  6
CONTINUOUS
 10
-54.2759652233
 20
-20.8538457547
 11
-54.2759652233
 21
-21.9538457547
  0
LINE
  5
45E
100
AcDbEntity
  8
ASSI
100
AcDbLine
 62
7
  6
CONTINUOUS
 10
-54.2759652233
 20
-21.9538457547
 11
-54.2759652233
 21
25.0461542453
  0
LINE
  5
45F
100
AcDbEntity
  8
DRAFT
100
AcDbLine
 62
7
  6
CONTINUOUS
 10
-54.2759652233
 20
24.2754915038
 11
-54.2759652233
 21
25.0461542453
  0
LINE
  5
460
100
AcDbEntity
  8
CURVE
100
AcDbLine
 62
253
  6
CONTINUOUS
 10
-53.0450128055
 20
8.6675828334
 11
-53.0759652233
 21
8.5747256767
  0
LINE
  5
461
100
AcDbEntity
  8
CURVE
100
AcDbLine
 62
253
  6
CONTINUOUS
 10
-52.8902509487
 20
8.853297108
 11
-53.0450128055
 21
8.6675828334
  0
LINE
  5
462
100
AcDbEntity
  8
CURVE
100
AcDbLine
 62
253
  6
CONTINUOUS
 10
-52.704536674
 20
9.3175827946
 11
-52.1473938114
 21
9.9675827946
  0
LINE
  5
463
100
AcDbEntity
  8
CURVE
100
AcDbLine
 62
253
  6
CONTINUOUS
 10
-51.7759652233
 20
11.5461542453
 11
-51.9616795174
 21
11.3604400482
  0
LINE
  5
464
100
AcDbEntity
  8
CURVE
100
AcDbLine
 62
253
  6
CONTINUOUS
 10
-52.9831080473
 20
9.9675827946
 11
-53.0759652233
 21
9.874725696
  0
LINE
  5
465
100
AcDbEntity
  8
CURVE
100
AcDbLine
 62
253
  6
CONTINUOUS
 10
-51.7759652233
 20
9.4104399707
 11
-51.8688223703
 21
9.3175827946
  0
LINE
  5
466
100
AcDbEntity
  8
CURVE
100
AcDbLine
 62
253
  6
CONTINUOUS
 10
-52.2402509487
 20
8.9461542453
 11
-52.4259652233
 21
8.7604399707
  0
LINE
  5
467
100
AcDbEntity
  8
CURVE
100
AcDbLine
 62
253
  6
CONTINUOUS
 10
-48.7759652233
 20
-12.2038457547
 11
-46.3759652233
 21
-12.2038457547
  0
LINE
  5
468
100
AcDbEntity
  8
SCRITTE
100
AcDbLine
 62
253
  6
CONTINUOUS
 10
-58.3839692233
 20
-11.8447807547
 11
-61.2837962233
 21
-11.8447807547
  0
LINE
  5
469
100
AcDbEntity
  8
CURVE
100
AcDbLine
 62
253
  6
CONTINUOUS
 10
-46.3759652233
 20
-11.7038457547
 11
-45.3759652233
 21
-11.7038457547
  0
LINE
  5
46A
100
AcDbEntity
  8
SCRITTE
100
AcDbLine
 62
253
  6
CONTINUOUS
 10
-61.2837962233
 20
-11.2395097547
 11
-58.3839692233
 21
-11.2395097547
  0
LINE
  5
46B
100
AcDbEntity
  8
CURVE
100
AcDbLine
 62
253
  6
CONTINUOUS
 10
-48.7759652233
 20
-10.6538457547
 11
-47.5759652233
 21
-10.6538457547
  0
LINE
  5
46C
100
AcDbEntity
  8
CURVE
100
AcDbLine
 62
253
  6
CONTINUOUS
 10
-50.0759652233
 20
-10.5538457547
 11
-48.7759652233
 21
-10.5538457547
  0
LINE
  5
46D
100
AcDbEntity
  8
CURVE
100
AcDbLine
 62
253
  6
CONTINUOUS
 10
-47.5759652233
 20
-10.4538457547
 11
-48.7759652233
 21
-10.4538457547
  0
LINE
  5
46E
100
AcDbEntity
  8
CURVE
100
AcDbLine
 62
253
  6
CONTINUOUS
 10
-48.7759652233
 20
-9.9538457547
 11
-47.5759652233
 21
-9.9538457547
  0
LINE
  5
46F
100
AcDbEntity
  8
SCRITTE
100
AcDbLine
 62
253
  6
CONTINUOUS
 10
-58.3839692233
 20
-10.3346247547
 11
-60.2773882233
 21
-10.2040077547
  0
LINE
  5
470
100
AcDbEntity
  8
SCRITTE
100
AcDbLine
 62
253
  6
CONTINUOUS
 10
-59.4107732233
 20
-6.9883457547
 11
-60.4868712233
 21
-6.6869717547
  0
LINE
  5
471
100
AcDbEntity
  8
SCRITTE
100
AcDbLine
 62
253
  6
CONTINUOUS
 10
-58.3839692233
 20
-7.2791747547
 11
-58.9628432233
 21
-7.1121577547
  0
LINE
  5
472
100
AcDbEntity
  8
SCRITTE
100
AcDbLine
 62
253
  6
CONTINUOUS
 10
-61.2836222233
 20
-6.9683627547
 11
-58.3839692233
 21
-7.8778787547
  0
LINE
  5
473
100
AcDbEntity
  8
CURVE
100
AcDbLine
 62
253
  6
CONTINUOUS
 10
-52.8188222233
 20
-4.3990837547
 11
-52.7473942233
 21
-4.5181317547
  0
LINE
  5
474
100
AcDbEntity
  8
CURVE
100
AcDbLine
 62
253
  6
CONTINUOUS
 10
-53.1759652233
 20
-4.8038457547
 11
-53.1759652233
 21
-4.5181317547
  0
LINE
  5
475
100
AcDbEntity
  8
CURVE
100
AcDbLine
 62
253
  6
CONTINUOUS
 10
-53.0759652233
 20
9.874725696
 11
-53.0759652233
 21
9.5032970693
  0
LINE
  5
476
100
AcDbEntity
  8
CURVE
100
AcDbLine
 62
253
  6
CONTINUOUS
 10
-53.0759652233
 20
8.5747256767
 11
-53.0759652233
 21
8.2961542453
  0
LINE
  5
477
100
AcDbEntity
  8
CURVE
100
AcDbLine
 62
253
  6
CONTINUOUS
 10
-53.0759652233
 20
12.3818684425
 11
-53.0759652233
 21
12.7532971467
  0
LINE
  5
478
100
AcDbEntity
  8
CURVE
100
AcDbLine
 62
253
  6
CONTINUOUS
 10
-53.0759652233
 20
14.2390116538
 11
-53.0759652233
 21
14.5175826396
  0
LINE
  5
479
100
AcDbEntity
  8
CURVE
100
AcDbLine
 62
253
  6
CONTINUOUS
 10
-53.0759652233
 20
15.724725851
 11
-53.0759652233
 21
16.0032968368
  0
LINE
  5
47A
100
AcDbEntity
  8
CURVE
100
AcDbLine
 62
253
  6
CONTINUOUS
 10
-53.0759652233
 20
17.4890116538
 11
-53.0759652233
 21
17.7675826396
  0
LINE
  5
47B
100
AcDbEntity
  8
CURVE
100
AcDbLine
 62
253
  6
CONTINUOUS
 10
-52.7473942233
 20
-4.6609887547
 11
-52.7473942233
 21
-4.5181317547
  0
LINE
  5
47C
100
AcDbEntity
  8
CURVE
100
AcDbLine
 62
253
  6
CONTINUOUS
 10
-52.6759652233
 20
-5.1038457547
 11
-52.6759652233
 21
-8.4538457547
  0
LINE
  5
47D
100
AcDbEntity
  8
CURVE
100
AcDbLine
 62
253
  6
CONTINUOUS
 10
-52.6759652233
 20
-12.5038457547
 11
-52.6759652233
 21
-9.1538457547
  0
LINE
  5
47E
100
AcDbEntity
  8
CURVE
100
AcDbLine
 62
253
  6
CONTINUOUS
 10
-52.5188223994
 20
11.4223445739
 11
-52.5188223994
 21
11.8247255411
  0
LINE
  5
47F
100
AcDbEntity
  8
CURVE
100
AcDbLine
 62
253
  6
CONTINUOUS
 10
-52.5188223994
 20
12.5675829496
 11
-52.5188223994
 21
12.7532971467
  0
LINE
  5
480
100
AcDbEntity
  8
CURVE
100
AcDbLine
 62
253
  6
CONTINUOUS
 10
-52.4259652233
 20
15.1366303768
 11
-52.4259652233
 21
15.074725851
  0
LINE
  5
481
100
AcDbEntity
  8
CURVE
100
AcDbLine
 62
253
  6
CONTINUOUS
 10
-52.4259652233
 20
8.2961542453
 11
-52.4259652233
 21
8.7604399707
  0
LINE
  5
482
100
AcDbEntity
  8
CURVE
100
AcDbLine
 62
253
  6
CONTINUOUS
 10
-52.3902512233
 20
-13.2038457547
 11
-52.3902512233
 21
-12.7038457547
  0
LINE
  5
483
100
AcDbEntity
  8
CURVE
100
AcDbLine
 62
253
  6
CONTINUOUS
 10
-52.1759652233
 20
-4.4467027547
 11
-52.1759652233
 21
-4.8038457547
  0
LINE
  5
484
100
AcDbEntity
  8
CURVE
100
AcDbLine
 62
253
  6
CONTINUOUS
 10
-51.9926318965
 20
16.8390116538
 11
-51.9926318965
 21
16.7771065082
  0
LINE
  5
485
100
AcDbEntity
  8
CURVE
100
AcDbLine
 62
253
  6
CONTINUOUS
 10
-51.8759652233
 20
-12.7752747547
 11
-51.8759652233
 21
-13.2038457547
  0
LINE
  5
486
100
AcDbEntity
  8
CURVE
100
AcDbLine
 62
253
  6
CONTINUOUS
 10
-51.8759652233
 20
-4.6609887547
 11
-51.8759652233
 21
-4.4467027547
  0
LINE
  5
487
100
AcDbEntity
  8
CURVE
100
AcDbLine
 62
253
  6
CONTINUOUS
 10
-51.8688223703
 20
15.1366303768
 11
-51.8688223703
 21
15.074725851
  0
LINE
  5
488
100
AcDbEntity
  8
CURVE
100
AcDbLine
 62
253
  6
CONTINUOUS
 10
-51.8378699864
 20
16.7771065082
 11
-51.8378699864
 21
16.8390116538
  0
LINE
  5
489
100
AcDbEntity
  8
CURVE
100
AcDbLine
 62
253
  6
CONTINUOUS
 10
-51.7759652233
 20
12.8461542453
 11
-51.7759652233
 21
12.3818684425
  0
LINE
  5
48A
100
AcDbEntity
  8
CURVE
100
AcDbLine
 62
253
  6
CONTINUOUS
 10
-51.7759652233
 20
11.8247255411
 11
-51.7759652233
 21
11.5461542453
  0
LINE
  5
48B
100
AcDbEntity
  8
CURVE
100
AcDbLine
 62
253
  6
CONTINUOUS
 10
-51.7759652233
 20
9.7818685975
 11
-51.7759652233
 21
9.4104399707
  0
LINE
  5
48C
100
AcDbEntity
  8
CURVE
100
AcDbLine
 62
253
  6
CONTINUOUS
 10
-51.7759652233
 20
8.2961542453
 11
-51.7759652233
 21
8.7604399707
  0
LINE
  5
48D
100
AcDbEntity
  8
CURVE
100
AcDbLine
 62
253
  6
CONTINUOUS
 10
-51.7759652233
 20
14.0532968368
 11
-51.7759652233
 21
14.7032968368
  0
LINE
  5
48E
100
AcDbEntity
  8
CURVE
100
AcDbLine
 62
253
  6
CONTINUOUS
 10
-51.7759652233
 20
15.5390116538
 11
-51.7759652233
 21
16.1890116538
  0
LINE
  5
48F
100
AcDbEntity
  8
CURVE
100
AcDbLine
 62
253
  6
CONTINUOUS
 10
-51.7759652233
 20
17.3032968368
 11
-51.7759652233
 21
17.9532968368
  0
LINE
  5
490
100
AcDbEntity
  8
CURVE
100
AcDbLine
 62
253
  6
CONTINUOUS
 10
-51.4473942233
 20
-13.2038457547
 11
-51.4473942233
 21
-12.9181317547
  0
LINE
  5
491
100
AcDbEntity
  8
SCRITTE
100
AcDbLine
 62
253
  6
CONTINUOUS
 10
-59.2877012233
 20
-13.2438667547
 11
-61.2836222233
 21
-13.7965937547
  0
LINE
  5
492
100
AcDbEntity
  8
CURVE
100
AcDbLine
 62
253
  6
CONTINUOUS
 10
-51.3759652233
 20
-9.8538457547
 11
-48.7759652233
 21
-9.8538457547
  0
LINE
  5
493
100
AcDbEntity
  8
CURVE
100
AcDbLine
 62
253
  6
CONTINUOUS
 10
-47.5759652233
 20
-9.7538457547
 11
-48.7759652233
 21
-9.7538457547
  0
LINE
  5
494
100
AcDbEntity
  8
CURVE
100
AcDbLine
 62
253
  6
CONTINUOUS
 10
-48.7759652233
 20
-9.2538457547
 11
-47.5759652233
 21
-9.2538457547
  0
LINE
  5
495
100
AcDbEntity
  8
CURVE
100
AcDbLine
 62
253
  6
CONTINUOUS
 10
-52.6759652233
 20
-9.1538457547
 11
-48.7759652233
 21
-9.1538457547
  0
LINE
  5
496
100
AcDbEntity
  8
CURVE
100
AcDbLine
 62
253
  6
CONTINUOUS
 10
-47.5759652233
 20
-9.0538457547
 11
-48.7759652233
 21
-9.0538457547
  0
LINE
  5
497
100
AcDbEntity
  8
CURVE
100
AcDbLine
 62
253
  6
CONTINUOUS
 10
-47.5759652233
 20
-8.5538457547
 11
-48.7759652233
 21
-8.5538457547
  0
LINE
  5
498
100
AcDbEntity
  8
CURVE
100
AcDbLine
 62
253
  6
CONTINUOUS
 10
-52.6759652233
 20
-8.4538457547
 11
-48.7759652233
 21
-8.4538457547
  0
LINE
  5
499
100
AcDbEntity
  8
CURVE
100
AcDbLine
 62
253
  6
CONTINUOUS
 10
-48.7759652233
 20
-8.3538457547
 11
-47.5759652233
 21
-8.3538457547
  0
LINE
  5
49A
100
AcDbEntity
  8
CURVE
100
AcDbLine
 62
253
  6
CONTINUOUS
 10
-48.7759652233
 20
-7.8538457547
 11
-47.5759652233
 21
-7.8538457547
  0
LINE
  5
49B
100
AcDbEntity
  8
CURVE
100
AcDbLine
 62
253
  6
CONTINUOUS
 10
-51.3759652233
 20
-7.7538457547
 11
-48.7759652233
 21
-7.7538457547
  0
LINE
  5
49C
100
AcDbEntity
  8
CURVE
100
AcDbLine
 62
253
  6
CONTINUOUS
 10
-47.5759652233
 20
-7.6538457547
 11
-48.7759652233
 21
-7.6538457547
  0
LINE
  5
49D
100
AcDbEntity
  8
CURVE
100
AcDbLine
 62
253
  6
CONTINUOUS
 10
-51.6616792233
 20
-4.8038457547
 11
-51.8759652233
 21
-4.6609887547
  0
LINE
  5
49E
100
AcDbEntity
  8
CURVE
100
AcDbLine
 62
253
  6
CONTINUOUS
 10
-51.5902512233
 20
-4.3038457547
 11
-50.8759652233
 21
-4.8038457547
  0
LINE
  5
49F
100
AcDbEntity
  8
CURVE
100
AcDbLine
 62
253
  6
CONTINUOUS
 10
-52.2473942233
 20
-4.3752747547
 11
-52.1759652233
 21
-4.4467027547
  0
LINE
  5
4A0
100
AcDbEntity
  8
CURVE
100
AcDbLine
 62
253
  6
CONTINUOUS
 10
-50.5759652233
 20
-4.5181317547
 11
-50.2902512233
 21
-4.8038457547
  0
LINE
  5
4A1
100
AcDbEntity
  8
CURVE
100
AcDbLine
 62
253
  6
CONTINUOUS
 10
-51.3759652233
 20
-5.1038457547
 11
-51.3759652233
 21
-7.7538457547
  0
LINE
  5
4A2
100
AcDbEntity
  8
CURVE
100
AcDbLine
 62
253
  6
CONTINUOUS
 10
-51.3759652233
 20
-12.5038457547
 11
-51.3759652233
 21
-9.8538457547
  0
LINE
  5
4A3
100
AcDbEntity
  8
DRAFT
100
AcDbLine
 62
7
  6
CONTINUOUS
 10
-50.9759652233
 20
6.4961542453
 11
-50.9759652233
 21
-0.9038457547
  0
LINE
  5
4A4
100
AcDbEntity
  8
ASSI
100
AcDbLine
 62
7
  6
CONTINUOUS
 10
-50.9759652233
 20
6.4961542453
 11
-50.9759652233
 21
-0.9038457547
  0
LINE
  5
4A5
100
AcDbEntity
  8
CURVE
100
AcDbLine
 62
253
  6
CONTINUOUS
 10
-50.8759652233
 20
-12.9181317547
 11
-50.8759652233
 21
-13.2038457547
  0
LINE
  5
4A6
100
AcDbEntity
  8
CURVE
100
AcDbLine
 62
253
  6
CONTINUOUS
 10
-50.8759652233
 20
-4.8038457547
 11
-50.8759652233
 21
-4.3038457547
  0
LINE
  5
4A7
100
AcDbEntity
  8
ASSI
100
AcDbLine
 62
7
  6
CONTINUOUS
 10
-50.2759652233
 20
24.9763339856
 11
-50.2759652233
 21
22.7461542453
  0
LINE
  5
4A8
100
AcDbEntity
  8
DRAFT
100
AcDbLine
 62
7
  6
CONTINUOUS
 10
-50.2759652233
 20
24.9763339856
 11
-50.2759652233
 21
22.7461542453
  0
LINE
  5
4A9
100
AcDbEntity
  8
DRAFT
100
AcDbLine
 62
7
  6
CONTINUOUS
 10
-50.2759652233
 20
-19.6538457547
 11
-50.2759652233
 21
-21.0837123573
  0
LINE
  5
4AA
100
AcDbEntity
  8
ASSI
100
AcDbLine
 62
7
  6
CONTINUOUS
 10
-50.2759652233
 20
-19.6538457547
 11
-50.2759652233
 21
-21.884025495
  0
LINE
  5
4AB
100
AcDbEntity
  8
DRAFT
100
AcDbLine
 62
7
  6
CONTINUOUS
 10
-50.2759652233
 20
-21.1642562132
 11
-50.2759652233
 21
-21.884025495
  0
LINE
  5
4AC
100
AcDbEntity
  8
CURVE
100
AcDbLine
 62
253
  6
CONTINUOUS
 10
-50.1473942233
 20
-13.1562267547
 11
-50.1473942233
 21
-12.8467027547
  0
LINE
  5
4AD
100
AcDbEntity
  8
CURVE
100
AcDbLine
 62
253
  6
CONTINUOUS
 10
-50.0759652233
 20
-5.1038457547
 11
-50.0759652233
 21
-7.0538457547
  0
LINE
  5
4AE
100
AcDbEntity
  8
CURVE
100
AcDbLine
 62
253
  6
CONTINUOUS
 10
-50.0759652233
 20
-12.5038457547
 11
-50.0759652233
 21
-10.5538457547
  0
LINE
  5
4AF
100
AcDbEntity
  8
CURVE
100
AcDbLine
 62
253
  6
CONTINUOUS
 10
-49.5759652233
 20
-12.8467027547
 11
-49.5759652233
 21
-13.0609887547
  0
LINE
  5
4B0
100
AcDbEntity
  8
SCRITTE
100
AcDbLine
 62
253
  6
CONTINUOUS
 10
-58.3839692233
 20
-7.9729227547
 11
-61.2836222233
 21
-8.2440727547
  0
LINE
  5
4B1
100
AcDbEntity
  8
SCRITTE
100
AcDbLine
 62
253
  6
CONTINUOUS
 10
-60.2694952233
 20
-8.6893937547
 11
-58.3839692233
 21
-8.5650387547
  0
LINE
  5
4B2
100
AcDbEntity
  8
CURVE
100
AcDbLine
 62
253
  6
CONTINUOUS
 10
-48.7759652233
 20
-7.1538457547
 11
-47.5759652233
 21
-7.1538457547
  0
LINE
  5
4B3
100
AcDbEntity
  8
CURVE
100
AcDbLine
 62
253
  6
CONTINUOUS
 10
-50.0759652233
 20
-7.0538457547
 11
-48.7759652233
 21
-7.0538457547
  0
LINE
  5
4B4
100
AcDbEntity
  8
CURVE
100
AcDbLine
 62
253
  6
CONTINUOUS
 10
-47.5759652233
 20
-6.9538457547
 11
-48.7759652233
 21
-6.9538457547
  0
LINE
  5
4B5
100
AcDbEntity
  8
CURVE
100
AcDbLine
 62
253
  6
CONTINUOUS
 10
-45.3759652233
 20
-5.4038457547
 11
-45.7759652233
 21
-5.4038457547
  0
LINE
  5
4B6
100
AcDbEntity
  8
CURVE
100
AcDbLine
 62
253
  6
CONTINUOUS
 10
-48.3759652233
 20
-5.4038457547
 11
-48.7759652233
 21
-5.4038457547
  0
LINE
  5
4B7
100
AcDbEntity
  8
SCRITTE
100
AcDbLine
 62
253
  6
CONTINUOUS
 10
-58.3839688711
 20
-5.315413099
 11
-61.2497445707
 21
-5.315413099
  0
LINE
  5
4B8
100
AcDbEntity
  8
DRAFT
100
AcDbLine
 62
7
  6
CONTINUOUS
 10
-41.9759652233
 20
-7.060941339
 11
-20.8759652233
 21
-7.429243209
  0
LINE
  5
4B9
100
AcDbEntity
  8
ASSI
100
AcDbLine
 62
7
  6
CONTINUOUS
 10
-41.9759652233
 20
-7.060941339
 11
-20.8759652233
 21
-7.429243209
  0
LINE
  5
4BA
100
AcDbEntity
  8
CURVE
100
AcDbLine
 62
253
  6
CONTINUOUS
 10
-48.7759652233
 20
-5.4038457547
 11
-48.7759652233
 21
-12.2038457547
  0
LINE
  5
4BB
100
AcDbEntity
  8
ASSI
100
AcDbLine
 62
7
  6
CONTINUOUS
 10
-48.6759652233
 20
-19.6538457547
 11
-48.6759652233
 21
-20.6538457547
  0
LINE
  5
4BC
100
AcDbEntity
  8
DRAFT
100
AcDbLine
 62
7
  6
CONTINUOUS
 10
-48.6759652233
 20
-19.6538457547
 11
-48.6759652233
 21
-20.6538457547
  0
LINE
  5
4BD
100
AcDbEntity
  8
ASSI
100
AcDbLine
 62
7
  6
CONTINUOUS
 10
-48.6759652233
 20
22.7461542453
 11
-48.6759652233
 21
23.7461542453
  0
LINE
  5
4BE
100
AcDbEntity
  8
DRAFT
100
AcDbLine
 62
7
  6
CONTINUOUS
 10
-48.6759652233
 20
22.7461542453
 11
-48.6759652233
 21
23.7461542453
  0
LINE
  5
4BF
100
AcDbEntity
  8
CURVE
100
AcDbLine
 62
253
  6
CONTINUOUS
 10
-48.3759652233
 20
-4.5038457547
 11
-48.3759652233
 21
-5.4038457547
  0
LINE
  5
4C0
100
AcDbEntity
  8
CURVE
100
AcDbLine
 62
253
  6
CONTINUOUS
 10
-48.0759652233
 20
-4.2038457547
 11
-48.0759652233
 21
-4.5038457547
  0
LINE
  5
4C1
100
AcDbEntity
  8
CURVE
100
AcDbLine
 62
253
  6
CONTINUOUS
 10
-47.5759652233
 20
-8.3538457547
 11
-47.5759652233
 21
-8.5538457547
  0
LINE
  5
4C2
100
AcDbEntity
  8
CURVE
100
AcDbLine
 62
253
  6
CONTINUOUS
 10
-47.5759652233
 20
-10.6538457547
 11
-47.5759652233
 21
-10.4538457547
  0
LINE
  5
4C3
100
AcDbEntity
  8
CURVE
100
AcDbLine
 62
253
  6
CONTINUOUS
 10
-47.5759652233
 20
-9.9538457547
 11
-47.5759652233
 21
-9.7538457547
  0
LINE
  5
4C4
100
AcDbEntity
  8
CURVE
100
AcDbLine
 62
253
  6
CONTINUOUS
 10
-47.5759652233
 20
-9.2538457547
 11
-47.5759652233
 21
-9.0538457547
  0
LINE
  5
4C5
100
AcDbEntity
  8
CURVE
100
AcDbLine
 62
253
  6
CONTINUOUS
 10
-47.5759652233
 20
-7.8538457547
 11
-47.5759652233
 21
-7.6538457547
  0
LINE
  5
4C6
100
AcDbEntity
  8
CURVE
100
AcDbLine
 62
253
  6
CONTINUOUS
 10
-47.5759652233
 20
-7.1538457547
 11
-47.5759652233
 21
-6.9538457547
  0
LINE
  5
4C7
100
AcDbEntity
  8
SCRITTE
100
AcDbLine
 62
253
  6
CONTINUOUS
 10
-60.7896374816
 20
-4.7326470265
 11
-59.9936261245
 21
-4.7326470265
  0
LINE
  5
4C8
100
AcDbEntity
  8
SCRITTE
100
AcDbLine
 62
253
  6
CONTINUOUS
 10
-59.5187329853
 20
-4.7125771379
 11
-58.3839688711
 21
-4.7125771379
  0
LINE
  5
4C9
100
AcDbEntity
  8
CURVE
100
AcDbLine
 62
253
  6
CONTINUOUS
 10
-49.5759652233
 20
-4.5181317547
 11
-50.5759652233
 21
-4.5181317547
  0
LINE
  5
4CA
100
AcDbEntity
  8
CURVE
100
AcDbLine
 62
253
  6
CONTINUOUS
 10
-45.7759652233
 20
-4.5038457547
 11
-46.0759652233
 21
-4.5038457547
  0
LINE
  5
4CB
100
AcDbEntity
  8
CURVE
100
AcDbLine
 62
253
  6
CONTINUOUS
 10
-48.0759652233
 20
-4.5038457547
 11
-48.3759652233
 21
-4.5038457547
  0
LINE
  5
4CC
100
AcDbEntity
  8
CURVE
100
AcDbLine
 62
253
  6
CONTINUOUS
 10
-53.0331082233
 20
-4.3990837547
 11
-52.8188222233
 21
-4.3990837547
  0
LINE
  5
4CD
100
AcDbEntity
  8
CURVE
100
AcDbLine
 62
253
  6
CONTINUOUS
 10
-52.6045362233
 20
-4.3752747547
 11
-52.2473942233
 21
-4.3752747547
  0
LINE
  5
4CE
100
AcDbEntity
  8
CURVE
100
AcDbLine
 62
253
  6
CONTINUOUS
 10
-51.7331082233
 20
-4.3038457547
 11
-51.5902512233
 21
-4.3038457547
  0
LINE
  5
4CF
100
AcDbEntity
  8
CURVE
100
AcDbLine
 62
253
  6
CONTINUOUS
 10
-46.0759652233
 20
-4.2038457547
 11
-48.0759652233
 21
-4.2038457547
  0
LINE
  5
4D0
100
AcDbEntity
  8
SCRITTE
100
AcDbLine
 62
253
  6
CONTINUOUS
 10
-59.7546357173
 20
-3.7592900447
 11
-59.7375012945
 21
-3.7592900447
  0
LINE
  5
4D1
100
AcDbEntity
  8
SCRITTE
100
AcDbLine
 62
253
  6
CONTINUOUS
 10
-56.1973937786
 20
14.5009160962
 11
-56.0616795576
 21
14.2747255768
  0
LINE
  5
4D2
100
AcDbEntity
  8
CURVE
100
AcDbLine
 62
253
  6
CONTINUOUS
 10
-46.3759652233
 20
-12.2038457547
 11
-46.3759652233
 21
-11.7038457547
  0
LINE
  5
4D3
100
AcDbEntity
  8
CURVE
100
AcDbLine
 62
253
  6
CONTINUOUS
 10
-46.0759652233
 20
-4.5038457547
 11
-46.0759652233
 21
-4.2038457547
  0
LINE
  5
4D4
100
AcDbEntity
  8
CURVE
100
AcDbLine
 62
253
  6
CONTINUOUS
 10
-45.7759652233
 20
-5.4038457547
 11
-45.7759652233
 21
-4.5038457547
  0
LINE
  5
4D5
100
AcDbEntity
  8
DRAFT
100
AcDbLine
 62
7
  6
CONTINUOUS
 10
-45.5759652233
 20
6.5904115959
 11
-45.5759652233
 21
5.7018968947
  0
LINE
  5
4D6
100
AcDbEntity
  8
DRAFT
100
AcDbLine
 62
7
  6
CONTINUOUS
 10
-45.5759652233
 20
0.8904115959
 11
-45.5759652233
 21
-2.1038457547
  0
LINE
  5
4D7
100
AcDbEntity
  8
CURVE
100
AcDbLine
 62
253
  6
CONTINUOUS
 10
-45.3759652233
 20
-11.7038457547
 11
-45.3759652233
 21
-5.4038457547
  0
LINE
  5
4D8
100
AcDbEntity
  8
ASSI
100
AcDbLine
 62
7
  6
CONTINUOUS
 10
-45.2759652233
 20
21.3724155356
 11
-45.2759652233
 21
19.193638311
  0
LINE
  5
4D9
100
AcDbEntity
  8
RACCORDO
100
AcDbLine
 62
7
  6
CONTINUOUS
 10
-45.2759652233
 20
21.3724155356
 11
-45.2759652233
 21
19.193638311
  0
LINE
  5
4DA
100
AcDbEntity
  8
ASSI
100
AcDbLine
 62
7
  6
CONTINUOUS
 10
-45.2759652233
 20
-15.8513298203
 11
-45.2759652233
 21
-18.280107045
  0
LINE
  5
4DB
100
AcDbEntity
  8
RACCORDO
100
AcDbLine
 62
7
  6
CONTINUOUS
 10
-45.2759652233
 20
-15.8513298203
 11
-45.2759652233
 21
-18.280107045
  0
LINE
  5
4DC
100
AcDbEntity
  8
CURVE
100
AcDbLine
 62
253
  6
CONTINUOUS
 10
-52.7473942233
 20
-4.5181317547
 11
-52.6045362233
 21
-4.3752747547
  0
LINE
  5
4DD
100
AcDbEntity
  8
CURVE
100
AcDbLine
 62
253
  6
CONTINUOUS
 10
-51.8759652233
 20
-4.4467027547
 11
-51.7331082233
 21
-4.3038457547
  0
LINE
  5
4DE
100
AcDbEntity
  8
CURVE
100
AcDbLine
 62
253
  6
CONTINUOUS
 10
-53.1759652233
 20
-4.5181317547
 11
-53.0331082233
 21
-4.3990837547
  0
LINE
  5
4DF
100
AcDbEntity
  8
CURVE
100
AcDbLine
 62
253
  6
CONTINUOUS
 10
-35.6878699994
 20
8.6890114095
 11
-35.3902509696
 21
8.8675827529
  0
LINE
  5
4E0
100
AcDbEntity
  8
SCRITTE
100
AcDbLine
 62
253
  6
CONTINUOUS
 10
-58.9628432233
 20
-6.2878787547
 11
-58.3839692233
 21
-6.1310807547
  0
LINE
  5
4E1
100
AcDbEntity
  8
SCRITTE
100
AcDbLine
 62
253
  6
CONTINUOUS
 10
-60.4868712233
 20
-6.6869717547
 11
-59.4107732233
 21
-6.4088417547
  0
LINE
  5
4E2
100
AcDbEntity
  8
0
100
AcDbLine
 62
7
  6
CONTINUOUS
 10
-21.3759652233
 20
-1.7038457547
 11
-36.3759652233
 21
-1.7038457547
  0
LINE
  5
4E3
100
AcDbEntity
  8
DRAFT
100
AcDbLine
 62
7
  6
CONTINUOUS
 10
-41.9759652233
 20
-2.9038457547
 11
-50.9759652233
 21
-0.9038457547
  0
LINE
  5
4E4
100
AcDbEntity
  8
ASSI
100
AcDbLine
 62
7
  6
CONTINUOUS
 10
-41.9759652233
 20
-2.9038457547
 11
-50.9759652233
 21
-0.9038457547
  0
LINE
  5
4E5
100
AcDbEntity
  8
SCRITTE
100
AcDbLine
 62
253
  6
CONTINUOUS
 10
-56.8759652233
 20
11.1532971065
 11
-56.6045366681
 21
10.8818685371
  0
LINE
  5
4E6
100
AcDbEntity
  8
SCRITTE
100
AcDbLine
 62
253
  6
CONTINUOUS
 10
-56.6045366681
 20
12.2390113558
 11
-56.8759652233
 21
12.5104399111
  0
LINE
  5
4E7
100
AcDbEntity
  8
CURVE
100
AcDbLine
 62
253
  6
CONTINUOUS
 10
-52.4259652233
 20
8.6675828334
 11
-52.611679498
 21
8.853297108
  0
LINE
  5
4E8
100
AcDbEntity
  8
SCRITTE
100
AcDbLine
 62
253
  6
CONTINUOUS
 10
-54.9759652233
 20
11.2890114124
 11
-55.2473938069
 21
11.5604399677
  0
LINE
  5
4E9
100
AcDbEntity
  8
CURVE
100
AcDbLine
 62
253
  6
CONTINUOUS
 10
-52.611679498
 20
12.908059081
 11
-52.5188223994
 21
12.7532971467
  0
LINE
  5
4EA
100
AcDbEntity
  8
DRAFT
100
AcDbLine
 62
7
  6
CONTINUOUS
 10
-41.9759652233
 20
-7.060941339
 11
-41.9759652233
 21
-2.9038457547
  0
LINE
  5
4EB
100
AcDbEntity
  8
ASSI
100
AcDbLine
 62
7
  6
CONTINUOUS
 10
-41.9759652233
 20
-7.060941339
 11
-41.9759652233
 21
-2.9038457547
  0
LINE
  5
4EC
100
AcDbEntity
  8
CURVE
100
AcDbLine
 62
253
  6
CONTINUOUS
 10
-35.7473938054
 20
10.1175828088
 11
-35.5688223875
 21
10.2961542453
  0
LINE
  5
4ED
100
AcDbEntity
  8
DRAFT
100
AcDbLine
 62
7
  6
CONTINUOUS
 10
-50.9759652233
 20
0.7961542453
 11
-37.9759652233
 21
1.0230700894
  0
LINE
  5
4EE
100
AcDbEntity
  8
ASSI
100
AcDbLine
 62
7
  6
CONTINUOUS
 10
-50.9759652233
 20
0.7961542453
 11
-37.9759652233
 21
1.0230700894
  0
LINE
  5
4EF
100
AcDbEntity
  8
0
100
AcDbLine
 62
7
  6
CONTINUOUS
 10
-21.3759652233
 20
1.2961542453
 11
-36.3759652233
 21
1.2961542453
  0
LINE
  5
4F0
100
AcDbEntity
  8
CURVE
100
AcDbLine
 62
253
  6
CONTINUOUS
 10
-53.0759652233
 20
9.5032970693
 11
-52.8902509487
 21
9.3175827946
  0
LINE
  5
4F1
100
AcDbEntity
  8
CURVE
100
AcDbLine
 62
253
  6
CONTINUOUS
 10
-51.7759652233
 20
8.7604399707
 11
-51.9616795174
 21
8.9461542453
  0
LINE
  5
4F2
100
AcDbEntity
  8
SCRITTE
100
AcDbLine
 62
253
  6
CONTINUOUS
 10
-55.5188223905
 20
13.0532971348
 11
-54.9759652233
 21
12.5104399111
  0
LINE
  5
4F3
100
AcDbEntity
  8
CURVE
100
AcDbLine
 62
253
  6
CONTINUOUS
 10
-51.9616795174
 20
9.9675827946
 11
-51.7759652233
 21
9.7818685975
  0
LINE
  5
4F4
100
AcDbEntity
  8
CURVE
100
AcDbLine
 62
253
  6
CONTINUOUS
 10
-52.7973937726
 20
11.5461542453
 11
-53.0759652233
 21
11.8247255411
  0
LINE
  5
4F5
100
AcDbEntity
  8
SCRITTE
100
AcDbLine
 62
253
  6
CONTINUOUS
 10
-55.1116795151
 20
14.5461542453
 11
-54.9759652233
 21
14.4104400243
  0
LINE
  5
4F6
100
AcDbEntity
  8
SCRITTE
100
AcDbLine
 62
253
  6
CONTINUOUS
 10
-58.3839692233
 20
-5.4931497547
 11
-61.2836222233
 21
-6.3828357547
  0
LINE
  5
4F7
100
AcDbEntity
  8
DRAFT
100
AcDbLine
 62
7
  6
CONTINUOUS
 10
-37.9759652233
 20
3.0230700894
 11
-50.9759652233
 21
2.7961542453
  0
LINE
  5
4F8
100
AcDbEntity
  8
ASSI
100
AcDbLine
 62
7
  6
CONTINUOUS
 10
-37.9759652233
 20
3.0230700894
 11
-50.9759652233
 21
2.7961542453
  0
LINE
  5
4F9
100
AcDbEntity
  8
0
100
AcDbLine
 62
7
  6
CONTINUOUS
 10
-35.9259652233
 20
2.2961542453
 11
-31.8259652233
 21
2.2961542453
  0
LINE
  5
4FA
100
AcDbEntity
  8
0
100
AcDbLine
 62
7
  6
CONTINUOUS
 10
-30.9259652233
 20
2.2961542453
 11
-26.8259652233
 21
2.2961542453
  0
LINE
  5
4FB
100
AcDbEntity
  8
0
100
AcDbLine
 62
7
  6
CONTINUOUS
 10
-25.9259652233
 20
2.2961542453
 11
-21.8259652233
 21
2.2961542453
  0
LINE
  5
4FC
100
AcDbEntity
  8
ASSI
100
AcDbLine
 62
253
  6
CONTINUOUS
 10
-22.6259652233
 20
4.0961542453
 11
-25.1259652233
 21
4.0961542453
  0
LINE
  5
4FD
100
AcDbEntity
  8
ASSI
100
AcDbLine
 62
253
  6
CONTINUOUS
 10
-27.6259652233
 20
4.0961542453
 11
-30.1259652233
 21
4.0961542453
  0
LINE
  5
4FE
100
AcDbEntity
  8
ASSI
100
AcDbLine
 62
253
  6
CONTINUOUS
 10
-32.6259652233
 20
4.0961542453
 11
-35.1259652233
 21
4.0961542453
  0
LINE
  5
4FF
100
AcDbEntity
  8
DRAFT
100
AcDbLine
 62
7
  6
CONTINUOUS
 10
-37.9759652233
 20
3.5692384013
 11
-50.9759652233
 21
3.7961542453
  0
LINE
  5
500
100
AcDbEntity
  8
ASSI
100
AcDbLine
 62
7
  6
CONTINUOUS
 10
-37.9759652233
 20
3.5692384013
 11
-50.9759652233
 21
3.7961542453
  0
LINE
  5
501
100
AcDbEntity
  8
SCRITTE
100
AcDbLine
 62
253
  6
CONTINUOUS
 10
-56.6045366681
 20
10.8818685371
 11
-56.3331081128
 21
10.7461542453
  0
LINE
  5
502
100
AcDbEntity
  8
CURVE
100
AcDbLine
 62
253
  6
CONTINUOUS
 10
-51.9616795174
 20
12.0104400482
 11
-51.7759652233
 21
11.8247255411
  0
LINE
  5
503
100
AcDbEntity
  8
CURVE
100
AcDbLine
 62
253
  6
CONTINUOUS
 10
-53.0759652233
 20
13.6818684425
 11
-52.704536674
 21
13.3104400482
  0
LINE
  5
504
100
AcDbEntity
  8
CURVE
100
AcDbLine
 62
253
  6
CONTINUOUS
 10
-51.8688223703
 20
12.9390113439
 11
-51.7759652233
 21
12.8461542453
  0
LINE
  5
505
100
AcDbEntity
  8
DRAFT
100
AcDbLine
 62
7
  6
CONTINUOUS
 10
-37.9759652233
 20
5.5692384013
 11
-37.9759652233
 21
1.0230700894
  0
LINE
  5
506
100
AcDbEntity
  8
ASSI
100
AcDbLine
 62
7
  6
CONTINUOUS
 10
-37.9759652233
 20
5.5692384013
 11
-37.9759652233
 21
1.0230700894
  0
LINE
  5
507
100
AcDbEntity
  8
CURVE
100
AcDbLine
 62
253
  6
CONTINUOUS
 10
-51.4473942233
 20
-12.9181317547
 11
-51.3045362233
 21
-12.7752747547
  0
LINE
  5
508
100
AcDbEntity
  8
CURVE
100
AcDbLine
 62
253
  6
CONTINUOUS
 10
-50.1473942233
 20
-12.8467027547
 11
-50.0045362233
 21
-12.7038457547
  0
LINE
  5
509
100
AcDbEntity
  8
SCRITTE
100
AcDbLine
 62
253
  6
CONTINUOUS
 10
-60.2773882233
 20
-10.2040077547
 11
-58.3839692233
 21
-9.4939507547
  0
LINE
  5
50A
100
AcDbEntity
  8
SCRITTE
100
AcDbLine
 62
253
  6
CONTINUOUS
 10
-59.6737262233
 20
-9.4482007547
 11
-61.2836222233
 21
-10.0470797547
  0
LINE
  5
50B
100
AcDbEntity
  8
ASSI
100
AcDbLine
 62
7
  6
CONTINUOUS
 10
-35.1259652233
 20
4.4961542453
 11
-32.6259652233
 21
4.4961542453
  0
LINE
  5
50C
100
AcDbEntity
  8
ASSI
100
AcDbLine
 62
7
  6
CONTINUOUS
 10
-30.1259652233
 20
4.4961542453
 11
-27.6259652233
 21
4.4961542453
  0
LINE
  5
50D
100
AcDbEntity
  8
ASSI
100
AcDbLine
 62
7
  6
CONTINUOUS
 10
-25.1259652233
 20
4.4961542453
 11
-22.6259652233
 21
4.4961542453
  0
LINE
  5
50E
100
AcDbEntity
  8
DRAFT
100
AcDbLine
 62
7
  6
CONTINUOUS
 10
-50.9759652233
 20
5.7961542453
 11
-37.9759652233
 21
5.5692384013
  0
LINE
  5
50F
100
AcDbEntity
  8
ASSI
100
AcDbLine
 62
7
  6
CONTINUOUS
 10
-50.9759652233
 20
5.7961542453
 11
-37.9759652233
 21
5.5692384013
  0
LINE
  5
510
100
AcDbEntity
  8
SCRITTE
100
AcDbLine
 62
253
  6
CONTINUOUS
 10
-55.2473938069
 20
11.5604399677
 11
-55.5188223905
 21
11.6961542453
  0
LINE
  5
511
100
AcDbEntity
  8
CURVE
100
AcDbLine
 62
253
  6
CONTINUOUS
 10
-52.4259652233
 20
11.3604400482
 11
-52.7973937726
 21
11.5461542453
  0
LINE
  5
512
100
AcDbEntity
  8
SCRITTE
100
AcDbLine
 62
253
  6
CONTINUOUS
 10
-56.4688223338
 20
15.0890115823
 11
-56.8759652233
 21
15.3604400243
  0
LINE
  5
513
100
AcDbEntity
  8
CURVE
100
AcDbLine
 62
253
  6
CONTINUOUS
 10
-52.7973937726
 20
14.0532968368
 11
-53.0759652233
 21
14.2390116538
  0
LINE
  5
514
100
AcDbEntity
  8
SCRITTE
100
AcDbLine
 62
253
  6
CONTINUOUS
 10
-56.3331081128
 20
16.0390115823
 11
-54.9759652233
 21
15.0890115823
  0
LINE
  5
515
100
AcDbEntity
  8
CURVE
100
AcDbLine
 62
253
  6
CONTINUOUS
 10
-52.704536674
 20
14.7032968368
 11
-51.7759652233
 21
14.0532968368
  0
LINE
  5
516
100
AcDbEntity
  8
0
100
AcDbLine
 62
7
  6
CONTINUOUS
 10
-36.3759652233
 20
-1.7038457547
 11
-36.3759652233
 21
6.7509981933
  0
LINE
  5
517
100
AcDbEntity
  8
0
100
AcDbLine
 62
7
  6
CONTINUOUS
 10
-35.9259652233
 20
6.7588529725
 11
-35.9259652233
 21
2.2961542453
  0
LINE
  5
518
100
AcDbEntity
  8
0
100
AcDbLine
 62
7
  6
CONTINUOUS
 10
-35.7759652233
 20
2.7961542453
 11
-35.7759652233
 21
2.2961542453
  0
LINE
  5
519
100
AcDbEntity
  8
CURVE
100
AcDbLine
 62
253
  6
CONTINUOUS
 10
-35.7473938054
 20
9.2247256632
 11
-35.7473938054
 21
10.1175828088
  0
LINE
  5
51A
100
AcDbEntity
  8
CURVE
100
AcDbLine
 62
253
  6
CONTINUOUS
 10
-35.6878699994
 20
8.1532970812
 11
-35.6878699994
 21
8.6890114095
  0
LINE
  5
51B
100
AcDbEntity
  8
ASSI
100
AcDbLine
 62
7
  6
CONTINUOUS
 10
-35.1259652233
 20
4.0961542453
 11
-35.1259652233
 21
4.4961542453
  0
LINE
  5
51C
100
AcDbEntity
  8
ASSI
100
AcDbLine
 62
7
  6
CONTINUOUS
 10
-35.1259652233
 20
4.0961542453
 11
-35.7759652233
 21
2.7961542453
  0
LINE
  5
51D
100
AcDbEntity
  8
CURVE
100
AcDbLine
 62
253
  6
CONTINUOUS
 10
-29.6759652233
 20
8.3318685736
 11
-30.0331080964
 21
7.7961542453
  0
LINE
  5
51E
100
AcDbEntity
  8
CURVE
100
AcDbLine
 62
253
  6
CONTINUOUS
 10
-30.9259652233
 20
8.510439917
 11
-29.6759652233
 21
10.2961542453
  0
LINE
  5
51F
100
AcDbEntity
  8
CURVE
100
AcDbLine
 62
253
  6
CONTINUOUS
 10
-49.5759652233
 20
-13.0609887547
 11
-49.7188222233
 21
-13.2038457547
  0
LINE
  5
520
100
AcDbEntity
  8
DRAFT
100
AcDbLine
 62
7
  6
CONTINUOUS
 10
-50.9759652233
 20
6.4961542453
 11
-20.8759652233
 21
7.0215516997
  0
LINE
  5
521
100
AcDbEntity
  8
ASSI
100
AcDbLine
 62
7
  6
CONTINUOUS
 10
-50.9759652233
 20
6.4961542453
 11
-20.8759652233
 21
7.0215516997
  0
LINE
  5
522
100
AcDbEntity
  8
SCRITTE
100
AcDbLine
 62
253
  6
CONTINUOUS
 10
-58.3759652233
 20
7.0835376915
 11
-61.2750815119
 21
7.0835376915
  0
LINE
  5
523
100
AcDbEntity
  8
SCRITTE
100
AcDbLine
 62
253
  6
CONTINUOUS
 10
-60.7025590694
 20
7.4490819948
 11
-58.3759652233
 21
7.4490819948
  0
LINE
  5
524
100
AcDbEntity
  8
CURVE
100
AcDbLine
 62
253
  6
CONTINUOUS
 10
-30.0331080964
 20
7.7961542453
 11
-30.5688223875
 21
7.7961542453
  0
LINE
  5
525
100
AcDbEntity
  8
CURVE
100
AcDbLine
 62
253
  6
CONTINUOUS
 10
-34.6759652233
 20
7.7961542453
 11
-35.3902509696
 21
7.7961542453
  0
LINE
  5
526
100
AcDbEntity
  8
CURVE
100
AcDbLine
 62
253
  6
CONTINUOUS
 10
-53.0759652233
 20
8.2961542453
 11
-51.7759652233
 21
8.2961542453
  0
LINE
  5
527
100
AcDbEntity
  8
ASSI
100
AcDbLine
 62
7
  6
CONTINUOUS
 10
-20.8759652233
 20
8.2961542453
 11
-20.7759652233
 21
8.2961542453
  0
LINE
  5
528
100
AcDbEntity
  8
CURVE
100
AcDbLine
 62
253
  6
CONTINUOUS
 10
-52.611679498
 20
8.853297108
 11
-52.8902509487
 21
8.853297108
  0
LINE
  5
529
100
AcDbEntity
  8
CURVE
100
AcDbLine
 62
253
  6
CONTINUOUS
 10
-35.0331080964
 20
8.8675827529
 11
-35.3902509696
 21
8.8675827529
  0
LINE
  5
52A
100
AcDbEntity
  8
SCRITTE
100
AcDbLine
 62
253
  6
CONTINUOUS
 10
-58.7616990707
 20
13.8013362274
 11
-61.2750815119
 21
14.6379840671
  0
LINE
  5
52B
100
AcDbEntity
  8
SCRITTE
100
AcDbLine
 62
253
  6
CONTINUOUS
 10
-61.2750815119
 20
15.0401254447
 11
-58.3759652233
 21
14.0084359238
  0
LINE
  5
52C
100
AcDbEntity
  8
CURVE
100
AcDbLine
 62
253
  6
CONTINUOUS
 10
-52.333108086
 20
15.074725851
 11
-52.4259652233
 21
15.1366303768
  0
LINE
  5
52D
100
AcDbEntity
  8
CURVE
100
AcDbLine
 62
253
  6
CONTINUOUS
 10
-52.7973937726
 20
15.5390116538
 11
-53.0759652233
 21
15.724725851
  0
LINE
  5
52E
100
AcDbEntity
  8
CURVE
100
AcDbLine
 62
253
  6
CONTINUOUS
 10
-51.7759652233
 20
15.074725851
 11
-51.8688223703
 21
15.1366303768
  0
LINE
  5
52F
100
AcDbEntity
  8
CURVE
100
AcDbLine
 62
253
  6
CONTINUOUS
 10
-52.7973937726
 20
17.3032968368
 11
-53.0759652233
 21
17.4890116538
  0
LINE
  5
530
100
AcDbEntity
  8
CURVE
100
AcDbLine
 62
253
  6
CONTINUOUS
 10
-52.704536674
 20
16.1890116538
 11
-51.7759652233
 21
15.5390116538
  0
LINE
  5
531
100
AcDbEntity
  8
ASSI
100
AcDbLine
 62
7
  6
CONTINUOUS
 10
-32.6259652233
 20
4.0961542453
 11
-32.6259652233
 21
4.4961542453
  0
LINE
  5
532
100
AcDbEntity
  8
ASSI
100
AcDbLine
 62
7
  6
CONTINUOUS
 10
-30.1259652233
 20
4.0961542453
 11
-30.7759652233
 21
2.7961542453
  0
LINE
  5
533
100
AcDbEntity
  8
CURVE
100
AcDbLine
 62
253
  6
CONTINUOUS
 10
-25.3902509696
 20
7.7961542453
 11
-24.6759652233
 21
8.510439917
  0
LINE
  5
534
100
AcDbEntity
  8
SCRITTE
100
AcDbLine
 62
253
  6
CONTINUOUS
 10
-61.2836222233
 20
-14.4541057547
 11
-58.3839692233
 21
-13.5348587547
  0
LINE
  5
535
100
AcDbEntity
  8
CURVE
100
AcDbLine
 62
253
  6
CONTINUOUS
 10
-51.9616795174
 20
8.9461542453
 11
-52.2402509487
 21
8.9461542453
  0
LINE
  5
536
100
AcDbEntity
  8
SCRITTE
100
AcDbLine
 62
253
  6
CONTINUOUS
 10
-58.9241146685
 20
9.0290606784
 11
-61.2750815119
 21
9.0290606784
  0
LINE
  5
537
100
AcDbEntity
  8
CURVE
100
AcDbLine
 62
253
  6
CONTINUOUS
 10
-52.8902509487
 20
9.3175827946
 11
-52.704536674
 21
9.3175827946
  0
LINE
  5
538
100
AcDbEntity
  8
SCRITTE
100
AcDbLine
 62
253
  6
CONTINUOUS
 10
-61.2750815119
 20
9.3946305681
 11
-58.3759652233
 21
9.3946305681
  0
LINE
  5
539
100
AcDbEntity
  8
ASSI
100
AcDbLine
 62
7
  6
CONTINUOUS
 10
-20.8759652233
 20
9.8961542453
 11
-20.7759652233
 21
9.8961542453
  0
LINE
  5
53A
100
AcDbEntity
  8
CURVE
100
AcDbLine
 62
253
  6
CONTINUOUS
 10
-52.1473938114
 20
9.9675827946
 11
-51.9616795174
 21
9.9675827946
  0
LINE
  5
53B
100
AcDbEntity
  8
SCRITTE
100
AcDbLine
 62
253
  6
CONTINUOUS
 10
-58.3759652233
 20
10.2028007496
 11
-61.2750815119
 21
10.2028007496
  0
LINE
  5
53C
100
AcDbEntity
  8
CURVE
100
AcDbLine
 62
253
  6
CONTINUOUS
 10
-35.5688223875
 20
10.2961542453
 11
-34.6759652233
 21
10.2961542453
  0
LINE
  5
53D
100
AcDbEntity
  8
CURVE
100
AcDbLine
 62
253
  6
CONTINUOUS
 10
-29.6759652233
 20
10.2961542453
 11
-30.9259652233
 21
10.2961542453
  0
LINE
  5
53E
100
AcDbEntity
  8
SCRITTE
100
AcDbLine
 62
253
  6
CONTINUOUS
 10
-60.9502520216
 20
10.5886521221
 11
-60.0285287966
 21
10.5886521221
  0
LINE
  5
53F
100
AcDbEntity
  8
SCRITTE
100
AcDbLine
 62
253
  6
CONTINUOUS
 10
-59.7036993063
 20
10.5886521221
 11
-58.7007947136
 21
10.5886521221
  0
LINE
  5
540
100
AcDbEntity
  8
SCRITTE
100
AcDbLine
 62
253
  6
CONTINUOUS
 10
-56.3331081128
 20
10.7461542453
 11
-55.5188223905
 21
10.7461542453
  0
LINE
  5
541
100
AcDbEntity
  8
SCRITTE
100
AcDbLine
 62
253
  6
CONTINUOUS
 10
-56.0616795576
 20
13.1890113558
 11
-55.5188223905
 21
13.0532971348
  0
LINE
  5
542
100
AcDbEntity
  8
CURVE
100
AcDbLine
 62
253
  6
CONTINUOUS
 10
-51.9926318965
 20
16.7771065082
 11
-51.9307271286
 21
16.7461542453
  0
LINE
  5
543
100
AcDbEntity
  8
CURVE
100
AcDbLine
 62
253
  6
CONTINUOUS
 10
-51.8378699864
 20
16.8390116538
 11
-51.8997747495
 21
16.8699639167
  0
LINE
  5
544
100
AcDbEntity
  8
CURVE
100
AcDbLine
 62
253
  6
CONTINUOUS
 10
-52.704536674
 20
17.9532968368
 11
-51.7759652233
 21
17.3032968368
  0
LINE
  5
545
100
AcDbEntity
  8
CURVE
100
AcDbLine
 62
253
  6
CONTINUOUS
 10
-35.3902509696
 20
7.7961542453
 11
-35.6878699994
 21
8.1532970812
  0
LINE
  5
546
100
AcDbEntity
  8
0
100
AcDbLine
 62
7
  6
CONTINUOUS
 10
-31.9759652233
 20
2.2961542453
 11
-31.9759652233
 21
2.7961542453
  0
LINE
  5
547
100
AcDbEntity
  8
0
100
AcDbLine
 62
7
  6
CONTINUOUS
 10
-31.8259652233
 20
6.8304187387
 11
-31.8259652233
 21
2.2961542453
  0
LINE
  5
548
100
AcDbEntity
  8
0
100
AcDbLine
 62
7
  6
CONTINUOUS
 10
-30.9259652233
 20
6.8461282971
 11
-30.9259652233
 21
2.2961542453
  0
LINE
  5
549
100
AcDbEntity
  8
CURVE
100
AcDbLine
 62
253
  6
CONTINUOUS
 10
-30.9259652233
 20
8.1532970812
 11
-30.9259652233
 21
8.510439917
  0
LINE
  5
54A
100
AcDbEntity
  8
0
100
AcDbLine
 62
7
  6
CONTINUOUS
 10
-30.7759652233
 20
2.7961542453
 11
-30.7759652233
 21
2.2961542453
  0
LINE
  5
54B
100
AcDbEntity
  8
RACCORDO
100
AcDbLine
 62
7
  6
CONTINUOUS
 10
-45.3929430018
 20
-18.6015008498
 11
-45.9696251011
 21
-19.2887638134
  0
LINE
  5
54C
100
AcDbEntity
  8
ASSI
100
AcDbLine
 62
7
  6
CONTINUOUS
 10
-45.3929430018
 20
-18.6015008498
 11
-46.2759652233
 21
-19.6538457547
  0
LINE
  5
54D
100
AcDbEntity
  8
DRAFT
100
AcDbLine
 62
7
  6
CONTINUOUS
 10
-45.9696251011
 20
-19.2887638134
 11
-46.2759652233
 21
-19.6538457547
  0
LINE
  5
54E
100
AcDbEntity
  8
CURVE
100
AcDbLine
 62
253
  6
CONTINUOUS
 10
-51.9616795174
 20
11.3604400482
 11
-52.4259652233
 21
11.3604400482
  0
LINE
  5
54F
100
AcDbEntity
  8
SCRITTE
100
AcDbLine
 62
253
  6
CONTINUOUS
 10
-55.5188223905
 20
11.6961542453
 11
-56.3331081128
 21
11.6961542453
  0
LINE
  5
550
100
AcDbEntity
  8
CURVE
100
AcDbLine
 62
253
  6
CONTINUOUS
 10
-52.333108086
 20
12.0104400482
 11
-51.9616795174
 21
12.0104400482
  0
LINE
  5
551
100
AcDbEntity
  8
SCRITTE
100
AcDbLine
 62
253
  6
CONTINUOUS
 10
-60.0285287966
 20
12.0955168278
 11
-59.7036993063
 21
12.0955168278
  0
LINE
  5
552
100
AcDbEntity
  8
SCRITTE
100
AcDbLine
 62
253
  6
CONTINUOUS
 10
-61.2750815119
 20
12.2051750015
 11
-60.9502520216
 21
12.2051750015
  0
LINE
  5
553
100
AcDbEntity
  8
SCRITTE
100
AcDbLine
 62
253
  6
CONTINUOUS
 10
-58.7007947136
 20
12.2173643603
 11
-58.3759652233
 21
12.2173643603
  0
LINE
  5
554
100
AcDbEntity
  8
SCRITTE
100
AcDbLine
 62
253
  6
CONTINUOUS
 10
-56.0616795576
 20
12.2390113558
 11
-56.6045366681
 21
12.2390113558
  0
LINE
  5
555
100
AcDbEntity
  8
CURVE
100
AcDbLine
 62
253
  6
CONTINUOUS
 10
-52.8902509487
 20
12.908059081
 11
-52.611679498
 21
12.908059081
  0
LINE
  5
556
100
AcDbEntity
  8
CURVE
100
AcDbLine
 62
253
  6
CONTINUOUS
 10
-52.333108086
 20
12.9390113439
 11
-51.8688223703
 21
12.9390113439
  0
LINE
  5
557
100
AcDbEntity
  8
SCRITTE
100
AcDbLine
 62
253
  6
CONTINUOUS
 10
-56.6045366681
 20
13.1890113558
 11
-56.0616795576
 21
13.1890113558
  0
LINE
  5
558
100
AcDbEntity
  8
SCRITTE
100
AcDbLine
 62
253
  6
CONTINUOUS
 10
-56.8759652233
 20
16.9890115823
 11
-55.3831080845
 21
16.5818684663
  0
LINE
  5
559
100
AcDbEntity
  8
CURVE
100
AcDbLine
 62
253
  6
CONTINUOUS
 10
-35.3902509696
 20
8.8675827529
 11
-35.7473938054
 21
9.2247256632
  0
LINE
  5
55A
100
AcDbEntity
  8
DRAFT
100
AcDbLine
 62
7
  6
CONTINUOUS
 10
-46.2759652233
 20
22.7461542453
 11
-45.9696251011
 21
22.3810723041
  0
LINE
  5
55B
100
AcDbEntity
  8
ASSI
100
AcDbLine
 62
7
  6
CONTINUOUS
 10
-46.2759652233
 20
22.7461542453
 11
-45.3929430018
 21
21.6938093404
  0
LINE
  5
55C
100
AcDbEntity
  8
RACCORDO
100
AcDbLine
 62
7
  6
CONTINUOUS
 10
-45.9696251011
 20
22.3810723041
 11
-45.3929430018
 21
21.6938093404
  0
LINE
  5
55D
100
AcDbEntity
  8
ASSI
100
AcDbLine
 62
7
  6
CONTINUOUS
 10
-31.9759652233
 20
2.7961542453
 11
-32.6259652233
 21
4.0961542453
  0
LINE
  5
55E
100
AcDbEntity
  8
ASSI
100
AcDbLine
 62
7
  6
CONTINUOUS
 10
-30.1259652233
 20
4.0961542453
 11
-30.1259652233
 21
4.4961542453
  0
LINE
  5
55F
100
AcDbEntity
  8
ASSI
100
AcDbLine
 62
7
  6
CONTINUOUS
 10
-25.1259652233
 20
4.0961542453
 11
-25.7759652233
 21
2.7961542453
  0
LINE
  5
560
100
AcDbEntity
  8
CURVE
100
AcDbLine
 62
253
  6
CONTINUOUS
 10
-51.7759652233
 20
13.6818684425
 11
-53.0759652233
 21
13.6818684425
  0
LINE
  5
561
100
AcDbEntity
  8
SCRITTE
100
AcDbLine
 62
253
  6
CONTINUOUS
 10
-56.6045366681
 20
14.5009160962
 11
-56.1973937786
 21
14.5009160962
  0
LINE
  5
562
100
AcDbEntity
  8
SCRITTE
100
AcDbLine
 62
253
  6
CONTINUOUS
 10
-55.7902509457
 20
14.5461542453
 11
-55.1116795151
 21
14.5461542453
  0
LINE
  5
563
100
AcDbEntity
  8
CURVE
100
AcDbLine
 62
253
  6
CONTINUOUS
 10
-52.8902509487
 20
14.7032968368
 11
-52.704536674
 21
14.7032968368
  0
LINE
  5
564
100
AcDbEntity
  8
CURVE
100
AcDbLine
 62
253
  6
CONTINUOUS
 10
-52.4259652233
 20
15.074725851
 11
-52.333108086
 21
15.074725851
  0
LINE
  5
565
100
AcDbEntity
  8
CURVE
100
AcDbLine
 62
253
  6
CONTINUOUS
 10
-51.8688223703
 20
15.074725851
 11
-51.7759652233
 21
15.074725851
  0
LINE
  5
566
100
AcDbEntity
  8
SCRITTE
100
AcDbLine
 62
253
  6
CONTINUOUS
 10
-58.3759652233
 20
15.5315360503
 11
-61.2750815119
 21
15.5315360503
  0
LINE
  5
567
100
AcDbEntity
  8
SCRITTE
100
AcDbLine
 62
253
  6
CONTINUOUS
 10
-60.9502520216
 20
15.9173891286
 11
-60.0285287966
 21
15.9173891286
  0
LINE
  5
568
100
AcDbEntity
  8
SCRITTE
100
AcDbLine
 62
253
  6
CONTINUOUS
 10
-59.7036993063
 20
15.9173891286
 11
-58.7007947136
 21
15.9173891286
  0
LINE
  5
569
100
AcDbEntity
  8
CURVE
100
AcDbLine
 62
253
  6
CONTINUOUS
 10
-30.5688223875
 20
7.7961542453
 11
-30.9259652233
 21
8.1532970812
  0
LINE
  5
56A
100
AcDbEntity
  8
ASSI
100
AcDbLine
 62
7
  6
CONTINUOUS
 10
-26.9759652233
 20
2.7961542453
 11
-27.6259652233
 21
4.0961542453
  0
LINE
  5
56B
100
AcDbEntity
  8
ASSI
100
AcDbLine
 62
7
  6
CONTINUOUS
 10
-27.6259652233
 20
4.0961542453
 11
-27.6259652233
 21
4.4961542453
  0
LINE
  5
56C
100
AcDbEntity
  8
0
100
AcDbLine
 62
7
  6
CONTINUOUS
 10
-26.9759652233
 20
2.2961542453
 11
-26.9759652233
 21
2.7961542453
  0
LINE
  5
56D
100
AcDbEntity
  8
0
100
AcDbLine
 62
7
  6
CONTINUOUS
 10
-26.8259652233
 20
6.9176940633
 11
-26.8259652233
 21
2.2961542453
  0
LINE
  5
56E
100
AcDbEntity
  8
0
100
AcDbLine
 62
7
  6
CONTINUOUS
 10
-25.9259652233
 20
6.9334036218
 11
-25.9259652233
 21
2.2961542453
  0
LINE
  5
56F
100
AcDbEntity
  8
0
100
AcDbLine
 62
7
  6
CONTINUOUS
 10
-25.7759652233
 20
2.7961542453
 11
-25.7759652233
 21
2.2961542453
  0
LINE
  5
570
100
AcDbEntity
  8
SCRITTE
100
AcDbLine
 62
253
  6
CONTINUOUS
 10
-56.6045366681
 20
16.0390115823
 11
-56.3331081128
 21
16.0390115823
  0
LINE
  5
571
100
AcDbEntity
  8
CURVE
100
AcDbLine
 62
253
  6
CONTINUOUS
 10
-52.8902509487
 20
16.1890116538
 11
-52.704536674
 21
16.1890116538
  0
LINE
  5
572
100
AcDbEntity
  8
CURVE
100
AcDbLine
 62
253
  6
CONTINUOUS
 10
-51.9307271286
 20
16.7461542453
 11
-51.8997747495
 21
16.7461542453
  0
LINE
  5
573
100
AcDbEntity
  8
CURVE
100
AcDbLine
 62
253
  6
CONTINUOUS
 10
-51.8997747495
 20
16.8699639167
 11
-51.9307271286
 21
16.8699639167
  0
LINE
  5
574
100
AcDbEntity
  8
SCRITTE
100
AcDbLine
 62
253
  6
CONTINUOUS
 10
-55.9259652233
 20
17.2152016487
 11
-54.9759652233
 21
17.2152016487
  0
LINE
  5
575
100
AcDbEntity
  8
SCRITTE
100
AcDbLine
 62
253
  6
CONTINUOUS
 10
-60.0285287966
 20
17.4243067128
 11
-59.7036993063
 21
17.4243067128
  0
LINE
  5
576
100
AcDbEntity
  8
SCRITTE
100
AcDbLine
 62
253
  6
CONTINUOUS
 10
-61.2750815119
 20
17.5338847158
 11
-60.9502520216
 21
17.5338847158
  0
LINE
  5
577
100
AcDbEntity
  8
SCRITTE
100
AcDbLine
 62
253
  6
CONTINUOUS
 10
-58.7007947136
 20
17.5461542453
 11
-58.3759652233
 21
17.5461542453
  0
LINE
  5
578
100
AcDbEntity
  8
CURVE
100
AcDbLine
 62
253
  6
CONTINUOUS
 10
-52.8902509487
 20
17.9532968368
 11
-52.704536674
 21
17.9532968368
  0
LINE
  5
579
100
AcDbEntity
  8
CURVE
100
AcDbLine
 62
253
  6
CONTINUOUS
 10
-25.3902509696
 20
10.2961542453
 11
-25.3902509696
 21
7.7961542453
  0
LINE
  5
57A
100
AcDbEntity
  8
ASSI
100
AcDbLine
 62
7
  6
CONTINUOUS
 10
-25.1259652233
 20
4.0961542453
 11
-25.1259652233
 21
4.4961542453
  0
LINE
  5
57B
100
AcDbEntity
  8
ASSI
100
AcDbLine
 62
7
  6
CONTINUOUS
 10
-48.1759652233
 20
-20.6538457547
 11
-46.2759652233
 21
-19.6538457547
  0
LINE
  5
57C
100
AcDbEntity
  8
DRAFT
100
AcDbLine
 62
7
  6
CONTINUOUS
 10
-48.1759652233
 20
-20.6538457547
 11
-46.2759652233
 21
-19.6538457547
  0
LINE
  5
57D
100
AcDbEntity
  8
ASSI
100
AcDbLine
 62
7
  6
CONTINUOUS
 10
-45.2759652233
 20
19.193638311
 11
-54.2759652233
 21
19.1150965009
  0
LINE
  5
57E
100
AcDbEntity
  8
DRAFT
100
AcDbLine
 62
7
  6
CONTINUOUS
 10
-45.2759652233
 20
19.193638311
 11
-54.2759652233
 21
19.1150965009
  0
LINE
  5
57F
100
AcDbEntity
  8
DRAFT
100
AcDbLine
 62
7
  6
CONTINUOUS
 10
-20.8759652233
 20
18.5046768611
 11
-54.2759652233
 21
18.7961542453
  0
LINE
  5
580
100
AcDbEntity
  8
ASSI
100
AcDbLine
 62
7
  6
CONTINUOUS
 10
-20.8759652233
 20
18.5046768611
 11
-54.2759652233
 21
18.7961542453
  0
LINE
  5
581
100
AcDbEntity
  8
ASSI
100
AcDbLine
 62
7
  6
CONTINUOUS
 10
-46.2759652233
 20
22.7461542453
 11
-48.1759652233
 21
23.7461542453
  0
LINE
  5
582
100
AcDbEntity
  8
DRAFT
100
AcDbLine
 62
7
  6
CONTINUOUS
 10
-46.2759652233
 20
22.7461542453
 11
-48.1759652233
 21
23.7461542453
  0
LINE
  5
583
100
AcDbEntity
  8
ASSI
100
AcDbLine
 62
7
  6
CONTINUOUS
 10
-21.9759652233
 20
2.7961542453
 11
-22.6259652233
 21
4.0961542453
  0
LINE
  5
584
100
AcDbEntity
  8
ASSI
100
AcDbLine
 62
7
  6
CONTINUOUS
 10
-22.6259652233
 20
4.0961542453
 11
-22.6259652233
 21
4.4961542453
  0
LINE
  5
585
100
AcDbEntity
  8
0
100
AcDbLine
 62
7
  6
CONTINUOUS
 10
-21.9759652233
 20
2.2961542453
 11
-21.9759652233
 21
2.7961542453
  0
LINE
  5
586
100
AcDbEntity
  8
0
100
AcDbLine
 62
7
  6
CONTINUOUS
 10
-21.8259652233
 20
7.004969388
 11
-21.8259652233
 21
2.2961542453
  0
LINE
  5
587
100
AcDbEntity
  8
0
100
AcDbLine
 62
7
  6
CONTINUOUS
 10
-21.3759652233
 20
-1.7038457547
 11
-21.3759652233
 21
7.0128241672
  0
LINE
  5
588
100
AcDbEntity
  8
DRAFT
100
AcDbLine
 62
7
  6
CONTINUOUS
 10
-20.8759652233
 20
18.5046768611
 11
-20.8759652233
 21
7.0215516997
  0
LINE
  5
589
100
AcDbEntity
  8
ASSI
100
AcDbLine
 62
7
  6
CONTINUOUS
 10
-20.8759652233
 20
18.5046768611
 11
-20.8759652233
 21
7.0215516997
  0
LINE
  5
58A
100
AcDbEntity
  8
DRAFT
100
AcDbLine
 62
7
  6
CONTINUOUS
 10
-20.8759652233
 20
-7.429243209
 11
-20.8759652233
 21
-15.4123683705
  0
LINE
  5
58B
100
AcDbEntity
  8
ASSI
100
AcDbLine
 62
7
  6
CONTINUOUS
 10
-20.8759652233
 20
-7.429243209
 11
-20.8759652233
 21
-15.4123683705
  0
LINE
  5
58C
100
AcDbEntity
  8
ASSI
100
AcDbLine
 62
7
  6
CONTINUOUS
 10
-20.7759652233
 20
9.8961542453
 11
-20.7759652233
 21
8.2961542453
  0
LINE
  5
58D
100
AcDbEntity
  8
ASSI
100
AcDbLine
 62
7
  6
CONTINUOUS
 10
-46.2759652233
 20
22.7461542453
 11
-50.2759652233
 21
22.7461542453
  0
LINE
  5
58E
100
AcDbEntity
  8
DRAFT
100
AcDbLine
 62
7
  6
CONTINUOUS
 10
-46.2759652233
 20
22.7461542453
 11
-50.2759652233
 21
22.7461542453
  0
LINE
  5
58F
100
AcDbEntity
  8
DRAFT
100
AcDbLine
 62
7
  6
CONTINUOUS
 10
-45.9696251011
 20
22.3810723041
 11
-54.2759652233
 21
22.4461542453
  0
LINE
  5
590
100
AcDbEntity
  8
ASSI
100
AcDbLine
 62
7
  6
CONTINUOUS
 10
-50.2759652233
 20
22.7461542453
 11
-46.2464583065
 21
22.7109892712
  0
LINE
  5
591
100
AcDbEntity
  8
DRAFT
100
AcDbLine
 62
7
  6
CONTINUOUS
 10
-50.2759652233
 20
22.7461542453
 11
-46.2464583065
 21
22.7109892712
  0
LINE
  5
592
100
AcDbEntity
  8
ASSI
100
AcDbLine
 62
253
  6
CONTINUOUS
 10
-63.3339778567
 20
22.5644675331
 11
-62.8431685254
 21
22.543450162
  0
LINE
  5
593
100
AcDbEntity
  8
0
100
AcDbLine
 62
253
  6
CONTINUOUS
 10
-63.3339778567
 20
22.5644675331
 11
-62.8431685254
 21
22.543450162
  0
LINE
  5
594
100
AcDbEntity
  8
ASSI
100
AcDbLine
 62
253
  6
CONTINUOUS
 10
-62.3697784684
 20
23.0217466152
 11
-54.2759652233
 21
23.4459253933
  0
LINE
  5
595
100
AcDbEntity
  8
0
100
AcDbLine
 62
253
  6
CONTINUOUS
 10
-62.3697784684
 20
23.0217466152
 11
-54.2759652233
 21
23.4459253933
  0
LINE
  5
596
100
AcDbEntity
  8
ASSI
100
AcDbLine
 62
7
  6
CONTINUOUS
 10
-62.3872202433
 20
23.5210613825
 11
-54.2759652233
 21
23.9461542453
  0
LINE
  5
597
100
AcDbEntity
  8
0
100
AcDbLine
 62
7
  6
CONTINUOUS
 10
-62.3872202433
 20
23.5210613825
 11
-54.2759652233
 21
23.9461542453
  0
LINE
  5
598
100
AcDbEntity
  8
ASSI
100
AcDbLine
 62
7
  6
CONTINUOUS
 10
-48.1759652233
 20
23.7461542453
 11
-48.6759652233
 21
23.7461542453
  0
LINE
  5
599
100
AcDbEntity
  8
0
100
AcDbLine
 62
7
  6
CONTINUOUS
 10
-48.1759652233
 20
23.7461542453
 11
-48.6759652233
 21
23.7461542453
  0
LINE
  5
59A
100
AcDbEntity
  8
ASSI
100
AcDbLine
 62
7
  6
CONTINUOUS
 10
-54.2759652233
 20
25.0461542453
 11
-50.2759652233
 21
24.9763339856
  0
LINE
  5
59B
100
AcDbEntity
  8
DRAFT
100
AcDbLine
 62
7
  6
CONTINUOUS
 10
-54.2759652233
 20
25.0461542453
 11
-50.2759652233
 21
24.9763339856
  0
ARC
  5
59C
100
AcDbEntity
  8
ASSI
100
AcDbCircle
 62
7
  6
CONTINUOUS
 10
8.9999286486
 20
-10.9038457547
 40
0.8
100
AcDbArc
 50
270.0
 51
360.0
  0
ARC
  5
59D
100
AcDbEntity
  8
ASSI
100
AcDbCircle
 62
7
  6
CONTINUOUS
 10
-8.4000713514
 20
-10.9038457547
 40
0.8
100
AcDbArc
 50
180.0
 51
270.0
  0
ARC
  5
59E
100
AcDbEntity
  8
RACCORDO
100
AcDbCircle
 62
7
  6
CONTINUOUS
 10
8.9999286486
 20
-10.9038457547
 40
0.8
100
AcDbArc
 50
270.0
 51
360.0
  0
ARC
  5
59F
100
AcDbEntity
  8
RACCORDO
100
AcDbCircle
 62
7
  6
CONTINUOUS
 10
-8.4000713514
 20
-10.9038457547
 40
0.8
100
AcDbArc
 50
180.0
 51
270.0
  0
ARC
  5
5A0
100
AcDbEntity
  8
RACCORDO
100
AcDbCircle
 62
253
  6
CONTINUOUS
 10
7.9662931289
 20
-4.9522763028
 40
0.7004153877
100
AcDbArc
 50
270.0302386957
 51
0.0025123782
  0
ARC
  5
5A1
100
AcDbEntity
  8
RACCORDO
100
AcDbCircle
 62
253
  6
CONTINUOUS
 10
-7.3664343834
 20
-4.952278661
 40
0.7004149391
100
AcDbArc
 50
179.9972947254
 51
269.9696427347
  0
ARC
  5
5A2
100
AcDbEntity
  8
ASSI
100
AcDbCircle
 62
253
  6
CONTINUOUS
 10
-7.3665174529
 20
-4.9523659379
 40
0.7003256662
100
AcDbArc
 50
179.990154249
 51
269.9764353121
  0
ARC
  5
5A3
100
AcDbEntity
  8
ASSI
100
AcDbCircle
 62
253
  6
CONTINUOUS
 10
7.9663811535
 20
-4.9523599626
 40
0.7003254216
100
AcDbArc
 50
270.0230406065
 51
0.0093569987
  0
ARC
  5
5A4
100
AcDbEntity
  8
0
100
AcDbCircle
 62
253
  6
CONTINUOUS
 10
10.8084839173
 20
-19.9285432776
 40
0.5001919761
100
AcDbArc
 50
270.027816675
 51
359.8974923815
  0
ARC
  5
5A5
100
AcDbEntity
  8
0
100
AcDbCircle
 62
253
  6
CONTINUOUS
 10
-10.2086266185
 20
-19.9285432818
 40
0.5001919746
100
AcDbArc
 50
180.1025071326
 51
269.9721831654
  0
ARC
  5
5A6
100
AcDbEntity
  8
ASSI
100
AcDbCircle
 62
253
  6
CONTINUOUS
 10
10.8085115855
 20
-19.9285709854
 40
0.5001617681
100
AcDbArc
 50
270.024648825
 51
359.9006608979
  0
ARC
  5
5A7
100
AcDbEntity
  8
ASSI
100
AcDbCircle
 62
253
  6
CONTINUOUS
 10
-10.2086542868
 20
-19.9285709895
 40
0.5001617666
100
AcDbArc
 50
180.099338631
 51
269.9753510162
  0
ARC
  5
5A8
100
AcDbEntity
  8
ASSI
100
AcDbCircle
 62
7
  6
CONTINUOUS
 10
-4.6500713514
 20
-21.5538457547
 40
0.5
100
AcDbArc
 50
350.803718421
 51
119.112422776
  0
ARC
  5
5A9
100
AcDbEntity
  8
ASSI
100
AcDbCircle
 62
7
  6
CONTINUOUS
 10
5.2499286486
 20
-21.5538457547
 40
0.5
100
AcDbArc
 50
60.887577224
 51
189.196281579
  0
ARC
  5
5AA
100
AcDbEntity
  8
ASSI
100
AcDbCircle
 62
7
  6
CONTINUOUS
 10
8.9999286486
 20
-10.9038457547
 40
0.5
100
AcDbArc
 50
270.0
 51
360.0
  0
ARC
  5
5AB
100
AcDbEntity
  8
ASSI
100
AcDbCircle
 62
7
  6
CONTINUOUS
 10
-8.4000713514
 20
-10.9038457547
 40
0.5
100
AcDbArc
 50
180.0
 51
270.0
  0
ARC
  5
5AC
100
AcDbEntity
  8
DRAFT
100
AcDbCircle
 62
7
  6
CONTINUOUS
 10
-4.6500713514
 20
-21.5538457547
 40
0.5
100
AcDbArc
 50
350.803718421
 51
119.112422776
  0
ARC
  5
5AD
100
AcDbEntity
  8
DRAFT
100
AcDbCircle
 62
7
  6
CONTINUOUS
 10
5.2499286486
 20
-21.5538457547
 40
0.5
100
AcDbArc
 50
60.887577224
 51
189.196281579
  0
ARC
  5
5AE
100
AcDbEntity
  8
RACCORDO
100
AcDbCircle
 62
7
  6
CONTINUOUS
 10
8.9999286486
 20
-10.9038457547
 40
0.5
100
AcDbArc
 50
270.0
 51
360.0
  0
ARC
  5
5AF
100
AcDbEntity
  8
RACCORDO
100
AcDbCircle
 62
7
  6
CONTINUOUS
 10
-8.4000713514
 20
-10.9038457547
 40
0.5
100
AcDbArc
 50
180.0
 51
270.0
  0
ARC
  5
5B0
100
AcDbEntity
  8
RACCORDO
100
AcDbCircle
 62
253
  6
CONTINUOUS
 10
7.9669355521
 20
-4.9456731159
 40
0.1998708381
100
AcDbArc
 50
269.9250537139
 51
359.9747330899
  0
ARC
  5
5B1
100
AcDbEntity
  8
RACCORDO
100
AcDbCircle
 62
253
  6
CONTINUOUS
 10
-7.3670785495
 20
-4.9456734657
 40
0.1998705152
100
AcDbArc
 50
180.0242986696
 51
270.0742312583
  0
ARC
  5
5B2
100
AcDbEntity
  8
ASSI
100
AcDbCircle
 62
253
  6
CONTINUOUS
 10
-7.3670890806
 20
-4.9456839371
 40
0.1998590109
100
AcDbArc
 50
180.0212979313
 51
270.0772541036
  0
ARC
  5
5B3
100
AcDbEntity
  8
ASSI
100
AcDbCircle
 62
253
  6
CONTINUOUS
 10
7.9669465249
 20
-4.9456840837
 40
0.1998588406
100
AcDbArc
 50
269.9219040155
 51
359.9778760529
  0
ARC
  5
5B4
100
AcDbEntity
  8
ASSI
100
AcDbCircle
 62
7
  6
CONTINUOUS
 10
-10.9500713514
 20
1.5461542453
 40
28.0
100
AcDbArc
 50
302.9352304972
 51
304.1210936517
  0
ARC
  5
5B5
100
AcDbEntity
  8
ASSI
100
AcDbCircle
 62
7
  6
CONTINUOUS
 10
-10.9500713514
 20
1.5461542453
 40
28.0
100
AcDbArc
 50
305.9627651514
 51
306.8698976458
  0
ARC
  5
5B6
100
AcDbEntity
  8
ASSI
100
AcDbCircle
 62
7
  6
CONTINUOUS
 10
-10.9500713514
 20
1.5461542453
 40
28.0
100
AcDbArc
 50
53.1301023542
 51
54.0372348486
  0
ARC
  5
5B7
100
AcDbEntity
  8
ASSI
100
AcDbCircle
 62
7
  6
CONTINUOUS
 10
-10.9500713514
 20
1.5461542453
 40
28.0
100
AcDbArc
 50
55.8789063483
 51
57.0647695028
  0
ARC
  5
5B8
100
AcDbEntity
  8
DRAFT
100
AcDbCircle
 62
7
  6
CONTINUOUS
 10
-10.9500713514
 20
1.5461542453
 40
28.0
100
AcDbArc
 50
302.9352304972
 51
304.1210936517
  0
ARC
  5
5B9
100
AcDbEntity
  8
DRAFT
100
AcDbCircle
 62
7
  6
CONTINUOUS
 10
-10.9500713514
 20
1.5461542453
 40
28.0
100
AcDbArc
 50
305.9627651514
 51
306.8698976458
  0
ARC
  5
5BA
100
AcDbEntity
  8
DRAFT
100
AcDbCircle
 62
7
  6
CONTINUOUS
 10
-10.9500713514
 20
1.5461542453
 40
28.0
100
AcDbArc
 50
53.1301023542
 51
54.0372348486
  0
ARC
  5
5BB
100
AcDbEntity
  8
DRAFT
100
AcDbCircle
 62
7
  6
CONTINUOUS
 10
-10.9500713514
 20
1.5461542453
 40
28.0
100
AcDbArc
 50
55.8789063483
 51
57.0647695028
  0
ARC
  5
5BC
100
AcDbEntity
  8
RACCORDO
100
AcDbCircle
 62
253
  6
CONTINUOUS
 10
-7.3671366974
 20
3.9412893965
 40
0.7003472994
100
AcDbArc
 50
90.0331678638
 51
180.0165574911
  0
ARC
  5
5BD
100
AcDbEntity
  8
ASSI
100
AcDbCircle
 62
253
  6
CONTINUOUS
 10
-7.367227218
 20
3.9413755523
 40
0.7002544384
100
AcDbArc
 50
90.0257652574
 51
180.0236088008
  0
ARC
  5
5BE
100
AcDbEntity
  8
RACCORDO
100
AcDbCircle
 62
253
  6
CONTINUOUS
 10
-7.3677796618
 20
3.9387901369
 40
0.1998021673
100
AcDbArc
 50
89.9351304734
 51
180.0240991959
  0
ARC
  5
5BF
100
AcDbEntity
  8
ASSI
100
AcDbCircle
 62
253
  6
CONTINUOUS
 10
-7.3677906552
 20
3.938801156
 40
0.1997901371
100
AcDbArc
 50
89.9319742632
 51
180.0272606287
  0
ARC
  5
5C0
100
AcDbEntity
  8
ASSI
100
AcDbCircle
 62
7
  6
CONTINUOUS
 10
-8.4000713514
 20
13.2961542453
 40
0.8
100
AcDbArc
 50
90.0
 51
180.0
  0
ARC
  5
5C1
100
AcDbEntity
  8
RACCORDO
100
AcDbCircle
 62
7
  6
CONTINUOUS
 10
-8.4000713514
 20
13.2961542453
 40
0.8
100
AcDbArc
 50
90.0
 51
180.0
  0
ARC
  5
5C2
100
AcDbEntity
  8
0
100
AcDbCircle
 62
253
  6
CONTINUOUS
 10
-10.2086266124
 20
23.0208517656
 40
0.5001919813
100
AcDbArc
 50
90.0278175498
 51
179.8974920809
  0
ARC
  5
5C3
100
AcDbEntity
  8
ASSI
100
AcDbCircle
 62
253
  6
CONTINUOUS
 10
-10.2086542799
 20
23.0208794732
 40
0.5001617736
100
AcDbArc
 50
90.0246497732
 51
179.9006605781
  0
ARC
  5
5C4
100
AcDbEntity
  8
ASSI
100
AcDbCircle
 62
7
  6
CONTINUOUS
 10
-4.6500713514
 20
24.6461542453
 40
0.5
100
AcDbArc
 50
240.887577224
 51
9.196281579
  0
ARC
  5
5C5
100
AcDbEntity
  8
ASSI
100
AcDbCircle
 62
7
  6
CONTINUOUS
 10
-8.4000713514
 20
13.2961542453
 40
0.5
100
AcDbArc
 50
90.0
 51
180.0
  0
ARC
  5
5C6
100
AcDbEntity
  8
DRAFT
100
AcDbCircle
 62
7
  6
CONTINUOUS
 10
-4.6500713514
 20
24.6461542453
 40
0.5
100
AcDbArc
 50
240.887577224
 51
9.196281579
  0
ARC
  5
5C7
100
AcDbEntity
  8
RACCORDO
100
AcDbCircle
 62
7
  6
CONTINUOUS
 10
-8.4000713514
 20
13.2961542453
 40
0.5
100
AcDbArc
 50
90.0
 51
180.0
  0
ARC
  5
5C8
100
AcDbEntity
  8
ASSI
100
AcDbCircle
 62
7
  6
CONTINUOUS
 10
11.5499286486
 20
1.5461542453
 40
28.0
100
AcDbArc
 50
233.1301023542
 51
234.0372348486
  0
ARC
  5
5C9
100
AcDbEntity
  8
ASSI
100
AcDbCircle
 62
7
  6
CONTINUOUS
 10
11.5499286486
 20
1.5461542453
 40
28.0
100
AcDbArc
 50
235.8789063483
 51
237.0647695028
  0
ARC
  5
5CA
100
AcDbEntity
  8
ASSI
100
AcDbCircle
 62
7
  6
CONTINUOUS
 10
11.5499286486
 20
1.5461542453
 40
28.0
100
AcDbArc
 50
122.9352304972
 51
124.1210936517
  0
ARC
  5
5CB
100
AcDbEntity
  8
ASSI
100
AcDbCircle
 62
7
  6
CONTINUOUS
 10
11.5499286486
 20
1.5461542453
 40
28.0
100
AcDbArc
 50
125.9627651514
 51
126.8698976458
  0
ARC
  5
5CC
100
AcDbEntity
  8
DRAFT
100
AcDbCircle
 62
7
  6
CONTINUOUS
 10
11.5499286486
 20
1.5461542453
 40
28.0
100
AcDbArc
 50
233.1301023542
 51
234.0372348486
  0
ARC
  5
5CD
100
AcDbEntity
  8
DRAFT
100
AcDbCircle
 62
7
  6
CONTINUOUS
 10
11.5499286486
 20
1.5461542453
 40
28.0
100
AcDbArc
 50
235.8789063483
 51
237.0647695028
  0
ARC
  5
5CE
100
AcDbEntity
  8
DRAFT
100
AcDbCircle
 62
7
  6
CONTINUOUS
 10
11.5499286486
 20
1.5461542453
 40
28.0
100
AcDbArc
 50
122.9352304972
 51
124.1210936517
  0
ARC
  5
5CF
100
AcDbEntity
  8
DRAFT
100
AcDbCircle
 62
7
  6
CONTINUOUS
 10
11.5499286486
 20
1.5461542453
 40
28.0
100
AcDbArc
 50
125.9627651514
 51
126.8698976458
  0
ARC
  5
5D0
100
AcDbEntity
  8
RACCORDO
100
AcDbCircle
 62
253
  6
CONTINUOUS
 10
7.9669925489
 20
3.941291809
 40
0.7003468253
100
AcDbArc
 50
359.9832451835
 51
89.9667137389
  0
ARC
  5
5D1
100
AcDbEntity
  8
ASSI
100
AcDbCircle
 62
253
  6
CONTINUOUS
 10
7.967070686
 20
3.9413742178
 40
0.7002636229
100
AcDbArc
 50
359.9765008476
 51
89.9731032401
  0
ARC
  5
5D2
100
AcDbEntity
  8
RACCORDO
100
AcDbCircle
 62
253
  6
CONTINUOUS
 10
7.9676370912
 20
3.9387903159
 40
0.1998020174
100
AcDbArc
 50
359.9718263276
 51
90.0641069239
  0
ARC
  5
5D3
100
AcDbEntity
  8
ASSI
100
AcDbCircle
 62
253
  6
CONTINUOUS
 10
7.9676479309
 20
3.9388011141
 40
0.199790183
100
AcDbArc
 50
359.9687280682
 51
90.0672189278
  0
ARC
  5
5D4
100
AcDbEntity
  8
ASSI
100
AcDbCircle
 62
7
  6
CONTINUOUS
 10
8.9999286486
 20
13.2961542453
 40
0.8
100
AcDbArc
 50
0.0
 51
90.0
  0
ARC
  5
5D5
100
AcDbEntity
  8
RACCORDO
100
AcDbCircle
 62
7
  6
CONTINUOUS
 10
8.9999286486
 20
13.2961542453
 40
0.8
100
AcDbArc
 50
0.0
 51
90.0
  0
ARC
  5
5D6
100
AcDbEntity
  8
0
100
AcDbCircle
 62
253
  6
CONTINUOUS
 10
10.8084839125
 20
23.0208517627
 40
0.5001919813
100
AcDbArc
 50
0.1025082489
 51
89.9721827726
  0
ARC
  5
5D7
100
AcDbEntity
  8
ASSI
100
AcDbCircle
 62
253
  6
CONTINUOUS
 10
10.8085115802
 20
23.0208794705
 40
0.5001617735
100
AcDbArc
 50
0.0993397379
 51
89.9753505653
  0
ARC
  5
5D8
100
AcDbEntity
  8
ASSI
100
AcDbCircle
 62
7
  6
CONTINUOUS
 10
5.2499286486
 20
24.6461542453
 40
0.5
100
AcDbArc
 50
170.803718421
 51
299.112422776
  0
ARC
  5
5D9
100
AcDbEntity
  8
ASSI
100
AcDbCircle
 62
7
  6
CONTINUOUS
 10
8.9999286486
 20
13.2961542453
 40
0.5
100
AcDbArc
 50
0.0
 51
90.0
  0
ARC
  5
5DA
100
AcDbEntity
  8
DRAFT
100
AcDbCircle
 62
7
  6
CONTINUOUS
 10
5.2499286486
 20
24.6461542453
 40
0.5
100
AcDbArc
 50
170.803718421
 51
299.112422776
  0
ARC
  5
5DB
100
AcDbEntity
  8
RACCORDO
100
AcDbCircle
 62
7
  6
CONTINUOUS
 10
8.9999286486
 20
13.2961542453
 40
0.5
100
AcDbArc
 50
0.0
 51
90.0
  0
ARC
  5
5DC
100
AcDbEntity
  8
SCRITTE
100
AcDbCircle
 62
253
  6
CONTINUOUS
 10
103.0014740769
 20
-4.4371883572
 40
91.6657166885
100
AcDbArc
 50
179.8883022865
 51
180.1846771554
  0
ARC
  5
5DD
100
AcDbEntity
  8
ASSI
100
AcDbCircle
 62
7
  6
CONTINUOUS
 10
-90.2547071987
 20
-1873.8218173878
 40
1898.8887601085
100
AcDbArc
 50
88.7936194629
 51
88.9143369151
  0
ARC
  5
5DE
100
AcDbEntity
  8
DRAFT
100
AcDbCircle
 62
7
  6
CONTINUOUS
 10
-90.2547071987
 20
-1873.8218173878
 40
1898.8887601085
100
AcDbArc
 50
88.7936194629
 51
88.9143369151
  0
ARC
  5
5DF
100
AcDbEntity
  8
ASSI
100
AcDbCircle
 62
7
  6
CONTINUOUS
 10
-62.334884287
 20
-19.4301233571
 40
1.0
100
AcDbArc
 50
182.4092313014
 51
267.0
  0
ARC
  5
5E0
100
AcDbEntity
  8
0
100
AcDbCircle
 62
7
  6
CONTINUOUS
 10
-62.334884287
 20
-19.4301233571
 40
1.0
100
AcDbArc
 50
182.4092313014
 51
267.0
  0
ARC
  5
5E1
100
AcDbEntity
  8
0
100
AcDbCircle
 62
253
  6
CONTINUOUS
 10
-62.3435966497
 20
-19.4301096585
 40
0.5000132837
100
AcDbArc
 50
182.4107329424
 51
266.9984983588
  0
ARC
  5
5E2
100
AcDbEntity
  8
ASSI
100
AcDbCircle
 62
253
  6
CONTINUOUS
 10
-62.343606308
 20
-19.4301192178
 40
0.5000024329
100
AcDbArc
 50
182.4096850661
 51
266.9995462352
  0
ARC
  5
5E3
100
AcDbEntity
  8
ASSI
100
AcDbCircle
 62
7
  6
CONTINUOUS
 10
-45.7759652233
 20
-18.280107045
 40
0.5
100
AcDbArc
 50
320.0
 51
360.0
  0
ARC
  5
5E4
100
AcDbEntity
  8
RACCORDO
100
AcDbCircle
 62
7
  6
CONTINUOUS
 10
-45.7759652233
 20
-18.280107045
 40
0.5
100
AcDbArc
 50
320.0
 51
360.0
  0
ARC
  5
5E5
100
AcDbEntity
  8
ASSI
100
AcDbCircle
 62
7
  6
CONTINUOUS
 10
-90.2547071989
 20
1876.9141258879
 40
1898.888760118
100
AcDbArc
 50
271.0856630849
 51
271.2063805371
  0
ARC
  5
5E6
100
AcDbEntity
  8
DRAFT
100
AcDbCircle
 62
7
  6
CONTINUOUS
 10
-90.2547071989
 20
1876.9141258879
 40
1898.888760118
100
AcDbArc
 50
271.0856630849
 51
271.2063805371
  0
ARC
  5
5E7
100
AcDbEntity
  8
0
100
AcDbCircle
 62
7
  6
CONTINUOUS
 10
-23.8759652233
 20
4.8961542453
 40
1.75
100
AcDbArc
 50
322.3144663746
 51
360.0
  0
ARC
  5
5E8
100
AcDbEntity
  8
ASSI
100
AcDbCircle
 62
7
  6
CONTINUOUS
 10
-23.8759652233
 20
4.8961542453
 40
1.75
100
AcDbArc
 50
0.0
 51
180.0
  0
ARC
  5
5E9
100
AcDbEntity
  8
0
100
AcDbCircle
 62
7
  6
CONTINUOUS
 10
-23.8759652233
 20
4.8961542453
 40
1.75
100
AcDbArc
 50
180.0
 51
217.6855336254
  0
ARC
  5
5EA
100
AcDbEntity
  8
0
100
AcDbCircle
 62
7
  6
CONTINUOUS
 10
-28.8759652233
 20
4.8961542453
 40
1.75
100
AcDbArc
 50
322.3144663746
 51
360.0
  0
ARC
  5
5EB
100
AcDbEntity
  8
ASSI
100
AcDbCircle
 62
7
  6
CONTINUOUS
 10
-28.8759652233
 20
4.8961542453
 40
1.75
100
AcDbArc
 50
0.0
 51
180.0
  0
ARC
  5
5EC
100
AcDbEntity
  8
0
100
AcDbCircle
 62
7
  6
CONTINUOUS
 10
-28.8759652233
 20
4.8961542453
 40
1.75
100
AcDbArc
 50
180.0
 51
217.6855336254
  0
ARC
  5
5ED
100
AcDbEntity
  8
0
100
AcDbCircle
 62
7
  6
CONTINUOUS
 10
-33.8759652233
 20
4.8961542453
 40
1.75
100
AcDbArc
 50
322.3144663746
 51
360.0
  0
ARC
  5
5EE
100
AcDbEntity
  8
ASSI
100
AcDbCircle
 62
7
  6
CONTINUOUS
 10
-33.8759652233
 20
4.8961542453
 40
1.75
100
AcDbArc
 50
0.0
 51
180.0
  0
ARC
  5
5EF
100
AcDbEntity
  8
0
100
AcDbCircle
 62
7
  6
CONTINUOUS
 10
-33.8759652233
 20
4.8961542453
 40
1.75
100
AcDbArc
 50
180.0
 51
217.6855336254
  0
ARC
  5
5F0
100
AcDbEntity
  8
ASSI
100
AcDbCircle
 62
7
  6
CONTINUOUS
 10
-62.334884287
 20
22.5224318478
 40
1.0
100
AcDbArc
 50
93.0
 51
177.5907686986
  0
ARC
  5
5F1
100
AcDbEntity
  8
0
100
AcDbCircle
 62
7
  6
CONTINUOUS
 10
-62.334884287
 20
22.5224318478
 40
1.0
100
AcDbArc
 50
93.0
 51
177.5907686986
  0
ARC
  5
5F2
100
AcDbEntity
  8
0
100
AcDbCircle
 62
253
  6
CONTINUOUS
 10
-62.3435966497
 20
22.5224181492
 40
0.5000132837
100
AcDbArc
 50
93.0015016419
 51
177.589267057
  0
ARC
  5
5F3
100
AcDbEntity
  8
ASSI
100
AcDbCircle
 62
253
  6
CONTINUOUS
 10
-62.343606308
 20
22.5224277085
 40
0.5000024329
100
AcDbArc
 50
93.0004537617
 51
177.590314937
  0
ARC
  5
5F4
100
AcDbEntity
  8
ASSI
100
AcDbCircle
 62
7
  6
CONTINUOUS
 10
-45.7759652233
 20
21.3724155356
 40
0.5
100
AcDbArc
 50
0.0
 51
40.0
  0
ARC
  5
5F5
100
AcDbEntity
  8
RACCORDO
100
AcDbCircle
 62
7
  6
CONTINUOUS
 10
-45.7759652233
 20
21.3724155356
 40
0.5
100
AcDbArc
 50
0.0
 51
40.0
  0
ARC
  5
5F6
100
AcDbEntity
  8
ASSI
100
AcDbCircle
 62
7
  6
CONTINUOUS
 10
436.2240347767
 20
1.5461542453
 40
500.0
100
AcDbArc
 50
177.5907686986
 51
182.4092313014
  0
ARC
  5
5F7
100
AcDbEntity
  8
RACCORDO
100
AcDbCircle
 62
7
  6
CONTINUOUS
 10
436.2240347767
 20
1.5461542453
 40
500.0
100
AcDbArc
 50
178.6534252211
 51
180.2429173519
  0
ARC
  5
5F8
100
AcDbEntity
  8
RACCORDO
100
AcDbCircle
 62
7
  6
CONTINUOUS
 10
436.2240347767
 20
1.5461542453
 40
500.0
100
AcDbArc
 50
180.7938599599
 51
181.4268123754
  0
ARC
  5
5F9
100
AcDbEntity
  8
0
100
AcDbCircle
 62
7
  6
CONTINUOUS
 10
436.2240347767
 20
1.5461542453
 40
500.0
100
AcDbArc
 50
177.5907686986
 51
182.4092313014
  0
ARC
  5
5FA
100
AcDbEntity
  8
0
100
AcDbCircle
 62
253
  6
CONTINUOUS
 10
436.2177771967
 20
1.5461542453
 40
499.5024664412
100
AcDbArc
 50
177.5907806019
 51
182.4092193981
  0
ARC
  5
5FB
100
AcDbEntity
  8
ASSI
100
AcDbCircle
 62
253
  6
CONTINUOUS
 10
436.2147464816
 20
1.5461542453
 40
499.499438405
100
AcDbArc
 50
177.5907659883
 51
182.4092340117
  0
SPLINE
  5
5FC
100
AcDbEntity
  8
ASSI
100
AcDbSpline
 62
253
  6
CONTINUOUS
 70
0
 71
3
 72
18
 73
14
 74
12
 42
0.0000001
 43
0.0000001
 44
0.0000000001
 12
0.4999434249
 22
-0.000041729
 32
0.0
 13
0.4821098075
 23
-0.1323388201
 33
0.0
 40
0.0
 40
0.0
 40
0.0
 40
0.0
 40
0.1929716275
 40
0.378691196
 40
0.5501790455
 40
0.7009903955
 40
0.8254576246
 40
0.8763036311
 40
0.9189035242
 40
0.9528431335
 40
0.977817857
 40
0.9935796664
 40
1.0
 40
1.0
 40
1.0
 40
1.0
 10
-8.0675025628
 20
3.941086988
 30
0.0
 10
-8.035344264
 20
3.9410843038
 30
0.0
 10
-7.9722361908
 20
3.9410502157
 30
0.0
 10
-7.8805502037
 20
3.9409132224
 30
0.0
 10
-7.7958900585
 20
3.9406982083
 30
0.0
 10
-7.7214385079
 20
3.9404092648
 30
0.0
 10
-7.6670899511
 20
3.9401144395
 30
0.0
 10
-7.6307785041
 20
3.939823466
 30
0.0
 10
-7.6095460666
 20
3.9396405316
 30
0.0
 10
-7.5926433034
 20
3.9393704222
 30
0.0
 10
-7.5801695461
 20
3.9392991044
 30
0.0
 10
-7.5723715495
 20
3.9388350345
 30
0.0
 10
-7.5686100005
 20
3.93897529
 30
0.0
 10
-7.5675782319
 20
3.9386920702
 30
0.0
 11
-8.0675025628
 21
3.941086988
 31
0.0
 11
-7.9710276807
 21
3.9410339296
 31
0.0
 11
-7.8781785104
 21
3.9408928539
 31
0.0
 11
-7.7924445793
 21
3.9406690637
 31
0.0
 11
-7.7170480255
 21
3.9403709697
 31
0.0
 11
-7.6548225008
 21
3.9400097756
 31
0.0
 11
-7.6294031617
 21
3.9398096665
 31
0.0
 11
-7.6081066666
 21
3.9395990564
 31
0.0
 11
-7.5911401971
 21
3.9393799199
 31
0.0
 11
-7.5786562878
 21
3.9391542487
 31
0.0
 11
-7.5707796354
 21
3.9389241368
 31
0.0
 11
-7.5675782319
 21
3.9386920702
 31
0.0
  0
SPLINE
  5
5FD
100
AcDbEntity
  8
ASSI
100
AcDbSpline
 62
253
  6
CONTINUOUS
 70
0
 71
3
 72
19
 73
15
 74
13
 42
0.0000001
 43
0.0000001
 44
0.0000000001
 12
0.500063948
 22
0.0001134349
 32
0.0
 13
0.4010353777
 23
0.298721594
 33
0.0
 40
0.0
 40
0.0
 40
0.0
 40
0.0
 40
0.1929258512
 40
0.3786023617
 40
0.5500526579
 40
0.7008349557
 40
0.7666660333
 40
0.8252852629
 40
0.876128789
 40
0.9187314075
 40
0.9526805891
 40
0.9776749992
 40
0.9934755055
 40
1.0
 40
1.0
 40
1.0
 40
1.0
 10
-8.0668661729
 20
-4.9522455894
 30
0.0
 10
-8.0347077519
 20
-4.9522382946
 30
0.0
 10
-7.9715992959
 20
-4.9521455125
 30
0.0
 10
-7.8799126821
 20
-4.9517749061
 30
0.0
 10
-7.7952525097
 20
-4.9511877978
 30
0.0
 10
-7.7305695464
 20
-4.9505164051
 30
0.0
 10
-7.6846973197
 20
-4.9498651695
 30
0.0
 10
-7.6554792368
 20
-4.9493686722
 30
0.0
 10
-7.630146229
 20
-4.9488215351
 30
0.0
 10
-7.6088925103
 20
-4.9483067794
 30
0.0
 10
-7.5920434157
 20
-4.9476239096
 30
0.0
 10
-7.5794366172
 20
-4.9473119697
 30
0.0
 10
-7.5718703874
 20
-4.9462729183
 30
0.0
 10
-7.5678145097
 20
-4.9463968587
 30
0.0
 10
-7.5669423253
 20
-4.9457471896
 30
0.0
 11
-8.0668661729
 21
-4.9522455894
 31
0.0
 11
-7.9703910151
 21
-4.9521015904
 31
0.0
 11
-7.8775416729
 21
-4.9517187743
 31
0.0
 11
-7.7918077093
 21
-4.9511115284
 31
0.0
 11
-7.7164112548
 21
-4.9503026749
 31
0.0
 11
-7.6834948721
 21
-4.9498318694
 31
0.0
 11
-7.654185932
 21
-4.949322613
 31
0.0
 11
-7.6287667154
 21
-4.9487796407
 31
0.0
 11
-7.6074703472
 21
-4.9482081762
 31
0.0
 11
-7.5905040008
 21
-4.9476135775
 31
0.0
 11
-7.5780202054
 21
-4.9470012485
 31
0.0
 11
-7.5701436502
 21
-4.9463768709
 31
0.0
 11
-7.5669423253
 21
-4.9457471896
 31
0.0
  0
SPLINE
  5
5FE
100
AcDbEntity
  8
ASSI
100
AcDbSpline
 62
253
  6
CONTINUOUS
 70
0
 71
3
 72
19
 73
15
 74
13
 42
0.0000001
 43
0.0000001
 44
0.0000000001
 12
-0.5000644365
 22
0.0001133519
 32
0.0
 13
-0.4010363637
 23
0.2987210882
 33
0.0
 40
0.0
 40
0.0
 40
0.0
 40
0.0
 40
0.1929252548
 40
0.3786013695
 40
0.5500515327
 40
0.7008339374
 40
0.7666651409
 40
0.8252845258
 40
0.8761282223
 40
0.9187310107
 40
0.9526803451
 40
0.97767488
 40
0.9934754688
 40
1.0
 40
1.0
 40
1.0
 40
1.0
 10
8.6667234702
 20
-4.9522455469
 30
0.0
 10
8.6345651172
 20
-4.9522382574
 30
0.0
 10
8.5714567649
 20
-4.9521454851
 30
0.0
 10
8.479770249
 20
-4.9517748908
 30
0.0
 10
8.3951100642
 20
-4.9511877923
 30
0.0
 10
8.3304270209
 20
-4.9505164057
 30
0.0
 10
8.2845546847
 20
-4.9498651735
 30
0.0
 10
8.255336498
 20
-4.9493686777
 30
0.0
 10
8.2300033828
 20
-4.9488215411
 30
0.0
 10
8.2087495612
 20
-4.9483067855
 30
0.0
 10
8.1919003754
 20
-4.9476239144
 30
0.0
 10
8.1792935046
 20
-4.9473119747
 30
0.0
 10
8.1717272265
 20
-4.9462729192
 30
0.0
 10
8.167671325
 20
-4.9463968614
 30
0.0
 10
8.1667991336
 20
-4.9457471897
 30
0.0
 11
8.6667234702
 21
-4.9522455469
 31
0.0
 11
8.5702485163
 21
-4.9521015629
 31
0.0
 11
8.4773992813
 21
-4.9517187594
 31
0.0
 11
8.3916653004
 21
-4.9511115235
 31
0.0
 11
8.3162687187
 21
-4.9503026769
 31
0.0
 11
8.2833522409
 21
-4.9498318735
 31
0.0
 11
8.2540431944
 21
-4.9493226185
 31
0.0
 11
8.2286238677
 21
-4.9487796468
 31
0.0
 11
8.2073273937
 21
-4.9482081822
 31
0.0
 11
8.1903609544
 21
-4.9476135826
 31
0.0
 11
8.1778770843
 21
-4.9470012522
 31
0.0
 11
8.1700004801
 21
-4.9463768729
 31
0.0
 11
8.1667991336
 21
-4.9457471897
 31
0.0
  0
SPLINE
  5
5FF
100
AcDbEntity
  8
ASSI
100
AcDbSpline
 62
253
  6
CONTINUOUS
 70
0
 71
3
 72
18
 73
14
 74
12
 42
0.0000001
 43
0.0000001
 44
0.0000000001
 12
-0.4999429414
 22
-0.0000417985
 32
0.0
 13
-0.4821095098
 23
-0.1323380784
 33
0.0
 40
0.0
 40
0.0
 40
0.0
 40
0.0
 40
0.1929722136
 40
0.378692171
 40
0.5501801513
 40
0.7009913964
 40
0.8254583495
 40
0.8763041888
 40
0.9189039151
 40
0.9528433743
 40
0.977817975
 40
0.9935797032
 40
1.0
 40
1.0
 40
1.0
 40
1.0
 10
8.6673598601
 20
3.9410870029
 30
0.0
 10
8.6352014947
 20
3.9410843142
 30
0.0
 10
8.5720933201
 20
3.9410502184
 30
0.0
 10
8.4804072374
 20
3.940913217
 30
0.0
 10
8.395747105
 20
3.9406981974
 30
0.0
 10
8.3212956681
 20
3.9404092514
 30
0.0
 10
8.2669472551
 20
3.9401144261
 30
0.0
 10
8.2306359449
 20
3.9398234541
 30
0.0
 10
8.2094036086
 20
3.939640521
 30
0.0
 10
8.1925009349
 20
3.9393704142
 30
0.0
 10
8.1800272491
 20
3.9392990973
 30
0.0
 10
8.1722292993
 20
3.9388350324
 30
0.0
 10
8.1684677745
 20
3.9389752867
 30
0.0
 10
8.1674360125
 20
3.9386920701
 30
0.0
 11
8.6673598601
 21
3.9410870029
 31
0.0
 11
8.5708847783
 21
3.9410339327
 31
0.0
 11
8.4780355034
 21
3.9408928486
 31
0.0
 11
8.3923015899
 21
3.9406690528
 31
0.0
 11
8.3169051614
 21
3.9403709564
 31
0.0
 11
8.2546798348
 21
3.9400097626
 31
0.0
 11
8.2292606039
 21
3.9398096547
 31
0.0
 11
8.2079642128
 21
3.9395990462
 31
0.0
 11
8.1909978347
 21
3.9393799118
 31
0.0
 11
8.1785139989
 21
3.9391542431
 31
0.0
 11
8.1706373946
 21
3.9389241339
 31
0.0
 11
8.1674360125
 21
3.9386920701
 31
0.0
  0
SPLINE
  5
600
100
AcDbEntity
  8
ASSI
100
AcDbSpline
 62
253
  6
CONTINUOUS
 70
0
 71
3
 72
16
 73
12
 74
10
 42
0.0000001
 43
0.0000001
 44
0.0000000001
 12
-0.1577394509
 22
0.9435957571
 32
0.0
 13
-0.0003490239
 23
0.9566893777
 33
0.0
 40
0.0
 40
0.0
 40
0.0
 40
0.0
 40
0.0095157351
 40
0.027818503
 40
0.0547618547
 40
0.0901087236
 40
0.1847818835
 40
0.3086285917
 40
0.457445472
 40
0.626179965
 40
1.0
 40
1.0
 40
1.0
 40
1.0
 10
10.8087267654
 20
-20.4287528919
 30
0.0
 10
10.8082264298
 20
-20.4257598895
 30
0.0
 10
10.8077826333
 20
-20.4168737713
 30
0.0
 10
10.8069556558
 20
-20.3994480681
 30
0.0
 10
10.8062754655
 20
-20.3737461214
 30
0.0
 10
10.8051733033
 20
-20.3237084057
 30
0.0
 10
10.8040272282
 20
-20.24275466
 30
0.0
 10
10.8028434538
 20
-20.1256199323
 30
0.0
 10
10.8018662786
 20
-19.9848621757
 30
0.0
 10
10.8008268038
 20
-19.7643888902
 30
0.0
 10
10.8005072019
 20
-19.5913698711
 30
0.0
 10
10.8004637112
 20
-19.4721599856
 30
0.0
 11
10.8087267654
 21
-20.4287528919
 31
0.0
 11
10.8079255884
 21
-20.4196846115
 31
0.0
 11
10.8071354605
 21
-20.4021923828
 31
0.0
 11
10.8063629158
 21
-20.3764275422
 31
0.0
 11
10.8056139728
 21
-20.3426198606
 31
0.0
 11
10.8042119207
 21
-20.2520579006
 31
0.0
 11
10.802980668
 21
-20.1335814601
 31
0.0
 11
10.8019599114
 21
-19.9912135814
 31
0.0
 11
10.8011831353
 21
-19.8297889424
 31
0.0
 11
10.8004637112
 21
-19.4721599856
 31
0.0
  0
SPLINE
  5
601
100
AcDbEntity
  8
ASSI
100
AcDbSpline
 62
253
  6
CONTINUOUS
 70
0
 71
3
 72
16
 73
12
 74
10
 42
0.0000001
 43
0.0000001
 44
0.0000000001
 12
-0.151834588
 22
0.4537598553
 32
0.0
 13
-0.0003498994
 23
0.4784888985
 33
0.0
 40
0.0
 40
0.0
 40
0.0
 40
0.0
 40
0.0096160753
 40
0.0279708559
 40
0.0549488147
 40
0.0903153009
 40
0.1849829306
 40
0.3087997077
 40
0.4575900152
 40
0.6262747541
 40
1.0
 40
1.0
 40
1.0
 40
1.0
 10
11.3086506129
 20
-19.9294381245
 30
0.0
 10
11.3081639287
 20
-19.9279836615
 30
0.0
 10
11.3076987908
 20
-19.923498968
 30
0.0
 10
11.3068849272
 20
-19.9148054913
 30
0.0
 10
11.3061966602
 20
-19.9019343313
 30
0.0
 10
11.3050988143
 20
-19.8769249039
 30
0.0
 10
11.3039518608
 20
-19.8364443648
 30
0.0
 10
11.3027672488
 20
-19.7778803879
 30
0.0
 10
11.3017893617
 20
-19.7075011651
 30
0.0
 10
11.3007518487
 20
-19.5972624219
 30
0.0
 10
11.3004311475
 20
-19.5107494651
 30
0.0
 10
11.3003875588
 20
-19.4511416714
 30
0.0
 11
11.3086506129
 21
-19.9294381245
 31
0.0
 11
11.3078501204
 21
-19.924907106
 31
0.0
 11
11.3070593373
 21
-19.9161602185
 31
0.0
 11
11.3062861435
 21
-19.9032747381
 31
0.0
 11
11.3055372507
 21
-19.8863688416
 31
0.0
 11
11.3041365923
 21
-19.8410930799
 31
0.0
 11
11.3029045669
 21
-19.7818609224
 31
0.0
 11
11.3018833017
 21
-19.7106737183
 31
0.0
 11
11.3011073474
 21
-19.6299636518
 31
0.0
 11
11.3003875588
 21
-19.4511416714
 31
0.0
  0
SPLINE
  5
602
100
AcDbEntity
  8
ASSI
100
AcDbSpline
 62
253
  6
CONTINUOUS
 70
0
 71
3
 72
9
 73
5
 74
3
 42
0.0000001
 43
0.0000001
 44
0.0000000001
 12
-0.0308408124
 22
42.036619268
 32
0.0
 13
0.0308408099
 23
42.036619268
 33
0.0
 40
0.0
 40
0.0
 40
0.0
 40
0.0
 40
0.2499447445
 40
1.0
 40
1.0
 40
1.0
 40
1.0
 10
10.8004637112
 20
-19.4721599856
 30
0.0
 10
10.7978942115
 20
-15.9698826315
 30
0.0
 10
10.7901885849
 20
-1.957674439
 30
0.0
 10
10.7927529407
 20
12.0545394077
 30
0.0
 10
10.8004637112
 20
22.5644684762
 30
0.0
 11
10.8004637112
 21
-19.4721599856
 31
0.0
 11
10.7946838399
 21
-8.9653266852
 31
0.0
 11
10.8004637112
 21
22.5644684762
 31
0.0
  0
SPLINE
  5
603
100
AcDbEntity
  8
ASSI
100
AcDbSpline
 62
253
  6
CONTINUOUS
 70
0
 71
3
 72
9
 73
5
 74
3
 42
0.0000001
 43
0.0000001
 44
0.0000000001
 12
-0.0308408122
 22
41.9945826303
 32
0.0
 13
0.0308408097
 23
41.9945826303
 33
0.0
 40
0.0
 40
0.0
 40
0.0
 40
0.0
 40
0.2499447445
 40
1.0
 40
1.0
 40
1.0
 40
1.0
 10
11.3003875588
 20
-19.4511416714
 30
0.0
 10
11.2978180591
 20
-15.9523665957
 30
0.0
 10
11.2901124323
 20
-1.954170614
 30
0.0
 10
11.2926767883
 20
12.0440310276
 30
0.0
 10
11.3003875588
 20
22.543450162
 30
0.0
 11
11.3003875588
 21
-19.4511416714
 31
0.0
 11
11.2946076875
 21
-8.9548152051
 31
0.0
 11
11.3003875588
 21
22.543450162
 31
0.0
  0
SPLINE
  5
604
100
AcDbEntity
  8
ASSI
100
AcDbSpline
 62
253
  6
CONTINUOUS
 70
0
 71
3
 72
18
 73
14
 74
12
 42
0.0000001
 43
0.0000001
 44
0.0000000001
 12
0.5013349112
 22
0.0003675205
 32
0.0
 13
0.1920613785
 23
0.4630866605
 33
0.0
 40
0.0
 40
0.0
 40
0.0
 40
0.0
 40
0.1924403737
 40
0.3776624522
 40
0.5487197164
 40
0.6992021416
 40
0.8234822574
 40
0.8743058728
 40
0.91694439
 40
0.9510027627
 40
0.9762144217
 40
0.9924327359
 40
1.0
 40
1.0
 40
1.0
 40
1.0
 10
10.8004637112
 20
-19.4721599851
 30
0.0
 10
10.8326227371
 20
-19.4721364099
 30
0.0
 10
10.8957347953
 20
-19.4718366711
 30
0.0
 10
10.9874249635
 20
-19.470636478
 30
0.0
 10
11.0720928402
 20
-19.4687420804
 30
0.0
 10
11.1465486544
 20
-19.4662276319
 30
0.0
 10
11.2009099072
 20
-19.4635858374
 30
0.0
 10
11.2371954026
 20
-19.4611186123
 30
0.0
 10
11.2584734302
 20
-19.4593229794
 30
0.0
 10
11.2752902701
 20
-19.4574552835
 30
0.0
 10
11.2880455702
 20
-19.4556289494
 30
0.0
 10
11.2955123814
 20
-19.4537615188
 30
0.0
 10
11.299903099
 20
-19.452309771
 30
0.0
 10
11.3003875588
 20
-19.4511416714
 30
0.0
 11
10.8004637112
 21
-19.4721599851
 31
0.0
 11
10.8969396908
 21
-19.4716942875
 31
0.0
 11
10.9897897552
 21
-19.4704561473
 31
0.0
 11
11.0755242628
 21
-19.4684920988
 31
0.0
 11
11.1509210022
 21
-19.4658759585
 31
0.0
 11
11.2131462907
 21
-19.4627060507
 31
0.0
 11
11.2385653552
 21
-19.4609498597
 31
0.0
 11
11.2598614772
 21
-19.4591015119
 31
0.0
 11
11.2768274805
 21
-19.4571783367
 31
0.0
 11
11.2893108371
 21
-19.4551978138
 31
0.0
 11
11.2971868579
 21
-19.4531783198
 31
0.0
 11
11.3003875588
 21
-19.4511416714
 31
0.0
  0
SPLINE
  5
605
100
AcDbEntity
  8
ASSI
100
AcDbSpline
 62
253
  6
CONTINUOUS
 70
0
 71
3
 72
16
 73
12
 74
10
 42
0.0000001
 43
0.0000001
 44
0.0000000001
 12
0.0003490237
 22
0.9566893777
 32
0.0
 13
0.1577394657
 23
0.9435957547
 33
0.0
 40
0.0
 40
0.0
 40
0.0
 40
0.0
 40
0.373820035
 40
0.542554528
 40
0.6913714083
 40
0.8152181165
 40
0.9098912764
 40
0.9452381453
 40
0.972181497
 40
0.9904842647
 40
1.0
 40
1.0
 40
1.0
 40
1.0
 10
10.8004637112
 20
22.5644684762
 30
0.0
 10
10.8005072019
 20
22.6836783618
 30
0.0
 10
10.8008268039
 20
22.8566973808
 30
0.0
 10
10.8018662786
 20
23.0771706663
 30
0.0
 10
10.8028434538
 20
23.217928423
 30
0.0
 10
10.8040272282
 20
23.3350631506
 30
0.0
 10
10.8051733033
 20
23.4160168964
 30
0.0
 10
10.8062754655
 20
23.466054612
 30
0.0
 10
10.8069556558
 20
23.4917565587
 30
0.0
 10
10.8077826333
 20
23.5091822619
 30
0.0
 10
10.8082264297
 20
23.5180683801
 30
0.0
 10
10.8087267654
 20
23.5210613825
 30
0.0
 11
10.8004637112
 21
22.5644684762
 31
0.0
 11
10.8011831353
 21
22.9220974331
 31
0.0
 11
10.8019599113
 21
23.083522072
 31
0.0
 11
10.802980668
 21
23.2258899508
 31
0.0
 11
10.8042119207
 21
23.3443663912
 31
0.0
 11
10.8056139729
 21
23.4349283513
 31
0.0
 11
10.8063629158
 21
23.4687360329
 31
0.0
 11
10.8071354605
 21
23.4945008734
 31
0.0
 11
10.8079255883
 21
23.511993102
 31
0.0
 11
10.8087267654
 21
23.5210613825
 31
0.0
  0
SPLINE
  5
606
100
AcDbEntity
  8
ASSI
100
AcDbSpline
 62
253
  6
CONTINUOUS
 70
0
 71
3
 72
16
 73
12
 74
10
 42
0.0000001
 43
0.0000001
 44
0.0000000001
 12
0.0003498991
 22
0.4784888985
 32
0.0
 13
0.151834478
 23
0.4537598921
 33
0.0
 40
0.0
 40
0.0
 40
0.0
 40
0.0
 40
0.3737252462
 40
0.5424099849
 40
0.6912002924
 40
0.8150170692
 40
0.9096846991
 40
0.945051186
 40
0.9720291442
 40
0.9903839234
 40
1.0
 40
1.0
 40
1.0
 40
1.0
 10
11.3003875588
 20
22.543450162
 30
0.0
 10
11.3004311475
 20
22.6030579558
 30
0.0
 10
11.3007518487
 20
22.6895709126
 30
0.0
 10
11.3017893617
 20
22.7998096559
 30
0.0
 10
11.3027672488
 20
22.8701888785
 30
0.0
 10
11.3039518608
 20
22.9287528554
 30
0.0
 10
11.3050988144
 20
22.9692333947
 30
0.0
 10
11.3061966602
 20
22.9942428221
 30
0.0
 10
11.3068849273
 20
23.0071139819
 30
0.0
 10
11.3076987906
 20
23.0158074585
 30
0.0
 10
11.308163929
 20
23.0202921519
 30
0.0
 10
11.3086506129
 20
23.0217466152
 30
0.0
 11
11.3003875588
 21
22.543450162
 31
0.0
 11
11.3011073474
 21
22.7222721426
 31
0.0
 11
11.3018833017
 21
22.802982209
 31
0.0
 11
11.3029045669
 21
22.8741694131
 31
0.0
 11
11.3041365923
 21
22.9334015705
 31
0.0
 11
11.3055372507
 21
22.9786773322
 31
0.0
 11
11.3062861435
 21
22.9955832291
 31
0.0
 11
11.3070593373
 21
23.0084687091
 31
0.0
 11
11.3078501204
 21
23.017215596
 31
0.0
 11
11.3086506129
 21
23.0217466152
 31
0.0
  0
SPLINE
  5
607
100
AcDbEntity
  8
ASSI
100
AcDbSpline
 62
253
  6
CONTINUOUS
 70
0
 71
3
 72
18
 73
14
 74
12
 42
0.0000001
 43
0.0000001
 44
0.0000000001
 12
0.5013345731
 22
-0.0003675948
 32
0.0
 13
0.1922959611
 23
-0.4629889336
 33
0.0
 40
0.0
 40
0.0
 40
0.0
 40
0.0
 40
0.1924356609
 40
0.3776538717
 40
0.5487087431
 40
0.6991905686
 40
0.8234718693
 40
0.8742966648
 40
0.9169366856
 40
0.9509968258
 40
0.9762104539
 40
0.9924308517
 40
1.0
 40
1.0
 40
1.0
 40
1.0
 10
10.8004637112
 20
22.5644675331
 30
0.0
 10
10.8326219279
 20
22.5644439536
 30
0.0
 10
10.8957325095
 20
22.5641442245
 30
0.0
 10
10.9874207831
 20
22.5629440967
 30
0.0
 10
11.0720874566
 20
22.5610498074
 30
0.0
 10
11.1465429274
 20
22.5585354917
 30
0.0
 10
11.2009044335
 20
22.5558938352
 30
0.0
 10
11.2371905777
 20
22.5534267228
 30
0.0
 10
11.2584693058
 20
22.5516311804
 30
0.0
 10
11.2752871195
 20
22.5497635009
 30
0.0
 10
11.2880431778
 20
22.5479373369
 30
0.0
 10
11.2955114029
 20
22.5460696979
 30
0.0
 10
11.2999023864
 20
22.544618306
 30
0.0
 10
11.3003875586
 20
22.543450162
 30
0.0
 11
10.8004637112
 21
22.5644675331
 31
0.0
 11
10.8969372632
 21
22.5640018519
 31
0.0
 11
10.9897853267
 21
22.5627637824
 31
0.0
 11
11.0755185792
 21
22.5607998493
 31
0.0
 11
11.1509149719
 21
22.5581838536
 31
0.0
 11
11.2131408211
 21
22.5550141034
 31
0.0
 11
11.238560467
 21
22.5532579917
 31
0.0
 11
11.2598573379
 21
22.5514097218
 31
0.0
 11
11.2768242299
 21
22.5494866219
 31
0.0
 11
11.2893085889
 21
22.5475061711
 31
0.0
 11
11.2971856999
 21
22.5454867456
 31
0.0
 11
11.3003875586
 21
22.543450162
 31
0.0
  0
SPLINE
  5
608
100
AcDbEntity
  8
ASSI
100
AcDbSpline
 62
253
  6
CONTINUOUS
 70
0
 71
3
 72
16
 73
12
 74
10
 42
0.0000001
 43
0.0000001
 44
0.0000000001
 12
0.151729594
 22
0.4537949673
 32
0.0
 13
0.0003487351
 23
0.4784888927
 33
0.0
 40
0.0
 40
0.0
 40
0.0
 40
0.0
 40
0.0096175295
 40
0.027970788
 40
0.0549466919
 40
0.0903118236
 40
0.1849803905
 40
0.3088008853
 40
0.4575944576
 40
0.6262789207
 40
1.0
 40
1.0
 40
1.0
 40
1.0
 10
-10.7087933156
 20
-19.9294381245
 30
0.0
 10
-10.7083068944
 20
-19.927983329
 30
0.0
 10
-10.7078413612
 20
-19.9234988163
 30
0.0
 10
-10.7070277124
 20
-19.9148055602
 30
0.0
 10
-10.7063393063
 20
-19.9019352472
 30
0.0
 10
-10.7052415011
 20
-19.8769261849
 30
0.0
 10
-10.7040945351
 20
-19.8364451393
 30
0.0
 10
-10.70290998
 20
-19.77787989
 30
0.0
 10
-10.701932131
 20
-19.707499601
 30
0.0
 10
-10.7008946484
 20
-19.597261046
 30
0.0
 10
-10.7005737047
 20
-19.5107487998
 30
0.0
 10
-10.7005302615
 20
-19.4511416714
 30
0.0
 11
-10.7087933156
 21
-19.9294381245
 31
0.0
 11
-10.7079928248
 21
-19.9249063991
 31
0.0
 11
-10.7072020403
 21
-19.9161602431
 31
0.0
 11
-10.7064288406
 21
-19.9032757484
 31
0.0
 11
-10.7056799416
 21
-19.8863705011
 31
0.0
 11
-10.7042792876
 21
-19.8410942912
 31
0.0
 11
-10.7030472871
 21
-19.7818603548
 31
0.0
 11
-10.702026057
 21
-19.7106715889
 31
0.0
 11
-10.7012501071
 21
-19.6299616554
 31
0.0
 11
-10.7005302615
 21
-19.4511416714
 31
0.0
  0
SPLINE
  5
609
100
AcDbEntity
  8
ASSI
100
AcDbSpline
 62
253
  6
CONTINUOUS
 70
0
 71
3
 72
16
 73
12
 74
10
 42
0.0000001
 43
0.0000001
 44
0.0000000001
 12
0.1577724207
 22
0.9435902463
 32
0.0
 13
0.0003449146
 23
0.9566893805
 33
0.0
 40
0.0
 40
0.0
 40
0.0
 40
0.0
 40
0.009516372
 40
0.0278185369
 40
0.0547617803
 40
0.0901088759
 40
0.184782181
 40
0.3086290881
 40
0.4574461905
 40
0.6261809233
 40
1.0
 40
1.0
 40
1.0
 40
1.0
 10
-10.2088694681
 20
-20.4287528919
 30
0.0
 10
-10.2083689944
 20
-20.4257597066
 30
0.0
 10
-10.2079253323
 20
-20.4168735481
 30
0.0
 10
-10.2070985475
 20
-20.3994478763
 30
0.0
 10
-10.206417989
 20
-20.3737460893
 30
0.0
 10
-10.2053154342
 20
-20.3237082995
 30
0.0
 10
-10.2041703559
 20
-20.2427543528
 30
0.0
 10
-10.2029866824
 20
-20.1256194482
 30
0.0
 10
-10.2020081917
 20
-19.9848614879
 30
0.0
 10
-10.2009705386
 20
-19.7643883519
 30
0.0
 10
-10.2006493924
 20
-19.5913695659
 30
0.0
 10
-10.2006064139
 20
-19.4721599856
 30
0.0
 11
-10.2088694681
 21
-20.4287528919
 31
0.0
 11
-10.2080682209
 21
-20.419684006
 31
0.0
 11
-10.2072782669
 21
-20.4021923469
 31
0.0
 11
-10.2065055056
 21
-20.3764276165
 31
0.0
 11
-10.2057563128
 21
-20.3426197234
 31
0.0
 11
-10.2043547839
 21
-20.2520576163
 31
0.0
 11
-10.2031237067
 21
-20.1335809835
 31
0.0
 11
-10.2021022752
 21
-19.9912128969
 31
0.0
 11
-10.2013260407
 21
-19.8297880257
 31
0.0
 11
-10.2006064139
 21
-19.4721599856
 31
0.0
  0
SPLINE
  5
60A
100
AcDbEntity
  8
ASSI
100
AcDbSpline
 62
253
  6
CONTINUOUS
 70
0
 71
3
 72
9
 73
5
 74
3
 42
0.0000001
 43
0.0000001
 44
0.0000000001
 12
0.0308407987
 22
41.9945826303
 32
0.0
 13
-0.0308408108
 23
41.9945826303
 33
0.0
 40
0.0
 40
0.0
 40
0.0
 40
0.0
 40
0.2499447445
 40
1.0
 40
1.0
 40
1.0
 40
1.0
 10
-10.7005302615
 20
-19.4511416714
 30
0.0
 10
-10.6979607629
 20
-15.9523665958
 30
0.0
 10
-10.6902551328
 20
-1.9541706141
 30
0.0
 10
-10.6928194907
 20
12.0440310275
 30
0.0
 10
-10.7005302615
 20
22.543450162
 30
0.0
 11
-10.7005302615
 21
-19.4511416714
 31
0.0
 11
-10.69475039
 21
-8.9548152054
 31
0.0
 11
-10.7005302615
 21
22.543450162
 31
0.0
  0
SPLINE
  5
60B
100
AcDbEntity
  8
ASSI
100
AcDbSpline
 62
253
  6
CONTINUOUS
 70
0
 71
3
 72
9
 73
5
 74
3
 42
0.0000001
 43
0.0000001
 44
0.0000000001
 12
0.0308407988
 22
42.036619268
 32
0.0
 13
-0.030840811
 23
42.036619268
 33
0.0
 40
0.0
 40
0.0
 40
0.0
 40
0.0
 40
0.2499447445
 40
1.0
 40
1.0
 40
1.0
 40
1.0
 10
-10.2006064139
 20
-19.4721599856
 30
0.0
 10
-10.1980369154
 20
-15.9698826313
 30
0.0
 10
-10.1903312853
 20
-1.9576744388
 30
0.0
 10
-10.1928956431
 20
12.0545394078
 30
0.0
 10
-10.2006064139
 20
22.5644684762
 30
0.0
 11
-10.2006064139
 21
-19.4721599856
 31
0.0
 11
-10.1948265424
 21
-8.9653266849
 31
0.0
 11
-10.2006064139
 21
22.5644684762
 31
0.0
  0
SPLINE
  5
60C
100
AcDbEntity
  8
ASSI
100
AcDbSpline
 62
253
  6
CONTINUOUS
 70
0
 71
3
 72
18
 73
14
 74
12
 42
0.0000001
 43
0.0000001
 44
0.0000000001
 12
0.1920615183
 22
-0.4630866022
 32
0.0
 13
0.5013349109
 23
-0.0003675257
 33
0.0
 40
0.0
 40
0.0
 40
0.0
 40
0.0
 40
0.0075672659
 40
0.0237855824
 40
0.0489972442
 40
0.0830556193
 40
0.1256941385
 40
0.1765177553
 40
0.3007978717
 40
0.451280295
 40
0.6223375564
 40
0.8075596306
 40
1.0
 40
1.0
 40
1.0
 40
1.0
 10
-10.7005302615
 20
-19.4511416714
 30
0.0
 10
-10.7000458013
 20
-19.4523097712
 30
0.0
 10
-10.695655083
 20
-19.4537615185
 30
0.0
 10
-10.6881882706
 20
-19.4556289496
 30
0.0
 10
-10.6754329692
 20
-19.4574552836
 30
0.0
 10
-10.6586161281
 20
-19.4593229794
 30
0.0
 10
-10.6373380996
 20
-19.4611186123
 30
0.0
 10
-10.6010526035
 20
-19.4635858371
 30
0.0
 10
-10.5466913507
 20
-19.4662276314
 30
0.0
 10
-10.4722355372
 20
-19.4687420797
 30
0.0
 10
-10.3875676621
 20
-19.4706364769
 30
0.0
 10
-10.2958774958
 20
-19.47183667
 30
0.0
 10
-10.232765439
 20
-19.4721364092
 30
0.0
 10
-10.2006064139
 20
-19.4721599848
 30
0.0
 11
-10.7005302615
 21
-19.4511416714
 31
0.0
 11
-10.6973295595
 21
-19.4531783198
 31
0.0
 11
-10.6894535376
 21
-19.4551978139
 31
0.0
 11
-10.6769701796
 21
-19.4571783369
 31
0.0
 11
-10.660004175
 21
-19.459101512
 31
0.0
 11
-10.6387080521
 21
-19.4609498597
 31
0.0
 11
-10.6132889868
 21
-19.4627060506
 31
0.0
 11
-10.5510636981
 21
-19.4658759581
 31
0.0
 11
-10.4756669597
 21
-19.468492098
 31
0.0
 11
-10.3899324535
 21
-19.4704561462
 31
0.0
 11
-10.2970823913
 21
-19.4716942865
 31
0.0
 11
-10.2006064139
 21
-19.4721599848
 31
0.0
  0
SPLINE
  5
60D
100
AcDbEntity
  8
ASSI
100
AcDbSpline
 62
253
  6
CONTINUOUS
 70
0
 71
3
 72
16
 73
12
 74
10
 42
0.0000001
 43
0.0000001
 44
0.0000000001
 12
-0.0003487349
 22
0.4784888927
 32
0.0
 13
-0.151729439
 23
0.4537950191
 33
0.0
 40
0.0
 40
0.0
 40
0.0
 40
0.0
 40
0.3737210797
 40
0.5424055426
 40
0.6911991148
 40
0.8150196092
 40
0.9096881766
 40
0.945053309
 40
0.972029212
 40
0.9903824686
 40
1.0
 40
1.0
 40
1.0
 40
1.0
 10
-10.7005302615
 20
22.543450162
 30
0.0
 10
-10.7005737047
 20
22.6030572905
 30
0.0
 10
-10.7008946485
 20
22.6895695367
 30
0.0
 10
-10.701932131
 20
22.7998080917
 30
0.0
 10
-10.70290998
 20
22.8701883806
 30
0.0
 10
-10.7040945351
 20
22.9287536299
 30
0.0
 10
-10.7052415012
 20
22.9692346756
 30
0.0
 10
-10.7063393063
 20
22.9942437381
 30
0.0
 10
-10.7070277125
 20
23.0071140506
 30
0.0
 10
-10.707841361
 20
23.0158073068
 30
0.0
 10
-10.7083068948
 20
23.0202918192
 30
0.0
 10
-10.7087933156
 20
23.0217466152
 30
0.0
 11
-10.7005302615
 21
22.543450162
 31
0.0
 11
-10.7012501071
 21
22.7222701462
 31
0.0
 11
-10.702026057
 21
22.8029800796
 31
0.0
 11
-10.7030472871
 21
22.8741688455
 31
0.0
 11
-10.7042792876
 21
22.9334027818
 31
0.0
 11
-10.7056799416
 21
22.9786789918
 31
0.0
 11
-10.7064288406
 21
22.9955842394
 31
0.0
 11
-10.7072020403
 21
23.0084687338
 31
0.0
 11
-10.7079928248
 21
23.0172148889
 31
0.0
 11
-10.7087933156
 21
23.0217466152
 31
0.0
  0
SPLINE
  5
60E
100
AcDbEntity
  8
ASSI
100
AcDbSpline
 62
253
  6
CONTINUOUS
 70
0
 71
3
 72
16
 73
12
 74
10
 42
0.0000001
 43
0.0000001
 44
0.0000000001
 12
-0.0003449152
 22
0.9566893805
 32
0.0
 13
-0.1577724237
 23
0.9435902458
 33
0.0
 40
0.0
 40
0.0
 40
0.0
 40
0.0
 40
0.3738190767
 40
0.5425538095
 40
0.6913709118
 40
0.815217819
 40
0.9098911241
 40
0.9452382198
 40
0.9721814631
 40
0.9904836276
 40
1.0
 40
1.0
 40
1.0
 40
1.0
 10
-10.2006064139
 20
22.5644684762
 30
0.0
 10
-10.2006493925
 20
22.6836780565
 30
0.0
 10
-10.2009705386
 20
22.8566968425
 30
0.0
 10
-10.2020081917
 20
23.0771699786
 30
0.0
 10
-10.2029866825
 20
23.2179279388
 30
0.0
 10
-10.2041703558
 20
23.3350628435
 30
0.0
 10
-10.2053154343
 20
23.4160167902
 30
0.0
 10
-10.206417989
 20
23.46605458
 30
0.0
 10
-10.2070985475
 20
23.4917563669
 30
0.0
 10
-10.2079253321
 20
23.5091820387
 30
0.0
 10
-10.2083689944
 20
23.5180681971
 30
0.0
 10
-10.2088694681
 20
23.5210613825
 30
0.0
 11
-10.2006064139
 21
22.5644684762
 31
0.0
 11
-10.2013260407
 21
22.9220965164
 31
0.0
 11
-10.2021022752
 21
23.0835213876
 31
0.0
 11
-10.2031237067
 21
23.2258894741
 31
0.0
 11
-10.2043547839
 21
23.3443661069
 31
0.0
 11
-10.2057563129
 21
23.434928214
 31
0.0
 11
-10.2065055057
 21
23.4687361072
 31
0.0
 11
-10.2072782668
 21
23.4945008376
 31
0.0
 11
-10.2080682209
 21
23.5119924963
 31
0.0
 11
-10.2088694681
 21
23.5210613825
 31
0.0
  0
SPLINE
  5
60F
100
AcDbEntity
  8
ASSI
100
AcDbSpline
 62
253
  6
CONTINUOUS
 70
0
 71
3
 72
18
 73
14
 74
12
 42
0.0000001
 43
0.0000001
 44
0.0000000001
 12
0.1921205607
 22
0.4630620159
 32
0.0
 13
0.5013348235
 23
0.0003675669
 33
0.0
 40
0.0
 40
0.0
 40
0.0
 40
0.0
 40
0.0075677354
 40
0.0237865734
 40
0.0489987288
 40
0.0830575475
 40
0.1256964444
 40
0.176520358
 40
0.3008007734
 40
0.4512830477
 40
0.6223397096
 40
0.8075608134
 40
1.0
 40
1.0
 40
1.0
 40
1.0
 10
-10.7005302615
 20
22.543450162
 30
0.0
 10
-10.7000456223
 20
22.5446182723
 30
0.0
 10
-10.6956548368
 20
22.546069927
 30
0.0
 10
-10.6881876706
 20
22.5479374091
 30
0.0
 10
-10.6754321788
 20
22.549763698
 30
0.0
 10
-10.6586150934
 20
22.5516313884
 30
0.0
 10
-10.6373368888
 20
22.5534269972
 30
0.0
 10
-10.6010512296
 20
22.5558941926
 30
0.0
 10
-10.5466899129
 20
22.5585359519
 30
0.0
 10
-10.4722341853
 20
22.561050368
 30
0.0
 10
-10.3875666122
 20
22.5629447406
 30
0.0
 10
-10.2958769217
 20
22.5641449216
 30
0.0
 10
-10.2327652358
 20
22.5644446613
 30
0.0
 10
-10.2006064139
 20
22.5644682394
 30
0.0
 11
-10.7005302615
 21
22.543450162
 31
0.0
 11
-10.6973292692
 21
22.5454867914
 31
0.0
 11
-10.6894529738
 21
22.5475062659
 31
0.0
 11
-10.6769693643
 21
22.5494867688
 31
0.0
 11
-10.6600031366
 21
22.5514099233
 31
0.0
 11
-10.6387068255
 21
22.5532582502
 31
0.0
 11
-10.6132876141
 21
22.5550144203
 31
0.0
 11
-10.5510621841
 21
22.5581842877
 31
0.0
 11
-10.4756655324
 21
22.5608003924
 31
0.0
 11
-10.3899313411
 21
22.5627644143
 31
0.0
 11
-10.2970817815
 21
22.5640025409
 31
0.0
 11
-10.2006064139
 21
22.5644682394
 31
0.0
  0
SPLINE
  5
610
100
AcDbEntity
  8
ASSI
100
AcDbSpline
 62
253
  6
CONTINUOUS
 70
0
 71
3
 72
8
 73
4
 74
2
 42
0.0000001
 43
0.0000001
 44
0.0000000001
 12
-0.0020156993
 22
8.8844641159
 32
0.0
 13
0.0007428153
 23
8.8844643135
 33
0.0
 40
0.0
 40
0.0
 40
0.0
 40
0.0
 40
1.0
 40
1.0
 40
1.0
 40
1.0
 10
-7.5669423234
 20
-4.9457582268
 30
0.0
 10
-7.5676142232
 20
-1.9842701882
 30
0.0
 10
-7.5678263198
 20
0.9772179905
 30
0.0
 10
-7.5675787148
 20
3.938706095
 30
0.0
 11
-7.5669423234
 21
-4.9457582268
 31
0.0
 11
-7.5675787148
 21
3.938706095
 31
0.0
  0
SPLINE
  5
611
100
AcDbEntity
  8
ASSI
100
AcDbSpline
 62
253
  6
CONTINUOUS
 70
0
 71
3
 72
8
 73
4
 74
2
 42
0.0000001
 43
0.0000001
 44
0.0000000001
 12
0.0007428144
 22
-8.8844533166
 32
0.0
 13
-0.0020156968
 23
-8.884453119
 33
0.0
 40
0.0
 40
0.0
 40
0.0
 40
0.0
 40
1.0
 40
1.0
 40
1.0
 40
1.0
 10
8.1674360125
 20
3.9386920701
 30
0.0
 10
8.1676836173
 20
0.9772076313
 30
0.0
 10
8.1674715191
 20
-1.9842768817
 30
0.0
 10
8.1667996201
 20
-4.9457612547
 30
0.0
 11
8.1674360125
 21
3.9386920701
 31
0.0
 11
8.1667996201
 21
-4.9457612547
 31
0.0
  0
SPLINE
  5
612
100
AcDbEntity
  8
SCRITTE
100
AcDbSpline
 62
253
  6
CONTINUOUS
 70
0
 71
3
 72
14
 73
10
 74
8
 42
0.0000001
 43
0.0000001
 44
0.0000000001
 12
-0.0091324715
 22
-0.1966878085
 32
0.0
 13
0.0
 23
-0.4544794074
 33
0.0
 40
0.0
 40
0.0
 40
0.0
 40
0.0
 40
0.25
 40
0.375
 40
0.5
 40
0.625
 40
0.75
 40
0.875
 40
1.0
 40
1.0
 40
1.0
 40
1.0
 10
11.3628712184
 20
-4.0504491861
 30
0.0
 10
11.3621101791
 20
-4.0668398368
 30
0.0
 10
11.36113455
 20
-4.0986088299
 30
0.0
 10
11.3601225808
 20
-4.1482656567
 30
0.0
 10
11.3595022051
 20
-4.1888702689
 30
0.0
 10
11.3590167278
 20
-4.2330536872
 30
0.0
 10
11.3586757905
 20
-4.2808372263
 30
0.0
 10
11.358464507
 20
-4.3331441511
 30
0.0
 10
11.358415797
 20
-4.36910844
 30
0.0
 10
11.358415797
 20
-4.3880450819
 30
0.0
 11
11.3628712184
 21
-4.0504491861
 31
0.0
 11
11.3609056302
 21
-4.1116312174
 31
0.0
 11
11.360145681
 21
-4.1488259887
 31
0.0
 11
11.3595246882
 21
-4.1894667366
 31
0.0
 11
11.3590408178
 21
-4.2336537074
 31
0.0
 11
11.3586973995
 21
-4.2815911239
 31
0.0
 11
11.3584875434
 21
-4.3334174025
 31
0.0
 11
11.358415797
 21
-4.3880450819
 31
0.0
  0
SPLINE
  5
613
100
AcDbEntity
  8
SCRITTE
100
AcDbSpline
 62
253
  6
CONTINUOUS
 70
0
 71
3
 72
12
 73
8
 74
6
 42
0.0000001
 43
0.0000001
 44
0.0000000001
 12
-0.0166437241
 22
-0.274140345
 32
0.0
 13
-0.013806352
 23
-0.2971998806
 33
0.0
 40
0.0
 40
0.0
 40
0.0
 40
0.0
 40
0.1666666667
 40
0.3333333333
 40
0.5
 40
0.6666666667
 40
1.0
 40
1.0
 40
1.0
 40
1.0
 10
11.3782231783
 20
-3.785687493
 30
0.0
 10
11.3772985269
 20
-3.8009175122
 30
0.0
 10
11.3754742872
 20
-3.8315146232
 30
0.0
 10
11.3728087646
 20
-3.8765277643
 30
0.0
 10
11.3702041409
 20
-3.9190754783
 30
0.0
 10
11.3668203911
 20
-3.9737354763
 30
0.0
 10
11.3644073812
 20
-4.01738129
 30
0.0
 10
11.3628733421
 20
-4.050403499
 30
0.0
 11
11.3782231783
 21
-3.785687493
 31
0.0
 11
11.3754860934
 21
-3.8313675356
 31
0.0
 11
11.3728189144
 21
-3.8761168598
 31
0.0
 11
11.3702152761
 21
-3.9188166924
 31
0.0
 11
11.3676801955
 21
-3.9603650118
 31
0.0
 11
11.3628733421
 21
-4.050403499
 31
0.0
  0
LINE
  5
614
100
AcDbEntity
  8
SCRITTE
100
AcDbLine
 62
253
  6
CONTINUOUS
 10
11.3645252976
 20
-3.4103875915
 11
11.3782231783
 21
-3.2034867695
  0
SPLINE
  5
615
100
AcDbEntity
  8
SCRITTE
100
AcDbSpline
 62
253
  6
CONTINUOUS
 70
0
 71
3
 72
16
 73
12
 74
10
 42
0.0000001
 43
0.0000001
 44
0.0000000001
 12
0.0043158328
 22
0.620072464
 32
0.0
 13
0.014331203
 23
0.2236837226
 33
0.0
 40
0.0
 40
0.0
 40
0.0
 40
0.0
 40
0.1111111111
 40
0.2222222222
 40
0.3333333333
 40
0.4444444444
 40
0.5555555556
 40
0.6666666667
 40
0.7777777778
 40
0.8888888889
 40
1.0
 40
1.0
 40
1.0
 40
1.0
 10
11.3545971819
 20
-3.7592900447
 30
0.0
 10
11.3547570276
 20
-3.7363243979
 30
0.0
 10
11.3551609509
 20
-3.6933561143
 30
0.0
 10
11.3560032388
 20
-3.6357649294
 30
0.0
 10
11.3569824765
 20
-3.5876779092
 30
0.0
 10
11.358057769
 20
-3.5469963633
 30
0.0
 10
11.359169598
 20
-3.513255849
 30
0.0
 10
11.3603438243
 20
-3.4838881455
 30
0.0
 10
11.3616012693
 20
-3.4577344678
 30
0.0
 10
11.3629740638
 20
-3.4341487508
 30
0.0
 10
11.3639945123
 20
-3.4186721743
 30
0.0
 10
11.3645252976
 20
-3.410387592
 30
0.0
 11
11.3545971819
 21
-3.7592900447
 31
0.0
 11
11.3552003514
 21
-3.6944996544
 31
0.0
 11
11.3560260638
 21
-3.6373489568
 31
0.0
 11
11.3569984857
 21
-3.5889121549
 31
0.0
 11
11.3580638584
 21
-3.5481532019
 31
0.0
 11
11.3591799975
 21
-3.5139846508
 31
0.0
 11
11.3603576941
 21
-3.4844238165
 31
0.0
 11
11.3616204942
 21
-3.4581624613
 31
0.0
 11
11.3630003768
 21
-3.4342105595
 31
0.0
 11
11.3645252976
 21
-3.410387592
 31
0.0
  0
SPLINE
  5
616
100
AcDbEntity
  8
SCRITTE
100
AcDbSpline
 62
253
  6
CONTINUOUS
 70
0
 71
3
 72
34
 73
30
 74
28
 42
0.0000001
 43
0.0000001
 44
0.0000000001
 12
0.0146704409
 22
2.3297595773
 32
0.0
 13
0.0016570876
 23
-0.7357422677
 33
0.0
 40
0.0
 40
0.0
 40
0.0
 40
0.0
 40
0.0277777778
 40
0.0555555556
 40
0.0833333333
 40
0.1111111111
 40
0.1388888889
 40
0.1666666667
 40
0.1944444444
 40
0.2222222222
 40
0.25
 40
0.2777777778
 40
0.3333333333
 40
0.3888888889
 40
0.4444444444
 40
0.5
 40
0.5555555556
 40
0.6111111111
 40
0.6666666667
 40
0.7222222222
 40
0.7777777778
 40
0.8055555556
 40
0.8333333333
 40
0.8611111111
 40
0.8888888889
 40
0.9166666667
 40
0.9444444444
 40
0.9722222222
 40
1.0
 40
1.0
 40
1.0
 40
1.0
 10
11.3287337603
 20
-3.8216958739
 30
0.0
 10
11.3288695977
 20
-3.800124026
 30
0.0
 10
11.3292003225
 20
-3.7577515931
 30
0.0
 10
11.3298664944
 20
-3.6945465411
 30
0.0
 10
11.3307071073
 20
-3.6301316727
 30
0.0
 10
11.3316910001
 20
-3.5693703027
 30
0.0
 10
11.3327999158
 20
-3.5143955378
 30
0.0
 10
11.3340142564
 20
-3.4664559345
 30
0.0
 10
11.3353082779
 20
-3.4264064512
 30
0.0
 10
11.3366413569
 20
-3.3954173029
 30
0.0
 10
11.3379293448
 20
-3.3738069054
 30
0.0
 10
11.3396110498
 20
-3.3548464782
 30
0.0
 10
11.3415467318
 20
-3.3464541504
 30
0.0
 10
11.3436231576
 20
-3.3520925389
 30
0.0
 10
11.3454844701
 20
-3.3707208871
 30
0.0
 10
11.347114213
 20
-3.3989491438
 30
0.0
 10
11.3485318256
 20
-3.4337973708
 30
0.0
 10
11.3497527681
 20
-3.4729073054
 30
0.0
 10
11.3507914063
 20
-3.5145938884
 30
0.0
 10
11.3516643292
 20
-3.5579627974
 30
0.0
 10
11.3522771218
 20
-3.5937218859
 30
0.0
 10
11.3527170411
 20
-3.6214499658
 30
0.0
 10
11.3530260044
 20
-3.6417693746
 30
0.0
 10
11.3533139415
 20
-3.6613847569
 30
0.0
 10
11.3535884895
 20
-3.6803798429
 30
0.0
 10
11.3538502849
 20
-3.6997479833
 30
0.0
 10
11.3540677425
 20
-3.7192537402
 30
0.0
 10
11.3542250005
 20
-3.7389434169
 30
0.0
 10
11.3542827561
 20
-3.7524776163
 30
0.0
 10
11.3542980995
 20
-3.7592900447
 30
0.0
 11
11.3287337603
 21
-3.8216958739
 31
0.0
 11
11.32922867
 21
-3.757810526
 31
0.0
 11
11.3298955679
 21
-3.694344905
 31
0.0
 11
11.3307309873
 21
-3.6307405891
 31
0.0
 11
11.3317118372
 21
-3.5703347369
 31
0.0
 11
11.3328174866
 21
-3.5155680647
 31
0.0
 11
11.3340275365
 21
-3.4677709545
 31
0.0
 11
11.3353147875
 21
-3.4279165071
 31
0.0
 11
11.3366338418
 21
-3.396980428
 31
0.0
 11
11.3379248933
 21
-3.3750385849
 31
0.0
 11
11.339179527
 21
-3.3606071321
 31
0.0
 11
11.3415056664
 21
-3.3490723474
 31
0.0
 11
11.3435873054
 21
-3.3542575322
 31
0.0
 11
11.3454458752
 21
-3.3723208718
 31
0.0
 11
11.347078858
 21
-3.4000524722
 31
0.0
 11
11.3484990473
 21
-3.4345076554
 31
0.0
 11
11.3497223841
 21
-3.4733367468
 31
0.0
 11
11.3507637871
 21
-3.5148742761
 31
0.0
 11
11.3516414006
 21
-3.5578864636
 31
0.0
 11
11.3523829087
 21
-3.6005806399
 31
0.0
 11
11.3527135451
 21
-3.6213705239
 31
0.0
 11
11.3530225001
 21
-3.6416520368
 31
0.0
 11
11.35331171
 21
-3.6612813742
 31
0.0
 11
11.3535863641
 21
-3.6804420187
 31
0.0
 11
11.3538428952
 21
-3.6997709194
 31
0.0
 11
11.3540577092
 21
-3.7192843935
 31
0.0
 11
11.3542132297
 21
-3.739045354
 31
0.0
 11
11.3542980995
 21
-3.7592900447
 31
0.0
  0
SPLINE
  5
617
100
AcDbEntity
  8
SCRITTE
100
AcDbSpline
 62
253
  6
CONTINUOUS
 70
0
 71
3
 72
15
 73
11
 74
9
 42
0.0000001
 43
0.0000001
 44
0.0000000001
 12
-0.0045792717
 22
1.7832490611
 32
0.0
 13
0.0085644543
 23
1.358118789
 33
0.0
 40
0.0
 40
0.0
 40
0.0
 40
0.0
 40
0.125
 40
0.25
 40
0.375
 40
0.5
 40
0.625
 40
0.75
 40
0.875
 40
1.0
 40
1.0
 40
1.0
 40
1.0
 10
11.3282008773
 20
-5.315413099
 30
0.0
 10
11.3280100744
 20
-5.2411110548
 30
0.0
 10
11.3276678636
 20
-5.0973530935
 30
0.0
 10
11.3272976481
 20
-4.8980305963
 30
0.0
 10
11.3270693903
 20
-4.7090704306
 30
0.0
 10
11.3269886965
 20
-4.5271261696
 30
0.0
 10
11.3270699683
 20
-4.347850659
 30
0.0
 10
11.3273261163
 20
-4.1700661443
 30
0.0
 10
11.3278177289
 20
-3.993476957
 30
0.0
 10
11.328376908
 20
-3.8782841568
 30
0.0
 10
11.3287337603
 20
-3.8216958739
 30
0.0
 11
11.3282008773
 21
-5.315413099
 31
0.0
 11
11.3276917137
 21
-5.1000721676
 31
0.0
 11
11.3273213077
 21
-4.8997576515
 31
0.0
 11
11.3270939843
 21
-4.710239748
 31
0.0
 11
11.3270156908
 21
-4.5275709613
 31
0.0
 11
11.3270991143
 21
-4.3480991583
 31
0.0
 11
11.3273653604
 21
-4.1702653655
 31
0.0
 11
11.3278755883
 21
-3.9941102882
 31
0.0
 11
11.3287337603
 21
-3.8216958739
 31
0.0
  0
SPLINE
  5
618
100
AcDbEntity
  8
SCRITTE
100
AcDbSpline
 62
253
  6
CONTINUOUS
 70
0
 71
3
 72
15
 73
11
 74
9
 42
0.0000001
 43
0.0000001
 44
0.0000000001
 12
-0.0095096991
 22
-0.0085210995
 32
0.0
 13
-0.0011691363
 23
-0.5771015223
 33
0.0
 40
0.0
 40
0.0
 40
0.0
 40
0.0
 40
0.125
 40
0.25
 40
0.375
 40
0.5
 40
0.625
 40
0.75
 40
0.875
 40
1.0
 40
1.0
 40
1.0
 40
1.0
 10
11.342261169
 20
-3.9165657808
 30
0.0
 10
11.3418649315
 20
-3.9169208266
 30
0.0
 10
11.3410881151
 20
-3.9220365377
 30
0.0
 10
11.3399538895
 20
-3.9415475518
 30
0.0
 10
11.3388970108
 20
-3.9721660109
 30
0.0
 10
11.3379584769
 20
-4.0131979608
 30
0.0
 10
11.3371828407
 20
-4.0643861027
 30
0.0
 10
11.336579268
 20
-4.1232860546
 30
0.0
 10
11.3361489431
 20
-4.1881088265
 30
0.0
 10
11.3359828155
 20
-4.2344409176
 30
0.0
 10
11.3359341015
 20
-4.2584868144
 30
0.0
 11
11.342261169
 21
-3.9165657808
 31
0.0
 11
11.3410932816
 21
-3.9240094456
 31
0.0
 11
11.3399667806
 21
-3.9433987926
 31
0.0
 11
11.338916735
 21
-3.9739015927
 31
0.0
 11
11.3379856265
 21
-4.0148906594
 31
0.0
 11
11.337211518
 21
-4.0656714043
 31
0.0
 11
11.3366081426
 21
-4.1242731913
 31
0.0
 11
11.336179132
 21
-4.188888054
 31
0.0
 11
11.3359341015
 21
-4.2584868144
 31
0.0
  0
SPLINE
  5
619
100
AcDbEntity
  8
SCRITTE
100
AcDbSpline
 62
253
  6
CONTINUOUS
 70
0
 71
3
 72
18
 73
14
 74
12
 42
0.0000001
 43
0.0000001
 44
0.0000000001
 12
-0.0002944342
 22
0.7552081242
 32
0.0
 13
-0.0126064436
 23
-0.0111441163
 33
0.0
 40
0.0
 40
0.0
 40
0.0
 40
0.0
 40
0.0909090909
 40
0.1818181818
 40
0.2727272727
 40
0.3636363636
 40
0.4545454545
 40
0.5454545455
 40
0.6363636364
 40
0.7272727273
 40
0.8181818182
 40
0.9090909091
 40
1.0
 40
1.0
 40
1.0
 40
1.0
 10
11.3501265064
 20
-4.3867404304
 30
0.0
 10
11.3501175841
 20
-4.3638553358
 30
0.0
 10
11.3500696637
 20
-4.3176193314
 30
0.0
 10
11.3498767721
 20
-4.2452684139
 30
0.0
 10
11.3495368874
 20
-4.1748425378
 30
0.0
 10
11.34905403
 20
-4.1118076866
 30
0.0
 10
11.3484380993
 20
-4.0577693679
 30
0.0
 10
11.3476731744
 20
-4.0122439596
 30
0.0
 10
11.3467844963
 20
-3.9749600345
 30
0.0
 10
11.3457583458
 20
-3.9456917325
 30
0.0
 10
11.344601413
 20
-3.9265255177
 30
0.0
 10
11.3434114883
 20
-3.9173168633
 30
0.0
 10
11.3426431824
 20
-3.9162280803
 30
0.0
 10
11.342261169
 20
-3.9165657808
 30
0.0
 11
11.3501265064
 21
-4.3867404304
 31
0.0
 11
11.3500494952
 21
-4.3171198462
 31
0.0
 11
11.3498522733
 21
-4.2455892541
 31
0.0
 11
11.3495130586
 21
-4.1760743753
 31
0.0
 11
11.3490318511
 21
-4.1133071087
 31
0.0
 11
11.3484132669
 21
-4.0591881863
 31
0.0
 11
11.3476525489
 21
-4.0136175401
 31
0.0
 11
11.3467615842
 21
-3.9762959717
 31
0.0
 11
11.3457365487
 21
-3.9473754137
 31
0.0
 11
11.3445959143
 21
-3.9281851111
 31
0.0
 11
11.3434177326
 21
-3.9185794433
 31
0.0
 11
11.342261169
 21
-3.9165657808
 31
0.0
  0
SPLINE
  5
61A
100
AcDbEntity
  8
RACCORDO
100
AcDbSpline
 62
253
  6
CONTINUOUS
 70
0
 71
3
 72
18
 73
14
 74
12
 42
0.0000001
 43
0.0000001
 44
0.0000000001
 12
0.5000633084
 22
0.0001134348
 32
0.0
 13
0.4010348648
 23
0.298721212
 33
0.0
 40
0.0
 40
0.0
 40
0.0
 40
0.0
 40
0.1925360989
 40
0.3786027902
 40
0.5501211052
 40
0.7008357816
 40
0.8252069844
 40
0.8760904878
 40
0.9187323989
 40
0.952659986
 40
0.9776281554
 40
0.9934545574
 40
1.0
 40
1.0
 40
1.0
 40
1.0
 10
-8.0668661729
 20
-4.9522455894
 30
0.0
 10
-8.03477276
 20
-4.9522383093
 30
0.0
 10
-7.9716642251
 20
-4.95214426
 30
0.0
 10
-7.8799667009
 20
-4.9517751357
 30
0.0
 10
-7.7952402739
 20
-4.9511894244
 30
0.0
 10
-7.7208036579
 20
-4.9504085024
 30
0.0
 10
-7.666467069
 20
-4.9496025972
 30
0.0
 10
-7.6301658474
 20
-4.9488222981
 30
0.0
 10
-7.6089026098
 20
-4.9483077867
 30
0.0
 10
-7.5920551473
 20
-4.9476224011
 30
0.0
 10
-7.5794517727
 20
-4.947310124
 30
0.0
 10
-7.5718835146
 20
-4.9462659391
 30
0.0
 10
-7.5678173089
 20
-4.9463989438
 30
0.0
 10
-7.5669423253
 20
-4.9457471896
 30
0.0
 11
-8.0668661729
 21
-4.9522455894
 31
0.0
 11
-7.9705860399
 21
-4.9521012772
 31
0.0
 11
-7.8775416985
 21
-4.9517187744
 31
0.0
 11
-7.7917738336
 21
-4.9511110144
 31
0.0
 11
-7.7164112869
 21
-4.9503026754
 31
0.0
 11
-7.6542255258
 21
-4.9493230542
 31
0.0
 11
-7.6287863442
 21
-4.9487801658
 31
0.0
 11
-7.6074703614
 21
-4.9482081767
 31
0.0
 11
-7.5905148915
 21
-4.9476121709
 31
0.0
 11
-7.5780443053
 21
-4.9469987138
 31
0.0
 11
-7.5701547382
 21
-4.9463747414
 31
0.0
 11
-7.5669423253
 21
-4.9457471896
 31
0.0
  0
SPLINE
  5
61B
100
AcDbEntity
  8
RACCORDO
100
AcDbSpline
 62
253
  6
CONTINUOUS
 70
0
 71
3
 72
16
 73
12
 74
10
 42
0.0000001
 43
0.0000001
 44
0.0000000001
 12
0.4999433007
 22
-0.0000417318
 32
0.0
 13
0.4821096926
 23
-0.1323387697
 33
0.0
 40
0.0
 40
0.0
 40
0.0
 40
0.0
 40
0.3786912342
 40
0.5502469508
 40
0.7009905131
 40
0.825378629
 40
0.9189036546
 40
0.9528215233
 40
0.9777698421
 40
0.9935576594
 40
1.0
 40
1.0
 40
1.0
 40
1.0
 10
-8.0675025628
 20
3.941086988
 30
0.0
 10
-8.0043945142
 20
3.9410817202
 30
0.0
 10
-7.9126966962
 20
3.9409969337
 30
0.0
 10
-7.7958794115
 20
3.9406948253
 30
0.0
 10
-7.7214384244
 20
3.9404192467
 30
0.0
 10
-7.6600092619
 20
3.9400488957
 30
0.0
 10
-7.6180308427
 20
3.9397677006
 30
0.0
 10
-7.5926547696
 20
3.9393708728
 30
0.0
 10
-7.5801849108
 20
3.9392982747
 30
0.0
 10
-7.5723834891
 20
3.9388323016
 30
0.0
 10
-7.5686135369
 20
3.9389762607
 30
0.0
 10
-7.5675782319
 20
3.9386920702
 30
0.0
 11
-8.0675025628
 21
3.941086988
 31
0.0
 11
-7.8781785161
 21
3.9408928538
 31
0.0
 11
-7.792410677
 21
3.9406688741
 31
0.0
 11
-7.7170480315
 21
3.9403709697
 31
0.0
 11
-7.6548620741
 21
3.940009938
 31
0.0
 11
-7.6081066692
 21
3.9395990564
 31
0.0
 11
-7.5911510807
 21
3.9393794013
 31
0.0
 11
-7.5786803851
 21
3.9391533144
 31
0.0
 11
-7.5707907222
 21
3.9389233519
 31
0.0
 11
-7.5675782319
 21
3.9386920702
 31
0.0
  0
SPLINE
  5
61C
100
AcDbEntity
  8
RACCORDO
100
AcDbSpline
 62
253
  6
CONTINUOUS
 70
0
 71
3
 72
8
 73
4
 74
2
 42
0.0000001
 43
0.0000001
 44
0.0000000001
 12
0.0007428144
 22
-8.8844533166
 32
0.0
 13
-0.0020156968
 23
-8.884453119
 33
0.0
 40
0.0
 40
0.0
 40
0.0
 40
0.0
 40
1.0
 40
1.0
 40
1.0
 40
1.0
 10
8.1674360125
 20
3.9386920701
 30
0.0
 10
8.1676836173
 20
0.9772076313
 30
0.0
 10
8.1674715191
 20
-1.9842768817
 30
0.0
 10
8.1667996201
 20
-4.9457612547
 30
0.0
 11
8.1674360125
 21
3.9386920701
 31
0.0
 11
8.1667996201
 21
-4.9457612547
 31
0.0
  0
SPLINE
  5
61D
100
AcDbEntity
  8
RACCORDO
100
AcDbSpline
 62
253
  6
CONTINUOUS
 70
0
 71
3
 72
8
 73
4
 74
2
 42
0.0000001
 43
0.0000001
 44
0.0000000001
 12
-0.0020156993
 22
8.8844641159
 32
0.0
 13
0.0007428153
 23
8.8844643135
 33
0.0
 40
0.0
 40
0.0
 40
0.0
 40
0.0
 40
1.0
 40
1.0
 40
1.0
 40
1.0
 10
-7.5669423234
 20
-4.9457582268
 30
0.0
 10
-7.5676142232
 20
-1.9842701882
 30
0.0
 10
-7.5678263198
 20
0.9772179905
 30
0.0
 10
-7.5675787148
 20
3.938706095
 30
0.0
 11
-7.5669423234
 21
-4.9457582268
 31
0.0
 11
-7.5675787148
 21
3.938706095
 31
0.0
  0
SPLINE
  5
61E
100
AcDbEntity
  8
0
100
AcDbSpline
 62
253
  6
CONTINUOUS
 70
0
 71
3
 72
18
 73
14
 74
12
 42
0.0000001
 43
0.0000001
 44
0.0000000001
 12
0.1921197014
 22
0.4630599502
 32
0.0
 13
0.5013325863
 23
0.0003675738
 33
0.0
 40
0.0
 40
0.0
 40
0.0
 40
0.0
 40
0.0075742272
 40
0.0238007595
 40
0.0489920847
 40
0.0830644082
 40
0.1257079442
 40
0.1765195552
 40
0.3008286901
 40
0.451268844
 40
0.6222951312
 40
0.8077187133
 40
1.0
 40
1.0
 40
1.0
 40
1.0
 10
-10.7005302615
 20
22.543450162
 30
0.0
 10
-10.7000452087
 20
22.5446192691
 30
0.0
 10
-10.6956453254
 20
22.5460617982
 30
0.0
 10
-10.6881837548
 20
22.5479344348
 30
0.0
 10
-10.6754272632
 20
22.5497648181
 30
0.0
 10
-10.6586113476
 20
22.5516320995
 30
0.0
 10
-10.6373320028
 20
22.5534276465
 30
0.0
 10
-10.6010430929
 20
22.5558949552
 30
0.0
 10
-10.5466861044
 20
22.5585336804
 30
0.0
 10
-10.4722381759
 20
22.561050999
 30
0.0
 10
-10.3875492258
 20
22.5629456706
 30
0.0
 10
-10.2958575468
 20
22.5641430077
 30
0.0
 10
-10.2327387055
 20
22.5644446802
 30
0.0
 10
-10.2006064139
 20
22.5644682394
 30
0.0
 11
-10.7005302615
 21
22.543450162
 31
0.0
 11
-10.6973233036
 21
22.5454834376
 31
0.0
 11
-10.6894430655
 21
22.5475029196
 31
0.0
 11
-10.6769705051
 21
22.5494860564
 31
0.0
 11
-10.6599977237
 21
22.5514108278
 31
0.0
 11
-10.6386991728
 21
22.5532591421
 31
0.0
 11
-10.6132862133
 21
22.5550146683
 31
0.0
 11
-10.551046599
 21
22.5581836322
 31
0.0
 11
-10.4756714339
 21
22.5608003331
 31
0.0
 11
-10.3899528534
 21
22.5627641861
 31
0.0
 11
-10.2970021876
 21
22.5640021234
 31
0.0
 11
-10.2006064139
 21
22.5644682394
 31
0.0
  0
SPLINE
  5
61F
100
AcDbEntity
  8
0
100
AcDbSpline
 62
253
  6
CONTINUOUS
 70
0
 71
3
 72
14
 73
10
 74
8
 42
0.0000001
 43
0.0000001
 44
0.0000000001
 12
-0.000344913
 22
0.9566833998
 32
0.0
 13
-0.1577714374
 23
0.943584347
 33
0.0
 40
0.0
 40
0.0
 40
0.0
 40
0.0
 40
0.3738456895
 40
0.5425472124
 40
0.691375587
 40
0.8152204848
 40
0.9098847585
 40
0.9721862445
 40
1.0
 40
1.0
 40
1.0
 40
1.0
 10
-10.2006064139
 20
22.5644684762
 30
0.0
 10
-10.2006493953
 20
22.683685798
 30
0.0
 10
-10.2009609822
 20
22.8567029771
 30
0.0
 10
-10.2020231884
 20
23.077172396
 30
0.0
 10
-10.2029425122
 20
23.2179310178
 30
0.0
 10
-10.2042917043
 20
23.3350392416
 30
0.0
 10
-10.2051500634
 20
23.4246491484
 30
0.0
 10
-10.207356366
 20
23.4834208825
 30
0.0
 10
-10.2074067293
 20
23.5123131744
 30
0.0
 10
-10.2088694681
 20
23.5210613825
 30
0.0
 11
-10.2006064139
 21
22.5644684762
 31
0.0
 11
-10.2013266254
 21
22.9221197395
 31
0.0
 11
-10.2021027035
 21
23.0835118306
 31
0.0
 11
-10.2031237112
 21
23.2258898144
 31
0.0
 11
-10.2043556311
 21
23.3443637752
 31
0.0
 11
-10.2057561532
 21
23.4349166905
 31
0.0
 11
-10.2072779362
 21
23.4945000615
 31
0.0
 11
-10.2088694681
 21
23.5210613825
 31
0.0
  0
SPLINE
  5
620
100
AcDbEntity
  8
0
100
AcDbSpline
 62
253
  6
CONTINUOUS
 70
0
 71
3
 72
14
 73
10
 74
8
 42
0.0000001
 43
0.0000001
 44
0.0000000001
 12
-0.0003487263
 22
0.4784771467
 32
0.0
 13
-0.1517257143
 23
0.4537838793
 33
0.0
 40
0.0
 40
0.0
 40
0.0
 40
0.0
 40
0.3737559635
 40
0.5424164375
 40
0.6912132232
 40
0.8150295214
 40
0.9096979184
 40
0.9720510048
 40
1.0
 40
1.0
 40
1.0
 40
1.0
 10
-10.7005302615
 20
22.543450162
 30
0.0
 10
-10.7005737076
 20
22.603061391
 30
0.0
 10
-10.7008854693
 20
22.6895761624
 30
0.0
 10
-10.7019450762
 20
22.799807204
 30
0.0
 10
-10.7028703601
 20
22.8701986903
 30
0.0
 10
-10.7042039159
 20
22.9287143448
 30
0.0
 10
-10.7051021697
 20
22.9736167184
 30
0.0
 10
-10.7072309088
 20
23.0028328562
 30
0.0
 10
-10.7073797886
 20
23.017519014
 30
0.0
 10
-10.7087933156
 20
23.0217466152
 30
0.0
 11
-10.7005302615
 21
22.543450162
 31
0.0
 11
-10.7012501256
 21
22.7222824477
 31
0.0
 11
-10.7020260543
 21
22.8029789211
 31
0.0
 11
-10.7030473281
 21
22.8741674762
 31
0.0
 11
-10.704279408
 21
22.9333979479
 31
0.0
 11
-10.7056798315
 21
22.978672971
 31
0.0
 11
-10.707202339
 21
23.0084686324
 31
0.0
 11
-10.7087933156
 21
23.0217466152
 31
0.0
  0
SPLINE
  5
621
100
AcDbEntity
  8
0
100
AcDbSpline
 62
253
  6
CONTINUOUS
 70
0
 71
3
 72
18
 73
14
 74
12
 42
0.0000001
 43
0.0000001
 44
0.0000000001
 12
0.1920606607
 22
-0.4630845356
 32
0.0
 13
0.5013326734
 23
-0.0003675249
 33
0.0
 40
0.0
 40
0.0
 40
0.0
 40
0.0
 40
0.0075737577
 40
0.0237997682
 40
0.0489905999
 40
0.0830624793
 40
0.1257056375
 40
0.1765169517
 40
0.3008257893
 40
0.4512660906
 40
0.6222929771
 40
0.8077175327
 40
1.0
 40
1.0
 40
1.0
 40
1.0
 10
-10.7005302615
 20
-19.4511416714
 30
0.0
 10
-10.7000453878
 20
-19.4523107681
 30
0.0
 10
-10.6956455708
 20
-19.4537533894
 30
0.0
 10
-10.6881843548
 20
-19.4556259754
 30
0.0
 10
-10.6754280534
 20
-19.4574564036
 30
0.0
 10
-10.6586123824
 20
-19.4593236908
 30
0.0
 10
-10.6373332136
 20
-19.4611192618
 30
0.0
 10
-10.6010444667
 20
-19.4635866
 30
0.0
 10
-10.5466875422
 20
-19.4662253602
 30
0.0
 10
-10.4722395278
 20
-19.4687427112
 30
0.0
 10
-10.3875502756
 20
-19.4706374074
 30
0.0
 10
-10.2958581207
 20
-19.4718347571
 30
0.0
 10
-10.2327389083
 20
-19.4721364286
 30
0.0
 10
-10.2006064139
 20
-19.4721599848
 30
0.0
 11
-10.7005302615
 21
-19.4511416714
 31
0.0
 11
-10.6973235936
 21
-19.4531749659
 31
0.0
 11
-10.689443629
 21
-19.4551944675
 31
0.0
 11
-10.6769713202
 21
-19.4571776245
 31
0.0
 11
-10.6599987622
 21
-19.4591024166
 31
0.0
 11
-10.6387003995
 21
-19.4609507517
 31
0.0
 11
-10.6132875861
 21
-19.4627062988
 31
0.0
 11
-10.5510481123
 21
-19.465875303
 31
0.0
 11
-10.4756728613
 21
-19.4684920392
 31
0.0
 11
-10.389953966
 21
-19.4704559187
 31
0.0
 11
-10.2970027963
 21
-19.4716938699
 31
0.0
 11
-10.2006064139
 21
-19.4721599848
 31
0.0
  0
SPLINE
  5
622
100
AcDbEntity
  8
0
100
AcDbSpline
 62
253
  6
CONTINUOUS
 70
0
 71
3
 72
9
 73
5
 74
3
 42
0.0000001
 43
0.0000001
 44
0.0000000001
 12
0.0308407987
 22
41.9945826303
 32
0.0
 13
-0.0308408108
 23
41.9945826303
 33
0.0
 40
0.0
 40
0.0
 40
0.0
 40
0.0
 40
0.2499439267
 40
1.0
 40
1.0
 40
1.0
 40
1.0
 10
-10.7005302615
 20
-19.4511416714
 30
0.0
 10
-10.6979607714
 20
-15.9523780436
 30
0.0
 10
-10.6902551466
 20
-1.9541820619
 30
0.0
 10
-10.6928194823
 20
12.0440195797
 30
0.0
 10
-10.7005302615
 20
22.543450162
 30
0.0
 11
-10.7005302615
 21
-19.4511416714
 31
0.0
 11
-10.6947504078
 21
-8.9548495489
 31
0.0
 11
-10.7005302615
 21
22.543450162
 31
0.0
  0
SPLINE
  5
623
100
AcDbEntity
  8
0
100
AcDbSpline
 62
253
  6
CONTINUOUS
 70
0
 71
3
 72
14
 73
10
 74
8
 42
0.0000001
 43
0.0000001
 44
0.0000000001
 12
0.1577714344
 22
0.9435843475
 32
0.0
 13
0.0003449125
 23
0.9566833998
 33
0.0
 40
0.0
 40
0.0
 40
0.0
 40
0.0
 40
0.0278137553
 40
0.0901152416
 40
0.1847795152
 40
0.308624413
 40
0.4574527876
 40
0.6261543105
 40
1.0
 40
1.0
 40
1.0
 40
1.0
 10
-10.2088694681
 20
-20.4287528919
 30
0.0
 10
-10.2074067294
 20
-20.4200046838
 30
0.0
 10
-10.2073563661
 20
-20.3911123918
 30
0.0
 10
-10.2051500633
 20
-20.3323406578
 30
0.0
 10
-10.2042917043
 20
-20.2427307509
 30
0.0
 10
-10.2029425122
 20
-20.1256225272
 30
0.0
 10
-10.2020231885
 20
-19.9848639054
 30
0.0
 10
-10.2009609822
 20
-19.7643944864
 30
0.0
 10
-10.2006493952
 20
-19.5913773073
 30
0.0
 10
-10.2006064139
 20
-19.4721599856
 30
0.0
 11
-10.2088694681
 21
-20.4287528919
 31
0.0
 11
-10.2072779362
 21
-20.4021915711
 31
0.0
 11
-10.2057561532
 21
-20.3426081998
 31
0.0
 11
-10.2043556311
 21
-20.2520552846
 31
0.0
 11
-10.2031237112
 21
-20.1335813238
 31
0.0
 11
-10.2021027035
 21
-19.99120334
 31
0.0
 11
-10.2013266254
 21
-19.8298112489
 31
0.0
 11
-10.2006064139
 21
-19.4721599856
 31
0.0
  0
SPLINE
  5
624
100
AcDbEntity
  8
0
100
AcDbSpline
 62
253
  6
CONTINUOUS
 70
0
 71
3
 72
14
 73
10
 74
8
 42
0.0000001
 43
0.0000001
 44
0.0000000001
 12
0.1517258693
 22
0.4537838275
 32
0.0
 13
0.0003487265
 23
0.4784771467
 33
0.0
 40
0.0
 40
0.0
 40
0.0
 40
0.0
 40
0.0279489945
 40
0.0903020824
 40
0.1849704779
 40
0.3087867769
 40
0.4575835628
 40
0.6262440365
 40
1.0
 40
1.0
 40
1.0
 40
1.0
 10
-10.7087933156
 20
-19.9294381245
 30
0.0
 10
-10.7073797871
 20
-19.9252105239
 30
0.0
 10
-10.7072309102
 20
-19.910524365
 30
0.0
 10
-10.7051021689
 20
-19.8813082281
 30
0.0
 10
-10.7042039162
 20
-19.8364058541
 30
0.0
 10
-10.70287036
 20
-19.7778901998
 30
0.0
 10
-10.7019450762
 20
-19.7074987132
 30
0.0
 10
-10.7008854693
 20
-19.5972676717
 30
0.0
 10
-10.7005737077
 20
-19.5107529004
 30
0.0
 10
-10.7005302615
 20
-19.4511416714
 30
0.0
 11
-10.7087933156
 21
-19.9294381245
 31
0.0
 11
-10.707202339
 21
-19.9161601421
 31
0.0
 11
-10.7056798315
 21
-19.88636448
 31
0.0
 11
-10.7042794079
 21
-19.8410894576
 31
0.0
 11
-10.7030473281
 21
-19.7818589856
 31
0.0
 11
-10.7020260543
 21
-19.7106704303
 31
0.0
 11
-10.7012501256
 21
-19.629973957
 31
0.0
 11
-10.7005302615
 21
-19.4511416714
 31
0.0
  0
SPLINE
  5
625
100
AcDbEntity
  8
0
100
AcDbSpline
 62
253
  6
CONTINUOUS
 70
0
 71
3
 72
18
 73
14
 74
12
 42
0.0000001
 43
0.0000001
 44
0.0000000001
 12
0.5013323368
 22
-0.000367603
 32
0.0
 13
0.1922951011
 23
-0.4629868693
 33
0.0
 40
0.0
 40
0.0
 40
0.0
 40
0.0
 40
0.1922777651
 40
0.3776984417
 40
0.5487229375
 40
0.6991626459
 40
0.8234726619
 40
0.8742851559
 40
0.9169298173
 40
0.9510034654
 40
0.9761962651
 40
0.9924243591
 40
1.0
 40
1.0
 40
1.0
 40
1.0
 10
10.8004637112
 20
22.5644675331
 30
0.0
 10
10.8325953983
 20
22.5644439724
 30
0.0
 10
10.8957131341
 20
22.5641423107
 30
0.0
 10
10.9874033949
 20
22.5629450267
 30
0.0
 10
11.0720914439
 20
22.5610504384
 30
0.0
 10
11.1465391153
 20
22.5585332205
 30
0.0
 10
11.2008962933
 20
22.5558945979
 30
0.0
 10
11.2371856881
 20
22.5534273724
 30
0.0
 10
11.2584655571
 20
22.5516318916
 30
0.0
 10
11.2752822027
 20
22.5497646214
 30
0.0
 10
11.288039261
 20
22.5479343623
 30
0.0
 10
11.2955018934
 20
22.5460615701
 30
0.0
 10
11.2999019724
 20
22.5446193028
 30
0.0
 10
11.3003875586
 20
22.543450162
 30
0.0
 11
10.8004637112
 21
22.5644675331
 31
0.0
 11
10.8968576716
 21
22.5640014344
 31
0.0
 11
10.9898068351
 21
22.5627635543
 31
0.0
 11
11.0755244766
 21
22.5607997901
 31
0.0
 11
11.1508993844
 21
22.5581831982
 31
0.0
 11
11.2131394159
 21
22.5550143517
 31
0.0
 11
11.2385528106
 21
22.5532588838
 31
0.0
 11
11.259851922
 21
22.5514106264
 31
0.0
 11
11.2768253695
 21
22.5494859098
 31
0.0
 11
11.2892986801
 21
22.547502825
 31
0.0
 11
11.2971797349
 21
22.5454833919
 31
0.0
 11
11.3003875586
 21
22.543450162
 31
0.0
  0
SPLINE
  5
626
100
AcDbEntity
  8
0
100
AcDbSpline
 62
253
  6
CONTINUOUS
 70
0
 71
3
 72
14
 73
10
 74
8
 42
0.0000001
 43
0.0000001
 44
0.0000000001
 12
0.0003498905
 22
0.4784771498
 32
0.0
 13
0.15183075
 23
0.4537487506
 33
0.0
 40
0.0
 40
0.0
 40
0.0
 40
0.0
 40
0.3737506305
 40
0.54241194
 40
0.6912118009
 40
0.8150315322
 40
0.9096990562
 40
0.9720517829
 40
1.0
 40
1.0
 40
1.0
 40
1.0
 10
11.3003875588
 20
22.543450162
 30
0.0
 10
11.3004311494
 20
22.6030605408
 30
0.0
 10
11.3007427229
 20
22.6895746022
 30
0.0
 10
11.3018024394
 20
22.7998054019
 30
0.0
 10
11.3027275748
 20
22.8701980983
 30
0.0
 10
11.304061379
 20
22.9287145464
 30
0.0
 10
11.3049588989
 20
22.9736175343
 30
0.0
 10
11.3070891755
 20
23.0028328266
 30
0.0
 10
11.3072361467
 20
23.0175194589
 30
0.0
 10
11.3086506129
 20
23.0217466152
 30
0.0
 11
11.3003875588
 21
22.543450162
 31
0.0
 11
11.3011074302
 21
22.7222798973
 31
0.0
 11
11.3018833694
 21
22.8029767712
 31
0.0
 11
11.3029046156
 21
22.8741667988
 31
0.0
 11
11.3041366748
 21
22.9333989145
 31
0.0
 11
11.3055371009
 21
22.97867352
 31
0.0
 11
11.307059628
 21
23.0084690082
 31
0.0
 11
11.3086506129
 21
23.0217466152
 31
0.0
  0
SPLINE
  5
627
100
AcDbEntity
  8
0
100
AcDbSpline
 62
253
  6
CONTINUOUS
 70
0
 71
3
 72
14
 73
10
 74
8
 42
0.0000001
 43
0.0000001
 44
0.0000000001
 12
0.0003490215
 22
0.9566834067
 32
0.0
 13
0.1577384812
 23
0.9435898653
 33
0.0
 40
0.0
 40
0.0
 40
0.0
 40
0.0
 40
0.3738457518
 40
0.5425471235
 40
0.6913757719
 40
0.8152206001
 40
0.9098845012
 40
0.9721867138
 40
1.0
 40
1.0
 40
1.0
 40
1.0
 10
10.8004637112
 20
22.5644684762
 30
0.0
 10
10.8005072046
 20
22.6836858187
 30
0.0
 10
10.800818101
 20
22.8567029702
 30
0.0
 10
10.8018801913
 20
23.0771724533
 30
0.0
 10
10.8027995137
 20
23.2179310881
 30
0.0
 10
10.8041485
 20
23.3350392751
 30
0.0
 10
10.8050068982
 20
23.4246492387
 30
0.0
 10
10.8072134231
 20
23.4834210006
 30
0.0
 10
10.8072643569
 20
23.5123132709
 30
0.0
 10
10.8087267654
 20
23.5210613825
 30
0.0
 11
10.8004637112
 21
22.5644684762
 31
0.0
 11
10.8011837679
 21
22.9221198026
 31
0.0
 11
10.801959717
 21
23.083511751
 31
0.0
 11
10.8029806686
 21
23.2258899985
 31
0.0
 11
10.8042124604
 21
23.344363895
 31
0.0
 11
10.8056130453
 21
23.4349164536
 31
0.0
 11
10.8071352597
 21
23.4945005095
 31
0.0
 11
10.8087267654
 21
23.5210613825
 31
0.0
  0
SPLINE
  5
628
100
AcDbEntity
  8
0
100
AcDbSpline
 62
253
  6
CONTINUOUS
 70
0
 71
3
 72
18
 73
14
 74
12
 42
0.0000001
 43
0.0000001
 44
0.0000000001
 12
0.5013326736
 22
0.0003675205
 32
0.0
 13
0.1920605204
 23
0.463084594
 33
0.0
 40
0.0
 40
0.0
 40
0.0
 40
0.0
 40
0.192282469
 40
0.3777070261
 40
0.5487339137
 40
0.6991742156
 40
0.8234830531
 40
0.8742943669
 40
0.9169375246
 40
0.9510094033
 40
0.976200234
 40
0.9924262434
 40
1.0
 40
1.0
 40
1.0
 40
1.0
 10
10.8004637112
 20
-19.4721599851
 30
0.0
 10
10.8325962059
 20
-19.4721364292
 30
0.0
 10
10.8957154188
 20
-19.4718347582
 30
0.0
 10
10.9874075745
 20
-19.4706374086
 30
0.0
 10
11.0720968273
 20
-19.4687427121
 30
0.0
 10
11.1465448419
 20
-19.4662253608
 30
0.0
 10
11.2009017665
 20
-19.4635866005
 30
0.0
 10
11.2371905133
 20
-19.4611192621
 30
0.0
 10
11.2584696818
 20
-19.459323691
 30
0.0
 10
11.2752853524
 20
-19.4574564038
 30
0.0
 10
11.2880416534
 20
-19.4556259755
 30
0.0
 10
11.2955028686
 20
-19.4537533895
 30
0.0
 10
11.2999026855
 20
-19.452310768
 30
0.0
 10
11.3003875588
 20
-19.4511416714
 30
0.0
 11
10.8004637112
 21
-19.4721599851
 31
0.0
 11
10.8968600945
 21
-19.4716938709
 31
0.0
 11
10.989811265
 21
-19.4704559198
 31
0.0
 11
11.0755301609
 21
-19.4684920401
 31
0.0
 11
11.1509054122
 21
-19.4658753035
 31
0.0
 11
11.213144886
 21
-19.4627062992
 31
0.0
 11
11.2385576992
 21
-19.460950752
 31
0.0
 11
11.2598560616
 21
-19.4591024168
 31
0.0
 11
11.2768286193
 21
-19.4571776246
 31
0.0
 11
11.2893009276
 21
-19.4551944676
 31
0.0
 11
11.2971808915
 21
-19.4531749659
 31
0.0
 11
11.3003875588
 21
-19.4511416714
 31
0.0
  0
SPLINE
  5
629
100
AcDbEntity
  8
0
100
AcDbSpline
 62
253
  6
CONTINUOUS
 70
0
 71
3
 72
9
 73
5
 74
3
 42
0.0000001
 43
0.0000001
 44
0.0000000001
 12
-0.0308408122
 22
41.9945826303
 32
0.0
 13
0.0308408097
 23
41.9945826303
 33
0.0
 40
0.0
 40
0.0
 40
0.0
 40
0.0
 40
0.2499439267
 40
1.0
 40
1.0
 40
1.0
 40
1.0
 10
11.3003875588
 20
-19.4511416714
 30
0.0
 10
11.2978180675
 20
-15.9523780435
 30
0.0
 10
11.2901124452
 20
-1.9541820618
 30
0.0
 10
11.2926767799
 20
12.0440195797
 30
0.0
 10
11.3003875588
 20
22.543450162
 30
0.0
 11
11.3003875588
 21
-19.4511416714
 31
0.0
 11
11.2946077049
 21
-8.9548495487
 31
0.0
 11
11.3003875588
 21
22.543450162
 31
0.0
  0
SPLINE
  5
62A
100
AcDbEntity
  8
0
100
AcDbSpline
 62
253
  6
CONTINUOUS
 70
0
 71
3
 72
14
 73
10
 74
8
 42
0.0000001
 43
0.0000001
 44
0.0000000001
 12
-0.1518308599
 22
0.4537487138
 32
0.0
 13
-0.0003498908
 23
0.4784771498
 33
0.0
 40
0.0
 40
0.0
 40
0.0
 40
0.0
 40
0.0279482167
 40
0.0903009443
 40
0.1849684673
 40
0.3087881991
 40
0.4575880603
 40
0.6262493696
 40
1.0
 40
1.0
 40
1.0
 40
1.0
 10
11.3086506129
 20
-19.9294381245
 30
0.0
 10
11.3072361457
 20
-19.9252109687
 30
0.0
 10
11.3070891765
 20
-19.9105243355
 30
0.0
 10
11.3049588984
 20
-19.8813090439
 30
0.0
 10
11.3040613792
 20
-19.8364060556
 30
0.0
 10
11.3027275747
 20
-19.7778896077
 30
0.0
 10
11.3018024395
 20
-19.7074969111
 30
0.0
 10
11.3007427228
 20
-19.5972661115
 30
0.0
 10
11.3004311494
 20
-19.5107520502
 30
0.0
 10
11.3003875588
 20
-19.4511416714
 30
0.0
 11
11.3086506129
 21
-19.9294381245
 31
0.0
 11
11.307059628
 21
-19.9161605178
 31
0.0
 11
11.3055371009
 21
-19.886365029
 31
0.0
 11
11.3041366748
 21
-19.8410904241
 31
0.0
 11
11.3029046156
 21
-19.7818583082
 31
0.0
 11
11.3018833694
 21
-19.7106682804
 31
0.0
 11
11.3011074302
 21
-19.6299714067
 31
0.0
 11
11.3003875588
 21
-19.4511416714
 31
0.0
  0
SPLINE
  5
62B
100
AcDbEntity
  8
RACCORDO
100
AcDbSpline
 62
253
  6
CONTINUOUS
 70
0
 71
3
 72
16
 73
12
 74
10
 42
0.0000001
 43
0.0000001
 44
0.0000000001
 12
-0.4999428172
 22
-0.0000417984
 32
0.0
 13
-0.48210939
 23
-0.1323380456
 33
0.0
 40
0.0
 40
0.0
 40
0.0
 40
0.0
 40
0.3786921695
 40
0.5502480034
 40
0.7009914617
 40
0.825379313
 40
0.9189040224
 40
0.9528217504
 40
0.9777699555
 40
0.9935576945
 40
1.0
 40
1.0
 40
1.0
 40
1.0
 10
8.6673598601
 20
3.9410870029
 30
0.0
 10
8.6042517167
 20
3.9410817266
 30
0.0
 10
8.512553812
 20
3.9409969307
 30
0.0
 10
8.3957364822
 20
3.9406948145
 30
0.0
 10
8.321295609
 20
3.9404192334
 30
0.0
 10
8.25986662
 20
3.9400488827
 30
0.0
 10
8.2178883618
 20
3.9397676892
 30
0.0
 10
8.1925124081
 20
3.9393708649
 30
0.0
 10
8.1800426171
 20
3.9392982678
 30
0.0
 10
8.1722412399
 20
3.9388322995
 30
0.0
 10
8.1684713112
 20
3.9389762575
 30
0.0
 10
8.1674360125
 20
3.9386920701
 30
0.0
 11
8.6673598601
 21
3.9410870029
 31
0.0
 11
8.4780355289
 21
3.9408928486
 31
0.0
 11
8.3922677142
 21
3.9406688634
 31
0.0
 11
8.3169051935
 21
3.9403709566
 31
0.0
 11
8.2547194285
 21
3.9400099252
 31
0.0
 11
8.207964227
 21
3.9395990464
 31
0.0
 11
8.1910087252
 21
3.9393793934
 31
0.0
 11
8.1785380984
 21
3.9391533089
 31
0.0
 11
8.1706484823
 21
3.9389233491
 31
0.0
 11
8.1674360125
 21
3.9386920701
 31
0.0
  0
SPLINE
  5
62C
100
AcDbEntity
  8
RACCORDO
100
AcDbSpline
 62
253
  6
CONTINUOUS
 70
0
 71
3
 72
18
 73
14
 74
12
 42
0.0000001
 43
0.0000001
 44
0.0000000001
 12
-0.500063797
 22
0.0001133546
 32
0.0
 13
-0.4010358584
 23
0.298720696
 33
0.0
 40
0.0
 40
0.0
 40
0.0
 40
0.0
 40
0.1925355215
 40
0.3786018376
 40
0.550120033
 40
0.7008348154
 40
0.8252062881
 40
0.8760899537
 40
0.9187320251
 40
0.9526597556
 40
0.9776280408
 40
0.9934545224
 40
1.0
 40
1.0
 40
1.0
 40
1.0
 10
8.6667234702
 20
-4.9522455469
 30
0.0
 10
8.6346301222
 20
-4.952238272
 30
0.0
 10
8.5715216844
 20
-4.9521442322
 30
0.0
 10
8.4798242493
 20
-4.9517751202
 30
0.0
 10
8.3950978043
 20
-4.9511894186
 30
0.0
 10
8.3206610727
 20
-4.9504085034
 30
0.0
 10
8.2663243411
 20
-4.9496026016
 30
0.0
 10
8.2300229851
 20
-4.9488223037
 30
0.0
 10
8.2087596491
 20
-4.9483077924
 30
0.0
 10
8.1919121001
 20
-4.9476224057
 30
0.0
 10
8.1793086568
 20
-4.9473101285
 30
0.0
 10
8.1717403526
 20
-4.94626594
 30
0.0
 10
8.167674124
 20
-4.9463989462
 30
0.0
 10
8.1667991336
 20
-4.9457471897
 30
0.0
 11
8.6667234702
 21
-4.9522455469
 31
0.0
 11
8.5704435319
 21
-4.9521012494
 31
0.0
 11
8.4773992872
 21
-4.9517187593
 31
0.0
 11
8.3916313982
 21
-4.9511110091
 31
0.0
 11
8.3162687248
 21
-4.950302677
 31
0.0
 11
8.2540827678
 21
-4.9493230594
 31
0.0
 11
8.2286434802
 21
-4.9487801715
 31
0.0
 11
8.2073273964
 21
-4.9482081823
 31
0.0
 11
8.1903718382
 21
-4.9476121756
 31
0.0
 11
8.1779011819
 21
-4.9469987173
 31
0.0
 11
8.1700115672
 21
-4.9463747433
 31
0.0
 11
8.1667991336
 21
-4.9457471897
 31
0.0
  0
SPLINE
  5
62D
100
AcDbEntity
  8
0
100
AcDbSpline
 62
253
  6
CONTINUOUS
 70
0
 71
3
 72
14
 73
10
 74
8
 42
0.0000001
 43
0.0000001
 44
0.0000000001
 12
-0.1577384664
 22
0.9435898678
 32
0.0
 13
-0.0003490217
 23
0.9566834067
 33
0.0
 40
0.0
 40
0.0
 40
0.0
 40
0.0
 40
0.0278132861
 40
0.0901154989
 40
0.1847793999
 40
0.3086242281
 40
0.4574528765
 40
0.6261542482
 40
1.0
 40
1.0
 40
1.0
 40
1.0
 10
10.8087267654
 20
-20.4287528919
 30
0.0
 10
10.807264357
 20
-20.4200047802
 30
0.0
 10
10.807213423
 20
-20.39111251
 30
0.0
 10
10.8050068982
 20
-20.3323407481
 30
0.0
 10
10.8041485
 20
-20.2427307845
 30
0.0
 10
10.8027995136
 20
-20.1256225975
 30
0.0
 10
10.8018801913
 20
-19.9848639627
 30
0.0
 10
10.800818101
 20
-19.7643944795
 30
0.0
 10
10.8005072046
 20
-19.5913773281
 30
0.0
 10
10.8004637112
 20
-19.4721599856
 30
0.0
 11
10.8087267654
 21
-20.4287528919
 31
0.0
 11
10.8071352597
 21
-20.4021920189
 31
0.0
 11
10.8056130452
 21
-20.3426079629
 31
0.0
 11
10.8042124604
 21
-20.2520554044
 31
0.0
 11
10.8029806686
 21
-20.1335815078
 31
0.0
 11
10.801959717
 21
-19.9912032604
 31
0.0
 11
10.8011837679
 21
-19.829811312
 31
0.0
 11
10.8004637112
 21
-19.4721599856
 31
0.0
  0
LINE
  5
62E
100
AcDbEntity
  8
ASSI
100
AcDbLine
 62
7
  6
CONTINUOUS
 10
-54.2759652233
 20
-21.1170123766
 11
-53.8267641185
 21
-21.1128544682
  0
SPLINE
  5
62F
100
AcDbEntity
  8
ASSI
100
AcDbSpline
 62
7
  6
CONTINUOUS
 70
0
 71
3
 72
8
 73
4
 74
2
 42
0.0000001
 43
0.0000001
 44
0.0000000001
 12
3.5507699425
 22
0.0324787949
 32
0.0
 13
3.5508268014
 23
0.0255163221
 33
0.0
 40
0.0
 40
0.0
 40
0.0
 40
0.0
 40
1.0
 40
1.0
 40
1.0
 40
1.0
 10
-53.8267641185
 20
-21.1128544682
 30
0.0
 10
-52.6431741377
 20
-21.1020282032
 30
0.0
 10
-51.4595741572
 20
-21.092217798
 30
0.0
 10
-50.2759652233
 20
-21.0837123573
 30
0.0
 11
-53.8267641185
 21
-21.1128544682
 31
0.0
 11
-50.2759652233
 21
-21.0837123573
 31
0.0
  0
SPLINE
  5
630
100
AcDbEntity
  8
ASSI
100
AcDbSpline
 62
7
  6
CONTINUOUS
 70
0
 71
3
 72
8
 73
4
 74
2
 42
0.0000001
 43
0.0000001
 44
0.0000000001
 12
3.5629691674
 22
-0.033365491
 32
0.0
 13
3.5630263551
 23
-0.0265657062
 33
0.0
 40
0.0
 40
0.0
 40
0.0
 40
0.0
 40
1.0
 40
1.0
 40
1.0
 40
1.0
 10
-54.2759652233
 20
24.2093208673
 30
0.0
 10
-53.0883088342
 20
24.198199037
 30
0.0
 10
-51.9006424278
 20
24.188075695
 30
0.0
 10
-50.7129669761
 20
24.1792204596
 30
0.0
 11
-54.2759652233
 21
24.2093208673
 31
0.0
 11
-50.7129669761
 21
24.1792204596
 31
0.0
  0
LINE
  5
631
100
AcDbEntity
  8
ASSI
100
AcDbLine
 62
7
  6
CONTINUOUS
 10
-50.7129669761
 20
24.1792204596
 11
-50.2759652233
 21
24.176020848
  0
SPLINE
  5
632
100
AcDbEntity
  8
ASSI
100
AcDbSpline
 62
253
  6
CONTINUOUS
 70
0
 71
3
 72
21
 73
17
 74
15
 42
0.0000001
 43
0.0000001
 44
0.0000000001
 12
-0.4991953145
 22
-0.0261617179
 32
0.0
 13
0.0261537698
 23
-0.499195731
 33
0.0
 40
0.0
 40
0.0
 40
0.0
 40
0.0
 40
0.0014774574
 40
0.0051859436
 40
0.011246728
 40
0.0196703484
 40
0.0435549829
 40
0.0766214838
 40
0.1185744821
 40
0.1690004351
 40
0.2274297893
 40
0.2932887301
 40
0.444725317
 40
0.617502734
 40
0.8049923355
 40
1.0
 40
1.0
 40
1.0
 40
1.0
 10
-62.3872202433
 20
23.5210613825
 30
0.0
 10
-62.3874660899
 20
23.5210484983
 30
0.0
 10
-62.3877505694
 20
23.5199195815
 30
0.0
 10
-62.3880162288
 20
23.5183251498
 30
0.0
 10
-62.3882607031
 20
23.5151594798
 30
0.0
 10
-62.3885381883
 20
23.5088572271
 30
0.0
 10
-62.3886658479
 20
23.4978998004
 30
0.0
 10
-62.3885782895
 20
23.4814500106
 30
0.0
 10
-62.3882335435
 20
23.460538314
 30
0.0
 10
-62.387636785
 20
23.4354206757
 30
0.0
 10
-62.3867878537
 20
23.4063194981
 30
0.0
 10
-62.3852570162
 20
23.3604023185
 30
0.0
 10
-62.3827546159
 20
23.295453169
 30
0.0
 10
-62.3790686483
 20
23.2102692491
 30
0.0
 10
-62.3747059474
 20
23.1178482729
 30
0.0
 10
-62.3714785302
 20
23.054195613
 30
0.0
 10
-62.3697784684
 20
23.0217466152
 30
0.0
 11
-62.3872202433
 21
23.5210613825
 31
0.0
 11
-62.3876150369
 21
23.5204372055
 31
0.0
 11
-62.3879463296
 21
23.5186132488
 31
0.0
 11
-62.3882132131
 21
23.5155953594
 31
0.0
 11
-62.3884147795
 21
23.5113893839
 31
0.0
 11
-62.3886194899
 21
23.4994516788
 31
0.0
 11
-62.3885590054
 21
23.4829224943
 31
0.0
 11
-62.3882337962
 21
23.4619535351
 31
0.0
 11
-62.3876473872
 21
23.4367534124
 31
0.0
 11
-62.3868049162
 21
23.4075578771
 31
0.0
 11
-62.3857149179
 21
23.3746543338
 31
0.0
 11
-62.3828357751
 21
23.2990089265
 31
0.0
 11
-62.3791204747
 21
23.2127208328
 31
0.0
 11
-62.3747116279
 21
23.1191022159
 31
0.0
 11
-62.3697784684
 21
23.0217466152
 31
0.0
  0
SPLINE
  5
633
100
AcDbEntity
  8
ASSI
100
AcDbSpline
 62
253
  6
CONTINUOUS
 70
0
 71
3
 72
21
 73
17
 74
15
 42
0.0000001
 43
0.0000001
 44
0.0000000001
 12
-0.4991953085
 22
0.0261617175
 32
0.0
 13
0.0261536506
 23
0.4991957312
 33
0.0
 40
0.0
 40
0.0
 40
0.0
 40
0.0
 40
0.0014774518
 40
0.0051859359
 40
0.0112467191
 40
0.0196703388
 40
0.0435549724
 40
0.076621473
 40
0.1185744714
 40
0.1690004247
 40
0.2274297796
 40
0.2932887211
 40
0.4447253099
 40
0.6175027292
 40
0.804992333
 40
1.0
 40
1.0
 40
1.0
 40
1.0
 10
-62.3872202433
 20
-20.4287528919
 30
0.0
 10
-62.3874660889
 20
-20.4287400077
 30
0.0
 10
-62.3877505613
 20
-20.4276110883
 30
0.0
 10
-62.3880162194
 20
-20.4260166606
 30
0.0
 10
-62.388260688
 20
-20.4228509892
 30
0.0
 10
-62.3885381679
 20
-20.4165487379
 30
0.0
 10
-62.38866582
 20
-20.4055913108
 30
0.0
 10
-62.388578255
 20
-20.3891415218
 30
0.0
 10
-62.3882335032
 20
-20.3682298254
 30
0.0
 10
-62.3876367405
 20
-20.3431121874
 30
0.0
 10
-62.3867878065
 20
-20.3140110099
 30
0.0
 10
-62.3852569676
 20
-20.2680938304
 30
0.0
 10
-62.3827545701
 20
-20.2031446807
 30
0.0
 10
-62.3790686116
 20
-20.1179607604
 30
0.0
 10
-62.3747059263
 20
-20.0255397834
 30
0.0
 10
-62.3714785225
 20
-19.9618871228
 30
0.0
 10
-62.3697784684
 20
-19.9294381245
 30
0.0
 11
-62.3872202433
 21
-20.4287528919
 31
0.0
 11
-62.3876150321
 21
-20.4281287151
 31
0.0
 11
-62.3879463201
 21
-20.4263047587
 31
0.0
 11
-62.3882131992
 21
-20.4232868695
 31
0.0
 11
-62.3884147612
 21
-20.4190808942
 31
0.0
 11
-62.3886194635
 21
-20.4071431895
 31
0.0
 11
-62.3885589718
 21
-20.3906140055
 31
0.0
 11
-62.3882337567
 21
-20.3696450466
 31
0.0
 11
-62.3876473432
 21
-20.3444449241
 31
0.0
 11
-62.3868048694
 21
-20.3152493889
 31
0.0
 11
-62.3857148699
 21
-20.2823458457
 31
0.0
 11
-62.3828357299
 21
-20.2067004382
 31
0.0
 11
-62.3791204386
 21
-20.120412344
 31
0.0
 11
-62.3747116072
 21
-20.0267937264
 31
0.0
 11
-62.3697784684
 21
-19.9294381245
 31
0.0
  0
LINE
  5
634
100
AcDbEntity
  8
ASSI
100
AcDbLine
 62
7
  6
CONTINUOUS
 10
-45.9696251011
 20
22.3810723041
 11
-54.2759652233
 21
22.4461542453
  0
LINE
  5
635
100
AcDbEntity
  8
ASSI
100
AcDbLine
 62
7
  6
CONTINUOUS
 10
-54.2759652233
 20
-19.3538457547
 11
-45.9696251011
 21
-19.2887638134
  0
SPLINE
  5
636
100
AcDbEntity
  8
SCRITTE
100
AcDbSpline
 62
253
  6
CONTINUOUS
 70
0
 71
3
 72
14
 73
10
 74
8
 42
0.0000001
 43
0.0000001
 44
0.0000000001
 12
-0.5231989433
 22
-0.1966878085
 32
0.0
 13
0.0
 23
-0.4544794074
 33
0.0
 40
0.0
 40
0.0
 40
0.0
 40
0.0
 40
0.25
 40
0.375
 40
0.5
 40
0.625
 40
0.75
 40
0.875
 40
1.0
 40
1.0
 40
1.0
 40
1.0
 10
-59.2634820633
 20
-4.0504491861
 30
0.0
 10
-59.3070819752
 20
-4.0668398368
 30
0.0
 10
-59.3629757295
 20
-4.0986088299
 30
0.0
 10
-59.4209514022
 20
-4.1482656567
 30
0.0
 10
-59.4564927065
 20
-4.1888702689
 30
0.0
 10
-59.4843056803
 20
-4.2330536872
 30
0.0
 10
-59.5038379627
 20
-4.2808372263
 30
0.0
 10
-59.5159423899
 20
-4.3331441511
 30
0.0
 10
-59.5187329853
 20
-4.36910844
 30
0.0
 10
-59.5187329853
 20
-4.3880450819
 30
0.0
 11
-59.2634820633
 21
-4.0504491861
 31
0.0
 11
-59.3760905366
 21
-4.1116312174
 31
0.0
 11
-59.4196279938
 21
-4.1488259887
 31
0.0
 11
-59.4552046514
 21
-4.1894667366
 31
0.0
 11
-59.4829255651
 21
-4.2336537074
 31
0.0
 11
-59.5025999868
 21
-4.2815911239
 31
0.0
 11
-59.5146226342
 21
-4.3334174025
 31
0.0
 11
-59.5187329853
 21
-4.3880450819
 31
0.0
  0
SPLINE
  5
637
100
AcDbEntity
  8
SCRITTE
100
AcDbSpline
 62
253
  6
CONTINUOUS
 70
0
 71
3
 72
12
 73
8
 74
6
 42
0.0000001
 43
0.0000001
 44
0.0000000001
 12
-0.9535183173
 22
-0.274140345
 32
0.0
 13
-0.7909653787
 23
-0.2971998806
 33
0.0
 40
0.0
 40
0.0
 40
0.0
 40
0.0
 40
0.1666666667
 40
0.3333333333
 40
0.5
 40
0.6666666667
 40
1.0
 40
1.0
 40
1.0
 40
1.0
 10
-58.3839688711
 20
-3.785687493
 30
0.0
 10
-58.4369421109
 20
-3.8009175122
 30
0.0
 10
-58.5414527318
 20
-3.8315146232
 30
0.0
 10
-58.6941604223
 20
-3.8765277643
 30
0.0
 10
-58.8433792115
 20
-3.9190754783
 30
0.0
 10
-59.0372341087
 20
-3.9737354763
 30
0.0
 10
-59.1754753531
 20
-4.01738129
 30
0.0
 10
-59.2633603951
 20
-4.050403499
 30
0.0
 11
-58.3839688711
 21
-3.785687493
 31
0.0
 11
-58.5407763583
 21
-3.8313675356
 31
0.0
 11
-58.6935789388
 21
-3.8761168598
 31
0.0
 11
-58.8427412754
 21
-3.9188166924
 31
0.0
 11
-58.9879759479
 21
-3.9603650118
 31
0.0
 11
-59.2633603951
 21
-4.050403499
 31
0.0
  0
SPLINE
  5
638
100
AcDbEntity
  8
SCRITTE
100
AcDbSpline
 62
253
  6
CONTINUOUS
 70
0
 71
3
 72
10
 73
6
 74
4
 42
0.0000001
 43
0.0000001
 44
0.0000000001
 12
0.8093998227
 22
0.2205140715
 32
0.0
 13
0.7573318937
 23
0.2056891973
 33
0.0
 40
0.0
 40
0.0
 40
0.0
 40
0.0
 40
0.3333333333
 40
0.6666666667
 40
1.0
 40
1.0
 40
1.0
 40
1.0
 10
-59.1687199278
 20
-3.4103875915
 30
0.0
 10
-59.0787866141
 20
-3.385886028
 30
0.0
 10
-58.9005510716
 20
-3.3386169846
 30
0.0
 10
-58.6388543073
 20
-3.2706030116
 30
0.0
 10
-58.4681168593
 20
-3.2263411247
 30
0.0
 10
-58.3839688711
 20
-3.2034867695
 30
0.0
 11
-59.1687199278
 21
-3.4103875915
 31
0.0
 11
-58.9014938299
 21
-3.3390985833
 31
0.0
 11
-58.6397860727
 21
-3.2708732021
 31
0.0
 11
-58.3839688711
 21
-3.2034867695
 31
0.0
  0
SPLINE
  5
639
100
AcDbEntity
  8
SCRITTE
100
AcDbSpline
 62
253
  6
CONTINUOUS
 70
0
 71
3
 72
16
 73
12
 74
10
 42
0.0000001
 43
0.0000001
 44
0.0000000001
 12
0.247253895
 22
0.620072464
 32
0.0
 13
0.8210340689
 23
0.2236837226
 33
0.0
 40
0.0
 40
0.0
 40
0.0
 40
0.0
 40
0.1111111111
 40
0.2222222222
 40
0.3333333333
 40
0.4444444444
 40
0.5555555556
 40
0.6666666667
 40
0.7777777778
 40
0.8888888889
 40
1.0
 40
1.0
 40
1.0
 40
1.0
 10
-59.7375012945
 20
-3.7592900447
 30
0.0
 10
-59.7283437429
 20
-3.7363243979
 30
0.0
 10
-59.7052029898
 20
-3.6933561143
 30
0.0
 10
-59.6569483486
 20
-3.6357649294
 30
0.0
 10
-59.6008478572
 20
-3.5876779092
 30
0.0
 10
-59.539244393
 20
-3.5469963633
 30
0.0
 10
-59.4755477543
 20
-3.513255849
 30
0.0
 10
-59.4082763705
 20
-3.4838881455
 30
0.0
 10
-59.3362373961
 20
-3.4577344678
 30
0.0
 10
-59.2575900556
 20
-3.4341487508
 30
0.0
 10
-59.1991285969
 20
-3.4186721743
 30
0.0
 10
-59.1687199277
 20
-3.410387592
 30
0.0
 11
-59.7375012945
 21
-3.7592900447
 31
0.0
 11
-59.7029457379
 21
-3.6944996544
 31
0.0
 11
-59.6556407069
 21
-3.6373489568
 31
0.0
 11
-59.5999306951
 21
-3.5889121549
 31
0.0
 11
-59.5388955306
 21
-3.5481532019
 31
0.0
 11
-59.4749519635
 21
-3.5139846508
 31
0.0
 11
-59.407481772
 21
-3.4844238165
 31
0.0
 11
-59.3351360018
 21
-3.4581624613
 31
0.0
 11
-59.256082581
 21
-3.4342105595
 31
0.0
 11
-59.1687199277
 21
-3.410387592
 31
0.0
  0
SPLINE
  5
63A
100
AcDbEntity
  8
SCRITTE
100
AcDbSpline
 62
253
  6
CONTINUOUS
 70
0
 71
3
 72
34
 73
30
 74
28
 42
0.0000001
 43
0.0000001
 44
0.0000000001
 12
0.8404689966
 22
2.3297595773
 32
0.0
 13
0.0949344862
 23
-0.7357422677
 33
0.0
 40
0.0
 40
0.0
 40
0.0
 40
0.0
 40
0.0277777778
 40
0.0555555556
 40
0.0833333333
 40
0.1111111111
 40
0.1388888889
 40
0.1666666667
 40
0.1944444444
 40
0.2222222222
 40
0.25
 40
0.2777777778
 40
0.3333333333
 40
0.3888888889
 40
0.4444444444
 40
0.5
 40
0.5555555556
 40
0.6111111111
 40
0.6666666667
 40
0.7222222222
 40
0.7777777778
 40
0.8055555556
 40
0.8333333333
 40
0.8611111111
 40
0.8888888889
 40
0.9166666667
 40
0.9444444444
 40
0.9722222222
 40
1.0
 40
1.0
 40
1.0
 40
1.0
 10
-61.219215726
 20
-3.8216958739
 30
0.0
 10
-61.2114336057
 20
-3.800124026
 30
0.0
 10
-61.192486394
 20
-3.7577515931
 30
0.0
 10
-61.1543214318
 20
-3.6945465411
 30
0.0
 10
-61.10616275
 20
-3.6301316727
 30
0.0
 10
-61.049795574
 20
-3.5693703027
 30
0.0
 10
-60.9862658368
 20
-3.5143955378
 30
0.0
 10
-60.9166963089
 20
-3.4664559345
 30
0.0
 10
-60.842561865
 20
-3.4264064512
 30
0.0
 10
-60.7661898185
 20
-3.3954173029
 30
0.0
 10
-60.6924010409
 20
-3.3738069054
 30
0.0
 10
-60.5960562274
 20
-3.3548464782
 30
0.0
 10
-60.4851610801
 20
-3.3464541504
 30
0.0
 10
-60.3662027252
 20
-3.3520925389
 30
0.0
 10
-60.259568207
 20
-3.3707208871
 30
0.0
 10
-60.1662002948
 20
-3.3989491438
 30
0.0
 10
-60.0849853227
 20
-3.4337973708
 30
0.0
 10
-60.0150375736
 20
-3.4729073054
 30
0.0
 10
-59.9555340331
 20
-3.5145938884
 30
0.0
 10
-59.9055243151
 20
-3.5579627974
 30
0.0
 10
-59.8704174514
 20
-3.5937218859
 30
0.0
 10
-59.8452144872
 20
-3.6214499658
 30
0.0
 10
-59.8275139916
 20
-3.6417693746
 30
0.0
 10
-59.8110180909
 20
-3.6613847569
 30
0.0
 10
-59.7952892448
 20
-3.6803798429
 30
0.0
 10
-59.7802909979
 20
-3.6997479833
 30
0.0
 10
-59.7678328581
 20
-3.7192537402
 30
0.0
 10
-59.7588235513
 20
-3.7389434169
 30
0.0
 10
-59.7555147403
 20
-3.7524776163
 30
0.0
 10
-59.7546357173
 20
-3.7592900447
 30
0.0
 11
-61.219215726
 21
-3.8216958739
 31
0.0
 11
-61.1908623699
 21
-3.757810526
 31
0.0
 11
-61.1526558119
 21
-3.694344905
 31
0.0
 11
-61.1047946677
 21
-3.6307405891
 31
0.0
 11
-61.0486018138
 21
-3.5703347369
 31
0.0
 11
-60.985259205
 21
-3.5155680647
 31
0.0
 11
-60.9159354896
 21
-3.4677709545
 31
0.0
 11
-60.8421889312
 21
-3.4279165071
 31
0.0
 11
-60.7666203633
 21
-3.396980428
 31
0.0
 11
-60.6926560688
 21
-3.3750385849
 31
0.0
 11
-60.6207781554
 21
-3.3606071321
 31
0.0
 11
-60.4875137171
 21
-3.3490723474
 31
0.0
 11
-60.368256698
 21
-3.3542575322
 31
0.0
 11
-60.261779308
 21
-3.3723208718
 31
0.0
 11
-60.1682257848
 21
-3.4000524722
 31
0.0
 11
-60.0868631932
 21
-3.4345076554
 31
0.0
 11
-60.016778275
 21
-3.4733367468
 31
0.0
 11
-59.9571163368
 21
-3.5148742761
 31
0.0
 11
-59.9068378954
 21
-3.5578864636
 31
0.0
 11
-59.8643569209
 21
-3.6005806399
 31
0.0
 11
-59.8454147751
 21
-3.6213705239
 31
0.0
 11
-59.8277147574
 21
-3.6416520368
 31
0.0
 11
-59.8111459333
 21
-3.6612813742
 31
0.0
 11
-59.7954110113
 21
-3.6804420187
 31
0.0
 11
-59.7807143491
 21
-3.6997709194
 31
0.0
 11
-59.7684076636
 21
-3.7192843935
 31
0.0
 11
-59.7594978997
 21
-3.739045354
 31
0.0
 11
-59.7546357173
 21
-3.7592900447
 31
0.0
  0
SPLINE
  5
63B
100
AcDbEntity
  8
SCRITTE
100
AcDbSpline
 62
253
  6
CONTINUOUS
 70
0
 71
3
 72
15
 73
11
 74
9
 42
0.0000001
 43
0.0000001
 44
0.0000000001
 12
-0.262346302
 22
1.7832490611
 32
0.0
 13
0.4906572599
 23
1.358118789
 33
0.0
 40
0.0
 40
0.0
 40
0.0
 40
0.0
 40
0.125
 40
0.25
 40
0.375
 40
0.5
 40
0.625
 40
0.75
 40
0.875
 40
1.0
 40
1.0
 40
1.0
 40
1.0
 10
-61.2497445707
 20
-5.315413099
 30
0.0
 10
-61.2606756666
 20
-5.2411110548
 30
0.0
 10
-61.2802809049
 20
-5.0973530935
 30
0.0
 10
-61.3014905421
 20
-4.8980305963
 30
0.0
 10
-61.3145674205
 20
-4.7090704306
 30
0.0
 10
-61.3191903649
 20
-4.5271261696
 30
0.0
 10
-61.3145343087
 20
-4.347850659
 30
0.0
 10
-61.2998595968
 20
-4.1700661443
 30
0.0
 10
-61.2716951289
 20
-3.993476957
 30
0.0
 10
-61.2396597785
 20
-3.8782841568
 30
0.0
 10
-61.219215726
 20
-3.8216958739
 30
0.0
 11
-61.2497445707
 21
-5.315413099
 31
0.0
 11
-61.2789145349
 21
-5.1000721676
 31
0.0
 11
-61.3001350823
 21
-4.8997576515
 31
0.0
 11
-61.3131584315
 21
-4.710239748
 31
0.0
 11
-61.3176438648
 21
-4.5275709613
 31
0.0
 11
-61.3128645327
 21
-4.3480991583
 31
0.0
 11
-61.2976113041
 21
-4.1702653655
 31
0.0
 11
-61.2683803693
 21
-3.9941102882
 31
0.0
 11
-61.219215726
 21
-3.8216958739
 31
0.0
  0
SPLINE
  5
63C
100
AcDbEntity
  8
SCRITTE
100
AcDbSpline
 62
253
  6
CONTINUOUS
 70
0
 71
3
 72
12
 73
8
 74
6
 42
0.0000001
 43
0.0000001
 44
0.0000000001
 12
-0.0543423471
 22
-0.4682167354
 32
0.0
 13
0.0826777148
 23
-0.4845312252
 33
0.0
 40
0.0
 40
0.0
 40
0.0
 40
0.0
 40
0.3333333333
 40
0.5
 40
0.6666666667
 40
0.8333333333
 40
1.0
 40
1.0
 40
1.0
 40
1.0
 10
-60.8067084556
 20
-4.2584868144
 30
0.0
 10
-60.8127464942
 20
-4.3105108961
 30
0.0
 10
-60.8177954354
 20
-4.3888610271
 30
0.0
 10
-60.8166387081
 20
-4.4935934075
 30
0.0
 10
-60.8118231197
 20
-4.572505797
 30
0.0
 10
-60.8026997818
 20
-4.6522997634
 30
0.0
 10
-60.794230688
 20
-4.7057286251
 30
0.0
 10
-60.7896374816
 20
-4.7326470265
 30
0.0
 11
-60.8067084556
 21
-4.2584868144
 31
0.0
 11
-60.8168488662
 21
-4.4150662505
 31
0.0
 11
-60.8159807009
 21
-4.4936539249
 31
0.0
 11
-60.8111051615
 21
-4.5726527265
 31
0.0
 11
-60.8021030647
 21
-4.6523579844
 31
0.0
 11
-60.7896374816
 21
-4.7326470265
 31
0.0
  0
SPLINE
  5
63D
100
AcDbEntity
  8
SCRITTE
100
AcDbSpline
 62
253
  6
CONTINUOUS
 70
0
 71
3
 72
15
 73
11
 74
9
 42
0.0000001
 43
0.0000001
 44
0.0000000001
 12
-0.544810299
 22
-0.0085210995
 32
0.0
 13
-0.0669797743
 23
-0.5771015223
 33
0.0
 40
0.0
 40
0.0
 40
0.0
 40
0.0
 40
0.125
 40
0.25
 40
0.375
 40
0.5
 40
0.625
 40
0.75
 40
0.875
 40
1.0
 40
1.0
 40
1.0
 40
1.0
 10
-60.4442310019
 20
-3.9165657808
 30
0.0
 10
-60.4669314311
 20
-3.9169208266
 30
0.0
 10
-60.5114352131
 20
-3.9220365377
 30
0.0
 10
-60.5764149573
 20
-3.9415475518
 30
0.0
 10
-60.6369634931
 20
-3.9721660109
 30
0.0
 10
-60.6907320662
 20
-4.0131979608
 30
0.0
 10
-60.7351682333
 20
-4.0643861027
 30
0.0
 10
-60.7697468939
 20
-4.1232860546
 30
0.0
 10
-60.7944001909
 20
-4.1881088265
 30
0.0
 10
-60.8039176319
 20
-4.2344409176
 30
0.0
 10
-60.8067084559
 20
-4.2584868144
 30
0.0
 11
-60.4442310019
 21
-3.9165657808
 31
0.0
 11
-60.511139225
 21
-3.9240094456
 31
0.0
 11
-60.5756764226
 21
-3.9433987926
 31
0.0
 11
-60.6358334993
 21
-3.9739015927
 31
0.0
 11
-60.6891766652
 21
-4.0148906594
 31
0.0
 11
-60.7335253156
 21
-4.0656714043
 31
0.0
 11
-60.7680926666
 21
-4.1242731913
 31
0.0
 11
-60.7926706683
 21
-4.188888054
 31
0.0
 11
-60.8067084559
 21
-4.2584868144
 31
0.0
  0
SPLINE
  5
63E
100
AcDbEntity
  8
SCRITTE
100
AcDbSpline
 62
253
  6
CONTINUOUS
 70
0
 71
3
 72
18
 73
14
 74
12
 42
0.0000001
 43
0.0000001
 44
0.0000000001
 12
-0.0168681236
 22
0.7552081242
 32
0.0
 13
-0.722222669
 23
-0.0111441163
 33
0.0
 40
0.0
 40
0.0
 40
0.0
 40
0.0
 40
0.0909090909
 40
0.1818181818
 40
0.2727272727
 40
0.3636363636
 40
0.4545454545
 40
0.5454545455
 40
0.6363636364
 40
0.7272727273
 40
0.8181818182
 40
0.9090909091
 40
1.0
 40
1.0
 40
1.0
 40
1.0
 10
-59.9936261245
 20
-4.3867404304
 30
0.0
 10
-59.9941372798
 20
-4.3638553358
 30
0.0
 10
-59.9968826398
 20
-4.3176193314
 30
0.0
 10
-60.0079333898
 20
-4.2452684139
 30
0.0
 10
-60.0274053739
 20
-4.1748425378
 30
0.0
 10
-60.055068255
 20
-4.1118076866
 30
0.0
 10
-60.0903549027
 20
-4.0577693679
 30
0.0
 10
-60.1341774169
 20
-4.0122439596
 30
0.0
 10
-60.1850897546
 20
-3.9749600345
 30
0.0
 10
-60.2438778792
 20
-3.9456917325
 30
0.0
 10
-60.3101585123
 20
-3.9265255177
 30
0.0
 10
-60.378329255
 20
-3.9173168633
 30
0.0
 10
-60.4223454665
 20
-3.9162280803
 30
0.0
 10
-60.444231002
 20
-3.9165657808
 30
0.0
 11
-59.9936261245
 21
-4.3867404304
 31
0.0
 11
-59.9980380914
 21
-4.3171198462
 31
0.0
 11
-60.0093369288
 21
-4.2455892541
 31
0.0
 11
-60.0287705234
 21
-4.1760743753
 31
0.0
 11
-60.0563388828
 21
-4.1133071087
 31
0.0
 11
-60.0917775471
 21
-4.0591881863
 31
0.0
 11
-60.1353590541
 21
-4.0136175401
 31
0.0
 11
-60.1864023858
 21
-3.9762959717
 31
0.0
 11
-60.2451266306
 21
-3.9473754137
 31
0.0
 11
-60.3104735306
 21
-3.9281851111
 31
0.0
 11
-60.3779715174
 21
-3.9185794433
 31
0.0
 11
-60.444231002
 21
-3.9165657808
 31
0.0
  0
SPLINE
  5
63F
100
AcDbEntity
  8
DRAFT
100
AcDbSpline
 62
7
  6
CONTINUOUS
 70
0
 71
3
 72
8
 73
4
 74
2
 42
0.0000001
 43
0.0000001
 44
0.0000000001
 12
3.5629691934
 22
0.0333654913
 32
0.0
 13
3.5630263812
 23
0.0265656925
 33
0.0
 40
0.0
 40
0.0
 40
0.0
 40
0.0
 40
1.0
 40
1.0
 40
1.0
 40
1.0
 10
-54.2759652233
 20
-21.1170123766
 30
0.0
 10
-53.0883088255
 20
-21.1058905462
 30
0.0
 10
-51.9006424106
 20
-21.0957671985
 30
0.0
 10
-50.7129669502
 20
-21.0869119677
 30
0.0
 11
-54.2759652233
 21
-21.1170123766
 31
0.0
 11
-50.7129669502
 21
-21.0869119677
 31
0.0
  0
LINE
  5
640
100
AcDbEntity
  8
DRAFT
100
AcDbLine
 62
7
  6
CONTINUOUS
 10
-50.7129669502
 20
-21.0869119677
 11
-50.2759652233
 21
-21.0837123573
  0
LINE
  5
641
100
AcDbEntity
  8
DRAFT
100
AcDbLine
 62
7
  6
CONTINUOUS
 10
-54.2759652233
 20
24.2093208673
 11
-53.8267641359
 21
24.2051629596
  0
SPLINE
  5
642
100
AcDbEntity
  8
DRAFT
100
AcDbSpline
 62
7
  6
CONTINUOUS
 70
0
 71
3
 72
8
 73
4
 74
2
 42
0.0000001
 43
0.0000001
 44
0.0000000001
 12
3.55076996
 22
-0.0324787878
 32
0.0
 13
3.5508268189
 23
-0.0255163222
 33
0.0
 40
0.0
 40
0.0
 40
0.0
 40
0.0
 40
1.0
 40
1.0
 40
1.0
 40
1.0
 10
-53.8267641359
 20
24.2051629596
 30
0.0
 10
-52.6431741493
 20
24.194336697
 30
0.0
 10
-51.459574163
 20
24.1845262887
 30
0.0
 10
-50.2759652233
 20
24.176020848
 30
0.0
 11
-53.8267641359
 21
24.2051629596
 31
0.0
 11
-50.2759652233
 21
24.176020848
 31
0.0
  0
SPLINE
  5
643
100
AcDbEntity
  8
0
100
AcDbSpline
 62
253
  6
CONTINUOUS
 70
0
 71
3
 72
19
 73
15
 74
13
 42
0.0000001
 43
0.0000001
 44
0.0000000001
 12
-0.4991542959
 22
0.0261595682
 32
0.0
 13
0.0261515006
 23
0.4991547187
 33
0.0
 40
0.0
 40
0.0
 40
0.0
 40
0.0
 40
0.0051222327
 40
0.0196131344
 40
0.0434746118
 40
0.0765561465
 40
0.1185173081
 40
0.1689349276
 40
0.2273745956
 40
0.2932634833
 40
0.4446675368
 40
0.6174270643
 40
0.8051407382
 40
1.0
 40
1.0
 40
1.0
 40
1.0
 10
-62.3872202433
 20
-20.4287528919
 30
0.0
 10
-62.3880725048
 20
-20.4287082268
 30
0.0
 10
-62.3877169021
 20
-20.4237832044
 30
0.0
 10
-62.3888044782
 20
-20.4181120492
 30
0.0
 10
-62.388538595
 20
-20.4053333682
 30
0.0
 10
-62.3886283536
 20
-20.3892365933
 30
0.0
 10
-62.3882156011
 20
-20.3681895407
 30
0.0
 10
-62.3876427937
 20
-20.3431197999
 30
0.0
 10
-62.386785403
 20
-20.3139999094
 30
0.0
 10
-62.3852572574
 20
-20.2680917064
 30
0.0
 10
-62.3827545138
 20
-20.2031475126
 30
0.0
 10
-62.3790682336
 20
-20.1179431018
 30
0.0
 10
-62.3747039943
 20
-20.0255197236
 30
0.0
 10
-62.3714770891
 20
-19.9618597645
 30
0.0
 10
-62.3697784684
 20
-19.9294381245
 30
0.0
 11
-62.3872202433
 21
-20.4287528919
 31
0.0
 11
-62.3879444837
 21
-20.4262971685
 31
0.0
 11
-62.3884127125
 21
-20.4190691963
 31
0.0
 11
-62.3886192042
 21
-20.4071440796
 31
0.0
 11
-62.3885590816
 21
-20.3906087375
 31
0.0
 11
-62.3882337379
 21
-20.3696374229
 31
0.0
 11
-62.3876473767
 21
-20.3444435374
 31
0.0
 11
-62.3868044921
 21
-20.3152452577
 31
0.0
 11
-62.3857137256
 21
-20.2823294697
 31
0.0
 11
-62.3828360239
 21
-20.2067065055
 31
0.0
 11
-62.3791215042
 21
-20.1204344317
 31
0.0
 11
-62.3747071019
 21
-20.0267116617
 31
0.0
 11
-62.3697784684
 21
-19.9294381245
 31
0.0
  0
SPLINE
  5
644
100
AcDbEntity
  8
0
100
AcDbSpline
 62
253
  6
CONTINUOUS
 70
0
 71
3
 72
19
 73
15
 74
13
 42
0.0000001
 43
0.0000001
 44
0.0000000001
 12
-0.4991543013
 22
-0.0261595685
 32
0.0
 13
0.0261516224
 23
-0.4991547177
 33
0.0
 40
0.0
 40
0.0
 40
0.0
 40
0.0
 40
0.0051222372
 40
0.019613136
 40
0.0434746098
 40
0.0765561393
 40
0.118517291
 40
0.1689349021
 40
0.2273745659
 40
0.2932634453
 40
0.4446674867
 40
0.6174270186
 40
0.8051407241
 40
1.0
 40
1.0
 40
1.0
 40
1.0
 10
-62.3872202433
 20
23.5210613825
 30
0.0
 10
-62.3880725055
 20
23.5210167174
 30
0.0
 10
-62.3877169233
 20
23.5160917006
 30
0.0
 10
-62.3888044938
 20
23.5104205403
 30
0.0
 10
-62.3885386251
 20
23.4976418644
 30
0.0
 10
-62.3886283872
 20
23.481545091
 30
0.0
 10
-62.3882156418
 20
23.4604980425
 30
0.0
 10
-62.3876428385
 20
23.4354283048
 30
0.0
 10
-62.3867854508
 20
23.4063084175
 30
0.0
 10
-62.3852573069
 20
23.360400218
 30
0.0
 10
-62.3827545606
 20
23.2954560263
 30
0.0
 10
-62.379068271
 20
23.210251611
 30
0.0
 10
-62.3747040162
 20
23.1178282242
 30
0.0
 10
-62.3714770971
 20
23.0541682574
 30
0.0
 10
-62.3697784684
 20
23.0217466152
 30
0.0
 11
-62.3872202433
 21
23.5210613825
 31
0.0
 11
-62.3879444935
 21
23.5186056597
 31
0.0
 11
-62.3884127311
 21
23.5113776894
 31
0.0
 11
-62.3886192307
 21
23.4994525745
 31
0.0
 11
-62.3885591152
 21
23.4829172348
 31
0.0
 11
-62.3882337776
 21
23.4619459249
 31
0.0
 11
-62.3876474211
 21
23.4367520432
 31
0.0
 11
-62.3868045396
 21
23.4075537652
 31
0.0
 11
-62.3857137744
 21
23.3746379809
 31
0.0
 11
-62.3828360702
 21
23.299015022
 31
0.0
 11
-62.3791215414
 21
23.2127429454
 31
0.0
 11
-62.3747071232
 21
23.1190201594
 31
0.0
 11
-62.3697784684
 21
23.0217466152
 31
0.0
  0
ELLIPSE
  5
645
100
AcDbEntity
  8
RACCORDO
100
AcDbEllipse
 62
7
  6
CONTINUOUS
 10
6.5734988074
 20
1.1375707368
 30
0.0
 11
0.0894542984
 21
0.1789222233
 31
0.0
 40
0.9998096356
 41
2.0344896259
 42
2.5533162165
  0
ELLIPSE
  5
646
100
AcDbEntity
  8
RACCORDO
100
AcDbEllipse
 62
7
  6
CONTINUOUS
 10
-5.9736415101
 20
1.1375707368
 30
0.0
 11
0.0894542984
 21
-0.1789222233
 31
0.0
 40
0.9998096356
 41
-0.4635410001
 42
1.1071030277
  0
ELLIPSE
  5
647
100
AcDbEntity
  8
ASSI
100
AcDbEllipse
 62
7
  6
CONTINUOUS
 10
-5.9736415101
 20
1.1375707368
 30
0.0
 11
0.0894542984
 21
-0.1789222233
 31
0.0
 40
0.9998096356
 41
-0.4635410001
 42
1.1071030277
  0
ELLIPSE
  5
648
100
AcDbEntity
  8
ASSI
100
AcDbEllipse
 62
7
  6
CONTINUOUS
 10
6.5734988074
 20
1.1375707368
 30
0.0
 11
0.0894542984
 21
0.1789222233
 31
0.0
 40
0.9998096356
 41
2.0344896259
 42
2.5533162165
  0
ELLIPSE
  5
649
100
AcDbEntity
  8
ASSI
100
AcDbEllipse
 62
7
  6
CONTINUOUS
 10
10.9498524846
 20
-20.3531595817
 30
0.0
 11
-0.1582391023
 21
0.4751033573
 31
0.0
 40
0.9984778551
 41
-3.4626430041
 42
-1.8927600658
  0
ELLIPSE
  5
64A
100
AcDbEntity
  8
ASSI
100
AcDbEllipse
 62
7
  6
CONTINUOUS
 10
10.9498524846
 20
23.4454680723
 30
0.0
 11
0.1582391023
 21
0.4751033573
 31
0.0
 40
0.9984778551
 41
-1.2488325878
 42
0.3210503505
  0
ELLIPSE
  5
64B
100
AcDbEntity
  8
ASSI
100
AcDbEllipse
 62
7
  6
CONTINUOUS
 10
-10.3499951873
 20
-20.3531595817
 30
0.0
 11
0.1582391023
 21
0.4751033573
 31
0.0
 40
0.9984778551
 41
-4.3904252414
 42
-2.8205423031
  0
ELLIPSE
  5
64C
100
AcDbEntity
  8
ASSI
100
AcDbEllipse
 62
7
  6
CONTINUOUS
 10
-10.3499951873
 20
23.4454680723
 30
0.0
 11
-0.1582391023
 21
0.4751033573
 31
0.0
 40
0.9984778551
 41
-0.3210503505
 42
1.2488325878
  0
ELLIPSE
  5
64D
100
AcDbEntity
  8
ASSI
100
AcDbEllipse
 62
7
  6
CONTINUOUS
 10
-7.3500408857
 20
3.9211237797
 30
0.0
 11
0.1414644378
 21
-0.1414644378
 31
0.0
 40
0.9996954599
 41
8.6395320906
 42
10.2100238309
  0
ELLIPSE
  5
64E
100
AcDbEntity
  8
ASSI
100
AcDbEllipse
 62
7
  6
CONTINUOUS
 10
7.949898183
 20
3.9211237797
 30
0.0
 11
-0.1414644378
 21
-0.1414644378
 31
0.0
 40
0.9996954599
 41
8.6395320906
 42
10.2100238309
  0
ELLIPSE
  5
64F
100
AcDbEntity
  8
ASSI
100
AcDbEllipse
 62
7
  6
CONTINUOUS
 10
7.949898183
 20
-4.9288152891
 30
0.0
 11
-0.1414644378
 21
0.1414644378
 31
0.0
 40
0.9996954599
 41
8.6395320906
 42
10.2100238309
  0
ELLIPSE
  5
650
100
AcDbEntity
  8
ASSI
100
AcDbEllipse
 62
7
  6
CONTINUOUS
 10
-7.3500408857
 20
-4.9288152891
 30
0.0
 11
0.1414644378
 21
0.1414644378
 31
0.0
 40
0.9996954599
 41
8.6395320906
 42
10.2100238309
  0
ELLIPSE
  5
651
100
AcDbEntity
  8
0
100
AcDbEllipse
 62
7
  6
CONTINUOUS
 10
10.9498524846
 20
-20.3531595817
 30
0.0
 11
-0.1582391023
 21
0.4751033573
 31
0.0
 40
0.9984778551
 41
-3.4626430041
 42
-1.8927600658
  0
ELLIPSE
  5
652
100
AcDbEntity
  8
0
100
AcDbEllipse
 62
7
  6
CONTINUOUS
 10
10.9498524846
 20
23.4454680723
 30
0.0
 11
0.1582391023
 21
0.4751033573
 31
0.0
 40
0.9984778551
 41
-1.2488325878
 42
0.3210503505
  0
ELLIPSE
  5
653
100
AcDbEntity
  8
0
100
AcDbEllipse
 62
7
  6
CONTINUOUS
 10
-10.3499951873
 20
-20.3531595817
 30
0.0
 11
0.1582391023
 21
0.4751033573
 31
0.0
 40
0.9984778551
 41
-4.3904252414
 42
-2.8205423031
  0
ELLIPSE
  5
654
100
AcDbEntity
  8
0
100
AcDbEllipse
 62
7
  6
CONTINUOUS
 10
-10.3499951873
 20
23.4454680723
 30
0.0
 11
-0.1582391023
 21
0.4751033573
 31
0.0
 40
0.9984778551
 41
-0.3210503505
 42
1.2488325878
  0
ELLIPSE
  5
655
100
AcDbEntity
  8
RACCORDO
100
AcDbEllipse
 62
7
  6
CONTINUOUS
 10
-7.3500408857
 20
-4.9288152891
 30
0.0
 11
0.1414644378
 21
0.1414644378
 31
0.0
 40
0.9996954599
 41
2.3563467834
 42
3.9268385237
  0
ELLIPSE
  5
656
100
AcDbEntity
  8
RACCORDO
100
AcDbEllipse
 62
7
  6
CONTINUOUS
 10
7.949898183
 20
-4.9288152891
 30
0.0
 11
-0.1414644378
 21
0.1414644378
 31
0.0
 40
0.9996954599
 41
2.3563467834
 42
3.9268385237
  0
ELLIPSE
  5
657
100
AcDbEntity
  8
RACCORDO
100
AcDbEllipse
 62
7
  6
CONTINUOUS
 10
7.949898183
 20
3.9211237797
 30
0.0
 11
-0.1414644378
 21
-0.1414644378
 31
0.0
 40
0.9996954599
 41
2.3563467834
 42
3.9268385237
  0
ELLIPSE
  5
658
100
AcDbEntity
  8
RACCORDO
100
AcDbEllipse
 62
7
  6
CONTINUOUS
 10
-7.3500408857
 20
3.9211237797
 30
0.0
 11
0.1414644378
 21
-0.1414644378
 31
0.0
 40
0.9996954599
 41
2.3563467834
 42
3.9268385237
  0
ENDSEC
  0
SECTION
  2
OBJECTS
  0
DICTIONARY
  5
C
100
AcDbDictionary
280
0
281
1
  3
ACAD_GROUP
350
D
  3
ACAD_MLINESTYLE
350
17
  3
ACAD_LAYOUT
350
1A
  3
ACAD_PLOTSETTINGS
350
19
  3
ACAD_PLOTSTYLENAME
350
E
  0
DICTIONARY
  5
D
102
{ACAD_REACTORS
330
C
102
}
100
AcDbDictionary
280
0
281
1
  0
ACDBDICTIONARYWDFLT
  5
E
102
{ACAD_REACTORS
330
C
102
}
100
AcDbDictionary
281
1
  3
Normal
350
F
100
AcDbDictionaryWithDefault
340
F
  0
DICTIONARY
  5
17
102
{ACAD_REACTORS
330
C
102
}
100
AcDbDictionary
280
0
281
1
  3
Standard
350
18
  0
DICTIONARY
  5
19
102
{ACAD_REACTORS
330
C
102
}
100
AcDbDictionary
281
1
  0
DICTIONARY
  5
1A
102
{ACAD_REACTORS
330
C
102
}
100
AcDbDictionary
281
1
  3
Model
350
659
  3
Layout1
350
65A
  0
ACDBPLACEHOLDER
  5
F
102
{ACAD_REACTORS
330
E
102
}
  0
MLINESTYLE
  5
18
102
{ACAD_REACTORS
330
17
102
}
100
AcDbMlineStyle
  2
STANDARD
 70
0
  3

 62
256
 51
90.0
 52
90.0
 71
2
 49
0.5
 62
256
  6
BYLAYER
 49
-0.5
 62
256
  6
BYLAYER
  0
LAYOUT
  5
659
102
{ACAD_REACTORS
330
1A
102
}
100
AcDbPlotSettings
  1

  2
none_device
  4
ISO_A4_(297.00_x_210.00_MM)
  6

 40
0.0
 41
0.0
 42
0.0
 43
0.0
 44
297.0
 45
210.0
 46
0.0
 47
0.0
 48
0.0
 49
0.0
140
0.0
141
0.0
142
1.0
143
1.0
 70
1024
 72
1
 73
0
 74
0
  7

 75
0
147
1.0
148
0.0
149
0.0
100
AcDbLayout
  1
Model
 70
0
 71
0
 10
0.0
 20
0.0
 11
297.0
 21
210.0
 12
0.0
 22
0.0
 32
0.0
 14
0.0
 24
0.0
 34
0.0
 15
0.0
 25
0.0
 35
0.0
146
0.0
 13
0.0
 23
0.0
 33
0.0
 16
1.0
 26
0.0
 36
0.0
 17
0.0
 27
1.0
 37
0.0
 76
0
330
21A
345
0
346
0
  0
LAYOUT
  5
65A
102
{ACAD_REACTORS
330
1A
102
}
100
AcDbPlotSettings
  1

  2
none_device
  4
ISO_A4_(297.00_x_210.00_MM)
  6

 40
0.0
 41
0.0
 42
0.0
 43
0.0
 44
297.0
 45
210.0
 46
0.0
 47
0.0
 48
0.0
 49
0.0
140
0.0
141
0.0
142
1.0
143
1.0
 70
0
 72
1
 73
0
 74
0
  7

 75
0
147
1.0
148
0.0
149
0.0
100
AcDbLayout
  1
Layout1
 70
0
 71
1
 10
0.0
 20
0.0
 11
297.0
 21
210.0
 12
0.0
 22
0.0
 32
0.0
 14
0.0
 24
0.0
 34
0.0
 15
0.0
 25
0.0
 35
0.0
146
0.0
 13
0.0
 23
0.0
 33
0.0
 16
1.0
 26
0.0
 36
0.0
 17
0.0
 27
1.0
 37
0.0
 76
0
330
21B
345
0
346
0
  0
ENDSEC
  0
EOF
