0
SECTION
2
HEADER
9
$ACADVER
1
AC1015
9
$DWGCODEPAGE
3
ANSI_1252
9
$EXTMAX
10
431.8000000000
20
558.8000000000
30
0.0000000000
9
$EXTMIN
10
0.0000000000
20
0.0000000000
30
0.0000000000
9
$LIMMIN
10
0.0000000000
20
0.0000000000
9
$LIMMAX
10
431.8000000000
20
558.8000000000
9
$VIEWCTR
10
215.9000000000
20
279.4000000000
9
$VIEWSIZE
40
558.8000000000
9
$CLAYER
8
0
9
$LTSCALE
40
36.4254814815
9
$CELTYPE
6
BYLAYER
9
$DIMSCALE
40
1
9
$DIMASZ
40
3.0000000000
9
$DIMEXO
40
4.1392592593
9
$DIMDLI
40
25.1666962963
9
$DIMEXE
40
11.9210666667
9
$DIMCEN
40
5.9605333333
9
$DIMLFAC
40
1.0000000000
9
$DIMBLK
1
_FILLED
9
$DIMTXT
40
3.0000000000
9
$DIMTOL
70
1
9
$DIMLIM
70
0
9
$DIMTFAC
40
1.0000000000
9
$DIMTP
40
0.0100000000
9
$DIMTM
40
0.0100000000
9
$PDMODE
70
3
9
$PDSIZE
40
3.0000000000
9
$HANDSEED
5
351
9
$MEASUREMENT
70
1
9
$INSUNITS
70
4
0
ENDSEC
0
SECTION
2
CLASSES
0
CLASS
1
ACDBDICTIONARYWDFLT
2
AcDbDictionaryWithDefault
3
AutoCAD 2000
90
0
280
0
281
0
0
CLASS
1
ACDBPLACEHOLDER
2
AcDbPlaceHolder
3
AutoCAD 2000
90
0
280
0
281
0
0
CLASS
1
LAYOUT
2
AcDbLayout
3
AutoCAD 2000
90
0
280
0
281
0
0
ENDSEC
0
SECTION
2
TABLES
0
TABLE
2
VPORT
5
8
100
AcDbSymbolTable
70
2
0
VPORT
5
1F4
100
AcDbSymbolTableRecord
100
AcDbViewportTableRecord
2
*ACTIVE
70
0
10
0.0
20
0.0
11
1.0
21
1.0
12
215.9000000000
22
279.4000000000
13
0.0
23
0.0
14
1.0
24
1.0
15
0.0
25
0.0
16
0.0
26
0.0
36
1.0
17
0.0
27
0.0
37
0.0
40
558.8000000000
41
0.7727272727
42
50.0
43
0.0
44
0.0
50
0.0
51
0.0
71
0
72
100
73
1
74
1
75
0
76
0
77
0
78
0
0
ENDTAB
0
TABLE
2
LTYPE
5
5
100
AcDbSymbolTable
70
6
0
LTYPE
5
14
100
AcDbSymbolTableRecord
100
AcDbLinetypeTableRecord
2
BYBLOCK
70
0
3

72
65
73
0
40
0.0
0
LTYPE
5
15
100
AcDbSymbolTableRecord
100
AcDbLinetypeTableRecord
2
BYLAYER
70
0
3

72
65
73
0
40
0.0
0
LTYPE
5
16
100
AcDbSymbolTableRecord
100
AcDbLinetypeTableRecord
2
CONTINUOUS
70
64
3
Solid line
72
65
73
0
40
0
0
LTYPE
5
1F5
100
AcDbSymbolTableRecord
100
AcDbLinetypeTableRecord
2
CENTER
70
64
3
____ _ ____ _ ____ _ ____ _ ____ _ ____ _ ____
72
65
73
4
40
0.6
49
0.375
74
0
49
-0.075
74
0
49
0.075
74
0
49
-0.075
74
0
0
LTYPE
5
1F6
100
AcDbSymbolTableRecord
100
AcDbLinetypeTableRecord
2
HIDDEN
70
64
3
- - - - - - - - - - - - - - - - - - - -
72
65
73
2
40
0.2
49
0.1
74
0
49
-0.1
74
0
0
LTYPE
5
1F7
100
AcDbSymbolTableRecord
100
AcDbLinetypeTableRecord
2
PHANTOM
70
64
3
_____ _ _ _____ _ _ _____ _ _ _____
72
65
73
6
40
0.8
49
0.45
74
0
49
-0.05
74
0
49
0.1
74
0
49
-0.05
74
0
49
0.1
74
0
49
-0.05
74
0
0
LTYPE
5
1F8
100
AcDbSymbolTableRecord
100
AcDbLinetypeTableRecord
2
DOT
70
64
3
. . . . . . . . . . . . . . . . . . . .
72
65
73
2
40
0.2
49
0.1
74
0
49
-0.1
74
0
0
LTYPE
5
1F9
100
AcDbSymbolTableRecord
100
AcDbLinetypeTableRecord
2
DASHED
70
64
3
- - - - - - - - - - - - - - - - - - - -
72
65
73
2
40
0.2
49
0.1
74
0
49
-0.1
74
0
0
ENDTAB
0
TABLE
2
LAYER
5
2
100
AcDbSymbolTable
70
36
0
LAYER
5
10
100
AcDbSymbolTableRecord
100
AcDbLayerTableRecord
2
0
70
0
62
7
6
CONTINUOUS
370
-3
390
F
0
LAYER
5
1FA
100
AcDbSymbolTableRecord
100
AcDbLayerTableRecord
2
DEFAULT_1
70
0
62
7
6
CENTER
370
-3
390
F
0
LAYER
5
1FB
100
AcDbSymbolTableRecord
100
AcDbLayerTableRecord
2
DEFAULT_2
70
0
62
8
6
HIDDEN
370
-3
390
F
0
LAYER
5
1FC
100
AcDbSymbolTableRecord
100
AcDbLayerTableRecord
2
DEFAULT_3
70
0
62
7
6
PHANTOM
370
-3
390
F
0
LAYER
5
1FD
100
AcDbSymbolTableRecord
100
AcDbLayerTableRecord
2
_2D_DELETED_OBJS
70
0
62
7
6
CONTINUOUS
370
-3
390
F
0
LAYER
5
1FE
100
AcDbSymbolTableRecord
100
AcDbLayerTableRecord
2
ASSI
70
0
62
7
6
CONTINUOUS
370
-3
390
F
0
LAYER
5
1FF
100
AcDbSymbolTableRecord
100
AcDbLayerTableRecord
2
COORDINATE
70
0
62
7
6
CONTINUOUS
370
-3
390
F
0
LAYER
5
200
100
AcDbSymbolTableRecord
100
AcDbLayerTableRecord
2
COORD_ORIGINE
70
0
62
7
6
CONTINUOUS
370
-3
390
F
0
LAYER
5
201
100
AcDbSymbolTableRecord
100
AcDbLayerTableRecord
2
COSMETICHE
70
0
62
7
6
CONTINUOUS
370
-3
390
F
0
LAYER
5
202
100
AcDbSymbolTableRecord
100
AcDbLayerTableRecord
2
COSMETICI
70
0
62
7
6
CONTINUOUS
370
-3
390
F
0
LAYER
5
203
100
AcDbSymbolTableRecord
100
AcDbLayerTableRecord
2
CURVE
70
0
62
7
6
CONTINUOUS
370
-3
390
F
0
LAYER
5
204
100
AcDbSymbolTableRecord
100
AcDbLayerTableRecord
2
DRAFT
70
0
62
7
6
CONTINUOUS
370
-3
390
F
0
LAYER
5
205
100
AcDbSymbolTableRecord
100
AcDbLayerTableRecord
2
IMPORT
70
0
62
7
6
CONTINUOUS
370
-3
390
F
0
LAYER
5
206
100
AcDbSymbolTableRecord
100
AcDbLayerTableRecord
2
INTF_1
70
0
62
7
6
CONTINUOUS
370
-3
390
F
0
LAYER
5
207
100
AcDbSymbolTableRecord
100
AcDbLayerTableRecord
2
NOTE
70
0
62
7
6
CONTINUOUS
370
-3
390
F
0
LAYER
5
208
100
AcDbSymbolTableRecord
100
AcDbLayerTableRecord
2
PIANI
70
0
62
7
6
CONTINUOUS
370
-3
390
F
0
LAYER
5
209
100
AcDbSymbolTableRecord
100
AcDbLayerTableRecord
2
PIANI_ORIGINE
70
0
62
7
6
CONTINUOUS
370
-3
390
F
0
LAYER
5
20A
100
AcDbSymbolTableRecord
100
AcDbLayerTableRecord
2
PUNTI
70
0
62
7
6
CONTINUOUS
370
-3
390
F
0
LAYER
5
20B
100
AcDbSymbolTableRecord
100
AcDbLayerTableRecord
2
RACCORDO
70
0
62
7
6
CONTINUOUS
370
-3
390
F
0
LAYER
5
20C
100
AcDbSymbolTableRecord
100
AcDbLayerTableRecord
2
RGB____0____0____0__
70
0
62
7
6
CONTINUOUS
370
-3
390
F
0
LAYER
5
20D
100
AcDbSymbolTableRecord
100
AcDbLayerTableRecord
2
SMUSSO
70
0
62
7
6
CONTINUOUS
370
-3
390
F
0
LAYER
5
20E
100
AcDbSymbolTableRecord
100
AcDbLayerTableRecord
2
SNAPLINE
70
0
62
7
6
CONTINUOUS
370
-3
390
F
0
LAYER
5
20F
100
AcDbSymbolTableRecord
100
AcDbLayerTableRecord
2
SUPERFICI
70
0
62
7
6
CONTINUOUS
370
-3
390
F
0
LAYER
5
210
100
AcDbSymbolTableRecord
100
AcDbLayerTableRecord
2
TRASH
70
0
62
7
6
CONTINUOUS
370
-3
390
F
0
ENDTAB
0
TABLE
2
STYLE
5
3
100
AcDbSymbolTable
70
1
0
STYLE
5
11
100
AcDbSymbolTableRecord
100
AcDbTextStyleTableRecord
2
STANDARD
70
0
40
0.0
41
0.8000000000
50
0.0
71
0
42
0.2
3
txt
4

0
ENDTAB
0
TABLE
2
VIEW
5
6
100
AcDbSymbolTable
70
0
0
ENDTAB
0
TABLE
2
UCS
5
7
100
AcDbSymbolTable
70
0
0
ENDTAB
0
TABLE
2
APPID
5
9
100
AcDbSymbolTable
70
1
0
APPID
5
211
100
AcDbSymbolTableRecord
100
AcDbRegAppTableRecord
2
ACAD
70
0
0
ENDTAB
0
TABLE
2
BLOCK_RECORD
5
1
100
AcDbSymbolTable
70
0
0
BLOCK_RECORD
5
1F
100
AcDbSymbolTableRecord
100
AcDbBlockTableRecord
2
*MODEL_SPACE
0
BLOCK_RECORD
5
1B
100
AcDbSymbolTableRecord
100
AcDbBlockTableRecord
2
*PAPER_SPACE
0
BLOCK_RECORD
5
212
100
AcDbSymbolTableRecord
100
AcDbBlockTableRecord
2
_FILLED
0
BLOCK_RECORD
5
213
100
AcDbSymbolTableRecord
100
AcDbBlockTableRecord
2
*D0
0
BLOCK_RECORD
5
214
100
AcDbSymbolTableRecord
100
AcDbBlockTableRecord
2
*D1
0
BLOCK_RECORD
5
215
100
AcDbSymbolTableRecord
100
AcDbBlockTableRecord
2
*D2
0
BLOCK_RECORD
5
216
100
AcDbSymbolTableRecord
100
AcDbBlockTableRecord
2
*D3
0
ENDTAB
0
TABLE
2
DIMSTYLE
5
A
100
AcDbSymbolTable
70
1
100
AcDbDimStyleTable
71
0
0
DIMSTYLE
105
217
100
AcDbSymbolTableRecord
100
AcDbDimStyleTableRecord
2
STANDARD
70
0
3

4

40
1.0
41
3.0000000000
42
0.0625
43
0.38
44
0.18
45
0.0
46
0.0
47
0.0100000000
48
0.0100000000
140
3.0000000000
141
0.09
142
0.0
143
25.4
144
1.0000000000
145
0.0
146
1.0000000000
147
0.09
71
1
72
0
73
0
74
0
75
0
76
0
77
1
78
8
170
0
171
2
172
0
173
0
174
0
175
0
176
0
177
0
178
0
270
2
271
2
272
2
273
2
274
2
275
0
280
0
281
0
282
0
283
1
284
8
285
0
286
0
287
3
288
0
340
11
341
212
342
212
343
212
344
212
0
ENDTAB
0
ENDSEC
0
SECTION
2
BLOCKS
0
BLOCK
5
20
100
AcDbEntity
8
0
100
AcDbBlockBegin
2
*MODEL_SPACE
70
0
10
0.0
20
0.0
30
0.0
3
*MODEL_SPACE
1

0
ENDBLK
5
21
100
AcDbEntity
8
0
100
AcDbBlockEnd
0
BLOCK
5
1C
100
AcDbEntity
8
0
100
AcDbBlockBegin
2
*PAPER_SPACE
70
0
10
0.0
20
0.0
30
0.0
3
*PAPER_SPACE
1

0
ENDBLK
5
1D
100
AcDbEntity
8
0
100
AcDbBlockEnd
0
BLOCK
5
218
100
AcDbEntity
8
0
100
AcDbBlockBegin
62
2
6
CONTINUOUS
2
*D0
70
65
10
0.0000000000
20
0.0000000000
3
*D0
1

0
TEXT
5
219
100
AcDbEntity
8
0
100
AcDbText
62
2
6
CONTINUOUS
10
-4.2857142857
20
32.2500000000
7
STANDARD
40
3.0000000000
1
22,3
41
0.7142857143
72
0
100
AcDbText
0
LINE
5
21A
100
AcDbEntity
8
0
100
AcDbLine
62
2
6
CONTINUOUS
10
11.1500000000
20
16.6196591663
11
11.1500000000
21
33.0000000000
0
LINE
5
21B
100
AcDbEntity
8
0
100
AcDbLine
62
2
6
CONTINUOUS
10
-11.1500000000
20
16.6196591663
11
-11.1500000000
21
33.0000000000
0
LINE
5
21C
100
AcDbEntity
8
0
100
AcDbLine
62
2
6
CONTINUOUS
10
11.1500000000
20
31.5000000000
11
0.0000000000
21
31.5000000000
0
LINE
5
21D
100
AcDbEntity
8
0
100
AcDbLine
62
2
6
CONTINUOUS
10
-11.1500000000
20
31.5000000000
11
0.0000000000
21
31.5000000000
0
INSERT
5
21E
100
AcDbEntity
8
0
100
AcDbBlockReference
62
2
6
CONTINUOUS
2
_FILLED
10
11.1500000000
20
31.5000000000
41
  3.000000
42
  3.000000
43
  3.000000
50
360.000000
0
INSERT
5
21F
100
AcDbEntity
8
0
100
AcDbBlockReference
62
2
6
CONTINUOUS
2
_FILLED
10
-11.1500000000
20
31.5000000000
41
  3.000000
42
  3.000000
43
  3.000000
50
180.000000
0
ENDBLK
5
220
100
AcDbEntity
8
0
6
BYBLOCK
62
0
100
AcDbBlockEnd
0
BLOCK
5
221
100
AcDbEntity
8
0
100
AcDbBlockBegin
62
2
6
CONTINUOUS
2
*D1
70
65
10
0.0000000000
20
0.0000000000
3
*D1
1

0
TEXT
5
222
100
AcDbEntity
8
0
100
AcDbText
62
2
6
CONTINUOUS
10
18.4000000000
20
-2.3571428571
7
STANDARD
40
3.0000000000
1
47
50
90.0000000000
41
0.7857142857
72
0
100
AcDbText
0
LINE
5
223
100
AcDbEntity
8
0
100
AcDbLine
62
2
6
CONTINUOUS
10
4.1748580323
20
23.5000000000
11
20.6500000000
21
23.5000000000
0
LINE
5
224
100
AcDbEntity
8
0
100
AcDbLine
62
2
6
CONTINUOUS
10
4.1748576866
20
-23.5000000000
11
20.6500000000
21
-23.5000000000
0
LINE
5
225
100
AcDbEntity
8
0
100
AcDbLine
62
2
6
CONTINUOUS
10
19.1500000000
20
23.5000000000
11
19.1500000000
21
-0.0000000000
0
LINE
5
226
100
AcDbEntity
8
0
100
AcDbLine
62
2
6
CONTINUOUS
10
19.1500000000
20
-23.5000000000
11
19.1500000000
21
-0.0000000000
0
INSERT
5
227
100
AcDbEntity
8
0
100
AcDbBlockReference
62
2
6
CONTINUOUS
2
_FILLED
10
19.1500000000
20
23.5000000000
41
  3.000000
42
  3.000000
43
  3.000000
50
 90.000000
0
INSERT
5
228
100
AcDbEntity
8
0
100
AcDbBlockReference
62
2
6
CONTINUOUS
2
_FILLED
10
19.1500000000
20
-23.5000000000
41
  3.000000
42
  3.000000
43
  3.000000
50
270.000000
0
ENDBLK
5
229
100
AcDbEntity
8
0
6
BYBLOCK
62
0
100
AcDbBlockEnd
0
BLOCK
5
22A
100
AcDbEntity
8
0
100
AcDbBlockBegin
62
2
6
CONTINUOUS
2
*D2
70
65
10
0.0000000000
20
0.0000000000
3
*D2
1

0
TEXT
5
22B
100
AcDbEntity
8
0
100
AcDbText
62
2
6
CONTINUOUS
10
-41.8116575373
20
42.2500000000
7
STANDARD
40
3.0000000000
1
34,5
41
0.6964285714
72
0
100
AcDbText
0
LINE
5
22C
100
AcDbEntity
8
0
100
AcDbLine
62
2
6
CONTINUOUS
10
-20.3830861088
20
10.8000000000
11
-20.3830861088
21
43.0000000000
0
LINE
5
22D
100
AcDbEntity
8
0
100
AcDbLine
62
2
6
CONTINUOUS
10
-54.8830861088
20
0.5000000000
11
-54.8830861088
21
43.0000000000
0
LINE
5
22E
100
AcDbEntity
8
0
100
AcDbLine
62
2
6
CONTINUOUS
10
-20.3830861088
20
41.5000000000
11
-37.6330861088
21
41.5000000000
0
LINE
5
22F
100
AcDbEntity
8
0
100
AcDbLine
62
2
6
CONTINUOUS
10
-54.8830861088
20
41.5000000000
11
-37.6330861088
21
41.5000000000
0
INSERT
5
230
100
AcDbEntity
8
0
100
AcDbBlockReference
62
2
6
CONTINUOUS
2
_FILLED
10
-20.3830861088
20
41.5000000000
41
  3.000000
42
  3.000000
43
  3.000000
0
INSERT
5
231
100
AcDbEntity
8
0
100
AcDbBlockReference
62
2
6
CONTINUOUS
2
_FILLED
10
-54.8830861088
20
41.5000000000
41
  3.000000
42
  3.000000
43
  3.000000
50
180.000000
0
ENDBLK
5
232
100
AcDbEntity
8
0
6
BYBLOCK
62
0
100
AcDbBlockEnd
0
BLOCK
5
233
100
AcDbEntity
8
0
100
AcDbBlockBegin
62
2
6
CONTINUOUS
2
*D3
70
65
10
0.0000000000
20
0.0000000000
3
*D3
1

0
TEXT
5
234
100
AcDbEntity
8
0
100
AcDbText
62
2
6
CONTINUOUS
10
-35.1330861088
20
32.2500000000
7
STANDARD
40
3.0000000000
1
25
41
0.7500000000
72
0
100
AcDbText
0
LINE
5
235
100
AcDbEntity
8
0
100
AcDbLine
62
2
6
CONTINUOUS
10
-45.3830861088
20
16.6196591663
11
-45.3830861088
21
33.0000000000
0
LINE
5
236
100
AcDbEntity
8
0
100
AcDbLine
62
2
6
CONTINUOUS
10
-20.3830861088
20
12.5033374105
11
-20.3830861088
21
33.0000000000
0
LINE
5
237
100
AcDbEntity
8
0
100
AcDbLine
62
2
6
CONTINUOUS
10
-45.3830861088
20
31.5000000000
11
-32.8830861088
21
31.5000000000
0
LINE
5
238
100
AcDbEntity
8
0
100
AcDbLine
62
2
6
CONTINUOUS
10
-20.3830861088
20
31.5000000000
11
-32.8830861088
21
31.5000000000
0
INSERT
5
239
100
AcDbEntity
8
0
100
AcDbBlockReference
62
2
6
CONTINUOUS
2
_FILLED
10
-45.3830861088
20
31.5000000000
41
  3.000000
42
  3.000000
43
  3.000000
50
180.000000
0
INSERT
5
23A
100
AcDbEntity
8
0
100
AcDbBlockReference
62
2
6
CONTINUOUS
2
_FILLED
10
-20.3830861088
20
31.5000000000
41
  3.000000
42
  3.000000
43
  3.000000
0
ENDBLK
5
23B
100
AcDbEntity
8
0
6
BYBLOCK
62
0
100
AcDbBlockEnd
0
BLOCK
5
23C
100
AcDbEntity
8
0
100
AcDbBlockBegin
2
_FILLED
70
64
10
0.0000000000
20
0.0000000000
3
_FILLED
1

0
SOLID
5
23D
100
AcDbEntity
8
0
6
BYBLOCK
62
0
100
AcDbTrace
10
0.0000000000
20
0.0000000000
11
-1.0000000000
21
0.3166666667
12
-1.0000000000
22
-0.3166666667
13
-1.0000000000
23
-0.3166666667
0
ENDBLK
5
23E
100
AcDbEntity
8
0
6
BYBLOCK
62
0
100
AcDbBlockEnd
0
ENDSEC
0
SECTION
2
ENTITIES
0
DIMENSION
5
23F
100
AcDbEntity
8
0
100
AcDbDimension
62
2
6
CONTINUOUS
2
*D0
10
-11.1500000000
20
31.5000000000
11
-0.0000000000
21
33.7500000000
70
160
3
STANDARD
100
AcDbAlignedDimension
13
11.1500000000
23
16.6196591663
14
-11.1500000000
24
16.6196591663
50
180.000000
100
AcDbRotatedDimension
0
DIMENSION
5
240
100
AcDbEntity
8
0
100
AcDbDimension
62
2
6
CONTINUOUS
2
*D1
10
19.1500000000
20
-23.5000000000
11
16.9000000000
21
-0.0000000000
70
160
3
STANDARD
100
AcDbAlignedDimension
13
4.1748580323
23
23.5000000000
14
4.1748576866
24
-23.5000000000
50
270.000000
100
AcDbRotatedDimension
0
DIMENSION
5
241
100
AcDbEntity
8
0
100
AcDbDimension
62
2
6
CONTINUOUS
2
*D2
10
-54.8830861088
20
41.5000000000
11
-37.6330861088
21
43.7500000000
70
160
3
STANDARD
100
AcDbAlignedDimension
13
-20.3830861088
23
10.8000000000
14
-54.8830861088
24
0.5000000000
50
180.000000
100
AcDbRotatedDimension
0
DIMENSION
5
242
100
AcDbEntity
8
0
100
AcDbDimension
62
2
6
CONTINUOUS
2
*D3
10
-20.3830861088
20
31.5000000000
11
-32.8830861088
21
33.7500000000
70
160
3
STANDARD
100
AcDbAlignedDimension
13
-45.3830861088
23
16.6196591663
14
-20.3830861088
24
12.5033374105
100
AcDbRotatedDimension
0
LINE
5
243
100
AcDbEntity
8
0
100
AcDbLine
62
7
6
CONTINUOUS
10
-3.6748576866
20
-23.5000000000
11
3.6748576866
21
-23.5000000000
0
LINE
5
244
100
AcDbEntity
8
0
100
AcDbLine
62
7
6
CONTINUOUS
10
-3.4698202597
20
-22.5000000000
11
3.4698202597
21
-22.5000000000
0
LINE
5
245
100
AcDbEntity
8
0
100
AcDbLine
62
7
6
CONTINUOUS
10
10.6503805997
20
-22.4000000000
11
3.3000000000
21
-22.4000000000
0
LINE
5
246
100
AcDbEntity
8
0
100
AcDbLine
62
7
6
CONTINUOUS
10
-3.3000000000
20
-22.4000000000
11
-10.6503805997
21
-22.4000000000
0
LINE
5
247
100
AcDbEntity
8
0
100
AcDbLine
62
9
6
CONTINUOUS
10
10.5087981167
20
-21.9749071372
11
-10.5087981167
21
-21.9749071372
0
LINE
5
248
100
AcDbEntity
8
0
100
AcDbLine
62
9
6
CONTINUOUS
10
10.5005350625
20
-21.0183142309
11
-10.5005350625
21
-21.0183142309
0
LINE
5
249
100
AcDbEntity
8
0
100
AcDbLine
62
7
6
CONTINUOUS
10
-3.3000000000
20
22.4000000000
11
-3.2333672024
21
22.5000000000
0
LINE
5
24A
100
AcDbEntity
8
0
100
AcDbLine
62
7
6
CONTINUOUS
10
-3.2333672024
20
-22.5000000000
11
-3.3000000000
21
-22.4000000000
0
LINE
5
24B
100
AcDbEntity
8
0
100
AcDbLine
62
7
6
CONTINUOUS
10
-11.1500000000
20
-21.8997711479
11
-11.1500000000
21
21.8997711479
0
LINE
5
24C
100
AcDbEntity
8
0
100
AcDbLine
62
7
6
CONTINUOUS
10
-3.3848722771
20
22.4000000000
11
-3.3633443637
21
22.5000000000
0
LINE
5
24D
100
AcDbEntity
8
0
100
AcDbLine
62
7
6
CONTINUOUS
10
-3.3848722771
20
-22.4000000000
11
-3.3633443637
21
-22.5000000000
0
LINE
5
24E
100
AcDbEntity
8
0
100
AcDbLine
62
7
6
CONTINUOUS
10
-3.4698202597
20
22.5000000000
11
-3.4698202597
21
22.4000000000
0
LINE
5
24F
100
AcDbEntity
8
0
100
AcDbLine
62
7
6
CONTINUOUS
10
-3.4698202597
20
-22.5000000000
11
-3.4698202597
21
-22.4000000000
0
LINE
5
250
100
AcDbEntity
8
0
100
AcDbLine
62
9
6
CONTINUOUS
10
-11.0087219643
20
-21.4755923698
11
-11.1500000000
21
-21.8997711479
0
LINE
5
251
100
AcDbEntity
8
0
100
AcDbLine
62
9
6
CONTINUOUS
10
-11.1500000000
20
21.8997711479
11
-11.0087219643
21
21.4755923698
0
LINE
5
252
100
AcDbEntity
8
0
100
AcDbLine
62
9
6
CONTINUOUS
10
-10.5087981167
20
-21.9749071372
11
-10.6503805997
21
-22.4000000000
0
LINE
5
253
100
AcDbEntity
8
0
100
AcDbLine
62
9
6
CONTINUOUS
10
-10.6503805997
20
22.4000000000
11
-10.5087981167
21
21.9749071372
0
LWPOLYLINE
5
254
100
AcDbEntity
8
0
100
AcDbPolyline
62
7
6
CONTINUOUS
90
10
70
0
10
-0.0661298413
20
-5.6500000000
10
-0.0665035168
20
-5.6133250897
10
-0.0675882534
20
-5.5775559435
10
-0.0693683635
20
-5.5420732101
10
-0.0718796165
20
-5.5062428108
10
-0.0751880722
20
-5.4696459606
10
-0.0793646203
20
-5.4321237852
10
-0.0844926631
20
-5.3935453934
10
-0.0907061894
20
-5.3535698125
10
-0.0943673110
20
-5.3331267210
0
LWPOLYLINE
5
255
100
AcDbEntity
8
0
100
AcDbPolyline
62
7
6
CONTINUOUS
90
10
70
0
10
-0.0661298413
20
5.6500000000
10
-0.0665035166
20
5.6866749007
10
-0.0675882527
20
5.7224440376
10
-0.0693683618
20
5.7579267617
10
-0.0718796135
20
5.7937571514
10
-0.0751880674
20
5.8303539911
10
-0.0793646130
20
5.8678761552
10
-0.0844926527
20
5.9064545345
10
-0.0907061751
20
5.9464301019
10
-0.0943673110
20
5.9668732794
0
LWPOLYLINE
5
256
100
AcDbEntity
8
0
100
AcDbPolyline
62
7
6
CONTINUOUS
90
10
70
0
10
0.0661298413
20
-5.6500000000
10
0.0665035166
20
-5.6866749007
10
0.0675882527
20
-5.7224440376
10
0.0693683618
20
-5.7579267617
10
0.0718796135
20
-5.7937571514
10
0.0751880674
20
-5.8303539911
10
0.0793646130
20
-5.8678761552
10
0.0844926527
20
-5.9064545345
10
0.0907061751
20
-5.9464301019
10
0.0943673110
20
-5.9668732794
0
LWPOLYLINE
5
257
100
AcDbEntity
8
0
100
AcDbPolyline
62
7
6
CONTINUOUS
90
10
70
0
10
0.0661298413
20
5.6500000000
10
0.0665035168
20
5.6133250897
10
0.0675882534
20
5.5775559435
10
0.0693683635
20
5.5420732101
10
0.0718796165
20
5.5062428107
10
0.0751880722
20
5.4696459606
10
0.0793646203
20
5.4321237852
10
0.0844926631
20
5.3935453934
10
0.0907061894
20
5.3535698124
10
0.0943673110
20
5.3331267210
0
LINE
5
258
100
AcDbEntity
8
0
100
AcDbLine
62
9
6
CONTINUOUS
10
-0.5044178173
20
7.8742437441
11
-0.5044178173
21
4.5257562559
0
LINE
5
259
100
AcDbEntity
8
0
100
AcDbLine
62
9
6
CONTINUOUS
10
-0.5044178173
20
-4.5257562559
11
-0.5044178173
21
-7.8742437441
0
LINE
5
25A
100
AcDbEntity
8
0
100
AcDbLine
62
7
6
CONTINUOUS
10
-0.0943673110
20
-7.9460703023
11
-0.0943673110
21
-4.4539296977
0
LINE
5
25B
100
AcDbEntity
8
0
100
AcDbLine
62
7
6
CONTINUOUS
10
-0.0943673110
20
4.4539296977
11
-0.0943673110
21
7.9460703023
0
LINE
5
25C
100
AcDbEntity
8
0
100
AcDbLine
62
7
6
CONTINUOUS
10
0.0943673110
20
7.9460703023
11
0.0943673110
21
4.4539296977
0
LINE
5
25D
100
AcDbEntity
8
0
100
AcDbLine
62
7
6
CONTINUOUS
10
0.0943673110
20
-4.4539296977
11
0.0943673110
21
-7.9460703023
0
LWPOLYLINE
5
25E
100
AcDbEntity
8
0
100
AcDbPolyline
62
7
6
CONTINUOUS
90
10
70
0
10
-0.0943673110
20
5.3331481092
10
-0.0906250854
20
5.3540559890
10
-0.0843311079
20
5.3946702726
10
-0.0791753934
20
5.4336812509
10
-0.0750123469
20
5.4713995500
10
-0.0717361069
20
5.5080453381
10
-0.0692696661
20
5.5437290692
10
-0.0675367922
20
5.5788449441
10
-0.0664886951
20
5.6140592886
10
-0.0661298413
20
5.6500000000
0
LWPOLYLINE
5
25F
100
AcDbEntity
8
0
100
AcDbPolyline
62
7
6
CONTINUOUS
90
10
70
0
10
0.0943673110
20
5.9668518903
10
0.0906251000
20
5.9459440990
10
0.0843311185
20
5.9053298011
10
0.0791754008
20
5.8663188098
10
0.0750123518
20
5.8286004989
10
0.0717361100
20
5.7919547003
10
0.0692696678
20
5.7562709593
10
0.0675367929
20
5.7211550749
10
0.0664886953
20
5.6859407211
10
0.0661298413
20
5.6500000000
0
LINE
5
260
100
AcDbEntity
8
0
100
AcDbLine
62
7
6
CONTINUOUS
10
3.4151277229
20
22.4000000000
11
3.4366556363
21
22.5000000000
0
LINE
5
261
100
AcDbEntity
8
0
100
AcDbLine
62
7
6
CONTINUOUS
10
3.4151277229
20
-22.4000000000
11
3.4366556363
21
-22.5000000000
0
LINE
5
262
100
AcDbEntity
8
0
100
AcDbLine
62
9
6
CONTINUOUS
10
0.5044178173
20
-7.8742437441
11
0.5044178173
21
-4.5257562559
0
LINE
5
263
100
AcDbEntity
8
0
100
AcDbLine
62
9
6
CONTINUOUS
10
0.5044178173
20
4.5257562559
11
0.5044178173
21
7.8742437441
0
LWPOLYLINE
5
264
100
AcDbEntity
8
0
100
AcDbPolyline
62
7
6
CONTINUOUS
90
10
70
0
10
-0.0943673110
20
-5.9668518903
10
-0.0906251000
20
-5.9459440990
10
-0.0843311185
20
-5.9053298011
10
-0.0791754008
20
-5.8663188098
10
-0.0750123518
20
-5.8286004990
10
-0.0717361100
20
-5.7919547003
10
-0.0692696678
20
-5.7562709593
10
-0.0675367929
20
-5.7211550750
10
-0.0664886953
20
-5.6859407211
10
-0.0661298413
20
-5.6500000000
0
LWPOLYLINE
5
265
100
AcDbEntity
8
0
100
AcDbPolyline
62
7
6
CONTINUOUS
90
10
70
0
10
0.0943673110
20
-5.3331481092
10
0.0906250854
20
-5.3540559890
10
0.0843311079
20
-5.3946702726
10
0.0791753934
20
-5.4336812509
10
0.0750123469
20
-5.4713995501
10
0.0717361069
20
-5.5080453381
10
0.0692696661
20
-5.5437290692
10
0.0675367922
20
-5.5788449441
10
0.0664886951
20
-5.6140592886
10
0.0661298413
20
-5.6500000000
0
LINE
5
266
100
AcDbEntity
8
0
100
AcDbLine
62
7
6
CONTINUOUS
10
-3.4151277229
20
-22.4000000000
11
-3.4366556363
21
-22.5000000000
0
LINE
5
267
100
AcDbEntity
8
0
100
AcDbLine
62
7
6
CONTINUOUS
10
-3.4151277229
20
22.4000000000
11
-3.4366556363
21
22.5000000000
0
LINE
5
268
100
AcDbEntity
8
0
100
AcDbLine
62
7
6
CONTINUOUS
10
3.4698202597
20
22.4000000000
11
3.4698202597
21
22.5000000000
0
LINE
5
269
100
AcDbEntity
8
0
100
AcDbLine
62
7
6
CONTINUOUS
10
3.4698202597
20
-22.4000000000
11
3.4698202597
21
-22.5000000000
0
LINE
5
26A
100
AcDbEntity
8
0
100
AcDbLine
62
9
6
CONTINUOUS
10
10.6503805997
20
22.4000000000
11
10.5087981167
21
21.9749071372
0
LINE
5
26B
100
AcDbEntity
8
0
100
AcDbLine
62
9
6
CONTINUOUS
10
11.1500000000
20
21.8997711479
11
11.0087219643
21
21.4755923698
0
LINE
5
26C
100
AcDbEntity
8
0
100
AcDbLine
62
9
6
CONTINUOUS
10
10.5087981167
20
-21.9749071372
11
10.6503805997
21
-22.4000000000
0
LINE
5
26D
100
AcDbEntity
8
0
100
AcDbLine
62
9
6
CONTINUOUS
10
11.0087219643
20
-21.4755923698
11
11.1500000000
21
-21.8997711479
0
LINE
5
26E
100
AcDbEntity
8
0
100
AcDbLine
62
7
6
CONTINUOUS
10
3.3848722771
20
-22.4000000000
11
3.3633443637
21
-22.5000000000
0
LINE
5
26F
100
AcDbEntity
8
0
100
AcDbLine
62
7
6
CONTINUOUS
10
3.3848722771
20
22.4000000000
11
3.3633443637
21
22.5000000000
0
LINE
5
270
100
AcDbEntity
8
0
100
AcDbLine
62
7
6
CONTINUOUS
10
11.1500000000
20
21.8997711479
11
11.1500000000
21
-21.8997711479
0
LINE
5
271
100
AcDbEntity
8
0
100
AcDbLine
62
7
6
CONTINUOUS
10
3.2333672024
20
-22.5000000000
11
3.3000000000
21
-22.4000000000
0
LINE
5
272
100
AcDbEntity
8
0
100
AcDbLine
62
7
6
CONTINUOUS
10
3.3000000000
20
22.4000000000
11
3.2333672024
21
22.5000000000
0
LINE
5
273
100
AcDbEntity
8
0
100
AcDbLine
62
9
6
CONTINUOUS
10
-10.5005350625
20
21.0183142309
11
10.5005350625
21
21.0183142309
0
LINE
5
274
100
AcDbEntity
8
0
100
AcDbLine
62
9
6
CONTINUOUS
10
-10.5087981167
20
21.9749071372
11
10.5087981167
21
21.9749071372
0
LINE
5
275
100
AcDbEntity
8
0
100
AcDbLine
62
7
6
CONTINUOUS
10
-10.6503805997
20
22.4000000000
11
-3.3000000000
21
22.4000000000
0
LINE
5
276
100
AcDbEntity
8
0
100
AcDbLine
62
7
6
CONTINUOUS
10
3.3000000000
20
22.4000000000
11
10.6503805997
21
22.4000000000
0
LINE
5
277
100
AcDbEntity
8
0
100
AcDbLine
62
7
6
CONTINUOUS
10
-3.4698202597
20
22.5000000000
11
3.4698202597
21
22.5000000000
0
LINE
5
278
100
AcDbEntity
8
0
100
AcDbLine
62
7
6
CONTINUOUS
10
-3.6748580323
20
23.5000000000
11
3.6748580323
21
23.5000000000
0
LINE
5
279
100
AcDbEntity
8
0
100
AcDbLine
62
7
6
CONTINUOUS
10
-41.3830861088
20
-23.4301797403
11
-45.3830861088
21
-23.5000000000
0
LINE
5
27A
100
AcDbEntity
8
0
100
AcDbLine
62
7
6
CONTINUOUS
10
-37.2102489655
20
-21.1271628567
11
-41.3830861088
21
-21.2000000000
0
LINE
5
27B
100
AcDbEntity
8
0
100
AcDbLine
62
7
6
CONTINUOUS
10
-39.2335906249
20
-22.2000000000
11
-39.7830861088
21
-22.2000000000
0
LINE
5
27C
100
AcDbEntity
8
0
100
AcDbLine
62
7
6
CONTINUOUS
10
-53.4943411287
20
-21.9749071372
11
-45.3830861088
21
-22.4000000000
0
LINE
5
27D
100
AcDbEntity
8
0
100
AcDbLine
62
9
6
CONTINUOUS
10
-53.4768993538
20
-21.4755923698
11
-45.3830861088
21
-21.8997711479
0
LINE
5
27E
100
AcDbEntity
8
0
100
AcDbLine
62
9
6
CONTINUOUS
10
-53.9502894108
20
-20.9972959167
11
-54.4411155732
21
-21.0183139940
0
LINE
5
27F
100
AcDbEntity
8
0
100
AcDbLine
62
7
6
CONTINUOUS
10
-34.2131326555
20
-15.6803116332
11
-22.8743599055
21
-15.4823926186
0
LINE
5
280
100
AcDbEntity
8
0
100
AcDbLine
62
7
6
CONTINUOUS
10
-22.1830861088
20
-13.0395184441
11
-20.6673851200
21
-12.9600839213
0
LINE
5
281
100
AcDbEntity
8
0
100
AcDbLine
62
9
6
CONTINUOUS
10
-34.2131326555
20
-15.1803877856
11
-22.8743599055
21
-14.9824687711
0
LINE
5
282
100
AcDbEntity
8
0
100
AcDbLine
62
9
6
CONTINUOUS
10
-22.3830861088
20
-14.9824687711
11
-22.8743599055
21
-14.9824687711
0
LINE
5
283
100
AcDbEntity
8
0
100
AcDbLine
62
7
6
CONTINUOUS
10
-22.3830861088
20
-14.3694620000
11
-22.1830861088
21
-14.3694620000
0
LINE
5
284
100
AcDbEntity
8
0
100
AcDbLine
62
7
6
CONTINUOUS
10
-22.3830861088
20
-13.9594420000
11
-22.1830861088
21
-13.9594420000
0
LINE
5
285
100
AcDbEntity
8
0
100
AcDbLine
62
7
6
CONTINUOUS
10
-22.3830861088
20
-13.5062280000
11
-22.1830861088
21
-13.5062280000
0
LINE
5
286
100
AcDbEntity
8
0
100
AcDbLine
62
7
6
CONTINUOUS
10
-22.3830861088
20
-13.0530190000
11
-22.1830861088
21
-13.0530190000
0
LINE
5
287
100
AcDbEntity
8
0
100
AcDbLine
62
7
6
CONTINUOUS
10
-22.3830861088
20
-12.6429980000
11
-22.1830861088
21
-12.6429980000
0
LINE
5
288
100
AcDbEntity
8
0
100
AcDbLine
62
7
6
CONTINUOUS
10
-22.3830861088
20
-12.5342960000
11
-22.1830861088
21
-12.5342960000
0
LINE
5
289
100
AcDbEntity
8
0
100
AcDbLine
62
7
6
CONTINUOUS
10
-22.3830861088
20
-12.4967150000
11
-22.1830861088
21
-12.4967150000
0
LINE
5
28A
100
AcDbEntity
8
0
100
AcDbLine
62
7
6
CONTINUOUS
10
-22.3830861088
20
-12.3696570000
11
-22.1830861088
21
-12.3696570000
0
LINE
5
28B
100
AcDbEntity
8
0
100
AcDbLine
62
7
6
CONTINUOUS
10
-22.3830861088
20
-11.9596410000
11
-22.1830861088
21
-11.9596410000
0
LINE
5
28C
100
AcDbEntity
8
0
100
AcDbLine
62
7
6
CONTINUOUS
10
-22.3830861088
20
-11.6848530000
11
-22.1830861088
21
-11.6848530000
0
LINE
5
28D
100
AcDbEntity
8
0
100
AcDbLine
62
7
6
CONTINUOUS
10
-22.3830861088
20
-11.5496410000
11
-22.1830861088
21
-11.5496410000
0
LINE
5
28E
100
AcDbEntity
8
0
100
AcDbLine
62
7
6
CONTINUOUS
10
-22.3830861088
20
-10.9298080000
11
-22.1830861088
21
-10.9298080000
0
LINE
5
28F
100
AcDbEntity
8
0
100
AcDbLine
62
7
6
CONTINUOUS
10
-22.3830861088
20
-10.5469760000
11
-22.1830861088
21
-10.5469760000
0
LINE
5
290
100
AcDbEntity
8
0
100
AcDbLine
62
9
6
CONTINUOUS
10
-22.1830861088
20
-10.3000000000
11
-20.3830861088
21
-10.3000000000
0
LINE
5
291
100
AcDbEntity
8
0
100
AcDbLine
62
7
6
CONTINUOUS
10
-22.3830861088
20
-10.1641440000
11
-22.1830861088
21
-10.1641440000
0
LINE
5
292
100
AcDbEntity
8
0
100
AcDbLine
62
7
6
CONTINUOUS
10
-22.3830861088
20
-9.5443110000
11
-22.1830861088
21
-9.5443110000
0
LINE
5
293
100
AcDbEntity
8
0
100
AcDbLine
62
7
6
CONTINUOUS
10
-45.3830861088
20
22.6631666220
11
-45.3830861088
21
-23.5000000000
0
LINE
5
294
100
AcDbEntity
8
0
100
AcDbLine
62
7
6
CONTINUOUS
10
-45.3830861088
20
22.7293366416
11
-45.3830861088
21
23.5000000000
0
LINE
5
295
100
AcDbEntity
8
0
100
AcDbLine
62
7
6
CONTINUOUS
10
-22.3830861088
20
-9.2709690000
11
-22.1830861088
21
-9.2709690000
0
LINE
5
296
100
AcDbEntity
8
0
100
AcDbLine
62
7
6
CONTINUOUS
10
-22.3830861088
20
-8.6127600000
11
-22.1830861088
21
-8.6127600000
0
LINE
5
297
100
AcDbEntity
8
0
100
AcDbLine
62
7
6
CONTINUOUS
10
-22.3830861088
20
-8.2027240000
11
-22.1830861088
21
-8.2027240000
0
LINE
5
298
100
AcDbEntity
8
0
100
AcDbLine
62
9
6
CONTINUOUS
10
-22.1830861088
20
-8.2000000000
11
-20.3830861088
21
-8.2000000000
0
LINE
5
299
100
AcDbEntity
8
0
100
AcDbLine
62
7
6
CONTINUOUS
10
-22.3830861088
20
-7.5445050000
11
-22.1830861088
21
-7.5445050000
0
LINE
5
29A
100
AcDbEntity
8
0
100
AcDbLine
62
9
6
CONTINUOUS
10
-22.3830861088
20
-7.5098010000
11
-22.1830861088
21
-7.5098010000
0
LINE
5
29B
100
AcDbEntity
8
0
100
AcDbLine
62
7
6
CONTINUOUS
10
-22.3830861088
20
-7.2711630000
11
-22.1830861088
21
-7.2711630000
0
LINE
5
29C
100
AcDbEntity
8
0
100
AcDbLine
62
7
6
CONTINUOUS
10
-22.3830861088
20
-6.3110450000
11
-22.1830861088
21
-6.3110450000
0
LINE
5
29D
100
AcDbEntity
8
0
100
AcDbLine
62
7
6
CONTINUOUS
10
-22.3830861088
20
-5.6823385478
11
-22.1830861088
21
-5.6823385478
0
LINE
5
29E
100
AcDbEntity
8
0
100
AcDbLine
62
7
6
CONTINUOUS
10
-22.3830861088
20
-5.6305380000
11
-22.1830861088
21
-5.6305380000
0
LINE
5
29F
100
AcDbEntity
8
0
100
AcDbLine
62
7
6
CONTINUOUS
10
-41.3830861088
20
-21.2000000000
11
-41.3830861088
21
-23.4301797403
0
LINE
5
2A0
100
AcDbEntity
8
0
100
AcDbLine
62
7
6
CONTINUOUS
10
-41.3830861088
20
21.2000000000
11
-41.3830861088
21
23.4301797403
0
LINE
5
2A1
100
AcDbEntity
8
0
100
AcDbLine
62
7
6
CONTINUOUS
10
-22.3830861088
20
-4.9773916798
11
-22.1830861088
21
-4.9773920000
0
LINE
5
2A2
100
AcDbEntity
8
0
100
AcDbLine
62
7
6
CONTINUOUS
10
-22.3830861088
20
-4.8402230000
11
-22.1830861088
21
-4.8402230000
0
LINE
5
2A3
100
AcDbEntity
8
0
100
AcDbLine
62
7
6
CONTINUOUS
10
-22.3830861088
20
-4.7594880000
11
-22.1830861088
21
-4.7594880000
0
LINE
5
2A4
100
AcDbEntity
8
0
100
AcDbLine
62
7
6
CONTINUOUS
10
-22.3830861088
20
-4.1597765662
11
-22.1830861088
21
-4.1597770000
0
LINE
5
2A5
100
AcDbEntity
8
0
100
AcDbLine
62
7
6
CONTINUOUS
10
-22.3830861088
20
-4.1446927618
11
-22.1830861088
21
-4.1446930000
0
LINE
5
2A6
100
AcDbEntity
8
0
100
AcDbLine
62
7
6
CONTINUOUS
10
-22.1935532842
20
-5.4599329944
11
-20.6673850644
21
-5.5399160817
0
LINE
5
2A7
100
AcDbEntity
8
0
100
AcDbLine
62
7
6
CONTINUOUS
10
-39.7830861088
20
22.2000000000
11
-39.7830861088
21
21.1720718961
0
LINE
5
2A8
100
AcDbEntity
8
0
100
AcDbLine
62
7
6
CONTINUOUS
10
-39.7830861088
20
-22.2000000000
11
-39.7830861088
21
-21.1720718961
0
LINE
5
2A9
100
AcDbEntity
8
0
100
AcDbLine
62
7
6
CONTINUOUS
10
-22.1830861088
20
-3.4323936954
11
-22.3830861088
21
-3.4323936954
0
LINE
5
2AA
100
AcDbEntity
8
0
100
AcDbLine
62
7
6
CONTINUOUS
10
-22.1830861088
20
-3.3737374823
11
-22.3830861088
21
-3.3737374823
0
LINE
5
2AB
100
AcDbEntity
8
0
100
AcDbLine
62
7
6
CONTINUOUS
10
-22.3830861088
20
-2.5177437787
11
-22.1830861088
21
-2.5177437787
0
LINE
5
2AC
100
AcDbEntity
8
0
100
AcDbLine
62
7
6
CONTINUOUS
10
-22.3830861088
20
-1.4872870000
11
-22.1830861088
21
-1.4872870000
0
LINE
5
2AD
100
AcDbEntity
8
0
100
AcDbLine
62
7
6
CONTINUOUS
10
-22.3830861088
20
0.6759160000
11
-22.1830861088
21
0.6759160000
0
LINE
5
2AE
100
AcDbEntity
8
0
100
AcDbLine
62
9
6
CONTINUOUS
10
-35.1956802491
20
-18.7511634565
11
-35.1956802491
21
-17.3012794429
0
LINE
5
2AF
100
AcDbEntity
8
0
100
AcDbLine
62
9
6
CONTINUOUS
10
-35.1956802491
20
17.3012794428
11
-35.1956802491
21
18.7511426329
0
LINE
5
2B0
100
AcDbEntity
8
0
100
AcDbLine
62
7
6
CONTINUOUS
10
-34.7044064523
20
-18.4142135624
11
-34.7044064523
21
-16.1802354808
0
LINE
5
2B1
100
AcDbEntity
8
0
100
AcDbLine
62
7
6
CONTINUOUS
10
-34.7044064523
20
16.1802354808
11
-34.7044064523
21
18.4142135624
0
LINE
5
2B2
100
AcDbEntity
8
0
100
AcDbLine
62
7
6
CONTINUOUS
10
-22.1935531371
20
5.4599330021
11
-20.6673851200
21
5.5399160787
0
LINE
5
2B3
100
AcDbEntity
8
0
100
AcDbLine
62
7
6
CONTINUOUS
10
-22.3830861088
20
7.7567888545
11
-22.1830861088
21
7.7567888545
0
LINE
5
2B4
100
AcDbEntity
8
0
100
AcDbLine
62
7
6
CONTINUOUS
10
-22.3830861088
20
8.0114154864
11
-22.1830861088
21
8.0114154864
0
LINE
5
2B5
100
AcDbEntity
8
0
100
AcDbLine
62
9
6
CONTINUOUS
10
-22.1830861088
20
8.2000000000
11
-20.3830861088
21
8.2000000000
0
LINE
5
2B6
100
AcDbEntity
8
0
100
AcDbLine
62
7
6
CONTINUOUS
10
-22.3830861088
20
8.9643548464
11
-22.1830861088
21
8.9643548464
0
LINE
5
2B7
100
AcDbEntity
8
0
100
AcDbLine
62
7
6
CONTINUOUS
10
-22.3830861088
20
9.1912602952
11
-22.1830861088
21
9.1912602952
0
LINE
5
2B8
100
AcDbEntity
8
0
100
AcDbLine
62
7
6
CONTINUOUS
10
-22.1830861088
20
9.5585203027
11
-22.3830861088
21
9.5585203027
0
LINE
5
2B9
100
AcDbEntity
8
0
100
AcDbLine
62
7
6
CONTINUOUS
10
-22.3830861088
20
9.6928831665
11
-22.1830861088
21
9.6928831665
0
LINE
5
2BA
100
AcDbEntity
8
0
100
AcDbLine
62
9
6
CONTINUOUS
10
-22.1830861088
20
10.3000000000
11
-20.3830861088
21
10.3000000000
0
LINE
5
2BB
100
AcDbEntity
8
0
100
AcDbLine
62
7
6
CONTINUOUS
10
-22.3830861088
20
10.9357361504
11
-22.1830861088
21
10.9357361504
0
LINE
5
2BC
100
AcDbEntity
8
0
100
AcDbLine
62
7
6
CONTINUOUS
10
-22.3830861088
20
11.1474602202
11
-22.1830861088
21
11.1474602202
0
LINE
5
2BD
100
AcDbEntity
8
0
100
AcDbLine
62
7
6
CONTINUOUS
10
-22.3830861088
20
11.4070926098
11
-22.1830861088
21
11.4070926098
0
LINE
5
2BE
100
AcDbEntity
8
0
100
AcDbLine
62
7
6
CONTINUOUS
10
-22.3830861088
20
11.9214024512
11
-22.1830861088
21
11.9214024512
0
LINE
5
2BF
100
AcDbEntity
8
0
100
AcDbLine
62
7
6
CONTINUOUS
10
-22.3830861088
20
12.4457555704
11
-22.1830861088
21
12.4457555704
0
LINE
5
2C0
100
AcDbEntity
8
0
100
AcDbLine
62
7
6
CONTINUOUS
10
-22.3830861088
20
12.6953605634
11
-22.1830861088
21
12.6953605634
0
LINE
5
2C1
100
AcDbEntity
8
0
100
AcDbLine
62
7
6
CONTINUOUS
10
-22.1830861088
20
12.9859045289
11
-22.3830861088
21
12.9859045289
0
LINE
5
2C2
100
AcDbEntity
8
0
100
AcDbLine
62
7
6
CONTINUOUS
10
-22.3830861088
20
13.0003740428
11
-22.1830861088
21
13.0003740428
0
LINE
5
2C3
100
AcDbEntity
8
0
100
AcDbLine
62
7
6
CONTINUOUS
10
-22.1802874857
20
13.0393717745
11
-20.6673850644
21
12.9600839183
0
LINE
5
2C4
100
AcDbEntity
8
0
100
AcDbLine
62
9
6
CONTINUOUS
10
-22.8743599055
20
14.9824687710
11
-22.8743599055
21
-14.9824687711
0
LINE
5
2C5
100
AcDbEntity
8
0
100
AcDbLine
62
7
6
CONTINUOUS
10
-22.3830861088
20
14.9824687710
11
-22.3830861088
21
-14.9824687711
0
LINE
5
2C6
100
AcDbEntity
8
0
100
AcDbLine
62
9
6
CONTINUOUS
10
-22.1935533000
20
9.6928831665
11
-22.1935533000
21
9.5585203027
0
LINE
5
2C7
100
AcDbEntity
8
0
100
AcDbLine
62
9
6
CONTINUOUS
10
-22.1935532980
20
-5.4599329937
11
-22.1935532866
21
-5.6305380000
0
LINE
5
2C8
100
AcDbEntity
8
0
100
AcDbLine
62
9
6
CONTINUOUS
10
-22.1935532908
20
-12.4967149997
11
-22.1935532921
21
-12.5342960000
0
LINE
5
2C9
100
AcDbEntity
8
0
100
AcDbLine
62
9
6
CONTINUOUS
10
-22.1935535260
20
7.7567888545
11
-22.1935531513
21
5.4599330014
0
LINE
5
2CA
100
AcDbEntity
8
0
100
AcDbLine
62
9
6
CONTINUOUS
10
-22.1935530199
20
-11.5441610000
11
-22.1935531012
21
-11.6848529914
0
LINE
5
2CB
100
AcDbEntity
8
0
100
AcDbLine
62
7
6
CONTINUOUS
10
-22.1830861088
20
14.2432111455
11
-22.1830861088
21
13.0003740428
0
LINE
5
2CC
100
AcDbEntity
8
0
100
AcDbLine
62
7
6
CONTINUOUS
10
-22.1830861088
20
12.9859708659
11
-22.1830861088
21
11.1474602202
0
LINE
5
2CD
100
AcDbEntity
8
0
100
AcDbLine
62
7
6
CONTINUOUS
10
-22.1830861088
20
11.0925629753
11
-22.1830861088
21
10.9433019593
0
LINE
5
2CE
100
AcDbEntity
8
0
100
AcDbLine
62
7
6
CONTINUOUS
10
-22.1830861088
20
10.9357361504
11
-22.1830861088
21
9.6928831665
0
LINE
5
2CF
100
AcDbEntity
8
0
100
AcDbLine
62
7
6
CONTINUOUS
10
-22.1830861088
20
9.5585196438
11
-22.1830861088
21
7.7567888545
0
LINE
5
2D0
100
AcDbEntity
8
0
100
AcDbLine
62
7
6
CONTINUOUS
10
-22.1830861088
20
0.6759160000
11
-22.1830861088
21
-2.5177437787
0
LINE
5
2D1
100
AcDbEntity
8
0
100
AcDbLine
62
7
6
CONTINUOUS
10
-22.1830861088
20
-3.3735278787
11
-22.1830861088
21
-4.1597766215
0
LINE
5
2D2
100
AcDbEntity
8
0
100
AcDbLine
62
7
6
CONTINUOUS
10
-22.1830861088
20
-4.7594880000
11
-22.1830861088
21
-5.4604815559
0
LINE
5
2D3
100
AcDbEntity
8
0
100
AcDbLine
62
7
6
CONTINUOUS
10
-22.1830861088
20
-5.6305380000
11
-22.1830861088
21
-7.2711630000
0
LINE
5
2D4
100
AcDbEntity
8
0
100
AcDbLine
62
7
6
CONTINUOUS
10
-22.1830861088
20
-7.2815604924
11
-22.1830861088
21
-11.5496410000
0
LINE
5
2D5
100
AcDbEntity
8
0
100
AcDbLine
62
7
6
CONTINUOUS
10
-22.1830861088
20
-11.6848530000
11
-22.1830861088
21
-12.4967150000
0
LINE
5
2D6
100
AcDbEntity
8
0
100
AcDbLine
62
7
6
CONTINUOUS
10
-22.1830861088
20
-12.5342960000
11
-22.1830861088
21
-14.3694620000
0
LINE
5
2D7
100
AcDbEntity
8
0
100
AcDbLine
62
7
6
CONTINUOUS
10
-37.7391566104
20
-21.6560705017
11
-34.8508530617
21
-18.7677669530
0
LINE
5
2D8
100
AcDbEntity
8
0
100
AcDbLine
62
7
6
CONTINUOUS
10
-22.3830861088
20
14.2432111455
11
-22.1830861088
21
14.2432111455
0
LINE
5
2D9
100
AcDbEntity
8
0
100
AcDbLine
62
9
6
CONTINUOUS
10
-22.3830861088
20
14.9824687710
11
-22.8743599055
21
14.9824687710
0
LINE
5
2DA
100
AcDbEntity
8
0
100
AcDbLine
62
9
6
CONTINUOUS
10
-22.8743599055
20
14.9824687710
11
-34.2131326555
21
15.1803877856
0
LINE
5
2DB
100
AcDbEntity
8
0
100
AcDbLine
62
7
6
CONTINUOUS
10
-22.8743599055
20
15.4823926186
11
-34.2131326555
21
15.6803116332
0
LINE
5
2DC
100
AcDbEntity
8
0
100
AcDbLine
62
7
6
CONTINUOUS
10
-37.7391566104
20
21.6560705017
11
-34.8508530617
21
18.7677669530
0
LINE
5
2DD
100
AcDbEntity
8
0
100
AcDbLine
62
9
6
CONTINUOUS
10
-20.6673850669
20
12.9600803357
11
-20.6673851232
21
5.5399174387
0
LINE
5
2DE
100
AcDbEntity
8
0
100
AcDbLine
62
9
6
CONTINUOUS
10
-20.6673850669
20
-5.5399196643
11
-20.6673851232
21
-12.9600825613
0
LINE
5
2DF
100
AcDbEntity
8
0
100
AcDbLine
62
7
6
CONTINUOUS
10
-20.3830861088
20
12.6600940842
11
-20.3830861088
21
5.8398324606
0
LINE
5
2E0
100
AcDbEntity
8
0
100
AcDbLine
62
7
6
CONTINUOUS
10
-20.3830861088
20
-5.8399059158
11
-20.3830861088
21
-12.6601675394
0
LINE
5
2E1
100
AcDbEntity
8
0
100
AcDbLine
62
7
6
CONTINUOUS
10
-37.7391566104
20
-21.6560705017
11
-39.2335906249
21
-22.2000000000
0
LINE
5
2E2
100
AcDbEntity
8
0
100
AcDbLine
62
7
6
CONTINUOUS
10
-41.3830861088
20
21.2000000000
11
-37.2102489655
21
21.1271628567
0
LINE
5
2E3
100
AcDbEntity
8
0
100
AcDbLine
62
9
6
CONTINUOUS
10
-53.9502894108
20
20.9972959167
11
-54.4411212246
21
21.0183142301
0
LINE
5
2E4
100
AcDbEntity
8
0
100
AcDbLine
62
7
6
CONTINUOUS
10
-37.7391566104
20
21.6560705017
11
-39.2335906249
21
22.2000000000
0
LINE
5
2E5
100
AcDbEntity
8
0
100
AcDbLine
62
9
6
CONTINUOUS
10
-45.3830861088
20
21.8997711479
11
-53.4768993538
21
21.4755923698
0
LINE
5
2E6
100
AcDbEntity
8
0
100
AcDbLine
62
7
6
CONTINUOUS
10
-45.3830861088
20
22.4000000000
11
-53.4943411333
21
21.9749071370
0
LINE
5
2E7
100
AcDbEntity
8
0
100
AcDbLine
62
7
6
CONTINUOUS
10
-39.2335906249
20
22.2000000000
11
-39.7830861088
21
22.2000000000
0
LINE
5
2E8
100
AcDbEntity
8
0
100
AcDbLine
62
7
6
CONTINUOUS
10
-41.3830861088
20
23.4301797403
11
-45.3830861088
21
23.5000000000
0
ARC
5
2E9
100
AcDbEntity
8
0
100
AcDbCircle
62
7
6
CONTINUOUS
10
-11.2500000000
20
-0.0000000000
40
28.0000000000
100
AcDbArc
50
305.9627651514
51
306.8614238325
0
ARC
5
2EA
100
AcDbEntity
8
0
100
AcDbCircle
62
7
6
CONTINUOUS
10
4.9500000000
20
-23.1000000000
40
0.5000000000
100
AcDbArc
50
60.8875772240
51
189.1962815790
0
ARC
5
2EB
100
AcDbEntity
8
0
100
AcDbCircle
62
7
6
CONTINUOUS
10
-11.2500000000
20
-0.0000000000
40
28.0000000000
100
AcDbArc
50
303.5572117218
51
304.1210936517
0
ARC
5
2EC
100
AcDbEntity
8
0
100
AcDbCircle
62
7
6
CONTINUOUS
10
11.2500000000
20
-0.0000000000
40
28.0000000000
100
AcDbArc
50
235.8789063483
51
236.4427882782
0
ARC
5
2ED
100
AcDbEntity
8
0
100
AcDbCircle
62
7
6
CONTINUOUS
10
-4.9500000000
20
-23.1000000000
40
0.5000000000
100
AcDbArc
50
350.8037184210
51
119.1124227760
0
ARC
5
2EE
100
AcDbEntity
8
0
100
AcDbCircle
62
7
6
CONTINUOUS
10
11.2500000000
20
-0.0000000000
40
28.0000000000
100
AcDbArc
50
233.1385761675
51
234.0372348486
0
ARC
5
2EF
100
AcDbEntity
8
0
100
AcDbCircle
62
7
6
CONTINUOUS
10
11.2500000000
20
-0.0000000000
40
28.0000000000
100
AcDbArc
50
125.9627651514
51
126.8614238325
0
ARC
5
2F0
100
AcDbEntity
8
0
100
AcDbCircle
62
7
6
CONTINUOUS
10
-4.9500000000
20
23.1000000000
40
0.5000000000
100
AcDbArc
50
240.8875772240
51
9.1962815790
0
ARC
5
2F1
100
AcDbEntity
8
0
100
AcDbCircle
62
7
6
CONTINUOUS
10
11.2500000000
20
-0.0000000000
40
28.0000000000
100
AcDbArc
50
123.5572118401
51
124.1210936517
0
ARC
5
2F2
100
AcDbEntity
8
0
100
AcDbCircle
62
7
6
CONTINUOUS
10
-11.2500000000
20
-0.0000000000
40
28.0000000000
100
AcDbArc
50
55.8789063483
51
56.4427881599
0
ARC
5
2F3
100
AcDbEntity
8
0
100
AcDbCircle
62
7
6
CONTINUOUS
10
4.9500000000
20
23.1000000000
40
0.5000000000
100
AcDbArc
50
170.8037184210
51
299.1124227760
0
ARC
5
2F4
100
AcDbEntity
8
0
100
AcDbCircle
62
7
6
CONTINUOUS
10
-11.2500000000
20
-0.0000000000
40
28.0000000000
100
AcDbArc
50
53.1385761675
51
54.0372348486
0
CIRCLE
5
2F5
100
AcDbEntity
8
0
100
AcDbCircle
62
7
6
CONTINUOUS
10
-0.0000000000
20
-6.2000000000
40
1.7500000000
0
CIRCLE
5
2F6
100
AcDbEntity
8
0
100
AcDbCircle
62
7
6
CONTINUOUS
10
-0.0000000000
20
6.2000000000
40
1.7500000000
0
ARC
5
2F7
100
AcDbEntity
8
0
100
AcDbCircle
62
7
6
CONTINUOUS
10
-53.4420051724
20
-20.9762776025
40
1.0000000000
100
AcDbArc
50
182.4092313014
51
267.0000000000
0
ARC
5
2F8
100
AcDbEntity
8
0
100
AcDbCircle
62
7
6
CONTINUOUS
10
445.1169138912
20
-0.0000000000
40
500.0000000000
100
AcDbArc
50
177.5907686986
51
182.4092313014
0
ARC
5
2F9
100
AcDbEntity
8
0
100
AcDbCircle
62
7
6
CONTINUOUS
10
-53.4420051724
20
20.9762776024
40
1.0000000000
100
AcDbArc
50
93.0000000000
51
177.5907686986
0
ARC
5
2FA
100
AcDbEntity
8
0
100
AcDbCircle
62
7
6
CONTINUOUS
10
-22.1830861088
20
5.2602070867
40
0.2000000000
100
AcDbArc
50
92.9999532560
51
179.9991239193
0
ARC
5
2FB
100
AcDbEntity
8
0
100
AcDbCircle
62
7
6
CONTINUOUS
10
-22.1830861088
20
-5.2602070867
40
0.2000000000
100
AcDbArc
50
180.0000822108
51
267.0000045312
0
ARC
5
2FC
100
AcDbEntity
8
0
100
AcDbCircle
62
7
6
CONTINUOUS
10
-20.6830861088
20
-12.6604950714
40
0.3000000000
100
AcDbArc
50
273.0000386024
51
360.0000000000
0
ARC
5
2FD
100
AcDbEntity
8
0
100
AcDbCircle
62
7
6
CONTINUOUS
10
-20.6830861088
20
-5.8395049286
40
0.3000000000
100
AcDbArc
50
0.0000000000
51
86.9999507580
0
ARC
5
2FE
100
AcDbEntity
8
0
100
AcDbCircle
62
7
6
CONTINUOUS
10
-20.6830861088
20
5.8395049286
40
0.3000000000
100
AcDbArc
50
273.0000386024
51
360.0000000000
0
ARC
5
2FF
100
AcDbEntity
8
0
100
AcDbCircle
62
7
6
CONTINUOUS
10
-20.6830861088
20
12.6604950714
40
0.3000000000
100
AcDbArc
50
0.0000000000
51
86.9999507580
0
ARC
5
300
100
AcDbEntity
8
0
100
AcDbCircle
62
7
6
CONTINUOUS
10
-35.2044064523
20
-18.4142135624
40
0.5000000000
100
AcDbArc
50
315.0000000000
51
360.0000000000
0
ARC
5
301
100
AcDbEntity
8
0
100
AcDbCircle
62
7
6
CONTINUOUS
10
-35.2044064523
20
18.4142135624
40
0.5000000000
100
AcDbArc
50
0.0000000000
51
45.0000000000
0
ARC
5
302
100
AcDbEntity
8
0
100
AcDbCircle
62
7
6
CONTINUOUS
10
-22.8830861088
20
14.9824687710
40
0.5000000000
100
AcDbArc
50
0.0000000000
51
89.0000000000
0
ARC
5
303
100
AcDbEntity
8
0
100
AcDbCircle
62
7
6
CONTINUOUS
10
-22.8830861088
20
-14.9824687711
40
0.5000000000
100
AcDbArc
50
271.0000000000
51
360.0000000000
0
ARC
5
304
100
AcDbEntity
8
0
100
AcDbCircle
62
7
6
CONTINUOUS
10
-34.2044064523
20
-16.1802354808
40
0.5000000000
100
AcDbArc
50
91.0000000000
51
180.0000000000
0
ARC
5
305
100
AcDbEntity
8
0
100
AcDbCircle
62
7
6
CONTINUOUS
10
-34.2044064523
20
16.1802354808
40
0.5000000000
100
AcDbArc
50
180.0000000000
51
269.0000000000
0
SPLINE
5
306
100
AcDbEntity
8
0
100
AcDbSpline
62
7
6
CONTINUOUS
70
0
71
3
72
10
73
6
74
4
42
0.0000001000
43
0.0000001000
44
0.0000000001
12
0.5846646465
22
0.0000000000
32
0.0000000000
13
0.4872210884
23
0.3231847148
33
0.0000000000
40
0.0000000000
40
0.0000000000
40
0.0000000000
40
0.0000000000
40
0.3323670647
40
0.6679091090
40
1.0000000000
40
1.0000000000
40
1.0000000000
40
1.0000000000
10
3.6748576866
20
-23.5000000000
30
0.0000000000
10
3.7396321107
20
-23.5000000000
30
0.0000000000
10
3.8701634885
20
-23.4872644618
30
0.0000000000
10
4.0578468546
20
-23.4306592662
30
0.0000000000
10
4.1736085340
20
-23.3691353846
30
0.0000000000
10
4.2275424291
20
-23.3333598180
30
0.0000000000
11
3.6748576866
21
-23.5000000000
31
0.0000000000
11
3.8682612792
21
-23.4811165533
31
0.0000000000
11
4.0560843734
21
-23.4244693181
31
0.0000000000
11
4.2275424291
21
-23.3333598180
31
0.0000000000
0
SPLINE
5
307
100
AcDbEntity
8
0
100
AcDbSpline
62
7
6
CONTINUOUS
70
0
71
3
72
10
73
6
74
4
42
0.0000001000
43
0.0000001000
44
0.0000000001
12
0.4872210884
22
-0.3231847148
32
0.0000000000
13
0.5846646465
23
0.0000000000
33
0.0000000000
40
0.0000000000
40
0.0000000000
40
0.0000000000
40
0.0000000000
40
0.3320908910
40
0.6676329353
40
1.0000000000
40
1.0000000000
40
1.0000000000
40
1.0000000000
10
-4.2275424291
20
-23.3333598180
30
0.0000000000
10
-4.1736085340
20
-23.3691353846
30
0.0000000000
10
-4.0578468546
20
-23.4306592662
30
0.0000000000
10
-3.8701634885
20
-23.4872644618
30
0.0000000000
10
-3.7396321107
20
-23.5000000000
30
0.0000000000
10
-3.6748576866
20
-23.5000000000
30
0.0000000000
11
-4.2275424291
21
-23.3333598180
31
0.0000000000
11
-4.0560843734
21
-23.4244693181
31
0.0000000000
11
-3.8682612792
21
-23.4811165533
31
0.0000000000
11
-3.6748576866
21
-23.5000000000
31
0.0000000000
0
SPLINE
5
308
100
AcDbEntity
8
0
100
AcDbSpline
62
7
6
CONTINUOUS
70
0
71
3
72
10
73
6
74
4
42
0.0000001000
43
0.0000001000
44
0.0000000001
12
-0.5846643949
22
0.0000000000
32
0.0000000000
13
-0.4872208788
23
-0.3231845757
33
0.0000000000
40
0.0000000000
40
0.0000000000
40
0.0000000000
40
0.0000000000
40
0.3326144473
40
0.6674124931
40
1.0000000000
40
1.0000000000
40
1.0000000000
40
1.0000000000
10
-3.6748580323
20
23.5000000000
30
0.0000000000
10
-3.7396806405
20
23.5000000000
30
0.0000000000
10
-3.8701162364
20
23.4872639026
30
0.0000000000
10
-4.0577967192
20
23.4306746312
30
0.0000000000
10
-4.1735279515
20
23.3691888366
30
0.0000000000
10
-4.2275424773
20
23.3333597858
30
0.0000000000
11
-3.6748580323
21
23.5000000000
31
0.0000000000
11
-3.8684041133
21
23.4810883820
31
0.0000000000
11
-4.0558147925
21
23.4245804589
31
0.0000000000
11
-4.2275424773
21
23.3333597858
31
0.0000000000
0
SPLINE
5
309
100
AcDbEntity
8
0
100
AcDbSpline
62
7
6
CONTINUOUS
70
0
71
3
72
10
73
6
74
4
42
0.0000001000
43
0.0000001000
44
0.0000000001
12
-0.4872208788
22
0.3231845757
32
0.0000000000
13
-0.5846643949
23
0.0000000000
33
0.0000000000
40
0.0000000000
40
0.0000000000
40
0.0000000000
40
0.0000000000
40
0.3325875069
40
0.6673855527
40
1.0000000000
40
1.0000000000
40
1.0000000000
40
1.0000000000
10
4.2275424773
20
23.3333597858
30
0.0000000000
10
4.1735279515
20
23.3691888366
30
0.0000000000
10
4.0577967192
20
23.4306746312
30
0.0000000000
10
3.8701162364
20
23.4872639026
30
0.0000000000
10
3.7396806405
20
23.5000000000
30
0.0000000000
10
3.6748580323
20
23.5000000000
30
0.0000000000
11
4.2275424773
21
23.3333597858
31
0.0000000000
11
4.0558147925
21
23.4245804589
31
0.0000000000
11
3.8684041133
21
23.4810883820
31
0.0000000000
11
3.6748580323
21
23.5000000000
31
0.0000000000
0
SPLINE
5
30A
100
AcDbEntity
8
0
100
AcDbSpline
62
7
6
CONTINUOUS
70
0
71
3
72
15
73
11
74
9
42
0.0000001000
43
0.0000001000
44
0.0000000001
12
0.0000000000
22
-0.7840504605
32
0.0000000000
13
-0.7840504605
23
-0.0000000000
33
0.0000000000
40
0.0000000000
40
0.0000000000
40
0.0000000000
40
0.0000000000
40
0.1250035856
40
0.2500003382
40
0.3749971738
40
0.4999931596
40
0.6249941993
40
0.7499962985
40
0.8749988330
40
1.0000000000
40
1.0000000000
40
1.0000000000
40
1.0000000000
10
11.1500000000
20
-21.8997711479
30
0.0000000000
10
11.1500000000
20
-21.9324408542
30
0.0000000000
10
11.1435720625
20
-21.9979588343
30
0.0000000000
10
11.1150028885
20
-22.0923353736
30
0.0000000000
10
11.0685863853
20
-22.1793736183
30
0.0000000000
10
11.0060858443
20
-22.2556795571
30
0.0000000000
10
10.9298940235
20
-22.3183228818
30
0.0000000000
10
10.8429223671
20
-22.3648787971
30
0.0000000000
10
10.7485697898
20
-22.3935479377
30
0.0000000000
10
10.6830496739
20
-22.4000000000
30
0.0000000000
10
10.6503805997
20
-22.4000000000
30
0.0000000000
11
11.1500000000
21
-21.8997711479
31
0.0000000000
11
11.1404171274
21
-21.9973106575
31
0.0000000000
11
11.1120282390
21
-22.0911126206
31
0.0000000000
11
11.0659057104
21
-22.1775849419
31
0.0000000000
11
11.0038050670
21
-22.2534013617
31
0.0000000000
11
10.9280978412
21
-22.3156413172
31
0.0000000000
11
10.8416923200
21
-22.3618976126
31
0.0000000000
11
10.7479148288
21
-22.3903828363
31
0.0000000000
11
10.6503805997
21
-22.4000000000
31
0.0000000000
0
SPLINE
5
30B
100
AcDbEntity
8
0
100
AcDbSpline
62
7
6
CONTINUOUS
70
0
71
3
72
15
73
11
74
9
42
0.0000001000
43
0.0000001000
44
0.0000000001
12
0.7840504604
22
0.0000000000
32
0.0000000000
13
0.0000000000
23
-0.7840504604
33
0.0000000000
40
0.0000000000
40
0.0000000000
40
0.0000000000
40
0.0000000000
40
0.1250026133
40
0.2500082844
40
0.3750136098
40
0.5000160060
40
0.6250106349
40
0.7500042447
40
0.8749978606
40
1.0000000000
40
1.0000000000
40
1.0000000000
40
1.0000000000
10
10.6503805997
20
22.4000000000
30
0.0000000000
10
10.6830500519
20
22.4000000000
30
0.0000000000
10
10.7485713718
20
22.3935477443
30
0.0000000000
10
10.8429258085
20
22.3648775487
30
0.0000000000
10
10.9298988298
20
22.3183198083
30
0.0000000000
10
11.0060904776
20
22.2556749149
30
0.0000000000
10
11.0685894502
20
22.1793688070
30
0.0000000000
10
11.1150041327
20
22.0923319310
30
0.0000000000
10
11.1435722551
20
21.9979572524
30
0.0000000000
10
11.1500000000
20
21.9324404762
30
0.0000000000
10
11.1500000000
20
21.8997711479
30
0.0000000000
11
10.6503805997
21
22.4000000000
31
0.0000000000
11
10.7479159463
21
22.3903826137
31
0.0000000000
11
10.8416956551
21
22.3618962291
31
0.0000000000
11
10.9281029540
21
22.3156378952
31
0.0000000000
11
11.0038101683
21
22.2533962508
31
0.0000000000
11
11.0659091235
21
22.1775798235
31
0.0000000000
11
11.1120296181
21
22.0911092837
31
0.0000000000
11
11.1404173492
21
21.9973095399
31
0.0000000000
11
11.1500000000
21
21.8997711479
31
0.0000000000
0
SPLINE
5
30C
100
AcDbEntity
8
0
100
AcDbSpline
62
7
6
CONTINUOUS
70
0
71
3
72
15
73
11
74
9
42
0.0000001000
43
0.0000001000
44
0.0000000001
12
-0.7840504604
22
0.0000000000
32
0.0000000000
13
0.0000000000
23
0.7840504604
33
0.0000000000
40
0.0000000000
40
0.0000000000
40
0.0000000000
40
0.0000000000
40
0.1250026133
40
0.2500082844
40
0.3750136098
40
0.5000160060
40
0.6250106349
40
0.7500042447
40
0.8749978606
40
1.0000000000
40
1.0000000000
40
1.0000000000
40
1.0000000000
10
-10.6503805997
20
-22.4000000000
30
0.0000000000
10
-10.6830500519
20
-22.4000000000
30
0.0000000000
10
-10.7485713718
20
-22.3935477443
30
0.0000000000
10
-10.8429258085
20
-22.3648775487
30
0.0000000000
10
-10.9298988298
20
-22.3183198083
30
0.0000000000
10
-11.0060904776
20
-22.2556749149
30
0.0000000000
10
-11.0685894502
20
-22.1793688070
30
0.0000000000
10
-11.1150041327
20
-22.0923319310
30
0.0000000000
10
-11.1435722551
20
-21.9979572524
30
0.0000000000
10
-11.1500000000
20
-21.9324404763
30
0.0000000000
10
-11.1500000000
20
-21.8997711479
30
0.0000000000
11
-10.6503805997
21
-22.4000000000
31
0.0000000000
11
-10.7479159463
21
-22.3903826137
31
0.0000000000
11
-10.8416956551
21
-22.3618962291
31
0.0000000000
11
-10.9281029540
21
-22.3156378952
31
0.0000000000
11
-11.0038101683
21
-22.2533962508
31
0.0000000000
11
-11.0659091235
21
-22.1775798235
31
0.0000000000
11
-11.1120296181
21
-22.0911092838
31
0.0000000000
11
-11.1404173492
21
-21.9973095400
31
0.0000000000
11
-11.1500000000
21
-21.8997711479
31
0.0000000000
0
SPLINE
5
30D
100
AcDbEntity
8
0
100
AcDbSpline
62
7
6
CONTINUOUS
70
0
71
3
72
15
73
11
74
9
42
0.0000001000
43
0.0000001000
44
0.0000000001
12
0.0000000000
22
0.7840504605
32
0.0000000000
13
0.7840504605
23
0.0000000000
33
0.0000000000
40
0.0000000000
40
0.0000000000
40
0.0000000000
40
0.0000000000
40
0.1250035856
40
0.2500003382
40
0.3749971738
40
0.4999931596
40
0.6249941993
40
0.7499962985
40
0.8749988330
40
1.0000000000
40
1.0000000000
40
1.0000000000
40
1.0000000000
10
-11.1500000000
20
21.8997711479
30
0.0000000000
10
-11.1500000000
20
21.9324408542
30
0.0000000000
10
-11.1435720625
20
21.9979588343
30
0.0000000000
10
-11.1150028885
20
22.0923353736
30
0.0000000000
10
-11.0685863853
20
22.1793736183
30
0.0000000000
10
-11.0060858443
20
22.2556795570
30
0.0000000000
10
-10.9298940235
20
22.3183228818
30
0.0000000000
10
-10.8429223671
20
22.3648787971
30
0.0000000000
10
-10.7485697898
20
22.3935479377
30
0.0000000000
10
-10.6830496739
20
22.4000000000
30
0.0000000000
10
-10.6503805997
20
22.4000000000
30
0.0000000000
11
-11.1500000000
21
21.8997711479
31
0.0000000000
11
-11.1404171274
21
21.9973106575
31
0.0000000000
11
-11.1120282390
21
22.0911126206
31
0.0000000000
11
-11.0659057104
21
22.1775849419
31
0.0000000000
11
-11.0038050670
21
22.2534013616
31
0.0000000000
11
-10.9280978412
21
22.3156413172
31
0.0000000000
11
-10.8416923200
21
22.3618976126
31
0.0000000000
11
-10.7479148288
21
22.3903828363
31
0.0000000000
11
-10.6503805997
21
22.4000000000
31
0.0000000000
0
SPLINE
5
30E
100
AcDbEntity
8
0
100
AcDbSpline
62
9
6
CONTINUOUS
70
0
71
3
72
21
73
17
74
15
42
0.0000001000
43
0.0000001000
44
0.0000000001
12
5.5207862929
22
-0.0005463270
32
0.0000000000
13
-5.5207862855
23
-0.0006163068
33
0.0000000000
40
0.0000000000
40
0.0000000000
40
0.0000000000
40
0.0000000000
40
0.0720197108
40
0.1436667588
40
0.2150001963
40
0.2861552021
40
0.3573110249
40
0.4285712318
40
0.4999540378
40
0.5713312195
40
0.6425800664
40
0.7137305091
40
0.7848940410
40
0.8562536470
40
0.9279381745
40
1.0000000000
40
1.0000000000
40
1.0000000000
40
1.0000000000
10
-0.0000000000
20
7.9607718536
30
0.0000000000
10
0.1325351441
20
7.9607587382
30
0.0000000000
10
0.3978935744
20
7.9306755222
30
0.0000000000
10
0.7740573059
20
7.7980531306
30
0.0000000000
10
1.1100632352
20
7.5858335206
30
0.0000000000
10
1.3898758844
20
7.3049953415
30
0.0000000000
10
1.6004130835
20
6.9692282448
30
0.0000000000
10
1.7313542808
20
6.5947130625
30
0.0000000000
10
1.7758539399
20
6.2000446932
30
0.0000000000
10
1.7314746224
20
5.8053845453
30
0.0000000000
10
1.6006694649
20
5.4308669643
30
0.0000000000
10
1.3902589125
20
5.0950391182
30
0.0000000000
10
1.1105049089
20
4.8140646019
30
0.0000000000
10
0.7744457027
20
4.6016740788
30
0.0000000000
10
0.3981192514
20
4.4689119564
30
0.0000000000
10
0.1326126460
20
4.4387966095
30
0.0000000000
10
-0.0000000000
20
4.4387818054
30
0.0000000000
11
-0.0000000000
21
7.9607718536
31
0.0000000000
11
0.3950638482
21
7.9158871426
31
0.0000000000
11
0.7681267653
21
7.7844249296
31
0.0000000000
11
1.1010791562
21
7.5741054773
31
0.0000000000
11
1.3783506808
21
7.2958301573
31
0.0000000000
11
1.5870371092
21
6.9630086275
31
0.0000000000
11
1.7168782171
21
6.5916400989
31
0.0000000000
11
1.7610320949
21
6.2000321991
31
0.0000000000
11
1.7169987438
21
5.8084419742
31
0.0000000000
11
1.5872992761
21
5.4370903857
31
0.0000000000
11
1.3787458165
21
5.1042205686
31
0.0000000000
11
1.1015376939
21
4.8258156603
31
0.0000000000
11
0.7685246937
21
4.6153216718
31
0.0000000000
11
0.3952918834
21
4.4837190254
31
0.0000000000
11
-0.0000000000
21
4.4387818054
31
0.0000000000
0
SPLINE
5
30F
100
AcDbEntity
8
0
100
AcDbSpline
62
9
6
CONTINUOUS
70
0
71
3
72
21
73
17
74
15
42
0.0000001000
43
0.0000001000
44
0.0000000001
12
-5.5207862935
22
0.0005463356
32
0.0000000000
13
5.5207862861
23
0.0006162318
33
0.0000000000
40
0.0000000000
40
0.0000000000
40
0.0000000000
40
0.0000000000
40
0.0720279682
40
0.1436806764
40
0.2150170411
40
0.2861723963
40
0.3573267132
40
0.4285851145
40
0.4999671471
40
0.5713450953
40
0.6425957688
40
0.7137477417
40
0.7849109498
40
0.8562676640
40
0.9279465321
40
1.0000000000
40
1.0000000000
40
1.0000000000
40
1.0000000000
10
-0.0000000000
20
4.4387818054
30
0.0000000000
10
-0.1325503398
20
4.4387949226
30
0.0000000000
10
-0.3979347164
20
4.4688845679
30
0.0000000000
10
-0.7741237376
20
4.6015307100
30
0.0000000000
10
-1.1101336274
20
4.8137756338
30
0.0000000000
10
-1.3899335263
20
5.0946311955
30
0.0000000000
10
-1.6004503062
20
5.4304044334
30
0.0000000000
10
-1.7313714747
20
5.8049184030
30
0.0000000000
10
-1.7758539488
20
6.1995852495
30
0.0000000000
10
-1.7314574502
20
6.5942469375
30
0.0000000000
10
-1.6006322373
20
6.9687658051
30
0.0000000000
10
-1.3902011647
20
7.3045876123
30
0.0000000000
10
-1.1104342450
20
7.5855448167
30
0.0000000000
10
-0.7743788351
20
7.7979099954
30
0.0000000000
10
-0.3980777381
20
7.9306481998
30
0.0000000000
10
-0.1325972659
20
7.9607570530
30
0.0000000000
10
-0.0000000000
20
7.9607718536
30
0.0000000000
11
-0.0000000000
21
4.4387818054
31
0.0000000000
11
-0.3951085592
21
4.4836768088
31
0.0000000000
11
-0.7681963493
21
4.6151624609
31
0.0000000000
11
-1.1011521966
21
4.8255067002
31
0.0000000000
11
-1.3784101401
21
5.1037982749
31
0.0000000000
11
-1.5870748875
21
5.4366235856
31
0.0000000000
11
-1.7168953810
21
5.8079887609
31
0.0000000000
11
-1.7610321044
21
6.1995942978
31
0.0000000000
11
-1.7169816090
21
6.5911868525
31
0.0000000000
11
-1.5872614875
21
6.9625419088
31
0.0000000000
11
-1.3786862474
21
7.2954080486
31
0.0000000000
11
-1.1014643920
21
7.5737967600
31
0.0000000000
11
-0.7684546197
21
7.7842659730
31
0.0000000000
11
-0.3952466307
21
7.9158450555
31
0.0000000000
11
-0.0000000000
21
7.9607718536
31
0.0000000000
0
SPLINE
5
310
100
AcDbEntity
8
0
100
AcDbSpline
62
9
6
CONTINUOUS
70
0
71
3
72
12
73
8
74
6
42
0.0000001000
43
0.0000001000
44
0.0000000001
12
-0.0007145531
22
-0.7813571046
32
0.0000000000
13
-0.7813571062
23
-0.0007128139
33
0.0000000000
40
0.0000000000
40
0.0000000000
40
0.0000000000
40
0.0000000000
40
0.1998532782
40
0.3997964689
40
0.5998286573
40
0.7999149934
40
1.0000000000
40
1.0000000000
40
1.0000000000
40
1.0000000000
10
11.0087219643
20
-21.4755923698
30
0.0000000000
10
11.0086743624
20
-21.5276446294
30
0.0000000000
10
10.9920025187
20
-21.6324904868
30
0.0000000000
10
10.9197666025
20
-21.7737967765
30
0.0000000000
10
10.8073186645
20
-21.8860938494
30
0.0000000000
10
10.6658521001
20
-21.9582171671
30
0.0000000000
10
10.5609107306
20
-21.9748595961
30
0.0000000000
10
10.5087981167
20
-21.9749071372
30
0.0000000000
11
11.0087219643
21
-21.4755923698
31
0.0000000000
11
10.9841411372
21
-21.6298024308
31
0.0000000000
11
10.9130840750
21
-21.7689347420
31
0.0000000000
11
10.8024983179
21
-21.8793857675
31
0.0000000000
11
10.6631962884
21
-21.9503562578
31
0.0000000000
11
10.5087981167
21
-21.9749071372
31
0.0000000000
0
SPLINE
5
311
100
AcDbEntity
8
0
100
AcDbSpline
62
9
6
CONTINUOUS
70
0
71
3
72
12
73
8
74
6
42
0.0000001000
43
0.0000001000
44
0.0000000001
12
-0.1920144796
22
-0.4628063375
32
0.0000000000
13
-0.5010580120
23
-0.0003673725
33
0.0000000000
40
0.0000000000
40
0.0000000000
40
0.0000000000
40
0.0000000000
40
0.0546111894
40
0.1986060630
40
0.4190293170
40
0.6949404067
40
1.0000000000
40
1.0000000000
40
1.0000000000
40
1.0000000000
10
11.0004589101
20
-20.9972959167
30
0.0000000000
10
10.9969635304
20
-21.0057207182
30
0.0000000000
10
10.9527903228
20
-21.0005049635
30
0.0000000000
10
10.8928006189
20
-21.0137700305
30
0.0000000000
10
10.7809054436
20
-21.0135854735
30
0.0000000000
10
10.6490208276
20
-21.0180273997
30
0.0000000000
10
10.5514859137
20
-21.0182766372
30
0.0000000000
10
10.5005350625
20
-21.0183139940
30
0.0000000000
11
11.0004589101
21
-20.9972959167
31
0.0000000000
11
10.9738608069
21
-21.0037220776
31
0.0000000000
11
10.9019453861
21
-21.0095329760
31
0.0000000000
11
10.7915979997
21
-21.0141722630
31
0.0000000000
11
10.6533835666
21
-21.0171957618
31
0.0000000000
11
10.5005350625
21
-21.0183139940
31
0.0000000000
0
SPLINE
5
312
100
AcDbEntity
8
0
100
AcDbSpline
62
9
6
CONTINUOUS
70
0
71
3
72
13
73
9
74
7
42
0.0000001000
43
0.0000001000
44
0.0000000001
12
0.0003449115
22
-0.9566793721
32
0.0000000000
13
0.1577707732
23
-0.9435803745
33
0.0000000000
40
0.0000000000
40
0.0000000000
40
0.0000000000
40
0.0000000000
40
0.2530310260
40
0.4882997269
40
0.6913336956
40
0.8501745167
40
0.9551752019
40
1.0000000000
40
1.0000000000
40
1.0000000000
40
1.0000000000
10
10.5005350625
20
-21.0183142309
30
0.0000000000
10
10.5005641536
20
-21.0990040853
30
0.0000000000
10
10.5008152485
20
-21.2547151132
30
0.0000000000
10
10.5015012526
20
-21.4751932123
30
0.0000000000
10
10.5030911067
20
-21.6655626178
30
0.0000000000
10
10.5036915785
20
-21.8145717156
30
0.0000000000
10
10.5072303685
20
-21.9127237243
30
0.0000000000
10
10.5064407690
20
-21.9608085373
30
0.0000000000
10
10.5087981167
20
-21.9749071372
30
0.0000000000
11
10.5005350625
21
-21.0183142309
31
0.0000000000
11
10.5008870654
21
-21.2603835538
31
0.0000000000
11
10.5017441538
21
-21.4854586496
31
0.0000000000
11
10.5030519894
21
-21.6796926689
31
0.0000000000
11
10.5047341778
21
-21.8316431047
31
0.0000000000
11
10.5066888073
21
-21.9320760821
31
0.0000000000
11
10.5087981167
21
-21.9749071372
31
0.0000000000
0
SPLINE
5
313
100
AcDbEntity
8
0
100
AcDbSpline
62
9
6
CONTINUOUS
70
0
71
3
72
13
73
9
74
7
42
0.0000001000
43
0.0000001000
44
0.0000000001
12
0.0003487206
22
-0.4784692666
32
0.0000000000
13
0.1517232156
23
-0.4537764059
33
0.0000000000
40
0.0000000000
40
0.0000000000
40
0.0000000000
40
0.0000000000
40
0.2532095848
40
0.4885745110
40
0.6915930751
40
0.8503382364
40
0.9552488215
40
1.0000000000
40
1.0000000000
40
1.0000000000
40
1.0000000000
10
11.0004589101
20
-20.9972959167
30
0.0000000000
10
11.0004883432
20
-21.0376802515
30
0.0000000000
10
11.0007370348
20
-21.1155947072
30
0.0000000000
10
11.0014333213
20
-21.2259272635
30
0.0000000000
10
11.0029961999
20
-21.3210594970
30
0.0000000000
10
11.0036726342
20
-21.3957214398
30
0.0000000000
10
11.0070626603
20
-21.4443888068
30
0.0000000000
10
11.0064587001
20
-21.4688233602
30
0.0000000000
10
11.0087219643
20
-21.4755923698
30
0.0000000000
11
11.0004589101
21
-20.9972959167
31
0.0000000000
11
11.0008114400
21
-21.1184484403
31
0.0000000000
11
11.0016694038
21
-21.2310600856
31
0.0000000000
11
11.0029790226
21
-21.3281894263
31
0.0000000000
11
11.0046627389
21
-21.4041254633
31
0.0000000000
11
11.0066187988
21
-21.4542838409
31
0.0000000000
11
11.0087219643
21
-21.4755923698
31
0.0000000000
0
SPLINE
5
314
100
AcDbEntity
8
0
100
AcDbSpline
62
9
6
CONTINUOUS
70
0
71
3
72
12
73
8
74
6
42
0.0000001000
43
0.0000001000
44
0.0000000001
12
-0.1919554566
22
0.4628308739
32
0.0000000000
13
-0.5010580608
23
0.0003673235
33
0.0000000000
40
0.0000000000
40
0.0000000000
40
0.0000000000
40
0.0000000000
40
0.0546097796
40
0.1986040208
40
0.4190274305
40
0.6949392928
40
1.0000000000
40
1.0000000000
40
1.0000000000
40
1.0000000000
10
11.0004589101
20
20.9972959167
30
0.0000000000
10
10.9969646951
20
21.0057209473
30
0.0000000000
10
10.9527896784
20
21.0005048020
30
0.0000000000
10
10.8928023018
20
21.0137704013
30
0.0000000000
10
10.7809060038
20
21.0135856065
30
0.0000000000
10
10.6490214516
20
21.0180276713
30
0.0000000000
10
10.5514861046
20
21.0182768782
30
0.0000000000
10
10.5005350625
20
21.0183142301
30
0.0000000000
11
11.0004589101
21
20.9972959167
31
0.0000000000
11
10.9738615497
21
21.0037221553
31
0.0000000000
11
10.9019464456
21
21.0095331260
31
0.0000000000
11
10.7915989726
21
21.0141724684
31
0.0000000000
11
10.6533841395
21
21.0171959974
31
0.0000000000
11
10.5005350625
21
21.0183142301
31
0.0000000000
0
SPLINE
5
315
100
AcDbEntity
8
0
100
AcDbSpline
62
9
6
CONTINUOUS
70
0
71
3
72
10
73
6
74
4
42
0.0000001000
43
0.0000001000
44
0.0000000001
12
-0.0308407997
22
-42.0366204979
32
0.0000000000
13
0.0308408119
23
-42.0366204979
33
0.0000000000
40
0.0000000000
40
0.0000000000
40
0.0000000000
40
0.0000000000
40
0.3332896861
40
0.6667103140
40
1.0000000000
40
1.0000000000
40
1.0000000000
40
1.0000000000
10
10.5005350625
20
21.0183142309
30
0.0000000000
10
10.4971087557
20
16.3481902144
30
0.0000000000
10
10.4925427171
20
7.0061055509
30
0.0000000000
10
10.4925427189
20
-7.0061055545
30
0.0000000000
10
10.4971087544
20
-16.3481902162
30
0.0000000000
10
10.5005350625
20
-21.0183142309
30
0.0000000000
11
10.5005350625
21
21.0183142309
31
0.0000000000
11
10.4936846755
21
7.0079400855
31
0.0000000000
11
10.4936846759
21
-7.0079400908
31
0.0000000000
11
10.5005350625
21
-21.0183142309
31
0.0000000000
0
SPLINE
5
316
100
AcDbEntity
8
0
100
AcDbSpline
62
9
6
CONTINUOUS
70
0
71
3
72
10
73
6
74
4
42
0.0000001000
43
0.0000001000
44
0.0000000001
12
-0.0308407996
22
-41.9945838615
32
0.0000000000
13
0.0308408117
23
-41.9945838615
33
0.0000000000
40
0.0000000000
40
0.0000000000
40
0.0000000000
40
0.0000000000
40
0.3332886949
40
0.6667106342
40
1.0000000000
40
1.0000000000
40
1.0000000000
40
1.0000000000
10
11.0004589101
20
20.9972959167
30
0.0000000000
10
10.9970326135
20
16.3318559010
30
0.0000000000
10
10.9924665659
20
6.9991088405
30
0.0000000000
10
10.9924665607
20
-6.9990900570
30
0.0000000000
10
10.9970326052
20
-16.3318465093
30
0.0000000000
10
11.0004589101
20
-20.9972959167
30
0.0000000000
11
11.0004589101
21
20.9972959167
31
0.0000000000
11
10.9936085333
21
7.0009737718
31
0.0000000000
11
10.9936085267
21
-7.0009455965
31
0.0000000000
11
11.0004589101
21
-20.9972959167
31
0.0000000000
0
SPLINE
5
317
100
AcDbEntity
8
0
100
AcDbSpline
62
9
6
CONTINUOUS
70
0
71
3
72
12
73
8
74
6
42
0.0000001000
43
0.0000001000
44
0.0000000001
12
-0.0007145491
22
0.7813571074
32
0.0000000000
13
-0.7813571090
23
0.0007128017
33
0.0000000000
40
0.0000000000
40
0.0000000000
40
0.0000000000
40
0.0000000000
40
0.1998485957
40
0.3997897125
40
0.5998222854
40
0.7999110728
40
1.0000000000
40
1.0000000000
40
1.0000000000
40
1.0000000000
10
11.0087219643
20
21.4755923698
30
0.0000000000
10
11.0086743637
20
21.5276434101
30
0.0000000000
10
10.9920032064
20
21.6324874578
30
0.0000000000
10
10.9197693684
20
21.7737928627
30
0.0000000000
10
10.8073224464
20
21.8860912544
30
0.0000000000
10
10.6658548235
20
21.9582165671
30
0.0000000000
10
10.5609117519
20
21.9748595957
30
0.0000000000
10
10.5087981166
20
21.9749071370
30
0.0000000000
11
11.0087219643
21
21.4755923698
31
0.0000000000
11
10.9841422864
21
21.6297989096
31
0.0000000000
11
10.9130872219
21
21.7689304222
31
0.0000000000
11
10.8025023985
21
21.8793828084
31
0.0000000000
11
10.6631992385
21
21.9503553003
31
0.0000000000
11
10.5087981166
21
21.9749071370
31
0.0000000000
0
SPLINE
5
318
100
AcDbEntity
8
0
100
AcDbSpline
62
9
6
CONTINUOUS
70
0
71
3
72
13
73
9
74
7
42
0.0000001000
43
0.0000001000
44
0.0000000001
12
-0.1577707702
22
-0.9435803750
32
0.0000000000
13
-0.0003449110
23
-0.9566793721
33
0.0000000000
40
0.0000000000
40
0.0000000000
40
0.0000000000
40
0.0000000000
40
0.0448247981
40
0.1498254833
40
0.3086663044
40
0.5117002731
40
0.7469689740
40
1.0000000000
40
1.0000000000
40
1.0000000000
40
1.0000000000
10
10.5087981167
20
21.9749071372
30
0.0000000000
10
10.5064407691
20
21.9608085373
30
0.0000000000
10
10.5072303684
20
21.9127237243
30
0.0000000000
10
10.5036915785
20
21.8145717156
30
0.0000000000
10
10.5030911067
20
21.6655626178
30
0.0000000000
10
10.5015012527
20
21.4751932123
30
0.0000000000
10
10.5008152484
20
21.2547151132
30
0.0000000000
10
10.5005641536
20
21.0990040853
30
0.0000000000
10
10.5005350625
20
21.0183142309
30
0.0000000000
11
10.5087981167
21
21.9749071372
31
0.0000000000
11
10.5066888073
21
21.9320760821
31
0.0000000000
11
10.5047341778
21
21.8316431047
31
0.0000000000
11
10.5030519894
21
21.6796926689
31
0.0000000000
11
10.5017441538
21
21.4854586496
31
0.0000000000
11
10.5008870654
21
21.2603835538
31
0.0000000000
11
10.5005350625
21
21.0183142309
31
0.0000000000
0
SPLINE
5
319
100
AcDbEntity
8
0
100
AcDbSpline
62
9
6
CONTINUOUS
70
0
71
3
72
13
73
9
74
7
42
0.0000001000
43
0.0000001000
44
0.0000000001
12
-0.1517233705
22
-0.4537763541
32
0.0000000000
13
-0.0003487208
23
-0.4784692666
33
0.0000000000
40
0.0000000000
40
0.0000000000
40
0.0000000000
40
0.0000000000
40
0.0447511791
40
0.1496617630
40
0.3084069250
40
0.5114254892
40
0.7467904150
40
1.0000000000
40
1.0000000000
40
1.0000000000
40
1.0000000000
10
11.0087219643
20
21.4755923698
30
0.0000000000
10
11.0064586977
20
21.4688233609
30
0.0000000000
10
11.0070626629
20
21.4443888059
30
0.0000000000
10
11.0036726327
20
21.3957214402
30
0.0000000000
10
11.0029962005
20
21.3210594969
30
0.0000000000
10
11.0014333211
20
21.2259272635
30
0.0000000000
10
11.0007370348
20
21.1155947071
30
0.0000000000
10
11.0004883433
20
21.0376802515
30
0.0000000000
10
11.0004589101
20
20.9972959167
30
0.0000000000
11
11.0087219643
21
21.4755923698
31
0.0000000000
11
11.0066187988
21
21.4542838406
31
0.0000000000
11
11.0046627389
21
21.4041254635
31
0.0000000000
11
11.0029790226
21
21.3281894262
31
0.0000000000
11
11.0016694038
21
21.2310600855
31
0.0000000000
11
11.0008114400
21
21.1184484404
31
0.0000000000
11
11.0004589101
21
20.9972959167
31
0.0000000000
0
SPLINE
5
31A
100
AcDbEntity
8
0
100
AcDbSpline
62
9
6
CONTINUOUS
70
0
71
3
72
21
73
17
74
15
42
0.0000001000
43
0.0000001000
44
0.0000000001
12
-6.4631860491
22
0.0012587349
32
0.0000000000
13
6.4631860162
23
0.0014176283
33
0.0000000000
40
0.0000000000
40
0.0000000000
40
0.0000000000
40
0.0000000000
40
0.0717407247
40
0.1434063388
40
0.2147651013
40
0.2859541471
40
0.3571539625
40
0.4284689061
40
0.4999161539
40
0.5713640090
40
0.6426822308
40
0.7138904473
40
0.7850974580
40
0.8564861723
40
0.9281872146
40
1.0000000000
40
1.0000000000
40
1.0000000000
40
1.0000000000
10
-0.0000000000
20
4.1412779953
30
0.0000000000
10
-0.1545578837
20
4.1413080961
30
0.0000000000
10
-0.4646430630
20
4.1763250525
30
0.0000000000
10
-0.9046245016
20
4.3312083471
30
0.0000000000
10
-1.2982327859
20
4.5795857029
30
0.0000000000
10
-1.6260403162
20
4.9084581626
30
0.0000000000
10
-1.8727302224
20
5.3017479025
30
0.0000000000
10
-2.0261922723
20
5.7405101376
30
0.0000000000
10
-2.0783891712
20
6.2029520722
30
0.0000000000
10
-2.0264360460
20
6.6654287732
30
0.0000000000
10
-1.8731938312
20
7.1042963535
30
0.0000000000
10
-1.6266682204
20
7.4977664061
30
0.0000000000
10
-1.2989234193
20
7.8268764101
30
0.0000000000
10
-0.9052578013
20
8.0755085614
30
0.0000000000
10
-0.4650328717
20
8.2306124565
30
0.0000000000
10
-0.1547131301
20
8.2656859278
30
0.0000000000
10
-0.0000000000
20
8.2657198624
30
0.0000000000
11
-0.0000000000
21
4.1412779953
31
0.0000000000
11
-0.4607277461
21
4.1934623511
31
0.0000000000
11
-0.8976688316
21
4.3471692202
31
0.0000000000
11
-1.2876909380
21
4.5933252237
31
0.0000000000
11
-1.6125250559
21
4.9191813569
31
0.0000000000
11
-1.8570486558
21
5.3090168224
31
0.0000000000
11
-2.0092267849
21
5.7440923143
31
0.0000000000
11
-2.0610202203
21
6.2029553787
31
0.0000000000
11
-2.0094689149
21
6.6618496584
31
0.0000000000
11
-1.8575109126
21
7.0970245248
31
0.0000000000
11
-1.6131550749
21
7.4870292449
31
0.0000000000
11
-1.2883891079
21
7.8131171936
31
0.0000000000
11
-0.8982995668
21
8.0595289887
31
0.0000000000
11
-0.4611847271
21
8.2134318947
31
0.0000000000
11
-0.0000000000
21
8.2657198624
31
0.0000000000
0
SPLINE
5
31B
100
AcDbEntity
8
0
100
AcDbSpline
62
9
6
CONTINUOUS
70
0
71
3
72
21
73
17
74
15
42
0.0000001000
43
0.0000001000
44
0.0000000001
12
6.4631860698
22
-0.0012554545
32
0.0000000000
13
-6.4631860356
23
-0.0014208021
33
0.0000000000
40
0.0000000000
40
0.0000000000
40
0.0000000000
40
0.0000000000
40
0.0717352195
40
0.1433976378
40
0.2147556720
40
0.2859461984
40
0.3571489002
40
0.4284665118
40
0.4999148278
40
0.5713616252
40
0.6426771559
40
0.7138824569
40
0.7850879563
40
0.8564773605
40
0.9281815960
40
1.0000000000
40
1.0000000000
40
1.0000000000
40
1.0000000000
10
-0.0000000000
20
8.2657198624
30
0.0000000000
10
0.1545460238
20
8.2656898423
30
0.0000000000
10
0.4646121855
20
8.2306775941
30
0.0000000000
10
0.9045775436
20
8.0758113050
30
0.0000000000
10
1.2981883248
20
7.8274479807
30
0.0000000000
10
1.6260105933
20
7.4985788291
30
0.0000000000
10
1.8727168475
20
7.1052809133
30
0.0000000000
10
2.0261888989
20
6.6665066194
30
0.0000000000
10
2.0783891686
20
6.2040590868
30
0.0000000000
10
2.0264394078
20
5.7415879865
30
0.0000000000
10
1.8732072257
20
5.3027325539
30
0.0000000000
10
1.6266980994
20
4.9092708088
30
0.0000000000
10
1.2989682454
20
4.5801576019
30
0.0000000000
10
0.9053053530
20
4.3315113575
30
0.0000000000
10
0.4650642384
20
4.1763902781
30
0.0000000000
10
0.1547252353
20
4.1413120085
30
0.0000000000
10
-0.0000000000
20
4.1412779953
30
0.0000000000
11
-0.0000000000
21
8.2657198624
31
0.0000000000
11
0.4606928449
21
8.2135435083
31
0.0000000000
11
0.8976179217
21
8.0598533684
31
0.0000000000
11
1.2876430677
21
7.8137109989
31
0.0000000000
11
1.6124928743
21
7.4878569913
31
0.0000000000
11
1.8570343775
21
7.0980107330
31
0.0000000000
11
2.0092233126
21
6.6629207510
31
0.0000000000
11
2.0610202170
21
6.2040511289
31
0.0000000000
11
2.0094723648
21
5.7451633387
31
0.0000000000
11
1.8575252171
21
5.3100031035
31
0.0000000000
11
1.6131874168
21
4.9200093174
31
0.0000000000
11
1.2884373389
21
4.5939193275
31
0.0000000000
11
0.8983511315
21
4.3474939028
31
0.0000000000
11
0.4612203494
21
4.1935741303
31
0.0000000000
11
-0.0000000000
21
4.1412779953
31
0.0000000000
0
SPLINE
5
31C
100
AcDbEntity
8
0
100
AcDbSpline
62
9
6
CONTINUOUS
70
0
71
3
72
21
73
17
74
15
42
0.0000001000
43
0.0000001000
44
0.0000000001
12
-6.4631860698
22
0.0012554545
32
0.0000000000
13
6.4631860356
23
0.0014208021
33
0.0000000000
40
0.0000000000
40
0.0000000000
40
0.0000000000
40
0.0000000000
40
0.0717352195
40
0.1433976378
40
0.2147556720
40
0.2859461984
40
0.3571489002
40
0.4284665118
40
0.4999148278
40
0.5713616252
40
0.6426771559
40
0.7138824569
40
0.7850879563
40
0.8564773605
40
0.9281815960
40
1.0000000000
40
1.0000000000
40
1.0000000000
40
1.0000000000
10
-0.0000000000
20
-8.2657198624
30
0.0000000000
10
-0.1545460238
20
-8.2656898423
30
0.0000000000
10
-0.4646121855
20
-8.2306775941
30
0.0000000000
10
-0.9045775436
20
-8.0758113051
30
0.0000000000
10
-1.2981883248
20
-7.8274479807
30
0.0000000000
10
-1.6260105932
20
-7.4985788291
30
0.0000000000
10
-1.8727168475
20
-7.1052809133
30
0.0000000000
10
-2.0261888989
20
-6.6665066195
30
0.0000000000
10
-2.0783891686
20
-6.2040590868
30
0.0000000000
10
-2.0264394078
20
-5.7415879866
30
0.0000000000
10
-1.8732072257
20
-5.3027325539
30
0.0000000000
10
-1.6266980994
20
-4.9092708088
30
0.0000000000
10
-1.2989682454
20
-4.5801576019
30
0.0000000000
10
-0.9053053530
20
-4.3315113576
30
0.0000000000
10
-0.4650642384
20
-4.1763902781
30
0.0000000000
10
-0.1547252353
20
-4.1413120086
30
0.0000000000
10
-0.0000000000
20
-4.1412779953
30
0.0000000000
11
-0.0000000000
21
-8.2657198624
31
0.0000000000
11
-0.4606928449
21
-8.2135435083
31
0.0000000000
11
-0.8976179217
21
-8.0598533684
31
0.0000000000
11
-1.2876430677
21
-7.8137109989
31
0.0000000000
11
-1.6124928743
21
-7.4878569913
31
0.0000000000
11
-1.8570343775
21
-7.0980107330
31
0.0000000000
11
-2.0092233126
21
-6.6629207510
31
0.0000000000
11
-2.0610202170
21
-6.2040511289
31
0.0000000000
11
-2.0094723648
21
-5.7451633387
31
0.0000000000
11
-1.8575252171
21
-5.3100031035
31
0.0000000000
11
-1.6131874168
21
-4.9200093174
31
0.0000000000
11
-1.2884373389
21
-4.5939193275
31
0.0000000000
11
-0.8983511315
21
-4.3474939028
31
0.0000000000
11
-0.4612203494
21
-4.1935741303
31
0.0000000000
11
-0.0000000000
21
-4.1412779953
31
0.0000000000
0
SPLINE
5
31D
100
AcDbEntity
8
0
100
AcDbSpline
62
9
6
CONTINUOUS
70
0
71
3
72
21
73
17
74
15
42
0.0000001000
43
0.0000001000
44
0.0000000001
12
6.4631860491
22
-0.0012587349
32
0.0000000000
13
-6.4631860162
23
-0.0014176283
33
0.0000000000
40
0.0000000000
40
0.0000000000
40
0.0000000000
40
0.0000000000
40
0.0717407247
40
0.1434063388
40
0.2147651013
40
0.2859541471
40
0.3571539625
40
0.4284689061
40
0.4999161539
40
0.5713640090
40
0.6426822308
40
0.7138904473
40
0.7850974580
40
0.8564861723
40
0.9281872146
40
1.0000000000
40
1.0000000000
40
1.0000000000
40
1.0000000000
10
-0.0000000000
20
-4.1412779953
30
0.0000000000
10
0.1545578837
20
-4.1413080962
30
0.0000000000
10
0.4646430630
20
-4.1763250525
30
0.0000000000
10
0.9046245016
20
-4.3312083471
30
0.0000000000
10
1.2982327859
20
-4.5795857029
30
0.0000000000
10
1.6260403162
20
-4.9084581626
30
0.0000000000
10
1.8727302224
20
-5.3017479025
30
0.0000000000
10
2.0261922723
20
-5.7405101376
30
0.0000000000
10
2.0783891712
20
-6.2029520722
30
0.0000000000
10
2.0264360460
20
-6.6654287732
30
0.0000000000
10
1.8731938312
20
-7.1042963536
30
0.0000000000
10
1.6266682204
20
-7.4977664061
30
0.0000000000
10
1.2989234193
20
-7.8268764101
30
0.0000000000
10
0.9052578013
20
-8.0755085615
30
0.0000000000
10
0.4650328717
20
-8.2306124565
30
0.0000000000
10
0.1547131301
20
-8.2656859278
30
0.0000000000
10
-0.0000000000
20
-8.2657198624
30
0.0000000000
11
-0.0000000000
21
-4.1412779953
31
0.0000000000
11
0.4607277461
21
-4.1934623511
31
0.0000000000
11
0.8976688316
21
-4.3471692202
31
0.0000000000
11
1.2876909380
21
-4.5933252237
31
0.0000000000
11
1.6125250559
21
-4.9191813569
31
0.0000000000
11
1.8570486558
21
-5.3090168224
31
0.0000000000
11
2.0092267849
21
-5.7440923143
31
0.0000000000
11
2.0610202203
21
-6.2029553787
31
0.0000000000
11
2.0094689149
21
-6.6618496585
31
0.0000000000
11
1.8575109126
21
-7.0970245248
31
0.0000000000
11
1.6131550749
21
-7.4870292449
31
0.0000000000
11
1.2883891079
21
-7.8131171936
31
0.0000000000
11
0.8982995668
21
-8.0595289887
31
0.0000000000
11
0.4611847271
21
-8.2134318947
31
0.0000000000
11
-0.0000000000
21
-8.2657198624
31
0.0000000000
0
SPLINE
5
31E
100
AcDbEntity
8
0
100
AcDbSpline
62
9
6
CONTINUOUS
70
0
71
3
72
21
73
17
74
15
42
0.0000001000
43
0.0000001000
44
0.0000000001
12
5.5207862935
22
-0.0005463356
32
0.0000000000
13
-5.5207862861
23
-0.0006162318
33
0.0000000000
40
0.0000000000
40
0.0000000000
40
0.0000000000
40
0.0000000000
40
0.0720279682
40
0.1436806764
40
0.2150170411
40
0.2861723963
40
0.3573267132
40
0.4285851145
40
0.4999671471
40
0.5713450953
40
0.6425957688
40
0.7137477417
40
0.7849109498
40
0.8562676640
40
0.9279465321
40
1.0000000000
40
1.0000000000
40
1.0000000000
40
1.0000000000
10
-0.0000000000
20
-4.4387818054
30
0.0000000000
10
0.1325503398
20
-4.4387949226
30
0.0000000000
10
0.3979347164
20
-4.4688845679
30
0.0000000000
10
0.7741237376
20
-4.6015307100
30
0.0000000000
10
1.1101336274
20
-4.8137756338
30
0.0000000000
10
1.3899335263
20
-5.0946311955
30
0.0000000000
10
1.6004503062
20
-5.4304044334
30
0.0000000000
10
1.7313714747
20
-5.8049184030
30
0.0000000000
10
1.7758539488
20
-6.1995852496
30
0.0000000000
10
1.7314574502
20
-6.5942469375
30
0.0000000000
10
1.6006322373
20
-6.9687658051
30
0.0000000000
10
1.3902011647
20
-7.3045876123
30
0.0000000000
10
1.1104342450
20
-7.5855448167
30
0.0000000000
10
0.7743788351
20
-7.7979099954
30
0.0000000000
10
0.3980777381
20
-7.9306481998
30
0.0000000000
10
0.1325972659
20
-7.9607570531
30
0.0000000000
10
-0.0000000000
20
-7.9607718536
30
0.0000000000
11
-0.0000000000
21
-4.4387818054
31
0.0000000000
11
0.3951085592
21
-4.4836768088
31
0.0000000000
11
0.7681963493
21
-4.6151624609
31
0.0000000000
11
1.1011521966
21
-4.8255067002
31
0.0000000000
11
1.3784101401
21
-5.1037982749
31
0.0000000000
11
1.5870748875
21
-5.4366235857
31
0.0000000000
11
1.7168953810
21
-5.8079887609
31
0.0000000000
11
1.7610321044
21
-6.1995942978
31
0.0000000000
11
1.7169816090
21
-6.5911868525
31
0.0000000000
11
1.5872614875
21
-6.9625419088
31
0.0000000000
11
1.3786862474
21
-7.2954080486
31
0.0000000000
11
1.1014643920
21
-7.5737967601
31
0.0000000000
11
0.7684546197
21
-7.7842659730
31
0.0000000000
11
0.3952466307
21
-7.9158450555
31
0.0000000000
11
-0.0000000000
21
-7.9607718536
31
0.0000000000
0
SPLINE
5
31F
100
AcDbEntity
8
0
100
AcDbSpline
62
9
6
CONTINUOUS
70
0
71
3
72
12
73
8
74
6
42
0.0000001000
43
0.0000001000
44
0.0000000001
12
-0.7813571062
22
0.0007128138
32
0.0000000000
13
-0.0007145531
23
0.7813571046
33
0.0000000000
40
0.0000000000
40
0.0000000000
40
0.0000000000
40
0.0000000000
40
0.2000850064
40
0.4001713425
40
0.6002035309
40
0.8001467217
40
1.0000000000
40
1.0000000000
40
1.0000000000
40
1.0000000000
10
-10.5087981167
20
-21.9749071372
30
0.0000000000
10
-10.5609107306
20
-21.9748595961
30
0.0000000000
10
-10.6658521000
20
-21.9582171671
30
0.0000000000
10
-10.8073186644
20
-21.8860938495
30
0.0000000000
10
-10.9197666024
20
-21.7737967766
30
0.0000000000
10
-10.9920025187
20
-21.6324904868
30
0.0000000000
10
-11.0086743624
20
-21.5276446295
30
0.0000000000
10
-11.0087219643
20
-21.4755923698
30
0.0000000000
11
-10.5087981167
21
-21.9749071372
31
0.0000000000
11
-10.6631962883
21
-21.9503562579
31
0.0000000000
11
-10.8024983178
21
-21.8793857676
31
0.0000000000
11
-10.9130840749
21
-21.7689347421
31
0.0000000000
11
-10.9841411372
21
-21.6298024308
31
0.0000000000
11
-11.0087219643
21
-21.4755923698
31
0.0000000000
0
SPLINE
5
320
100
AcDbEntity
8
0
100
AcDbSpline
62
9
6
CONTINUOUS
70
0
71
3
72
12
73
8
74
6
42
0.0000001000
43
0.0000001000
44
0.0000000001
12
-0.5010578743
22
0.0003674018
32
0.0000000000
13
-0.1921898260
23
0.4627333997
33
0.0000000000
40
0.0000000000
40
0.0000000000
40
0.0000000000
40
0.0000000000
40
0.3050562610
40
0.5809650378
40
0.8013878226
40
0.9453845855
40
1.0000000000
40
1.0000000000
40
1.0000000000
40
1.0000000000
10
-10.5005350626
20
-21.0183132877
30
0.0000000000
10
-10.5514853431
20
-21.0182759283
30
0.0000000000
10
-10.6490189648
20
-21.0180266176
30
0.0000000000
10
-10.7809037669
20
-21.0135851280
30
0.0000000000
10
-10.8927956002
20
-21.0137689630
30
0.0000000000
10
-10.9527922360
20
-21.0005055030
30
0.0000000000
10
-10.9969600676
20
-21.0057200422
30
0.0000000000
10
-11.0004589100
20
-20.9972959167
30
0.0000000000
11
-10.5005350626
21
-21.0183132877
31
0.0000000000
11
-10.6533818551
21
-21.0171950877
31
0.0000000000
11
-10.7915950934
21
-21.0141716957
31
0.0000000000
11
-10.9019422211
21
-21.0095325749
31
0.0000000000
11
-10.9738585879
21
-21.0037218762
31
0.0000000000
11
-11.0004589100
21
-20.9972959167
31
0.0000000000
0
SPLINE
5
321
100
AcDbEntity
8
0
100
AcDbSpline
62
9
6
CONTINUOUS
70
0
71
3
72
13
73
9
74
7
42
0.0000001000
43
0.0000001000
44
0.0000000001
12
-0.0003498847
22
-0.4784692214
32
0.0000000000
13
-0.1518282341
23
-0.4537412319
33
0.0000000000
40
0.0000000000
40
0.0000000000
40
0.0000000000
40
0.0000000000
40
0.2524796480
40
0.4878694598
40
0.6911230573
40
0.8500379483
40
0.9551279064
40
1.0000000000
40
1.0000000000
40
1.0000000000
40
1.0000000000
10
-11.0004589101
20
-20.9972959167
30
0.0000000000
10
-11.0004883564
20
-21.0375638302
30
0.0000000000
10
-11.0007361325
20
-21.1153658418
30
0.0000000000
10
-11.0014301293
20
-21.2256234781
30
0.0000000000
10
-11.0029931514
20
-21.3208239671
30
0.0000000000
10
-11.0036664885
20
-21.3955798757
30
0.0000000000
10
-11.0070644460
20
-21.4443203351
30
0.0000000000
10
-11.0064510140
20
-21.4688055968
30
0.0000000000
10
-11.0087219643
20
-21.4755923698
30
0.0000000000
11
-11.0004589101
21
-20.9972959167
31
0.0000000000
11
-11.0008096574
21
-21.1180991804
31
0.0000000000
11
-11.0016659628
21
-21.2307227352
31
0.0000000000
11
-11.0029751375
21
-21.3279645394
31
0.0000000000
11
-11.0046585314
21
-21.4039818068
31
0.0000000000
11
-11.0066154888
21
-21.4542260345
31
0.0000000000
11
-11.0087219643
21
-21.4755923698
31
0.0000000000
0
SPLINE
5
322
100
AcDbEntity
8
0
100
AcDbSpline
62
9
6
CONTINUOUS
70
0
71
3
72
13
73
9
74
7
42
0.0000001000
43
0.0000001000
44
0.0000000001
12
-0.0003490200
22
-0.9566793822
32
0.0000000000
13
-0.1577378176
23
-0.9435858960
33
0.0000000000
40
0.0000000000
40
0.0000000000
40
0.0000000000
40
0.0000000000
40
0.2530647362
40
0.4882809639
40
0.6913718813
40
0.8501738568
40
0.9551791592
40
1.0000000000
40
1.0000000000
40
1.0000000000
40
1.0000000000
10
-10.5005350625
20
-21.0183142309
30
0.0000000000
10
-10.5005645041
20
-21.0990148361
30
0.0000000000
10
-10.5008152537
20
-21.2547198844
30
0.0000000000
10
-10.5015010823
20
-21.4752101535
30
0.0000000000
10
-10.5030908202
20
-21.6655686219
30
0.0000000000
10
-10.5036916603
20
-21.8145848800
30
0.0000000000
10
-10.5072295650
20
-21.9127248768
30
0.0000000000
10
-10.5064414695
20
-21.9608096995
30
0.0000000000
10
-10.5087981167
20
-21.9749071372
30
0.0000000000
11
-10.5005350625
21
-21.0183142309
31
0.0000000000
11
-10.5008871715
21
-21.2604158065
31
0.0000000000
11
-10.5017438025
21
-21.4854407064
31
0.0000000000
11
-10.5030519635
21
-21.6797292088
31
0.0000000000
11
-10.5047336849
21
-21.8316424864
31
0.0000000000
11
-10.5066887591
21
-21.9320798744
31
0.0000000000
11
-10.5087981167
21
-21.9749071372
31
0.0000000000
0
SPLINE
5
323
100
AcDbEntity
8
0
100
AcDbSpline
62
9
6
CONTINUOUS
70
0
71
3
72
12
73
8
74
6
42
0.0000001000
43
0.0000001000
44
0.0000000001
12
-0.5010580609
22
-0.0003673192
32
0.0000000000
13
-0.1919553163
23
-0.4628309323
33
0.0000000000
40
0.0000000000
40
0.0000000000
40
0.0000000000
40
0.0000000000
40
0.3050607102
40
0.5809725745
40
0.8013959844
40
0.9453902239
40
1.0000000000
40
1.0000000000
40
1.0000000000
40
1.0000000000
10
-10.5005350625
20
21.0183142305
30
0.0000000000
10
-10.5514861052
20
21.0182768789
30
0.0000000000
10
-10.6490214532
20
21.0180276728
30
0.0000000000
10
-10.7809060054
20
21.0135856071
30
0.0000000000
10
-10.8928023060
20
21.0137704023
30
0.0000000000
10
-10.9527896770
20
21.0005048015
30
0.0000000000
10
-10.9969646978
20
21.0057209479
30
0.0000000000
10
-11.0004589101
20
20.9972959167
30
0.0000000000
11
-10.5005350625
21
21.0183142305
31
0.0000000000
11
-10.6533841411
21
21.0171959985
31
0.0000000000
11
-10.7915989752
21
21.0141724692
31
0.0000000000
11
-10.9019464483
21
21.0095331264
31
0.0000000000
11
-10.9738615515
21
21.0037221554
31
0.0000000000
11
-11.0004589101
21
20.9972959167
31
0.0000000000
0
SPLINE
5
324
100
AcDbEntity
8
0
100
AcDbSpline
62
9
6
CONTINUOUS
70
0
71
3
72
10
73
6
74
4
42
0.0000001000
43
0.0000001000
44
0.0000000001
12
0.0308408131
22
-41.9945838615
32
0.0000000000
13
-0.0308408106
23
-41.9945838615
33
0.0000000000
40
0.0000000000
40
0.0000000000
40
0.0000000000
40
0.0000000000
40
0.3332892101
40
0.6667109287
40
1.0000000000
40
1.0000000000
40
1.0000000000
40
1.0000000000
10
-11.0004589101
20
20.9972959167
30
0.0000000000
10
-10.9970326067
20
16.3318486893
30
0.0000000000
10
-10.9924665635
20
6.9990975058
30
0.0000000000
10
-10.9924665646
20
-6.9991013917
30
0.0000000000
10
-10.9970326084
20
-16.3318506322
30
0.0000000000
10
-11.0004589101
20
-20.9972959167
30
0.0000000000
11
-11.0004589101
21
20.9972959167
31
0.0000000000
11
-10.9936085283
21
7.0009521365
31
0.0000000000
11
-10.9936085296
21
-7.0009579653
31
0.0000000000
11
-11.0004589101
21
-20.9972959167
31
0.0000000000
0
SPLINE
5
325
100
AcDbEntity
8
0
100
AcDbSpline
62
9
6
CONTINUOUS
70
0
71
3
72
10
73
6
74
4
42
0.0000001000
43
0.0000001000
44
0.0000000001
12
0.0308408133
22
-42.0366204979
32
0.0000000000
13
-0.0308408108
23
-42.0366204979
33
0.0000000000
40
0.0000000000
40
0.0000000000
40
0.0000000000
40
0.0000000000
40
0.3332896860
40
0.6667103140
40
1.0000000000
40
1.0000000000
40
1.0000000000
40
1.0000000000
10
-10.5005350625
20
21.0183142309
30
0.0000000000
10
-10.4971087542
20
16.3481902156
30
0.0000000000
10
-10.4925427185
20
7.0061055531
30
0.0000000000
10
-10.4925427181
20
-7.0061055523
30
0.0000000000
10
-10.4971087545
20
-16.3481902153
30
0.0000000000
10
-10.5005350625
20
-21.0183142309
30
0.0000000000
11
-10.5005350625
21
21.0183142309
31
0.0000000000
11
-10.4936846758
21
7.0079400892
31
0.0000000000
11
-10.4936846757
21
-7.0079400882
31
0.0000000000
11
-10.5005350625
21
-21.0183142309
31
0.0000000000
0
SPLINE
5
326
100
AcDbEntity
8
0
100
AcDbSpline
62
9
6
CONTINUOUS
70
0
71
3
72
12
73
8
74
6
42
0.0000001000
43
0.0000001000
44
0.0000000001
12
-0.7813571085
22
-0.0007128051
32
0.0000000000
13
-0.0007145497
23
-0.7813571069
33
0.0000000000
40
0.0000000000
40
0.0000000000
40
0.0000000000
40
0.0000000000
40
0.2000879484
40
0.4001761228
40
0.6002085985
40
0.8001502331
40
1.0000000000
40
1.0000000000
40
1.0000000000
40
1.0000000000
10
-10.5087981167
20
21.9749071372
30
0.0000000000
10
-10.5609114970
20
21.9748595960
30
0.0000000000
10
-10.6658541434
20
21.9582167170
30
0.0000000000
10
-10.8073215017
20
21.8860919029
30
0.0000000000
10
-10.9197686772
20
21.7737938411
30
0.0000000000
10
-10.9920030345
20
21.6324882152
30
0.0000000000
10
-11.0086743634
20
21.5276437150
30
0.0000000000
10
-11.0087219643
20
21.4755923698
30
0.0000000000
11
-10.5087981167
21
21.9749071372
31
0.0000000000
11
-10.6631985021
21
21.9503555394
31
0.0000000000
11
-10.8025013793
21
21.8793835478
31
0.0000000000
11
-10.9130864355
21
21.7689315022
31
0.0000000000
11
-10.9841419991
21
21.6297997904
31
0.0000000000
11
-11.0087219643
21
21.4755923698
31
0.0000000000
0
SPLINE
5
327
100
AcDbEntity
8
0
100
AcDbSpline
62
9
6
CONTINUOUS
70
0
71
3
72
21
73
17
74
15
42
0.0000001000
43
0.0000001000
44
0.0000000001
12
-5.5207862929
22
0.0005463270
32
0.0000000000
13
5.5207862855
23
0.0006163068
33
0.0000000000
40
0.0000000000
40
0.0000000000
40
0.0000000000
40
0.0000000000
40
0.0720197108
40
0.1436667588
40
0.2150001963
40
0.2861552021
40
0.3573110249
40
0.4285712318
40
0.4999540378
40
0.5713312195
40
0.6425800664
40
0.7137305091
40
0.7848940410
40
0.8562536470
40
0.9279381745
40
1.0000000000
40
1.0000000000
40
1.0000000000
40
1.0000000000
10
-0.0000000000
20
-7.9607718536
30
0.0000000000
10
-0.1325351441
20
-7.9607587382
30
0.0000000000
10
-0.3978935744
20
-7.9306755222
30
0.0000000000
10
-0.7740573059
20
-7.7980531307
30
0.0000000000
10
-1.1100632352
20
-7.5858335206
30
0.0000000000
10
-1.3898758844
20
-7.3049953415
30
0.0000000000
10
-1.6004130835
20
-6.9692282448
30
0.0000000000
10
-1.7313542808
20
-6.5947130625
30
0.0000000000
10
-1.7758539399
20
-6.2000446932
30
0.0000000000
10
-1.7314746224
20
-5.8053845453
30
0.0000000000
10
-1.6006694649
20
-5.4308669643
30
0.0000000000
10
-1.3902589125
20
-5.0950391182
30
0.0000000000
10
-1.1105049089
20
-4.8140646019
30
0.0000000000
10
-0.7744457027
20
-4.6016740788
30
0.0000000000
10
-0.3981192514
20
-4.4689119564
30
0.0000000000
10
-0.1326126460
20
-4.4387966095
30
0.0000000000
10
-0.0000000000
20
-4.4387818054
30
0.0000000000
11
-0.0000000000
21
-7.9607718536
31
0.0000000000
11
-0.3950638482
21
-7.9158871426
31
0.0000000000
11
-0.7681267653
21
-7.7844249296
31
0.0000000000
11
-1.1010791562
21
-7.5741054773
31
0.0000000000
11
-1.3783506808
21
-7.2958301573
31
0.0000000000
11
-1.5870371092
21
-6.9630086275
31
0.0000000000
11
-1.7168782171
21
-6.5916400989
31
0.0000000000
11
-1.7610320949
21
-6.2000321991
31
0.0000000000
11
-1.7169987438
21
-5.8084419742
31
0.0000000000
11
-1.5872992761
21
-5.4370903857
31
0.0000000000
11
-1.3787458165
21
-5.1042205686
31
0.0000000000
11
-1.1015376939
21
-4.8258156603
31
0.0000000000
11
-0.7685246937
21
-4.6153216718
31
0.0000000000
11
-0.3952918834
21
-4.4837190255
31
0.0000000000
11
-0.0000000000
21
-4.4387818054
31
0.0000000000
0
SPLINE
5
328
100
AcDbEntity
8
0
100
AcDbSpline
62
9
6
CONTINUOUS
70
0
71
3
72
13
73
9
74
7
42
0.0000001000
43
0.0000001000
44
0.0000000001
12
0.1577378029
22
-0.9435858985
32
0.0000000000
13
0.0003490202
23
-0.9566793822
33
0.0000000000
40
0.0000000000
40
0.0000000000
40
0.0000000000
40
0.0000000000
40
0.0448208408
40
0.1498261432
40
0.3086281187
40
0.5117190361
40
0.7469352638
40
1.0000000000
40
1.0000000000
40
1.0000000000
40
1.0000000000
10
-10.5087981167
20
21.9749071372
30
0.0000000000
10
-10.5064414697
20
21.9608096994
30
0.0000000000
10
-10.5072295647
20
21.9127248768
30
0.0000000000
10
-10.5036916604
20
21.8145848799
30
0.0000000000
10
-10.5030908201
20
21.6655686219
30
0.0000000000
10
-10.5015010824
20
21.4752101535
30
0.0000000000
10
-10.5008152536
20
21.2547198844
30
0.0000000000
10
-10.5005645041
20
21.0990148361
30
0.0000000000
10
-10.5005350625
20
21.0183142309
30
0.0000000000
11
-10.5087981167
21
21.9749071372
31
0.0000000000
11
-10.5066887591
21
21.9320798744
31
0.0000000000
11
-10.5047336849
21
21.8316424864
31
0.0000000000
11
-10.5030519635
21
21.6797292088
31
0.0000000000
11
-10.5017438026
21
21.4854407064
31
0.0000000000
11
-10.5008871714
21
21.2604158064
31
0.0000000000
11
-10.5005350625
21
21.0183142309
31
0.0000000000
0
SPLINE
5
329
100
AcDbEntity
8
0
100
AcDbSpline
62
9
6
CONTINUOUS
70
0
71
3
72
13
73
9
74
7
42
0.0000001000
43
0.0000001000
44
0.0000000001
12
0.1518283440
22
-0.4537411951
32
0.0000000000
13
0.0003498850
23
-0.4784692214
33
0.0000000000
40
0.0000000000
40
0.0000000000
40
0.0000000000
40
0.0000000000
40
0.0448720941
40
0.1499620513
40
0.3088769427
40
0.5121305404
40
0.7475203519
40
1.0000000000
40
1.0000000000
40
1.0000000000
40
1.0000000000
10
-11.0087219643
20
21.4755923698
30
0.0000000000
10
-11.0064510124
20
21.4688055973
30
0.0000000000
10
-11.0070644478
20
21.4443203345
30
0.0000000000
10
-11.0036664875
20
21.3955798760
30
0.0000000000
10
-11.0029931518
20
21.3208239670
30
0.0000000000
10
-11.0014301292
20
21.2256234781
30
0.0000000000
10
-11.0007361325
20
21.1153658418
30
0.0000000000
10
-11.0004883564
20
21.0375638302
30
0.0000000000
10
-11.0004589101
20
20.9972959167
30
0.0000000000
11
-11.0087219643
21
21.4755923698
31
0.0000000000
11
-11.0066154888
21
21.4542260342
31
0.0000000000
11
-11.0046585314
21
21.4039818070
31
0.0000000000
11
-11.0029751375
21
21.3279645393
31
0.0000000000
11
-11.0016659628
21
21.2307227350
31
0.0000000000
11
-11.0008096574
21
21.1180991804
31
0.0000000000
11
-11.0004589101
21
20.9972959167
31
0.0000000000
0
SPLINE
5
32A
100
AcDbEntity
8
0
100
AcDbSpline
62
9
6
CONTINUOUS
70
0
71
3
72
12
73
8
74
6
42
0.0000001000
43
0.0000001000
44
0.0000000001
12
-0.0261472363
22
-0.4990710015
32
0.0000000000
13
0.4990705852
23
-0.0261551811
33
0.0000000000
40
0.0000000000
40
0.0000000000
40
0.0000000000
40
0.0000000000
40
0.3089507471
40
0.5876147125
40
0.8087596427
40
0.9507934516
40
1.0000000000
40
1.0000000000
40
1.0000000000
40
1.0000000000
10
-53.4768993538
20
-21.4755923698
30
0.0000000000
10
-53.4795920898
20
-21.5269884894
30
0.0000000000
10
-53.4852483378
20
-21.6256547081
30
0.0000000000
10
-53.4881152632
20
-21.7567844814
30
0.0000000000
10
-53.4998270824
20
-21.8725184815
30
0.0000000000
10
-53.4864996574
20
-21.9242228489
30
0.0000000000
10
-53.5025269756
20
-21.9744781352
30
0.0000000000
10
-53.4943411287
20
-21.9749071372
30
0.0000000000
11
-53.4768993538
21
-21.4755923698
31
0.0000000000
11
-53.4845521008
21
-21.6298024308
31
0.0000000000
11
-53.4906034112
21
-21.7689347420
31
0.0000000000
11
-53.4944616233
21
-21.8793857675
31
0.0000000000
11
-53.4957495038
21
-21.9503562578
31
0.0000000000
11
-53.4943411287
21
-21.9749071372
31
0.0000000000
0
SPLINE
5
32B
100
AcDbEntity
8
0
100
AcDbSpline
62
9
6
CONTINUOUS
70
0
71
3
72
13
73
9
74
7
42
0.0000001000
43
0.0000001000
44
0.0000000001
12
0.0307181302
22
-0.7356863949
32
0.0000000000
13
0.7353260943
23
-0.0383876317
33
0.0000000000
40
0.0000000000
40
0.0000000000
40
0.0000000000
40
0.0000000000
40
0.1668067509
40
0.3336773015
40
0.5003595086
40
0.6670832671
40
0.8338239861
40
1.0000000000
40
1.0000000000
40
1.0000000000
40
1.0000000000
10
-53.9502894108
20
-20.9972959167
30
0.0000000000
10
-53.9485814136
20
-21.0382017358
30
0.0000000000
10
-53.9349552377
20
-21.1199569644
30
0.0000000000
10
-53.8853311770
20
-21.2335934974
30
0.0000000000
10
-53.8095143552
20
-21.3317731280
30
0.0000000000
10
-53.7120598549
20
-21.4084670284
30
0.0000000000
10
-53.5990541835
20
-21.4590758260
30
0.0000000000
10
-53.5176305402
20
-21.4734660020
30
0.0000000000
10
-53.4768993538
20
-21.4755923698
30
0.0000000000
11
-53.9502894108
21
-20.9972959167
31
0.0000000000
11
-53.9300929852
21
-21.1184484403
31
0.0000000000
11
-53.8809402729
21
-21.2310600856
31
0.0000000000
11
-53.8059122652
21
-21.3281894263
31
0.0000000000
11
-53.7094522210
21
-21.4041254633
31
0.0000000000
11
-53.5973896251
21
-21.4542838409
31
0.0000000000
11
-53.4768993538
21
-21.4755923698
31
0.0000000000
0
SPLINE
5
32C
100
AcDbEntity
8
0
100
AcDbSpline
62
9
6
CONTINUOUS
70
0
71
3
72
13
73
9
74
7
42
0.0000001000
43
0.0000001000
44
0.0000000001
12
-0.7353260965
22
-0.0383875882
32
0.0000000000
13
-0.0307181493
23
-0.7356863941
33
0.0000000000
40
0.0000000000
40
0.0000000000
40
0.0000000000
40
0.0000000000
40
0.1661760139
40
0.3329167328
40
0.4996404914
40
0.6663226984
40
0.8331932491
40
1.0000000000
40
1.0000000000
40
1.0000000000
40
1.0000000000
10
-53.4768993538
20
21.4755923698
30
0.0000000000
10
-53.5176305403
20
21.4734660044
30
0.0000000000
10
-53.5990541833
20
21.4590758242
30
0.0000000000
10
-53.7120598552
20
21.4084670293
30
0.0000000000
10
-53.8095143552
20
21.3317731277
30
0.0000000000
10
-53.8853311765
20
21.2335934973
30
0.0000000000
10
-53.9349552386
20
21.1199569645
30
0.0000000000
10
-53.9485814126
20
21.0382017357
30
0.0000000000
10
-53.9502894108
20
20.9972959167
30
0.0000000000
11
-53.4768993538
21
21.4755923698
31
0.0000000000
11
-53.5973896250
21
21.4542838406
31
0.0000000000
11
-53.7094522211
21
21.4041254635
31
0.0000000000
11
-53.8059122652
21
21.3281894262
31
0.0000000000
11
-53.8809402727
21
21.2310600855
31
0.0000000000
11
-53.9300929854
21
21.1184484404
31
0.0000000000
11
-53.9502894108
21
20.9972959167
31
0.0000000000
0
SPLINE
5
32D
100
AcDbEntity
8
0
100
AcDbSpline
62
9
6
CONTINUOUS
70
0
71
3
72
12
73
8
74
6
42
0.0000001000
43
0.0000001000
44
0.0000000001
12
-0.0261470918
22
0.4990710030
32
0.0000000000
13
0.4990705792
23
0.0261551808
33
0.0000000000
40
0.0000000000
40
0.0000000000
40
0.0000000000
40
0.0000000000
40
0.3089436939
40
0.5876060637
40
0.8087537240
40
0.9507915428
40
1.0000000000
40
1.0000000000
40
1.0000000000
40
1.0000000000
10
-53.4768993538
20
21.4755923698
30
0.0000000000
10
-53.4795920135
20
21.5269873162
30
0.0000000000
10
-53.4852481486
20
21.6256520607
30
0.0000000000
10
-53.4881150703
20
21.7567809177
30
0.0000000000
10
-53.4998270453
20
21.8725158007
30
0.0000000000
10
-53.4864992475
20
21.9242212339
30
0.0000000000
10
-53.5025272977
20
21.9744781183
30
0.0000000000
10
-53.4943411333
20
21.9749071370
30
0.0000000000
11
-53.4768993538
21
21.4755923698
31
0.0000000000
11
-53.4845518999
21
21.6297989096
31
0.0000000000
11
-53.4906031845
21
21.7689304222
31
0.0000000000
11
-53.4944614853
21
21.8793828084
31
0.0000000000
11
-53.4957494715
21
21.9503553003
31
0.0000000000
11
-53.4943411333
21
21.9749071370
31
0.0000000000
0
SPLINE
5
32E
100
AcDbEntity
8
0
100
AcDbSpline
62
9
6
CONTINUOUS
70
0
71
3
72
10
73
6
74
4
42
0.0000001000
43
0.0000001000
44
0.0000000001
12
-1.7657692813
22
-41.9684644010
32
0.0000000000
13
1.7657699770
23
-41.9684643717
33
0.0000000000
40
0.0000000000
40
0.0000000000
40
0.0000000000
40
0.0000000000
40
0.3333323477
40
0.6666669816
40
1.0000000000
40
1.0000000000
40
1.0000000000
40
1.0000000000
10
-53.9502894108
20
20.9972959167
30
0.0000000000
10
-54.1464854175
20
16.3341469940
30
0.0000000000
10
-54.4081683767
20
7.0017671651
30
0.0000000000
10
-54.4081686733
20
-7.0017483769
30
0.0000000000
10
-54.1464858895
20
-16.3341376140
30
0.0000000000
10
-53.9502894108
20
-20.9972959167
30
0.0000000000
11
-53.9502894108
21
20.9972959167
31
0.0000000000
11
-54.3427472376
21
7.0009737718
31
0.0000000000
11
-54.3427476109
21
-7.0009455965
31
0.0000000000
11
-53.9502894108
21
-20.9972959167
31
0.0000000000
0
SPLINE
5
32F
100
AcDbEntity
8
0
100
AcDbSpline
62
7
6
CONTINUOUS
70
0
71
3
72
10
73
6
74
4
42
0.0000001000
43
0.0000001000
44
0.0000000001
12
-4.0000360299
22
-0.0287443498
32
0.0000000000
13
-3.9999639243
23
-0.0374577365
33
0.0000000000
40
0.0000000000
40
0.0000000000
40
0.0000000000
40
0.0000000000
40
0.3303029973
40
0.6636439357
40
1.0000000000
40
1.0000000000
40
1.0000000000
40
1.0000000000
10
-41.3830861088
20
-22.6298666026
30
0.0000000000
10
-41.8234940721
20
-22.6330313843
30
0.0000000000
10
-42.7083580198
20
-22.6397571456
30
0.0000000000
10
-44.0416913965
20
-22.6508921323
30
0.0000000000
10
-44.9346154011
20
-22.6589669097
30
0.0000000000
10
-45.3830861088
20
-22.6631666220
30
0.0000000000
11
-41.3830861088
21
-22.6298666026
31
0.0000000000
11
-42.7043060847
21
-22.6398908175
31
0.0000000000
11
-44.0376699002
21
-22.6510115990
31
0.0000000000
11
-45.3830861088
21
-22.6631666220
31
0.0000000000
0
SPLINE
5
330
100
AcDbEntity
8
0
100
AcDbSpline
62
7
6
CONTINUOUS
70
0
71
3
72
10
73
6
74
4
42
0.0000001000
43
0.0000001000
44
0.0000000001
12
-4.0000360299
22
0.0287443498
32
0.0000000000
13
-3.9999639243
23
0.0374577365
33
0.0000000000
40
0.0000000000
40
0.0000000000
40
0.0000000000
40
0.0000000000
40
0.3303029973
40
0.6636439357
40
1.0000000000
40
1.0000000000
40
1.0000000000
40
1.0000000000
10
-41.3830861088
20
22.6298666026
30
0.0000000000
10
-41.8234940721
20
22.6330313843
30
0.0000000000
10
-42.7083580198
20
22.6397571456
30
0.0000000000
10
-44.0416913965
20
22.6508921323
30
0.0000000000
10
-44.9346154011
20
22.6589669097
30
0.0000000000
10
-45.3830861088
20
22.6631666220
30
0.0000000000
11
-41.3830861088
21
22.6298666026
31
0.0000000000
11
-42.7043060847
21
22.6398908175
31
0.0000000000
11
-44.0376699002
21
22.6510115990
31
0.0000000000
11
-45.3830861088
21
22.6631666220
31
0.0000000000
0
SPLINE
5
331
100
AcDbEntity
8
0
100
AcDbSpline
62
9
6
CONTINUOUS
70
0
71
3
72
9
73
5
74
3
42
0.0000001000
43
0.0000001000
44
0.0000000001
12
2.3393605194
22
-2.3815455439
32
0.0000000000
13
2.3393042414
23
-2.3816008236
33
0.0000000000
40
0.0000000000
40
0.0000000000
40
0.0000000000
40
0.0000000000
40
0.4817366000
40
1.0000000000
40
1.0000000000
40
1.0000000000
40
1.0000000000
10
-37.5348967743
20
21.1328296073
30
0.0000000000
10
-37.1592449134
20
20.7504037229
30
0.0000000000
10
-36.3796392044
20
19.9563773053
30
0.0000000000
10
-35.5998055057
20
19.1625748130
30
0.0000000000
10
-35.1956802491
20
18.7511426329
30
0.0000000000
11
-37.5348967743
21
21.1328296073
31
0.0000000000
11
-36.4080627966
21
19.9854325159
31
0.0000000000
11
-35.1956802491
21
18.7511426329
31
0.0000000000
0
SPLINE
5
332
100
AcDbEntity
8
0
100
AcDbSpline
62
9
6
CONTINUOUS
70
0
71
3
72
11
73
7
74
5
42
0.0000001000
43
0.0000001000
44
0.0000000001
12
0.0087242968
22
-0.4999669137
32
0.0000000000
13
-0.4999668673
23
-0.0087269541
33
0.0000000000
40
0.0000000000
40
0.0000000000
40
0.0000000000
40
0.0000000000
40
0.3825592777
40
0.7068734192
40
0.9236228949
40
1.0000000000
40
1.0000000000
40
1.0000000000
40
1.0000000000
10
-34.2131326555
20
-15.1803877856
30
0.0000000000
10
-34.2120201353
20
-15.2441434461
30
0.0000000000
10
-34.2136165889
20
-15.3581541865
30
0.0000000000
10
-34.2010290737
20
-15.5254891752
30
0.0000000000
10
-34.2242396840
20
-15.6019583444
30
0.0000000000
10
-34.2004039815
20
-15.6800894534
30
0.0000000000
10
-34.2131326555
20
-15.6803116332
30
0.0000000000
11
-34.2131326555
21
-15.1803877856
31
0.0000000000
11
-34.2104589012
21
-15.3716651980
31
0.0000000000
11
-34.2095200228
21
-15.5338335050
31
0.0000000000
11
-34.2104589012
21
-15.6422135022
31
0.0000000000
11
-34.2131326555
21
-15.6803116332
31
0.0000000000
0
SPLINE
5
333
100
AcDbEntity
8
0
100
AcDbSpline
62
9
6
CONTINUOUS
70
0
71
3
72
11
73
7
74
5
42
0.0000001000
43
0.0000001000
44
0.0000000001
12
0.4876541413
22
-0.0602175506
32
0.0000000000
13
-0.0599613182
23
-0.4876857136
33
0.0000000000
40
0.0000000000
40
0.0000000000
40
0.0000000000
40
0.0000000000
40
0.3839762250
40
0.7081413737
40
0.9242099015
40
1.0000000000
40
1.0000000000
40
1.0000000000
40
1.0000000000
10
-35.1881471823
20
-16.0577188348
30
0.0000000000
10
-35.1257313169
20
-16.0654262041
30
0.0000000000
10
-35.0149083878
20
-16.0829513391
30
0.0000000000
10
-34.8496800973
20
-16.0902360294
30
0.0000000000
10
-34.7791425562
20
-16.1254240118
30
0.0000000000
10
-34.6991098967
20
-16.1066584209
30
0.0000000000
10
-34.7006247215
20
-16.1189790037
30
0.0000000000
11
-35.1881471823
21
-16.0577188348
31
0.0000000000
11
-35.0009093631
21
-16.0809199822
31
0.0000000000
11
-34.8428568740
21
-16.1006657461
31
0.0000000000
11
-34.7375324537
21
-16.1140148940
31
0.0000000000
11
-34.7006247215
21
-16.1189790037
31
0.0000000000
0
SPLINE
5
334
100
AcDbEntity
8
0
100
AcDbSpline
62
9
6
CONTINUOUS
70
0
71
3
72
11
73
7
74
5
42
0.0000001000
43
0.0000001000
44
0.0000000001
12
0.4952259357
22
0.0007284790
32
0.0000000000
13
0.0000228118
23
0.4952264709
33
0.0000000000
40
0.0000000000
40
0.0000000000
40
0.0000000000
40
0.0000000000
40
0.3808487142
40
0.7027769045
40
0.9186409013
40
1.0000000000
40
1.0000000000
40
1.0000000000
40
1.0000000000
10
-35.1954611489
20
-16.2210568789
30
0.0000000000
10
-35.1325924286
20
-16.2209643988
30
0.0000000000
10
-35.0196131862
20
-16.2181275421
30
0.0000000000
10
-34.8574339264
20
-16.2137579003
30
0.0000000000
10
-34.7770301613
20
-16.1966459109
30
0.0000000000
10
-34.7044069473
20
-16.1936658739
30
0.0000000000
10
-34.7044063286
20
-16.1802354808
30
0.0000000000
11
-35.1954611489
21
-16.2210568789
31
0.0000000000
11
-35.0068839326
21
-16.2177411011
31
0.0000000000
11
-34.8477050249
21
-16.2088439668
31
0.0000000000
11
-34.7416158834
21
-16.1956895472
31
0.0000000000
11
-34.7044063286
21
-16.1802354808
31
0.0000000000
0
SPLINE
5
335
100
AcDbEntity
8
0
100
AcDbSpline
62
9
6
CONTINUOUS
70
0
71
3
72
11
73
7
74
5
42
0.0000001000
43
0.0000001000
44
0.0000000001
12
0.6327941277
22
0.0068687705
32
0.0000000000
13
0.0000000005
23
0.6328314057
33
0.0000000000
40
0.0000000000
40
0.0000000000
40
0.0000000000
40
0.0000000000
40
0.3007520136
40
0.5742288023
40
0.8048848259
40
1.0000000000
40
1.0000000000
40
1.0000000000
40
1.0000000000
10
-35.1956802491
20
-17.3012794428
30
0.0000000000
10
-35.1322422131
20
-17.3005908440
30
0.0000000000
10
-35.0106347580
20
-17.2851586553
30
0.0000000000
10
-34.8512812400
20
-17.2208624767
30
0.0000000000
10
-34.7362857552
20
-17.1220530216
30
0.0000000000
10
-34.7044064524
20
-17.0315590938
30
0.0000000000
10
-34.7044064523
20
-16.9904007572
30
0.0000000000
11
-35.1956802491
21
-17.3012794428
31
0.0000000000
11
-35.0070310782
21
-17.2760759200
31
0.0000000000
11
-34.8477772930
21
-17.2083291672
31
0.0000000000
11
-34.7416345222
21
-17.1081298907
31
0.0000000000
11
-34.7044064523
21
-16.9904007572
31
0.0000000000
0
SPLINE
5
336
100
AcDbEntity
8
0
100
AcDbSpline
62
9
6
CONTINUOUS
70
0
71
3
72
11
73
7
74
5
42
0.0000001000
43
0.0000001000
44
0.0000000001
12
0.0000003191
22
-0.4491568416
32
0.0000000000
13
-0.4300383901
23
-0.1333433458
33
0.0000000000
40
0.0000000000
40
0.0000000000
40
0.0000000000
40
0.0000000000
40
0.2356909285
40
0.4941376565
40
0.7868800097
40
1.0000000000
40
1.0000000000
40
1.0000000000
40
1.0000000000
10
-34.7044064523
20
-18.4142129002
30
0.0000000000
10
-34.7044064272
20
-18.4495002979
30
0.0000000000
10
-34.7227853083
20
-18.5242455961
30
0.0000000000
10
-34.7971908169
20
-18.6189110219
30
0.0000000000
10
-34.8939152083
20
-18.6828796691
30
0.0000000000
10
-34.9646862058
20
-18.7108364543
30
0.0000000000
10
-34.9952361316
20
-18.7203091651
30
0.0000000000
11
-34.7044064523
21
-18.4142129002
31
0.0000000000
11
-34.7283876828
21
-18.5173230574
31
0.0000000000
11
-34.7978250042
21
-18.6103485819
31
0.0000000000
11
-34.9062532003
21
-18.6847274645
31
0.0000000000
11
-34.9952361316
21
-18.7203091651
31
0.0000000000
0
SPLINE
5
337
100
AcDbEntity
8
0
100
AcDbSpline
62
9
6
CONTINUOUS
70
0
71
3
72
9
73
5
74
3
42
0.0000001000
43
0.0000001000
44
0.0000000001
12
-0.1944359922
22
-0.0602893749
32
0.0000000000
13
-0.2030660892
23
-0.0023888082
33
0.0000000000
40
0.0000000000
40
0.0000000000
40
0.0000000000
40
0.0000000000
40
0.2446629552
40
1.0000000000
40
1.0000000000
40
1.0000000000
40
1.0000000000
10
-34.9952361316
20
-18.7203091651
30
0.0000000000
10
-35.0110932264
20
-18.7252260240
30
0.0000000000
10
-35.0767135774
20
-18.7427837173
30
0.0000000000
10
-35.1445524692
20
-18.7505420712
30
0.0000000000
10
-35.1956802491
20
-18.7511435230
30
0.0000000000
11
-34.9952361316
21
-18.7203091651
31
0.0000000000
11
-35.0433357662
21
-18.7332308702
31
0.0000000000
11
-35.1956802491
21
-18.7511435230
31
0.0000000000
0
SPLINE
5
338
100
AcDbEntity
8
0
100
AcDbSpline
62
9
6
CONTINUOUS
70
0
71
3
72
10
73
6
74
4
42
0.0000001000
43
0.0000001000
44
0.0000000001
12
-0.2583439358
22
-0.2583435301
32
0.0000000000
13
-0.3213872514
23
0.1737619157
33
0.0000000000
40
0.0000000000
40
0.0000000000
40
0.0000000000
40
0.0000000000
40
0.2658242526
40
0.5943905441
40
1.0000000000
40
1.0000000000
40
1.0000000000
40
1.0000000000
10
-34.8508532105
20
-18.7677667707
30
0.0000000000
10
-34.8737445718
20
-18.7906580960
30
0.0000000000
10
-34.9447657692
20
-18.8221936543
30
0.0000000000
10
-35.0687950081
20
-18.8092673948
30
0.0000000000
10
-35.1522282429
20
-18.7746370130
30
0.0000000000
10
-35.1956808123
20
-18.7511438543
30
0.0000000000
11
-34.8508532105
21
-18.7677667707
31
0.0000000000
11
-34.9378091309
21
-18.8110208182
31
0.0000000000
11
-35.0577120335
21
-18.8052280914
31
0.0000000000
11
-35.1956808123
21
-18.7511438543
31
0.0000000000
0
SPLINE
5
339
100
AcDbEntity
8
0
100
AcDbSpline
62
9
6
CONTINUOUS
70
0
71
3
72
11
73
7
74
5
42
0.0000001000
43
0.0000001000
44
0.0000000001
12
0.0087242968
22
0.4999669137
32
0.0000000000
13
-0.4999668673
23
0.0087269541
33
0.0000000000
40
0.0000000000
40
0.0000000000
40
0.0000000000
40
0.0000000000
40
0.3825592777
40
0.7068734192
40
0.9236228949
40
1.0000000000
40
1.0000000000
40
1.0000000000
40
1.0000000000
10
-22.8743599055
20
14.9824687710
30
0.0000000000
10
-22.8732473853
20
15.0462244315
30
0.0000000000
10
-22.8748438389
20
15.1602351720
30
0.0000000000
10
-22.8622563237
20
15.3275701606
30
0.0000000000
10
-22.8854669340
20
15.4040393299
30
0.0000000000
10
-22.8616312315
20
15.4821704388
30
0.0000000000
10
-22.8743599055
20
15.4823926186
30
0.0000000000
11
-22.8743599055
21
14.9824687710
31
0.0000000000
11
-22.8716861512
21
15.1737461835
31
0.0000000000
11
-22.8707472728
21
15.3359144904
31
0.0000000000
11
-22.8716861512
21
15.4442944876
31
0.0000000000
11
-22.8743599055
21
15.4823926186
31
0.0000000000
0
SPLINE
5
33A
100
AcDbEntity
8
0
100
AcDbSpline
62
9
6
CONTINUOUS
70
0
71
3
72
11
73
7
74
5
42
0.0000001000
43
0.0000001000
44
0.0000000001
12
0.0087242968
22
0.4999669138
32
0.0000000000
13
-0.4999668674
23
0.0087269541
33
0.0000000000
40
0.0000000000
40
0.0000000000
40
0.0000000000
40
0.0000000000
40
0.3825598862
40
0.7068739963
40
0.9236231051
40
1.0000000000
40
1.0000000000
40
1.0000000000
40
1.0000000000
10
-34.2131326555
20
15.1803877856
30
0.0000000000
10
-34.2120201335
20
15.2441435475
30
0.0000000000
10
-34.2136165935
20
15.3581543748
30
0.0000000000
10
-34.2010290741
20
15.5254894095
30
0.0000000000
10
-34.2242396572
20
15.6019585046
30
0.0000000000
10
-34.2004040166
20
15.6800894540
30
0.0000000000
10
-34.2131326555
20
15.6803116332
30
0.0000000000
11
-34.2131326555
21
15.1803877856
31
0.0000000000
11
-34.2104588981
21
15.3716655023
31
0.0000000000
11
-34.2095200228
21
15.5338337937
31
0.0000000000
11
-34.2104589038
21
15.6422136074
31
0.0000000000
11
-34.2131326555
21
15.6803116332
31
0.0000000000
0
SPLINE
5
33B
100
AcDbEntity
8
0
100
AcDbSpline
62
9
6
CONTINUOUS
70
0
71
3
72
11
73
7
74
5
42
0.0000001000
43
0.0000001000
44
0.0000000001
12
0.4876406936
22
0.0602184539
32
0.0000000000
13
-0.0584096940
23
0.4878606522
33
0.0000000000
40
0.0000000000
40
0.0000000000
40
0.0000000000
40
0.0000000000
40
0.3839785177
40
0.7081420696
40
0.9242089538
40
1.0000000000
40
1.0000000000
40
1.0000000000
40
1.0000000000
10
-35.1881469310
20
16.0577188420
30
0.0000000000
10
-35.1257324141
20
16.0654263729
30
0.0000000000
10
-35.0149002979
20
16.0829531411
30
0.0000000000
10
-34.8497192907
20
16.0902322568
30
0.0000000000
10
-34.7790999808
20
16.1254300576
30
0.0000000000
10
-34.6991619583
20
16.1066522612
30
0.0000000000
10
-34.7006376022
20
16.1189774176
30
0.0000000000
11
-35.1881469310
21
16.0577188420
31
0.0000000000
11
-35.0009131298
21
16.0809202492
31
0.0000000000
11
-34.8428657035
21
16.1006655991
31
0.0000000000
11
-34.7375448864
21
16.1140140090
31
0.0000000000
11
-34.7006376022
21
16.1189774176
31
0.0000000000
0
SPLINE
5
33C
100
AcDbEntity
8
0
100
AcDbSpline
62
9
6
CONTINUOUS
70
0
71
3
72
11
73
7
74
5
42
0.0000001000
43
0.0000001000
44
0.0000000001
12
0.4952259287
22
-0.0007234311
32
0.0000000000
13
0.0002871801
23
-0.4952263738
33
0.0000000000
40
0.0000000000
40
0.0000000000
40
0.0000000000
40
0.0000000000
40
0.3808387173
40
0.7027616679
40
0.9186286914
40
1.0000000000
40
1.0000000000
40
1.0000000000
40
1.0000000000
10
-35.1954614941
20
16.2210553006
30
0.0000000000
10
-35.1325944250
20
16.2209634637
30
0.0000000000
10
-35.0196156247
20
16.2181272429
30
0.0000000000
10
-34.8574454135
20
16.2137596648
30
0.0000000000
10
-34.7770268259
20
16.1966446102
30
0.0000000000
10
-34.7044142423
20
16.1936678868
30
0.0000000000
10
-34.7044064529
20
16.1802354808
30
0.0000000000
11
-35.1954614941
21
16.2210553006
31
0.0000000000
11
-35.0068892061
21
16.2177411558
31
0.0000000000
11
-34.8477128562
21
16.2088448388
31
0.0000000000
11
-34.7416222142
21
16.1956903648
31
0.0000000000
11
-34.7044064529
21
16.1802354808
31
0.0000000000
0
SPLINE
5
33D
100
AcDbEntity
8
0
100
AcDbSpline
62
9
6
CONTINUOUS
70
0
71
3
72
11
73
7
74
5
42
0.0000001000
43
0.0000001000
44
0.0000000001
12
0.6327940945
22
-0.0068686338
32
0.0000000000
13
0.0000000005
23
-0.6328313710
33
0.0000000000
40
0.0000000000
40
0.0000000000
40
0.0000000000
40
0.0000000000
40
0.3007464469
40
0.5742215663
40
0.8048801371
40
1.0000000000
40
1.0000000000
40
1.0000000000
40
1.0000000000
10
-35.1956802491
20
17.3012794428
30
0.0000000000
10
-35.1322433906
20
17.3005908704
30
0.0000000000
10
-35.0106374917
20
17.2851591584
30
0.0000000000
10
-34.8512845800
20
17.2208643894
30
0.0000000000
10
-34.7362871301
20
17.1220554987
30
0.0000000000
10
-34.7044064524
20
17.0315600806
30
0.0000000000
10
-34.7044064523
20
16.9904007571
30
0.0000000000
11
-35.1956802491
21
17.3012794428
31
0.0000000000
11
-35.0070345158
21
17.2760768703
31
0.0000000000
11
-34.8477812180
21
17.2083316947
31
0.0000000000
11
-34.7416361960
21
17.1081324664
31
0.0000000000
11
-34.7044064523
21
16.9904007571
31
0.0000000000
0
SPLINE
5
33E
100
AcDbEntity
8
0
100
AcDbSpline
62
9
6
CONTINUOUS
70
0
71
3
72
10
73
6
74
4
42
0.0000001000
43
0.0000001000
44
0.0000000001
12
0.0012590041
22
1.0802213546
32
0.0000000000
13
-0.0021012477
23
1.0802200446
33
0.0000000000
40
0.0000000000
40
0.0000000000
40
0.0000000000
40
0.0000000000
40
0.3572793285
40
0.6948395992
40
1.0000000000
40
1.0000000000
40
1.0000000000
40
1.0000000000
10
-35.1954609611
20
16.2210577396
30
0.0000000000
10
-35.1953110224
20
16.3497046596
30
0.0000000000
10
-35.1951255557
20
16.5998983250
30
0.0000000000
10
-35.1951855187
20
16.9599723949
30
0.0000000000
10
-35.1954665099
20
17.1913993159
30
0.0000000000
10
-35.1956802491
20
17.3012794432
30
0.0000000000
11
-35.1954609611
21
16.2210577396
31
0.0000000000
11
-35.1951803437
21
16.6069986599
31
0.0000000000
11
-35.1952543395
21
16.9716387129
31
0.0000000000
11
-35.1956802491
21
17.3012794432
31
0.0000000000
0
SPLINE
5
33F
100
AcDbEntity
8
0
100
AcDbSpline
62
9
6
CONTINUOUS
70
0
71
3
72
9
73
5
74
3
42
0.0000001000
43
0.0000001000
44
0.0000000001
12
-0.0148494215
22
0.1628702672
32
0.0000000000
13
0.0001895383
23
0.1635456918
33
0.0000000000
40
0.0000000000
40
0.0000000000
40
0.0000000000
40
0.0000000000
40
0.4980875179
40
1.0000000000
40
1.0000000000
40
1.0000000000
40
1.0000000000
10
-35.1881467084
20
16.0577188408
30
0.0000000000
10
-35.1906121456
20
16.0847600565
30
0.0000000000
10
-35.1943018307
20
16.1391720120
30
0.0000000000
10
-35.1954926716
20
16.1936958649
30
0.0000000000
10
-35.1954609611
20
16.2210577396
30
0.0000000000
11
-35.1881467084
21
16.0577188408
31
0.0000000000
11
-35.1936677766
21
16.1389916490
31
0.0000000000
11
-35.1954609611
21
16.2210577396
31
0.0000000000
0
SPLINE
5
340
100
AcDbEntity
8
0
100
AcDbSpline
62
9
6
CONTINUOUS
70
0
71
3
72
10
73
6
74
4
42
0.0000001000
43
0.0000001000
44
0.0000000001
12
-10.1949386740
22
0.0620597846
32
0.0000000000
13
-10.1949401228
23
0.0618213266
33
0.0000000000
40
0.0000000000
40
0.0000000000
40
0.0000000000
40
0.0000000000
40
0.3329736553
40
0.6663073319
40
1.0000000000
40
1.0000000000
40
1.0000000000
40
1.0000000000
10
-35.1881467084
20
16.0577188407
30
0.0000000000
10
-36.3196953737
20
16.0646069318
30
0.0000000000
10
-38.5840162233
20
16.0783816934
30
0.0000000000
10
-41.9823293569
20
16.0990284457
30
0.0000000000
10
-44.2490938519
20
16.1127827249
30
0.0000000000
10
-45.3830861088
20
16.1196591660
30
0.0000000000
11
-35.1881467084
21
16.0577188407
31
0.0000000000
11
-38.5827927849
21
16.0783698356
31
0.0000000000
11
-41.9811094182
21
16.0990166263
31
0.0000000000
11
-45.3830861088
21
16.1196591660
31
0.0000000000
0
SPLINE
5
341
100
AcDbEntity
8
0
100
AcDbSpline
62
9
6
CONTINUOUS
70
0
71
3
72
9
73
5
74
3
42
0.0000001000
43
0.0000001000
44
0.0000000001
12
10.1874064435
22
-0.0580477716
32
0.0000000000
13
10.1874052729
23
-0.0582528630
33
0.0000000000
40
0.0000000000
40
0.0000000000
40
0.0000000000
40
0.0000000000
40
0.4995916606
40
1.0000000000
40
1.0000000000
40
1.0000000000
40
1.0000000000
10
-45.3830861088
20
17.3594295691
30
0.0000000000
10
-43.6865716745
20
17.3497628416
30
0.0000000000
10
-40.2907696234
20
17.3303966027
30
0.0000000000
10
-36.8949677674
20
17.3109961823
30
0.0000000000
10
-35.1956802491
20
17.3012794428
30
0.0000000000
11
-45.3830861088
21
17.3594295691
31
0.0000000000
11
-40.2935429513
21
17.3304038873
31
0.0000000000
11
-35.1956802491
21
17.3012794428
31
0.0000000000
0
SPLINE
5
342
100
AcDbEntity
8
0
100
AcDbSpline
62
9
6
CONTINUOUS
70
0
71
3
72
9
73
5
74
3
42
0.0000001000
43
0.0000001000
44
0.0000000001
12
0.2030660505
22
-0.0023888037
32
0.0000000000
13
0.1944359587
23
-0.0602893515
33
0.0000000000
40
0.0000000000
40
0.0000000000
40
0.0000000000
40
0.0000000000
40
0.7553370054
40
1.0000000000
40
1.0000000000
40
1.0000000000
40
1.0000000000
10
-35.1956802491
20
18.7511434211
30
0.0000000000
10
-35.1445524816
20
18.7505419705
30
0.0000000000
10
-35.0767136029
20
18.7427836189
30
0.0000000000
10
-35.0110932635
20
18.7252259327
30
0.0000000000
10
-34.9952361689
20
18.7203090749
30
0.0000000000
11
-35.1956802491
21
18.7511434211
31
0.0000000000
11
-35.0433358027
21
18.7332307769
31
0.0000000000
11
-34.9952361689
21
18.7203090749
31
0.0000000000
0
SPLINE
5
343
100
AcDbEntity
8
0
100
AcDbSpline
62
9
6
CONTINUOUS
70
0
71
3
72
11
73
7
74
5
42
0.0000001000
43
0.0000001000
44
0.0000000001
12
0.4300384336
22
-0.1333433304
32
0.0000000000
13
-0.0000003673
23
-0.4491568789
33
0.0000000000
40
0.0000000000
40
0.0000000000
40
0.0000000000
40
0.0000000000
40
0.2131199868
40
0.5058623341
40
0.7643090637
40
1.0000000000
40
1.0000000000
40
1.0000000000
40
1.0000000000
10
-34.9952361689
20
18.7203090749
30
0.0000000000
10
-34.9646862405
20
18.7108363653
30
0.0000000000
10
-34.8939152368
20
18.6828795829
30
0.0000000000
10
-34.7971908336
20
18.6189109372
30
0.0000000000
10
-34.7227853146
20
18.5242455079
30
0.0000000000
10
-34.7044064235
20
18.4495002020
30
0.0000000000
10
-34.7044064523
20
18.4142128002
30
0.0000000000
11
-34.9952361689
21
18.7203090749
31
0.0000000000
11
-34.9062532294
21
18.6847273775
31
0.0000000000
11
-34.7978250218
21
18.6103484973
31
0.0000000000
11
-34.7283876884
21
18.5173229687
31
0.0000000000
11
-34.7044064523
21
18.4142128002
31
0.0000000000
0
SPLINE
5
344
100
AcDbEntity
8
0
100
AcDbSpline
62
9
6
CONTINUOUS
70
0
71
3
72
10
73
6
74
4
42
0.0000001000
43
0.0000001000
44
0.0000000001
12
0.3213855184
22
0.1737652137
32
0.0000000000
13
0.2583439976
23
-0.2583435306
33
0.0000000000
40
0.0000000000
40
0.0000000000
40
0.0000000000
40
0.0000000000
40
0.4056107461
40
0.7341762100
40
1.0000000000
40
1.0000000000
40
1.0000000000
40
1.0000000000
10
-35.1956808403
20
18.7511438021
30
0.0000000000
10
-35.1522283670
20
18.7746374814
30
0.0000000000
10
-35.0687947618
20
18.8092673898
30
0.0000000000
10
-34.9447655840
20
18.8221935948
30
0.0000000000
10
-34.8737445599
20
18.7906580287
30
0.0000000000
10
-34.8508532330
20
18.7677667432
30
0.0000000000
11
-35.1956808403
21
18.7511438021
31
0.0000000000
11
-35.0577116105
21
18.8052282293
31
0.0000000000
11
-34.9378089873
21
18.8110207715
31
0.0000000000
11
-34.8508532330
21
18.7677667432
31
0.0000000000
0
SPLINE
5
345
100
AcDbEntity
8
0
100
AcDbSpline
62
9
6
CONTINUOUS
70
0
71
3
72
14
73
10
74
8
42
0.0000001000
43
0.0000001000
44
0.0000000001
12
0.1746331820
22
1.4170028404
32
0.0000000000
13
1.4275061271
23
0.0249009043
33
0.0000000000
40
0.0000000000
40
0.0000000000
40
0.0000000000
40
0.0000000000
40
0.1824485270
40
0.3575856474
40
0.5170581620
40
0.6591492715
40
0.7843023696
40
0.8957896318
40
1.0000000000
40
1.0000000000
40
1.0000000000
40
1.0000000000
10
-35.1881467084
20
-16.0577188407
30
0.0000000000
10
-35.1775261861
20
-15.9715421470
30
0.0000000000
10
-35.1342934229
20
-15.8045564818
30
0.0000000000
10
-35.0130148198
20
-15.5876104749
30
0.0000000000
10
-34.8572135881
20
-15.4199572893
30
0.0000000000
10
-34.6891650470
20
-15.3034710165
30
0.0000000000
10
-34.5233461160
20
-15.2303818412
30
0.0000000000
10
-34.3653812347
20
-15.1907138962
30
0.0000000000
10
-34.2627196353
20
-15.1812527631
30
0.0000000000
10
-34.2131326555
20
-15.1803877856
30
0.0000000000
11
-35.1881467084
21
-16.0577188407
31
0.0000000000
11
-35.1228295413
21
-15.8055549457
31
0.0000000000
11
-35.0008817264
21
-15.5872606360
31
0.0000000000
11
-34.8458837821
21
-15.4204822972
31
0.0000000000
11
-34.6791697029
21
-15.3048909959
31
0.0000000000
11
-34.5156673231
21
-15.2328150553
31
0.0000000000
11
-34.3612880191
21
-15.1940457119
31
0.0000000000
11
-34.2131326555
21
-15.1803877856
31
0.0000000000
0
SPLINE
5
346
100
AcDbEntity
8
0
100
AcDbSpline
62
9
6
CONTINUOUS
70
0
71
3
72
10
73
6
74
4
42
0.0000001000
43
0.0000001000
44
0.0000000001
12
-3.9999999803
22
0.0702534154
32
0.0000000000
13
-4.0000000196
23
0.0702511788
33
0.0000000000
40
0.0000000000
40
0.0000000000
40
0.0000000000
40
0.0000000000
40
0.3334720350
40
0.6668053684
40
1.0000000000
40
1.0000000000
40
1.0000000000
40
1.0000000000
10
-41.3830861088
20
23.2631073618
30
0.0000000000
10
-41.8277154866
20
23.2709165449
30
0.0000000000
10
-42.7167893081
20
23.2865315799
30
0.0000000000
10
-44.0501226415
20
23.3099490114
30
0.0000000000
10
-44.9388265977
20
23.3255572189
30
0.0000000000
10
-45.3830861088
20
23.3333596575
30
0.0000000000
11
-41.3830861088
21
23.2631073618
31
0.0000000000
11
-42.7169742444
21
23.2865347865
31
0.0000000000
11
-44.0503075778
21
23.3099522180
31
0.0000000000
11
-45.3830861088
21
23.3333596575
31
0.0000000000
0
SPLINE
5
347
100
AcDbEntity
8
0
100
AcDbSpline
62
9
6
CONTINUOUS
70
0
71
3
72
14
73
10
74
8
42
0.0000001000
43
0.0000001000
44
0.0000000001
12
-1.4275453924
22
0.0249083126
32
0.0000000000
13
-0.1746835790
23
1.4170363152
33
0.0000000000
40
0.0000000000
40
0.0000000000
40
0.0000000000
40
0.0000000000
40
0.1030053818
40
0.2174855139
40
0.3455849720
40
0.4895171222
40
0.6500430923
40
0.8230855568
40
1.0000000000
40
1.0000000000
40
1.0000000000
40
1.0000000000
10
-34.2131326555
20
15.1803877856
30
0.0000000000
10
-34.2621476083
20
15.1812430157
30
0.0000000000
10
-34.3656574427
20
15.1906901818
30
0.0000000000
10
-34.5258446483
20
15.2309911311
30
0.0000000000
10
-34.6947680684
20
15.3063909387
30
0.0000000000
10
-34.8641837866
20
15.4258799148
30
0.0000000000
10
-35.0185522107
20
15.5954207618
30
0.0000000000
10
-35.1362223448
20
15.8106981452
30
0.0000000000
10
-35.1778453591
20
15.9741541105
30
0.0000000000
10
-35.1881467084
20
16.0577188407
30
0.0000000000
11
-34.2131326555
21
15.1803877856
31
0.0000000000
11
-34.3595905314
21
15.1937617781
31
0.0000000000
11
-34.5181012002
21
15.2336418591
31
0.0000000000
11
-34.6851107109
21
15.3081981009
31
0.0000000000
11
-34.8530320689
21
15.4266593141
31
0.0000000000
11
-35.0073387022
21
15.5961257984
31
0.0000000000
11
-35.1257834582
21
15.8129465742
31
0.0000000000
11
-35.1881467084
21
16.0577188407
31
0.0000000000
0
SPLINE
5
348
100
AcDbEntity
8
0
100
AcDbSpline
62
7
6
CONTINUOUS
70
0
71
3
72
10
73
6
74
4
42
0.0000001000
43
0.0000001000
44
0.0000000001
12
-3.9999099472
22
-0.0844306542
32
0.0000000000
13
-4.0000789575
23
-0.0760029924
33
0.0000000000
40
0.0000000000
40
0.0000000000
40
0.0000000000
40
0.0000000000
40
0.3303097417
40
0.6636505372
40
1.0000000000
40
1.0000000000
40
1.0000000000
40
1.0000000000
10
-41.3830861088
20
-23.0998904748
30
0.0000000000
10
-41.8234891826
20
-23.1091865640
30
0.0000000000
10
-42.7083442037
20
-23.1275074450
30
0.0000000000
10
-44.0416785547
20
-23.1541449052
30
0.0000000000
10
-44.9346113058
20
-23.1713873732
30
0.0000000000
10
-45.3830861088
20
-23.1799085618
30
0.0000000000
11
-41.3830861088
21
-23.0998904748
31
0.0000000000
11
-42.7043060847
21
-23.1272645049
31
0.0000000000
11
-44.0376699002
21
-23.1539170037
31
0.0000000000
11
-45.3830861088
21
-23.1799085618
31
0.0000000000
0
SPLINE
5
349
100
AcDbEntity
8
0
100
AcDbSpline
62
9
6
CONTINUOUS
70
0
71
3
72
9
73
5
74
3
42
0.0000001000
43
0.0000001000
44
0.0000000001
12
-2.3392946957
22
-2.3815889311
32
0.0000000000
13
-2.3393510094
23
-2.3815336162
33
0.0000000000
40
0.0000000000
40
0.0000000000
40
0.0000000000
40
0.0000000000
40
0.5182318120
40
1.0000000000
40
1.0000000000
40
1.0000000000
40
1.0000000000
10
-35.1956802491
20
-18.7511634565
30
0.0000000000
10
-35.5997792254
20
-19.1625685056
30
0.0000000000
10
-36.3796243532
20
-19.9563526819
30
0.0000000000
10
-37.1592213632
20
-20.7503805545
30
0.0000000000
10
-37.5348963288
20
-21.1328295995
30
0.0000000000
11
-35.1956802491
21
-18.7511634565
31
0.0000000000
11
-36.4079936971
21
-19.9853623777
31
0.0000000000
11
-37.5348963288
21
-21.1328295995
31
0.0000000000
0
SPLINE
5
34A
100
AcDbEntity
8
0
100
AcDbSpline
62
9
6
CONTINUOUS
70
0
71
3
72
10
73
6
74
4
42
0.0000001000
43
0.0000001000
44
0.0000000001
12
0.0021021146
22
1.0802200429
32
0.0000000000
13
-0.0012572864
23
1.0802213566
33
0.0000000000
40
0.0000000000
40
0.0000000000
40
0.0000000000
40
0.0000000000
40
0.3051655826
40
0.6427158590
40
1.0000000000
40
1.0000000000
40
1.0000000000
40
1.0000000000
10
-35.1956802491
20
-17.3012794432
30
0.0000000000
10
-35.1954664181
20
-17.1913974503
30
0.0000000000
10
-35.1951854374
20
-16.9599722620
30
0.0000000000
10
-35.1951256018
20
-16.5998981920
30
0.0000000000
10
-35.1953112249
20
-16.3497063927
30
0.0000000000
10
-35.1954609611
20
-16.2210577396
30
0.0000000000
11
-35.1956802491
21
-17.3012794432
31
0.0000000000
11
-35.1952542700
21
-16.9716331156
31
0.0000000000
11
-35.1951804018
21
-16.6070038585
31
0.0000000000
11
-35.1954609611
21
-16.2210577396
31
0.0000000000
0
SPLINE
5
34B
100
AcDbEntity
8
0
100
AcDbSpline
62
9
6
CONTINUOUS
70
0
71
3
72
9
73
5
74
3
42
0.0000001000
43
0.0000001000
44
0.0000000001
12
10.1874064435
22
0.0580477716
32
0.0000000000
13
10.1874052729
23
0.0582528630
33
0.0000000000
40
0.0000000000
40
0.0000000000
40
0.0000000000
40
0.0000000000
40
0.4995916604
40
1.0000000000
40
1.0000000000
40
1.0000000000
40
1.0000000000
10
-45.3830861088
20
-17.3594295692
30
0.0000000000
10
-43.6865716755
20
-17.3497628416
30
0.0000000000
10
-40.2907696243
20
-17.3303966027
30
0.0000000000
10
-36.8949677684
20
-17.3109961823
30
0.0000000000
10
-35.1956802491
20
-17.3012794429
30
0.0000000000
11
-45.3830861088
21
-17.3594295692
31
0.0000000000
11
-40.2935429542
21
-17.3304038873
31
0.0000000000
11
-35.1956802491
21
-17.3012794429
31
0.0000000000
0
SPLINE
5
34C
100
AcDbEntity
8
0
100
AcDbSpline
62
9
6
CONTINUOUS
70
0
71
3
72
10
73
6
74
4
42
0.0000001000
43
0.0000001000
44
0.0000000001
12
10.1949401228
22
0.0618213266
32
0.0000000000
13
10.1949386741
23
0.0620597846
33
0.0000000000
40
0.0000000000
40
0.0000000000
40
0.0000000000
40
0.0000000000
40
0.3336931269
40
0.6670266821
40
1.0000000000
40
1.0000000000
40
1.0000000000
40
1.0000000000
10
-45.3830861088
20
-16.1196591660
30
0.0000000000
10
-44.2490922926
20
-16.1127827154
30
0.0000000000
10
-41.9823266511
20
-16.0990284292
30
0.0000000000
10
-38.5840135174
20
-16.0783816770
30
0.0000000000
10
-36.3196942271
20
-16.0646069248
30
0.0000000000
10
-35.1881467084
20
-16.0577188407
30
0.0000000000
11
-45.3830861088
21
-16.1196591660
31
0.0000000000
11
-41.9811047405
21
-16.0990165979
31
0.0000000000
11
-38.5827893451
21
-16.0783698147
31
0.0000000000
11
-35.1881467084
21
-16.0577188407
31
0.0000000000
0
SPLINE
5
34D
100
AcDbEntity
8
0
100
AcDbSpline
62
9
6
CONTINUOUS
70
0
71
3
72
9
73
5
74
3
42
0.0000001000
43
0.0000001000
44
0.0000000001
12
-0.0001879647
22
0.1635456835
32
0.0000000000
13
0.0148571027
23
0.1628695565
33
0.0000000000
40
0.0000000000
40
0.0000000000
40
0.0000000000
40
0.0000000000
40
0.5029592173
40
1.0000000000
40
1.0000000000
40
1.0000000000
40
1.0000000000
10
-35.1954609611
20
-16.2210577396
30
0.0000000000
10
-35.1954924739
20
-16.1936388032
30
0.0000000000
10
-35.1942983495
20
-16.1391149630
30
0.0000000000
10
-35.1906082371
20
-16.0847031114
30
0.0000000000
10
-35.1881467084
20
-16.0577188408
30
0.0000000000
11
-35.1954609611
21
-16.2210577396
31
0.0000000000
11
-35.1936598771
21
-16.1388205968
31
0.0000000000
11
-35.1881467084
21
-16.0577188408
31
0.0000000000
0
SPLINE
5
34E
100
AcDbEntity
8
0
100
AcDbSpline
62
9
6
CONTINUOUS
70
0
71
3
72
10
73
6
74
4
42
0.0000001000
43
0.0000001000
44
0.0000000001
12
-3.9999999803
22
-0.0702534154
32
0.0000000000
13
-4.0000000196
23
-0.0702511788
33
0.0000000000
40
0.0000000000
40
0.0000000000
40
0.0000000000
40
0.0000000000
40
0.3334720350
40
0.6668053684
40
1.0000000000
40
1.0000000000
40
1.0000000000
40
1.0000000000
10
-41.3830861088
20
-23.2631073618
30
0.0000000000
10
-41.8277154866
20
-23.2709165449
30
0.0000000000
10
-42.7167893081
20
-23.2865315799
30
0.0000000000
10
-44.0501226415
20
-23.3099490114
30
0.0000000000
10
-44.9388265977
20
-23.3255572189
30
0.0000000000
10
-45.3830861088
20
-23.3333596575
30
0.0000000000
11
-41.3830861088
21
-23.2631073618
31
0.0000000000
11
-42.7169742444
21
-23.2865347865
31
0.0000000000
11
-44.0503075778
21
-23.3099522181
31
0.0000000000
11
-45.3830861088
21
-23.3333596575
31
0.0000000000
0
SPLINE
5
34F
100
AcDbEntity
8
0
100
AcDbSpline
62
9
6
CONTINUOUS
70
0
71
3
72
11
73
7
74
5
42
0.0000001000
43
0.0000001000
44
0.0000000001
12
0.4999668673
22
0.0087269541
32
0.0000000000
13
-0.0087242968
23
0.4999669137
33
0.0000000000
40
0.0000000000
40
0.0000000000
40
0.0000000000
40
0.0000000000
40
0.0763771051
40
0.2931265808
40
0.6174407223
40
1.0000000000
40
1.0000000000
40
1.0000000000
40
1.0000000000
10
-22.8743599055
20
-15.4823926186
30
0.0000000000
10
-22.8616312315
20
-15.4821704388
30
0.0000000000
10
-22.8854669340
20
-15.4040393299
30
0.0000000000
10
-22.8622563237
20
-15.3275701606
30
0.0000000000
10
-22.8748438389
20
-15.1602351720
30
0.0000000000
10
-22.8732473853
20
-15.0462244315
30
0.0000000000
10
-22.8743599055
20
-14.9824687711
30
0.0000000000
11
-22.8743599055
21
-15.4823926186
31
0.0000000000
11
-22.8716861512
21
-15.4442944876
31
0.0000000000
11
-22.8707472728
21
-15.3359144905
31
0.0000000000
11
-22.8716861512
21
-15.1737461835
31
0.0000000000
11
-22.8743599055
21
-14.9824687711
31
0.0000000000
0
SPLINE
5
350
100
AcDbEntity
8
0
100
AcDbSpline
62
7
6
CONTINUOUS
70
0
71
3
72
10
73
6
74
4
42
0.0000001000
43
0.0000001000
44
0.0000000001
12
-3.9999099472
22
0.0844306542
32
0.0000000000
13
-4.0000789575
23
0.0760029924
33
0.0000000000
40
0.0000000000
40
0.0000000000
40
0.0000000000
40
0.0000000000
40
0.3303097417
40
0.6636505372
40
1.0000000000
40
1.0000000000
40
1.0000000000
40
1.0000000000
10
-41.3830861088
20
23.0998904748
30
0.0000000000
10
-41.8234891826
20
23.1091865640
30
0.0000000000
10
-42.7083442037
20
23.1275074450
30
0.0000000000
10
-44.0416785547
20
23.1541449052
30
0.0000000000
10
-44.9346113058
20
23.1713873732
30
0.0000000000
10
-45.3830861088
20
23.1799085617
30
0.0000000000
11
-41.3830861088
21
23.0998904748
31
0.0000000000
11
-42.7043060847
21
23.1272645048
31
0.0000000000
11
-44.0376699002
21
23.1539170037
31
0.0000000000
11
-45.3830861088
21
23.1799085617
31
0.0000000000
0
ENDSEC
0
SECTION
2
OBJECTS
0
DICTIONARY
5
C
100
AcDbDictionary
280
0
281
1
3
ACAD_GROUP
350
D
3
ACAD_MLINESTYLE
350
17
3
ACAD_LAYOUT
350
1A
3
ACAD_PLOTSETTINGS
350
19
3
ACAD_PLOTSTYLENAME
350
E
0
DICTIONARY
5
D
102
{ACAD_REACTORS
330
C
102
}
100
AcDbDictionary
280
0
281
1
0
ACDBDICTIONARYWDFLT
5
E
102
{ACAD_REACTORS
330
C
102
}
100
AcDbDictionary
281
1
3
Normal
350
F
100
AcDbDictionaryWithDefault
340
F
0
DICTIONARY
5
17
102
{ACAD_REACTORS
330
C
102
}
100
AcDbDictionary
280
0
281
1
3
Standard
350
18
0
DICTIONARY
5
19
102
{ACAD_REACTORS
330
C
102
}
100
AcDbDictionary
281
1
0
DICTIONARY
5
1A
102
{ACAD_REACTORS
330
C
102
}
100
AcDbDictionary
281
1
3
Layout1
350
1E
3
Model
350
22
0
ACDBPLACEHOLDER
5
F
102
{ACAD_REACTORS
330
E
102
}
0
MLINESTYLE
5
18
102
{ACAD_REACTORS
330
17
102
}
100
AcDbMlineStyle
2
STANDARD
70
0
3

62
256
51
90.0
52
90.0
71
2
49
0.5
62
256
6
BYLAYER
49
-0.5
62
256
6
BYLAYER
0
LAYOUT
5
1E
102
{ACAD_REACTORS
330
1A
102
}
100
AcDbPlotSettings
1

2

4

6

40
0.0
41
0.0
42
0.0
43
0.0
44
0.0
45
0.0
46
0.0
47
0.0
48
0.0
49
0.0
140
0.0
141
0.0
142
1.0
143
1.0
70
0
72
0
73
0
74
0
7

75
0
147
1.0
148
0.0
149
0.0
100
AcDbLayout
1
Layout1
70
0
71
0
10
0.0
20
0.0
11
0.0
21
0.0
12
0.0
22
0.0
32
0.0
14
0.0
24
0.0
34
0.0
15
0.0
25
0.0
35
0.0
146
0.0
13
0.0
23
0.0
33
0.0
16
0.0
26
0.0
36
0.0
17
0.0
27
0.0
37
0.0
76
0
330
1B
331
0
345
0
346
0
0
LAYOUT
5
22
102
{ACAD_REACTORS
330
1A
102
}
100
AcDbPlotSettings
1

2

4

6

40
0.0
41
0.0
42
0.0
43
0.0
44
0.0
45
0.0
46
0.0
47
0.0
48
0.0
49
0.0
140
0.0
141
0.0
142
1.0
143
1.0
70
0
72
0
73
0
74
0
7

75
0
147
1.0
148
0.0
149
0.0
100
AcDbLayout
1
Model
70
0
71
0
10
0.0
20
0.0
11
0.0
21
0.0
12
0.0
22
0.0
32
0.0
14
0.0
24
0.0
34
0.0
15
0.0
25
0.0
35
0.0
146
0.0
13
0.0
23
0.0
33
0.0
16
0.0
26
0.0
36
0.0
17
0.0
27
0.0
37
0.0
76
0
330
1F
331
0
345
0
346
0
0
ENDSEC
0
EOF
