0
SECTION
2
HEADER
9
$ACADVER
1
AC1015
9
$DWGCODEPAGE
3
ANSI_1252
9
$EXTMAX
10
431.8000000000
20
558.8000000000
30
0.0000000000
9
$EXTMIN
10
0.0000000000
20
0.0000000000
30
0.0000000000
9
$LIMMIN
10
0.0000000000
20
0.0000000000
9
$LIMMAX
10
431.8000000000
20
558.8000000000
9
$VIEWCTR
10
215.9000000000
20
279.4000000000
9
$VIEWSIZE
40
558.8000000000
9
$CLAYER
8
0
9
$LTSCALE
40
36.4254814815
9
$CELTYPE
6
BYLAYER
9
$DIMSCALE
40
1
9
$DIMASZ
40
3.0000000000
9
$DIMEXO
40
4.1392592593
9
$DIMDLI
40
25.1666962963
9
$DIMEXE
40
11.9210666667
9
$DIMCEN
40
5.9605333333
9
$DIMLFAC
40
1.0000000000
9
$DIMBLK
1
_FILLED
9
$DIMTXT
40
3.0000000000
9
$DIMTOL
70
1
9
$DIMLIM
70
0
9
$DIMTFAC
40
1.0000000000
9
$DIMTP
40
0.0100000000
9
$DIMTM
40
0.0100000000
9
$PDMODE
70
3
9
$PDSIZE
40
3.0000000000
9
$HANDSEED
5
4AC
9
$MEASUREMENT
70
1
9
$INSUNITS
70
4
0
ENDSEC
0
SECTION
2
CLASSES
0
CLASS
1
ACDBDICTIONARYWDFLT
2
AcDbDictionaryWithDefault
3
AutoCAD 2000
90
0
280
0
281
0
0
CLASS
1
ACDBPLACEHOLDER
2
AcDbPlaceHolder
3
AutoCAD 2000
90
0
280
0
281
0
0
CLASS
1
LAYOUT
2
AcDbLayout
3
AutoCAD 2000
90
0
280
0
281
0
0
ENDSEC
0
SECTION
2
TABLES
0
TABLE
2
VPORT
5
8
100
AcDbSymbolTable
70
2
0
VPORT
5
1F4
100
AcDbSymbolTableRecord
100
AcDbViewportTableRecord
2
*ACTIVE
70
0
10
0.0
20
0.0
11
1.0
21
1.0
12
215.9000000000
22
279.4000000000
13
0.0
23
0.0
14
1.0
24
1.0
15
0.0
25
0.0
16
0.0
26
0.0
36
1.0
17
0.0
27
0.0
37
0.0
40
558.8000000000
41
0.7727272727
42
50.0
43
0.0
44
0.0
50
0.0
51
0.0
71
0
72
100
73
1
74
1
75
0
76
0
77
0
78
0
0
ENDTAB
0
TABLE
2
LTYPE
5
5
100
AcDbSymbolTable
70
6
0
LTYPE
5
14
100
AcDbSymbolTableRecord
100
AcDbLinetypeTableRecord
2
BYBLOCK
70
0
3

72
65
73
0
40
0.0
0
LTYPE
5
15
100
AcDbSymbolTableRecord
100
AcDbLinetypeTableRecord
2
BYLAYER
70
0
3

72
65
73
0
40
0.0
0
LTYPE
5
16
100
AcDbSymbolTableRecord
100
AcDbLinetypeTableRecord
2
CONTINUOUS
70
64
3
Solid line
72
65
73
0
40
0
0
LTYPE
5
1F5
100
AcDbSymbolTableRecord
100
AcDbLinetypeTableRecord
2
CENTER
70
64
3
____ _ ____ _ ____ _ ____ _ ____ _ ____ _ ____
72
65
73
4
40
0.6
49
0.375
74
0
49
-0.075
74
0
49
0.075
74
0
49
-0.075
74
0
0
LTYPE
5
1F6
100
AcDbSymbolTableRecord
100
AcDbLinetypeTableRecord
2
HIDDEN
70
64
3
- - - - - - - - - - - - - - - - - - - -
72
65
73
2
40
0.2
49
0.1
74
0
49
-0.1
74
0
0
LTYPE
5
1F7
100
AcDbSymbolTableRecord
100
AcDbLinetypeTableRecord
2
PHANTOM
70
64
3
_____ _ _ _____ _ _ _____ _ _ _____
72
65
73
6
40
0.8
49
0.45
74
0
49
-0.05
74
0
49
0.1
74
0
49
-0.05
74
0
49
0.1
74
0
49
-0.05
74
0
0
LTYPE
5
1F8
100
AcDbSymbolTableRecord
100
AcDbLinetypeTableRecord
2
DOT
70
64
3
. . . . . . . . . . . . . . . . . . . .
72
65
73
2
40
0.2
49
0.1
74
0
49
-0.1
74
0
0
LTYPE
5
1F9
100
AcDbSymbolTableRecord
100
AcDbLinetypeTableRecord
2
DASHED
70
64
3
- - - - - - - - - - - - - - - - - - - -
72
65
73
2
40
0.2
49
0.1
74
0
49
-0.1
74
0
0
ENDTAB
0
TABLE
2
LAYER
5
2
100
AcDbSymbolTable
70
36
0
LAYER
5
10
100
AcDbSymbolTableRecord
100
AcDbLayerTableRecord
2
0
70
0
62
7
6
CONTINUOUS
370
-3
390
F
0
LAYER
5
1FA
100
AcDbSymbolTableRecord
100
AcDbLayerTableRecord
2
DEFAULT_1
70
0
62
7
6
CENTER
370
-3
390
F
0
LAYER
5
1FB
100
AcDbSymbolTableRecord
100
AcDbLayerTableRecord
2
DEFAULT_2
70
0
62
8
6
HIDDEN
370
-3
390
F
0
LAYER
5
1FC
100
AcDbSymbolTableRecord
100
AcDbLayerTableRecord
2
DEFAULT_3
70
0
62
7
6
PHANTOM
370
-3
390
F
0
LAYER
5
1FD
100
AcDbSymbolTableRecord
100
AcDbLayerTableRecord
2
_BLACK_HOLE
70
0
62
7
6
CONTINUOUS
370
-3
390
F
0
LAYER
5
1FE
100
AcDbSymbolTableRecord
100
AcDbLayerTableRecord
2
ASSI
70
0
62
7
6
CONTINUOUS
370
-3
390
F
0
LAYER
5
1FF
100
AcDbSymbolTableRecord
100
AcDbLayerTableRecord
2
COORDINATE
70
0
62
7
6
CONTINUOUS
370
-3
390
F
0
LAYER
5
200
100
AcDbSymbolTableRecord
100
AcDbLayerTableRecord
2
COORD_ORIGINE
70
0
62
7
6
CONTINUOUS
370
-3
390
F
0
LAYER
5
201
100
AcDbSymbolTableRecord
100
AcDbLayerTableRecord
2
CURVE
70
0
62
7
6
CONTINUOUS
370
-3
390
F
0
LAYER
5
202
100
AcDbSymbolTableRecord
100
AcDbLayerTableRecord
2
C_COMP
70
0
62
7
6
CONTINUOUS
370
-3
390
F
0
LAYER
5
203
100
AcDbSymbolTableRecord
100
AcDbLayerTableRecord
2
DRAFT
70
0
62
7
6
CONTINUOUS
370
-3
390
F
0
LAYER
5
204
100
AcDbSymbolTableRecord
100
AcDbLayerTableRecord
2
IMPORT_FEATURES
70
0
62
7
6
CONTINUOUS
370
-3
390
F
0
LAYER
5
205
100
AcDbSymbolTableRecord
100
AcDbLayerTableRecord
2
NOTE
70
0
62
7
6
CONTINUOUS
370
-3
390
F
0
LAYER
5
206
100
AcDbSymbolTableRecord
100
AcDbLayerTableRecord
2
PIANI
70
0
62
7
6
CONTINUOUS
370
-3
390
F
0
LAYER
5
207
100
AcDbSymbolTableRecord
100
AcDbLayerTableRecord
2
PIANI_ORIGINE
70
0
62
7
6
CONTINUOUS
370
-3
390
F
0
LAYER
5
208
100
AcDbSymbolTableRecord
100
AcDbLayerTableRecord
2
PUNTI
70
0
62
7
6
CONTINUOUS
370
-3
390
F
0
LAYER
5
209
100
AcDbSymbolTableRecord
100
AcDbLayerTableRecord
2
RACCORDO
70
0
62
7
6
CONTINUOUS
370
-3
390
F
0
LAYER
5
20A
100
AcDbSymbolTableRecord
100
AcDbLayerTableRecord
2
SMUSSO
70
0
62
7
6
CONTINUOUS
370
-3
390
F
0
LAYER
5
20B
100
AcDbSymbolTableRecord
100
AcDbLayerTableRecord
2
SNAPLINE
70
0
62
7
6
CONTINUOUS
370
-3
390
F
0
LAYER
5
20C
100
AcDbSymbolTableRecord
100
AcDbLayerTableRecord
2
SUPERFICI
70
0
62
7
6
CONTINUOUS
370
-3
390
F
0
LAYER
5
20D
100
AcDbSymbolTableRecord
100
AcDbLayerTableRecord
2
TRASH
70
0
62
7
6
CONTINUOUS
370
-3
390
F
0
LAYER
5
20E
100
AcDbSymbolTableRecord
100
AcDbLayerTableRecord
2
XSEC_DATUMS
70
0
62
7
6
CONTINUOUS
370
-3
390
F
0
ENDTAB
0
TABLE
2
STYLE
5
3
100
AcDbSymbolTable
70
1
0
STYLE
5
11
100
AcDbSymbolTableRecord
100
AcDbTextStyleTableRecord
2
STANDARD
70
0
40
0.0
41
0.8000000000
50
0.0
71
0
42
0.2
3
txt
4

0
ENDTAB
0
TABLE
2
VIEW
5
6
100
AcDbSymbolTable
70
0
0
ENDTAB
0
TABLE
2
UCS
5
7
100
AcDbSymbolTable
70
0
0
ENDTAB
0
TABLE
2
APPID
5
9
100
AcDbSymbolTable
70
1
0
APPID
5
20F
100
AcDbSymbolTableRecord
100
AcDbRegAppTableRecord
2
ACAD
70
0
0
ENDTAB
0
TABLE
2
BLOCK_RECORD
5
1
100
AcDbSymbolTable
70
0
0
BLOCK_RECORD
5
1F
100
AcDbSymbolTableRecord
100
AcDbBlockTableRecord
2
*MODEL_SPACE
0
BLOCK_RECORD
5
1B
100
AcDbSymbolTableRecord
100
AcDbBlockTableRecord
2
*PAPER_SPACE
0
BLOCK_RECORD
5
210
100
AcDbSymbolTableRecord
100
AcDbBlockTableRecord
2
_FILLED
0
BLOCK_RECORD
5
211
100
AcDbSymbolTableRecord
100
AcDbBlockTableRecord
2
*D0
0
BLOCK_RECORD
5
212
100
AcDbSymbolTableRecord
100
AcDbBlockTableRecord
2
*D1
0
BLOCK_RECORD
5
213
100
AcDbSymbolTableRecord
100
AcDbBlockTableRecord
2
*D2
0
BLOCK_RECORD
5
214
100
AcDbSymbolTableRecord
100
AcDbBlockTableRecord
2
*D3
0
ENDTAB
0
TABLE
2
DIMSTYLE
5
A
100
AcDbSymbolTable
70
1
100
AcDbDimStyleTable
71
0
0
DIMSTYLE
105
215
100
AcDbSymbolTableRecord
100
AcDbDimStyleTableRecord
2
STANDARD
70
0
3

4

40
1.0
41
3.0000000000
42
0.0625
43
0.38
44
0.18
45
0.0
46
0.0
47
0.0100000000
48
0.0100000000
140
3.0000000000
141
0.09
142
0.0
143
25.4
144
1.0000000000
145
0.0
146
1.0000000000
147
0.09
71
1
72
0
73
0
74
0
75
0
76
0
77
1
78
8
170
0
171
2
172
0
173
0
174
0
175
0
176
0
177
0
178
0
270
2
271
2
272
2
273
2
274
2
275
0
280
0
281
0
282
0
283
1
284
8
285
0
286
0
287
3
288
0
340
11
341
210
342
210
343
210
344
210
0
DIMSTYLE
105
216
100
AcDbSymbolTableRecord
100
AcDbDimStyleTableRecord
2
DIMSTYLE_1
70
0
3

4

40
1.0
41
3.0000000000
42
0.0625
43
0.38
44
0.18
45
0.0
46
0.0
47
0.0000000000
48
0.0000000000
140
3.0000000000
141
0.09
142
0.0
143
25.4
144
1.0000000000
145
0.0
146
1.0000000000
147
0.09
71
0
72
0
73
0
74
0
75
0
76
0
77
1
78
8
170
0
171
2
172
0
173
0
174
0
175
0
176
0
177
0
178
0
270
2
271
2
272
2
273
2
274
2
275
0
280
0
281
0
282
0
283
1
284
8
285
0
286
0
287
3
288
0
340
11
341
210
342
210
343
210
344
210
0
DIMSTYLE
105
217
100
AcDbSymbolTableRecord
100
AcDbDimStyleTableRecord
2
DIMSTYLE_2
70
0
3

4

40
1.0
41
3.0000000000
42
0.0625
43
0.38
44
0.18
45
0.0
46
0.0
47
0.0000000000
48
0.0000000000
140
3.0000000000
141
0.09
142
0.0
143
25.4
144
1.0000000000
145
0.0
146
1.0000000000
147
0.09
71
0
72
0
73
0
74
0
75
0
76
0
77
1
78
8
170
0
171
2
172
0
173
0
174
0
175
0
176
0
177
0
178
0
270
2
271
0
272
0
273
2
274
2
275
0
280
0
281
0
282
0
283
1
284
8
285
0
286
0
287
3
288
0
340
11
341
210
342
210
343
210
344
210
0
ENDTAB
0
ENDSEC
0
SECTION
2
BLOCKS
0
BLOCK
5
20
100
AcDbEntity
8
0
100
AcDbBlockBegin
2
*MODEL_SPACE
70
0
10
0.0
20
0.0
30
0.0
3
*MODEL_SPACE
1

0
ENDBLK
5
21
100
AcDbEntity
8
0
100
AcDbBlockEnd
0
BLOCK
5
1C
100
AcDbEntity
8
0
100
AcDbBlockBegin
2
*PAPER_SPACE
70
0
10
0.0
20
0.0
30
0.0
3
*PAPER_SPACE
1

0
ENDBLK
5
1D
100
AcDbEntity
8
0
100
AcDbBlockEnd
0
BLOCK
5
218
100
AcDbEntity
8
0
100
AcDbBlockBegin
62
2
6
CONTINUOUS
2
*D0
70
65
10
0.0000000000
20
0.0000000000
3
*D0
1

0
TEXT
5
219
100
AcDbEntity
8
0
100
AcDbText
62
2
6
CONTINUOUS
10
-4.0385310228
20
32.2500000000
7
STANDARD
40
3.0000000000
1
22,3
41
0.7142857143
72
0
100
AcDbText
0
LINE
5
21A
100
AcDbEntity
8
0
100
AcDbLine
62
2
6
CONTINUOUS
10
11.1500000000
20
-21.3997711479
11
11.1500000000
21
33.0000000000
0
LINE
5
21B
100
AcDbEntity
8
0
100
AcDbLine
62
2
6
CONTINUOUS
10
-11.1500000000
20
-21.3997711479
11
-11.1500000000
21
33.0000000000
0
LINE
5
21C
100
AcDbEntity
8
0
100
AcDbLine
62
2
6
CONTINUOUS
10
11.1500000000
20
31.5000000000
11
0.0000000000
21
31.5000000000
0
LINE
5
21D
100
AcDbEntity
8
0
100
AcDbLine
62
2
6
CONTINUOUS
10
-11.1500000000
20
31.5000000000
11
0.0000000000
21
31.5000000000
0
INSERT
5
21E
100
AcDbEntity
8
0
100
AcDbBlockReference
62
2
6
CONTINUOUS
2
_FILLED
10
11.1500000000
20
31.5000000000
41
  3.000000
42
  3.000000
43
  3.000000
0
INSERT
5
21F
100
AcDbEntity
8
0
100
AcDbBlockReference
62
2
6
CONTINUOUS
2
_FILLED
10
-11.1500000000
20
31.5000000000
41
  3.000000
42
  3.000000
43
  3.000000
50
180.000000
0
ENDBLK
5
220
100
AcDbEntity
8
0
6
BYBLOCK
62
0
100
AcDbBlockEnd
0
BLOCK
5
221
100
AcDbEntity
8
0
100
AcDbBlockBegin
62
2
6
CONTINUOUS
2
*D1
70
65
10
0.0000000000
20
0.0000000000
3
*D1
1

0
TEXT
5
222
100
AcDbEntity
8
0
100
AcDbText
62
2
6
CONTINUOUS
10
18.4000000000
20
-1.9259233748
7
STANDARD
40
3.0000000000
1
47
50
90.0000000000
41
0.7857142857
72
0
100
AcDbText
0
LINE
5
223
100
AcDbEntity
8
0
100
AcDbLine
62
2
6
CONTINUOUS
10
3.5000000000
20
23.5000000000
11
20.6500000000
21
23.5000000000
0
LINE
5
224
100
AcDbEntity
8
0
100
AcDbLine
62
2
6
CONTINUOUS
10
4.4733373476
20
-23.5000000000
11
20.6500000000
21
-23.5000000000
0
LINE
5
225
100
AcDbEntity
8
0
100
AcDbLine
62
2
6
CONTINUOUS
10
19.1500000000
20
23.5000000000
11
19.1500000000
21
-0.0000000000
0
LINE
5
226
100
AcDbEntity
8
0
100
AcDbLine
62
2
6
CONTINUOUS
10
19.1500000000
20
-23.5000000000
11
19.1500000000
21
-0.0000000000
0
INSERT
5
227
100
AcDbEntity
8
0
100
AcDbBlockReference
62
2
6
CONTINUOUS
2
_FILLED
10
19.1500000000
20
23.5000000000
41
  3.000000
42
  3.000000
43
  3.000000
50
 90.000000
0
INSERT
5
228
100
AcDbEntity
8
0
100
AcDbBlockReference
62
2
6
CONTINUOUS
2
_FILLED
10
19.1500000000
20
-23.5000000000
41
  3.000000
42
  3.000000
43
  3.000000
50
270.000000
0
ENDBLK
5
229
100
AcDbEntity
8
0
6
BYBLOCK
62
0
100
AcDbBlockEnd
0
BLOCK
5
22A
100
AcDbEntity
8
0
100
AcDbBlockBegin
62
2
6
CONTINUOUS
2
*D2
70
65
10
0.0000000000
20
0.0000000000
3
*D2
1

0
TEXT
5
22B
100
AcDbEntity
8
0
100
AcDbText
62
2
6
CONTINUOUS
10
-54.4338359104
20
42.2500000000
7
STANDARD
40
3.0000000000
1
35,9
41
0.6964285714
72
0
100
AcDbText
0
LINE
5
22C
100
AcDbEntity
8
0
100
AcDbLine
62
2
6
CONTINUOUS
10
-68.2052644818
20
0.5000000000
11
-68.2052644818
21
43.0000000000
0
LINE
5
22D
100
AcDbEntity
8
0
100
AcDbLine
62
2
6
CONTINUOUS
10
-32.3052644818
20
-1.5500000000
11
-32.3052644818
21
43.0000000000
0
LINE
5
22E
100
AcDbEntity
8
0
100
AcDbLine
62
2
6
CONTINUOUS
10
-68.2052644818
20
41.5000000000
11
-50.2552644818
21
41.5000000000
0
LINE
5
22F
100
AcDbEntity
8
0
100
AcDbLine
62
2
6
CONTINUOUS
10
-32.3052644818
20
41.5000000000
11
-50.2552644818
21
41.5000000000
0
INSERT
5
230
100
AcDbEntity
8
0
100
AcDbBlockReference
62
2
6
CONTINUOUS
2
_FILLED
10
-68.2052644818
20
41.5000000000
41
  3.000000
42
  3.000000
43
  3.000000
50
180.000000
0
INSERT
5
231
100
AcDbEntity
8
0
100
AcDbBlockReference
62
2
6
CONTINUOUS
2
_FILLED
10
-32.3052644818
20
41.5000000000
41
  3.000000
42
  3.000000
43
  3.000000
0
ENDBLK
5
232
100
AcDbEntity
8
0
6
BYBLOCK
62
0
100
AcDbBlockEnd
0
BLOCK
5
233
100
AcDbEntity
8
0
100
AcDbBlockBegin
62
2
6
CONTINUOUS
2
*D3
70
65
10
0.0000000000
20
0.0000000000
3
*D3
1

0
TEXT
5
234
100
AcDbEntity
8
0
100
AcDbText
62
2
6
CONTINUOUS
10
-47.8624073390
20
32.2500000000
7
STANDARD
40
3.0000000000
1
26
41
0.7857142857
72
0
100
AcDbText
0
LINE
5
235
100
AcDbEntity
8
0
100
AcDbLine
62
2
6
CONTINUOUS
10
-32.3052644818
20
-1.5500000000
11
-32.3052644818
21
33.0000000000
0
LINE
5
236
100
AcDbEntity
8
0
100
AcDbLine
62
2
6
CONTINUOUS
10
-58.7052644818
20
22.3997711479
11
-58.7052644818
21
33.0000000000
0
LINE
5
237
100
AcDbEntity
8
0
100
AcDbLine
62
2
6
CONTINUOUS
10
-32.3052644818
20
31.5000000000
11
-45.5052644818
21
31.5000000000
0
LINE
5
238
100
AcDbEntity
8
0
100
AcDbLine
62
2
6
CONTINUOUS
10
-58.7052644818
20
31.5000000000
11
-45.5052644818
21
31.5000000000
0
INSERT
5
239
100
AcDbEntity
8
0
100
AcDbBlockReference
62
2
6
CONTINUOUS
2
_FILLED
10
-32.3052644818
20
31.5000000000
41
  3.000000
42
  3.000000
43
  3.000000
0
INSERT
5
23A
100
AcDbEntity
8
0
100
AcDbBlockReference
62
2
6
CONTINUOUS
2
_FILLED
10
-58.7052644818
20
31.5000000000
41
  3.000000
42
  3.000000
43
  3.000000
50
180.000000
0
ENDBLK
5
23B
100
AcDbEntity
8
0
6
BYBLOCK
62
0
100
AcDbBlockEnd
0
BLOCK
5
23C
100
AcDbEntity
8
0
100
AcDbBlockBegin
2
_FILLED
70
64
10
0.0000000000
20
0.0000000000
3
_FILLED
1

0
SOLID
5
23D
100
AcDbEntity
8
0
6
BYBLOCK
62
0
100
AcDbTrace
10
0.0000000000
20
0.0000000000
11
-1.0000000000
21
0.3166666667
12
-1.0000000000
22
-0.3166666667
13
-1.0000000000
23
-0.3166666667
0
ENDBLK
5
23E
100
AcDbEntity
8
0
6
BYBLOCK
62
0
100
AcDbBlockEnd
0
ENDSEC
0
SECTION
2
ENTITIES
0
DIMENSION
5
23F
100
AcDbEntity
8
0
100
AcDbDimension
62
2
6
CONTINUOUS
2
*D0
10
-11.1500000000
20
31.5000000000
11
0.2471832629
21
33.7500000000
70
160
3
DIMSTYLE_1
100
AcDbAlignedDimension
13
11.1500000000
23
-21.3997711479
14
-11.1500000000
24
-21.3997711479
50
180.000000
100
AcDbRotatedDimension
0
DIMENSION
5
240
100
AcDbEntity
8
0
100
AcDbDimension
62
2
6
CONTINUOUS
2
*D1
10
19.1500000000
20
-23.5000000000
11
16.9000000000
21
0.4312194823
70
160
3
DIMSTYLE_1
100
AcDbAlignedDimension
13
3.5000000000
23
23.5000000000
14
4.4733373476
24
-23.5000000000
50
270.000000
100
AcDbRotatedDimension
0
DIMENSION
5
241
100
AcDbEntity
8
0
100
AcDbDimension
62
2
6
CONTINUOUS
2
*D2
10
-32.3052644818
20
41.5000000000
11
-50.2552644818
21
43.7500000000
70
160
3
DIMSTYLE_1
100
AcDbAlignedDimension
13
-68.2052644818
23
0.5000000000
14
-32.3052644818
24
-1.5500000000
100
AcDbRotatedDimension
0
DIMENSION
5
242
100
AcDbEntity
8
0
100
AcDbDimension
62
2
6
CONTINUOUS
2
*D3
10
-58.7052644818
20
31.5000000000
11
-45.5052644818
21
33.7500000000
70
160
3
DIMSTYLE_2
100
AcDbAlignedDimension
13
-32.3052644818
23
-1.5500000000
14
-58.7052644818
24
22.3997711479
50
180.000000
100
AcDbRotatedDimension
0
LINE
5
243
100
AcDbEntity
8
0
100
AcDbLine
62
7
6
CONTINUOUS
10
-3.0000000000
20
-23.5000000000
11
-2.7812783412
21
-23.4563623377
0
LINE
5
244
100
AcDbEntity
8
0
100
AcDbLine
62
7
6
CONTINUOUS
10
3.9733373476
20
-23.5000000000
11
3.0000000000
21
-23.5000000000
0
LINE
5
245
100
AcDbEntity
8
0
100
AcDbLine
62
7
6
CONTINUOUS
10
-3.0000000000
20
-23.5000000000
11
-3.9733373476
21
-23.5000000000
0
LINE
5
246
100
AcDbEntity
8
0
100
AcDbLine
62
7
6
CONTINUOUS
10
-2.7812783412
20
-23.4563623377
11
2.7812783412
21
-23.4563623377
0
LINE
5
247
100
AcDbEntity
8
0
100
AcDbLine
62
7
6
CONTINUOUS
10
2.7812783412
20
-22.5310194482
11
-2.7812783412
21
-22.5310194482
0
LINE
5
248
100
AcDbEntity
8
0
100
AcDbLine
62
7
6
CONTINUOUS
10
-10.6503805997
20
-22.4000000000
11
-3.0000000000
21
-22.4000000000
0
LINE
5
249
100
AcDbEntity
8
0
100
AcDbLine
62
7
6
CONTINUOUS
10
3.0000000000
20
-22.4000000000
11
10.6503805997
21
-22.4000000000
0
LINE
5
24A
100
AcDbEntity
8
0
100
AcDbLine
62
7
6
CONTINUOUS
10
3.0000000000
20
-23.5000000000
11
2.7812783412
21
-23.4563623377
0
LINE
5
24B
100
AcDbEntity
8
0
100
AcDbLine
62
7
6
CONTINUOUS
10
-3.0000000000
20
22.4000000000
11
-2.7812783412
21
22.5310194482
0
LINE
5
24C
100
AcDbEntity
8
0
100
AcDbLine
62
9
6
CONTINUOUS
10
10.5087981167
20
-21.9749071372
11
-10.5087981167
21
-21.9749071372
0
LINE
5
24D
100
AcDbEntity
8
0
100
AcDbLine
62
9
6
CONTINUOUS
10
10.5005350625
20
-21.0183142309
11
-10.5005350625
21
-21.0183142309
0
LINE
5
24E
100
AcDbEntity
8
0
100
AcDbLine
62
7
6
CONTINUOUS
10
-2.7812783412
20
-22.5310194482
11
-3.0000000000
21
-22.4000000000
0
LINE
5
24F
100
AcDbEntity
8
0
100
AcDbLine
62
7
6
CONTINUOUS
10
-11.1500000000
20
-21.8997711479
11
-11.1500000000
21
21.8997711479
0
LINE
5
250
100
AcDbEntity
8
0
100
AcDbLine
62
9
6
CONTINUOUS
10
-6.9690349754
20
-3.7227578234
11
-6.9688007254
21
5.2240248673
0
LINE
5
251
100
AcDbEntity
8
0
100
AcDbLine
62
7
6
CONTINUOUS
10
-6.4500000000
20
-3.2000000000
11
-6.4500000000
21
4.7000000000
0
LINE
5
252
100
AcDbEntity
8
0
100
AcDbLine
62
9
6
CONTINUOUS
10
-6.1000000000
20
-3.2000000000
11
-6.1000000000
21
3.8500000000
0
LINE
5
253
100
AcDbEntity
8
CURVE
100
AcDbLine
62
40
6
CONTINUOUS
10
-6.0000000000
20
3.7500000000
11
-6.0000000000
21
-3.1500000000
0
LINE
5
254
100
AcDbEntity
8
0
100
AcDbLine
62
7
6
CONTINUOUS
10
-6.0000000000
20
-3.1500000000
11
-6.0000000000
21
3.7500000000
0
LINE
5
255
100
AcDbEntity
8
0
100
AcDbLine
62
9
6
CONTINUOUS
10
3.0184996320
20
-6.6751748914
11
-3.0184997047
21
-6.6751748914
0
LINE
5
256
100
AcDbEntity
8
0
100
AcDbLine
62
9
6
CONTINUOUS
10
2.5185758689
20
-6.1685758689
11
-2.5185758689
21
-6.1685758689
0
LINE
5
257
100
AcDbEntity
8
0
100
AcDbLine
62
7
6
CONTINUOUS
10
2.5000000000
20
-6.1500000000
11
-2.5000000000
21
-6.1500000000
0
LINE
5
258
100
AcDbEntity
8
0
100
AcDbLine
62
7
6
CONTINUOUS
10
2.0500000000
20
-6.0500000000
11
-2.0500000000
21
-6.0500000000
0
LINE
5
259
100
AcDbEntity
8
CURVE
100
AcDbLine
62
40
6
CONTINUOUS
10
2.0500000000
20
-6.0500000000
11
-2.0500000000
21
-6.0500000000
0
LINE
5
25A
100
AcDbEntity
8
0
100
AcDbLine
62
9
6
CONTINUOUS
10
4.1687823107
20
-5.3241065396
11
3.0187823812
21
-5.3241065396
0
LINE
5
25B
100
AcDbEntity
8
0
100
AcDbLine
62
9
6
CONTINUOUS
10
-3.0187823798
20
-5.3241065396
11
-4.1687823812
21
-5.3241065396
0
LINE
5
25C
100
AcDbEntity
8
0
100
AcDbLine
62
9
6
CONTINUOUS
10
-4.1687823812
20
-5.3241065396
11
-4.1690349676
21
-3.7227578234
0
LINE
5
25D
100
AcDbEntity
8
0
100
AcDbLine
62
7
6
CONTINUOUS
10
-4.9000000000
20
-2.0500000000
11
-4.9000000000
21
2.6500000000
0
LINE
5
25E
100
AcDbEntity
8
0
100
AcDbLine
62
7
6
CONTINUOUS
10
-3.7000000000
20
3.7500000000
11
-3.7000000000
21
0.1500000000
0
LINE
5
25F
100
AcDbEntity
8
0
100
AcDbLine
62
7
6
CONTINUOUS
10
-3.6500000000
20
-4.8000000000
11
-3.6500000000
21
-3.2000000000
0
LINE
5
260
100
AcDbEntity
8
0
100
AcDbLine
62
9
6
CONTINUOUS
10
-3.3500000000
20
-4.8000000000
11
-3.3500000000
21
-3.2500000000
0
LINE
5
261
100
AcDbEntity
8
0
100
AcDbLine
62
7
6
CONTINUOUS
10
-3.3000000000
20
3.7500000000
11
-3.3000000000
21
0.1500000000
0
LINE
5
262
100
AcDbEntity
8
0
100
AcDbLine
62
7
6
CONTINUOUS
10
-3.2500000000
20
-1.8500000000
11
-3.2500000000
21
-4.8000000000
0
LINE
5
263
100
AcDbEntity
8
CURVE
100
AcDbLine
62
40
6
CONTINUOUS
10
-3.2500000000
20
-3.1500000000
11
-3.2500000000
21
-4.8000000000
0
LINE
5
264
100
AcDbEntity
8
0
100
AcDbLine
62
9
6
CONTINUOUS
10
-11.1500000000
20
-21.8997711479
11
-11.0087219643
21
-21.4755923698
0
LINE
5
265
100
AcDbEntity
8
0
100
AcDbLine
62
9
6
CONTINUOUS
10
2.5000000000
20
-4.9500000000
11
2.1500000000
21
-4.9500000000
0
LINE
5
266
100
AcDbEntity
8
0
100
AcDbLine
62
9
6
CONTINUOUS
10
-2.1500000000
20
-4.9500000000
11
-2.5000000000
21
-4.9500000000
0
LINE
5
267
100
AcDbEntity
8
0
100
AcDbLine
62
7
6
CONTINUOUS
10
2.5000000000
20
-4.8500000000
11
2.0500000000
21
-4.8500000000
0
LINE
5
268
100
AcDbEntity
8
CURVE
100
AcDbLine
62
40
6
CONTINUOUS
10
2.5000000000
20
-4.8500000000
11
2.0500000000
21
-4.8500000000
0
LINE
5
269
100
AcDbEntity
8
0
100
AcDbLine
62
7
6
CONTINUOUS
10
-2.0500000000
20
-4.8500000000
11
-2.5000000000
21
-4.8500000000
0
LINE
5
26A
100
AcDbEntity
8
CURVE
100
AcDbLine
62
40
6
CONTINUOUS
10
-2.5000000000
20
-4.8500000000
11
-2.0500000000
21
-4.8500000000
0
LINE
5
26B
100
AcDbEntity
8
0
100
AcDbLine
62
9
6
CONTINUOUS
10
3.6688585854
20
-4.8188585854
11
2.5188585854
21
-4.8188585854
0
LINE
5
26C
100
AcDbEntity
8
0
100
AcDbLine
62
9
6
CONTINUOUS
10
-2.5188585854
20
-4.8188585854
11
-3.6688585854
21
-4.8188585854
0
LINE
5
26D
100
AcDbEntity
8
0
100
AcDbLine
62
7
6
CONTINUOUS
10
3.6500000000
20
-4.8000000000
11
2.5000000000
21
-4.8000000000
0
LINE
5
26E
100
AcDbEntity
8
0
100
AcDbLine
62
7
6
CONTINUOUS
10
-2.5000000000
20
-4.8000000000
11
-3.6500000000
21
-4.8000000000
0
LINE
5
26F
100
AcDbEntity
8
0
100
AcDbLine
62
7
6
CONTINUOUS
10
3.2500000000
20
-4.5500000000
11
-3.2500000000
21
-4.5500000000
0
LINE
5
270
100
AcDbEntity
8
0
100
AcDbLine
62
9
6
CONTINUOUS
10
6.9690349429
20
-3.7227578234
11
4.1690349754
21
-3.7227578234
0
LINE
5
271
100
AcDbEntity
8
0
100
AcDbLine
62
9
6
CONTINUOUS
10
-4.1690349676
20
-3.7227578234
11
-6.9690349754
21
-3.7227578234
0
LINE
5
272
100
AcDbEntity
8
0
100
AcDbLine
62
9
6
CONTINUOUS
10
3.6500000000
20
-3.2500000000
11
3.3500000000
21
-3.2500000000
0
LINE
5
273
100
AcDbEntity
8
0
100
AcDbLine
62
9
6
CONTINUOUS
10
-3.3500000000
20
-3.2500000000
11
-3.6500000000
21
-3.2500000000
0
LINE
5
274
100
AcDbEntity
8
0
100
AcDbLine
62
9
6
CONTINUOUS
10
-11.0087219643
20
21.4755923698
11
-11.1500000000
21
21.8997711479
0
LINE
5
275
100
AcDbEntity
8
0
100
AcDbLine
62
9
6
CONTINUOUS
10
-3.0184997047
20
-6.6751748914
11
-3.0187823798
21
-5.3241065396
0
LINE
5
276
100
AcDbEntity
8
0
100
AcDbLine
62
7
6
CONTINUOUS
10
-3.0000000000
20
-23.5000000000
11
-3.0000000000
21
-22.4000000000
0
LINE
5
277
100
AcDbEntity
8
0
100
AcDbLine
62
7
6
CONTINUOUS
10
-3.0000000000
20
22.4000000000
11
-3.0000000000
21
23.5000000000
0
LINE
5
278
100
AcDbEntity
8
0
100
AcDbLine
62
7
6
CONTINUOUS
10
-2.7812783412
20
-23.4563623377
11
-2.7812783412
21
-22.5310194482
0
LINE
5
279
100
AcDbEntity
8
0
100
AcDbLine
62
7
6
CONTINUOUS
10
-2.7812783412
20
22.5310194482
11
-2.7812783412
21
23.4563623377
0
LINE
5
27A
100
AcDbEntity
8
0
100
AcDbLine
62
7
6
CONTINUOUS
10
-2.7000000000
20
3.7500000000
11
-2.7000000000
21
0.1500000000
0
LINE
5
27B
100
AcDbEntity
8
0
100
AcDbLine
62
7
6
CONTINUOUS
10
-2.5000000000
20
-6.1500000000
11
-2.5000000000
21
-4.8000000000
0
LINE
5
27C
100
AcDbEntity
8
0
100
AcDbLine
62
7
6
CONTINUOUS
10
-2.3000000000
20
3.7500000000
11
-2.3000000000
21
0.1500000000
0
LINE
5
27D
100
AcDbEntity
8
0
100
AcDbLine
62
9
6
CONTINUOUS
10
-2.1500000000
20
-6.1500000000
11
-2.1500000000
21
-4.9500000000
0
LINE
5
27E
100
AcDbEntity
8
0
100
AcDbLine
62
7
6
CONTINUOUS
10
-2.0500000000
20
-6.0500000000
11
-2.0500000000
21
-4.8500000000
0
LINE
5
27F
100
AcDbEntity
8
CURVE
100
AcDbLine
62
40
6
CONTINUOUS
10
-2.0500000000
20
-4.8500000000
11
-2.0500000000
21
-6.0500000000
0
LINE
5
280
100
AcDbEntity
8
0
100
AcDbLine
62
7
6
CONTINUOUS
10
-1.7000000000
20
3.7500000000
11
-1.7000000000
21
0.1500000000
0
LINE
5
281
100
AcDbEntity
8
0
100
AcDbLine
62
9
6
CONTINUOUS
10
-10.6503805997
20
-22.4000000000
11
-10.5087981167
21
-21.9749071372
0
LINE
5
282
100
AcDbEntity
8
0
100
AcDbLine
62
7
6
CONTINUOUS
10
-6.4500000000
20
-3.2000000000
11
-6.4691717389
21
-3.2191717389
0
LINE
5
283
100
AcDbEntity
8
0
100
AcDbLine
62
9
6
CONTINUOUS
10
6.4691112180
20
-3.2191112180
11
3.6691112180
21
-3.2191112180
0
LINE
5
284
100
AcDbEntity
8
0
100
AcDbLine
62
9
6
CONTINUOUS
10
-3.6691112180
20
-3.2191112180
11
-6.4691112180
21
-3.2191112180
0
LINE
5
285
100
AcDbEntity
8
0
100
AcDbLine
62
7
6
CONTINUOUS
10
6.4500000000
20
-3.2000000000
11
3.6500000000
21
-3.2000000000
0
LINE
5
286
100
AcDbEntity
8
0
100
AcDbLine
62
7
6
CONTINUOUS
10
-3.6500000000
20
-3.2000000000
11
-6.4500000000
21
-3.2000000000
0
LINE
5
287
100
AcDbEntity
8
0
100
AcDbLine
62
7
6
CONTINUOUS
10
6.0000000000
20
-3.1500000000
11
3.2500000000
21
-3.1500000000
0
LINE
5
288
100
AcDbEntity
8
CURVE
100
AcDbLine
62
40
6
CONTINUOUS
10
6.0000000000
20
-3.1500000000
11
3.2500000000
21
-3.1500000000
0
LINE
5
289
100
AcDbEntity
8
0
100
AcDbLine
62
7
6
CONTINUOUS
10
-3.2500000000
20
-3.1500000000
11
-6.0000000000
21
-3.1500000000
0
LINE
5
28A
100
AcDbEntity
8
CURVE
100
AcDbLine
62
40
6
CONTINUOUS
10
-6.0000000000
20
-3.1500000000
11
-3.2500000000
21
-3.1500000000
0
LINE
5
28B
100
AcDbEntity
8
0
100
AcDbLine
62
7
6
CONTINUOUS
10
6.0000000000
20
-2.0500000000
11
4.9000000000
21
-2.0500000000
0
LINE
5
28C
100
AcDbEntity
8
0
100
AcDbLine
62
7
6
CONTINUOUS
10
-6.0000000000
20
-2.0500000000
11
-4.9000000000
21
-2.0500000000
0
LINE
5
28D
100
AcDbEntity
8
0
100
AcDbLine
62
7
6
CONTINUOUS
10
3.2500000000
20
-1.8500000000
11
-3.2500000000
21
-1.8500000000
0
LINE
5
28E
100
AcDbEntity
8
0
100
AcDbLine
62
7
6
CONTINUOUS
10
2.5000000000
20
-6.1500000000
11
2.5185758689
21
-6.1685758689
0
LINE
5
28F
100
AcDbEntity
8
0
100
AcDbLine
62
7
6
CONTINUOUS
10
2.5000000000
20
-4.8000000000
11
2.5189470899
21
-4.8189470899
0
LINE
5
290
100
AcDbEntity
8
0
100
AcDbLine
62
7
6
CONTINUOUS
10
2.5186879746
20
-6.1687292540
11
2.5185758689
21
-6.1685758689
0
LINE
5
291
100
AcDbEntity
8
0
100
AcDbLine
62
9
6
CONTINUOUS
10
-10.5087981167
20
21.9749071372
11
-10.6503805997
21
22.4000000000
0
LINE
5
292
100
AcDbEntity
8
0
100
AcDbLine
62
7
6
CONTINUOUS
10
-1.3000000000
20
3.7500000000
11
-1.3000000000
21
0.1500000000
0
LINE
5
293
100
AcDbEntity
8
0
100
AcDbLine
62
7
6
CONTINUOUS
10
-0.7000000000
20
3.7500000000
11
-0.7000000000
21
0.1500000000
0
LINE
5
294
100
AcDbEntity
8
0
100
AcDbLine
62
7
6
CONTINUOUS
10
-0.3000000000
20
3.7500000000
11
-0.3000000000
21
0.1500000000
0
LINE
5
295
100
AcDbEntity
8
0
100
AcDbLine
62
7
6
CONTINUOUS
10
-3.6500000000
20
-3.2000000000
11
-3.6691112180
21
-3.2191112180
0
LINE
5
296
100
AcDbEntity
8
0
100
AcDbLine
62
7
6
CONTINUOUS
10
3.7000000000
20
0.1500000000
11
3.3000000000
21
0.1500000000
0
LINE
5
297
100
AcDbEntity
8
0
100
AcDbLine
62
7
6
CONTINUOUS
10
2.7000000000
20
0.1500000000
11
2.3000000000
21
0.1500000000
0
LINE
5
298
100
AcDbEntity
8
0
100
AcDbLine
62
7
6
CONTINUOUS
10
1.7000000000
20
0.1500000000
11
1.3000000000
21
0.1500000000
0
LINE
5
299
100
AcDbEntity
8
0
100
AcDbLine
62
7
6
CONTINUOUS
10
0.7000000000
20
0.1500000000
11
0.3000000000
21
0.1500000000
0
LINE
5
29A
100
AcDbEntity
8
0
100
AcDbLine
62
7
6
CONTINUOUS
10
-0.3000000000
20
0.1500000000
11
-0.7000000000
21
0.1500000000
0
LINE
5
29B
100
AcDbEntity
8
0
100
AcDbLine
62
7
6
CONTINUOUS
10
-1.3000000000
20
0.1500000000
11
-1.7000000000
21
0.1500000000
0
LINE
5
29C
100
AcDbEntity
8
0
100
AcDbLine
62
7
6
CONTINUOUS
10
-2.3000000000
20
0.1500000000
11
-2.7000000000
21
0.1500000000
0
LINE
5
29D
100
AcDbEntity
8
0
100
AcDbLine
62
7
6
CONTINUOUS
10
-3.3000000000
20
0.1500000000
11
-3.7000000000
21
0.1500000000
0
LINE
5
29E
100
AcDbEntity
8
0
100
AcDbLine
62
7
6
CONTINUOUS
10
-6.4500000000
20
4.7000000000
11
-6.4688769949
21
4.7188769949
0
LINE
5
29F
100
AcDbEntity
8
0
100
AcDbLine
62
7
6
CONTINUOUS
10
3.6500000000
20
-4.8000000000
11
3.6688585854
21
-4.8188585854
0
LINE
5
2A0
100
AcDbEntity
8
0
100
AcDbLine
62
7
6
CONTINUOUS
10
0.3000000000
20
3.7500000000
11
0.3000000000
21
0.1500000000
0
LINE
5
2A1
100
AcDbEntity
8
0
100
AcDbLine
62
7
6
CONTINUOUS
10
0.7000000000
20
3.7500000000
11
0.7000000000
21
0.1500000000
0
LINE
5
2A2
100
AcDbEntity
8
0
100
AcDbLine
62
7
6
CONTINUOUS
10
1.3000000000
20
3.7500000000
11
1.3000000000
21
0.1500000000
0
LINE
5
2A3
100
AcDbEntity
8
0
100
AcDbLine
62
7
6
CONTINUOUS
10
1.7000000000
20
3.7500000000
11
1.7000000000
21
0.1500000000
0
LINE
5
2A4
100
AcDbEntity
8
0
100
AcDbLine
62
7
6
CONTINUOUS
10
-2.5186879693
20
-6.1687292454
11
-2.5185758689
21
-6.1685758689
0
LINE
5
2A5
100
AcDbEntity
8
0
100
AcDbLine
62
7
6
CONTINUOUS
10
-3.6500000000
20
-4.8000000000
11
-3.6689470909
21
-4.8189470909
0
LINE
5
2A6
100
AcDbEntity
8
0
100
AcDbLine
62
7
6
CONTINUOUS
10
6.4500000000
20
4.7000000000
11
6.4689637533
21
4.7189637533
0
LINE
5
2A7
100
AcDbEntity
8
0
100
AcDbLine
62
7
6
CONTINUOUS
10
-2.5000000000
20
-4.8000000000
11
-2.5188585854
21
-4.8188585854
0
LINE
5
2A8
100
AcDbEntity
8
0
100
AcDbLine
62
7
6
CONTINUOUS
10
3.6500000000
20
-3.2000000000
11
3.6691717357
21
-3.2191717357
0
LINE
5
2A9
100
AcDbEntity
8
0
100
AcDbLine
62
7
6
CONTINUOUS
10
2.0500000000
20
-4.8500000000
11
2.0500000000
21
-6.0500000000
0
LINE
5
2AA
100
AcDbEntity
8
CURVE
100
AcDbLine
62
40
6
CONTINUOUS
10
2.0500000000
20
-4.8500000000
11
2.0500000000
21
-6.0500000000
0
LINE
5
2AB
100
AcDbEntity
8
0
100
AcDbLine
62
9
6
CONTINUOUS
10
2.1500000000
20
-4.9500000000
11
2.1500000000
21
-6.1500000000
0
LINE
5
2AC
100
AcDbEntity
8
0
100
AcDbLine
62
7
6
CONTINUOUS
10
2.3000000000
20
3.7500000000
11
2.3000000000
21
0.1500000000
0
LINE
5
2AD
100
AcDbEntity
8
0
100
AcDbLine
62
7
6
CONTINUOUS
10
2.5000000000
20
-4.8000000000
11
2.5000000000
21
-6.1500000000
0
LINE
5
2AE
100
AcDbEntity
8
0
100
AcDbLine
62
7
6
CONTINUOUS
10
2.7000000000
20
3.7500000000
11
2.7000000000
21
0.1500000000
0
LINE
5
2AF
100
AcDbEntity
8
0
100
AcDbLine
62
7
6
CONTINUOUS
10
2.7812783412
20
-23.4563623377
11
2.7812783412
21
-22.5310194482
0
LINE
5
2B0
100
AcDbEntity
8
0
100
AcDbLine
62
7
6
CONTINUOUS
10
2.7812783412
20
22.5310194482
11
2.7812783412
21
23.4563623377
0
LINE
5
2B1
100
AcDbEntity
8
0
100
AcDbLine
62
7
6
CONTINUOUS
10
3.0000000000
20
-23.5000000000
11
3.0000000000
21
-22.4000000000
0
LINE
5
2B2
100
AcDbEntity
8
0
100
AcDbLine
62
7
6
CONTINUOUS
10
3.0000000000
20
22.4000000000
11
3.0000000000
21
23.5000000000
0
LINE
5
2B3
100
AcDbEntity
8
0
100
AcDbLine
62
7
6
CONTINUOUS
10
3.2500000000
20
-1.8500000000
11
3.2500000000
21
-4.8000000000
0
LINE
5
2B4
100
AcDbEntity
8
CURVE
100
AcDbLine
62
40
6
CONTINUOUS
10
3.2500000000
20
-3.1500000000
11
3.2500000000
21
-4.8000000000
0
LINE
5
2B5
100
AcDbEntity
8
0
100
AcDbLine
62
7
6
CONTINUOUS
10
3.3000000000
20
3.7500000000
11
3.3000000000
21
0.1500000000
0
LINE
5
2B6
100
AcDbEntity
8
0
100
AcDbLine
62
9
6
CONTINUOUS
10
3.3500000000
20
-3.2500000000
11
3.3500000000
21
-4.8000000000
0
LINE
5
2B7
100
AcDbEntity
8
0
100
AcDbLine
62
7
6
CONTINUOUS
10
3.6500000000
20
-3.2000000000
11
3.6500000000
21
-4.8000000000
0
LINE
5
2B8
100
AcDbEntity
8
0
100
AcDbLine
62
7
6
CONTINUOUS
10
3.7000000000
20
3.7500000000
11
3.7000000000
21
0.1500000000
0
LINE
5
2B9
100
AcDbEntity
8
0
100
AcDbLine
62
9
6
CONTINUOUS
10
3.0187823812
20
-5.3241065396
11
3.0184996320
21
-6.6751748914
0
LINE
5
2BA
100
AcDbEntity
8
0
100
AcDbLine
62
9
6
CONTINUOUS
10
10.5087981167
20
21.9749071372
11
10.6503805997
21
22.4000000000
0
LINE
5
2BB
100
AcDbEntity
8
0
100
AcDbLine
62
9
6
CONTINUOUS
10
11.0087219643
20
21.4755923698
11
11.1500000000
21
21.8997711479
0
LINE
5
2BC
100
AcDbEntity
8
0
100
AcDbLine
62
7
6
CONTINUOUS
10
-2.5000000000
20
-6.1500000000
11
-2.5185758689
21
-6.1685758689
0
LINE
5
2BD
100
AcDbEntity
8
0
100
AcDbLine
62
7
6
CONTINUOUS
10
6.0000000000
20
2.6500000000
11
4.9000000000
21
2.6500000000
0
LINE
5
2BE
100
AcDbEntity
8
0
100
AcDbLine
62
7
6
CONTINUOUS
10
-6.0000000000
20
2.6500000000
11
-4.9000000000
21
2.6500000000
0
LINE
5
2BF
100
AcDbEntity
8
0
100
AcDbLine
62
7
6
CONTINUOUS
10
6.4500000000
20
-3.2000000000
11
6.4691112180
21
-3.2191112180
0
LINE
5
2C0
100
AcDbEntity
8
0
100
AcDbLine
62
9
6
CONTINUOUS
10
10.6503805997
20
-22.4000000000
11
10.5087981167
21
-21.9749071372
0
LINE
5
2C1
100
AcDbEntity
8
0
100
AcDbLine
62
9
6
CONTINUOUS
10
11.1500000000
20
-21.8997711479
11
11.0087219643
21
-21.4755923698
0
LINE
5
2C2
100
AcDbEntity
8
0
100
AcDbLine
62
7
6
CONTINUOUS
10
4.9000000000
20
2.6500000000
11
4.9000000000
21
-2.0500000000
0
LINE
5
2C3
100
AcDbEntity
8
0
100
AcDbLine
62
9
6
CONTINUOUS
10
4.1690349754
20
-3.7227578234
11
4.1687823107
21
-5.3241065396
0
LINE
5
2C4
100
AcDbEntity
8
0
100
AcDbLine
62
7
6
CONTINUOUS
10
-6.0000000000
20
3.7500000000
11
6.0000000000
21
3.7500000000
0
LINE
5
2C5
100
AcDbEntity
8
CURVE
100
AcDbLine
62
40
6
CONTINUOUS
10
-6.0000000000
20
3.7500000000
11
6.0000000000
21
3.7500000000
0
LINE
5
2C6
100
AcDbEntity
8
0
100
AcDbLine
62
9
6
CONTINUOUS
10
-6.1000000000
20
3.8500000000
11
6.1000000000
21
3.8500000000
0
LINE
5
2C7
100
AcDbEntity
8
0
100
AcDbLine
62
7
6
CONTINUOUS
10
-6.4500000000
20
4.7000000000
11
6.4500000000
21
4.7000000000
0
LINE
5
2C8
100
AcDbEntity
8
0
100
AcDbLine
62
9
6
CONTINUOUS
10
-6.4688769949
20
4.7188769949
11
6.4688769949
21
4.7188769949
0
LINE
5
2C9
100
AcDbEntity
8
0
100
AcDbLine
62
9
6
CONTINUOUS
10
-6.9688007254
20
5.2240248673
11
6.9688007876
21
5.2240248673
0
LINE
5
2CA
100
AcDbEntity
8
0
100
AcDbLine
62
7
6
CONTINUOUS
10
6.0000000000
20
3.7500000000
11
6.0000000000
21
-3.1500000000
0
LINE
5
2CB
100
AcDbEntity
8
CURVE
100
AcDbLine
62
40
6
CONTINUOUS
10
6.0000000000
20
3.7500000000
11
6.0000000000
21
-3.1500000000
0
LINE
5
2CC
100
AcDbEntity
8
0
100
AcDbLine
62
9
6
CONTINUOUS
10
6.1000000000
20
3.8500000000
11
6.1000000000
21
-3.2000000000
0
LINE
5
2CD
100
AcDbEntity
8
0
100
AcDbLine
62
7
6
CONTINUOUS
10
6.4500000000
20
4.7000000000
11
6.4500000000
21
-3.2000000000
0
LINE
5
2CE
100
AcDbEntity
8
0
100
AcDbLine
62
9
6
CONTINUOUS
10
6.9688007876
20
5.2240248673
11
6.9690349429
21
-3.7227578234
0
LINE
5
2CF
100
AcDbEntity
8
0
100
AcDbLine
62
7
6
CONTINUOUS
10
11.1500000000
20
21.8997711479
11
11.1500000000
21
-21.8997711479
0
LINE
5
2D0
100
AcDbEntity
8
0
100
AcDbLine
62
7
6
CONTINUOUS
10
2.7812783412
20
-22.5310194482
11
3.0000000000
21
-22.4000000000
0
LINE
5
2D1
100
AcDbEntity
8
0
100
AcDbLine
62
9
6
CONTINUOUS
10
-10.5005350625
20
21.0183142309
11
10.5005350625
21
21.0183142309
0
LINE
5
2D2
100
AcDbEntity
8
0
100
AcDbLine
62
7
6
CONTINUOUS
10
3.0000000000
20
22.4000000000
11
2.7812783412
21
22.5310194482
0
LINE
5
2D3
100
AcDbEntity
8
0
100
AcDbLine
62
7
6
CONTINUOUS
10
3.0000000000
20
23.5000000000
11
2.7812783412
21
23.4563623377
0
LINE
5
2D4
100
AcDbEntity
8
0
100
AcDbLine
62
9
6
CONTINUOUS
10
-10.5087981167
20
21.9749071372
11
10.5087981167
21
21.9749071372
0
LINE
5
2D5
100
AcDbEntity
8
0
100
AcDbLine
62
7
6
CONTINUOUS
10
-10.6503805997
20
22.4000000000
11
-3.0000000000
21
22.4000000000
0
LINE
5
2D6
100
AcDbEntity
8
0
100
AcDbLine
62
7
6
CONTINUOUS
10
3.0000000000
20
22.4000000000
11
10.6503805997
21
22.4000000000
0
LINE
5
2D7
100
AcDbEntity
8
0
100
AcDbLine
62
7
6
CONTINUOUS
10
2.7812783412
20
22.5310194482
11
-2.7812783412
21
22.5310194482
0
LINE
5
2D8
100
AcDbEntity
8
0
100
AcDbLine
62
7
6
CONTINUOUS
10
-3.0000000000
20
23.5000000000
11
-2.7812783412
21
23.4563623377
0
LINE
5
2D9
100
AcDbEntity
8
0
100
AcDbLine
62
7
6
CONTINUOUS
10
-2.7812783412
20
23.4563623377
11
2.7812783412
21
23.4563623377
0
LINE
5
2DA
100
AcDbEntity
8
0
100
AcDbLine
62
7
6
CONTINUOUS
10
-3.9733373476
20
23.5000000000
11
-3.0000000000
21
23.5000000000
0
LINE
5
2DB
100
AcDbEntity
8
0
100
AcDbLine
62
7
6
CONTINUOUS
10
3.0000000000
20
23.5000000000
11
3.9733373476
21
23.5000000000
0
LINE
5
2DC
100
AcDbEntity
8
0
100
AcDbLine
62
7
6
CONTINUOUS
10
-58.7052644818
20
-23.5000000000
11
-54.7052644818
21
-23.4301797403
0
LINE
5
2DD
100
AcDbEntity
8
0
100
AcDbLine
62
7
6
CONTINUOUS
10
-52.6052644818
20
-22.2000000000
11
-53.1052644818
21
-22.2000000000
0
LINE
5
2DE
100
AcDbEntity
8
0
100
AcDbLine
62
7
6
CONTINUOUS
10
-58.7052644818
20
-22.4000000000
11
-66.8165195017
21
-21.9749071372
0
LINE
5
2DF
100
AcDbEntity
8
0
100
AcDbLine
62
9
6
CONTINUOUS
10
-58.7052644818
20
-21.8997711479
11
-66.7990777268
21
-21.4755923698
0
LINE
5
2E0
100
AcDbEntity
8
0
100
AcDbLine
62
9
6
CONTINUOUS
10
-67.7632996051
20
-21.0183142305
11
-67.2724677839
21
-20.9972959167
0
LINE
5
2E1
100
AcDbEntity
8
0
100
AcDbLine
62
7
6
CONTINUOUS
10
-54.7052644818
20
-21.2000000000
11
-50.6700496959
21
-21.1647852141
0
LINE
5
2E2
100
AcDbEntity
8
0
100
AcDbLine
62
7
6
CONTINUOUS
10
-58.7052644818
20
-20.9000000000
11
-50.6212796205
21
-20.8366629075
0
LINE
5
2E3
100
AcDbEntity
8
0
100
AcDbLine
62
7
6
CONTINUOUS
10
-54.7052644818
20
-21.2000000000
11
-50.7052644818
21
-21.2000000000
0
LINE
5
2E4
100
AcDbEntity
8
0
100
AcDbLine
62
9
6
CONTINUOUS
10
-49.9017740005
20
-20.1171572875
11
-49.7052644818
21
-20.1171572875
0
LINE
5
2E5
100
AcDbEntity
8
0
100
AcDbLine
62
9
6
CONTINUOUS
10
-49.9017740005
20
-19.0000000000
11
-49.7052644818
21
-18.9999999999
0
LINE
5
2E6
100
AcDbEntity
8
0
100
AcDbLine
62
9
6
CONTINUOUS
10
-50.2017740005
20
-18.7000000000
11
-54.4601553076
21
-18.7000000000
0
LINE
5
2E7
100
AcDbEntity
8
0
100
AcDbLine
62
7
6
CONTINUOUS
10
-50.2052644818
20
-18.5000000000
11
-54.4373152894
21
-18.5000000000
0
LINE
5
2E8
100
AcDbEntity
8
0
100
AcDbLine
62
9
6
CONTINUOUS
10
-54.4601553076
20
-18.7000000000
11
-58.7052644818
21
-17.5625264250
0
LINE
5
2E9
100
AcDbEntity
8
0
100
AcDbLine
62
7
6
CONTINUOUS
10
-54.4373152894
20
-18.5000000000
11
-58.7052644818
21
-17.3564064606
0
LINE
5
2EA
100
AcDbEntity
8
0
100
AcDbLine
62
7
6
CONTINUOUS
10
-57.0216293652
20
12.8836351166
11
-57.4052644818
21
12.5000000000
0
LINE
5
2EB
100
AcDbEntity
8
0
100
AcDbLine
62
7
6
CONTINUOUS
10
-58.7052644818
20
22.6631666220
11
-58.7052644818
21
-23.5000000000
0
LINE
5
2EC
100
AcDbEntity
8
0
100
AcDbLine
62
7
6
CONTINUOUS
10
-58.7052644818
20
22.7091960745
11
-58.7052644818
21
23.5000000000
0
LINE
5
2ED
100
AcDbEntity
8
0
100
AcDbLine
62
9
6
CONTINUOUS
10
-57.9052644818
20
13.2240572110
11
-57.9052644818
21
-7.0240572110
0
LINE
5
2EE
100
AcDbEntity
8
0
100
AcDbLine
62
7
6
CONTINUOUS
10
-56.3052644818
20
-9.5101132618
11
-58.7052644818
21
-9.5310577445
0
LINE
5
2EF
100
AcDbEntity
8
0
100
AcDbLine
62
9
6
CONTINUOUS
10
-56.3052644818
20
-9.0101323002
11
-58.7052644818
21
-9.0310767829
0
LINE
5
2F0
100
AcDbEntity
8
0
100
AcDbLine
62
7
6
CONTINUOUS
10
-57.7052644818
20
13.5240686345
11
-57.7052644818
21
-7.3240686345
0
LINE
5
2F1
100
AcDbEntity
8
0
100
AcDbLine
62
9
6
CONTINUOUS
10
-57.5736685105
20
13.5217717933
11
-57.5736685105
21
12.8788175440
0
LINE
5
2F2
100
AcDbEntity
8
0
100
AcDbLine
62
9
6
CONTINUOUS
10
-57.5736685105
20
9.4211824560
11
-57.5736685105
21
8.5788175440
0
LINE
5
2F3
100
AcDbEntity
8
0
100
AcDbLine
62
9
6
CONTINUOUS
10
-57.5736685105
20
1.7211824560
11
-57.5736685105
21
0.8788175440
0
LINE
5
2F4
100
AcDbEntity
8
0
100
AcDbLine
62
9
6
CONTINUOUS
10
-57.5736685105
20
-6.6788175440
11
-57.5736685105
21
-7.3217717933
0
LINE
5
2F5
100
AcDbEntity
8
0
100
AcDbLine
62
7
6
CONTINUOUS
10
-56.6052644818
20
9.4500000000
11
-56.6052644818
21
7.3500000000
0
LINE
5
2F6
100
AcDbEntity
8
0
100
AcDbLine
62
7
6
CONTINUOUS
10
-56.6052644818
20
0.0500000000
11
-56.6052644818
21
-2.0500000000
0
LINE
5
2F7
100
AcDbEntity
8
0
100
AcDbLine
62
9
6
CONTINUOUS
10
-56.5026584388
20
13.5124252300
11
-56.5026584388
21
12.8881641073
0
LINE
5
2F8
100
AcDbEntity
8
0
100
AcDbLine
62
9
6
CONTINUOUS
10
-56.5026584388
20
1.7118358927
11
-56.5026584388
21
0.8881641073
0
LINE
5
2F9
100
AcDbEntity
8
0
100
AcDbLine
62
9
6
CONTINUOUS
10
-56.5026584388
20
-6.6881641073
11
-56.5026584388
21
-7.3124252300
0
LINE
5
2FA
100
AcDbEntity
8
0
100
AcDbLine
62
7
6
CONTINUOUS
10
-56.3052644818
20
15.1101132618
11
-56.3052644818
21
12.8898867382
0
LINE
5
2FB
100
AcDbEntity
8
0
100
AcDbLine
62
7
6
CONTINUOUS
10
-56.3052644818
20
1.7101132618
11
-56.3052644818
21
0.8898867382
0
LINE
5
2FC
100
AcDbEntity
8
0
100
AcDbLine
62
7
6
CONTINUOUS
10
-56.3052644818
20
-4.9872801014
11
-56.3052644818
21
-9.5101132618
0
LINE
5
2FD
100
AcDbEntity
8
0
100
AcDbLine
62
7
6
CONTINUOUS
10
-58.7052644818
20
-7.5310577445
11
-56.5035191747
21
-7.5118434042
0
LINE
5
2FE
100
AcDbEntity
8
0
100
AcDbLine
62
9
6
CONTINUOUS
10
-57.5736685105
20
-7.3217717933
11
-56.5026584388
21
-7.3124252300
0
LINE
5
2FF
100
AcDbEntity
8
0
100
AcDbLine
62
9
6
CONTINUOUS
10
-58.7052644818
20
-7.0310387053
11
-57.9052644818
21
-7.0240572110
0
LINE
5
300
100
AcDbEntity
8
0
100
AcDbLine
62
9
6
CONTINUOUS
10
-57.7052644818
20
-7.0240572110
11
-57.9052644818
21
-7.0240572111
0
LINE
5
301
100
AcDbEntity
8
0
100
AcDbLine
62
7
6
CONTINUOUS
10
-53.1052644818
20
-6.6500000000
11
-56.3052644818
21
-6.6500000000
0
LINE
5
302
100
AcDbEntity
8
0
100
AcDbLine
62
7
6
CONTINUOUS
10
-57.7052644818
20
-6.6776691233
11
-56.3052644818
21
-6.6898867382
0
LINE
5
303
100
AcDbEntity
8
0
100
AcDbLine
62
7
6
CONTINUOUS
10
-55.6052644818
20
7.3500000000
11
-55.6052644818
21
0.0500000000
0
LINE
5
304
100
AcDbEntity
8
0
100
AcDbLine
62
7
6
CONTINUOUS
10
-54.7052644818
20
23.4301797403
11
-54.7052644818
21
21.2000000000
0
LINE
5
305
100
AcDbEntity
8
0
100
AcDbLine
62
7
6
CONTINUOUS
10
-54.7052644818
20
-21.2000000000
11
-54.7052644818
21
-22.6298666026
0
LINE
5
306
100
AcDbEntity
8
0
100
AcDbLine
62
7
6
CONTINUOUS
10
-54.7052644818
20
-22.6626174854
11
-54.7052644818
21
-23.4301797403
0
LINE
5
307
100
AcDbEntity
8
0
100
AcDbLine
62
7
6
CONTINUOUS
10
-57.6052644818
20
-4.6500000000
11
-53.1052644818
21
2.4500000000
0
LINE
5
308
100
AcDbEntity
8
CURVE
100
AcDbLine
62
4
6
CONTINUOUS
10
-40.7302644818
20
-3.2297872126
11
-40.6219311433
21
-3.2021276414
0
LINE
5
309
100
AcDbEntity
8
CURVE
100
AcDbLine
62
4
6
CONTINUOUS
10
-40.8602644818
20
-2.4000000000
11
-40.9685978358
21
-2.4276595736
0
LINE
5
30A
100
AcDbEntity
8
CURVE
100
AcDbLine
62
4
6
CONTINUOUS
10
-47.8519311588
20
-3.7000000000
11
-47.7435978203
21
-3.6723404288
0
LINE
5
30B
100
AcDbEntity
8
0
100
AcDbLine
62
7
6
CONTINUOUS
10
-57.6052644818
20
-4.6500000000
11
-57.7052644818
21
-4.6500000000
0
LINE
5
30C
100
AcDbEntity
8
0
100
AcDbLine
62
7
6
CONTINUOUS
10
-53.4004149500
20
-4.5500000000
11
-46.0864102297
21
-4.5500000000
0
LINE
5
30D
100
AcDbEntity
8
0
100
AcDbLine
62
7
6
CONTINUOUS
10
-38.4052644818
20
-4.5500000000
11
-32.3052644818
21
-4.5500000000
0
LINE
5
30E
100
AcDbEntity
8
CURVE
100
AcDbLine
62
4
6
CONTINUOUS
10
-43.2252644818
20
-3.7000000000
11
-43.3552644818
21
-3.7000000000
0
LINE
5
30F
100
AcDbEntity
8
CURVE
100
AcDbLine
62
4
6
CONTINUOUS
10
-45.2052644818
20
-3.7000000000
11
-45.9852644818
21
-3.7000000000
0
LINE
5
310
100
AcDbEntity
8
CURVE
100
AcDbLine
62
4
6
CONTINUOUS
10
-47.9385978048
20
-3.7000000000
11
-47.8519311588
21
-3.7000000000
0
LINE
5
311
100
AcDbEntity
8
CURVE
100
AcDbLine
62
4
6
CONTINUOUS
10
-41.1419311278
20
-3.7000000000
11
-40.4052644818
21
-3.7000000000
0
LINE
5
312
100
AcDbEntity
8
0
100
AcDbLine
62
7
6
CONTINUOUS
10
-56.6026465212
20
-4.6872915245
11
-57.7052644818
21
-4.6776691233
0
LINE
5
313
100
AcDbEntity
8
0
100
AcDbLine
62
7
6
CONTINUOUS
10
-53.1052644818
20
2.4500000000
11
-53.1052644818
21
2.0764022101
0
LINE
5
314
100
AcDbEntity
8
0
100
AcDbLine
62
7
6
CONTINUOUS
10
-53.1052644818
20
-4.5500000000
11
-53.1052644818
21
-6.6500000000
0
LINE
5
315
100
AcDbEntity
8
0
100
AcDbLine
62
7
6
CONTINUOUS
10
-53.1052644818
20
-21.2000000000
11
-53.1052644818
21
-22.2000000000
0
LINE
5
316
100
AcDbEntity
8
0
100
AcDbLine
62
7
6
CONTINUOUS
10
-53.1052644818
20
21.2000000000
11
-53.1052644818
21
22.2000000000
0
LINE
5
317
100
AcDbEntity
8
0
100
AcDbLine
62
7
6
CONTINUOUS
10
-52.1036930532
20
2.2500000000
11
-52.1036930532
21
-4.5500000000
0
LINE
5
318
100
AcDbEntity
8
0
100
AcDbLine
62
7
6
CONTINUOUS
10
-56.1431443454
20
-2.7166971302
11
-52.9952377136
21
2.2500000000
0
LINE
5
319
100
AcDbEntity
8
CURVE
100
AcDbLine
62
4
6
CONTINUOUS
10
-47.9602644818
20
-2.4000000000
11
-48.0685978358
21
-2.4276595736
0
LINE
5
31A
100
AcDbEntity
8
CURVE
100
AcDbLine
62
4
6
CONTINUOUS
10
-40.5135978126
20
-3.5617021441
11
-41.1419311278
21
-3.5617021441
0
LINE
5
31B
100
AcDbEntity
8
CURVE
100
AcDbLine
62
4
6
CONTINUOUS
10
-47.9385978048
20
-3.5617021441
11
-47.8519311588
21
-3.5617021441
0
LINE
5
31C
100
AcDbEntity
8
CURVE
100
AcDbLine
62
4
6
CONTINUOUS
10
-45.8552644818
20
-3.5617021441
11
-45.2052644818
21
-3.5617021441
0
LINE
5
31D
100
AcDbEntity
8
CURVE
100
AcDbLine
62
4
6
CONTINUOUS
10
-40.8602644818
20
-3.2297872126
11
-40.7302644818
21
-3.2297872126
0
LINE
5
31E
100
AcDbEntity
8
CURVE
100
AcDbLine
62
4
6
CONTINUOUS
10
-47.8519311588
20
-3.1191489279
11
-47.9385978048
21
-3.1191489279
0
LINE
5
31F
100
AcDbEntity
8
CURVE
100
AcDbLine
62
4
6
CONTINUOUS
10
-40.7302644818
20
-3.0914893568
11
-40.8602644818
21
-3.0914893568
0
LINE
5
320
100
AcDbEntity
8
CURVE
100
AcDbLine
62
4
6
CONTINUOUS
10
-47.9385978048
20
-3.0085106432
11
-47.8519311588
21
-3.0085106432
0
LINE
5
321
100
AcDbEntity
8
CURVE
100
AcDbLine
62
4
6
CONTINUOUS
10
-40.4052644818
20
-2.9808510721
11
-40.5569311433
21
-2.9808510721
0
LINE
5
322
100
AcDbEntity
8
CURVE
100
AcDbLine
62
4
6
CONTINUOUS
10
-43.3552644818
20
-2.9531915009
11
-43.5719311278
21
-2.9531915009
0
LINE
5
323
100
AcDbEntity
8
CURVE
100
AcDbLine
62
4
6
CONTINUOUS
10
-43.2252644818
20
-2.9531915009
11
-42.8569311433
21
-2.9531915009
0
LINE
5
324
100
AcDbEntity
8
CURVE
100
AcDbLine
62
4
6
CONTINUOUS
10
-43.5719311278
20
-2.7872340351
11
-43.3552644818
21
-2.7872340351
0
LINE
5
325
100
AcDbEntity
8
CURVE
100
AcDbLine
62
4
6
CONTINUOUS
10
-43.2252644818
20
-2.7872340351
11
-42.7052644818
21
-2.7872340351
0
LINE
5
326
100
AcDbEntity
8
CURVE
100
AcDbLine
62
4
6
CONTINUOUS
10
-40.5352644818
20
-2.7319148928
11
-40.4052644818
21
-2.7319148928
0
LINE
5
327
100
AcDbEntity
8
CURVE
100
AcDbLine
62
4
6
CONTINUOUS
10
-47.8519311588
20
-2.5382978752
11
-47.9385978048
21
-2.5382978752
0
LINE
5
328
100
AcDbEntity
8
CURVE
100
AcDbLine
62
4
6
CONTINUOUS
10
-40.8602644818
20
-2.5382978752
11
-40.7302644818
21
-2.5382978752
0
LINE
5
329
100
AcDbEntity
8
CURVE
100
AcDbLine
62
4
6
CONTINUOUS
10
-40.7302644818
20
-2.4000000000
11
-40.8602644818
21
-2.4000000000
0
LINE
5
32A
100
AcDbEntity
8
CURVE
100
AcDbLine
62
4
6
CONTINUOUS
10
-47.8302644818
20
-2.4000000000
11
-47.9602644818
21
-2.4000000000
0
LINE
5
32B
100
AcDbEntity
8
CURVE
100
AcDbLine
62
4
6
CONTINUOUS
10
-45.5519311588
20
-2.4000000000
11
-45.4219311433
21
-2.4000000000
0
LINE
5
32C
100
AcDbEntity
8
CURVE
100
AcDbLine
62
4
6
CONTINUOUS
10
-43.3552644818
20
-2.4000000000
11
-43.2252644818
21
-2.4000000000
0
LINE
5
32D
100
AcDbEntity
8
CURVE
100
AcDbLine
62
4
6
CONTINUOUS
10
-37.8052644937
20
-2.1000000000
11
-38.0052644818
21
-2.1000000000
0
LINE
5
32E
100
AcDbEntity
8
CURVE
100
AcDbLine
62
4
6
CONTINUOUS
10
-43.7052644818
20
-2.1000000000
11
-42.5052644818
21
-2.1000000000
0
LINE
5
32F
100
AcDbEntity
8
0
100
AcDbLine
62
7
6
CONTINUOUS
10
-32.3052644818
20
-2.0500000000
11
-36.4052644818
21
-2.0500000000
0
LINE
5
330
100
AcDbEntity
8
0
100
AcDbLine
62
7
6
CONTINUOUS
10
-56.6052644818
20
-2.0500000000
11
-55.9573771579
21
-2.0500000000
0
LINE
5
331
100
AcDbEntity
8
CURVE
100
AcDbLine
62
4
6
CONTINUOUS
10
-48.0469311278
20
-3.6723404288
11
-47.9385978048
21
-3.7000000000
0
LINE
5
332
100
AcDbEntity
8
CURVE
100
AcDbLine
62
4
6
CONTINUOUS
10
-47.7219311433
20
-2.4276595736
11
-47.8302644818
21
-2.4000000000
0
LINE
5
333
100
AcDbEntity
8
CURVE
100
AcDbLine
62
4
6
CONTINUOUS
10
-48.0252644818
20
-3.5340425730
11
-47.9385978048
21
-3.5617021441
0
LINE
5
334
100
AcDbEntity
8
CURVE
100
AcDbLine
62
4
6
CONTINUOUS
10
-47.7652644818
20
-3.1468084991
11
-47.8519311588
21
-3.1191489279
0
LINE
5
335
100
AcDbEntity
8
CURVE
100
AcDbLine
62
4
6
CONTINUOUS
10
-48.0252644818
20
-2.9808510721
11
-47.9385978048
21
-3.0085106432
0
LINE
5
336
100
AcDbEntity
8
0
100
AcDbLine
62
7
6
CONTINUOUS
10
-50.7952644818
20
-4.5500000000
11
-50.7952644818
21
2.2500000000
0
LINE
5
337
100
AcDbEntity
8
0
100
AcDbLine
62
7
6
CONTINUOUS
10
-50.4552644818
20
10.4500000000
11
-50.4552644818
21
11.7500000000
0
LINE
5
338
100
AcDbEntity
8
CURVE
100
AcDbLine
62
4
6
CONTINUOUS
10
-38.1302645057
20
1.3680851074
11
-38.0052644818
21
1.4000000000
0
LINE
5
339
100
AcDbEntity
8
CURVE
100
AcDbLine
62
4
6
CONTINUOUS
10
-48.5052644818
20
-1.6200000000
11
-47.3052644818
21
-1.6200000000
0
LINE
5
33A
100
AcDbEntity
8
0
100
AcDbLine
62
7
6
CONTINUOUS
10
-39.1052644818
20
-1.5500000000
11
-39.8052644818
21
-1.5500000000
0
LINE
5
33B
100
AcDbEntity
8
0
100
AcDbLine
62
7
6
CONTINUOUS
10
-41.5052644818
20
-1.5500000000
11
-42.2052644818
21
-1.5500000000
0
LINE
5
33C
100
AcDbEntity
8
0
100
AcDbLine
62
7
6
CONTINUOUS
10
-43.9052644818
20
-1.5500000000
11
-44.6052644818
21
-1.5500000000
0
LINE
5
33D
100
AcDbEntity
8
0
100
AcDbLine
62
7
6
CONTINUOUS
10
-46.3052644818
20
-1.5500000000
11
-47.0052644818
21
-1.5500000000
0
LINE
5
33E
100
AcDbEntity
8
CURVE
100
AcDbLine
62
4
6
CONTINUOUS
10
-38.1302645057
20
-1.1106382817
11
-37.6802644878
21
-1.1106382817
0
LINE
5
33F
100
AcDbEntity
8
CURVE
100
AcDbLine
62
4
6
CONTINUOUS
10
-38.1552644818
20
-0.9829787225
11
-37.6552644759
21
-0.9829787225
0
LINE
5
340
100
AcDbEntity
8
CURVE
100
AcDbLine
62
4
6
CONTINUOUS
10
-40.1052644818
20
-0.6000000000
11
-41.3052644818
21
-0.6000000000
0
LINE
5
341
100
AcDbEntity
8
CURVE
100
AcDbLine
62
4
6
CONTINUOUS
10
-42.5052644818
20
-0.6000000000
11
-43.7052644818
21
-0.6000000000
0
LINE
5
342
100
AcDbEntity
8
CURVE
100
AcDbLine
62
4
6
CONTINUOUS
10
-38.4052644580
20
-0.6000000000
11
-38.2552644580
21
-0.6000000000
0
LINE
5
343
100
AcDbEntity
8
CURVE
100
AcDbLine
62
4
6
CONTINUOUS
10
-37.5552644818
20
-0.6000000000
11
-37.4052644818
21
-0.6000000000
0
LINE
5
344
100
AcDbEntity
8
0
100
AcDbLine
62
7
6
CONTINUOUS
10
-39.1052644818
20
-0.5500000000
11
-39.8052644818
21
-0.5500000000
0
LINE
5
345
100
AcDbEntity
8
0
100
AcDbLine
62
7
6
CONTINUOUS
10
-41.5052644818
20
-0.5500000000
11
-42.2052644818
21
-0.5500000000
0
LINE
5
346
100
AcDbEntity
8
0
100
AcDbLine
62
7
6
CONTINUOUS
10
-43.9052644818
20
-0.5500000000
11
-44.6052644818
21
-0.5500000000
0
LINE
5
347
100
AcDbEntity
8
0
100
AcDbLine
62
7
6
CONTINUOUS
10
-46.3052644818
20
-0.5500000000
11
-47.0052644818
21
-0.5500000000
0
LINE
5
348
100
AcDbEntity
8
CURVE
100
AcDbLine
62
4
6
CONTINUOUS
10
-43.7052644818
20
-0.5000000000
11
-42.5052644818
21
-0.5000000000
0
LINE
5
349
100
AcDbEntity
8
CURVE
100
AcDbLine
62
4
6
CONTINUOUS
10
-47.3052644818
20
-0.2200000000
11
-48.5052644818
21
-0.2200000000
0
LINE
5
34A
100
AcDbEntity
8
CURVE
100
AcDbLine
62
4
6
CONTINUOUS
10
-46.0052644818
20
-0.2000000000
11
-44.9052644818
21
-0.2000000000
0
LINE
5
34B
100
AcDbEntity
8
CURVE
100
AcDbLine
62
4
6
CONTINUOUS
10
-37.4052644818
20
-0.1000000000
11
-38.0052644818
21
-0.1000000000
0
LINE
5
34C
100
AcDbEntity
8
CURVE
100
AcDbLine
62
4
6
CONTINUOUS
10
-48.5052644818
20
0.0300000000
11
-47.3052644818
21
0.0300000000
0
LINE
5
34D
100
AcDbEntity
8
0
100
AcDbLine
62
7
6
CONTINUOUS
10
-56.6052644818
20
0.0500000000
11
-55.6052644818
21
0.0500000000
0
LINE
5
34E
100
AcDbEntity
8
CURVE
100
AcDbLine
62
4
6
CONTINUOUS
10
-38.0302644580
20
0.0914893389
11
-37.5552644818
21
0.0914893389
0
LINE
5
34F
100
AcDbEntity
8
CURVE
100
AcDbLine
62
4
6
CONTINUOUS
10
-40.9685978358
20
-3.2021276414
11
-40.8602644818
21
-3.2297872126
0
LINE
5
350
100
AcDbEntity
8
CURVE
100
AcDbLine
62
4
6
CONTINUOUS
10
-40.6219311433
20
-2.4276595736
11
-40.7302644818
21
-2.4000000000
0
LINE
5
351
100
AcDbEntity
8
CURVE
100
AcDbLine
62
4
6
CONTINUOUS
10
-47.7652644818
20
-2.5659574464
11
-47.8519311588
21
-2.5382978752
0
LINE
5
352
100
AcDbEntity
8
CURVE
100
AcDbLine
62
4
6
CONTINUOUS
10
-40.8602644818
20
-3.0914893568
11
-40.9469311278
21
-3.0638297856
0
LINE
5
353
100
AcDbEntity
8
CURVE
100
AcDbLine
62
4
6
CONTINUOUS
10
-48.1552644818
20
-3.0361702144
11
-48.1119311278
21
-3.0638297856
0
LINE
5
354
100
AcDbEntity
8
CURVE
100
AcDbLine
62
4
6
CONTINUOUS
10
-48.1119311278
20
-2.9255319297
11
-48.0252644818
21
-2.9808510721
0
LINE
5
355
100
AcDbEntity
8
CURVE
100
AcDbLine
62
4
6
CONTINUOUS
10
-47.6352644818
20
-3.0914893568
11
-47.6785978203
21
-3.0638297856
0
LINE
5
356
100
AcDbEntity
8
CURVE
100
AcDbLine
62
4
6
CONTINUOUS
10
-47.6785978203
20
-2.6212765887
11
-47.7652644818
21
-2.5659574464
0
LINE
5
357
100
AcDbEntity
8
CURVE
100
AcDbLine
62
4
6
CONTINUOUS
10
-48.1552644818
20
-3.5893617153
11
-48.0469311278
21
-3.6723404288
0
LINE
5
358
100
AcDbEntity
8
CURVE
100
AcDbLine
62
4
6
CONTINUOUS
10
-47.6135978126
20
-2.5106382944
11
-47.7219311433
21
-2.4276595736
0
LINE
5
359
100
AcDbEntity
8
CURVE
100
AcDbLine
62
4
6
CONTINUOUS
10
-48.1119311278
20
-3.4510638595
11
-48.0252644818
21
-3.5340425730
0
LINE
5
35A
100
AcDbEntity
8
CURVE
100
AcDbLine
62
4
6
CONTINUOUS
10
-48.2419311278
20
-2.9531915009
11
-48.1552644818
21
-3.0361702144
0
LINE
5
35B
100
AcDbEntity
8
CURVE
100
AcDbLine
62
4
6
CONTINUOUS
10
-47.6785978203
20
-3.2297872126
11
-47.7652644818
21
-3.1468084991
0
LINE
5
35C
100
AcDbEntity
8
CURVE
100
AcDbLine
62
4
6
CONTINUOUS
10
-48.2202644818
20
-3.5063830018
11
-48.1552644818
21
-3.5893617153
0
LINE
5
35D
100
AcDbEntity
8
CURVE
100
AcDbLine
62
4
6
CONTINUOUS
10
-47.5702644818
20
-3.1744680703
11
-47.6352644818
21
-3.0914893568
0
LINE
5
35E
100
AcDbEntity
8
0
100
AcDbLine
62
9
6
CONTINUOUS
10
-49.9017740005
20
20.1171572875
11
-49.9017740005
21
19.0000000000
0
LINE
5
35F
100
AcDbEntity
8
0
100
AcDbLine
62
9
6
CONTINUOUS
10
-49.9017740005
20
-20.1171572875
11
-49.9017740005
21
-19.0000000000
0
LINE
5
360
100
AcDbEntity
8
0
100
AcDbLine
62
7
6
CONTINUOUS
10
-49.7052644818
20
20.1171572875
11
-49.7052644818
21
19.0000000000
0
LINE
5
361
100
AcDbEntity
8
0
100
AcDbLine
62
7
6
CONTINUOUS
10
-49.7052644818
20
-20.1171572875
11
-49.7052644818
21
-19.0000000000
0
LINE
5
362
100
AcDbEntity
8
0
100
AcDbLine
62
7
6
CONTINUOUS
10
-48.6052644818
20
2.4500000000
11
-48.6052644818
21
2.2500000000
0
LINE
5
363
100
AcDbEntity
8
CURVE
100
AcDbLine
62
4
6
CONTINUOUS
10
-48.5052644818
20
1.4000000000
11
-48.5052644818
21
0.0300000000
0
LINE
5
364
100
AcDbEntity
8
CURVE
100
AcDbLine
62
4
6
CONTINUOUS
10
-48.5052644818
20
-0.2200000000
11
-48.5052644818
21
-1.6200000000
0
LINE
5
365
100
AcDbEntity
8
0
100
AcDbLine
62
7
6
CONTINUOUS
10
-48.4552644818
20
12.8500000000
11
-48.4552644818
21
10.4500000000
0
LINE
5
366
100
AcDbEntity
8
CURVE
100
AcDbLine
62
4
6
CONTINUOUS
10
-48.2852644818
20
-2.7319148928
11
-48.2852644818
21
-2.8148936063
0
LINE
5
367
100
AcDbEntity
8
CURVE
100
AcDbLine
62
4
6
CONTINUOUS
10
-48.2635978358
20
-3.2851063550
11
-48.2635978358
21
-3.3680850685
0
LINE
5
368
100
AcDbEntity
8
CURVE
100
AcDbLine
62
4
6
CONTINUOUS
10
-48.1769311278
20
-2.7319148928
11
-48.1769311278
21
-2.8148936063
0
LINE
5
369
100
AcDbEntity
8
CURVE
100
AcDbLine
62
4
6
CONTINUOUS
10
-48.1552644818
20
-3.3127659261
11
-48.1552644818
21
-3.3680850685
0
LINE
5
36A
100
AcDbEntity
8
0
100
AcDbLine
62
7
6
CONTINUOUS
10
-56.3052644818
20
0.8898867382
11
-57.7052644818
21
0.8776691233
0
LINE
5
36B
100
AcDbEntity
8
CURVE
100
AcDbLine
62
4
6
CONTINUOUS
10
-37.5552644818
20
0.5382978857
11
-38.0302644580
21
0.5382978857
0
LINE
5
36C
100
AcDbEntity
8
CURVE
100
AcDbLine
62
4
6
CONTINUOUS
10
-37.5552644818
20
0.7297872245
11
-38.0302644580
21
0.7297872245
0
LINE
5
36D
100
AcDbEntity
8
CURVE
100
AcDbLine
62
4
6
CONTINUOUS
10
-40.1052644818
20
1.0000000000
11
-41.3052644818
21
1.0000000000
0
LINE
5
36E
100
AcDbEntity
8
CURVE
100
AcDbLine
62
4
6
CONTINUOUS
10
-42.5052644818
20
1.0000000000
11
-43.7052644818
21
1.0000000000
0
LINE
5
36F
100
AcDbEntity
8
CURVE
100
AcDbLine
62
4
6
CONTINUOUS
10
-38.0302644580
20
1.2085106388
11
-37.5552644818
21
1.2085106388
0
LINE
5
370
100
AcDbEntity
8
CURVE
100
AcDbLine
62
4
6
CONTINUOUS
10
-46.0052644818
20
1.3500000000
11
-44.9052644818
21
1.3500000000
0
LINE
5
371
100
AcDbEntity
8
CURVE
100
AcDbLine
62
4
6
CONTINUOUS
10
-47.3052644818
20
1.4000000000
11
-48.5052644818
21
1.4000000000
0
LINE
5
372
100
AcDbEntity
8
CURVE
100
AcDbLine
62
4
6
CONTINUOUS
10
-38.0052644818
20
1.4000000000
11
-37.4052644818
21
1.4000000000
0
LINE
5
373
100
AcDbEntity
8
0
100
AcDbLine
62
7
6
CONTINUOUS
10
-57.7052644818
20
1.7223308767
11
-56.3052644818
21
1.7101132618
0
LINE
5
374
100
AcDbEntity
8
CURVE
100
AcDbLine
62
4
6
CONTINUOUS
10
-40.7302644818
20
-2.5382978752
11
-40.6435978203
21
-2.5659574464
0
LINE
5
375
100
AcDbEntity
8
CURVE
100
AcDbLine
62
4
6
CONTINUOUS
10
-47.5485978164
20
-2.5936170176
11
-47.6135978126
21
-2.5106382944
0
LINE
5
376
100
AcDbEntity
8
CURVE
100
AcDbLine
62
4
6
CONTINUOUS
10
-48.1769311278
20
-2.8148936063
11
-48.1119311278
21
-2.9255319297
0
LINE
5
377
100
AcDbEntity
8
CURVE
100
AcDbLine
62
4
6
CONTINUOUS
10
-47.6135978126
20
-2.7319148928
11
-47.6785978203
21
-2.6212765887
0
LINE
5
378
100
AcDbEntity
8
CURVE
100
AcDbLine
62
4
6
CONTINUOUS
10
-48.1552644818
20
-3.3680850685
11
-48.1119311278
21
-3.4510638595
0
LINE
5
379
100
AcDbEntity
8
CURVE
100
AcDbLine
62
4
6
CONTINUOUS
10
-47.6352644818
20
-3.3127659261
11
-47.6785978203
21
-3.2297872126
0
LINE
5
37A
100
AcDbEntity
8
CURVE
100
AcDbLine
62
4
6
CONTINUOUS
10
-47.5269311491
20
-3.2851063550
11
-47.5702644818
21
-3.1744680703
0
LINE
5
37B
100
AcDbEntity
8
CURVE
100
AcDbLine
62
4
6
CONTINUOUS
10
-48.2635978358
20
-3.3680850685
11
-48.2202644818
21
-3.5063830018
0
LINE
5
37C
100
AcDbEntity
8
CURVE
100
AcDbLine
62
4
6
CONTINUOUS
10
-48.2852644818
20
-2.8148936063
11
-48.2419311278
21
-2.9531915009
0
LINE
5
37D
100
AcDbEntity
8
CURVE
100
AcDbLine
62
4
6
CONTINUOUS
10
-47.5052644818
20
-2.7319148928
11
-47.5485978164
21
-2.5936170176
0
LINE
5
37E
100
AcDbEntity
8
CURVE
100
AcDbLine
62
4
6
CONTINUOUS
10
-47.6352644818
20
-3.3680850685
11
-47.6352644818
21
-3.3127659261
0
LINE
5
37F
100
AcDbEntity
8
CURVE
100
AcDbLine
62
4
6
CONTINUOUS
10
-47.6135978126
20
-2.8148936063
11
-47.6135978126
21
-2.7319148928
0
LINE
5
380
100
AcDbEntity
8
CURVE
100
AcDbLine
62
4
6
CONTINUOUS
10
-47.5269311491
20
-3.3680850685
11
-47.5269311491
21
-3.2851063550
0
LINE
5
381
100
AcDbEntity
8
CURVE
100
AcDbLine
62
4
6
CONTINUOUS
10
-47.5052644818
20
-2.8148936063
11
-47.5052644818
21
-2.7319148928
0
LINE
5
382
100
AcDbEntity
8
CURVE
100
AcDbLine
62
4
6
CONTINUOUS
10
-47.3052644818
20
-1.6200000000
11
-47.3052644818
21
-0.2200000000
0
LINE
5
383
100
AcDbEntity
8
CURVE
100
AcDbLine
62
4
6
CONTINUOUS
10
-47.3052644818
20
0.0300000000
11
-47.3052644818
21
1.4000000000
0
LINE
5
384
100
AcDbEntity
8
0
100
AcDbLine
62
7
6
CONTINUOUS
10
-47.0052644818
20
-1.5500000000
11
-47.0052644818
21
0.5500000000
0
LINE
5
385
100
AcDbEntity
8
0
100
AcDbLine
62
7
6
CONTINUOUS
10
-46.3052644818
20
0.5500000000
11
-46.3052644818
21
-1.5500000000
0
LINE
5
386
100
AcDbEntity
8
0
100
AcDbLine
62
7
6
CONTINUOUS
10
-46.2052644818
20
2.4500000000
11
-46.2052644818
21
0.8247477419
0
LINE
5
387
100
AcDbEntity
8
CURVE
100
AcDbLine
62
4
6
CONTINUOUS
10
-48.2419311278
20
-2.5936170176
11
-48.2852644818
21
-2.7319148928
0
LINE
5
388
100
AcDbEntity
8
CURVE
100
AcDbLine
62
4
6
CONTINUOUS
10
-47.5485978164
20
-2.9531915009
11
-47.5052644818
21
-2.8148936063
0
LINE
5
389
100
AcDbEntity
8
CURVE
100
AcDbLine
62
4
6
CONTINUOUS
10
-47.5702644818
20
-3.5063830018
11
-47.5269311491
21
-3.3680850685
0
LINE
5
38A
100
AcDbEntity
8
0
100
AcDbLine
62
7
6
CONTINUOUS
10
-45.6865150836
20
2.2500000000
11
-46.3052644818
21
0.5500000000
0
LINE
5
38B
100
AcDbEntity
8
CURVE
100
AcDbLine
62
4
6
CONTINUOUS
10
-48.2202644818
20
-3.1744680703
11
-48.2635978358
21
-3.2851063550
0
LINE
5
38C
100
AcDbEntity
8
CURVE
100
AcDbLine
62
4
6
CONTINUOUS
10
-48.1119311278
20
-3.2297872126
11
-48.1552644818
21
-3.3127659261
0
LINE
5
38D
100
AcDbEntity
8
CURVE
100
AcDbLine
62
4
6
CONTINUOUS
10
-47.6785978203
20
-3.4510638595
11
-47.6352644818
21
-3.3680850685
0
LINE
5
38E
100
AcDbEntity
8
CURVE
100
AcDbLine
62
4
6
CONTINUOUS
10
-48.1119311278
20
-2.6212765887
11
-48.1769311278
21
-2.7319148928
0
LINE
5
38F
100
AcDbEntity
8
CURVE
100
AcDbLine
62
4
6
CONTINUOUS
10
-47.6785978203
20
-2.9255319297
11
-47.6135978126
21
-2.8148936063
0
LINE
5
390
100
AcDbEntity
8
CURVE
100
AcDbLine
62
4
6
CONTINUOUS
10
-48.1769311278
20
-2.5106382944
11
-48.2419311278
21
-2.5936170176
0
LINE
5
391
100
AcDbEntity
8
CURVE
100
AcDbLine
62
4
6
CONTINUOUS
10
-48.1552644818
20
-3.0914893568
11
-48.2202644818
21
-3.1744680703
0
LINE
5
392
100
AcDbEntity
8
CURVE
100
AcDbLine
62
4
6
CONTINUOUS
10
-44.9052644818
20
1.3500000000
11
-46.0052644818
21
0.0500000000
0
LINE
5
393
100
AcDbEntity
8
CURVE
100
AcDbLine
62
4
6
CONTINUOUS
10
-48.0252644818
20
-3.1468084991
11
-48.1119311278
21
-3.2297872126
0
LINE
5
394
100
AcDbEntity
8
CURVE
100
AcDbLine
62
4
6
CONTINUOUS
10
-47.6352644818
20
-3.0361702144
11
-47.5485978164
21
-2.9531915009
0
LINE
5
395
100
AcDbEntity
8
CURVE
100
AcDbLine
62
4
6
CONTINUOUS
10
-48.0685978358
20
-2.4276595736
11
-48.1769311278
21
-2.5106382944
0
LINE
5
396
100
AcDbEntity
8
CURVE
100
AcDbLine
62
4
6
CONTINUOUS
10
-48.0252644818
20
-2.5659574464
11
-48.1119311278
21
-2.6212765887
0
LINE
5
397
100
AcDbEntity
8
CURVE
100
AcDbLine
62
4
6
CONTINUOUS
10
-48.1119311278
20
-3.0638297856
11
-48.1552644818
21
-3.0914893568
0
LINE
5
398
100
AcDbEntity
8
CURVE
100
AcDbLine
62
4
6
CONTINUOUS
10
-47.7652644818
20
-2.9808510721
11
-47.6785978203
21
-2.9255319297
0
LINE
5
399
100
AcDbEntity
8
CURVE
100
AcDbLine
62
4
6
CONTINUOUS
10
-47.6785978203
20
-3.0638297856
11
-47.6352644818
21
-3.0361702144
0
LINE
5
39A
100
AcDbEntity
8
CURVE
100
AcDbLine
62
4
6
CONTINUOUS
10
-38.1052644580
20
1.1765957490
11
-38.0302644580
21
1.2085106388
0
LINE
5
39B
100
AcDbEntity
8
CURVE
100
AcDbLine
62
4
6
CONTINUOUS
10
-47.9385978048
20
-2.5382978752
11
-48.0252644818
21
-2.5659574464
0
LINE
5
39C
100
AcDbEntity
8
CURVE
100
AcDbLine
62
4
6
CONTINUOUS
10
-47.8519311588
20
-3.0085106432
11
-47.7652644818
21
-2.9808510721
0
LINE
5
39D
100
AcDbEntity
8
CURVE
100
AcDbLine
62
4
6
CONTINUOUS
10
-47.9385978048
20
-3.1191489279
11
-48.0252644818
21
-3.1468084991
0
LINE
5
39E
100
AcDbEntity
8
CURVE
100
AcDbLine
62
4
6
CONTINUOUS
10
-47.8519311588
20
-3.5617021441
11
-47.7652644818
21
-3.5340425730
0
LINE
5
39F
100
AcDbEntity
8
0
100
AcDbLine
62
7
6
CONTINUOUS
10
-52.9952377136
20
2.2500000000
11
-47.6265150836
21
2.2500000000
0
LINE
5
3A0
100
AcDbEntity
8
0
100
AcDbLine
62
7
6
CONTINUOUS
10
-45.6865150836
20
2.2500000000
11
-45.2240138801
21
2.2500000000
0
LINE
5
3A1
100
AcDbEntity
8
0
100
AcDbLine
62
7
6
CONTINUOUS
10
-43.2840138801
20
2.2500000000
11
-42.8265150836
21
2.2500000000
0
LINE
5
3A2
100
AcDbEntity
8
0
100
AcDbLine
62
7
6
CONTINUOUS
10
-40.8865150836
20
2.2500000000
11
-40.4240138801
21
2.2500000000
0
LINE
5
3A3
100
AcDbEntity
8
0
100
AcDbLine
62
7
6
CONTINUOUS
10
-38.4840138801
20
2.2500000000
11
-36.4052644818
21
2.2500000000
0
LINE
5
3A4
100
AcDbEntity
8
0
100
AcDbLine
62
7
6
CONTINUOUS
10
-53.1052644818
20
2.4500000000
11
-36.3052644818
21
2.4500000000
0
LINE
5
3A5
100
AcDbEntity
8
CURVE
100
AcDbLine
62
4
6
CONTINUOUS
10
-38.0052644818
20
-0.1000000000
11
-38.1302645057
21
-0.0680851102
0
LINE
5
3A6
100
AcDbEntity
8
CURVE
100
AcDbLine
62
4
6
CONTINUOUS
10
-41.0769311278
20
-3.1191489279
11
-40.9685978358
21
-3.2021276414
0
LINE
5
3A7
100
AcDbEntity
8
CURVE
100
AcDbLine
62
4
6
CONTINUOUS
10
-40.5135978126
20
-2.5106382944
11
-40.6219311433
21
-2.4276595736
0
LINE
5
3A8
100
AcDbEntity
8
CURVE
100
AcDbLine
62
4
6
CONTINUOUS
10
-40.9469311278
20
-3.0638297856
11
-41.0119311278
21
-3.0085106432
0
LINE
5
3A9
100
AcDbEntity
8
0
100
AcDbLine
62
7
6
CONTINUOUS
10
-47.0052644818
20
0.5500000000
11
-47.6265150836
21
2.2500000000
0
LINE
5
3AA
100
AcDbEntity
8
CURVE
100
AcDbLine
62
4
6
CONTINUOUS
10
-46.0052644818
20
-1.6000000000
11
-46.0052644818
21
-0.2000000000
0
LINE
5
3AB
100
AcDbEntity
8
CURVE
100
AcDbLine
62
4
6
CONTINUOUS
10
-46.0052644818
20
0.0500000000
11
-46.0052644818
21
1.3500000000
0
LINE
5
3AC
100
AcDbEntity
8
CURVE
100
AcDbLine
62
4
6
CONTINUOUS
10
-45.9852644818
20
-3.7000000000
11
-45.9852644818
21
-3.5617021441
0
LINE
5
3AD
100
AcDbEntity
8
CURVE
100
AcDbLine
62
4
6
CONTINUOUS
10
-45.2052644818
20
-3.5617021441
11
-45.2052644818
21
-3.7000000000
0
LINE
5
3AE
100
AcDbEntity
8
0
100
AcDbLine
62
7
6
CONTINUOUS
10
-45.0052644818
20
2.4500000000
11
-45.0052644818
21
1.6489909678
0
LINE
5
3AF
100
AcDbEntity
8
0
100
AcDbLine
62
7
6
CONTINUOUS
10
-44.6052644818
20
-1.5500000000
11
-44.6052644818
21
0.5500000000
0
LINE
5
3B0
100
AcDbEntity
8
0
100
AcDbLine
62
7
6
CONTINUOUS
10
-43.2840138801
20
2.2500000000
11
-43.9052644818
21
0.5500000000
0
LINE
5
3B1
100
AcDbEntity
8
CURVE
100
AcDbLine
62
4
6
CONTINUOUS
10
-45.9852644818
20
-3.5617021441
11
-45.5519311588
21
-2.4000000000
0
LINE
5
3B2
100
AcDbEntity
8
CURVE
100
AcDbLine
62
4
6
CONTINUOUS
10
-45.4219311433
20
-2.4000000000
11
-45.8552644818
21
-3.5617021441
0
LINE
5
3B3
100
AcDbEntity
8
CURVE
100
AcDbLine
62
4
6
CONTINUOUS
10
-47.6352644818
20
-3.5893617153
11
-47.5702644818
21
-3.5063830018
0
LINE
5
3B4
100
AcDbEntity
8
CURVE
100
AcDbLine
62
4
6
CONTINUOUS
10
-44.9052644818
20
-0.2000000000
11
-46.0052644818
21
-1.6000000000
0
LINE
5
3B5
100
AcDbEntity
8
CURVE
100
AcDbLine
62
4
6
CONTINUOUS
10
-47.7652644818
20
-3.5340425730
11
-47.6785978203
21
-3.4510638595
0
LINE
5
3B6
100
AcDbEntity
8
CURVE
100
AcDbLine
62
4
6
CONTINUOUS
10
-47.7435978203
20
-3.6723404288
11
-47.6352644818
21
-3.5893617153
0
LINE
5
3B7
100
AcDbEntity
8
CURVE
100
AcDbLine
62
4
6
CONTINUOUS
10
-38.2302644818
20
0.6021276653
11
-38.1802644580
21
0.6340425551
0
LINE
5
3B8
100
AcDbEntity
8
CURVE
100
AcDbLine
62
4
6
CONTINUOUS
10
-38.0302644580
20
0.5382978857
11
-38.1052644580
21
0.5063829958
0
LINE
5
3B9
100
AcDbEntity
8
CURVE
100
AcDbLine
62
4
6
CONTINUOUS
10
-40.9469311278
20
-2.5659574464
11
-40.8602644818
21
-2.5382978752
0
LINE
5
3BA
100
AcDbEntity
8
CURVE
100
AcDbLine
62
4
6
CONTINUOUS
10
-40.6435978203
20
-3.0638297856
11
-40.7302644818
21
-3.0914893568
0
LINE
5
3BB
100
AcDbEntity
8
CURVE
100
AcDbLine
62
4
6
CONTINUOUS
10
-38.1052644580
20
0.1234042287
11
-38.0302644580
21
0.0914893389
0
LINE
5
3BC
100
AcDbEntity
8
CURVE
100
AcDbLine
62
4
6
CONTINUOUS
10
-38.0302644580
20
0.7297872245
11
-38.1052644580
21
0.7617021143
0
LINE
5
3BD
100
AcDbEntity
8
CURVE
100
AcDbLine
62
4
6
CONTINUOUS
10
-40.6435978203
20
-2.5659574464
11
-40.5785978203
21
-2.6212765887
0
LINE
5
3BE
100
AcDbEntity
8
0
100
AcDbLine
62
7
6
CONTINUOUS
10
-44.6052644818
20
0.5500000000
11
-45.2240138801
21
2.2500000000
0
LINE
5
3BF
100
AcDbEntity
8
0
100
AcDbLine
62
7
6
CONTINUOUS
10
-43.9052644818
20
0.5500000000
11
-43.9052644818
21
-1.5500000000
0
LINE
5
3C0
100
AcDbEntity
8
0
100
AcDbLine
62
7
6
CONTINUOUS
10
-43.8052644818
20
2.4500000000
11
-43.8052644818
21
0.8236415861
0
LINE
5
3C1
100
AcDbEntity
8
CURVE
100
AcDbLine
62
4
6
CONTINUOUS
10
-43.7052644818
20
1.0000000000
11
-43.7052644818
21
-0.5000000000
0
LINE
5
3C2
100
AcDbEntity
8
CURVE
100
AcDbLine
62
4
6
CONTINUOUS
10
-43.7052644818
20
-0.6000000000
11
-43.7052644818
21
-2.1000000000
0
LINE
5
3C3
100
AcDbEntity
8
CURVE
100
AcDbLine
62
4
6
CONTINUOUS
10
-43.5719311278
20
-2.9531915009
11
-43.5719311278
21
-2.7872340351
0
LINE
5
3C4
100
AcDbEntity
8
CURVE
100
AcDbLine
62
4
6
CONTINUOUS
10
-43.3552644818
20
-3.7000000000
11
-43.3552644818
21
-2.9531915009
0
LINE
5
3C5
100
AcDbEntity
8
CURVE
100
AcDbLine
62
4
6
CONTINUOUS
10
-43.3552644818
20
-2.7872340351
11
-43.3552644818
21
-2.4000000000
0
LINE
5
3C6
100
AcDbEntity
8
CURVE
100
AcDbLine
62
4
6
CONTINUOUS
10
-43.2252644818
20
-3.4787234306
11
-43.2252644818
21
-2.9531915009
0
LINE
5
3C7
100
AcDbEntity
8
CURVE
100
AcDbLine
62
4
6
CONTINUOUS
10
-43.2252644818
20
-2.4000000000
11
-43.2252644818
21
-2.7872340351
0
LINE
5
3C8
100
AcDbEntity
8
CURVE
100
AcDbLine
62
4
6
CONTINUOUS
10
-42.7052644818
20
-2.7872340351
11
-42.7052644818
21
-2.9531915009
0
LINE
5
3C9
100
AcDbEntity
8
0
100
AcDbLine
62
7
6
CONTINUOUS
10
-42.6052644818
20
2.4500000000
11
-42.6052644818
21
1.6445663442
0
LINE
5
3CA
100
AcDbEntity
8
CURVE
100
AcDbLine
62
4
6
CONTINUOUS
10
-42.5052644818
20
-2.1000000000
11
-42.5052644818
21
-0.6000000000
0
LINE
5
3CB
100
AcDbEntity
8
CURVE
100
AcDbLine
62
4
6
CONTINUOUS
10
-42.5052644818
20
-0.5000000000
11
-42.5052644818
21
1.0000000000
0
LINE
5
3CC
100
AcDbEntity
8
0
100
AcDbLine
62
7
6
CONTINUOUS
10
-42.2052644818
20
-1.5500000000
11
-42.2052644818
21
0.5500000000
0
LINE
5
3CD
100
AcDbEntity
8
0
100
AcDbLine
62
7
6
CONTINUOUS
10
-40.8865150836
20
2.2500000000
11
-41.5052644818
21
0.5500000000
0
LINE
5
3CE
100
AcDbEntity
8
CURVE
100
AcDbLine
62
4
6
CONTINUOUS
10
-42.7052644818
20
-2.9531915009
11
-43.2252644818
21
-3.7000000000
0
LINE
5
3CF
100
AcDbEntity
8
CURVE
100
AcDbLine
62
4
6
CONTINUOUS
10
-42.8569311433
20
-2.9531915009
11
-43.2252644818
21
-3.4787234306
0
LINE
5
3D0
100
AcDbEntity
8
CURVE
100
AcDbLine
62
4
6
CONTINUOUS
10
-41.3052644818
20
-0.5000000000
11
-40.1052644818
21
1.0000000000
0
LINE
5
3D1
100
AcDbEntity
8
CURVE
100
AcDbLine
62
4
6
CONTINUOUS
10
-38.2302644818
20
1.2723404296
11
-38.1302645057
21
1.3680851074
0
LINE
5
3D2
100
AcDbEntity
8
CURVE
100
AcDbLine
62
4
6
CONTINUOUS
10
-41.0119311278
20
-2.6212765887
11
-40.9469311278
21
-2.5659574464
0
LINE
5
3D3
100
AcDbEntity
8
CURVE
100
AcDbLine
62
4
6
CONTINUOUS
10
-40.9685978358
20
-2.4276595736
11
-41.0769311278
21
-2.5106382944
0
LINE
5
3D4
100
AcDbEntity
8
0
100
AcDbLine
62
9
6
CONTINUOUS
10
-58.7052644818
20
-9.7517699196
11
-58.0839659694
21
-9.5256357545
0
LINE
5
3D5
100
AcDbEntity
8
0
100
AcDbLine
62
7
6
CONTINUOUS
10
-58.7052644818
20
-9.9639702343
11
-57.4866281027
21
-9.5204228659
0
LINE
5
3D6
100
AcDbEntity
8
0
100
AcDbLine
62
7
6
CONTINUOUS
10
-56.6052644818
20
7.3500000000
11
-55.6052644818
21
7.3500000000
0
LINE
5
3D7
100
AcDbEntity
8
CURVE
100
AcDbLine
62
4
6
CONTINUOUS
10
-38.1802644580
20
0.6340425551
11
-38.2302644818
21
0.6659574449
0
LINE
5
3D8
100
AcDbEntity
8
CURVE
100
AcDbLine
62
4
6
CONTINUOUS
10
-41.1419311278
20
-3.0085106432
11
-41.0769311278
21
-3.1191489279
0
LINE
5
3D9
100
AcDbEntity
8
CURVE
100
AcDbLine
62
4
6
CONTINUOUS
10
-40.4485978164
20
-2.6212765887
11
-40.5135978126
21
-2.5106382944
0
LINE
5
3DA
100
AcDbEntity
8
CURVE
100
AcDbLine
62
4
6
CONTINUOUS
10
-41.0119311278
20
-3.0085106432
11
-41.0552644818
21
-2.9255319297
0
LINE
5
3DB
100
AcDbEntity
8
CURVE
100
AcDbLine
62
4
6
CONTINUOUS
10
-40.5785978203
20
-2.6212765887
11
-40.5352644818
21
-2.7319148928
0
LINE
5
3DC
100
AcDbEntity
8
0
100
AcDbLine
62
7
6
CONTINUOUS
10
-42.2052644818
20
0.5500000000
11
-42.8265150836
21
2.2500000000
0
LINE
5
3DD
100
AcDbEntity
8
CURVE
100
AcDbLine
62
4
6
CONTINUOUS
10
-41.1852644818
20
-2.8702127486
11
-41.1419311278
21
-3.0085106432
0
LINE
5
3DE
100
AcDbEntity
8
0
100
AcDbLine
62
7
6
CONTINUOUS
10
-41.5052644818
20
0.5500000000
11
-41.5052644818
21
-1.5500000000
0
LINE
5
3DF
100
AcDbEntity
8
0
100
AcDbLine
62
7
6
CONTINUOUS
10
-41.4052644818
20
2.4500000000
11
-41.4052644818
21
0.8247477419
0
LINE
5
3E0
100
AcDbEntity
8
CURVE
100
AcDbLine
62
4
6
CONTINUOUS
10
-41.3052644818
20
1.0000000000
11
-41.3052644818
21
-0.5000000000
0
LINE
5
3E1
100
AcDbEntity
8
CURVE
100
AcDbLine
62
4
6
CONTINUOUS
10
-41.3052644818
20
-0.6000000000
11
-41.3052644818
21
-2.1000000000
0
LINE
5
3E2
100
AcDbEntity
8
CURVE
100
AcDbLine
62
4
6
CONTINUOUS
10
-41.1852644818
20
-2.7595744640
11
-41.1852644818
21
-2.8702127486
0
LINE
5
3E3
100
AcDbEntity
8
CURVE
100
AcDbLine
62
4
6
CONTINUOUS
10
-41.1419311278
20
-3.5617021441
11
-41.1419311278
21
-3.7000000000
0
LINE
5
3E4
100
AcDbEntity
8
CURVE
100
AcDbLine
62
4
6
CONTINUOUS
10
-41.0769311278
20
-2.8425531775
11
-41.0769311278
21
-2.7872340351
0
LINE
5
3E5
100
AcDbEntity
8
CURVE
100
AcDbLine
62
4
6
CONTINUOUS
10
-40.5135978126
20
-3.1191489279
11
-40.5135978126
21
-3.5617021441
0
LINE
5
3E6
100
AcDbEntity
8
CURVE
100
AcDbLine
62
4
6
CONTINUOUS
10
-40.4052644818
20
-3.7000000000
11
-40.4052644818
21
-2.9808510721
0
LINE
5
3E7
100
AcDbEntity
8
0
100
AcDbLine
62
7
6
CONTINUOUS
10
-40.2052644818
20
2.4500000000
11
-40.2052644818
21
1.6489909678
0
LINE
5
3E8
100
AcDbEntity
8
CURVE
100
AcDbLine
62
4
6
CONTINUOUS
10
-41.0769311278
20
-2.7872340351
11
-41.0552644818
21
-2.7042553216
0
LINE
5
3E9
100
AcDbEntity
8
CURVE
100
AcDbLine
62
4
6
CONTINUOUS
10
-41.1419311278
20
-2.6212765887
11
-41.1852644818
21
-2.7595744640
0
LINE
5
3EA
100
AcDbEntity
8
CURVE
100
AcDbLine
62
4
6
CONTINUOUS
10
-41.0552644818
20
-2.7042553216
11
-41.0119311278
21
-2.6212765887
0
LINE
5
3EB
100
AcDbEntity
8
CURVE
100
AcDbLine
62
4
6
CONTINUOUS
10
-41.0769311278
20
-2.5106382944
11
-41.1419311278
21
-2.6212765887
0
LINE
5
3EC
100
AcDbEntity
8
CURVE
100
AcDbLine
62
4
6
CONTINUOUS
10
-38.3052644818
20
1.1446808591
11
-38.2302644818
21
1.2723404296
0
LINE
5
3ED
100
AcDbEntity
8
CURVE
100
AcDbLine
62
4
6
CONTINUOUS
10
-38.3052644818
20
0.4744681060
11
-38.2302644818
21
0.6021276653
0
LINE
5
3EE
100
AcDbEntity
8
CURVE
100
AcDbLine
62
4
6
CONTINUOUS
10
-38.1552644818
20
1.1127659470
11
-38.1052644580
21
1.1765957490
0
LINE
5
3EF
100
AcDbEntity
8
CURVE
100
AcDbLine
62
4
6
CONTINUOUS
10
-38.1052644580
20
0.5063829958
11
-38.1552644818
21
0.4425532162
0
LINE
5
3F0
100
AcDbEntity
8
CURVE
100
AcDbLine
62
4
6
CONTINUOUS
10
-41.3052644818
20
-2.1000000000
11
-40.1052644818
21
-0.6000000000
0
LINE
5
3F1
100
AcDbEntity
8
CURVE
100
AcDbLine
62
4
6
CONTINUOUS
10
-40.5569311433
20
-2.9808510721
11
-40.6435978203
21
-3.0638297856
0
LINE
5
3F2
100
AcDbEntity
8
CURVE
100
AcDbLine
62
4
6
CONTINUOUS
10
-40.6219311433
20
-3.2021276414
11
-40.5135978126
21
-3.1191489279
0
LINE
5
3F3
100
AcDbEntity
8
0
100
AcDbLine
62
7
6
CONTINUOUS
10
-56.6052644818
20
8.5872686779
11
-57.7052644818
21
8.5776691233
0
LINE
5
3F4
100
AcDbEntity
8
0
100
AcDbLine
62
7
6
CONTINUOUS
10
-57.7052644818
20
9.4500000000
11
-54.6052644818
21
9.4500000000
0
LINE
5
3F5
100
AcDbEntity
8
0
100
AcDbLine
62
7
6
CONTINUOUS
10
-57.7052644818
20
9.4223308767
11
-56.6055896959
21
9.4127341602
0
LINE
5
3F6
100
AcDbEntity
8
CURVE
100
AcDbLine
62
4
6
CONTINUOUS
10
-38.1302645057
20
-0.0680851102
11
-38.2302644818
21
0.0276595592
0
LINE
5
3F7
100
AcDbEntity
8
CURVE
100
AcDbLine
62
4
6
CONTINUOUS
10
-38.1552644818
20
0.1872340083
11
-38.1052644580
21
0.1234042287
0
LINE
5
3F8
100
AcDbEntity
8
CURVE
100
AcDbLine
62
4
6
CONTINUOUS
10
-38.1052644580
20
0.7617021143
11
-38.1552644818
21
0.8255318940
0
LINE
5
3F9
100
AcDbEntity
8
CURVE
100
AcDbLine
62
4
6
CONTINUOUS
10
-40.4052644818
20
-2.7319148928
11
-40.4485978164
21
-2.6212765887
0
LINE
5
3FA
100
AcDbEntity
8
0
100
AcDbLine
62
7
6
CONTINUOUS
10
-39.8052644818
20
0.5500000000
11
-40.4240138801
21
2.2500000000
0
LINE
5
3FB
100
AcDbEntity
8
CURVE
100
AcDbLine
62
4
6
CONTINUOUS
10
-41.0552644818
20
-2.9255319297
11
-41.0769311278
21
-2.8425531775
0
LINE
5
3FC
100
AcDbEntity
8
0
100
AcDbLine
62
7
6
CONTINUOUS
10
-39.8052644818
20
-1.5500000000
11
-39.8052644818
21
0.5500000000
0
LINE
5
3FD
100
AcDbEntity
8
0
100
AcDbLine
62
7
6
CONTINUOUS
10
-39.1052644818
20
0.5500000000
11
-39.1052644818
21
-1.5500000000
0
LINE
5
3FE
100
AcDbEntity
8
0
100
AcDbLine
62
7
6
CONTINUOUS
10
-38.9052644818
20
2.4500000000
11
-38.9052644818
21
1.0972831721
0
LINE
5
3FF
100
AcDbEntity
8
CURVE
100
AcDbLine
62
4
6
CONTINUOUS
10
-38.3302644580
20
0.2510637879
11
-38.3302644580
21
0.3787234366
0
LINE
5
400
100
AcDbEntity
8
CURVE
100
AcDbLine
62
4
6
CONTINUOUS
10
-38.3302644580
20
0.8893617183
11
-38.3302644580
21
1.0489361674
0
LINE
5
401
100
AcDbEntity
8
CURVE
100
AcDbLine
62
4
6
CONTINUOUS
10
-38.1802644580
20
0.3468085468
11
-38.1802644580
21
0.2829787672
0
LINE
5
402
100
AcDbEntity
8
CURVE
100
AcDbLine
62
4
6
CONTINUOUS
10
-38.1802644580
20
0.9212766081
11
-38.1802644580
21
1.0170212775
0
LINE
5
403
100
AcDbEntity
8
CURVE
100
AcDbLine
62
4
6
CONTINUOUS
10
-38.3302644580
20
1.0489361674
11
-38.3052644818
21
1.1446808591
0
LINE
5
404
100
AcDbEntity
8
CURVE
100
AcDbLine
62
4
6
CONTINUOUS
10
-38.1802644580
20
1.0170212775
11
-38.1552644818
21
1.1127659470
0
LINE
5
405
100
AcDbEntity
8
CURVE
100
AcDbLine
62
4
6
CONTINUOUS
10
-38.3302644580
20
0.3787234366
11
-38.3052644818
21
0.4744681060
0
LINE
5
406
100
AcDbEntity
8
CURVE
100
AcDbLine
62
4
6
CONTINUOUS
10
-38.1552644818
20
0.4425532162
11
-38.1802644580
21
0.3468085468
0
LINE
5
407
100
AcDbEntity
8
0
100
AcDbLine
62
7
6
CONTINUOUS
10
-38.4840138801
20
2.2500000000
11
-39.1052644818
21
0.5500000000
0
LINE
5
408
100
AcDbEntity
8
0
100
AcDbLine
62
7
6
CONTINUOUS
10
-50.4552644818
20
10.4500000000
11
-54.6052644818
21
9.4500000000
0
LINE
5
409
100
AcDbEntity
8
0
100
AcDbLine
62
7
6
CONTINUOUS
10
-36.3052644818
20
10.4500000000
11
-50.4552644818
21
10.4500000000
0
LINE
5
40A
100
AcDbEntity
8
0
100
AcDbLine
62
7
6
CONTINUOUS
10
-50.4552644818
20
11.7500000000
11
-57.7052644818
21
11.7500000000
0
LINE
5
40B
100
AcDbEntity
8
CURVE
100
AcDbLine
62
4
6
CONTINUOUS
10
-38.2302644818
20
0.0276595592
11
-38.3052644818
21
0.1553191185
0
LINE
5
40C
100
AcDbEntity
8
CURVE
100
AcDbLine
62
4
6
CONTINUOUS
10
-38.2302644818
20
0.6659574449
11
-38.3052644818
21
0.7936170042
0
LINE
5
40D
100
AcDbEntity
8
CURVE
100
AcDbLine
62
4
6
CONTINUOUS
10
-38.0052644818
20
-2.1000000000
11
-38.4052644580
21
-0.6000000000
0
LINE
5
40E
100
AcDbEntity
8
CURVE
100
AcDbLine
62
4
6
CONTINUOUS
10
-37.9052644699
20
-1.9723404408
11
-38.1302645057
21
-1.1106382817
0
LINE
5
40F
100
AcDbEntity
8
CURVE
100
AcDbLine
62
4
6
CONTINUOUS
10
-38.2552644580
20
-0.6000000000
11
-38.1552644818
21
-0.9829787225
0
LINE
5
410
100
AcDbEntity
8
CURVE
100
AcDbLine
62
4
6
CONTINUOUS
10
-38.3052644818
20
0.1553191185
11
-38.3302644580
21
0.2510637879
0
LINE
5
411
100
AcDbEntity
8
CURVE
100
AcDbLine
62
4
6
CONTINUOUS
10
-38.1802644580
20
0.2829787672
11
-38.1552644818
21
0.1872340083
0
LINE
5
412
100
AcDbEntity
8
CURVE
100
AcDbLine
62
4
6
CONTINUOUS
10
-38.3052644818
20
0.7936170042
11
-38.3302644580
21
0.8893617183
0
LINE
5
413
100
AcDbEntity
8
CURVE
100
AcDbLine
62
4
6
CONTINUOUS
10
-38.1552644818
20
0.8255318940
11
-38.1802644580
21
0.9212766081
0
LINE
5
414
100
AcDbEntity
8
0
100
AcDbLine
62
7
6
CONTINUOUS
10
-37.6052644818
20
2.4500000000
11
-37.6052644818
21
2.2500000000
0
LINE
5
415
100
AcDbEntity
8
CURVE
100
AcDbLine
62
4
6
CONTINUOUS
10
-37.5552644818
20
1.2085106388
11
-37.5552644818
21
0.7297872245
0
LINE
5
416
100
AcDbEntity
8
CURVE
100
AcDbLine
62
4
6
CONTINUOUS
10
-37.5552644818
20
0.0914893389
11
-37.5552644818
21
0.5382978857
0
LINE
5
417
100
AcDbEntity
8
CURVE
100
AcDbLine
62
4
6
CONTINUOUS
10
-37.4052644818
20
1.4000000000
11
-37.4052644818
21
-0.1000000000
0
LINE
5
418
100
AcDbEntity
8
0
100
AcDbLine
62
7
6
CONTINUOUS
10
-37.2052644818
20
2.4500000000
11
-37.2052644818
21
2.2500000000
0
LINE
5
419
100
AcDbEntity
8
0
100
AcDbLine
62
7
6
CONTINUOUS
10
-36.4052644818
20
-4.5500000000
11
-36.4052644818
21
2.4500000000
0
LINE
5
41A
100
AcDbEntity
8
0
100
AcDbLine
62
7
6
CONTINUOUS
10
-36.3052644818
20
2.4500000000
11
-36.3052644818
21
10.4500000000
0
LINE
5
41B
100
AcDbEntity
8
CURVE
100
AcDbLine
62
4
6
CONTINUOUS
10
-37.6552644759
20
-0.9829787225
11
-37.5552644818
21
-0.6000000000
0
LINE
5
41C
100
AcDbEntity
8
CURVE
100
AcDbLine
62
4
6
CONTINUOUS
10
-37.6802644878
20
-1.1106382817
11
-37.9052644699
21
-1.9723404408
0
LINE
5
41D
100
AcDbEntity
8
CURVE
100
AcDbLine
62
4
6
CONTINUOUS
10
-37.4052644818
20
-0.6000000000
11
-37.8052644937
21
-2.1000000000
0
LINE
5
41E
100
AcDbEntity
8
0
100
AcDbLine
62
7
6
CONTINUOUS
10
-56.3052644818
20
12.8898867382
11
-57.7052644818
21
12.8776691233
0
LINE
5
41F
100
AcDbEntity
8
0
100
AcDbLine
62
7
6
CONTINUOUS
10
-57.4052644818
20
12.5000000000
11
-57.7052644818
21
12.5000000000
0
LINE
5
420
100
AcDbEntity
8
0
100
AcDbLine
62
7
6
CONTINUOUS
10
-57.0552644818
20
12.8500000000
11
-48.4552644818
21
12.8500000000
0
LINE
5
421
100
AcDbEntity
8
0
100
AcDbLine
62
9
6
CONTINUOUS
10
-57.7052644818
20
13.2240572110
11
-57.9052644818
21
13.2240572110
0
LINE
5
422
100
AcDbEntity
8
0
100
AcDbLine
62
9
6
CONTINUOUS
10
-58.7052644818
20
13.2310387053
11
-57.9052644818
21
13.2240572110
0
LINE
5
423
100
AcDbEntity
8
0
100
AcDbLine
62
9
6
CONTINUOUS
10
-56.5026584388
20
13.5124252300
11
-57.5736685105
21
13.5217717933
0
LINE
5
424
100
AcDbEntity
8
0
100
AcDbLine
62
7
6
CONTINUOUS
10
-58.7052644818
20
13.7310577445
11
-56.5035191747
21
13.7118434042
0
LINE
5
425
100
AcDbEntity
8
0
100
AcDbLine
62
9
6
CONTINUOUS
10
-50.6212796205
20
-20.8366629075
11
-49.9017740005
21
-20.1171572875
0
LINE
5
426
100
AcDbEntity
8
0
100
AcDbLine
62
7
6
CONTINUOUS
10
-50.7052644818
20
-21.2000000000
11
-49.7638431256
21
-20.2585786438
0
LINE
5
427
100
AcDbEntity
8
0
100
AcDbLine
62
9
6
CONTINUOUS
10
-58.7052644818
20
14.6310767829
11
-56.3052644818
21
14.6101323002
0
LINE
5
428
100
AcDbEntity
8
0
100
AcDbLine
62
7
6
CONTINUOUS
10
-58.7052644818
20
15.1310577445
11
-56.3052644818
21
15.1101132618
0
LINE
5
429
100
AcDbEntity
8
0
100
AcDbLine
62
9
6
CONTINUOUS
10
-50.6212796205
20
20.8366629075
11
-49.9017740005
21
20.1171572875
0
LINE
5
42A
100
AcDbEntity
8
0
100
AcDbLine
62
7
6
CONTINUOUS
10
-50.7052644818
20
21.2000000000
11
-49.7638431256
21
20.2585786438
0
LINE
5
42B
100
AcDbEntity
8
0
100
AcDbLine
62
7
6
CONTINUOUS
10
-32.3052644818
20
-4.5500000000
11
-32.3052644818
21
-2.0500000000
0
LINE
5
42C
100
AcDbEntity
8
0
100
AcDbLine
62
7
6
CONTINUOUS
10
-52.6052644818
20
-22.2000000000
11
-50.7052644818
21
-21.2000000000
0
LINE
5
42D
100
AcDbEntity
8
0
100
AcDbLine
62
7
6
CONTINUOUS
10
-58.7052644818
20
17.3564064606
11
-54.4373152894
21
18.5000000000
0
LINE
5
42E
100
AcDbEntity
8
0
100
AcDbLine
62
9
6
CONTINUOUS
10
-58.7052644818
20
17.5625264250
11
-54.4601553076
21
18.7000000000
0
LINE
5
42F
100
AcDbEntity
8
0
100
AcDbLine
62
7
6
CONTINUOUS
10
-50.2052644818
20
18.5000000000
11
-54.4373152894
21
18.5000000000
0
LINE
5
430
100
AcDbEntity
8
0
100
AcDbLine
62
9
6
CONTINUOUS
10
-50.2017740005
20
18.7000000000
11
-54.4601553076
21
18.7000000000
0
LINE
5
431
100
AcDbEntity
8
0
100
AcDbLine
62
9
6
CONTINUOUS
10
-49.7052644818
20
19.0000000000
11
-49.9017740005
21
19.0000000000
0
LINE
5
432
100
AcDbEntity
8
0
100
AcDbLine
62
7
6
CONTINUOUS
10
-50.7052644818
20
21.2000000000
11
-52.6052644818
21
22.2000000000
0
LINE
5
433
100
AcDbEntity
8
0
100
AcDbLine
62
9
6
CONTINUOUS
10
-49.7052644818
20
20.1171572875
11
-49.9017740005
21
20.1171572875
0
LINE
5
434
100
AcDbEntity
8
0
100
AcDbLine
62
7
6
CONTINUOUS
10
-50.7052644818
20
21.2000000000
11
-54.7052644818
21
21.2000000000
0
LINE
5
435
100
AcDbEntity
8
0
100
AcDbLine
62
7
6
CONTINUOUS
10
-50.6212796205
20
20.8366629075
11
-58.7052644818
21
20.9000000000
0
LINE
5
436
100
AcDbEntity
8
0
100
AcDbLine
62
7
6
CONTINUOUS
10
-54.7052644818
20
21.2000000000
11
-50.6700496959
21
21.1647852141
0
LINE
5
437
100
AcDbEntity
8
0
100
AcDbLine
62
9
6
CONTINUOUS
10
-67.7632771152
20
21.0183132877
11
-67.2724677839
21
20.9972959167
0
LINE
5
438
100
AcDbEntity
8
0
100
AcDbLine
62
9
6
CONTINUOUS
10
-66.7990777268
20
21.4755923698
11
-58.7052644818
21
21.8997711479
0
LINE
5
439
100
AcDbEntity
8
0
100
AcDbLine
62
7
6
CONTINUOUS
10
-66.8165195017
20
21.9749071372
11
-58.7052644818
21
22.4000000000
0
LINE
5
43A
100
AcDbEntity
8
0
100
AcDbLine
62
7
6
CONTINUOUS
10
-52.6052644818
20
22.2000000000
11
-53.1052644818
21
22.2000000000
0
LINE
5
43B
100
AcDbEntity
8
0
100
AcDbLine
62
7
6
CONTINUOUS
10
-58.7052644818
20
23.5000000000
11
-54.7052644818
21
23.4301797403
0
ARC
5
43C
100
AcDbEntity
8
0
100
AcDbCircle
62
7
6
CONTINUOUS
10
11.2500000000
20
-0.0000000000
40
28.0000000000
100
AcDbArc
50
233.1301023542
51
234.0372348486
0
ARC
5
43D
100
AcDbEntity
8
0
100
AcDbCircle
62
7
6
CONTINUOUS
10
11.2500000000
20
-0.0000000000
40
28.0000000000
100
AcDbArc
50
235.8789063483
51
237.0647695028
0
ARC
5
43E
100
AcDbEntity
8
0
100
AcDbCircle
62
7
6
CONTINUOUS
10
11.2500000000
20
-0.0000000000
40
28.0000000000
100
AcDbArc
50
122.9352304972
51
124.1210936517
0
ARC
5
43F
100
AcDbEntity
8
0
100
AcDbCircle
62
7
6
CONTINUOUS
10
11.2500000000
20
-0.0000000000
40
28.0000000000
100
AcDbArc
50
125.9627651514
51
126.8698976458
0
ARC
5
440
100
AcDbEntity
8
0
100
AcDbCircle
62
7
6
CONTINUOUS
10
-11.2500000000
20
-0.0000000000
40
28.0000000000
100
AcDbArc
50
302.9352304972
51
304.1210936517
0
ARC
5
441
100
AcDbEntity
8
0
100
AcDbCircle
62
7
6
CONTINUOUS
10
-11.2500000000
20
-0.0000000000
40
28.0000000000
100
AcDbArc
50
305.9627651514
51
306.8698976458
0
ARC
5
442
100
AcDbEntity
8
0
100
AcDbCircle
62
7
6
CONTINUOUS
10
-11.2500000000
20
-0.0000000000
40
28.0000000000
100
AcDbArc
50
53.1301023542
51
54.0372348486
0
ARC
5
443
100
AcDbEntity
8
0
100
AcDbCircle
62
7
6
CONTINUOUS
10
-11.2500000000
20
-0.0000000000
40
28.0000000000
100
AcDbArc
50
55.8789063483
51
57.0647695028
0
ARC
5
444
100
AcDbEntity
8
0
100
AcDbCircle
62
7
6
CONTINUOUS
10
-4.9500000000
20
-23.1000000000
40
0.5000000000
100
AcDbArc
50
350.8037184210
51
119.1124227760
0
ARC
5
445
100
AcDbEntity
8
0
100
AcDbCircle
62
7
6
CONTINUOUS
10
-4.9500000000
20
23.1000000000
40
0.5000000000
100
AcDbArc
50
240.8875772240
51
9.1962815790
0
ARC
5
446
100
AcDbEntity
8
0
100
AcDbCircle
62
7
6
CONTINUOUS
10
4.9500000000
20
-23.1000000000
40
0.5000000000
100
AcDbArc
50
60.8875772240
51
189.1962815790
0
ARC
5
447
100
AcDbEntity
8
0
100
AcDbCircle
62
7
6
CONTINUOUS
10
4.9500000000
20
23.1000000000
40
0.5000000000
100
AcDbArc
50
170.8037184210
51
299.1124227760
0
CIRCLE
5
448
100
AcDbEntity
8
0
100
AcDbCircle
62
7
6
CONTINUOUS
10
-54.7494887063
20
-3.6000000000
40
0.9500000000
0
ARC
5
449
100
AcDbEntity
8
0
100
AcDbCircle
62
7
6
CONTINUOUS
10
-54.7494887063
20
-3.6000000000
40
1.6500000000
100
AcDbArc
50
147.6333619353
51
324.8472970332
0
ARC
5
44A
100
AcDbEntity
8
0
100
AcDbCircle
62
7
6
CONTINUOUS
10
-42.2458373558
20
-19.0500000000
40
15.0000000000
100
AcDbArc
50
75.1648884180
51
104.8351115820
0
ARC
5
44B
100
AcDbEntity
8
0
100
AcDbCircle
62
7
6
CONTINUOUS
10
-66.7641835455
20
-20.9762776025
40
1.0000000000
100
AcDbArc
50
182.4092313014
51
267.0000000000
0
ARC
5
44C
100
AcDbEntity
8
0
100
AcDbCircle
62
7
6
CONTINUOUS
10
431.7947355182
20
-0.0000000000
40
500.0000000000
100
AcDbArc
50
177.5907686986
51
182.4092313014
0
ARC
5
44D
100
AcDbEntity
8
0
100
AcDbCircle
62
7
6
CONTINUOUS
10
-66.7641835455
20
20.9762776025
40
1.0000000000
100
AcDbArc
50
93.0000000000
51
177.5907686986
0
ARC
5
44E
100
AcDbEntity
8
0
100
AcDbCircle
62
7
6
CONTINUOUS
10
-57.9052644818
20
13.5240680887
40
0.2000000000
100
AcDbArc
50
0.0001563699
51
89.5000013646
0
ARC
5
44F
100
AcDbEntity
8
0
100
AcDbCircle
62
7
6
CONTINUOUS
10
-57.9052644818
20
-7.3240686345
40
0.2000000000
100
AcDbArc
50
270.5000000000
51
360.0000000000
0
ARC
5
450
100
AcDbEntity
8
0
100
AcDbCircle
62
7
6
CONTINUOUS
10
-56.5052645970
20
13.5118510206
40
0.2000000000
100
AcDbArc
50
359.9999997122
51
89.4999670152
0
ARC
5
451
100
AcDbEntity
8
0
100
AcDbCircle
62
7
6
CONTINUOUS
10
-56.5052644818
20
-7.3118510196
40
0.2000000000
100
AcDbArc
50
270.5000000000
51
360.0000000000
0
ARC
5
452
100
AcDbEntity
8
0
100
AcDbCircle
62
7
6
CONTINUOUS
10
-50.2052644818
20
-19.0000000000
40
0.5000000000
100
AcDbArc
50
0.0000000000
51
90.0000000000
0
ARC
5
453
100
AcDbEntity
8
0
100
AcDbCircle
62
7
6
CONTINUOUS
10
-50.2052644818
20
19.0000000000
40
0.5000000000
100
AcDbArc
50
270.0000000000
51
360.0000000000
0
ARC
5
454
100
AcDbEntity
8
0
100
AcDbCircle
62
7
6
CONTINUOUS
10
-49.9052644818
20
20.1171572875
40
0.2000000000
100
AcDbArc
50
0.0000000000
51
45.0000000000
0
ARC
5
455
100
AcDbEntity
8
0
100
AcDbCircle
62
7
6
CONTINUOUS
10
-49.9052644818
20
-20.1171572875
40
0.2000000000
100
AcDbArc
50
315.0000000000
51
360.0000000000
0
ARC
5
456
100
AcDbEntity
8
0
100
AcDbCircle
62
7
6
CONTINUOUS
10
-56.6052644818
20
-4.9872801014
40
0.3000000000
100
AcDbArc
50
0.0000000000
51
89.5000000000
0
SPLINE
5
457
100
AcDbEntity
8
0
100
AcDbSpline
62
7
6
CONTINUOUS
70
0
71
3
72
12
73
8
74
6
42
0.0000001000
43
0.0000001000
44
0.0000000001
12
0.1000000000
22
-0.1000000000
32
0.0000000000
13
0.1000000000
23
-0.1000000000
33
0.0000000000
40
0.0000000000
40
0.0000000000
40
0.0000000000
40
0.0000000000
40
0.0740871969
40
0.2496693993
40
0.4805515997
40
0.7386258012
40
1.0000000000
40
1.0000000000
40
1.0000000000
40
1.0000000000
10
3.2500000000
20
-3.1500000000
30
0.0000000000
10
3.2524695732
20
-3.1524695732
30
0.0000000000
10
3.2607918865
20
-3.1607918865
30
0.0000000000
10
3.2768102732
20
-3.1768102732
30
0.0000000000
10
3.2989615600
20
-3.1989615600
30
0.0000000000
10
3.3239725800
20
-3.2239725800
30
0.0000000000
10
3.3412875267
20
-3.2412875267
30
0.0000000000
10
3.3500000000
20
-3.2500000000
30
0.0000000000
11
3.2500000000
21
-3.1500000000
31
0.0000000000
11
3.2574087197
21
-3.1574087197
31
0.0000000000
11
3.2749669399
21
-3.1749669399
31
0.0000000000
11
3.2980551600
21
-3.1980551600
31
0.0000000000
11
3.3238625801
21
-3.2238625801
31
0.0000000000
11
3.3500000000
21
-3.2500000000
31
0.0000000000
0
SPLINE
5
458
100
AcDbEntity
8
0
100
AcDbSpline
62
7
6
CONTINUOUS
70
0
71
3
72
12
73
8
74
6
42
0.0000001000
43
0.0000001000
44
0.0000000001
12
0.1000000000
22
-0.1000000000
32
0.0000000000
13
0.1000000000
23
-0.1000000000
33
0.0000000000
40
0.0000000000
40
0.0000000000
40
0.0000000000
40
0.0000000000
40
0.0740871969
40
0.2496693993
40
0.4805515997
40
0.7386258012
40
1.0000000000
40
1.0000000000
40
1.0000000000
40
1.0000000000
10
2.0500000000
20
-4.8500000000
30
0.0000000000
10
2.0524695732
20
-4.8524695732
30
0.0000000000
10
2.0607918865
20
-4.8607918865
30
0.0000000000
10
2.0768102732
20
-4.8768102732
30
0.0000000000
10
2.0989615600
20
-4.8989615600
30
0.0000000000
10
2.1239725800
20
-4.9239725800
30
0.0000000000
10
2.1412875267
20
-4.9412875267
30
0.0000000000
10
2.1500000000
20
-4.9500000000
30
0.0000000000
11
2.0500000000
21
-4.8500000000
31
0.0000000000
11
2.0574087197
21
-4.8574087197
31
0.0000000000
11
2.0749669399
21
-4.8749669399
31
0.0000000000
11
2.0980551600
21
-4.8980551600
31
0.0000000000
11
2.1238625801
21
-4.9238625801
31
0.0000000000
11
2.1500000000
21
-4.9500000000
31
0.0000000000
0
SPLINE
5
459
100
AcDbEntity
8
0
100
AcDbSpline
62
7
6
CONTINUOUS
70
0
71
3
72
12
73
8
74
6
42
0.0000001000
43
0.0000001000
44
0.0000000001
12
0.1000000000
22
-0.1000000000
32
0.0000000000
13
0.1000000000
23
-0.1000000000
33
0.0000000000
40
0.0000000000
40
0.0000000000
40
0.0000000000
40
0.0000000000
40
0.0740871969
40
0.2496693993
40
0.4805515997
40
0.7386258012
40
1.0000000000
40
1.0000000000
40
1.0000000000
40
1.0000000000
10
2.0500000000
20
-6.0500000000
30
0.0000000000
10
2.0524695732
20
-6.0524695732
30
0.0000000000
10
2.0607918865
20
-6.0607918865
30
0.0000000000
10
2.0768102732
20
-6.0768102732
30
0.0000000000
10
2.0989615600
20
-6.0989615600
30
0.0000000000
10
2.1239725800
20
-6.1239725800
30
0.0000000000
10
2.1412875267
20
-6.1412875267
30
0.0000000000
10
2.1500000000
20
-6.1500000000
30
0.0000000000
11
2.0500000000
21
-6.0500000000
31
0.0000000000
11
2.0574087197
21
-6.0574087197
31
0.0000000000
11
2.0749669399
21
-6.0749669399
31
0.0000000000
11
2.0980551600
21
-6.0980551600
31
0.0000000000
11
2.1238625801
21
-6.1238625801
31
0.0000000000
11
2.1500000000
21
-6.1500000000
31
0.0000000000
0
SPLINE
5
45A
100
AcDbEntity
8
0
100
AcDbSpline
62
7
6
CONTINUOUS
70
0
71
3
72
12
73
8
74
6
42
0.0000001000
43
0.0000001000
44
0.0000000001
12
-0.1000000000
22
-0.1000000000
32
0.0000000000
13
-0.1000000000
23
-0.1000000000
33
0.0000000000
40
0.0000000000
40
0.0000000000
40
0.0000000000
40
0.0000000000
40
0.0740871969
40
0.2496693993
40
0.4805515997
40
0.7386258012
40
1.0000000000
40
1.0000000000
40
1.0000000000
40
1.0000000000
10
-2.0500000000
20
-6.0500000000
30
0.0000000000
10
-2.0524695732
20
-6.0524695732
30
0.0000000000
10
-2.0607918865
20
-6.0607918865
30
0.0000000000
10
-2.0768102732
20
-6.0768102732
30
0.0000000000
10
-2.0989615600
20
-6.0989615600
30
0.0000000000
10
-2.1239725800
20
-6.1239725800
30
0.0000000000
10
-2.1412875267
20
-6.1412875267
30
0.0000000000
10
-2.1500000000
20
-6.1500000000
30
0.0000000000
11
-2.0500000000
21
-6.0500000000
31
0.0000000000
11
-2.0574087197
21
-6.0574087197
31
0.0000000000
11
-2.0749669399
21
-6.0749669399
31
0.0000000000
11
-2.0980551600
21
-6.0980551600
31
0.0000000000
11
-2.1238625801
21
-6.1238625801
31
0.0000000000
11
-2.1500000000
21
-6.1500000000
31
0.0000000000
0
SPLINE
5
45B
100
AcDbEntity
8
0
100
AcDbSpline
62
7
6
CONTINUOUS
70
0
71
3
72
12
73
8
74
6
42
0.0000001000
43
0.0000001000
44
0.0000000001
12
-0.1000000000
22
-0.1000000000
32
0.0000000000
13
-0.1000000000
23
-0.1000000000
33
0.0000000000
40
0.0000000000
40
0.0000000000
40
0.0000000000
40
0.0000000000
40
0.0740871969
40
0.2496693993
40
0.4805515997
40
0.7386258012
40
1.0000000000
40
1.0000000000
40
1.0000000000
40
1.0000000000
10
-2.0500000000
20
-4.8500000000
30
0.0000000000
10
-2.0524695732
20
-4.8524695732
30
0.0000000000
10
-2.0607918865
20
-4.8607918865
30
0.0000000000
10
-2.0768102732
20
-4.8768102732
30
0.0000000000
10
-2.0989615600
20
-4.8989615600
30
0.0000000000
10
-2.1239725800
20
-4.9239725800
30
0.0000000000
10
-2.1412875267
20
-4.9412875267
30
0.0000000000
10
-2.1500000000
20
-4.9500000000
30
0.0000000000
11
-2.0500000000
21
-4.8500000000
31
0.0000000000
11
-2.0574087197
21
-4.8574087197
31
0.0000000000
11
-2.0749669399
21
-4.8749669399
31
0.0000000000
11
-2.0980551600
21
-4.8980551600
31
0.0000000000
11
-2.1238625801
21
-4.9238625801
31
0.0000000000
11
-2.1500000000
21
-4.9500000000
31
0.0000000000
0
SPLINE
5
45C
100
AcDbEntity
8
0
100
AcDbSpline
62
7
6
CONTINUOUS
70
0
71
3
72
12
73
8
74
6
42
0.0000001000
43
0.0000001000
44
0.0000000001
12
-0.1000000000
22
-0.1000000000
32
0.0000000000
13
-0.1000000000
23
-0.1000000000
33
0.0000000000
40
0.0000000000
40
0.0000000000
40
0.0000000000
40
0.0000000000
40
0.0740871969
40
0.2496693993
40
0.4805515997
40
0.7386258012
40
1.0000000000
40
1.0000000000
40
1.0000000000
40
1.0000000000
10
-3.2500000000
20
-3.1500000000
30
0.0000000000
10
-3.2524695732
20
-3.1524695732
30
0.0000000000
10
-3.2607918865
20
-3.1607918865
30
0.0000000000
10
-3.2768102732
20
-3.1768102732
30
0.0000000000
10
-3.2989615600
20
-3.1989615600
30
0.0000000000
10
-3.3239725800
20
-3.2239725800
30
0.0000000000
10
-3.3412875267
20
-3.2412875267
30
0.0000000000
10
-3.3500000000
20
-3.2500000000
30
0.0000000000
11
-3.2500000000
21
-3.1500000000
31
0.0000000000
11
-3.2574087197
21
-3.1574087197
31
0.0000000000
11
-3.2749669399
21
-3.1749669399
31
0.0000000000
11
-3.2980551600
21
-3.1980551600
31
0.0000000000
11
-3.3238625801
21
-3.2238625801
31
0.0000000000
11
-3.3500000000
21
-3.2500000000
31
0.0000000000
0
SPLINE
5
45D
100
AcDbEntity
8
0
100
AcDbSpline
62
7
6
CONTINUOUS
70
0
71
3
72
11
73
7
74
5
42
0.0000001000
43
0.0000001000
44
0.0000000001
12
-0.0499943767
22
-0.0499943767
32
0.0000000000
13
-0.0499943767
23
-0.0499943767
33
0.0000000000
40
0.0000000000
40
0.0000000000
40
0.0000000000
40
0.0000000000
40
0.1481910603
40
0.4993949639
40
0.9612113036
40
1.0000000000
40
1.0000000000
40
1.0000000000
40
1.0000000000
10
-6.0000000000
20
-3.1500000000
30
0.0000000000
10
-6.0024695732
20
-3.1524695732
30
0.0000000000
10
-6.0107918865
20
-3.1607918865
30
0.0000000000
10
-6.0268102732
20
-3.1768102732
30
0.0000000000
10
-6.0410054922
20
-3.1910054922
30
0.0000000000
10
-6.0493479711
20
-3.1993479711
30
0.0000000000
10
-6.0499943767
20
-3.1999943767
30
0.0000000000
11
-6.0000000000
21
-3.1500000000
31
0.0000000000
11
-6.0074087197
21
-3.1574087197
31
0.0000000000
11
-6.0249669399
21
-3.1749669399
31
0.0000000000
11
-6.0480551600
21
-3.1980551600
31
0.0000000000
11
-6.0499943767
21
-3.1999943767
31
0.0000000000
0
SPLINE
5
45E
100
AcDbEntity
8
0
100
AcDbSpline
62
7
6
CONTINUOUS
70
0
71
3
72
12
73
8
74
6
42
0.0000001000
43
0.0000001000
44
0.0000000001
12
-0.1000000000
22
0.1000000000
32
0.0000000000
13
-0.1000000000
23
0.1000000000
33
0.0000000000
40
0.0000000000
40
0.0000000000
40
0.0000000000
40
0.0000000000
40
0.0740871969
40
0.2496693993
40
0.4805515997
40
0.7386258012
40
1.0000000000
40
1.0000000000
40
1.0000000000
40
1.0000000000
10
-6.0000000000
20
3.7500000000
30
0.0000000000
10
-6.0024695732
20
3.7524695732
30
0.0000000000
10
-6.0107918865
20
3.7607918865
30
0.0000000000
10
-6.0268102732
20
3.7768102732
30
0.0000000000
10
-6.0489615600
20
3.7989615600
30
0.0000000000
10
-6.0739725800
20
3.8239725800
30
0.0000000000
10
-6.0912875267
20
3.8412875267
30
0.0000000000
10
-6.1000000000
20
3.8500000000
30
0.0000000000
11
-6.0000000000
21
3.7500000000
31
0.0000000000
11
-6.0074087197
21
3.7574087197
31
0.0000000000
11
-6.0249669399
21
3.7749669399
31
0.0000000000
11
-6.0480551600
21
3.7980551600
31
0.0000000000
11
-6.0738625801
21
3.8238625801
31
0.0000000000
11
-6.1000000000
21
3.8500000000
31
0.0000000000
0
SPLINE
5
45F
100
AcDbEntity
8
0
100
AcDbSpline
62
7
6
CONTINUOUS
70
0
71
3
72
12
73
8
74
6
42
0.0000001000
43
0.0000001000
44
0.0000000001
12
0.1000000000
22
0.1000000000
32
0.0000000000
13
0.1000000000
23
0.1000000000
33
0.0000000000
40
0.0000000000
40
0.0000000000
40
0.0000000000
40
0.0000000000
40
0.0740871969
40
0.2496693993
40
0.4805515997
40
0.7386258012
40
1.0000000000
40
1.0000000000
40
1.0000000000
40
1.0000000000
10
6.0000000000
20
3.7500000000
30
0.0000000000
10
6.0024695732
20
3.7524695732
30
0.0000000000
10
6.0107918865
20
3.7607918865
30
0.0000000000
10
6.0268102732
20
3.7768102732
30
0.0000000000
10
6.0489615600
20
3.7989615600
30
0.0000000000
10
6.0739725800
20
3.8239725800
30
0.0000000000
10
6.0912875267
20
3.8412875267
30
0.0000000000
10
6.1000000000
20
3.8500000000
30
0.0000000000
11
6.0000000000
21
3.7500000000
31
0.0000000000
11
6.0074087197
21
3.7574087197
31
0.0000000000
11
6.0249669399
21
3.7749669399
31
0.0000000000
11
6.0480551600
21
3.7980551600
31
0.0000000000
11
6.0738625801
21
3.8238625801
31
0.0000000000
11
6.1000000000
21
3.8500000000
31
0.0000000000
0
SPLINE
5
460
100
AcDbEntity
8
0
100
AcDbSpline
62
7
6
CONTINUOUS
70
0
71
3
72
11
73
7
74
5
42
0.0000001000
43
0.0000001000
44
0.0000000001
12
0.0500056560
22
-0.0500056560
32
0.0000000000
13
0.0500056560
23
-0.0500056560
33
0.0000000000
40
0.0000000000
40
0.0000000000
40
0.0000000000
40
0.0000000000
40
0.1481576340
40
0.4992823194
40
0.9609944909
40
1.0000000000
40
1.0000000000
40
1.0000000000
40
1.0000000000
10
6.0000000000
20
-3.1500000000
30
0.0000000000
10
6.0024695732
20
-3.1524695732
30
0.0000000000
10
6.0107918865
20
-3.1607918865
30
0.0000000000
10
6.0268102732
20
-3.1768102732
30
0.0000000000
10
6.0410092520
20
-3.1910092520
30
0.0000000000
10
6.0493554907
20
-3.1993554907
30
0.0000000000
10
6.0500056560
20
-3.2000056560
30
0.0000000000
11
6.0000000000
21
-3.1500000000
31
0.0000000000
11
6.0074087197
21
-3.1574087197
31
0.0000000000
11
6.0249669399
21
-3.1749669399
31
0.0000000000
11
6.0480551600
21
-3.1980551600
31
0.0000000000
11
6.0500056560
21
-3.2000056560
31
0.0000000000
0
SPLINE
5
461
100
AcDbEntity
8
0
100
AcDbSpline
62
7
6
CONTINUOUS
70
0
71
3
72
15
73
11
74
9
42
0.0000001000
43
0.0000001000
44
0.0000000001
12
0.0000000000
22
-0.7840504605
32
0.0000000000
13
-0.7840504605
23
0.0000000000
33
0.0000000000
40
0.0000000000
40
0.0000000000
40
0.0000000000
40
0.0000000000
40
0.1250035856
40
0.2500003382
40
0.3749971738
40
0.4999931596
40
0.6249941993
40
0.7499962985
40
0.8749988330
40
1.0000000000
40
1.0000000000
40
1.0000000000
40
1.0000000000
10
11.1500000000
20
-21.8997711479
30
0.0000000000
10
11.1500000000
20
-21.9324408542
30
0.0000000000
10
11.1435720625
20
-21.9979588343
30
0.0000000000
10
11.1150028885
20
-22.0923353736
30
0.0000000000
10
11.0685863853
20
-22.1793736183
30
0.0000000000
10
11.0060858443
20
-22.2556795571
30
0.0000000000
10
10.9298940235
20
-22.3183228818
30
0.0000000000
10
10.8429223671
20
-22.3648787971
30
0.0000000000
10
10.7485697898
20
-22.3935479377
30
0.0000000000
10
10.6830496739
20
-22.4000000000
30
0.0000000000
10
10.6503805997
20
-22.4000000000
30
0.0000000000
11
11.1500000000
21
-21.8997711479
31
0.0000000000
11
11.1404171274
21
-21.9973106575
31
0.0000000000
11
11.1120282390
21
-22.0911126206
31
0.0000000000
11
11.0659057104
21
-22.1775849419
31
0.0000000000
11
11.0038050670
21
-22.2534013617
31
0.0000000000
11
10.9280978412
21
-22.3156413172
31
0.0000000000
11
10.8416923200
21
-22.3618976126
31
0.0000000000
11
10.7479148288
21
-22.3903828363
31
0.0000000000
11
10.6503805997
21
-22.4000000000
31
0.0000000000
0
SPLINE
5
462
100
AcDbEntity
8
0
100
AcDbSpline
62
7
6
CONTINUOUS
70
0
71
3
72
15
73
11
74
9
42
0.0000001000
43
0.0000001000
44
0.0000000001
12
0.7840504604
22
0.0000000000
32
0.0000000000
13
-0.0000000000
23
-0.7840504604
33
0.0000000000
40
0.0000000000
40
0.0000000000
40
0.0000000000
40
0.0000000000
40
0.1250026133
40
0.2500082844
40
0.3750136098
40
0.5000160060
40
0.6250106349
40
0.7500042447
40
0.8749978606
40
1.0000000000
40
1.0000000000
40
1.0000000000
40
1.0000000000
10
10.6503805997
20
22.4000000000
30
0.0000000000
10
10.6830500519
20
22.4000000000
30
0.0000000000
10
10.7485713718
20
22.3935477443
30
0.0000000000
10
10.8429258085
20
22.3648775487
30
0.0000000000
10
10.9298988298
20
22.3183198083
30
0.0000000000
10
11.0060904776
20
22.2556749149
30
0.0000000000
10
11.0685894502
20
22.1793688070
30
0.0000000000
10
11.1150041327
20
22.0923319310
30
0.0000000000
10
11.1435722551
20
21.9979572524
30
0.0000000000
10
11.1500000000
20
21.9324404763
30
0.0000000000
10
11.1500000000
20
21.8997711479
30
0.0000000000
11
10.6503805997
21
22.4000000000
31
0.0000000000
11
10.7479159463
21
22.3903826137
31
0.0000000000
11
10.8416956551
21
22.3618962291
31
0.0000000000
11
10.9281029540
21
22.3156378952
31
0.0000000000
11
11.0038101683
21
22.2533962508
31
0.0000000000
11
11.0659091235
21
22.1775798235
31
0.0000000000
11
11.1120296181
21
22.0911092838
31
0.0000000000
11
11.1404173492
21
21.9973095399
31
0.0000000000
11
11.1500000000
21
21.8997711479
31
0.0000000000
0
SPLINE
5
463
100
AcDbEntity
8
0
100
AcDbSpline
62
7
6
CONTINUOUS
70
0
71
3
72
15
73
11
74
9
42
0.0000001000
43
0.0000001000
44
0.0000000001
12
-0.7840504604
22
0.0000000000
32
0.0000000000
13
0.0000000000
23
0.7840504604
33
0.0000000000
40
0.0000000000
40
0.0000000000
40
0.0000000000
40
0.0000000000
40
0.1250026133
40
0.2500082844
40
0.3750136098
40
0.5000160060
40
0.6250106349
40
0.7500042447
40
0.8749978606
40
1.0000000000
40
1.0000000000
40
1.0000000000
40
1.0000000000
10
-10.6503805997
20
-22.4000000000
30
0.0000000000
10
-10.6830500519
20
-22.4000000000
30
0.0000000000
10
-10.7485713718
20
-22.3935477443
30
0.0000000000
10
-10.8429258085
20
-22.3648775487
30
0.0000000000
10
-10.9298988298
20
-22.3183198083
30
0.0000000000
10
-11.0060904776
20
-22.2556749149
30
0.0000000000
10
-11.0685894502
20
-22.1793688070
30
0.0000000000
10
-11.1150041327
20
-22.0923319310
30
0.0000000000
10
-11.1435722551
20
-21.9979572524
30
0.0000000000
10
-11.1500000000
20
-21.9324404763
30
0.0000000000
10
-11.1500000000
20
-21.8997711479
30
0.0000000000
11
-10.6503805997
21
-22.4000000000
31
0.0000000000
11
-10.7479159463
21
-22.3903826137
31
0.0000000000
11
-10.8416956551
21
-22.3618962291
31
0.0000000000
11
-10.9281029540
21
-22.3156378952
31
0.0000000000
11
-11.0038101683
21
-22.2533962508
31
0.0000000000
11
-11.0659091235
21
-22.1775798235
31
0.0000000000
11
-11.1120296181
21
-22.0911092838
31
0.0000000000
11
-11.1404173492
21
-21.9973095399
31
0.0000000000
11
-11.1500000000
21
-21.8997711479
31
0.0000000000
0
SPLINE
5
464
100
AcDbEntity
8
0
100
AcDbSpline
62
7
6
CONTINUOUS
70
0
71
3
72
15
73
11
74
9
42
0.0000001000
43
0.0000001000
44
0.0000000001
12
0.0000000000
22
0.7840504605
32
0.0000000000
13
0.7840504605
23
0.0000000000
33
0.0000000000
40
0.0000000000
40
0.0000000000
40
0.0000000000
40
0.0000000000
40
0.1250035856
40
0.2500003382
40
0.3749971738
40
0.4999931596
40
0.6249941993
40
0.7499962985
40
0.8749988330
40
1.0000000000
40
1.0000000000
40
1.0000000000
40
1.0000000000
10
-11.1500000000
20
21.8997711479
30
0.0000000000
10
-11.1500000000
20
21.9324408542
30
0.0000000000
10
-11.1435720625
20
21.9979588343
30
0.0000000000
10
-11.1150028885
20
22.0923353736
30
0.0000000000
10
-11.0685863853
20
22.1793736183
30
0.0000000000
10
-11.0060858443
20
22.2556795571
30
0.0000000000
10
-10.9298940235
20
22.3183228818
30
0.0000000000
10
-10.8429223671
20
22.3648787971
30
0.0000000000
10
-10.7485697898
20
22.3935479377
30
0.0000000000
10
-10.6830496739
20
22.4000000000
30
0.0000000000
10
-10.6503805997
20
22.4000000000
30
0.0000000000
11
-11.1500000000
21
21.8997711479
31
0.0000000000
11
-11.1404171274
21
21.9973106575
31
0.0000000000
11
-11.1120282390
21
22.0911126206
31
0.0000000000
11
-11.0659057104
21
22.1775849419
31
0.0000000000
11
-11.0038050670
21
22.2534013617
31
0.0000000000
11
-10.9280978412
21
22.3156413172
31
0.0000000000
11
-10.8416923200
21
22.3618976126
31
0.0000000000
11
-10.7479148288
21
22.3903828363
31
0.0000000000
11
-10.6503805997
21
22.4000000000
31
0.0000000000
0
SPLINE
5
465
100
AcDbEntity
8
0
100
AcDbSpline
62
9
6
CONTINUOUS
70
0
71
3
72
13
73
9
74
7
42
0.0000001000
43
0.0000001000
44
0.0000000001
12
-0.1577378029
22
0.9435858985
32
0.0000000000
13
-0.0003490202
23
0.9566793822
33
0.0000000000
40
0.0000000000
40
0.0000000000
40
0.0000000000
40
0.0000000000
40
0.0448208408
40
0.1498261432
40
0.3086281187
40
0.5117190361
40
0.7469352638
40
1.0000000000
40
1.0000000000
40
1.0000000000
40
1.0000000000
10
10.5087981167
20
-21.9749071372
30
0.0000000000
10
10.5064414697
20
-21.9608096994
30
0.0000000000
10
10.5072295647
20
-21.9127248768
30
0.0000000000
10
10.5036916604
20
-21.8145848799
30
0.0000000000
10
10.5030908201
20
-21.6655686219
30
0.0000000000
10
10.5015010824
20
-21.4752101535
30
0.0000000000
10
10.5008152536
20
-21.2547198844
30
0.0000000000
10
10.5005645041
20
-21.0990148361
30
0.0000000000
10
10.5005350625
20
-21.0183142309
30
0.0000000000
11
10.5087981167
21
-21.9749071372
31
0.0000000000
11
10.5066887591
21
-21.9320798744
31
0.0000000000
11
10.5047336849
21
-21.8316424864
31
0.0000000000
11
10.5030519635
21
-21.6797292088
31
0.0000000000
11
10.5017438026
21
-21.4854407064
31
0.0000000000
11
10.5008871714
21
-21.2604158065
31
0.0000000000
11
10.5005350625
21
-21.0183142309
31
0.0000000000
0
SPLINE
5
466
100
AcDbEntity
8
0
100
AcDbSpline
62
9
6
CONTINUOUS
70
0
71
3
72
13
73
9
74
7
42
0.0000001000
43
0.0000001000
44
0.0000000001
12
-0.1518283440
22
0.4537411951
32
0.0000000000
13
-0.0003498850
23
0.4784692214
33
0.0000000000
40
0.0000000000
40
0.0000000000
40
0.0000000000
40
0.0000000000
40
0.0448720941
40
0.1499620513
40
0.3088769427
40
0.5121305404
40
0.7475203519
40
1.0000000000
40
1.0000000000
40
1.0000000000
40
1.0000000000
10
11.0087219643
20
-21.4755923698
30
0.0000000000
10
11.0064510124
20
-21.4688055973
30
0.0000000000
10
11.0070644478
20
-21.4443203345
30
0.0000000000
10
11.0036664875
20
-21.3955798760
30
0.0000000000
10
11.0029931518
20
-21.3208239670
30
0.0000000000
10
11.0014301292
20
-21.2256234781
30
0.0000000000
10
11.0007361325
20
-21.1153658418
30
0.0000000000
10
11.0004883564
20
-21.0375638302
30
0.0000000000
10
11.0004589101
20
-20.9972959167
30
0.0000000000
11
11.0087219643
21
-21.4755923698
31
0.0000000000
11
11.0066154888
21
-21.4542260342
31
0.0000000000
11
11.0046585314
21
-21.4039818070
31
0.0000000000
11
11.0029751375
21
-21.3279645393
31
0.0000000000
11
11.0016659628
21
-21.2307227351
31
0.0000000000
11
11.0008096574
21
-21.1180991805
31
0.0000000000
11
11.0004589101
21
-20.9972959167
31
0.0000000000
0
SPLINE
5
467
100
AcDbEntity
8
0
100
AcDbSpline
62
9
6
CONTINUOUS
70
0
71
3
72
12
73
8
74
6
42
0.0000001000
43
0.0000001000
44
0.0000000001
12
0.7813571085
22
0.0007128051
32
0.0000000000
13
0.0007145497
23
0.7813571069
33
0.0000000000
40
0.0000000000
40
0.0000000000
40
0.0000000000
40
0.0000000000
40
0.2000879484
40
0.4001761228
40
0.6002085985
40
0.8001502331
40
1.0000000000
40
1.0000000000
40
1.0000000000
40
1.0000000000
10
10.5087981167
20
-21.9749071372
30
0.0000000000
10
10.5609114970
20
-21.9748595960
30
0.0000000000
10
10.6658541434
20
-21.9582167171
30
0.0000000000
10
10.8073215017
20
-21.8860919029
30
0.0000000000
10
10.9197686772
20
-21.7737938411
30
0.0000000000
10
10.9920030345
20
-21.6324882152
30
0.0000000000
10
11.0086743634
20
-21.5276437151
30
0.0000000000
10
11.0087219643
20
-21.4755923698
30
0.0000000000
11
10.5087981167
21
-21.9749071372
31
0.0000000000
11
10.6631985021
21
-21.9503555394
31
0.0000000000
11
10.8025013793
21
-21.8793835478
31
0.0000000000
11
10.9130864355
21
-21.7689315022
31
0.0000000000
11
10.9841419991
21
-21.6297997904
31
0.0000000000
11
11.0087219643
21
-21.4755923698
31
0.0000000000
0
SPLINE
5
468
100
AcDbEntity
8
0
100
AcDbSpline
62
9
6
CONTINUOUS
70
0
71
3
72
10
73
6
74
4
42
0.0000001000
43
0.0000001000
44
0.0000000001
12
-0.0308408133
22
42.0366204979
32
0.0000000000
13
0.0308408108
23
42.0366204979
33
0.0000000000
40
0.0000000000
40
0.0000000000
40
0.0000000000
40
0.0000000000
40
0.3332896860
40
0.6667103140
40
1.0000000000
40
1.0000000000
40
1.0000000000
40
1.0000000000
10
10.5005350625
20
-21.0183142309
30
0.0000000000
10
10.4971087542
20
-16.3481902157
30
0.0000000000
10
10.4925427185
20
-7.0061055531
30
0.0000000000
10
10.4925427181
20
7.0061055523
30
0.0000000000
10
10.4971087545
20
16.3481902153
30
0.0000000000
10
10.5005350625
20
21.0183142309
30
0.0000000000
11
10.5005350625
21
-21.0183142309
31
0.0000000000
11
10.4936846758
21
-7.0079400892
31
0.0000000000
11
10.4936846757
21
7.0079400882
31
0.0000000000
11
10.5005350625
21
21.0183142309
31
0.0000000000
0
SPLINE
5
469
100
AcDbEntity
8
0
100
AcDbSpline
62
9
6
CONTINUOUS
70
0
71
3
72
10
73
6
74
4
42
0.0000001000
43
0.0000001000
44
0.0000000001
12
-0.0308408131
22
41.9945838615
32
0.0000000000
13
0.0308408106
23
41.9945838615
33
0.0000000000
40
0.0000000000
40
0.0000000000
40
0.0000000000
40
0.0000000000
40
0.3332892101
40
0.6667109287
40
1.0000000000
40
1.0000000000
40
1.0000000000
40
1.0000000000
10
11.0004589101
20
-20.9972959167
30
0.0000000000
10
10.9970326067
20
-16.3318486893
30
0.0000000000
10
10.9924665635
20
-6.9990975058
30
0.0000000000
10
10.9924665646
20
6.9991013917
30
0.0000000000
10
10.9970326084
20
16.3318506322
30
0.0000000000
10
11.0004589101
20
20.9972959167
30
0.0000000000
11
11.0004589101
21
-20.9972959167
31
0.0000000000
11
10.9936085283
21
-7.0009521365
31
0.0000000000
11
10.9936085296
21
7.0009579653
31
0.0000000000
11
11.0004589101
21
20.9972959167
31
0.0000000000
0
SPLINE
5
46A
100
AcDbEntity
8
0
100
AcDbSpline
62
9
6
CONTINUOUS
70
0
71
3
72
12
73
8
74
6
42
0.0000001000
43
0.0000001000
44
0.0000000001
12
0.5010580609
22
0.0003673192
32
0.0000000000
13
0.1919553163
23
0.4628309323
33
0.0000000000
40
0.0000000000
40
0.0000000000
40
0.0000000000
40
0.0000000000
40
0.3050607102
40
0.5809725745
40
0.8013959844
40
0.9453902239
40
1.0000000000
40
1.0000000000
40
1.0000000000
40
1.0000000000
10
10.5005350625
20
-21.0183142305
30
0.0000000000
10
10.5514861052
20
-21.0182768789
30
0.0000000000
10
10.6490214532
20
-21.0180276728
30
0.0000000000
10
10.7809060054
20
-21.0135856071
30
0.0000000000
10
10.8928023060
20
-21.0137704023
30
0.0000000000
10
10.9527896770
20
-21.0005048015
30
0.0000000000
10
10.9969646978
20
-21.0057209479
30
0.0000000000
10
11.0004589101
20
-20.9972959167
30
0.0000000000
11
10.5005350625
21
-21.0183142305
31
0.0000000000
11
10.6533841411
21
-21.0171959985
31
0.0000000000
11
10.7915989752
21
-21.0141724692
31
0.0000000000
11
10.9019464483
21
-21.0095331264
31
0.0000000000
11
10.9738615515
21
-21.0037221554
31
0.0000000000
11
11.0004589101
21
-20.9972959167
31
0.0000000000
0
SPLINE
5
46B
100
AcDbEntity
8
0
100
AcDbSpline
62
9
6
CONTINUOUS
70
0
71
3
72
13
73
9
74
7
42
0.0000001000
43
0.0000001000
44
0.0000000001
12
0.0003490200
22
0.9566793822
32
0.0000000000
13
0.1577378176
23
0.9435858960
33
0.0000000000
40
0.0000000000
40
0.0000000000
40
0.0000000000
40
0.0000000000
40
0.2530647362
40
0.4882809639
40
0.6913718813
40
0.8501738568
40
0.9551791592
40
1.0000000000
40
1.0000000000
40
1.0000000000
40
1.0000000000
10
10.5005350625
20
21.0183142309
30
0.0000000000
10
10.5005645041
20
21.0990148361
30
0.0000000000
10
10.5008152537
20
21.2547198844
30
0.0000000000
10
10.5015010823
20
21.4752101535
30
0.0000000000
10
10.5030908202
20
21.6655686219
30
0.0000000000
10
10.5036916603
20
21.8145848800
30
0.0000000000
10
10.5072295650
20
21.9127248768
30
0.0000000000
10
10.5064414695
20
21.9608096995
30
0.0000000000
10
10.5087981167
20
21.9749071372
30
0.0000000000
11
10.5005350625
21
21.0183142309
31
0.0000000000
11
10.5008871715
21
21.2604158065
31
0.0000000000
11
10.5017438025
21
21.4854407064
31
0.0000000000
11
10.5030519635
21
21.6797292088
31
0.0000000000
11
10.5047336849
21
21.8316424864
31
0.0000000000
11
10.5066887591
21
21.9320798744
31
0.0000000000
11
10.5087981167
21
21.9749071372
31
0.0000000000
0
SPLINE
5
46C
100
AcDbEntity
8
0
100
AcDbSpline
62
9
6
CONTINUOUS
70
0
71
3
72
13
73
9
74
7
42
0.0000001000
43
0.0000001000
44
0.0000000001
12
0.0003498847
22
0.4784692214
32
0.0000000000
13
0.1518282341
23
0.4537412319
33
0.0000000000
40
0.0000000000
40
0.0000000000
40
0.0000000000
40
0.0000000000
40
0.2524796480
40
0.4878694598
40
0.6911230573
40
0.8500379483
40
0.9551279064
40
1.0000000000
40
1.0000000000
40
1.0000000000
40
1.0000000000
10
11.0004589101
20
20.9972959167
30
0.0000000000
10
11.0004883564
20
21.0375638302
30
0.0000000000
10
11.0007361325
20
21.1153658418
30
0.0000000000
10
11.0014301293
20
21.2256234781
30
0.0000000000
10
11.0029931514
20
21.3208239671
30
0.0000000000
10
11.0036664885
20
21.3955798757
30
0.0000000000
10
11.0070644460
20
21.4443203351
30
0.0000000000
10
11.0064510140
20
21.4688055968
30
0.0000000000
10
11.0087219643
20
21.4755923698
30
0.0000000000
11
11.0004589101
21
20.9972959167
31
0.0000000000
11
11.0008096574
21
21.1180991804
31
0.0000000000
11
11.0016659628
21
21.2307227352
31
0.0000000000
11
11.0029751375
21
21.3279645393
31
0.0000000000
11
11.0046585314
21
21.4039818068
31
0.0000000000
11
11.0066154888
21
21.4542260345
31
0.0000000000
11
11.0087219643
21
21.4755923698
31
0.0000000000
0
SPLINE
5
46D
100
AcDbEntity
8
0
100
AcDbSpline
62
9
6
CONTINUOUS
70
0
71
3
72
12
73
8
74
6
42
0.0000001000
43
0.0000001000
44
0.0000000001
12
0.5010578743
22
-0.0003674018
32
0.0000000000
13
0.1921898260
23
-0.4627333997
33
0.0000000000
40
0.0000000000
40
0.0000000000
40
0.0000000000
40
0.0000000000
40
0.3050562610
40
0.5809650378
40
0.8013878226
40
0.9453845855
40
1.0000000000
40
1.0000000000
40
1.0000000000
40
1.0000000000
10
10.5005350626
20
21.0183132877
30
0.0000000000
10
10.5514853431
20
21.0182759283
30
0.0000000000
10
10.6490189648
20
21.0180266176
30
0.0000000000
10
10.7809037669
20
21.0135851280
30
0.0000000000
10
10.8927956002
20
21.0137689630
30
0.0000000000
10
10.9527922360
20
21.0005055030
30
0.0000000000
10
10.9969600676
20
21.0057200422
30
0.0000000000
10
11.0004589100
20
20.9972959167
30
0.0000000000
11
10.5005350626
21
21.0183132877
31
0.0000000000
11
10.6533818551
21
21.0171950877
31
0.0000000000
11
10.7915950934
21
21.0141716956
31
0.0000000000
11
10.9019422211
21
21.0095325749
31
0.0000000000
11
10.9738585879
21
21.0037218762
31
0.0000000000
11
11.0004589100
21
20.9972959167
31
0.0000000000
0
SPLINE
5
46E
100
AcDbEntity
8
0
100
AcDbSpline
62
9
6
CONTINUOUS
70
0
71
3
72
12
73
8
74
6
42
0.0000001000
43
0.0000001000
44
0.0000000001
12
0.7813571062
22
-0.0007128138
32
0.0000000000
13
0.0007145531
23
-0.7813571046
33
0.0000000000
40
0.0000000000
40
0.0000000000
40
0.0000000000
40
0.0000000000
40
0.2000850064
40
0.4001713425
40
0.6002035309
40
0.8001467217
40
1.0000000000
40
1.0000000000
40
1.0000000000
40
1.0000000000
10
10.5087981167
20
21.9749071372
30
0.0000000000
10
10.5609107306
20
21.9748595961
30
0.0000000000
10
10.6658521000
20
21.9582171671
30
0.0000000000
10
10.8073186644
20
21.8860938495
30
0.0000000000
10
10.9197666024
20
21.7737967766
30
0.0000000000
10
10.9920025187
20
21.6324904868
30
0.0000000000
10
11.0086743624
20
21.5276446294
30
0.0000000000
10
11.0087219643
20
21.4755923698
30
0.0000000000
11
10.5087981167
21
21.9749071372
31
0.0000000000
11
10.6631962883
21
21.9503562579
31
0.0000000000
11
10.8024983178
21
21.8793857676
31
0.0000000000
11
10.9130840749
21
21.7689347421
31
0.0000000000
11
10.9841411372
21
21.6298024308
31
0.0000000000
11
11.0087219643
21
21.4755923698
31
0.0000000000
0
SPLINE
5
46F
100
AcDbEntity
8
0
100
AcDbSpline
62
9
6
CONTINUOUS
70
0
71
3
72
13
73
9
74
7
42
0.0000001000
43
0.0000001000
44
0.0000000001
12
0.1517233705
22
0.4537763541
32
0.0000000000
13
0.0003487208
23
0.4784692666
33
0.0000000000
40
0.0000000000
40
0.0000000000
40
0.0000000000
40
0.0000000000
40
0.0447511791
40
0.1496617630
40
0.3084069250
40
0.5114254892
40
0.7467904150
40
1.0000000000
40
1.0000000000
40
1.0000000000
40
1.0000000000
10
-11.0087219643
20
-21.4755923698
30
0.0000000000
10
-11.0064586977
20
-21.4688233609
30
0.0000000000
10
-11.0070626629
20
-21.4443888060
30
0.0000000000
10
-11.0036726327
20
-21.3957214402
30
0.0000000000
10
-11.0029962005
20
-21.3210594969
30
0.0000000000
10
-11.0014333211
20
-21.2259272635
30
0.0000000000
10
-11.0007370348
20
-21.1155947072
30
0.0000000000
10
-11.0004883433
20
-21.0376802515
30
0.0000000000
10
-11.0004589101
20
-20.9972959167
30
0.0000000000
11
-11.0087219643
21
-21.4755923698
31
0.0000000000
11
-11.0066187988
21
-21.4542838406
31
0.0000000000
11
-11.0046627389
21
-21.4041254635
31
0.0000000000
11
-11.0029790226
21
-21.3281894262
31
0.0000000000
11
-11.0016694038
21
-21.2310600855
31
0.0000000000
11
-11.0008114400
21
-21.1184484404
31
0.0000000000
11
-11.0004589101
21
-20.9972959167
31
0.0000000000
0
SPLINE
5
470
100
AcDbEntity
8
0
100
AcDbSpline
62
9
6
CONTINUOUS
70
0
71
3
72
13
73
9
74
7
42
0.0000001000
43
0.0000001000
44
0.0000000001
12
0.1577707702
22
0.9435803750
32
0.0000000000
13
0.0003449110
23
0.9566793721
33
0.0000000000
40
0.0000000000
40
0.0000000000
40
0.0000000000
40
0.0000000000
40
0.0448247981
40
0.1498254833
40
0.3086663044
40
0.5117002731
40
0.7469689740
40
1.0000000000
40
1.0000000000
40
1.0000000000
40
1.0000000000
10
-10.5087981167
20
-21.9749071372
30
0.0000000000
10
-10.5064407691
20
-21.9608085373
30
0.0000000000
10
-10.5072303684
20
-21.9127237243
30
0.0000000000
10
-10.5036915785
20
-21.8145717156
30
0.0000000000
10
-10.5030911067
20
-21.6655626178
30
0.0000000000
10
-10.5015012527
20
-21.4751932123
30
0.0000000000
10
-10.5008152484
20
-21.2547151132
30
0.0000000000
10
-10.5005641536
20
-21.0990040853
30
0.0000000000
10
-10.5005350625
20
-21.0183142309
30
0.0000000000
11
-10.5087981167
21
-21.9749071372
31
0.0000000000
11
-10.5066888073
21
-21.9320760821
31
0.0000000000
11
-10.5047341778
21
-21.8316431047
31
0.0000000000
11
-10.5030519894
21
-21.6796926689
31
0.0000000000
11
-10.5017441538
21
-21.4854586496
31
0.0000000000
11
-10.5008870654
21
-21.2603835538
31
0.0000000000
11
-10.5005350625
21
-21.0183142309
31
0.0000000000
0
SPLINE
5
471
100
AcDbEntity
8
0
100
AcDbSpline
62
9
6
CONTINUOUS
70
0
71
3
72
12
73
8
74
6
42
0.0000001000
43
0.0000001000
44
0.0000000001
12
0.0007145491
22
-0.7813571074
32
0.0000000000
13
0.7813571090
23
-0.0007128017
33
0.0000000000
40
0.0000000000
40
0.0000000000
40
0.0000000000
40
0.0000000000
40
0.1998485957
40
0.3997897125
40
0.5998222854
40
0.7999110728
40
1.0000000000
40
1.0000000000
40
1.0000000000
40
1.0000000000
10
-11.0087219643
20
-21.4755923698
30
0.0000000000
10
-11.0086743637
20
-21.5276434101
30
0.0000000000
10
-10.9920032064
20
-21.6324874578
30
0.0000000000
10
-10.9197693684
20
-21.7737928627
30
0.0000000000
10
-10.8073224464
20
-21.8860912544
30
0.0000000000
10
-10.6658548235
20
-21.9582165671
30
0.0000000000
10
-10.5609117519
20
-21.9748595957
30
0.0000000000
10
-10.5087981166
20
-21.9749071370
30
0.0000000000
11
-11.0087219643
21
-21.4755923698
31
0.0000000000
11
-10.9841422864
21
-21.6297989097
31
0.0000000000
11
-10.9130872219
21
-21.7689304222
31
0.0000000000
11
-10.8025023986
21
-21.8793828084
31
0.0000000000
11
-10.6631992385
21
-21.9503553003
31
0.0000000000
11
-10.5087981166
21
-21.9749071370
31
0.0000000000
0
SPLINE
5
472
100
AcDbEntity
8
0
100
AcDbSpline
62
9
6
CONTINUOUS
70
0
71
3
72
10
73
6
74
4
42
0.0000001000
43
0.0000001000
44
0.0000000001
12
0.0308407996
22
41.9945838615
32
0.0000000000
13
-0.0308408117
23
41.9945838615
33
0.0000000000
40
0.0000000000
40
0.0000000000
40
0.0000000000
40
0.0000000000
40
0.3332886949
40
0.6667106342
40
1.0000000000
40
1.0000000000
40
1.0000000000
40
1.0000000000
10
-11.0004589101
20
-20.9972959167
30
0.0000000000
10
-10.9970326135
20
-16.3318559011
30
0.0000000000
10
-10.9924665659
20
-6.9991088406
30
0.0000000000
10
-10.9924665607
20
6.9990900570
30
0.0000000000
10
-10.9970326052
20
16.3318465093
30
0.0000000000
10
-11.0004589101
20
20.9972959167
30
0.0000000000
11
-11.0004589101
21
-20.9972959167
31
0.0000000000
11
-10.9936085333
21
-7.0009737718
31
0.0000000000
11
-10.9936085267
21
7.0009455965
31
0.0000000000
11
-11.0004589101
21
20.9972959167
31
0.0000000000
0
SPLINE
5
473
100
AcDbEntity
8
0
100
AcDbSpline
62
9
6
CONTINUOUS
70
0
71
3
72
10
73
6
74
4
42
0.0000001000
43
0.0000001000
44
0.0000000001
12
0.0308407997
22
42.0366204979
32
0.0000000000
13
-0.0308408119
23
42.0366204979
33
0.0000000000
40
0.0000000000
40
0.0000000000
40
0.0000000000
40
0.0000000000
40
0.3332896861
40
0.6667103140
40
1.0000000000
40
1.0000000000
40
1.0000000000
40
1.0000000000
10
-10.5005350625
20
-21.0183142309
30
0.0000000000
10
-10.4971087557
20
-16.3481902144
30
0.0000000000
10
-10.4925427171
20
-7.0061055510
30
0.0000000000
10
-10.4925427189
20
7.0061055545
30
0.0000000000
10
-10.4971087544
20
16.3481902162
30
0.0000000000
10
-10.5005350625
20
21.0183142309
30
0.0000000000
11
-10.5005350625
21
-21.0183142309
31
0.0000000000
11
-10.4936846755
21
-7.0079400855
31
0.0000000000
11
-10.4936846759
21
7.0079400907
31
0.0000000000
11
-10.5005350625
21
21.0183142309
31
0.0000000000
0
SPLINE
5
474
100
AcDbEntity
8
0
100
AcDbSpline
62
9
6
CONTINUOUS
70
0
71
3
72
12
73
8
74
6
42
0.0000001000
43
0.0000001000
44
0.0000000001
12
0.1919554566
22
-0.4628308739
32
0.0000000000
13
0.5010580608
23
-0.0003673235
33
0.0000000000
40
0.0000000000
40
0.0000000000
40
0.0000000000
40
0.0000000000
40
0.0546097796
40
0.1986040208
40
0.4190274305
40
0.6949392928
40
1.0000000000
40
1.0000000000
40
1.0000000000
40
1.0000000000
10
-11.0004589101
20
-20.9972959167
30
0.0000000000
10
-10.9969646951
20
-21.0057209474
30
0.0000000000
10
-10.9527896784
20
-21.0005048020
30
0.0000000000
10
-10.8928023018
20
-21.0137704013
30
0.0000000000
10
-10.7809060038
20
-21.0135856065
30
0.0000000000
10
-10.6490214516
20
-21.0180276713
30
0.0000000000
10
-10.5514861046
20
-21.0182768782
30
0.0000000000
10
-10.5005350625
20
-21.0183142302
30
0.0000000000
11
-11.0004589101
21
-20.9972959167
31
0.0000000000
11
-10.9738615497
21
-21.0037221553
31
0.0000000000
11
-10.9019464456
21
-21.0095331260
31
0.0000000000
11
-10.7915989726
21
-21.0141724684
31
0.0000000000
11
-10.6533841395
21
-21.0171959974
31
0.0000000000
11
-10.5005350625
21
-21.0183142302
31
0.0000000000
0
SPLINE
5
475
100
AcDbEntity
8
0
100
AcDbSpline
62
9
6
CONTINUOUS
70
0
71
3
72
13
73
9
74
7
42
0.0000001000
43
0.0000001000
44
0.0000000001
12
-0.0003487206
22
0.4784692666
32
0.0000000000
13
-0.1517232156
23
0.4537764059
33
0.0000000000
40
0.0000000000
40
0.0000000000
40
0.0000000000
40
0.0000000000
40
0.2532095848
40
0.4885745110
40
0.6915930751
40
0.8503382364
40
0.9552488215
40
1.0000000000
40
1.0000000000
40
1.0000000000
40
1.0000000000
10
-11.0004589101
20
20.9972959167
30
0.0000000000
10
-11.0004883432
20
21.0376802515
30
0.0000000000
10
-11.0007370348
20
21.1155947072
30
0.0000000000
10
-11.0014333213
20
21.2259272634
30
0.0000000000
10
-11.0029961999
20
21.3210594970
30
0.0000000000
10
-11.0036726342
20
21.3957214398
30
0.0000000000
10
-11.0070626603
20
21.4443888068
30
0.0000000000
10
-11.0064587001
20
21.4688233602
30
0.0000000000
10
-11.0087219643
20
21.4755923698
30
0.0000000000
11
-11.0004589101
21
20.9972959167
31
0.0000000000
11
-11.0008114400
21
21.1184484403
31
0.0000000000
11
-11.0016694038
21
21.2310600856
31
0.0000000000
11
-11.0029790226
21
21.3281894263
31
0.0000000000
11
-11.0046627389
21
21.4041254633
31
0.0000000000
11
-11.0066187988
21
21.4542838409
31
0.0000000000
11
-11.0087219643
21
21.4755923698
31
0.0000000000
0
SPLINE
5
476
100
AcDbEntity
8
0
100
AcDbSpline
62
9
6
CONTINUOUS
70
0
71
3
72
9
73
5
74
3
42
0.0000001000
43
0.0000001000
44
0.0000000001
12
-0.0008930157
22
7.9381354533
32
0.0000000000
13
0.0013091044
23
7.9381353956
33
0.0000000000
40
0.0000000000
40
0.0000000000
40
0.0000000000
40
0.0000000000
40
0.5000333258
40
1.0000000000
40
1.0000000000
40
1.0000000000
40
1.0000000000
10
-6.4691717389
20
-3.2191717389
30
0.0000000000
10
-6.4693205847
20
-1.8960609818
30
0.0000000000
10
-6.4694348886
20
0.7499841932
30
0.0000000000
10
-6.4691819124
20
3.3960293585
30
0.0000000000
10
-6.4689637429
20
4.7189637429
30
0.0000000000
11
-6.4691717389
21
-3.2191717389
31
0.0000000000
11
-6.4693430640
21
0.7501605539
31
0.0000000000
11
-6.4689637429
21
4.7189637429
31
0.0000000000
0
SPLINE
5
477
100
AcDbEntity
8
0
100
AcDbSpline
62
9
6
CONTINUOUS
70
0
71
3
72
13
73
9
74
7
42
0.0000001000
43
0.0000001000
44
0.0000000001
12
-0.0003449115
22
0.9566793721
32
0.0000000000
13
-0.1577707732
23
0.9435803745
33
0.0000000000
40
0.0000000000
40
0.0000000000
40
0.0000000000
40
0.0000000000
40
0.2530310260
40
0.4882997269
40
0.6913336956
40
0.8501745167
40
0.9551752019
40
1.0000000000
40
1.0000000000
40
1.0000000000
40
1.0000000000
10
-10.5005350625
20
21.0183142309
30
0.0000000000
10
-10.5005641536
20
21.0990040853
30
0.0000000000
10
-10.5008152485
20
21.2547151132
30
0.0000000000
10
-10.5015012526
20
21.4751932123
30
0.0000000000
10
-10.5030911067
20
21.6655626178
30
0.0000000000
10
-10.5036915785
20
21.8145717156
30
0.0000000000
10
-10.5072303685
20
21.9127237242
30
0.0000000000
10
-10.5064407690
20
21.9608085373
30
0.0000000000
10
-10.5087981167
20
21.9749071372
30
0.0000000000
11
-10.5005350625
21
21.0183142309
31
0.0000000000
11
-10.5008870654
21
21.2603835538
31
0.0000000000
11
-10.5017441538
21
21.4854586496
31
0.0000000000
11
-10.5030519894
21
21.6796926689
31
0.0000000000
11
-10.5047341778
21
21.8316431047
31
0.0000000000
11
-10.5066888073
21
21.9320760821
31
0.0000000000
11
-10.5087981167
21
21.9749071372
31
0.0000000000
0
SPLINE
5
478
100
AcDbEntity
8
0
100
AcDbSpline
62
9
6
CONTINUOUS
70
0
71
3
72
12
73
8
74
6
42
0.0000001000
43
0.0000001000
44
0.0000000001
12
0.1920144796
22
0.4628063375
32
0.0000000000
13
0.5010580120
23
0.0003673725
33
0.0000000000
40
0.0000000000
40
0.0000000000
40
0.0000000000
40
0.0000000000
40
0.0546111894
40
0.1986060630
40
0.4190293170
40
0.6949404067
40
1.0000000000
40
1.0000000000
40
1.0000000000
40
1.0000000000
10
-11.0004589101
20
20.9972959167
30
0.0000000000
10
-10.9969635304
20
21.0057207182
30
0.0000000000
10
-10.9527903228
20
21.0005049635
30
0.0000000000
10
-10.8928006189
20
21.0137700305
30
0.0000000000
10
-10.7809054436
20
21.0135854735
30
0.0000000000
10
-10.6490208276
20
21.0180273997
30
0.0000000000
10
-10.5514859137
20
21.0182766372
30
0.0000000000
10
-10.5005350625
20
21.0183139940
30
0.0000000000
11
-11.0004589101
21
20.9972959167
31
0.0000000000
11
-10.9738608069
21
21.0037220776
31
0.0000000000
11
-10.9019453861
21
21.0095329760
31
0.0000000000
11
-10.7915979997
21
21.0141722630
31
0.0000000000
11
-10.6533835666
21
21.0171957618
31
0.0000000000
11
-10.5005350625
21
21.0183139940
31
0.0000000000
0
SPLINE
5
479
100
AcDbEntity
8
0
100
AcDbSpline
62
9
6
CONTINUOUS
70
0
71
3
72
9
73
5
74
3
42
0.0000001000
43
0.0000001000
44
0.0000000001
12
-0.0002694148
22
1.5997753820
32
0.0000000000
13
-0.0001799698
23
1.5997753945
33
0.0000000000
40
0.0000000000
40
0.0000000000
40
0.0000000000
40
0.0000000000
40
0.5000306578
40
1.0000000000
40
1.0000000000
40
1.0000000000
40
1.0000000000
10
-3.6689470909
20
-4.8189470909
30
0.0000000000
10
-3.6689919962
20
-4.5523015121
30
0.0000000000
10
-3.6690744724
20
-4.0190430501
30
0.0000000000
10
-3.6691417091
20
-3.4857845861
30
0.0000000000
10
-3.6691717022
20
-3.2191717022
30
0.0000000000
11
-3.6689470909
21
-4.8189470909
31
0.0000000000
11
-3.6690706671
21
-4.0190103525
31
0.0000000000
11
-3.6691717022
21
-3.2191717022
31
0.0000000000
0
SPLINE
5
47A
100
AcDbEntity
8
0
100
AcDbSpline
62
9
6
CONTINUOUS
70
0
71
3
72
9
73
5
74
3
42
0.0000001000
43
0.0000001000
44
0.0000000001
12
-0.0002909950
22
1.3497822110
32
0.0000000000
13
-0.0002273139
23
1.3497822232
33
0.0000000000
40
0.0000000000
40
0.0000000000
40
0.0000000000
40
0.0000000000
40
0.5000196593
40
1.0000000000
40
1.0000000000
40
1.0000000000
40
1.0000000000
10
-2.5186879693
20
-6.1687292454
30
0.0000000000
10
-2.5187364704
20
-5.9437566983
30
0.0000000000
10
-2.5188282304
20
-5.4938292935
30
0.0000000000
10
-2.5189091438
20
-5.0439018866
30
0.0000000000
10
-2.5189470280
20
-4.8189470280
30
0.0000000000
11
-2.5186879693
21
-6.1687292454
31
0.0000000000
11
-2.5188255221
21
-5.4938116024
31
0.0000000000
11
-2.5189470280
21
-4.8189470280
31
0.0000000000
0
SPLINE
5
47B
100
AcDbEntity
8
0
100
AcDbSpline
62
9
6
CONTINUOUS
70
0
71
3
72
9
73
5
74
3
42
0.0000001000
43
0.0000001000
44
0.0000000001
12
-0.0002273139
22
-1.3497821699
32
0.0000000000
13
-0.0002909950
23
-1.3497821577
33
0.0000000000
40
0.0000000000
40
0.0000000000
40
0.0000000000
40
0.0000000000
40
0.4999904091
40
1.0000000000
40
1.0000000000
40
1.0000000000
40
1.0000000000
10
2.5189470899
20
-4.8189470899
30
0.0000000000
10
2.5189092050
20
-5.0439064697
30
0.0000000000
10
2.5188281958
20
-5.4938338588
30
0.0000000000
10
2.5187364747
20
-5.9437612459
30
0.0000000000
10
2.5186879746
20
-6.1687292540
30
0.0000000000
11
2.5189470899
21
-4.8189470899
31
0.0000000000
11
2.5188255195
21
-5.4938252279
31
0.0000000000
11
2.5186879746
21
-6.1687292540
31
0.0000000000
0
SPLINE
5
47C
100
AcDbEntity
8
0
100
AcDbSpline
62
9
6
CONTINUOUS
70
0
71
3
72
9
73
5
74
3
42
0.0000001000
43
0.0000001000
44
0.0000000001
12
-0.0001799698
22
-1.5997753585
32
0.0000000000
13
-0.0002694147
23
-1.5997753459
33
0.0000000000
40
0.0000000000
40
0.0000000000
40
0.0000000000
40
0.0000000000
40
0.4999821090
40
1.0000000000
40
1.0000000000
40
1.0000000000
40
1.0000000000
10
3.6691717357
20
-3.2191717357
30
0.0000000000
10
3.6691417418
20
-3.4857914216
30
0.0000000000
10
3.6690744560
20
-4.0190498736
30
0.0000000000
10
3.6689919924
20
-4.5523083235
30
0.0000000000
10
3.6689470884
20
-4.8189470884
30
0.0000000000
11
3.6691717357
21
-3.2191717357
31
0.0000000000
11
3.6690706642
21
-4.0190307920
31
0.0000000000
11
3.6689470884
21
-4.8189470884
31
0.0000000000
0
SPLINE
5
47D
100
AcDbEntity
8
0
100
AcDbSpline
62
9
6
CONTINUOUS
70
0
71
3
72
12
73
8
74
6
42
0.0000001000
43
0.0000001000
44
0.0000000001
12
0.0007145531
22
0.7813571046
32
0.0000000000
13
0.7813571062
23
0.0007128139
33
0.0000000000
40
0.0000000000
40
0.0000000000
40
0.0000000000
40
0.0000000000
40
0.1998532782
40
0.3997964689
40
0.5998286573
40
0.7999149934
40
1.0000000000
40
1.0000000000
40
1.0000000000
40
1.0000000000
10
-11.0087219643
20
21.4755923698
30
0.0000000000
10
-11.0086743624
20
21.5276446294
30
0.0000000000
10
-10.9920025187
20
21.6324904868
30
0.0000000000
10
-10.9197666025
20
21.7737967765
30
0.0000000000
10
-10.8073186645
20
21.8860938494
30
0.0000000000
10
-10.6658521001
20
21.9582171671
30
0.0000000000
10
-10.5609107306
20
21.9748595961
30
0.0000000000
10
-10.5087981167
20
21.9749071372
30
0.0000000000
11
-11.0087219643
21
21.4755923698
31
0.0000000000
11
-10.9841411372
21
21.6298024308
31
0.0000000000
11
-10.9130840750
21
21.7689347420
31
0.0000000000
11
-10.8024983179
21
21.8793857675
31
0.0000000000
11
-10.6631962884
21
21.9503562578
31
0.0000000000
11
-10.5087981167
21
21.9749071372
31
0.0000000000
0
SPLINE
5
47E
100
AcDbEntity
8
0
100
AcDbSpline
62
9
6
CONTINUOUS
70
0
71
3
72
9
73
5
74
3
42
0.0000001000
43
0.0000001000
44
0.0000000001
12
0.0013091044
22
-7.9381354181
32
0.0000000000
13
-0.0008930157
23
-7.9381354758
33
0.0000000000
40
0.0000000000
40
0.0000000000
40
0.0000000000
40
0.0000000000
40
0.5000319138
40
1.0000000000
40
1.0000000000
40
1.0000000000
40
1.0000000000
10
6.4689637533
20
4.7189637533
30
0.0000000000
10
6.4691819512
20
3.3958567382
30
0.0000000000
10
6.4694348819
20
0.7498115654
30
0.0000000000
10
6.4693205774
20
-1.8962336170
30
0.0000000000
10
6.4691717510
20
-3.2191717510
30
0.0000000000
11
6.4689637533
21
4.7189637533
31
0.0000000000
11
6.4693430775
21
0.7496426723
31
0.0000000000
11
6.4691717510
21
-3.2191717510
31
0.0000000000
0
SPLINE
5
47F
100
AcDbEntity
8
0
100
AcDbSpline
62
7
6
CONTINUOUS
70
0
71
3
72
14
73
10
74
8
42
0.0000001000
43
0.0000001000
44
0.0000000001
12
-0.5016424734
22
0.5019447730
32
0.0000000000
13
-0.5017936460
23
0.5017936460
33
0.0000000000
40
0.0000000000
40
0.0000000000
40
0.0000000000
40
0.0000000000
40
0.1849110086
40
0.3706603886
40
0.5494971938
40
0.7136453477
40
0.8537705355
40
0.9563039956
40
1.0000000000
40
1.0000000000
40
1.0000000000
40
1.0000000000
10
6.9690350738
20
-3.7227578234
30
0.0000000000
10
6.9381153352
20
-3.6918194520
30
0.0000000000
10
6.8761564237
20
-3.6297817353
30
0.0000000000
10
6.7843624255
20
-3.5377528821
30
0.0000000000
10
6.6961357680
20
-3.4491035929
30
0.0000000000
10
6.6154963874
20
-3.3681270303
30
0.0000000000
10
6.5479908962
20
-3.2995516558
30
0.0000000000
10
6.4999043667
20
-3.2518317404
30
0.0000000000
10
6.4764200104
20
-3.2264200104
30
0.0000000000
10
6.4691112180
20
-3.2191112180
30
0.0000000000
11
6.9690350738
21
-3.7227578234
31
0.0000000000
11
6.8763064598
21
-3.6299121358
31
0.0000000000
11
6.7832253730
21
-3.5365776776
31
0.0000000000
11
6.6936797922
21
-3.4466453301
31
0.0000000000
11
6.6115730809
21
-3.3640158696
31
0.0000000000
11
6.5415921827
21
-3.2933704799
31
0.0000000000
11
6.4905507814
21
-3.2415138332
31
0.0000000000
11
6.4691112180
21
-3.2191112180
31
0.0000000000
0
SPLINE
5
480
100
AcDbEntity
8
0
100
AcDbSpline
62
7
6
CONTINUOUS
70
0
71
3
72
14
73
10
74
8
42
0.0000001000
43
0.0000001000
44
0.0000000001
12
-0.5023950762
22
-0.5027106624
32
0.0000000000
13
-0.5025528941
23
-0.5025528941
33
0.0000000000
40
0.0000000000
40
0.0000000000
40
0.0000000000
40
0.0000000000
40
0.1849644511
40
0.3706425068
40
0.5493496229
40
0.7133936906
40
0.8535152718
40
0.9561626727
40
1.0000000000
40
1.0000000000
40
1.0000000000
40
1.0000000000
10
6.9688008488
20
5.2240248673
30
0.0000000000
10
6.9378257724
20
5.1930303334
30
0.0000000000
10
6.8757866859
20
5.1308912171
30
0.0000000000
10
6.7839157840
20
5.0387104727
30
0.0000000000
10
6.6956866704
20
4.9498992810
30
0.0000000000
10
6.6150274308
20
4.8687758993
30
0.0000000000
10
6.5476455722
20
4.7998769617
30
0.0000000000
10
6.4993567182
20
4.7521170606
30
0.0000000000
10
6.4762205201
20
4.7262205201
30
0.0000000000
10
6.4688769949
20
4.7188769949
30
0.0000000000
11
6.9688008488
21
5.2240248673
31
0.0000000000
11
6.8759196798
21
5.1309972537
31
0.0000000000
11
6.7827756249
21
5.0375155255
31
0.0000000000
11
6.6932314219
21
4.9474409548
31
0.0000000000
11
6.6111558814
21
4.8646364647
31
0.0000000000
11
6.5412079778
21
4.7937504802
31
0.0000000000
11
6.4902063965
21
4.7415871063
31
0.0000000000
11
6.4688769949
21
4.7188769949
31
0.0000000000
0
SPLINE
5
481
100
AcDbEntity
8
0
100
AcDbSpline
62
7
6
CONTINUOUS
70
0
71
3
72
14
73
10
74
8
42
0.0000001000
43
0.0000001000
44
0.0000000001
12
0.5023950762
22
-0.5027106624
32
0.0000000000
13
0.5025528941
23
-0.5025528941
33
0.0000000000
40
0.0000000000
40
0.0000000000
40
0.0000000000
40
0.0000000000
40
0.1849644511
40
0.3706425068
40
0.5493496229
40
0.7133936906
40
0.8535152718
40
0.9561626727
40
1.0000000000
40
1.0000000000
40
1.0000000000
40
1.0000000000
10
-6.9688008488
20
5.2240248673
30
0.0000000000
10
-6.9378257724
20
5.1930303334
30
0.0000000000
10
-6.8757866859
20
5.1308912171
30
0.0000000000
10
-6.7839157840
20
5.0387104727
30
0.0000000000
10
-6.6956866704
20
4.9498992810
30
0.0000000000
10
-6.6150274308
20
4.8687758993
30
0.0000000000
10
-6.5476455722
20
4.7998769617
30
0.0000000000
10
-6.4993567182
20
4.7521170606
30
0.0000000000
10
-6.4762205201
20
4.7262205201
30
0.0000000000
10
-6.4688769949
20
4.7188769949
30
0.0000000000
11
-6.9688008488
21
5.2240248673
31
0.0000000000
11
-6.8759196798
21
5.1309972537
31
0.0000000000
11
-6.7827756249
21
5.0375155255
31
0.0000000000
11
-6.6932314219
21
4.9474409548
31
0.0000000000
11
-6.6111558814
21
4.8646364647
31
0.0000000000
11
-6.5412079778
21
4.7937504802
31
0.0000000000
11
-6.4902063965
21
4.7415871063
31
0.0000000000
11
-6.4688769949
21
4.7188769949
31
0.0000000000
0
SPLINE
5
482
100
AcDbEntity
8
0
100
AcDbSpline
62
7
6
CONTINUOUS
70
0
71
3
72
14
73
10
74
8
42
0.0000001000
43
0.0000001000
44
0.0000000001
12
0.5016424820
22
0.5019447817
32
0.0000000000
13
0.5017936546
23
0.5017936546
33
0.0000000000
40
0.0000000000
40
0.0000000000
40
0.0000000000
40
0.0000000000
40
0.1840282935
40
0.3697929399
40
0.5491738164
40
0.7139423753
40
0.8543491809
40
0.9566434919
40
1.0000000000
40
1.0000000000
40
1.0000000000
40
1.0000000000
10
-6.9690350738
20
-3.7227578234
30
0.0000000000
10
-6.9382629371
20
-3.6919671428
30
0.0000000000
10
-6.8764489152
20
-3.6300747215
30
0.0000000000
10
-6.7847085908
20
-3.5381003675
30
0.0000000000
10
-6.6962850081
20
-3.4492533517
30
0.0000000000
10
-6.6154035470
20
-3.3680350742
30
0.0000000000
10
-6.5477899753
20
-3.2993461121
30
0.0000000000
10
-6.4997516285
20
-3.2516772755
30
0.0000000000
10
-6.4763632249
20
-3.2263632249
30
0.0000000000
10
-6.4691112180
20
-3.2191112180
30
0.0000000000
11
-6.9690350738
21
-3.7227578234
31
0.0000000000
11
-6.8767489554
21
-3.6303555185
31
0.0000000000
11
-6.7836598948
21
-3.5370137087
31
0.0000000000
11
-6.6938416309
21
-3.4468080182
31
0.0000000000
11
-6.6114246008
21
-3.3638662462
31
0.0000000000
11
-6.5413035428
21
-3.2930783937
31
0.0000000000
11
-6.4903823883
21
-3.2413415168
31
0.0000000000
11
-6.4691112180
21
-3.2191112180
31
0.0000000000
0
SPLINE
5
483
100
AcDbEntity
8
0
100
AcDbSpline
62
7
6
CONTINUOUS
70
0
71
3
72
14
73
10
74
8
42
0.0000001000
43
0.0000001000
44
0.0000000001
12
0.5016424734
22
0.5019447730
32
0.0000000000
13
0.5017936460
23
0.5017936460
33
0.0000000000
40
0.0000000000
40
0.0000000000
40
0.0000000000
40
0.0000000000
40
0.1849110086
40
0.3706603886
40
0.5494971938
40
0.7136453477
40
0.8537705355
40
0.9563039956
40
1.0000000000
40
1.0000000000
40
1.0000000000
40
1.0000000000
10
-4.1690350738
20
-3.7227578234
30
0.0000000000
10
-4.1381153352
20
-3.6918194520
30
0.0000000000
10
-4.0761564237
20
-3.6297817353
30
0.0000000000
10
-3.9843624255
20
-3.5377528821
30
0.0000000000
10
-3.8961357680
20
-3.4491035929
30
0.0000000000
10
-3.8154963874
20
-3.3681270303
30
0.0000000000
10
-3.7479908962
20
-3.2995516558
30
0.0000000000
10
-3.6999043667
20
-3.2518317404
30
0.0000000000
10
-3.6764200104
20
-3.2264200104
30
0.0000000000
10
-3.6691112180
20
-3.2191112180
30
0.0000000000
11
-4.1690350738
21
-3.7227578234
31
0.0000000000
11
-4.0763064598
21
-3.6299121358
31
0.0000000000
11
-3.9832253730
21
-3.5365776776
31
0.0000000000
11
-3.8936797922
21
-3.4466453301
31
0.0000000000
11
-3.8115730809
21
-3.3640158696
31
0.0000000000
11
-3.7415921827
21
-3.2933704799
31
0.0000000000
11
-3.6905507814
21
-3.2415138332
31
0.0000000000
11
-3.6691112180
21
-3.2191112180
31
0.0000000000
0
SPLINE
5
484
100
AcDbEntity
8
0
100
AcDbSpline
62
7
6
CONTINUOUS
70
0
71
3
72
14
73
10
74
8
42
0.0000001000
43
0.0000001000
44
0.0000000001
12
0.5024454614
22
0.5027617739
32
0.0000000000
13
0.5026036425
23
0.5026036425
33
0.0000000000
40
0.0000000000
40
0.0000000000
40
0.0000000000
40
0.0000000000
40
0.1836802798
40
0.3693753796
40
0.5488676399
40
0.7138104524
40
0.8543430602
40
0.9566487803
40
1.0000000000
40
1.0000000000
40
1.0000000000
40
1.0000000000
10
-4.1687824391
20
-5.3241065396
30
0.0000000000
10
-4.1380193315
20
-5.2933240651
30
0.0000000000
10
-4.0761866039
20
-5.2313906300
30
0.0000000000
10
-3.9843887355
20
-5.1392797468
30
0.0000000000
10
-3.8958718931
20
-5.0501685874
30
0.0000000000
10
-3.8148571994
20
-4.9686821492
30
0.0000000000
10
-3.7473274546
20
-4.8995938564
30
0.0000000000
10
-3.6990944701
20
-4.8519066883
30
0.0000000000
10
-3.6761214124
20
-4.8261214124
30
0.0000000000
10
-3.6688585854
20
-4.8188585854
30
0.0000000000
11
-4.1687824391
21
-5.3241065396
31
0.0000000000
11
-4.0765374466
21
-5.2317148350
31
0.0000000000
11
-3.9833775308
21
-5.1382129969
31
0.0000000000
11
-3.8934350764
21
-5.0477293353
31
0.0000000000
11
-3.8109084669
21
-4.9644559100
31
0.0000000000
11
-3.7407585033
21
-4.8933447426
31
0.0000000000
11
-3.6899356851
21
-4.8413359446
31
0.0000000000
11
-3.6688585854
21
-4.8188585854
31
0.0000000000
0
SPLINE
5
485
100
AcDbEntity
8
0
100
AcDbSpline
62
7
6
CONTINUOUS
70
0
71
3
72
14
73
10
74
8
42
0.0000001000
43
0.0000001000
44
0.0000000001
12
0.5024454345
22
0.5027617469
32
0.0000000000
13
0.5026036156
23
0.5026036156
33
0.0000000000
40
0.0000000000
40
0.0000000000
40
0.0000000000
40
0.0000000000
40
0.1849679610
40
0.3706412214
40
0.5493396619
40
0.7133767626
40
0.8534980779
40
0.9561530711
40
1.0000000000
40
1.0000000000
40
1.0000000000
40
1.0000000000
10
-3.0187824391
20
-5.3241065396
30
0.0000000000
10
-2.9878036700
20
-5.2931082678
30
0.0000000000
10
-2.9257592607
20
-5.2309623759
30
0.0000000000
10
-2.8338832043
20
-5.1387715394
30
0.0000000000
10
-2.7456539282
20
-5.0499495721
30
0.0000000000
10
-2.6649933571
20
-4.9688163916
30
0.0000000000
10
-2.5976197605
20
-4.8998959525
30
0.0000000000
10
-2.5493173305
20
-4.8521332321
30
0.0000000000
10
-2.5262044604
20
-4.8262044604
30
0.0000000000
10
-2.5188585854
20
-4.8188585854
30
0.0000000000
11
-3.0187824391
21
-5.3241065396
31
0.0000000000
11
-2.9258911087
21
-5.2310667973
31
0.0000000000
11
-2.8327428439
21
-5.1375752737
31
0.0000000000
11
-2.7431987268
21
-5.0474912377
31
0.0000000000
11
-2.6611252624
21
-4.9646750949
31
0.0000000000
11
-2.5911795618
21
-4.8937730825
31
0.0000000000
11
-2.5401806487
21
-4.8415892574
31
0.0000000000
11
-2.5188585854
21
-4.8188585854
31
0.0000000000
0
SPLINE
5
486
100
AcDbEntity
8
0
100
AcDbSpline
62
7
6
CONTINUOUS
70
0
71
3
72
14
73
10
74
8
42
0.0000001000
43
0.0000001000
44
0.0000000001
12
-0.5024454614
22
0.5027617739
32
0.0000000000
13
-0.5026036425
23
0.5026036425
33
0.0000000000
40
0.0000000000
40
0.0000000000
40
0.0000000000
40
0.0000000000
40
0.1836802798
40
0.3693753796
40
0.5488676399
40
0.7138104524
40
0.8543430602
40
0.9566487803
40
1.0000000000
40
1.0000000000
40
1.0000000000
40
1.0000000000
10
3.0187824391
20
-5.3241065396
30
0.0000000000
10
2.9880193315
20
-5.2933240651
30
0.0000000000
10
2.9261866039
20
-5.2313906300
30
0.0000000000
10
2.8343887355
20
-5.1392797468
30
0.0000000000
10
2.7458718931
20
-5.0501685874
30
0.0000000000
10
2.6648571994
20
-4.9686821492
30
0.0000000000
10
2.5973274546
20
-4.8995938564
30
0.0000000000
10
2.5490944701
20
-4.8519066883
30
0.0000000000
10
2.5261214124
20
-4.8261214124
30
0.0000000000
10
2.5188585854
20
-4.8188585854
30
0.0000000000
11
3.0187824391
21
-5.3241065396
31
0.0000000000
11
2.9265374466
21
-5.2317148350
31
0.0000000000
11
2.8333775308
21
-5.1382129969
31
0.0000000000
11
2.7434350764
21
-5.0477293353
31
0.0000000000
11
2.6609084669
21
-4.9644559100
31
0.0000000000
11
2.5907585033
21
-4.8933447426
31
0.0000000000
11
2.5399356851
21
-4.8413359446
31
0.0000000000
11
2.5188585854
21
-4.8188585854
31
0.0000000000
0
SPLINE
5
487
100
AcDbEntity
8
0
100
AcDbSpline
62
7
6
CONTINUOUS
70
0
71
3
72
14
73
10
74
8
42
0.0000001000
43
0.0000001000
44
0.0000000001
12
-0.5024454345
22
0.5027617469
32
0.0000000000
13
-0.5026036156
23
0.5026036156
33
0.0000000000
40
0.0000000000
40
0.0000000000
40
0.0000000000
40
0.0000000000
40
0.1849679610
40
0.3706412214
40
0.5493396619
40
0.7133767626
40
0.8534980779
40
0.9561530711
40
1.0000000000
40
1.0000000000
40
1.0000000000
40
1.0000000000
10
4.1687824391
20
-5.3241065396
30
0.0000000000
10
4.1378036700
20
-5.2931082678
30
0.0000000000
10
4.0757592607
20
-5.2309623759
30
0.0000000000
10
3.9838832043
20
-5.1387715394
30
0.0000000000
10
3.8956539282
20
-5.0499495721
30
0.0000000000
10
3.8149933571
20
-4.9688163916
30
0.0000000000
10
3.7476197605
20
-4.8998959525
30
0.0000000000
10
3.6993173305
20
-4.8521332321
30
0.0000000000
10
3.6762044604
20
-4.8262044604
30
0.0000000000
10
3.6688585854
20
-4.8188585854
30
0.0000000000
11
4.1687824391
21
-5.3241065396
31
0.0000000000
11
4.0758911087
21
-5.2310667973
31
0.0000000000
11
3.9827428439
21
-5.1375752737
31
0.0000000000
11
3.8931987268
21
-5.0474912377
31
0.0000000000
11
3.8111252624
21
-4.9646750949
31
0.0000000000
11
3.7411795618
21
-4.8937730825
31
0.0000000000
11
3.6901806487
21
-4.8415892574
31
0.0000000000
11
3.6688585854
21
-4.8188585854
31
0.0000000000
0
SPLINE
5
488
100
AcDbEntity
8
0
100
AcDbSpline
62
7
6
CONTINUOUS
70
0
71
3
72
14
73
10
74
8
42
0.0000001000
43
0.0000001000
44
0.0000000001
12
-0.5016424820
22
0.5019447817
32
0.0000000000
13
-0.5017936546
23
0.5017936546
33
0.0000000000
40
0.0000000000
40
0.0000000000
40
0.0000000000
40
0.0000000000
40
0.1840282935
40
0.3697929399
40
0.5491738164
40
0.7139423753
40
0.8543491809
40
0.9566434919
40
1.0000000000
40
1.0000000000
40
1.0000000000
40
1.0000000000
10
4.1690350738
20
-3.7227578234
30
0.0000000000
10
4.1382629371
20
-3.6919671428
30
0.0000000000
10
4.0764489152
20
-3.6300747215
30
0.0000000000
10
3.9847085908
20
-3.5381003675
30
0.0000000000
10
3.8962850081
20
-3.4492533517
30
0.0000000000
10
3.8154035470
20
-3.3680350742
30
0.0000000000
10
3.7477899753
20
-3.2993461121
30
0.0000000000
10
3.6997516285
20
-3.2516772755
30
0.0000000000
10
3.6763632249
20
-3.2263632249
30
0.0000000000
10
3.6691112180
20
-3.2191112180
30
0.0000000000
11
4.1690350738
21
-3.7227578234
31
0.0000000000
11
4.0767489554
21
-3.6303555185
31
0.0000000000
11
3.9836598948
21
-3.5370137087
31
0.0000000000
11
3.8938416309
21
-3.4468080182
31
0.0000000000
11
3.8114246008
21
-3.3638662462
31
0.0000000000
11
3.7413035428
21
-3.2930783937
31
0.0000000000
11
3.6903823883
21
-3.2413415168
31
0.0000000000
11
3.6691112180
21
-3.2191112180
31
0.0000000000
0
SPLINE
5
489
100
AcDbEntity
8
0
100
AcDbSpline
62
7
6
CONTINUOUS
70
0
71
3
72
14
73
10
74
8
42
0.0000001000
43
0.0000001000
44
0.0000000001
12
-0.3550895145
22
-0.6166388785
32
0.0000000000
13
-0.5029940132
23
-0.5033180829
33
0.0000000000
40
0.0000000000
40
0.0000000000
40
0.0000000000
40
0.0000000000
40
0.0448942086
40
0.1479747187
40
0.2883693238
40
0.4525817965
40
0.6311838250
40
0.8162692160
40
1.0000000000
40
1.0000000000
40
1.0000000000
40
1.0000000000
10
-2.5186879799
20
-6.1687292626
30
0.0000000000
10
-2.5240018009
20
-6.1779571007
30
0.0000000000
10
-2.5516730750
20
-6.2009338065
30
0.0000000000
10
-2.5967604989
20
-6.2517739582
30
0.0000000000
10
-2.6657773237
20
-6.3198613011
30
0.0000000000
10
-2.7459687127
20
-6.4016313562
30
0.0000000000
10
-2.8343125899
20
-6.4904014779
30
0.0000000000
10
-2.9258862130
20
-6.5824410692
30
0.0000000000
10
-2.9876945568
20
-6.6443498827
30
0.0000000000
10
-3.0184997183
20
-6.6751748914
30
0.0000000000
11
-2.5186879799
21
-6.1687292626
31
0.0000000000
11
-2.5403748090
21
-6.1921853632
31
0.0000000000
11
-2.5914908477
21
-6.2447898151
31
0.0000000000
11
-2.6615295826
21
-6.3160267953
31
0.0000000000
11
-2.7436903180
21
-6.3991124775
31
0.0000000000
11
-2.8332217311
21
-6.4893092238
31
0.0000000000
11
-2.9261409609
21
-6.5826432097
31
0.0000000000
11
-3.0184997183
21
-6.6751748914
31
0.0000000000
0
SPLINE
5
48A
100
AcDbEntity
8
0
100
AcDbSpline
62
7
6
CONTINUOUS
70
0
71
3
72
14
73
10
74
8
42
0.0000001000
43
0.0000001000
44
0.0000000001
12
0.3550895145
22
-0.6166388785
32
0.0000000000
13
0.5029940132
23
-0.5033180829
33
0.0000000000
40
0.0000000000
40
0.0000000000
40
0.0000000000
40
0.0000000000
40
0.0448942104
40
0.1479747217
40
0.2883693253
40
0.4525817949
40
0.6311838206
40
0.8162692116
40
1.0000000000
40
1.0000000000
40
1.0000000000
40
1.0000000000
10
2.5186879799
20
-6.1687292626
30
0.0000000000
10
2.5240018011
20
-6.1779571011
30
0.0000000000
10
2.5516730758
20
-6.2009338073
30
0.0000000000
10
2.5967605000
20
-6.2517739592
30
0.0000000000
10
2.6657773242
20
-6.3198613016
30
0.0000000000
10
2.7459687120
20
-6.4016313555
30
0.0000000000
10
2.8343125881
20
-6.4904014761
30
0.0000000000
10
2.9258862116
20
-6.5824410677
30
0.0000000000
10
2.9876945561
20
-6.6443498820
30
0.0000000000
10
3.0184997183
20
-6.6751748914
30
0.0000000000
11
2.5186879799
21
-6.1687292626
31
0.0000000000
11
2.5403748098
21
-6.1921853641
31
0.0000000000
11
2.5914908491
21
-6.2447898165
31
0.0000000000
11
2.6615295833
21
-6.3160267961
31
0.0000000000
11
2.7436903172
21
-6.3991124767
31
0.0000000000
11
2.8332217289
21
-6.4893092216
31
0.0000000000
11
2.9261409586
21
-6.5826432075
31
0.0000000000
11
3.0184997183
21
-6.6751748914
31
0.0000000000
0
SPLINE
5
48B
100
AcDbEntity
8
0
100
AcDbSpline
62
7
6
CONTINUOUS
70
0
71
3
72
10
73
6
74
4
42
0.0000001000
43
0.0000001000
44
0.0000000001
12
3.9999639244
22
0.0374577365
32
0.0000000000
13
4.0000360299
23
0.0287443498
33
0.0000000000
40
0.0000000000
40
0.0000000000
40
0.0000000000
40
0.0000000000
40
0.3364708827
40
0.6698115681
40
1.0000000000
40
1.0000000000
40
1.0000000000
40
1.0000000000
10
-58.7052644818
20
-22.6631666220
30
0.0000000000
10
-58.2566406843
20
-22.6589654761
30
0.0000000000
10
-57.3635639258
20
-22.6508894149
30
0.0000000000
10
-56.0302305464
20
-22.6397547576
30
0.0000000000
10
-55.1455196899
20
-22.6330302866
30
0.0000000000
10
-54.7052644818
20
-22.6298666026
30
0.0000000000
11
-58.7052644818
21
-22.6631666220
31
0.0000000000
11
-57.3593890009
21
-22.6510076054
31
0.0000000000
11
-56.0260261948
21
-22.6398871632
31
0.0000000000
11
-54.7052644818
21
-22.6298666026
31
0.0000000000
0
SPLINE
5
48C
100
AcDbEntity
8
0
100
AcDbSpline
62
7
6
CONTINUOUS
70
0
71
3
72
10
73
6
74
4
42
0.0000001000
43
0.0000001000
44
0.0000000001
12
3.9999639244
22
-0.0374577365
32
0.0000000000
13
4.0000360299
23
-0.0287443498
33
0.0000000000
40
0.0000000000
40
0.0000000000
40
0.0000000000
40
0.0000000000
40
0.3364708827
40
0.6698115681
40
1.0000000000
40
1.0000000000
40
1.0000000000
40
1.0000000000
10
-58.7052644818
20
22.6631666220
30
0.0000000000
10
-58.2566406843
20
22.6589654761
30
0.0000000000
10
-57.3635639258
20
22.6508894149
30
0.0000000000
10
-56.0302305464
20
22.6397547576
30
0.0000000000
10
-55.1455196899
20
22.6330302866
30
0.0000000000
10
-54.7052644818
20
22.6298666026
30
0.0000000000
11
-58.7052644818
21
22.6631666220
31
0.0000000000
11
-57.3593890009
21
22.6510076054
31
0.0000000000
11
-56.0260261948
21
22.6398871632
31
0.0000000000
11
-54.7052644818
21
22.6298666026
31
0.0000000000
0
SPLINE
5
48D
100
AcDbEntity
8
0
100
AcDbSpline
62
9
6
CONTINUOUS
70
0
71
3
72
10
73
6
74
4
42
0.0000001000
43
0.0000001000
44
0.0000000001
12
0.0000000000
22
-0.1316244535
32
0.0000000000
13
0.1316178686
23
-0.0013166016
33
0.0000000000
40
0.0000000000
40
0.0000000000
40
0.0000000000
40
0.0000000000
40
0.1244046038
40
0.4769318654
40
1.0000000000
40
1.0000000000
40
1.0000000000
40
1.0000000000
10
-57.7052644818
20
13.5240686345
30
0.0000000000
10
-57.7052644818
20
13.5186104052
30
0.0000000000
10
-57.6715024170
20
13.5297674931
30
0.0000000000
10
-57.6394318414
20
13.5184030322
30
0.0000000000
10
-57.5966168815
20
13.5220013507
30
0.0000000000
10
-57.5736685105
20
13.5217717933
30
0.0000000000
11
-57.7052644818
21
13.5240686345
31
0.0000000000
11
-57.6889077024
21
13.5233030147
31
0.0000000000
11
-57.6425128109
21
13.5225374053
31
0.0000000000
11
-57.5736685105
21
13.5217717933
31
0.0000000000
0
SPLINE
5
48E
100
AcDbEntity
8
0
100
AcDbSpline
62
7
6
CONTINUOUS
70
0
71
3
72
14
73
10
74
8
42
0.0000001000
43
0.0000001000
44
0.0000000001
12
0.2124183528
22
0.2124183528
32
0.0000000000
13
-0.3003956676
23
-0.0023571426
33
0.0000000000
40
0.0000000000
40
0.0000000000
40
0.0000000000
40
0.0000000000
40
0.1513188738
40
0.2818786872
40
0.3940475863
40
0.5043907141
40
0.6381355678
40
0.8048762470
40
1.0000000000
40
1.0000000000
40
1.0000000000
40
1.0000000000
10
-50.5147509932
20
-21.0094865114
30
0.0000000000
10
-50.5040366912
20
-20.9987722094
30
0.0000000000
10
-50.4854406071
20
-20.9772966162
30
0.0000000000
10
-50.4666082886
20
-20.9421137519
30
0.0000000000
10
-50.4625054327
20
-20.9054085283
30
0.0000000000
10
-50.4804831962
20
-20.8721731582
30
0.0000000000
10
-50.5168735253
20
-20.8504265232
30
0.0000000000
10
-50.5653671022
20
-20.8384692690
30
0.0000000000
10
-50.6017415105
20
-20.8365095960
30
0.0000000000
10
-50.6212796205
20
-20.8366629075
30
0.0000000000
11
-50.5147509932
21
-21.0094865114
31
0.0000000000
11
-50.4855478745
21
-20.9746510314
31
0.0000000000
11
-50.4682695321
21
-20.9394412203
31
0.0000000000
11
-50.4659946986
21
-20.9058220067
31
0.0000000000
11
-50.4812035281
21
-20.8763693994
31
0.0000000000
11
-50.5145025730
21
-20.8538879833
31
0.0000000000
11
-50.5627952945
21
-20.8405916279
31
0.0000000000
11
-50.6212796205
21
-20.8366629075
31
0.0000000000
0
SPLINE
5
48F
100
AcDbEntity
8
0
100
AcDbSpline
62
7
6
CONTINUOUS
70
0
71
3
72
10
73
6
74
4
42
0.0000001000
43
0.0000001000
44
0.0000000001
12
4.0000789575
22
0.0760029924
32
0.0000000000
13
3.9999099472
23
0.0844306542
33
0.0000000000
40
0.0000000000
40
0.0000000000
40
0.0000000000
40
0.0000000000
40
0.3364642801
40
0.6698048248
40
1.0000000000
40
1.0000000000
40
1.0000000000
40
1.0000000000
10
-58.7052644818
20
-23.1799085618
30
0.0000000000
10
-58.2566365862
20
-23.1713844644
30
0.0000000000
10
-57.3635510794
20
-23.1541389527
30
0.0000000000
10
-56.0302167347
20
-23.1275011740
30
0.0000000000
10
-55.1455148038
20
-23.1091833397
30
0.0000000000
10
-54.7052644818
20
-23.0998904748
30
0.0000000000
11
-58.7052644818
21
-23.1799085618
31
0.0000000000
11
-57.3593890009
21
-23.1539079810
31
0.0000000000
11
-56.0260261948
21
-23.1272551823
31
0.0000000000
11
-54.7052644818
21
-23.0998904748
31
0.0000000000
0
SPLINE
5
490
100
AcDbEntity
8
0
100
AcDbSpline
62
9
6
CONTINUOUS
70
0
71
3
72
13
73
9
74
7
42
0.0000001000
43
0.0000001000
44
0.0000000001
12
0.0000892306
22
-0.4698760805
32
0.0000000000
13
-0.4698760828
23
0.0000763065
33
0.0000000000
40
0.0000000000
40
0.0000000000
40
0.0000000000
40
0.0000000000
40
0.1550483742
40
0.3243559312
40
0.5006146398
40
0.6768416552
40
0.8457851961
40
1.0000000000
40
1.0000000000
40
1.0000000000
40
1.0000000000
10
-49.9017740005
20
19.0000000000
30
0.0000000000
10
-49.9017693888
20
18.9757154925
30
0.0000000000
10
-49.9080020117
20
18.9247066253
30
0.0000000000
10
-49.9371669473
20
18.8509548124
30
0.0000000000
10
-49.9871188012
20
18.7849350497
30
0.0000000000
10
-50.0531881859
20
18.7351453902
30
0.0000000000
10
-50.1268021348
20
18.7061712515
30
0.0000000000
10
-50.1776200512
20
18.6999960775
30
0.0000000000
10
-50.2017740005
20
18.7000000000
30
0.0000000000
11
-49.9017740005
21
19.0000000000
31
0.0000000000
11
-49.9106217219
21
18.9276857293
31
0.0000000000
11
-49.9398703947
21
18.8537040690
31
0.0000000000
11
-49.9898520745
21
18.7876666318
31
0.0000000000
11
-50.0559735768
21
18.7378209509
31
0.0000000000
11
-50.1298427963
21
18.7087533656
31
0.0000000000
11
-50.2017740005
21
18.7000000000
31
0.0000000000
0
SPLINE
5
491
100
AcDbEntity
8
0
100
AcDbSpline
62
9
6
CONTINUOUS
70
0
71
3
72
13
73
9
74
7
42
0.0000001000
43
0.0000001000
44
0.0000000001
12
0.0000448149
22
0.4698741839
32
0.0000000000
13
-0.4698741838
23
0.0000462340
33
0.0000000000
40
0.0000000000
40
0.0000000000
40
0.0000000000
40
0.0000000000
40
0.1477567359
40
0.3150474619
40
0.4926713900
40
0.6719442102
40
0.8433749465
40
1.0000000000
40
1.0000000000
40
1.0000000000
40
1.0000000000
10
-49.9017740005
20
-19.0000000000
30
0.0000000000
10
-49.9017717933
20
-18.9768576414
30
0.0000000000
10
-49.9075303012
20
-18.9273352446
30
0.0000000000
10
-49.9352648232
20
-18.8543959282
30
0.0000000000
10
-49.9845494488
20
-18.7873845830
30
0.0000000000
10
-50.0510068648
20
-18.7362335114
30
0.0000000000
10
-50.1256487607
20
-18.7063625541
30
0.0000000000
10
-50.1772426441
20
-18.7000024138
30
0.0000000000
10
-50.2017740005
20
-18.7000000000
30
0.0000000000
11
-49.9017740005
21
-19.0000000000
31
0.0000000000
11
-49.9098076701
21
-18.9310392935
31
0.0000000000
11
-49.9377442587
21
-18.8575655813
31
0.0000000000
11
-49.9872027007
21
-18.7903377291
31
0.0000000000
11
-50.0539488309
21
-18.7389509382
31
0.0000000000
11
-50.1287358518
21
-18.7090286153
31
0.0000000000
11
-50.2017740005
21
-18.7000000000
31
0.0000000000
0
SPLINE
5
492
100
AcDbEntity
8
0
100
AcDbSpline
62
9
6
CONTINUOUS
70
0
71
3
72
13
73
9
74
7
42
0.0000001000
43
0.0000001000
44
0.0000000001
12
-0.7353273404
22
0.0383581398
32
0.0000000000
13
-0.0308205180
23
0.7356818199
33
0.0000000000
40
0.0000000000
40
0.0000000000
40
0.0000000000
40
0.0000000000
40
0.1664433564
40
0.3332955287
40
0.5000679105
40
0.6668499789
40
0.8336838494
40
1.0000000000
40
1.0000000000
40
1.0000000000
40
1.0000000000
10
-66.7990777268
20
-21.4755923698
30
0.0000000000
10
-66.8398745104
20
-21.4734642173
30
0.0000000000
10
-66.9213908708
20
-21.4590384867
30
0.0000000000
10
-67.0344714556
20
-21.4083351480
30
0.0000000000
10
-67.1319299596
20
-21.3315400004
30
0.0000000000
10
-67.2076920328
20
-21.2332822994
30
0.0000000000
10
-67.2571922018
20
-21.1197061361
30
0.0000000000
10
-67.2707591339
20
-21.0380811728
30
0.0000000000
10
-67.2724677839
20
-20.9972959167
30
0.0000000000
11
-66.7990777268
21
-21.4755923698
31
0.0000000000
11
-66.9197576296
21
-21.4542260342
31
0.0000000000
11
-67.0318716433
21
-21.4039818070
31
0.0000000000
11
-67.1283132146
21
-21.3279645393
31
0.0000000000
11
-67.2033157806
21
-21.2307227351
31
0.0000000000
11
-67.2523734842
21
-21.1180991805
31
0.0000000000
11
-67.2724677839
21
-20.9972959167
31
0.0000000000
0
SPLINE
5
493
100
AcDbEntity
8
0
100
AcDbSpline
62
9
6
CONTINUOUS
70
0
71
3
72
13
73
9
74
7
42
0.0000001000
43
0.0000001000
44
0.0000000001
12
-0.0017448694
22
-0.5000038097
32
0.0000000000
13
-0.0017455626
23
-0.5000038072
33
0.0000000000
40
0.0000000000
40
0.0000000000
40
0.0000000000
40
0.0000000000
40
0.0268345079
40
0.1201159742
40
0.2851591336
40
0.5076730717
40
0.7567825953
40
1.0000000000
40
1.0000000000
40
1.0000000000
40
1.0000000000
10
-57.9035191747
20
13.7240610192
30
0.0000000000
10
-57.9035347823
20
13.7195885671
30
0.0000000000
10
-57.9036046399
20
13.6995690855
30
0.0000000000
10
-57.9037704545
20
13.6520422010
30
0.0000000000
10
-57.9040501942
20
13.5719018300
30
0.0000000000
10
-57.9044205525
20
13.4657899182
30
0.0000000000
10
-57.9048364016
20
13.3466488663
30
0.0000000000
10
-57.9051229648
20
13.2645937538
30
0.0000000000
10
-57.9052644818
20
13.2240572110
30
0.0000000000
11
-57.9035191747
21
13.7240610192
31
0.0000000000
11
-57.9035659947
21
13.7106436630
31
0.0000000000
11
-57.9037287363
21
13.6640025744
31
0.0000000000
11
-57.9040167549
21
13.5814803660
31
0.0000000000
11
-57.9044050838
21
13.4702225496
31
0.0000000000
11
-57.9048398699
21
13.3456668391
31
0.0000000000
11
-57.9052644818
21
13.2240572110
31
0.0000000000
0
SPLINE
5
494
100
AcDbEntity
8
0
100
AcDbSpline
62
7
6
CONTINUOUS
70
0
71
3
72
14
73
10
74
8
42
0.0000001000
43
0.0000001000
44
0.0000000001
12
0.3003880742
22
-0.0023570830
32
0.0000000000
13
-0.2124129833
23
0.2124129833
33
0.0000000000
40
0.0000000000
40
0.0000000000
40
0.0000000000
40
0.0000000000
40
0.1908229891
40
0.3555840829
40
0.4897926730
40
0.6018246240
40
0.7142482025
40
0.8446055694
40
1.0000000000
40
1.0000000000
40
1.0000000000
40
1.0000000000
10
-50.6212796205
20
20.8366629075
30
0.0000000000
10
-50.6021726371
20
20.8365129789
30
0.0000000000
10
-50.5664369660
20
20.8383881315
30
0.0000000000
10
-50.5184600609
20
20.8499034674
30
0.0000000000
10
-50.4817630877
20
20.8709660745
30
0.0000000000
10
-50.4627086636
20
20.9039240816
30
0.0000000000
10
-50.4661769555
20
20.9409457178
30
0.0000000000
10
-50.4849267710
20
20.9766703476
30
0.0000000000
10
-50.5037483950
20
20.9984839132
30
0.0000000000
10
-50.5147509932
20
21.0094865114
30
0.0000000000
11
-50.6212796205
21
20.8366629075
31
0.0000000000
11
-50.5640784053
21
20.8403931379
31
0.0000000000
11
-50.5162542762
21
20.8531402183
31
0.0000000000
11
-50.4824280755
21
20.8750755783
31
0.0000000000
11
-50.4662467871
21
20.9045842926
31
0.0000000000
11
-50.4679442204
21
20.9383133494
31
0.0000000000
11
-50.4848644613
21
20.9736281201
31
0.0000000000
11
-50.5147509932
21
21.0094865114
31
0.0000000000
0
SPLINE
5
495
100
AcDbEntity
8
0
100
AcDbSpline
62
7
6
CONTINUOUS
70
0
71
3
72
10
73
6
74
4
42
0.0000001000
43
0.0000001000
44
0.0000000001
12
4.0000789575
22
-0.0760029924
32
0.0000000000
13
3.9999099472
23
-0.0844306542
33
0.0000000000
40
0.0000000000
40
0.0000000000
40
0.0000000000
40
0.0000000000
40
0.3364642801
40
0.6698048248
40
1.0000000000
40
1.0000000000
40
1.0000000000
40
1.0000000000
10
-58.7052644818
20
23.1799085618
30
0.0000000000
10
-58.2566365862
20
23.1713844644
30
0.0000000000
10
-57.3635510794
20
23.1541389527
30
0.0000000000
10
-56.0302167347
20
23.1275011740
30
0.0000000000
10
-55.1455148038
20
23.1091833397
30
0.0000000000
10
-54.7052644818
20
23.0998904748
30
0.0000000000
11
-58.7052644818
21
23.1799085618
31
0.0000000000
11
-57.3593890009
21
23.1539079810
31
0.0000000000
11
-56.0260261948
21
23.1272551823
31
0.0000000000
11
-54.7052644818
21
23.0998904748
31
0.0000000000
0
SPLINE
5
496
100
AcDbEntity
8
0
100
AcDbSpline
62
9
6
CONTINUOUS
70
0
71
3
72
10
73
6
74
4
42
0.0000001000
43
0.0000001000
44
0.0000000001
12
0.0000000000
22
0.1316239306
32
0.0000000000
13
0.1316182535
23
0.0012224778
33
0.0000000000
40
0.0000000000
40
0.0000000000
40
0.0000000000
40
0.0000000000
40
0.1243806080
40
0.4768596721
40
1.0000000000
40
1.0000000000
40
1.0000000000
40
1.0000000000
10
-57.7052644818
20
-7.3240686345
30
0.0000000000
10
-57.7052644818
20
-7.3186114797
30
0.0000000000
10
-57.6715052662
20
-7.3298253736
30
0.0000000000
10
-57.6394380885
20
-7.3183311667
30
0.0000000000
10
-57.5966201159
20
-7.3219849691
30
0.0000000000
10
-57.5736685105
20
-7.3217717933
30
0.0000000000
11
-57.7052644818
21
-7.3240686345
31
0.0000000000
11
-57.6889098896
21
-7.3233255567
31
0.0000000000
11
-57.6425222774
21
-7.3225157745
31
0.0000000000
11
-57.5736685105
21
-7.3217717933
31
0.0000000000
0
SPLINE
5
497
100
AcDbEntity
8
0
100
AcDbSpline
62
9
6
CONTINUOUS
70
0
71
3
72
8
73
4
74
2
42
0.0000001000
43
0.0000001000
44
0.0000000001
12
0.0005897588
22
0.0765322374
32
0.0000000000
13
-0.0104740673
23
0.0759757917
33
0.0000000000
40
0.0000000000
40
0.0000000000
40
0.0000000000
40
0.0000000000
40
1.0000000000
40
1.0000000000
40
1.0000000000
40
1.0000000000
10
-56.5026584388
20
13.5124252300
30
0.0000000000
10
-56.5024618525
20
13.5379359758
30
0.0000000000
10
-56.5037658042
20
13.5634961894
30
0.0000000000
10
-56.5072571600
20
13.5888214533
30
0.0000000000
11
-56.5026584388
21
13.5124252300
31
0.0000000000
11
-56.5072571600
21
13.5888214533
31
0.0000000000
0
SPLINE
5
498
100
AcDbEntity
8
0
100
AcDbSpline
62
9
6
CONTINUOUS
70
0
71
3
72
10
73
6
74
4
42
0.0000001000
43
0.0000001000
44
0.0000000001
12
-0.0198617050
22
0.1440709438
32
0.0000000000
13
-0.1451249002
23
0.0012664858
33
0.0000000000
40
0.0000000000
40
0.0000000000
40
0.0000000000
40
0.0000000000
40
0.4572639859
40
0.7918284969
40
1.0000000000
40
1.0000000000
40
1.0000000000
40
1.0000000000
10
-56.5072571600
20
13.5888214533
30
0.0000000000
10
-56.5102845074
20
13.6107809379
30
0.0000000000
10
-56.5183747932
20
13.6485015338
30
0.0000000000
10
-56.5358055754
20
13.6934274543
30
0.0000000000
10
-56.5592468708
20
13.7123297325
30
0.0000000000
10
-56.5693171604
20
13.7124176146
30
0.0000000000
11
-56.5072571600
21
13.5888214533
31
0.0000000000
11
-56.5215332551
21
13.6536306339
31
0.0000000000
11
-56.5433214637
21
13.6970231400
31
0.0000000000
11
-56.5693171604
21
13.7124176146
31
0.0000000000
0
SPLINE
5
499
100
AcDbEntity
8
0
100
AcDbSpline
62
9
6
CONTINUOUS
70
0
71
3
72
11
73
7
74
5
42
0.0000001000
43
0.0000001000
44
0.0000000001
12
0.2661659685
22
-0.0023929311
32
0.0000000000
13
0.2164289948
23
-0.1564157616
33
0.0000000000
40
0.0000000000
40
0.0000000000
40
0.0000000000
40
0.0000000000
40
0.3129437465
40
0.6235732460
40
0.9108526195
40
1.0000000000
40
1.0000000000
40
1.0000000000
40
1.0000000000
10
-57.9035174301
20
13.7240610039
30
0.0000000000
10
-57.8757524383
20
13.7238113863
30
0.0000000000
10
-57.8203697537
20
13.7191708627
30
0.0000000000
10
-57.7415490605
20
13.6996716522
30
0.0000000000
10
-57.6856646195
20
13.6743328361
30
0.0000000000
10
-57.6576420738
20
13.6558844218
30
0.0000000000
10
-57.6512107145
20
13.6512364033
30
0.0000000000
11
-57.9035174301
21
13.7240610039
31
0.0000000000
11
-57.8205222898
21
13.7169602724
31
0.0000000000
11
-57.7403670050
21
13.6966748059
31
0.0000000000
11
-57.6710605479
21
13.6643664518
31
0.0000000000
11
-57.6512107145
21
13.6512364033
31
0.0000000000
0
SPLINE
5
49A
100
AcDbEntity
8
0
100
AcDbSpline
62
9
6
CONTINUOUS
70
0
71
3
72
10
73
6
74
4
42
0.0000001000
43
0.0000001000
44
0.0000000001
12
0.1268118130
22
-0.0916483779
32
0.0000000000
13
-0.0004866887
23
-0.1559596428
33
0.0000000000
40
0.0000000000
40
0.0000000000
40
0.0000000000
40
0.0000000000
40
0.2863220101
40
0.6639609175
40
1.0000000000
40
1.0000000000
40
1.0000000000
40
1.0000000000
10
-57.6512107145
20
13.6512364033
30
0.0000000000
10
-57.6391077101
20
13.6424894207
30
0.0000000000
10
-57.6127259447
20
13.6199147917
30
0.0000000000
10
-57.5820866011
20
13.5766776757
30
0.0000000000
10
-57.5736205891
20
13.5392413626
30
0.0000000000
10
-57.5736751046
20
13.5217718508
30
0.0000000000
11
-57.6512107145
21
13.6512364033
31
0.0000000000
11
-57.6174772431
21
13.6218790314
31
0.0000000000
11
-57.5845641022
21
13.5730369564
31
0.0000000000
11
-57.5736751046
21
13.5217718508
31
0.0000000000
0
SPLINE
5
49B
100
AcDbEntity
8
0
100
AcDbSpline
62
9
6
CONTINUOUS
70
0
71
3
72
10
73
6
74
4
42
0.0000001000
43
0.0000001000
44
0.0000000001
12
0.0004914756
22
-0.1554573614
32
0.0000000000
13
-0.1262328900
23
-0.0915876125
33
0.0000000000
40
0.0000000000
40
0.0000000000
40
0.0000000000
40
0.0000000000
40
0.3361499842
40
0.7138735780
40
1.0000000000
40
1.0000000000
40
1.0000000000
40
1.0000000000
10
-57.5736751046
20
-7.3217718508
30
0.0000000000
10
-57.5736200347
20
-7.3391908473
30
0.0000000000
10
-57.5820360470
20
-7.3765157925
30
0.0000000000
10
-57.6125082457
20
-7.4196583134
30
0.0000000000
10
-57.6387604390
20
-7.4422028722
30
0.0000000000
10
-57.6507999607
20
-7.4509380841
30
0.0000000000
11
-57.5736751046
21
-7.3217718508
31
0.0000000000
11
-57.5845031969
21
-7.3728949637
31
0.0000000000
11
-57.6172494249
21
-7.4216366012
31
0.0000000000
11
-57.6507999607
21
-7.4509380841
31
0.0000000000
0
SPLINE
5
49C
100
AcDbEntity
8
0
100
AcDbSpline
62
9
6
CONTINUOUS
70
0
71
3
72
11
73
7
74
5
42
0.0000001000
43
0.0000001000
44
0.0000000001
12
-0.2165471404
22
-0.1571146441
32
0.0000000000
13
-0.2666709692
23
-0.0024043298
33
0.0000000000
40
0.0000000000
40
0.0000000000
40
0.0000000000
40
0.0000000000
40
0.0886753960
40
0.3747989162
40
0.6861057333
40
1.0000000000
40
1.0000000000
40
1.0000000000
40
1.0000000000
10
-57.6507999607
20
-7.4509380841
30
0.0000000000
10
-57.6572007618
20
-7.4555821519
30
0.0000000000
10
-57.6851202291
20
-7.4740381115
30
0.0000000000
10
-57.7409886939
20
-7.4994892796
30
0.0000000000
10
-57.8199817528
20
-7.5191286606
30
0.0000000000
10
-57.8756150794
20
-7.5238094338
30
0.0000000000
10
-57.9035172422
20
-7.5240610023
30
0.0000000000
11
-57.6507999607
21
-7.4509380841
31
0.0000000000
11
-57.6705574803
21
-7.4640604629
31
0.0000000000
11
-57.7396576146
21
-7.4964249858
31
0.0000000000
11
-57.8201148178
21
-7.5168929217
31
0.0000000000
11
-57.9035172422
21
-7.5240610023
31
0.0000000000
0
SPLINE
5
49D
100
AcDbEntity
8
0
100
AcDbSpline
62
9
6
CONTINUOUS
70
0
71
3
72
8
73
4
74
2
42
0.0000001000
43
0.0000001000
44
0.0000000001
12
0.0005897624
22
-0.0765323894
32
0.0000000000
13
-0.0104741103
23
-0.0759759384
33
0.0000000000
40
0.0000000000
40
0.0000000000
40
0.0000000000
40
0.0000000000
40
1.0000000000
40
1.0000000000
40
1.0000000000
40
1.0000000000
10
-56.5026584388
20
-7.3124252300
30
0.0000000000
10
-56.5024618514
20
-7.3379360264
30
0.0000000000
10
-56.5037658082
20
-7.3634962917
30
0.0000000000
10
-56.5072571783
20
-7.3888216045
30
0.0000000000
11
-56.5026584388
21
-7.3124252300
31
0.0000000000
11
-56.5072571783
21
-7.3888216045
31
0.0000000000
0
SPLINE
5
49E
100
AcDbEntity
8
0
100
AcDbSpline
62
9
6
CONTINUOUS
70
0
71
3
72
10
73
6
74
4
42
0.0000001000
43
0.0000001000
44
0.0000000001
12
-0.0198617271
22
-0.1440707908
32
0.0000000000
13
-0.1451247542
23
-0.0012664845
33
0.0000000000
40
0.0000000000
40
0.0000000000
40
0.0000000000
40
0.0000000000
40
0.4572645971
40
0.7918288217
40
1.0000000000
40
1.0000000000
40
1.0000000000
40
1.0000000000
10
-56.5072571783
20
-7.3888216045
30
0.0000000000
10
-56.5102845331
20
-7.4107810952
30
0.0000000000
10
-56.5183748268
20
-7.4485016640
30
0.0000000000
10
-56.5358056331
20
-7.4934275360
30
0.0000000000
10
-56.5592468967
20
-7.5123297327
30
0.0000000000
10
-56.5693171604
20
-7.5124176146
30
0.0000000000
11
-56.5072571783
21
-7.3888216045
31
0.0000000000
11
-56.5215333077
21
-7.4536308000
31
0.0000000000
11
-56.5433215150
21
-7.4970232056
31
0.0000000000
11
-56.5693171604
21
-7.5124176146
31
0.0000000000
0
SPLINE
5
49F
100
AcDbEntity
8
0
100
AcDbSpline
62
9
6
CONTINUOUS
70
0
71
3
72
10
73
6
74
4
42
0.0000001000
43
0.0000001000
44
0.0000000001
12
-1.7657700567
22
41.9684643682
32
0.0000000000
13
1.7657699116
23
41.9684643743
33
0.0000000000
40
0.0000000000
40
0.0000000000
40
0.0000000000
40
0.0000000000
40
0.3333328627
40
0.6666672760
40
1.0000000000
40
1.0000000000
40
1.0000000000
40
1.0000000000
10
-67.2724677839
20
-20.9972959167
30
0.0000000000
10
-67.4686641798
20
-16.3341397924
30
0.0000000000
10
-67.7303468892
20
-7.0017558249
30
0.0000000000
10
-67.7303468279
20
7.0017597117
30
0.0000000000
10
-67.4686640820
20
16.3341417329
30
0.0000000000
10
-67.2724677839
20
20.9972959167
30
0.0000000000
11
-67.2724677839
21
-20.9972959167
31
0.0000000000
11
-67.6649258973
21
-7.0009521365
31
0.0000000000
11
-67.6649258201
21
7.0009579653
31
0.0000000000
11
-67.2724677839
21
20.9972959167
31
0.0000000000
0
SPLINE
5
4A0
100
AcDbEntity
8
0
100
AcDbSpline
62
9
6
CONTINUOUS
70
0
71
3
72
13
73
9
74
7
42
0.0000001000
43
0.0000001000
44
0.0000000001
12
0.1973939548
22
0.0005749534
32
0.0000000000
13
0.1973939523
23
0.0005758206
33
0.0000000000
40
0.0000000000
40
0.0000000000
40
0.0000000000
40
0.0000000000
40
0.2600709379
40
0.5091600282
40
0.7223455835
40
0.8796948442
40
0.9715326913
40
1.0000000000
40
1.0000000000
40
1.0000000000
40
1.0000000000
10
-56.5026584388
20
-7.3124252300
30
0.0000000000
10
-56.4855462952
20
-7.3123753871
30
0.0000000000
10
-56.4520445908
20
-7.3122779897
30
0.0000000000
10
-56.4045157064
20
-7.3121397450
30
0.0000000000
10
-56.3637457013
20
-7.3120211932
30
0.0000000000
10
-56.3333225115
20
-7.3119326746
30
0.0000000000
10
-56.3150534101
20
-7.3118795567
30
0.0000000000
10
-56.3071375733
20
-7.3118564837
30
0.0000000000
10
-56.3052644818
20
-7.3118510196
30
0.0000000000
11
-56.5026584388
21
-7.3124252300
31
0.0000000000
11
-56.4513220073
21
-7.3122758767
31
0.0000000000
11
-56.4021533261
21
-7.3121328810
31
0.0000000000
11
-56.3600717856
21
-7.3120104959
31
0.0000000000
11
-56.3290119924
21
-7.3119201462
31
0.0000000000
11
-56.3108837564
21
-7.3118673998
31
0.0000000000
11
-56.3052644818
21
-7.3118510196
31
0.0000000000
0
SPLINE
5
4A1
100
AcDbEntity
8
0
100
AcDbSpline
62
9
6
CONTINUOUS
70
0
71
3
72
13
73
9
74
7
42
0.0000001000
43
0.0000001000
44
0.0000000001
12
-0.1973939524
22
0.0005757974
32
0.0000000000
13
-0.1973939545
23
0.0005750543
33
0.0000000000
40
0.0000000000
40
0.0000000000
40
0.0000000000
40
0.0000000000
40
0.0281240757
40
0.1191569248
40
0.2757213334
40
0.4886405570
40
0.7383208724
40
1.0000000000
40
1.0000000000
40
1.0000000000
40
1.0000000000
10
-56.3052644818
20
13.5118510196
30
0.0000000000
10
-56.3071149893
20
13.5118564176
30
0.0000000000
10
-56.3149552748
20
13.5118792701
30
0.0000000000
10
-56.3330971832
20
13.5119320221
30
0.0000000000
10
-56.3633982400
20
13.5120201919
30
0.0000000000
10
-56.4041379807
20
13.5121386545
30
0.0000000000
10
-56.4517940580
20
13.5122772794
30
0.0000000000
10
-56.4854404796
20
13.5123750701
30
0.0000000000
10
-56.5026584388
20
13.5124252300
30
0.0000000000
11
-56.3052644818
21
13.5118510196
31
0.0000000000
11
-56.3108160043
21
13.5118672021
31
0.0000000000
11
-56.3287853386
21
13.5119194889
31
0.0000000000
11
-56.3596902067
21
13.5120093935
31
0.0000000000
11
-56.4017191748
21
13.5121316280
31
0.0000000000
11
-56.4510045604
21
13.5122749633
31
0.0000000000
11
-56.5026584388
21
13.5124252300
31
0.0000000000
0
SPLINE
5
4A2
100
AcDbEntity
8
0
100
AcDbSpline
62
9
6
CONTINUOUS
70
0
71
3
72
13
73
9
74
7
42
0.0000001000
43
0.0000001000
44
0.0000000001
12
0.0017461100
22
-0.5000038053
32
0.0000000000
13
0.0017447972
23
-0.5000038099
33
0.0000000000
40
0.0000000000
40
0.0000000000
40
0.0000000000
40
0.0000000000
40
0.2303038650
40
0.4755402901
40
0.6996416482
40
0.8706189517
40
0.9700261064
40
1.0000000000
40
1.0000000000
40
1.0000000000
40
1.0000000000
10
-57.9052644818
20
-7.0240572110
30
0.0000000000
10
-57.9051304365
20
-7.0624414807
30
0.0000000000
10
-57.9048539238
20
-7.1416987998
30
0.0000000000
10
-57.9044469144
20
-7.2583066294
30
0.0000000000
10
-57.9040743643
20
-7.3650266232
30
0.0000000000
10
-57.9037866797
20
-7.4474415535
30
0.0000000000
10
-57.9036118684
20
-7.4975016598
30
0.0000000000
10
-57.9035366075
20
-7.5190653322
30
0.0000000000
10
-57.9035191747
20
-7.5240610192
30
0.0000000000
11
-57.9052644818
21
-7.0240572110
31
0.0000000000
11
-57.9048625766
21
-7.1392100207
31
0.0000000000
11
-57.9044346086
21
-7.2618291673
31
0.0000000000
11
-57.9040434603
21
-7.3738806997
31
0.0000000000
11
-57.9037450170
21
-7.4593700024
31
0.0000000000
11
-57.9035714813
21
-7.5090739582
31
0.0000000000
11
-57.9035191747
21
-7.5240610192
31
0.0000000000
0
SPLINE
5
4A3
100
AcDbEntity
8
0
100
AcDbSpline
62
7
6
CONTINUOUS
70
0
71
3
72
11
73
7
74
5
42
0.0000001000
43
0.0000001000
44
0.0000000001
12
0.0262732236
22
-0.1996247133
32
0.0000000000
13
0.0039467275
23
-0.2015164991
33
0.0000000000
40
0.0000000000
40
0.0000000000
40
0.0000000000
40
0.0000000000
40
0.3815193473
40
0.7053225289
40
0.9228155731
40
1.0000000000
40
1.0000000000
40
1.0000000000
40
1.0000000000
10
-54.4601553076
20
18.7000000000
30
0.0000000000
10
-54.4568140599
20
18.6746131032
30
0.0000000000
10
-54.4506879864
20
18.6276660866
30
0.0000000000
10
-54.4435836490
20
18.5661586915
30
0.0000000000
10
-54.4383626961
20
18.5249382596
30
0.0000000000
10
-54.4374168314
20
18.5051846452
30
0.0000000000
10
-54.4373152894
20
18.5000000000
30
0.0000000000
11
-54.4601553076
21
18.7000000000
31
0.0000000000
11
-54.4503903688
21
18.6238056948
31
0.0000000000
11
-54.4426212909
21
18.5590736936
31
0.0000000000
11
-54.4380180984
21
18.5155248943
31
0.0000000000
11
-54.4373152894
21
18.5000000000
31
0.0000000000
0
SPLINE
5
4A4
100
AcDbEntity
8
0
100
AcDbSpline
62
9
6
CONTINUOUS
70
0
71
3
72
11
73
7
74
5
42
0.0000001000
43
0.0000001000
44
0.0000000001
12
0.2000781454
22
0.0000000000
32
0.0000000000
13
-0.0000000000
23
0.2000781454
33
0.0000000000
40
0.0000000000
40
0.0000000000
40
0.0000000000
40
0.0000000000
40
0.0763830554
40
0.2931450430
40
0.6174637294
40
1.0000000000
40
1.0000000000
40
1.0000000000
40
1.0000000000
10
-50.2052644818
20
18.5000000000
30
0.0000000000
10
-50.2001702885
20
18.5000000000
30
0.0000000000
10
-50.2091611565
20
18.5314256817
30
0.0000000000
10
-50.1993411344
20
18.5618570214
30
0.0000000000
10
-50.2032085353
20
18.6288886270
30
0.0000000000
10
-50.2017740005
20
18.6744876175
30
0.0000000000
10
-50.2017740005
20
18.7000000000
30
0.0000000000
11
-50.2052644818
21
18.5000000000
31
0.0000000000
11
-50.2039287314
21
18.5152240935
31
0.0000000000
11
-50.2027963382
21
18.5585786439
31
0.0000000000
11
-50.2020396974
21
18.6234633136
31
0.0000000000
11
-50.2017740005
21
18.7000000000
31
0.0000000000
0
SPLINE
5
4A5
100
AcDbEntity
8
0
100
AcDbSpline
62
9
6
CONTINUOUS
70
0
71
3
72
12
73
8
74
6
42
0.0000001000
43
0.0000001000
44
0.0000000001
12
-0.4990705852
22
-0.0261551811
32
0.0000000000
13
0.0261472363
23
-0.4990710015
33
0.0000000000
40
0.0000000000
40
0.0000000000
40
0.0000000000
40
0.0000000000
40
0.0492065483
40
0.1912403570
40
0.4123852873
40
0.6910492528
40
1.0000000000
40
1.0000000000
40
1.0000000000
40
1.0000000000
10
-66.8165195017
20
21.9749071372
30
0.0000000000
10
-66.8247053487
20
21.9744781351
30
0.0000000000
10
-66.8086780301
20
21.9242228489
30
0.0000000000
10
-66.8220054555
20
21.8725184816
30
0.0000000000
10
-66.8102936361
20
21.7567844815
30
0.0000000000
10
-66.8074267108
20
21.6256547081
30
0.0000000000
10
-66.8017704629
20
21.5269884894
30
0.0000000000
10
-66.7990777268
20
21.4755923698
30
0.0000000000
11
-66.8165195017
21
21.9749071372
31
0.0000000000
11
-66.8179278767
21
21.9503562579
31
0.0000000000
11
-66.8166399963
21
21.8793857676
31
0.0000000000
11
-66.8127817842
21
21.7689347421
31
0.0000000000
11
-66.8067304739
21
21.6298024308
31
0.0000000000
11
-66.7990777268
21
21.4755923698
31
0.0000000000
0
SPLINE
5
4A6
100
AcDbEntity
8
0
100
AcDbSpline
62
9
6
CONTINUOUS
70
0
71
3
72
11
73
7
74
5
42
0.0000001000
43
0.0000001000
44
0.0000000001
12
0.1397038421
22
-0.1397038421
32
0.0000000000
13
-0.1396825613
23
-0.1397251197
33
0.0000000000
40
0.0000000000
40
0.0000000000
40
0.0000000000
40
0.0000000000
40
0.0762270879
40
0.2934720851
40
0.6188977467
40
1.0000000000
40
1.0000000000
40
1.0000000000
40
1.0000000000
10
-49.7638431256
20
20.2585786438
30
0.0000000000
10
-49.7602933866
20
20.2550289047
30
0.0000000000
10
-49.7891881881
20
20.2399057499
30
0.0000000000
10
-49.8033613997
20
20.2115648394
30
0.0000000000
10
-49.8532353612
20
20.1677558159
30
0.0000000000
10
-49.8840295542
20
20.1349071402
30
0.0000000000
10
-49.9017740005
20
20.1171572875
30
0.0000000000
11
-49.7638431256
21
20.2585786438
31
0.0000000000
11
-49.7738077892
21
20.2472862956
31
0.0000000000
11
-49.8035877273
21
20.2163768226
31
0.0000000000
11
-49.8486699274
21
20.1705357589
31
0.0000000000
11
-49.9017740005
21
20.1171572875
31
0.0000000000
0
SPLINE
5
4A7
100
AcDbEntity
8
0
100
AcDbSpline
62
9
6
CONTINUOUS
70
0
71
3
72
11
73
7
74
5
42
0.0000001000
43
0.0000001000
44
0.0000000001
12
0.1396825613
22
-0.1397251197
32
0.0000000000
13
-0.1397038421
23
-0.1397038421
33
0.0000000000
40
0.0000000000
40
0.0000000000
40
0.0000000000
40
0.0000000000
40
0.3811022533
40
0.7065279149
40
0.9237729121
40
1.0000000000
40
1.0000000000
40
1.0000000000
40
1.0000000000
10
-49.9017740005
20
-20.1171572875
30
0.0000000000
10
-49.8840295542
20
-20.1349071402
30
0.0000000000
10
-49.8532353612
20
-20.1677558159
30
0.0000000000
10
-49.8033613997
20
-20.2115648394
30
0.0000000000
10
-49.7891881881
20
-20.2399057499
30
0.0000000000
10
-49.7602933866
20
-20.2550289047
30
0.0000000000
10
-49.7638431256
20
-20.2585786438
30
0.0000000000
11
-49.9017740005
21
-20.1171572875
31
0.0000000000
11
-49.8486699274
21
-20.1705357589
31
0.0000000000
11
-49.8035877273
21
-20.2163768226
31
0.0000000000
11
-49.7738077892
21
-20.2472862956
31
0.0000000000
11
-49.7638431256
21
-20.2585786438
31
0.0000000000
0
SPLINE
5
4A8
100
AcDbEntity
8
0
100
AcDbSpline
62
7
6
CONTINUOUS
70
0
71
3
72
11
73
7
74
5
42
0.0000001000
43
0.0000001000
44
0.0000000001
12
0.0262732317
22
0.1996247748
32
0.0000000000
13
0.0039137548
23
0.2015172086
33
0.0000000000
40
0.0000000000
40
0.0000000000
40
0.0000000000
40
0.0000000000
40
0.3806643543
40
0.7053222360
40
0.9231727225
40
1.0000000000
40
1.0000000000
40
1.0000000000
40
1.0000000000
10
-54.4601553076
20
-18.7000000000
30
0.0000000000
10
-54.4568215467
20
-18.6746699880
30
0.0000000000
10
-54.4506947625
20
-18.6277230276
30
0.0000000000
10
-54.4435894241
20
-18.5661918001
30
0.0000000000
10
-54.4383569756
20
-18.5249145259
30
0.0000000000
10
-54.4374155171
20
-18.5051606728
30
0.0000000000
10
-54.4373152894
20
-18.5000000000
30
0.0000000000
11
-54.4601553076
21
-18.7000000000
31
0.0000000000
11
-54.4504116229
21
-18.6239765047
31
0.0000000000
11
-54.4426212925
21
-18.5590737083
31
0.0000000000
11
-54.4380116546
21
-18.5154532061
31
0.0000000000
11
-54.4373152894
21
-18.5000000000
31
0.0000000000
0
SPLINE
5
4A9
100
AcDbEntity
8
0
100
AcDbSpline
62
9
6
CONTINUOUS
70
0
71
3
72
11
73
7
74
5
42
0.0000001000
43
0.0000001000
44
0.0000000001
12
0.0000000000
22
0.2000781454
32
0.0000000000
13
-0.2000781454
23
0.0000000000
33
0.0000000000
40
0.0000000000
40
0.0000000000
40
0.0000000000
40
0.0000000000
40
0.3825362711
40
0.7068549578
40
0.9236169453
40
1.0000000000
40
1.0000000000
40
1.0000000000
40
1.0000000000
10
-50.2017740005
20
-18.7000000000
30
0.0000000000
10
-50.2017740005
20
-18.6744876174
30
0.0000000000
10
-50.2032085358
20
-18.6288886270
30
0.0000000000
10
-50.1993411339
20
-18.5618570212
30
0.0000000000
10
-50.2091611596
20
-18.5314256819
30
0.0000000000
10
-50.2001702885
20
-18.5000000000
30
0.0000000000
10
-50.2052644818
20
-18.5000000000
30
0.0000000000
11
-50.2017740005
21
-18.7000000000
31
0.0000000000
11
-50.2020396976
21
-18.6234633135
31
0.0000000000
11
-50.2027963389
21
-18.5585786438
31
0.0000000000
11
-50.2039287326
21
-18.5152240935
31
0.0000000000
11
-50.2052644818
21
-18.5000000000
31
0.0000000000
0
SPLINE
5
4AA
100
AcDbEntity
8
0
100
AcDbSpline
62
9
6
CONTINUOUS
70
0
71
3
72
12
73
8
74
6
42
0.0000001000
43
0.0000001000
44
0.0000000001
12
-0.4990705807
22
0.0261551808
32
0.0000000000
13
0.0261471146
23
0.4990710033
33
0.0000000000
40
0.0000000000
40
0.0000000000
40
0.0000000000
40
0.0000000000
40
0.0492079808
40
0.1912447975
40
0.4123917745
40
0.6910545422
40
1.0000000000
40
1.0000000000
40
1.0000000000
40
1.0000000000
10
-66.8165195017
20
-21.9749071372
30
0.0000000000
10
-66.8247055869
20
-21.9744781227
30
0.0000000000
10
-66.8086777209
20
-21.9242216375
30
0.0000000000
10
-66.8220054211
20
-21.8725164707
30
0.0000000000
10
-66.8102934868
20
-21.7567818087
30
0.0000000000
10
-66.8074265653
20
-21.6256527227
30
0.0000000000
10
-66.8017704043
20
-21.5269876097
30
0.0000000000
10
-66.7990777268
20
-21.4755923698
30
0.0000000000
11
-66.8165195017
21
-21.9749071372
31
0.0000000000
11
-66.8179278496
21
-21.9503555394
31
0.0000000000
11
-66.8166398879
21
-21.8793835478
31
0.0000000000
11
-66.8127816092
21
-21.7689315022
31
0.0000000000
11
-66.8067303198
21
-21.6297997904
31
0.0000000000
11
-66.7990777268
21
-21.4755923698
31
0.0000000000
0
SPLINE
5
4AB
100
AcDbEntity
8
0
100
AcDbSpline
62
9
6
CONTINUOUS
70
0
71
3
72
13
73
9
74
7
42
0.0000001000
43
0.0000001000
44
0.0000000001
12
0.0308204848
22
0.7356818212
32
0.0000000000
13
0.7353273388
23
0.0383581706
33
0.0000000000
40
0.0000000000
40
0.0000000000
40
0.0000000000
40
0.0000000000
40
0.1663161506
40
0.3331500210
40
0.4999320895
40
0.6667044713
40
0.8335566435
40
1.0000000000
40
1.0000000000
40
1.0000000000
40
1.0000000000
10
-67.2724677839
20
20.9972959167
30
0.0000000000
10
-67.2707591357
20
21.0380811729
30
0.0000000000
10
-67.2571922005
20
21.1197061359
30
0.0000000000
10
-67.2076920335
20
21.2332822996
30
0.0000000000
10
-67.1319299595
20
21.3315400005
30
0.0000000000
10
-67.0344714554
20
21.4083351474
30
0.0000000000
10
-66.9213908710
20
21.4590384880
30
0.0000000000
10
-66.8398745103
20
21.4734642156
30
0.0000000000
10
-66.7990777268
20
21.4755923698
30
0.0000000000
11
-67.2724677839
21
20.9972959167
31
0.0000000000
11
-67.2523734840
21
21.1180991804
31
0.0000000000
11
-67.2033157808
21
21.2307227352
31
0.0000000000
11
-67.1283132146
21
21.3279645393
31
0.0000000000
11
-67.0318716432
21
21.4039818068
31
0.0000000000
11
-66.9197576296
21
21.4542260345
31
0.0000000000
11
-66.7990777268
21
21.4755923698
31
0.0000000000
0
ENDSEC
0
SECTION
2
OBJECTS
0
DICTIONARY
5
C
100
AcDbDictionary
280
0
281
1
3
ACAD_GROUP
350
D
3
ACAD_MLINESTYLE
350
17
3
ACAD_LAYOUT
350
1A
3
ACAD_PLOTSETTINGS
350
19
3
ACAD_PLOTSTYLENAME
350
E
0
DICTIONARY
5
D
102
{ACAD_REACTORS
330
C
102
}
100
AcDbDictionary
280
0
281
1
0
ACDBDICTIONARYWDFLT
5
E
102
{ACAD_REACTORS
330
C
102
}
100
AcDbDictionary
281
1
3
Normal
350
F
100
AcDbDictionaryWithDefault
340
F
0
DICTIONARY
5
17
102
{ACAD_REACTORS
330
C
102
}
100
AcDbDictionary
280
0
281
1
3
Standard
350
18
0
DICTIONARY
5
19
102
{ACAD_REACTORS
330
C
102
}
100
AcDbDictionary
281
1
0
DICTIONARY
5
1A
102
{ACAD_REACTORS
330
C
102
}
100
AcDbDictionary
281
1
3
Layout1
350
1E
3
Model
350
22
0
ACDBPLACEHOLDER
5
F
102
{ACAD_REACTORS
330
E
102
}
0
MLINESTYLE
5
18
102
{ACAD_REACTORS
330
17
102
}
100
AcDbMlineStyle
2
STANDARD
70
0
3

62
256
51
90.0
52
90.0
71
2
49
0.5
62
256
6
BYLAYER
49
-0.5
62
256
6
BYLAYER
0
LAYOUT
5
1E
102
{ACAD_REACTORS
330
1A
102
}
100
AcDbPlotSettings
1

2

4

6

40
0.0
41
0.0
42
0.0
43
0.0
44
0.0
45
0.0
46
0.0
47
0.0
48
0.0
49
0.0
140
0.0
141
0.0
142
1.0
143
1.0
70
0
72
0
73
0
74
0
7

75
0
147
1.0
148
0.0
149
0.0
100
AcDbLayout
1
Layout1
70
0
71
0
10
0.0
20
0.0
11
0.0
21
0.0
12
0.0
22
0.0
32
0.0
14
0.0
24
0.0
34
0.0
15
0.0
25
0.0
35
0.0
146
0.0
13
0.0
23
0.0
33
0.0
16
0.0
26
0.0
36
0.0
17
0.0
27
0.0
37
0.0
76
0
330
1B
331
0
345
0
346
0
0
LAYOUT
5
22
102
{ACAD_REACTORS
330
1A
102
}
100
AcDbPlotSettings
1

2

4

6

40
0.0
41
0.0
42
0.0
43
0.0
44
0.0
45
0.0
46
0.0
47
0.0
48
0.0
49
0.0
140
0.0
141
0.0
142
1.0
143
1.0
70
0
72
0
73
0
74
0
7

75
0
147
1.0
148
0.0
149
0.0
100
AcDbLayout
1
Model
70
0
71
0
10
0.0
20
0.0
11
0.0
21
0.0
12
0.0
22
0.0
32
0.0
14
0.0
24
0.0
34
0.0
15
0.0
25
0.0
35
0.0
146
0.0
13
0.0
23
0.0
33
0.0
16
0.0
26
0.0
36
0.0
17
0.0
27
0.0
37
0.0
76
0
330
1F
331
0
345
0
346
0
0
ENDSEC
0
EOF
