0
SECTION
2
HEADER
9
$ACADVER
1
AC1015
9
$DWGCODEPAGE
3
ANSI_1252
9
$EXTMAX
10
431.8000000000
20
558.8000000000
30
0.0000000000
9
$EXTMIN
10
0.0000000000
20
0.0000000000
30
0.0000000000
9
$LIMMIN
10
0.0000000000
20
0.0000000000
9
$LIMMAX
10
431.8000000000
20
558.8000000000
9
$VIEWCTR
10
215.9000000000
20
279.4000000000
9
$VIEWSIZE
40
558.8000000000
9
$CLAYER
8
0
9
$LTSCALE
40
36.4254814815
9
$CELTYPE
6
BYLAYER
9
$DIMSCALE
40
1
9
$DIMASZ
40
3.0000000000
9
$DIMEXO
40
4.1392592593
9
$DIMDLI
40
25.1666962963
9
$DIMEXE
40
11.9210666667
9
$DIMCEN
40
5.9605333333
9
$DIMLFAC
40
1.0000000000
9
$DIMBLK
1
_FILLED
9
$DIMTXT
40
3.0000000000
9
$DIMTOL
70
1
9
$DIMLIM
70
0
9
$DIMTFAC
40
1.0000000000
9
$DIMTP
40
0.0100000000
9
$DIMTM
40
0.0100000000
9
$PDMODE
70
3
9
$PDSIZE
40
3.0000000000
9
$HANDSEED
5
349
9
$MEASUREMENT
70
1
9
$INSUNITS
70
4
0
ENDSEC
0
SECTION
2
CLASSES
0
CLASS
1
ACDBDICTIONARYWDFLT
2
AcDbDictionaryWithDefault
3
AutoCAD 2000
90
0
280
0
281
0
0
CLASS
1
ACDBPLACEHOLDER
2
AcDbPlaceHolder
3
AutoCAD 2000
90
0
280
0
281
0
0
CLASS
1
LAYOUT
2
AcDbLayout
3
AutoCAD 2000
90
0
280
0
281
0
0
ENDSEC
0
SECTION
2
TABLES
0
TABLE
2
VPORT
5
8
100
AcDbSymbolTable
70
2
0
VPORT
5
1F4
100
AcDbSymbolTableRecord
100
AcDbViewportTableRecord
2
*ACTIVE
70
0
10
0.0
20
0.0
11
1.0
21
1.0
12
215.9000000000
22
279.4000000000
13
0.0
23
0.0
14
1.0
24
1.0
15
0.0
25
0.0
16
0.0
26
0.0
36
1.0
17
0.0
27
0.0
37
0.0
40
558.8000000000
41
0.7727272727
42
50.0
43
0.0
44
0.0
50
0.0
51
0.0
71
0
72
100
73
1
74
1
75
0
76
0
77
0
78
0
0
ENDTAB
0
TABLE
2
LTYPE
5
5
100
AcDbSymbolTable
70
6
0
LTYPE
5
14
100
AcDbSymbolTableRecord
100
AcDbLinetypeTableRecord
2
BYBLOCK
70
0
3

72
65
73
0
40
0.0
0
LTYPE
5
15
100
AcDbSymbolTableRecord
100
AcDbLinetypeTableRecord
2
BYLAYER
70
0
3

72
65
73
0
40
0.0
0
LTYPE
5
16
100
AcDbSymbolTableRecord
100
AcDbLinetypeTableRecord
2
CONTINUOUS
70
64
3
Solid line
72
65
73
0
40
0
0
LTYPE
5
1F5
100
AcDbSymbolTableRecord
100
AcDbLinetypeTableRecord
2
CENTER
70
64
3
____ _ ____ _ ____ _ ____ _ ____ _ ____ _ ____
72
65
73
4
40
0.6
49
0.375
74
0
49
-0.075
74
0
49
0.075
74
0
49
-0.075
74
0
0
LTYPE
5
1F6
100
AcDbSymbolTableRecord
100
AcDbLinetypeTableRecord
2
HIDDEN
70
64
3
- - - - - - - - - - - - - - - - - - - -
72
65
73
2
40
0.2
49
0.1
74
0
49
-0.1
74
0
0
LTYPE
5
1F7
100
AcDbSymbolTableRecord
100
AcDbLinetypeTableRecord
2
PHANTOM
70
64
3
_____ _ _ _____ _ _ _____ _ _ _____
72
65
73
6
40
0.8
49
0.45
74
0
49
-0.05
74
0
49
0.1
74
0
49
-0.05
74
0
49
0.1
74
0
49
-0.05
74
0
0
LTYPE
5
1F8
100
AcDbSymbolTableRecord
100
AcDbLinetypeTableRecord
2
DOT
70
64
3
. . . . . . . . . . . . . . . . . . . .
72
65
73
2
40
0.2
49
0.1
74
0
49
-0.1
74
0
0
LTYPE
5
1F9
100
AcDbSymbolTableRecord
100
AcDbLinetypeTableRecord
2
DASHED
70
64
3
- - - - - - - - - - - - - - - - - - - -
72
65
73
2
40
0.2
49
0.1
74
0
49
-0.1
74
0
0
ENDTAB
0
TABLE
2
LAYER
5
2
100
AcDbSymbolTable
70
36
0
LAYER
5
10
100
AcDbSymbolTableRecord
100
AcDbLayerTableRecord
2
0
70
0
62
7
6
CONTINUOUS
370
-3
390
F
0
LAYER
5
1FA
100
AcDbSymbolTableRecord
100
AcDbLayerTableRecord
2
DEFAULT_1
70
0
62
7
6
CENTER
370
-3
390
F
0
LAYER
5
1FB
100
AcDbSymbolTableRecord
100
AcDbLayerTableRecord
2
DEFAULT_2
70
0
62
8
6
HIDDEN
370
-3
390
F
0
LAYER
5
1FC
100
AcDbSymbolTableRecord
100
AcDbLayerTableRecord
2
DEFAULT_3
70
0
62
7
6
PHANTOM
370
-3
390
F
0
LAYER
5
1FD
100
AcDbSymbolTableRecord
100
AcDbLayerTableRecord
2
ASSI
70
0
62
7
6
CONTINUOUS
370
-3
390
F
0
LAYER
5
1FE
100
AcDbSymbolTableRecord
100
AcDbLayerTableRecord
2
COORDINATE
70
0
62
7
6
CONTINUOUS
370
-3
390
F
0
LAYER
5
1FF
100
AcDbSymbolTableRecord
100
AcDbLayerTableRecord
2
COORD_ORIGINE
70
0
62
7
6
CONTINUOUS
370
-3
390
F
0
LAYER
5
200
100
AcDbSymbolTableRecord
100
AcDbLayerTableRecord
2
DRAFT
70
0
62
7
6
CONTINUOUS
370
-3
390
F
0
LAYER
5
201
100
AcDbSymbolTableRecord
100
AcDbLayerTableRecord
2
IMPORT_FEATURES
70
0
62
7
6
CONTINUOUS
370
-3
390
F
0
LAYER
5
202
100
AcDbSymbolTableRecord
100
AcDbLayerTableRecord
2
NOTE
70
0
62
7
6
CONTINUOUS
370
-3
390
F
0
LAYER
5
203
100
AcDbSymbolTableRecord
100
AcDbLayerTableRecord
2
PIANI
70
0
62
7
6
CONTINUOUS
370
-3
390
F
0
LAYER
5
204
100
AcDbSymbolTableRecord
100
AcDbLayerTableRecord
2
PIANI_ORIGINE
70
0
62
7
6
CONTINUOUS
370
-3
390
F
0
LAYER
5
205
100
AcDbSymbolTableRecord
100
AcDbLayerTableRecord
2
PUNTI
70
0
62
7
6
CONTINUOUS
370
-3
390
F
0
LAYER
5
206
100
AcDbSymbolTableRecord
100
AcDbLayerTableRecord
2
RACCORDO
70
0
62
7
6
CONTINUOUS
370
-3
390
F
0
LAYER
5
207
100
AcDbSymbolTableRecord
100
AcDbLayerTableRecord
2
SMUSSO
70
0
62
7
6
CONTINUOUS
370
-3
390
F
0
LAYER
5
208
100
AcDbSymbolTableRecord
100
AcDbLayerTableRecord
2
SNAPLINE
70
0
62
7
6
CONTINUOUS
370
-3
390
F
0
LAYER
5
209
100
AcDbSymbolTableRecord
100
AcDbLayerTableRecord
2
SUPERFICI
70
0
62
7
6
CONTINUOUS
370
-3
390
F
0
LAYER
5
20A
100
AcDbSymbolTableRecord
100
AcDbLayerTableRecord
2
TRASH
70
0
62
7
6
CONTINUOUS
370
-3
390
F
0
LAYER
5
20B
100
AcDbSymbolTableRecord
100
AcDbLayerTableRecord
2
XSEC_DATUMS
70
0
62
7
6
CONTINUOUS
370
-3
390
F
0
ENDTAB
0
TABLE
2
STYLE
5
3
100
AcDbSymbolTable
70
1
0
STYLE
5
11
100
AcDbSymbolTableRecord
100
AcDbTextStyleTableRecord
2
STANDARD
70
0
40
0.0
41
0.8000000000
50
0.0
71
0
42
0.2
3
txt
4

0
ENDTAB
0
TABLE
2
VIEW
5
6
100
AcDbSymbolTable
70
0
0
ENDTAB
0
TABLE
2
UCS
5
7
100
AcDbSymbolTable
70
0
0
ENDTAB
0
TABLE
2
APPID
5
9
100
AcDbSymbolTable
70
1
0
APPID
5
20C
100
AcDbSymbolTableRecord
100
AcDbRegAppTableRecord
2
ACAD
70
0
0
ENDTAB
0
TABLE
2
BLOCK_RECORD
5
1
100
AcDbSymbolTable
70
0
0
BLOCK_RECORD
5
1F
100
AcDbSymbolTableRecord
100
AcDbBlockTableRecord
2
*MODEL_SPACE
0
BLOCK_RECORD
5
1B
100
AcDbSymbolTableRecord
100
AcDbBlockTableRecord
2
*PAPER_SPACE
0
BLOCK_RECORD
5
20D
100
AcDbSymbolTableRecord
100
AcDbBlockTableRecord
2
_FILLED
0
BLOCK_RECORD
5
20E
100
AcDbSymbolTableRecord
100
AcDbBlockTableRecord
2
*D0
0
BLOCK_RECORD
5
20F
100
AcDbSymbolTableRecord
100
AcDbBlockTableRecord
2
*D1
0
BLOCK_RECORD
5
210
100
AcDbSymbolTableRecord
100
AcDbBlockTableRecord
2
*D2
0
BLOCK_RECORD
5
211
100
AcDbSymbolTableRecord
100
AcDbBlockTableRecord
2
*D3
0
ENDTAB
0
TABLE
2
DIMSTYLE
5
A
100
AcDbSymbolTable
70
1
100
AcDbDimStyleTable
71
0
0
DIMSTYLE
105
212
100
AcDbSymbolTableRecord
100
AcDbDimStyleTableRecord
2
STANDARD
70
0
3

4

40
1.0
41
3.0000000000
42
0.0625
43
0.38
44
0.18
45
0.0
46
0.0
47
0.0100000000
48
0.0100000000
140
3.0000000000
141
0.09
142
0.0
143
25.4
144
1.0000000000
145
0.0
146
1.0000000000
147
0.09
71
1
72
0
73
0
74
0
75
0
76
0
77
1
78
8
170
0
171
2
172
0
173
0
174
0
175
0
176
0
177
0
178
0
270
2
271
2
272
2
273
2
274
2
275
0
280
0
281
0
282
0
283
1
284
8
285
0
286
0
287
3
288
0
340
11
341
20D
342
20D
343
20D
344
20D
0
DIMSTYLE
105
213
100
AcDbSymbolTableRecord
100
AcDbDimStyleTableRecord
2
DIMSTYLE_1
70
0
3

4

40
1.0
41
3.0000000000
42
0.0625
43
0.38
44
0.18
45
0.0
46
0.0
47
0.0000000000
48
0.0000000000
140
3.0000000000
141
0.09
142
0.0
143
25.4
144
1.0000000000
145
0.0
146
1.0000000000
147
0.09
71
0
72
0
73
0
74
0
75
0
76
0
77
1
78
8
170
0
171
2
172
0
173
0
174
0
175
0
176
0
177
0
178
0
270
2
271
2
272
2
273
2
274
2
275
0
280
0
281
0
282
0
283
1
284
8
285
0
286
0
287
3
288
0
340
11
341
20D
342
20D
343
20D
344
20D
0
ENDTAB
0
ENDSEC
0
SECTION
2
BLOCKS
0
BLOCK
5
20
100
AcDbEntity
8
0
100
AcDbBlockBegin
2
*MODEL_SPACE
70
0
10
0.0
20
0.0
30
0.0
3
*MODEL_SPACE
1

0
ENDBLK
5
21
100
AcDbEntity
8
0
100
AcDbBlockEnd
0
BLOCK
5
1C
100
AcDbEntity
8
0
100
AcDbBlockBegin
2
*PAPER_SPACE
70
0
10
0.0
20
0.0
30
0.0
3
*PAPER_SPACE
1

0
ENDBLK
5
1D
100
AcDbEntity
8
0
100
AcDbBlockEnd
0
BLOCK
5
214
100
AcDbEntity
8
0
100
AcDbBlockBegin
62
2
6
CONTINUOUS
2
*D0
70
65
10
0.0000000000
20
0.0000000000
3
*D0
1

0
TEXT
5
215
100
AcDbEntity
8
0
100
AcDbText
62
2
6
CONTINUOUS
10
14.6275476776
20
31.5978185530
7
STANDARD
40
3.0000000000
1
22,3
41
0.7142857143
72
0
100
AcDbText
0
LINE
5
216
100
AcDbEntity
8
0
100
AcDbLine
62
2
6
CONTINUOUS
10
30.0632619634
20
-22.0519525949
11
30.0632619634
21
32.3478185530
0
LINE
5
217
100
AcDbEntity
8
0
100
AcDbLine
62
2
6
CONTINUOUS
10
7.7632619634
20
-22.0519525949
11
7.7632619634
21
32.3478185530
0
LINE
5
218
100
AcDbEntity
8
0
100
AcDbLine
62
2
6
CONTINUOUS
10
30.0632619634
20
30.8478185530
11
18.9132619634
21
30.8478185530
0
LINE
5
219
100
AcDbEntity
8
0
100
AcDbLine
62
2
6
CONTINUOUS
10
7.7632619634
20
30.8478185530
11
18.9132619634
21
30.8478185530
0
INSERT
5
21A
100
AcDbEntity
8
0
100
AcDbBlockReference
62
2
6
CONTINUOUS
2
_FILLED
10
30.0632619634
20
30.8478185530
41
  3.000000
42
  3.000000
43
  3.000000
50
  0.000000
0
INSERT
5
21B
100
AcDbEntity
8
0
100
AcDbBlockReference
62
2
6
CONTINUOUS
2
_FILLED
10
7.7632619634
20
30.8478185530
41
  3.000000
42
  3.000000
43
  3.000000
50
180.000000
0
ENDBLK
5
21C
100
AcDbEntity
8
0
6
BYBLOCK
62
0
100
AcDbBlockEnd
0
BLOCK
5
21D
100
AcDbEntity
8
0
100
AcDbBlockBegin
62
2
6
CONTINUOUS
2
*D1
70
65
10
0.0000000000
20
0.0000000000
3
*D1
1

0
TEXT
5
21E
100
AcDbEntity
8
0
100
AcDbText
62
2
6
CONTINUOUS
10
37.3132619634
20
-3.0093243042
7
STANDARD
40
3.0000000000
1
47
50
90.0000000000
41
0.7857142857
72
0
100
AcDbText
0
LINE
5
21F
100
AcDbEntity
8
0
100
AcDbLine
62
2
6
CONTINUOUS
10
22.4132619634
20
-24.1521814470
11
39.5632619634
21
-24.1521814470
0
LINE
5
220
100
AcDbEntity
8
0
100
AcDbLine
62
2
6
CONTINUOUS
10
16.4132619634
20
22.8478185530
11
39.5632619634
21
22.8478185530
0
LINE
5
221
100
AcDbEntity
8
0
100
AcDbLine
62
2
6
CONTINUOUS
10
38.0632619634
20
-24.1521814470
11
38.0632619634
21
-0.6521814470
0
LINE
5
222
100
AcDbEntity
8
0
100
AcDbLine
62
2
6
CONTINUOUS
10
38.0632619634
20
22.8478185530
11
38.0632619634
21
-0.6521814470
0
INSERT
5
223
100
AcDbEntity
8
0
100
AcDbBlockReference
62
2
6
CONTINUOUS
2
_FILLED
10
38.0632619634
20
-24.1521814470
41
  3.000000
42
  3.000000
43
  3.000000
50
270.000000
0
INSERT
5
224
100
AcDbEntity
8
0
100
AcDbBlockReference
62
2
6
CONTINUOUS
2
_FILLED
10
38.0632619634
20
22.8478185530
41
  3.000000
42
  3.000000
43
  3.000000
50
 90.000000
0
ENDBLK
5
225
100
AcDbEntity
8
0
6
BYBLOCK
62
0
100
AcDbBlockEnd
0
BLOCK
5
226
100
AcDbEntity
8
0
100
AcDbBlockBegin
62
2
6
CONTINUOUS
2
*D2
70
65
10
0.0000000000
20
0.0000000000
3
*D2
1

0
TEXT
5
227
100
AcDbEntity
8
0
100
AcDbText
62
2
6
CONTINUOUS
10
-23.3771812583
20
41.5978185530
7
STANDARD
40
3.0000000000
1
18,5
41
0.6607142857
72
0
100
AcDbText
0
LINE
5
228
100
AcDbEntity
8
0
100
AcDbLine
62
2
6
CONTINUOUS
10
-28.6628955440
20
-0.1521814470
11
-28.6628955440
21
42.3478185530
0
LINE
5
229
100
AcDbEntity
8
0
100
AcDbLine
62
2
6
CONTINUOUS
10
-10.1628955440
20
30.8478185530
11
-10.1628955440
21
42.3478185530
0
LINE
5
22A
100
AcDbEntity
8
0
100
AcDbLine
62
2
6
CONTINUOUS
10
-28.6628955440
20
40.8478185530
11
-19.4128955440
21
40.8478185530
0
LINE
5
22B
100
AcDbEntity
8
0
100
AcDbLine
62
2
6
CONTINUOUS
10
-10.1628955440
20
40.8478185530
11
-19.4128955440
21
40.8478185530
0
INSERT
5
22C
100
AcDbEntity
8
0
100
AcDbBlockReference
62
2
6
CONTINUOUS
2
_FILLED
10
-28.6628955440
20
40.8478185530
41
  3.000000
42
  3.000000
43
  3.000000
50
180.000000
0
INSERT
5
22D
100
AcDbEntity
8
0
100
AcDbBlockReference
62
2
6
CONTINUOUS
2
_FILLED
10
-10.1628955440
20
40.8478185530
41
  3.000000
42
  3.000000
43
  3.000000
0
ENDBLK
5
22E
100
AcDbEntity
8
0
6
BYBLOCK
62
0
100
AcDbBlockEnd
0
BLOCK
5
22F
100
AcDbEntity
8
0
100
AcDbBlockBegin
62
2
6
CONTINUOUS
2
*D3
70
65
10
0.0000000000
20
0.0000000000
3
*D3
1

0
TEXT
5
230
100
AcDbEntity
8
0
100
AcDbText
62
2
6
CONTINUOUS
10
-15.8414669726
20
31.5978185530
7
STANDARD
40
3.0000000000
1
9
41
0.7857142857
72
0
100
AcDbText
0
LINE
5
231
100
AcDbEntity
8
0
100
AcDbLine
62
2
6
CONTINUOUS
10
-19.1628955440
20
21.7475897009
11
-19.1628955440
21
32.3478185530
0
LINE
5
232
100
AcDbEntity
8
0
100
AcDbLine
62
2
6
CONTINUOUS
10
-10.1628955440
20
18.8478185530
11
-10.1628955440
21
32.3478185530
0
LINE
5
233
100
AcDbEntity
8
0
100
AcDbLine
62
2
6
CONTINUOUS
10
-19.1628955440
20
30.8478185530
11
-14.6628955440
21
30.8478185530
0
LINE
5
234
100
AcDbEntity
8
0
100
AcDbLine
62
2
6
CONTINUOUS
10
-10.1628955440
20
30.8478185530
11
-14.6628955440
21
30.8478185530
0
INSERT
5
235
100
AcDbEntity
8
0
100
AcDbBlockReference
62
2
6
CONTINUOUS
2
_FILLED
10
-19.1628955440
20
30.8478185530
41
  3.000000
42
  3.000000
43
  3.000000
50
180.000000
0
INSERT
5
236
100
AcDbEntity
8
0
100
AcDbBlockReference
62
2
6
CONTINUOUS
2
_FILLED
10
-10.1628955440
20
30.8478185530
41
  3.000000
42
  3.000000
43
  3.000000
0
ENDBLK
5
237
100
AcDbEntity
8
0
6
BYBLOCK
62
0
100
AcDbBlockEnd
0
BLOCK
5
238
100
AcDbEntity
8
0
100
AcDbBlockBegin
2
_FILLED
70
64
10
0.0000000000
20
0.0000000000
3
_FILLED
1

0
SOLID
5
239
100
AcDbEntity
8
0
6
BYBLOCK
62
0
100
AcDbTrace
10
0.0000000000
20
0.0000000000
11
-1.0000000000
21
0.3166666667
12
-1.0000000000
22
-0.3166666667
13
-1.0000000000
23
-0.3166666667
0
ENDBLK
5
23A
100
AcDbEntity
8
0
6
BYBLOCK
62
0
100
AcDbBlockEnd
0
ENDSEC
0
SECTION
2
ENTITIES
0
DIMENSION
5
23B
100
AcDbEntity
8
0
100
AcDbDimension
62
2
6
CONTINUOUS
2
*D0
10
7.7632619634
20
30.8478185530
11
18.9132619634
21
33.0978185530
70
160
3
DIMSTYLE_1
100
AcDbAlignedDimension
13
30.0632619634
23
-22.0519525949
14
7.7632619634
24
-22.0519525949
50
180.000000
100
AcDbRotatedDimension
0
DIMENSION
5
23C
100
AcDbEntity
8
0
100
AcDbDimension
62
2
6
CONTINUOUS
2
*D1
10
38.0632619634
20
22.8478185530
11
35.8132619634
21
-0.6521814470
70
160
3
DIMSTYLE_1
100
AcDbAlignedDimension
13
22.4132619634
23
-24.1521814470
14
16.4132619634
24
22.8478185530
50
90.000000
100
AcDbRotatedDimension
0
DIMENSION
5
23D
100
AcDbEntity
8
0
100
AcDbDimension
62
2
6
CONTINUOUS
2
*D2
10
-10.1628955440
20
40.8478185530
11
-19.4128955440
21
43.0978185530
70
160
3
DIMSTYLE_1
100
AcDbAlignedDimension
13
-28.6628955440
23
-0.1521814470
14
-10.1628955440
24
30.8478185530
100
AcDbRotatedDimension
0
DIMENSION
5
23E
100
AcDbEntity
8
0
100
AcDbDimension
62
2
6
CONTINUOUS
2
*D3
10
-10.1628955440
20
30.8478185530
11
-14.6628955440
21
33.0978185530
70
160
3
DIMSTYLE_1
100
AcDbAlignedDimension
13
-19.1628955440
23
21.7475897009
14
-10.1628955440
24
18.8478185530
100
AcDbRotatedDimension
0
LINE
5
23F
100
AcDbEntity
8
0
100
AcDbLine
62
7
6
CONTINUOUS
10
15.9132619634
20
-24.1521814470
11
16.1319836222
21
-24.1085437847
0
LINE
5
240
100
AcDbEntity
8
0
100
AcDbLine
62
7
6
CONTINUOUS
10
22.8865993110
20
-24.1521814470
11
21.9132619634
21
-24.1521814470
0
LINE
5
241
100
AcDbEntity
8
0
100
AcDbLine
62
7
6
CONTINUOUS
10
15.9132619634
20
-24.1521814470
11
14.9399246157
21
-24.1521814470
0
LINE
5
242
100
AcDbEntity
8
0
100
AcDbLine
62
7
6
CONTINUOUS
10
16.1319836222
20
-24.1085437847
11
21.6945403045
21
-24.1085437847
0
LINE
5
243
100
AcDbEntity
8
0
100
AcDbLine
62
7
6
CONTINUOUS
10
21.6945403045
20
-23.1832008952
11
16.1319836222
21
-23.1832008952
0
LINE
5
244
100
AcDbEntity
8
0
100
AcDbLine
62
7
6
CONTINUOUS
10
8.2628813636
20
-23.0521814470
11
15.9132619634
21
-23.0521814470
0
LINE
5
245
100
AcDbEntity
8
0
100
AcDbLine
62
7
6
CONTINUOUS
10
21.9132619634
20
-23.0521814470
11
29.5636425631
21
-23.0521814470
0
LINE
5
246
100
AcDbEntity
8
0
100
AcDbLine
62
7
6
CONTINUOUS
10
21.9132619634
20
-24.1521814470
11
21.6945403045
21
-24.1085437847
0
LINE
5
247
100
AcDbEntity
8
0
100
AcDbLine
62
7
6
CONTINUOUS
10
15.9132619634
20
21.7478185530
11
16.1319836222
21
21.8788380012
0
LINE
5
248
100
AcDbEntity
8
0
100
AcDbLine
62
9
6
CONTINUOUS
10
29.4220600801
20
-22.6270885842
11
8.4044638466
21
-22.6270885842
0
LINE
5
249
100
AcDbEntity
8
0
100
AcDbLine
62
9
6
CONTINUOUS
10
29.4137970259
20
-21.6704956779
11
8.4127269008
21
-21.6704956779
0
LINE
5
24A
100
AcDbEntity
8
0
100
AcDbLine
62
7
6
CONTINUOUS
10
16.1319836222
20
-23.1832008952
11
15.9132619634
21
-23.0521814470
0
LINE
5
24B
100
AcDbEntity
8
0
100
AcDbLine
62
7
6
CONTINUOUS
10
7.7632619634
20
-22.5519525949
11
7.7632619634
21
21.2475897009
0
LINE
5
24C
100
AcDbEntity
8
0
100
AcDbLine
62
9
6
CONTINUOUS
10
11.9442269879
20
-4.3749392704
11
11.9444612380
21
4.5718434203
0
LINE
5
24D
100
AcDbEntity
8
0
100
AcDbLine
62
7
6
CONTINUOUS
10
12.4632619634
20
-3.8521814470
11
12.4632619634
21
4.0478185530
0
LINE
5
24E
100
AcDbEntity
8
0
100
AcDbLine
62
9
6
CONTINUOUS
10
21.9317615954
20
-7.3273563384
11
15.8947622587
21
-7.3273563384
0
LINE
5
24F
100
AcDbEntity
8
0
100
AcDbLine
62
9
6
CONTINUOUS
10
21.4318378323
20
-6.8207573159
11
16.3946860944
21
-6.8207573159
0
LINE
5
250
100
AcDbEntity
8
0
100
AcDbLine
62
7
6
CONTINUOUS
10
21.4132619634
20
-6.8021814470
11
16.4132619634
21
-6.8021814470
0
LINE
5
251
100
AcDbEntity
8
0
100
AcDbLine
62
9
6
CONTINUOUS
10
23.0820442741
20
-5.9762879866
11
21.9320443446
21
-5.9762879866
0
LINE
5
252
100
AcDbEntity
8
0
100
AcDbLine
62
9
6
CONTINUOUS
10
15.8944795835
20
-5.9762879866
11
14.7444795821
21
-5.9762879866
0
LINE
5
253
100
AcDbEntity
8
0
100
AcDbLine
62
9
6
CONTINUOUS
10
14.7444795821
20
-5.9762879866
11
14.7442269957
21
-4.3749392704
0
LINE
5
254
100
AcDbEntity
8
0
100
AcDbLine
62
7
6
CONTINUOUS
10
15.2632619634
20
-5.4521814470
11
15.2632619634
21
-3.8521814470
0
LINE
5
255
100
AcDbEntity
8
0
100
AcDbLine
62
9
6
CONTINUOUS
10
7.7632619634
20
-22.5519525949
11
7.9045399991
21
-22.1277738168
0
LINE
5
256
100
AcDbEntity
8
0
100
AcDbLine
62
9
6
CONTINUOUS
10
22.5821205488
20
-5.4710400324
11
21.4321205488
21
-5.4710400324
0
LINE
5
257
100
AcDbEntity
8
0
100
AcDbLine
62
9
6
CONTINUOUS
10
16.3944033779
20
-5.4710400324
11
15.2444033779
21
-5.4710400324
0
LINE
5
258
100
AcDbEntity
8
0
100
AcDbLine
62
7
6
CONTINUOUS
10
22.5632619634
20
-5.4521814470
11
21.4132619634
21
-5.4521814470
0
LINE
5
259
100
AcDbEntity
8
0
100
AcDbLine
62
7
6
CONTINUOUS
10
16.4132619634
20
-5.4521814470
11
15.2632619634
21
-5.4521814470
0
LINE
5
25A
100
AcDbEntity
8
0
100
AcDbLine
62
9
6
CONTINUOUS
10
25.8822969062
20
-4.3749392704
11
23.0822969388
21
-4.3749392704
0
LINE
5
25B
100
AcDbEntity
8
0
100
AcDbLine
62
9
6
CONTINUOUS
10
14.7442269957
20
-4.3749392704
11
11.9442269879
21
-4.3749392704
0
LINE
5
25C
100
AcDbEntity
8
0
100
AcDbLine
62
9
6
CONTINUOUS
10
7.9045399991
20
20.8234109228
11
7.7632619634
21
21.2475897009
0
LINE
5
25D
100
AcDbEntity
8
0
100
AcDbLine
62
9
6
CONTINUOUS
10
15.8947622587
20
-7.3273563384
11
15.8944795835
21
-5.9762879866
0
LINE
5
25E
100
AcDbEntity
8
0
100
AcDbLine
62
7
6
CONTINUOUS
10
15.9132619634
20
-24.1521814470
11
15.9132619634
21
-23.0521814470
0
LINE
5
25F
100
AcDbEntity
8
0
100
AcDbLine
62
7
6
CONTINUOUS
10
15.9132619634
20
21.7478185530
11
15.9132619634
21
22.8478185530
0
LINE
5
260
100
AcDbEntity
8
0
100
AcDbLine
62
7
6
CONTINUOUS
10
16.1319836222
20
-24.1085437847
11
16.1319836222
21
-23.1832008952
0
LINE
5
261
100
AcDbEntity
8
0
100
AcDbLine
62
7
6
CONTINUOUS
10
16.1319836222
20
21.8788380012
11
16.1319836222
21
22.8041808907
0
LINE
5
262
100
AcDbEntity
8
0
100
AcDbLine
62
7
6
CONTINUOUS
10
16.4132619634
20
-6.8021814470
11
16.4132619634
21
-5.4521814470
0
LINE
5
263
100
AcDbEntity
8
0
100
AcDbLine
62
9
6
CONTINUOUS
10
8.2628813636
20
-23.0521814470
11
8.4044638466
21
-22.6270885842
0
LINE
5
264
100
AcDbEntity
8
0
100
AcDbLine
62
7
6
CONTINUOUS
10
12.4632619634
20
-3.8521814470
11
12.4440902245
21
-3.8713531859
0
LINE
5
265
100
AcDbEntity
8
0
100
AcDbLine
62
9
6
CONTINUOUS
10
25.3823731813
20
-3.8712926650
11
22.5823731813
21
-3.8712926650
0
LINE
5
266
100
AcDbEntity
8
0
100
AcDbLine
62
9
6
CONTINUOUS
10
15.2441507454
20
-3.8712926650
11
12.4441507454
21
-3.8712926650
0
LINE
5
267
100
AcDbEntity
8
0
100
AcDbLine
62
7
6
CONTINUOUS
10
25.3632619634
20
-3.8521814470
11
22.5632619634
21
-3.8521814470
0
LINE
5
268
100
AcDbEntity
8
0
100
AcDbLine
62
7
6
CONTINUOUS
10
15.2632619634
20
-3.8521814470
11
12.4632619634
21
-3.8521814470
0
LINE
5
269
100
AcDbEntity
8
0
100
AcDbLine
62
7
6
CONTINUOUS
10
21.4132619634
20
-6.8021814470
11
21.4318378323
21
-6.8207573159
0
LINE
5
26A
100
AcDbEntity
8
0
100
AcDbLine
62
7
6
CONTINUOUS
10
21.4132619634
20
-5.4521814470
11
21.4322090533
21
-5.4711285369
0
LINE
5
26B
100
AcDbEntity
8
0
100
AcDbLine
62
7
6
CONTINUOUS
10
21.4319499380
20
-6.8209107010
11
21.4318378323
21
-6.8207573159
0
LINE
5
26C
100
AcDbEntity
8
0
100
AcDbLine
62
9
6
CONTINUOUS
10
8.4044638466
20
21.3227256902
11
8.2628813636
21
21.7478185530
0
LINE
5
26D
100
AcDbEntity
8
0
100
AcDbLine
62
7
6
CONTINUOUS
10
15.2632619634
20
-3.8521814470
11
15.2441507454
21
-3.8712926650
0
LINE
5
26E
100
AcDbEntity
8
0
100
AcDbLine
62
7
6
CONTINUOUS
10
12.4632619634
20
4.0478185530
11
12.4443849684
21
4.0666955479
0
LINE
5
26F
100
AcDbEntity
8
0
100
AcDbLine
62
7
6
CONTINUOUS
10
22.5632619634
20
-5.4521814470
11
22.5821205488
21
-5.4710400324
0
LINE
5
270
100
AcDbEntity
8
0
100
AcDbLine
62
7
6
CONTINUOUS
10
16.3945739941
20
-6.8209106924
11
16.3946860944
21
-6.8207573159
0
LINE
5
271
100
AcDbEntity
8
0
100
AcDbLine
62
7
6
CONTINUOUS
10
15.2632619634
20
-5.4521814470
11
15.2443148724
21
-5.4711285380
0
LINE
5
272
100
AcDbEntity
8
0
100
AcDbLine
62
7
6
CONTINUOUS
10
25.3632619634
20
4.0478185530
11
25.3822257166
21
4.0667823062
0
LINE
5
273
100
AcDbEntity
8
0
100
AcDbLine
62
7
6
CONTINUOUS
10
16.4132619634
20
-5.4521814470
11
16.3944033779
21
-5.4710400324
0
LINE
5
274
100
AcDbEntity
8
0
100
AcDbLine
62
7
6
CONTINUOUS
10
22.5632619634
20
-3.8521814470
11
22.5824336990
21
-3.8713531827
0
LINE
5
275
100
AcDbEntity
8
0
100
AcDbLine
62
7
6
CONTINUOUS
10
21.4132619634
20
-5.4521814470
11
21.4132619634
21
-6.8021814470
0
LINE
5
276
100
AcDbEntity
8
0
100
AcDbLine
62
7
6
CONTINUOUS
10
21.6945403045
20
-24.1085437847
11
21.6945403045
21
-23.1832008952
0
LINE
5
277
100
AcDbEntity
8
0
100
AcDbLine
62
7
6
CONTINUOUS
10
21.6945403045
20
21.8788380012
11
21.6945403045
21
22.8041808907
0
LINE
5
278
100
AcDbEntity
8
0
100
AcDbLine
62
7
6
CONTINUOUS
10
21.9132619634
20
-24.1521814470
11
21.9132619634
21
-23.0521814470
0
LINE
5
279
100
AcDbEntity
8
0
100
AcDbLine
62
7
6
CONTINUOUS
10
21.9132619634
20
21.7478185530
11
21.9132619634
21
22.8478185530
0
LINE
5
27A
100
AcDbEntity
8
0
100
AcDbLine
62
7
6
CONTINUOUS
10
22.5632619634
20
-3.8521814470
11
22.5632619634
21
-5.4521814470
0
LINE
5
27B
100
AcDbEntity
8
0
100
AcDbLine
62
9
6
CONTINUOUS
10
21.9320443446
20
-5.9762879866
11
21.9317615954
21
-7.3273563384
0
LINE
5
27C
100
AcDbEntity
8
0
100
AcDbLine
62
9
6
CONTINUOUS
10
29.4220600801
20
21.3227256902
11
29.5636425631
21
21.7478185530
0
LINE
5
27D
100
AcDbEntity
8
0
100
AcDbLine
62
9
6
CONTINUOUS
10
29.9219839276
20
20.8234109228
11
30.0632619634
21
21.2475897009
0
LINE
5
27E
100
AcDbEntity
8
0
100
AcDbLine
62
7
6
CONTINUOUS
10
16.4132619634
20
-6.8021814470
11
16.3946860944
21
-6.8207573159
0
LINE
5
27F
100
AcDbEntity
8
0
100
AcDbLine
62
7
6
CONTINUOUS
10
25.3632619634
20
-3.8521814470
11
25.3823731813
21
-3.8712926650
0
LINE
5
280
100
AcDbEntity
8
0
100
AcDbLine
62
9
6
CONTINUOUS
10
29.5636425631
20
-23.0521814470
11
29.4220600801
21
-22.6270885842
0
LINE
5
281
100
AcDbEntity
8
0
100
AcDbLine
62
9
6
CONTINUOUS
10
30.0632619634
20
-22.5519525949
11
29.9219839276
21
-22.1277738168
0
LINE
5
282
100
AcDbEntity
8
0
100
AcDbLine
62
9
6
CONTINUOUS
10
23.0822969388
20
-4.3749392704
11
23.0820442741
21
-5.9762879866
0
LINE
5
283
100
AcDbEntity
8
0
100
AcDbLine
62
7
6
CONTINUOUS
10
12.4632619634
20
4.0478185530
11
25.3632619634
21
4.0478185530
0
LINE
5
284
100
AcDbEntity
8
0
100
AcDbLine
62
9
6
CONTINUOUS
10
12.4443849684
20
4.0666955479
11
25.3821389583
21
4.0666955479
0
LINE
5
285
100
AcDbEntity
8
0
100
AcDbLine
62
9
6
CONTINUOUS
10
11.9444612380
20
4.5718434203
11
25.8820627509
21
4.5718434203
0
LINE
5
286
100
AcDbEntity
8
0
100
AcDbLine
62
7
6
CONTINUOUS
10
25.3632619634
20
4.0478185530
11
25.3632619634
21
-3.8521814470
0
LINE
5
287
100
AcDbEntity
8
0
100
AcDbLine
62
9
6
CONTINUOUS
10
25.8820627509
20
4.5718434203
11
25.8822969062
21
-4.3749392704
0
LINE
5
288
100
AcDbEntity
8
0
100
AcDbLine
62
7
6
CONTINUOUS
10
30.0632619634
20
21.2475897009
11
30.0632619634
21
-22.5519525949
0
LINE
5
289
100
AcDbEntity
8
0
100
AcDbLine
62
7
6
CONTINUOUS
10
21.6945403045
20
-23.1832008952
11
21.9132619634
21
-23.0521814470
0
LINE
5
28A
100
AcDbEntity
8
0
100
AcDbLine
62
9
6
CONTINUOUS
10
8.4127269008
20
20.3661327839
11
29.4137970259
21
20.3661327839
0
LINE
5
28B
100
AcDbEntity
8
0
100
AcDbLine
62
7
6
CONTINUOUS
10
21.9132619634
20
21.7478185530
11
21.6945403045
21
21.8788380012
0
LINE
5
28C
100
AcDbEntity
8
0
100
AcDbLine
62
7
6
CONTINUOUS
10
21.9132619634
20
22.8478185530
11
21.6945403045
21
22.8041808907
0
LINE
5
28D
100
AcDbEntity
8
0
100
AcDbLine
62
9
6
CONTINUOUS
10
8.4044638466
20
21.3227256902
11
29.4220600801
21
21.3227256902
0
LINE
5
28E
100
AcDbEntity
8
0
100
AcDbLine
62
7
6
CONTINUOUS
10
8.2628813636
20
21.7478185530
11
15.9132619634
21
21.7478185530
0
LINE
5
28F
100
AcDbEntity
8
0
100
AcDbLine
62
7
6
CONTINUOUS
10
21.9132619634
20
21.7478185530
11
29.5636425631
21
21.7478185530
0
LINE
5
290
100
AcDbEntity
8
0
100
AcDbLine
62
7
6
CONTINUOUS
10
21.6945403045
20
21.8788380012
11
16.1319836222
21
21.8788380012
0
LINE
5
291
100
AcDbEntity
8
0
100
AcDbLine
62
7
6
CONTINUOUS
10
15.9132619634
20
22.8478185530
11
16.1319836222
21
22.8041808907
0
LINE
5
292
100
AcDbEntity
8
0
100
AcDbLine
62
7
6
CONTINUOUS
10
16.1319836222
20
22.8041808907
11
21.6945403045
21
22.8041808907
0
LINE
5
293
100
AcDbEntity
8
0
100
AcDbLine
62
7
6
CONTINUOUS
10
14.9399246157
20
22.8478185530
11
15.9132619634
21
22.8478185530
0
LINE
5
294
100
AcDbEntity
8
0
100
AcDbLine
62
7
6
CONTINUOUS
10
21.9132619634
20
22.8478185530
11
22.8865993110
21
22.8478185530
0
LINE
5
295
100
AcDbEntity
8
0
100
AcDbLine
62
7
6
CONTINUOUS
10
-19.1628955440
20
-24.1521814470
11
-15.1628955440
21
-24.0823611873
0
LINE
5
296
100
AcDbEntity
8
0
100
AcDbLine
62
7
6
CONTINUOUS
10
-13.0628955440
20
-22.8521814470
11
-13.5628955440
21
-22.8521814470
0
LINE
5
297
100
AcDbEntity
8
0
100
AcDbLine
62
7
6
CONTINUOUS
10
-19.1628955440
20
-23.0521814470
11
-27.2741505639
21
-22.6270885842
0
LINE
5
298
100
AcDbEntity
8
0
100
AcDbLine
62
9
6
CONTINUOUS
10
-19.1628955440
20
-22.5519525949
11
-27.2567087890
21
-22.1277738168
0
LINE
5
299
100
AcDbEntity
8
0
100
AcDbLine
62
9
6
CONTINUOUS
10
-28.2209306673
20
-21.6704956775
11
-27.7300988461
21
-21.6494773637
0
LINE
5
29A
100
AcDbEntity
8
0
100
AcDbLine
62
7
6
CONTINUOUS
10
-15.1628955440
20
-21.8521814470
11
-11.1276807581
21
-21.8169666611
0
LINE
5
29B
100
AcDbEntity
8
0
100
AcDbLine
62
7
6
CONTINUOUS
10
-19.1628955440
20
-21.5521814470
11
-11.0789106827
21
-21.4888443545
0
LINE
5
29C
100
AcDbEntity
8
0
100
AcDbLine
62
7
6
CONTINUOUS
10
-15.1628955440
20
-21.8521814470
11
-11.1628955440
21
-21.8521814470
0
LINE
5
29D
100
AcDbEntity
8
0
100
AcDbLine
62
9
6
CONTINUOUS
10
-10.3594050627
20
-20.7693387345
11
-10.1628955440
21
-20.7693387345
0
LINE
5
29E
100
AcDbEntity
8
0
100
AcDbLine
62
9
6
CONTINUOUS
10
-10.3594050627
20
-19.6521814470
11
-10.1628955440
21
-19.6521814469
0
LINE
5
29F
100
AcDbEntity
8
0
100
AcDbLine
62
9
6
CONTINUOUS
10
-10.6594050627
20
-19.3521814470
11
-14.9177863698
21
-19.3521814470
0
LINE
5
2A0
100
AcDbEntity
8
0
100
AcDbLine
62
7
6
CONTINUOUS
10
-10.6628955440
20
-19.1521814470
11
-14.8949463516
21
-19.1521814470
0
LINE
5
2A1
100
AcDbEntity
8
0
100
AcDbLine
62
9
6
CONTINUOUS
10
-14.9177863698
20
-19.3521814470
11
-19.1628955440
21
-18.2147078720
0
LINE
5
2A2
100
AcDbEntity
8
0
100
AcDbLine
62
7
6
CONTINUOUS
10
-14.8949463516
20
-19.1521814470
11
-19.1628955440
21
-18.0085879076
0
LINE
5
2A3
100
AcDbEntity
8
0
100
AcDbLine
62
7
6
CONTINUOUS
10
-16.7628955440
20
-10.1622947088
11
-19.1628955440
21
-10.1832391915
0
LINE
5
2A4
100
AcDbEntity
8
0
100
AcDbLine
62
9
6
CONTINUOUS
10
-16.7628955440
20
-9.6623137472
11
-19.1628955440
21
-9.6832582299
0
LINE
5
2A5
100
AcDbEntity
8
0
100
AcDbLine
62
7
6
CONTINUOUS
10
-17.4792604274
20
12.2314536696
11
-17.8628955440
21
11.8478185530
0
LINE
5
2A6
100
AcDbEntity
8
0
100
AcDbLine
62
7
6
CONTINUOUS
10
-19.1628955440
20
-8.1832391915
11
-16.9611502369
21
-8.1640248513
0
LINE
5
2A7
100
AcDbEntity
8
0
100
AcDbLine
62
9
6
CONTINUOUS
10
-18.0312995727
20
-7.9739532403
11
-16.9602895010
21
-7.9646066770
0
LINE
5
2A8
100
AcDbEntity
8
0
100
AcDbLine
62
9
6
CONTINUOUS
10
-19.1628955440
20
-7.6832201523
11
-18.3628955440
21
-7.6762386580
0
LINE
5
2A9
100
AcDbEntity
8
0
100
AcDbLine
62
9
6
CONTINUOUS
10
-18.1628955440
20
-7.6762386580
11
-18.3628955440
21
-7.6762386581
0
LINE
5
2AA
100
AcDbEntity
8
0
100
AcDbLine
62
7
6
CONTINUOUS
10
-18.1628955440
20
-7.3298505703
11
-16.7628955440
21
-7.3420681853
0
LINE
5
2AB
100
AcDbEntity
8
0
100
AcDbLine
62
7
6
CONTINUOUS
10
-17.0602775834
20
-5.3394729715
11
-18.1628955440
21
-5.3298505703
0
LINE
5
2AC
100
AcDbEntity
8
0
100
AcDbLine
62
7
6
CONTINUOUS
10
-19.1628955440
20
22.0570146275
11
-19.1628955440
21
22.8478185530
0
LINE
5
2AD
100
AcDbEntity
8
0
100
AcDbLine
62
7
6
CONTINUOUS
10
-19.1628955440
20
22.0109851750
11
-19.1628955440
21
-24.1521814470
0
LINE
5
2AE
100
AcDbEntity
8
0
100
AcDbLine
62
9
6
CONTINUOUS
10
-18.3628955440
20
12.5718757640
11
-18.3628955440
21
-7.6762386580
0
LINE
5
2AF
100
AcDbEntity
8
0
100
AcDbLine
62
7
6
CONTINUOUS
10
-18.1628955440
20
12.8718871875
11
-18.1628955440
21
-7.9762500816
0
LINE
5
2B0
100
AcDbEntity
8
0
100
AcDbLine
62
9
6
CONTINUOUS
10
-18.0312995727
20
12.8695903462
11
-18.0312995727
21
12.2266360970
0
LINE
5
2B1
100
AcDbEntity
8
0
100
AcDbLine
62
9
6
CONTINUOUS
10
-18.0312995727
20
8.7690010090
11
-18.0312995727
21
7.9266360970
0
LINE
5
2B2
100
AcDbEntity
8
0
100
AcDbLine
62
9
6
CONTINUOUS
10
-18.0312995727
20
1.0690010090
11
-18.0312995727
21
0.2266360970
0
LINE
5
2B3
100
AcDbEntity
8
0
100
AcDbLine
62
9
6
CONTINUOUS
10
-18.0312995727
20
-7.3309989910
11
-18.0312995727
21
-7.9739532403
0
LINE
5
2B4
100
AcDbEntity
8
0
100
AcDbLine
62
7
6
CONTINUOUS
10
-16.7628955440
20
0.2377052912
11
-18.1628955440
21
0.2254876763
0
LINE
5
2B5
100
AcDbEntity
8
0
100
AcDbLine
62
7
6
CONTINUOUS
10
-18.1628955440
20
1.0701494297
11
-16.7628955440
21
1.0579318147
0
LINE
5
2B6
100
AcDbEntity
8
0
100
AcDbLine
62
9
6
CONTINUOUS
10
-16.9602895010
20
12.8602437829
11
-16.9602895010
21
12.2359826603
0
LINE
5
2B7
100
AcDbEntity
8
0
100
AcDbLine
62
9
6
CONTINUOUS
10
-16.9602895010
20
8.7596544457
11
-16.9602895010
21
7.9359826603
0
LINE
5
2B8
100
AcDbEntity
8
0
100
AcDbLine
62
9
6
CONTINUOUS
10
-16.9602895010
20
1.0596544457
11
-16.9602895010
21
0.2359826603
0
LINE
5
2B9
100
AcDbEntity
8
0
100
AcDbLine
62
9
6
CONTINUOUS
10
-16.9602895010
20
-7.3403455543
11
-16.9602895010
21
-7.9646066770
0
LINE
5
2BA
100
AcDbEntity
8
0
100
AcDbLine
62
7
6
CONTINUOUS
10
-16.7628955440
20
14.4579318147
11
-16.7628955440
21
12.2377052912
0
LINE
5
2BB
100
AcDbEntity
8
0
100
AcDbLine
62
7
6
CONTINUOUS
10
-16.7628955440
20
8.7579318147
11
-16.7628955440
21
7.9377052912
0
LINE
5
2BC
100
AcDbEntity
8
0
100
AcDbLine
62
7
6
CONTINUOUS
10
-16.7628955440
20
1.0579318147
11
-16.7628955440
21
0.2377052912
0
LINE
5
2BD
100
AcDbEntity
8
0
100
AcDbLine
62
7
6
CONTINUOUS
10
-16.7628955440
20
-5.6394615484
11
-16.7628955440
21
-10.1622947088
0
LINE
5
2BE
100
AcDbEntity
8
0
100
AcDbLine
62
7
6
CONTINUOUS
10
-15.1628955440
20
22.7779982933
11
-15.1628955440
21
20.5478185530
0
LINE
5
2BF
100
AcDbEntity
8
0
100
AcDbLine
62
7
6
CONTINUOUS
10
-15.1628955440
20
-21.8521814470
11
-15.1628955440
21
-24.0823611873
0
LINE
5
2C0
100
AcDbEntity
8
0
100
AcDbLine
62
7
6
CONTINUOUS
10
-13.5628955440
20
20.5478185530
11
-13.5628955440
21
21.5478185530
0
LINE
5
2C1
100
AcDbEntity
8
0
100
AcDbLine
62
7
6
CONTINUOUS
10
-13.5628955440
20
-21.8521814470
11
-13.5628955440
21
-22.8521814470
0
LINE
5
2C2
100
AcDbEntity
8
0
100
AcDbLine
62
7
6
CONTINUOUS
10
-16.7628955440
20
7.9377052912
11
-18.1628955440
21
7.9254876763
0
LINE
5
2C3
100
AcDbEntity
8
0
100
AcDbLine
62
9
6
CONTINUOUS
10
-10.3594050627
20
19.4649758405
11
-10.3594050627
21
18.3478185530
0
LINE
5
2C4
100
AcDbEntity
8
0
100
AcDbLine
62
9
6
CONTINUOUS
10
-10.3594050627
20
-20.7693387345
11
-10.3594050627
21
-19.6521814470
0
LINE
5
2C5
100
AcDbEntity
8
0
100
AcDbLine
62
7
6
CONTINUOUS
10
-10.1628955440
20
19.4649758405
11
-10.1628955440
21
18.3478185530
0
LINE
5
2C6
100
AcDbEntity
8
0
100
AcDbLine
62
7
6
CONTINUOUS
10
-10.1628955440
20
-20.7693387345
11
-10.1628955440
21
-19.6521814470
0
LINE
5
2C7
100
AcDbEntity
8
0
100
AcDbLine
62
9
6
CONTINUOUS
10
-19.1628955440
20
-10.4039513666
11
-18.5415970316
21
-10.1778172015
0
LINE
5
2C8
100
AcDbEntity
8
0
100
AcDbLine
62
7
6
CONTINUOUS
10
-19.1628955440
20
-10.6161516813
11
-17.9442591649
21
-10.1726043129
0
LINE
5
2C9
100
AcDbEntity
8
0
100
AcDbLine
62
7
6
CONTINUOUS
10
-18.1628955440
20
8.7701494297
11
-16.7628955440
21
8.7579318147
0
LINE
5
2CA
100
AcDbEntity
8
0
100
AcDbLine
62
7
6
CONTINUOUS
10
-16.7628955440
20
12.2377052912
11
-18.1628955440
21
12.2254876763
0
LINE
5
2CB
100
AcDbEntity
8
0
100
AcDbLine
62
7
6
CONTINUOUS
10
-17.8628955440
20
11.8478185530
11
-18.1628955440
21
11.8478185530
0
LINE
5
2CC
100
AcDbEntity
8
0
100
AcDbLine
62
9
6
CONTINUOUS
10
-18.1628955440
20
12.5718757640
11
-18.3628955440
21
12.5718757640
0
LINE
5
2CD
100
AcDbEntity
8
0
100
AcDbLine
62
9
6
CONTINUOUS
10
-19.1628955440
20
12.5788572582
11
-18.3628955440
21
12.5718757640
0
LINE
5
2CE
100
AcDbEntity
8
0
100
AcDbLine
62
9
6
CONTINUOUS
10
-16.9602895010
20
12.8602437829
11
-18.0312995727
21
12.8695903462
0
LINE
5
2CF
100
AcDbEntity
8
0
100
AcDbLine
62
7
6
CONTINUOUS
10
-19.1628955440
20
13.0788762974
11
-16.9611502369
21
13.0596619572
0
LINE
5
2D0
100
AcDbEntity
8
0
100
AcDbLine
62
9
6
CONTINUOUS
10
-19.1628955440
20
13.9788953359
11
-16.7628955440
21
13.9579508532
0
LINE
5
2D1
100
AcDbEntity
8
0
100
AcDbLine
62
7
6
CONTINUOUS
10
-19.1628955440
20
14.4788762974
11
-16.7628955440
21
14.4579318147
0
LINE
5
2D2
100
AcDbEntity
8
0
100
AcDbLine
62
7
6
CONTINUOUS
10
-19.1628955440
20
16.7042250135
11
-14.8949463516
21
17.8478185530
0
LINE
5
2D3
100
AcDbEntity
8
0
100
AcDbLine
62
9
6
CONTINUOUS
10
-19.1628955440
20
16.9103449780
11
-14.9177863698
21
18.0478185530
0
LINE
5
2D4
100
AcDbEntity
8
0
100
AcDbLine
62
7
6
CONTINUOUS
10
-10.6628955440
20
17.8478185530
11
-14.8949463516
21
17.8478185530
0
LINE
5
2D5
100
AcDbEntity
8
0
100
AcDbLine
62
9
6
CONTINUOUS
10
-10.6594050627
20
18.0478185530
11
-14.9177863698
21
18.0478185530
0
LINE
5
2D6
100
AcDbEntity
8
0
100
AcDbLine
62
9
6
CONTINUOUS
10
-10.1628955440
20
18.3478185530
11
-10.3594050627
21
18.3478185530
0
LINE
5
2D7
100
AcDbEntity
8
0
100
AcDbLine
62
9
6
CONTINUOUS
10
-10.1628955440
20
19.4649758405
11
-10.3594050627
21
19.4649758405
0
LINE
5
2D8
100
AcDbEntity
8
0
100
AcDbLine
62
9
6
CONTINUOUS
10
-11.0789106827
20
-21.4888443545
11
-10.3594050627
21
-20.7693387345
0
LINE
5
2D9
100
AcDbEntity
8
0
100
AcDbLine
62
7
6
CONTINUOUS
10
-11.1628955440
20
-21.8521814470
11
-10.2214741878
21
-20.9107600908
0
LINE
5
2DA
100
AcDbEntity
8
0
100
AcDbLine
62
9
6
CONTINUOUS
10
-27.2567087890
20
20.8234109228
11
-19.1628955440
21
21.2475897009
0
LINE
5
2DB
100
AcDbEntity
8
0
100
AcDbLine
62
7
6
CONTINUOUS
10
-11.1628955440
20
20.5478185530
11
-15.1628955440
21
20.5478185530
0
LINE
5
2DC
100
AcDbEntity
8
0
100
AcDbLine
62
7
6
CONTINUOUS
10
-11.0789106827
20
20.1844814605
11
-19.1628955440
21
20.2478185530
0
LINE
5
2DD
100
AcDbEntity
8
0
100
AcDbLine
62
7
6
CONTINUOUS
10
-15.1628955440
20
20.5478185530
11
-11.1276807581
21
20.5126037670
0
LINE
5
2DE
100
AcDbEntity
8
0
100
AcDbLine
62
9
6
CONTINUOUS
10
-28.2209081774
20
20.3661318407
11
-27.7300988461
21
20.3451144697
0
LINE
5
2DF
100
AcDbEntity
8
0
100
AcDbLine
62
9
6
CONTINUOUS
10
-11.0789106827
20
20.1844814605
11
-10.3594050627
21
19.4649758405
0
LINE
5
2E0
100
AcDbEntity
8
0
100
AcDbLine
62
7
6
CONTINUOUS
10
-11.1628955440
20
20.5478185530
11
-10.2214741878
21
19.6063971968
0
LINE
5
2E1
100
AcDbEntity
8
0
100
AcDbLine
62
7
6
CONTINUOUS
10
-13.0628955440
20
-22.8521814470
11
-11.1628955440
21
-21.8521814470
0
LINE
5
2E2
100
AcDbEntity
8
0
100
AcDbLine
62
7
6
CONTINUOUS
10
-27.2741505639
20
21.3227256902
11
-19.1628955440
21
21.7478185530
0
LINE
5
2E3
100
AcDbEntity
8
0
100
AcDbLine
62
7
6
CONTINUOUS
10
-13.0628955440
20
21.5478185530
11
-13.5628955440
21
21.5478185530
0
LINE
5
2E4
100
AcDbEntity
8
0
100
AcDbLine
62
7
6
CONTINUOUS
10
-19.1628955440
20
22.8478185530
11
-15.1628955440
21
22.7779982933
0
LINE
5
2E5
100
AcDbEntity
8
0
100
AcDbLine
62
7
6
CONTINUOUS
10
-11.1628955440
20
20.5478185530
11
-13.0628955440
21
21.5478185530
0
ARC
5
2E6
100
AcDbEntity
8
0
100
AcDbCircle
62
7
6
CONTINUOUS
10
30.1632619634
20
-0.6521814470
40
28.0000000000
100
AcDbArc
50
233.1301023542
51
234.0372348486
0
ARC
5
2E7
100
AcDbEntity
8
0
100
AcDbCircle
62
7
6
CONTINUOUS
10
30.1632619634
20
-0.6521814470
40
28.0000000000
100
AcDbArc
50
235.8789063483
51
237.0647695028
0
ARC
5
2E8
100
AcDbEntity
8
0
100
AcDbCircle
62
7
6
CONTINUOUS
10
30.1632619634
20
-0.6521814470
40
28.0000000000
100
AcDbArc
50
122.9352304972
51
124.1210936517
0
ARC
5
2E9
100
AcDbEntity
8
0
100
AcDbCircle
62
7
6
CONTINUOUS
10
30.1632619634
20
-0.6521814470
40
28.0000000000
100
AcDbArc
50
125.9627651514
51
126.8698976458
0
ARC
5
2EA
100
AcDbEntity
8
0
100
AcDbCircle
62
7
6
CONTINUOUS
10
7.6632619634
20
-0.6521814470
40
28.0000000000
100
AcDbArc
50
302.9352304972
51
304.1210936517
0
ARC
5
2EB
100
AcDbEntity
8
0
100
AcDbCircle
62
7
6
CONTINUOUS
10
7.6632619634
20
-0.6521814470
40
28.0000000000
100
AcDbArc
50
305.9627651514
51
306.8698976458
0
ARC
5
2EC
100
AcDbEntity
8
0
100
AcDbCircle
62
7
6
CONTINUOUS
10
7.6632619634
20
-0.6521814470
40
28.0000000000
100
AcDbArc
50
53.1301023542
51
54.0372348486
0
ARC
5
2ED
100
AcDbEntity
8
0
100
AcDbCircle
62
7
6
CONTINUOUS
10
7.6632619634
20
-0.6521814470
40
28.0000000000
100
AcDbArc
50
55.8789063483
51
57.0647695028
0
ARC
5
2EE
100
AcDbEntity
8
0
100
AcDbCircle
62
7
6
CONTINUOUS
10
13.9632619634
20
-23.7521814470
40
0.5000000000
100
AcDbArc
50
350.8037184210
51
119.1124227760
0
ARC
5
2EF
100
AcDbEntity
8
0
100
AcDbCircle
62
7
6
CONTINUOUS
10
13.9632619634
20
22.4478185530
40
0.5000000000
100
AcDbArc
50
240.8875772240
51
9.1962815790
0
ARC
5
2F0
100
AcDbEntity
8
0
100
AcDbCircle
62
7
6
CONTINUOUS
10
23.8632619634
20
-23.7521814470
40
0.5000000000
100
AcDbArc
50
60.8875772240
51
189.1962815790
0
ARC
5
2F1
100
AcDbEntity
8
0
100
AcDbCircle
62
7
6
CONTINUOUS
10
23.8632619634
20
22.4478185530
40
0.5000000000
100
AcDbArc
50
170.8037184210
51
299.1124227760
0
ARC
5
2F2
100
AcDbEntity
8
0
100
AcDbCircle
62
7
6
CONTINUOUS
10
-27.2218146077
20
-21.6284590495
40
1.0000000000
100
AcDbArc
50
182.4092313014
51
267.0000000000
0
ARC
5
2F3
100
AcDbEntity
8
0
100
AcDbCircle
62
7
6
CONTINUOUS
10
471.3371044560
20
-0.6521814470
40
500.0000000000
100
AcDbArc
50
177.5907686986
51
182.4092313014
0
ARC
5
2F4
100
AcDbEntity
8
0
100
AcDbCircle
62
7
6
CONTINUOUS
10
-27.2218146077
20
20.3240961554
40
1.0000000000
100
AcDbArc
50
93.0000000000
51
177.5907686986
0
ARC
5
2F5
100
AcDbEntity
8
0
100
AcDbCircle
62
7
6
CONTINUOUS
10
-18.3628955440
20
12.8718866417
40
0.2000000000
100
AcDbArc
50
0.0001563699
51
89.5000013646
0
ARC
5
2F6
100
AcDbEntity
8
0
100
AcDbCircle
62
7
6
CONTINUOUS
10
-18.3628955440
20
-7.9762500816
40
0.2000000000
100
AcDbArc
50
270.5000000000
51
360.0000000000
0
ARC
5
2F7
100
AcDbEntity
8
0
100
AcDbCircle
62
7
6
CONTINUOUS
10
-16.9628956592
20
12.8596695736
40
0.2000000000
100
AcDbArc
50
359.9999997122
51
89.4999670152
0
ARC
5
2F8
100
AcDbEntity
8
0
100
AcDbCircle
62
7
6
CONTINUOUS
10
-16.9628955440
20
-7.9640324666
40
0.2000000000
100
AcDbArc
50
270.5000000000
51
360.0000000000
0
ARC
5
2F9
100
AcDbEntity
8
0
100
AcDbCircle
62
7
6
CONTINUOUS
10
-10.6628955440
20
-19.6521814470
40
0.5000000000
100
AcDbArc
50
0.0000000000
51
90.0000000000
0
ARC
5
2FA
100
AcDbEntity
8
0
100
AcDbCircle
62
7
6
CONTINUOUS
10
-10.6628955440
20
18.3478185530
40
0.5000000000
100
AcDbArc
50
270.0000000000
51
360.0000000000
0
ARC
5
2FB
100
AcDbEntity
8
0
100
AcDbCircle
62
7
6
CONTINUOUS
10
-10.3628955440
20
19.4649758405
40
0.2000000000
100
AcDbArc
50
0.0000000000
51
45.0000000000
0
ARC
5
2FC
100
AcDbEntity
8
0
100
AcDbCircle
62
7
6
CONTINUOUS
10
-10.3628955440
20
-20.7693387345
40
0.2000000000
100
AcDbArc
50
315.0000000000
51
360.0000000000
0
ARC
5
2FD
100
AcDbEntity
8
0
100
AcDbCircle
62
7
6
CONTINUOUS
10
-17.0628955440
20
-5.6394615484
40
0.3000000000
100
AcDbArc
50
0.0000000000
51
89.5000000000
0
SPLINE
5
2FE
100
AcDbEntity
8
0
100
AcDbSpline
62
7
6
CONTINUOUS
70
0
71
3
72
15
73
11
74
9
42
0.0000001000
43
0.0000001000
44
0.0000000001
12
0.0000000000
22
-0.7840504605
32
0.0000000000
13
-0.7840504605
23
-0.0000000000
33
0.0000000000
40
0.0000000000
40
0.0000000000
40
0.0000000000
40
0.0000000000
40
0.1250035856
40
0.2500003382
40
0.3749971738
40
0.4999931596
40
0.6249941993
40
0.7499962985
40
0.8749988330
40
1.0000000000
40
1.0000000000
40
1.0000000000
40
1.0000000000
10
30.0632619634
20
-22.5519525949
30
0.0000000000
10
30.0632619634
20
-22.5846223012
30
0.0000000000
10
30.0568340258
20
-22.6501402813
30
0.0000000000
10
30.0282648519
20
-22.7445168206
30
0.0000000000
10
29.9818483486
20
-22.8315550653
30
0.0000000000
10
29.9193478077
20
-22.9078610041
30
0.0000000000
10
29.8431559869
20
-22.9705043288
30
0.0000000000
10
29.7561843305
20
-23.0170602442
30
0.0000000000
10
29.6618317532
20
-23.0457293847
30
0.0000000000
10
29.5963116373
20
-23.0521814470
30
0.0000000000
10
29.5636425631
20
-23.0521814470
30
0.0000000000
11
30.0632619634
21
-22.5519525949
31
0.0000000000
11
30.0536790907
21
-22.6494921046
31
0.0000000000
11
30.0252902024
21
-22.7432940676
31
0.0000000000
11
29.9791676738
21
-22.8297663890
31
0.0000000000
11
29.9170670303
21
-22.9055828087
31
0.0000000000
11
29.8413598045
21
-22.9678227642
31
0.0000000000
11
29.7549542834
21
-23.0140790596
31
0.0000000000
11
29.6611767921
21
-23.0425642833
31
0.0000000000
11
29.5636425631
21
-23.0521814470
31
0.0000000000
0
SPLINE
5
2FF
100
AcDbEntity
8
0
100
AcDbSpline
62
7
6
CONTINUOUS
70
0
71
3
72
15
73
11
74
9
42
0.0000001000
43
0.0000001000
44
0.0000000001
12
0.7840504604
22
0.0000000000
32
0.0000000000
13
-0.0000000000
23
-0.7840504604
33
0.0000000000
40
0.0000000000
40
0.0000000000
40
0.0000000000
40
0.0000000000
40
0.1250026133
40
0.2500082844
40
0.3750136098
40
0.5000160060
40
0.6250106349
40
0.7500042447
40
0.8749978606
40
1.0000000000
40
1.0000000000
40
1.0000000000
40
1.0000000000
10
29.5636425631
20
21.7478185530
30
0.0000000000
10
29.5963120152
20
21.7478185530
30
0.0000000000
10
29.6618333351
20
21.7413662973
30
0.0000000000
10
29.7561877719
20
21.7126961017
30
0.0000000000
10
29.8431607931
20
21.6661383613
30
0.0000000000
10
29.9193524409
20
21.6034934679
30
0.0000000000
10
29.9818514135
20
21.5271873600
30
0.0000000000
10
30.0282660960
20
21.4401504840
30
0.0000000000
10
30.0568342185
20
21.3457758054
30
0.0000000000
10
30.0632619634
20
21.2802590292
30
0.0000000000
10
30.0632619634
20
21.2475897009
30
0.0000000000
11
29.5636425631
21
21.7478185530
31
0.0000000000
11
29.6611779096
21
21.7382011667
31
0.0000000000
11
29.7549576185
21
21.7097147821
31
0.0000000000
11
29.8413649174
21
21.6634564482
31
0.0000000000
11
29.9170721316
21
21.6012148038
31
0.0000000000
11
29.9791710868
21
21.5253983765
31
0.0000000000
11
30.0252915814
21
21.4389278367
31
0.0000000000
11
30.0536793125
21
21.3451280929
31
0.0000000000
11
30.0632619634
21
21.2475897009
31
0.0000000000
0
SPLINE
5
300
100
AcDbEntity
8
0
100
AcDbSpline
62
7
6
CONTINUOUS
70
0
71
3
72
15
73
11
74
9
42
0.0000001000
43
0.0000001000
44
0.0000000001
12
-0.7840504604
22
0.0000000000
32
0.0000000000
13
-0.0000000000
23
0.7840504604
33
0.0000000000
40
0.0000000000
40
0.0000000000
40
0.0000000000
40
0.0000000000
40
0.1250026133
40
0.2500082844
40
0.3750136098
40
0.5000160060
40
0.6250106349
40
0.7500042447
40
0.8749978606
40
1.0000000000
40
1.0000000000
40
1.0000000000
40
1.0000000000
10
8.2628813636
20
-23.0521814470
30
0.0000000000
10
8.2302119115
20
-23.0521814470
30
0.0000000000
10
8.1646905916
20
-23.0457291913
30
0.0000000000
10
8.0703361548
20
-23.0170589957
30
0.0000000000
10
7.9833631336
20
-22.9705012553
30
0.0000000000
10
7.9071714858
20
-22.9078563619
30
0.0000000000
10
7.8446725132
20
-22.8315502540
30
0.0000000000
10
7.7982578307
20
-22.7445133780
30
0.0000000000
10
7.7696897082
20
-22.6501386994
30
0.0000000000
10
7.7632619634
20
-22.5846219233
30
0.0000000000
10
7.7632619634
20
-22.5519525949
30
0.0000000000
11
8.2628813636
21
-23.0521814470
31
0.0000000000
11
8.1653460171
21
-23.0425640607
31
0.0000000000
11
8.0715663082
21
-23.0140776761
31
0.0000000000
11
7.9851590093
21
-22.9678193422
31
0.0000000000
11
7.9094517951
21
-22.9055776978
31
0.0000000000
11
7.8473528399
21
-22.8297612705
31
0.0000000000
11
7.8012323453
21
-22.7432907308
31
0.0000000000
11
7.7728446142
21
-22.6494909870
31
0.0000000000
11
7.7632619634
21
-22.5519525949
31
0.0000000000
0
SPLINE
5
301
100
AcDbEntity
8
0
100
AcDbSpline
62
7
6
CONTINUOUS
70
0
71
3
72
15
73
11
74
9
42
0.0000001000
43
0.0000001000
44
0.0000000001
12
0.0000000000
22
0.7840504605
32
0.0000000000
13
0.7840504605
23
0.0000000000
33
0.0000000000
40
0.0000000000
40
0.0000000000
40
0.0000000000
40
0.0000000000
40
0.1250035856
40
0.2500003382
40
0.3749971738
40
0.4999931596
40
0.6249941993
40
0.7499962985
40
0.8749988330
40
1.0000000000
40
1.0000000000
40
1.0000000000
40
1.0000000000
10
7.7632619634
20
21.2475897009
30
0.0000000000
10
7.7632619634
20
21.2802594072
30
0.0000000000
10
7.7696899009
20
21.3457773873
30
0.0000000000
10
7.7982590748
20
21.4401539266
30
0.0000000000
10
7.8446755781
20
21.5271921713
30
0.0000000000
10
7.9071761190
20
21.6034981100
30
0.0000000000
10
7.9833679398
20
21.6661414347
30
0.0000000000
10
8.0703395962
20
21.7126973501
30
0.0000000000
10
8.1646921735
20
21.7413664907
30
0.0000000000
10
8.2302122894
20
21.7478185530
30
0.0000000000
10
8.2628813636
20
21.7478185530
30
0.0000000000
11
7.7632619634
21
21.2475897009
31
0.0000000000
11
7.7728448360
21
21.3451292105
31
0.0000000000
11
7.8012337243
21
21.4389311736
31
0.0000000000
11
7.8473562529
21
21.5254034949
31
0.0000000000
11
7.9094568964
21
21.6012199146
31
0.0000000000
11
7.9851641222
21
21.6634598702
31
0.0000000000
11
8.0715696433
21
21.7097161656
31
0.0000000000
11
8.1653471346
21
21.7382013892
31
0.0000000000
11
8.2628813636
21
21.7478185530
31
0.0000000000
0
SPLINE
5
302
100
AcDbEntity
8
0
100
AcDbSpline
62
9
6
CONTINUOUS
70
0
71
3
72
13
73
9
74
7
42
0.0000001000
43
0.0000001000
44
0.0000000001
12
-0.1577378029
22
0.9435858985
32
0.0000000000
13
-0.0003490202
23
0.9566793822
33
0.0000000000
40
0.0000000000
40
0.0000000000
40
0.0000000000
40
0.0000000000
40
0.0448208408
40
0.1498261432
40
0.3086281187
40
0.5117190361
40
0.7469352638
40
1.0000000000
40
1.0000000000
40
1.0000000000
40
1.0000000000
10
29.4220600801
20
-22.6270885842
30
0.0000000000
10
29.4197034331
20
-22.6129911464
30
0.0000000000
10
29.4204915280
20
-22.5649063238
30
0.0000000000
10
29.4169536238
20
-22.4667663269
30
0.0000000000
10
29.4163527835
20
-22.3177500689
30
0.0000000000
10
29.4147630457
20
-22.1273916005
30
0.0000000000
10
29.4140772170
20
-21.9069013314
30
0.0000000000
10
29.4138264675
20
-21.7511962831
30
0.0000000000
10
29.4137970259
20
-21.6704956779
30
0.0000000000
11
29.4220600801
21
-22.6270885842
31
0.0000000000
11
29.4199507225
21
-22.5842613214
31
0.0000000000
11
29.4179956483
21
-22.4838239334
31
0.0000000000
11
29.4163139268
21
-22.3319106558
31
0.0000000000
11
29.4150057659
21
-22.1376221534
31
0.0000000000
11
29.4141491348
21
-21.9125972535
31
0.0000000000
11
29.4137970259
21
-21.6704956779
31
0.0000000000
0
SPLINE
5
303
100
AcDbEntity
8
0
100
AcDbSpline
62
9
6
CONTINUOUS
70
0
71
3
72
13
73
9
74
7
42
0.0000001000
43
0.0000001000
44
0.0000000001
12
-0.1518283440
22
0.4537411951
32
0.0000000000
13
-0.0003498850
23
0.4784692214
33
0.0000000000
40
0.0000000000
40
0.0000000000
40
0.0000000000
40
0.0000000000
40
0.0448720941
40
0.1499620513
40
0.3088769427
40
0.5121305404
40
0.7475203519
40
1.0000000000
40
1.0000000000
40
1.0000000000
40
1.0000000000
10
29.9219839276
20
-22.1277738168
30
0.0000000000
10
29.9197129757
20
-22.1209870443
30
0.0000000000
10
29.9203264112
20
-22.0965017815
30
0.0000000000
10
29.9169284508
20
-22.0477613230
30
0.0000000000
10
29.9162551152
20
-21.9730054140
30
0.0000000000
10
29.9146920925
20
-21.8778049251
30
0.0000000000
10
29.9139980958
20
-21.7675472888
30
0.0000000000
10
29.9137503197
20
-21.6897452772
30
0.0000000000
10
29.9137208735
20
-21.6494773637
30
0.0000000000
11
29.9219839276
21
-22.1277738168
31
0.0000000000
11
29.9198774521
21
-22.1064074813
31
0.0000000000
11
29.9179204947
21
-22.0561632540
31
0.0000000000
11
29.9162371008
21
-21.9801459864
31
0.0000000000
11
29.9149279262
21
-21.8829041821
31
0.0000000000
11
29.9140716208
21
-21.7702806275
31
0.0000000000
11
29.9137208735
21
-21.6494773637
31
0.0000000000
0
SPLINE
5
304
100
AcDbEntity
8
0
100
AcDbSpline
62
9
6
CONTINUOUS
70
0
71
3
72
12
73
8
74
6
42
0.0000001000
43
0.0000001000
44
0.0000000001
12
0.7813571085
22
0.0007128051
32
0.0000000000
13
0.0007145497
23
0.7813571069
33
0.0000000000
40
0.0000000000
40
0.0000000000
40
0.0000000000
40
0.0000000000
40
0.2000879484
40
0.4001761228
40
0.6002085985
40
0.8001502331
40
1.0000000000
40
1.0000000000
40
1.0000000000
40
1.0000000000
10
29.4220600801
20
-22.6270885842
30
0.0000000000
10
29.4741734603
20
-22.6270410430
30
0.0000000000
10
29.5791161067
20
-22.6103981641
30
0.0000000000
10
29.7205834651
20
-22.5382733499
30
0.0000000000
10
29.8330306406
20
-22.4259752881
30
0.0000000000
10
29.9052649979
20
-22.2846696622
30
0.0000000000
10
29.9219363268
20
-22.1798251621
30
0.0000000000
10
29.9219839276
20
-22.1277738168
30
0.0000000000
11
29.4220600801
21
-22.6270885842
31
0.0000000000
11
29.5764604655
21
-22.6025369865
31
0.0000000000
11
29.7157633427
21
-22.5315649949
31
0.0000000000
11
29.8263483988
21
-22.4211129492
31
0.0000000000
11
29.8974039624
21
-22.2819812374
31
0.0000000000
11
29.9219839276
21
-22.1277738168
31
0.0000000000
0
SPLINE
5
305
100
AcDbEntity
8
0
100
AcDbSpline
62
9
6
CONTINUOUS
70
0
71
3
72
10
73
6
74
4
42
0.0000001000
43
0.0000001000
44
0.0000000001
12
-0.0308408133
22
42.0366204979
32
0.0000000000
13
0.0308408108
23
42.0366204979
33
0.0000000000
40
0.0000000000
40
0.0000000000
40
0.0000000000
40
0.0000000000
40
0.3332896860
40
0.6667103140
40
1.0000000000
40
1.0000000000
40
1.0000000000
40
1.0000000000
10
29.4137970259
20
-21.6704956779
30
0.0000000000
10
29.4103707176
20
-17.0003716627
30
0.0000000000
10
29.4058046818
20
-7.6582870001
30
0.0000000000
10
29.4058046815
20
6.3539241053
30
0.0000000000
10
29.4103707178
20
15.6960087683
30
0.0000000000
10
29.4137970259
20
20.3661327839
30
0.0000000000
11
29.4137970259
21
-21.6704956779
31
0.0000000000
11
29.4069466391
21
-7.6601215363
31
0.0000000000
11
29.4069466391
21
6.3557586411
31
0.0000000000
11
29.4137970259
21
20.3661327839
31
0.0000000000
0
SPLINE
5
306
100
AcDbEntity
8
0
100
AcDbSpline
62
9
6
CONTINUOUS
70
0
71
3
72
10
73
6
74
4
42
0.0000001000
43
0.0000001000
44
0.0000000001
12
-0.0308408131
22
41.9945838615
32
0.0000000000
13
0.0308408106
23
41.9945838615
33
0.0000000000
40
0.0000000000
40
0.0000000000
40
0.0000000000
40
0.0000000000
40
0.3332892101
40
0.6667109287
40
1.0000000000
40
1.0000000000
40
1.0000000000
40
1.0000000000
10
29.9137208735
20
-21.6494773637
30
0.0000000000
10
29.9102945700
20
-16.9840301363
30
0.0000000000
10
29.9057285268
20
-7.6512789528
30
0.0000000000
10
29.9057285279
20
6.3469199447
30
0.0000000000
10
29.9102945718
20
15.6796691852
30
0.0000000000
10
29.9137208735
20
20.3451144697
30
0.0000000000
11
29.9137208735
21
-21.6494773637
31
0.0000000000
11
29.9068704916
21
-7.6531335835
31
0.0000000000
11
29.9068704930
21
6.3487765183
31
0.0000000000
11
29.9137208735
21
20.3451144697
31
0.0000000000
0
SPLINE
5
307
100
AcDbEntity
8
0
100
AcDbSpline
62
9
6
CONTINUOUS
70
0
71
3
72
12
73
8
74
6
42
0.0000001000
43
0.0000001000
44
0.0000000001
12
0.5010580609
22
0.0003673192
32
0.0000000000
13
0.1919553163
23
0.4628309323
33
0.0000000000
40
0.0000000000
40
0.0000000000
40
0.0000000000
40
0.0000000000
40
0.3050607102
40
0.5809725745
40
0.8013959844
40
0.9453902239
40
1.0000000000
40
1.0000000000
40
1.0000000000
40
1.0000000000
10
29.4137970259
20
-21.6704956775
30
0.0000000000
10
29.4647480685
20
-21.6704583259
30
0.0000000000
10
29.5622834166
20
-21.6702091198
30
0.0000000000
10
29.6941679687
20
-21.6657670541
30
0.0000000000
10
29.8060642694
20
-21.6659518493
30
0.0000000000
10
29.8660516403
20
-21.6526862486
30
0.0000000000
10
29.9102266612
20
-21.6579023949
30
0.0000000000
10
29.9137208735
20
-21.6494773637
30
0.0000000000
11
29.4137970259
21
-21.6704956775
31
0.0000000000
11
29.5666461045
21
-21.6693774456
31
0.0000000000
11
29.7048609385
21
-21.6663539162
31
0.0000000000
11
29.8152084116
21
-21.6617145734
31
0.0000000000
11
29.8871235148
21
-21.6559036025
31
0.0000000000
11
29.9137208735
21
-21.6494773637
31
0.0000000000
0
SPLINE
5
308
100
AcDbEntity
8
0
100
AcDbSpline
62
9
6
CONTINUOUS
70
0
71
3
72
13
73
9
74
7
42
0.0000001000
43
0.0000001000
44
0.0000000001
12
0.0003490200
22
0.9566793822
32
0.0000000000
13
0.1577378176
23
0.9435858960
33
0.0000000000
40
0.0000000000
40
0.0000000000
40
0.0000000000
40
0.0000000000
40
0.2530647362
40
0.4882809639
40
0.6913718813
40
0.8501738568
40
0.9551791592
40
1.0000000000
40
1.0000000000
40
1.0000000000
40
1.0000000000
10
29.4137970259
20
20.3661327839
30
0.0000000000
10
29.4138264674
20
20.4468333891
30
0.0000000000
10
29.4140772171
20
20.6025384374
30
0.0000000000
10
29.4147630457
20
20.8230287065
30
0.0000000000
10
29.4163527836
20
21.0133871748
30
0.0000000000
10
29.4169536236
20
21.1624034329
30
0.0000000000
10
29.4204915283
20
21.2605434298
30
0.0000000000
10
29.4197034329
20
21.3086282525
30
0.0000000000
10
29.4220600801
20
21.3227256902
30
0.0000000000
11
29.4137970259
21
20.3661327839
31
0.0000000000
11
29.4141491348
21
20.6082343594
31
0.0000000000
11
29.4150057659
21
20.8332592593
31
0.0000000000
11
29.4163139268
21
21.0275477618
31
0.0000000000
11
29.4179956483
21
21.1794610394
31
0.0000000000
11
29.4199507225
21
21.2798984274
31
0.0000000000
11
29.4220600801
21
21.3227256902
31
0.0000000000
0
SPLINE
5
309
100
AcDbEntity
8
0
100
AcDbSpline
62
9
6
CONTINUOUS
70
0
71
3
72
13
73
9
74
7
42
0.0000001000
43
0.0000001000
44
0.0000000001
12
0.0003498847
22
0.4784692214
32
0.0000000000
13
0.1518282341
23
0.4537412319
33
0.0000000000
40
0.0000000000
40
0.0000000000
40
0.0000000000
40
0.0000000000
40
0.2524796480
40
0.4878694598
40
0.6911230573
40
0.8500379483
40
0.9551279064
40
1.0000000000
40
1.0000000000
40
1.0000000000
40
1.0000000000
10
29.9137208735
20
20.3451144697
30
0.0000000000
10
29.9137503197
20
20.3853823832
30
0.0000000000
10
29.9139980958
20
20.4631843948
30
0.0000000000
10
29.9146920926
20
20.5734420311
30
0.0000000000
10
29.9162551148
20
20.6686425201
30
0.0000000000
10
29.9169284519
20
20.7433984287
30
0.0000000000
10
29.9203264093
20
20.7921388881
30
0.0000000000
10
29.9197129774
20
20.8166241498
30
0.0000000000
10
29.9219839276
20
20.8234109228
30
0.0000000000
11
29.9137208735
21
20.3451144697
31
0.0000000000
11
29.9140716208
21
20.4659177334
31
0.0000000000
11
29.9149279262
21
20.5785412882
31
0.0000000000
11
29.9162371008
21
20.6757830923
31
0.0000000000
11
29.9179204947
21
20.7518003598
31
0.0000000000
11
29.9198774521
21
20.8020445875
31
0.0000000000
11
29.9219839276
21
20.8234109228
31
0.0000000000
0
SPLINE
5
30A
100
AcDbEntity
8
0
100
AcDbSpline
62
9
6
CONTINUOUS
70
0
71
3
72
12
73
8
74
6
42
0.0000001000
43
0.0000001000
44
0.0000000001
12
0.5010578743
22
-0.0003674018
32
0.0000000000
13
0.1921898260
23
-0.4627333997
33
0.0000000000
40
0.0000000000
40
0.0000000000
40
0.0000000000
40
0.0000000000
40
0.3050562610
40
0.5809650378
40
0.8013878226
40
0.9453845855
40
1.0000000000
40
1.0000000000
40
1.0000000000
40
1.0000000000
10
29.4137970259
20
20.3661318407
30
0.0000000000
10
29.4647473065
20
20.3660944813
30
0.0000000000
10
29.5622809282
20
20.3658451706
30
0.0000000000
10
29.6941657303
20
20.3614036810
30
0.0000000000
10
29.8060575636
20
20.3615875159
30
0.0000000000
10
29.8660541994
20
20.3483240560
30
0.0000000000
10
29.9102220310
20
20.3535385951
30
0.0000000000
10
29.9137208733
20
20.3451144697
30
0.0000000000
11
29.4137970259
21
20.3661318407
31
0.0000000000
11
29.5666438185
21
20.3650136406
31
0.0000000000
11
29.7048570567
21
20.3619902486
31
0.0000000000
11
29.8152041845
21
20.3573511278
31
0.0000000000
11
29.8871205513
21
20.3515404292
31
0.0000000000
11
29.9137208733
21
20.3451144697
31
0.0000000000
0
SPLINE
5
30B
100
AcDbEntity
8
0
100
AcDbSpline
62
9
6
CONTINUOUS
70
0
71
3
72
12
73
8
74
6
42
0.0000001000
43
0.0000001000
44
0.0000000001
12
0.7813571062
22
-0.0007128138
32
0.0000000000
13
0.0007145531
23
-0.7813571046
33
0.0000000000
40
0.0000000000
40
0.0000000000
40
0.0000000000
40
0.0000000000
40
0.2000850064
40
0.4001713425
40
0.6002035309
40
0.8001467217
40
1.0000000000
40
1.0000000000
40
1.0000000000
40
1.0000000000
10
29.4220600801
20
21.3227256902
30
0.0000000000
10
29.4741726939
20
21.3226781491
30
0.0000000000
10
29.5791140633
20
21.3060357201
30
0.0000000000
10
29.7205806278
20
21.2339124025
30
0.0000000000
10
29.8330285658
20
21.1216153296
30
0.0000000000
10
29.9052644820
20
20.9803090398
30
0.0000000000
10
29.9219363257
20
20.8754631824
30
0.0000000000
10
29.9219839276
20
20.8234109228
30
0.0000000000
11
29.4220600801
21
21.3227256902
31
0.0000000000
11
29.5764582516
21
21.2981748108
31
0.0000000000
11
29.7157602811
21
21.2272043206
31
0.0000000000
11
29.8263460383
21
21.1167532951
31
0.0000000000
11
29.8974031005
21
20.9776209838
31
0.0000000000
11
29.9219839276
21
20.8234109228
31
0.0000000000
0
SPLINE
5
30C
100
AcDbEntity
8
0
100
AcDbSpline
62
9
6
CONTINUOUS
70
0
71
3
72
13
73
9
74
7
42
0.0000001000
43
0.0000001000
44
0.0000000001
12
0.1517233705
22
0.4537763541
32
0.0000000000
13
0.0003487208
23
0.4784692666
33
0.0000000000
40
0.0000000000
40
0.0000000000
40
0.0000000000
40
0.0000000000
40
0.0447511791
40
0.1496617630
40
0.3084069250
40
0.5114254892
40
0.7467904150
40
1.0000000000
40
1.0000000000
40
1.0000000000
40
1.0000000000
10
7.9045399991
20
-22.1277738168
30
0.0000000000
10
7.9068032656
20
-22.1210048079
30
0.0000000000
10
7.9061993004
20
-22.0965702530
30
0.0000000000
10
7.9095893307
20
-22.0479028872
30
0.0000000000
10
7.9102657629
20
-21.9732409439
30
0.0000000000
10
7.9118286422
20
-21.8781087105
30
0.0000000000
10
7.9125249285
20
-21.7677761542
30
0.0000000000
10
7.9127736201
20
-21.6898616985
30
0.0000000000
10
7.9128030532
20
-21.6494773637
30
0.0000000000
11
7.9045399991
21
-22.1277738168
31
0.0000000000
11
7.9066431646
21
-22.1064652876
31
0.0000000000
11
7.9085992245
21
-22.0563069106
31
0.0000000000
11
7.9102829408
21
-21.9803708733
31
0.0000000000
11
7.9115925595
21
-21.8832415325
31
0.0000000000
11
7.9124505233
21
-21.7706298874
31
0.0000000000
11
7.9128030532
21
-21.6494773637
31
0.0000000000
0
SPLINE
5
30D
100
AcDbEntity
8
0
100
AcDbSpline
62
9
6
CONTINUOUS
70
0
71
3
72
13
73
9
74
7
42
0.0000001000
43
0.0000001000
44
0.0000000001
12
0.1577707702
22
0.9435803750
32
0.0000000000
13
0.0003449110
23
0.9566793721
33
0.0000000000
40
0.0000000000
40
0.0000000000
40
0.0000000000
40
0.0000000000
40
0.0448247981
40
0.1498254833
40
0.3086663044
40
0.5117002731
40
0.7469689740
40
1.0000000000
40
1.0000000000
40
1.0000000000
40
1.0000000000
10
8.4044638466
20
-22.6270885842
30
0.0000000000
10
8.4068211943
20
-22.6129899843
30
0.0000000000
10
8.4060315949
20
-22.5649051713
30
0.0000000000
10
8.4095703849
20
-22.4667531626
30
0.0000000000
10
8.4101708566
20
-22.3177440648
30
0.0000000000
10
8.4117607107
20
-22.1273746593
30
0.0000000000
10
8.4124467149
20
-21.9068965602
30
0.0000000000
10
8.4126978098
20
-21.7511855323
30
0.0000000000
10
8.4127269008
20
-21.6704956779
30
0.0000000000
11
8.4044638466
21
-22.6270885842
31
0.0000000000
11
8.4065731560
21
-22.5842575291
31
0.0000000000
11
8.4085277856
21
-22.4838245517
31
0.0000000000
11
8.4102099739
21
-22.3318741159
31
0.0000000000
11
8.4115178095
21
-22.1376400966
31
0.0000000000
11
8.4123748980
21
-21.9125650008
31
0.0000000000
11
8.4127269008
21
-21.6704956779
31
0.0000000000
0
SPLINE
5
30E
100
AcDbEntity
8
0
100
AcDbSpline
62
9
6
CONTINUOUS
70
0
71
3
72
12
73
8
74
6
42
0.0000001000
43
0.0000001000
44
0.0000000001
12
0.0007145491
22
-0.7813571074
32
0.0000000000
13
0.7813571090
23
-0.0007128017
33
0.0000000000
40
0.0000000000
40
0.0000000000
40
0.0000000000
40
0.0000000000
40
0.1998485957
40
0.3997897125
40
0.5998222854
40
0.7999110728
40
1.0000000000
40
1.0000000000
40
1.0000000000
40
1.0000000000
10
7.9045399991
20
-22.1277738168
30
0.0000000000
10
7.9045875996
20
-22.1798248571
30
0.0000000000
10
7.9212587570
20
-22.2846689048
30
0.0000000000
10
7.9934925949
20
-22.4259743097
30
0.0000000000
10
8.1059395169
20
-22.5382727014
30
0.0000000000
10
8.2474071399
20
-22.6103980141
30
0.0000000000
10
8.3523502115
20
-22.6270410427
30
0.0000000000
10
8.4044638467
20
-22.6270885840
30
0.0000000000
11
7.9045399991
21
-22.1277738168
31
0.0000000000
11
7.9291196770
21
-22.2819803567
31
0.0000000000
11
8.0001747414
21
-22.4211118692
31
0.0000000000
11
8.1107595648
21
-22.5315642554
31
0.0000000000
11
8.2500627248
21
-22.6025367473
31
0.0000000000
11
8.4044638467
21
-22.6270885840
31
0.0000000000
0
SPLINE
5
30F
100
AcDbEntity
8
0
100
AcDbSpline
62
9
6
CONTINUOUS
70
0
71
3
72
10
73
6
74
4
42
0.0000001000
43
0.0000001000
44
0.0000000001
12
0.0308407996
22
41.9945838615
32
0.0000000000
13
-0.0308408117
23
41.9945838615
33
0.0000000000
40
0.0000000000
40
0.0000000000
40
0.0000000000
40
0.0000000000
40
0.3332886949
40
0.6667106342
40
1.0000000000
40
1.0000000000
40
1.0000000000
40
1.0000000000
10
7.9128030532
20
-21.6494773637
30
0.0000000000
10
7.9162293499
20
-16.9840373481
30
0.0000000000
10
7.9207953974
20
-7.6512902876
30
0.0000000000
10
7.9207954026
20
6.3469086100
30
0.0000000000
10
7.9162293581
20
15.6796650623
30
0.0000000000
10
7.9128030532
20
20.3451144697
30
0.0000000000
11
7.9128030532
21
-21.6494773637
31
0.0000000000
11
7.9196534301
21
-7.6531552188
31
0.0000000000
11
7.9196534366
21
6.3487641495
31
0.0000000000
11
7.9128030532
21
20.3451144697
31
0.0000000000
0
SPLINE
5
310
100
AcDbEntity
8
0
100
AcDbSpline
62
9
6
CONTINUOUS
70
0
71
3
72
10
73
6
74
4
42
0.0000001000
43
0.0000001000
44
0.0000000001
12
0.0308407997
22
42.0366204979
32
0.0000000000
13
-0.0308408119
23
42.0366204979
33
0.0000000000
40
0.0000000000
40
0.0000000000
40
0.0000000000
40
0.0000000000
40
0.3332896861
40
0.6667103140
40
1.0000000000
40
1.0000000000
40
1.0000000000
40
1.0000000000
10
8.4127269008
20
-21.6704956779
30
0.0000000000
10
8.4161532076
20
-17.0003716614
30
0.0000000000
10
8.4207192462
20
-7.6582869980
30
0.0000000000
10
8.4207192445
20
6.3539241074
30
0.0000000000
10
8.4161532090
20
15.6960087691
30
0.0000000000
10
8.4127269008
20
20.3661327839
30
0.0000000000
11
8.4127269008
21
-21.6704956779
31
0.0000000000
11
8.4195772879
21
-7.6601215325
31
0.0000000000
11
8.4195772875
21
6.3557586437
31
0.0000000000
11
8.4127269008
21
20.3661327839
31
0.0000000000
0
SPLINE
5
311
100
AcDbEntity
8
0
100
AcDbSpline
62
9
6
CONTINUOUS
70
0
71
3
72
12
73
8
74
6
42
0.0000001000
43
0.0000001000
44
0.0000000001
12
0.1919554566
22
-0.4628308739
32
0.0000000000
13
0.5010580608
23
-0.0003673235
33
0.0000000000
40
0.0000000000
40
0.0000000000
40
0.0000000000
40
0.0000000000
40
0.0546097796
40
0.1986040208
40
0.4190274305
40
0.6949392928
40
1.0000000000
40
1.0000000000
40
1.0000000000
40
1.0000000000
10
7.9128030532
20
-21.6494773637
30
0.0000000000
10
7.9162972683
20
-21.6579023944
30
0.0000000000
10
7.9604722849
20
-21.6526862490
30
0.0000000000
10
8.0204596615
20
-21.6659518483
30
0.0000000000
10
8.1323559595
20
-21.6657670535
30
0.0000000000
10
8.2642405118
20
-21.6702091184
30
0.0000000000
10
8.3617758587
20
-21.6704583252
30
0.0000000000
10
8.4127269008
20
-21.6704956772
30
0.0000000000
11
7.9128030532
21
-21.6494773637
31
0.0000000000
11
7.9394004137
21
-21.6559036023
31
0.0000000000
11
8.0113155178
21
-21.6617145730
31
0.0000000000
11
8.1216629908
21
-21.6663539154
31
0.0000000000
11
8.2598778238
21
-21.6693774445
31
0.0000000000
11
8.4127269008
21
-21.6704956772
31
0.0000000000
0
SPLINE
5
312
100
AcDbEntity
8
0
100
AcDbSpline
62
9
6
CONTINUOUS
70
0
71
3
72
13
73
9
74
7
42
0.0000001000
43
0.0000001000
44
0.0000000001
12
-0.0003487206
22
0.4784692666
32
0.0000000000
13
-0.1517232156
23
0.4537764059
33
0.0000000000
40
0.0000000000
40
0.0000000000
40
0.0000000000
40
0.0000000000
40
0.2532095848
40
0.4885745110
40
0.6915930751
40
0.8503382364
40
0.9552488215
40
1.0000000000
40
1.0000000000
40
1.0000000000
40
1.0000000000
10
7.9128030532
20
20.3451144697
30
0.0000000000
10
7.9127736201
20
20.3854988045
30
0.0000000000
10
7.9125249286
20
20.4634132602
30
0.0000000000
10
7.9118286420
20
20.5737458164
30
0.0000000000
10
7.9102657635
20
20.6688780500
30
0.0000000000
10
7.9095893292
20
20.7435399928
30
0.0000000000
10
7.9061993031
20
20.7922073598
30
0.0000000000
10
7.9068032633
20
20.8166419132
30
0.0000000000
10
7.9045399991
20
20.8234109228
30
0.0000000000
11
7.9128030532
21
20.3451144697
31
0.0000000000
11
7.9124505233
21
20.4662669933
31
0.0000000000
11
7.9115925595
21
20.5788786386
31
0.0000000000
11
7.9102829408
21
20.6760079793
31
0.0000000000
11
7.9085992245
21
20.7519440163
31
0.0000000000
11
7.9066431646
21
20.8021023939
31
0.0000000000
11
7.9045399991
21
20.8234109228
31
0.0000000000
0
SPLINE
5
313
100
AcDbEntity
8
0
100
AcDbSpline
62
9
6
CONTINUOUS
70
0
71
3
72
9
73
5
74
3
42
0.0000001000
43
0.0000001000
44
0.0000000001
12
-0.0008930157
22
7.9381354533
32
0.0000000000
13
0.0013091044
23
7.9381353956
33
0.0000000000
40
0.0000000000
40
0.0000000000
40
0.0000000000
40
0.0000000000
40
0.5000333258
40
1.0000000000
40
1.0000000000
40
1.0000000000
40
1.0000000000
10
12.4440902245
20
-3.8713531859
30
0.0000000000
10
12.4439413786
20
-2.5482424288
30
0.0000000000
10
12.4438270748
20
0.0978027462
30
0.0000000000
10
12.4440800510
20
2.7438479115
30
0.0000000000
10
12.4442982205
20
4.0667822958
30
0.0000000000
11
12.4440902245
21
-3.8713531859
31
0.0000000000
11
12.4439188994
21
0.0979791069
31
0.0000000000
11
12.4442982205
21
4.0667822958
31
0.0000000000
0
SPLINE
5
314
100
AcDbEntity
8
0
100
AcDbSpline
62
9
6
CONTINUOUS
70
0
71
3
72
13
73
9
74
7
42
0.0000001000
43
0.0000001000
44
0.0000000001
12
-0.0003449115
22
0.9566793721
32
0.0000000000
13
-0.1577707732
23
0.9435803745
33
0.0000000000
40
0.0000000000
40
0.0000000000
40
0.0000000000
40
0.0000000000
40
0.2530310260
40
0.4882997269
40
0.6913336956
40
0.8501745167
40
0.9551752019
40
1.0000000000
40
1.0000000000
40
1.0000000000
40
1.0000000000
10
8.4127269008
20
20.3661327839
30
0.0000000000
10
8.4126978097
20
20.4468226383
30
0.0000000000
10
8.4124467148
20
20.6025336662
30
0.0000000000
10
8.4117607108
20
20.8230117653
30
0.0000000000
10
8.4101708566
20
21.0133811708
30
0.0000000000
10
8.4095703849
20
21.1623902686
30
0.0000000000
10
8.4060315949
20
21.2605422772
30
0.0000000000
10
8.4068211943
20
21.3086270903
30
0.0000000000
10
8.4044638466
20
21.3227256902
30
0.0000000000
11
8.4127269008
21
20.3661327839
31
0.0000000000
11
8.4123748979
21
20.6082021068
31
0.0000000000
11
8.4115178095
21
20.8332772026
31
0.0000000000
11
8.4102099739
21
21.0275112219
31
0.0000000000
11
8.4085277856
21
21.1794616577
31
0.0000000000
11
8.4065731560
21
21.2798946351
31
0.0000000000
11
8.4044638466
21
21.3227256902
31
0.0000000000
0
SPLINE
5
315
100
AcDbEntity
8
0
100
AcDbSpline
62
9
6
CONTINUOUS
70
0
71
3
72
12
73
8
74
6
42
0.0000001000
43
0.0000001000
44
0.0000000001
12
0.1920144796
22
0.4628063375
32
0.0000000000
13
0.5010580120
23
0.0003673725
33
0.0000000000
40
0.0000000000
40
0.0000000000
40
0.0000000000
40
0.0000000000
40
0.0546111894
40
0.1986060630
40
0.4190293170
40
0.6949404067
40
1.0000000000
40
1.0000000000
40
1.0000000000
40
1.0000000000
10
7.9128030533
20
20.3451144697
30
0.0000000000
10
7.9162984330
20
20.3535392712
30
0.0000000000
10
7.9604716406
20
20.3483235165
30
0.0000000000
10
8.0204613445
20
20.3615885835
30
0.0000000000
10
8.1323565198
20
20.3614040265
30
0.0000000000
10
8.2642411358
20
20.3658459527
30
0.0000000000
10
8.3617760497
20
20.3660951902
30
0.0000000000
10
8.4127269008
20
20.3661325470
30
0.0000000000
11
7.9128030533
21
20.3451144697
31
0.0000000000
11
7.9394011565
21
20.3515406306
31
0.0000000000
11
8.0113165773
21
20.3573515290
31
0.0000000000
11
8.1216639637
21
20.3619908160
31
0.0000000000
11
8.2598783968
21
20.3650143148
31
0.0000000000
11
8.4127269008
21
20.3661325470
31
0.0000000000
0
SPLINE
5
316
100
AcDbEntity
8
0
100
AcDbSpline
62
9
6
CONTINUOUS
70
0
71
3
72
9
73
5
74
3
42
0.0000001000
43
0.0000001000
44
0.0000000001
12
-0.0002694148
22
1.5997753820
32
0.0000000000
13
-0.0001799698
23
1.5997753945
33
0.0000000000
40
0.0000000000
40
0.0000000000
40
0.0000000000
40
0.0000000000
40
0.5000306578
40
1.0000000000
40
1.0000000000
40
1.0000000000
40
1.0000000000
10
15.2443148724
20
-5.4711285380
30
0.0000000000
10
15.2442699672
20
-5.2044829591
30
0.0000000000
10
15.2441874910
20
-4.6712244972
30
0.0000000000
10
15.2441202543
20
-4.1379660331
30
0.0000000000
10
15.2440902611
20
-3.8713531492
30
0.0000000000
11
15.2443148724
21
-5.4711285380
31
0.0000000000
11
15.2441912963
21
-4.6711917995
31
0.0000000000
11
15.2440902611
21
-3.8713531492
31
0.0000000000
0
SPLINE
5
317
100
AcDbEntity
8
0
100
AcDbSpline
62
9
6
CONTINUOUS
70
0
71
3
72
9
73
5
74
3
42
0.0000001000
43
0.0000001000
44
0.0000000001
12
-0.0002909950
22
1.3497822110
32
0.0000000000
13
-0.0002273139
23
1.3497822232
33
0.0000000000
40
0.0000000000
40
0.0000000000
40
0.0000000000
40
0.0000000000
40
0.5000196593
40
1.0000000000
40
1.0000000000
40
1.0000000000
40
1.0000000000
10
16.3945739941
20
-6.8209106924
30
0.0000000000
10
16.3945254930
20
-6.5959381453
30
0.0000000000
10
16.3944337330
20
-6.1460107405
30
0.0000000000
10
16.3943528196
20
-5.6960833336
30
0.0000000000
10
16.3943149354
20
-5.4711284750
30
0.0000000000
11
16.3945739941
21
-6.8209106924
31
0.0000000000
11
16.3944364412
21
-6.1459930494
31
0.0000000000
11
16.3943149354
21
-5.4711284750
31
0.0000000000
0
SPLINE
5
318
100
AcDbEntity
8
0
100
AcDbSpline
62
9
6
CONTINUOUS
70
0
71
3
72
9
73
5
74
3
42
0.0000001000
43
0.0000001000
44
0.0000000001
12
-0.0002273139
22
-1.3497821699
32
0.0000000000
13
-0.0002909950
23
-1.3497821577
33
0.0000000000
40
0.0000000000
40
0.0000000000
40
0.0000000000
40
0.0000000000
40
0.4999904091
40
1.0000000000
40
1.0000000000
40
1.0000000000
40
1.0000000000
10
21.4322090533
20
-5.4711285369
30
0.0000000000
10
21.4321711684
20
-5.6960879167
30
0.0000000000
10
21.4320901592
20
-6.1460153058
30
0.0000000000
10
21.4319984381
20
-6.5959426929
30
0.0000000000
10
21.4319499380
20
-6.8209107010
30
0.0000000000
11
21.4322090533
21
-5.4711285369
31
0.0000000000
11
21.4320874828
21
-6.1460066749
31
0.0000000000
11
21.4319499380
21
-6.8209107010
31
0.0000000000
0
SPLINE
5
319
100
AcDbEntity
8
0
100
AcDbSpline
62
9
6
CONTINUOUS
70
0
71
3
72
9
73
5
74
3
42
0.0000001000
43
0.0000001000
44
0.0000000001
12
-0.0001799698
22
-1.5997753585
32
0.0000000000
13
-0.0002694147
23
-1.5997753459
33
0.0000000000
40
0.0000000000
40
0.0000000000
40
0.0000000000
40
0.0000000000
40
0.4999821090
40
1.0000000000
40
1.0000000000
40
1.0000000000
40
1.0000000000
10
22.5824336990
20
-3.8713531827
30
0.0000000000
10
22.5824037052
20
-4.1379728686
30
0.0000000000
10
22.5823364193
20
-4.6712313206
30
0.0000000000
10
22.5822539558
20
-5.2044897705
30
0.0000000000
10
22.5822090517
20
-5.4711285354
30
0.0000000000
11
22.5824336990
21
-3.8713531827
31
0.0000000000
11
22.5823326276
21
-4.6712122391
31
0.0000000000
11
22.5822090517
21
-5.4711285354
31
0.0000000000
0
SPLINE
5
31A
100
AcDbEntity
8
0
100
AcDbSpline
62
9
6
CONTINUOUS
70
0
71
3
72
12
73
8
74
6
42
0.0000001000
43
0.0000001000
44
0.0000000001
12
0.0007145531
22
0.7813571046
32
0.0000000000
13
0.7813571062
23
0.0007128139
33
0.0000000000
40
0.0000000000
40
0.0000000000
40
0.0000000000
40
0.0000000000
40
0.1998532782
40
0.3997964689
40
0.5998286573
40
0.7999149934
40
1.0000000000
40
1.0000000000
40
1.0000000000
40
1.0000000000
10
7.9045399991
20
20.8234109228
30
0.0000000000
10
7.9045876010
20
20.8754631824
30
0.0000000000
10
7.9212594447
20
20.9803090397
30
0.0000000000
10
7.9934953608
20
21.1216153295
30
0.0000000000
10
8.1059432988
20
21.2339124024
30
0.0000000000
10
8.2474098633
20
21.3060357201
30
0.0000000000
10
8.3523512327
20
21.3226781491
30
0.0000000000
10
8.4044638466
20
21.3227256902
30
0.0000000000
11
7.9045399991
21
20.8234109228
31
0.0000000000
11
7.9291208262
21
20.9776209838
31
0.0000000000
11
8.0001778883
21
21.1167532950
31
0.0000000000
11
8.1107636454
21
21.2272043205
31
0.0000000000
11
8.2500656750
21
21.2981748108
31
0.0000000000
11
8.4044638466
21
21.3227256902
31
0.0000000000
0
SPLINE
5
31B
100
AcDbEntity
8
0
100
AcDbSpline
62
9
6
CONTINUOUS
70
0
71
3
72
9
73
5
74
3
42
0.0000001000
43
0.0000001000
44
0.0000000001
12
0.0013091044
22
-7.9381354181
32
0.0000000000
13
-0.0008930157
23
-7.9381354758
33
0.0000000000
40
0.0000000000
40
0.0000000000
40
0.0000000000
40
0.0000000000
40
0.5000319138
40
1.0000000000
40
1.0000000000
40
1.0000000000
40
1.0000000000
10
25.3822257166
20
4.0667823062
30
0.0000000000
10
25.3824439146
20
2.7436752912
30
0.0000000000
10
25.3826968452
20
0.0976301184
30
0.0000000000
10
25.3825825408
20
-2.5484150640
30
0.0000000000
10
25.3824337143
20
-3.8713531980
30
0.0000000000
11
25.3822257166
21
4.0667823062
31
0.0000000000
11
25.3826050409
21
0.0974612253
31
0.0000000000
11
25.3824337143
21
-3.8713531980
31
0.0000000000
0
SPLINE
5
31C
100
AcDbEntity
8
0
100
AcDbSpline
62
7
6
CONTINUOUS
70
0
71
3
72
14
73
10
74
8
42
0.0000001000
43
0.0000001000
44
0.0000000001
12
-0.5016424734
22
0.5019447730
32
0.0000000000
13
-0.5017936460
23
0.5017936460
33
0.0000000000
40
0.0000000000
40
0.0000000000
40
0.0000000000
40
0.0000000000
40
0.1849110086
40
0.3706603886
40
0.5494971938
40
0.7136453477
40
0.8537705355
40
0.9563039956
40
1.0000000000
40
1.0000000000
40
1.0000000000
40
1.0000000000
10
25.8822970371
20
-4.3749392704
30
0.0000000000
10
25.8513772985
20
-4.3440008990
30
0.0000000000
10
25.7894183871
20
-4.2819631823
30
0.0000000000
10
25.6976243888
20
-4.1899343291
30
0.0000000000
10
25.6093977313
20
-4.1012850399
30
0.0000000000
10
25.5287583508
20
-4.0203084773
30
0.0000000000
10
25.4612528596
20
-3.9517331028
30
0.0000000000
10
25.4131663300
20
-3.9040131874
30
0.0000000000
10
25.3896819738
20
-3.8786014574
30
0.0000000000
10
25.3823731813
20
-3.8712926650
30
0.0000000000
11
25.8822970371
21
-4.3749392704
31
0.0000000000
11
25.7895684232
21
-4.2820935829
31
0.0000000000
11
25.6964873364
21
-4.1887591246
31
0.0000000000
11
25.6069417555
21
-4.0988267772
31
0.0000000000
11
25.5248350442
21
-4.0161973166
31
0.0000000000
11
25.4548541461
21
-3.9455519269
31
0.0000000000
11
25.4038127448
21
-3.8936952802
31
0.0000000000
11
25.3823731813
21
-3.8712926650
31
0.0000000000
0
SPLINE
5
31D
100
AcDbEntity
8
0
100
AcDbSpline
62
7
6
CONTINUOUS
70
0
71
3
72
14
73
10
74
8
42
0.0000001000
43
0.0000001000
44
0.0000000001
12
-0.5023950762
22
-0.5027106624
32
0.0000000000
13
-0.5025528941
23
-0.5025528941
33
0.0000000000
40
0.0000000000
40
0.0000000000
40
0.0000000000
40
0.0000000000
40
0.1849644511
40
0.3706425068
40
0.5493496229
40
0.7133936906
40
0.8535152718
40
0.9561626727
40
1.0000000000
40
1.0000000000
40
1.0000000000
40
1.0000000000
10
25.8820628122
20
4.5718434203
30
0.0000000000
10
25.8510877357
20
4.5408488864
30
0.0000000000
10
25.7890486492
20
4.4787097701
30
0.0000000000
10
25.6971777473
20
4.3865290257
30
0.0000000000
10
25.6089486337
20
4.2977178340
30
0.0000000000
10
25.5282893942
20
4.2165944522
30
0.0000000000
10
25.4609075356
20
4.1476955147
30
0.0000000000
10
25.4126186815
20
4.0999356136
30
0.0000000000
10
25.3894824835
20
4.0740390731
30
0.0000000000
10
25.3821389583
20
4.0666955479
30
0.0000000000
11
25.8820628122
21
4.5718434203
31
0.0000000000
11
25.7891816431
21
4.4788158067
31
0.0000000000
11
25.6960375883
21
4.3853340785
31
0.0000000000
11
25.6064933852
21
4.2952595078
31
0.0000000000
11
25.5244178448
21
4.2124550177
31
0.0000000000
11
25.4544699412
21
4.1415690331
31
0.0000000000
11
25.4034683599
21
4.0894056593
31
0.0000000000
11
25.3821389583
21
4.0666955479
31
0.0000000000
0
SPLINE
5
31E
100
AcDbEntity
8
0
100
AcDbSpline
62
7
6
CONTINUOUS
70
0
71
3
72
14
73
10
74
8
42
0.0000001000
43
0.0000001000
44
0.0000000001
12
0.5023950762
22
-0.5027106624
32
0.0000000000
13
0.5025528941
23
-0.5025528941
33
0.0000000000
40
0.0000000000
40
0.0000000000
40
0.0000000000
40
0.0000000000
40
0.1849644511
40
0.3706425068
40
0.5493496229
40
0.7133936906
40
0.8535152718
40
0.9561626727
40
1.0000000000
40
1.0000000000
40
1.0000000000
40
1.0000000000
10
11.9444611145
20
4.5718434203
30
0.0000000000
10
11.9754361910
20
4.5408488864
30
0.0000000000
10
12.0374752775
20
4.4787097701
30
0.0000000000
10
12.1293461794
20
4.3865290257
30
0.0000000000
10
12.2175752930
20
4.2977178340
30
0.0000000000
10
12.2982345325
20
4.2165944522
30
0.0000000000
10
12.3656163911
20
4.1476955147
30
0.0000000000
10
12.4139052452
20
4.0999356136
30
0.0000000000
10
12.4370414432
20
4.0740390731
30
0.0000000000
10
12.4443849684
20
4.0666955479
30
0.0000000000
11
11.9444611145
21
4.5718434203
31
0.0000000000
11
12.0373422836
21
4.4788158067
31
0.0000000000
11
12.1304863384
21
4.3853340785
31
0.0000000000
11
12.2200305415
21
4.2952595078
31
0.0000000000
11
12.3021060819
21
4.2124550177
31
0.0000000000
11
12.3720539855
21
4.1415690331
31
0.0000000000
11
12.4230555668
21
4.0894056593
31
0.0000000000
11
12.4443849684
21
4.0666955479
31
0.0000000000
0
SPLINE
5
31F
100
AcDbEntity
8
0
100
AcDbSpline
62
7
6
CONTINUOUS
70
0
71
3
72
14
73
10
74
8
42
0.0000001000
43
0.0000001000
44
0.0000000001
12
0.5016424820
22
0.5019447817
32
0.0000000000
13
0.5017936546
23
0.5017936546
33
0.0000000000
40
0.0000000000
40
0.0000000000
40
0.0000000000
40
0.0000000000
40
0.1840282935
40
0.3697929399
40
0.5491738164
40
0.7139423753
40
0.8543491809
40
0.9566434919
40
1.0000000000
40
1.0000000000
40
1.0000000000
40
1.0000000000
10
11.9442268896
20
-4.3749392704
30
0.0000000000
10
11.9749990262
20
-4.3441485899
30
0.0000000000
10
12.0368130482
20
-4.2822561685
30
0.0000000000
10
12.1285533725
20
-4.1902818145
30
0.0000000000
10
12.2169769553
20
-4.1014347987
30
0.0000000000
10
12.2978584164
20
-4.0202165212
30
0.0000000000
10
12.3654719881
20
-3.9515275591
30
0.0000000000
10
12.4135103348
20
-3.9038587225
30
0.0000000000
10
12.4368987385
20
-3.8785446719
30
0.0000000000
10
12.4441507454
20
-3.8712926650
30
0.0000000000
11
11.9442268896
21
-4.3749392704
31
0.0000000000
11
12.0365130080
21
-4.2825369655
31
0.0000000000
11
12.1296020685
21
-4.1891951557
31
0.0000000000
11
12.2194203324
21
-4.0989894653
31
0.0000000000
11
12.3018373625
21
-4.0160476933
31
0.0000000000
11
12.3719584205
21
-3.9452598407
31
0.0000000000
11
12.4228795751
21
-3.8935229638
31
0.0000000000
11
12.4441507454
21
-3.8712926650
31
0.0000000000
0
SPLINE
5
320
100
AcDbEntity
8
0
100
AcDbSpline
62
7
6
CONTINUOUS
70
0
71
3
72
14
73
10
74
8
42
0.0000001000
43
0.0000001000
44
0.0000000001
12
0.5016424734
22
0.5019447730
32
0.0000000000
13
0.5017936460
23
0.5017936460
33
0.0000000000
40
0.0000000000
40
0.0000000000
40
0.0000000000
40
0.0000000000
40
0.1849110086
40
0.3706603886
40
0.5494971938
40
0.7136453477
40
0.8537705355
40
0.9563039956
40
1.0000000000
40
1.0000000000
40
1.0000000000
40
1.0000000000
10
14.7442268896
20
-4.3749392704
30
0.0000000000
10
14.7751466282
20
-4.3440008990
30
0.0000000000
10
14.8371055396
20
-4.2819631823
30
0.0000000000
10
14.9288995379
20
-4.1899343291
30
0.0000000000
10
15.0171261954
20
-4.1012850399
30
0.0000000000
10
15.0977655759
20
-4.0203084773
30
0.0000000000
10
15.1652710671
20
-3.9517331028
30
0.0000000000
10
15.2133575967
20
-3.9040131874
30
0.0000000000
10
15.2368419529
20
-3.8786014574
30
0.0000000000
10
15.2441507454
20
-3.8712926650
30
0.0000000000
11
14.7442268896
21
-4.3749392704
31
0.0000000000
11
14.8369555035
21
-4.2820935829
31
0.0000000000
11
14.9300365903
21
-4.1887591246
31
0.0000000000
11
15.0195821712
21
-4.0988267772
31
0.0000000000
11
15.1016888825
21
-4.0161973166
31
0.0000000000
11
15.1716697806
21
-3.9455519269
31
0.0000000000
11
15.2227111820
21
-3.8936952802
31
0.0000000000
11
15.2441507454
21
-3.8712926650
31
0.0000000000
0
SPLINE
5
321
100
AcDbEntity
8
0
100
AcDbSpline
62
7
6
CONTINUOUS
70
0
71
3
72
14
73
10
74
8
42
0.0000001000
43
0.0000001000
44
0.0000000001
12
0.5024454614
22
0.5027617739
32
0.0000000000
13
0.5026036425
23
0.5026036425
33
0.0000000000
40
0.0000000000
40
0.0000000000
40
0.0000000000
40
0.0000000000
40
0.1836802798
40
0.3693753796
40
0.5488676399
40
0.7138104524
40
0.8543430602
40
0.9566487803
40
1.0000000000
40
1.0000000000
40
1.0000000000
40
1.0000000000
10
14.7444795242
20
-5.9762879866
30
0.0000000000
10
14.7752426318
20
-5.9455055121
30
0.0000000000
10
14.8370753595
20
-5.8835720770
30
0.0000000000
10
14.9288732278
20
-5.7914611938
30
0.0000000000
10
15.0173900703
20
-5.7023500345
30
0.0000000000
10
15.0984047640
20
-5.6208635962
30
0.0000000000
10
15.1659345088
20
-5.5517753034
30
0.0000000000
10
15.2141674933
20
-5.5040881353
30
0.0000000000
10
15.2371405509
20
-5.4783028594
30
0.0000000000
10
15.2444033779
20
-5.4710400324
30
0.0000000000
11
14.7444795242
21
-5.9762879866
31
0.0000000000
11
14.8367245167
21
-5.8838962820
31
0.0000000000
11
14.9298844326
21
-5.7903944439
31
0.0000000000
11
15.0198268870
21
-5.6999107823
31
0.0000000000
11
15.1023534965
21
-5.6166373570
31
0.0000000000
11
15.1725034600
21
-5.5455261897
31
0.0000000000
11
15.2233262782
21
-5.4935173916
31
0.0000000000
11
15.2444033779
21
-5.4710400324
31
0.0000000000
0
SPLINE
5
322
100
AcDbEntity
8
0
100
AcDbSpline
62
7
6
CONTINUOUS
70
0
71
3
72
14
73
10
74
8
42
0.0000001000
43
0.0000001000
44
0.0000000001
12
0.5024454345
22
0.5027617469
32
0.0000000000
13
0.5026036156
23
0.5026036156
33
0.0000000000
40
0.0000000000
40
0.0000000000
40
0.0000000000
40
0.0000000000
40
0.1849679610
40
0.3706412214
40
0.5493396619
40
0.7133767626
40
0.8534980779
40
0.9561530711
40
1.0000000000
40
1.0000000000
40
1.0000000000
40
1.0000000000
10
15.8944795242
20
-5.9762879866
30
0.0000000000
10
15.9254582934
20
-5.9452897148
30
0.0000000000
10
15.9875027027
20
-5.8831438229
30
0.0000000000
10
16.0793787591
20
-5.7909529864
30
0.0000000000
10
16.1676080351
20
-5.7021310191
30
0.0000000000
10
16.2482686063
20
-5.6209978386
30
0.0000000000
10
16.3156422028
20
-5.5520773995
30
0.0000000000
10
16.3639446329
20
-5.5043146791
30
0.0000000000
10
16.3870575029
20
-5.4783859074
30
0.0000000000
10
16.3944033779
20
-5.4710400324
30
0.0000000000
11
15.8944795242
21
-5.9762879866
31
0.0000000000
11
15.9873708547
21
-5.8832482443
31
0.0000000000
11
16.0805191194
21
-5.7897567208
31
0.0000000000
11
16.1700632365
21
-5.6996726847
31
0.0000000000
11
16.2521367010
21
-5.6168565419
31
0.0000000000
11
16.3220824015
21
-5.5459545295
31
0.0000000000
11
16.3730813146
21
-5.4937707044
31
0.0000000000
11
16.3944033779
21
-5.4710400324
31
0.0000000000
0
SPLINE
5
323
100
AcDbEntity
8
0
100
AcDbSpline
62
7
6
CONTINUOUS
70
0
71
3
72
14
73
10
74
8
42
0.0000001000
43
0.0000001000
44
0.0000000001
12
-0.5024454614
22
0.5027617739
32
0.0000000000
13
-0.5026036425
23
0.5026036425
33
0.0000000000
40
0.0000000000
40
0.0000000000
40
0.0000000000
40
0.0000000000
40
0.1836802798
40
0.3693753796
40
0.5488676399
40
0.7138104524
40
0.8543430602
40
0.9566487803
40
1.0000000000
40
1.0000000000
40
1.0000000000
40
1.0000000000
10
21.9320444025
20
-5.9762879866
30
0.0000000000
10
21.9012812949
20
-5.9455055121
30
0.0000000000
10
21.8394485672
20
-5.8835720770
30
0.0000000000
10
21.7476506989
20
-5.7914611938
30
0.0000000000
10
21.6591338564
20
-5.7023500345
30
0.0000000000
10
21.5781191627
20
-5.6208635962
30
0.0000000000
10
21.5105894179
20
-5.5517753034
30
0.0000000000
10
21.4623564334
20
-5.5040881353
30
0.0000000000
10
21.4393833758
20
-5.4783028594
30
0.0000000000
10
21.4321205488
20
-5.4710400324
30
0.0000000000
11
21.9320444025
21
-5.9762879866
31
0.0000000000
11
21.8397994100
21
-5.8838962820
31
0.0000000000
11
21.7466394941
21
-5.7903944439
31
0.0000000000
11
21.6566970397
21
-5.6999107823
31
0.0000000000
11
21.5741704303
21
-5.6166373570
31
0.0000000000
11
21.5040204667
21
-5.5455261897
31
0.0000000000
11
21.4531976485
21
-5.4935173916
31
0.0000000000
11
21.4321205488
21
-5.4710400324
31
0.0000000000
0
SPLINE
5
324
100
AcDbEntity
8
0
100
AcDbSpline
62
7
6
CONTINUOUS
70
0
71
3
72
14
73
10
74
8
42
0.0000001000
43
0.0000001000
44
0.0000000001
12
-0.5024454345
22
0.5027617469
32
0.0000000000
13
-0.5026036156
23
0.5026036156
33
0.0000000000
40
0.0000000000
40
0.0000000000
40
0.0000000000
40
0.0000000000
40
0.1849679610
40
0.3706412214
40
0.5493396619
40
0.7133767626
40
0.8534980779
40
0.9561530711
40
1.0000000000
40
1.0000000000
40
1.0000000000
40
1.0000000000
10
23.0820444025
20
-5.9762879866
30
0.0000000000
10
23.0510656333
20
-5.9452897148
30
0.0000000000
10
22.9890212240
20
-5.8831438229
30
0.0000000000
10
22.8971451676
20
-5.7909529864
30
0.0000000000
10
22.8089158916
20
-5.7021310191
30
0.0000000000
10
22.7282553204
20
-5.6209978386
30
0.0000000000
10
22.6608817239
20
-5.5520773995
30
0.0000000000
10
22.6125792938
20
-5.5043146791
30
0.0000000000
10
22.5894664238
20
-5.4783859074
30
0.0000000000
10
22.5821205488
20
-5.4710400324
30
0.0000000000
11
23.0820444025
21
-5.9762879866
31
0.0000000000
11
22.9891530720
21
-5.8832482443
31
0.0000000000
11
22.8960048073
21
-5.7897567208
31
0.0000000000
11
22.8064606902
21
-5.6996726847
31
0.0000000000
11
22.7243872257
21
-5.6168565419
31
0.0000000000
11
22.6544415252
21
-5.5459545295
31
0.0000000000
11
22.6034426121
21
-5.4937707044
31
0.0000000000
11
22.5821205488
21
-5.4710400324
31
0.0000000000
0
SPLINE
5
325
100
AcDbEntity
8
0
100
AcDbSpline
62
7
6
CONTINUOUS
70
0
71
3
72
14
73
10
74
8
42
0.0000001000
43
0.0000001000
44
0.0000000001
12
-0.5016424820
22
0.5019447817
32
0.0000000000
13
-0.5017936546
23
0.5017936546
33
0.0000000000
40
0.0000000000
40
0.0000000000
40
0.0000000000
40
0.0000000000
40
0.1840282935
40
0.3697929399
40
0.5491738164
40
0.7139423753
40
0.8543491809
40
0.9566434919
40
1.0000000000
40
1.0000000000
40
1.0000000000
40
1.0000000000
10
23.0822970371
20
-4.3749392704
30
0.0000000000
10
23.0515249005
20
-4.3441485899
30
0.0000000000
10
22.9897108785
20
-4.2822561685
30
0.0000000000
10
22.8979705542
20
-4.1902818145
30
0.0000000000
10
22.8095469714
20
-4.1014347987
30
0.0000000000
10
22.7286655103
20
-4.0202165212
30
0.0000000000
10
22.6610519386
20
-3.9515275591
30
0.0000000000
10
22.6130135919
20
-3.9038587225
30
0.0000000000
10
22.5896251882
20
-3.8785446719
30
0.0000000000
10
22.5823731813
20
-3.8712926650
30
0.0000000000
11
23.0822970371
21
-4.3749392704
31
0.0000000000
11
22.9900109187
21
-4.2825369655
31
0.0000000000
11
22.8969218582
21
-4.1891951557
31
0.0000000000
11
22.8071035943
21
-4.0989894653
31
0.0000000000
11
22.7246865642
21
-4.0160476933
31
0.0000000000
11
22.6545655062
21
-3.9452598407
31
0.0000000000
11
22.6036443516
21
-3.8935229638
31
0.0000000000
11
22.5823731813
21
-3.8712926650
31
0.0000000000
0
SPLINE
5
326
100
AcDbEntity
8
0
100
AcDbSpline
62
7
6
CONTINUOUS
70
0
71
3
72
14
73
10
74
8
42
0.0000001000
43
0.0000001000
44
0.0000000001
12
-0.3550895145
22
-0.6166388785
32
0.0000000000
13
-0.5029940132
23
-0.5033180829
33
0.0000000000
40
0.0000000000
40
0.0000000000
40
0.0000000000
40
0.0000000000
40
0.0448942086
40
0.1479747187
40
0.2883693238
40
0.4525817965
40
0.6311838250
40
0.8162692160
40
1.0000000000
40
1.0000000000
40
1.0000000000
40
1.0000000000
10
16.3945739834
20
-6.8209107096
30
0.0000000000
10
16.3892601625
20
-6.8301385478
30
0.0000000000
10
16.3615888883
20
-6.8531152536
30
0.0000000000
10
16.3165014644
20
-6.9039554052
30
0.0000000000
10
16.2474846397
20
-6.9720427481
30
0.0000000000
10
16.1672932506
20
-7.0538128032
30
0.0000000000
10
16.0789493735
20
-7.1425829249
30
0.0000000000
10
15.9873757503
20
-7.2346225162
30
0.0000000000
10
15.9255674065
20
-7.2965313297
30
0.0000000000
10
15.8947622451
20
-7.3273563384
30
0.0000000000
11
16.3945739834
21
-6.8209107096
31
0.0000000000
11
16.3728871544
21
-6.8443668102
31
0.0000000000
11
16.3217711157
21
-6.8969712621
31
0.0000000000
11
16.2517323808
21
-6.9682082423
31
0.0000000000
11
16.1695716454
21
-7.0512939245
31
0.0000000000
11
16.0800402322
21
-7.1414906708
31
0.0000000000
11
15.9871210025
21
-7.2348246567
31
0.0000000000
11
15.8947622451
21
-7.3273563384
31
0.0000000000
0
SPLINE
5
327
100
AcDbEntity
8
0
100
AcDbSpline
62
7
6
CONTINUOUS
70
0
71
3
72
14
73
10
74
8
42
0.0000001000
43
0.0000001000
44
0.0000000001
12
0.3550895145
22
-0.6166388785
32
0.0000000000
13
0.5029940132
23
-0.5033180829
33
0.0000000000
40
0.0000000000
40
0.0000000000
40
0.0000000000
40
0.0000000000
40
0.0448942104
40
0.1479747217
40
0.2883693253
40
0.4525817949
40
0.6311838206
40
0.8162692116
40
1.0000000000
40
1.0000000000
40
1.0000000000
40
1.0000000000
10
21.4319499433
20
-6.8209107096
30
0.0000000000
10
21.4372637644
20
-6.8301385481
30
0.0000000000
10
21.4649350392
20
-6.8531152543
30
0.0000000000
10
21.5100224633
20
-6.9039554062
30
0.0000000000
10
21.5790392875
20
-6.9720427486
30
0.0000000000
10
21.6592306754
20
-7.0538128025
30
0.0000000000
10
21.7475745515
20
-7.1425829231
30
0.0000000000
10
21.8391481749
20
-7.2346225147
30
0.0000000000
10
21.9009565194
20
-7.2965313290
30
0.0000000000
10
21.9317616816
20
-7.3273563384
30
0.0000000000
11
21.4319499433
21
-6.8209107096
31
0.0000000000
11
21.4536367732
21
-6.8443668111
31
0.0000000000
11
21.5047528125
21
-6.8969712636
31
0.0000000000
11
21.5747915467
21
-6.9682082431
31
0.0000000000
11
21.6569522805
21
-7.0512939237
31
0.0000000000
11
21.7464836923
21
-7.1414906686
31
0.0000000000
11
21.8394029220
21
-7.2348246545
31
0.0000000000
11
21.9317616816
21
-7.3273563384
31
0.0000000000
0
SPLINE
5
328
100
AcDbEntity
8
0
100
AcDbSpline
62
7
6
CONTINUOUS
70
0
71
3
72
10
73
6
74
4
42
0.0000001000
43
0.0000001000
44
0.0000000001
12
3.9999639244
22
0.0374577365
32
0.0000000000
13
4.0000360299
23
0.0287443498
33
0.0000000000
40
0.0000000000
40
0.0000000000
40
0.0000000000
40
0.0000000000
40
0.3364708827
40
0.6698115681
40
1.0000000000
40
1.0000000000
40
1.0000000000
40
1.0000000000
10
-19.1628955440
20
-23.3153480690
30
0.0000000000
10
-18.7142717465
20
-23.3111469231
30
0.0000000000
10
-17.8211949880
20
-23.3030708619
30
0.0000000000
10
-16.4878616086
20
-23.2919362046
30
0.0000000000
10
-15.6031507521
20
-23.2852117336
30
0.0000000000
10
-15.1628955440
20
-23.2820480497
30
0.0000000000
11
-19.1628955440
21
-23.3153480690
31
0.0000000000
11
-17.8170200631
21
-23.3031890525
31
0.0000000000
11
-16.4836572570
21
-23.2920686102
31
0.0000000000
11
-15.1628955440
21
-23.2820480497
31
0.0000000000
0
SPLINE
5
329
100
AcDbEntity
8
0
100
AcDbSpline
62
7
6
CONTINUOUS
70
0
71
3
72
10
73
6
74
4
42
0.0000001000
43
0.0000001000
44
0.0000000001
12
3.9999639244
22
-0.0374577365
32
0.0000000000
13
4.0000360299
23
-0.0287443498
33
0.0000000000
40
0.0000000000
40
0.0000000000
40
0.0000000000
40
0.0000000000
40
0.3364708827
40
0.6698115681
40
1.0000000000
40
1.0000000000
40
1.0000000000
40
1.0000000000
10
-19.1628955440
20
22.0109851750
30
0.0000000000
10
-18.7142717465
20
22.0067840291
30
0.0000000000
10
-17.8211949880
20
21.9987079679
30
0.0000000000
10
-16.4878616086
20
21.9875733106
30
0.0000000000
10
-15.6031507521
20
21.9808488396
30
0.0000000000
10
-15.1628955440
20
21.9776851556
30
0.0000000000
11
-19.1628955440
21
22.0109851750
31
0.0000000000
11
-17.8170200631
21
21.9988261584
31
0.0000000000
11
-16.4836572570
21
21.9877057162
31
0.0000000000
11
-15.1628955440
21
21.9776851556
31
0.0000000000
0
SPLINE
5
32A
100
AcDbEntity
8
0
100
AcDbSpline
62
9
6
CONTINUOUS
70
0
71
3
72
10
73
6
74
4
42
0.0000001000
43
0.0000001000
44
0.0000000001
12
0.0000000000
22
-0.1316244535
32
0.0000000000
13
0.1316178686
23
-0.0013166016
33
0.0000000000
40
0.0000000000
40
0.0000000000
40
0.0000000000
40
0.0000000000
40
0.1244046038
40
0.4769318654
40
1.0000000000
40
1.0000000000
40
1.0000000000
40
1.0000000000
10
-18.1628955440
20
12.8718871875
30
0.0000000000
10
-18.1628955440
20
12.8664289582
30
0.0000000000
10
-18.1291334792
20
12.8775860461
30
0.0000000000
10
-18.0970629036
20
12.8662215852
30
0.0000000000
10
-18.0542479437
20
12.8698199037
30
0.0000000000
10
-18.0312995727
20
12.8695903462
30
0.0000000000
11
-18.1628955440
21
12.8718871875
31
0.0000000000
11
-18.1465387646
21
12.8711215677
31
0.0000000000
11
-18.1001438731
21
12.8703559583
31
0.0000000000
11
-18.0312995727
21
12.8695903462
31
0.0000000000
0
SPLINE
5
32B
100
AcDbEntity
8
0
100
AcDbSpline
62
7
6
CONTINUOUS
70
0
71
3
72
14
73
10
74
8
42
0.0000001000
43
0.0000001000
44
0.0000000001
12
0.2124183528
22
0.2124183528
32
0.0000000000
13
-0.3003956676
23
-0.0023571426
33
0.0000000000
40
0.0000000000
40
0.0000000000
40
0.0000000000
40
0.0000000000
40
0.1513188738
40
0.2818786872
40
0.3940475863
40
0.5043907141
40
0.6381355678
40
0.8048762470
40
1.0000000000
40
1.0000000000
40
1.0000000000
40
1.0000000000
10
-10.9723820554
20
-21.6616679584
30
0.0000000000
10
-10.9616677534
20
-21.6509536564
30
0.0000000000
10
-10.9430716693
20
-21.6294780632
30
0.0000000000
10
-10.9242393508
20
-21.5942951989
30
0.0000000000
10
-10.9201364949
20
-21.5575899753
30
0.0000000000
10
-10.9381142584
20
-21.5243546052
30
0.0000000000
10
-10.9745045876
20
-21.5026079702
30
0.0000000000
10
-11.0229981644
20
-21.4906507161
30
0.0000000000
10
-11.0593725727
20
-21.4886910430
30
0.0000000000
10
-11.0789106827
20
-21.4888443545
30
0.0000000000
11
-10.9723820554
21
-21.6616679584
31
0.0000000000
11
-10.9431789367
21
-21.6268324784
31
0.0000000000
11
-10.9259005943
21
-21.5916226674
31
0.0000000000
11
-10.9236257608
21
-21.5580034537
31
0.0000000000
11
-10.9388345903
21
-21.5285508464
31
0.0000000000
11
-10.9721336352
21
-21.5060694303
31
0.0000000000
11
-11.0204263567
21
-21.4927730750
31
0.0000000000
11
-11.0789106827
21
-21.4888443545
31
0.0000000000
0
SPLINE
5
32C
100
AcDbEntity
8
0
100
AcDbSpline
62
7
6
CONTINUOUS
70
0
71
3
72
10
73
6
74
4
42
0.0000001000
43
0.0000001000
44
0.0000000001
12
4.0000789575
22
0.0760029924
32
0.0000000000
13
3.9999099472
23
0.0844306542
33
0.0000000000
40
0.0000000000
40
0.0000000000
40
0.0000000000
40
0.0000000000
40
0.3364642801
40
0.6698048248
40
1.0000000000
40
1.0000000000
40
1.0000000000
40
1.0000000000
10
-19.1628955440
20
-23.8320900088
30
0.0000000000
10
-18.7142676484
20
-23.8235659114
30
0.0000000000
10
-17.8211821416
20
-23.8063203997
30
0.0000000000
10
-16.4878477969
20
-23.7796826211
30
0.0000000000
10
-15.6031458660
20
-23.7613647867
30
0.0000000000
10
-15.1628955440
20
-23.7520719218
30
0.0000000000
11
-19.1628955440
21
-23.8320900088
31
0.0000000000
11
-17.8170200631
21
-23.8060894280
31
0.0000000000
11
-16.4836572570
21
-23.7794366293
31
0.0000000000
11
-15.1628955440
21
-23.7520719218
31
0.0000000000
0
SPLINE
5
32D
100
AcDbEntity
8
0
100
AcDbSpline
62
9
6
CONTINUOUS
70
0
71
3
72
13
73
9
74
7
42
0.0000001000
43
0.0000001000
44
0.0000000001
12
0.0000892306
22
-0.4698760805
32
0.0000000000
13
-0.4698760828
23
0.0000763065
33
0.0000000000
40
0.0000000000
40
0.0000000000
40
0.0000000000
40
0.0000000000
40
0.1550483742
40
0.3243559312
40
0.5006146398
40
0.6768416552
40
0.8457851961
40
1.0000000000
40
1.0000000000
40
1.0000000000
40
1.0000000000
10
-10.3594050627
20
18.3478185530
30
0.0000000000
10
-10.3594004510
20
18.3235340455
30
0.0000000000
10
-10.3656330739
20
18.2725251783
30
0.0000000000
10
-10.3947980095
20
18.1987733653
30
0.0000000000
10
-10.4447498634
20
18.1327536026
30
0.0000000000
10
-10.5108192481
20
18.0829639432
30
0.0000000000
10
-10.5844331970
20
18.0539898045
30
0.0000000000
10
-10.6352511134
20
18.0478146305
30
0.0000000000
10
-10.6594050627
20
18.0478185530
30
0.0000000000
11
-10.3594050627
21
18.3478185530
31
0.0000000000
11
-10.3682527841
21
18.2755042823
31
0.0000000000
11
-10.3975014569
21
18.2015226220
31
0.0000000000
11
-10.4474831367
21
18.1354851848
31
0.0000000000
11
-10.5136046390
21
18.0856395039
31
0.0000000000
11
-10.5874738585
21
18.0565719186
31
0.0000000000
11
-10.6594050627
21
18.0478185530
31
0.0000000000
0
SPLINE
5
32E
100
AcDbEntity
8
0
100
AcDbSpline
62
9
6
CONTINUOUS
70
0
71
3
72
13
73
9
74
7
42
0.0000001000
43
0.0000001000
44
0.0000000001
12
0.0000448149
22
0.4698741839
32
0.0000000000
13
-0.4698741838
23
0.0000462340
33
0.0000000000
40
0.0000000000
40
0.0000000000
40
0.0000000000
40
0.0000000000
40
0.1477567359
40
0.3150474619
40
0.4926713900
40
0.6719442102
40
0.8433749465
40
1.0000000000
40
1.0000000000
40
1.0000000000
40
1.0000000000
10
-10.3594050627
20
-19.6521814470
30
0.0000000000
10
-10.3594028555
20
-19.6290390884
30
0.0000000000
10
-10.3651613634
20
-19.5795166916
30
0.0000000000
10
-10.3928958854
20
-19.5065773753
30
0.0000000000
10
-10.4421805110
20
-19.4395660300
30
0.0000000000
10
-10.5086379270
20
-19.3884149584
30
0.0000000000
10
-10.5832798229
20
-19.3585440011
30
0.0000000000
10
-10.6348737063
20
-19.3521838608
30
0.0000000000
10
-10.6594050627
20
-19.3521814470
30
0.0000000000
11
-10.3594050627
21
-19.6521814470
31
0.0000000000
11
-10.3674387323
21
-19.5832207405
31
0.0000000000
11
-10.3953753209
21
-19.5097470284
31
0.0000000000
11
-10.4448337629
21
-19.4425191761
31
0.0000000000
11
-10.5115798931
21
-19.3911323852
31
0.0000000000
11
-10.5863669140
21
-19.3612100623
31
0.0000000000
11
-10.6594050627
21
-19.3521814470
31
0.0000000000
0
SPLINE
5
32F
100
AcDbEntity
8
0
100
AcDbSpline
62
9
6
CONTINUOUS
70
0
71
3
72
13
73
9
74
7
42
0.0000001000
43
0.0000001000
44
0.0000000001
12
-0.7353273404
22
0.0383581398
32
0.0000000000
13
-0.0308205180
23
0.7356818199
33
0.0000000000
40
0.0000000000
40
0.0000000000
40
0.0000000000
40
0.0000000000
40
0.1664433564
40
0.3332955287
40
0.5000679105
40
0.6668499789
40
0.8336838494
40
1.0000000000
40
1.0000000000
40
1.0000000000
40
1.0000000000
10
-27.2567087890
20
-22.1277738168
30
0.0000000000
10
-27.2975055726
20
-22.1256456643
30
0.0000000000
10
-27.3790219330
20
-22.1112199337
30
0.0000000000
10
-27.4921025178
20
-22.0605165951
30
0.0000000000
10
-27.5895610218
20
-21.9837214474
30
0.0000000000
10
-27.6653230950
20
-21.8854637464
30
0.0000000000
10
-27.7148232640
20
-21.7718875831
30
0.0000000000
10
-27.7283901961
20
-21.6902626198
30
0.0000000000
10
-27.7300988461
20
-21.6494773637
30
0.0000000000
11
-27.2567087890
21
-22.1277738168
31
0.0000000000
11
-27.3773886918
21
-22.1064074813
31
0.0000000000
11
-27.4895027055
21
-22.0561632540
31
0.0000000000
11
-27.5859442768
21
-21.9801459864
31
0.0000000000
11
-27.6609468428
21
-21.8829041821
31
0.0000000000
11
-27.7100045464
21
-21.7702806275
31
0.0000000000
11
-27.7300988461
21
-21.6494773637
31
0.0000000000
0
SPLINE
5
330
100
AcDbEntity
8
0
100
AcDbSpline
62
7
6
CONTINUOUS
70
0
71
3
72
14
73
10
74
8
42
0.0000001000
43
0.0000001000
44
0.0000000001
12
0.3003880742
22
-0.0023570830
32
0.0000000000
13
-0.2124129833
23
0.2124129833
33
0.0000000000
40
0.0000000000
40
0.0000000000
40
0.0000000000
40
0.0000000000
40
0.1908229891
40
0.3555840829
40
0.4897926730
40
0.6018246240
40
0.7142482025
40
0.8446055694
40
1.0000000000
40
1.0000000000
40
1.0000000000
40
1.0000000000
10
-11.0789106827
20
20.1844814605
30
0.0000000000
10
-11.0598036993
20
20.1843315319
30
0.0000000000
10
-11.0240680282
20
20.1862066845
30
0.0000000000
10
-10.9760911231
20
20.1977220204
30
0.0000000000
10
-10.9393941499
20
20.2187846275
30
0.0000000000
10
-10.9203397258
20
20.2517426346
30
0.0000000000
10
-10.9238080177
20
20.2887642708
30
0.0000000000
10
-10.9425578332
20
20.3244889005
30
0.0000000000
10
-10.9613794572
20
20.3463024661
30
0.0000000000
10
-10.9723820554
20
20.3573050643
30
0.0000000000
11
-11.0789106827
21
20.1844814605
31
0.0000000000
11
-11.0217094675
21
20.1882116909
31
0.0000000000
11
-10.9738853384
21
20.2009587713
31
0.0000000000
11
-10.9400591377
21
20.2228941313
31
0.0000000000
11
-10.9238778493
21
20.2524028456
31
0.0000000000
11
-10.9255752826
21
20.2861319024
31
0.0000000000
11
-10.9424955235
21
20.3214466731
31
0.0000000000
11
-10.9723820554
21
20.3573050643
31
0.0000000000
0
SPLINE
5
331
100
AcDbEntity
8
0
100
AcDbSpline
62
7
6
CONTINUOUS
70
0
71
3
72
10
73
6
74
4
42
0.0000001000
43
0.0000001000
44
0.0000000001
12
4.0000789575
22
-0.0760029924
32
0.0000000000
13
3.9999099472
23
-0.0844306542
33
0.0000000000
40
0.0000000000
40
0.0000000000
40
0.0000000000
40
0.0000000000
40
0.3364642801
40
0.6698048248
40
1.0000000000
40
1.0000000000
40
1.0000000000
40
1.0000000000
10
-19.1628955440
20
22.5277271147
30
0.0000000000
10
-18.7142676484
20
22.5192030174
30
0.0000000000
10
-17.8211821416
20
22.5019575057
30
0.0000000000
10
-16.4878477969
20
22.4753197270
30
0.0000000000
10
-15.6031458660
20
22.4570018927
30
0.0000000000
10
-15.1628955440
20
22.4477090278
30
0.0000000000
11
-19.1628955440
21
22.5277271147
31
0.0000000000
11
-17.8170200631
21
22.5017265340
31
0.0000000000
11
-16.4836572570
21
22.4750737352
31
0.0000000000
11
-15.1628955440
21
22.4477090278
31
0.0000000000
0
SPLINE
5
332
100
AcDbEntity
8
0
100
AcDbSpline
62
9
6
CONTINUOUS
70
0
71
3
72
13
73
9
74
7
42
0.0000001000
43
0.0000001000
44
0.0000000001
12
-0.0017448694
22
-0.5000038097
32
0.0000000000
13
-0.0017455626
23
-0.5000038072
33
0.0000000000
40
0.0000000000
40
0.0000000000
40
0.0000000000
40
0.0000000000
40
0.0268345079
40
0.1201159742
40
0.2851591336
40
0.5076730717
40
0.7567825953
40
1.0000000000
40
1.0000000000
40
1.0000000000
40
1.0000000000
10
-18.3611502369
20
13.0718795721
30
0.0000000000
10
-18.3611658445
20
13.0674071201
30
0.0000000000
10
-18.3612357021
20
13.0473876385
30
0.0000000000
10
-18.3614015167
20
12.9998607540
30
0.0000000000
10
-18.3616812564
20
12.9197203830
30
0.0000000000
10
-18.3620516147
20
12.8136084712
30
0.0000000000
10
-18.3624674638
20
12.6944674193
30
0.0000000000
10
-18.3627540270
20
12.6124123068
30
0.0000000000
10
-18.3628955440
20
12.5718757640
30
0.0000000000
11
-18.3611502369
21
13.0718795721
31
0.0000000000
11
-18.3611970569
21
13.0584622160
31
0.0000000000
11
-18.3613597985
21
13.0118211273
31
0.0000000000
11
-18.3616478171
21
12.9292989190
31
0.0000000000
11
-18.3620361460
21
12.8180411025
31
0.0000000000
11
-18.3624709321
21
12.6934853921
31
0.0000000000
11
-18.3628955440
21
12.5718757640
31
0.0000000000
0
SPLINE
5
333
100
AcDbEntity
8
0
100
AcDbSpline
62
9
6
CONTINUOUS
70
0
71
3
72
10
73
6
74
4
42
0.0000001000
43
0.0000001000
44
0.0000000001
12
0.0000000000
22
0.1316239306
32
0.0000000000
13
0.1316182535
23
0.0012224778
33
0.0000000000
40
0.0000000000
40
0.0000000000
40
0.0000000000
40
0.0000000000
40
0.1243806080
40
0.4768596721
40
1.0000000000
40
1.0000000000
40
1.0000000000
40
1.0000000000
10
-18.1628955440
20
-7.9762500816
30
0.0000000000
10
-18.1628955440
20
-7.9707929267
30
0.0000000000
10
-18.1291363284
20
-7.9820068206
30
0.0000000000
10
-18.0970691507
20
-7.9705126138
30
0.0000000000
10
-18.0542511781
20
-7.9741664161
30
0.0000000000
10
-18.0312995727
20
-7.9739532403
30
0.0000000000
11
-18.1628955440
21
-7.9762500816
31
0.0000000000
11
-18.1465409518
21
-7.9755070037
31
0.0000000000
11
-18.1001533396
21
-7.9746972215
31
0.0000000000
11
-18.0312995727
21
-7.9739532403
31
0.0000000000
0
SPLINE
5
334
100
AcDbEntity
8
0
100
AcDbSpline
62
9
6
CONTINUOUS
70
0
71
3
72
8
73
4
74
2
42
0.0000001000
43
0.0000001000
44
0.0000000001
12
0.0005897588
22
0.0765322374
32
0.0000000000
13
-0.0104740673
23
0.0759757917
33
0.0000000000
40
0.0000000000
40
0.0000000000
40
0.0000000000
40
0.0000000000
40
1.0000000000
40
1.0000000000
40
1.0000000000
40
1.0000000000
10
-16.9602895010
20
12.8602437829
30
0.0000000000
10
-16.9600929147
20
12.8857545287
30
0.0000000000
10
-16.9613968664
20
12.9113147424
30
0.0000000000
10
-16.9648882222
20
12.9366400063
30
0.0000000000
11
-16.9602895010
21
12.8602437829
31
0.0000000000
11
-16.9648882222
21
12.9366400063
31
0.0000000000
0
SPLINE
5
335
100
AcDbEntity
8
0
100
AcDbSpline
62
9
6
CONTINUOUS
70
0
71
3
72
10
73
6
74
4
42
0.0000001000
43
0.0000001000
44
0.0000000001
12
-0.0198617050
22
0.1440709438
32
0.0000000000
13
-0.1451249002
23
0.0012664858
33
0.0000000000
40
0.0000000000
40
0.0000000000
40
0.0000000000
40
0.0000000000
40
0.4572639859
40
0.7918284969
40
1.0000000000
40
1.0000000000
40
1.0000000000
40
1.0000000000
10
-16.9648882222
20
12.9366400063
30
0.0000000000
10
-16.9679155696
20
12.9585994909
30
0.0000000000
10
-16.9760058554
20
12.9963200868
30
0.0000000000
10
-16.9934366376
20
13.0412460073
30
0.0000000000
10
-17.0168779330
20
13.0601482855
30
0.0000000000
10
-17.0269482226
20
13.0602361676
30
0.0000000000
11
-16.9648882222
21
12.9366400063
31
0.0000000000
11
-16.9791643173
21
13.0014491869
31
0.0000000000
11
-17.0009525259
21
13.0448416930
31
0.0000000000
11
-17.0269482226
21
13.0602361676
31
0.0000000000
0
SPLINE
5
336
100
AcDbEntity
8
0
100
AcDbSpline
62
9
6
CONTINUOUS
70
0
71
3
72
11
73
7
74
5
42
0.0000001000
43
0.0000001000
44
0.0000000001
12
0.2661659685
22
-0.0023929311
32
0.0000000000
13
0.2164289948
23
-0.1564157616
33
0.0000000000
40
0.0000000000
40
0.0000000000
40
0.0000000000
40
0.0000000000
40
0.3129437465
40
0.6235732460
40
0.9108526195
40
1.0000000000
40
1.0000000000
40
1.0000000000
40
1.0000000000
10
-18.3611484923
20
13.0718795569
30
0.0000000000
10
-18.3333835005
20
13.0716299393
30
0.0000000000
10
-18.2780008159
20
13.0669894157
30
0.0000000000
10
-18.1991801227
20
13.0474902052
30
0.0000000000
10
-18.1432956817
20
13.0221513891
30
0.0000000000
10
-18.1152731360
20
13.0037029747
30
0.0000000000
10
-18.1088417767
20
12.9990549563
30
0.0000000000
11
-18.3611484923
21
13.0718795569
31
0.0000000000
11
-18.2781533520
21
13.0647788254
31
0.0000000000
11
-18.1979980672
21
13.0444933589
31
0.0000000000
11
-18.1286916101
21
13.0121850048
31
0.0000000000
11
-18.1088417767
21
12.9990549563
31
0.0000000000
0
SPLINE
5
337
100
AcDbEntity
8
0
100
AcDbSpline
62
9
6
CONTINUOUS
70
0
71
3
72
10
73
6
74
4
42
0.0000001000
43
0.0000001000
44
0.0000000001
12
0.1268118130
22
-0.0916483779
32
0.0000000000
13
-0.0004866887
23
-0.1559596428
33
0.0000000000
40
0.0000000000
40
0.0000000000
40
0.0000000000
40
0.0000000000
40
0.2863220101
40
0.6639609175
40
1.0000000000
40
1.0000000000
40
1.0000000000
40
1.0000000000
10
-18.1088417767
20
12.9990549563
30
0.0000000000
10
-18.0967387723
20
12.9903079737
30
0.0000000000
10
-18.0703570069
20
12.9677333447
30
0.0000000000
10
-18.0397176633
20
12.9244962287
30
0.0000000000
10
-18.0312516513
20
12.8870599155
30
0.0000000000
10
-18.0313061668
20
12.8695904038
30
0.0000000000
11
-18.1088417767
21
12.9990549563
31
0.0000000000
11
-18.0751083053
21
12.9696975844
31
0.0000000000
11
-18.0421951644
21
12.9208555093
31
0.0000000000
11
-18.0313061668
21
12.8695904038
31
0.0000000000
0
SPLINE
5
338
100
AcDbEntity
8
0
100
AcDbSpline
62
9
6
CONTINUOUS
70
0
71
3
72
10
73
6
74
4
42
0.0000001000
43
0.0000001000
44
0.0000000001
12
0.0004914756
22
-0.1554573614
32
0.0000000000
13
-0.1262328900
23
-0.0915876125
33
0.0000000000
40
0.0000000000
40
0.0000000000
40
0.0000000000
40
0.0000000000
40
0.3361499842
40
0.7138735780
40
1.0000000000
40
1.0000000000
40
1.0000000000
40
1.0000000000
10
-18.0313061668
20
-7.9739532978
30
0.0000000000
10
-18.0312510969
20
-7.9913722943
30
0.0000000000
10
-18.0396671092
20
-8.0286972395
30
0.0000000000
10
-18.0701393079
20
-8.0718397604
30
0.0000000000
10
-18.0963915012
20
-8.0943843192
30
0.0000000000
10
-18.1084310229
20
-8.1031195312
30
0.0000000000
11
-18.0313061668
21
-7.9739532978
31
0.0000000000
11
-18.0421342591
21
-8.0250764107
31
0.0000000000
11
-18.0748804871
21
-8.0738180482
31
0.0000000000
11
-18.1084310229
21
-8.1031195312
31
0.0000000000
0
SPLINE
5
339
100
AcDbEntity
8
0
100
AcDbSpline
62
9
6
CONTINUOUS
70
0
71
3
72
11
73
7
74
5
42
0.0000001000
43
0.0000001000
44
0.0000000001
12
-0.2165471404
22
-0.1571146441
32
0.0000000000
13
-0.2666709692
23
-0.0024043298
33
0.0000000000
40
0.0000000000
40
0.0000000000
40
0.0000000000
40
0.0000000000
40
0.0886753960
40
0.3747989162
40
0.6861057333
40
1.0000000000
40
1.0000000000
40
1.0000000000
40
1.0000000000
10
-18.1084310229
20
-8.1031195312
30
0.0000000000
10
-18.1148318240
20
-8.1077635989
30
0.0000000000
10
-18.1427512914
20
-8.1262195585
30
0.0000000000
10
-18.1986197561
20
-8.1516707266
30
0.0000000000
10
-18.2776128150
20
-8.1713101076
30
0.0000000000
10
-18.3332461416
20
-8.1759908809
30
0.0000000000
10
-18.3611483044
20
-8.1762424493
30
0.0000000000
11
-18.1084310229
21
-8.1031195312
31
0.0000000000
11
-18.1281885425
21
-8.1162419099
31
0.0000000000
11
-18.1972886768
21
-8.1486064328
31
0.0000000000
11
-18.2777458800
21
-8.1690743687
31
0.0000000000
11
-18.3611483044
21
-8.1762424493
31
0.0000000000
0
SPLINE
5
33A
100
AcDbEntity
8
0
100
AcDbSpline
62
9
6
CONTINUOUS
70
0
71
3
72
8
73
4
74
2
42
0.0000001000
43
0.0000001000
44
0.0000000001
12
0.0005897624
22
-0.0765323894
32
0.0000000000
13
-0.0104741103
23
-0.0759759384
33
0.0000000000
40
0.0000000000
40
0.0000000000
40
0.0000000000
40
0.0000000000
40
1.0000000000
40
1.0000000000
40
1.0000000000
40
1.0000000000
10
-16.9602895010
20
-7.9646066770
30
0.0000000000
10
-16.9600929136
20
-7.9901174734
30
0.0000000000
10
-16.9613968704
20
-8.0156777387
30
0.0000000000
10
-16.9648882405
20
-8.0410030515
30
0.0000000000
11
-16.9602895010
21
-7.9646066770
31
0.0000000000
11
-16.9648882405
21
-8.0410030515
31
0.0000000000
0
SPLINE
5
33B
100
AcDbEntity
8
0
100
AcDbSpline
62
9
6
CONTINUOUS
70
0
71
3
72
10
73
6
74
4
42
0.0000001000
43
0.0000001000
44
0.0000000001
12
-0.0198617271
22
-0.1440707908
32
0.0000000000
13
-0.1451247542
23
-0.0012664845
33
0.0000000000
40
0.0000000000
40
0.0000000000
40
0.0000000000
40
0.0000000000
40
0.4572645971
40
0.7918288217
40
1.0000000000
40
1.0000000000
40
1.0000000000
40
1.0000000000
10
-16.9648882405
20
-8.0410030515
30
0.0000000000
10
-16.9679155953
20
-8.0629625422
30
0.0000000000
10
-16.9760058890
20
-8.1006831110
30
0.0000000000
10
-16.9934366953
20
-8.1456089830
30
0.0000000000
10
-17.0168779589
20
-8.1645111797
30
0.0000000000
10
-17.0269482226
20
-8.1645990616
30
0.0000000000
11
-16.9648882405
21
-8.0410030515
31
0.0000000000
11
-16.9791643699
21
-8.1058122470
31
0.0000000000
11
-17.0009525772
21
-8.1492046526
31
0.0000000000
11
-17.0269482226
21
-8.1645990616
31
0.0000000000
0
SPLINE
5
33C
100
AcDbEntity
8
0
100
AcDbSpline
62
9
6
CONTINUOUS
70
0
71
3
72
13
73
9
74
7
42
0.0000001000
43
0.0000001000
44
0.0000000001
12
0.1973939548
22
0.0005749534
32
0.0000000000
13
0.1973939523
23
0.0005758206
33
0.0000000000
40
0.0000000000
40
0.0000000000
40
0.0000000000
40
0.0000000000
40
0.2600709379
40
0.5091600282
40
0.7223455835
40
0.8796948442
40
0.9715326913
40
1.0000000000
40
1.0000000000
40
1.0000000000
40
1.0000000000
10
-16.9602895010
20
-7.9646066770
30
0.0000000000
10
-16.9431773574
20
-7.9645568341
30
0.0000000000
10
-16.9096756530
20
-7.9644594367
30
0.0000000000
10
-16.8621467686
20
-7.9643211920
30
0.0000000000
10
-16.8213767635
20
-7.9642026402
30
0.0000000000
10
-16.7909535737
20
-7.9641141216
30
0.0000000000
10
-16.7726844723
20
-7.9640610037
30
0.0000000000
10
-16.7647686355
20
-7.9640379307
30
0.0000000000
10
-16.7628955440
20
-7.9640324666
30
0.0000000000
11
-16.9602895010
21
-7.9646066770
31
0.0000000000
11
-16.9089530695
21
-7.9644573237
31
0.0000000000
11
-16.8597843883
21
-7.9643143280
31
0.0000000000
11
-16.8177028478
21
-7.9641919430
31
0.0000000000
11
-16.7866430546
21
-7.9641015932
31
0.0000000000
11
-16.7685148186
21
-7.9640488468
31
0.0000000000
11
-16.7628955440
21
-7.9640324666
31
0.0000000000
0
SPLINE
5
33D
100
AcDbEntity
8
0
100
AcDbSpline
62
9
6
CONTINUOUS
70
0
71
3
72
13
73
9
74
7
42
0.0000001000
43
0.0000001000
44
0.0000000001
12
-0.1973939524
22
0.0005757974
32
0.0000000000
13
-0.1973939545
23
0.0005750543
33
0.0000000000
40
0.0000000000
40
0.0000000000
40
0.0000000000
40
0.0000000000
40
0.0281240757
40
0.1191569248
40
0.2757213334
40
0.4886405570
40
0.7383208724
40
1.0000000000
40
1.0000000000
40
1.0000000000
40
1.0000000000
10
-16.7628955440
20
12.8596695726
30
0.0000000000
10
-16.7647460515
20
12.8596749705
30
0.0000000000
10
-16.7725863370
20
12.8596978231
30
0.0000000000
10
-16.7907282454
20
12.8597505750
30
0.0000000000
10
-16.8210293022
20
12.8598387449
30
0.0000000000
10
-16.8617690429
20
12.8599572075
30
0.0000000000
10
-16.9094251202
20
12.8600958323
30
0.0000000000
10
-16.9430715418
20
12.8601936230
30
0.0000000000
10
-16.9602895010
20
12.8602437829
30
0.0000000000
11
-16.7628955440
21
12.8596695726
31
0.0000000000
11
-16.7684470665
21
12.8596857550
31
0.0000000000
11
-16.7864164008
21
12.8597380418
31
0.0000000000
11
-16.8173212689
21
12.8598279465
31
0.0000000000
11
-16.8593502370
21
12.8599501810
31
0.0000000000
11
-16.9086356226
21
12.8600935163
31
0.0000000000
11
-16.9602895010
21
12.8602437829
31
0.0000000000
0
SPLINE
5
33E
100
AcDbEntity
8
0
100
AcDbSpline
62
9
6
CONTINUOUS
70
0
71
3
72
13
73
9
74
7
42
0.0000001000
43
0.0000001000
44
0.0000000001
12
0.0017461100
22
-0.5000038053
32
0.0000000000
13
0.0017447972
23
-0.5000038099
33
0.0000000000
40
0.0000000000
40
0.0000000000
40
0.0000000000
40
0.0000000000
40
0.2303038650
40
0.4755402901
40
0.6996416482
40
0.8706189517
40
0.9700261064
40
1.0000000000
40
1.0000000000
40
1.0000000000
40
1.0000000000
10
-18.3628955440
20
-7.6762386580
30
0.0000000000
10
-18.3627614987
20
-7.7146229277
30
0.0000000000
10
-18.3624849860
20
-7.7938802468
30
0.0000000000
10
-18.3620779766
20
-7.9104880764
30
0.0000000000
10
-18.3617054265
20
-8.0172080702
30
0.0000000000
10
-18.3614177419
20
-8.0996230005
30
0.0000000000
10
-18.3612429306
20
-8.1496831069
30
0.0000000000
10
-18.3611676697
20
-8.1712467792
30
0.0000000000
10
-18.3611502369
20
-8.1762424662
30
0.0000000000
11
-18.3628955440
21
-7.6762386580
31
0.0000000000
11
-18.3624936388
21
-7.7913914677
31
0.0000000000
11
-18.3620656708
21
-7.9140106143
31
0.0000000000
11
-18.3616745225
21
-8.0260621467
31
0.0000000000
11
-18.3613760792
21
-8.1115514494
31
0.0000000000
11
-18.3612025435
21
-8.1612554052
31
0.0000000000
11
-18.3611502369
21
-8.1762424662
31
0.0000000000
0
SPLINE
5
33F
100
AcDbEntity
8
0
100
AcDbSpline
62
7
6
CONTINUOUS
70
0
71
3
72
11
73
7
74
5
42
0.0000001000
43
0.0000001000
44
0.0000000001
12
0.0262732236
22
-0.1996247133
32
0.0000000000
13
0.0039467275
23
-0.2015164991
33
0.0000000000
40
0.0000000000
40
0.0000000000
40
0.0000000000
40
0.0000000000
40
0.3815193473
40
0.7053225289
40
0.9228155731
40
1.0000000000
40
1.0000000000
40
1.0000000000
40
1.0000000000
10
-14.9177863698
20
18.0478185530
30
0.0000000000
10
-14.9144451221
20
18.0224316562
30
0.0000000000
10
-14.9083190486
20
17.9754846396
30
0.0000000000
10
-14.9012147112
20
17.9139772445
30
0.0000000000
10
-14.8959937583
20
17.8727568126
30
0.0000000000
10
-14.8950478936
20
17.8530031982
30
0.0000000000
10
-14.8949463516
20
17.8478185530
30
0.0000000000
11
-14.9177863698
21
18.0478185530
31
0.0000000000
11
-14.9080214310
21
17.9716242478
31
0.0000000000
11
-14.9002523531
21
17.9068922466
31
0.0000000000
11
-14.8956491606
21
17.8633434473
31
0.0000000000
11
-14.8949463516
21
17.8478185530
31
0.0000000000
0
SPLINE
5
340
100
AcDbEntity
8
0
100
AcDbSpline
62
9
6
CONTINUOUS
70
0
71
3
72
11
73
7
74
5
42
0.0000001000
43
0.0000001000
44
0.0000000001
12
0.2000781454
22
0.0000000000
32
0.0000000000
13
-0.0000000000
23
0.2000781454
33
0.0000000000
40
0.0000000000
40
0.0000000000
40
0.0000000000
40
0.0000000000
40
0.0763830554
40
0.2931450430
40
0.6174637294
40
1.0000000000
40
1.0000000000
40
1.0000000000
40
1.0000000000
10
-10.6628955440
20
17.8478185530
30
0.0000000000
10
-10.6578013507
20
17.8478185530
30
0.0000000000
10
-10.6667922187
20
17.8792442347
30
0.0000000000
10
-10.6569721966
20
17.9096755744
30
0.0000000000
10
-10.6608395975
20
17.9767071800
30
0.0000000000
10
-10.6594050627
20
18.0223061705
30
0.0000000000
10
-10.6594050627
20
18.0478185530
30
0.0000000000
11
-10.6628955440
21
17.8478185530
31
0.0000000000
11
-10.6615597936
21
17.8630426465
31
0.0000000000
11
-10.6604274004
21
17.9063971968
31
0.0000000000
11
-10.6596707596
21
17.9712818666
31
0.0000000000
11
-10.6594050627
21
18.0478185530
31
0.0000000000
0
SPLINE
5
341
100
AcDbEntity
8
0
100
AcDbSpline
62
9
6
CONTINUOUS
70
0
71
3
72
12
73
8
74
6
42
0.0000001000
43
0.0000001000
44
0.0000000001
12
-0.4990705852
22
-0.0261551811
32
0.0000000000
13
0.0261472363
23
-0.4990710015
33
0.0000000000
40
0.0000000000
40
0.0000000000
40
0.0000000000
40
0.0000000000
40
0.0492065483
40
0.1912403570
40
0.4123852873
40
0.6910492528
40
1.0000000000
40
1.0000000000
40
1.0000000000
40
1.0000000000
10
-27.2741505639
20
21.3227256902
30
0.0000000000
10
-27.2823364109
20
21.3222966881
30
0.0000000000
10
-27.2663090923
20
21.2720414019
30
0.0000000000
10
-27.2796365177
20
21.2203370346
30
0.0000000000
10
-27.2679246983
20
21.1046030345
30
0.0000000000
10
-27.2650577730
20
20.9734732611
30
0.0000000000
10
-27.2594015251
20
20.8748070424
30
0.0000000000
10
-27.2567087890
20
20.8234109228
30
0.0000000000
11
-27.2741505639
21
21.3227256902
31
0.0000000000
11
-27.2755589389
21
21.2981748108
31
0.0000000000
11
-27.2742710585
21
21.2272043206
31
0.0000000000
11
-27.2704128464
21
21.1167532951
31
0.0000000000
11
-27.2643615361
21
20.9776209838
31
0.0000000000
11
-27.2567087890
21
20.8234109228
31
0.0000000000
0
SPLINE
5
342
100
AcDbEntity
8
0
100
AcDbSpline
62
9
6
CONTINUOUS
70
0
71
3
72
10
73
6
74
4
42
0.0000001000
43
0.0000001000
44
0.0000000001
12
-1.7657700567
22
41.9684643682
32
0.0000000000
13
1.7657699116
23
41.9684643743
33
0.0000000000
40
0.0000000000
40
0.0000000000
40
0.0000000000
40
0.0000000000
40
0.3333328627
40
0.6666672760
40
1.0000000000
40
1.0000000000
40
1.0000000000
40
1.0000000000
10
-27.7300988461
20
-21.6494773637
30
0.0000000000
10
-27.9262952420
20
-16.9863212395
30
0.0000000000
10
-28.1879779514
20
-7.6539372719
30
0.0000000000
10
-28.1879778901
20
6.3495782647
30
0.0000000000
10
-27.9262951442
20
15.6819602859
30
0.0000000000
10
-27.7300988461
20
20.3451144697
30
0.0000000000
11
-27.7300988461
21
-21.6494773637
31
0.0000000000
11
-28.1225569595
21
-7.6531335835
31
0.0000000000
11
-28.1225568823
21
6.3487765183
31
0.0000000000
11
-27.7300988461
21
20.3451144697
31
0.0000000000
0
SPLINE
5
343
100
AcDbEntity
8
0
100
AcDbSpline
62
9
6
CONTINUOUS
70
0
71
3
72
11
73
7
74
5
42
0.0000001000
43
0.0000001000
44
0.0000000001
12
0.1396825613
22
-0.1397251197
32
0.0000000000
13
-0.1397038421
23
-0.1397038421
33
0.0000000000
40
0.0000000000
40
0.0000000000
40
0.0000000000
40
0.0000000000
40
0.3811022533
40
0.7065279149
40
0.9237729121
40
1.0000000000
40
1.0000000000
40
1.0000000000
40
1.0000000000
10
-10.3594050627
20
-20.7693387345
30
0.0000000000
10
-10.3416606164
20
-20.7870885872
30
0.0000000000
10
-10.3108664234
20
-20.8199372629
30
0.0000000000
10
-10.2609924619
20
-20.8637462865
30
0.0000000000
10
-10.2468192503
20
-20.8920871969
30
0.0000000000
10
-10.2179244488
20
-20.9072103518
30
0.0000000000
10
-10.2214741878
20
-20.9107600908
30
0.0000000000
11
-10.3594050627
21
-20.7693387345
31
0.0000000000
11
-10.3063009896
21
-20.8227172059
31
0.0000000000
11
-10.2612187895
21
-20.8685582696
31
0.0000000000
11
-10.2314388514
21
-20.8994677426
31
0.0000000000
11
-10.2214741878
21
-20.9107600908
31
0.0000000000
0
SPLINE
5
344
100
AcDbEntity
8
0
100
AcDbSpline
62
7
6
CONTINUOUS
70
0
71
3
72
11
73
7
74
5
42
0.0000001000
43
0.0000001000
44
0.0000000001
12
0.0262732317
22
0.1996247748
32
0.0000000000
13
0.0039137548
23
0.2015172086
33
0.0000000000
40
0.0000000000
40
0.0000000000
40
0.0000000000
40
0.0000000000
40
0.3806643543
40
0.7053222360
40
0.9231727225
40
1.0000000000
40
1.0000000000
40
1.0000000000
40
1.0000000000
10
-14.9177863698
20
-19.3521814470
30
0.0000000000
10
-14.9144526089
20
-19.3268514350
30
0.0000000000
10
-14.9083258247
20
-19.2799044746
30
0.0000000000
10
-14.9012204863
20
-19.2183732471
30
0.0000000000
10
-14.8959880378
20
-19.1770959729
30
0.0000000000
10
-14.8950465793
20
-19.1573421199
30
0.0000000000
10
-14.8949463516
20
-19.1521814470
30
0.0000000000
11
-14.9177863698
21
-19.3521814470
31
0.0000000000
11
-14.9080426851
21
-19.2761579517
31
0.0000000000
11
-14.9002523547
21
-19.2112551553
31
0.0000000000
11
-14.8956427168
21
-19.1676346531
31
0.0000000000
11
-14.8949463516
21
-19.1521814470
31
0.0000000000
0
SPLINE
5
345
100
AcDbEntity
8
0
100
AcDbSpline
62
9
6
CONTINUOUS
70
0
71
3
72
11
73
7
74
5
42
0.0000001000
43
0.0000001000
44
0.0000000001
12
0.0000000000
22
0.2000781454
32
0.0000000000
13
-0.2000781454
23
0.0000000000
33
0.0000000000
40
0.0000000000
40
0.0000000000
40
0.0000000000
40
0.0000000000
40
0.3825362711
40
0.7068549578
40
0.9236169453
40
1.0000000000
40
1.0000000000
40
1.0000000000
40
1.0000000000
10
-10.6594050627
20
-19.3521814470
30
0.0000000000
10
-10.6594050627
20
-19.3266690645
30
0.0000000000
10
-10.6608395980
20
-19.2810700740
30
0.0000000000
10
-10.6569721961
20
-19.2140384682
30
0.0000000000
10
-10.6667922218
20
-19.1836071289
30
0.0000000000
10
-10.6578013507
20
-19.1521814470
30
0.0000000000
10
-10.6628955440
20
-19.1521814470
30
0.0000000000
11
-10.6594050627
21
-19.3521814470
31
0.0000000000
11
-10.6596707598
21
-19.2756447605
31
0.0000000000
11
-10.6604274011
21
-19.2107600908
31
0.0000000000
11
-10.6615597948
21
-19.1674055405
31
0.0000000000
11
-10.6628955440
21
-19.1521814470
31
0.0000000000
0
SPLINE
5
346
100
AcDbEntity
8
0
100
AcDbSpline
62
9
6
CONTINUOUS
70
0
71
3
72
12
73
8
74
6
42
0.0000001000
43
0.0000001000
44
0.0000000001
12
-0.4990705807
22
0.0261551808
32
0.0000000000
13
0.0261471146
23
0.4990710033
33
0.0000000000
40
0.0000000000
40
0.0000000000
40
0.0000000000
40
0.0000000000
40
0.0492079808
40
0.1912447975
40
0.4123917745
40
0.6910545422
40
1.0000000000
40
1.0000000000
40
1.0000000000
40
1.0000000000
10
-27.2741505639
20
-22.6270885842
30
0.0000000000
10
-27.2823366491
20
-22.6266595697
30
0.0000000000
10
-27.2663087831
20
-22.5764030845
30
0.0000000000
10
-27.2796364833
20
-22.5246979177
30
0.0000000000
10
-27.2679245490
20
-22.4089632557
30
0.0000000000
10
-27.2650576275
20
-22.2778341697
30
0.0000000000
10
-27.2594014665
20
-22.1791690567
30
0.0000000000
10
-27.2567087890
20
-22.1277738168
30
0.0000000000
11
-27.2741505639
21
-22.6270885842
31
0.0000000000
11
-27.2755589118
21
-22.6025369865
31
0.0000000000
11
-27.2742709501
21
-22.5315649949
31
0.0000000000
11
-27.2704126714
21
-22.4211129492
31
0.0000000000
11
-27.2643613820
21
-22.2819812374
31
0.0000000000
11
-27.2567087890
21
-22.1277738168
31
0.0000000000
0
SPLINE
5
347
100
AcDbEntity
8
0
100
AcDbSpline
62
9
6
CONTINUOUS
70
0
71
3
72
11
73
7
74
5
42
0.0000001000
43
0.0000001000
44
0.0000000001
12
0.1397038421
22
-0.1397038421
32
0.0000000000
13
-0.1396825613
23
-0.1397251197
33
0.0000000000
40
0.0000000000
40
0.0000000000
40
0.0000000000
40
0.0000000000
40
0.0762270879
40
0.2934720851
40
0.6188977467
40
1.0000000000
40
1.0000000000
40
1.0000000000
40
1.0000000000
10
-10.2214741878
20
19.6063971968
30
0.0000000000
10
-10.2179244488
20
19.6028474577
30
0.0000000000
10
-10.2468192503
20
19.5877243029
30
0.0000000000
10
-10.2609924619
20
19.5593833924
30
0.0000000000
10
-10.3108664234
20
19.5155743689
30
0.0000000000
10
-10.3416606164
20
19.4827256932
30
0.0000000000
10
-10.3594050627
20
19.4649758405
30
0.0000000000
11
-10.2214741878
21
19.6063971968
31
0.0000000000
11
-10.2314388514
21
19.5951048486
31
0.0000000000
11
-10.2612187895
21
19.5641953755
31
0.0000000000
11
-10.3063009896
21
19.5183543119
31
0.0000000000
11
-10.3594050627
21
19.4649758405
31
0.0000000000
0
SPLINE
5
348
100
AcDbEntity
8
0
100
AcDbSpline
62
9
6
CONTINUOUS
70
0
71
3
72
13
73
9
74
7
42
0.0000001000
43
0.0000001000
44
0.0000000001
12
0.0308204848
22
0.7356818212
32
0.0000000000
13
0.7353273388
23
0.0383581706
33
0.0000000000
40
0.0000000000
40
0.0000000000
40
0.0000000000
40
0.0000000000
40
0.1663161506
40
0.3331500210
40
0.4999320895
40
0.6667044713
40
0.8335566435
40
1.0000000000
40
1.0000000000
40
1.0000000000
40
1.0000000000
10
-27.7300988461
20
20.3451144697
30
0.0000000000
10
-27.7283901979
20
20.3858997259
30
0.0000000000
10
-27.7148232627
20
20.4675246889
30
0.0000000000
10
-27.6653230957
20
20.5811008525
30
0.0000000000
10
-27.5895610217
20
20.6793585535
30
0.0000000000
10
-27.4921025176
20
20.7561537004
30
0.0000000000
10
-27.3790219332
20
20.8068570410
30
0.0000000000
10
-27.2975055725
20
20.8212827686
30
0.0000000000
10
-27.2567087890
20
20.8234109228
30
0.0000000000
11
-27.7300988461
21
20.3451144697
31
0.0000000000
11
-27.7100045462
21
20.4659177334
31
0.0000000000
11
-27.6609468430
21
20.5785412882
31
0.0000000000
11
-27.5859442768
21
20.6757830923
31
0.0000000000
11
-27.4895027054
21
20.7518003598
31
0.0000000000
11
-27.3773886918
21
20.8020445875
31
0.0000000000
11
-27.2567087890
21
20.8234109228
31
0.0000000000
0
ENDSEC
0
SECTION
2
OBJECTS
0
DICTIONARY
5
C
100
AcDbDictionary
280
0
281
1
3
ACAD_GROUP
350
D
3
ACAD_MLINESTYLE
350
17
3
ACAD_LAYOUT
350
1A
3
ACAD_PLOTSETTINGS
350
19
3
ACAD_PLOTSTYLENAME
350
E
0
DICTIONARY
5
D
102
{ACAD_REACTORS
330
C
102
}
100
AcDbDictionary
280
0
281
1
0
ACDBDICTIONARYWDFLT
5
E
102
{ACAD_REACTORS
330
C
102
}
100
AcDbDictionary
281
1
3
Normal
350
F
100
AcDbDictionaryWithDefault
340
F
0
DICTIONARY
5
17
102
{ACAD_REACTORS
330
C
102
}
100
AcDbDictionary
280
0
281
1
3
Standard
350
18
0
DICTIONARY
5
19
102
{ACAD_REACTORS
330
C
102
}
100
AcDbDictionary
281
1
0
DICTIONARY
5
1A
102
{ACAD_REACTORS
330
C
102
}
100
AcDbDictionary
281
1
3
Layout1
350
1E
3
Model
350
22
0
ACDBPLACEHOLDER
5
F
102
{ACAD_REACTORS
330
E
102
}
0
MLINESTYLE
5
18
102
{ACAD_REACTORS
330
17
102
}
100
AcDbMlineStyle
2
STANDARD
70
0
3

62
256
51
90.0
52
90.0
71
2
49
0.5
62
256
6
BYLAYER
49
-0.5
62
256
6
BYLAYER
0
LAYOUT
5
1E
102
{ACAD_REACTORS
330
1A
102
}
100
AcDbPlotSettings
1

2

4

6

40
0.0
41
0.0
42
0.0
43
0.0
44
0.0
45
0.0
46
0.0
47
0.0
48
0.0
49
0.0
140
0.0
141
0.0
142
1.0
143
1.0
70
0
72
0
73
0
74
0
7

75
0
147
1.0
148
0.0
149
0.0
100
AcDbLayout
1
Layout1
70
0
71
0
10
0.0
20
0.0
11
0.0
21
0.0
12
0.0
22
0.0
32
0.0
14
0.0
24
0.0
34
0.0
15
0.0
25
0.0
35
0.0
146
0.0
13
0.0
23
0.0
33
0.0
16
0.0
26
0.0
36
0.0
17
0.0
27
0.0
37
0.0
76
0
330
1B
331
0
345
0
346
0
0
LAYOUT
5
22
102
{ACAD_REACTORS
330
1A
102
}
100
AcDbPlotSettings
1

2

4

6

40
0.0
41
0.0
42
0.0
43
0.0
44
0.0
45
0.0
46
0.0
47
0.0
48
0.0
49
0.0
140
0.0
141
0.0
142
1.0
143
1.0
70
0
72
0
73
0
74
0
7

75
0
147
1.0
148
0.0
149
0.0
100
AcDbLayout
1
Model
70
0
71
0
10
0.0
20
0.0
11
0.0
21
0.0
12
0.0
22
0.0
32
0.0
14
0.0
24
0.0
34
0.0
15
0.0
25
0.0
35
0.0
146
0.0
13
0.0
23
0.0
33
0.0
16
0.0
26
0.0
36
0.0
17
0.0
27
0.0
37
0.0
76
0
330
1F
331
0
345
0
346
0
0
ENDSEC
0
EOF
