  0
SECTION
  2
HEADER
  9
$ACADVER
  1
AC1024
  9
$DWGCODEPAGE
  3
ANSI_1252
  9
$EXTMAX
 10
297.0
 20
210.0
 30
0.0
  9
$EXTMIN
 10
0.0
 20
0.0
 30
0.0
  9
$LIMMIN
 10
0.0
 20
0.0
  9
$LIMMAX
 10
297.0
 20
210.0
  9
$VIEWCTR
 10
148.5
 20
105.0
  9
$VIEWSIZE
 40
210.0
  9
$CLAYER
  8
0
  9
$LTSCALE
 40
16.335
  9
$CELTYPE
  6
BYLAYER
  9
$DIMSCALE
 40
1.0
  9
$DIMASZ
 40
3.0
  9
$DIMEXO
 40
0.5
  9
$DIMDLI
 40
11.286
  9
$DIMEXE
 40
1.5
  9
$DIMCEN
 40
2.673
  9
$DIMLFAC
 40
1.0
  9
$DIMBLK
  1
_FILLED
  9
$DIMALT
 70
0
  9
$DIMALTF
 40
0.0393700787
  9
$DIMTXT
 40
3.0
  9
$DIMTOL
 70
1
  9
$DIMLIM
 70
0
  9
$DIMTFAC
 40
1.0
  9
$DIMTP
 40
0.01
  9
$DIMTM
 40
0.01
  9
$DIMGAP
 40
0.625
  9
$DIMDSEP
 70
44
  9
$AUNITS
 70
0
  9
$PDMODE
 70
3
  9
$PDSIZE
 40
3.0
  9
$HANDSEED
  5
536
  9
$TILEMODE
 70
1
  9
$MEASUREMENT
 70
1
  9
$INSUNITS
 70
4
  0
ENDSEC
  0
SECTION
  2
CLASSES
  0
CLASS
  1
ACDBDICTIONARYWDFLT
  2
AcDbDictionaryWithDefault
  3
AutoCAD 2000
 90
0
 91
1
280
0
281
0
  0
CLASS
  1
ACDBPLACEHOLDER
  2
AcDbPlaceHolder
  3
AutoCAD 2000
 90
0
 91
1
280
0
281
0
  0
CLASS
  1
LAYOUT
  2
AcDbLayout
  3
AutoCAD 2000
 90
0
 91
0
280
0
281
0
  0
ENDSEC
  0
SECTION
  2
TABLES
  0
TABLE
  2
VPORT
  5
8
100
AcDbSymbolTable
 70
2
  0
VPORT
  5
1F4
100
AcDbSymbolTableRecord
100
AcDbViewportTableRecord
  2
*ACTIVE
 70
0
 10
0.0
 20
0.0
 11
1.0
 21
1.0
 12
148.5
 22
105.0
 13
0.0
 23
0.0
 14
1.0
 24
1.0
 15
0.0
 25
0.0
 16
0.0
 26
0.0
 36
1.0
 17
0.0
 27
0.0
 37
0.0
 40
210.0
 41
1.4142857143
 42
50.0
 43
0.0
 44
0.0
 50
0.0
 51
0.0
 71
0
 72
100
 73
1
 74
1
 75
0
 76
0
 77
0
 78
0
  0
ENDTAB
  0
TABLE
  2
LTYPE
  5
5
100
AcDbSymbolTable
 70
6
  0
LTYPE
  5
14
100
AcDbSymbolTableRecord
100
AcDbLinetypeTableRecord
  2
BYBLOCK
 70
0
  3

 72
65
 73
0
 40
0.0
  0
LTYPE
  5
15
100
AcDbSymbolTableRecord
100
AcDbLinetypeTableRecord
  2
BYLAYER
 70
0
  3

 72
65
 73
0
 40
0.0
  0
LTYPE
  5
16
100
AcDbSymbolTableRecord
100
AcDbLinetypeTableRecord
  2
CONTINUOUS
 70
64
  3
Solid line
 72
65
 73
0
 40
0.0
  0
LTYPE
  5
1F5
100
AcDbSymbolTableRecord
100
AcDbLinetypeTableRecord
  2
CENTER
 70
64
  3
____ _ ____ _ ____ _ ____ _ ____ _ ____ _ ____
 72
65
 73
4
 40
0.6
 49
0.375
 74
0
 49
-0.075
 74
0
 49
0.075
 74
0
 49
-0.075
 74
0
  0
LTYPE
  5
1F6
100
AcDbSymbolTableRecord
100
AcDbLinetypeTableRecord
  2
HIDDEN
 70
64
  3
- - - - - - - - - - - - - - - - - - - -
 72
65
 73
2
 40
0.2
 49
0.1
 74
0
 49
-0.1
 74
0
  0
LTYPE
  5
1F7
100
AcDbSymbolTableRecord
100
AcDbLinetypeTableRecord
  2
PHANTOM
 70
64
  3
_____ _ _ _____ _ _ _____ _ _ _____
 72
65
 73
6
 40
0.8
 49
0.45
 74
0
 49
-0.05
 74
0
 49
0.1
 74
0
 49
-0.05
 74
0
 49
0.1
 74
0
 49
-0.05
 74
0
  0
LTYPE
  5
1F8
100
AcDbSymbolTableRecord
100
AcDbLinetypeTableRecord
  2
DOT
 70
64
  3
. . . . . . . . . . . . . . . . . . . .
 72
65
 73
2
 40
0.2
 49
0.1
 74
0
 49
-0.1
 74
0
  0
LTYPE
  5
1F9
100
AcDbSymbolTableRecord
100
AcDbLinetypeTableRecord
  2
DASHED
 70
64
  3
- - - - - - - - - - - - - - - - - - - -
 72
65
 73
2
 40
0.2
 49
0.1
 74
0
 49
-0.1
 74
0
  0
ENDTAB
  0
TABLE
  2
LAYER
  5
2
100
AcDbSymbolTable
 70
36
  0
LAYER
  5
10
100
AcDbSymbolTableRecord
100
AcDbLayerTableRecord
  2
0
 70
0
 62
7
  6
CONTINUOUS
370
-3
390
F
  0
LAYER
  5
1FA
100
AcDbSymbolTableRecord
100
AcDbLayerTableRecord
  2
DEFAULT_1
 70
0
 62
7
  6
CENTER
370
-3
390
F
  0
LAYER
  5
1FB
100
AcDbSymbolTableRecord
100
AcDbLayerTableRecord
  2
DEFAULT_2
 70
0
 62
7
  6
HIDDEN
370
-3
390
F
  0
LAYER
  5
1FC
100
AcDbSymbolTableRecord
100
AcDbLayerTableRecord
  2
DEFAULT_3
 70
0
 62
7
  6
PHANTOM
370
-3
390
F
  0
LAYER
  5
1FD
100
AcDbSymbolTableRecord
100
AcDbLayerTableRecord
  2
ASSI
 70
0
 62
7
  6
CONTINUOUS
370
-3
390
F
  0
LAYER
  5
1FE
100
AcDbSymbolTableRecord
100
AcDbLayerTableRecord
  2
COORDINATE
 70
0
 62
7
  6
CONTINUOUS
370
-3
390
F
  0
LAYER
  5
1FF
100
AcDbSymbolTableRecord
100
AcDbLayerTableRecord
  2
COORD_ORIGINE
 70
0
 62
7
  6
CONTINUOUS
370
-3
390
F
  0
LAYER
  5
200
100
AcDbSymbolTableRecord
100
AcDbLayerTableRecord
  2
CURVE
 70
0
 62
7
  6
CONTINUOUS
370
-3
390
F
  0
LAYER
  5
201
100
AcDbSymbolTableRecord
100
AcDbLayerTableRecord
  2
C_COMP
 70
0
 62
7
  6
CONTINUOUS
370
-3
390
F
  0
LAYER
  5
202
100
AcDbSymbolTableRecord
100
AcDbLayerTableRecord
  2
DRAFT
 70
0
 62
7
  6
CONTINUOUS
370
-3
390
F
  0
LAYER
  5
203
100
AcDbSymbolTableRecord
100
AcDbLayerTableRecord
  2
IMPORT_FEATURES
 70
0
 62
7
  6
CONTINUOUS
370
-3
390
F
  0
LAYER
  5
204
100
AcDbSymbolTableRecord
100
AcDbLayerTableRecord
  2
INTF_1
 70
0
 62
7
  6
CONTINUOUS
370
-3
390
F
  0
LAYER
  5
205
100
AcDbSymbolTableRecord
100
AcDbLayerTableRecord
  2
INTF_8
 70
0
 62
7
  6
CONTINUOUS
370
-3
390
F
  0
LAYER
  5
206
100
AcDbSymbolTableRecord
100
AcDbLayerTableRecord
  2
NOTE
 70
0
 62
7
  6
CONTINUOUS
370
-3
390
F
  0
LAYER
  5
207
100
AcDbSymbolTableRecord
100
AcDbLayerTableRecord
  2
PIANI
 70
0
 62
7
  6
CONTINUOUS
370
-3
390
F
  0
LAYER
  5
208
100
AcDbSymbolTableRecord
100
AcDbLayerTableRecord
  2
PIANI_ORIGINE
 70
0
 62
7
  6
CONTINUOUS
370
-3
390
F
  0
LAYER
  5
209
100
AcDbSymbolTableRecord
100
AcDbLayerTableRecord
  2
PUNTI
 70
0
 62
7
  6
CONTINUOUS
370
-3
390
F
  0
LAYER
  5
20A
100
AcDbSymbolTableRecord
100
AcDbLayerTableRecord
  2
RACCORDO
 70
0
 62
7
  6
CONTINUOUS
370
-3
390
F
  0
LAYER
  5
20B
100
AcDbSymbolTableRecord
100
AcDbLayerTableRecord
  2
SMUSSO
 70
0
 62
7
  6
CONTINUOUS
370
-3
390
F
  0
LAYER
  5
20C
100
AcDbSymbolTableRecord
100
AcDbLayerTableRecord
  2
SNAPLINE
 70
0
 62
7
  6
CONTINUOUS
370
-3
390
F
  0
LAYER
  5
20D
100
AcDbSymbolTableRecord
100
AcDbLayerTableRecord
  2
SUPERFICI
 70
0
 62
7
  6
CONTINUOUS
370
-3
390
F
  0
LAYER
  5
20E
100
AcDbSymbolTableRecord
100
AcDbLayerTableRecord
  2
TRASH
 70
0
 62
7
  6
CONTINUOUS
370
-3
390
F
  0
LAYER
  5
20F
100
AcDbSymbolTableRecord
100
AcDbLayerTableRecord
  2
XSEC_DATUMS
 70
0
 62
7
  6
CONTINUOUS
370
-3
390
F
  0
ENDTAB
  0
TABLE
  2
STYLE
  5
3
100
AcDbSymbolTable
 70
1
  0
STYLE
  5
11
100
AcDbSymbolTableRecord
100
AcDbTextStyleTableRecord
  2
STANDARD
 70
0
 40
0.0
 41
0.8
 50
0.0
 71
0
 42
0.2
  3
txt
  4

  0
STYLE
  5
210
100
AcDbSymbolTableRecord
100
AcDbTextStyleTableRecord
  2
TEXTSTYLE_1
 70
0
 40
0.0
 41
0.8
 50
0.0
 71
0
 42
0.2
  3
gdt
  4

  0
ENDTAB
  0
TABLE
  2
VIEW
  5
6
100
AcDbSymbolTable
 70
0
  0
ENDTAB
  0
TABLE
  2
UCS
  5
7
100
AcDbSymbolTable
 70
0
  0
ENDTAB
  0
TABLE
  2
APPID
  5
9
100
AcDbSymbolTable
 70
1
  0
APPID
  5
211
100
AcDbSymbolTableRecord
100
AcDbRegAppTableRecord
  2
ACAD
 70
0
  0
ENDTAB
  0
TABLE
  2
BLOCK_RECORD
  5
1
100
AcDbSymbolTable
 70
0
  0
BLOCK_RECORD
  5
212
100
AcDbSymbolTableRecord
100
AcDbBlockTableRecord
  2
*Model_Space
  0
BLOCK_RECORD
  5
213
100
AcDbSymbolTableRecord
100
AcDbBlockTableRecord
  2
*Paper_Space
  0
BLOCK_RECORD
  5
214
100
AcDbSymbolTableRecord
100
AcDbBlockTableRecord
  2
_FILLED
  0
BLOCK_RECORD
  5
215
100
AcDbSymbolTableRecord
100
AcDbBlockTableRecord
  2
*D0
  0
BLOCK_RECORD
  5
216
100
AcDbSymbolTableRecord
100
AcDbBlockTableRecord
  2
*D1
  0
BLOCK_RECORD
  5
217
100
AcDbSymbolTableRecord
100
AcDbBlockTableRecord
  2
*D2
  0
BLOCK_RECORD
  5
218
100
AcDbSymbolTableRecord
100
AcDbBlockTableRecord
  2
*D3
  0
ENDTAB
  0
TABLE
  2
DIMSTYLE
  5
A
100
AcDbSymbolTable
 70
1
100
AcDbDimStyleTable
 71
0
  0
DIMSTYLE
105
219
100
AcDbSymbolTableRecord
100
AcDbDimStyleTableRecord
  2
STANDARD
 70
0
  3

  4

 40
1.0
 41
3.0
 42
0.5
 43
0.38
 44
1.5
 45
0.0
 46
0.0
 47
0.01
 48
0.01
140
3.0
141
0.09
142
0.0
143
25.4
144
1.0
145
0.0
146
1.0
147
0.625
 71
1
 72
0
 73
0
 74
0
 75
0
 76
0
 77
1
 78
8
 79
2
170
0
171
1
172
0
173
0
174
0
175
0
176
0
177
0
178
0
270
2
179
2
271
2
272
2
273
2
274
2
275
0
280
0
281
0
282
0
283
1
284
8
285
0
286
0
287
3
288
0
340
11
278
44
341
214
342
214
343
214
344
214
  0
DIMSTYLE
105
21A
100
AcDbSymbolTableRecord
100
AcDbDimStyleTableRecord
  2
DIMSTYLE_1
 70
0
  3

  4

 40
1.0
 41
3.0
 42
0.5
 43
0.38
 44
1.5
 45
0.0
 46
0.0
 47
0.0
 48
0.0
140
3.0
141
0.09
142
0.0
143
25.4
144
1.0
145
0.0
146
1.0
147
0.75
 71
0
 72
0
 73
0
 74
0
 75
0
 76
0
 77
1
 78
8
 79
2
170
0
171
1
172
0
173
0
174
0
175
0
176
0
177
0
178
0
270
2
179
2
271
2
272
2
273
2
274
2
275
0
280
0
281
0
282
0
283
1
284
8
285
0
286
0
287
3
288
0
340
11
278
44
341
214
342
214
343
214
344
214
  0
ENDTAB
  0
ENDSEC
  0
SECTION
  2
BLOCKS
  0
BLOCK
  5
20
100
AcDbEntity
  8
0
100
AcDbBlockBegin
  2
*Model_Space
 70
0
 10
0.0
 20
0.0
 30
0.0
  3
*Model_Space
  1

  0
ENDBLK
  5
21
100
AcDbEntity
  8
0
100
AcDbBlockEnd
  0
BLOCK
  5
1C
100
AcDbEntity
  8
0
100
AcDbBlockBegin
  2
*Paper_Space
 70
0
 10
0.0
 20
0.0
 30
0.0
  3
*Paper_Space
  1

  0
ENDBLK
  5
1D
100
AcDbEntity
  8
0
100
AcDbBlockEnd
  0
BLOCK
  5
21B
100
AcDbEntity
  8
0
100
AcDbBlockBegin
  2
_FILLED
 70
64
 10
0.0
 20
0.0
  3
_FILLED
  1

  0
SOLID
  5
21C
100
AcDbEntity
  8
0
  6
BYBLOCK
 62
0
100
AcDbTrace
 10
0.0
 20
0.0
 11
-1.0
 21
0.3166666667
 12
-1.0
 22
-0.3166666667
 13
-1.0
 23
-0.3166666667
  0
ENDBLK
  5
21D
100
AcDbEntity
  8
0
  6
BYBLOCK
 62
0
100
AcDbBlockEnd
  0
BLOCK
  5
21E
100
AcDbEntity
  8
0
100
AcDbBlockBegin
 62
7
  6
CONTINUOUS
  2
*D0
 70
65
 10
0.0
 20
0.0
  3
*D0
  1

  0
LINE
  5
21F
100
AcDbEntity
  8
0
100
AcDbLine
 62
7
  6
CONTINUOUS
 10
28.6637218008
 20
24.2556481268
 11
28.6637218008
 21
34.8558769789
  0
LINE
  5
220
100
AcDbEntity
  8
0
100
AcDbLine
 62
7
  6
CONTINUOUS
 10
50.9637218008
 20
24.2556481268
 11
50.9637218008
 21
34.8558769789
  0
LINE
  5
221
100
AcDbEntity
  8
0
100
AcDbLine
 62
7
  6
CONTINUOUS
 10
28.6637218008
 20
33.3558769789
 11
39.8137218008
 21
33.3558769789
  0
LINE
  5
222
100
AcDbEntity
  8
0
100
AcDbLine
 62
7
  6
CONTINUOUS
 10
50.9637218008
 20
33.3558769789
 11
39.8137218008
 21
33.3558769789
  0
INSERT
  5
223
100
AcDbEntity
  8
0
100
AcDbBlockReference
 62
7
  6
CONTINUOUS
  2
_FILLED
 10
28.6637218008
 20
33.3558769789
 41
3.0
 42
3.0
 43
3.0
 50
180.0
  0
INSERT
  5
224
100
AcDbEntity
  8
0
100
AcDbBlockReference
 62
7
  6
CONTINUOUS
  2
_FILLED
 10
50.9637218008
 20
33.3558769789
 41
3.0
 42
3.0
 43
3.0
  0
ENDBLK
  5
225
100
AcDbEntity
  8
0
  6
BYBLOCK
 62
0
100
AcDbBlockEnd
  0
BLOCK
  5
226
100
AcDbEntity
  8
0
100
AcDbBlockBegin
 62
7
  6
CONTINUOUS
  2
*D1
 70
65
 10
0.0
 20
0.0
  3
*D1
  1

  0
LINE
  5
227
100
AcDbEntity
  8
0
100
AcDbLine
 62
7
  6
CONTINUOUS
 10
44.2870591484
 20
25.3558769789
 11
60.4637218008
 21
25.3558769789
  0
LINE
  5
228
100
AcDbEntity
  8
0
100
AcDbLine
 62
7
  6
CONTINUOUS
 10
44.2870591484
 20
-21.6441230211
 11
60.4637218008
 21
-21.6441230211
  0
LINE
  5
229
100
AcDbEntity
  8
0
100
AcDbLine
 62
7
  6
CONTINUOUS
 10
58.9637218008
 20
25.3558769789
 11
58.9637218008
 21
1.8558769789
  0
LINE
  5
22A
100
AcDbEntity
  8
0
100
AcDbLine
 62
7
  6
CONTINUOUS
 10
58.9637218008
 20
-21.6441230211
 11
58.9637218008
 21
1.8558769789
  0
INSERT
  5
22B
100
AcDbEntity
  8
0
100
AcDbBlockReference
 62
7
  6
CONTINUOUS
  2
_FILLED
 10
58.9637218008
 20
25.3558769789
 41
3.0
 42
3.0
 43
3.0
 50
90.0
  0
INSERT
  5
22C
100
AcDbEntity
  8
0
100
AcDbBlockReference
 62
7
  6
CONTINUOUS
  2
_FILLED
 10
58.9637218008
 20
-21.6441230211
 41
3.0
 42
3.0
 43
3.0
 50
270.0
  0
ENDBLK
  5
22D
100
AcDbEntity
  8
0
  6
BYBLOCK
 62
0
100
AcDbBlockEnd
  0
BLOCK
  5
22E
100
AcDbEntity
  8
0
100
AcDbBlockBegin
 62
7
  6
CONTINUOUS
  2
*D2
 70
65
 10
0.0
 20
0.0
  3
*D2
  1

  0
LINE
  5
22F
100
AcDbEntity
  8
0
100
AcDbLine
 62
7
  6
CONTINUOUS
 10
17.8284500291
 20
0.3058769789
 11
17.8284500291
 21
34.8558769789
  0
LINE
  5
230
100
AcDbEntity
  8
0
100
AcDbLine
 62
7
  6
CONTINUOUS
 10
-8.5715499709
 20
24.2556481268
 11
-8.5715499709
 21
34.8558769789
  0
LINE
  5
231
100
AcDbEntity
  8
0
100
AcDbLine
 62
7
  6
CONTINUOUS
 10
17.8284500291
 20
33.3558769789
 11
4.6284500291
 21
33.3558769789
  0
LINE
  5
232
100
AcDbEntity
  8
0
100
AcDbLine
 62
7
  6
CONTINUOUS
 10
-8.5715499709
 20
33.3558769789
 11
4.6284500291
 21
33.3558769789
  0
INSERT
  5
233
100
AcDbEntity
  8
0
100
AcDbBlockReference
 62
7
  6
CONTINUOUS
  2
_FILLED
 10
17.8284500291
 20
33.3558769789
 41
3.0
 42
3.0
 43
3.0
  0
INSERT
  5
234
100
AcDbEntity
  8
0
100
AcDbBlockReference
 62
7
  6
CONTINUOUS
  2
_FILLED
 10
-8.5715499709
 20
33.3558769789
 41
3.0
 42
3.0
 43
3.0
 50
180.0
  0
ENDBLK
  5
235
100
AcDbEntity
  8
0
  6
BYBLOCK
 62
0
100
AcDbBlockEnd
  0
BLOCK
  5
236
100
AcDbEntity
  8
0
100
AcDbBlockBegin
 62
7
  6
CONTINUOUS
  2
*D3
 70
65
 10
0.0
 20
0.0
  3
*D3
  1

  0
LINE
  5
237
100
AcDbEntity
  8
0
100
AcDbLine
 62
7
  6
CONTINUOUS
 10
17.8284500291
 20
0.3058769789
 11
17.8284500291
 21
44.8558769789
  0
LINE
  5
238
100
AcDbEntity
  8
0
100
AcDbLine
 62
7
  6
CONTINUOUS
 10
-18.0715499709
 20
2.3558769789
 11
-18.0715499709
 21
44.8558769789
  0
LINE
  5
239
100
AcDbEntity
  8
0
100
AcDbLine
 62
7
  6
CONTINUOUS
 10
17.8284500291
 20
43.3558769789
 11
-0.1215499709
 21
43.3558769789
  0
LINE
  5
23A
100
AcDbEntity
  8
0
100
AcDbLine
 62
7
  6
CONTINUOUS
 10
-18.0715499709
 20
43.3558769789
 11
-0.1215499709
 21
43.3558769789
  0
INSERT
  5
23B
100
AcDbEntity
  8
0
100
AcDbBlockReference
 62
7
  6
CONTINUOUS
  2
_FILLED
 10
17.8284500291
 20
43.3558769789
 41
3.0
 42
3.0
 43
3.0
 50
360.0
  0
INSERT
  5
23C
100
AcDbEntity
  8
0
100
AcDbBlockReference
 62
7
  6
CONTINUOUS
  2
_FILLED
 10
-18.0715499709
 20
43.3558769789
 41
3.0
 42
3.0
 43
3.0
 50
180.0
  0
ENDBLK
  5
23D
100
AcDbEntity
  8
0
  6
BYBLOCK
 62
0
100
AcDbBlockEnd
  0
ENDSEC
  0
SECTION
  2
ENTITIES
  0
DIMENSION
  5
23E
100
AcDbEntity
  8
0
100
AcDbDimension
 62
7
  6
CONTINUOUS
  2
*D0
 10
50.9637218008
 20
33.3558769789
 11
35.5280075151
 21
33.3558769789
 70
160
 71
2
 72
2
 41
0.9
 42
22.3
  3
DIMSTYLE_1
100
AcDbAlignedDimension
 13
28.6637218008
 23
23.7556481268
 14
50.9637218008
 24
23.7556481268
100
AcDbRotatedDimension
  0
DIMENSION
  5
23F
100
AcDbEntity
  8
0
100
AcDbDimension
 62
7
  6
CONTINUOUS
  2
*D1
 10
58.9637218008
 20
-21.6441230211
 11
58.9637218008
 21
-0.5012658783
 70
160
 71
2
 72
2
 41
0.9
 42
47.0
  3
DIMSTYLE_1
100
AcDbAlignedDimension
 13
43.7870591484
 23
25.3558769789
 14
43.7870591484
 24
-21.6441230211
 50
270.0
100
AcDbRotatedDimension
  0
DIMENSION
  5
240
100
AcDbEntity
  8
0
100
AcDbDimension
 62
7
  6
CONTINUOUS
  2
*D2
 10
-8.5715499709
 20
33.3558769789
 11
0.2355928862
 21
33.3558769789
 70
160
 71
2
 72
2
 41
0.9
 42
26.4
  3
DIMSTYLE_1
100
AcDbAlignedDimension
 13
17.8284500291
 23
-0.1941230211
 14
-8.5715499709
 24
23.7556481268
 50
180.0
100
AcDbRotatedDimension
  0
DIMENSION
  5
241
100
AcDbEntity
  8
0
100
AcDbDimension
 62
7
  6
CONTINUOUS
  2
*D3
 10
-18.0715499709
 20
43.3558769789
 11
-4.3001213995
 21
43.3558769789
 70
160
 71
2
 72
2
 41
0.9
 42
35.9
  3
DIMSTYLE_1
100
AcDbAlignedDimension
 13
17.8284500291
 23
-0.1941230211
 14
-18.0715499709
 24
1.8558769789
 50
180.0
100
AcDbRotatedDimension
  0
LWPOLYLINE
  5
242
100
AcDbEntity
  8
0
100
AcDbPolyline
 62
7
  6
CONTINUOUS
 90
5
 70
0
 43
0.3500000006
 10
-3.442978652
 20
45.8201623077
 10
-3.0858357668
 20
46.0344467926
 10
-3.0858357668
 20
46.6773047791
 10
-3.442978652
 20
47.1058782806
 10
-4.3001214066
 20
47.1058782806
  0
LWPOLYLINE
  5
243
100
AcDbEntity
  8
0
100
AcDbPolyline
 62
7
  6
CONTINUOUS
 90
10
 70
0
 43
0.3500000006
 10
2.1284499607
 20
44.1058773651
 10
2.9855929985
 20
44.9630198364
 10
3.1998786163
 20
45.8201623077
 10
3.1998786163
 20
46.6773047791
 10
2.7713070974
 20
47.1058782806
 10
2.1284499607
 20
47.1058782806
 10
1.6998785834
 20
46.6773047791
 10
1.6998785834
 20
45.8201623077
 10
2.1284499607
 20
45.391593338
 10
3.057021349
 20
45.391593338
  0
LWPOLYLINE
  5
244
100
AcDbEntity
  8
0
100
AcDbPolyline
 62
250
  6
CONTINUOUS
 90
8
 70
0
 10
-16.6828049908
 20
23.8307841161
 10
-16.6835709189
 20
23.8280043502
 10
-16.684042096
 20
23.819790762
 10
-16.6842133658
 20
23.8062332367
 10
-16.6840828538
 20
23.787480141
 10
-16.6836519886
 20
23.7637366989
 10
-16.6829254854
 20
23.7352627465
 10
-16.6806205156
 20
23.6654180856
  0
LWPOLYLINE
  5
245
100
AcDbEntity
  8
0
100
AcDbPolyline
 62
7
  6
CONTINUOUS
 90
10
 70
0
 43
0.3500000006
 10
3.6641643105
 20
37.1058752289
 10
3.0213071737
 20
36.4630217743
 10
2.5927356548
 20
35.6058747711
 10
2.5927356548
 20
34.5344478149
 10
3.0213071737
 20
34.1058788452
 10
3.6641643105
 20
34.1058788452
 10
4.0927358294
 20
34.5344478149
 10
4.0927358294
 20
35.3915902863
 10
3.6641643105
 20
35.8201637878
 10
2.7355929222
 20
35.8201637878
  0
LINE
  5
246
100
AcDbEntity
  8
DRAFT
100
AcDbLine
 62
7
  6
CONTINUOUS
 10
-8.5715499709
 20
-21.3240315829
 11
-4.5715499709
 21
-21.2440134959
  0
LINE
  5
247
100
AcDbEntity
  8
DRAFT
100
AcDbLine
 62
7
  6
CONTINUOUS
 10
-8.5715499709
 20
-21.6441230211
 11
-4.5715499709
 21
-21.5743027614
  0
LINE
  5
248
100
AcDbEntity
  8
DRAFT
100
AcDbLine
 62
7
  6
CONTINUOUS
 10
-8.5715499709
 20
-20.8072896431
 11
-6.3353691059
 21
-20.7875990314
  0
LINE
  5
249
100
AcDbEntity
  8
DRAFT
100
AcDbLine
 62
7
  6
CONTINUOUS
 10
-6.3353691059
 20
-20.7875990314
 11
-4.5715499709
 21
-20.7739896237
  0
LINE
  5
24A
100
AcDbEntity
  8
0
100
AcDbLine
 62
7
  6
CONTINUOUS
 10
-2.4715499709
 20
-20.5441230211
 11
-2.9715499709
 21
-20.5441230211
  0
LINE
  5
24B
100
AcDbEntity
  8
0
100
AcDbLine
 62
7
  6
CONTINUOUS
 10
-8.5715499709
 20
-20.5441230211
 11
-16.6828049908
 21
-20.1190301583
  0
LINE
  5
24C
100
AcDbEntity
  8
0
100
AcDbLine
 62
250
  6
CONTINUOUS
 10
-8.5715499709
 20
-20.043894169
 11
-16.6653632159
 21
-19.6197153909
  0
LWPOLYLINE
  5
24D
100
AcDbEntity
  8
0
100
AcDbPolyline
 62
250
  6
CONTINUOUS
 90
19
 70
0
 10
-16.6653632159
 20
-19.6197153909
 10
-16.7065416156
 20
-19.6158019337
 10
-16.7467682499
 20
-19.6086798218
 10
-16.7860431187
 20
-19.5983490553
 10
-16.8246294277
 20
-19.5846946397
 10
-16.8622639713
 20
-19.5678315695
 10
-16.8981571324
 20
-19.5481048281
 10
-16.9322592817
 20
-19.5254609469
 10
-16.9646200485
 20
-19.4999533946
 10
-16.9945987037
 20
-19.4720875605
 10
-17.0221485543
 20
-19.441815508
 10
-17.0473162933
 20
-19.4091851738
 10
-17.0696012697
 20
-19.3748457562
 10
-17.0889483979
 20
-19.3387469124
 10
-17.1054127636
 20
-19.3009389853
 10
-17.1186589733
 20
-19.2622222016
 10
-17.1285752291
 20
-19.2228633035
 10
-17.135273329
 20
-19.182595549
 10
-17.138753273
 20
-19.1414189378
  0
LWPOLYLINE
  5
24E
100
AcDbEntity
  8
0
100
AcDbPolyline
 62
250
  6
CONTINUOUS
 90
7
 70
0
 10
-16.6828049908
 20
-20.1190301583
 10
-16.6835709188
 20
-20.1162503011
 10
-16.6840420864
 20
-20.1080364617
 10
-16.6842133387
 20
-20.0944785606
 10
-16.684082803
 20
-20.0757249961
 10
-16.6836519095
 20
-20.0519810334
 10
-16.682925377
 20
-20.023506569
  0
LINE
  5
24F
100
AcDbEntity
  8
0
100
AcDbLine
 62
250
  6
CONTINUOUS
 10
-17.6295850942
 20
-19.1624372516
 11
-17.6269104263
 21
-19.1622867605
  0
LINE
  5
250
100
AcDbEntity
  8
0
100
AcDbLine
 62
250
  6
CONTINUOUS
 10
-17.6269104263
 20
-19.1622867605
 11
-17.138753273
 21
-19.1414189378
  0
LINE
  5
251
100
AcDbEntity
  8
DRAFT
100
AcDbLine
 62
7
  6
CONTINUOUS
 10
-4.5715499709
 20
-19.3441230211
 11
-0.536335185
 21
-19.3089082352
  0
LINE
  5
252
100
AcDbEntity
  8
RACCORDO
100
AcDbLine
 62
7
  6
CONTINUOUS
 10
-8.5715499709
 20
-19.0441230211
 11
-0.4875651096
 21
-18.9807859286
  0
LINE
  5
253
100
AcDbEntity
  8
DRAFT
100
AcDbLine
 62
7
  6
CONTINUOUS
 10
-4.5715499709
 20
-19.3441230211
 11
-0.5715499709
 21
-19.3441230211
  0
LINE
  5
254
100
AcDbEntity
  8
RACCORDO
100
AcDbLine
 62
250
  6
CONTINUOUS
 10
0.2319405104
 20
-18.2612803086
 11
0.4284500291
 21
-18.2612803086
  0
LWPOLYLINE
  5
255
100
AcDbEntity
  8
0
100
AcDbPolyline
 62
250
  6
CONTINUOUS
 90
10
 70
0
 10
-17.138753273
 20
-19.1414189378
 10
-17.3131791097
 20
-14.4765894913
 10
-17.4439984809
 20
-9.8111415645
 10
-17.5312113864
 20
-5.1450751576
 10
-17.5748178177
 20
-0.4779777345
 10
-17.5748177834
 20
4.1897381688
 10
-17.5312113092
 20
8.8568349442
 10
-17.4439984037
 20
13.5229000558
 10
-17.3131790583
 20
18.1883460396
 10
-17.138753273
 20
22.8531728956
  0
LWPOLYLINE
  5
256
100
AcDbEntity
  8
0
100
AcDbPolyline
 62
250
  6
CONTINUOUS
 90
19
 70
0
 10
-17.138753273
 20
22.8531728956
 10
-17.1352733289
 20
22.8943495067
 10
-17.1285752289
 20
22.9346172613
 10
-17.1186589731
 20
22.9739761593
 10
-17.1054127635
 20
23.012692943
 10
-17.088948398
 20
23.0505008702
 10
-17.0696012699
 20
23.0865997141
 10
-17.0473162934
 20
23.1209391317
 10
-17.0221485544
 20
23.1535694659
 10
-16.9945987037
 20
23.1838415182
 10
-16.9646200485
 20
23.2117073523
 10
-16.9322592816
 20
23.2372149046
 10
-16.8981571323
 20
23.2598587857
 10
-16.8622639712
 20
23.2795855272
 10
-16.8246294277
 20
23.2964485976
 10
-16.7860431187
 20
23.3101030134
 10
-16.7467682499
 20
23.3204337799
 10
-16.7065416157
 20
23.3275558916
 10
-16.6653632159
 20
23.3314693487
  0
LINE
  5
257
100
AcDbEntity
  8
RACCORDO
100
AcDbLine
 62
250
  6
CONTINUOUS
 10
0.2319405104
 20
-17.1441230211
 11
0.4284500291
 21
-17.144123021
  0
LINE
  5
258
100
AcDbEntity
  8
RACCORDO
100
AcDbLine
 62
250
  6
CONTINUOUS
 10
-0.0680594896
 20
-16.8441230211
 11
-4.3264407967
 21
-16.8441230211
  0
LINE
  5
259
100
AcDbEntity
  8
RACCORDO
100
AcDbLine
 62
7
  6
CONTINUOUS
 10
-0.0715499709
 20
-16.6441230211
 11
-4.3036007785
 21
-16.6441230211
  0
LINE
  5
25A
100
AcDbEntity
  8
RACCORDO
100
AcDbLine
 62
250
  6
CONTINUOUS
 10
-4.3264407967
 20
-16.8441230211
 11
-8.5715499709
 21
-15.7066494461
  0
LINE
  5
25B
100
AcDbEntity
  8
RACCORDO
100
AcDbLine
 62
7
  6
CONTINUOUS
 10
-4.3036007785
 20
-16.6441230211
 11
-8.5715499709
 21
-15.5005294817
  0
LINE
  5
25C
100
AcDbEntity
  8
0
100
AcDbLine
 62
250
  6
CONTINUOUS
 10
-16.6772685659
 20
23.5809951692
 11
-16.673015963
 21
23.4856794097
  0
LINE
  5
25D
100
AcDbEntity
  8
0
100
AcDbLine
 62
250
  6
CONTINUOUS
 10
-16.6806205156
 20
23.6654180856
 11
-16.6772685659
 21
23.5809951692
  0
LINE
  5
25E
100
AcDbEntity
  8
0
100
AcDbLine
 62
250
  6
CONTINUOUS
 10
-16.682925377
 20
-20.023506569
 11
-16.6806203564
 21
-19.9536610944
  0
LINE
  5
25F
100
AcDbEntity
  8
0
100
AcDbLine
 62
250
  6
CONTINUOUS
 10
-16.6806203564
 20
-19.9536610944
 11
-16.6772683852
 21
-19.8692379547
  0
LINE
  5
260
100
AcDbEntity
  8
0
100
AcDbLine
 62
250
  6
CONTINUOUS
 10
-16.6772683852
 20
-19.8692379547
 11
-16.6730158089
 21
-19.7739228115
  0
LINE
  5
261
100
AcDbEntity
  8
0
100
AcDbLine
 62
250
  6
CONTINUOUS
 10
-16.673015963
 20
23.4856794097
 11
-16.6653632159
 21
23.3314693487
  0
LINE
  5
262
100
AcDbEntity
  8
0
100
AcDbLine
 62
250
  6
CONTINUOUS
 10
-16.6730158089
 20
-19.7739228115
 11
-16.6653632159
 21
-19.6197153909
  0
LINE
  5
263
100
AcDbEntity
  8
RACCORDO
100
AcDbLine
 62
250
  6
CONTINUOUS
 10
0.3420345037
 20
22.0845043726
 11
0.3164882115
 21
22.0583138488
  0
LINE
  5
264
100
AcDbEntity
  8
RACCORDO
100
AcDbLine
 62
250
  6
CONTINUOUS
 10
0.3164882115
 20
22.0583138488
 11
0.2678467245
 21
22.0090666337
  0
LINE
  5
265
100
AcDbEntity
  8
RACCORDO
100
AcDbLine
 62
250
  6
CONTINUOUS
 10
0.2678467245
 20
22.0090666337
 11
0.2319405104
 21
21.9730342664
  0
LINE
  5
266
100
AcDbEntity
  8
DRAFT
100
AcDbLine
 62
7
  6
CONTINUOUS
 10
-6.8879148543
 20
14.7395120955
 11
-7.2715499709
 21
14.3558769789
  0
LINE
  5
267
100
AcDbEntity
  8
RACCORDO
100
AcDbLine
 62
250
  6
CONTINUOUS
 10
0.2319405104
 20
-18.2612803086
 11
0.2850445835
 21
-18.31465878
  0
LINE
  5
268
100
AcDbEntity
  8
RACCORDO
100
AcDbLine
 62
250
  6
CONTINUOUS
 10
0.2850445835
 20
-18.31465878
 11
0.3164882115
 21
-18.346559891
  0
LWPOLYLINE
  5
269
100
AcDbEntity
  8
RACCORDO
100
AcDbPolyline
 62
250
  6
CONTINUOUS
 90
7
 70
0
 10
0.3164882115
 20
-18.346559891
 10
0.3420345037
 20
-18.3727504148
 10
0.3520193567
 20
-18.3831140048
 10
0.3599067217
 20
-18.3914093167
 10
0.365565222
 20
-18.397497934
 10
0.3689044383
 20
-18.4012822231
 10
0.3698713853
 20
-18.4027016649
  0
LWPOLYLINE
  5
26A
100
AcDbEntity
  8
0
100
AcDbPolyline
 62
7
  6
CONTINUOUS
 90
3
 70
0
 43
0.3500000006
 10
0.6998786323
 20
44.3915930328
 10
0.6284499986
 20
44.1773040161
 10
0.4855928729
 20
43.8915928802
  0
LWPOLYLINE
  5
26B
100
AcDbEntity
  8
RACCORDO
100
AcDbPolyline
 62
250
  6
CONTINUOUS
 90
6
 70
0
 10
0.3698713853
 20
22.1144556227
 10
0.3689044383
 20
22.1130361809
 10
0.365565222
 20
22.1092518918
 10
0.3599067217
 20
22.1031632745
 10
0.3520193567
 20
22.0948679626
 10
0.3420345037
 20
22.0845043726
  0
LINE
  5
26C
100
AcDbEntity
  8
RACCORDO
100
AcDbLine
 62
250
  6
CONTINUOUS
 10
-7.7715499709
 20
-5.1681802321
 11
-7.7698046638
 21
-5.6681840403
  0
LINE
  5
26D
100
AcDbEntity
  8
0
100
AcDbLine
 62
7
  6
CONTINUOUS
 10
-8.5715499709
 20
24.2558769789
 11
-8.5715499709
 21
-20.5441230211
  0
LINE
  5
26E
100
AcDbEntity
  8
DRAFT
100
AcDbLine
 62
7
  6
CONTINUOUS
 10
-8.5715499709
 20
-20.5441230211
 11
-8.5715499709
 21
-21.6441230211
  0
LINE
  5
26F
100
AcDbEntity
  8
DRAFT
100
AcDbLine
 62
7
  6
CONTINUOUS
 10
-8.5715499709
 20
24.2558769789
 11
-8.5715499709
 21
25.3558769789
  0
LINE
  5
270
100
AcDbEntity
  8
RACCORDO
100
AcDbLine
 62
250
  6
CONTINUOUS
 10
-7.7715499709
 20
15.0799341899
 11
-7.7715499709
 21
-5.1681802321
  0
LINE
  5
271
100
AcDbEntity
  8
RACCORDO
100
AcDbLine
 62
250
  6
CONTINUOUS
 10
-7.7698046638
 20
15.579937998
 11
-7.7715499709
 21
15.0799341899
  0
LINE
  5
272
100
AcDbEntity
  8
RACCORDO
100
AcDbLine
 62
7
  6
CONTINUOUS
 10
-6.1715499709
 20
-7.6542362829
 11
-8.5715499709
 21
-7.6751807656
  0
LINE
  5
273
100
AcDbEntity
  8
RACCORDO
100
AcDbLine
 62
250
  6
CONTINUOUS
 10
-6.1715499709
 20
-7.1542553213
 11
-8.5715499709
 21
-7.175199804
  0
LWPOLYLINE
  5
274
100
AcDbEntity
  8
RACCORDO
100
AcDbPolyline
 62
250
  6
CONTINUOUS
 90
4
 70
0
 10
-6.3689439279
 20
15.3683022088
 10
-6.3693261346
 20
15.3943572517
 10
-6.3708678011
 20
15.4199681757
 10
-6.3735426491
 20
15.4446984322
  0
LINE
  5
275
100
AcDbEntity
  8
RACCORDO
100
AcDbLine
 62
7
  6
CONTINUOUS
 10
-7.5715499709
 20
15.3799456134
 11
-7.5715499709
 21
-5.4681916557
  0
LINE
  5
276
100
AcDbEntity
  8
RACCORDO
100
AcDbLine
 62
250
  6
CONTINUOUS
 10
-7.4399539996
 20
15.3776487721
 11
-7.4399539996
 21
14.7346945229
  0
LINE
  5
277
100
AcDbEntity
  8
RACCORDO
100
AcDbLine
 62
250
  6
CONTINUOUS
 10
-7.4399539996
 20
11.2770594349
 11
-7.4399539996
 21
10.4346945229
  0
LINE
  5
278
100
AcDbEntity
  8
RACCORDO
100
AcDbLine
 62
250
  6
CONTINUOUS
 10
-7.4399539996
 20
3.5770594349
 11
-7.4399539996
 21
2.7346945229
  0
LINE
  5
279
100
AcDbEntity
  8
RACCORDO
100
AcDbLine
 62
250
  6
CONTINUOUS
 10
-7.4399539996
 20
-4.8229405651
 11
-7.4399539996
 21
-5.4658948144
  0
LINE
  5
27A
100
AcDbEntity
  8
0
100
AcDbLine
 62
7
  6
CONTINUOUS
 10
-6.4715499709
 20
11.3058769789
 11
-6.4715499709
 21
9.2058769789
  0
LINE
  5
27B
100
AcDbEntity
  8
0
100
AcDbLine
 62
7
  6
CONTINUOUS
 10
-6.4715499709
 20
1.9058769789
 11
-6.4715499709
 21
-0.1941230211
  0
LINE
  5
27C
100
AcDbEntity
  8
RACCORDO
100
AcDbLine
 62
250
  6
CONTINUOUS
 10
-6.3689439279
 20
15.3683022088
 11
-6.3689439279
 21
14.7440410862
  0
LINE
  5
27D
100
AcDbEntity
  8
RACCORDO
100
AcDbLine
 62
250
  6
CONTINUOUS
 10
-6.3689439279
 20
3.5677128716
 11
-6.3689439279
 21
2.7440410862
  0
LINE
  5
27E
100
AcDbEntity
  8
RACCORDO
100
AcDbLine
 62
250
  6
CONTINUOUS
 10
-6.3689439279
 20
-4.8322871284
 11
-6.3689439279
 21
-5.4565482511
  0
LINE
  5
27F
100
AcDbEntity
  8
RACCORDO
100
AcDbLine
 62
7
  6
CONTINUOUS
 10
-6.1715499709
 20
16.9659902406
 11
-6.1715499709
 21
14.7457637171
  0
LINE
  5
280
100
AcDbEntity
  8
RACCORDO
100
AcDbLine
 62
7
  6
CONTINUOUS
 10
-6.1715499709
 20
3.5659902406
 11
-6.1715499709
 21
2.7457637171
  0
LINE
  5
281
100
AcDbEntity
  8
RACCORDO
100
AcDbLine
 62
7
  6
CONTINUOUS
 10
-6.1715499709
 20
-7.6542362829
 11
-6.1715499709
 21
-3.1314031225
  0
LWPOLYLINE
  5
282
100
AcDbEntity
  8
RACCORDO
100
AcDbPolyline
 62
250
  6
CONTINUOUS
 90
4
 70
0
 10
-6.3689439279
 20
-5.4565482511
 10
-6.3693261363
 20
-5.4826033582
 10
-6.3708678094
 20
-5.5082143333
 10
-6.3735426674
 20
-5.5329446256
  0
LWPOLYLINE
  5
283
100
AcDbEntity
  8
RACCORDO
100
AcDbPolyline
 62
250
  6
CONTINUOUS
 90
9
 70
0
 10
-7.4399605937
 20
-5.4658948719
 10
-7.4411361001
 20
-5.4829801056
 10
-7.4447438312
 20
-5.5000643963
 10
-7.450788686
 20
-5.5170179848
 10
-7.4593122807
 20
-5.5337236047
 10
-7.4702717092
 20
-5.550030256
 10
-7.483534914
 20
-5.5657596223
 10
-7.4991936595
 20
-5.580801646
 10
-7.5171219927
 20
-5.595010739
  0
LWPOLYLINE
  5
284
100
AcDbEntity
  8
RACCORDO
100
AcDbPolyline
 62
250
  6
CONTINUOUS
 90
4
 70
0
 10
-7.5715499709
 20
-5.4681916557
 10
-7.5697102709
 20
-5.4679513746
 10
-7.5642250747
 20
-5.467703682
 10
-7.5551953787
 20
-5.4674485778
  0
LINE
  5
285
100
AcDbEntity
  8
RACCORDO
100
AcDbLine
 62
250
  6
CONTINUOUS
 10
-7.5551953787
 20
-5.4674485778
 11
-7.5272304645
 21
-5.4669063194
  0
LINE
  5
286
100
AcDbEntity
  8
RACCORDO
100
AcDbLine
 62
250
  6
CONTINUOUS
 10
-7.5272304645
 20
-5.4669063194
 11
-7.4647645305
 21
-5.4661354969
  0
LINE
  5
287
100
AcDbEntity
  8
RACCORDO
100
AcDbLine
 62
7
  6
CONTINUOUS
 10
-8.5715499709
 20
-5.6751807656
 11
-6.3698046638
 21
-5.6559664254
  0
LINE
  5
288
100
AcDbEntity
  8
RACCORDO
100
AcDbLine
 62
250
  6
CONTINUOUS
 10
-7.4647645305
 20
-5.4661354969
 11
-6.3689439279
 21
-5.4565482511
  0
LINE
  5
289
100
AcDbEntity
  8
RACCORDO
100
AcDbLine
 62
250
  6
CONTINUOUS
 10
-8.5715499709
 20
-5.1751617264
 11
-7.7715499709
 21
-5.1681802321
  0
LINE
  5
28A
100
AcDbEntity
  8
RACCORDO
100
AcDbLine
 62
250
  6
CONTINUOUS
 10
-6.3689439279
 20
-5.4565482511
 11
-6.1715499709
 21
-5.4559740407
  0
LINE
  5
28B
100
AcDbEntity
  8
RACCORDO
100
AcDbLine
 62
250
  6
CONTINUOUS
 10
-7.5715499709
 20
-5.1681802321
 11
-7.7715499709
 21
-5.1681802322
  0
LINE
  5
28C
100
AcDbEntity
  8
0
100
AcDbLine
 62
7
  6
CONTINUOUS
 10
-2.9715499709
 20
-4.7941230211
 11
-6.1715499709
 21
-4.7941230211
  0
LINE
  5
28D
100
AcDbEntity
  8
RACCORDO
100
AcDbLine
 62
7
  6
CONTINUOUS
 10
-6.1715499709
 20
-4.8340097594
 11
-7.5715499709
 21
-4.8217921444
  0
LINE
  5
28E
100
AcDbEntity
  8
0
100
AcDbLine
 62
7
  6
CONTINUOUS
 10
-5.4715499709
 20
9.2058769789
 11
-5.4715499709
 21
1.9058769789
  0
LINE
  5
28F
100
AcDbEntity
  8
DRAFT
100
AcDbLine
 62
7
  6
CONTINUOUS
 10
-4.5715499709
 20
25.2860567192
 11
-4.5715499709
 21
23.0558769789
  0
LINE
  5
290
100
AcDbEntity
  8
DRAFT
100
AcDbLine
 62
7
  6
CONTINUOUS
 10
-4.5715499709
 20
-19.3441230211
 11
-4.5715499709
 21
-21.5743027614
  0
LWPOLYLINE
  5
291
100
AcDbEntity
  8
RACCORDO
100
AcDbPolyline
 62
250
  6
CONTINUOUS
 90
10
 70
0
 10
-6.3735426674
 20
-5.5329446256
 10
-6.3773051149
 20
-5.5563726985
 10
-6.3820910181
 20
-5.57809921
 10
-6.3878187968
 20
-5.5977538211
 10
-6.3943908164
 20
-5.6150015128
 10
-6.4016950534
 20
-5.6295482978
 10
-6.4096070041
 20
-5.6411462267
 10
-6.417991806
 20
-5.649597613
 10
-6.4267065364
 20
-5.6547584036
 10
-6.4356026495
 20
-5.6565406357
  0
LWPOLYLINE
  5
292
100
AcDbEntity
  8
RACCORDO
100
AcDbPolyline
 62
250
  6
CONTINUOUS
 90
8
 70
0
 10
-0.0715499709
 20
20.3558769789
 10
-0.0710943712
 20
20.3575880066
 10
-0.070646567
 20
20.3626918137
 10
-0.0702142205
 20
20.3711010724
 10
-0.0698047292
 20
20.3826718982
 10
-0.0694250997
 20
20.3972063109
 10
-0.0690818273
 20
20.4144556228
 10
-0.0685271252
 20
20.455876979
  0
LWPOLYLINE
  5
293
100
AcDbEntity
  8
0
100
AcDbPolyline
 62
7
  6
CONTINUOUS
 90
3
 70
0
 43
0.3500000006
 10
5.6641643543
 20
34.3915899811
 10
5.5927360039
 20
34.1773054962
 10
5.4498787365
 20
33.8915898285
  0
LINE
  5
294
100
AcDbEntity
  8
0
100
AcDbLine
 62
7
  6
CONTINUOUS
 10
-7.4715499709
 20
-2.7941230211
 11
-2.9715499709
 21
4.3058769789
  0
LINE
  5
295
100
AcDbEntity
  8
SUPERFICI
100
AcDbLine
 62
7
  6
CONTINUOUS
 10
9.4034500291
 20
-1.3739102337
 11
9.5117833676
 21
-1.3462506625
  0
LINE
  5
296
100
AcDbEntity
  8
SUPERFICI
100
AcDbLine
 62
7
  6
CONTINUOUS
 10
9.2734500291
 20
-0.5441230211
 11
9.1651166751
 21
-0.5717825947
  0
LINE
  5
297
100
AcDbEntity
  8
SUPERFICI
100
AcDbLine
 62
7
  6
CONTINUOUS
 10
2.2817833521
 20
-1.8441230211
 11
2.3901166906
 21
-1.8164634499
  0
LINE
  5
298
100
AcDbEntity
  8
0
100
AcDbLine
 62
7
  6
CONTINUOUS
 10
-7.4715499709
 20
-2.7941230211
 11
-7.5715499709
 21
-2.7941230211
  0
LINE
  5
299
100
AcDbEntity
  8
0
100
AcDbLine
 62
7
  6
CONTINUOUS
 10
17.8284500291
 20
-2.6941230211
 11
13.7284500291
 21
-2.6941230211
  0
LINE
  5
29A
100
AcDbEntity
  8
0
100
AcDbLine
 62
7
  6
CONTINUOUS
 10
-3.2667004391
 20
-2.6941230211
 11
-0.6615499709
 21
-2.6941230211
  0
LINE
  5
29B
100
AcDbEntity
  8
ASSI
100
AcDbLine
 62
7
  6
CONTINUOUS
 10
-0.6615499709
 20
-2.6941230211
 11
4.0473042812
 21
-2.6941230211
  0
LINE
  5
29C
100
AcDbEntity
  8
ASSI
100
AcDbLine
 62
7
  6
CONTINUOUS
 10
11.7284500291
 20
-2.6941230211
 11
13.7284500291
 21
-2.6941230211
  0
LINE
  5
29D
100
AcDbEntity
  8
SUPERFICI
100
AcDbLine
 62
7
  6
CONTINUOUS
 10
2.1951167061
 20
-1.8441230211
 11
2.2817833521
 21
-1.8441230211
  0
LINE
  5
29E
100
AcDbEntity
  8
SUPERFICI
100
AcDbLine
 62
7
  6
CONTINUOUS
 10
4.1484500291
 20
-1.8441230211
 11
4.9284500291
 21
-1.8441230211
  0
LINE
  5
29F
100
AcDbEntity
  8
SUPERFICI
100
AcDbLine
 62
7
  6
CONTINUOUS
 10
6.7784500291
 20
-1.8441230211
 11
6.9084500291
 21
-1.8441230211
  0
LINE
  5
2A0
100
AcDbEntity
  8
SUPERFICI
100
AcDbLine
 62
7
  6
CONTINUOUS
 10
8.9917833831
 20
-1.8441230211
 11
9.7284500291
 21
-1.8441230211
  0
LINE
  5
2A1
100
AcDbEntity
  8
RACCORDO
100
AcDbLine
 62
7
  6
CONTINUOUS
 10
-6.4689320103
 20
-2.8314145456
 11
-7.5715499709
 21
-2.8217921444
  0
LWPOLYLINE
  5
2A2
100
AcDbEntity
  8
RACCORDO
100
AcDbPolyline
 62
250
  6
CONTINUOUS
 90
10
 70
0
 10
-6.3735426491
 20
15.4446984322
 10
-6.3773050846
 20
15.4681264837
 10
-6.3820909755
 20
15.4898529897
 10
-6.3878187442
 20
15.5095076128
 10
-6.3943907586
 20
15.526755332
 10
-6.4016949961
 20
15.5413021529
 10
-6.4096069528
 20
15.5529001189
 10
-6.4179917663
 20
15.561351538
 10
-6.426706514
 20
15.5665123522
 10
-6.4356026495
 20
15.5682945935
  0
LINE
  5
2A3
100
AcDbEntity
  8
0
100
AcDbLine
 62
7
  6
CONTINUOUS
 10
-2.9715499709
 20
4.3058769789
 11
-2.9715499709
 21
3.932279189
  0
LINE
  5
2A4
100
AcDbEntity
  8
0
100
AcDbLine
 62
7
  6
CONTINUOUS
 10
-2.9715499709
 20
-2.6941230211
 11
-2.9715499709
 21
-4.7941230211
  0
LINE
  5
2A5
100
AcDbEntity
  8
DRAFT
100
AcDbLine
 62
7
  6
CONTINUOUS
 10
-2.9715499709
 20
-19.3441230211
 11
-2.9715499709
 21
-20.5441230211
  0
LINE
  5
2A6
100
AcDbEntity
  8
DRAFT
100
AcDbLine
 62
7
  6
CONTINUOUS
 10
-2.9715499709
 20
23.0558769789
 11
-2.9715499709
 21
24.2558769789
  0
LINE
  5
2A7
100
AcDbEntity
  8
0
100
AcDbLine
 62
7
  6
CONTINUOUS
 10
-1.9699785424
 20
4.1058769789
 11
-1.9699785424
 21
-2.6941230211
  0
LWPOLYLINE
  5
2A8
100
AcDbEntity
  8
RACCORDO
100
AcDbPolyline
 62
7
  6
CONTINUOUS
 90
5
 70
0
 10
-4.3054229642
 20
-16.671257127
 10
-4.3042971437
 20
-16.6595762272
 10
-4.3036398659
 20
-16.6510554953
 10
-4.3034103311
 20
-16.645867331
 10
-4.3036007785
 20
-16.6441230211
  0
LWPOLYLINE
  5
2A9
100
AcDbEntity
  8
RACCORDO
100
AcDbPolyline
 62
7
  6
CONTINUOUS
 90
3
 70
0
 10
-4.3111927541
 20
-16.7229144637
 10
-4.3089067816
 20
-16.7031967294
 10
-4.3054229642
 20
-16.671257127
  0
LINE
  5
2AA
100
AcDbEntity
  8
ASSI
100
AcDbLine
 62
7
  6
CONTINUOUS
 10
-6.0094298345
 20
-0.8608201513
 11
-2.8615232027
 21
4.1058769789
  0
LINE
  5
2AB
100
AcDbEntity
  8
SUPERFICI
100
AcDbLine
 62
7
  6
CONTINUOUS
 10
2.1734500291
 20
-0.5441230211
 11
2.0651166751
 21
-0.5717825947
  0
LINE
  5
2AC
100
AcDbEntity
  8
SUPERFICI
100
AcDbLine
 62
7
  6
CONTINUOUS
 10
9.6201166983
 20
-1.7058251653
 11
8.9917833831
 21
-1.7058251653
  0
LINE
  5
2AD
100
AcDbEntity
  8
SUPERFICI
100
AcDbLine
 62
7
  6
CONTINUOUS
 10
4.9284500291
 20
-1.7058251653
 11
4.2784500291
 21
-1.7058251653
  0
LINE
  5
2AE
100
AcDbEntity
  8
SUPERFICI
100
AcDbLine
 62
7
  6
CONTINUOUS
 10
2.2817833521
 20
-1.7058251653
 11
2.1951167061
 21
-1.7058251653
  0
LINE
  5
2AF
100
AcDbEntity
  8
SUPERFICI
100
AcDbLine
 62
7
  6
CONTINUOUS
 10
9.2734500291
 20
-1.3739102337
 11
9.4034500291
 21
-1.3739102337
  0
LINE
  5
2B0
100
AcDbEntity
  8
SUPERFICI
100
AcDbLine
 62
7
  6
CONTINUOUS
 10
2.1951167061
 20
-1.263271949
 11
2.2817833521
 21
-1.263271949
  0
LINE
  5
2B1
100
AcDbEntity
  8
SUPERFICI
100
AcDbLine
 62
7
  6
CONTINUOUS
 10
9.4034500291
 20
-1.2356123779
 11
9.2734500291
 21
-1.2356123779
  0
LINE
  5
2B2
100
AcDbEntity
  8
SUPERFICI
100
AcDbLine
 62
7
  6
CONTINUOUS
 10
2.2817833521
 20
-1.1526336644
 11
2.1951167061
 21
-1.1526336644
  0
LINE
  5
2B3
100
AcDbEntity
  8
SUPERFICI
100
AcDbLine
 62
7
  6
CONTINUOUS
 10
9.7284500291
 20
-1.1249740932
 11
9.5767833676
 21
-1.1249740932
  0
LINE
  5
2B4
100
AcDbEntity
  8
SUPERFICI
100
AcDbLine
 62
7
  6
CONTINUOUS
 10
6.5617833831
 20
-1.097314522
 11
6.7784500291
 21
-1.097314522
  0
LINE
  5
2B5
100
AcDbEntity
  8
SUPERFICI
100
AcDbLine
 62
7
  6
CONTINUOUS
 10
6.9084500291
 20
-1.097314522
 11
7.2767833676
 21
-1.097314522
  0
LINE
  5
2B6
100
AcDbEntity
  8
SUPERFICI
100
AcDbLine
 62
7
  6
CONTINUOUS
 10
7.4284500291
 20
-0.9313570562
 11
6.9084500291
 21
-0.9313570562
  0
LINE
  5
2B7
100
AcDbEntity
  8
SUPERFICI
100
AcDbLine
 62
7
  6
CONTINUOUS
 10
6.7784500291
 20
-0.9313570562
 11
6.5617833831
 21
-0.9313570562
  0
LINE
  5
2B8
100
AcDbEntity
  8
SUPERFICI
100
AcDbLine
 62
7
  6
CONTINUOUS
 10
9.5984500291
 20
-0.8760379139
 11
9.7284500291
 21
-0.8760379139
  0
LINE
  5
2B9
100
AcDbEntity
  8
SUPERFICI
100
AcDbLine
 62
7
  6
CONTINUOUS
 10
2.1951167061
 20
-0.6824208963
 11
2.2817833521
 21
-0.6824208963
  0
LINE
  5
2BA
100
AcDbEntity
  8
SUPERFICI
100
AcDbLine
 62
7
  6
CONTINUOUS
 10
9.2734500291
 20
-0.6824208963
 11
9.4034500291
 21
-0.6824208963
  0
LINE
  5
2BB
100
AcDbEntity
  8
SUPERFICI
100
AcDbLine
 62
7
  6
CONTINUOUS
 10
9.4034500291
 20
-0.5441230211
 11
9.2734500291
 21
-0.5441230211
  0
LINE
  5
2BC
100
AcDbEntity
  8
SUPERFICI
100
AcDbLine
 62
7
  6
CONTINUOUS
 10
6.9084500291
 20
-0.5441230211
 11
6.7784500291
 21
-0.5441230211
  0
LINE
  5
2BD
100
AcDbEntity
  8
SUPERFICI
100
AcDbLine
 62
7
  6
CONTINUOUS
 10
4.7117833676
 20
-0.5441230211
 11
4.5817833521
 21
-0.5441230211
  0
LINE
  5
2BE
100
AcDbEntity
  8
SUPERFICI
100
AcDbLine
 62
7
  6
CONTINUOUS
 10
2.3034500291
 20
-0.5441230211
 11
2.1734500291
 21
-0.5441230211
  0
LINE
  5
2BF
100
AcDbEntity
  8
SUPERFICI
100
AcDbLine
 62
7
  6
CONTINUOUS
 10
6.4284500291
 20
-0.2441230211
 11
7.6284500291
 21
-0.2441230211
  0
LINE
  5
2C0
100
AcDbEntity
  8
SUPERFICI
100
AcDbLine
 62
7
  6
CONTINUOUS
 10
12.1284500291
 20
-0.2441230211
 11
12.3284500172
 21
-0.2441230211
  0
LINE
  5
2C1
100
AcDbEntity
  8
0
100
AcDbLine
 62
7
  6
CONTINUOUS
 10
17.8284500291
 20
-0.1941230211
 11
13.7284500291
 21
-0.1941230211
  0
LINE
  5
2C2
100
AcDbEntity
  8
0
100
AcDbLine
 62
7
  6
CONTINUOUS
 10
-6.4715499709
 20
-0.1941230211
 11
-5.823662647
 21
-0.1941230211
  0
LINE
  5
2C3
100
AcDbEntity
  8
SUPERFICI
100
AcDbLine
 62
7
  6
CONTINUOUS
 10
2.0867833831
 20
-1.8164634499
 11
2.1951167061
 21
-1.8441230211
  0
LINE
  5
2C4
100
AcDbEntity
  8
SUPERFICI
100
AcDbLine
 62
7
  6
CONTINUOUS
 10
2.4117833676
 20
-0.5717825947
 11
2.3034500291
 21
-0.5441230211
  0
LINE
  5
2C5
100
AcDbEntity
  8
SUPERFICI
100
AcDbLine
 62
7
  6
CONTINUOUS
 10
2.1951167061
 20
-1.7058251653
 11
2.1084500291
 21
-1.6781655941
  0
LINE
  5
2C6
100
AcDbEntity
  8
SUPERFICI
100
AcDbLine
 62
7
  6
CONTINUOUS
 10
2.2817833521
 20
-1.263271949
 11
2.3684500291
 21
-1.2909315202
  0
LINE
  5
2C7
100
AcDbEntity
  8
SUPERFICI
100
AcDbLine
 62
7
  6
CONTINUOUS
 10
2.1951167061
 20
-1.1526336644
 11
2.1084500291
 21
-1.1249740932
  0
LINE
  5
2C8
100
AcDbEntity
  8
RACCORDO
100
AcDbLine
 62
7
  6
CONTINUOUS
 10
-4.3264407967
 20
20.5558769789
 11
-4.3166758579
 21
20.4796826737
  0
LINE
  5
2C9
100
AcDbEntity
  8
RACCORDO
100
AcDbLine
 62
7
  6
CONTINUOUS
 10
-4.3166758579
 20
20.4796826737
 11
-4.3137775803
 21
20.4563091955
  0
LWPOLYLINE
  5
2CA
100
AcDbEntity
  8
RACCORDO
100
AcDbPolyline
 62
7
  6
CONTINUOUS
 90
8
 70
0
 10
-4.3137775803
 20
20.4563091955
 10
-4.30890678
 20
20.4149506725
 10
-4.3069511544
 20
20.3976657685
 10
-4.3054276518
 20
20.3830538428
 10
-4.3043035875
 20
20.3714018732
 10
-4.3035916931
 20
20.3629119208
 10
-4.303352448
 20
20.3577088921
 10
-4.3036007785
 20
20.3558769789
  0
LWPOLYLINE
  5
2CB
100
AcDbEntity
  8
RACCORDO
100
AcDbPolyline
 62
250
  6
CONTINUOUS
 90
19
 70
0
 10
0.2319405104
 20
-17.1441230211
 10
0.2314740559
 20
-17.121637564
 10
0.2287961661
 20
-17.0986506619
 10
0.2239068408
 20
-17.0751623146
 10
0.2168660405
 20
-17.0507740458
 10
0.2076138049
 20
-17.0258843319
 10
0.1959702522
 20
-17.0016886024
 10
0.181718601
 20
-16.9782299561
 10
0.1650756327
 20
-16.9554652942
 10
0.1465118102
 20
-16.9344607502
 10
0.1258414804
 20
-16.9153634277
 10
0.1032502963
 20
-16.898026223
 10
0.07976568
 20
-16.8830739593
 10
0.0553675215
 20
-16.8707360501
 10
0.0300759308
 20
-16.8607830817
 10
0.0049786591
 20
-16.8531516364
 10
-0.0195617096
 20
-16.8478205749
 10
-0.0439077592
 20
-16.8448110365
 10
-0.0680594896
 20
-16.8441230211
  0
LWPOLYLINE
  5
2CC
100
AcDbEntity
  8
RACCORDO
100
AcDbPolyline
 62
250
  6
CONTINUOUS
 90
7
 70
0
 10
-0.069081828
 20
-16.7027016649
 10
-0.0694251007
 20
-16.6854523531
 10
-0.0698047305
 20
-16.6709179404
 10
-0.0702142217
 20
-16.6593471146
 10
-0.070646568
 20
-16.6509378559
 10
-0.0710943718
 20
-16.6458340488
 10
-0.0715499709
 20
-16.6441230211
  0
LINE
  5
2CD
100
AcDbEntity
  8
RACCORDO
100
AcDbLine
 62
250
  6
CONTINUOUS
 10
-0.0685271255
 20
-16.7441230211
 11
-0.069081828
 21
-16.7027016649
  0
LINE
  5
2CE
100
AcDbEntity
  8
RACCORDO
100
AcDbLine
 62
250
  6
CONTINUOUS
 10
-0.0681784249
 20
-16.7923592121
 11
-0.0685271255
 21
-16.7441230211
  0
LINE
  5
2CF
100
AcDbEntity
  8
RACCORDO
100
AcDbLine
 62
250
  6
CONTINUOUS
 10
-0.0680594896
 20
-16.8441230211
 11
-0.0681784249
 21
-16.7923592121
  0
LINE
  5
2D0
100
AcDbEntity
  8
0
100
AcDbLine
 62
7
  6
CONTINUOUS
 10
-0.6615499709
 20
-2.6941230211
 11
-0.6615499709
 21
4.1058769789
  0
LINE
  5
2D1
100
AcDbEntity
  8
0
100
AcDbLine
 62
7
  6
CONTINUOUS
 10
-0.3215499709
 20
12.3058769789
 11
-0.3215499709
 21
13.6058769789
  0
LINE
  5
2D2
100
AcDbEntity
  8
RACCORDO
100
AcDbLine
 62
250
  6
CONTINUOUS
 10
-0.0681784248
 20
20.5041131699
 11
-0.0680594896
 21
20.5558769789
  0
LINE
  5
2D3
100
AcDbEntity
  8
RACCORDO
100
AcDbLine
 62
250
  6
CONTINUOUS
 10
-0.0685271252
 20
20.455876979
 11
-0.0681784248
 21
20.5041131699
  0
LWPOLYLINE
  5
2D4
100
AcDbEntity
  8
RACCORDO
100
AcDbPolyline
 62
250
  6
CONTINUOUS
 90
19
 70
0
 10
0.2319405104
 20
20.8558769789
 10
0.2312580423
 20
20.8319574875
 10
0.2283088019
 20
20.8078527306
 10
0.223092789
 20
20.7835627082
 10
0.2156223022
 20
20.7587314346
 10
0.2058850429
 20
20.7337148955
 10
0.1938441162
 20
20.7095810479
 10
0.1793171058
 20
20.6863804132
 10
0.1624864279
 20
20.6640624699
 10
0.1438624364
 20
20.6435436107
 10
0.1233044305
 20
20.6249594353
 10
0.100953111
 20
20.6081743439
 10
0.0777409341
 20
20.5936979298
 10
0.0536199876
 20
20.581717238
 10
0.0286381836
 20
20.5720452235
 10
0.0038717146
 20
20.5646303445
 10
-0.0203206885
 20
20.5594554204
 10
-0.0442977566
 20
20.5565376319
 10
-0.0680594896
 20
20.5558769789
  0
LWPOLYLINE
  5
2D5
100
AcDbEntity
  8
RACCORDO
100
AcDbPolyline
 62
7
  6
CONTINUOUS
 90
4
 70
0
 10
-4.3264407967
 20
-16.8441230211
 10
-4.3229722806
 20
-16.8182465892
 10
-4.3197247779
 20
-16.7927609705
 10
-4.3111927541
 20
-16.7229144637
  0
LINE
  5
2D6
100
AcDbEntity
  8
SUPERFICI
100
AcDbLine
 62
7
  6
CONTINUOUS
 10
12.1284500291
 20
3.2558769789
 11
12.0034500052
 21
3.2239620863
  0
LINE
  5
2D7
100
AcDbEntity
  8
SUPERFICI
100
AcDbLine
 62
7
  6
CONTINUOUS
 10
1.6284500291
 20
0.2358769789
 11
2.8284500291
 21
0.2358769789
  0
LINE
  5
2D8
100
AcDbEntity
  8
0
100
AcDbLine
 62
7
  6
CONTINUOUS
 10
11.0284500291
 20
0.3058769789
 11
10.3284500291
 21
0.3058769789
  0
LINE
  5
2D9
100
AcDbEntity
  8
0
100
AcDbLine
 62
7
  6
CONTINUOUS
 10
8.6284500291
 20
0.3058769789
 11
7.9284500291
 21
0.3058769789
  0
LINE
  5
2DA
100
AcDbEntity
  8
0
100
AcDbLine
 62
7
  6
CONTINUOUS
 10
6.2284500291
 20
0.3058769789
 11
5.5284500291
 21
0.3058769789
  0
LINE
  5
2DB
100
AcDbEntity
  8
0
100
AcDbLine
 62
7
  6
CONTINUOUS
 10
3.8284500291
 20
0.3058769789
 11
3.1284500291
 21
0.3058769789
  0
LINE
  5
2DC
100
AcDbEntity
  8
SUPERFICI
100
AcDbLine
 62
7
  6
CONTINUOUS
 10
12.0034500052
 20
0.7452386972
 11
12.4534500231
 21
0.7452386972
  0
LINE
  5
2DD
100
AcDbEntity
  8
SUPERFICI
100
AcDbLine
 62
7
  6
CONTINUOUS
 10
12.478450035
 20
0.8728982564
 11
11.9784500291
 21
0.8728982564
  0
LINE
  5
2DE
100
AcDbEntity
  8
SUPERFICI
100
AcDbLine
 62
7
  6
CONTINUOUS
 10
12.7284500291
 20
1.2558769789
 11
12.5784500291
 21
1.2558769789
  0
LINE
  5
2DF
100
AcDbEntity
  8
SUPERFICI
100
AcDbLine
 62
7
  6
CONTINUOUS
 10
11.8784500529
 20
1.2558769789
 11
11.7284500529
 21
1.2558769789
  0
LINE
  5
2E0
100
AcDbEntity
  8
SUPERFICI
100
AcDbLine
 62
7
  6
CONTINUOUS
 10
10.0284500291
 20
1.2558769789
 11
8.8284500291
 21
1.2558769789
  0
LINE
  5
2E1
100
AcDbEntity
  8
SUPERFICI
100
AcDbLine
 62
7
  6
CONTINUOUS
 10
7.6284500291
 20
1.2558769789
 11
6.4284500291
 21
1.2558769789
  0
LINE
  5
2E2
100
AcDbEntity
  8
0
100
AcDbLine
 62
7
  6
CONTINUOUS
 10
11.0284500291
 20
1.3058769789
 11
10.3284500291
 21
1.3058769789
  0
LINE
  5
2E3
100
AcDbEntity
  8
0
100
AcDbLine
 62
7
  6
CONTINUOUS
 10
8.6284500291
 20
1.3058769789
 11
7.9284500291
 21
1.3058769789
  0
LINE
  5
2E4
100
AcDbEntity
  8
0
100
AcDbLine
 62
7
  6
CONTINUOUS
 10
6.2284500291
 20
1.3058769789
 11
5.5284500291
 21
1.3058769789
  0
LINE
  5
2E5
100
AcDbEntity
  8
0
100
AcDbLine
 62
7
  6
CONTINUOUS
 10
3.8284500291
 20
1.3058769789
 11
3.1284500291
 21
1.3058769789
  0
LINE
  5
2E6
100
AcDbEntity
  8
SUPERFICI
100
AcDbLine
 62
7
  6
CONTINUOUS
 10
6.4284500291
 20
1.3558769789
 11
7.6284500291
 21
1.3558769789
  0
LINE
  5
2E7
100
AcDbEntity
  8
SUPERFICI
100
AcDbLine
 62
7
  6
CONTINUOUS
 10
2.8284500291
 20
1.6358769789
 11
1.6284500291
 21
1.6358769789
  0
LINE
  5
2E8
100
AcDbEntity
  8
SUPERFICI
100
AcDbLine
 62
7
  6
CONTINUOUS
 10
5.2284500291
 20
1.6558769789
 11
4.1284500291
 21
1.6558769789
  0
LINE
  5
2E9
100
AcDbEntity
  8
SUPERFICI
100
AcDbLine
 62
7
  6
CONTINUOUS
 10
12.1284500291
 20
1.7558769789
 11
12.7284500291
 21
1.7558769789
  0
LINE
  5
2EA
100
AcDbEntity
  8
SUPERFICI
100
AcDbLine
 62
7
  6
CONTINUOUS
 10
1.6284500291
 20
1.8858769789
 11
2.8284500291
 21
1.8858769789
  0
LINE
  5
2EB
100
AcDbEntity
  8
0
100
AcDbLine
 62
7
  6
CONTINUOUS
 10
-6.4715499709
 20
1.9058769789
 11
-5.4715499709
 21
1.9058769789
  0
LINE
  5
2EC
100
AcDbEntity
  8
SUPERFICI
100
AcDbLine
 62
7
  6
CONTINUOUS
 10
12.5784500291
 20
1.9473663178
 11
12.1034500529
 21
1.9473663178
  0
LINE
  5
2ED
100
AcDbEntity
  8
SUPERFICI
100
AcDbLine
 62
7
  6
CONTINUOUS
 10
9.1651166751
 20
-1.3462506625
 11
9.2734500291
 21
-1.3739102337
  0
LINE
  5
2EE
100
AcDbEntity
  8
SUPERFICI
100
AcDbLine
 62
7
  6
CONTINUOUS
 10
9.5117833676
 20
-0.5717825947
 11
9.4034500291
 21
-0.5441230211
  0
LINE
  5
2EF
100
AcDbEntity
  8
SUPERFICI
100
AcDbLine
 62
7
  6
CONTINUOUS
 10
2.2817833521
 20
-0.6824208963
 11
2.3684500291
 21
-0.7100804675
  0
LINE
  5
2F0
100
AcDbEntity
  8
SUPERFICI
100
AcDbLine
 62
7
  6
CONTINUOUS
 10
9.2734500291
 20
-1.2356123779
 11
9.1867833831
 21
-1.2079528067
  0
LINE
  5
2F1
100
AcDbEntity
  8
SUPERFICI
100
AcDbLine
 62
7
  6
CONTINUOUS
 10
1.9784500291
 20
-1.1802932355
 11
2.0217833831
 21
-1.2079528067
  0
LINE
  5
2F2
100
AcDbEntity
  8
SUPERFICI
100
AcDbLine
 62
7
  6
CONTINUOUS
 10
2.1084500291
 20
-1.1249740932
 11
2.0217833831
 21
-1.0696549508
  0
LINE
  5
2F3
100
AcDbEntity
  8
SUPERFICI
100
AcDbLine
 62
7
  6
CONTINUOUS
 10
2.4984500291
 20
-1.2356123779
 11
2.4551166906
 21
-1.2079528067
  0
LINE
  5
2F4
100
AcDbEntity
  8
SUPERFICI
100
AcDbLine
 62
7
  6
CONTINUOUS
 10
2.3684500291
 20
-0.7100804675
 11
2.4551166906
 21
-0.7653996098
  0
LINE
  5
2F5
100
AcDbEntity
  8
SUPERFICI
100
AcDbLine
 62
7
  6
CONTINUOUS
 10
1.9784500291
 20
-1.7334847364
 11
2.0867833831
 21
-1.8164634499
  0
LINE
  5
2F6
100
AcDbEntity
  8
SUPERFICI
100
AcDbLine
 62
7
  6
CONTINUOUS
 10
2.5201166983
 20
-0.6547613155
 11
2.4117833676
 21
-0.5717825947
  0
LINE
  5
2F7
100
AcDbEntity
  8
SUPERFICI
100
AcDbLine
 62
7
  6
CONTINUOUS
 10
2.1084500291
 20
-1.6781655941
 11
2.0217833831
 21
-1.5951868806
  0
LINE
  5
2F8
100
AcDbEntity
  8
SUPERFICI
100
AcDbLine
 62
7
  6
CONTINUOUS
 10
1.8917833831
 20
-1.097314522
 11
1.9784500291
 21
-1.1802932355
  0
LINE
  5
2F9
100
AcDbEntity
  8
SUPERFICI
100
AcDbLine
 62
7
  6
CONTINUOUS
 10
2.3684500291
 20
-1.2909315202
 11
2.4551166906
 21
-1.3739102337
  0
LINE
  5
2FA
100
AcDbEntity
  8
SUPERFICI
100
AcDbLine
 62
7
  6
CONTINUOUS
 10
1.9134500291
 20
-1.6505060229
 11
1.9784500291
 21
-1.7334847364
  0
LINE
  5
2FB
100
AcDbEntity
  8
SUPERFICI
100
AcDbLine
 62
7
  6
CONTINUOUS
 10
2.5634500291
 20
-1.3185910914
 11
2.4984500291
 21
-1.2356123779
  0
LINE
  5
2FC
100
AcDbEntity
  8
RACCORDO
100
AcDbLine
 62
250
  6
CONTINUOUS
 10
0.2319405104
 20
21.9730342664
 11
0.2319405104
 21
20.8558769789
  0
LINE
  5
2FD
100
AcDbEntity
  8
RACCORDO
100
AcDbLine
 62
250
  6
CONTINUOUS
 10
0.2319405104
 20
-18.2612803086
 11
0.2319405104
 21
-17.1441230211
  0
LINE
  5
2FE
100
AcDbEntity
  8
RACCORDO
100
AcDbLine
 62
7
  6
CONTINUOUS
 10
0.4284500291
 20
21.9730342664
 11
0.4284500291
 21
20.8558769789
  0
LINE
  5
2FF
100
AcDbEntity
  8
RACCORDO
100
AcDbLine
 62
7
  6
CONTINUOUS
 10
0.4284500291
 20
-18.2612803086
 11
0.4284500291
 21
-17.1441230211
  0
LINE
  5
300
100
AcDbEntity
  8
0
100
AcDbLine
 62
7
  6
CONTINUOUS
 10
1.5284500291
 20
4.3058769789
 11
1.5284500291
 21
4.1058769789
  0
LINE
  5
301
100
AcDbEntity
  8
SUPERFICI
100
AcDbLine
 62
7
  6
CONTINUOUS
 10
1.6284500291
 20
3.2558769789
 11
1.6284500291
 21
1.8858769789
  0
LINE
  5
302
100
AcDbEntity
  8
SUPERFICI
100
AcDbLine
 62
7
  6
CONTINUOUS
 10
1.6284500291
 20
1.6358769789
 11
1.6284500291
 21
0.2358769789
  0
LINE
  5
303
100
AcDbEntity
  8
ASSI
100
AcDbLine
 62
7
  6
CONTINUOUS
 10
1.6784500291
 20
14.7058769789
 11
1.6784500291
 21
12.3058769789
  0
LINE
  5
304
100
AcDbEntity
  8
SUPERFICI
100
AcDbLine
 62
7
  6
CONTINUOUS
 10
1.8484500291
 20
-0.8760379139
 11
1.8484500291
 21
-0.9590166274
  0
LINE
  5
305
100
AcDbEntity
  8
SUPERFICI
100
AcDbLine
 62
7
  6
CONTINUOUS
 10
1.8701166751
 20
-1.4292293761
 11
1.8701166751
 21
-1.5122080896
  0
LINE
  5
306
100
AcDbEntity
  8
SUPERFICI
100
AcDbLine
 62
7
  6
CONTINUOUS
 10
1.9567833831
 20
-0.9590166274
 11
1.9567833831
 21
-0.8760379139
  0
LINE
  5
307
100
AcDbEntity
  8
SUPERFICI
100
AcDbLine
 62
7
  6
CONTINUOUS
 10
1.9784500291
 20
-1.5122080896
 11
1.9784500291
 21
-1.4568889472
  0
LWPOLYLINE
  5
308
100
AcDbEntity
  8
RACCORDO
100
AcDbPolyline
 62
250
  6
CONTINUOUS
 90
11
 70
0
 10
-7.5171219927
 20
-5.595010739
 10
-7.5368429694
 20
-5.608183484
 10
-7.5582967428
 20
-5.6201928532
 10
-7.5814692548
 20
-5.630997969
 10
-7.6059431037
 20
-5.6405480069
 10
-7.6318210017
 20
-5.6488060648
 10
-7.6589229668
 20
-5.6556639513
 10
-7.6864003069
 20
-5.6610159428
 10
-7.7139356755
 20
-5.664858304
 10
-7.7417510823
 20
-5.6672365841
 10
-7.7698027313
 20
-5.6681840234
  0
LINE
  5
309
100
AcDbEntity
  8
RACCORDO
100
AcDbLine
 62
7
  6
CONTINUOUS
 10
-6.1715499709
 20
2.7457637171
 11
-7.5715499709
 21
2.7335461022
  0
LINE
  5
30A
100
AcDbEntity
  8
SUPERFICI
100
AcDbLine
 62
7
  6
CONTINUOUS
 10
12.1034500529
 20
2.3941748645
 11
12.5784500291
 21
2.3941748645
  0
LINE
  5
30B
100
AcDbEntity
  8
SUPERFICI
100
AcDbLine
 62
7
  6
CONTINUOUS
 10
12.5784500291
 20
2.5856642034
 11
12.1034500529
 21
2.5856642034
  0
LINE
  5
30C
100
AcDbEntity
  8
SUPERFICI
100
AcDbLine
 62
7
  6
CONTINUOUS
 10
10.0284500291
 20
2.8558769789
 11
8.8284500291
 21
2.8558769789
  0
LINE
  5
30D
100
AcDbEntity
  8
SUPERFICI
100
AcDbLine
 62
7
  6
CONTINUOUS
 10
7.6284500291
 20
2.8558769789
 11
6.4284500291
 21
2.8558769789
  0
LINE
  5
30E
100
AcDbEntity
  8
SUPERFICI
100
AcDbLine
 62
7
  6
CONTINUOUS
 10
12.1034500529
 20
3.0643876177
 11
12.5784500291
 21
3.0643876177
  0
LINE
  5
30F
100
AcDbEntity
  8
SUPERFICI
100
AcDbLine
 62
7
  6
CONTINUOUS
 10
5.2284500291
 20
3.2058769789
 11
4.1284500291
 21
3.2058769789
  0
LINE
  5
310
100
AcDbEntity
  8
SUPERFICI
100
AcDbLine
 62
7
  6
CONTINUOUS
 10
12.7284500291
 20
3.2558769789
 11
12.1284500291
 21
3.2558769789
  0
LINE
  5
311
100
AcDbEntity
  8
SUPERFICI
100
AcDbLine
 62
7
  6
CONTINUOUS
 10
2.8284500291
 20
3.2558769789
 11
1.6284500291
 21
3.2558769789
  0
LINE
  5
312
100
AcDbEntity
  8
RACCORDO
100
AcDbLine
 62
7
  6
CONTINUOUS
 10
-6.1715499709
 20
3.5659902406
 11
-7.5715499709
 21
3.5782078556
  0
LINE
  5
313
100
AcDbEntity
  8
SUPERFICI
100
AcDbLine
 62
7
  6
CONTINUOUS
 10
9.4034500291
 20
-0.6824208963
 11
9.4901166906
 21
-0.7100804675
  0
LINE
  5
314
100
AcDbEntity
  8
SUPERFICI
100
AcDbLine
 62
7
  6
CONTINUOUS
 10
2.5851166945
 20
-0.7377400387
 11
2.5201166983
 21
-0.6547613155
  0
LINE
  5
315
100
AcDbEntity
  8
SUPERFICI
100
AcDbLine
 62
7
  6
CONTINUOUS
 10
2.0217833831
 20
-1.0696549508
 11
1.9567833831
 21
-0.9590166274
  0
LINE
  5
316
100
AcDbEntity
  8
SUPERFICI
100
AcDbLine
 62
7
  6
CONTINUOUS
 10
2.4551166906
 20
-0.7653996098
 11
2.5201166983
 21
-0.8760379139
  0
LINE
  5
317
100
AcDbEntity
  8
SUPERFICI
100
AcDbLine
 62
7
  6
CONTINUOUS
 10
2.0217833831
 20
-1.5951868806
 11
1.9784500291
 21
-1.5122080896
  0
LINE
  5
318
100
AcDbEntity
  8
SUPERFICI
100
AcDbLine
 62
7
  6
CONTINUOUS
 10
2.4551166906
 20
-1.3739102337
 11
2.4984500291
 21
-1.4568889472
  0
LINE
  5
319
100
AcDbEntity
  8
SUPERFICI
100
AcDbLine
 62
7
  6
CONTINUOUS
 10
2.6067833618
 20
-1.4292293761
 11
2.5634500291
 21
-1.3185910914
  0
LINE
  5
31A
100
AcDbEntity
  8
SUPERFICI
100
AcDbLine
 62
7
  6
CONTINUOUS
 10
1.8701166751
 20
-1.5122080896
 11
1.9134500291
 21
-1.6505060229
  0
LINE
  5
31B
100
AcDbEntity
  8
SUPERFICI
100
AcDbLine
 62
7
  6
CONTINUOUS
 10
1.8484500291
 20
-0.9590166274
 11
1.8917833831
 21
-1.097314522
  0
LINE
  5
31C
100
AcDbEntity
  8
SUPERFICI
100
AcDbLine
 62
7
  6
CONTINUOUS
 10
2.6284500291
 20
-0.8760379139
 11
2.5851166945
 21
-0.7377400387
  0
LINE
  5
31D
100
AcDbEntity
  8
SUPERFICI
100
AcDbLine
 62
7
  6
CONTINUOUS
 10
2.4984500291
 20
-1.4568889472
 11
2.4984500291
 21
-1.5122080896
  0
LINE
  5
31E
100
AcDbEntity
  8
SUPERFICI
100
AcDbLine
 62
7
  6
CONTINUOUS
 10
2.5201166983
 20
-0.8760379139
 11
2.5201166983
 21
-0.9590166274
  0
LINE
  5
31F
100
AcDbEntity
  8
SUPERFICI
100
AcDbLine
 62
7
  6
CONTINUOUS
 10
2.6067833618
 20
-1.5122080896
 11
2.6067833618
 21
-1.4292293761
  0
LINE
  5
320
100
AcDbEntity
  8
SUPERFICI
100
AcDbLine
 62
7
  6
CONTINUOUS
 10
2.6284500291
 20
-0.9590166274
 11
2.6284500291
 21
-0.8760379139
  0
LINE
  5
321
100
AcDbEntity
  8
SUPERFICI
100
AcDbLine
 62
7
  6
CONTINUOUS
 10
2.8284500291
 20
0.2358769789
 11
2.8284500291
 21
1.6358769789
  0
LINE
  5
322
100
AcDbEntity
  8
SUPERFICI
100
AcDbLine
 62
7
  6
CONTINUOUS
 10
2.8284500291
 20
1.8858769789
 11
2.8284500291
 21
3.2558769789
  0
LINE
  5
323
100
AcDbEntity
  8
0
100
AcDbLine
 62
7
  6
CONTINUOUS
 10
3.1284500291
 20
0.3058769789
 11
3.1284500291
 21
2.4058769789
  0
LINE
  5
324
100
AcDbEntity
  8
0
100
AcDbLine
 62
7
  6
CONTINUOUS
 10
3.8284500291
 20
2.4058769789
 11
3.8284500291
 21
0.3058769789
  0
LINE
  5
325
100
AcDbEntity
  8
0
100
AcDbLine
 62
7
  6
CONTINUOUS
 10
3.9284500291
 20
4.3058769789
 11
3.9284500291
 21
2.6806247208
  0
LINE
  5
326
100
AcDbEntity
  8
SUPERFICI
100
AcDbLine
 62
7
  6
CONTINUOUS
 10
1.8917833831
 20
-0.7377400387
 11
1.8484500291
 21
-0.8760379139
  0
LINE
  5
327
100
AcDbEntity
  8
SUPERFICI
100
AcDbLine
 62
7
  6
CONTINUOUS
 10
2.5851166945
 20
-1.097314522
 11
2.6284500291
 21
-0.9590166274
  0
LINE
  5
328
100
AcDbEntity
  8
SUPERFICI
100
AcDbLine
 62
7
  6
CONTINUOUS
 10
2.5634500291
 20
-1.6505060229
 11
2.6067833618
 21
-1.5122080896
  0
LINE
  5
329
100
AcDbEntity
  8
0
100
AcDbLine
 62
7
  6
CONTINUOUS
 10
4.4471994273
 20
4.1058769789
 11
3.8284500291
 21
2.4058769789
  0
LINE
  5
32A
100
AcDbEntity
  8
SUPERFICI
100
AcDbLine
 62
7
  6
CONTINUOUS
 10
1.9134500291
 20
-1.3185910914
 11
1.8701166751
 21
-1.4292293761
  0
LINE
  5
32B
100
AcDbEntity
  8
SUPERFICI
100
AcDbLine
 62
7
  6
CONTINUOUS
 10
1.9784500291
 20
-1.4568889472
 11
2.0217833831
 21
-1.3739102337
  0
LINE
  5
32C
100
AcDbEntity
  8
SUPERFICI
100
AcDbLine
 62
7
  6
CONTINUOUS
 10
2.4984500291
 20
-1.5122080896
 11
2.4551166906
 21
-1.5951868806
  0
LINE
  5
32D
100
AcDbEntity
  8
SUPERFICI
100
AcDbLine
 62
7
  6
CONTINUOUS
 10
1.9567833831
 20
-0.8760379139
 11
2.0217833831
 21
-0.7653996098
  0
LINE
  5
32E
100
AcDbEntity
  8
SUPERFICI
100
AcDbLine
 62
7
  6
CONTINUOUS
 10
2.5201166983
 20
-0.9590166274
 11
2.4551166906
 21
-1.0696549508
  0
LINE
  5
32F
100
AcDbEntity
  8
SUPERFICI
100
AcDbLine
 62
7
  6
CONTINUOUS
 10
1.9567833831
 20
-0.6547613155
 11
1.8917833831
 21
-0.7377400387
  0
LINE
  5
330
100
AcDbEntity
  8
SUPERFICI
100
AcDbLine
 62
7
  6
CONTINUOUS
 10
1.9784500291
 20
-1.2356123779
 11
1.9134500291
 21
-1.3185910914
  0
LINE
  5
331
100
AcDbEntity
  8
SUPERFICI
100
AcDbLine
 62
7
  6
CONTINUOUS
 10
4.1284500291
 20
1.9058769789
 11
5.2284500291
 21
3.2058769789
  0
LINE
  5
332
100
AcDbEntity
  8
SUPERFICI
100
AcDbLine
 62
7
  6
CONTINUOUS
 10
2.0217833831
 20
-1.3739102337
 11
2.1084500291
 21
-1.2909315202
  0
LINE
  5
333
100
AcDbEntity
  8
SUPERFICI
100
AcDbLine
 62
7
  6
CONTINUOUS
 10
2.4984500291
 20
-1.1802932355
 11
2.5851166945
 21
-1.097314522
  0
LINE
  5
334
100
AcDbEntity
  8
SUPERFICI
100
AcDbLine
 62
7
  6
CONTINUOUS
 10
2.0651166751
 20
-0.5717825947
 11
1.9567833831
 21
-0.6547613155
  0
LINE
  5
335
100
AcDbEntity
  8
SUPERFICI
100
AcDbLine
 62
7
  6
CONTINUOUS
 10
2.0217833831
 20
-0.7653996098
 11
2.1084500291
 21
-0.7100804675
  0
LINE
  5
336
100
AcDbEntity
  8
SUPERFICI
100
AcDbLine
 62
7
  6
CONTINUOUS
 10
2.0217833831
 20
-1.2079528067
 11
1.9784500291
 21
-1.2356123779
  0
LINE
  5
337
100
AcDbEntity
  8
SUPERFICI
100
AcDbLine
 62
7
  6
CONTINUOUS
 10
2.4551166906
 20
-1.0696549508
 11
2.3684500291
 21
-1.1249740932
  0
LINE
  5
338
100
AcDbEntity
  8
SUPERFICI
100
AcDbLine
 62
7
  6
CONTINUOUS
 10
2.4551166906
 20
-1.2079528067
 11
2.4984500291
 21
-1.1802932355
  0
LINE
  5
339
100
AcDbEntity
  8
SUPERFICI
100
AcDbLine
 62
7
  6
CONTINUOUS
 10
12.0284500529
 20
3.0324727279
 11
12.1034500529
 21
3.0643876177
  0
LINE
  5
33A
100
AcDbEntity
  8
SUPERFICI
100
AcDbLine
 62
7
  6
CONTINUOUS
 10
2.1084500291
 20
-0.7100804675
 11
2.1951167061
 21
-0.6824208963
  0
LINE
  5
33B
100
AcDbEntity
  8
SUPERFICI
100
AcDbLine
 62
7
  6
CONTINUOUS
 10
2.3684500291
 20
-1.1249740932
 11
2.2817833521
 21
-1.1526336644
  0
LINE
  5
33C
100
AcDbEntity
  8
SUPERFICI
100
AcDbLine
 62
7
  6
CONTINUOUS
 10
2.1084500291
 20
-1.2909315202
 11
2.1951167061
 21
-1.263271949
  0
LINE
  5
33D
100
AcDbEntity
  8
SUPERFICI
100
AcDbLine
 62
7
  6
CONTINUOUS
 10
2.3684500291
 20
-1.6781655941
 11
2.2817833521
 21
-1.7058251653
  0
LINE
  5
33E
100
AcDbEntity
  8
0
100
AcDbLine
 62
7
  6
CONTINUOUS
 10
-2.8615232027
 20
4.1058769789
 11
2.5071994273
 21
4.1058769789
  0
LINE
  5
33F
100
AcDbEntity
  8
0
100
AcDbLine
 62
7
  6
CONTINUOUS
 10
4.4471994273
 20
4.1058769789
 11
4.9097006308
 21
4.1058769789
  0
LINE
  5
340
100
AcDbEntity
  8
0
100
AcDbLine
 62
7
  6
CONTINUOUS
 10
6.8497006308
 20
4.1058769789
 11
7.3071994273
 21
4.1058769789
  0
LINE
  5
341
100
AcDbEntity
  8
0
100
AcDbLine
 62
7
  6
CONTINUOUS
 10
9.2471994273
 20
4.1058769789
 11
9.7097006308
 21
4.1058769789
  0
LINE
  5
342
100
AcDbEntity
  8
0
100
AcDbLine
 62
7
  6
CONTINUOUS
 10
11.6497006308
 20
4.1058769789
 11
13.7284500291
 21
4.1058769789
  0
LINE
  5
343
100
AcDbEntity
  8
0
100
AcDbLine
 62
7
  6
CONTINUOUS
 10
-2.9715499709
 20
4.3058769789
 11
13.8284500291
 21
4.3058769789
  0
LINE
  5
344
100
AcDbEntity
  8
SUPERFICI
100
AcDbLine
 62
7
  6
CONTINUOUS
 10
12.0034500052
 20
1.7877918687
 11
12.1284500291
 21
1.7558769789
  0
LINE
  5
345
100
AcDbEntity
  8
SUPERFICI
100
AcDbLine
 62
7
  6
CONTINUOUS
 10
9.0567833831
 20
-1.263271949
 11
9.1651166751
 21
-1.3462506625
  0
LINE
  5
346
100
AcDbEntity
  8
SUPERFICI
100
AcDbLine
 62
7
  6
CONTINUOUS
 10
9.6201166983
 20
-0.6547613155
 11
9.5117833676
 21
-0.5717825947
  0
LINE
  5
347
100
AcDbEntity
  8
SUPERFICI
100
AcDbLine
 62
7
  6
CONTINUOUS
 10
9.1867833831
 20
-1.2079528067
 11
9.1217833831
 21
-1.1526336644
  0
LINE
  5
348
100
AcDbEntity
  8
0
100
AcDbLine
 62
7
  6
CONTINUOUS
 10
3.1284500291
 20
2.4058769789
 11
2.8284500291
 21
3.2268017371
  0
LINE
  5
349
100
AcDbEntity
  8
0
100
AcDbLine
 62
7
  6
CONTINUOUS
 10
2.819076535
 20
3.2524515149
 11
2.5071994273
 21
4.1058769789
  0
LINE
  5
34A
100
AcDbEntity
  8
SUPERFICI
100
AcDbLine
 62
7
  6
CONTINUOUS
 10
4.1284500291
 20
3.2058769789
 11
4.1284500291
 21
1.9058769789
  0
LINE
  5
34B
100
AcDbEntity
  8
SUPERFICI
100
AcDbLine
 62
7
  6
CONTINUOUS
 10
4.1284500291
 20
1.6558769789
 11
4.1284500291
 21
0.2558769789
  0
LINE
  5
34C
100
AcDbEntity
  8
SUPERFICI
100
AcDbLine
 62
7
  6
CONTINUOUS
 10
4.1484500291
 20
-1.7058251653
 11
4.1484500291
 21
-1.8441230211
  0
LINE
  5
34D
100
AcDbEntity
  8
SUPERFICI
100
AcDbLine
 62
7
  6
CONTINUOUS
 10
4.9284500291
 20
-1.8441230211
 11
4.9284500291
 21
-1.7058251653
  0
LINE
  5
34E
100
AcDbEntity
  8
0
100
AcDbLine
 62
7
  6
CONTINUOUS
 10
5.1284500291
 20
4.3058769789
 11
5.1284500291
 21
3.5048679467
  0
LINE
  5
34F
100
AcDbEntity
  8
0
100
AcDbLine
 62
7
  6
CONTINUOUS
 10
5.5284500291
 20
0.3058769789
 11
5.5284500291
 21
2.4058769789
  0
LINE
  5
350
100
AcDbEntity
  8
0
100
AcDbLine
 62
7
  6
CONTINUOUS
 10
6.8497006308
 20
4.1058769789
 11
6.2284500291
 21
2.4058769789
  0
LINE
  5
351
100
AcDbEntity
  8
SUPERFICI
100
AcDbLine
 62
7
  6
CONTINUOUS
 10
4.5817833521
 20
-0.5441230211
 11
4.1484500291
 21
-1.7058251653
  0
LINE
  5
352
100
AcDbEntity
  8
SUPERFICI
100
AcDbLine
 62
7
  6
CONTINUOUS
 10
4.2784500291
 20
-1.7058251653
 11
4.7117833676
 21
-0.5441230211
  0
LINE
  5
353
100
AcDbEntity
  8
SUPERFICI
100
AcDbLine
 62
7
  6
CONTINUOUS
 10
2.4984500291
 20
-1.7334847364
 11
2.5634500291
 21
-1.6505060229
  0
LINE
  5
354
100
AcDbEntity
  8
SUPERFICI
100
AcDbLine
 62
7
  6
CONTINUOUS
 10
4.1284500291
 20
0.2558769789
 11
5.2284500291
 21
1.6558769789
  0
LINE
  5
355
100
AcDbEntity
  8
SUPERFICI
100
AcDbLine
 62
7
  6
CONTINUOUS
 10
2.4551166906
 20
-1.5951868806
 11
2.3684500291
 21
-1.6781655941
  0
LINE
  5
356
100
AcDbEntity
  8
SUPERFICI
100
AcDbLine
 62
7
  6
CONTINUOUS
 10
2.3901166906
 20
-1.8164634499
 11
2.4984500291
 21
-1.7334847364
  0
LINE
  5
357
100
AcDbEntity
  8
SUPERFICI
100
AcDbLine
 62
7
  6
CONTINUOUS
 10
11.9534500529
 20
2.489919534
 11
11.9034500291
 21
2.4580046442
  0
LINE
  5
358
100
AcDbEntity
  8
SUPERFICI
100
AcDbLine
 62
7
  6
CONTINUOUS
 10
12.0284500529
 20
2.3622599747
 11
12.1034500529
 21
2.3941748645
  0
LINE
  5
359
100
AcDbEntity
  8
SUPERFICI
100
AcDbLine
 62
7
  6
CONTINUOUS
 10
9.1867833831
 20
-0.7100804675
 11
9.2734500291
 21
-0.6824208963
  0
LINE
  5
35A
100
AcDbEntity
  8
SUPERFICI
100
AcDbLine
 62
7
  6
CONTINUOUS
 10
9.4901166906
 20
-1.2079528067
 11
9.4034500291
 21
-1.2356123779
  0
LINE
  5
35B
100
AcDbEntity
  8
SUPERFICI
100
AcDbLine
 62
7
  6
CONTINUOUS
 10
12.1034500529
 20
1.9473663178
 11
12.0284500529
 21
1.9792812076
  0
LINE
  5
35C
100
AcDbEntity
  8
SUPERFICI
100
AcDbLine
 62
7
  6
CONTINUOUS
 10
12.1034500529
 20
2.5856642034
 11
12.0284500529
 21
2.6175790932
  0
LWPOLYLINE
  5
35D
100
AcDbEntity
  8
RACCORDO
100
AcDbPolyline
 62
250
  6
CONTINUOUS
 90
9
 70
0
 10
-7.5175336371
 20
15.5070615863
 10
-7.4995072972
 20
15.4928281254
 10
-7.4837627322
 20
15.4777560103
 10
-7.4704320429
 20
15.4619968745
 10
-7.4594171615
 20
15.4456576224
 10
-7.4508495913
 20
15.4289139352
 10
-7.444772354
 20
15.4119163881
 10
-7.4411442624
 20
15.3947844215
 10
-7.4399605937
 20
15.3776488297
  0
LINE
  5
35E
100
AcDbEntity
  8
SUPERFICI
100
AcDbLine
 62
7
  6
CONTINUOUS
 10
9.4901166906
 20
-0.7100804675
 11
9.5551166906
 21
-0.7653996098
  0
LINE
  5
35F
100
AcDbEntity
  8
0
100
AcDbLine
 62
7
  6
CONTINUOUS
 10
5.5284500291
 20
2.4058769789
 11
4.9097006308
 21
4.1058769789
  0
LINE
  5
360
100
AcDbEntity
  8
0
100
AcDbLine
 62
7
  6
CONTINUOUS
 10
6.2284500291
 20
2.4058769789
 11
6.2284500291
 21
0.3058769789
  0
LINE
  5
361
100
AcDbEntity
  8
0
100
AcDbLine
 62
7
  6
CONTINUOUS
 10
6.3284500291
 20
4.3058769789
 11
6.3284500291
 21
2.6795185649
  0
LINE
  5
362
100
AcDbEntity
  8
SUPERFICI
100
AcDbLine
 62
7
  6
CONTINUOUS
 10
6.4284500291
 20
2.8558769789
 11
6.4284500291
 21
1.3558769789
  0
LINE
  5
363
100
AcDbEntity
  8
SUPERFICI
100
AcDbLine
 62
7
  6
CONTINUOUS
 10
6.4284500291
 20
1.2558769789
 11
6.4284500291
 21
-0.2441230211
  0
LINE
  5
364
100
AcDbEntity
  8
SUPERFICI
100
AcDbLine
 62
7
  6
CONTINUOUS
 10
6.5617833831
 20
-0.9313570562
 11
6.5617833831
 21
-1.097314522
  0
LINE
  5
365
100
AcDbEntity
  8
SUPERFICI
100
AcDbLine
 62
7
  6
CONTINUOUS
 10
6.7784500291
 20
-0.5441230211
 11
6.7784500291
 21
-0.9313570562
  0
LINE
  5
366
100
AcDbEntity
  8
SUPERFICI
100
AcDbLine
 62
7
  6
CONTINUOUS
 10
6.7784500291
 20
-1.097314522
 11
6.7784500291
 21
-1.8441230211
  0
LINE
  5
367
100
AcDbEntity
  8
SUPERFICI
100
AcDbLine
 62
7
  6
CONTINUOUS
 10
6.9084500291
 20
-1.6228464517
 11
6.9084500291
 21
-1.097314522
  0
LINE
  5
368
100
AcDbEntity
  8
SUPERFICI
100
AcDbLine
 62
7
  6
CONTINUOUS
 10
6.9084500291
 20
-0.9313570562
 11
6.9084500291
 21
-0.5441230211
  0
LINE
  5
369
100
AcDbEntity
  8
SUPERFICI
100
AcDbLine
 62
7
  6
CONTINUOUS
 10
7.4284500291
 20
-1.097314522
 11
7.4284500291
 21
-0.9313570562
  0
LINE
  5
36A
100
AcDbEntity
  8
0
100
AcDbLine
 62
7
  6
CONTINUOUS
 10
7.5284500291
 20
4.3058769789
 11
7.5284500291
 21
3.5004433231
  0
LINE
  5
36B
100
AcDbEntity
  8
SUPERFICI
100
AcDbLine
 62
7
  6
CONTINUOUS
 10
7.6284500291
 20
-0.2441230211
 11
7.6284500291
 21
1.2558769789
  0
LINE
  5
36C
100
AcDbEntity
  8
SUPERFICI
100
AcDbLine
 62
7
  6
CONTINUOUS
 10
7.6284500291
 20
1.3558769789
 11
7.6284500291
 21
2.8558769789
  0
LWPOLYLINE
  5
36D
100
AcDbEntity
  8
0
100
AcDbPolyline
 62
7
  6
CONTINUOUS
 90
2
 70
0
 43
0.3500000006
 10
7.6641643982
 20
34.1058788452
 10
7.6641643982
 20
35.6058747711
  0
LINE
  5
36E
100
AcDbEntity
  8
0
100
AcDbLine
 62
7
  6
CONTINUOUS
 10
7.9284500291
 20
0.3058769789
 11
7.9284500291
 21
2.4058769789
  0
LINE
  5
36F
100
AcDbEntity
  8
0
100
AcDbLine
 62
7
  6
CONTINUOUS
 10
9.2471994273
 20
4.1058769789
 11
8.6284500291
 21
2.4058769789
  0
LINE
  5
370
100
AcDbEntity
  8
SUPERFICI
100
AcDbLine
 62
7
  6
CONTINUOUS
 10
6.9084500291
 20
-1.8441230211
 11
7.4284500291
 21
-1.097314522
  0
LINE
  5
371
100
AcDbEntity
  8
SUPERFICI
100
AcDbLine
 62
7
  6
CONTINUOUS
 10
7.2767833676
 20
-1.097314522
 11
6.9084500291
 21
-1.6228464517
  0
LINE
  5
372
100
AcDbEntity
  8
SUPERFICI
100
AcDbLine
 62
7
  6
CONTINUOUS
 10
8.8284500291
 20
1.3558769789
 11
10.0284500291
 21
2.8558769789
  0
LINE
  5
373
100
AcDbEntity
  8
SUPERFICI
100
AcDbLine
 62
7
  6
CONTINUOUS
 10
12.0034500052
 20
3.2239620863
 11
11.9034500291
 21
3.1282174085
  0
LINE
  5
374
100
AcDbEntity
  8
SUPERFICI
100
AcDbLine
 62
7
  6
CONTINUOUS
 10
9.1217833831
 20
-0.7653996098
 11
9.1867833831
 21
-0.7100804675
  0
LINE
  5
375
100
AcDbEntity
  8
SUPERFICI
100
AcDbLine
 62
7
  6
CONTINUOUS
 10
9.1651166751
 20
-0.5717825947
 11
9.0567833831
 21
-0.6547613155
  0
LINE
  5
376
100
AcDbEntity
  8
RACCORDO
100
AcDbLine
 62
250
  6
CONTINUOUS
 10
-8.5715499709
 20
-7.8958929407
 11
-7.9502514585
 21
-7.6697587756
  0
LINE
  5
377
100
AcDbEntity
  8
RACCORDO
100
AcDbLine
 62
7
  6
CONTINUOUS
 10
-8.5715499709
 20
-8.1080932554
 11
-7.3529135918
 21
-7.664545887
  0
LINE
  5
378
100
AcDbEntity
  8
0
100
AcDbLine
 62
7
  6
CONTINUOUS
 10
-6.4715499709
 20
9.2058769789
 11
-5.4715499709
 21
9.2058769789
  0
LINE
  5
379
100
AcDbEntity
  8
SUPERFICI
100
AcDbLine
 62
7
  6
CONTINUOUS
 10
11.9034500291
 20
2.5218344238
 11
11.9534500529
 21
2.489919534
  0
LINE
  5
37A
100
AcDbEntity
  8
SUPERFICI
100
AcDbLine
 62
7
  6
CONTINUOUS
 10
8.9917833831
 20
-1.1526336644
 11
9.0567833831
 21
-1.263271949
  0
LINE
  5
37B
100
AcDbEntity
  8
SUPERFICI
100
AcDbLine
 62
7
  6
CONTINUOUS
 10
9.6851166945
 20
-0.7653996098
 11
9.6201166983
 21
-0.6547613155
  0
LINE
  5
37C
100
AcDbEntity
  8
SUPERFICI
100
AcDbLine
 62
7
  6
CONTINUOUS
 10
9.1217833831
 20
-1.1526336644
 11
9.0784500291
 21
-1.0696549508
  0
LINE
  5
37D
100
AcDbEntity
  8
SUPERFICI
100
AcDbLine
 62
7
  6
CONTINUOUS
 10
9.5551166906
 20
-0.7653996098
 11
9.5984500291
 21
-0.8760379139
  0
LINE
  5
37E
100
AcDbEntity
  8
0
100
AcDbLine
 62
7
  6
CONTINUOUS
 10
7.9284500291
 20
2.4058769789
 11
7.3071994273
 21
4.1058769789
  0
LINE
  5
37F
100
AcDbEntity
  8
SUPERFICI
100
AcDbLine
 62
7
  6
CONTINUOUS
 10
8.9484500291
 20
-1.0143357698
 11
8.9917833831
 21
-1.1526336644
  0
LINE
  5
380
100
AcDbEntity
  8
0
100
AcDbLine
 62
7
  6
CONTINUOUS
 10
8.6284500291
 20
2.4058769789
 11
8.6284500291
 21
0.3058769789
  0
LINE
  5
381
100
AcDbEntity
  8
0
100
AcDbLine
 62
7
  6
CONTINUOUS
 10
8.7284500291
 20
4.3058769789
 11
8.7284500291
 21
2.6806247208
  0
LINE
  5
382
100
AcDbEntity
  8
SUPERFICI
100
AcDbLine
 62
7
  6
CONTINUOUS
 10
8.8284500291
 20
2.8558769789
 11
8.8284500291
 21
1.3558769789
  0
LINE
  5
383
100
AcDbEntity
  8
SUPERFICI
100
AcDbLine
 62
7
  6
CONTINUOUS
 10
8.8284500291
 20
1.2558769789
 11
8.8284500291
 21
-0.2441230211
  0
LINE
  5
384
100
AcDbEntity
  8
SUPERFICI
100
AcDbLine
 62
7
  6
CONTINUOUS
 10
8.9484500291
 20
-0.9036974851
 11
8.9484500291
 21
-1.0143357698
  0
LINE
  5
385
100
AcDbEntity
  8
SUPERFICI
100
AcDbLine
 62
7
  6
CONTINUOUS
 10
8.9917833831
 20
-1.7058251653
 11
8.9917833831
 21
-1.8441230211
  0
LINE
  5
386
100
AcDbEntity
  8
SUPERFICI
100
AcDbLine
 62
7
  6
CONTINUOUS
 10
9.0567833831
 20
-0.9866761986
 11
9.0567833831
 21
-0.9313570562
  0
LINE
  5
387
100
AcDbEntity
  8
SUPERFICI
100
AcDbLine
 62
7
  6
CONTINUOUS
 10
9.6201166983
 20
-1.263271949
 11
9.6201166983
 21
-1.7058251653
  0
LINE
  5
388
100
AcDbEntity
  8
SUPERFICI
100
AcDbLine
 62
7
  6
CONTINUOUS
 10
9.7284500291
 20
-1.8441230211
 11
9.7284500291
 21
-1.1249740932
  0
LINE
  5
389
100
AcDbEntity
  8
0
100
AcDbLine
 62
7
  6
CONTINUOUS
 10
9.9284500291
 20
4.3058769789
 11
9.9284500291
 21
3.5048679467
  0
LINE
  5
38A
100
AcDbEntity
  8
SUPERFICI
100
AcDbLine
 62
7
  6
CONTINUOUS
 10
9.0567833831
 20
-0.9313570562
 11
9.0784500291
 21
-0.8483783427
  0
LINE
  5
38B
100
AcDbEntity
  8
SUPERFICI
100
AcDbLine
 62
7
  6
CONTINUOUS
 10
8.9917833831
 20
-0.7653996098
 11
8.9484500291
 21
-0.9036974851
  0
LINE
  5
38C
100
AcDbEntity
  8
SUPERFICI
100
AcDbLine
 62
7
  6
CONTINUOUS
 10
9.0784500291
 20
-0.8483783427
 11
9.1217833831
 21
-0.7653996098
  0
LINE
  5
38D
100
AcDbEntity
  8
SUPERFICI
100
AcDbLine
 62
7
  6
CONTINUOUS
 10
9.0567833831
 20
-0.6547613155
 11
8.9917833831
 21
-0.7653996098
  0
LINE
  5
38E
100
AcDbEntity
  8
SUPERFICI
100
AcDbLine
 62
7
  6
CONTINUOUS
 10
11.9034500291
 20
3.1282174085
 11
11.8284500291
 21
3.000557838
  0
LINE
  5
38F
100
AcDbEntity
  8
SUPERFICI
100
AcDbLine
 62
7
  6
CONTINUOUS
 10
11.9034500291
 20
2.4580046442
 11
11.8284500291
 21
2.3303450849
  0
LINE
  5
390
100
AcDbEntity
  8
SUPERFICI
100
AcDbLine
 62
7
  6
CONTINUOUS
 10
11.9784500291
 20
2.9686429259
 11
12.0284500529
 21
3.0324727279
  0
LINE
  5
391
100
AcDbEntity
  8
SUPERFICI
100
AcDbLine
 62
7
  6
CONTINUOUS
 10
11.9784500291
 20
2.2984301951
 11
12.0284500529
 21
2.3622599747
  0
LINE
  5
392
100
AcDbEntity
  8
SUPERFICI
100
AcDbLine
 62
7
  6
CONTINUOUS
 10
8.8284500291
 20
-0.2441230211
 11
10.0284500291
 21
1.2558769789
  0
LINE
  5
393
100
AcDbEntity
  8
SUPERFICI
100
AcDbLine
 62
7
  6
CONTINUOUS
 10
9.5767833676
 20
-1.1249740932
 11
9.4901166906
 21
-1.2079528067
  0
LINE
  5
394
100
AcDbEntity
  8
SUPERFICI
100
AcDbLine
 62
7
  6
CONTINUOUS
 10
9.5117833676
 20
-1.3462506625
 11
9.6201166983
 21
-1.263271949
  0
LINE
  5
395
100
AcDbEntity
  8
RACCORDO
100
AcDbLine
 62
7
  6
CONTINUOUS
 10
-6.4715499709
 20
10.4431456568
 11
-7.5715499709
 21
10.4335461022
  0
LINE
  5
396
100
AcDbEntity
  8
0
100
AcDbLine
 62
7
  6
CONTINUOUS
 10
-7.5715499709
 20
11.3058769789
 11
-4.4715499709
 21
11.3058769789
  0
LINE
  5
397
100
AcDbEntity
  8
RACCORDO
100
AcDbLine
 62
7
  6
CONTINUOUS
 10
-6.471875185
 20
11.2686111391
 11
-7.5715499709
 21
11.2782078556
  0
LINE
  5
398
100
AcDbEntity
  8
SUPERFICI
100
AcDbLine
 62
7
  6
CONTINUOUS
 10
11.9034500291
 20
1.8835365381
 11
12.0034500052
 21
1.7877918687
  0
LINE
  5
399
100
AcDbEntity
  8
SUPERFICI
100
AcDbLine
 62
7
  6
CONTINUOUS
 10
12.0284500529
 20
1.9792812076
 11
11.9784500291
 21
2.0431109872
  0
LINE
  5
39A
100
AcDbEntity
  8
SUPERFICI
100
AcDbLine
 62
7
  6
CONTINUOUS
 10
12.0284500529
 20
2.6175790932
 11
11.9784500291
 21
2.6814088729
  0
LINE
  5
39B
100
AcDbEntity
  8
SUPERFICI
100
AcDbLine
 62
7
  6
CONTINUOUS
 10
9.7284500291
 20
-0.8760379139
 11
9.6851166945
 21
-0.7653996098
  0
LINE
  5
39C
100
AcDbEntity
  8
0
100
AcDbLine
 62
7
  6
CONTINUOUS
 10
10.3284500291
 20
2.4058769789
 11
9.7097006308
 21
4.1058769789
  0
LINE
  5
39D
100
AcDbEntity
  8
SUPERFICI
100
AcDbLine
 62
7
  6
CONTINUOUS
 10
9.0784500291
 20
-1.0696549508
 11
9.0567833831
 21
-0.9866761986
  0
LINE
  5
39E
100
AcDbEntity
  8
0
100
AcDbLine
 62
7
  6
CONTINUOUS
 10
10.3284500291
 20
0.3058769789
 11
10.3284500291
 21
2.4058769789
  0
LINE
  5
39F
100
AcDbEntity
  8
0
100
AcDbLine
 62
7
  6
CONTINUOUS
 10
11.0284500291
 20
2.4058769789
 11
11.0284500291
 21
0.3058769789
  0
LINE
  5
3A0
100
AcDbEntity
  8
0
100
AcDbLine
 62
7
  6
CONTINUOUS
 10
11.2284500291
 20
4.3058769789
 11
11.2284500291
 21
2.953160151
  0
LINE
  5
3A1
100
AcDbEntity
  8
SUPERFICI
100
AcDbLine
 62
7
  6
CONTINUOUS
 10
11.8034500529
 20
2.9048131463
 11
11.8034500529
 21
2.7452386972
  0
LINE
  5
3A2
100
AcDbEntity
  8
SUPERFICI
100
AcDbLine
 62
7
  6
CONTINUOUS
 10
11.8034500529
 20
2.2346004155
 11
11.8034500529
 21
2.1069407668
  0
LINE
  5
3A3
100
AcDbEntity
  8
SUPERFICI
100
AcDbLine
 62
7
  6
CONTINUOUS
 10
11.9534500529
 20
2.138855746
 11
11.9534500529
 21
2.2026855257
  0
LINE
  5
3A4
100
AcDbEntity
  8
SUPERFICI
100
AcDbLine
 62
7
  6
CONTINUOUS
 10
11.9534500529
 20
2.777153587
 11
11.9534500529
 21
2.8728982564
  0
LINE
  5
3A5
100
AcDbEntity
  8
SUPERFICI
100
AcDbLine
 62
7
  6
CONTINUOUS
 10
11.8284500291
 20
3.000557838
 11
11.8034500529
 21
2.9048131463
  0
LINE
  5
3A6
100
AcDbEntity
  8
SUPERFICI
100
AcDbLine
 62
7
  6
CONTINUOUS
 10
11.9534500529
 20
2.8728982564
 11
11.9784500291
 21
2.9686429259
  0
LINE
  5
3A7
100
AcDbEntity
  8
SUPERFICI
100
AcDbLine
 62
7
  6
CONTINUOUS
 10
11.8284500291
 20
2.3303450849
 11
11.8034500529
 21
2.2346004155
  0
LINE
  5
3A8
100
AcDbEntity
  8
SUPERFICI
100
AcDbLine
 62
7
  6
CONTINUOUS
 10
11.9534500529
 20
2.2026855257
 11
11.9784500291
 21
2.2984301951
  0
LINE
  5
3A9
100
AcDbEntity
  8
0
100
AcDbLine
 62
7
  6
CONTINUOUS
 10
11.6497006308
 20
4.1058769789
 11
11.0284500291
 21
2.4058769789
  0
LINE
  5
3AA
100
AcDbEntity
  8
0
100
AcDbLine
 62
7
  6
CONTINUOUS
 10
-0.3215499709
 20
12.3058769789
 11
-4.4715499709
 21
11.3058769789
  0
LINE
  5
3AB
100
AcDbEntity
  8
0
100
AcDbLine
 62
7
  6
CONTINUOUS
 10
13.8284500291
 20
12.3058769789
 11
-0.3215499709
 21
12.3058769789
  0
LINE
  5
3AC
100
AcDbEntity
  8
ASSI
100
AcDbLine
 62
7
  6
CONTINUOUS
 10
-0.3215499709
 20
13.6058769789
 11
-7.5715499709
 21
13.6058769789
  0
LINE
  5
3AD
100
AcDbEntity
  8
SUPERFICI
100
AcDbLine
 62
7
  6
CONTINUOUS
 10
11.8284500291
 20
2.0111960974
 11
11.9034500291
 21
1.8835365381
  0
LINE
  5
3AE
100
AcDbEntity
  8
SUPERFICI
100
AcDbLine
 62
7
  6
CONTINUOUS
 10
11.8284500291
 20
2.649493983
 11
11.9034500291
 21
2.5218344238
  0
LINE
  5
3AF
100
AcDbEntity
  8
SUPERFICI
100
AcDbLine
 62
7
  6
CONTINUOUS
 10
11.7284500529
 20
1.2558769789
 11
12.1284500291
 21
-0.2441230211
  0
LINE
  5
3B0
100
AcDbEntity
  8
SUPERFICI
100
AcDbLine
 62
7
  6
CONTINUOUS
 10
12.228450041
 20
-0.1164634619
 11
12.0034500052
 21
0.7452386972
  0
LINE
  5
3B1
100
AcDbEntity
  8
SUPERFICI
100
AcDbLine
 62
7
  6
CONTINUOUS
 10
11.9784500291
 20
0.8728982564
 11
11.8784500529
 21
1.2558769789
  0
LINE
  5
3B2
100
AcDbEntity
  8
SUPERFICI
100
AcDbLine
 62
7
  6
CONTINUOUS
 10
11.8034500529
 20
2.1069407668
 11
11.8284500291
 21
2.0111960974
  0
LINE
  5
3B3
100
AcDbEntity
  8
SUPERFICI
100
AcDbLine
 62
7
  6
CONTINUOUS
 10
11.9784500291
 20
2.0431109872
 11
11.9534500529
 21
2.138855746
  0
LINE
  5
3B4
100
AcDbEntity
  8
SUPERFICI
100
AcDbLine
 62
7
  6
CONTINUOUS
 10
11.8034500529
 20
2.7452386972
 11
11.8284500291
 21
2.649493983
  0
LINE
  5
3B5
100
AcDbEntity
  8
SUPERFICI
100
AcDbLine
 62
7
  6
CONTINUOUS
 10
11.9784500291
 20
2.6814088729
 11
11.9534500529
 21
2.777153587
  0
LINE
  5
3B6
100
AcDbEntity
  8
0
100
AcDbLine
 62
7
  6
CONTINUOUS
 10
12.5284500291
 20
4.3058769789
 11
12.5284500291
 21
4.1058769789
  0
LINE
  5
3B7
100
AcDbEntity
  8
SUPERFICI
100
AcDbLine
 62
7
  6
CONTINUOUS
 10
12.5784500291
 20
3.0643876177
 11
12.5784500291
 21
2.5856642034
  0
LINE
  5
3B8
100
AcDbEntity
  8
SUPERFICI
100
AcDbLine
 62
7
  6
CONTINUOUS
 10
12.5784500291
 20
2.3941748645
 11
12.5784500291
 21
1.9473663178
  0
LINE
  5
3B9
100
AcDbEntity
  8
SUPERFICI
100
AcDbLine
 62
7
  6
CONTINUOUS
 10
12.7284500291
 20
1.7558769789
 11
12.7284500291
 21
3.2558769789
  0
LINE
  5
3BA
100
AcDbEntity
  8
ASSI
100
AcDbLine
 62
7
  6
CONTINUOUS
 10
12.9284500291
 20
4.3058769789
 11
12.9284500291
 21
4.1058769789
  0
LINE
  5
3BB
100
AcDbEntity
  8
ASSI
100
AcDbLine
 62
7
  6
CONTINUOUS
 10
13.7284500291
 20
4.3058769789
 11
13.7284500291
 21
4.1058769789
  0
LINE
  5
3BC
100
AcDbEntity
  8
0
100
AcDbLine
 62
7
  6
CONTINUOUS
 10
13.7284500291
 20
-2.6941230211
 11
13.7284500291
 21
4.1058769789
  0
LINE
  5
3BD
100
AcDbEntity
  8
0
100
AcDbLine
 62
7
  6
CONTINUOUS
 10
13.8284500291
 20
4.3058769789
 11
13.8284500291
 21
12.3058769789
  0
LINE
  5
3BE
100
AcDbEntity
  8
SUPERFICI
100
AcDbLine
 62
7
  6
CONTINUOUS
 10
12.5784500291
 20
1.2558769789
 11
12.478450035
 21
0.8728982564
  0
LINE
  5
3BF
100
AcDbEntity
  8
SUPERFICI
100
AcDbLine
 62
7
  6
CONTINUOUS
 10
12.4534500231
 20
0.7452386972
 11
12.228450041
 21
-0.1164634619
  0
LINE
  5
3C0
100
AcDbEntity
  8
SUPERFICI
100
AcDbLine
 62
7
  6
CONTINUOUS
 10
12.3284500172
 20
-0.2441230211
 11
12.7284500291
 21
1.2558769789
  0
LINE
  5
3C1
100
AcDbEntity
  8
RACCORDO
100
AcDbLine
 62
7
  6
CONTINUOUS
 10
-6.1715499709
 20
14.7457637171
 11
-7.5715499709
 21
14.7335461022
  0
LINE
  5
3C2
100
AcDbEntity
  8
0
100
AcDbLine
 62
7
  6
CONTINUOUS
 10
-7.2715499709
 20
14.3558769789
 11
-7.5715499709
 21
14.3558769789
  0
LINE
  5
3C3
100
AcDbEntity
  8
ASSI
100
AcDbLine
 62
7
  6
CONTINUOUS
 10
-6.9215499709
 20
14.7058769789
 11
1.6784500291
 21
14.7058769789
  0
LINE
  5
3C4
100
AcDbEntity
  8
RACCORDO
100
AcDbLine
 62
250
  6
CONTINUOUS
 10
-7.5715499709
 20
15.0799341899
 11
-7.7715499709
 21
15.0799341899
  0
LINE
  5
3C5
100
AcDbEntity
  8
RACCORDO
100
AcDbLine
 62
250
  6
CONTINUOUS
 10
-6.1715499709
 20
15.3677279985
 11
-6.3689439279
 21
15.3683022088
  0
LINE
  5
3C6
100
AcDbEntity
  8
RACCORDO
100
AcDbLine
 62
250
  6
CONTINUOUS
 10
-8.5715499709
 20
15.0869156842
 11
-7.7715499709
 21
15.0799341899
  0
LINE
  5
3C7
100
AcDbEntity
  8
RACCORDO
100
AcDbLine
 62
7
  6
CONTINUOUS
 10
-6.3698046638
 20
15.5677203831
 11
-8.5715499709
 21
15.5869347233
  0
LINE
  5
3C8
100
AcDbEntity
  8
RACCORDO
100
AcDbLine
 62
250
  6
CONTINUOUS
 10
-7.5087983
 20
15.3784143842
 11
-6.3689439279
 21
15.3683022088
  0
LWPOLYLINE
  5
3C9
100
AcDbEntity
  8
RACCORDO
100
AcDbPolyline
 62
250
  6
CONTINUOUS
 90
11
 70
0
 10
-7.7698029192
 20
15.5799379828
 10
-7.7418977473
 20
15.5789990324
 10
-7.7142183058
 20
15.5766433624
 10
-7.6868077789
 20
15.5728372513
 10
-7.6594588679
 20
15.5675382523
 10
-7.6324727647
 20
15.5607471504
 10
-7.6066524941
 20
15.5525517848
 10
-7.582149182
 20
15.5430405125
 10
-7.5588923736
 20
15.5322506158
 10
-7.537346037
 20
15.5202434307
 10
-7.5175336371
 20
15.5070615863
  0
LWPOLYLINE
  5
3CA
100
AcDbEntity
  8
RACCORDO
100
AcDbPolyline
 62
250
  6
CONTINUOUS
 90
6
 70
0
 10
-7.5715499709
 20
15.3799456134
 10
-7.5697100514
 20
15.3796904057
 10
-7.5642241461
 20
15.3794351991
 10
-7.5551931915
 20
15.3791799936
 10
-7.5427833504
 20
15.3789247898
 10
-7.5087983
 20
15.3784143842
  0
LWPOLYLINE
  5
3CB
100
AcDbEntity
  8
RACCORDO
100
AcDbPolyline
 62
7
  6
CONTINUOUS
 90
22
 70
0
 10
-0.3810364823
 20
-19.1536095325
 10
-0.3700248534
 20
-19.1419936177
 10
-0.3602799326
 20
-19.1303919678
 10
-0.3518333636
 20
-19.1187740525
 10
-0.3446211679
 20
-19.1070197076
 10
-0.3387616139
 20
-19.0951973634
 10
-0.3345550212
 20
-19.0835642415
 10
-0.3320231803
 20
-19.0720998567
 10
-0.3311752964
 20
-19.0607968954
 10
-0.3322801877
 20
-19.0499450278
 10
-0.3353732679
 20
-19.0395713637
 10
-0.3404049036
 20
-19.0296665115
 10
-0.3474890172
 20
-19.0204924205
 10
-0.3566911584
 20
-19.0121432282
 10
-0.3678701311
 20
-19.004603416
 10
-0.3807880621
 20
-18.9980110044
 10
-0.3954192043
 20
-18.9925293745
 10
-0.4116493119
 20
-18.9881357802
 10
-0.4290807836
 20
-18.9847146491
 10
-0.4475327161
 20
-18.9822753308
 10
-0.4670481344
 20
-18.9809453306
 10
-0.4875651096
 20
-18.9807859286
  0
LINE
  5
3CC
100
AcDbEntity
  8
RACCORDO
100
AcDbLine
 62
250
  6
CONTINUOUS
 10
-0.4875651096
 20
-18.9807859286
 11
0.2319405104
 21
-18.2612803086
  0
LINE
  5
3CD
100
AcDbEntity
  8
DRAFT
100
AcDbLine
 62
7
  6
CONTINUOUS
 10
-0.5715499709
 20
-19.3441230211
 11
-0.536335185
 21
-19.3089082352
  0
LINE
  5
3CE
100
AcDbEntity
  8
RACCORDO
100
AcDbLine
 62
7
  6
CONTINUOUS
 10
-0.536335185
 20
-19.3089082352
 11
0.3698713853
 21
-18.4027016649
  0
LINE
  5
3CF
100
AcDbEntity
  8
RACCORDO
100
AcDbLine
 62
250
  6
CONTINUOUS
 10
-8.5715499709
 20
16.4869537618
 11
-6.1715499709
 21
16.4660092791
  0
LINE
  5
3D0
100
AcDbEntity
  8
RACCORDO
100
AcDbLine
 62
7
  6
CONTINUOUS
 10
-8.5715499709
 20
16.9869347233
 11
-6.1715499709
 21
16.9659902406
  0
LINE
  5
3D1
100
AcDbEntity
  8
RACCORDO
100
AcDbLine
 62
250
  6
CONTINUOUS
 10
-0.4875651096
 20
22.6925398864
 11
0.2319405104
 21
21.9730342664
  0
LINE
  5
3D2
100
AcDbEntity
  8
DRAFT
100
AcDbLine
 62
7
  6
CONTINUOUS
 10
-0.5715499709
 20
23.0558769789
 11
-0.536335185
 21
23.0206621929
  0
LINE
  5
3D3
100
AcDbEntity
  8
RACCORDO
100
AcDbLine
 62
7
  6
CONTINUOUS
 10
-0.536335185
 20
23.0206621929
 11
0.3698713853
 21
22.1144556227
  0
LINE
  5
3D4
100
AcDbEntity
  8
0
100
AcDbLine
 62
7
  6
CONTINUOUS
 10
17.8284500291
 20
-2.6941230211
 11
17.8284500291
 21
-0.1941230211
  0
LINE
  5
3D5
100
AcDbEntity
  8
DRAFT
100
AcDbLine
 62
7
  6
CONTINUOUS
 10
-2.4715499709
 20
-20.5441230211
 11
-0.5715499709
 21
-19.3441230211
  0
LINE
  5
3D6
100
AcDbEntity
  8
DRAFT
100
AcDbLine
 62
7
  6
CONTINUOUS
 10
-0.5715499709
 20
23.0558769789
 11
-2.4715499709
 21
24.2558769789
  0
LINE
  5
3D7
100
AcDbEntity
  8
RACCORDO
100
AcDbLine
 62
7
  6
CONTINUOUS
 10
-8.5715499709
 20
19.2122834394
 11
-4.3036007785
 21
20.3558769789
  0
LINE
  5
3D8
100
AcDbEntity
  8
RACCORDO
100
AcDbLine
 62
250
  6
CONTINUOUS
 10
-8.5715499709
 20
19.4184034039
 11
-4.3264407967
 21
20.5558769789
  0
LINE
  5
3D9
100
AcDbEntity
  8
RACCORDO
100
AcDbLine
 62
7
  6
CONTINUOUS
 10
-0.0715499709
 20
20.3558769789
 11
-4.3036007785
 21
20.3558769789
  0
LINE
  5
3DA
100
AcDbEntity
  8
RACCORDO
100
AcDbLine
 62
250
  6
CONTINUOUS
 10
-0.0680594896
 20
20.5558769789
 11
-4.3264407967
 21
20.5558769789
  0
LINE
  5
3DB
100
AcDbEntity
  8
RACCORDO
100
AcDbLine
 62
250
  6
CONTINUOUS
 10
0.4284500291
 20
20.8558769789
 11
0.2319405104
 21
20.8558769789
  0
LWPOLYLINE
  5
3DC
100
AcDbEntity
  8
0
100
AcDbPolyline
 62
7
  6
CONTINUOUS
 90
10
 70
0
 43
0.3500000006
 10
5.5927360039
 20
34.6058789978
 10
5.6641643543
 20
34.4630211639
 10
5.6641643543
 20
34.3915899811
 10
5.5213070869
 20
34.2487321472
 10
5.4498787365
 20
34.2487321472
 10
5.3784498196
 20
34.3201633301
 10
5.3784498196
 20
34.3915899811
 10
5.4498787365
 20
34.5344478149
 10
5.5213070869
 20
34.6058789978
 10
5.5927360039
 20
34.6058789978
  0
LWPOLYLINE
  5
3DD
100
AcDbEntity
  8
0
100
AcDbPolyline
 62
7
  6
CONTINUOUS
 90
10
 70
0
 43
0.3500000006
 10
0.6284499986
 20
44.6058775177
 10
0.6998786323
 20
44.4630196838
 10
0.6998786323
 20
44.3915930328
 10
0.5570214711
 20
44.248735199
 10
0.4855928729
 20
44.248735199
 10
0.41416431
 20
44.32016185
 10
0.41416431
 20
44.3915930328
 10
0.4855928729
 20
44.5344463348
 10
0.5570214711
 20
44.6058775177
 10
0.6284499986
 20
44.6058775177
  0
LWPOLYLINE
  5
3DE
100
AcDbEntity
  8
RACCORDO
100
AcDbPolyline
 62
7
  6
CONTINUOUS
 90
22
 70
0
 10
-0.4875651096
 20
22.6925398864
 10
-0.4675605133
 20
22.6926780648
 10
-0.4484740766
 20
22.6939406002
 10
-0.4303638944
 20
22.6962701168
 10
-0.4131894734
 20
22.6995304467
 10
-0.397121953
 20
22.7037282756
 10
-0.3825397653
 20
22.7090171972
 10
-0.3695400799
 20
22.7154012986
 10
-0.3581696873
 20
22.7227324151
 10
-0.3487135646
 20
22.7309525572
 10
-0.3413121242
 20
22.7401099543
 10
-0.335928549
 20
22.7500505622
 10
-0.3325322762
 20
22.7604612715
 10
-0.3311980703
 20
22.7713454642
 10
-0.3318590078
 20
22.7826881512
 10
-0.3342297095
 20
22.7941903283
 10
-0.3382723495
 20
22.8058146375
 10
-0.3439868141
 20
22.8176330433
 10
-0.3511499504
 20
22.829505099
 10
-0.3596877262
 20
22.841382858
 10
-0.3696554115
 20
22.8533305383
 10
-0.3810364823
 20
22.8653634903
  0
LINE
  5
3DF
100
AcDbEntity
  8
RACCORDO
100
AcDbLine
 62
250
  6
CONTINUOUS
 10
0.4284500291
 20
21.9730342664
 11
0.2319405104
 21
21.9730342664
  0
LINE
  5
3E0
100
AcDbEntity
  8
DRAFT
100
AcDbLine
 62
7
  6
CONTINUOUS
 10
-0.5715499709
 20
23.0558769789
 11
-4.5715499709
 21
23.0558769789
  0
LINE
  5
3E1
100
AcDbEntity
  8
RACCORDO
100
AcDbLine
 62
7
  6
CONTINUOUS
 10
-0.4875651096
 20
22.6925398864
 11
-8.5715499709
 21
22.7558769789
  0
LINE
  5
3E2
100
AcDbEntity
  8
DRAFT
100
AcDbLine
 62
7
  6
CONTINUOUS
 10
-4.5715499709
 20
23.0558769789
 11
-0.536335185
 21
23.0206621929
  0
LWPOLYLINE
  5
3E3
100
AcDbEntity
  8
0
100
AcDbPolyline
 62
250
  6
CONTINUOUS
 90
3
 70
0
 10
-17.6295626043
 20
22.8741902666
 10
-17.6268881324
 20
22.8740397738
 10
-17.138753273
 20
22.8531728956
  0
LINE
  5
3E4
100
AcDbEntity
  8
0
100
AcDbLine
 62
250
  6
CONTINUOUS
 10
-16.6653632159
 20
23.3314693487
 11
-8.5715499709
 21
23.7556481268
  0
LINE
  5
3E5
100
AcDbEntity
  8
0
100
AcDbLine
 62
7
  6
CONTINUOUS
 10
-16.6828049908
 20
23.8307841161
 11
-8.5715499709
 21
24.2558769789
  0
LINE
  5
3E6
100
AcDbEntity
  8
0
100
AcDbLine
 62
7
  6
CONTINUOUS
 10
-2.4715499709
 20
24.2558769789
 11
-2.9715499709
 21
24.2558769789
  0
LINE
  5
3E7
100
AcDbEntity
  8
DRAFT
100
AcDbLine
 62
7
  6
CONTINUOUS
 10
-8.5715499709
 20
24.5190436009
 11
-4.5715499709
 21
24.4857435815
  0
LINE
  5
3E8
100
AcDbEntity
  8
DRAFT
100
AcDbLine
 62
7
  6
CONTINUOUS
 10
-8.5715499709
 20
25.3558769789
 11
-4.5715499709
 21
25.2860567192
  0
LINE
  5
3E9
100
AcDbEntity
  8
DRAFT
100
AcDbLine
 62
7
  6
CONTINUOUS
 10
-8.5715499709
 20
25.0357855406
 11
-6.3353691059
 21
24.992094335
  0
LINE
  5
3EA
100
AcDbEntity
  8
DRAFT
100
AcDbLine
 62
7
  6
CONTINUOUS
 10
-6.3353691059
 20
24.992094335
 11
-4.5715499709
 21
24.9557674537
  0
LWPOLYLINE
  5
3EB
100
AcDbEntity
  8
0
100
AcDbPolyline
 62
7
  6
CONTINUOUS
 90
7
 70
0
 43
0.3500000006
 10
1.7355929003
 20
34.1058788452
 10
0.2355928851
 20
34.1058788452
 10
1.7355929003
 20
36.2487327576
 10
1.7355929003
 20
36.6773062592
 10
1.307021523
 20
37.1058752289
 10
0.6641643155
 20
37.1058752289
 10
0.2355928851
 20
36.4630217743
  0
LWPOLYLINE
  5
3EC
100
AcDbEntity
  8
0
100
AcDbPolyline
 62
7
  6
CONTINUOUS
 90
3
 70
0
 43
0.3500000006
 10
8.1641645508
 20
34.7487322998
 10
6.664164093
 20
34.7487322998
 10
7.307021513
 20
37.1058752289
  0
LWPOLYLINE
  5
3ED
100
AcDbEntity
  8
0
100
AcDbPolyline
 62
7
  6
CONTINUOUS
 90
6
 70
0
 43
0.3500000006
 10
-4.3001214066
 20
44.1058773651
 10
-3.2286927509
 20
44.1058773651
 10
-3.0144071331
 20
44.32016185
 10
-3.0144071331
 20
45.391593338
 10
-3.442978652
 20
45.8201623077
 10
-3.8715498877
 20
45.8201623077
  0
LWPOLYLINE
  5
3EE
100
AcDbEntity
  8
0
100
AcDbPolyline
 62
7
  6
CONTINUOUS
 90
8
 70
0
 43
0.3500000006
 10
-2.1572642369
 20
44.1058773651
 10
-1.3001213408
 20
44.1058773651
 10
-0.8715499635
 20
44.5344463348
 10
-0.8715499635
 20
45.391593338
 10
-1.3001213408
 20
45.8201623077
 10
-2.1572642369
 20
45.8201623077
 10
-2.1572642369
 20
47.1058782806
 10
-0.8715499635
 20
47.1058782806
  0
LWPOLYLINE
  5
3EF
100
AcDbEntity
  8
0
100
AcDbPolyline
 62
7
  6
CONTINUOUS
 90
5
 70
0
 43
0.3500000006
 10
42.8137219391
 20
35.8201637878
 10
43.1708642578
 20
36.0344482727
 10
43.1708642578
 20
36.6773062592
 10
42.8137219391
 20
37.1058752289
 10
41.9565794678
 20
37.1058752289
  0
LWPOLYLINE
  5
3F0
100
AcDbEntity
  8
0
100
AcDbPolyline
 62
250
  6
CONTINUOUS
 90
16
 70
0
 10
28.8132628907
 20
22.8531728956
 10
28.8168426572
 20
22.8553459103
 10
28.82574047
 20
22.8574956417
 10
28.8398609939
 20
22.8595990565
 10
28.8590529356
 20
22.8616336178
 10
28.8831106642
 20
22.8635775266
 10
28.9117764147
 20
22.8654099549
 10
28.9447430498
 20
22.8671112693
 10
28.9816573506
 20
22.8686632411
 10
29.0221238011
 20
22.8700492419
 10
29.0657088263
 20
22.8712544214
 10
29.111945437
 20
22.8722658667
 10
29.1603382342
 20
22.8730727407
 10
29.2103687163
 20
22.8736663981
 10
29.2615008349
 20
22.8740404782
 10
29.3131867383
 20
22.8741909729
  0
LINE
  5
3F1
100
AcDbEntity
  8
DRAFT
100
AcDbLine
 62
7
  6
CONTINUOUS
 10
36.8137218008
 20
-21.6441230211
 11
37.0324434596
 21
-21.6004853588
  0
LWPOLYLINE
  5
3F2
100
AcDbEntity
  8
0
100
AcDbPolyline
 62
250
  6
CONTINUOUS
 90
16
 70
0
 10
50.3225199175
 20
-20.1190301583
 10
50.3747468039
 20
-20.1162503011
 10
50.4264020324
 20
-20.1080364617
 10
50.4769203029
 20
-20.0944785606
 10
50.5257487751
 20
-20.0757249961
 10
50.5723530812
 20
-20.0519810334
 10
50.6162231801
 20
-20.023506569
 10
50.6568789933
 20
-19.9906132555
 10
50.6938756316
 20
-19.9536610944
 10
50.7268082363
 20
-19.9130545233
 10
50.7553164478
 20
-19.8692379547
 10
50.7790883361
 20
-19.8226909136
 10
50.7978637998
 20
-19.7739228115
 10
50.8114374243
 20
-19.723467352
 10
50.8196607245
 20
-19.6718766885
 10
50.8224437651
 20
-19.6197153909
  0
LINE
  5
3F3
100
AcDbEntity
  8
DRAFT
100
AcDbLine
 62
7
  6
CONTINUOUS
 10
43.7870591484
 20
-21.6441230211
 11
42.8137218008
 21
-21.6441230211
  0
LINE
  5
3F4
100
AcDbEntity
  8
DRAFT
100
AcDbLine
 62
7
  6
CONTINUOUS
 10
36.8137218008
 20
-21.6441230211
 11
35.8403844532
 21
-21.6441230211
  0
LINE
  5
3F5
100
AcDbEntity
  8
DRAFT
100
AcDbLine
 62
7
  6
CONTINUOUS
 10
37.0324434596
 20
-21.6004853588
 11
42.595000142
 21
-21.6004853588
  0
LINE
  5
3F6
100
AcDbEntity
  8
DRAFT
100
AcDbLine
 62
7
  6
CONTINUOUS
 10
42.595000142
 20
-20.6751424693
 11
37.0324434596
 21
-20.6751424693
  0
LINE
  5
3F7
100
AcDbEntity
  8
DRAFT
100
AcDbLine
 62
7
  6
CONTINUOUS
 10
29.1633412011
 20
-20.5441230211
 11
36.8137218008
 21
-20.5441230211
  0
LINE
  5
3F8
100
AcDbEntity
  8
DRAFT
100
AcDbLine
 62
7
  6
CONTINUOUS
 10
42.8137218008
 20
-20.5441230211
 11
50.4641024005
 21
-20.5441230211
  0
LINE
  5
3F9
100
AcDbEntity
  8
DRAFT
100
AcDbLine
 62
7
  6
CONTINUOUS
 10
42.8137218008
 20
-21.6441230211
 11
42.595000142
 21
-21.6004853588
  0
LWPOLYLINE
  5
3FA
100
AcDbEntity
  8
0
100
AcDbPolyline
 62
250
  6
CONTINUOUS
 90
16
 70
0
 10
28.8132628907
 20
-19.1414189378
 10
28.8168423639
 20
-19.1435919783
 10
28.8257399284
 20
-19.1457417357
 10
28.8398602511
 20
-19.1478451764
 10
28.8590520395
 20
-19.1498797631
 10
28.8831096629
 20
-19.1518236961
 10
28.9117753552
 20
-19.1536561471
 10
28.9447419775
 20
-19.1553574823
 10
28.9816563083
 20
-19.1569094727
 10
29.0221228282
 20
-19.1582954895
 10
29.0657079579
 20
-19.1595006822
 10
29.1119447038
 20
-19.1605121376
 10
29.1603376612
 20
-19.1613190185
 10
29.2103683231
 20
-19.1619126795
 10
29.2615006348
 20
-19.1622867598
 10
29.3131867383
 20
-19.1624372513
  0
LINE
  5
3FB
100
AcDbEntity
  8
DRAFT
100
AcDbLine
 62
7
  6
CONTINUOUS
 10
36.8137218008
 20
24.2558769789
 11
37.0324434596
 21
24.3868964271
  0
LWPOLYLINE
  5
3FC
100
AcDbEntity
  8
0
100
AcDbPolyline
 62
250
  6
CONTINUOUS
 90
15
 70
0
 10
50.3659429673
 20
-19.1622867605
 10
50.4170752796
 20
-19.1619126805
 10
50.4671059419
 20
-19.1613190197
 10
50.5154988998
 20
-19.1605121387
 10
50.561735646
 20
-19.1595006831
 10
50.605320776
 20
-19.1582954903
 10
50.645787296
 20
-19.1569094734
 10
50.6827016268
 20
-19.1553574829
 10
50.715668249
 20
-19.1536561475
 10
50.7443339412
 20
-19.1518236964
 10
50.7683915643
 20
-19.1498797633
 10
50.7875833523
 20
-19.1478451766
 10
50.8017036745
 20
-19.1457417358
 10
50.8106012384
 20
-19.1435919783
 10
50.8141807109
 20
-19.1414189378
  0
LINE
  5
3FD
100
AcDbEntity
  8
0
100
AcDbLine
 62
250
  6
CONTINUOUS
 10
50.3225199175
 20
-20.1190301583
 11
29.3049236841
 21
-20.1190301583
  0
LINE
  5
3FE
100
AcDbEntity
  8
0
100
AcDbLine
 62
250
  6
CONTINUOUS
 10
50.3659429673
 20
-19.1622867605
 11
29.3131867383
 21
-19.162437252
  0
LINE
  5
3FF
100
AcDbEntity
  8
DRAFT
100
AcDbLine
 62
7
  6
CONTINUOUS
 10
37.0324434596
 20
-20.6751424693
 11
36.8137218008
 21
-20.5441230211
  0
LWPOLYLINE
  5
400
100
AcDbEntity
  8
0
100
AcDbPolyline
 62
250
  6
CONTINUOUS
 90
16
 70
0
 10
28.8049998365
 20
-19.6197153909
 10
28.8077828384
 20
-19.6718763243
 10
28.8160060361
 20
-19.7234666919
 10
28.8295795144
 20
-19.7739219308
 10
28.8483548091
 20
-19.8226898917
 10
28.8721265252
 20
-19.8692368689
 10
28.9006345789
 20
-19.9130534433
 10
28.9335670579
 20
-19.9536600834
 10
28.9705636168
 20
-19.9906123644
 10
29.0112194022
 20
-20.0235058295
 10
29.0550895341
 20
-20.0519804647
 10
29.101693938
 20
-20.0757246009
 10
29.1505225623
 20
-20.0944783214
 10
29.2010410329
 20
-20.1080363476
 10
29.2526965091
 20
-20.1162502706
 10
29.3049236842
 20
-20.1190301581
  0
LWPOLYLINE
  5
401
100
AcDbEntity
  8
0
100
AcDbPolyline
 62
250
  6
CONTINUOUS
 90
16
 70
0
 10
28.8049998365
 20
23.3314693487
 10
28.8077829932
 20
23.3836317377
 10
28.8160066005
 20
23.4352232884
 10
28.8295806636
 20
23.4856794097
 10
28.8483566349
 20
23.5344479357
 10
28.87212904
 20
23.5809951691
 10
28.9006377258
 20
23.6248117209
 10
28.9335707081
 20
23.6654180855
 10
28.9705675853
 20
23.7023698878
 10
29.0112234829
 20
23.7352627464
 10
29.0550934836
 20
23.7637366988
 10
29.1016974968
 20
23.7874801409
 10
29.1505255124
 20
23.8062332367
 10
29.2010431818
 20
23.819790762
 10
29.2526976656
 20
23.8280043502
 10
29.3049236841
 20
23.8307841161
  0
LWPOLYLINE
  5
402
100
AcDbEntity
  8
0
100
AcDbPolyline
 62
250
  6
CONTINUOUS
 90
7
 70
0
 10
28.8090590619
 20
23.2600024422
 10
28.8084326639
 20
23.2796998706
 10
28.8077760055
 20
23.2965331146
 10
28.807103002
 20
23.3101608198
 10
28.8064182919
 20
23.3204692016
 10
28.8057172367
 20
23.3275720445
 10
28.8049998365
 20
23.3314693487
  0
LINE
  5
403
100
AcDbEntity
  8
0
100
AcDbLine
 62
250
  6
CONTINUOUS
 10
28.8102193372
 20
23.21190302
 11
28.8090590619
 21
23.2600024422
  0
LINE
  5
404
100
AcDbEntity
  8
0
100
AcDbLine
 62
250
  6
CONTINUOUS
 10
28.8112237567
 20
23.1538332513
 11
28.8102193372
 21
23.21190302
  0
LINE
  5
405
100
AcDbEntity
  8
0
100
AcDbLine
 62
250
  6
CONTINUOUS
 10
28.8123905606
 20
23.0508630156
 11
28.8112237567
 21
23.1538332513
  0
LINE
  5
406
100
AcDbEntity
  8
0
100
AcDbLine
 62
250
  6
CONTINUOUS
 10
29.3106698114
 20
23.5355696478
 11
29.308987623
 21
23.6875200836
  0
LINE
  5
407
100
AcDbEntity
  8
0
100
AcDbLine
 62
250
  6
CONTINUOUS
 10
28.8130840301
 20
22.9348902311
 11
28.8123905606
 21
23.0508630156
  0
LINE
  5
408
100
AcDbEntity
  8
0
100
AcDbLine
 62
250
  6
CONTINUOUS
 10
29.3126031473
 20
23.1938859752
 11
29.3106698114
 21
23.5355696478
  0
LINE
  5
409
100
AcDbEntity
  8
0
100
AcDbLine
 62
250
  6
CONTINUOUS
 10
28.8185909674
 20
13.5228914652
 11
28.8130840301
 21
22.9348902311
  0
LINE
  5
40A
100
AcDbEntity
  8
0
100
AcDbLine
 62
250
  6
CONTINUOUS
 10
29.3185148167
 20
13.5350973946
 11
29.3126031473
 21
23.1938859752
  0
LINE
  5
40B
100
AcDbEntity
  8
0
100
AcDbLine
 62
250
  6
CONTINUOUS
 10
28.8208744256
 20
4.1897213368
 11
28.8185909674
 21
13.5228914652
  0
LINE
  5
40C
100
AcDbEntity
  8
0
100
AcDbLine
 62
250
  6
CONTINUOUS
 10
29.3207982791
 20
4.1919249765
 11
29.3185148167
 21
13.5350973946
  0
LINE
  5
40D
100
AcDbEntity
  8
0
100
AcDbLine
 62
7
  6
CONTINUOUS
 10
28.6637218008
 20
-20.043894169
 11
28.6637218008
 21
23.7556481268
  0
LINE
  5
40E
100
AcDbEntity
  8
0
100
AcDbLine
 62
250
  6
CONTINUOUS
 10
28.8201132675
 20
-5.1450967929
 11
28.8208744256
 21
4.1897213368
  0
LINE
  5
40F
100
AcDbEntity
  8
0
100
AcDbLine
 62
250
  6
CONTINUOUS
 10
29.3200371253
 20
-5.1520631066
 11
29.3207982791
 21
4.1919249765
  0
LINE
  5
410
100
AcDbEntity
  8
0
100
AcDbLine
 62
250
  6
CONTINUOUS
 10
28.8163075019
 20
-14.4766001365
 11
28.8201132675
 21
-5.1450967929
  0
LINE
  5
411
100
AcDbEntity
  8
0
100
AcDbLine
 62
250
  6
CONTINUOUS
 10
29.3162313548
 20
-14.4936040742
 11
29.3200371253
 21
-5.1520631066
  0
LINE
  5
412
100
AcDbEntity
  8
0
100
AcDbLine
 62
250
  6
CONTINUOUS
 10
28.8129103608
 20
-19.2625714615
 11
28.8163075019
 21
-14.4766001365
  0
LINE
  5
413
100
AcDbEntity
  8
0
100
AcDbLine
 62
250
  6
CONTINUOUS
 10
29.3119776469
 20
-19.6295816707
 11
29.3162313548
 21
-14.4936040742
  0
LINE
  5
414
100
AcDbEntity
  8
0
100
AcDbLine
 62
250
  6
CONTINUOUS
 10
28.812052397
 20
-19.3751831066
 11
28.8129103608
 21
-19.2625714615
  0
LINE
  5
415
100
AcDbEntity
  8
0
100
AcDbLine
 62
250
  6
CONTINUOUS
 10
29.3101469022
 20
-19.8796786837
 11
29.3119776469
 21
-19.6295816707
  0
LINE
  5
416
100
AcDbEntity
  8
0
100
AcDbLine
 62
250
  6
CONTINUOUS
 10
29.308987623
 20
-19.9757661258
 11
29.3101469022
 21
-19.8796786837
  0
LINE
  5
417
100
AcDbEntity
  8
0
100
AcDbLine
 62
250
  6
CONTINUOUS
 10
28.8112237567
 20
-19.4420792934
 11
28.812052397
 21
-19.3751831066
  0
LINE
  5
418
100
AcDbEntity
  8
0
100
AcDbLine
 62
250
  6
CONTINUOUS
 10
28.8102193372
 20
-19.5001490623
 11
28.8112237567
 21
-19.4420792934
  0
LWPOLYLINE
  5
419
100
AcDbEntity
  8
0
100
AcDbPolyline
 62
250
  6
CONTINUOUS
 90
5
 70
0
 10
29.3077060848
 20
23.7606456793
 10
29.3070329935
 20
23.787953061
 10
29.306347077
 20
23.8088303499
 10
29.3056439739
 20
23.8231391288
 10
29.3049236841
 20
23.8307841161
  0
LINE
  5
41A
100
AcDbEntity
  8
0
100
AcDbLine
 62
250
  6
CONTINUOUS
 10
29.308987623
 20
23.6875200836
 11
29.3077060848
 21
23.7606456793
  0
LWPOLYLINE
  5
41B
100
AcDbEntity
  8
0
100
AcDbPolyline
 62
7
  6
CONTINUOUS
 90
3
 70
0
 43
0.3500000006
 10
40.9565791626
 20
34.3915899811
 10
40.8851525116
 20
34.1773054962
 10
40.7422946777
 20
33.8915898285
  0
LINE
  5
41C
100
AcDbEntity
  8
RACCORDO
100
AcDbLine
 62
250
  6
CONTINUOUS
 10
32.8446868254
 20
-1.8668808445
 11
32.8449210754
 21
7.0799018462
  0
LWPOLYLINE
  5
41D
100
AcDbEntity
  8
0
100
AcDbPolyline
 62
250
  6
CONTINUOUS
 90
6
 70
0
 10
29.3049236841
 20
-20.1190301583
 10
29.3056439739
 20
-20.111385171
 10
29.306347077
 20
-20.0970763922
 10
29.3070329935
 20
-20.0761991032
 10
29.3077060848
 20
-20.0488917215
 10
29.308987623
 20
-19.9757661258
  0
LWPOLYLINE
  5
41E
100
AcDbEntity
  8
0
100
AcDbPolyline
 62
250
  6
CONTINUOUS
 90
8
 70
0
 10
28.8049998365
 20
-19.6197153909
 10
28.8057172367
 20
-19.6158180865
 10
28.8064182919
 20
-19.6087152435
 10
28.807103002
 20
-19.5984068617
 10
28.8077760055
 20
-19.5847791566
 10
28.8084326639
 20
-19.5679459129
 10
28.8090590619
 20
-19.5482484847
 10
28.8102193372
 20
-19.5001490623
  0
LINE
  5
41F
100
AcDbEntity
  8
DRAFT
100
AcDbLine
 62
7
  6
CONTINUOUS
 10
33.3637218008
 20
-1.3441230211
 11
33.3637218008
 21
6.5558769789
  0
LINE
  5
420
100
AcDbEntity
  8
RACCORDO
100
AcDbLine
 62
250
  6
CONTINUOUS
 10
33.7637218008
 20
-1.3441230211
 11
33.7637218008
 21
5.7058769789
  0
LINE
  5
421
100
AcDbEntity
  8
RACCORDO
100
AcDbLine
 62
7
  6
CONTINUOUS
 10
33.8637218008
 20
-1.2941230211
 11
33.8637218008
 21
5.6058769789
  0
LINE
  5
422
100
AcDbEntity
  8
RACCORDO
100
AcDbLine
 62
250
  6
CONTINUOUS
 10
33.3445500619
 20
-1.36329476
 11
33.3447580579
 21
6.5748407217
  0
LINE
  5
423
100
AcDbEntity
  8
RACCORDO
100
AcDbLine
 62
250
  6
CONTINUOUS
 10
42.8322214328
 20
-4.8192979125
 11
36.7952220961
 21
-4.8192979125
  0
LINE
  5
424
100
AcDbEntity
  8
RACCORDO
100
AcDbLine
 62
250
  6
CONTINUOUS
 10
42.3322976697
 20
-4.31269889
 11
37.2951459319
 21
-4.31269889
  0
LINE
  5
425
100
AcDbEntity
  8
RACCORDO
100
AcDbLine
 62
250
  6
CONTINUOUS
 10
41.9637218008
 20
-4.2941230211
 11
37.6637218008
 21
-4.2941230211
  0
LINE
  5
426
100
AcDbEntity
  8
DRAFT
100
AcDbLine
 62
7
  6
CONTINUOUS
 10
42.3137218008
 20
-4.2941230211
 11
37.3137218008
 21
-4.2941230211
  0
LINE
  5
427
100
AcDbEntity
  8
RACCORDO
100
AcDbLine
 62
7
  6
CONTINUOUS
 10
41.8637218008
 20
-4.1941230211
 11
37.7637218008
 21
-4.1941230211
  0
LINE
  5
428
100
AcDbEntity
  8
RACCORDO
100
AcDbLine
 62
250
  6
CONTINUOUS
 10
43.9825041115
 20
-3.4682295607
 11
42.832504182
 21
-3.4682295607
  0
LINE
  5
429
100
AcDbEntity
  8
RACCORDO
100
AcDbLine
 62
250
  6
CONTINUOUS
 10
36.794939421
 20
-3.4682295607
 11
35.6449394196
 21
-3.4682295607
  0
LINE
  5
42A
100
AcDbEntity
  8
RACCORDO
100
AcDbLine
 62
250
  6
CONTINUOUS
 10
35.6449394196
 20
-3.4682295607
 11
35.6446868332
 21
-1.8668808445
  0
LINE
  5
42B
100
AcDbEntity
  8
RACCORDO
100
AcDbLine
 62
250
  6
CONTINUOUS
 10
36.1447747098
 20
-2.9630701121
 11
36.1445500986
 21
-1.3632947233
  0
LINE
  5
42C
100
AcDbEntity
  8
0
100
AcDbLine
 62
7
  6
CONTINUOUS
 10
34.9137218008
 20
-0.1941230211
 11
34.9137218008
 21
4.5058769789
  0
LINE
  5
42D
100
AcDbEntity
  8
0
100
AcDbLine
 62
7
  6
CONTINUOUS
 10
36.1137218008
 20
5.6058769789
 11
36.1137218008
 21
2.0058769789
  0
LINE
  5
42E
100
AcDbEntity
  8
DRAFT
100
AcDbLine
 62
7
  6
CONTINUOUS
 10
36.1637218008
 20
-2.9441230211
 11
36.1637218008
 21
-1.3441230211
  0
LINE
  5
42F
100
AcDbEntity
  8
RACCORDO
100
AcDbLine
 62
250
  6
CONTINUOUS
 10
36.4637218008
 20
-2.9441230211
 11
36.4637218008
 21
-1.3941230211
  0
LINE
  5
430
100
AcDbEntity
  8
0
100
AcDbLine
 62
7
  6
CONTINUOUS
 10
36.5137218008
 20
5.6058769789
 11
36.5137218008
 21
2.0058769789
  0
LINE
  5
431
100
AcDbEntity
  8
0
100
AcDbLine
 62
7
  6
CONTINUOUS
 10
36.5637218008
 20
0.0058769789
 11
36.5637218008
 21
-1.2941230211
  0
LINE
  5
432
100
AcDbEntity
  8
RACCORDO
100
AcDbLine
 62
7
  6
CONTINUOUS
 10
36.5637218008
 20
-2.9441230211
 11
36.5637218008
 21
-1.2941230211
  0
LINE
  5
433
100
AcDbEntity
  8
0
100
AcDbLine
 62
250
  6
CONTINUOUS
 10
28.6637218008
 20
-20.043894169
 11
28.8049998365
 21
-19.6197153909
  0
LINE
  5
434
100
AcDbEntity
  8
RACCORDO
100
AcDbLine
 62
250
  6
CONTINUOUS
 10
42.3137218008
 20
-3.0941230211
 11
41.9637218008
 21
-3.0941230211
  0
LINE
  5
435
100
AcDbEntity
  8
RACCORDO
100
AcDbLine
 62
250
  6
CONTINUOUS
 10
37.6637218008
 20
-3.0941230211
 11
37.3137218008
 21
-3.0941230211
  0
LINE
  5
436
100
AcDbEntity
  8
RACCORDO
100
AcDbLine
 62
7
  6
CONTINUOUS
 10
42.3137218008
 20
-2.9941230211
 11
41.8637218008
 21
-2.9941230211
  0
LINE
  5
437
100
AcDbEntity
  8
RACCORDO
100
AcDbLine
 62
7
  6
CONTINUOUS
 10
37.7637218008
 20
-2.9941230211
 11
37.3137218008
 21
-2.9941230211
  0
LINE
  5
438
100
AcDbEntity
  8
RACCORDO
100
AcDbLine
 62
250
  6
CONTINUOUS
 10
43.4825803862
 20
-2.9629816065
 11
42.3325803862
 21
-2.9629816065
  0
LINE
  5
439
100
AcDbEntity
  8
RACCORDO
100
AcDbLine
 62
250
  6
CONTINUOUS
 10
37.2948632154
 20
-2.9629816065
 11
36.1448632154
 21
-2.9629816065
  0
LINE
  5
43A
100
AcDbEntity
  8
DRAFT
100
AcDbLine
 62
7
  6
CONTINUOUS
 10
43.4637218008
 20
-2.9441230211
 11
42.3137218008
 21
-2.9441230211
  0
LINE
  5
43B
100
AcDbEntity
  8
DRAFT
100
AcDbLine
 62
7
  6
CONTINUOUS
 10
37.3137218008
 20
-2.9441230211
 11
36.1637218008
 21
-2.9441230211
  0
LINE
  5
43C
100
AcDbEntity
  8
0
100
AcDbLine
 62
7
  6
CONTINUOUS
 10
43.0637218008
 20
-2.6941230211
 11
36.5637218008
 21
-2.6941230211
  0
LINE
  5
43D
100
AcDbEntity
  8
RACCORDO
100
AcDbLine
 62
250
  6
CONTINUOUS
 10
46.7827567437
 20
-1.8668808445
 11
43.9827567762
 21
-1.8668808445
  0
LINE
  5
43E
100
AcDbEntity
  8
RACCORDO
100
AcDbLine
 62
250
  6
CONTINUOUS
 10
35.6446868332
 20
-1.8668808445
 11
32.8446868254
 21
-1.8668808445
  0
LINE
  5
43F
100
AcDbEntity
  8
RACCORDO
100
AcDbLine
 62
250
  6
CONTINUOUS
 10
43.4637218008
 20
-1.3941230211
 11
43.1637218008
 21
-1.3941230211
  0
LINE
  5
440
100
AcDbEntity
  8
RACCORDO
100
AcDbLine
 62
250
  6
CONTINUOUS
 10
36.4637218008
 20
-1.3941230211
 11
36.1637218008
 21
-1.3941230211
  0
LINE
  5
441
100
AcDbEntity
  8
0
100
AcDbLine
 62
250
  6
CONTINUOUS
 10
28.8049998365
 20
23.3314693487
 11
28.6637218008
 21
23.7556481268
  0
LINE
  5
442
100
AcDbEntity
  8
RACCORDO
100
AcDbLine
 62
250
  6
CONTINUOUS
 10
36.7952220961
 20
-4.8192979125
 11
36.794939421
 21
-3.4682295607
  0
LINE
  5
443
100
AcDbEntity
  8
RACCORDO
100
AcDbLine
 62
250
  6
CONTINUOUS
 10
37.2950338315
 20
-4.3128522665
 11
37.2947747728
 21
-2.9630700491
  0
LINE
  5
444
100
AcDbEntity
  8
DRAFT
100
AcDbLine
 62
7
  6
CONTINUOUS
 10
36.8137218008
 20
-21.6441230211
 11
36.8137218008
 21
-20.5441230211
  0
LINE
  5
445
100
AcDbEntity
  8
DRAFT
100
AcDbLine
 62
7
  6
CONTINUOUS
 10
36.8137218008
 20
24.2558769789
 11
36.8137218008
 21
25.3558769789
  0
LINE
  5
446
100
AcDbEntity
  8
DRAFT
100
AcDbLine
 62
7
  6
CONTINUOUS
 10
37.0324434596
 20
-21.6004853588
 11
37.0324434596
 21
-20.6751424693
  0
LINE
  5
447
100
AcDbEntity
  8
DRAFT
100
AcDbLine
 62
7
  6
CONTINUOUS
 10
37.0324434596
 20
24.3868964271
 11
37.0324434596
 21
25.3122393166
  0
LINE
  5
448
100
AcDbEntity
  8
0
100
AcDbLine
 62
7
  6
CONTINUOUS
 10
37.1137218008
 20
5.6058769789
 11
37.1137218008
 21
2.0058769789
  0
LINE
  5
449
100
AcDbEntity
  8
DRAFT
100
AcDbLine
 62
7
  6
CONTINUOUS
 10
37.3137218008
 20
-4.2941230211
 11
37.3137218008
 21
-2.9441230211
  0
LINE
  5
44A
100
AcDbEntity
  8
0
100
AcDbLine
 62
7
  6
CONTINUOUS
 10
37.5137218008
 20
5.6058769789
 11
37.5137218008
 21
2.0058769789
  0
LINE
  5
44B
100
AcDbEntity
  8
RACCORDO
100
AcDbLine
 62
250
  6
CONTINUOUS
 10
37.6637218008
 20
-4.2941230211
 11
37.6637218008
 21
-3.0941230211
  0
LINE
  5
44C
100
AcDbEntity
  8
RACCORDO
100
AcDbLine
 62
7
  6
CONTINUOUS
 10
37.7637218008
 20
-4.1941230211
 11
37.7637218008
 21
-2.9941230211
  0
LINE
  5
44D
100
AcDbEntity
  8
0
100
AcDbLine
 62
7
  6
CONTINUOUS
 10
38.1137218008
 20
5.6058769789
 11
38.1137218008
 21
2.0058769789
  0
LINE
  5
44E
100
AcDbEntity
  8
0
100
AcDbLine
 62
250
  6
CONTINUOUS
 10
29.1633412011
 20
-20.5441230211
 11
29.3049236841
 21
-20.1190301583
  0
LWPOLYLINE
  5
44F
100
AcDbEntity
  8
RACCORDO
100
AcDbPolyline
 62
7
  6
CONTINUOUS
 90
7
 70
0
 10
33.2509221934
 20
-1.4591136033
 10
33.2919123388
 20
-1.4174066547
 10
33.309273097
 20
-1.4000807993
 10
33.3233394125
 20
-1.3854645379
 10
33.3337242453
 20
-1.3740544181
 10
33.3408146354
 20
-1.366462236
 10
33.3446105828
 20
-1.3632342391
  0
LWPOLYLINE
  5
450
100
AcDbEntity
  8
RACCORDO
100
AcDbPolyline
 62
7
  6
CONTINUOUS
 90
3
 70
0
 10
33.1760097891
 20
-1.5345905321
 10
33.2272928062
 20
-1.4827457069
 10
33.2509221934
 20
-1.4591136033
  0
LINE
  5
451
100
AcDbEntity
  8
RACCORDO
100
AcDbLine
 62
7
  6
CONTINUOUS
 10
33.3637218008
 20
-1.3441230211
 11
33.3445500619
 21
-1.36329476
  0
LINE
  5
452
100
AcDbEntity
  8
RACCORDO
100
AcDbLine
 62
7
  6
CONTINUOUS
 10
32.8753595507
 20
-1.836410913
 11
33.1760097891
 21
-1.5345905321
  0
LINE
  5
453
100
AcDbEntity
  8
RACCORDO
100
AcDbLine
 62
7
  6
CONTINUOUS
 10
32.844686727
 20
-1.8668808445
 11
32.8753595507
 21
-1.836410913
  0
LINE
  5
454
100
AcDbEntity
  8
RACCORDO
100
AcDbLine
 62
250
  6
CONTINUOUS
 10
46.2828330188
 20
-1.3632342391
 11
43.4828330188
 21
-1.3632342391
  0
LINE
  5
455
100
AcDbEntity
  8
RACCORDO
100
AcDbLine
 62
250
  6
CONTINUOUS
 10
36.1446105828
 20
-1.3632342391
 11
33.3446105828
 21
-1.3632342391
  0
LINE
  5
456
100
AcDbEntity
  8
DRAFT
100
AcDbLine
 62
7
  6
CONTINUOUS
 10
46.2637218008
 20
-1.3441230211
 11
43.4637218008
 21
-1.3441230211
  0
LINE
  5
457
100
AcDbEntity
  8
DRAFT
100
AcDbLine
 62
7
  6
CONTINUOUS
 10
36.1637218008
 20
-1.3441230211
 11
33.3637218008
 21
-1.3441230211
  0
LINE
  5
458
100
AcDbEntity
  8
RACCORDO
100
AcDbLine
 62
7
  6
CONTINUOUS
 10
45.7637218008
 20
-1.2941230211
 11
43.0637218008
 21
-1.2941230211
  0
LINE
  5
459
100
AcDbEntity
  8
RACCORDO
100
AcDbLine
 62
7
  6
CONTINUOUS
 10
36.5637218008
 20
-1.2941230211
 11
33.8637218008
 21
-1.2941230211
  0
LINE
  5
45A
100
AcDbEntity
  8
0
100
AcDbLine
 62
7
  6
CONTINUOUS
 10
45.7637218008
 20
-0.1941230211
 11
44.7137218008
 21
-0.1941230211
  0
LINE
  5
45B
100
AcDbEntity
  8
0
100
AcDbLine
 62
7
  6
CONTINUOUS
 10
33.8637218008
 20
-0.1941230211
 11
34.9137218008
 21
-0.1941230211
  0
LINE
  5
45C
100
AcDbEntity
  8
0
100
AcDbLine
 62
7
  6
CONTINUOUS
 10
43.0637218008
 20
0.0058769789
 11
36.5637218008
 21
0.0058769789
  0
LWPOLYLINE
  5
45D
100
AcDbEntity
  8
RACCORDO
100
AcDbPolyline
 62
7
  6
CONTINUOUS
 90
9
 70
0
 10
41.8637218008
 20
-2.9941230211
 10
41.8650636517
 20
-2.9950321739
 10
41.867533225
 20
-2.9975892999
 10
41.8711305205
 20
-3.0015317408
 10
41.8760266309
 20
-3.0065606277
 10
41.8820504636
 20
-3.012443326
 10
41.8886887407
 20
-3.019089961
 10
41.8958744733
 20
-3.0263549358
 10
41.9036746504
 20
-3.0340622871
  0
LWPOLYLINE
  5
45E
100
AcDbEntity
  8
RACCORDO
100
AcDbPolyline
 62
7
  6
CONTINUOUS
 90
6
 70
0
 10
42.3324097807
 20
-4.3128522837
 10
42.3363688119
 20
-4.3166073146
 10
42.3435977552
 20
-4.3245912758
 10
42.3540966106
 20
-4.3363083852
 10
42.3682545084
 20
-4.3512157663
 10
42.3856823183
 20
-4.3688482323
  0
LINE
  5
45F
100
AcDbEntity
  8
RACCORDO
100
AcDbLine
 62
7
  6
CONTINUOUS
 10
42.8014975403
 20
-4.7887676628
 11
42.8322215191
 21
-4.8192979125
  0
LINE
  5
460
100
AcDbEntity
  8
RACCORDO
100
AcDbLine
 62
7
  6
CONTINUOUS
 10
42.8325042399
 20
-3.4682295607
 11
42.8018575672
 21
-3.4377823475
  0
LINE
  5
461
100
AcDbEntity
  8
RACCORDO
100
AcDbLine
 62
7
  6
CONTINUOUS
 10
42.3137218008
 20
-4.2941230211
 11
42.3322976697
 21
-4.31269889
  0
LINE
  5
462
100
AcDbEntity
  8
RACCORDO
100
AcDbLine
 62
7
  6
CONTINUOUS
 10
42.3137218008
 20
-2.9441230211
 11
42.3326688907
 21
-2.963070111
  0
LWPOLYLINE
  5
463
100
AcDbEntity
  8
RACCORDO
100
AcDbPolyline
 62
7
  6
CONTINUOUS
 90
3
 70
0
 10
42.4496143377
 20
-3.0832240909
 10
42.4259735906
 20
-3.0594829659
 10
42.385006031
 20
-3.0175893277
  0
LWPOLYLINE
  5
464
100
AcDbEntity
  8
RACCORDO
100
AcDbPolyline
 62
7
  6
CONTINUOUS
 90
6
 70
0
 10
42.385006031
 20
-3.0175893277
 10
42.3676792186
 20
-3.0001813743
 10
42.3536574859
 20
-2.9854589657
 10
42.3433267062
 20
-2.9739333156
 10
42.3363010063
 20
-2.9662503028
 10
42.3325803862
 20
-2.9629816065
  0
LWPOLYLINE
  5
465
100
AcDbEntity
  8
RACCORDO
100
AcDbPolyline
 62
7
  6
CONTINUOUS
 90
7
 70
0
 10
41.9036746504
 20
-3.0340622871
 10
41.9201657897
 20
-3.0506158033
 10
41.928856752
 20
-3.0592402328
 10
41.9375843809
 20
-3.0679856012
 10
41.9462601876
 20
-3.0767739241
 10
41.9549726609
 20
-3.0855112259
 10
41.9637218008
 20
-3.0941230211
  0
LWPOLYLINE
  5
466
100
AcDbEntity
  8
RACCORDO
100
AcDbPolyline
 62
7
  6
CONTINUOUS
 90
6
 70
0
 10
41.920214583
 20
-4.25056701
 10
41.9288390125
 20
-4.2592579723
 10
41.9375843809
 20
-4.2679856012
 10
41.9463727038
 20
-4.2766614079
 10
41.9551100056
 20
-4.2853738812
 10
41.9637218008
 20
-4.2941230211
  0
LWPOLYLINE
  5
467
100
AcDbEntity
  8
RACCORDO
100
AcDbPolyline
 62
7
  6
CONTINUOUS
 90
6
 70
0
 10
33.8072290186
 20
5.6623209678
 10
33.7986045891
 20
5.6710119301
 10
33.7898592207
 20
5.679739559
 10
33.7810708978
 20
5.6884153657
 10
33.772333596
 20
5.697127839
 10
33.7637218008
 20
5.7058769789
  0
LINE
  5
468
100
AcDbEntity
  8
RACCORDO
100
AcDbLine
 62
7
  6
CONTINUOUS
 10
42.586584471
 20
-4.5727449942
 11
42.8014975403
 21
-4.7887676628
  0
LINE
  5
469
100
AcDbEntity
  8
RACCORDO
100
AcDbLine
 62
7
  6
CONTINUOUS
 10
42.8018575672
 20
-3.4377823475
 11
42.500947688
 21
-3.1352922762
  0
LINE
  5
46A
100
AcDbEntity
  8
RACCORDO
100
AcDbLine
 62
7
  6
CONTINUOUS
 10
42.5014673814
 20
-4.4868270389
 11
42.586584471
 21
-4.5727449942
  0
LINE
  5
46B
100
AcDbEntity
  8
RACCORDO
100
AcDbLine
 62
7
  6
CONTINUOUS
 10
42.500947688
 20
-3.1352922762
 11
42.4496143377
 21
-3.0832240909
  0
LWPOLYLINE
  5
46C
100
AcDbEntity
  8
RACCORDO
100
AcDbPolyline
 62
7
  6
CONTINUOUS
 90
3
 70
0
 10
42.4267082506
 20
-4.4110188009
 10
42.4752513841
 20
-4.4601498172
 10
42.5014673814
 20
-4.4868270389
  0
LINE
  5
46D
100
AcDbEntity
  8
RACCORDO
100
AcDbLine
 62
7
  6
CONTINUOUS
 10
42.3856823183
 20
-4.3688482323
 11
42.4267082506
 21
-4.4110188009
  0
LINE
  5
46E
100
AcDbEntity
  8
RACCORDO
100
AcDbLine
 62
7
  6
CONTINUOUS
 10
42.3324097754
 20
-4.3128522751
 11
42.3322976697
 21
-4.31269889
  0
LWPOLYLINE
  5
46F
100
AcDbEntity
  8
RACCORDO
100
AcDbPolyline
 62
7
  6
CONTINUOUS
 90
10
 70
0
 10
33.8637218008
 20
5.6058769789
 10
33.862812648
 20
5.6072188298
 10
33.860255522
 20
5.6096884031
 10
33.8563130811
 20
5.6132856986
 10
33.8512841942
 20
5.618181809
 10
33.8454014959
 20
5.6242056417
 10
33.8387548609
 20
5.6308439188
 10
33.8314898861
 20
5.6380296514
 10
33.8237825348
 20
5.6458298285
 10
33.8072290186
 20
5.6623209678
  0
LWPOLYLINE
  5
470
100
AcDbEntity
  8
RACCORDO
100
AcDbPolyline
 62
7
  6
CONTINUOUS
 90
10
 70
0
 10
41.8637218008
 20
-4.1941230211
 10
41.8646309536
 20
-4.1954648721
 10
41.8671880796
 20
-4.1979344453
 10
41.8711305205
 20
-4.2015317408
 10
41.8761594074
 20
-4.2064278512
 10
41.8820421056
 20
-4.2124516839
 10
41.8886887407
 20
-4.219089961
 10
41.8959537154
 20
-4.2262756937
 10
41.9036610668
 20
-4.2340758707
 10
41.920214583
 20
-4.25056701
  0
LINE
  5
471
100
AcDbEntity
  8
0
100
AcDbLine
 62
250
  6
CONTINUOUS
 10
29.3049236841
 20
23.8307841161
 11
29.1633412011
 21
24.2558769789
  0
LINE
  5
472
100
AcDbEntity
  8
0
100
AcDbLine
 62
7
  6
CONTINUOUS
 10
38.5137218008
 20
5.6058769789
 11
38.5137218008
 21
2.0058769789
  0
LINE
  5
473
100
AcDbEntity
  8
0
100
AcDbLine
 62
7
  6
CONTINUOUS
 10
39.1137218008
 20
5.6058769789
 11
39.1137218008
 21
2.0058769789
  0
LINE
  5
474
100
AcDbEntity
  8
0
100
AcDbLine
 62
7
  6
CONTINUOUS
 10
39.5137218008
 20
5.6058769789
 11
39.5137218008
 21
2.0058769789
  0
LWPOLYLINE
  5
475
100
AcDbEntity
  8
RACCORDO
100
AcDbPolyline
 62
7
  6
CONTINUOUS
 90
9
 70
0
 10
36.5637218008
 20
-1.2941230211
 10
36.562812648
 20
-1.2954648721
 10
36.560255522
 20
-1.2979344453
 10
36.5563130811
 20
-1.3015317408
 10
36.5512841942
 20
-1.3064278512
 10
36.5454014959
 20
-1.3124516839
 10
36.5387548609
 20
-1.319089961
 10
36.5314898861
 20
-1.3262756937
 10
36.5237825348
 20
-1.3340758707
  0
LWPOLYLINE
  5
476
100
AcDbEntity
  8
RACCORDO
100
AcDbPolyline
 62
7
  6
CONTINUOUS
 90
7
 70
0
 10
36.0506546819
 20
-1.4593896426
 10
36.0916427086
 20
-1.4176841339
 10
36.1090514105
 20
-1.4003190684
 10
36.1231710194
 20
-1.3856368543
 10
36.1336066336
 20
-1.374149239
 10
36.1407531548
 20
-1.3664923281
 10
36.1446105828
 20
-1.3632342391
  0
LWPOLYLINE
  5
477
100
AcDbEntity
  8
RACCORDO
100
AcDbPolyline
 62
7
  6
CONTINUOUS
 90
3
 70
0
 10
35.9759535382
 20
-1.5346483543
 10
36.0270753572
 20
-1.482968942
 10
36.0506546819
 20
-1.4593896426
  0
LINE
  5
478
100
AcDbEntity
  8
RACCORDO
100
AcDbLine
 62
7
  6
CONTINUOUS
 10
36.1637218008
 20
-1.3441230211
 11
36.1446105828
 21
-1.3632342391
  0
LINE
  5
479
100
AcDbEntity
  8
RACCORDO
100
AcDbLine
 62
7
  6
CONTINUOUS
 10
35.6755571014
 20
-1.8362129136
 11
35.9759535382
 21
-1.5346483543
  0
LWPOLYLINE
  5
47A
100
AcDbEntity
  8
RACCORDO
100
AcDbPolyline
 62
7
  6
CONTINUOUS
 90
7
 70
0
 10
36.5237825348
 20
-1.3340758707
 10
36.5072290186
 20
-1.35056701
 10
36.4986045891
 20
-1.3592579723
 10
36.4898592207
 20
-1.3679856012
 10
36.4810708978
 20
-1.3766614079
 10
36.472333596
 20
-1.3853738812
 10
36.4637218008
 20
-1.3941230211
  0
LINE
  5
47B
100
AcDbEntity
  8
RACCORDO
100
AcDbLine
 62
7
  6
CONTINUOUS
 10
35.644686727
 20
-1.8668808445
 11
35.6755571014
 21
-1.8362129136
  0
LWPOLYLINE
  5
47C
100
AcDbEntity
  8
RACCORDO
100
AcDbPolyline
 62
7
  6
CONTINUOUS
 90
10
 70
0
 10
33.8637218008
 20
-1.2941230211
 10
33.8623799498
 20
-1.2950321739
 10
33.8599103766
 20
-1.2975892999
 10
33.8563130811
 20
-1.3015317408
 10
33.8514169707
 20
-1.3065606277
 10
33.845393138
 20
-1.312443326
 10
33.8387548609
 20
-1.319089961
 10
33.8315691282
 20
-1.3263549358
 10
33.8237689512
 20
-1.3340622871
 10
33.8137330475
 20
-1.3441230211
  0
LWPOLYLINE
  5
47D
100
AcDbEntity
  8
0
100
AcDbPolyline
 62
7
  6
CONTINUOUS
 90
2
 70
0
 43
0.3500000006
 10
58.2137221069
 20
0.4987331772
 10
56.7137216492
 20
0.4987331772
  0
LWPOLYLINE
  5
47E
100
AcDbEntity
  8
0
100
AcDbPolyline
 62
7
  6
CONTINUOUS
 90
4
 70
0
 43
0.3500000006
 10
55.8565791779
 20
1.855878067
 10
55.2137211914
 20
1.855878067
 10
55.2137211914
 20
3.3558762589
 10
58.2137221069
 20
2.4987337875
  0
LINE
  5
47F
100
AcDbEntity
  8
0
100
AcDbLine
 62
7
  6
CONTINUOUS
 10
43.5137218008
 20
2.0058769789
 11
43.1137218008
 21
2.0058769789
  0
LINE
  5
480
100
AcDbEntity
  8
0
100
AcDbLine
 62
7
  6
CONTINUOUS
 10
42.5137218008
 20
2.0058769789
 11
42.1137218008
 21
2.0058769789
  0
LINE
  5
481
100
AcDbEntity
  8
0
100
AcDbLine
 62
7
  6
CONTINUOUS
 10
41.5137218008
 20
2.0058769789
 11
41.1137218008
 21
2.0058769789
  0
LINE
  5
482
100
AcDbEntity
  8
0
100
AcDbLine
 62
7
  6
CONTINUOUS
 10
40.5137218008
 20
2.0058769789
 11
40.1137218008
 21
2.0058769789
  0
LINE
  5
483
100
AcDbEntity
  8
0
100
AcDbLine
 62
7
  6
CONTINUOUS
 10
39.5137218008
 20
2.0058769789
 11
39.1137218008
 21
2.0058769789
  0
LINE
  5
484
100
AcDbEntity
  8
0
100
AcDbLine
 62
7
  6
CONTINUOUS
 10
38.5137218008
 20
2.0058769789
 11
38.1137218008
 21
2.0058769789
  0
LINE
  5
485
100
AcDbEntity
  8
0
100
AcDbLine
 62
7
  6
CONTINUOUS
 10
37.5137218008
 20
2.0058769789
 11
37.1137218008
 21
2.0058769789
  0
LINE
  5
486
100
AcDbEntity
  8
0
100
AcDbLine
 62
7
  6
CONTINUOUS
 10
36.5137218008
 20
2.0058769789
 11
36.1137218008
 21
2.0058769789
  0
LWPOLYLINE
  5
487
100
AcDbEntity
  8
RACCORDO
100
AcDbPolyline
 62
7
  6
CONTINUOUS
 90
9
 70
0
 10
43.0637218008
 20
-1.2941230211
 10
43.0650636517
 20
-1.2950321739
 10
43.067533225
 20
-1.2975892999
 10
43.0711305205
 20
-1.3015317408
 10
43.0760266309
 20
-1.3065606277
 10
43.0820504636
 20
-1.312443326
 10
43.0886887407
 20
-1.319089961
 10
43.0958744733
 20
-1.3263549358
 10
43.1036746504
 20
-1.3340622871
  0
LINE
  5
488
100
AcDbEntity
  8
RACCORDO
100
AcDbLine
 62
7
  6
CONTINUOUS
 10
32.8449209519
 20
7.0799018462
 11
32.8758521321
 21
7.0491696469
  0
LINE
  5
489
100
AcDbEntity
  8
RACCORDO
100
AcDbLine
 62
7
  6
CONTINUOUS
 10
43.9825042399
 20
-3.4682295607
 11
43.9515690114
 21
-3.4374930746
  0
LINE
  5
48A
100
AcDbEntity
  8
RACCORDO
100
AcDbLine
 62
7
  6
CONTINUOUS
 10
33.3637218008
 20
6.5558769789
 11
33.3448448059
 21
6.5747539738
  0
LINE
  5
48B
100
AcDbEntity
  8
RACCORDO
100
AcDbLine
 62
7
  6
CONTINUOUS
 10
43.4637218008
 20
-2.9441230211
 11
43.4825803862
 21
-2.9629816065
  0
LWPOLYLINE
  5
48C
100
AcDbEntity
  8
RACCORDO
100
AcDbPolyline
 62
7
  6
CONTINUOUS
 90
6
 70
0
 10
33.292016751
 20
6.6297334936
 10
33.309414532
 20
6.6122745696
 10
33.3235154043
 20
6.5974640852
 10
33.3339221137
 20
6.5858341172
 10
33.3410319142
 20
6.5780635031
 10
33.3448448059
 20
6.5747539738
  0
LWPOLYLINE
  5
48D
100
AcDbEntity
  8
RACCORDO
100
AcDbPolyline
 62
7
  6
CONTINUOUS
 90
3
 70
0
 10
33.2274819464
 20
6.6952713392
 10
33.2510504581
 20
6.6716129999
 10
33.292016751
 20
6.6297334936
  0
LWPOLYLINE
  5
48E
100
AcDbEntity
  8
RACCORDO
100
AcDbPolyline
 62
7
  6
CONTINUOUS
 90
6
 70
0
 10
43.5353991166
 20
-3.0179965027
 10
43.5180020692
 20
-3.0005313245
 10
43.5039024495
 20
-2.9857122785
 10
43.4934976673
 20
-2.9740727964
 10
43.4863903129
 20
-2.9662945771
 10
43.4825803862
 20
-2.9629816065
  0
LWPOLYLINE
  5
48F
100
AcDbEntity
  8
RACCORDO
100
AcDbPolyline
 62
7
  6
CONTINUOUS
 90
3
 70
0
 10
43.5999317439
 20
-3.083551206
 10
43.576363954
 20
-3.0598876016
 10
43.5353991166
 20
-3.0179965027
  0
LWPOLYLINE
  5
490
100
AcDbEntity
  8
RACCORDO
100
AcDbPolyline
 62
7
  6
CONTINUOUS
 90
7
 70
0
 10
43.1036746504
 20
-1.3340622871
 10
43.1201657897
 20
-1.3506158033
 10
43.128856752
 20
-1.3592402328
 10
43.1375843809
 20
-1.3679856012
 10
43.1462601876
 20
-1.3767739241
 10
43.1549726609
 20
-1.3855112259
 10
43.1637218008
 20
-1.3941230211
  0
LINE
  5
491
100
AcDbEntity
  8
RACCORDO
100
AcDbLine
 62
7
  6
CONTINUOUS
 10
32.8758521321
 20
7.0491696469
 11
33.1763823665
 21
6.7470879647
  0
LINE
  5
492
100
AcDbEntity
  8
RACCORDO
100
AcDbLine
 62
7
  6
CONTINUOUS
 10
43.9515690114
 20
-3.4374930746
 11
43.6510298409
 21
-3.1353769692
  0
LINE
  5
493
100
AcDbEntity
  8
RACCORDO
100
AcDbLine
 62
7
  6
CONTINUOUS
 10
33.1763823665
 20
6.7470879647
 11
33.2274819464
 21
6.6952713392
  0
LINE
  5
494
100
AcDbEntity
  8
RACCORDO
100
AcDbLine
 62
7
  6
CONTINUOUS
 10
43.6510298409
 20
-3.1353769692
 11
43.5999317439
 21
-3.083551206
  0
LINE
  5
495
100
AcDbEntity
  8
0
100
AcDbLine
 62
7
  6
CONTINUOUS
 10
40.1137218008
 20
5.6058769789
 11
40.1137218008
 21
2.0058769789
  0
LINE
  5
496
100
AcDbEntity
  8
0
100
AcDbLine
 62
7
  6
CONTINUOUS
 10
40.5137218008
 20
5.6058769789
 11
40.5137218008
 21
2.0058769789
  0
LINE
  5
497
100
AcDbEntity
  8
0
100
AcDbLine
 62
7
  6
CONTINUOUS
 10
41.1137218008
 20
5.6058769789
 11
41.1137218008
 21
2.0058769789
  0
LINE
  5
498
100
AcDbEntity
  8
0
100
AcDbLine
 62
7
  6
CONTINUOUS
 10
41.5137218008
 20
5.6058769789
 11
41.5137218008
 21
2.0058769789
  0
LWPOLYLINE
  5
499
100
AcDbEntity
  8
RACCORDO
100
AcDbPolyline
 62
7
  6
CONTINUOUS
 90
9
 70
0
 10
37.7637218008
 20
-2.9941230211
 10
37.762812648
 20
-2.9954648721
 10
37.760255522
 20
-2.9979344453
 10
37.7563130811
 20
-3.0015317408
 10
37.7512841942
 20
-3.0064278512
 10
37.7454014959
 20
-3.0124516839
 10
37.7387548609
 20
-3.019089961
 10
37.7314898861
 20
-3.0262756937
 10
37.7237825348
 20
-3.0340758707
  0
LINE
  5
49A
100
AcDbEntity
  8
RACCORDO
100
AcDbLine
 62
7
  6
CONTINUOUS
 10
37.2950338315
 20
-4.3128522665
 11
37.2951459319
 21
-4.31269889
  0
LWPOLYLINE
  5
49B
100
AcDbEntity
  8
RACCORDO
100
AcDbPolyline
 62
7
  6
CONTINUOUS
 90
7
 70
0
 10
36.051470011
 20
-3.0594829659
 10
36.0924375706
 20
-3.0175893277
 10
36.109764383
 20
-3.0001813743
 10
36.1237861157
 20
-2.9854589657
 10
36.1341168954
 20
-2.9739333156
 10
36.1411425953
 20
-2.9662503028
 10
36.1448632154
 20
-2.9629816065
  0
LWPOLYLINE
  5
49C
100
AcDbEntity
  8
RACCORDO
100
AcDbPolyline
 62
7
  6
CONTINUOUS
 90
7
 70
0
 10
37.2010796476
 20
-3.0598876016
 10
37.242044485
 20
-3.0179965027
 10
37.2594415324
 20
-3.0005313245
 10
37.2735411521
 20
-2.9857122785
 10
37.2839459343
 20
-2.9740727964
 10
37.2910532887
 20
-2.9662945771
 10
37.2948632154
 20
-2.9629816065
  0
LWPOLYLINE
  5
49D
100
AcDbEntity
  8
RACCORDO
100
AcDbPolyline
 62
7
  6
CONTINUOUS
 90
7
 70
0
 10
46.3763931434
 20
6.6716129999
 10
46.3354268506
 20
6.6297334936
 10
46.3180290695
 20
6.6122745696
 10
46.3039281973
 20
6.5974640852
 10
46.2935214879
 20
6.5858341172
 10
46.2864116874
 20
6.5780635031
 10
46.2825987957
 20
6.5747539738
  0
LWPOLYLINE
  5
49E
100
AcDbEntity
  8
RACCORDO
100
AcDbPolyline
 62
7
  6
CONTINUOUS
 90
3
 70
0
 10
35.9764959136
 20
-3.1352922762
 10
36.0278292639
 20
-3.0832240909
 10
36.051470011
 20
-3.0594829659
  0
LWPOLYLINE
  5
49F
100
AcDbEntity
  8
RACCORDO
100
AcDbPolyline
 62
7
  6
CONTINUOUS
 90
3
 70
0
 10
37.1264137607
 20
-3.1353769692
 10
37.1775118577
 20
-3.083551206
 10
37.2010796476
 20
-3.0598876016
  0
LWPOLYLINE
  5
4A0
100
AcDbEntity
  8
RACCORDO
100
AcDbPolyline
 62
7
  6
CONTINUOUS
 90
3
 70
0
 10
46.4510612351
 20
6.7470879647
 10
46.3999616552
 20
6.6952713392
 10
46.3763931434
 20
6.6716129999
  0
LINE
  5
4A1
100
AcDbEntity
  8
RACCORDO
100
AcDbLine
 62
7
  6
CONTINUOUS
 10
35.6755860343
 20
-3.4377823475
 11
35.9764959136
 21
-3.1352922762
  0
LINE
  5
4A2
100
AcDbEntity
  8
RACCORDO
100
AcDbLine
 62
7
  6
CONTINUOUS
 10
46.7515914695
 20
7.0491696469
 11
46.4510612351
 21
6.7470879647
  0
LINE
  5
4A3
100
AcDbEntity
  8
RACCORDO
100
AcDbLine
 62
7
  6
CONTINUOUS
 10
36.8258745902
 20
-3.4374930746
 11
37.1264137607
 21
-3.1353769692
  0
LINE
  5
4A4
100
AcDbEntity
  8
RACCORDO
100
AcDbLine
 62
7
  6
CONTINUOUS
 10
36.1637218008
 20
-2.9441230211
 11
36.1447747098
 21
-2.9630701121
  0
LINE
  5
4A5
100
AcDbEntity
  8
RACCORDO
100
AcDbLine
 62
7
  6
CONTINUOUS
 10
46.2637218008
 20
6.5558769789
 11
46.282685554
 21
6.5748407321
  0
LINE
  5
4A6
100
AcDbEntity
  8
RACCORDO
100
AcDbLine
 62
7
  6
CONTINUOUS
 10
37.3137218008
 20
-2.9441230211
 11
37.2948632154
 21
-2.9629816065
  0
LINE
  5
4A7
100
AcDbEntity
  8
RACCORDO
100
AcDbLine
 62
7
  6
CONTINUOUS
 10
35.6449393616
 20
-3.4682295607
 11
35.6755860343
 21
-3.4377823475
  0
LINE
  5
4A8
100
AcDbEntity
  8
RACCORDO
100
AcDbLine
 62
7
  6
CONTINUOUS
 10
46.7825226496
 20
7.0799018462
 11
46.7515914695
 21
7.0491696469
  0
LINE
  5
4A9
100
AcDbEntity
  8
RACCORDO
100
AcDbLine
 62
7
  6
CONTINUOUS
 10
36.7949393616
 20
-3.4682295607
 11
36.8258745902
 21
-3.4374930746
  0
LWPOLYLINE
  5
4AA
100
AcDbEntity
  8
RACCORDO
100
AcDbPolyline
 62
7
  6
CONTINUOUS
 90
6
 70
0
 10
45.8201657897
 20
5.6623697611
 10
45.828856752
 20
5.6709941906
 10
45.8375843809
 20
5.679739559
 10
45.8462601876
 20
5.6885278819
 10
45.8549726609
 20
5.6972651837
 10
45.8637218008
 20
5.7058769789
  0
LWPOLYLINE
  5
4AB
100
AcDbEntity
  8
RACCORDO
100
AcDbPolyline
 62
7
  6
CONTINUOUS
 90
10
 70
0
 10
45.7637218008
 20
5.6058769789
 10
45.7650636517
 20
5.6067861317
 10
45.767533225
 20
5.6093432577
 10
45.7711305205
 20
5.6132856986
 10
45.7760266309
 20
5.6183145855
 10
45.7820504636
 20
5.6241972837
 10
45.7886887407
 20
5.6308439188
 10
45.7958744733
 20
5.6381088935
 10
45.8036746504
 20
5.6458162449
 10
45.8201657897
 20
5.6623697611
  0
LINE
  5
4AC
100
AcDbEntity
  8
RACCORDO
100
AcDbLine
 62
7
  6
CONTINUOUS
 10
43.9827568746
 20
-1.8668808445
 11
43.9520840509
 21
-1.836410913
  0
LWPOLYLINE
  5
4AD
100
AcDbEntity
  8
RACCORDO
100
AcDbPolyline
 62
7
  6
CONTINUOUS
 90
6
 70
0
 10
43.5355312628
 20
-1.4174066547
 10
43.5181705046
 20
-1.4000807993
 10
43.5041041891
 20
-1.3854645379
 10
43.4937193563
 20
-1.3740544181
 10
43.4866289662
 20
-1.366462236
 10
43.4828330188
 20
-1.3632342391
  0
LINE
  5
4AE
100
AcDbEntity
  8
RACCORDO
100
AcDbLine
 62
7
  6
CONTINUOUS
 10
43.4637218008
 20
-1.3441230211
 11
43.4828935365
 21
-1.3632947568
  0
LWPOLYLINE
  5
4AF
100
AcDbEntity
  8
RACCORDO
100
AcDbPolyline
 62
7
  6
CONTINUOUS
 90
3
 70
0
 10
43.6001507954
 20
-1.4827457069
 10
43.5765214082
 20
-1.4591136033
 10
43.5355312628
 20
-1.4174066547
  0
LINE
  5
4B0
100
AcDbEntity
  8
RACCORDO
100
AcDbLine
 62
7
  6
CONTINUOUS
 10
43.9520840509
 20
-1.836410913
 11
43.6514338125
 21
-1.5345905321
  0
LINE
  5
4B1
100
AcDbEntity
  8
RACCORDO
100
AcDbLine
 62
7
  6
CONTINUOUS
 10
43.6514338125
 20
-1.5345905321
 11
43.6001507954
 21
-1.4827457069
  0
LINE
  5
4B2
100
AcDbEntity
  8
RACCORDO
100
AcDbLine
 62
7
  6
CONTINUOUS
 10
41.8637218008
 20
-2.9941230211
 11
41.8637218008
 21
-4.1941230211
  0
LINE
  5
4B3
100
AcDbEntity
  8
RACCORDO
100
AcDbLine
 62
250
  6
CONTINUOUS
 10
41.9637218008
 20
-3.0941230211
 11
41.9637218008
 21
-4.2941230211
  0
LINE
  5
4B4
100
AcDbEntity
  8
0
100
AcDbLine
 62
7
  6
CONTINUOUS
 10
42.1137218008
 20
5.6058769789
 11
42.1137218008
 21
2.0058769789
  0
LINE
  5
4B5
100
AcDbEntity
  8
DRAFT
100
AcDbLine
 62
7
  6
CONTINUOUS
 10
42.3137218008
 20
-2.9441230211
 11
42.3137218008
 21
-4.2941230211
  0
LINE
  5
4B6
100
AcDbEntity
  8
0
100
AcDbLine
 62
7
  6
CONTINUOUS
 10
42.5137218008
 20
5.6058769789
 11
42.5137218008
 21
2.0058769789
  0
LINE
  5
4B7
100
AcDbEntity
  8
DRAFT
100
AcDbLine
 62
7
  6
CONTINUOUS
 10
42.595000142
 20
-21.6004853588
 11
42.595000142
 21
-20.6751424693
  0
LINE
  5
4B8
100
AcDbEntity
  8
DRAFT
100
AcDbLine
 62
7
  6
CONTINUOUS
 10
42.595000142
 20
24.3868964271
 11
42.595000142
 21
25.3122393166
  0
LINE
  5
4B9
100
AcDbEntity
  8
DRAFT
100
AcDbLine
 62
7
  6
CONTINUOUS
 10
42.8137218008
 20
-21.6441230211
 11
42.8137218008
 21
-20.5441230211
  0
LINE
  5
4BA
100
AcDbEntity
  8
DRAFT
100
AcDbLine
 62
7
  6
CONTINUOUS
 10
42.8137218008
 20
24.2558769789
 11
42.8137218008
 21
25.3558769789
  0
LINE
  5
4BB
100
AcDbEntity
  8
RACCORDO
100
AcDbLine
 62
7
  6
CONTINUOUS
 10
43.0637218008
 20
-1.2941230211
 11
43.0637218008
 21
-2.9441230211
  0
LINE
  5
4BC
100
AcDbEntity
  8
0
100
AcDbLine
 62
7
  6
CONTINUOUS
 10
43.0637218008
 20
-1.2941230211
 11
43.0637218008
 21
0.0058769789
  0
LINE
  5
4BD
100
AcDbEntity
  8
0
100
AcDbLine
 62
7
  6
CONTINUOUS
 10
43.1137218008
 20
5.6058769789
 11
43.1137218008
 21
2.0058769789
  0
LINE
  5
4BE
100
AcDbEntity
  8
RACCORDO
100
AcDbLine
 62
250
  6
CONTINUOUS
 10
43.1637218008
 20
-1.3941230211
 11
43.1637218008
 21
-2.9441230211
  0
LINE
  5
4BF
100
AcDbEntity
  8
DRAFT
100
AcDbLine
 62
7
  6
CONTINUOUS
 10
43.4637218008
 20
-1.3441230211
 11
43.4637218008
 21
-2.9441230211
  0
LINE
  5
4C0
100
AcDbEntity
  8
0
100
AcDbLine
 62
7
  6
CONTINUOUS
 10
43.5137218008
 20
5.6058769789
 11
43.5137218008
 21
2.0058769789
  0
LINE
  5
4C1
100
AcDbEntity
  8
RACCORDO
100
AcDbLine
 62
250
  6
CONTINUOUS
 10
42.3326688907
 20
-2.963070111
 11
42.3324097754
 21
-4.3128522751
  0
LINE
  5
4C2
100
AcDbEntity
  8
RACCORDO
100
AcDbLine
 62
250
  6
CONTINUOUS
 10
42.832504182
 20
-3.4682295607
 11
42.8322214328
 21
-4.8192979125
  0
LINE
  5
4C3
100
AcDbEntity
  8
RACCORDO
100
AcDbLine
 62
250
  6
CONTINUOUS
 10
43.4828935365
 20
-1.3632947568
 11
43.4826688892
 21
-2.9630701095
  0
LINE
  5
4C4
100
AcDbEntity
  8
0
100
AcDbLine
 62
250
  6
CONTINUOUS
 10
50.3225199175
 20
23.8307841161
 11
50.4641024005
 21
24.2558769789
  0
LINE
  5
4C5
100
AcDbEntity
  8
0
100
AcDbLine
 62
250
  6
CONTINUOUS
 10
50.8224437651
 20
23.3314693487
 11
50.9637218008
 21
23.7556481268
  0
LWPOLYLINE
  5
4C6
100
AcDbEntity
  8
RACCORDO
100
AcDbPolyline
 62
7
  6
CONTINUOUS
 90
3
 70
0
 10
37.2007353524
 20
-4.4110187995
 10
37.1771372298
 20
-4.4347968762
 10
37.1259762205
 20
-4.4868270386
  0
LINE
  5
4C7
100
AcDbEntity
  8
RACCORDO
100
AcDbLine
 62
7
  6
CONTINUOUS
 10
37.1259762205
 20
-4.4868270386
 11
36.9497571842
 21
-4.6644080892
  0
LINE
  5
4C8
100
AcDbEntity
  8
RACCORDO
100
AcDbLine
 62
7
  6
CONTINUOUS
 10
36.9497571842
 20
-4.6644080892
 11
36.8259460603
 21
-4.7887676638
  0
LINE
  5
4C9
100
AcDbEntity
  8
RACCORDO
100
AcDbLine
 62
7
  6
CONTINUOUS
 10
37.3137218008
 20
-4.2941230211
 11
37.2951459319
 21
-4.31269889
  0
LWPOLYLINE
  5
4CA
100
AcDbEntity
  8
RACCORDO
100
AcDbPolyline
 62
7
  6
CONTINUOUS
 90
7
 70
0
 10
37.7237825348
 20
-3.0340758707
 10
37.7072290186
 20
-3.05056701
 10
37.6986045891
 20
-3.0592579723
 10
37.6898592207
 20
-3.0679856012
 10
37.6810708978
 20
-3.0766614079
 10
37.672333596
 20
-3.0853738812
 10
37.6637218008
 20
-3.0941230211
  0
LINE
  5
4CB
100
AcDbEntity
  8
RACCORDO
100
AcDbLine
 62
7
  6
CONTINUOUS
 10
36.8259460603
 20
-4.7887676638
 11
36.7952220825
 21
-4.8192979125
  0
LWPOLYLINE
  5
4CC
100
AcDbEntity
  8
RACCORDO
100
AcDbPolyline
 62
7
  6
CONTINUOUS
 90
6
 70
0
 10
37.7072778119
 20
-4.2506158033
 10
37.6985868496
 20
-4.2592402328
 10
37.6898592207
 20
-4.2679856012
 10
37.681183414
 20
-4.2767739241
 10
37.6724709407
 20
-4.2855112259
 10
37.6637218008
 20
-4.2941230211
  0
LWPOLYLINE
  5
4CD
100
AcDbEntity
  8
RACCORDO
100
AcDbPolyline
 62
7
  6
CONTINUOUS
 90
7
 70
0
 10
37.2950338208
 20
-4.3128522837
 10
37.29107479
 20
-4.3166073144
 10
37.283845847
 20
-4.3245912753
 10
37.2733469918
 20
-4.3363083843
 10
37.2591890943
 20
-4.351215765
 10
37.2417612846
 20
-4.3688482309
 10
37.2007353524
 20
-4.4110187995
  0
LINE
  5
4CE
100
AcDbEntity
  8
0
100
AcDbLine
 62
7
  6
CONTINUOUS
 10
45.7637218008
 20
4.5058769789
 11
44.7137218008
 21
4.5058769789
  0
LINE
  5
4CF
100
AcDbEntity
  8
0
100
AcDbLine
 62
7
  6
CONTINUOUS
 10
33.8637218008
 20
4.5058769789
 11
34.9137218008
 21
4.5058769789
  0
LINE
  5
4D0
100
AcDbEntity
  8
RACCORDO
100
AcDbLine
 62
7
  6
CONTINUOUS
 10
46.7827568746
 20
-1.8668808445
 11
46.7518865002
 21
-1.8362129136
  0
LWPOLYLINE
  5
4D1
100
AcDbEntity
  8
RACCORDO
100
AcDbPolyline
 62
7
  6
CONTINUOUS
 90
6
 70
0
 10
46.335800893
 20
-1.4176841339
 10
46.3183921911
 20
-1.4003190684
 10
46.3042725822
 20
-1.3856368543
 10
46.2938369679
 20
-1.374149239
 10
46.2866904468
 20
-1.3664923281
 10
46.2828330188
 20
-1.3632342391
  0
LWPOLYLINE
  5
4D2
100
AcDbEntity
  8
RACCORDO
100
AcDbPolyline
 62
7
  6
CONTINUOUS
 90
3
 70
0
 10
46.4003682444
 20
-1.482968942
 10
46.3767889197
 20
-1.4593896426
 10
46.335800893
 20
-1.4176841339
  0
LINE
  5
4D3
100
AcDbEntity
  8
RACCORDO
100
AcDbLine
 62
7
  6
CONTINUOUS
 10
46.2637218008
 20
-1.3441230211
 11
46.2828330188
 21
-1.3632342391
  0
LINE
  5
4D4
100
AcDbEntity
  8
RACCORDO
100
AcDbLine
 62
7
  6
CONTINUOUS
 10
46.7518865002
 20
-1.8362129136
 11
46.4514900634
 21
-1.5346483543
  0
LINE
  5
4D5
100
AcDbEntity
  8
RACCORDO
100
AcDbLine
 62
7
  6
CONTINUOUS
 10
46.4514900634
 20
-1.5346483543
 11
46.4003682444
 21
-1.482968942
  0
LWPOLYLINE
  5
4D6
100
AcDbEntity
  8
RACCORDO
100
AcDbPolyline
 62
7
  6
CONTINUOUS
 90
11
 70
0
 10
45.7637218008
 20
-1.2941230211
 10
45.7646309536
 20
-1.2954648721
 10
45.7671880796
 20
-1.2979344453
 10
45.7711305205
 20
-1.3015317408
 10
45.7761594074
 20
-1.3064278512
 10
45.7820421056
 20
-1.3124516839
 10
45.7886887407
 20
-1.319089961
 10
45.7959537154
 20
-1.3262756937
 10
45.8036610668
 20
-1.3340758707
 10
45.8117769608
 20
-1.3421781811
 10
45.8137331129
 20
-1.3441230211
  0
LINE
  5
4D7
100
AcDbEntity
  8
0
100
AcDbLine
 62
250
  6
CONTINUOUS
 10
50.4641024005
 20
-20.5441230211
 11
50.3225199175
 21
-20.1190301583
  0
LINE
  5
4D8
100
AcDbEntity
  8
0
100
AcDbLine
 62
250
  6
CONTINUOUS
 10
50.9637218008
 20
-20.043894169
 11
50.8224437651
 21
-19.6197153909
  0
LINE
  5
4D9
100
AcDbEntity
  8
0
100
AcDbLine
 62
7
  6
CONTINUOUS
 10
44.7137218008
 20
4.5058769789
 11
44.7137218008
 21
-0.1941230211
  0
LINE
  5
4DA
100
AcDbEntity
  8
RACCORDO
100
AcDbLine
 62
250
  6
CONTINUOUS
 10
43.9827567762
 20
-1.8668808445
 11
43.9825041115
 21
-3.4682295607
  0
LWPOLYLINE
  5
4DB
100
AcDbEntity
  8
RACCORDO
100
AcDbPolyline
 62
7
  6
CONTINUOUS
 90
10
 70
0
 10
37.7637218008
 20
-4.1941230211
 10
37.7623799498
 20
-4.1950321739
 10
37.7599103766
 20
-4.1975892999
 10
37.7563130811
 20
-4.2015317408
 10
37.7514169707
 20
-4.2065606277
 10
37.745393138
 20
-4.212443326
 10
37.7387548609
 20
-4.219089961
 10
37.7315691282
 20
-4.2263549358
 10
37.7237689512
 20
-4.2340622871
 10
37.7072778119
 20
-4.2506158033
  0
LINE
  5
4DC
100
AcDbEntity
  8
RACCORDO
100
AcDbLine
 62
7
  6
CONTINUOUS
 10
33.8637218008
 20
5.6058769789
 11
45.7637218008
 21
5.6058769789
  0
LINE
  5
4DD
100
AcDbEntity
  8
RACCORDO
100
AcDbLine
 62
250
  6
CONTINUOUS
 10
33.7637218008
 20
5.7058769789
 11
45.8637218008
 21
5.7058769789
  0
LINE
  5
4DE
100
AcDbEntity
  8
DRAFT
100
AcDbLine
 62
7
  6
CONTINUOUS
 10
33.3637218008
 20
6.5558769789
 11
46.2637218008
 21
6.5558769789
  0
LINE
  5
4DF
100
AcDbEntity
  8
RACCORDO
100
AcDbLine
 62
250
  6
CONTINUOUS
 10
33.3448448059
 20
6.5747539738
 11
46.2825987957
 21
6.5747539738
  0
LINE
  5
4E0
100
AcDbEntity
  8
RACCORDO
100
AcDbLine
 62
250
  6
CONTINUOUS
 10
32.8449210754
 20
7.0799018462
 11
46.7825225883
 21
7.0799018462
  0
LINE
  5
4E1
100
AcDbEntity
  8
RACCORDO
100
AcDbLine
 62
7
  6
CONTINUOUS
 10
45.7637218008
 20
5.6058769789
 11
45.7637218008
 21
-1.2941230211
  0
LINE
  5
4E2
100
AcDbEntity
  8
RACCORDO
100
AcDbLine
 62
250
  6
CONTINUOUS
 10
45.8637218008
 20
5.7058769789
 11
45.8637218008
 21
-1.3441230211
  0
LINE
  5
4E3
100
AcDbEntity
  8
DRAFT
100
AcDbLine
 62
7
  6
CONTINUOUS
 10
46.2637218008
 20
6.5558769789
 11
46.2637218008
 21
-1.3441230211
  0
LINE
  5
4E4
100
AcDbEntity
  8
RACCORDO
100
AcDbLine
 62
250
  6
CONTINUOUS
 10
46.282685554
 20
6.5748407321
 11
46.2828935517
 21
-1.3632947721
  0
LINE
  5
4E5
100
AcDbEntity
  8
RACCORDO
100
AcDbLine
 62
250
  6
CONTINUOUS
 10
46.7825225883
 20
7.0799018462
 11
46.7827567437
 21
-1.8668808445
  0
LWPOLYLINE
  5
4E6
100
AcDbEntity
  8
0
100
AcDbPolyline
 62
250
  6
CONTINUOUS
 90
7
 70
0
 10
50.8224437651
 20
-19.6197153909
 10
50.8217249934
 20
-19.6158019337
 10
50.8210228349
 20
-19.6086798218
 10
50.8203372895
 20
-19.5983490553
 10
50.819663763
 20
-19.5846946397
 10
50.8190068496
 20
-19.5678315695
 10
50.8183803322
 20
-19.5481048281
  0
LWPOLYLINE
  5
4E7
100
AcDbEntity
  8
0
100
AcDbPolyline
 62
250
  6
CONTINUOUS
 90
5
 70
0
 10
50.3225199175
 20
-20.1190301583
 10
50.3217996557
 20
-20.1113861488
 10
50.3210965365
 20
-20.0970788823
 10
50.3204105599
 20
-20.0762028955
 10
50.3197373159
 20
-20.048894592
  0
LWPOLYLINE
  5
4E8
100
AcDbEntity
  8
0
100
AcDbPolyline
 62
250
  6
CONTINUOUS
 90
3
 70
0
 10
50.8183803322
 20
-19.5481048281
 10
50.8172202176
 20
-19.4999533946
 10
50.8166969383
 20
-19.4720875605
  0
LINE
  5
4E9
100
AcDbEntity
  8
0
100
AcDbLine
 62
250
  6
CONTINUOUS
 10
50.3197373159
 20
-20.048894592
 11
50.3184554857
 21
-19.9757655075
  0
LINE
  5
4EA
100
AcDbEntity
  8
0
100
AcDbLine
 62
250
  6
CONTINUOUS
 10
50.3184554857
 20
-19.9757655075
 11
50.3167737643
 21
-19.8238522299
  0
LINE
  5
4EB
100
AcDbEntity
  8
0
100
AcDbLine
 62
250
  6
CONTINUOUS
 10
50.3167737643
 20
-19.8238522299
 11
50.3148404206
 21
-19.4821481554
  0
LINE
  5
4EC
100
AcDbEntity
  8
0
100
AcDbLine
 62
250
  6
CONTINUOUS
 10
50.3148404206
 20
-19.4821481554
 11
50.3089287848
 21
-9.8233434358
  0
LINE
  5
4ED
100
AcDbEntity
  8
0
100
AcDbLine
 62
250
  6
CONTINUOUS
 10
50.3089287848
 20
-9.8233434358
 11
50.3066453225
 21
-0.4801710166
  0
LINE
  5
4EE
100
AcDbEntity
  8
0
100
AcDbLine
 62
250
  6
CONTINUOUS
 10
50.3066453225
 20
-0.4801710166
 11
50.3074064765
 21
8.863817067
  0
LINE
  5
4EF
100
AcDbEntity
  8
0
100
AcDbLine
 62
250
  6
CONTINUOUS
 10
50.3074064765
 20
8.863817067
 11
50.3112122469
 21
18.2053580332
  0
LINE
  5
4F0
100
AcDbEntity
  8
0
100
AcDbLine
 62
250
  6
CONTINUOUS
 10
50.3112122469
 20
18.2053580332
 11
50.3154656033
 21
23.3413176853
  0
LINE
  5
4F1
100
AcDbEntity
  8
0
100
AcDbLine
 62
250
  6
CONTINUOUS
 10
50.3154656033
 20
23.3413176853
 11
50.3172965428
 21
23.591459097
  0
LINE
  5
4F2
100
AcDbEntity
  8
0
100
AcDbLine
 62
250
  6
CONTINUOUS
 10
50.3172965428
 20
23.591459097
 11
50.3184554857
 21
23.6875194653
  0
LWPOLYLINE
  5
4F3
100
AcDbEntity
  8
0
100
AcDbPolyline
 62
250
  6
CONTINUOUS
 90
6
 70
0
 10
50.3184554857
 20
23.6875194653
 10
50.3197373159
 20
23.7606485498
 10
50.3204105599
 20
23.7879568533
 10
50.3210965365
 20
23.8088328401
 10
50.3217996557
 20
23.8231401066
 10
50.3225199175
 20
23.8307841161
  0
LWPOLYLINE
  5
4F4
100
AcDbEntity
  8
0
100
AcDbPolyline
 62
250
  6
CONTINUOUS
 90
9
 70
0
 10
50.8166969383
 20
23.1838415182
 10
50.8177850769
 20
23.2372149046
 10
50.8183803322
 20
23.2598587857
 10
50.8190068496
 20
23.2795855272
 10
50.819663763
 20
23.2964485976
 10
50.8203372895
 20
23.3101030134
 10
50.8210228349
 20
23.3204337799
 10
50.8217249934
 20
23.3275558916
 10
50.8224437651
 20
23.3314693487
  0
LINE
  5
4F5
100
AcDbEntity
  8
0
100
AcDbLine
 62
250
  6
CONTINUOUS
 10
50.8166969383
 20
-19.4720875605
 11
50.8157767493
 21
-19.4091851738
  0
LINE
  5
4F6
100
AcDbEntity
  8
0
100
AcDbLine
 62
250
  6
CONTINUOUS
 10
50.8157767493
 20
-19.4091851738
 11
50.8147626717
 21
-19.3009389853
  0
LINE
  5
4F7
100
AcDbEntity
  8
0
100
AcDbLine
 62
250
  6
CONTINUOUS
 10
50.8147626717
 20
-19.3009389853
 11
50.8142414535
 21
-19.182595549
  0
LINE
  5
4F8
100
AcDbEntity
  8
0
100
AcDbLine
 62
250
  6
CONTINUOUS
 10
50.8142414535
 20
-19.182595549
 11
50.808852636
 21
-9.8111415645
  0
LINE
  5
4F9
100
AcDbEntity
  8
0
100
AcDbLine
 62
250
  6
CONTINUOUS
 10
50.808852636
 20
-9.8111415645
 11
50.806569176
 21
-0.4779777345
  0
LINE
  5
4FA
100
AcDbEntity
  8
0
100
AcDbLine
 62
7
  6
CONTINUOUS
 10
50.9637218008
 20
23.7556481268
 11
50.9637218008
 21
-20.043894169
  0
LINE
  5
4FB
100
AcDbEntity
  8
0
100
AcDbLine
 62
250
  6
CONTINUOUS
 10
50.806569176
 20
-0.4779777345
 11
50.8073303304
 21
8.8568349442
  0
LINE
  5
4FC
100
AcDbEntity
  8
0
100
AcDbLine
 62
250
  6
CONTINUOUS
 10
50.8073303304
 20
8.8568349442
 11
50.8111360975
 21
18.1883460396
  0
LINE
  5
4FD
100
AcDbEntity
  8
0
100
AcDbLine
 62
250
  6
CONTINUOUS
 10
50.8111360975
 20
18.1883460396
 11
50.8145314582
 21
22.9739761593
  0
LINE
  5
4FE
100
AcDbEntity
  8
0
100
AcDbLine
 62
250
  6
CONTINUOUS
 10
50.8145314582
 20
22.9739761593
 11
50.8153877636
 21
23.0865997141
  0
LWPOLYLINE
  5
4FF
100
AcDbEntity
  8
0
100
AcDbPolyline
 62
250
  6
CONTINUOUS
 90
3
 70
0
 10
50.8153877636
 20
23.0865997141
 10
50.8162160538
 20
23.1535694659
 10
50.8166969383
 20
23.1838415182
  0
LWPOLYLINE
  5
500
100
AcDbEntity
  8
0
100
AcDbPolyline
 62
7
  6
CONTINUOUS
 90
10
 70
0
 43
0.3500000006
 10
40.8851525116
 20
34.6058789978
 10
40.9565791626
 20
34.4630211639
 10
40.9565791626
 20
34.3915899811
 10
40.8137213287
 20
34.2487321472
 10
40.7422946777
 20
34.2487321472
 10
40.6708634949
 20
34.3201633301
 10
40.6708634949
 20
34.3915899811
 10
40.7422946777
 20
34.5344478149
 10
40.8137213287
 20
34.6058789978
 10
40.8851525116
 20
34.6058789978
  0
LWPOLYLINE
  5
501
100
AcDbEntity
  8
0
100
AcDbPolyline
 62
7
  6
CONTINUOUS
 90
3
 70
0
 43
0.3500000006
 10
57.5708641205
 20
0.9987333298
 10
57.5708641205
 20
-0.5012648621
 10
55.2137211914
 20
0.1415908585
  0
LINE
  5
502
100
AcDbEntity
  8
DRAFT
100
AcDbLine
 62
7
  6
CONTINUOUS
 10
42.595000142
 20
-20.6751424693
 11
42.8137218008
 21
-20.5441230211
  0
LINE
  5
503
100
AcDbEntity
  8
0
100
AcDbLine
 62
250
  6
CONTINUOUS
 10
29.3131867383
 20
22.8741912098
 11
50.3142568633
 21
22.8741912098
  0
LINE
  5
504
100
AcDbEntity
  8
DRAFT
100
AcDbLine
 62
7
  6
CONTINUOUS
 10
42.8137218008
 20
24.2558769789
 11
42.595000142
 21
24.3868964271
  0
LINE
  5
505
100
AcDbEntity
  8
DRAFT
100
AcDbLine
 62
7
  6
CONTINUOUS
 10
42.8137218008
 20
25.3558769789
 11
42.595000142
 21
25.3122393166
  0
LINE
  5
506
100
AcDbEntity
  8
0
100
AcDbLine
 62
250
  6
CONTINUOUS
 10
29.3049236841
 20
23.8307841161
 11
50.3225199175
 21
23.8307841161
  0
LINE
  5
507
100
AcDbEntity
  8
DRAFT
100
AcDbLine
 62
7
  6
CONTINUOUS
 10
29.1633412011
 20
24.2558769789
 11
36.8137218008
 21
24.2558769789
  0
LINE
  5
508
100
AcDbEntity
  8
DRAFT
100
AcDbLine
 62
7
  6
CONTINUOUS
 10
42.8137218008
 20
24.2558769789
 11
50.4641024005
 21
24.2558769789
  0
LINE
  5
509
100
AcDbEntity
  8
DRAFT
100
AcDbLine
 62
7
  6
CONTINUOUS
 10
42.595000142
 20
24.3868964271
 11
37.0324434596
 21
24.3868964271
  0
LWPOLYLINE
  5
50A
100
AcDbEntity
  8
0
100
AcDbPolyline
 62
250
  6
CONTINUOUS
 90
16
 70
0
 10
50.3142568634
 20
22.8741902666
 10
50.3659421689
 20
22.8740397738
 10
50.4170737107
 20
22.8736657045
 10
50.4671036559
 20
22.8730720665
 10
50.5154959743
 20
22.8722652204
 10
50.5617321815
 20
22.8712538108
 10
50.6053168941
 20
22.8700486745
 10
50.6457831375
 20
22.8686627237
 10
50.6826973487
 20
22.8671108076
 10
50.7156640219
 20
22.8654095537
 10
50.7443299461
 20
22.8635771898
 10
50.7683879891
 20
22.861633348
 10
50.7875803887
 20
22.8595988551
 10
50.8017015138
 20
22.8574955089
 10
50.8106000681
 20
22.8553458451
 10
50.8141807107
 20
22.8531728956
  0
LWPOLYLINE
  5
50B
100
AcDbEntity
  8
0
100
AcDbPolyline
 62
250
  6
CONTINUOUS
 90
16
 70
0
 10
50.3225199175
 20
23.8307841161
 10
50.3747459359
 20
23.8280043502
 10
50.4264004197
 20
23.819790762
 10
50.4769180891
 20
23.8062332367
 10
50.5257461046
 20
23.787480141
 10
50.5723501179
 20
23.7637366989
 10
50.6162201186
 20
23.7352627465
 10
50.6568760161
 20
23.7023698879
 10
50.6938728934
 20
23.6654180856
 10
50.7268058757
 20
23.624811721
 10
50.7553145616
 20
23.5809951692
 10
50.7790869666
 20
23.5344479358
 10
50.7978629379
 20
23.4856794097
 10
50.811437001
 20
23.4352232884
 10
50.8196606084
 20
23.3836317377
 10
50.8224437651
 20
23.3314693487
  0
LINE
  5
50C
100
AcDbEntity
  8
DRAFT
100
AcDbLine
 62
7
  6
CONTINUOUS
 10
36.8137218008
 20
25.3558769789
 11
37.0324434596
 21
25.3122393166
  0
LINE
  5
50D
100
AcDbEntity
  8
DRAFT
100
AcDbLine
 62
7
  6
CONTINUOUS
 10
37.0324434596
 20
25.3122393166
 11
42.595000142
 21
25.3122393166
  0
LINE
  5
50E
100
AcDbEntity
  8
DRAFT
100
AcDbLine
 62
7
  6
CONTINUOUS
 10
35.8403844532
 20
25.3558769789
 11
36.8137218008
 21
25.3558769789
  0
LINE
  5
50F
100
AcDbEntity
  8
DRAFT
100
AcDbLine
 62
7
  6
CONTINUOUS
 10
42.8137218008
 20
25.3558769789
 11
43.7870591484
 21
25.3558769789
  0
LWPOLYLINE
  5
510
100
AcDbEntity
  8
0
100
AcDbPolyline
 62
7
  6
CONTINUOUS
 90
7
 70
0
 43
0.3500000006
 10
39.3851520538
 20
34.1058788452
 10
37.8851493301
 20
34.1058788452
 10
39.3851520538
 20
36.2487327576
 10
39.3851520538
 20
36.6773062592
 10
38.9565785522
 20
37.1058752289
 10
38.3137205658
 20
37.1058752289
 10
37.8851493301
 20
36.4630217743
  0
LWPOLYLINE
  5
511
100
AcDbEntity
  8
0
100
AcDbPolyline
 62
7
  6
CONTINUOUS
 90
7
 70
0
 43
0.3500000006
 10
37.0280068588
 20
34.1058788452
 10
35.5280064011
 20
34.1058788452
 10
37.0280068588
 20
36.2487327576
 10
37.0280068588
 20
36.6773062592
 10
36.5994356232
 20
37.1058752289
 10
35.9565799026
 20
37.1058752289
 10
35.5280064011
 20
36.4630217743
  0
LWPOLYLINE
  5
512
100
AcDbEntity
  8
0
100
AcDbPolyline
 62
7
  6
CONTINUOUS
 90
6
 70
0
 43
0.3500000006
 10
41.9565794678
 20
34.1058788452
 10
43.028006424
 20
34.1058788452
 10
43.2422954407
 20
34.3201633301
 10
43.2422954407
 20
35.3915902863
 10
42.8137219391
 20
35.8201637878
 10
42.3851484375
 20
35.8201637878
  0
ARC
  5
513
100
AcDbEntity
  8
ASSI
100
AcDbCircle
 62
7
  6
CONTINUOUS
 10
7.8878771551
 20
-17.1941230211
 40
15.0
100
AcDbArc
 50
75.164888418
 51
104.835111582
  0
ARC
  5
514
100
AcDbEntity
  8
ASSI
100
AcDbCircle
 62
7
  6
CONTINUOUS
 10
-4.6157741954
 20
-1.7441230211
 40
1.65
100
AcDbArc
 50
147.6333619353
 51
324.8472970332
  0
ARC
  5
515
100
AcDbEntity
  8
0
100
AcDbCircle
 62
7
  6
CONTINUOUS
 10
-16.6304690346
 20
-19.1204006236
 40
1.0
100
AcDbArc
 50
182.4092313014
 51
267.0
  0
CIRCLE
  5
516
100
AcDbEntity
  8
ASSI
100
AcDbCircle
 62
7
  6
CONTINUOUS
 10
-4.6157741954
 20
-1.7441230211
 40
0.95
  0
ARC
  5
517
100
AcDbEntity
  8
RACCORDO
100
AcDbCircle
 62
7
  6
CONTINUOUS
 10
-0.0715499709
 20
-17.1441230211
 40
0.5
100
AcDbArc
 50
0.0
 51
90.0
  0
ARC
  5
518
100
AcDbEntity
  8
RACCORDO
100
AcDbCircle
 62
7
  6
CONTINUOUS
 10
-6.4715499709
 20
-3.1314031225
 40
0.3
100
AcDbArc
 50
0.0
 51
89.5
  0
ARC
  5
519
100
AcDbEntity
  8
RACCORDO
100
AcDbCircle
 62
7
  6
CONTINUOUS
 10
-7.7715499709
 20
-5.4681916557
 40
0.2
100
AcDbArc
 50
270.5
 51
360.0
  0
ARC
  5
51A
100
AcDbEntity
  8
RACCORDO
100
AcDbCircle
 62
7
  6
CONTINUOUS
 10
-6.3715499709
 20
-5.4559740407
 40
0.2
100
AcDbArc
 50
270.5
 51
360.0
  0
ARC
  5
51B
100
AcDbEntity
  8
RACCORDO
100
AcDbCircle
 62
7
  6
CONTINUOUS
 10
0.2284500291
 20
-18.2612803086
 40
0.2
100
AcDbArc
 50
315.0
 51
360.0
  0
ARC
  5
51C
100
AcDbEntity
  8
0
100
AcDbCircle
 62
7
  6
CONTINUOUS
 10
-16.6304690346
 20
22.8321545813
 40
1.0
100
AcDbArc
 50
93.0
 51
177.5907686986
  0
ARC
  5
51D
100
AcDbEntity
  8
RACCORDO
100
AcDbCircle
 62
7
  6
CONTINUOUS
 10
-0.0715499709
 20
20.8558769789
 40
0.5
100
AcDbArc
 50
270.0
 51
360.0
  0
ARC
  5
51E
100
AcDbEntity
  8
RACCORDO
100
AcDbCircle
 62
7
  6
CONTINUOUS
 10
-7.7715499709
 20
15.3799450676
 40
0.2
100
AcDbArc
 50
0.0001563699
 51
89.5000013646
  0
ARC
  5
51F
100
AcDbEntity
  8
RACCORDO
100
AcDbCircle
 62
7
  6
CONTINUOUS
 10
-6.3715500861
 20
15.3677279995
 40
0.2
100
AcDbArc
 50
359.9999997122
 51
89.4999670152
  0
ARC
  5
520
100
AcDbEntity
  8
RACCORDO
100
AcDbCircle
 62
7
  6
CONTINUOUS
 10
0.2284500291
 20
21.9730342664
 40
0.2
100
AcDbArc
 50
0.0
 51
45.0
  0
ARC
  5
521
100
AcDbEntity
  8
RACCORDO
100
AcDbCircle
 62
7
  6
CONTINUOUS
 10
481.9284500291
 20
1.8558769789
 40
500.0
100
AcDbArc
 50
179.4013599543
 51
180.2649057832
  0
ARC
  5
522
100
AcDbEntity
  8
RACCORDO
100
AcDbCircle
 62
7
  6
CONTINUOUS
 10
481.9284500291
 20
1.8558769789
 40
500.0
100
AcDbArc
 50
180.6101091986
 51
180.7649414215
  0
ARC
  5
523
100
AcDbEntity
  8
0
100
AcDbCircle
 62
7
  6
CONTINUOUS
 10
481.9284500291
 20
1.8558769789
 40
500.0
100
AcDbArc
 50
177.5907686986
 51
182.4092313014
  0
ARC
  5
524
100
AcDbEntity
  8
DRAFT
100
AcDbCircle
 62
7
  6
CONTINUOUS
 10
51.0637218008
 20
1.8558769789
 40
28.0
100
AcDbArc
 50
233.1301023542
 51
234.0372348486
  0
ARC
  5
525
100
AcDbEntity
  8
DRAFT
100
AcDbCircle
 62
7
  6
CONTINUOUS
 10
51.0637218008
 20
1.8558769789
 40
28.0
100
AcDbArc
 50
235.8789063483
 51
237.0647695028
  0
ARC
  5
526
100
AcDbEntity
  8
DRAFT
100
AcDbCircle
 62
7
  6
CONTINUOUS
 10
51.0637218008
 20
1.8558769789
 40
28.0
100
AcDbArc
 50
122.9352304972
 51
124.1210936517
  0
ARC
  5
527
100
AcDbEntity
  8
DRAFT
100
AcDbCircle
 62
7
  6
CONTINUOUS
 10
51.0637218008
 20
1.8558769789
 40
28.0
100
AcDbArc
 50
125.9627651514
 51
126.8698976458
  0
ARC
  5
528
100
AcDbEntity
  8
DRAFT
100
AcDbCircle
 62
7
  6
CONTINUOUS
 10
28.5637218008
 20
1.8558769789
 40
28.0
100
AcDbArc
 50
302.9352304972
 51
304.1210936517
  0
ARC
  5
529
100
AcDbEntity
  8
DRAFT
100
AcDbCircle
 62
7
  6
CONTINUOUS
 10
28.5637218008
 20
1.8558769789
 40
28.0
100
AcDbArc
 50
305.9627651514
 51
306.8698976458
  0
ARC
  5
52A
100
AcDbEntity
  8
DRAFT
100
AcDbCircle
 62
7
  6
CONTINUOUS
 10
28.5637218008
 20
1.8558769789
 40
28.0
100
AcDbArc
 50
53.1301023542
 51
54.0372348486
  0
ARC
  5
52B
100
AcDbEntity
  8
DRAFT
100
AcDbCircle
 62
7
  6
CONTINUOUS
 10
28.5637218008
 20
1.8558769789
 40
28.0
100
AcDbArc
 50
55.8789063483
 51
57.0647695028
  0
ARC
  5
52C
100
AcDbEntity
  8
DRAFT
100
AcDbCircle
 62
7
  6
CONTINUOUS
 10
44.7637218008
 20
24.9558769789
 40
0.5
100
AcDbArc
 50
170.803718421
 51
299.112422776
  0
ARC
  5
52D
100
AcDbEntity
  8
DRAFT
100
AcDbCircle
 62
7
  6
CONTINUOUS
 10
44.7637218008
 20
-21.2441230211
 40
0.5
100
AcDbArc
 50
60.887577224
 51
189.196281579
  0
ARC
  5
52E
100
AcDbEntity
  8
DRAFT
100
AcDbCircle
 62
7
  6
CONTINUOUS
 10
34.8637218008
 20
24.9558769789
 40
0.5
100
AcDbArc
 50
240.887577224
 51
9.196281579
  0
ARC
  5
52F
100
AcDbEntity
  8
DRAFT
100
AcDbCircle
 62
7
  6
CONTINUOUS
 10
34.8637218008
 20
-21.2441230211
 40
0.5
100
AcDbArc
 50
350.803718421
 51
119.112422776
  0
ELLIPSE
  5
530
100
AcDbEntity
  8
0
100
AcDbEllipse
 62
7
  6
CONTINUOUS
 10
50.4636456368
 20
-20.0434368481
 30
0.0
 11
-0.1582391023
 21
0.4751033573
 31
0.0
 40
0.9984778551
 41
-3.4626430041
 42
-1.8927600658
  0
ELLIPSE
  5
531
100
AcDbEntity
  8
0
100
AcDbEllipse
 62
7
  6
CONTINUOUS
 10
50.4636456368
 20
23.7551908059
 30
0.0
 11
0.1582391023
 21
0.4751033573
 31
0.0
 40
0.9984778551
 41
-1.2488325878
 42
0.3210503505
  0
ELLIPSE
  5
532
100
AcDbEntity
  8
0
100
AcDbEllipse
 62
7
  6
CONTINUOUS
 10
29.1637979648
 20
-20.0434368481
 30
0.0
 11
0.1582391023
 21
0.4751033573
 31
0.0
 40
0.9984778551
 41
-4.3904252414
 42
-2.8205423031
  0
ELLIPSE
  5
533
100
AcDbEntity
  8
0
100
AcDbEllipse
 62
7
  6
CONTINUOUS
 10
29.1637979648
 20
23.7551908059
 30
0.0
 11
-0.1582391023
 21
0.4751033573
 31
0.0
 40
0.9984778551
 41
-0.3210503505
 42
1.2488325878
  0
ENDSEC
  0
SECTION
  2
OBJECTS
  0
DICTIONARY
  5
C
100
AcDbDictionary
280
0
281
1
  3
ACAD_GROUP
350
D
  3
ACAD_MLINESTYLE
350
17
  3
ACAD_LAYOUT
350
1A
  3
ACAD_PLOTSETTINGS
350
19
  3
ACAD_PLOTSTYLENAME
350
E
  0
DICTIONARY
  5
D
102
{ACAD_REACTORS
330
C
102
}
100
AcDbDictionary
280
0
281
1
  0
ACDBDICTIONARYWDFLT
  5
E
102
{ACAD_REACTORS
330
C
102
}
100
AcDbDictionary
281
1
  3
Normal
350
F
100
AcDbDictionaryWithDefault
340
F
  0
DICTIONARY
  5
17
102
{ACAD_REACTORS
330
C
102
}
100
AcDbDictionary
280
0
281
1
  3
Standard
350
18
  0
DICTIONARY
  5
19
102
{ACAD_REACTORS
330
C
102
}
100
AcDbDictionary
281
1
  0
DICTIONARY
  5
1A
102
{ACAD_REACTORS
330
C
102
}
100
AcDbDictionary
281
1
  3
Model
350
534
  3
Layout1
350
535
  0
ACDBPLACEHOLDER
  5
F
102
{ACAD_REACTORS
330
E
102
}
  0
MLINESTYLE
  5
18
102
{ACAD_REACTORS
330
17
102
}
100
AcDbMlineStyle
  2
STANDARD
 70
0
  3

 62
256
 51
90.0
 52
90.0
 71
2
 49
0.5
 62
256
  6
BYLAYER
 49
-0.5
 62
256
  6
BYLAYER
  0
LAYOUT
  5
534
102
{ACAD_REACTORS
330
1A
102
}
100
AcDbPlotSettings
  1

  2
none_device
  4
ISO_A4_(297.00_x_210.00_MM)
  6

 40
0.0
 41
0.0
 42
0.0
 43
0.0
 44
297.0
 45
210.0
 46
0.0
 47
0.0
 48
0.0
 49
0.0
140
0.0
141
0.0
142
1.0
143
1.0
 70
1024
 72
1
 73
0
 74
0
  7

 75
0
147
1.0
148
0.0
149
0.0
100
AcDbLayout
  1
Model
 70
0
 71
0
 10
0.0
 20
0.0
 11
297.0
 21
210.0
 12
0.0
 22
0.0
 32
0.0
 14
0.0
 24
0.0
 34
0.0
 15
0.0
 25
0.0
 35
0.0
146
0.0
 13
0.0
 23
0.0
 33
0.0
 16
1.0
 26
0.0
 36
0.0
 17
0.0
 27
1.0
 37
0.0
 76
0
330
212
345
0
346
0
  0
LAYOUT
  5
535
102
{ACAD_REACTORS
330
1A
102
}
100
AcDbPlotSettings
  1

  2
none_device
  4
ISO_A4_(297.00_x_210.00_MM)
  6

 40
0.0
 41
0.0
 42
0.0
 43
0.0
 44
297.0
 45
210.0
 46
0.0
 47
0.0
 48
0.0
 49
0.0
140
0.0
141
0.0
142
1.0
143
1.0
 70
0
 72
1
 73
0
 74
0
  7

 75
0
147
1.0
148
0.0
149
0.0
100
AcDbLayout
  1
Layout1
 70
0
 71
1
 10
0.0
 20
0.0
 11
297.0
 21
210.0
 12
0.0
 22
0.0
 32
0.0
 14
0.0
 24
0.0
 34
0.0
 15
0.0
 25
0.0
 35
0.0
146
0.0
 13
0.0
 23
0.0
 33
0.0
 16
1.0
 26
0.0
 36
0.0
 17
0.0
 27
1.0
 37
0.0
 76
0
330
213
345
0
346
0
  0
ENDSEC
  0
EOF
