  0
SECTION
  2
HEADER
  9
$ACADVER
  1
AC1024
  9
$DWGCODEPAGE
  3
ANSI_1252
  9
$EXTMAX
 10
297.0
 20
210.0
 30
0.0
  9
$EXTMIN
 10
0.0
 20
0.0
 30
0.0
  9
$LIMMIN
 10
0.0
 20
0.0
  9
$LIMMAX
 10
297.0
 20
210.0
  9
$VIEWCTR
 10
148.5
 20
105.0
  9
$VIEWSIZE
 40
210.0
  9
$CLAYER
  8
0
  9
$LTSCALE
 40
16.335
  9
$CELTYPE
  6
BYLAYER
  9
$DIMSCALE
 40
1.0
  9
$DIMASZ
 40
3.0
  9
$DIMEXO
 40
0.5
  9
$DIMDLI
 40
11.286
  9
$DIMEXE
 40
1.5
  9
$DIMCEN
 40
2.673
  9
$DIMLFAC
 40
1.0
  9
$DIMBLK
  1
_FILLED
  9
$DIMALT
 70
0
  9
$DIMALTF
 40
0.0393700787
  9
$DIMTXT
 40
3.0
  9
$DIMTOL
 70
1
  9
$DIMLIM
 70
0
  9
$DIMTFAC
 40
1.0
  9
$DIMTP
 40
0.01
  9
$DIMTM
 40
0.01
  9
$DIMGAP
 40
0.625
  9
$DIMDSEP
 70
44
  9
$AUNITS
 70
0
  9
$PDMODE
 70
3
  9
$PDSIZE
 40
3.0
  9
$HANDSEED
  5
3CC
  9
$TILEMODE
 70
1
  9
$MEASUREMENT
 70
1
  9
$INSUNITS
 70
4
  0
ENDSEC
  0
SECTION
  2
CLASSES
  0
CLASS
  1
ACDBDICTIONARYWDFLT
  2
AcDbDictionaryWithDefault
  3
AutoCAD 2000
 90
0
 91
1
280
0
281
0
  0
CLASS
  1
ACDBPLACEHOLDER
  2
AcDbPlaceHolder
  3
AutoCAD 2000
 90
0
 91
1
280
0
281
0
  0
CLASS
  1
LAYOUT
  2
AcDbLayout
  3
AutoCAD 2000
 90
0
 91
0
280
0
281
0
  0
ENDSEC
  0
SECTION
  2
TABLES
  0
TABLE
  2
VPORT
  5
8
100
AcDbSymbolTable
 70
2
  0
VPORT
  5
1F4
100
AcDbSymbolTableRecord
100
AcDbViewportTableRecord
  2
*ACTIVE
 70
0
 10
0.0
 20
0.0
 11
1.0
 21
1.0
 12
148.5
 22
105.0
 13
0.0
 23
0.0
 14
1.0
 24
1.0
 15
0.0
 25
0.0
 16
0.0
 26
0.0
 36
1.0
 17
0.0
 27
0.0
 37
0.0
 40
210.0
 41
1.4142857143
 42
50.0
 43
0.0
 44
0.0
 50
0.0
 51
0.0
 71
0
 72
100
 73
1
 74
1
 75
0
 76
0
 77
0
 78
0
  0
ENDTAB
  0
TABLE
  2
LTYPE
  5
5
100
AcDbSymbolTable
 70
6
  0
LTYPE
  5
14
100
AcDbSymbolTableRecord
100
AcDbLinetypeTableRecord
  2
BYBLOCK
 70
0
  3

 72
65
 73
0
 40
0.0
  0
LTYPE
  5
15
100
AcDbSymbolTableRecord
100
AcDbLinetypeTableRecord
  2
BYLAYER
 70
0
  3

 72
65
 73
0
 40
0.0
  0
LTYPE
  5
16
100
AcDbSymbolTableRecord
100
AcDbLinetypeTableRecord
  2
CONTINUOUS
 70
64
  3
Solid line
 72
65
 73
0
 40
0.0
  0
LTYPE
  5
1F5
100
AcDbSymbolTableRecord
100
AcDbLinetypeTableRecord
  2
CENTER
 70
64
  3
____ _ ____ _ ____ _ ____ _ ____ _ ____ _ ____
 72
65
 73
4
 40
0.6
 49
0.375
 74
0
 49
-0.075
 74
0
 49
0.075
 74
0
 49
-0.075
 74
0
  0
LTYPE
  5
1F6
100
AcDbSymbolTableRecord
100
AcDbLinetypeTableRecord
  2
HIDDEN
 70
64
  3
- - - - - - - - - - - - - - - - - - - -
 72
65
 73
2
 40
0.2
 49
0.1
 74
0
 49
-0.1
 74
0
  0
LTYPE
  5
1F7
100
AcDbSymbolTableRecord
100
AcDbLinetypeTableRecord
  2
PHANTOM
 70
64
  3
_____ _ _ _____ _ _ _____ _ _ _____
 72
65
 73
6
 40
0.8
 49
0.45
 74
0
 49
-0.05
 74
0
 49
0.1
 74
0
 49
-0.05
 74
0
 49
0.1
 74
0
 49
-0.05
 74
0
  0
LTYPE
  5
1F8
100
AcDbSymbolTableRecord
100
AcDbLinetypeTableRecord
  2
DOT
 70
64
  3
. . . . . . . . . . . . . . . . . . . .
 72
65
 73
2
 40
0.2
 49
0.1
 74
0
 49
-0.1
 74
0
  0
LTYPE
  5
1F9
100
AcDbSymbolTableRecord
100
AcDbLinetypeTableRecord
  2
DASHED
 70
64
  3
- - - - - - - - - - - - - - - - - - - -
 72
65
 73
2
 40
0.2
 49
0.1
 74
0
 49
-0.1
 74
0
  0
ENDTAB
  0
TABLE
  2
LAYER
  5
2
100
AcDbSymbolTable
 70
36
  0
LAYER
  5
10
100
AcDbSymbolTableRecord
100
AcDbLayerTableRecord
  2
0
 70
0
 62
7
  6
CONTINUOUS
370
-3
390
F
  0
LAYER
  5
1FA
100
AcDbSymbolTableRecord
100
AcDbLayerTableRecord
  2
DEFAULT_1
 70
0
 62
7
  6
CENTER
370
-3
390
F
  0
LAYER
  5
1FB
100
AcDbSymbolTableRecord
100
AcDbLayerTableRecord
  2
DEFAULT_2
 70
0
 62
7
  6
HIDDEN
370
-3
390
F
  0
LAYER
  5
1FC
100
AcDbSymbolTableRecord
100
AcDbLayerTableRecord
  2
DEFAULT_3
 70
0
 62
7
  6
PHANTOM
370
-3
390
F
  0
LAYER
  5
1FD
100
AcDbSymbolTableRecord
100
AcDbLayerTableRecord
  2
ASSI
 70
0
 62
7
  6
CONTINUOUS
370
-3
390
F
  0
LAYER
  5
1FE
100
AcDbSymbolTableRecord
100
AcDbLayerTableRecord
  2
COORDINATE
 70
0
 62
7
  6
CONTINUOUS
370
-3
390
F
  0
LAYER
  5
1FF
100
AcDbSymbolTableRecord
100
AcDbLayerTableRecord
  2
COORD_ORIGINE
 70
0
 62
7
  6
CONTINUOUS
370
-3
390
F
  0
LAYER
  5
200
100
AcDbSymbolTableRecord
100
AcDbLayerTableRecord
  2
CURVE
 70
0
 62
7
  6
CONTINUOUS
370
-3
390
F
  0
LAYER
  5
201
100
AcDbSymbolTableRecord
100
AcDbLayerTableRecord
  2
DRAFT
 70
0
 62
7
  6
CONTINUOUS
370
-3
390
F
  0
LAYER
  5
202
100
AcDbSymbolTableRecord
100
AcDbLayerTableRecord
  2
IMPORT_FEATURES
 70
0
 62
7
  6
CONTINUOUS
370
-3
390
F
  0
LAYER
  5
203
100
AcDbSymbolTableRecord
100
AcDbLayerTableRecord
  2
INTF_1
 70
0
 62
7
  6
CONTINUOUS
370
-3
390
F
  0
LAYER
  5
204
100
AcDbSymbolTableRecord
100
AcDbLayerTableRecord
  2
INTF_8
 70
0
 62
7
  6
CONTINUOUS
370
-3
390
F
  0
LAYER
  5
205
100
AcDbSymbolTableRecord
100
AcDbLayerTableRecord
  2
NOTE
 70
0
 62
7
  6
CONTINUOUS
370
-3
390
F
  0
LAYER
  5
206
100
AcDbSymbolTableRecord
100
AcDbLayerTableRecord
  2
PIANI
 70
0
 62
7
  6
CONTINUOUS
370
-3
390
F
  0
LAYER
  5
207
100
AcDbSymbolTableRecord
100
AcDbLayerTableRecord
  2
PIANI_ORIGINE
 70
0
 62
7
  6
CONTINUOUS
370
-3
390
F
  0
LAYER
  5
208
100
AcDbSymbolTableRecord
100
AcDbLayerTableRecord
  2
PUNTI
 70
0
 62
7
  6
CONTINUOUS
370
-3
390
F
  0
LAYER
  5
209
100
AcDbSymbolTableRecord
100
AcDbLayerTableRecord
  2
RACCORDO
 70
0
 62
7
  6
CONTINUOUS
370
-3
390
F
  0
LAYER
  5
20A
100
AcDbSymbolTableRecord
100
AcDbLayerTableRecord
  2
SMUSSO
 70
0
 62
7
  6
CONTINUOUS
370
-3
390
F
  0
LAYER
  5
20B
100
AcDbSymbolTableRecord
100
AcDbLayerTableRecord
  2
SNAPLINE
 70
0
 62
7
  6
CONTINUOUS
370
-3
390
F
  0
LAYER
  5
20C
100
AcDbSymbolTableRecord
100
AcDbLayerTableRecord
  2
SUPERFICI
 70
0
 62
7
  6
CONTINUOUS
370
-3
390
F
  0
LAYER
  5
20D
100
AcDbSymbolTableRecord
100
AcDbLayerTableRecord
  2
TRASH
 70
0
 62
7
  6
CONTINUOUS
370
-3
390
F
  0
LAYER
  5
20E
100
AcDbSymbolTableRecord
100
AcDbLayerTableRecord
  2
XSEC_DATUMS
 70
0
 62
7
  6
CONTINUOUS
370
-3
390
F
  0
ENDTAB
  0
TABLE
  2
STYLE
  5
3
100
AcDbSymbolTable
 70
1
  0
STYLE
  5
11
100
AcDbSymbolTableRecord
100
AcDbTextStyleTableRecord
  2
STANDARD
 70
0
 40
0.0
 41
0.8
 50
0.0
 71
0
 42
0.2
  3
txt
  4

  0
STYLE
  5
20F
100
AcDbSymbolTableRecord
100
AcDbTextStyleTableRecord
  2
TEXTSTYLE_1
 70
0
 40
0.0
 41
0.8
 50
0.0
 71
0
 42
0.2
  3
gdt
  4

  0
ENDTAB
  0
TABLE
  2
VIEW
  5
6
100
AcDbSymbolTable
 70
0
  0
ENDTAB
  0
TABLE
  2
UCS
  5
7
100
AcDbSymbolTable
 70
0
  0
ENDTAB
  0
TABLE
  2
APPID
  5
9
100
AcDbSymbolTable
 70
1
  0
APPID
  5
210
100
AcDbSymbolTableRecord
100
AcDbRegAppTableRecord
  2
ACAD
 70
0
  0
ENDTAB
  0
TABLE
  2
BLOCK_RECORD
  5
1
100
AcDbSymbolTable
 70
0
  0
BLOCK_RECORD
  5
211
100
AcDbSymbolTableRecord
100
AcDbBlockTableRecord
  2
*Model_Space
  0
BLOCK_RECORD
  5
212
100
AcDbSymbolTableRecord
100
AcDbBlockTableRecord
  2
*Paper_Space
  0
BLOCK_RECORD
  5
213
100
AcDbSymbolTableRecord
100
AcDbBlockTableRecord
  2
_FILLED
  0
BLOCK_RECORD
  5
214
100
AcDbSymbolTableRecord
100
AcDbBlockTableRecord
  2
*D0
  0
BLOCK_RECORD
  5
215
100
AcDbSymbolTableRecord
100
AcDbBlockTableRecord
  2
*D1
  0
BLOCK_RECORD
  5
216
100
AcDbSymbolTableRecord
100
AcDbBlockTableRecord
  2
*D2
  0
BLOCK_RECORD
  5
217
100
AcDbSymbolTableRecord
100
AcDbBlockTableRecord
  2
*D3
  0
ENDTAB
  0
TABLE
  2
DIMSTYLE
  5
A
100
AcDbSymbolTable
 70
1
100
AcDbDimStyleTable
 71
0
  0
DIMSTYLE
105
218
100
AcDbSymbolTableRecord
100
AcDbDimStyleTableRecord
  2
STANDARD
 70
0
  3

  4

 40
1.0
 41
3.0
 42
0.5
 43
0.38
 44
1.5
 45
0.0
 46
0.0
 47
0.01
 48
0.01
140
3.0
141
0.09
142
0.0
143
25.4
144
1.0
145
0.0
146
1.0
147
0.625
 71
1
 72
0
 73
0
 74
0
 75
0
 76
0
 77
1
 78
8
 79
2
170
0
171
1
172
0
173
0
174
0
175
0
176
0
177
0
178
0
270
2
179
2
271
2
272
2
273
2
274
2
275
0
280
0
281
0
282
0
283
1
284
8
285
0
286
0
287
3
288
0
340
11
278
44
341
213
342
213
343
213
344
213
  0
DIMSTYLE
105
219
100
AcDbSymbolTableRecord
100
AcDbDimStyleTableRecord
  2
DIMSTYLE_1
 70
0
  3

  4

 40
1.0
 41
3.0
 42
0.5
 43
0.38
 44
1.5
 45
0.0
 46
0.0
 47
0.0
 48
0.0
140
3.0
141
0.09
142
0.0
143
25.4
144
1.0
145
0.0
146
1.0
147
0.75
 71
0
 72
0
 73
0
 74
0
 75
0
 76
0
 77
1
 78
8
 79
2
170
0
171
1
172
0
173
0
174
0
175
0
176
0
177
0
178
0
270
2
179
2
271
2
272
2
273
2
274
2
275
0
280
0
281
0
282
0
283
1
284
8
285
0
286
0
287
3
288
0
340
11
278
44
341
213
342
213
343
213
344
213
  0
ENDTAB
  0
ENDSEC
  0
SECTION
  2
BLOCKS
  0
BLOCK
  5
20
100
AcDbEntity
  8
0
100
AcDbBlockBegin
  2
*Model_Space
 70
0
 10
0.0
 20
0.0
 30
0.0
  3
*Model_Space
  1

  0
ENDBLK
  5
21
100
AcDbEntity
  8
0
100
AcDbBlockEnd
  0
BLOCK
  5
1C
100
AcDbEntity
  8
0
100
AcDbBlockBegin
  2
*Paper_Space
 70
0
 10
0.0
 20
0.0
 30
0.0
  3
*Paper_Space
  1

  0
ENDBLK
  5
1D
100
AcDbEntity
  8
0
100
AcDbBlockEnd
  0
BLOCK
  5
21A
100
AcDbEntity
  8
0
100
AcDbBlockBegin
  2
_FILLED
 70
64
 10
0.0
 20
0.0
  3
_FILLED
  1

  0
SOLID
  5
21B
100
AcDbEntity
  8
0
  6
BYBLOCK
 62
0
100
AcDbTrace
 10
0.0
 20
0.0
 11
-1.0
 21
0.3166666667
 12
-1.0
 22
-0.3166666667
 13
-1.0
 23
-0.3166666667
  0
ENDBLK
  5
21C
100
AcDbEntity
  8
0
  6
BYBLOCK
 62
0
100
AcDbBlockEnd
  0
BLOCK
  5
21D
100
AcDbEntity
  8
0
100
AcDbBlockBegin
 62
7
  6
CONTINUOUS
  2
*D0
 70
65
 10
0.0
 20
0.0
  3
*D0
  1

  0
LINE
  5
21E
100
AcDbEntity
  8
0
100
AcDbLine
 62
7
  6
CONTINUOUS
 10
-39.4143928499
 20
0.5
 11
-39.4143928499
 21
43.0
  0
LINE
  5
21F
100
AcDbEntity
  8
0
100
AcDbLine
 62
7
  6
CONTINUOUS
 10
-20.9143928499
 20
20.6171572875
 11
-20.9143928499
 21
43.0
  0
LINE
  5
220
100
AcDbEntity
  8
0
100
AcDbLine
 62
7
  6
CONTINUOUS
 10
-39.4143928499
 20
41.5
 11
-30.1643928499
 21
41.5
  0
LINE
  5
221
100
AcDbEntity
  8
0
100
AcDbLine
 62
7
  6
CONTINUOUS
 10
-20.9143928499
 20
41.5
 11
-30.1643928499
 21
41.5
  0
INSERT
  5
222
100
AcDbEntity
  8
0
100
AcDbBlockReference
 62
7
  6
CONTINUOUS
  2
_FILLED
 10
-39.4143928499
 20
41.5
 41
3.0
 42
3.0
 43
3.0
 50
180.0
  0
INSERT
  5
223
100
AcDbEntity
  8
0
100
AcDbBlockReference
 62
7
  6
CONTINUOUS
  2
_FILLED
 10
-20.9143928499
 20
41.5
 41
3.0
 42
3.0
 43
3.0
  0
ENDBLK
  5
224
100
AcDbEntity
  8
0
  6
BYBLOCK
 62
0
100
AcDbBlockEnd
  0
BLOCK
  5
225
100
AcDbEntity
  8
0
100
AcDbBlockBegin
 62
7
  6
CONTINUOUS
  2
*D1
 70
65
 10
0.0
 20
0.0
  3
*D1
  1

  0
LINE
  5
226
100
AcDbEntity
  8
0
100
AcDbLine
 62
7
  6
CONTINUOUS
 10
-29.9143928499
 20
22.3997711479
 11
-29.9143928499
 21
33.0
  0
LINE
  5
227
100
AcDbEntity
  8
0
100
AcDbLine
 62
7
  6
CONTINUOUS
 10
-20.9143928499
 20
20.6171572875
 11
-20.9143928499
 21
33.0
  0
LINE
  5
228
100
AcDbEntity
  8
0
100
AcDbLine
 62
7
  6
CONTINUOUS
 10
-29.9143928499
 20
31.5
 11
-25.4143928499
 21
31.5
  0
LINE
  5
229
100
AcDbEntity
  8
0
100
AcDbLine
 62
7
  6
CONTINUOUS
 10
-20.9143928499
 20
31.5
 11
-25.4143928499
 21
31.5
  0
INSERT
  5
22A
100
AcDbEntity
  8
0
100
AcDbBlockReference
 62
7
  6
CONTINUOUS
  2
_FILLED
 10
-29.9143928499
 20
31.5
 41
3.0
 42
3.0
 43
3.0
 50
180.0
  0
INSERT
  5
22B
100
AcDbEntity
  8
0
100
AcDbBlockReference
 62
7
  6
CONTINUOUS
  2
_FILLED
 10
-20.9143928499
 20
31.5
 41
3.0
 42
3.0
 43
3.0
  0
ENDBLK
  5
22C
100
AcDbEntity
  8
0
  6
BYBLOCK
 62
0
100
AcDbBlockEnd
  0
BLOCK
  5
22D
100
AcDbEntity
  8
0
100
AcDbBlockBegin
 62
7
  6
CONTINUOUS
  2
*D2
 70
65
 10
0.0
 20
0.0
  3
*D2
  1

  0
LINE
  5
22E
100
AcDbEntity
  8
0
100
AcDbLine
 62
7
  6
CONTINUOUS
 10
-11.15
 20
22.3997711479
 11
-11.15
 21
33.0
  0
LINE
  5
22F
100
AcDbEntity
  8
0
100
AcDbLine
 62
7
  6
CONTINUOUS
 10
11.15
 20
22.3997711479
 11
11.15
 21
33.0
  0
LINE
  5
230
100
AcDbEntity
  8
0
100
AcDbLine
 62
7
  6
CONTINUOUS
 10
-11.15
 20
31.5
 11
0.0
 21
31.5
  0
LINE
  5
231
100
AcDbEntity
  8
0
100
AcDbLine
 62
7
  6
CONTINUOUS
 10
11.15
 20
31.5
 11
0.0
 21
31.5
  0
INSERT
  5
232
100
AcDbEntity
  8
0
100
AcDbBlockReference
 62
7
  6
CONTINUOUS
  2
_FILLED
 10
-11.15
 20
31.5
 41
3.0
 42
3.0
 43
3.0
 50
180.0
  0
INSERT
  5
233
100
AcDbEntity
  8
0
100
AcDbBlockReference
 62
7
  6
CONTINUOUS
  2
_FILLED
 10
11.15
 20
31.5
 41
3.0
 42
3.0
 43
3.0
  0
ENDBLK
  5
234
100
AcDbEntity
  8
0
  6
BYBLOCK
 62
0
100
AcDbBlockEnd
  0
BLOCK
  5
235
100
AcDbEntity
  8
0
100
AcDbBlockBegin
 62
7
  6
CONTINUOUS
  2
*D3
 70
65
 10
0.0
 20
0.0
  3
*D3
  1

  0
LINE
  5
236
100
AcDbEntity
  8
0
100
AcDbLine
 62
7
  6
CONTINUOUS
 10
4.4733373476
 20
23.5
 11
20.65
 21
23.5
  0
LINE
  5
237
100
AcDbEntity
  8
0
100
AcDbLine
 62
7
  6
CONTINUOUS
 10
4.4733373476
 20
-23.5
 11
20.65
 21
-23.5
  0
LINE
  5
238
100
AcDbEntity
  8
0
100
AcDbLine
 62
7
  6
CONTINUOUS
 10
19.15
 20
23.5
 11
19.15
 21
0.0
  0
LINE
  5
239
100
AcDbEntity
  8
0
100
AcDbLine
 62
7
  6
CONTINUOUS
 10
19.15
 20
-23.5
 11
19.15
 21
0.0
  0
INSERT
  5
23A
100
AcDbEntity
  8
0
100
AcDbBlockReference
 62
7
  6
CONTINUOUS
  2
_FILLED
 10
19.15
 20
23.5
 41
3.0
 42
3.0
 43
3.0
 50
90.0
  0
INSERT
  5
23B
100
AcDbEntity
  8
0
100
AcDbBlockReference
 62
7
  6
CONTINUOUS
  2
_FILLED
 10
19.15
 20
-23.5
 41
3.0
 42
3.0
 43
3.0
 50
270.0
  0
ENDBLK
  5
23C
100
AcDbEntity
  8
0
  6
BYBLOCK
 62
0
100
AcDbBlockEnd
  0
ENDSEC
  0
SECTION
  2
ENTITIES
  0
DIMENSION
  5
23D
100
AcDbEntity
  8
0
100
AcDbDimension
 62
7
  6
CONTINUOUS
  2
*D0
 10
-20.9143928499
 20
41.5
 11
-34.1286785642
 21
41.5
 70
160
 71
2
 72
2
 41
0.9
 42
18.5
  3
DIMSTYLE_1
100
AcDbAlignedDimension
 13
-39.4143928499
 23
0.0
 14
-20.9143928499
 24
20.1171572875
100
AcDbRotatedDimension
  0
DIMENSION
  5
23E
100
AcDbEntity
  8
0
100
AcDbDimension
 62
7
  6
CONTINUOUS
  2
*D1
 10
-20.9143928499
 20
31.5
 11
-26.5929642785
 21
31.5
 70
160
 71
2
 72
2
 41
0.9
 42
9.0
  3
DIMSTYLE_1
100
AcDbAlignedDimension
 13
-29.9143928499
 23
21.8997711479
 14
-20.9143928499
 24
20.1171572875
100
AcDbRotatedDimension
  0
DIMENSION
  5
23F
100
AcDbEntity
  8
0
100
AcDbDimension
 62
7
  6
CONTINUOUS
  2
*D2
 10
11.15
 20
31.5
 11
-4.2857142857
 21
31.5
 70
160
 71
2
 72
2
 41
0.9
 42
22.3
  3
DIMSTYLE_1
100
AcDbAlignedDimension
 13
-11.15
 23
21.8997711479
 14
11.15
 24
21.8997711479
100
AcDbRotatedDimension
  0
DIMENSION
  5
240
100
AcDbEntity
  8
0
100
AcDbDimension
 62
7
  6
CONTINUOUS
  2
*D3
 10
19.15
 20
-23.5
 11
19.15
 21
-2.3571428571
 70
160
 71
2
 72
2
 41
0.9
 42
47.0
  3
DIMSTYLE_1
100
AcDbAlignedDimension
 13
3.9733373476
 23
23.5
 14
3.9733373476
 24
-23.5
 50
270.0
100
AcDbRotatedDimension
  0
LWPOLYLINE
  5
241
100
AcDbEntity
  8
0
100
AcDbPolyline
 62
7
  6
CONTINUOUS
 90
5
 70
0
 43
0.3500000006
 10
3.0000000658
 20
33.9642854004
 10
3.357142951
 20
34.1785698853
 10
3.357142951
 20
34.8214278717
 10
3.0000000658
 20
35.2500013733
 10
2.1428571696
 20
35.2500013733
  0
LWPOLYLINE
  5
242
100
AcDbEntity
  8
0
100
AcDbPolyline
 62
250
  6
CONTINUOUS
 90
16
 70
0
 10
-11.0004589101
 20
20.9972959167
 10
-10.9968791436
 20
20.9994689314
 10
-10.9879813308
 20
21.0016186628
 10
-10.9738608069
 20
21.0037220776
 10
-10.9546688652
 20
21.005756639
 10
-10.9306111366
 20
21.0077005477
 10
-10.9019453861
 20
21.009532976
 10
-10.868978751
 20
21.0112342904
 10
-10.8320644502
 20
21.0127862623
 10
-10.7915979997
 20
21.014172263
 10
-10.7480129745
 20
21.0153774425
 10
-10.7017763638
 20
21.0163888878
 10
-10.6533835666
 20
21.0171957618
 10
-10.6033530845
 20
21.0177894192
 10
-10.5522209659
 20
21.0181634993
 10
-10.5005350625
 20
21.018313994
  0
LINE
  5
243
100
AcDbEntity
  8
DRAFT
100
AcDbLine
 62
7
  6
CONTINUOUS
 10
-3.0
 20
-23.5
 11
-2.7812783412
 21
-23.4563623377
  0
LWPOLYLINE
  5
244
100
AcDbEntity
  8
0
100
AcDbPolyline
 62
250
  6
CONTINUOUS
 90
16
 70
0
 10
10.5087981167
 20
-21.9749071372
 10
10.5610250031
 20
-21.97212728
 10
10.6126802316
 20
-21.9639134406
 10
10.6631985021
 20
-21.9503555394
 10
10.7120269743
 20
-21.931601975
 10
10.7586312804
 20
-21.9078580123
 10
10.8025013793
 20
-21.8793835478
 10
10.8431571925
 20
-21.8464902344
 10
10.8801538308
 20
-21.8095380733
 10
10.9130864355
 20
-21.7689315022
 10
10.941594647
 20
-21.7251149336
 10
10.9653665353
 20
-21.6785678925
 10
10.9841419991
 20
-21.6297997904
 10
10.9977156235
 20
-21.5793443309
 10
11.0059389237
 20
-21.5277536674
 10
11.0087219643
 20
-21.4755923698
  0
LINE
  5
245
100
AcDbEntity
  8
DRAFT
100
AcDbLine
 62
7
  6
CONTINUOUS
 10
3.9733373476
 20
-23.5
 11
3.0
 21
-23.5
  0
LINE
  5
246
100
AcDbEntity
  8
DRAFT
100
AcDbLine
 62
7
  6
CONTINUOUS
 10
-3.0
 20
-23.5
 11
-3.9733373476
 21
-23.5
  0
LINE
  5
247
100
AcDbEntity
  8
DRAFT
100
AcDbLine
 62
7
  6
CONTINUOUS
 10
-2.7812783412
 20
-23.4563623377
 11
2.7812783412
 21
-23.4563623377
  0
LINE
  5
248
100
AcDbEntity
  8
DRAFT
100
AcDbLine
 62
7
  6
CONTINUOUS
 10
2.7812783412
 20
-22.5310194482
 11
-2.7812783412
 21
-22.5310194482
  0
LINE
  5
249
100
AcDbEntity
  8
DRAFT
100
AcDbLine
 62
7
  6
CONTINUOUS
 10
3.0
 20
-22.4
 11
10.6503805997
 21
-22.4
  0
LINE
  5
24A
100
AcDbEntity
  8
DRAFT
100
AcDbLine
 62
7
  6
CONTINUOUS
 10
-3.0
 20
-22.4
 11
-10.6503805997
 21
-22.4
  0
LINE
  5
24B
100
AcDbEntity
  8
DRAFT
100
AcDbLine
 62
7
  6
CONTINUOUS
 10
3.0
 20
-23.5
 11
2.7812783412
 21
-23.4563623377
  0
LWPOLYLINE
  5
24C
100
AcDbEntity
  8
0
100
AcDbPolyline
 62
250
  6
CONTINUOUS
 90
16
 70
0
 10
-11.0004589101
 20
-20.9972959167
 10
-10.9968794369
 20
-20.9994689572
 10
-10.9879818724
 20
-21.0016187146
 10
-10.9738615497
 20
-21.0037221553
 10
-10.9546697613
 20
-21.005756742
 10
-10.9306121379
 20
-21.007700675
 10
-10.9019464456
 20
-21.009533126
 10
-10.8689798232
 20
-21.0112344612
 10
-10.8320654925
 20
-21.0127864516
 10
-10.7915989726
 20
-21.0141724684
 10
-10.7480138429
 20
-21.0153776611
 10
-10.701777097
 20
-21.0163891165
 10
-10.6533841395
 20
-21.0171959974
 10
-10.6033534777
 20
-21.0177896584
 10
-10.552221166
 20
-21.0181637387
 10
-10.5005350625
 20
-21.0183142302
  0
LINE
  5
24D
100
AcDbEntity
  8
DRAFT
100
AcDbLine
 62
7
  6
CONTINUOUS
 10
-3.0
 20
22.4
 11
-2.7812783412
 21
22.5310194482
  0
LWPOLYLINE
  5
24E
100
AcDbEntity
  8
0
100
AcDbPolyline
 62
250
  6
CONTINUOUS
 90
15
 70
0
 10
10.5522211666
 20
-21.0181637394
 10
10.6033534788
 20
-21.0177896594
 10
10.6533841411
 20
-21.0171959985
 10
10.701777099
 20
-21.0163891176
 10
10.7480138452
 20
-21.015377662
 10
10.7915989752
 20
-21.0141724692
 10
10.8320654952
 20
-21.0127864523
 10
10.868979826
 20
-21.0112344618
 10
10.9019464483
 20
-21.0095331264
 10
10.9306121405
 20
-21.0077006753
 10
10.9546697635
 20
-21.0057567422
 10
10.9738615515
 20
-21.0037221554
 10
10.9879818737
 20
-21.0016187147
 10
10.9968794376
 20
-20.9994689572
 10
11.0004589101
 20
-20.9972959167
  0
LINE
  5
24F
100
AcDbEntity
  8
0
100
AcDbLine
 62
250
  6
CONTINUOUS
 10
10.5087981167
 20
-21.9749071372
 11
-10.5087981167
 21
-21.9749071372
  0
LINE
  5
250
100
AcDbEntity
  8
0
100
AcDbLine
 62
250
  6
CONTINUOUS
 10
10.5522211666
 20
-21.0181637394
 11
-10.5005350625
 21
-21.0183142309
  0
LINE
  5
251
100
AcDbEntity
  8
DRAFT
100
AcDbLine
 62
7
  6
CONTINUOUS
 10
-2.7812783412
 20
-22.5310194482
 11
-3.0
 21
-22.4
  0
LWPOLYLINE
  5
252
100
AcDbEntity
  8
0
100
AcDbPolyline
 62
250
  6
CONTINUOUS
 90
16
 70
0
 10
-11.0087219643
 20
-21.4755923698
 10
-11.0059389623
 20
-21.5277533032
 10
-10.9977157646
 20
-21.5793436708
 10
-10.9841422864
 20
-21.6297989097
 10
-10.9653669917
 20
-21.6785668706
 10
-10.9415952756
 20
-21.7251138478
 10
-10.9130872219
 20
-21.7689304222
 10
-10.8801547429
 20
-21.8095370623
 10
-10.843158184
 20
-21.8464893433
 10
-10.8025023985
 20
-21.8793828084
 10
-10.7586322667
 20
-21.9078574436
 10
-10.7120278628
 20
-21.9316015798
 10
-10.6631992385
 20
-21.9503553003
 10
-10.6126807679
 20
-21.9639133265
 10
-10.5610252917
 20
-21.9721272495
 10
-10.5087981166
 20
-21.974907137
  0
LWPOLYLINE
  5
253
100
AcDbEntity
  8
0
100
AcDbPolyline
 62
250
  6
CONTINUOUS
 90
16
 70
0
 10
-11.0087219643
 20
21.4755923698
 10
-11.0059388076
 20
21.5277547588
 10
-10.9977152003
 20
21.5793463095
 10
-10.9841411372
 20
21.6298024308
 10
-10.9653651658
 20
21.6785709568
 10
-10.9415927608
 20
21.7251181902
 10
-10.913084075
 20
21.768934742
 10
-10.8801510927
 20
21.8095411066
 10
-10.8431542155
 20
21.8464929089
 10
-10.8024983179
 20
21.8793857675
 10
-10.7586283172
 20
21.90785972
 10
-10.712024304
 20
21.931603162
 10
-10.6631962884
 20
21.9503562578
 10
-10.612678619
 20
21.9639137831
 10
-10.5610241352
 20
21.9721273713
 10
-10.5087981167
 20
21.9749071372
  0
LWPOLYLINE
  5
254
100
AcDbEntity
  8
0
100
AcDbPolyline
 62
250
  6
CONTINUOUS
 90
7
 70
0
 10
-11.0046627389
 20
21.4041254633
 10
-11.0052891369
 20
21.4238228917
 10
-11.0059457953
 20
21.4406561357
 10
-11.0066187988
 20
21.4542838409
 10
-11.0073035089
 20
21.4645922227
 10
-11.0080045641
 20
21.4716950656
 10
-11.0087219643
 20
21.4755923698
  0
LINE
  5
255
100
AcDbEntity
  8
0
100
AcDbLine
 62
250
  6
CONTINUOUS
 10
-11.0035024636
 20
21.3560260411
 11
-11.0046627389
 21
21.4041254633
  0
LINE
  5
256
100
AcDbEntity
  8
0
100
AcDbLine
 62
250
  6
CONTINUOUS
 10
-11.0024980441
 20
21.2979562724
 11
-11.0035024636
 21
21.3560260411
  0
LINE
  5
257
100
AcDbEntity
  8
0
100
AcDbLine
 62
250
  6
CONTINUOUS
 10
-11.0013312402
 20
21.1949860367
 11
-11.0024980441
 21
21.2979562724
  0
LINE
  5
258
100
AcDbEntity
  8
0
100
AcDbLine
 62
250
  6
CONTINUOUS
 10
-10.5030519894
 20
21.6796926689
 11
-10.5047341778
 21
21.8316431047
  0
LINE
  5
259
100
AcDbEntity
  8
0
100
AcDbLine
 62
250
  6
CONTINUOUS
 10
-11.0006377707
 20
21.0790132523
 11
-11.0013312402
 21
21.1949860367
  0
LINE
  5
25A
100
AcDbEntity
  8
0
100
AcDbLine
 62
250
  6
CONTINUOUS
 10
-10.5011186535
 20
21.3380089963
 11
-10.5030519894
 21
21.6796926689
  0
LINE
  5
25B
100
AcDbEntity
  8
0
100
AcDbLine
 62
250
  6
CONTINUOUS
 10
-10.9951308334
 20
11.6670144863
 11
-11.0006377707
 21
21.0790132523
  0
LINE
  5
25C
100
AcDbEntity
  8
0
100
AcDbLine
 62
250
  6
CONTINUOUS
 10
-10.4936846759
 20
7.0079400907
 11
-10.5011186535
 21
21.3380089963
  0
LINE
  5
25D
100
AcDbEntity
  8
0
100
AcDbLine
 62
7
  6
CONTINUOUS
 10
-11.15
 20
-21.8997711479
 11
-11.15
 21
21.8997711479
  0
LINE
  5
25E
100
AcDbEntity
  8
0
100
AcDbLine
 62
250
  6
CONTINUOUS
 10
-10.9928473781
 20
-2.3338756638
 11
-10.9951308334
 21
11.6670144863
  0
LINE
  5
25F
100
AcDbEntity
  8
0
100
AcDbLine
 62
250
  6
CONTINUOUS
 10
-10.4936846755
 20
-7.0079400855
 11
-10.4936846759
 21
7.0079400907
  0
LINE
  5
260
100
AcDbEntity
  8
0
100
AcDbLine
 62
250
  6
CONTINUOUS
 10
-10.9974142989
 20
-16.3324771154
 11
-10.9928473781
 21
-2.3338756638
  0
LINE
  5
261
100
AcDbEntity
  8
0
100
AcDbLine
 62
250
  6
CONTINUOUS
 10
-11.00081144
 20
-21.1184484404
 11
-10.9974142989
 21
-16.3324771154
  0
LINE
  5
262
100
AcDbEntity
  8
0
100
AcDbLine
 62
250
  6
CONTINUOUS
 10
-10.5017441538
 20
-21.4854586496
 11
-10.4936846755
 21
-7.0079400855
  0
LINE
  5
263
100
AcDbEntity
  8
0
100
AcDbLine
 62
250
  6
CONTINUOUS
 10
-11.0016694038
 20
-21.2310600855
 11
-11.00081144
 21
-21.1184484404
  0
LINE
  5
264
100
AcDbEntity
  8
0
100
AcDbLine
 62
250
  6
CONTINUOUS
 10
-10.5035748986
 20
-21.7355556626
 11
-10.5017441538
 21
-21.4854586496
  0
LINE
  5
265
100
AcDbEntity
  8
0
100
AcDbLine
 62
250
  6
CONTINUOUS
 10
-10.5047341778
 20
-21.8316431047
 11
-10.5035748986
 21
-21.7355556626
  0
LINE
  5
266
100
AcDbEntity
  8
0
100
AcDbLine
 62
250
  6
CONTINUOUS
 10
-11.0024980441
 20
-21.2979562723
 11
-11.0016694038
 21
-21.2310600855
  0
LINE
  5
267
100
AcDbEntity
  8
0
100
AcDbLine
 62
250
  6
CONTINUOUS
 10
-11.0035024636
 20
-21.3560260412
 11
-11.0024980441
 21
-21.2979562723
  0
LWPOLYLINE
  5
268
100
AcDbEntity
  8
0
100
AcDbPolyline
 62
250
  6
CONTINUOUS
 90
5
 70
0
 10
-10.5060157159
 20
21.9047687004
 10
-10.5066888073
 20
21.9320760821
 10
-10.5073747238
 20
21.952953371
 10
-10.5080778269
 20
21.9672621499
 10
-10.5087981167
 20
21.9749071372
  0
LINE
  5
269
100
AcDbEntity
  8
0
100
AcDbLine
 62
250
  6
CONTINUOUS
 10
-10.5047341778
 20
21.8316431047
 11
-10.5060157159
 21
21.9047687004
  0
LWPOLYLINE
  5
26A
100
AcDbEntity
  8
0
100
AcDbPolyline
 62
7
  6
CONTINUOUS
 90
3
 70
0
 43
0.3500000006
 10
1.1428571477
 20
32.5357161255
 10
1.0714285848
 20
32.3214271088
 10
0.9285714591
 20
32.0357159729
  0
LINE
  5
26B
100
AcDbEntity
  8
RACCORDO
100
AcDbLine
 62
250
  6
CONTINUOUS
 10
-6.9690349754
 20
-3.7227578234
 11
-6.9688007254
 21
5.2240248673
  0
LWPOLYLINE
  5
26C
100
AcDbEntity
  8
0
100
AcDbPolyline
 62
250
  6
CONTINUOUS
 90
6
 70
0
 10
-10.5087981167
 20
-21.9749071372
 10
-10.5080778269
 20
-21.9672621499
 10
-10.5073747238
 20
-21.952953371
 10
-10.5066888073
 20
-21.9320760821
 10
-10.5060157159
 20
-21.9047687004
 10
-10.5047341778
 20
-21.8316431047
  0
LWPOLYLINE
  5
26D
100
AcDbEntity
  8
0
100
AcDbPolyline
 62
250
  6
CONTINUOUS
 90
8
 70
0
 10
-11.0087219643
 20
-21.4755923698
 10
-11.0080045641
 20
-21.4716950654
 10
-11.0073035089
 20
-21.4645922224
 10
-11.0066187988
 20
-21.4542838406
 10
-11.0059457953
 20
-21.4406561355
 10
-11.0052891369
 20
-21.4238228918
 10
-11.0046627389
 20
-21.4041254635
 10
-11.0035024636
 20
-21.3560260412
  0
LINE
  5
26E
100
AcDbEntity
  8
DRAFT
100
AcDbLine
 62
7
  6
CONTINUOUS
 10
-6.45
 20
-3.2
 11
-6.45
 21
4.7
  0
LINE
  5
26F
100
AcDbEntity
  8
RACCORDO
100
AcDbLine
 62
250
  6
CONTINUOUS
 10
-6.4691717389
 20
-3.2191717389
 11
-6.4689637429
 21
4.7189637429
  0
LINE
  5
270
100
AcDbEntity
  8
RACCORDO
100
AcDbLine
 62
250
  6
CONTINUOUS
 10
3.018499632
 20
-6.6751748914
 11
-3.0184997047
 21
-6.6751748914
  0
LINE
  5
271
100
AcDbEntity
  8
RACCORDO
100
AcDbLine
 62
250
  6
CONTINUOUS
 10
2.5185758689
 20
-6.1685758689
 11
-2.5185758689
 21
-6.1685758689
  0
LINE
  5
272
100
AcDbEntity
  8
DRAFT
100
AcDbLine
 62
7
  6
CONTINUOUS
 10
2.5
 20
-6.15
 11
-2.5
 21
-6.15
  0
LINE
  5
273
100
AcDbEntity
  8
RACCORDO
100
AcDbLine
 62
250
  6
CONTINUOUS
 10
4.1687823107
 20
-5.3241065396
 11
3.0187823812
 21
-5.3241065396
  0
LINE
  5
274
100
AcDbEntity
  8
RACCORDO
100
AcDbLine
 62
250
  6
CONTINUOUS
 10
-3.0187823798
 20
-5.3241065396
 11
-4.1687823812
 21
-5.3241065396
  0
LINE
  5
275
100
AcDbEntity
  8
RACCORDO
100
AcDbLine
 62
250
  6
CONTINUOUS
 10
-4.1687823812
 20
-5.3241065396
 11
-4.1690349676
 21
-3.7227578234
  0
LINE
  5
276
100
AcDbEntity
  8
RACCORDO
100
AcDbLine
 62
250
  6
CONTINUOUS
 10
-3.6689470909
 20
-4.8189470909
 11
-3.6691717022
 21
-3.2191717022
  0
LINE
  5
277
100
AcDbEntity
  8
DRAFT
100
AcDbLine
 62
7
  6
CONTINUOUS
 10
-3.65
 20
-4.8
 11
-3.65
 21
-3.2
  0
LINE
  5
278
100
AcDbEntity
  8
0
100
AcDbLine
 62
250
  6
CONTINUOUS
 10
-11.15
 20
-21.8997711479
 11
-11.0087219643
 21
-21.4755923698
  0
LINE
  5
279
100
AcDbEntity
  8
RACCORDO
100
AcDbLine
 62
250
  6
CONTINUOUS
 10
3.6688585854
 20
-4.8188585854
 11
2.5188585854
 21
-4.8188585854
  0
LINE
  5
27A
100
AcDbEntity
  8
RACCORDO
100
AcDbLine
 62
250
  6
CONTINUOUS
 10
-2.5188585854
 20
-4.8188585854
 11
-3.6688585854
 21
-4.8188585854
  0
LINE
  5
27B
100
AcDbEntity
  8
DRAFT
100
AcDbLine
 62
7
  6
CONTINUOUS
 10
3.65
 20
-4.8
 11
2.5
 21
-4.8
  0
LINE
  5
27C
100
AcDbEntity
  8
DRAFT
100
AcDbLine
 62
7
  6
CONTINUOUS
 10
-2.5
 20
-4.8
 11
-3.65
 21
-4.8
  0
LINE
  5
27D
100
AcDbEntity
  8
RACCORDO
100
AcDbLine
 62
250
  6
CONTINUOUS
 10
6.9690349429
 20
-3.7227578234
 11
4.1690349754
 21
-3.7227578234
  0
LINE
  5
27E
100
AcDbEntity
  8
RACCORDO
100
AcDbLine
 62
250
  6
CONTINUOUS
 10
-4.1690349676
 20
-3.7227578234
 11
-6.9690349754
 21
-3.7227578234
  0
LINE
  5
27F
100
AcDbEntity
  8
0
100
AcDbLine
 62
250
  6
CONTINUOUS
 10
-11.0087219643
 20
21.4755923698
 11
-11.15
 21
21.8997711479
  0
LINE
  5
280
100
AcDbEntity
  8
RACCORDO
100
AcDbLine
 62
250
  6
CONTINUOUS
 10
-3.0184997047
 20
-6.6751748914
 11
-3.0187823798
 21
-5.3241065396
  0
LINE
  5
281
100
AcDbEntity
  8
RACCORDO
100
AcDbLine
 62
250
  6
CONTINUOUS
 10
-2.5186879693
 20
-6.1687292454
 11
-2.518947028
 21
-4.818947028
  0
LINE
  5
282
100
AcDbEntity
  8
DRAFT
100
AcDbLine
 62
7
  6
CONTINUOUS
 10
-3.0
 20
-23.5
 11
-3.0
 21
-22.4
  0
LINE
  5
283
100
AcDbEntity
  8
DRAFT
100
AcDbLine
 62
7
  6
CONTINUOUS
 10
-3.0
 20
22.4
 11
-3.0
 21
23.5
  0
LINE
  5
284
100
AcDbEntity
  8
DRAFT
100
AcDbLine
 62
7
  6
CONTINUOUS
 10
-2.7812783412
 20
-23.4563623377
 11
-2.7812783412
 21
-22.5310194482
  0
LINE
  5
285
100
AcDbEntity
  8
DRAFT
100
AcDbLine
 62
7
  6
CONTINUOUS
 10
-2.7812783412
 20
22.5310194482
 11
-2.7812783412
 21
23.4563623377
  0
LINE
  5
286
100
AcDbEntity
  8
DRAFT
100
AcDbLine
 62
7
  6
CONTINUOUS
 10
-2.5
 20
-6.15
 11
-2.5
 21
-4.8
  0
LINE
  5
287
100
AcDbEntity
  8
0
100
AcDbLine
 62
250
  6
CONTINUOUS
 10
-10.6503805997
 20
-22.4
 11
-10.5087981167
 21
-21.9749071372
  0
LWPOLYLINE
  5
288
100
AcDbEntity
  8
RACCORDO
100
AcDbPolyline
 62
7
  6
CONTINUOUS
 90
7
 70
0
 10
-6.5627996074
 20
-3.3149905822
 10
-6.521809462
 20
-3.2732836335
 10
-6.5044487038
 20
-3.2559577782
 10
-6.4903823883
 20
-3.2413415168
 10
-6.4799975555
 20
-3.229931397
 10
-6.4729071654
 20
-3.2223392149
 10
-6.469111218
 20
-3.219111218
  0
LWPOLYLINE
  5
289
100
AcDbEntity
  8
RACCORDO
100
AcDbPolyline
 62
7
  6
CONTINUOUS
 90
3
 70
0
 10
-6.6377120117
 20
-3.390467511
 10
-6.5864289946
 20
-3.3386226858
 10
-6.5627996074
 20
-3.3149905822
  0
LINE
  5
28A
100
AcDbEntity
  8
RACCORDO
100
AcDbLine
 62
7
  6
CONTINUOUS
 10
-6.45
 20
-3.2
 11
-6.4691717389
 21
-3.2191717389
  0
LINE
  5
28B
100
AcDbEntity
  8
RACCORDO
100
AcDbLine
 62
7
  6
CONTINUOUS
 10
-6.9383622501
 20
-3.6922878919
 11
-6.6377120117
 21
-3.390467511
  0
LINE
  5
28C
100
AcDbEntity
  8
RACCORDO
100
AcDbLine
 62
7
  6
CONTINUOUS
 10
-6.9690350738
 20
-3.7227578234
 11
-6.9383622501
 21
-3.6922878919
  0
LINE
  5
28D
100
AcDbEntity
  8
RACCORDO
100
AcDbLine
 62
250
  6
CONTINUOUS
 10
6.469111218
 20
-3.219111218
 11
3.669111218
 21
-3.219111218
  0
LINE
  5
28E
100
AcDbEntity
  8
RACCORDO
100
AcDbLine
 62
250
  6
CONTINUOUS
 10
-3.669111218
 20
-3.219111218
 11
-6.469111218
 21
-3.219111218
  0
LINE
  5
28F
100
AcDbEntity
  8
DRAFT
100
AcDbLine
 62
7
  6
CONTINUOUS
 10
6.45
 20
-3.2
 11
3.65
 21
-3.2
  0
LINE
  5
290
100
AcDbEntity
  8
DRAFT
100
AcDbLine
 62
7
  6
CONTINUOUS
 10
-3.65
 20
-3.2
 11
-6.45
 21
-3.2
  0
LWPOLYLINE
  5
291
100
AcDbEntity
  8
RACCORDO
100
AcDbPolyline
 62
7
  6
CONTINUOUS
 90
6
 70
0
 10
2.5186879799
 20
-6.1687292626
 10
2.5226470111
 20
-6.1724842935
 10
2.5298759544
 20
-6.1804682547
 10
2.5403748098
 20
-6.1921853641
 10
2.5545327076
 20
-6.2070927452
 10
2.5719605175
 20
-6.2247252112
  0
LINE
  5
292
100
AcDbEntity
  8
RACCORDO
100
AcDbLine
 62
7
  6
CONTINUOUS
 10
2.9877757395
 20
-6.6446446416
 11
3.0184997183
 21
-6.6751748914
  0
LINE
  5
293
100
AcDbEntity
  8
RACCORDO
100
AcDbLine
 62
7
  6
CONTINUOUS
 10
3.0187824391
 20
-5.3241065396
 11
2.9881357665
 21
-5.2936593264
  0
LINE
  5
294
100
AcDbEntity
  8
RACCORDO
100
AcDbLine
 62
7
  6
CONTINUOUS
 10
2.5
 20
-6.15
 11
2.5185758689
 21
-6.1685758689
  0
LINE
  5
295
100
AcDbEntity
  8
RACCORDO
100
AcDbLine
 62
7
  6
CONTINUOUS
 10
2.5
 20
-4.8
 11
2.5189470899
 21
-4.8189470899
  0
LWPOLYLINE
  5
296
100
AcDbEntity
  8
RACCORDO
100
AcDbPolyline
 62
7
  6
CONTINUOUS
 90
3
 70
0
 10
2.6358925369
 20
-4.9391010698
 10
2.6122517898
 20
-4.9153599448
 10
2.5712842302
 20
-4.8734663066
  0
LWPOLYLINE
  5
297
100
AcDbEntity
  8
RACCORDO
100
AcDbPolyline
 62
7
  6
CONTINUOUS
 90
6
 70
0
 10
2.5712842302
 20
-4.8734663066
 10
2.5539574178
 20
-4.8560583532
 10
2.5399356851
 20
-4.8413359446
 10
2.5296049054
 20
-4.8298102945
 10
2.5225792055
 20
-4.8221272817
 10
2.5188585854
 20
-4.8188585854
  0
LINE
  5
298
100
AcDbEntity
  8
RACCORDO
100
AcDbLine
 62
7
  6
CONTINUOUS
 10
2.7728626702
 20
-6.4286219731
 11
2.9877757395
 21
-6.6446446416
  0
LINE
  5
299
100
AcDbEntity
  8
RACCORDO
100
AcDbLine
 62
7
  6
CONTINUOUS
 10
2.9881357665
 20
-5.2936593264
 11
2.6872258872
 21
-4.9911692551
  0
LINE
  5
29A
100
AcDbEntity
  8
RACCORDO
100
AcDbLine
 62
7
  6
CONTINUOUS
 10
2.6877455806
 20
-6.3427040178
 11
2.7728626702
 21
-6.4286219731
  0
LINE
  5
29B
100
AcDbEntity
  8
RACCORDO
100
AcDbLine
 62
7
  6
CONTINUOUS
 10
2.6872258872
 20
-4.9911692551
 11
2.6358925369
 21
-4.9391010698
  0
LWPOLYLINE
  5
29C
100
AcDbEntity
  8
RACCORDO
100
AcDbPolyline
 62
7
  6
CONTINUOUS
 90
3
 70
0
 10
2.6129864498
 20
-6.2668957798
 10
2.6615295833
 20
-6.3160267961
 10
2.6877455806
 20
-6.3427040178
  0
LINE
  5
29D
100
AcDbEntity
  8
RACCORDO
100
AcDbLine
 62
7
  6
CONTINUOUS
 10
2.5719605175
 20
-6.2247252112
 11
2.6129864498
 21
-6.2668957798
  0
LINE
  5
29E
100
AcDbEntity
  8
RACCORDO
100
AcDbLine
 62
7
  6
CONTINUOUS
 10
2.5186879746
 20
-6.168729254
 11
2.5185758689
 21
-6.1685758689
  0
LINE
  5
29F
100
AcDbEntity
  8
0
100
AcDbLine
 62
250
  6
CONTINUOUS
 10
-10.5087981167
 20
21.9749071372
 11
-10.6503805997
 21
22.4
  0
LWPOLYLINE
  5
2A0
100
AcDbEntity
  8
RACCORDO
100
AcDbPolyline
 62
7
  6
CONTINUOUS
 90
7
 70
0
 10
-3.7630671189
 20
-3.3152666215
 10
-3.7220790922
 20
-3.2735611128
 10
-3.7046703903
 20
-3.2561960473
 10
-3.6905507814
 20
-3.2415138332
 10
-3.6801151672
 20
-3.2300262179
 10
-3.672968646
 20
-3.222369307
 10
-3.669111218
 20
-3.219111218
  0
LWPOLYLINE
  5
2A1
100
AcDbEntity
  8
RACCORDO
100
AcDbPolyline
 62
7
  6
CONTINUOUS
 90
3
 70
0
 10
-3.8377682626
 20
-3.3905253332
 10
-3.7866464436
 20
-3.3388459209
 10
-3.7630671189
 20
-3.3152666215
  0
LINE
  5
2A2
100
AcDbEntity
  8
RACCORDO
100
AcDbLine
 62
7
  6
CONTINUOUS
 10
-3.65
 20
-3.2
 11
-3.669111218
 21
-3.219111218
  0
LINE
  5
2A3
100
AcDbEntity
  8
RACCORDO
100
AcDbLine
 62
7
  6
CONTINUOUS
 10
-4.1381646994
 20
-3.6920898925
 11
-3.8377682626
 21
-3.3905253332
  0
LINE
  5
2A4
100
AcDbEntity
  8
RACCORDO
100
AcDbLine
 62
7
  6
CONTINUOUS
 10
-4.1690350738
 20
-3.7227578234
 11
-4.1381646994
 21
-3.6920898925
  0
LWPOLYLINE
  5
2A5
100
AcDbEntity
  8
0
100
AcDbPolyline
 62
7
  6
CONTINUOUS
 90
2
 70
0
 43
0.3500000006
 10
18.3999999504
 20
-1.3571429443
 10
16.8999994926
 20
-1.3571429443
  0
LWPOLYLINE
  5
2A6
100
AcDbEntity
  8
0
100
AcDbPolyline
 62
7
  6
CONTINUOUS
 90
4
 70
0
 43
0.3500000006
 10
16.0428570213
 20
-0.0000003204
 10
15.4000001678
 20
-0.0000003204
 10
15.4000001678
 20
1.5000001373
 10
18.3999999504
 20
0.642857666
  0
LINE
  5
2A7
100
AcDbEntity
  8
RACCORDO
100
AcDbLine
 62
7
  6
CONTINUOUS
 10
-6.9688008488
 20
5.2240248673
 11
-6.9378696687
 21
5.193292668
  0
LINE
  5
2A8
100
AcDbEntity
  8
RACCORDO
100
AcDbLine
 62
7
  6
CONTINUOUS
 10
4.1687824391
 20
-5.3241065396
 11
4.1378472106
 21
-5.2933700535
  0
LINE
  5
2A9
100
AcDbEntity
  8
RACCORDO
100
AcDbLine
 62
7
  6
CONTINUOUS
 10
-6.45
 20
4.7
 11
-6.4688769949
 21
4.7188769949
  0
LINE
  5
2AA
100
AcDbEntity
  8
RACCORDO
100
AcDbLine
 62
7
  6
CONTINUOUS
 10
3.65
 20
-4.8
 11
3.6688585854
 21
-4.8188585854
  0
LWPOLYLINE
  5
2AB
100
AcDbEntity
  8
RACCORDO
100
AcDbPolyline
 62
7
  6
CONTINUOUS
 90
6
 70
0
 10
-6.5217050498
 20
4.7738565147
 10
-6.5043072688
 20
4.7563975907
 10
-6.4902063965
 20
4.7415871063
 10
-6.4797996871
 20
4.7299571384
 10
-6.4726898866
 20
4.7221865243
 10
-6.4688769949
 20
4.7188769949
  0
LWPOLYLINE
  5
2AC
100
AcDbEntity
  8
RACCORDO
100
AcDbPolyline
 62
7
  6
CONTINUOUS
 90
3
 70
0
 10
-6.5862398544
 20
4.8393943603
 10
-6.5626713427
 20
4.815736021
 10
-6.5217050498
 20
4.7738565147
  0
LWPOLYLINE
  5
2AD
100
AcDbEntity
  8
RACCORDO
100
AcDbPolyline
 62
7
  6
CONTINUOUS
 90
6
 70
0
 10
3.7216773158
 20
-4.8738734816
 10
3.7042802684
 20
-4.8564083034
 10
3.6901806487
 20
-4.8415892574
 10
3.6797758665
 20
-4.8299497753
 10
3.6726685121
 20
-4.822171556
 10
3.6688585854
 20
-4.8188585854
  0
LWPOLYLINE
  5
2AE
100
AcDbEntity
  8
RACCORDO
100
AcDbPolyline
 62
7
  6
CONTINUOUS
 90
3
 70
0
 10
3.7862099431
 20
-4.9394281849
 10
3.7626421532
 20
-4.9157645805
 10
3.7216773158
 20
-4.8738734816
  0
LINE
  5
2AF
100
AcDbEntity
  8
RACCORDO
100
AcDbLine
 62
7
  6
CONTINUOUS
 10
-6.9378696687
 20
5.193292668
 11
-6.6373394343
 21
4.8912109858
  0
LINE
  5
2B0
100
AcDbEntity
  8
RACCORDO
100
AcDbLine
 62
7
  6
CONTINUOUS
 10
4.1378472106
 20
-5.2933700535
 11
3.8373080401
 21
-4.991253948
  0
LINE
  5
2B1
100
AcDbEntity
  8
RACCORDO
100
AcDbLine
 62
7
  6
CONTINUOUS
 10
-6.6373394343
 20
4.8912109858
 11
-6.5862398544
 21
4.8393943603
  0
LINE
  5
2B2
100
AcDbEntity
  8
RACCORDO
100
AcDbLine
 62
7
  6
CONTINUOUS
 10
3.8373080401
 20
-4.991253948
 11
3.7862099431
 21
-4.9394281849
  0
LINE
  5
2B3
100
AcDbEntity
  8
RACCORDO
100
AcDbLine
 62
7
  6
CONTINUOUS
 10
-2.5186879693
 20
-6.1687292454
 11
-2.5185758689
 21
-6.1685758689
  0
LWPOLYLINE
  5
2B4
100
AcDbEntity
  8
RACCORDO
100
AcDbPolyline
 62
7
  6
CONTINUOUS
 90
7
 70
0
 10
-3.7622517898
 20
-4.9153599448
 10
-3.7212842302
 20
-4.8734663066
 10
-3.7039574178
 20
-4.8560583532
 10
-3.6899356851
 20
-4.8413359446
 10
-3.6796049054
 20
-4.8298102945
 10
-3.6725792055
 20
-4.8221272817
 10
-3.6688585854
 20
-4.8188585854
  0
LWPOLYLINE
  5
2B5
100
AcDbEntity
  8
RACCORDO
100
AcDbPolyline
 62
7
  6
CONTINUOUS
 90
7
 70
0
 10
-2.6126421532
 20
-4.9157645805
 10
-2.5716773158
 20
-4.8738734816
 10
-2.5542802684
 20
-4.8564083034
 10
-2.5401806487
 20
-4.8415892574
 10
-2.5297758665
 20
-4.8299497753
 10
-2.5226685121
 20
-4.822171556
 10
-2.5188585854
 20
-4.8188585854
  0
LWPOLYLINE
  5
2B6
100
AcDbEntity
  8
RACCORDO
100
AcDbPolyline
 62
7
  6
CONTINUOUS
 90
7
 70
0
 10
6.5626713427
 20
4.815736021
 10
6.5217050498
 20
4.7738565147
 10
6.5043072688
 20
4.7563975907
 10
6.4902063965
 20
4.7415871063
 10
6.4797996871
 20
4.7299571384
 10
6.4726898866
 20
4.7221865243
 10
6.4688769949
 20
4.7188769949
  0
LWPOLYLINE
  5
2B7
100
AcDbEntity
  8
RACCORDO
100
AcDbPolyline
 62
7
  6
CONTINUOUS
 90
3
 70
0
 10
-3.8372258872
 20
-4.9911692551
 10
-3.7858925369
 20
-4.9391010698
 10
-3.7622517898
 20
-4.9153599448
  0
LWPOLYLINE
  5
2B8
100
AcDbEntity
  8
RACCORDO
100
AcDbPolyline
 62
7
  6
CONTINUOUS
 90
3
 70
0
 10
-2.6873080401
 20
-4.991253948
 10
-2.6362099431
 20
-4.9394281849
 10
-2.6126421532
 20
-4.9157645805
  0
LWPOLYLINE
  5
2B9
100
AcDbEntity
  8
RACCORDO
100
AcDbPolyline
 62
7
  6
CONTINUOUS
 90
3
 70
0
 10
6.6373394343
 20
4.8912109858
 10
6.5862398544
 20
4.8393943603
 10
6.5626713427
 20
4.815736021
  0
LINE
  5
2BA
100
AcDbEntity
  8
RACCORDO
100
AcDbLine
 62
7
  6
CONTINUOUS
 10
-4.1381357665
 20
-5.2936593264
 11
-3.8372258872
 21
-4.9911692551
  0
LINE
  5
2BB
100
AcDbEntity
  8
RACCORDO
100
AcDbLine
 62
7
  6
CONTINUOUS
 10
6.9378696687
 20
5.193292668
 11
6.6373394343
 21
4.8912109858
  0
LINE
  5
2BC
100
AcDbEntity
  8
RACCORDO
100
AcDbLine
 62
7
  6
CONTINUOUS
 10
-2.9878472106
 20
-5.2933700535
 11
-2.6873080401
 21
-4.991253948
  0
LINE
  5
2BD
100
AcDbEntity
  8
RACCORDO
100
AcDbLine
 62
7
  6
CONTINUOUS
 10
-3.65
 20
-4.8
 11
-3.6689470909
 21
-4.8189470909
  0
LINE
  5
2BE
100
AcDbEntity
  8
RACCORDO
100
AcDbLine
 62
7
  6
CONTINUOUS
 10
6.45
 20
4.7
 11
6.4689637533
 21
4.7189637533
  0
LINE
  5
2BF
100
AcDbEntity
  8
RACCORDO
100
AcDbLine
 62
7
  6
CONTINUOUS
 10
-2.5
 20
-4.8
 11
-2.5188585854
 21
-4.8188585854
  0
LINE
  5
2C0
100
AcDbEntity
  8
RACCORDO
100
AcDbLine
 62
7
  6
CONTINUOUS
 10
-4.1687824391
 20
-5.3241065396
 11
-4.1381357665
 21
-5.2936593264
  0
LINE
  5
2C1
100
AcDbEntity
  8
RACCORDO
100
AcDbLine
 62
7
  6
CONTINUOUS
 10
6.9688008488
 20
5.2240248673
 11
6.9378696687
 21
5.193292668
  0
LINE
  5
2C2
100
AcDbEntity
  8
RACCORDO
100
AcDbLine
 62
7
  6
CONTINUOUS
 10
-3.0187824391
 20
-5.3241065396
 11
-2.9878472106
 21
-5.2933700535
  0
LINE
  5
2C3
100
AcDbEntity
  8
RACCORDO
100
AcDbLine
 62
7
  6
CONTINUOUS
 10
4.1690350738
 20
-3.7227578234
 11
4.1383622501
 21
-3.6922878919
  0
LWPOLYLINE
  5
2C4
100
AcDbEntity
  8
RACCORDO
100
AcDbPolyline
 62
7
  6
CONTINUOUS
 90
6
 70
0
 10
3.721809462
 20
-3.2732836335
 10
3.7044487038
 20
-3.2559577782
 10
3.6903823883
 20
-3.2413415168
 10
3.6799975555
 20
-3.229931397
 10
3.6729071654
 20
-3.2223392149
 10
3.669111218
 20
-3.219111218
  0
LINE
  5
2C5
100
AcDbEntity
  8
RACCORDO
100
AcDbLine
 62
7
  6
CONTINUOUS
 10
3.65
 20
-3.2
 11
3.6691717357
 21
-3.2191717357
  0
LWPOLYLINE
  5
2C6
100
AcDbEntity
  8
RACCORDO
100
AcDbPolyline
 62
7
  6
CONTINUOUS
 90
3
 70
0
 10
3.7864289946
 20
-3.3386226858
 10
3.7627996074
 20
-3.3149905822
 10
3.721809462
 20
-3.2732836335
  0
LINE
  5
2C7
100
AcDbEntity
  8
RACCORDO
100
AcDbLine
 62
7
  6
CONTINUOUS
 10
4.1383622501
 20
-3.6922878919
 11
3.8377120117
 21
-3.390467511
  0
LINE
  5
2C8
100
AcDbEntity
  8
RACCORDO
100
AcDbLine
 62
7
  6
CONTINUOUS
 10
3.8377120117
 20
-3.390467511
 11
3.7864289946
 21
-3.3386226858
  0
LINE
  5
2C9
100
AcDbEntity
  8
DRAFT
100
AcDbLine
 62
7
  6
CONTINUOUS
 10
2.5
 20
-4.8
 11
2.5
 21
-6.15
  0
LINE
  5
2CA
100
AcDbEntity
  8
DRAFT
100
AcDbLine
 62
7
  6
CONTINUOUS
 10
2.7812783412
 20
-23.4563623377
 11
2.7812783412
 21
-22.5310194482
  0
LINE
  5
2CB
100
AcDbEntity
  8
DRAFT
100
AcDbLine
 62
7
  6
CONTINUOUS
 10
2.7812783412
 20
22.5310194482
 11
2.7812783412
 21
23.4563623377
  0
LINE
  5
2CC
100
AcDbEntity
  8
DRAFT
100
AcDbLine
 62
7
  6
CONTINUOUS
 10
3.0
 20
-23.5
 11
3.0
 21
-22.4
  0
LINE
  5
2CD
100
AcDbEntity
  8
DRAFT
100
AcDbLine
 62
7
  6
CONTINUOUS
 10
3.0
 20
22.4
 11
3.0
 21
23.5
  0
LINE
  5
2CE
100
AcDbEntity
  8
DRAFT
100
AcDbLine
 62
7
  6
CONTINUOUS
 10
3.65
 20
-3.2
 11
3.65
 21
-4.8
  0
LINE
  5
2CF
100
AcDbEntity
  8
RACCORDO
100
AcDbLine
 62
250
  6
CONTINUOUS
 10
2.5189470899
 20
-4.8189470899
 11
2.5186879746
 21
-6.168729254
  0
LINE
  5
2D0
100
AcDbEntity
  8
RACCORDO
100
AcDbLine
 62
250
  6
CONTINUOUS
 10
3.0187823812
 20
-5.3241065396
 11
3.018499632
 21
-6.6751748914
  0
LINE
  5
2D1
100
AcDbEntity
  8
RACCORDO
100
AcDbLine
 62
250
  6
CONTINUOUS
 10
3.6691717357
 20
-3.2191717357
 11
3.6689470884
 21
-4.8189470884
  0
LINE
  5
2D2
100
AcDbEntity
  8
0
100
AcDbLine
 62
250
  6
CONTINUOUS
 10
10.5087981167
 20
21.9749071372
 11
10.6503805997
 21
22.4
  0
LINE
  5
2D3
100
AcDbEntity
  8
0
100
AcDbLine
 62
250
  6
CONTINUOUS
 10
11.0087219643
 20
21.4755923698
 11
11.15
 21
21.8997711479
  0
LWPOLYLINE
  5
2D4
100
AcDbEntity
  8
RACCORDO
100
AcDbPolyline
 62
7
  6
CONTINUOUS
 90
3
 70
0
 10
-2.6129864484
 20
-6.2668957784
 10
-2.636584571
 20
-6.2906738551
 10
-2.6877455803
 20
-6.3427040175
  0
LINE
  5
2D5
100
AcDbEntity
  8
RACCORDO
100
AcDbLine
 62
7
  6
CONTINUOUS
 10
-2.6877455803
 20
-6.3427040175
 11
-2.8639646166
 21
-6.520285068
  0
LINE
  5
2D6
100
AcDbEntity
  8
RACCORDO
100
AcDbLine
 62
7
  6
CONTINUOUS
 10
-2.8639646166
 20
-6.520285068
 11
-2.9877757405
 21
-6.6446446426
  0
LINE
  5
2D7
100
AcDbEntity
  8
RACCORDO
100
AcDbLine
 62
7
  6
CONTINUOUS
 10
-2.5
 20
-6.15
 11
-2.5185758689
 21
-6.1685758689
  0
LINE
  5
2D8
100
AcDbEntity
  8
RACCORDO
100
AcDbLine
 62
7
  6
CONTINUOUS
 10
-2.9877757405
 20
-6.6446446426
 11
-3.0184997183
 21
-6.6751748914
  0
LWPOLYLINE
  5
2D9
100
AcDbEntity
  8
RACCORDO
100
AcDbPolyline
 62
7
  6
CONTINUOUS
 90
7
 70
0
 10
-2.5186879799
 20
-6.1687292626
 10
-2.5226470108
 20
-6.1724842933
 10
-2.5298759538
 20
-6.1804682542
 10
-2.540374809
 20
-6.1921853632
 10
-2.5545327065
 20
-6.2070927439
 10
-2.5719605162
 20
-6.2247252098
 10
-2.6129864484
 20
-6.2668957784
  0
LINE
  5
2DA
100
AcDbEntity
  8
RACCORDO
100
AcDbLine
 62
7
  6
CONTINUOUS
 10
6.9690350738
 20
-3.7227578234
 11
6.9381646994
 21
-3.6920898925
  0
LWPOLYLINE
  5
2DB
100
AcDbEntity
  8
RACCORDO
100
AcDbPolyline
 62
7
  6
CONTINUOUS
 90
6
 70
0
 10
6.5220790922
 20
-3.2735611128
 10
6.5046703903
 20
-3.2561960473
 10
6.4905507814
 20
-3.2415138332
 10
6.4801151672
 20
-3.2300262179
 10
6.472968646
 20
-3.222369307
 10
6.469111218
 20
-3.219111218
  0
LWPOLYLINE
  5
2DC
100
AcDbEntity
  8
RACCORDO
100
AcDbPolyline
 62
7
  6
CONTINUOUS
 90
3
 70
0
 10
6.5866464436
 20
-3.3388459209
 10
6.5630671189
 20
-3.3152666215
 10
6.5220790922
 20
-3.2735611128
  0
LINE
  5
2DD
100
AcDbEntity
  8
RACCORDO
100
AcDbLine
 62
7
  6
CONTINUOUS
 10
6.45
 20
-3.2
 11
6.469111218
 21
-3.219111218
  0
LINE
  5
2DE
100
AcDbEntity
  8
RACCORDO
100
AcDbLine
 62
7
  6
CONTINUOUS
 10
6.9381646994
 20
-3.6920898925
 11
6.6377682626
 21
-3.3905253332
  0
LINE
  5
2DF
100
AcDbEntity
  8
RACCORDO
100
AcDbLine
 62
7
  6
CONTINUOUS
 10
6.6377682626
 20
-3.3905253332
 11
6.5866464436
 21
-3.3388459209
  0
LINE
  5
2E0
100
AcDbEntity
  8
0
100
AcDbLine
 62
250
  6
CONTINUOUS
 10
10.6503805997
 20
-22.4
 11
10.5087981167
 21
-21.9749071372
  0
LINE
  5
2E1
100
AcDbEntity
  8
0
100
AcDbLine
 62
250
  6
CONTINUOUS
 10
11.15
 20
-21.8997711479
 11
11.0087219643
 21
-21.4755923698
  0
LINE
  5
2E2
100
AcDbEntity
  8
RACCORDO
100
AcDbLine
 62
250
  6
CONTINUOUS
 10
4.1690349754
 20
-3.7227578234
 11
4.1687823107
 21
-5.3241065396
  0
LINE
  5
2E3
100
AcDbEntity
  8
DRAFT
100
AcDbLine
 62
7
  6
CONTINUOUS
 10
-6.45
 20
4.7
 11
6.45
 21
4.7
  0
LINE
  5
2E4
100
AcDbEntity
  8
RACCORDO
100
AcDbLine
 62
250
  6
CONTINUOUS
 10
-6.4688769949
 20
4.7188769949
 11
6.4688769949
 21
4.7188769949
  0
LINE
  5
2E5
100
AcDbEntity
  8
RACCORDO
100
AcDbLine
 62
250
  6
CONTINUOUS
 10
-6.9688007254
 20
5.2240248673
 11
6.9688007876
 21
5.2240248673
  0
LINE
  5
2E6
100
AcDbEntity
  8
DRAFT
100
AcDbLine
 62
7
  6
CONTINUOUS
 10
6.45
 20
4.7
 11
6.45
 21
-3.2
  0
LINE
  5
2E7
100
AcDbEntity
  8
RACCORDO
100
AcDbLine
 62
250
  6
CONTINUOUS
 10
6.4689637533
 20
4.7189637533
 11
6.469171751
 21
-3.219171751
  0
LINE
  5
2E8
100
AcDbEntity
  8
RACCORDO
100
AcDbLine
 62
250
  6
CONTINUOUS
 10
6.9688007876
 20
5.2240248673
 11
6.9690349429
 21
-3.7227578234
  0
LWPOLYLINE
  5
2E9
100
AcDbEntity
  8
0
100
AcDbPolyline
 62
250
  6
CONTINUOUS
 90
7
 70
0
 10
11.0087219643
 20
-21.4755923698
 10
11.0080031927
 20
-21.4716789126
 10
11.0073010341
 20
-21.4645568007
 10
11.0066154888
 20
-21.4542260342
 10
11.0059419622
 20
-21.4405716186
 10
11.0052850488
 20
-21.4237085484
 10
11.0046585314
 20
-21.403981807
  0
LWPOLYLINE
  5
2EA
100
AcDbEntity
  8
0
100
AcDbPolyline
 62
250
  6
CONTINUOUS
 90
5
 70
0
 10
10.5087981167
 20
-21.9749071372
 10
10.5080778549
 20
-21.9672631277
 10
10.5073747357
 20
-21.9529558612
 10
10.5066887591
 20
-21.9320798744
 10
10.5060155151
 20
-21.9047715709
  0
LWPOLYLINE
  5
2EB
100
AcDbEntity
  8
0
100
AcDbPolyline
 62
250
  6
CONTINUOUS
 90
3
 70
0
 10
11.0046585314
 20
-21.403981807
 10
11.0034984168
 20
-21.3558303735
 10
11.0029751375
 20
-21.3279645393
  0
LINE
  5
2EC
100
AcDbEntity
  8
0
100
AcDbLine
 62
250
  6
CONTINUOUS
 10
10.5060155151
 20
-21.9047715709
 11
10.5047336849
 21
-21.8316424864
  0
LINE
  5
2ED
100
AcDbEntity
  8
0
100
AcDbLine
 62
250
  6
CONTINUOUS
 10
10.5047336849
 20
-21.8316424864
 11
10.5030519635
 21
-21.6797292088
  0
LINE
  5
2EE
100
AcDbEntity
  8
0
100
AcDbLine
 62
250
  6
CONTINUOUS
 10
10.5030519635
 20
-21.6797292088
 11
10.5011186198
 21
-21.3380251343
  0
LINE
  5
2EF
100
AcDbEntity
  8
0
100
AcDbLine
 62
250
  6
CONTINUOUS
 10
10.5011186198
 20
-21.3380251343
 11
10.495206984
 21
-11.6792204147
  0
LINE
  5
2F0
100
AcDbEntity
  8
0
100
AcDbLine
 62
250
  6
CONTINUOUS
 10
10.495206984
 20
-11.6792204147
 11
10.4929235217
 21
-2.3360479955
  0
LINE
  5
2F1
100
AcDbEntity
  8
0
100
AcDbLine
 62
250
  6
CONTINUOUS
 10
10.4929235217
 20
-2.3360479955
 11
10.4936846757
 21
7.0079400882
  0
LINE
  5
2F2
100
AcDbEntity
  8
0
100
AcDbLine
 62
250
  6
CONTINUOUS
 10
10.4936846757
 20
7.0079400882
 11
10.4974904462
 21
16.3494810544
  0
LINE
  5
2F3
100
AcDbEntity
  8
0
100
AcDbLine
 62
250
  6
CONTINUOUS
 10
10.4974904462
 20
16.3494810544
 11
10.5017438025
 21
21.4854407064
  0
LINE
  5
2F4
100
AcDbEntity
  8
0
100
AcDbLine
 62
250
  6
CONTINUOUS
 10
10.5017438025
 20
21.4854407064
 11
10.503574742
 21
21.7355821182
  0
LINE
  5
2F5
100
AcDbEntity
  8
0
100
AcDbLine
 62
250
  6
CONTINUOUS
 10
10.503574742
 20
21.7355821182
 11
10.5047336849
 21
21.8316424864
  0
LWPOLYLINE
  5
2F6
100
AcDbEntity
  8
0
100
AcDbPolyline
 62
250
  6
CONTINUOUS
 90
6
 70
0
 10
10.5047336849
 20
21.8316424864
 10
10.5060155151
 20
21.9047715709
 10
10.5066887591
 20
21.9320798744
 10
10.5073747357
 20
21.9529558612
 10
10.5080778549
 20
21.9672631277
 10
10.5087981167
 20
21.9749071372
  0
LWPOLYLINE
  5
2F7
100
AcDbEntity
  8
0
100
AcDbPolyline
 62
250
  6
CONTINUOUS
 90
9
 70
0
 10
11.0029751375
 20
21.3279645393
 10
11.0040632761
 20
21.3813379257
 10
11.0046585314
 20
21.4039818068
 10
11.0052850488
 20
21.4237085483
 10
11.0059419622
 20
21.4405716188
 10
11.0066154888
 20
21.4542260345
 10
11.0073010341
 20
21.464556801
 10
11.0080031927
 20
21.4716789127
 10
11.0087219643
 20
21.4755923698
  0
LINE
  5
2F8
100
AcDbEntity
  8
0
100
AcDbLine
 62
250
  6
CONTINUOUS
 10
11.0029751375
 20
-21.3279645393
 11
11.0020549485
 21
-21.2650621527
  0
LINE
  5
2F9
100
AcDbEntity
  8
0
100
AcDbLine
 62
250
  6
CONTINUOUS
 10
11.0020549485
 20
-21.2650621527
 11
11.0010408709
 21
-21.1568159642
  0
LINE
  5
2FA
100
AcDbEntity
  8
0
100
AcDbLine
 62
250
  6
CONTINUOUS
 10
11.0010408709
 20
-21.1568159642
 11
11.0005196528
 21
-21.0384725278
  0
LINE
  5
2FB
100
AcDbEntity
  8
0
100
AcDbLine
 62
250
  6
CONTINUOUS
 10
11.0005196528
 20
-21.0384725278
 11
10.9951308352
 21
-11.6670185434
  0
LINE
  5
2FC
100
AcDbEntity
  8
0
100
AcDbLine
 62
250
  6
CONTINUOUS
 10
10.9951308352
 20
-11.6670185434
 11
10.9928473752
 21
-2.3338547134
  0
LINE
  5
2FD
100
AcDbEntity
  8
0
100
AcDbLine
 62
7
  6
CONTINUOUS
 10
11.15
 20
21.8997711479
 11
11.15
 21
-21.8997711479
  0
LINE
  5
2FE
100
AcDbEntity
  8
0
100
AcDbLine
 62
250
  6
CONTINUOUS
 10
10.9928473752
 20
-2.3338547134
 11
10.9936085296
 21
7.0009579653
  0
LINE
  5
2FF
100
AcDbEntity
  8
0
100
AcDbLine
 62
250
  6
CONTINUOUS
 10
10.9936085296
 20
7.0009579653
 11
10.9974142967
 21
16.3324690607
  0
LINE
  5
300
100
AcDbEntity
  8
0
100
AcDbLine
 62
250
  6
CONTINUOUS
 10
10.9974142967
 20
16.3324690607
 11
11.0008096574
 21
21.1180991804
  0
LINE
  5
301
100
AcDbEntity
  8
0
100
AcDbLine
 62
250
  6
CONTINUOUS
 10
11.0008096574
 20
21.1180991804
 11
11.0016659628
 21
21.2307227352
  0
LWPOLYLINE
  5
302
100
AcDbEntity
  8
0
100
AcDbPolyline
 62
250
  6
CONTINUOUS
 90
3
 70
0
 10
11.0016659628
 20
21.2307227352
 10
11.002494253
 20
21.297692487
 10
11.0029751375
 20
21.3279645393
  0
LWPOLYLINE
  5
303
100
AcDbEntity
  8
0
100
AcDbPolyline
 62
7
  6
CONTINUOUS
 90
10
 70
0
 43
0.3500000006
 10
1.0714285848
 20
32.7500006104
 10
1.1428571477
 20
32.6071427765
 10
1.1428571477
 20
32.5357161255
 10
1.0000000219
 20
32.3928582916
 10
0.9285714591
 20
32.3928582916
 10
0.8571428254
 20
32.4642849426
 10
0.8571428254
 20
32.5357161255
 10
0.9285714591
 20
32.6785694275
 10
1.0000000219
 20
32.7500006104
 10
1.0714285848
 20
32.7500006104
  0
LWPOLYLINE
  5
304
100
AcDbEntity
  8
0
100
AcDbPolyline
 62
7
  6
CONTINUOUS
 90
3
 70
0
 43
0.3500000006
 10
17.7571430969
 20
-0.8571427917
 10
17.7571430969
 20
-2.3571432495
 10
15.4000001678
 20
-1.7142852631
  0
LINE
  5
305
100
AcDbEntity
  8
DRAFT
100
AcDbLine
 62
7
  6
CONTINUOUS
 10
2.7812783412
 20
-22.5310194482
 11
3.0
 21
-22.4
  0
LINE
  5
306
100
AcDbEntity
  8
0
100
AcDbLine
 62
250
  6
CONTINUOUS
 10
-10.5005350625
 20
21.0183142309
 11
10.5005350625
 21
21.0183142309
  0
LINE
  5
307
100
AcDbEntity
  8
DRAFT
100
AcDbLine
 62
7
  6
CONTINUOUS
 10
3.0
 20
22.4
 11
2.7812783412
 21
22.5310194482
  0
LINE
  5
308
100
AcDbEntity
  8
DRAFT
100
AcDbLine
 62
7
  6
CONTINUOUS
 10
3.0
 20
23.5
 11
2.7812783412
 21
23.4563623377
  0
LINE
  5
309
100
AcDbEntity
  8
0
100
AcDbLine
 62
250
  6
CONTINUOUS
 10
-10.5087981167
 20
21.9749071372
 11
10.5087981167
 21
21.9749071372
  0
LINE
  5
30A
100
AcDbEntity
  8
DRAFT
100
AcDbLine
 62
7
  6
CONTINUOUS
 10
-10.6503805997
 20
22.4
 11
-3.0
 21
22.4
  0
LINE
  5
30B
100
AcDbEntity
  8
DRAFT
100
AcDbLine
 62
7
  6
CONTINUOUS
 10
3.0
 20
22.4
 11
10.6503805997
 21
22.4
  0
LINE
  5
30C
100
AcDbEntity
  8
DRAFT
100
AcDbLine
 62
7
  6
CONTINUOUS
 10
2.7812783412
 20
22.5310194482
 11
-2.7812783412
 21
22.5310194482
  0
LWPOLYLINE
  5
30D
100
AcDbEntity
  8
0
100
AcDbPolyline
 62
250
  6
CONTINUOUS
 90
16
 70
0
 10
10.5005350626
 20
21.0183132877
 10
10.5522203681
 20
21.0181627949
 10
10.6033519099
 20
21.0177887256
 10
10.6533818551
 20
21.0171950877
 10
10.7017741735
 20
21.0163882415
 10
10.7480103807
 20
21.0153768319
 10
10.7915950934
 20
21.0141716956
 10
10.8320613367
 20
21.0127857448
 10
10.8689755479
 20
21.0112338287
 10
10.9019422211
 20
21.0095325749
 10
10.9306081453
 20
21.0077002109
 10
10.9546661883
 20
21.0057563691
 10
10.9738585879
 20
21.0037218762
 10
10.987979713
 20
21.00161853
 10
10.9968782673
 20
20.9994688662
 10
11.00045891
 20
20.9972959167
  0
LWPOLYLINE
  5
30E
100
AcDbEntity
  8
0
100
AcDbPolyline
 62
250
  6
CONTINUOUS
 90
16
 70
0
 10
10.5087981167
 20
21.9749071372
 10
10.5610241351
 20
21.9721273713
 10
10.6126786189
 20
21.9639137831
 10
10.6631962883
 20
21.9503562579
 10
10.7120243038
 20
21.9316031621
 10
10.7586283171
 20
21.90785972
 10
10.8024983178
 20
21.8793857676
 10
10.8431542153
 20
21.846492909
 10
10.8801510926
 20
21.8095411067
 10
10.9130840749
 20
21.7689347421
 10
10.9415927608
 20
21.7251181903
 10
10.9653651658
 20
21.6785709569
 10
10.9841411372
 20
21.6298024308
 10
10.9977152003
 20
21.5793463095
 10
11.0059388076
 20
21.5277547588
 10
11.0087219643
 20
21.4755923698
  0
LINE
  5
30F
100
AcDbEntity
  8
DRAFT
100
AcDbLine
 62
7
  6
CONTINUOUS
 10
-3.0
 20
23.5
 11
-2.7812783412
 21
23.4563623377
  0
LINE
  5
310
100
AcDbEntity
  8
DRAFT
100
AcDbLine
 62
7
  6
CONTINUOUS
 10
-2.7812783412
 20
23.4563623377
 11
2.7812783412
 21
23.4563623377
  0
LINE
  5
311
100
AcDbEntity
  8
DRAFT
100
AcDbLine
 62
7
  6
CONTINUOUS
 10
-3.9733373476
 20
23.5
 11
-3.0
 21
23.5
  0
LINE
  5
312
100
AcDbEntity
  8
DRAFT
100
AcDbLine
 62
7
  6
CONTINUOUS
 10
3.0
 20
23.5
 11
3.9733373476
 21
23.5
  0
LWPOLYLINE
  5
313
100
AcDbEntity
  8
0
100
AcDbPolyline
 62
7
  6
CONTINUOUS
 90
7
 70
0
 43
0.3500000006
 10
-0.4285714127
 20
32.2500004578
 10
-1.9285714102
 20
32.2500004578
 10
-0.4285714127
 20
34.392858902
 10
-0.4285714127
 20
34.8214278717
 10
-0.8571428254
 20
35.2500013733
 10
-1.5000000329
 20
35.2500013733
 10
-1.9285714102
 20
34.6071433868
  0
LWPOLYLINE
  5
314
100
AcDbEntity
  8
0
100
AcDbPolyline
 62
7
  6
CONTINUOUS
 90
6
 70
0
 43
0.3500000006
 10
2.1428571696
 20
32.2500004578
 10
3.2142856836
 20
32.2500004578
 10
3.4285713015
 20
32.4642849426
 10
3.4285713015
 20
33.5357164307
 10
3.0000000658
 20
33.9642854004
 10
2.5714285469
 20
33.9642854004
  0
LWPOLYLINE
  5
315
100
AcDbEntity
  8
0
100
AcDbPolyline
 62
7
  6
CONTINUOUS
 90
7
 70
0
 43
0.3500000006
 10
-2.7857141647
 20
32.2500004578
 10
-4.2857143393
 20
32.2500004578
 10
-2.7857141647
 20
34.392858902
 10
-2.7857141647
 20
34.8214278717
 10
-3.2142856836
 20
35.2500013733
 10
-3.8571428204
 20
35.2500013733
 10
-4.2857143393
 20
34.6071433868
  0
LWPOLYLINE
  5
316
100
AcDbEntity
  8
0
100
AcDbPolyline
 62
7
  6
CONTINUOUS
 90
3
 70
0
 43
0.3500000006
 10
-34.1286789551
 20
44.3928574219
 10
-33.2715364838
 20
45.2499998932
 10
-33.2715364838
 20
42.2499989777
  0
LINE
  5
317
100
AcDbEntity
  8
DRAFT
100
AcDbLine
 62
7
  6
CONTINUOUS
 10
-29.9143928499
 20
-23.5
 11
-25.9143928499
 21
-23.4301797403
  0
LINE
  5
318
100
AcDbEntity
  8
DRAFT
100
AcDbLine
 62
7
  6
CONTINUOUS
 10
-29.9143928499
 20
-23.1799085618
 11
-25.9143928499
 21
-23.0998904748
  0
LINE
  5
319
100
AcDbEntity
  8
DRAFT
100
AcDbLine
 62
7
  6
CONTINUOUS
 10
-29.9143928499
 20
-22.663166622
 11
-27.235154563
 21
-22.6398871632
  0
LINE
  5
31A
100
AcDbEntity
  8
DRAFT
100
AcDbLine
 62
7
  6
CONTINUOUS
 10
-27.235154563
 20
-22.6398871632
 11
-25.9143928499
 21
-22.6298666026
  0
LINE
  5
31B
100
AcDbEntity
  8
0
100
AcDbLine
 62
7
  6
CONTINUOUS
 10
-23.8143928499
 20
-22.4
 11
-24.3143928499
 21
-22.4
  0
LINE
  5
31C
100
AcDbEntity
  8
0
100
AcDbLine
 62
7
  6
CONTINUOUS
 10
-29.9143928499
 20
-22.4
 11
-38.0256478699
 21
-21.9749071372
  0
LINE
  5
31D
100
AcDbEntity
  8
0
100
AcDbLine
 62
250
  6
CONTINUOUS
 10
-29.9143928499
 20
-21.8997711479
 11
-38.008206095
 21
-21.4755923698
  0
LWPOLYLINE
  5
31E
100
AcDbEntity
  8
0
100
AcDbPolyline
 62
250
  6
CONTINUOUS
 90
19
 70
0
 10
-38.008206095
 20
-21.4755923698
 10
-38.0493844947
 20
-21.4716789126
 10
-38.0896111289
 20
-21.4645568007
 10
-38.1288859977
 20
-21.4542260342
 10
-38.1674723067
 20
-21.4405716186
 10
-38.2051068503
 20
-21.4237085484
 10
-38.2410000114
 20
-21.403981807
 10
-38.2751021607
 20
-21.3813379258
 10
-38.3074629275
 20
-21.3558303735
 10
-38.3374415827
 20
-21.3279645393
 10
-38.3649914333
 20
-21.2976924869
 10
-38.3901591723
 20
-21.2650621527
 10
-38.4124441488
 20
-21.2307227351
 10
-38.4317912769
 20
-21.1946238913
 10
-38.4482556426
 20
-21.1568159642
 10
-38.4615018523
 20
-21.1180991805
 10
-38.4714181082
 20
-21.0787402824
 10
-38.4781162081
 20
-21.0384725278
 10
-38.481596152
 20
-20.9972959167
  0
LINE
  5
31F
100
AcDbEntity
  8
0
100
AcDbLine
 62
250
  6
CONTINUOUS
 10
-38.9724279732
 20
-21.0183142305
 11
-38.9697533053
 21
-21.0181637394
  0
LINE
  5
320
100
AcDbEntity
  8
0
100
AcDbLine
 62
250
  6
CONTINUOUS
 10
-38.9697533053
 20
-21.0181637394
 11
-38.481596152
 21
-20.9972959167
  0
LINE
  5
321
100
AcDbEntity
  8
DRAFT
100
AcDbLine
 62
7
  6
CONTINUOUS
 10
-25.9143928499
 20
-21.2
 11
-21.879178064
 21
-21.1647852141
  0
LINE
  5
322
100
AcDbEntity
  8
RACCORDO
100
AcDbLine
 62
7
  6
CONTINUOUS
 10
-29.9143928499
 20
-20.9
 11
-21.8304079886
 21
-20.8366629075
  0
LINE
  5
323
100
AcDbEntity
  8
DRAFT
100
AcDbLine
 62
7
  6
CONTINUOUS
 10
-25.9143928499
 20
-21.2
 11
-21.9143928499
 21
-21.2
  0
LINE
  5
324
100
AcDbEntity
  8
RACCORDO
100
AcDbLine
 62
250
  6
CONTINUOUS
 10
-21.1109023687
 20
-20.1171572875
 11
-20.9143928499
 21
-20.1171572875
  0
LWPOLYLINE
  5
325
100
AcDbEntity
  8
0
100
AcDbPolyline
 62
7
  6
CONTINUOUS
 90
10
 70
0
 43
0.3500000006
 10
-26.1643921051
 20
32.2500004578
 10
-25.3072496338
 20
33.1071429291
 10
-25.0929651489
 20
33.9642854004
 10
-25.0929651489
 20
34.8214278717
 10
-25.5215363846
 20
35.2500013733
 10
-26.1643921051
 20
35.2500013733
 10
-26.5929633408
 20
34.8214278717
 10
-26.5929633408
 20
33.9642854004
 10
-26.1643921051
 20
33.5357164307
 10
-25.2358207169
 20
33.5357164307
  0
LINE
  5
326
100
AcDbEntity
  8
RACCORDO
100
AcDbLine
 62
250
  6
CONTINUOUS
 10
-21.1109023687
 20
-19.0
 11
-20.9143928499
 21
-18.9999999999
  0
LINE
  5
327
100
AcDbEntity
  8
RACCORDO
100
AcDbLine
 62
250
  6
CONTINUOUS
 10
-21.4109023687
 20
-18.7
 11
-25.6692836757
 21
-18.7
  0
LINE
  5
328
100
AcDbEntity
  8
RACCORDO
100
AcDbLine
 62
7
  6
CONTINUOUS
 10
-21.4143928499
 20
-18.5
 11
-25.6464436575
 21
-18.5
  0
LINE
  5
329
100
AcDbEntity
  8
RACCORDO
100
AcDbLine
 62
250
  6
CONTINUOUS
 10
-25.6692836757
 20
-18.7
 11
-29.9143928499
 21
-17.562526425
  0
LINE
  5
32A
100
AcDbEntity
  8
RACCORDO
100
AcDbLine
 62
7
  6
CONTINUOUS
 10
-25.6464436575
 20
-18.5
 11
-29.9143928499
 21
-17.3564064606
  0
LWPOLYLINE
  5
32B
100
AcDbEntity
  8
0
100
AcDbPolyline
 62
250
  6
CONTINUOUS
 90
8
 70
0
 10
-38.0256478699
 20
21.9749071372
 10
-38.026413798
 20
21.9721273713
 10
-38.026884975
 20
21.9639137831
 10
-38.0270562448
 20
21.9503562579
 10
-38.0269257329
 20
21.9316031621
 10
-38.0264948676
 20
21.90785972
 10
-38.0257683644
 20
21.8793857676
 10
-38.0234633946
 20
21.8095411067
  0
LWPOLYLINE
  5
32C
100
AcDbEntity
  8
0
100
AcDbPolyline
 62
250
  6
CONTINUOUS
 90
7
 70
0
 10
-38.0256478699
 20
-21.9749071372
 10
-38.0264137978
 20
-21.97212728
 10
-38.0268849654
 20
-21.9639134406
 10
-38.0270562178
 20
-21.9503555394
 10
-38.026925682
 20
-21.931601975
 10
-38.0264947885
 20
-21.9078580123
 10
-38.025768256
 20
-21.8793835478
  0
LWPOLYLINE
  5
32D
100
AcDbEntity
  8
0
100
AcDbPolyline
 62
7
  6
CONTINUOUS
 90
3
 70
0
 43
0.3500000006
 10
-29.34296418
 20
42.5357146454
 10
-29.4143930969
 20
42.3214301605
 10
-29.5572509308
 20
42.0357144928
  0
LWPOLYLINE
  5
32E
100
AcDbEntity
  8
0
100
AcDbPolyline
 62
250
  6
CONTINUOUS
 90
19
 70
0
 10
-38.481596152
 20
20.9972959167
 10
-38.4781162079
 20
21.0384725278
 10
-38.471418108
 20
21.0787402824
 10
-38.4615018521
 20
21.1180991804
 10
-38.4482556425
 20
21.1568159641
 10
-38.431791277
 20
21.1946238914
 10
-38.412444149
 20
21.2307227352
 10
-38.3901591725
 20
21.2650621528
 10
-38.3649914334
 20
21.297692487
 10
-38.3374415827
 20
21.3279645393
 10
-38.3074629275
 20
21.3558303734
 10
-38.2751021606
 20
21.3813379257
 10
-38.2410000113
 20
21.4039818068
 10
-38.2051068502
 20
21.4237085483
 10
-38.1674723067
 20
21.4405716188
 10
-38.1288859978
 20
21.4542260345
 10
-38.089611129
 20
21.464556801
 10
-38.0493844947
 20
21.4716789127
 10
-38.008206095
 20
21.4755923698
  0
LWPOLYLINE
  5
32F
100
AcDbEntity
  8
0
100
AcDbPolyline
 62
250
  6
CONTINUOUS
 90
10
 70
0
 10
-38.481596152
 20
-20.9972959167
 10
-38.6560219888
 20
-16.3324664701
 10
-38.7868413599
 20
-11.6670185434
 10
-38.8740542654
 20
-7.0009521365
 10
-38.9176606968
 20
-2.3338547134
 10
-38.9176606624
 20
2.3338611899
 10
-38.8740541882
 20
7.0009579653
 10
-38.7868412827
 20
11.667023077
 10
-38.6560219373
 20
16.3324690607
 10
-38.481596152
 20
20.9972959167
  0
LINE
  5
330
100
AcDbEntity
  8
RACCORDO
100
AcDbLine
 62
7
  6
CONTINUOUS
 10
-27.5143928499
 20
-9.5101132618
 11
-29.9143928499
 21
-9.5310577445
  0
LINE
  5
331
100
AcDbEntity
  8
RACCORDO
100
AcDbLine
 62
250
  6
CONTINUOUS
 10
-27.5143928499
 20
-9.0101323002
 11
-29.9143928499
 21
-9.0310767829
  0
LINE
  5
332
100
AcDbEntity
  8
0
100
AcDbLine
 62
250
  6
CONTINUOUS
 10
-38.015858842
 20
21.6298024308
 11
-38.008206095
 21
21.4755923698
  0
LINE
  5
333
100
AcDbEntity
  8
0
100
AcDbLine
 62
250
  6
CONTINUOUS
 10
-38.0201114449
 20
21.7251181903
 11
-38.015858842
 21
21.6298024308
  0
LINE
  5
334
100
AcDbEntity
  8
0
100
AcDbLine
 62
250
  6
CONTINUOUS
 10
-38.0234633946
 20
21.8095411067
 11
-38.0201114449
 21
21.7251181903
  0
LINE
  5
335
100
AcDbEntity
  8
0
100
AcDbLine
 62
250
  6
CONTINUOUS
 10
-38.025768256
 20
-21.8793835478
 11
-38.0234632355
 21
-21.8095380733
  0
LINE
  5
336
100
AcDbEntity
  8
0
100
AcDbLine
 62
250
  6
CONTINUOUS
 10
-38.0234632355
 20
-21.8095380733
 11
-38.0201112642
 21
-21.7251149336
  0
LINE
  5
337
100
AcDbEntity
  8
0
100
AcDbLine
 62
250
  6
CONTINUOUS
 10
-38.0201112642
 20
-21.7251149336
 11
-38.0134513663
 21
-21.5793443309
  0
LINE
  5
338
100
AcDbEntity
  8
0
100
AcDbLine
 62
250
  6
CONTINUOUS
 10
-38.0134513663
 20
-21.5793443309
 11
-38.008206095
 21
-21.4755923698
  0
LINE
  5
339
100
AcDbEntity
  8
RACCORDO
100
AcDbLine
 62
250
  6
CONTINUOUS
 10
-21.0008083753
 20
20.2286273937
 11
-21.0263546675
 21
20.2024368699
  0
LINE
  5
33A
100
AcDbEntity
  8
RACCORDO
100
AcDbLine
 62
250
  6
CONTINUOUS
 10
-21.0263546675
 20
20.2024368699
 11
-21.0749961545
 21
20.1531896548
  0
LINE
  5
33B
100
AcDbEntity
  8
RACCORDO
100
AcDbLine
 62
250
  6
CONTINUOUS
 10
-21.0749961545
 20
20.1531896548
 11
-21.1109023687
 21
20.1171572875
  0
LINE
  5
33C
100
AcDbEntity
  8
DRAFT
100
AcDbLine
 62
7
  6
CONTINUOUS
 10
-28.2307577333
 20
12.8836351166
 11
-28.6143928499
 21
12.5
  0
LWPOLYLINE
  5
33D
100
AcDbEntity
  8
RACCORDO
100
AcDbPolyline
 62
250
  6
CONTINUOUS
 90
4
 70
0
 10
-28.9143928499
 20
-7.3240686345
 10
-28.9125531499
 20
-7.3238283535
 10
-28.9070679537
 20
-7.3235806609
 10
-28.8980382578
 20
-7.3233255567
  0
LINE
  5
33E
100
AcDbEntity
  8
RACCORDO
100
AcDbLine
 62
250
  6
CONTINUOUS
 10
-28.8980382578
 20
-7.3233255567
 11
-28.8700733435
 21
-7.3227832983
  0
LINE
  5
33F
100
AcDbEntity
  8
RACCORDO
100
AcDbLine
 62
250
  6
CONTINUOUS
 10
-28.8700733435
 20
-7.3227832983
 11
-28.8076074095
 21
-7.3220124758
  0
LINE
  5
340
100
AcDbEntity
  8
RACCORDO
100
AcDbLine
 62
7
  6
CONTINUOUS
 10
-29.9143928499
 20
-7.5310577445
 11
-27.7126475428
 21
-7.5118434042
  0
LINE
  5
341
100
AcDbEntity
  8
RACCORDO
100
AcDbLine
 62
250
  6
CONTINUOUS
 10
-28.8076074095
 20
-7.3220124758
 11
-27.711786807
 21
-7.31242523
  0
LINE
  5
342
100
AcDbEntity
  8
RACCORDO
100
AcDbLine
 62
250
  6
CONTINUOUS
 10
-29.9143928499
 20
-7.0310387053
 11
-29.1143928499
 21
-7.024057211
  0
LINE
  5
343
100
AcDbEntity
  8
RACCORDO
100
AcDbLine
 62
250
  6
CONTINUOUS
 10
-27.711786807
 20
-7.31242523
 11
-27.5143928499
 21
-7.3118510196
  0
LINE
  5
344
100
AcDbEntity
  8
RACCORDO
100
AcDbLine
 62
250
  6
CONTINUOUS
 10
-28.9143928499
 20
-7.024057211
 11
-29.1143928499
 21
-7.0240572111
  0
LINE
  5
345
100
AcDbEntity
  8
RACCORDO
100
AcDbLine
 62
7
  6
CONTINUOUS
 10
-27.5143928499
 20
-6.6898867382
 11
-28.9143928499
 21
-6.6776691233
  0
LINE
  5
346
100
AcDbEntity
  8
RACCORDO
100
AcDbLine
 62
250
  6
CONTINUOUS
 10
-21.1109023687
 20
-20.1171572875
 11
-21.0577982955
 21
-20.1705357589
  0
LINE
  5
347
100
AcDbEntity
  8
RACCORDO
100
AcDbLine
 62
250
  6
CONTINUOUS
 10
-21.0577982955
 20
-20.1705357589
 11
-21.0263546675
 21
-20.2024368699
  0
LWPOLYLINE
  5
348
100
AcDbEntity
  8
RACCORDO
100
AcDbPolyline
 62
250
  6
CONTINUOUS
 90
7
 70
0
 10
-21.0263546675
 20
-20.2024368699
 10
-21.0008083753
 20
-20.2286273937
 10
-20.9908235224
 20
-20.2389909837
 10
-20.9829361573
 20
-20.2472862956
 10
-20.977277657
 20
-20.2533749129
 10
-20.9739384407
 20
-20.257159202
 10
-20.9729714937
 20
-20.2585786438
  0
LWPOLYLINE
  5
349
100
AcDbEntity
  8
RACCORDO
100
AcDbPolyline
 62
250
  6
CONTINUOUS
 90
6
 70
0
 10
-20.9729714937
 20
20.2585786438
 10
-20.9739384407
 20
20.257159202
 10
-20.977277657
 20
20.2533749129
 10
-20.9829361573
 20
20.2472862956
 10
-20.9908235224
 20
20.2389909837
 10
-21.0008083753
 20
20.2286273937
  0
LINE
  5
34A
100
AcDbEntity
  8
RACCORDO
100
AcDbLine
 62
7
  6
CONTINUOUS
 10
-27.8117748893
 20
-4.6872915245
 11
-28.9143928499
 21
-4.6776691233
  0
LWPOLYLINE
  5
34B
100
AcDbEntity
  8
0
100
AcDbPolyline
 62
7
  6
CONTINUOUS
 90
4
 70
0
 43
0.3500000006
 10
-32.4143917465
 20
42.6785724792
 10
-32.4143917465
 20
43.5357149506
 10
-31.9858205109
 20
43.9642839203
 10
-31.3429647903
 20
43.9642839203
  0
LINE
  5
34C
100
AcDbEntity
  8
RACCORDO
100
AcDbLine
 62
250
  6
CONTINUOUS
 10
-29.1143928499
 20
-7.024057211
 11
-29.1126475428
 21
-7.5240610192
  0
LINE
  5
34D
100
AcDbEntity
  8
0
100
AcDbLine
 62
7
  6
CONTINUOUS
 10
-29.9143928499
 20
22.4
 11
-29.9143928499
 21
-22.4
  0
LINE
  5
34E
100
AcDbEntity
  8
DRAFT
100
AcDbLine
 62
7
  6
CONTINUOUS
 10
-29.9143928499
 20
-22.4
 11
-29.9143928499
 21
-23.5
  0
LINE
  5
34F
100
AcDbEntity
  8
DRAFT
100
AcDbLine
 62
7
  6
CONTINUOUS
 10
-29.9143928499
 20
22.4
 11
-29.9143928499
 21
23.5
  0
LINE
  5
350
100
AcDbEntity
  8
RACCORDO
100
AcDbLine
 62
250
  6
CONTINUOUS
 10
-29.1143928499
 20
13.224057211
 11
-29.1143928499
 21
-7.024057211
  0
LINE
  5
351
100
AcDbEntity
  8
RACCORDO
100
AcDbLine
 62
7
  6
CONTINUOUS
 10
-28.9143928499
 20
13.5240686345
 11
-28.9143928499
 21
-7.3240686345
  0
LINE
  5
352
100
AcDbEntity
  8
RACCORDO
100
AcDbLine
 62
250
  6
CONTINUOUS
 10
-28.7827968786
 20
13.5217717933
 11
-28.7827968786
 21
12.878817544
  0
LINE
  5
353
100
AcDbEntity
  8
RACCORDO
100
AcDbLine
 62
250
  6
CONTINUOUS
 10
-28.7827968786
 20
9.421182456
 11
-28.7827968786
 21
8.578817544
  0
LINE
  5
354
100
AcDbEntity
  8
RACCORDO
100
AcDbLine
 62
250
  6
CONTINUOUS
 10
-28.7827968786
 20
1.721182456
 11
-28.7827968786
 21
0.878817544
  0
LINE
  5
355
100
AcDbEntity
  8
RACCORDO
100
AcDbLine
 62
250
  6
CONTINUOUS
 10
-28.7827968786
 20
-6.678817544
 11
-28.7827968786
 21
-7.3217717933
  0
LINE
  5
356
100
AcDbEntity
  8
RACCORDO
100
AcDbLine
 62
250
  6
CONTINUOUS
 10
-29.1126475428
 20
13.7240610192
 11
-29.1143928499
 21
13.224057211
  0
LWPOLYLINE
  5
357
100
AcDbEntity
  8
RACCORDO
100
AcDbPolyline
 62
250
  6
CONTINUOUS
 90
9
 70
0
 10
-28.7828034727
 20
-7.3217718508
 10
-28.7839789791
 20
-7.3388570845
 10
-28.7875867102
 20
-7.3559413752
 10
-28.793631565
 20
-7.3728949637
 10
-28.8021551598
 20
-7.3896005836
 10
-28.8131145882
 20
-7.4059072349
 10
-28.8263777931
 20
-7.4216366012
 10
-28.8420365385
 20
-7.4366786249
 10
-28.8599648718
 20
-7.4508877179
  0
LINE
  5
358
100
AcDbEntity
  8
RACCORDO
100
AcDbLine
 62
7
  6
CONTINUOUS
 10
-27.5143928499
 20
0.8898867382
 11
-28.9143928499
 21
0.8776691233
  0
LINE
  5
359
100
AcDbEntity
  8
RACCORDO
100
AcDbLine
 62
7
  6
CONTINUOUS
 10
-27.5143928499
 20
1.7101132618
 11
-28.9143928499
 21
1.7223308767
  0
LWPOLYLINE
  5
35A
100
AcDbEntity
  8
RACCORDO
100
AcDbPolyline
 62
250
  6
CONTINUOUS
 90
4
 70
0
 10
-27.711786807
 20
13.51242523
 10
-27.7121690136
 20
13.5384802728
 10
-27.7137106801
 20
13.5640911968
 10
-27.7163855281
 20
13.5888214533
  0
LINE
  5
35B
100
AcDbEntity
  8
RACCORDO
100
AcDbLine
 62
250
  6
CONTINUOUS
 10
-27.711786807
 20
13.51242523
 11
-27.711786807
 21
12.8881641073
  0
LINE
  5
35C
100
AcDbEntity
  8
RACCORDO
100
AcDbLine
 62
250
  6
CONTINUOUS
 10
-27.711786807
 20
9.4118358927
 11
-27.711786807
 21
8.5881641073
  0
LINE
  5
35D
100
AcDbEntity
  8
RACCORDO
100
AcDbLine
 62
250
  6
CONTINUOUS
 10
-27.711786807
 20
1.7118358927
 11
-27.711786807
 21
0.8881641073
  0
LINE
  5
35E
100
AcDbEntity
  8
RACCORDO
100
AcDbLine
 62
250
  6
CONTINUOUS
 10
-27.711786807
 20
-6.6881641073
 11
-27.711786807
 21
-7.31242523
  0
LINE
  5
35F
100
AcDbEntity
  8
RACCORDO
100
AcDbLine
 62
7
  6
CONTINUOUS
 10
-27.5143928499
 20
15.1101132618
 11
-27.5143928499
 21
12.8898867382
  0
LINE
  5
360
100
AcDbEntity
  8
RACCORDO
100
AcDbLine
 62
7
  6
CONTINUOUS
 10
-27.5143928499
 20
9.4101132618
 11
-27.5143928499
 21
8.5898867382
  0
LINE
  5
361
100
AcDbEntity
  8
RACCORDO
100
AcDbLine
 62
7
  6
CONTINUOUS
 10
-27.5143928499
 20
1.7101132618
 11
-27.5143928499
 21
0.8898867382
  0
LINE
  5
362
100
AcDbEntity
  8
RACCORDO
100
AcDbLine
 62
7
  6
CONTINUOUS
 10
-27.5143928499
 20
-9.5101132618
 11
-27.5143928499
 21
-4.9872801014
  0
LWPOLYLINE
  5
363
100
AcDbEntity
  8
RACCORDO
100
AcDbPolyline
 62
250
  6
CONTINUOUS
 90
4
 70
0
 10
-27.711786807
 20
-7.31242523
 10
-27.7121690153
 20
-7.3384803371
 10
-27.7137106884
 20
-7.3640913121
 10
-27.7163855464
 20
-7.3888216045
  0
LWPOLYLINE
  5
364
100
AcDbEntity
  8
RACCORDO
100
AcDbPolyline
 62
250
  6
CONTINUOUS
 90
10
 70
0
 10
-27.7163855464
 20
-7.3888216045
 10
-27.720147994
 20
-7.4122496774
 10
-27.7249338971
 20
-7.4339761889
 10
-27.7306616759
 20
-7.4536308
 10
-27.7372336955
 20
-7.4708784917
 10
-27.7445379324
 20
-7.4854252767
 10
-27.7524498831
 20
-7.4970232056
 10
-27.760834685
 20
-7.5054745919
 10
-27.7695494154
 20
-7.5106353825
 10
-27.7784455285
 20
-7.5124176146
  0
LINE
  5
365
100
AcDbEntity
  8
DRAFT
100
AcDbLine
 62
7
  6
CONTINUOUS
 10
-25.9143928499
 20
23.4301797403
 11
-25.9143928499
 21
21.2
  0
LINE
  5
366
100
AcDbEntity
  8
DRAFT
100
AcDbLine
 62
7
  6
CONTINUOUS
 10
-25.9143928499
 20
-21.2
 11
-25.9143928499
 21
-23.4301797403
  0
LWPOLYLINE
  5
367
100
AcDbEntity
  8
RACCORDO
100
AcDbPolyline
 62
250
  6
CONTINUOUS
 90
8
 70
0
 10
-21.4143928499
 20
18.5
 10
-21.4139372502
 20
18.5017110277
 10
-21.413489446
 20
18.5068148348
 10
-21.4130570995
 20
18.5152240935
 10
-21.4126476083
 20
18.5267949193
 10
-21.4122679788
 20
18.541329332
 10
-21.4119247064
 20
18.5585786439
 10
-21.4113700042
 20
18.6000000001
  0
LWPOLYLINE
  5
368
100
AcDbEntity
  8
RACCORDO
100
AcDbPolyline
 62
250
  6
CONTINUOUS
 90
10
 70
0
 10
-27.7163855281
 20
13.5888214533
 10
-27.7201479636
 20
13.6122495048
 10
-27.7249338545
 20
13.6339760108
 10
-27.7306616232
 20
13.6536306339
 10
-27.7372336377
 20
13.6708783531
 10
-27.7445378751
 20
13.685425174
 10
-27.7524498319
 20
13.69702314
 10
-27.7608346454
 20
13.7054745591
 10
-27.7695493931
 20
13.7106353733
 10
-27.7784455285
 20
13.7124176146
  0
LINE
  5
369
100
AcDbEntity
  8
DRAFT
100
AcDbLine
 62
7
  6
CONTINUOUS
 10
-24.3143928499
 20
-21.2
 11
-24.3143928499
 21
-22.4
  0
LINE
  5
36A
100
AcDbEntity
  8
DRAFT
100
AcDbLine
 62
7
  6
CONTINUOUS
 10
-24.3143928499
 20
21.2
 11
-24.3143928499
 21
22.4
  0
LWPOLYLINE
  5
36B
100
AcDbEntity
  8
RACCORDO
100
AcDbPolyline
 62
7
  6
CONTINUOUS
 90
5
 70
0
 10
-25.6482658432
 20
-18.5271341059
 10
-25.6471400227
 20
-18.5154532061
 10
-25.6464827449
 20
-18.5069324742
 10
-25.6462532101
 20
-18.5017443099
 10
-25.6464436575
 20
-18.5
  0
LWPOLYLINE
  5
36C
100
AcDbEntity
  8
RACCORDO
100
AcDbPolyline
 62
7
  6
CONTINUOUS
 90
3
 70
0
 10
-25.6540356332
 20
-18.5787914426
 10
-25.6517496607
 20
-18.5590737083
 10
-25.6482658432
 20
-18.5271341059
  0
LWPOLYLINE
  5
36D
100
AcDbEntity
  8
RACCORDO
100
AcDbPolyline
 62
7
  6
CONTINUOUS
 90
4
 70
0
 10
-25.6692836757
 20
-18.7
 10
-25.6658151596
 20
-18.6741235681
 10
-25.6625676569
 20
-18.6486379494
 10
-25.6540356332
 20
-18.5787914426
  0
LWPOLYLINE
  5
36E
100
AcDbEntity
  8
RACCORDO
100
AcDbPolyline
 62
250
  6
CONTINUOUS
 90
11
 70
0
 10
-28.8599648718
 20
-7.4508877179
 10
-28.8796858485
 20
-7.4640604629
 10
-28.9011396218
 20
-7.4760698321
 10
-28.9243121338
 20
-7.4868749479
 10
-28.9487859827
 20
-7.4964249858
 10
-28.9746638807
 20
-7.5046830437
 10
-29.0017658458
 20
-7.5115409302
 10
-29.0292431859
 20
-7.5168929217
 10
-29.0567785545
 20
-7.5207352829
 10
-29.0845939614
 20
-7.5231135629
 10
-29.1126456103
 20
-7.5240610023
  0
LINE
  5
36F
100
AcDbEntity
  8
RACCORDO
100
AcDbLine
 62
7
  6
CONTINUOUS
 10
-25.6692836757
 20
18.7
 11
-25.6595187369
 21
18.6238056948
  0
LINE
  5
370
100
AcDbEntity
  8
RACCORDO
100
AcDbLine
 62
7
  6
CONTINUOUS
 10
-25.6595187369
 20
18.6238056948
 11
-25.6566204594
 21
18.6004322166
  0
LWPOLYLINE
  5
371
100
AcDbEntity
  8
RACCORDO
100
AcDbPolyline
 62
7
  6
CONTINUOUS
 90
8
 70
0
 10
-25.6566204594
 20
18.6004322166
 10
-25.651749659
 20
18.5590736936
 10
-25.6497940335
 20
18.5417887896
 10
-25.6482705308
 20
18.5271768639
 10
-25.6471464665
 20
18.5155248943
 10
-25.6464345721
 20
18.5070349419
 10
-25.646195327
 20
18.5018319132
 10
-25.6464436575
 20
18.5
  0
LWPOLYLINE
  5
372
100
AcDbEntity
  8
RACCORDO
100
AcDbPolyline
 62
250
  6
CONTINUOUS
 90
7
 70
0
 10
-21.4119247071
 20
-18.5585786438
 10
-21.4122679797
 20
-18.5413293319
 10
-21.4126476095
 20
-18.5267949192
 10
-21.4130571008
 20
-18.5152240935
 10
-21.4134894471
 20
-18.5068148347
 10
-21.4139372508
 20
-18.5017110277
 10
-21.4143928499
 20
-18.5
  0
LINE
  5
373
100
AcDbEntity
  8
RACCORDO
100
AcDbLine
 62
250
  6
CONTINUOUS
 10
-21.4113700045
 20
-18.6
 11
-21.4119247071
 21
-18.5585786438
  0
LINE
  5
374
100
AcDbEntity
  8
RACCORDO
100
AcDbLine
 62
250
  6
CONTINUOUS
 10
-21.4110213039
 20
-18.648236191
 11
-21.4113700045
 21
-18.6
  0
LINE
  5
375
100
AcDbEntity
  8
RACCORDO
100
AcDbLine
 62
250
  6
CONTINUOUS
 10
-21.4113700042
 20
18.6000000001
 11
-21.4110213039
 21
18.648236191
  0
LWPOLYLINE
  5
376
100
AcDbEntity
  8
RACCORDO
100
AcDbPolyline
 62
250
  6
CONTINUOUS
 90
19
 70
0
 10
-21.1109023687
 20
19.0
 10
-21.1115848367
 20
18.9760805086
 10
-21.1145340772
 20
18.9519757518
 10
-21.11975009
 20
18.9276857293
 10
-21.1272205769
 20
18.9028544558
 10
-21.1369578361
 20
18.8778379166
 10
-21.1489987628
 20
18.853704069
 10
-21.1635257733
 20
18.8305034343
 10
-21.1803564511
 20
18.808185491
 10
-21.1989804426
 20
18.7876666318
 10
-21.2195384485
 20
18.7690824564
 10
-21.241889768
 20
18.752297365
 10
-21.2651019449
 20
18.7378209509
 10
-21.2892228915
 20
18.7258402591
 10
-21.3142046955
 20
18.7161682446
 10
-21.3389711644
 20
18.7087533656
 10
-21.3631635675
 20
18.7035784415
 10
-21.3871406356
 20
18.700660653
 10
-21.4109023687
 20
18.7
  0
LINE
  5
377
100
AcDbEntity
  8
RACCORDO
100
AcDbLine
 62
7
  6
CONTINUOUS
 10
-27.5143928499
 20
8.5898867382
 11
-28.9143928499
 21
8.5776691233
  0
LWPOLYLINE
  5
378
100
AcDbEntity
  8
RACCORDO
100
AcDbPolyline
 62
250
  6
CONTINUOUS
 90
19
 70
0
 10
-21.1109023687
 20
-19.0
 10
-21.1113688231
 20
-18.9775145429
 10
-21.1140467129
 20
-18.9545276408
 10
-21.1189360383
 20
-18.9310392935
 10
-21.1259768385
 20
-18.9066510247
 10
-21.1352290741
 20
-18.8817613108
 10
-21.1468726269
 20
-18.8575655813
 10
-21.1611242781
 20
-18.834106935
 10
-21.1777672463
 20
-18.8113422731
 10
-21.1963310688
 20
-18.7903377291
 10
-21.2170013986
 20
-18.7712404066
 10
-21.2395925827
 20
-18.7539032019
 10
-21.263077199
 20
-18.7389509382
 10
-21.2874753575
 20
-18.726613029
 10
-21.3127669483
 20
-18.7166600606
 10
-21.3378642199
 20
-18.7090286153
 10
-21.3624045886
 20
-18.7036975538
 10
-21.3867506382
 20
-18.7006880154
 10
-21.4109023687
 20
-18.7
  0
LINE
  5
379
100
AcDbEntity
  8
RACCORDO
100
AcDbLine
 62
250
  6
CONTINUOUS
 10
-21.4109023687
 20
-18.7
 11
-21.4110213039
 21
-18.648236191
  0
LINE
  5
37A
100
AcDbEntity
  8
RACCORDO
100
AcDbLine
 62
250
  6
CONTINUOUS
 10
-21.1109023687
 20
20.1171572875
 11
-21.1109023687
 21
19.0
  0
LINE
  5
37B
100
AcDbEntity
  8
RACCORDO
100
AcDbLine
 62
250
  6
CONTINUOUS
 10
-21.1109023687
 20
-20.1171572875
 11
-21.1109023687
 21
-19.0
  0
LINE
  5
37C
100
AcDbEntity
  8
RACCORDO
100
AcDbLine
 62
7
  6
CONTINUOUS
 10
-20.9143928499
 20
20.1171572875
 11
-20.9143928499
 21
19.0
  0
LINE
  5
37D
100
AcDbEntity
  8
RACCORDO
100
AcDbLine
 62
7
  6
CONTINUOUS
 10
-20.9143928499
 20
-20.1171572875
 11
-20.9143928499
 21
-19.0
  0
LINE
  5
37E
100
AcDbEntity
  8
RACCORDO
100
AcDbLine
 62
250
  6
CONTINUOUS
 10
-21.4110213039
 20
18.648236191
 11
-21.4109023687
 21
18.7
  0
LINE
  5
37F
100
AcDbEntity
  8
RACCORDO
100
AcDbLine
 62
250
  6
CONTINUOUS
 10
-29.9143928499
 20
-9.7517699196
 11
-29.2930943375
 21
-9.5256357545
  0
LINE
  5
380
100
AcDbEntity
  8
RACCORDO
100
AcDbLine
 62
7
  6
CONTINUOUS
 10
-29.9143928499
 20
-9.9639702343
 11
-28.6957564709
 21
-9.5204228659
  0
LINE
  5
381
100
AcDbEntity
  8
RACCORDO
100
AcDbLine
 62
7
  6
CONTINUOUS
 10
-27.5143928499
 20
9.4101132618
 11
-28.9143928499
 21
9.4223308767
  0
LWPOLYLINE
  5
382
100
AcDbEntity
  8
RACCORDO
100
AcDbPolyline
 62
250
  6
CONTINUOUS
 90
9
 70
0
 10
-28.8603765161
 20
13.6511846074
 10
-28.8423501762
 20
13.6369511465
 10
-28.8266056112
 20
13.6218790314
 10
-28.813274922
 20
13.6061198956
 10
-28.8022600405
 20
13.5897806435
 10
-28.7936924703
 20
13.5730369564
 10
-28.787615233
 20
13.5560394092
 10
-28.7839871415
 20
13.5389074426
 10
-28.7828034727
 20
13.5217718508
  0
LINE
  5
383
100
AcDbEntity
  8
RACCORDO
100
AcDbLine
 62
7
  6
CONTINUOUS
 10
-27.5143928499
 20
12.8898867382
 11
-28.9143928499
 21
12.8776691233
  0
LINE
  5
384
100
AcDbEntity
  8
0
100
AcDbLine
 62
7
  6
CONTINUOUS
 10
-28.6143928499
 20
12.5
 11
-28.9143928499
 21
12.5
  0
LINE
  5
385
100
AcDbEntity
  8
RACCORDO
100
AcDbLine
 62
250
  6
CONTINUOUS
 10
-28.9143928499
 20
13.224057211
 11
-29.1143928499
 21
13.224057211
  0
LINE
  5
386
100
AcDbEntity
  8
RACCORDO
100
AcDbLine
 62
250
  6
CONTINUOUS
 10
-27.5143928499
 20
13.5118510196
 11
-27.711786807
 21
13.51242523
  0
LINE
  5
387
100
AcDbEntity
  8
RACCORDO
100
AcDbLine
 62
250
  6
CONTINUOUS
 10
-29.9143928499
 20
13.2310387053
 11
-29.1143928499
 21
13.224057211
  0
LINE
  5
388
100
AcDbEntity
  8
RACCORDO
100
AcDbLine
 62
250
  6
CONTINUOUS
 10
-28.851641179
 20
13.5225374053
 11
-27.711786807
 21
13.51242523
  0
LWPOLYLINE
  5
389
100
AcDbEntity
  8
RACCORDO
100
AcDbPolyline
 62
250
  6
CONTINUOUS
 90
6
 70
0
 10
-28.9143928499
 20
13.5240686345
 10
-28.9125529304
 20
13.5238134268
 10
-28.9070670251
 20
13.5235582202
 10
-28.8980360705
 20
13.5233030147
 10
-28.8856262294
 20
13.5230478109
 10
-28.851641179
 20
13.5225374053
  0
LINE
  5
38A
100
AcDbEntity
  8
RACCORDO
100
AcDbLine
 62
7
  6
CONTINUOUS
 10
-27.7126475428
 20
13.7118434042
 11
-29.9143928499
 21
13.7310577445
  0
LINE
  5
38B
100
AcDbEntity
  8
RACCORDO
100
AcDbLine
 62
250
  6
CONTINUOUS
 10
-29.9143928499
 20
14.6310767829
 11
-27.5143928499
 21
14.6101323002
  0
LINE
  5
38C
100
AcDbEntity
  8
RACCORDO
100
AcDbLine
 62
7
  6
CONTINUOUS
 10
-29.9143928499
 20
15.1310577445
 11
-27.5143928499
 21
15.1101132618
  0
LWPOLYLINE
  5
38D
100
AcDbEntity
  8
RACCORDO
100
AcDbPolyline
 62
250
  6
CONTINUOUS
 90
11
 70
0
 10
-29.1126457982
 20
13.7240610039
 10
-29.0847406264
 20
13.7231220535
 10
-29.0570611849
 20
13.7207663835
 10
-29.0296506579
 20
13.7169602724
 10
-29.0023017469
 20
13.7116612734
 10
-28.9753156437
 20
13.7048701715
 10
-28.9494953731
 20
13.6966748059
 10
-28.924992061
 20
13.6871635336
 10
-28.9017352527
 20
13.6763736369
 10
-28.880188916
 20
13.6643664518
 10
-28.8603765161
 20
13.6511846074
  0
LINE
  5
38E
100
AcDbEntity
  8
RACCORDO
100
AcDbLine
 62
7
  6
CONTINUOUS
 10
-29.9143928499
 20
17.3564064606
 11
-25.6464436575
 21
18.5
  0
LINE
  5
38F
100
AcDbEntity
  8
RACCORDO
100
AcDbLine
 62
250
  6
CONTINUOUS
 10
-29.9143928499
 20
17.562526425
 11
-25.6692836757
 21
18.7
  0
LINE
  5
390
100
AcDbEntity
  8
RACCORDO
100
AcDbLine
 62
7
  6
CONTINUOUS
 10
-21.4143928499
 20
18.5
 11
-25.6464436575
 21
18.5
  0
LINE
  5
391
100
AcDbEntity
  8
RACCORDO
100
AcDbLine
 62
250
  6
CONTINUOUS
 10
-21.4109023687
 20
18.7
 11
-25.6692836757
 21
18.7
  0
LINE
  5
392
100
AcDbEntity
  8
RACCORDO
100
AcDbLine
 62
250
  6
CONTINUOUS
 10
-20.9143928499
 20
19.0
 11
-21.1109023687
 21
19.0
  0
LINE
  5
393
100
AcDbEntity
  8
RACCORDO
100
AcDbLine
 62
250
  6
CONTINUOUS
 10
-20.9143928499
 20
20.1171572875
 11
-21.1109023687
 21
20.1171572875
  0
LWPOLYLINE
  5
394
100
AcDbEntity
  8
0
100
AcDbPolyline
 62
7
  6
CONTINUOUS
 90
10
 70
0
 43
0.3500000006
 10
-29.4143930969
 20
42.7499991302
 10
-29.34296418
 20
42.6071412964
 10
-29.34296418
 20
42.5357146454
 10
-29.4858220139
 20
42.3928568115
 10
-29.5572509308
 20
42.3928568115
 10
-29.6286775818
 20
42.4642834625
 10
-29.6286775818
 20
42.5357146454
 10
-29.5572509308
 20
42.6785724792
 10
-29.4858220139
 20
42.7499991302
 10
-29.4143930969
 20
42.7499991302
  0
LWPOLYLINE
  5
395
100
AcDbEntity
  8
RACCORDO
100
AcDbPolyline
 62
7
  6
CONTINUOUS
 90
22
 70
0
 10
-21.7238793613
 20
-21.0094865114
 10
-21.7128677324
 20
-20.9978705966
 10
-21.7031228116
 20
-20.9862689467
 10
-21.6946762426
 20
-20.9746510314
 10
-21.6874640469
 20
-20.9628966865
 10
-21.6816044929
 20
-20.9510743423
 10
-21.6773979002
 20
-20.9394412203
 10
-21.6748660593
 20
-20.9279768356
 10
-21.6740181755
 20
-20.9166738743
 10
-21.6751230667
 20
-20.9058220067
 10
-21.6782161469
 20
-20.8954483426
 10
-21.6832477826
 20
-20.8855434904
 10
-21.6903318962
 20
-20.8763693994
 10
-21.6995340375
 20
-20.8680202071
 10
-21.7107130101
 20
-20.8604803948
 10
-21.7236309412
 20
-20.8538879833
 10
-21.7382620833
 20
-20.8484063534
 10
-21.7544921909
 20
-20.8440127591
 10
-21.7719236627
 20
-20.8405916279
 10
-21.7903755952
 20
-20.8381523097
 10
-21.8098910134
 20
-20.8368223095
 10
-21.8304079886
 20
-20.8366629075
  0
LINE
  5
396
100
AcDbEntity
  8
RACCORDO
100
AcDbLine
 62
250
  6
CONTINUOUS
 10
-21.8304079886
 20
-20.8366629075
 11
-21.1109023687
 21
-20.1171572875
  0
LINE
  5
397
100
AcDbEntity
  8
DRAFT
100
AcDbLine
 62
7
  6
CONTINUOUS
 10
-21.9143928499
 20
-21.2
 11
-21.879178064
 21
-21.1647852141
  0
LINE
  5
398
100
AcDbEntity
  8
RACCORDO
100
AcDbLine
 62
7
  6
CONTINUOUS
 10
-20.9729714937
 20
-20.2585786438
 11
-21.879178064
 21
-21.1647852141
  0
LINE
  5
399
100
AcDbEntity
  8
0
100
AcDbLine
 62
250
  6
CONTINUOUS
 10
-38.008206095
 20
21.4755923698
 11
-29.9143928499
 21
21.8997711479
  0
LWPOLYLINE
  5
39A
100
AcDbEntity
  8
RACCORDO
100
AcDbPolyline
 62
7
  6
CONTINUOUS
 90
22
 70
0
 10
-21.8304079886
 20
20.8366629075
 10
-21.8104033923
 20
20.8368010859
 10
-21.7913169556
 20
20.8380636213
 10
-21.7732067734
 20
20.8403931379
 10
-21.7560323524
 20
20.8436534678
 10
-21.739964832
 20
20.8478512967
 10
-21.7253826444
 20
20.8531402183
 10
-21.7123829589
 20
20.8595243197
 10
-21.7010125664
 20
20.8668554362
 10
-21.6915564436
 20
20.8750755783
 10
-21.6841550032
 20
20.8842329754
 10
-21.678771428
 20
20.8941735833
 10
-21.6753751552
 20
20.9045842926
 10
-21.6740409493
 20
20.9154684853
 10
-21.6747018868
 20
20.9268111724
 10
-21.6770725885
 20
20.9383133494
 10
-21.6811152286
 20
20.9499376587
 10
-21.6868296931
 20
20.9617560644
 10
-21.6939928294
 20
20.9736281201
 10
-21.7025306052
 20
20.9855058791
 10
-21.7124982905
 20
20.9974535594
 10
-21.7238793613
 20
21.0094865114
  0
LINE
  5
39B
100
AcDbEntity
  8
DRAFT
100
AcDbLine
 62
7
  6
CONTINUOUS
 10
-21.9143928499
 20
21.2
 11
-25.9143928499
 21
21.2
  0
LINE
  5
39C
100
AcDbEntity
  8
RACCORDO
100
AcDbLine
 62
7
  6
CONTINUOUS
 10
-21.8304079886
 20
20.8366629075
 11
-29.9143928499
 21
20.9
  0
LINE
  5
39D
100
AcDbEntity
  8
DRAFT
100
AcDbLine
 62
7
  6
CONTINUOUS
 10
-25.9143928499
 20
21.2
 11
-21.879178064
 21
21.1647852141
  0
LWPOLYLINE
  5
39E
100
AcDbEntity
  8
0
100
AcDbPolyline
 62
250
  6
CONTINUOUS
 90
3
 70
0
 10
-38.9724054834
 20
21.0183132877
 10
-38.9697310114
 20
21.0181627949
 10
-38.481596152
 20
20.9972959167
  0
LINE
  5
39F
100
AcDbEntity
  8
RACCORDO
100
AcDbLine
 62
250
  6
CONTINUOUS
 10
-21.8304079886
 20
20.8366629075
 11
-21.1109023687
 21
20.1171572875
  0
LINE
  5
3A0
100
AcDbEntity
  8
DRAFT
100
AcDbLine
 62
7
  6
CONTINUOUS
 10
-21.9143928499
 20
21.2
 11
-21.879178064
 21
21.1647852141
  0
LINE
  5
3A1
100
AcDbEntity
  8
RACCORDO
100
AcDbLine
 62
7
  6
CONTINUOUS
 10
-21.879178064
 20
21.1647852141
 11
-20.9729714937
 21
20.2585786438
  0
LINE
  5
3A2
100
AcDbEntity
  8
DRAFT
100
AcDbLine
 62
7
  6
CONTINUOUS
 10
-23.8143928499
 20
-22.4
 11
-21.9143928499
 21
-21.2
  0
LINE
  5
3A3
100
AcDbEntity
  8
0
100
AcDbLine
 62
7
  6
CONTINUOUS
 10
-38.0256478699
 20
21.9749071372
 11
-29.9143928499
 21
22.4
  0
LINE
  5
3A4
100
AcDbEntity
  8
0
100
AcDbLine
 62
7
  6
CONTINUOUS
 10
-23.8143928499
 20
22.4
 11
-24.3143928499
 21
22.4
  0
LWPOLYLINE
  5
3A5
100
AcDbEntity
  8
0
100
AcDbPolyline
 62
7
  6
CONTINUOUS
 90
8
 70
0
 43
0.3500000006
 10
-28.3429638748
 20
42.2499989777
 10
-27.4858214035
 20
42.2499989777
 10
-27.0572501678
 20
42.6785724792
 10
-27.0572501678
 20
43.5357149506
 10
-27.4858214035
 20
43.9642839203
 10
-28.3429638748
 20
43.9642839203
 10
-28.3429638748
 20
45.2499998932
 10
-27.0572501678
 20
45.2499998932
  0
LINE
  5
3A6
100
AcDbEntity
  8
DRAFT
100
AcDbLine
 62
7
  6
CONTINUOUS
 10
-29.9143928499
 20
22.663166622
 11
-25.9143928499
 21
22.6298666026
  0
LINE
  5
3A7
100
AcDbEntity
  8
DRAFT
100
AcDbLine
 62
7
  6
CONTINUOUS
 10
-29.9143928499
 20
23.5
 11
-25.9143928499
 21
23.4301797403
  0
LINE
  5
3A8
100
AcDbEntity
  8
DRAFT
100
AcDbLine
 62
7
  6
CONTINUOUS
 10
-29.9143928499
 20
23.1799085618
 11
-27.235154563
 21
23.1272551823
  0
LINE
  5
3A9
100
AcDbEntity
  8
DRAFT
100
AcDbLine
 62
7
  6
CONTINUOUS
 10
-27.235154563
 20
23.1272551823
 11
-25.9143928499
 21
23.0998904748
  0
LINE
  5
3AA
100
AcDbEntity
  8
DRAFT
100
AcDbLine
 62
7
  6
CONTINUOUS
 10
-21.9143928499
 20
21.2
 11
-23.8143928499
 21
22.4
  0
LWPOLYLINE
  5
3AB
100
AcDbEntity
  8
0
100
AcDbPolyline
 62
7
  6
CONTINUOUS
 90
13
 70
0
 43
0.3500000006
 10
-31.9858205109
 20
43.9642839203
 10
-32.2715361786
 20
44.178572937
 10
-32.2715361786
 20
44.8214263916
 10
-31.9858205109
 20
45.2499998932
 10
-31.3429647903
 20
45.2499998932
 10
-31.0572491226
 20
44.8214263916
 10
-31.0572491226
 20
44.178572937
 10
-31.3429647903
 20
43.9642839203
 10
-30.9143935547
 20
43.5357149506
 10
-30.9143935547
 20
42.6785724792
 10
-31.3429647903
 20
42.2499989777
 10
-31.9858205109
 20
42.2499989777
 10
-32.4143917465
 20
42.6785724792
  0
ARC
  5
3AC
100
AcDbEntity
  8
DRAFT
100
AcDbCircle
 62
7
  6
CONTINUOUS
 10
11.25
 20
0.0
 40
28.0
100
AcDbArc
 50
233.1301023542
 51
234.0372348486
  0
ARC
  5
3AD
100
AcDbEntity
  8
DRAFT
100
AcDbCircle
 62
7
  6
CONTINUOUS
 10
11.25
 20
0.0
 40
28.0
100
AcDbArc
 50
235.8789063483
 51
237.0647695028
  0
ARC
  5
3AE
100
AcDbEntity
  8
DRAFT
100
AcDbCircle
 62
7
  6
CONTINUOUS
 10
11.25
 20
0.0
 40
28.0
100
AcDbArc
 50
122.9352304972
 51
124.1210936517
  0
ARC
  5
3AF
100
AcDbEntity
  8
DRAFT
100
AcDbCircle
 62
7
  6
CONTINUOUS
 10
11.25
 20
0.0
 40
28.0
100
AcDbArc
 50
125.9627651514
 51
126.8698976458
  0
ARC
  5
3B0
100
AcDbEntity
  8
DRAFT
100
AcDbCircle
 62
7
  6
CONTINUOUS
 10
-11.25
 20
0.0
 40
28.0
100
AcDbArc
 50
302.9352304972
 51
304.1210936517
  0
ARC
  5
3B1
100
AcDbEntity
  8
DRAFT
100
AcDbCircle
 62
7
  6
CONTINUOUS
 10
-11.25
 20
0.0
 40
28.0
100
AcDbArc
 50
305.9627651514
 51
306.8698976458
  0
ARC
  5
3B2
100
AcDbEntity
  8
DRAFT
100
AcDbCircle
 62
7
  6
CONTINUOUS
 10
-11.25
 20
0.0
 40
28.0
100
AcDbArc
 50
53.1301023542
 51
54.0372348486
  0
ARC
  5
3B3
100
AcDbEntity
  8
DRAFT
100
AcDbCircle
 62
7
  6
CONTINUOUS
 10
-11.25
 20
0.0
 40
28.0
100
AcDbArc
 50
55.8789063483
 51
57.0647695028
  0
ARC
  5
3B4
100
AcDbEntity
  8
DRAFT
100
AcDbCircle
 62
7
  6
CONTINUOUS
 10
4.95
 20
23.1
 40
0.5
100
AcDbArc
 50
170.803718421
 51
299.112422776
  0
ARC
  5
3B5
100
AcDbEntity
  8
DRAFT
100
AcDbCircle
 62
7
  6
CONTINUOUS
 10
4.95
 20
-23.1
 40
0.5
100
AcDbArc
 50
60.887577224
 51
189.196281579
  0
ARC
  5
3B6
100
AcDbEntity
  8
DRAFT
100
AcDbCircle
 62
7
  6
CONTINUOUS
 10
-4.95
 20
23.1
 40
0.5
100
AcDbArc
 50
240.887577224
 51
9.196281579
  0
ARC
  5
3B7
100
AcDbEntity
  8
DRAFT
100
AcDbCircle
 62
7
  6
CONTINUOUS
 10
-4.95
 20
-23.1
 40
0.5
100
AcDbArc
 50
350.803718421
 51
119.112422776
  0
ARC
  5
3B8
100
AcDbEntity
  8
0
100
AcDbCircle
 62
7
  6
CONTINUOUS
 10
-37.9733119136
 20
-20.9762776025
 40
1.0
100
AcDbArc
 50
182.4092313014
 51
267.0
  0
ARC
  5
3B9
100
AcDbEntity
  8
RACCORDO
100
AcDbCircle
 62
7
  6
CONTINUOUS
 10
-21.4143928499
 20
-19.0
 40
0.5
100
AcDbArc
 50
0.0
 51
90.0
  0
ARC
  5
3BA
100
AcDbEntity
  8
RACCORDO
100
AcDbCircle
 62
7
  6
CONTINUOUS
 10
-27.8143928499
 20
-4.9872801014
 40
0.3
100
AcDbArc
 50
0.0
 51
89.5
  0
ARC
  5
3BB
100
AcDbEntity
  8
RACCORDO
100
AcDbCircle
 62
7
  6
CONTINUOUS
 10
-29.1143928499
 20
-7.3240686345
 40
0.2
100
AcDbArc
 50
270.5
 51
360.0
  0
ARC
  5
3BC
100
AcDbEntity
  8
RACCORDO
100
AcDbCircle
 62
7
  6
CONTINUOUS
 10
-27.7143928499
 20
-7.3118510196
 40
0.2
100
AcDbArc
 50
270.5
 51
360.0
  0
ARC
  5
3BD
100
AcDbEntity
  8
RACCORDO
100
AcDbCircle
 62
7
  6
CONTINUOUS
 10
-21.1143928499
 20
-20.1171572875
 40
0.2
100
AcDbArc
 50
315.0
 51
360.0
  0
ARC
  5
3BE
100
AcDbEntity
  8
0
100
AcDbCircle
 62
7
  6
CONTINUOUS
 10
-37.9733119136
 20
20.9762776025
 40
1.0
100
AcDbArc
 50
93.0
 51
177.5907686986
  0
ARC
  5
3BF
100
AcDbEntity
  8
RACCORDO
100
AcDbCircle
 62
7
  6
CONTINUOUS
 10
-21.4143928499
 20
19.0
 40
0.5
100
AcDbArc
 50
270.0
 51
360.0
  0
ARC
  5
3C0
100
AcDbEntity
  8
RACCORDO
100
AcDbCircle
 62
7
  6
CONTINUOUS
 10
-29.1143928499
 20
13.5240680887
 40
0.2
100
AcDbArc
 50
0.0001563699
 51
89.5000013646
  0
ARC
  5
3C1
100
AcDbEntity
  8
RACCORDO
100
AcDbCircle
 62
7
  6
CONTINUOUS
 10
-27.7143929651
 20
13.5118510206
 40
0.2
100
AcDbArc
 50
359.9999997122
 51
89.4999670152
  0
ARC
  5
3C2
100
AcDbEntity
  8
RACCORDO
100
AcDbCircle
 62
7
  6
CONTINUOUS
 10
-21.1143928499
 20
20.1171572875
 40
0.2
100
AcDbArc
 50
0.0
 51
45.0
  0
ARC
  5
3C3
100
AcDbEntity
  8
RACCORDO
100
AcDbCircle
 62
7
  6
CONTINUOUS
 10
460.5856071501
 20
0.0
 40
500.0
100
AcDbArc
 50
179.4013599543
 51
180.2649057832
  0
ARC
  5
3C4
100
AcDbEntity
  8
RACCORDO
100
AcDbCircle
 62
7
  6
CONTINUOUS
 10
460.5856071501
 20
0.0
 40
500.0
100
AcDbArc
 50
180.6101091986
 51
180.7649414215
  0
ARC
  5
3C5
100
AcDbEntity
  8
0
100
AcDbCircle
 62
7
  6
CONTINUOUS
 10
460.5856071501
 20
-0.0
 40
500.0
100
AcDbArc
 50
177.5907686986
 51
182.4092313014
  0
ELLIPSE
  5
3C6
100
AcDbEntity
  8
0
100
AcDbEllipse
 62
7
  6
CONTINUOUS
 10
10.649923836
 20
-21.899313827
 30
0.0
 11
-0.1582391023
 21
0.4751033573
 31
0.0
 40
0.9984778551
 41
-3.4626430041
 42
-1.8927600658
  0
ELLIPSE
  5
3C7
100
AcDbEntity
  8
0
100
AcDbEllipse
 62
7
  6
CONTINUOUS
 10
10.649923836
 20
21.899313827
 30
0.0
 11
0.1582391023
 21
0.4751033573
 31
0.0
 40
0.9984778551
 41
-1.2488325878
 42
0.3210503505
  0
ELLIPSE
  5
3C8
100
AcDbEntity
  8
0
100
AcDbEllipse
 62
7
  6
CONTINUOUS
 10
-10.649923836
 20
-21.899313827
 30
0.0
 11
0.1582391023
 21
0.4751033573
 31
0.0
 40
0.9984778551
 41
-4.3904252414
 42
-2.8205423031
  0
ELLIPSE
  5
3C9
100
AcDbEntity
  8
0
100
AcDbEllipse
 62
7
  6
CONTINUOUS
 10
-10.649923836
 20
21.899313827
 30
0.0
 11
-0.1582391023
 21
0.4751033573
 31
0.0
 40
0.9984778551
 41
-0.3210503505
 42
1.2488325878
  0
ENDSEC
  0
SECTION
  2
OBJECTS
  0
DICTIONARY
  5
C
100
AcDbDictionary
280
0
281
1
  3
ACAD_GROUP
350
D
  3
ACAD_MLINESTYLE
350
17
  3
ACAD_LAYOUT
350
1A
  3
ACAD_PLOTSETTINGS
350
19
  3
ACAD_PLOTSTYLENAME
350
E
  0
DICTIONARY
  5
D
102
{ACAD_REACTORS
330
C
102
}
100
AcDbDictionary
280
0
281
1
  0
ACDBDICTIONARYWDFLT
  5
E
102
{ACAD_REACTORS
330
C
102
}
100
AcDbDictionary
281
1
  3
Normal
350
F
100
AcDbDictionaryWithDefault
340
F
  0
DICTIONARY
  5
17
102
{ACAD_REACTORS
330
C
102
}
100
AcDbDictionary
280
0
281
1
  3
Standard
350
18
  0
DICTIONARY
  5
19
102
{ACAD_REACTORS
330
C
102
}
100
AcDbDictionary
281
1
  0
DICTIONARY
  5
1A
102
{ACAD_REACTORS
330
C
102
}
100
AcDbDictionary
281
1
  3
Model
350
3CA
  3
Layout1
350
3CB
  0
ACDBPLACEHOLDER
  5
F
102
{ACAD_REACTORS
330
E
102
}
  0
MLINESTYLE
  5
18
102
{ACAD_REACTORS
330
17
102
}
100
AcDbMlineStyle
  2
STANDARD
 70
0
  3

 62
256
 51
90.0
 52
90.0
 71
2
 49
0.5
 62
256
  6
BYLAYER
 49
-0.5
 62
256
  6
BYLAYER
  0
LAYOUT
  5
3CA
102
{ACAD_REACTORS
330
1A
102
}
100
AcDbPlotSettings
  1

  2
none_device
  4
ISO_A4_(297.00_x_210.00_MM)
  6

 40
0.0
 41
0.0
 42
0.0
 43
0.0
 44
297.0
 45
210.0
 46
0.0
 47
0.0
 48
0.0
 49
0.0
140
0.0
141
0.0
142
1.0
143
1.0
 70
1024
 72
1
 73
0
 74
0
  7

 75
0
147
1.0
148
0.0
149
0.0
100
AcDbLayout
  1
Model
 70
0
 71
0
 10
0.0
 20
0.0
 11
297.0
 21
210.0
 12
0.0
 22
0.0
 32
0.0
 14
0.0
 24
0.0
 34
0.0
 15
0.0
 25
0.0
 35
0.0
146
0.0
 13
0.0
 23
0.0
 33
0.0
 16
1.0
 26
0.0
 36
0.0
 17
0.0
 27
1.0
 37
0.0
 76
0
330
211
345
0
346
0
  0
LAYOUT
  5
3CB
102
{ACAD_REACTORS
330
1A
102
}
100
AcDbPlotSettings
  1

  2
none_device
  4
ISO_A4_(297.00_x_210.00_MM)
  6

 40
0.0
 41
0.0
 42
0.0
 43
0.0
 44
297.0
 45
210.0
 46
0.0
 47
0.0
 48
0.0
 49
0.0
140
0.0
141
0.0
142
1.0
143
1.0
 70
0
 72
1
 73
0
 74
0
  7

 75
0
147
1.0
148
0.0
149
0.0
100
AcDbLayout
  1
Layout1
 70
0
 71
1
 10
0.0
 20
0.0
 11
297.0
 21
210.0
 12
0.0
 22
0.0
 32
0.0
 14
0.0
 24
0.0
 34
0.0
 15
0.0
 25
0.0
 35
0.0
146
0.0
 13
0.0
 23
0.0
 33
0.0
 16
1.0
 26
0.0
 36
0.0
 17
0.0
 27
1.0
 37
0.0
 76
0
330
212
345
0
346
0
  0
ENDSEC
  0
EOF
