  0
SECTION
  2
HEADER
  9
$ACADVER
  1
AC1024
  9
$DWGCODEPAGE
  3
ANSI_1252
  9
$EXTMAX
 10
297.0
 20
210.0
 30
0.0
  9
$EXTMIN
 10
0.0
 20
0.0
 30
0.0
  9
$LIMMIN
 10
0.0
 20
0.0
  9
$LIMMAX
 10
297.0
 20
210.0
  9
$VIEWCTR
 10
148.5
 20
105.0
  9
$VIEWSIZE
 40
210.0
  9
$CLAYER
  8
0
  9
$LTSCALE
 40
16.335
  9
$CELTYPE
  6
BYLAYER
  9
$DIMSCALE
 40
1.0
  9
$DIMASZ
 40
3.0
  9
$DIMEXO
 40
0.5
  9
$DIMDLI
 40
11.286
  9
$DIMEXE
 40
1.5
  9
$DIMCEN
 40
2.673
  9
$DIMLFAC
 40
1.0
  9
$DIMBLK
  1
_FILLED
  9
$DIMALT
 70
0
  9
$DIMALTF
 40
0.0393700787
  9
$DIMTXT
 40
3.0
  9
$DIMTOL
 70
1
  9
$DIMLIM
 70
0
  9
$DIMTFAC
 40
1.0
  9
$DIMTP
 40
0.01
  9
$DIMTM
 40
0.01
  9
$DIMGAP
 40
0.625
  9
$DIMDSEP
 70
44
  9
$AUNITS
 70
0
  9
$PDMODE
 70
3
  9
$PDSIZE
 40
3.0
  9
$HANDSEED
  5
393
  9
$TILEMODE
 70
1
  9
$MEASUREMENT
 70
1
  9
$INSUNITS
 70
4
  0
ENDSEC
  0
SECTION
  2
CLASSES
  0
CLASS
  1
ACDBDICTIONARYWDFLT
  2
AcDbDictionaryWithDefault
  3
AutoCAD 2000
 90
0
 91
1
280
0
281
0
  0
CLASS
  1
ACDBPLACEHOLDER
  2
AcDbPlaceHolder
  3
AutoCAD 2000
 90
0
 91
1
280
0
281
0
  0
CLASS
  1
LAYOUT
  2
AcDbLayout
  3
AutoCAD 2000
 90
0
 91
0
280
0
281
0
  0
ENDSEC
  0
SECTION
  2
TABLES
  0
TABLE
  2
VPORT
  5
8
100
AcDbSymbolTable
 70
2
  0
VPORT
  5
1F4
100
AcDbSymbolTableRecord
100
AcDbViewportTableRecord
  2
*ACTIVE
 70
0
 10
0.0
 20
0.0
 11
1.0
 21
1.0
 12
148.5
 22
105.0
 13
0.0
 23
0.0
 14
1.0
 24
1.0
 15
0.0
 25
0.0
 16
0.0
 26
0.0
 36
1.0
 17
0.0
 27
0.0
 37
0.0
 40
210.0
 41
1.4142857143
 42
50.0
 43
0.0
 44
0.0
 50
0.0
 51
0.0
 71
0
 72
100
 73
1
 74
1
 75
0
 76
0
 77
0
 78
0
  0
ENDTAB
  0
TABLE
  2
LTYPE
  5
5
100
AcDbSymbolTable
 70
6
  0
LTYPE
  5
14
100
AcDbSymbolTableRecord
100
AcDbLinetypeTableRecord
  2
BYBLOCK
 70
0
  3

 72
65
 73
0
 40
0.0
  0
LTYPE
  5
15
100
AcDbSymbolTableRecord
100
AcDbLinetypeTableRecord
  2
BYLAYER
 70
0
  3

 72
65
 73
0
 40
0.0
  0
LTYPE
  5
16
100
AcDbSymbolTableRecord
100
AcDbLinetypeTableRecord
  2
CONTINUOUS
 70
64
  3
Solid line
 72
65
 73
0
 40
0.0
  0
LTYPE
  5
1F5
100
AcDbSymbolTableRecord
100
AcDbLinetypeTableRecord
  2
CENTER
 70
64
  3
____ _ ____ _ ____ _ ____ _ ____ _ ____ _ ____
 72
65
 73
4
 40
0.6
 49
0.375
 74
0
 49
-0.075
 74
0
 49
0.075
 74
0
 49
-0.075
 74
0
  0
LTYPE
  5
1F6
100
AcDbSymbolTableRecord
100
AcDbLinetypeTableRecord
  2
HIDDEN
 70
64
  3
- - - - - - - - - - - - - - - - - - - -
 72
65
 73
2
 40
0.2
 49
0.1
 74
0
 49
-0.1
 74
0
  0
LTYPE
  5
1F7
100
AcDbSymbolTableRecord
100
AcDbLinetypeTableRecord
  2
PHANTOM
 70
64
  3
_____ _ _ _____ _ _ _____ _ _ _____
 72
65
 73
6
 40
0.8
 49
0.45
 74
0
 49
-0.05
 74
0
 49
0.1
 74
0
 49
-0.05
 74
0
 49
0.1
 74
0
 49
-0.05
 74
0
  0
LTYPE
  5
1F8
100
AcDbSymbolTableRecord
100
AcDbLinetypeTableRecord
  2
DOT
 70
64
  3
. . . . . . . . . . . . . . . . . . . .
 72
65
 73
2
 40
0.2
 49
0.1
 74
0
 49
-0.1
 74
0
  0
LTYPE
  5
1F9
100
AcDbSymbolTableRecord
100
AcDbLinetypeTableRecord
  2
DASHED
 70
64
  3
- - - - - - - - - - - - - - - - - - - -
 72
65
 73
2
 40
0.2
 49
0.1
 74
0
 49
-0.1
 74
0
  0
ENDTAB
  0
TABLE
  2
LAYER
  5
2
100
AcDbSymbolTable
 70
36
  0
LAYER
  5
10
100
AcDbSymbolTableRecord
100
AcDbLayerTableRecord
  2
0
 70
0
 62
7
  6
CONTINUOUS
370
-3
390
F
  0
LAYER
  5
1FA
100
AcDbSymbolTableRecord
100
AcDbLayerTableRecord
  2
DEFAULT_1
 70
0
 62
7
  6
CENTER
370
-3
390
F
  0
LAYER
  5
1FB
100
AcDbSymbolTableRecord
100
AcDbLayerTableRecord
  2
DEFAULT_2
 70
0
 62
7
  6
HIDDEN
370
-3
390
F
  0
LAYER
  5
1FC
100
AcDbSymbolTableRecord
100
AcDbLayerTableRecord
  2
DEFAULT_3
 70
0
 62
7
  6
PHANTOM
370
-3
390
F
  0
LAYER
  5
1FD
100
AcDbSymbolTableRecord
100
AcDbLayerTableRecord
  2
ASSI
 70
0
 62
7
  6
CONTINUOUS
370
-3
390
F
  0
LAYER
  5
1FE
100
AcDbSymbolTableRecord
100
AcDbLayerTableRecord
  2
COORDINATE
 70
0
 62
7
  6
CONTINUOUS
370
-3
390
F
  0
LAYER
  5
1FF
100
AcDbSymbolTableRecord
100
AcDbLayerTableRecord
  2
COORD_ORIGINE
 70
0
 62
7
  6
CONTINUOUS
370
-3
390
F
  0
LAYER
  5
200
100
AcDbSymbolTableRecord
100
AcDbLayerTableRecord
  2
CURVE
 70
0
 62
7
  6
CONTINUOUS
370
-3
390
F
  0
LAYER
  5
201
100
AcDbSymbolTableRecord
100
AcDbLayerTableRecord
  2
DRAFT
 70
0
 62
7
  6
CONTINUOUS
370
-3
390
F
  0
LAYER
  5
202
100
AcDbSymbolTableRecord
100
AcDbLayerTableRecord
  2
IMPORT_FEATURES
 70
0
 62
7
  6
CONTINUOUS
370
-3
390
F
  0
LAYER
  5
203
100
AcDbSymbolTableRecord
100
AcDbLayerTableRecord
  2
INTF_1
 70
0
 62
7
  6
CONTINUOUS
370
-3
390
F
  0
LAYER
  5
204
100
AcDbSymbolTableRecord
100
AcDbLayerTableRecord
  2
INTF_8
 70
0
 62
7
  6
CONTINUOUS
370
-3
390
F
  0
LAYER
  5
205
100
AcDbSymbolTableRecord
100
AcDbLayerTableRecord
  2
NOTE
 70
0
 62
7
  6
CONTINUOUS
370
-3
390
F
  0
LAYER
  5
206
100
AcDbSymbolTableRecord
100
AcDbLayerTableRecord
  2
PIANI
 70
0
 62
7
  6
CONTINUOUS
370
-3
390
F
  0
LAYER
  5
207
100
AcDbSymbolTableRecord
100
AcDbLayerTableRecord
  2
PIANI_ORIGINE
 70
0
 62
7
  6
CONTINUOUS
370
-3
390
F
  0
LAYER
  5
208
100
AcDbSymbolTableRecord
100
AcDbLayerTableRecord
  2
PUNTI
 70
0
 62
7
  6
CONTINUOUS
370
-3
390
F
  0
LAYER
  5
209
100
AcDbSymbolTableRecord
100
AcDbLayerTableRecord
  2
RACCORDO
 70
0
 62
7
  6
CONTINUOUS
370
-3
390
F
  0
LAYER
  5
20A
100
AcDbSymbolTableRecord
100
AcDbLayerTableRecord
  2
SMUSSO
 70
0
 62
7
  6
CONTINUOUS
370
-3
390
F
  0
LAYER
  5
20B
100
AcDbSymbolTableRecord
100
AcDbLayerTableRecord
  2
SNAPLINE
 70
0
 62
7
  6
CONTINUOUS
370
-3
390
F
  0
LAYER
  5
20C
100
AcDbSymbolTableRecord
100
AcDbLayerTableRecord
  2
SUPERFICI
 70
0
 62
7
  6
CONTINUOUS
370
-3
390
F
  0
LAYER
  5
20D
100
AcDbSymbolTableRecord
100
AcDbLayerTableRecord
  2
TRASH
 70
0
 62
7
  6
CONTINUOUS
370
-3
390
F
  0
LAYER
  5
20E
100
AcDbSymbolTableRecord
100
AcDbLayerTableRecord
  2
XSEC_DATUMS
 70
0
 62
7
  6
CONTINUOUS
370
-3
390
F
  0
ENDTAB
  0
TABLE
  2
STYLE
  5
3
100
AcDbSymbolTable
 70
1
  0
STYLE
  5
11
100
AcDbSymbolTableRecord
100
AcDbTextStyleTableRecord
  2
STANDARD
 70
0
 40
0.0
 41
0.8
 50
0.0
 71
0
 42
0.2
  3
txt
  4

  0
STYLE
  5
20F
100
AcDbSymbolTableRecord
100
AcDbTextStyleTableRecord
  2
TEXTSTYLE_1
 70
0
 40
0.0
 41
0.8
 50
0.0
 71
0
 42
0.2
  3
gdt
  4

  0
ENDTAB
  0
TABLE
  2
VIEW
  5
6
100
AcDbSymbolTable
 70
0
  0
ENDTAB
  0
TABLE
  2
UCS
  5
7
100
AcDbSymbolTable
 70
0
  0
ENDTAB
  0
TABLE
  2
APPID
  5
9
100
AcDbSymbolTable
 70
1
  0
APPID
  5
210
100
AcDbSymbolTableRecord
100
AcDbRegAppTableRecord
  2
ACAD
 70
0
  0
ENDTAB
  0
TABLE
  2
BLOCK_RECORD
  5
1
100
AcDbSymbolTable
 70
0
  0
BLOCK_RECORD
  5
211
100
AcDbSymbolTableRecord
100
AcDbBlockTableRecord
  2
*Model_Space
  0
BLOCK_RECORD
  5
212
100
AcDbSymbolTableRecord
100
AcDbBlockTableRecord
  2
*Paper_Space
  0
BLOCK_RECORD
  5
213
100
AcDbSymbolTableRecord
100
AcDbBlockTableRecord
  2
_FILLED
  0
BLOCK_RECORD
  5
214
100
AcDbSymbolTableRecord
100
AcDbBlockTableRecord
  2
*D0
  0
BLOCK_RECORD
  5
215
100
AcDbSymbolTableRecord
100
AcDbBlockTableRecord
  2
*D1
  0
BLOCK_RECORD
  5
216
100
AcDbSymbolTableRecord
100
AcDbBlockTableRecord
  2
*D2
  0
BLOCK_RECORD
  5
217
100
AcDbSymbolTableRecord
100
AcDbBlockTableRecord
  2
*D3
  0
ENDTAB
  0
TABLE
  2
DIMSTYLE
  5
A
100
AcDbSymbolTable
 70
1
100
AcDbDimStyleTable
 71
0
  0
DIMSTYLE
105
218
100
AcDbSymbolTableRecord
100
AcDbDimStyleTableRecord
  2
STANDARD
 70
0
  3

  4

 40
1.0
 41
3.0
 42
0.5
 43
0.38
 44
1.5
 45
0.0
 46
0.0
 47
0.01
 48
0.01
140
3.0
141
0.09
142
0.0
143
25.4
144
1.0
145
0.0
146
1.0
147
0.625
 71
1
 72
0
 73
0
 74
0
 75
0
 76
0
 77
1
 78
8
 79
2
170
0
171
1
172
0
173
0
174
0
175
0
176
0
177
0
178
0
270
2
179
2
271
2
272
2
273
2
274
2
275
0
280
0
281
0
282
0
283
1
284
8
285
0
286
0
287
3
288
0
340
11
278
44
341
213
342
213
343
213
344
213
  0
DIMSTYLE
105
219
100
AcDbSymbolTableRecord
100
AcDbDimStyleTableRecord
  2
DIMSTYLE_1
 70
0
  3

  4

 40
1.0
 41
3.0
 42
0.5
 43
0.38
 44
1.5
 45
0.0
 46
0.0
 47
0.0
 48
0.0
140
3.0
141
0.09
142
0.0
143
25.4
144
1.0
145
0.0
146
1.0
147
0.75
 71
0
 72
0
 73
0
 74
0
 75
0
 76
0
 77
1
 78
8
 79
2
170
0
171
1
172
0
173
0
174
0
175
0
176
0
177
0
178
0
270
2
179
2
271
2
272
2
273
2
274
2
275
0
280
0
281
0
282
0
283
1
284
8
285
0
286
0
287
3
288
0
340
11
278
44
341
213
342
213
343
213
344
213
  0
ENDTAB
  0
ENDSEC
  0
SECTION
  2
BLOCKS
  0
BLOCK
  5
20
100
AcDbEntity
  8
0
100
AcDbBlockBegin
  2
*Model_Space
 70
0
 10
0.0
 20
0.0
 30
0.0
  3
*Model_Space
  1

  0
ENDBLK
  5
21
100
AcDbEntity
  8
0
100
AcDbBlockEnd
  0
BLOCK
  5
1C
100
AcDbEntity
  8
0
100
AcDbBlockBegin
  2
*Paper_Space
 70
0
 10
0.0
 20
0.0
 30
0.0
  3
*Paper_Space
  1

  0
ENDBLK
  5
1D
100
AcDbEntity
  8
0
100
AcDbBlockEnd
  0
BLOCK
  5
21A
100
AcDbEntity
  8
0
100
AcDbBlockBegin
  2
_FILLED
 70
64
 10
0.0
 20
0.0
  3
_FILLED
  1

  0
SOLID
  5
21B
100
AcDbEntity
  8
0
  6
BYBLOCK
 62
0
100
AcDbTrace
 10
0.0
 20
0.0
 11
-1.0
 21
0.3166666667
 12
-1.0
 22
-0.3166666667
 13
-1.0
 23
-0.3166666667
  0
ENDBLK
  5
21C
100
AcDbEntity
  8
0
  6
BYBLOCK
 62
0
100
AcDbBlockEnd
  0
BLOCK
  5
21D
100
AcDbEntity
  8
0
100
AcDbBlockBegin
 62
7
  6
CONTINUOUS
  2
*D0
 70
65
 10
0.0
 20
0.0
  3
*D0
  1

  0
LINE
  5
21E
100
AcDbEntity
  8
0
100
AcDbLine
 62
7
  6
CONTINUOUS
 10
-39.4147385517
 20
0.5
 11
-39.4147385517
 21
43.0
  0
LINE
  5
21F
100
AcDbEntity
  8
0
100
AcDbLine
 62
7
  6
CONTINUOUS
 10
-20.9147385517
 20
20.6171572875
 11
-20.9147385517
 21
43.0
  0
LINE
  5
220
100
AcDbEntity
  8
0
100
AcDbLine
 62
7
  6
CONTINUOUS
 10
-39.4147385517
 20
41.5
 11
-30.1647385517
 21
41.5
  0
LINE
  5
221
100
AcDbEntity
  8
0
100
AcDbLine
 62
7
  6
CONTINUOUS
 10
-20.9147385517
 20
41.5
 11
-30.1647385517
 21
41.5
  0
INSERT
  5
222
100
AcDbEntity
  8
0
100
AcDbBlockReference
 62
7
  6
CONTINUOUS
  2
_FILLED
 10
-39.4147385517
 20
41.5
 41
3.0
 42
3.0
 43
3.0
 50
180.0
  0
INSERT
  5
223
100
AcDbEntity
  8
0
100
AcDbBlockReference
 62
7
  6
CONTINUOUS
  2
_FILLED
 10
-20.9147385517
 20
41.5
 41
3.0
 42
3.0
 43
3.0
  0
ENDBLK
  5
224
100
AcDbEntity
  8
0
  6
BYBLOCK
 62
0
100
AcDbBlockEnd
  0
BLOCK
  5
225
100
AcDbEntity
  8
0
100
AcDbBlockBegin
 62
7
  6
CONTINUOUS
  2
*D1
 70
65
 10
0.0
 20
0.0
  3
*D1
  1

  0
LINE
  5
226
100
AcDbEntity
  8
0
100
AcDbLine
 62
7
  6
CONTINUOUS
 10
-29.9147385517
 20
22.3997711479
 11
-29.9147385517
 21
33.0
  0
LINE
  5
227
100
AcDbEntity
  8
0
100
AcDbLine
 62
7
  6
CONTINUOUS
 10
-20.9147385517
 20
20.6171572875
 11
-20.9147385517
 21
33.0
  0
LINE
  5
228
100
AcDbEntity
  8
0
100
AcDbLine
 62
7
  6
CONTINUOUS
 10
-29.9147385517
 20
31.5
 11
-25.4147385517
 21
31.5
  0
LINE
  5
229
100
AcDbEntity
  8
0
100
AcDbLine
 62
7
  6
CONTINUOUS
 10
-20.9147385517
 20
31.5
 11
-25.4147385517
 21
31.5
  0
INSERT
  5
22A
100
AcDbEntity
  8
0
100
AcDbBlockReference
 62
7
  6
CONTINUOUS
  2
_FILLED
 10
-29.9147385517
 20
31.5
 41
3.0
 42
3.0
 43
3.0
 50
180.0
  0
INSERT
  5
22B
100
AcDbEntity
  8
0
100
AcDbBlockReference
 62
7
  6
CONTINUOUS
  2
_FILLED
 10
-20.9147385517
 20
31.5
 41
3.0
 42
3.0
 43
3.0
  0
ENDBLK
  5
22C
100
AcDbEntity
  8
0
  6
BYBLOCK
 62
0
100
AcDbBlockEnd
  0
BLOCK
  5
22D
100
AcDbEntity
  8
0
100
AcDbBlockBegin
 62
7
  6
CONTINUOUS
  2
*D2
 70
65
 10
0.0
 20
0.0
  3
*D2
  1

  0
LINE
  5
22E
100
AcDbEntity
  8
0
100
AcDbLine
 62
7
  6
CONTINUOUS
 10
-11.15
 20
22.3997711479
 11
-11.15
 21
33.0
  0
LINE
  5
22F
100
AcDbEntity
  8
0
100
AcDbLine
 62
7
  6
CONTINUOUS
 10
11.15
 20
22.3997711479
 11
11.15
 21
33.0
  0
LINE
  5
230
100
AcDbEntity
  8
0
100
AcDbLine
 62
7
  6
CONTINUOUS
 10
-11.15
 20
31.5
 11
0.0
 21
31.5
  0
LINE
  5
231
100
AcDbEntity
  8
0
100
AcDbLine
 62
7
  6
CONTINUOUS
 10
11.15
 20
31.5
 11
0.0
 21
31.5
  0
INSERT
  5
232
100
AcDbEntity
  8
0
100
AcDbBlockReference
 62
7
  6
CONTINUOUS
  2
_FILLED
 10
-11.15
 20
31.5
 41
3.0
 42
3.0
 43
3.0
 50
180.0
  0
INSERT
  5
233
100
AcDbEntity
  8
0
100
AcDbBlockReference
 62
7
  6
CONTINUOUS
  2
_FILLED
 10
11.15
 20
31.5
 41
3.0
 42
3.0
 43
3.0
  0
ENDBLK
  5
234
100
AcDbEntity
  8
0
  6
BYBLOCK
 62
0
100
AcDbBlockEnd
  0
BLOCK
  5
235
100
AcDbEntity
  8
0
100
AcDbBlockBegin
 62
7
  6
CONTINUOUS
  2
*D3
 70
65
 10
0.0
 20
0.0
  3
*D3
  1

  0
LINE
  5
236
100
AcDbEntity
  8
0
100
AcDbLine
 62
7
  6
CONTINUOUS
 10
4.4733373476
 20
23.5
 11
20.65
 21
23.5
  0
LINE
  5
237
100
AcDbEntity
  8
0
100
AcDbLine
 62
7
  6
CONTINUOUS
 10
4.4733373476
 20
-23.5
 11
20.65
 21
-23.5
  0
LINE
  5
238
100
AcDbEntity
  8
0
100
AcDbLine
 62
7
  6
CONTINUOUS
 10
19.15
 20
23.5
 11
19.15
 21
0.0
  0
LINE
  5
239
100
AcDbEntity
  8
0
100
AcDbLine
 62
7
  6
CONTINUOUS
 10
19.15
 20
-23.5
 11
19.15
 21
0.0
  0
INSERT
  5
23A
100
AcDbEntity
  8
0
100
AcDbBlockReference
 62
7
  6
CONTINUOUS
  2
_FILLED
 10
19.15
 20
23.5
 41
3.0
 42
3.0
 43
3.0
 50
90.0
  0
INSERT
  5
23B
100
AcDbEntity
  8
0
100
AcDbBlockReference
 62
7
  6
CONTINUOUS
  2
_FILLED
 10
19.15
 20
-23.5
 41
3.0
 42
3.0
 43
3.0
 50
270.0
  0
ENDBLK
  5
23C
100
AcDbEntity
  8
0
  6
BYBLOCK
 62
0
100
AcDbBlockEnd
  0
ENDSEC
  0
SECTION
  2
ENTITIES
  0
DIMENSION
  5
23D
100
AcDbEntity
  8
0
100
AcDbDimension
 62
7
  6
CONTINUOUS
  2
*D0
 10
-20.9147385517
 20
41.5
 11
-34.129024266
 21
41.5
 70
160
 71
2
 72
2
 41
0.9
 42
18.5
  3
DIMSTYLE_1
100
AcDbAlignedDimension
 13
-39.4147385517
 23
0.0
 14
-20.9147385517
 24
20.1171572875
100
AcDbRotatedDimension
  0
DIMENSION
  5
23E
100
AcDbEntity
  8
0
100
AcDbDimension
 62
7
  6
CONTINUOUS
  2
*D1
 10
-20.9147385517
 20
31.5
 11
-26.5933099803
 21
31.5
 70
160
 71
2
 72
2
 41
0.9
 42
9.0
  3
DIMSTYLE_1
100
AcDbAlignedDimension
 13
-29.9147385517
 23
21.8997711479
 14
-20.9147385517
 24
20.1171572875
100
AcDbRotatedDimension
  0
DIMENSION
  5
23F
100
AcDbEntity
  8
0
100
AcDbDimension
 62
7
  6
CONTINUOUS
  2
*D2
 10
11.15
 20
31.5
 11
-4.2857142857
 21
31.5
 70
160
 71
2
 72
2
 41
0.9
 42
22.3
  3
DIMSTYLE_1
100
AcDbAlignedDimension
 13
-11.15
 23
21.8997711479
 14
11.15
 24
21.8997711479
100
AcDbRotatedDimension
  0
DIMENSION
  5
240
100
AcDbEntity
  8
0
100
AcDbDimension
 62
7
  6
CONTINUOUS
  2
*D3
 10
19.15
 20
-23.5
 11
19.15
 21
-2.3571428571
 70
160
 71
2
 72
2
 41
0.9
 42
47.0
  3
DIMSTYLE_1
100
AcDbAlignedDimension
 13
3.9733373476
 23
23.5
 14
3.9733373476
 24
-23.5
 50
270.0
100
AcDbRotatedDimension
  0
LWPOLYLINE
  5
241
100
AcDbEntity
  8
0
100
AcDbPolyline
 62
7
  6
CONTINUOUS
 90
5
 70
0
 43
0.3500000006
 10
3.0000000658
 20
33.9642854004
 10
3.357142951
 20
34.1785698853
 10
3.357142951
 20
34.8214278717
 10
3.0000000658
 20
35.2500013733
 10
2.1428571696
 20
35.2500013733
  0
LWPOLYLINE
  5
242
100
AcDbEntity
  8
0
100
AcDbPolyline
 62
250
  6
CONTINUOUS
 90
16
 70
0
 10
-11.0004589101
 20
20.9972959167
 10
-10.9968791436
 20
20.9994689314
 10
-10.9879813308
 20
21.0016186628
 10
-10.9738608069
 20
21.0037220776
 10
-10.9546688652
 20
21.005756639
 10
-10.9306111366
 20
21.0077005477
 10
-10.9019453861
 20
21.009532976
 10
-10.868978751
 20
21.0112342904
 10
-10.8320644502
 20
21.0127862623
 10
-10.7915979997
 20
21.014172263
 10
-10.7480129745
 20
21.0153774425
 10
-10.7017763638
 20
21.0163888878
 10
-10.6533835666
 20
21.0171957618
 10
-10.6033530845
 20
21.0177894192
 10
-10.5522209659
 20
21.0181634993
 10
-10.5005350625
 20
21.018313994
  0
LINE
  5
243
100
AcDbEntity
  8
DRAFT
100
AcDbLine
 62
7
  6
CONTINUOUS
 10
-3.0
 20
-23.5
 11
-2.7812783412
 21
-23.4563623377
  0
LWPOLYLINE
  5
244
100
AcDbEntity
  8
0
100
AcDbPolyline
 62
250
  6
CONTINUOUS
 90
16
 70
0
 10
10.5087981167
 20
-21.9749071372
 10
10.5610250031
 20
-21.97212728
 10
10.6126802316
 20
-21.9639134406
 10
10.6631985021
 20
-21.9503555394
 10
10.7120269743
 20
-21.931601975
 10
10.7586312804
 20
-21.9078580123
 10
10.8025013793
 20
-21.8793835478
 10
10.8431571925
 20
-21.8464902344
 10
10.8801538308
 20
-21.8095380733
 10
10.9130864355
 20
-21.7689315022
 10
10.941594647
 20
-21.7251149336
 10
10.9653665353
 20
-21.6785678925
 10
10.9841419991
 20
-21.6297997904
 10
10.9977156235
 20
-21.5793443309
 10
11.0059389237
 20
-21.5277536674
 10
11.0087219643
 20
-21.4755923698
  0
LINE
  5
245
100
AcDbEntity
  8
DRAFT
100
AcDbLine
 62
7
  6
CONTINUOUS
 10
3.9733373476
 20
-23.5
 11
3.0
 21
-23.5
  0
LINE
  5
246
100
AcDbEntity
  8
DRAFT
100
AcDbLine
 62
7
  6
CONTINUOUS
 10
-3.0
 20
-23.5
 11
-3.9733373476
 21
-23.5
  0
LINE
  5
247
100
AcDbEntity
  8
DRAFT
100
AcDbLine
 62
7
  6
CONTINUOUS
 10
-2.7812783412
 20
-23.4563623377
 11
2.7812783412
 21
-23.4563623377
  0
LINE
  5
248
100
AcDbEntity
  8
DRAFT
100
AcDbLine
 62
7
  6
CONTINUOUS
 10
2.7812783412
 20
-22.5310194482
 11
-2.7812783412
 21
-22.5310194482
  0
LINE
  5
249
100
AcDbEntity
  8
DRAFT
100
AcDbLine
 62
7
  6
CONTINUOUS
 10
3.0
 20
-22.4
 11
10.6503805997
 21
-22.4
  0
LINE
  5
24A
100
AcDbEntity
  8
DRAFT
100
AcDbLine
 62
7
  6
CONTINUOUS
 10
-3.0
 20
-22.4
 11
-10.6503805997
 21
-22.4
  0
LINE
  5
24B
100
AcDbEntity
  8
DRAFT
100
AcDbLine
 62
7
  6
CONTINUOUS
 10
3.0
 20
-23.5
 11
2.7812783412
 21
-23.4563623377
  0
LWPOLYLINE
  5
24C
100
AcDbEntity
  8
0
100
AcDbPolyline
 62
250
  6
CONTINUOUS
 90
16
 70
0
 10
-11.0004589101
 20
-20.9972959167
 10
-10.9968794369
 20
-20.9994689572
 10
-10.9879818724
 20
-21.0016187146
 10
-10.9738615497
 20
-21.0037221553
 10
-10.9546697613
 20
-21.005756742
 10
-10.9306121379
 20
-21.007700675
 10
-10.9019464456
 20
-21.009533126
 10
-10.8689798232
 20
-21.0112344612
 10
-10.8320654925
 20
-21.0127864516
 10
-10.7915989726
 20
-21.0141724684
 10
-10.7480138429
 20
-21.0153776611
 10
-10.701777097
 20
-21.0163891165
 10
-10.6533841395
 20
-21.0171959974
 10
-10.6033534777
 20
-21.0177896584
 10
-10.552221166
 20
-21.0181637387
 10
-10.5005350625
 20
-21.0183142302
  0
LINE
  5
24D
100
AcDbEntity
  8
DRAFT
100
AcDbLine
 62
7
  6
CONTINUOUS
 10
-3.0
 20
22.4
 11
-2.7812783412
 21
22.5310194482
  0
LWPOLYLINE
  5
24E
100
AcDbEntity
  8
0
100
AcDbPolyline
 62
250
  6
CONTINUOUS
 90
15
 70
0
 10
10.5522211666
 20
-21.0181637394
 10
10.6033534788
 20
-21.0177896594
 10
10.6533841411
 20
-21.0171959985
 10
10.701777099
 20
-21.0163891176
 10
10.7480138452
 20
-21.015377662
 10
10.7915989752
 20
-21.0141724692
 10
10.8320654952
 20
-21.0127864523
 10
10.868979826
 20
-21.0112344618
 10
10.9019464483
 20
-21.0095331264
 10
10.9306121405
 20
-21.0077006753
 10
10.9546697635
 20
-21.0057567422
 10
10.9738615515
 20
-21.0037221554
 10
10.9879818737
 20
-21.0016187147
 10
10.9968794376
 20
-20.9994689572
 10
11.0004589101
 20
-20.9972959167
  0
LINE
  5
24F
100
AcDbEntity
  8
0
100
AcDbLine
 62
250
  6
CONTINUOUS
 10
10.5087981167
 20
-21.9749071372
 11
-10.5087981167
 21
-21.9749071372
  0
LINE
  5
250
100
AcDbEntity
  8
0
100
AcDbLine
 62
250
  6
CONTINUOUS
 10
10.5522211666
 20
-21.0181637394
 11
-10.5005350625
 21
-21.0183142309
  0
LINE
  5
251
100
AcDbEntity
  8
DRAFT
100
AcDbLine
 62
7
  6
CONTINUOUS
 10
-2.7812783412
 20
-22.5310194482
 11
-3.0
 21
-22.4
  0
LWPOLYLINE
  5
252
100
AcDbEntity
  8
0
100
AcDbPolyline
 62
250
  6
CONTINUOUS
 90
16
 70
0
 10
-11.0087219643
 20
-21.4755923698
 10
-11.0059389623
 20
-21.5277533032
 10
-10.9977157646
 20
-21.5793436708
 10
-10.9841422864
 20
-21.6297989097
 10
-10.9653669917
 20
-21.6785668706
 10
-10.9415952756
 20
-21.7251138478
 10
-10.9130872219
 20
-21.7689304222
 10
-10.8801547429
 20
-21.8095370623
 10
-10.843158184
 20
-21.8464893433
 10
-10.8025023985
 20
-21.8793828084
 10
-10.7586322667
 20
-21.9078574436
 10
-10.7120278628
 20
-21.9316015798
 10
-10.6631992385
 20
-21.9503553003
 10
-10.6126807679
 20
-21.9639133265
 10
-10.5610252917
 20
-21.9721272495
 10
-10.5087981166
 20
-21.974907137
  0
LWPOLYLINE
  5
253
100
AcDbEntity
  8
0
100
AcDbPolyline
 62
250
  6
CONTINUOUS
 90
16
 70
0
 10
-11.0087219643
 20
21.4755923698
 10
-11.0059388076
 20
21.5277547588
 10
-10.9977152003
 20
21.5793463095
 10
-10.9841411372
 20
21.6298024308
 10
-10.9653651658
 20
21.6785709568
 10
-10.9415927608
 20
21.7251181902
 10
-10.913084075
 20
21.768934742
 10
-10.8801510927
 20
21.8095411066
 10
-10.8431542155
 20
21.8464929089
 10
-10.8024983179
 20
21.8793857675
 10
-10.7586283172
 20
21.90785972
 10
-10.712024304
 20
21.931603162
 10
-10.6631962884
 20
21.9503562578
 10
-10.612678619
 20
21.9639137831
 10
-10.5610241352
 20
21.9721273713
 10
-10.5087981167
 20
21.9749071372
  0
LWPOLYLINE
  5
254
100
AcDbEntity
  8
0
100
AcDbPolyline
 62
250
  6
CONTINUOUS
 90
7
 70
0
 10
-11.0046627389
 20
21.4041254633
 10
-11.0052891369
 20
21.4238228917
 10
-11.0059457953
 20
21.4406561357
 10
-11.0066187988
 20
21.4542838409
 10
-11.0073035089
 20
21.4645922227
 10
-11.0080045641
 20
21.4716950656
 10
-11.0087219643
 20
21.4755923698
  0
LINE
  5
255
100
AcDbEntity
  8
0
100
AcDbLine
 62
250
  6
CONTINUOUS
 10
-11.0035024636
 20
21.3560260411
 11
-11.0046627389
 21
21.4041254633
  0
LINE
  5
256
100
AcDbEntity
  8
0
100
AcDbLine
 62
250
  6
CONTINUOUS
 10
-11.0024980441
 20
21.2979562724
 11
-11.0035024636
 21
21.3560260411
  0
LINE
  5
257
100
AcDbEntity
  8
0
100
AcDbLine
 62
250
  6
CONTINUOUS
 10
-11.0013312402
 20
21.1949860367
 11
-11.0024980441
 21
21.2979562724
  0
LINE
  5
258
100
AcDbEntity
  8
0
100
AcDbLine
 62
250
  6
CONTINUOUS
 10
-10.5030519894
 20
21.6796926689
 11
-10.5047341778
 21
21.8316431047
  0
LINE
  5
259
100
AcDbEntity
  8
0
100
AcDbLine
 62
250
  6
CONTINUOUS
 10
-11.0006377707
 20
21.0790132523
 11
-11.0013312402
 21
21.1949860367
  0
LINE
  5
25A
100
AcDbEntity
  8
0
100
AcDbLine
 62
250
  6
CONTINUOUS
 10
-10.5011186535
 20
21.3380089963
 11
-10.5030519894
 21
21.6796926689
  0
LINE
  5
25B
100
AcDbEntity
  8
0
100
AcDbLine
 62
250
  6
CONTINUOUS
 10
-10.9951308334
 20
11.6670144863
 11
-11.0006377707
 21
21.0790132523
  0
LINE
  5
25C
100
AcDbEntity
  8
0
100
AcDbLine
 62
250
  6
CONTINUOUS
 10
-10.4936846759
 20
7.0079400907
 11
-10.5011186535
 21
21.3380089963
  0
LINE
  5
25D
100
AcDbEntity
  8
0
100
AcDbLine
 62
7
  6
CONTINUOUS
 10
-11.15
 20
-21.8997711479
 11
-11.15
 21
21.8997711479
  0
LINE
  5
25E
100
AcDbEntity
  8
0
100
AcDbLine
 62
250
  6
CONTINUOUS
 10
-10.9928473781
 20
-2.3338756638
 11
-10.9951308334
 21
11.6670144863
  0
LINE
  5
25F
100
AcDbEntity
  8
0
100
AcDbLine
 62
250
  6
CONTINUOUS
 10
-10.4936846755
 20
-7.0079400855
 11
-10.4936846759
 21
7.0079400907
  0
LINE
  5
260
100
AcDbEntity
  8
0
100
AcDbLine
 62
250
  6
CONTINUOUS
 10
-10.9974142989
 20
-16.3324771154
 11
-10.9928473781
 21
-2.3338756638
  0
LINE
  5
261
100
AcDbEntity
  8
0
100
AcDbLine
 62
250
  6
CONTINUOUS
 10
-11.00081144
 20
-21.1184484404
 11
-10.9974142989
 21
-16.3324771154
  0
LINE
  5
262
100
AcDbEntity
  8
0
100
AcDbLine
 62
250
  6
CONTINUOUS
 10
-10.5017441538
 20
-21.4854586496
 11
-10.4936846755
 21
-7.0079400855
  0
LINE
  5
263
100
AcDbEntity
  8
0
100
AcDbLine
 62
250
  6
CONTINUOUS
 10
-11.0016694038
 20
-21.2310600855
 11
-11.00081144
 21
-21.1184484404
  0
LINE
  5
264
100
AcDbEntity
  8
0
100
AcDbLine
 62
250
  6
CONTINUOUS
 10
-10.5035748986
 20
-21.7355556626
 11
-10.5017441538
 21
-21.4854586496
  0
LINE
  5
265
100
AcDbEntity
  8
0
100
AcDbLine
 62
250
  6
CONTINUOUS
 10
-10.5047341778
 20
-21.8316431047
 11
-10.5035748986
 21
-21.7355556626
  0
LINE
  5
266
100
AcDbEntity
  8
0
100
AcDbLine
 62
250
  6
CONTINUOUS
 10
-11.0024980441
 20
-21.2979562723
 11
-11.0016694038
 21
-21.2310600855
  0
LINE
  5
267
100
AcDbEntity
  8
0
100
AcDbLine
 62
250
  6
CONTINUOUS
 10
-11.0035024636
 20
-21.3560260412
 11
-11.0024980441
 21
-21.2979562723
  0
LWPOLYLINE
  5
268
100
AcDbEntity
  8
0
100
AcDbPolyline
 62
250
  6
CONTINUOUS
 90
5
 70
0
 10
-10.5060157159
 20
21.9047687004
 10
-10.5066888073
 20
21.9320760821
 10
-10.5073747238
 20
21.952953371
 10
-10.5080778269
 20
21.9672621499
 10
-10.5087981167
 20
21.9749071372
  0
LINE
  5
269
100
AcDbEntity
  8
0
100
AcDbLine
 62
250
  6
CONTINUOUS
 10
-10.5047341778
 20
21.8316431047
 11
-10.5060157159
 21
21.9047687004
  0
LWPOLYLINE
  5
26A
100
AcDbEntity
  8
0
100
AcDbPolyline
 62
7
  6
CONTINUOUS
 90
3
 70
0
 43
0.3500000006
 10
1.1428571477
 20
32.5357161255
 10
1.0714285848
 20
32.3214271088
 10
0.9285714591
 20
32.0357159729
  0
LINE
  5
26B
100
AcDbEntity
  8
0
100
AcDbLine
 62
7
  6
CONTINUOUS
 10
-6.85
 20
9.6000114231
 11
-6.85
 21
-5.9000114231
  0
LWPOLYLINE
  5
26C
100
AcDbEntity
  8
0
100
AcDbPolyline
 62
250
  6
CONTINUOUS
 90
3
 70
0
 10
-7.1610512342
 20
-5.9146228541
 10
-7.1611551579
 20
4.8028978225
 10
-7.1605497525
 20
9.6163422613
  0
LWPOLYLINE
  5
26D
100
AcDbEntity
  8
0
100
AcDbPolyline
 62
250
  6
CONTINUOUS
 90
3
 70
0
 10
-6.8610626573
 20
-5.9110740804
 10
-6.861166581
 20
4.8000160839
 10
-6.8605611756
 20
9.6105725987
  0
LWPOLYLINE
  5
26E
100
AcDbEntity
  8
0
100
AcDbPolyline
 62
250
  6
CONTINUOUS
 90
19
 70
0
 10
-6.8605611794
 20
9.6105726025
 10
-6.8593445692
 20
9.6374766323
 10
-6.855705135
 20
9.6642383976
 10
-6.8496519951
 20
9.6906381017
 10
-6.8411650931
 20
9.7165860373
 10
-6.8303199444
 20
9.7417238163
 10
-6.8174040605
 20
9.7654763964
 10
-6.8026580523
 20
9.7876198771
 10
-6.7862327553
 20
9.8081135662
 10
-6.7684247881
 20
9.8267596662
 10
-6.7496395727
 20
9.8433562995
 10
-6.7299315436
 20
9.8580560733
 10
-6.7090067765
 20
9.8711385605
 10
-6.6869633727
 20
9.8825108595
 10
-6.6639703429
 20
9.8920555705
 10
-6.6397261502
 20
9.8998101139
 10
-6.6142086967
 20
9.9056114542
 10
-6.5877261917
 20
9.9092192871
 10
-6.5604687499
 20
9.9104573269
  0
LWPOLYLINE
  5
26F
100
AcDbEntity
  8
0
100
AcDbPolyline
 62
250
  6
CONTINUOUS
 90
19
 70
0
 10
-7.1605497525
 20
9.6163422613
 10
-7.158024142
 20
9.6709189367
 10
-7.1507568846
 20
9.7243335721
 10
-7.1387479802
 20
9.7765861742
 10
-7.1216562323
 20
9.8282940881
 10
-7.0998228375
 20
9.8788399792
 10
-7.0742713852
 20
9.9263718452
 10
-7.0448770144
 20
9.9705206985
 10
-7.0117645862
 20
10.0116555603
 10
-6.9763322727
 20
10.0490314544
 10
-6.9390034605
 20
10.0823113723
 10
-6.8993547631
 20
10.1118323552
 10
-6.857514193
 20
10.1378605024
 10
-6.8135328921
 20
10.1606562492
 10
-6.7673597185
 20
10.1799591804
 10
-6.7189692591
 20
10.1952541183
 10
-6.6683530427
 20
10.2063693419
 10
-6.6155195406
 20
10.2134765852
 10
-6.5604687526
 20
10.216575852
  0
LWPOLYLINE
  5
270
100
AcDbEntity
  8
0
100
AcDbPolyline
 62
250
  6
CONTINUOUS
 90
6
 70
0
 10
-10.5087981167
 20
-21.9749071372
 10
-10.5080778269
 20
-21.9672621499
 10
-10.5073747238
 20
-21.952953371
 10
-10.5066888073
 20
-21.9320760821
 10
-10.5060157159
 20
-21.9047687004
 10
-10.5047341778
 20
-21.8316431047
  0
LWPOLYLINE
  5
271
100
AcDbEntity
  8
0
100
AcDbPolyline
 62
250
  6
CONTINUOUS
 90
8
 70
0
 10
-11.0087219643
 20
-21.4755923698
 10
-11.0080045641
 20
-21.4716950654
 10
-11.0073035089
 20
-21.4645922224
 10
-11.0066187988
 20
-21.4542838406
 10
-11.0059457953
 20
-21.4406561355
 10
-11.0052891369
 20
-21.4238228918
 10
-11.0046627389
 20
-21.4041254635
 10
-11.0035024636
 20
-21.3560260412
  0
LWPOLYLINE
  5
272
100
AcDbEntity
  8
0
100
AcDbPolyline
 62
250
  6
CONTINUOUS
 90
19
 70
0
 10
-6.5610088471
 20
-6.5148950933
 10
-6.6155063207
 20
-6.5123850326
 10
-6.6688506632
 20
-6.5051366095
 10
-6.7210418748
 20
-6.4931498214
 10
-6.7726961217
 20
-6.47608603
 10
-6.8231972375
 20
-6.4542838627
 10
-6.8706967236
 20
-6.4287592138
 10
-6.9148275913
 20
-6.3993873216
 10
-6.9559568291
 20
-6.3662929321
 10
-6.9933369039
 20
-6.3308662061
 10
-7.0266331206
 20
-6.2935269867
 10
-7.0561801742
 20
-6.2538554191
 10
-7.082234616
 20
-6.2119821201
 10
-7.1050552329
 20
-6.1679559569
 10
-7.124383238
 20
-6.121728049
 10
-7.1396988216
 20
-6.073282392
 10
-7.1508287139
 20
-6.0226136461
 10
-7.1579461848
 20
-5.9697271361
 10
-7.1610512342
 20
-5.9146228541
  0
LINE
  5
273
100
AcDbEntity
  8
0
100
AcDbLine
 62
250
  6
CONTINUOUS
 10
-6.5610090024
 20
-6.5148950933
 11
-6.5610090024
 21
-6.2109975793
  0
LINE
  5
274
100
AcDbEntity
  8
0
100
AcDbLine
 62
250
  6
CONTINUOUS
 10
-6.5604687526
 20
10.216575852
 11
-6.5604687526
 21
9.9104573295
  0
LWPOLYLINE
  5
275
100
AcDbEntity
  8
0
100
AcDbPolyline
 62
250
  6
CONTINUOUS
 90
5
 70
0
 10
-6.9021206092
 20
-5.9128395876
 10
-6.8846446507
 20
-5.9124250331
 10
-6.8718457602
 20
-5.9119876191
 10
-6.8639405076
 20
-5.9115347472
 10
-6.8610626573
 20
-5.9110740804
  0
LINE
  5
276
100
AcDbEntity
  8
0
100
AcDbLine
 62
250
  6
CONTINUOUS
 10
-6.9498467528
 20
-5.9135725652
 11
-6.9021206092
 21
-5.9128395876
  0
LINE
  5
277
100
AcDbEntity
  8
0
100
AcDbLine
 62
250
  6
CONTINUOUS
 10
-7.0118075652
 20
-5.914137151
 11
-6.9498467528
 21
-5.9135725652
  0
LWPOLYLINE
  5
278
100
AcDbEntity
  8
0
100
AcDbPolyline
 62
250
  6
CONTINUOUS
 90
3
 70
0
 10
-7.1610512342
 20
-5.9146228541
 10
-7.1221096716
 20
-5.91458881
 10
-7.0118075652
 20
-5.914137151
  0
LINE
  5
279
100
AcDbEntity
  8
0
100
AcDbLine
 62
250
  6
CONTINUOUS
 10
6.5610090024
 20
-6.5148950933
 11
-6.5610088471
 21
-6.5148950933
  0
LINE
  5
27A
100
AcDbEntity
  8
0
100
AcDbLine
 62
7
  6
CONTINUOUS
 10
6.5610090024
 20
-6.2109975793
 11
-6.5610090024
 21
-6.2109975793
  0
LINE
  5
27B
100
AcDbEntity
  8
0
100
AcDbLine
 62
7
  6
CONTINUOUS
 10
-6.5500114231
 20
-6.2
 11
6.5500114231
 21
-6.2
  0
LINE
  5
27C
100
AcDbEntity
  8
0
100
AcDbLine
 62
250
  6
CONTINUOUS
 10
7.1610512141
 20
-5.9146228599
 11
7.0468486808
 21
-5.9143438827
  0
LINE
  5
27D
100
AcDbEntity
  8
0
100
AcDbLine
 62
250
  6
CONTINUOUS
 10
7.0468486808
 20
-5.9143438827
 11
6.9792867879
 21
-5.9138785714
  0
LWPOLYLINE
  5
27E
100
AcDbEntity
  8
0
100
AcDbPolyline
 62
250
  6
CONTINUOUS
 90
7
 70
0
 10
6.9792867879
 20
-5.9138785714
 10
6.9239760505
 20
-5.9132242481
 10
6.9021192525
 20
-5.9128395683
 10
6.884643805
 20
-5.9124250167
 10
6.8718453498
 20
-5.9119876079
 10
6.8639404002
 20
-5.9115347434
 10
6.8610626584
 20
-5.9110740858
  0
LWPOLYLINE
  5
27F
100
AcDbEntity
  8
0
100
AcDbPolyline
 62
250
  6
CONTINUOUS
 90
19
 70
0
 10
-6.5610089992
 20
-6.2109975762
 10
-6.5878951889
 20
-6.2097929108
 10
-6.6146425938
 20
-6.20617025
 10
-6.6410319291
 20
-6.2001379591
 10
-6.6669734821
 20
-6.1916755812
 10
-6.6921095604
 20
-6.1808575015
 10
-6.7158662295
 20
-6.167968836
 10
-6.7380192519
 20
-6.1532487855
 10
-6.758527365
 20
-6.1368471574
 10
-6.7771927265
 20
-6.1190581189
 10
-6.7938131269
 20
-6.1002846129
 10
-6.808538922
 20
-6.0805814801
 10
-6.8216469303
 20
-6.0596570947
 10
-6.8330436976
 20
-6.037609142
 10
-6.8426107571
 20
-6.0146069316
 10
-6.8503835072
 20
-5.9903532094
 10
-6.8561988181
 20
-5.9648277645
 10
-6.8598171799
 20
-5.9383378881
 10
-6.8610626583
 20
-5.9110740813
  0
LINE
  5
280
100
AcDbEntity
  8
0
100
AcDbLine
 62
250
  6
CONTINUOUS
 10
-11.15
 20
-21.8997711479
 11
-11.0087219643
 21
-21.4755923698
  0
LINE
  5
281
100
AcDbEntity
  8
0
100
AcDbLine
 62
250
  6
CONTINUOUS
 10
-11.0087219643
 20
21.4755923698
 11
-11.15
 21
21.8997711479
  0
LINE
  5
282
100
AcDbEntity
  8
DRAFT
100
AcDbLine
 62
7
  6
CONTINUOUS
 10
-3.0
 20
-23.5
 11
-3.0
 21
-22.4
  0
LINE
  5
283
100
AcDbEntity
  8
DRAFT
100
AcDbLine
 62
7
  6
CONTINUOUS
 10
-3.0
 20
22.4
 11
-3.0
 21
23.5
  0
LINE
  5
284
100
AcDbEntity
  8
DRAFT
100
AcDbLine
 62
7
  6
CONTINUOUS
 10
-2.7812783412
 20
-23.4563623377
 11
-2.7812783412
 21
-22.5310194482
  0
LINE
  5
285
100
AcDbEntity
  8
DRAFT
100
AcDbLine
 62
7
  6
CONTINUOUS
 10
-2.7812783412
 20
22.5310194482
 11
-2.7812783412
 21
23.4563623377
  0
LINE
  5
286
100
AcDbEntity
  8
0
100
AcDbLine
 62
250
  6
CONTINUOUS
 10
-10.6503805997
 20
-22.4
 11
-10.5087981167
 21
-21.9749071372
  0
LINE
  5
287
100
AcDbEntity
  8
0
100
AcDbLine
 62
250
  6
CONTINUOUS
 10
6.5604687526
 20
9.9104573295
 11
6.5500114231
 21
9.9
  0
LINE
  5
288
100
AcDbEntity
  8
0
100
AcDbLine
 62
250
  6
CONTINUOUS
 10
6.8605611756
 20
9.6105725987
 11
6.85
 21
9.6000114231
  0
LINE
  5
289
100
AcDbEntity
  8
0
100
AcDbLine
 62
250
  6
CONTINUOUS
 10
-10.5087981167
 20
21.9749071372
 11
-10.6503805997
 21
22.4
  0
LINE
  5
28A
100
AcDbEntity
  8
0
100
AcDbLine
 62
250
  6
CONTINUOUS
 10
-6.8610626573
 20
-5.9110740804
 11
-6.85
 21
-5.9000114231
  0
LINE
  5
28B
100
AcDbEntity
  8
0
100
AcDbLine
 62
250
  6
CONTINUOUS
 10
-6.5610090024
 20
-6.2109975793
 11
-6.5500114231
 21
-6.2
  0
LWPOLYLINE
  5
28C
100
AcDbEntity
  8
0
100
AcDbPolyline
 62
7
  6
CONTINUOUS
 90
2
 70
0
 43
0.3500000006
 10
18.3999999504
 20
-1.3571429443
 10
16.8999994926
 20
-1.3571429443
  0
LWPOLYLINE
  5
28D
100
AcDbEntity
  8
0
100
AcDbPolyline
 62
7
  6
CONTINUOUS
 90
4
 70
0
 43
0.3500000006
 10
16.0428570213
 20
-0.0000003204
 10
15.4000001678
 20
-0.0000003204
 10
15.4000001678
 20
1.5000001373
 10
18.3999999504
 20
0.642857666
  0
LINE
  5
28E
100
AcDbEntity
  8
0
100
AcDbLine
 62
250
  6
CONTINUOUS
 10
6.5610090024
 20
-6.2109975793
 11
6.5500114231
 21
-6.2
  0
LINE
  5
28F
100
AcDbEntity
  8
0
100
AcDbLine
 62
250
  6
CONTINUOUS
 10
6.8610626573
 20
-5.9110740804
 11
6.85
 21
-5.9000114231
  0
LINE
  5
290
100
AcDbEntity
  8
0
100
AcDbLine
 62
250
  6
CONTINUOUS
 10
-6.8605611756
 20
9.6105725987
 11
-6.85
 21
9.6000114231
  0
LINE
  5
291
100
AcDbEntity
  8
DRAFT
100
AcDbLine
 62
7
  6
CONTINUOUS
 10
2.7812783412
 20
-23.4563623377
 11
2.7812783412
 21
-22.5310194482
  0
LINE
  5
292
100
AcDbEntity
  8
DRAFT
100
AcDbLine
 62
7
  6
CONTINUOUS
 10
2.7812783412
 20
22.5310194482
 11
2.7812783412
 21
23.4563623377
  0
LINE
  5
293
100
AcDbEntity
  8
DRAFT
100
AcDbLine
 62
7
  6
CONTINUOUS
 10
3.0
 20
-23.5
 11
3.0
 21
-22.4
  0
LINE
  5
294
100
AcDbEntity
  8
DRAFT
100
AcDbLine
 62
7
  6
CONTINUOUS
 10
3.0
 20
22.4
 11
3.0
 21
23.5
  0
LINE
  5
295
100
AcDbEntity
  8
0
100
AcDbLine
 62
250
  6
CONTINUOUS
 10
10.5087981167
 20
21.9749071372
 11
10.6503805997
 21
22.4
  0
LINE
  5
296
100
AcDbEntity
  8
0
100
AcDbLine
 62
250
  6
CONTINUOUS
 10
11.0087219643
 20
21.4755923698
 11
11.15
 21
21.8997711479
  0
LINE
  5
297
100
AcDbEntity
  8
0
100
AcDbLine
 62
250
  6
CONTINUOUS
 10
-6.5604687526
 20
9.9104573295
 11
-6.5500114231
 21
9.9
  0
LINE
  5
298
100
AcDbEntity
  8
0
100
AcDbLine
 62
250
  6
CONTINUOUS
 10
10.6503805997
 20
-22.4
 11
10.5087981167
 21
-21.9749071372
  0
LINE
  5
299
100
AcDbEntity
  8
0
100
AcDbLine
 62
250
  6
CONTINUOUS
 10
11.15
 20
-21.8997711479
 11
11.0087219643
 21
-21.4755923698
  0
LINE
  5
29A
100
AcDbEntity
  8
0
100
AcDbLine
 62
250
  6
CONTINUOUS
 10
6.5604687526
 20
10.216575852
 11
6.5604687526
 21
9.9104573295
  0
LINE
  5
29B
100
AcDbEntity
  8
0
100
AcDbLine
 62
250
  6
CONTINUOUS
 10
6.5610090024
 20
-6.5148950933
 11
6.5610090024
 21
-6.2109975793
  0
LINE
  5
29C
100
AcDbEntity
  8
0
100
AcDbLine
 62
7
  6
CONTINUOUS
 10
6.85
 20
-5.9000114231
 11
6.85
 21
9.6000114231
  0
LINE
  5
29D
100
AcDbEntity
  8
0
100
AcDbLine
 62
250
  6
CONTINUOUS
 10
6.8605611756
 20
9.6105725987
 11
6.8610626573
 21
-5.9110740804
  0
LINE
  5
29E
100
AcDbEntity
  8
0
100
AcDbLine
 62
250
  6
CONTINUOUS
 10
7.1605497525
 20
9.6163424041
 11
7.1610512342
 21
-5.9146227058
  0
LWPOLYLINE
  5
29F
100
AcDbEntity
  8
0
100
AcDbPolyline
 62
250
  6
CONTINUOUS
 90
19
 70
0
 10
6.8610626584
 20
-5.9110740815
 10
6.8598497414
 20
-5.9379798081
 10
6.856214246
 20
-5.9647432743
 10
6.8501652741
 20
-5.9911447256
 10
6.8416828393
 20
-6.0170944063
 10
6.8308423641
 20
-6.0422340643
 10
6.817930984
 20
-6.0659889219
 10
6.8031890911
 20
-6.0881351006
 10
6.7867674751
 20
-6.1086317811
 10
6.7689625251
 20
-6.1272811096
 10
6.7501794046
 20
-6.1438811765
 10
6.7304726113
 20
-6.1585843711
 10
6.7095485373
 20
-6.1716699709
 10
6.6875052764
 20
-6.1830450506
 10
6.6645118597
 20
-6.1925921202
 10
6.6402672132
 20
-6.2003483855
 10
6.6147494435
 20
-6.2061508332
 10
6.5882666579
 20
-6.209759298
 10
6.5610089998
 20
-6.2109975767
  0
LWPOLYLINE
  5
2A0
100
AcDbEntity
  8
0
100
AcDbPolyline
 62
250
  6
CONTINUOUS
 90
7
 70
0
 10
11.0087219643
 20
-21.4755923698
 10
11.0080031927
 20
-21.4716789126
 10
11.0073010341
 20
-21.4645568007
 10
11.0066154888
 20
-21.4542260342
 10
11.0059419622
 20
-21.4405716186
 10
11.0052850488
 20
-21.4237085484
 10
11.0046585314
 20
-21.403981807
  0
LWPOLYLINE
  5
2A1
100
AcDbEntity
  8
0
100
AcDbPolyline
 62
250
  6
CONTINUOUS
 90
5
 70
0
 10
10.5087981167
 20
-21.9749071372
 10
10.5080778549
 20
-21.9672631277
 10
10.5073747357
 20
-21.9529558612
 10
10.5066887591
 20
-21.9320798744
 10
10.5060155151
 20
-21.9047715709
  0
LWPOLYLINE
  5
2A2
100
AcDbEntity
  8
0
100
AcDbPolyline
 62
250
  6
CONTINUOUS
 90
19
 70
0
 10
7.1610512342
 20
-5.9146227058
 10
7.1585295532
 20
-5.9691990941
 10
7.1512667105
 20
-6.0226136994
 10
7.139262706
 20
-6.0748665258
 10
7.1221766495
 20
-6.1265747085
 10
7.1003494312
 20
-6.1771211182
 10
7.0748037219
 20
-6.2246543691
 10
7.0454146318
 20
-6.2688057942
 10
7.0123070506
 20
-6.309944081
 10
6.9768783182
 20
-6.3473238839
 10
6.9395513966
 20
-6.3806083751
 10
6.8999033238
 20
-6.4101344027
 10
6.8580625528
 20
-6.4361671351
 10
6.8140800189
 20
-6.4589668134
 10
6.7679047869
 20
-6.4782732092
 10
6.7195125044
 20
-6.4935707852
 10
6.6688950542
 20
-6.5046876986
 10
6.6160605535
 20
-6.5117958006
 10
6.5610090024
 20
-6.5148950933
  0
LWPOLYLINE
  5
2A3
100
AcDbEntity
  8
0
100
AcDbPolyline
 62
250
  6
CONTINUOUS
 90
3
 70
0
 10
11.0046585314
 20
-21.403981807
 10
11.0034984168
 20
-21.3558303735
 10
11.0029751375
 20
-21.3279645393
  0
LINE
  5
2A4
100
AcDbEntity
  8
0
100
AcDbLine
 62
250
  6
CONTINUOUS
 10
10.5060155151
 20
-21.9047715709
 11
10.5047336849
 21
-21.8316424864
  0
LINE
  5
2A5
100
AcDbEntity
  8
0
100
AcDbLine
 62
250
  6
CONTINUOUS
 10
10.5047336849
 20
-21.8316424864
 11
10.5030519635
 21
-21.6797292088
  0
LINE
  5
2A6
100
AcDbEntity
  8
0
100
AcDbLine
 62
250
  6
CONTINUOUS
 10
10.5030519635
 20
-21.6797292088
 11
10.5011186198
 21
-21.3380251343
  0
LINE
  5
2A7
100
AcDbEntity
  8
0
100
AcDbLine
 62
250
  6
CONTINUOUS
 10
10.5011186198
 20
-21.3380251343
 11
10.495206984
 21
-11.6792204147
  0
LINE
  5
2A8
100
AcDbEntity
  8
0
100
AcDbLine
 62
250
  6
CONTINUOUS
 10
10.495206984
 20
-11.6792204147
 11
10.4929235217
 21
-2.3360479955
  0
LINE
  5
2A9
100
AcDbEntity
  8
0
100
AcDbLine
 62
250
  6
CONTINUOUS
 10
10.4929235217
 20
-2.3360479955
 11
10.4936846757
 21
7.0079400882
  0
LINE
  5
2AA
100
AcDbEntity
  8
0
100
AcDbLine
 62
250
  6
CONTINUOUS
 10
10.4936846757
 20
7.0079400882
 11
10.4974904462
 21
16.3494810544
  0
LINE
  5
2AB
100
AcDbEntity
  8
0
100
AcDbLine
 62
250
  6
CONTINUOUS
 10
10.4974904462
 20
16.3494810544
 11
10.5017438025
 21
21.4854407064
  0
LINE
  5
2AC
100
AcDbEntity
  8
0
100
AcDbLine
 62
250
  6
CONTINUOUS
 10
10.5017438025
 20
21.4854407064
 11
10.503574742
 21
21.7355821182
  0
LINE
  5
2AD
100
AcDbEntity
  8
0
100
AcDbLine
 62
250
  6
CONTINUOUS
 10
10.503574742
 20
21.7355821182
 11
10.5047336849
 21
21.8316424864
  0
LWPOLYLINE
  5
2AE
100
AcDbEntity
  8
0
100
AcDbPolyline
 62
250
  6
CONTINUOUS
 90
6
 70
0
 10
10.5047336849
 20
21.8316424864
 10
10.5060155151
 20
21.9047715709
 10
10.5066887591
 20
21.9320798744
 10
10.5073747357
 20
21.9529558612
 10
10.5080778549
 20
21.9672631277
 10
10.5087981167
 20
21.9749071372
  0
LWPOLYLINE
  5
2AF
100
AcDbEntity
  8
0
100
AcDbPolyline
 62
250
  6
CONTINUOUS
 90
9
 70
0
 10
11.0029751375
 20
21.3279645393
 10
11.0040632761
 20
21.3813379257
 10
11.0046585314
 20
21.4039818068
 10
11.0052850488
 20
21.4237085483
 10
11.0059419622
 20
21.4405716188
 10
11.0066154888
 20
21.4542260345
 10
11.0073010341
 20
21.464556801
 10
11.0080031927
 20
21.4716789127
 10
11.0087219643
 20
21.4755923698
  0
LWPOLYLINE
  5
2B0
100
AcDbEntity
  8
0
100
AcDbPolyline
 62
250
  6
CONTINUOUS
 90
7
 70
0
 10
6.9493451662
 20
9.6146347846
 10
6.9234763384
 20
9.6140685024
 10
6.9016190285
 20
9.6134430661
 10
6.8841430837
 20
9.6127690586
 10
6.8713442144
 20
9.6120578848
 10
6.8634389903
 20
9.6113215785
 10
6.8605611756
 20
9.6105725987
  0
LINE
  5
2B1
100
AcDbEntity
  8
0
100
AcDbLine
 62
250
  6
CONTINUOUS
 10
7.0113059979
 20
9.6155527213
 11
6.9493451662
 21
9.6146347846
  0
LINE
  5
2B2
100
AcDbEntity
  8
0
100
AcDbLine
 62
250
  6
CONTINUOUS
 10
7.0833255087
 20
9.6161350094
 11
7.0113059979
 21
9.6155527213
  0
LINE
  5
2B3
100
AcDbEntity
  8
0
100
AcDbLine
 62
250
  6
CONTINUOUS
 10
7.1605497525
 20
9.6163424041
 11
7.0833255087
 21
9.6161350094
  0
LINE
  5
2B4
100
AcDbEntity
  8
0
100
AcDbLine
 62
7
  6
CONTINUOUS
 10
6.5500114231
 20
9.9
 11
-6.5500114231
 21
9.9
  0
LINE
  5
2B5
100
AcDbEntity
  8
0
100
AcDbLine
 62
7
  6
CONTINUOUS
 10
-6.5604687526
 20
9.9104573295
 11
6.5604687526
 21
9.9104573295
  0
LINE
  5
2B6
100
AcDbEntity
  8
0
100
AcDbLine
 62
250
  6
CONTINUOUS
 10
-6.5604687526
 20
10.216575852
 11
6.5604685974
 21
10.216575852
  0
LINE
  5
2B7
100
AcDbEntity
  8
0
100
AcDbLine
 62
250
  6
CONTINUOUS
 10
-7.1605497331
 20
9.6163424099
 11
-7.0833235926
 21
9.6161350072
  0
LINE
  5
2B8
100
AcDbEntity
  8
0
100
AcDbLine
 62
250
  6
CONTINUOUS
 10
-7.0833235926
 20
9.6161350072
 11
-7.0113033541
 21
9.6155527008
  0
LWPOLYLINE
  5
2B9
100
AcDbEntity
  8
0
100
AcDbPolyline
 62
250
  6
CONTINUOUS
 90
8
 70
0
 10
-7.0113033541
 20
9.6155527008
 10
-6.9493428594
 20
9.6146347495
 10
-6.9234744552
 20
9.6140684642
 10
-6.9016176594
 20
9.6134430291
 10
-6.8841422374
 20
9.6127690272
 10
-6.8713438218
 20
9.6120578637
 10
-6.8634389065
 20
9.6113215722
 10
-6.8605611794
 20
9.610572611
  0
LWPOLYLINE
  5
2BA
100
AcDbEntity
  8
0
100
AcDbPolyline
 62
250
  6
CONTINUOUS
 90
19
 70
0
 10
6.5604687494
 20
9.9104573264
 10
6.5873538734
 20
9.9092529341
 10
6.614100849
 20
9.9056310173
 10
6.6404904029
 20
9.8995998563
 10
6.6664329299
 20
9.8911388983
 10
6.6915706008
 20
9.8803224402
 10
6.7153291337
 20
9.8674355992
 10
6.737484215
 20
9.8527176359
 10
6.7579946553
 20
9.836318303
 10
6.7766625169
 20
9.8185316714
 10
6.793285559
 20
9.7997606471
 10
6.8080141541
 20
9.7800601021
 10
6.8211250988
 20
9.7591384187
 10
6.8325249057
 20
9.7370933357
 10
6.8420951446
 20
9.714094115
 10
6.8498712626
 20
9.6898433431
 10
6.8556900961
 20
9.6643207446
 10
6.8593120636
 20
9.6378336611
 10
6.8605611788
 20
9.6105726019
  0
LWPOLYLINE
  5
2BB
100
AcDbEntity
  8
0
100
AcDbPolyline
 62
250
  6
CONTINUOUS
 90
19
 70
0
 10
6.5604685974
 20
10.216575852
 10
6.6149637939
 20
10.2140664498
 10
6.6683068197
 20
10.2068189898
 10
6.7204976747
 20
10.1948334677
 10
6.772152743
 20
10.1777712772
 10
6.8226556405
 20
10.1559710073
 10
6.8701572153
 20
10.1304484456
 10
6.9142903032
 20
10.1010788272
 10
6.9554220684
 20
10.0679868919
 10
6.992804851
 20
10.0325626908
 10
7.0261039322
 20
9.9952260154
 10
7.0556540307
 20
9.9555570553
 10
7.0817116432
 20
9.9136864639
 10
7.1045355409
 20
9.8696632279
 10
7.1238669525
 20
9.8234383388
 10
7.1391860612
 20
9.7749954571
 10
7.1503195946
 20
9.724329128
 10
7.1574408251
 20
9.6714447813
 10
7.1605497525
 20
9.6163424041
  0
LINE
  5
2BC
100
AcDbEntity
  8
0
100
AcDbLine
 62
250
  6
CONTINUOUS
 10
11.0029751375
 20
-21.3279645393
 11
11.0020549485
 21
-21.2650621527
  0
LINE
  5
2BD
100
AcDbEntity
  8
0
100
AcDbLine
 62
250
  6
CONTINUOUS
 10
11.0020549485
 20
-21.2650621527
 11
11.0010408709
 21
-21.1568159642
  0
LINE
  5
2BE
100
AcDbEntity
  8
0
100
AcDbLine
 62
250
  6
CONTINUOUS
 10
11.0010408709
 20
-21.1568159642
 11
11.0005196528
 21
-21.0384725278
  0
LINE
  5
2BF
100
AcDbEntity
  8
0
100
AcDbLine
 62
250
  6
CONTINUOUS
 10
11.0005196528
 20
-21.0384725278
 11
10.9951308352
 21
-11.6670185434
  0
LINE
  5
2C0
100
AcDbEntity
  8
0
100
AcDbLine
 62
250
  6
CONTINUOUS
 10
10.9951308352
 20
-11.6670185434
 11
10.9928473752
 21
-2.3338547134
  0
LINE
  5
2C1
100
AcDbEntity
  8
0
100
AcDbLine
 62
7
  6
CONTINUOUS
 10
11.15
 20
21.8997711479
 11
11.15
 21
-21.8997711479
  0
LINE
  5
2C2
100
AcDbEntity
  8
0
100
AcDbLine
 62
250
  6
CONTINUOUS
 10
10.9928473752
 20
-2.3338547134
 11
10.9936085296
 21
7.0009579653
  0
LINE
  5
2C3
100
AcDbEntity
  8
0
100
AcDbLine
 62
250
  6
CONTINUOUS
 10
10.9936085296
 20
7.0009579653
 11
10.9974142967
 21
16.3324690607
  0
LINE
  5
2C4
100
AcDbEntity
  8
0
100
AcDbLine
 62
250
  6
CONTINUOUS
 10
10.9974142967
 20
16.3324690607
 11
11.0008096574
 21
21.1180991804
  0
LINE
  5
2C5
100
AcDbEntity
  8
0
100
AcDbLine
 62
250
  6
CONTINUOUS
 10
11.0008096574
 20
21.1180991804
 11
11.0016659628
 21
21.2307227352
  0
LWPOLYLINE
  5
2C6
100
AcDbEntity
  8
0
100
AcDbPolyline
 62
250
  6
CONTINUOUS
 90
3
 70
0
 10
11.0016659628
 20
21.2307227352
 10
11.002494253
 20
21.297692487
 10
11.0029751375
 20
21.3279645393
  0
LWPOLYLINE
  5
2C7
100
AcDbEntity
  8
0
100
AcDbPolyline
 62
7
  6
CONTINUOUS
 90
10
 70
0
 43
0.3500000006
 10
1.0714285848
 20
32.7500006104
 10
1.1428571477
 20
32.6071427765
 10
1.1428571477
 20
32.5357161255
 10
1.0000000219
 20
32.3928582916
 10
0.9285714591
 20
32.3928582916
 10
0.8571428254
 20
32.4642849426
 10
0.8571428254
 20
32.5357161255
 10
0.9285714591
 20
32.6785694275
 10
1.0000000219
 20
32.7500006104
 10
1.0714285848
 20
32.7500006104
  0
LWPOLYLINE
  5
2C8
100
AcDbEntity
  8
0
100
AcDbPolyline
 62
7
  6
CONTINUOUS
 90
3
 70
0
 43
0.3500000006
 10
17.7571430969
 20
-0.8571427917
 10
17.7571430969
 20
-2.3571432495
 10
15.4000001678
 20
-1.7142852631
  0
LINE
  5
2C9
100
AcDbEntity
  8
DRAFT
100
AcDbLine
 62
7
  6
CONTINUOUS
 10
2.7812783412
 20
-22.5310194482
 11
3.0
 21
-22.4
  0
LINE
  5
2CA
100
AcDbEntity
  8
0
100
AcDbLine
 62
250
  6
CONTINUOUS
 10
-10.5005350625
 20
21.0183142309
 11
10.5005350625
 21
21.0183142309
  0
LINE
  5
2CB
100
AcDbEntity
  8
DRAFT
100
AcDbLine
 62
7
  6
CONTINUOUS
 10
3.0
 20
22.4
 11
2.7812783412
 21
22.5310194482
  0
LINE
  5
2CC
100
AcDbEntity
  8
DRAFT
100
AcDbLine
 62
7
  6
CONTINUOUS
 10
3.0
 20
23.5
 11
2.7812783412
 21
23.4563623377
  0
LINE
  5
2CD
100
AcDbEntity
  8
0
100
AcDbLine
 62
250
  6
CONTINUOUS
 10
-10.5087981167
 20
21.9749071372
 11
10.5087981167
 21
21.9749071372
  0
LINE
  5
2CE
100
AcDbEntity
  8
DRAFT
100
AcDbLine
 62
7
  6
CONTINUOUS
 10
-10.6503805997
 20
22.4
 11
-3.0
 21
22.4
  0
LINE
  5
2CF
100
AcDbEntity
  8
DRAFT
100
AcDbLine
 62
7
  6
CONTINUOUS
 10
3.0
 20
22.4
 11
10.6503805997
 21
22.4
  0
LINE
  5
2D0
100
AcDbEntity
  8
DRAFT
100
AcDbLine
 62
7
  6
CONTINUOUS
 10
2.7812783412
 20
22.5310194482
 11
-2.7812783412
 21
22.5310194482
  0
LWPOLYLINE
  5
2D1
100
AcDbEntity
  8
0
100
AcDbPolyline
 62
250
  6
CONTINUOUS
 90
16
 70
0
 10
10.5005350626
 20
21.0183132877
 10
10.5522203681
 20
21.0181627949
 10
10.6033519099
 20
21.0177887256
 10
10.6533818551
 20
21.0171950877
 10
10.7017741735
 20
21.0163882415
 10
10.7480103807
 20
21.0153768319
 10
10.7915950934
 20
21.0141716956
 10
10.8320613367
 20
21.0127857448
 10
10.8689755479
 20
21.0112338287
 10
10.9019422211
 20
21.0095325749
 10
10.9306081453
 20
21.0077002109
 10
10.9546661883
 20
21.0057563691
 10
10.9738585879
 20
21.0037218762
 10
10.987979713
 20
21.00161853
 10
10.9968782673
 20
20.9994688662
 10
11.00045891
 20
20.9972959167
  0
LWPOLYLINE
  5
2D2
100
AcDbEntity
  8
0
100
AcDbPolyline
 62
250
  6
CONTINUOUS
 90
16
 70
0
 10
10.5087981167
 20
21.9749071372
 10
10.5610241351
 20
21.9721273713
 10
10.6126786189
 20
21.9639137831
 10
10.6631962883
 20
21.9503562579
 10
10.7120243038
 20
21.9316031621
 10
10.7586283171
 20
21.90785972
 10
10.8024983178
 20
21.8793857676
 10
10.8431542153
 20
21.846492909
 10
10.8801510926
 20
21.8095411067
 10
10.9130840749
 20
21.7689347421
 10
10.9415927608
 20
21.7251181903
 10
10.9653651658
 20
21.6785709569
 10
10.9841411372
 20
21.6298024308
 10
10.9977152003
 20
21.5793463095
 10
11.0059388076
 20
21.5277547588
 10
11.0087219643
 20
21.4755923698
  0
LINE
  5
2D3
100
AcDbEntity
  8
DRAFT
100
AcDbLine
 62
7
  6
CONTINUOUS
 10
-3.0
 20
23.5
 11
-2.7812783412
 21
23.4563623377
  0
LINE
  5
2D4
100
AcDbEntity
  8
DRAFT
100
AcDbLine
 62
7
  6
CONTINUOUS
 10
-2.7812783412
 20
23.4563623377
 11
2.7812783412
 21
23.4563623377
  0
LINE
  5
2D5
100
AcDbEntity
  8
DRAFT
100
AcDbLine
 62
7
  6
CONTINUOUS
 10
-3.9733373476
 20
23.5
 11
-3.0
 21
23.5
  0
LINE
  5
2D6
100
AcDbEntity
  8
DRAFT
100
AcDbLine
 62
7
  6
CONTINUOUS
 10
3.0
 20
23.5
 11
3.9733373476
 21
23.5
  0
LWPOLYLINE
  5
2D7
100
AcDbEntity
  8
0
100
AcDbPolyline
 62
7
  6
CONTINUOUS
 90
7
 70
0
 43
0.3500000006
 10
-0.4285714127
 20
32.2500004578
 10
-1.9285714102
 20
32.2500004578
 10
-0.4285714127
 20
34.392858902
 10
-0.4285714127
 20
34.8214278717
 10
-0.8571428254
 20
35.2500013733
 10
-1.5000000329
 20
35.2500013733
 10
-1.9285714102
 20
34.6071433868
  0
LWPOLYLINE
  5
2D8
100
AcDbEntity
  8
0
100
AcDbPolyline
 62
7
  6
CONTINUOUS
 90
6
 70
0
 43
0.3500000006
 10
2.1428571696
 20
32.2500004578
 10
3.2142856836
 20
32.2500004578
 10
3.4285713015
 20
32.4642849426
 10
3.4285713015
 20
33.5357164307
 10
3.0000000658
 20
33.9642854004
 10
2.5714285469
 20
33.9642854004
  0
LWPOLYLINE
  5
2D9
100
AcDbEntity
  8
0
100
AcDbPolyline
 62
7
  6
CONTINUOUS
 90
7
 70
0
 43
0.3500000006
 10
-2.7857141647
 20
32.2500004578
 10
-4.2857143393
 20
32.2500004578
 10
-2.7857141647
 20
34.392858902
 10
-2.7857141647
 20
34.8214278717
 10
-3.2142856836
 20
35.2500013733
 10
-3.8571428204
 20
35.2500013733
 10
-4.2857143393
 20
34.6071433868
  0
LWPOLYLINE
  5
2DA
100
AcDbEntity
  8
0
100
AcDbPolyline
 62
7
  6
CONTINUOUS
 90
3
 70
0
 43
0.3500000006
 10
-34.1290233765
 20
44.3928574219
 10
-33.2718809052
 20
45.2499998932
 10
-33.2718809052
 20
42.2499989777
  0
LINE
  5
2DB
100
AcDbEntity
  8
DRAFT
100
AcDbLine
 62
7
  6
CONTINUOUS
 10
-29.9147385517
 20
-23.5
 11
-25.9147385517
 21
-23.4301797403
  0
LINE
  5
2DC
100
AcDbEntity
  8
DRAFT
100
AcDbLine
 62
7
  6
CONTINUOUS
 10
-29.9147385517
 20
-23.1799085618
 11
-25.9147385517
 21
-23.0998904748
  0
LINE
  5
2DD
100
AcDbEntity
  8
DRAFT
100
AcDbLine
 62
7
  6
CONTINUOUS
 10
-29.9147385517
 20
-22.663166622
 11
-27.2355002648
 21
-22.6398871632
  0
LINE
  5
2DE
100
AcDbEntity
  8
DRAFT
100
AcDbLine
 62
7
  6
CONTINUOUS
 10
-27.2355002648
 20
-22.6398871632
 11
-25.9147385517
 21
-22.6298666026
  0
LINE
  5
2DF
100
AcDbEntity
  8
0
100
AcDbLine
 62
7
  6
CONTINUOUS
 10
-23.8147385517
 20
-22.4
 11
-24.3147385517
 21
-22.4
  0
LINE
  5
2E0
100
AcDbEntity
  8
0
100
AcDbLine
 62
7
  6
CONTINUOUS
 10
-29.9147385517
 20
-22.4
 11
-38.0259935717
 21
-21.9749071372
  0
LINE
  5
2E1
100
AcDbEntity
  8
0
100
AcDbLine
 62
250
  6
CONTINUOUS
 10
-29.9147385517
 20
-21.8997711479
 11
-38.0085517968
 21
-21.4755923698
  0
LWPOLYLINE
  5
2E2
100
AcDbEntity
  8
0
100
AcDbPolyline
 62
250
  6
CONTINUOUS
 90
19
 70
0
 10
-38.0085517968
 20
-21.4755923698
 10
-38.0497301964
 20
-21.4716789126
 10
-38.0899568307
 20
-21.4645568007
 10
-38.1292316995
 20
-21.4542260342
 10
-38.1678180085
 20
-21.4405716186
 10
-38.2054525521
 20
-21.4237085484
 10
-38.2413457132
 20
-21.403981807
 10
-38.2754478625
 20
-21.3813379258
 10
-38.3078086293
 20
-21.3558303735
 10
-38.3377872845
 20
-21.3279645393
 10
-38.3653371351
 20
-21.2976924869
 10
-38.3905048741
 20
-21.2650621527
 10
-38.4127898506
 20
-21.2307227351
 10
-38.4321369787
 20
-21.1946238913
 10
-38.4486013444
 20
-21.1568159642
 10
-38.4618475541
 20
-21.1180991805
 10
-38.47176381
 20
-21.0787402824
 10
-38.4784619099
 20
-21.0384725278
 10
-38.4819418538
 20
-20.9972959167
  0
LINE
  5
2E3
100
AcDbEntity
  8
0
100
AcDbLine
 62
250
  6
CONTINUOUS
 10
-38.972773675
 20
-21.0183142305
 11
-38.9700990071
 21
-21.0181637394
  0
LINE
  5
2E4
100
AcDbEntity
  8
0
100
AcDbLine
 62
250
  6
CONTINUOUS
 10
-38.9700990071
 20
-21.0181637394
 11
-38.4819418538
 21
-20.9972959167
  0
LINE
  5
2E5
100
AcDbEntity
  8
DRAFT
100
AcDbLine
 62
7
  6
CONTINUOUS
 10
-25.9147385517
 20
-21.2
 11
-21.8795237658
 21
-21.1647852141
  0
LINE
  5
2E6
100
AcDbEntity
  8
RACCORDO
100
AcDbLine
 62
7
  6
CONTINUOUS
 10
-29.9147385517
 20
-20.9
 11
-21.8307536904
 21
-20.8366629075
  0
LINE
  5
2E7
100
AcDbEntity
  8
DRAFT
100
AcDbLine
 62
7
  6
CONTINUOUS
 10
-25.9147385517
 20
-21.2
 11
-21.9147385517
 21
-21.2
  0
LINE
  5
2E8
100
AcDbEntity
  8
RACCORDO
100
AcDbLine
 62
250
  6
CONTINUOUS
 10
-21.1112480705
 20
-20.1171572875
 11
-20.9147385517
 21
-20.1171572875
  0
LWPOLYLINE
  5
2E9
100
AcDbEntity
  8
0
100
AcDbPolyline
 62
7
  6
CONTINUOUS
 90
10
 70
0
 43
0.3500000006
 10
-26.1647387924
 20
32.2500004578
 10
-25.3075963211
 20
33.1071429291
 10
-25.0933095703
 20
33.9642854004
 10
-25.0933095703
 20
34.8214278717
 10
-25.521880806
 20
35.2500013733
 10
-26.1647387924
 20
35.2500013733
 10
-26.5933100281
 20
34.8214278717
 10
-26.5933100281
 20
33.9642854004
 10
-26.1647387924
 20
33.5357164307
 10
-25.2361674042
 20
33.5357164307
  0
LINE
  5
2EA
100
AcDbEntity
  8
RACCORDO
100
AcDbLine
 62
250
  6
CONTINUOUS
 10
-21.1112480705
 20
-19.0
 11
-20.9147385517
 21
-18.9999999999
  0
LINE
  5
2EB
100
AcDbEntity
  8
RACCORDO
100
AcDbLine
 62
250
  6
CONTINUOUS
 10
-21.4112480705
 20
-18.7
 11
-25.6696293775
 21
-18.7
  0
LINE
  5
2EC
100
AcDbEntity
  8
RACCORDO
100
AcDbLine
 62
7
  6
CONTINUOUS
 10
-21.4147385517
 20
-18.5
 11
-25.6467893593
 21
-18.5
  0
LINE
  5
2ED
100
AcDbEntity
  8
RACCORDO
100
AcDbLine
 62
250
  6
CONTINUOUS
 10
-25.6696293775
 20
-18.7
 11
-29.9147385517
 21
-17.562526425
  0
LINE
  5
2EE
100
AcDbEntity
  8
RACCORDO
100
AcDbLine
 62
7
  6
CONTINUOUS
 10
-25.6467893593
 20
-18.5
 11
-29.9147385517
 21
-17.3564064606
  0
LWPOLYLINE
  5
2EF
100
AcDbEntity
  8
0
100
AcDbPolyline
 62
250
  6
CONTINUOUS
 90
8
 70
0
 10
-38.0259935717
 20
21.9749071372
 10
-38.0267594998
 20
21.9721273713
 10
-38.0272306768
 20
21.9639137831
 10
-38.0274019466
 20
21.9503562579
 10
-38.0272714347
 20
21.9316031621
 10
-38.0268405694
 20
21.90785972
 10
-38.0261140662
 20
21.8793857676
 10
-38.0238090964
 20
21.8095411067
  0
LWPOLYLINE
  5
2F0
100
AcDbEntity
  8
0
100
AcDbPolyline
 62
250
  6
CONTINUOUS
 90
7
 70
0
 10
-38.0259935717
 20
-21.9749071372
 10
-38.0267594996
 20
-21.97212728
 10
-38.0272306672
 20
-21.9639134406
 10
-38.0274019196
 20
-21.9503555394
 10
-38.0272713838
 20
-21.931601975
 10
-38.0268404903
 20
-21.9078580123
 10
-38.0261139578
 20
-21.8793835478
  0
LWPOLYLINE
  5
2F1
100
AcDbEntity
  8
0
100
AcDbPolyline
 62
7
  6
CONTINUOUS
 90
3
 70
0
 43
0.3500000006
 10
-29.3433108673
 20
42.5357146454
 10
-29.4147375183
 20
42.3214301605
 10
-29.5575953522
 20
42.0357144928
  0
LWPOLYLINE
  5
2F2
100
AcDbEntity
  8
0
100
AcDbPolyline
 62
250
  6
CONTINUOUS
 90
19
 70
0
 10
-38.4819418538
 20
20.9972959167
 10
-38.4784619097
 20
21.0384725278
 10
-38.4717638098
 20
21.0787402824
 10
-38.4618475539
 20
21.1180991804
 10
-38.4486013443
 20
21.1568159641
 10
-38.4321369788
 20
21.1946238914
 10
-38.4127898508
 20
21.2307227352
 10
-38.3905048743
 20
21.2650621528
 10
-38.3653371352
 20
21.297692487
 10
-38.3377872845
 20
21.3279645393
 10
-38.3078086293
 20
21.3558303734
 10
-38.2754478624
 20
21.3813379257
 10
-38.2413457131
 20
21.4039818068
 10
-38.205452552
 20
21.4237085483
 10
-38.1678180085
 20
21.4405716188
 10
-38.1292316996
 20
21.4542260345
 10
-38.0899568308
 20
21.464556801
 10
-38.0497301965
 20
21.4716789127
 10
-38.0085517968
 20
21.4755923698
  0
LWPOLYLINE
  5
2F3
100
AcDbEntity
  8
0
100
AcDbPolyline
 62
250
  6
CONTINUOUS
 90
10
 70
0
 10
-38.4819418538
 20
-20.9972959167
 10
-38.6563676906
 20
-16.3324664701
 10
-38.7871870617
 20
-11.6670185434
 10
-38.8743999672
 20
-7.0009521365
 10
-38.9180063986
 20
-2.3338547134
 10
-38.9180063642
 20
2.3338611899
 10
-38.87439989
 20
7.0009579653
 10
-38.7871869845
 20
11.667023077
 10
-38.6563676391
 20
16.3324690607
 10
-38.4819418538
 20
20.9972959167
  0
LINE
  5
2F4
100
AcDbEntity
  8
0
100
AcDbLine
 62
7
  6
CONTINUOUS
 10
-39.4091582412
 20
2.362261506
 11
-39.4093428722
 21
2.3228539332
  0
LINE
  5
2F5
100
AcDbEntity
  8
RACCORDO
100
AcDbLine
 62
7
  6
CONTINUOUS
 10
-27.5147385517
 20
-9.5101132618
 11
-29.9147385517
 21
-9.5310577445
  0
LINE
  5
2F6
100
AcDbEntity
  8
RACCORDO
100
AcDbLine
 62
250
  6
CONTINUOUS
 10
-27.5147385517
 20
-9.0101323002
 11
-29.9147385517
 21
-9.0310767829
  0
LINE
  5
2F7
100
AcDbEntity
  8
0
100
AcDbLine
 62
250
  6
CONTINUOUS
 10
-38.0162045438
 20
21.6298024308
 11
-38.0085517968
 21
21.4755923698
  0
LINE
  5
2F8
100
AcDbEntity
  8
0
100
AcDbLine
 62
250
  6
CONTINUOUS
 10
-38.0204571467
 20
21.7251181903
 11
-38.0162045438
 21
21.6298024308
  0
LINE
  5
2F9
100
AcDbEntity
  8
0
100
AcDbLine
 62
250
  6
CONTINUOUS
 10
-38.0238090964
 20
21.8095411067
 11
-38.0204571467
 21
21.7251181903
  0
LINE
  5
2FA
100
AcDbEntity
  8
0
100
AcDbLine
 62
250
  6
CONTINUOUS
 10
-38.0261139578
 20
-21.8793835478
 11
-38.0238089372
 21
-21.8095380733
  0
LINE
  5
2FB
100
AcDbEntity
  8
0
100
AcDbLine
 62
250
  6
CONTINUOUS
 10
-38.0238089372
 20
-21.8095380733
 11
-38.020456966
 21
-21.7251149336
  0
LINE
  5
2FC
100
AcDbEntity
  8
0
100
AcDbLine
 62
250
  6
CONTINUOUS
 10
-38.020456966
 20
-21.7251149336
 11
-38.0137970681
 21
-21.5793443309
  0
LINE
  5
2FD
100
AcDbEntity
  8
0
100
AcDbLine
 62
250
  6
CONTINUOUS
 10
-38.0137970681
 20
-21.5793443309
 11
-38.0085517968
 21
-21.4755923698
  0
LINE
  5
2FE
100
AcDbEntity
  8
RACCORDO
100
AcDbLine
 62
250
  6
CONTINUOUS
 10
-21.0011540771
 20
20.2286273937
 11
-21.0267003693
 21
20.2024368699
  0
LINE
  5
2FF
100
AcDbEntity
  8
RACCORDO
100
AcDbLine
 62
250
  6
CONTINUOUS
 10
-21.0267003693
 20
20.2024368699
 11
-21.0753418563
 21
20.1531896548
  0
LINE
  5
300
100
AcDbEntity
  8
RACCORDO
100
AcDbLine
 62
250
  6
CONTINUOUS
 10
-21.0753418563
 20
20.1531896548
 11
-21.1112480705
 21
20.1171572875
  0
LINE
  5
301
100
AcDbEntity
  8
DRAFT
100
AcDbLine
 62
7
  6
CONTINUOUS
 10
-28.2311034351
 20
12.8836351166
 11
-28.6147385517
 21
12.5
  0
LWPOLYLINE
  5
302
100
AcDbEntity
  8
RACCORDO
100
AcDbPolyline
 62
250
  6
CONTINUOUS
 90
4
 70
0
 10
-28.9147385517
 20
-7.3240686345
 10
-28.9128988517
 20
-7.3238283535
 10
-28.9074136555
 20
-7.3235806609
 10
-28.8983839595
 20
-7.3233255567
  0
LINE
  5
303
100
AcDbEntity
  8
RACCORDO
100
AcDbLine
 62
250
  6
CONTINUOUS
 10
-28.8983839595
 20
-7.3233255567
 11
-28.8704190453
 21
-7.3227832983
  0
LINE
  5
304
100
AcDbEntity
  8
RACCORDO
100
AcDbLine
 62
250
  6
CONTINUOUS
 10
-28.8704190453
 20
-7.3227832983
 11
-28.8079531113
 21
-7.3220124758
  0
LINE
  5
305
100
AcDbEntity
  8
RACCORDO
100
AcDbLine
 62
7
  6
CONTINUOUS
 10
-29.9147385517
 20
-7.5310577445
 11
-27.7129932446
 21
-7.5118434042
  0
LINE
  5
306
100
AcDbEntity
  8
RACCORDO
100
AcDbLine
 62
250
  6
CONTINUOUS
 10
-28.8079531113
 20
-7.3220124758
 11
-27.7121325087
 21
-7.31242523
  0
LINE
  5
307
100
AcDbEntity
  8
RACCORDO
100
AcDbLine
 62
250
  6
CONTINUOUS
 10
-29.9147385517
 20
-7.0310387053
 11
-29.1147385517
 21
-7.024057211
  0
LINE
  5
308
100
AcDbEntity
  8
RACCORDO
100
AcDbLine
 62
250
  6
CONTINUOUS
 10
-27.7121325087
 20
-7.31242523
 11
-27.5147385517
 21
-7.3118510196
  0
LINE
  5
309
100
AcDbEntity
  8
RACCORDO
100
AcDbLine
 62
250
  6
CONTINUOUS
 10
-28.9147385517
 20
-7.024057211
 11
-29.1147385517
 21
-7.0240572111
  0
LINE
  5
30A
100
AcDbEntity
  8
RACCORDO
100
AcDbLine
 62
7
  6
CONTINUOUS
 10
-27.5147385517
 20
-6.6898867382
 11
-28.9147385517
 21
-6.6776691233
  0
LINE
  5
30B
100
AcDbEntity
  8
RACCORDO
100
AcDbLine
 62
250
  6
CONTINUOUS
 10
-21.1112480705
 20
-20.1171572875
 11
-21.0581439973
 21
-20.1705357589
  0
LINE
  5
30C
100
AcDbEntity
  8
RACCORDO
100
AcDbLine
 62
250
  6
CONTINUOUS
 10
-21.0581439973
 20
-20.1705357589
 11
-21.0267003693
 21
-20.2024368699
  0
LWPOLYLINE
  5
30D
100
AcDbEntity
  8
RACCORDO
100
AcDbPolyline
 62
250
  6
CONTINUOUS
 90
7
 70
0
 10
-21.0267003693
 20
-20.2024368699
 10
-21.0011540771
 20
-20.2286273937
 10
-20.9911692242
 20
-20.2389909837
 10
-20.9832818591
 20
-20.2472862956
 10
-20.9776233588
 20
-20.2533749129
 10
-20.9742841425
 20
-20.257159202
 10
-20.9733171955
 20
-20.2585786438
  0
LWPOLYLINE
  5
30E
100
AcDbEntity
  8
RACCORDO
100
AcDbPolyline
 62
250
  6
CONTINUOUS
 90
6
 70
0
 10
-20.9733171955
 20
20.2585786438
 10
-20.9742841425
 20
20.257159202
 10
-20.9776233588
 20
20.2533749129
 10
-20.9832818591
 20
20.2472862956
 10
-20.9911692242
 20
20.2389909837
 10
-21.0011540771
 20
20.2286273937
  0
LINE
  5
30F
100
AcDbEntity
  8
RACCORDO
100
AcDbLine
 62
7
  6
CONTINUOUS
 10
-27.8121205911
 20
-4.6872915245
 11
-28.9147385517
 21
-4.6776691233
  0
LWPOLYLINE
  5
310
100
AcDbEntity
  8
0
100
AcDbPolyline
 62
7
  6
CONTINUOUS
 90
4
 70
0
 43
0.3500000006
 10
-32.4147384338
 20
42.6785724792
 10
-32.4147384338
 20
43.5357149506
 10
-31.9861671982
 20
43.9642839203
 10
-31.3433092117
 20
43.9642839203
  0
LINE
  5
311
100
AcDbEntity
  8
RACCORDO
100
AcDbLine
 62
250
  6
CONTINUOUS
 10
-29.1147385517
 20
-7.024057211
 11
-29.1129932446
 21
-7.5240610192
  0
LINE
  5
312
100
AcDbEntity
  8
0
100
AcDbLine
 62
7
  6
CONTINUOUS
 10
-29.9147385517
 20
22.4
 11
-29.9147385517
 21
-22.4
  0
LINE
  5
313
100
AcDbEntity
  8
DRAFT
100
AcDbLine
 62
7
  6
CONTINUOUS
 10
-29.9147385517
 20
-22.4
 11
-29.9147385517
 21
-23.5
  0
LINE
  5
314
100
AcDbEntity
  8
DRAFT
100
AcDbLine
 62
7
  6
CONTINUOUS
 10
-29.9147385517
 20
22.4
 11
-29.9147385517
 21
23.5
  0
LINE
  5
315
100
AcDbEntity
  8
RACCORDO
100
AcDbLine
 62
250
  6
CONTINUOUS
 10
-29.1147385517
 20
13.224057211
 11
-29.1147385517
 21
-7.024057211
  0
LINE
  5
316
100
AcDbEntity
  8
RACCORDO
100
AcDbLine
 62
7
  6
CONTINUOUS
 10
-28.9147385517
 20
13.5240686345
 11
-28.9147385517
 21
-7.3240686345
  0
LINE
  5
317
100
AcDbEntity
  8
RACCORDO
100
AcDbLine
 62
250
  6
CONTINUOUS
 10
-28.7831425804
 20
13.5217717933
 11
-28.7831425804
 21
12.878817544
  0
LINE
  5
318
100
AcDbEntity
  8
RACCORDO
100
AcDbLine
 62
250
  6
CONTINUOUS
 10
-28.7831425804
 20
9.421182456
 11
-28.7831425804
 21
8.578817544
  0
LINE
  5
319
100
AcDbEntity
  8
RACCORDO
100
AcDbLine
 62
250
  6
CONTINUOUS
 10
-28.7831425804
 20
1.721182456
 11
-28.7831425804
 21
0.878817544
  0
LINE
  5
31A
100
AcDbEntity
  8
RACCORDO
100
AcDbLine
 62
250
  6
CONTINUOUS
 10
-28.7831425804
 20
-6.678817544
 11
-28.7831425804
 21
-7.3217717933
  0
LINE
  5
31B
100
AcDbEntity
  8
RACCORDO
100
AcDbLine
 62
250
  6
CONTINUOUS
 10
-29.1129932446
 20
13.7240610192
 11
-29.1147385517
 21
13.224057211
  0
LWPOLYLINE
  5
31C
100
AcDbEntity
  8
RACCORDO
100
AcDbPolyline
 62
250
  6
CONTINUOUS
 90
9
 70
0
 10
-28.7831491745
 20
-7.3217718508
 10
-28.7843246811
 20
-7.3388570855
 10
-28.7879324126
 20
-7.3559413772
 10
-28.793977268
 20
-7.3728949665
 10
-28.8025008637
 20
-7.3896005872
 10
-28.8134602932
 20
-7.4059072391
 10
-28.8267234993
 20
-7.4216366059
 10
-28.8423822461
 20
-7.4366786299
 10
-28.8603105808
 20
-7.4508877231
  0
LINE
  5
31D
100
AcDbEntity
  8
RACCORDO
100
AcDbLine
 62
7
  6
CONTINUOUS
 10
-27.5147385517
 20
0.8898867382
 11
-28.9147385517
 21
0.8776691233
  0
LINE
  5
31E
100
AcDbEntity
  8
RACCORDO
100
AcDbLine
 62
7
  6
CONTINUOUS
 10
-27.5147385517
 20
1.7101132618
 11
-28.9147385517
 21
1.7223308767
  0
LWPOLYLINE
  5
31F
100
AcDbEntity
  8
RACCORDO
100
AcDbPolyline
 62
250
  6
CONTINUOUS
 90
4
 70
0
 10
-27.7121325087
 20
13.51242523
 10
-27.7125147154
 20
13.5384802728
 10
-27.7140563819
 20
13.5640911968
 10
-27.7167312299
 20
13.5888214533
  0
LINE
  5
320
100
AcDbEntity
  8
RACCORDO
100
AcDbLine
 62
250
  6
CONTINUOUS
 10
-27.7121325087
 20
13.51242523
 11
-27.7121325087
 21
12.8881641073
  0
LINE
  5
321
100
AcDbEntity
  8
RACCORDO
100
AcDbLine
 62
250
  6
CONTINUOUS
 10
-27.7121325087
 20
9.4118358927
 11
-27.7121325087
 21
8.5881641073
  0
LINE
  5
322
100
AcDbEntity
  8
RACCORDO
100
AcDbLine
 62
250
  6
CONTINUOUS
 10
-27.7121325087
 20
1.7118358927
 11
-27.7121325087
 21
0.8881641073
  0
LINE
  5
323
100
AcDbEntity
  8
RACCORDO
100
AcDbLine
 62
250
  6
CONTINUOUS
 10
-27.7121325087
 20
-6.6881641073
 11
-27.7121325087
 21
-7.31242523
  0
LINE
  5
324
100
AcDbEntity
  8
RACCORDO
100
AcDbLine
 62
7
  6
CONTINUOUS
 10
-27.5147385517
 20
15.1101132618
 11
-27.5147385517
 21
12.8898867382
  0
LINE
  5
325
100
AcDbEntity
  8
RACCORDO
100
AcDbLine
 62
7
  6
CONTINUOUS
 10
-27.5147385517
 20
9.4101132618
 11
-27.5147385517
 21
8.5898867382
  0
LINE
  5
326
100
AcDbEntity
  8
RACCORDO
100
AcDbLine
 62
7
  6
CONTINUOUS
 10
-27.5147385517
 20
1.7101132618
 11
-27.5147385517
 21
0.8898867382
  0
LINE
  5
327
100
AcDbEntity
  8
RACCORDO
100
AcDbLine
 62
7
  6
CONTINUOUS
 10
-27.5147385517
 20
-9.5101132618
 11
-27.5147385517
 21
-4.9872801014
  0
LWPOLYLINE
  5
328
100
AcDbEntity
  8
RACCORDO
100
AcDbPolyline
 62
250
  6
CONTINUOUS
 90
4
 70
0
 10
-27.7121325087
 20
-7.31242523
 10
-27.7125147171
 20
-7.3384803371
 10
-27.7140563902
 20
-7.3640913121
 10
-27.7167312482
 20
-7.3888216045
  0
LWPOLYLINE
  5
329
100
AcDbEntity
  8
RACCORDO
100
AcDbPolyline
 62
250
  6
CONTINUOUS
 90
10
 70
0
 10
-27.7167312482
 20
-7.3888216045
 10
-27.7204936958
 20
-7.4122496774
 10
-27.7252795989
 20
-7.4339761889
 10
-27.7310073776
 20
-7.4536308
 10
-27.7375793973
 20
-7.4708784917
 10
-27.7448836342
 20
-7.4854252767
 10
-27.7527955849
 20
-7.4970232056
 10
-27.7611803868
 20
-7.5054745919
 10
-27.7698951172
 20
-7.5106353825
 10
-27.7787912303
 20
-7.5124176146
  0
LINE
  5
32A
100
AcDbEntity
  8
DRAFT
100
AcDbLine
 62
7
  6
CONTINUOUS
 10
-25.9147385517
 20
23.4301797403
 11
-25.9147385517
 21
21.2
  0
LINE
  5
32B
100
AcDbEntity
  8
DRAFT
100
AcDbLine
 62
7
  6
CONTINUOUS
 10
-25.9147385517
 20
-21.2
 11
-25.9147385517
 21
-23.4301797403
  0
LWPOLYLINE
  5
32C
100
AcDbEntity
  8
RACCORDO
100
AcDbPolyline
 62
250
  6
CONTINUOUS
 90
8
 70
0
 10
-21.4147385517
 20
18.5
 10
-21.414282952
 20
18.5017110277
 10
-21.4138351478
 20
18.5068148348
 10
-21.4134028013
 20
18.5152240935
 10
-21.4129933101
 20
18.5267949193
 10
-21.4126136805
 20
18.541329332
 10
-21.4122704082
 20
18.5585786439
 10
-21.411715706
 20
18.6000000001
  0
LWPOLYLINE
  5
32D
100
AcDbEntity
  8
RACCORDO
100
AcDbPolyline
 62
250
  6
CONTINUOUS
 90
10
 70
0
 10
-27.7167312299
 20
13.5888214533
 10
-27.7204936654
 20
13.6122495048
 10
-27.7252795563
 20
13.6339760108
 10
-27.731007325
 20
13.6536306339
 10
-27.7375793394
 20
13.6708783531
 10
-27.7448835769
 20
13.685425174
 10
-27.7527955337
 20
13.69702314
 10
-27.7611803472
 20
13.7054745591
 10
-27.7698950949
 20
13.7106353733
 10
-27.7787912303
 20
13.7124176146
  0
LINE
  5
32E
100
AcDbEntity
  8
DRAFT
100
AcDbLine
 62
7
  6
CONTINUOUS
 10
-24.3147385517
 20
-21.2
 11
-24.3147385517
 21
-22.4
  0
LINE
  5
32F
100
AcDbEntity
  8
DRAFT
100
AcDbLine
 62
7
  6
CONTINUOUS
 10
-24.3147385517
 20
21.2
 11
-24.3147385517
 21
22.4
  0
LWPOLYLINE
  5
330
100
AcDbEntity
  8
RACCORDO
100
AcDbPolyline
 62
7
  6
CONTINUOUS
 90
5
 70
0
 10
-25.648611545
 20
-18.5271341059
 10
-25.6474857245
 20
-18.5154532061
 10
-25.6468284467
 20
-18.5069324742
 10
-25.6465989119
 20
-18.5017443099
 10
-25.6467893593
 20
-18.5
  0
LWPOLYLINE
  5
331
100
AcDbEntity
  8
RACCORDO
100
AcDbPolyline
 62
7
  6
CONTINUOUS
 90
3
 70
0
 10
-25.654381335
 20
-18.5787914426
 10
-25.6520953625
 20
-18.5590737083
 10
-25.648611545
 20
-18.5271341059
  0
LWPOLYLINE
  5
332
100
AcDbEntity
  8
RACCORDO
100
AcDbPolyline
 62
7
  6
CONTINUOUS
 90
4
 70
0
 10
-25.6696293775
 20
-18.7
 10
-25.6661608614
 20
-18.6741235681
 10
-25.6629133587
 20
-18.6486379494
 10
-25.654381335
 20
-18.5787914426
  0
LWPOLYLINE
  5
333
100
AcDbEntity
  8
RACCORDO
100
AcDbPolyline
 62
250
  6
CONTINUOUS
 90
11
 70
0
 10
-28.8603105808
 20
-7.4508877231
 10
-28.8800315587
 20
-7.464060468
 10
-28.9014853331
 20
-7.476069837
 10
-28.9246578459
 20
-7.4868749523
 10
-28.9491316952
 20
-7.4964249896
 10
-28.9750095928
 20
-7.5046830466
 10
-29.0021115569
 20
-7.5115409322
 10
-29.0295888955
 20
-7.516892923
 10
-29.057124262
 20
-7.5207352835
 10
-29.0849396663
 20
-7.5231135631
 10
-29.1129913121
 20
-7.5240610023
  0
LINE
  5
334
100
AcDbEntity
  8
RACCORDO
100
AcDbLine
 62
7
  6
CONTINUOUS
 10
-25.6696293775
 20
18.7
 11
-25.6598644387
 21
18.6238056948
  0
LINE
  5
335
100
AcDbEntity
  8
RACCORDO
100
AcDbLine
 62
7
  6
CONTINUOUS
 10
-25.6598644387
 20
18.6238056948
 11
-25.6569661612
 21
18.6004322166
  0
LWPOLYLINE
  5
336
100
AcDbEntity
  8
RACCORDO
100
AcDbPolyline
 62
7
  6
CONTINUOUS
 90
8
 70
0
 10
-25.6569661612
 20
18.6004322166
 10
-25.6520953608
 20
18.5590736936
 10
-25.6501397352
 20
18.5417887896
 10
-25.6486162326
 20
18.5271768639
 10
-25.6474921683
 20
18.5155248943
 10
-25.6467802739
 20
18.5070349419
 10
-25.6465410288
 20
18.5018319132
 10
-25.6467893593
 20
18.5
  0
LWPOLYLINE
  5
337
100
AcDbEntity
  8
RACCORDO
100
AcDbPolyline
 62
250
  6
CONTINUOUS
 90
7
 70
0
 10
-21.4122704089
 20
-18.5585786438
 10
-21.4126136815
 20
-18.5413293319
 10
-21.4129933113
 20
-18.5267949192
 10
-21.4134028026
 20
-18.5152240935
 10
-21.4138351489
 20
-18.5068148347
 10
-21.4142829526
 20
-18.5017110277
 10
-21.4147385517
 20
-18.5
  0
LINE
  5
338
100
AcDbEntity
  8
RACCORDO
100
AcDbLine
 62
250
  6
CONTINUOUS
 10
-21.4117157063
 20
-18.6
 11
-21.4122704089
 21
-18.5585786438
  0
LINE
  5
339
100
AcDbEntity
  8
RACCORDO
100
AcDbLine
 62
250
  6
CONTINUOUS
 10
-21.4113670057
 20
-18.648236191
 11
-21.4117157063
 21
-18.6
  0
LINE
  5
33A
100
AcDbEntity
  8
RACCORDO
100
AcDbLine
 62
250
  6
CONTINUOUS
 10
-21.411715706
 20
18.6000000001
 11
-21.4113670056
 21
18.648236191
  0
LWPOLYLINE
  5
33B
100
AcDbEntity
  8
RACCORDO
100
AcDbPolyline
 62
250
  6
CONTINUOUS
 90
19
 70
0
 10
-21.1112480705
 20
19.0
 10
-21.1119305383
 20
18.9760805096
 10
-21.1148797786
 20
18.9519757534
 10
-21.1200957913
 20
18.9276857314
 10
-21.127566278
 20
18.9028544578
 10
-21.1373035371
 20
18.8778379184
 10
-21.1493444638
 20
18.8537040704
 10
-21.1638714745
 20
18.8305034352
 10
-21.1807021527
 20
18.8081854913
 10
-21.1993261446
 20
18.7876666316
 10
-21.219884151
 20
18.7690824558
 10
-21.2422354711
 20
18.7522973642
 10
-21.2654476485
 20
18.73782095
 10
-21.2895685954
 20
18.7258402582
 10
-21.3145503997
 20
18.7161682438
 10
-21.3393168686
 20
18.708753365
 10
-21.3635092712
 20
18.7035784411
 10
-21.3874863385
 20
18.7006606528
 10
-21.4112480705
 20
18.7
  0
LINE
  5
33C
100
AcDbEntity
  8
RACCORDO
100
AcDbLine
 62
7
  6
CONTINUOUS
 10
-27.5147385517
 20
8.5898867382
 11
-28.9147385517
 21
8.5776691233
  0
LWPOLYLINE
  5
33D
100
AcDbEntity
  8
RACCORDO
100
AcDbPolyline
 62
250
  6
CONTINUOUS
 90
19
 70
0
 10
-21.1112480705
 20
-19.0
 10
-21.1117145247
 20
-18.9775145438
 10
-21.1143924144
 20
-18.9545276424
 10
-21.1192817396
 20
-18.9310392956
 10
-21.1263225396
 20
-18.9066510269
 10
-21.1355747751
 20
-18.8817613128
 10
-21.1472183277
 20
-18.8575655831
 10
-21.1614699789
 20
-18.8341069364
 10
-21.1781129473
 20
-18.8113422741
 10
-21.19667677
 20
-18.7903377297
 10
-21.2173471002
 20
-18.7712404068
 10
-21.2399382847
 20
-18.7539032018
 10
-21.2634229014
 20
-18.7389509379
 10
-21.2878210601
 20
-18.7266130286
 10
-21.3131126511
 20
-18.7166600603
 10
-21.3382099228
 20
-18.709028615
 10
-21.3627502914
 20
-18.7036975536
 10
-21.3870963406
 20
-18.7006880153
 10
-21.4112480705
 20
-18.7
  0
LINE
  5
33E
100
AcDbEntity
  8
RACCORDO
100
AcDbLine
 62
250
  6
CONTINUOUS
 10
-21.4112480705
 20
-18.7
 11
-21.4113670057
 21
-18.648236191
  0
LINE
  5
33F
100
AcDbEntity
  8
RACCORDO
100
AcDbLine
 62
250
  6
CONTINUOUS
 10
-21.1112480705
 20
20.1171572875
 11
-21.1112480705
 21
19.0
  0
LINE
  5
340
100
AcDbEntity
  8
RACCORDO
100
AcDbLine
 62
250
  6
CONTINUOUS
 10
-21.1112480705
 20
-20.1171572875
 11
-21.1112480705
 21
-19.0
  0
LINE
  5
341
100
AcDbEntity
  8
RACCORDO
100
AcDbLine
 62
7
  6
CONTINUOUS
 10
-20.9147385517
 20
20.1171572875
 11
-20.9147385517
 21
19.0
  0
LINE
  5
342
100
AcDbEntity
  8
RACCORDO
100
AcDbLine
 62
7
  6
CONTINUOUS
 10
-20.9147385517
 20
-20.1171572875
 11
-20.9147385517
 21
-19.0
  0
LINE
  5
343
100
AcDbEntity
  8
RACCORDO
100
AcDbLine
 62
250
  6
CONTINUOUS
 10
-21.4113670056
 20
18.648236191
 11
-21.4112480705
 21
18.7
  0
LINE
  5
344
100
AcDbEntity
  8
RACCORDO
100
AcDbLine
 62
250
  6
CONTINUOUS
 10
-29.9147385517
 20
-9.7517699196
 11
-29.2934400393
 21
-9.5256357545
  0
LINE
  5
345
100
AcDbEntity
  8
RACCORDO
100
AcDbLine
 62
7
  6
CONTINUOUS
 10
-29.9147385517
 20
-9.9639702343
 11
-28.6961021727
 21
-9.5204228659
  0
LINE
  5
346
100
AcDbEntity
  8
RACCORDO
100
AcDbLine
 62
7
  6
CONTINUOUS
 10
-27.5147385517
 20
9.4101132618
 11
-28.9147385517
 21
9.4223308767
  0
LWPOLYLINE
  5
347
100
AcDbEntity
  8
RACCORDO
100
AcDbPolyline
 62
250
  6
CONTINUOUS
 90
9
 70
0
 10
-28.860722225
 20
13.6511846125
 10
-28.8426958837
 20
13.6369511514
 10
-28.8269513174
 20
13.621879036
 10
-28.8136206269
 20
13.6061198998
 10
-28.8026057444
 20
13.589780647
 10
-28.7940381733
 20
13.5730369591
 10
-28.7879609354
 20
13.5560394111
 10
-28.7843328434
 20
13.5389074436
 10
-28.7831491745
 20
13.5217718508
  0
LINE
  5
348
100
AcDbEntity
  8
RACCORDO
100
AcDbLine
 62
7
  6
CONTINUOUS
 10
-27.5147385517
 20
12.8898867382
 11
-28.9147385517
 21
12.8776691233
  0
LINE
  5
349
100
AcDbEntity
  8
0
100
AcDbLine
 62
7
  6
CONTINUOUS
 10
-28.6147385517
 20
12.5
 11
-28.9147385517
 21
12.5
  0
LINE
  5
34A
100
AcDbEntity
  8
RACCORDO
100
AcDbLine
 62
250
  6
CONTINUOUS
 10
-28.9147385517
 20
13.224057211
 11
-29.1147385517
 21
13.224057211
  0
LINE
  5
34B
100
AcDbEntity
  8
RACCORDO
100
AcDbLine
 62
250
  6
CONTINUOUS
 10
-27.5147385517
 20
13.5118510196
 11
-27.7121325087
 21
13.51242523
  0
LINE
  5
34C
100
AcDbEntity
  8
RACCORDO
100
AcDbLine
 62
250
  6
CONTINUOUS
 10
-29.9147385517
 20
13.2310387053
 11
-29.1147385517
 21
13.224057211
  0
LINE
  5
34D
100
AcDbEntity
  8
RACCORDO
100
AcDbLine
 62
250
  6
CONTINUOUS
 10
-28.8519868808
 20
13.5225374053
 11
-27.7121325087
 21
13.51242523
  0
LWPOLYLINE
  5
34E
100
AcDbEntity
  8
RACCORDO
100
AcDbPolyline
 62
250
  6
CONTINUOUS
 90
6
 70
0
 10
-28.9147385517
 20
13.5240686345
 10
-28.9128986322
 20
13.5238134268
 10
-28.9074127269
 20
13.5235582202
 10
-28.8983817723
 20
13.5233030147
 10
-28.8859719312
 20
13.5230478109
 10
-28.8519868808
 20
13.5225374053
  0
LINE
  5
34F
100
AcDbEntity
  8
RACCORDO
100
AcDbLine
 62
7
  6
CONTINUOUS
 10
-27.7129932446
 20
13.7118434042
 11
-29.9147385517
 21
13.7310577445
  0
LINE
  5
350
100
AcDbEntity
  8
RACCORDO
100
AcDbLine
 62
250
  6
CONTINUOUS
 10
-29.9147385517
 20
14.6310767829
 11
-27.5147385517
 21
14.6101323002
  0
LINE
  5
351
100
AcDbEntity
  8
RACCORDO
100
AcDbLine
 62
7
  6
CONTINUOUS
 10
-29.9147385517
 20
15.1310577445
 11
-27.5147385517
 21
15.1101132618
  0
LWPOLYLINE
  5
352
100
AcDbEntity
  8
RACCORDO
100
AcDbPolyline
 62
250
  6
CONTINUOUS
 90
11
 70
0
 10
-29.1129915
 20
13.7240610039
 10
-29.0850863312
 20
13.7231220537
 10
-29.0574068923
 20
13.7207663842
 10
-29.0299963674
 20
13.7169602737
 10
-29.0026474578
 20
13.7116612754
 10
-28.9756613556
 20
13.7048701743
 10
-28.9498410854
 20
13.6966748096
 10
-28.9253377729
 20
13.6871635379
 10
-28.9020809638
 20
13.6763736416
 10
-28.8805346261
 20
13.6643664568
 10
-28.860722225
 20
13.6511846125
  0
LINE
  5
353
100
AcDbEntity
  8
RACCORDO
100
AcDbLine
 62
7
  6
CONTINUOUS
 10
-29.9147385517
 20
17.3564064606
 11
-25.6467893593
 21
18.5
  0
LINE
  5
354
100
AcDbEntity
  8
RACCORDO
100
AcDbLine
 62
250
  6
CONTINUOUS
 10
-29.9147385517
 20
17.562526425
 11
-25.6696293775
 21
18.7
  0
LINE
  5
355
100
AcDbEntity
  8
RACCORDO
100
AcDbLine
 62
7
  6
CONTINUOUS
 10
-21.4147385517
 20
18.5
 11
-25.6467893593
 21
18.5
  0
LINE
  5
356
100
AcDbEntity
  8
RACCORDO
100
AcDbLine
 62
250
  6
CONTINUOUS
 10
-21.4112480705
 20
18.7
 11
-25.6696293775
 21
18.7
  0
LINE
  5
357
100
AcDbEntity
  8
RACCORDO
100
AcDbLine
 62
250
  6
CONTINUOUS
 10
-20.9147385517
 20
19.0
 11
-21.1112480705
 21
19.0
  0
LINE
  5
358
100
AcDbEntity
  8
RACCORDO
100
AcDbLine
 62
250
  6
CONTINUOUS
 10
-20.9147385517
 20
20.1171572875
 11
-21.1112480705
 21
20.1171572875
  0
LWPOLYLINE
  5
359
100
AcDbEntity
  8
0
100
AcDbPolyline
 62
7
  6
CONTINUOUS
 90
10
 70
0
 43
0.3500000006
 10
-29.4147375183
 20
42.7499991302
 10
-29.3433108673
 20
42.6071412964
 10
-29.3433108673
 20
42.5357146454
 10
-29.4861664352
 20
42.3928568115
 10
-29.5575953522
 20
42.3928568115
 10
-29.6290242691
 20
42.4642834625
 10
-29.6290242691
 20
42.5357146454
 10
-29.5575953522
 20
42.6785724792
 10
-29.4861664352
 20
42.7499991302
 10
-29.4147375183
 20
42.7499991302
  0
LWPOLYLINE
  5
35A
100
AcDbEntity
  8
RACCORDO
100
AcDbPolyline
 62
7
  6
CONTINUOUS
 90
22
 70
0
 10
-21.7242250631
 20
-21.0094865114
 10
-21.7132134345
 20
-20.9978705969
 10
-21.7034685139
 20
-20.9862689473
 10
-21.695021945
 20
-20.9746510323
 10
-21.6878097492
 20
-20.9628966875
 10
-21.6819501952
 20
-20.9510743434
 10
-21.6777436023
 20
-20.9394412215
 10
-21.6752117613
 20
-20.9279768368
 10
-21.6743638772
 20
-20.9166738754
 10
-21.6754687683
 20
-20.9058220077
 10
-21.6785618484
 20
-20.8954483435
 10
-21.683593484
 20
-20.8855434911
 10
-21.6906775976
 20
-20.8763693999
 10
-21.6998797388
 20
-20.8680202075
 10
-21.7110587115
 20
-20.8604803951
 10
-21.7239766427
 20
-20.8538879834
 10
-21.738607785
 20
-20.8484063534
 10
-21.7548378928
 20
-20.8440127591
 10
-21.7722693646
 20
-20.8405916279
 10
-21.7907212971
 20
-20.8381523097
 10
-21.8102367153
 20
-20.8368223095
 10
-21.8307536904
 20
-20.8366629075
  0
LINE
  5
35B
100
AcDbEntity
  8
RACCORDO
100
AcDbLine
 62
250
  6
CONTINUOUS
 10
-21.8307536904
 20
-20.8366629075
 11
-21.1112480705
 21
-20.1171572875
  0
LINE
  5
35C
100
AcDbEntity
  8
DRAFT
100
AcDbLine
 62
7
  6
CONTINUOUS
 10
-21.9147385517
 20
-21.2
 11
-21.8795237658
 21
-21.1647852141
  0
LINE
  5
35D
100
AcDbEntity
  8
RACCORDO
100
AcDbLine
 62
7
  6
CONTINUOUS
 10
-20.9733171955
 20
-20.2585786438
 11
-21.8795237658
 21
-21.1647852141
  0
LINE
  5
35E
100
AcDbEntity
  8
0
100
AcDbLine
 62
250
  6
CONTINUOUS
 10
-38.0085517968
 20
21.4755923698
 11
-29.9147385517
 21
21.8997711479
  0
LWPOLYLINE
  5
35F
100
AcDbEntity
  8
RACCORDO
100
AcDbPolyline
 62
7
  6
CONTINUOUS
 90
22
 70
0
 10
-21.8307536904
 20
20.8366629075
 10
-21.8107490943
 20
20.8368010859
 10
-21.7916626576
 20
20.8380636212
 10
-21.7735524754
 20
20.8403931379
 10
-21.7563780543
 20
20.8436534678
 10
-21.7403105338
 20
20.8478512967
 10
-21.725728346
 20
20.8531402184
 10
-21.7127286605
 20
20.8595243199
 10
-21.7013582678
 20
20.8668554365
 10
-21.691902145
 20
20.8750755787
 10
-21.6845007046
 20
20.8842329761
 10
-21.6791171295
 20
20.8941735842
 10
-21.6757208568
 20
20.9045842936
 10
-21.674386651
 20
20.9154684864
 10
-21.6750475887
 20
20.9268111735
 10
-21.6774182906
 20
20.9383133506
 10
-21.6814609308
 20
20.9499376597
 10
-21.6871753955
 20
20.9617560654
 10
-21.6943385317
 20
20.9736281209
 10
-21.7028763074
 20
20.9855058797
 10
-21.7128439926
 20
20.9974535597
 10
-21.7242250631
 20
21.0094865114
  0
LINE
  5
360
100
AcDbEntity
  8
DRAFT
100
AcDbLine
 62
7
  6
CONTINUOUS
 10
-21.9147385517
 20
21.2
 11
-25.9147385517
 21
21.2
  0
LINE
  5
361
100
AcDbEntity
  8
RACCORDO
100
AcDbLine
 62
7
  6
CONTINUOUS
 10
-21.8307536904
 20
20.8366629075
 11
-29.9147385517
 21
20.9
  0
LINE
  5
362
100
AcDbEntity
  8
DRAFT
100
AcDbLine
 62
7
  6
CONTINUOUS
 10
-25.9147385517
 20
21.2
 11
-21.8795237658
 21
21.1647852141
  0
LWPOLYLINE
  5
363
100
AcDbEntity
  8
0
100
AcDbPolyline
 62
250
  6
CONTINUOUS
 90
3
 70
0
 10
-38.9727511851
 20
21.0183132877
 10
-38.9700767132
 20
21.0181627949
 10
-38.4819418538
 20
20.9972959167
  0
LINE
  5
364
100
AcDbEntity
  8
RACCORDO
100
AcDbLine
 62
250
  6
CONTINUOUS
 10
-21.8307536904
 20
20.8366629075
 11
-21.1112480705
 21
20.1171572875
  0
LINE
  5
365
100
AcDbEntity
  8
DRAFT
100
AcDbLine
 62
7
  6
CONTINUOUS
 10
-21.9147385517
 20
21.2
 11
-21.8795237658
 21
21.1647852141
  0
LINE
  5
366
100
AcDbEntity
  8
RACCORDO
100
AcDbLine
 62
7
  6
CONTINUOUS
 10
-21.8795237658
 20
21.1647852141
 11
-20.9733171955
 21
20.2585786438
  0
LINE
  5
367
100
AcDbEntity
  8
DRAFT
100
AcDbLine
 62
7
  6
CONTINUOUS
 10
-23.8147385517
 20
-22.4
 11
-21.9147385517
 21
-21.2
  0
LINE
  5
368
100
AcDbEntity
  8
0
100
AcDbLine
 62
7
  6
CONTINUOUS
 10
-38.0259935717
 20
21.9749071372
 11
-29.9147385517
 21
22.4
  0
LINE
  5
369
100
AcDbEntity
  8
0
100
AcDbLine
 62
7
  6
CONTINUOUS
 10
-23.8147385517
 20
22.4
 11
-24.3147385517
 21
22.4
  0
LWPOLYLINE
  5
36A
100
AcDbEntity
  8
0
100
AcDbPolyline
 62
7
  6
CONTINUOUS
 90
8
 70
0
 43
0.3500000006
 10
-28.3433105621
 20
42.2499989777
 10
-27.4861680908
 20
42.2499989777
 10
-27.0575945892
 20
42.6785724792
 10
-27.0575945892
 20
43.5357149506
 10
-27.4861680908
 20
43.9642839203
 10
-28.3433105621
 20
43.9642839203
 10
-28.3433105621
 20
45.2499998932
 10
-27.0575945892
 20
45.2499998932
  0
LINE
  5
36B
100
AcDbEntity
  8
DRAFT
100
AcDbLine
 62
7
  6
CONTINUOUS
 10
-29.9147385517
 20
22.663166622
 11
-25.9147385517
 21
22.6298666026
  0
LINE
  5
36C
100
AcDbEntity
  8
DRAFT
100
AcDbLine
 62
7
  6
CONTINUOUS
 10
-29.9147385517
 20
23.5
 11
-25.9147385517
 21
23.4301797403
  0
LINE
  5
36D
100
AcDbEntity
  8
DRAFT
100
AcDbLine
 62
7
  6
CONTINUOUS
 10
-29.9147385517
 20
23.1799085618
 11
-27.2355002648
 21
23.1272551823
  0
LINE
  5
36E
100
AcDbEntity
  8
DRAFT
100
AcDbLine
 62
7
  6
CONTINUOUS
 10
-27.2355002648
 20
23.1272551823
 11
-25.9147385517
 21
23.0998904748
  0
LINE
  5
36F
100
AcDbEntity
  8
DRAFT
100
AcDbLine
 62
7
  6
CONTINUOUS
 10
-21.9147385517
 20
21.2
 11
-23.8147385517
 21
22.4
  0
LWPOLYLINE
  5
370
100
AcDbEntity
  8
0
100
AcDbPolyline
 62
7
  6
CONTINUOUS
 90
13
 70
0
 43
0.3500000006
 10
-31.9861671982
 20
43.9642839203
 10
-32.2718806
 20
44.178572937
 10
-32.2718806
 20
44.8214263916
 10
-31.9861671982
 20
45.2499998932
 10
-31.3433092117
 20
45.2499998932
 10
-31.0575958099
 20
44.8214263916
 10
-31.0575958099
 20
44.178572937
 10
-31.3433092117
 20
43.9642839203
 10
-30.9147379761
 20
43.5357149506
 10
-30.9147379761
 20
42.6785724792
 10
-31.3433092117
 20
42.2499989777
 10
-31.9861671982
 20
42.2499989777
 10
-32.4147384338
 20
42.6785724792
  0
ARC
  5
371
100
AcDbEntity
  8
DRAFT
100
AcDbCircle
 62
7
  6
CONTINUOUS
 10
11.25
 20
0.0
 40
28.0
100
AcDbArc
 50
233.1301023542
 51
234.0372348486
  0
ARC
  5
372
100
AcDbEntity
  8
DRAFT
100
AcDbCircle
 62
7
  6
CONTINUOUS
 10
11.25
 20
0.0
 40
28.0
100
AcDbArc
 50
235.8789063483
 51
237.0647695028
  0
ARC
  5
373
100
AcDbEntity
  8
DRAFT
100
AcDbCircle
 62
7
  6
CONTINUOUS
 10
11.25
 20
0.0
 40
28.0
100
AcDbArc
 50
122.9352304972
 51
124.1210936517
  0
ARC
  5
374
100
AcDbEntity
  8
DRAFT
100
AcDbCircle
 62
7
  6
CONTINUOUS
 10
11.25
 20
0.0
 40
28.0
100
AcDbArc
 50
125.9627651514
 51
126.8698976458
  0
ARC
  5
375
100
AcDbEntity
  8
DRAFT
100
AcDbCircle
 62
7
  6
CONTINUOUS
 10
-11.25
 20
0.0
 40
28.0
100
AcDbArc
 50
302.9352304972
 51
304.1210936517
  0
ARC
  5
376
100
AcDbEntity
  8
DRAFT
100
AcDbCircle
 62
7
  6
CONTINUOUS
 10
-11.25
 20
0.0
 40
28.0
100
AcDbArc
 50
305.9627651514
 51
306.8698976458
  0
ARC
  5
377
100
AcDbEntity
  8
DRAFT
100
AcDbCircle
 62
7
  6
CONTINUOUS
 10
-11.25
 20
0.0
 40
28.0
100
AcDbArc
 50
53.1301023542
 51
54.0372348486
  0
ARC
  5
378
100
AcDbEntity
  8
DRAFT
100
AcDbCircle
 62
7
  6
CONTINUOUS
 10
-11.25
 20
0.0
 40
28.0
100
AcDbArc
 50
55.8789063483
 51
57.0647695028
  0
ARC
  5
379
100
AcDbEntity
  8
DRAFT
100
AcDbCircle
 62
7
  6
CONTINUOUS
 10
4.95
 20
23.1
 40
0.5
100
AcDbArc
 50
170.803718421
 51
299.112422776
  0
ARC
  5
37A
100
AcDbEntity
  8
DRAFT
100
AcDbCircle
 62
7
  6
CONTINUOUS
 10
4.95
 20
-23.1
 40
0.5
100
AcDbArc
 50
60.887577224
 51
189.196281579
  0
ARC
  5
37B
100
AcDbEntity
  8
DRAFT
100
AcDbCircle
 62
7
  6
CONTINUOUS
 10
-4.95
 20
23.1
 40
0.5
100
AcDbArc
 50
240.887577224
 51
9.196281579
  0
ARC
  5
37C
100
AcDbEntity
  8
DRAFT
100
AcDbCircle
 62
7
  6
CONTINUOUS
 10
-4.95
 20
-23.1
 40
0.5
100
AcDbArc
 50
350.803718421
 51
119.112422776
  0
ARC
  5
37D
100
AcDbEntity
  8
0
100
AcDbCircle
 62
7
  6
CONTINUOUS
 10
-37.9736576154
 20
-20.9762776025
 40
1.0
100
AcDbArc
 50
182.4092313014
 51
267.0
  0
ARC
  5
37E
100
AcDbEntity
  8
RACCORDO
100
AcDbCircle
 62
7
  6
CONTINUOUS
 10
-21.4147385517
 20
-19.0
 40
0.5
100
AcDbArc
 50
0.0
 51
90.0
  0
ARC
  5
37F
100
AcDbEntity
  8
RACCORDO
100
AcDbCircle
 62
7
  6
CONTINUOUS
 10
-27.8147385517
 20
-4.9872801014
 40
0.3
100
AcDbArc
 50
0.0
 51
89.5
  0
ARC
  5
380
100
AcDbEntity
  8
RACCORDO
100
AcDbCircle
 62
7
  6
CONTINUOUS
 10
-29.1147385517
 20
-7.3240686345
 40
0.2
100
AcDbArc
 50
270.5
 51
360.0
  0
ARC
  5
381
100
AcDbEntity
  8
RACCORDO
100
AcDbCircle
 62
7
  6
CONTINUOUS
 10
-27.7147385517
 20
-7.3118510196
 40
0.2
100
AcDbArc
 50
270.5
 51
360.0
  0
ARC
  5
382
100
AcDbEntity
  8
RACCORDO
100
AcDbCircle
 62
7
  6
CONTINUOUS
 10
-21.1147385517
 20
-20.1171572875
 40
0.2
100
AcDbArc
 50
315.0
 51
360.0
  0
ARC
  5
383
100
AcDbEntity
  8
0
100
AcDbCircle
 62
7
  6
CONTINUOUS
 10
-37.9736576154
 20
20.9762776025
 40
1.0
100
AcDbArc
 50
93.0
 51
177.5907686986
  0
ARC
  5
384
100
AcDbEntity
  8
RACCORDO
100
AcDbCircle
 62
7
  6
CONTINUOUS
 10
-21.4147385517
 20
19.0
 40
0.5
100
AcDbArc
 50
270.0
 51
360.0
  0
ARC
  5
385
100
AcDbEntity
  8
RACCORDO
100
AcDbCircle
 62
7
  6
CONTINUOUS
 10
-29.1147385517
 20
13.5240680887
 40
0.2
100
AcDbArc
 50
0.0001563697
 51
89.5000013646
  0
ARC
  5
386
100
AcDbEntity
  8
RACCORDO
100
AcDbCircle
 62
7
  6
CONTINUOUS
 10
-27.7147386669
 20
13.5118510206
 40
0.2
100
AcDbArc
 50
359.9999997122
 51
89.4999670152
  0
ARC
  5
387
100
AcDbEntity
  8
RACCORDO
100
AcDbCircle
 62
7
  6
CONTINUOUS
 10
-21.1147385517
 20
20.1171572875
 40
0.2
100
AcDbArc
 50
0.0
 51
45.0
  0
ARC
  5
388
100
AcDbEntity
  8
0
100
AcDbCircle
 62
7
  6
CONTINUOUS
 10
460.5852614483
 20
-0.0
 40
500.0
100
AcDbArc
 50
177.5907686986
 51
182.4092313014
  0
ELLIPSE
  5
389
100
AcDbEntity
  8
0
100
AcDbEllipse
 62
7
  6
CONTINUOUS
 10
-6.5499885765
 20
9.5999885765
 30
0.0
 11
-0.2121481893
 21
0.2121481893
 31
0.0
 40
0.9999238505
 41
5.49782522
 42
7.0685453944
  0
ELLIPSE
  5
38A
100
AcDbEntity
  8
0
100
AcDbEllipse
 62
7
  6
CONTINUOUS
 10
6.5499885765
 20
9.5999885765
 30
0.0
 11
0.2121481893
 21
0.2121481893
 31
0.0
 40
0.9999238505
 41
5.49782522
 42
7.0685453944
  0
ELLIPSE
  5
38B
100
AcDbEntity
  8
0
100
AcDbEllipse
 62
7
  6
CONTINUOUS
 10
6.5499885765
 20
-5.8999885765
 30
0.0
 11
0.2121481893
 21
-0.2121481893
 31
0.0
 40
0.9999238505
 41
5.49782522
 42
7.0685453944
  0
ELLIPSE
  5
38C
100
AcDbEntity
  8
0
100
AcDbEllipse
 62
7
  6
CONTINUOUS
 10
-6.5499885765
 20
-5.8999885765
 30
0.0
 11
-0.2121481893
 21
-0.2121481893
 31
0.0
 40
0.9999238505
 41
5.49782522
 42
7.0685453944
  0
ELLIPSE
  5
38D
100
AcDbEntity
  8
0
100
AcDbEllipse
 62
7
  6
CONTINUOUS
 10
10.649923836
 20
-21.899313827
 30
0.0
 11
-0.1582391023
 21
0.4751033573
 31
0.0
 40
0.9984778551
 41
-3.4626430041
 42
-1.8927600658
  0
ELLIPSE
  5
38E
100
AcDbEntity
  8
0
100
AcDbEllipse
 62
7
  6
CONTINUOUS
 10
10.649923836
 20
21.899313827
 30
0.0
 11
0.1582391023
 21
0.4751033573
 31
0.0
 40
0.9984778551
 41
-1.2488325878
 42
0.3210503505
  0
ELLIPSE
  5
38F
100
AcDbEntity
  8
0
100
AcDbEllipse
 62
7
  6
CONTINUOUS
 10
-10.649923836
 20
-21.899313827
 30
0.0
 11
0.1582391023
 21
0.4751033573
 31
0.0
 40
0.9984778551
 41
-4.3904252414
 42
-2.8205423031
  0
ELLIPSE
  5
390
100
AcDbEntity
  8
0
100
AcDbEllipse
 62
7
  6
CONTINUOUS
 10
-10.649923836
 20
21.899313827
 30
0.0
 11
-0.1582391023
 21
0.4751033573
 31
0.0
 40
0.9984778551
 41
-0.3210503505
 42
1.2488325878
  0
ENDSEC
  0
SECTION
  2
OBJECTS
  0
DICTIONARY
  5
C
100
AcDbDictionary
280
0
281
1
  3
ACAD_GROUP
350
D
  3
ACAD_MLINESTYLE
350
17
  3
ACAD_LAYOUT
350
1A
  3
ACAD_PLOTSETTINGS
350
19
  3
ACAD_PLOTSTYLENAME
350
E
  0
DICTIONARY
  5
D
102
{ACAD_REACTORS
330
C
102
}
100
AcDbDictionary
280
0
281
1
  0
ACDBDICTIONARYWDFLT
  5
E
102
{ACAD_REACTORS
330
C
102
}
100
AcDbDictionary
281
1
  3
Normal
350
F
100
AcDbDictionaryWithDefault
340
F
  0
DICTIONARY
  5
17
102
{ACAD_REACTORS
330
C
102
}
100
AcDbDictionary
280
0
281
1
  3
Standard
350
18
  0
DICTIONARY
  5
19
102
{ACAD_REACTORS
330
C
102
}
100
AcDbDictionary
281
1
  0
DICTIONARY
  5
1A
102
{ACAD_REACTORS
330
C
102
}
100
AcDbDictionary
281
1
  3
Model
350
391
  3
Layout1
350
392
  0
ACDBPLACEHOLDER
  5
F
102
{ACAD_REACTORS
330
E
102
}
  0
MLINESTYLE
  5
18
102
{ACAD_REACTORS
330
17
102
}
100
AcDbMlineStyle
  2
STANDARD
 70
0
  3

 62
256
 51
90.0
 52
90.0
 71
2
 49
0.5
 62
256
  6
BYLAYER
 49
-0.5
 62
256
  6
BYLAYER
  0
LAYOUT
  5
391
102
{ACAD_REACTORS
330
1A
102
}
100
AcDbPlotSettings
  1

  2
none_device
  4
ISO_A4_(297.00_x_210.00_MM)
  6

 40
0.0
 41
0.0
 42
0.0
 43
0.0
 44
297.0
 45
210.0
 46
0.0
 47
0.0
 48
0.0
 49
0.0
140
0.0
141
0.0
142
1.0
143
1.0
 70
1024
 72
1
 73
0
 74
0
  7

 75
0
147
1.0
148
0.0
149
0.0
100
AcDbLayout
  1
Model
 70
0
 71
0
 10
0.0
 20
0.0
 11
297.0
 21
210.0
 12
0.0
 22
0.0
 32
0.0
 14
0.0
 24
0.0
 34
0.0
 15
0.0
 25
0.0
 35
0.0
146
0.0
 13
0.0
 23
0.0
 33
0.0
 16
1.0
 26
0.0
 36
0.0
 17
0.0
 27
1.0
 37
0.0
 76
0
330
211
345
0
346
0
  0
LAYOUT
  5
392
102
{ACAD_REACTORS
330
1A
102
}
100
AcDbPlotSettings
  1

  2
none_device
  4
ISO_A4_(297.00_x_210.00_MM)
  6

 40
0.0
 41
0.0
 42
0.0
 43
0.0
 44
297.0
 45
210.0
 46
0.0
 47
0.0
 48
0.0
 49
0.0
140
0.0
141
0.0
142
1.0
143
1.0
 70
0
 72
1
 73
0
 74
0
  7

 75
0
147
1.0
148
0.0
149
0.0
100
AcDbLayout
  1
Layout1
 70
0
 71
1
 10
0.0
 20
0.0
 11
297.0
 21
210.0
 12
0.0
 22
0.0
 32
0.0
 14
0.0
 24
0.0
 34
0.0
 15
0.0
 25
0.0
 35
0.0
146
0.0
 13
0.0
 23
0.0
 33
0.0
 16
1.0
 26
0.0
 36
0.0
 17
0.0
 27
1.0
 37
0.0
 76
0
330
212
345
0
346
0
  0
ENDSEC
  0
EOF
