  0
SECTION
  2
HEADER
  9
$ACADVER
  1
AC1024
  9
$DWGCODEPAGE
  3
ANSI_1252
  9
$EXTMAX
 10
297.0
 20
210.0
 30
0.0
  9
$EXTMIN
 10
0.0
 20
0.0
 30
0.0
  9
$LIMMIN
 10
0.0
 20
0.0
  9
$LIMMAX
 10
297.0
 20
210.0
  9
$VIEWCTR
 10
148.5
 20
105.0
  9
$VIEWSIZE
 40
210.0
  9
$CLAYER
  8
0
  9
$LTSCALE
 40
16.335
  9
$CELTYPE
  6
BYLAYER
  9
$DIMSCALE
 40
1.0
  9
$DIMASZ
 40
3.0
  9
$DIMEXO
 40
0.5
  9
$DIMDLI
 40
11.286
  9
$DIMEXE
 40
1.5
  9
$DIMCEN
 40
2.673
  9
$DIMLFAC
 40
1.0
  9
$DIMBLK
  1
_FILLED
  9
$DIMALT
 70
0
  9
$DIMALTF
 40
0.0393700787
  9
$DIMTXT
 40
3.0
  9
$DIMTOL
 70
1
  9
$DIMLIM
 70
0
  9
$DIMTFAC
 40
1.0
  9
$DIMTP
 40
0.01
  9
$DIMTM
 40
0.01
  9
$DIMGAP
 40
0.625
  9
$DIMDSEP
 70
44
  9
$AUNITS
 70
0
  9
$PDMODE
 70
3
  9
$PDSIZE
 40
3.0
  9
$HANDSEED
  5
613
  9
$TILEMODE
 70
1
  9
$MEASUREMENT
 70
1
  9
$INSUNITS
 70
4
  0
ENDSEC
  0
SECTION
  2
CLASSES
  0
CLASS
  1
ACDBDICTIONARYWDFLT
  2
AcDbDictionaryWithDefault
  3
AutoCAD 2000
 90
0
 91
1
280
0
281
0
  0
CLASS
  1
ACDBPLACEHOLDER
  2
AcDbPlaceHolder
  3
AutoCAD 2000
 90
0
 91
1
280
0
281
0
  0
CLASS
  1
LAYOUT
  2
AcDbLayout
  3
AutoCAD 2000
 90
0
 91
0
280
0
281
0
  0
ENDSEC
  0
SECTION
  2
TABLES
  0
TABLE
  2
VPORT
  5
8
100
AcDbSymbolTable
 70
2
  0
VPORT
  5
1F4
100
AcDbSymbolTableRecord
100
AcDbViewportTableRecord
  2
*ACTIVE
 70
0
 10
0.0
 20
0.0
 11
1.0
 21
1.0
 12
148.5
 22
105.0
 13
0.0
 23
0.0
 14
1.0
 24
1.0
 15
0.0
 25
0.0
 16
0.0
 26
0.0
 36
1.0
 17
0.0
 27
0.0
 37
0.0
 40
210.0
 41
1.4142857143
 42
50.0
 43
0.0
 44
0.0
 50
0.0
 51
0.0
 71
0
 72
100
 73
1
 74
1
 75
0
 76
0
 77
0
 78
0
  0
ENDTAB
  0
TABLE
  2
LTYPE
  5
5
100
AcDbSymbolTable
 70
6
  0
LTYPE
  5
14
100
AcDbSymbolTableRecord
100
AcDbLinetypeTableRecord
  2
BYBLOCK
 70
0
  3

 72
65
 73
0
 40
0.0
  0
LTYPE
  5
15
100
AcDbSymbolTableRecord
100
AcDbLinetypeTableRecord
  2
BYLAYER
 70
0
  3

 72
65
 73
0
 40
0.0
  0
LTYPE
  5
16
100
AcDbSymbolTableRecord
100
AcDbLinetypeTableRecord
  2
CONTINUOUS
 70
64
  3
Solid line
 72
65
 73
0
 40
0.0
  0
LTYPE
  5
1F5
100
AcDbSymbolTableRecord
100
AcDbLinetypeTableRecord
  2
CENTER
 70
64
  3
____ _ ____ _ ____ _ ____ _ ____ _ ____ _ ____
 72
65
 73
4
 40
0.6
 49
0.375
 74
0
 49
-0.075
 74
0
 49
0.075
 74
0
 49
-0.075
 74
0
  0
LTYPE
  5
1F6
100
AcDbSymbolTableRecord
100
AcDbLinetypeTableRecord
  2
HIDDEN
 70
64
  3
- - - - - - - - - - - - - - - - - - - -
 72
65
 73
2
 40
0.2
 49
0.1
 74
0
 49
-0.1
 74
0
  0
LTYPE
  5
1F7
100
AcDbSymbolTableRecord
100
AcDbLinetypeTableRecord
  2
PHANTOM
 70
64
  3
_____ _ _ _____ _ _ _____ _ _ _____
 72
65
 73
6
 40
0.8
 49
0.45
 74
0
 49
-0.05
 74
0
 49
0.1
 74
0
 49
-0.05
 74
0
 49
0.1
 74
0
 49
-0.05
 74
0
  0
LTYPE
  5
1F8
100
AcDbSymbolTableRecord
100
AcDbLinetypeTableRecord
  2
DOT
 70
64
  3
. . . . . . . . . . . . . . . . . . . .
 72
65
 73
2
 40
0.2
 49
0.1
 74
0
 49
-0.1
 74
0
  0
LTYPE
  5
1F9
100
AcDbSymbolTableRecord
100
AcDbLinetypeTableRecord
  2
DASHED
 70
64
  3
- - - - - - - - - - - - - - - - - - - -
 72
65
 73
2
 40
0.2
 49
0.1
 74
0
 49
-0.1
 74
0
  0
ENDTAB
  0
TABLE
  2
LAYER
  5
2
100
AcDbSymbolTable
 70
36
  0
LAYER
  5
10
100
AcDbSymbolTableRecord
100
AcDbLayerTableRecord
  2
0
 70
0
 62
7
  6
CONTINUOUS
370
-3
390
F
  0
LAYER
  5
1FA
100
AcDbSymbolTableRecord
100
AcDbLayerTableRecord
  2
DEFAULT_1
 70
0
 62
7
  6
CENTER
370
-3
390
F
  0
LAYER
  5
1FB
100
AcDbSymbolTableRecord
100
AcDbLayerTableRecord
  2
DEFAULT_2
 70
0
 62
7
  6
HIDDEN
370
-3
390
F
  0
LAYER
  5
1FC
100
AcDbSymbolTableRecord
100
AcDbLayerTableRecord
  2
DEFAULT_3
 70
0
 62
7
  6
PHANTOM
370
-3
390
F
  0
LAYER
  5
1FD
100
AcDbSymbolTableRecord
100
AcDbLayerTableRecord
  2
06___PRT_ALL_SURFS
 70
0
 62
7
  6
CONTINUOUS
370
-3
390
F
  0
LAYER
  5
1FE
100
AcDbSymbolTableRecord
100
AcDbLayerTableRecord
  2
ASSI
 70
0
 62
7
  6
CONTINUOUS
370
-3
390
F
  0
LAYER
  5
1FF
100
AcDbSymbolTableRecord
100
AcDbLayerTableRecord
  2
COLOR3
 70
0
 62
7
  6
CONTINUOUS
370
-3
390
F
  0
LAYER
  5
200
100
AcDbSymbolTableRecord
100
AcDbLayerTableRecord
  2
COLOR4
 70
0
 62
7
  6
CONTINUOUS
370
-3
390
F
  0
LAYER
  5
201
100
AcDbSymbolTableRecord
100
AcDbLayerTableRecord
  2
COLOR5
 70
0
 62
7
  6
CONTINUOUS
370
-3
390
F
  0
LAYER
  5
202
100
AcDbSymbolTableRecord
100
AcDbLayerTableRecord
  2
COORDINATE
 70
0
 62
7
  6
CONTINUOUS
370
-3
390
F
  0
LAYER
  5
203
100
AcDbSymbolTableRecord
100
AcDbLayerTableRecord
  2
COORD_ORIGINE
 70
0
 62
7
  6
CONTINUOUS
370
-3
390
F
  0
LAYER
  5
204
100
AcDbSymbolTableRecord
100
AcDbLayerTableRecord
  2
COPY_PUBLISH
 70
0
 62
7
  6
CONTINUOUS
370
-3
390
F
  0
LAYER
  5
205
100
AcDbSymbolTableRecord
100
AcDbLayerTableRecord
  2
COSMETICI
 70
0
 62
7
  6
CONTINUOUS
370
-3
390
F
  0
LAYER
  5
206
100
AcDbSymbolTableRecord
100
AcDbLayerTableRecord
  2
CURVE
 70
0
 62
7
  6
CONTINUOUS
370
-3
390
F
  0
LAYER
  5
207
100
AcDbSymbolTableRecord
100
AcDbLayerTableRecord
  2
DRAFT
 70
0
 62
7
  6
CONTINUOUS
370
-3
390
F
  0
LAYER
  5
208
100
AcDbSymbolTableRecord
100
AcDbLayerTableRecord
  2
IMPORT_FEATURES
 70
0
 62
7
  6
CONTINUOUS
370
-3
390
F
  0
LAYER
  5
209
100
AcDbSymbolTableRecord
100
AcDbLayerTableRecord
  2
IMPORT_IGES
 70
0
 62
7
  6
CONTINUOUS
370
-3
390
F
  0
LAYER
  5
20A
100
AcDbSymbolTableRecord
100
AcDbLayerTableRecord
  2
INTF_1
 70
0
 62
7
  6
CONTINUOUS
370
-3
390
F
  0
LAYER
  5
20B
100
AcDbSymbolTableRecord
100
AcDbLayerTableRecord
  2
INTF_8
 70
0
 62
7
  6
CONTINUOUS
370
-3
390
F
  0
LAYER
  5
20C
100
AcDbSymbolTableRecord
100
AcDbLayerTableRecord
  2
INTF_BLANK
 70
0
 62
7
  6
CONTINUOUS
370
-3
390
F
  0
LAYER
  5
20D
100
AcDbSymbolTableRecord
100
AcDbLayerTableRecord
  2
NOTE
 70
0
 62
7
  6
CONTINUOUS
370
-3
390
F
  0
LAYER
  5
20E
100
AcDbSymbolTableRecord
100
AcDbLayerTableRecord
  2
PIANI
 70
0
 62
7
  6
CONTINUOUS
370
-3
390
F
  0
LAYER
  5
20F
100
AcDbSymbolTableRecord
100
AcDbLayerTableRecord
  2
PIANI_ORIGINE
 70
0
 62
7
  6
CONTINUOUS
370
-3
390
F
  0
LAYER
  5
210
100
AcDbSymbolTableRecord
100
AcDbLayerTableRecord
  2
PUNTI
 70
0
 62
7
  6
CONTINUOUS
370
-3
390
F
  0
LAYER
  5
211
100
AcDbSymbolTableRecord
100
AcDbLayerTableRecord
  2
RACCORDO
 70
0
 62
7
  6
CONTINUOUS
370
-3
390
F
  0
LAYER
  5
212
100
AcDbSymbolTableRecord
100
AcDbLayerTableRecord
  2
SIMBOLI
 70
0
 62
7
  6
CONTINUOUS
370
-3
390
F
  0
LAYER
  5
213
100
AcDbSymbolTableRecord
100
AcDbLayerTableRecord
  2
SMUSSO
 70
0
 62
7
  6
CONTINUOUS
370
-3
390
F
  0
LAYER
  5
214
100
AcDbSymbolTableRecord
100
AcDbLayerTableRecord
  2
SNAPLINE
 70
0
 62
7
  6
CONTINUOUS
370
-3
390
F
  0
LAYER
  5
215
100
AcDbSymbolTableRecord
100
AcDbLayerTableRecord
  2
SUPERFICI
 70
0
 62
7
  6
CONTINUOUS
370
-3
390
F
  0
LAYER
  5
216
100
AcDbSymbolTableRecord
100
AcDbLayerTableRecord
  2
TRASH
 70
0
 62
7
  6
CONTINUOUS
370
-3
390
F
  0
LAYER
  5
217
100
AcDbSymbolTableRecord
100
AcDbLayerTableRecord
  2
XSEC_DATUMS
 70
0
 62
7
  6
CONTINUOUS
370
-3
390
F
  0
LAYER
  5
218
100
AcDbSymbolTableRecord
100
AcDbLayerTableRecord
  2
_BLACK_HOLE
 70
0
 62
7
  6
CONTINUOUS
370
-3
390
F
  0
LAYER
  5
219
100
AcDbSymbolTableRecord
100
AcDbLayerTableRecord
  2
___SHELL
 70
0
 62
7
  6
CONTINUOUS
370
-3
390
F
  0
ENDTAB
  0
TABLE
  2
STYLE
  5
3
100
AcDbSymbolTable
 70
1
  0
STYLE
  5
11
100
AcDbSymbolTableRecord
100
AcDbTextStyleTableRecord
  2
STANDARD
 70
0
 40
0.0
 41
0.8
 50
0.0
 71
0
 42
0.2
  3
txt
  4

  0
STYLE
  5
21A
100
AcDbSymbolTableRecord
100
AcDbTextStyleTableRecord
  2
TEXTSTYLE_1
 70
0
 40
0.0
 41
0.8
 50
0.0
 71
0
 42
0.2
  3
gdt
  4

  0
ENDTAB
  0
TABLE
  2
VIEW
  5
6
100
AcDbSymbolTable
 70
0
  0
ENDTAB
  0
TABLE
  2
UCS
  5
7
100
AcDbSymbolTable
 70
0
  0
ENDTAB
  0
TABLE
  2
APPID
  5
9
100
AcDbSymbolTable
 70
1
  0
APPID
  5
21B
100
AcDbSymbolTableRecord
100
AcDbRegAppTableRecord
  2
ACAD
 70
0
  0
ENDTAB
  0
TABLE
  2
BLOCK_RECORD
  5
1
100
AcDbSymbolTable
 70
0
  0
BLOCK_RECORD
  5
21C
100
AcDbSymbolTableRecord
100
AcDbBlockTableRecord
  2
*Model_Space
  0
BLOCK_RECORD
  5
21D
100
AcDbSymbolTableRecord
100
AcDbBlockTableRecord
  2
*Paper_Space
  0
BLOCK_RECORD
  5
21E
100
AcDbSymbolTableRecord
100
AcDbBlockTableRecord
  2
_FILLED
  0
BLOCK_RECORD
  5
21F
100
AcDbSymbolTableRecord
100
AcDbBlockTableRecord
  2
*D0
  0
BLOCK_RECORD
  5
220
100
AcDbSymbolTableRecord
100
AcDbBlockTableRecord
  2
*D1
  0
BLOCK_RECORD
  5
221
100
AcDbSymbolTableRecord
100
AcDbBlockTableRecord
  2
*D2
  0
ENDTAB
  0
TABLE
  2
DIMSTYLE
  5
A
100
AcDbSymbolTable
 70
1
100
AcDbDimStyleTable
 71
0
  0
DIMSTYLE
105
222
100
AcDbSymbolTableRecord
100
AcDbDimStyleTableRecord
  2
STANDARD
 70
0
  3

  4

 40
1.0
 41
3.0
 42
0.5
 43
0.38
 44
1.5
 45
0.0
 46
0.0
 47
0.01
 48
0.01
140
3.0
141
0.09
142
0.0
143
25.4
144
1.0
145
0.0
146
1.0
147
0.625
 71
1
 72
0
 73
0
 74
0
 75
0
 76
0
 77
1
 78
8
 79
2
170
0
171
1
172
0
173
0
174
0
175
0
176
0
177
0
178
0
270
2
179
2
271
2
272
2
273
2
274
2
275
0
280
0
281
0
282
0
283
1
284
8
285
0
286
0
287
3
288
0
340
11
278
44
341
21E
342
21E
343
21E
344
21E
  0
DIMSTYLE
105
223
100
AcDbSymbolTableRecord
100
AcDbDimStyleTableRecord
  2
DIMSTYLE_1
 70
0
  3

  4

 40
1.0
 41
3.0
 42
0.5
 43
0.38
 44
1.5
 45
0.0
 46
0.0
 47
0.0
 48
0.0
140
3.0
141
0.09
142
0.0
143
25.4
144
1.0
145
0.0
146
1.0
147
0.75
 71
0
 72
0
 73
0
 74
0
 75
0
 76
0
 77
1
 78
8
 79
2
170
0
171
1
172
0
173
0
174
0
175
0
176
0
177
0
178
0
270
2
179
2
271
2
272
2
273
2
274
2
275
0
280
0
281
0
282
0
283
1
284
8
285
0
286
0
287
3
288
0
340
11
278
44
341
21E
342
21E
343
21E
344
21E
  0
DIMSTYLE
105
224
100
AcDbSymbolTableRecord
100
AcDbDimStyleTableRecord
  2
DIMSTYLE_2
 70
0
  3

  4

 40
1.0
 41
3.0
 42
0.5
 43
0.38
 44
1.5
 45
0.0
 46
0.0
 47
0.0
 48
0.0
140
3.0
141
0.09
142
0.0
143
25.4
144
1.0
145
0.0
146
1.0
147
0.75
 71
0
 72
0
 73
0
 74
0
 75
0
 76
0
 77
1
 78
8
 79
2
170
0
171
1
172
0
173
0
174
0
175
0
176
0
177
0
178
0
270
2
179
2
271
1
272
1
273
2
274
2
275
0
280
0
281
0
282
0
283
1
284
8
285
0
286
0
287
3
288
0
340
11
278
44
341
21E
342
21E
343
21E
344
21E
  0
ENDTAB
  0
ENDSEC
  0
SECTION
  2
BLOCKS
  0
BLOCK
  5
20
100
AcDbEntity
  8
0
100
AcDbBlockBegin
  2
*Model_Space
 70
0
 10
0.0
 20
0.0
 30
0.0
  3
*Model_Space
  1

  0
ENDBLK
  5
21
100
AcDbEntity
  8
0
100
AcDbBlockEnd
  0
BLOCK
  5
1C
100
AcDbEntity
  8
0
100
AcDbBlockBegin
  2
*Paper_Space
 70
0
 10
0.0
 20
0.0
 30
0.0
  3
*Paper_Space
  1

  0
ENDBLK
  5
1D
100
AcDbEntity
  8
0
100
AcDbBlockEnd
  0
BLOCK
  5
225
100
AcDbEntity
  8
0
100
AcDbBlockBegin
  2
_FILLED
 70
64
 10
0.0
 20
0.0
  3
_FILLED
  1

  0
SOLID
  5
226
100
AcDbEntity
  8
0
  6
BYBLOCK
 62
0
100
AcDbTrace
 10
0.0
 20
0.0
 11
-1.0
 21
0.3166666667
 12
-1.0
 22
-0.3166666667
 13
-1.0
 23
-0.3166666667
  0
ENDBLK
  5
227
100
AcDbEntity
  8
0
  6
BYBLOCK
 62
0
100
AcDbBlockEnd
  0
BLOCK
  5
228
100
AcDbEntity
  8
0
100
AcDbBlockBegin
 62
7
  6
CONTINUOUS
  2
*D0
 70
65
 10
0.0
 20
0.0
  3
*D0
  1

  0
LINE
  5
229
100
AcDbEntity
  8
0
100
AcDbLine
 62
7
  6
CONTINUOUS
 10
-11.2560504934
 20
23.2424573321
 11
-11.2560504934
 21
35.8426861842
  0
LINE
  5
22A
100
AcDbEntity
  8
0
100
AcDbLine
 62
7
  6
CONTINUOUS
 10
11.0439495066
 20
23.2424573321
 11
11.0439495066
 21
35.8426861842
  0
LINE
  5
22B
100
AcDbEntity
  8
0
100
AcDbLine
 62
7
  6
CONTINUOUS
 10
-11.2560504934
 20
34.3426861842
 11
-0.1060504934
 21
34.3426861842
  0
LINE
  5
22C
100
AcDbEntity
  8
0
100
AcDbLine
 62
7
  6
CONTINUOUS
 10
11.0439495066
 20
34.3426861842
 11
-0.1060504934
 21
34.3426861842
  0
INSERT
  5
22D
100
AcDbEntity
  8
0
100
AcDbBlockReference
 62
7
  6
CONTINUOUS
  2
_FILLED
 10
-11.2560504934
 20
34.3426861842
 41
3.0
 42
3.0
 43
3.0
 50
180.0
  0
INSERT
  5
22E
100
AcDbEntity
  8
0
100
AcDbBlockReference
 62
7
  6
CONTINUOUS
  2
_FILLED
 10
11.0439495066
 20
34.3426861842
 41
3.0
 42
3.0
 43
3.0
  0
ENDBLK
  5
22F
100
AcDbEntity
  8
0
  6
BYBLOCK
 62
0
100
AcDbBlockEnd
  0
BLOCK
  5
230
100
AcDbEntity
  8
0
100
AcDbBlockBegin
 62
7
  6
CONTINUOUS
  2
*D1
 70
65
 10
0.0
 20
0.0
  3
*D1
  1

  0
LINE
  5
231
100
AcDbEntity
  8
0
100
AcDbLine
 62
7
  6
CONTINUOUS
 10
4.3672868542
 20
24.3426861842
 11
22.5439495066
 21
24.3426861842
  0
LINE
  5
232
100
AcDbEntity
  8
0
100
AcDbLine
 62
7
  6
CONTINUOUS
 10
4.3672868542
 20
-22.6573138158
 11
22.5439495066
 21
-22.6573138158
  0
LINE
  5
233
100
AcDbEntity
  8
0
100
AcDbLine
 62
7
  6
CONTINUOUS
 10
21.0439495066
 20
24.3426861842
 11
21.0439495066
 21
0.8426861842
  0
LINE
  5
234
100
AcDbEntity
  8
0
100
AcDbLine
 62
7
  6
CONTINUOUS
 10
21.0439495066
 20
-22.6573138158
 11
21.0439495066
 21
0.8426861842
  0
INSERT
  5
235
100
AcDbEntity
  8
0
100
AcDbBlockReference
 62
7
  6
CONTINUOUS
  2
_FILLED
 10
21.0439495066
 20
24.3426861842
 41
3.0
 42
3.0
 43
3.0
 50
90.0
  0
INSERT
  5
236
100
AcDbEntity
  8
0
100
AcDbBlockReference
 62
7
  6
CONTINUOUS
  2
_FILLED
 10
21.0439495066
 20
-22.6573138158
 41
3.0
 42
3.0
 43
3.0
 50
270.0
  0
ENDBLK
  5
237
100
AcDbEntity
  8
0
  6
BYBLOCK
 62
0
100
AcDbBlockEnd
  0
BLOCK
  5
238
100
AcDbEntity
  8
0
100
AcDbBlockBegin
 62
7
  6
CONTINUOUS
  2
*D2
 70
65
 10
0.0
 20
0.0
  3
*D2
  1

  0
LINE
  5
239
100
AcDbEntity
  8
0
100
AcDbLine
 62
7
  6
CONTINUOUS
 10
-17.9746481124
 20
6.7899755518
 11
-17.9746481124
 21
35.8426861842
  0
LINE
  5
23A
100
AcDbEntity
  8
0
100
AcDbLine
 62
7
  6
CONTINUOUS
 10
-57.6996481138
 20
1.3426861842
 11
-57.6996481138
 21
35.8426861842
  0
LINE
  5
23B
100
AcDbEntity
  8
0
100
AcDbLine
 62
7
  6
CONTINUOUS
 10
-17.9746481124
 20
34.3426861842
 11
-37.8371481131
 21
34.3426861842
  0
LINE
  5
23C
100
AcDbEntity
  8
0
100
AcDbLine
 62
7
  6
CONTINUOUS
 10
-57.6996481138
 20
34.3426861842
 11
-37.8371481131
 21
34.3426861842
  0
INSERT
  5
23D
100
AcDbEntity
  8
0
100
AcDbBlockReference
 62
7
  6
CONTINUOUS
  2
_FILLED
 10
-17.9746481124
 20
34.3426861842
 41
3.0
 42
3.0
 43
3.0
  0
INSERT
  5
23E
100
AcDbEntity
  8
0
100
AcDbBlockReference
 62
7
  6
CONTINUOUS
  2
_FILLED
 10
-57.6996481138
 20
34.3426861842
 41
3.0
 42
3.0
 43
3.0
 50
180.0
  0
ENDBLK
  5
23F
100
AcDbEntity
  8
0
  6
BYBLOCK
 62
0
100
AcDbBlockEnd
  0
ENDSEC
  0
SECTION
  2
ENTITIES
  0
DIMENSION
  5
240
100
AcDbEntity
  8
0
100
AcDbDimension
 62
7
  6
CONTINUOUS
  2
*D0
 10
11.0439495066
 20
34.3426861842
 11
-4.3917647791
 21
34.3426861842
 70
160
 71
2
 72
2
 41
0.9
 42
22.3
  3
DIMSTYLE_1
100
AcDbAlignedDimension
 13
-11.2560504934
 23
22.7424573321
 14
11.0439495066
 24
22.7424573321
100
AcDbRotatedDimension
  0
DIMENSION
  5
241
100
AcDbEntity
  8
0
100
AcDbDimension
 62
7
  6
CONTINUOUS
  2
*D1
 10
21.0439495066
 20
-22.6573138158
 11
21.0439495066
 21
-1.5144566729
 70
160
 71
2
 72
2
 41
0.9
 42
47.0
  3
DIMSTYLE_1
100
AcDbAlignedDimension
 13
3.8672868542
 23
24.3426861842
 14
3.8672868542
 24
-22.6573138158
 50
270.0
100
AcDbRotatedDimension
  0
DIMENSION
  5
242
100
AcDbEntity
  8
0
100
AcDbDimension
 62
7
  6
CONTINUOUS
  2
*D2
 10
-57.6996481138
 20
34.3426861842
 11
-42.1228623988
 21
34.3426861842
 70
160
 71
2
 72
2
 41
0.9
 42
39.7250000014
  3
DIMSTYLE_2
100
AcDbAlignedDimension
 13
-17.9746481124
 23
6.2899755518
 14
-57.6996481138
 24
0.8426861842
 50
180.0
100
AcDbRotatedDimension
  0
LWPOLYLINE
  5
243
100
AcDbEntity
  8
0
100
AcDbPolyline
 62
7
  6
CONTINUOUS
 90
5
 70
0
 43
0.3500000006
 10
2.8939494352
 20
36.8069718475
 10
3.2510923204
 20
37.0212563324
 10
3.2510923204
 20
37.6641143188
 10
2.8939494352
 20
38.0926878204
 10
2.0368066807
 20
38.0926878204
  0
LWPOLYLINE
  5
244
100
AcDbEntity
  8
0
100
AcDbPolyline
 62
250
  6
CONTINUOUS
 90
16
 70
0
 10
-11.1065094035
 20
21.8399821009
 10
-11.102929637
 20
21.8421551156
 10
-11.0940318242
 20
21.844304847
 10
-11.0799113003
 20
21.8464082618
 10
-11.0607193586
 20
21.8484428232
 10
-11.03666163
 20
21.850386732
 10
-11.0079958795
 20
21.8522191603
 10
-10.9750292444
 20
21.8539204746
 10
-10.9381149436
 20
21.8554724465
 10
-10.8976484931
 20
21.8568584472
 10
-10.8540634679
 20
21.8580636267
 10
-10.8078268572
 20
21.859075072
 10
-10.75943406
 20
21.859881946
 10
-10.7094035779
 20
21.8604756034
 10
-10.6582714593
 20
21.8608496835
 10
-10.606585556
 20
21.8610001782
  0
LINE
  5
245
100
AcDbEntity
  8
DRAFT
100
AcDbLine
 62
7
  6
CONTINUOUS
 10
-3.1060504934
 20
-22.6573138158
 11
-2.8873288346
 21
-22.6136761535
  0
LWPOLYLINE
  5
246
100
AcDbEntity
  8
0
100
AcDbPolyline
 62
250
  6
CONTINUOUS
 90
16
 70
0
 10
10.4027476233
 20
-21.132220953
 10
10.4549745097
 20
-21.1294410958
 10
10.5066297382
 20
-21.1212272564
 10
10.5571480087
 20
-21.1076693552
 10
10.6059764809
 20
-21.0889157908
 10
10.652580787
 20
-21.0651718281
 10
10.6964508859
 20
-21.0366973636
 10
10.7371066991
 20
-21.0038040502
 10
10.7741033374
 20
-20.9668518891
 10
10.807035942
 20
-20.926245318
 10
10.8355441536
 20
-20.8824287494
 10
10.8593160418
 20
-20.8358817083
 10
10.8780915056
 20
-20.7871136062
 10
10.8916651301
 20
-20.7366581467
 10
10.8998884302
 20
-20.6850674832
 10
10.9026714709
 20
-20.6329061856
  0
LINE
  5
247
100
AcDbEntity
  8
DRAFT
100
AcDbLine
 62
7
  6
CONTINUOUS
 10
3.8672868542
 20
-22.6573138158
 11
2.8939495066
 21
-22.6573138158
  0
LINE
  5
248
100
AcDbEntity
  8
DRAFT
100
AcDbLine
 62
7
  6
CONTINUOUS
 10
-3.1060504934
 20
-22.6573138158
 11
-4.0793878411
 21
-22.6573138158
  0
LINE
  5
249
100
AcDbEntity
  8
DRAFT
100
AcDbLine
 62
7
  6
CONTINUOUS
 10
-2.8873288346
 20
-22.6136761535
 11
2.6752278478
 21
-22.6136761535
  0
LINE
  5
24A
100
AcDbEntity
  8
DRAFT
100
AcDbLine
 62
7
  6
CONTINUOUS
 10
2.6752278478
 20
-21.688333264
 11
-2.8873288346
 21
-21.688333264
  0
LINE
  5
24B
100
AcDbEntity
  8
DRAFT
100
AcDbLine
 62
7
  6
CONTINUOUS
 10
2.8939495066
 20
-21.5573138158
 11
10.5443301063
 21
-21.5573138158
  0
LINE
  5
24C
100
AcDbEntity
  8
DRAFT
100
AcDbLine
 62
7
  6
CONTINUOUS
 10
-3.1060504934
 20
-21.5573138158
 11
-10.7564310932
 21
-21.5573138158
  0
LINE
  5
24D
100
AcDbEntity
  8
DRAFT
100
AcDbLine
 62
7
  6
CONTINUOUS
 10
2.8939495066
 20
-22.6573138158
 11
2.6752278478
 21
-22.6136761535
  0
LWPOLYLINE
  5
24E
100
AcDbEntity
  8
0
100
AcDbPolyline
 62
250
  6
CONTINUOUS
 90
16
 70
0
 10
-11.1065094035
 20
-20.1546097325
 10
-11.1029299303
 20
-20.156782773
 10
-11.0940323658
 20
-20.1589325304
 10
-11.0799120431
 20
-20.1610359711
 10
-11.0607202547
 20
-20.1630705578
 10
-11.0366626314
 20
-20.1650144908
 10
-11.007996939
 20
-20.1668469418
 10
-10.9750303167
 20
-20.168548277
 10
-10.9381159859
 20
-20.1701002674
 10
-10.897649466
 20
-20.1714862842
 10
-10.8540643363
 20
-20.1726914769
 10
-10.8078275904
 20
-20.1737029323
 10
-10.759434633
 20
-20.1745098132
 10
-10.7094039711
 20
-20.1751034742
 10
-10.6582716594
 20
-20.1754775545
 10
-10.606585556
 20
-20.1756280459
  0
LINE
  5
24F
100
AcDbEntity
  8
DRAFT
100
AcDbLine
 62
7
  6
CONTINUOUS
 10
-3.1060504934
 20
23.2426861842
 11
-2.8873288346
 21
23.3737056324
  0
LWPOLYLINE
  5
250
100
AcDbEntity
  8
0
100
AcDbPolyline
 62
250
  6
CONTINUOUS
 90
15
 70
0
 10
10.4461706731
 20
-20.1754775552
 10
10.4973029854
 20
-20.1751034752
 10
10.5473336477
 20
-20.1745098143
 10
10.5957266056
 20
-20.1737029334
 10
10.6419633518
 20
-20.1726914778
 10
10.6855484818
 20
-20.171486285
 10
10.7260150018
 20
-20.1701002681
 10
10.7629293326
 20
-20.1685482775
 10
10.7958959548
 20
-20.1668469422
 10
10.824561647
 20
-20.1650144911
 10
10.8486192701
 20
-20.163070558
 10
10.8678110581
 20
-20.1610359712
 10
10.8819313803
 20
-20.1589325305
 10
10.8908289442
 20
-20.156782773
 10
10.8944084167
 20
-20.1546097325
  0
LINE
  5
251
100
AcDbEntity
  8
0
100
AcDbLine
 62
250
  6
CONTINUOUS
 10
10.4027476233
 20
-21.132220953
 11
-10.6148486101
 21
-21.132220953
  0
LINE
  5
252
100
AcDbEntity
  8
0
100
AcDbLine
 62
250
  6
CONTINUOUS
 10
10.4461706731
 20
-20.1754775552
 11
-10.606585556
 21
-20.1756280467
  0
LINE
  5
253
100
AcDbEntity
  8
DRAFT
100
AcDbLine
 62
7
  6
CONTINUOUS
 10
-2.8873288346
 20
-21.688333264
 11
-3.1060504934
 21
-21.5573138158
  0
LWPOLYLINE
  5
254
100
AcDbEntity
  8
0
100
AcDbPolyline
 62
250
  6
CONTINUOUS
 90
16
 70
0
 10
-11.1147724577
 20
-20.6329061856
 10
-11.1119894558
 20
-20.685067119
 10
-11.1037662581
 20
-20.7366574866
 10
-11.0901927798
 20
-20.7871127254
 10
-11.0714174852
 20
-20.8358806864
 10
-11.047645769
 20
-20.8824276636
 10
-11.0191377154
 20
-20.926244238
 10
-10.9862052363
 20
-20.9668508781
 10
-10.9492086774
 20
-21.0038031591
 10
-10.908552892
 20
-21.0366966242
 10
-10.8646827601
 20
-21.0651712593
 10
-10.8180783562
 20
-21.0889153956
 10
-10.7692497319
 20
-21.1076691161
 10
-10.7187312613
 20
-21.1212271423
 10
-10.6670757851
 20
-21.1294410652
 10
-10.6148486101
 20
-21.1322209528
  0
LWPOLYLINE
  5
255
100
AcDbEntity
  8
0
100
AcDbPolyline
 62
250
  6
CONTINUOUS
 90
16
 70
0
 10
-11.1147724577
 20
22.318278554
 10
-11.111989301
 20
22.370440943
 10
-11.1037656937
 20
22.4220324937
 10
-11.0901916306
 20
22.472488615
 10
-11.0714156593
 20
22.5212571411
 10
-11.0476432542
 20
22.5678043744
 10
-11.0191345684
 20
22.6116209262
 10
-10.9862015861
 20
22.6522272908
 10
-10.9492047089
 20
22.6891790931
 10
-10.9085488113
 20
22.7220719517
 10
-10.8646788106
 20
22.7505459042
 10
-10.8180747974
 20
22.7742893462
 10
-10.7692467818
 20
22.793042442
 10
-10.7187291125
 20
22.8065999673
 10
-10.6670746286
 20
22.8148135555
 10
-10.6148486101
 20
22.8175933214
  0
LWPOLYLINE
  5
256
100
AcDbEntity
  8
0
100
AcDbPolyline
 62
250
  6
CONTINUOUS
 90
7
 70
0
 10
-11.1107132323
 20
22.2468116475
 10
-11.1113396303
 20
22.2665090759
 10
-11.1119962887
 20
22.2833423199
 10
-11.1126692922
 20
22.2969700252
 10
-11.1133540023
 20
22.3072784069
 10
-11.1140550575
 20
22.3143812498
 10
-11.1147724577
 20
22.318278554
  0
LINE
  5
257
100
AcDbEntity
  8
0
100
AcDbLine
 62
250
  6
CONTINUOUS
 10
-11.109552957
 20
22.1987122253
 11
-11.1107132323
 21
22.2468116475
  0
LINE
  5
258
100
AcDbEntity
  8
0
100
AcDbLine
 62
250
  6
CONTINUOUS
 10
-11.1085485375
 20
22.1406424566
 11
-11.109552957
 21
22.1987122253
  0
LINE
  5
259
100
AcDbEntity
  8
0
100
AcDbLine
 62
250
  6
CONTINUOUS
 10
-11.1073817336
 20
22.0376722209
 11
-11.1085485375
 21
22.1406424566
  0
LINE
  5
25A
100
AcDbEntity
  8
0
100
AcDbLine
 62
250
  6
CONTINUOUS
 10
-10.6091024828
 20
22.5223788531
 11
-10.6107846712
 21
22.6743292889
  0
LINE
  5
25B
100
AcDbEntity
  8
0
100
AcDbLine
 62
250
  6
CONTINUOUS
 10
-11.1066882642
 20
21.9216994365
 11
-11.1073817336
 21
22.0376722209
  0
LINE
  5
25C
100
AcDbEntity
  8
0
100
AcDbLine
 62
250
  6
CONTINUOUS
 10
-10.6071691469
 20
22.1806951805
 11
-10.6091024828
 21
22.5223788531
  0
LINE
  5
25D
100
AcDbEntity
  8
0
100
AcDbLine
 62
250
  6
CONTINUOUS
 10
-11.1011813269
 20
12.5097006705
 11
-11.1066882642
 21
21.9216994365
  0
LINE
  5
25E
100
AcDbEntity
  8
0
100
AcDbLine
 62
250
  6
CONTINUOUS
 10
-10.5997351693
 20
7.850626275
 11
-10.6071691469
 21
22.1806951805
  0
LINE
  5
25F
100
AcDbEntity
  8
0
100
AcDbLine
 62
7
  6
CONTINUOUS
 10
-11.2560504934
 20
-21.0570849637
 11
-11.2560504934
 21
22.7424573321
  0
LINE
  5
260
100
AcDbEntity
  8
0
100
AcDbLine
 62
250
  6
CONTINUOUS
 10
-11.0988978715
 20
-1.4911894796
 11
-11.1011813269
 21
12.5097006705
  0
LINE
  5
261
100
AcDbEntity
  8
0
100
AcDbLine
 62
250
  6
CONTINUOUS
 10
-10.5997351689
 20
-6.1652539013
 11
-10.5997351693
 21
7.850626275
  0
LINE
  5
262
100
AcDbEntity
  8
0
100
AcDbLine
 62
250
  6
CONTINUOUS
 10
-11.1034647923
 20
-15.4897909312
 11
-11.0988978715
 21
-1.4911894796
  0
LINE
  5
263
100
AcDbEntity
  8
0
100
AcDbLine
 62
250
  6
CONTINUOUS
 10
-11.1068619334
 20
-20.2757622562
 11
-11.1034647923
 21
-15.4897909312
  0
LINE
  5
264
100
AcDbEntity
  8
0
100
AcDbLine
 62
250
  6
CONTINUOUS
 10
-10.6077946473
 20
-20.6427724654
 11
-10.5997351689
 21
-6.1652539013
  0
LINE
  5
265
100
AcDbEntity
  8
0
100
AcDbLine
 62
250
  6
CONTINUOUS
 10
-11.1077198972
 20
-20.3883739013
 11
-11.1068619334
 21
-20.2757622562
  0
LINE
  5
266
100
AcDbEntity
  8
0
100
AcDbLine
 62
250
  6
CONTINUOUS
 10
-10.609625392
 20
-20.8928694784
 11
-10.6077946473
 21
-20.6427724654
  0
LINE
  5
267
100
AcDbEntity
  8
0
100
AcDbLine
 62
250
  6
CONTINUOUS
 10
-10.6107846712
 20
-20.9889569205
 11
-10.609625392
 21
-20.8928694784
  0
LINE
  5
268
100
AcDbEntity
  8
0
100
AcDbLine
 62
250
  6
CONTINUOUS
 10
-11.1085485375
 20
-20.4552700881
 11
-11.1077198972
 21
-20.3883739013
  0
LINE
  5
269
100
AcDbEntity
  8
0
100
AcDbLine
 62
250
  6
CONTINUOUS
 10
-11.109552957
 20
-20.513339857
 11
-11.1085485375
 21
-20.4552700881
  0
LWPOLYLINE
  5
26A
100
AcDbEntity
  8
0
100
AcDbPolyline
 62
250
  6
CONTINUOUS
 90
5
 70
0
 10
-10.6120662094
 20
22.7474548846
 10
-10.6127393007
 20
22.7747622663
 10
-10.6134252172
 20
22.7956395553
 10
-10.6141283204
 20
22.8099483341
 10
-10.6148486101
 20
22.8175933214
  0
LINE
  5
26B
100
AcDbEntity
  8
0
100
AcDbLine
 62
250
  6
CONTINUOUS
 10
-10.6107846712
 20
22.6743292889
 11
-10.6120662094
 21
22.7474548846
  0
LWPOLYLINE
  5
26C
100
AcDbEntity
  8
0
100
AcDbPolyline
 62
7
  6
CONTINUOUS
 90
3
 70
0
 43
0.3500000006
 10
1.0368066587
 20
35.3784025726
 10
0.9653780959
 20
35.1641135559
 10
0.8225209701
 20
34.87840242
  0
LINE
  5
26D
100
AcDbEntity
  8
RACCORDO
100
AcDbLine
 62
250
  6
CONTINUOUS
 10
-7.0750854688
 20
-2.8800716392
 11
-7.0748512188
 21
6.0667110516
  0
LWPOLYLINE
  5
26E
100
AcDbEntity
  8
0
100
AcDbPolyline
 62
250
  6
CONTINUOUS
 90
6
 70
0
 10
-10.6148486101
 20
-21.132220953
 10
-10.6141283204
 20
-21.1245759657
 10
-10.6134252172
 20
-21.1102671868
 10
-10.6127393007
 20
-21.0893898979
 10
-10.6120662094
 20
-21.0620825162
 10
-10.6107846712
 20
-20.9889569205
  0
LWPOLYLINE
  5
26F
100
AcDbEntity
  8
0
100
AcDbPolyline
 62
250
  6
CONTINUOUS
 90
8
 70
0
 10
-11.1147724577
 20
-20.6329061856
 10
-11.1140550575
 20
-20.6290088812
 10
-11.1133540023
 20
-20.6219060381
 10
-11.1126692922
 20
-20.6115976564
 10
-11.1119962887
 20
-20.5979699513
 10
-11.1113396303
 20
-20.5811367076
 10
-11.1107132323
 20
-20.5614392793
 10
-11.109552957
 20
-20.513339857
  0
LINE
  5
270
100
AcDbEntity
  8
DRAFT
100
AcDbLine
 62
7
  6
CONTINUOUS
 10
-6.5560504934
 20
-2.3573138158
 11
-6.5560504934
 21
5.5426861842
  0
LINE
  5
271
100
AcDbEntity
  8
IMPORT_IGES
100
AcDbLine
 62
250
  6
CONTINUOUS
 10
-6.3560504934
 20
-2.3573138158
 11
-6.3560504934
 21
5.2992422227
  0
LINE
  5
272
100
AcDbEntity
  8
IMPORT_IGES
100
AcDbLine
 62
7
  6
CONTINUOUS
 10
-6.0560504934
 20
4.8409846532
 11
-6.0560504934
 21
-2.1573138158
  0
LINE
  5
273
100
AcDbEntity
  8
IMPORT_IGES
100
AcDbLine
 62
7
  6
CONTINUOUS
 10
-5.2060504934
 20
4.7426861842
 11
-5.2060504934
 21
4.7955701438
  0
LINE
  5
274
100
AcDbEntity
  8
RACCORDO
100
AcDbLine
 62
250
  6
CONTINUOUS
 10
-6.5752222323
 20
-2.3764855547
 11
-6.5750142363
 21
5.5616499271
  0
LINE
  5
275
100
AcDbEntity
  8
RACCORDO
100
AcDbLine
 62
250
  6
CONTINUOUS
 10
2.9124491386
 20
-5.8324887072
 11
-3.1245501981
 21
-5.8324887072
  0
LINE
  5
276
100
AcDbEntity
  8
RACCORDO
100
AcDbLine
 62
250
  6
CONTINUOUS
 10
2.4125253755
 20
-5.3258896847
 11
-2.6246263623
 21
-5.3258896847
  0
LINE
  5
277
100
AcDbEntity
  8
DRAFT
100
AcDbLine
 62
7
  6
CONTINUOUS
 10
2.3939495066
 20
-5.3073138158
 11
-2.6060504934
 21
-5.3073138158
  0
LINE
  5
278
100
AcDbEntity
  8
IMPORT_IGES
100
AcDbLine
 62
7
  6
CONTINUOUS
 10
-2.1310504934
 20
-4.9573138158
 11
1.9189495066
 21
-4.9573138158
  0
LINE
  5
279
100
AcDbEntity
  8
0
100
AcDbLine
 62
7
  6
CONTINUOUS
 10
-2.1310504934
 20
-4.7573138158
 11
1.9189495066
 21
-4.7573138158
  0
LINE
  5
27A
100
AcDbEntity
  8
RACCORDO
100
AcDbLine
 62
250
  6
CONTINUOUS
 10
4.0627318173
 20
-4.4814203553
 11
2.9127318878
 21
-4.4814203553
  0
LINE
  5
27B
100
AcDbEntity
  8
RACCORDO
100
AcDbLine
 62
250
  6
CONTINUOUS
 10
-3.1248328732
 20
-4.4814203553
 11
-4.2748328746
 21
-4.4814203553
  0
LINE
  5
27C
100
AcDbEntity
  8
IMPORT_IGES
100
AcDbLine
 62
7
  6
CONTINUOUS
 10
-1.6499014535
 20
-4.7573138158
 11
-1.4481298655
 21
-4.9573138158
  0
LINE
  5
27D
100
AcDbEntity
  8
IMPORT_IGES
100
AcDbLine
 62
7
  6
CONTINUOUS
 10
-1.3892148818
 20
-4.9573138158
 11
-1.5915628888
 21
-4.756742458
  0
LINE
  5
27E
100
AcDbEntity
  8
IMPORT_IGES
100
AcDbLine
 62
7
  6
CONTINUOUS
 10
-4.5596541946
 20
4.7426861842
 11
-4.5060504934
 21
4.2066491727
  0
LINE
  5
27F
100
AcDbEntity
  8
RACCORDO
100
AcDbLine
 62
250
  6
CONTINUOUS
 10
-4.2748328746
 20
-4.4814203553
 11
-4.275085461
 21
-2.8800716392
  0
LINE
  5
280
100
AcDbEntity
  8
RACCORDO
100
AcDbLine
 62
250
  6
CONTINUOUS
 10
-3.7749975844
 20
-3.9762609067
 11
-3.7752221956
 21
-2.376485518
  0
LINE
  5
281
100
AcDbEntity
  8
IMPORT_IGES
100
AcDbLine
 62
7
  6
CONTINUOUS
 10
-4.5060504934
 20
2.8966491727
 11
-4.5060504934
 21
4.2066491727
  0
LINE
  5
282
100
AcDbEntity
  8
IMPORT_IGES
100
AcDbLine
 62
7
  6
CONTINUOUS
 10
-3.930378746
 20
1.9666491727
 11
-3.930378746
 21
2.6966491727
  0
LINE
  5
283
100
AcDbEntity
  8
0
100
AcDbLine
 62
7
  6
CONTINUOUS
 10
-3.8060504934
 20
4.7955701438
 11
-3.8060504934
 21
1.7426861842
  0
LINE
  5
284
100
AcDbEntity
  8
DRAFT
100
AcDbLine
 62
7
  6
CONTINUOUS
 10
-3.7560504934
 20
-3.9573138158
 11
-3.7560504934
 21
-2.3573138158
  0
LINE
  5
285
100
AcDbEntity
  8
IMPORT_IGES
100
AcDbLine
 62
250
  6
CONTINUOUS
 10
-3.5560504934
 20
-3.9573138158
 11
-3.5560504934
 21
-2.4573138158
  0
LINE
  5
286
100
AcDbEntity
  8
0
100
AcDbLine
 62
250
  6
CONTINUOUS
 10
-11.2560504934
 20
-21.0570849637
 11
-11.1147724577
 21
-20.6329061856
  0
LINE
  5
287
100
AcDbEntity
  8
IMPORT_IGES
100
AcDbLine
 62
250
  6
CONTINUOUS
 10
2.2189495066
 20
-4.0073138158
 11
2.3939495066
 21
-4.0073138158
  0
LINE
  5
288
100
AcDbEntity
  8
IMPORT_IGES
100
AcDbLine
 62
250
  6
CONTINUOUS
 10
-2.4310504934
 20
-4.0073138158
 11
-2.6060504934
 21
-4.0073138158
  0
LINE
  5
289
100
AcDbEntity
  8
RACCORDO
100
AcDbLine
 62
250
  6
CONTINUOUS
 10
3.562808092
 20
-3.9761724012
 11
2.412808092
 21
-3.9761724012
  0
LINE
  5
28A
100
AcDbEntity
  8
RACCORDO
100
AcDbLine
 62
250
  6
CONTINUOUS
 10
-2.6249090789
 20
-3.9761724012
 11
-3.7749090789
 21
-3.9761724012
  0
LINE
  5
28B
100
AcDbEntity
  8
DRAFT
100
AcDbLine
 62
7
  6
CONTINUOUS
 10
3.5439495066
 20
-3.9573138158
 11
2.3939495066
 21
-3.9573138158
  0
LINE
  5
28C
100
AcDbEntity
  8
DRAFT
100
AcDbLine
 62
7
  6
CONTINUOUS
 10
-2.6060504934
 20
-3.9573138158
 11
-3.7560504934
 21
-3.9573138158
  0
LINE
  5
28D
100
AcDbEntity
  8
IMPORT_IGES
100
AcDbLine
 62
7
  6
CONTINUOUS
 10
-3.2560504934
 20
-3.7073138158
 11
-2.1310504934
 21
-3.7073138158
  0
LINE
  5
28E
100
AcDbEntity
  8
IMPORT_IGES
100
AcDbLine
 62
7
  6
CONTINUOUS
 10
-1.5310504934
 20
-3.7073138158
 11
1.3189495066
 21
-3.7073138158
  0
LINE
  5
28F
100
AcDbEntity
  8
IMPORT_IGES
100
AcDbLine
 62
7
  6
CONTINUOUS
 10
1.9189495066
 20
-3.7073138158
 11
3.0439495066
 21
-3.7073138158
  0
LINE
  5
290
100
AcDbEntity
  8
IMPORT_IGES
100
AcDbLine
 62
7
  6
CONTINUOUS
 10
-3.2560504934
 20
-2.9073138158
 11
-1.5310504934
 21
-2.9073138158
  0
LINE
  5
291
100
AcDbEntity
  8
IMPORT_IGES
100
AcDbLine
 62
7
  6
CONTINUOUS
 10
1.3189495066
 20
-2.9073138158
 11
3.0439495066
 21
-2.9073138158
  0
LINE
  5
292
100
AcDbEntity
  8
RACCORDO
100
AcDbLine
 62
250
  6
CONTINUOUS
 10
6.8629844495
 20
-2.8800716392
 11
4.062984482
 21
-2.8800716392
  0
LINE
  5
293
100
AcDbEntity
  8
RACCORDO
100
AcDbLine
 62
250
  6
CONTINUOUS
 10
-4.275085461
 20
-2.8800716392
 11
-7.0750854688
 21
-2.8800716392
  0
LINE
  5
294
100
AcDbEntity
  8
IMPORT_IGES
100
AcDbLine
 62
250
  6
CONTINUOUS
 10
3.5439495066
 20
-2.4573138158
 11
3.3439495066
 21
-2.4573138158
  0
LINE
  5
295
100
AcDbEntity
  8
IMPORT_IGES
100
AcDbLine
 62
250
  6
CONTINUOUS
 10
-3.5560504934
 20
-2.4573138158
 11
-3.7560504934
 21
-2.4573138158
  0
LINE
  5
296
100
AcDbEntity
  8
0
100
AcDbLine
 62
250
  6
CONTINUOUS
 10
-11.1147724577
 20
22.318278554
 11
-11.2560504934
 21
22.7424573321
  0
LINE
  5
297
100
AcDbEntity
  8
RACCORDO
100
AcDbLine
 62
250
  6
CONTINUOUS
 10
-3.1245501981
 20
-5.8324887072
 11
-3.1248328732
 21
-4.4814203553
  0
LINE
  5
298
100
AcDbEntity
  8
RACCORDO
100
AcDbLine
 62
250
  6
CONTINUOUS
 10
-2.6247384627
 20
-5.3260430612
 11
-2.6249975214
 21
-3.9762608437
  0
LINE
  5
299
100
AcDbEntity
  8
0
100
AcDbLine
 62
7
  6
CONTINUOUS
 10
-3.3060504934
 20
4.7955701438
 11
-3.3060504934
 21
1.7426861842
  0
LINE
  5
29A
100
AcDbEntity
  8
IMPORT_IGES
100
AcDbLine
 62
7
  6
CONTINUOUS
 10
-3.2560504934
 20
-3.7073138158
 11
-3.2560504934
 21
-0.1364426005
  0
LINE
  5
29B
100
AcDbEntity
  8
DRAFT
100
AcDbLine
 62
7
  6
CONTINUOUS
 10
-3.1060504934
 20
-22.6573138158
 11
-3.1060504934
 21
-21.5573138158
  0
LINE
  5
29C
100
AcDbEntity
  8
DRAFT
100
AcDbLine
 62
7
  6
CONTINUOUS
 10
-3.1060504934
 20
23.2426861842
 11
-3.1060504934
 21
24.3426861842
  0
LINE
  5
29D
100
AcDbEntity
  8
IMPORT_IGES
100
AcDbLine
 62
7
  6
CONTINUOUS
 10
-3.0609039957
 20
1.3426861842
 11
-3.0609039957
 21
1.9666491727
  0
LINE
  5
29E
100
AcDbEntity
  8
DRAFT
100
AcDbLine
 62
7
  6
CONTINUOUS
 10
-2.8873288346
 20
-22.6136761535
 11
-2.8873288346
 21
-21.688333264
  0
LINE
  5
29F
100
AcDbEntity
  8
DRAFT
100
AcDbLine
 62
7
  6
CONTINUOUS
 10
-2.8873288346
 20
23.3737056324
 11
-2.8873288346
 21
24.2990485219
  0
LINE
  5
2A0
100
AcDbEntity
  8
0
100
AcDbLine
 62
7
  6
CONTINUOUS
 10
-2.8060504934
 20
4.7955701438
 11
-2.8060504934
 21
1.7426861842
  0
LINE
  5
2A1
100
AcDbEntity
  8
DRAFT
100
AcDbLine
 62
7
  6
CONTINUOUS
 10
-2.6060504934
 20
-5.3073138158
 11
-2.6060504934
 21
-3.9573138158
  0
LINE
  5
2A2
100
AcDbEntity
  8
IMPORT_IGES
100
AcDbLine
 62
250
  6
CONTINUOUS
 10
-2.4310504934
 20
-5.3073138158
 11
-2.4310504934
 21
-4.0073138158
  0
LINE
  5
2A3
100
AcDbEntity
  8
0
100
AcDbLine
 62
7
  6
CONTINUOUS
 10
-2.3060504934
 20
4.7955701438
 11
-2.3060504934
 21
1.7426861842
  0
LINE
  5
2A4
100
AcDbEntity
  8
IMPORT_IGES
100
AcDbLine
 62
7
  6
CONTINUOUS
 10
-2.2609039957
 20
1.9666491727
 11
-2.2609039957
 21
1.3426861842
  0
LINE
  5
2A5
100
AcDbEntity
  8
IMPORT_IGES
100
AcDbLine
 62
7
  6
CONTINUOUS
 10
-2.1310504934
 20
-3.7073138158
 11
-2.1310504934
 21
-5.3073138158
  0
LINE
  5
2A6
100
AcDbEntity
  8
0
100
AcDbLine
 62
7
  6
CONTINUOUS
 10
-1.8060504934
 20
4.7955701438
 11
-1.8060504934
 21
1.7426861842
  0
LINE
  5
2A7
100
AcDbEntity
  8
0
100
AcDbLine
 62
250
  6
CONTINUOUS
 10
-10.7564310932
 20
-21.5573138158
 11
-10.6148486101
 21
-21.132220953
  0
LINE
  5
2A8
100
AcDbEntity
  8
IMPORT_IGES
100
AcDbLine
 62
7
  6
CONTINUOUS
 10
-1.3060504934
 20
3.113691244
 11
-1.290378746
 21
3.1450347389
  0
LWPOLYLINE
  5
2A9
100
AcDbEntity
  8
RACCORDO
100
AcDbPolyline
 62
7
  6
CONTINUOUS
 90
7
 70
0
 10
-6.6688501008
 20
-2.472304398
 10
-6.6278599554
 20
-2.4305974493
 10
-6.6104991972
 20
-2.413271594
 10
-6.5964328817
 20
-2.3986553326
 10
-6.5860480489
 20
-2.3872452128
 10
-6.5789576588
 20
-2.3796530306
 10
-6.5751617114
 20
-2.3764250338
  0
LWPOLYLINE
  5
2AA
100
AcDbEntity
  8
RACCORDO
100
AcDbPolyline
 62
7
  6
CONTINUOUS
 90
3
 70
0
 10
-6.7437625051
 20
-2.5477813267
 10
-6.692479488
 20
-2.4959365016
 10
-6.6688501008
 20
-2.472304398
  0
LWPOLYLINE
  5
2AB
100
AcDbEntity
  8
IMPORT_IGES
100
AcDbPolyline
 62
7
  6
CONTINUOUS
 90
4
 70
0
 10
-6.2560590783
 20
-2.3573138158
 10
-6.2288937056
 20
-2.330020254
 10
-6.2007776402
 20
-2.3020760876
 10
-6.1512031392
 20
-2.2523820322
  0
LINE
  5
2AC
100
AcDbEntity
  8
RACCORDO
100
AcDbLine
 62
7
  6
CONTINUOUS
 10
-6.5560504934
 20
-2.3573138158
 11
-6.5752222323
 21
-2.3764855547
  0
LINE
  5
2AD
100
AcDbEntity
  8
RACCORDO
100
AcDbLine
 62
7
  6
CONTINUOUS
 10
-7.0444127435
 20
-2.8496017077
 11
-6.7437625051
 21
-2.5477813267
  0
LWPOLYLINE
  5
2AE
100
AcDbEntity
  8
IMPORT_IGES
100
AcDbPolyline
 62
7
  6
CONTINUOUS
 90
3
 70
0
 10
-6.1512031392
 20
-2.2523820322
 10
-6.1297447036
 20
-2.2310492445
 10
-6.0946191021
 20
-2.1958304756
  0
LINE
  5
2AF
100
AcDbEntity
  8
RACCORDO
100
AcDbLine
 62
7
  6
CONTINUOUS
 10
-7.0750855672
 20
-2.8800716392
 11
-7.0444127435
 21
-2.8496017077
  0
LWPOLYLINE
  5
2B0
100
AcDbEntity
  8
IMPORT_IGES
100
AcDbPolyline
 62
7
  6
CONTINUOUS
 90
6
 70
0
 10
-6.0946191021
 20
-2.1958304756
 10
-6.0809519362
 20
-2.1822669261
 10
-6.0702264709
 20
-2.1715039219
 10
-6.0625594445
 20
-2.1636717053
 10
-6.0578341186
 20
-2.158913373
 10
-6.0560504934
 20
-2.1573138158
  0
LINE
  5
2B1
100
AcDbEntity
  8
RACCORDO
100
AcDbLine
 62
250
  6
CONTINUOUS
 10
6.3630607246
 20
-2.3764250338
 11
3.5630607246
 21
-2.3764250338
  0
LINE
  5
2B2
100
AcDbEntity
  8
RACCORDO
100
AcDbLine
 62
250
  6
CONTINUOUS
 10
-3.7751617114
 20
-2.3764250338
 11
-6.5751617114
 21
-2.3764250338
  0
LINE
  5
2B3
100
AcDbEntity
  8
DRAFT
100
AcDbLine
 62
7
  6
CONTINUOUS
 10
6.3439495066
 20
-2.3573138158
 11
3.5439495066
 21
-2.3573138158
  0
LINE
  5
2B4
100
AcDbEntity
  8
DRAFT
100
AcDbLine
 62
7
  6
CONTINUOUS
 10
-3.7560504934
 20
-2.3573138158
 11
-6.5560504934
 21
-2.3573138158
  0
LINE
  5
2B5
100
AcDbEntity
  8
IMPORT_IGES
100
AcDbLine
 62
7
  6
CONTINUOUS
 10
3.0439495066
 20
-2.1573138158
 11
5.8439495066
 21
-2.1573138158
  0
LINE
  5
2B6
100
AcDbEntity
  8
IMPORT_IGES
100
AcDbLine
 62
7
  6
CONTINUOUS
 10
-3.2560504934
 20
-2.1573138158
 11
-6.0560504934
 21
-2.1573138158
  0
LINE
  5
2B7
100
AcDbEntity
  8
IMPORT_IGES
100
AcDbLine
 62
7
  6
CONTINUOUS
 10
5.8439495066
 20
-0.9073138158
 11
3.0439495066
 21
-0.9073138158
  0
LINE
  5
2B8
100
AcDbEntity
  8
IMPORT_IGES
100
AcDbLine
 62
7
  6
CONTINUOUS
 10
-3.2560504934
 20
-0.9073138158
 11
-6.0560504934
 21
-0.9073138158
  0
LWPOLYLINE
  5
2B9
100
AcDbEntity
  8
RACCORDO
100
AcDbPolyline
 62
7
  6
CONTINUOUS
 90
6
 70
0
 10
2.4126374865
 20
-5.3260430784
 10
2.4165965177
 20
-5.3297981093
 10
2.423825461
 20
-5.3377820704
 10
2.4343243164
 20
-5.3494991799
 10
2.4484822142
 20
-5.3644065609
 10
2.4659100241
 20
-5.382039027
  0
LWPOLYLINE
  5
2BA
100
AcDbEntity
  8
IMPORT_IGES
100
AcDbPolyline
 62
7
  6
CONTINUOUS
 90
5
 70
0
 10
2.2189495066
 20
-4.0073138158
 10
2.1849126982
 20
-3.9738305742
 10
2.1524107411
 20
-3.9412055947
 10
2.1214436355
 20
-3.9098110887
 10
2.0917927187
 20
-3.880020254
  0
LINE
  5
2BB
100
AcDbEntity
  8
RACCORDO
100
AcDbLine
 62
7
  6
CONTINUOUS
 10
2.8817252461
 20
-5.8019584574
 11
2.9124492249
 21
-5.8324887072
  0
LINE
  5
2BC
100
AcDbEntity
  8
RACCORDO
100
AcDbLine
 62
7
  6
CONTINUOUS
 10
2.9127319457
 20
-4.4814203553
 11
2.882085273
 21
-4.4509731422
  0
LINE
  5
2BD
100
AcDbEntity
  8
RACCORDO
100
AcDbLine
 62
7
  6
CONTINUOUS
 10
2.3939495066
 20
-5.3073138158
 11
2.4125253755
 21
-5.3258896847
  0
LINE
  5
2BE
100
AcDbEntity
  8
RACCORDO
100
AcDbLine
 62
7
  6
CONTINUOUS
 10
2.3939495066
 20
-3.9573138158
 11
2.4128965965
 21
-3.9762609057
  0
LWPOLYLINE
  5
2BF
100
AcDbEntity
  8
IMPORT_IGES
100
AcDbPolyline
 62
7
  6
CONTINUOUS
 90
3
 70
0
 10
2.0917927187
 20
-3.880020254
 10
2.0377514268
 20
-3.8261134247
 10
2.0141021524
 20
-3.8023820322
  0
LWPOLYLINE
  5
2C0
100
AcDbEntity
  8
IMPORT_IGES
100
AcDbPolyline
 62
7
  6
CONTINUOUS
 90
8
 70
0
 10
2.0141021524
 20
-3.8023820322
 10
1.9737767673
 20
-3.7621412798
 10
1.9575181152
 20
-3.7458304756
 10
1.9438509493
 20
-3.7322669261
 10
1.9331254841
 20
-3.7215039219
 10
1.9254584576
 20
-3.7136717053
 10
1.9207331318
 20
-3.708913373
 10
1.9189495066
 20
-3.7073138158
  0
LWPOLYLINE
  5
2C1
100
AcDbEntity
  8
RACCORDO
100
AcDbPolyline
 62
7
  6
CONTINUOUS
 90
3
 70
0
 10
2.5298420435
 20
-4.0964148856
 10
2.5062012964
 20
-4.0726737606
 10
2.4652337368
 20
-4.0307801224
  0
LWPOLYLINE
  5
2C2
100
AcDbEntity
  8
RACCORDO
100
AcDbPolyline
 62
7
  6
CONTINUOUS
 90
6
 70
0
 10
2.4652337368
 20
-4.0307801224
 10
2.4479069243
 20
-4.013372169
 10
2.4338851917
 20
-3.9986497604
 10
2.423554412
 20
-3.9871241103
 10
2.4165287121
 20
-3.9794410975
 10
2.412808092
 20
-3.9761724012
  0
LINE
  5
2C3
100
AcDbEntity
  8
IMPORT_IGES
100
AcDbLine
 62
7
  6
CONTINUOUS
 10
0.9576226225
 20
-4.7573138158
 11
1.1558665893
 21
-4.9573138158
  0
LINE
  5
2C4
100
AcDbEntity
  8
RACCORDO
100
AcDbLine
 62
7
  6
CONTINUOUS
 10
2.6668121768
 20
-5.5859357889
 11
2.8817252461
 21
-5.8019584574
  0
LINE
  5
2C5
100
AcDbEntity
  8
RACCORDO
100
AcDbLine
 62
7
  6
CONTINUOUS
 10
2.882085273
 20
-4.4509731422
 11
2.5811753938
 21
-4.1484830709
  0
LINE
  5
2C6
100
AcDbEntity
  8
RACCORDO
100
AcDbLine
 62
7
  6
CONTINUOUS
 10
2.5816950872
 20
-5.5000178336
 11
2.6668121768
 21
-5.5859357889
  0
LINE
  5
2C7
100
AcDbEntity
  8
RACCORDO
100
AcDbLine
 62
7
  6
CONTINUOUS
 10
2.5811753938
 20
-4.1484830709
 11
2.5298420435
 21
-4.0964148856
  0
LWPOLYLINE
  5
2C8
100
AcDbEntity
  8
RACCORDO
100
AcDbPolyline
 62
7
  6
CONTINUOUS
 90
3
 70
0
 10
2.5069359564
 20
-5.4242095956
 10
2.5554790899
 20
-5.4733406119
 10
2.5816950872
 20
-5.5000178336
  0
LINE
  5
2C9
100
AcDbEntity
  8
RACCORDO
100
AcDbLine
 62
7
  6
CONTINUOUS
 10
2.4659100241
 20
-5.382039027
 11
2.5069359564
 21
-5.4242095956
  0
LINE
  5
2CA
100
AcDbEntity
  8
IMPORT_IGES
100
AcDbLine
 62
7
  6
CONTINUOUS
 10
-6.3560504934
 20
5.2992422227
 11
-6.279037502
 21
5.1994805932
  0
LWPOLYLINE
  5
2CB
100
AcDbEntity
  8
IMPORT_IGES
100
AcDbPolyline
 62
7
  6
CONTINUOUS
 90
19
 70
0
 10
-6.279037502
 20
5.1994805932
 10
-6.2550232501
 20
5.1680980812
 10
-6.2320798376
 20
5.1376977706
 10
-6.2102940894
 20
5.1085587761
 10
-6.1897325485
 20
5.0806850046
 10
-6.1705246732
 20
5.0540725492
 10
-6.1528145849
 20
5.0289888044
 10
-6.1366685364
 20
5.0055316689
 10
-6.122072712
 20
4.9836032439
 10
-6.109015446
 20
4.9631772272
 10
-6.0975042936
 20
4.9443005355
 10
-6.0875027037
 20
4.9269262521
 10
-6.0789381469
 20
4.9108873248
 10
-6.0717857062
 20
4.8961790873
 10
-6.0660232998
 20
4.8828062059
 10
-6.0616022316
 20
4.8706156271
 10
-6.0584890534
 20
4.8595563332
 10
-6.0566525116
 20
4.8496793419
 10
-6.0560504934
 20
4.8409846532
  0
LINE
  5
2CC
100
AcDbEntity
  8
RACCORDO
100
AcDbLine
 62
7
  6
CONTINUOUS
 10
2.4126374812
 20
-5.3260430698
 11
2.4125253755
 21
-5.3258896847
  0
LINE
  5
2CD
100
AcDbEntity
  8
IMPORT_IGES
100
AcDbLine
 62
7
  6
CONTINUOUS
 10
-4.030378746
 20
2.8966491727
 11
-3.930378746
 21
2.6966491727
  0
LINE
  5
2CE
100
AcDbEntity
  8
0
100
AcDbLine
 62
250
  6
CONTINUOUS
 10
-10.6148486101
 20
22.8175933214
 11
-10.7564310932
 21
23.2426861842
  0
LINE
  5
2CF
100
AcDbEntity
  8
IMPORT_IGES
100
AcDbLine
 62
7
  6
CONTINUOUS
 10
-1.5310504934
 20
-2.9073138158
 11
-1.5310504934
 21
-3.7073138158
  0
LINE
  5
2D0
100
AcDbEntity
  8
0
100
AcDbLine
 62
7
  6
CONTINUOUS
 10
-1.3060504934
 20
4.7955701438
 11
-1.3060504934
 21
1.7426861842
  0
LINE
  5
2D1
100
AcDbEntity
  8
IMPORT_IGES
100
AcDbLine
 62
7
  6
CONTINUOUS
 10
-0.870378746
 20
1.3426861842
 11
-0.870378746
 21
2.9450347389
  0
LINE
  5
2D2
100
AcDbEntity
  8
0
100
AcDbLine
 62
7
  6
CONTINUOUS
 10
-0.8060504934
 20
4.7955701438
 11
-0.8060504934
 21
1.7426861842
  0
LINE
  5
2D3
100
AcDbEntity
  8
0
100
AcDbLine
 62
7
  6
CONTINUOUS
 10
-0.3060504934
 20
4.7955701438
 11
-0.3060504934
 21
1.7426861842
  0
LWPOLYLINE
  5
2D4
100
AcDbEntity
  8
IMPORT_IGES
100
AcDbPolyline
 62
7
  6
CONTINUOUS
 90
5
 70
0
 10
-3.5560504934
 20
-2.4573138158
 10
-3.5225672518
 20
-2.4232770074
 10
-3.4899422724
 20
-2.3907750503
 10
-3.4585477664
 20
-2.3598079447
 10
-3.4287569316
 20
-2.3301570279
  0
LWPOLYLINE
  5
2D5
100
AcDbEntity
  8
RACCORDO
100
AcDbPolyline
 62
7
  6
CONTINUOUS
 90
7
 70
0
 10
-3.8691176123
 20
-2.4725804373
 10
-3.8281295856
 20
-2.4308749286
 10
-3.8107208837
 20
-2.4135098631
 10
-3.7966012748
 20
-2.398827649
 10
-3.7861656606
 20
-2.3873400337
 10
-3.7790191394
 20
-2.3796831228
 10
-3.7751617114
 20
-2.3764250338
  0
LWPOLYLINE
  5
2D6
100
AcDbEntity
  8
RACCORDO
100
AcDbPolyline
 62
7
  6
CONTINUOUS
 90
3
 70
0
 10
-3.943818756
 20
-2.547839149
 10
-3.892696937
 20
-2.4961597367
 10
-3.8691176123
 20
-2.4725804373
  0
LINE
  5
2D7
100
AcDbEntity
  8
RACCORDO
100
AcDbLine
 62
7
  6
CONTINUOUS
 10
-3.7560504934
 20
-2.3573138158
 11
-3.7751617114
 21
-2.3764250338
  0
LINE
  5
2D8
100
AcDbEntity
  8
RACCORDO
100
AcDbLine
 62
7
  6
CONTINUOUS
 10
-4.2442151929
 20
-2.8494037083
 11
-3.943818756
 21
-2.547839149
  0
LWPOLYLINE
  5
2D9
100
AcDbEntity
  8
IMPORT_IGES
100
AcDbPolyline
 62
7
  6
CONTINUOUS
 90
3
 70
0
 10
-3.4287569316
 20
-2.3301570279
 10
-3.3748501024
 20
-2.276115736
 10
-3.3511187098
 20
-2.2524664616
  0
LWPOLYLINE
  5
2DA
100
AcDbEntity
  8
IMPORT_IGES
100
AcDbPolyline
 62
7
  6
CONTINUOUS
 90
8
 70
0
 10
-3.3511187098
 20
-2.2524664616
 10
-3.3108779574
 20
-2.2121410766
 10
-3.2945671532
 20
-2.1958824244
 10
-3.2810036038
 20
-2.1822152585
 10
-3.2702405996
 20
-2.1714897933
 10
-3.2624083829
 20
-2.1638227668
 10
-3.2576500507
 20
-2.159097441
 10
-3.2560504934
 20
-2.1573138158
  0
LINE
  5
2DB
100
AcDbEntity
  8
RACCORDO
100
AcDbLine
 62
7
  6
CONTINUOUS
 10
-4.2750855672
 20
-2.8800716392
 11
-4.2442151929
 21
-2.8494037083
  0
LWPOLYLINE
  5
2DC
100
AcDbEntity
  8
0
100
AcDbPolyline
 62
7
  6
CONTINUOUS
 90
2
 70
0
 43
0.3500000006
 10
20.2939493637
 20
-0.5144571075
 10
18.7939500389
 20
-0.5144571075
  0
LINE
  5
2DD
100
AcDbEntity
  8
IMPORT_IGES
100
AcDbLine
 62
7
  6
CONTINUOUS
 10
5.8439495066
 20
-0.1364426005
 11
-6.0560504934
 21
-0.1364426005
  0
LWPOLYLINE
  5
2DE
100
AcDbEntity
  8
0
100
AcDbPolyline
 62
7
  6
CONTINUOUS
 90
4
 70
0
 43
0.3500000006
 10
17.9368064346
 20
0.8426855164
 10
17.2939495811
 20
0.8426855164
 10
17.2939495811
 20
2.3426859741
 10
20.2939493637
 20
1.4855435028
  0
LINE
  5
2DF
100
AcDbEntity
  8
IMPORT_IGES
100
AcDbLine
 62
7
  6
CONTINUOUS
 10
3.0443785302
 20
-3.7077089348
 11
3.0439495066
 21
-3.7073138158
  0
LINE
  5
2E0
100
AcDbEntity
  8
RACCORDO
100
AcDbLine
 62
7
  6
CONTINUOUS
 10
-7.0748513423
 20
6.0667110516
 11
-7.0439201621
 21
6.0359788522
  0
LINE
  5
2E1
100
AcDbEntity
  8
RACCORDO
100
AcDbLine
 62
7
  6
CONTINUOUS
 10
4.0627319457
 20
-4.4814203553
 11
4.0317967172
 21
-4.4506838693
  0
LINE
  5
2E2
100
AcDbEntity
  8
IMPORT_IGES
100
AcDbLine
 62
7
  6
CONTINUOUS
 10
3.2940950724
 20
-3.9573138158
 11
3.2506792905
 21
-3.9141016509
  0
LWPOLYLINE
  5
2E3
100
AcDbEntity
  8
IMPORT_IGES
100
AcDbPolyline
 62
7
  6
CONTINUOUS
 90
3
 70
0
 10
3.0822081136
 20
-2.1956278941
 10
3.1173632549
 20
-2.2306918195
 10
3.1386950333
 20
-2.2521469073
  0
LWPOLYLINE
  5
2E4
100
AcDbEntity
  8
IMPORT_IGES
100
AcDbPolyline
 62
7
  6
CONTINUOUS
 90
7
 70
0
 10
3.1386950333
 20
-2.2521469073
 10
3.1884340084
 20
-2.3017648106
 10
3.2164246469
 20
-2.3299276263
 10
3.246269462
 20
-2.3596305678
 10
3.277720587
 20
-2.3906515246
 10
3.3104054079
 20
-2.4232126072
 10
3.3439495066
 20
-2.4573138158
  0
LINE
  5
2E5
100
AcDbEntity
  8
RACCORDO
100
AcDbLine
 62
7
  6
CONTINUOUS
 10
-6.5560504934
 20
5.5426861842
 11
-6.5749274883
 21
5.5615631791
  0
LINE
  5
2E6
100
AcDbEntity
  8
RACCORDO
100
AcDbLine
 62
7
  6
CONTINUOUS
 10
3.5439495066
 20
-3.9573138158
 11
3.562808092
 21
-3.9761724012
  0
LINE
  5
2E7
100
AcDbEntity
  8
IMPORT_IGES
100
AcDbLine
 62
7
  6
CONTINUOUS
 10
3.2506792905
 20
-3.9141016509
 11
3.0478836195
 21
-3.7112479287
  0
LWPOLYLINE
  5
2E8
100
AcDbEntity
  8
RACCORDO
100
AcDbPolyline
 62
7
  6
CONTINUOUS
 90
6
 70
0
 10
-6.6277555432
 20
5.6165426989
 10
-6.6103577622
 20
5.5990837749
 10
-6.59625689
 20
5.5842732905
 10
-6.5858501806
 20
5.5726433226
 10
-6.57874038
 20
5.5648727085
 10
-6.5749274883
 20
5.5615631791
  0
LWPOLYLINE
  5
2E9
100
AcDbEntity
  8
RACCORDO
100
AcDbPolyline
 62
7
  6
CONTINUOUS
 90
3
 70
0
 10
-6.6922903478
 20
5.6820805445
 10
-6.6687218361
 20
5.6584222052
 10
-6.6277555432
 20
5.6165426989
  0
LWPOLYLINE
  5
2EA
100
AcDbEntity
  8
RACCORDO
100
AcDbPolyline
 62
7
  6
CONTINUOUS
 90
6
 70
0
 10
3.6156268224
 20
-4.0311872974
 10
3.598229775
 20
-4.0137221192
 10
3.5841301553
 20
-3.9989030732
 10
3.5737253731
 20
-3.9872635911
 10
3.5666180187
 20
-3.9794853718
 10
3.562808092
 20
-3.9761724012
  0
LWPOLYLINE
  5
2EB
100
AcDbEntity
  8
RACCORDO
100
AcDbPolyline
 62
7
  6
CONTINUOUS
 90
3
 70
0
 10
3.6801594497
 20
-4.0967420006
 10
3.6565916597
 20
-4.0730783963
 10
3.6156268224
 20
-4.0311872974
  0
LINE
  5
2EC
100
AcDbEntity
  8
RACCORDO
100
AcDbLine
 62
7
  6
CONTINUOUS
 10
-7.0439201621
 20
6.0359788522
 11
-6.7433899277
 21
5.73389717
  0
LINE
  5
2ED
100
AcDbEntity
  8
RACCORDO
100
AcDbLine
 62
7
  6
CONTINUOUS
 10
4.0317967172
 20
-4.4506838693
 11
3.7312575467
 21
-4.1485677638
  0
LINE
  5
2EE
100
AcDbEntity
  8
IMPORT_IGES
100
AcDbLine
 62
7
  6
CONTINUOUS
 10
3.0478836195
 20
-3.7112479287
 11
3.0443785302
 21
-3.7077089348
  0
LINE
  5
2EF
100
AcDbEntity
  8
RACCORDO
100
AcDbLine
 62
7
  6
CONTINUOUS
 10
-6.7433899277
 20
5.73389717
 11
-6.6922903478
 21
5.6820805445
  0
LINE
  5
2F0
100
AcDbEntity
  8
RACCORDO
100
AcDbLine
 62
7
  6
CONTINUOUS
 10
3.7312575467
 20
-4.1485677638
 11
3.6801594497
 21
-4.0967420006
  0
LINE
  5
2F1
100
AcDbEntity
  8
0
100
AcDbLine
 62
7
  6
CONTINUOUS
 10
0.1939495066
 20
4.7955701438
 11
0.1939495066
 21
1.7426861842
  0
LINE
  5
2F2
100
AcDbEntity
  8
0
100
AcDbLine
 62
7
  6
CONTINUOUS
 10
0.6939495066
 20
4.7955701438
 11
0.6939495066
 21
1.7426861842
  0
LINE
  5
2F3
100
AcDbEntity
  8
0
100
AcDbLine
 62
7
  6
CONTINUOUS
 10
1.1939495066
 20
4.7955701438
 11
1.1939495066
 21
1.7426861842
  0
LINE
  5
2F4
100
AcDbEntity
  8
IMPORT_IGES
100
AcDbLine
 62
7
  6
CONTINUOUS
 10
1.3189495066
 20
-3.7073138158
 11
1.3189495066
 21
-2.9073138158
  0
LINE
  5
2F5
100
AcDbEntity
  8
IMPORT_IGES
100
AcDbLine
 62
7
  6
CONTINUOUS
 10
1.6690960043
 20
1.7426861842
 11
1.6690960043
 21
1.3426861842
  0
LINE
  5
2F6
100
AcDbEntity
  8
0
100
AcDbLine
 62
7
  6
CONTINUOUS
 10
1.6939495066
 20
4.7955701438
 11
1.6939495066
 21
1.7426861842
  0
LINE
  5
2F7
100
AcDbEntity
  8
IMPORT_IGES
100
AcDbLine
 62
7
  6
CONTINUOUS
 10
1.6939495066
 20
2.9947417435
 11
1.7690960043
 21
3.1450347389
  0
LINE
  5
2F8
100
AcDbEntity
  8
IMPORT_IGES
100
AcDbLine
 62
7
  6
CONTINUOUS
 10
2.6939495066
 20
2.953691244
 11
2.789621254
 21
3.1450347389
  0
LINE
  5
2F9
100
AcDbEntity
  8
RACCORDO
100
AcDbLine
 62
7
  6
CONTINUOUS
 10
-2.6247384627
 20
-5.3260430612
 11
-2.6246263623
 21
-5.3258896847
  0
LWPOLYLINE
  5
2FA
100
AcDbEntity
  8
RACCORDO
100
AcDbPolyline
 62
7
  6
CONTINUOUS
 90
7
 70
0
 10
-3.8683022832
 20
-4.0726737606
 10
-3.8273347237
 20
-4.0307801224
 10
-3.8100079112
 20
-4.013372169
 10
-3.7959861785
 20
-3.9986497604
 10
-3.7856553988
 20
-3.9871241103
 10
-3.7786296989
 20
-3.9794410975
 10
-3.7749090789
 20
-3.9761724012
  0
LWPOLYLINE
  5
2FB
100
AcDbEntity
  8
RACCORDO
100
AcDbPolyline
 62
7
  6
CONTINUOUS
 90
7
 70
0
 10
-2.7186926466
 20
-4.0730783963
 10
-2.6777278092
 20
-4.0311872974
 10
-2.6603307618
 20
-4.0137221192
 10
-2.6462311421
 20
-3.9989030732
 10
-2.63582636
 20
-3.9872635911
 10
-2.6287190055
 20
-3.9794853718
 10
-2.6249090789
 20
-3.9761724012
  0
LWPOLYLINE
  5
2FC
100
AcDbEntity
  8
RACCORDO
100
AcDbPolyline
 62
7
  6
CONTINUOUS
 90
7
 70
0
 10
6.4566208492
 20
5.6584222052
 10
6.4156545564
 20
5.6165426989
 10
6.3982567753
 20
5.5990837749
 10
6.3841559031
 20
5.5842732905
 10
6.3737491937
 20
5.5726433226
 10
6.3666393932
 20
5.5648727085
 10
6.3628265015
 20
5.5615631791
  0
LWPOLYLINE
  5
2FD
100
AcDbEntity
  8
IMPORT_IGES
100
AcDbPolyline
 62
7
  6
CONTINUOUS
 90
5
 70
0
 10
-2.4310504934
 20
-4.0073138158
 10
-2.3975672518
 20
-3.9732770074
 10
-2.3649422724
 20
-3.9407750503
 10
-2.3335477664
 20
-3.9098079447
 10
-2.3037569316
 20
-3.8801570279
  0
LWPOLYLINE
  5
2FE
100
AcDbEntity
  8
RACCORDO
100
AcDbPolyline
 62
7
  6
CONTINUOUS
 90
3
 70
0
 10
-3.9432763806
 20
-4.1484830709
 10
-3.8919430303
 20
-4.0964148856
 10
-3.8683022832
 20
-4.0726737606
  0
LWPOLYLINE
  5
2FF
100
AcDbEntity
  8
RACCORDO
100
AcDbPolyline
 62
7
  6
CONTINUOUS
 90
3
 70
0
 10
-2.7933585335
 20
-4.1485677638
 10
-2.7422604365
 20
-4.0967420006
 10
-2.7186926466
 20
-4.0730783963
  0
LWPOLYLINE
  5
300
100
AcDbEntity
  8
RACCORDO
100
AcDbPolyline
 62
7
  6
CONTINUOUS
 90
3
 70
0
 10
6.5312889409
 20
5.73389717
 10
6.480189361
 20
5.6820805445
 10
6.4566208492
 20
5.6584222052
  0
LINE
  5
301
100
AcDbEntity
  8
RACCORDO
100
AcDbLine
 62
7
  6
CONTINUOUS
 10
-4.2441862599
 20
-4.4509731422
 11
-3.9432763806
 21
-4.1484830709
  0
LINE
  5
302
100
AcDbEntity
  8
RACCORDO
100
AcDbLine
 62
7
  6
CONTINUOUS
 10
6.8318191753
 20
6.0359788522
 11
6.5312889409
 21
5.73389717
  0
LINE
  5
303
100
AcDbEntity
  8
RACCORDO
100
AcDbLine
 62
7
  6
CONTINUOUS
 10
-3.093897704
 20
-4.4506838693
 11
-2.7933585335
 21
-4.1485677638
  0
LINE
  5
304
100
AcDbEntity
  8
RACCORDO
100
AcDbLine
 62
7
  6
CONTINUOUS
 10
-3.7560504934
 20
-3.9573138158
 11
-3.7749975844
 21
-3.9762609067
  0
LINE
  5
305
100
AcDbEntity
  8
RACCORDO
100
AcDbLine
 62
7
  6
CONTINUOUS
 10
6.3439495066
 20
5.5426861842
 11
6.3629132598
 21
5.5616499375
  0
LINE
  5
306
100
AcDbEntity
  8
RACCORDO
100
AcDbLine
 62
7
  6
CONTINUOUS
 10
-2.6060504934
 20
-3.9573138158
 11
-2.6249090789
 21
-3.9761724012
  0
LWPOLYLINE
  5
307
100
AcDbEntity
  8
IMPORT_IGES
100
AcDbPolyline
 62
7
  6
CONTINUOUS
 90
3
 70
0
 10
-2.3037569316
 20
-3.8801570279
 10
-2.2498501024
 20
-3.826115736
 10
-2.2261187098
 20
-3.8024664616
  0
LWPOLYLINE
  5
308
100
AcDbEntity
  8
IMPORT_IGES
100
AcDbPolyline
 62
7
  6
CONTINUOUS
 90
8
 70
0
 10
-2.2261187098
 20
-3.8024664616
 10
-2.1858779574
 20
-3.7621410766
 10
-2.1695671532
 20
-3.7458824244
 10
-2.1560036038
 20
-3.7322152585
 10
-2.1452405996
 20
-3.7214897933
 10
-2.1374083829
 20
-3.7138227668
 10
-2.1326500507
 20
-3.709097441
 10
-2.1310504934
 20
-3.7073138158
  0
LINE
  5
309
100
AcDbEntity
  8
RACCORDO
100
AcDbLine
 62
7
  6
CONTINUOUS
 10
-4.2748329326
 20
-4.4814203553
 11
-4.2441862599
 21
-4.4509731422
  0
LINE
  5
30A
100
AcDbEntity
  8
RACCORDO
100
AcDbLine
 62
7
  6
CONTINUOUS
 10
6.8627503554
 20
6.0667110516
 11
6.8318191753
 21
6.0359788522
  0
LINE
  5
30B
100
AcDbEntity
  8
RACCORDO
100
AcDbLine
 62
7
  6
CONTINUOUS
 10
-3.1248329326
 20
-4.4814203553
 11
-3.093897704
 21
-4.4506838693
  0
LINE
  5
30C
100
AcDbEntity
  8
IMPORT_IGES
100
AcDbLine
 62
7
  6
CONTINUOUS
 10
-3.2600030567
 20
-3.7112663791
 11
-3.5061959171
 21
-3.9573138158
  0
LWPOLYLINE
  5
30D
100
AcDbEntity
  8
IMPORT_IGES
100
AcDbPolyline
 62
7
  6
CONTINUOUS
 90
3
 70
0
 10
-3.2560504934
 20
-3.7073138158
 10
-3.2564816877
 20
-3.707711781
 10
-3.2600030567
 20
-3.7112663791
  0
LINE
  5
30E
100
AcDbEntity
  8
IMPORT_IGES
100
AcDbLine
 62
7
  6
CONTINUOUS
 10
-3.0609039957
 20
1.3426861842
 11
-2.2609039957
 21
1.3426861842
  0
LINE
  5
30F
100
AcDbEntity
  8
IMPORT_IGES
100
AcDbLine
 62
7
  6
CONTINUOUS
 10
-0.870378746
 20
1.3426861842
 11
1.6690960043
 21
1.3426861842
  0
LINE
  5
310
100
AcDbEntity
  8
0
100
AcDbLine
 62
7
  6
CONTINUOUS
 10
-3.8060504934
 20
1.7426861842
 11
-3.3060504934
 21
1.7426861842
  0
LINE
  5
311
100
AcDbEntity
  8
0
100
AcDbLine
 62
7
  6
CONTINUOUS
 10
-2.8060504934
 20
1.7426861842
 11
-2.3060504934
 21
1.7426861842
  0
LINE
  5
312
100
AcDbEntity
  8
0
100
AcDbLine
 62
7
  6
CONTINUOUS
 10
-1.8060504934
 20
1.7426861842
 11
-1.3060504934
 21
1.7426861842
  0
LINE
  5
313
100
AcDbEntity
  8
0
100
AcDbLine
 62
7
  6
CONTINUOUS
 10
-0.8060504934
 20
1.7426861842
 11
-0.3060504934
 21
1.7426861842
  0
LINE
  5
314
100
AcDbEntity
  8
0
100
AcDbLine
 62
7
  6
CONTINUOUS
 10
0.1939495066
 20
1.7426861842
 11
0.6939495066
 21
1.7426861842
  0
LINE
  5
315
100
AcDbEntity
  8
0
100
AcDbLine
 62
7
  6
CONTINUOUS
 10
1.1939495066
 20
1.7426861842
 11
1.6939495066
 21
1.7426861842
  0
LINE
  5
316
100
AcDbEntity
  8
0
100
AcDbLine
 62
7
  6
CONTINUOUS
 10
2.1939495066
 20
1.7426861842
 11
2.6939495066
 21
1.7426861842
  0
LINE
  5
317
100
AcDbEntity
  8
0
100
AcDbLine
 62
7
  6
CONTINUOUS
 10
3.1939495066
 20
1.7426861842
 11
3.6939495066
 21
1.7426861842
  0
LINE
  5
318
100
AcDbEntity
  8
IMPORT_IGES
100
AcDbLine
 62
7
  6
CONTINUOUS
 10
3.709621254
 20
1.9666491727
 11
3.6939495066
 21
1.9666491727
  0
LINE
  5
319
100
AcDbEntity
  8
IMPORT_IGES
100
AcDbLine
 62
7
  6
CONTINUOUS
 10
-1.8060504934
 20
1.9666491727
 11
-2.2609039957
 21
1.9666491727
  0
LINE
  5
31A
100
AcDbEntity
  8
IMPORT_IGES
100
AcDbLine
 62
7
  6
CONTINUOUS
 10
-3.0609039957
 20
1.9666491727
 11
-3.3060504934
 21
1.9666491727
  0
LINE
  5
31B
100
AcDbEntity
  8
IMPORT_IGES
100
AcDbLine
 62
7
  6
CONTINUOUS
 10
-3.8060504934
 20
1.9666491727
 11
-3.930378746
 21
1.9666491727
  0
LWPOLYLINE
  5
31C
100
AcDbEntity
  8
IMPORT_IGES
100
AcDbPolyline
 62
7
  6
CONTINUOUS
 90
8
 70
0
 10
5.8439495066
 20
-2.1573138158
 10
5.8456884385
 20
-2.1588930184
 10
5.8503671739
 20
-2.1635999633
 10
5.8579857128
 20
-2.1713644808
 10
5.8686547471
 20
-2.1820613233
 10
5.8822635849
 20
-2.1955724228
 10
5.8984801509
 20
-2.2118433637
 10
5.938782598
 20
-2.2520593425
  0
LINE
  5
31D
100
AcDbEntity
  8
RACCORDO
100
AcDbLine
 62
7
  6
CONTINUOUS
 10
4.0629845803
 20
-2.8800716392
 11
4.0323117567
 21
-2.8496017077
  0
LWPOLYLINE
  5
31E
100
AcDbEntity
  8
RACCORDO
100
AcDbPolyline
 62
7
  6
CONTINUOUS
 90
6
 70
0
 10
3.6157589686
 20
-2.4305974493
 10
3.5983982104
 20
-2.413271594
 10
3.5843318949
 20
-2.3986553326
 10
3.5739470621
 20
-2.3872452128
 10
3.566856672
 20
-2.3796530306
 10
3.5630607246
 20
-2.3764250338
  0
LINE
  5
31F
100
AcDbEntity
  8
RACCORDO
100
AcDbLine
 62
7
  6
CONTINUOUS
 10
3.5439495066
 20
-2.3573138158
 11
3.5631212423
 21
-2.3764855515
  0
LWPOLYLINE
  5
320
100
AcDbEntity
  8
RACCORDO
100
AcDbPolyline
 62
7
  6
CONTINUOUS
 90
3
 70
0
 10
3.6803785011
 20
-2.4959365016
 10
3.656749114
 20
-2.472304398
 10
3.6157589686
 20
-2.4305974493
  0
LINE
  5
321
100
AcDbEntity
  8
RACCORDO
100
AcDbLine
 62
7
  6
CONTINUOUS
 10
4.0323117567
 20
-2.8496017077
 11
3.7316615183
 21
-2.5477813267
  0
LINE
  5
322
100
AcDbEntity
  8
RACCORDO
100
AcDbLine
 62
7
  6
CONTINUOUS
 10
3.7316615183
 20
-2.5477813267
 11
3.6803785011
 21
-2.4959365016
  0
LWPOLYLINE
  5
323
100
AcDbEntity
  8
IMPORT_IGES
100
AcDbPolyline
 62
7
  6
CONTINUOUS
 90
6
 70
0
 10
3.0439495066
 20
-2.1573138158
 10
3.0455287092
 20
-2.1590527477
 10
3.0502356541
 20
-2.1637314831
 10
3.0580001716
 20
-2.1713500221
 10
3.0686970141
 20
-2.1820190563
 10
3.0822081136
 20
-2.1956278941
  0
LINE
  5
324
100
AcDbEntity
  8
IMPORT_IGES
100
AcDbLine
 62
7
  6
CONTINUOUS
 10
-0.970378746
 20
3.1450347389
 11
-0.870378746
 21
2.9450347389
  0
LINE
  5
325
100
AcDbEntity
  8
IMPORT_IGES
100
AcDbLine
 62
7
  6
CONTINUOUS
 10
1.9189495066
 20
-5.3073138158
 11
1.9189495066
 21
-3.7073138158
  0
LINE
  5
326
100
AcDbEntity
  8
0
100
AcDbLine
 62
7
  6
CONTINUOUS
 10
2.1939495066
 20
4.7955701438
 11
2.1939495066
 21
1.7426861842
  0
LINE
  5
327
100
AcDbEntity
  8
IMPORT_IGES
100
AcDbLine
 62
250
  6
CONTINUOUS
 10
2.2189495066
 20
-5.3073138158
 11
2.2189495066
 21
-4.0073138158
  0
LINE
  5
328
100
AcDbEntity
  8
DRAFT
100
AcDbLine
 62
7
  6
CONTINUOUS
 10
2.3939495066
 20
-3.9573138158
 11
2.3939495066
 21
-5.3073138158
  0
LINE
  5
329
100
AcDbEntity
  8
DRAFT
100
AcDbLine
 62
7
  6
CONTINUOUS
 10
2.6752278478
 20
-22.6136761535
 11
2.6752278478
 21
-21.688333264
  0
LINE
  5
32A
100
AcDbEntity
  8
DRAFT
100
AcDbLine
 62
7
  6
CONTINUOUS
 10
2.6752278478
 20
23.3737056324
 11
2.6752278478
 21
24.2990485219
  0
LINE
  5
32B
100
AcDbEntity
  8
0
100
AcDbLine
 62
7
  6
CONTINUOUS
 10
2.6939495066
 20
4.7955701438
 11
2.6939495066
 21
1.7426861842
  0
LINE
  5
32C
100
AcDbEntity
  8
DRAFT
100
AcDbLine
 62
7
  6
CONTINUOUS
 10
2.8939495066
 20
-22.6573138158
 11
2.8939495066
 21
-21.5573138158
  0
LINE
  5
32D
100
AcDbEntity
  8
DRAFT
100
AcDbLine
 62
7
  6
CONTINUOUS
 10
2.8939495066
 20
23.2426861842
 11
2.8939495066
 21
24.3426861842
  0
LINE
  5
32E
100
AcDbEntity
  8
IMPORT_IGES
100
AcDbLine
 62
7
  6
CONTINUOUS
 10
3.0439495066
 20
-3.7073138158
 11
3.0439495066
 21
-0.1364426005
  0
LINE
  5
32F
100
AcDbEntity
  8
0
100
AcDbLine
 62
7
  6
CONTINUOUS
 10
3.1939495066
 20
4.7955701438
 11
3.1939495066
 21
1.7426861842
  0
LINE
  5
330
100
AcDbEntity
  8
IMPORT_IGES
100
AcDbLine
 62
250
  6
CONTINUOUS
 10
3.3439495066
 20
-2.4573138158
 11
3.3439495066
 21
-3.9573138158
  0
LINE
  5
331
100
AcDbEntity
  8
DRAFT
100
AcDbLine
 62
7
  6
CONTINUOUS
 10
3.5439495066
 20
-2.3573138158
 11
3.5439495066
 21
-3.9573138158
  0
LINE
  5
332
100
AcDbEntity
  8
RACCORDO
100
AcDbLine
 62
250
  6
CONTINUOUS
 10
2.4128965965
 20
-3.9762609057
 11
2.4126374812
 21
-5.3260430698
  0
LINE
  5
333
100
AcDbEntity
  8
RACCORDO
100
AcDbLine
 62
250
  6
CONTINUOUS
 10
2.9127318878
 20
-4.4814203553
 11
2.9124491386
 21
-5.8324887072
  0
LINE
  5
334
100
AcDbEntity
  8
RACCORDO
100
AcDbLine
 62
250
  6
CONTINUOUS
 10
3.5631212423
 20
-2.3764855515
 11
3.562896595
 21
-3.9762609042
  0
LINE
  5
335
100
AcDbEntity
  8
0
100
AcDbLine
 62
250
  6
CONTINUOUS
 10
10.4027476233
 20
22.8175933214
 11
10.5443301063
 21
23.2426861842
  0
LINE
  5
336
100
AcDbEntity
  8
0
100
AcDbLine
 62
250
  6
CONTINUOUS
 10
10.9026714709
 20
22.318278554
 11
11.0439495066
 21
22.7424573321
  0
LINE
  5
337
100
AcDbEntity
  8
IMPORT_IGES
100
AcDbLine
 62
7
  6
CONTINUOUS
 10
3.709621254
 20
2.6966491727
 11
3.809621254
 21
2.8966491727
  0
LINE
  5
338
100
AcDbEntity
  8
IMPORT_IGES
100
AcDbLine
 62
7
  6
CONTINUOUS
 10
6.066917699
 20
5.1994560482
 11
6.1439495066
 21
5.2992422227
  0
LINE
  5
339
100
AcDbEntity
  8
IMPORT_IGES
100
AcDbLine
 62
7
  6
CONTINUOUS
 10
-1.3679675761
 20
-4.9573138158
 11
-1.1697236094
 21
-4.7573138158
  0
LWPOLYLINE
  5
33A
100
AcDbEntity
  8
RACCORDO
100
AcDbPolyline
 62
7
  6
CONTINUOUS
 90
3
 70
0
 10
-2.7190369419
 20
-5.4242095942
 10
-2.7426350644
 20
-5.4479876709
 10
-2.7937960738
 20
-5.5000178333
  0
LINE
  5
33B
100
AcDbEntity
  8
RACCORDO
100
AcDbLine
 62
7
  6
CONTINUOUS
 10
-2.7937960738
 20
-5.5000178333
 11
-2.97001511
 21
-5.6775988838
  0
LINE
  5
33C
100
AcDbEntity
  8
RACCORDO
100
AcDbLine
 62
7
  6
CONTINUOUS
 10
-2.97001511
 20
-5.6775988838
 11
-3.0938262339
 21
-5.8019584584
  0
LINE
  5
33D
100
AcDbEntity
  8
RACCORDO
100
AcDbLine
 62
7
  6
CONTINUOUS
 10
-2.6060504934
 20
-5.3073138158
 11
-2.6246263623
 21
-5.3258896847
  0
LINE
  5
33E
100
AcDbEntity
  8
RACCORDO
100
AcDbLine
 62
7
  6
CONTINUOUS
 10
-3.0938262339
 20
-5.8019584584
 11
-3.1245502117
 21
-5.8324887072
  0
LWPOLYLINE
  5
33F
100
AcDbEntity
  8
RACCORDO
100
AcDbPolyline
 62
7
  6
CONTINUOUS
 90
7
 70
0
 10
-2.6247384734
 20
-5.3260430784
 10
-2.6286975042
 20
-5.3297981091
 10
-2.6359264472
 20
-5.3377820699
 10
-2.6464253024
 20
-5.349499179
 10
-2.6605831999
 20
-5.3644065597
 10
-2.6780110096
 20
-5.3820390256
 10
-2.7190369419
 20
-5.4242095942
  0
LINE
  5
340
100
AcDbEntity
  8
IMPORT_IGES
100
AcDbLine
 62
7
  6
CONTINUOUS
 10
4.2939495066
 20
2.8966491727
 11
3.809621254
 21
2.8966491727
  0
LINE
  5
341
100
AcDbEntity
  8
IMPORT_IGES
100
AcDbLine
 62
7
  6
CONTINUOUS
 10
-4.030378746
 20
2.8966491727
 11
-4.5060504934
 21
2.8966491727
  0
LINE
  5
342
100
AcDbEntity
  8
IMPORT_IGES
100
AcDbLine
 62
7
  6
CONTINUOUS
 10
3.1090960043
 20
3.1450347389
 11
2.789621254
 21
3.1450347389
  0
LINE
  5
343
100
AcDbEntity
  8
IMPORT_IGES
100
AcDbLine
 62
7
  6
CONTINUOUS
 10
2.089621254
 20
3.1450347389
 11
1.7690960043
 21
3.1450347389
  0
LINE
  5
344
100
AcDbEntity
  8
IMPORT_IGES
100
AcDbLine
 62
7
  6
CONTINUOUS
 10
-0.970378746
 20
3.1450347389
 11
-1.290378746
 21
3.1450347389
  0
LINE
  5
345
100
AcDbEntity
  8
RACCORDO
100
AcDbLine
 62
7
  6
CONTINUOUS
 10
6.8629845803
 20
-2.8800716392
 11
6.832114206
 21
-2.8494037083
  0
LWPOLYLINE
  5
346
100
AcDbEntity
  8
RACCORDO
100
AcDbPolyline
 62
7
  6
CONTINUOUS
 90
6
 70
0
 10
6.4160285988
 20
-2.4308749286
 10
6.3986198968
 20
-2.4135098631
 10
6.384500288
 20
-2.398827649
 10
6.3740646737
 20
-2.3873400337
 10
6.3669181526
 20
-2.3796831228
 10
6.3630607246
 20
-2.3764250338
  0
LWPOLYLINE
  5
347
100
AcDbEntity
  8
RACCORDO
100
AcDbPolyline
 62
7
  6
CONTINUOUS
 90
3
 70
0
 10
6.4805959502
 20
-2.4961597367
 10
6.4570166255
 20
-2.4725804373
 10
6.4160285988
 20
-2.4308749286
  0
LINE
  5
348
100
AcDbEntity
  8
RACCORDO
100
AcDbLine
 62
7
  6
CONTINUOUS
 10
6.3439495066
 20
-2.3573138158
 11
6.3630607246
 21
-2.3764250338
  0
LWPOLYLINE
  5
349
100
AcDbEntity
  8
IMPORT_IGES
100
AcDbPolyline
 62
7
  6
CONTINUOUS
 90
3
 70
0
 10
5.938782598
 20
-2.2520593425
 10
5.9624441438
 20
-2.275805605
 10
6.016563317
 20
-2.3297889561
  0
LINE
  5
34A
100
AcDbEntity
  8
IMPORT_IGES
100
AcDbLine
 62
7
  6
CONTINUOUS
 10
6.016563317
 20
-2.3297889561
 11
6.0439573316
 21
-2.3573138158
  0
LINE
  5
34B
100
AcDbEntity
  8
RACCORDO
100
AcDbLine
 62
7
  6
CONTINUOUS
 10
6.832114206
 20
-2.8494037083
 11
6.5317177692
 21
-2.547839149
  0
LINE
  5
34C
100
AcDbEntity
  8
RACCORDO
100
AcDbLine
 62
7
  6
CONTINUOUS
 10
6.5317177692
 20
-2.547839149
 11
6.4805959502
 21
-2.4961597367
  0
LINE
  5
34D
100
AcDbEntity
  8
IMPORT_IGES
100
AcDbLine
 62
7
  6
CONTINUOUS
 10
2.089621254
 20
3.1450347389
 11
2.189621254
 21
2.9450347389
  0
LINE
  5
34E
100
AcDbEntity
  8
0
100
AcDbLine
 62
250
  6
CONTINUOUS
 10
10.5443301063
 20
-21.5573138158
 11
10.4027476233
 21
-21.132220953
  0
LINE
  5
34F
100
AcDbEntity
  8
0
100
AcDbLine
 62
250
  6
CONTINUOUS
 10
11.0439495066
 20
-21.0570849637
 11
10.9026714709
 21
-20.6329061856
  0
LINE
  5
350
100
AcDbEntity
  8
0
100
AcDbLine
 62
7
  6
CONTINUOUS
 10
3.6939495066
 20
4.7955701438
 11
3.6939495066
 21
1.7426861842
  0
LINE
  5
351
100
AcDbEntity
  8
IMPORT_IGES
100
AcDbLine
 62
7
  6
CONTINUOUS
 10
3.709621254
 20
2.6966491727
 11
3.709621254
 21
1.9666491727
  0
LINE
  5
352
100
AcDbEntity
  8
IMPORT_IGES
100
AcDbLine
 62
7
  6
CONTINUOUS
 10
4.2939495066
 20
4.2066491727
 11
4.2939495066
 21
2.8966491727
  0
LINE
  5
353
100
AcDbEntity
  8
IMPORT_IGES
100
AcDbLine
 62
7
  6
CONTINUOUS
 10
4.9939495066
 20
4.7955701438
 11
4.9939495066
 21
4.7426861842
  0
LINE
  5
354
100
AcDbEntity
  8
RACCORDO
100
AcDbLine
 62
250
  6
CONTINUOUS
 10
4.062984482
 20
-2.8800716392
 11
4.0627318173
 21
-4.4814203553
  0
LINE
  5
355
100
AcDbEntity
  8
IMPORT_IGES
100
AcDbLine
 62
7
  6
CONTINUOUS
 10
4.2939495066
 20
4.2066491727
 11
4.3475532077
 21
4.7426861842
  0
LINE
  5
356
100
AcDbEntity
  8
IMPORT_IGES
100
AcDbLine
 62
7
  6
CONTINUOUS
 10
1.3794619019
 20
-4.756742458
 11
1.177113895
 21
-4.9573138158
  0
LINE
  5
357
100
AcDbEntity
  8
IMPORT_IGES
100
AcDbLine
 62
7
  6
CONTINUOUS
 10
1.2360288786
 20
-4.9573138158
 11
1.4378004667
 21
-4.7573138158
  0
LINE
  5
358
100
AcDbEntity
  8
IMPORT_IGES
100
AcDbLine
 62
7
  6
CONTINUOUS
 10
5.8439495066
 20
4.7426861842
 11
4.3475532077
 21
4.7426861842
  0
LINE
  5
359
100
AcDbEntity
  8
IMPORT_IGES
100
AcDbLine
 62
7
  6
CONTINUOUS
 10
-4.5596541946
 20
4.7426861842
 11
-6.0560504934
 21
4.7426861842
  0
LINE
  5
35A
100
AcDbEntity
  8
IMPORT_IGES
100
AcDbLine
 62
7
  6
CONTINUOUS
 10
5.8439495066
 20
4.7992490766
 11
-6.0560504934
 21
4.7992490766
  0
LINE
  5
35B
100
AcDbEntity
  8
IMPORT_IGES
100
AcDbLine
 62
250
  6
CONTINUOUS
 10
-6.3560504934
 20
5.2992422227
 11
6.1439495066
 21
5.2992422227
  0
LINE
  5
35C
100
AcDbEntity
  8
DRAFT
100
AcDbLine
 62
7
  6
CONTINUOUS
 10
-6.5560504934
 20
5.5426861842
 11
6.3439495066
 21
5.5426861842
  0
LINE
  5
35D
100
AcDbEntity
  8
RACCORDO
100
AcDbLine
 62
250
  6
CONTINUOUS
 10
-6.5749274883
 20
5.5615631791
 11
6.3628265015
 21
5.5615631791
  0
LINE
  5
35E
100
AcDbEntity
  8
RACCORDO
100
AcDbLine
 62
250
  6
CONTINUOUS
 10
-7.0748512188
 20
6.0667110516
 11
6.8627502941
 21
6.0667110516
  0
LINE
  5
35F
100
AcDbEntity
  8
IMPORT_IGES
100
AcDbLine
 62
7
  6
CONTINUOUS
 10
3.1090960043
 20
3.1450347389
 11
3.1939495066
 21
2.9753277342
  0
LINE
  5
360
100
AcDbEntity
  8
IMPORT_IGES
100
AcDbLine
 62
7
  6
CONTINUOUS
 10
5.8439495066
 20
-2.1573138158
 11
5.8439495066
 21
4.8409846532
  0
LINE
  5
361
100
AcDbEntity
  8
IMPORT_IGES
100
AcDbLine
 62
250
  6
CONTINUOUS
 10
6.1439495066
 20
5.2992422227
 11
6.1439495066
 21
-2.3573138158
  0
LINE
  5
362
100
AcDbEntity
  8
DRAFT
100
AcDbLine
 62
7
  6
CONTINUOUS
 10
6.3439495066
 20
5.5426861842
 11
6.3439495066
 21
-2.3573138158
  0
LINE
  5
363
100
AcDbEntity
  8
RACCORDO
100
AcDbLine
 62
250
  6
CONTINUOUS
 10
6.3629132598
 20
5.5616499375
 11
6.3631212575
 21
-2.3764855667
  0
LINE
  5
364
100
AcDbEntity
  8
RACCORDO
100
AcDbLine
 62
250
  6
CONTINUOUS
 10
6.8627502941
 20
6.0667110516
 11
6.8629844495
 21
-2.8800716392
  0
LWPOLYLINE
  5
365
100
AcDbEntity
  8
IMPORT_IGES
100
AcDbPolyline
 62
7
  6
CONTINUOUS
 90
19
 70
0
 10
5.8439495066
 20
4.8409846532
 10
5.8445511642
 20
4.849676181
 10
5.8463868132
 20
4.8595507222
 10
5.8494988574
 20
4.870608277
 10
5.853919104
 20
4.8827984851
 10
5.8596811739
 20
4.8961717068
 10
5.866832914
 20
4.9108790223
 10
5.8753954147
 20
4.9269146628
 10
5.8853938522
 20
4.9442843973
 10
5.8969015658
 20
4.9631566131
 10
5.9099554918
 20
4.9835783838
 10
5.9245479518
 20
5.0055026359
 10
5.9406910898
 20
5.0289565361
 10
5.9583989803
 20
5.0540380597
 10
5.9776054702
 20
5.0806492315
 10
5.9981667681
 20
5.1085232922
 10
6.0199536656
 20
5.1376643805
 10
6.042899616
 20
5.1680683578
 10
6.066917699
 20
5.1994560482
  0
LWPOLYLINE
  5
366
100
AcDbEntity
  8
0
100
AcDbPolyline
 62
250
  6
CONTINUOUS
 90
7
 70
0
 10
10.9026714709
 20
-20.6329061856
 10
10.9019526992
 20
-20.6289927284
 10
10.9012505407
 20
-20.6218706165
 10
10.9005649953
 20
-20.61153985
 10
10.8998914688
 20
-20.5978854344
 10
10.8992345554
 20
-20.5810223642
 10
10.8986080379
 20
-20.5612956228
  0
LWPOLYLINE
  5
367
100
AcDbEntity
  8
0
100
AcDbPolyline
 62
250
  6
CONTINUOUS
 90
5
 70
0
 10
10.4027476233
 20
-21.132220953
 10
10.4020273615
 20
-21.1245769435
 10
10.4013242423
 20
-21.110269677
 10
10.4006382657
 20
-21.0893936902
 10
10.3999650217
 20
-21.0620853867
  0
LWPOLYLINE
  5
368
100
AcDbEntity
  8
0
100
AcDbPolyline
 62
250
  6
CONTINUOUS
 90
3
 70
0
 10
10.8986080379
 20
-20.5612956228
 10
10.8974479234
 20
-20.5131441893
 10
10.8969246441
 20
-20.4852783551
  0
LINE
  5
369
100
AcDbEntity
  8
0
100
AcDbLine
 62
250
  6
CONTINUOUS
 10
10.3999650217
 20
-21.0620853867
 11
10.3986831915
 21
-20.9889563022
  0
LINE
  5
36A
100
AcDbEntity
  8
0
100
AcDbLine
 62
250
  6
CONTINUOUS
 10
10.3986831915
 20
-20.9889563022
 11
10.3970014701
 21
-20.8370430246
  0
LINE
  5
36B
100
AcDbEntity
  8
0
100
AcDbLine
 62
250
  6
CONTINUOUS
 10
10.3970014701
 20
-20.8370430246
 11
10.3950681264
 21
-20.4953389501
  0
LINE
  5
36C
100
AcDbEntity
  8
0
100
AcDbLine
 62
250
  6
CONTINUOUS
 10
10.3950681264
 20
-20.4953389501
 11
10.3891564905
 21
-10.8365342304
  0
LINE
  5
36D
100
AcDbEntity
  8
0
100
AcDbLine
 62
250
  6
CONTINUOUS
 10
10.3891564905
 20
-10.8365342304
 11
10.3868730283
 21
-1.4933618113
  0
LINE
  5
36E
100
AcDbEntity
  8
0
100
AcDbLine
 62
250
  6
CONTINUOUS
 10
10.3868730283
 20
-1.4933618113
 11
10.3876341823
 21
7.8506262724
  0
LINE
  5
36F
100
AcDbEntity
  8
0
100
AcDbLine
 62
250
  6
CONTINUOUS
 10
10.3876341823
 20
7.8506262724
 11
10.3914399527
 21
17.1921672386
  0
LINE
  5
370
100
AcDbEntity
  8
0
100
AcDbLine
 62
250
  6
CONTINUOUS
 10
10.3914399527
 20
17.1921672386
 11
10.3956933091
 21
22.3281268906
  0
LINE
  5
371
100
AcDbEntity
  8
0
100
AcDbLine
 62
250
  6
CONTINUOUS
 10
10.3956933091
 20
22.3281268906
 11
10.3975242485
 21
22.5782683024
  0
LINE
  5
372
100
AcDbEntity
  8
0
100
AcDbLine
 62
250
  6
CONTINUOUS
 10
10.3975242485
 20
22.5782683024
 11
10.3986831915
 21
22.6743286706
  0
LWPOLYLINE
  5
373
100
AcDbEntity
  8
0
100
AcDbPolyline
 62
250
  6
CONTINUOUS
 90
6
 70
0
 10
10.3986831915
 20
22.6743286706
 10
10.3999650217
 20
22.7474577551
 10
10.4006382657
 20
22.7747660586
 10
10.4013242423
 20
22.7956420454
 10
10.4020273615
 20
22.8099493119
 10
10.4027476233
 20
22.8175933214
  0
LWPOLYLINE
  5
374
100
AcDbEntity
  8
0
100
AcDbPolyline
 62
250
  6
CONTINUOUS
 90
9
 70
0
 10
10.8969246441
 20
22.1706507236
 10
10.8980127827
 20
22.2240241099
 10
10.8986080379
 20
22.246667991
 10
10.8992345554
 20
22.2663947325
 10
10.8998914688
 20
22.283257803
 10
10.9005649953
 20
22.2969122187
 10
10.9012505407
 20
22.3072429852
 10
10.9019526992
 20
22.314365097
 10
10.9026714709
 20
22.318278554
  0
LINE
  5
375
100
AcDbEntity
  8
0
100
AcDbLine
 62
250
  6
CONTINUOUS
 10
10.8969246441
 20
-20.4852783551
 11
10.8960044551
 21
-20.4223759685
  0
LINE
  5
376
100
AcDbEntity
  8
0
100
AcDbLine
 62
250
  6
CONTINUOUS
 10
10.8960044551
 20
-20.4223759685
 11
10.8949903774
 21
-20.3141297799
  0
LINE
  5
377
100
AcDbEntity
  8
0
100
AcDbLine
 62
250
  6
CONTINUOUS
 10
10.8949903774
 20
-20.3141297799
 11
10.8944691593
 21
-20.1957863436
  0
LINE
  5
378
100
AcDbEntity
  8
0
100
AcDbLine
 62
250
  6
CONTINUOUS
 10
10.8944691593
 20
-20.1957863436
 11
10.8890803418
 21
-10.8243323592
  0
LINE
  5
379
100
AcDbEntity
  8
0
100
AcDbLine
 62
250
  6
CONTINUOUS
 10
10.8890803418
 20
-10.8243323592
 11
10.8867968817
 21
-1.4911685292
  0
LINE
  5
37A
100
AcDbEntity
  8
0
100
AcDbLine
 62
7
  6
CONTINUOUS
 10
11.0439495066
 20
22.7424573321
 11
11.0439495066
 21
-21.0570849637
  0
LINE
  5
37B
100
AcDbEntity
  8
0
100
AcDbLine
 62
250
  6
CONTINUOUS
 10
10.8867968817
 20
-1.4911685292
 11
10.8875580362
 21
7.8436441495
  0
LINE
  5
37C
100
AcDbEntity
  8
0
100
AcDbLine
 62
250
  6
CONTINUOUS
 10
10.8875580362
 20
7.8436441495
 11
10.8913638033
 21
17.1751552449
  0
LINE
  5
37D
100
AcDbEntity
  8
0
100
AcDbLine
 62
250
  6
CONTINUOUS
 10
10.8913638033
 20
17.1751552449
 11
10.894759164
 21
21.9607853646
  0
LINE
  5
37E
100
AcDbEntity
  8
0
100
AcDbLine
 62
250
  6
CONTINUOUS
 10
10.894759164
 20
21.9607853646
 11
10.8956154694
 21
22.0734089194
  0
LWPOLYLINE
  5
37F
100
AcDbEntity
  8
0
100
AcDbPolyline
 62
250
  6
CONTINUOUS
 90
3
 70
0
 10
10.8956154694
 20
22.0734089194
 10
10.8964437596
 20
22.1403786712
 10
10.8969246441
 20
22.1706507236
  0
LWPOLYLINE
  5
380
100
AcDbEntity
  8
0
100
AcDbPolyline
 62
7
  6
CONTINUOUS
 90
10
 70
0
 43
0.3500000006
 10
0.9653780959
 20
35.5926870575
 10
1.0368066587
 20
35.4498292236
 10
1.0368066587
 20
35.3784025726
 10
0.893949533
 20
35.2355447388
 10
0.8225209701
 20
35.2355447388
 10
0.7510923364
 20
35.3069713898
 10
0.7510923364
 20
35.3784025726
 10
0.8225209701
 20
35.5212558746
 10
0.893949533
 20
35.5926870575
 10
0.9653780959
 20
35.5926870575
  0
LWPOLYLINE
  5
381
100
AcDbEntity
  8
0
100
AcDbPolyline
 62
7
  6
CONTINUOUS
 90
3
 70
0
 43
0.3500000006
 10
19.6510913773
 20
-0.014456955
 10
19.6510913773
 20
-1.5144562798
 10
17.2939495811
 20
-0.8715994263
  0
LINE
  5
382
100
AcDbEntity
  8
DRAFT
100
AcDbLine
 62
7
  6
CONTINUOUS
 10
2.6752278478
 20
-21.688333264
 11
2.8939495066
 21
-21.5573138158
  0
LINE
  5
383
100
AcDbEntity
  8
0
100
AcDbLine
 62
250
  6
CONTINUOUS
 10
-10.606585556
 20
21.8610004151
 11
10.3944845691
 21
21.8610004151
  0
LINE
  5
384
100
AcDbEntity
  8
DRAFT
100
AcDbLine
 62
7
  6
CONTINUOUS
 10
2.8939495066
 20
23.2426861842
 11
2.6752278478
 21
23.3737056324
  0
LINE
  5
385
100
AcDbEntity
  8
DRAFT
100
AcDbLine
 62
7
  6
CONTINUOUS
 10
2.8939495066
 20
24.3426861842
 11
2.6752278478
 21
24.2990485219
  0
LINE
  5
386
100
AcDbEntity
  8
0
100
AcDbLine
 62
250
  6
CONTINUOUS
 10
-10.6148486101
 20
22.8175933214
 11
10.4027476233
 21
22.8175933214
  0
LINE
  5
387
100
AcDbEntity
  8
DRAFT
100
AcDbLine
 62
7
  6
CONTINUOUS
 10
-10.7564310932
 20
23.2426861842
 11
-3.1060504934
 21
23.2426861842
  0
LINE
  5
388
100
AcDbEntity
  8
DRAFT
100
AcDbLine
 62
7
  6
CONTINUOUS
 10
2.8939495066
 20
23.2426861842
 11
10.5443301063
 21
23.2426861842
  0
LINE
  5
389
100
AcDbEntity
  8
DRAFT
100
AcDbLine
 62
7
  6
CONTINUOUS
 10
2.6752278478
 20
23.3737056324
 11
-2.8873288346
 21
23.3737056324
  0
LWPOLYLINE
  5
38A
100
AcDbEntity
  8
0
100
AcDbPolyline
 62
250
  6
CONTINUOUS
 90
16
 70
0
 10
10.3944845691
 20
21.8609994719
 10
10.4461698747
 20
21.8608489791
 10
10.4973014165
 20
21.8604749098
 10
10.5473313617
 20
21.8598812719
 10
10.5957236801
 20
21.8590744257
 10
10.6419598873
 20
21.8580630161
 10
10.6855445999
 20
21.8568578799
 10
10.7260108433
 20
21.855471929
 10
10.7629250545
 20
21.8539200129
 10
10.7958917277
 20
21.8522187591
 10
10.8245576519
 20
21.8503863951
 10
10.8486156949
 20
21.8484425533
 10
10.8678080945
 20
21.8464080604
 10
10.8819292196
 20
21.8443047142
 10
10.8908277739
 20
21.8421550505
 10
10.8944084165
 20
21.8399821009
  0
LWPOLYLINE
  5
38B
100
AcDbEntity
  8
0
100
AcDbPolyline
 62
250
  6
CONTINUOUS
 90
16
 70
0
 10
10.4027476233
 20
22.8175933214
 10
10.4549736417
 20
22.8148135555
 10
10.5066281255
 20
22.8065999673
 10
10.5571457949
 20
22.7930424421
 10
10.6059738104
 20
22.7742893463
 10
10.6525778237
 20
22.7505459043
 10
10.6964478244
 20
22.7220719518
 10
10.7371037219
 20
22.6891790932
 10
10.7741005992
 20
22.6522272909
 10
10.8070335815
 20
22.6116209263
 10
10.8355422674
 20
22.5678043745
 10
10.8593146724
 20
22.5212571411
 10
10.8780906437
 20
22.472488615
 10
10.8916647068
 20
22.4220324938
 10
10.8998883142
 20
22.370440943
 10
10.9026714709
 20
22.318278554
  0
LINE
  5
38C
100
AcDbEntity
  8
DRAFT
100
AcDbLine
 62
7
  6
CONTINUOUS
 10
-3.1060504934
 20
24.3426861842
 11
-2.8873288346
 21
24.2990485219
  0
LINE
  5
38D
100
AcDbEntity
  8
DRAFT
100
AcDbLine
 62
7
  6
CONTINUOUS
 10
-2.8873288346
 20
24.2990485219
 11
2.6752278478
 21
24.2990485219
  0
LINE
  5
38E
100
AcDbEntity
  8
DRAFT
100
AcDbLine
 62
7
  6
CONTINUOUS
 10
-4.0793878411
 20
24.3426861842
 11
-3.1060504934
 21
24.3426861842
  0
LINE
  5
38F
100
AcDbEntity
  8
DRAFT
100
AcDbLine
 62
7
  6
CONTINUOUS
 10
2.8939495066
 20
24.3426861842
 11
3.8672868542
 21
24.3426861842
  0
LWPOLYLINE
  5
390
100
AcDbEntity
  8
0
100
AcDbPolyline
 62
7
  6
CONTINUOUS
 90
7
 70
0
 43
0.3500000006
 10
-0.534621937
 20
35.0926869049
 10
-2.0346218991
 20
35.0926869049
 10
-0.534621937
 20
37.2355453491
 10
-0.534621937
 20
37.6641143188
 10
-0.9631933851
 20
38.0926878204
 10
-1.6060505219
 20
38.0926878204
 10
-2.0346218991
 20
37.449829834
  0
LWPOLYLINE
  5
391
100
AcDbEntity
  8
0
100
AcDbPolyline
 62
7
  6
CONTINUOUS
 90
6
 70
0
 43
0.3500000006
 10
2.0368066807
 20
35.0926869049
 10
3.1082353363
 20
35.0926869049
 10
3.3225209541
 20
35.3069713898
 10
3.3225209541
 20
36.3783983459
 10
2.8939494352
 20
36.8069718475
 10
2.4653781996
 20
36.8069718475
  0
LWPOLYLINE
  5
392
100
AcDbEntity
  8
0
100
AcDbPolyline
 62
7
  6
CONTINUOUS
 90
7
 70
0
 43
0.3500000006
 10
-2.8917647953
 20
35.0926869049
 10
-4.3917646866
 20
35.0926869049
 10
-2.8917647953
 20
37.2355453491
 10
-2.8917647953
 20
37.6641143188
 10
-3.3203363142
 20
38.0926878204
 10
-3.9631934509
 20
38.0926878204
 10
-4.3917646866
 20
37.449829834
  0
LWPOLYLINE
  5
393
100
AcDbEntity
  8
0
100
AcDbPolyline
 62
7
  6
CONTINUOUS
 90
5
 70
0
 43
0.3500000006
 10
-41.2657200165
 20
36.8069718475
 10
-40.9085776978
 20
37.0212563324
 10
-40.9085776978
 20
37.6641143188
 10
-41.2657200165
 20
38.0926878204
 10
-42.1228624878
 20
38.0926878204
  0
LWPOLYLINE
  5
394
100
AcDbEntity
  8
0
100
AcDbPolyline
 62
7
  6
CONTINUOUS
 90
10
 70
0
 43
0.3500000006
 10
-39.5514350739
 20
35.0926869049
 10
-38.6942926025
 20
35.9498293762
 10
-38.4800035858
 20
36.8069718475
 10
-38.4800035858
 20
37.6641143188
 10
-38.9085770874
 20
38.0926878204
 10
-39.5514350739
 20
38.0926878204
 10
-39.9800040436
 20
37.6641143188
 10
-39.9800040436
 20
36.8069718475
 10
-39.5514350739
 20
36.3783983459
 10
-38.6228614197
 20
36.3783983459
  0
LWPOLYLINE
  5
395
100
AcDbEntity
  8
0
100
AcDbPolyline
 62
250
  6
CONTINUOUS
 90
8
 70
0
 10
-56.3109031337
 20
22.8175933214
 10
-56.3116690618
 20
22.8148135555
 10
-56.3121402389
 20
22.8065999673
 10
-56.3123115087
 20
22.7930424421
 10
-56.3121809967
 20
22.7742893463
 10
-56.3117501314
 20
22.7505459043
 10
-56.3110236282
 20
22.7220719518
 10
-56.3087186584
 20
22.6522272909
  0
LINE
  5
396
100
AcDbEntity
  8
DRAFT
100
AcDbLine
 62
7
  6
CONTINUOUS
 10
-48.1996481138
 20
-22.3372223775
 11
-44.1996481138
 21
-22.2572042906
  0
LINE
  5
397
100
AcDbEntity
  8
DRAFT
100
AcDbLine
 62
7
  6
CONTINUOUS
 10
-48.1996481138
 20
-22.6573138158
 11
-44.1996481138
 21
-22.5874935561
  0
LINE
  5
398
100
AcDbEntity
  8
DRAFT
100
AcDbLine
 62
7
  6
CONTINUOUS
 10
-48.1996481138
 20
-21.8204804378
 11
-45.5204098268
 21
-21.797200979
  0
LINE
  5
399
100
AcDbEntity
  8
DRAFT
100
AcDbLine
 62
7
  6
CONTINUOUS
 10
-45.5204098268
 20
-21.797200979
 11
-44.1996481138
 21
-21.7871804184
  0
LINE
  5
39A
100
AcDbEntity
  8
0
100
AcDbLine
 62
7
  6
CONTINUOUS
 10
-42.0996481138
 20
-21.5573138158
 11
-42.5996481138
 21
-21.5573138158
  0
LINE
  5
39B
100
AcDbEntity
  8
0
100
AcDbLine
 62
7
  6
CONTINUOUS
 10
-48.1996481138
 20
-21.5573138158
 11
-56.3109031337
 21
-21.132220953
  0
LINE
  5
39C
100
AcDbEntity
  8
0
100
AcDbLine
 62
250
  6
CONTINUOUS
 10
-48.1996481138
 20
-21.0570849637
 11
-56.2934613588
 21
-20.6329061856
  0
LWPOLYLINE
  5
39D
100
AcDbEntity
  8
0
100
AcDbPolyline
 62
250
  6
CONTINUOUS
 90
19
 70
0
 10
-56.2934613588
 20
-20.6329061856
 10
-56.3346397585
 20
-20.6289927284
 10
-56.3748663928
 20
-20.6218706165
 10
-56.4141412615
 20
-20.61153985
 10
-56.4527275706
 20
-20.5978854344
 10
-56.4903621142
 20
-20.5810223642
 10
-56.5262552753
 20
-20.5612956228
 10
-56.5603574246
 20
-20.5386517416
 10
-56.5927181914
 20
-20.5131441893
 10
-56.6226968465
 20
-20.4852783551
 10
-56.6502466972
 20
-20.4550063027
 10
-56.6754144362
 20
-20.4223759685
 10
-56.6976994126
 20
-20.3880365508
 10
-56.7170465408
 20
-20.3519377071
 10
-56.7335109065
 20
-20.3141297799
 10
-56.7467571162
 20
-20.2754129962
 10
-56.756673372
 20
-20.2360540982
 10
-56.7633714719
 20
-20.1957863436
 10
-56.7668514158
 20
-20.1546097325
  0
LWPOLYLINE
  5
39E
100
AcDbEntity
  8
0
100
AcDbPolyline
 62
250
  6
CONTINUOUS
 90
7
 70
0
 10
-56.3109031337
 20
-21.132220953
 10
-56.3116690617
 20
-21.1294410958
 10
-56.3121402292
 20
-21.1212272564
 10
-56.3123114816
 20
-21.1076693552
 10
-56.3121809459
 20
-21.0889157908
 10
-56.3117500524
 20
-21.0651718281
 10
-56.3110235199
 20
-21.0366973636
  0
LWPOLYLINE
  5
39F
100
AcDbEntity
  8
0
100
AcDbPolyline
 62
250
  6
CONTINUOUS
 90
19
 70
0
 10
-56.7668514158
 20
21.8399821009
 10
-56.7633714718
 20
21.881158712
 10
-56.7566733718
 20
21.9214264666
 10
-56.7467571159
 20
21.9607853646
 10
-56.7335109064
 20
21.9995021484
 10
-56.7170465409
 20
22.0373100756
 10
-56.6976994128
 20
22.0734089194
 10
-56.6754144363
 20
22.107748337
 10
-56.6502466973
 20
22.1403786712
 10
-56.6226968465
 20
22.1706507236
 10
-56.5927181913
 20
22.1985165577
 10
-56.5603574245
 20
22.2240241099
 10
-56.5262552751
 20
22.246667991
 10
-56.4903621141
 20
22.2663947325
 10
-56.4527275706
 20
22.283257803
 10
-56.4141412616
 20
22.2969122187
 10
-56.3748663928
 20
22.3072429852
 10
-56.3346397586
 20
22.314365097
 10
-56.2934613588
 20
22.318278554
  0
LINE
  5
3A0
100
AcDbEntity
  8
DRAFT
100
AcDbLine
 62
7
  6
CONTINUOUS
 10
-44.1996481138
 20
-20.3573138158
 11
-40.1644333279
 21
-20.3220990298
  0
LINE
  5
3A1
100
AcDbEntity
  8
RACCORDO
100
AcDbLine
 62
7
  6
CONTINUOUS
 10
-48.1996481138
 20
-20.0573138158
 11
-40.1156632525
 21
-19.9939767233
  0
LINE
  5
3A2
100
AcDbEntity
  8
DRAFT
100
AcDbLine
 62
7
  6
CONTINUOUS
 10
-44.1996481138
 20
-20.3573138158
 11
-40.1996481138
 21
-20.3573138158
  0
LWPOLYLINE
  5
3A3
100
AcDbEntity
  8
0
100
AcDbPolyline
 62
250
  6
CONTINUOUS
 90
10
 70
0
 10
-56.7668514158
 20
-20.1546097325
 10
-56.9412772526
 20
-15.4897802859
 10
-57.0720966238
 20
-10.8243323592
 10
-57.1593095293
 20
-6.1582659523
 10
-57.2029159606
 20
-1.4911685292
 10
-57.2029159263
 20
3.1765473741
 10
-57.1593094521
 20
7.8436441495
 10
-57.0720965466
 20
12.5097092612
 10
-56.9412772011
 20
17.1751552449
 10
-56.7668514158
 20
21.8399821009
  0
LINE
  5
3A4
100
AcDbEntity
  8
0
100
AcDbLine
 62
250
  6
CONTINUOUS
 10
-57.2576832371
 20
-20.1756280463
 11
-57.2550085692
 21
-20.1754775552
  0
LINE
  5
3A5
100
AcDbEntity
  8
0
100
AcDbLine
 62
250
  6
CONTINUOUS
 10
-57.2550085692
 20
-20.1754775552
 11
-56.7668514158
 21
-20.1546097325
  0
LINE
  5
3A6
100
AcDbEntity
  8
RACCORDO
100
AcDbLine
 62
250
  6
CONTINUOUS
 10
-39.3961576325
 20
-19.2744711033
 11
-39.1996481138
 21
-19.2744711033
  0
LINE
  5
3A7
100
AcDbEntity
  8
RACCORDO
100
AcDbLine
 62
250
  6
CONTINUOUS
 10
-39.3961576325
 20
-18.1573138158
 11
-39.1996481138
 21
-18.1573138157
  0
LINE
  5
3A8
100
AcDbEntity
  8
RACCORDO
100
AcDbLine
 62
250
  6
CONTINUOUS
 10
-39.6961576325
 20
-17.8573138158
 11
-43.9545389396
 21
-17.8573138158
  0
LINE
  5
3A9
100
AcDbEntity
  8
RACCORDO
100
AcDbLine
 62
7
  6
CONTINUOUS
 10
-39.6996481138
 20
-17.6573138158
 11
-43.9316989214
 21
-17.6573138158
  0
LINE
  5
3AA
100
AcDbEntity
  8
RACCORDO
100
AcDbLine
 62
250
  6
CONTINUOUS
 10
-43.9545389396
 20
-17.8573138158
 11
-48.1996481138
 21
-16.7198402408
  0
LINE
  5
3AB
100
AcDbEntity
  8
RACCORDO
100
AcDbLine
 62
7
  6
CONTINUOUS
 10
-43.9316989214
 20
-17.6573138158
 11
-48.1996481138
 21
-16.5137202763
  0
LINE
  5
3AC
100
AcDbEntity
  8
0
100
AcDbLine
 62
250
  6
CONTINUOUS
 10
-56.3011141059
 20
22.472488615
 11
-56.2934613588
 21
22.318278554
  0
LINE
  5
3AD
100
AcDbEntity
  8
0
100
AcDbLine
 62
250
  6
CONTINUOUS
 10
-56.3053667088
 20
22.5678043745
 11
-56.3011141059
 21
22.472488615
  0
LINE
  5
3AE
100
AcDbEntity
  8
0
100
AcDbLine
 62
250
  6
CONTINUOUS
 10
-56.3087186584
 20
22.6522272909
 11
-56.3053667088
 21
22.5678043745
  0
LINE
  5
3AF
100
AcDbEntity
  8
0
100
AcDbLine
 62
250
  6
CONTINUOUS
 10
-56.3110235199
 20
-21.0366973636
 11
-56.3087184993
 21
-20.9668518891
  0
LINE
  5
3B0
100
AcDbEntity
  8
0
100
AcDbLine
 62
250
  6
CONTINUOUS
 10
-56.3087184993
 20
-20.9668518891
 11
-56.305366528
 21
-20.8824287494
  0
LINE
  5
3B1
100
AcDbEntity
  8
0
100
AcDbLine
 62
250
  6
CONTINUOUS
 10
-56.305366528
 20
-20.8824287494
 11
-56.2987066302
 21
-20.7366581467
  0
LINE
  5
3B2
100
AcDbEntity
  8
0
100
AcDbLine
 62
250
  6
CONTINUOUS
 10
-56.2987066302
 20
-20.7366581467
 11
-56.2934613588
 21
-20.6329061856
  0
LINE
  5
3B3
100
AcDbEntity
  8
RACCORDO
100
AcDbLine
 62
250
  6
CONTINUOUS
 10
-39.2860636392
 20
21.0713135779
 11
-39.3116099314
 21
21.0451230541
  0
LINE
  5
3B4
100
AcDbEntity
  8
RACCORDO
100
AcDbLine
 62
250
  6
CONTINUOUS
 10
-39.3116099314
 20
21.0451230541
 11
-39.3602514183
 21
20.995875839
  0
LINE
  5
3B5
100
AcDbEntity
  8
RACCORDO
100
AcDbLine
 62
250
  6
CONTINUOUS
 10
-39.3602514183
 20
20.995875839
 11
-39.3961576325
 21
20.9598434717
  0
LINE
  5
3B6
100
AcDbEntity
  8
DRAFT
100
AcDbLine
 62
7
  6
CONTINUOUS
 10
-46.5160129972
 20
13.7263213008
 11
-46.8996481138
 21
13.3426861842
  0
LINE
  5
3B7
100
AcDbEntity
  8
RACCORDO
100
AcDbLine
 62
250
  6
CONTINUOUS
 10
-39.3961576325
 20
-19.2744711033
 11
-39.3430535594
 21
-19.3278495747
  0
LINE
  5
3B8
100
AcDbEntity
  8
RACCORDO
100
AcDbLine
 62
250
  6
CONTINUOUS
 10
-39.3430535594
 20
-19.3278495747
 11
-39.3116099314
 21
-19.3597506857
  0
LWPOLYLINE
  5
3B9
100
AcDbEntity
  8
RACCORDO
100
AcDbPolyline
 62
250
  6
CONTINUOUS
 90
7
 70
0
 10
-39.3116099314
 20
-19.3597506857
 10
-39.2860636392
 20
-19.3859412095
 10
-39.2760787862
 20
-19.3963047995
 10
-39.2681914212
 20
-19.4046001114
 10
-39.2625329209
 20
-19.4106887286
 10
-39.2591937046
 20
-19.4144730178
 10
-39.2582267576
 20
-19.4158924596
  0
LWPOLYLINE
  5
3BA
100
AcDbEntity
  8
RACCORDO
100
AcDbPolyline
 62
250
  6
CONTINUOUS
 90
6
 70
0
 10
-39.2582267576
 20
21.101264828
 10
-39.2591937046
 20
21.0998453862
 10
-39.2625329209
 20
21.0960610971
 10
-39.2681914212
 20
21.0899724798
 10
-39.2760787862
 20
21.0816771679
 10
-39.2860636392
 20
21.0713135779
  0
LINE
  5
3BB
100
AcDbEntity
  8
0
100
AcDbLine
 62
7
  6
CONTINUOUS
 10
-48.1996481138
 20
23.2426861842
 11
-48.1996481138
 21
-21.5573138158
  0
LINE
  5
3BC
100
AcDbEntity
  8
DRAFT
100
AcDbLine
 62
7
  6
CONTINUOUS
 10
-48.1996481138
 20
-21.5573138158
 11
-48.1996481138
 21
-22.6573138158
  0
LINE
  5
3BD
100
AcDbEntity
  8
DRAFT
100
AcDbLine
 62
7
  6
CONTINUOUS
 10
-48.1996481138
 20
23.2426861842
 11
-48.1996481138
 21
24.3426861842
  0
LWPOLYLINE
  5
3BE
100
AcDbEntity
  8
0
100
AcDbPolyline
 62
7
  6
CONTINUOUS
 90
3
 70
0
 43
0.3500000006
 10
-36.9085764771
 20
35.3784025726
 10
-36.980005394
 20
35.1641135559
 10
-37.1228632278
 20
34.87840242
  0
LINE
  5
3BF
100
AcDbEntity
  8
IMPORT_IGES
100
AcDbLine
 62
7
  6
CONTINUOUS
 10
-42.5601568129
 20
10.2321774837
 11
-40.8875160781
 21
11.9048182186
  0
LWPOLYLINE
  5
3C0
100
AcDbEntity
  8
IMPORT_IGES
100
AcDbPolyline
 62
250
  6
CONTINUOUS
 90
3
 70
0
 10
-27.575982038
 20
-8.2759161447
 10
-27.5378955233
 20
-8.2703867455
 10
-27.4996947282
 20
-8.2689525359
  0
LWPOLYLINE
  5
3C1
100
AcDbEntity
  8
IMPORT_IGES
100
AcDbPolyline
 62
250
  6
CONTINUOUS
 90
7
 70
0
 10
-26.4251368744
 20
-8.2801004811
 10
-26.3917679589
 20
-8.2762917216
 10
-26.3587572824
 20
-8.2684829973
 10
-26.3267101642
 20
-8.2568176516
 10
-26.2961025544
 20
-8.2412854916
 10
-26.2672611722
 20
-8.2217543752
 10
-26.2405716865
 20
-8.1982373898
  0
LWPOLYLINE
  5
3C2
100
AcDbEntity
  8
RACCORDO
100
AcDbPolyline
 62
250
  6
CONTINUOUS
 90
4
 70
0
 10
-45.9970420708
 20
14.3551114142
 10
-45.9974242775
 20
14.381166457
 10
-45.998965944
 20
14.406777381
 10
-46.0016407919
 20
14.4315076375
  0
LINE
  5
3C3
100
AcDbEntity
  8
RACCORDO
100
AcDbLine
 62
250
  6
CONTINUOUS
 10
-47.3996481138
 20
-6.1813710268
 11
-47.3979028067
 21
-6.6813748349
  0
LINE
  5
3C4
100
AcDbEntity
  8
RACCORDO
100
AcDbLine
 62
250
  6
CONTINUOUS
 10
-47.3996481138
 20
14.0667433952
 11
-47.3996481138
 21
-6.1813710268
  0
LINE
  5
3C5
100
AcDbEntity
  8
RACCORDO
100
AcDbLine
 62
7
  6
CONTINUOUS
 10
-47.1996481138
 20
14.3667548188
 11
-47.1996481138
 21
-6.4813824503
  0
LINE
  5
3C6
100
AcDbEntity
  8
RACCORDO
100
AcDbLine
 62
250
  6
CONTINUOUS
 10
-47.0680521425
 20
14.3644579775
 11
-47.0680521425
 21
13.7215037282
  0
LINE
  5
3C7
100
AcDbEntity
  8
RACCORDO
100
AcDbLine
 62
250
  6
CONTINUOUS
 10
-47.0680521425
 20
10.2638686402
 11
-47.0680521425
 21
9.4215037282
  0
LINE
  5
3C8
100
AcDbEntity
  8
RACCORDO
100
AcDbLine
 62
250
  6
CONTINUOUS
 10
-47.0680521425
 20
2.5638686402
 11
-47.0680521425
 21
1.7215037282
  0
LINE
  5
3C9
100
AcDbEntity
  8
RACCORDO
100
AcDbLine
 62
250
  6
CONTINUOUS
 10
-47.0680521425
 20
-5.8361313598
 11
-47.0680521425
 21
-6.479085609
  0
LINE
  5
3CA
100
AcDbEntity
  8
0
100
AcDbLine
 62
7
  6
CONTINUOUS
 10
-46.7703601067
 20
13.2927151846
 11
-46.7703601067
 21
13.3927151846
  0
LINE
  5
3CB
100
AcDbEntity
  8
0
100
AcDbLine
 62
7
  6
CONTINUOUS
 10
-46.7466776649
 20
13.2927151846
 11
-46.7466776649
 21
13.3927151846
  0
LINE
  5
3CC
100
AcDbEntity
  8
0
100
AcDbLine
 62
7
  6
CONTINUOUS
 10
-46.7378769984
 20
13.2927151846
 11
-46.7378769984
 21
13.3927151846
  0
LINE
  5
3CD
100
AcDbEntity
  8
0
100
AcDbLine
 62
7
  6
CONTINUOUS
 10
-46.6849101187
 20
13.2927151846
 11
-46.6849101187
 21
13.3927151846
  0
LINE
  5
3CE
100
AcDbEntity
  8
0
100
AcDbLine
 62
7
  6
CONTINUOUS
 10
-46.6611878283
 20
13.2927151846
 11
-46.6611878283
 21
13.3927151846
  0
LINE
  5
3CF
100
AcDbEntity
  8
0
100
AcDbLine
 62
250
  6
CONTINUOUS
 10
-46.6515623662
 20
13.2927151846
 11
-46.6515623662
 21
13.3927151846
  0
LINE
  5
3D0
100
AcDbEntity
  8
0
100
AcDbLine
 62
250
  6
CONTINUOUS
 10
-46.5759732769
 20
13.2927151846
 11
-46.5759732769
 21
13.3927151846
  0
LINE
  5
3D1
100
AcDbEntity
  8
0
100
AcDbLine
 62
7
  6
CONTINUOUS
 10
-46.4476434412
 20
13.2927151846
 11
-46.4476434412
 21
13.3927151846
  0
LINE
  5
3D2
100
AcDbEntity
  8
0
100
AcDbLine
 62
7
  6
CONTINUOUS
 10
-46.2853985936
 20
13.2927151846
 11
-46.2853985936
 21
13.3927151846
  0
LINE
  5
3D3
100
AcDbEntity
  8
0
100
AcDbLine
 62
7
  6
CONTINUOUS
 10
-46.2646932393
 20
13.2927151846
 11
-46.2646932393
 21
13.3927151846
  0
LINE
  5
3D4
100
AcDbEntity
  8
0
100
AcDbLine
 62
250
  6
CONTINUOUS
 10
-46.2264947368
 20
13.2927151846
 11
-46.2264947368
 21
13.3927151846
  0
LINE
  5
3D5
100
AcDbEntity
  8
0
100
AcDbLine
 62
7
  6
CONTINUOUS
 10
-46.0887245012
 20
13.2927151846
 11
-46.0887245012
 21
13.3927151846
  0
LINE
  5
3D6
100
AcDbEntity
  8
RACCORDO
100
AcDbLine
 62
250
  6
CONTINUOUS
 10
-45.9970420708
 20
14.3551114142
 11
-45.9970420708
 21
13.7308502915
  0
LINE
  5
3D7
100
AcDbEntity
  8
RACCORDO
100
AcDbLine
 62
250
  6
CONTINUOUS
 10
-45.9970420708
 20
10.2545220769
 11
-45.9970420708
 21
9.4308502915
  0
LINE
  5
3D8
100
AcDbEntity
  8
RACCORDO
100
AcDbLine
 62
250
  6
CONTINUOUS
 10
-45.9970420708
 20
2.5545220769
 11
-45.9970420708
 21
1.7308502915
  0
LINE
  5
3D9
100
AcDbEntity
  8
RACCORDO
100
AcDbLine
 62
250
  6
CONTINUOUS
 10
-45.9970420708
 20
-5.8454779231
 11
-45.9970420708
 21
-6.4697390457
  0
LINE
  5
3DA
100
AcDbEntity
  8
RACCORDO
100
AcDbLine
 62
7
  6
CONTINUOUS
 10
-45.7996481138
 20
15.952799446
 11
-45.7996481138
 21
13.7325729225
  0
LINE
  5
3DB
100
AcDbEntity
  8
RACCORDO
100
AcDbLine
 62
7
  6
CONTINUOUS
 10
-45.7996481138
 20
10.252799446
 11
-45.7996481138
 21
9.4325729225
  0
LINE
  5
3DC
100
AcDbEntity
  8
RACCORDO
100
AcDbLine
 62
7
  6
CONTINUOUS
 10
-45.7996481138
 20
2.552799446
 11
-45.7996481138
 21
1.7325729225
  0
LINE
  5
3DD
100
AcDbEntity
  8
RACCORDO
100
AcDbLine
 62
7
  6
CONTINUOUS
 10
-45.7996481138
 20
-8.6674270775
 11
-45.7996481138
 21
-4.1445939172
  0
LINE
  5
3DE
100
AcDbEntity
  8
ASSI
100
AcDbLine
 62
7
  6
CONTINUOUS
 10
-45.7996481124
 20
-2.5604428362
 11
-45.7996481124
 21
1.7325729225
  0
LINE
  5
3DF
100
AcDbEntity
  8
ASSI
100
AcDbLine
 62
7
  6
CONTINUOUS
 10
-45.7996481124
 20
2.552799446
 11
-45.7996481124
 21
6.9458152046
  0
LINE
  5
3E0
100
AcDbEntity
  8
0
100
AcDbLine
 62
250
  6
CONTINUOUS
 10
-45.7923123172
 20
13.2927151846
 11
-45.7923123172
 21
13.3927151846
  0
LINE
  5
3E1
100
AcDbEntity
  8
RACCORDO
100
AcDbLine
 62
250
  6
CONTINUOUS
 10
-47.3979028067
 20
14.5667472034
 11
-47.3996481138
 21
14.0667433952
  0
LWPOLYLINE
  5
3E2
100
AcDbEntity
  8
RACCORDO
100
AcDbPolyline
 62
250
  6
CONTINUOUS
 90
4
 70
0
 10
-45.9970420708
 20
-6.4697390457
 10
-45.9974242791
 20
-6.4957941529
 10
-45.9989659523
 20
-6.5214051279
 10
-46.0016408102
 20
-6.5461354203
  0
LWPOLYLINE
  5
3E3
100
AcDbEntity
  8
RACCORDO
100
AcDbPolyline
 62
250
  6
CONTINUOUS
 90
9
 70
0
 10
-47.0680587365
 20
-6.4790856666
 10
-47.069234243
 20
-6.4961709003
 10
-47.0728419741
 20
-6.513255191
 10
-47.0788868289
 20
-6.5302087795
 10
-47.0874104236
 20
-6.5469143994
 10
-47.0983698521
 20
-6.5632210507
 10
-47.1116330569
 20
-6.5789504169
 10
-47.1272918023
 20
-6.5939924407
 10
-47.1452201356
 20
-6.6082015337
  0
LINE
  5
3E4
100
AcDbEntity
  8
IMPORT_IGES
100
AcDbLine
 62
250
  6
CONTINUOUS
 10
-42.4365064891
 20
9.9326109342
 11
-42.2496481124
 21
10.1194693109
  0
LINE
  5
3E5
100
AcDbEntity
  8
IMPORT_IGES
100
AcDbLine
 62
250
  6
CONTINUOUS
 10
-41.9496481124
 20
10.4184221155
 11
-40.6753840437
 21
11.6926861842
  0
LINE
  5
3E6
100
AcDbEntity
  8
IMPORT_IGES
100
AcDbLine
 62
7
  6
CONTINUOUS
 10
-44.5885374424
 20
7.9996131334
 11
-45.7236397759
 21
7.1027421538
  0
LINE
  5
3E7
100
AcDbEntity
  8
IMPORT_IGES
100
AcDbLine
 62
250
  6
CONTINUOUS
 10
-45.5996481124
 20
6.9458152046
 11
-44.4645457788
 21
7.8426861842
  0
LWPOLYLINE
  5
3E8
100
AcDbEntity
  8
IMPORT_IGES
100
AcDbPolyline
 62
7
  6
CONTINUOUS
 90
8
 70
0
 10
-35.9541654945
 20
12.979896219
 10
-35.9618811941
 20
12.9751021971
 10
-35.9691878804
 20
12.9695868659
 10
-35.9756994802
 20
12.9636990051
 10
-35.9808148104
 20
12.9582814354
 10
-35.9845363821
 20
12.9538136521
 10
-35.9874607315
 20
12.9499576486
 10
-35.989139671
 20
12.9475859974
  0
LWPOLYLINE
  5
3E9
100
AcDbEntity
  8
IMPORT_IGES
100
AcDbPolyline
 62
7
  6
CONTINUOUS
 90
16
 70
0
 10
-35.9532046387
 20
12.9804212079
 10
-35.9611611885
 20
12.9755833813
 10
-35.9684390553
 20
12.9701916904
 10
-35.9748390192
 20
12.9645260524
 10
-35.9798725312
 20
12.9593264477
 10
-35.983532241
 20
12.9550534907
 10
-35.9863397815
 20
12.9514587543
 10
-35.988686523
 20
12.9482391496
 10
-35.9906256814
 20
12.9454441122
 10
-35.9922832024
 20
12.9429763507
 10
-35.9940167687
 20
12.9403339012
 10
-35.9959263333
 20
12.9373677372
 10
-35.9979615568
 20
12.9341582268
 10
-36.0002012569
 20
12.930582727
 10
-36.0026808739
 20
12.9265836793
 10
-36.0080029013
 20
12.9178980696
  0
LWPOLYLINE
  5
3EA
100
AcDbEntity
  8
IMPORT_IGES
100
AcDbPolyline
 62
7
  6
CONTINUOUS
 90
9
 70
0
 10
-26.5234617219
 20
-8.3275516158
 10
-26.4928694414
 20
-8.3260288171
 10
-26.4519844167
 20
-8.3195044205
 10
-26.4115935312
 20
-8.3079229397
 10
-26.3713612244
 20
-8.291417203
 10
-26.3319801604
 20
-8.2701950753
 10
-26.2944640042
 20
-8.2449140488
 10
-26.259000804
 20
-8.2157518617
 10
-26.2405734233
 20
-8.1982449844
  0
LINE
  5
3EB
100
AcDbEntity
  8
RACCORDO
100
AcDbLine
 62
7
  6
CONTINUOUS
 10
-45.7996481138
 20
-8.6674270775
 11
-48.1996481138
 21
-8.6883715602
  0
LINE
  5
3EC
100
AcDbEntity
  8
RACCORDO
100
AcDbLine
 62
250
  6
CONTINUOUS
 10
-45.7996481138
 20
-8.167446116
 11
-48.1996481138
 21
-8.1883905987
  0
LINE
  5
3ED
100
AcDbEntity
  8
IMPORT_IGES
100
AcDbLine
 62
250
  6
CONTINUOUS
 10
-27.5074529974
 20
-8.7073138725
 11
-27.7070365707
 21
-8.7085554101
  0
LINE
  5
3EE
100
AcDbEntity
  8
IMPORT_IGES
100
AcDbLine
 62
7
  6
CONTINUOUS
 10
-38.8427999036
 20
-8.6090136157
 11
-39.2827855904
 21
-8.6096937541
  0
LINE
  5
3EF
100
AcDbEntity
  8
IMPORT_IGES
100
AcDbLine
 62
7
  6
CONTINUOUS
 10
-36.6996481124
 20
-9.1073138158
 11
-36.1996481124
 21
-9.1073138158
  0
LINE
  5
3F0
100
AcDbEntity
  8
IMPORT_IGES
100
AcDbLine
 62
7
  6
CONTINUOUS
 10
-29.9996481124
 20
-9.1073138158
 11
-29.4996481124
 21
-9.1073138158
  0
LINE
  5
3F1
100
AcDbEntity
  8
IMPORT_IGES
100
AcDbLine
 62
7
  6
CONTINUOUS
 10
-31.6127867803
 20
-9.1073138158
 11
-34.6488118119
 21
-9.1073138158
  0
LINE
  5
3F2
100
AcDbEntity
  8
IMPORT_IGES
100
AcDbLine
 62
250
  6
CONTINUOUS
 10
-29.3996481124
 20
-9.0073138158
 11
-30.0996481124
 21
-9.0073138158
  0
LINE
  5
3F3
100
AcDbEntity
  8
IMPORT_IGES
100
AcDbLine
 62
250
  6
CONTINUOUS
 10
-36.0996481124
 20
-9.0073138158
 11
-36.7996481124
 21
-9.0073138158
  0
LINE
  5
3F4
100
AcDbEntity
  8
IMPORT_IGES
100
AcDbLine
 62
7
  6
CONTINUOUS
 10
-27.1567548938
 20
-8.9073138158
 11
-38.1435150948
 21
-8.9073138158
  0
LINE
  5
3F5
100
AcDbEntity
  8
IMPORT_IGES
100
AcDbLine
 62
250
  6
CONTINUOUS
 10
-38.348540348
 20
-8.8194458501
 11
-27.9072495779
 21
-8.8194458501
  0
LINE
  5
3F6
100
AcDbEntity
  8
IMPORT_IGES
100
AcDbLine
 62
250
  6
CONTINUOUS
 10
-27.1567548936
 20
-8.7073138158
 11
-27.5074529972
 21
-8.7073138442
  0
LINE
  5
3F7
100
AcDbEntity
  8
IMPORT_IGES
100
AcDbLine
 62
7
  6
CONTINUOUS
 10
-27.4996947218
 20
-8.32753118
 11
-26.5234626742
 21
-8.32753118
  0
LINE
  5
3F8
100
AcDbEntity
  8
IMPORT_IGES
100
AcDbLine
 62
250
  6
CONTINUOUS
 10
-26.5234188661
 20
-8.268952536
 11
-27.4996947282
 21
-8.2689525359
  0
LINE
  5
3F9
100
AcDbEntity
  8
IMPORT_IGES
100
AcDbLine
 62
250
  6
CONTINUOUS
 10
-40.2401399963
 20
-7.9982418481
 11
-26.2527081836
 21
-7.9982418526
  0
LINE
  5
3FA
100
AcDbEntity
  8
IMPORT_IGES
100
AcDbLine
 62
250
  6
CONTINUOUS
 10
-40.240140012
 20
-7.7861098237
 11
-26.2527081891
 21
-7.7861098237
  0
LINE
  5
3FB
100
AcDbEntity
  8
IMPORT_IGES
100
AcDbLine
 62
7
  6
CONTINUOUS
 10
-38.8424339316
 20
-8.6077771715
 11
-38.1435150948
 21
-8.9073138158
  0
LINE
  5
3FC
100
AcDbEntity
  8
IMPORT_IGES
100
AcDbLine
 62
7
  6
CONTINUOUS
 10
-44.0251033265
 20
-5.8416914665
 11
-42.1662845707
 21
-6.9002476182
  0
LINE
  5
3FD
100
AcDbEntity
  8
IMPORT_IGES
100
AcDbLine
 62
250
  6
CONTINUOUS
 10
-42.2496481124
 20
-6.5081349196
 11
-43.9462308117
 21
-5.5419686124
  0
LINE
  5
3FE
100
AcDbEntity
  8
IMPORT_IGES
100
AcDbLine
 62
250
  6
CONTINUOUS
 10
-39.2827855904
 20
-8.6096937541
 11
-40.2401399963
 21
-7.9982418481
  0
LINE
  5
3FF
100
AcDbEntity
  8
IMPORT_IGES
100
AcDbLine
 62
7
  6
CONTINUOUS
 10
-39.7761615722
 20
-8.4388601205
 11
-42.1112565514
 21
-6.9458013246
  0
LINE
  5
400
100
AcDbEntity
  8
IMPORT_IGES
100
AcDbLine
 62
250
  6
CONTINUOUS
 10
-40.240140012
 20
-7.7861098237
 11
-41.9496481124
 21
-6.6930510279
  0
LINE
  5
401
100
AcDbEntity
  8
0
100
AcDbLine
 62
250
  6
CONTINUOUS
 10
-45.7097392175
 20
13.2927151846
 11
-45.7097392175
 21
13.3927151846
  0
LINE
  5
402
100
AcDbEntity
  8
0
100
AcDbLine
 62
7
  6
CONTINUOUS
 10
-45.6420759657
 20
13.2927151846
 11
-45.6420759657
 21
13.3927151846
  0
LINE
  5
403
100
AcDbEntity
  8
0
100
AcDbLine
 62
7
  6
CONTINUOUS
 10
-45.6213706156
 20
13.2927151846
 11
-45.6213706156
 21
13.3927151846
  0
LINE
  5
404
100
AcDbEntity
  8
ASSI
100
AcDbLine
 62
250
  6
CONTINUOUS
 10
-45.5996481124
 20
-2.5604428362
 11
-45.5996481124
 21
6.9458152046
  0
LINE
  5
405
100
AcDbEntity
  8
0
100
AcDbLine
 62
250
  6
CONTINUOUS
 10
-45.5164643603
 20
13.2927151846
 11
-45.5164643603
 21
13.3927151846
  0
LINE
  5
406
100
AcDbEntity
  8
0
100
AcDbLine
 62
7
  6
CONTINUOUS
 10
-45.4934407911
 20
13.2927151846
 11
-45.4934407911
 21
13.3927151846
  0
LINE
  5
407
100
AcDbEntity
  8
0
100
AcDbLine
 62
7
  6
CONTINUOUS
 10
-45.2161563817
 20
13.2927151846
 11
-45.2161563817
 21
13.3927151846
  0
LINE
  5
408
100
AcDbEntity
  8
0
100
AcDbLine
 62
7
  6
CONTINUOUS
 10
-45.2043015521
 20
13.2927151846
 11
-45.2043015521
 21
13.3927151846
  0
LINE
  5
409
100
AcDbEntity
  8
0
100
AcDbLine
 62
7
  6
CONTINUOUS
 10
-45.007851876
 20
13.2927151846
 11
-45.007851876
 21
13.3927151846
  0
LINE
  5
40A
100
AcDbEntity
  8
0
100
AcDbLine
 62
250
  6
CONTINUOUS
 10
-44.9576121763
 20
13.2927151846
 11
-44.9576121763
 21
13.3927151846
  0
LINE
  5
40B
100
AcDbEntity
  8
0
100
AcDbLine
 62
7
  6
CONTINUOUS
 10
-44.8634153049
 20
13.2927151846
 11
-44.8634153049
 21
13.3927151846
  0
LINE
  5
40C
100
AcDbEntity
  8
0
100
AcDbLine
 62
7
  6
CONTINUOUS
 10
-44.8387786473
 20
13.2927151846
 11
-44.8387786473
 21
13.3927151846
  0
LINE
  5
40D
100
AcDbEntity
  8
0
100
AcDbLine
 62
7
  6
CONTINUOUS
 10
-44.7957569077
 20
13.2927151846
 11
-44.7957569077
 21
13.3927151846
  0
LINE
  5
40E
100
AcDbEntity
  8
IMPORT_IGES
100
AcDbLine
 62
250
  6
CONTINUOUS
 10
-44.4645457788
 20
8.0426861842
 11
-44.4645457788
 21
7.8426861842
  0
LINE
  5
40F
100
AcDbEntity
  8
IMPORT_IGES
100
AcDbLine
 62
250
  6
CONTINUOUS
 10
-44.4645457788
 20
-3.4573138158
 11
-44.4645457788
 21
-3.6573138158
  0
LINE
  5
410
100
AcDbEntity
  8
DRAFT
100
AcDbLine
 62
7
  6
CONTINUOUS
 10
-44.1996481138
 20
24.2728659245
 11
-44.1996481138
 21
22.0426861842
  0
LINE
  5
411
100
AcDbEntity
  8
DRAFT
100
AcDbLine
 62
7
  6
CONTINUOUS
 10
-44.1996481138
 20
-20.3573138158
 11
-44.1996481138
 21
-22.5874935561
  0
LINE
  5
412
100
AcDbEntity
  8
0
100
AcDbLine
 62
7
  6
CONTINUOUS
 10
-44.1973198036
 20
13.2927151846
 11
-44.1973198036
 21
13.3927151846
  0
LINE
  5
413
100
AcDbEntity
  8
0
100
AcDbLine
 62
7
  6
CONTINUOUS
 10
-44.1138877879
 20
13.2927151846
 11
-44.1138877879
 21
13.3927151846
  0
LINE
  5
414
100
AcDbEntity
  8
0
100
AcDbLine
 62
7
  6
CONTINUOUS
 10
-44.0957971231
 20
13.2927151846
 11
-44.0957971231
 21
13.3927151846
  0
LINE
  5
415
100
AcDbEntity
  8
0
100
AcDbLine
 62
7
  6
CONTINUOUS
 10
-44.0245591584
 20
13.2927151846
 11
-44.0245591584
 21
13.3927151846
  0
LINE
  5
416
100
AcDbEntity
  8
0
100
AcDbLine
 62
7
  6
CONTINUOUS
 10
-43.9633491818
 20
13.2927151846
 11
-43.9633491818
 21
13.3927151846
  0
LINE
  5
417
100
AcDbEntity
  8
0
100
AcDbLine
 62
7
  6
CONTINUOUS
 10
-43.9086990139
 20
13.3927151846
 11
-43.9086990139
 21
13.2927151846
  0
LINE
  5
418
100
AcDbEntity
  8
0
100
AcDbLine
 62
7
  6
CONTINUOUS
 10
-43.8999765885
 20
13.2927151846
 11
-43.8999765885
 21
13.3927151846
  0
LINE
  5
419
100
AcDbEntity
  8
0
100
AcDbLine
 62
7
  6
CONTINUOUS
 10
-43.8379267786
 20
13.2927151846
 11
-43.8379267786
 21
13.3927151846
  0
LINE
  5
41A
100
AcDbEntity
  8
0
100
AcDbLine
 62
7
  6
CONTINUOUS
 10
-43.8098853331
 20
13.2927151846
 11
-43.8098853331
 21
13.3927151846
  0
LINE
  5
41B
100
AcDbEntity
  8
0
100
AcDbLine
 62
250
  6
CONTINUOUS
 10
-43.8012299173
 20
13.2927151846
 11
-43.8012299173
 21
13.3927151846
  0
LINE
  5
41C
100
AcDbEntity
  8
0
100
AcDbLine
 62
250
  6
CONTINUOUS
 10
-43.7815617254
 20
13.2927151846
 11
-43.7815617254
 21
13.3927151846
  0
LINE
  5
41D
100
AcDbEntity
  8
0
100
AcDbLine
 62
250
  6
CONTINUOUS
 10
-43.7198138651
 20
13.2927151846
 11
-43.7198138651
 21
13.3927151846
  0
LWPOLYLINE
  5
41E
100
AcDbEntity
  8
RACCORDO
100
AcDbPolyline
 62
250
  6
CONTINUOUS
 90
10
 70
0
 10
-46.0016408102
 20
-6.5461354203
 10
-46.0054032578
 20
-6.5695634932
 10
-46.010189161
 20
-6.5912900047
 10
-46.0159169397
 20
-6.6109446158
 10
-46.0224889593
 20
-6.6281923075
 10
-46.0297931963
 20
-6.6427390925
 10
-46.037705147
 20
-6.6543370214
 10
-46.0460899489
 20
-6.6627884077
 10
-46.0548046793
 20
-6.6679491983
 10
-46.0637007924
 20
-6.6697314304
  0
LWPOLYLINE
  5
41F
100
AcDbEntity
  8
RACCORDO
100
AcDbPolyline
 62
250
  6
CONTINUOUS
 90
8
 70
0
 10
-39.6996481138
 20
19.3426861842
 10
-39.699192514
 20
19.3443972119
 10
-39.6987447099
 20
19.349501019
 10
-39.6983123634
 20
19.3579102778
 10
-39.6979028721
 20
19.3694811035
 10
-39.6975232426
 20
19.3840155162
 10
-39.6971799702
 20
19.4012648281
 10
-39.6966252681
 20
19.4426861843
  0
LINE
  5
420
100
AcDbEntity
  8
IMPORT_IGES
100
AcDbLine
 62
250
  6
CONTINUOUS
 10
-41.9496481124
 20
5.7967140853
 11
-42.1050736296
 21
5.5401153546
  0
LWPOLYLINE
  5
421
100
AcDbEntity
  8
RACCORDO
100
AcDbPolyline
 62
250
  6
CONTINUOUS
 90
4
 70
0
 10
-47.1996481138
 20
-6.4813824503
 10
-47.1978084138
 20
-6.4811421693
 10
-47.1923232175
 20
-6.4808944767
 10
-47.1832935216
 20
-6.4806393725
  0
LINE
  5
422
100
AcDbEntity
  8
RACCORDO
100
AcDbLine
 62
250
  6
CONTINUOUS
 10
-47.1832935216
 20
-6.4806393725
 11
-47.1553286074
 21
-6.4800971141
  0
LINE
  5
423
100
AcDbEntity
  8
RACCORDO
100
AcDbLine
 62
250
  6
CONTINUOUS
 10
-47.1553286074
 20
-6.4800971141
 11
-47.0928626733
 21
-6.4793262916
  0
LINE
  5
424
100
AcDbEntity
  8
RACCORDO
100
AcDbLine
 62
7
  6
CONTINUOUS
 10
-48.1996481138
 20
-6.6883715602
 11
-45.9979028067
 21
-6.66915722
  0
LINE
  5
425
100
AcDbEntity
  8
RACCORDO
100
AcDbLine
 62
250
  6
CONTINUOUS
 10
-47.0928626733
 20
-6.4793262916
 11
-45.9970420708
 21
-6.4697390457
  0
LINE
  5
426
100
AcDbEntity
  8
RACCORDO
100
AcDbLine
 62
250
  6
CONTINUOUS
 10
-48.1996481138
 20
-6.188352521
 11
-47.3996481138
 21
-6.1813710268
  0
LINE
  5
427
100
AcDbEntity
  8
RACCORDO
100
AcDbLine
 62
250
  6
CONTINUOUS
 10
-45.9970420708
 20
-6.4697390457
 11
-45.7996481138
 21
-6.4691648354
  0
LINE
  5
428
100
AcDbEntity
  8
IMPORT_IGES
100
AcDbLine
 62
250
  6
CONTINUOUS
 10
-42.2496481124
 20
-6.6930510279
 11
-41.9496481124
 21
-6.6930510279
  0
LINE
  5
429
100
AcDbEntity
  8
IMPORT_IGES
100
AcDbLine
 62
7
  6
CONTINUOUS
 10
-22.7996481124
 20
-6.2028104285
 11
-22.0996481124
 21
-6.2028104285
  0
LINE
  5
42A
100
AcDbEntity
  8
RACCORDO
100
AcDbLine
 62
250
  6
CONTINUOUS
 10
-47.1996481138
 20
-6.1813710268
 11
-47.3996481138
 21
-6.1813710269
  0
LINE
  5
42B
100
AcDbEntity
  8
IMPORT_IGES
100
AcDbLine
 62
250
  6
CONTINUOUS
 10
-23.9496481124
 20
-5.7002070342
 11
-24.2496481124
 21
-5.7002070346
  0
LINE
  5
42C
100
AcDbEntity
  8
IMPORT_IGES
100
AcDbLine
 62
7
  6
CONTINUOUS
 10
-45.7996072614
 20
-5.8354972541
 11
-44.0251033265
 21
-5.8416914665
  0
LINE
  5
42D
100
AcDbEntity
  8
IMPORT_IGES
100
AcDbLine
 62
250
  6
CONTINUOUS
 10
-43.9462308117
 20
-5.5419686124
 11
-45.7996481138
 21
-5.5354989392
  0
LINE
  5
42E
100
AcDbEntity
  8
RACCORDO
100
AcDbLine
 62
7
  6
CONTINUOUS
 10
-45.7996481138
 20
-5.847200554
 11
-47.1996481138
 21
-5.8349829391
  0
LWPOLYLINE
  5
42F
100
AcDbEntity
  8
IMPORT_IGES
100
AcDbPolyline
 62
250
  6
CONTINUOUS
 90
3
 70
0
 10
-26.4912931807
 20
-8.2761791789
 10
-26.4584130978
 20
-8.2799687158
 10
-26.4251368744
 20
-8.2801004811
  0
LINE
  5
430
100
AcDbEntity
  8
IMPORT_IGES
100
AcDbLine
 62
250
  6
CONTINUOUS
 10
-26.5234188667
 20
-8.2689525357
 11
-26.4912931807
 21
-8.2761791789
  0
LINE
  5
431
100
AcDbEntity
  8
IMPORT_IGES
100
AcDbLine
 62
7
  6
CONTINUOUS
 10
-45.7236397759
 20
-2.7173697853
 11
-44.5885374424
 21
-3.6142407649
  0
LINE
  5
432
100
AcDbEntity
  8
IMPORT_IGES
100
AcDbLine
 62
250
  6
CONTINUOUS
 10
-44.4645457788
 20
-3.4573138158
 11
-45.5996481124
 21
-2.5604428362
  0
LWPOLYLINE
  5
433
100
AcDbEntity
  8
RACCORDO
100
AcDbPolyline
 62
250
  6
CONTINUOUS
 90
10
 70
0
 10
-46.0016407919
 20
14.4315076375
 10
-46.0054032275
 20
14.454935689
 10
-46.0101891184
 20
14.476662195
 10
-46.0159168871
 20
14.4963168181
 10
-46.0224889015
 20
14.5135645373
 10
-46.029793139
 20
14.5281113582
 10
-46.0377050957
 20
14.5397093242
 10
-46.0460899092
 20
14.5481607433
 10
-46.0548046569
 20
14.5533215575
 10
-46.0637007924
 20
14.5551037988
  0
LINE
  5
434
100
AcDbEntity
  8
0
100
AcDbLine
 62
250
  6
CONTINUOUS
 10
-43.6102953973
 20
13.2927151846
 11
-43.6102953973
 21
13.3927151846
  0
LINE
  5
435
100
AcDbEntity
  8
0
100
AcDbLine
 62
250
  6
CONTINUOUS
 10
-43.4425176858
 20
13.2927151846
 11
-43.4425176858
 21
13.3927151846
  0
LINE
  5
436
100
AcDbEntity
  8
0
100
AcDbLine
 62
7
  6
CONTINUOUS
 10
-43.3876542093
 20
13.2927151846
 11
-43.3876542093
 21
13.3927151846
  0
LINE
  5
437
100
AcDbEntity
  8
0
100
AcDbLine
 62
7
  6
CONTINUOUS
 10
-43.3574767686
 20
13.2927151846
 11
-43.3574767686
 21
13.3927151846
  0
LINE
  5
438
100
AcDbEntity
  8
0
100
AcDbLine
 62
7
  6
CONTINUOUS
 10
-43.2951637268
 20
13.2927151846
 11
-43.2951637268
 21
13.3927151846
  0
LINE
  5
439
100
AcDbEntity
  8
0
100
AcDbLine
 62
7
  6
CONTINUOUS
 10
-43.2697073196
 20
13.2927151846
 11
-43.2697073196
 21
13.3927151846
  0
LINE
  5
43A
100
AcDbEntity
  8
0
100
AcDbLine
 62
250
  6
CONTINUOUS
 10
-43.177526985
 20
13.2927151846
 11
-43.177526985
 21
13.3927151846
  0
LINE
  5
43B
100
AcDbEntity
  8
0
100
AcDbLine
 62
7
  6
CONTINUOUS
 10
-43.1116394201
 20
13.2927151846
 11
-43.1116394201
 21
13.3927151846
  0
LINE
  5
43C
100
AcDbEntity
  8
IMPORT_IGES
100
AcDbLine
 62
7
  6
CONTINUOUS
 10
-43.0496481124
 20
-0.1573138158
 11
-43.0496481124
 21
4.5426861842
  0
LINE
  5
43D
100
AcDbEntity
  8
0
100
AcDbLine
 62
7
  6
CONTINUOUS
 10
-42.9496731296
 20
13.2927151846
 11
-42.9496731296
 21
13.3927151846
  0
LINE
  5
43E
100
AcDbEntity
  8
0
100
AcDbLine
 62
7
  6
CONTINUOUS
 10
-42.9391426535
 20
13.2927151846
 11
-42.9391426535
 21
13.3927151846
  0
LINE
  5
43F
100
AcDbEntity
  8
IMPORT_IGES
100
AcDbLine
 62
7
  6
CONTINUOUS
 10
-42.8996481124
 20
4.4833679635
 11
-42.8996481124
 21
-0.097937595
  0
LINE
  5
440
100
AcDbEntity
  8
IMPORT_IGES
100
AcDbLine
 62
250
  6
CONTINUOUS
 10
-42.7396481124
 20
-0.1007304054
 11
-42.7396481124
 21
4.4861607738
  0
LINE
  5
441
100
AcDbEntity
  8
0
100
AcDbLine
 62
7
  6
CONTINUOUS
 10
-42.6526313328
 20
13.2927151846
 11
-42.6526313328
 21
13.3927151846
  0
LINE
  5
442
100
AcDbEntity
  8
DRAFT
100
AcDbLine
 62
7
  6
CONTINUOUS
 10
-42.5996481138
 20
-20.3573138158
 11
-42.5996481138
 21
-21.5573138158
  0
LINE
  5
443
100
AcDbEntity
  8
DRAFT
100
AcDbLine
 62
7
  6
CONTINUOUS
 10
-42.5996481138
 20
22.0426861842
 11
-42.5996481138
 21
23.2426861842
  0
LINE
  5
444
100
AcDbEntity
  8
0
100
AcDbLine
 62
250
  6
CONTINUOUS
 10
-42.5797729428
 20
13.2927151846
 11
-42.5797729428
 21
13.3927151846
  0
LINE
  5
445
100
AcDbEntity
  8
0
100
AcDbLine
 62
7
  6
CONTINUOUS
 10
-42.3349474347
 20
13.2927151846
 11
-42.3349474347
 21
13.3927151846
  0
LINE
  5
446
100
AcDbEntity
  8
0
100
AcDbLine
 62
7
  6
CONTINUOUS
 10
-42.3191934736
 20
13.2927151846
 11
-42.3191934736
 21
13.3927151846
  0
LINE
  5
447
100
AcDbEntity
  8
IMPORT_IGES
100
AcDbLine
 62
7
  6
CONTINUOUS
 10
-42.2996481124
 20
-3.6573138158
 11
-42.2996481124
 21
-1.2332932845
  0
LINE
  5
448
100
AcDbEntity
  8
IMPORT_IGES
100
AcDbLine
 62
7
  6
CONTINUOUS
 10
-42.2996481124
 20
5.6186656529
 11
-42.2996481124
 21
8.0426861842
  0
LINE
  5
449
100
AcDbEntity
  8
IMPORT_IGES
100
AcDbLine
 62
7
  6
CONTINUOUS
 10
-42.2496481124
 20
-6.6930510282
 11
-42.2496481124
 21
-1.4113417168
  0
LINE
  5
44A
100
AcDbEntity
  8
IMPORT_IGES
100
AcDbLine
 62
7
  6
CONTINUOUS
 10
-42.2496481124
 20
5.7967140846
 11
-42.2496481124
 21
10.4184221155
  0
LINE
  5
44B
100
AcDbEntity
  8
IMPORT_IGES
100
AcDbLine
 62
7
  6
CONTINUOUS
 10
-42.1496481124
 20
-0.1110288937
 11
-42.1496481124
 21
4.4964592622
  0
LINE
  5
44C
100
AcDbEntity
  8
0
100
AcDbLine
 62
7
  6
CONTINUOUS
 10
-42.0783651581
 20
13.2927151846
 11
-42.0783651581
 21
13.3927151846
  0
LINE
  5
44D
100
AcDbEntity
  8
IMPORT_IGES
100
AcDbLine
 62
250
  6
CONTINUOUS
 10
-41.9496481124
 20
10.4184221155
 11
-41.9496481124
 21
5.7967140853
  0
LINE
  5
44E
100
AcDbEntity
  8
IMPORT_IGES
100
AcDbLine
 62
250
  6
CONTINUOUS
 10
-41.9496481124
 20
-1.4113417169
 11
-41.9496481124
 21
-6.6930510279
  0
LINE
  5
44F
100
AcDbEntity
  8
0
100
AcDbLine
 62
250
  6
CONTINUOUS
 10
-41.9379454154
 20
13.2927151846
 11
-41.9379454154
 21
13.3927151846
  0
LINE
  5
450
100
AcDbEntity
  8
0
100
AcDbLine
 62
7
  6
CONTINUOUS
 10
-41.9041381866
 20
13.2927151846
 11
-41.9041381866
 21
13.3927151846
  0
LINE
  5
451
100
AcDbEntity
  8
0
100
AcDbLine
 62
7
  6
CONTINUOUS
 10
-41.8838311154
 20
13.2927151846
 11
-41.8838311154
 21
13.3927151846
  0
LINE
  5
452
100
AcDbEntity
  8
IMPORT_IGES
100
AcDbLine
 62
7
  6
CONTINUOUS
 10
-41.7496481124
 20
4.6083026819
 11
-41.7496481124
 21
-0.2229303134
  0
LINE
  5
453
100
AcDbEntity
  8
0
100
AcDbLine
 62
7
  6
CONTINUOUS
 10
-41.7472110785
 20
13.2927151846
 11
-41.7472110785
 21
13.3927151846
  0
LWPOLYLINE
  5
454
100
AcDbEntity
  8
RACCORDO
100
AcDbPolyline
 62
7
  6
CONTINUOUS
 90
5
 70
0
 10
-43.9335211071
 20
-17.6844479217
 10
-43.9323952866
 20
-17.6727670219
 10
-43.9317380087
 20
-17.66424629
 10
-43.931508474
 20
-17.6590581257
 10
-43.9316989214
 20
-17.6573138158
  0
LWPOLYLINE
  5
455
100
AcDbEntity
  8
RACCORDO
100
AcDbPolyline
 62
7
  6
CONTINUOUS
 90
4
 70
0
 10
-43.9419357855
 20
-17.7578708929
 10
-43.939290897
 20
-17.7361052584
 10
-43.9370049245
 20
-17.7163875241
 10
-43.9335211071
 20
-17.6844479217
  0
LWPOLYLINE
  5
456
100
AcDbEntity
  8
IMPORT_IGES
100
AcDbPolyline
 62
7
  6
CONTINUOUS
 90
4
 70
0
 10
-44.0251036519
 20
-5.8416912495
 10
-44.0246311579
 20
-5.8391547339
 10
-44.0227869605
 20
-5.8317486672
 10
-44.0096455319
 20
-5.7811146482
  0
LINE
  5
457
100
AcDbEntity
  8
IMPORT_IGES
100
AcDbLine
 62
7
  6
CONTINUOUS
 10
-43.9566031628
 20
-5.5819515587
 11
-43.9462308117
 21
-5.5419686124
  0
LINE
  5
458
100
AcDbEntity
  8
IMPORT_IGES
100
AcDbLine
 62
7
  6
CONTINUOUS
 10
-44.0096455319
 20
-5.7811146482
 11
-43.9865938024
 21
-5.6936231004
  0
LINE
  5
459
100
AcDbEntity
  8
IMPORT_IGES
100
AcDbLine
 62
7
  6
CONTINUOUS
 10
-43.9865938024
 20
-5.6936231004
 11
-43.9566031628
 21
-5.5819515587
  0
LINE
  5
45A
100
AcDbEntity
  8
IMPORT_IGES
100
AcDbLine
 62
7
  6
CONTINUOUS
 10
-36.5437272365
 20
12.0370772483
 11
-36.5461973593
 21
12.0327709171
  0
LINE
  5
45B
100
AcDbEntity
  8
IMPORT_IGES
100
AcDbLine
 62
7
  6
CONTINUOUS
 10
-36.0093047099
 20
12.915724735
 11
-36.5437050671
 21
12.0371168626
  0
LINE
  5
45C
100
AcDbEntity
  8
IMPORT_IGES
100
AcDbLine
 62
250
  6
CONTINUOUS
 10
-36.4412114108
 20
12.0998288512
 11
-35.9225900756
 21
12.9524945132
  0
LINE
  5
45D
100
AcDbEntity
  8
IMPORT_IGES
100
AcDbLine
 62
250
  6
CONTINUOUS
 10
-45.5996481124
 20
-2.5604428362
 11
-45.7236397759
 21
-2.7173697853
  0
LINE
  5
45E
100
AcDbEntity
  8
IMPORT_IGES
100
AcDbLine
 62
7
  6
CONTINUOUS
 10
-40.4433056944
 20
4.5993209292
 11
-40.4996481124
 21
4.5676861842
  0
LWPOLYLINE
  5
45F
100
AcDbEntity
  8
IMPORT_IGES
100
AcDbPolyline
 62
7
  6
CONTINUOUS
 90
7
 70
0
 10
-40.1996481124
 20
4.7367140853
 10
-40.2425442109
 20
4.7131415459
 10
-40.283349131
 20
4.690008564
 10
-40.3216785972
 20
4.6679495562
 10
-40.357390994
 20
4.647657634
 10
-40.3900187821
 20
4.6294453665
 10
-40.4433056944
 20
4.5993209292
  0
LINE
  5
460
100
AcDbEntity
  8
IMPORT_IGES
100
AcDbLine
 62
7
  6
CONTINUOUS
 10
-18.7496481124
 20
-4.6076115634
 11
-18.1496481124
 21
-4.6076115634
  0
LINE
  5
461
100
AcDbEntity
  8
IMPORT_IGES
100
AcDbLine
 62
7
  6
CONTINUOUS
 10
-23.9496481124
 20
-4.2528138158
 11
-23.8696481124
 21
-4.2528138158
  0
LINE
  5
462
100
AcDbEntity
  8
IMPORT_IGES
100
AcDbLine
 62
7
  6
CONTINUOUS
 10
-44.4645457788
 20
-3.6573138158
 11
-42.2996481124
 21
-3.6573138158
  0
LINE
  5
463
100
AcDbEntity
  8
IMPORT_IGES
100
AcDbLine
 62
7
  6
CONTINUOUS
 10
-21.7996481124
 20
-3.6076115634
 11
-19.0496481124
 21
-3.6076115634
  0
LINE
  5
464
100
AcDbEntity
  8
IMPORT_IGES
100
AcDbLine
 62
250
  6
CONTINUOUS
 10
-42.2996481124
 20
-3.4573138158
 11
-44.4645457788
 21
-3.4573138158
  0
LWPOLYLINE
  5
465
100
AcDbEntity
  8
IMPORT_IGES
100
AcDbPolyline
 62
250
  6
CONTINUOUS
 90
3
 70
0
 10
-23.6211272174
 20
-4.8428183186
 10
-21.802214654
 20
-4.8428506218
 10
-21.7996481124
 20
-4.8428764641
  0
LINE
  5
466
100
AcDbEntity
  8
RACCORDO
100
AcDbLine
 62
7
  6
CONTINUOUS
 10
-46.0970301532
 20
-3.8446053403
 11
-47.1996481138
 21
-3.8349829391
  0
LINE
  5
467
100
AcDbEntity
  8
IMPORT_IGES
100
AcDbLine
 62
250
  6
CONTINUOUS
 10
-42.1050736294
 20
-1.154742986
 11
-41.9496481124
 21
-1.4113417169
  0
LWPOLYLINE
  5
468
100
AcDbEntity
  8
RACCORDO
100
AcDbPolyline
 62
7
  6
CONTINUOUS
 90
8
 70
0
 10
-43.9418757232
 20
19.4431184008
 10
-43.9370049229
 20
19.4017598778
 10
-43.9350492973
 20
19.3844749738
 10
-43.9335257946
 20
19.3698630481
 10
-43.9324017304
 20
19.3582110785
 10
-43.931689836
 20
19.3497211261
 10
-43.9314505909
 20
19.3445180974
 10
-43.9316989214
 20
19.3426861842
  0
LWPOLYLINE
  5
469
100
AcDbEntity
  8
RACCORDO
100
AcDbPolyline
 62
250
  6
CONTINUOUS
 90
19
 70
0
 10
-39.3961576325
 20
-18.1573138158
 10
-39.3966240869
 20
-18.1348283587
 10
-39.3993019768
 20
-18.1118414566
 10
-39.4041913021
 20
-18.0883531093
 10
-39.4112321023
 20
-18.0639648405
 10
-39.420484338
 20
-18.0390751266
 10
-39.4321278907
 20
-18.0148793971
 10
-39.4463795419
 20
-17.9914207508
 10
-39.4630225102
 20
-17.9686560889
 10
-39.4815863327
 20
-17.9476515449
 10
-39.5022566625
 20
-17.9285542224
 10
-39.5248478465
 20
-17.9112170177
 10
-39.5483324629
 20
-17.896264754
 10
-39.5727306214
 20
-17.8839268447
 10
-39.5980222121
 20
-17.8739738764
 10
-39.6231194838
 20
-17.8663424311
 10
-39.6476598525
 20
-17.8610113696
 10
-39.6720059021
 20
-17.8580018312
 10
-39.6961576325
 20
-17.8573138158
  0
LWPOLYLINE
  5
46A
100
AcDbEntity
  8
RACCORDO
100
AcDbPolyline
 62
250
  6
CONTINUOUS
 90
7
 70
0
 10
-39.6971799709
 20
-17.7158924596
 10
-39.6975232436
 20
-17.6986431477
 10
-39.6979028733
 20
-17.684108735
 10
-39.6983123646
 20
-17.6725379093
 10
-39.6987447109
 20
-17.6641286505
 10
-39.6991925147
 20
-17.6590248435
 10
-39.6996481138
 20
-17.6573138158
  0
LINE
  5
46B
100
AcDbEntity
  8
RACCORDO
100
AcDbLine
 62
250
  6
CONTINUOUS
 10
-39.6966252684
 20
-17.7573138158
 11
-39.6971799709
 21
-17.7158924596
  0
LINE
  5
46C
100
AcDbEntity
  8
RACCORDO
100
AcDbLine
 62
250
  6
CONTINUOUS
 10
-39.6962765678
 20
-17.8055500068
 11
-39.6966252684
 21
-17.7573138158
  0
LINE
  5
46D
100
AcDbEntity
  8
RACCORDO
100
AcDbLine
 62
250
  6
CONTINUOUS
 10
-39.6961576325
 20
-17.8573138158
 11
-39.6962765678
 21
-17.8055500068
  0
LINE
  5
46E
100
AcDbEntity
  8
0
100
AcDbLine
 62
7
  6
CONTINUOUS
 10
-41.5305648092
 20
13.2927151846
 11
-41.5305648092
 21
13.3927151846
  0
LINE
  5
46F
100
AcDbEntity
  8
0
100
AcDbLine
 62
7
  6
CONTINUOUS
 10
-41.5174683333
 20
13.2927151846
 11
-41.5174683333
 21
13.3927151846
  0
LINE
  5
470
100
AcDbEntity
  8
0
100
AcDbLine
 62
250
  6
CONTINUOUS
 10
-41.4059554891
 20
13.2927151846
 11
-41.4059554891
 21
13.3927151846
  0
LINE
  5
471
100
AcDbEntity
  8
0
100
AcDbLine
 62
250
  6
CONTINUOUS
 10
-41.2744203831
 20
13.2927151846
 11
-41.2744203831
 21
13.3927151846
  0
LINE
  5
472
100
AcDbEntity
  8
0
100
AcDbLine
 62
7
  6
CONTINUOUS
 10
-41.2644901559
 20
13.2927151846
 11
-41.2644901559
 21
13.3927151846
  0
LINE
  5
473
100
AcDbEntity
  8
IMPORT_IGES
100
AcDbLine
 62
250
  6
CONTINUOUS
 10
-40.6753840437
 20
11.9926861842
 11
-40.6753840437
 21
11.6926861842
  0
LINE
  5
474
100
AcDbEntity
  8
IMPORT_IGES
100
AcDbLine
 62
7
  6
CONTINUOUS
 10
-40.5496481124
 20
4.6083026819
 11
-40.5496481124
 21
-0.2229303134
  0
LINE
  5
475
100
AcDbEntity
  8
IMPORT_IGES
100
AcDbLine
 62
7
  6
CONTINUOUS
 10
-40.4996481124
 20
-0.1823138158
 11
-40.4996481124
 21
4.5676861842
  0
LINE
  5
476
100
AcDbEntity
  8
IMPORT_IGES
100
AcDbLine
 62
250
  6
CONTINUOUS
 10
-40.240140012
 20
-7.7861098237
 11
-40.2401399963
 21
-7.9982418526
  0
LINE
  5
477
100
AcDbEntity
  8
IMPORT_IGES
100
AcDbLine
 62
250
  6
CONTINUOUS
 10
-40.1996481124
 20
4.7367140853
 11
-40.1996481124
 21
2.0976861842
  0
LINE
  5
478
100
AcDbEntity
  8
IMPORT_IGES
100
AcDbLine
 62
250
  6
CONTINUOUS
 10
-40.1996481124
 20
1.9976861842
 11
-40.1996481124
 21
-0.3513417169
  0
LINE
  5
479
100
AcDbEntity
  8
0
100
AcDbLine
 62
7
  6
CONTINUOUS
 10
-40.1996481124
 20
13.2927151846
 11
-40.1996481124
 21
13.3927151846
  0
LINE
  5
47A
100
AcDbEntity
  8
0
100
AcDbLine
 62
250
  6
CONTINUOUS
 10
-40.0775128924
 20
13.2927151846
 11
-40.0775128924
 21
13.3927151846
  0
LINE
  5
47B
100
AcDbEntity
  8
0
100
AcDbLine
 62
250
  6
CONTINUOUS
 10
-39.7819968406
 20
13.2927151846
 11
-39.7819968406
 21
13.3927151846
  0
LINE
  5
47C
100
AcDbEntity
  8
RACCORDO
100
AcDbLine
 62
250
  6
CONTINUOUS
 10
-39.6962765677
 20
19.4909223752
 11
-39.6961576325
 21
19.5426861842
  0
LINE
  5
47D
100
AcDbEntity
  8
RACCORDO
100
AcDbLine
 62
250
  6
CONTINUOUS
 10
-39.6966252681
 20
19.4426861843
 11
-39.6962765677
 21
19.4909223752
  0
LWPOLYLINE
  5
47E
100
AcDbEntity
  8
RACCORDO
100
AcDbPolyline
 62
250
  6
CONTINUOUS
 90
19
 70
0
 10
-39.3961576325
 20
19.8426861842
 10
-39.3968401006
 20
19.8187666929
 10
-39.399789341
 20
19.794661936
 10
-39.4050053539
 20
19.7703719136
 10
-39.4124758407
 20
19.74554064
 10
-39.4222131
 20
19.7205241009
 10
-39.4342540267
 20
19.6963902532
 10
-39.4487810371
 20
19.6731896185
 10
-39.465611715
 20
19.6508716752
 10
-39.4842357065
 20
19.630352816
 10
-39.5047937124
 20
19.6117686406
 10
-39.5271450319
 20
19.5949835492
 10
-39.5503572088
 20
19.5805071351
 10
-39.5744781553
 20
19.5685264433
 10
-39.5994599593
 20
19.5588544288
 10
-39.6242264283
 20
19.5514395498
 10
-39.6484188314
 20
19.5462646257
 10
-39.6723958995
 20
19.5433468372
 10
-39.6961576325
 20
19.5426861842
  0
LWPOLYLINE
  5
47F
100
AcDbEntity
  8
RACCORDO
100
AcDbPolyline
 62
7
  6
CONTINUOUS
 90
4
 70
0
 10
-43.9545389396
 20
-17.8573138158
 10
-43.9510704235
 20
-17.8314373839
 10
-43.9478229208
 20
-17.8059517651
 10
-43.9419357855
 20
-17.7578708929
  0
LINE
  5
480
100
AcDbEntity
  8
IMPORT_IGES
100
AcDbLine
 62
250
  6
CONTINUOUS
 10
-36.5441105009
 20
12.0361011574
 11
-36.5437050648
 21
12.0371168612
  0
LWPOLYLINE
  5
481
100
AcDbEntity
  8
IMPORT_IGES
100
AcDbPolyline
 62
250
  6
CONTINUOUS
 90
4
 70
0
 10
-35.9225900756
 20
12.9524938053
 10
-35.9190813457
 20
12.9611671116
 10
-35.9159855887
 20
12.9686700616
 10
-35.9133028046
 20
12.9750458615
  0
LINE
  5
482
100
AcDbEntity
  8
IMPORT_IGES
100
AcDbLine
 62
250
  6
CONTINUOUS
 10
-36.4656995433
 20
12.0392789944
 11
-36.5082267392
 21
11.9346560267
  0
LWPOLYLINE
  5
483
100
AcDbEntity
  8
IMPORT_IGES
100
AcDbPolyline
 62
250
  6
CONTINUOUS
 90
3
 70
0
 10
-36.4412114108
 20
12.0998274292
 10
-36.4465890985
 20
12.0867712351
 10
-36.4656995433
 20
12.0392789944
  0
LWPOLYLINE
  5
484
100
AcDbEntity
  8
IMPORT_IGES
100
AcDbPolyline
 62
250
  6
CONTINUOUS
 90
6
 70
0
 10
-35.9133028046
 20
12.9750458615
 10
-35.9092273068
 20
12.9844826314
 10
-35.9077322903
 20
12.9879142563
 10
-35.9065479439
 20
12.9905121575
 10
-35.9056998434
 20
12.9921295064
 10
-35.9051879888
 20
12.9926861842
  0
LINE
  5
485
100
AcDbEntity
  8
IMPORT_IGES
100
AcDbLine
 62
250
  6
CONTINUOUS
 10
-44.5885374424
 20
-3.614240765
 11
-44.4645457788
 21
-3.4573138158
  0
LWPOLYLINE
  5
486
100
AcDbEntity
  8
IMPORT_IGES
100
AcDbPolyline
 62
250
  6
CONTINUOUS
 90
9
 70
0
 10
-18.1399317541
 20
3.105835322
 10
-18.1062651279
 20
3.1143900205
 10
-18.074671268
 20
3.1283615658
 10
-18.046109674
 20
3.1473285534
 10
-18.0214511253
 20
3.1707159406
 10
-18.0014492048
 20
3.1978105001
 10
-17.9867123256
 20
3.2277871976
 10
-17.977687237
 20
3.2597360951
 10
-17.9746481124
 20
3.2926861842
  0
LINE
  5
487
100
AcDbEntity
  8
IMPORT_IGES
100
AcDbLine
 62
250
  6
CONTINUOUS
 10
-45.7996481124
 20
-2.5604428362
 11
-45.5996481124
 21
-2.5604428362
  0
LINE
  5
488
100
AcDbEntity
  8
IMPORT_IGES
100
AcDbLine
 62
250
  6
CONTINUOUS
 10
-41.9496481124
 20
-1.4113417169
 11
-42.2496481124
 21
-1.4113417168
  0
LINE
  5
489
100
AcDbEntity
  8
IMPORT_IGES
100
AcDbLine
 62
250
  6
CONTINUOUS
 10
-18.1496481124
 20
-1.3020701687
 11
-18.7496481124
 21
-1.3020701682
  0
LINE
  5
48A
100
AcDbEntity
  8
IMPORT_IGES
100
AcDbLine
 62
250
  6
CONTINUOUS
 10
-19.0496481124
 20
-1.199665263
 11
-21.7996481124
 21
-1.1996652627
  0
LINE
  5
48B
100
AcDbEntity
  8
IMPORT_IGES
100
AcDbLine
 62
7
  6
CONTINUOUS
 10
-19.0496481124
 20
-1.0871908123
 11
-18.9742947531
 21
-1.0871834655
  0
LWPOLYLINE
  5
48C
100
AcDbEntity
  8
IMPORT_IGES
100
AcDbPolyline
 62
7
  6
CONTINUOUS
 90
5
 70
0
 10
-18.9742947531
 20
-1.0871834655
 10
-18.9641279981
 20
-1.0872269278
 10
-18.9563094443
 20
-1.0873792327
 10
-18.9513625946
 20
-1.0876328465
 10
-18.9496481124
 20
-1.0880054279
  0
LWPOLYLINE
  5
48D
100
AcDbEntity
  8
IMPORT_IGES
100
AcDbPolyline
 62
250
  6
CONTINUOUS
 90
10
 70
0
 10
-26.2527081866
 20
-7.9982418556
 10
-26.2242713474
 20
-8.0110259159
 10
-26.1962190675
 20
-8.0207683716
 10
-26.1689307058
 20
-8.0273374727
 10
-26.1427752904
 20
-8.0306443833
 10
-26.1181065286
 20
-8.0306443832
 10
-26.0952580234
 20
-8.0273374727
 10
-26.0745387616
 20
-8.0207683721
 10
-26.0562289358
 20
-8.0110259173
 10
-26.0405761547
 20
-7.9982418581
  0
LINE
  5
48E
100
AcDbEntity
  8
IMPORT_IGES
100
AcDbLine
 62
7
  6
CONTINUOUS
 10
-43.0496481124
 20
0.6570928313
 11
-42.8996481124
 21
0.5836364006
  0
LINE
  5
48F
100
AcDbEntity
  8
IMPORT_IGES
100
AcDbLine
 62
7
  6
CONTINUOUS
 10
-40.4974680431
 20
-0.1835527464
 11
-40.4433852585
 21
-0.2139005401
  0
LWPOLYLINE
  5
490
100
AcDbEntity
  8
IMPORT_IGES
100
AcDbPolyline
 62
7
  6
CONTINUOUS
 90
3
 70
0
 10
-40.4433852585
 20
-0.2139005401
 10
-40.4188257779
 20
-0.2278507926
 10
-40.3573922232
 20
-0.2622825295
  0
LINE
  5
491
100
AcDbEntity
  8
IMPORT_IGES
100
AcDbLine
 62
7
  6
CONTINUOUS
 10
-40.4996481124
 20
-0.1823138158
 11
-40.4974680431
 21
-0.1835527464
  0
LWPOLYLINE
  5
492
100
AcDbEntity
  8
IMPORT_IGES
100
AcDbPolyline
 62
7
  6
CONTINUOUS
 90
5
 70
0
 10
-40.3573922232
 20
-0.2622825295
 10
-40.3216522161
 20
-0.2825920663
 10
-40.2833160045
 20
-0.3046572913
 10
-40.2425197034
 20
-0.3277856023
 10
-40.1996481124
 20
-0.3513417169
  0
LINE
  5
493
100
AcDbEntity
  8
IMPORT_IGES
100
AcDbLine
 62
250
  6
CONTINUOUS
 10
-45.7236397759
 20
7.1027421538
 11
-45.5996481124
 21
6.9458152046
  0
LINE
  5
494
100
AcDbEntity
  8
RACCORDO
100
AcDbLine
 62
7
  6
CONTINUOUS
 10
-43.9545389396
 20
19.5426861842
 11
-43.9447740008
 21
19.466491879
  0
LINE
  5
495
100
AcDbEntity
  8
RACCORDO
100
AcDbLine
 62
7
  6
CONTINUOUS
 10
-43.9447740008
 20
19.466491879
 11
-43.9418757232
 21
19.4431184008
  0
LINE
  5
496
100
AcDbEntity
  8
0
100
AcDbLine
 62
250
  6
CONTINUOUS
 10
-39.5221584828
 20
13.2927151846
 11
-39.5221584828
 21
13.3927151846
  0
LINE
  5
497
100
AcDbEntity
  8
0
100
AcDbLine
 62
7
  6
CONTINUOUS
 10
-39.424132115
 20
13.2927151846
 11
-39.424132115
 21
13.3927151846
  0
LINE
  5
498
100
AcDbEntity
  8
RACCORDO
100
AcDbLine
 62
250
  6
CONTINUOUS
 10
-39.3961576325
 20
20.9598434717
 11
-39.3961576325
 21
19.8426861842
  0
LINE
  5
499
100
AcDbEntity
  8
RACCORDO
100
AcDbLine
 62
250
  6
CONTINUOUS
 10
-39.3961576325
 20
-19.2744711033
 11
-39.3961576325
 21
-18.1573138158
  0
LINE
  5
49A
100
AcDbEntity
  8
RACCORDO
100
AcDbLine
 62
7
  6
CONTINUOUS
 10
-39.1996481138
 20
20.9598434717
 11
-39.1996481138
 21
19.8426861842
  0
LINE
  5
49B
100
AcDbEntity
  8
RACCORDO
100
AcDbLine
 62
7
  6
CONTINUOUS
 10
-39.1996481138
 20
-19.2744711033
 11
-39.1996481138
 21
-18.1573138158
  0
LINE
  5
49C
100
AcDbEntity
  8
0
100
AcDbLine
 62
250
  6
CONTINUOUS
 10
-39.1884025637
 20
13.2927151846
 11
-39.1884025637
 21
13.3927151846
  0
LINE
  5
49D
100
AcDbEntity
  8
0
100
AcDbLine
 62
7
  6
CONTINUOUS
 10
-39.0192922402
 20
13.2927151846
 11
-39.0192922402
 21
13.3927151846
  0
LINE
  5
49E
100
AcDbEntity
  8
0
100
AcDbLine
 62
7
  6
CONTINUOUS
 10
-38.980858076
 20
13.2927151846
 11
-38.980858076
 21
13.3927151846
  0
LINE
  5
49F
100
AcDbEntity
  8
IMPORT_IGES
100
AcDbLine
 62
250
  6
CONTINUOUS
 10
-36.5442683279
 20
12.0347823602
 11
-36.5441105009
 21
12.0361011574
  0
LWPOLYLINE
  5
4A0
100
AcDbEntity
  8
IMPORT_IGES
100
AcDbPolyline
 62
250
  6
CONTINUOUS
 90
10
 70
0
 10
-36.5582267562
 20
11.9188809076
 10
-36.5574671438
 20
11.9216196261
 10
-36.5552113872
 20
11.92427513
 10
-36.5515280264
 20
11.9267667331
 10
-36.5465289783
 20
11.9290187295
 10
-36.5403661367
 20
11.9309626933
 10
-36.5332267562
 20
11.9325395581
 10
-36.5253277633
 20
11.9337014118
 10
-36.5169091651
 20
11.9344129519
 10
-36.5082267562
 20
11.9346525587
  0
LINE
  5
4A1
100
AcDbEntity
  8
IMPORT_IGES
100
AcDbLine
 62
7
  6
CONTINUOUS
 10
-40.4996481124
 20
-0.1823138158
 11
-40.5496481124
 21
-0.2125995301
  0
LINE
  5
4A2
100
AcDbEntity
  8
IMPORT_IGES
100
AcDbLine
 62
7
  6
CONTINUOUS
 10
-40.913869567
 20
-0.4332136683
 11
-42.10507363
 21
-1.1547429865
  0
LINE
  5
4A3
100
AcDbEntity
  8
IMPORT_IGES
100
AcDbLine
 62
250
  6
CONTINUOUS
 10
-41.9496481124
 20
-1.4113417169
 11
-40.1996481124
 21
-0.3513417169
  0
LINE
  5
4A4
100
AcDbEntity
  8
IMPORT_IGES
100
AcDbLine
 62
7
  6
CONTINUOUS
 10
-40.5496481124
 20
-0.2229303134
 11
-42.2996481124
 21
-1.2332932845
  0
LINE
  5
4A5
100
AcDbEntity
  8
IMPORT_IGES
100
AcDbLine
 62
7
  6
CONTINUOUS
 10
-18.1496481124
 20
-0.8872269466
 11
-21.7996481124
 21
-0.8872269466
  0
LINE
  5
4A6
100
AcDbEntity
  8
IMPORT_IGES
100
AcDbLine
 62
7
  6
CONTINUOUS
 10
-41.7496481124
 20
-0.2229303134
 11
-42.2996481124
 21
-0.2229303134
  0
LINE
  5
4A7
100
AcDbEntity
  8
IMPORT_IGES
100
AcDbLine
 62
7
  6
CONTINUOUS
 10
-42.8996481124
 20
0.1550347389
 11
-43.0496481124
 21
0.1550347389
  0
LINE
  5
4A8
100
AcDbEntity
  8
IMPORT_IGES
100
AcDbLine
 62
7
  6
CONTINUOUS
 10
-41.7496481124
 20
-0.1180109197
 11
-42.8996481124
 21
-0.097937595
  0
LWPOLYLINE
  5
4A9
100
AcDbEntity
  8
IMPORT_IGES
100
AcDbPolyline
 62
250
  6
CONTINUOUS
 90
12
 70
0
 10
-18.7496481124
 20
-1.3020701687
 10
-18.7757533509
 20
-1.3014151689
 10
-18.8014119214
 20
-1.2994613767
 10
-18.8261847989
 20
-1.2962422222
 10
-18.8496481124
 20
-1.2918127858
 10
-18.8714003982
 20
-1.2862488565
 10
-18.8910694686
 20
-1.2796456347
 10
-18.9083187805
 20
-1.2721161033
 10
-18.9228531932
 20
-1.2637890946
 10
-18.9344240189
 20
-1.2548070862
 10
-18.9428332777
 20
-1.2453237627
 10
-18.9479370847
 20
-1.2355013863
  0
LINE
  5
4AA
100
AcDbEntity
  8
IMPORT_IGES
100
AcDbLine
 62
7
  6
CONTINUOUS
 10
-43.0496481124
 20
-0.1573138158
 11
-42.2996481124
 21
-0.2229303134
  0
LINE
  5
4AB
100
AcDbEntity
  8
IMPORT_IGES
100
AcDbLine
 62
250
  6
CONTINUOUS
 10
-44.4645457788
 20
7.8426861842
 11
-44.5885374424
 21
7.9996131334
  0
LINE
  5
4AC
100
AcDbEntity
  8
IMPORT_IGES
100
AcDbLine
 62
7
  6
CONTINUOUS
 10
-42.514048996
 20
10.1194072959
 11
-42.500456767
 21
10.0868884685
  0
LINE
  5
4AD
100
AcDbEntity
  8
IMPORT_IGES
100
AcDbLine
 62
7
  6
CONTINUOUS
 10
-42.5517004836
 20
10.2109305197
 11
-42.514048996
 21
10.1194072959
  0
LWPOLYLINE
  5
4AE
100
AcDbEntity
  8
IMPORT_IGES
100
AcDbPolyline
 62
7
  6
CONTINUOUS
 90
4
 70
0
 10
-42.500456767
 20
10.0868884685
 10
-42.4704161424
 20
10.0133456918
 10
-42.4539690675
 20
9.9735310785
 10
-42.4365064891
 20
9.9326109342
  0
LWPOLYLINE
  5
4AF
100
AcDbEntity
  8
IMPORT_IGES
100
AcDbPolyline
 62
7
  6
CONTINUOUS
 90
3
 70
0
 10
-42.5601561697
 20
10.2321774294
 10
-42.559247446
 20
10.2298141417
 10
-42.5517004836
 20
10.2109305197
  0
LWPOLYLINE
  5
4B0
100
AcDbEntity
  8
IMPORT_IGES
100
AcDbPolyline
 62
7
  6
CONTINUOUS
 90
10
 70
0
 10
-36.5582267562
 20
11.8596782245
 10
-36.5582119806
 20
11.8575392891
 10
-36.5581647917
 20
11.8553884547
 10
-36.5580851893
 20
11.8532258817
 10
-36.5579731779
 20
11.8510513831
 10
-36.557828753
 20
11.8488654654
 10
-36.5576519017
 20
11.8466693466
 10
-36.5574426196
 20
11.8444635597
 10
-36.5572009111
 20
11.8422479348
 10
-36.5569267762
 20
11.840022652
  0
LINE
  5
4B1
100
AcDbEntity
  8
IMPORT_IGES
100
AcDbLine
 62
7
  6
CONTINUOUS
 10
-36.5582267562
 20
11.9852551231
 11
-36.5582267562
 21
11.8596782245
  0
LINE
  5
4B2
100
AcDbEntity
  8
IMPORT_IGES
100
AcDbLine
 62
250
  6
CONTINUOUS
 10
-36.5082267562
 20
11.6926861842
 11
-36.5082267392
 21
11.9346560267
  0
LWPOLYLINE
  5
4B3
100
AcDbEntity
  8
0
100
AcDbPolyline
 62
7
  6
CONTINUOUS
 90
4
 70
0
 43
0.3500000006
 10
-35.9085761719
 20
37.449829834
 10
-35.9085761719
 20
38.0926878204
 10
-34.4085757141
 20
38.0926878204
 10
-35.2657204514
 20
35.0926869049
  0
LWPOLYLINE
  5
4B4
100
AcDbEntity
  8
IMPORT_IGES
100
AcDbPolyline
 62
250
  6
CONTINUOUS
 90
10
 70
0
 10
-36.5582267547
 20
11.9852548049
 10
-36.5579661213
 20
11.9894748114
 10
-36.5571723834
 20
11.9937209557
 10
-36.5558341627
 20
11.9979196231
 10
-36.5539625882
 20
12.0020028228
 10
-36.5515874335
 20
12.0058919214
 10
-36.5487654986
 20
12.0095152955
 10
-36.5455759487
 20
12.0128102327
 10
-36.5420398723
 20
12.0157868552
 10
-36.538006271
 20
12.0185478077
  0
LINE
  5
4B5
100
AcDbEntity
  8
IMPORT_IGES
100
AcDbLine
 62
250
  6
CONTINUOUS
 10
-41.9496481124
 20
-6.6930510279
 11
-42.1112565514
 21
-6.9458013246
  0
LINE
  5
4B6
100
AcDbEntity
  8
IMPORT_IGES
100
AcDbLine
 62
250
  6
CONTINUOUS
 10
-26.5804132625
 20
12.0796133052
 11
-26.7609577692
 21
11.840022652
  0
LINE
  5
4B7
100
AcDbEntity
  8
IMPORT_IGES
100
AcDbLine
 62
250
  6
CONTINUOUS
 10
-24.836080922
 20
12.4609292766
 11
-24.9421469392
 21
12.3548632594
  0
LWPOLYLINE
  5
4B8
100
AcDbEntity
  8
RACCORDO
100
AcDbPolyline
 62
250
  6
CONTINUOUS
 90
11
 70
0
 10
-47.1452201356
 20
-6.6082015337
 10
-47.1649411123
 20
-6.6213742787
 10
-47.1863948857
 20
-6.6333836479
 10
-47.2095673976
 20
-6.6441887637
 10
-47.2340412466
 20
-6.6537388016
 10
-47.2599191446
 20
-6.6619968595
 10
-47.2870211097
 20
-6.668854746
 10
-47.3144984498
 20
-6.6742067375
 10
-47.3420338183
 20
-6.6780490987
 10
-47.3698492252
 20
-6.6804273787
 10
-47.3979008741
 20
-6.6813748181
  0
LINE
  5
4B9
100
AcDbEntity
  8
IMPORT_IGES
100
AcDbLine
 62
250
  6
CONTINUOUS
 10
-23.2765376964
 20
6.2527624868
 11
-23.6410192142
 21
6.0879801359
  0
LINE
  5
4BA
100
AcDbEntity
  8
IMPORT_IGES
100
AcDbLine
 62
250
  6
CONTINUOUS
 10
-18.1746481124
 20
3.102955101
 11
-18.1399317541
 21
3.105835322
  0
LWPOLYLINE
  5
4BB
100
AcDbEntity
  8
IMPORT_IGES
100
AcDbPolyline
 62
250
  6
CONTINUOUS
 90
10
 70
0
 10
-18.4746481124
 20
3.8636339543
 10
-18.5093777479
 20
3.8618903927
 10
-18.5430521411
 20
3.8567126852
 10
-18.5746481124
 20
3.8482581537
 10
-18.6032056343
 20
3.836783685
 10
-18.627857001
 20
3.822637925
 10
-18.6478531932
 20
3.8062506854
 10
-18.6625866366
 20
3.7881198842
 10
-18.671609663
 20
3.7687964166
 10
-18.6746481124
 20
3.7488674165
  0
LWPOLYLINE
  5
4BC
100
AcDbEntity
  8
IMPORT_IGES
100
AcDbPolyline
 62
250
  6
CONTINUOUS
 90
9
 70
0
 10
-18.7746481124
 20
3.4682677493
 10
-18.7572832946
 20
3.4686233918
 10
-18.7404460981
 20
3.4696795135
 10
-18.7246481124
 20
3.4714040246
 10
-18.7103693514
 20
3.4737445268
 10
-18.6980436681
 20
3.4766299049
 10
-18.688045572
 20
3.4799724883
 10
-18.6806788503
 20
3.4836707143
 10
-18.6761673371
 20
3.4876122142
  0
LINE
  5
4BD
100
AcDbEntity
  8
RACCORDO
100
AcDbLine
 62
7
  6
CONTINUOUS
 10
-45.7996481138
 20
1.7325729225
 11
-47.1996481138
 21
1.7203553075
  0
LINE
  5
4BE
100
AcDbEntity
  8
0
100
AcDbLine
 62
7
  6
CONTINUOUS
 10
-43.0496481124
 20
1.7426861842
 11
-42.8996481124
 21
1.7426861842
  0
LINE
  5
4BF
100
AcDbEntity
  8
IMPORT_IGES
100
AcDbLine
 62
7
  6
CONTINUOUS
 10
-25.6496481124
 20
1.7976861842
 11
-25.7896481124
 21
1.7976861842
  0
LINE
  5
4C0
100
AcDbEntity
  8
IMPORT_IGES
100
AcDbLine
 62
7
  6
CONTINUOUS
 10
-25.9896481124
 20
1.9976861842
 11
-40.4996481124
 21
1.9976861842
  0
LINE
  5
4C1
100
AcDbEntity
  8
IMPORT_IGES
100
AcDbLine
 62
7
  6
CONTINUOUS
 10
-25.9496481124
 20
2.0976861842
 11
-40.4996481124
 21
2.0976861842
  0
LINE
  5
4C2
100
AcDbEntity
  8
0
100
AcDbLine
 62
7
  6
CONTINUOUS
 10
-42.8996481124
 20
2.2426861842
 11
-43.0496481124
 21
2.2426861842
  0
LINE
  5
4C3
100
AcDbEntity
  8
IMPORT_IGES
100
AcDbLine
 62
250
  6
CONTINUOUS
 10
-22.0996481124
 20
2.3137681674
 11
-21.7996481124
 21
2.3137681673
  0
LINE
  5
4C4
100
AcDbEntity
  8
IMPORT_IGES
100
AcDbLine
 62
7
  6
CONTINUOUS
 10
-18.1746481124
 20
3.0926861842
 11
-21.7996481124
 21
3.0926861842
  0
LINE
  5
4C5
100
AcDbEntity
  8
IMPORT_IGES
100
AcDbLine
 62
250
  6
CONTINUOUS
 10
-18.1746481124
 20
3.102955101
 11
-18.5373297462
 21
3.1029548842
  0
LINE
  5
4C6
100
AcDbEntity
  8
RACCORDO
100
AcDbLine
 62
7
  6
CONTINUOUS
 10
-45.7996481138
 20
2.552799446
 11
-47.1996481138
 21
2.5650170609
  0
LINE
  5
4C7
100
AcDbEntity
  8
IMPORT_IGES
100
AcDbLine
 62
7
  6
CONTINUOUS
 10
-42.2996481124
 20
5.6186656529
 11
-40.5496481124
 21
4.6083026819
  0
LINE
  5
4C8
100
AcDbEntity
  8
IMPORT_IGES
100
AcDbLine
 62
7
  6
CONTINUOUS
 10
-42.1050736296
 20
5.5401153546
 11
-40.9138695671
 21
4.8185860367
  0
LINE
  5
4C9
100
AcDbEntity
  8
IMPORT_IGES
100
AcDbLine
 62
7
  6
CONTINUOUS
 10
-40.5496481124
 20
4.5979718985
 11
-40.4996481124
 21
4.5676861842
  0
LINE
  5
4CA
100
AcDbEntity
  8
IMPORT_IGES
100
AcDbLine
 62
250
  6
CONTINUOUS
 10
-40.1996481124
 20
4.7367140853
 11
-41.9496481124
 21
5.7967140853
  0
LINE
  5
4CB
100
AcDbEntity
  8
IMPORT_IGES
100
AcDbLine
 62
250
  6
CONTINUOUS
 10
-26.9446228592
 20
-8.6194458501
 11
-26.8032015028
 21
-8.7608672062
  0
LINE
  5
4CC
100
AcDbEntity
  8
IMPORT_IGES
100
AcDbLine
 62
250
  6
CONTINUOUS
 10
-26.2527081891
 20
-7.7861098237
 11
-26.0405761549
 21
-7.9982418583
  0
LINE
  5
4CD
100
AcDbEntity
  8
IMPORT_IGES
100
AcDbLine
 62
7
  6
CONTINUOUS
 10
-34.6481437731
 20
-8.9073138158
 11
-34.6481437731
 21
-9.1073138158
  0
LINE
  5
4CE
100
AcDbEntity
  8
IMPORT_IGES
100
AcDbLine
 62
250
  6
CONTINUOUS
 10
-34.5458530826
 20
-8.9073138158
 11
-34.5458530528
 21
-9.1073138158
  0
LINE
  5
4CF
100
AcDbEntity
  8
IMPORT_IGES
100
AcDbLine
 62
7
  6
CONTINUOUS
 10
-33.6481437731
 20
13.1926861842
 11
-33.6481437731
 21
12.9926861842
  0
LINE
  5
4D0
100
AcDbEntity
  8
IMPORT_IGES
100
AcDbLine
 62
7
  6
CONTINUOUS
 10
-33.6124281124
 20
12.9926861842
 11
-33.6124281124
 21
13.1926861842
  0
LINE
  5
4D1
100
AcDbEntity
  8
IMPORT_IGES
100
AcDbLine
 62
250
  6
CONTINUOUS
 10
-40.4017484507
 20
-8.0388601205
 11
-40.240140012
 21
-7.7861098237
  0
LINE
  5
4D2
100
AcDbEntity
  8
IMPORT_IGES
100
AcDbLine
 62
250
  6
CONTINUOUS
 10
-23.4295337252
 20
6.7941146443
 11
-23.8263491119
 21
6.7437405549
  0
LINE
  5
4D3
100
AcDbEntity
  8
IMPORT_IGES
100
AcDbLine
 62
7
  6
CONTINUOUS
 10
-42.2996481124
 20
4.6083026819
 11
-43.0496481124
 21
4.5426861842
  0
LINE
  5
4D4
100
AcDbEntity
  8
IMPORT_IGES
100
AcDbLine
 62
7
  6
CONTINUOUS
 10
-42.8996481124
 20
4.4833679635
 11
-41.7496481124
 21
4.5034412881
  0
LINE
  5
4D5
100
AcDbEntity
  8
IMPORT_IGES
100
AcDbLine
 62
250
  6
CONTINUOUS
 10
-21.7996481124
 20
3.317819959
 11
-21.9496481124
 21
3.317819959
  0
LINE
  5
4D6
100
AcDbEntity
  8
IMPORT_IGES
100
AcDbLine
 62
250
  6
CONTINUOUS
 10
-18.7746480926
 20
3.4038869699
 11
-21.7996481124
 21
3.4038869699
  0
LINE
  5
4D7
100
AcDbEntity
  8
IMPORT_IGES
100
AcDbLine
 62
250
  6
CONTINUOUS
 10
-18.1746481124
 20
3.4068875227
 11
-18.4746481124
 21
3.4068875226
  0
LINE
  5
4D8
100
AcDbEntity
  8
IMPORT_IGES
100
AcDbLine
 62
250
  6
CONTINUOUS
 10
-21.7996481124
 20
3.4682675599
 11
-18.7746481124
 21
3.4682673315
  0
LINE
  5
4D9
100
AcDbEntity
  8
IMPORT_IGES
100
AcDbLine
 62
250
  6
CONTINUOUS
 10
-18.1746481124
 20
3.8636339543
 11
-18.4746481124
 21
3.8636339545
  0
LINE
  5
4DA
100
AcDbEntity
  8
IMPORT_IGES
100
AcDbLine
 62
7
  6
CONTINUOUS
 10
-42.2996481124
 20
4.6083026819
 11
-41.7496481124
 21
4.6083026819
  0
LINE
  5
4DB
100
AcDbEntity
  8
IMPORT_IGES
100
AcDbLine
 62
250
  6
CONTINUOUS
 10
-18.7746481124
 20
4.6102006947
 11
-21.7996481124
 21
4.6102006947
  0
LWPOLYLINE
  5
4DC
100
AcDbEntity
  8
IMPORT_IGES
100
AcDbPolyline
 62
250
  6
CONTINUOUS
 90
10
 70
0
 10
-21.9111400504
 20
3.1642542608
 10
-21.8908335437
 20
3.1634160723
 10
-21.8713384133
 20
3.1622095581
 10
-21.8533437357
 20
3.1606572097
 10
-21.8376375822
 20
3.1588288265
 10
-21.8244641655
 20
3.1567729064
 10
-21.8137740588
 20
3.1544816846
 10
-21.8058946865
 20
3.1519959478
 10
-21.8011847838
 20
3.1494250953
 10
-21.7996480806
 20
3.146854849
  0
LWPOLYLINE
  5
4DD
100
AcDbEntity
  8
IMPORT_IGES
100
AcDbPolyline
 62
250
  6
CONTINUOUS
 90
10
 70
0
 10
-18.4746481124
 20
3.1640990336
 10
-18.5093777479
 20
3.1669814751
 10
-18.5430521411
 20
3.175541218
 10
-18.5746481124
 20
3.1895181789
 10
-18.6032056343
 20
3.2084876748
 10
-18.627857001
 20
3.2318733272
 10
-18.6478531932
 20
3.2589645752
 10
-18.6625866366
 20
3.2889382651
 10
-18.671609663
 20
3.3208836613
 10
-18.6746481124
 20
3.3538301192
  0
LWPOLYLINE
  5
4DE
100
AcDbEntity
  8
IMPORT_IGES
100
AcDbPolyline
 62
250
  6
CONTINUOUS
 90
10
 70
0
 10
-18.4746481124
 20
3.4068875228
 10
-18.5093777479
 20
3.4097699643
 10
-18.5430521411
 20
3.4183297072
 10
-18.5746481124
 20
3.4323066681
 10
-18.6032056343
 20
3.451276164
 10
-18.627857001
 20
3.4746618165
 10
-18.6478531932
 20
3.5017530644
 10
-18.6625866366
 20
3.5317267537
 10
-18.671609663
 20
3.5636721491
 10
-18.6746481124
 20
3.596618606
  0
LWPOLYLINE
  5
4DF
100
AcDbEntity
  8
IMPORT_IGES
100
AcDbPolyline
 62
250
  6
CONTINUOUS
 90
5
 70
0
 10
-18.5373293478
 20
3.0926861843
 10
-18.5641527032
 20
3.095269799
 10
-18.5910933217
 20
3.1030624309
 10
-18.6170081568
 20
3.1159433637
 10
-18.6404729987
 20
3.1334955492
  0
LINE
  5
4E0
100
AcDbEntity
  8
IMPORT_IGES
100
AcDbLine
 62
250
  6
CONTINUOUS
 10
-42.1617801468
 20
10.6305541499
 11
-41.9496481124
 21
10.4184221155
  0
LWPOLYLINE
  5
4E1
100
AcDbEntity
  8
IMPORT_IGES
100
AcDbPolyline
 62
250
  6
CONTINUOUS
 90
3
 70
0
 10
-36.5082267392
 20
11.9346561643
 10
-36.5116235753
 20
11.9469375237
 10
-36.5151465429
 20
11.9587575853
  0
LINE
  5
4E2
100
AcDbEntity
  8
IMPORT_IGES
100
AcDbLine
 62
7
  6
CONTINUOUS
 10
-33.0307188395
 20
-9.1073138158
 11
-33.0307188395
 21
-8.9073138158
  0
LINE
  5
4E3
100
AcDbEntity
  8
IMPORT_IGES
100
AcDbLine
 62
7
  6
CONTINUOUS
 10
-33.0129554612
 20
-9.1073138158
 11
-33.0129554314
 21
-8.9073138158
  0
LINE
  5
4E4
100
AcDbEntity
  8
IMPORT_IGES
100
AcDbLine
 62
250
  6
CONTINUOUS
 10
-32.4246619283
 20
-9.1073138158
 11
-32.4246619283
 21
-8.9073138158
  0
LINE
  5
4E5
100
AcDbEntity
  8
IMPORT_IGES
100
AcDbLine
 62
7
  6
CONTINUOUS
 10
-31.6127886591
 20
-9.1073138158
 11
-31.6127886591
 21
-8.9073138158
  0
LINE
  5
4E6
100
AcDbEntity
  8
IMPORT_IGES
100
AcDbLine
 62
250
  6
CONTINUOUS
 10
-24.2987282909
 20
9.9845996563
 11
-24.0580022816
 21
10.3040538603
  0
LINE
  5
4E7
100
AcDbEntity
  8
IMPORT_IGES
100
AcDbLine
 62
250
  6
CONTINUOUS
 10
-22.0925413314
 20
9.7173896859
 11
-22.1986073484
 21
9.6113236686
  0
LWPOLYLINE
  5
4E8
100
AcDbEntity
  8
IMPORT_IGES
100
AcDbPolyline
 62
250
  6
CONTINUOUS
 90
10
 70
0
 10
-40.240140012
 20
-7.9982418581
 10
-40.2609529216
 20
-8.0133793109
 10
-40.2815425455
 20
-8.0260785633
 10
-40.3016879932
 20
-8.0362033747
 10
-40.3211731398
 20
-8.0436451237
 10
-40.3397889439
 20
-8.0483239735
 10
-40.3573356909
 20
-8.0501897284
 10
-40.3736251351
 20
-8.049222372
 10
-40.3884825195
 20
-8.0454322824
 10
-40.4017484507
 20
-8.0388601206
  0
LWPOLYLINE
  5
4E9
100
AcDbEntity
  8
IMPORT_IGES
100
AcDbPolyline
 62
250
  6
CONTINUOUS
 90
6
 70
0
 10
-18.5373297462
 20
3.1029548842
 10
-18.5246161368
 20
3.1088668234
 10
-18.5132954013
 20
3.1150318269
 10
-18.5033675397
 20
3.1214498945
 10
-18.4947733895
 20
3.1281644936
 10
-18.4875721132
 20
3.1351321568
  0
LINE
  5
4EA
100
AcDbEntity
  8
IMPORT_IGES
100
AcDbLine
 62
250
  6
CONTINUOUS
 10
-22.2499537183
 20
3.0110871283
 11
-21.9111415942
 21
3.1642601046
  0
LWPOLYLINE
  5
4EB
100
AcDbEntity
  8
IMPORT_IGES
100
AcDbPolyline
 62
250
  6
CONTINUOUS
 90
9
 70
0
 10
-18.7264064746
 20
3.4000838153
 10
-18.716381159
 20
3.4039602465
 10
-18.7071744409
 20
3.4085366368
 10
-18.6989156665
 20
3.413748692
 10
-18.6917208638
 20
3.4195231876
 10
-18.6856911134
 20
3.4257789971
 10
-18.6809111277
 20
3.4324282322
 10
-18.6774480612
 20
3.4393774771
 10
-18.6753505668
 20
3.4465291012
  0
LINE
  5
4EC
100
AcDbEntity
  8
RACCORDO
100
AcDbLine
 62
250
  6
CONTINUOUS
 10
-48.1996481138
 20
-8.9090837354
 11
-47.5783496013
 21
-8.6829495703
  0
LINE
  5
4ED
100
AcDbEntity
  8
RACCORDO
100
AcDbLine
 62
7
  6
CONTINUOUS
 10
-48.1996481138
 20
-9.1212840501
 11
-46.9810117347
 21
-8.6777366817
  0
LINE
  5
4EE
100
AcDbEntity
  8
IMPORT_IGES
100
AcDbLine
 62
7
  6
CONTINUOUS
 10
-21.7996481124
 20
5.6472748224
 11
-18.7746481124
 21
5.6472748224
  0
LINE
  5
4EF
100
AcDbEntity
  8
IMPORT_IGES
100
AcDbLine
 62
250
  6
CONTINUOUS
 10
-42.2496481124
 20
5.7967140853
 11
-41.9496481124
 21
5.7967140853
  0
LINE
  5
4F0
100
AcDbEntity
  8
IMPORT_IGES
100
AcDbLine
 62
7
  6
CONTINUOUS
 10
-18.4746481124
 20
6.4899755518
 11
-18.1746481124
 21
6.4899755518
  0
LINE
  5
4F1
100
AcDbEntity
  8
IMPORT_IGES
100
AcDbLine
 62
250
  6
CONTINUOUS
 10
-45.5996481124
 20
6.9458152046
 11
-45.7996481124
 21
6.9458152046
  0
LWPOLYLINE
  5
4F2
100
AcDbEntity
  8
IMPORT_IGES
100
AcDbPolyline
 62
250
  6
CONTINUOUS
 90
13
 70
0
 10
-18.62992396
 20
3.0926812395
 10
-18.649605731
 20
3.0956644772
 10
-18.6694199081
 20
3.104984742
 10
-18.6883011846
 20
3.1206964937
 10
-18.7049255891
 20
3.141691655
 10
-18.7188406637
 20
3.166893974
 10
-18.7301813249
 20
3.1964439583
 10
-18.7383475616
 20
3.2290414203
 10
-18.7430341451
 20
3.263103541
 10
-18.744236368
 20
3.298905066
 10
-18.7416775923
 20
3.3352003453
 10
-18.7355338385
 20
3.3694402626
 10
-18.7264035051
 20
3.4000815897
  0
LWPOLYLINE
  5
4F3
100
AcDbEntity
  8
IMPORT_IGES
100
AcDbPolyline
 62
250
  6
CONTINUOUS
 90
10
 70
0
 10
-18.7264064746
 20
3.4000838153
 10
-18.7313813207
 20
3.4008809616
 10
-18.7364910385
 20
3.4016173055
 10
-18.7417195902
 20
3.4022672315
 10
-18.7470506131
 20
3.402789144
 10
-18.7524673592
 20
3.4031828724
 10
-18.7579527416
 20
3.4034922075
 10
-18.7634895429
 20
3.4037267414
 10
-18.7690604739
 20
3.4038596239
 10
-18.7746481124
 20
3.4038864442
  0
LWPOLYLINE
  5
4F4
100
AcDbEntity
  8
IMPORT_IGES
100
AcDbPolyline
 62
250
  6
CONTINUOUS
 90
5
 70
0
 10
-18.9853693523
 20
-1.212818047
 10
-18.9996481131
 20
-1.2071972018
 10
-19.0154460986
 20
-1.203055693
 10
-19.0322832949
 20
-1.2005193583
 10
-19.0496481124
 20
-1.199665263
  0
LWPOLYLINE
  5
4F5
100
AcDbEntity
  8
RACCORDO
100
AcDbPolyline
 62
250
  6
CONTINUOUS
 90
9
 70
0
 10
-47.14563178
 20
14.4938707916
 10
-47.1276054401
 20
14.4796373307
 10
-47.1118608751
 20
14.4645652156
 10
-47.0985301858
 20
14.4488060798
 10
-47.0875153044
 20
14.4324668277
 10
-47.0789477342
 20
14.4157231406
 10
-47.0728704969
 20
14.3987255934
 10
-47.0692424053
 20
14.3815936268
 10
-47.0680587365
 20
14.364458035
  0
LINE
  5
4F6
100
AcDbEntity
  8
IMPORT_IGES
100
AcDbLine
 62
250
  6
CONTINUOUS
 10
-24.3082267562
 20
-5.8416283908
 11
-24.0960947218
 21
-6.0537604252
  0
LINE
  5
4F7
100
AcDbEntity
  8
IMPORT_IGES
100
AcDbLine
 62
250
  6
CONTINUOUS
 10
-40.6753840437
 20
11.6926861842
 11
-40.8875160781
 21
11.9048182186
  0
LINE
  5
4F8
100
AcDbEntity
  8
IMPORT_IGES
100
AcDbLine
 62
7
  6
CONTINUOUS
 10
-37.7774159016
 20
11.9926861842
 11
-37.9281416099
 21
12.263994758
  0
LINE
  5
4F9
100
AcDbEntity
  8
IMPORT_IGES
100
AcDbLine
 62
250
  6
CONTINUOUS
 10
-36.5351952162
 20
12.0131440235
 11
-36.5380048026
 21
12.0185488149
  0
LWPOLYLINE
  5
4FA
100
AcDbEntity
  8
IMPORT_IGES
100
AcDbPolyline
 62
7
  6
CONTINUOUS
 90
9
 70
0
 10
-36.5082267562
 20
11.6926861842
 10
-36.5231704448
 20
11.7298127481
 10
-36.5300947388
 20
11.747424325
 10
-36.5364140341
 20
11.7643920714
 10
-36.542067536
 20
11.7807253478
 10
-36.547070076
 20
11.7964522359
 10
-36.5513167379
 20
11.8115820963
 10
-36.5546390874
 20
11.8261055683
 10
-36.5569267762
 20
11.840022652
  0
LWPOLYLINE
  5
4FB
100
AcDbEntity
  8
IMPORT_IGES
100
AcDbPolyline
 62
250
  6
CONTINUOUS
 90
7
 70
0
 10
-36.5151465429
 20
11.9587575853
 10
-36.5187143222
 20
11.9699852441
 10
-36.5221881144
 20
11.980546708
 10
-36.5255446304
 20
11.9902987159
 10
-36.528868064
 20
11.9990291904
 10
-36.5321280455
 20
12.0066380646
 10
-36.5351952162
 20
12.0131440235
  0
LINE
  5
4FC
100
AcDbEntity
  8
IMPORT_IGES
100
AcDbLine
 62
7
  6
CONTINUOUS
 10
-30.6127891124
 20
13.1926861842
 11
-30.6127891124
 21
12.9926861842
  0
LINE
  5
4FD
100
AcDbEntity
  8
IMPORT_IGES
100
AcDbLine
 62
250
  6
CONTINUOUS
 10
-24.2206836022
 20
9.850059599
 11
-23.8238682155
 21
9.9004336884
  0
LINE
  5
4FE
100
AcDbEntity
  8
IMPORT_IGES
100
AcDbLine
 62
250
  6
CONTINUOUS
 10
-42.2996481124
 20
7.8426861842
 11
-44.4645457788
 21
7.8426861842
  0
LINE
  5
4FF
100
AcDbEntity
  8
IMPORT_IGES
100
AcDbLine
 62
7
  6
CONTINUOUS
 10
-42.2996481124
 20
8.0426861842
 11
-44.4645457788
 21
8.0426861842
  0
LINE
  5
500
100
AcDbEntity
  8
IMPORT_IGES
100
AcDbLine
 62
250
  6
CONTINUOUS
 10
-21.9496481124
 20
9.0102829046
 11
-21.7996481124
 21
9.0102829046
  0
LINE
  5
501
100
AcDbEntity
  8
IMPORT_IGES
100
AcDbLine
 62
250
  6
CONTINUOUS
 10
-18.5603714232
 20
3.1106189223
 11
-18.5373293478
 21
3.1029542336
  0
LWPOLYLINE
  5
502
100
AcDbEntity
  8
IMPORT_IGES
100
AcDbPolyline
 62
250
  6
CONTINUOUS
 90
8
 70
0
 10
-36.5380048026
 20
12.0185488149
 10
-36.5396768262
 20
12.0215076266
 10
-36.541095799
 20
12.0242929276
 10
-36.5422561595
 20
12.0268763346
 10
-36.5431580584
 20
12.0292210345
 10
-36.54379797
 20
12.0313184349
 10
-36.5441677923
 20
12.0331776925
 10
-36.5442683279
 20
12.0347823602
  0
LINE
  5
503
100
AcDbEntity
  8
IMPORT_IGES
100
AcDbLine
 62
250
  6
CONTINUOUS
 10
-27.8371240723
 20
12.9524941593
 11
-27.8268653909
 21
12.5184092183
  0
LINE
  5
504
100
AcDbEntity
  8
IMPORT_IGES
100
AcDbLine
 62
7
  6
CONTINUOUS
 10
-27.6770531325
 20
12.3982217041
 11
-27.6876408747
 21
12.846230131
  0
LINE
  5
505
100
AcDbEntity
  8
IMPORT_IGES
100
AcDbLine
 62
7
  6
CONTINUOUS
 10
-27.8371240723
 20
12.9524938053
 11
-27.8375990037
 21
12.9926861842
  0
LINE
  5
506
100
AcDbEntity
  8
IMPORT_IGES
100
AcDbLine
 62
250
  6
CONTINUOUS
 10
-27.5074344349
 20
-8.9073138158
 11
-27.5074345433
 21
-8.7073138158
  0
LINE
  5
507
100
AcDbEntity
  8
IMPORT_IGES
100
AcDbLine
 62
250
  6
CONTINUOUS
 10
-27.4996947282
 20
-8.2689525362
 11
-27.4996947218
 21
-8.32753118
  0
LINE
  5
508
100
AcDbEntity
  8
IMPORT_IGES
100
AcDbLine
 62
250
  6
CONTINUOUS
 10
-27.4719921014
 20
12.3163366241
 11
-27.4719921014
 21
12.3364327496
  0
LINE
  5
509
100
AcDbEntity
  8
IMPORT_IGES
100
AcDbLine
 62
250
  6
CONTINUOUS
 10
-27.9074410984
 20
-8.9073138158
 11
-27.9072495779
 21
-8.8194458501
  0
LINE
  5
50A
100
AcDbEntity
  8
IMPORT_IGES
100
AcDbLine
 62
7
  6
CONTINUOUS
 10
-27.7059441842
 20
-8.5296437579
 11
-27.7059381588
 21
-8.5290914595
  0
LWPOLYLINE
  5
50B
100
AcDbEntity
  8
IMPORT_IGES
100
AcDbPolyline
 62
250
  6
CONTINUOUS
 90
10
 70
0
 10
-27.9072495779
 20
-8.8194458501
 10
-27.9069570109
 20
-8.8027243529
 10
-27.9067375856
 20
-8.78600286
 10
-27.9065913021
 20
-8.7692813717
 10
-27.9065669215
 20
-8.7525598877
 10
-27.9066156827
 20
-8.7358384083
 10
-27.9065913021
 20
-8.7191169333
 10
-27.9064450186
 20
-8.7023954628
 10
-27.9062255934
 20
-8.6856739967
 10
-27.9059330264
 20
-8.6689525351
  0
LWPOLYLINE
  5
50C
100
AcDbEntity
  8
IMPORT_IGES
100
AcDbPolyline
 62
7
  6
CONTINUOUS
 90
23
 70
0
 10
-27.7059397468
 20
-8.5290951811
 10
-27.7054636768
 20
-8.5178301197
 10
-27.7039898988
 20
-8.5039680337
 10
-27.7015542264
 20
-8.4902832497
 10
-27.6982572308
 20
-8.4771117656
 10
-27.6941633945
 20
-8.4644401056
 10
-27.689247238
 20
-8.4520739829
 10
-27.6835985224
 20
-8.440181503
 10
-27.6772750683
 20
-8.4288070328
 10
-27.6702395634
 20
-8.4178488774
 10
-27.6624705006
 20
-8.4072865123
 10
-27.6540239035
 20
-8.3972032542
 10
-27.644868182
 20
-8.3875796333
 10
-27.63481986
 20
-8.3783014233
 10
-27.6239308679
 20
-8.3695107871
 10
-27.6121807347
 20
-8.3612608044
 10
-27.5992274184
 20
-8.3534574259
 10
-27.5851731427
 20
-8.3463572243
 10
-27.5700493433
 20
-8.340123146
 10
-27.5536347927
 20
-8.3348532005
 10
-27.5359830777
 20
-8.3308242987
 10
-27.5176048855
 20
-8.3283361029
 10
-27.4996949832
 20
-8.3275050804
  0
LINE
  5
50D
100
AcDbEntity
  8
IMPORT_IGES
100
AcDbLine
 62
250
  6
CONTINUOUS
 10
-27.4774953694
 20
12.9883162513
 11
-27.4874057486
 21
12.8386439947
  0
LINE
  5
50E
100
AcDbEntity
  8
IMPORT_IGES
100
AcDbLine
 62
250
  6
CONTINUOUS
 10
-27.3910151519
 20
12.8297234103
 11
-27.3732892939
 21
12.9786723746
  0
LWPOLYLINE
  5
50F
100
AcDbEntity
  8
IMPORT_IGES
100
AcDbPolyline
 62
250
  6
CONTINUOUS
 90
7
 70
0
 10
-23.8696481124
 20
-1.2541077051
 10
-23.8876541145
 20
-1.2656505723
 10
-23.9094557335
 20
-1.2839940002
 10
-23.9268119722
 20
-1.3037803162
 10
-23.9394258603
 20
-1.324670971
 10
-23.9470815708
 20
-1.3463085195
 10
-23.9496481124
 20
-1.3683227375
  0
LINE
  5
510
100
AcDbEntity
  8
RACCORDO
100
AcDbLine
 62
7
  6
CONTINUOUS
 10
-45.7996481138
 20
9.4325729225
 11
-47.1996481138
 21
9.4203553075
  0
LINE
  5
511
100
AcDbEntity
  8
IMPORT_IGES
100
AcDbLine
 62
250
  6
CONTINUOUS
 10
-45.7996481138
 20
9.9208713076
 11
-42.4365064891
 21
9.9326109342
  0
LINE
  5
512
100
AcDbEntity
  8
IMPORT_IGES
100
AcDbLine
 62
7
  6
CONTINUOUS
 10
-42.5601568129
 20
10.2321774837
 11
-45.7995366581
 21
10.220869869
  0
LINE
  5
513
100
AcDbEntity
  8
IMPORT_IGES
100
AcDbLine
 62
250
  6
CONTINUOUS
 10
-41.9496481124
 20
10.4184221155
 11
-42.2496481124
 21
10.4184221155
  0
LINE
  5
514
100
AcDbEntity
  8
RACCORDO
100
AcDbLine
 62
7
  6
CONTINUOUS
 10
-45.7996481138
 20
10.252799446
 11
-47.1996481138
 21
10.2650170609
  0
LINE
  5
515
100
AcDbEntity
  8
IMPORT_IGES
100
AcDbLine
 62
7
  6
CONTINUOUS
 10
-23.9496481124
 20
-0.0423138158
 11
-25.9896481124
 21
1.9976861842
  0
LINE
  5
516
100
AcDbEntity
  8
IMPORT_IGES
100
AcDbLine
 62
7
  6
CONTINUOUS
 10
-23.8696481124
 20
0.0176861842
 11
-25.9496481124
 21
2.0976861842
  0
LINE
  5
517
100
AcDbEntity
  8
IMPORT_IGES
100
AcDbLine
 62
7
  6
CONTINUOUS
 10
-23.9496481124
 20
-2.8528138158
 11
-23.8696481124
 21
-2.9549099383
  0
LINE
  5
518
100
AcDbEntity
  8
IMPORT_IGES
100
AcDbLine
 62
7
  6
CONTINUOUS
 10
-22.7996481124
 20
-6.2028104285
 11
-23.8696481124
 21
-4.4313818571
  0
LINE
  5
519
100
AcDbEntity
  8
IMPORT_IGES
100
AcDbLine
 62
250
  6
CONTINUOUS
 10
-27.6785681535
 20
12.408838007
 11
-27.6769071568
 21
12.3920449032
  0
LWPOLYLINE
  5
51A
100
AcDbEntity
  8
IMPORT_IGES
100
AcDbPolyline
 62
250
  6
CONTINUOUS
 90
5
 70
0
 10
-27.6871659433
 20
12.8261339415
 10
-27.6887715571
 20
12.8426066015
 10
-27.6927692181
 20
12.8587143211
 10
-27.6990764411
 20
12.874200719
 10
-27.7075301872
 20
12.8887568113
  0
LINE
  5
51B
100
AcDbEntity
  8
IMPORT_IGES
100
AcDbLine
 62
250
  6
CONTINUOUS
 10
-27.4755350589
 20
12.3363490831
 11
-27.4874057486
 21
12.8386439947
  0
LINE
  5
51C
100
AcDbEntity
  8
IMPORT_IGES
100
AcDbLine
 62
250
  6
CONTINUOUS
 10
-27.1567548936
 20
-8.7073138442
 11
-27.1567548938
 21
-8.9073138158
  0
LINE
  5
51D
100
AcDbEntity
  8
IMPORT_IGES
100
AcDbLine
 62
250
  6
CONTINUOUS
 10
-27.0482809574
 20
12.3364327476
 11
-27.0482790776
 21
12.3163366238
  0
LINE
  5
51E
100
AcDbEntity
  8
IMPORT_IGES
100
AcDbLine
 62
250
  6
CONTINUOUS
 10
-26.7609577692
 20
11.840022652
 11
-26.7609577688
 21
12.0998302732
  0
LINE
  5
51F
100
AcDbEntity
  8
IMPORT_IGES
100
AcDbLine
 62
250
  6
CONTINUOUS
 10
-26.2527081891
 20
-7.9982418561
 11
-26.2527081891
 21
-7.7861098237
  0
LINE
  5
520
100
AcDbEntity
  8
IMPORT_IGES
100
AcDbLine
 62
250
  6
CONTINUOUS
 10
-26.5234188661
 20
-8.2689525362
 11
-26.5234626742
 21
-8.32753118
  0
LWPOLYLINE
  5
521
100
AcDbEntity
  8
IMPORT_IGES
100
AcDbPolyline
 62
250
  6
CONTINUOUS
 90
5
 70
0
 10
-27.7072543579
 20
-8.6794106627
 10
-27.7089855004
 20
-8.697291497
 10
-27.7140070899
 20
-8.7151390954
 10
-27.7222975595
 20
-8.7324797241
 10
-27.7334804248
 20
-8.7486394809
  0
LWPOLYLINE
  5
522
100
AcDbEntity
  8
IMPORT_IGES
100
AcDbPolyline
 62
250
  6
CONTINUOUS
 90
13
 70
0
 10
-27.7059457818
 20
-8.5296444341
 10
-27.7076763527
 20
-8.547173177
 10
-27.7126317242
 20
-8.5648300508
 10
-27.7208591512
 20
-8.5821078715
 10
-27.7320193243
 20
-8.5982809036
 10
-27.7458156407
 20
-8.6131175571
 10
-27.7624850289
 20
-8.6268360161
 10
-27.7818510988
 20
-8.6391032305
 10
-27.8033642507
 20
-8.6494852205
 10
-27.8270686363
 20
-8.6579159727
 10
-27.8526242779
 20
-8.6641248531
 10
-27.8791576511
 20
-8.6678286376
 10
-27.9059330262
 20
-8.6689608222
  0
LWPOLYLINE
  5
523
100
AcDbEntity
  8
IMPORT_IGES
100
AcDbPolyline
 62
250
  6
CONTINUOUS
 90
14
 70
0
 10
-27.9059330264
 20
-8.6689525351
 10
-27.9009740264
 20
-8.6193945163
 10
-27.89221076
 20
-8.5733529866
 10
-27.8796432272
 20
-8.5308279462
 10
-27.8631663593
 20
-8.4922097039
 10
-27.8428852249
 20
-8.4571079507
 10
-27.8191150304
 20
-8.4243517602
 10
-27.791586761
 20
-8.3931504102
 10
-27.7605694316
 20
-8.3642946228
 10
-27.7271852929
 20
-8.3389856374
 10
-27.6910575856
 20
-8.3174410716
 10
-27.6525630692
 20
-8.2994433078
 10
-27.6139542723
 20
-8.2855407335
 10
-27.575982038
 20
-8.2759161447
  0
LINE
  5
524
100
AcDbEntity
  8
IMPORT_IGES
100
AcDbLine
 62
250
  6
CONTINUOUS
 10
-25.4250153168
 20
12.7468155906
 11
-25.4427411746
 21
12.5978666263
  0
LWPOLYLINE
  5
525
100
AcDbEntity
  8
IMPORT_IGES
100
AcDbPolyline
 62
250
  6
CONTINUOUS
 90
5
 70
0
 10
-27.8049632388
 20
-8.7999052156
 10
-27.8287404115
 20
-8.8083660785
 10
-27.8542974059
 20
-8.8145824454
 10
-27.8807234905
 20
-8.8182883033
 10
-27.9072495771
 20
-8.8194457604
  0
LWPOLYLINE
  5
526
100
AcDbEntity
  8
IMPORT_IGES
100
AcDbPolyline
 62
7
  6
CONTINUOUS
 90
6
 70
0
 10
-35.9051876541
 20
12.992685689
 10
-35.9145852361
 20
12.9922435589
 10
-35.924953664
 20
12.9907147263
 10
-35.9349283796
 20
12.9881657413
 10
-35.9443988339
 20
12.9846874443
 10
-35.9532046387
 20
12.9804212079
  0
LINE
  5
527
100
AcDbEntity
  8
IMPORT_IGES
100
AcDbLine
 62
250
  6
CONTINUOUS
 10
-40.6753840437
 20
11.6926861842
 11
-36.5082267562
 21
11.6926861842
  0
LINE
  5
528
100
AcDbEntity
  8
IMPORT_IGES
100
AcDbLine
 62
250
  6
CONTINUOUS
 10
-36.5569267762
 20
11.840022652
 11
-26.7609577692
 21
11.840022652
  0
LINE
  5
529
100
AcDbEntity
  8
IMPORT_IGES
100
AcDbLine
 62
7
  6
CONTINUOUS
 10
-47.1996481138
 20
11.9427151839
 11
-40.8407334046
 21
11.942715184
  0
LINE
  5
52A
100
AcDbEntity
  8
IMPORT_IGES
100
AcDbLine
 62
7
  6
CONTINUOUS
 10
-40.6753840437
 20
11.9926861842
 11
-36.557930618
 21
11.9926861842
  0
LINE
  5
52B
100
AcDbEntity
  8
IMPORT_IGES
100
AcDbLine
 62
250
  6
CONTINUOUS
 10
-26.7609577688
 20
12.0998302731
 11
-36.4412114108
 21
12.0998288512
  0
LINE
  5
52C
100
AcDbEntity
  8
IMPORT_IGES
100
AcDbLine
 62
250
  6
CONTINUOUS
 10
-27.4719921014
 20
12.3163366241
 11
-27.0482714009
 21
12.3163366241
  0
LINE
  5
52D
100
AcDbEntity
  8
IMPORT_IGES
100
AcDbLine
 62
7
  6
CONTINUOUS
 10
-27.4719921014
 20
12.3364328135
 11
-27.0482809574
 21
12.3364328135
  0
LINE
  5
52E
100
AcDbEntity
  8
IMPORT_IGES
100
AcDbLine
 62
250
  6
CONTINUOUS
 10
-27.8371240723
 20
12.9524941593
 11
-35.9225900756
 21
12.9524945132
  0
LINE
  5
52F
100
AcDbEntity
  8
IMPORT_IGES
100
AcDbLine
 62
7
  6
CONTINUOUS
 10
-27.6096882185
 20
12.9926861842
 11
-35.9051879888
 21
12.9926861842
  0
LINE
  5
530
100
AcDbEntity
  8
IMPORT_IGES
100
AcDbLine
 62
250
  6
CONTINUOUS
 10
-35.3124281124
 20
13.0926861842
 11
-34.6124281124
 21
13.0926861842
  0
LINE
  5
531
100
AcDbEntity
  8
IMPORT_IGES
100
AcDbLine
 62
250
  6
CONTINUOUS
 10
-29.6127891124
 20
13.0926861842
 11
-28.9127891124
 21
13.0926861842
  0
LINE
  5
532
100
AcDbEntity
  8
IMPORT_IGES
100
AcDbLine
 62
7
  6
CONTINUOUS
 10
-29.0127891124
 20
13.1926861842
 11
-29.5127891124
 21
13.1926861842
  0
LINE
  5
533
100
AcDbEntity
  8
IMPORT_IGES
100
AcDbLine
 62
7
  6
CONTINUOUS
 10
-30.6127891124
 20
13.1926861842
 11
-33.6488019698
 21
13.1926861842
  0
LINE
  5
534
100
AcDbEntity
  8
IMPORT_IGES
100
AcDbLine
 62
7
  6
CONTINUOUS
 10
-34.7124281124
 20
13.1926861842
 11
-35.2124281124
 21
13.1926861842
  0
LINE
  5
535
100
AcDbEntity
  8
0
100
AcDbLine
 62
7
  6
CONTINUOUS
 10
-39.5221584828
 20
13.2927151846
 11
-38.980858076
 21
13.2927151846
  0
LINE
  5
536
100
AcDbEntity
  8
IMPORT_IGES
100
AcDbLine
 62
7
  6
CONTINUOUS
 10
-39.676459656
 20
13.2927151846
 11
-47.1996481138
 21
13.2927151846
  0
LINE
  5
537
100
AcDbEntity
  8
0
100
AcDbLine
 62
7
  6
CONTINUOUS
 10
-46.8996481138
 20
13.3426861842
 11
-47.1996481138
 21
13.3426861842
  0
LINE
  5
538
100
AcDbEntity
  8
0
100
AcDbLine
 62
7
  6
CONTINUOUS
 10
-46.7703601067
 20
13.3927151846
 11
-46.6611878283
 21
13.3927151846
  0
LINE
  5
539
100
AcDbEntity
  8
0
100
AcDbLine
 62
7
  6
CONTINUOUS
 10
-46.6554098121
 20
13.3927151846
 11
-43.2697073196
 21
13.3927151846
  0
LINE
  5
53A
100
AcDbEntity
  8
0
100
AcDbLine
 62
7
  6
CONTINUOUS
 10
-43.2668633659
 20
13.3927151846
 11
-42.9519118685
 21
13.3927151846
  0
LINE
  5
53B
100
AcDbEntity
  8
0
100
AcDbLine
 62
7
  6
CONTINUOUS
 10
-42.9496731296
 20
13.3927151846
 11
-41.2645354589
 21
13.3927151846
  0
LINE
  5
53C
100
AcDbEntity
  8
0
100
AcDbLine
 62
7
  6
CONTINUOUS
 10
-40.1996481124
 20
13.3927151846
 11
-38.980858076
 21
13.3927151846
  0
LWPOLYLINE
  5
53D
100
AcDbEntity
  8
IMPORT_IGES
100
AcDbPolyline
 62
7
  6
CONTINUOUS
 90
12
 70
0
 10
-27.4719921484
 20
12.336433178
 10
-27.478536574
 20
12.33648237
 10
-27.5068656085
 20
12.3377740367
 10
-27.5346120852
 20
12.3407853311
 10
-27.5614710792
 20
12.3454759727
 10
-27.5868108593
 20
12.3516967209
 10
-27.6099123346
 20
12.3591677602
 10
-27.6302973311
 20
12.3675584365
 10
-27.6476873271
 20
12.3765207512
 10
-27.6614954644
 20
12.3854166987
 10
-27.6709275171
 20
12.3930467105
 10
-27.6760560646
 20
12.3982452677
  0
LINE
  5
53E
100
AcDbEntity
  8
IMPORT_IGES
100
AcDbLine
 62
250
  6
CONTINUOUS
 10
-27.687640875
 20
12.8462302194
 11
-27.557320661
 21
12.8439224748
  0
LWPOLYLINE
  5
53F
100
AcDbEntity
  8
IMPORT_IGES
100
AcDbPolyline
 62
250
  6
CONTINUOUS
 90
10
 70
0
 10
-27.557320661
 20
12.8439224748
 10
-27.5498331668
 20
12.8437467966
 10
-27.5422472636
 20
12.8434697251
 10
-27.5345749086
 20
12.8430909777
 10
-27.5268282322
 20
12.8426111279
 10
-27.519019352
 20
12.8420290292
 10
-27.5111603517
 20
12.8413418156
 10
-27.5032634851
 20
12.8405483372
 10
-27.4953411596
 20
12.8396491611
 10
-27.4874057486
 20
12.8386439947
  0
LINE
  5
540
100
AcDbEntity
  8
IMPORT_IGES
100
AcDbLine
 62
250
  6
CONTINUOUS
 10
-27.4719921014
 20
12.3163366241
 11
-27.5072530402
 21
12.3173638205
  0
LWPOLYLINE
  5
541
100
AcDbEntity
  8
IMPORT_IGES
100
AcDbPolyline
 62
250
  6
CONTINUOUS
 90
12
 70
0
 10
-27.8268653778
 20
12.5184086673
 10
-27.8074677209
 20
12.5174323453
 10
-27.7884278035
 20
12.5142977141
 10
-27.7700618722
 20
12.5090680964
 10
-27.7526825683
 20
12.5018462314
 10
-27.7365614561
 20
12.4927593999
 10
-27.7219329239
 20
12.481945789
 10
-27.7090399396
 20
12.4695840999
 10
-27.6980964484
 20
12.4558781354
 10
-27.6892699513
 20
12.4410250672
 10
-27.6827172068
 20
12.4252556085
 10
-27.6785681535
 20
12.408838007
  0
LINE
  5
542
100
AcDbEntity
  8
IMPORT_IGES
100
AcDbLine
 62
250
  6
CONTINUOUS
 10
-27.5072530402
 20
12.3173638205
 11
-27.5416953345
 21
12.3203536244
  0
LWPOLYLINE
  5
543
100
AcDbEntity
  8
IMPORT_IGES
100
AcDbPolyline
 62
250
  6
CONTINUOUS
 90
10
 70
0
 10
-35.9225904259
 20
12.9524795803
 10
-35.9344710498
 20
12.9536228932
 10
-35.9461926553
 20
12.9534056594
 10
-35.9575712042
 20
12.9518227497
 10
-35.9684127685
 20
12.9488950238
 10
-35.9785585348
 20
12.9446588826
 10
-35.9878775188
 20
12.9391498428
 10
-35.9962144659
 20
12.9324252291
 10
-36.0034031899
 20
12.9245800845
 10
-36.0079963947
 20
12.9179619441
  0
LWPOLYLINE
  5
544
100
AcDbEntity
  8
IMPORT_IGES
100
AcDbPolyline
 62
250
  6
CONTINUOUS
 90
10
 70
0
 10
-36.4411123913
 20
12.0997980709
 10
-36.4527525124
 20
12.1009404505
 10
-36.4642324979
 20
12.1007785091
 10
-36.4753807342
 20
12.0993110255
 10
-36.4860136948
 20
12.0965614457
 10
-36.4959890349
 20
12.0925660489
 10
-36.505196406
 20
12.0873544775
 10
-36.5134938044
 20
12.080975467
 10
-36.5207220132
 20
12.0735156978
 10
-36.5267497908
 20
12.0650742692
  0
LWPOLYLINE
  5
545
100
AcDbEntity
  8
RACCORDO
100
AcDbPolyline
 62
250
  6
CONTINUOUS
 90
6
 70
0
 10
-47.1996481138
 20
14.3667548188
 10
-47.1978081943
 20
14.366499611
 10
-47.192322289
 20
14.3662444044
 10
-47.1832913344
 20
14.3659891989
 10
-47.1708814932
 20
14.3657339951
 10
-47.1368964428
 20
14.3652235895
  0
LINE
  5
546
100
AcDbEntity
  8
IMPORT_IGES
100
AcDbLine
 62
250
  6
CONTINUOUS
 10
-24.8496481108
 20
10.7753882154
 11
-24.8496481108
 21
10.9006017811
  0
LINE
  5
547
100
AcDbEntity
  8
IMPORT_IGES
100
AcDbLine
 62
250
  6
CONTINUOUS
 10
-24.2496481124
 20
-5.7002070346
 11
-24.2496481124
 21
0.2576861842
  0
LINE
  5
548
100
AcDbEntity
  8
IMPORT_IGES
100
AcDbLine
 62
7
  6
CONTINUOUS
 10
-23.9496481124
 20
-0.0423138158
 11
-23.9496481124
 21
-5.7002070343
  0
LINE
  5
549
100
AcDbEntity
  8
IMPORT_IGES
100
AcDbLine
 62
7
  6
CONTINUOUS
 10
-23.8696481124
 20
-4.4313818571
 11
-23.8696481124
 21
0.0176861842
  0
LINE
  5
54A
100
AcDbEntity
  8
IMPORT_IGES
100
AcDbLine
 62
250
  6
CONTINUOUS
 10
-18.4875721132
 20
3.1351321568
 11
-18.4819411985
 21
3.1422224826
  0
LWPOLYLINE
  5
54B
100
AcDbEntity
  8
IMPORT_IGES
100
AcDbPolyline
 62
250
  6
CONTINUOUS
 90
5
 70
0
 10
-27.7334804248
 20
-8.7486394809
 10
-27.747282899
 20
-8.76346134
 10
-27.7639729693
 20
-8.7771905202
 10
-27.783376288
 20
-8.7894831725
 10
-27.8049632388
 20
-8.7999052156
  0
LWPOLYLINE
  5
54C
100
AcDbEntity
  8
RACCORDO
100
AcDbPolyline
 62
7
  6
CONTINUOUS
 90
22
 70
0
 10
-40.0091346252
 20
-20.1668003271
 10
-39.9981229963
 20
-20.1551844124
 10
-39.9883780755
 20
-20.1435827625
 10
-39.9799315065
 20
-20.1319648472
 10
-39.9727193107
 20
-20.1202105023
 10
-39.9668597568
 20
-20.1083881581
 10
-39.9626531641
 20
-20.0967550361
 10
-39.9601213232
 20
-20.0852906514
 10
-39.9592734393
 20
-20.0739876901
 10
-39.9603783306
 20
-20.0631358225
 10
-39.9634714108
 20
-20.0527621584
 10
-39.9685030465
 20
-20.0428573062
 10
-39.9755871601
 20
-20.0336832151
 10
-39.9847893013
 20
-20.0253340229
 10
-39.995968274
 20
-20.0177942106
 10
-40.008886205
 20
-20.011201799
 10
-40.0235173472
 20
-20.0057201692
 10
-40.0397474548
 20
-20.0013265749
 10
-40.0571789265
 20
-19.9979054437
 10
-40.075630859
 20
-19.9954661255
 10
-40.0951462772
 20
-19.9941361253
 10
-40.1156632525
 20
-19.9939767233
  0
LINE
  5
54D
100
AcDbEntity
  8
RACCORDO
100
AcDbLine
 62
250
  6
CONTINUOUS
 10
-40.1156632525
 20
-19.9939767233
 11
-39.3961576325
 21
-19.2744711033
  0
LINE
  5
54E
100
AcDbEntity
  8
DRAFT
100
AcDbLine
 62
7
  6
CONTINUOUS
 10
-40.1996481138
 20
-20.3573138158
 11
-40.1644333279
 21
-20.3220990298
  0
LINE
  5
54F
100
AcDbEntity
  8
RACCORDO
100
AcDbLine
 62
7
  6
CONTINUOUS
 10
-39.2582267576
 20
-19.4158924596
 11
-40.1644333279
 21
-20.3220990298
  0
LINE
  5
550
100
AcDbEntity
  8
IMPORT_IGES
100
AcDbLine
 62
250
  6
CONTINUOUS
 10
-24.3082267562
 20
-5.8416283908
 11
-26.2527081891
 21
-7.7861098237
  0
LINE
  5
551
100
AcDbEntity
  8
IMPORT_IGES
100
AcDbLine
 62
250
  6
CONTINUOUS
 10
-26.6527081889
 20
-8.32753118
 11
-26.9446228592
 21
-8.6194458501
  0
LINE
  5
552
100
AcDbEntity
  8
IMPORT_IGES
100
AcDbLine
 62
250
  6
CONTINUOUS
 10
-26.2527081836
 20
-7.9982418526
 11
-26.5234188661
 21
-8.268952536
  0
LINE
  5
553
100
AcDbEntity
  8
IMPORT_IGES
100
AcDbLine
 62
7
  6
CONTINUOUS
 10
-24.0960947217
 20
-6.0537604251
 11
-26.8032015028
 21
-8.7608672062
  0
LWPOLYLINE
  5
554
100
AcDbEntity
  8
IMPORT_IGES
100
AcDbPolyline
 62
250
  6
CONTINUOUS
 90
7
 70
0
 10
-18.8910694686
 20
-0.9476851558
 10
-18.8714003982
 20
-0.9305701371
 10
-18.8496481124
 20
-0.9161488808
 10
-18.8261847989
 20
-0.9046681388
 10
-18.8014119214
 20
-0.8963243496
 10
-18.7757533509
 20
-0.8912602778
 10
-18.7496481124
 20
-0.8895625711
  0
LINE
  5
555
100
AcDbEntity
  8
RACCORDO
100
AcDbLine
 62
7
  6
CONTINUOUS
 10
-45.7996481138
 20
13.7325729225
 11
-47.1996481138
 21
13.7203553075
  0
LINE
  5
556
100
AcDbEntity
  8
RACCORDO
100
AcDbLine
 62
250
  6
CONTINUOUS
 10
-47.1996481138
 20
14.0667433952
 11
-47.3996481138
 21
14.0667433952
  0
LINE
  5
557
100
AcDbEntity
  8
RACCORDO
100
AcDbLine
 62
250
  6
CONTINUOUS
 10
-45.7996481138
 20
14.3545372038
 11
-45.9970420708
 21
14.3551114142
  0
LINE
  5
558
100
AcDbEntity
  8
RACCORDO
100
AcDbLine
 62
250
  6
CONTINUOUS
 10
-48.1996481138
 20
14.0737248895
 11
-47.3996481138
 21
14.0667433952
  0
LINE
  5
559
100
AcDbEntity
  8
RACCORDO
100
AcDbLine
 62
7
  6
CONTINUOUS
 10
-45.9979028067
 20
14.5545295885
 11
-48.1996481138
 21
14.5737439287
  0
LINE
  5
55A
100
AcDbEntity
  8
RACCORDO
100
AcDbLine
 62
250
  6
CONTINUOUS
 10
-48.1996481138
 20
15.4737629671
 11
-45.7996481138
 21
15.4528184844
  0
LINE
  5
55B
100
AcDbEntity
  8
RACCORDO
100
AcDbLine
 62
250
  6
CONTINUOUS
 10
-47.1368964428
 20
14.3652235895
 11
-45.9970420708
 21
14.3551114142
  0
LWPOLYLINE
  5
55C
100
AcDbEntity
  8
RACCORDO
100
AcDbPolyline
 62
250
  6
CONTINUOUS
 90
11
 70
0
 10
-47.3979010621
 20
14.5667471881
 10
-47.3699958902
 20
14.5658082377
 10
-47.3423164487
 20
14.5634525677
 10
-47.3149059217
 20
14.5596464566
 10
-47.2875570108
 20
14.5543474576
 10
-47.2605709076
 20
14.5475563557
 10
-47.234750637
 20
14.5393609902
 10
-47.2102473249
 20
14.5298497178
 10
-47.1869905165
 20
14.5190598211
 10
-47.1654441799
 20
14.507052636
 10
-47.14563178
 20
14.4938707916
  0
LINE
  5
55D
100
AcDbEntity
  8
IMPORT_IGES
100
AcDbLine
 62
250
  6
CONTINUOUS
 10
-27.3910151519
 20
12.8297234103
 11
-25.4427411746
 21
12.5978666263
  0
LINE
  5
55E
100
AcDbEntity
  8
IMPORT_IGES
100
AcDbLine
 62
7
  6
CONTINUOUS
 10
-25.4250153169
 20
12.7468155906
 11
-27.3732892939
 21
12.9786723746
  0
LWPOLYLINE
  5
55F
100
AcDbEntity
  8
IMPORT_IGES
100
AcDbPolyline
 62
250
  6
CONTINUOUS
 90
3
 70
0
 10
-27.5416953345
 20
12.3203536244
 10
-27.5753189842
 20
12.325306036
 10
-27.6084628342
 20
12.3322769322
  0
LWPOLYLINE
  5
560
100
AcDbEntity
  8
IMPORT_IGES
100
AcDbPolyline
 62
250
  6
CONTINUOUS
 90
13
 70
0
 10
-27.6096343102
 20
12.9926755559
 10
-27.6030411467
 20
12.9914823604
 10
-27.5964479855
 20
12.9878380652
 10
-27.5900281626
 20
12.9817516908
 10
-27.5840288093
 20
12.9734919395
 10
-27.5785105659
 20
12.9632570811
 10
-27.5733873441
 20
12.9508551389
 10
-27.5687874797
 20
12.9364189111
 10
-27.5648706911
 20
12.9203375287
 10
-27.5616699309
 20
12.9026045025
 10
-27.5592906687
 20
12.8835232903
 10
-27.5578338605
 20
12.8637713908
 10
-27.5573161179
 20
12.8439221355
  0
LWPOLYLINE
  5
561
100
AcDbEntity
  8
IMPORT_IGES
100
AcDbPolyline
 62
250
  6
CONTINUOUS
 90
5
 70
0
 10
-27.6084628342
 20
12.3322769322
 10
-27.6407880397
 20
12.341210436
 10
-27.6712780662
 20
12.3519389162
 10
-27.6999077919
 20
12.3645056275
 10
-27.7267023386
 20
12.3788673152
  0
LWPOLYLINE
  5
562
100
AcDbEntity
  8
IMPORT_IGES
100
AcDbPolyline
 62
250
  6
CONTINUOUS
 90
4
 70
0
 10
-27.7788061403
 20
12.9426170802
 10
-27.7975340583
 20
12.9481207848
 10
-27.8170851749
 20
12.9514476213
 10
-27.8371240723
 20
12.9524938054
  0
LINE
  5
563
100
AcDbEntity
  8
IMPORT_IGES
100
AcDbLine
 62
250
  6
CONTINUOUS
 10
-18.722220497
 20
3.3968772505
 11
-18.7264064746
 21
3.4000838153
  0
LINE
  5
564
100
AcDbEntity
  8
RACCORDO
100
AcDbLine
 62
250
  6
CONTINUOUS
 10
-40.1156632525
 20
21.6793490917
 11
-39.3961576325
 21
20.9598434717
  0
LINE
  5
565
100
AcDbEntity
  8
DRAFT
100
AcDbLine
 62
7
  6
CONTINUOUS
 10
-40.1996481138
 20
22.0426861842
 11
-40.1644333279
 21
22.0074713983
  0
LINE
  5
566
100
AcDbEntity
  8
RACCORDO
100
AcDbLine
 62
7
  6
CONTINUOUS
 10
-40.1644333279
 20
22.0074713983
 11
-39.2582267576
 21
21.101264828
  0
LINE
  5
567
100
AcDbEntity
  8
IMPORT_IGES
100
AcDbLine
 62
250
  6
CONTINUOUS
 10
-24.2206836022
 20
9.850059599
 11
-23.8263491119
 21
6.7437405549
  0
LINE
  5
568
100
AcDbEntity
  8
IMPORT_IGES
100
AcDbLine
 62
250
  6
CONTINUOUS
 10
-22.0996481124
 20
-6.2028104285
 11
-22.0996481124
 21
2.3137681674
  0
LINE
  5
569
100
AcDbEntity
  8
IMPORT_IGES
100
AcDbLine
 62
250
  6
CONTINUOUS
 10
-21.9496481124
 20
3.317819959
 11
-21.9496481124
 21
9.0102829046
  0
LINE
  5
56A
100
AcDbEntity
  8
IMPORT_IGES
100
AcDbLine
 62
7
  6
CONTINUOUS
 10
-21.7996481124
 20
-5.9028104285
 11
-21.7996481124
 21
9.0102829042
  0
LWPOLYLINE
  5
56B
100
AcDbEntity
  8
IMPORT_IGES
100
AcDbPolyline
 62
250
  6
CONTINUOUS
 90
4
 70
0
 10
-18.4819411985
 20
3.1422224826
 10
-18.4779398082
 20
3.1493920038
 10
-18.4755087795
 20
3.1566841874
 10
-18.4746481124
 20
3.1640990336
  0
LINE
  5
56C
100
AcDbEntity
  8
DRAFT
100
AcDbLine
 62
7
  6
CONTINUOUS
 10
-42.0996481138
 20
-21.5573138158
 11
-40.1996481138
 21
-20.3573138158
  0
LINE
  5
56D
100
AcDbEntity
  8
RACCORDO
100
AcDbLine
 62
7
  6
CONTINUOUS
 10
-48.1996481138
 20
15.9737439287
 11
-45.7996481138
 21
15.952799446
  0
LWPOLYLINE
  5
56E
100
AcDbEntity
  8
IMPORT_IGES
100
AcDbPolyline
 62
250
  6
CONTINUOUS
 90
8
 70
0
 10
-26.8584165186
 20
12.2830423774
 10
-26.8842580929
 20
12.2949248963
 10
-26.9113099544
 20
12.3046278154
 10
-26.9392135188
 20
12.3119686758
 10
-26.9671277465
 20
12.3167153137
 10
-26.9946224936
 20
12.3189135377
 10
-27.021729345
 20
12.3187468324
 10
-27.048271401
 20
12.316336624
  0
LWPOLYLINE
  5
56F
100
AcDbEntity
  8
IMPORT_IGES
100
AcDbPolyline
 62
250
  6
CONTINUOUS
 90
3
 70
0
 10
-27.744985256
 20
12.925637737
 10
-27.7611873134
 20
12.9350636553
 10
-27.7788061403
 20
12.9426170802
  0
LINE
  5
570
100
AcDbEntity
  8
DRAFT
100
AcDbLine
 62
7
  6
CONTINUOUS
 10
-40.1996481138
 20
22.0426861842
 11
-42.0996481138
 21
23.2426861842
  0
LWPOLYLINE
  5
571
100
AcDbEntity
  8
IMPORT_IGES
100
AcDbPolyline
 62
250
  6
CONTINUOUS
 90
8
 70
0
 10
-27.7267023386
 20
12.3788673152
 10
-27.7507205382
 20
12.3947265834
 10
-27.7719367684
 20
12.4120704994
 10
-27.7903766514
 20
12.430911996
 10
-27.8051758854
 20
12.4509924759
 10
-27.8160463696
 20
12.4722257401
 10
-27.8232762048
 20
12.4946979875
 10
-27.8268653909
 20
12.5184092183
  0
LWPOLYLINE
  5
572
100
AcDbEntity
  8
IMPORT_IGES
100
AcDbPolyline
 62
250
  6
CONTINUOUS
 90
10
 70
0
 10
-26.5804132624
 20
12.0796133052
 10
-26.5966214883
 20
12.0903178416
 10
-26.614150245
 20
12.0990111211
 10
-26.6328586794
 20
12.1056232884
 10
-26.6525964591
 20
12.1101012113
 10
-26.6732049805
 20
12.1124089072
 10
-26.6945186429
 20
12.1125278326
 10
-26.7163661795
 20
12.1104570317
 10
-26.7385720336
 20
12.1062131445
 10
-26.7609577692
 20
12.0998302732
  0
LINE
  5
573
100
AcDbEntity
  8
IMPORT_IGES
100
AcDbLine
 62
250
  6
CONTINUOUS
 10
-26.8102641678
 20
12.2528183859
 11
-26.8337097219
 21
12.2689741459
  0
LWPOLYLINE
  5
574
100
AcDbEntity
  8
IMPORT_IGES
100
AcDbPolyline
 62
7
  6
CONTINUOUS
 90
7
 70
0
 10
-26.8102633824
 20
12.2528194036
 10
-26.8345945622
 20
12.269892108
 10
-26.8779463396
 20
12.2947291128
 10
-26.9228471631
 20
12.3139050349
 10
-26.9687306044
 20
12.3273505834
 10
-27.0145238016
 20
12.3347692124
 10
-27.0482809626
 20
12.3364367032
  0
LINE
  5
575
100
AcDbEntity
  8
IMPORT_IGES
100
AcDbLine
 62
250
  6
CONTINUOUS
 10
-26.7609577692
 20
11.840022652
 11
-24.2987282909
 21
9.9845996563
  0
LINE
  5
576
100
AcDbEntity
  8
IMPORT_IGES
100
AcDbLine
 62
250
  6
CONTINUOUS
 10
-27.0482714009
 20
12.3163366241
 11
-26.7609577688
 21
12.0998302731
  0
LINE
  5
577
100
AcDbEntity
  8
IMPORT_IGES
100
AcDbLine
 62
7
  6
CONTINUOUS
 10
-24.118183784
 20
10.2241903094
 11
-26.8102641678
 21
12.2528183858
  0
LINE
  5
578
100
AcDbEntity
  8
IMPORT_IGES
100
AcDbLine
 62
250
  6
CONTINUOUS
 10
-24.0580022816
 20
10.3040538603
 11
-24.8496481108
 21
10.9006017811
  0
LWPOLYLINE
  5
579
100
AcDbEntity
  8
IMPORT_IGES
100
AcDbPolyline
 62
250
  6
CONTINUOUS
 90
3
 70
0
 10
-24.4640657208
 20
10.4916983748
 10
-24.479107531
 20
10.506870707
 10
-24.4950229175
 20
10.5227483968
  0
LWPOLYLINE
  5
57A
100
AcDbEntity
  8
IMPORT_IGES
100
AcDbPolyline
 62
250
  6
CONTINUOUS
 90
3
 70
0
 10
-24.4950229175
 20
10.5227483968
 10
-24.5099338775
 20
10.537913542
 10
-24.5473500501
 20
10.5769356994
  0
LINE
  5
57B
100
AcDbEntity
  8
IMPORT_IGES
100
AcDbLine
 62
250
  6
CONTINUOUS
 10
-24.5473500501
 20
10.5769356994
 11
-24.6150621774
 21
10.6487591714
  0
LWPOLYLINE
  5
57C
100
AcDbEntity
  8
IMPORT_IGES
100
AcDbPolyline
 62
250
  6
CONTINUOUS
 90
8
 70
0
 10
-18.6404729987
 20
3.1334955492
 10
-18.6608357577
 20
3.1551551157
 10
-18.6782099846
 20
3.1804276941
 10
-18.6920355591
 20
3.2088991404
 10
-18.7014348723
 20
3.2395227922
 10
-18.7065524822
 20
3.2710668545
 10
-18.7075193119
 20
3.3029197672
 10
-18.703969999
 20
3.3348564108
  0
LINE
  5
57D
100
AcDbEntity
  8
IMPORT_IGES
100
AcDbLine
 62
250
  6
CONTINUOUS
 10
-24.6150621774
 20
10.6487591714
 11
-24.7413902529
 21
10.7839816477
  0
LINE
  5
57E
100
AcDbEntity
  8
IMPORT_IGES
100
AcDbLine
 62
250
  6
CONTINUOUS
 10
-24.7413902529
 20
10.7839816477
 11
-24.8496481108
 21
10.9006017811
  0
LWPOLYLINE
  5
57F
100
AcDbEntity
  8
IMPORT_IGES
100
AcDbPolyline
 62
250
  6
CONTINUOUS
 90
4
 70
0
 10
-27.7075301872
 20
12.8887568113
 10
-27.718004436
 20
12.9022329867
 10
-27.7305054528
 20
12.9145881989
 10
-27.744985256
 20
12.925637737
  0
LWPOLYLINE
  5
580
100
AcDbEntity
  8
0
100
AcDbPolyline
 62
7
  6
CONTINUOUS
 90
10
 70
0
 43
0.3500000006
 10
-36.980005394
 20
35.5926870575
 10
-36.9085764771
 20
35.4498292236
 10
-36.9085764771
 20
35.3784025726
 10
-37.0514343109
 20
35.2355447388
 10
-37.1228632278
 20
35.2355447388
 10
-37.1942898788
 20
35.3069713898
 10
-37.1942898788
 20
35.3784025726
 10
-37.1228632278
 20
35.5212558746
 10
-37.0514343109
 20
35.5926870575
 10
-36.980005394
 20
35.5926870575
  0
LINE
  5
581
100
AcDbEntity
  8
IMPORT_IGES
100
AcDbLine
 62
250
  6
CONTINUOUS
 10
-23.6410192142
 20
6.0879801359
 11
-22.2499537183
 21
3.0110871283
  0
LINE
  5
582
100
AcDbEntity
  8
IMPORT_IGES
100
AcDbLine
 62
7
  6
CONTINUOUS
 10
-23.3676580758
 20
6.2115668991
 11
-21.9765925799
 21
3.1346738915
  0
LINE
  5
583
100
AcDbEntity
  8
IMPORT_IGES
100
AcDbLine
 62
250
  6
CONTINUOUS
 10
-21.9496481124
 20
3.317819959
 11
-23.2765376964
 21
6.2527624868
  0
LINE
  5
584
100
AcDbEntity
  8
IMPORT_IGES
100
AcDbLine
 62
250
  6
CONTINUOUS
 10
-24.8100105674
 20
10.7763298918
 11
-24.8496481108
 21
10.9006017811
  0
LWPOLYLINE
  5
585
100
AcDbEntity
  8
IMPORT_IGES
100
AcDbPolyline
 62
250
  6
CONTINUOUS
 90
10
 70
0
 10
-21.9496481124
 20
3.317819959
 10
-21.8900988166
 20
3.0787853787
 10
-21.8711421528
 20
2.9922070242
 10
-21.854206694
 20
2.9045496182
 10
-21.839468856
 20
2.8172923664
 10
-21.8267539722
 20
2.7288752796
 10
-21.8158884871
 20
2.6347777043
 10
-21.8072999748
 20
2.5335023694
 10
-21.8016775464
 20
2.4265119686
 10
-21.7996481124
 20
2.3137681674
  0
LINE
  5
586
100
AcDbEntity
  8
IMPORT_IGES
100
AcDbLine
 62
7
  6
CONTINUOUS
 10
-23.5287375719
 20
6.781521122
 11
-23.9230720621
 21
9.8878401658
  0
LINE
  5
587
100
AcDbEntity
  8
IMPORT_IGES
100
AcDbLine
 62
250
  6
CONTINUOUS
 10
-23.4295337252
 20
6.7941146443
 11
-23.8238682155
 21
9.9004336884
  0
LWPOLYLINE
  5
588
100
AcDbEntity
  8
IMPORT_IGES
100
AcDbPolyline
 62
250
  6
CONTINUOUS
 90
10
 70
0
 10
-18.6746481124
 20
4.6907068201
 10
-18.6761673371
 20
4.6767270782
 10
-18.6806788503
 20
4.6631721036
 10
-18.688045572
 20
4.6504537574
 10
-18.6980436681
 20
4.6389584802
 10
-18.7103693514
 20
4.6290355501
 10
-18.7246481124
 20
4.6209864704
 10
-18.7404460981
 20
4.6150558082
 10
-18.7572832946
 20
4.6114237637
 10
-18.7746481124
 20
4.6102006947
  0
LINE
  5
589
100
AcDbEntity
  8
IMPORT_IGES
100
AcDbLine
 62
250
  6
CONTINUOUS
 10
-18.703969999
 20
3.3348564108
 11
-18.6955420149
 21
3.366480726
  0
LINE
  5
58A
100
AcDbEntity
  8
IMPORT_IGES
100
AcDbLine
 62
250
  6
CONTINUOUS
 10
-18.6761673371
 20
3.4876122142
 11
-18.6746481124
 21
3.4916772274
  0
LINE
  5
58B
100
AcDbEntity
  8
RACCORDO
100
AcDbLine
 62
7
  6
CONTINUOUS
 10
-39.6996481138
 20
19.3426861842
 11
-43.9316989214
 21
19.3426861842
  0
LINE
  5
58C
100
AcDbEntity
  8
RACCORDO
100
AcDbLine
 62
250
  6
CONTINUOUS
 10
-39.6961576325
 20
19.5426861842
 11
-43.9545389396
 21
19.5426861842
  0
LINE
  5
58D
100
AcDbEntity
  8
IMPORT_IGES
100
AcDbLine
 62
250
  6
CONTINUOUS
 10
-24.9421469392
 20
12.3548632594
 11
-22.1986073484
 21
9.6113236686
  0
LINE
  5
58E
100
AcDbEntity
  8
IMPORT_IGES
100
AcDbLine
 62
7
  6
CONTINUOUS
 10
-24.8360809218
 20
12.4609292764
 11
-22.0925413315
 21
9.717389686
  0
LWPOLYLINE
  5
58F
100
AcDbEntity
  8
IMPORT_IGES
100
AcDbPolyline
 62
250
  6
CONTINUOUS
 90
9
 70
0
 10
-18.6955418575
 20
3.366480726
 10
-18.6982869698
 20
3.3707722779
 10
-18.7011980755
 20
3.3749133503
 10
-18.7042725306
 20
3.3789108377
 10
-18.7074924825
 20
3.3827805681
 10
-18.7108678305
 20
3.3865197166
 10
-18.7144420344
 20
3.3901107429
 10
-18.7182316638
 20
3.393556701
 10
-18.722220497
 20
3.3968772505
  0
LINE
  5
590
100
AcDbEntity
  8
IMPORT_IGES
100
AcDbLine
 62
250
  6
CONTINUOUS
 10
-18.9479370847
 20
-1.2355013863
 11
-18.9496481124
 21
-1.2255080206
  0
LWPOLYLINE
  5
591
100
AcDbEntity
  8
IMPORT_IGES
100
AcDbPolyline
 62
250
  6
CONTINUOUS
 90
6
 70
0
 10
-18.9496481124
 20
-1.2558844211
 10
-18.9511673372
 20
-1.2461220663
 10
-18.9556788508
 20
-1.2366563359
 10
-18.9630455728
 20
-1.2277748413
 10
-18.9730436691
 20
-1.2197474422
 10
-18.9853693523
 20
-1.212818047
  0
LWPOLYLINE
  5
592
100
AcDbEntity
  8
IMPORT_IGES
100
AcDbPolyline
 62
7
  6
CONTINUOUS
 90
13
 70
0
 10
-19.0496481123
 20
-1.0871908123
 10
-19.0498004397
 20
-1.0605407502
 10
-19.0498278556
 20
-1.0343617496
 10
-19.04973036
 20
-1.0091213097
 10
-19.0493057495
 20
-0.9852143295
 10
-19.0487562276
 20
-0.9631338029
 10
-19.0486884042
 20
-0.9434135733
 10
-19.0496066799
 20
-0.9263537207
 10
-19.0510066541
 20
-0.9121916061
 10
-19.0519817343
 20
-0.9011759338
 10
-19.0522297231
 20
-0.8933743615
 10
-19.052052818
 20
-0.8887466972
 10
-19.0514510189
 20
-0.8872269467
  0
LWPOLYLINE
  5
593
100
AcDbEntity
  8
IMPORT_IGES
100
AcDbPolyline
 62
250
  6
CONTINUOUS
 90
10
 70
0
 10
-18.7496481124
 20
-0.889562578
 10
-18.7496507504
 20
-0.8890730855
 10
-18.7496599427
 20
-0.8886408603
 10
-18.7496756893
 20
-0.8882660164
 10
-18.7496979922
 20
-0.8879486295
 10
-18.7497268495
 20
-0.8876888293
 10
-18.7497622548
 20
-0.8874867456
 10
-18.749804206
 20
-0.8873424101
 10
-18.7498527053
 20
-0.8872558109
 10
-18.7499077525
 20
-0.8872269466
  0
LINE
  5
594
100
AcDbEntity
  8
IMPORT_IGES
100
AcDbLine
 62
250
  6
CONTINUOUS
 10
-19.0496481124
 20
-3.6076115634
 11
-19.0496481123
 21
-1.0871908123
  0
LINE
  5
595
100
AcDbEntity
  8
IMPORT_IGES
100
AcDbLine
 62
7
  6
CONTINUOUS
 10
-18.9496481124
 20
-1.0880054279
 11
-18.9496481124
 21
-4.4076115634
  0
LINE
  5
596
100
AcDbEntity
  8
IMPORT_IGES
100
AcDbLine
 62
250
  6
CONTINUOUS
 10
-18.7746481124
 20
5.6472748224
 11
-18.7746480251
 21
3.0926861842
  0
LINE
  5
597
100
AcDbEntity
  8
IMPORT_IGES
100
AcDbLine
 62
250
  6
CONTINUOUS
 10
-18.7496481124
 20
-0.889562578
 11
-18.7496481124
 21
-4.6076115634
  0
LINE
  5
598
100
AcDbEntity
  8
IMPORT_IGES
100
AcDbLine
 62
7
  6
CONTINUOUS
 10
-18.6746481124
 20
6.289688053
 11
-18.6746481124
 21
3.3538301192
  0
LINE
  5
599
100
AcDbEntity
  8
IMPORT_IGES
100
AcDbLine
 62
250
  6
CONTINUOUS
 10
-18.4746481124
 20
3.1640990336
 11
-18.4746481124
 21
6.4899755518
  0
LINE
  5
59A
100
AcDbEntity
  8
IMPORT_IGES
100
AcDbLine
 62
250
  6
CONTINUOUS
 10
-18.1746481124
 20
3.0926861842
 11
-18.1746481124
 21
6.4899755518
  0
LINE
  5
59B
100
AcDbEntity
  8
IMPORT_IGES
100
AcDbLine
 62
250
  6
CONTINUOUS
 10
-18.1496481124
 20
-4.6076115634
 11
-18.1496481124
 21
-0.8872269466
  0
LINE
  5
59C
100
AcDbEntity
  8
IMPORT_IGES
100
AcDbLine
 62
7
  6
CONTINUOUS
 10
-17.9746481124
 20
3.2926848451
 11
-17.9746481124
 21
6.289688053
  0
LINE
  5
59D
100
AcDbEntity
  8
IMPORT_IGES
100
AcDbLine
 62
7
  6
CONTINUOUS
 10
-17.9496481124
 20
-4.4076115634
 11
-17.9496481124
 21
-1.0872269466
  0
LINE
  5
59E
100
AcDbEntity
  8
IMPORT_IGES
100
AcDbLine
 62
250
  6
CONTINUOUS
 10
-18.5373293478
 20
3.1029542336
 11
-18.5373300691
 21
3.0926861842
  0
LWPOLYLINE
  5
59F
100
AcDbEntity
  8
IMPORT_IGES
100
AcDbPolyline
 62
250
  6
CONTINUOUS
 90
13
 70
0
 10
-18.9497425269
 20
-1.0871915136
 10
-18.9480166613
 20
-1.0609852367
 10
-18.9428858668
 20
-1.0352727935
 10
-18.9344548072
 20
-1.0104928394
 10
-18.9228910498
 20
-0.9870770058
 10
-18.9084030967
 20
-0.965403309
 10
-18.8912204939
 20
-0.9458002452
 10
-18.8716363022
 20
-0.9286019884
 10
-18.8499825842
 20
-0.914099975
 10
-18.826583746
 20
-0.9025227061
 10
-18.8018156097
 20
-0.8940802818
 10
-18.7761104997
 20
-0.8889429833
 10
-18.7499071177
 20
-0.8872175111
  0
LWPOLYLINE
  5
5A0
100
AcDbEntity
  8
IMPORT_IGES
100
AcDbPolyline
 62
250
  6
CONTINUOUS
 90
10
 70
0
 10
-17.9746481124
 20
3.596618606
 10
-17.9776865618
 20
3.5636721491
 10
-17.9867095882
 20
3.5317267537
 10
-18.0014430316
 20
3.5017530644
 10
-18.0214392238
 20
3.4746618165
 10
-18.0460905905
 20
3.451276164
 10
-18.0746481124
 20
3.4323066681
 10
-18.1062440837
 20
3.4183297072
 10
-18.1399184769
 20
3.4097699642
 10
-18.1746481124
 20
3.4068875227
  0
LWPOLYLINE
  5
5A1
100
AcDbEntity
  8
IMPORT_IGES
100
AcDbPolyline
 62
250
  6
CONTINUOUS
 90
3
 70
0
 10
-18.6955420149
 20
3.366480726
 10
-18.6985276902
 20
3.3384720283
 10
-18.6978314345
 20
3.3106323283
  0
LWPOLYLINE
  5
5A2
100
AcDbEntity
  8
IMPORT_IGES
100
AcDbPolyline
 62
250
  6
CONTINUOUS
 90
13
 70
0
 10
-17.9496481124
 20
-1.2255080206
 10
-17.9513591401
 20
-1.2355013863
 10
-17.9564629471
 20
-1.2453237627
 10
-17.9648722059
 20
-1.2548070862
 10
-17.9764430317
 20
-1.2637890946
 10
-17.9909774443
 20
-1.2721161033
 10
-18.0082267562
 20
-1.2796456347
 10
-18.0278958266
 20
-1.2862488565
 10
-18.0496481124
 20
-1.2918127858
 10
-18.0731114259
 20
-1.2962422222
 10
-18.0978843034
 20
-1.2994613767
 10
-18.123542874
 20
-1.3014151689
 10
-18.1496481124
 20
-1.3020701687
  0
LINE
  5
5A3
100
AcDbEntity
  8
RACCORDO
100
AcDbLine
 62
7
  6
CONTINUOUS
 10
-48.1996481138
 20
18.1990926448
 11
-43.9316989214
 21
19.3426861842
  0
LINE
  5
5A4
100
AcDbEntity
  8
RACCORDO
100
AcDbLine
 62
250
  6
CONTINUOUS
 10
-48.1996481138
 20
18.4052126092
 11
-43.9545389396
 21
19.5426861842
  0
LINE
  5
5A5
100
AcDbEntity
  8
RACCORDO
100
AcDbLine
 62
250
  6
CONTINUOUS
 10
-39.1996481138
 20
19.8426861842
 11
-39.3961576325
 21
19.8426861842
  0
LINE
  5
5A6
100
AcDbEntity
  8
RACCORDO
100
AcDbLine
 62
250
  6
CONTINUOUS
 10
-39.1996481138
 20
20.9598434717
 11
-39.3961576325
 21
20.9598434717
  0
LWPOLYLINE
  5
5A7
100
AcDbEntity
  8
0
100
AcDbPolyline
 62
250
  6
CONTINUOUS
 90
3
 70
0
 10
-57.2576607472
 20
21.8609994719
 10
-57.2549862753
 20
21.8608489791
 10
-56.7668514158
 20
21.8399821009
  0
LWPOLYLINE
  5
5A8
100
AcDbEntity
  8
IMPORT_IGES
100
AcDbPolyline
 62
250
  6
CONTINUOUS
 90
10
 70
0
 10
-18.6746481124
 20
3.3538301192
 10
-18.6749262357
 20
3.3553106029
 10
-18.6757545047
 20
3.3567426979
 10
-18.6771215702
 20
3.3581510264
 10
-18.6790155472
 20
3.3595924509
 10
-18.6814184378
 20
3.3610571785
 10
-18.6843009108
 20
3.3624685055
 10
-18.6876329916
 20
3.3638140117
 10
-18.6913897129
 20
3.365145631
 10
-18.6955418575
 20
3.366480726
  0
LWPOLYLINE
  5
5A9
100
AcDbEntity
  8
IMPORT_IGES
100
AcDbPolyline
 62
250
  6
CONTINUOUS
 90
10
 70
0
 10
-17.9746481124
 20
3.7488674165
 10
-17.9776865618
 20
3.7687964166
 10
-17.9867095883
 20
3.7881198842
 10
-18.0014430317
 20
3.8062506854
 10
-18.0214392238
 20
3.822637925
 10
-18.0460905905
 20
3.836783685
 10
-18.0746481124
 20
3.8482581537
 10
-18.1062440837
 20
3.8567126852
 10
-18.1399184769
 20
3.8618903927
 10
-18.1746481124
 20
3.8636339543
  0
LWPOLYLINE
  5
5AA
100
AcDbEntity
  8
IMPORT_IGES
100
AcDbPolyline
 62
250
  6
CONTINUOUS
 90
10
 70
0
 10
-18.6978314345
 20
3.3106323283
 10
-18.693863672
 20
3.2830213028
 10
-18.6866611382
 20
3.2550232093
 10
-18.6759079361
 20
3.2271684513
 10
-18.6619960753
 20
3.2011410378
 10
-18.6457531312
 20
3.1773165534
 10
-18.6270742594
 20
3.1556024199
 10
-18.6061139523
 20
3.1369929666
 10
-18.5835810301
 20
3.1219994508
 10
-18.5603714232
 20
3.1106189223
  0
LINE
  5
5AB
100
AcDbEntity
  8
0
100
AcDbLine
 62
250
  6
CONTINUOUS
 10
-56.2934613588
 20
22.318278554
 11
-48.1996481138
 21
22.7424573321
  0
LWPOLYLINE
  5
5AC
100
AcDbEntity
  8
RACCORDO
100
AcDbPolyline
 62
7
  6
CONTINUOUS
 90
22
 70
0
 10
-40.1156632525
 20
21.6793490917
 10
-40.0956586562
 20
21.6794872702
 10
-40.0765722195
 20
21.6807498055
 10
-40.0584620373
 20
21.6830793221
 10
-40.0412876163
 20
21.686339652
 10
-40.0252200958
 20
21.6905374809
 10
-40.0106379082
 20
21.6958264025
 10
-39.9976382228
 20
21.7022105039
 10
-39.9862678302
 20
21.7095416204
 10
-39.9768117075
 20
21.7177617625
 10
-39.9694102671
 20
21.7269191597
 10
-39.9640266919
 20
21.7368597676
 10
-39.9606304191
 20
21.7472704769
 10
-39.9592962131
 20
21.7581546695
 10
-39.9599571506
 20
21.7694973566
 10
-39.9623278524
 20
21.7809995336
 10
-39.9663704924
 20
21.7926238429
 10
-39.972084957
 20
21.8044422486
 10
-39.9792480933
 20
21.8163143044
 10
-39.987785869
 20
21.8281920633
 10
-39.9977535544
 20
21.8401397436
 10
-40.0091346252
 20
21.8521726956
  0
LINE
  5
5AD
100
AcDbEntity
  8
DRAFT
100
AcDbLine
 62
7
  6
CONTINUOUS
 10
-40.1996481138
 20
22.0426861842
 11
-44.1996481138
 21
22.0426861842
  0
LINE
  5
5AE
100
AcDbEntity
  8
0
100
AcDbLine
 62
7
  6
CONTINUOUS
 10
-42.0996481138
 20
23.2426861842
 11
-42.5996481138
 21
23.2426861842
  0
LINE
  5
5AF
100
AcDbEntity
  8
RACCORDO
100
AcDbLine
 62
7
  6
CONTINUOUS
 10
-40.1156632525
 20
21.6793490917
 11
-48.1996481138
 21
21.7426861842
  0
LINE
  5
5B0
100
AcDbEntity
  8
DRAFT
100
AcDbLine
 62
7
  6
CONTINUOUS
 10
-44.1996481138
 20
22.0426861842
 11
-40.1644333279
 21
22.0074713983
  0
LINE
  5
5B1
100
AcDbEntity
  8
DRAFT
100
AcDbLine
 62
7
  6
CONTINUOUS
 10
-48.1996481138
 20
23.5058528062
 11
-44.1996481138
 21
23.4725527869
  0
LINE
  5
5B2
100
AcDbEntity
  8
0
100
AcDbLine
 62
7
  6
CONTINUOUS
 10
-56.3109031337
 20
22.8175933214
 11
-48.1996481138
 21
23.2426861842
  0
LINE
  5
5B3
100
AcDbEntity
  8
DRAFT
100
AcDbLine
 62
7
  6
CONTINUOUS
 10
-48.1996481138
 20
24.3426861842
 11
-44.1996481138
 21
24.2728659245
  0
LINE
  5
5B4
100
AcDbEntity
  8
DRAFT
100
AcDbLine
 62
7
  6
CONTINUOUS
 10
-48.1996481138
 20
24.022594746
 11
-45.5204098268
 21
23.9699413665
  0
LINE
  5
5B5
100
AcDbEntity
  8
DRAFT
100
AcDbLine
 62
7
  6
CONTINUOUS
 10
-45.5204098268
 20
23.9699413665
 11
-44.1996481138
 21
23.942576659
  0
LWPOLYLINE
  5
5B6
100
AcDbEntity
  8
0
100
AcDbPolyline
 62
7
  6
CONTINUOUS
 90
6
 70
0
 43
0.3500000006
 10
-42.1228624878
 20
35.0926869049
 10
-41.0514355316
 20
35.0926869049
 10
-40.8371465149
 20
35.3069713898
 10
-40.8371465149
 20
36.3783983459
 10
-41.2657200165
 20
36.8069718475
 10
-41.6942889862
 20
36.8069718475
  0
ARC
  5
5B7
100
AcDbEntity
  8
DRAFT
100
AcDbCircle
 62
7
  6
CONTINUOUS
 10
11.1439495066
 20
0.8426861842
 40
28.0
100
AcDbArc
 50
233.1301023542
 51
234.0372348486
  0
ARC
  5
5B8
100
AcDbEntity
  8
DRAFT
100
AcDbCircle
 62
7
  6
CONTINUOUS
 10
11.1439495066
 20
0.8426861842
 40
28.0
100
AcDbArc
 50
235.8789063483
 51
237.0647695028
  0
ARC
  5
5B9
100
AcDbEntity
  8
DRAFT
100
AcDbCircle
 62
7
  6
CONTINUOUS
 10
11.1439495066
 20
0.8426861842
 40
28.0
100
AcDbArc
 50
122.9352304972
 51
124.1210936517
  0
ARC
  5
5BA
100
AcDbEntity
  8
DRAFT
100
AcDbCircle
 62
7
  6
CONTINUOUS
 10
11.1439495066
 20
0.8426861842
 40
28.0
100
AcDbArc
 50
125.9627651514
 51
126.8698976458
  0
ARC
  5
5BB
100
AcDbEntity
  8
DRAFT
100
AcDbCircle
 62
7
  6
CONTINUOUS
 10
-11.3560504934
 20
0.8426861842
 40
28.0
100
AcDbArc
 50
302.9352304972
 51
304.1210936517
  0
ARC
  5
5BC
100
AcDbEntity
  8
DRAFT
100
AcDbCircle
 62
7
  6
CONTINUOUS
 10
-11.3560504934
 20
0.8426861842
 40
28.0
100
AcDbArc
 50
305.9627651514
 51
306.8698976458
  0
ARC
  5
5BD
100
AcDbEntity
  8
DRAFT
100
AcDbCircle
 62
7
  6
CONTINUOUS
 10
-11.3560504934
 20
0.8426861842
 40
28.0
100
AcDbArc
 50
53.1301023542
 51
54.0372348486
  0
ARC
  5
5BE
100
AcDbEntity
  8
DRAFT
100
AcDbCircle
 62
7
  6
CONTINUOUS
 10
-11.3560504934
 20
0.8426861842
 40
28.0
100
AcDbArc
 50
55.8789063483
 51
57.0647695028
  0
ARC
  5
5BF
100
AcDbEntity
  8
DRAFT
100
AcDbCircle
 62
7
  6
CONTINUOUS
 10
4.8439495066
 20
23.9426861842
 40
0.5
100
AcDbArc
 50
170.803718421
 51
299.112422776
  0
ARC
  5
5C0
100
AcDbEntity
  8
DRAFT
100
AcDbCircle
 62
7
  6
CONTINUOUS
 10
4.8439495066
 20
-22.2573138158
 40
0.5
100
AcDbArc
 50
60.887577224
 51
189.196281579
  0
ARC
  5
5C1
100
AcDbEntity
  8
DRAFT
100
AcDbCircle
 62
7
  6
CONTINUOUS
 10
-5.0560504934
 20
23.9426861842
 40
0.5
100
AcDbArc
 50
240.887577224
 51
9.196281579
  0
ARC
  5
5C2
100
AcDbEntity
  8
DRAFT
100
AcDbCircle
 62
7
  6
CONTINUOUS
 10
-5.0560504934
 20
-22.2573138158
 40
0.5
100
AcDbArc
 50
350.803718421
 51
119.112422776
  0
ARC
  5
5C3
100
AcDbEntity
  8
0
100
AcDbCircle
 62
7
  6
CONTINUOUS
 10
-56.2585671775
 20
-20.1335914182
 40
1.0
100
AcDbArc
 50
182.4092313014
 51
267.0
  0
ARC
  5
5C4
100
AcDbEntity
  8
RACCORDO
100
AcDbCircle
 62
7
  6
CONTINUOUS
 10
-39.6996481138
 20
-18.1573138158
 40
0.5
100
AcDbArc
 50
0.0
 51
90.0
  0
ARC
  5
5C5
100
AcDbEntity
  8
RACCORDO
100
AcDbCircle
 62
7
  6
CONTINUOUS
 10
-39.3996481138
 20
-19.2744711033
 40
0.2
100
AcDbArc
 50
315.0
 51
360.0
  0
ARC
  5
5C6
100
AcDbEntity
  8
IMPORT_IGES
100
AcDbCircle
 62
7
  6
CONTINUOUS
 10
-27.1567548936
 20
-8.4073138158
 40
0.5
100
AcDbArc
 50
270.0
 51
315.0
  0
ARC
  5
5C7
100
AcDbEntity
  8
IMPORT_IGES
100
AcDbCircle
 62
7
  6
CONTINUOUS
 10
-24.4496481124
 20
-5.7002070346
 40
0.5
100
AcDbArc
 50
314.9999999914
 51
360.0
  0
ARC
  5
5C8
100
AcDbEntity
  8
IMPORT_IGES
100
AcDbCircle
 62
7
  6
CONTINUOUS
 10
-41.9496481124
 20
-1.4113417169
 40
0.3
100
AcDbArc
 50
121.2038883177
 51
180.0
  0
ARC
  5
5C9
100
AcDbEntity
  8
IMPORT_IGES
100
AcDbCircle
 62
7
  6
CONTINUOUS
 10
-41.9496481124
 20
-6.6930510279
 40
0.3
100
AcDbArc
 50
180.0
 51
237.4051679366
  0
ARC
  5
5CA
100
AcDbEntity
  8
IMPORT_IGES
100
AcDbCircle
 62
7
  6
CONTINUOUS
 10
-23.6496481124
 20
-0.5872269466
 40
0.3
100
AcDbArc
 50
180.0
 51
222.7193392624
  0
ARC
  5
5CB
100
AcDbEntity
  8
IMPORT_IGES
100
AcDbCircle
 62
250
  6
CONTINUOUS
 10
-27.1567548936
 20
-8.4073138158
 40
0.3
100
AcDbArc
 50
270.0
 51
315.0
  0
ARC
  5
5CC
100
AcDbEntity
  8
IMPORT_IGES
100
AcDbCircle
 62
7
  6
CONTINUOUS
 10
-22.0996481124
 20
-5.9028104285
 40
0.3
100
AcDbArc
 50
270.0
 51
360.0
  0
ARC
  5
5CD
100
AcDbEntity
  8
RACCORDO
100
AcDbCircle
 62
7
  6
CONTINUOUS
 10
-46.0996481138
 20
-4.1445939172
 40
0.3
100
AcDbArc
 50
0.0
 51
89.5
  0
ARC
  5
5CE
100
AcDbEntity
  8
IMPORT_IGES
100
AcDbCircle
 62
7
  6
CONTINUOUS
 10
-27.9074422617
 20
-8.7073138158
 40
0.2
100
AcDbArc
 50
270.0
 51
359.6418935168
  0
ARC
  5
5CF
100
AcDbEntity
  8
IMPORT_IGES
100
AcDbCircle
 62
250
  6
CONTINUOUS
 10
-24.4496481124
 20
-5.7002070346
 40
0.2
100
AcDbArc
 50
315.0
 51
360.0
  0
ARC
  5
5D0
100
AcDbEntity
  8
IMPORT_IGES
100
AcDbCircle
 62
7
  6
CONTINUOUS
 10
-45.5996481124
 20
-2.5604428362
 40
0.2
100
AcDbArc
 50
180.0
 51
231.6869093257
  0
ARC
  5
5D1
100
AcDbEntity
  8
IMPORT_IGES
100
AcDbCircle
 62
7
  6
CONTINUOUS
 10
-44.4645457788
 20
-3.4573138158
 40
0.2
100
AcDbArc
 50
231.6869093262
 51
270.0
  0
ARC
  5
5D2
100
AcDbEntity
  8
RACCORDO
100
AcDbCircle
 62
7
  6
CONTINUOUS
 10
-47.3996481138
 20
-6.4813824503
 40
0.2
100
AcDbArc
 50
270.5
 51
360.0
  0
ARC
  5
5D3
100
AcDbEntity
  8
RACCORDO
100
AcDbCircle
 62
7
  6
CONTINUOUS
 10
-45.9996481138
 20
-6.4691648354
 40
0.2
100
AcDbArc
 50
270.5
 51
360.0
  0
ARC
  5
5D4
100
AcDbEntity
  8
IMPORT_IGES
100
AcDbCircle
 62
7
  6
CONTINUOUS
 10
-35.9996481124
 20
-9.0073138158
 40
0.1
100
AcDbArc
 50
90.0
 51
180.0
  0
ARC
  5
5D5
100
AcDbEntity
  8
IMPORT_IGES
100
AcDbCircle
 62
7
  6
CONTINUOUS
 10
-36.1996481124
 20
-9.0073138158
 40
0.1
100
AcDbArc
 50
270.0000000001
 51
360.0
  0
ARC
  5
5D6
100
AcDbEntity
  8
IMPORT_IGES
100
AcDbCircle
 62
7
  6
CONTINUOUS
 10
-36.6996481124
 20
-9.0073138158
 40
0.1
100
AcDbArc
 50
180.0
 51
270.0
  0
ARC
  5
5D7
100
AcDbEntity
  8
IMPORT_IGES
100
AcDbCircle
 62
7
  6
CONTINUOUS
 10
-36.8996481124
 20
-9.0073138158
 40
0.1
100
AcDbArc
 50
0.0
 51
90.0
  0
ARC
  5
5D8
100
AcDbEntity
  8
IMPORT_IGES
100
AcDbCircle
 62
7
  6
CONTINUOUS
 10
-30.1996481124
 20
-9.0073138158
 40
0.1
100
AcDbArc
 50
0.0
 51
90.0
  0
ARC
  5
5D9
100
AcDbEntity
  8
IMPORT_IGES
100
AcDbCircle
 62
7
  6
CONTINUOUS
 10
-29.9996481124
 20
-9.0073138158
 40
0.1
100
AcDbArc
 50
180.0
 51
270.0
  0
ARC
  5
5DA
100
AcDbEntity
  8
IMPORT_IGES
100
AcDbCircle
 62
7
  6
CONTINUOUS
 10
-29.4996481124
 20
-9.0073138158
 40
0.1
100
AcDbArc
 50
270.0000000005
 51
360.0
  0
ARC
  5
5DB
100
AcDbEntity
  8
IMPORT_IGES
100
AcDbCircle
 62
7
  6
CONTINUOUS
 10
-29.2996481124
 20
-9.0073138158
 40
0.1
100
AcDbArc
 50
89.9999999999
 51
180.0
  0
ARC
  5
5DC
100
AcDbEntity
  8
IMPORT_IGES
100
AcDbCircle
 62
7
  6
CONTINUOUS
 10
13.546365561
 20
-8.9654116651
 40
41.2546112935
100
AcDbArc
 50
179.3947797479
 51
179.6432713594
  0
ARC
  5
5DD
100
AcDbEntity
  8
IMPORT_IGES
100
AcDbCircle
 62
250
  6
CONTINUOUS
 10
13.546365561
 20
-8.9654116651
 40
41.0546112935
100
AcDbArc
 50
179.1096608859
 51
179.6397966976
  0
ARC
  5
5DE
100
AcDbEntity
  8
IMPORT_IGES
100
AcDbCircle
 62
7
  6
CONTINUOUS
 10
-18.7496481124
 20
-4.4076115634
 40
0.2
100
AcDbArc
 50
180.0000000002
 51
270.0
  0
ARC
  5
5DF
100
AcDbEntity
  8
IMPORT_IGES
100
AcDbCircle
 62
7
  6
CONTINUOUS
 10
-18.1496481124
 20
-4.4076115634
 40
0.2
100
AcDbArc
 50
270.0
 51
359.9999999998
  0
ARC
  5
5E0
100
AcDbEntity
  8
IMPORT_IGES
100
AcDbCircle
 62
7
  6
CONTINUOUS
 10
-18.1496481124
 20
-1.0872269466
 40
0.2
100
AcDbArc
 50
0.0000000038
 51
90.0
  0
ARC
  5
5E1
100
AcDbEntity
  8
IMPORT_IGES
100
AcDbCircle
 62
7
  6
CONTINUOUS
 10
-19.0496481124
 20
-3.7076115634
 40
0.1
100
AcDbArc
 50
0.0
 51
90.0
  0
ARC
  5
5E2
100
AcDbEntity
  8
IMPORT_IGES
100
AcDbCircle
 62
7
  6
CONTINUOUS
 10
-39.676459656
 20
11.2927151846
 40
2.0
100
AcDbArc
 50
29.0543979959
 51
90.0
  0
ARC
  5
5E3
100
AcDbEntity
  8
IMPORT_IGES
100
AcDbCircle
 62
7
  6
CONTINUOUS
 10
-41.9496481124
 20
5.7967140853
 40
0.3
100
AcDbArc
 50
180.0
 51
238.7961116824
  0
ARC
  5
5E4
100
AcDbEntity
  8
IMPORT_IGES
100
AcDbCircle
 62
7
  6
CONTINUOUS
 10
-41.9496481124
 20
10.4184221155
 40
0.3
100
AcDbArc
 50
135.0
 51
180.0
  0
ARC
  5
5E5
100
AcDbEntity
  8
IMPORT_IGES
100
AcDbCircle
 62
7
  6
CONTINUOUS
 10
-40.6753840437
 20
11.6926861842
 40
0.3
100
AcDbArc
 50
90.0
 51
135.0
  0
ARC
  5
5E6
100
AcDbEntity
  8
IMPORT_IGES
100
AcDbCircle
 62
7
  6
CONTINUOUS
 10
-44.4645457788
 20
7.8426861842
 40
0.2
100
AcDbArc
 50
90.0
 51
128.3130906738
  0
ARC
  5
5E7
100
AcDbEntity
  8
IMPORT_IGES
100
AcDbCircle
 62
7
  6
CONTINUOUS
 10
-45.5996481124
 20
6.9458152046
 40
0.2
100
AcDbArc
 50
128.3130906738
 51
180.0
  0
ARC
  5
5E8
100
AcDbEntity
  8
0
100
AcDbCircle
 62
7
  6
CONTINUOUS
 10
-56.2585671775
 20
21.8189637867
 40
1.0
100
AcDbArc
 50
93.0
 51
177.5907686986
  0
ARC
  5
5E9
100
AcDbEntity
  8
RACCORDO
100
AcDbCircle
 62
7
  6
CONTINUOUS
 10
-39.6996481138
 20
19.8426861842
 40
0.5
100
AcDbArc
 50
270.0
 51
360.0
  0
ARC
  5
5EA
100
AcDbEntity
  8
RACCORDO
100
AcDbCircle
 62
7
  6
CONTINUOUS
 10
-47.3996481138
 20
14.3667542729
 40
0.2
100
AcDbArc
 50
0.0001563699
 51
89.5000013646
  0
ARC
  5
5EB
100
AcDbEntity
  8
RACCORDO
100
AcDbCircle
 62
7
  6
CONTINUOUS
 10
-45.9996482289
 20
14.3545372049
 40
0.2
100
AcDbArc
 50
359.9999997122
 51
89.4999670152
  0
ARC
  5
5EC
100
AcDbEntity
  8
RACCORDO
100
AcDbCircle
 62
7
  6
CONTINUOUS
 10
-39.3996481138
 20
20.9598434717
 40
0.2
100
AcDbArc
 50
0.0
 51
45.0
  0
ARC
  5
5ED
100
AcDbEntity
  8
IMPORT_IGES
100
AcDbCircle
 62
7
  6
CONTINUOUS
 10
-27.609634067
 20
10.9926861842
 40
2.0
100
AcDbArc
 50
83.2133624709
 51
90.0015513311
  0
ARC
  5
5EE
100
AcDbEntity
  8
IMPORT_IGES
100
AcDbCircle
 62
250
  6
CONTINUOUS
 10
-27.609634067
 20
10.9926861842
 40
1.85
100
AcDbArc
 50
83.2133624709
 51
86.2117449684
  0
ARC
  5
5EF
100
AcDbEntity
  8
IMPORT_IGES
100
AcDbCircle
 62
7
  6
CONTINUOUS
 10
-36.4582267562
 20
11.9852217977
 40
0.1000043576
100
AcDbArc
 50
151.6082698905
 51
179.9809062852
  0
ARC
  5
5F0
100
AcDbEntity
  8
IMPORT_IGES
100
AcDbCircle
 62
250
  6
CONTINUOUS
 10
-21.5518995153
 20
7.0324726232
 40
2.292703028
100
AcDbArc
 50
187.234766955
 51
204.3277593093
  0
ARC
  5
5F1
100
AcDbEntity
  8
IMPORT_IGES
100
AcDbCircle
 62
7
  6
CONTINUOUS
 10
-21.5518995153
 20
7.0324726232
 40
1.992703028
100
AcDbArc
 50
187.234766955
 51
204.3277593093
  0
ARC
  5
5F2
100
AcDbEntity
  8
IMPORT_IGES
100
AcDbCircle
 62
7
  6
CONTINUOUS
 10
-23.7923511405
 20
2.3137681674
 40
1.992703028
100
AcDbArc
 50
0.0
 51
24.3277593093
  0
ARC
  5
5F3
100
AcDbEntity
  8
IMPORT_IGES
100
AcDbCircle
 62
250
  6
CONTINUOUS
 10
-21.5518995153
 20
7.0324726232
 40
1.892703028
100
AcDbArc
 50
187.234766955
 51
204.3277593093
  0
ARC
  5
5F4
100
AcDbEntity
  8
IMPORT_IGES
100
AcDbCircle
 62
250
  6
CONTINUOUS
 10
-23.7923511405
 20
2.3137681674
 40
1.692703028
100
AcDbArc
 50
0.0
 51
24.3277593094
  0
ARC
  5
5F5
100
AcDbEntity
  8
IMPORT_IGES
100
AcDbCircle
 62
7
  6
CONTINUOUS
 10
-18.1746481124
 20
6.2899755518
 40
0.2
100
AcDbArc
 50
0.0000000007
 51
90.0
  0
ARC
  5
5F6
100
AcDbEntity
  8
IMPORT_IGES
100
AcDbCircle
 62
7
  6
CONTINUOUS
 10
-18.4746481124
 20
6.2899755518
 40
0.2
100
AcDbArc
 50
90.0
 51
179.9999999998
  0
ARC
  5
5F7
100
AcDbEntity
  8
IMPORT_IGES
100
AcDbCircle
 62
7
  6
CONTINUOUS
 10
-18.1746481124
 20
3.2926861842
 40
0.2
100
AcDbArc
 50
269.9999993662
 51
360.0
  0
ARC
  5
5F8
100
AcDbEntity
  8
IMPORT_IGES
100
AcDbCircle
 62
7
  6
CONTINUOUS
 10
-18.7746481124
 20
5.7472748224
 40
0.1
100
AcDbArc
 50
270.0
 51
359.9999999999
  0
ARC
  5
5F9
100
AcDbEntity
  8
IMPORT_IGES
100
AcDbCircle
 62
7
  6
CONTINUOUS
 10
-22.7996481124
 20
9.0102829046
 40
1.0
100
AcDbArc
 50
0.0
 51
45.0
  0
ARC
  5
5FA
100
AcDbEntity
  8
IMPORT_IGES
100
AcDbCircle
 62
7
  6
CONTINUOUS
 10
-25.5431877032
 20
11.7538224954
 40
1.0
100
AcDbArc
 50
44.9999999868
 51
83.2133624709
  0
ARC
  5
5FB
100
AcDbEntity
  8
IMPORT_IGES
100
AcDbCircle
 62
250
  6
CONTINUOUS
 10
-25.5431877032
 20
11.7538224954
 40
0.85
100
AcDbArc
 50
45.0
 51
83.2133624708
  0
ARC
  5
5FC
100
AcDbEntity
  8
IMPORT_IGES
100
AcDbCircle
 62
250
  6
CONTINUOUS
 10
-22.7996481124
 20
9.0102829046
 40
0.85
100
AcDbArc
 50
0.0
 51
44.9999999999
  0
ARC
  5
5FD
100
AcDbEntity
  8
IMPORT_IGES
100
AcDbCircle
 62
250
  6
CONTINUOUS
 10
-24.4190912955
 20
9.8248725543
 40
0.6
100
AcDbArc
 50
7.234766955
 51
53.0
  0
ARC
  5
5FE
100
AcDbEntity
  8
IMPORT_IGES
100
AcDbCircle
 62
7
  6
CONTINUOUS
 10
-24.4190912955
 20
9.8248725543
 40
0.5
100
AcDbArc
 50
7.2347669552
 51
53.0
  0
ARC
  5
5FF
100
AcDbEntity
  8
IMPORT_IGES
100
AcDbCircle
 62
250
  6
CONTINUOUS
 10
-24.4190912955
 20
9.8248725543
 40
0.2
100
AcDbArc
 50
7.234766955
 51
53.0
  0
ARC
  5
600
100
AcDbEntity
  8
IMPORT_IGES
100
AcDbCircle
 62
7
  6
CONTINUOUS
 10
-27.83759947
 20
12.8427327376
 40
0.1499487497
100
AcDbArc
 50
1.3360329259
 51
89.999821595
  0
ARC
  5
601
100
AcDbEntity
  8
IMPORT_IGES
100
AcDbCircle
 62
7
  6
CONTINUOUS
 10
-28.8127891124
 20
13.0926861842
 40
0.1
100
AcDbArc
 50
180.0
 51
270.0
  0
ARC
  5
602
100
AcDbEntity
  8
IMPORT_IGES
100
AcDbCircle
 62
7
  6
CONTINUOUS
 10
-29.0127891124
 20
13.0926861842
 40
0.1
100
AcDbArc
 50
0.0
 51
90.0
  0
ARC
  5
603
100
AcDbEntity
  8
IMPORT_IGES
100
AcDbCircle
 62
7
  6
CONTINUOUS
 10
-29.5127891124
 20
13.0926861842
 40
0.1
100
AcDbArc
 50
90.0
 51
180.0
  0
ARC
  5
604
100
AcDbEntity
  8
IMPORT_IGES
100
AcDbCircle
 62
7
  6
CONTINUOUS
 10
-29.7127891124
 20
13.0926861842
 40
0.1
100
AcDbArc
 50
270.0
 51
360.0
  0
ARC
  5
605
100
AcDbEntity
  8
IMPORT_IGES
100
AcDbCircle
 62
7
  6
CONTINUOUS
 10
-34.5124281124
 20
13.0926861842
 40
0.1
100
AcDbArc
 50
180.0
 51
270.0
  0
ARC
  5
606
100
AcDbEntity
  8
IMPORT_IGES
100
AcDbCircle
 62
7
  6
CONTINUOUS
 10
-34.7124281124
 20
13.0926861842
 40
0.1
100
AcDbArc
 50
0.0
 51
90.0
  0
ARC
  5
607
100
AcDbEntity
  8
IMPORT_IGES
100
AcDbCircle
 62
7
  6
CONTINUOUS
 10
-35.2124281124
 20
13.0926861842
 40
0.1
100
AcDbArc
 50
90.0
 51
180.0
  0
ARC
  5
608
100
AcDbEntity
  8
IMPORT_IGES
100
AcDbCircle
 62
7
  6
CONTINUOUS
 10
-35.4124281124
 20
13.0926861842
 40
0.1
100
AcDbArc
 50
270.0
 51
360.0
  0
ARC
  5
609
100
AcDbEntity
  8
RACCORDO
100
AcDbCircle
 62
7
  6
CONTINUOUS
 10
442.3003518862
 20
0.8426861842
 40
500.0
100
AcDbArc
 50
179.4013599543
 51
180.2649057832
  0
ARC
  5
60A
100
AcDbEntity
  8
RACCORDO
100
AcDbCircle
 62
7
  6
CONTINUOUS
 10
442.3003518862
 20
0.8426861842
 40
500.0
100
AcDbArc
 50
180.6101091986
 51
180.7649414215
  0
ARC
  5
60B
100
AcDbEntity
  8
0
100
AcDbCircle
 62
7
  6
CONTINUOUS
 10
442.3003518862
 20
0.8426861842
 40
500.0
100
AcDbArc
 50
177.5907686986
 51
182.4092313014
  0
ELLIPSE
  5
60C
100
AcDbEntity
  8
0
100
AcDbEllipse
 62
7
  6
CONTINUOUS
 10
10.5438733426
 20
-21.0566276428
 30
0.0
 11
-0.1582391023
 21
0.4751033573
 31
0.0
 40
0.9984778551
 41
-3.4626430041
 42
-1.8927600658
  0
ELLIPSE
  5
60D
100
AcDbEntity
  8
0
100
AcDbEllipse
 62
7
  6
CONTINUOUS
 10
10.5438733426
 20
22.7420000112
 30
0.0
 11
0.1582391023
 21
0.4751033573
 31
0.0
 40
0.9984778551
 41
-1.2488325878
 42
0.3210503505
  0
ELLIPSE
  5
60E
100
AcDbEntity
  8
0
100
AcDbEllipse
 62
7
  6
CONTINUOUS
 10
-10.7559743294
 20
-21.0566276428
 30
0.0
 11
0.1582391023
 21
0.4751033573
 31
0.0
 40
0.9984778551
 41
-4.3904252414
 42
-2.8205423031
  0
ELLIPSE
  5
60F
100
AcDbEntity
  8
0
100
AcDbEllipse
 62
7
  6
CONTINUOUS
 10
-10.7559743294
 20
22.7420000112
 30
0.0
 11
-0.1582391023
 21
0.4751033573
 31
0.0
 40
0.9984778551
 41
-0.3210503505
 42
1.2488325878
  0
ELLIPSE
  5
610
100
AcDbEntity
  8
IMPORT_IGES
100
AcDbEllipse
 62
7
  6
CONTINUOUS
 10
-39.6145531335
 20
-8.1861098237
 30
0.0
 11
0.532937255
 21
-0.3407598677
 31
0.0
 40
0.4742590135
 41
-1.5707963268
 42
-0.6381843874
  0
ENDSEC
  0
SECTION
  2
OBJECTS
  0
DICTIONARY
  5
C
100
AcDbDictionary
280
0
281
1
  3
ACAD_GROUP
350
D
  3
ACAD_MLINESTYLE
350
17
  3
ACAD_LAYOUT
350
1A
  3
ACAD_PLOTSETTINGS
350
19
  3
ACAD_PLOTSTYLENAME
350
E
  0
DICTIONARY
  5
D
102
{ACAD_REACTORS
330
C
102
}
100
AcDbDictionary
280
0
281
1
  0
ACDBDICTIONARYWDFLT
  5
E
102
{ACAD_REACTORS
330
C
102
}
100
AcDbDictionary
281
1
  3
Normal
350
F
100
AcDbDictionaryWithDefault
340
F
  0
DICTIONARY
  5
17
102
{ACAD_REACTORS
330
C
102
}
100
AcDbDictionary
280
0
281
1
  3
Standard
350
18
  0
DICTIONARY
  5
19
102
{ACAD_REACTORS
330
C
102
}
100
AcDbDictionary
281
1
  0
DICTIONARY
  5
1A
102
{ACAD_REACTORS
330
C
102
}
100
AcDbDictionary
281
1
  3
Model
350
611
  3
Layout1
350
612
  0
ACDBPLACEHOLDER
  5
F
102
{ACAD_REACTORS
330
E
102
}
  0
MLINESTYLE
  5
18
102
{ACAD_REACTORS
330
17
102
}
100
AcDbMlineStyle
  2
STANDARD
 70
0
  3

 62
256
 51
90.0
 52
90.0
 71
2
 49
0.5
 62
256
  6
BYLAYER
 49
-0.5
 62
256
  6
BYLAYER
  0
LAYOUT
  5
611
102
{ACAD_REACTORS
330
1A
102
}
100
AcDbPlotSettings
  1

  2
none_device
  4
ISO_A4_(297.00_x_210.00_MM)
  6

 40
0.0
 41
0.0
 42
0.0
 43
0.0
 44
297.0
 45
210.0
 46
0.0
 47
0.0
 48
0.0
 49
0.0
140
0.0
141
0.0
142
1.0
143
1.0
 70
1024
 72
1
 73
0
 74
0
  7

 75
0
147
1.0
148
0.0
149
0.0
100
AcDbLayout
  1
Model
 70
0
 71
0
 10
0.0
 20
0.0
 11
297.0
 21
210.0
 12
0.0
 22
0.0
 32
0.0
 14
0.0
 24
0.0
 34
0.0
 15
0.0
 25
0.0
 35
0.0
146
0.0
 13
0.0
 23
0.0
 33
0.0
 16
1.0
 26
0.0
 36
0.0
 17
0.0
 27
1.0
 37
0.0
 76
0
330
21C
345
0
346
0
  0
LAYOUT
  5
612
102
{ACAD_REACTORS
330
1A
102
}
100
AcDbPlotSettings
  1

  2
none_device
  4
ISO_A4_(297.00_x_210.00_MM)
  6

 40
0.0
 41
0.0
 42
0.0
 43
0.0
 44
297.0
 45
210.0
 46
0.0
 47
0.0
 48
0.0
 49
0.0
140
0.0
141
0.0
142
1.0
143
1.0
 70
0
 72
1
 73
0
 74
0
  7

 75
0
147
1.0
148
0.0
149
0.0
100
AcDbLayout
  1
Layout1
 70
0
 71
1
 10
0.0
 20
0.0
 11
297.0
 21
210.0
 12
0.0
 22
0.0
 32
0.0
 14
0.0
 24
0.0
 34
0.0
 15
0.0
 25
0.0
 35
0.0
146
0.0
 13
0.0
 23
0.0
 33
0.0
 16
1.0
 26
0.0
 36
0.0
 17
0.0
 27
1.0
 37
0.0
 76
0
330
21D
345
0
346
0
  0
ENDSEC
  0
EOF
