  0
SECTION
  2
HEADER
  9
$ACADVER
  1
AC1024
  9
$DWGCODEPAGE
  3
ANSI_1252
  9
$EXTMAX
 10
297.0
 20
210.0
 30
0.0
  9
$EXTMIN
 10
0.0
 20
0.0
 30
0.0
  9
$LIMMIN
 10
0.0
 20
0.0
  9
$LIMMAX
 10
297.0
 20
210.0
  9
$VIEWCTR
 10
148.5
 20
105.0
  9
$VIEWSIZE
 40
210.0
  9
$CLAYER
  8
0
  9
$LTSCALE
 40
16.335
  9
$CELTYPE
  6
BYLAYER
  9
$DIMSCALE
 40
1.0
  9
$DIMASZ
 40
3.0
  9
$DIMEXO
 40
0.5
  9
$DIMDLI
 40
11.286
  9
$DIMEXE
 40
1.5
  9
$DIMCEN
 40
2.673
  9
$DIMLFAC
 40
1.0
  9
$DIMBLK
  1
_FILLED
  9
$DIMALT
 70
0
  9
$DIMALTF
 40
0.0393700787
  9
$DIMTXT
 40
3.0
  9
$DIMTOL
 70
1
  9
$DIMLIM
 70
0
  9
$DIMTFAC
 40
1.0
  9
$DIMTP
 40
0.01
  9
$DIMTM
 40
0.01
  9
$DIMGAP
 40
0.625
  9
$DIMDSEP
 70
44
  9
$AUNITS
 70
0
  9
$PDMODE
 70
3
  9
$PDSIZE
 40
3.0
  9
$HANDSEED
  5
453
  9
$TILEMODE
 70
1
  9
$MEASUREMENT
 70
1
  9
$INSUNITS
 70
4
  0
ENDSEC
  0
SECTION
  2
CLASSES
  0
CLASS
  1
ACDBDICTIONARYWDFLT
  2
AcDbDictionaryWithDefault
  3
AutoCAD 2000
 90
0
 91
1
280
0
281
0
  0
CLASS
  1
ACDBPLACEHOLDER
  2
AcDbPlaceHolder
  3
AutoCAD 2000
 90
0
 91
1
280
0
281
0
  0
CLASS
  1
LAYOUT
  2
AcDbLayout
  3
AutoCAD 2000
 90
0
 91
0
280
0
281
0
  0
ENDSEC
  0
SECTION
  2
TABLES
  0
TABLE
  2
VPORT
  5
8
100
AcDbSymbolTable
 70
2
  0
VPORT
  5
1F4
100
AcDbSymbolTableRecord
100
AcDbViewportTableRecord
  2
*ACTIVE
 70
0
 10
0.0
 20
0.0
 11
1.0
 21
1.0
 12
148.5
 22
105.0
 13
0.0
 23
0.0
 14
1.0
 24
1.0
 15
0.0
 25
0.0
 16
0.0
 26
0.0
 36
1.0
 17
0.0
 27
0.0
 37
0.0
 40
210.0
 41
1.4142857143
 42
50.0
 43
0.0
 44
0.0
 50
0.0
 51
0.0
 71
0
 72
100
 73
1
 74
1
 75
0
 76
0
 77
0
 78
0
  0
ENDTAB
  0
TABLE
  2
LTYPE
  5
5
100
AcDbSymbolTable
 70
6
  0
LTYPE
  5
14
100
AcDbSymbolTableRecord
100
AcDbLinetypeTableRecord
  2
BYBLOCK
 70
0
  3

 72
65
 73
0
 40
0.0
  0
LTYPE
  5
15
100
AcDbSymbolTableRecord
100
AcDbLinetypeTableRecord
  2
BYLAYER
 70
0
  3

 72
65
 73
0
 40
0.0
  0
LTYPE
  5
16
100
AcDbSymbolTableRecord
100
AcDbLinetypeTableRecord
  2
CONTINUOUS
 70
64
  3
Solid line
 72
65
 73
0
 40
0.0
  0
LTYPE
  5
1F5
100
AcDbSymbolTableRecord
100
AcDbLinetypeTableRecord
  2
CENTER
 70
64
  3
____ _ ____ _ ____ _ ____ _ ____ _ ____ _ ____
 72
65
 73
4
 40
0.6
 49
0.375
 74
0
 49
-0.075
 74
0
 49
0.075
 74
0
 49
-0.075
 74
0
  0
LTYPE
  5
1F6
100
AcDbSymbolTableRecord
100
AcDbLinetypeTableRecord
  2
HIDDEN
 70
64
  3
- - - - - - - - - - - - - - - - - - - -
 72
65
 73
2
 40
0.2
 49
0.1
 74
0
 49
-0.1
 74
0
  0
LTYPE
  5
1F7
100
AcDbSymbolTableRecord
100
AcDbLinetypeTableRecord
  2
PHANTOM
 70
64
  3
_____ _ _ _____ _ _ _____ _ _ _____
 72
65
 73
6
 40
0.8
 49
0.45
 74
0
 49
-0.05
 74
0
 49
0.1
 74
0
 49
-0.05
 74
0
 49
0.1
 74
0
 49
-0.05
 74
0
  0
LTYPE
  5
1F8
100
AcDbSymbolTableRecord
100
AcDbLinetypeTableRecord
  2
DOT
 70
64
  3
. . . . . . . . . . . . . . . . . . . .
 72
65
 73
2
 40
0.2
 49
0.1
 74
0
 49
-0.1
 74
0
  0
LTYPE
  5
1F9
100
AcDbSymbolTableRecord
100
AcDbLinetypeTableRecord
  2
DASHED
 70
64
  3
- - - - - - - - - - - - - - - - - - - -
 72
65
 73
2
 40
0.2
 49
0.1
 74
0
 49
-0.1
 74
0
  0
ENDTAB
  0
TABLE
  2
LAYER
  5
2
100
AcDbSymbolTable
 70
36
  0
LAYER
  5
10
100
AcDbSymbolTableRecord
100
AcDbLayerTableRecord
  2
0
 70
0
 62
7
  6
CONTINUOUS
370
-3
390
F
  0
LAYER
  5
1FA
100
AcDbSymbolTableRecord
100
AcDbLayerTableRecord
  2
DEFAULT_1
 70
0
 62
7
  6
CENTER
370
-3
390
F
  0
LAYER
  5
1FB
100
AcDbSymbolTableRecord
100
AcDbLayerTableRecord
  2
DEFAULT_2
 70
0
 62
7
  6
HIDDEN
370
-3
390
F
  0
LAYER
  5
1FC
100
AcDbSymbolTableRecord
100
AcDbLayerTableRecord
  2
DEFAULT_3
 70
0
 62
7
  6
PHANTOM
370
-3
390
F
  0
LAYER
  5
1FD
100
AcDbSymbolTableRecord
100
AcDbLayerTableRecord
  2
ASSI
 70
0
 62
7
  6
CONTINUOUS
370
-3
390
F
  0
LAYER
  5
1FE
100
AcDbSymbolTableRecord
100
AcDbLayerTableRecord
  2
COORDINATE
 70
0
 62
7
  6
CONTINUOUS
370
-3
390
F
  0
LAYER
  5
1FF
100
AcDbSymbolTableRecord
100
AcDbLayerTableRecord
  2
COORD_ORIGINE
 70
0
 62
7
  6
CONTINUOUS
370
-3
390
F
  0
LAYER
  5
200
100
AcDbSymbolTableRecord
100
AcDbLayerTableRecord
  2
COSMETICI
 70
0
 62
7
  6
CONTINUOUS
370
-3
390
F
  0
LAYER
  5
201
100
AcDbSymbolTableRecord
100
AcDbLayerTableRecord
  2
CURVE
 70
0
 62
7
  6
CONTINUOUS
370
-3
390
F
  0
LAYER
  5
202
100
AcDbSymbolTableRecord
100
AcDbLayerTableRecord
  2
DRAFT
 70
0
 62
7
  6
CONTINUOUS
370
-3
390
F
  0
LAYER
  5
203
100
AcDbSymbolTableRecord
100
AcDbLayerTableRecord
  2
IMPORT_FEATURES
 70
0
 62
7
  6
CONTINUOUS
370
-3
390
F
  0
LAYER
  5
204
100
AcDbSymbolTableRecord
100
AcDbLayerTableRecord
  2
INTF_1
 70
0
 62
7
  6
CONTINUOUS
370
-3
390
F
  0
LAYER
  5
205
100
AcDbSymbolTableRecord
100
AcDbLayerTableRecord
  2
INTF_8
 70
0
 62
7
  6
CONTINUOUS
370
-3
390
F
  0
LAYER
  5
206
100
AcDbSymbolTableRecord
100
AcDbLayerTableRecord
  2
NOTE
 70
0
 62
7
  6
CONTINUOUS
370
-3
390
F
  0
LAYER
  5
207
100
AcDbSymbolTableRecord
100
AcDbLayerTableRecord
  2
PIANI
 70
0
 62
7
  6
CONTINUOUS
370
-3
390
F
  0
LAYER
  5
208
100
AcDbSymbolTableRecord
100
AcDbLayerTableRecord
  2
PIANI_ORIGINE
 70
0
 62
7
  6
CONTINUOUS
370
-3
390
F
  0
LAYER
  5
209
100
AcDbSymbolTableRecord
100
AcDbLayerTableRecord
  2
PUNTI
 70
0
 62
7
  6
CONTINUOUS
370
-3
390
F
  0
LAYER
  5
20A
100
AcDbSymbolTableRecord
100
AcDbLayerTableRecord
  2
RACCORDO
 70
0
 62
7
  6
CONTINUOUS
370
-3
390
F
  0
LAYER
  5
20B
100
AcDbSymbolTableRecord
100
AcDbLayerTableRecord
  2
SIMBOLI
 70
0
 62
7
  6
CONTINUOUS
370
-3
390
F
  0
LAYER
  5
20C
100
AcDbSymbolTableRecord
100
AcDbLayerTableRecord
  2
SMUSSO
 70
0
 62
7
  6
CONTINUOUS
370
-3
390
F
  0
LAYER
  5
20D
100
AcDbSymbolTableRecord
100
AcDbLayerTableRecord
  2
SNAPLINE
 70
0
 62
7
  6
CONTINUOUS
370
-3
390
F
  0
LAYER
  5
20E
100
AcDbSymbolTableRecord
100
AcDbLayerTableRecord
  2
SUPERFICI
 70
0
 62
7
  6
CONTINUOUS
370
-3
390
F
  0
LAYER
  5
20F
100
AcDbSymbolTableRecord
100
AcDbLayerTableRecord
  2
TRASH
 70
0
 62
7
  6
CONTINUOUS
370
-3
390
F
  0
LAYER
  5
210
100
AcDbSymbolTableRecord
100
AcDbLayerTableRecord
  2
XSEC_DATUMS
 70
0
 62
7
  6
CONTINUOUS
370
-3
390
F
  0
LAYER
  5
211
100
AcDbSymbolTableRecord
100
AcDbLayerTableRecord
  2
Z030100_COP
 70
0
 62
7
  6
CONTINUOUS
370
-3
390
F
  0
ENDTAB
  0
TABLE
  2
STYLE
  5
3
100
AcDbSymbolTable
 70
1
  0
STYLE
  5
11
100
AcDbSymbolTableRecord
100
AcDbTextStyleTableRecord
  2
STANDARD
 70
0
 40
0.0
 41
0.8
 50
0.0
 71
0
 42
0.2
  3
txt
  4

  0
STYLE
  5
212
100
AcDbSymbolTableRecord
100
AcDbTextStyleTableRecord
  2
TEXTSTYLE_1
 70
0
 40
0.0
 41
0.8
 50
0.0
 71
0
 42
0.2
  3
gdt
  4

  0
ENDTAB
  0
TABLE
  2
VIEW
  5
6
100
AcDbSymbolTable
 70
0
  0
ENDTAB
  0
TABLE
  2
UCS
  5
7
100
AcDbSymbolTable
 70
0
  0
ENDTAB
  0
TABLE
  2
APPID
  5
9
100
AcDbSymbolTable
 70
1
  0
APPID
  5
213
100
AcDbSymbolTableRecord
100
AcDbRegAppTableRecord
  2
ACAD
 70
0
  0
ENDTAB
  0
TABLE
  2
BLOCK_RECORD
  5
1
100
AcDbSymbolTable
 70
0
  0
BLOCK_RECORD
  5
214
100
AcDbSymbolTableRecord
100
AcDbBlockTableRecord
  2
*Model_Space
  0
BLOCK_RECORD
  5
215
100
AcDbSymbolTableRecord
100
AcDbBlockTableRecord
  2
*Paper_Space
  0
BLOCK_RECORD
  5
216
100
AcDbSymbolTableRecord
100
AcDbBlockTableRecord
  2
_FILLED
  0
BLOCK_RECORD
  5
217
100
AcDbSymbolTableRecord
100
AcDbBlockTableRecord
  2
*D0
  0
BLOCK_RECORD
  5
218
100
AcDbSymbolTableRecord
100
AcDbBlockTableRecord
  2
*D1
  0
BLOCK_RECORD
  5
219
100
AcDbSymbolTableRecord
100
AcDbBlockTableRecord
  2
*D2
  0
ENDTAB
  0
TABLE
  2
DIMSTYLE
  5
A
100
AcDbSymbolTable
 70
1
100
AcDbDimStyleTable
 71
0
  0
DIMSTYLE
105
21A
100
AcDbSymbolTableRecord
100
AcDbDimStyleTableRecord
  2
STANDARD
 70
0
  3

  4

 40
1.0
 41
3.0
 42
0.5
 43
0.38
 44
1.5
 45
0.0
 46
0.0
 47
0.01
 48
0.01
140
3.0
141
0.09
142
0.0
143
25.4
144
1.0
145
0.0
146
1.0
147
0.625
 71
1
 72
0
 73
0
 74
0
 75
0
 76
0
 77
1
 78
8
 79
2
170
0
171
1
172
0
173
0
174
0
175
0
176
0
177
0
178
0
270
2
179
2
271
2
272
2
273
2
274
2
275
0
280
0
281
0
282
0
283
1
284
8
285
0
286
0
287
3
288
0
340
11
278
44
341
216
342
216
343
216
344
216
  0
DIMSTYLE
105
21B
100
AcDbSymbolTableRecord
100
AcDbDimStyleTableRecord
  2
DIMSTYLE_1
 70
0
  3

  4

 40
1.0
 41
3.0
 42
0.5
 43
0.38
 44
1.5
 45
0.0
 46
0.0
 47
0.0
 48
0.0
140
3.0
141
0.09
142
0.0
143
25.4
144
1.0
145
0.0
146
1.0
147
0.75
 71
0
 72
0
 73
0
 74
0
 75
0
 76
0
 77
1
 78
8
 79
2
170
0
171
1
172
0
173
0
174
0
175
0
176
0
177
0
178
0
270
2
179
2
271
2
272
2
273
2
274
2
275
0
280
0
281
0
282
0
283
1
284
8
285
0
286
0
287
3
288
0
340
11
278
44
341
216
342
216
343
216
344
216
  0
ENDTAB
  0
ENDSEC
  0
SECTION
  2
BLOCKS
  0
BLOCK
  5
20
100
AcDbEntity
  8
0
100
AcDbBlockBegin
  2
*Model_Space
 70
0
 10
0.0
 20
0.0
 30
0.0
  3
*Model_Space
  1

  0
ENDBLK
  5
21
100
AcDbEntity
  8
0
100
AcDbBlockEnd
  0
BLOCK
  5
1C
100
AcDbEntity
  8
0
100
AcDbBlockBegin
  2
*Paper_Space
 70
0
 10
0.0
 20
0.0
 30
0.0
  3
*Paper_Space
  1

  0
ENDBLK
  5
1D
100
AcDbEntity
  8
0
100
AcDbBlockEnd
  0
BLOCK
  5
21C
100
AcDbEntity
  8
0
100
AcDbBlockBegin
  2
_FILLED
 70
64
 10
0.0
 20
0.0
  3
_FILLED
  1

  0
SOLID
  5
21D
100
AcDbEntity
  8
0
  6
BYBLOCK
 62
0
100
AcDbTrace
 10
0.0
 20
0.0
 11
-1.0
 21
0.3166666667
 12
-1.0
 22
-0.3166666667
 13
-1.0
 23
-0.3166666667
  0
ENDBLK
  5
21E
100
AcDbEntity
  8
0
  6
BYBLOCK
 62
0
100
AcDbBlockEnd
  0
BLOCK
  5
21F
100
AcDbEntity
  8
0
100
AcDbBlockBegin
 62
7
  6
CONTINUOUS
  2
*D0
 70
65
 10
0.0
 20
0.0
  3
*D0
  1

  0
LINE
  5
220
100
AcDbEntity
  8
0
100
AcDbLine
 62
7
  6
CONTINUOUS
 10
-11.2560504934
 20
23.2424573321
 11
-11.2560504934
 21
35.8426861842
  0
LINE
  5
221
100
AcDbEntity
  8
0
100
AcDbLine
 62
7
  6
CONTINUOUS
 10
11.0439495066
 20
23.2424573321
 11
11.0439495066
 21
35.8426861842
  0
LINE
  5
222
100
AcDbEntity
  8
0
100
AcDbLine
 62
7
  6
CONTINUOUS
 10
-11.2560504934
 20
34.3426861842
 11
-0.1060504934
 21
34.3426861842
  0
LINE
  5
223
100
AcDbEntity
  8
0
100
AcDbLine
 62
7
  6
CONTINUOUS
 10
11.0439495066
 20
34.3426861842
 11
-0.1060504934
 21
34.3426861842
  0
INSERT
  5
224
100
AcDbEntity
  8
0
100
AcDbBlockReference
 62
7
  6
CONTINUOUS
  2
_FILLED
 10
-11.2560504934
 20
34.3426861842
 41
3.0
 42
3.0
 43
3.0
 50
180.0
  0
INSERT
  5
225
100
AcDbEntity
  8
0
100
AcDbBlockReference
 62
7
  6
CONTINUOUS
  2
_FILLED
 10
11.0439495066
 20
34.3426861842
 41
3.0
 42
3.0
 43
3.0
  0
ENDBLK
  5
226
100
AcDbEntity
  8
0
  6
BYBLOCK
 62
0
100
AcDbBlockEnd
  0
BLOCK
  5
227
100
AcDbEntity
  8
0
100
AcDbBlockBegin
 62
7
  6
CONTINUOUS
  2
*D1
 70
65
 10
0.0
 20
0.0
  3
*D1
  1

  0
LINE
  5
228
100
AcDbEntity
  8
0
100
AcDbLine
 62
7
  6
CONTINUOUS
 10
4.3672868542
 20
24.3426861842
 11
22.5439495066
 21
24.3426861842
  0
LINE
  5
229
100
AcDbEntity
  8
0
100
AcDbLine
 62
7
  6
CONTINUOUS
 10
4.3672868542
 20
-22.6573138158
 11
22.5439495066
 21
-22.6573138158
  0
LINE
  5
22A
100
AcDbEntity
  8
0
100
AcDbLine
 62
7
  6
CONTINUOUS
 10
21.0439495066
 20
24.3426861842
 11
21.0439495066
 21
0.8426861842
  0
LINE
  5
22B
100
AcDbEntity
  8
0
100
AcDbLine
 62
7
  6
CONTINUOUS
 10
21.0439495066
 20
-22.6573138158
 11
21.0439495066
 21
0.8426861842
  0
INSERT
  5
22C
100
AcDbEntity
  8
0
100
AcDbBlockReference
 62
7
  6
CONTINUOUS
  2
_FILLED
 10
21.0439495066
 20
24.3426861842
 41
3.0
 42
3.0
 43
3.0
 50
90.0
  0
INSERT
  5
22D
100
AcDbEntity
  8
0
100
AcDbBlockReference
 62
7
  6
CONTINUOUS
  2
_FILLED
 10
21.0439495066
 20
-22.6573138158
 41
3.0
 42
3.0
 43
3.0
 50
270.0
  0
ENDBLK
  5
22E
100
AcDbEntity
  8
0
  6
BYBLOCK
 62
0
100
AcDbBlockEnd
  0
BLOCK
  5
22F
100
AcDbEntity
  8
0
100
AcDbBlockBegin
 62
7
  6
CONTINUOUS
  2
*D2
 70
65
 10
0.0
 20
0.0
  3
*D2
  1

  0
LINE
  5
230
100
AcDbEntity
  8
0
100
AcDbLine
 62
7
  6
CONTINUOUS
 10
-20.7246481131
 20
4.4426861842
 11
-20.7246481131
 21
35.8426861842
  0
LINE
  5
231
100
AcDbEntity
  8
0
100
AcDbLine
 62
7
  6
CONTINUOUS
 10
-54.9246481131
 20
1.3426861842
 11
-54.9246481131
 21
35.8426861842
  0
LINE
  5
232
100
AcDbEntity
  8
0
100
AcDbLine
 62
7
  6
CONTINUOUS
 10
-20.7246481131
 20
34.3426861842
 11
-37.8246481131
 21
34.3426861842
  0
LINE
  5
233
100
AcDbEntity
  8
0
100
AcDbLine
 62
7
  6
CONTINUOUS
 10
-54.9246481131
 20
34.3426861842
 11
-37.8246481131
 21
34.3426861842
  0
INSERT
  5
234
100
AcDbEntity
  8
0
100
AcDbBlockReference
 62
7
  6
CONTINUOUS
  2
_FILLED
 10
-20.7246481131
 20
34.3426861842
 41
3.0
 42
3.0
 43
3.0
  0
INSERT
  5
235
100
AcDbEntity
  8
0
100
AcDbBlockReference
 62
7
  6
CONTINUOUS
  2
_FILLED
 10
-54.9246481131
 20
34.3426861842
 41
3.0
 42
3.0
 43
3.0
 50
180.0
  0
ENDBLK
  5
236
100
AcDbEntity
  8
0
  6
BYBLOCK
 62
0
100
AcDbBlockEnd
  0
ENDSEC
  0
SECTION
  2
ENTITIES
  0
DIMENSION
  5
237
100
AcDbEntity
  8
0
100
AcDbDimension
 62
7
  6
CONTINUOUS
  2
*D0
 10
11.0439495066
 20
34.3426861842
 11
-4.3917647791
 21
34.3426861842
 70
160
 71
2
 72
2
 41
0.9
 42
22.3
  3
DIMSTYLE_1
100
AcDbAlignedDimension
 13
-11.2560504934
 23
22.7424573321
 14
11.0439495066
 24
22.7424573321
100
AcDbRotatedDimension
  0
DIMENSION
  5
238
100
AcDbEntity
  8
0
100
AcDbDimension
 62
7
  6
CONTINUOUS
  2
*D1
 10
21.0439495066
 20
-22.6573138158
 11
21.0439495066
 21
-1.5144566729
 70
160
 71
2
 72
2
 41
0.9
 42
47.0
  3
DIMSTYLE_1
100
AcDbAlignedDimension
 13
3.8672868542
 23
24.3426861842
 14
3.8672868542
 24
-22.6573138158
 50
270.0
100
AcDbRotatedDimension
  0
DIMENSION
  5
239
100
AcDbEntity
  8
0
100
AcDbDimension
 62
7
  6
CONTINUOUS
  2
*D2
 10
-54.9246481131
 20
34.3426861842
 11
-42.1103623988
 21
34.3426861842
 70
160
 71
2
 72
2
 41
0.9
 42
34.2
  3
DIMSTYLE_1
100
AcDbAlignedDimension
 13
-20.7246481131
 23
3.9426861842
 14
-54.9246481131
 24
0.8426861842
 50
180.0
100
AcDbRotatedDimension
  0
LWPOLYLINE
  5
23A
100
AcDbEntity
  8
0
100
AcDbPolyline
 62
7
  6
CONTINUOUS
 90
5
 70
0
 43
0.3500000006
 10
2.8939494352
 20
36.8069718475
 10
3.2510923204
 20
37.0212563324
 10
3.2510923204
 20
37.6641143188
 10
2.8939494352
 20
38.0926878204
 10
2.0368066807
 20
38.0926878204
  0
LWPOLYLINE
  5
23B
100
AcDbEntity
  8
0
100
AcDbPolyline
 62
250
  6
CONTINUOUS
 90
16
 70
0
 10
-11.1065094035
 20
21.8399821009
 10
-11.102929637
 20
21.8421551156
 10
-11.0940318242
 20
21.844304847
 10
-11.0799113003
 20
21.8464082618
 10
-11.0607193586
 20
21.8484428232
 10
-11.03666163
 20
21.850386732
 10
-11.0079958795
 20
21.8522191603
 10
-10.9750292444
 20
21.8539204746
 10
-10.9381149436
 20
21.8554724465
 10
-10.8976484931
 20
21.8568584472
 10
-10.8540634679
 20
21.8580636267
 10
-10.8078268572
 20
21.859075072
 10
-10.75943406
 20
21.859881946
 10
-10.7094035779
 20
21.8604756034
 10
-10.6582714593
 20
21.8608496835
 10
-10.606585556
 20
21.8610001782
  0
LINE
  5
23C
100
AcDbEntity
  8
DRAFT
100
AcDbLine
 62
7
  6
CONTINUOUS
 10
-3.1060504934
 20
-22.6573138158
 11
-2.8873288346
 21
-22.6136761535
  0
LWPOLYLINE
  5
23D
100
AcDbEntity
  8
0
100
AcDbPolyline
 62
250
  6
CONTINUOUS
 90
16
 70
0
 10
10.4027476233
 20
-21.132220953
 10
10.4549745097
 20
-21.1294410958
 10
10.5066297382
 20
-21.1212272564
 10
10.5571480087
 20
-21.1076693552
 10
10.6059764809
 20
-21.0889157908
 10
10.652580787
 20
-21.0651718281
 10
10.6964508859
 20
-21.0366973636
 10
10.7371066991
 20
-21.0038040502
 10
10.7741033374
 20
-20.9668518891
 10
10.807035942
 20
-20.926245318
 10
10.8355441536
 20
-20.8824287494
 10
10.8593160418
 20
-20.8358817083
 10
10.8780915056
 20
-20.7871136062
 10
10.8916651301
 20
-20.7366581467
 10
10.8998884302
 20
-20.6850674832
 10
10.9026714709
 20
-20.6329061856
  0
LINE
  5
23E
100
AcDbEntity
  8
DRAFT
100
AcDbLine
 62
7
  6
CONTINUOUS
 10
3.8672868542
 20
-22.6573138158
 11
2.8939495066
 21
-22.6573138158
  0
LINE
  5
23F
100
AcDbEntity
  8
DRAFT
100
AcDbLine
 62
7
  6
CONTINUOUS
 10
-3.1060504934
 20
-22.6573138158
 11
-4.0793878411
 21
-22.6573138158
  0
LINE
  5
240
100
AcDbEntity
  8
DRAFT
100
AcDbLine
 62
7
  6
CONTINUOUS
 10
-2.8873288346
 20
-22.6136761535
 11
2.6752278478
 21
-22.6136761535
  0
LINE
  5
241
100
AcDbEntity
  8
DRAFT
100
AcDbLine
 62
7
  6
CONTINUOUS
 10
2.6752278478
 20
-21.688333264
 11
-2.8873288346
 21
-21.688333264
  0
LINE
  5
242
100
AcDbEntity
  8
DRAFT
100
AcDbLine
 62
7
  6
CONTINUOUS
 10
2.8939495066
 20
-21.5573138158
 11
10.5443301063
 21
-21.5573138158
  0
LINE
  5
243
100
AcDbEntity
  8
DRAFT
100
AcDbLine
 62
7
  6
CONTINUOUS
 10
-3.1060504934
 20
-21.5573138158
 11
-10.7564310932
 21
-21.5573138158
  0
LINE
  5
244
100
AcDbEntity
  8
DRAFT
100
AcDbLine
 62
7
  6
CONTINUOUS
 10
2.8939495066
 20
-22.6573138158
 11
2.6752278478
 21
-22.6136761535
  0
LWPOLYLINE
  5
245
100
AcDbEntity
  8
0
100
AcDbPolyline
 62
250
  6
CONTINUOUS
 90
16
 70
0
 10
-11.1065094035
 20
-20.1546097325
 10
-11.1029299303
 20
-20.156782773
 10
-11.0940323658
 20
-20.1589325304
 10
-11.0799120431
 20
-20.1610359711
 10
-11.0607202547
 20
-20.1630705578
 10
-11.0366626314
 20
-20.1650144908
 10
-11.007996939
 20
-20.1668469418
 10
-10.9750303167
 20
-20.168548277
 10
-10.9381159859
 20
-20.1701002674
 10
-10.897649466
 20
-20.1714862842
 10
-10.8540643363
 20
-20.1726914769
 10
-10.8078275904
 20
-20.1737029323
 10
-10.759434633
 20
-20.1745098132
 10
-10.7094039711
 20
-20.1751034742
 10
-10.6582716594
 20
-20.1754775545
 10
-10.606585556
 20
-20.1756280459
  0
LINE
  5
246
100
AcDbEntity
  8
DRAFT
100
AcDbLine
 62
7
  6
CONTINUOUS
 10
-3.1060504934
 20
23.2426861842
 11
-2.8873288346
 21
23.3737056324
  0
LWPOLYLINE
  5
247
100
AcDbEntity
  8
0
100
AcDbPolyline
 62
250
  6
CONTINUOUS
 90
15
 70
0
 10
10.4461706731
 20
-20.1754775552
 10
10.4973029854
 20
-20.1751034752
 10
10.5473336477
 20
-20.1745098143
 10
10.5957266056
 20
-20.1737029334
 10
10.6419633518
 20
-20.1726914778
 10
10.6855484818
 20
-20.171486285
 10
10.7260150018
 20
-20.1701002681
 10
10.7629293326
 20
-20.1685482775
 10
10.7958959548
 20
-20.1668469422
 10
10.824561647
 20
-20.1650144911
 10
10.8486192701
 20
-20.163070558
 10
10.8678110581
 20
-20.1610359712
 10
10.8819313803
 20
-20.1589325305
 10
10.8908289442
 20
-20.156782773
 10
10.8944084167
 20
-20.1546097325
  0
LINE
  5
248
100
AcDbEntity
  8
0
100
AcDbLine
 62
250
  6
CONTINUOUS
 10
10.4027476233
 20
-21.132220953
 11
-10.6148486101
 21
-21.132220953
  0
LINE
  5
249
100
AcDbEntity
  8
0
100
AcDbLine
 62
250
  6
CONTINUOUS
 10
10.4461706731
 20
-20.1754775552
 11
-10.606585556
 21
-20.1756280467
  0
LINE
  5
24A
100
AcDbEntity
  8
DRAFT
100
AcDbLine
 62
7
  6
CONTINUOUS
 10
-2.8873288346
 20
-21.688333264
 11
-3.1060504934
 21
-21.5573138158
  0
LWPOLYLINE
  5
24B
100
AcDbEntity
  8
0
100
AcDbPolyline
 62
250
  6
CONTINUOUS
 90
16
 70
0
 10
-11.1147724577
 20
-20.6329061856
 10
-11.1119894558
 20
-20.685067119
 10
-11.1037662581
 20
-20.7366574866
 10
-11.0901927798
 20
-20.7871127254
 10
-11.0714174852
 20
-20.8358806864
 10
-11.047645769
 20
-20.8824276636
 10
-11.0191377154
 20
-20.926244238
 10
-10.9862052363
 20
-20.9668508781
 10
-10.9492086774
 20
-21.0038031591
 10
-10.908552892
 20
-21.0366966242
 10
-10.8646827601
 20
-21.0651712593
 10
-10.8180783562
 20
-21.0889153956
 10
-10.7692497319
 20
-21.1076691161
 10
-10.7187312613
 20
-21.1212271423
 10
-10.6670757851
 20
-21.1294410652
 10
-10.6148486101
 20
-21.1322209528
  0
LWPOLYLINE
  5
24C
100
AcDbEntity
  8
0
100
AcDbPolyline
 62
250
  6
CONTINUOUS
 90
16
 70
0
 10
-11.1147724577
 20
22.318278554
 10
-11.111989301
 20
22.370440943
 10
-11.1037656937
 20
22.4220324937
 10
-11.0901916306
 20
22.472488615
 10
-11.0714156593
 20
22.5212571411
 10
-11.0476432542
 20
22.5678043744
 10
-11.0191345684
 20
22.6116209262
 10
-10.9862015861
 20
22.6522272908
 10
-10.9492047089
 20
22.6891790931
 10
-10.9085488113
 20
22.7220719517
 10
-10.8646788106
 20
22.7505459042
 10
-10.8180747974
 20
22.7742893462
 10
-10.7692467818
 20
22.793042442
 10
-10.7187291125
 20
22.8065999673
 10
-10.6670746286
 20
22.8148135555
 10
-10.6148486101
 20
22.8175933214
  0
LWPOLYLINE
  5
24D
100
AcDbEntity
  8
0
100
AcDbPolyline
 62
250
  6
CONTINUOUS
 90
7
 70
0
 10
-11.1107132323
 20
22.2468116475
 10
-11.1113396303
 20
22.2665090759
 10
-11.1119962887
 20
22.2833423199
 10
-11.1126692922
 20
22.2969700252
 10
-11.1133540023
 20
22.3072784069
 10
-11.1140550575
 20
22.3143812498
 10
-11.1147724577
 20
22.318278554
  0
LINE
  5
24E
100
AcDbEntity
  8
0
100
AcDbLine
 62
250
  6
CONTINUOUS
 10
-11.109552957
 20
22.1987122253
 11
-11.1107132323
 21
22.2468116475
  0
LINE
  5
24F
100
AcDbEntity
  8
0
100
AcDbLine
 62
250
  6
CONTINUOUS
 10
-11.1085485375
 20
22.1406424566
 11
-11.109552957
 21
22.1987122253
  0
LINE
  5
250
100
AcDbEntity
  8
0
100
AcDbLine
 62
250
  6
CONTINUOUS
 10
-11.1073817336
 20
22.0376722209
 11
-11.1085485375
 21
22.1406424566
  0
LINE
  5
251
100
AcDbEntity
  8
0
100
AcDbLine
 62
250
  6
CONTINUOUS
 10
-10.6091024828
 20
22.5223788531
 11
-10.6107846712
 21
22.6743292889
  0
LINE
  5
252
100
AcDbEntity
  8
0
100
AcDbLine
 62
250
  6
CONTINUOUS
 10
-11.1066882642
 20
21.9216994365
 11
-11.1073817336
 21
22.0376722209
  0
LINE
  5
253
100
AcDbEntity
  8
0
100
AcDbLine
 62
250
  6
CONTINUOUS
 10
-10.6071691469
 20
22.1806951805
 11
-10.6091024828
 21
22.5223788531
  0
LINE
  5
254
100
AcDbEntity
  8
0
100
AcDbLine
 62
250
  6
CONTINUOUS
 10
-10.6035409397
 20
17.1921672396
 11
-10.6071691469
 21
22.1806951805
  0
LINE
  5
255
100
AcDbEntity
  8
0
100
AcDbLine
 62
7
  6
CONTINUOUS
 10
-11.2560504934
 20
-21.0570849637
 11
-11.2560504934
 21
22.7424573321
  0
LWPOLYLINE
  5
256
100
AcDbEntity
  8
0
100
AcDbPolyline
 62
250
  6
CONTINUOUS
 90
9
 70
0
 10
-11.1034647923
 20
-15.4897909312
 10
-11.1011813334
 20
-10.8243502163
 10
-11.0996590267
 20
-6.1582875876
 10
-11.0988978715
 20
-1.4911894796
 10
-11.0988978686
 20
3.1765305421
 10
-11.0996590202
 20
7.8436317807
 10
-11.1011813269
 20
12.5097006705
 10
-11.103464788
 20
17.1751507773
 10
-11.1066882642
 20
21.9216994365
  0
LWPOLYLINE
  5
257
100
AcDbEntity
  8
0
100
AcDbPolyline
 62
250
  6
CONTINUOUS
 90
8
 70
0
 10
-10.6035409395
 20
-15.5067948688
 10
-10.6012574771
 20
-10.8365342274
 10
-10.5997351689
 20
-6.1652539013
 10
-10.5989740149
 20
-1.4933618075
 10
-10.5989740151
 20
3.1787341818
 10
-10.5997351693
 20
7.850626275
 10
-10.6012574775
 20
12.5219065999
 10
-10.6035409397
 20
17.1921672396
  0
LINE
  5
258
100
AcDbEntity
  8
0
100
AcDbLine
 62
250
  6
CONTINUOUS
 10
-11.1068619334
 20
-20.2757622562
 11
-11.1034647923
 21
-15.4897909312
  0
LINE
  5
259
100
AcDbEntity
  8
0
100
AcDbLine
 62
250
  6
CONTINUOUS
 10
-10.6077946473
 20
-20.6427724654
 11
-10.6035409395
 21
-15.5067948688
  0
LINE
  5
25A
100
AcDbEntity
  8
0
100
AcDbLine
 62
250
  6
CONTINUOUS
 10
-11.1077198972
 20
-20.3883739013
 11
-11.1068619334
 21
-20.2757622562
  0
LINE
  5
25B
100
AcDbEntity
  8
0
100
AcDbLine
 62
250
  6
CONTINUOUS
 10
-10.609625392
 20
-20.8928694784
 11
-10.6077946473
 21
-20.6427724654
  0
LINE
  5
25C
100
AcDbEntity
  8
0
100
AcDbLine
 62
250
  6
CONTINUOUS
 10
-10.6107846712
 20
-20.9889569205
 11
-10.609625392
 21
-20.8928694784
  0
LINE
  5
25D
100
AcDbEntity
  8
0
100
AcDbLine
 62
250
  6
CONTINUOUS
 10
-11.1085485375
 20
-20.4552700881
 11
-11.1077198972
 21
-20.3883739013
  0
LINE
  5
25E
100
AcDbEntity
  8
0
100
AcDbLine
 62
250
  6
CONTINUOUS
 10
-11.109552957
 20
-20.513339857
 11
-11.1085485375
 21
-20.4552700881
  0
LWPOLYLINE
  5
25F
100
AcDbEntity
  8
0
100
AcDbPolyline
 62
250
  6
CONTINUOUS
 90
5
 70
0
 10
-10.6120662094
 20
22.7474548846
 10
-10.6127393007
 20
22.7747622663
 10
-10.6134252172
 20
22.7956395553
 10
-10.6141283204
 20
22.8099483341
 10
-10.6148486101
 20
22.8175933214
  0
LINE
  5
260
100
AcDbEntity
  8
0
100
AcDbLine
 62
250
  6
CONTINUOUS
 10
-10.6107846712
 20
22.6743292889
 11
-10.6120662094
 21
22.7474548846
  0
LWPOLYLINE
  5
261
100
AcDbEntity
  8
0
100
AcDbPolyline
 62
7
  6
CONTINUOUS
 90
3
 70
0
 43
0.3500000006
 10
1.0368066587
 20
35.3784025726
 10
0.9653780959
 20
35.1641135559
 10
0.8225209701
 20
34.87840242
  0
LWPOLYLINE
  5
262
100
AcDbEntity
  8
RACCORDO
100
AcDbPolyline
 62
250
  6
CONTINUOUS
 90
3
 70
0
 10
-7.0750854688
 20
-2.8800716392
 10
-7.0752395845
 20
3.0844945088
 10
-7.0748512188
 20
6.0667110516
  0
LWPOLYLINE
  5
263
100
AcDbEntity
  8
0
100
AcDbPolyline
 62
250
  6
CONTINUOUS
 90
6
 70
0
 10
-10.6148486101
 20
-21.132220953
 10
-10.6141283204
 20
-21.1245759657
 10
-10.6134252172
 20
-21.1102671868
 10
-10.6127393007
 20
-21.0893898979
 10
-10.6120662094
 20
-21.0620825162
 10
-10.6107846712
 20
-20.9889569205
  0
LWPOLYLINE
  5
264
100
AcDbEntity
  8
0
100
AcDbPolyline
 62
250
  6
CONTINUOUS
 90
8
 70
0
 10
-11.1147724577
 20
-20.6329061856
 10
-11.1140550575
 20
-20.6290088812
 10
-11.1133540023
 20
-20.6219060381
 10
-11.1126692922
 20
-20.6115976564
 10
-11.1119962887
 20
-20.5979699513
 10
-11.1113396303
 20
-20.5811367076
 10
-11.1107132323
 20
-20.5614392793
 10
-11.109552957
 20
-20.513339857
  0
LINE
  5
265
100
AcDbEntity
  8
DRAFT
100
AcDbLine
 62
7
  6
CONTINUOUS
 10
-6.5560504934
 20
-2.3573138158
 11
-6.5560504934
 21
5.5426861842
  0
LINE
  5
266
100
AcDbEntity
  8
0
100
AcDbLine
 62
7
  6
CONTINUOUS
 10
-6.1060504934
 20
5.1926861842
 11
-6.1060504934
 21
-1.8073138158
  0
LWPOLYLINE
  5
267
100
AcDbEntity
  8
RACCORDO
100
AcDbPolyline
 62
250
  6
CONTINUOUS
 90
3
 70
0
 10
-6.5752222323
 20
-2.3764855547
 10
-6.5753282999
 20
2.9158399237
 10
-6.5750142363
 20
5.5616499271
  0
LINE
  5
268
100
AcDbEntity
  8
RACCORDO
100
AcDbLine
 62
250
  6
CONTINUOUS
 10
2.9124491386
 20
-5.8324887072
 11
-3.1245501981
 21
-5.8324887072
  0
LINE
  5
269
100
AcDbEntity
  8
RACCORDO
100
AcDbLine
 62
250
  6
CONTINUOUS
 10
2.4125253755
 20
-5.3258896847
 11
-2.6246263623
 21
-5.3258896847
  0
LINE
  5
26A
100
AcDbEntity
  8
DRAFT
100
AcDbLine
 62
7
  6
CONTINUOUS
 10
2.3939495066
 20
-5.3073138158
 11
-2.6060504934
 21
-5.3073138158
  0
LINE
  5
26B
100
AcDbEntity
  8
SMUSSO
100
AcDbLine
 62
7
  6
CONTINUOUS
 10
1.9439495066
 20
-4.8073138158
 11
-2.1560504934
 21
-4.8073138158
  0
LINE
  5
26C
100
AcDbEntity
  8
RACCORDO
100
AcDbLine
 62
250
  6
CONTINUOUS
 10
4.0627318173
 20
-4.4814203553
 11
2.9127318878
 21
-4.4814203553
  0
LINE
  5
26D
100
AcDbEntity
  8
RACCORDO
100
AcDbLine
 62
250
  6
CONTINUOUS
 10
-3.1248328732
 20
-4.4814203553
 11
-4.2748328746
 21
-4.4814203553
  0
LINE
  5
26E
100
AcDbEntity
  8
RACCORDO
100
AcDbLine
 62
250
  6
CONTINUOUS
 10
-4.2748328746
 20
-4.4814203553
 11
-4.275085461
 21
-2.8800716392
  0
LINE
  5
26F
100
AcDbEntity
  8
RACCORDO
100
AcDbLine
 62
250
  6
CONTINUOUS
 10
-3.7749975844
 20
-3.9762609067
 11
-3.7752221956
 21
-2.376485518
  0
LINE
  5
270
100
AcDbEntity
  8
0
100
AcDbLine
 62
7
  6
CONTINUOUS
 10
-3.8060504934
 20
2.1926861842
 11
-3.8060504934
 21
5.1926861842
  0
LINE
  5
271
100
AcDbEntity
  8
DRAFT
100
AcDbLine
 62
7
  6
CONTINUOUS
 10
-3.7560504934
 20
-3.9573138158
 11
-3.7560504934
 21
-2.3573138158
  0
LINE
  5
272
100
AcDbEntity
  8
0
100
AcDbLine
 62
7
  6
CONTINUOUS
 10
-3.4560504934
 20
-3.4073138158
 11
-3.4560504934
 21
-1.1073138158
  0
LINE
  5
273
100
AcDbEntity
  8
0
100
AcDbLine
 62
7
  6
CONTINUOUS
 10
-3.4060504934
 20
2.1926861842
 11
-3.4060504934
 21
5.1926861842
  0
LINE
  5
274
100
AcDbEntity
  8
0
100
AcDbLine
 62
250
  6
CONTINUOUS
 10
-11.2560504934
 20
-21.0570849637
 11
-11.1147724577
 21
-20.6329061856
  0
LINE
  5
275
100
AcDbEntity
  8
RACCORDO
100
AcDbLine
 62
250
  6
CONTINUOUS
 10
3.562808092
 20
-3.9761724012
 11
2.412808092
 21
-3.9761724012
  0
LINE
  5
276
100
AcDbEntity
  8
RACCORDO
100
AcDbLine
 62
250
  6
CONTINUOUS
 10
-2.6249090789
 20
-3.9761724012
 11
-3.7749090789
 21
-3.9761724012
  0
LINE
  5
277
100
AcDbEntity
  8
DRAFT
100
AcDbLine
 62
7
  6
CONTINUOUS
 10
3.5439495066
 20
-3.9573138158
 11
2.3939495066
 21
-3.9573138158
  0
LINE
  5
278
100
AcDbEntity
  8
DRAFT
100
AcDbLine
 62
7
  6
CONTINUOUS
 10
-2.6060504934
 20
-3.9573138158
 11
-3.7560504934
 21
-3.9573138158
  0
LINE
  5
279
100
AcDbEntity
  8
0
100
AcDbLine
 62
7
  6
CONTINUOUS
 10
-3.4560504934
 20
-3.4073138158
 11
-2.1560504934
 21
-3.4073138158
  0
LINE
  5
27A
100
AcDbEntity
  8
0
100
AcDbLine
 62
7
  6
CONTINUOUS
 10
1.9439495066
 20
-3.4073138158
 11
3.2439495066
 21
-3.4073138158
  0
LINE
  5
27B
100
AcDbEntity
  8
RACCORDO
100
AcDbLine
 62
250
  6
CONTINUOUS
 10
6.8629844495
 20
-2.8800716392
 11
4.062984482
 21
-2.8800716392
  0
LINE
  5
27C
100
AcDbEntity
  8
RACCORDO
100
AcDbLine
 62
250
  6
CONTINUOUS
 10
-4.275085461
 20
-2.8800716392
 11
-7.0750854688
 21
-2.8800716392
  0
LINE
  5
27D
100
AcDbEntity
  8
0
100
AcDbLine
 62
250
  6
CONTINUOUS
 10
-11.1147724577
 20
22.318278554
 11
-11.2560504934
 21
22.7424573321
  0
LINE
  5
27E
100
AcDbEntity
  8
RACCORDO
100
AcDbLine
 62
250
  6
CONTINUOUS
 10
-3.1245501981
 20
-5.8324887072
 11
-3.1248328732
 21
-4.4814203553
  0
LINE
  5
27F
100
AcDbEntity
  8
RACCORDO
100
AcDbLine
 62
250
  6
CONTINUOUS
 10
-2.6247384627
 20
-5.3260430612
 11
-2.6249975214
 21
-3.9762608437
  0
LINE
  5
280
100
AcDbEntity
  8
DRAFT
100
AcDbLine
 62
7
  6
CONTINUOUS
 10
-3.1060504934
 20
-22.6573138158
 11
-3.1060504934
 21
-21.5573138158
  0
LINE
  5
281
100
AcDbEntity
  8
DRAFT
100
AcDbLine
 62
7
  6
CONTINUOUS
 10
-3.1060504934
 20
23.2426861842
 11
-3.1060504934
 21
24.3426861842
  0
LINE
  5
282
100
AcDbEntity
  8
0
100
AcDbLine
 62
7
  6
CONTINUOUS
 10
-2.9560504934
 20
-2.1573138158
 11
-2.9560504934
 21
-1.1073138158
  0
LINE
  5
283
100
AcDbEntity
  8
DRAFT
100
AcDbLine
 62
7
  6
CONTINUOUS
 10
-2.8873288346
 20
-22.6136761535
 11
-2.8873288346
 21
-21.688333264
  0
LINE
  5
284
100
AcDbEntity
  8
DRAFT
100
AcDbLine
 62
7
  6
CONTINUOUS
 10
-2.8873288346
 20
23.3737056324
 11
-2.8873288346
 21
24.2990485219
  0
LINE
  5
285
100
AcDbEntity
  8
0
100
AcDbLine
 62
7
  6
CONTINUOUS
 10
-2.8060504934
 20
2.1926861842
 11
-2.8060504934
 21
5.1926861842
  0
LINE
  5
286
100
AcDbEntity
  8
DRAFT
100
AcDbLine
 62
7
  6
CONTINUOUS
 10
-2.6060504934
 20
-5.3073138158
 11
-2.6060504934
 21
-3.9573138158
  0
LINE
  5
287
100
AcDbEntity
  8
0
100
AcDbLine
 62
7
  6
CONTINUOUS
 10
-2.4060504934
 20
2.1926861842
 11
-2.4060504934
 21
5.1926861842
  0
LINE
  5
288
100
AcDbEntity
  8
SMUSSO
100
AcDbLine
 62
7
  6
CONTINUOUS
 10
-2.1560504934
 20
-5.3073138158
 11
-2.1560504934
 21
-3.4073138158
  0
LINE
  5
289
100
AcDbEntity
  8
0
100
AcDbLine
 62
7
  6
CONTINUOUS
 10
-1.8060504934
 20
2.1926861842
 11
-1.8060504934
 21
5.1926861842
  0
LINE
  5
28A
100
AcDbEntity
  8
0
100
AcDbLine
 62
250
  6
CONTINUOUS
 10
-10.7564310932
 20
-21.5573138158
 11
-10.6148486101
 21
-21.132220953
  0
LWPOLYLINE
  5
28B
100
AcDbEntity
  8
RACCORDO
100
AcDbPolyline
 62
7
  6
CONTINUOUS
 90
7
 70
0
 10
-6.6688501008
 20
-2.472304398
 10
-6.6278599554
 20
-2.4305974493
 10
-6.6104991972
 20
-2.413271594
 10
-6.5964328817
 20
-2.3986553326
 10
-6.5860480489
 20
-2.3872452128
 10
-6.5789576588
 20
-2.3796530306
 10
-6.5751617114
 20
-2.3764250338
  0
LWPOLYLINE
  5
28C
100
AcDbEntity
  8
RACCORDO
100
AcDbPolyline
 62
7
  6
CONTINUOUS
 90
3
 70
0
 10
-6.7437625051
 20
-2.5477813267
 10
-6.692479488
 20
-2.4959365016
 10
-6.6688501008
 20
-2.472304398
  0
LINE
  5
28D
100
AcDbEntity
  8
RACCORDO
100
AcDbLine
 62
7
  6
CONTINUOUS
 10
-6.5560504934
 20
-2.3573138158
 11
-6.5752222323
 21
-2.3764855547
  0
LINE
  5
28E
100
AcDbEntity
  8
RACCORDO
100
AcDbLine
 62
7
  6
CONTINUOUS
 10
-7.0444127435
 20
-2.8496017077
 11
-6.7437625051
 21
-2.5477813267
  0
LINE
  5
28F
100
AcDbEntity
  8
RACCORDO
100
AcDbLine
 62
7
  6
CONTINUOUS
 10
-7.0750855672
 20
-2.8800716392
 11
-7.0444127435
 21
-2.8496017077
  0
LINE
  5
290
100
AcDbEntity
  8
RACCORDO
100
AcDbLine
 62
250
  6
CONTINUOUS
 10
6.3630607246
 20
-2.3764250338
 11
3.5630607246
 21
-2.3764250338
  0
LINE
  5
291
100
AcDbEntity
  8
RACCORDO
100
AcDbLine
 62
250
  6
CONTINUOUS
 10
-3.7751617114
 20
-2.3764250338
 11
-6.5751617114
 21
-2.3764250338
  0
LINE
  5
292
100
AcDbEntity
  8
DRAFT
100
AcDbLine
 62
7
  6
CONTINUOUS
 10
6.3439495066
 20
-2.3573138158
 11
3.5439495066
 21
-2.3573138158
  0
LINE
  5
293
100
AcDbEntity
  8
DRAFT
100
AcDbLine
 62
7
  6
CONTINUOUS
 10
-3.7560504934
 20
-2.3573138158
 11
-6.5560504934
 21
-2.3573138158
  0
LINE
  5
294
100
AcDbEntity
  8
0
100
AcDbLine
 62
7
  6
CONTINUOUS
 10
-3.4560504934
 20
-2.1573138158
 11
-2.9560504934
 21
-2.1573138158
  0
LINE
  5
295
100
AcDbEntity
  8
0
100
AcDbLine
 62
7
  6
CONTINUOUS
 10
2.7439495066
 20
-2.1573138158
 11
3.2439495066
 21
-2.1573138158
  0
LINE
  5
296
100
AcDbEntity
  8
0
100
AcDbLine
 62
7
  6
CONTINUOUS
 10
-6.1060504934
 20
-1.8073138158
 11
-3.4560504934
 21
-1.8073138158
  0
LINE
  5
297
100
AcDbEntity
  8
0
100
AcDbLine
 62
7
  6
CONTINUOUS
 10
3.2439495066
 20
-1.8073138158
 11
5.8939495066
 21
-1.8073138158
  0
LINE
  5
298
100
AcDbEntity
  8
0
100
AcDbLine
 62
7
  6
CONTINUOUS
 10
-3.4560504934
 20
-1.1073138158
 11
3.2439495066
 21
-1.1073138158
  0
LWPOLYLINE
  5
299
100
AcDbEntity
  8
RACCORDO
100
AcDbPolyline
 62
7
  6
CONTINUOUS
 90
6
 70
0
 10
2.4126374865
 20
-5.3260430784
 10
2.4165965177
 20
-5.3297981093
 10
2.423825461
 20
-5.3377820704
 10
2.4343243164
 20
-5.3494991799
 10
2.4484822142
 20
-5.3644065609
 10
2.4659100241
 20
-5.382039027
  0
LINE
  5
29A
100
AcDbEntity
  8
RACCORDO
100
AcDbLine
 62
7
  6
CONTINUOUS
 10
2.8817252461
 20
-5.8019584574
 11
2.9124492249
 21
-5.8324887072
  0
LINE
  5
29B
100
AcDbEntity
  8
RACCORDO
100
AcDbLine
 62
7
  6
CONTINUOUS
 10
2.9127319457
 20
-4.4814203553
 11
2.882085273
 21
-4.4509731422
  0
LINE
  5
29C
100
AcDbEntity
  8
RACCORDO
100
AcDbLine
 62
7
  6
CONTINUOUS
 10
2.3939495066
 20
-5.3073138158
 11
2.4125253755
 21
-5.3258896847
  0
LINE
  5
29D
100
AcDbEntity
  8
RACCORDO
100
AcDbLine
 62
7
  6
CONTINUOUS
 10
2.3939495066
 20
-3.9573138158
 11
2.4128965965
 21
-3.9762609057
  0
LWPOLYLINE
  5
29E
100
AcDbEntity
  8
RACCORDO
100
AcDbPolyline
 62
7
  6
CONTINUOUS
 90
3
 70
0
 10
2.5298420435
 20
-4.0964148856
 10
2.5062012964
 20
-4.0726737606
 10
2.4652337368
 20
-4.0307801224
  0
LWPOLYLINE
  5
29F
100
AcDbEntity
  8
RACCORDO
100
AcDbPolyline
 62
7
  6
CONTINUOUS
 90
6
 70
0
 10
2.4652337368
 20
-4.0307801224
 10
2.4479069243
 20
-4.013372169
 10
2.4338851917
 20
-3.9986497604
 10
2.423554412
 20
-3.9871241103
 10
2.4165287121
 20
-3.9794410975
 10
2.412808092
 20
-3.9761724012
  0
LINE
  5
2A0
100
AcDbEntity
  8
RACCORDO
100
AcDbLine
 62
7
  6
CONTINUOUS
 10
2.6668121768
 20
-5.5859357889
 11
2.8817252461
 21
-5.8019584574
  0
LINE
  5
2A1
100
AcDbEntity
  8
RACCORDO
100
AcDbLine
 62
7
  6
CONTINUOUS
 10
2.882085273
 20
-4.4509731422
 11
2.5811753938
 21
-4.1484830709
  0
LINE
  5
2A2
100
AcDbEntity
  8
RACCORDO
100
AcDbLine
 62
7
  6
CONTINUOUS
 10
2.5816950872
 20
-5.5000178336
 11
2.6668121768
 21
-5.5859357889
  0
LINE
  5
2A3
100
AcDbEntity
  8
RACCORDO
100
AcDbLine
 62
7
  6
CONTINUOUS
 10
2.5811753938
 20
-4.1484830709
 11
2.5298420435
 21
-4.0964148856
  0
LWPOLYLINE
  5
2A4
100
AcDbEntity
  8
RACCORDO
100
AcDbPolyline
 62
7
  6
CONTINUOUS
 90
3
 70
0
 10
2.5069359564
 20
-5.4242095956
 10
2.5554790899
 20
-5.4733406119
 10
2.5816950872
 20
-5.5000178336
  0
LINE
  5
2A5
100
AcDbEntity
  8
RACCORDO
100
AcDbLine
 62
7
  6
CONTINUOUS
 10
2.4659100241
 20
-5.382039027
 11
2.5069359564
 21
-5.4242095956
  0
LINE
  5
2A6
100
AcDbEntity
  8
RACCORDO
100
AcDbLine
 62
7
  6
CONTINUOUS
 10
2.4126374812
 20
-5.3260430698
 11
2.4125253755
 21
-5.3258896847
  0
LINE
  5
2A7
100
AcDbEntity
  8
0
100
AcDbLine
 62
250
  6
CONTINUOUS
 10
-10.6148486101
 20
22.8175933214
 11
-10.7564310932
 21
23.2426861842
  0
LINE
  5
2A8
100
AcDbEntity
  8
0
100
AcDbLine
 62
7
  6
CONTINUOUS
 10
-1.4060504934
 20
2.1926861842
 11
-1.4060504934
 21
5.1926861842
  0
LINE
  5
2A9
100
AcDbEntity
  8
0
100
AcDbLine
 62
7
  6
CONTINUOUS
 10
-0.8060504934
 20
2.1926861842
 11
-0.8060504934
 21
5.1926861842
  0
LINE
  5
2AA
100
AcDbEntity
  8
0
100
AcDbLine
 62
7
  6
CONTINUOUS
 10
-0.4060504934
 20
2.1926861842
 11
-0.4060504934
 21
5.1926861842
  0
LWPOLYLINE
  5
2AB
100
AcDbEntity
  8
RACCORDO
100
AcDbPolyline
 62
7
  6
CONTINUOUS
 90
7
 70
0
 10
-3.8691176123
 20
-2.4725804373
 10
-3.8281295856
 20
-2.4308749286
 10
-3.8107208837
 20
-2.4135098631
 10
-3.7966012748
 20
-2.398827649
 10
-3.7861656606
 20
-2.3873400337
 10
-3.7790191394
 20
-2.3796831228
 10
-3.7751617114
 20
-2.3764250338
  0
LWPOLYLINE
  5
2AC
100
AcDbEntity
  8
RACCORDO
100
AcDbPolyline
 62
7
  6
CONTINUOUS
 90
3
 70
0
 10
-3.943818756
 20
-2.547839149
 10
-3.892696937
 20
-2.4961597367
 10
-3.8691176123
 20
-2.4725804373
  0
LINE
  5
2AD
100
AcDbEntity
  8
RACCORDO
100
AcDbLine
 62
7
  6
CONTINUOUS
 10
-3.7560504934
 20
-2.3573138158
 11
-3.7751617114
 21
-2.3764250338
  0
LINE
  5
2AE
100
AcDbEntity
  8
RACCORDO
100
AcDbLine
 62
7
  6
CONTINUOUS
 10
-4.2442151929
 20
-2.8494037083
 11
-3.943818756
 21
-2.547839149
  0
LINE
  5
2AF
100
AcDbEntity
  8
RACCORDO
100
AcDbLine
 62
7
  6
CONTINUOUS
 10
-4.2750855672
 20
-2.8800716392
 11
-4.2442151929
 21
-2.8494037083
  0
LWPOLYLINE
  5
2B0
100
AcDbEntity
  8
0
100
AcDbPolyline
 62
7
  6
CONTINUOUS
 90
2
 70
0
 43
0.3500000006
 10
20.2939493637
 20
-0.5144571075
 10
18.7939500389
 20
-0.5144571075
  0
LWPOLYLINE
  5
2B1
100
AcDbEntity
  8
0
100
AcDbPolyline
 62
7
  6
CONTINUOUS
 90
4
 70
0
 43
0.3500000006
 10
17.9368064346
 20
0.8426855164
 10
17.2939495811
 20
0.8426855164
 10
17.2939495811
 20
2.3426859741
 10
20.2939493637
 20
1.4855435028
  0
LINE
  5
2B2
100
AcDbEntity
  8
RACCORDO
100
AcDbLine
 62
7
  6
CONTINUOUS
 10
-7.0748513423
 20
6.0667110516
 11
-7.0439201621
 21
6.0359788522
  0
LINE
  5
2B3
100
AcDbEntity
  8
RACCORDO
100
AcDbLine
 62
7
  6
CONTINUOUS
 10
4.0627319457
 20
-4.4814203553
 11
4.0317967172
 21
-4.4506838693
  0
LINE
  5
2B4
100
AcDbEntity
  8
RACCORDO
100
AcDbLine
 62
7
  6
CONTINUOUS
 10
-6.5560504934
 20
5.5426861842
 11
-6.5749274883
 21
5.5615631791
  0
LINE
  5
2B5
100
AcDbEntity
  8
RACCORDO
100
AcDbLine
 62
7
  6
CONTINUOUS
 10
3.5439495066
 20
-3.9573138158
 11
3.562808092
 21
-3.9761724012
  0
LWPOLYLINE
  5
2B6
100
AcDbEntity
  8
RACCORDO
100
AcDbPolyline
 62
7
  6
CONTINUOUS
 90
6
 70
0
 10
-6.6277555432
 20
5.6165426989
 10
-6.6103577622
 20
5.5990837749
 10
-6.59625689
 20
5.5842732905
 10
-6.5858501806
 20
5.5726433226
 10
-6.57874038
 20
5.5648727085
 10
-6.5749274883
 20
5.5615631791
  0
LWPOLYLINE
  5
2B7
100
AcDbEntity
  8
RACCORDO
100
AcDbPolyline
 62
7
  6
CONTINUOUS
 90
3
 70
0
 10
-6.6922903478
 20
5.6820805445
 10
-6.6687218361
 20
5.6584222052
 10
-6.6277555432
 20
5.6165426989
  0
LWPOLYLINE
  5
2B8
100
AcDbEntity
  8
RACCORDO
100
AcDbPolyline
 62
7
  6
CONTINUOUS
 90
6
 70
0
 10
3.6156268224
 20
-4.0311872974
 10
3.598229775
 20
-4.0137221192
 10
3.5841301553
 20
-3.9989030732
 10
3.5737253731
 20
-3.9872635911
 10
3.5666180187
 20
-3.9794853718
 10
3.562808092
 20
-3.9761724012
  0
LWPOLYLINE
  5
2B9
100
AcDbEntity
  8
RACCORDO
100
AcDbPolyline
 62
7
  6
CONTINUOUS
 90
3
 70
0
 10
3.6801594497
 20
-4.0967420006
 10
3.6565916597
 20
-4.0730783963
 10
3.6156268224
 20
-4.0311872974
  0
LINE
  5
2BA
100
AcDbEntity
  8
RACCORDO
100
AcDbLine
 62
7
  6
CONTINUOUS
 10
-7.0439201621
 20
6.0359788522
 11
-6.7433899277
 21
5.73389717
  0
LINE
  5
2BB
100
AcDbEntity
  8
RACCORDO
100
AcDbLine
 62
7
  6
CONTINUOUS
 10
4.0317967172
 20
-4.4506838693
 11
3.7312575467
 21
-4.1485677638
  0
LINE
  5
2BC
100
AcDbEntity
  8
RACCORDO
100
AcDbLine
 62
7
  6
CONTINUOUS
 10
-6.7433899277
 20
5.73389717
 11
-6.6922903478
 21
5.6820805445
  0
LINE
  5
2BD
100
AcDbEntity
  8
RACCORDO
100
AcDbLine
 62
7
  6
CONTINUOUS
 10
3.7312575467
 20
-4.1485677638
 11
3.6801594497
 21
-4.0967420006
  0
LINE
  5
2BE
100
AcDbEntity
  8
0
100
AcDbLine
 62
7
  6
CONTINUOUS
 10
0.1939495066
 20
2.1926861842
 11
0.1939495066
 21
5.1926861842
  0
LINE
  5
2BF
100
AcDbEntity
  8
0
100
AcDbLine
 62
7
  6
CONTINUOUS
 10
0.5939495066
 20
2.1926861842
 11
0.5939495066
 21
5.1926861842
  0
LINE
  5
2C0
100
AcDbEntity
  8
0
100
AcDbLine
 62
7
  6
CONTINUOUS
 10
1.1939495066
 20
2.1926861842
 11
1.1939495066
 21
5.1926861842
  0
LINE
  5
2C1
100
AcDbEntity
  8
0
100
AcDbLine
 62
7
  6
CONTINUOUS
 10
1.5939495066
 20
2.1926861842
 11
1.5939495066
 21
5.1926861842
  0
LINE
  5
2C2
100
AcDbEntity
  8
RACCORDO
100
AcDbLine
 62
7
  6
CONTINUOUS
 10
-2.6247384627
 20
-5.3260430612
 11
-2.6246263623
 21
-5.3258896847
  0
LWPOLYLINE
  5
2C3
100
AcDbEntity
  8
RACCORDO
100
AcDbPolyline
 62
7
  6
CONTINUOUS
 90
7
 70
0
 10
-3.8683022832
 20
-4.0726737606
 10
-3.8273347237
 20
-4.0307801224
 10
-3.8100079112
 20
-4.013372169
 10
-3.7959861785
 20
-3.9986497604
 10
-3.7856553988
 20
-3.9871241103
 10
-3.7786296989
 20
-3.9794410975
 10
-3.7749090789
 20
-3.9761724012
  0
LWPOLYLINE
  5
2C4
100
AcDbEntity
  8
RACCORDO
100
AcDbPolyline
 62
7
  6
CONTINUOUS
 90
7
 70
0
 10
-2.7186926466
 20
-4.0730783963
 10
-2.6777278092
 20
-4.0311872974
 10
-2.6603307618
 20
-4.0137221192
 10
-2.6462311421
 20
-3.9989030732
 10
-2.63582636
 20
-3.9872635911
 10
-2.6287190055
 20
-3.9794853718
 10
-2.6249090789
 20
-3.9761724012
  0
LWPOLYLINE
  5
2C5
100
AcDbEntity
  8
RACCORDO
100
AcDbPolyline
 62
7
  6
CONTINUOUS
 90
7
 70
0
 10
6.4566208492
 20
5.6584222052
 10
6.4156545564
 20
5.6165426989
 10
6.3982567753
 20
5.5990837749
 10
6.3841559031
 20
5.5842732905
 10
6.3737491937
 20
5.5726433226
 10
6.3666393932
 20
5.5648727085
 10
6.3628265015
 20
5.5615631791
  0
LWPOLYLINE
  5
2C6
100
AcDbEntity
  8
RACCORDO
100
AcDbPolyline
 62
7
  6
CONTINUOUS
 90
3
 70
0
 10
-3.9432763806
 20
-4.1484830709
 10
-3.8919430303
 20
-4.0964148856
 10
-3.8683022832
 20
-4.0726737606
  0
LWPOLYLINE
  5
2C7
100
AcDbEntity
  8
RACCORDO
100
AcDbPolyline
 62
7
  6
CONTINUOUS
 90
3
 70
0
 10
-2.7933585335
 20
-4.1485677638
 10
-2.7422604365
 20
-4.0967420006
 10
-2.7186926466
 20
-4.0730783963
  0
LWPOLYLINE
  5
2C8
100
AcDbEntity
  8
RACCORDO
100
AcDbPolyline
 62
7
  6
CONTINUOUS
 90
3
 70
0
 10
6.5312889409
 20
5.73389717
 10
6.480189361
 20
5.6820805445
 10
6.4566208492
 20
5.6584222052
  0
LINE
  5
2C9
100
AcDbEntity
  8
RACCORDO
100
AcDbLine
 62
7
  6
CONTINUOUS
 10
-4.2441862599
 20
-4.4509731422
 11
-3.9432763806
 21
-4.1484830709
  0
LINE
  5
2CA
100
AcDbEntity
  8
RACCORDO
100
AcDbLine
 62
7
  6
CONTINUOUS
 10
6.8318191753
 20
6.0359788522
 11
6.5312889409
 21
5.73389717
  0
LINE
  5
2CB
100
AcDbEntity
  8
RACCORDO
100
AcDbLine
 62
7
  6
CONTINUOUS
 10
-3.093897704
 20
-4.4506838693
 11
-2.7933585335
 21
-4.1485677638
  0
LINE
  5
2CC
100
AcDbEntity
  8
RACCORDO
100
AcDbLine
 62
7
  6
CONTINUOUS
 10
-3.7560504934
 20
-3.9573138158
 11
-3.7749975844
 21
-3.9762609067
  0
LINE
  5
2CD
100
AcDbEntity
  8
RACCORDO
100
AcDbLine
 62
7
  6
CONTINUOUS
 10
6.3439495066
 20
5.5426861842
 11
6.3629132598
 21
5.5616499375
  0
LINE
  5
2CE
100
AcDbEntity
  8
RACCORDO
100
AcDbLine
 62
7
  6
CONTINUOUS
 10
-2.6060504934
 20
-3.9573138158
 11
-2.6249090789
 21
-3.9761724012
  0
LINE
  5
2CF
100
AcDbEntity
  8
RACCORDO
100
AcDbLine
 62
7
  6
CONTINUOUS
 10
-4.2748329326
 20
-4.4814203553
 11
-4.2441862599
 21
-4.4509731422
  0
LINE
  5
2D0
100
AcDbEntity
  8
RACCORDO
100
AcDbLine
 62
7
  6
CONTINUOUS
 10
6.8627503554
 20
6.0667110516
 11
6.8318191753
 21
6.0359788522
  0
LINE
  5
2D1
100
AcDbEntity
  8
RACCORDO
100
AcDbLine
 62
7
  6
CONTINUOUS
 10
-3.1248329326
 20
-4.4814203553
 11
-3.093897704
 21
-4.4506838693
  0
LINE
  5
2D2
100
AcDbEntity
  8
0
100
AcDbLine
 62
7
  6
CONTINUOUS
 10
3.5939495066
 20
2.1926861842
 11
3.1939495066
 21
2.1926861842
  0
LINE
  5
2D3
100
AcDbEntity
  8
0
100
AcDbLine
 62
7
  6
CONTINUOUS
 10
2.5939495066
 20
2.1926861842
 11
2.1939495066
 21
2.1926861842
  0
LINE
  5
2D4
100
AcDbEntity
  8
0
100
AcDbLine
 62
7
  6
CONTINUOUS
 10
1.5939495066
 20
2.1926861842
 11
1.1939495066
 21
2.1926861842
  0
LINE
  5
2D5
100
AcDbEntity
  8
0
100
AcDbLine
 62
7
  6
CONTINUOUS
 10
0.5939495066
 20
2.1926861842
 11
0.1939495066
 21
2.1926861842
  0
LINE
  5
2D6
100
AcDbEntity
  8
0
100
AcDbLine
 62
7
  6
CONTINUOUS
 10
-0.4060504934
 20
2.1926861842
 11
-0.8060504934
 21
2.1926861842
  0
LINE
  5
2D7
100
AcDbEntity
  8
0
100
AcDbLine
 62
7
  6
CONTINUOUS
 10
-1.4060504934
 20
2.1926861842
 11
-1.8060504934
 21
2.1926861842
  0
LINE
  5
2D8
100
AcDbEntity
  8
0
100
AcDbLine
 62
7
  6
CONTINUOUS
 10
-2.4060504934
 20
2.1926861842
 11
-2.8060504934
 21
2.1926861842
  0
LINE
  5
2D9
100
AcDbEntity
  8
0
100
AcDbLine
 62
7
  6
CONTINUOUS
 10
-3.4060504934
 20
2.1926861842
 11
-3.8060504934
 21
2.1926861842
  0
LINE
  5
2DA
100
AcDbEntity
  8
RACCORDO
100
AcDbLine
 62
7
  6
CONTINUOUS
 10
4.0629845803
 20
-2.8800716392
 11
4.0323117567
 21
-2.8496017077
  0
LWPOLYLINE
  5
2DB
100
AcDbEntity
  8
RACCORDO
100
AcDbPolyline
 62
7
  6
CONTINUOUS
 90
6
 70
0
 10
3.6157589686
 20
-2.4305974493
 10
3.5983982104
 20
-2.413271594
 10
3.5843318949
 20
-2.3986553326
 10
3.5739470621
 20
-2.3872452128
 10
3.566856672
 20
-2.3796530306
 10
3.5630607246
 20
-2.3764250338
  0
LINE
  5
2DC
100
AcDbEntity
  8
RACCORDO
100
AcDbLine
 62
7
  6
CONTINUOUS
 10
3.5439495066
 20
-2.3573138158
 11
3.5631212423
 21
-2.3764855515
  0
LWPOLYLINE
  5
2DD
100
AcDbEntity
  8
RACCORDO
100
AcDbPolyline
 62
7
  6
CONTINUOUS
 90
3
 70
0
 10
3.6803785011
 20
-2.4959365016
 10
3.656749114
 20
-2.472304398
 10
3.6157589686
 20
-2.4305974493
  0
LINE
  5
2DE
100
AcDbEntity
  8
RACCORDO
100
AcDbLine
 62
7
  6
CONTINUOUS
 10
4.0323117567
 20
-2.8496017077
 11
3.7316615183
 21
-2.5477813267
  0
LINE
  5
2DF
100
AcDbEntity
  8
RACCORDO
100
AcDbLine
 62
7
  6
CONTINUOUS
 10
3.7316615183
 20
-2.5477813267
 11
3.6803785011
 21
-2.4959365016
  0
LINE
  5
2E0
100
AcDbEntity
  8
SMUSSO
100
AcDbLine
 62
7
  6
CONTINUOUS
 10
1.9439495066
 20
-3.4073138158
 11
1.9439495066
 21
-5.3073138158
  0
LINE
  5
2E1
100
AcDbEntity
  8
0
100
AcDbLine
 62
7
  6
CONTINUOUS
 10
2.1939495066
 20
2.1926861842
 11
2.1939495066
 21
5.1926861842
  0
LINE
  5
2E2
100
AcDbEntity
  8
DRAFT
100
AcDbLine
 62
7
  6
CONTINUOUS
 10
2.3939495066
 20
-3.9573138158
 11
2.3939495066
 21
-5.3073138158
  0
LINE
  5
2E3
100
AcDbEntity
  8
0
100
AcDbLine
 62
7
  6
CONTINUOUS
 10
2.5939495066
 20
2.1926861842
 11
2.5939495066
 21
5.1926861842
  0
LINE
  5
2E4
100
AcDbEntity
  8
DRAFT
100
AcDbLine
 62
7
  6
CONTINUOUS
 10
2.6752278478
 20
-22.6136761535
 11
2.6752278478
 21
-21.688333264
  0
LINE
  5
2E5
100
AcDbEntity
  8
DRAFT
100
AcDbLine
 62
7
  6
CONTINUOUS
 10
2.6752278478
 20
23.3737056324
 11
2.6752278478
 21
24.2990485219
  0
LINE
  5
2E6
100
AcDbEntity
  8
0
100
AcDbLine
 62
7
  6
CONTINUOUS
 10
2.7439495066
 20
-1.1073138158
 11
2.7439495066
 21
-2.1573138158
  0
LINE
  5
2E7
100
AcDbEntity
  8
DRAFT
100
AcDbLine
 62
7
  6
CONTINUOUS
 10
2.8939495066
 20
-22.6573138158
 11
2.8939495066
 21
-21.5573138158
  0
LINE
  5
2E8
100
AcDbEntity
  8
DRAFT
100
AcDbLine
 62
7
  6
CONTINUOUS
 10
2.8939495066
 20
23.2426861842
 11
2.8939495066
 21
24.3426861842
  0
LINE
  5
2E9
100
AcDbEntity
  8
0
100
AcDbLine
 62
7
  6
CONTINUOUS
 10
3.1939495066
 20
2.1926861842
 11
3.1939495066
 21
5.1926861842
  0
LINE
  5
2EA
100
AcDbEntity
  8
0
100
AcDbLine
 62
7
  6
CONTINUOUS
 10
3.2439495066
 20
-3.4073138158
 11
3.2439495066
 21
-1.1073138158
  0
LINE
  5
2EB
100
AcDbEntity
  8
DRAFT
100
AcDbLine
 62
7
  6
CONTINUOUS
 10
3.5439495066
 20
-2.3573138158
 11
3.5439495066
 21
-3.9573138158
  0
LINE
  5
2EC
100
AcDbEntity
  8
0
100
AcDbLine
 62
7
  6
CONTINUOUS
 10
3.5939495066
 20
2.1926861842
 11
3.5939495066
 21
5.1926861842
  0
LINE
  5
2ED
100
AcDbEntity
  8
RACCORDO
100
AcDbLine
 62
250
  6
CONTINUOUS
 10
2.4128965965
 20
-3.9762609057
 11
2.4126374812
 21
-5.3260430698
  0
LINE
  5
2EE
100
AcDbEntity
  8
RACCORDO
100
AcDbLine
 62
250
  6
CONTINUOUS
 10
2.9127318878
 20
-4.4814203553
 11
2.9124491386
 21
-5.8324887072
  0
LINE
  5
2EF
100
AcDbEntity
  8
RACCORDO
100
AcDbLine
 62
250
  6
CONTINUOUS
 10
3.5631212423
 20
-2.3764855515
 11
3.562896595
 21
-3.9762609042
  0
LINE
  5
2F0
100
AcDbEntity
  8
0
100
AcDbLine
 62
250
  6
CONTINUOUS
 10
10.4027476233
 20
22.8175933214
 11
10.5443301063
 21
23.2426861842
  0
LINE
  5
2F1
100
AcDbEntity
  8
0
100
AcDbLine
 62
250
  6
CONTINUOUS
 10
10.9026714709
 20
22.318278554
 11
11.0439495066
 21
22.7424573321
  0
LWPOLYLINE
  5
2F2
100
AcDbEntity
  8
RACCORDO
100
AcDbPolyline
 62
7
  6
CONTINUOUS
 90
3
 70
0
 10
-2.7190369419
 20
-5.4242095942
 10
-2.7426350644
 20
-5.4479876709
 10
-2.7937960738
 20
-5.5000178333
  0
LINE
  5
2F3
100
AcDbEntity
  8
RACCORDO
100
AcDbLine
 62
7
  6
CONTINUOUS
 10
-2.7937960738
 20
-5.5000178333
 11
-2.97001511
 21
-5.6775988838
  0
LINE
  5
2F4
100
AcDbEntity
  8
RACCORDO
100
AcDbLine
 62
7
  6
CONTINUOUS
 10
-2.97001511
 20
-5.6775988838
 11
-3.0938262339
 21
-5.8019584584
  0
LINE
  5
2F5
100
AcDbEntity
  8
RACCORDO
100
AcDbLine
 62
7
  6
CONTINUOUS
 10
-2.6060504934
 20
-5.3073138158
 11
-2.6246263623
 21
-5.3258896847
  0
LINE
  5
2F6
100
AcDbEntity
  8
RACCORDO
100
AcDbLine
 62
7
  6
CONTINUOUS
 10
-3.0938262339
 20
-5.8019584584
 11
-3.1245502117
 21
-5.8324887072
  0
LWPOLYLINE
  5
2F7
100
AcDbEntity
  8
RACCORDO
100
AcDbPolyline
 62
7
  6
CONTINUOUS
 90
7
 70
0
 10
-2.6247384734
 20
-5.3260430784
 10
-2.6286975042
 20
-5.3297981091
 10
-2.6359264472
 20
-5.3377820699
 10
-2.6464253024
 20
-5.349499179
 10
-2.6605831999
 20
-5.3644065597
 10
-2.6780110096
 20
-5.3820390256
 10
-2.7190369419
 20
-5.4242095942
  0
LINE
  5
2F8
100
AcDbEntity
  8
RACCORDO
100
AcDbLine
 62
7
  6
CONTINUOUS
 10
6.8629845803
 20
-2.8800716392
 11
6.832114206
 21
-2.8494037083
  0
LWPOLYLINE
  5
2F9
100
AcDbEntity
  8
RACCORDO
100
AcDbPolyline
 62
7
  6
CONTINUOUS
 90
6
 70
0
 10
6.4160285988
 20
-2.4308749286
 10
6.3986198968
 20
-2.4135098631
 10
6.384500288
 20
-2.398827649
 10
6.3740646737
 20
-2.3873400337
 10
6.3669181526
 20
-2.3796831228
 10
6.3630607246
 20
-2.3764250338
  0
LWPOLYLINE
  5
2FA
100
AcDbEntity
  8
RACCORDO
100
AcDbPolyline
 62
7
  6
CONTINUOUS
 90
3
 70
0
 10
6.4805959502
 20
-2.4961597367
 10
6.4570166255
 20
-2.4725804373
 10
6.4160285988
 20
-2.4308749286
  0
LINE
  5
2FB
100
AcDbEntity
  8
RACCORDO
100
AcDbLine
 62
7
  6
CONTINUOUS
 10
6.3439495066
 20
-2.3573138158
 11
6.3630607246
 21
-2.3764250338
  0
LINE
  5
2FC
100
AcDbEntity
  8
RACCORDO
100
AcDbLine
 62
7
  6
CONTINUOUS
 10
6.832114206
 20
-2.8494037083
 11
6.5317177692
 21
-2.547839149
  0
LINE
  5
2FD
100
AcDbEntity
  8
RACCORDO
100
AcDbLine
 62
7
  6
CONTINUOUS
 10
6.5317177692
 20
-2.547839149
 11
6.4805959502
 21
-2.4961597367
  0
LINE
  5
2FE
100
AcDbEntity
  8
0
100
AcDbLine
 62
250
  6
CONTINUOUS
 10
10.5443301063
 20
-21.5573138158
 11
10.4027476233
 21
-21.132220953
  0
LINE
  5
2FF
100
AcDbEntity
  8
0
100
AcDbLine
 62
250
  6
CONTINUOUS
 10
11.0439495066
 20
-21.0570849637
 11
10.9026714709
 21
-20.6329061856
  0
LINE
  5
300
100
AcDbEntity
  8
RACCORDO
100
AcDbLine
 62
250
  6
CONTINUOUS
 10
4.062984482
 20
-2.8800716392
 11
4.0627318173
 21
-4.4814203553
  0
LINE
  5
301
100
AcDbEntity
  8
0
100
AcDbLine
 62
7
  6
CONTINUOUS
 10
5.8939495066
 20
5.1926861842
 11
-6.1060504934
 21
5.1926861842
  0
LINE
  5
302
100
AcDbEntity
  8
DRAFT
100
AcDbLine
 62
7
  6
CONTINUOUS
 10
-6.5560504934
 20
5.5426861842
 11
6.3439495066
 21
5.5426861842
  0
LINE
  5
303
100
AcDbEntity
  8
RACCORDO
100
AcDbLine
 62
250
  6
CONTINUOUS
 10
-6.5749274883
 20
5.5615631791
 11
6.3628265015
 21
5.5615631791
  0
LINE
  5
304
100
AcDbEntity
  8
RACCORDO
100
AcDbLine
 62
250
  6
CONTINUOUS
 10
-7.0748512188
 20
6.0667110516
 11
6.8627502941
 21
6.0667110516
  0
LINE
  5
305
100
AcDbEntity
  8
0
100
AcDbLine
 62
7
  6
CONTINUOUS
 10
5.8939495066
 20
-1.8073138158
 11
5.8939495066
 21
5.1926861842
  0
LINE
  5
306
100
AcDbEntity
  8
DRAFT
100
AcDbLine
 62
7
  6
CONTINUOUS
 10
6.3439495066
 20
5.5426861842
 11
6.3439495066
 21
-2.3573138158
  0
LINE
  5
307
100
AcDbEntity
  8
RACCORDO
100
AcDbLine
 62
250
  6
CONTINUOUS
 10
6.3629132598
 20
5.5616499375
 11
6.3631212575
 21
-2.3764855667
  0
LINE
  5
308
100
AcDbEntity
  8
RACCORDO
100
AcDbLine
 62
250
  6
CONTINUOUS
 10
6.8627502941
 20
6.0667110516
 11
6.8629844495
 21
-2.8800716392
  0
LWPOLYLINE
  5
309
100
AcDbEntity
  8
0
100
AcDbPolyline
 62
250
  6
CONTINUOUS
 90
7
 70
0
 10
10.9026714709
 20
-20.6329061856
 10
10.9019526992
 20
-20.6289927284
 10
10.9012505407
 20
-20.6218706165
 10
10.9005649953
 20
-20.61153985
 10
10.8998914688
 20
-20.5978854344
 10
10.8992345554
 20
-20.5810223642
 10
10.8986080379
 20
-20.5612956228
  0
LWPOLYLINE
  5
30A
100
AcDbEntity
  8
0
100
AcDbPolyline
 62
250
  6
CONTINUOUS
 90
5
 70
0
 10
10.4027476233
 20
-21.132220953
 10
10.4020273615
 20
-21.1245769435
 10
10.4013242423
 20
-21.110269677
 10
10.4006382657
 20
-21.0893936902
 10
10.3999650217
 20
-21.0620853867
  0
LWPOLYLINE
  5
30B
100
AcDbEntity
  8
0
100
AcDbPolyline
 62
250
  6
CONTINUOUS
 90
3
 70
0
 10
10.8986080379
 20
-20.5612956228
 10
10.8974479234
 20
-20.5131441893
 10
10.8969246441
 20
-20.4852783551
  0
LINE
  5
30C
100
AcDbEntity
  8
0
100
AcDbLine
 62
250
  6
CONTINUOUS
 10
10.3999650217
 20
-21.0620853867
 11
10.3986831915
 21
-20.9889563022
  0
LINE
  5
30D
100
AcDbEntity
  8
0
100
AcDbLine
 62
250
  6
CONTINUOUS
 10
10.3986831915
 20
-20.9889563022
 11
10.3970014701
 21
-20.8370430246
  0
LINE
  5
30E
100
AcDbEntity
  8
0
100
AcDbLine
 62
250
  6
CONTINUOUS
 10
10.3970014701
 20
-20.8370430246
 11
10.3950681264
 21
-20.4953389501
  0
LWPOLYLINE
  5
30F
100
AcDbEntity
  8
0
100
AcDbPolyline
 62
250
  6
CONTINUOUS
 90
9
 70
0
 10
10.3950681264
 20
-20.4953389501
 10
10.3914399528
 20
-15.5067948706
 10
10.3891564905
 20
-10.8365342304
 10
10.3876341824
 20
-6.165253905
 10
10.3868730283
 20
-1.4933618113
 10
10.3868730282
 20
3.1787341785
 10
10.3876341823
 20
7.8506262724
 10
10.3891564905
 20
12.521906598
 10
10.3914399527
 20
17.1921672386
  0
LINE
  5
310
100
AcDbEntity
  8
0
100
AcDbLine
 62
250
  6
CONTINUOUS
 10
10.3914399527
 20
17.1921672386
 11
10.3953556328
 21
22.2558922094
  0
LINE
  5
311
100
AcDbEntity
  8
0
100
AcDbLine
 62
250
  6
CONTINUOUS
 10
10.3953556328
 20
22.2558922094
 11
10.3970014701
 21
22.522415393
  0
LINE
  5
312
100
AcDbEntity
  8
0
100
AcDbLine
 62
250
  6
CONTINUOUS
 10
10.3970014701
 20
22.522415393
 11
10.3986831915
 21
22.6743286706
  0
LWPOLYLINE
  5
313
100
AcDbEntity
  8
0
100
AcDbPolyline
 62
250
  6
CONTINUOUS
 90
6
 70
0
 10
10.3986831915
 20
22.6743286706
 10
10.3999650217
 20
22.7474577551
 10
10.4006382657
 20
22.7747660586
 10
10.4013242423
 20
22.7956420454
 10
10.4020273615
 20
22.8099493119
 10
10.4027476233
 20
22.8175933214
  0
LWPOLYLINE
  5
314
100
AcDbEntity
  8
0
100
AcDbPolyline
 62
250
  6
CONTINUOUS
 90
9
 70
0
 10
10.8969246441
 20
22.1706507236
 10
10.8980127827
 20
22.2240241099
 10
10.8986080379
 20
22.246667991
 10
10.8992345554
 20
22.2663947325
 10
10.8998914688
 20
22.283257803
 10
10.9005649953
 20
22.2969122187
 10
10.9012505407
 20
22.3072429852
 10
10.9019526992
 20
22.314365097
 10
10.9026714709
 20
22.318278554
  0
LINE
  5
315
100
AcDbEntity
  8
0
100
AcDbLine
 62
250
  6
CONTINUOUS
 10
10.8969246441
 20
-20.4852783551
 11
10.8960044551
 21
-20.4223759685
  0
LINE
  5
316
100
AcDbEntity
  8
0
100
AcDbLine
 62
250
  6
CONTINUOUS
 10
10.8960044551
 20
-20.4223759685
 11
10.8949903774
 21
-20.3141297799
  0
LINE
  5
317
100
AcDbEntity
  8
0
100
AcDbLine
 62
250
  6
CONTINUOUS
 10
10.8949903774
 20
-20.3141297799
 11
10.8944691593
 21
-20.1957863436
  0
LWPOLYLINE
  5
318
100
AcDbEntity
  8
0
100
AcDbPolyline
 62
250
  6
CONTINUOUS
 90
9
 70
0
 10
10.8944691593
 20
-20.1957863436
 10
10.8913638024
 20
-15.4897802859
 10
10.8890803418
 20
-10.8243323592
 10
10.8875580348
 20
-6.1582659523
 10
10.8867968817
 20
-1.4911685292
 10
10.8867968823
 20
3.1765473741
 10
10.8875580362
 20
7.8436441495
 10
10.8890803431
 20
12.5097092612
 10
10.8913638033
 20
17.1751552449
  0
LINE
  5
319
100
AcDbEntity
  8
0
100
AcDbLine
 62
7
  6
CONTINUOUS
 10
11.0439495066
 20
22.7424573321
 11
11.0439495066
 21
-21.0570849637
  0
LINE
  5
31A
100
AcDbEntity
  8
0
100
AcDbLine
 62
250
  6
CONTINUOUS
 10
10.8913638033
 20
17.1751552449
 11
10.894759164
 21
21.9607853646
  0
LINE
  5
31B
100
AcDbEntity
  8
0
100
AcDbLine
 62
250
  6
CONTINUOUS
 10
10.894759164
 20
21.9607853646
 11
10.8956154694
 21
22.0734089194
  0
LWPOLYLINE
  5
31C
100
AcDbEntity
  8
0
100
AcDbPolyline
 62
250
  6
CONTINUOUS
 90
3
 70
0
 10
10.8956154694
 20
22.0734089194
 10
10.8964437596
 20
22.1403786712
 10
10.8969246441
 20
22.1706507236
  0
LWPOLYLINE
  5
31D
100
AcDbEntity
  8
0
100
AcDbPolyline
 62
7
  6
CONTINUOUS
 90
10
 70
0
 43
0.3500000006
 10
0.9653780959
 20
35.5926870575
 10
1.0368066587
 20
35.4498292236
 10
1.0368066587
 20
35.3784025726
 10
0.893949533
 20
35.2355447388
 10
0.8225209701
 20
35.2355447388
 10
0.7510923364
 20
35.3069713898
 10
0.7510923364
 20
35.3784025726
 10
0.8225209701
 20
35.5212558746
 10
0.893949533
 20
35.5926870575
 10
0.9653780959
 20
35.5926870575
  0
LWPOLYLINE
  5
31E
100
AcDbEntity
  8
0
100
AcDbPolyline
 62
7
  6
CONTINUOUS
 90
3
 70
0
 43
0.3500000006
 10
19.6510913773
 20
-0.014456955
 10
19.6510913773
 20
-1.5144562798
 10
17.2939495811
 20
-0.8715994263
  0
LINE
  5
31F
100
AcDbEntity
  8
DRAFT
100
AcDbLine
 62
7
  6
CONTINUOUS
 10
2.6752278478
 20
-21.688333264
 11
2.8939495066
 21
-21.5573138158
  0
LINE
  5
320
100
AcDbEntity
  8
0
100
AcDbLine
 62
250
  6
CONTINUOUS
 10
-10.606585556
 20
21.8610004151
 11
10.3944845691
 21
21.8610004151
  0
LINE
  5
321
100
AcDbEntity
  8
DRAFT
100
AcDbLine
 62
7
  6
CONTINUOUS
 10
2.8939495066
 20
23.2426861842
 11
2.6752278478
 21
23.3737056324
  0
LINE
  5
322
100
AcDbEntity
  8
DRAFT
100
AcDbLine
 62
7
  6
CONTINUOUS
 10
2.8939495066
 20
24.3426861842
 11
2.6752278478
 21
24.2990485219
  0
LINE
  5
323
100
AcDbEntity
  8
0
100
AcDbLine
 62
250
  6
CONTINUOUS
 10
-10.6148486101
 20
22.8175933214
 11
10.4027476233
 21
22.8175933214
  0
LINE
  5
324
100
AcDbEntity
  8
DRAFT
100
AcDbLine
 62
7
  6
CONTINUOUS
 10
-10.7564310932
 20
23.2426861842
 11
-3.1060504934
 21
23.2426861842
  0
LINE
  5
325
100
AcDbEntity
  8
DRAFT
100
AcDbLine
 62
7
  6
CONTINUOUS
 10
2.8939495066
 20
23.2426861842
 11
10.5443301063
 21
23.2426861842
  0
LINE
  5
326
100
AcDbEntity
  8
DRAFT
100
AcDbLine
 62
7
  6
CONTINUOUS
 10
2.6752278478
 20
23.3737056324
 11
-2.8873288346
 21
23.3737056324
  0
LWPOLYLINE
  5
327
100
AcDbEntity
  8
0
100
AcDbPolyline
 62
250
  6
CONTINUOUS
 90
16
 70
0
 10
10.3944845691
 20
21.8609994719
 10
10.4461698747
 20
21.8608489791
 10
10.4973014165
 20
21.8604749098
 10
10.5473313617
 20
21.8598812719
 10
10.5957236801
 20
21.8590744257
 10
10.6419598873
 20
21.8580630161
 10
10.6855445999
 20
21.8568578799
 10
10.7260108433
 20
21.855471929
 10
10.7629250545
 20
21.8539200129
 10
10.7958917277
 20
21.8522187591
 10
10.8245576519
 20
21.8503863951
 10
10.8486156949
 20
21.8484425533
 10
10.8678080945
 20
21.8464080604
 10
10.8819292196
 20
21.8443047142
 10
10.8908277739
 20
21.8421550505
 10
10.8944084165
 20
21.8399821009
  0
LWPOLYLINE
  5
328
100
AcDbEntity
  8
0
100
AcDbPolyline
 62
250
  6
CONTINUOUS
 90
16
 70
0
 10
10.4027476233
 20
22.8175933214
 10
10.4549736417
 20
22.8148135555
 10
10.5066281255
 20
22.8065999673
 10
10.5571457949
 20
22.7930424421
 10
10.6059738104
 20
22.7742893463
 10
10.6525778237
 20
22.7505459043
 10
10.6964478244
 20
22.7220719518
 10
10.7371037219
 20
22.6891790932
 10
10.7741005992
 20
22.6522272909
 10
10.8070335815
 20
22.6116209263
 10
10.8355422674
 20
22.5678043745
 10
10.8593146724
 20
22.5212571411
 10
10.8780906437
 20
22.472488615
 10
10.8916647068
 20
22.4220324938
 10
10.8998883142
 20
22.370440943
 10
10.9026714709
 20
22.318278554
  0
LINE
  5
329
100
AcDbEntity
  8
DRAFT
100
AcDbLine
 62
7
  6
CONTINUOUS
 10
-3.1060504934
 20
24.3426861842
 11
-2.8873288346
 21
24.2990485219
  0
LINE
  5
32A
100
AcDbEntity
  8
DRAFT
100
AcDbLine
 62
7
  6
CONTINUOUS
 10
-2.8873288346
 20
24.2990485219
 11
2.6752278478
 21
24.2990485219
  0
LINE
  5
32B
100
AcDbEntity
  8
DRAFT
100
AcDbLine
 62
7
  6
CONTINUOUS
 10
-4.0793878411
 20
24.3426861842
 11
-3.1060504934
 21
24.3426861842
  0
LINE
  5
32C
100
AcDbEntity
  8
DRAFT
100
AcDbLine
 62
7
  6
CONTINUOUS
 10
2.8939495066
 20
24.3426861842
 11
3.8672868542
 21
24.3426861842
  0
LWPOLYLINE
  5
32D
100
AcDbEntity
  8
0
100
AcDbPolyline
 62
7
  6
CONTINUOUS
 90
7
 70
0
 43
0.3500000006
 10
-0.534621937
 20
35.0926869049
 10
-2.0346218991
 20
35.0926869049
 10
-0.534621937
 20
37.2355453491
 10
-0.534621937
 20
37.6641143188
 10
-0.9631933851
 20
38.0926878204
 10
-1.6060505219
 20
38.0926878204
 10
-2.0346218991
 20
37.449829834
  0
LWPOLYLINE
  5
32E
100
AcDbEntity
  8
0
100
AcDbPolyline
 62
7
  6
CONTINUOUS
 90
6
 70
0
 43
0.3500000006
 10
2.0368066807
 20
35.0926869049
 10
3.1082353363
 20
35.0926869049
 10
3.3225209541
 20
35.3069713898
 10
3.3225209541
 20
36.3783983459
 10
2.8939494352
 20
36.8069718475
 10
2.4653781996
 20
36.8069718475
  0
LWPOLYLINE
  5
32F
100
AcDbEntity
  8
0
100
AcDbPolyline
 62
7
  6
CONTINUOUS
 90
7
 70
0
 43
0.3500000006
 10
-2.8917647953
 20
35.0926869049
 10
-4.3917646866
 20
35.0926869049
 10
-2.8917647953
 20
37.2355453491
 10
-2.8917647953
 20
37.6641143188
 10
-3.3203363142
 20
38.0926878204
 10
-3.9631934509
 20
38.0926878204
 10
-4.3917646866
 20
37.449829834
  0
LWPOLYLINE
  5
330
100
AcDbEntity
  8
0
100
AcDbPolyline
 62
7
  6
CONTINUOUS
 90
5
 70
0
 43
0.3500000006
 10
-41.2532211456
 20
36.8069718475
 10
-40.8960788269
 20
37.0212563324
 10
-40.8960788269
 20
37.6641143188
 10
-41.2532211456
 20
38.0926878204
 10
-42.1103636169
 20
38.0926878204
  0
LINE
  5
331
100
AcDbEntity
  8
DRAFT
100
AcDbLine
 62
7
  6
CONTINUOUS
 10
-44.5260074953
 20
-22.3199643149
 11
-41.4246481131
 21
-22.2572042906
  0
LINE
  5
332
100
AcDbEntity
  8
DRAFT
100
AcDbLine
 62
7
  6
CONTINUOUS
 10
-45.4246481131
 20
-22.3372223775
 11
-44.5260074953
 21
-22.3199643149
  0
LINE
  5
333
100
AcDbEntity
  8
DRAFT
100
AcDbLine
 62
7
  6
CONTINUOUS
 10
-45.4246481131
 20
-22.6573138158
 11
-41.4246481131
 21
-22.5874935561
  0
LINE
  5
334
100
AcDbEntity
  8
DRAFT
100
AcDbLine
 62
7
  6
CONTINUOUS
 10
-41.4246481131
 20
-20.3573138158
 11
-37.3894333272
 21
-20.3220990298
  0
LINE
  5
335
100
AcDbEntity
  8
DRAFT
100
AcDbLine
 62
7
  6
CONTINUOUS
 10
-45.4246481131
 20
-21.8204804378
 11
-43.6329247915
 21
-21.804496065
  0
LWPOLYLINE
  5
336
100
AcDbEntity
  8
DRAFT
100
AcDbPolyline
 62
7
  6
CONTINUOUS
 90
3
 70
0
 10
-43.6329247915
 20
-21.804496065
 10
-41.863501896
 20
-21.7903906105
 10
-41.4246481131
 20
-21.7871804184
  0
LINE
  5
337
100
AcDbEntity
  8
0
100
AcDbLine
 62
7
  6
CONTINUOUS
 10
-39.3246481131
 20
-21.5573138158
 11
-39.8246481131
 21
-21.5573138158
  0
LINE
  5
338
100
AcDbEntity
  8
DRAFT
100
AcDbLine
 62
7
  6
CONTINUOUS
 10
-41.4246481131
 20
-20.3573138158
 11
-37.4246481131
 21
-20.3573138158
  0
LINE
  5
339
100
AcDbEntity
  8
0
100
AcDbLine
 62
7
  6
CONTINUOUS
 10
-45.4246481131
 20
-21.5573138158
 11
-53.535903133
 21
-21.132220953
  0
LINE
  5
33A
100
AcDbEntity
  8
0
100
AcDbLine
 62
250
  6
CONTINUOUS
 10
-45.4246481131
 20
-21.0570849637
 11
-53.5184613581
 21
-20.6329061856
  0
LWPOLYLINE
  5
33B
100
AcDbEntity
  8
0
100
AcDbPolyline
 62
250
  6
CONTINUOUS
 90
19
 70
0
 10
-53.5184613581
 20
-20.6329061856
 10
-53.5596397578
 20
-20.6289927284
 10
-53.5998663921
 20
-20.6218706165
 10
-53.6391412608
 20
-20.61153985
 10
-53.6777275699
 20
-20.5978854344
 10
-53.7153621135
 20
-20.5810223642
 10
-53.7512552746
 20
-20.5612956228
 10
-53.7853574239
 20
-20.5386517416
 10
-53.8177181907
 20
-20.5131441893
 10
-53.8476968458
 20
-20.4852783551
 10
-53.8752466965
 20
-20.4550063027
 10
-53.9004144355
 20
-20.4223759685
 10
-53.9226994119
 20
-20.3880365508
 10
-53.9420465401
 20
-20.3519377071
 10
-53.9585109058
 20
-20.3141297799
 10
-53.9717571155
 20
-20.2754129962
 10
-53.9816733713
 20
-20.2360540982
 10
-53.9883714712
 20
-20.1957863436
 10
-53.9918514151
 20
-20.1546097325
  0
LWPOLYLINE
  5
33C
100
AcDbEntity
  8
0
100
AcDbPolyline
 62
250
  6
CONTINUOUS
 90
8
 70
0
 10
-53.535903133
 20
22.8175933214
 10
-53.5366690611
 20
22.8148135555
 10
-53.5371402382
 20
22.8065999673
 10
-53.537311508
 20
22.7930424421
 10
-53.537180996
 20
22.7742893463
 10
-53.5367501307
 20
22.7505459043
 10
-53.5360236275
 20
22.7220719518
 10
-53.5337186577
 20
22.6522272909
  0
LINE
  5
33D
100
AcDbEntity
  8
0
100
AcDbLine
 62
250
  6
CONTINUOUS
 10
-54.4826832364
 20
-20.1756280463
 11
-54.4800085685
 21
-20.1754775552
  0
LINE
  5
33E
100
AcDbEntity
  8
0
100
AcDbLine
 62
250
  6
CONTINUOUS
 10
-54.4800085685
 20
-20.1754775552
 11
-53.9918514151
 21
-20.1546097325
  0
LINE
  5
33F
100
AcDbEntity
  8
RACCORDO
100
AcDbLine
 62
7
  6
CONTINUOUS
 10
-45.4246481131
 20
-20.0573138158
 11
-37.3406632518
 21
-19.9939767233
  0
LINE
  5
340
100
AcDbEntity
  8
RACCORDO
100
AcDbLine
 62
250
  6
CONTINUOUS
 10
-36.6211576318
 20
-19.2744711033
 11
-36.4246481131
 21
-19.2744711033
  0
LWPOLYLINE
  5
341
100
AcDbEntity
  8
0
100
AcDbPolyline
 62
250
  6
CONTINUOUS
 90
7
 70
0
 10
-53.535903133
 20
-21.132220953
 10
-53.536669061
 20
-21.1294410958
 10
-53.5371402285
 20
-21.1212272564
 10
-53.5373114809
 20
-21.1076693552
 10
-53.5371809452
 20
-21.0889157908
 10
-53.5367500517
 20
-21.0651718281
 10
-53.5360235192
 20
-21.0366973636
  0
LWPOLYLINE
  5
342
100
AcDbEntity
  8
0
100
AcDbPolyline
 62
250
  6
CONTINUOUS
 90
19
 70
0
 10
-53.9918514151
 20
21.8399821009
 10
-53.9883714711
 20
21.881158712
 10
-53.9816733711
 20
21.9214264666
 10
-53.9717571152
 20
21.9607853646
 10
-53.9585109057
 20
21.9995021484
 10
-53.9420465402
 20
22.0373100756
 10
-53.9226994121
 20
22.0734089194
 10
-53.9004144356
 20
22.107748337
 10
-53.8752466966
 20
22.1403786712
 10
-53.8476968458
 20
22.1706507236
 10
-53.8177181906
 20
22.1985165577
 10
-53.7853574238
 20
22.2240241099
 10
-53.7512552744
 20
22.246667991
 10
-53.7153621134
 20
22.2663947325
 10
-53.6777275699
 20
22.283257803
 10
-53.6391412609
 20
22.2969122187
 10
-53.5998663921
 20
22.3072429852
 10
-53.5596397579
 20
22.314365097
 10
-53.5184613581
 20
22.318278554
  0
LINE
  5
343
100
AcDbEntity
  8
RACCORDO
100
AcDbLine
 62
250
  6
CONTINUOUS
 10
-36.6211576318
 20
-18.1573138158
 11
-36.4246481131
 21
-18.1573138157
  0
LINE
  5
344
100
AcDbEntity
  8
RACCORDO
100
AcDbLine
 62
250
  6
CONTINUOUS
 10
-36.9211576318
 20
-17.8573138158
 11
-41.1795389389
 21
-17.8573138158
  0
LINE
  5
345
100
AcDbEntity
  8
RACCORDO
100
AcDbLine
 62
7
  6
CONTINUOUS
 10
-36.9246481131
 20
-17.6573138158
 11
-41.1566989207
 21
-17.6573138158
  0
LINE
  5
346
100
AcDbEntity
  8
RACCORDO
100
AcDbLine
 62
250
  6
CONTINUOUS
 10
-41.1795389389
 20
-17.8573138158
 11
-45.4246481131
 21
-16.7198402408
  0
LINE
  5
347
100
AcDbEntity
  8
RACCORDO
100
AcDbLine
 62
7
  6
CONTINUOUS
 10
-41.1566989207
 20
-17.6573138158
 11
-45.4246481131
 21
-16.5137202763
  0
LWPOLYLINE
  5
348
100
AcDbEntity
  8
0
100
AcDbPolyline
 62
250
  6
CONTINUOUS
 90
10
 70
0
 10
-53.9918514151
 20
-20.1546097325
 10
-54.1662772519
 20
-15.4897802859
 10
-54.2970966231
 20
-10.8243323592
 10
-54.3843095286
 20
-6.1582659523
 10
-54.4279159599
 20
-1.4911685292
 10
-54.4279159256
 20
3.1765473741
 10
-54.3843094514
 20
7.8436441495
 10
-54.2970965459
 20
12.5097092612
 10
-54.1662772004
 20
17.1751552449
 10
-53.9918514151
 20
21.8399821009
  0
LINE
  5
349
100
AcDbEntity
  8
0
100
AcDbLine
 62
250
  6
CONTINUOUS
 10
-53.5261141052
 20
22.472488615
 11
-53.5184613581
 21
22.318278554
  0
LINE
  5
34A
100
AcDbEntity
  8
0
100
AcDbLine
 62
250
  6
CONTINUOUS
 10
-53.5303667081
 20
22.5678043745
 11
-53.5261141052
 21
22.472488615
  0
LINE
  5
34B
100
AcDbEntity
  8
0
100
AcDbLine
 62
250
  6
CONTINUOUS
 10
-53.5337186577
 20
22.6522272909
 11
-53.5303667081
 21
22.5678043745
  0
LINE
  5
34C
100
AcDbEntity
  8
0
100
AcDbLine
 62
250
  6
CONTINUOUS
 10
-53.5360235192
 20
-21.0366973636
 11
-53.5337184986
 21
-20.9668518891
  0
LINE
  5
34D
100
AcDbEntity
  8
0
100
AcDbLine
 62
250
  6
CONTINUOUS
 10
-53.5337184986
 20
-20.9668518891
 11
-53.5303665273
 21
-20.8824287494
  0
LINE
  5
34E
100
AcDbEntity
  8
0
100
AcDbLine
 62
250
  6
CONTINUOUS
 10
-53.5303665273
 20
-20.8824287494
 11
-53.5237066295
 21
-20.7366581467
  0
LINE
  5
34F
100
AcDbEntity
  8
0
100
AcDbLine
 62
250
  6
CONTINUOUS
 10
-53.5237066295
 20
-20.7366581467
 11
-53.5184613581
 21
-20.6329061856
  0
LINE
  5
350
100
AcDbEntity
  8
RACCORDO
100
AcDbLine
 62
250
  6
CONTINUOUS
 10
-36.5680535587
 20
21.0132219431
 11
-36.6211576318
 21
20.9598434717
  0
LINE
  5
351
100
AcDbEntity
  8
RACCORDO
100
AcDbLine
 62
250
  6
CONTINUOUS
 10
-36.6211576318
 20
-19.2744711033
 11
-36.5680535587
 21
-19.3278495747
  0
LINE
  5
352
100
AcDbEntity
  8
RACCORDO
100
AcDbLine
 62
250
  6
CONTINUOUS
 10
-36.5110636385
 20
21.0713135779
 11
-36.5366099307
 21
21.0451230541
  0
LINE
  5
353
100
AcDbEntity
  8
RACCORDO
100
AcDbLine
 62
250
  6
CONTINUOUS
 10
-36.5366099307
 20
21.0451230541
 11
-36.5680535587
 21
21.0132219431
  0
LINE
  5
354
100
AcDbEntity
  8
DRAFT
100
AcDbLine
 62
7
  6
CONTINUOUS
 10
-43.7410129965
 20
13.7263213008
 11
-44.1246481131
 21
13.3426861842
  0
LINE
  5
355
100
AcDbEntity
  8
RACCORDO
100
AcDbLine
 62
250
  6
CONTINUOUS
 10
-36.5680535587
 20
-19.3278495747
 11
-36.5366099307
 21
-19.3597506857
  0
LWPOLYLINE
  5
356
100
AcDbEntity
  8
RACCORDO
100
AcDbPolyline
 62
250
  6
CONTINUOUS
 90
7
 70
0
 10
-36.5366099307
 20
-19.3597506857
 10
-36.5110636385
 20
-19.3859412095
 10
-36.5010787855
 20
-19.3963047995
 10
-36.4931914205
 20
-19.4046001114
 10
-36.4875329202
 20
-19.4106887286
 10
-36.4841937039
 20
-19.4144730178
 10
-36.4832267569
 20
-19.4158924596
  0
LWPOLYLINE
  5
357
100
AcDbEntity
  8
0
100
AcDbPolyline
 62
7
  6
CONTINUOUS
 90
3
 70
0
 43
0.3500000006
 10
-36.8960776062
 20
35.3784025726
 10
-36.9675042572
 20
35.1641135559
 10
-37.1103620911
 20
34.87840242
  0
LWPOLYLINE
  5
358
100
AcDbEntity
  8
RACCORDO
100
AcDbPolyline
 62
250
  6
CONTINUOUS
 90
6
 70
0
 10
-36.4832267569
 20
21.101264828
 10
-36.4841937039
 20
21.0998453862
 10
-36.4875329202
 20
21.0960610971
 10
-36.4931914205
 20
21.0899724798
 10
-36.5010787855
 20
21.0816771679
 10
-36.5110636385
 20
21.0713135779
  0
LINE
  5
359
100
AcDbEntity
  8
RACCORDO
100
AcDbLine
 62
7
  6
CONTINUOUS
 10
-43.0246481131
 20
-8.6674270775
 11
-45.4246481131
 21
-8.6883715602
  0
LINE
  5
35A
100
AcDbEntity
  8
Z030100_COP
100
AcDbLine
 62
7
  6
CONTINUOUS
 10
-26.5246481131
 20
-9.4573138158
 11
-33.3246481131
 21
-9.4573138158
  0
LINE
  5
35B
100
AcDbEntity
  8
Z030100_COP
100
AcDbLine
 62
7
  6
CONTINUOUS
 10
-34.1246481131
 20
-9.4573138158
 11
-40.9246481131
 21
-9.4573138158
  0
LINE
  5
35C
100
AcDbEntity
  8
Z030100_COP
100
AcDbLine
 62
250
  6
CONTINUOUS
 10
-26.2246481131
 20
-9.1573138158
 11
-33.6246481131
 21
-9.1573138158
  0
LINE
  5
35D
100
AcDbEntity
  8
Z030100_COP
100
AcDbLine
 62
250
  6
CONTINUOUS
 10
-33.8246481131
 20
-9.1573138158
 11
-41.2246481131
 21
-9.1573138158
  0
LINE
  5
35E
100
AcDbEntity
  8
0
100
AcDbLine
 62
7
  6
CONTINUOUS
 10
-45.4246481131
 20
23.2426861842
 11
-45.4246481131
 21
-21.5573138158
  0
LINE
  5
35F
100
AcDbEntity
  8
DRAFT
100
AcDbLine
 62
7
  6
CONTINUOUS
 10
-45.4246481131
 20
-21.5573138158
 11
-45.4246481131
 21
-22.6573138158
  0
LINE
  5
360
100
AcDbEntity
  8
DRAFT
100
AcDbLine
 62
7
  6
CONTINUOUS
 10
-45.4246481131
 20
23.2426861842
 11
-45.4246481131
 21
24.3426861842
  0
LINE
  5
361
100
AcDbEntity
  8
RACCORDO
100
AcDbLine
 62
250
  6
CONTINUOUS
 10
-43.0246481131
 20
-8.167446116
 11
-45.4246481131
 21
-8.1883905987
  0
LINE
  5
362
100
AcDbEntity
  8
0
100
AcDbLine
 62
7
  6
CONTINUOUS
 10
-26.1246481131
 20
-7.7573138158
 11
-26.2246481131
 21
-7.7573138158
  0
LINE
  5
363
100
AcDbEntity
  8
0
100
AcDbLine
 62
7
  6
CONTINUOUS
 10
-33.6246481131
 20
-7.7573138158
 11
-33.8246481131
 21
-7.7573138158
  0
LINE
  5
364
100
AcDbEntity
  8
0
100
AcDbLine
 62
7
  6
CONTINUOUS
 10
-41.2246481131
 20
-7.7573138158
 11
-41.3246481131
 21
-7.7573138158
  0
LINE
  5
365
100
AcDbEntity
  8
0
100
AcDbLine
 62
7
  6
CONTINUOUS
 10
-26.1246481131
 20
-7.0573138158
 11
-26.2246481131
 21
-7.0573138158
  0
LINE
  5
366
100
AcDbEntity
  8
0
100
AcDbLine
 62
7
  6
CONTINUOUS
 10
-33.6246481131
 20
-7.0573138158
 11
-33.8246481131
 21
-7.0573138158
  0
LINE
  5
367
100
AcDbEntity
  8
0
100
AcDbLine
 62
7
  6
CONTINUOUS
 10
-41.2246481131
 20
-7.0573138158
 11
-41.3246481131
 21
-7.0573138158
  0
LINE
  5
368
100
AcDbEntity
  8
RACCORDO
100
AcDbLine
 62
250
  6
CONTINUOUS
 10
-44.6246481131
 20
-6.1813710268
 11
-44.622902806
 21
-6.6813748349
  0
LINE
  5
369
100
AcDbEntity
  8
RACCORDO
100
AcDbLine
 62
250
  6
CONTINUOUS
 10
-44.6246481131
 20
14.0667433952
 11
-44.6246481131
 21
-6.1813710268
  0
LINE
  5
36A
100
AcDbEntity
  8
RACCORDO
100
AcDbLine
 62
7
  6
CONTINUOUS
 10
-44.4246481131
 20
14.3667548188
 11
-44.4246481131
 21
-6.4813824503
  0
LINE
  5
36B
100
AcDbEntity
  8
RACCORDO
100
AcDbLine
 62
250
  6
CONTINUOUS
 10
-44.2930521418
 20
14.3644579775
 11
-44.2930521418
 21
13.7215037282
  0
LINE
  5
36C
100
AcDbEntity
  8
RACCORDO
100
AcDbLine
 62
250
  6
CONTINUOUS
 10
-44.2930521418
 20
10.2638686402
 11
-44.2930521418
 21
9.4215037282
  0
LINE
  5
36D
100
AcDbEntity
  8
RACCORDO
100
AcDbLine
 62
250
  6
CONTINUOUS
 10
-44.2930521418
 20
2.5638686402
 11
-44.2930521418
 21
1.7215037282
  0
LINE
  5
36E
100
AcDbEntity
  8
RACCORDO
100
AcDbLine
 62
250
  6
CONTINUOUS
 10
-44.2930521418
 20
-5.8361313598
 11
-44.2930521418
 21
-6.479085609
  0
LINE
  5
36F
100
AcDbEntity
  8
RACCORDO
100
AcDbLine
 62
250
  6
CONTINUOUS
 10
-44.622902806
 20
14.5667472034
 11
-44.6246481131
 21
14.0667433952
  0
LWPOLYLINE
  5
370
100
AcDbEntity
  8
RACCORDO
100
AcDbPolyline
 62
250
  6
CONTINUOUS
 90
9
 70
0
 10
-44.2930587358
 20
-6.4790856666
 10
-44.2942342423
 20
-6.4961709003
 10
-44.2978419734
 20
-6.513255191
 10
-44.3038868282
 20
-6.5302087795
 10
-44.3124104229
 20
-6.5469143994
 10
-44.3233698514
 20
-6.5632210507
 10
-44.3366330562
 20
-6.5789504169
 10
-44.3522918016
 20
-6.5939924407
 10
-44.3702201349
 20
-6.6082015337
  0
LWPOLYLINE
  5
371
100
AcDbEntity
  8
RACCORDO
100
AcDbPolyline
 62
250
  6
CONTINUOUS
 90
4
 70
0
 10
-44.4246481131
 20
-6.4813824503
 10
-44.4228084131
 20
-6.4811421693
 10
-44.4173232168
 20
-6.4808944767
 10
-44.4082935209
 20
-6.4806393725
  0
LINE
  5
372
100
AcDbEntity
  8
RACCORDO
100
AcDbLine
 62
250
  6
CONTINUOUS
 10
-44.4082935209
 20
-6.4806393725
 11
-44.3803286067
 21
-6.4800971141
  0
LINE
  5
373
100
AcDbEntity
  8
RACCORDO
100
AcDbLine
 62
250
  6
CONTINUOUS
 10
-44.3803286067
 20
-6.4800971141
 11
-44.3178626726
 21
-6.4793262916
  0
LINE
  5
374
100
AcDbEntity
  8
RACCORDO
100
AcDbLine
 62
7
  6
CONTINUOUS
 10
-45.4246481131
 20
-6.6883715602
 11
-43.222902806
 21
-6.66915722
  0
LINE
  5
375
100
AcDbEntity
  8
RACCORDO
100
AcDbLine
 62
250
  6
CONTINUOUS
 10
-44.3178626726
 20
-6.4793262916
 11
-43.2220420701
 21
-6.4697390457
  0
LINE
  5
376
100
AcDbEntity
  8
RACCORDO
100
AcDbLine
 62
250
  6
CONTINUOUS
 10
-45.4246481131
 20
-6.188352521
 11
-44.6246481131
 21
-6.1813710268
  0
LINE
  5
377
100
AcDbEntity
  8
RACCORDO
100
AcDbLine
 62
250
  6
CONTINUOUS
 10
-43.2220420701
 20
-6.4697390457
 11
-43.0246481131
 21
-6.4691648354
  0
LINE
  5
378
100
AcDbEntity
  8
RACCORDO
100
AcDbLine
 62
250
  6
CONTINUOUS
 10
-44.4246481131
 20
-6.1813710268
 11
-44.6246481131
 21
-6.1813710269
  0
LINE
  5
379
100
AcDbEntity
  8
0
100
AcDbLine
 62
7
  6
CONTINUOUS
 10
-42.9246481131
 20
-5.8573138158
 11
-41.5246481131
 21
-5.8573138158
  0
LINE
  5
37A
100
AcDbEntity
  8
RACCORDO
100
AcDbLine
 62
7
  6
CONTINUOUS
 10
-42.9246481131
 20
-5.8573138158
 11
-43.0246481131
 21
-5.8573138158
  0
LINE
  5
37B
100
AcDbEntity
  8
RACCORDO
100
AcDbLine
 62
250
  6
CONTINUOUS
 10
-42.9246481131
 20
-5.5573138158
 11
-43.0246481131
 21
-5.5573138158
  0
LINE
  5
37C
100
AcDbEntity
  8
RACCORDO
100
AcDbLine
 62
7
  6
CONTINUOUS
 10
-43.0246481131
 20
-5.847200554
 11
-44.4246481131
 21
-5.8349829391
  0
LWPOLYLINE
  5
37D
100
AcDbEntity
  8
RACCORDO
100
AcDbPolyline
 62
250
  6
CONTINUOUS
 90
4
 70
0
 10
-43.2220420701
 20
14.3551114142
 10
-43.2224242768
 20
14.381166457
 10
-43.2239659433
 20
14.406777381
 10
-43.2266407912
 20
14.4315076375
  0
LINE
  5
37E
100
AcDbEntity
  8
RACCORDO
100
AcDbLine
 62
250
  6
CONTINUOUS
 10
-43.2220420701
 20
14.3551114142
 11
-43.2220420701
 21
13.7308502915
  0
LINE
  5
37F
100
AcDbEntity
  8
RACCORDO
100
AcDbLine
 62
250
  6
CONTINUOUS
 10
-43.2220420701
 20
10.2545220769
 11
-43.2220420701
 21
9.4308502915
  0
LINE
  5
380
100
AcDbEntity
  8
RACCORDO
100
AcDbLine
 62
250
  6
CONTINUOUS
 10
-43.2220420701
 20
2.5545220769
 11
-43.2220420701
 21
1.7308502915
  0
LINE
  5
381
100
AcDbEntity
  8
RACCORDO
100
AcDbLine
 62
250
  6
CONTINUOUS
 10
-43.2220420701
 20
-5.8454779231
 11
-43.2220420701
 21
-6.4697390457
  0
LINE
  5
382
100
AcDbEntity
  8
RACCORDO
100
AcDbLine
 62
7
  6
CONTINUOUS
 10
-43.0246481131
 20
15.952799446
 11
-43.0246481131
 21
13.7325729225
  0
LINE
  5
383
100
AcDbEntity
  8
RACCORDO
100
AcDbLine
 62
7
  6
CONTINUOUS
 10
-43.0246481131
 20
10.252799446
 11
-43.0246481131
 21
9.4325729225
  0
LINE
  5
384
100
AcDbEntity
  8
RACCORDO
100
AcDbLine
 62
7
  6
CONTINUOUS
 10
-43.0246481131
 20
2.552799446
 11
-43.0246481131
 21
1.7325729225
  0
LINE
  5
385
100
AcDbEntity
  8
RACCORDO
100
AcDbLine
 62
7
  6
CONTINUOUS
 10
-43.0246481131
 20
-8.6674270775
 11
-43.0246481131
 21
-4.1445939172
  0
LINE
  5
386
100
AcDbEntity
  8
0
100
AcDbLine
 62
7
  6
CONTINUOUS
 10
-42.9246481131
 20
-5.8573138158
 11
-42.9246481131
 21
-4.3573138158
  0
LINE
  5
387
100
AcDbEntity
  8
0
100
AcDbLine
 62
7
  6
CONTINUOUS
 10
-42.9246481131
 20
8.7426861842
 11
-42.9246481131
 21
10.2426861842
  0
LINE
  5
388
100
AcDbEntity
  8
0
100
AcDbLine
 62
7
  6
CONTINUOUS
 10
-42.5246481131
 20
8.7426861842
 11
-42.5246481131
 21
-4.3573138158
  0
LINE
  5
389
100
AcDbEntity
  8
0
100
AcDbLine
 62
7
  6
CONTINUOUS
 10
-41.5246481131
 20
8.8426861842
 11
-41.5246481131
 21
-5.8573138158
  0
LWPOLYLINE
  5
38A
100
AcDbEntity
  8
RACCORDO
100
AcDbPolyline
 62
250
  6
CONTINUOUS
 90
4
 70
0
 10
-43.2220420701
 20
-6.4697390457
 10
-43.2224242784
 20
-6.4957941529
 10
-43.2239659516
 20
-6.5214051279
 10
-43.2266408095
 20
-6.5461354203
  0
LWPOLYLINE
  5
38B
100
AcDbEntity
  8
RACCORDO
100
AcDbPolyline
 62
250
  6
CONTINUOUS
 90
10
 70
0
 10
-43.2266408095
 20
-6.5461354203
 10
-43.2304032571
 20
-6.5695634932
 10
-43.2351891603
 20
-6.5912900047
 10
-43.240916939
 20
-6.6109446158
 10
-43.2474889586
 20
-6.6281923075
 10
-43.2547931956
 20
-6.6427390925
 10
-43.2627051463
 20
-6.6543370214
 10
-43.2710899482
 20
-6.6627884077
 10
-43.2798046786
 20
-6.6679491983
 10
-43.2887007917
 20
-6.6697314304
  0
LWPOLYLINE
  5
38C
100
AcDbEntity
  8
RACCORDO
100
AcDbPolyline
 62
250
  6
CONTINUOUS
 90
8
 70
0
 10
-36.9246481131
 20
19.3426861842
 10
-36.9241925133
 20
19.3443972119
 10
-36.9237447092
 20
19.349501019
 10
-36.9233123627
 20
19.3579102778
 10
-36.9229028714
 20
19.3694811035
 10
-36.9225232419
 20
19.3840155162
 10
-36.9221799695
 20
19.4012648281
 10
-36.9216252674
 20
19.4426861843
  0
LINE
  5
38D
100
AcDbEntity
  8
0
100
AcDbLine
 62
7
  6
CONTINUOUS
 10
-42.9246481131
 20
-4.3573138158
 11
-42.5246481131
 21
-4.3573138158
  0
LINE
  5
38E
100
AcDbEntity
  8
RACCORDO
100
AcDbLine
 62
7
  6
CONTINUOUS
 10
-43.3220301525
 20
-3.8446053403
 11
-44.4246481131
 21
-3.8349829391
  0
LINE
  5
38F
100
AcDbEntity
  8
DRAFT
100
AcDbLine
 62
7
  6
CONTINUOUS
 10
-41.4246481131
 20
24.2728659245
 11
-41.4246481131
 21
22.0426861842
  0
LINE
  5
390
100
AcDbEntity
  8
DRAFT
100
AcDbLine
 62
7
  6
CONTINUOUS
 10
-41.4246481131
 20
-20.3573138158
 11
-41.4246481131
 21
-22.5874935561
  0
LINE
  5
391
100
AcDbEntity
  8
0
100
AcDbLine
 62
7
  6
CONTINUOUS
 10
-41.3246481131
 20
-7.7573138158
 11
-41.3246481131
 21
8.8426861842
  0
LINE
  5
392
100
AcDbEntity
  8
Z030100_COP
100
AcDbLine
 62
7
  6
CONTINUOUS
 10
-41.2246481131
 20
-9.1573138158
 11
-41.2246481131
 21
-2.5573138158
  0
LINE
  5
393
100
AcDbEntity
  8
Z030100_COP
100
AcDbLine
 62
250
  6
CONTINUOUS
 10
-40.9246481131
 20
-9.4573138158
 11
-40.9246481131
 21
-2.2573138158
  0
LINE
  5
394
100
AcDbEntity
  8
DRAFT
100
AcDbLine
 62
7
  6
CONTINUOUS
 10
-39.8246481131
 20
-20.3573138158
 11
-39.8246481131
 21
-21.5573138158
  0
LINE
  5
395
100
AcDbEntity
  8
DRAFT
100
AcDbLine
 62
7
  6
CONTINUOUS
 10
-39.8246481131
 20
22.0426861842
 11
-39.8246481131
 21
23.2426861842
  0
LINE
  5
396
100
AcDbEntity
  8
0
100
AcDbLine
 62
7
  6
CONTINUOUS
 10
-39.4746481131
 20
-2.2573138158
 11
-38.7746481131
 21
-2.2573138158
  0
LINE
  5
397
100
AcDbEntity
  8
0
100
AcDbLine
 62
7
  6
CONTINUOUS
 10
-35.8746481131
 20
-2.2573138158
 11
-35.1746481131
 21
-2.2573138158
  0
LINE
  5
398
100
AcDbEntity
  8
0
100
AcDbLine
 62
7
  6
CONTINUOUS
 10
-32.2746481131
 20
-2.2573138158
 11
-31.5746481131
 21
-2.2573138158
  0
LINE
  5
399
100
AcDbEntity
  8
0
100
AcDbLine
 62
7
  6
CONTINUOUS
 10
-28.6746481131
 20
-2.2573138158
 11
-27.9746481131
 21
-2.2573138158
  0
LINE
  5
39A
100
AcDbEntity
  8
Z030100_COP
100
AcDbLine
 62
7
  6
CONTINUOUS
 10
-26.2418054006
 20
-2.2573138158
 11
-27.2496481131
 21
-2.2573138158
  0
LINE
  5
39B
100
AcDbEntity
  8
Z030100_COP
100
AcDbLine
 62
7
  6
CONTINUOUS
 10
-28.7496481131
 20
-2.2573138158
 11
-31.0996481131
 21
-2.2573138158
  0
LINE
  5
39C
100
AcDbEntity
  8
Z030100_COP
100
AcDbLine
 62
7
  6
CONTINUOUS
 10
-32.5996481131
 20
-2.2573138158
 11
-33.6074908256
 21
-2.2573138158
  0
LINE
  5
39D
100
AcDbEntity
  8
Z030100_COP
100
AcDbLine
 62
7
  6
CONTINUOUS
 10
-33.8418054006
 20
-2.2573138158
 11
-34.8496481131
 21
-2.2573138158
  0
LINE
  5
39E
100
AcDbEntity
  8
Z030100_COP
100
AcDbLine
 62
7
  6
CONTINUOUS
 10
-36.3496481131
 20
-2.2573138158
 11
-38.6996481131
 21
-2.2573138158
  0
LINE
  5
39F
100
AcDbEntity
  8
Z030100_COP
100
AcDbLine
 62
7
  6
CONTINUOUS
 10
-40.1996481131
 20
-2.2573138158
 11
-41.2074908256
 21
-2.2573138158
  0
LINE
  5
3A0
100
AcDbEntity
  8
0
100
AcDbLine
 62
7
  6
CONTINUOUS
 10
-26.1246481131
 20
-2.1573138158
 11
-41.3246481131
 21
-2.1573138158
  0
LINE
  5
3A1
100
AcDbEntity
  8
Z030100_COP
100
AcDbLine
 62
7
  6
CONTINUOUS
 10
-40.1996481131
 20
-2.2573138158
 11
-39.9412410811
 21
-3.6486174512
  0
LWPOLYLINE
  5
3A2
100
AcDbEntity
  8
RACCORDO
100
AcDbPolyline
 62
250
  6
CONTINUOUS
 90
10
 70
0
 10
-43.2266407912
 20
14.4315076375
 10
-43.2304032268
 20
14.454935689
 10
-43.2351891177
 20
14.476662195
 10
-43.2409168864
 20
14.4963168181
 10
-43.2474889008
 20
14.5135645373
 10
-43.2547931383
 20
14.5281113582
 10
-43.262705095
 20
14.5397093242
 10
-43.2710899085
 20
14.5481607433
 10
-43.2798046562
 20
14.5533215575
 10
-43.2887007917
 20
14.5551037988
  0
LINE
  5
3A3
100
AcDbEntity
  8
0
100
AcDbLine
 62
7
  6
CONTINUOUS
 10
-39.4746481131
 20
-4.0565059577
 11
-39.4746481131
 21
-2.2573138158
  0
LINE
  5
3A4
100
AcDbEntity
  8
SMUSSO
100
AcDbLine
 62
7
  6
CONTINUOUS
 10
-39.3046481131
 20
-2.2573138158
 11
-39.3046481131
 21
-4.0357839692
  0
LINE
  5
3A5
100
AcDbEntity
  8
SMUSSO
100
AcDbLine
 62
7
  6
CONTINUOUS
 10
-39.1646481131
 20
-2.2573138158
 11
-39.1646481131
 21
-3.9676915575
  0
LWPOLYLINE
  5
3A6
100
AcDbEntity
  8
0
100
AcDbPolyline
 62
7
  6
CONTINUOUS
 90
2
 70
0
 43
0.3500000006
 10
-38.9675048676
 20
35.0926869049
 10
-38.9675048676
 20
36.5926873627
  0
LINE
  5
3A7
100
AcDbEntity
  8
0
100
AcDbLine
 62
7
  6
CONTINUOUS
 10
-38.7746481131
 20
-2.6611254762
 11
-38.7746481131
 21
-2.2573138158
  0
LWPOLYLINE
  5
3A8
100
AcDbEntity
  8
RACCORDO
100
AcDbPolyline
 62
7
  6
CONTINUOUS
 90
5
 70
0
 10
-41.1585211064
 20
-17.6844479217
 10
-41.1573952859
 20
-17.6727670219
 10
-41.156738008
 20
-17.66424629
 10
-41.1565084733
 20
-17.6590581257
 10
-41.1566989207
 20
-17.6573138158
  0
LWPOLYLINE
  5
3A9
100
AcDbEntity
  8
RACCORDO
100
AcDbPolyline
 62
7
  6
CONTINUOUS
 90
3
 70
0
 10
-41.1642908963
 20
-17.7361052584
 10
-41.1620049238
 20
-17.7163875241
 10
-41.1585211064
 20
-17.6844479217
  0
LWPOLYLINE
  5
3AA
100
AcDbEntity
  8
RACCORDO
100
AcDbPolyline
 62
7
  6
CONTINUOUS
 90
4
 70
0
 10
-41.1795389389
 20
-17.8573138158
 10
-41.1760704228
 20
-17.8314373839
 10
-41.1728229201
 20
-17.8059517651
 10
-41.1642908963
 20
-17.7361052584
  0
LINE
  5
3AB
100
AcDbEntity
  8
Z030100_COP
100
AcDbLine
 62
7
  6
CONTINUOUS
 10
-38.9580551451
 20
-3.6486174512
 11
-38.6996481131
 21
-2.2573138158
  0
LINE
  5
3AC
100
AcDbEntity
  8
RACCORDO
100
AcDbLine
 62
7
  6
CONTINUOUS
 10
-41.1795389389
 20
19.5426861842
 11
-41.1697740001
 21
19.466491879
  0
LINE
  5
3AD
100
AcDbEntity
  8
RACCORDO
100
AcDbLine
 62
7
  6
CONTINUOUS
 10
-41.1697740001
 20
19.466491879
 11
-41.1668757225
 21
19.4431184008
  0
LWPOLYLINE
  5
3AE
100
AcDbEntity
  8
RACCORDO
100
AcDbPolyline
 62
7
  6
CONTINUOUS
 90
8
 70
0
 10
-41.1668757225
 20
19.4431184008
 10
-41.1620049222
 20
19.4017598778
 10
-41.1600492966
 20
19.3844749738
 10
-41.1585257939
 20
19.3698630481
 10
-41.1574017297
 20
19.3582110785
 10
-41.1566898353
 20
19.3497211261
 10
-41.1564505902
 20
19.3445180974
 10
-41.1566989207
 20
19.3426861842
  0
LWPOLYLINE
  5
3AF
100
AcDbEntity
  8
RACCORDO
100
AcDbPolyline
 62
250
  6
CONTINUOUS
 90
19
 70
0
 10
-36.6211576318
 20
-18.1573138158
 10
-36.6216240862
 20
-18.1348283587
 10
-36.6243019761
 20
-18.1118414566
 10
-36.6291913014
 20
-18.0883531093
 10
-36.6362321016
 20
-18.0639648405
 10
-36.6454843373
 20
-18.0390751266
 10
-36.65712789
 20
-18.0148793971
 10
-36.6713795412
 20
-17.9914207508
 10
-36.6880225095
 20
-17.9686560889
 10
-36.706586332
 20
-17.9476515449
 10
-36.7272566618
 20
-17.9285542224
 10
-36.7498478458
 20
-17.9112170177
 10
-36.7733324622
 20
-17.896264754
 10
-36.7977306207
 20
-17.8839268447
 10
-36.8230222114
 20
-17.8739738764
 10
-36.8481194831
 20
-17.8663424311
 10
-36.8726598518
 20
-17.8610113696
 10
-36.8970059014
 20
-17.8580018312
 10
-36.9211576318
 20
-17.8573138158
  0
LWPOLYLINE
  5
3B0
100
AcDbEntity
  8
RACCORDO
100
AcDbPolyline
 62
250
  6
CONTINUOUS
 90
7
 70
0
 10
-36.9221799702
 20
-17.7158924596
 10
-36.9225232429
 20
-17.6986431477
 10
-36.9229028726
 20
-17.684108735
 10
-36.9233123639
 20
-17.6725379093
 10
-36.9237447102
 20
-17.6641286505
 10
-36.924192514
 20
-17.6590248435
 10
-36.9246481131
 20
-17.6573138158
  0
LINE
  5
3B1
100
AcDbEntity
  8
RACCORDO
100
AcDbLine
 62
250
  6
CONTINUOUS
 10
-36.9216252677
 20
-17.7573138158
 11
-36.9221799702
 21
-17.7158924596
  0
LINE
  5
3B2
100
AcDbEntity
  8
RACCORDO
100
AcDbLine
 62
250
  6
CONTINUOUS
 10
-36.9212765671
 20
-17.8055500068
 11
-36.9216252677
 21
-17.7573138158
  0
LINE
  5
3B3
100
AcDbEntity
  8
RACCORDO
100
AcDbLine
 62
250
  6
CONTINUOUS
 10
-36.9211576318
 20
-17.8573138158
 11
-36.9212765671
 21
-17.8055500068
  0
LINE
  5
3B4
100
AcDbEntity
  8
RACCORDO
100
AcDbLine
 62
7
  6
CONTINUOUS
 10
-37.0388432661
 20
12.1426861842
 11
-37.0388432661
 21
10.2426861842
  0
LINE
  5
3B5
100
AcDbEntity
  8
RACCORDO
100
AcDbLine
 62
250
  6
CONTINUOUS
 10
-36.6211576318
 20
20.9598434717
 11
-36.6211576318
 21
19.8426861842
  0
LINE
  5
3B6
100
AcDbEntity
  8
RACCORDO
100
AcDbLine
 62
250
  6
CONTINUOUS
 10
-36.6211576318
 20
-19.2744711033
 11
-36.6211576318
 21
-18.1573138158
  0
LINE
  5
3B7
100
AcDbEntity
  8
RACCORDO
100
AcDbLine
 62
7
  6
CONTINUOUS
 10
-36.4246481131
 20
20.9598434717
 11
-36.4246481131
 21
19.8426861842
  0
LINE
  5
3B8
100
AcDbEntity
  8
RACCORDO
100
AcDbLine
 62
7
  6
CONTINUOUS
 10
-36.4246481131
 20
-19.2744711033
 11
-36.4246481131
 21
-18.1573138158
  0
LINE
  5
3B9
100
AcDbEntity
  8
0
100
AcDbLine
 62
7
  6
CONTINUOUS
 10
-35.8746481131
 20
-3.9743539039
 11
-35.8746481131
 21
-2.2573138158
  0
LINE
  5
3BA
100
AcDbEntity
  8
SMUSSO
100
AcDbLine
 62
7
  6
CONTINUOUS
 10
-35.7046481131
 20
-2.2573138158
 11
-35.7046481131
 21
-4.0460918915
  0
LINE
  5
3BB
100
AcDbEntity
  8
RACCORDO
100
AcDbLine
 62
250
  6
CONTINUOUS
 10
-36.921276567
 20
19.4909223752
 11
-36.9211576318
 21
19.5426861842
  0
LINE
  5
3BC
100
AcDbEntity
  8
RACCORDO
100
AcDbLine
 62
250
  6
CONTINUOUS
 10
-36.9216252674
 20
19.4426861843
 11
-36.921276567
 21
19.4909223752
  0
LWPOLYLINE
  5
3BD
100
AcDbEntity
  8
RACCORDO
100
AcDbPolyline
 62
250
  6
CONTINUOUS
 90
19
 70
0
 10
-36.6211576318
 20
19.8426861842
 10
-36.6218400999
 20
19.8187666929
 10
-36.6247893403
 20
19.794661936
 10
-36.6300053532
 20
19.7703719136
 10
-36.63747584
 20
19.74554064
 10
-36.6472130993
 20
19.7205241009
 10
-36.659254026
 20
19.6963902532
 10
-36.6737810364
 20
19.6731896185
 10
-36.6906117143
 20
19.6508716752
 10
-36.7092357058
 20
19.630352816
 10
-36.7297937117
 20
19.6117686406
 10
-36.7521450312
 20
19.5949835492
 10
-36.7753572081
 20
19.5805071351
 10
-36.7994781546
 20
19.5685264433
 10
-36.8244599586
 20
19.5588544288
 10
-36.8492264276
 20
19.5514395498
 10
-36.8734188307
 20
19.5462646257
 10
-36.8973958988
 20
19.5433468372
 10
-36.9211576318
 20
19.5426861842
  0
LINE
  5
3BE
100
AcDbEntity
  8
RACCORDO
100
AcDbLine
 62
7
  6
CONTINUOUS
 10
-43.0246481131
 20
1.7325729225
 11
-44.4246481131
 21
1.7203553075
  0
LINE
  5
3BF
100
AcDbEntity
  8
0
100
AcDbLine
 62
7
  6
CONTINUOUS
 10
-26.1246481131
 20
1.4426861842
 11
-41.3246481131
 21
1.4426861842
  0
LINE
  5
3C0
100
AcDbEntity
  8
RACCORDO
100
AcDbLine
 62
7
  6
CONTINUOUS
 10
-20.7246481131
 20
1.5426861842
 11
-25.9246481131
 21
1.5426861842
  0
LINE
  5
3C1
100
AcDbEntity
  8
0
100
AcDbLine
 62
7
  6
CONTINUOUS
 10
-25.9246481131
 20
1.5426861842
 11
-26.1246481131
 21
1.5426861842
  0
LINE
  5
3C2
100
AcDbEntity
  8
0
100
AcDbLine
 62
7
  6
CONTINUOUS
 10
-41.3246481131
 20
1.5426861842
 11
-41.5246481131
 21
1.5426861842
  0
LINE
  5
3C3
100
AcDbEntity
  8
0
100
AcDbLine
 62
7
  6
CONTINUOUS
 10
-26.1246481131
 20
1.9426861842
 11
-41.3246481131
 21
1.9426861842
  0
LINE
  5
3C4
100
AcDbEntity
  8
0
100
AcDbLine
 62
7
  6
CONTINUOUS
 10
-26.1246481131
 20
2.4426861842
 11
-41.3246481131
 21
2.4426861842
  0
LINE
  5
3C5
100
AcDbEntity
  8
RACCORDO
100
AcDbLine
 62
7
  6
CONTINUOUS
 10
-43.0246481131
 20
2.552799446
 11
-44.4246481131
 21
2.5650170609
  0
LINE
  5
3C6
100
AcDbEntity
  8
Z030100_COP
100
AcDbLine
 62
7
  6
CONTINUOUS
 10
-36.3496481131
 20
-2.2573138158
 11
-36.0912410811
 21
-3.6486174512
  0
LINE
  5
3C7
100
AcDbEntity
  8
RACCORDO
100
AcDbLine
 62
7
  6
CONTINUOUS
 10
-35.0984111692
 20
13.370421194
 11
-34.9246481131
 21
10.2426861842
  0
LINE
  5
3C8
100
AcDbEntity
  8
SMUSSO
100
AcDbLine
 62
7
  6
CONTINUOUS
 10
-35.5646481131
 20
-2.2573138158
 11
-35.5646481131
 21
-4.0556712057
  0
LINE
  5
3C9
100
AcDbEntity
  8
0
100
AcDbLine
 62
7
  6
CONTINUOUS
 10
-35.1746481131
 20
-3.8198224863
 11
-35.1746481131
 21
-2.2573138158
  0
LINE
  5
3CA
100
AcDbEntity
  8
Z030100_COP
100
AcDbLine
 62
250
  6
CONTINUOUS
 10
-34.1246481131
 20
-9.4573138158
 11
-34.1246481131
 21
-2.2573138158
  0
LINE
  5
3CB
100
AcDbEntity
  8
Z030100_COP
100
AcDbLine
 62
7
  6
CONTINUOUS
 10
-33.8246481131
 20
-9.1573138158
 11
-33.8246481131
 21
-2.5573138158
  0
LINE
  5
3CC
100
AcDbEntity
  8
Z030100_COP
100
AcDbLine
 62
7
  6
CONTINUOUS
 10
-35.1080551451
 20
-3.6486174512
 11
-34.8496481131
 21
-2.2573138158
  0
LWPOLYLINE
  5
3CD
100
AcDbEntity
  8
RACCORDO
100
AcDbPolyline
 62
250
  6
CONTINUOUS
 90
11
 70
0
 10
-44.3702201349
 20
-6.6082015337
 10
-44.3899411116
 20
-6.6213742787
 10
-44.411394885
 20
-6.6333836479
 10
-44.4345673969
 20
-6.6441887637
 10
-44.4590412459
 20
-6.6537388016
 10
-44.4849191439
 20
-6.6619968595
 10
-44.512021109
 20
-6.668854746
 10
-44.5394984491
 20
-6.6742067375
 10
-44.5670338176
 20
-6.6780490987
 10
-44.5948492245
 20
-6.6804273787
 10
-44.6229008734
 20
-6.6813748181
  0
LINE
  5
3CE
100
AcDbEntity
  8
RACCORDO
100
AcDbLine
 62
7
  6
CONTINUOUS
 10
-20.7246481131
 20
3.9426861842
 11
-24.4246481131
 21
3.9426861842
  0
LINE
  5
3CF
100
AcDbEntity
  8
Z030100_COP
100
AcDbLine
 62
7
  6
CONTINUOUS
 10
-33.6246481131
 20
-9.1573138158
 11
-33.6246481131
 21
-2.5573138158
  0
LINE
  5
3D0
100
AcDbEntity
  8
Z030100_COP
100
AcDbLine
 62
250
  6
CONTINUOUS
 10
-33.3246481131
 20
-9.4573138158
 11
-33.3246481131
 21
-2.2573138158
  0
LINE
  5
3D1
100
AcDbEntity
  8
0
100
AcDbLine
 62
7
  6
CONTINUOUS
 10
-32.2746481131
 20
-3.8198224863
 11
-32.2746481131
 21
-2.2573138158
  0
LINE
  5
3D2
100
AcDbEntity
  8
SMUSSO
100
AcDbLine
 62
7
  6
CONTINUOUS
 10
-32.1046481131
 20
-2.2573138158
 11
-32.1046481131
 21
-3.9871194489
  0
LINE
  5
3D3
100
AcDbEntity
  8
SMUSSO
100
AcDbLine
 62
7
  6
CONTINUOUS
 10
-31.9646481131
 20
-2.2573138158
 11
-31.9646481131
 21
-4.0435149109
  0
LINE
  5
3D4
100
AcDbEntity
  8
Z030100_COP
100
AcDbLine
 62
7
  6
CONTINUOUS
 10
-32.5996481131
 20
-2.2573138158
 11
-32.3412410811
 21
-3.6486174512
  0
LINE
  5
3D5
100
AcDbEntity
  8
0
100
AcDbLine
 62
7
  6
CONTINUOUS
 10
-31.5746481131
 20
-3.9743539039
 11
-31.5746481131
 21
-2.2573138158
  0
LINE
  5
3D6
100
AcDbEntity
  8
RACCORDO
100
AcDbLine
 62
7
  6
CONTINUOUS
 10
-31.2246481131
 20
12.2926861842
 11
-31.2246481131
 21
12.0426861842
  0
LINE
  5
3D7
100
AcDbEntity
  8
0
100
AcDbLine
 62
7
  6
CONTINUOUS
 10
-31.2246481131
 20
10.2426861842
 11
-31.2246481131
 21
12.0426861842
  0
LINE
  5
3D8
100
AcDbEntity
  8
Z030100_COP
100
AcDbLine
 62
7
  6
CONTINUOUS
 10
-31.3580551451
 20
-3.6486174512
 11
-31.0996481131
 21
-2.2573138158
  0
LINE
  5
3D9
100
AcDbEntity
  8
RACCORDO
100
AcDbLine
 62
250
  6
CONTINUOUS
 10
-45.4246481131
 20
-8.9090837354
 11
-44.8033496006
 21
-8.6829495703
  0
LINE
  5
3DA
100
AcDbEntity
  8
RACCORDO
100
AcDbLine
 62
7
  6
CONTINUOUS
 10
-45.4246481131
 20
-9.1212840501
 11
-44.206011734
 21
-8.6777366817
  0
LINE
  5
3DB
100
AcDbEntity
  8
0
100
AcDbLine
 62
7
  6
CONTINUOUS
 10
-42.5246481131
 20
8.7426861842
 11
-42.9246481131
 21
8.7426861842
  0
LINE
  5
3DC
100
AcDbEntity
  8
0
100
AcDbLine
 62
7
  6
CONTINUOUS
 10
-25.9246481131
 20
8.8426861842
 11
-41.5246481131
 21
8.8426861842
  0
LWPOLYLINE
  5
3DD
100
AcDbEntity
  8
RACCORDO
100
AcDbPolyline
 62
250
  6
CONTINUOUS
 90
9
 70
0
 10
-44.3706317793
 20
14.4938707916
 10
-44.3526054394
 20
14.4796373307
 10
-44.3368608744
 20
14.4645652156
 10
-44.3235301851
 20
14.4488060798
 10
-44.3125153037
 20
14.4324668277
 10
-44.3039477335
 20
14.4157231406
 10
-44.2978704962
 20
14.3987255934
 10
-44.2942424046
 20
14.3815936268
 10
-44.2930587358
 20
14.364458035
  0
LINE
  5
3DE
100
AcDbEntity
  8
0
100
AcDbLine
 62
7
  6
CONTINUOUS
 10
-28.6746481131
 20
-2.6611254762
 11
-28.6746481131
 21
-2.2573138158
  0
LINE
  5
3DF
100
AcDbEntity
  8
SMUSSO
100
AcDbLine
 62
7
  6
CONTINUOUS
 10
-28.5046481131
 20
-2.2573138158
 11
-28.5046481131
 21
-3.5764319064
  0
LINE
  5
3E0
100
AcDbEntity
  8
SMUSSO
100
AcDbLine
 62
7
  6
CONTINUOUS
 10
-28.3646481131
 20
-2.2573138158
 11
-28.3646481131
 21
-3.8985252949
  0
LINE
  5
3E1
100
AcDbEntity
  8
0
100
AcDbLine
 62
7
  6
CONTINUOUS
 10
-27.9746481131
 20
-4.0565059577
 11
-27.9746481131
 21
-2.2573138158
  0
LINE
  5
3E2
100
AcDbEntity
  8
RACCORDO
100
AcDbLine
 62
7
  6
CONTINUOUS
 10
-43.0246481131
 20
9.4325729225
 11
-44.4246481131
 21
9.4203553075
  0
LINE
  5
3E3
100
AcDbEntity
  8
RACCORDO
100
AcDbLine
 62
250
  6
CONTINUOUS
 10
-42.9246481131
 20
9.9426861842
 11
-43.0246481131
 21
9.9426861842
  0
LINE
  5
3E4
100
AcDbEntity
  8
0
100
AcDbLine
 62
7
  6
CONTINUOUS
 10
-42.9246481131
 20
10.2426861842
 11
-25.9246481131
 21
10.2426861842
  0
LINE
  5
3E5
100
AcDbEntity
  8
RACCORDO
100
AcDbLine
 62
7
  6
CONTINUOUS
 10
-42.9246481131
 20
10.2426861842
 11
-43.0246481131
 21
10.2426861842
  0
LINE
  5
3E6
100
AcDbEntity
  8
RACCORDO
100
AcDbLine
 62
7
  6
CONTINUOUS
 10
-43.0246481131
 20
10.252799446
 11
-44.4246481131
 21
10.2650170609
  0
LINE
  5
3E7
100
AcDbEntity
  8
Z030100_COP
100
AcDbLine
 62
7
  6
CONTINUOUS
 10
-28.7496481131
 20
-2.2573138158
 11
-28.4912410811
 21
-3.6486174512
  0
LINE
  5
3E8
100
AcDbEntity
  8
Z030100_COP
100
AcDbLine
 62
250
  6
CONTINUOUS
 10
-26.5246481131
 20
-9.4573138158
 11
-26.5246481131
 21
-2.2573138158
  0
LINE
  5
3E9
100
AcDbEntity
  8
Z030100_COP
100
AcDbLine
 62
7
  6
CONTINUOUS
 10
-26.2246481131
 20
-9.1573138158
 11
-26.2246481131
 21
-2.5573138158
  0
LINE
  5
3EA
100
AcDbEntity
  8
0
100
AcDbLine
 62
7
  6
CONTINUOUS
 10
-26.1246481131
 20
-7.7573138158
 11
-26.1246481131
 21
8.8426861842
  0
LINE
  5
3EB
100
AcDbEntity
  8
Z030100_COP
100
AcDbLine
 62
7
  6
CONTINUOUS
 10
-27.5080551451
 20
-3.6486174512
 11
-27.2496481131
 21
-2.2573138158
  0
LINE
  5
3EC
100
AcDbEntity
  8
RACCORDO
100
AcDbLine
 62
7
  6
CONTINUOUS
 10
-44.4246481131
 20
10.3694963221
 11
-37.0484540759
 21
12.240248688
  0
LINE
  5
3ED
100
AcDbEntity
  8
0
100
AcDbLine
 62
7
  6
CONTINUOUS
 10
-31.2246481131
 20
12.0426861842
 11
-25.9246481131
 21
12.0426861842
  0
LINE
  5
3EE
100
AcDbEntity
  8
RACCORDO
100
AcDbLine
 62
7
  6
CONTINUOUS
 10
-25.9246481131
 20
12.0426861842
 11
-24.4246481131
 21
12.0426861842
  0
LINE
  5
3EF
100
AcDbEntity
  8
RACCORDO
100
AcDbLine
 62
7
  6
CONTINUOUS
 10
-37.5388432661
 20
12.6426861842
 11
-44.4246481131
 21
12.6426861842
  0
LINE
  5
3F0
100
AcDbEntity
  8
0
100
AcDbLine
 62
7
  6
CONTINUOUS
 10
-25.9246481131
 20
1.5426861842
 11
-25.9246481131
 21
8.8426861842
  0
LINE
  5
3F1
100
AcDbEntity
  8
0
100
AcDbLine
 62
7
  6
CONTINUOUS
 10
-25.9246481131
 20
10.2426861842
 11
-25.9246481131
 21
12.0426861842
  0
LINE
  5
3F2
100
AcDbEntity
  8
RACCORDO
100
AcDbLine
 62
250
  6
CONTINUOUS
 10
-25.2246481131
 20
1.5426861842
 11
-25.2246481131
 21
12.0426861842
  0
LINE
  5
3F3
100
AcDbEntity
  8
RACCORDO
100
AcDbLine
 62
7
  6
CONTINUOUS
 10
-24.4246481131
 20
1.5426861842
 11
-24.4246481131
 21
12.0926861842
  0
LINE
  5
3F4
100
AcDbEntity
  8
RACCORDO
100
AcDbLine
 62
7
  6
CONTINUOUS
 10
-43.0246481131
 20
13.7325729225
 11
-44.4246481131
 21
13.7203553075
  0
LINE
  5
3F5
100
AcDbEntity
  8
RACCORDO
100
AcDbLine
 62
7
  6
CONTINUOUS
 10
-25.4246481131
 20
13.0926861842
 11
-30.4246481131
 21
13.0926861842
  0
LINE
  5
3F6
100
AcDbEntity
  8
0
100
AcDbLine
 62
7
  6
CONTINUOUS
 10
-44.1246481131
 20
13.3426861842
 11
-44.4246481131
 21
13.3426861842
  0
LINE
  5
3F7
100
AcDbEntity
  8
RACCORDO
100
AcDbLine
 62
7
  6
CONTINUOUS
 10
-43.0246481131
 20
13.8426861842
 11
-35.5976413458
 21
13.8426861842
  0
LINE
  5
3F8
100
AcDbEntity
  8
RACCORDO
100
AcDbLine
 62
250
  6
CONTINUOUS
 10
-44.4246481131
 20
14.0667433952
 11
-44.6246481131
 21
14.0667433952
  0
LINE
  5
3F9
100
AcDbEntity
  8
RACCORDO
100
AcDbLine
 62
250
  6
CONTINUOUS
 10
-43.0246481131
 20
14.3545372038
 11
-43.2220420701
 21
14.3551114142
  0
LINE
  5
3FA
100
AcDbEntity
  8
RACCORDO
100
AcDbLine
 62
250
  6
CONTINUOUS
 10
-45.4246481131
 20
14.0737248895
 11
-44.6246481131
 21
14.0667433952
  0
LINE
  5
3FB
100
AcDbEntity
  8
RACCORDO
100
AcDbLine
 62
7
  6
CONTINUOUS
 10
-43.222902806
 20
14.5545295885
 11
-45.4246481131
 21
14.5737439287
  0
LINE
  5
3FC
100
AcDbEntity
  8
RACCORDO
100
AcDbLine
 62
250
  6
CONTINUOUS
 10
-44.3618964421
 20
14.3652235895
 11
-43.2220420701
 21
14.3551114142
  0
LWPOLYLINE
  5
3FD
100
AcDbEntity
  8
RACCORDO
100
AcDbPolyline
 62
250
  6
CONTINUOUS
 90
11
 70
0
 10
-44.6229010614
 20
14.5667471881
 10
-44.5949958895
 20
14.5658082377
 10
-44.567316448
 20
14.5634525677
 10
-44.539905921
 20
14.5596464566
 10
-44.5125570101
 20
14.5543474576
 10
-44.4855709069
 20
14.5475563557
 10
-44.4597506363
 20
14.5393609902
 10
-44.4352473242
 20
14.5298497178
 10
-44.4119905158
 20
14.5190598211
 10
-44.3904441792
 20
14.507052636
 10
-44.3706317793
 20
14.4938707916
  0
LWPOLYLINE
  5
3FE
100
AcDbEntity
  8
RACCORDO
100
AcDbPolyline
 62
250
  6
CONTINUOUS
 90
6
 70
0
 10
-44.4246481131
 20
14.3667548188
 10
-44.4228081936
 20
14.366499611
 10
-44.4173222883
 20
14.3662444044
 10
-44.4082913337
 20
14.3659891989
 10
-44.3958814925
 20
14.3657339951
 10
-44.3618964421
 20
14.3652235895
  0
LWPOLYLINE
  5
3FF
100
AcDbEntity
  8
RACCORDO
100
AcDbPolyline
 62
7
  6
CONTINUOUS
 90
22
 70
0
 10
-37.2341346245
 20
-20.1668003271
 10
-37.2231229956
 20
-20.1551844124
 10
-37.2133780748
 20
-20.1435827625
 10
-37.2049315058
 20
-20.1319648472
 10
-37.19771931
 20
-20.1202105023
 10
-37.1918597561
 20
-20.1083881581
 10
-37.1876531634
 20
-20.0967550361
 10
-37.1851213225
 20
-20.0852906514
 10
-37.1842734386
 20
-20.0739876901
 10
-37.1853783299
 20
-20.0631358225
 10
-37.1884714101
 20
-20.0527621584
 10
-37.1935030458
 20
-20.0428573062
 10
-37.2005871594
 20
-20.0336832151
 10
-37.2097893006
 20
-20.0253340229
 10
-37.2209682733
 20
-20.0177942106
 10
-37.2338862043
 20
-20.011201799
 10
-37.2485173465
 20
-20.0057201692
 10
-37.2647474541
 20
-20.0013265749
 10
-37.2821789258
 20
-19.9979054437
 10
-37.3006308583
 20
-19.9954661255
 10
-37.3201462765
 20
-19.9941361253
 10
-37.3406632518
 20
-19.9939767233
  0
LINE
  5
400
100
AcDbEntity
  8
RACCORDO
100
AcDbLine
 62
250
  6
CONTINUOUS
 10
-37.3406632518
 20
-19.9939767233
 11
-36.6211576318
 21
-19.2744711033
  0
LINE
  5
401
100
AcDbEntity
  8
DRAFT
100
AcDbLine
 62
7
  6
CONTINUOUS
 10
-37.4246481131
 20
-20.3573138158
 11
-37.3894333272
 21
-20.3220990298
  0
LINE
  5
402
100
AcDbEntity
  8
RACCORDO
100
AcDbLine
 62
7
  6
CONTINUOUS
 10
-36.4832267569
 20
-19.4158924596
 11
-37.3894333272
 21
-20.3220990298
  0
LINE
  5
403
100
AcDbEntity
  8
RACCORDO
100
AcDbLine
 62
250
  6
CONTINUOUS
 10
-45.4246481131
 20
15.4737629671
 11
-43.0246481131
 21
15.4528184844
  0
LINE
  5
404
100
AcDbEntity
  8
RACCORDO
100
AcDbLine
 62
7
  6
CONTINUOUS
 10
-45.4246481131
 20
15.9737439287
 11
-43.0246481131
 21
15.952799446
  0
LINE
  5
405
100
AcDbEntity
  8
RACCORDO
100
AcDbLine
 62
250
  6
CONTINUOUS
 10
-37.3406632518
 20
21.6793490917
 11
-36.6211576318
 21
20.9598434717
  0
LINE
  5
406
100
AcDbEntity
  8
DRAFT
100
AcDbLine
 62
7
  6
CONTINUOUS
 10
-37.4246481131
 20
22.0426861842
 11
-37.3894333272
 21
22.0074713983
  0
LINE
  5
407
100
AcDbEntity
  8
RACCORDO
100
AcDbLine
 62
7
  6
CONTINUOUS
 10
-37.3894333272
 20
22.0074713983
 11
-36.4832267569
 21
21.101264828
  0
LINE
  5
408
100
AcDbEntity
  8
RACCORDO
100
AcDbLine
 62
250
  6
CONTINUOUS
 10
-21.2246481131
 20
1.5426861842
 11
-21.2246481131
 21
3.9426861842
  0
LINE
  5
409
100
AcDbEntity
  8
RACCORDO
100
AcDbLine
 62
7
  6
CONTINUOUS
 10
-20.7246481131
 20
1.5426861842
 11
-20.7246481131
 21
3.9426861842
  0
LWPOLYLINE
  5
40A
100
AcDbEntity
  8
0
100
AcDbPolyline
 62
7
  6
CONTINUOUS
 90
10
 70
0
 43
0.3500000006
 10
-36.9675042572
 20
35.5926870575
 10
-36.8960776062
 20
35.4498292236
 10
-36.8960776062
 20
35.3784025726
 10
-37.0389331741
 20
35.2355447388
 10
-37.1103620911
 20
35.2355447388
 10
-37.181791008
 20
35.3069713898
 10
-37.181791008
 20
35.3784025726
 10
-37.1103620911
 20
35.5212558746
 10
-37.0389331741
 20
35.5926870575
 10
-36.9675042572
 20
35.5926870575
  0
LINE
  5
40B
100
AcDbEntity
  8
DRAFT
100
AcDbLine
 62
7
  6
CONTINUOUS
 10
-39.3246481131
 20
-21.5573138158
 11
-37.4246481131
 21
-20.3573138158
  0
LINE
  5
40C
100
AcDbEntity
  8
RACCORDO
100
AcDbLine
 62
7
  6
CONTINUOUS
 10
-45.4246481131
 20
18.1990926448
 11
-41.1566989207
 21
19.3426861842
  0
LINE
  5
40D
100
AcDbEntity
  8
RACCORDO
100
AcDbLine
 62
250
  6
CONTINUOUS
 10
-45.4246481131
 20
18.4052126092
 11
-41.1795389389
 21
19.5426861842
  0
LINE
  5
40E
100
AcDbEntity
  8
RACCORDO
100
AcDbLine
 62
7
  6
CONTINUOUS
 10
-36.9246481131
 20
19.3426861842
 11
-41.1566989207
 21
19.3426861842
  0
LINE
  5
40F
100
AcDbEntity
  8
RACCORDO
100
AcDbLine
 62
250
  6
CONTINUOUS
 10
-36.9211576318
 20
19.5426861842
 11
-41.1795389389
 21
19.5426861842
  0
LINE
  5
410
100
AcDbEntity
  8
RACCORDO
100
AcDbLine
 62
250
  6
CONTINUOUS
 10
-36.4246481131
 20
19.8426861842
 11
-36.6211576318
 21
19.8426861842
  0
LINE
  5
411
100
AcDbEntity
  8
DRAFT
100
AcDbLine
 62
7
  6
CONTINUOUS
 10
-37.4246481131
 20
22.0426861842
 11
-39.3246481131
 21
23.2426861842
  0
LWPOLYLINE
  5
412
100
AcDbEntity
  8
RACCORDO
100
AcDbPolyline
 62
7
  6
CONTINUOUS
 90
22
 70
0
 10
-37.3406632518
 20
21.6793490917
 10
-37.3206586555
 20
21.6794872702
 10
-37.3015722188
 20
21.6807498055
 10
-37.2834620366
 20
21.6830793221
 10
-37.2662876156
 20
21.686339652
 10
-37.2502200951
 20
21.6905374809
 10
-37.2356379075
 20
21.6958264025
 10
-37.2226382221
 20
21.7022105039
 10
-37.2112678295
 20
21.7095416204
 10
-37.2018117068
 20
21.7177617625
 10
-37.1944102664
 20
21.7269191597
 10
-37.1890266912
 20
21.7368597676
 10
-37.1856304184
 20
21.7472704769
 10
-37.1842962124
 20
21.7581546695
 10
-37.1849571499
 20
21.7694973566
 10
-37.1873278517
 20
21.7809995336
 10
-37.1913704917
 20
21.7926238429
 10
-37.1970849563
 20
21.8044422486
 10
-37.2042480926
 20
21.8163143044
 10
-37.2127858683
 20
21.8281920633
 10
-37.2227535537
 20
21.8401397436
 10
-37.2341346245
 20
21.8521726956
  0
LINE
  5
413
100
AcDbEntity
  8
RACCORDO
100
AcDbLine
 62
250
  6
CONTINUOUS
 10
-36.4246481131
 20
20.9598434717
 11
-36.6211576318
 21
20.9598434717
  0
LINE
  5
414
100
AcDbEntity
  8
DRAFT
100
AcDbLine
 62
7
  6
CONTINUOUS
 10
-37.4246481131
 20
22.0426861842
 11
-41.4246481131
 21
22.0426861842
  0
LINE
  5
415
100
AcDbEntity
  8
RACCORDO
100
AcDbLine
 62
7
  6
CONTINUOUS
 10
-37.3406632518
 20
21.6793490917
 11
-45.4246481131
 21
21.7426861842
  0
LINE
  5
416
100
AcDbEntity
  8
DRAFT
100
AcDbLine
 62
7
  6
CONTINUOUS
 10
-41.4246481131
 20
22.0426861842
 11
-37.3894333272
 21
22.0074713983
  0
LWPOLYLINE
  5
417
100
AcDbEntity
  8
0
100
AcDbPolyline
 62
250
  6
CONTINUOUS
 90
3
 70
0
 10
-54.4826607465
 20
21.8609994719
 10
-54.4799862746
 20
21.8608489791
 10
-53.9918514151
 20
21.8399821009
  0
LINE
  5
418
100
AcDbEntity
  8
0
100
AcDbLine
 62
250
  6
CONTINUOUS
 10
-53.5184613581
 20
22.318278554
 11
-45.4246481131
 21
22.7424573321
  0
LINE
  5
419
100
AcDbEntity
  8
0
100
AcDbLine
 62
7
  6
CONTINUOUS
 10
-53.535903133
 20
22.8175933214
 11
-45.4246481131
 21
23.2426861842
  0
LINE
  5
41A
100
AcDbEntity
  8
0
100
AcDbLine
 62
7
  6
CONTINUOUS
 10
-39.3246481131
 20
23.2426861842
 11
-39.8246481131
 21
23.2426861842
  0
LINE
  5
41B
100
AcDbEntity
  8
DRAFT
100
AcDbLine
 62
7
  6
CONTINUOUS
 10
-44.5260074953
 20
23.4976365624
 11
-41.4246481131
 21
23.4725527869
  0
LINE
  5
41C
100
AcDbEntity
  8
DRAFT
100
AcDbLine
 62
7
  6
CONTINUOUS
 10
-45.4246481131
 20
23.5058528062
 11
-44.5260074953
 21
23.4976365624
  0
LINE
  5
41D
100
AcDbEntity
  8
DRAFT
100
AcDbLine
 62
7
  6
CONTINUOUS
 10
-45.4246481131
 20
24.3426861842
 11
-41.4246481131
 21
24.2728659245
  0
LINE
  5
41E
100
AcDbEntity
  8
DRAFT
100
AcDbLine
 62
7
  6
CONTINUOUS
 10
-45.4246481131
 20
24.022594746
 11
-43.6329247915
 21
23.9877838799
  0
LWPOLYLINE
  5
41F
100
AcDbEntity
  8
DRAFT
100
AcDbPolyline
 62
7
  6
CONTINUOUS
 90
3
 70
0
 10
-43.6329247915
 20
23.9877838799
 10
-41.863501896
 20
23.951772672
 10
-41.4246481131
 20
23.942576659
  0
LWPOLYLINE
  5
420
100
AcDbEntity
  8
0
100
AcDbPolyline
 62
7
  6
CONTINUOUS
 90
6
 70
0
 43
0.3500000006
 10
-42.1103636169
 20
35.0926869049
 10
-41.0389321289
 20
35.0926869049
 10
-40.824647644
 20
35.3069713898
 10
-40.824647644
 20
36.3783983459
 10
-41.2532211456
 20
36.8069718475
 10
-41.6817901154
 20
36.8069718475
  0
LWPOLYLINE
  5
421
100
AcDbEntity
  8
0
100
AcDbPolyline
 62
7
  6
CONTINUOUS
 90
7
 70
0
 43
0.3500000006
 10
-34.3960768433
 20
35.0926869049
 10
-35.896077301
 20
35.0926869049
 10
-34.3960768433
 20
37.2355453491
 10
-34.3960768433
 20
37.6641143188
 10
-34.8246480789
 20
38.0926878204
 10
-35.4675060654
 20
38.0926878204
 10
-35.896077301
 20
37.449829834
  0
LWPOLYLINE
  5
422
100
AcDbEntity
  8
0
100
AcDbPolyline
 62
7
  6
CONTINUOUS
 90
3
 70
0
 43
0.3500000006
 10
-38.467504715
 20
35.7355448914
 10
-39.9675051727
 20
35.7355448914
 10
-39.3246471863
 20
38.0926878204
  0
ARC
  5
423
100
AcDbEntity
  8
DRAFT
100
AcDbCircle
 62
7
  6
CONTINUOUS
 10
11.1439495066
 20
0.8426861842
 40
28.0
100
AcDbArc
 50
233.1301023542
 51
234.0372348486
  0
ARC
  5
424
100
AcDbEntity
  8
DRAFT
100
AcDbCircle
 62
7
  6
CONTINUOUS
 10
11.1439495066
 20
0.8426861842
 40
28.0
100
AcDbArc
 50
235.8789063483
 51
237.0647695028
  0
ARC
  5
425
100
AcDbEntity
  8
DRAFT
100
AcDbCircle
 62
7
  6
CONTINUOUS
 10
11.1439495066
 20
0.8426861842
 40
28.0
100
AcDbArc
 50
122.9352304972
 51
124.1210936517
  0
ARC
  5
426
100
AcDbEntity
  8
DRAFT
100
AcDbCircle
 62
7
  6
CONTINUOUS
 10
11.1439495066
 20
0.8426861842
 40
28.0
100
AcDbArc
 50
125.9627651514
 51
126.8698976458
  0
ARC
  5
427
100
AcDbEntity
  8
DRAFT
100
AcDbCircle
 62
7
  6
CONTINUOUS
 10
-11.3560504934
 20
0.8426861842
 40
28.0
100
AcDbArc
 50
302.9352304972
 51
304.1210936517
  0
ARC
  5
428
100
AcDbEntity
  8
DRAFT
100
AcDbCircle
 62
7
  6
CONTINUOUS
 10
-11.3560504934
 20
0.8426861842
 40
28.0
100
AcDbArc
 50
305.9627651514
 51
306.8698976458
  0
ARC
  5
429
100
AcDbEntity
  8
DRAFT
100
AcDbCircle
 62
7
  6
CONTINUOUS
 10
-11.3560504934
 20
0.8426861842
 40
28.0
100
AcDbArc
 50
53.1301023542
 51
54.0372348486
  0
ARC
  5
42A
100
AcDbEntity
  8
DRAFT
100
AcDbCircle
 62
7
  6
CONTINUOUS
 10
-11.3560504934
 20
0.8426861842
 40
28.0
100
AcDbArc
 50
55.8789063483
 51
57.0647695028
  0
ARC
  5
42B
100
AcDbEntity
  8
DRAFT
100
AcDbCircle
 62
7
  6
CONTINUOUS
 10
4.8439495066
 20
23.9426861842
 40
0.5
100
AcDbArc
 50
170.803718421
 51
299.112422776
  0
ARC
  5
42C
100
AcDbEntity
  8
DRAFT
100
AcDbCircle
 62
7
  6
CONTINUOUS
 10
4.8439495066
 20
-22.2573138158
 40
0.5
100
AcDbArc
 50
60.887577224
 51
189.196281579
  0
ARC
  5
42D
100
AcDbEntity
  8
DRAFT
100
AcDbCircle
 62
7
  6
CONTINUOUS
 10
-5.0560504934
 20
23.9426861842
 40
0.5
100
AcDbArc
 50
240.887577224
 51
9.196281579
  0
ARC
  5
42E
100
AcDbEntity
  8
DRAFT
100
AcDbCircle
 62
7
  6
CONTINUOUS
 10
-5.0560504934
 20
-22.2573138158
 40
0.5
100
AcDbArc
 50
350.803718421
 51
119.112422776
  0
ARC
  5
42F
100
AcDbEntity
  8
0
100
AcDbCircle
 62
7
  6
CONTINUOUS
 10
-53.4835671768
 20
-20.1335914182
 40
1.0
100
AcDbArc
 50
182.4092313014
 51
267.0
  0
ARC
  5
430
100
AcDbEntity
  8
Z030100_COP
100
AcDbCircle
 62
7
  6
CONTINUOUS
 10
-39.4496481131
 20
-3.5573138158
 40
0.5
100
AcDbArc
 50
190.5216629287
 51
349.4783370713
  0
ARC
  5
431
100
AcDbEntity
  8
Z030100_COP
100
AcDbCircle
 62
7
  6
CONTINUOUS
 10
-35.5996481131
 20
-3.5573138158
 40
0.5
100
AcDbArc
 50
190.5216629287
 51
349.4783370713
  0
ARC
  5
432
100
AcDbEntity
  8
Z030100_COP
100
AcDbCircle
 62
7
  6
CONTINUOUS
 10
-31.8496481131
 20
-3.5573138158
 40
0.5
100
AcDbArc
 50
190.5216629287
 51
349.4783370713
  0
ARC
  5
433
100
AcDbEntity
  8
Z030100_COP
100
AcDbCircle
 62
7
  6
CONTINUOUS
 10
-27.9996481131
 20
-3.5573138158
 40
0.5
100
AcDbArc
 50
190.5216629287
 51
349.4783370713
  0
ARC
  5
434
100
AcDbEntity
  8
RACCORDO
100
AcDbCircle
 62
7
  6
CONTINUOUS
 10
-36.9246481131
 20
-18.1573138158
 40
0.5
100
AcDbArc
 50
0.0
 51
90.0
  0
ARC
  5
435
100
AcDbEntity
  8
Z030100_COP
100
AcDbCircle
 62
7
  6
CONTINUOUS
 10
-34.1246481131
 20
-9.1573138158
 40
0.3
100
AcDbArc
 50
270.0
 51
360.0
  0
ARC
  5
436
100
AcDbEntity
  8
Z030100_COP
100
AcDbCircle
 62
7
  6
CONTINUOUS
 10
-40.9246481131
 20
-9.1573138158
 40
0.3
100
AcDbArc
 50
180.0
 51
270.0
  0
ARC
  5
437
100
AcDbEntity
  8
Z030100_COP
100
AcDbCircle
 62
7
  6
CONTINUOUS
 10
-26.5246481131
 20
-9.1573138158
 40
0.3
100
AcDbArc
 50
270.0
 51
360.0
  0
ARC
  5
438
100
AcDbEntity
  8
Z030100_COP
100
AcDbCircle
 62
7
  6
CONTINUOUS
 10
-33.3246481131
 20
-9.1573138158
 40
0.3
100
AcDbArc
 50
180.0
 51
270.0
  0
ARC
  5
439
100
AcDbEntity
  8
RACCORDO
100
AcDbCircle
 62
7
  6
CONTINUOUS
 10
-43.3246481131
 20
-4.1445939172
 40
0.3
100
AcDbArc
 50
0.0
 51
89.5
  0
ARC
  5
43A
100
AcDbEntity
  8
RACCORDO
100
AcDbCircle
 62
7
  6
CONTINUOUS
 10
-44.6246481131
 20
-6.4813824503
 40
0.2
100
AcDbArc
 50
270.5
 51
360.0
  0
ARC
  5
43B
100
AcDbEntity
  8
RACCORDO
100
AcDbCircle
 62
7
  6
CONTINUOUS
 10
-43.2246481131
 20
-6.4691648354
 40
0.2
100
AcDbArc
 50
270.5
 51
360.0
  0
ARC
  5
43C
100
AcDbEntity
  8
RACCORDO
100
AcDbCircle
 62
7
  6
CONTINUOUS
 10
-36.6246481131
 20
-19.2744711033
 40
0.2
100
AcDbArc
 50
315.0
 51
360.0
  0
ARC
  5
43D
100
AcDbEntity
  8
RACCORDO
100
AcDbCircle
 62
7
  6
CONTINUOUS
 10
-25.4246481131
 20
12.0926861842
 40
1.0
100
AcDbArc
 50
0.0
 51
90.0
  0
ARC
  5
43E
100
AcDbEntity
  8
0
100
AcDbCircle
 62
7
  6
CONTINUOUS
 10
-53.4835671768
 20
21.8189637867
 40
1.0
100
AcDbArc
 50
93.0
 51
177.5907686986
  0
ARC
  5
43F
100
AcDbEntity
  8
RACCORDO
100
AcDbCircle
 62
7
  6
CONTINUOUS
 10
-30.4246481131
 20
12.2926861842
 40
0.8
100
AcDbArc
 50
90.0
 51
180.0
  0
ARC
  5
440
100
AcDbEntity
  8
RACCORDO
100
AcDbCircle
 62
7
  6
CONTINUOUS
 10
-37.5388432661
 20
12.1426861842
 40
0.5
100
AcDbArc
 50
0.0
 51
90.0
  0
ARC
  5
441
100
AcDbEntity
  8
RACCORDO
100
AcDbCircle
 62
7
  6
CONTINUOUS
 10
-35.5976413458
 20
13.3426861842
 40
0.5
100
AcDbArc
 50
3.1798301199
 51
90.0
  0
ARC
  5
442
100
AcDbEntity
  8
RACCORDO
100
AcDbCircle
 62
7
  6
CONTINUOUS
 10
-36.9246481131
 20
19.8426861842
 40
0.5
100
AcDbArc
 50
270.0
 51
360.0
  0
ARC
  5
443
100
AcDbEntity
  8
RACCORDO
100
AcDbCircle
 62
7
  6
CONTINUOUS
 10
-44.6246481131
 20
14.3667542729
 40
0.2
100
AcDbArc
 50
0.0001563699
 51
89.5000013646
  0
ARC
  5
444
100
AcDbEntity
  8
RACCORDO
100
AcDbCircle
 62
7
  6
CONTINUOUS
 10
-43.2246482282
 20
14.3545372049
 40
0.2
100
AcDbArc
 50
359.9999997122
 51
89.4999670152
  0
ARC
  5
445
100
AcDbEntity
  8
RACCORDO
100
AcDbCircle
 62
7
  6
CONTINUOUS
 10
-36.6246481131
 20
20.9598434717
 40
0.2
100
AcDbArc
 50
0.0
 51
45.0
  0
ARC
  5
446
100
AcDbEntity
  8
RACCORDO
100
AcDbCircle
 62
7
  6
CONTINUOUS
 10
445.0753518869
 20
0.8426861842
 40
500.0
100
AcDbArc
 50
179.4013599543
 51
180.2649057832
  0
ARC
  5
447
100
AcDbEntity
  8
RACCORDO
100
AcDbCircle
 62
7
  6
CONTINUOUS
 10
445.0753518869
 20
0.8426861842
 40
500.0
100
AcDbArc
 50
180.6101091986
 51
180.7649414215
  0
ARC
  5
448
100
AcDbEntity
  8
0
100
AcDbCircle
 62
7
  6
CONTINUOUS
 10
445.0753518869
 20
0.8426861842
 40
500.0
100
AcDbArc
 50
177.5907686986
 51
182.4092313014
  0
ELLIPSE
  5
449
100
AcDbEntity
  8
0
100
AcDbEllipse
 62
7
  6
CONTINUOUS
 10
10.5438733426
 20
-21.0566276428
 30
0.0
 11
-0.1582391023
 21
0.4751033573
 31
0.0
 40
0.9984778551
 41
-3.4626430041
 42
-1.8927600658
  0
ELLIPSE
  5
44A
100
AcDbEntity
  8
0
100
AcDbEllipse
 62
7
  6
CONTINUOUS
 10
10.5438733426
 20
22.7420000112
 30
0.0
 11
0.1582391023
 21
0.4751033573
 31
0.0
 40
0.9984778551
 41
-1.2488325878
 42
0.3210503505
  0
ELLIPSE
  5
44B
100
AcDbEntity
  8
0
100
AcDbEllipse
 62
7
  6
CONTINUOUS
 10
-10.7559743294
 20
-21.0566276428
 30
0.0
 11
0.1582391023
 21
0.4751033573
 31
0.0
 40
0.9984778551
 41
-4.3904252414
 42
-2.8205423031
  0
ELLIPSE
  5
44C
100
AcDbEntity
  8
0
100
AcDbEllipse
 62
7
  6
CONTINUOUS
 10
-10.7559743294
 20
22.7420000112
 30
0.0
 11
-0.1582391023
 21
0.4751033573
 31
0.0
 40
0.9984778551
 41
-0.3210503505
 42
1.2488325878
  0
ELLIPSE
  5
44D
100
AcDbEntity
  8
Z030100_COP
100
AcDbEllipse
 62
7
  6
CONTINUOUS
 10
-40.9246481131
 20
-2.5573138158
 30
0.0
 11
0.0
 21
0.9
 31
0.0
 40
0.3333333333
 41
1.2309594173
 42
1.5707963268
  0
ELLIPSE
  5
44E
100
AcDbEntity
  8
Z030100_COP
100
AcDbEllipse
 62
7
  6
CONTINUOUS
 10
-34.1246481131
 20
-2.5573138158
 30
0.0
 11
-0.0
 21
0.9
 31
0.0
 40
0.3333333333
 41
-1.5707963268
 42
-1.2309594173
  0
ELLIPSE
  5
44F
100
AcDbEntity
  8
Z030100_COP
100
AcDbEllipse
 62
7
  6
CONTINUOUS
 10
-33.3246481131
 20
-2.5573138158
 30
0.0
 11
0.0
 21
0.9
 31
0.0
 40
0.3333333333
 41
1.2309594173
 42
1.5707963268
  0
ELLIPSE
  5
450
100
AcDbEntity
  8
Z030100_COP
100
AcDbEllipse
 62
7
  6
CONTINUOUS
 10
-26.5246481131
 20
-2.5573138158
 30
0.0
 11
-0.0
 21
0.9
 31
0.0
 40
0.3333333333
 41
-1.5707963268
 42
-1.2309594173
  0
ENDSEC
  0
SECTION
  2
OBJECTS
  0
DICTIONARY
  5
C
100
AcDbDictionary
280
0
281
1
  3
ACAD_GROUP
350
D
  3
ACAD_MLINESTYLE
350
17
  3
ACAD_LAYOUT
350
1A
  3
ACAD_PLOTSETTINGS
350
19
  3
ACAD_PLOTSTYLENAME
350
E
  0
DICTIONARY
  5
D
102
{ACAD_REACTORS
330
C
102
}
100
AcDbDictionary
280
0
281
1
  0
ACDBDICTIONARYWDFLT
  5
E
102
{ACAD_REACTORS
330
C
102
}
100
AcDbDictionary
281
1
  3
Normal
350
F
100
AcDbDictionaryWithDefault
340
F
  0
DICTIONARY
  5
17
102
{ACAD_REACTORS
330
C
102
}
100
AcDbDictionary
280
0
281
1
  3
Standard
350
18
  0
DICTIONARY
  5
19
102
{ACAD_REACTORS
330
C
102
}
100
AcDbDictionary
281
1
  0
DICTIONARY
  5
1A
102
{ACAD_REACTORS
330
C
102
}
100
AcDbDictionary
281
1
  3
Model
350
451
  3
Layout1
350
452
  0
ACDBPLACEHOLDER
  5
F
102
{ACAD_REACTORS
330
E
102
}
  0
MLINESTYLE
  5
18
102
{ACAD_REACTORS
330
17
102
}
100
AcDbMlineStyle
  2
STANDARD
 70
0
  3

 62
256
 51
90.0
 52
90.0
 71
2
 49
0.5
 62
256
  6
BYLAYER
 49
-0.5
 62
256
  6
BYLAYER
  0
LAYOUT
  5
451
102
{ACAD_REACTORS
330
1A
102
}
100
AcDbPlotSettings
  1

  2
none_device
  4
ISO_A4_(297.00_x_210.00_MM)
  6

 40
0.0
 41
0.0
 42
0.0
 43
0.0
 44
297.0
 45
210.0
 46
0.0
 47
0.0
 48
0.0
 49
0.0
140
0.0
141
0.0
142
1.0
143
1.0
 70
1024
 72
1
 73
0
 74
0
  7

 75
0
147
1.0
148
0.0
149
0.0
100
AcDbLayout
  1
Model
 70
0
 71
0
 10
0.0
 20
0.0
 11
297.0
 21
210.0
 12
0.0
 22
0.0
 32
0.0
 14
0.0
 24
0.0
 34
0.0
 15
0.0
 25
0.0
 35
0.0
146
0.0
 13
0.0
 23
0.0
 33
0.0
 16
1.0
 26
0.0
 36
0.0
 17
0.0
 27
1.0
 37
0.0
 76
0
330
214
345
0
346
0
  0
LAYOUT
  5
452
102
{ACAD_REACTORS
330
1A
102
}
100
AcDbPlotSettings
  1

  2
none_device
  4
ISO_A4_(297.00_x_210.00_MM)
  6

 40
0.0
 41
0.0
 42
0.0
 43
0.0
 44
297.0
 45
210.0
 46
0.0
 47
0.0
 48
0.0
 49
0.0
140
0.0
141
0.0
142
1.0
143
1.0
 70
0
 72
1
 73
0
 74
0
  7

 75
0
147
1.0
148
0.0
149
0.0
100
AcDbLayout
  1
Layout1
 70
0
 71
1
 10
0.0
 20
0.0
 11
297.0
 21
210.0
 12
0.0
 22
0.0
 32
0.0
 14
0.0
 24
0.0
 34
0.0
 15
0.0
 25
0.0
 35
0.0
146
0.0
 13
0.0
 23
0.0
 33
0.0
 16
1.0
 26
0.0
 36
0.0
 17
0.0
 27
1.0
 37
0.0
 76
0
330
215
345
0
346
0
  0
ENDSEC
  0
EOF
