  0
SECTION
  2
HEADER
  9
$ACADVER
  1
AC1024
  9
$DWGCODEPAGE
  3
ANSI_1252
  9
$EXTMAX
 10
297.0
 20
210.0
 30
0.0
  9
$EXTMIN
 10
0.0
 20
0.0
 30
0.0
  9
$LIMMIN
 10
0.0
 20
0.0
  9
$LIMMAX
 10
297.0
 20
210.0
  9
$VIEWCTR
 10
148.5
 20
105.0
  9
$VIEWSIZE
 40
210.0
  9
$CLAYER
  8
0
  9
$LTSCALE
 40
16.335
  9
$CELTYPE
  6
BYLAYER
  9
$DIMSCALE
 40
1.0
  9
$DIMASZ
 40
3.0
  9
$DIMEXO
 40
0.5
  9
$DIMDLI
 40
11.286
  9
$DIMEXE
 40
1.5
  9
$DIMCEN
 40
2.673
  9
$DIMLFAC
 40
1.0
  9
$DIMBLK
  1
_FILLED
  9
$DIMALT
 70
0
  9
$DIMALTF
 40
0.0393700787
  9
$DIMTXT
 40
3.0
  9
$DIMTOL
 70
1
  9
$DIMLIM
 70
0
  9
$DIMTFAC
 40
1.0
  9
$DIMTP
 40
0.01
  9
$DIMTM
 40
0.01
  9
$DIMGAP
 40
0.625
  9
$DIMDSEP
 70
44
  9
$AUNITS
 70
0
  9
$PDMODE
 70
3
  9
$PDSIZE
 40
3.0
  9
$HANDSEED
  5
649
  9
$TILEMODE
 70
1
  9
$MEASUREMENT
 70
1
  9
$INSUNITS
 70
4
  0
ENDSEC
  0
SECTION
  2
CLASSES
  0
CLASS
  1
ACDBDICTIONARYWDFLT
  2
AcDbDictionaryWithDefault
  3
AutoCAD 2000
 90
0
 91
1
280
0
281
0
  0
CLASS
  1
ACDBPLACEHOLDER
  2
AcDbPlaceHolder
  3
AutoCAD 2000
 90
0
 91
1
280
0
281
0
  0
CLASS
  1
LAYOUT
  2
AcDbLayout
  3
AutoCAD 2000
 90
0
 91
0
280
0
281
0
  0
ENDSEC
  0
SECTION
  2
TABLES
  0
TABLE
  2
VPORT
  5
8
100
AcDbSymbolTable
 70
2
  0
VPORT
  5
1F4
100
AcDbSymbolTableRecord
100
AcDbViewportTableRecord
  2
*ACTIVE
 70
0
 10
0.0
 20
0.0
 11
1.0
 21
1.0
 12
148.5
 22
105.0
 13
0.0
 23
0.0
 14
1.0
 24
1.0
 15
0.0
 25
0.0
 16
0.0
 26
0.0
 36
1.0
 17
0.0
 27
0.0
 37
0.0
 40
210.0
 41
1.4142857143
 42
50.0
 43
0.0
 44
0.0
 50
0.0
 51
0.0
 71
0
 72
100
 73
1
 74
1
 75
0
 76
0
 77
0
 78
0
  0
ENDTAB
  0
TABLE
  2
LTYPE
  5
5
100
AcDbSymbolTable
 70
6
  0
LTYPE
  5
14
100
AcDbSymbolTableRecord
100
AcDbLinetypeTableRecord
  2
BYBLOCK
 70
0
  3

 72
65
 73
0
 40
0.0
  0
LTYPE
  5
15
100
AcDbSymbolTableRecord
100
AcDbLinetypeTableRecord
  2
BYLAYER
 70
0
  3

 72
65
 73
0
 40
0.0
  0
LTYPE
  5
16
100
AcDbSymbolTableRecord
100
AcDbLinetypeTableRecord
  2
CONTINUOUS
 70
64
  3
Solid line
 72
65
 73
0
 40
0.0
  0
LTYPE
  5
1F5
100
AcDbSymbolTableRecord
100
AcDbLinetypeTableRecord
  2
CENTER
 70
64
  3
____ _ ____ _ ____ _ ____ _ ____ _ ____ _ ____
 72
65
 73
4
 40
0.6
 49
0.375
 74
0
 49
-0.075
 74
0
 49
0.075
 74
0
 49
-0.075
 74
0
  0
LTYPE
  5
1F6
100
AcDbSymbolTableRecord
100
AcDbLinetypeTableRecord
  2
HIDDEN
 70
64
  3
- - - - - - - - - - - - - - - - - - - -
 72
65
 73
2
 40
0.2
 49
0.1
 74
0
 49
-0.1
 74
0
  0
LTYPE
  5
1F7
100
AcDbSymbolTableRecord
100
AcDbLinetypeTableRecord
  2
PHANTOM
 70
64
  3
_____ _ _ _____ _ _ _____ _ _ _____
 72
65
 73
6
 40
0.8
 49
0.45
 74
0
 49
-0.05
 74
0
 49
0.1
 74
0
 49
-0.05
 74
0
 49
0.1
 74
0
 49
-0.05
 74
0
  0
LTYPE
  5
1F8
100
AcDbSymbolTableRecord
100
AcDbLinetypeTableRecord
  2
DOT
 70
64
  3
. . . . . . . . . . . . . . . . . . . .
 72
65
 73
2
 40
0.2
 49
0.1
 74
0
 49
-0.1
 74
0
  0
LTYPE
  5
1F9
100
AcDbSymbolTableRecord
100
AcDbLinetypeTableRecord
  2
DASHED
 70
64
  3
- - - - - - - - - - - - - - - - - - - -
 72
65
 73
2
 40
0.2
 49
0.1
 74
0
 49
-0.1
 74
0
  0
ENDTAB
  0
TABLE
  2
LAYER
  5
2
100
AcDbSymbolTable
 70
36
  0
LAYER
  5
10
100
AcDbSymbolTableRecord
100
AcDbLayerTableRecord
  2
0
 70
0
 62
7
  6
CONTINUOUS
370
-3
390
F
  0
LAYER
  5
1FA
100
AcDbSymbolTableRecord
100
AcDbLayerTableRecord
  2
DEFAULT_1
 70
0
 62
7
  6
CENTER
370
-3
390
F
  0
LAYER
  5
1FB
100
AcDbSymbolTableRecord
100
AcDbLayerTableRecord
  2
DEFAULT_2
 70
0
 62
7
  6
HIDDEN
370
-3
390
F
  0
LAYER
  5
1FC
100
AcDbSymbolTableRecord
100
AcDbLayerTableRecord
  2
DEFAULT_3
 70
0
 62
7
  6
PHANTOM
370
-3
390
F
  0
LAYER
  5
1FD
100
AcDbSymbolTableRecord
100
AcDbLayerTableRecord
  2
ASSI
 70
0
 62
7
  6
CONTINUOUS
370
-3
390
F
  0
LAYER
  5
1FE
100
AcDbSymbolTableRecord
100
AcDbLayerTableRecord
  2
COORDINATE
 70
0
 62
7
  6
CONTINUOUS
370
-3
390
F
  0
LAYER
  5
1FF
100
AcDbSymbolTableRecord
100
AcDbLayerTableRecord
  2
COORD_ORIGINE
 70
0
 62
7
  6
CONTINUOUS
370
-3
390
F
  0
LAYER
  5
200
100
AcDbSymbolTableRecord
100
AcDbLayerTableRecord
  2
COPY_PUBLISH
 70
0
 62
7
  6
CONTINUOUS
370
-3
390
F
  0
LAYER
  5
201
100
AcDbSymbolTableRecord
100
AcDbLayerTableRecord
  2
COSMETIC
 70
0
 62
7
  6
CONTINUOUS
370
-3
390
F
  0
LAYER
  5
202
100
AcDbSymbolTableRecord
100
AcDbLayerTableRecord
  2
COSMETICHE
 70
0
 62
7
  6
CONTINUOUS
370
-3
390
F
  0
LAYER
  5
203
100
AcDbSymbolTableRecord
100
AcDbLayerTableRecord
  2
COSMETICI
 70
0
 62
7
  6
CONTINUOUS
370
-3
390
F
  0
LAYER
  5
204
100
AcDbSymbolTableRecord
100
AcDbLayerTableRecord
  2
CURVE
 70
0
 62
7
  6
CONTINUOUS
370
-3
390
F
  0
LAYER
  5
205
100
AcDbSymbolTableRecord
100
AcDbLayerTableRecord
  2
DRAFT
 70
0
 62
7
  6
CONTINUOUS
370
-3
390
F
  0
LAYER
  5
206
100
AcDbSymbolTableRecord
100
AcDbLayerTableRecord
  2
IMPORT_FEATURES
 70
0
 62
7
  6
CONTINUOUS
370
-3
390
F
  0
LAYER
  5
207
100
AcDbSymbolTableRecord
100
AcDbLayerTableRecord
  2
IMPORT_IGES
 70
0
 62
7
  6
CONTINUOUS
370
-3
390
F
  0
LAYER
  5
208
100
AcDbSymbolTableRecord
100
AcDbLayerTableRecord
  2
IMPORT_LASER
 70
0
 62
7
  6
CONTINUOUS
370
-3
390
F
  0
LAYER
  5
209
100
AcDbSymbolTableRecord
100
AcDbLayerTableRecord
  2
INTF_1
 70
0
 62
7
  6
CONTINUOUS
370
-3
390
F
  0
LAYER
  5
20A
100
AcDbSymbolTableRecord
100
AcDbLayerTableRecord
  2
INTF_2
 70
0
 62
7
  6
CONTINUOUS
370
-3
390
F
  0
LAYER
  5
20B
100
AcDbSymbolTableRecord
100
AcDbLayerTableRecord
  2
INTF_8
 70
0
 62
7
  6
CONTINUOUS
370
-3
390
F
  0
LAYER
  5
20C
100
AcDbSymbolTableRecord
100
AcDbLayerTableRecord
  2
NOTE
 70
0
 62
7
  6
CONTINUOUS
370
-3
390
F
  0
LAYER
  5
20D
100
AcDbSymbolTableRecord
100
AcDbLayerTableRecord
  2
PIANI
 70
0
 62
7
  6
CONTINUOUS
370
-3
390
F
  0
LAYER
  5
20E
100
AcDbSymbolTableRecord
100
AcDbLayerTableRecord
  2
PIANI_ORIGINE
 70
0
 62
7
  6
CONTINUOUS
370
-3
390
F
  0
LAYER
  5
20F
100
AcDbSymbolTableRecord
100
AcDbLayerTableRecord
  2
PUNTI
 70
0
 62
7
  6
CONTINUOUS
370
-3
390
F
  0
LAYER
  5
210
100
AcDbSymbolTableRecord
100
AcDbLayerTableRecord
  2
RACCORDO
 70
0
 62
7
  6
CONTINUOUS
370
-3
390
F
  0
LAYER
  5
211
100
AcDbSymbolTableRecord
100
AcDbLayerTableRecord
  2
SMUSSO
 70
0
 62
7
  6
CONTINUOUS
370
-3
390
F
  0
LAYER
  5
212
100
AcDbSymbolTableRecord
100
AcDbLayerTableRecord
  2
SNAPLINE
 70
0
 62
7
  6
CONTINUOUS
370
-3
390
F
  0
LAYER
  5
213
100
AcDbSymbolTableRecord
100
AcDbLayerTableRecord
  2
SUPERFICI
 70
0
 62
7
  6
CONTINUOUS
370
-3
390
F
  0
LAYER
  5
214
100
AcDbSymbolTableRecord
100
AcDbLayerTableRecord
  2
TRASH
 70
0
 62
7
  6
CONTINUOUS
370
-3
390
F
  0
LAYER
  5
215
100
AcDbSymbolTableRecord
100
AcDbLayerTableRecord
  2
XSEC_DATUMS
 70
0
 62
7
  6
CONTINUOUS
370
-3
390
F
  0
ENDTAB
  0
TABLE
  2
STYLE
  5
3
100
AcDbSymbolTable
 70
1
  0
STYLE
  5
11
100
AcDbSymbolTableRecord
100
AcDbTextStyleTableRecord
  2
STANDARD
 70
0
 40
0.0
 41
0.8
 50
0.0
 71
0
 42
0.2
  3
txt
  4

  0
STYLE
  5
216
100
AcDbSymbolTableRecord
100
AcDbTextStyleTableRecord
  2
TEXTSTYLE_1
 70
0
 40
0.0
 41
0.8
 50
0.0
 71
0
 42
0.2
  3
gdt
  4

  0
ENDTAB
  0
TABLE
  2
VIEW
  5
6
100
AcDbSymbolTable
 70
0
  0
ENDTAB
  0
TABLE
  2
UCS
  5
7
100
AcDbSymbolTable
 70
0
  0
ENDTAB
  0
TABLE
  2
APPID
  5
9
100
AcDbSymbolTable
 70
1
  0
APPID
  5
217
100
AcDbSymbolTableRecord
100
AcDbRegAppTableRecord
  2
ACAD
 70
0
  0
ENDTAB
  0
TABLE
  2
BLOCK_RECORD
  5
1
100
AcDbSymbolTable
 70
0
  0
BLOCK_RECORD
  5
218
100
AcDbSymbolTableRecord
100
AcDbBlockTableRecord
  2
*Model_Space
  0
BLOCK_RECORD
  5
219
100
AcDbSymbolTableRecord
100
AcDbBlockTableRecord
  2
*Paper_Space
  0
BLOCK_RECORD
  5
21A
100
AcDbSymbolTableRecord
100
AcDbBlockTableRecord
  2
_FILLED
  0
BLOCK_RECORD
  5
21B
100
AcDbSymbolTableRecord
100
AcDbBlockTableRecord
  2
*D0
  0
BLOCK_RECORD
  5
21C
100
AcDbSymbolTableRecord
100
AcDbBlockTableRecord
  2
*D1
  0
BLOCK_RECORD
  5
21D
100
AcDbSymbolTableRecord
100
AcDbBlockTableRecord
  2
*D2
  0
BLOCK_RECORD
  5
21E
100
AcDbSymbolTableRecord
100
AcDbBlockTableRecord
  2
*D3
  0
ENDTAB
  0
TABLE
  2
DIMSTYLE
  5
A
100
AcDbSymbolTable
 70
1
100
AcDbDimStyleTable
 71
0
  0
DIMSTYLE
105
21F
100
AcDbSymbolTableRecord
100
AcDbDimStyleTableRecord
  2
STANDARD
 70
0
  3

  4

 40
1.0
 41
3.0
 42
0.5
 43
0.38
 44
1.5
 45
0.0
 46
0.0
 47
0.01
 48
0.01
140
3.0
141
0.09
142
0.0
143
25.4
144
1.0
145
0.0
146
1.0
147
0.625
 71
1
 72
0
 73
0
 74
0
 75
0
 76
0
 77
1
 78
8
 79
2
170
0
171
1
172
0
173
0
174
0
175
0
176
0
177
0
178
0
270
2
179
2
271
2
272
2
273
2
274
2
275
0
280
0
281
0
282
0
283
1
284
8
285
0
286
0
287
3
288
0
340
11
278
44
341
21A
342
21A
343
21A
344
21A
  0
DIMSTYLE
105
220
100
AcDbSymbolTableRecord
100
AcDbDimStyleTableRecord
  2
DIMSTYLE_1
 70
0
  3

  4

 40
1.0
 41
3.0
 42
0.5
 43
0.38
 44
1.5
 45
0.0
 46
0.0
 47
0.0
 48
0.0
140
3.0
141
0.09
142
0.0
143
25.4
144
1.0
145
0.0
146
1.0
147
0.75
 71
0
 72
0
 73
0
 74
0
 75
0
 76
0
 77
1
 78
8
 79
2
170
0
171
1
172
0
173
0
174
0
175
0
176
0
177
0
178
0
270
2
179
2
271
2
272
2
273
2
274
2
275
0
280
0
281
0
282
0
283
1
284
8
285
0
286
0
287
3
288
0
340
11
278
44
341
21A
342
21A
343
21A
344
21A
  0
DIMSTYLE
105
221
100
AcDbSymbolTableRecord
100
AcDbDimStyleTableRecord
  2
DIMSTYLE_2
 70
0
  3

  4

 40
1.0
 41
3.0
 42
0.5
 43
0.38
 44
1.5
 45
0.0
 46
0.0
 47
0.0
 48
0.0
140
3.0
141
0.09
142
0.0
143
25.4
144
1.0
145
0.0
146
1.0
147
0.75
 71
0
 72
0
 73
0
 74
0
 75
0
 76
0
 77
1
 78
8
 79
2
170
0
171
1
172
0
173
0
174
0
175
0
176
0
177
0
178
0
270
2
179
2
271
1
272
1
273
2
274
2
275
0
280
0
281
0
282
0
283
1
284
8
285
0
286
0
287
3
288
0
340
11
278
44
341
21A
342
21A
343
21A
344
21A
  0
ENDTAB
  0
ENDSEC
  0
SECTION
  2
BLOCKS
  0
BLOCK
  5
20
100
AcDbEntity
  8
0
100
AcDbBlockBegin
  2
*Model_Space
 70
0
 10
0.0
 20
0.0
 30
0.0
  3
*Model_Space
  1

  0
ENDBLK
  5
21
100
AcDbEntity
  8
0
100
AcDbBlockEnd
  0
BLOCK
  5
1C
100
AcDbEntity
  8
0
100
AcDbBlockBegin
  2
*Paper_Space
 70
0
 10
0.0
 20
0.0
 30
0.0
  3
*Paper_Space
  1

  0
ENDBLK
  5
1D
100
AcDbEntity
  8
0
100
AcDbBlockEnd
  0
BLOCK
  5
222
100
AcDbEntity
  8
0
100
AcDbBlockBegin
  2
_FILLED
 70
64
 10
0.0
 20
0.0
  3
_FILLED
  1

  0
SOLID
  5
223
100
AcDbEntity
  8
0
  6
BYBLOCK
 62
0
100
AcDbTrace
 10
0.0
 20
0.0
 11
-1.0
 21
0.3166666667
 12
-1.0
 22
-0.3166666667
 13
-1.0
 23
-0.3166666667
  0
ENDBLK
  5
224
100
AcDbEntity
  8
0
  6
BYBLOCK
 62
0
100
AcDbBlockEnd
  0
BLOCK
  5
225
100
AcDbEntity
  8
0
100
AcDbBlockBegin
 62
7
  6
CONTINUOUS
  2
*D0
 70
65
 10
0.0
 20
0.0
  3
*D0
  1

  0
LINE
  5
226
100
AcDbEntity
  8
0
100
AcDbLine
 62
7
  6
CONTINUOUS
 10
-11.15
 20
22.3997711479
 11
-11.15
 21
35.0
  0
LINE
  5
227
100
AcDbEntity
  8
0
100
AcDbLine
 62
7
  6
CONTINUOUS
 10
11.15
 20
22.3997711479
 11
11.15
 21
35.0
  0
LINE
  5
228
100
AcDbEntity
  8
0
100
AcDbLine
 62
7
  6
CONTINUOUS
 10
-11.15
 20
33.5
 11
0.0
 21
33.5
  0
LINE
  5
229
100
AcDbEntity
  8
0
100
AcDbLine
 62
7
  6
CONTINUOUS
 10
11.15
 20
33.5
 11
0.0
 21
33.5
  0
INSERT
  5
22A
100
AcDbEntity
  8
0
100
AcDbBlockReference
 62
7
  6
CONTINUOUS
  2
_FILLED
 10
-11.15
 20
33.5
 41
3.0
 42
3.0
 43
3.0
 50
180.0
  0
INSERT
  5
22B
100
AcDbEntity
  8
0
100
AcDbBlockReference
 62
7
  6
CONTINUOUS
  2
_FILLED
 10
11.15
 20
33.5
 41
3.0
 42
3.0
 43
3.0
  0
ENDBLK
  5
22C
100
AcDbEntity
  8
0
  6
BYBLOCK
 62
0
100
AcDbBlockEnd
  0
BLOCK
  5
22D
100
AcDbEntity
  8
0
100
AcDbBlockBegin
 62
7
  6
CONTINUOUS
  2
*D1
 70
65
 10
0.0
 20
0.0
  3
*D1
  1

  0
LINE
  5
22E
100
AcDbEntity
  8
0
100
AcDbLine
 62
7
  6
CONTINUOUS
 10
4.4733373476
 20
23.5
 11
22.65
 21
23.5
  0
LINE
  5
22F
100
AcDbEntity
  8
0
100
AcDbLine
 62
7
  6
CONTINUOUS
 10
4.4733373476
 20
-23.5
 11
22.65
 21
-23.5
  0
LINE
  5
230
100
AcDbEntity
  8
0
100
AcDbLine
 62
7
  6
CONTINUOUS
 10
21.15
 20
23.5
 11
21.15
 21
0.0
  0
LINE
  5
231
100
AcDbEntity
  8
0
100
AcDbLine
 62
7
  6
CONTINUOUS
 10
21.15
 20
-23.5
 11
21.15
 21
0.0
  0
INSERT
  5
232
100
AcDbEntity
  8
0
100
AcDbBlockReference
 62
7
  6
CONTINUOUS
  2
_FILLED
 10
21.15
 20
23.5
 41
3.0
 42
3.0
 43
3.0
 50
90.0
  0
INSERT
  5
233
100
AcDbEntity
  8
0
100
AcDbBlockReference
 62
7
  6
CONTINUOUS
  2
_FILLED
 10
21.15
 20
-23.5
 41
3.0
 42
3.0
 43
3.0
 50
270.0
  0
ENDBLK
  5
234
100
AcDbEntity
  8
0
  6
BYBLOCK
 62
0
100
AcDbBlockEnd
  0
BLOCK
  5
235
100
AcDbEntity
  8
0
100
AcDbBlockBegin
 62
7
  6
CONTINUOUS
  2
*D2
 70
65
 10
0.0
 20
0.0
  3
*D2
  1

  0
LINE
  5
236
100
AcDbEntity
  8
0
100
AcDbLine
 62
7
  6
CONTINUOUS
 10
-56.7905546387
 20
22.3997711479
 11
-56.7905546387
 21
35.0
  0
LINE
  5
237
100
AcDbEntity
  8
0
100
AcDbLine
 62
7
  6
CONTINUOUS
 10
-22.6526411355
 20
0.5
 11
-22.6526411355
 21
35.0
  0
LINE
  5
238
100
AcDbEntity
  8
0
100
AcDbLine
 62
7
  6
CONTINUOUS
 10
-56.7905546387
 20
33.5
 11
-39.7215978871
 21
33.5
  0
LINE
  5
239
100
AcDbEntity
  8
0
100
AcDbLine
 62
7
  6
CONTINUOUS
 10
-22.6526411355
 20
33.5
 11
-39.7215978871
 21
33.5
  0
INSERT
  5
23A
100
AcDbEntity
  8
0
100
AcDbBlockReference
 62
7
  6
CONTINUOUS
  2
_FILLED
 10
-56.7905546387
 20
33.5
 41
3.0
 42
3.0
 43
3.0
 50
180.0
  0
INSERT
  5
23B
100
AcDbEntity
  8
0
100
AcDbBlockReference
 62
7
  6
CONTINUOUS
  2
_FILLED
 10
-22.6526411355
 20
33.5
 41
3.0
 42
3.0
 43
3.0
  0
ENDBLK
  5
23C
100
AcDbEntity
  8
0
  6
BYBLOCK
 62
0
100
AcDbBlockEnd
  0
BLOCK
  5
23D
100
AcDbEntity
  8
0
100
AcDbBlockBegin
 62
7
  6
CONTINUOUS
  2
*D3
 70
65
 10
0.0
 20
0.0
  3
*D3
  1

  0
LINE
  5
23E
100
AcDbEntity
  8
0
100
AcDbLine
 62
7
  6
CONTINUOUS
 10
-22.6526411355
 20
0.5
 11
-22.6526411355
 21
43.0
  0
LINE
  5
23F
100
AcDbEntity
  8
0
100
AcDbLine
 62
7
  6
CONTINUOUS
 10
-66.2905546387
 20
0.5
 11
-66.2905546387
 21
43.0
  0
LINE
  5
240
100
AcDbEntity
  8
0
100
AcDbLine
 62
7
  6
CONTINUOUS
 10
-22.6526411355
 20
41.5
 11
-44.4715978871
 21
41.5
  0
LINE
  5
241
100
AcDbEntity
  8
0
100
AcDbLine
 62
7
  6
CONTINUOUS
 10
-66.2905546387
 20
41.5
 11
-44.4715978871
 21
41.5
  0
INSERT
  5
242
100
AcDbEntity
  8
0
100
AcDbBlockReference
 62
7
  6
CONTINUOUS
  2
_FILLED
 10
-22.6526411355
 20
41.5
 41
3.0
 42
3.0
 43
3.0
 50
0.0
  0
INSERT
  5
243
100
AcDbEntity
  8
0
100
AcDbBlockReference
 62
7
  6
CONTINUOUS
  2
_FILLED
 10
-66.2905546387
 20
41.5
 41
3.0
 42
3.0
 43
3.0
 50
180.0
  0
ENDBLK
  5
244
100
AcDbEntity
  8
0
  6
BYBLOCK
 62
0
100
AcDbBlockEnd
  0
ENDSEC
  0
SECTION
  2
ENTITIES
  0
DIMENSION
  5
245
100
AcDbEntity
  8
0
100
AcDbDimension
 62
7
  6
CONTINUOUS
  2
*D0
 10
11.15
 20
33.5
 11
-4.2857142857
 21
33.5
 70
160
 71
2
 72
2
 41
0.9
 42
22.3
  3
DIMSTYLE_1
100
AcDbAlignedDimension
 13
-11.15
 23
21.8997711479
 14
11.15
 24
21.8997711479
100
AcDbRotatedDimension
  0
DIMENSION
  5
246
100
AcDbEntity
  8
0
100
AcDbDimension
 62
7
  6
CONTINUOUS
  2
*D1
 10
21.15
 20
-23.5
 11
21.15
 21
-2.3571428571
 70
160
 71
2
 72
2
 41
0.9
 42
47.0
  3
DIMSTYLE_1
100
AcDbAlignedDimension
 13
3.9733373476
 23
23.5
 14
3.9733373476
 24
-23.5
 50
270.0
100
AcDbRotatedDimension
  0
DIMENSION
  5
247
100
AcDbEntity
  8
0
100
AcDbDimension
 62
7
  6
CONTINUOUS
  2
*D2
 10
-22.6526411355
 20
33.5
 11
-43.6858836014
 21
33.5
 70
160
 71
2
 72
2
 41
0.9
 42
34.1379135031
  3
DIMSTYLE_2
100
AcDbAlignedDimension
 13
-56.7905546387
 23
21.8997711479
 14
-22.6526411355
 24
0.0
100
AcDbRotatedDimension
  0
DIMENSION
  5
248
100
AcDbEntity
  8
0
100
AcDbDimension
 62
7
  6
CONTINUOUS
  2
*D3
 10
-66.2905546387
 20
41.5
 11
-48.7573121728
 21
41.5
 70
160
 71
2
 72
2
 41
0.9
 42
43.6379135031
  3
DIMSTYLE_2
100
AcDbAlignedDimension
 13
-22.6526411355
 23
0.0
 14
-66.2905546387
 24
0.0
 50
180.0
100
AcDbRotatedDimension
  0
LWPOLYLINE
  5
249
100
AcDbEntity
  8
0
100
AcDbPolyline
 62
7
  6
CONTINUOUS
 90
5
 70
0
 43
0.3500000006
 10
3.0000000658
 20
35.9642860107
 10
3.357142951
 20
36.1785704956
 10
3.357142951
 20
36.8214284821
 10
3.0000000658
 20
37.2500019836
 10
2.1428571696
 20
37.2500019836
  0
LWPOLYLINE
  5
24A
100
AcDbEntity
  8
0
100
AcDbPolyline
 62
250
  6
CONTINUOUS
 90
16
 70
0
 10
-11.0004589101
 20
20.9972959167
 10
-10.9968791436
 20
20.9994689314
 10
-10.9879813308
 20
21.0016186628
 10
-10.9738608069
 20
21.0037220776
 10
-10.9546688652
 20
21.005756639
 10
-10.9306111366
 20
21.0077005477
 10
-10.9019453861
 20
21.009532976
 10
-10.868978751
 20
21.0112342904
 10
-10.8320644502
 20
21.0127862623
 10
-10.7915979997
 20
21.014172263
 10
-10.7480129745
 20
21.0153774425
 10
-10.7017763638
 20
21.0163888878
 10
-10.6533835666
 20
21.0171957618
 10
-10.6033530845
 20
21.0177894192
 10
-10.5522209659
 20
21.0181634993
 10
-10.5005350625
 20
21.018313994
  0
LINE
  5
24B
100
AcDbEntity
  8
DRAFT
100
AcDbLine
 62
7
  6
CONTINUOUS
 10
-3.0
 20
-23.5
 11
-2.7812783412
 21
-23.4781828305
  0
LWPOLYLINE
  5
24C
100
AcDbEntity
  8
0
100
AcDbPolyline
 62
250
  6
CONTINUOUS
 90
16
 70
0
 10
10.5087981167
 20
-21.9749071372
 10
10.5610250031
 20
-21.97212728
 10
10.6126802316
 20
-21.9639134406
 10
10.6631985021
 20
-21.9503555394
 10
10.7120269743
 20
-21.931601975
 10
10.7586312804
 20
-21.9078580123
 10
10.8025013793
 20
-21.8793835478
 10
10.8431571925
 20
-21.8464902344
 10
10.8801538308
 20
-21.8095380733
 10
10.9130864355
 20
-21.7689315022
 10
10.941594647
 20
-21.7251149336
 10
10.9653665353
 20
-21.6785678925
 10
10.9841419991
 20
-21.6297997904
 10
10.9977156235
 20
-21.5793443309
 10
11.0059389237
 20
-21.5277536674
 10
11.0087219643
 20
-21.4755923698
  0
LINE
  5
24D
100
AcDbEntity
  8
DRAFT
100
AcDbLine
 62
7
  6
CONTINUOUS
 10
3.9733373476
 20
-23.5
 11
3.0
 21
-23.5
  0
LINE
  5
24E
100
AcDbEntity
  8
DRAFT
100
AcDbLine
 62
7
  6
CONTINUOUS
 10
-3.0
 20
-23.5
 11
-3.9733373476
 21
-23.5
  0
LINE
  5
24F
100
AcDbEntity
  8
DRAFT
100
AcDbLine
 62
7
  6
CONTINUOUS
 10
-2.7812783412
 20
-23.4781828305
 11
2.7812783412
 21
-23.4781828305
  0
LINE
  5
250
100
AcDbEntity
  8
DRAFT
100
AcDbLine
 62
7
  6
CONTINUOUS
 10
2.7812783412
 20
-22.5310194482
 11
-2.7812783412
 21
-22.5310194482
  0
LINE
  5
251
100
AcDbEntity
  8
DRAFT
100
AcDbLine
 62
7
  6
CONTINUOUS
 10
3.0
 20
-22.4
 11
10.6503805997
 21
-22.4
  0
LINE
  5
252
100
AcDbEntity
  8
DRAFT
100
AcDbLine
 62
7
  6
CONTINUOUS
 10
-3.0
 20
-22.4
 11
-10.6503805997
 21
-22.4
  0
LINE
  5
253
100
AcDbEntity
  8
DRAFT
100
AcDbLine
 62
7
  6
CONTINUOUS
 10
3.0
 20
-23.5
 11
2.7812783412
 21
-23.4781828305
  0
LWPOLYLINE
  5
254
100
AcDbEntity
  8
0
100
AcDbPolyline
 62
250
  6
CONTINUOUS
 90
16
 70
0
 10
-11.0004589101
 20
-20.9972959167
 10
-10.9968794369
 20
-20.9994689572
 10
-10.9879818724
 20
-21.0016187146
 10
-10.9738615497
 20
-21.0037221553
 10
-10.9546697613
 20
-21.005756742
 10
-10.9306121379
 20
-21.007700675
 10
-10.9019464456
 20
-21.009533126
 10
-10.8689798232
 20
-21.0112344612
 10
-10.8320654925
 20
-21.0127864516
 10
-10.7915989726
 20
-21.0141724684
 10
-10.7480138429
 20
-21.0153776611
 10
-10.701777097
 20
-21.0163891165
 10
-10.6533841395
 20
-21.0171959974
 10
-10.6033534777
 20
-21.0177896584
 10
-10.552221166
 20
-21.0181637387
 10
-10.5005350625
 20
-21.0183142302
  0
LINE
  5
255
100
AcDbEntity
  8
DRAFT
100
AcDbLine
 62
7
  6
CONTINUOUS
 10
-3.0
 20
22.4
 11
-2.7812783412
 21
22.5310194482
  0
LWPOLYLINE
  5
256
100
AcDbEntity
  8
0
100
AcDbPolyline
 62
250
  6
CONTINUOUS
 90
15
 70
0
 10
10.5522211666
 20
-21.0181637394
 10
10.6033534788
 20
-21.0177896594
 10
10.6533841411
 20
-21.0171959985
 10
10.701777099
 20
-21.0163891176
 10
10.7480138452
 20
-21.015377662
 10
10.7915989752
 20
-21.0141724692
 10
10.8320654952
 20
-21.0127864523
 10
10.868979826
 20
-21.0112344618
 10
10.9019464483
 20
-21.0095331264
 10
10.9306121405
 20
-21.0077006753
 10
10.9546697635
 20
-21.0057567422
 10
10.9738615515
 20
-21.0037221554
 10
10.9879818737
 20
-21.0016187147
 10
10.9968794376
 20
-20.9994689572
 10
11.0004589101
 20
-20.9972959167
  0
LINE
  5
257
100
AcDbEntity
  8
0
100
AcDbLine
 62
250
  6
CONTINUOUS
 10
10.5087981167
 20
-21.9749071372
 11
-10.5087981167
 21
-21.9749071372
  0
LINE
  5
258
100
AcDbEntity
  8
0
100
AcDbLine
 62
250
  6
CONTINUOUS
 10
10.5522211666
 20
-21.0181637394
 11
-10.5005350625
 21
-21.0183142309
  0
LINE
  5
259
100
AcDbEntity
  8
DRAFT
100
AcDbLine
 62
7
  6
CONTINUOUS
 10
-2.7812783412
 20
-22.5310194482
 11
-3.0
 21
-22.4
  0
LWPOLYLINE
  5
25A
100
AcDbEntity
  8
0
100
AcDbPolyline
 62
250
  6
CONTINUOUS
 90
16
 70
0
 10
-11.0087219643
 20
-21.4755923698
 10
-11.0059389623
 20
-21.5277533032
 10
-10.9977157646
 20
-21.5793436708
 10
-10.9841422864
 20
-21.6297989097
 10
-10.9653669917
 20
-21.6785668706
 10
-10.9415952756
 20
-21.7251138478
 10
-10.9130872219
 20
-21.7689304222
 10
-10.8801547429
 20
-21.8095370623
 10
-10.843158184
 20
-21.8464893433
 10
-10.8025023985
 20
-21.8793828084
 10
-10.7586322667
 20
-21.9078574436
 10
-10.7120278628
 20
-21.9316015798
 10
-10.6631992385
 20
-21.9503553003
 10
-10.6126807679
 20
-21.9639133265
 10
-10.5610252917
 20
-21.9721272495
 10
-10.5087981166
 20
-21.974907137
  0
LWPOLYLINE
  5
25B
100
AcDbEntity
  8
0
100
AcDbPolyline
 62
250
  6
CONTINUOUS
 90
16
 70
0
 10
-11.0087219643
 20
21.4755923698
 10
-11.0059388076
 20
21.5277547588
 10
-10.9977152003
 20
21.5793463095
 10
-10.9841411372
 20
21.6298024308
 10
-10.9653651658
 20
21.6785709568
 10
-10.9415927608
 20
21.7251181902
 10
-10.913084075
 20
21.768934742
 10
-10.8801510927
 20
21.8095411066
 10
-10.8431542155
 20
21.8464929089
 10
-10.8024983179
 20
21.8793857675
 10
-10.7586283172
 20
21.90785972
 10
-10.712024304
 20
21.931603162
 10
-10.6631962884
 20
21.9503562578
 10
-10.612678619
 20
21.9639137831
 10
-10.5610241352
 20
21.9721273713
 10
-10.5087981167
 20
21.9749071372
  0
LWPOLYLINE
  5
25C
100
AcDbEntity
  8
0
100
AcDbPolyline
 62
250
  6
CONTINUOUS
 90
7
 70
0
 10
-11.0046627389
 20
21.4041254633
 10
-11.0052891369
 20
21.4238228917
 10
-11.0059457953
 20
21.4406561357
 10
-11.0066187988
 20
21.4542838409
 10
-11.0073035089
 20
21.4645922227
 10
-11.0080045641
 20
21.4716950656
 10
-11.0087219643
 20
21.4755923698
  0
LINE
  5
25D
100
AcDbEntity
  8
0
100
AcDbLine
 62
250
  6
CONTINUOUS
 10
-11.0035024636
 20
21.3560260411
 11
-11.0046627389
 21
21.4041254633
  0
LINE
  5
25E
100
AcDbEntity
  8
0
100
AcDbLine
 62
250
  6
CONTINUOUS
 10
-11.0024980441
 20
21.2979562724
 11
-11.0035024636
 21
21.3560260411
  0
LINE
  5
25F
100
AcDbEntity
  8
0
100
AcDbLine
 62
250
  6
CONTINUOUS
 10
-11.0013312402
 20
21.1949860367
 11
-11.0024980441
 21
21.2979562724
  0
LINE
  5
260
100
AcDbEntity
  8
0
100
AcDbLine
 62
250
  6
CONTINUOUS
 10
-10.5030519894
 20
21.6796926689
 11
-10.5047341778
 21
21.8316431047
  0
LINE
  5
261
100
AcDbEntity
  8
0
100
AcDbLine
 62
250
  6
CONTINUOUS
 10
-10.5017441538
 20
21.4854586496
 11
-10.5030519894
 21
21.6796926689
  0
LINE
  5
262
100
AcDbEntity
  8
0
100
AcDbLine
 62
250
  6
CONTINUOUS
 10
-11.0006377707
 20
21.0790132523
 11
-11.0013312402
 21
21.1949860367
  0
LINE
  5
263
100
AcDbEntity
  8
0
100
AcDbLine
 62
250
  6
CONTINUOUS
 10
-10.5007136105
 20
21.18087328
 11
-10.5017441538
 21
21.4854586496
  0
LINE
  5
264
100
AcDbEntity
  8
0
100
AcDbLine
 62
250
  6
CONTINUOUS
 10
-10.5005350625
 20
21.0183142309
 11
-10.5007136105
 21
21.18087328
  0
LINE
  5
265
100
AcDbEntity
  8
RACCORDO
100
AcDbLine
 62
7
  6
CONTINUOUS
 10
-11.15
 20
-21.8997711479
 11
-11.15
 21
21.8997711479
  0
LWPOLYLINE
  5
266
100
AcDbEntity
  8
0
100
AcDbPolyline
 62
250
  6
CONTINUOUS
 90
9
 70
0
 10
-10.9974142989
 20
-16.3324771154
 10
-10.99513084
 20
-11.6670364005
 10
-10.9936085333
 20
-7.0009737718
 10
-10.9928473781
 20
-2.3338756638
 10
-10.9928473752
 20
2.3338443579
 10
-10.9936085267
 20
7.0009455965
 10
-10.9951308334
 20
11.6670144863
 10
-10.9974142946
 20
16.3324645931
 10
-11.0006377707
 20
21.0790132523
  0
LWPOLYLINE
  5
267
100
AcDbEntity
  8
0
100
AcDbPolyline
 62
250
  6
CONTINUOUS
 90
9
 70
0
 10
-10.497490446
 20
-16.349481053
 10
-10.4952069837
 20
-11.6792204116
 10
-10.4936846755
 20
-7.0079400855
 10
-10.4929235215
 20
-2.3360479917
 10
-10.4929235217
 20
2.3360479976
 10
-10.4936846759
 20
7.0079400907
 10
-10.4952069841
 20
11.6792204157
 10
-10.4974904463
 20
16.3494810554
 10
-10.5005350625
 20
21.0183142309
  0
LINE
  5
268
100
AcDbEntity
  8
0
100
AcDbLine
 62
250
  6
CONTINUOUS
 10
-10.5011186535
 20
-21.3380089963
 11
-10.497490446
 21
-16.349481053
  0
LINE
  5
269
100
AcDbEntity
  8
0
100
AcDbLine
 62
250
  6
CONTINUOUS
 10
-11.00081144
 20
-21.1184484404
 11
-10.9974142989
 21
-16.3324771154
  0
LINE
  5
26A
100
AcDbEntity
  8
0
100
AcDbLine
 62
250
  6
CONTINUOUS
 10
-10.5025716201
 20
-21.619120888
 11
-10.5011186535
 21
-21.3380089963
  0
LINE
  5
26B
100
AcDbEntity
  8
0
100
AcDbLine
 62
250
  6
CONTINUOUS
 10
-11.0016694038
 20
-21.2310600855
 11
-11.00081144
 21
-21.1184484404
  0
LWPOLYLINE
  5
26C
100
AcDbEntity
  8
0
100
AcDbPolyline
 62
250
  6
CONTINUOUS
 90
3
 70
0
 10
-10.5047341778
 20
-21.8316431047
 10
-10.5041394026
 20
-21.7863216056
 10
-10.5025716201
 20
-21.619120888
  0
LINE
  5
26D
100
AcDbEntity
  8
0
100
AcDbLine
 62
250
  6
CONTINUOUS
 10
-11.0024980441
 20
-21.2979562723
 11
-11.0016694038
 21
-21.2310600855
  0
LINE
  5
26E
100
AcDbEntity
  8
0
100
AcDbLine
 62
250
  6
CONTINUOUS
 10
-11.0035024636
 20
-21.3560260412
 11
-11.0024980441
 21
-21.2979562723
  0
LWPOLYLINE
  5
26F
100
AcDbEntity
  8
0
100
AcDbPolyline
 62
250
  6
CONTINUOUS
 90
5
 70
0
 10
-10.5060157159
 20
21.9047687004
 10
-10.5066888073
 20
21.9320760821
 10
-10.5073747238
 20
21.952953371
 10
-10.5080778269
 20
21.9672621499
 10
-10.5087981167
 20
21.9749071372
  0
LINE
  5
270
100
AcDbEntity
  8
0
100
AcDbLine
 62
250
  6
CONTINUOUS
 10
-10.5047341778
 20
21.8316431047
 11
-10.5060157159
 21
21.9047687004
  0
LWPOLYLINE
  5
271
100
AcDbEntity
  8
RACCORDO
100
AcDbPolyline
 62
250
  6
CONTINUOUS
 90
151
 70
0
 10
-8.2179988278
 20
8.4033613445
 10
-8.2168566425
 20
8.4354336547
 10
-8.2122608796
 20
8.467719339
 10
-8.204211539
 20
8.5002183965
 10
-8.192666174
 20
8.5333129064
 10
-8.1776672312
 20
8.566620787
 10
-8.1593420513
 20
8.5989958007
 10
-8.1374635368
 20
8.6302195703
 10
-8.1122587851
 20
8.6605104794
 10
-8.0845364291
 20
8.6893774376
 10
-8.0543650884
 20
8.7165702832
 10
-8.0216761433
 20
8.7423391865
 10
-7.987072367
 20
8.7669435555
 10
-7.9506526773
 20
8.7903637523
 10
-7.9123181564
 20
8.8126194206
 10
-7.872374825
 20
8.8340288887
 10
-7.8309017468
 20
8.8546134294
 10
-7.787819858
 20
8.8743517735
 10
-7.7431979882
 20
8.8934984347
 10
-7.6970764127
 20
8.9120754342
 10
-7.6494148561
 20
8.930060753
 10
-7.6001613208
 20
8.9476428428
 10
-7.549325281
 20
8.9648447402
 10
-7.4968972625
 20
8.98164341
 10
-7.4427968447
 20
8.9981581959
 10
-7.3870302831
 20
9.0144039863
 10
-7.3295913223
 20
9.0303658938
 10
-7.2703807755
 20
9.0461185979
 10
-7.20941466
 20
9.0616694802
 10
-7.1466769585
 20
9.0770111599
 10
-7.0820204328
 20
9.0921961732
 10
-7.0154309039
 20
9.1072348358
 10
-6.9469225508
 20
9.1221168324
 10
-6.8763906715
 20
9.1368637525
 10
-6.8038363589
 20
9.1514795749
 10
-6.7292585203
 20
9.1659603212
 10
-6.6525491755
 20
9.1803156452
 10
-6.5737245518
 20
9.1945462173
 10
-6.4927684219
 20
9.2086513673
 10
-6.4095241242
 20
9.2226387384
 10
-6.3240009988
 20
9.2365105004
 10
-6.2361897056
 20
9.2502644836
 10
-6.1459055624
 20
9.2639018217
 10
-6.0531575207
 20
9.2774246861
 10
-5.9579366291
 20
9.2908309056
 10
-5.8600313507
 20
9.3041150996
 10
-5.7594366954
 20
9.3172798982
 10
-5.6561576533
 20
9.3303226717
 10
-5.5499976586
 20
9.3432301505
 10
-5.4409629993
 20
9.356002852
 10
-5.3290473873
 20
9.3686402592
 10
-5.2140353926
 20
9.3811275506
 10
-5.0959413273
 20
9.3934665381
 10
-4.9747508793
 20
9.4056554101
 10
-4.8502056819
 20
9.4176739097
 10
-4.722316424
 20
9.4295248937
 10
-4.5910724167
 20
9.4412055056
 10
-4.4561832264
 20
9.4526869186
 10
-4.3176557914
 20
9.4639729272
 10
-4.1754831732
 20
9.4750597373
 10
-4.0293541235
 20
9.4859071392
 10
-3.8792758504
 20
9.4965195867
 10
-3.7252411458
 20
9.5068926267
 10
-3.5669171362
 20
9.5169726891
 10
-3.4043236863
 20
9.5267639381
 10
-3.2374409314
 20
9.5362622102
 10
-3.0658764043
 20
9.5454014442
 10
-2.8896383695
 20
9.5541857551
 10
-2.7087185624
 20
9.5626110288
 10
-2.5226997225
 20
9.5705988605
 10
-2.3315675403
 20
9.5781574015
 10
-2.1353363252
 20
9.5852785013
 10
-1.9336317452
 20
9.5918593033
 10
-1.7265368652
 20
9.597909106
 10
-1.5139686204
 20
9.6034186116
 10
-1.2953034832
 20
9.6082570688
 10
-1.0705930384
 20
9.6124421718
 10
-0.8397857013
 20
9.6159562272
 10
-0.6021031902
 20
9.6186154013
 10
-0.3569293134
 20
9.6204337754
 10
-0.1048802627
 20
9.6213972687
 10
0.1529736688
 20
9.621279805
 10
0.4184598533
 20
9.6200230889
 10
0.6897509185
 20
9.6176854157
 10
0.9602944533
 20
9.6142155951
 10
1.2303079418
 20
9.6095067564
 10
1.4995738998
 20
9.6036657693
 10
1.7608874636
 20
9.5969620536
 10
2.0123289051
 20
9.5893869489
 10
2.2558179523
 20
9.5809491141
 10
2.4899089259
 20
9.5719439493
 10
2.7136121208
 20
9.562417217
 10
2.9279172421
 20
9.5523231534
 10
3.1343477262
 20
9.5418198688
 10
3.3329206361
 20
9.5309298023
 10
3.5236189088
 20
9.5196305138
 10
3.7079147923
 20
9.5080127944
 10
3.8860333025
 20
9.4960808146
 10
4.0577494234
 20
9.483830403
 10
4.2238603559
 20
9.4713398382
 10
4.3843997452
 20
9.4586186978
 10
4.5393339461
 20
9.4456574035
 10
4.6893592229
 20
9.4325055008
 10
4.8344971967
 20
9.4191713621
 10
4.9747262464
 20
9.4056466144
 10
5.110677774
 20
9.3919556858
 10
5.2424017159
 20
9.3781022313
 10
5.3698481356
 20
9.3640825953
 10
5.4934986258
 20
9.3499102396
 10
5.6133796814
 20
9.3355871346
 10
5.7294648075
 20
9.3211113093
 10
5.8421561119
 20
9.3064903139
 10
5.9514637288
 20
9.2917278373
 10
6.0573775241
 20
9.27682019
 10
6.1602692033
 20
9.2617638542
 10
6.2601573355
 20
9.2465632007
 10
6.3570233516
 20
9.2312138582
 10
6.4511832508
 20
9.2156991952
 10
6.5426699957
 20
9.2000209583
 10
6.6314506238
 20
9.1841774004
 10
6.7177422462
 20
9.1681466501
 10
6.8015780708
 20
9.1519291055
 10
6.8829248899
 20
9.1355243677
 10
6.9619001914
 20
9.1189093694
 10
7.0384892421
 20
9.1020963857
 10
7.1127067753
 20
9.0850731407
 10
7.1847144788
 20
9.0677797398
 10
7.2545160776
 20
9.0502318904
 10
7.3221078468
 20
9.0324138841
 10
7.3876402991
 20
9.0142187024
 10
7.4511263885
 20
8.9956709811
 10
7.5125531612
 20
8.9767460829
 10
7.5720322688
 20
8.9572630799
 10
7.6295697541
 20
8.9372724479
 10
7.6851595743
 20
8.9167237086
 10
7.7388952535
 20
8.8952845023
 10
7.7908798311
 20
8.872993395
 10
7.8410102676
 20
8.8498118166
 10
7.889070968
 20
8.8252917003
 10
7.9352301459
 20
8.7994902853
 10
7.9793195877
 20
8.7723503254
 10
8.0206190574
 20
8.7432520226
 10
8.0593616013
 20
8.7119929202
 10
8.0953141733
 20
8.6787754622
 10
8.1270573988
 20
8.6435871986
 10
8.1544249273
 20
8.6059678313
 10
8.1775831095
 20
8.5663776427
 10
8.1956116229
 20
8.5261850581
 10
8.2082036933
 20
8.4858462202
 10
8.2156660949
 20
8.4449049831
 10
8.2179988278
 20
8.4033613445
  0
LWPOLYLINE
  5
272
100
AcDbEntity
  8
0
100
AcDbPolyline
 62
7
  6
CONTINUOUS
 90
3
 70
0
 43
0.3500000006
 10
1.1428571477
 20
34.535712204
 10
1.0714285848
 20
34.3214277191
 10
0.9285714591
 20
34.0357120514
  0
LWPOLYLINE
  5
273
100
AcDbEntity
  8
RACCORDO
100
AcDbPolyline
 62
250
  6
CONTINUOUS
 90
151
 70
0
 10
-8.2179988278
 20
-8.4033613445
 10
-8.2168756513
 20
-8.3712922064
 10
-8.2122998521
 20
-8.3390074173
 10
-8.2042714301
 20
-8.3065069768
 10
-8.1927485319
 20
-8.2734088407
 10
-8.177773011
 20
-8.2400950513
 10
-8.159470428
 20
-8.2077117405
 10
-8.137613506
 20
-8.1764767687
 10
-8.1124295221
 20
-8.1461722821
 10
-8.084725868
 20
-8.1172908477
 10
-8.0545709913
 20
-8.0900831267
 10
-8.0218964445
 20
-8.0642984663
 10
-7.9873042772
 20
-8.0396774626
 10
-7.950893315
 20
-8.016239601
 10
-7.9125647323
 20
-7.9939654017
 10
-7.8726241018
 20
-7.9725370115
 10
-7.8311499196
 20
-7.9519329622
 10
-7.7880636896
 20
-7.9321747254
 10
-7.7434354962
 20
-7.9130088562
 10
-7.6973053945
 20
-7.8944135852
 10
-7.6496333294
 20
-7.876410684
 10
-7.6003692209
 20
-7.8588120183
 10
-7.5495228039
 20
-7.8415947018
 10
-7.4970843435
 20
-7.8247816223
 10
-7.4429745545
 20
-7.808253306
 10
-7.3872000122
 20
-7.7919949264
 10
-7.3297541413
 20
-7.7760213109
 10
-7.2705379311
 20
-7.7602574664
 10
-7.2095674956
 20
-7.7446959841
 10
-7.1468267208
 20
-7.7293442733
 10
-7.0821682541
 20
-7.7141495682
 10
-7.0155782852
 20
-7.6991015936
 10
-6.9470706243
 20
-7.684210625
 10
-6.8765393494
 20
-7.6694547223
 10
-6.8039856418
 20
-7.6548298734
 10
-6.72940832
 20
-7.6403400907
 10
-6.6526979176
 20
-7.6259754713
 10
-6.5738703369
 20
-7.6117352565
 10
-6.4929096755
 20
-7.5976202052
 10
-6.4096587597
 20
-7.583622691
 10
-6.3241265301
 20
-7.5697404743
 10
-6.2363040461
 20
-7.5559757949
 10
-6.1460073114
 20
-7.5423277446
 10
-6.0532453293
 20
-7.528794165
 10
-5.9580090965
 20
-7.5153772149
 10
-5.8600876074
 20
-7.5020824626
 10
-5.7594760475
 20
-7.4889073202
 10
-5.6561792312
 20
-7.475854376
 10
-5.5500005957
 20
-7.4629369618
 10
-5.4409464578
 20
-7.4501545928
 10
-5.3290105007
 20
-7.4375077543
 10
-5.213977211
 20
-7.4250112328
 10
-5.0958609062
 20
-7.4126632123
 10
-4.974647269
 20
-7.4004655092
 10
-4.8500778339
 20
-7.3884383589
 10
-4.7221633028
 20
-7.3765788967
 10
-4.5908929739
 20
-7.3648899877
 10
-4.4559762763
 20
-7.3534004612
 10
-4.3174201422
 20
-7.342106508
 10
-4.1752176395
 20
-7.3310119378
 10
-4.0290573998
 20
-7.3201570087
 10
-3.8789466409
 20
-7.3095372472
 10
-3.7248781451
 20
-7.2991571273
 10
-3.566518891
 20
-7.2890703287
 10
-3.4038887866
 20
-7.2792726807
 10
-3.2369679239
 20
-7.2697683546
 10
-3.0653635577
 20
-7.2606235423
 10
-2.8890838804
 20
-7.2518341687
 10
-2.7081206998
 20
-7.2434043097
 10
-2.5220566941
 20
-7.2354123841
 10
-2.3308774853
 20
-7.2278502314
 10
-2.1345974515
 20
-7.2207260127
 10
-1.9328424051
 20
-7.2141426301
 10
-1.7256959461
 20
-7.2080907514
 10
-1.5130744744
 20
-7.2025797092
 10
-1.2943530031
 20
-7.1977404027
 10
-1.0695825322
 20
-7.1935550377
 10
-0.8387120616
 20
-7.1900414089
 10
-0.6009636036
 20
-7.1873837982
 10
-0.3557177335
 20
-7.1855681824
 10
-0.1035938761
 20
-7.184608585
 10
0.1543276824
 20
-7.1847313586
 10
0.4198765257
 20
-7.1859952318
 10
0.6912230701
 20
-7.1883414758
 10
0.9617982778
 20
-7.1918202576
 10
1.2318098118
 20
-7.1965383507
 10
1.5010500093
 20
-7.2023889807
 10
1.7623268436
 20
-7.2091019919
 10
2.0137209055
 20
-7.2166857262
 10
2.2571516043
 20
-7.2251318406
 10
2.4911851417
 20
-7.2341451522
 10
2.7148348199
 20
-7.2436798771
 10
2.9290873367
 20
-7.2537817983
 10
3.1354689871
 20
-7.264293083
 10
3.3339985682
 20
-7.2751914368
 10
3.524657283
 20
-7.2864991533
 10
3.7089150355
 20
-7.298125283
 10
3.8869961235
 20
-7.3100656136
 10
4.0586762493
 20
-7.3223243566
 10
4.2247524227
 20
-7.3348231984
 10
4.385258244
 20
-7.3475525334
 10
4.540160113
 20
-7.3605219665
 10
4.6901542386
 20
-7.3736819998
 10
4.8352623164
 20
-7.3870242567
 10
4.9754626509
 20
-7.4005571131
 10
5.1113863645
 20
-7.4142562
 10
5.2430833621
 20
-7.4281178565
 10
5.3705037389
 20
-7.4421457429
 10
5.4941289033
 20
-7.456326472
 10
5.6139852712
 20
-7.4706581053
 10
5.7300464267
 20
-7.4851425809
 10
5.8427145309
 20
-7.4997723266
 10
5.9519998658
 20
-7.5145436919
 10
6.0578921493
 20
-7.5294603269
 10
6.160762696
 20
-7.5445256105
 10
6.2606301098
 20
-7.5597351729
 10
6.3574757869
 20
-7.5750933835
 10
6.4516152295
 20
-7.5906167292
 10
6.543080993
 20
-7.6063033803
 10
6.6318405221
 20
-7.6221551661
 10
6.7181116533
 20
-7.6381940627
 10
6.8019273141
 20
-7.6544195692
 10
6.8832545769
 20
-7.6708321859
 10
6.9622124958
 20
-7.6874553911
 10
7.0387867041
 20
-7.7042769199
 10
7.1129915684
 20
-7.7213090365
 10
7.1849892426
 20
-7.738612012
 10
7.2547838768
 20
-7.7561701785
 10
7.3223713209
 20
-7.7739992029
 10
7.3879012786
 20
-7.7922063585
 10
7.4513868311
 20
-7.8107670024
 10
7.5128148972
 20
-7.8297057761
 10
7.572295936
 20
-7.849203878
 10
7.6298362222
 20
-7.8692108494
 10
7.6854294811
 20
-7.889777147
 10
7.7391673479
 20
-7.9112353408
 10
7.791152541
 20
-7.9335472785
 10
7.841282342
 20
-7.9567511086
 10
7.889340232
 20
-7.9812938518
 10
7.9354945068
 20
-8.0071178001
 10
7.9795768705
 20
-8.0342806549
 10
8.0208659167
 20
-8.0634025477
 10
8.059594799
 20
-8.094687065
 10
8.0955303638
 20
-8.1279306082
 10
8.1272517426
 20
-8.1631425287
 10
8.1545905553
 20
-8.2007854577
 10
8.1777151821
 20
-8.2403967484
 10
8.1957098954
 20
-8.2805978399
 10
8.2082694529
 20
-8.3209292123
 10
8.215699097
 20
-8.3618503814
 10
8.2179988278
 20
-8.4033613445
  0
LWPOLYLINE
  5
274
100
AcDbEntity
  8
RACCORDO
100
AcDbPolyline
 62
250
  6
CONTINUOUS
 90
148
 70
0
 10
-8.218923001
 20
-4.2016806723
 10
-8.2176926359
 20
-4.1682725441
 10
-8.2127471367
 20
-4.1346945584
 10
-8.2040865036
 20
-4.1009467148
 10
-8.1916435188
 20
-4.0666142919
 10
-8.1754854001
 20
-4.0321120105
 10
-8.1558138001
 20
-3.9986840363
 10
-8.13239167
 20
-3.9665928712
 10
-8.1054560586
 20
-3.9355760173
 10
-8.0759197647
 20
-3.9060901431
 10
-8.0438770694
 20
-3.8783964311
 10
-8.0092336915
 20
-3.8522337033
 10
-7.9726195867
 20
-3.827275088
 10
-7.9341460655
 20
-3.8035262826
 10
-7.8937018174
 20
-3.7809815925
 10
-7.8515828655
 20
-3.7592970566
 10
-7.8078711817
 20
-3.7384483524
 10
-7.7624847942
 20
-3.7184598042
 10
-7.7154738113
 20
-3.6990604209
 10
-7.6668738009
 20
-3.6802234511
 10
-7.616649195
 20
-3.6619756471
 10
-7.5647433983
 20
-3.6441262732
 10
-7.5111647431
 20
-3.6266507707
 10
-7.455904897
 20
-3.6095736988
 10
-7.3988822666
 20
-3.5927779981
 10
-7.3401081787
 20
-3.5762482724
 10
-7.2795713066
 20
-3.5599999183
 10
-7.2171560761
 20
-3.5439620652
 10
-7.1528748953
 20
-3.5281264902
 10
-7.0867153563
 20
-3.5125014165
 10
-7.0185246608
 20
-3.4970406422
 10
-6.9482870643
 20
-3.481733891
 10
-6.8760183114
 20
-3.4665914393
 10
-6.8016128378
 20
-3.4515979137
 10
-6.7250821935
 20
-3.4367521559
 10
-6.6464148285
 20
-3.4220553244
 10
-6.5654705289
 20
-3.4074955201
 10
-6.4822623715
 20
-3.3930719885
 10
-6.3967772794
 20
-3.3787854844
 10
-6.3088358081
 20
-3.3646263728
 10
-6.2184477536
 20
-3.350592131
 10
-6.1256033198
 20
-3.3366852819
 10
-6.0300936738
 20
-3.3229037589
 10
-5.9319218666
 20
-3.3092445568
 10
-5.831084847
 20
-3.295710681
 10
-5.7273646286
 20
-3.2823090813
 10
-5.6207562353
 20
-3.2690371248
 10
-5.5112646432
 20
-3.2558974445
 10
-5.3986867931
 20
-3.2429048898
 10
-5.2830369808
 20
-3.2300582559
 10
-5.1643009106
 20
-3.2173587477
 10
-5.0422326365
 20
-3.2048248289
 10
-4.9168469825
 20
-3.1924540344
 10
-4.7881291245
 20
-3.1802488294
 10
-4.6557886445
 20
-3.1682350725
 10
-4.5198355796
 20
-3.1564091372
 10
-4.3802598926
 20
-3.1447746502
 10
-4.2367410546
 20
-3.1333683505
 10
-4.0892836839
 20
-3.1221854962
 10
-3.9378831622
 20
-3.1112308292
 10
-3.7822051056
 20
-3.1005553149
 10
-3.6222655154
 20
-3.0901541702
 10
-3.4580483904
 20
-3.0800321783
 10
-3.2891713424
 20
-3.0702546536
 10
-3.1156532913
 20
-3.0608178839
 10
-2.9374753172
 20
-3.0517255816
 10
-2.7541982734
 20
-3.0430541981
 10
-2.5658110419
 20
-3.0347970991
 10
-2.3723247407
 20
-3.0269609191
 10
-2.1733335769
 20
-3.0196420134
 10
-1.9688614316
 20
-3.0128308318
 10
-1.7588844237
 20
-3.0065369247
 10
-1.5429251175
 20
-3.0008852979
 10
-1.3211458963
 20
-2.9958619935
 10
-1.0933843768
 20
-2.9914809696
 10
-0.8586759734
 20
-2.987909107
 10
-0.6165968762
 20
-2.9851241535
 10
-0.367570895
 20
-2.9831483614
 10
-0.1119048735
 20
-2.9822153677
 10
0.151833719
 20
-2.9823537186
 10
0.4222123518
 20
-2.9835348678
 10
0.6946265892
 20
-2.9859068139
 10
0.9704915813
 20
-2.9895871276
 10
1.248392178
 20
-2.9944582379
 10
1.5194784932
 20
-3.0003154306
 10
1.7817289317
 20
-3.0071978882
 10
2.0371650887
 20
-3.0150664278
 10
2.2830018641
 20
-3.0235987873
 10
2.5179915385
 20
-3.0327568666
 10
2.7433818314
 20
-3.0425787653
 10
2.9601308008
 20
-3.0528565212
 10
3.1679706046
 20
-3.0635553823
 10
3.367169085
 20
-3.0747101002
 10
3.5594878269
 20
-3.0862169685
 10
3.7452041703
 20
-3.0980710003
 10
3.9240407752
 20
-3.1102771822
 10
4.0969272071
 20
-3.1227467676
 10
4.2639261689
 20
-3.1354702444
 10
4.4249749577
 20
-3.1484571245
 10
4.5808150304
 20
-3.1616471971
 10
4.7314675463
 20
-3.1750309132
 10
4.8769113461
 20
-3.1886178217
 10
5.0178244087
 20
-3.202376359
 10
5.1542539492
 20
-3.2163015232
 10
5.2861527526
 20
-3.2303983161
 10
5.4140571524
 20
-3.2446501794
 10
5.5380029705
 20
-3.2590542171
 10
5.657954385
 20
-3.273613325
 10
5.7743402648
 20
-3.2883196326
 10
5.8871723069
 20
-3.3031688785
 10
5.9964388143
 20
-3.3181653239
 10
6.1025335642
 20
-3.333313882
 10
6.2054751852
 20
-3.3486098989
 10
6.3052450487
 20
-3.3640580283
 10
6.4021810472
 20
-3.3796771454
 10
6.4963130087
 20
-3.3954648372
 10
6.5876111051
 20
-3.4114235164
 10
6.6763237452
 20
-3.4275792958
 10
6.7624864661
 20
-3.4439334677
 10
6.8460637307
 20
-3.4604847394
 10
6.9271973363
 20
-3.4772553469
 10
7.0058806556
 20
-3.4942352715
 10
7.0821203159
 20
-3.5114345314
 10
7.156077997
 20
-3.5289054182
 10
7.2277531479
 20
-3.546631617
 10
7.2971463196
 20
-3.5646294421
 10
7.3644208442
 20
-3.5830001283
 10
7.4295938787
 20
-3.6017185956
 10
7.492648266
 20
-3.6208099233
 10
7.5536958671
 20
-3.6404505854
 10
7.6127419196
 20
-3.6605886734
 10
7.6697811858
 20
-3.6812760948
 10
7.7249098146
 20
-3.7028450465
 10
7.7782240648
 20
-3.7252528239
 10
7.8296276775
 20
-3.7485421298
 10
7.8789280255
 20
-3.7731732725
 10
7.9262979046
 20
-3.799085214
 10
7.971564519
 20
-3.8263389891
 10
8.0140168538
 20
-3.8555780132
 10
8.0539031
 20
-3.8869897685
 10
8.0909750666
 20
-3.9203867668
 10
8.1237771651
 20
-3.9558499671
 10
8.152160805
 20
-3.9937952596
 10
8.1762745767
 20
-4.0338067461
 10
8.1951086638
 20
-4.0747177043
 10
8.2083264608
 20
-4.1161392263
 10
8.2162645732
 20
-4.1584602164
 10
8.218923001
 20
-4.2016806723
  0
LWPOLYLINE
  5
275
100
AcDbEntity
  8
RACCORDO
100
AcDbPolyline
 62
250
  6
CONTINUOUS
 90
148
 70
0
 10
-8.218923001
 20
4.2016806723
 10
-8.2176826414
 20
4.2350915082
 10
-8.2127264556
 20
4.2686708975
 10
-8.2040544436
 20
4.30241884
 10
-8.1915990175
 20
4.3367500777
 10
-8.1754277653
 20
4.371249867
 10
-8.155743451
 20
4.4046739812
 10
-8.1323091571
 20
4.4367596209
 10
-8.1053618012
 20
4.4677695892
 10
-8.0758148995
 20
4.4972480664
 10
-8.0437628366
 20
4.5249341567
 10
-8.0091112278
 20
4.5510887607
 10
-7.9724904359
 20
4.5760387532
 10
-7.9340118722
 20
4.5997783053
 10
-7.8935641254
 20
4.622313249
 10
-7.8514433236
 20
4.6439879495
 10
-7.807731748
 20
4.6648266989
 10
-7.7623471174
 20
4.6848052072
 10
-7.7153387166
 20
4.704194966
 10
-7.6667421635
 20
4.7230228673
 10
-7.6165218402
 20
4.7412620204
 10
-7.5646201775
 20
4.759103243
 10
-7.5110453553
 20
4.77657116
 10
-7.4557891937
 20
4.7936411473
 10
-7.3987695847
 20
4.8104301492
 10
-7.3399977526
 20
4.8269535574
 10
-7.2794624732
 20
4.8431959806
 10
-7.2170479657
 20
4.8592281891
 10
-7.1527665438
 20
4.8750584048
 10
-7.086605894
 20
4.8906784061
 10
-7.0184132951
 20
4.9061342982
 10
-6.9481728206
 20
4.9214363705
 10
-6.875900397
 20
4.9365743338
 10
-6.8014910832
 20
4.9515634249
 10
-6.7249564502
 20
4.9664047819
 10
-6.6462849271
 20
4.981097267
 10
-6.5653368599
 20
4.9956527036
 10
-6.4821254778
 20
5.0100718214
 10
-6.3966375517
 20
5.0243538908
 10
-6.3086937402
 20
5.0385085461
 10
-6.2183039123
 20
5.052538298
 10
-6.1254581992
 20
5.0664406361
 10
-6.0299476531
 20
5.0802176625
 10
-5.9317753021
 20
5.0938723878
 10
-5.8309381183
 20
5.1074018017
 10
-5.7272180701
 20
5.1207989757
 10
-5.6206101812
 20
5.1340665506
 10
-5.511119428
 20
5.1472018858
 10
-5.3985427081
 20
5.160190131
 10
-5.2828943111
 20
5.1730324948
 10
-5.1641599475
 20
5.1857277687
 10
-5.042093646
 20
5.1982574772
 10
-4.9167102005
 20
5.2106240842
 10
-4.7879948172
 20
5.2228251261
 10
-4.6556571428
 20
5.2348347364
 10
-4.5197072072
 20
5.2466565353
 10
-4.3801349806
 20
5.2582869028
 10
-4.2366200193
 20
5.269689113
 10
-4.0891669515
 20
5.2808678963
 10
-3.937771149
 20
5.2918185226
 10
-3.7820982843
 20
5.3024900752
 10
-3.6221643497
 20
5.3128873254
 10
-3.4579533528
 20
5.3230055021
 10
-3.2890829889
 20
5.3327793758
 10
-3.115572179
 20
5.3422126755
 10
-2.9374020022
 20
5.3513016726
 10
-2.7541333906
 20
5.3599699506
 10
-2.5657552491
 20
5.3682241611
 10
-2.3722786728
 20
5.3760576529
 10
-2.1732978797
 20
5.383374056
 10
-1.9688367192
 20
5.3901829083
 10
-1.7588713419
 20
5.3964746724
 10
-1.5429244167
 20
5.4021243656
 10
-1.3211581944
 20
5.4071459178
 10
-1.0934104242
 20
5.4115253996
 10
-0.8587170229
 20
5.4150960388
 10
-0.6166546838
 20
5.4178800523
 10
-0.3676467136
 20
5.4198552236
 10
-0.1119989484
 20
5.4207881301
 10
0.1517204162
 20
5.4206503281
 10
0.4220795756
 20
5.4194702615
 10
0.6944772803
 20
5.417099839
 10
0.9703296561
 20
5.4134215466
 10
1.2482205771
 20
5.4085528978
 10
1.5193004156
 20
5.4026983432
 10
1.7815484293
 20
5.3958186259
 10
2.0369853604
 20
5.3879530018
 10
2.2828238079
 20
5.3794236906
 10
2.5178156232
 20
5.3702687583
 10
2.7432089549
 20
5.3604501382
 10
2.9599608474
 20
5.3501758516
 10
3.1678030311
 20
5.3394807037
 10
3.3670037756
 20
5.3283298888
 10
3.5593249342
 20
5.3168270122
 10
3.7450439392
 20
5.3049770549
 10
3.9238833583
 20
5.2927750353
 10
4.0967727472
 20
5.2803096153
 10
4.2637748292
 20
5.2675902853
 10
4.424826881
 20
5.2546075544
 10
4.5806702886
 20
5.2414216119
 10
4.7313261886
 20
5.2280419962
 10
4.8767734444
 20
5.2144591686
 10
5.0176900322
 20
5.2007047024
 10
5.1541231704
 20
5.1867835924
 10
5.2860256407
 20
5.1726908434
 10
5.4139337632
 20
5.1584430436
 10
5.5378833844
 20
5.1440430892
 10
5.6578386578
 20
5.1294880837
 10
5.7742283649
 20
5.1147859254
 10
5.8870641377
 20
5.099940891
 10
5.9963343442
 20
5.0849487036
 10
6.1024328691
 20
5.0698044308
 10
6.2053782965
 20
5.0545127353
 10
6.3051520424
 20
5.0390689542
 10
6.4020922395
 20
5.023454167
 10
6.4962288976
 20
5.0076707593
 10
6.587532007
 20
4.9917163452
 10
6.6762496708
 20
4.9755648467
 10
6.7624176024
 20
4.9592149343
 10
6.8460000883
 20
4.942667937
 10
6.9271380918
 20
4.9259017648
 10
7.0058248334
 20
4.9089264351
 10
7.0820670925
 20
4.8917319301
 10
7.1560261705
 20
4.8742661068
 10
7.2277012837
 20
4.8565452996
 10
7.2970932159
 20
4.8385531737
 10
7.36436562
 20
4.8201885825
 10
7.4295355716
 20
4.8014765921
 10
7.4925859953
 20
4.7823921357
 10
7.5536293171
 20
4.7627588676
 10
7.6126706489
 20
4.7426286963
 10
7.6697048789
 20
4.7219497122
 10
7.7248290981
 20
4.7003898426
 10
7.7781397241
 20
4.6779920025
 10
7.8295403393
 20
4.6547132748
 10
7.8788387814
 20
4.6300928378
 10
7.9262078801
 20
4.6041915236
 10
7.9714748056
 20
4.5769484965
 10
8.0139289065
 20
4.5477204306
 10
8.0538183119
 20
4.5163199737
 10
8.0908948927
 20
4.4829344716
 10
8.1237036089
 20
4.4474826442
 10
8.1520963982
 20
4.4095498193
 10
8.176221323
 20
4.3695506609
 10
8.1950675309
 20
4.3286478953
 10
8.2082980712
 20
4.2872290981
 10
8.2162498946
 20
4.244906691
 10
8.218923001
 20
4.2016806723
  0
LWPOLYLINE
  5
276
100
AcDbEntity
  8
RACCORDO
100
AcDbPolyline
 62
250
  6
CONTINUOUS
 90
151
 70
0
 10
-8.0180292887
 20
-8.4
 10
-8.0174481117
 20
-8.3868281049
 10
-8.0155492573
 20
-8.3729864091
 10
-8.012122023
 20
-8.3584927563
 10
-8.0069576043
 20
-8.3433895438
 10
-7.9998255166
 20
-8.327669315
 10
-7.9904472711
 20
-8.3112770788
 10
-7.9784600398
 20
-8.2941027972
 10
-7.9636586719
 20
-8.2762962888
 10
-7.9460869797
 20
-8.2581835203
 10
-7.9255600745
 20
-8.2397473562
 10
-7.9019430664
 20
-8.2210163315
 10
-7.8756289184
 20
-8.2023619642
 10
-7.8466843077
 20
-8.1838170871
 10
-7.8150384575
 20
-8.1653341804
 10
-7.7811131674
 20
-8.1471492614
 10
-7.7451118962
 20
-8.1293250558
 10
-7.7069632935
 20
-8.1117833628
 10
-7.666783492
 20
-8.0945423748
 10
-7.6246881184
 20
-8.0776143122
 10
-7.5806975322
 20
-8.0609722964
 10
-7.5347808771
 20
-8.0445763141
 10
-7.4869960342
 20
-8.0284228888
 10
-7.4373862677
 20
-8.0125037343
 10
-7.385868244
 20
-7.9967734881
 10
-7.3324848927
 20
-7.9812308064
 10
-7.2772818072
 20
-7.9658764517
 10
-7.220146275
 20
-7.9506703983
 10
-7.1611143396
 20
-7.9356168341
 10
-7.1002161419
 20
-7.9207184142
 10
-7.0372947778
 20
-7.9059347949
 10
-6.9723377569
 20
-7.8912642969
 10
-6.9053866147
 20
-7.8767176629
 10
-6.8363382492
 20
-7.8622750196
 10
-6.7651916033
 20
-7.8479402047
 10
-6.6919600058
 20
-7.8337199983
 10
-6.6165447123
 20
-7.8196003695
 10
-6.5389527196
 20
-7.8055887722
 10
-6.4591768253
 20
-7.7916900593
 10
-6.3770804827
 20
-7.7778879282
 10
-6.2926551679
 20
-7.7641896424
 10
-6.2058936257
 20
-7.7506027217
 10
-6.1166437641
 20
-7.7371132406
 10
-6.0248909659
 20
-7.723730029
 10
-5.9306203943
 20
-7.7104619788
 10
-5.8336627466
 20
-7.6972975159
 10
-5.7339903689
 20
-7.6842463412
 10
-5.6315887349
 20
-7.671320042
 10
-5.5262966996
 20
-7.6585117037
 10
-5.4181055457
 20
-7.645832647
 10
-5.3069973468
 20
-7.6332928985
 10
-5.1927900854
 20
-7.6208851427
 10
-5.0754772835
 20
-7.6086229035
 10
-4.9550354531
 20
-7.5965179643
 10
-4.8312425525
 20
-7.5845635663
 10
-4.704087243
 20
-7.5727753978
 10
-4.5735475472
 20
-7.5611682786
 10
-4.4393703175
 20
-7.5497380317
 10
-4.3015417709
 20
-7.5385032308
 10
-4.1600421077
 20
-7.5274821735
 10
-4.0145946139
 20
-7.5166748619
 10
-3.865190424
 20
-7.5061037765
 10
-3.7118096767
 20
-7.4957909378
 10
-3.5541457984
 20
-7.4857410965
 10
-3.3922133972
 20
-7.4759823222
 10
-3.2259805133
 20
-7.4665402764
 10
-3.0550573327
 20
-7.4574230767
 10
-2.8794682449
 20
-7.4486639118
 10
-2.6992026273
 20
-7.440291805
 10
-2.5138060182
 20
-7.4323175727
 10
-2.3233107208
 20
-7.4247774005
 10
-2.1277468833
 20
-7.4177078445
 10
-1.9266508115
 20
-7.4111308337
 10
-1.7201917908
 20
-7.4050934124
 10
-1.5083249889
 20
-7.3996367178
 10
-1.2902638363
 20
-7.3947892156
 10
-1.0662036747
 20
-7.3906093607
 10
-0.8361581868
 20
-7.3871531702
 10
-0.5990755729
 20
-7.3844696388
 10
-0.354585607
 20
-7.382631381
 10
-0.1034066797
 20
-7.3817236669
 10
0.1538411983
 20
-7.3818261165
 10
0.4186486147
 20
-7.3830219887
 10
0.6889494856
 20
-7.3853823553
 10
0.9587704182
 20
-7.3888904421
 10
1.2281031855
 20
-7.3935486572
 10
1.4963285437
 20
-7.3993498944
 10
1.75670611
 20
-7.4061090895
 10
2.0073574396
 20
-7.4136870413
 10
2.249901884
 20
-7.4220448716
 10
2.4830454388
 20
-7.4310556381
 10
2.7058830771
 20
-7.4405910706
 10
2.9193354888
 20
-7.4505996716
 10
3.1248824898
 20
-7.4610762319
 10
3.3225844026
 20
-7.4719573379
 10
3.5124726343
 20
-7.4831758539
 10
3.6959195535
 20
-7.494753061
 10
3.873177542
 20
-7.5066556104
 10
4.0440853942
 20
-7.5188243776
 10
4.2093364697
 20
-7.5312638501
 10
4.3690015134
 20
-7.5439392274
 10
4.523110773
 20
-7.5568133373
 10
4.6722574145
 20
-7.5698998232
 10
4.8164922476
 20
-7.5831710282
 10
4.9558583221
 20
-7.5965990543
 10
5.0908959995
 20
-7.6102074884
 10
5.221672897
 20
-7.6239782802
 10
5.3481950442
 20
-7.6378872628
 10
5.4708710422
 20
-7.6519569683
 10
5.5897427249
 20
-7.6661725598
 10
5.704824051
 20
-7.6805159665
 10
5.8164534964
 20
-7.6950099612
 10
5.9246630188
 20
-7.7096393018
 10
6.0294853778
 20
-7.7243889356
 10
6.131233338
 20
-7.7392858199
 10
6.2299227919
 20
-7.7543177121
 10
6.3255736514
 20
-7.7694731004
 10
6.4184677353
 20
-7.7847846223
 10
6.5086176444
 20
-7.8002450709
 10
6.5960126171
 20
-7.8158433447
 10
6.6808634643
 20
-7.8316100062
 10
6.7631716909
 20
-7.8475408931
 10
6.8429063786
 20
-7.863625676
 10
6.9201992046
 20
-7.8798883738
 10
6.9949910339
 20
-7.8963156678
 10
7.0672892285
 20
-7.9129084988
 10
7.13728773
 20
-7.9297149574
 10
7.2049144833
 20
-7.9467250266
 10
7.2701406646
 20
-7.9639393163
 10
7.3331679338
 20
-7.9814251969
 10
7.3939084144
 20
-7.9991788465
 10
7.4522812507
 20
-8.0171991171
 10
7.5084458369
 20
-8.0355674811
 10
7.5622974911
 20
-8.054290771
 10
7.6137475651
 20
-8.0733819264
 10
7.6629076787
 20
-8.0929382259
 10
7.7097489706
 20
-8.1130229988
 10
7.7539998782
 20
-8.133600977
 10
7.7953947363
 20
-8.1546228045
 10
7.8340408515
 20
-8.1762331797
 10
7.8695530769
 20
-8.1983168942
 10
7.9011504919
 20
-8.2204239258
 10
7.9289418465
 20
-8.2426259904
 10
7.9528752973
 20
-8.2648739303
 10
7.9724397194
 20
-8.2865019251
 10
7.9878595161
 20
-8.3072852734
 10
7.9996893985
 20
-8.3274040392
 10
8.0082559256
 20
-8.3467689335
 10
8.0139243173
 20
-8.3653308826
 10
8.0170658654
 20
-8.3830840291
 10
8.0180292887
 20
-8.4
  0
LWPOLYLINE
  5
277
100
AcDbEntity
  8
RACCORDO
100
AcDbPolyline
 62
250
  6
CONTINUOUS
 90
151
 70
0
 10
-8.0180292887
 20
8.4
 10
-8.017429153
 20
8.4131712944
 10
-8.0155111915
 20
8.427009979
 10
-8.012064809
 20
8.4414982842
 10
-8.0068811008
 20
8.4565938926
 10
-7.999729879
 20
8.472304482
 10
-7.9903332756
 20
8.488685554
 10
-7.9783281963
 20
8.5058479391
 10
-7.9635093354
 20
8.5236419013
 10
-7.945921425
 20
8.5417411785
 10
-7.9253793629
 20
8.560163614
 10
-7.9017478984
 20
8.5788808954
 10
-7.8754214526
 20
8.5975204578
 10
-7.8464675849
 20
8.6160491861
 10
-7.8148147703
 20
8.6345153035
 10
-7.7808847006
 20
8.6526830963
 10
-7.744881709
 20
8.6704897472
 10
-7.7067346303
 20
8.6880136845
 10
-7.6665582339
 20
8.7052373654
 10
-7.6244684269
 20
8.7221485131
 10
-7.5804858545
 20
8.7387739571
 10
-7.5345777225
 20
8.7551542922
 10
-7.4868015306
 20
8.7712930027
 10
-7.4372009817
 20
8.7871981209
 10
-7.3856916199
 20
8.8029151543
 10
-7.3323157995
 20
8.8184454562
 10
-7.2771193352
 20
8.8337881053
 10
-7.2199895019
 20
8.8489830071
 10
-7.1609619873
 20
8.8640259908
 10
-7.100066819
 20
8.8789143642
 10
-7.0371475436
 20
8.8936882727
 10
-6.9721912693
 20
8.9083494354
 10
-6.9052395998
 20
8.9228870544
 10
-6.8361907828
 20
8.9373206734
 10
-6.7650438006
 20
8.9516464409
 10
-6.6918118929
 20
8.965857596
 10
-6.616397707
 20
8.9799679067
 10
-6.5388087491
 20
8.9939698579
 10
-6.4590375085
 20
9.0078586887
 10
-6.3769477297
 20
9.0216506815
 10
-6.2925314048
 20
9.0353385286
 10
-6.2057810265
 20
9.0489147995
 10
-6.116543603
 20
9.0623935972
 10
-6.0248045137
 20
9.0757661249
 10
-5.9305491072
 20
9.0890235031
 10
-5.8336073734
 20
9.1021774451
 10
-5.7339514758
 20
9.1152183085
 10
-5.6315672578
 20
9.1281345001
 10
-5.5262936108
 20
9.1409329641
 10
-5.4181216717
 20
9.1536023878
 10
-5.3070335363
 20
9.1661327286
 10
-5.1928473811
 20
9.1785312773
 10
-5.0755566838
 20
9.1907845032
 10
-4.955137886
 20
9.2028806209
 10
-4.8313691264
 20
9.214826376
 10
-4.7042390369
 20
9.2266060754
 10
-4.5737255885
 20
9.2382049011
 10
-4.4395758061
 20
9.2496270322
 10
-4.3017759354
 20
9.2608538928
 10
-4.1603061267
 20
9.2718671976
 10
-4.0148897443
 20
9.2826669739
 10
-3.865517994
 20
9.2932307488
 10
-3.7121710109
 20
9.3035365259
 10
-3.5545422141
 20
9.3135796163
 10
-3.3926462521
 20
9.3233319801
 10
-3.2264513258
 20
9.3327679924
 10
-3.0555678381
 20
9.3418796212
 10
-2.8800201871
 20
9.350633715
 10
-2.6997977422
 20
9.3590012346
 10
-2.5144462666
 20
9.3669713814
 10
-2.3239979742
 20
9.3745079486
 10
-2.1284828371
 20
9.3815743756
 10
-1.9274372615
 20
9.3881487865
 10
-1.7210298682
 20
9.3941841469
 10
-1.5092162047
 20
9.3996393198
 10
-1.2912113907
 20
9.4044859138
 10
-1.0672112117
 20
9.4086655101
 10
-0.8372286514
 20
9.4121221934
 10
-0.6002118815
 20
9.414807195
 10
-0.3557936263
 20
9.4166480176
 10
-0.104688964
 20
9.4175596026
 10
0.1524915804
 20
9.4174626207
 10
0.4172363599
 20
9.4162738053
 10
0.6874819667
 20
9.4139218294
 10
0.9572716334
 20
9.4104229236
 10
1.2266063716
 20
9.4057741891
 10
1.4948571548
 20
9.3999824202
 10
1.7552714026
 20
9.3932323948
 10
2.0059702032
 20
9.3856631821
 10
2.2485726874
 20
9.3773136224
 10
2.4817733854
 20
9.3683108639
 10
2.704664495
 20
9.3587833494
 10
2.9181694869
 20
9.3487826147
 10
3.1237654639
 20
9.3383140389
 10
3.3215107918
 20
9.3274411772
 10
3.5114385088
 20
9.3162310837
 10
3.6949236263
 20
9.3046622828
 10
3.8722191087
 20
9.2927680692
 10
4.0431628468
 20
9.2806076201
 10
4.2084485961
 20
9.2681763945
 10
4.3681472004
 20
9.2555091916
 10
4.5222887574
 20
9.2426432189
 10
4.6714664868
 20
9.2295648345
 10
4.8157312162
 20
9.2163017164
 10
4.9551260804
 20
9.2028817893
 10
5.0901916122
 20
9.1892814764
 10
5.2209955559
 20
9.1755188444
 10
5.3475439693
 20
9.1616180892
 10
5.470245484
 20
9.1475567069
 10
5.5891420192
 20
9.1333495543
 10
5.7042476168
 20
9.1190147202
 10
5.8159006445
 20
9.1045294293
 10
5.9241326865
 20
9.0899089269
 10
6.0289766448
 20
9.075168215
 10
6.13074585
 20
9.0602802345
 10
6.2294560702
 20
9.0452572126
 10
6.325127193
 20
9.0301106428
 10
6.4180416904
 20
9.0148077765
 10
6.508212514
 20
8.9993557297
 10
6.5956283817
 20
8.9837656657
 10
6.6804994644
 20
8.9680071423
 10
6.7628276926
 20
8.9520842343
 10
6.8425817131
 20
8.9360073496
 10
6.9198914944
 20
8.9197528567
 10
6.9946979393
 20
8.903334112
 10
7.0670087711
 20
8.8867501604
 10
7.1370170052
 20
8.869953241
 10
7.2046505511
 20
8.8529534749
 10
7.2698813252
 20
8.8357501857
 10
7.3329113622
 20
8.8182760823
 10
7.3936527381
 20
8.8005351061
 10
7.4520253072
 20
8.7825283613
 10
7.508189644
 20
8.76417432
 10
7.5620406449
 20
8.7454664405
 10
7.6134899564
 20
8.7263918896
 10
7.6626510019
 20
8.7068530354
 10
7.7094945863
 20
8.6867866762
 10
7.7537489372
 20
8.6662281633
 10
7.7951497861
 20
8.6452263175
 10
7.8338043952
 20
8.6236361203
 10
7.8693267286
 20
8.6015728789
 10
7.900936415
 20
8.579486507
 10
7.9287434025
 20
8.5573046293
 10
7.9526955604
 20
8.5350761068
 10
7.9722808472
 20
8.5134668676
 10
7.9877234232
 20
8.4927018082
 10
7.9995787444
 20
8.4725988499
 10
8.008173056
 20
8.4532440883
 10
8.0138701197
 20
8.4346850966
 10
8.0170397383
 20
8.4169278045
 10
8.0180292887
 20
8.4
  0
LWPOLYLINE
  5
278
100
AcDbEntity
  8
RACCORDO
100
AcDbPolyline
 62
250
  6
CONTINUOUS
 90
148
 70
0
 10
-8.018953462
 20
-4.2
 10
-8.0183187866
 20
-4.1862390243
 10
-8.0162528862
 20
-4.1717638463
 10
-8.0125209436
 20
-4.15659515
 10
-8.0068872173
 20
-4.1407727306
 10
-7.999096247
 20
-4.1242972538
 10
-7.9888517207
 20
-4.1071321204
 10
-7.975753886
 20
-4.0891559719
 10
-7.9595855292
 20
-4.0705340077
 10
-7.9404415782
 20
-4.0516472007
 10
-7.9181527557
 20
-4.0324854783
 10
-7.8925838361
 20
-4.0130668538
 10
-7.8641997456
 20
-3.9937870288
 10
-7.8331144816
 20
-3.974689813
 10
-7.7992412757
 20
-3.9557131934
 10
-7.7630052816
 20
-3.9370753655
 10
-7.7246327786
 20
-3.9188377732
 10
-7.6840586447
 20
-3.9009186332
 10
-7.6413681855
 20
-3.8833152207
 10
-7.5966725537
 20
-3.8660334975
 10
-7.5500071258
 20
-3.8490497376
 10
-7.5013292464
 20
-3.8323178469
 10
-7.4506984216
 20
-3.8158324263
 10
-7.3981627865
 20
-3.7995846112
 10
-7.3436308685
 20
-3.7835267083
 10
-7.2871595567
 20
-3.7676629117
 10
-7.228794711
 20
-3.7519951599
 10
-7.168400582
 20
-3.7364800439
 10
-7.1060054216
 20
-3.7211214599
 10
-7.0416445581
 20
-3.7059250636
 10
-6.975155017
 20
-3.6908522774
 10
-6.9065210404
 20
-3.6759026268
 10
-6.8357848447
 20
-3.6610885046
 10
-6.762843121
 20
-3.6463925935
 10
-6.6877050034
 20
-3.6318224195
 10
-6.6103722927
 20
-3.6173839858
 10
-6.5307126518
 20
-3.6030585128
 10
-6.4487275065
 20
-3.5888525438
 10
-6.3644141474
 20
-3.5747718478
 10
-6.2776151243
 20
-3.5607977919
 10
-6.1883201167
 20
-3.5469377407
 10
-6.0965210934
 20
-3.5331994468
 10
-6.0020443369
 20
-3.519567209
 10
-5.9048681159
 20
-3.5060495015
 10
-5.8049807433
 20
-3.4926562928
 10
-5.7022056031
 20
-3.479376632
 10
-5.5965154809
 20
-3.4662208547
 10
-5.4878991121
 20
-3.4532003253
 10
-5.3761905998
 20
-3.4403080711
 10
-5.261385759
 20
-3.4275574432
 10
-5.1434605825
 20
-3.4149596076
 10
-5.0222050375
 20
-3.4025072667
 10
-4.8976115938
 20
-3.3902159762
 10
-4.7696553625
 20
-3.3780996694
 10
-4.6380842067
 20
-3.366152386
 10
-4.5028853732
 20
-3.3543923305
 10
-4.3640366683
 20
-3.3428370795
 10
-4.2212555063
 20
-3.3314843276
 10
-4.0745268357
 20
-3.3203557619
 10
-3.9238325726
 20
-3.3094731605
 10
-3.7688705842
 20
-3.2988397498
 10
-3.6096448032
 20
-3.2884826497
 10
-3.4461271245
 20
-3.278427311
 10
-3.2779531764
 20
-3.268681101
 10
-3.1051486731
 20
-3.259277556
 10
-2.9276797391
 20
-3.2502471449
 10
-2.7450868479
 20
-3.2415989072
 10
-2.5573987781
 20
-3.2333679009
 10
-2.3646352658
 20
-3.2255891213
 10
-2.1663183444
 20
-3.2182807049
 10
-1.9625449897
 20
-3.2114867604
 10
-1.753321578
 20
-3.2052488402
 10
-1.5380313145
 20
-3.1995947504
 10
-1.3169626645
 20
-3.1945819661
 10
-1.0900125778
 20
-3.1902594002
 10
-0.8559779803
 20
-3.1866653683
 10
-0.6146528042
 20
-3.1838693031
 10
-0.3665456035
 20
-3.1819523728
 10
-0.1115538386
 20
-3.1809918381
 10
0.1514154859
 20
-3.1810745057
 10
0.4207492408
 20
-3.1822884456
 10
0.6924451371
 20
-3.1846700997
 10
0.9676203099
 20
-3.1882710408
 10
1.2444594162
 20
-3.1931108728
 10
1.5146603293
 20
-3.1990270466
 10
1.7761848515
 20
-3.2058945954
 10
2.0306816038
 20
-3.2136788105
 10
2.275602414
 20
-3.2222220184
 10
2.509784948
 20
-3.2313836388
 10
2.7343431636
 20
-3.2411099242
 10
2.9502295245
 20
-3.2513599885
 10
3.1572302903
 20
-3.2620475039
 10
3.3556409666
 20
-3.2731094498
 10
3.5471327301
 20
-3.2845700303
 10
3.7320138818
 20
-3.2963917425
 10
3.9100719636
 20
-3.3085063396
 10
4.0821273001
 20
-3.3209191476
 10
4.2482807992
 20
-3.3335929086
 10
4.4085368764
 20
-3.3464841649
 10
4.5635273416
 20
-3.359603842
 10
4.7133065541
 20
-3.3729208004
 10
4.8579220874
 20
-3.3864039108
 10
4.9979528033
 20
-3.4000754926
 10
5.1334672732
 20
-3.4139144708
 10
5.2644797264
 20
-3.4278946668
 10
5.3914453661
 20
-3.4420398008
 10
5.5144158268
 20
-3.4563338786
 10
5.6334023016
 20
-3.4707564473
 10
5.748763041
 20
-3.4853312572
 10
5.8605294295
 20
-3.5000434209
 10
5.9687355753
 20
-3.514877764
 10
6.0737138696
 20
-3.5298626853
 10
6.1754820885
 20
-3.5449860837
 10
6.2740623181
 20
-3.5602365736
 10
6.369754607
 20
-3.5756485413
 10
6.4625677913
 20
-3.5912141427
 10
6.5524981754
 20
-3.6069234755
 10
6.6397877494
 20
-3.6228120787
 10
6.7244400566
 20
-3.6388765269
 10
6.8064241792
 20
-3.65510491
 10
6.8858958373
 20
-3.6715231703
 10
6.9628051179
 20
-3.6881181651
 10
7.0371527982
 20
-3.7048874198
 10
7.1091316713
 20
-3.7218758042
 10
7.1786664547
 20
-3.7390704402
 10
7.2457361223
 20
-3.7564715233
 10
7.3105569052
 20
-3.7741469692
 10
7.3730442795
 20
-3.7920920707
 10
7.4331126314
 20
-3.8103021973
 10
7.4909194431
 20
-3.828856368
 10
7.546357889
 20
-3.8477624306
 10
7.5993390417
 20
-3.8670350059
 10
7.649979438
 20
-3.8867735978
 10
7.6982360784
 20
-3.9070369165
 10
7.7438494423
 20
-3.9277978239
 10
7.7865878832
 20
-3.949029121
 10
7.8265604191
 20
-3.9708830688
 10
7.8633552332
 20
-3.9932428656
 10
7.8961808162
 20
-4.0156656406
 10
7.9251470648
 20
-4.0382360493
 10
7.9501658255
 20
-4.0608973919
 10
7.9706689142
 20
-4.0829584718
 10
7.9868571646
 20
-4.1041640266
 10
7.9993229275
 20
-4.1247238477
 10
8.0084198968
 20
-4.1446132133
 10
8.0144971878
 20
-4.163806577
 10
8.0178971483
 20
-4.1822779865
 10
8.018953462
 20
-4.2
  0
LWPOLYLINE
  5
279
100
AcDbEntity
  8
RACCORDO
100
AcDbPolyline
 62
250
  6
CONTINUOUS
 90
148
 70
0
 10
-8.018953462
 20
4.2
 10
-8.0183088678
 20
4.213761087
 10
-8.0162329018
 20
4.2282350999
 10
-8.012490789
 20
4.2434014021
 10
-8.0068467085
 20
4.2592202671
 10
-7.9990453418
 20
4.2756911413
 10
-7.9887907173
 20
4.2928508635
 10
-7.9756829099
 20
4.3108212492
 10
-7.9595046058
 20
4.3294371445
 10
-7.9403513098
 20
4.3483173393
 10
-7.9180536881
 20
4.3674722529
 10
-7.8924763007
 20
4.3868840269
 10
-7.8640848763
 20
4.4061564081
 10
-7.8329939787
 20
4.4252453854
 10
-7.7991165081
 20
4.4442133857
 10
-7.7628773953
 20
4.4628424899
 10
-7.7245033247
 20
4.4810712226
 10
-7.6839293278
 20
4.498981437
 10
-7.6412398823
 20
4.5165762086
 10
-7.5965462285
 20
4.533849545
 10
-7.5498839171
 20
4.550825115
 10
-7.5012092745
 20
4.5675492839
 10
-7.4505815686
 20
4.5840274451
 10
-7.3980491781
 20
4.6002683088
 10
-7.343520125
 20
4.6163196029
 10
-7.2870509717
 20
4.6321771643
 10
-7.2286876224
 20
4.6478390019
 10
-7.1682942707
 20
4.6633484809
 10
-7.1058989463
 20
4.6787017269
 10
-7.0415369324
 20
4.693893067
 10
-6.9750455171
 20
4.7089609801
 10
-6.906408745
 20
4.7239059672
 10
-6.8356688544
 20
4.7387156216
 10
-6.7627232332
 20
4.7534071094
 10
-6.6875810895
 20
4.7679729018
 10
-6.6102441355
 20
4.782407028
 10
-6.530580595
 20
4.7967281698
 10
-6.4485921221
 20
4.8109297516
 10
-6.3642758559
 20
4.8250060394
 10
-6.2774743774
 20
4.8389756638
 10
-6.1881774871
 20
4.8528312479
 10
-6.0963771234
 20
4.8665650531
 10
-6.0018993629
 20
4.8801928163
 10
-5.9047224874
 20
4.8937060657
 10
-5.8048348881
 20
4.9070948291
 10
-5.7020598266
 20
4.9203700815
 10
-5.5963700914
 20
4.9335214921
 10
-5.4877544924
 20
4.9465376887
 10
-5.3760470875
 20
4.959425647
 10
-5.2612436423
 20
4.9721720138
 10
-5.1433201422
 20
4.9847656174
 10
-5.0220665719
 20
4.9972137522
 10
-4.897475358
 20
5.0095008606
 10
-4.7695216081
 20
5.0216130056
 10
-4.6379532724
 20
5.033556143
 10
-4.5027576008
 20
5.0453120663
 10
-4.3639123808
 20
5.056863202
 10
-4.221135095
 20
5.0682118629
 10
-4.0744107413
 20
5.0793363627
 10
-3.9237212182
 20
5.090214935
 10
-3.7687643737
 20
5.100844381
 10
-3.6095442048
 20
5.1111975909
 10
-3.4460326402
 20
5.1212491338
 10
-3.2778652596
 20
5.1309916888
 10
-3.1050678045
 20
5.1403917477
 10
-2.927606558
 20
5.1494188672
 10
-2.7450220654
 20
5.1580640279
 10
-2.5573430345
 20
5.1662921559
 10
-2.3645891751
 20
5.1740682419
 10
-2.1662826104
 20
5.1813741586
 10
-1.9625202517
 20
5.1881657845
 10
-1.7533084536
 20
5.194401561
 10
-1.5380305844
 20
5.200053709
 10
-1.3169749592
 20
5.2050647546
 10
-1.0900386132
 20
5.2093857954
 10
-0.8560190026
 20
5.212978575
 10
-0.6147105314
 20
5.215773685
 10
-0.3666212431
 20
5.2176900214
 10
-0.1116476537
 20
5.2186504604
 10
0.1513025355
 20
5.2185682771
 10
0.4206169491
 20
5.2173554024
 10
0.6922964111
 20
5.2149753428
 10
0.9674589756
 20
5.2113764633
 10
1.2442883796
 20
5.2065390522
 10
1.5144828093
 20
5.2006255081
 10
1.7760049073
 20
5.1937607364
 10
2.0305023897
 20
5.1859794303
 10
2.2754248116
 20
5.1774392327
 10
2.5096094984
 20
5.1682807477
 10
2.7341708153
 20
5.1585577493
 10
2.9500601662
 20
5.1483111447
 10
3.1570633527
 20
5.1376273136
 10
3.3554763502
 20
5.1265692564
 10
3.546970666
 20
5.11511268
 10
3.7318545618
 20
5.1032950511
 10
3.9099153996
 20
5.091184601
 10
4.0819736533
 20
5.0787759516
 10
4.2481302612
 20
5.0661063419
 10
4.4083895369
 20
5.0532192321
 10
4.5633832611
 20
5.0401036808
 10
4.7131658068
 20
5.0267908243
 10
4.8577847509
 20
5.0133117984
 10
4.9978189261
 20
4.9996442849
 10
5.1333369501
 20
4.9858093608
 10
5.2643530635
 20
4.971833214
 10
5.3913223985
 20
4.9576921385
 10
5.5142966328
 20
4.9434021342
 10
5.6332869941
 20
4.9289836623
 10
5.7486516488
 20
4.9144129911
 10
5.8604218196
 20
4.8997050273
 10
5.9686316777
 20
4.8848749353
 10
6.0736138046
 20
4.8698942892
 10
6.1753858759
 20
4.8547751993
 10
6.2739699926
 20
4.8395290482
 10
6.3696665385
 20
4.8241213993
 10
6.4624844958
 20
4.8085600625
 10
6.5524199162
 20
4.7928549743
 10
6.6397145242
 20
4.7769706463
 10
6.7243720762
 20
4.7609104581
 10
6.8063613832
 20
4.7446863462
 10
6.8858372776
 20
4.7282725369
 10
6.9627498687
 20
4.711682166
 10
7.0371000558
 20
4.6949176894
 10
7.1090800539
 20
4.6779344013
 10
7.1786145559
 20
4.6607452153
 10
7.2456828896
 20
4.6433498918
 10
7.3105013666
 20
4.6256805651
 10
7.3729854395
 20
4.6077419926
 10
7.4330498989
 20
4.5895387555
 10
7.4908528011
 20
4.5709918036
 10
7.5462870858
 20
4.5520934596
 10
7.5992640098
 20
4.5328291642
 10
7.6499010326
 20
4.5130992464
 10
7.6981550439
 20
4.492845045
 10
7.7437663525
 20
4.4720937861
 10
7.7865038793
 20
4.4508725046
 10
7.8264766061
 20
4.4290288144
 10
7.8632723452
 20
4.406679566
 10
7.8960998227
 20
4.3842676107
 10
7.9250696882
 20
4.3617078971
 10
7.9500936425
 20
4.339057062
 10
7.9706030229
 20
4.3170066314
 10
7.9867987308
 20
4.2958119906
 10
7.9992737038
 20
4.2752623195
 10
8.0083816643
 20
4.2553809253
 10
8.0144712113
 20
4.2361926256
 10
8.0178841024
 20
4.2177232894
 10
8.018953462
 20
4.2
  0
LWPOLYLINE
  5
27A
100
AcDbEntity
  8
RACCORDO
100
AcDbPolyline
 62
250
  6
CONTINUOUS
 90
142
 70
0
 10
-8.019261498
 20
0.0
 10
-8.0181886543
 20
0.0178282249
 10
-8.0147768099
 20
0.0362991078
 10
-8.0087316729
 20
0.0553889068
 10
-7.999772581
 20
0.075038277
 10
-7.987585923
 20
0.0952636512
 10
-7.9717743379
 20
0.1161527916
 10
-7.9517101461
 20
0.1379516093
 10
-7.927214511
 20
0.1603664878
 10
-7.8988466768
 20
0.1827027958
 10
-7.8666958689
 20
0.2048982049
 10
-7.8306434025
 20
0.2270424518
 10
-7.7914480215
 20
0.2487055312
 10
-7.749492901
 20
0.2697762311
 10
-7.7046701153
 20
0.2903998756
 10
-7.6572132012
 20
0.3105424425
 10
-7.6073549575
 20
0.330182702
 10
-7.5551452591
 20
0.3493726563
 10
-7.5005351532
 20
0.3681869339
 10
-7.4436347294
 20
0.3866349363
 10
-7.3845381631
 20
0.4047305079
 10
-7.3231175341
 20
0.4225471142
 10
-7.2594705247
 20
0.4400795558
 10
-7.1936821739
 20
0.457325472
 10
-7.1255548623
 20
0.4743511264
 10
-7.0551226018
 20
0.4911562249
 10
-6.9824625954
 20
0.5077299478
 10
-6.9073847607
 20
0.5241195042
 10
-6.8298875362
 20
0.5403248286
 10
-6.7500337511
 20
0.5563321403
 10
-6.6676919676
 20
0.5721653636
 10
-6.5828885186
 20
0.5878153382
 10
-6.495637046
 20
0.603277315
 10
-6.4057581692
 20
0.6185793161
 10
-6.3132558326
 20
0.6337147647
 10
-6.2181419316
 20
0.6486757789
 10
-6.1202203828
 20
0.6634854226
 10
-6.0194844036
 20
0.6781350961
 10
-5.9159335643
 20
0.6926152346
 10
-5.809355395
 20
0.7069442478
 10
-5.699722312
 20
0.7211127668
 10
-5.5870355235
 20
0.7351076598
 10
-5.4711110419
 20
0.7489389541
 10
-5.3519514365
 20
0.7625932294
 10
-5.2295437787
 20
0.7760588806
 10
-5.1036673003
 20
0.7893455895
 10
-4.9743239707
 20
0.802437149
 10
-4.841494838
 20
0.8153194278
 10
-4.7049080896
 20
0.8280009505
 10
-4.5645575233
 20
0.8404627578
 10
-4.4204271556
 20
0.8526865983
 10
-4.272210591
 20
0.864676833
 10
-4.1198948561
 20
0.8764109354
 10
-3.9634706323
 20
0.8878657838
 10
-3.8026191705
 20
0.8990388077
 10
-3.6373522288
 20
0.9099012751
 10
-3.4676448886
 20
0.92042647
 10
-3.2931068895
 20
0.9306074656
 10
-3.1137761813
 20
0.9404083969
 10
-2.9296182434
 20
0.9497971845
 10
-2.7401264452
 20
0.9587654028
 10
-2.5453159352
 20
0.9672765894
 10
-2.3452362005
 20
0.9752923812
 10
-2.1394276874
 20
0.98279173
 10
-1.9280304592
 20
0.9897270236
 10
-1.7110328935
 20
0.9960552743
 10
-1.4877452897
 20
1.0017475342
 10
-1.2585586378
 20
1.0067408541
 10
-1.0233006021
 20
1.0109845289
 10
-0.7804350924
 20
1.014438894
 10
-0.5292510702
 20
1.0170295016
 10
-0.2708069133
 20
1.0186575519
 10
-0.00625935
 20
1.0192352321
 10
0.2657447225
 20
1.0186789479
 10
0.5432547293
 20
1.0169112601
 10
0.820126249
 20
1.0139383374
 10
1.0964316152
 20
1.0097603995
 10
1.3714312002
 20
1.0043883759
 10
1.6379048956
 20
0.9980102985
 10
1.8935740148
 20
0.990784928
 10
2.1404465211
 20
0.9827564432
 10
2.3779208746
 20
0.9740323105
 10
2.6053398254
 20
0.9647294248
 10
2.8233394241
 20
0.9549121376
 10
3.0332814244
 20
0.944595281
 10
3.2351969917
 20
0.9338445608
 10
3.4291271684
 20
0.9227286776
 10
3.6163915554
 20
0.9112353298
 10
3.7971987491
 20
0.8994048822
 10
3.9714363774
 20
0.8872966851
 10
4.1398844509
 20
0.874904094
 10
4.302632501
 20
0.8622625811
 10
4.4596922813
 20
0.8494126328
 10
4.6116841247
 20
0.8363410618
 10
4.7586691483
 20
0.8230761003
 10
4.9006806831
 20
0.8096479013
 10
5.0382560856
 20
0.7960354578
 10
5.1714586606
 20
0.7822587455
 10
5.3003021835
 20
0.7683424664
 10
5.4252105172
 20
0.7542643799
 10
5.5462276454
 20
0.7400402245
 10
5.6633683505
 20
0.7256889764
 10
5.7769796603
 20
0.711187057
 10
5.8870919883
 20
0.6965488586
 10
5.9937375615
 20
0.6817887727
 10
6.0972384451
 20
0.666878458
 10
6.1976105562
 20
0.6518293892
 10
6.2948732239
 20
0.6366524661
 10
6.3893158342
 20
0.6213137628
 10
6.4809465099
 20
0.605820486
 10
6.5697583721
 20
0.5901823336
 10
6.65598045
 20
0.5743650752
 10
6.739614778
 20
0.5583721313
 10
6.8206302242
 20
0.5422152831
 10
6.8991729091
 20
0.5258697868
 10
6.9751896855
 20
0.509349182
 10
7.0486834466
 20
0.4926551261
 10
7.1198461171
 20
0.475742222
 10
7.1886042038
 20
0.4586225621
 10
7.2549331819
 20
0.4412963599
 10
7.3190412733
 20
0.4236970545
 10
7.380843949
 20
0.4058292528
 10
7.4402563647
 20
0.3876970732
 10
7.4974320594
 20
0.3692216884
 10
7.5522652643
 20
0.3503950804
 10
7.604667825
 20
0.3312025565
 10
7.6547517366
 20
0.3115461478
 10
7.7024805052
 20
0.2913647272
 10
7.7475913398
 20
0.2706876212
 10
7.7898385267
 20
0.2495507388
 10
7.8293288005
 20
0.2278058797
 10
7.8656668028
 20
0.2055660993
 10
7.8980731084
 20
0.1832709639
 10
7.9266703901
 20
0.1608264474
 10
7.9513611358
 20
0.1382984403
 10
7.9715639332
 20
0.1164040547
 10
7.9874593292
 20
0.0954501784
 10
7.9996980025
 20
0.0751794657
 10
8.0086927028
 20
0.0554900747
 10
8.0147614278
 20
0.0363607863
 10
8.0181852805
 20
0.0178560941
 10
8.019261498
 20
0.0
  0
LWPOLYLINE
  5
27B
100
AcDbEntity
  8
RACCORDO
100
AcDbPolyline
 62
250
  6
CONTINUOUS
 90
142
 70
0
 10
-8.219231037
 20
0.0
 10
-8.2164735848
 20
0.0433132747
 10
-8.2085656593
 20
0.0855865841
 10
-8.1955072604
 20
0.1268199278
 10
-8.1769848782
 20
0.1673285805
 10
-8.1533120227
 20
0.2067972671
 10
-8.1254292241
 20
0.2442801636
 10
-8.093169051
 20
0.279453278
 10
-8.0566989348
 20
0.3126406025
 10
-8.0174616994
 20
0.3438682887
 10
-7.9757149957
 20
0.3729329457
 10
-7.9312011727
 20
0.4000379647
 10
-7.8845901018
 20
0.4258196714
 10
-7.8360431231
 20
0.4503389191
 10
-7.7853988965
 20
0.4735348546
 10
-7.7328432722
 20
0.4958612436
 10
-7.6784473136
 20
0.5173670883
 10
-7.6221399574
 20
0.5380033867
 10
-7.5638938639
 20
0.5580768983
 10
-7.5037245144
 20
0.5776317493
 10
-7.4416164276
 20
0.5966238137
 10
-7.3774958204
 20
0.6152274726
 10
-7.3113824582
 20
0.6334666836
 10
-7.2432565756
 20
0.6513174892
 10
-7.1729850934
 20
0.6688823982
 10
-7.1005725987
 20
0.6861765778
 10
-7.0260145044
 20
0.7031848607
 10
-6.9491639695
 20
0.7199642543
 10
-6.8700071092
 20
0.7365263947
 10
-6.7885578084
 20
0.7528596458
 10
-6.7047108806
 20
0.7689861066
 10
-6.6184872101
 20
0.784906132
 10
-6.5298659126
 20
0.8006193672
 10
-6.438679149
 20
0.8161468466
 10
-6.3449397325
 20
0.8314915966
 10
-6.2486348497
 20
0.8466505908
 10
-6.1495582219
 20
0.8616357845
 10
-6.047720401
 20
0.8764506693
 10
-5.9431108349
 20
0.8910917536
 10
-5.8354915891
 20
0.9055605177
 10
-5.7248524642
 20
0.919861406
 10
-5.6112036595
 20
0.9339899741
 10
-5.4943378389
 20
0.9479343695
 10
-5.3742664888
 20
0.9616960933
 10
-5.2509781228
 20
0.9752736444
 10
-5.1242309445
 20
0.988650668
 10
-4.9940434577
 20
1.001829758
 10
-4.8603971586
 20
1.0148083204
 10
-4.7229947394
 20
1.027562218
 10
-4.5818482311
 20
1.0400955012
 10
-4.4369456027
 20
1.0524041197
 10
-4.2879534533
 20
1.0644517849
 10
-4.1348742192
 20
1.0762439678
 10
-3.9777054641
 20
1.0877751976
 10
-3.8161064783
 20
1.0989927728
 10
-3.6500961874
 20
1.1099018809
 10
-3.4796556658
 20
1.1204973346
 10
-3.3043874267
 20
1.1307108708
 10
-3.1243164518
 20
1.1405464189
 10
-2.9394177594
 20
1.1500000495
 10
-2.7492189177
 20
1.1589917113
 10
-2.5536848167
 20
1.1675294637
 10
-2.3528505665
 20
1.1756052474
 10
-2.146349065
 20
1.1831148324
 10
-1.934232019
 20
1.1900677096
 10
-1.7164477217
 20
1.1964543881
 10
-1.4924739519
 20
1.2021421664
 10
-1.2625562789
 20
1.207147328
 10
-1.0264491333
 20
1.2114535894
 10
-0.7828935853
 20
1.2148793982
 10
-0.5309269425
 20
1.2174458865
 10
-0.2715118973
 20
1.2191319223
 10
-0.0062775978
 20
1.2196925567
 10
0.2664901301
 20
1.2190662092
 10
0.5450771122
 20
1.2173144604
 10
0.8227116784
 20
1.2143771034
 10
1.0997029373
 20
1.2101382821
 10
1.3757417804
 20
1.2047138525
 10
1.6431292118
 20
1.1983911761
 10
1.8995531834
 20
1.1911699548
 10
2.1473257434
 20
1.1830504865
 10
2.385684041
 20
1.1743210273
 10
2.613913069
 20
1.1650207106
 10
2.8327278347
 20
1.1551104028
 10
3.0435105089
 20
1.1447609585
 10
3.2462525824
 20
1.1339941367
 10
3.4409625644
 20
1.1227881783
 10
3.6290481538
 20
1.1112486617
 10
3.8106832043
 20
1.0993835455
 10
3.9856938622
 20
1.087184871
 10
4.1549662647
 20
1.0747343406
 10
4.3185543588
 20
1.0620413403
 10
4.4764041974
 20
1.0490964842
 10
4.6292400772
 20
1.0359533171
 10
4.7770934529
 20
1.0226198042
 10
4.9199328696
 20
1.0090879804
 10
5.0583882593
 20
0.9953874946
 10
5.1925029728
 20
0.9815229502
 10
5.3222336592
 20
0.9674897439
 10
5.4480801978
 20
0.9533037143
 10
5.5700712074
 20
0.9389679698
 10
5.6881780691
 20
0.9244794021
 10
5.8028148054
 20
0.9098445255
 10
5.9139928154
 20
0.8950675542
 10
6.0217007
 20
0.880144274
 10
6.1263182843
 20
0.8650685564
 10
6.2278644679
 20
0.8498448603
 10
6.3263203512
 20
0.8344687268
 10
6.4220090609
 20
0.8189206504
 10
6.5149608623
 20
0.8032025473
 10
6.60514549
 20
0.7873125015
 10
6.6927952751
 20
0.7712252594
 10
6.777943976
 20
0.7549395885
 10
6.8605578343
 20
0.7384567214
 10
6.9407679057
 20
0.7217551026
 10
7.0185646056
 20
0.7048453718
 10
7.0939575186
 20
0.6877168894
 10
7.1671064542
 20
0.6703161811
 10
7.2380126829
 20
0.6526591614
 10
7.3066749342
 20
0.6347299157
 10
7.3732492066
 20
0.6164272269
 10
7.4377511706
 20
0.5977765248
 10
7.5001651556
 20
0.5787523794
 10
7.5606001478
 20
0.559177284
 10
7.6190613536
 20
0.5391028995
 10
7.6755435664
 20
0.5184775649
 10
7.7301401536
 20
0.4969687905
 10
7.7829498771
 20
0.4746168796
 10
7.8338739748
 20
0.4513815286
 10
7.8827095281
 20
0.4268093377
 10
7.9296234282
 20
0.4009622441
 10
7.9744487838
 20
0.3737783103
 10
8.0164820022
 20
0.3446183241
 10
8.0559791992
 20
0.3132626754
 10
8.092684259
 20
0.279930974
 10
8.1251252411
 20
0.2446428368
 10
8.1531096684
 20
0.2071036213
 10
8.1768300179
 20
0.16760797
 10
8.1953917805
 20
0.1270594275
 10
8.2084967863
 20
0.0857591756
 10
8.2164432051
 20
0.043406033
 10
8.219231037
 20
0.0
  0
LWPOLYLINE
  5
27C
100
AcDbEntity
  8
0
100
AcDbPolyline
 62
250
  6
CONTINUOUS
 90
6
 70
0
 10
-10.5087981167
 20
-21.9749071372
 10
-10.5080778269
 20
-21.9672621499
 10
-10.5073747238
 20
-21.952953371
 10
-10.5066888073
 20
-21.9320760821
 10
-10.5060157159
 20
-21.9047687004
 10
-10.5047341778
 20
-21.8316431047
  0
LWPOLYLINE
  5
27D
100
AcDbEntity
  8
0
100
AcDbPolyline
 62
250
  6
CONTINUOUS
 90
8
 70
0
 10
-11.0087219643
 20
-21.4755923698
 10
-11.0080045641
 20
-21.4716950654
 10
-11.0073035089
 20
-21.4645922224
 10
-11.0066187988
 20
-21.4542838406
 10
-11.0059457953
 20
-21.4406561355
 10
-11.0052891369
 20
-21.4238228918
 10
-11.0046627389
 20
-21.4041254635
 10
-11.0035024636
 20
-21.3560260412
  0
LWPOLYLINE
  5
27E
100
AcDbEntity
  8
DRAFT
100
AcDbPolyline
 62
7
  6
CONTINUOUS
 90
13
 70
0
 10
-3.7412724675
 20
-7.50734955
 10
-3.1700749189
 20
-7.4728331514
 10
-2.5787609664
 20
-7.4443849198
 10
-1.9673306098
 20
-7.4220048553
 10
-1.3293073213
 20
-7.4054609037
 10
-0.6711676288
 20
-7.3949851191
 10
-0.0123411159
 20
-7.391273664
 10
0.647173821
 20
-7.3947474304
 10
1.3073755783
 20
-7.4049855263
 10
1.9488297611
 20
-7.4214214376
 10
2.5650582378
 20
-7.4438663263
 10
3.1625391399
 20
-7.4725090305
 10
3.7412724675
 20
-7.50734955
  0
LWPOLYLINE
  5
27F
100
AcDbEntity
  8
RACCORDO
100
AcDbPolyline
 62
250
  6
CONTINUOUS
 90
6
 70
0
 10
-8.060578611
 20
-8.4020268853
 10
-8.0459716714
 20
-8.4016638433
 10
-8.0342432451
 20
-8.4012729354
 10
-8.0255896007
 20
-8.4008606927
 10
-8.0201555521
 20
-8.4004340046
 10
-8.0180320352
 20
-8.4000000007
  0
LINE
  5
280
100
AcDbEntity
  8
RACCORDO
100
AcDbLine
 62
250
  6
CONTINUOUS
 10
-8.0974061963
 20
-8.40264568
 11
-8.060578611
 21
-8.4020268853
  0
LINE
  5
281
100
AcDbEntity
  8
RACCORDO
100
AcDbLine
 62
250
  6
CONTINUOUS
 10
-8.1422711619
 20
-8.4030881608
 11
-8.0974061963
 21
-8.40264568
  0
LWPOLYLINE
  5
282
100
AcDbEntity
  8
RACCORDO
100
AcDbPolyline
 62
250
  6
CONTINUOUS
 90
3
 70
0
 10
-8.2179988249
 20
-8.4033607981
 10
-8.19218292
 20
-8.4033249842
 10
-8.1422711619
 20
-8.4030881608
  0
LINE
  5
283
100
AcDbEntity
  8
RACCORDO
100
AcDbLine
 62
250
  6
CONTINUOUS
 10
8.2179988249
 20
-8.4033607092
 11
8.1667987729
 21
-8.4032339914
  0
LINE
  5
284
100
AcDbEntity
  8
RACCORDO
100
AcDbLine
 62
250
  6
CONTINUOUS
 10
8.1667987729
 20
-8.4032339914
 11
8.1190105593
 21
-8.4028914643
  0
LWPOLYLINE
  5
285
100
AcDbEntity
  8
RACCORDO
100
AcDbPolyline
 62
250
  6
CONTINUOUS
 90
8
 70
0
 10
8.1190105593
 20
-8.4028914643
 10
8.0778196325
 20
-8.4023560759
 10
8.0605786183
 20
-8.4020268163
 10
8.0459716788
 20
-8.4016636493
 10
8.0342432526
 20
-8.4012726645
 10
8.0255896083
 20
-8.4008604155
 10
8.0201555598
 20
-8.4004338105
 10
8.0180320428
 20
-8.3999999993
  0
LINE
  5
286
100
AcDbEntity
  8
DRAFT
100
AcDbLine
 62
7
  6
CONTINUOUS
 10
-3.7412724675
 20
5.0926333415
 11
-3.75
 21
5.0833308766
  0
LWPOLYLINE
  5
287
100
AcDbEntity
  8
DRAFT
100
AcDbPolyline
 62
7
  6
CONTINUOUS
 90
13
 70
0
 10
3.7412724675
 20
-5.0926333415
 10
3.1700743748
 20
-5.1271622055
 10
2.5787592972
 20
-5.1556190571
 10
1.9673272348
 20
-5.1780038963
 10
1.3293012432
 20
-5.1945468689
 10
0.6711582666
 20
-5.205017829
 10
0.0123291383
 20
-5.2087263393
 10
-0.6471877416
 20
-5.2052552812
 10
-1.3073907733
 20
-5.1950217731
 10
-1.9488443249
 20
-5.1785867333
 10
-2.5650698525
 20
-5.1561371345
 10
-3.1625459001
 20
-5.1274860039
 10
-3.7412724675
 20
-5.0926333415
  0
LINE
  5
288
100
AcDbEntity
  8
DRAFT
100
AcDbLine
 62
7
  6
CONTINUOUS
 10
-3.7412724675
 20
-5.0926333415
 11
-3.75
 21
-5.0833308766
  0
LINE
  5
289
100
AcDbEntity
  8
0
100
AcDbLine
 62
250
  6
CONTINUOUS
 10
-11.15
 20
-21.8997711479
 11
-11.0087219643
 21
-21.4755923698
  0
LINE
  5
28A
100
AcDbEntity
  8
DRAFT
100
AcDbLine
 62
7
  6
CONTINUOUS
 10
-3.7412724675
 20
0.8926336063
 11
-3.75
 21
0.8833308766
  0
LWPOLYLINE
  5
28B
100
AcDbEntity
  8
RACCORDO
100
AcDbPolyline
 62
250
  6
CONTINUOUS
 90
4
 70
0
 10
-8.0351678918
 20
-4.20063652
 10
-8.026514217
 20
-4.2004304052
 10
-8.0210801311
 20
-4.2002170454
 10
-8.0189565717
 20
-4.2000000009
  0
LINE
  5
28C
100
AcDbEntity
  8
RACCORDO
100
AcDbLine
 62
250
  6
CONTINUOUS
 10
-8.0615032891
 20
-4.2010134321
 11
-8.0351678918
 21
-4.20063652
  0
LINE
  5
28D
100
AcDbEntity
  8
RACCORDO
100
AcDbLine
 62
250
  6
CONTINUOUS
 10
-8.1199351624
 20
-4.2014453977
 11
-8.0615032891
 21
-4.2010134321
  0
LINE
  5
28E
100
AcDbEntity
  8
RACCORDO
100
AcDbLine
 62
250
  6
CONTINUOUS
 10
-8.2189229974
 20
-4.2016803959
 11
-8.1199351624
 21
-4.2014453977
  0
LINE
  5
28F
100
AcDbEntity
  8
RACCORDO
100
AcDbLine
 62
250
  6
CONTINUOUS
 10
8.2189229974
 20
-4.2016802778
 11
8.1199351663
 21
-4.2014458228
  0
LINE
  5
290
100
AcDbEntity
  8
RACCORDO
100
AcDbLine
 62
250
  6
CONTINUOUS
 10
8.1199351663
 20
-4.2014458228
 11
8.061503294
 21
-4.20101338
  0
LWPOLYLINE
  5
291
100
AcDbEntity
  8
RACCORDO
100
AcDbPolyline
 62
250
  6
CONTINUOUS
 90
5
 70
0
 10
8.061503294
 20
-4.20101338
 10
8.035167897
 20
-4.2006362562
 10
8.0265142222
 20
-4.200430133
 10
8.0210801364
 20
-4.2002168541
 10
8.018956577
 20
-4.1999999991
  0
LINE
  5
292
100
AcDbEntity
  8
DRAFT
100
AcDbLine
 62
7
  6
CONTINUOUS
 10
-3.7412724675
 20
-0.8926336063
 11
-3.75
 21
-0.8833308766
  0
LINE
  5
293
100
AcDbEntity
  8
0
100
AcDbLine
 62
250
  6
CONTINUOUS
 10
-11.0087219643
 20
21.4755923698
 11
-11.15
 21
21.8997711479
  0
LINE
  5
294
100
AcDbEntity
  8
DRAFT
100
AcDbLine
 62
7
  6
CONTINUOUS
 10
-3.0
 20
-23.5
 11
-3.0
 21
-22.4
  0
LINE
  5
295
100
AcDbEntity
  8
DRAFT
100
AcDbLine
 62
7
  6
CONTINUOUS
 10
-3.0
 20
22.4
 11
-3.0
 21
23.5
  0
LINE
  5
296
100
AcDbEntity
  8
DRAFT
100
AcDbLine
 62
7
  6
CONTINUOUS
 10
-2.7812783412
 20
-23.4781828305
 11
-2.7812783412
 21
-22.5310194482
  0
LINE
  5
297
100
AcDbEntity
  8
DRAFT
100
AcDbLine
 62
7
  6
CONTINUOUS
 10
-2.7812783412
 20
22.5310194482
 11
-2.7812783412
 21
23.4781828305
  0
LINE
  5
298
100
AcDbEntity
  8
0
100
AcDbLine
 62
250
  6
CONTINUOUS
 10
-10.6503805997
 20
-22.4
 11
-10.5087981167
 21
-21.9749071372
  0
LINE
  5
299
100
AcDbEntity
  8
DRAFT
100
AcDbLine
 62
7
  6
CONTINUOUS
 10
3.7412724675
 20
7.50734955
 11
3.75
 21
7.5166691234
  0
LWPOLYLINE
  5
29A
100
AcDbEntity
  8
DRAFT
100
AcDbPolyline
 62
7
  6
CONTINUOUS
 90
13
 70
0
 10
-3.7412724675
 20
-3.3073665465
 10
-3.1700744585
 20
-3.2728376688
 10
-2.5787594193
 20
-3.2443808164
 10
-1.9673273499
 20
-3.2219959894
 10
-1.3293012876
 20
-3.2054530545
 10
-0.6711581951
 20
-3.1949821449
 10
-0.0123289605
 20
-3.1912736606
 10
0.647188016
 20
-3.1947446955
 10
1.3073911345
 20
-3.2049781556
 10
1.9488447077
 20
-3.221413159
 10
2.565070173
 20
-3.2438627449
 10
3.162546093
 20
-3.2725138741
 10
3.7412724675
 20
-3.3073665465
  0
LINE
  5
29B
100
AcDbEntity
  8
DRAFT
100
AcDbLine
 62
7
  6
CONTINUOUS
 10
3.7412724675
 20
-7.50734955
 11
3.75
 21
-7.5166691234
  0
LINE
  5
29C
100
AcDbEntity
  8
0
100
AcDbLine
 62
250
  6
CONTINUOUS
 10
-10.5087981167
 20
21.9749071372
 11
-10.6503805997
 21
22.4
  0
LINE
  5
29D
100
AcDbEntity
  8
DRAFT
100
AcDbLine
 62
7
  6
CONTINUOUS
 10
-3.7412724675
 20
-3.3073665465
 11
-3.75
 21
-3.3166691234
  0
LWPOLYLINE
  5
29E
100
AcDbEntity
  8
DRAFT
100
AcDbPolyline
 62
7
  6
CONTINUOUS
 90
13
 70
0
 10
3.7412724675
 20
-0.8926336063
 10
3.1700745727
 20
-0.9271625028
 10
2.5787595858
 20
-0.9556193563
 10
1.9673275069
 20
-0.9780041667
 10
1.3293013482
 20
-0.9945470502
 10
0.6711580974
 20
-1.0050178906
 10
0.0123287179
 20
-1.0087263395
 10
-0.6471883905
 20
-1.0052553364
 10
-1.3073916276
 20
-0.9950219416
 10
-1.9488452302
 20
-0.978586988
 10
-2.5650706105
 20
-0.9561374197
 10
-3.1625463563
 20
-0.9274862924
 10
-3.7412724675
 20
-0.8926336063
  0
LWPOLYLINE
  5
29F
100
AcDbEntity
  8
0
100
AcDbPolyline
 62
7
  6
CONTINUOUS
 90
2
 70
0
 43
0.3500000006
 10
20.3999994278
 20
-1.3571429443
 10
18.900000103
 20
-1.3571429443
  0
LINE
  5
2A0
100
AcDbEntity
  8
RACCORDO
100
AcDbLine
 62
250
  6
CONTINUOUS
 10
8.2192310198
 20
0.0000003605
 11
8.0192657159
 21
0.0000000038
  0
LWPOLYLINE
  5
2A1
100
AcDbEntity
  8
0
100
AcDbPolyline
 62
7
  6
CONTINUOUS
 90
4
 70
0
 43
0.3500000006
 10
18.0428576317
 20
-0.0000003204
 10
17.3999996452
 20
-0.0000003204
 10
17.3999996452
 20
1.5000001373
 10
20.3999994278
 20
0.642857666
  0
LINE
  5
2A2
100
AcDbEntity
  8
RACCORDO
100
AcDbLine
 62
250
  6
CONTINUOUS
 10
-8.2192310198
 20
-0.0000003618
 11
-8.0192657025
 21
-0.0000000038
  0
LINE
  5
2A3
100
AcDbEntity
  8
DRAFT
100
AcDbLine
 62
7
  6
CONTINUOUS
 10
-3.7412724675
 20
3.3073665465
 11
-3.75
 21
3.3166691234
  0
LINE
  5
2A4
100
AcDbEntity
  8
DRAFT
100
AcDbLine
 62
7
  6
CONTINUOUS
 10
3.7412724675
 20
3.3073665465
 11
3.75
 21
3.3166691234
  0
LWPOLYLINE
  5
2A5
100
AcDbEntity
  8
DRAFT
100
AcDbPolyline
 62
7
  6
CONTINUOUS
 90
13
 70
0
 10
-3.7412724675
 20
0.8926336063
 10
-3.1700745727
 20
0.9271625028
 10
-2.5787595858
 20
0.9556193563
 10
-1.9673275069
 20
0.9780041667
 10
-1.3293013482
 20
0.9945470502
 10
-0.6711580974
 20
1.0050178906
 10
-0.0123287179
 20
1.0087263395
 10
0.6471883905
 20
1.0052553364
 10
1.3073916276
 20
0.9950219416
 10
1.9488452302
 20
0.978586988
 10
2.5650706105
 20
0.9561374197
 10
3.1625463563
 20
0.9274862924
 10
3.7412724675
 20
0.8926336063
  0
LINE
  5
2A6
100
AcDbEntity
  8
DRAFT
100
AcDbLine
 62
7
  6
CONTINUOUS
 10
3.7412724675
 20
-3.3073665465
 11
3.75
 21
-3.3166691234
  0
LINE
  5
2A7
100
AcDbEntity
  8
DRAFT
100
AcDbLine
 62
7
  6
CONTINUOUS
 10
2.7812783412
 20
-23.4781828305
 11
2.7812783412
 21
-22.5310194482
  0
LINE
  5
2A8
100
AcDbEntity
  8
DRAFT
100
AcDbLine
 62
7
  6
CONTINUOUS
 10
2.7812783412
 20
22.5310194482
 11
2.7812783412
 21
23.4781828305
  0
LINE
  5
2A9
100
AcDbEntity
  8
DRAFT
100
AcDbLine
 62
7
  6
CONTINUOUS
 10
3.0
 20
-23.5
 11
3.0
 21
-22.4
  0
LINE
  5
2AA
100
AcDbEntity
  8
DRAFT
100
AcDbLine
 62
7
  6
CONTINUOUS
 10
3.0
 20
22.4
 11
3.0
 21
23.5
  0
LINE
  5
2AB
100
AcDbEntity
  8
0
100
AcDbLine
 62
250
  6
CONTINUOUS
 10
10.5087981167
 20
21.9749071372
 11
10.6503805997
 21
22.4
  0
LINE
  5
2AC
100
AcDbEntity
  8
0
100
AcDbLine
 62
250
  6
CONTINUOUS
 10
11.0087219643
 20
21.4755923698
 11
11.15
 21
21.8997711479
  0
LINE
  5
2AD
100
AcDbEntity
  8
DRAFT
100
AcDbLine
 62
7
  6
CONTINUOUS
 10
-3.7412724675
 20
-7.50734955
 11
-3.75
 21
-7.5166691234
  0
LINE
  5
2AE
100
AcDbEntity
  8
DRAFT
100
AcDbLine
 62
7
  6
CONTINUOUS
 10
3.7412724675
 20
-0.8926336063
 11
3.75
 21
-0.8833308766
  0
LWPOLYLINE
  5
2AF
100
AcDbEntity
  8
DRAFT
100
AcDbPolyline
 62
7
  6
CONTINUOUS
 90
13
 70
0
 10
3.7412724675
 20
3.3073665465
 10
3.1700744585
 20
3.2728376688
 10
2.5787594193
 20
3.2443808164
 10
1.9673273499
 20
3.2219959894
 10
1.3293012876
 20
3.2054530545
 10
0.6711581951
 20
3.1949821449
 10
0.0123289605
 20
3.1912736606
 10
-0.647188016
 20
3.1947446955
 10
-1.3073911345
 20
3.2049781556
 10
-1.9488447077
 20
3.221413159
 10
-2.565070173
 20
3.2438627449
 10
-3.162546093
 20
3.2725138741
 10
-3.7412724675
 20
3.3073665465
  0
LINE
  5
2B0
100
AcDbEntity
  8
DRAFT
100
AcDbLine
 62
7
  6
CONTINUOUS
 10
3.7412724675
 20
0.8926336063
 11
3.75
 21
0.8833308766
  0
LINE
  5
2B1
100
AcDbEntity
  8
DRAFT
100
AcDbLine
 62
7
  6
CONTINUOUS
 10
-3.7412724675
 20
7.50734955
 11
-3.75
 21
7.5166691234
  0
LINE
  5
2B2
100
AcDbEntity
  8
0
100
AcDbLine
 62
250
  6
CONTINUOUS
 10
10.6503805997
 20
-22.4
 11
10.5087981167
 21
-21.9749071372
  0
LINE
  5
2B3
100
AcDbEntity
  8
0
100
AcDbLine
 62
250
  6
CONTINUOUS
 10
11.15
 20
-21.8997711479
 11
11.0087219643
 21
-21.4755923698
  0
LWPOLYLINE
  5
2B4
100
AcDbEntity
  8
DRAFT
100
AcDbPolyline
 62
7
  6
CONTINUOUS
 90
13
 70
0
 10
-3.7412724675
 20
5.0926333415
 10
-3.1700743748
 20
5.1271622055
 10
-2.5787592972
 20
5.1556190571
 10
-1.9673272348
 20
5.1780038963
 10
-1.3293012432
 20
5.1945468689
 10
-0.6711582666
 20
5.205017829
 10
-0.0123291383
 20
5.2087263393
 10
0.6471877416
 20
5.2052552812
 10
1.3073907733
 20
5.1950217731
 10
1.9488443249
 20
5.1785867333
 10
2.5650698525
 20
5.1561371345
 10
3.1625459001
 20
5.1274860039
 10
3.7412724675
 20
5.0926333415
  0
LWPOLYLINE
  5
2B5
100
AcDbEntity
  8
RACCORDO
100
AcDbPolyline
 62
250
  6
CONTINUOUS
 90
4
 70
0
 10
8.0351678918
 20
4.20063652
 10
8.026514217
 20
4.2004304052
 10
8.0210801311
 20
4.2002170454
 10
8.0189565717
 20
4.2000000009
  0
LINE
  5
2B6
100
AcDbEntity
  8
RACCORDO
100
AcDbLine
 62
250
  6
CONTINUOUS
 10
8.0615032891
 20
4.2010134321
 11
8.0351678918
 21
4.20063652
  0
LINE
  5
2B7
100
AcDbEntity
  8
RACCORDO
100
AcDbLine
 62
250
  6
CONTINUOUS
 10
8.1199351624
 20
4.2014453977
 11
8.0615032891
 21
4.2010134321
  0
LINE
  5
2B8
100
AcDbEntity
  8
RACCORDO
100
AcDbLine
 62
250
  6
CONTINUOUS
 10
8.2189229974
 20
4.2016803959
 11
8.1199351624
 21
4.2014453977
  0
LINE
  5
2B9
100
AcDbEntity
  8
RACCORDO
100
AcDbLine
 62
250
  6
CONTINUOUS
 10
-8.2189229974
 20
4.2016802778
 11
-8.1199351663
 21
4.2014458228
  0
LINE
  5
2BA
100
AcDbEntity
  8
RACCORDO
100
AcDbLine
 62
250
  6
CONTINUOUS
 10
-8.1199351663
 20
4.2014458228
 11
-8.061503294
 21
4.20101338
  0
LWPOLYLINE
  5
2BB
100
AcDbEntity
  8
RACCORDO
100
AcDbPolyline
 62
250
  6
CONTINUOUS
 90
5
 70
0
 10
-8.061503294
 20
4.20101338
 10
-8.035167897
 20
4.2006362562
 10
-8.0265142222
 20
4.200430133
 10
-8.0210801364
 20
4.2002168541
 10
-8.018956577
 20
4.1999999991
  0
LINE
  5
2BC
100
AcDbEntity
  8
DRAFT
100
AcDbLine
 62
7
  6
CONTINUOUS
 10
3.7412724675
 20
-5.0926333415
 11
3.75
 21
-5.0833308766
  0
LINE
  5
2BD
100
AcDbEntity
  8
DRAFT
100
AcDbLine
 62
7
  6
CONTINUOUS
 10
3.7412724675
 20
5.0926333415
 11
3.75
 21
5.0833308766
  0
LWPOLYLINE
  5
2BE
100
AcDbEntity
  8
0
100
AcDbPolyline
 62
250
  6
CONTINUOUS
 90
7
 70
0
 10
11.0087219643
 20
-21.4755923698
 10
11.0080031927
 20
-21.4716789126
 10
11.0073010341
 20
-21.4645568007
 10
11.0066154888
 20
-21.4542260342
 10
11.0059419622
 20
-21.4405716186
 10
11.0052850488
 20
-21.4237085484
 10
11.0046585314
 20
-21.403981807
  0
LWPOLYLINE
  5
2BF
100
AcDbEntity
  8
0
100
AcDbPolyline
 62
250
  6
CONTINUOUS
 90
5
 70
0
 10
10.5087981167
 20
-21.9749071372
 10
10.5080778549
 20
-21.9672631277
 10
10.5073747357
 20
-21.9529558612
 10
10.5066887591
 20
-21.9320798744
 10
10.5060155151
 20
-21.9047715709
  0
LWPOLYLINE
  5
2C0
100
AcDbEntity
  8
RACCORDO
100
AcDbPolyline
 62
250
  6
CONTINUOUS
 90
151
 70
0
 10
8.2179988278
 20
8.4033613445
 10
8.2168756513
 20
8.3712922064
 10
8.2122998521
 20
8.3390074173
 10
8.2042714301
 20
8.3065069768
 10
8.1927485319
 20
8.2734088407
 10
8.177773011
 20
8.2400950512
 10
8.159470428
 20
8.2077117405
 10
8.137613506
 20
8.1764767687
 10
8.1124295221
 20
8.1461722821
 10
8.084725868
 20
8.1172908477
 10
8.0545709913
 20
8.0900831267
 10
8.0218964445
 20
8.0642984663
 10
7.9873042772
 20
8.0396774626
 10
7.950893315
 20
8.016239601
 10
7.9125647323
 20
7.9939654017
 10
7.8726241018
 20
7.9725370115
 10
7.8311499196
 20
7.9519329622
 10
7.7880636896
 20
7.9321747254
 10
7.7434354962
 20
7.9130088562
 10
7.6973053944
 20
7.8944135852
 10
7.6496333294
 20
7.876410684
 10
7.6003692209
 20
7.8588120183
 10
7.5495228039
 20
7.8415947018
 10
7.4970843435
 20
7.8247816223
 10
7.4429745545
 20
7.808253306
 10
7.3872000122
 20
7.7919949264
 10
7.3297541412
 20
7.7760213109
 10
7.270537931
 20
7.7602574664
 10
7.2095674955
 20
7.7446959841
 10
7.1468267208
 20
7.7293442733
 10
7.082168254
 20
7.7141495682
 10
7.0155782852
 20
7.6991015936
 10
6.9470706243
 20
7.684210625
 10
6.8765393494
 20
7.6694547223
 10
6.8039856417
 20
7.6548298734
 10
6.72940832
 20
7.6403400907
 10
6.6526979176
 20
7.6259754713
 10
6.5738703369
 20
7.6117352565
 10
6.4929096755
 20
7.5976202052
 10
6.4096587596
 20
7.583622691
 10
6.3241265301
 20
7.5697404743
 10
6.2363040461
 20
7.5559757949
 10
6.1460073114
 20
7.5423277446
 10
6.0532453293
 20
7.528794165
 10
5.9580090965
 20
7.5153772149
 10
5.8600876073
 20
7.5020824626
 10
5.7594760474
 20
7.4889073202
 10
5.6561792312
 20
7.475854376
 10
5.5500005957
 20
7.4629369618
 10
5.4409464578
 20
7.4501545928
 10
5.3290105006
 20
7.4375077543
 10
5.213977211
 20
7.4250112328
 10
5.0958609062
 20
7.4126632123
 10
4.9746472689
 20
7.4004655092
 10
4.8500778338
 20
7.3884383589
 10
4.7221633028
 20
7.3765788967
 10
4.5908929739
 20
7.3648899876
 10
4.4559762762
 20
7.3534004612
 10
4.3174201422
 20
7.342106508
 10
4.1752176394
 20
7.3310119378
 10
4.0290573997
 20
7.3201570087
 10
3.8789466408
 20
7.3095372472
 10
3.724878145
 20
7.2991571273
 10
3.566518891
 20
7.2890703286
 10
3.4038887865
 20
7.2792726807
 10
3.2369679238
 20
7.2697683546
 10
3.0653635577
 20
7.2606235423
 10
2.8890838804
 20
7.2518341687
 10
2.7081206997
 20
7.2434043096
 10
2.522056694
 20
7.2354123841
 10
2.3308774852
 20
7.2278502313
 10
2.1345974514
 20
7.2207260127
 10
1.932842405
 20
7.2141426301
 10
1.725695946
 20
7.2080907514
 10
1.5130744743
 20
7.2025797092
 10
1.294353003
 20
7.1977404027
 10
1.0695825321
 20
7.1935550377
 10
0.8387120615
 20
7.1900414089
 10
0.6009636035
 20
7.1873837982
 10
0.3557177334
 20
7.1855681824
 10
0.103593876
 20
7.184608585
 10
-0.1543276825
 20
7.1847313586
 10
-0.4198765258
 20
7.1859952318
 10
-0.6912230702
 20
7.1883414758
 10
-0.9617982779
 20
7.1918202576
 10
-1.231809812
 20
7.1965383507
 10
-1.5010500094
 20
7.2023889807
 10
-1.7623268437
 20
7.2091019919
 10
-2.0137209056
 20
7.2166857262
 10
-2.2571516044
 20
7.2251318406
 10
-2.4911851418
 20
7.2341451522
 10
-2.71483482
 20
7.2436798771
 10
-2.9290873367
 20
7.2537817983
 10
-3.1354689872
 20
7.264293083
 10
-3.3339985683
 20
7.2751914368
 10
-3.5246572831
 20
7.2864991533
 10
-3.7089150355
 20
7.298125283
 10
-3.8869961236
 20
7.3100656136
 10
-4.0586762493
 20
7.3223243566
 10
-4.2247524227
 20
7.3348231984
 10
-4.3852582441
 20
7.3475525334
 10
-4.5401601131
 20
7.3605219666
 10
-4.6901542387
 20
7.3736819998
 10
-4.8352623165
 20
7.3870242567
 10
-4.9754626509
 20
7.4005571131
 10
-5.1113863645
 20
7.4142562
 10
-5.2430833621
 20
7.4281178565
 10
-5.3705037389
 20
7.4421457429
 10
-5.4941289033
 20
7.456326472
 10
-5.6139852712
 20
7.4706581053
 10
-5.7300464268
 20
7.4851425809
 10
-5.8427145309
 20
7.4997723266
 10
-5.9519998658
 20
7.5145436919
 10
-6.0578921493
 20
7.5294603269
 10
-6.160762696
 20
7.5445256105
 10
-6.2606301099
 20
7.5597351729
 10
-6.3574757869
 20
7.5750933835
 10
-6.4516152295
 20
7.5906167292
 10
-6.543080993
 20
7.6063033803
 10
-6.6318405221
 20
7.6221551661
 10
-6.7181116533
 20
7.6381940627
 10
-6.8019273141
 20
7.6544195692
 10
-6.8832545769
 20
7.6708321859
 10
-6.9622124958
 20
7.6874553911
 10
-7.0387867041
 20
7.7042769199
 10
-7.1129915684
 20
7.7213090365
 10
-7.1849892426
 20
7.738612012
 10
-7.2547838768
 20
7.7561701785
 10
-7.3223713209
 20
7.7739992029
 10
-7.3879012786
 20
7.7922063585
 10
-7.4513868311
 20
7.8107670024
 10
-7.5128148972
 20
7.8297057761
 10
-7.572295936
 20
7.849203878
 10
-7.6298362222
 20
7.8692108494
 10
-7.6854294811
 20
7.889777147
 10
-7.7391673479
 20
7.9112353409
 10
-7.791152541
 20
7.9335472785
 10
-7.841282342
 20
7.9567511086
 10
-7.889340232
 20
7.9812938518
 10
-7.9354945068
 20
8.0071178001
 10
-7.9795768705
 20
8.0342806549
 10
-8.0208659167
 20
8.0634025477
 10
-8.059594799
 20
8.094687065
 10
-8.0955303638
 20
8.1279306082
 10
-8.1272517426
 20
8.1631425287
 10
-8.1545905553
 20
8.2007854577
 10
-8.1777151821
 20
8.2403967484
 10
-8.1957098954
 20
8.2805978398
 10
-8.2082694529
 20
8.3209292123
 10
-8.215699097
 20
8.3618503814
 10
-8.2179988278
 20
8.4033613445
  0
LWPOLYLINE
  5
2C1
100
AcDbEntity
  8
RACCORDO
100
AcDbPolyline
 62
250
  6
CONTINUOUS
 90
151
 70
0
 10
8.2179988278
 20
-8.4033613445
 10
8.2168566425
 20
-8.4354336547
 10
8.2122608796
 20
-8.467719339
 10
8.204211539
 20
-8.5002183965
 10
8.192666174
 20
-8.5333129064
 10
8.1776672312
 20
-8.566620787
 10
8.1593420513
 20
-8.5989958007
 10
8.1374635368
 20
-8.6302195703
 10
8.1122587851
 20
-8.6605104794
 10
8.0845364291
 20
-8.6893774376
 10
8.0543650884
 20
-8.7165702832
 10
8.0216761433
 20
-8.7423391865
 10
7.9870723671
 20
-8.7669435555
 10
7.9506526773
 20
-8.7903637523
 10
7.9123181564
 20
-8.8126194206
 10
7.872374825
 20
-8.8340288887
 10
7.8309017468
 20
-8.8546134294
 10
7.7878198581
 20
-8.8743517735
 10
7.7431979882
 20
-8.8934984346
 10
7.6970764128
 20
-8.9120754342
 10
7.6494148562
 20
-8.930060753
 10
7.6001613208
 20
-8.9476428428
 10
7.549325281
 20
-8.9648447402
 10
7.4968972625
 20
-8.98164341
 10
7.4427968447
 20
-8.9981581959
 10
7.3870302831
 20
-9.0144039863
 10
7.3295913223
 20
-9.0303658938
 10
7.2703807755
 20
-9.0461185979
 10
7.20941466
 20
-9.0616694802
 10
7.1466769586
 20
-9.0770111599
 10
7.0820204328
 20
-9.0921961732
 10
7.015430904
 20
-9.1072348358
 10
6.9469225508
 20
-9.1221168324
 10
6.8763906715
 20
-9.1368637525
 10
6.803836359
 20
-9.1514795749
 10
6.7292585203
 20
-9.1659603212
 10
6.6525491755
 20
-9.1803156452
 10
6.5737245518
 20
-9.1945462173
 10
6.4927684219
 20
-9.2086513673
 10
6.4095241242
 20
-9.2226387384
 10
6.3240009988
 20
-9.2365105003
 10
6.2361897056
 20
-9.2502644836
 10
6.1459055624
 20
-9.2639018217
 10
6.0531575207
 20
-9.2774246861
 10
5.9579366291
 20
-9.2908309056
 10
5.8600313507
 20
-9.3041150996
 10
5.7594366954
 20
-9.3172798982
 10
5.6561576533
 20
-9.3303226717
 10
5.5499976586
 20
-9.3432301505
 10
5.4409629993
 20
-9.356002852
 10
5.3290473873
 20
-9.3686402592
 10
5.2140353926
 20
-9.3811275505
 10
5.0959413273
 20
-9.3934665381
 10
4.9747508793
 20
-9.4056554101
 10
4.8502056819
 20
-9.4176739097
 10
4.7223164241
 20
-9.4295248937
 10
4.5910724168
 20
-9.4412055056
 10
4.4561832265
 20
-9.4526869186
 10
4.3176557914
 20
-9.4639729272
 10
4.1754831733
 20
-9.4750597373
 10
4.0293541236
 20
-9.4859071392
 10
3.8792758505
 20
-9.4965195867
 10
3.7252411459
 20
-9.5068926267
 10
3.5669171362
 20
-9.5169726891
 10
3.4043236863
 20
-9.5267639381
 10
3.2374409315
 20
-9.5362622102
 10
3.0658764044
 20
-9.5454014442
 10
2.8896383696
 20
-9.5541857551
 10
2.7087185625
 20
-9.5626110287
 10
2.5226997226
 20
-9.5705988605
 10
2.3315675404
 20
-9.5781574015
 10
2.1353363253
 20
-9.5852785013
 10
1.9336317453
 20
-9.5918593033
 10
1.7265368653
 20
-9.597909106
 10
1.5139686205
 20
-9.6034186116
 10
1.2953034833
 20
-9.6082570688
 10
1.0705930385
 20
-9.6124421718
 10
0.8397857014
 20
-9.6159562272
 10
0.6021031903
 20
-9.6186154013
 10
0.3569293136
 20
-9.6204337754
 10
0.1048802628
 20
-9.6213972687
 10
-0.1529736686
 20
-9.621279805
 10
-0.4184598532
 20
-9.6200230889
 10
-0.6897509184
 20
-9.6176854157
 10
-0.9602944532
 20
-9.6142155951
 10
-1.2303079417
 20
-9.6095067564
 10
-1.4995738997
 20
-9.6036657693
 10
-1.7608874635
 20
-9.5969620536
 10
-2.012328905
 20
-9.5893869489
 10
-2.2558179522
 20
-9.5809491142
 10
-2.4899089258
 20
-9.5719439493
 10
-2.7136121207
 20
-9.562417217
 10
-2.927917242
 20
-9.5523231535
 10
-3.1343477262
 20
-9.5418198688
 10
-3.332920636
 20
-9.5309298023
 10
-3.5236189087
 20
-9.5196305138
 10
-3.7079147923
 20
-9.5080127944
 10
-3.8860333024
 20
-9.4960808146
 10
-4.0577494234
 20
-9.483830403
 10
-4.2238603558
 20
-9.4713398382
 10
-4.3843997452
 20
-9.4586186978
 10
-4.539333946
 20
-9.4456574035
 10
-4.6893592229
 20
-9.4325055008
 10
-4.8344971966
 20
-9.4191713621
 10
-4.9747262464
 20
-9.4056466144
 10
-5.110677774
 20
-9.3919556858
 10
-5.2424017158
 20
-9.3781022313
 10
-5.3698481355
 20
-9.3640825953
 10
-5.4934986257
 20
-9.3499102396
 10
-5.6133796813
 20
-9.3355871346
 10
-5.7294648074
 20
-9.3211113094
 10
-5.8421561119
 20
-9.3064903139
 10
-5.9514637288
 20
-9.2917278373
 10
-6.057377524
 20
-9.27682019
 10
-6.1602692033
 20
-9.2617638542
 10
-6.2601573354
 20
-9.2465632007
 10
-6.3570233516
 20
-9.2312138582
 10
-6.4511832508
 20
-9.2156991952
 10
-6.5426699957
 20
-9.2000209583
 10
-6.6314506237
 20
-9.1841774004
 10
-6.7177422462
 20
-9.1681466501
 10
-6.8015780708
 20
-9.1519291055
 10
-6.8829248898
 20
-9.1355243677
 10
-6.9619001913
 20
-9.1189093694
 10
-7.0384892421
 20
-9.1020963857
 10
-7.1127067753
 20
-9.0850731407
 10
-7.1847144788
 20
-9.0677797398
 10
-7.2545160776
 20
-9.0502318904
 10
-7.3221078467
 20
-9.0324138841
 10
-7.3876402991
 20
-9.0142187024
 10
-7.4511263885
 20
-8.9956709811
 10
-7.5125531612
 20
-8.976746083
 10
-7.5720322688
 20
-8.9572630799
 10
-7.6295697541
 20
-8.9372724479
 10
-7.6851595743
 20
-8.9167237087
 10
-7.7388952535
 20
-8.8952845023
 10
-7.7908798311
 20
-8.872993395
 10
-7.8410102676
 20
-8.8498118166
 10
-7.889070968
 20
-8.8252917003
 10
-7.9352301459
 20
-8.7994902853
 10
-7.9793195876
 20
-8.7723503254
 10
-8.0206190574
 20
-8.7432520226
 10
-8.0593616013
 20
-8.7119929202
 10
-8.0953141732
 20
-8.6787754622
 10
-8.1270573988
 20
-8.6435871986
 10
-8.1544249273
 20
-8.6059678313
 10
-8.1775831095
 20
-8.5663776427
 10
-8.1956116229
 20
-8.5261850581
 10
-8.2082036933
 20
-8.4858462202
 10
-8.2156660949
 20
-8.4449049831
 10
-8.2179988278
 20
-8.4033613445
  0
LWPOLYLINE
  5
2C2
100
AcDbEntity
  8
RACCORDO
100
AcDbPolyline
 62
250
  6
CONTINUOUS
 90
148
 70
0
 10
8.218923001
 20
4.2016806723
 10
8.2176926359
 20
4.1682725441
 10
8.2127471367
 20
4.1346945584
 10
8.2040865036
 20
4.1009467148
 10
8.1916435188
 20
4.0666142919
 10
8.1754854001
 20
4.0321120105
 10
8.1558138001
 20
3.9986840363
 10
8.13239167
 20
3.9665928712
 10
8.1054560586
 20
3.9355760173
 10
8.0759197647
 20
3.9060901431
 10
8.0438770693
 20
3.878396431
 10
8.0092336915
 20
3.8522337033
 10
7.9726195867
 20
3.827275088
 10
7.9341460655
 20
3.8035262826
 10
7.8937018174
 20
3.7809815925
 10
7.8515828655
 20
3.7592970566
 10
7.8078711817
 20
3.7384483524
 10
7.7624847942
 20
3.7184598042
 10
7.7154738113
 20
3.6990604209
 10
7.6668738009
 20
3.680223451
 10
7.616649195
 20
3.6619756471
 10
7.5647433982
 20
3.6441262731
 10
7.5111647431
 20
3.6266507707
 10
7.455904897
 20
3.6095736988
 10
7.3988822665
 20
3.5927779981
 10
7.3401081787
 20
3.5762482724
 10
7.2795713065
 20
3.5599999183
 10
7.2171560761
 20
3.5439620652
 10
7.1528748953
 20
3.5281264902
 10
7.0867153562
 20
3.5125014165
 10
7.0185246608
 20
3.4970406421
 10
6.9482870643
 20
3.481733891
 10
6.8760183114
 20
3.4665914393
 10
6.8016128378
 20
3.4515979137
 10
6.7250821935
 20
3.4367521559
 10
6.6464148285
 20
3.4220553243
 10
6.5654705288
 20
3.4074955201
 10
6.4822623714
 20
3.3930719885
 10
6.3967772794
 20
3.3787854844
 10
6.308835808
 20
3.3646263728
 10
6.2184477535
 20
3.350592131
 10
6.1256033198
 20
3.3366852819
 10
6.0300936737
 20
3.3229037589
 10
5.9319218665
 20
3.3092445568
 10
5.831084847
 20
3.295710681
 10
5.7273646285
 20
3.2823090813
 10
5.6207562353
 20
3.2690371248
 10
5.5112646431
 20
3.2558974445
 10
5.398686793
 20
3.2429048898
 10
5.2830369807
 20
3.2300582559
 10
5.1643009106
 20
3.2173587477
 10
5.0422326365
 20
3.2048248289
 10
4.9168469824
 20
3.1924540344
 10
4.7881291244
 20
3.1802488294
 10
4.6557886445
 20
3.1682350725
 10
4.5198355795
 20
3.1564091372
 10
4.3802598925
 20
3.1447746502
 10
4.2367410546
 20
3.1333683505
 10
4.0892836839
 20
3.1221854961
 10
3.9378831621
 20
3.1112308292
 10
3.7822051055
 20
3.1005553149
 10
3.6222655154
 20
3.0901541702
 10
3.4580483903
 20
3.0800321783
 10
3.2891713424
 20
3.0702546536
 10
3.1156532912
 20
3.0608178839
 10
2.9374753171
 20
3.0517255816
 10
2.7541982733
 20
3.0430541981
 10
2.5658110418
 20
3.0347970991
 10
2.3723247406
 20
3.0269609191
 10
2.1733335768
 20
3.0196420134
 10
1.9688614315
 20
3.0128308318
 10
1.7588844236
 20
3.0065369247
 10
1.5429251174
 20
3.0008852979
 10
1.3211458962
 20
2.9958619935
 10
1.0933843767
 20
2.9914809696
 10
0.8586759733
 20
2.987909107
 10
0.6165968761
 20
2.9851241535
 10
0.3675708949
 20
2.9831483614
 10
0.1119048734
 20
2.9822153677
 10
-0.1518337191
 20
2.9823537186
 10
-0.4222123519
 20
2.9835348678
 10
-0.6946265893
 20
2.9859068139
 10
-0.9704915814
 20
2.9895871276
 10
-1.2483921781
 20
2.9944582379
 10
-1.5194784933
 20
3.0003154306
 10
-1.7817289318
 20
3.0071978882
 10
-2.0371650887
 20
3.0150664278
 10
-2.2830018642
 20
3.0235987873
 10
-2.5179915386
 20
3.0327568666
 10
-2.7433818314
 20
3.0425787653
 10
-2.9601308009
 20
3.0528565212
 10
-3.1679706046
 20
3.0635553823
 10
-3.367169085
 20
3.0747101002
 10
-3.559487827
 20
3.0862169685
 10
-3.7452041703
 20
3.0980710003
 10
-3.9240407752
 20
3.1102771822
 10
-4.0969272071
 20
3.1227467676
 10
-4.2639261689
 20
3.1354702444
 10
-4.4249749577
 20
3.1484571245
 10
-4.5808150304
 20
3.1616471971
 10
-4.7314675463
 20
3.1750309132
 10
-4.8769113461
 20
3.1886178217
 10
-5.0178244087
 20
3.202376359
 10
-5.1542539492
 20
3.2163015232
 10
-5.2861527526
 20
3.2303983161
 10
-5.4140571524
 20
3.2446501794
 10
-5.5380029705
 20
3.2590542171
 10
-5.657954385
 20
3.273613325
 10
-5.7743402648
 20
3.2883196326
 10
-5.8871723069
 20
3.3031688785
 10
-5.9964388143
 20
3.3181653239
 10
-6.1025335642
 20
3.333313882
 10
-6.2054751852
 20
3.3486098989
 10
-6.3052450487
 20
3.3640580283
 10
-6.4021810472
 20
3.3796771454
 10
-6.4963130087
 20
3.3954648372
 10
-6.5876111051
 20
3.4114235164
 10
-6.6763237452
 20
3.4275792958
 10
-6.7624864661
 20
3.4439334677
 10
-6.8460637307
 20
3.4604847394
 10
-6.9271973363
 20
3.4772553469
 10
-7.0058806556
 20
3.4942352715
 10
-7.0821203159
 20
3.5114345314
 10
-7.156077997
 20
3.5289054182
 10
-7.2277531479
 20
3.546631617
 10
-7.2971463196
 20
3.5646294421
 10
-7.3644208442
 20
3.5830001283
 10
-7.4295938787
 20
3.6017185956
 10
-7.492648266
 20
3.6208099233
 10
-7.5536958671
 20
3.6404505854
 10
-7.6127419196
 20
3.6605886734
 10
-7.6697811858
 20
3.6812760948
 10
-7.7249098146
 20
3.7028450465
 10
-7.7782240648
 20
3.7252528239
 10
-7.8296276775
 20
3.7485421298
 10
-7.8789280255
 20
3.7731732725
 10
-7.9262979046
 20
3.799085214
 10
-7.971564519
 20
3.8263389891
 10
-8.0140168538
 20
3.8555780133
 10
-8.0539031
 20
3.8869897685
 10
-8.0909750666
 20
3.9203867668
 10
-8.1237771652
 20
3.9558499671
 10
-8.152160805
 20
3.9937952596
 10
-8.1762745767
 20
4.0338067461
 10
-8.1951086638
 20
4.0747177043
 10
-8.2083264608
 20
4.1161392263
 10
-8.2162645732
 20
4.1584602164
 10
-8.218923001
 20
4.2016806723
  0
LWPOLYLINE
  5
2C3
100
AcDbEntity
  8
RACCORDO
100
AcDbPolyline
 62
250
  6
CONTINUOUS
 90
148
 70
0
 10
8.218923001
 20
-4.2016806723
 10
8.2176826414
 20
-4.2350915082
 10
8.2127264556
 20
-4.2686708975
 10
8.2040544436
 20
-4.30241884
 10
8.1915990175
 20
-4.3367500777
 10
8.1754277653
 20
-4.371249867
 10
8.1557434509
 20
-4.4046739813
 10
8.1323091571
 20
-4.4367596209
 10
8.1053618012
 20
-4.4677695893
 10
8.0758148995
 20
-4.4972480665
 10
8.0437628365
 20
-4.5249341568
 10
8.0091112278
 20
-4.5510887607
 10
7.9724904358
 20
-4.5760387532
 10
7.9340118722
 20
-4.5997783053
 10
7.8935641254
 20
-4.622313249
 10
7.8514433236
 20
-4.6439879496
 10
7.8077317479
 20
-4.664826699
 10
7.7623471173
 20
-4.6848052072
 10
7.7153387165
 20
-4.7041949661
 10
7.6667421634
 20
-4.7230228673
 10
7.6165218401
 20
-4.7412620204
 10
7.5646201775
 20
-4.759103243
 10
7.5110453552
 20
-4.77657116
 10
7.4557891936
 20
-4.7936411473
 10
7.3987695847
 20
-4.8104301493
 10
7.3399977525
 20
-4.8269535574
 10
7.2794624731
 20
-4.8431959806
 10
7.2170479656
 20
-4.8592281891
 10
7.1527665437
 20
-4.8750584048
 10
7.0866058939
 20
-4.8906784061
 10
7.018413295
 20
-4.9061342982
 10
6.9481728204
 20
-4.9214363705
 10
6.8759003968
 20
-4.9365743338
 10
6.8014910831
 20
-4.951563425
 10
6.7249564501
 20
-4.966404782
 10
6.646284927
 20
-4.9810972671
 10
6.5653368598
 20
-4.9956527036
 10
6.4821254777
 20
-5.0100718214
 10
6.3966375515
 20
-5.0243538908
 10
6.3086937401
 20
-5.0385085461
 10
6.2183039122
 20
-5.0525382981
 10
6.125458199
 20
-5.0664406361
 10
6.0299476529
 20
-5.0802176625
 10
5.9317753019
 20
-5.0938723878
 10
5.8309381181
 20
-5.1074018017
 10
5.7272180699
 20
-5.1207989757
 10
5.620610181
 20
-5.1340665506
 10
5.5111194278
 20
-5.1472018858
 10
5.3985427079
 20
-5.1601901311
 10
5.2828943109
 20
-5.1730324948
 10
5.1641599473
 20
-5.1857277687
 10
5.0420936457
 20
-5.1982574773
 10
4.9167102003
 20
-5.2106240843
 10
4.787994817
 20
-5.2228251261
 10
4.6556571425
 20
-5.2348347365
 10
4.519707207
 20
-5.2466565353
 10
4.3801349803
 20
-5.2582869028
 10
4.236620019
 20
-5.269689113
 10
4.0891669512
 20
-5.2808678963
 10
3.9377711487
 20
-5.2918185227
 10
3.782098284
 20
-5.3024900753
 10
3.6221643493
 20
-5.3128873254
 10
3.4579533524
 20
-5.3230055021
 10
3.2890829886
 20
-5.3327793758
 10
3.1155721787
 20
-5.3422126756
 10
2.9374020019
 20
-5.3513016726
 10
2.7541333903
 20
-5.3599699506
 10
2.5657552487
 20
-5.3682241611
 10
2.3722786724
 20
-5.3760576529
 10
2.1732978793
 20
-5.383374056
 10
1.9688367188
 20
-5.3901829083
 10
1.7588713415
 20
-5.3964746724
 10
1.5429244162
 20
-5.4021243656
 10
1.3211581939
 20
-5.4071459178
 10
1.0934104238
 20
-5.4115253996
 10
0.8587170224
 20
-5.4150960388
 10
0.6166546834
 20
-5.4178800523
 10
0.3676467131
 20
-5.4198552236
 10
0.1119989479
 20
-5.4207881301
 10
-0.1517204166
 20
-5.4206503281
 10
-0.4220795761
 20
-5.4194702615
 10
-0.6944772808
 20
-5.417099839
 10
-0.9703296566
 20
-5.4134215466
 10
-1.2482205776
 20
-5.4085528978
 10
-1.5193004161
 20
-5.4026983432
 10
-1.7815484297
 20
-5.3958186258
 10
-2.0369853608
 20
-5.3879530017
 10
-2.2828238083
 20
-5.3794236906
 10
-2.5178156236
 20
-5.3702687583
 10
-2.7432089553
 20
-5.3604501382
 10
-2.9599608477
 20
-5.3501758516
 10
-3.1678030314
 20
-5.3394807037
 10
-3.3670037759
 20
-5.3283298888
 10
-3.5593249344
 20
-5.3168270122
 10
-3.7450439395
 20
-5.3049770549
 10
-3.9238833586
 20
-5.2927750353
 10
-4.0967727475
 20
-5.2803096152
 10
-4.2637748294
 20
-5.2675902853
 10
-4.4248268812
 20
-5.2546075544
 10
-4.5806702888
 20
-5.2414216118
 10
-4.7313261888
 20
-5.2280419962
 10
-4.8767734446
 20
-5.2144591686
 10
-5.0176900323
 20
-5.2007047023
 10
-5.1541231706
 20
-5.1867835924
 10
-5.2860256408
 20
-5.1726908434
 10
-5.4139337633
 20
-5.1584430436
 10
-5.5378833845
 20
-5.1440430892
 10
-5.6578386579
 20
-5.1294880837
 10
-5.774228365
 20
-5.1147859253
 10
-5.8870641378
 20
-5.099940891
 10
-5.9963343443
 20
-5.0849487036
 10
-6.1024328692
 20
-5.0698044308
 10
-6.2053782966
 20
-5.0545127353
 10
-6.3051520424
 20
-5.0390689542
 10
-6.4020922395
 20
-5.023454167
 10
-6.4962288977
 20
-5.0076707593
 10
-6.5875320071
 20
-4.9917163452
 10
-6.6762496709
 20
-4.9755648467
 10
-6.7624176025
 20
-4.9592149342
 10
-6.8460000884
 20
-4.942667937
 10
-6.9271380919
 20
-4.9259017648
 10
-7.0058248334
 20
-4.9089264351
 10
-7.0820670925
 20
-4.8917319301
 10
-7.1560261706
 20
-4.8742661068
 10
-7.2277012838
 20
-4.8565452996
 10
-7.2970932159
 20
-4.8385531737
 10
-7.36436562
 20
-4.8201885825
 10
-7.4295355717
 20
-4.8014765921
 10
-7.4925859953
 20
-4.7823921356
 10
-7.5536293171
 20
-4.7627588676
 10
-7.6126706489
 20
-4.7426286963
 10
-7.6697048789
 20
-4.7219497122
 10
-7.7248290981
 20
-4.7003898426
 10
-7.7781397241
 20
-4.6779920025
 10
-7.8295403393
 20
-4.6547132748
 10
-7.8788387814
 20
-4.6300928378
 10
-7.9262078801
 20
-4.6041915236
 10
-7.9714748057
 20
-4.5769484964
 10
-8.0139289065
 20
-4.5477204306
 10
-8.0538183119
 20
-4.5163199737
 10
-8.0908948927
 20
-4.4829344716
 10
-8.1237036089
 20
-4.4474826442
 10
-8.1520963982
 20
-4.4095498193
 10
-8.176221323
 20
-4.3695506609
 10
-8.1950675309
 20
-4.3286478953
 10
-8.2082980712
 20
-4.2872290981
 10
-8.2162498946
 20
-4.2449066909
 10
-8.218923001
 20
-4.2016806723
  0
LWPOLYLINE
  5
2C4
100
AcDbEntity
  8
RACCORDO
100
AcDbPolyline
 62
250
  6
CONTINUOUS
 90
151
 70
0
 10
8.0180292887
 20
8.4
 10
8.0174481117
 20
8.3868281049
 10
8.0155492573
 20
8.3729864091
 10
8.012122023
 20
8.3584927563
 10
8.0069576043
 20
8.3433895438
 10
7.9998255166
 20
8.327669315
 10
7.9904472711
 20
8.3112770788
 10
7.9784600398
 20
8.2941027972
 10
7.9636586719
 20
8.2762962888
 10
7.9460869797
 20
8.2581835203
 10
7.9255600745
 20
8.2397473562
 10
7.9019430664
 20
8.2210163315
 10
7.8756289184
 20
8.2023619642
 10
7.8466843077
 20
8.1838170871
 10
7.8150384575
 20
8.1653341804
 10
7.7811131674
 20
8.1471492614
 10
7.7451118962
 20
8.1293250558
 10
7.7069632935
 20
8.1117833628
 10
7.666783492
 20
8.0945423748
 10
7.6246881184
 20
8.0776143122
 10
7.5806975322
 20
8.0609722964
 10
7.5347808771
 20
8.0445763141
 10
7.4869960342
 20
8.0284228888
 10
7.4373862677
 20
8.0125037343
 10
7.385868244
 20
7.9967734881
 10
7.3324848927
 20
7.9812308064
 10
7.2772818072
 20
7.9658764517
 10
7.220146275
 20
7.9506703983
 10
7.1611143396
 20
7.9356168341
 10
7.1002161419
 20
7.9207184142
 10
7.0372947777
 20
7.9059347949
 10
6.9723377569
 20
7.8912642969
 10
6.9053866147
 20
7.8767176629
 10
6.8363382491
 20
7.8622750195
 10
6.7651916033
 20
7.8479402047
 10
6.6919600058
 20
7.8337199983
 10
6.6165447123
 20
7.8196003695
 10
6.5389527196
 20
7.8055887722
 10
6.4591768253
 20
7.7916900593
 10
6.3770804826
 20
7.7778879282
 10
6.2926551679
 20
7.7641896424
 10
6.2058936257
 20
7.7506027217
 10
6.1166437641
 20
7.7371132406
 10
6.0248909658
 20
7.723730029
 10
5.9306203943
 20
7.7104619788
 10
5.8336627465
 20
7.6972975159
 10
5.7339903689
 20
7.6842463412
 10
5.6315887349
 20
7.6713200419
 10
5.5262966995
 20
7.6585117037
 10
5.4181055456
 20
7.645832647
 10
5.3069973467
 20
7.6332928985
 10
5.1927900854
 20
7.6208851427
 10
5.0754772835
 20
7.6086229035
 10
4.9550354531
 20
7.5965179643
 10
4.8312425524
 20
7.5845635663
 10
4.704087243
 20
7.5727753978
 10
4.5735475471
 20
7.5611682786
 10
4.4393703175
 20
7.5497380317
 10
4.3015417709
 20
7.5385032308
 10
4.1600421077
 20
7.5274821735
 10
4.0145946139
 20
7.5166748619
 10
3.865190424
 20
7.5061037765
 10
3.7118096766
 20
7.4957909378
 10
3.5541457984
 20
7.4857410965
 10
3.3922133971
 20
7.4759823222
 10
3.2259805133
 20
7.4665402764
 10
3.0550573326
 20
7.4574230767
 10
2.8794682449
 20
7.4486639118
 10
2.6992026272
 20
7.440291805
 10
2.5138060181
 20
7.4323175727
 10
2.3233107207
 20
7.4247774005
 10
2.1277468832
 20
7.4177078445
 10
1.9266508114
 20
7.4111308337
 10
1.7201917907
 20
7.4050934124
 10
1.5083249888
 20
7.3996367178
 10
1.2902638362
 20
7.3947892156
 10
1.0662036746
 20
7.3906093607
 10
0.8361581867
 20
7.3871531702
 10
0.5990755728
 20
7.3844696388
 10
0.3545856069
 20
7.382631381
 10
0.1034066796
 20
7.3817236669
 10
-0.1538411984
 20
7.3818261165
 10
-0.4186486149
 20
7.3830219887
 10
-0.6889494857
 20
7.3853823553
 10
-0.9587704184
 20
7.3888904422
 10
-1.2281031856
 20
7.3935486572
 10
-1.4963285439
 20
7.3993498944
 10
-1.7567061101
 20
7.4061090895
 10
-2.0073574397
 20
7.4136870413
 10
-2.2499018841
 20
7.4220448716
 10
-2.4830454389
 20
7.4310556381
 10
-2.7058830772
 20
7.4405910706
 10
-2.9193354889
 20
7.4505996716
 10
-3.1248824899
 20
7.4610762319
 10
-3.3225844027
 20
7.4719573379
 10
-3.5124726344
 20
7.4831758539
 10
-3.6959195536
 20
7.494753061
 10
-3.8731775421
 20
7.5066556104
 10
-4.0440853942
 20
7.5188243776
 10
-4.2093364697
 20
7.5312638501
 10
-4.3690015135
 20
7.5439392274
 10
-4.523110773
 20
7.5568133373
 10
-4.6722574145
 20
7.5698998233
 10
-4.8164922476
 20
7.5831710282
 10
-4.9558583222
 20
7.5965990543
 10
-5.0908959996
 20
7.6102074884
 10
-5.221672897
 20
7.6239782802
 10
-5.3481950443
 20
7.6378872628
 10
-5.4708710422
 20
7.6519569683
 10
-5.5897427249
 20
7.6661725599
 10
-5.704824051
 20
7.6805159665
 10
-5.8164534964
 20
7.6950099612
 10
-5.9246630189
 20
7.7096393018
 10
-6.0294853779
 20
7.7243889356
 10
-6.1312333381
 20
7.7392858199
 10
-6.2299227919
 20
7.7543177121
 10
-6.3255736514
 20
7.7694731004
 10
-6.4184677353
 20
7.7847846223
 10
-6.5086176444
 20
7.8002450709
 10
-6.5960126171
 20
7.8158433447
 10
-6.6808634643
 20
7.8316100062
 10
-6.7631716909
 20
7.8475408931
 10
-6.8429063786
 20
7.863625676
 10
-6.9201992046
 20
7.8798883738
 10
-6.9949910339
 20
7.8963156678
 10
-7.0672892285
 20
7.9129084988
 10
-7.13728773
 20
7.9297149574
 10
-7.2049144833
 20
7.9467250266
 10
-7.2701406646
 20
7.9639393163
 10
-7.3331679338
 20
7.9814251969
 10
-7.3939084144
 20
7.9991788465
 10
-7.4522812507
 20
8.0171991171
 10
-7.5084458369
 20
8.0355674811
 10
-7.5622974911
 20
8.054290771
 10
-7.6137475651
 20
8.0733819264
 10
-7.6629076787
 20
8.0929382259
 10
-7.7097489706
 20
8.1130229988
 10
-7.7539998782
 20
8.133600977
 10
-7.7953947363
 20
8.1546228045
 10
-7.8340408515
 20
8.1762331797
 10
-7.8695530769
 20
8.1983168942
 10
-7.9011504919
 20
8.2204239258
 10
-7.9289418465
 20
8.2426259904
 10
-7.9528752973
 20
8.2648739303
 10
-7.9724397194
 20
8.2865019251
 10
-7.9878595161
 20
8.3072852734
 10
-7.9996893985
 20
8.3274040392
 10
-8.0082559256
 20
8.3467689335
 10
-8.0139243173
 20
8.3653308826
 10
-8.0170658654
 20
8.3830840291
 10
-8.0180292887
 20
8.4
  0
LWPOLYLINE
  5
2C5
100
AcDbEntity
  8
RACCORDO
100
AcDbPolyline
 62
250
  6
CONTINUOUS
 90
151
 70
0
 10
8.0180292887
 20
-8.4
 10
8.017429153
 20
-8.4131712944
 10
8.0155111915
 20
-8.427009979
 10
8.012064809
 20
-8.4414982842
 10
8.0068811008
 20
-8.4565938926
 10
7.999729879
 20
-8.472304482
 10
7.9903332756
 20
-8.488685554
 10
7.9783281963
 20
-8.5058479391
 10
7.9635093354
 20
-8.5236419013
 10
7.945921425
 20
-8.5417411785
 10
7.9253793629
 20
-8.560163614
 10
7.9017478984
 20
-8.5788808954
 10
7.8754214526
 20
-8.5975204578
 10
7.8464675849
 20
-8.6160491861
 10
7.8148147704
 20
-8.6345153034
 10
7.7808847006
 20
-8.6526830962
 10
7.7448817091
 20
-8.6704897472
 10
7.7067346303
 20
-8.6880136844
 10
7.6665582339
 20
-8.7052373654
 10
7.6244684269
 20
-8.7221485131
 10
7.5804858545
 20
-8.7387739571
 10
7.5345777225
 20
-8.7551542922
 10
7.4868015306
 20
-8.7712930027
 10
7.4372009817
 20
-8.7871981209
 10
7.38569162
 20
-8.8029151543
 10
7.3323157996
 20
-8.8184454562
 10
7.2771193352
 20
-8.8337881053
 10
7.2199895019
 20
-8.8489830071
 10
7.1609619874
 20
-8.8640259908
 10
7.100066819
 20
-8.8789143642
 10
7.0371475437
 20
-8.8936882727
 10
6.9721912694
 20
-8.9083494354
 10
6.9052395998
 20
-8.9228870544
 10
6.8361907828
 20
-8.9373206734
 10
6.7650438006
 20
-8.9516464409
 10
6.691811893
 20
-8.9658575959
 10
6.6163977071
 20
-8.9799679067
 10
6.5388087491
 20
-8.9939698579
 10
6.4590375085
 20
-9.0078586887
 10
6.3769477297
 20
-9.0216506815
 10
6.2925314048
 20
-9.0353385286
 10
6.2057810266
 20
-9.0489147995
 10
6.116543603
 20
-9.0623935972
 10
6.0248045138
 20
-9.0757661249
 10
5.9305491073
 20
-9.0890235031
 10
5.8336073735
 20
-9.1021774451
 10
5.7339514758
 20
-9.1152183085
 10
5.6315672579
 20
-9.1281345
 10
5.5262936109
 20
-9.140932964
 10
5.4181216718
 20
-9.1536023878
 10
5.3070335364
 20
-9.1661327286
 10
5.1928473812
 20
-9.1785312773
 10
5.0755566838
 20
-9.1907845032
 10
4.955137886
 20
-9.2028806209
 10
4.8313691264
 20
-9.214826376
 10
4.7042390369
 20
-9.2266060754
 10
4.5737255886
 20
-9.238204901
 10
4.4395758062
 20
-9.2496270322
 10
4.3017759355
 20
-9.2608538928
 10
4.1603061267
 20
-9.2718671976
 10
4.0148897444
 20
-9.2826669739
 10
3.8655179941
 20
-9.2932307488
 10
3.712171011
 20
-9.3035365259
 10
3.5545422142
 20
-9.3135796163
 10
3.3926462522
 20
-9.3233319801
 10
3.2264513259
 20
-9.3327679924
 10
3.0555678382
 20
-9.3418796212
 10
2.8800201871
 20
-9.350633715
 10
2.6997977423
 20
-9.3590012346
 10
2.5144462667
 20
-9.3669713814
 10
2.3239979743
 20
-9.3745079486
 10
2.1284828372
 20
-9.3815743756
 10
1.9274372616
 20
-9.3881487865
 10
1.7210298683
 20
-9.3941841469
 10
1.5092162048
 20
-9.3996393198
 10
1.2912113908
 20
-9.4044859138
 10
1.0672112118
 20
-9.4086655101
 10
0.8372286515
 20
-9.4121221934
 10
0.6002118816
 20
-9.414807195
 10
0.3557936264
 20
-9.4166480176
 10
0.1046889641
 20
-9.4175596026
 10
-0.1524915802
 20
-9.4174626207
 10
-0.4172363598
 20
-9.4162738053
 10
-0.6874819666
 20
-9.4139218294
 10
-0.9572716332
 20
-9.4104229236
 10
-1.2266063715
 20
-9.4057741891
 10
-1.4948571547
 20
-9.3999824202
 10
-1.7552714025
 20
-9.3932323948
 10
-2.0059702031
 20
-9.3856631821
 10
-2.2485726873
 20
-9.3773136224
 10
-2.4817733853
 20
-9.3683108639
 10
-2.7046644949
 20
-9.3587833495
 10
-2.9181694868
 20
-9.3487826147
 10
-3.1237654639
 20
-9.3383140389
 10
-3.3215107917
 20
-9.3274411772
 10
-3.5114385087
 20
-9.3162310837
 10
-3.6949236262
 20
-9.3046622829
 10
-3.8722191086
 20
-9.2927680692
 10
-4.0431628467
 20
-9.2806076201
 10
-4.2084485961
 20
-9.2681763945
 10
-4.3681472004
 20
-9.2555091916
 10
-4.5222887573
 20
-9.2426432189
 10
-4.6714664867
 20
-9.2295648345
 10
-4.8157312162
 20
-9.2163017164
 10
-4.9551260804
 20
-9.2028817893
 10
-5.0901916121
 20
-9.1892814764
 10
-5.2209955558
 20
-9.1755188444
 10
-5.3475439693
 20
-9.1616180892
 10
-5.470245484
 20
-9.1475567069
 10
-5.5891420192
 20
-9.1333495543
 10
-5.7042476168
 20
-9.1190147202
 10
-5.8159006444
 20
-9.1045294294
 10
-5.9241326865
 20
-9.0899089269
 10
-6.0289766448
 20
-9.0751682151
 10
-6.13074585
 20
-9.0602802345
 10
-6.2294560702
 20
-9.0452572126
 10
-6.325127193
 20
-9.0301106428
 10
-6.4180416904
 20
-9.0148077765
 10
-6.508212514
 20
-8.9993557297
 10
-6.5956283817
 20
-8.9837656657
 10
-6.6804994644
 20
-8.9680071423
 10
-6.7628276926
 20
-8.9520842343
 10
-6.8425817131
 20
-8.9360073496
 10
-6.9198914944
 20
-8.9197528568
 10
-6.9946979393
 20
-8.903334112
 10
-7.0670087711
 20
-8.8867501604
 10
-7.1370170052
 20
-8.869953241
 10
-7.2046505511
 20
-8.8529534749
 10
-7.2698813252
 20
-8.8357501858
 10
-7.3329113621
 20
-8.8182760823
 10
-7.3936527381
 20
-8.8005351061
 10
-7.4520253072
 20
-8.7825283613
 10
-7.508189644
 20
-8.76417432
 10
-7.5620406449
 20
-8.7454664405
 10
-7.6134899564
 20
-8.7263918896
 10
-7.6626510019
 20
-8.7068530354
 10
-7.7094945863
 20
-8.6867866762
 10
-7.7537489372
 20
-8.6662281634
 10
-7.795149786
 20
-8.6452263175
 10
-7.8338043952
 20
-8.6236361203
 10
-7.8693267286
 20
-8.6015728789
 10
-7.900936415
 20
-8.579486507
 10
-7.9287434025
 20
-8.5573046293
 10
-7.9526955604
 20
-8.5350761068
 10
-7.9722808472
 20
-8.5134668676
 10
-7.9877234232
 20
-8.4927018082
 10
-7.9995787444
 20
-8.4725988499
 10
-8.008173056
 20
-8.4532440883
 10
-8.0138701197
 20
-8.4346850966
 10
-8.0170397383
 20
-8.4169278045
 10
-8.0180292887
 20
-8.4
  0
LWPOLYLINE
  5
2C6
100
AcDbEntity
  8
RACCORDO
100
AcDbPolyline
 62
250
  6
CONTINUOUS
 90
148
 70
0
 10
8.018953462
 20
4.2
 10
8.0183187866
 20
4.1862390243
 10
8.0162528862
 20
4.1717638463
 10
8.0125209436
 20
4.15659515
 10
8.0068872173
 20
4.1407727306
 10
7.999096247
 20
4.1242972538
 10
7.9888517207
 20
4.1071321204
 10
7.975753886
 20
4.0891559719
 10
7.9595855292
 20
4.0705340077
 10
7.9404415782
 20
4.0516472007
 10
7.9181527557
 20
4.0324854783
 10
7.8925838361
 20
4.0130668538
 10
7.8641997456
 20
3.9937870288
 10
7.8331144816
 20
3.974689813
 10
7.7992412757
 20
3.9557131934
 10
7.7630052816
 20
3.9370753655
 10
7.7246327786
 20
3.9188377732
 10
7.6840586447
 20
3.9009186331
 10
7.6413681855
 20
3.8833152207
 10
7.5966725537
 20
3.8660334975
 10
7.5500071258
 20
3.8490497376
 10
7.5013292464
 20
3.8323178469
 10
7.4506984216
 20
3.8158324262
 10
7.3981627865
 20
3.7995846112
 10
7.3436308684
 20
3.7835267083
 10
7.2871595567
 20
3.7676629117
 10
7.228794711
 20
3.7519951599
 10
7.1684005819
 20
3.7364800439
 10
7.1060054216
 20
3.7211214599
 10
7.0416445581
 20
3.7059250636
 10
6.975155017
 20
3.6908522774
 10
6.9065210404
 20
3.6759026268
 10
6.8357848447
 20
3.6610885046
 10
6.762843121
 20
3.6463925935
 10
6.6877050033
 20
3.6318224195
 10
6.6103722926
 20
3.6173839858
 10
6.5307126518
 20
3.6030585128
 10
6.4487275065
 20
3.5888525438
 10
6.3644141473
 20
3.5747718478
 10
6.2776151243
 20
3.5607977919
 10
6.1883201167
 20
3.5469377407
 10
6.0965210934
 20
3.5331994468
 10
6.0020443369
 20
3.519567209
 10
5.9048681158
 20
3.5060495015
 10
5.8049807432
 20
3.4926562928
 10
5.702205603
 20
3.479376632
 10
5.5965154808
 20
3.4662208547
 10
5.487899112
 20
3.4532003253
 10
5.3761905998
 20
3.4403080711
 10
5.2613857589
 20
3.4275574432
 10
5.1434605824
 20
3.4149596076
 10
5.0222050375
 20
3.4025072667
 10
4.8976115937
 20
3.3902159762
 10
4.7696553624
 20
3.3780996694
 10
4.6380842066
 20
3.366152386
 10
4.5028853731
 20
3.3543923305
 10
4.3640366682
 20
3.3428370795
 10
4.2212555063
 20
3.3314843276
 10
4.0745268356
 20
3.3203557619
 10
3.9238325725
 20
3.3094731605
 10
3.7688705842
 20
3.2988397497
 10
3.6096448031
 20
3.2884826497
 10
3.4461271245
 20
3.278427311
 10
3.2779531763
 20
3.268681101
 10
3.105148673
 20
3.259277556
 10
2.927679739
 20
3.2502471449
 10
2.7450868478
 20
3.2415989072
 10
2.557398778
 20
3.2333679009
 10
2.3646352657
 20
3.2255891213
 10
2.1663183443
 20
3.2182807049
 10
1.9625449896
 20
3.2114867604
 10
1.7533215779
 20
3.2052488402
 10
1.5380313144
 20
3.1995947504
 10
1.3169626644
 20
3.1945819661
 10
1.0900125777
 20
3.1902594002
 10
0.8559779802
 20
3.1866653683
 10
0.6146528041
 20
3.1838693031
 10
0.3665456034
 20
3.1819523728
 10
0.1115538385
 20
3.1809918381
 10
-0.151415486
 20
3.1810745057
 10
-0.4207492409
 20
3.1822884456
 10
-0.6924451372
 20
3.1846700997
 10
-0.96762031
 20
3.1882710408
 10
-1.2444594163
 20
3.1931108728
 10
-1.5146603294
 20
3.1990270466
 10
-1.7761848516
 20
3.2058945954
 10
-2.0306816039
 20
3.2136788105
 10
-2.2756024141
 20
3.2222220184
 10
-2.509784948
 20
3.2313836388
 10
-2.7343431637
 20
3.2411099242
 10
-2.9502295246
 20
3.2513599885
 10
-3.1572302904
 20
3.2620475039
 10
-3.3556409666
 20
3.2731094498
 10
-3.5471327301
 20
3.2845700303
 10
-3.7320138818
 20
3.2963917425
 10
-3.9100719636
 20
3.3085063396
 10
-4.0821273001
 20
3.3209191476
 10
-4.2482807993
 20
3.3335929086
 10
-4.4085368764
 20
3.3464841649
 10
-4.5635273416
 20
3.359603842
 10
-4.7133065541
 20
3.3729208004
 10
-4.8579220874
 20
3.3864039108
 10
-4.9979528034
 20
3.4000754926
 10
-5.1334672732
 20
3.4139144708
 10
-5.2644797264
 20
3.4278946668
 10
-5.3914453661
 20
3.4420398008
 10
-5.5144158268
 20
3.4563338786
 10
-5.6334023016
 20
3.4707564473
 10
-5.748763041
 20
3.4853312572
 10
-5.8605294295
 20
3.5000434209
 10
-5.9687355753
 20
3.514877764
 10
-6.0737138696
 20
3.5298626853
 10
-6.1754820885
 20
3.5449860837
 10
-6.2740623181
 20
3.5602365736
 10
-6.369754607
 20
3.5756485413
 10
-6.4625677913
 20
3.5912141427
 10
-6.5524981754
 20
3.6069234755
 10
-6.6397877494
 20
3.6228120787
 10
-6.7244400566
 20
3.6388765269
 10
-6.8064241792
 20
3.65510491
 10
-6.8858958373
 20
3.6715231703
 10
-6.9628051179
 20
3.6881181651
 10
-7.0371527982
 20
3.7048874198
 10
-7.1091316713
 20
3.7218758042
 10
-7.1786664547
 20
3.7390704402
 10
-7.2457361223
 20
3.7564715233
 10
-7.3105569052
 20
3.7741469693
 10
-7.3730442795
 20
3.7920920707
 10
-7.4331126314
 20
3.8103021973
 10
-7.4909194431
 20
3.828856368
 10
-7.546357889
 20
3.8477624306
 10
-7.5993390417
 20
3.8670350059
 10
-7.649979438
 20
3.8867735978
 10
-7.6982360784
 20
3.9070369165
 10
-7.7438494423
 20
3.9277978239
 10
-7.7865878832
 20
3.949029121
 10
-7.8265604191
 20
3.9708830688
 10
-7.8633552332
 20
3.9932428656
 10
-7.8961808163
 20
4.0156656406
 10
-7.9251470648
 20
4.0382360493
 10
-7.9501658255
 20
4.0608973919
 10
-7.9706689142
 20
4.0829584718
 10
-7.9868571646
 20
4.1041640266
 10
-7.9993229275
 20
4.1247238477
 10
-8.0084198968
 20
4.1446132133
 10
-8.0144971878
 20
4.163806577
 10
-8.0178971483
 20
4.1822779865
 10
-8.018953462
 20
4.2
  0
LWPOLYLINE
  5
2C7
100
AcDbEntity
  8
RACCORDO
100
AcDbPolyline
 62
250
  6
CONTINUOUS
 90
148
 70
0
 10
8.018953462
 20
-4.2
 10
8.0183088678
 20
-4.213761087
 10
8.0162329018
 20
-4.2282350999
 10
8.012490789
 20
-4.2434014021
 10
8.0068467085
 20
-4.2592202671
 10
7.9990453418
 20
-4.2756911413
 10
7.9887907173
 20
-4.2928508635
 10
7.9756829099
 20
-4.3108212492
 10
7.9595046058
 20
-4.3294371445
 10
7.9403513098
 20
-4.3483173393
 10
7.9180536881
 20
-4.3674722529
 10
7.8924763007
 20
-4.386884027
 10
7.8640848763
 20
-4.4061564081
 10
7.8329939787
 20
-4.4252453854
 10
7.799116508
 20
-4.4442133857
 10
7.7628773953
 20
-4.4628424899
 10
7.7245033247
 20
-4.4810712226
 10
7.6839293278
 20
-4.498981437
 10
7.6412398823
 20
-4.5165762086
 10
7.5965462285
 20
-4.533849545
 10
7.5498839171
 20
-4.5508251151
 10
7.5012092745
 20
-4.567549284
 10
7.4505815685
 20
-4.5840274452
 10
7.398049178
 20
-4.6002683088
 10
7.3435201249
 20
-4.616319603
 10
7.2870509717
 20
-4.6321771643
 10
7.2286876223
 20
-4.6478390019
 10
7.1682942706
 20
-4.663348481
 10
7.1058989462
 20
-4.6787017269
 10
7.0415369323
 20
-4.693893067
 10
6.975045517
 20
-4.7089609801
 10
6.9064087449
 20
-4.7239059673
 10
6.8356688543
 20
-4.7387156216
 10
6.7627232331
 20
-4.7534071094
 10
6.6875810894
 20
-4.7679729018
 10
6.6102441354
 20
-4.782407028
 10
6.5305805948
 20
-4.7967281698
 10
6.4485921219
 20
-4.8109297516
 10
6.3642758558
 20
-4.8250060394
 10
6.2774743773
 20
-4.8389756638
 10
6.188177487
 20
-4.8528312479
 10
6.0963771232
 20
-4.8665650531
 10
6.0018993627
 20
-4.8801928163
 10
5.9047224872
 20
-4.8937060657
 10
5.8048348879
 20
-4.9070948291
 10
5.7020598264
 20
-4.9203700815
 10
5.5963700912
 20
-4.9335214921
 10
5.4877544922
 20
-4.9465376888
 10
5.3760470872
 20
-4.959425647
 10
5.261243642
 20
-4.9721720138
 10
5.1433201419
 20
-4.9847656174
 10
5.0220665717
 20
-4.9972137522
 10
4.8974753577
 20
-5.0095008606
 10
4.7695216079
 20
-5.0216130056
 10
4.6379532721
 20
-5.0335561431
 10
4.5027576005
 20
-5.0453120663
 10
4.3639123805
 20
-5.0568632021
 10
4.2211350947
 20
-5.0682118629
 10
4.074410741
 20
-5.0793363627
 10
3.9237212179
 20
-5.090214935
 10
3.7687643734
 20
-5.1008443811
 10
3.6095442045
 20
-5.1111975909
 10
3.4460326399
 20
-5.1212491338
 10
3.2778652593
 20
-5.1309916888
 10
3.1050678041
 20
-5.1403917477
 10
2.9276065577
 20
-5.1494188672
 10
2.745022065
 20
-5.1580640279
 10
2.5573430341
 20
-5.1662921559
 10
2.3645891747
 20
-5.1740682419
 10
2.16628261
 20
-5.1813741587
 10
1.9625202513
 20
-5.1881657846
 10
1.7533084532
 20
-5.194401561
 10
1.538030584
 20
-5.200053709
 10
1.3169749588
 20
-5.2050647546
 10
1.0900386127
 20
-5.2093857954
 10
0.8560190021
 20
-5.212978575
 10
0.614710531
 20
-5.215773685
 10
0.3666212427
 20
-5.2176900214
 10
0.1116476533
 20
-5.2186504604
 10
-0.151302536
 20
-5.2185682771
 10
-0.4206169496
 20
-5.2173554024
 10
-0.6922964115
 20
-5.2149753428
 10
-0.9674589761
 20
-5.2113764633
 10
-1.2442883801
 20
-5.2065390522
 10
-1.5144828098
 20
-5.2006255081
 10
-1.7760049078
 20
-5.1937607364
 10
-2.0305023901
 20
-5.1859794303
 10
-2.275424812
 20
-5.1774392327
 10
-2.5096094988
 20
-5.1682807476
 10
-2.7341708156
 20
-5.1585577492
 10
-2.9500601665
 20
-5.1483111447
 10
-3.157063353
 20
-5.1376273136
 10
-3.3554763505
 20
-5.1265692564
 10
-3.5469706663
 20
-5.11511268
 10
-3.7318545621
 20
-5.1032950511
 10
-3.9099153999
 20
-5.091184601
 10
-4.0819736535
 20
-5.0787759516
 10
-4.2481302614
 20
-5.0661063419
 10
-4.4083895371
 20
-5.0532192321
 10
-4.5633832613
 20
-5.0401036808
 10
-4.713165807
 20
-5.0267908243
 10
-4.8577847511
 20
-5.0133117984
 10
-4.9978189263
 20
-4.9996442849
 10
-5.1333369503
 20
-4.9858093608
 10
-5.2643530636
 20
-4.971833214
 10
-5.3913223987
 20
-4.9576921385
 10
-5.514296633
 20
-4.9434021341
 10
-5.6332869942
 20
-4.9289836622
 10
-5.748651649
 20
-4.9144129911
 10
-5.8604218197
 20
-4.8997050272
 10
-5.9686316778
 20
-4.8848749353
 10
-6.0736138047
 20
-4.8698942892
 10
-6.175385876
 20
-4.8547751993
 10
-6.2739699927
 20
-4.8395290482
 10
-6.3696665386
 20
-4.8241213992
 10
-6.4624844959
 20
-4.8085600625
 10
-6.5524199163
 20
-4.7928549742
 10
-6.6397145243
 20
-4.7769706462
 10
-6.7243720763
 20
-4.760910458
 10
-6.8063613833
 20
-4.7446863462
 10
-6.8858372776
 20
-4.7282725369
 10
-6.9627498687
 20
-4.711682166
 10
-7.0371000559
 20
-4.6949176894
 10
-7.109080054
 20
-4.6779344013
 10
-7.1786145559
 20
-4.6607452153
 10
-7.2456828896
 20
-4.6433498918
 10
-7.3105013666
 20
-4.6256805651
 10
-7.3729854396
 20
-4.6077419926
 10
-7.4330498989
 20
-4.5895387555
 10
-7.4908528012
 20
-4.5709918036
 10
-7.5462870858
 20
-4.5520934596
 10
-7.5992640098
 20
-4.5328291642
 10
-7.6499010326
 20
-4.5130992464
 10
-7.698155044
 20
-4.492845045
 10
-7.7437663525
 20
-4.4720937861
 10
-7.7865038793
 20
-4.4508725046
 10
-7.8264766061
 20
-4.4290288144
 10
-7.8632723452
 20
-4.406679566
 10
-7.8960998227
 20
-4.3842676107
 10
-7.9250696882
 20
-4.3617078971
 10
-7.9500936425
 20
-4.339057062
 10
-7.9706030229
 20
-4.3170066314
 10
-7.9867987308
 20
-4.2958119906
 10
-7.9992737038
 20
-4.2752623194
 10
-8.0083816643
 20
-4.2553809253
 10
-8.0144712113
 20
-4.2361926256
 10
-8.0178841024
 20
-4.2177232894
 10
-8.018953462
 20
-4.2
  0
LWPOLYLINE
  5
2C8
100
AcDbEntity
  8
RACCORDO
100
AcDbPolyline
 62
250
  6
CONTINUOUS
 90
142
 70
0
 10
8.019261498
 20
0.0
 10
8.0181904556
 20
-0.0178133134
 10
8.0147823647
 20
-0.0362768005
 10
8.0087403118
 20
-0.0553664499
 10
7.9997797534
 20
-0.0750246824
 10
7.987584625
 20
-0.0952655656
 10
7.9717594144
 20
-0.1161706323
 10
7.951676232
 20
-0.1379853524
 10
7.9271554118
 20
-0.1604165139
 10
7.8987621522
 20
-0.1827649688
 10
7.8665908993
 20
-0.2049664399
 10
7.8305221548
 20
-0.227112981
 10
7.7913129926
 20
-0.248776563
 10
7.749346887
 20
-0.269846337
 10
7.7045172207
 20
-0.2904673683
 10
7.6570561396
 20
-0.3106065999
 10
7.60719687
 20
-0.330242804
 10
7.5549895793
 20
-0.349428015
 10
7.5003828086
 20
-0.368237816
 10
7.4434856326
 20
-0.3866818858
 10
7.3843929494
 20
-0.4047737665
 10
7.3229765036
 20
-0.4225869644
 10
7.2593334909
 20
-0.4401163667
 10
7.1935491579
 20
-0.4573595088
 10
7.1254266592
 20
-0.4743824249
 10
7.0550001831
 20
-0.491184778
 10
6.9823467329
 20
-0.5077557981
 10
6.9072765869
 20
-0.5241426131
 10
6.8297883887
 20
-0.5403451255
 10
6.7499448181
 20
-0.5563495991
 10
6.667614295
 20
-0.5721799941
 10
6.5828231129
 20
-0.5878271652
 10
6.4955849693
 20
-0.6032863602
 10
6.4057204721
 20
-0.6185856077
 10
6.3132335025
 20
-0.633718347
 10
6.2181360285
 20
-0.6486766894
 10
6.1202321758
 20
-0.6634836736
 10
6.0195152037
 20
-0.6781307038
 10
5.9159846821
 20
-0.6926082251
 10
5.8094283148
 20
-0.706934635
 10
5.6998186052
 20
-0.7211005664
 10
5.5871567307
 20
-0.735092904
 10
5.471258703
 20
-0.7489216867
 10
5.3521270834
 20
-0.7625735064
 10
5.2297489804
 20
-0.7760367652
 10
5.1039036981
 20
-0.7893211508
 10
4.9745931707
 20
-0.8024104722
 10
4.8417985041
 20
-0.8152906053
 10
4.7052481099
 20
-0.8279700701
 10
4.5649357981
 20
-0.8404299225
 10
4.4208455999
 20
-0.8526519265
 10
4.2726713646
 20
-0.8646404442
 10
4.1204001445
 20
-0.8763729678
 10
3.9640226177
 20
-0.8878263969
 10
3.8032202483
 20
-0.8989981721
 10
3.6380047232
 20
-0.9098595909
 10
3.4683511954
 20
-0.9203839577
 10
3.2938698474
 20
-0.9305643532
 10
3.1145985941
 20
-0.9403649467
 10
2.9305029114
 20
-0.9497536861
 10
2.7410766411
 20
-0.9587221464
 10
2.5463350866
 20
-0.967233895
 10
2.3463274764
 20
-0.9752506182
 10
2.1405941396
 20
-0.9827513213
 10
1.9292742259
 20
-0.9896884593
 10
1.7123567849
 20
-0.9960190612
 10
1.4891543799
 20
-1.001714187
 10
1.2600581325
 20
-1.0067109524
 10
1.0248952444
 20
-1.0109587473
 10
0.7821309741
 20
-1.0144180168
 10
0.5310593587
 20
-1.0170144071
 10
0.2727330406
 20
-1.0186493054
 10
0.0082937233
 20
-1.0192349984
 10
-0.2636094991
 20
-1.0186878514
 10
-0.5410292675
 20
-1.016930257
 10
-0.8178440371
 20
-1.013967795
 10
-1.0941385931
 20
-1.0098000808
 10
-1.3691604292
 20
-1.0044377389
 10
-1.6356737358
 20
-0.9980685515
 10
-1.8913993024
 20
-0.9908510218
 10
-2.1383443716
 20
-0.9828292443
 10
-2.3758917032
 20
-0.9741110969
 10
-2.6033799247
 20
-0.9648136457
 10
-2.8214487132
 20
-0.9550011579
 10
-3.0314562797
 20
-0.9446887095
 10
-3.2334317451
 20
-0.9339421482
 10
-3.4274179333
 20
-0.9228301058
 10
-3.6147368191
 20
-0.9113402336
 10
-3.7955975731
 20
-0.8995128899
 10
-3.9698871234
 20
-0.8874074869
 10
-4.138385882
 20
-0.8750174009
 10
-4.3011834298
 20
-0.86237812
 10
-4.4582913905
 20
-0.8495301562
 10
-4.6103302317
 20
-0.8364603488
 10
-4.7573610277
 20
-0.8231969493
 10
-4.8994171094
 20
-0.8097701245
 10
-5.037036034
 20
-0.7961588802
 10
-5.1702810502
 20
-0.7823832103
 10
-5.2991659628
 20
-0.7684678235
 10
-5.4241149524
 20
-0.7543904695
 10
-5.5451720496
 20
-0.7401668879
 10
-5.6623519494
 20
-0.7258160696
 10
-5.7760017195
 20
-0.7113144389
 10
-5.8861517104
 20
-0.6966763907
 10
-5.9928341408
 20
-0.6819163237
 10
-6.0963711788
 20
-0.6670059017
 10
-6.1967787168
 20
-0.6519566076
 10
-6.2940760948
 20
-0.6367793438
 10
-6.3885528433
 20
-0.6214401796
 10
-6.4802170167
 20
-0.6059463351
 10
-6.5690617816
 20
-0.5903075024
 10
-6.6553164536
 20
-0.5744894123
 10
-6.7389830419
 20
-0.5584954735
 10
-6.820030342
 20
-0.5423374636
 10
-6.8986046508
 20
-0.5259906075
 10
-6.9746528667
 20
-0.5094684227
 10
-7.0481777289
 20
-0.4927725907
 10
-7.1193710318
 20
-0.4758577516
 10
-7.1881591021
 20
-0.4587360334
 10
-7.2545175239
 20
-0.4414076187
 10
-7.3186547977
 20
-0.4238058816
 10
-7.3804863116
 20
-0.40593543
 10
-7.4399271023
 20
-0.387800403
 10
-7.4971308172
 20
-0.369321955
 10
-7.551991539
 20
-0.3504920706
 10
-7.604421026
 20
-0.3312960392
 10
-7.6545314723
 20
-0.3116357807
 10
-7.7022860027
 20
-0.2914502571
 10
-7.7474218669
 20
-0.2707686783
 10
-7.7896939263
 20
-0.2496265178
 10
-7.8292088097
 20
-0.2278754223
 10
-7.8655704218
 20
-0.205628533
 10
-7.8979989315
 20
-0.1833253445
 10
-7.9266180615
 20
-0.1608706069
 10
-7.9513280147
 20
-0.1383313059
 10
-7.971543781
 20
-0.1164280901
 10
-7.9874455692
 20
-0.0954704304
 10
-7.9996878473
 20
-0.0751986715
 10
-8.0086861084
 20
-0.0555071782
 10
-8.0147582868
 20
-0.0363733723
 10
-8.0181844455
 20
-0.0178629917
 10
-8.019261498
 20
0.0
  0
LWPOLYLINE
  5
2C9
100
AcDbEntity
  8
RACCORDO
100
AcDbPolyline
 62
250
  6
CONTINUOUS
 90
142
 70
0
 10
8.219231037
 20
0.0
 10
8.216486429
 20
-0.0432830424
 10
8.2085845963
 20
-0.0855401699
 10
8.1955255389
 20
-0.1267713821
 10
8.1769952009
 20
-0.1672975346
 10
8.1533076382
 20
-0.2067977715
 10
8.1254050185
 20
-0.244309525
 10
8.0931171583
 20
-0.279504304
 10
8.0566142411
 20
-0.3127105997
 10
8.0173489858
 20
-0.3439513185
 10
7.975582788
 20
-0.373020485
 10
7.9310542521
 20
-0.4001240747
 10
7.8844319099
 20
-0.4259029203
 10
7.8358768618
 20
-0.4504190428
 10
7.7852280074
 20
-0.4736104213
 10
7.7326705782
 20
-0.4959318255
 10
7.6782762239
 20
-0.5174323021
 10
7.6219732947
 20
-0.5380628045
 10
7.5637320721
 20
-0.5581309624
 10
7.5035673937
 20
-0.5776812186
 10
7.4414644219
 20
-0.5966691303
 10
7.3773489254
 20
-0.6152689989
 10
7.3112402752
 20
-0.6335048512
 10
7.2431191002
 20
-0.6513526606
 10
7.1728530556
 20
-0.6689146474
 10
7.1004468407
 20
-0.6862059128
 10
7.0258957562
 20
-0.7032113558
 10
6.9490533586
 20
-0.7199878943
 10
6.8699059294
 20
-0.7365471208
 10
6.7884671872
 20
-0.7528774427
 10
6.7046318445
 20
-0.7690010005
 10
6.6184207484
 20
-0.784918158
 10
6.5298130517
 20
-0.8006285515
 10
6.4386409264
 20
-0.816153229
 10
6.344917108
 20
-0.8314952272
 10
6.248628861
 20
-0.8466515097
 10
6.1495701496
 20
-0.8616340153
 10
6.0477515324
 20
-0.8764462296
 10
5.9431624508
 20
-0.8910846672
 10
5.8355651943
 20
-0.9055508107
 10
5.7249496235
 20
-0.9198490954
 10
5.6113258777
 20
-0.933975086
 10
5.4944866643
 20
-0.9479169596
 10
5.3744434503
 20
-0.9616762179
 10
5.2511847687
 20
-0.9752513593
 10
5.1244689251
 20
-0.9886260556
 10
4.9943143734
 20
-1.0018029027
 10
4.8607026597
 20
-1.0147793047
 10
4.7233367283
 20
-1.0275311465
 10
4.582228604
 20
-1.0400624739
 10
4.437366262
 20
-1.0523692412
 10
4.2884165728
 20
-1.0644151963
 10
4.1353819876
 20
-1.0762058035
 10
3.9782600551
 20
-1.0877355985
 10
3.8167102927
 20
-1.0989519363
 10
3.6507515627
 20
-1.1098600019
 10
3.4803650029
 20
-1.1204546104
 10
3.3051535438
 20
-1.1306675618
 10
3.1251421698
 20
-1.1405027827
 10
2.9403058965
 20
-1.1499563466
 10
2.7501727025
 20
-1.1589482748
 10
2.55470771
 20
-1.1674866055
 10
2.3539457967
 20
-1.1755633005
 10
2.1475195736
 20
-1.1830742664
 10
1.9354799894
 20
-1.1900289952
 10
1.7177760955
 20
-1.196417995
 10
1.4938876565
 20
-1.2021086968
 10
1.2640606207
 20
-1.207117325
 10
1.0280490399
 20
-1.2114276553
 10
0.7845948349
 20
-1.214858445
 10
0.5327408894
 20
-1.2174308982
 10
0.2734443197
 20
-1.2191238109
 10
0.0083183955
 20
-1.2196923291
 10
-0.2643486225
 20
-1.2190752718
 10
-0.542844995
 20
-1.21733382
 10
-0.8204222344
 20
-1.2144066627
 10
-1.0974026702
 20
-1.2101778501
 10
-1.3734639729
 20
-1.2047633318
 10
-1.6408906657
 20
-1.1984496464
 10
-1.8973707363
 20
-1.1912361319
 10
-2.145216197
 20
-1.18312345
 10
-2.3836476091
 20
-1.174400124
 10
-2.6119457526
 20
-1.1651052775
 10
-2.8308298474
 20
-1.1551997867
 10
-3.0416781141
 20
-1.1448548047
 10
-3.2444800128
 20
-1.1340921843
 10
-3.4392460833
 20
-1.1228900725
 10
-3.6273861662
 20
-1.1113540638
 10
-3.8090747274
 20
-1.0994920986
 10
-3.984137301
 20
-1.0872962363
 10
-4.1534603292
 20
-1.0748482501
 10
-4.3170978365
 20
-1.0621575275
 10
-4.4749957984
 20
-1.0492146809
 10
-4.6278785845
 20
-1.036073321
 10
-4.7757776196
 20
-1.0227414207
 10
-4.9186614787
 20
-1.009211007
 10
-5.0571602562
 20
-0.9955117715
 10
-5.1913172628
 20
-0.9816483278
 10
-5.3210891877
 20
-0.9676160622
 10
-5.4469761925
 20
-0.9534308249
 10
-5.5690069935
 20
-0.9390957222
 10
-5.6871528744
 20
-0.9246076477
 10
-5.8018278486
 20
-0.9099731325
 10
-5.9130432947
 20
-0.8951963903
 10
-6.020787834
 20
-0.8802732075
 10
-6.1254413436
 20
-0.8651974735
 10
-6.2270227002
 20
-0.8499736505
 10
-6.3255130271
 20
-0.8345972763
 10
-6.4212355706
 20
-0.8190488548
 10
-6.5142205574
 20
-0.8033303196
 10
-6.6044377608
 20
-0.7874397371
 10
-6.692119747
 20
-0.7713518101
 10
-6.7773003328
 20
-0.7550653002
 10
-6.8599457014
 20
-0.7385814458
 10
-6.9401869688
 20
-0.7218786652
 10
-7.0180146504
 20
-0.7049675715
 10
-7.0934382308
 20
-0.6878375516
 10
-7.1666172791
 20
-0.6704351844
 10
-7.237552954
 20
-0.6527764068
 10
-7.3062440968
 20
-0.6348452817
 10
-7.3728468011
 20
-0.6165405777
 10
-7.4373767956
 20
-0.5978877149
 10
-7.4998183517
 20
-0.578861273
 10
-7.5602803766
 20
-0.5592837598
 10
-7.618768055
 20
-0.5392068711
 10
-7.6752762023
 20
-0.5185789109
 10
-7.729898172
 20
-0.4970673002
 10
-7.7827326313
 20
-0.4747124711
 10
-7.833680913
 20
-0.4514739912
 10
-7.882540368
 20
-0.4268979846
 10
-7.929478077
 20
-0.4010465955
 10
-7.9743269593
 20
-0.3738576794
 10
-8.016383124
 20
-0.3446909271
 10
-8.0559040689
 20
-0.3133247181
 10
-8.0926322962
 20
-0.2799806726
 10
-8.1250914221
 20
-0.2446833423
 10
-8.1530860313
 20
-0.2071420032
 10
-8.1768115391
 20
-0.1676473792
 10
-8.1953778073
 20
-0.1270961942
 10
-8.2084881234
 20
-0.0857873565
 10
-8.2164392
 20
-0.0434219584
 10
-8.219231037
 20
0.0
  0
LWPOLYLINE
  5
2CA
100
AcDbEntity
  8
DRAFT
100
AcDbPolyline
 62
7
  6
CONTINUOUS
 90
13
 70
0
 10
3.7412724675
 20
7.50734955
 10
3.1700749189
 20
7.4728331514
 10
2.5787609664
 20
7.4443849198
 10
1.9673306098
 20
7.4220048553
 10
1.3293073213
 20
7.4054609037
 10
0.6711676288
 20
7.3949851191
 10
0.0123411159
 20
7.391273664
 10
-0.647173821
 20
7.3947474304
 10
-1.3073755783
 20
7.4049855263
 10
-1.9488297611
 20
7.4214214376
 10
-2.5650582378
 20
7.4438663263
 10
-3.1625391399
 20
7.4725090305
 10
-3.7412724675
 20
7.50734955
  0
LWPOLYLINE
  5
2CB
100
AcDbEntity
  8
RACCORDO
100
AcDbPolyline
 62
250
  6
CONTINUOUS
 90
6
 70
0
 10
8.060578611
 20
8.4020268853
 10
8.0459716714
 20
8.4016638433
 10
8.0342432451
 20
8.4012729354
 10
8.0255896007
 20
8.4008606927
 10
8.0201555521
 20
8.4004340046
 10
8.0180320352
 20
8.4000000007
  0
LINE
  5
2CC
100
AcDbEntity
  8
RACCORDO
100
AcDbLine
 62
250
  6
CONTINUOUS
 10
8.0974061963
 20
8.40264568
 11
8.060578611
 21
8.4020268853
  0
LINE
  5
2CD
100
AcDbEntity
  8
RACCORDO
100
AcDbLine
 62
250
  6
CONTINUOUS
 10
8.1422711619
 20
8.4030881608
 11
8.0974061963
 21
8.40264568
  0
LWPOLYLINE
  5
2CE
100
AcDbEntity
  8
RACCORDO
100
AcDbPolyline
 62
250
  6
CONTINUOUS
 90
3
 70
0
 10
8.2179988249
 20
8.4033607981
 10
8.19218292
 20
8.4033249842
 10
8.1422711619
 20
8.4030881608
  0
LINE
  5
2CF
100
AcDbEntity
  8
RACCORDO
100
AcDbLine
 62
250
  6
CONTINUOUS
 10
-8.2179988249
 20
8.4033607092
 11
-8.1667987729
 21
8.4032339914
  0
LINE
  5
2D0
100
AcDbEntity
  8
RACCORDO
100
AcDbLine
 62
250
  6
CONTINUOUS
 10
-8.1667987729
 20
8.4032339914
 11
-8.1190105593
 21
8.4028914643
  0
LWPOLYLINE
  5
2D1
100
AcDbEntity
  8
RACCORDO
100
AcDbPolyline
 62
250
  6
CONTINUOUS
 90
8
 70
0
 10
-8.1190105593
 20
8.4028914643
 10
-8.0778196325
 20
8.4023560759
 10
-8.0605786183
 20
8.4020268163
 10
-8.0459716788
 20
8.4016636493
 10
-8.0342432526
 20
8.4012726645
 10
-8.0255896083
 20
8.4008604155
 10
-8.0201555598
 20
8.4004338105
 10
-8.0180320428
 20
8.3999999993
  0
LWPOLYLINE
  5
2D2
100
AcDbEntity
  8
0
100
AcDbPolyline
 62
250
  6
CONTINUOUS
 90
3
 70
0
 10
11.0046585314
 20
-21.403981807
 10
11.0034984168
 20
-21.3558303735
 10
11.0029751375
 20
-21.3279645393
  0
LINE
  5
2D3
100
AcDbEntity
  8
0
100
AcDbLine
 62
250
  6
CONTINUOUS
 10
10.5060155151
 20
-21.9047715709
 11
10.5047336849
 21
-21.8316424864
  0
LINE
  5
2D4
100
AcDbEntity
  8
0
100
AcDbLine
 62
250
  6
CONTINUOUS
 10
10.5047336849
 20
-21.8316424864
 11
10.503574742
 21
-21.7355821182
  0
LINE
  5
2D5
100
AcDbEntity
  8
0
100
AcDbLine
 62
250
  6
CONTINUOUS
 10
10.503574742
 20
-21.7355821182
 11
10.502132574
 21
-21.5542389643
  0
LINE
  5
2D6
100
AcDbEntity
  8
0
100
AcDbLine
 62
250
  6
CONTINUOUS
 10
10.502132574
 20
-21.5542389643
 11
10.5011186198
 21
-21.3380251343
  0
LWPOLYLINE
  5
2D7
100
AcDbEntity
  8
0
100
AcDbPolyline
 62
250
  6
CONTINUOUS
 90
3
 70
0
 10
10.5011186198
 20
-21.3380251343
 10
10.5005963741
 20
-21.1000229543
 10
10.5005350625
 20
-21.0183142309
  0
LWPOLYLINE
  5
2D8
100
AcDbEntity
  8
0
100
AcDbPolyline
 62
250
  6
CONTINUOUS
 90
9
 70
0
 10
10.5005350625
 20
-21.0183142309
 10
10.4974904462
 20
-16.3494810548
 10
10.495206984
 20
-11.6792204147
 10
10.4936846758
 20
-7.0079400892
 10
10.4929235217
 20
-2.3360479955
 10
10.4929235216
 20
2.3360479943
 10
10.4936846757
 20
7.0079400882
 10
10.4952069839
 20
11.6792204138
 10
10.4974904462
 20
16.3494810544
  0
LINE
  5
2D9
100
AcDbEntity
  8
0
100
AcDbLine
 62
250
  6
CONTINUOUS
 10
10.4974904462
 20
16.3494810544
 11
10.5008871715
 21
21.2604158065
  0
LINE
  5
2DA
100
AcDbEntity
  8
0
100
AcDbLine
 62
250
  6
CONTINUOUS
 10
10.5008871715
 20
21.2604158065
 11
10.5017438025
 21
21.4854407064
  0
LINE
  5
2DB
100
AcDbEntity
  8
0
100
AcDbLine
 62
250
  6
CONTINUOUS
 10
10.5017438025
 20
21.4854407064
 11
10.5030519635
 21
21.6797292088
  0
LINE
  5
2DC
100
AcDbEntity
  8
0
100
AcDbLine
 62
250
  6
CONTINUOUS
 10
10.5030519635
 20
21.6797292088
 11
10.5041390272
 21
21.786331002
  0
LWPOLYLINE
  5
2DD
100
AcDbEntity
  8
0
100
AcDbPolyline
 62
250
  6
CONTINUOUS
 90
7
 70
0
 10
10.5041390272
 20
21.786331002
 10
10.5053594138
 20
21.8712144185
 10
10.5060155151
 20
21.9047715709
 10
10.5066887591
 20
21.9320798744
 10
10.5073747357
 20
21.9529558612
 10
10.5080778549
 20
21.9672631277
 10
10.5087981167
 20
21.9749071372
  0
LWPOLYLINE
  5
2DE
100
AcDbEntity
  8
0
100
AcDbPolyline
 62
250
  6
CONTINUOUS
 90
9
 70
0
 10
11.0029751375
 20
21.3279645393
 10
11.0040632761
 20
21.3813379257
 10
11.0046585314
 20
21.4039818068
 10
11.0052850488
 20
21.4237085483
 10
11.0059419622
 20
21.4405716188
 10
11.0066154888
 20
21.4542260345
 10
11.0073010341
 20
21.464556801
 10
11.0080031927
 20
21.4716789127
 10
11.0087219643
 20
21.4755923698
  0
LINE
  5
2DF
100
AcDbEntity
  8
0
100
AcDbLine
 62
250
  6
CONTINUOUS
 10
11.0029751375
 20
-21.3279645393
 11
11.0020549485
 21
-21.2650621527
  0
LINE
  5
2E0
100
AcDbEntity
  8
0
100
AcDbLine
 62
250
  6
CONTINUOUS
 10
11.0020549485
 20
-21.2650621527
 11
11.0010408709
 21
-21.1568159642
  0
LINE
  5
2E1
100
AcDbEntity
  8
0
100
AcDbLine
 62
250
  6
CONTINUOUS
 10
11.0010408709
 20
-21.1568159642
 11
11.0005196528
 21
-21.0384725278
  0
LWPOLYLINE
  5
2E2
100
AcDbEntity
  8
0
100
AcDbPolyline
 62
250
  6
CONTINUOUS
 90
9
 70
0
 10
11.0005196528
 20
-21.0384725278
 10
10.9974142958
 20
-16.3324664701
 10
10.9951308352
 20
-11.6670185434
 10
10.9936085283
 20
-7.0009521365
 10
10.9928473752
 20
-2.3338547134
 10
10.9928473758
 20
2.3338611899
 10
10.9936085296
 20
7.0009579653
 10
10.9951308365
 20
11.667023077
 10
10.9974142967
 20
16.3324690607
  0
LINE
  5
2E3
100
AcDbEntity
  8
RACCORDO
100
AcDbLine
 62
7
  6
CONTINUOUS
 10
11.15
 20
-21.8997711479
 11
11.15
 21
21.8997711479
  0
LINE
  5
2E4
100
AcDbEntity
  8
0
100
AcDbLine
 62
250
  6
CONTINUOUS
 10
10.9974142967
 20
16.3324690607
 11
11.0006365685
 21
21.0787402824
  0
LINE
  5
2E5
100
AcDbEntity
  8
0
100
AcDbLine
 62
250
  6
CONTINUOUS
 10
11.0006365685
 20
21.0787402824
 11
11.0013282574
 21
21.1946238914
  0
LWPOLYLINE
  5
2E6
100
AcDbEntity
  8
0
100
AcDbPolyline
 62
250
  6
CONTINUOUS
 90
3
 70
0
 10
11.0013282574
 20
21.1946238914
 10
11.002494253
 20
21.297692487
 10
11.0029751375
 20
21.3279645393
  0
LWPOLYLINE
  5
2E7
100
AcDbEntity
  8
0
100
AcDbPolyline
 62
7
  6
CONTINUOUS
 90
10
 70
0
 43
0.3500000006
 10
1.0714285848
 20
34.7500012207
 10
1.1428571477
 20
34.6071433868
 10
1.1428571477
 20
34.535712204
 10
1.0000000219
 20
34.392858902
 10
0.9285714591
 20
34.392858902
 10
0.8571428254
 20
34.464285553
 10
0.8571428254
 20
34.535712204
 10
0.9285714591
 20
34.6785700378
 10
1.0000000219
 20
34.7500012207
 10
1.0714285848
 20
34.7500012207
  0
LWPOLYLINE
  5
2E8
100
AcDbEntity
  8
0
100
AcDbPolyline
 62
7
  6
CONTINUOUS
 90
3
 70
0
 43
0.3500000006
 10
19.7571437073
 20
-0.8571427917
 10
19.7571437073
 20
-2.3571432495
 10
17.3999996452
 20
-1.7142852631
  0
LINE
  5
2E9
100
AcDbEntity
  8
DRAFT
100
AcDbLine
 62
7
  6
CONTINUOUS
 10
2.7812783412
 20
-22.5310194482
 11
3.0
 21
-22.4
  0
LINE
  5
2EA
100
AcDbEntity
  8
0
100
AcDbLine
 62
250
  6
CONTINUOUS
 10
-10.5005350625
 20
21.0183142309
 11
10.5005350625
 21
21.0183142309
  0
LINE
  5
2EB
100
AcDbEntity
  8
DRAFT
100
AcDbLine
 62
7
  6
CONTINUOUS
 10
3.0
 20
22.4
 11
2.7812783412
 21
22.5310194482
  0
LINE
  5
2EC
100
AcDbEntity
  8
0
100
AcDbLine
 62
250
  6
CONTINUOUS
 10
-10.5087981167
 20
21.9749071372
 11
10.5087981167
 21
21.9749071372
  0
LINE
  5
2ED
100
AcDbEntity
  8
DRAFT
100
AcDbLine
 62
7
  6
CONTINUOUS
 10
-10.6503805997
 20
22.4
 11
-3.0
 21
22.4
  0
LINE
  5
2EE
100
AcDbEntity
  8
DRAFT
100
AcDbLine
 62
7
  6
CONTINUOUS
 10
3.0
 20
22.4
 11
10.6503805997
 21
22.4
  0
LINE
  5
2EF
100
AcDbEntity
  8
DRAFT
100
AcDbLine
 62
7
  6
CONTINUOUS
 10
2.7812783412
 20
22.5310194482
 11
-2.7812783412
 21
22.5310194482
  0
LWPOLYLINE
  5
2F0
100
AcDbEntity
  8
0
100
AcDbPolyline
 62
250
  6
CONTINUOUS
 90
16
 70
0
 10
10.5005350626
 20
21.0183132877
 10
10.5522203681
 20
21.0181627949
 10
10.6033519099
 20
21.0177887256
 10
10.6533818551
 20
21.0171950877
 10
10.7017741735
 20
21.0163882415
 10
10.7480103807
 20
21.0153768319
 10
10.7915950934
 20
21.0141716956
 10
10.8320613367
 20
21.0127857448
 10
10.8689755479
 20
21.0112338287
 10
10.9019422211
 20
21.0095325749
 10
10.9306081453
 20
21.0077002109
 10
10.9546661883
 20
21.0057563691
 10
10.9738585879
 20
21.0037218762
 10
10.987979713
 20
21.00161853
 10
10.9968782673
 20
20.9994688662
 10
11.00045891
 20
20.9972959167
  0
LWPOLYLINE
  5
2F1
100
AcDbEntity
  8
0
100
AcDbPolyline
 62
250
  6
CONTINUOUS
 90
16
 70
0
 10
10.5087981167
 20
21.9749071372
 10
10.5610241351
 20
21.9721273713
 10
10.6126786189
 20
21.9639137831
 10
10.6631962883
 20
21.9503562579
 10
10.7120243038
 20
21.9316031621
 10
10.7586283171
 20
21.90785972
 10
10.8024983178
 20
21.8793857676
 10
10.8431542153
 20
21.846492909
 10
10.8801510926
 20
21.8095411067
 10
10.9130840749
 20
21.7689347421
 10
10.9415927608
 20
21.7251181903
 10
10.9653651658
 20
21.6785709569
 10
10.9841411372
 20
21.6298024308
 10
10.9977152003
 20
21.5793463095
 10
11.0059388076
 20
21.5277547588
 10
11.0087219643
 20
21.4755923698
  0
LINE
  5
2F2
100
AcDbEntity
  8
DRAFT
100
AcDbLine
 62
7
  6
CONTINUOUS
 10
3.0
 20
23.5
 11
2.7812783412
 21
23.4781828305
  0
LINE
  5
2F3
100
AcDbEntity
  8
DRAFT
100
AcDbLine
 62
7
  6
CONTINUOUS
 10
-2.7812783412
 20
23.4781828305
 11
2.7812783412
 21
23.4781828305
  0
LINE
  5
2F4
100
AcDbEntity
  8
DRAFT
100
AcDbLine
 62
7
  6
CONTINUOUS
 10
-3.9733373476
 20
23.5
 11
-3.0
 21
23.5
  0
LINE
  5
2F5
100
AcDbEntity
  8
DRAFT
100
AcDbLine
 62
7
  6
CONTINUOUS
 10
3.0
 20
23.5
 11
3.9733373476
 21
23.5
  0
LWPOLYLINE
  5
2F6
100
AcDbEntity
  8
0
100
AcDbPolyline
 62
7
  6
CONTINUOUS
 90
7
 70
0
 43
0.3500000006
 10
-0.4285714127
 20
34.2500010681
 10
-1.9285714102
 20
34.2500010681
 10
-0.4285714127
 20
36.3928549805
 10
-0.4285714127
 20
36.8214284821
 10
-0.8571428254
 20
37.2500019836
 10
-1.5000000329
 20
37.2500019836
 10
-1.9285714102
 20
36.6071439972
  0
LWPOLYLINE
  5
2F7
100
AcDbEntity
  8
0
100
AcDbPolyline
 62
7
  6
CONTINUOUS
 90
6
 70
0
 43
0.3500000006
 10
2.1428571696
 20
34.2500010681
 10
3.2142856836
 20
34.2500010681
 10
3.4285713015
 20
34.464285553
 10
3.4285713015
 20
35.5357125092
 10
3.0000000658
 20
35.9642860107
 10
2.5714285469
 20
35.9642860107
  0
LWPOLYLINE
  5
2F8
100
AcDbEntity
  8
0
100
AcDbPolyline
 62
7
  6
CONTINUOUS
 90
7
 70
0
 43
0.3500000006
 10
-2.7857141647
 20
34.2500010681
 10
-4.2857143393
 20
34.2500010681
 10
-2.7857141647
 20
36.3928549805
 10
-2.7857141647
 20
36.8214284821
 10
-3.2142856836
 20
37.2500019836
 10
-3.8571428204
 20
37.2500019836
 10
-4.2857143393
 20
36.6071439972
  0
LINE
  5
2F9
100
AcDbEntity
  8
DRAFT
100
AcDbLine
 62
7
  6
CONTINUOUS
 10
-3.0
 20
23.5
 11
-2.7812783412
 21
23.4781828305
  0
LWPOLYLINE
  5
2FA
100
AcDbEntity
  8
0
100
AcDbPolyline
 62
7
  6
CONTINUOUS
 90
5
 70
0
 43
0.3500000006
 10
-45.5430257721
 20
43.9642839203
 10
-45.1858834534
 20
44.178572937
 10
-45.1858834534
 20
44.8214263916
 10
-45.5430257721
 20
45.2499998932
 10
-46.4001682434
 20
45.2499998932
  0
LWPOLYLINE
  5
2FB
100
AcDbEntity
  8
0
100
AcDbPolyline
 62
7
  6
CONTINUOUS
 90
10
 70
0
 43
0.3500000006
 10
-41.4715979004
 20
45.2499998932
 10
-42.1144558868
 20
44.6071419067
 10
-42.5430248566
 20
43.7499994354
 10
-42.5430248566
 20
42.6785724792
 10
-42.1144558868
 20
42.2499989777
 10
-41.4715979004
 20
42.2499989777
 10
-41.0430243988
 20
42.6785724792
 10
-41.0430243988
 20
43.5357149506
 10
-41.4715979004
 20
43.9642839203
 10
-42.4001715546
 20
43.9642839203
  0
LWPOLYLINE
  5
2FC
100
AcDbEntity
  8
0
100
AcDbPolyline
 62
250
  6
CONTINUOUS
 90
8
 70
0
 10
-64.9018096586
 20
21.9749071372
 10
-64.9025755867
 20
21.9721273713
 10
-64.9030467638
 20
21.9639137831
 10
-64.9032180335
 20
21.9503562579
 10
-64.9030875216
 20
21.9316031621
 10
-64.9026566563
 20
21.90785972
 10
-64.9019301531
 20
21.8793857676
 10
-64.8996251833
 20
21.8095411067
  0
LWPOLYLINE
  5
2FD
100
AcDbEntity
  8
0
100
AcDbPolyline
 62
7
  6
CONTINUOUS
 90
5
 70
0
 43
0.3500000006
 10
-42.8287405243
 20
35.9642860107
 10
-42.4715982056
 20
36.1785704956
 10
-42.4715982056
 20
36.8214284821
 10
-42.8287405243
 20
37.2500019836
 10
-43.6858829956
 20
37.2500019836
  0
LWPOLYLINE
  5
2FE
100
AcDbEntity
  8
0
100
AcDbPolyline
 62
250
  6
CONTINUOUS
 90
7
 70
0
 10
-64.9018096586
 20
-21.9749071372
 10
-64.9025755865
 20
-21.97212728
 10
-64.9030467541
 20
-21.9639134406
 10
-64.9032180065
 20
-21.9503555394
 10
-64.9030874708
 20
-21.931601975
 10
-64.9026565773
 20
-21.9078580123
 10
-64.9019300447
 20
-21.8793835478
  0
LWPOLYLINE
  5
2FF
100
AcDbEntity
  8
0
100
AcDbPolyline
 62
250
  6
CONTINUOUS
 90
10
 70
0
 10
-65.3577579407
 20
-20.9972959167
 10
-65.5321837775
 20
-16.3324664701
 10
-65.6630031487
 20
-11.6670185434
 10
-65.7502160542
 20
-7.0009521365
 10
-65.7938224855
 20
-2.3338547134
 10
-65.7938224512
 20
2.3338611899
 10
-65.750215977
 20
7.0009579653
 10
-65.6630030714
 20
11.667023077
 10
-65.532183726
 20
16.3324690607
 10
-65.3577579407
 20
20.9972959167
  0
LWPOLYLINE
  5
300
100
AcDbEntity
  8
0
100
AcDbPolyline
 62
250
  6
CONTINUOUS
 90
19
 70
0
 10
-65.3577579407
 20
20.9972959167
 10
-65.3542779967
 20
21.0384725278
 10
-65.3475798967
 20
21.0787402824
 10
-65.3376636408
 20
21.1180991804
 10
-65.3244174312
 20
21.1568159641
 10
-65.3079530658
 20
21.1946238914
 10
-65.2886059377
 20
21.2307227352
 10
-65.2663209612
 20
21.2650621528
 10
-65.2411532222
 20
21.297692487
 10
-65.2136033714
 20
21.3279645393
 10
-65.1836247162
 20
21.3558303734
 10
-65.1512639494
 20
21.3813379257
 10
-65.1171618
 20
21.4039818068
 10
-65.081268639
 20
21.4237085483
 10
-65.0436340955
 20
21.4405716188
 10
-65.0050477865
 20
21.4542260345
 10
-64.9657729177
 20
21.464556801
 10
-64.9255462834
 20
21.4716789127
 10
-64.8843678837
 20
21.4755923698
  0
LINE
  5
301
100
AcDbEntity
  8
0
100
AcDbLine
 62
250
  6
CONTINUOUS
 10
-64.8920206308
 20
21.6298024308
 11
-64.8843678837
 21
21.4755923698
  0
LINE
  5
302
100
AcDbEntity
  8
0
100
AcDbLine
 62
250
  6
CONTINUOUS
 10
-64.8962732337
 20
21.7251181903
 11
-64.8920206308
 21
21.6298024308
  0
LINE
  5
303
100
AcDbEntity
  8
0
100
AcDbLine
 62
250
  6
CONTINUOUS
 10
-64.8996251833
 20
21.8095411067
 11
-64.8962732337
 21
21.7251181903
  0
LINE
  5
304
100
AcDbEntity
  8
0
100
AcDbLine
 62
250
  6
CONTINUOUS
 10
-64.9019300447
 20
-21.8793835478
 11
-64.8996250242
 21
-21.8095380733
  0
LINE
  5
305
100
AcDbEntity
  8
0
100
AcDbLine
 62
250
  6
CONTINUOUS
 10
-64.8996250242
 20
-21.8095380733
 11
-64.8962730529
 21
-21.7251149336
  0
LINE
  5
306
100
AcDbEntity
  8
0
100
AcDbLine
 62
250
  6
CONTINUOUS
 10
-64.8962730529
 20
-21.7251149336
 11
-64.8920204767
 21
-21.6297997904
  0
LWPOLYLINE
  5
307
100
AcDbEntity
  8
0
100
AcDbPolyline
 62
250
  6
CONTINUOUS
 90
3
 70
0
 10
-64.8920204767
 20
-21.6297997904
 10
-64.8870529514
 20
-21.5277536674
 10
-64.8843678837
 20
-21.4755923698
  0
LWPOLYLINE
  5
308
100
AcDbEntity
  8
0
100
AcDbPolyline
 62
7
  6
CONTINUOUS
 90
3
 70
0
 43
0.3500000006
 10
-37.4715989456
 20
36.3928549805
 10
-36.6144542084
 20
37.2500019836
 10
-36.6144542084
 20
34.2500010681
  0
LINE
  5
309
100
AcDbEntity
  8
0
100
AcDbLine
 62
7
  6
CONTINUOUS
 10
-56.7905546387
 20
22.4
 11
-56.7905546387
 21
21.8997711479
  0
LINE
  5
30A
100
AcDbEntity
  8
0
100
AcDbLine
 62
7
  6
CONTINUOUS
 10
-56.7905546387
 20
-21.8997711479
 11
-56.7905546387
 21
-22.4
  0
LINE
  5
30B
100
AcDbEntity
  8
DRAFT
100
AcDbLine
 62
7
  6
CONTINUOUS
 10
-56.7905546387
 20
-22.4
 11
-56.7905546387
 21
-23.5
  0
LINE
  5
30C
100
AcDbEntity
  8
RACCORDO
100
AcDbLine
 62
7
  6
CONTINUOUS
 10
-56.7905546387
 20
-21.8997711479
 11
-56.7905546387
 21
21.8997711479
  0
LINE
  5
30D
100
AcDbEntity
  8
DRAFT
100
AcDbLine
 62
7
  6
CONTINUOUS
 10
-56.7905546387
 20
22.4
 11
-56.7905546387
 21
23.5
  0
LWPOLYLINE
  5
30E
100
AcDbEntity
  8
0
100
AcDbPolyline
 62
7
  6
CONTINUOUS
 90
3
 70
0
 43
0.3500000006
 10
-43.5430251617
 20
42.5357146454
 10
-43.6144563446
 20
42.3214301605
 10
-43.7573141785
 20
42.0357144928
  0
LINE
  5
30F
100
AcDbEntity
  8
DRAFT
100
AcDbLine
 62
7
  6
CONTINUOUS
 10
-46.7905546387
 20
19.7
 11
-47.4218858061
 21
19.0686688326
  0
LINE
  5
310
100
AcDbEntity
  8
DRAFT
100
AcDbLine
 62
7
  6
CONTINUOUS
 10
-47.4218858061
 20
-19.0686688326
 11
-46.7905546387
 21
-19.7
  0
LINE
  5
311
100
AcDbEntity
  8
RACCORDO
100
AcDbLine
 62
7
  6
CONTINUOUS
 10
-55.2905546387
 20
-19.0
 11
-55.2905546387
 21
18.2297930482
  0
LINE
  5
312
100
AcDbEntity
  8
ASSI
100
AcDbLine
 62
7
  6
CONTINUOUS
 10
-55.2905546387
 20
-19.0
 11
-55.2905546387
 21
-18.2298208395
  0
LINE
  5
313
100
AcDbEntity
  8
RACCORDO
100
AcDbLine
 62
7
  6
CONTINUOUS
 10
-55.2905546387
 20
18.2740665384
 11
-55.2905546387
 21
19.0
  0
LINE
  5
314
100
AcDbEntity
  8
ASSI
100
AcDbLine
 62
7
  6
CONTINUOUS
 10
-55.2905546387
 20
18.2740665384
 11
-55.2905546387
 21
19.0
  0
LINE
  5
315
100
AcDbEntity
  8
RACCORDO
100
AcDbLine
 62
7
  6
CONTINUOUS
 10
-53.4905546387
 20
-19.0165591163
 11
-53.4905546387
 21
-18.9685808831
  0
LINE
  5
316
100
AcDbEntity
  8
ASSI
100
AcDbLine
 62
7
  6
CONTINUOUS
 10
-53.4905546387
 20
-19.0165591163
 11
-53.4905546387
 21
-18.9685808831
  0
LINE
  5
317
100
AcDbEntity
  8
RACCORDO
100
AcDbLine
 62
7
  6
CONTINUOUS
 10
-53.4905546387
 20
18.9685808831
 11
-53.4905546387
 21
19.015708362
  0
LINE
  5
318
100
AcDbEntity
  8
ASSI
100
AcDbLine
 62
7
  6
CONTINUOUS
 10
-53.4905546387
 20
18.9685808831
 11
-53.4905546387
 21
19.015708362
  0
LINE
  5
319
100
AcDbEntity
  8
RACCORDO
100
AcDbLine
 62
250
  6
CONTINUOUS
 10
-51.6002388169
 20
19.0322048983
 11
-51.6172231849
 21
18.935881761
  0
LINE
  5
31A
100
AcDbEntity
  8
ASSI
100
AcDbLine
 62
250
  6
CONTINUOUS
 10
-51.6002388169
 20
19.0322048983
 11
-51.6172231849
 21
18.935881761
  0
LINE
  5
31B
100
AcDbEntity
  8
RACCORDO
100
AcDbLine
 62
7
  6
CONTINUOUS
 10
-50.6007265798
 20
19.0409275094
 11
-50.6223111187
 21
18.9185155063
  0
LINE
  5
31C
100
AcDbEntity
  8
ASSI
100
AcDbLine
 62
7
  6
CONTINUOUS
 10
-50.6007265798
 20
19.0409275094
 11
-50.6223111187
 21
18.9185155063
  0
LINE
  5
31D
100
AcDbEntity
  8
CURVE
100
AcDbLine
 62
7
  6
CONTINUOUS
 10
-50.4902479168
 20
13.8269422106
 11
-50.4126665455
 21
13.9045235819
  0
LINE
  5
31E
100
AcDbEntity
  8
CURVE
100
AcDbLine
 62
7
  6
CONTINUOUS
 10
-50.5908364252
 20
13.5163429881
 11
-50.4707689633
 21
13.6364104501
  0
LINE
  5
31F
100
AcDbEntity
  8
CURVE
100
AcDbLine
 62
7
  6
CONTINUOUS
 10
-50.2454648937
 20
13.8617145197
 11
-50.1090734776
 21
13.9981059358
  0
LINE
  5
320
100
AcDbEntity
  8
CURVE
100
AcDbLine
 62
7
  6
CONTINUOUS
 10
-50.5921083445
 20
13.3050603549
 11
-50.4961527197
 21
13.4010159797
  0
LINE
  5
321
100
AcDbEntity
  8
CURVE
100
AcDbLine
 62
7
  6
CONTINUOUS
 10
-50.0167410393
 20
13.8804276601
 11
-49.9246927933
 21
13.9724759061
  0
LINE
  5
322
100
AcDbEntity
  8
CURVE
100
AcDbLine
 62
7
  6
CONTINUOUS
 10
-50.5921083445
 20
13.0950496409
 11
-50.4961527197
 21
13.1910052656
  0
LINE
  5
323
100
AcDbEntity
  8
CURVE
100
AcDbLine
 62
7
  6
CONTINUOUS
 10
-49.8635731337
 20
13.8235848517
 11
-49.7837900155
 21
13.9033679698
  0
LINE
  5
324
100
AcDbEntity
  8
CURVE
100
AcDbLine
 62
7
  6
CONTINUOUS
 10
-50.5921083445
 20
12.8850389268
 11
-50.4961527197
 21
12.9809945516
  0
LINE
  5
325
100
AcDbEntity
  8
CURVE
100
AcDbLine
 62
7
  6
CONTINUOUS
 10
-49.758101964
 20
13.7190453073
 11
-49.6799662338
 21
13.7971810375
  0
LINE
  5
326
100
AcDbEntity
  8
CURVE
100
AcDbLine
 62
7
  6
CONTINUOUS
 10
-50.5615468228
 20
12.7055897345
 11
-50.4503570689
 21
12.8167794885
  0
LINE
  5
327
100
AcDbEntity
  8
CURVE
100
AcDbLine
 62
7
  6
CONTINUOUS
 10
-49.7000350851
 20
13.5671014722
 11
-49.6175550806
 21
13.6495814768
  0
LINE
  5
328
100
AcDbEntity
  8
CURVE
100
AcDbLine
 62
7
  6
CONTINUOUS
 10
-50.3515361088
 20
12.7055897345
 11
-50.2403463549
 21
12.8167794885
  0
LINE
  5
329
100
AcDbEntity
  8
CURVE
100
AcDbLine
 62
7
  6
CONTINUOUS
 10
-49.6881982377
 20
13.3689276056
 11
-49.5929025743
 21
13.4642232691
  0
LINE
  5
32A
100
AcDbEntity
  8
CURVE
100
AcDbLine
 62
7
  6
CONTINUOUS
 10
-50.5707170742
 20
12.2763980551
 11
-50.4595971009
 21
12.3875180284
  0
LINE
  5
32B
100
AcDbEntity
  8
CURVE
100
AcDbLine
 62
7
  6
CONTINUOUS
 10
-50.1415253948
 20
12.7055897345
 11
-50.0303356408
 21
12.8167794885
  0
LINE
  5
32C
100
AcDbEntity
  8
CURVE
100
AcDbLine
 62
7
  6
CONTINUOUS
 10
-49.6881982377
 20
13.1589168916
 11
-49.5922426129
 21
13.2548725164
  0
LINE
  5
32D
100
AcDbEntity
  8
CURVE
100
AcDbLine
 62
7
  6
CONTINUOUS
 10
-50.3607063601
 20
12.2763980551
 11
-50.2495863869
 21
12.3875180284
  0
LINE
  5
32E
100
AcDbEntity
  8
CURVE
100
AcDbLine
 62
7
  6
CONTINUOUS
 10
-49.9315146807
 20
12.7055897345
 11
-49.8203249268
 21
12.8167794885
  0
LINE
  5
32F
100
AcDbEntity
  8
CURVE
100
AcDbLine
 62
7
  6
CONTINUOUS
 10
-49.6881982377
 20
12.9489061776
 11
-49.5922426129
 21
13.0448618024
  0
LINE
  5
330
100
AcDbEntity
  8
CURVE
100
AcDbLine
 62
7
  6
CONTINUOUS
 10
-50.1506956461
 20
12.2763980551
 11
-50.0395756729
 21
12.3875180284
  0
LINE
  5
331
100
AcDbEntity
  8
CURVE
100
AcDbLine
 62
7
  6
CONTINUOUS
 10
-49.7215039667
 20
12.7055897345
 11
-49.5922426129
 21
12.8348510884
  0
LINE
  5
332
100
AcDbEntity
  8
CURVE
100
AcDbLine
 62
7
  6
CONTINUOUS
 10
-49.9406849321
 20
12.2763980551
 11
-49.8295649589
 21
12.3875180284
  0
LINE
  5
333
100
AcDbEntity
  8
CURVE
100
AcDbLine
 62
7
  6
CONTINUOUS
 10
-49.5114932527
 20
12.7055897345
 11
-49.4003034988
 21
12.8167794885
  0
LINE
  5
334
100
AcDbEntity
  8
DRAFT
100
AcDbLine
 62
7
  6
CONTINUOUS
 10
-55.4512536891
 20
-23.167081284
 11
-52.7905546387
 21
-23.1409517823
  0
LINE
  5
335
100
AcDbEntity
  8
DRAFT
100
AcDbLine
 62
7
  6
CONTINUOUS
 10
-56.7905546387
 20
-23.1799085618
 11
-55.4512536891
 21
-23.167081284
  0
LINE
  5
336
100
AcDbEntity
  8
DRAFT
100
AcDbLine
 62
7
  6
CONTINUOUS
 10
-56.7905546387
 20
-23.5
 11
-52.7905546387
 21
-23.4650925288
  0
LINE
  5
337
100
AcDbEntity
  8
0
100
AcDbLine
 62
7
  6
CONTINUOUS
 10
-56.7905546387
 20
-22.4
 11
-64.9018096586
 21
-21.9749071372
  0
LINE
  5
338
100
AcDbEntity
  8
0
100
AcDbLine
 62
250
  6
CONTINUOUS
 10
-56.7905546387
 20
-21.8997711479
 11
-64.8843678837
 21
-21.4755923698
  0
LWPOLYLINE
  5
339
100
AcDbEntity
  8
0
100
AcDbPolyline
 62
250
  6
CONTINUOUS
 90
19
 70
0
 10
-64.8843678837
 20
-21.4755923698
 10
-64.9255462834
 20
-21.4716789126
 10
-64.9657729176
 20
-21.4645568007
 10
-65.0050477864
 20
-21.4542260342
 10
-65.0436340955
 20
-21.4405716186
 10
-65.081268639
 20
-21.4237085484
 10
-65.1171618001
 20
-21.403981807
 10
-65.1512639494
 20
-21.3813379258
 10
-65.1836247163
 20
-21.3558303735
 10
-65.2136033714
 20
-21.3279645393
 10
-65.2411532221
 20
-21.2976924869
 10
-65.266320961
 20
-21.2650621527
 10
-65.2886059375
 20
-21.2307227351
 10
-65.3079530657
 20
-21.1946238913
 10
-65.3244174313
 20
-21.1568159642
 10
-65.337663641
 20
-21.1180991805
 10
-65.3475798969
 20
-21.0787402824
 10
-65.3542779968
 20
-21.0384725278
 10
-65.3577579407
 20
-20.9972959167
  0
LINE
  5
33A
100
AcDbEntity
  8
CURVE
100
AcDbLine
 62
250
  6
CONTINUOUS
 10
-47.8102887857
 20
-14.5714285523
 11
-47.3818479197
 21
-15.0
  0
LINE
  5
33B
100
AcDbEntity
  8
RACCORDO
100
AcDbLine
 62
250
  6
CONTINUOUS
 10
-51.6002388169
 20
-19.0322048983
 11
-51.6172231849
 21
-18.935881761
  0
LINE
  5
33C
100
AcDbEntity
  8
ASSI
100
AcDbLine
 62
250
  6
CONTINUOUS
 10
-51.6002388169
 20
-19.0322048983
 11
-51.6172231849
 21
-18.935881761
  0
LINE
  5
33D
100
AcDbEntity
  8
RACCORDO
100
AcDbLine
 62
7
  6
CONTINUOUS
 10
-50.6007265798
 20
-19.0409275094
 11
-50.6223111187
 21
-18.9185155063
  0
LINE
  5
33E
100
AcDbEntity
  8
ASSI
100
AcDbLine
 62
7
  6
CONTINUOUS
 10
-50.6007265798
 20
-19.0409275094
 11
-50.6223111187
 21
-18.9185155063
  0
LINE
  5
33F
100
AcDbEntity
  8
DRAFT
100
AcDbLine
 62
7
  6
CONTINUOUS
 10
-51.1818271062
 20
21.199923836
 11
-51.1905546387
 21
22.2
  0
LINE
  5
340
100
AcDbEntity
  8
DRAFT
100
AcDbLine
 62
7
  6
CONTINUOUS
 10
-52.7905546387
 20
23.4650925288
 11
-52.7905546387
 21
21.2139629885
  0
LINE
  5
341
100
AcDbEntity
  8
DRAFT
100
AcDbLine
 62
7
  6
CONTINUOUS
 10
-52.7905546387
 20
-21.2139629885
 11
-52.7905546387
 21
-23.4650925288
  0
LINE
  5
342
100
AcDbEntity
  8
0
100
AcDbLine
 62
250
  6
CONTINUOUS
 10
-51.6654404188
 20
-9.842944
 11
-51.6654404188
 21
-8.382444
  0
LINE
  5
343
100
AcDbEntity
  8
0
100
AcDbLine
 62
250
  6
CONTINUOUS
 10
-50.9156688586
 20
-8.382444
 11
-50.9156688586
 21
-9.842944
  0
LINE
  5
344
100
AcDbEntity
  8
CURVE
100
AcDbLine
 62
250
  6
CONTINUOUS
 10
-50.5921135504
 20
11.0085272007
 11
-50.5921135504
 21
11.1196482155
  0
LINE
  5
345
100
AcDbEntity
  8
CURVE
100
AcDbLine
 62
250
  6
CONTINUOUS
 10
-50.5921135504
 20
12.2763980551
 11
-50.5921135504
 21
12.3875180284
  0
LINE
  5
346
100
AcDbEntity
  8
CURVE
100
AcDbLine
 62
250
  6
CONTINUOUS
 10
-50.5921083445
 20
12.7055897345
 11
-50.5921083445
 21
13.4734009208
  0
LINE
  5
347
100
AcDbEntity
  8
CURVE
100
AcDbLine
 62
250
  6
CONTINUOUS
 10
-50.5904302539
 20
3.897904
 11
-50.5904302539
 21
4.152533
  0
LINE
  5
348
100
AcDbEntity
  8
CURVE
100
AcDbLine
 62
250
  6
CONTINUOUS
 10
-50.5904302539
 20
5.105488
 11
-50.5904302539
 21
5.332387
  0
LINE
  5
349
100
AcDbEntity
  8
CURVE
100
AcDbLine
 62
250
  6
CONTINUOUS
 10
-50.5904302539
 20
5.834015
 11
-50.5904302539
 21
7.076887
  0
LINE
  5
34A
100
AcDbEntity
  8
CURVE
100
AcDbLine
 62
250
  6
CONTINUOUS
 10
-50.5904302539
 20
9.14156
 11
-50.5904302539
 21
10.384415
  0
LINE
  5
34B
100
AcDbEntity
  8
CURVE
100
AcDbLine
 62
250
  6
CONTINUOUS
 10
-50.5904252554
 20
7.28862
 11
-50.5904252554
 21
7.548249
  0
LINE
  5
34C
100
AcDbEntity
  8
CURVE
100
AcDbLine
 62
250
  6
CONTINUOUS
 10
-50.5904252554
 20
8.586932
 11
-50.5904252554
 21
8.836527
  0
LINE
  5
34D
100
AcDbEntity
  8
CURVE
100
AcDbLine
 62
250
  6
CONTINUOUS
 10
-50.4961527197
 20
13.4658073268
 11
-50.4961527197
 21
12.8167794885
  0
LINE
  5
34E
100
AcDbEntity
  8
CURVE
100
AcDbLine
 62
250
  6
CONTINUOUS
 10
-50.3888126826
 20
10.384415
 11
-50.3888126826
 21
9.381053
  0
LINE
  5
34F
100
AcDbEntity
  8
CURVE
100
AcDbLine
 62
250
  6
CONTINUOUS
 10
-50.3888126826
 20
7.076887
 11
-50.3888126826
 21
6.073526
  0
LINE
  5
350
100
AcDbEntity
  8
DRAFT
100
AcDbLine
 62
7
  6
CONTINUOUS
 10
-51.1818271062
 20
-21.199923836
 11
-51.1905546387
 21
-22.2
  0
LWPOLYLINE
  5
351
100
AcDbEntity
  8
CURVE
100
AcDbPolyline
 62
250
  6
CONTINUOUS
 90
88
 70
0
 10
-50.4961527197
 20
13.4658073268
 10
-50.495972462
 20
13.4824748011
 10
-50.4954088349
 20
13.4991636005
 10
-50.4944275577
 20
13.5158506971
 10
-50.4929943495
 20
13.5325130631
 10
-50.4910749295
 20
13.5491276707
 10
-50.4886350169
 20
13.5656714922
 10
-50.4856403308
 20
13.5821214996
 10
-50.4820565905
 20
13.5984546652
 10
-50.477849515
 20
13.6146479612
 10
-50.4729848237
 20
13.6306783598
 10
-50.4679976069
 20
13.6450088944
 10
-50.4624512819
 20
13.6591559398
 10
-50.4563522369
 20
13.6730879659
 10
-50.4497068602
 20
13.6867734425
 10
-50.44252154
 20
13.7001808396
 10
-50.4348026645
 20
13.713278627
 10
-50.4265566218
 20
13.7260352748
 10
-50.4177898002
 20
13.7384192527
 10
-50.4085085879
 20
13.7503990308
 10
-50.3987193732
 20
13.7619430789
 10
-50.3884285441
 20
13.7730198669
 10
-50.3778915501
 20
13.7833717404
 10
-50.3669029127
 20
13.7932451567
 10
-50.3554843247
 20
13.8026384013
 10
-50.3436574786
 20
13.8115497595
 10
-50.3314440674
 20
13.8199775169
 10
-50.3188657837
 20
13.8279199589
 10
-50.3059443203
 20
13.835375371
 10
-50.2927013699
 20
13.8423420387
 10
-50.2791586253
 20
13.8488182474
 10
-50.2653377791
 20
13.8548022825
 10
-50.2512605242
 20
13.8602924297
 10
-50.2369485532
 20
13.8652869743
 10
-50.2224235589
 20
13.8697842018
 10
-50.207707234
 20
13.8737823976
 10
-50.1928212713
 20
13.8772798473
 10
-50.1777873636
 20
13.8802748363
 10
-50.1626272034
 20
13.88276565
 10
-50.1473624837
 20
13.8847505739
 10
-50.1320148971
 20
13.8862278936
 10
-50.1166061363
 20
13.8871958944
 10
-50.1011578941
 20
13.8876528619
 10
-50.0856918633
 20
13.8875970814
 10
-50.070280677
 20
13.8870302003
 10
-50.054896745
 20
13.8859544354
 10
-50.039563443
 20
13.884372
 10
-50.0243041466
 20
13.8822851075
 10
-50.0091422317
 20
13.8796959713
 10
-49.9941010739
 20
13.8766068046
 10
-49.979204049
 20
13.8730198208
 10
-49.9644745326
 20
13.8689372333
 10
-49.9499359005
 20
13.8643612554
 10
-49.9356115284
 20
13.8592941005
 10
-49.9215247921
 20
13.8537379819
 10
-49.9076990672
 20
13.8476951129
 10
-49.8941577295
 20
13.8411677069
 10
-49.8809241547
 20
13.8341579773
 10
-49.8680217185
 20
13.8266681374
 10
-49.8554737966
 20
13.8187004005
 10
-49.8433037648
 20
13.8102569801
 10
-49.8315349987
 20
13.8013400893
 10
-49.8201908741
 20
13.7919519417
 10
-49.8092947668
 20
13.7820947504
 10
-49.7988700524
 20
13.771770729
 10
-49.7889401066
 20
13.7609820906
 10
-49.7794214788
 20
13.7496077736
 10
-49.7704248324
 20
13.7377884655
 10
-49.7619424339
 20
13.7255519046
 10
-49.7539665494
 20
13.7129258293
 10
-49.7464894456
 20
13.6999379777
 10
-49.7395033887
 20
13.6866160883
 10
-49.7330006451
 20
13.6729878993
 10
-49.7269734813
 20
13.6590811492
 10
-49.7214141636
 20
13.644923576
 10
-49.7163149585
 20
13.6305429183
 10
-49.7116681322
 20
13.6159669143
 10
-49.7074659512
 20
13.6012233023
 10
-49.7037006819
 20
13.5863398207
 10
-49.7003645906
 20
13.5713442077
 10
-49.6974499438
 20
13.5562642016
 10
-49.6949490079
 20
13.5411275409
 10
-49.6928540492
 20
13.5259619637
 10
-49.6911573341
 20
13.5107952084
 10
-49.689851129
 20
13.4956550133
 10
-49.6889277003
 20
13.4805691168
 10
-49.6883793144
 20
13.4655652571
 10
-49.6881982377
 20
13.4506711726
  0
LINE
  5
352
100
AcDbEntity
  8
CURVE
100
AcDbLine
 62
250
  6
CONTINUOUS
 10
-47.1676274868
 20
11.4285712838
 11
-46.9534070091
 21
11.6428570747
  0
LINE
  5
353
100
AcDbEntity
  8
CURVE
100
AcDbLine
 62
250
  6
CONTINUOUS
 10
-47.8102887857
 20
10.3571428657
 11
-47.5960683527
 21
10.5714284778
  0
LINE
  5
354
100
AcDbEntity
  8
CURVE
100
AcDbLine
 62
7
  6
CONTINUOUS
 10
-49.7306742181
 20
12.2763980551
 11
-49.6195542449
 21
12.3875180284
  0
LINE
  5
355
100
AcDbEntity
  8
CURVE
100
AcDbLine
 62
7
  6
CONTINUOUS
 10
-49.3014825387
 20
12.7055897345
 11
-49.1902927848
 21
12.8167794885
  0
LINE
  5
356
100
AcDbEntity
  8
CURVE
100
AcDbLine
 62
7
  6
CONTINUOUS
 10
-49.5206635041
 20
12.2763980551
 11
-49.4130338998
 21
12.3840276595
  0
LINE
  5
357
100
AcDbEntity
  8
CURVE
100
AcDbLine
 62
7
  6
CONTINUOUS
 10
-49.0914718247
 20
12.7055897345
 11
-48.9802820708
 21
12.8167794885
  0
LINE
  5
358
100
AcDbEntity
  8
CURVE
100
AcDbLine
 62
7
  6
CONTINUOUS
 10
-50.5785236445
 20
11.0085272007
 11
-50.4674026298
 21
11.1196482155
  0
LINE
  5
359
100
AcDbEntity
  8
CURVE
100
AcDbLine
 62
7
  6
CONTINUOUS
 10
-49.3231138251
 20
12.2639370201
 11
-49.2296403207
 21
12.3574105246
  0
LINE
  5
35A
100
AcDbEntity
  8
CURVE
100
AcDbLine
 62
7
  6
CONTINUOUS
 10
-48.8814611107
 20
12.7055897345
 11
-48.7893540173
 21
12.7976968279
  0
LINE
  5
35B
100
AcDbEntity
  8
CURVE
100
AcDbLine
 62
7
  6
CONTINUOUS
 10
-50.3685129305
 20
11.0085272007
 11
-50.2573919157
 21
11.1196482155
  0
LINE
  5
35C
100
AcDbEntity
  8
CURVE
100
AcDbLine
 62
7
  6
CONTINUOUS
 10
-49.1551916062
 20
12.221848525
 11
-49.0735432121
 21
12.3034969191
  0
LINE
  5
35D
100
AcDbEntity
  8
CURVE
100
AcDbLine
 62
7
  6
CONTINUOUS
 10
-50.1585022165
 20
11.0085272007
 11
-50.0473812017
 21
11.1196482155
  0
LINE
  5
35E
100
AcDbEntity
  8
CURVE
100
AcDbLine
 62
7
  6
CONTINUOUS
 10
-49.0218123244
 20
12.1452170928
 11
-48.9466050879
 21
12.2204243293
  0
LINE
  5
35F
100
AcDbEntity
  8
CURVE
100
AcDbLine
 62
7
  6
CONTINUOUS
 10
-50.5904302539
 20
10.3665884493
 11
-50.5726037032
 21
10.384415
  0
LINE
  5
360
100
AcDbEntity
  8
CURVE
100
AcDbLine
 62
7
  6
CONTINUOUS
 10
-49.9484915025
 20
11.0085272007
 11
-49.8373704877
 21
11.1196482155
  0
LINE
  5
361
100
AcDbEntity
  8
CURVE
100
AcDbLine
 62
7
  6
CONTINUOUS
 10
-48.9248482046
 20
12.0321704986
 11
-48.8508667779
 21
12.1061519253
  0
LINE
  5
362
100
AcDbEntity
  8
CURVE
100
AcDbLine
 62
7
  6
CONTINUOUS
 10
-50.5904302539
 20
10.1565777353
 11
-50.3888126826
 21
10.3581953066
  0
LINE
  5
363
100
AcDbEntity
  8
CURVE
100
AcDbLine
 62
7
  6
CONTINUOUS
 10
-49.7384807885
 20
11.0085272007
 11
-49.6273597737
 21
11.1196482155
  0
LINE
  5
364
100
AcDbEntity
  8
CURVE
100
AcDbLine
 62
7
  6
CONTINUOUS
 10
-48.8631604668
 20
11.8838475224
 11
-48.7844063491
 21
11.9626016401
  0
LINE
  5
365
100
AcDbEntity
  8
CURVE
100
AcDbLine
 62
7
  6
CONTINUOUS
 10
-50.5904302539
 20
9.9465670213
 11
-50.3888126826
 21
10.1481845926
  0
LINE
  5
366
100
AcDbEntity
  8
CURVE
100
AcDbLine
 62
7
  6
CONTINUOUS
 10
-49.5284700744
 20
11.0085272007
 11
-49.413691941
 21
11.1233053342
  0
LINE
  5
367
100
AcDbEntity
  8
CURVE
100
AcDbLine
 62
7
  6
CONTINUOUS
 10
-48.8425431916
 20
11.6944540836
 11
-48.7507239967
 21
11.7862732785
  0
LINE
  5
368
100
AcDbEntity
  8
CURVE
100
AcDbLine
 62
7
  6
CONTINUOUS
 10
-50.5904302539
 20
9.7365563073
 11
-50.3888126826
 21
9.9381738786
  0
LINE
  5
369
100
AcDbEntity
  8
CURVE
100
AcDbLine
 62
7
  6
CONTINUOUS
 10
-49.3033658981
 20
11.0236206631
 11
-49.1417734124
 21
11.1852131487
  0
LINE
  5
36A
100
AcDbEntity
  8
CURVE
100
AcDbLine
 62
7
  6
CONTINUOUS
 10
-48.8844380806
 20
11.4425484805
 11
-48.7525272217
 21
11.5744593395
  0
LINE
  5
36B
100
AcDbEntity
  8
CURVE
100
AcDbLine
 62
7
  6
CONTINUOUS
 10
-50.5904302539
 20
9.5265455933
 11
-50.3888126826
 21
9.7281631646
  0
LINE
  5
36C
100
AcDbEntity
  8
CURVE
100
AcDbLine
 62
7
  6
CONTINUOUS
 10
-49.8167119898
 20
10.3002638574
 11
-49.8005778471
 21
10.316398
  0
LINE
  5
36D
100
AcDbEntity
  8
CURVE
100
AcDbLine
 62
7
  6
CONTINUOUS
 10
-48.9226892206
 20
11.1942866265
 11
-48.899219257
 21
11.2177565902
  0
LINE
  5
36E
100
AcDbEntity
  8
CURVE
100
AcDbLine
 62
7
  6
CONTINUOUS
 10
-50.5904302539
 20
9.3165348793
 11
-50.3888126826
 21
9.5181524506
  0
LINE
  5
36F
100
AcDbEntity
  8
CURVE
100
AcDbLine
 62
7
  6
CONTINUOUS
 10
-49.8167119898
 20
10.0902531433
 11
-49.6150774237
 21
10.2918877095
  0
LINE
  5
370
100
AcDbEntity
  8
CURVE
100
AcDbLine
 62
7
  6
CONTINUOUS
 10
-50.5553944191
 20
9.14156
 11
-50.3159014191
 21
9.381053
  0
LINE
  5
371
100
AcDbEntity
  8
CURVE
100
AcDbLine
 62
7
  6
CONTINUOUS
 10
-49.8167119898
 20
9.8802424293
 11
-49.6150774237
 21
10.0818769955
  0
LINE
  5
372
100
AcDbEntity
  8
CURVE
100
AcDbLine
 62
7
  6
CONTINUOUS
 10
-50.3453837051
 20
9.14156
 11
-50.1058907051
 21
9.381053
  0
LINE
  5
373
100
AcDbEntity
  8
CURVE
100
AcDbLine
 62
7
  6
CONTINUOUS
 10
-49.8167119898
 20
9.6702317153
 11
-49.6150774237
 21
9.8718662814
  0
LINE
  5
374
100
AcDbEntity
  8
CURVE
100
AcDbLine
 62
7
  6
CONTINUOUS
 10
-50.5904252554
 20
8.6865077357
 11
-50.4797803007
 21
8.7971526904
  0
LINE
  5
375
100
AcDbEntity
  8
CURVE
100
AcDbLine
 62
7
  6
CONTINUOUS
 10
-50.1353729911
 20
9.14156
 11
-49.8958799911
 21
9.381053
  0
LINE
  5
376
100
AcDbEntity
  8
CURVE
100
AcDbLine
 62
7
  6
CONTINUOUS
 10
-49.8167119898
 20
9.4602210013
 11
-49.6150774237
 21
9.6618555674
  0
LINE
  5
377
100
AcDbEntity
  8
CURVE
100
AcDbLine
 62
7
  6
CONTINUOUS
 10
-48.9925850842
 20
10.2843479069
 11
-48.8849259911
 21
10.392007
  0
LINE
  5
378
100
AcDbEntity
  8
CURVE
100
AcDbLine
 62
7
  6
CONTINUOUS
 10
-50.5075708906
 20
8.5593513865
 11
-50.3248893537
 21
8.7420329234
  0
LINE
  5
379
100
AcDbEntity
  8
CURVE
100
AcDbLine
 62
7
  6
CONTINUOUS
 10
-49.9253622771
 20
9.14156
 11
-49.6150774237
 21
9.4518448534
  0
LINE
  5
37A
100
AcDbEntity
  8
CURVE
100
AcDbLine
 62
7
  6
CONTINUOUS
 10
-48.9925850842
 20
10.0743371929
 11
-48.7909675129
 21
10.2759547642
  0
LINE
  5
37B
100
AcDbEntity
  8
CURVE
100
AcDbLine
 62
7
  6
CONTINUOUS
 10
-50.3500093592
 20
8.5069022039
 11
-50.1699984066
 21
8.6869131565
  0
LINE
  5
37C
100
AcDbEntity
  8
CURVE
100
AcDbLine
 62
7
  6
CONTINUOUS
 10
-49.7153515631
 20
9.14156
 11
-49.4758585631
 21
9.381053
  0
LINE
  5
37D
100
AcDbEntity
  8
CURVE
100
AcDbLine
 62
7
  6
CONTINUOUS
 10
-48.9925850842
 20
9.8643264789
 11
-48.7909675129
 21
10.0659440502
  0
LINE
  5
37E
100
AcDbEntity
  8
CURVE
100
AcDbLine
 62
7
  6
CONTINUOUS
 10
-50.1924478278
 20
8.4544530213
 11
-50.0151074595
 21
8.6317933896
  0
LINE
  5
37F
100
AcDbEntity
  8
CURVE
100
AcDbLine
 62
7
  6
CONTINUOUS
 10
-49.5053408491
 20
9.14156
 11
-49.2658478491
 21
9.381053
  0
LINE
  5
380
100
AcDbEntity
  8
CURVE
100
AcDbLine
 62
7
  6
CONTINUOUS
 10
-48.9925850842
 20
9.6543157649
 11
-48.7909675129
 21
9.8559333362
  0
LINE
  5
381
100
AcDbEntity
  8
CURVE
100
AcDbLine
 62
7
  6
CONTINUOUS
 10
-50.0348862964
 20
8.4020038387
 11
-49.8602165124
 21
8.5766736226
  0
LINE
  5
382
100
AcDbEntity
  8
CURVE
100
AcDbLine
 62
7
  6
CONTINUOUS
 10
-49.295330135
 20
9.14156
 11
-49.055837135
 21
9.381053
  0
LINE
  5
383
100
AcDbEntity
  8
CURVE
100
AcDbLine
 62
7
  6
CONTINUOUS
 10
-48.9925850842
 20
9.4443050509
 11
-48.7909675129
 21
9.6459226222
  0
LINE
  5
384
100
AcDbEntity
  8
CURVE
100
AcDbLine
 62
7
  6
CONTINUOUS
 10
-49.8773247649
 20
8.3495546561
 11
-49.7053255653
 21
8.5215538557
  0
LINE
  5
385
100
AcDbEntity
  8
CURVE
100
AcDbLine
 62
7
  6
CONTINUOUS
 10
-49.085319421
 20
9.14156
 11
-48.7909675129
 21
9.4359119081
  0
LINE
  5
386
100
AcDbEntity
  8
CURVE
100
AcDbLine
 62
250
  6
CONTINUOUS
 10
-47.8102887857
 20
11.4285712838
 11
-47.5960683527
 21
11.6071427464
  0
LINE
  5
387
100
AcDbEntity
  8
DRAFT
100
AcDbLine
 62
7
  6
CONTINUOUS
 10
-50.6828809589
 20
-22.1955695989
 11
-51.1905546387
 21
-22.2
  0
LINE
  5
388
100
AcDbEntity
  8
DRAFT
100
AcDbLine
 62
7
  6
CONTINUOUS
 10
-52.7905546387
 20
-21.2139629885
 11
-48.9242477448
 21
-21.1802222394
  0
LINE
  5
389
100
AcDbEntity
  8
DRAFT
100
AcDbLine
 62
7
  6
CONTINUOUS
 10
-56.7905546387
 20
-22.663166622
 11
-55.0061440731
 21
-22.6550057102
  0
LWPOLYLINE
  5
38A
100
AcDbEntity
  8
DRAFT
100
AcDbPolyline
 62
7
  6
CONTINUOUS
 90
3
 70
0
 10
-55.0061440731
 20
-22.6550057102
 10
-53.2323433041
 20
-22.6472902856
 10
-52.7905546387
 20
-22.6454332982
  0
LINE
  5
38B
100
AcDbEntity
  8
DRAFT
100
AcDbLine
 62
7
  6
CONTINUOUS
 10
-56.7905546387
 20
-20.9
 11
-48.4938122832
 21
-20.9317102097
  0
LINE
  5
38C
100
AcDbEntity
  8
CURVE
100
AcDbLine
 62
250
  6
CONTINUOUS
 10
-47.4889580915
 20
-14.1428571045
 11
-47.8102887857
 21
-13.928571403
  0
LINE
  5
38D
100
AcDbEntity
  8
CURVE
100
AcDbLine
 62
250
  6
CONTINUOUS
 10
-45.3110502519
 20
-14.7857142761
 11
-45.096829819
 21
-14.9285714272
  0
LINE
  5
38E
100
AcDbEntity
  8
CURVE
100
AcDbLine
 62
250
  6
CONTINUOUS
 10
-47.3818479197
 20
-13.3928571939
 11
-46.3107456654
 21
-14.1428571045
  0
LINE
  5
38F
100
AcDbEntity
  8
CURVE
100
AcDbLine
 62
250
  6
CONTINUOUS
 10
-47.8102887857
 20
-12.6428571939
 11
-47.5960683527
 21
-12.8571428061
  0
LINE
  5
390
100
AcDbEntity
  8
CURVE
100
AcDbLine
 62
250
  6
CONTINUOUS
 10
-44.668388953
 20
-14.7857142761
 11
-44.4541684753
 21
-15.0
  0
LINE
  5
391
100
AcDbEntity
  8
CURVE
100
AcDbLine
 62
250
  6
CONTINUOUS
 10
-46.3107456654
 20
-12.5357142091
 11
-46.5249661208
 21
-12.321428597
  0
LINE
  5
392
100
AcDbEntity
  8
CURVE
100
AcDbLine
 62
250
  6
CONTINUOUS
 10
-43.8115071317
 20
-14.4642857015
 11
-44.025727587
 21
-14.25
  0
LINE
  5
393
100
AcDbEntity
  8
CURVE
100
AcDbLine
 62
250
  6
CONTINUOUS
 10
-44.668388953
 20
-14.4642857015
 11
-44.7754991248
 21
-14.3214285672
  0
LWPOLYLINE
  5
394
100
AcDbEntity
  8
CURVE
100
AcDbPolyline
 62
250
  6
CONTINUOUS
 90
59
 70
0
 10
-49.5922426129
 20
13.4330104165
 10
-49.5923345699
 20
13.4474679932
 10
-49.5926168952
 20
13.4620244106
 10
-49.59309927
 20
13.4766638068
 10
-49.5937913756
 20
13.4913703199
 10
-49.5947028932
 20
13.506128088
 10
-49.595843504
 20
13.5209212493
 10
-49.5972228893
 20
13.5357339418
 10
-49.5988507303
 20
13.5505503036
 10
-49.6007367083
 20
13.565354473
 10
-49.6028905046
 20
13.5801305879
 10
-49.6053218003
 20
13.5948627865
 10
-49.6080402768
 20
13.609535207
 10
-49.6110556152
 20
13.6241319874
 10
-49.6143774969
 20
13.6386372658
 10
-49.6180156031
 20
13.6530351804
 10
-49.6219796149
 20
13.6673098693
 10
-49.6262792138
 20
13.6814454706
 10
-49.6309240808
 20
13.6954261224
 10
-49.6359238973
 20
13.7092359628
 10
-49.6412883445
 20
13.72285913
 10
-49.6470271037
 20
13.736279762
 10
-49.6531498561
 20
13.749481997
 10
-49.6596662829
 20
13.7624499731
 10
-49.6665860655
 20
13.7751678284
 10
-49.6739188849
 20
13.787619701
 10
-49.6816744226
 20
13.7997897291
 10
-49.6898623597
 20
13.8116620507
 10
-49.6984923775
 20
13.8232208039
 10
-49.7075741573
 20
13.834450127
 10
-49.7170183758
 20
13.8452330509
 10
-49.726895958
 20
13.8556746174
 10
-49.7371876781
 20
13.8657721362
 10
-49.7478743106
 20
13.8755229165
 10
-49.7589366299
 20
13.884924268
 10
-49.7703554103
 20
13.8939735
 10
-49.7821114263
 20
13.9026679221
 10
-49.7941854523
 20
13.9110048436
 10
-49.8065582627
 20
13.9189815741
 10
-49.8192106318
 20
13.9265954231
 10
-49.8321233341
 20
13.9338436999
 10
-49.845277144
 20
13.9407237141
 10
-49.8586528358
 20
13.9472327751
 10
-49.872231184
 20
13.9533681924
 10
-49.8859929629
 20
13.9591272755
 10
-49.899918947
 20
13.9645073338
 10
-49.9139899107
 20
13.9695056768
 10
-49.9281866282
 20
13.9741196139
 10
-49.9424898742
 20
13.9783464547
 10
-49.9568804229
 20
13.9821835085
 10
-49.9713390487
 20
13.985628085
 10
-49.9858465261
 20
13.9886774934
 10
-50.0003836294
 20
13.9913290434
 10
-50.014931133
 20
13.9935800443
 10
-50.0294698114
 20
13.9954278056
 10
-50.0439804389
 20
13.9968696368
 10
-50.05844379
 20
13.9979028474
 10
-50.072840639
 20
13.9985247468
 10
-50.0871517603
 20
13.9987326445
  0
LINE
  5
395
100
AcDbEntity
  8
CURVE
100
AcDbLine
 62
250
  6
CONTINUOUS
 10
-49.8167119898
 20
6.073526
 11
-49.8167119898
 21
7.008818
  0
LINE
  5
396
100
AcDbEntity
  8
CURVE
100
AcDbLine
 62
250
  6
CONTINUOUS
 10
-49.8167119898
 20
9.381053
 11
-49.8167119898
 21
10.316398
  0
LINE
  5
397
100
AcDbEntity
  8
CURVE
100
AcDbLine
 62
250
  6
CONTINUOUS
 10
-49.6881982377
 20
12.8167794885
 11
-49.6881982377
 21
13.4506711726
  0
LINE
  5
398
100
AcDbEntity
  8
CURVE
100
AcDbLine
 62
250
  6
CONTINUOUS
 10
-49.6150774237
 20
10.316398
 11
-49.6150774237
 21
9.381053
  0
LINE
  5
399
100
AcDbEntity
  8
CURVE
100
AcDbLine
 62
250
  6
CONTINUOUS
 10
-49.6150774237
 20
7.008818
 11
-49.6150774237
 21
6.073526
  0
LINE
  5
39A
100
AcDbEntity
  8
CURVE
100
AcDbLine
 62
250
  6
CONTINUOUS
 10
-49.5922426129
 20
13.4330104165
 11
-49.5922426129
 21
12.8167794885
  0
LINE
  5
39B
100
AcDbEntity
  8
CURVE
100
AcDbLine
 62
250
  6
CONTINUOUS
 10
-48.9925850842
 20
6.073526
 11
-48.9925850842
 21
7.084446
  0
LINE
  5
39C
100
AcDbEntity
  8
CURVE
100
AcDbLine
 62
250
  6
CONTINUOUS
 10
-48.9925850842
 20
9.381053
 11
-48.9925850842
 21
10.392007
  0
LINE
  5
39D
100
AcDbEntity
  8
CURVE
100
AcDbLine
 62
250
  6
CONTINUOUS
 10
-48.7909675129
 20
10.392007
 11
-48.7909675129
 21
9.14156
  0
LINE
  5
39E
100
AcDbEntity
  8
CURVE
100
AcDbLine
 62
250
  6
CONTINUOUS
 10
-48.7909675129
 20
7.084446
 11
-48.7909675129
 21
5.834015
  0
LINE
  5
39F
100
AcDbEntity
  8
CURVE
100
AcDbLine
 62
250
  6
CONTINUOUS
 10
-48.7909675129
 20
5.332387
 11
-48.7909675129
 21
5.070199
  0
LINE
  5
3A0
100
AcDbEntity
  8
CURVE
100
AcDbLine
 62
250
  6
CONTINUOUS
 10
-48.7909675129
 20
4.124786
 11
-48.7909675129
 21
3.897904
  0
LINE
  5
3A1
100
AcDbEntity
  8
CURVE
100
AcDbLine
 62
250
  6
CONTINUOUS
 10
-48.7909625144
 20
8.196167
 11
-48.7909625144
 21
7.923912
  0
LINE
  5
3A2
100
AcDbEntity
  8
CURVE
100
AcDbLine
 62
250
  6
CONTINUOUS
 10
-48.7893540173
 20
12.8167794885
 11
-48.7893540173
 21
12.7055897345
  0
LINE
  5
3A3
100
AcDbEntity
  8
CURVE
100
AcDbLine
 62
250
  6
CONTINUOUS
 10
-47.8102887857
 20
13.9999998808
 11
-47.8102887857
 21
13.2499998808
  0
LINE
  5
3A4
100
AcDbEntity
  8
CURVE
100
AcDbLine
 62
250
  6
CONTINUOUS
 10
-47.8102887857
 20
12.8214286566
 11
-47.8102887857
 21
12.0714286566
  0
LINE
  5
3A5
100
AcDbEntity
  8
CURVE
100
AcDbLine
 62
250
  6
CONTINUOUS
 10
-47.8102887857
 20
9.0714285225
 11
-47.8102887857
 21
8.9642856494
  0
LINE
  5
3A6
100
AcDbEntity
  8
CURVE
100
AcDbLine
 62
250
  6
CONTINUOUS
 10
-47.8102887857
 20
-3.2499997616
 11
-47.8102887857
 21
-3.3571429253
  0
LINE
  5
3A7
100
AcDbEntity
  8
CURVE
100
AcDbLine
 62
250
  6
CONTINUOUS
 10
-47.8102887857
 20
-6.678571701
 11
-47.8102887857
 21
-6.7857141495
  0
LINE
  5
3A8
100
AcDbEntity
  8
CURVE
100
AcDbLine
 62
250
  6
CONTINUOUS
 10
-47.8102887857
 20
-7.5357141495
 11
-47.8102887857
 21
-8.178571701
  0
LINE
  5
3A9
100
AcDbEntity
  8
CURVE
100
AcDbLine
 62
250
  6
CONTINUOUS
 10
-47.8102887857
 20
-12.5357142091
 11
-47.8102887857
 21
-12.6428571939
  0
LINE
  5
3AA
100
AcDbEntity
  8
CURVE
100
AcDbLine
 62
250
  6
CONTINUOUS
 10
-47.8102887857
 20
-13.928571403
 11
-47.8102887857
 21
-13.6071428955
  0
LINE
  5
3AB
100
AcDbEntity
  8
CURVE
100
AcDbLine
 62
250
  6
CONTINUOUS
 10
-47.8102887857
 20
10.0357141793
 11
-47.8102887857
 21
10.3571428657
  0
LINE
  5
3AC
100
AcDbEntity
  8
CURVE
100
AcDbLine
 62
250
  6
CONTINUOUS
 10
-47.8102887857
 20
10.9999998808
 11
-47.8102887857
 21
11.4285712838
  0
LWPOLYLINE
  5
3AD
100
AcDbEntity
  8
0
100
AcDbPolyline
 62
7
  6
CONTINUOUS
 90
2
 70
0
 43
0.3500000006
 10
-47.7573108673
 20
42.2499989777
 10
-47.7573108673
 20
43.7499994354
  0
LINE
  5
3AE
100
AcDbEntity
  8
CURVE
100
AcDbLine
 62
250
  6
CONTINUOUS
 10
-47.3818479197
 20
-0.678571701
 11
-47.3818479197
 21
-1.3214292526
  0
LINE
  5
3AF
100
AcDbEntity
  8
CURVE
100
AcDbLine
 62
250
  6
CONTINUOUS
 10
-47.1676274868
 20
-1.7500004768
 11
-47.1676274868
 21
-2.5000004768
  0
LINE
  5
3B0
100
AcDbEntity
  8
CURVE
100
AcDbLine
 62
250
  6
CONTINUOUS
 10
-47.1676274868
 20
-8.178571701
 11
-47.1676274868
 21
-7.7499997616
  0
LINE
  5
3B1
100
AcDbEntity
  8
CURVE
100
AcDbLine
 62
250
  6
CONTINUOUS
 10
-47.1676274868
 20
-4.7857146263
 11
-47.1676274868
 21
-4.3214285374
  0
LINE
  5
3B2
100
AcDbEntity
  8
CURVE
100
AcDbLine
 62
250
  6
CONTINUOUS
 10
-47.1676274868
 20
11.2142856717
 11
-47.1676274868
 21
11.4285712838
  0
LWPOLYLINE
  5
3B3
100
AcDbEntity
  8
CURVE
100
AcDbPolyline
 62
250
  6
CONTINUOUS
 90
59
 70
0
 10
-48.8423604937
 20
11.6854204356
 10
-48.8425041542
 20
11.6687830567
 10
-48.842948685
 20
11.652104628
 10
-48.8437144098
 20
11.6354037198
 10
-48.8448216525
 20
11.6186989024
 10
-48.8462907369
 20
11.6020087463
 10
-48.8481419869
 20
11.5853518216
 10
-48.8503957263
 20
11.5687466988
 10
-48.853072279
 20
11.5522119482
 10
-48.8561919687
 20
11.5357661401
 10
-48.8597751194
 20
11.5194278449
 10
-48.8638420548
 20
11.5032156328
 10
-48.8684130988
 20
11.4871480742
 10
-48.8735085752
 20
11.4712437394
 10
-48.8791488079
 20
11.4555211989
 10
-48.8853541207
 20
11.4399990227
 10
-48.8920592461
 20
11.4248663982
 10
-48.8993202794
 20
11.4099661049
 10
-48.9071207982
 20
11.3953164286
 10
-48.9154443801
 20
11.3809356552
 10
-48.9242746027
 20
11.3668420705
 10
-48.9335950433
 20
11.3530539603
 10
-48.9433892798
 20
11.3395896103
 10
-48.9536408895
 20
11.3264673064
 10
-48.9643334501
 20
11.3137053344
 10
-48.9754505391
 20
11.3013219801
 10
-48.9869757341
 20
11.2893355293
 10
-48.9988926126
 20
11.2777642677
 10
-49.0111847523
 20
11.2666264813
 10
-49.0238357305
 20
11.2559404558
 10
-49.036829125
 20
11.2457244769
 10
-49.0510658511
 20
11.2353478639
 10
-49.0656567329
 20
11.2255156307
 10
-49.0805841
 20
11.2162151683
 10
-49.0958302819
 20
11.207433868
 10
-49.1113776082
 20
11.1991591209
 10
-49.1272084083
 20
11.191378318
 10
-49.1433050118
 20
11.1840788506
 10
-49.1596497483
 20
11.1772481097
 10
-49.1762249472
 20
11.1708734865
 10
-49.1930129382
 20
11.1649423722
 10
-49.2099960507
 20
11.1594421578
 10
-49.2271566142
 20
11.1543602345
 10
-49.2444769584
 20
11.1496839935
 10
-49.2619394127
 20
11.1454008258
 10
-49.2795263067
 20
11.1414981226
 10
-49.2972199698
 20
11.137963275
 10
-49.3150027318
 20
11.1347836742
 10
-49.332856922
 20
11.1319467112
 10
-49.35076487
 20
11.1294397773
 10
-49.3687089053
 20
11.1272502636
 10
-49.3866713576
 20
11.1253655612
 10
-49.4046345562
 20
11.1237730611
 10
-49.4225808308
 20
11.1224601547
 10
-49.4404925108
 20
11.1214142329
 10
-49.4583519259
 20
11.120622687
 10
-49.4761414054
 20
11.120072908
 10
-49.4938432791
 20
11.1197522871
 10
-49.5114398764
 20
11.1196482155
  0
LWPOLYLINE
  5
3B4
100
AcDbEntity
  8
0
100
AcDbPolyline
 62
7
  6
CONTINUOUS
 90
3
 70
0
 43
0.3500000006
 10
-38.4715969849
 20
34.535712204
 10
-38.5430281677
 20
34.3214277191
 10
-38.6858814697
 20
34.0357120514
  0
LINE
  5
3B5
100
AcDbEntity
  8
CURVE
100
AcDbLine
 62
250
  6
CONTINUOUS
 10
-46.9534070091
 20
10.0357141793
 11
-47.1676274868
 21
9.8214284778
  0
LINE
  5
3B6
100
AcDbEntity
  8
CURVE
100
AcDbLine
 62
250
  6
CONTINUOUS
 10
-47.5960683527
 20
9.285714224
 11
-47.8102887857
 21
9.0714285225
  0
LINE
  5
3B7
100
AcDbEntity
  8
CURVE
100
AcDbLine
 62
250
  6
CONTINUOUS
 10
-46.5249661208
 20
8.7499999367
 11
-46.3107456654
 21
8.9642856494
  0
LINE
  5
3B8
100
AcDbEntity
  8
CURVE
100
AcDbLine
 62
7
  6
CONTINUOUS
 10
-50.5904252554
 20
7.4264434516
 11
-50.4087111316
 21
7.6081575754
  0
LINE
  5
3B9
100
AcDbEntity
  8
CURVE
100
AcDbLine
 62
7
  6
CONTINUOUS
 10
-49.7197632335
 20
8.2971054735
 11
-49.5504346182
 21
8.4664340888
  0
LINE
  5
3BA
100
AcDbEntity
  8
CURVE
100
AcDbLine
 62
7
  6
CONTINUOUS
 10
-48.875308707
 20
9.14156
 11
-48.7909675129
 21
9.2259011941
  0
LINE
  5
3BB
100
AcDbEntity
  8
CURVE
100
AcDbLine
 62
7
  6
CONTINUOUS
 10
-50.4788451542
 20
7.3280128388
 11
-50.0954092057
 21
7.7114487873
  0
LINE
  5
3BC
100
AcDbEntity
  8
CURVE
100
AcDbLine
 62
7
  6
CONTINUOUS
 10
-49.5622017021
 20
8.2446562909
 11
-49.3955436711
 21
8.4113143219
  0
LINE
  5
3BD
100
AcDbEntity
  8
CURVE
100
AcDbLine
 62
7
  6
CONTINUOUS
 10
-50.5904302539
 20
7.0064170251
 11
-50.519960279
 21
7.076887
  0
LINE
  5
3BE
100
AcDbEntity
  8
CURVE
100
AcDbLine
 62
7
  6
CONTINUOUS
 10
-50.1542308672
 20
7.4426164118
 11
-49.7821072799
 21
7.8147399991
  0
LINE
  5
3BF
100
AcDbEntity
  8
CURVE
100
AcDbLine
 62
7
  6
CONTINUOUS
 10
-49.4046401707
 20
8.1922071083
 11
-49.2406527241
 21
8.3561945549
  0
LINE
  5
3C0
100
AcDbEntity
  8
CURVE
100
AcDbLine
 62
7
  6
CONTINUOUS
 10
-50.5904302539
 20
6.7964063111
 11
-50.3888126826
 21
6.9980238824
  0
LINE
  5
3C1
100
AcDbEntity
  8
CURVE
100
AcDbLine
 62
7
  6
CONTINUOUS
 10
-49.8296165802
 20
7.5572199848
 11
-49.468805354
 21
7.918031211
  0
LINE
  5
3C2
100
AcDbEntity
  8
CURVE
100
AcDbLine
 62
7
  6
CONTINUOUS
 10
-49.2470786393
 20
8.1397579257
 11
-49.085761777
 21
8.301074788
  0
LINE
  5
3C3
100
AcDbEntity
  8
CURVE
100
AcDbLine
 62
7
  6
CONTINUOUS
 10
-50.5904302539
 20
6.5863955971
 11
-50.3888126826
 21
6.7880131684
  0
LINE
  5
3C4
100
AcDbEntity
  8
CURVE
100
AcDbLine
 62
7
  6
CONTINUOUS
 10
-49.5050022931
 20
7.6718235578
 11
-49.1555034281
 21
8.0213224229
  0
LINE
  5
3C5
100
AcDbEntity
  8
CURVE
100
AcDbLine
 62
7
  6
CONTINUOUS
 10
-49.0895171078
 20
8.0873087431
 11
-48.9308708299
 21
8.2459550211
  0
LINE
  5
3C6
100
AcDbEntity
  8
CURVE
100
AcDbLine
 62
7
  6
CONTINUOUS
 10
-50.5904302539
 20
6.3763848831
 11
-50.3888126826
 21
6.5780024544
  0
LINE
  5
3C7
100
AcDbEntity
  8
CURVE
100
AcDbLine
 62
7
  6
CONTINUOUS
 10
-49.1803880061
 20
7.7864271309
 11
-48.7909625144
 21
8.1758526225
  0
LINE
  5
3C8
100
AcDbEntity
  8
CURVE
100
AcDbLine
 62
7
  6
CONTINUOUS
 10
-50.5904302539
 20
6.1663741691
 11
-50.3888126826
 21
6.3679917404
  0
LINE
  5
3C9
100
AcDbEntity
  8
CURVE
100
AcDbLine
 62
7
  6
CONTINUOUS
 10
-49.8167119898
 20
6.9400924332
 11
-49.7479864229
 21
7.008818
  0
LINE
  5
3CA
100
AcDbEntity
  8
CURVE
100
AcDbLine
 62
7
  6
CONTINUOUS
 10
-48.8557737191
 20
7.9010307039
 11
-48.7909625144
 21
7.9658419085
  0
LINE
  5
3CB
100
AcDbEntity
  8
CURVE
100
AcDbLine
 62
7
  6
CONTINUOUS
 10
-50.5904302539
 20
5.9563634551
 11
-50.3888126826
 21
6.1579810264
  0
LINE
  5
3CC
100
AcDbEntity
  8
CURVE
100
AcDbLine
 62
7
  6
CONTINUOUS
 10
-49.8167119898
 20
6.7300817191
 11
-49.6150774237
 21
6.9317162853
  0
LINE
  5
3CD
100
AcDbEntity
  8
CURVE
100
AcDbLine
 62
7
  6
CONTINUOUS
 10
-50.5027679949
 20
5.834015
 11
-50.2632569949
 21
6.073526
  0
LINE
  5
3CE
100
AcDbEntity
  8
CURVE
100
AcDbLine
 62
7
  6
CONTINUOUS
 10
-49.8167119898
 20
6.5200710051
 11
-49.6150774237
 21
6.7217055713
  0
LINE
  5
3CF
100
AcDbEntity
  8
CURVE
100
AcDbLine
 62
7
  6
CONTINUOUS
 10
-50.2927572809
 20
5.834015
 11
-50.0532462809
 21
6.073526
  0
LINE
  5
3D0
100
AcDbEntity
  8
CURVE
100
AcDbLine
 62
7
  6
CONTINUOUS
 10
-49.8167119898
 20
6.3100602911
 11
-49.6150774237
 21
6.5116948572
  0
LINE
  5
3D1
100
AcDbEntity
  8
CURVE
100
AcDbLine
 62
7
  6
CONTINUOUS
 10
-50.5904302539
 20
5.326331313
 11
-50.5843745669
 21
5.332387
  0
LINE
  5
3D2
100
AcDbEntity
  8
CURVE
100
AcDbLine
 62
7
  6
CONTINUOUS
 10
-50.0827465669
 20
5.834015
 11
-49.8432355669
 21
6.073526
  0
LINE
  5
3D3
100
AcDbEntity
  8
CURVE
100
AcDbLine
 62
7
  6
CONTINUOUS
 10
-49.8167119898
 20
6.1000495771
 11
-49.6150774237
 21
6.3016841432
  0
LINE
  5
3D4
100
AcDbEntity
  8
CURVE
100
AcDbLine
 62
7
  6
CONTINUOUS
 10
-48.9925850842
 20
6.9241764827
 11
-48.8323155669
 21
7.084446
  0
LINE
  5
3D5
100
AcDbEntity
  8
CURVE
100
AcDbLine
 62
7
  6
CONTINUOUS
 10
-50.5904302539
 20
5.116320599
 11
-50.3743638529
 21
5.332387
  0
LINE
  5
3D6
100
AcDbEntity
  8
CURVE
100
AcDbLine
 62
7
  6
CONTINUOUS
 10
-49.8727358529
 20
5.834015
 11
-49.6150774237
 21
6.0916734292
  0
LINE
  5
3D7
100
AcDbEntity
  8
CURVE
100
AcDbLine
 62
7
  6
CONTINUOUS
 10
-48.9925850842
 20
6.7141657687
 11
-48.7909675129
 21
6.91578334
  0
LINE
  5
3D8
100
AcDbEntity
  8
CURVE
100
AcDbLine
 62
7
  6
CONTINUOUS
 10
-50.3912521389
 20
5.105488
 11
-50.1643531389
 21
5.332387
  0
LINE
  5
3D9
100
AcDbEntity
  8
CURVE
100
AcDbLine
 62
7
  6
CONTINUOUS
 10
-49.6627251389
 20
5.834015
 11
-49.4232141389
 21
6.073526
  0
LINE
  5
3DA
100
AcDbEntity
  8
CURVE
100
AcDbLine
 62
7
  6
CONTINUOUS
 10
-48.9925850842
 20
6.5041550547
 11
-48.7909675129
 21
6.705772626
  0
LINE
  5
3DB
100
AcDbEntity
  8
CURVE
100
AcDbLine
 62
7
  6
CONTINUOUS
 10
-50.1812414249
 20
5.105488
 11
-49.9543424249
 21
5.332387
  0
LINE
  5
3DC
100
AcDbEntity
  8
CURVE
100
AcDbLine
 62
7
  6
CONTINUOUS
 10
-49.4527144249
 20
5.834015
 11
-49.2132034249
 21
6.073526
  0
LINE
  5
3DD
100
AcDbEntity
  8
CURVE
100
AcDbLine
 62
7
  6
CONTINUOUS
 10
-48.9925850842
 20
6.2941443407
 11
-48.7909675129
 21
6.495761912
  0
LINE
  5
3DE
100
AcDbEntity
  8
CURVE
100
AcDbLine
 62
7
  6
CONTINUOUS
 10
-49.9712307108
 20
5.105488
 11
-49.7443317108
 21
5.332387
  0
LINE
  5
3DF
100
AcDbEntity
  8
CURVE
100
AcDbLine
 62
7
  6
CONTINUOUS
 10
-49.2427037108
 20
5.834015
 11
-49.0031927108
 21
6.073526
  0
LINE
  5
3E0
100
AcDbEntity
  8
CURVE
100
AcDbLine
 62
7
  6
CONTINUOUS
 10
-48.9925850842
 20
6.0841336267
 11
-48.7909675129
 21
6.285751198
  0
LINE
  5
3E1
100
AcDbEntity
  8
CURVE
100
AcDbLine
 62
7
  6
CONTINUOUS
 10
-49.7612199968
 20
5.105488
 11
-49.5343209968
 21
5.332387
  0
LINE
  5
3E2
100
AcDbEntity
  8
CURVE
100
AcDbLine
 62
7
  6
CONTINUOUS
 10
-49.0326929968
 20
5.834015
 11
-48.7909675129
 21
6.0757404839
  0
LINE
  5
3E3
100
AcDbEntity
  8
CURVE
100
AcDbLine
 62
7
  6
CONTINUOUS
 10
-50.5904302539
 20
4.066267029
 11
-50.3442383109
 21
4.3124589719
  0
LINE
  5
3E4
100
AcDbEntity
  8
CURVE
100
AcDbLine
 62
7
  6
CONTINUOUS
 10
-49.5512092828
 20
5.105488
 11
-49.3243102828
 21
5.332387
  0
LINE
  5
3E5
100
AcDbEntity
  8
CURVE
100
AcDbLine
 62
7
  6
CONTINUOUS
 10
-48.8226822828
 20
5.834015
 11
-48.7909675129
 21
5.8657297699
  0
LINE
  5
3E6
100
AcDbEntity
  8
CURVE
100
AcDbLine
 62
7
  6
CONTINUOUS
 10
-50.5487825688
 20
3.897904
 11
-49.7448948489
 21
4.7017917199
  0
LINE
  5
3E7
100
AcDbEntity
  8
CURVE
100
AcDbLine
 62
7
  6
CONTINUOUS
 10
-49.3411985688
 20
5.105488
 11
-49.1142995688
 21
5.332387
  0
LINE
  5
3E8
100
AcDbEntity
  8
CURVE
100
AcDbLine
 62
7
  6
CONTINUOUS
 10
-50.3387718548
 20
3.897904
 11
-50.1072703337
 21
4.129405521
  0
LINE
  5
3E9
100
AcDbEntity
  8
CURVE
100
AcDbLine
 62
7
  6
CONTINUOUS
 10
-49.8674376944
 20
4.3692381604
 11
-49.145551387
 21
5.0911244678
  0
LINE
  5
3EA
100
AcDbEntity
  8
CURVE
100
AcDbLine
 62
7
  6
CONTINUOUS
 10
-49.1311878548
 20
5.105488
 11
-48.9042888548
 21
5.332387
  0
LINE
  5
3EB
100
AcDbEntity
  8
0
100
AcDbLine
 62
250
  6
CONTINUOUS
 10
-65.848589762
 20
-21.0183142305
 11
-65.8459150941
 21
-21.0181637394
  0
LWPOLYLINE
  5
3EC
100
AcDbEntity
  8
RACCORDO
100
AcDbPolyline
 62
250
  6
CONTINUOUS
 90
3
 70
0
 10
-56.7905546387
 20
-18.2308351883
 10
-56.540602219
 20
-18.2189802426
 10
-55.2905546387
 20
-18.1595749722
  0
LINE
  5
3ED
100
AcDbEntity
  8
RACCORDO
100
AcDbLine
 62
7
  6
CONTINUOUS
 10
-56.7905546387
 20
-18.3006924196
 11
-55.2905546387
 21
-18.2298208395
  0
LINE
  5
3EE
100
AcDbEntity
  8
0
100
AcDbLine
 62
250
  6
CONTINUOUS
 10
-65.8459150941
 20
-21.0181637394
 11
-65.5100309147
 21
-21.0037221554
  0
LWPOLYLINE
  5
3EF
100
AcDbEntity
  8
0
100
AcDbPolyline
 62
250
  6
CONTINUOUS
 90
3
 70
0
 10
-65.5100309147
 20
-21.0037221554
 10
-65.409343744
 20
-20.9994689572
 10
-65.3577579407
 20
-20.9972959167
  0
LINE
  5
3F0
100
AcDbEntity
  8
RACCORDO
100
AcDbLine
 62
7
  6
CONTINUOUS
 10
-55.2905546387
 20
-19.0
 11
-24.8731022322
 21
-18.4690613933
  0
LINE
  5
3F1
100
AcDbEntity
  8
ASSI
100
AcDbLine
 62
7
  6
CONTINUOUS
 10
-55.2905546387
 20
-19.0
 11
-24.8731022322
 21
-18.4690613933
  0
LINE
  5
3F2
100
AcDbEntity
  8
RACCORDO
100
AcDbLine
 62
250
  6
CONTINUOUS
 10
-55.2905546387
 20
-17.0643546451
 11
-56.7905546387
 21
-17.0730014938
  0
LINE
  5
3F3
100
AcDbEntity
  8
DRAFT
100
AcDbLine
 62
7
  6
CONTINUOUS
 10
-47.4218858061
 20
-19.0686688326
 11
-56.7905546387
 21
-18.9869096983
  0
LINE
  5
3F4
100
AcDbEntity
  8
CURVE
100
AcDbLine
 62
250
  6
CONTINUOUS
 10
-47.5960683527
 20
-12.8571428061
 11
-47.3818479197
 21
-12.9642857909
  0
LINE
  5
3F5
100
AcDbEntity
  8
CURVE
100
AcDbLine
 62
250
  6
CONTINUOUS
 10
-46.5249661208
 20
-12.321428597
 11
-46.7391865761
 21
-12.2142857909
  0
LINE
  5
3F6
100
AcDbEntity
  8
0
100
AcDbLine
 62
250
  6
CONTINUOUS
 10
-39.3476975014
 20
-14.628571412
 11
-40.0905546387
 21
-14.2571428239
  0
LINE
  5
3F7
100
AcDbEntity
  8
CURVE
100
AcDbLine
 62
250
  6
CONTINUOUS
 10
-42.8118117182
 20
-13.2142857313
 11
-42.3833708522
 21
-13.6428571343
  0
LINE
  5
3F8
100
AcDbEntity
  8
CURVE
100
AcDbLine
 62
250
  6
CONTINUOUS
 10
-41.3122685979
 20
-14.4642857015
 11
-41.5264890532
 21
-14.25
  0
LINE
  5
3F9
100
AcDbEntity
  8
CURVE
100
AcDbLine
 62
250
  6
CONTINUOUS
 10
-47.8102887857
 20
-6.7857141495
 11
-47.5960683527
 21
-6.9999997616
  0
LINE
  5
3FA
100
AcDbEntity
  8
CURVE
100
AcDbLine
 62
250
  6
CONTINUOUS
 10
-46.5249661208
 20
-7.5357141495
 11
-46.3107456654
 21
-7.7499997616
  0
LINE
  5
3FB
100
AcDbEntity
  8
CURVE
100
AcDbLine
 62
250
  6
CONTINUOUS
 10
-46.8820001981
 20
-10.2499998808
 11
-46.7748899816
 21
-10.5
  0
LINE
  5
3FC
100
AcDbEntity
  8
CURVE
100
AcDbLine
 62
250
  6
CONTINUOUS
 10
-46.7748899816
 20
-9.6785713434
 11
-46.6677797428
 21
-9.9642856121
  0
LINE
  5
3FD
100
AcDbEntity
  8
CURVE
100
AcDbLine
 62
250
  6
CONTINUOUS
 10
-46.9534070091
 20
10.5
 11
-46.9534070091
 21
10.0357141793
  0
LINE
  5
3FE
100
AcDbEntity
  8
CURVE
100
AcDbLine
 62
250
  6
CONTINUOUS
 10
-46.8462967926
 20
-5.2857141495
 11
-46.8462967926
 21
-5.928571701
  0
LINE
  5
3FF
100
AcDbEntity
  8
DRAFT
100
AcDbLine
 62
7
  6
CONTINUOUS
 10
-46.7905546387
 20
19.9483339502
 11
-46.7905546387
 21
19.7
  0
LINE
  5
400
100
AcDbEntity
  8
DRAFT
100
AcDbLine
 62
7
  6
CONTINUOUS
 10
-46.7905546387
 20
-19.7
 11
-46.7905546387
 21
-19.9483339502
  0
LINE
  5
401
100
AcDbEntity
  8
CURVE
100
AcDbLine
 62
250
  6
CONTINUOUS
 10
-46.3107456654
 20
11.5357142687
 11
-46.3107456654
 21
10.9999998808
  0
LINE
  5
402
100
AcDbEntity
  8
CURVE
100
AcDbLine
 62
250
  6
CONTINUOUS
 10
-46.3107456654
 20
-0.678571701
 11
-46.3107456654
 21
-1.3214292526
  0
LINE
  5
403
100
AcDbEntity
  8
CURVE
100
AcDbLine
 62
250
  6
CONTINUOUS
 10
-46.3107456654
 20
-4.3214285374
 11
-46.3107456654
 21
-4.6428573132
  0
LINE
  5
404
100
AcDbEntity
  8
CURVE
100
AcDbLine
 62
250
  6
CONTINUOUS
 10
-46.3107456654
 20
-7.7499997616
 11
-46.3107456654
 21
-8.178571701
  0
LINE
  5
405
100
AcDbEntity
  8
CURVE
100
AcDbLine
 62
250
  6
CONTINUOUS
 10
-46.3107456654
 20
-14.1428571045
 11
-46.3107456654
 21
-13.3928571939
  0
LINE
  5
406
100
AcDbEntity
  8
CURVE
100
AcDbLine
 62
250
  6
CONTINUOUS
 10
-46.3107456654
 20
-12.6428571939
 11
-46.3107456654
 21
-12.5357142091
  0
LINE
  5
407
100
AcDbEntity
  8
CURVE
100
AcDbLine
 62
250
  6
CONTINUOUS
 10
-46.3107456654
 20
-6.7857141495
 11
-46.3107456654
 21
-6.678571701
  0
LINE
  5
408
100
AcDbEntity
  8
CURVE
100
AcDbLine
 62
250
  6
CONTINUOUS
 10
-46.3107456654
 20
-3.3571429253
 11
-46.3107456654
 21
-3.2499997616
  0
LINE
  5
409
100
AcDbEntity
  8
CURVE
100
AcDbLine
 62
250
  6
CONTINUOUS
 10
-46.3107456654
 20
8.9642856494
 11
-46.3107456654
 21
9.0714285225
  0
LINE
  5
40A
100
AcDbEntity
  8
CURVE
100
AcDbLine
 62
250
  6
CONTINUOUS
 10
-45.3110502519
 20
-14.4642857015
 11
-45.3110502519
 21
-14.7857142761
  0
LINE
  5
40B
100
AcDbEntity
  8
CURVE
100
AcDbLine
 62
250
  6
CONTINUOUS
 10
-44.668388953
 20
-14.4642857015
 11
-44.668388953
 21
-14.7857142761
  0
LINE
  5
40C
100
AcDbEntity
  8
CURVE
100
AcDbLine
 62
250
  6
CONTINUOUS
 10
-44.2399480423
 20
-11.8571426868
 11
-44.2399480423
 21
-12.428571403
  0
LINE
  5
40D
100
AcDbEntity
  8
CURVE
100
AcDbLine
 62
7
  6
CONTINUOUS
 10
-50.1287611408
 20
3.897904
 11
-49.8979940678
 21
4.1286710729
  0
LINE
  5
40E
100
AcDbEntity
  8
CURVE
100
AcDbLine
 62
7
  6
CONTINUOUS
 10
-49.2654013501
 20
4.7612637906
 11
-48.7909675129
 21
5.2356976279
  0
LINE
  5
40F
100
AcDbEntity
  8
CURVE
100
AcDbLine
 62
7
  6
CONTINUOUS
 10
-49.9187504268
 20
3.897904
 11
-49.6887178019
 21
4.1279366248
  0
LINE
  5
410
100
AcDbEntity
  8
CURVE
100
AcDbLine
 62
7
  6
CONTINUOUS
 10
-49.7087397128
 20
3.897904
 11
-49.479441536
 21
4.1272021767
  0
LINE
  5
411
100
AcDbEntity
  8
CURVE
100
AcDbLine
 62
7
  6
CONTINUOUS
 10
-49.4987289987
 20
3.897904
 11
-49.2701652701
 21
4.1264677286
  0
LINE
  5
412
100
AcDbEntity
  8
CURVE
100
AcDbLine
 62
7
  6
CONTINUOUS
 10
-49.2887182847
 20
3.897904
 11
-49.0608890042
 21
4.1257332805
  0
LINE
  5
413
100
AcDbEntity
  8
CURVE
100
AcDbLine
 62
7
  6
CONTINUOUS
 10
-49.0787075707
 20
3.897904
 11
-48.8516127383
 21
4.1249988324
  0
LINE
  5
414
100
AcDbEntity
  8
CURVE
100
AcDbLine
 62
7
  6
CONTINUOUS
 10
-48.8686968567
 20
3.897904
 11
-48.7909675129
 21
3.9756333438
  0
LINE
  5
415
100
AcDbEntity
  8
CURVE
100
AcDbLine
 62
250
  6
CONTINUOUS
 10
-48.7909675129
 20
5.070199
 11
-50.2350615273
 21
4.129854
  0
LINE
  5
416
100
AcDbEntity
  8
CURVE
100
AcDbLine
 62
250
  6
CONTINUOUS
 10
-50.5904302539
 20
4.152533
 11
-49.1311878548
 21
5.100455
  0
LINE
  5
417
100
AcDbEntity
  8
CURVE
100
AcDbLine
 62
250
  6
CONTINUOUS
 10
-47.3818479197
 20
9.3928570747
 11
-47.5960683527
 21
9.285714224
  0
LINE
  5
418
100
AcDbEntity
  8
CURVE
100
AcDbLine
 62
250
  6
CONTINUOUS
 10
-46.7391865761
 20
8.6428570747
 11
-46.5249661208
 21
8.7499999367
  0
LINE
  5
419
100
AcDbEntity
  8
RACCORDO
100
AcDbLine
 62
250
  6
CONTINUOUS
 10
-55.2905546387
 20
-15.500533067
 11
-24.8731022322
 21
-14.9695944602
  0
LINE
  5
41A
100
AcDbEntity
  8
ASSI
100
AcDbLine
 62
250
  6
CONTINUOUS
 10
-55.2905546387
 20
-15.500533067
 11
-24.8731022322
 21
-14.9695944602
  0
LINE
  5
41B
100
AcDbEntity
  8
RACCORDO
100
AcDbLine
 62
250
  6
CONTINUOUS
 10
-55.2905546387
 20
-16.4544358981
 11
-56.7905546387
 21
-16.4633443083
  0
LINE
  5
41C
100
AcDbEntity
  8
CURVE
100
AcDbLine
 62
250
  6
CONTINUOUS
 10
-44.4541684753
 20
-15.0
 11
-44.025727587
 21
-15.0
  0
LINE
  5
41D
100
AcDbEntity
  8
CURVE
100
AcDbLine
 62
250
  6
CONTINUOUS
 10
-42.8118117182
 20
-15.0
 11
-41.3122685979
 21
-15.0
  0
LINE
  5
41E
100
AcDbEntity
  8
0
100
AcDbLine
 62
250
  6
CONTINUOUS
 10
-38.7905546387
 20
-15.0
 11
-40.0905546387
 21
-15.0
  0
LINE
  5
41F
100
AcDbEntity
  8
RACCORDO
100
AcDbLine
 62
250
  6
CONTINUOUS
 10
-23.8905546387
 20
-14.9695944602
 11
-24.8731022311
 21
-14.969594292
  0
LINE
  5
420
100
AcDbEntity
  8
ASSI
100
AcDbLine
 62
250
  6
CONTINUOUS
 10
-23.8905546387
 20
-14.9695944602
 11
-24.8731022311
 21
-14.969594292
  0
LINE
  5
421
100
AcDbEntity
  8
CURVE
100
AcDbLine
 62
250
  6
CONTINUOUS
 10
-45.096829819
 20
-14.9285714272
 11
-44.7754991248
 21
-14.9285714272
  0
LINE
  5
422
100
AcDbEntity
  8
0
100
AcDbLine
 62
250
  6
CONTINUOUS
 10
-30.2905546387
 20
-14.592362
 11
-31.3094114382
 21
-14.592362
  0
LINE
  5
423
100
AcDbEntity
  8
CURVE
100
AcDbLine
 62
250
  6
CONTINUOUS
 10
-46.3107456654
 20
-14.5714285523
 11
-47.8102887857
 21
-14.5714285523
  0
LINE
  5
424
100
AcDbEntity
  8
CURVE
100
AcDbLine
 62
250
  6
CONTINUOUS
 10
-44.7754991248
 20
-14.3214285672
 11
-45.096829819
 21
-14.3214285672
  0
LINE
  5
425
100
AcDbEntity
  8
0
100
AcDbLine
 62
250
  6
CONTINUOUS
 10
-40.0905546387
 20
-14.2571428239
 11
-38.7905546387
 21
-14.2571428239
  0
LINE
  5
426
100
AcDbEntity
  8
CURVE
100
AcDbLine
 62
250
  6
CONTINUOUS
 10
-41.5264890532
 20
-14.25
 11
-42.5975912852
 21
-14.25
  0
LINE
  5
427
100
AcDbEntity
  8
CURVE
100
AcDbLine
 62
250
  6
CONTINUOUS
 10
-44.025727587
 20
-14.25
 11
-44.4541684753
 21
-14.25
  0
LINE
  5
428
100
AcDbEntity
  8
RACCORDO
100
AcDbLine
 62
7
  6
CONTINUOUS
 10
-23.8905546387
 20
-15.7
 11
-23.6957903606
 21
-15.7033996231
  0
LINE
  5
429
100
AcDbEntity
  8
ASSI
100
AcDbLine
 62
7
  6
CONTINUOUS
 10
-23.8905546387
 20
-15.7
 11
-23.6957903606
 21
-15.7033996231
  0
LINE
  5
42A
100
AcDbEntity
  8
CURVE
100
AcDbLine
 62
250
  6
CONTINUOUS
 10
-45.3110502519
 20
-12.9642857909
 11
-43.8115071317
 21
-13.3928571939
  0
LINE
  5
42B
100
AcDbEntity
  8
CURVE
100
AcDbLine
 62
250
  6
CONTINUOUS
 10
-45.3110502519
 20
-12.1428571343
 11
-43.8115071317
 21
-12.5714285374
  0
LINE
  5
42C
100
AcDbEntity
  8
0
100
AcDbLine
 62
250
  6
CONTINUOUS
 10
-38.7905546387
 20
-13.8857142746
 11
-40.0905546387
 21
-13.5142856479
  0
LINE
  5
42D
100
AcDbEntity
  8
CURVE
100
AcDbLine
 62
250
  6
CONTINUOUS
 10
-47.8102887857
 20
-10.9285715818
 11
-46.3107456654
 21
-11.3571428061
  0
LINE
  5
42E
100
AcDbEntity
  8
CURVE
100
AcDbLine
 62
250
  6
CONTINUOUS
 10
-42.062040158
 20
-10.5714286566
 11
-42.490481024
 21
-10.3571426868
  0
LINE
  5
42F
100
AcDbEntity
  8
CURVE
100
AcDbLine
 62
250
  6
CONTINUOUS
 10
-47.5960683527
 20
-6.9999997616
 11
-47.3818479197
 21
-7.1071429253
  0
LINE
  5
430
100
AcDbEntity
  8
CURVE
100
AcDbLine
 62
250
  6
CONTINUOUS
 10
-41.3479720062
 20
-11.7142857313
 11
-42.6689980962
 21
-10.8571429253
  0
LINE
  5
431
100
AcDbEntity
  8
0
100
AcDbLine
 62
250
  6
CONTINUOUS
 10
-38.9762689327
 20
-12.1214287043
 11
-38.7905546387
 21
-12.3071429014
  0
LINE
  5
432
100
AcDbEntity
  8
CURVE
100
AcDbLine
 62
250
  6
CONTINUOUS
 10
-41.5264890532
 20
-12.1428571343
 11
-41.3122685979
 21
-12.3571429253
  0
LINE
  5
433
100
AcDbEntity
  8
CURVE
100
AcDbLine
 62
250
  6
CONTINUOUS
 10
-46.3107456654
 20
-6.678571701
 11
-46.5249661208
 21
-6.4642853737
  0
LINE
  5
434
100
AcDbEntity
  8
CURVE
100
AcDbLine
 62
250
  6
CONTINUOUS
 10
-42.490481024
 20
-10.3571426868
 11
-42.8118117182
 21
-10.0357142687
  0
LINE
  5
435
100
AcDbEntity
  8
CURVE
100
AcDbLine
 62
250
  6
CONTINUOUS
 10
-47.4889580915
 20
-4.6428573132
 11
-47.8102887857
 21
-4.3214285374
  0
LINE
  5
436
100
AcDbEntity
  8
CURVE
100
AcDbLine
 62
250
  6
CONTINUOUS
 10
-42.8118117182
 20
-9.0714286566
 11
-42.5975912852
 21
-9.2857142687
  0
LINE
  5
437
100
AcDbEntity
  8
CURVE
100
AcDbLine
 62
250
  6
CONTINUOUS
 10
-41.5264890532
 20
-9.8214286566
 11
-41.3122685979
 21
-10.0357142687
  0
LINE
  5
438
100
AcDbEntity
  8
CURVE
100
AcDbLine
 62
250
  6
CONTINUOUS
 10
-47.8102887857
 20
-3.3571429253
 11
-47.5960683527
 21
-3.5714285374
  0
LINE
  5
439
100
AcDbEntity
  8
CURVE
100
AcDbLine
 62
250
  6
CONTINUOUS
 10
-46.5249661208
 20
-4.1071429253
 11
-46.3107456654
 21
-4.3214285374
  0
LINE
  5
43A
100
AcDbEntity
  8
CURVE
100
AcDbLine
 62
250
  6
CONTINUOUS
 10
-42.3833708522
 20
-8.1071426868
 11
-42.276260591
 21
-8.2142858505
  0
LINE
  5
43B
100
AcDbEntity
  8
CURVE
100
AcDbLine
 62
250
  6
CONTINUOUS
 10
-41.3122685979
 20
-8.9642858505
 11
-41.5264890532
 21
-8.7500002384
  0
LINE
  5
43C
100
AcDbEntity
  8
CURVE
100
AcDbLine
 62
250
  6
CONTINUOUS
 10
-43.8115071317
 20
-14.7857142761
 11
-43.8115071317
 21
-14.4642857015
  0
LINE
  5
43D
100
AcDbEntity
  8
CURVE
100
AcDbLine
 62
250
  6
CONTINUOUS
 10
-42.8118117182
 20
-8.9642858505
 11
-42.8118117182
 21
-9.0714286566
  0
LINE
  5
43E
100
AcDbEntity
  8
CURVE
100
AcDbLine
 62
250
  6
CONTINUOUS
 10
-42.8118117182
 20
-12.1428571343
 11
-42.8118117182
 21
-12.7857143283
  0
LINE
  5
43F
100
AcDbEntity
  8
CURVE
100
AcDbLine
 62
250
  6
CONTINUOUS
 10
-42.8118117182
 20
-14.4642857015
 11
-42.8118117182
 21
-15.0
  0
LINE
  5
440
100
AcDbEntity
  8
CURVE
100
AcDbLine
 62
250
  6
CONTINUOUS
 10
-42.3833708522
 20
-7.6785714626
 11
-42.3833708522
 21
-8.1071426868
  0
LINE
  5
441
100
AcDbEntity
  8
CURVE
100
AcDbLine
 62
250
  6
CONTINUOUS
 10
-42.1691504192
 20
-12.7857143283
 11
-42.1691504192
 21
-12.3571429253
  0
LINE
  5
442
100
AcDbEntity
  8
CURVE
100
AcDbLine
 62
250
  6
CONTINUOUS
 10
-42.1691504192
 20
-10.5
 11
-42.1691504192
 21
-10.0357142687
  0
LINE
  5
443
100
AcDbEntity
  8
CURVE
100
AcDbLine
 62
250
  6
CONTINUOUS
 10
-48.7909625144
 20
7.923912
 11
-50.5904252554
 21
7.28862
  0
LINE
  5
444
100
AcDbEntity
  8
CURVE
100
AcDbLine
 62
250
  6
CONTINUOUS
 10
-50.5904252554
 20
7.548249
 11
-49.0303825681
 21
8.062573
  0
LWPOLYLINE
  5
445
100
AcDbEntity
  8
0
100
AcDbPolyline
 62
250
  6
CONTINUOUS
 90
17
 70
0
 10
-33.2407332437
 20
-11.952892
 10
-33.1790553629
 20
-11.9468435097
 10
-33.1197267735
 20
-11.9289284239
 10
-33.0650072828
 20
-11.8998291227
 10
-33.0161959902
 20
-11.8598714569
 10
-32.9768594196
 20
-11.8119750371
 10
-32.9475737209
 20
-11.7573491201
 10
-32.9294543774
 20
-11.69807439
 10
-32.9231896145
 20
-11.6353
 10
-32.9292371836
 20
-11.5736127239
 10
-32.9471495409
 20
-11.514275097
 10
-32.9762444101
 20
-11.4595472711
 10
-33.0161959902
 20
-11.4107285431
 10
-33.0640851151
 20
-11.3713859804
 10
-33.1187027123
 20
-11.3420958207
 10
-33.1779684145
 20
-11.3239737171
 10
-33.2407332715
 20
-11.317708
  0
LWPOLYLINE
  5
446
100
AcDbEntity
  8
0
100
AcDbPolyline
 62
250
  6
CONTINUOUS
 90
17
 70
0
 10
-33.2407332437
 20
-11.77581
 10
-33.2134455317
 20
-11.7731340089
 10
-33.1871972002
 20
-11.7652079632
 10
-33.1629880399
 20
-11.7523337635
 10
-33.1413928023
 20
-11.7346555738
 10
-33.1239893993
 20
-11.7134650969
 10
-33.1110327332
 20
-11.6892973358
 10
-33.1030163192
 20
-11.6630728329
 10
-33.1002446441
 20
-11.6353
 10
-33.1029202277
 20
-11.6080081313
 10
-33.1108450662
 20
-11.5817558014
 10
-33.123717305
 20
-11.5575429534
 10
-33.1413928023
 20
-11.5359444262
 10
-33.1625800517
 20
-11.5185383722
 10
-33.186744132
 20
-11.5055797324
 10
-33.2129646408
 20
-11.4975620973
 10
-33.240733256
 20
-11.49479
  0
LWPOLYLINE
  5
447
100
AcDbEntity
  8
0
100
AcDbPolyline
 62
250
  6
CONTINUOUS
 90
17
 70
0
 10
-33.2407332437
 20
-11.49479
 10
-33.2680209558
 20
-11.4974659911
 10
-33.2942692873
 20
-11.5053920368
 10
-33.3184784476
 20
-11.5182662365
 10
-33.3400736852
 20
-11.5359444262
 10
-33.3574770882
 20
-11.5571349031
 10
-33.3704337543
 20
-11.5813026642
 10
-33.3784501683
 20
-11.6075271671
 10
-33.3812218434
 20
-11.6353
 10
-33.3785462598
 20
-11.6625918687
 10
-33.3706214213
 20
-11.6888441986
 10
-33.3577491825
 20
-11.7130570466
 10
-33.3400736852
 20
-11.7346555738
 10
-33.3188864358
 20
-11.7520616278
 10
-33.2947223555
 20
-11.7650202676
 10
-33.2685018467
 20
-11.7730379027
 10
-33.2407332315
 20
-11.77581
  0
LINE
  5
448
100
AcDbEntity
  8
0
100
AcDbLine
 62
250
  6
CONTINUOUS
 10
-36.481316612
 20
-13.568876
 11
-33.1196076946
 21
-13.274826
  0
LINE
  5
449
100
AcDbEntity
  8
0
100
AcDbLine
 62
250
  6
CONTINUOUS
 10
-25.1031765521
 20
-13.5333333135
 11
-27.1028719424
 21
-13.5333333135
  0
LINE
  5
44A
100
AcDbEntity
  8
CURVE
100
AcDbLine
 62
250
  6
CONTINUOUS
 10
-47.5960683527
 20
-13.3928571939
 11
-47.3818479197
 21
-13.3928571939
  0
LINE
  5
44B
100
AcDbEntity
  8
0
100
AcDbLine
 62
250
  6
CONTINUOUS
 10
-26.8475917103
 20
-13.2833333135
 11
-25.1031765521
 21
-13.2833333135
  0
LINE
  5
44C
100
AcDbEntity
  8
0
100
AcDbLine
 62
250
  6
CONTINUOUS
 10
-36.481316612
 20
-13.281784
 11
-36.8758745098
 21
-13.281784
  0
LINE
  5
44D
100
AcDbEntity
  8
0
100
AcDbLine
 62
250
  6
CONTINUOUS
 10
-32.9231896145
 20
-13.218117
 11
-33.1196076946
 21
-13.218117
  0
LINE
  5
44E
100
AcDbEntity
  8
CURVE
100
AcDbLine
 62
250
  6
CONTINUOUS
 10
-41.3122685979
 20
-13.2142857313
 11
-42.8118117182
 21
-13.2142857313
  0
LINE
  5
44F
100
AcDbEntity
  8
0
100
AcDbLine
 62
250
  6
CONTINUOUS
 10
-36.8758745098
 20
-13.18241
 11
-36.481316612
 21
-13.18241
  0
LINE
  5
450
100
AcDbEntity
  8
0
100
AcDbLine
 62
250
  6
CONTINUOUS
 10
-33.1196076946
 20
-13.100497
 11
-32.9231896145
 21
-13.100497
  0
LINE
  5
451
100
AcDbEntity
  8
CURVE
100
AcDbLine
 62
250
  6
CONTINUOUS
 10
-47.3818479197
 20
-12.9642857909
 11
-46.7391865761
 21
-12.9642857909
  0
LINE
  5
452
100
AcDbEntity
  8
CURVE
100
AcDbLine
 62
250
  6
CONTINUOUS
 10
-42.8118117182
 20
-12.7857143283
 11
-42.1691504192
 21
-12.7857143283
  0
LINE
  5
453
100
AcDbEntity
  8
0
100
AcDbLine
 62
250
  6
CONTINUOUS
 10
-38.7905546387
 20
-12.7714285493
 11
-40.0905546387
 21
-12.7714285493
  0
LINE
  5
454
100
AcDbEntity
  8
0
100
AcDbLine
 62
250
  6
CONTINUOUS
 10
-35.4380495309
 20
-12.71193
 11
-35.6536526884
 21
-12.71193
  0
LINE
  5
455
100
AcDbEntity
  8
0
100
AcDbLine
 62
250
  6
CONTINUOUS
 10
-36.7513734748
 20
-12.656927
 11
-36.9688343494
 21
-12.656927
  0
LINE
  5
456
100
AcDbEntity
  8
0
100
AcDbLine
 62
250
  6
CONTINUOUS
 10
-53.8378185401
 20
-12.367554
 11
-53.0872272298
 21
-12.367554
  0
LINE
  5
457
100
AcDbEntity
  8
0
100
AcDbLine
 62
250
  6
CONTINUOUS
 10
-49.4938820476
 20
-12.367554
 11
-48.7432907372
 21
-12.367554
  0
LINE
  5
458
100
AcDbEntity
  8
CURVE
100
AcDbLine
 62
250
  6
CONTINUOUS
 10
-46.7391865761
 20
-12.2142857909
 11
-47.3818479197
 21
-12.2142857909
  0
LINE
  5
459
100
AcDbEntity
  8
CURVE
100
AcDbLine
 62
250
  6
CONTINUOUS
 10
-41.9549299415
 20
-12.1428571343
 11
-41.5264890532
 21
-12.1428571343
  0
LINE
  5
45A
100
AcDbEntity
  8
0
100
AcDbLine
 62
250
  6
CONTINUOUS
 10
-39.904840364
 20
-12.1214287043
 11
-38.9762689327
 21
-12.1214287043
  0
LINE
  5
45B
100
AcDbEntity
  8
0
100
AcDbLine
 62
250
  6
CONTINUOUS
 10
-25.4010035194
 20
-12.1166666865
 11
-27.1028719424
 21
-12.1166666865
  0
LINE
  5
45C
100
AcDbEntity
  8
0
100
AcDbLine
 62
250
  6
CONTINUOUS
 10
-36.9682764344
 20
-12.083924
 11
-36.7508155598
 21
-12.083924
  0
LINE
  5
45D
100
AcDbEntity
  8
0
100
AcDbLine
 62
250
  6
CONTINUOUS
 10
-35.6536526884
 20
-11.88859
 11
-35.4380495309
 21
-11.88859
  0
LINE
  5
45E
100
AcDbEntity
  8
0
100
AcDbLine
 62
250
  6
CONTINUOUS
 10
-27.1028719424
 20
-11.8666666865
 11
-25.1031765521
 21
-11.8666666865
  0
LINE
  5
45F
100
AcDbEntity
  8
0
100
AcDbLine
 62
250
  6
CONTINUOUS
 10
-38.7905546387
 20
-11.5952380657
 11
-40.0905546387
 21
-11.5952380657
  0
LINE
  5
460
100
AcDbEntity
  8
0
100
AcDbLine
 62
250
  6
CONTINUOUS
 10
-35.746054613
 20
-11.432113
 11
-36.118461885
 21
-11.432113
  0
LINE
  5
461
100
AcDbEntity
  8
0
100
AcDbLine
 62
250
  6
CONTINUOUS
 10
-33.5576849631
 20
-11.619407
 11
-36.4536466984
 21
-11.3501723524
  0
LINE
  5
462
100
AcDbEntity
  8
CURVE
100
AcDbLine
 62
250
  6
CONTINUOUS
 10
-42.5975912852
 20
-9.2857142687
 11
-42.3833708522
 21
-9.3928570747
  0
LINE
  5
463
100
AcDbEntity
  8
CURVE
100
AcDbLine
 62
250
  6
CONTINUOUS
 10
-46.5249661208
 20
-6.4642853737
 11
-46.7391865761
 21
-6.3571429253
  0
LINE
  5
464
100
AcDbEntity
  8
CURVE
100
AcDbLine
 62
250
  6
CONTINUOUS
 10
-41.5264890532
 20
-8.7500002384
 11
-41.7407095086
 21
-8.6428570747
  0
LINE
  5
465
100
AcDbEntity
  8
CURVE
100
AcDbLine
 62
250
  6
CONTINUOUS
 10
-47.0605172256
 20
-4.8571429253
 11
-47.4889580915
 21
-4.6428573132
  0
LINE
  5
466
100
AcDbEntity
  8
0
100
AcDbLine
 62
250
  6
CONTINUOUS
 10
-32.3799583639
 20
-14.875622
 11
-37.3894732743
 21
-9.93899
  0
LINE
  5
467
100
AcDbEntity
  8
CURVE
100
AcDbLine
 62
250
  6
CONTINUOUS
 10
-46.3107456654
 20
-3.2499997616
 11
-46.5249661208
 21
-3.0357141495
  0
LINE
  5
468
100
AcDbEntity
  8
CURVE
100
AcDbLine
 62
250
  6
CONTINUOUS
 10
-41.4193788256
 20
-7.571428299
 11
-41.3122685979
 21
-7.6785714626
  0
LINE
  5
469
100
AcDbEntity
  8
CURVE
100
AcDbLine
 62
250
  6
CONTINUOUS
 10
-41.3122685979
 20
-7.6785714626
 11
-41.3122685979
 21
-8.1071426868
  0
LINE
  5
46A
100
AcDbEntity
  8
CURVE
100
AcDbLine
 62
250
  6
CONTINUOUS
 10
-41.3122685979
 20
-10.0357142687
 11
-41.3122685979
 21
-10.3571426868
  0
LINE
  5
46B
100
AcDbEntity
  8
CURVE
100
AcDbLine
 62
250
  6
CONTINUOUS
 10
-41.3122685979
 20
-12.3571429253
 11
-41.3122685979
 21
-12.7857143283
  0
LINE
  5
46C
100
AcDbEntity
  8
CURVE
100
AcDbLine
 62
250
  6
CONTINUOUS
 10
-41.3122685979
 20
-15.0
 11
-41.3122685979
 21
-14.4642857015
  0
LINE
  5
46D
100
AcDbEntity
  8
CURVE
100
AcDbLine
 62
250
  6
CONTINUOUS
 10
-41.3122685979
 20
-9.0714286566
 11
-41.3122685979
 21
-8.9642858505
  0
LWPOLYLINE
  5
46E
100
AcDbEntity
  8
0
100
AcDbPolyline
 62
7
  6
CONTINUOUS
 90
2
 70
0
 43
0.3500000006
 10
-40.5430242462
 20
34.2500010681
 10
-40.5430242462
 20
35.7500015259
  0
LINE
  5
46F
100
AcDbEntity
  8
0
100
AcDbLine
 62
250
  6
CONTINUOUS
 10
-40.0905546387
 20
-12.7714285493
 11
-40.0905546387
 21
-12.3071429014
  0
LINE
  5
470
100
AcDbEntity
  8
0
100
AcDbLine
 62
250
  6
CONTINUOUS
 10
-40.0905546387
 20
-11.5952380657
 11
-40.0905546387
 21
-11.0380951643
  0
LINE
  5
471
100
AcDbEntity
  8
0
100
AcDbLine
 62
250
  6
CONTINUOUS
 10
-40.0905546387
 20
-5.9309522629
 11
-40.0905546387
 21
-5.1880954742
  0
LINE
  5
472
100
AcDbEntity
  8
0
100
AcDbLine
 62
250
  6
CONTINUOUS
 10
-39.5334118147
 20
-11.2238096714
 11
-39.5334118147
 21
-11.5952380657
  0
LINE
  5
473
100
AcDbEntity
  8
0
100
AcDbLine
 62
250
  6
CONTINUOUS
 10
-39.1619832267
 20
-13.7619047582
 11
-39.1619832267
 21
-13.266666615
  0
LINE
  5
474
100
AcDbEntity
  8
0
100
AcDbLine
 62
250
  6
CONTINUOUS
 10
-39.1619832267
 20
-4.6928574085
 11
-39.1619832267
 21
-4.1976193428
  0
LINE
  5
475
100
AcDbEntity
  8
0
100
AcDbLine
 62
250
  6
CONTINUOUS
 10
-38.7905546387
 20
-11.0380951643
 11
-38.7905546387
 21
-11.5952380657
  0
LINE
  5
476
100
AcDbEntity
  8
0
100
AcDbLine
 62
250
  6
CONTINUOUS
 10
-38.7905546387
 20
-12.3071429014
 11
-38.7905546387
 21
-12.7714285493
  0
LINE
  5
477
100
AcDbEntity
  8
0
100
AcDbLine
 62
250
  6
CONTINUOUS
 10
-38.7905546387
 20
-3.7023806572
 11
-38.7905546387
 21
-3.2380954742
  0
LINE
  5
478
100
AcDbEntity
  8
CURVE
100
AcDbLine
 62
250
  6
CONTINUOUS
 10
-41.8835231305
 20
-8.1071426868
 11
-41.8121163196
 21
-7.6785714626
  0
LINE
  5
479
100
AcDbEntity
  8
CURVE
100
AcDbLine
 62
250
  6
CONTINUOUS
 10
-47.5960683527
 20
-3.0357141495
 11
-47.8102887857
 21
-3.2499997616
  0
LINE
  5
47A
100
AcDbEntity
  8
CURVE
100
AcDbLine
 62
250
  6
CONTINUOUS
 10
-46.5249661208
 20
-3.5714285374
 11
-46.3107456654
 21
-3.3571429253
  0
LINE
  5
47B
100
AcDbEntity
  8
CURVE
100
AcDbLine
 62
250
  6
CONTINUOUS
 10
-47.1676274868
 20
-4.3214285374
 11
-46.9534070091
 21
-4.1071429253
  0
LINE
  5
47C
100
AcDbEntity
  8
0
100
AcDbLine
 62
7
  6
CONTINUOUS
 10
-53.8342744517
 20
-8.0975071296
 11
-53.7192087962
 21
-7.9824414741
  0
LINE
  5
47D
100
AcDbEntity
  8
0
100
AcDbLine
 62
7
  6
CONTINUOUS
 10
-53.8280044565
 20
-8.3012478484
 11
-53.5091989215
 21
-7.9824423134
  0
LINE
  5
47E
100
AcDbEntity
  8
0
100
AcDbLine
 62
7
  6
CONTINUOUS
 10
-53.8016809192
 20
-8.4849350251
 11
-53.2991890469
 21
-7.9824431528
  0
LINE
  5
47F
100
AcDbEntity
  8
0
100
AcDbLine
 62
7
  6
CONTINUOUS
 10
-53.770798597
 20
-8.6640634169
 11
-53.0891791723
 21
-7.9824439922
  0
LINE
  5
480
100
AcDbEntity
  8
0
100
AcDbLine
 62
7
  6
CONTINUOUS
 10
-53.7227323711
 20
-8.826007905
 11
-53.0857676381
 21
-8.189043172
  0
LINE
  5
481
100
AcDbEntity
  8
0
100
AcDbLine
 62
7
  6
CONTINUOUS
 10
-53.6716896906
 20
-8.9849759385
 11
-53.0642852851
 21
-8.377571533
  0
LINE
  5
482
100
AcDbEntity
  8
0
100
AcDbLine
 62
7
  6
CONTINUOUS
 10
-53.6081620431
 20
-9.131459005
 11
-53.0269577985
 21
-8.5502547604
  0
LINE
  5
483
100
AcDbEntity
  8
0
100
AcDbLine
 62
7
  6
CONTINUOUS
 10
-53.5396803853
 20
-9.2729880613
 11
-52.9765279765
 21
-8.7098356524
  0
LINE
  5
484
100
AcDbEntity
  8
0
100
AcDbLine
 62
7
  6
CONTINUOUS
 10
-53.4641271238
 20
-9.4074455137
 11
-52.9141690591
 21
-8.8574874491
  0
LINE
  5
485
100
AcDbEntity
  8
0
100
AcDbLine
 62
7
  6
CONTINUOUS
 10
-53.3798348609
 20
-9.5331639649
 11
-52.8405633876
 21
-8.9938924916
  0
LINE
  5
486
100
AcDbEntity
  8
0
100
AcDbLine
 62
7
  6
CONTINUOUS
 10
-53.2941846109
 20
-9.6575244289
 11
-52.7576640462
 21
-9.1210038642
  0
LINE
  5
487
100
AcDbEntity
  8
0
100
AcDbLine
 62
7
  6
CONTINUOUS
 10
-53.1949356994
 20
-9.7682862314
 11
-52.6660657503
 21
-9.2394162824
  0
LINE
  5
488
100
AcDbEntity
  8
0
100
AcDbLine
 62
7
  6
CONTINUOUS
 10
-53.0956867879
 20
-9.879048034
 11
-52.566103537
 21
-9.349464783
  0
LINE
  5
489
100
AcDbEntity
  8
0
100
AcDbLine
 62
7
  6
CONTINUOUS
 10
-51.6654403948
 20
-8.4488016409
 11
-51.599082754
 21
-8.382444
  0
LINE
  5
48A
100
AcDbEntity
  8
0
100
AcDbLine
 62
7
  6
CONTINUOUS
 10
-52.9862366841
 20
-9.9796086441
 11
-52.4578926155
 21
-9.4512645755
  0
LINE
  5
48B
100
AcDbEntity
  8
0
100
AcDbLine
 62
7
  6
CONTINUOUS
 10
-51.6654403192
 20
-8.6588122792
 11
-51.38907204
 21
-8.382444
  0
LINE
  5
48C
100
AcDbEntity
  8
0
100
AcDbLine
 62
7
  6
CONTINUOUS
 10
-52.8722591835
 20
-10.0756418575
 11
-52.3402179977
 21
-9.5436006717
  0
LINE
  5
48D
100
AcDbEntity
  8
0
100
AcDbLine
 62
7
  6
CONTINUOUS
 10
-51.6654402436
 20
-8.8688229176
 11
-51.179061326
 21
-8.382444
  0
LINE
  5
48E
100
AcDbEntity
  8
0
100
AcDbLine
 62
7
  6
CONTINUOUS
 10
-52.7537603082
 20
-10.1671536962
 11
-52.2127145629
 21
-9.626107951
  0
LINE
  5
48F
100
AcDbEntity
  8
0
100
AcDbLine
 62
7
  6
CONTINUOUS
 10
-51.6654401679
 20
-9.078833556
 11
-50.9690506119
 21
-8.382444
  0
LINE
  5
490
100
AcDbEntity
  8
0
100
AcDbLine
 62
7
  6
CONTINUOUS
 10
-52.6246939001
 20
-10.2480980022
 11
-52.0760438349
 21
-9.699447937
  0
LINE
  5
491
100
AcDbEntity
  8
0
100
AcDbLine
 62
7
  6
CONTINUOUS
 10
-51.6654400923
 20
-9.2888441943
 11
-50.9156688586
 21
-8.5390729607
  0
LINE
  5
492
100
AcDbEntity
  8
0
100
AcDbLine
 62
7
  6
CONTINUOUS
 10
-52.4956274921
 20
-10.3290423081
 11
-51.9293366864
 21
-9.7627515025
  0
LINE
  5
493
100
AcDbEntity
  8
0
100
AcDbLine
 62
7
  6
CONTINUOUS
 10
-51.6654400166
 20
-9.4988548327
 11
-50.9156688586
 21
-8.7490836747
  0
LINE
  5
494
100
AcDbEntity
  8
0
100
AcDbLine
 62
7
  6
CONTINUOUS
 10
-52.3511280683
 20
-10.3945535984
 11
-51.7713006998
 21
-9.8147262299
  0
LINE
  5
495
100
AcDbEntity
  8
0
100
AcDbLine
 62
7
  6
CONTINUOUS
 10
-51.665439941
 20
-9.7088654711
 11
-50.9156688586
 21
-8.9590943887
  0
LWPOLYLINE
  5
496
100
AcDbEntity
  8
0
100
AcDbPolyline
 62
250
  6
CONTINUOUS
 90
17
 70
0
 10
-33.2407332437
 20
-11.317708
 10
-33.3024111245
 20
-11.3237564903
 10
-33.361739714
 20
-11.3416715761
 10
-33.4164592047
 20
-11.3707708773
 10
-33.4652704973
 20
-11.4107285431
 10
-33.5046070679
 20
-11.4586249629
 10
-33.5338927666
 20
-11.5132508799
 10
-33.5520121101
 20
-11.57252561
 10
-33.5582768729
 20
-11.6353
 10
-33.5522293039
 20
-11.6969872761
 10
-33.5343169466
 20
-11.756324903
 10
-33.5052220774
 20
-11.8110527289
 10
-33.4652704973
 20
-11.8598714569
 10
-33.4173813724
 20
-11.8992140196
 10
-33.3627637752
 20
-11.9285041793
 10
-33.303498073
 20
-11.9466262829
 10
-33.240733216
 20
-11.952892
  0
LWPOLYLINE
  5
497
100
AcDbEntity
  8
0
100
AcDbPolyline
 62
250
  6
CONTINUOUS
 90
17
 70
0
 10
-36.5857776997
 20
-11.402669
 10
-36.548377357
 20
-11.3990013057
 10
-36.5124015817
 20
-11.3881379242
 10
-36.47922068
 20
-11.3704926384
 10
-36.4496224018
 20
-11.3462630381
 10
-36.4257694224
 20
-11.3172195222
 10
-36.4080111085
 20
-11.2840953618
 10
-36.3970238688
 20
-11.2481522459
 10
-36.3932250308
 20
-11.210087
 10
-36.3968921665
 20
-11.1726809602
 10
-36.4077538934
 20
-11.1366997048
 10
-36.4253964918
 20
-11.1035137487
 10
-36.4496224018
 20
-11.0739109619
 10
-36.4786614942
 20
-11.0500543489
 10
-36.5117806097
 20
-11.03229333
 10
-36.5477182513
 20
-11.0213044166
 10
-36.5857777165
 20
-11.017505
  0
LWPOLYLINE
  5
498
100
AcDbEntity
  8
0
100
AcDbPolyline
 62
250
  6
CONTINUOUS
 90
17
 70
0
 10
-36.5857776997
 20
-11.017505
 10
-36.6231780424
 20
-11.0211726943
 10
-36.6591538176
 20
-11.0320360758
 10
-36.6923347194
 20
-11.0496813616
 10
-36.7219329975
 20
-11.0739109619
 10
-36.745785977
 20
-11.1029544778
 10
-36.7635442909
 20
-11.1360786382
 10
-36.7745315305
 20
-11.1720217541
 10
-36.7783303685
 20
-11.210087
 10
-36.7746632328
 20
-11.2474930398
 10
-36.7638015059
 20
-11.2834742952
 10
-36.7461589075
 20
-11.3166602513
 10
-36.7219329975
 20
-11.3462630381
 10
-36.6928939051
 20
-11.3701196511
 10
-36.6597747897
 20
-11.38788067
 10
-36.6238371481
 20
-11.3988695834
 10
-36.5857776828
 20
-11.402669
  0
LINE
  5
499
100
AcDbEntity
  8
RACCORDO
100
AcDbLine
 62
7
  6
CONTINUOUS
 10
-23.8905546387
 20
-9.7
 11
-23.6957903606
 21
-9.6966003769
  0
LINE
  5
49A
100
AcDbEntity
  8
ASSI
100
AcDbLine
 62
7
  6
CONTINUOUS
 10
-23.8905546387
 20
-9.7
 11
-23.6957903606
 21
-9.6966003769
  0
LINE
  5
49B
100
AcDbEntity
  8
0
100
AcDbLine
 62
250
  6
CONTINUOUS
 10
-36.118461885
 20
-11.082053
 11
-35.746054613
 21
-11.082053
  0
LINE
  5
49C
100
AcDbEntity
  8
CURVE
100
AcDbLine
 62
250
  6
CONTINUOUS
 10
-41.5264890532
 20
-10.5714286566
 11
-42.062040158
 21
-10.5714286566
  0
LINE
  5
49D
100
AcDbEntity
  8
0
100
AcDbLine
 62
250
  6
CONTINUOUS
 10
-31.3094114382
 20
-10.407638
 11
-30.2905546387
 21
-10.407638
  0
LINE
  5
49E
100
AcDbEntity
  8
CURVE
100
AcDbLine
 62
250
  6
CONTINUOUS
 10
-41.9549299415
 20
-9.8214286566
 11
-41.5264890532
 21
-9.8214286566
  0
LINE
  5
49F
100
AcDbEntity
  8
0
100
AcDbLine
 62
250
  6
CONTINUOUS
 10
-38.7905546387
 20
-9.3976193428
 11
-40.0905546387
 21
-9.3976193428
  0
LINE
  5
4A0
100
AcDbEntity
  8
CURVE
100
AcDbLine
 62
250
  6
CONTINUOUS
 10
-42.3833708522
 20
-9.3928570747
 11
-41.7407095086
 21
-9.3928570747
  0
LINE
  5
4A1
100
AcDbEntity
  8
0
100
AcDbLine
 62
250
  6
CONTINUOUS
 10
-38.7905546387
 20
-8.8095238686
 11
-40.0905546387
 21
-8.8095238686
  0
LINE
  5
4A2
100
AcDbEntity
  8
CURVE
100
AcDbLine
 62
250
  6
CONTINUOUS
 10
-41.7407095086
 20
-8.6428570747
 11
-42.3833708522
 21
-8.6428570747
  0
LINE
  5
4A3
100
AcDbEntity
  8
0
100
AcDbLine
 62
250
  6
CONTINUOUS
 10
-51.6654404188
 20
-8.382444
 11
-50.9156688586
 21
-8.382444
  0
LINE
  5
4A4
100
AcDbEntity
  8
CURVE
100
AcDbLine
 62
250
  6
CONTINUOUS
 10
-47.5960683527
 20
-3.5714285374
 11
-47.3818479197
 21
-3.678571701
  0
LINE
  5
4A5
100
AcDbEntity
  8
CURVE
100
AcDbLine
 62
250
  6
CONTINUOUS
 10
-46.5249661208
 20
-3.0357141495
 11
-46.7391865761
 21
-2.928571701
  0
LINE
  5
4A6
100
AcDbEntity
  8
CURVE
100
AcDbLine
 62
250
  6
CONTINUOUS
 10
-46.3107456654
 20
-1.3214292526
 11
-47.3818479197
 21
-0.678571701
  0
LINE
  5
4A7
100
AcDbEntity
  8
CURVE
100
AcDbLine
 62
250
  6
CONTINUOUS
 10
-47.2747376586
 20
11.6071427464
 11
-47.1676274868
 21
11.4285712838
  0
LWPOLYLINE
  5
4A8
100
AcDbEntity
  8
0
100
AcDbPolyline
 62
250
  6
CONTINUOUS
 90
57
 70
0
 10
-36.9123008283
 20
-12.7597371042
 10
-36.9111688907
 20
-12.780664429
 10
-36.9099186385
 20
-12.8016798425
 10
-36.9085364765
 20
-12.8227689013
 10
-36.9070088094
 20
-12.843917162
 10
-36.9053220421
 20
-12.8651101813
 10
-36.9034625794
 20
-12.8863335158
 10
-36.9014168261
 20
-12.9075727221
 10
-36.8991711869
 20
-12.9288133569
 10
-36.8967120668
 20
-12.9500409766
 10
-36.8940258704
 20
-12.971241138
 10
-36.8910990026
 20
-12.9923993976
 10
-36.8879178682
 20
-13.0135013122
 10
-36.884468872
 20
-13.0345324382
 10
-36.8807384187
 20
-13.0554783323
 10
-36.8767129132
 20
-13.0763245512
 10
-36.8723787604
 20
-13.0970566514
 10
-36.8677223649
 20
-13.1176601895
 10
-36.8627301316
 20
-13.1381207222
 10
-36.8573884653
 20
-13.1584238062
 10
-36.8516837708
 20
-13.1785549979
 10
-36.8456024529
 20
-13.1984998541
 10
-36.8391309164
 20
-13.2182439312
 10
-36.8322555661
 20
-13.2377727861
 10
-36.8249628067
 20
-13.2570719752
 10
-36.8172390432
 20
-13.2761270552
 10
-36.8090706803
 20
-13.2949235827
 10
-36.8004441227
 20
-13.3134471144
 10
-36.7913457754
 20
-13.3316832068
 10
-36.7817620431
 20
-13.3496174165
 10
-36.7716793305
 20
-13.3672353002
 10
-36.7610840426
 20
-13.3845224145
 10
-36.7499625841
 20
-13.401464316
 10
-36.7383013598
 20
-13.4180465613
 10
-36.7260867745
 20
-13.434254707
 10
-36.713305233
 20
-13.4500743098
 10
-36.6999431401
 20
-13.4654909263
 10
-36.6859869006
 20
-13.480490113
 10
-36.6714229193
 20
-13.4950574267
 10
-36.656237601
 20
-13.5091784238
 10
-36.6404173506
 20
-13.5228386611
 10
-36.6316128836
 20
-13.5300077059
 10
-36.6226260738
 20
-13.536999061
 10
-36.6134634421
 20
-13.543773425
 10
-36.6041315095
 20
-13.5502914965
 10
-36.5946367968
 20
-13.5565139742
 10
-36.584985825
 20
-13.5624015567
 10
-36.575185115
 20
-13.5679149426
 10
-36.5652411877
 20
-13.5730148305
 10
-36.555160564
 20
-13.5776619191
 10
-36.5449497648
 20
-13.581816907
 10
-36.534615311
 20
-13.5854404929
 10
-36.5241637236
 20
-13.5884933753
 10
-36.5136015234
 20
-13.5909362529
 10
-36.5029352314
 20
-13.5927298243
 10
-36.4921713685
 20
-13.5938347881
 10
-36.4813164555
 20
-13.594211843
  0
LINE
  5
4A9
100
AcDbEntity
  8
0
100
AcDbLine
 62
250
  6
CONTINUOUS
 10
-36.9142641404
 20
-12.7182044944
 11
-36.9123008283
 21
-12.7597371042
  0
LWPOLYLINE
  5
4AA
100
AcDbEntity
  8
0
100
AcDbPolyline
 62
250
  6
CONTINUOUS
 90
3
 70
0
 10
-36.9166616288
 20
-12.6569273296
 10
-36.9159173364
 20
-12.67719756
 10
-36.9142641404
 20
-12.7182044944
  0
LWPOLYLINE
  5
4AB
100
AcDbEntity
  8
0
100
AcDbPolyline
 62
250
  6
CONTINUOUS
 90
61
 70
0
 10
-37.2887271182
 20
-5.5000000008
 10
-37.2866741001
 20
-5.6086059991
 10
-37.2805416449
 20
-5.7173472299
 10
-37.2703696511
 20
-5.8260545257
 10
-37.2561980173
 20
-5.9345587188
 10
-37.2380666421
 20
-6.0426906416
 10
-37.2160154242
 20
-6.1502811264
 10
-37.1900842622
 20
-6.2571610057
 10
-37.1603130545
 20
-6.3631611119
 10
-37.1267416999
 20
-6.4681122774
 10
-37.0894100969
 20
-6.5718453345
 10
-37.0483581441
 20
-6.6741911156
 10
-37.0036257401
 20
-6.7749804531
 10
-36.9552527836
 20
-6.8740441795
 10
-36.903279173
 20
-6.9712131271
 10
-36.847744807
 20
-7.0663181283
 10
-36.7887401841
 20
-7.1591438727
 10
-36.7263295597
 20
-7.2496451578
 10
-36.6606232919
 20
-7.3377277861
 10
-36.5917317388
 20
-7.42329756
 10
-36.5197652585
 20
-7.5062602817
 10
-36.4448342091
 20
-7.5865217537
 10
-36.3670489487
 20
-7.6639877783
 10
-36.2865198353
 20
-7.738564158
 10
-36.203357227
 20
-7.8101566951
 10
-36.1176714819
 20
-7.8786711919
 10
-36.0295729581
 20
-7.9440134508
 10
-35.9391720136
 20
-8.0060892743
 10
-35.8465790066
 20
-8.0648044647
 10
-35.7519042951
 20
-8.1200648243
 10
-35.6552582372
 20
-8.1717761556
 10
-35.5567686576
 20
-8.2198485434
 10
-35.4565590871
 20
-8.264244827
 10
-35.3547700578
 20
-8.3049312167
 10
-35.2515421016
 20
-8.341873923
 10
-35.1470157507
 20
-8.3750391565
 10
-35.0413315369
 20
-8.4043931276
 10
-34.9346299924
 20
-8.4299020468
 10
-34.8270516492
 20
-8.4515321246
 10
-34.7187370392
 20
-8.4692495715
 10
-34.6098266946
 20
-8.483020598
 10
-34.5004611472
 20
-8.4928114146
 10
-34.3907809292
 20
-8.4985882317
 10
-34.2809265726
 20
-8.5003172599
 10
-34.1710386093
 20
-8.4979647097
 10
-34.0612575714
 20
-8.4914967914
 10
-33.9521068452
 20
-8.4809399876
 10
-33.8433615597
 20
-8.4663266861
 10
-33.735181412
 20
-8.4477208073
 10
-33.6277260995
 20
-8.4251862716
 10
-33.5211553195
 20
-8.3987869993
 10
-33.4156287691
 20
-8.3685869107
 10
-33.3113061457
 20
-8.3346499261
 10
-33.2083471466
 20
-8.297039966
 10
-33.1069114689
 20
-8.2558209505
 10
-33.00715881
 20
-8.2110568001
 10
-32.909248867
 20
-8.1628114351
 10
-32.8133413374
 20
-8.1111487757
 10
-32.7195959183
 20
-8.0561327424
 10
-32.628172307
 20
-7.9978272555
 10
-32.5392302007
 20
-7.9362962353
  0
LWPOLYLINE
  5
4AC
100
AcDbEntity
  8
0
100
AcDbPolyline
 62
250
  6
CONTINUOUS
 90
41
 70
0
 10
-35.7891839984
 20
-5.5000000008
 10
-35.7885574418
 20
-5.5425119629
 10
-35.7866832105
 20
-5.5850769988
 10
-35.7835694623
 20
-5.6276551197
 10
-35.7792243551
 20
-5.6702063369
 10
-35.7736560466
 20
-5.7126906617
 10
-35.7668726947
 20
-5.7550681053
 10
-35.758882457
 20
-5.7972986792
 10
-35.7496934915
 20
-5.8393423947
 10
-35.7393139558
 20
-5.8811592629
 10
-35.7277520079
 20
-5.9227092953
 10
-35.7150158055
 20
-5.9639525031
 10
-35.7011135063
 20
-6.0048488976
 10
-35.6860532683
 20
-6.0453584902
 10
-35.6698432491
 20
-6.0854412922
 10
-35.6524916067
 20
-6.1250573148
 10
-35.6340064987
 20
-6.1641665693
 10
-35.614396083
 20
-6.2027290672
 10
-35.5936685174
 20
-6.2407048196
 10
-35.5718319597
 20
-6.2780538379
 10
-35.5488945676
 20
-6.3147361333
 10
-35.5248853517
 20
-6.3506902059
 10
-35.4998179806
 20
-6.3859147818
 10
-35.4737254908
 20
-6.4203861155
 10
-35.4466409186
 20
-6.4540804614
 10
-35.4185973004
 20
-6.486974074
 10
-35.3896276727
 20
-6.5190432076
 10
-35.3597650718
 20
-6.5502641168
 10
-35.3290425342
 20
-6.5806130559
 10
-35.2974930962
 20
-6.6100662794
 10
-35.2651497942
 20
-6.6386000416
 10
-35.2320456646
 20
-6.6661905971
 10
-35.1982137439
 20
-6.6928142003
 10
-35.1636870685
 20
-6.7184471056
 10
-35.1284986747
 20
-6.7430655674
 10
-35.0926815989
 20
-6.7666458401
 10
-35.0562688775
 20
-6.7891641782
 10
-35.019293547
 20
-6.8105968362
 10
-34.9817886437
 20
-6.8309200684
 10
-34.9437872041
 20
-6.8501101293
 10
-34.9053222645
 20
-6.8681432733
  0
LINE
  5
4AD
100
AcDbEntity
  8
0
100
AcDbLine
 62
250
  6
CONTINUOUS
 10
-36.8758745098
 20
-13.281784
 11
-36.8758745098
 21
-13.18241
  0
LINE
  5
4AE
100
AcDbEntity
  8
0
100
AcDbLine
 62
250
  6
CONTINUOUS
 10
-36.481316612
 20
-13.809973
 11
-36.481316612
 21
-11.372066
  0
LINE
  5
4AF
100
AcDbEntity
  8
0
100
AcDbLine
 62
250
  6
CONTINUOUS
 10
-36.118461885
 20
-11.432113
 11
-36.118461885
 21
-11.082053
  0
LINE
  5
4B0
100
AcDbEntity
  8
0
100
AcDbLine
 62
250
  6
CONTINUOUS
 10
-35.746054613
 20
-11.082053
 11
-35.746054613
 21
-11.432113
  0
LINE
  5
4B1
100
AcDbEntity
  8
0
100
AcDbLine
 62
250
  6
CONTINUOUS
 10
-35.6536526884
 20
-12.71193
 11
-35.6536526884
 21
-11.88859
  0
LINE
  5
4B2
100
AcDbEntity
  8
0
100
AcDbLine
 62
250
  6
CONTINUOUS
 10
-36.9688343494
 20
-12.656927
 11
-36.9682764344
 21
-12.083924
  0
LINE
  5
4B3
100
AcDbEntity
  8
0
100
AcDbLine
 62
250
  6
CONTINUOUS
 10
-36.7508155598
 20
-12.083924
 11
-36.7513734748
 21
-12.656927
  0
LINE
  5
4B4
100
AcDbEntity
  8
CURVE
100
AcDbLine
 62
250
  6
CONTINUOUS
 10
-41.8121163196
 20
-7.6785714626
 11
-41.7407095086
 21
-7.571428299
  0
LINE
  5
4B5
100
AcDbEntity
  8
CURVE
100
AcDbLine
 62
250
  6
CONTINUOUS
 10
-46.6677797428
 20
-9.9642856121
 11
-46.8820001981
 21
-10.2499998808
  0
LINE
  5
4B6
100
AcDbEntity
  8
CURVE
100
AcDbLine
 62
250
  6
CONTINUOUS
 10
-46.3107456654
 20
-4.6428573132
 11
-46.5249661208
 21
-4.8571429253
  0
LINE
  5
4B7
100
AcDbEntity
  8
CURVE
100
AcDbLine
 62
250
  6
CONTINUOUS
 10
-47.5960683527
 20
-6.4642853737
 11
-47.8102887857
 21
-6.678571701
  0
LINE
  5
4B8
100
AcDbEntity
  8
CURVE
100
AcDbLine
 62
250
  6
CONTINUOUS
 10
-46.5249661208
 20
-6.9999997616
 11
-46.3107456654
 21
-6.7857141495
  0
LINE
  5
4B9
100
AcDbEntity
  8
CURVE
100
AcDbLine
 62
250
  6
CONTINUOUS
 10
-47.1676274868
 20
-7.7499997616
 11
-46.9534070091
 21
-7.5357141495
  0
LINE
  5
4BA
100
AcDbEntity
  8
0
100
AcDbLine
 62
7
  6
CONTINUOUS
 10
-52.2059643657
 20
-10.4594006098
 11
-50.9156688586
 21
-9.1691051027
  0
LINE
  5
4BB
100
AcDbEntity
  8
0
100
AcDbLine
 62
7
  6
CONTINUOUS
 10
-52.0479666209
 20
-10.511413579
 11
-50.9156688586
 21
-9.3791158167
  0
LINE
  5
4BC
100
AcDbEntity
  8
0
100
AcDbLine
 62
7
  6
CONTINUOUS
 10
-53.8335245625
 20
-12.5069822346
 11
-53.6940963279
 21
-12.367554
  0
LINE
  5
4BD
100
AcDbEntity
  8
0
100
AcDbLine
 62
7
  6
CONTINUOUS
 10
-51.8848701078
 20
-10.55832778
 11
-50.9156688586
 21
-9.5891265308
  0
LINE
  5
4BE
100
AcDbEntity
  8
0
100
AcDbLine
 62
7
  6
CONTINUOUS
 10
-49.4931841523
 20
-8.1666418245
 11
-49.3089863279
 21
-7.982444
  0
LINE
  5
4BF
100
AcDbEntity
  8
0
100
AcDbLine
 62
7
  6
CONTINUOUS
 10
-53.8272543398
 20
-12.7107227259
 11
-53.4840856139
 21
-12.367554
  0
LINE
  5
4C0
100
AcDbEntity
  8
0
100
AcDbLine
 62
7
  6
CONTINUOUS
 10
-51.7088921161
 20
-10.5923605022
 11
-50.9156688586
 21
-9.7991372448
  0
LINE
  5
4C1
100
AcDbEntity
  8
0
100
AcDbLine
 62
7
  6
CONTINUOUS
 10
-49.5225048116
 20
-8.4059731977
 11
-49.0989756139
 21
-7.982444
  0
LINE
  5
4C2
100
AcDbEntity
  8
0
100
AcDbLine
 62
7
  6
CONTINUOUS
 10
-53.7979876403
 20
-12.8914667405
 11
-53.2740748998
 21
-12.367554
  0
LINE
  5
4C3
100
AcDbEntity
  8
0
100
AcDbLine
 62
7
  6
CONTINUOUS
 10
-51.5248283977
 20
-10.6183074979
 11
-50.6799198237
 21
-9.7733989238
  0
LINE
  5
4C4
100
AcDbEntity
  8
0
100
AcDbLine
 62
7
  6
CONTINUOUS
 10
-49.5974248839
 20
-8.6909039841
 11
-48.8889648998
 21
-7.982444
  0
LINE
  5
4C5
100
AcDbEntity
  8
0
100
AcDbLine
 62
7
  6
CONTINUOUS
 10
-53.7671051452
 20
-13.0705949594
 11
-53.0869485312
 21
-12.3904383453
  0
LINE
  5
4C6
100
AcDbEntity
  8
0
100
AcDbLine
 62
7
  6
CONTINUOUS
 10
-51.3227077019
 20
-10.6261975161
 11
-50.2372493682
 21
-9.5407391823
  0
LINE
  5
4C7
100
AcDbEntity
  8
0
100
AcDbLine
 62
7
  6
CONTINUOUS
 10
-49.8364743126
 20
-9.1399641268
 11
-48.7453341561
 21
-8.0488239703
  0
LINE
  5
4C8
100
AcDbEntity
  8
0
100
AcDbLine
 62
7
  6
CONTINUOUS
 10
-53.7166281461
 20
-13.2301286743
 11
-53.0844216746
 21
-12.5979222028
  0
LINE
  5
4C9
100
AcDbEntity
  8
0
100
AcDbLine
 62
7
  6
CONTINUOUS
 10
-51.1126971162
 20
-10.6261976444
 11
-48.7520043901
 21
-8.2655049183
  0
LINE
  5
4CA
100
AcDbEntity
  8
0
100
AcDbLine
 62
7
  6
CONTINUOUS
 10
-53.6655853265
 20
-13.3890965687
 11
-53.0588186057
 21
-12.7823298479
  0
LINE
  5
4CB
100
AcDbEntity
  8
0
100
AcDbLine
 62
7
  6
CONTINUOUS
 10
-50.8682966843
 20
-10.5918079265
 11
-48.7831790227
 21
-8.5066902649
  0
LINE
  5
4CC
100
AcDbEntity
  8
0
100
AcDbLine
 62
7
  6
CONTINUOUS
 10
-53.5999723332
 20
-13.5334942894
 11
-53.0192052354
 21
-12.9527271916
  0
LINE
  5
4CD
100
AcDbEntity
  8
0
100
AcDbLine
 62
7
  6
CONTINUOUS
 10
-50.5959611567
 20
-10.5294831129
 11
-48.8422450612
 21
-8.7757670174
  0
LINE
  5
4CE
100
AcDbEntity
  8
0
100
AcDbLine
 62
7
  6
CONTINUOUS
 10
-53.5314905582
 20
-13.6750232284
 11
-52.9687873388
 21
-13.112320009
  0
LINE
  5
4CF
100
AcDbEntity
  8
0
100
AcDbLine
 62
7
  6
CONTINUOUS
 10
-50.2680081798
 20
-10.41154085
 11
-48.958904127
 21
-9.1024367972
  0
LINE
  5
4D0
100
AcDbEntity
  8
0
100
AcDbLine
 62
7
  6
CONTINUOUS
 10
-53.4540466689
 20
-13.8075900531
 11
-52.9041157133
 21
-13.2576590975
  0
LINE
  5
4D1
100
AcDbEntity
  8
0
100
AcDbLine
 62
7
  6
CONTINUOUS
 10
-49.7905017356
 20
-10.1440451198
 11
-49.2453352641
 21
-9.5988786483
  0
LINE
  5
4D2
100
AcDbEntity
  8
0
100
AcDbLine
 62
7
  6
CONTINUOUS
 10
-53.3697543029
 20
-13.9333084012
 11
-52.8293670998
 21
-13.3929211981
  0
LINE
  5
4D3
100
AcDbEntity
  8
0
100
AcDbLine
 62
7
  6
CONTINUOUS
 10
-53.2823155352
 20
-14.0558803475
 11
-52.7483847121
 21
-13.5219495244
  0
LINE
  5
4D4
100
AcDbEntity
  8
0
100
AcDbLine
 62
7
  6
CONTINUOUS
 10
-53.1830665295
 20
-14.1666420558
 11
-52.6534599528
 21
-13.6370354791
  0
LINE
  5
4D5
100
AcDbEntity
  8
0
100
AcDbLine
 62
7
  6
CONTINUOUS
 10
-53.0838175239
 20
-14.2774037641
 11
-52.5526309737
 21
-13.746217214
  0
LINE
  5
4D6
100
AcDbEntity
  8
0
100
AcDbLine
 62
7
  6
CONTINUOUS
 10
-52.9726061705
 20
-14.3762031248
 11
-52.4434418902
 21
-13.8470388445
  0
LINE
  5
4D7
100
AcDbEntity
  8
0
100
AcDbLine
 62
7
  6
CONTINUOUS
 10
-52.8586285807
 20
-14.472236249
 11
-52.3230916031
 21
-13.9366992714
  0
LINE
  5
4D8
100
AcDbEntity
  8
0
100
AcDbLine
 62
7
  6
CONTINUOUS
 10
-52.7383253553
 20
-14.5619437377
 11
-52.1970911978
 21
-14.0207095801
  0
LINE
  5
4D9
100
AcDbEntity
  8
0
100
AcDbLine
 62
7
  6
CONTINUOUS
 10
-52.6092588597
 20
-14.642887956
 11
-52.0583439562
 21
-14.0919730525
  0
LWPOLYLINE
  5
4DA
100
AcDbEntity
  8
0
100
AcDbPolyline
 62
250
  6
CONTINUOUS
 90
17
 70
0
 10
-34.289634881
 20
-5.9999288477
 10
-34.1925474802
 20
-5.9904078948
 10
-34.0991581083
 20
-5.962207686
 10
-34.0130239374
 20
-5.9164023586
 10
-33.9361898849
 20
-5.8535048357
 10
-33.8742700305
 20
-5.7781108883
 10
-33.8281712941
 20
-5.6921240121
 10
-33.7996495624
 20
-5.5988194205
 10
-33.789788174
 20
-5.500006
 10
-33.7993076769
 20
-5.40290381
 10
-33.8275035906
 20
-5.3095002123
 10
-33.8733019416
 20
-5.2233529208
 10
-33.9361898849
 20
-5.1465071643
 10
-34.0115723495
 20
-5.0845778777
 10
-34.0975461295
 20
-5.0384721192
 10
-34.1908365103
 20
-5.0099460428
 10
-34.2896349247
 20
-5.0000831523
  0
LINE
  5
4DB
100
AcDbEntity
  8
CURVE
100
AcDbLine
 62
250
  6
CONTINUOUS
 10
-42.276260591
 20
-8.2142858505
 11
-41.9549299415
 21
-8.2142858505
  0
LINE
  5
4DC
100
AcDbEntity
  8
CURVE
100
AcDbLine
 62
250
  6
CONTINUOUS
 10
-47.8102887857
 20
-8.178571701
 11
-47.1676274868
 21
-8.178571701
  0
LINE
  5
4DD
100
AcDbEntity
  8
0
100
AcDbLine
 62
250
  6
CONTINUOUS
 10
-38.7905546387
 20
-8.1595238686
 11
-40.0905546387
 21
-8.1595238686
  0
LINE
  5
4DE
100
AcDbEntity
  8
0
100
AcDbLine
 62
250
  6
CONTINUOUS
 10
-53.8378185401
 20
-7.982444
 11
-53.0872272298
 21
-7.982444
  0
LINE
  5
4DF
100
AcDbEntity
  8
0
100
AcDbLine
 62
250
  6
CONTINUOUS
 10
-49.4938820476
 20
-7.982444
 11
-48.7432907372
 21
-7.982444
  0
LINE
  5
4E0
100
AcDbEntity
  8
CURVE
100
AcDbLine
 62
250
  6
CONTINUOUS
 10
-41.7407095086
 20
-7.571428299
 11
-41.4193788256
 21
-7.571428299
  0
LINE
  5
4E1
100
AcDbEntity
  8
CURVE
100
AcDbLine
 62
250
  6
CONTINUOUS
 10
-46.9534070091
 20
-7.5357141495
 11
-46.5249661208
 21
-7.5357141495
  0
LINE
  5
4E2
100
AcDbEntity
  8
CURVE
100
AcDbLine
 62
250
  6
CONTINUOUS
 10
-47.3818479197
 20
-7.1071429253
 11
-46.7391865761
 21
-7.1071429253
  0
LINE
  5
4E3
100
AcDbEntity
  8
0
100
AcDbLine
 62
250
  6
CONTINUOUS
 10
-38.7905546387
 20
-6.5190477371
 11
-40.0905546387
 21
-6.5190477371
  0
LINE
  5
4E4
100
AcDbEntity
  8
CURVE
100
AcDbLine
 62
250
  6
CONTINUOUS
 10
-46.7391865761
 20
-6.3571429253
 11
-47.3818479197
 21
-6.3571429253
  0
LINE
  5
4E5
100
AcDbEntity
  8
0
100
AcDbLine
 62
250
  6
CONTINUOUS
 10
-38.7905546387
 20
-5.5595238686
 11
-40.0905546387
 21
-5.5595238686
  0
LINE
  5
4E6
100
AcDbEntity
  8
0
100
AcDbLine
 62
250
  6
CONTINUOUS
 10
-31.2905546387
 20
-5.5000000008
 11
-32.2902504107
 21
-5.5000000008
  0
LINE
  5
4E7
100
AcDbEntity
  8
0
100
AcDbLine
 62
250
  6
CONTINUOUS
 10
-36.2890324225
 20
-5.5000000008
 11
-37.2887271182
 21
-5.5000000008
  0
LINE
  5
4E8
100
AcDbEntity
  8
0
100
AcDbLine
 62
250
  6
CONTINUOUS
 10
-38.7905546387
 20
-4.81666646
 11
-40.0905546387
 21
-4.4452386856
  0
LINE
  5
4E9
100
AcDbEntity
  8
0
100
AcDbLine
 62
250
  6
CONTINUOUS
 10
-34.9064544947
 20
-6.8676329685
 11
-33.7010275435
 21
-7.4118127306
  0
LINE
  5
4EA
100
AcDbEntity
  8
0
100
AcDbLine
 62
250
  6
CONTINUOUS
 10
-32.5392302007
 20
-7.9362962353
 11
-31.2905546387
 21
-8.5
  0
LINE
  5
4EB
100
AcDbEntity
  8
0
100
AcDbLine
 62
250
  6
CONTINUOUS
 10
-31.2905546387
 20
-7.500000718
 11
-31.8420120959
 21
-7.2340457986
  0
LINE
  5
4EC
100
AcDbEntity
  8
0
100
AcDbLine
 62
250
  6
CONTINUOUS
 10
-32.762054612
 20
-6.7903314832
 11
-33.2321206461
 21
-6.5636291216
  0
LINE
  5
4ED
100
AcDbEntity
  8
0
100
AcDbLine
 62
250
  6
CONTINUOUS
 10
-39.5334118147
 20
-2.4952386856
 11
-40.0905546387
 21
-2.1238090515
  0
LINE
  5
4EE
100
AcDbEntity
  8
CURVE
100
AcDbLine
 62
250
  6
CONTINUOUS
 10
-47.8102887857
 20
8.9642856494
 11
-47.5960683527
 21
8.7499999367
  0
LINE
  5
4EF
100
AcDbEntity
  8
0
100
AcDbLine
 62
250
  6
CONTINUOUS
 10
-35.4380495309
 20
-11.88859
 11
-35.4380495309
 21
-12.71193
  0
LINE
  5
4F0
100
AcDbEntity
  8
0
100
AcDbLine
 62
250
  6
CONTINUOUS
 10
-33.1196076946
 20
-13.274826
 11
-33.1196076946
 21
-11.928959
  0
LINE
  5
4F1
100
AcDbEntity
  8
0
100
AcDbLine
 62
250
  6
CONTINUOUS
 10
-32.9231896145
 20
-13.100497
 11
-32.9231896145
 21
-13.218117
  0
LINE
  5
4F2
100
AcDbEntity
  8
CURVE
100
AcDbLine
 62
250
  6
CONTINUOUS
 10
-41.9549299415
 20
-8.2142858505
 11
-41.8835231305
 21
-8.1071426868
  0
LINE
  5
4F3
100
AcDbEntity
  8
CURVE
100
AcDbLine
 62
250
  6
CONTINUOUS
 10
-44.7754991248
 20
-14.9285714272
 11
-44.668388953
 21
-14.7857142761
  0
LINE
  5
4F4
100
AcDbEntity
  8
CURVE
100
AcDbLine
 62
250
  6
CONTINUOUS
 10
-47.5960683527
 20
-12.321428597
 11
-47.8102887857
 21
-12.5357142091
  0
LINE
  5
4F5
100
AcDbEntity
  8
CURVE
100
AcDbLine
 62
250
  6
CONTINUOUS
 10
-42.276260591
 20
-7.571428299
 11
-42.3833708522
 21
-7.6785714626
  0
LINE
  5
4F6
100
AcDbEntity
  8
CURVE
100
AcDbLine
 62
250
  6
CONTINUOUS
 10
-47.8102887857
 20
-13.6071428955
 11
-47.5960683527
 21
-13.3928571939
  0
LINE
  5
4F7
100
AcDbEntity
  8
CURVE
100
AcDbLine
 62
250
  6
CONTINUOUS
 10
-42.5975912852
 20
-8.7500002384
 11
-42.8118117182
 21
-8.9642858505
  0
LINE
  5
4F8
100
AcDbEntity
  8
0
100
AcDbLine
 62
7
  6
CONTINUOUS
 10
-52.4789317807
 20
-14.7225715911
 11
-51.9097570769
 21
-14.1533968873
  0
LINE
  5
4F9
100
AcDbEntity
  8
0
100
AcDbLine
 62
7
  6
CONTINUOUS
 10
-52.3337679889
 20
-14.7874185132
 11
-51.7523147971
 21
-14.2059653215
  0
LINE
  5
4FA
100
AcDbEntity
  8
0
100
AcDbLine
 62
7
  6
CONTINUOUS
 10
-52.188604197
 20
-14.8522654354
 11
-51.5782066239
 21
-14.2418678623
  0
LINE
  5
4FB
100
AcDbEntity
  8
0
100
AcDbLine
 62
7
  6
CONTINUOUS
 10
-52.0284619833
 20
-14.9021339357
 11
-51.3873130036
 21
-14.260984956
  0
LINE
  5
4FC
100
AcDbEntity
  8
0
100
AcDbLine
 62
7
  6
CONTINUOUS
 10
-51.8653653757
 20
-14.9490480421
 11
-51.1761009447
 21
-14.2597836111
  0
LINE
  5
4FD
100
AcDbEntity
  8
0
100
AcDbLine
 62
7
  6
CONTINUOUS
 10
-49.4964712156
 20
-12.580153882
 11
-49.2838713336
 21
-12.367554
  0
LINE
  5
4FE
100
AcDbEntity
  8
0
100
AcDbLine
 62
7
  6
CONTINUOUS
 10
-51.6868800238
 20
-14.9805734042
 11
-50.9339574023
 21
-14.2276507827
  0
LINE
  5
4FF
100
AcDbEntity
  8
0
100
AcDbLine
 62
7
  6
CONTINUOUS
 10
-49.5281716018
 20
-12.8218649822
 11
-49.0738606196
 21
-12.367554
  0
LINE
  5
500
100
AcDbEntity
  8
0
100
AcDbLine
 62
7
  6
CONTINUOUS
 10
-51.5028162002
 20
-15.0065202947
 11
-50.6378999578
 21
-14.1416040522
  0
LINE
  5
501
100
AcDbEntity
  8
0
100
AcDbLine
 62
7
  6
CONTINUOUS
 10
-49.6152930714
 20
-13.1189971658
 11
-48.8638499056
 21
-12.367554
  0
LINE
  5
502
100
AcDbEntity
  8
0
100
AcDbLine
 62
7
  6
CONTINUOUS
 10
-51.2975926144
 20
-15.0113074228
 11
-50.0809898497
 21
-13.7947046582
  0
LINE
  5
503
100
AcDbEntity
  8
0
100
AcDbLine
 62
7
  6
CONTINUOUS
 10
-49.9480299142
 20
-13.6617447226
 11
-48.7461318724
 21
-12.4598466808
  0
LINE
  5
504
100
AcDbEntity
  8
0
100
AcDbLine
 62
7
  6
CONTINUOUS
 10
-51.0835334895
 20
-15.0072590119
 11
-48.7528021742
 21
-12.6765276967
  0
LINE
  5
505
100
AcDbEntity
  8
0
100
AcDbLine
 62
7
  6
CONTINUOUS
 10
-50.8390601612
 20
-14.9727963976
 11
-48.7884111099
 21
-12.9221473463
  0
LINE
  5
506
100
AcDbEntity
  8
0
100
AcDbLine
 62
7
  6
CONTINUOUS
 10
-50.5607046553
 20
-14.9044516058
 11
-48.8541233123
 21
-13.1978702628
  0
LINE
  5
507
100
AcDbEntity
  8
0
100
AcDbLine
 62
7
  6
CONTINUOUS
 10
-50.2226154212
 20
-14.7763730857
 11
-48.9824497402
 21
-13.5362074047
  0
LINE
  5
508
100
AcDbEntity
  8
0
100
AcDbLine
 62
7
  6
CONTINUOUS
 10
-49.6334756512
 20
-14.3972440297
 11
-49.3563961094
 21
-14.1201644879
  0
LINE
  5
509
100
AcDbEntity
  8
0
100
AcDbLine
 62
250
  6
CONTINUOUS
 10
-40.0905546387
 20
-2.8666670799
 11
-39.5334118147
 21
-2.4952386856
  0
LINE
  5
50A
100
AcDbEntity
  8
CURVE
100
AcDbLine
 62
250
  6
CONTINUOUS
 10
-47.3818479197
 20
-2.928571701
 11
-47.5960683527
 21
-3.0357141495
  0
LINE
  5
50B
100
AcDbEntity
  8
CURVE
100
AcDbLine
 62
250
  6
CONTINUOUS
 10
-46.7391865761
 20
-3.678571701
 11
-46.5249661208
 21
-3.5714285374
  0
LWPOLYLINE
  5
50C
100
AcDbEntity
  8
0
100
AcDbPolyline
 62
250
  6
CONTINUOUS
 90
17
 70
0
 10
-34.289634881
 20
-5.0000831523
 10
-34.3867222819
 20
-5.0096041052
 10
-34.4801116538
 20
-5.037804314
 10
-34.5662458246
 20
-5.0836096414
 10
-34.6430798772
 20
-5.1465071643
 10
-34.7049997316
 20
-5.2219011117
 10
-34.751098468
 20
-5.3078879879
 10
-34.7796201997
 20
-5.4011925795
 10
-34.7894815881
 20
-5.500006
 10
-34.7799620852
 20
-5.59710819
 10
-34.7517661715
 20
-5.6905117877
 10
-34.7059678204
 20
-5.7766590792
 10
-34.6430798772
 20
-5.8535048357
 10
-34.5676974126
 20
-5.9154341223
 10
-34.4817236326
 20
-5.9615398808
 10
-34.3884332518
 20
-5.9900659572
 10
-34.2896348373
 20
-5.9999288477
  0
LINE
  5
50D
100
AcDbEntity
  8
CURVE
100
AcDbLine
 62
250
  6
CONTINUOUS
 10
-46.5249661208
 20
-4.8571429253
 11
-47.0605172256
 21
-4.8571429253
  0
LINE
  5
50E
100
AcDbEntity
  8
CURVE
100
AcDbLine
 62
250
  6
CONTINUOUS
 10
-46.9534070091
 20
-4.1071429253
 11
-46.5249661208
 21
-4.1071429253
  0
LINE
  5
50F
100
AcDbEntity
  8
0
100
AcDbLine
 62
250
  6
CONTINUOUS
 10
-40.0905546387
 20
-3.7023806572
 11
-38.7905546387
 21
-3.7023806572
  0
LINE
  5
510
100
AcDbEntity
  8
CURVE
100
AcDbLine
 62
250
  6
CONTINUOUS
 10
-47.3818479197
 20
-3.678571701
 11
-46.7391865761
 21
-3.678571701
  0
LINE
  5
511
100
AcDbEntity
  8
0
100
AcDbLine
 62
7
  6
CONTINUOUS
 10
-23.8405546387
 20
-3.5
 11
-23.8905546387
 21
-3.5
  0
LINE
  5
512
100
AcDbEntity
  8
0
100
AcDbLine
 62
7
  6
CONTINUOUS
 10
-23.8405546387
 20
-3.4770677301
 11
-23.6405546387
 21
-3.4770677301
  0
LINE
  5
513
100
AcDbEntity
  8
CURVE
100
AcDbLine
 62
250
  6
CONTINUOUS
 10
-46.7391865761
 20
-2.928571701
 11
-47.3818479197
 21
-2.928571701
  0
LINE
  5
514
100
AcDbEntity
  8
CURVE
100
AcDbLine
 62
250
  6
CONTINUOUS
 10
-47.8102887857
 20
-2.5000004768
 11
-46.3107456654
 21
-2.5000004768
  0
LINE
  5
515
100
AcDbEntity
  8
0
100
AcDbLine
 62
250
  6
CONTINUOUS
 10
-39.5334118147
 20
-2.4952386856
 11
-38.7905546387
 21
-2.4952386856
  0
LINE
  5
516
100
AcDbEntity
  8
CURVE
100
AcDbLine
 62
250
  6
CONTINUOUS
 10
-47.5960683527
 20
9.8214284778
 11
-47.8102887857
 21
10.0357141793
  0
LINE
  5
517
100
AcDbEntity
  8
CURVE
100
AcDbLine
 62
250
  6
CONTINUOUS
 10
-46.3107456654
 20
9.0714285225
 11
-46.5249661208
 21
9.285714224
  0
LINE
  5
518
100
AcDbEntity
  8
CURVE
100
AcDbLine
 62
250
  6
CONTINUOUS
 10
-46.7391865761
 20
10.4642856717
 11
-46.3107456654
 21
10.0357141793
  0
LINE
  5
519
100
AcDbEntity
  8
CURVE
100
AcDbLine
 62
250
  6
CONTINUOUS
 10
-46.4178558931
 20
11.6428570747
 11
-46.3107456654
 21
11.5357142687
  0
LINE
  5
51A
100
AcDbEntity
  8
0
100
AcDbLine
 62
250
  6
CONTINUOUS
 10
-31.3094114382
 20
-14.592362
 11
-31.3094114382
 21
-10.407638
  0
LINE
  5
51B
100
AcDbEntity
  8
0
100
AcDbLine
 62
250
  6
CONTINUOUS
 10
-31.2905546387
 20
-8.5
 11
-31.2905546387
 21
-7.500000718
  0
LINE
  5
51C
100
AcDbEntity
  8
0
100
AcDbLine
 62
250
  6
CONTINUOUS
 10
-30.2905546387
 20
-10.407638
 11
-30.2905546387
 21
-14.592362
  0
LWPOLYLINE
  5
51D
100
AcDbEntity
  8
0
100
AcDbPolyline
 62
250
  6
CONTINUOUS
 90
33
 70
0
 10
-32.2902504107
 20
-5.5000000008
 10
-32.2907276299
 20
-5.5436367982
 10
-32.2921582658
 20
-5.5872951139
 10
-32.2945407855
 20
-5.6309508609
 10
-32.2978736562
 20
-5.6745799528
 10
-32.3021553453
 20
-5.7181583026
 10
-32.3073843198
 20
-5.7616618238
 10
-32.3135590472
 20
-5.8050664296
 10
-32.3206779944
 20
-5.8483480333
 10
-32.3287396289
 20
-5.8914825482
 10
-32.3377424178
 20
-5.9344458877
 10
-32.3476848284
 20
-5.9772139649
 10
-32.3585653278
 20
-6.0197626932
 10
-32.3703823833
 20
-6.0620679858
 10
-32.3831344622
 20
-6.1041057562
 10
-32.3968200316
 20
-6.1458519175
 10
-32.4114375588
 20
-6.187282383
 10
-32.4269781431
 20
-6.2283603527
 10
-32.4434343817
 20
-6.2690791069
 10
-32.4607921155
 20
-6.3094189895
 10
-32.4790371854
 20
-6.3493603441
 10
-32.4981554322
 20
-6.3888835145
 10
-32.5181326969
 20
-6.4279688444
 10
-32.5389548202
 20
-6.4665966774
 10
-32.5606076431
 20
-6.5047473575
 10
-32.5830770065
 20
-6.5424012281
 10
-32.6063487511
 20
-6.5795386332
 10
-32.6304087179
 20
-6.6161399164
 10
-32.6552427478
 20
-6.6521854214
 10
-32.6808366817
 20
-6.6876554919
 10
-32.7071763603
 20
-6.7225304717
 10
-32.7342476246
 20
-6.7567907045
 10
-32.7620363155
 20
-6.790416534
  0
LWPOLYLINE
  5
51E
100
AcDbEntity
  8
0
100
AcDbPolyline
 62
250
  6
CONTINUOUS
 90
34
 70
0
 10
-35.3768480679
 20
-4.4668225777
 10
-35.3996334087
 20
-4.4913591565
 10
-35.4218706967
 20
-4.5163987682
 10
-35.4435486155
 20
-4.5419296299
 10
-35.4646558486
 20
-4.5679399589
 10
-35.4851810797
 20
-4.5944179724
 10
-35.5051129921
 20
-4.6213518876
 10
-35.5244402695
 20
-4.6487299217
 10
-35.5431515954
 20
-4.676540292
 10
-35.5612356533
 20
-4.7047712157
 10
-35.5786811267
 20
-4.7334109099
 10
-35.5954766992
 20
-4.7624475918
 10
-35.6116110542
 20
-4.7918694788
 10
-35.6278052548
 20
-4.8231145131
 10
-35.6432555313
 20
-4.8547477738
 10
-35.6579571612
 20
-4.8867470484
 10
-35.6719054216
 20
-4.9190901242
 10
-35.6850955898
 20
-4.9517547887
 10
-35.6975229432
 20
-4.9847188293
 10
-35.7091827589
 20
-5.0179600333
 10
-35.7200703142
 20
-5.0514561883
 10
-35.7301808864
 20
-5.0851850815
 10
-35.7395097529
 20
-5.1191245004
 10
-35.7480521907
 20
-5.1532522323
 10
-35.7558034773
 20
-5.1875460648
 10
-35.7627588899
 20
-5.2219837852
 10
-35.7689137057
 20
-5.2565431808
 10
-35.7742632021
 20
-5.2912020392
 10
-35.7788026562
 20
-5.3259381477
 10
-35.7825273454
 20
-5.3607292936
 10
-35.785432547
 20
-5.3955532645
 10
-35.7875135382
 20
-5.4303878478
 10
-35.7887655962
 20
-5.4652108307
 10
-35.7891839984
 20
-5.5000000008
  0
LINE
  5
51F
100
AcDbEntity
  8
CURVE
100
AcDbLine
 62
250
  6
CONTINUOUS
 10
-46.5249661208
 20
-12.8571428061
 11
-46.3107456654
 21
-12.6428571939
  0
LINE
  5
520
100
AcDbEntity
  8
CURVE
100
AcDbLine
 62
250
  6
CONTINUOUS
 10
-41.3122685979
 20
-8.1071426868
 11
-41.4193788256
 21
-8.2142858505
  0
LINE
  5
521
100
AcDbEntity
  8
CURVE
100
AcDbLine
 62
250
  6
CONTINUOUS
 10
-41.5264890532
 20
-9.2857142687
 11
-41.3122685979
 21
-9.0714286566
  0
LINE
  5
522
100
AcDbEntity
  8
CURVE
100
AcDbLine
 62
250
  6
CONTINUOUS
 10
-42.1691504192
 20
-10.0357142687
 11
-41.9549299415
 21
-9.8214286566
  0
LINE
  5
523
100
AcDbEntity
  8
CURVE
100
AcDbLine
 62
250
  6
CONTINUOUS
 10
-41.3122685979
 20
-10.3571426868
 11
-41.5264890532
 21
-10.5714286566
  0
LINE
  5
524
100
AcDbEntity
  8
CURVE
100
AcDbLine
 62
250
  6
CONTINUOUS
 10
-44.4541684753
 20
-14.25
 11
-44.668388953
 21
-14.4642857015
  0
LINE
  5
525
100
AcDbEntity
  8
CURVE
100
AcDbLine
 62
250
  6
CONTINUOUS
 10
-42.1691504192
 20
-12.3571429253
 11
-41.9549299415
 21
-12.1428571343
  0
LINE
  5
526
100
AcDbEntity
  8
CURVE
100
AcDbLine
 62
250
  6
CONTINUOUS
 10
-47.3818479197
 20
-6.3571429253
 11
-47.5960683527
 21
-6.4642853737
  0
LINE
  5
527
100
AcDbEntity
  8
CURVE
100
AcDbLine
 62
250
  6
CONTINUOUS
 10
-46.7391865761
 20
-7.1071429253
 11
-46.5249661208
 21
-6.9999997616
  0
LINE
  5
528
100
AcDbEntity
  8
CURVE
100
AcDbLine
 62
250
  6
CONTINUOUS
 10
-46.3107456654
 20
-1.7500004768
 11
-47.8102887857
 21
-1.7500004768
  0
LINE
  5
529
100
AcDbEntity
  8
CURVE
100
AcDbLine
 62
250
  6
CONTINUOUS
 10
-47.5960683527
 20
8.7499999367
 11
-47.3818479197
 21
8.6428570747
  0
LINE
  5
52A
100
AcDbEntity
  8
0
100
AcDbLine
 62
250
  6
CONTINUOUS
 10
-27.1028719424
 20
-13.5333333135
 11
-27.1028719424
 21
-13.1583333135
  0
LINE
  5
52B
100
AcDbEntity
  8
0
100
AcDbLine
 62
250
  6
CONTINUOUS
 10
-27.1028719424
 20
-12.1166666865
 11
-27.1028719424
 21
-11.8666666865
  0
LWPOLYLINE
  5
52C
100
AcDbEntity
  8
0
100
AcDbPolyline
 62
250
  6
CONTINUOUS
 90
31
 70
0
 10
-31.8420120959
 20
-7.2340457986
 10
-31.807006297
 20
-7.1835992335
 10
-31.7730195876
 20
-7.1324019613
 10
-31.740067656
 20
-7.0804795562
 10
-31.7081661904
 20
-7.0278575925
 10
-31.6773308791
 20
-6.9745616446
 10
-31.6475774103
 20
-6.9206172866
 10
-31.6189214722
 20
-6.8660500929
 10
-31.591378753
 20
-6.8108856377
 10
-31.5649649412
 20
-6.7551494953
 10
-31.5396957247
 20
-6.69886724
 10
-31.515586792
 20
-6.6420644461
 10
-31.4926538313
 20
-6.5847666878
 10
-31.4709125307
 20
-6.5269995394
 10
-31.4503785786
 20
-6.4687885752
 10
-31.4310676631
 20
-6.4101593695
 10
-31.4129886503
 20
-6.3511233622
 10
-31.3961499485
 20
-6.29172419
 10
-31.3805525236
 20
-6.231991552
 10
-31.3661973417
 20
-6.1719551472
 10
-31.3530853686
 20
-6.1116446747
 10
-31.3412175704
 20
-6.0510898333
 10
-31.330594913
 20
-5.9903203221
 10
-31.3212183624
 20
-5.9293658401
 10
-31.3130888846
 20
-5.8682560863
 10
-31.3062074454
 20
-5.8070207598
 10
-31.3005750109
 20
-5.7456895595
 10
-31.296192547
 20
-5.6842921845
 10
-31.2930610197
 20
-5.6228583336
 10
-31.2911813949
 20
-5.5614177061
 10
-31.2905546387
 20
-5.5000000008
  0
LWPOLYLINE
  5
52D
100
AcDbEntity
  8
0
100
AcDbPolyline
 62
250
  6
CONTINUOUS
 90
79
 70
0
 10
-33.2321206461
 20
-6.5636291216
 10
-33.1900039267
 20
-6.5197209859
 10
-33.1496148248
 20
-6.474003665
 10
-33.1110222365
 20
-6.4265758345
 10
-33.0742950576
 20
-6.3775361702
 10
-33.0395021843
 20
-6.3269833478
 10
-33.0067125123
 20
-6.275016043
 10
-32.9759949378
 20
-6.2217329315
 10
-32.9474183566
 20
-6.1672326889
 10
-32.9210516647
 20
-6.111613991
 10
-32.8969637582
 20
-6.0549755135
 10
-32.8752235329
 20
-5.9974159321
 10
-32.8558998848
 20
-5.9390339224
 10
-32.8390870002
 20
-5.8800674678
 10
-32.8247496751
 20
-5.8204808476
 10
-32.8128896029
 20
-5.760374269
 10
-32.8035084769
 20
-5.6998479391
 10
-32.7966079902
 20
-5.6390020649
 10
-32.7921898361
 20
-5.5779368537
 10
-32.790255708
 20
-5.5167525125
 10
-32.790807299
 20
-5.4555492485
 10
-32.7938463024
 20
-5.3944272688
 10
-32.7993744115
 20
-5.3334867805
 10
-32.8073933195
 20
-5.2728279906
 10
-32.8179047197
 20
-5.2125511064
 10
-32.8309499422
 20
-5.1525583208
 10
-32.8464624097
 20
-5.0931453909
 10
-32.8643986518
 20
-5.0344068646
 10
-32.884715198
 20
-4.9764372898
 10
-32.9073685779
 20
-4.9193312142
 10
-32.9323153209
 20
-4.8631831858
 10
-32.9595119567
 20
-4.8080877524
 10
-32.9889150146
 20
-4.7541394618
 10
-33.0204810244
 20
-4.7014328618
 10
-33.0541665155
 20
-4.6500625003
 10
-33.0899280173
 20
-4.6001229252
 10
-33.1277220596
 20
-4.5517086842
 10
-33.1674842127
 20
-4.504925291
 10
-33.209150954
 20
-4.4598238218
 10
-33.2526392018
 20
-4.4164674588
 10
-33.2978658747
 20
-4.3749193841
 10
-33.3447478909
 20
-4.3352427802
 10
-33.393202169
 20
-4.297500829
 10
-33.4431456274
 20
-4.2617567129
 10
-33.4944951845
 20
-4.2280736142
 10
-33.5471677586
 20
-4.1965147149
 10
-33.6010802683
 20
-4.1671431974
 10
-33.6561496319
 20
-4.1400222439
 10
-33.7122927679
 20
-4.1152150365
 10
-33.7694496444
 20
-4.0927668844
 10
-33.8274948067
 20
-4.0727122301
 10
-33.8863249414
 20
-4.0550654634
 10
-33.9458367349
 20
-4.0398409742
 10
-34.005926874
 20
-4.0270531524
 10
-34.0664920452
 20
-4.0167163878
 10
-34.1274289351
 20
-4.0088450704
 10
-34.1886342303
 20
-4.0034535898
 10
-34.2500046173
 20
-4.0005563361
 10
-34.3114367828
 20
-4.0001676991
 10
-34.3728274132
 20
-4.0023020686
 10
-34.4340731953
 20
-4.0069738345
 10
-34.4950453087
 20
-4.0141854382
 10
-34.5556714589
 20
-4.0239114098
 10
-34.6158536297
 20
-4.0361165421
 10
-34.6754938045
 20
-4.0507656283
 10
-34.734493967
 20
-4.0678234612
 10
-34.7927561009
 20
-4.0872548339
 10
-34.8501821897
 20
-4.1090245392
 10
-34.9066742171
 20
-4.1330973702
 10
-34.9621341666
 20
-4.1594381198
 10
-35.016464022
 20
-4.188011581
 10
-35.0695657667
 20
-4.2187825468
 10
-35.1213413846
 20
-4.2517158101
 10
-35.1671729155
 20
-4.2834917883
 10
-35.2117754677
 20
-4.3169705596
 10
-35.2550966501
 20
-4.3520975742
 10
-35.2970840716
 20
-4.388818282
 10
-35.3376853413
 20
-4.4270781332
 10
-35.3768480679
 20
-4.4668225777
  0
LINE
  5
52E
100
AcDbEntity
  8
CURVE
100
AcDbLine
 62
250
  6
CONTINUOUS
 10
-44.025727587
 20
-15.0
 11
-43.8115071317
 21
-14.7857142761
  0
LINE
  5
52F
100
AcDbEntity
  8
CURVE
100
AcDbLine
 62
250
  6
CONTINUOUS
 10
-42.5975912852
 20
-14.25
 11
-42.8118117182
 21
-14.4642857015
  0
LINE
  5
530
100
AcDbEntity
  8
0
100
AcDbLine
 62
250
  6
CONTINUOUS
 10
-40.0905546387
 20
-12.3071429014
 11
-39.904840364
 21
-12.1214287043
  0
LINE
  5
531
100
AcDbEntity
  8
CURVE
100
AcDbLine
 62
250
  6
CONTINUOUS
 10
-42.3833708522
 20
-8.6428570747
 11
-42.5975912852
 21
-8.7500002384
  0
LINE
  5
532
100
AcDbEntity
  8
0
100
AcDbLine
 62
250
  6
CONTINUOUS
 10
-40.0905546387
 20
-4.4452386856
 11
-38.7905546387
 21
-4.0738090515
  0
LINE
  5
533
100
AcDbEntity
  8
CURVE
100
AcDbLine
 62
250
  6
CONTINUOUS
 10
-49.0303825681
 20
8.067624
 11
-50.5904252554
 21
8.586932
  0
LINE
  5
534
100
AcDbEntity
  8
CURVE
100
AcDbLine
 62
250
  6
CONTINUOUS
 10
-50.5904252554
 20
8.836527
 11
-48.7909625144
 21
8.196167
  0
LINE
  5
535
100
AcDbEntity
  8
CURVE
100
AcDbLine
 62
250
  6
CONTINUOUS
 10
-46.5249661208
 20
9.285714224
 11
-46.7391865761
 21
9.3928570747
  0
LWPOLYLINE
  5
536
100
AcDbEntity
  8
RACCORDO
100
AcDbPolyline
 62
250
  6
CONTINUOUS
 90
4
 70
0
 10
-24.8731022322
 20
-14.9695944602
 10
-24.8698969049
 20
-15.6982634036
 10
-24.8685617959
 20
-16.052330015
 10
-24.8674943273
 20
-16.3942822211
  0
LWPOLYLINE
  5
537
100
AcDbEntity
  8
ASSI
100
AcDbPolyline
 62
250
  6
CONTINUOUS
 90
4
 70
0
 10
-24.8731022322
 20
-14.9695944602
 10
-24.8698969049
 20
-15.6982634036
 10
-24.8685617959
 20
-16.052330015
 10
-24.8674943273
 20
-16.3942822211
  0
LWPOLYLINE
  5
538
100
AcDbEntity
  8
RACCORDO
100
AcDbPolyline
 62
250
  6
CONTINUOUS
 90
11
 70
0
 10
-24.8674943273
 20
-16.3942822211
 10
-24.8661787556
 20
-17.027563741
 10
-24.865895825
 20
-17.3122832989
 10
-24.8658959257
 20
-17.5713654779
 10
-24.8661799437
 20
-17.8018330235
 10
-24.8667145213
 20
-18.0011595247
 10
-24.8674999715
 20
-18.1672274125
 10
-24.8685706739
 20
-18.2982396352
 10
-24.8699072617
 20
-18.3928044114
 10
-24.8714374043
 20
-18.4499377401
 10
-24.8731022322
 20
-18.4690613933
  0
LWPOLYLINE
  5
539
100
AcDbEntity
  8
ASSI
100
AcDbPolyline
 62
250
  6
CONTINUOUS
 90
11
 70
0
 10
-24.8674943273
 20
-16.3942822211
 10
-24.8661787556
 20
-17.027563741
 10
-24.865895825
 20
-17.3122832989
 10
-24.8658959257
 20
-17.5713654779
 10
-24.8661799437
 20
-17.8018330235
 10
-24.8667145213
 20
-18.0011595247
 10
-24.8674999715
 20
-18.1672274125
 10
-24.8685706739
 20
-18.2982396352
 10
-24.8699072617
 20
-18.3928044114
 10
-24.8714374043
 20
-18.4499377401
 10
-24.8731022322
 20
-18.4690613933
  0
LINE
  5
53A
100
AcDbEntity
  8
0
100
AcDbLine
 62
250
  6
CONTINUOUS
 10
-25.1031765521
 20
-11.8666666865
 11
-25.1031765521
 21
-12.2416666865
  0
LINE
  5
53B
100
AcDbEntity
  8
0
100
AcDbLine
 62
250
  6
CONTINUOUS
 10
-25.1031765521
 20
-13.2833333135
 11
-25.1031765521
 21
-13.5333333135
  0
LINE
  5
53C
100
AcDbEntity
  8
RACCORDO
100
AcDbLine
 62
250
  6
CONTINUOUS
 10
-24.8731022322
 20
14.9695944602
 11
-24.8731022322
 21
-14.9695944602
  0
LINE
  5
53D
100
AcDbEntity
  8
ASSI
100
AcDbLine
 62
250
  6
CONTINUOUS
 10
-24.8731022322
 20
14.9695944602
 11
-24.8731022322
 21
-14.9695944602
  0
LWPOLYLINE
  5
53E
100
AcDbEntity
  8
RACCORDO
100
AcDbPolyline
 62
250
  6
CONTINUOUS
 90
4
 70
0
 10
-24.8658959257
 20
17.3097754134
 10
-24.8667145213
 20
16.7175404922
 10
-24.8674999715
 20
16.3911748523
 10
-24.8685706739
 20
16.0493834983
  0
LWPOLYLINE
  5
53F
100
AcDbEntity
  8
ASSI
100
AcDbPolyline
 62
250
  6
CONTINUOUS
 90
4
 70
0
 10
-24.8658959257
 20
17.3097754134
 10
-24.8667145213
 20
16.7175404922
 10
-24.8674999715
 20
16.3911748523
 10
-24.8685706739
 20
16.0493834983
  0
LWPOLYLINE
  5
540
100
AcDbEntity
  8
RACCORDO
100
AcDbPolyline
 62
250
  6
CONTINUOUS
 90
3
 70
0
 10
-24.8685706739
 20
16.0493834983
 10
-24.8714374043
 20
15.3346868217
 10
-24.8731022322
 20
14.9695944602
  0
LWPOLYLINE
  5
541
100
AcDbEntity
  8
ASSI
100
AcDbPolyline
 62
250
  6
CONTINUOUS
 90
3
 70
0
 10
-24.8685706739
 20
16.0493834983
 10
-24.8714374043
 20
15.3346868217
 10
-24.8731022322
 20
14.9695944602
  0
LWPOLYLINE
  5
542
100
AcDbEntity
  8
0
100
AcDbPolyline
 62
250
  6
CONTINUOUS
 90
36
 70
0
 10
-36.6344758716
 20
-11.396457109
 10
-36.6476177115
 20
-11.4098920862
 10
-36.660358109
 20
-11.4237030913
 10
-36.6727027612
 20
-11.437875713
 10
-36.6846573653
 20
-11.4523955398
 10
-36.6962276185
 20
-11.4672481603
 10
-36.707419218
 20
-11.482419163
 10
-36.7182378611
 20
-11.4978941366
 10
-36.7286892448
 20
-11.5136586695
 10
-36.7387790665
 20
-11.5296983504
 10
-36.7485130232
 20
-11.5459987678
 10
-36.7578968122
 20
-11.5625455103
 10
-36.7669361307
 20
-11.5793241664
 10
-36.7756366759
 20
-11.5963203247
 10
-36.7840041449
 20
-11.6135195738
 10
-36.792044235
 20
-11.6309075021
 10
-36.7997626434
 20
-11.6484696984
 10
-36.8071650672
 20
-11.6661917511
 10
-36.8142572037
 20
-11.6840592489
 10
-36.82104475
 20
-11.7020577802
 10
-36.8275334034
 20
-11.7201729336
 10
-36.8337288609
 20
-11.7383902978
 10
-36.8396368199
 20
-11.7566954612
 10
-36.8452629776
 20
-11.7750740125
 10
-36.850613031
 20
-11.7935115401
 10
-36.8556926774
 20
-11.8119936328
 10
-36.8605076141
 20
-11.8305058789
 10
-36.8650635382
 20
-11.8490338671
 10
-36.8693661468
 20
-11.867563186
 10
-36.8752105306
 20
-11.8945897746
 10
-36.8805892034
 20
-11.9215995436
 10
-36.8855639617
 20
-11.9486035397
 10
-36.8901966021
 20
-11.9756128096
 10
-36.894548921
 20
-12.0026384001
 10
-36.898682715
 20
-12.0296913578
 10
-36.9065419145
 20
-12.0839235619
  0
LINE
  5
543
100
AcDbEntity
  8
0
100
AcDbLine
 62
250
  6
CONTINUOUS
 10
-37.3658018801
 20
-15.00013
 11
-32.3892739449
 21
-10.268444
  0
LINE
  5
544
100
AcDbEntity
  8
CURVE
100
AcDbLine
 62
250
  6
CONTINUOUS
 10
-45.096829819
 20
-14.3214285672
 11
-45.3110502519
 21
-14.4642857015
  0
LINE
  5
545
100
AcDbEntity
  8
CURVE
100
AcDbLine
 62
250
  6
CONTINUOUS
 10
-41.7407095086
 20
-9.3928570747
 11
-41.5264890532
 21
-9.2857142687
  0
LINE
  5
546
100
AcDbEntity
  8
CURVE
100
AcDbLine
 62
250
  6
CONTINUOUS
 10
-47.3818479197
 20
-12.2142857909
 11
-47.5960683527
 21
-12.321428597
  0
LINE
  5
547
100
AcDbEntity
  8
CURVE
100
AcDbLine
 62
250
  6
CONTINUOUS
 10
-46.7391865761
 20
-12.9642857909
 11
-46.5249661208
 21
-12.8571428061
  0
LINE
  5
548
100
AcDbEntity
  8
0
100
AcDbLine
 62
250
  6
CONTINUOUS
 10
-40.0905546387
 20
-8.8095238686
 11
-38.7905546387
 21
-8.1595238686
  0
LINE
  5
549
100
AcDbEntity
  8
0
100
AcDbLine
 62
7
  6
CONTINUOUS
 10
-23.6405546387
 20
3.4770677301
 11
-23.8405546387
 21
3.4770677301
  0
LINE
  5
54A
100
AcDbEntity
  8
0
100
AcDbLine
 62
7
  6
CONTINUOUS
 10
-23.8405546387
 20
3.5
 11
-23.8905546387
 21
3.5
  0
LINE
  5
54B
100
AcDbEntity
  8
CURVE
100
AcDbLine
 62
250
  6
CONTINUOUS
 10
-48.7909675129
 20
3.897904
 11
-50.5904302539
 21
3.897904
  0
LINE
  5
54C
100
AcDbEntity
  8
CURVE
100
AcDbLine
 62
250
  6
CONTINUOUS
 10
-50.2350615273
 20
4.124786
 11
-48.7909675129
 21
4.124786
  0
LINE
  5
54D
100
AcDbEntity
  8
CURVE
100
AcDbLine
 62
250
  6
CONTINUOUS
 10
-49.1311878548
 20
5.105488
 11
-50.5904302539
 21
5.105488
  0
LINE
  5
54E
100
AcDbEntity
  8
CURVE
100
AcDbLine
 62
250
  6
CONTINUOUS
 10
-50.5904302539
 20
5.332387
 11
-48.7909675129
 21
5.332387
  0
LINE
  5
54F
100
AcDbEntity
  8
CURVE
100
AcDbLine
 62
250
  6
CONTINUOUS
 10
-48.7909675129
 20
5.834015
 11
-50.5904302539
 21
5.834015
  0
LINE
  5
550
100
AcDbEntity
  8
CURVE
100
AcDbLine
 62
250
  6
CONTINUOUS
 10
-50.3888126826
 20
6.073526
 11
-49.8167119898
 21
6.073526
  0
LINE
  5
551
100
AcDbEntity
  8
CURVE
100
AcDbLine
 62
250
  6
CONTINUOUS
 10
-49.6150774237
 20
6.073526
 11
-48.9925850842
 21
6.073526
  0
LWPOLYLINE
  5
552
100
AcDbEntity
  8
RACCORDO
100
AcDbPolyline
 62
250
  6
CONTINUOUS
 90
9
 70
0
 10
-24.8731022322
 20
18.4690613933
 10
-24.8714294974
 20
18.4497965857
 10
-24.8698969049
 20
18.39230907
 10
-24.8685617959
 20
18.2972822772
 10
-24.8674943273
 20
18.1658441409
 10
-24.8667114869
 20
17.9994658399
 10
-24.8661787556
 20
17.7998660408
 10
-24.865895825
 20
17.5691075814
 10
-24.8658959257
 20
17.3097754134
  0
LWPOLYLINE
  5
553
100
AcDbEntity
  8
ASSI
100
AcDbPolyline
 62
250
  6
CONTINUOUS
 90
9
 70
0
 10
-24.8731022322
 20
18.4690613933
 10
-24.8714294974
 20
18.4497965857
 10
-24.8698969049
 20
18.39230907
 10
-24.8685617959
 20
18.2972822772
 10
-24.8674943273
 20
18.1658441409
 10
-24.8667114869
 20
17.9994658399
 10
-24.8661787556
 20
17.7998660408
 10
-24.865895825
 20
17.5691075814
 10
-24.8658959257
 20
17.3097754134
  0
LINE
  5
554
100
AcDbEntity
  8
RACCORDO
100
AcDbLine
 62
7
  6
CONTINUOUS
 10
-23.8905546387
 20
17.4692136981
 11
-23.8905546387
 21
-17.4692136981
  0
LINE
  5
555
100
AcDbEntity
  8
ASSI
100
AcDbLine
 62
7
  6
CONTINUOUS
 10
-23.8905546387
 20
17.4692136981
 11
-23.8905546387
 21
-17.4692136981
  0
LINE
  5
556
100
AcDbEntity
  8
0
100
AcDbLine
 62
7
  6
CONTINUOUS
 10
-23.8405546387
 20
-3.5
 11
-23.8405546387
 21
-3.4770677301
  0
LINE
  5
557
100
AcDbEntity
  8
0
100
AcDbLine
 62
7
  6
CONTINUOUS
 10
-23.8405546387
 20
3.4770677301
 11
-23.8405546387
 21
3.5
  0
LINE
  5
558
100
AcDbEntity
  8
RACCORDO
100
AcDbLine
 62
250
  6
CONTINUOUS
 10
-23.6957906807
 20
11.309578
 11
-23.6957906619
 21
11.247306
  0
LINE
  5
559
100
AcDbEntity
  8
ASSI
100
AcDbLine
 62
250
  6
CONTINUOUS
 10
-23.6957906807
 20
11.309578
 11
-23.6957906619
 21
11.247306
  0
LINE
  5
55A
100
AcDbEntity
  8
RACCORDO
100
AcDbLine
 62
250
  6
CONTINUOUS
 10
-23.695791315
 20
12.988499838
 11
-23.6957912466
 21
12.872047
  0
LINE
  5
55B
100
AcDbEntity
  8
ASSI
100
AcDbLine
 62
250
  6
CONTINUOUS
 10
-23.695791315
 20
12.988499838
 11
-23.6957912466
 21
12.872047
  0
LINE
  5
55C
100
AcDbEntity
  8
RACCORDO
100
AcDbLine
 62
250
  6
CONTINUOUS
 10
-23.6957903606
 20
15.7033996231
 11
-23.695793519
 21
14.3722292163
  0
LINE
  5
55D
100
AcDbEntity
  8
ASSI
100
AcDbLine
 62
250
  6
CONTINUOUS
 10
-23.6957903606
 20
15.7033996231
 11
-23.695793519
 21
14.3722292163
  0
LINE
  5
55E
100
AcDbEntity
  8
RACCORDO
100
AcDbLine
 62
250
  6
CONTINUOUS
 10
-23.6957903606
 20
-9.6966003769
 11
-23.6957903606
 21
-15.7033996231
  0
LINE
  5
55F
100
AcDbEntity
  8
ASSI
100
AcDbLine
 62
250
  6
CONTINUOUS
 10
-23.6957903606
 20
-9.6966003769
 11
-23.6957903606
 21
-15.7033996231
  0
LINE
  5
560
100
AcDbEntity
  8
0
100
AcDbLine
 62
7
  6
CONTINUOUS
 10
-23.6905546387
 20
14.3722286712
 11
-23.6905546387
 21
14.2827036875
  0
LINE
  5
561
100
AcDbEntity
  8
0
100
AcDbLine
 62
7
  6
CONTINUOUS
 10
-23.6905546387
 20
14.2770632618
 11
-23.6905546387
 21
12.9884997236
  0
LINE
  5
562
100
AcDbEntity
  8
ASSI
100
AcDbLine
 62
7
  6
CONTINUOUS
 10
-23.6905546387
 20
14.3722286712
 11
-23.6905546387
 21
12.9884997236
  0
LINE
  5
563
100
AcDbEntity
  8
0
100
AcDbLine
 62
7
  6
CONTINUOUS
 10
-23.6905546387
 20
12.872047
 11
-23.6905546387
 21
11.309578
  0
LINE
  5
564
100
AcDbEntity
  8
ASSI
100
AcDbLine
 62
7
  6
CONTINUOUS
 10
-23.6905546387
 20
12.872047
 11
-23.6905546387
 21
11.309578
  0
LINE
  5
565
100
AcDbEntity
  8
0
100
AcDbLine
 62
7
  6
CONTINUOUS
 10
-23.6905546387
 20
11.247306
 11
-23.6905546387
 21
9.320534
  0
LINE
  5
566
100
AcDbEntity
  8
ASSI
100
AcDbLine
 62
7
  6
CONTINUOUS
 10
-23.6905546387
 20
11.247306
 11
-23.6905546387
 21
9.320534
  0
LINE
  5
567
100
AcDbEntity
  8
0
100
AcDbLine
 62
7
  6
CONTINUOUS
 10
-23.6905546387
 20
9.107046
 11
-23.6905546387
 21
8.710474
  0
LINE
  5
568
100
AcDbEntity
  8
ASSI
100
AcDbLine
 62
7
  6
CONTINUOUS
 10
-23.6905546387
 20
9.107046
 11
-23.6905546387
 21
8.710474
  0
LINE
  5
569
100
AcDbEntity
  8
0
100
AcDbLine
 62
7
  6
CONTINUOUS
 10
-23.6905546387
 20
8.563305
 11
-23.6905546387
 21
7.000851
  0
LINE
  5
56A
100
AcDbEntity
  8
ASSI
100
AcDbLine
 62
7
  6
CONTINUOUS
 10
-23.6905546387
 20
8.563305
 11
-23.6905546387
 21
7.000851
  0
LINE
  5
56B
100
AcDbEntity
  8
0
100
AcDbLine
 62
7
  6
CONTINUOUS
 10
-23.6405546387
 20
3.4770677301
 11
-23.6405546387
 21
-3.4770677301
  0
LINE
  5
56C
100
AcDbEntity
  8
RACCORDO
100
AcDbLine
 62
7
  6
CONTINUOUS
 10
-23.3905546387
 20
15.4034453146
 11
-23.3905546387
 21
9.9965546854
  0
LINE
  5
56D
100
AcDbEntity
  8
ASSI
100
AcDbLine
 62
7
  6
CONTINUOUS
 10
-23.3905546387
 20
15.4034453146
 11
-23.3905546387
 21
9.9965546854
  0
LINE
  5
56E
100
AcDbEntity
  8
RACCORDO
100
AcDbLine
 62
7
  6
CONTINUOUS
 10
-23.3905546387
 20
-9.9965546854
 11
-23.3905546387
 21
-15.4034453146
  0
LINE
  5
56F
100
AcDbEntity
  8
ASSI
100
AcDbLine
 62
7
  6
CONTINUOUS
 10
-23.3905546387
 20
-9.9965546854
 11
-23.3905546387
 21
-15.4034453146
  0
LINE
  5
570
100
AcDbEntity
  8
0
100
AcDbLine
 62
7
  6
CONTINUOUS
 10
-31.3094114382
 20
-10.617648714
 11
-31.0994007242
 21
-10.407638
  0
LINE
  5
571
100
AcDbEntity
  8
0
100
AcDbLine
 62
7
  6
CONTINUOUS
 10
-31.3094114382
 20
-10.827659428
 11
-30.8893900102
 21
-10.407638
  0
LINE
  5
572
100
AcDbEntity
  8
0
100
AcDbLine
 62
7
  6
CONTINUOUS
 10
-31.3094114382
 20
-11.037670142
 11
-30.6793792962
 21
-10.407638
  0
LINE
  5
573
100
AcDbEntity
  8
0
100
AcDbLine
 62
7
  6
CONTINUOUS
 10
-31.3094114382
 20
-11.247680856
 11
-30.4693685822
 21
-10.407638
  0
LINE
  5
574
100
AcDbEntity
  8
0
100
AcDbLine
 62
7
  6
CONTINUOUS
 10
-31.3094114382
 20
-11.4576915701
 11
-30.2905546387
 21
-10.4388347705
  0
LINE
  5
575
100
AcDbEntity
  8
0
100
AcDbLine
 62
7
  6
CONTINUOUS
 10
-31.3094114382
 20
-11.6677022841
 11
-30.2905546387
 21
-10.6488454845
  0
LINE
  5
576
100
AcDbEntity
  8
0
100
AcDbLine
 62
7
  6
CONTINUOUS
 10
-31.3094114382
 20
-11.8777129981
 11
-30.2905546387
 21
-10.8588561986
  0
LINE
  5
577
100
AcDbEntity
  8
0
100
AcDbLine
 62
7
  6
CONTINUOUS
 10
-31.3094114382
 20
-12.0877237121
 11
-30.2905546387
 21
-11.0688669126
  0
LINE
  5
578
100
AcDbEntity
  8
0
100
AcDbLine
 62
7
  6
CONTINUOUS
 10
-31.3094114382
 20
-12.2977344261
 11
-30.2905546387
 21
-11.2788776266
  0
LINE
  5
579
100
AcDbEntity
  8
0
100
AcDbLine
 62
7
  6
CONTINUOUS
 10
-31.3094114382
 20
-12.5077451401
 11
-30.2905546387
 21
-11.4888883406
  0
LINE
  5
57A
100
AcDbEntity
  8
0
100
AcDbLine
 62
7
  6
CONTINUOUS
 10
-31.3094114382
 20
-12.7177558541
 11
-30.2905546387
 21
-11.6988990546
  0
LINE
  5
57B
100
AcDbEntity
  8
0
100
AcDbLine
 62
7
  6
CONTINUOUS
 10
-31.3094114382
 20
-12.9277665681
 11
-30.2905546387
 21
-11.9089097686
  0
LINE
  5
57C
100
AcDbEntity
  8
0
100
AcDbLine
 62
7
  6
CONTINUOUS
 10
-31.3094114382
 20
-13.1377772822
 11
-30.2905546387
 21
-12.1189204826
  0
LINE
  5
57D
100
AcDbEntity
  8
0
100
AcDbLine
 62
7
  6
CONTINUOUS
 10
-31.3094114382
 20
-13.3477879962
 11
-30.2905546387
 21
-12.3289311966
  0
LINE
  5
57E
100
AcDbEntity
  8
0
100
AcDbLine
 62
7
  6
CONTINUOUS
 10
-31.3094114382
 20
-13.5577987102
 11
-30.2905546387
 21
-12.5389419106
  0
LINE
  5
57F
100
AcDbEntity
  8
0
100
AcDbLine
 62
7
  6
CONTINUOUS
 10
-31.3094114382
 20
-13.7678094242
 11
-30.2905546387
 21
-12.7489526247
  0
LWPOLYLINE
  5
580
100
AcDbEntity
  8
0
100
AcDbPolyline
 62
250
  6
CONTINUOUS
 90
57
 70
0
 10
-33.7010275435
 20
-7.4118127306
 10
-33.7645643481
 20
-7.4301811809
 10
-33.8288180256
 20
-7.4464167359
 10
-33.8937014613
 20
-7.4605109996
 10
-33.9591275404
 20
-7.4724555763
 10
-34.0250091485
 20
-7.4822420699
 10
-34.0912591706
 20
-7.4898620846
 10
-34.1577904923
 20
-7.4953072245
 10
-34.2245159988
 20
-7.4985690937
 10
-34.2913485754
 20
-7.4996392963
 10
-34.3582011075
 20
-7.4985094365
 10
-34.4249864804
 20
-7.4951711182
 10
-34.4916175794
 20
-7.4896159456
 10
-34.5580072899
 20
-7.4818355229
 10
-34.6240684971
 20
-7.4718214541
 10
-34.6898161208
 20
-7.4595517732
 10
-34.7550811013
 20
-7.445064246
 10
-34.8197976653
 20
-7.4283898198
 10
-34.8839000392
 20
-7.4095594421
 10
-34.9473224495
 20
-7.3886040602
 10
-35.0099991225
 20
-7.3655546214
 10
-35.0718642848
 20
-7.3404420732
 10
-35.1328521628
 20
-7.3132973629
 10
-35.192896983
 20
-7.2841514379
 10
-35.2519329718
 20
-7.2530352456
 10
-35.3098943557
 20
-7.2199797333
 10
-35.3667153612
 20
-7.1850158484
 10
-35.4223302147
 20
-7.1481745383
 10
-35.4766731426
 20
-7.1094867504
 10
-35.5296721009
 20
-7.0689943103
 10
-35.5812842267
 20
-7.0267406096
 10
-35.6314599282
 20
-6.9827792964
 10
-35.6801496136
 20
-6.9371640186
 10
-35.7273036913
 20
-6.8899484242
 10
-35.7728725695
 20
-6.841186161
 10
-35.8168066563
 20
-6.7909308772
 10
-35.8590563602
 20
-6.7392362206
 10
-35.8995720893
 20
-6.6861558393
 10
-35.9383042519
 20
-6.6317433811
 10
-35.9752032562
 20
-6.5760524941
 10
-36.0102195105
 20
-6.5191368262
 10
-36.0433034231
 20
-6.4610500254
 10
-36.0744054022
 20
-6.4018457397
 10
-36.1035018723
 20
-6.3415386244
 10
-36.1305471751
 20
-6.2802527189
 10
-36.1555246422
 20
-6.218074627
 10
-36.1784176051
 20
-6.1550909524
 10
-36.1992093952
 20
-6.0913882991
 10
-36.217883344
 20
-6.0270532707
 10
-36.2344227829
 20
-5.9621724711
 10
-36.2488110434
 20
-5.8968325041
 10
-36.261031457
 20
-5.8311199736
 10
-36.2710673552
 20
-5.7651214833
 10
-36.2789020693
 20
-5.6989236371
 10
-36.2845189309
 20
-5.6326130387
 10
-36.2879012715
 20
-5.566276292
 10
-36.2890324225
 20
-5.5000000008
  0
LINE
  5
581
100
AcDbEntity
  8
CURVE
100
AcDbLine
 62
250
  6
CONTINUOUS
 10
-46.3107456654
 20
-11.3571428061
 11
-47.8102887857
 21
-11.7857143879
  0
LINE
  5
582
100
AcDbEntity
  8
CURVE
100
AcDbLine
 62
250
  6
CONTINUOUS
 10
-43.8115071317
 20
-11.7142857313
 11
-45.3110502519
 21
-12.1428571343
  0
LINE
  5
583
100
AcDbEntity
  8
0
100
AcDbLine
 62
7
  6
CONTINUOUS
 10
-23.8905546387
 20
7.000851
 11
-23.6905546387
 21
7.000851
  0
LINE
  5
584
100
AcDbEntity
  8
ASSI
100
AcDbLine
 62
7
  6
CONTINUOUS
 10
-23.8905546387
 20
7.000851
 11
-23.6905546387
 21
7.000851
  0
LINE
  5
585
100
AcDbEntity
  8
CURVE
100
AcDbLine
 62
250
  6
CONTINUOUS
 10
-49.8167119898
 20
7.008818
 11
-49.6150774237
 21
7.008818
  0
LINE
  5
586
100
AcDbEntity
  8
CURVE
100
AcDbLine
 62
250
  6
CONTINUOUS
 10
-50.5904302539
 20
7.076887
 11
-50.3888126826
 21
7.076887
  0
LINE
  5
587
100
AcDbEntity
  8
CURVE
100
AcDbLine
 62
250
  6
CONTINUOUS
 10
-48.9925850842
 20
7.084446
 11
-48.7909675129
 21
7.084446
  0
LINE
  5
588
100
AcDbEntity
  8
0
100
AcDbLine
 62
7
  6
CONTINUOUS
 10
-23.8905546387
 20
7.431651
 11
-23.6905546387
 21
7.431651
  0
LINE
  5
589
100
AcDbEntity
  8
ASSI
100
AcDbLine
 62
7
  6
CONTINUOUS
 10
-23.8905546387
 20
7.431651
 11
-23.6905546387
 21
7.431651
  0
LINE
  5
58A
100
AcDbEntity
  8
0
100
AcDbLine
 62
7
  6
CONTINUOUS
 10
-23.8905546387
 20
7.793796
 11
-23.6905546387
 21
7.793796
  0
LINE
  5
58B
100
AcDbEntity
  8
ASSI
100
AcDbLine
 62
7
  6
CONTINUOUS
 10
-23.8905546387
 20
7.793796
 11
-23.6905546387
 21
7.793796
  0
LINE
  5
58C
100
AcDbEntity
  8
0
100
AcDbLine
 62
7
  6
CONTINUOUS
 10
-23.8905546387
 20
8.167003
 11
-23.6905546387
 21
8.167003
  0
LINE
  5
58D
100
AcDbEntity
  8
ASSI
100
AcDbLine
 62
7
  6
CONTINUOUS
 10
-23.8905546387
 20
8.167003
 11
-23.6905546387
 21
8.167003
  0
LINE
  5
58E
100
AcDbEntity
  8
0
100
AcDbLine
 62
7
  6
CONTINUOUS
 10
-23.8905546387
 20
8.563305
 11
-23.6905546387
 21
8.563305
  0
LINE
  5
58F
100
AcDbEntity
  8
ASSI
100
AcDbLine
 62
7
  6
CONTINUOUS
 10
-23.8905546387
 20
8.563305
 11
-23.6905546387
 21
8.563305
  0
LINE
  5
590
100
AcDbEntity
  8
CURVE
100
AcDbLine
 62
250
  6
CONTINUOUS
 10
-47.3818479197
 20
8.6428570747
 11
-46.7391865761
 21
8.6428570747
  0
LINE
  5
591
100
AcDbEntity
  8
0
100
AcDbLine
 62
7
  6
CONTINUOUS
 10
-23.8905546387
 20
8.710474
 11
-23.6905546387
 21
8.710474
  0
LINE
  5
592
100
AcDbEntity
  8
ASSI
100
AcDbLine
 62
7
  6
CONTINUOUS
 10
-23.8905546387
 20
8.710474
 11
-23.6905546387
 21
8.710474
  0
LINE
  5
593
100
AcDbEntity
  8
CURVE
100
AcDbLine
 62
250
  6
CONTINUOUS
 10
-47.1676274868
 20
10.5714284778
 11
-46.7391865761
 21
10.4642856717
  0
LINE
  5
594
100
AcDbEntity
  8
CURVE
100
AcDbLine
 62
250
  6
CONTINUOUS
 10
-46.3107456654
 20
12.3928570747
 11
-47.8102887857
 21
12.8214286566
  0
LINE
  5
595
100
AcDbEntity
  8
CURVE
100
AcDbLine
 62
250
  6
CONTINUOUS
 10
-46.3107456654
 20
13.5714286566
 11
-47.8102887857
 21
13.9999998808
  0
LWPOLYLINE
  5
596
100
AcDbEntity
  8
0
100
AcDbPolyline
 62
7
  6
CONTINUOUS
 90
10
 70
0
 43
0.3500000006
 10
-43.6144563446
 20
42.7499991302
 10
-43.5430251617
 20
42.6071412964
 10
-43.5430251617
 20
42.5357146454
 10
-43.6858829956
 20
42.3928568115
 10
-43.7573141785
 20
42.3928568115
 10
-43.8287408295
 20
42.4642834625
 10
-43.8287408295
 20
42.5357146454
 10
-43.7573141785
 20
42.6785724792
 10
-43.6858829956
 20
42.7499991302
 10
-43.6144563446
 20
42.7499991302
  0
LWPOLYLINE
  5
597
100
AcDbEntity
  8
0
100
AcDbPolyline
 62
7
  6
CONTINUOUS
 90
10
 70
0
 43
0.3500000006
 10
-38.5430281677
 20
34.7500012207
 10
-38.4715969849
 20
34.6071433868
 10
-38.4715969849
 20
34.535712204
 10
-38.6144548187
 20
34.392858902
 10
-38.6858814697
 20
34.392858902
 10
-38.7573126526
 20
34.464285553
 10
-38.7573126526
 20
34.535712204
 10
-38.6858814697
 20
34.6785700378
 10
-38.6144548187
 20
34.7500012207
 10
-38.5430281677
 20
34.7500012207
  0
LINE
  5
598
100
AcDbEntity
  8
0
100
AcDbLine
 62
7
  6
CONTINUOUS
 10
-31.3094114382
 20
-13.9778201382
 11
-30.2905546387
 21
-12.9589633387
  0
LINE
  5
599
100
AcDbEntity
  8
0
100
AcDbLine
 62
7
  6
CONTINUOUS
 10
-31.3094114382
 20
-14.1878308522
 11
-30.2905546387
 21
-13.1689740527
  0
LINE
  5
59A
100
AcDbEntity
  8
0
100
AcDbLine
 62
7
  6
CONTINUOUS
 10
-31.3094114382
 20
-14.3978415662
 11
-30.2905546387
 21
-13.3789847667
  0
LINE
  5
59B
100
AcDbEntity
  8
0
100
AcDbLine
 62
7
  6
CONTINUOUS
 10
-31.293921158
 20
-14.592362
 11
-30.2905546387
 21
-13.5889954807
  0
LINE
  5
59C
100
AcDbEntity
  8
0
100
AcDbLine
 62
7
  6
CONTINUOUS
 10
-31.083910444
 20
-14.592362
 11
-30.2905546387
 21
-13.7990061947
  0
LINE
  5
59D
100
AcDbEntity
  8
0
100
AcDbLine
 62
7
  6
CONTINUOUS
 10
-30.8738997299
 20
-14.592362
 11
-30.2905546387
 21
-14.0090169087
  0
LINE
  5
59E
100
AcDbEntity
  8
0
100
AcDbLine
 62
7
  6
CONTINUOUS
 10
-30.6638890159
 20
-14.592362
 11
-30.2905546387
 21
-14.2190276227
  0
LINE
  5
59F
100
AcDbEntity
  8
0
100
AcDbLine
 62
7
  6
CONTINUOUS
 10
-30.4538783019
 20
-14.592362
 11
-30.2905546387
 21
-14.4290383368
  0
LINE
  5
5A0
100
AcDbEntity
  8
0
100
AcDbLine
 62
7
  6
CONTINUOUS
 10
-27.1028719424
 20
-11.9228572796
 11
-27.0466813494
 21
-11.8666666865
  0
LINE
  5
5A1
100
AcDbEntity
  8
0
100
AcDbLine
 62
7
  6
CONTINUOUS
 10
-27.0866706354
 20
-12.1166666865
 11
-26.8366706354
 21
-11.8666666865
  0
LINE
  5
5A2
100
AcDbEntity
  8
0
100
AcDbLine
 62
7
  6
CONTINUOUS
 10
-26.8766599214
 20
-12.1166666865
 11
-26.6266599214
 21
-11.8666666865
  0
LINE
  5
5A3
100
AcDbEntity
  8
0
100
AcDbLine
 62
7
  6
CONTINUOUS
 10
-26.6666492074
 20
-12.1166666865
 11
-26.4166492074
 21
-11.8666666865
  0
LINE
  5
5A4
100
AcDbEntity
  8
0
100
AcDbLine
 62
7
  6
CONTINUOUS
 10
-26.4566384933
 20
-12.1166666865
 11
-26.2066384933
 21
-11.8666666865
  0
LINE
  5
5A5
100
AcDbEntity
  8
0
100
AcDbLine
 62
7
  6
CONTINUOUS
 10
-26.2466277793
 20
-12.1166666865
 11
-25.9966277793
 21
-11.8666666865
  0
LINE
  5
5A6
100
AcDbEntity
  8
0
100
AcDbLine
 62
7
  6
CONTINUOUS
 10
-27.1028719424
 20
-13.1829215637
 11
-27.0394883424
 21
-13.1195379636
  0
LINE
  5
5A7
100
AcDbEntity
  8
0
100
AcDbLine
 62
7
  6
CONTINUOUS
 10
-26.0366170653
 20
-12.1166666865
 11
-25.7866170653
 21
-11.8666666865
  0
LINE
  5
5A8
100
AcDbEntity
  8
0
100
AcDbLine
 62
7
  6
CONTINUOUS
 10
-27.1028719424
 20
-13.3929322777
 11
-26.4981226497
 21
-12.7881829849
  0
LINE
  5
5A9
100
AcDbEntity
  8
0
100
AcDbLine
 62
7
  6
CONTINUOUS
 10
-25.8266063513
 20
-12.1166666865
 11
-25.5766063513
 21
-11.8666666865
  0
LINE
  5
5AA
100
AcDbEntity
  8
0
100
AcDbLine
 62
7
  6
CONTINUOUS
 10
-27.0332622642
 20
-13.5333333135
 11
-26.7832622642
 21
-13.2833333135
  0
LINE
  5
5AB
100
AcDbEntity
  8
0
100
AcDbLine
 62
7
  6
CONTINUOUS
 10
-26.6879083302
 20
-13.1879793794
 11
-25.956756957
 21
-12.4568280062
  0
LINE
  5
5AC
100
AcDbEntity
  8
0
100
AcDbLine
 62
7
  6
CONTINUOUS
 10
-25.6165956373
 20
-12.1166666865
 11
-25.3665956373
 21
-11.8666666865
  0
LINE
  5
5AD
100
AcDbEntity
  8
DRAFT
100
AcDbLine
 62
7
  6
CONTINUOUS
 10
-46.7905546387
 20
-19.9483339502
 11
-50.6828809589
 21
-22.1955695989
  0
LINE
  5
5AE
100
AcDbEntity
  8
0
100
AcDbLine
 62
250
  6
CONTINUOUS
 10
-40.0905546387
 20
-15.0
 11
-39.3476975014
 21
-14.628571412
  0
LINE
  5
5AF
100
AcDbEntity
  8
CURVE
100
AcDbLine
 62
250
  6
CONTINUOUS
 10
-43.8115071317
 20
-13.3928571939
 11
-45.3110502519
 21
-13.821428597
  0
LINE
  5
5B0
100
AcDbEntity
  8
0
100
AcDbLine
 62
250
  6
CONTINUOUS
 10
-40.0905546387
 20
-13.5142856479
 11
-38.7905546387
 21
-13.1428570986
  0
LWPOLYLINE
  5
5B1
100
AcDbEntity
  8
CURVE
100
AcDbPolyline
 62
250
  6
CONTINUOUS
 90
95
 70
0
 10
-49.5114398764
 20
11.0085272007
 10
-49.4871922548
 20
11.0086952935
 10
-49.4627354027
 20
11.0092173276
 10
-49.4381097742
 20
11.0101199369
 10
-49.4133558233
 20
11.0114297554
 10
-49.3885140042
 20
11.013173417
 10
-49.3636247708
 20
11.0153775554
 10
-49.3387285774
 20
11.0180688046
 10
-49.3138658779
 20
11.0212737985
 10
-49.2890771263
 20
11.0250191709
 10
-49.2644027769
 20
11.0293315558
 10
-49.2398832836
 20
11.0342375869
 10
-49.2155591005
 20
11.0397638982
 10
-49.1914706817
 20
11.0459371236
 10
-49.1676584812
 20
11.052783897
 10
-49.1441629532
 20
11.0603308521
 10
-49.1210245517
 20
11.068604623
 10
-49.0982837307
 20
11.0776318435
 10
-49.0759809444
 20
11.0874391474
 10
-49.0541566467
 20
11.0980531687
 10
-49.0328512919
 20
11.1095005411
 10
-49.0121053338
 20
11.1218078988
 10
-48.9919592267
 20
11.1350018753
 10
-48.9724534246
 20
11.1491091048
 10
-48.9536283815
 20
11.164156221
 10
-48.9353860063
 20
11.1802810585
 10
-48.9178967463
 20
11.1973265814
 10
-48.9011814668
 20
11.2152321637
 10
-48.8852610329
 20
11.2339371791
 10
-48.8701563097
 20
11.2533810015
 10
-48.8558881625
 20
11.2735030048
 10
-48.8424774563
 20
11.2942425628
 10
-48.8299450563
 20
11.3155390492
 10
-48.8183118278
 20
11.3373318381
 10
-48.8075986358
 20
11.3595603032
 10
-48.7978263456
 20
11.3821638183
 10
-48.7890158222
 20
11.4050817573
 10
-48.7804646451
 20
11.4305279679
 10
-48.7730349909
 20
11.4562511243
 10
-48.7666652273
 20
11.4822225826
 10
-48.7612937219
 20
11.5084136991
 10
-48.7568588423
 20
11.5347958299
 10
-48.7532989562
 20
11.5613403311
 10
-48.7505524313
 20
11.5880185591
 10
-48.7485576351
 20
11.6148018699
 10
-48.7472529354
 20
11.6416616197
 10
-48.7465766998
 20
11.6685691648
 10
-48.7464672959
 20
11.6954958612
 10
-48.7468829604
 20
11.7224208261
 10
-48.7478606246
 20
11.7493112951
 10
-48.7494568203
 20
11.7761422696
 10
-48.7517280791
 20
11.8028887513
 10
-48.754730933
 20
11.8295257416
 10
-48.7585219137
 20
11.8560282422
 10
-48.7631575528
 20
11.8823712544
 10
-48.7686943823
 20
11.9085297798
 10
-48.7751889338
 20
11.93447882
 10
-48.7826977392
 20
11.9601933765
 10
-48.7912773301
 20
11.9856484509
 10
-48.8000621328
 20
12.0085807358
 10
-48.8097667587
 20
12.0312158626
 10
-48.8203757145
 20
12.0534927022
 10
-48.8318735068
 20
12.0753501253
 10
-48.8442446423
 20
12.0967270028
 10
-48.8574736276
 20
12.1175622055
 10
-48.8715449693
 20
12.1377946042
 10
-48.8864431741
 20
12.1573630698
 10
-48.9021527484
 20
12.1762064731
 10
-48.9186581991
 20
12.1942636848
 10
-48.9359440326
 20
12.2114735759
 10
-48.9539947557
 20
12.2277750171
 10
-48.9726752047
 20
12.2430318747
 10
-48.9920546529
 20
12.2573559887
 10
-49.0120916925
 20
12.2707725647
 10
-49.0327449156
 20
12.2833068079
 10
-49.0539729145
 20
12.2949839237
 10
-49.0757342813
 20
12.3058291174
 10
-49.0979876082
 20
12.3158675944
 10
-49.1206914874
 20
12.32512456
 10
-49.143804511
 20
12.3336252196
 10
-49.1672852712
 20
12.3413947786
 10
-49.1910923602
 20
12.3484584422
 10
-49.2151843701
 20
12.3548414159
 10
-49.2395198932
 20
12.3605689049
 10
-49.2640575216
 20
12.3656661146
 10
-49.2887558475
 20
12.3701582504
 10
-49.3135734631
 20
12.3740705177
 10
-49.3384689605
 20
12.3774281217
 10
-49.3634009319
 20
12.3802562678
 10
-49.3883279695
 20
12.3825801614
 10
-49.4132086654
 20
12.3844250078
 10
-49.4380016119
 20
12.3858160123
 10
-49.4626654011
 20
12.3867783804
 10
-49.4871586252
 20
12.3873373173
 10
-49.5114398764
 20
12.3875180284
  0
LINE
  5
5B2
100
AcDbEntity
  8
0
100
AcDbLine
 62
7
  6
CONTINUOUS
 10
-23.8905546387
 20
9.107046
 11
-23.6905546387
 21
9.107046
  0
LINE
  5
5B3
100
AcDbEntity
  8
ASSI
100
AcDbLine
 62
7
  6
CONTINUOUS
 10
-23.8905546387
 20
9.107046
 11
-23.6905546387
 21
9.107046
  0
LINE
  5
5B4
100
AcDbEntity
  8
CURVE
100
AcDbLine
 62
250
  6
CONTINUOUS
 10
-48.7909675129
 20
9.14156
 11
-50.5904302539
 21
9.14156
  0
LINE
  5
5B5
100
AcDbEntity
  8
0
100
AcDbLine
 62
7
  6
CONTINUOUS
 10
-23.8905546387
 20
9.320534
 11
-23.6905546387
 21
9.320534
  0
LINE
  5
5B6
100
AcDbEntity
  8
ASSI
100
AcDbLine
 62
7
  6
CONTINUOUS
 10
-23.8905546387
 20
9.320534
 11
-23.6905546387
 21
9.320534
  0
LINE
  5
5B7
100
AcDbEntity
  8
CURVE
100
AcDbLine
 62
250
  6
CONTINUOUS
 10
-50.3888126826
 20
9.381053
 11
-49.8167119898
 21
9.381053
  0
LINE
  5
5B8
100
AcDbEntity
  8
CURVE
100
AcDbLine
 62
250
  6
CONTINUOUS
 10
-49.6150774237
 20
9.381053
 11
-48.9925850842
 21
9.381053
  0
LINE
  5
5B9
100
AcDbEntity
  8
CURVE
100
AcDbLine
 62
250
  6
CONTINUOUS
 10
-46.7391865761
 20
9.3928570747
 11
-47.3818479197
 21
9.3928570747
  0
LINE
  5
5BA
100
AcDbEntity
  8
0
100
AcDbLine
 62
7
  6
CONTINUOUS
 10
-23.8905546387
 20
9.492079
 11
-23.6905546387
 21
9.492079
  0
LINE
  5
5BB
100
AcDbEntity
  8
ASSI
100
AcDbLine
 62
7
  6
CONTINUOUS
 10
-23.8905546387
 20
9.492079
 11
-23.6905546387
 21
9.492079
  0
LINE
  5
5BC
100
AcDbEntity
  8
CURVE
100
AcDbLine
 62
250
  6
CONTINUOUS
 10
-47.1676274868
 20
9.8214284778
 11
-47.5960683527
 21
9.8214284778
  0
LINE
  5
5BD
100
AcDbEntity
  8
0
100
AcDbLine
 62
7
  6
CONTINUOUS
 10
-23.8905546387
 20
9.888323
 11
-23.6905546387
 21
9.888323
  0
LINE
  5
5BE
100
AcDbEntity
  8
ASSI
100
AcDbLine
 62
7
  6
CONTINUOUS
 10
-23.8905546387
 20
9.888323
 11
-23.6905546387
 21
9.888323
  0
LINE
  5
5BF
100
AcDbEntity
  8
0
100
AcDbLine
 62
7
  6
CONTINUOUS
 10
-23.8905546387
 20
10.280707
 11
-23.6905546387
 21
10.280707
  0
LINE
  5
5C0
100
AcDbEntity
  8
ASSI
100
AcDbLine
 62
7
  6
CONTINUOUS
 10
-23.8905546387
 20
10.280707
 11
-23.6905546387
 21
10.280707
  0
LINE
  5
5C1
100
AcDbEntity
  8
CURVE
100
AcDbLine
 62
250
  6
CONTINUOUS
 10
-49.8167119898
 20
10.316398
 11
-49.6150774237
 21
10.316398
  0
LINE
  5
5C2
100
AcDbEntity
  8
CURVE
100
AcDbLine
 62
250
  6
CONTINUOUS
 10
-50.5904302539
 20
10.384415
 11
-50.3888126826
 21
10.384415
  0
LINE
  5
5C3
100
AcDbEntity
  8
CURVE
100
AcDbLine
 62
250
  6
CONTINUOUS
 10
-48.9925850842
 20
10.392007
 11
-48.7909675129
 21
10.392007
  0
LINE
  5
5C4
100
AcDbEntity
  8
CURVE
100
AcDbLine
 62
250
  6
CONTINUOUS
 10
-47.5960683527
 20
10.5714284778
 11
-47.1676274868
 21
10.5714284778
  0
LINE
  5
5C5
100
AcDbEntity
  8
0
100
AcDbLine
 62
7
  6
CONTINUOUS
 10
-23.8905546387
 20
10.677279
 11
-23.6905546387
 21
10.677279
  0
LINE
  5
5C6
100
AcDbEntity
  8
ASSI
100
AcDbLine
 62
7
  6
CONTINUOUS
 10
-23.8905546387
 20
10.677279
 11
-23.6905546387
 21
10.677279
  0
LINE
  5
5C7
100
AcDbEntity
  8
CURVE
100
AcDbLine
 62
250
  6
CONTINUOUS
 10
-49.5114398764
 20
11.0085272007
 11
-50.5921135504
 21
11.0085272007
  0
LINE
  5
5C8
100
AcDbEntity
  8
0
100
AcDbLine
 62
7
  6
CONTINUOUS
 10
-23.8905546387
 20
11.069649
 11
-23.6905546387
 21
11.069649
  0
LINE
  5
5C9
100
AcDbEntity
  8
ASSI
100
AcDbLine
 62
7
  6
CONTINUOUS
 10
-23.8905546387
 20
11.069649
 11
-23.6905546387
 21
11.069649
  0
LINE
  5
5CA
100
AcDbEntity
  8
CURVE
100
AcDbLine
 62
250
  6
CONTINUOUS
 10
-50.5921135504
 20
11.1196482155
 11
-49.5114398764
 21
11.1196482155
  0
LINE
  5
5CB
100
AcDbEntity
  8
0
100
AcDbLine
 62
7
  6
CONTINUOUS
 10
-23.8905546387
 20
11.247306
 11
-23.6905546387
 21
11.247306
  0
LINE
  5
5CC
100
AcDbEntity
  8
ASSI
100
AcDbLine
 62
7
  6
CONTINUOUS
 10
-23.8905546387
 20
11.247306
 11
-23.6905546387
 21
11.247306
  0
LINE
  5
5CD
100
AcDbEntity
  8
0
100
AcDbLine
 62
7
  6
CONTINUOUS
 10
-23.8905546387
 20
11.309578
 11
-23.6905546387
 21
11.309578
  0
LINE
  5
5CE
100
AcDbEntity
  8
ASSI
100
AcDbLine
 62
7
  6
CONTINUOUS
 10
-23.8905546387
 20
11.309578
 11
-23.6905546387
 21
11.309578
  0
LINE
  5
5CF
100
AcDbEntity
  8
CURVE
100
AcDbLine
 62
250
  6
CONTINUOUS
 10
-47.5960683527
 20
11.6071427464
 11
-47.2747376586
 21
11.6071427464
  0
LINE
  5
5D0
100
AcDbEntity
  8
CURVE
100
AcDbLine
 62
250
  6
CONTINUOUS
 10
-46.9534070091
 20
11.6428570747
 11
-46.4178558931
 21
11.6428570747
  0
LINE
  5
5D1
100
AcDbEntity
  8
DRAFT
100
AcDbLine
 62
7
  6
CONTINUOUS
 10
-46.7905546387
 20
19.9483339502
 11
-50.6828809589
 21
22.1955695989
  0
LINE
  5
5D2
100
AcDbEntity
  8
0
100
AcDbLine
 62
7
  6
CONTINUOUS
 10
-26.8232515502
 20
-13.5333333135
 11
-26.5732515502
 21
-13.2833333135
  0
LINE
  5
5D3
100
AcDbEntity
  8
0
100
AcDbLine
 62
7
  6
CONTINUOUS
 10
-26.1666039708
 20
-12.876685734
 11
-25.4153912642
 21
-12.1254730275
  0
LINE
  5
5D4
100
AcDbEntity
  8
0
100
AcDbLine
 62
7
  6
CONTINUOUS
 10
-25.4065849233
 20
-12.1166666865
 11
-25.1565849233
 21
-11.8666666865
  0
LINE
  5
5D5
100
AcDbEntity
  8
0
100
AcDbLine
 62
7
  6
CONTINUOUS
 10
-26.6132408362
 20
-13.5333333135
 11
-26.3632408362
 21
-13.2833333135
  0
LINE
  5
5D6
100
AcDbEntity
  8
0
100
AcDbLine
 62
7
  6
CONTINUOUS
 10
-25.6452996114
 20
-12.5653920886
 11
-25.1031765521
 21
-12.0232690294
  0
LINE
  5
5D7
100
AcDbEntity
  8
0
100
AcDbLine
 62
7
  6
CONTINUOUS
 10
-26.4032301222
 20
-13.5333333135
 11
-26.1532301222
 21
-13.2833333135
  0
LINE
  5
5D8
100
AcDbEntity
  8
0
100
AcDbLine
 62
7
  6
CONTINUOUS
 10
-25.123995252
 20
-12.2540984432
 11
-25.1031765521
 21
-12.2332797434
  0
LINE
  5
5D9
100
AcDbEntity
  8
0
100
AcDbLine
 62
7
  6
CONTINUOUS
 10
-26.1932194082
 20
-13.5333333135
 11
-25.9432194082
 21
-13.2833333135
  0
LINE
  5
5DA
100
AcDbEntity
  8
0
100
AcDbLine
 62
7
  6
CONTINUOUS
 10
-25.9832086942
 20
-13.5333333135
 11
-25.7332086942
 21
-13.2833333135
  0
LINE
  5
5DB
100
AcDbEntity
  8
0
100
AcDbLine
 62
7
  6
CONTINUOUS
 10
-25.7731979802
 20
-13.5333333135
 11
-25.5231979802
 21
-13.2833333135
  0
LINE
  5
5DC
100
AcDbEntity
  8
0
100
AcDbLine
 62
7
  6
CONTINUOUS
 10
-25.5631872661
 20
-13.5333333135
 11
-25.3131872661
 21
-13.2833333135
  0
LINE
  5
5DD
100
AcDbEntity
  8
0
100
AcDbLine
 62
7
  6
CONTINUOUS
 10
-25.3531765521
 20
-13.5333333135
 11
-25.1031765521
 21
-13.2833333135
  0
LINE
  5
5DE
100
AcDbEntity
  8
0
100
AcDbLine
 62
7
  6
CONTINUOUS
 10
-25.1431658381
 20
-13.5333333135
 11
-25.1031765521
 21
-13.4933440275
  0
LINE
  5
5DF
100
AcDbEntity
  8
0
100
AcDbLine
 62
250
  6
CONTINUOUS
 10
-27.1028719424
 20
-13.1583333135
 11
-25.4010035194
 21
-12.1166666865
  0
LINE
  5
5E0
100
AcDbEntity
  8
0
100
AcDbLine
 62
250
  6
CONTINUOUS
 10
-25.1031765521
 20
-12.2416666865
 11
-26.8475917103
 21
-13.2833333135
  0
LWPOLYLINE
  5
5E1
100
AcDbEntity
  8
CURVE
100
AcDbPolyline
 62
250
  6
CONTINUOUS
 90
57
 70
0
 10
-50.0871517603
 20
13.9987326445
 10
-50.1030290352
 20
13.9986011026
 10
-50.1189280695
 20
13.9981917589
 10
-50.134834708
 20
13.9974825367
 10
-50.1507347956
 20
13.9964513592
 10
-50.1666141771
 20
13.9950761494
 10
-50.1824586974
 20
13.9933348307
 10
-50.1982542013
 20
13.9912053261
 10
-50.2139865337
 20
13.9886655589
 10
-50.2296415393
 20
13.9856934522
 10
-50.245205063
 20
13.9822669293
 10
-50.2606629497
 20
13.9783639132
 10
-50.2760010442
 20
13.9739623273
 10
-50.2912051914
 20
13.9690400946
 10
-50.3041787926
 20
13.9643701229
 10
-50.3170242298
 20
13.9593016042
 10
-50.3297231732
 20
13.9538384799
 10
-50.3422572928
 20
13.9479846916
 10
-50.3546082589
 20
13.9417441809
 10
-50.3667577416
 20
13.9351208892
 10
-50.378687411
 20
13.9281187581
 10
-50.3903789373
 20
13.9207417292
 10
-50.4018139906
 20
13.912993744
 10
-50.4129742411
 20
13.904878744
 10
-50.4238413589
 20
13.8964006707
 10
-50.4343970141
 20
13.8875634657
 10
-50.4446228769
 20
13.8783710705
 10
-50.4545006175
 20
13.8688274267
 10
-50.4640119059
 20
13.8589364757
 10
-50.4736963196
 20
13.8480579958
 10
-50.4829524561
 20
13.8368101254
 10
-50.4917860606
 20
13.82521078
 10
-50.5002028784
 20
13.8132778752
 10
-50.5082086549
 20
13.8010293267
 10
-50.5158091354
 20
13.78848305
 10
-50.5230100652
 20
13.7756569608
 10
-50.5298171896
 20
13.7625689746
 10
-50.536236254
 20
13.7492370072
 10
-50.5422730037
 20
13.7356789739
 10
-50.5479331839
 20
13.7219127906
 10
-50.5532225401
 20
13.7079563727
 10
-50.5581468175
 20
13.6938276358
 10
-50.5627117615
 20
13.6795444956
 10
-50.5669231173
 20
13.6651248678
 10
-50.5707866303
 20
13.6505866677
 10
-50.5743080458
 20
13.6359478112
 10
-50.5774931092
 20
13.6212262137
 10
-50.5803475657
 20
13.6064397909
 10
-50.5828771608
 20
13.5916064584
 10
-50.5850876396
 20
13.5767441318
 10
-50.5869847475
 20
13.5618707267
 10
-50.5885742299
 20
13.5470041586
 10
-50.589861832
 20
13.5321623433
 10
-50.5908532992
 20
13.5173631962
 10
-50.5915543768
 20
13.502624633
 10
-50.5919708101
 20
13.4879645694
 10
-50.5921083445
 20
13.4734009208
  0
LINE
  5
5E2
100
AcDbEntity
  8
0
100
AcDbLine
 62
7
  6
CONTINUOUS
 10
-23.8905546387
 20
11.905491
 11
-23.6905546387
 21
11.905491
  0
LINE
  5
5E3
100
AcDbEntity
  8
ASSI
100
AcDbLine
 62
7
  6
CONTINUOUS
 10
-23.8905546387
 20
11.905491
 11
-23.6905546387
 21
11.905491
  0
LINE
  5
5E4
100
AcDbEntity
  8
CURVE
100
AcDbLine
 62
250
  6
CONTINUOUS
 10
-47.8102887857
 20
12.0714286566
 11
-47.4889580915
 21
12.0714286566
  0
LINE
  5
5E5
100
AcDbEntity
  8
CURVE
100
AcDbLine
 62
250
  6
CONTINUOUS
 10
-49.5114398764
 20
12.2763980551
 11
-50.5921135504
 21
12.2763980551
  0
LINE
  5
5E6
100
AcDbEntity
  8
0
100
AcDbLine
 62
7
  6
CONTINUOUS
 10
-23.8905546387
 20
12.289127
 11
-23.6905546387
 21
12.289127
  0
LINE
  5
5E7
100
AcDbEntity
  8
ASSI
100
AcDbLine
 62
7
  6
CONTINUOUS
 10
-23.8905546387
 20
12.289127
 11
-23.6905546387
 21
12.289127
  0
LINE
  5
5E8
100
AcDbEntity
  8
CURVE
100
AcDbLine
 62
250
  6
CONTINUOUS
 10
-50.5921135504
 20
12.3875180284
 11
-49.5114398764
 21
12.3875180284
  0
LINE
  5
5E9
100
AcDbEntity
  8
CURVE
100
AcDbLine
 62
250
  6
CONTINUOUS
 10
-48.7893540173
 20
12.7055897345
 11
-50.5921083445
 21
12.7055897345
  0
LINE
  5
5EA
100
AcDbEntity
  8
CURVE
100
AcDbLine
 62
250
  6
CONTINUOUS
 10
-50.4961527197
 20
12.8167794885
 11
-49.6881982377
 21
12.8167794885
  0
LINE
  5
5EB
100
AcDbEntity
  8
CURVE
100
AcDbLine
 62
250
  6
CONTINUOUS
 10
-49.5922426129
 20
12.8167794885
 11
-48.7893540173
 21
12.8167794885
  0
LINE
  5
5EC
100
AcDbEntity
  8
0
100
AcDbLine
 62
7
  6
CONTINUOUS
 10
-23.8905546387
 20
12.872047
 11
-23.6905546387
 21
12.872047
  0
LINE
  5
5ED
100
AcDbEntity
  8
ASSI
100
AcDbLine
 62
7
  6
CONTINUOUS
 10
-23.8905546387
 20
12.872047
 11
-23.6905546387
 21
12.872047
  0
LINE
  5
5EE
100
AcDbEntity
  8
0
100
AcDbLine
 62
7
  6
CONTINUOUS
 10
-23.8905546387
 20
12.9884997236
 11
-23.6905546387
 21
12.9884997236
  0
LINE
  5
5EF
100
AcDbEntity
  8
ASSI
100
AcDbLine
 62
7
  6
CONTINUOUS
 10
-23.8905546387
 20
12.9884997236
 11
-23.6905546387
 21
12.9884997236
  0
LINE
  5
5F0
100
AcDbEntity
  8
CURVE
100
AcDbLine
 62
250
  6
CONTINUOUS
 10
-47.8102887857
 20
13.2499998808
 11
-47.4889580915
 21
13.2499998808
  0
LINE
  5
5F1
100
AcDbEntity
  8
0
100
AcDbLine
 62
250
  6
CONTINUOUS
 10
-23.8905546387
 20
13.9671795833
 11
-23.6905546387
 21
13.9671795833
  0
LINE
  5
5F2
100
AcDbEntity
  8
ASSI
100
AcDbLine
 62
250
  6
CONTINUOUS
 10
-23.8905546387
 20
13.9671795833
 11
-23.6905546387
 21
13.9671795833
  0
LINE
  5
5F3
100
AcDbEntity
  8
0
100
AcDbLine
 62
7
  6
CONTINUOUS
 10
-23.6905546387
 20
14.2770632728
 11
-23.8905546387
 21
14.2770632728
  0
LINE
  5
5F4
100
AcDbEntity
  8
ASSI
100
AcDbLine
 62
7
  6
CONTINUOUS
 10
-23.6905546387
 20
14.2770632728
 11
-23.8905546387
 21
14.2770632728
  0
LINE
  5
5F5
100
AcDbEntity
  8
0
100
AcDbLine
 62
7
  6
CONTINUOUS
 10
-23.8905546387
 20
14.3722286712
 11
-23.6905546387
 21
14.3722286712
  0
LINE
  5
5F6
100
AcDbEntity
  8
ASSI
100
AcDbLine
 62
7
  6
CONTINUOUS
 10
-23.8905546387
 20
14.3722286712
 11
-23.6905546387
 21
14.3722286712
  0
LWPOLYLINE
  5
5F7
100
AcDbEntity
  8
CURVE
100
AcDbPolyline
 62
250
  6
CONTINUOUS
 90
60
 70
0
 10
-49.5114398764
 20
12.2763980551
 10
-49.4944779643
 20
12.2763175544
 10
-49.4773887799
 20
12.2760670663
 10
-49.4601907217
 20
12.2756331123
 10
-49.4429021884
 20
12.2750022136
 10
-49.4255415784
 20
12.2741608915
 10
-49.4081272903
 20
12.2730956674
 10
-49.3906777225
 20
12.2717930625
 10
-49.3732112737
 20
12.2702395983
 10
-49.3557463423
 20
12.2684217959
 10
-49.3383013269
 20
12.2663261768
 10
-49.320894626
 20
12.2639392621
 10
-49.3035446381
 20
12.2612475733
 10
-49.2862697618
 20
12.2582376317
 10
-49.2690883956
 20
12.2548959586
 10
-49.252018938
 20
12.2512090752
 10
-49.2350797875
 20
12.2471635029
 10
-49.2182893427
 20
12.242745763
 10
-49.2016660021
 20
12.2379423769
 10
-49.1852281643
 20
12.2327398658
 10
-49.1689942277
 20
12.227124751
 10
-49.1529825909
 20
12.221083554
 10
-49.1372116524
 20
12.2146027959
 10
-49.1216998108
 20
12.2076689981
 10
-49.1064654645
 20
12.2002686819
 10
-49.0915270122
 20
12.1923883686
 10
-49.0769028523
 20
12.1840145796
 10
-49.0626113833
 20
12.1751338361
 10
-49.0486710039
 20
12.1657326595
 10
-49.0351001124
 20
12.1557975711
 10
-49.0219171076
 20
12.1453150922
 10
-49.0091640375
 20
12.134301063
 10
-48.9968258761
 20
12.1227557554
 10
-48.984912861
 20
12.1107065316
 10
-48.97343523
 20
12.098180754
 10
-48.9624032209
 20
12.0852057848
 10
-48.9518270714
 20
12.0718089864
 10
-48.9417170192
 20
12.0580177211
 10
-48.9320833021
 20
12.0438593512
 10
-48.9229361579
 20
12.0293612391
 10
-48.9142858243
 20
12.014550747
 10
-48.906142539
 20
11.9994552372
 10
-48.8985165398
 20
11.9841020721
 10
-48.8914180644
 20
11.968518614
 10
-48.8848573506
 20
11.9527322252
 10
-48.8788446362
 20
11.9367702681
 10
-48.8729919592
 20
11.9194281182
 10
-48.8677561848
 20
11.9019298963
 10
-48.8631079592
 20
11.8842911046
 10
-48.8590179285
 20
11.8665272454
 10
-48.8554567389
 20
11.848653821
 10
-48.8523950364
 20
11.8306863335
 10
-48.8498034673
 20
11.8126402852
 10
-48.8476526777
 20
11.7945311785
 10
-48.8459133138
 20
11.7763745155
 10
-48.8445560216
 20
11.7581857985
 10
-48.8435514474
 20
11.7399805297
 10
-48.8428702372
 20
11.7217742115
 10
-48.8424830373
 20
11.703582346
 10
-48.8423604937
 20
11.6854204356
  0
LINE
  5
5F8
100
AcDbEntity
  8
RACCORDO
100
AcDbLine
 62
7
  6
CONTINUOUS
 10
-23.8905546387
 20
15.7
 11
-23.6957903606
 21
15.7033996231
  0
LINE
  5
5F9
100
AcDbEntity
  8
ASSI
100
AcDbLine
 62
7
  6
CONTINUOUS
 10
-23.8905546387
 20
15.7
 11
-23.6957903606
 21
15.7033996231
  0
LINE
  5
5FA
100
AcDbEntity
  8
RACCORDO
100
AcDbLine
 62
250
  6
CONTINUOUS
 10
-23.8905546387
 20
14.9695944602
 11
-24.8731022322
 21
14.9695944602
  0
LINE
  5
5FB
100
AcDbEntity
  8
ASSI
100
AcDbLine
 62
250
  6
CONTINUOUS
 10
-23.8905546387
 20
14.9695944602
 11
-24.8731022322
 21
14.9695944602
  0
LINE
  5
5FC
100
AcDbEntity
  8
RACCORDO
100
AcDbLine
 62
250
  6
CONTINUOUS
 10
-55.2905546387
 20
17.0643546451
 11
-56.7905546387
 21
17.0730014938
  0
LINE
  5
5FD
100
AcDbEntity
  8
RACCORDO
100
AcDbLine
 62
250
  6
CONTINUOUS
 10
-55.2905546387
 20
16.4544358981
 11
-56.7905546387
 21
16.4633443083
  0
LINE
  5
5FE
100
AcDbEntity
  8
RACCORDO
100
AcDbLine
 62
250
  6
CONTINUOUS
 10
-55.2905546387
 20
15.500533067
 11
-24.8731022322
 21
14.9695944602
  0
LINE
  5
5FF
100
AcDbEntity
  8
ASSI
100
AcDbLine
 62
250
  6
CONTINUOUS
 10
-55.2905546387
 20
15.500533067
 11
-24.8731022322
 21
14.9695944602
  0
LINE
  5
600
100
AcDbEntity
  8
RACCORDO
100
AcDbLine
 62
7
  6
CONTINUOUS
 10
-55.2905546387
 20
18.2298208395
 11
-56.7905546387
 21
18.3006924196
  0
LINE
  5
601
100
AcDbEntity
  8
RACCORDO
100
AcDbLine
 62
250
  6
CONTINUOUS
 10
-55.2905546387
 20
18.1595749722
 11
-56.7905546387
 21
18.2308351883
  0
LINE
  5
602
100
AcDbEntity
  8
DRAFT
100
AcDbLine
 62
7
  6
CONTINUOUS
 10
-56.7905546387
 20
18.9869096983
 11
-47.4218858061
 21
19.0686688326
  0
LINE
  5
603
100
AcDbEntity
  8
RACCORDO
100
AcDbLine
 62
7
  6
CONTINUOUS
 10
-55.2905546387
 20
19.0
 11
-24.8731022322
 21
18.4690613933
  0
LINE
  5
604
100
AcDbEntity
  8
ASSI
100
AcDbLine
 62
7
  6
CONTINUOUS
 10
-55.2905546387
 20
19.0
 11
-24.8731022322
 21
18.4690613933
  0
LWPOLYLINE
  5
605
100
AcDbEntity
  8
0
100
AcDbPolyline
 62
250
  6
CONTINUOUS
 90
4
 70
0
 10
-65.8485672721
 20
21.0183132877
 10
-65.8458928001
 20
21.0181627949
 10
-65.8378947324
 20
21.0177887256
 10
-65.3577579407
 20
20.9972959167
  0
LINE
  5
606
100
AcDbEntity
  8
0
100
AcDbLine
 62
250
  6
CONTINUOUS
 10
-64.8843678837
 20
21.4755923698
 11
-56.7905546387
 21
21.8997711479
  0
LINE
  5
607
100
AcDbEntity
  8
DRAFT
100
AcDbLine
 62
7
  6
CONTINUOUS
 10
-56.7905546387
 20
20.9
 11
-48.4938122832
 21
20.9317102097
  0
LINE
  5
608
100
AcDbEntity
  8
DRAFT
100
AcDbLine
 62
7
  6
CONTINUOUS
 10
-55.0061440731
 20
22.6550057102
 11
-52.7905546387
 21
22.6454332982
  0
LWPOLYLINE
  5
609
100
AcDbEntity
  8
DRAFT
100
AcDbPolyline
 62
7
  6
CONTINUOUS
 90
3
 70
0
 10
-56.7905546387
 20
22.663166622
 10
-56.3434586214
 20
22.6610857576
 10
-55.0061440731
 20
22.6550057102
  0
LINE
  5
60A
100
AcDbEntity
  8
DRAFT
100
AcDbLine
 62
7
  6
CONTINUOUS
 10
-52.7905546387
 20
21.2139629885
 11
-48.9242477448
 21
21.1802222394
  0
LINE
  5
60B
100
AcDbEntity
  8
DRAFT
100
AcDbLine
 62
7
  6
CONTINUOUS
 10
-50.6828809589
 20
22.1955695989
 11
-51.1905546387
 21
22.2
  0
LINE
  5
60C
100
AcDbEntity
  8
DRAFT
100
AcDbLine
 62
7
  6
CONTINUOUS
 10
-56.7905546387
 20
23.5
 11
-52.7905546387
 21
23.4650925288
  0
LINE
  5
60D
100
AcDbEntity
  8
DRAFT
100
AcDbLine
 62
7
  6
CONTINUOUS
 10
-56.7905546387
 20
23.1799085618
 11
-55.0061440731
 21
23.1627709161
  0
LWPOLYLINE
  5
60E
100
AcDbEntity
  8
DRAFT
100
AcDbPolyline
 62
7
  6
CONTINUOUS
 90
4
 70
0
 10
-55.0061440731
 20
23.1627709161
 10
-53.6747964401
 20
23.149733348
 10
-53.2323433041
 20
23.1453512819
 10
-52.7905546387
 20
23.1409517823
  0
LINE
  5
60F
100
AcDbEntity
  8
0
100
AcDbLine
 62
7
  6
CONTINUOUS
 10
-64.9018096586
 20
21.9749071372
 11
-56.7905546387
 21
22.4
  0
LWPOLYLINE
  5
610
100
AcDbEntity
  8
0
100
AcDbPolyline
 62
7
  6
CONTINUOUS
 90
6
 70
0
 43
0.3500000006
 10
-43.6858829956
 20
34.2500010681
 10
-42.6144560394
 20
34.2500010681
 10
-42.4001715546
 20
34.464285553
 10
-42.4001715546
 20
35.5357125092
 10
-42.8287405243
 20
35.9642860107
 10
-43.2573140259
 20
35.9642860107
  0
LWPOLYLINE
  5
611
100
AcDbEntity
  8
0
100
AcDbPolyline
 62
7
  6
CONTINUOUS
 90
3
 70
0
 43
0.3500000006
 10
-40.0430286255
 20
34.8928590546
 10
-41.5430245514
 20
34.8928590546
 10
-40.9001710968
 20
37.2500019836
  0
LWPOLYLINE
  5
612
100
AcDbEntity
  8
0
100
AcDbPolyline
 62
7
  6
CONTINUOUS
 90
6
 70
0
 43
0.3500000006
 10
-46.4001682434
 20
42.2499989777
 10
-45.3287412872
 20
42.2499989777
 10
-45.1144568024
 20
42.4642834625
 10
-45.1144568024
 20
43.5357149506
 10
-45.5430257721
 20
43.9642839203
 10
-45.9715992737
 20
43.9642839203
  0
LWPOLYLINE
  5
613
100
AcDbEntity
  8
0
100
AcDbPolyline
 62
7
  6
CONTINUOUS
 90
3
 70
0
 43
0.3500000006
 10
-47.2573107147
 20
42.8928569641
 10
-48.7573111725
 20
42.8928569641
 10
-48.114453186
 20
45.2499998932
  0
ARC
  5
614
100
AcDbEntity
  8
DRAFT
100
AcDbCircle
 62
7
  6
CONTINUOUS
 10
11.25
 20
0.0
 40
28.0
100
AcDbArc
 50
233.1301023542
 51
234.0372348486
  0
ARC
  5
615
100
AcDbEntity
  8
DRAFT
100
AcDbCircle
 62
7
  6
CONTINUOUS
 10
11.25
 20
0.0
 40
28.0
100
AcDbArc
 50
235.8789063483
 51
237.0647695028
  0
ARC
  5
616
100
AcDbEntity
  8
DRAFT
100
AcDbCircle
 62
7
  6
CONTINUOUS
 10
11.25
 20
0.0
 40
28.0
100
AcDbArc
 50
122.9352304972
 51
124.1210936517
  0
ARC
  5
617
100
AcDbEntity
  8
DRAFT
100
AcDbCircle
 62
7
  6
CONTINUOUS
 10
11.25
 20
0.0
 40
28.0
100
AcDbArc
 50
125.9627651514
 51
126.8698976458
  0
ARC
  5
618
100
AcDbEntity
  8
DRAFT
100
AcDbCircle
 62
7
  6
CONTINUOUS
 10
-11.25
 20
0.0
 40
28.0
100
AcDbArc
 50
302.9352304972
 51
304.1210936517
  0
ARC
  5
619
100
AcDbEntity
  8
DRAFT
100
AcDbCircle
 62
7
  6
CONTINUOUS
 10
-11.25
 20
0.0
 40
28.0
100
AcDbArc
 50
305.9627651514
 51
306.8698976458
  0
ARC
  5
61A
100
AcDbEntity
  8
DRAFT
100
AcDbCircle
 62
7
  6
CONTINUOUS
 10
-11.25
 20
0.0
 40
28.0
100
AcDbArc
 50
53.1301023542
 51
54.0372348486
  0
ARC
  5
61B
100
AcDbEntity
  8
DRAFT
100
AcDbCircle
 62
7
  6
CONTINUOUS
 10
-11.25
 20
0.0
 40
28.0
100
AcDbArc
 50
55.8789063483
 51
57.0647695028
  0
ARC
  5
61C
100
AcDbEntity
  8
DRAFT
100
AcDbCircle
 62
7
  6
CONTINUOUS
 10
-4.95
 20
-23.1
 40
0.5
100
AcDbArc
 50
350.803718421
 51
119.112422776
  0
ARC
  5
61D
100
AcDbEntity
  8
DRAFT
100
AcDbCircle
 62
7
  6
CONTINUOUS
 10
-4.95
 20
23.1
 40
0.5
100
AcDbArc
 50
240.887577224
 51
9.196281579
  0
ARC
  5
61E
100
AcDbEntity
  8
DRAFT
100
AcDbCircle
 62
7
  6
CONTINUOUS
 10
4.95
 20
-23.1
 40
0.5
100
AcDbArc
 50
60.887577224
 51
189.196281579
  0
ARC
  5
61F
100
AcDbEntity
  8
DRAFT
100
AcDbCircle
 62
7
  6
CONTINUOUS
 10
4.95
 20
23.1
 40
0.5
100
AcDbArc
 50
170.803718421
 51
299.112422776
  0
ARC
  5
620
100
AcDbEntity
  8
0
100
AcDbCircle
 62
7
  6
CONTINUOUS
 10
-64.8494737024
 20
-20.9762776025
 40
1.0
100
AcDbArc
 50
182.4092313014
 51
267.0
  0
ARC
  5
621
100
AcDbEntity
  8
RACCORDO
100
AcDbCircle
 62
7
  6
CONTINUOUS
 10
-24.8905546387
 20
-17.4692136981
 40
1.0
100
AcDbArc
 50
271.0
 51
360.0
  0
ARC
  5
622
100
AcDbEntity
  8
ASSI
100
AcDbCircle
 62
7
  6
CONTINUOUS
 10
-24.8905546387
 20
-17.4692136981
 40
1.0
100
AcDbArc
 50
271.0
 51
360.0
  0
ARC
  5
623
100
AcDbEntity
  8
RACCORDO
100
AcDbCircle
 62
7
  6
CONTINUOUS
 10
-23.6905546387
 20
-9.9965546854
 40
0.3
100
AcDbArc
 50
0.0
 51
91.0000015782
  0
ARC
  5
624
100
AcDbEntity
  8
RACCORDO
100
AcDbCircle
 62
7
  6
CONTINUOUS
 10
-23.6905546387
 20
-15.4034453146
 40
0.3
100
AcDbArc
 50
269.0
 51
360.0
  0
ARC
  5
625
100
AcDbEntity
  8
ASSI
100
AcDbCircle
 62
7
  6
CONTINUOUS
 10
-23.6905546387
 20
-15.4034453146
 40
0.3
100
AcDbArc
 50
269.0
 51
360.0
  0
ARC
  5
626
100
AcDbEntity
  8
ASSI
100
AcDbCircle
 62
7
  6
CONTINUOUS
 10
-23.6905546387
 20
-9.9965546854
 40
0.3
100
AcDbArc
 50
0.0
 51
91.0000015782
  0
ARC
  5
627
100
AcDbEntity
  8
0
100
AcDbCircle
 62
7
  6
CONTINUOUS
 10
-29.2655546387
 20
0.0
 40
6.6129135031
100
AcDbArc
 50
328.2779078187
 51
31.7220921813
  0
ARC
  5
628
100
AcDbEntity
  8
0
100
AcDbCircle
 62
7
  6
CONTINUOUS
 10
-64.8494737024
 20
20.9762776025
 40
1.0
100
AcDbArc
 50
93.0
 51
177.5907686986
  0
ARC
  5
629
100
AcDbEntity
  8
RACCORDO
100
AcDbCircle
 62
7
  6
CONTINUOUS
 10
-24.8905546387
 20
17.4690299309
 40
1.0
100
AcDbArc
 50
0.0105290876
 51
89.0001836577
  0
ARC
  5
62A
100
AcDbEntity
  8
ASSI
100
AcDbCircle
 62
7
  6
CONTINUOUS
 10
-24.8905546387
 20
17.4690299309
 40
1.0
100
AcDbArc
 50
0.0105290876
 51
89.0001836577
  0
ARC
  5
62B
100
AcDbEntity
  8
RACCORDO
100
AcDbCircle
 62
7
  6
CONTINUOUS
 10
-23.6905546387
 20
9.9965546854
 40
0.3
100
AcDbArc
 50
269.0
 51
360.0
  0
ARC
  5
62C
100
AcDbEntity
  8
RACCORDO
100
AcDbCircle
 62
7
  6
CONTINUOUS
 10
-23.6905546387
 20
15.4034453146
 40
0.3
100
AcDbArc
 50
0.0
 51
91.0000015782
  0
ARC
  5
62D
100
AcDbEntity
  8
ASSI
100
AcDbCircle
 62
7
  6
CONTINUOUS
 10
-23.6905546387
 20
15.4034453146
 40
0.3
100
AcDbArc
 50
0.0
 51
91.0000015782
  0
ARC
  5
62E
100
AcDbEntity
  8
ASSI
100
AcDbCircle
 62
7
  6
CONTINUOUS
 10
-23.6905546387
 20
9.9965546854
 40
0.3
100
AcDbArc
 50
269.0
 51
360.0
  0
ARC
  5
62F
100
AcDbEntity
  8
RACCORDO
100
AcDbCircle
 62
7
  6
CONTINUOUS
 10
433.7094453613
 20
0.0
 40
500.0
100
AcDbArc
 50
178.897390096
 51
179.1766868781
  0
ARC
  5
630
100
AcDbEntity
  8
RACCORDO
100
AcDbCircle
 62
7
  6
CONTINUOUS
 10
433.7094453613
 20
0.0
 40
500.0
100
AcDbArc
 50
179.378804498
 51
179.6582680189
  0
ARC
  5
631
100
AcDbEntity
  8
RACCORDO
100
AcDbCircle
 62
7
  6
CONTINUOUS
 10
433.7094453613
 20
0.0
 40
500.0
100
AcDbArc
 50
179.8602336525
 51
180.0
  0
ARC
  5
632
100
AcDbEntity
  8
0
100
AcDbCircle
 62
7
  6
CONTINUOUS
 10
433.7094453613
 20
0.0
 40
500.0
100
AcDbArc
 50
177.5907686986
 51
182.4092313014
  0
ARC
  5
633
100
AcDbEntity
  8
RACCORDO
100
AcDbCircle
 62
7
  6
CONTINUOUS
 10
433.7094453613
 20
0.0
 40
500.0
100
AcDbArc
 50
180.8233131219
 51
181.102609904
  0
ELLIPSE
  5
634
100
AcDbEntity
  8
0
100
AcDbEllipse
 62
7
  6
CONTINUOUS
 10
10.649923836
 20
-21.899313827
 30
0.0
 11
-0.1582391023
 21
0.4751033573
 31
0.0
 40
0.9984778551
 41
-3.4626430041
 42
-1.8927600658
  0
ELLIPSE
  5
635
100
AcDbEntity
  8
0
100
AcDbEllipse
 62
7
  6
CONTINUOUS
 10
10.649923836
 20
21.899313827
 30
0.0
 11
0.1582391023
 21
0.4751033573
 31
0.0
 40
0.9984778551
 41
-1.2488325878
 42
0.3210503505
  0
ELLIPSE
  5
636
100
AcDbEntity
  8
0
100
AcDbEllipse
 62
7
  6
CONTINUOUS
 10
-10.649923836
 20
-21.899313827
 30
0.0
 11
0.1582391023
 21
0.4751033573
 31
0.0
 40
0.9984778551
 41
-4.3904252414
 42
-2.8205423031
  0
ELLIPSE
  5
637
100
AcDbEntity
  8
0
100
AcDbEllipse
 62
7
  6
CONTINUOUS
 10
-10.649923836
 20
21.899313827
 30
0.0
 11
-0.1582391023
 21
0.4751033573
 31
0.0
 40
0.9984778551
 41
-0.3210503505
 42
1.2488325878
  0
ELLIPSE
  5
638
100
AcDbEntity
  8
DRAFT
100
AcDbEllipse
 62
7
  6
CONTINUOUS
 10
0.0
 20
-8.4
 30
0.0
 11
-8.0
 21
0.0
 31
0.0
 40
0.125
 41
0.0
 42
3.1415926536
  0
ELLIPSE
  5
639
100
AcDbEntity
  8
DRAFT
100
AcDbEllipse
 62
7
  6
CONTINUOUS
 10
0.0
 20
8.4
 30
0.0
 11
-8.0
 21
0.0
 31
0.0
 40
0.125
 41
3.1415926536
 42
6.2831853072
  0
ELLIPSE
  5
63A
100
AcDbEntity
  8
DRAFT
100
AcDbEllipse
 62
7
  6
CONTINUOUS
 10
0.0
 20
-8.4
 30
0.0
 11
8.0
 21
-0.0
 31
0.0
 40
0.125
 41
6.2831853072
 42
9.4247779608
  0
ELLIPSE
  5
63B
100
AcDbEntity
  8
DRAFT
100
AcDbEllipse
 62
7
  6
CONTINUOUS
 10
0.0
 20
-4.2
 30
0.0
 11
8.0
 21
-0.0
 31
0.0
 40
0.125
 41
0.0
 42
6.2831853072
  0
ELLIPSE
  5
63C
100
AcDbEntity
  8
DRAFT
100
AcDbEllipse
 62
7
  6
CONTINUOUS
 10
0.0
 20
0.0
 30
0.0
 11
8.0
 21
-0.0
 31
0.0
 40
0.125
 41
0.0
 42
6.2831853072
  0
ELLIPSE
  5
63D
100
AcDbEntity
  8
DRAFT
100
AcDbEllipse
 62
7
  6
CONTINUOUS
 10
0.0
 20
4.2
 30
0.0
 11
8.0
 21
-0.0
 31
0.0
 40
0.125
 41
0.0
 42
6.2831853072
  0
ELLIPSE
  5
63E
100
AcDbEntity
  8
DRAFT
100
AcDbEllipse
 62
7
  6
CONTINUOUS
 10
0.0
 20
8.4
 30
0.0
 11
8.0
 21
-0.0
 31
0.0
 40
0.125
 41
3.1415926536
 42
6.2831853072
  0
ELLIPSE
  5
63F
100
AcDbEntity
  8
0
100
AcDbEllipse
 62
7
  6
CONTINUOUS
 10
-27.1405546387
 20
0.0
 30
0.0
 11
3.380740392
 21
-3.380740392
 31
0.0
 40
0.2679491924
 41
6.1648407403
 42
6.9251291995
  0
ELLIPSE
  5
640
100
AcDbEntity
  8
0
100
AcDbEllipse
 62
7
  6
CONTINUOUS
 10
-27.1405546387
 20
0.0
 30
0.0
 11
3.5
 21
0.0
 31
0.0
 40
1.0
 41
5.9030398898
 42
6.6632392074
  0
ELLIPSE
  5
641
100
AcDbEntity
  8
0
100
AcDbEllipse
 62
7
  6
CONTINUOUS
 10
-27.1405546387
 20
0.0
 30
0.0
 11
3.380740392
 21
3.380740392
 31
0.0
 40
0.2679491924
 41
5.6412409116
 42
6.4014407164
  0
ELLIPSE
  5
642
100
AcDbEntity
  8
0
100
AcDbEllipse
 62
250
  6
CONTINUOUS
 10
-51.2905546387
 20
-8.082444
 30
0.0
 11
0.0
 21
1.7999968808
 31
0.0
 40
0.9996954135
 41
-2.9317216922
 42
-1.515210518
  0
ELLIPSE
  5
643
100
AcDbEntity
  8
0
100
AcDbEllipse
 62
250
  6
CONTINUOUS
 10
-51.2905546387
 20
-8.082444
 30
0.0
 11
-0.0
 21
1.7999999246
 31
0.0
 40
0.9996954135
 41
1.5152121512
 42
2.9317223513
  0
ELLIPSE
  5
644
100
AcDbEntity
  8
0
100
AcDbEllipse
 62
250
  6
CONTINUOUS
 10
-51.2905546387
 20
-12.467554
 30
0.0
 11
0.0
 21
1.7999999246
 31
0.0
 40
0.9996954135
 41
1.5152121512
 42
4.7679730943
  0
ELLIPSE
  5
645
100
AcDbEntity
  8
0
100
AcDbEllipse
 62
250
  6
CONTINUOUS
 10
-51.2905546387
 20
-12.467554
 30
0.0
 11
0.0
 21
2.5499985399
 31
0.0
 40
0.9996954135
 41
1.5315705596
 42
4.7516147014
  0
ELLIPSE
  5
646
100
AcDbEntity
  8
0
100
AcDbEllipse
 62
250
  6
CONTINUOUS
 10
-51.2905546387
 20
-8.082444
 30
0.0
 11
0.0
 21
2.5499986575
 31
0.0
 40
0.9996954135
 41
1.5315693841
 42
4.7516147014
  0
ENDSEC
  0
SECTION
  2
OBJECTS
  0
DICTIONARY
  5
C
100
AcDbDictionary
280
0
281
1
  3
ACAD_GROUP
350
D
  3
ACAD_MLINESTYLE
350
17
  3
ACAD_LAYOUT
350
1A
  3
ACAD_PLOTSETTINGS
350
19
  3
ACAD_PLOTSTYLENAME
350
E
  0
DICTIONARY
  5
D
102
{ACAD_REACTORS
330
C
102
}
100
AcDbDictionary
280
0
281
1
  0
ACDBDICTIONARYWDFLT
  5
E
102
{ACAD_REACTORS
330
C
102
}
100
AcDbDictionary
281
1
  3
Normal
350
F
100
AcDbDictionaryWithDefault
340
F
  0
DICTIONARY
  5
17
102
{ACAD_REACTORS
330
C
102
}
100
AcDbDictionary
280
0
281
1
  3
Standard
350
18
  0
DICTIONARY
  5
19
102
{ACAD_REACTORS
330
C
102
}
100
AcDbDictionary
281
1
  0
DICTIONARY
  5
1A
102
{ACAD_REACTORS
330
C
102
}
100
AcDbDictionary
281
1
  3
Model
350
647
  3
Layout1
350
648
  0
ACDBPLACEHOLDER
  5
F
102
{ACAD_REACTORS
330
E
102
}
  0
MLINESTYLE
  5
18
102
{ACAD_REACTORS
330
17
102
}
100
AcDbMlineStyle
  2
STANDARD
 70
0
  3

 62
256
 51
90.0
 52
90.0
 71
2
 49
0.5
 62
256
  6
BYLAYER
 49
-0.5
 62
256
  6
BYLAYER
  0
LAYOUT
  5
647
102
{ACAD_REACTORS
330
1A
102
}
100
AcDbPlotSettings
  1

  2
none_device
  4
ISO_A4_(297.00_x_210.00_MM)
  6

 40
0.0
 41
0.0
 42
0.0
 43
0.0
 44
297.0
 45
210.0
 46
0.0
 47
0.0
 48
0.0
 49
0.0
140
0.0
141
0.0
142
1.0
143
1.0
 70
1024
 72
1
 73
0
 74
0
  7

 75
0
147
1.0
148
0.0
149
0.0
100
AcDbLayout
  1
Model
 70
0
 71
0
 10
0.0
 20
0.0
 11
297.0
 21
210.0
 12
0.0
 22
0.0
 32
0.0
 14
0.0
 24
0.0
 34
0.0
 15
0.0
 25
0.0
 35
0.0
146
0.0
 13
0.0
 23
0.0
 33
0.0
 16
1.0
 26
0.0
 36
0.0
 17
0.0
 27
1.0
 37
0.0
 76
0
330
218
345
0
346
0
  0
LAYOUT
  5
648
102
{ACAD_REACTORS
330
1A
102
}
100
AcDbPlotSettings
  1

  2
none_device
  4
ISO_A4_(297.00_x_210.00_MM)
  6

 40
0.0
 41
0.0
 42
0.0
 43
0.0
 44
297.0
 45
210.0
 46
0.0
 47
0.0
 48
0.0
 49
0.0
140
0.0
141
0.0
142
1.0
143
1.0
 70
0
 72
1
 73
0
 74
0
  7

 75
0
147
1.0
148
0.0
149
0.0
100
AcDbLayout
  1
Layout1
 70
0
 71
1
 10
0.0
 20
0.0
 11
297.0
 21
210.0
 12
0.0
 22
0.0
 32
0.0
 14
0.0
 24
0.0
 34
0.0
 15
0.0
 25
0.0
 35
0.0
146
0.0
 13
0.0
 23
0.0
 33
0.0
 16
1.0
 26
0.0
 36
0.0
 17
0.0
 27
1.0
 37
0.0
 76
0
330
219
345
0
346
0
  0
ENDSEC
  0
EOF
