0
SECTION
2
HEADER
9
$ACADVER
1
AC1015
9
$DWGCODEPAGE
3
ANSI_1252
9
$EXTMAX
10
297.0000000000
20
210.0000000000
30
0.0000000000
9
$EXTMIN
10
0.0000000000
20
0.0000000000
30
0.0000000000
9
$LIMMIN
10
0.0000000000
20
0.0000000000
9
$LIMMAX
10
297.0000000000
20
210.0000000000
9
$VIEWCTR
10
148.5000000000
20
105.0000000000
9
$VIEWSIZE
40
210.0000000000
9
$CLAYER
8
0
9
$LTSCALE
40
16.3350000000
9
$CELTYPE
6
BYLAYER
9
$DIMSCALE
40
1
9
$DIMASZ
40
3.0000000000
9
$DIMEXO
40
1.8562500000
9
$DIMDLI
40
11.2860000000
9
$DIMEXE
40
5.3460000000
9
$DIMCEN
40
2.6730000000
9
$DIMLFAC
40
1.0000000000
9
$DIMBLK
1
_FILLED
9
$DIMTXT
40
3.0000000000
9
$DIMTOL
70
1
9
$DIMLIM
70
0
9
$DIMTFAC
40
1.0000000000
9
$DIMTP
40
0.0100000000
9
$DIMTM
40
0.0100000000
9
$PDMODE
70
3
9
$PDSIZE
40
3.0000000000
9
$HANDSEED
5
495
9
$MEASUREMENT
70
1
9
$INSUNITS
70
4
0
ENDSEC
0
SECTION
2
CLASSES
0
CLASS
1
ACDBDICTIONARYWDFLT
2
AcDbDictionaryWithDefault
3
AutoCAD 2000
90
0
280
0
281
0
0
CLASS
1
ACDBPLACEHOLDER
2
AcDbPlaceHolder
3
AutoCAD 2000
90
0
280
0
281
0
0
CLASS
1
LAYOUT
2
AcDbLayout
3
AutoCAD 2000
90
0
280
0
281
0
0
ENDSEC
0
SECTION
2
TABLES
0
TABLE
2
VPORT
5
8
100
AcDbSymbolTable
70
2
0
VPORT
5
1F4
100
AcDbSymbolTableRecord
100
AcDbViewportTableRecord
2
*ACTIVE
70
0
10
0.0
20
0.0
11
1.0
21
1.0
12
148.5000000000
22
105.0000000000
13
0.0
23
0.0
14
1.0
24
1.0
15
0.0
25
0.0
16
0.0
26
0.0
36
1.0
17
0.0
27
0.0
37
0.0
40
210.0000000000
41
1.4142857143
42
50.0
43
0.0
44
0.0
50
0.0
51
0.0
71
0
72
100
73
1
74
1
75
0
76
0
77
0
78
0
0
ENDTAB
0
TABLE
2
LTYPE
5
5
100
AcDbSymbolTable
70
6
0
LTYPE
5
14
100
AcDbSymbolTableRecord
100
AcDbLinetypeTableRecord
2
BYBLOCK
70
0
3

72
65
73
0
40
0.0
0
LTYPE
5
15
100
AcDbSymbolTableRecord
100
AcDbLinetypeTableRecord
2
BYLAYER
70
0
3

72
65
73
0
40
0.0
0
LTYPE
5
16
100
AcDbSymbolTableRecord
100
AcDbLinetypeTableRecord
2
CONTINUOUS
70
64
3
Solid line
72
65
73
0
40
0
0
LTYPE
5
1F5
100
AcDbSymbolTableRecord
100
AcDbLinetypeTableRecord
2
CENTER
70
64
3
____ _ ____ _ ____ _ ____ _ ____ _ ____ _ ____
72
65
73
4
40
0.6
49
0.375
74
0
49
-0.075
74
0
49
0.075
74
0
49
-0.075
74
0
0
LTYPE
5
1F6
100
AcDbSymbolTableRecord
100
AcDbLinetypeTableRecord
2
HIDDEN
70
64
3
- - - - - - - - - - - - - - - - - - - -
72
65
73
2
40
0.2
49
0.1
74
0
49
-0.1
74
0
0
LTYPE
5
1F7
100
AcDbSymbolTableRecord
100
AcDbLinetypeTableRecord
2
PHANTOM
70
64
3
_____ _ _ _____ _ _ _____ _ _ _____
72
65
73
6
40
0.8
49
0.45
74
0
49
-0.05
74
0
49
0.1
74
0
49
-0.05
74
0
49
0.1
74
0
49
-0.05
74
0
0
LTYPE
5
1F8
100
AcDbSymbolTableRecord
100
AcDbLinetypeTableRecord
2
DOT
70
64
3
. . . . . . . . . . . . . . . . . . . .
72
65
73
2
40
0.2
49
0.1
74
0
49
-0.1
74
0
0
LTYPE
5
1F9
100
AcDbSymbolTableRecord
100
AcDbLinetypeTableRecord
2
DASHED
70
64
3
- - - - - - - - - - - - - - - - - - - -
72
65
73
2
40
0.2
49
0.1
74
0
49
-0.1
74
0
0
ENDTAB
0
TABLE
2
LAYER
5
2
100
AcDbSymbolTable
70
36
0
LAYER
5
10
100
AcDbSymbolTableRecord
100
AcDbLayerTableRecord
2
0
70
0
62
7
6
CONTINUOUS
370
-3
390
F
0
LAYER
5
1FA
100
AcDbSymbolTableRecord
100
AcDbLayerTableRecord
2
DEFAULT_1
70
0
62
7
6
CENTER
370
-3
390
F
0
LAYER
5
1FB
100
AcDbSymbolTableRecord
100
AcDbLayerTableRecord
2
DEFAULT_2
70
0
62
9
6
HIDDEN
370
-3
390
F
0
LAYER
5
1FC
100
AcDbSymbolTableRecord
100
AcDbLayerTableRecord
2
DEFAULT_3
70
0
62
7
6
PHANTOM
370
-3
390
F
0
LAYER
5
1FD
100
AcDbSymbolTableRecord
100
AcDbLayerTableRecord
2
_BLACK_HOLE
70
0
62
7
6
CONTINUOUS
370
-3
390
F
0
LAYER
5
1FE
100
AcDbSymbolTableRecord
100
AcDbLayerTableRecord
2
ASSI
70
0
62
7
6
CONTINUOUS
370
-3
390
F
0
LAYER
5
1FF
100
AcDbSymbolTableRecord
100
AcDbLayerTableRecord
2
COORDINATE
70
0
62
7
6
CONTINUOUS
370
-3
390
F
0
LAYER
5
200
100
AcDbSymbolTableRecord
100
AcDbLayerTableRecord
2
COORD_ORIGINE
70
0
62
7
6
CONTINUOUS
370
-3
390
F
0
LAYER
5
201
100
AcDbSymbolTableRecord
100
AcDbLayerTableRecord
2
COPY_PUBLISH
70
0
62
7
6
CONTINUOUS
370
-3
390
F
0
LAYER
5
202
100
AcDbSymbolTableRecord
100
AcDbLayerTableRecord
2
COSMETIC
70
0
62
7
6
CONTINUOUS
370
-3
390
F
0
LAYER
5
203
100
AcDbSymbolTableRecord
100
AcDbLayerTableRecord
2
COSMETICHE
70
0
62
7
6
CONTINUOUS
370
-3
390
F
0
LAYER
5
204
100
AcDbSymbolTableRecord
100
AcDbLayerTableRecord
2
COSMETICI
70
0
62
7
6
CONTINUOUS
370
-3
390
F
0
LAYER
5
205
100
AcDbSymbolTableRecord
100
AcDbLayerTableRecord
2
CURVE
70
0
62
7
6
CONTINUOUS
370
-3
390
F
0
LAYER
5
206
100
AcDbSymbolTableRecord
100
AcDbLayerTableRecord
2
DRAFT
70
0
62
7
6
CONTINUOUS
370
-3
390
F
0
LAYER
5
207
100
AcDbSymbolTableRecord
100
AcDbLayerTableRecord
2
IMPORT_FEATURES
70
0
62
7
6
CONTINUOUS
370
-3
390
F
0
LAYER
5
208
100
AcDbSymbolTableRecord
100
AcDbLayerTableRecord
2
IMPORT_IGES
70
0
62
7
6
CONTINUOUS
370
-3
390
F
0
LAYER
5
209
100
AcDbSymbolTableRecord
100
AcDbLayerTableRecord
2
IMPORT_LASER
70
0
62
7
6
CONTINUOUS
370
-3
390
F
0
LAYER
5
20A
100
AcDbSymbolTableRecord
100
AcDbLayerTableRecord
2
NOTE
70
0
62
7
6
CONTINUOUS
370
-3
390
F
0
LAYER
5
20B
100
AcDbSymbolTableRecord
100
AcDbLayerTableRecord
2
PIANI
70
0
62
7
6
CONTINUOUS
370
-3
390
F
0
LAYER
5
20C
100
AcDbSymbolTableRecord
100
AcDbLayerTableRecord
2
PIANI_ORIGINE
70
0
62
7
6
CONTINUOUS
370
-3
390
F
0
LAYER
5
20D
100
AcDbSymbolTableRecord
100
AcDbLayerTableRecord
2
PUNTI
70
0
62
7
6
CONTINUOUS
370
-3
390
F
0
LAYER
5
20E
100
AcDbSymbolTableRecord
100
AcDbLayerTableRecord
2
RACCORDO
70
0
62
7
6
CONTINUOUS
370
-3
390
F
0
LAYER
5
20F
100
AcDbSymbolTableRecord
100
AcDbLayerTableRecord
2
SMUSSO
70
0
62
7
6
CONTINUOUS
370
-3
390
F
0
LAYER
5
210
100
AcDbSymbolTableRecord
100
AcDbLayerTableRecord
2
SNAPLINE
70
0
62
7
6
CONTINUOUS
370
-3
390
F
0
LAYER
5
211
100
AcDbSymbolTableRecord
100
AcDbLayerTableRecord
2
SUPERFICI
70
0
62
7
6
CONTINUOUS
370
-3
390
F
0
LAYER
5
212
100
AcDbSymbolTableRecord
100
AcDbLayerTableRecord
2
TRASH
70
0
62
7
6
CONTINUOUS
370
-3
390
F
0
LAYER
5
213
100
AcDbSymbolTableRecord
100
AcDbLayerTableRecord
2
XSEC_DATUMS
70
0
62
7
6
CONTINUOUS
370
-3
390
F
0
ENDTAB
0
TABLE
2
STYLE
5
3
100
AcDbSymbolTable
70
1
0
STYLE
5
11
100
AcDbSymbolTableRecord
100
AcDbTextStyleTableRecord
2
STANDARD
70
0
40
0.0
41
0.8000000000
50
0.0
71
0
42
0.2
3
txt
4

0
ENDTAB
0
TABLE
2
VIEW
5
6
100
AcDbSymbolTable
70
0
0
ENDTAB
0
TABLE
2
UCS
5
7
100
AcDbSymbolTable
70
0
0
ENDTAB
0
TABLE
2
APPID
5
9
100
AcDbSymbolTable
70
1
0
APPID
5
214
100
AcDbSymbolTableRecord
100
AcDbRegAppTableRecord
2
ACAD
70
0
0
ENDTAB
0
TABLE
2
BLOCK_RECORD
5
1
100
AcDbSymbolTable
70
0
0
BLOCK_RECORD
5
1F
100
AcDbSymbolTableRecord
100
AcDbBlockTableRecord
2
*MODEL_SPACE
0
BLOCK_RECORD
5
1B
100
AcDbSymbolTableRecord
100
AcDbBlockTableRecord
2
*PAPER_SPACE
0
BLOCK_RECORD
5
215
100
AcDbSymbolTableRecord
100
AcDbBlockTableRecord
2
_FILLED
0
BLOCK_RECORD
5
216
100
AcDbSymbolTableRecord
100
AcDbBlockTableRecord
2
*D0
0
BLOCK_RECORD
5
217
100
AcDbSymbolTableRecord
100
AcDbBlockTableRecord
2
*D1
0
BLOCK_RECORD
5
218
100
AcDbSymbolTableRecord
100
AcDbBlockTableRecord
2
*D2
0
BLOCK_RECORD
5
219
100
AcDbSymbolTableRecord
100
AcDbBlockTableRecord
2
*D3
0
ENDTAB
0
TABLE
2
DIMSTYLE
5
A
100
AcDbSymbolTable
70
1
100
AcDbDimStyleTable
71
0
0
DIMSTYLE
105
21A
100
AcDbSymbolTableRecord
100
AcDbDimStyleTableRecord
2
STANDARD
70
0
3

4

40
1.0
41
3.0000000000
42
0.0625
43
0.38
44
0.18
45
0.0
46
0.0
47
0.0100000000
48
0.0100000000
140
3.0000000000
141
0.09
142
0.0
143
25.4
144
1.0000000000
145
0.0
146
1.0000000000
147
0.09
71
1
72
0
73
0
74
0
75
0
76
0
77
1
78
8
170
0
171
2
172
0
173
0
174
0
175
0
176
0
177
0
178
0
270
2
271
2
272
2
273
2
274
2
275
0
280
0
281
0
282
0
283
1
284
8
285
0
286
0
287
3
288
0
340
11
341
215
342
215
343
215
344
215
0
DIMSTYLE
105
21B
100
AcDbSymbolTableRecord
100
AcDbDimStyleTableRecord
2
DIMSTYLE_1
70
0
3

4

40
1.0
41
3.0000000000
42
0.0625
43
0.38
44
0.18
45
0.0
46
0.0
47
0.0000000000
48
0.0000000000
140
3.0000000000
141
0.09
142
0.0
143
25.4
144
1.0000000000
145
0.0
146
1.0000000000
147
0.09
71
0
72
0
73
0
74
0
75
0
76
0
77
1
78
8
170
0
171
2
172
0
173
0
174
0
175
0
176
0
177
0
178
0
270
2
271
1
272
1
273
2
274
2
275
0
280
0
281
0
282
0
283
1
284
8
285
0
286
0
287
3
288
0
340
11
341
215
342
215
343
215
344
215
0
DIMSTYLE
105
21C
100
AcDbSymbolTableRecord
100
AcDbDimStyleTableRecord
2
DIMSTYLE_2
70
0
3

4

40
1.0
41
3.0000000000
42
0.0625
43
0.38
44
0.18
45
0.0
46
0.0
47
0.0000000000
48
0.0000000000
140
3.0000000000
141
0.09
142
0.0
143
25.4
144
1.0000000000
145
0.0
146
1.0000000000
147
0.09
71
0
72
0
73
0
74
0
75
0
76
0
77
1
78
8
170
0
171
2
172
0
173
0
174
0
175
0
176
0
177
0
178
0
270
2
271
2
272
2
273
2
274
2
275
0
280
0
281
0
282
0
283
1
284
8
285
0
286
0
287
3
288
0
340
11
341
215
342
215
343
215
344
215
0
ENDTAB
0
ENDSEC
0
SECTION
2
BLOCKS
0
BLOCK
5
20
100
AcDbEntity
8
0
100
AcDbBlockBegin
2
*MODEL_SPACE
70
0
10
0.0
20
0.0
30
0.0
3
*MODEL_SPACE
1

0
ENDBLK
5
21
100
AcDbEntity
8
0
100
AcDbBlockEnd
0
BLOCK
5
1C
100
AcDbEntity
8
0
100
AcDbBlockBegin
2
*PAPER_SPACE
70
0
10
0.0
20
0.0
30
0.0
3
*PAPER_SPACE
1

0
ENDBLK
5
1D
100
AcDbEntity
8
0
100
AcDbBlockEnd
0
BLOCK
5
21D
100
AcDbEntity
8
0
100
AcDbBlockBegin
62
9
6
CONTINUOUS
2
*D0
70
65
10
0.0000000000
20
0.0000000000
3
*D0
1

0
TEXT
5
21E
100
AcDbEntity
8
0
100
AcDbText
62
9
6
CONTINUOUS
10
-38.0193818553
20
32.2500000000
7
STANDARD
40
3.0000000000
1
31,2
41
0.6607142857
72
0
100
AcDbText
0
LINE
5
21F
100
AcDbEntity
8
0
100
AcDbLine
62
9
6
CONTINUOUS
10
-49.6740528926
20
16.9633443823
11
-49.6740528926
21
33.0000000000
0
LINE
5
220
100
AcDbEntity
8
0
100
AcDbLine
62
9
6
CONTINUOUS
10
-18.4361393894
20
0.5000000000
11
-18.4361393894
21
33.0000000000
0
LINE
5
221
100
AcDbEntity
8
0
100
AcDbLine
62
9
6
CONTINUOUS
10
-49.6740528926
20
31.5000000000
11
-34.0550961410
21
31.5000000000
0
LINE
5
222
100
AcDbEntity
8
0
100
AcDbLine
62
9
6
CONTINUOUS
10
-18.4361393894
20
31.5000000000
11
-34.0550961410
21
31.5000000000
0
INSERT
5
223
100
AcDbEntity
8
0
100
AcDbBlockReference
62
9
6
CONTINUOUS
2
_FILLED
10
-49.6740528926
20
31.5000000000
41
  3.000000
42
  3.000000
43
  3.000000
50
180.000000
0
INSERT
5
224
100
AcDbEntity
8
0
100
AcDbBlockReference
62
9
6
CONTINUOUS
2
_FILLED
10
-18.4361393894
20
31.5000000000
41
  3.000000
42
  3.000000
43
  3.000000
50
  0.000000
0
ENDBLK
5
225
100
AcDbEntity
8
0
6
BYBLOCK
62
0
100
AcDbBlockEnd
0
BLOCK
5
226
100
AcDbEntity
8
0
100
AcDbBlockBegin
62
9
6
CONTINUOUS
2
*D1
70
65
10
0.0000000000
20
0.0000000000
3
*D1
1

0
TEXT
5
227
100
AcDbEntity
8
0
100
AcDbText
62
9
6
CONTINUOUS
10
-43.1979532838
20
42.2500000000
7
STANDARD
40
3.0000000000
1
40,7
41
0.7321428571
72
0
100
AcDbText
0
LINE
5
228
100
AcDbEntity
8
0
100
AcDbLine
62
9
6
CONTINUOUS
10
-59.1740528926
20
0.5000000000
11
-59.1740528926
21
43.0000000000
0
LINE
5
229
100
AcDbEntity
8
0
100
AcDbLine
62
9
6
CONTINUOUS
10
-18.4361393894
20
0.5000000000
11
-18.4361393894
21
43.0000000000
0
LINE
5
22A
100
AcDbEntity
8
0
100
AcDbLine
62
9
6
CONTINUOUS
10
-59.1740528926
20
41.5000000000
11
-38.8050961410
21
41.5000000000
0
LINE
5
22B
100
AcDbEntity
8
0
100
AcDbLine
62
9
6
CONTINUOUS
10
-18.4361393894
20
41.5000000000
11
-38.8050961410
21
41.5000000000
0
INSERT
5
22C
100
AcDbEntity
8
0
100
AcDbBlockReference
62
9
6
CONTINUOUS
2
_FILLED
10
-59.1740528926
20
41.5000000000
41
  3.000000
42
  3.000000
43
  3.000000
50
180.000000
0
INSERT
5
22D
100
AcDbEntity
8
0
100
AcDbBlockReference
62
9
6
CONTINUOUS
2
_FILLED
10
-18.4361393894
20
41.5000000000
41
  3.000000
42
  3.000000
43
  3.000000
0
ENDBLK
5
22E
100
AcDbEntity
8
0
6
BYBLOCK
62
0
100
AcDbBlockEnd
0
BLOCK
5
22F
100
AcDbEntity
8
0
100
AcDbBlockBegin
62
9
6
CONTINUOUS
2
*D2
70
65
10
0.0000000000
20
0.0000000000
3
*D2
1

0
TEXT
5
230
100
AcDbEntity
8
0
100
AcDbText
62
9
6
CONTINUOUS
10
18.4000000000
20
-2.3571428571
7
STANDARD
40
3.0000000000
1
47
50
90.0000000000
41
0.7857142857
72
0
100
AcDbText
0
LINE
5
231
100
AcDbEntity
8
0
100
AcDbLine
62
9
6
CONTINUOUS
10
4.4733373476
20
23.5000000000
11
20.6500000000
21
23.5000000000
0
LINE
5
232
100
AcDbEntity
8
0
100
AcDbLine
62
9
6
CONTINUOUS
10
4.4733373476
20
-23.5000000000
11
20.6500000000
21
-23.5000000000
0
LINE
5
233
100
AcDbEntity
8
0
100
AcDbLine
62
9
6
CONTINUOUS
10
19.1500000000
20
23.5000000000
11
19.1500000000
21
0.0000000000
0
LINE
5
234
100
AcDbEntity
8
0
100
AcDbLine
62
9
6
CONTINUOUS
10
19.1500000000
20
-23.5000000000
11
19.1500000000
21
0.0000000000
0
INSERT
5
235
100
AcDbEntity
8
0
100
AcDbBlockReference
62
9
6
CONTINUOUS
2
_FILLED
10
19.1500000000
20
23.5000000000
41
  3.000000
42
  3.000000
43
  3.000000
50
 90.000000
0
INSERT
5
236
100
AcDbEntity
8
0
100
AcDbBlockReference
62
9
6
CONTINUOUS
2
_FILLED
10
19.1500000000
20
-23.5000000000
41
  3.000000
42
  3.000000
43
  3.000000
50
270.000000
0
ENDBLK
5
237
100
AcDbEntity
8
0
6
BYBLOCK
62
0
100
AcDbBlockEnd
0
BLOCK
5
238
100
AcDbEntity
8
0
100
AcDbBlockBegin
62
9
6
CONTINUOUS
2
*D3
70
65
10
0.0000000000
20
0.0000000000
3
*D3
1

0
TEXT
5
239
100
AcDbEntity
8
0
100
AcDbText
62
9
6
CONTINUOUS
10
-4.2857142857
20
32.2500000000
7
STANDARD
40
3.0000000000
1
22,3
41
0.7142857143
72
0
100
AcDbText
0
LINE
5
23A
100
AcDbEntity
8
0
100
AcDbLine
62
9
6
CONTINUOUS
10
-11.1500000000
20
-15.9633444537
11
-11.1500000000
21
33.0000000000
0
LINE
5
23B
100
AcDbEntity
8
0
100
AcDbLine
62
9
6
CONTINUOUS
10
11.1500000000
20
-15.9633443096
11
11.1500000000
21
33.0000000000
0
LINE
5
23C
100
AcDbEntity
8
0
100
AcDbLine
62
9
6
CONTINUOUS
10
-11.1500000000
20
31.5000000000
11
-0.0000000000
21
31.5000000000
0
LINE
5
23D
100
AcDbEntity
8
0
100
AcDbLine
62
9
6
CONTINUOUS
10
11.1500000000
20
31.5000000000
11
-0.0000000000
21
31.5000000000
0
INSERT
5
23E
100
AcDbEntity
8
0
100
AcDbBlockReference
62
9
6
CONTINUOUS
2
_FILLED
10
-11.1500000000
20
31.5000000000
41
  3.000000
42
  3.000000
43
  3.000000
50
180.000000
0
INSERT
5
23F
100
AcDbEntity
8
0
100
AcDbBlockReference
62
9
6
CONTINUOUS
2
_FILLED
10
11.1500000000
20
31.5000000000
41
  3.000000
42
  3.000000
43
  3.000000
50
360.000000
0
ENDBLK
5
240
100
AcDbEntity
8
0
6
BYBLOCK
62
0
100
AcDbBlockEnd
0
BLOCK
5
241
100
AcDbEntity
8
0
100
AcDbBlockBegin
2
_FILLED
70
64
10
0.0000000000
20
0.0000000000
3
_FILLED
1

0
SOLID
5
242
100
AcDbEntity
8
0
6
BYBLOCK
62
0
100
AcDbTrace
10
0.0000000000
20
0.0000000000
11
-1.0000000000
21
0.3166666667
12
-1.0000000000
22
-0.3166666667
13
-1.0000000000
23
-0.3166666667
0
ENDBLK
5
243
100
AcDbEntity
8
0
6
BYBLOCK
62
0
100
AcDbBlockEnd
0
ENDSEC
0
SECTION
2
ENTITIES
0
DIMENSION
5
244
100
AcDbEntity
8
0
100
AcDbDimension
62
9
6
CONTINUOUS
2
*D0
10
-18.4361393894
20
31.5000000000
11
-34.0550961410
21
33.7500000000
70
160
3
DIMSTYLE_1
100
AcDbAlignedDimension
13
-49.6740528926
23
16.9633443823
14
-18.4361393894
24
0.5000000000
100
AcDbRotatedDimension
0
DIMENSION
5
245
100
AcDbEntity
8
0
100
AcDbDimension
62
9
6
CONTINUOUS
2
*D1
10
-18.4361393894
20
41.5000000000
11
-38.8050961410
21
43.7500000000
70
160
3
DIMSTYLE_1
100
AcDbAlignedDimension
13
-59.1740528926
23
0.5000000000
14
-18.4361393894
24
0.5000000000
100
AcDbRotatedDimension
0
DIMENSION
5
246
100
AcDbEntity
8
0
100
AcDbDimension
62
9
6
CONTINUOUS
2
*D2
10
19.1500000000
20
-23.5000000000
11
16.9000000000
21
0.0000000000
70
160
3
DIMSTYLE_2
100
AcDbAlignedDimension
13
4.4733373476
23
23.5000000000
14
4.4733373476
24
-23.5000000000
50
270.000000
100
AcDbRotatedDimension
0
DIMENSION
5
247
100
AcDbEntity
8
0
100
AcDbDimension
62
9
6
CONTINUOUS
2
*D3
10
11.1500000000
20
31.5000000000
11
-0.0000000000
21
33.7500000000
70
160
3
DIMSTYLE_2
100
AcDbAlignedDimension
13
-11.1500000000
23
-15.9633444537
14
11.1500000000
24
-15.9633443096
100
AcDbRotatedDimension
0
LINE
5
248
100
AcDbEntity
8
0
100
AcDbLine
62
9
6
CONTINUOUS
10
-3.0000000000
20
-23.5000000000
11
-2.7812783412
21
-23.4781828305
0
LINE
5
249
100
AcDbEntity
8
0
100
AcDbLine
62
9
6
CONTINUOUS
10
3.9733373476
20
-23.5000000000
11
3.0000000000
21
-23.5000000000
0
LINE
5
24A
100
AcDbEntity
8
0
100
AcDbLine
62
9
6
CONTINUOUS
10
-3.0000000000
20
-23.5000000000
11
-3.9733373476
21
-23.5000000000
0
LINE
5
24B
100
AcDbEntity
8
0
100
AcDbLine
62
9
6
CONTINUOUS
10
-2.7812783412
20
-23.4781828305
11
2.7812783412
21
-23.4781828305
0
LINE
5
24C
100
AcDbEntity
8
0
100
AcDbLine
62
9
6
CONTINUOUS
10
2.7812783412
20
-22.5310194482
11
-2.7812783412
21
-22.5310194482
0
LINE
5
24D
100
AcDbEntity
8
0
100
AcDbLine
62
9
6
CONTINUOUS
10
3.0000000000
20
-22.4000000000
11
10.6503805997
21
-22.4000000000
0
LINE
5
24E
100
AcDbEntity
8
0
100
AcDbLine
62
9
6
CONTINUOUS
10
-3.0000000000
20
-22.4000000000
11
-10.6503805997
21
-22.4000000000
0
LINE
5
24F
100
AcDbEntity
8
0
100
AcDbLine
62
9
6
CONTINUOUS
10
3.0000000000
20
-23.5000000000
11
2.7812783412
21
-23.4781828305
0
LINE
5
250
100
AcDbEntity
8
0
100
AcDbLine
62
9
6
CONTINUOUS
10
-3.0000000000
20
22.4000000000
11
-2.7812783412
21
22.5310194482
0
LINE
5
251
100
AcDbEntity
8
0
100
AcDbLine
62
9
6
CONTINUOUS
10
10.5087981167
20
-21.9749071372
11
-10.5087981167
21
-21.9749071372
0
LINE
5
252
100
AcDbEntity
8
0
100
AcDbLine
62
9
6
CONTINUOUS
10
10.5005350625
20
-21.0183142309
11
-10.5005350625
21
-21.0183142309
0
LINE
5
253
100
AcDbEntity
8
0
100
AcDbLine
62
9
6
CONTINUOUS
10
-2.7812783412
20
-22.5310194482
11
-3.0000000000
21
-22.4000000000
0
LINE
5
254
100
AcDbEntity
8
0
100
AcDbLine
62
9
6
CONTINUOUS
10
-11.1500000000
20
-21.8997711479
11
-11.1500000000
21
21.8997711479
0
LINE
5
255
100
AcDbEntity
8
0
100
AcDbLine
62
9
6
CONTINUOUS
10
-3.7412724675
20
5.0926333415
11
-3.7500000000
21
5.0833308766
0
LINE
5
256
100
AcDbEntity
8
0
100
AcDbLine
62
9
6
CONTINUOUS
10
-3.7412724675
20
-5.0926333415
11
-3.7500000000
21
-5.0833308766
0
LINE
5
257
100
AcDbEntity
8
0
100
AcDbLine
62
9
6
CONTINUOUS
10
-11.1500000000
20
-21.8997711479
11
-11.0087219643
21
-21.4755923698
0
LINE
5
258
100
AcDbEntity
8
0
100
AcDbLine
62
9
6
CONTINUOUS
10
-3.7412724675
20
0.8926336063
11
-3.7500000000
21
0.8833308766
0
LINE
5
259
100
AcDbEntity
8
0
100
AcDbLine
62
9
6
CONTINUOUS
10
-3.7412724675
20
-0.8926336063
11
-3.7500000000
21
-0.8833308766
0
LINE
5
25A
100
AcDbEntity
8
0
100
AcDbLine
62
9
6
CONTINUOUS
10
-11.0087219643
20
21.4755923698
11
-11.1500000000
21
21.8997711479
0
LINE
5
25B
100
AcDbEntity
8
0
100
AcDbLine
62
9
6
CONTINUOUS
10
-3.0000000000
20
-23.5000000000
11
-3.0000000000
21
-22.4000000000
0
LINE
5
25C
100
AcDbEntity
8
0
100
AcDbLine
62
9
6
CONTINUOUS
10
-3.0000000000
20
22.4000000000
11
-3.0000000000
21
23.5000000000
0
LINE
5
25D
100
AcDbEntity
8
0
100
AcDbLine
62
9
6
CONTINUOUS
10
-2.7812783412
20
-23.4781828305
11
-2.7812783412
21
-22.5310194482
0
LINE
5
25E
100
AcDbEntity
8
0
100
AcDbLine
62
9
6
CONTINUOUS
10
-2.7812783412
20
22.5310194482
11
-2.7812783412
21
23.4781828305
0
LINE
5
25F
100
AcDbEntity
8
0
100
AcDbLine
62
9
6
CONTINUOUS
10
-10.6503805997
20
-22.4000000000
11
-10.5087981167
21
-21.9749071372
0
LINE
5
260
100
AcDbEntity
8
0
100
AcDbLine
62
9
6
CONTINUOUS
10
3.7412724675
20
7.5073495500
11
3.7500000000
21
7.5166691234
0
LINE
5
261
100
AcDbEntity
8
0
100
AcDbLine
62
9
6
CONTINUOUS
10
3.7412724675
20
-7.5073495500
11
3.7500000000
21
-7.5166691234
0
LINE
5
262
100
AcDbEntity
8
0
100
AcDbLine
62
9
6
CONTINUOUS
10
-10.5087981167
20
21.9749071372
11
-10.6503805997
21
22.4000000000
0
LINE
5
263
100
AcDbEntity
8
0
100
AcDbLine
62
9
6
CONTINUOUS
10
-3.7412724675
20
-3.3073665465
11
-3.7500000000
21
-3.3166691234
0
LINE
5
264
100
AcDbEntity
8
0
100
AcDbLine
62
9
6
CONTINUOUS
10
8.2192310198
20
0.0000003605
11
8.0192657159
21
0.0000000038
0
LINE
5
265
100
AcDbEntity
8
0
100
AcDbLine
62
9
6
CONTINUOUS
10
-8.2192310198
20
-0.0000003618
11
-8.0192657025
21
-0.0000000038
0
LINE
5
266
100
AcDbEntity
8
0
100
AcDbLine
62
9
6
CONTINUOUS
10
-3.7412724675
20
3.3073665465
11
-3.7500000000
21
3.3166691234
0
LINE
5
267
100
AcDbEntity
8
0
100
AcDbLine
62
9
6
CONTINUOUS
10
3.7412724675
20
3.3073665465
11
3.7500000000
21
3.3166691234
0
LINE
5
268
100
AcDbEntity
8
0
100
AcDbLine
62
9
6
CONTINUOUS
10
3.7412724675
20
-3.3073665465
11
3.7500000000
21
-3.3166691234
0
LINE
5
269
100
AcDbEntity
8
0
100
AcDbLine
62
9
6
CONTINUOUS
10
2.7812783412
20
-23.4781828305
11
2.7812783412
21
-22.5310194482
0
LINE
5
26A
100
AcDbEntity
8
0
100
AcDbLine
62
9
6
CONTINUOUS
10
2.7812783412
20
22.5310194482
11
2.7812783412
21
23.4781828305
0
LINE
5
26B
100
AcDbEntity
8
0
100
AcDbLine
62
9
6
CONTINUOUS
10
3.0000000000
20
-23.5000000000
11
3.0000000000
21
-22.4000000000
0
LINE
5
26C
100
AcDbEntity
8
0
100
AcDbLine
62
9
6
CONTINUOUS
10
3.0000000000
20
22.4000000000
11
3.0000000000
21
23.5000000000
0
LINE
5
26D
100
AcDbEntity
8
0
100
AcDbLine
62
9
6
CONTINUOUS
10
10.5087981167
20
21.9749071372
11
10.6503805997
21
22.4000000000
0
LINE
5
26E
100
AcDbEntity
8
0
100
AcDbLine
62
9
6
CONTINUOUS
10
11.0087219643
20
21.4755923698
11
11.1500000000
21
21.8997711479
0
LINE
5
26F
100
AcDbEntity
8
0
100
AcDbLine
62
9
6
CONTINUOUS
10
-3.7412724675
20
-7.5073495500
11
-3.7500000000
21
-7.5166691234
0
LINE
5
270
100
AcDbEntity
8
0
100
AcDbLine
62
9
6
CONTINUOUS
10
3.7412724675
20
-0.8926336063
11
3.7500000000
21
-0.8833308766
0
LINE
5
271
100
AcDbEntity
8
0
100
AcDbLine
62
9
6
CONTINUOUS
10
3.7412724675
20
0.8926336063
11
3.7500000000
21
0.8833308766
0
LINE
5
272
100
AcDbEntity
8
0
100
AcDbLine
62
9
6
CONTINUOUS
10
-3.7412724675
20
7.5073495500
11
-3.7500000000
21
7.5166691234
0
LINE
5
273
100
AcDbEntity
8
0
100
AcDbLine
62
9
6
CONTINUOUS
10
10.6503805997
20
-22.4000000000
11
10.5087981167
21
-21.9749071372
0
LINE
5
274
100
AcDbEntity
8
0
100
AcDbLine
62
9
6
CONTINUOUS
10
11.1500000000
20
-21.8997711479
11
11.0087219643
21
-21.4755923698
0
LINE
5
275
100
AcDbEntity
8
0
100
AcDbLine
62
9
6
CONTINUOUS
10
3.7412724675
20
-5.0926333415
11
3.7500000000
21
-5.0833308766
0
LINE
5
276
100
AcDbEntity
8
0
100
AcDbLine
62
9
6
CONTINUOUS
10
3.7412724675
20
5.0926333415
11
3.7500000000
21
5.0833308766
0
LINE
5
277
100
AcDbEntity
8
0
100
AcDbLine
62
9
6
CONTINUOUS
10
11.1500000000
20
-21.8997711479
11
11.1500000000
21
21.8997711479
0
LINE
5
278
100
AcDbEntity
8
0
100
AcDbLine
62
9
6
CONTINUOUS
10
2.7812783412
20
-22.5310194482
11
3.0000000000
21
-22.4000000000
0
LINE
5
279
100
AcDbEntity
8
0
100
AcDbLine
62
9
6
CONTINUOUS
10
-10.5005350625
20
21.0183142309
11
10.5005350625
21
21.0183142309
0
LINE
5
27A
100
AcDbEntity
8
0
100
AcDbLine
62
9
6
CONTINUOUS
10
3.0000000000
20
22.4000000000
11
2.7812783412
21
22.5310194482
0
LINE
5
27B
100
AcDbEntity
8
0
100
AcDbLine
62
9
6
CONTINUOUS
10
-10.5087981167
20
21.9749071372
11
10.5087981167
21
21.9749071372
0
LINE
5
27C
100
AcDbEntity
8
0
100
AcDbLine
62
9
6
CONTINUOUS
10
-10.6503805997
20
22.4000000000
11
-3.0000000000
21
22.4000000000
0
LINE
5
27D
100
AcDbEntity
8
0
100
AcDbLine
62
9
6
CONTINUOUS
10
3.0000000000
20
22.4000000000
11
10.6503805997
21
22.4000000000
0
LINE
5
27E
100
AcDbEntity
8
0
100
AcDbLine
62
9
6
CONTINUOUS
10
2.7812783412
20
22.5310194482
11
-2.7812783412
21
22.5310194482
0
LINE
5
27F
100
AcDbEntity
8
0
100
AcDbLine
62
9
6
CONTINUOUS
10
3.0000000000
20
23.5000000000
11
2.7812783412
21
23.4781828305
0
LINE
5
280
100
AcDbEntity
8
0
100
AcDbLine
62
9
6
CONTINUOUS
10
-2.7812783412
20
23.4781828305
11
2.7812783412
21
23.4781828305
0
LINE
5
281
100
AcDbEntity
8
0
100
AcDbLine
62
9
6
CONTINUOUS
10
-3.9733373476
20
23.5000000000
11
-3.0000000000
21
23.5000000000
0
LINE
5
282
100
AcDbEntity
8
0
100
AcDbLine
62
9
6
CONTINUOUS
10
3.0000000000
20
23.5000000000
11
3.9733373476
21
23.5000000000
0
LINE
5
283
100
AcDbEntity
8
0
100
AcDbLine
62
9
6
CONTINUOUS
10
-3.0000000000
20
23.5000000000
11
-2.7812783412
21
23.4781828305
0
LINE
5
284
100
AcDbEntity
8
0
100
AcDbLine
62
9
6
CONTINUOUS
10
-49.6740528926
20
-23.5000000000
11
-45.6740528926
21
-23.4650925288
0
LINE
5
285
100
AcDbEntity
8
0
100
AcDbLine
62
9
6
CONTINUOUS
10
-49.6740528926
20
-22.4000000000
11
-57.7853079125
21
-21.9749071372
0
LINE
5
286
100
AcDbEntity
8
0
100
AcDbLine
62
9
6
CONTINUOUS
10
-43.5663792128
20
-22.1955695989
11
-44.0740528926
21
-22.2000000000
0
LINE
5
287
100
AcDbEntity
8
0
100
AcDbLine
62
9
6
CONTINUOUS
10
-45.6740528926
20
-21.2139629885
11
-41.8077459987
21
-21.1802222394
0
LINE
5
288
100
AcDbEntity
8
0
100
AcDbLine
62
9
6
CONTINUOUS
10
-49.6740528926
20
-20.9000000000
11
-41.3773105370
21
-20.9317102097
0
LINE
5
289
100
AcDbEntity
8
0
100
AcDbLine
62
9
6
CONTINUOUS
10
-49.6740528926
20
-21.8997711479
11
-57.7678661376
21
-21.4755923698
0
LINE
5
28A
100
AcDbEntity
8
0
100
AcDbLine
62
9
6
CONTINUOUS
10
-58.7320880159
20
-21.0183142305
11
-58.2412561946
21
-20.9972959167
0
LINE
5
28B
100
AcDbEntity
8
0
100
AcDbLine
62
9
6
CONTINUOUS
10
-48.1740528926
20
-19.0000000000
11
-20.6566004861
21
-18.5196810816
0
LINE
5
28C
100
AcDbEntity
8
0
100
AcDbLine
62
9
6
CONTINUOUS
10
-40.3053840600
20
-19.0686688326
11
-49.6740528926
21
-18.9869096983
0
LINE
5
28D
100
AcDbEntity
8
0
100
AcDbLine
62
9
6
CONTINUOUS
10
-49.6740528926
20
-18.3006924196
11
-48.1740528926
21
-18.2298208395
0
LINE
5
28E
100
AcDbEntity
8
0
100
AcDbLine
62
9
6
CONTINUOUS
10
-48.1740528926
20
-16.4544358981
11
-49.6740528926
21
-16.4633443083
0
LINE
5
28F
100
AcDbEntity
8
0
100
AcDbLine
62
9
6
CONTINUOUS
10
-48.1740528926
20
-17.0643546451
11
-49.6740528926
21
-17.0730014938
0
LINE
5
290
100
AcDbEntity
8
0
100
AcDbLine
62
9
6
CONTINUOUS
10
-39.6740528926
20
19.7000000000
11
-40.3053840600
21
19.0686688326
0
LINE
5
291
100
AcDbEntity
8
0
100
AcDbLine
62
9
6
CONTINUOUS
10
-48.1740528926
20
-15.5005330670
11
-20.6566004861
21
-15.0202141485
0
LINE
5
292
100
AcDbEntity
8
0
100
AcDbLine
62
9
6
CONTINUOUS
10
-19.6740528926
20
-15.0202141485
11
-20.6566004851
21
-15.0202139867
0
LINE
5
293
100
AcDbEntity
8
CURVE
100
AcDbLine
62
9
6
CONTINUOUS
10
-37.3376667292
20
-15.0000000000
11
-36.9092258409
21
-15.0000000000
0
LINE
5
294
100
AcDbEntity
8
CURVE
100
AcDbLine
62
9
6
CONTINUOUS
10
-35.6953099720
20
-15.0000000000
11
-34.1957668518
21
-15.0000000000
0
LINE
5
295
100
AcDbEntity
8
CURVE
100
AcDbLine
62
9
6
CONTINUOUS
10
-37.9803280728
20
-14.9285714272
11
-37.6589973787
21
-14.9285714272
0
LINE
5
296
100
AcDbEntity
8
CURVE
100
AcDbLine
62
9
6
CONTINUOUS
10
-37.6589973787
20
-14.3214285672
11
-37.9803280728
21
-14.3214285672
0
LINE
5
297
100
AcDbEntity
8
CURVE
100
AcDbLine
62
9
6
CONTINUOUS
10
-40.4795666066
20
-14.2500000000
11
-40.2653461736
21
-14.2500000000
0
LINE
5
298
100
AcDbEntity
8
CURVE
100
AcDbLine
62
9
6
CONTINUOUS
10
-34.4099873071
20
-14.2500000000
11
-35.4810895391
21
-14.2500000000
0
LINE
5
299
100
AcDbEntity
8
CURVE
100
AcDbLine
62
9
6
CONTINUOUS
10
-36.9092258409
20
-14.2500000000
11
-37.3376667292
21
-14.2500000000
0
LINE
5
29A
100
AcDbEntity
8
0
100
AcDbLine
62
9
6
CONTINUOUS
10
-19.6740528926
20
-15.7000000000
11
-19.4792886145
21
-15.7033996231
0
LINE
5
29B
100
AcDbEntity
8
0
100
AcDbLine
62
9
6
CONTINUOUS
10
-40.3053840600
20
-19.0686688326
11
-39.6740528926
21
-19.7000000000
0
LINE
5
29C
100
AcDbEntity
8
CURVE
100
AcDbLine
62
9
6
CONTINUOUS
10
-43.4735043820
20
14.3536062306
11
-43.3406883217
21
14.4864222909
0
LINE
5
29D
100
AcDbEntity
8
CURVE
100
AcDbLine
62
9
6
CONTINUOUS
10
-43.4735043820
20
13.5135633746
11
-43.2718860777
21
13.7151816789
0
LINE
5
29E
100
AcDbEntity
8
CURVE
100
AcDbLine
62
9
6
CONTINUOUS
10
-42.6997820070
20
14.2872857496
11
-42.5686593985
21
14.4184083580
0
LINE
5
29F
100
AcDbEntity
8
CURVE
100
AcDbLine
62
9
6
CONTINUOUS
10
-43.4619438714
20
12.6850810291
11
-43.2780192167
21
12.8690056838
0
LINE
5
2A0
100
AcDbEntity
8
CURVE
100
AcDbLine
62
9
6
CONTINUOUS
10
-42.9034397123
20
13.2435851882
11
-42.4981637027
21
13.6488611978
0
LINE
5
2A1
100
AcDbEntity
8
CURVE
100
AcDbLine
62
9
6
CONTINUOUS
10
-41.8756711969
20
14.2713537036
11
-41.6740528926
21
14.4729720080
0
LINE
5
2A2
100
AcDbEntity
8
CURVE
100
AcDbLine
62
9
6
CONTINUOUS
10
-41.6740528926
20
12.0259579198
11
-43.4735043820
21
11.3906713657
0
LINE
5
2A3
100
AcDbEntity
8
CURVE
100
AcDbLine
62
9
6
CONTINUOUS
10
-43.4735043820
20
11.6503037553
11
-41.9134739013
21
12.1646135967
0
LINE
5
2A4
100
AcDbEntity
8
CURVE
100
AcDbLine
62
9
6
CONTINUOUS
10
-40.4795666066
20
-13.2142857313
11
-40.1582359124
21
-13.2142857313
0
LINE
5
2A5
100
AcDbEntity
8
CURVE
100
AcDbLine
62
9
6
CONTINUOUS
10
-34.1957668518
20
-13.2142857313
11
-35.6953099720
21
-13.2142857313
0
LINE
5
2A6
100
AcDbEntity
8
CURVE
100
AcDbLine
62
9
6
CONTINUOUS
10
-39.8369052630
20
-13.1785714030
11
-39.3013541470
21
-13.1785714030
0
LINE
5
2A7
100
AcDbEntity
8
CURVE
100
AcDbLine
62
9
6
CONTINUOUS
10
-35.6953099720
20
-12.7857143283
11
-35.0526486731
21
-12.7857143283
0
LINE
5
2A8
100
AcDbEntity
8
CURVE
100
AcDbLine
62
9
6
CONTINUOUS
10
-40.2653461736
20
-12.7500000000
11
-39.6226848300
21
-12.7500000000
0
LINE
5
2A9
100
AcDbEntity
8
CURVE
100
AcDbLine
62
9
6
CONTINUOUS
10
-46.7399848883
20
-12.3675540000
11
-45.9893935779
21
-12.3675540000
0
LINE
5
2AA
100
AcDbEntity
8
CURVE
100
AcDbLine
62
9
6
CONTINUOUS
10
-42.3960483958
20
-12.3675540000
11
-41.6454570854
21
-12.3675540000
0
LINE
5
2AB
100
AcDbEntity
8
CURVE
100
AcDbLine
62
9
6
CONTINUOUS
10
-38.1945485058
20
-12.9642857909
11
-36.6950053855
21
-13.3928571939
0
LINE
5
2AC
100
AcDbEntity
8
CURVE
100
AcDbLine
62
9
6
CONTINUOUS
10
-40.3724563454
20
-15.0000000000
11
-40.6937870396
21
-14.7857142761
0
LINE
5
2AD
100
AcDbEntity
8
CURVE
100
AcDbLine
62
9
6
CONTINUOUS
10
-40.2653461736
20
-14.2500000000
11
-39.1942439193
21
-15.0000000000
0
LINE
5
2AE
100
AcDbEntity
8
0
100
AcDbLine
62
9
6
CONTINUOUS
10
-49.6740528926
20
-23.5000000000
11
-49.6740528926
21
23.5000000000
0
LINE
5
2AF
100
AcDbEntity
8
CURVE
100
AcDbLine
62
9
6
CONTINUOUS
10
-39.8369052630
20
13.3571428061
11
-40.0511257406
21
13.1428571939
0
LINE
5
2B0
100
AcDbEntity
8
CURVE
100
AcDbLine
62
9
6
CONTINUOUS
10
-42.8332244454
20
12.4737575991
11
-42.6584561945
21
12.6485258499
0
LINE
5
2B1
100
AcDbEntity
8
CURVE
100
AcDbLine
62
9
6
CONTINUOUS
10
-42.0633968562
20
13.2435851882
11
-41.6740528926
21
13.6329291519
0
LINE
5
2B2
100
AcDbEntity
8
CURVE
100
AcDbLine
62
9
6
CONTINUOUS
10
-43.4735043820
20
10.9934348064
11
-43.2879918926
21
11.1789472959
0
LINE
5
2B3
100
AcDbEntity
8
CURVE
100
AcDbLine
62
9
6
CONTINUOUS
10
-42.8594952356
20
11.6074439529
11
-42.4935719378
21
11.9733672506
0
LINE
5
2B4
100
AcDbEntity
8
CURVE
100
AcDbLine
62
9
6
CONTINUOUS
10
-42.2045050194
20
12.2624341691
11
-42.0388931723
21
12.4280460161
0
LINE
5
2B5
100
AcDbEntity
8
CURVE
100
AcDbLine
62
9
6
CONTINUOUS
10
-43.4735043820
20
10.1533919504
11
-43.2718860777
21
10.3550102547
0
LINE
5
2B6
100
AcDbEntity
8
CURVE
100
AcDbLine
62
9
6
CONTINUOUS
10
-42.6997820070
20
10.9271143254
11
-42.5160127305
21
11.1108836018
0
LINE
5
2B7
100
AcDbEntity
8
CURVE
100
AcDbLine
62
9
6
CONTINUOUS
10
-40.4795666066
20
13.2857141495
11
-40.6937870396
21
13.1428571939
0
LINE
5
2B8
100
AcDbEntity
8
CURVE
100
AcDbLine
62
9
6
CONTINUOUS
10
-34.8384281954
20
-12.1428571343
11
-34.4099873071
21
-12.1428571343
0
LINE
5
2B9
100
AcDbEntity
8
CURVE
100
AcDbLine
62
9
6
CONTINUOUS
10
-39.6226848300
20
-12.0000000000
11
-40.2653461736
21
-12.0000000000
0
LINE
5
2BA
100
AcDbEntity
8
CURVE
100
AcDbLine
62
9
6
CONTINUOUS
10
-34.4099873071
20
-10.5714286566
11
-34.9455384119
21
-10.5714286566
0
LINE
5
2BB
100
AcDbEntity
8
CURVE
100
AcDbLine
62
9
6
CONTINUOUS
10
-38.1945485058
20
-12.1428571343
11
-36.6950053855
21
-12.5714285374
0
LINE
5
2BC
100
AcDbEntity
8
CURVE
100
AcDbLine
62
9
6
CONTINUOUS
10
-40.6937870396
20
-10.7142856121
11
-39.1942439193
21
-11.1428571939
0
LINE
5
2BD
100
AcDbEntity
8
CURVE
100
AcDbLine
62
9
6
CONTINUOUS
10
-40.4795666066
20
-12.6428571939
11
-40.2653461736
21
-12.7500000000
0
LINE
5
2BE
100
AcDbEntity
8
CURVE
100
AcDbLine
62
9
6
CONTINUOUS
10
-39.4084643746
20
-12.1071428061
11
-39.6226848300
21
-12.0000000000
0
LINE
5
2BF
100
AcDbEntity
8
CURVE
100
AcDbLine
62
9
6
CONTINUOUS
10
-38.1945485058
20
-14.7857142761
11
-37.9803280728
21
-14.9285714272
0
LINE
5
2C0
100
AcDbEntity
8
CURVE
100
AcDbLine
62
9
6
CONTINUOUS
10
-40.6937870396
20
-12.4285714030
11
-40.4795666066
21
-12.6428571939
0
LINE
5
2C1
100
AcDbEntity
8
0
100
AcDbLine
62
9
6
CONTINUOUS
10
-48.1740528926
20
-19.0000000000
11
-48.1740528926
21
18.2297930482
0
LINE
5
2C2
100
AcDbEntity
8
0
100
AcDbLine
62
9
6
CONTINUOUS
10
-48.1740528926
20
18.2740665384
11
-48.1740528926
21
19.0000000000
0
LINE
5
2C3
100
AcDbEntity
8
0
100
AcDbLine
62
9
6
CONTINUOUS
10
-44.4837370708
20
19.0322048983
11
-44.5007214388
21
18.9358817610
0
LINE
5
2C4
100
AcDbEntity
8
CURVE
100
AcDbLine
62
9
6
CONTINUOUS
10
-40.1582359124
20
12.6785714626
11
-40.0511257406
21
12.8214284182
0
LINE
5
2C5
100
AcDbEntity
8
CURVE
100
AcDbLine
62
9
6
CONTINUOUS
10
-39.4084643746
20
12.6071428061
11
-39.1942439193
21
12.8214284182
0
LINE
5
2C6
100
AcDbEntity
8
CURVE
100
AcDbLine
62
9
6
CONTINUOUS
10
-40.0511257406
20
10.7857142091
11
-39.8369052630
21
11.0000000000
0
LINE
5
2C7
100
AcDbEntity
8
CURVE
100
AcDbLine
62
9
6
CONTINUOUS
10
-40.6937870396
20
9.7142857909
11
-40.4795666066
21
9.9285714030
0
LINE
5
2C8
100
AcDbEntity
8
CURVE
100
AcDbLine
62
9
6
CONTINUOUS
10
-43.4735043820
20
9.3133490943
11
-43.3523820357
21
9.4344714406
0
LINE
5
2C9
100
AcDbEntity
8
CURVE
100
AcDbLine
62
9
6
CONTINUOUS
10
-42.8507591644
20
9.9360943119
11
-42.4981637027
21
10.2886897736
0
LINE
5
2CA
100
AcDbEntity
8
CURVE
100
AcDbLine
62
9
6
CONTINUOUS
10
-41.8756711969
20
10.9111822794
11
-41.6740528926
21
11.1128005838
0
LINE
5
2CB
100
AcDbEntity
8
CURVE
100
AcDbLine
62
9
6
CONTINUOUS
10
-42.7417712475
20
9.2050393728
11
-42.5123391796
21
9.4344714406
0
LINE
5
2CC
100
AcDbEntity
8
CURVE
100
AcDbLine
62
9
6
CONTINUOUS
10
-42.0107163083
20
9.9360943119
11
-41.6740528926
21
10.2727577277
0
LINE
5
2CD
100
AcDbEntity
8
CURVE
100
AcDbLine
62
9
6
CONTINUOUS
10
-43.1067677642
20
8.0000000000
11
-42.8756715377
21
8.2310962266
0
LINE
5
2CE
100
AcDbEntity
8
CURVE
100
AcDbLine
62
9
6
CONTINUOUS
10
-42.4206275148
20
8.6861402494
11
-41.6740528926
21
9.4327148717
0
LINE
5
2CF
100
AcDbEntity
8
CURVE
100
AcDbLine
62
9
6
CONTINUOUS
10
-42.2667249082
20
8.0000000000
11
-42.0385592669
21
8.2281656413
0
LINE
5
2D0
100
AcDbEntity
8
CURVE
100
AcDbLine
62
9
6
CONTINUOUS
10
-40.6937870396
20
10.7857142091
11
-40.4795666066
21
10.9642856717
0
LINE
5
2D1
100
AcDbEntity
8
CURVE
100
AcDbLine
62
9
6
CONTINUOUS
10
-41.6740528926
20
9.1722789998
11
-43.1181456246
21
8.2319450864
0
LINE
5
2D2
100
AcDbEntity
8
CURVE
100
AcDbLine
62
9
6
CONTINUOUS
10
-43.4735043820
20
8.2546266319
11
-42.0142835826
21
9.2025274130
0
LINE
5
2D3
100
AcDbEntity
8
CURVE
100
AcDbLine
62
9
6
CONTINUOUS
10
-40.2653461736
20
8.7500000000
11
-40.4795666066
21
8.6428571492
0
LINE
5
2D4
100
AcDbEntity
8
0
100
AcDbLine
62
9
6
CONTINUOUS
10
-19.6740528926
20
-9.7000000000
11
-19.4792886145
21
-9.6966003769
0
LINE
5
2D5
100
AcDbEntity
8
CURVE
100
AcDbLine
62
9
6
CONTINUOUS
10
-34.8384281954
20
-9.8214286566
11
-34.4099873071
21
-9.8214286566
0
LINE
5
2D6
100
AcDbEntity
8
CURVE
100
AcDbLine
62
9
6
CONTINUOUS
10
-35.2668691061
20
-9.3928570747
11
-34.6242077624
21
-9.3928570747
0
LINE
5
2D7
100
AcDbEntity
8
CURVE
100
AcDbLine
62
9
6
CONTINUOUS
10
-34.6242077624
20
-8.6428570747
11
-35.2668691061
21
-8.6428570747
0
LINE
5
2D8
100
AcDbEntity
8
CURVE
100
AcDbLine
62
9
6
CONTINUOUS
10
-43.8178352068
20
-8.3824440000
11
-44.5676067669
21
-8.3824440000
0
LINE
5
2D9
100
AcDbEntity
8
CURVE
100
AcDbLine
62
9
6
CONTINUOUS
10
-35.1597588449
20
-8.2142858505
11
-34.8384281954
21
-8.2142858505
0
LINE
5
2DA
100
AcDbEntity
8
CURVE
100
AcDbLine
62
9
6
CONTINUOUS
10
-39.3013541470
20
-13.1785714030
11
-39.1942439193
21
-13.2857142091
0
LINE
5
2DB
100
AcDbEntity
8
CURVE
100
AcDbLine
62
9
6
CONTINUOUS
10
-37.5518872069
20
-14.7857142761
11
-37.3376667292
21
-15.0000000000
0
LINE
5
2DC
100
AcDbEntity
8
CURVE
100
AcDbLine
62
9
6
CONTINUOUS
10
-39.1942439193
20
-12.3214285970
11
-39.4084643746
21
-12.1071428061
0
LINE
5
2DD
100
AcDbEntity
8
CURVE
100
AcDbLine
62
9
6
CONTINUOUS
10
-36.6950053855
20
-14.4642857015
11
-36.9092258409
21
-14.2500000000
0
LINE
5
2DE
100
AcDbEntity
8
0
100
AcDbLine
62
9
6
CONTINUOUS
10
-44.4837370708
20
-19.0322048983
11
-44.5007214388
21
-18.9358817610
0
LINE
5
2DF
100
AcDbEntity
8
0
100
AcDbLine
62
9
6
CONTINUOUS
10
-46.3740528926
20
-19.0165591163
11
-46.3740528926
21
-18.9685808831
0
LINE
5
2E0
100
AcDbEntity
8
0
100
AcDbLine
62
9
6
CONTINUOUS
10
-46.3740528926
20
18.9685808831
11
-46.3740528926
21
19.0174537356
0
LINE
5
2E1
100
AcDbEntity
8
0
100
AcDbLine
62
9
6
CONTINUOUS
10
-45.6740528926
20
23.4650925288
11
-45.6740528926
21
21.2139629885
0
LINE
5
2E2
100
AcDbEntity
8
0
100
AcDbLine
62
9
6
CONTINUOUS
10
-45.6740528926
20
-21.2139629885
11
-45.6740528926
21
-23.4650925288
0
LINE
5
2E3
100
AcDbEntity
8
0
100
AcDbLine
62
9
6
CONTINUOUS
10
-43.4842248337
20
19.0409275094
11
-43.5058093726
21
18.9185155063
0
LINE
5
2E4
100
AcDbEntity
8
CURVE
100
AcDbLine
62
9
6
CONTINUOUS
10
-39.8369052630
20
9.3928571045
11
-40.0511257406
21
9.1785714030
0
LINE
5
2E5
100
AcDbEntity
8
CURVE
100
AcDbLine
62
9
6
CONTINUOUS
10
-40.4795666066
20
8.6428571492
11
-40.6937870396
21
8.4285714477
0
LINE
5
2E6
100
AcDbEntity
8
CURVE
100
AcDbLine
62
9
6
CONTINUOUS
10
-39.4084643746
20
8.1071428619
11
-39.1942439193
21
8.3214285746
0
LINE
5
2E7
100
AcDbEntity
8
CURVE
100
AcDbLine
62
9
6
CONTINUOUS
10
-39.6226848300
20
8.0000000000
11
-39.4084643746
21
8.1071428619
0
LINE
5
2E8
100
AcDbEntity
8
CURVE
100
AcDbLine
62
9
6
CONTINUOUS
10
-41.6454570854
20
-7.9824440000
11
-42.3960483958
21
-7.9824440000
0
LINE
5
2E9
100
AcDbEntity
8
CURVE
100
AcDbLine
62
9
6
CONTINUOUS
10
-45.9893935779
20
-7.9824440000
11
-46.7399848883
21
-7.9824440000
0
LINE
5
2EA
100
AcDbEntity
8
CURVE
100
AcDbLine
62
9
6
CONTINUOUS
10
-40.6937870396
20
-7.9642853737
11
-40.0511257406
21
-7.9642853737
0
LINE
5
2EB
100
AcDbEntity
8
0
100
AcDbLine
62
9
6
CONTINUOUS
10
-19.6740528926
20
-7.8646138101
11
-19.4740528926
21
-7.8646138101
0
LINE
5
2EC
100
AcDbEntity
8
CURVE
100
AcDbLine
62
9
6
CONTINUOUS
10
-34.6242077624
20
-7.5714282990
11
-34.3028770794
21
-7.5714282990
0
LINE
5
2ED
100
AcDbEntity
8
0
100
AcDbLine
62
9
6
CONTINUOUS
10
-19.6740528926
20
-7.3646138101
11
-19.4740528926
21
-7.3646138101
0
LINE
5
2EE
100
AcDbEntity
8
CURVE
100
AcDbLine
62
9
6
CONTINUOUS
10
-39.8369052630
20
-7.3214285374
11
-39.4084643746
21
-7.3214285374
0
LINE
5
2EF
100
AcDbEntity
8
0
100
AcDbLine
62
9
6
CONTINUOUS
10
-19.6740528926
20
-6.9646138101
11
-19.4740528926
21
-6.9646138101
0
LINE
5
2F0
100
AcDbEntity
8
CURVE
100
AcDbLine
62
9
6
CONTINUOUS
10
-40.2653461736
20
-6.8928573132
11
-39.6226848300
21
-6.8928573132
0
LINE
5
2F1
100
AcDbEntity
8
CURVE
100
AcDbLine
62
9
6
CONTINUOUS
10
-39.6226848300
20
-6.1428573132
11
-40.2653461736
21
-6.1428573132
0
LINE
5
2F2
100
AcDbEntity
8
CURVE
100
AcDbLine
62
9
6
CONTINUOUS
10
-34.9455384119
20
-10.5714286566
11
-35.3739792779
21
-10.3571426868
0
LINE
5
2F3
100
AcDbEntity
8
CURVE
100
AcDbLine
62
9
6
CONTINUOUS
10
-35.4810895391
20
-9.2857142687
11
-35.2668691061
21
-9.3928570747
0
LINE
5
2F4
100
AcDbEntity
8
CURVE
100
AcDbLine
62
9
6
CONTINUOUS
10
-40.4795666066
20
-6.7857141495
11
-40.2653461736
21
-6.8928573132
0
LINE
5
2F5
100
AcDbEntity
8
CURVE
100
AcDbLine
62
9
6
CONTINUOUS
10
-34.2314702601
20
-11.7142857313
11
-35.5524963500
21
-10.8571429253
0
LINE
5
2F6
100
AcDbEntity
8
CURVE
100
AcDbLine
62
9
6
CONTINUOUS
10
-35.6953099720
20
-13.2142857313
11
-35.2668691061
21
-13.6428571343
0
LINE
5
2F7
100
AcDbEntity
8
CURVE
100
AcDbLine
62
9
6
CONTINUOUS
10
-34.1957668518
20
-14.4642857015
11
-34.4099873071
21
-14.2500000000
0
LINE
5
2F8
100
AcDbEntity
8
CURVE
100
AcDbLine
62
9
6
CONTINUOUS
10
-40.6937870396
20
-6.5714285374
11
-40.4795666066
21
-6.7857141495
0
LINE
5
2F9
100
AcDbEntity
8
CURVE
100
AcDbLine
62
9
6
CONTINUOUS
10
-37.5518872069
20
-14.4642857015
11
-37.6589973787
21
-14.3214285672
0
LINE
5
2FA
100
AcDbEntity
8
CURVE
100
AcDbLine
62
9
6
CONTINUOUS
10
-40.1582359124
20
-13.2142857313
11
-40.0511257406
21
-13.3928571939
0
LINE
5
2FB
100
AcDbEntity
8
0
100
AcDbLine
62
9
6
CONTINUOUS
10
-43.4842248337
20
-19.0409275094
11
-43.5058093726
21
-18.9185155063
0
LINE
5
2FC
100
AcDbEntity
8
0
100
AcDbLine
62
9
6
CONTINUOUS
10
-44.0653253601
20
21.1999238360
11
-44.0740528926
21
22.2000000000
0
LINE
5
2FD
100
AcDbEntity
8
CURVE
100
AcDbLine
62
9
6
CONTINUOUS
10
-44.5676067669
20
-8.3824440000
11
-44.5676067669
21
-9.8429440000
0
LINE
5
2FE
100
AcDbEntity
8
CURVE
100
AcDbLine
62
9
6
CONTINUOUS
10
-43.8178352068
20
-9.8429440000
11
-43.8178352068
21
-8.3824440000
0
LINE
5
2FF
100
AcDbEntity
8
CURVE
100
AcDbLine
62
9
6
CONTINUOUS
10
-43.4735043820
20
8.0000000000
11
-43.4735043820
21
8.2546266319
0
LINE
5
300
100
AcDbEntity
8
CURVE
100
AcDbLine
62
9
6
CONTINUOUS
10
-43.4735043820
20
9.2075659919
11
-43.4735043820
21
9.4344714406
0
LINE
5
301
100
AcDbEntity
8
CURVE
100
AcDbLine
62
9
6
CONTINUOUS
10
-43.4735043820
20
9.9360943119
11
-43.4735043820
21
11.1789472959
0
LINE
5
302
100
AcDbEntity
8
CURVE
100
AcDbLine
62
9
6
CONTINUOUS
10
-43.4735043820
20
11.3906713657
11
-43.4735043820
21
11.6503037553
0
LINE
5
303
100
AcDbEntity
8
CURVE
100
AcDbLine
62
9
6
CONTINUOUS
10
-43.4735043820
20
12.6889667159
11
-43.4735043820
21
12.9385717089
0
LINE
5
304
100
AcDbEntity
8
CURVE
100
AcDbLine
62
9
6
CONTINUOUS
10
-43.4735043820
20
13.2435851882
11
-43.4735043820
21
14.4864222909
0
LINE
5
305
100
AcDbEntity
8
CURVE
100
AcDbLine
62
9
6
CONTINUOUS
10
-43.2718860777
20
14.4864222909
11
-43.2718860777
21
13.4830802023
0
LINE
5
306
100
AcDbEntity
8
CURVE
100
AcDbLine
62
9
6
CONTINUOUS
10
-43.2718860777
20
11.1789472959
11
-43.2718860777
21
10.1755882673
0
LINE
5
307
100
AcDbEntity
8
CURVE
100
AcDbLine
62
9
6
CONTINUOUS
10
-42.6997820070
20
10.1755882673
11
-42.6997820070
21
11.1108836018
0
LINE
5
308
100
AcDbEntity
8
CURVE
100
AcDbLine
62
9
6
CONTINUOUS
10
-42.6997820070
20
13.4830802023
11
-42.6997820070
21
14.4184083580
0
LINE
5
309
100
AcDbEntity
8
0
100
AcDbLine
62
9
6
CONTINUOUS
10
-44.0653253601
20
-21.1999238360
11
-44.0740528926
21
-22.2000000000
0
LINE
5
30A
100
AcDbEntity
8
0
100
AcDbLine
62
9
6
CONTINUOUS
10
-19.6740528926
20
-5.4497474683
11
-19.4740528926
21
-5.4497474683
0
LINE
5
30B
100
AcDbEntity
8
0
100
AcDbLine
62
9
6
CONTINUOUS
10
-19.6740528926
20
-4.7454900841
11
-19.4740528926
21
-4.7454900841
0
LINE
5
30C
100
AcDbEntity
8
CURVE
100
AcDbLine
62
9
6
CONTINUOUS
10
-39.4084643746
20
-4.6428573132
11
-39.9440154795
21
-4.6428573132
0
LINE
5
30D
100
AcDbEntity
8
CURVE
100
AcDbLine
62
9
6
CONTINUOUS
10
-39.8369052630
20
-3.8928573132
11
-39.4084643746
21
-3.8928573132
0
LINE
5
30E
100
AcDbEntity
8
CURVE
100
AcDbLine
62
9
6
CONTINUOUS
10
-39.4084643746
20
-6.2499997616
11
-39.6226848300
21
-6.1428573132
0
LINE
5
30F
100
AcDbEntity
8
CURVE
100
AcDbLine
62
9
6
CONTINUOUS
10
-34.4099873071
20
-8.7500002384
11
-34.6242077624
21
-8.6428570747
0
LINE
5
310
100
AcDbEntity
8
CURVE
100
AcDbLine
62
9
6
CONTINUOUS
10
-39.9440154795
20
-4.6428573132
11
-40.3724563454
21
-4.4285717010
0
LINE
5
311
100
AcDbEntity
8
CURVE
100
AcDbLine
62
9
6
CONTINUOUS
10
-39.4084643746
20
-7.3214285374
11
-39.1942439193
21
-7.5357141495
0
LINE
5
312
100
AcDbEntity
8
CURVE
100
AcDbLine
62
9
6
CONTINUOUS
10
-34.4099873071
20
-12.1428571343
11
-34.1957668518
21
-12.3571429253
0
LINE
5
313
100
AcDbEntity
8
CURVE
100
AcDbLine
62
9
6
CONTINUOUS
10
-35.3739792779
20
-10.3571426868
11
-35.6953099720
21
-10.0357142687
0
LINE
5
314
100
AcDbEntity
8
CURVE
100
AcDbLine
62
9
6
CONTINUOUS
10
-39.1942439193
20
-6.4642853737
11
-39.4084643746
21
-6.2499997616
0
LINE
5
315
100
AcDbEntity
8
CURVE
100
AcDbLine
62
9
6
CONTINUOUS
10
-40.3724563454
20
-4.4285717010
11
-40.6937870396
21
-4.1071429253
0
LINE
5
316
100
AcDbEntity
8
CURVE
100
AcDbLine
62
9
6
CONTINUOUS
10
-35.6953099720
20
-9.0714286566
11
-35.4810895391
21
-9.2857142687
0
LINE
5
317
100
AcDbEntity
8
CURVE
100
AcDbLine
62
9
6
CONTINUOUS
10
-39.7654984520
20
-10.0357142687
11
-39.6583882355
21
-10.2857143879
0
LINE
5
318
100
AcDbEntity
8
CURVE
100
AcDbLine
62
9
6
CONTINUOUS
10
-39.6583882355
20
-9.4642857313
11
-39.5512779966
21
-9.7500000000
0
LINE
5
319
100
AcDbEntity
8
CURVE
100
AcDbLine
62
9
6
CONTINUOUS
10
-42.4981637027
20
14.4184083580
11
-42.4981637027
21
13.4830802023
0
LINE
5
31A
100
AcDbEntity
8
CURVE
100
AcDbLine
62
9
6
CONTINUOUS
10
-42.4981637027
20
11.1108836018
11
-42.4981637027
21
10.1755882673
0
LINE
5
31B
100
AcDbEntity
8
CURVE
100
AcDbLine
62
9
6
CONTINUOUS
10
-41.8756711969
20
10.1755882673
11
-41.8756711969
21
11.1865131048
0
LINE
5
31C
100
AcDbEntity
8
CURVE
100
AcDbLine
62
9
6
CONTINUOUS
10
-41.8756711969
20
13.4830802023
11
-41.8756711969
21
14.4940378610
0
LINE
5
31D
100
AcDbEntity
8
CURVE
100
AcDbLine
62
9
6
CONTINUOUS
10
-41.6740528926
20
14.4940378610
11
-41.6740528926
21
13.2435851882
0
LINE
5
31E
100
AcDbEntity
8
CURVE
100
AcDbLine
62
9
6
CONTINUOUS
10
-41.6740528926
20
12.2982126959
11
-41.6740528926
21
12.0259579198
0
LINE
5
31F
100
AcDbEntity
8
CURVE
100
AcDbLine
62
9
6
CONTINUOUS
10
-41.6740528926
20
11.1865131048
11
-41.6740528926
21
9.9360943119
0
LINE
5
320
100
AcDbEntity
8
CURVE
100
AcDbLine
62
9
6
CONTINUOUS
10
-41.6740528926
20
9.4344714406
11
-41.6740528926
21
9.1722789998
0
LINE
5
321
100
AcDbEntity
8
CURVE
100
AcDbLine
62
9
6
CONTINUOUS
10
-41.6740528926
20
8.2268895676
11
-41.6740528926
21
8.0000000000
0
LINE
5
322
100
AcDbEntity
8
CURVE
100
AcDbLine
62
9
6
CONTINUOUS
10
-40.6937870396
20
13.1428571939
11
-40.6937870396
21
12.8214284182
0
LINE
5
323
100
AcDbEntity
8
CURVE
100
AcDbLine
62
9
6
CONTINUOUS
10
-40.6937870396
20
12.1785715818
11
-40.6937870396
21
11.4285715818
0
LINE
5
324
100
AcDbEntity
8
CURVE
100
AcDbLine
62
9
6
CONTINUOUS
10
-40.6937870396
20
8.4285714477
11
-40.6937870396
21
8.3214285746
0
LINE
5
325
100
AcDbEntity
8
CURVE
100
AcDbLine
62
9
6
CONTINUOUS
10
-40.6937870396
20
-3.0357141495
11
-40.6937870396
21
-3.1428573132
0
LINE
5
326
100
AcDbEntity
8
CURVE
100
AcDbLine
62
9
6
CONTINUOUS
10
-40.6937870396
20
-6.4642853737
11
-40.6937870396
21
-6.5714285374
0
LINE
5
327
100
AcDbEntity
8
CURVE
100
AcDbLine
62
9
6
CONTINUOUS
10
-40.6937870396
20
-7.3214285374
11
-40.6937870396
21
-7.9642853737
0
LINE
5
328
100
AcDbEntity
8
CURVE
100
AcDbLine
62
9
6
CONTINUOUS
10
-40.6937870396
20
-12.3214285970
11
-40.6937870396
21
-12.4285714030
0
LINE
5
329
100
AcDbEntity
8
CURVE
100
AcDbLine
62
9
6
CONTINUOUS
10
-40.6937870396
20
-14.7857142761
11
-40.6937870396
21
-14.4642857015
0
LINE
5
32A
100
AcDbEntity
8
CURVE
100
AcDbLine
62
9
6
CONTINUOUS
10
-40.6937870396
20
-13.8214285970
11
-40.6937870396
21
-13.3928571939
0
LINE
5
32B
100
AcDbEntity
8
CURVE
100
AcDbLine
62
9
6
CONTINUOUS
10
-40.6937870396
20
9.3928571045
11
-40.6937870396
21
9.7142857909
0
LINE
5
32C
100
AcDbEntity
8
CURVE
100
AcDbLine
62
9
6
CONTINUOUS
10
-40.6937870396
20
10.3571428061
11
-40.6937870396
21
10.7857142091
0
LINE
5
32D
100
AcDbEntity
8
0
100
AcDbLine
62
9
6
CONTINUOUS
10
-19.4740528926
20
-3.4770677301
11
-19.4240528926
21
-3.4770677301
0
LINE
5
32E
100
AcDbEntity
8
CURVE
100
AcDbLine
62
9
6
CONTINUOUS
10
-40.2653461736
20
-3.4642853737
11
-39.6226848300
21
-3.4642853737
0
LINE
5
32F
100
AcDbEntity
8
CURVE
100
AcDbLine
62
9
6
CONTINUOUS
10
-39.6226848300
20
-2.7142853737
11
-40.2653461736
21
-2.7142853737
0
LINE
5
330
100
AcDbEntity
8
CURVE
100
AcDbLine
62
9
6
CONTINUOUS
10
-40.6937870396
20
-2.2857141495
11
-39.1942439193
21
-2.2857141495
0
LINE
5
331
100
AcDbEntity
8
0
100
AcDbLine
62
9
6
CONTINUOUS
10
-19.6740528926
20
-1.8000000000
11
-19.4740528926
21
-1.8000000000
0
LINE
5
332
100
AcDbEntity
8
CURVE
100
AcDbLine
62
9
6
CONTINUOUS
10
-40.4795666066
20
-3.3571429253
11
-40.2653461736
21
-3.4642853737
0
LINE
5
333
100
AcDbEntity
8
CURVE
100
AcDbLine
62
9
6
CONTINUOUS
10
-39.4084643746
20
-2.8214292526
11
-39.6226848300
21
-2.7142853737
0
LINE
5
334
100
AcDbEntity
8
CURVE
100
AcDbLine
62
9
6
CONTINUOUS
10
-34.4099873071
20
-9.8214286566
11
-34.1957668518
21
-10.0357142687
0
LINE
5
335
100
AcDbEntity
8
CURVE
100
AcDbLine
62
9
6
CONTINUOUS
10
-40.6937870396
20
-3.1428573132
11
-40.4795666066
21
-3.3571429253
0
LINE
5
336
100
AcDbEntity
8
CURVE
100
AcDbLine
62
9
6
CONTINUOUS
10
-35.2668691061
20
-8.1071426868
11
-35.1597588449
21
-8.2142858505
0
LINE
5
337
100
AcDbEntity
8
CURVE
100
AcDbLine
62
9
6
CONTINUOUS
10
-39.4084643746
20
-3.8928573132
11
-39.1942439193
21
-4.1071429253
0
LINE
5
338
100
AcDbEntity
8
CURVE
100
AcDbLine
62
9
6
CONTINUOUS
10
-34.1957668518
20
-8.9642858505
11
-34.4099873071
21
-8.7500002384
0
LINE
5
339
100
AcDbEntity
8
CURVE
100
AcDbLine
62
9
6
CONTINUOUS
10
-39.1942439193
20
-3.0357141495
11
-39.4084643746
21
-2.8214292526
0
LINE
5
33A
100
AcDbEntity
8
CURVE
100
AcDbLine
62
9
6
CONTINUOUS
10
-34.3028770794
20
-7.5714282990
11
-34.1957668518
21
-7.6785714626
0
LINE
5
33B
100
AcDbEntity
8
CURVE
100
AcDbLine
62
9
6
CONTINUOUS
10
-40.2653461736
20
-0.4642853737
11
-40.2653461736
21
-1.1071429253
0
LINE
5
33C
100
AcDbEntity
8
CURVE
100
AcDbLine
62
9
6
CONTINUOUS
10
-40.0511257406
20
13.1428571939
11
-40.0511257406
21
12.8214284182
0
LINE
5
33D
100
AcDbEntity
8
CURVE
100
AcDbLine
62
9
6
CONTINUOUS
10
-40.0511257406
20
-1.5357141495
11
-40.0511257406
21
-2.2857141495
0
LINE
5
33E
100
AcDbEntity
8
CURVE
100
AcDbLine
62
9
6
CONTINUOUS
10
-40.0511257406
20
-13.6071428955
11
-40.0511257406
21
-13.3928571939
0
LINE
5
33F
100
AcDbEntity
8
CURVE
100
AcDbLine
62
9
6
CONTINUOUS
10
-40.0511257406
20
-7.9642853737
11
-40.0511257406
21
-7.5357141495
0
LINE
5
340
100
AcDbEntity
8
CURVE
100
AcDbLine
62
9
6
CONTINUOUS
10
-40.0511257406
20
-4.5714282990
11
-40.0511257406
21
-4.1071429253
0
LINE
5
341
100
AcDbEntity
8
CURVE
100
AcDbLine
62
9
6
CONTINUOUS
10
-40.0511257406
20
10.5714285970
11
-40.0511257406
21
10.7857142091
0
LINE
5
342
100
AcDbEntity
8
CURVE
100
AcDbLine
62
9
6
CONTINUOUS
10
-39.8369052630
20
9.8571429253
11
-39.8369052630
21
9.3928571045
0
LINE
5
343
100
AcDbEntity
8
CURVE
100
AcDbLine
62
9
6
CONTINUOUS
10
-39.7297950465
20
-5.0714285374
11
-39.7297950465
21
-5.7142853737
0
LINE
5
344
100
AcDbEntity
8
0
100
AcDbLine
62
9
6
CONTINUOUS
10
-39.6740528926
20
19.9483339502
11
-39.6740528926
21
19.7000000000
0
LINE
5
345
100
AcDbEntity
8
0
100
AcDbLine
62
9
6
CONTINUOUS
10
-39.6740528926
20
-19.7000000000
11
-39.6740528926
21
-19.9483339502
0
LINE
5
346
100
AcDbEntity
8
CURVE
100
AcDbLine
62
9
6
CONTINUOUS
10
-39.1942439193
20
10.8928571939
11
-39.1942439193
21
10.3571428061
0
LINE
5
347
100
AcDbEntity
8
CURVE
100
AcDbLine
62
9
6
CONTINUOUS
10
-39.1942439193
20
-0.4642853737
11
-39.1942439193
21
-1.1071429253
0
LINE
5
348
100
AcDbEntity
8
CURVE
100
AcDbLine
62
9
6
CONTINUOUS
10
-39.1942439193
20
-4.1071429253
11
-39.1942439193
21
-4.4285717010
0
LINE
5
349
100
AcDbEntity
8
CURVE
100
AcDbLine
62
9
6
CONTINUOUS
10
-39.1942439193
20
-7.5357141495
11
-39.1942439193
21
-7.9642853737
0
LINE
5
34A
100
AcDbEntity
8
CURVE
100
AcDbLine
62
9
6
CONTINUOUS
10
-39.1942439193
20
-13.2857142091
11
-39.1942439193
21
-13.8214285970
0
LINE
5
34B
100
AcDbEntity
8
CURVE
100
AcDbLine
62
9
6
CONTINUOUS
10
-39.1942439193
20
-15.0000000000
11
-39.1942439193
21
-14.2500000000
0
LINE
5
34C
100
AcDbEntity
8
CURVE
100
AcDbLine
62
9
6
CONTINUOUS
10
-39.1942439193
20
-12.4285714030
11
-39.1942439193
21
-12.3214285970
0
LINE
5
34D
100
AcDbEntity
8
CURVE
100
AcDbLine
62
9
6
CONTINUOUS
10
-39.1942439193
20
-6.5714285374
11
-39.1942439193
21
-6.4642853737
0
LINE
5
34E
100
AcDbEntity
8
CURVE
100
AcDbLine
62
9
6
CONTINUOUS
10
-39.1942439193
20
-3.1428573132
11
-39.1942439193
21
-3.0357141495
0
LINE
5
34F
100
AcDbEntity
8
CURVE
100
AcDbLine
62
9
6
CONTINUOUS
10
-39.1942439193
20
8.3214285746
11
-39.1942439193
21
8.4285714477
0
LINE
5
350
100
AcDbEntity
8
CURVE
100
AcDbLine
62
9
6
CONTINUOUS
10
-39.1942439193
20
12.8214284182
11
-39.1942439193
21
13.1428571939
0
LINE
5
351
100
AcDbEntity
8
CURVE
100
AcDbLine
62
9
6
CONTINUOUS
10
-39.1942439193
20
-1.5357141495
11
-40.6937870396
21
-1.5357141495
0
LINE
5
352
100
AcDbEntity
8
0
100
AcDbLine
62
9
6
CONTINUOUS
10
-19.6740528926
20
0.0000000000
11
-19.4740528926
21
0.0000000000
0
LINE
5
353
100
AcDbEntity
8
CURVE
100
AcDbLine
62
9
6
CONTINUOUS
10
-39.1942439193
20
-1.1071429253
11
-40.2653461736
21
-0.4642853737
0
LINE
5
354
100
AcDbEntity
8
CURVE
100
AcDbLine
62
9
6
CONTINUOUS
10
-38.1945485058
20
-14.4642857015
11
-38.1945485058
21
-14.7857142761
0
LINE
5
355
100
AcDbEntity
8
CURVE
100
AcDbLine
62
9
6
CONTINUOUS
10
-37.5518872069
20
-14.4642857015
11
-37.5518872069
21
-14.7857142761
0
LINE
5
356
100
AcDbEntity
8
CURVE
100
AcDbLine
62
9
6
CONTINUOUS
10
-37.1234462962
20
-11.8571426868
11
-37.1234462962
21
-12.4285714030
0
LINE
5
357
100
AcDbEntity
8
CURVE
100
AcDbLine
62
9
6
CONTINUOUS
10
-36.6950053855
20
-14.7857142761
11
-36.6950053855
21
-14.4642857015
0
LINE
5
358
100
AcDbEntity
8
CURVE
100
AcDbLine
62
9
6
CONTINUOUS
10
-40.4795666066
20
-2.8214292526
11
-40.6937870396
21
-3.0357141495
0
LINE
5
359
100
AcDbEntity
8
CURVE
100
AcDbLine
62
9
6
CONTINUOUS
10
-39.4084643746
20
-3.3571429253
11
-39.1942439193
21
-3.1428573132
0
LINE
5
35A
100
AcDbEntity
8
CURVE
100
AcDbLine
62
9
6
CONTINUOUS
10
-40.0511257406
20
-4.1071429253
11
-39.8369052630
21
-3.8928573132
0
LINE
5
35B
100
AcDbEntity
8
CURVE
100
AcDbLine
62
9
6
CONTINUOUS
10
-40.2653461736
20
-2.7142853737
11
-40.4795666066
21
-2.8214292526
0
LINE
5
35C
100
AcDbEntity
8
0
100
AcDbLine
62
9
6
CONTINUOUS
10
-19.6740528926
20
0.6000000000
11
-19.4740528926
21
0.6000000000
0
LINE
5
35D
100
AcDbEntity
8
0
100
AcDbLine
62
9
6
CONTINUOUS
10
-19.6740528926
20
1.5000000000
11
-19.4740528926
21
1.5000000000
0
LINE
5
35E
100
AcDbEntity
8
0
100
AcDbLine
62
9
6
CONTINUOUS
10
-19.6740528926
20
1.9000000000
11
-19.4740528926
21
1.9000000000
0
LINE
5
35F
100
AcDbEntity
8
CURVE
100
AcDbLine
62
9
6
CONTINUOUS
10
-35.6953099720
20
-8.9642858505
11
-35.6953099720
21
-9.0714286566
0
LINE
5
360
100
AcDbEntity
8
CURVE
100
AcDbLine
62
9
6
CONTINUOUS
10
-35.6953099720
20
-12.1428571343
11
-35.6953099720
21
-12.7857143283
0
LINE
5
361
100
AcDbEntity
8
CURVE
100
AcDbLine
62
9
6
CONTINUOUS
10
-35.6953099720
20
-14.4642857015
11
-35.6953099720
21
-15.0000000000
0
LINE
5
362
100
AcDbEntity
8
CURVE
100
AcDbLine
62
9
6
CONTINUOUS
10
-35.2668691061
20
-7.6785714626
11
-35.2668691061
21
-8.1071426868
0
LINE
5
363
100
AcDbEntity
8
CURVE
100
AcDbLine
62
9
6
CONTINUOUS
10
-35.0526486731
20
-12.7857143283
11
-35.0526486731
21
-12.3571429253
0
LINE
5
364
100
AcDbEntity
8
CURVE
100
AcDbLine
62
9
6
CONTINUOUS
10
-35.0526486731
20
-10.5000000000
11
-35.0526486731
21
-10.0357142687
0
LINE
5
365
100
AcDbEntity
8
CURVE
100
AcDbLine
62
9
6
CONTINUOUS
10
-39.1942439193
20
-4.4285717010
11
-39.4084643746
21
-4.6428573132
0
LINE
5
366
100
AcDbEntity
8
CURVE
100
AcDbLine
62
9
6
CONTINUOUS
10
-40.4795666066
20
-6.2499997616
11
-40.6937870396
21
-6.4642853737
0
LINE
5
367
100
AcDbEntity
8
CURVE
100
AcDbLine
62
9
6
CONTINUOUS
10
-39.4084643746
20
-6.7857141495
11
-39.1942439193
21
-6.5714285374
0
LINE
5
368
100
AcDbEntity
8
CURVE
100
AcDbLine
62
9
6
CONTINUOUS
10
-39.6226848300
20
-3.4642853737
11
-39.4084643746
21
-3.3571429253
0
LINE
5
369
100
AcDbEntity
8
0
100
AcDbLine
62
9
6
CONTINUOUS
10
-19.6740528926
20
2.8000000000
11
-19.4740528926
21
2.8000000000
0
LINE
5
36A
100
AcDbEntity
8
0
100
AcDbLine
62
9
6
CONTINUOUS
10
-19.4240528926
20
3.4770677301
11
-19.6240528926
21
3.4770677301
0
LINE
5
36B
100
AcDbEntity
8
CURVE
100
AcDbLine
62
9
6
CONTINUOUS
10
-34.1957668518
20
-7.6785714626
11
-34.1957668518
21
-8.1071426868
0
LINE
5
36C
100
AcDbEntity
8
CURVE
100
AcDbLine
62
9
6
CONTINUOUS
10
-34.1957668518
20
-10.0357142687
11
-34.1957668518
21
-10.3571426868
0
LINE
5
36D
100
AcDbEntity
8
CURVE
100
AcDbLine
62
9
6
CONTINUOUS
10
-34.1957668518
20
-12.3571429253
11
-34.1957668518
21
-12.7857143283
0
LINE
5
36E
100
AcDbEntity
8
CURVE
100
AcDbLine
62
9
6
CONTINUOUS
10
-34.1957668518
20
-15.0000000000
11
-34.1957668518
21
-14.4642857015
0
LINE
5
36F
100
AcDbEntity
8
CURVE
100
AcDbLine
62
9
6
CONTINUOUS
10
-34.1957668518
20
-9.0714286566
11
-34.1957668518
21
-8.9642858505
0
LINE
5
370
100
AcDbEntity
8
CURVE
100
AcDbLine
62
9
6
CONTINUOUS
10
-34.7670213844
20
-8.1071426868
11
-34.6956145734
21
-7.6785714626
0
LINE
5
371
100
AcDbEntity
8
CURVE
100
AcDbLine
62
9
6
CONTINUOUS
10
-39.5512779966
20
-9.7500000000
11
-39.7654984520
21
-10.0357142687
0
LINE
5
372
100
AcDbEntity
8
CURVE
100
AcDbLine
62
9
6
CONTINUOUS
10
-40.0511257406
20
-7.5357141495
11
-39.8369052630
21
-7.3214285374
0
LINE
5
373
100
AcDbEntity
8
CURVE
100
AcDbLine
62
9
6
CONTINUOUS
10
-40.2653461736
20
-6.1428573132
11
-40.4795666066
21
-6.2499997616
0
LINE
5
374
100
AcDbEntity
8
CURVE
100
AcDbLine
62
9
6
CONTINUOUS
10
-39.6226848300
20
-6.8928573132
11
-39.4084643746
21
-6.7857141495
0
LINE
5
375
100
AcDbEntity
8
CURVE
100
AcDbLine
62
9
6
CONTINUOUS
10
-40.6937870396
20
8.3214285746
11
-40.4795666066
21
8.1071428619
0
LINE
5
376
100
AcDbEntity
8
CURVE
100
AcDbLine
62
9
6
CONTINUOUS
10
-40.4795666066
20
9.1785714030
11
-40.6937870396
21
9.3928571045
0
LINE
5
377
100
AcDbEntity
8
CURVE
100
AcDbLine
62
9
6
CONTINUOUS
10
-39.1942439193
20
8.4285714477
11
-39.4084643746
21
8.6428571492
0
LINE
5
378
100
AcDbEntity
8
CURVE
100
AcDbLine
62
9
6
CONTINUOUS
10
-39.6226848300
20
9.8214285970
11
-39.1942439193
21
9.3928571045
0
LINE
5
379
100
AcDbEntity
8
CURVE
100
AcDbLine
62
9
6
CONTINUOUS
10
-40.1582359124
20
10.9642856717
11
-40.0511257406
21
10.7857142091
0
LINE
5
37A
100
AcDbEntity
8
CURVE
100
AcDbLine
62
9
6
CONTINUOUS
10
-34.6956145734
20
-7.6785714626
11
-34.6242077624
21
-7.5714282990
0
LINE
5
37B
100
AcDbEntity
8
CURVE
100
AcDbLine
62
9
6
CONTINUOUS
10
-34.8384281954
20
-8.2142858505
11
-34.7670213844
21
-8.1071426868
0
LINE
5
37C
100
AcDbEntity
8
CURVE
100
AcDbLine
62
9
6
CONTINUOUS
10
-40.4795666066
20
-12.1071428061
11
-40.6937870396
21
-12.3214285970
0
LINE
5
37D
100
AcDbEntity
8
CURVE
100
AcDbLine
62
9
6
CONTINUOUS
10
-35.1597588449
20
-7.5714282990
11
-35.2668691061
21
-7.6785714626
0
LINE
5
37E
100
AcDbEntity
8
CURVE
100
AcDbLine
62
9
6
CONTINUOUS
10
-39.4084643746
20
-12.6428571939
11
-39.1942439193
21
-12.4285714030
0
LINE
5
37F
100
AcDbEntity
8
CURVE
100
AcDbLine
62
9
6
CONTINUOUS
10
-35.4810895391
20
-8.7500002384
11
-35.6953099720
21
-8.9642858505
0
LINE
5
380
100
AcDbEntity
8
0
100
AcDbLine
62
9
6
CONTINUOUS
10
-19.6740528926
20
7.0008510000
11
-19.4740528926
21
7.0008510000
0
LINE
5
381
100
AcDbEntity
8
0
100
AcDbLine
62
9
6
CONTINUOUS
10
-19.6740528926
20
7.4316510000
11
-19.4740528926
21
7.4316510000
0
LINE
5
382
100
AcDbEntity
8
0
100
AcDbLine
62
9
6
CONTINUOUS
10
-19.6740528926
20
7.7937960000
11
-19.4740528926
21
7.7937960000
0
LINE
5
383
100
AcDbEntity
8
CURVE
100
AcDbLine
62
9
6
CONTINUOUS
10
-40.2653461736
20
8.0000000000
11
-39.6226848300
21
8.0000000000
0
LINE
5
384
100
AcDbEntity
8
CURVE
100
AcDbLine
62
9
6
CONTINUOUS
10
-41.6740528926
20
8.0000000000
11
-43.4735043820
21
8.0000000000
0
LINE
5
385
100
AcDbEntity
8
0
100
AcDbLine
62
9
6
CONTINUOUS
10
-19.6740528926
20
8.1670030000
11
-19.4740528926
21
8.1670030000
0
LINE
5
386
100
AcDbEntity
8
CURVE
100
AcDbLine
62
9
6
CONTINUOUS
10
-43.1181456246
20
8.2268895676
11
-41.6740528926
21
8.2268895676
0
LINE
5
387
100
AcDbEntity
8
0
100
AcDbLine
62
9
6
CONTINUOUS
10
-19.6740528926
20
8.5633050000
11
-19.4740528926
21
8.5633050000
0
LINE
5
388
100
AcDbEntity
8
CURVE
100
AcDbLine
62
9
6
CONTINUOUS
10
-40.4795666066
20
8.1071428619
11
-40.2653461736
21
8.0000000000
0
LINE
5
389
100
AcDbEntity
8
CURVE
100
AcDbLine
62
9
6
CONTINUOUS
10
-39.4084643746
20
8.6428571492
11
-39.6226848300
21
8.7500000000
0
LINE
5
38A
100
AcDbEntity
8
CURVE
100
AcDbLine
62
9
6
CONTINUOUS
10
-39.3013541470
20
11.0000000000
11
-39.1942439193
21
10.8928571939
0
LINE
5
38B
100
AcDbEntity
8
CURVE
100
AcDbLine
62
9
6
CONTINUOUS
10
-40.0511257406
20
12.8214284182
11
-39.8369052630
21
12.6071428061
0
LINE
5
38C
100
AcDbEntity
8
CURVE
100
AcDbLine
62
9
6
CONTINUOUS
10
-40.0511257406
20
13.1428571939
11
-40.1582359124
21
13.2857141495
0
LINE
5
38D
100
AcDbEntity
8
CURVE
100
AcDbLine
62
9
6
CONTINUOUS
10
-37.6589973787
20
-14.9285714272
11
-37.5518872069
21
-14.7857142761
0
LINE
5
38E
100
AcDbEntity
8
CURVE
100
AcDbLine
62
9
6
CONTINUOUS
10
-40.0511257406
20
-13.3928571939
11
-39.8369052630
21
-13.1785714030
0
LINE
5
38F
100
AcDbEntity
8
CURVE
100
AcDbLine
62
9
6
CONTINUOUS
10
-40.6937870396
20
-14.4642857015
11
-40.4795666066
21
-14.2500000000
0
LINE
5
390
100
AcDbEntity
8
CURVE
100
AcDbLine
62
9
6
CONTINUOUS
10
-34.1957668518
20
-8.1071426868
11
-34.3028770794
21
-8.2142858505
0
LINE
5
391
100
AcDbEntity
8
CURVE
100
AcDbLine
62
9
6
CONTINUOUS
10
-34.4099873071
20
-9.2857142687
11
-34.1957668518
21
-9.0714286566
0
LINE
5
392
100
AcDbEntity
8
CURVE
100
AcDbLine
62
9
6
CONTINUOUS
10
-35.0526486731
20
-10.0357142687
11
-34.8384281954
21
-9.8214286566
0
LINE
5
393
100
AcDbEntity
8
CURVE
100
AcDbLine
62
9
6
CONTINUOUS
10
-34.1957668518
20
-10.3571426868
11
-34.4099873071
21
-10.5714286566
0
LINE
5
394
100
AcDbEntity
8
CURVE
100
AcDbLine
62
9
6
CONTINUOUS
10
-40.6937870396
20
-13.3928571939
11
-40.4795666066
21
-13.2142857313
0
LINE
5
395
100
AcDbEntity
8
CURVE
100
AcDbLine
62
9
6
CONTINUOUS
10
-35.2668691061
20
-8.6428570747
11
-35.4810895391
21
-8.7500002384
0
LINE
5
396
100
AcDbEntity
8
CURVE
100
AcDbLine
62
9
6
CONTINUOUS
10
-40.2653461736
20
-12.0000000000
11
-40.4795666066
21
-12.1071428061
0
LINE
5
397
100
AcDbEntity
8
CURVE
100
AcDbLine
62
9
6
CONTINUOUS
10
-34.6242077624
20
-9.3928570747
11
-34.4099873071
21
-9.2857142687
0
LINE
5
398
100
AcDbEntity
8
CURVE
100
AcDbLine
62
9
6
CONTINUOUS
10
-39.1942439193
20
-11.1428571939
11
-40.6937870396
21
-11.5714284182
0
LINE
5
399
100
AcDbEntity
8
0
100
AcDbLine
62
9
6
CONTINUOUS
10
-19.6740528926
20
8.7104740000
11
-19.4740528926
21
8.7104740000
0
LINE
5
39A
100
AcDbEntity
8
CURVE
100
AcDbLine
62
9
6
CONTINUOUS
10
-39.6226848300
20
8.7500000000
11
-40.2653461736
21
8.7500000000
0
LINE
5
39B
100
AcDbEntity
8
0
100
AcDbLine
62
9
6
CONTINUOUS
10
-19.6740528926
20
9.1070460000
11
-19.4740528926
21
9.1070460000
0
LINE
5
39C
100
AcDbEntity
8
0
100
AcDbLine
62
9
6
CONTINUOUS
10
-19.6740528926
20
9.1500200000
11
-19.4740528926
21
9.1500200000
0
LINE
5
39D
100
AcDbEntity
8
CURVE
100
AcDbLine
62
9
6
CONTINUOUS
10
-40.0511257406
20
9.1785714030
11
-40.4795666066
21
9.1785714030
0
LINE
5
39E
100
AcDbEntity
8
0
100
AcDbLine
62
9
6
CONTINUOUS
10
-19.6740528926
20
9.1970000000
11
-19.4740528926
21
9.1970000000
0
LINE
5
39F
100
AcDbEntity
8
CURVE
100
AcDbLine
62
9
6
CONTINUOUS
10
-42.0142835826
20
9.2075659919
11
-43.4735043820
21
9.2075659919
0
LINE
5
3A0
100
AcDbEntity
8
0
100
AcDbLine
62
9
6
CONTINUOUS
10
-19.6740528926
20
9.3205340000
11
-19.4740528926
21
9.3205340000
0
LINE
5
3A1
100
AcDbEntity
8
CURVE
100
AcDbLine
62
9
6
CONTINUOUS
10
-43.4735043820
20
9.4344714406
11
-41.6740528926
21
9.4344714406
0
LINE
5
3A2
100
AcDbEntity
8
0
100
AcDbLine
62
9
6
CONTINUOUS
10
-19.6740528926
20
9.4920790000
11
-19.4740528926
21
9.4920790000
0
LINE
5
3A3
100
AcDbEntity
8
0
100
AcDbLine
62
9
6
CONTINUOUS
10
-19.6740528926
20
9.8883230000
11
-19.4740528926
21
9.8883230000
0
LINE
5
3A4
100
AcDbEntity
8
CURVE
100
AcDbLine
62
9
6
CONTINUOUS
10
-40.4795666066
20
9.9285714030
11
-40.0511257406
21
9.9285714030
0
LINE
5
3A5
100
AcDbEntity
8
CURVE
100
AcDbLine
62
9
6
CONTINUOUS
10
-41.6740528926
20
9.9360943119
11
-43.4735043820
21
9.9360943119
0
LINE
5
3A6
100
AcDbEntity
8
CURVE
100
AcDbLine
62
9
6
CONTINUOUS
10
-43.2718860777
20
10.1755882673
11
-42.6997820070
21
10.1755882673
0
LINE
5
3A7
100
AcDbEntity
8
CURVE
100
AcDbLine
62
9
6
CONTINUOUS
10
-42.4981637027
20
10.1755882673
11
-41.8756711969
21
10.1755882673
0
LINE
5
3A8
100
AcDbEntity
8
0
100
AcDbLine
62
9
6
CONTINUOUS
10
-19.6740528926
20
10.2807070000
11
-19.4740528926
21
10.2807070000
0
LINE
5
3A9
100
AcDbEntity
8
CURVE
100
AcDbLine
62
9
6
CONTINUOUS
10
-40.0511257406
20
9.9285714030
11
-39.6226848300
21
9.8214285970
0
LINE
5
3AA
100
AcDbEntity
8
CURVE
100
AcDbLine
62
9
6
CONTINUOUS
10
-41.9134739013
20
12.1696680568
11
-43.4735043820
21
12.6889667159
0
LINE
5
3AB
100
AcDbEntity
8
CURVE
100
AcDbLine
62
9
6
CONTINUOUS
10
-43.4735043820
20
12.9385717089
11
-41.6740528926
21
12.2982126959
0
LINE
5
3AC
100
AcDbEntity
8
CURVE
100
AcDbLine
62
9
6
CONTINUOUS
10
-40.6937870396
20
12.8214284182
11
-40.4795666066
21
12.6785714626
0
LINE
5
3AD
100
AcDbEntity
8
CURVE
100
AcDbLine
62
9
6
CONTINUOUS
10
-39.1942439193
20
13.1428571939
11
-39.4084643746
21
13.3571428061
0
LINE
5
3AE
100
AcDbEntity
8
CURVE
100
AcDbLine
62
9
6
CONTINUOUS
10
-37.3376667292
20
-14.2500000000
11
-37.5518872069
21
-14.4642857015
0
LINE
5
3AF
100
AcDbEntity
8
CURVE
100
AcDbLine
62
9
6
CONTINUOUS
10
-35.0526486731
20
-12.3571429253
11
-34.8384281954
21
-12.1428571343
0
LINE
5
3B0
100
AcDbEntity
8
CURVE
100
AcDbLine
62
9
6
CONTINUOUS
10
-36.9092258409
20
-15.0000000000
11
-36.6950053855
21
-14.7857142761
0
LINE
5
3B1
100
AcDbEntity
8
CURVE
100
AcDbLine
62
9
6
CONTINUOUS
10
-35.4810895391
20
-14.2500000000
11
-35.6953099720
21
-14.4642857015
0
LINE
5
3B2
100
AcDbEntity
8
CURVE
100
AcDbLine
62
9
6
CONTINUOUS
10
-37.9803280728
20
-14.3214285672
11
-38.1945485058
21
-14.4642857015
0
LINE
5
3B3
100
AcDbEntity
8
CURVE
100
AcDbLine
62
9
6
CONTINUOUS
10
-39.6226848300
20
-12.7500000000
11
-39.4084643746
21
-12.6428571939
0
LINE
5
3B4
100
AcDbEntity
8
CURVE
100
AcDbLine
62
9
6
CONTINUOUS
10
-36.6950053855
20
-11.7142857313
11
-38.1945485058
21
-12.1428571343
0
LINE
5
3B5
100
AcDbEntity
8
0
100
AcDbLine
62
9
6
CONTINUOUS
10
-19.6740528926
20
10.6772790000
11
-19.4740528926
21
10.6772790000
0
LINE
5
3B6
100
AcDbEntity
8
CURVE
100
AcDbLine
62
9
6
CONTINUOUS
10
-40.4795666066
20
10.9642856717
11
-40.1582359124
21
10.9642856717
0
LINE
5
3B7
100
AcDbEntity
8
CURVE
100
AcDbLine
62
9
6
CONTINUOUS
10
-39.8369052630
20
11.0000000000
11
-39.3013541470
21
11.0000000000
0
LINE
5
3B8
100
AcDbEntity
8
0
100
AcDbLine
62
9
6
CONTINUOUS
10
-19.6740528926
20
11.0696490000
11
-19.4740528926
21
11.0696490000
0
LINE
5
3B9
100
AcDbEntity
8
CURVE
100
AcDbLine
62
9
6
CONTINUOUS
10
-42.6997820070
20
11.1108836018
11
-42.4981637027
21
11.1108836018
0
LINE
5
3BA
100
AcDbEntity
8
CURVE
100
AcDbLine
62
9
6
CONTINUOUS
10
-43.4735043820
20
11.1789472959
11
-43.2718860777
21
11.1789472959
0
LINE
5
3BB
100
AcDbEntity
8
CURVE
100
AcDbLine
62
9
6
CONTINUOUS
10
-41.8756711969
20
11.1865131048
11
-41.6740528926
21
11.1865131048
0
LINE
5
3BC
100
AcDbEntity
8
0
100
AcDbLine
62
9
6
CONTINUOUS
10
-19.6740528926
20
11.2473060000
11
-19.4740528926
21
11.2473060000
0
LINE
5
3BD
100
AcDbEntity
8
0
100
AcDbLine
62
9
6
CONTINUOUS
10
-19.6740528926
20
11.3095780000
11
-19.4740528926
21
11.3095780000
0
LINE
5
3BE
100
AcDbEntity
8
CURVE
100
AcDbLine
62
9
6
CONTINUOUS
10
-40.6937870396
20
11.4285715818
11
-40.3724563454
21
11.4285715818
0
LINE
5
3BF
100
AcDbEntity
8
0
100
AcDbLine
62
9
6
CONTINUOUS
10
-19.6740528926
20
11.9054910000
11
-19.4740528926
21
11.9054910000
0
LINE
5
3C0
100
AcDbEntity
8
0
100
AcDbLine
62
9
6
CONTINUOUS
10
-19.6740528926
20
12.2891270000
11
-19.4740528926
21
12.2891270000
0
LINE
5
3C1
100
AcDbEntity
8
CURVE
100
AcDbLine
62
9
6
CONTINUOUS
10
-39.8369052630
20
12.6071428061
11
-39.4084643746
21
12.6071428061
0
LINE
5
3C2
100
AcDbEntity
8
CURVE
100
AcDbLine
62
9
6
CONTINUOUS
10
-40.4795666066
20
12.6785714626
11
-40.1582359124
21
12.6785714626
0
LINE
5
3C3
100
AcDbEntity
8
CURVE
100
AcDbLine
62
9
6
CONTINUOUS
10
-39.1942439193
20
11.7500000000
11
-40.6937870396
21
12.1785715818
0
LINE
5
3C4
100
AcDbEntity
8
CURVE
100
AcDbLine
62
9
6
CONTINUOUS
10
-36.6950053855
20
-13.3928571939
11
-38.1945485058
21
-13.8214285970
0
LINE
5
3C5
100
AcDbEntity
8
0
100
AcDbLine
62
9
6
CONTINUOUS
10
-19.6740528926
20
12.8720470000
11
-19.4740528926
21
12.8720470000
0
LINE
5
3C6
100
AcDbEntity
8
0
100
AcDbLine
62
9
6
CONTINUOUS
10
-19.6740528926
20
12.9884997236
11
-19.4740528926
21
12.9884997236
0
LINE
5
3C7
100
AcDbEntity
8
CURVE
100
AcDbLine
62
9
6
CONTINUOUS
10
-41.6740528926
20
13.2435851882
11
-43.4735043820
21
13.2435851882
0
LINE
5
3C8
100
AcDbEntity
8
CURVE
100
AcDbLine
62
9
6
CONTINUOUS
10
-40.1582359124
20
13.2857141495
11
-40.4795666066
21
13.2857141495
0
LINE
5
3C9
100
AcDbEntity
8
CURVE
100
AcDbLine
62
9
6
CONTINUOUS
10
-39.4084643746
20
13.3571428061
11
-39.8369052630
21
13.3571428061
0
LINE
5
3CA
100
AcDbEntity
8
CURVE
100
AcDbLine
62
9
6
CONTINUOUS
10
-43.2718860777
20
13.4830802023
11
-42.6997820070
21
13.4830802023
0
LINE
5
3CB
100
AcDbEntity
8
CURVE
100
AcDbLine
62
9
6
CONTINUOUS
10
-42.4981637027
20
13.4830802023
11
-41.8756711969
21
13.4830802023
0
LINE
5
3CC
100
AcDbEntity
8
0
100
AcDbLine
62
9
6
CONTINUOUS
10
-19.6740528926
20
13.9671795833
11
-19.4740528926
21
13.9671795833
0
LINE
5
3CD
100
AcDbEntity
8
0
100
AcDbLine
62
9
6
CONTINUOUS
10
-19.4740528926
20
14.2770632728
11
-19.6740528926
21
14.2770632728
0
LINE
5
3CE
100
AcDbEntity
8
0
100
AcDbLine
62
9
6
CONTINUOUS
10
-19.6740528926
20
14.3722286712
11
-19.4740528926
21
14.3722286712
0
LINE
5
3CF
100
AcDbEntity
8
CURVE
100
AcDbLine
62
9
6
CONTINUOUS
10
-42.6997820070
20
14.4184083580
11
-42.4981637027
21
14.4184083580
0
LINE
5
3D0
100
AcDbEntity
8
CURVE
100
AcDbLine
62
9
6
CONTINUOUS
10
-43.4735043820
20
14.4864222909
11
-43.2718860777
21
14.4864222909
0
LINE
5
3D1
100
AcDbEntity
8
0
100
AcDbLine
62
9
6
CONTINUOUS
10
-19.6740528926
20
14.4875640000
11
-19.4740528926
21
14.4875640000
0
LINE
5
3D2
100
AcDbEntity
8
CURVE
100
AcDbLine
62
9
6
CONTINUOUS
10
-41.8756711969
20
14.4940378610
11
-41.6740528926
21
14.4940378610
0
LINE
5
3D3
100
AcDbEntity
8
0
100
AcDbLine
62
9
6
CONTINUOUS
10
-19.6740528926
20
14.6512040000
11
-19.4740528926
21
14.6512040000
0
LINE
5
3D4
100
AcDbEntity
8
0
100
AcDbLine
62
9
6
CONTINUOUS
10
-39.6740528926
20
-19.9483339502
11
-43.5663792128
21
-22.1955695989
0
LINE
5
3D5
100
AcDbEntity
8
0
100
AcDbLine
62
9
6
CONTINUOUS
10
-19.6740528926
20
14.9244970000
11
-19.4740528926
21
14.9244970000
0
LINE
5
3D6
100
AcDbEntity
8
0
100
AcDbLine
62
9
6
CONTINUOUS
10
-19.6740528926
20
15.0202141485
11
-20.6566004861
21
15.0202141485
0
LINE
5
3D7
100
AcDbEntity
8
0
100
AcDbLine
62
9
6
CONTINUOUS
10
-19.6740528926
20
15.4311090000
11
-19.4740528926
21
15.4311090000
0
LINE
5
3D8
100
AcDbEntity
8
0
100
AcDbLine
62
9
6
CONTINUOUS
10
-19.6740528926
20
15.9562437428
11
-19.4740528926
21
15.9562437428
0
LINE
5
3D9
100
AcDbEntity
8
0
100
AcDbLine
62
9
6
CONTINUOUS
10
-19.6740528926
20
16.1918670000
11
-19.4740528926
21
16.1918670000
0
LINE
5
3DA
100
AcDbEntity
8
0
100
AcDbLine
62
9
6
CONTINUOUS
10
-19.6740528926
20
16.3729770000
11
-19.4740528926
21
16.3729770000
0
LINE
5
3DB
100
AcDbEntity
8
0
100
AcDbLine
62
9
6
CONTINUOUS
10
-48.1740528926
20
16.4544358981
11
-49.6740528926
21
16.4633443083
0
LINE
5
3DC
100
AcDbEntity
8
0
100
AcDbLine
62
9
6
CONTINUOUS
10
-48.1740528926
20
15.5005330670
11
-20.6566004861
21
15.0202141485
0
LINE
5
3DD
100
AcDbEntity
8
0
100
AcDbLine
62
9
6
CONTINUOUS
10
-39.6740528926
20
19.9483339502
11
-43.5663792128
21
22.1955695989
0
LINE
5
3DE
100
AcDbEntity
8
0
100
AcDbLine
62
9
6
CONTINUOUS
10
-20.6566004861
20
15.0202141485
11
-20.6566004861
21
-15.0202141485
0
LINE
5
3DF
100
AcDbEntity
8
0
100
AcDbLine
62
9
6
CONTINUOUS
10
-48.1740528926
20
17.0643546451
11
-49.6740528926
21
17.0730014938
0
LINE
5
3E0
100
AcDbEntity
8
0
100
AcDbLine
62
9
6
CONTINUOUS
10
-48.1740528926
20
19.0000000000
11
-20.6566004861
21
18.5196810816
0
LINE
5
3E1
100
AcDbEntity
8
0
100
AcDbLine
62
9
6
CONTINUOUS
10
-48.1740528926
20
18.2298208395
11
-49.6740528926
21
18.3006924196
0
LINE
5
3E2
100
AcDbEntity
8
0
100
AcDbLine
62
9
6
CONTINUOUS
10
-19.6740528926
20
17.5198333864
11
-19.6740528926
21
-17.5198333864
0
LINE
5
3E3
100
AcDbEntity
8
0
100
AcDbLine
62
9
6
CONTINUOUS
10
-19.6240528926
20
3.4770677301
11
-19.6240528926
21
3.4999971238
0
LINE
5
3E4
100
AcDbEntity
8
0
100
AcDbLine
62
9
6
CONTINUOUS
10
-19.4792889703
20
11.3095780000
11
-19.4792889508
21
11.2473060000
0
LINE
5
3E5
100
AcDbEntity
8
0
100
AcDbLine
62
9
6
CONTINUOUS
10
-19.4792917192
20
14.9244970000
11
-19.4792921086
21
14.6512040000
0
LINE
5
3E6
100
AcDbEntity
8
0
100
AcDbLine
62
9
6
CONTINUOUS
10
-19.4792886145
20
-9.6966003769
11
-19.4792886145
21
-15.7033996231
0
LINE
5
3E7
100
AcDbEntity
8
0
100
AcDbLine
62
9
6
CONTINUOUS
10
-19.4740528926
20
16.3729770000
11
-19.4740528926
21
16.1918670000
0
LINE
5
3E8
100
AcDbEntity
8
0
100
AcDbLine
62
9
6
CONTINUOUS
10
-19.4740528926
20
15.9562437428
11
-19.4740528926
21
14.9244970000
0
LINE
5
3E9
100
AcDbEntity
8
0
100
AcDbLine
62
9
6
CONTINUOUS
10
-19.4740528926
20
14.6512040000
11
-19.4740528926
21
11.3095780000
0
LINE
5
3EA
100
AcDbEntity
8
0
100
AcDbLine
62
9
6
CONTINUOUS
10
-19.4740528926
20
11.2473060000
11
-19.4740528926
21
9.1970000000
0
LINE
5
3EB
100
AcDbEntity
8
0
100
AcDbLine
62
9
6
CONTINUOUS
10
-19.4740528926
20
9.1070460000
11
-19.4740528926
21
8.7104740000
0
LINE
5
3EC
100
AcDbEntity
8
0
100
AcDbLine
62
9
6
CONTINUOUS
10
-19.4740528926
20
8.6973940000
11
-19.4740528926
21
7.0008510000
0
LINE
5
3ED
100
AcDbEntity
8
0
100
AcDbLine
62
9
6
CONTINUOUS
10
-19.4740528926
20
2.8000000000
11
-19.4740528926
21
0.6000000000
0
LINE
5
3EE
100
AcDbEntity
8
0
100
AcDbLine
62
9
6
CONTINUOUS
10
-19.4740528926
20
0.0000000000
11
-19.4740528926
21
-5.4453920485
0
LINE
5
3EF
100
AcDbEntity
8
0
100
AcDbLine
62
9
6
CONTINUOUS
10
-19.4740528926
20
-5.4497474683
11
-19.4740528926
21
-7.8646138101
0
LINE
5
3F0
100
AcDbEntity
8
0
100
AcDbLine
62
9
6
CONTINUOUS
10
-19.4240528926
20
3.4770677301
11
-19.4240528926
21
-3.4770677301
0
LINE
5
3F1
100
AcDbEntity
8
0
100
AcDbLine
62
9
6
CONTINUOUS
10
-19.1740528926
20
15.4034453146
11
-19.1740528926
21
9.9965546854
0
LINE
5
3F2
100
AcDbEntity
8
0
100
AcDbLine
62
9
6
CONTINUOUS
10
-19.1740528926
20
-9.9965546854
11
-19.1740528926
21
-15.4034453146
0
LINE
5
3F3
100
AcDbEntity
8
0
100
AcDbLine
62
9
6
CONTINUOUS
10
-49.6740528926
20
18.9869096983
11
-40.3053840600
21
19.0686688326
0
LINE
5
3F4
100
AcDbEntity
8
0
100
AcDbLine
62
9
6
CONTINUOUS
10
-49.6740528926
20
20.9000000000
11
-41.3773105370
21
20.9317102097
0
LINE
5
3F5
100
AcDbEntity
8
0
100
AcDbLine
62
9
6
CONTINUOUS
10
-58.7320655260
20
21.0183132877
11
-58.2412561946
21
20.9972959167
0
LINE
5
3F6
100
AcDbEntity
8
0
100
AcDbLine
62
9
6
CONTINUOUS
10
-57.7678661376
20
21.4755923698
11
-49.6740528926
21
21.8997711479
0
LINE
5
3F7
100
AcDbEntity
8
0
100
AcDbLine
62
9
6
CONTINUOUS
10
-57.7853079125
20
21.9749071372
11
-49.6740528926
21
22.4000000000
0
LINE
5
3F8
100
AcDbEntity
8
0
100
AcDbLine
62
9
6
CONTINUOUS
10
-45.6740528926
20
21.2139629885
11
-41.8077459987
21
21.1802222394
0
LINE
5
3F9
100
AcDbEntity
8
0
100
AcDbLine
62
9
6
CONTINUOUS
10
-43.5663792128
20
22.1955695989
11
-44.0740528926
21
22.2000000000
0
LINE
5
3FA
100
AcDbEntity
8
0
100
AcDbLine
62
9
6
CONTINUOUS
10
-49.6740528926
20
23.5000000000
11
-45.6740528926
21
23.4650925288
0
ARC
5
3FB
100
AcDbEntity
8
0
100
AcDbCircle
62
9
6
CONTINUOUS
10
11.2500000000
20
0.0000000000
40
28.0000000000
100
AcDbArc
50
233.1301023542
51
234.0372348486
0
ARC
5
3FC
100
AcDbEntity
8
0
100
AcDbCircle
62
9
6
CONTINUOUS
10
11.2500000000
20
0.0000000000
40
28.0000000000
100
AcDbArc
50
235.8789063483
51
237.0647695028
0
ARC
5
3FD
100
AcDbEntity
8
0
100
AcDbCircle
62
9
6
CONTINUOUS
10
11.2500000000
20
0.0000000000
40
28.0000000000
100
AcDbArc
50
122.9352304972
51
124.1210936517
0
ARC
5
3FE
100
AcDbEntity
8
0
100
AcDbCircle
62
9
6
CONTINUOUS
10
11.2500000000
20
0.0000000000
40
28.0000000000
100
AcDbArc
50
125.9627651514
51
126.8698976458
0
ARC
5
3FF
100
AcDbEntity
8
0
100
AcDbCircle
62
9
6
CONTINUOUS
10
-11.2500000000
20
0.0000000000
40
28.0000000000
100
AcDbArc
50
302.9352304972
51
304.1210936517
0
ARC
5
400
100
AcDbEntity
8
0
100
AcDbCircle
62
9
6
CONTINUOUS
10
-11.2500000000
20
0.0000000000
40
28.0000000000
100
AcDbArc
50
305.9627651514
51
306.8698976458
0
ARC
5
401
100
AcDbEntity
8
0
100
AcDbCircle
62
9
6
CONTINUOUS
10
-11.2500000000
20
0.0000000000
40
28.0000000000
100
AcDbArc
50
53.1301023542
51
54.0372348486
0
ARC
5
402
100
AcDbEntity
8
0
100
AcDbCircle
62
9
6
CONTINUOUS
10
-11.2500000000
20
0.0000000000
40
28.0000000000
100
AcDbArc
50
55.8789063483
51
57.0647695028
0
ARC
5
403
100
AcDbEntity
8
0
100
AcDbCircle
62
9
6
CONTINUOUS
10
-4.9500000000
20
-23.1000000000
40
0.5000000000
100
AcDbArc
50
350.8037184210
51
119.1124227760
0
ARC
5
404
100
AcDbEntity
8
0
100
AcDbCircle
62
9
6
CONTINUOUS
10
-4.9500000000
20
23.1000000000
40
0.5000000000
100
AcDbArc
50
240.8875772240
51
9.1962815790
0
ARC
5
405
100
AcDbEntity
8
0
100
AcDbCircle
62
9
6
CONTINUOUS
10
4.9500000000
20
-23.1000000000
40
0.5000000000
100
AcDbArc
50
60.8875772240
51
189.1962815790
0
ARC
5
406
100
AcDbEntity
8
0
100
AcDbCircle
62
9
6
CONTINUOUS
10
4.9500000000
20
23.1000000000
40
0.5000000000
100
AcDbArc
50
170.8037184210
51
299.1124227760
0
ARC
5
407
100
AcDbEntity
8
0
100
AcDbCircle
62
9
6
CONTINUOUS
10
-25.0490528926
20
0.0000000000
40
6.6129135031
100
AcDbArc
50
328.2779078187
51
31.7220921813
0
ARC
5
408
100
AcDbEntity
8
0
100
AcDbCircle
62
9
6
CONTINUOUS
10
-57.7329719562
20
-20.9762776025
40
1.0000000000
100
AcDbArc
50
182.4092313014
51
267.0000000000
0
ARC
5
409
100
AcDbEntity
8
0
100
AcDbCircle
62
9
6
CONTINUOUS
10
-57.7329719562
20
20.9762776025
40
1.0000000000
100
AcDbArc
50
93.0000000000
51
177.5907686986
0
ARC
5
40A
100
AcDbEntity
8
0
100
AcDbCircle
62
9
6
CONTINUOUS
10
440.8259471074
20
0.0000000000
40
500.0000000000
100
AcDbArc
50
177.5907686986
51
182.4092313014
0
ARC
5
40B
100
AcDbEntity
8
0
100
AcDbCircle
62
9
6
CONTINUOUS
10
-19.4740528926
20
-15.4034453146
40
0.3000000000
100
AcDbArc
50
269.0000000000
51
360.0000000000
0
ARC
5
40C
100
AcDbEntity
8
0
100
AcDbCircle
62
9
6
CONTINUOUS
10
-19.4740528926
20
-9.9965546854
40
0.3000000000
100
AcDbArc
50
0.0000000356
51
91.0000014323
0
ARC
5
40D
100
AcDbEntity
8
0
100
AcDbCircle
62
9
6
CONTINUOUS
10
-19.4740528926
20
9.9965546854
40
0.3000000000
100
AcDbArc
50
268.9999999999
51
360.0000000000
0
ARC
5
40E
100
AcDbEntity
8
0
100
AcDbCircle
62
9
6
CONTINUOUS
10
-19.4740528926
20
15.4034453146
40
0.3000000000
100
AcDbArc
50
0.0000000356
51
91.0000014323
0
ARC
5
40F
100
AcDbEntity
8
0
100
AcDbCircle
62
9
6
CONTINUOUS
10
-20.6740528926
20
-17.5198333864
40
1.0000000000
100
AcDbArc
50
271.0000000000
51
360.0000000000
0
ARC
5
410
100
AcDbEntity
8
0
100
AcDbCircle
62
9
6
CONTINUOUS
10
-20.6740528926
20
17.5196570304
40
1.0000000000
100
AcDbArc
50
0.0101044560
51
89.0001762550
0
SPLINE
5
411
100
AcDbEntity
8
0
100
AcDbSpline
62
9
6
CONTINUOUS
70
0
71
3
72
15
73
11
74
9
42
0.0000001000
43
0.0000001000
44
0.0000000001
12
0.0000000000
22
-0.7840504605
32
0.0000000000
13
-0.7840504605
23
-0.0000000000
33
0.0000000000
40
0.0000000000
40
0.0000000000
40
0.0000000000
40
0.0000000000
40
0.1250035856
40
0.2500003382
40
0.3749971738
40
0.4999931596
40
0.6249941993
40
0.7499962985
40
0.8749988330
40
1.0000000000
40
1.0000000000
40
1.0000000000
40
1.0000000000
10
11.1500000000
20
-21.8997711479
30
0.0000000000
10
11.1500000000
20
-21.9324408542
30
0.0000000000
10
11.1435720625
20
-21.9979588343
30
0.0000000000
10
11.1150028885
20
-22.0923353736
30
0.0000000000
10
11.0685863853
20
-22.1793736183
30
0.0000000000
10
11.0060858443
20
-22.2556795571
30
0.0000000000
10
10.9298940235
20
-22.3183228818
30
0.0000000000
10
10.8429223671
20
-22.3648787971
30
0.0000000000
10
10.7485697898
20
-22.3935479377
30
0.0000000000
10
10.6830496739
20
-22.4000000000
30
0.0000000000
10
10.6503805997
20
-22.4000000000
30
0.0000000000
11
11.1500000000
21
-21.8997711479
31
0.0000000000
11
11.1404171274
21
-21.9973106575
31
0.0000000000
11
11.1120282390
21
-22.0911126206
31
0.0000000000
11
11.0659057104
21
-22.1775849419
31
0.0000000000
11
11.0038050670
21
-22.2534013617
31
0.0000000000
11
10.9280978412
21
-22.3156413172
31
0.0000000000
11
10.8416923200
21
-22.3618976126
31
0.0000000000
11
10.7479148288
21
-22.3903828363
31
0.0000000000
11
10.6503805997
21
-22.4000000000
31
0.0000000000
0
SPLINE
5
412
100
AcDbEntity
8
0
100
AcDbSpline
62
9
6
CONTINUOUS
70
0
71
3
72
15
73
11
74
9
42
0.0000001000
43
0.0000001000
44
0.0000000001
12
0.7840504604
22
0.0000000000
32
0.0000000000
13
0.0000000000
23
-0.7840504604
33
0.0000000000
40
0.0000000000
40
0.0000000000
40
0.0000000000
40
0.0000000000
40
0.1250026133
40
0.2500082844
40
0.3750136098
40
0.5000160060
40
0.6250106349
40
0.7500042447
40
0.8749978606
40
1.0000000000
40
1.0000000000
40
1.0000000000
40
1.0000000000
10
10.6503805997
20
22.4000000000
30
0.0000000000
10
10.6830500519
20
22.4000000000
30
0.0000000000
10
10.7485713718
20
22.3935477443
30
0.0000000000
10
10.8429258085
20
22.3648775487
30
0.0000000000
10
10.9298988298
20
22.3183198083
30
0.0000000000
10
11.0060904776
20
22.2556749149
30
0.0000000000
10
11.0685894502
20
22.1793688070
30
0.0000000000
10
11.1150041327
20
22.0923319310
30
0.0000000000
10
11.1435722551
20
21.9979572524
30
0.0000000000
10
11.1500000000
20
21.9324404763
30
0.0000000000
10
11.1500000000
20
21.8997711479
30
0.0000000000
11
10.6503805997
21
22.4000000000
31
0.0000000000
11
10.7479159463
21
22.3903826137
31
0.0000000000
11
10.8416956551
21
22.3618962291
31
0.0000000000
11
10.9281029540
21
22.3156378952
31
0.0000000000
11
11.0038101683
21
22.2533962508
31
0.0000000000
11
11.0659091235
21
22.1775798235
31
0.0000000000
11
11.1120296181
21
22.0911092838
31
0.0000000000
11
11.1404173492
21
21.9973095399
31
0.0000000000
11
11.1500000000
21
21.8997711479
31
0.0000000000
0
SPLINE
5
413
100
AcDbEntity
8
0
100
AcDbSpline
62
9
6
CONTINUOUS
70
0
71
3
72
15
73
11
74
9
42
0.0000001000
43
0.0000001000
44
0.0000000001
12
-0.7840504604
22
0.0000000000
32
0.0000000000
13
-0.0000000000
23
0.7840504604
33
0.0000000000
40
0.0000000000
40
0.0000000000
40
0.0000000000
40
0.0000000000
40
0.1250026133
40
0.2500082844
40
0.3750136098
40
0.5000160060
40
0.6250106349
40
0.7500042447
40
0.8749978606
40
1.0000000000
40
1.0000000000
40
1.0000000000
40
1.0000000000
10
-10.6503805997
20
-22.4000000000
30
0.0000000000
10
-10.6830500519
20
-22.4000000000
30
0.0000000000
10
-10.7485713718
20
-22.3935477443
30
0.0000000000
10
-10.8429258085
20
-22.3648775487
30
0.0000000000
10
-10.9298988298
20
-22.3183198083
30
0.0000000000
10
-11.0060904776
20
-22.2556749149
30
0.0000000000
10
-11.0685894502
20
-22.1793688070
30
0.0000000000
10
-11.1150041327
20
-22.0923319310
30
0.0000000000
10
-11.1435722551
20
-21.9979572524
30
0.0000000000
10
-11.1500000000
20
-21.9324404763
30
0.0000000000
10
-11.1500000000
20
-21.8997711479
30
0.0000000000
11
-10.6503805997
21
-22.4000000000
31
0.0000000000
11
-10.7479159463
21
-22.3903826137
31
0.0000000000
11
-10.8416956551
21
-22.3618962291
31
0.0000000000
11
-10.9281029540
21
-22.3156378952
31
0.0000000000
11
-11.0038101683
21
-22.2533962508
31
0.0000000000
11
-11.0659091235
21
-22.1775798235
31
0.0000000000
11
-11.1120296181
21
-22.0911092838
31
0.0000000000
11
-11.1404173492
21
-21.9973095399
31
0.0000000000
11
-11.1500000000
21
-21.8997711479
31
0.0000000000
0
SPLINE
5
414
100
AcDbEntity
8
0
100
AcDbSpline
62
9
6
CONTINUOUS
70
0
71
3
72
15
73
11
74
9
42
0.0000001000
43
0.0000001000
44
0.0000000001
12
0.0000000000
22
0.7840504605
32
0.0000000000
13
0.7840504605
23
0.0000000000
33
0.0000000000
40
0.0000000000
40
0.0000000000
40
0.0000000000
40
0.0000000000
40
0.1250035856
40
0.2500003382
40
0.3749971738
40
0.4999931596
40
0.6249941993
40
0.7499962985
40
0.8749988330
40
1.0000000000
40
1.0000000000
40
1.0000000000
40
1.0000000000
10
-11.1500000000
20
21.8997711479
30
0.0000000000
10
-11.1500000000
20
21.9324408542
30
0.0000000000
10
-11.1435720625
20
21.9979588343
30
0.0000000000
10
-11.1150028885
20
22.0923353736
30
0.0000000000
10
-11.0685863853
20
22.1793736183
30
0.0000000000
10
-11.0060858443
20
22.2556795571
30
0.0000000000
10
-10.9298940235
20
22.3183228818
30
0.0000000000
10
-10.8429223671
20
22.3648787971
30
0.0000000000
10
-10.7485697898
20
22.3935479377
30
0.0000000000
10
-10.6830496739
20
22.4000000000
30
0.0000000000
10
-10.6503805997
20
22.4000000000
30
0.0000000000
11
-11.1500000000
21
21.8997711479
31
0.0000000000
11
-11.1404171274
21
21.9973106575
31
0.0000000000
11
-11.1120282390
21
22.0911126206
31
0.0000000000
11
-11.0659057104
21
22.1775849419
31
0.0000000000
11
-11.0038050670
21
22.2534013617
31
0.0000000000
11
-10.9280978412
21
22.3156413172
31
0.0000000000
11
-10.8416923200
21
22.3618976126
31
0.0000000000
11
-10.7479148288
21
22.3903828363
31
0.0000000000
11
-10.6503805997
21
22.4000000000
31
0.0000000000
0
SPLINE
5
415
100
AcDbEntity
8
0
100
AcDbSpline
62
9
6
CONTINUOUS
70
0
71
3
72
11
73
7
74
5
42
0.0000001000
43
0.0000001000
44
0.0000000001
12
7.4708066634
22
0.4941051756
32
0.0000000000
13
7.4708066634
23
-0.4941051756
33
0.0000000000
40
0.0000000000
40
0.0000000000
40
0.0000000000
40
0.0000000000
40
0.2372062484
40
0.4983518979
40
0.7603218377
40
1.0000000000
40
1.0000000000
40
1.0000000000
40
1.0000000000
10
-3.7412724675
20
-7.5073495500
30
0.0000000000
10
-3.1505651271
20
-7.4682812717
30
0.0000000000
10
-1.9078845767
20
-7.4104315169
30
0.0000000000
10
-0.0102855263
20
-7.3813943510
30
0.0000000000
10
1.8934926062
20
-7.4098836584
30
0.0000000000
10
3.1444093968
20
-7.4678741432
30
0.0000000000
10
3.7412724675
20
-7.5073495500
30
0.0000000000
11
-3.7412724675
21
-7.5073495500
31
0.0000000000
11
-1.9673306098
21
-7.4220048553
31
0.0000000000
11
-0.0123411159
21
-7.3912736640
31
0.0000000000
11
1.9488297611
21
-7.4214214376
31
0.0000000000
11
3.7412724675
21
-7.5073495500
31
0.0000000000
0
SPLINE
5
416
100
AcDbEntity
8
0
100
AcDbSpline
62
9
6
CONTINUOUS
70
0
71
3
72
11
73
7
74
5
42
0.0000001000
43
0.0000001000
44
0.0000000001
12
7.4707948398
22
0.4943172212
32
0.0000000000
13
7.4707948398
23
-0.4943172212
33
0.0000000000
40
0.0000000000
40
0.0000000000
40
0.0000000000
40
0.0000000000
40
0.2372067797
40
0.4983535218
40
0.7603237404
40
1.0000000000
40
1.0000000000
40
1.0000000000
40
1.0000000000
10
-3.7412724675
20
-3.3073665465
30
0.0000000000
10
-3.1505647390
20
-3.2682814145
30
0.0000000000
10
-1.9078799974
20
-3.2104136668
30
0.0000000000
10
-0.0102753955
20
-3.1814034949
30
0.0000000000
10
1.8935021832
20
-3.2098664378
30
0.0000000000
10
3.1444150798
20
-3.2678745123
30
0.0000000000
10
3.7412724675
20
-3.3073665465
30
0.0000000000
11
-3.7412724675
21
-3.3073665465
31
0.0000000000
11
-1.9673273499
21
-3.2219959894
31
0.0000000000
11
-0.0123289605
21
-3.1912736606
31
0.0000000000
11
1.9488447077
21
-3.2214131590
31
0.0000000000
11
3.7412724675
21
-3.3073665465
31
0.0000000000
0
SPLINE
5
417
100
AcDbEntity
8
0
100
AcDbSpline
62
9
6
CONTINUOUS
70
0
71
3
72
11
73
7
74
5
42
0.0000001000
43
0.0000001000
44
0.0000000001
12
-7.4707947289
22
-0.4943189432
32
0.0000000000
13
-7.4707947289
23
0.4943189432
33
0.0000000000
40
0.0000000000
40
0.0000000000
40
0.0000000000
40
0.0000000000
40
0.2372067949
40
0.4983534980
40
0.7603236894
40
1.0000000000
40
1.0000000000
40
1.0000000000
40
1.0000000000
10
3.7412724675
20
-5.0926333415
30
0.0000000000
10
3.1505647099
20
-5.1317186122
30
0.0000000000
10
1.9078800126
20
-5.1895860816
30
0.0000000000
10
0.0102755441
20
-5.2185966343
30
0.0000000000
10
-1.8935019906
20
-5.1901333147
30
0.0000000000
10
-3.1444149616
20
-5.1321255217
30
0.0000000000
10
-3.7412724675
20
-5.0926333415
30
0.0000000000
11
3.7412724675
21
-5.0926333415
31
0.0000000000
11
1.9673272348
21
-5.1780038963
31
0.0000000000
11
0.0123291383
21
-5.2087263393
31
0.0000000000
11
-1.9488443249
21
-5.1785867333
31
0.0000000000
11
-3.7412724675
21
-5.0926333415
31
0.0000000000
0
SPLINE
5
418
100
AcDbEntity
8
0
100
AcDbSpline
62
9
6
CONTINUOUS
70
0
71
3
72
11
73
7
74
5
42
0.0000001000
43
0.0000001000
44
0.0000000001
12
7.4707949912
22
0.4943148709
32
0.0000000000
13
7.4707949912
23
-0.4943148709
33
0.0000000000
40
0.0000000000
40
0.0000000000
40
0.0000000000
40
0.0000000000
40
0.2372067589
40
0.4983535542
40
0.7603238100
40
1.0000000000
40
1.0000000000
40
1.0000000000
40
1.0000000000
10
-3.7412724675
20
0.8926336063
30
0.0000000000
10
-3.1505647789
20
0.9317185491
30
0.0000000000
10
-1.9078799767
20
0.9895866766
30
0.0000000000
10
-0.0102751927
20
1.0185963287
30
0.0000000000
10
1.8935024461
20
0.9901339001
30
0.0000000000
10
3.1444152410
20
0.9321254412
30
0.0000000000
10
3.7412724675
20
0.8926336063
30
0.0000000000
11
-3.7412724675
21
0.8926336063
31
0.0000000000
11
-1.9673275069
21
0.9780041667
31
0.0000000000
11
-0.0123287179
21
1.0087263395
31
0.0000000000
11
1.9488452302
21
0.9785869880
31
0.0000000000
11
3.7412724675
21
0.8926336063
31
0.0000000000
0
SPLINE
5
419
100
AcDbEntity
8
0
100
AcDbSpline
62
9
6
CONTINUOUS
70
0
71
3
72
11
73
7
74
5
42
0.0000001000
43
0.0000001000
44
0.0000000001
12
-7.4707949912
22
-0.4943148709
32
0.0000000000
13
-7.4707949912
23
0.4943148709
33
0.0000000000
40
0.0000000000
40
0.0000000000
40
0.0000000000
40
0.0000000000
40
0.2372067589
40
0.4983535542
40
0.7603238100
40
1.0000000000
40
1.0000000000
40
1.0000000000
40
1.0000000000
10
3.7412724675
20
-0.8926336063
30
0.0000000000
10
3.1505647789
20
-0.9317185491
30
0.0000000000
10
1.9078799767
20
-0.9895866766
30
0.0000000000
10
0.0102751927
20
-1.0185963287
30
0.0000000000
10
-1.8935024461
20
-0.9901339001
30
0.0000000000
10
-3.1444152410
20
-0.9321254412
30
0.0000000000
10
-3.7412724675
20
-0.8926336063
30
0.0000000000
11
3.7412724675
21
-0.8926336063
31
0.0000000000
11
1.9673275069
21
-0.9780041667
31
0.0000000000
11
0.0123287179
21
-1.0087263395
31
0.0000000000
11
-1.9488452302
21
-0.9785869880
31
0.0000000000
11
-3.7412724675
21
-0.8926336063
31
0.0000000000
0
SPLINE
5
41A
100
AcDbEntity
8
0
100
AcDbSpline
62
9
6
CONTINUOUS
70
0
71
3
72
11
73
7
74
5
42
0.0000001000
43
0.0000001000
44
0.0000000001
12
7.4707947289
22
0.4943189432
32
0.0000000000
13
7.4707947289
23
-0.4943189432
33
0.0000000000
40
0.0000000000
40
0.0000000000
40
0.0000000000
40
0.0000000000
40
0.2372067949
40
0.4983534980
40
0.7603236894
40
1.0000000000
40
1.0000000000
40
1.0000000000
40
1.0000000000
10
-3.7412724675
20
5.0926333415
30
0.0000000000
10
-3.1505647099
20
5.1317186122
30
0.0000000000
10
-1.9078800126
20
5.1895860816
30
0.0000000000
10
-0.0102755441
20
5.2185966343
30
0.0000000000
10
1.8935019906
20
5.1901333147
30
0.0000000000
10
3.1444149616
20
5.1321255217
30
0.0000000000
10
3.7412724675
20
5.0926333415
30
0.0000000000
11
-3.7412724675
21
5.0926333415
31
0.0000000000
11
-1.9673272348
21
5.1780038963
31
0.0000000000
11
-0.0123291383
21
5.2087263393
31
0.0000000000
11
1.9488443249
21
5.1785867333
31
0.0000000000
11
3.7412724675
21
5.0926333415
31
0.0000000000
0
SPLINE
5
41B
100
AcDbEntity
8
0
100
AcDbSpline
62
9
6
CONTINUOUS
70
0
71
3
72
11
73
7
74
5
42
0.0000001000
43
0.0000001000
44
0.0000000001
12
-7.4707948398
22
-0.4943172212
32
0.0000000000
13
-7.4707948398
23
0.4943172212
33
0.0000000000
40
0.0000000000
40
0.0000000000
40
0.0000000000
40
0.0000000000
40
0.2372067797
40
0.4983535218
40
0.7603237404
40
1.0000000000
40
1.0000000000
40
1.0000000000
40
1.0000000000
10
3.7412724675
20
3.3073665465
30
0.0000000000
10
3.1505647390
20
3.2682814145
30
0.0000000000
10
1.9078799974
20
3.2104136668
30
0.0000000000
10
0.0102753955
20
3.1814034949
30
0.0000000000
10
-1.8935021832
20
3.2098664378
30
0.0000000000
10
-3.1444150798
20
3.2678745123
30
0.0000000000
10
-3.7412724675
20
3.3073665465
30
0.0000000000
11
3.7412724675
21
3.3073665465
31
0.0000000000
11
1.9673273499
21
3.2219959894
31
0.0000000000
11
0.0123289605
21
3.1912736606
31
0.0000000000
11
-1.9488447077
21
3.2214131590
31
0.0000000000
11
-3.7412724675
21
3.3073665465
31
0.0000000000
0
SPLINE
5
41C
100
AcDbEntity
8
0
100
AcDbSpline
62
9
6
CONTINUOUS
70
0
71
3
72
11
73
7
74
5
42
0.0000001000
43
0.0000001000
44
0.0000000001
12
-7.4708066634
22
-0.4941051756
32
0.0000000000
13
-7.4708066634
23
0.4941051756
33
0.0000000000
40
0.0000000000
40
0.0000000000
40
0.0000000000
40
0.0000000000
40
0.2372062484
40
0.4983518979
40
0.7603218377
40
1.0000000000
40
1.0000000000
40
1.0000000000
40
1.0000000000
10
3.7412724675
20
7.5073495500
30
0.0000000000
10
3.1505651271
20
7.4682812717
30
0.0000000000
10
1.9078845767
20
7.4104315169
30
0.0000000000
10
0.0102855263
20
7.3813943510
30
0.0000000000
10
-1.8934926062
20
7.4098836584
30
0.0000000000
10
-3.1444093968
20
7.4678741432
30
0.0000000000
10
-3.7412724675
20
7.5073495500
30
0.0000000000
11
3.7412724675
21
7.5073495500
31
0.0000000000
11
1.9673306098
21
7.4220048553
31
0.0000000000
11
0.0123411159
21
7.3912736640
31
0.0000000000
11
-1.9488297611
21
7.4214214376
31
0.0000000000
11
-3.7412724675
21
7.5073495500
31
0.0000000000
0
SPLINE
5
41D
100
AcDbEntity
8
0
100
AcDbSpline
62
9
6
CONTINUOUS
70
0
71
3
72
8
73
4
74
2
42
0.0000001000
43
0.0000001000
44
0.0000000001
12
-0.0092521256
22
0.0006137188
32
0.0000000000
13
-0.0092586494
23
0.0006121719
33
0.0000000000
40
0.0000000000
40
0.0000000000
40
0.0000000000
40
0.0000000000
40
1.0000000000
40
1.0000000000
40
1.0000000000
40
1.0000000000
10
3.7500000000
20
-7.5166691234
30
0.0000000000
10
3.7469159581
20
-7.5164645505
30
0.0000000000
10
3.7438308275
20
-7.5162602354
30
0.0000000000
10
3.7407446111
20
-7.5160561781
30
0.0000000000
11
3.7500000000
21
-7.5166691234
31
0.0000000000
11
3.7407446111
21
-7.5160561781
31
0.0000000000
0
SPLINE
5
41E
100
AcDbEntity
8
0
100
AcDbSpline
62
9
6
CONTINUOUS
70
0
71
3
72
9
73
5
74
3
42
0.0000001000
43
0.0000001000
44
0.0000000001
12
-6.8816295810
22
0.4550059236
32
0.0000000000
13
-6.8816285194
23
-0.4550061757
33
0.0000000000
40
0.0000000000
40
0.0000000000
40
0.0000000000
40
0.0000000000
40
0.4999998525
40
1.0000000000
40
1.0000000000
40
1.0000000000
40
1.0000000000
10
3.7407446111
20
-7.5160561781
30
0.0000000000
10
2.5938066859
20
-7.4402218798
30
0.0000000000
10
-0.0000007650
20
-7.3597780965
30
0.0000000000
10
-2.5938082160
20
-7.4402219273
30
0.0000000000
10
-3.7407466408
20
-7.5160563123
30
0.0000000000
11
3.7407446111
21
-7.5160561781
31
0.0000000000
11
-0.0000000000
21
-7.4000000000
31
0.0000000000
11
-3.7407466408
21
-7.5160563123
31
0.0000000000
0
SPLINE
5
41F
100
AcDbEntity
8
0
100
AcDbSpline
62
9
6
CONTINUOUS
70
0
71
3
72
8
73
4
74
2
42
0.0000001000
43
0.0000001000
44
0.0000000001
12
-0.0092566182
22
-0.0006120380
32
0.0000000000
13
-0.0092500973
23
-0.0006135842
33
0.0000000000
40
0.0000000000
40
0.0000000000
40
0.0000000000
40
0.0000000000
40
1.0000000000
40
1.0000000000
40
1.0000000000
40
1.0000000000
10
-3.7407466408
20
-7.5160563123
30
0.0000000000
10
-3.7438321802
20
-7.5162603249
30
0.0000000000
10
-3.7469166342
20
-7.5164645954
30
0.0000000000
10
-3.7500000000
20
-7.5166691234
30
0.0000000000
11
-3.7407466408
21
-7.5160563123
31
0.0000000000
11
-3.7500000000
21
-7.5166691234
31
0.0000000000
0
SPLINE
5
420
100
AcDbEntity
8
0
100
AcDbSpline
62
9
6
CONTINUOUS
70
0
71
3
72
8
73
4
74
2
42
0.0000001000
43
0.0000001000
44
0.0000000001
12
-0.0092510995
22
0.0006136507
32
0.0000000000
13
-0.0092576218
23
0.0006121042
33
0.0000000000
40
0.0000000000
40
0.0000000000
40
0.0000000000
40
0.0000000000
40
1.0000000000
40
1.0000000000
40
1.0000000000
40
1.0000000000
10
3.7500000000
20
-3.3166691234
30
0.0000000000
10
3.7469163002
20
-3.3164645732
30
0.0000000000
10
3.7438315118
20
-3.3162602807
30
0.0000000000
10
3.7407456379
20
-3.3160562459
30
0.0000000000
11
3.7500000000
21
-3.3166691234
31
0.0000000000
11
3.7407456379
21
-3.3160562459
31
0.0000000000
0
SPLINE
5
421
100
AcDbEntity
8
0
100
AcDbSpline
62
9
6
CONTINUOUS
70
0
71
3
72
9
73
5
74
3
42
0.0000001000
43
0.0000001000
44
0.0000000001
12
-6.8816310937
22
0.4550061867
32
0.0000000000
13
-6.8816300342
23
-0.4550064383
33
0.0000000000
40
0.0000000000
40
0.0000000000
40
0.0000000000
40
0.0000000000
40
0.4999998528
40
1.0000000000
40
1.0000000000
40
1.0000000000
40
1.0000000000
10
3.7407456379
20
-3.3160562459
30
0.0000000000
10
2.5938074599
20
-3.2402219038
30
0.0000000000
10
-0.0000007636
20
-3.1597780725
30
0.0000000000
10
-2.5938089871
20
-3.2402219512
30
0.0000000000
10
-3.7407476638
20
-3.3160563799
30
0.0000000000
11
3.7407456379
21
-3.3160562459
31
0.0000000000
11
-0.0000000000
21
-3.2000000000
31
0.0000000000
11
-3.7407476638
21
-3.3160563799
31
0.0000000000
0
SPLINE
5
422
100
AcDbEntity
8
0
100
AcDbSpline
62
9
6
CONTINUOUS
70
0
71
3
72
8
73
4
74
2
42
0.0000001000
43
0.0000001000
44
0.0000000001
12
-0.0092555945
22
-0.0006119706
32
0.0000000000
13
-0.0092490750
23
-0.0006135164
33
0.0000000000
40
0.0000000000
40
0.0000000000
40
0.0000000000
40
0.0000000000
40
1.0000000000
40
1.0000000000
40
1.0000000000
40
1.0000000000
10
-3.7407476638
20
-3.3160563799
30
0.0000000000
10
-3.7438328619
20
-3.3162603701
30
0.0000000000
10
-3.7469169750
20
-3.3164646180
30
0.0000000000
10
-3.7500000000
20
-3.3166691234
30
0.0000000000
11
-3.7407476638
21
-3.3160563799
31
0.0000000000
11
-3.7500000000
21
-3.3166691234
31
0.0000000000
0
SPLINE
5
423
100
AcDbEntity
8
0
100
AcDbSpline
62
9
6
CONTINUOUS
70
0
71
3
72
8
73
4
74
2
42
0.0000001000
43
0.0000001000
44
0.0000000001
12
0.0092510927
22
-0.0006136503
32
0.0000000000
13
0.0092576150
23
-0.0006121037
33
0.0000000000
40
0.0000000000
40
0.0000000000
40
0.0000000000
40
0.0000000000
40
1.0000000000
40
1.0000000000
40
1.0000000000
40
1.0000000000
10
-3.7500000000
20
-5.0833308766
30
0.0000000000
10
-3.7469163024
20
-5.0835354267
30
0.0000000000
10
-3.7438315163
20
-5.0837397190
30
0.0000000000
10
-3.7407456447
20
-5.0839437536
30
0.0000000000
11
-3.7500000000
21
-5.0833308766
31
0.0000000000
11
-3.7407456447
21
-5.0839437536
31
0.0000000000
0
SPLINE
5
424
100
AcDbEntity
8
0
100
AcDbSpline
62
9
6
CONTINUOUS
70
0
71
3
72
9
73
5
74
3
42
0.0000001000
43
0.0000001000
44
0.0000000001
12
6.8816311037
22
-0.4550061884
32
0.0000000000
13
6.8816300441
23
0.4550064400
33
0.0000000000
40
0.0000000000
40
0.0000000000
40
0.0000000000
40
0.0000000000
40
0.4999998528
40
1.0000000000
40
1.0000000000
40
1.0000000000
40
1.0000000000
10
-3.7407456447
20
-5.0839437536
30
0.0000000000
10
-2.5938074650
20
-5.1597780960
30
0.0000000000
10
0.0000007636
20
-5.2402219277
30
0.0000000000
10
2.5938089922
20
-5.1597780487
30
0.0000000000
10
3.7407476705
20
-5.0839436197
30
0.0000000000
11
-3.7407456447
21
-5.0839437536
31
0.0000000000
11
-0.0000000000
21
-5.2000000000
31
0.0000000000
11
3.7407476705
21
-5.0839436197
31
0.0000000000
0
SPLINE
5
425
100
AcDbEntity
8
0
100
AcDbSpline
62
9
6
CONTINUOUS
70
0
71
3
72
8
73
4
74
2
42
0.0000001000
43
0.0000001000
44
0.0000000001
12
0.0092555878
22
0.0006119701
32
0.0000000000
13
0.0092490683
23
0.0006135160
33
0.0000000000
40
0.0000000000
40
0.0000000000
40
0.0000000000
40
0.0000000000
40
1.0000000000
40
1.0000000000
40
1.0000000000
40
1.0000000000
10
3.7407476705
20
-5.0839436197
30
0.0000000000
10
3.7438328664
20
-5.0837396296
30
0.0000000000
10
3.7469169772
20
-5.0835353819
30
0.0000000000
10
3.7500000000
20
-5.0833308766
30
0.0000000000
11
3.7407476705
21
-5.0839436197
31
0.0000000000
11
3.7500000000
21
-5.0833308766
31
0.0000000000
0
SPLINE
5
426
100
AcDbEntity
8
0
100
AcDbSpline
62
9
6
CONTINUOUS
70
0
71
3
72
8
73
4
74
2
42
0.0000001000
43
0.0000001000
44
0.0000000001
12
-0.0092511087
22
0.0006136513
32
0.0000000000
13
-0.0092576310
23
0.0006121048
33
0.0000000000
40
0.0000000000
40
0.0000000000
40
0.0000000000
40
0.0000000000
40
1.0000000000
40
1.0000000000
40
1.0000000000
40
1.0000000000
10
3.7500000000
20
0.8833308766
30
0.0000000000
10
3.7469162971
20
0.8835354270
30
0.0000000000
10
3.7438315057
20
0.8837397197
30
0.0000000000
10
3.7407456287
20
0.8839437547
30
0.0000000000
11
3.7500000000
21
0.8833308766
31
0.0000000000
11
3.7407456287
21
0.8839437547
31
0.0000000000
0
SPLINE
5
427
100
AcDbEntity
8
0
100
AcDbSpline
62
9
6
CONTINUOUS
70
0
71
3
72
9
73
5
74
3
42
0.0000001000
43
0.0000001000
44
0.0000000001
12
-6.8816310801
22
0.4550061843
32
0.0000000000
13
-6.8816300205
23
-0.4550064359
33
0.0000000000
40
0.0000000000
40
0.0000000000
40
0.0000000000
40
0.0000000000
40
0.4999998528
40
1.0000000000
40
1.0000000000
40
1.0000000000
40
1.0000000000
10
3.7407456287
20
0.8839437547
30
0.0000000000
10
2.5938074530
20
0.9597780964
30
0.0000000000
10
-0.0000007636
20
1.0402219273
30
0.0000000000
10
-2.5938089802
20
0.9597780490
30
0.0000000000
10
-3.7407476546
20
0.8839436207
30
0.0000000000
11
3.7407456287
21
0.8839437547
31
0.0000000000
11
-0.0000000000
21
1.0000000000
31
0.0000000000
11
-3.7407476546
21
0.8839436207
31
0.0000000000
0
SPLINE
5
428
100
AcDbEntity
8
0
100
AcDbSpline
62
9
6
CONTINUOUS
70
0
71
3
72
8
73
4
74
2
42
0.0000001000
43
0.0000001000
44
0.0000000001
12
-0.0092556037
22
-0.0006119712
32
0.0000000000
13
-0.0092490842
23
-0.0006135170
33
0.0000000000
40
0.0000000000
40
0.0000000000
40
0.0000000000
40
0.0000000000
40
1.0000000000
40
1.0000000000
40
1.0000000000
40
1.0000000000
10
-3.7407476546
20
0.8839436207
30
0.0000000000
10
-3.7438328558
20
0.8837396303
30
0.0000000000
10
-3.7469169719
20
0.8835353822
30
0.0000000000
10
-3.7500000000
20
0.8833308766
30
0.0000000000
11
-3.7407476546
21
0.8839436207
31
0.0000000000
11
-3.7500000000
21
0.8833308766
31
0.0000000000
0
SPLINE
5
429
100
AcDbEntity
8
0
100
AcDbSpline
62
9
6
CONTINUOUS
70
0
71
3
72
8
73
4
74
2
42
0.0000001000
43
0.0000001000
44
0.0000000001
12
0.0092511087
22
-0.0006136513
32
0.0000000000
13
0.0092576310
23
-0.0006121048
33
0.0000000000
40
0.0000000000
40
0.0000000000
40
0.0000000000
40
0.0000000000
40
1.0000000000
40
1.0000000000
40
1.0000000000
40
1.0000000000
10
-3.7500000000
20
-0.8833308766
30
0.0000000000
10
-3.7469162971
20
-0.8835354270
30
0.0000000000
10
-3.7438315057
20
-0.8837397197
30
0.0000000000
10
-3.7407456287
20
-0.8839437547
30
0.0000000000
11
-3.7500000000
21
-0.8833308766
31
0.0000000000
11
-3.7407456287
21
-0.8839437547
31
0.0000000000
0
SPLINE
5
42A
100
AcDbEntity
8
0
100
AcDbSpline
62
9
6
CONTINUOUS
70
0
71
3
72
9
73
5
74
3
42
0.0000001000
43
0.0000001000
44
0.0000000001
12
6.8816310801
22
-0.4550061843
32
0.0000000000
13
6.8816300205
23
0.4550064359
33
0.0000000000
40
0.0000000000
40
0.0000000000
40
0.0000000000
40
0.0000000000
40
0.4999998528
40
1.0000000000
40
1.0000000000
40
1.0000000000
40
1.0000000000
10
-3.7407456287
20
-0.8839437547
30
0.0000000000
10
-2.5938074530
20
-0.9597780964
30
0.0000000000
10
0.0000007636
20
-1.0402219273
30
0.0000000000
10
2.5938089802
20
-0.9597780490
30
0.0000000000
10
3.7407476546
20
-0.8839436207
30
0.0000000000
11
-3.7407456287
21
-0.8839437547
31
0.0000000000
11
-0.0000000000
21
-1.0000000000
31
0.0000000000
11
3.7407476546
21
-0.8839436207
31
0.0000000000
0
SPLINE
5
42B
100
AcDbEntity
8
0
100
AcDbSpline
62
9
6
CONTINUOUS
70
0
71
3
72
8
73
4
74
2
42
0.0000001000
43
0.0000001000
44
0.0000000001
12
0.0092556037
22
0.0006119712
32
0.0000000000
13
0.0092490842
23
0.0006135170
33
0.0000000000
40
0.0000000000
40
0.0000000000
40
0.0000000000
40
0.0000000000
40
1.0000000000
40
1.0000000000
40
1.0000000000
40
1.0000000000
10
3.7407476546
20
-0.8839436207
30
0.0000000000
10
3.7438328558
20
-0.8837396303
30
0.0000000000
10
3.7469169719
20
-0.8835353822
30
0.0000000000
10
3.7500000000
20
-0.8833308766
30
0.0000000000
11
3.7407476546
21
-0.8839436207
31
0.0000000000
11
3.7500000000
21
-0.8833308766
31
0.0000000000
0
SPLINE
5
42C
100
AcDbEntity
8
0
100
AcDbSpline
62
9
6
CONTINUOUS
70
0
71
3
72
8
73
4
74
2
42
0.0000001000
43
0.0000001000
44
0.0000000001
12
-0.0092510927
22
0.0006136503
32
0.0000000000
13
-0.0092576150
23
0.0006121037
33
0.0000000000
40
0.0000000000
40
0.0000000000
40
0.0000000000
40
0.0000000000
40
1.0000000000
40
1.0000000000
40
1.0000000000
40
1.0000000000
10
3.7500000000
20
5.0833308766
30
0.0000000000
10
3.7469163024
20
5.0835354267
30
0.0000000000
10
3.7438315163
20
5.0837397190
30
0.0000000000
10
3.7407456447
20
5.0839437536
30
0.0000000000
11
3.7500000000
21
5.0833308766
31
0.0000000000
11
3.7407456447
21
5.0839437536
31
0.0000000000
0
SPLINE
5
42D
100
AcDbEntity
8
0
100
AcDbSpline
62
9
6
CONTINUOUS
70
0
71
3
72
9
73
5
74
3
42
0.0000001000
43
0.0000001000
44
0.0000000001
12
-6.8816311037
22
0.4550061884
32
0.0000000000
13
-6.8816300441
23
-0.4550064400
33
0.0000000000
40
0.0000000000
40
0.0000000000
40
0.0000000000
40
0.0000000000
40
0.4999998528
40
1.0000000000
40
1.0000000000
40
1.0000000000
40
1.0000000000
10
3.7407456447
20
5.0839437536
30
0.0000000000
10
2.5938074650
20
5.1597780960
30
0.0000000000
10
-0.0000007636
20
5.2402219277
30
0.0000000000
10
-2.5938089922
20
5.1597780487
30
0.0000000000
10
-3.7407476705
20
5.0839436197
30
0.0000000000
11
3.7407456447
21
5.0839437536
31
0.0000000000
11
-0.0000000000
21
5.2000000000
31
0.0000000000
11
-3.7407476705
21
5.0839436197
31
0.0000000000
0
SPLINE
5
42E
100
AcDbEntity
8
0
100
AcDbSpline
62
9
6
CONTINUOUS
70
0
71
3
72
8
73
4
74
2
42
0.0000001000
43
0.0000001000
44
0.0000000001
12
-0.0092555878
22
-0.0006119701
32
0.0000000000
13
-0.0092490683
23
-0.0006135160
33
0.0000000000
40
0.0000000000
40
0.0000000000
40
0.0000000000
40
0.0000000000
40
1.0000000000
40
1.0000000000
40
1.0000000000
40
1.0000000000
10
-3.7407476705
20
5.0839436197
30
0.0000000000
10
-3.7438328664
20
5.0837396296
30
0.0000000000
10
-3.7469169772
20
5.0835353819
30
0.0000000000
10
-3.7500000000
20
5.0833308766
30
0.0000000000
11
-3.7407476705
21
5.0839436197
31
0.0000000000
11
-3.7500000000
21
5.0833308766
31
0.0000000000
0
SPLINE
5
42F
100
AcDbEntity
8
0
100
AcDbSpline
62
9
6
CONTINUOUS
70
0
71
3
72
8
73
4
74
2
42
0.0000001000
43
0.0000001000
44
0.0000000001
12
0.0092510995
22
-0.0006136507
32
0.0000000000
13
0.0092576218
23
-0.0006121042
33
0.0000000000
40
0.0000000000
40
0.0000000000
40
0.0000000000
40
0.0000000000
40
1.0000000000
40
1.0000000000
40
1.0000000000
40
1.0000000000
10
-3.7500000000
20
3.3166691234
30
0.0000000000
10
-3.7469163002
20
3.3164645732
30
0.0000000000
10
-3.7438315118
20
3.3162602807
30
0.0000000000
10
-3.7407456379
20
3.3160562459
30
0.0000000000
11
-3.7500000000
21
3.3166691234
31
0.0000000000
11
-3.7407456379
21
3.3160562459
31
0.0000000000
0
SPLINE
5
430
100
AcDbEntity
8
0
100
AcDbSpline
62
9
6
CONTINUOUS
70
0
71
3
72
9
73
5
74
3
42
0.0000001000
43
0.0000001000
44
0.0000000001
12
6.8816310937
22
-0.4550061867
32
0.0000000000
13
6.8816300342
23
0.4550064383
33
0.0000000000
40
0.0000000000
40
0.0000000000
40
0.0000000000
40
0.0000000000
40
0.4999998528
40
1.0000000000
40
1.0000000000
40
1.0000000000
40
1.0000000000
10
-3.7407456379
20
3.3160562459
30
0.0000000000
10
-2.5938074599
20
3.2402219038
30
0.0000000000
10
0.0000007636
20
3.1597780725
30
0.0000000000
10
2.5938089871
20
3.2402219512
30
0.0000000000
10
3.7407476638
20
3.3160563799
30
0.0000000000
11
-3.7407456379
21
3.3160562459
31
0.0000000000
11
-0.0000000000
21
3.2000000000
31
0.0000000000
11
3.7407476638
21
3.3160563799
31
0.0000000000
0
SPLINE
5
431
100
AcDbEntity
8
0
100
AcDbSpline
62
9
6
CONTINUOUS
70
0
71
3
72
8
73
4
74
2
42
0.0000001000
43
0.0000001000
44
0.0000000001
12
0.0092555945
22
0.0006119706
32
0.0000000000
13
0.0092490750
23
0.0006135164
33
0.0000000000
40
0.0000000000
40
0.0000000000
40
0.0000000000
40
0.0000000000
40
1.0000000000
40
1.0000000000
40
1.0000000000
40
1.0000000000
10
3.7407476638
20
3.3160563799
30
0.0000000000
10
3.7438328619
20
3.3162603701
30
0.0000000000
10
3.7469169750
20
3.3164646180
30
0.0000000000
10
3.7500000000
20
3.3166691234
30
0.0000000000
11
3.7407476638
21
3.3160563799
31
0.0000000000
11
3.7500000000
21
3.3166691234
31
0.0000000000
0
SPLINE
5
432
100
AcDbEntity
8
0
100
AcDbSpline
62
9
6
CONTINUOUS
70
0
71
3
72
8
73
4
74
2
42
0.0000001000
43
0.0000001000
44
0.0000000001
12
0.0092521256
22
-0.0006137188
32
0.0000000000
13
0.0092586494
23
-0.0006121719
33
0.0000000000
40
0.0000000000
40
0.0000000000
40
0.0000000000
40
0.0000000000
40
1.0000000000
40
1.0000000000
40
1.0000000000
40
1.0000000000
10
-3.7500000000
20
7.5166691234
30
0.0000000000
10
-3.7469159581
20
7.5164645505
30
0.0000000000
10
-3.7438308275
20
7.5162602354
30
0.0000000000
10
-3.7407446111
20
7.5160561781
30
0.0000000000
11
-3.7500000000
21
7.5166691234
31
0.0000000000
11
-3.7407446111
21
7.5160561781
31
0.0000000000
0
SPLINE
5
433
100
AcDbEntity
8
0
100
AcDbSpline
62
9
6
CONTINUOUS
70
0
71
3
72
9
73
5
74
3
42
0.0000001000
43
0.0000001000
44
0.0000000001
12
6.8816295810
22
-0.4550059236
32
0.0000000000
13
6.8816285194
23
0.4550061757
33
0.0000000000
40
0.0000000000
40
0.0000000000
40
0.0000000000
40
0.0000000000
40
0.4999998525
40
1.0000000000
40
1.0000000000
40
1.0000000000
40
1.0000000000
10
-3.7407446111
20
7.5160561781
30
0.0000000000
10
-2.5938066859
20
7.4402218798
30
0.0000000000
10
0.0000007650
20
7.3597780965
30
0.0000000000
10
2.5938082160
20
7.4402219273
30
0.0000000000
10
3.7407466408
20
7.5160563123
30
0.0000000000
11
-3.7407446111
21
7.5160561781
31
0.0000000000
11
-0.0000000000
21
7.4000000000
31
0.0000000000
11
3.7407466408
21
7.5160563123
31
0.0000000000
0
SPLINE
5
434
100
AcDbEntity
8
0
100
AcDbSpline
62
9
6
CONTINUOUS
70
0
71
3
72
8
73
4
74
2
42
0.0000001000
43
0.0000001000
44
0.0000000001
12
0.0092566182
22
0.0006120380
32
0.0000000000
13
0.0092500973
23
0.0006135842
33
0.0000000000
40
0.0000000000
40
0.0000000000
40
0.0000000000
40
0.0000000000
40
1.0000000000
40
1.0000000000
40
1.0000000000
40
1.0000000000
10
3.7407466408
20
7.5160563123
30
0.0000000000
10
3.7438321802
20
7.5162603249
30
0.0000000000
10
3.7469166342
20
7.5164645954
30
0.0000000000
10
3.7500000000
20
7.5166691234
30
0.0000000000
11
3.7407466408
21
7.5160563123
31
0.0000000000
11
3.7500000000
21
7.5166691234
31
0.0000000000
0
SPLINE
5
435
100
AcDbEntity
8
0
100
AcDbSpline
62
9
6
CONTINUOUS
70
0
71
3
72
57
73
53
74
51
42
0.0000001000
43
0.0000001000
44
0.0000000001
12
-0.0082207054
22
-17.0542189512
32
0.0000000000
13
-0.0104182979
23
17.0542177503
33
0.0000000000
40
0.0000000000
40
0.0000000000
40
0.0000000000
40
0.0000000000
40
0.0057366103
40
0.0120981302
40
0.0189775503
40
0.0262814440
40
0.0340728150
40
0.0424114302
40
0.0513793866
40
0.0610704566
40
0.0715641807
40
0.0829346395
40
0.0952732426
40
0.1086435347
40
0.1231081551
40
0.1387540406
40
0.1556817392
40
0.1740051446
40
0.1938297366
40
0.2152707997
40
0.2384659391
40
0.2635693972
40
0.2907462043
40
0.3201727375
40
0.3520569738
40
0.3866203535
40
0.4240620431
40
0.4647134268
40
0.5089887744
40
0.5563290601
40
0.6032839404
40
0.6460563788
40
0.6838852828
40
0.7175756243
40
0.7479051987
40
0.7752952472
40
0.8001140539
40
0.8226963149
40
0.8432982954
40
0.8621348027
40
0.8794055132
40
0.8952823641
40
0.9098871418
40
0.9232917668
40
0.9355981264
40
0.9469142652
40
0.9573516628
40
0.9670668916
40
0.9761575192
40
0.9847076389
40
0.9926793893
40
1.0000000000
40
1.0000000000
40
1.0000000000
40
1.0000000000
10
8.2179988278
20
-8.4033613445
30
0.0000000000
10
8.2179831081
20
-8.4359724804
30
0.0000000000
10
8.2080659325
20
-8.5051194192
30
0.0000000000
10
8.1620448649
20
-8.6043113181
30
0.0000000000
10
8.0856124043
20
-8.6941603366
30
0.0000000000
10
7.9863747930
20
-8.7709894473
30
0.0000000000
10
7.8705753561
20
-8.8373935860
30
0.0000000000
10
7.7405192704
20
-8.8964161590
30
0.0000000000
10
7.5967048938
20
-8.9502452789
30
0.0000000000
10
7.4387350897
20
-9.0005210519
30
0.0000000000
10
7.2657965121
20
-9.0483031189
30
0.0000000000
10
7.0768494780
20
-9.0942746787
30
0.0000000000
10
6.8708052258
20
-9.1388276311
30
0.0000000000
10
6.6465666004
20
-9.1821850522
30
0.0000000000
10
6.4030165585
20
-9.2244515665
30
0.0000000000
10
6.1388018989
20
-9.2656774738
30
0.0000000000
10
5.8522600837
20
-9.3058680632
30
0.0000000000
10
5.5416078621
20
-9.3449485636
30
0.0000000000
10
5.2049728947
20
-9.3828090766
30
0.0000000000
10
4.8403465033
20
-9.4193351842
30
0.0000000000
10
4.4454342376
20
-9.4543337037
30
0.0000000000
10
4.0176549637
20
-9.4875416026
30
0.0000000000
10
3.5542038417
20
-9.5185956607
30
0.0000000000
10
3.0519696403
20
-9.5470191652
30
0.0000000000
10
2.5075220715
20
-9.5721928061
30
0.0000000000
10
1.9173097293
20
-9.5934242023
30
0.0000000000
10
1.2770851240
20
-9.6098154425
30
0.0000000000
10
0.5815157337
20
-9.6201802561
30
0.0000000000
10
-0.1704007960
20
-9.6228330068
30
0.0000000000
10
-0.9581293272
20
-9.6159515148
30
0.0000000000
10
-1.7371656386
20
-9.5992437000
30
0.0000000000
10
-2.4618863423
20
-9.5744974155
30
0.0000000000
10
-3.1109187692
20
-9.5442961131
30
0.0000000000
10
-3.6889206174
20
-9.5103449536
30
0.0000000000
10
-4.2072762166
20
-9.4736254786
30
0.0000000000
10
-4.6748843939
20
-9.4347477792
30
0.0000000000
10
-5.0981219036
20
-9.3941522340
30
0.0000000000
10
-5.4824198914
20
-9.3520992492
30
0.0000000000
10
-5.8323214891
20
-9.3086806122
30
0.0000000000
10
-6.1515950397
20
-9.2639516224
30
0.0000000000
10
-6.4435185919
20
-9.2179093712
30
0.0000000000
10
-6.7108146360
20
-9.1704377398
30
0.0000000000
10
-6.9554464845
20
-9.1213620017
30
0.0000000000
10
-7.1789250803
20
-9.0703995717
30
0.0000000000
10
-7.3825924834
20
-9.0170693209
30
0.0000000000
10
-7.5678195386
20
-8.9604454519
30
0.0000000000
10
-7.7359290263
20
-8.8989265730
30
0.0000000000
10
-7.8873259052
20
-8.8296931986
30
0.0000000000
10
-8.0208384116
20
-8.7489973662
30
0.0000000000
10
-8.1302195519
20
-8.6507497107
30
0.0000000000
10
-8.2016929251
20
-8.5326514411
30
0.0000000000
10
-8.2179734050
20
-8.4449771078
30
0.0000000000
10
-8.2179988278
20
-8.4033613445
30
0.0000000000
11
8.2179988278
21
-8.4033613445
31
0.0000000000
11
8.2042115390
21
-8.5002183965
31
0.0000000000
11
8.1593420513
21
-8.5989958007
31
0.0000000000
11
8.0845364291
21
-8.6893774376
31
0.0000000000
11
7.9870723670
21
-8.7669435555
31
0.0000000000
11
7.8723748250
21
-8.8340288887
31
0.0000000000
11
7.7431979882
21
-8.8934984347
31
0.0000000000
11
7.6001613208
21
-8.9476428428
31
0.0000000000
11
7.4427968447
21
-8.9981581959
31
0.0000000000
11
7.2703807755
21
-9.0461185979
31
0.0000000000
11
7.0820204328
21
-9.0921961732
31
0.0000000000
11
6.8763906715
21
-9.1368637525
31
0.0000000000
11
6.6525491755
21
-9.1803156452
31
0.0000000000
11
6.4095241242
21
-9.2226387384
31
0.0000000000
11
6.1459055624
21
-9.2639018217
31
0.0000000000
11
5.8600313507
21
-9.3041150996
31
0.0000000000
11
5.5499976586
21
-9.3432301505
31
0.0000000000
11
5.2140353926
21
-9.3811275506
31
0.0000000000
11
4.8502056819
21
-9.4176739097
31
0.0000000000
11
4.4561832264
21
-9.4526869186
31
0.0000000000
11
4.0293541235
21
-9.4859071392
31
0.0000000000
11
3.5669171362
21
-9.5169726891
31
0.0000000000
11
3.0658764043
21
-9.5454014442
31
0.0000000000
11
2.5226997225
21
-9.5705988605
31
0.0000000000
11
1.9336317452
21
-9.5918593033
31
0.0000000000
11
1.2953034831
21
-9.6082570688
31
0.0000000000
11
0.6021031902
21
-9.6186154013
31
0.0000000000
11
-0.1529736688
21
-9.6212798050
31
0.0000000000
11
-0.9602944533
21
-9.6142155951
31
0.0000000000
11
-1.7608874636
21
-9.5969620536
31
0.0000000000
11
-2.4899089259
21
-9.5719439493
31
0.0000000000
11
-3.1343477262
21
-9.5418198688
31
0.0000000000
11
-3.7079147923
21
-9.5080127944
31
0.0000000000
11
-4.2238603559
21
-9.4713398382
31
0.0000000000
11
-4.6893592229
21
-9.4325055008
31
0.0000000000
11
-5.1106777740
21
-9.3919556858
31
0.0000000000
11
-5.4934986258
21
-9.3499102396
31
0.0000000000
11
-5.8421561119
21
-9.3064903139
31
0.0000000000
11
-6.1602692033
21
-9.2617638542
31
0.0000000000
11
-6.4511832508
21
-9.2156991952
31
0.0000000000
11
-6.7177422462
21
-9.1681466501
31
0.0000000000
11
-6.9619001914
21
-9.1189093694
31
0.0000000000
11
-7.1847144788
21
-9.0677797398
31
0.0000000000
11
-7.3876402991
21
-9.0142187024
31
0.0000000000
11
-7.5720322688
21
-8.9572630799
31
0.0000000000
11
-7.7388952535
21
-8.8952845023
31
0.0000000000
11
-7.8890709680
21
-8.8252917003
31
0.0000000000
11
-8.0206190574
21
-8.7432520226
31
0.0000000000
11
-8.1270573988
21
-8.6435871986
31
0.0000000000
11
-8.1956116229
21
-8.5261850581
31
0.0000000000
11
-8.2179988278
21
-8.4033613445
31
0.0000000000
0
SPLINE
5
436
100
AcDbEntity
8
0
100
AcDbSpline
62
9
6
CONTINUOUS
70
0
71
3
72
13
73
9
74
7
42
0.0000001000
43
0.0000001000
44
0.0000000001
12
-0.1577378029
22
0.9435858985
32
0.0000000000
13
-0.0003490202
23
0.9566793822
33
0.0000000000
40
0.0000000000
40
0.0000000000
40
0.0000000000
40
0.0000000000
40
0.0448208408
40
0.1498261432
40
0.3086281187
40
0.5117190361
40
0.7469352638
40
1.0000000000
40
1.0000000000
40
1.0000000000
40
1.0000000000
10
10.5087981167
20
-21.9749071372
30
0.0000000000
10
10.5064414697
20
-21.9608096994
30
0.0000000000
10
10.5072295647
20
-21.9127248768
30
0.0000000000
10
10.5036916604
20
-21.8145848799
30
0.0000000000
10
10.5030908201
20
-21.6655686219
30
0.0000000000
10
10.5015010824
20
-21.4752101535
30
0.0000000000
10
10.5008152536
20
-21.2547198844
30
0.0000000000
10
10.5005645041
20
-21.0990148361
30
0.0000000000
10
10.5005350625
20
-21.0183142309
30
0.0000000000
11
10.5087981167
21
-21.9749071372
31
0.0000000000
11
10.5066887591
21
-21.9320798744
31
0.0000000000
11
10.5047336849
21
-21.8316424864
31
0.0000000000
11
10.5030519635
21
-21.6797292088
31
0.0000000000
11
10.5017438026
21
-21.4854407064
31
0.0000000000
11
10.5008871714
21
-21.2604158065
31
0.0000000000
11
10.5005350625
21
-21.0183142309
31
0.0000000000
0
SPLINE
5
437
100
AcDbEntity
8
0
100
AcDbSpline
62
9
6
CONTINUOUS
70
0
71
3
72
13
73
9
74
7
42
0.0000001000
43
0.0000001000
44
0.0000000001
12
-0.1518283440
22
0.4537411951
32
0.0000000000
13
-0.0003498850
23
0.4784692214
33
0.0000000000
40
0.0000000000
40
0.0000000000
40
0.0000000000
40
0.0000000000
40
0.0448720941
40
0.1499620513
40
0.3088769427
40
0.5121305404
40
0.7475203519
40
1.0000000000
40
1.0000000000
40
1.0000000000
40
1.0000000000
10
11.0087219643
20
-21.4755923698
30
0.0000000000
10
11.0064510124
20
-21.4688055973
30
0.0000000000
10
11.0070644478
20
-21.4443203345
30
0.0000000000
10
11.0036664875
20
-21.3955798760
30
0.0000000000
10
11.0029931518
20
-21.3208239670
30
0.0000000000
10
11.0014301292
20
-21.2256234781
30
0.0000000000
10
11.0007361325
20
-21.1153658418
30
0.0000000000
10
11.0004883564
20
-21.0375638302
30
0.0000000000
10
11.0004589101
20
-20.9972959167
30
0.0000000000
11
11.0087219643
21
-21.4755923698
31
0.0000000000
11
11.0066154888
21
-21.4542260342
31
0.0000000000
11
11.0046585314
21
-21.4039818070
31
0.0000000000
11
11.0029751375
21
-21.3279645393
31
0.0000000000
11
11.0016659628
21
-21.2307227351
31
0.0000000000
11
11.0008096574
21
-21.1180991805
31
0.0000000000
11
11.0004589101
21
-20.9972959167
31
0.0000000000
0
SPLINE
5
438
100
AcDbEntity
8
0
100
AcDbSpline
62
9
6
CONTINUOUS
70
0
71
3
72
12
73
8
74
6
42
0.0000001000
43
0.0000001000
44
0.0000000001
12
0.7813571085
22
0.0007128051
32
0.0000000000
13
0.0007145497
23
0.7813571069
33
0.0000000000
40
0.0000000000
40
0.0000000000
40
0.0000000000
40
0.0000000000
40
0.2000879484
40
0.4001761228
40
0.6002085985
40
0.8001502331
40
1.0000000000
40
1.0000000000
40
1.0000000000
40
1.0000000000
10
10.5087981167
20
-21.9749071372
30
0.0000000000
10
10.5609114970
20
-21.9748595960
30
0.0000000000
10
10.6658541434
20
-21.9582167171
30
0.0000000000
10
10.8073215017
20
-21.8860919029
30
0.0000000000
10
10.9197686772
20
-21.7737938411
30
0.0000000000
10
10.9920030345
20
-21.6324882152
30
0.0000000000
10
11.0086743634
20
-21.5276437151
30
0.0000000000
10
11.0087219643
20
-21.4755923698
30
0.0000000000
11
10.5087981167
21
-21.9749071372
31
0.0000000000
11
10.6631985021
21
-21.9503555394
31
0.0000000000
11
10.8025013793
21
-21.8793835478
31
0.0000000000
11
10.9130864355
21
-21.7689315022
31
0.0000000000
11
10.9841419991
21
-21.6297997904
31
0.0000000000
11
11.0087219643
21
-21.4755923698
31
0.0000000000
0
SPLINE
5
439
100
AcDbEntity
8
0
100
AcDbSpline
62
9
6
CONTINUOUS
70
0
71
3
72
10
73
6
74
4
42
0.0000001000
43
0.0000001000
44
0.0000000001
12
-0.0308408133
22
42.0366204979
32
0.0000000000
13
0.0308408108
23
42.0366204979
33
0.0000000000
40
0.0000000000
40
0.0000000000
40
0.0000000000
40
0.0000000000
40
0.3332896860
40
0.6667103140
40
1.0000000000
40
1.0000000000
40
1.0000000000
40
1.0000000000
10
10.5005350625
20
-21.0183142309
30
0.0000000000
10
10.4971087542
20
-16.3481902157
30
0.0000000000
10
10.4925427185
20
-7.0061055531
30
0.0000000000
10
10.4925427181
20
7.0061055523
30
0.0000000000
10
10.4971087545
20
16.3481902153
30
0.0000000000
10
10.5005350625
20
21.0183142309
30
0.0000000000
11
10.5005350625
21
-21.0183142309
31
0.0000000000
11
10.4936846758
21
-7.0079400892
31
0.0000000000
11
10.4936846757
21
7.0079400882
31
0.0000000000
11
10.5005350625
21
21.0183142309
31
0.0000000000
0
SPLINE
5
43A
100
AcDbEntity
8
0
100
AcDbSpline
62
9
6
CONTINUOUS
70
0
71
3
72
10
73
6
74
4
42
0.0000001000
43
0.0000001000
44
0.0000000001
12
-0.0308408131
22
41.9945838615
32
0.0000000000
13
0.0308408106
23
41.9945838615
33
0.0000000000
40
0.0000000000
40
0.0000000000
40
0.0000000000
40
0.0000000000
40
0.3332892101
40
0.6667109287
40
1.0000000000
40
1.0000000000
40
1.0000000000
40
1.0000000000
10
11.0004589101
20
-20.9972959167
30
0.0000000000
10
10.9970326067
20
-16.3318486893
30
0.0000000000
10
10.9924665635
20
-6.9990975058
30
0.0000000000
10
10.9924665646
20
6.9991013917
30
0.0000000000
10
10.9970326084
20
16.3318506322
30
0.0000000000
10
11.0004589101
20
20.9972959167
30
0.0000000000
11
11.0004589101
21
-20.9972959167
31
0.0000000000
11
10.9936085283
21
-7.0009521365
31
0.0000000000
11
10.9936085296
21
7.0009579653
31
0.0000000000
11
11.0004589101
21
20.9972959167
31
0.0000000000
0
SPLINE
5
43B
100
AcDbEntity
8
0
100
AcDbSpline
62
9
6
CONTINUOUS
70
0
71
3
72
12
73
8
74
6
42
0.0000001000
43
0.0000001000
44
0.0000000001
12
0.5010580609
22
0.0003673192
32
0.0000000000
13
0.1919553163
23
0.4628309323
33
0.0000000000
40
0.0000000000
40
0.0000000000
40
0.0000000000
40
0.0000000000
40
0.3050607102
40
0.5809725745
40
0.8013959844
40
0.9453902239
40
1.0000000000
40
1.0000000000
40
1.0000000000
40
1.0000000000
10
10.5005350625
20
-21.0183142305
30
0.0000000000
10
10.5514861052
20
-21.0182768789
30
0.0000000000
10
10.6490214532
20
-21.0180276728
30
0.0000000000
10
10.7809060054
20
-21.0135856071
30
0.0000000000
10
10.8928023060
20
-21.0137704023
30
0.0000000000
10
10.9527896770
20
-21.0005048015
30
0.0000000000
10
10.9969646978
20
-21.0057209479
30
0.0000000000
10
11.0004589101
20
-20.9972959167
30
0.0000000000
11
10.5005350625
21
-21.0183142305
31
0.0000000000
11
10.6533841411
21
-21.0171959985
31
0.0000000000
11
10.7915989752
21
-21.0141724692
31
0.0000000000
11
10.9019464483
21
-21.0095331264
31
0.0000000000
11
10.9738615515
21
-21.0037221554
31
0.0000000000
11
11.0004589101
21
-20.9972959167
31
0.0000000000
0
SPLINE
5
43C
100
AcDbEntity
8
0
100
AcDbSpline
62
9
6
CONTINUOUS
70
0
71
3
72
13
73
9
74
7
42
0.0000001000
43
0.0000001000
44
0.0000000001
12
0.0003490200
22
0.9566793822
32
0.0000000000
13
0.1577378176
23
0.9435858960
33
0.0000000000
40
0.0000000000
40
0.0000000000
40
0.0000000000
40
0.0000000000
40
0.2530647362
40
0.4882809639
40
0.6913718813
40
0.8501738568
40
0.9551791592
40
1.0000000000
40
1.0000000000
40
1.0000000000
40
1.0000000000
10
10.5005350625
20
21.0183142309
30
0.0000000000
10
10.5005645041
20
21.0990148361
30
0.0000000000
10
10.5008152537
20
21.2547198844
30
0.0000000000
10
10.5015010823
20
21.4752101535
30
0.0000000000
10
10.5030908202
20
21.6655686219
30
0.0000000000
10
10.5036916603
20
21.8145848800
30
0.0000000000
10
10.5072295650
20
21.9127248768
30
0.0000000000
10
10.5064414695
20
21.9608096995
30
0.0000000000
10
10.5087981167
20
21.9749071372
30
0.0000000000
11
10.5005350625
21
21.0183142309
31
0.0000000000
11
10.5008871715
21
21.2604158065
31
0.0000000000
11
10.5017438025
21
21.4854407064
31
0.0000000000
11
10.5030519635
21
21.6797292088
31
0.0000000000
11
10.5047336849
21
21.8316424864
31
0.0000000000
11
10.5066887591
21
21.9320798744
31
0.0000000000
11
10.5087981167
21
21.9749071372
31
0.0000000000
0
SPLINE
5
43D
100
AcDbEntity
8
0
100
AcDbSpline
62
9
6
CONTINUOUS
70
0
71
3
72
13
73
9
74
7
42
0.0000001000
43
0.0000001000
44
0.0000000001
12
0.0003498847
22
0.4784692214
32
0.0000000000
13
0.1518282341
23
0.4537412319
33
0.0000000000
40
0.0000000000
40
0.0000000000
40
0.0000000000
40
0.0000000000
40
0.2524796480
40
0.4878694598
40
0.6911230573
40
0.8500379483
40
0.9551279064
40
1.0000000000
40
1.0000000000
40
1.0000000000
40
1.0000000000
10
11.0004589101
20
20.9972959167
30
0.0000000000
10
11.0004883564
20
21.0375638302
30
0.0000000000
10
11.0007361325
20
21.1153658418
30
0.0000000000
10
11.0014301293
20
21.2256234781
30
0.0000000000
10
11.0029931514
20
21.3208239671
30
0.0000000000
10
11.0036664885
20
21.3955798757
30
0.0000000000
10
11.0070644460
20
21.4443203351
30
0.0000000000
10
11.0064510140
20
21.4688055968
30
0.0000000000
10
11.0087219643
20
21.4755923698
30
0.0000000000
11
11.0004589101
21
20.9972959167
31
0.0000000000
11
11.0008096574
21
21.1180991804
31
0.0000000000
11
11.0016659628
21
21.2307227352
31
0.0000000000
11
11.0029751375
21
21.3279645393
31
0.0000000000
11
11.0046585314
21
21.4039818068
31
0.0000000000
11
11.0066154888
21
21.4542260345
31
0.0000000000
11
11.0087219643
21
21.4755923698
31
0.0000000000
0
SPLINE
5
43E
100
AcDbEntity
8
0
100
AcDbSpline
62
9
6
CONTINUOUS
70
0
71
3
72
12
73
8
74
6
42
0.0000001000
43
0.0000001000
44
0.0000000001
12
0.5010578743
22
-0.0003674018
32
0.0000000000
13
0.1921898260
23
-0.4627333997
33
0.0000000000
40
0.0000000000
40
0.0000000000
40
0.0000000000
40
0.0000000000
40
0.3050562610
40
0.5809650378
40
0.8013878226
40
0.9453845855
40
1.0000000000
40
1.0000000000
40
1.0000000000
40
1.0000000000
10
10.5005350626
20
21.0183132877
30
0.0000000000
10
10.5514853431
20
21.0182759283
30
0.0000000000
10
10.6490189648
20
21.0180266176
30
0.0000000000
10
10.7809037669
20
21.0135851280
30
0.0000000000
10
10.8927956002
20
21.0137689630
30
0.0000000000
10
10.9527922360
20
21.0005055030
30
0.0000000000
10
10.9969600676
20
21.0057200422
30
0.0000000000
10
11.0004589100
20
20.9972959167
30
0.0000000000
11
10.5005350626
21
21.0183132877
31
0.0000000000
11
10.6533818551
21
21.0171950877
31
0.0000000000
11
10.7915950934
21
21.0141716956
31
0.0000000000
11
10.9019422211
21
21.0095325749
31
0.0000000000
11
10.9738585879
21
21.0037218762
31
0.0000000000
11
11.0004589100
21
20.9972959167
31
0.0000000000
0
SPLINE
5
43F
100
AcDbEntity
8
0
100
AcDbSpline
62
9
6
CONTINUOUS
70
0
71
3
72
56
73
52
74
50
42
0.0000001000
43
0.0000001000
44
0.0000000001
12
-0.0062720323
22
-17.0571611645
32
0.0000000000
13
-0.0095825616
23
17.0571596259
33
0.0000000000
40
0.0000000000
40
0.0000000000
40
0.0000000000
40
0.0000000000
40
0.0059698984
40
0.0126001439
40
0.0197704508
40
0.0273882553
40
0.0355264561
40
0.0442516222
40
0.0536558150
40
0.0638340181
40
0.0748651316
40
0.0868306511
40
0.0998239134
40
0.1139080051
40
0.1291623997
40
0.1456862095
40
0.1635929080
40
0.1829998538
40
0.2040160119
40
0.2267726525
40
0.2514241252
40
0.2781403951
40
0.3070986034
40
0.3385012580
40
0.3725811847
40
0.4095540558
40
0.4496738795
40
0.4934525430
40
0.5407338344
40
0.5890976148
40
0.6338810341
40
0.6736161547
40
0.7088090625
40
0.7403903407
40
0.7688509731
40
0.7945828284
40
0.8179449255
40
0.8392222011
40
0.8586435202
40
0.8764203829
40
0.8927366146
40
0.9077307011
40
0.9214868073
40
0.9341057505
40
0.9457011747
40
0.9563832939
40
0.9663084249
40
0.9755844765
40
0.9842995425
40
0.9924261229
40
1.0000000000
40
1.0000000000
40
1.0000000000
40
1.0000000000
10
8.2189230010
20
-4.2016806723
30
0.0000000000
10
8.2189105199
20
-4.2356238454
30
0.0000000000
10
8.2081864671
20
-4.3076831682
30
0.0000000000
10
8.1585497608
20
-4.4103493435
30
0.0000000000
10
8.0767892768
20
-4.5022693949
30
0.0000000000
10
7.9715823887
20
-4.5802131542
30
0.0000000000
10
7.8494029361
20
-4.6474560550
30
0.0000000000
10
7.7123622125
20
-4.7071932447
30
0.0000000000
10
7.5608626975
20
-4.7617677290
30
0.0000000000
10
7.3944125396
20
-4.8128416548
30
0.0000000000
10
7.2121319211
20
-4.8614745578
30
0.0000000000
10
7.0129004867
20
-4.9082722134
30
0.0000000000
10
6.7955670116
20
-4.9535842380
30
0.0000000000
10
6.5589206010
20
-4.9975883516
30
0.0000000000
10
6.3016823156
20
-5.0403846042
30
0.0000000000
10
6.0222662037
20
-5.0820558813
30
0.0000000000
10
5.7188481742
20
-5.1226044441
30
0.0000000000
10
5.3895336127
20
-5.1619511339
30
0.0000000000
10
5.0323216068
20
-5.1999888205
30
0.0000000000
10
4.6449932150
20
-5.2365491939
30
0.0000000000
10
4.2249767122
20
-5.2713915636
30
0.0000000000
10
3.7694354502
20
-5.3041795894
30
0.0000000000
10
3.2752569878
20
-5.3344636152
30
0.0000000000
10
2.7389711585
20
-5.3616385126
30
0.0000000000
10
2.1568964012
20
-5.3850088199
30
0.0000000000
10
1.5250656425
20
-5.4037372563
30
0.0000000000
10
0.8379338071
20
-5.4167188749
30
0.0000000000
10
0.0920867723
20
-5.4223982366
30
0.0000000000
10
-0.7006504789
20
-5.4187732454
30
0.0000000000
10
-1.4989902205
20
-5.4048989952
30
0.0000000000
10
-2.2541956048
20
-5.3819969552
30
0.0000000000
10
-2.9342315531
20
-5.3527724122
30
0.0000000000
10
-3.5389004919
20
-5.3192512144
30
0.0000000000
10
-4.0791553078
20
-5.2826676245
30
0.0000000000
10
-4.5652968940
20
-5.2437325941
30
0.0000000000
10
-5.0043742761
20
-5.2029645573
30
0.0000000000
10
-5.4022574954
20
-5.1606810531
30
0.0000000000
10
-5.7638766740
20
-5.1170268000
30
0.0000000000
10
-6.0933099635
20
-5.0720472961
30
0.0000000000
10
-6.3940475791
20
-5.0257226616
30
0.0000000000
10
-6.6690382428
20
-4.9779130137
30
0.0000000000
10
-6.9204688916
20
-4.9283988680
30
0.0000000000
10
-7.1500148227
20
-4.8769321770
30
0.0000000000
10
-7.3591229787
20
-4.8230711652
30
0.0000000000
10
-7.5492115076
20
-4.7659784474
30
0.0000000000
10
-7.7216534958
20
-4.7040870844
30
0.0000000000
10
-7.8769371672
20
-4.6345518924
30
0.0000000000
10
-8.0139938387
20
-4.5535485972
30
0.0000000000
10
-8.1268253380
20
-4.4548260860
30
0.0000000000
10
-8.2016386889
20
-4.3348238374
30
0.0000000000
10
-8.2188988087
20
-4.2447436158
30
0.0000000000
10
-8.2189230010
20
-4.2016806723
30
0.0000000000
11
8.2189230010
21
-4.2016806723
31
0.0000000000
11
8.2040544436
21
-4.3024188400
31
0.0000000000
11
8.1557434509
21
-4.4046739813
31
0.0000000000
11
8.0758148995
21
-4.4972480665
31
0.0000000000
11
7.9724904358
21
-4.5760387532
31
0.0000000000
11
7.8514433236
21
-4.6439879496
31
0.0000000000
11
7.7153387165
21
-4.7041949661
31
0.0000000000
11
7.5646201775
21
-4.7591032430
31
0.0000000000
11
7.3987695847
21
-4.8104301493
31
0.0000000000
11
7.2170479656
21
-4.8592281891
31
0.0000000000
11
7.0184132950
21
-4.9061342982
31
0.0000000000
11
6.8014910831
21
-4.9515634250
31
0.0000000000
11
6.5653368598
21
-4.9956527036
31
0.0000000000
11
6.3086937401
21
-5.0385085461
31
0.0000000000
11
6.0299476529
21
-5.0802176625
31
0.0000000000
11
5.7272180699
21
-5.1207989757
31
0.0000000000
11
5.3985427079
21
-5.1601901311
31
0.0000000000
11
5.0420936458
21
-5.1982574773
31
0.0000000000
11
4.6556571425
21
-5.2348347365
31
0.0000000000
11
4.2366200191
21
-5.2696891130
31
0.0000000000
11
3.7820982840
21
-5.3024900753
31
0.0000000000
11
3.2890829886
21
-5.3327793758
31
0.0000000000
11
2.7541333903
21
-5.3599699506
31
0.0000000000
11
2.1732978793
21
-5.3833740560
31
0.0000000000
11
1.5429244163
21
-5.4021243656
31
0.0000000000
11
0.8587170225
21
-5.4150960388
31
0.0000000000
11
0.1119989480
21
-5.4207881301
31
0.0000000000
11
-0.6944772807
21
-5.4170998390
31
0.0000000000
11
-1.5193004160
21
-5.4026983432
31
0.0000000000
11
-2.2828238082
21
-5.3794236906
31
0.0000000000
11
-2.9599608477
21
-5.3501758516
31
0.0000000000
11
-3.5593249344
21
-5.3168270122
31
0.0000000000
11
-4.0967727474
21
-5.2803096152
31
0.0000000000
11
-4.5806702888
21
-5.2414216118
31
0.0000000000
11
-5.0176900323
21
-5.2007047023
31
0.0000000000
11
-5.4139337633
21
-5.1584430436
31
0.0000000000
11
-5.7742283650
21
-5.1147859254
31
0.0000000000
11
-6.1024328692
21
-5.0698044308
31
0.0000000000
11
-6.4020922395
21
-5.0234541670
31
0.0000000000
11
-6.6762496709
21
-4.9755648467
31
0.0000000000
11
-6.9271380918
21
-4.9259017648
31
0.0000000000
11
-7.1560261706
21
-4.8742661068
31
0.0000000000
11
-7.3643656200
21
-4.8201885825
31
0.0000000000
11
-7.5536293171
21
-4.7627588676
31
0.0000000000
11
-7.7248290981
21
-4.7003898426
31
0.0000000000
11
-7.8788387814
21
-4.6300928378
31
0.0000000000
11
-8.0139289065
21
-4.5477204306
31
0.0000000000
11
-8.1237036089
21
-4.4474826442
31
0.0000000000
11
-8.1950675309
21
-4.3286478953
31
0.0000000000
11
-8.2189230010
21
-4.2016806723
31
0.0000000000
0
SPLINE
5
440
100
AcDbEntity
8
0
100
AcDbSpline
62
9
6
CONTINUOUS
70
0
71
3
72
12
73
8
74
6
42
0.0000001000
43
0.0000001000
44
0.0000000001
12
0.7813571062
22
-0.0007128138
32
0.0000000000
13
0.0007145531
23
-0.7813571046
33
0.0000000000
40
0.0000000000
40
0.0000000000
40
0.0000000000
40
0.0000000000
40
0.2000850064
40
0.4001713425
40
0.6002035309
40
0.8001467217
40
1.0000000000
40
1.0000000000
40
1.0000000000
40
1.0000000000
10
10.5087981167
20
21.9749071372
30
0.0000000000
10
10.5609107306
20
21.9748595961
30
0.0000000000
10
10.6658521000
20
21.9582171671
30
0.0000000000
10
10.8073186644
20
21.8860938495
30
0.0000000000
10
10.9197666024
20
21.7737967766
30
0.0000000000
10
10.9920025187
20
21.6324904868
30
0.0000000000
10
11.0086743624
20
21.5276446294
30
0.0000000000
10
11.0087219643
20
21.4755923698
30
0.0000000000
11
10.5087981167
21
21.9749071372
31
0.0000000000
11
10.6631962883
21
21.9503562579
31
0.0000000000
11
10.8024983178
21
21.8793857676
31
0.0000000000
11
10.9130840749
21
21.7689347421
31
0.0000000000
11
10.9841411372
21
21.6298024308
31
0.0000000000
11
11.0087219643
21
21.4755923698
31
0.0000000000
0
SPLINE
5
441
100
AcDbEntity
8
0
100
AcDbSpline
62
9
6
CONTINUOUS
70
0
71
3
72
11
73
7
74
5
42
0.0000001000
43
0.0000001000
44
0.0000000001
12
0.2000347702
22
-0.0000568822
32
0.0000000000
13
0.1440919725
23
-0.1387494721
33
0.0000000000
40
0.0000000000
40
0.0000000000
40
0.0000000000
40
0.0000000000
40
0.3785749042
40
0.7007973568
40
0.9187086932
40
1.0000000000
40
1.0000000000
40
1.0000000000
40
1.0000000000
10
-8.2179988249
20
8.4033607092
30
0.0000000000
10
-8.1927561103
20
8.4033535311
30
0.0000000000
10
-8.1464398401
20
8.4023798356
30
0.0000000000
10
-8.0837257405
20
8.4046390533
30
0.0000000000
10
-8.0452314838
20
8.3979575526
30
0.0000000000
10
-8.0219365177
20
8.4037597080
30
0.0000000000
10
-8.0180320428
20
8.3999999993
30
0.0000000000
11
-8.2179988249
21
8.4033607092
31
0.0000000000
11
-8.1422711668
21
8.4030885965
31
0.0000000000
11
-8.0778196325
21
8.4023560759
31
0.0000000000
11
-8.0342432526
21
8.4012726645
31
0.0000000000
11
-8.0180320428
21
8.3999999993
31
0.0000000000
0
SPLINE
5
442
100
AcDbEntity
8
0
100
AcDbSpline
62
9
6
CONTINUOUS
70
0
71
3
72
11
73
7
74
5
42
0.0000001000
43
0.0000001000
44
0.0000000001
12
-0.2000347872
22
-0.0000599193
32
0.0000000000
13
-0.1440514778
23
-0.1387915394
33
0.0000000000
40
0.0000000000
40
0.0000000000
40
0.0000000000
40
0.0000000000
40
0.3785749040
40
0.7007973178
40
0.9187085945
40
1.0000000000
40
1.0000000000
40
1.0000000000
40
1.0000000000
10
8.2179988249
20
8.4033607981
30
0.0000000000
10
8.1927561081
20
8.4033532368
30
0.0000000000
10
8.1464401396
20
8.4023790101
30
0.0000000000
10
8.0837249753
20
8.4046394743
30
0.0000000000
10
8.0452328434
20
8.3979567462
30
0.0000000000
10
8.0219354175
20
8.4037608538
30
0.0000000000
10
8.0180320352
20
8.4000000007
30
0.0000000000
11
8.2179988249
21
8.4033607981
31
0.0000000000
11
8.1422711619
21
8.4030881608
31
0.0000000000
11
8.0778196256
21
8.4023559982
31
0.0000000000
11
8.0342432451
21
8.4012729354
31
0.0000000000
11
8.0180320352
21
8.4000000007
31
0.0000000000
0
SPLINE
5
443
100
AcDbEntity
8
0
100
AcDbSpline
62
9
6
CONTINUOUS
70
0
71
3
72
11
73
7
74
5
42
0.0000001000
43
0.0000001000
44
0.0000000001
12
-0.1999834399
22
-0.0000309411
32
0.0000000000
13
-0.1801613920
23
-0.0868058180
33
0.0000000000
40
0.0000000000
40
0.0000000000
40
0.0000000000
40
0.0000000000
40
0.3786684286
40
0.7009573321
40
0.9188742269
40
1.0000000000
40
1.0000000000
40
1.0000000000
40
1.0000000000
10
8.2189229974
20
4.2016803959
30
0.0000000000
10
8.1936805257
20
4.2016764905
30
0.0000000000
10
8.1471011305
20
4.2010573804
30
0.0000000000
10
8.0853269565
20
4.2026549071
30
0.0000000000
10
8.0449586861
20
4.1983760992
30
0.0000000000
10
8.0238284824
20
4.2023473973
30
0.0000000000
10
8.0189565717
20
4.2000000009
30
0.0000000000
11
8.2189229974
21
4.2016803959
31
0.0000000000
11
8.1431957045
21
4.2015439076
31
0.0000000000
11
8.0787442991
21
4.2011779444
31
0.0000000000
11
8.0351678918
21
4.2006365200
31
0.0000000000
11
8.0189565717
21
4.2000000009
31
0.0000000000
0
SPLINE
5
444
100
AcDbEntity
8
0
100
AcDbSpline
62
9
6
CONTINUOUS
70
0
71
3
72
11
73
7
74
5
42
0.0000001000
43
0.0000001000
44
0.0000000001
12
0.1999834306
22
-0.0000274132
32
0.0000000000
13
0.1802003731
23
-0.0867248452
33
0.0000000000
40
0.0000000000
40
0.0000000000
40
0.0000000000
40
0.0000000000
40
0.3786684255
40
0.7009573490
40
0.9188742748
40
1.0000000000
40
1.0000000000
40
1.0000000000
40
1.0000000000
10
-8.2189229974
20
4.2016802778
30
0.0000000000
10
-8.1936805271
20
4.2016768176
30
0.0000000000
10
-8.1471008390
20
4.2010585915
30
0.0000000000
10
-8.0853277017
20
4.2026537560
30
0.0000000000
10
-8.0449573571
20
4.1983782690
30
0.0000000000
10
-8.0238295390
20
4.2023452044
30
0.0000000000
10
-8.0189565770
20
4.1999999991
30
0.0000000000
11
-8.2189229974
21
4.2016802778
31
0.0000000000
11
-8.1431957078
21
4.2015444060
31
0.0000000000
11
-8.0787443038
21
4.2011780469
31
0.0000000000
11
-8.0351678970
21
4.2006362562
31
0.0000000000
11
-8.0189565770
21
4.1999999991
31
0.0000000000
0
SPLINE
5
445
100
AcDbEntity
8
0
100
AcDbSpline
62
9
6
CONTINUOUS
70
0
71
3
72
11
73
7
74
5
42
0.0000001000
43
0.0000001000
44
0.0000000001
12
-0.1999834306
22
0.0000274132
32
0.0000000000
13
-0.1802003732
23
0.0867248452
33
0.0000000000
40
0.0000000000
40
0.0000000000
40
0.0000000000
40
0.0000000000
40
0.3786684255
40
0.7009573490
40
0.9188742748
40
1.0000000000
40
1.0000000000
40
1.0000000000
40
1.0000000000
10
8.2189229974
20
-4.2016802778
30
0.0000000000
10
8.1936805271
20
-4.2016768176
30
0.0000000000
10
8.1471008390
20
-4.2010585915
30
0.0000000000
10
8.0853277017
20
-4.2026537560
30
0.0000000000
10
8.0449573571
20
-4.1983782690
30
0.0000000000
10
8.0238295390
20
-4.2023452044
30
0.0000000000
10
8.0189565770
20
-4.1999999991
30
0.0000000000
11
8.2189229974
21
-4.2016802778
31
0.0000000000
11
8.1431957078
21
-4.2015444060
31
0.0000000000
11
8.0787443038
21
-4.2011780469
31
0.0000000000
11
8.0351678970
21
-4.2006362562
31
0.0000000000
11
8.0189565770
21
-4.1999999991
31
0.0000000000
0
SPLINE
5
446
100
AcDbEntity
8
0
100
AcDbSpline
62
9
6
CONTINUOUS
70
0
71
3
72
11
73
7
74
5
42
0.0000001000
43
0.0000001000
44
0.0000000001
12
0.1999834399
22
0.0000309411
32
0.0000000000
13
0.1801613920
23
0.0868058180
33
0.0000000000
40
0.0000000000
40
0.0000000000
40
0.0000000000
40
0.0000000000
40
0.3786684286
40
0.7009573321
40
0.9188742269
40
1.0000000000
40
1.0000000000
40
1.0000000000
40
1.0000000000
10
-8.2189229974
20
-4.2016803959
30
0.0000000000
10
-8.1936805257
20
-4.2016764905
30
0.0000000000
10
-8.1471011305
20
-4.2010573804
30
0.0000000000
10
-8.0853269565
20
-4.2026549071
30
0.0000000000
10
-8.0449586861
20
-4.1983760992
30
0.0000000000
10
-8.0238284824
20
-4.2023473973
30
0.0000000000
10
-8.0189565717
20
-4.2000000009
30
0.0000000000
11
-8.2189229974
21
-4.2016803959
31
0.0000000000
11
-8.1431957045
21
-4.2015439076
31
0.0000000000
11
-8.0787442991
21
-4.2011779444
31
0.0000000000
11
-8.0351678918
21
-4.2006365200
31
0.0000000000
11
-8.0189565717
21
-4.2000000009
31
0.0000000000
0
SPLINE
5
447
100
AcDbEntity
8
0
100
AcDbSpline
62
9
6
CONTINUOUS
70
0
71
3
72
11
73
7
74
5
42
0.0000001000
43
0.0000001000
44
0.0000000001
12
-0.2000347702
22
0.0000568822
32
0.0000000000
13
-0.1440919725
23
0.1387494721
33
0.0000000000
40
0.0000000000
40
0.0000000000
40
0.0000000000
40
0.0000000000
40
0.3785749042
40
0.7007973568
40
0.9187086932
40
1.0000000000
40
1.0000000000
40
1.0000000000
40
1.0000000000
10
8.2179988249
20
-8.4033607092
30
0.0000000000
10
8.1927561103
20
-8.4033535311
30
0.0000000000
10
8.1464398401
20
-8.4023798356
30
0.0000000000
10
8.0837257405
20
-8.4046390533
30
0.0000000000
10
8.0452314838
20
-8.3979575526
30
0.0000000000
10
8.0219365177
20
-8.4037597080
30
0.0000000000
10
8.0180320428
20
-8.3999999993
30
0.0000000000
11
8.2179988249
21
-8.4033607092
31
0.0000000000
11
8.1422711668
21
-8.4030885965
31
0.0000000000
11
8.0778196325
21
-8.4023560759
31
0.0000000000
11
8.0342432526
21
-8.4012726645
31
0.0000000000
11
8.0180320428
21
-8.3999999993
31
0.0000000000
0
SPLINE
5
448
100
AcDbEntity
8
0
100
AcDbSpline
62
9
6
CONTINUOUS
70
0
71
3
72
11
73
7
74
5
42
0.0000001000
43
0.0000001000
44
0.0000000001
12
0.2000347872
22
0.0000599193
32
0.0000000000
13
0.1440514778
23
0.1387915394
33
0.0000000000
40
0.0000000000
40
0.0000000000
40
0.0000000000
40
0.0000000000
40
0.3785749040
40
0.7007973178
40
0.9187085945
40
1.0000000000
40
1.0000000000
40
1.0000000000
40
1.0000000000
10
-8.2179988249
20
-8.4033607981
30
0.0000000000
10
-8.1927561081
20
-8.4033532368
30
0.0000000000
10
-8.1464401396
20
-8.4023790101
30
0.0000000000
10
-8.0837249753
20
-8.4046394743
30
0.0000000000
10
-8.0452328434
20
-8.3979567462
30
0.0000000000
10
-8.0219354175
20
-8.4037608538
30
0.0000000000
10
-8.0180320352
20
-8.4000000007
30
0.0000000000
11
-8.2179988249
21
-8.4033607981
31
0.0000000000
11
-8.1422711619
21
-8.4030881608
31
0.0000000000
11
-8.0778196256
21
-8.4023559982
31
0.0000000000
11
-8.0342432451
21
-8.4012729354
31
0.0000000000
11
-8.0180320352
21
-8.4000000007
31
0.0000000000
0
SPLINE
5
449
100
AcDbEntity
8
0
100
AcDbSpline
62
9
6
CONTINUOUS
70
0
71
3
72
54
73
50
74
48
42
0.0000001000
43
0.0000001000
44
0.0000000001
12
0.0105270960
22
17.0577322843
32
0.0000000000
13
0.0077839088
23
-17.0577337566
33
0.0000000000
40
0.0000000000
40
0.0000000000
40
0.0000000000
40
0.0000000000
40
0.0075637127
40
0.0155821627
40
0.0241931277
40
0.0333450921
40
0.0431430780
40
0.0536978671
40
0.0651274386
40
0.0775225185
40
0.0909812946
40
0.1055975363
40
0.1214366611
40
0.1385947159
40
0.1571858923
40
0.1773395201
40
0.1991677284
40
0.2228003257
40
0.2483958990
40
0.2761316761
40
0.3061884856
40
0.3387771237
40
0.3741483069
40
0.4124975881
40
0.4541030330
40
0.4996325759
40
0.5482325976
40
0.5963382363
40
0.6398929536
40
0.6784965705
40
0.7128795559
40
0.7437854270
40
0.7716822553
40
0.7969529712
40
0.8199312683
40
0.8408828668
40
0.8600288718
40
0.8775734174
40
0.8936924729
40
0.9085161929
40
0.9221235152
40
0.9346146262
40
0.9460993196
40
0.9566864613
40
0.9665311356
40
0.9757354393
40
0.9843909250
40
0.9924212402
40
1.0000000000
40
1.0000000000
40
1.0000000000
40
1.0000000000
10
-8.2192310370
20
0.0000000000
30
0.0000000000
10
-8.2192044957
20
0.0430065955
30
0.0000000000
10
-8.2021903373
20
0.1324229289
30
0.0000000000
10
-8.1284641666
20
0.2515263792
30
0.0000000000
10
-8.0176205153
20
0.3495809696
30
0.0000000000
10
-7.8827204211
20
0.4302711558
30
0.0000000000
10
-7.7296792473
20
0.4995626621
30
0.0000000000
10
-7.5596929651
20
0.5612385302
30
0.0000000000
10
-7.3725744445
20
0.6180214563
30
0.0000000000
10
-7.1673816521
20
0.6714460304
30
0.0000000000
10
-6.9429433427
20
0.7223581454
30
0.0000000000
10
-6.6980545737
20
0.7712200969
30
0.0000000000
10
-6.4314292733
20
0.8182702702
30
0.0000000000
10
-6.1416233263
20
0.8636837951
30
0.0000000000
10
-5.8267932059
20
0.9075568662
30
0.0000000000
10
-5.4849766865
20
0.9498658753
30
0.0000000000
10
-5.1141103745
20
0.9905294180
30
0.0000000000
10
-4.7119548416
20
1.0294095870
30
0.0000000000
10
-4.2758902669
20
1.0662763797
30
0.0000000000
10
-3.8030006113
20
1.1007938875
30
0.0000000000
10
-3.2900694968
20
1.1325001016
30
0.0000000000
10
-2.7334614176
20
1.1607606008
30
0.0000000000
10
-2.1294650415
20
1.1848362786
30
0.0000000000
10
-1.4739944373
20
1.2038391817
30
0.0000000000
10
-0.7606008991
20
1.2165990170
30
0.0000000000
10
0.0111806977
20
1.2213781179
30
0.0000000000
10
0.8199237948
20
1.2161977576
30
0.0000000000
10
1.6173051402
20
1.2007373062
30
0.0000000000
10
2.3576094313
20
1.1768619088
30
0.0000000000
10
3.0196082599
20
1.1472572626
30
0.0000000000
10
3.6093877669
20
1.1136192896
30
0.0000000000
10
4.1379822618
20
1.0770416263
30
0.0000000000
10
4.6144488874
20
1.0382120062
30
0.0000000000
10
5.0455108137
20
0.9976033051
30
0.0000000000
10
5.4367332125
20
0.9555054125
30
0.0000000000
10
5.7927480581
20
0.9120494527
30
0.0000000000
10
6.1174383685
20
0.8672772582
30
0.0000000000
10
6.4141629402
20
0.8211588580
30
0.0000000000
10
6.6857353161
20
0.7735476524
30
0.0000000000
10
6.9342207235
20
0.7242292670
30
0.0000000000
10
7.1612133444
20
0.6729570326
30
0.0000000000
10
7.3681036157
20
0.6192872466
30
0.0000000000
10
7.5562723886
20
0.5623736389
30
0.0000000000
10
7.7270492586
20
0.5006400778
30
0.0000000000
10
7.8808604096
20
0.4312423351
30
0.0000000000
10
8.0166178030
20
0.3503943834
30
0.0000000000
10
8.1280651674
20
0.2520570929
30
0.0000000000
10
8.2020834533
20
0.1326581784
30
0.0000000000
10
8.2192113729
20
0.0430921555
30
0.0000000000
10
8.2192310370
20
0.0000000000
30
0.0000000000
11
-8.2192310370
21
0.0000000000
31
0.0000000000
11
-8.1955072604
21
0.1268199278
31
0.0000000000
11
-8.1254292241
21
0.2442801636
31
0.0000000000
11
-8.0174616994
21
0.3438682887
31
0.0000000000
11
-7.8845901018
21
0.4258196714
31
0.0000000000
11
-7.7328432722
21
0.4958612436
31
0.0000000000
11
-7.5638938639
21
0.5580768983
31
0.0000000000
11
-7.3774958204
21
0.6152274726
31
0.0000000000
11
-7.1729850934
21
0.6688823982
31
0.0000000000
11
-6.9491639695
21
0.7199642543
31
0.0000000000
11
-6.7047108806
21
0.7689861066
31
0.0000000000
11
-6.4386791490
21
0.8161468466
31
0.0000000000
11
-6.1495582219
21
0.8616357845
31
0.0000000000
11
-5.8354915891
21
0.9055605177
31
0.0000000000
11
-5.4943378388
21
0.9479343695
31
0.0000000000
11
-5.1242309445
21
0.9886506680
31
0.0000000000
11
-4.7229947394
21
1.0275622180
31
0.0000000000
11
-4.2879534533
21
1.0644517849
31
0.0000000000
11
-3.8161064782
21
1.0989927728
31
0.0000000000
11
-3.3043874267
21
1.1307108708
31
0.0000000000
11
-2.7492189176
21
1.1589917113
31
0.0000000000
11
-2.1463490650
21
1.1831148324
31
0.0000000000
11
-1.4924739518
21
1.2021421664
31
0.0000000000
11
-0.7828935853
21
1.2148793982
31
0.0000000000
11
-0.0062775977
21
1.2196925567
31
0.0000000000
11
0.8227116784
21
1.2143771034
31
0.0000000000
11
1.6431292119
21
1.1983911761
31
0.0000000000
11
2.3856840410
21
1.1743210273
31
0.0000000000
11
3.0435105089
21
1.1447609585
31
0.0000000000
11
3.6290481538
21
1.1112486617
31
0.0000000000
11
4.1549662647
21
1.0747343406
31
0.0000000000
11
4.6292400772
21
1.0359533171
31
0.0000000000
11
5.0583882593
21
0.9953874946
31
0.0000000000
11
5.4480801978
21
0.9533037143
31
0.0000000000
11
5.8028148054
21
0.9098445255
31
0.0000000000
11
6.1263182843
21
0.8650685564
31
0.0000000000
11
6.4220090609
21
0.8189206504
31
0.0000000000
11
6.6927952751
21
0.7712252594
31
0.0000000000
11
6.9407679057
21
0.7217551026
31
0.0000000000
11
7.1671064542
21
0.6703161811
31
0.0000000000
11
7.3732492065
21
0.6164272269
31
0.0000000000
11
7.5606001478
21
0.5591772840
31
0.0000000000
11
7.7301401536
21
0.4969687905
31
0.0000000000
11
7.8827095281
21
0.4268093377
31
0.0000000000
11
8.0164820022
21
0.3446183241
31
0.0000000000
11
8.1251252411
21
0.2446428368
31
0.0000000000
11
8.1953917805
21
0.1270594275
31
0.0000000000
11
8.2192310370
21
0.0000000000
31
0.0000000000
0
SPLINE
5
44A
100
AcDbEntity
8
0
100
AcDbSpline
62
9
6
CONTINUOUS
70
0
71
3
72
13
73
9
74
7
42
0.0000001000
43
0.0000001000
44
0.0000000001
12
0.1517233705
22
0.4537763541
32
0.0000000000
13
0.0003487208
23
0.4784692666
33
0.0000000000
40
0.0000000000
40
0.0000000000
40
0.0000000000
40
0.0000000000
40
0.0447511791
40
0.1496617630
40
0.3084069250
40
0.5114254892
40
0.7467904150
40
1.0000000000
40
1.0000000000
40
1.0000000000
40
1.0000000000
10
-11.0087219643
20
-21.4755923698
30
0.0000000000
10
-11.0064586977
20
-21.4688233609
30
0.0000000000
10
-11.0070626629
20
-21.4443888060
30
0.0000000000
10
-11.0036726327
20
-21.3957214402
30
0.0000000000
10
-11.0029962005
20
-21.3210594969
30
0.0000000000
10
-11.0014333211
20
-21.2259272635
30
0.0000000000
10
-11.0007370348
20
-21.1155947072
30
0.0000000000
10
-11.0004883433
20
-21.0376802515
30
0.0000000000
10
-11.0004589101
20
-20.9972959167
30
0.0000000000
11
-11.0087219643
21
-21.4755923698
31
0.0000000000
11
-11.0066187988
21
-21.4542838406
31
0.0000000000
11
-11.0046627389
21
-21.4041254635
31
0.0000000000
11
-11.0029790226
21
-21.3281894262
31
0.0000000000
11
-11.0016694038
21
-21.2310600855
31
0.0000000000
11
-11.0008114400
21
-21.1184484404
31
0.0000000000
11
-11.0004589101
21
-20.9972959167
31
0.0000000000
0
SPLINE
5
44B
100
AcDbEntity
8
0
100
AcDbSpline
62
9
6
CONTINUOUS
70
0
71
3
72
13
73
9
74
7
42
0.0000001000
43
0.0000001000
44
0.0000000001
12
0.1577707702
22
0.9435803750
32
0.0000000000
13
0.0003449110
23
0.9566793721
33
0.0000000000
40
0.0000000000
40
0.0000000000
40
0.0000000000
40
0.0000000000
40
0.0448247981
40
0.1498254833
40
0.3086663044
40
0.5117002731
40
0.7469689740
40
1.0000000000
40
1.0000000000
40
1.0000000000
40
1.0000000000
10
-10.5087981167
20
-21.9749071372
30
0.0000000000
10
-10.5064407691
20
-21.9608085373
30
0.0000000000
10
-10.5072303684
20
-21.9127237243
30
0.0000000000
10
-10.5036915785
20
-21.8145717156
30
0.0000000000
10
-10.5030911067
20
-21.6655626178
30
0.0000000000
10
-10.5015012527
20
-21.4751932123
30
0.0000000000
10
-10.5008152484
20
-21.2547151132
30
0.0000000000
10
-10.5005641536
20
-21.0990040853
30
0.0000000000
10
-10.5005350625
20
-21.0183142309
30
0.0000000000
11
-10.5087981167
21
-21.9749071372
31
0.0000000000
11
-10.5066888073
21
-21.9320760821
31
0.0000000000
11
-10.5047341778
21
-21.8316431047
31
0.0000000000
11
-10.5030519894
21
-21.6796926689
31
0.0000000000
11
-10.5017441538
21
-21.4854586496
31
0.0000000000
11
-10.5008870654
21
-21.2603835538
31
0.0000000000
11
-10.5005350625
21
-21.0183142309
31
0.0000000000
0
SPLINE
5
44C
100
AcDbEntity
8
0
100
AcDbSpline
62
9
6
CONTINUOUS
70
0
71
3
72
57
73
53
74
51
42
0.0000001000
43
0.0000001000
44
0.0000000001
12
-0.0132824741
22
16.4276738283
32
0.0000000000
13
-0.0168407981
23
-16.4276705658
33
0.0000000000
40
0.0000000000
40
0.0000000000
40
0.0000000000
40
0.0000000000
40
0.0025521252
40
0.0057146540
40
0.0099262303
40
0.0153981511
40
0.0220613451
40
0.0297223258
40
0.0383140949
40
0.0478344412
40
0.0583055068
40
0.0697644823
40
0.0822826597
40
0.0959119752
40
0.1107083465
40
0.1267550011
40
0.1441505409
40
0.1630091711
40
0.1834394725
40
0.2055586901
40
0.2295070916
40
0.2554426191
40
0.2835346419
40
0.3139644542
40
0.3469473999
40
0.3827124842
40
0.4214639566
40
0.4635432599
40
0.5093757480
40
0.5583759877
40
0.6069599320
40
0.6512003628
40
0.6903135409
40
0.7251346035
40
0.7564666909
40
0.7847439932
40
0.8103455751
40
0.8336149459
40
0.8548141619
40
0.8741643351
40
0.8918671184
40
0.9080922379
40
0.9229547451
40
0.9365131597
40
0.9488454390
40
0.9600125387
40
0.9700426928
40
0.9789388433
40
0.9865208930
40
0.9924379289
40
0.9967055092
40
1.0000000000
40
1.0000000000
40
1.0000000000
40
1.0000000000
10
-8.0180292887
20
-8.4000000000
30
0.0000000000
10
-8.0180405883
20
-8.3860248398
30
0.0000000000
10
-8.0134568328
20
-8.3545609904
30
0.0000000000
10
-7.9896060193
20
-8.3048817789
30
0.0000000000
10
-7.9428333527
20
-8.2514339188
30
0.0000000000
10
-7.8713979724
20
-8.1968586827
30
0.0000000000
10
-7.7770665306
20
-8.1430111992
30
0.0000000000
10
-7.6626342469
20
-8.0912053819
30
0.0000000000
10
-7.5303752250
20
-8.0417388932
30
0.0000000000
10
-7.3811745427
20
-7.9942792607
30
0.0000000000
10
-7.2151418163
20
-7.9484106511
30
0.0000000000
10
-7.0318297665
20
-7.9038124153
30
0.0000000000
10
-6.8305344348
20
-7.8602831082
30
0.0000000000
10
-6.6103930168
20
-7.8177125073
30
0.0000000000
10
-6.3704419275
20
-7.7760630529
30
0.0000000000
10
-6.1094405013
20
-7.7353305796
30
0.0000000000
10
-5.8258139114
20
-7.6955401053
30
0.0000000000
10
-5.5178343413
20
-7.6567900590
30
0.0000000000
10
-5.1836683731
20
-7.6192016053
30
0.0000000000
10
-4.8213382502
20
-7.5829021019
30
0.0000000000
10
-4.4285881582
20
-7.5480920784
30
0.0000000000
10
-4.0028729867
20
-7.5150421373
30
0.0000000000
10
-3.5414199617
20
-7.4841204551
30
0.0000000000
10
-3.0411411473
20
-7.4558077710
30
0.0000000000
10
-2.4986237767
20
-7.4307265636
30
0.0000000000
10
-1.9103379798
20
-7.4095695611
30
0.0000000000
10
-1.2720688206
20
-7.3932347563
30
0.0000000000
10
-0.5785373166
20
-7.3829090369
30
0.0000000000
10
0.1711912460
20
-7.3802762800
30
0.0000000000
10
0.9565166109
20
-7.3871585735
30
0.0000000000
10
1.7329756793
20
-7.4038320516
30
0.0000000000
10
2.4550490909
20
-7.4285081818
30
0.0000000000
10
3.1014768292
20
-7.4586049278
30
0.0000000000
10
3.6769249540
20
-7.4924254517
30
0.0000000000
10
4.1927348419
20
-7.5289812821
30
0.0000000000
10
4.6577471793
20
-7.5676595547
30
0.0000000000
10
5.0782831876
20
-7.6080101934
30
0.0000000000
10
5.4597135035
20
-7.6497657374
30
0.0000000000
10
5.8065298537
20
-7.6928150154
30
0.0000000000
10
6.1224392872
20
-7.7370902631
30
0.0000000000
10
6.4106355681
20
-7.7825590013
30
0.0000000000
10
6.6737066950
20
-7.8292927243
30
0.0000000000
10
6.9134289355
20
-7.8773928522
30
0.0000000000
10
7.1310329213
20
-7.9270171211
30
0.0000000000
10
7.3273799703
20
-7.9784296805
30
0.0000000000
10
7.5030350305
20
-8.0320915486
30
0.0000000000
10
7.6578987502
20
-8.0887266886
30
0.0000000000
10
7.7901903953
20
-8.1489745272
30
0.0000000000
10
7.8956427208
20
-8.2122850733
30
0.0000000000
10
7.9695704563
20
-8.2768285334
30
0.0000000000
10
8.0099963017
20
-8.3402299118
30
0.0000000000
10
8.0180477827
20
-8.3819597303
30
0.0000000000
10
8.0180292887
20
-8.4000000000
30
0.0000000000
11
-8.0180292887
21
-8.4000000000
31
0.0000000000
11
-8.0121220230
21
-8.3584927563
31
0.0000000000
11
-7.9904472711
21
-8.3112770788
31
0.0000000000
11
-7.9460869797
21
-8.2581835203
31
0.0000000000
11
-7.8756289184
21
-8.2023619642
31
0.0000000000
11
-7.7811131674
21
-8.1471492614
31
0.0000000000
11
-7.6667834920
21
-8.0945423748
31
0.0000000000
11
-7.5347808771
21
-8.0445763141
31
0.0000000000
11
-7.3858682440
21
-7.9967734881
31
0.0000000000
11
-7.2201462750
21
-7.9506703983
31
0.0000000000
11
-7.0372947777
21
-7.9059347949
31
0.0000000000
11
-6.8363382492
21
-7.8622750195
31
0.0000000000
11
-6.6165447123
21
-7.8196003695
31
0.0000000000
11
-6.3770804827
21
-7.7778879282
31
0.0000000000
11
-6.1166437641
21
-7.7371132406
31
0.0000000000
11
-5.8336627466
21
-7.6972975159
31
0.0000000000
11
-5.5262966995
21
-7.6585117037
31
0.0000000000
11
-5.1927900854
21
-7.6208851427
31
0.0000000000
11
-4.8312425524
21
-7.5845635663
31
0.0000000000
11
-4.4393703175
21
-7.5497380317
31
0.0000000000
11
-4.0145946139
21
-7.5166748619
31
0.0000000000
11
-3.5541457984
21
-7.4857410965
31
0.0000000000
11
-3.0550573326
21
-7.4574230767
31
0.0000000000
11
-2.5138060181
21
-7.4323175727
31
0.0000000000
11
-1.9266508115
21
-7.4111308337
31
0.0000000000
11
-1.2902638362
21
-7.3947892156
31
0.0000000000
11
-0.5990755729
21
-7.3844696388
31
0.0000000000
11
0.1538411984
21
-7.3818261165
31
0.0000000000
11
0.9587704183
21
-7.3888904422
31
0.0000000000
11
1.7567061101
21
-7.4061090895
31
0.0000000000
11
2.4830454389
21
-7.4310556381
31
0.0000000000
11
3.1248824898
21
-7.4610762319
31
0.0000000000
11
3.6959195536
21
-7.4947530610
31
0.0000000000
11
4.2093364697
21
-7.5312638501
31
0.0000000000
11
4.6722574145
21
-7.5698998232
31
0.0000000000
11
5.0908959995
21
-7.6102074884
31
0.0000000000
11
5.4708710422
21
-7.6519569683
31
0.0000000000
11
5.8164534964
21
-7.6950099612
31
0.0000000000
11
6.1312333381
21
-7.7392858199
31
0.0000000000
11
6.4184677353
21
-7.7847846223
31
0.0000000000
11
6.6808634643
21
-7.8316100062
31
0.0000000000
11
6.9201992046
21
-7.8798883738
31
0.0000000000
11
7.1372877300
21
-7.9297149574
31
0.0000000000
11
7.3331679338
21
-7.9814251969
31
0.0000000000
11
7.5084458369
21
-8.0355674811
31
0.0000000000
11
7.6629076787
21
-8.0929382259
31
0.0000000000
11
7.7953947363
21
-8.1546228045
31
0.0000000000
11
7.9011504919
21
-8.2204239258
31
0.0000000000
11
7.9724397194
21
-8.2865019251
31
0.0000000000
11
8.0082559256
21
-8.3467689335
31
0.0000000000
11
8.0180292887
21
-8.4000000000
31
0.0000000000
0
SPLINE
5
44D
100
AcDbEntity
8
0
100
AcDbSpline
62
9
6
CONTINUOUS
70
0
71
3
72
15
73
11
74
9
42
0.0000001000
43
0.0000001000
44
0.0000000001
12
0.0000000000
22
-3.1415926536
32
0.0000000000
13
0.0000000000
23
3.1415926536
33
0.0000000000
40
0.0000000000
40
0.0000000000
40
0.0000000000
40
0.0000000000
40
0.1250000000
40
0.2500000000
40
0.3750000000
40
0.5000000000
40
0.6250000000
40
0.7500000000
40
0.8750000000
40
1.0000000000
40
1.0000000000
40
1.0000000000
40
1.0000000000
10
-8.0000000000
20
-8.4000000000
30
0.0000000000
10
-8.0000000000
20
-8.5308996939
30
0.0000000000
10
-7.5834549727
20
-8.7926380591
30
0.0000000000
10
-5.8041251562
20
-9.1255178464
30
0.0000000000
10
-3.1411698993
20
-9.3479312425
30
0.0000000000
10
-0.0000000000
20
-9.4260343788
30
0.0000000000
10
3.1411698993
20
-9.3479312425
30
0.0000000000
10
5.8041251562
20
-9.1255178464
30
0.0000000000
10
7.5834549727
20
-8.7926380591
30
0.0000000000
10
8.0000000000
20
-8.5308996939
30
0.0000000000
10
8.0000000000
20
-8.4000000000
30
0.0000000000
11
-8.0000000000
21
-8.4000000000
31
0.0000000000
11
-7.3910362601
21
-8.7826834324
31
0.0000000000
11
-5.6568542495
21
-9.1071067812
31
0.0000000000
11
-3.0614674589
21
-9.3238795325
31
0.0000000000
11
-0.0000000000
21
-9.4000000000
31
0.0000000000
11
3.0614674589
21
-9.3238795325
31
0.0000000000
11
5.6568542495
21
-9.1071067812
31
0.0000000000
11
7.3910362601
21
-8.7826834324
31
0.0000000000
11
8.0000000000
21
-8.4000000000
31
0.0000000000
0
SPLINE
5
44E
100
AcDbEntity
8
0
100
AcDbSpline
62
9
6
CONTINUOUS
70
0
71
3
72
57
73
53
74
51
42
0.0000001000
43
0.0000001000
44
0.0000000001
12
-0.0093441939
22
-16.4270134955
32
0.0000000000
13
-0.0057177915
23
16.4270151580
33
0.0000000000
40
0.0000000000
40
0.0000000000
40
0.0000000000
40
0.0000000000
40
0.0025521814
40
0.0057147107
40
0.0099266991
40
0.0153992435
40
0.0220622739
40
0.0297220479
40
0.0383118469
40
0.0478302591
40
0.0583000084
40
0.0697584436
40
0.0822767863
40
0.0959063064
40
0.1107021104
40
0.1267471534
40
0.1441404251
40
0.1629964280
40
0.1834237085
40
0.2055394616
40
0.2294839106
40
0.2554149347
40
0.2835018533
40
0.3139258976
40
0.3469022462
40
0.3826598593
40
0.4214030847
40
0.4634725988
40
0.5092939543
40
0.5582870784
40
0.6068768466
40
0.6511289066
40
0.6902530230
40
0.7250827603
40
0.7564225662
40
0.7847067675
40
0.8103144849
40
0.8335894008
40
0.8547936711
40
0.8741483396
40
0.8918552810
40
0.9080845091
40
0.9229506855
40
0.9365114747
40
0.9488445710
40
0.9600114156
40
0.9700408991
40
0.9789365698
40
0.9865185506
40
0.9924358770
40
0.9967036821
40
1.0000000000
40
1.0000000000
40
1.0000000000
40
1.0000000000
10
8.0180292887
20
-8.4000000000
30
0.0000000000
10
8.0180213394
20
-8.4139749062
30
0.0000000000
10
8.0133929272
20
-8.4454311144
30
0.0000000000
10
7.9894812097
20
-8.4950796859
30
0.0000000000
10
7.9426597246
20
-8.5484861093
30
0.0000000000
10
7.8711900008
20
-8.6030167138
30
0.0000000000
10
7.7768404495
20
-8.6568144203
30
0.0000000000
10
7.6624110493
20
-8.7085689763
30
0.0000000000
10
7.5301708220
20
-8.7579888756
30
0.0000000000
10
7.3809941131
20
-8.8054083407
30
0.0000000000
10
7.2149806108
20
-8.8512422758
30
0.0000000000
10
7.0316785964
20
-8.8958102362
30
0.0000000000
10
6.8303866740
20
-8.9393114750
30
0.0000000000
10
6.6102501324
20
-8.9818538500
30
0.0000000000
10
6.3703148149
20
-9.0234733827
30
0.0000000000
10
6.1093439321
20
-9.0641743949
30
0.0000000000
10
5.8257605629
20
-9.1039331404
30
0.0000000000
10
5.5178335210
20
-9.1426529077
30
0.0000000000
10
5.1837282846
20
-9.1802132893
30
0.0000000000
10
4.8214677444
20
-9.2164864117
30
0.0000000000
10
4.4287969698
20
-9.2512716159
30
0.0000000000
10
4.0031717684
20
-9.2842983425
30
0.0000000000
10
3.5418204263
20
-9.3151988448
30
0.0000000000
10
3.0416566677
20
-9.3434933721
30
0.0000000000
10
2.4992693691
20
-9.3685611117
30
0.0000000000
10
1.9111293025
20
-9.3897089590
30
0.0000000000
10
1.2730255360
20
-9.4060391925
30
0.0000000000
10
0.5796818110
20
-9.4163663299
30
0.0000000000
10
-0.1698628829
20
-9.4190107043
30
0.0000000000
10
-0.9550886855
20
-9.4121525894
30
0.0000000000
10
-1.7315736077
20
-9.3955072229
30
0.0000000000
10
-2.4537742625
20
-9.3708568148
30
0.0000000000
10
-3.1003482129
20
-9.3407841054
30
0.0000000000
10
-3.6759244067
20
-9.3069886758
30
0.0000000000
10
-4.1918429925
20
-9.2704578384
30
0.0000000000
10
-4.6569524819
20
-9.2318040079
30
0.0000000000
10
-5.0775758745
20
-9.1914775877
30
0.0000000000
10
-5.4590854587
20
-9.1497465592
30
0.0000000000
10
-5.8059740680
20
-9.1067231233
30
0.0000000000
10
-6.1219500213
20
-9.0624746163
30
0.0000000000
10
-6.4102092512
20
-9.0170321288
30
0.0000000000
10
-6.6733402697
20
-8.9703236230
30
0.0000000000
10
-6.9131141462
20
-8.9222485075
30
0.0000000000
10
-7.1307535949
20
-8.8726514306
30
0.0000000000
10
-7.3271171546
20
-8.8212710115
30
0.0000000000
10
-7.5027754906
20
-8.7676476990
30
0.0000000000
10
-7.6576407367
20
-8.7110594390
30
0.0000000000
10
-7.7899436321
20
-8.6508680793
30
0.0000000000
10
-7.8954229295
20
-8.5876163285
30
0.0000000000
10
-7.9693967061
20
-8.5231322526
30
0.0000000000
10
-8.0099050333
20
-8.4597769577
30
0.0000000000
10
-8.0180230062
20
-8.4180495549
30
0.0000000000
10
-8.0180292887
20
-8.4000000000
30
0.0000000000
11
8.0180292887
21
-8.4000000000
31
0.0000000000
11
8.0120648090
21
-8.4414982842
31
0.0000000000
11
7.9903332756
21
-8.4886855540
31
0.0000000000
11
7.9459214250
21
-8.5417411785
31
0.0000000000
11
7.8754214526
21
-8.5975204578
31
0.0000000000
11
7.7808847006
21
-8.6526830963
31
0.0000000000
11
7.6665582339
21
-8.7052373654
31
0.0000000000
11
7.5345777225
21
-8.7551542922
31
0.0000000000
11
7.3856916199
21
-8.8029151543
31
0.0000000000
11
7.2199895019
21
-8.8489830071
31
0.0000000000
11
7.0371475436
21
-8.8936882727
31
0.0000000000
11
6.8361907828
21
-8.9373206734
31
0.0000000000
11
6.6163977070
21
-8.9799679067
31
0.0000000000
11
6.3769477297
21
-9.0216506815
31
0.0000000000
11
6.1165436030
21
-9.0623935972
31
0.0000000000
11
5.8336073734
21
-9.1021774451
31
0.0000000000
11
5.5262936108
21
-9.1409329641
31
0.0000000000
11
5.1928473811
21
-9.1785312773
31
0.0000000000
11
4.8313691264
21
-9.2148263760
31
0.0000000000
11
4.4395758061
21
-9.2496270322
31
0.0000000000
11
4.0148897443
21
-9.2826669739
31
0.0000000000
11
3.5545422141
21
-9.3135796163
31
0.0000000000
11
3.0555678381
21
-9.3418796212
31
0.0000000000
11
2.5144462666
21
-9.3669713814
31
0.0000000000
11
1.9274372615
21
-9.3881487865
31
0.0000000000
11
1.2912113907
21
-9.4044859138
31
0.0000000000
11
0.6002118815
21
-9.4148071950
31
0.0000000000
11
-0.1524915804
21
-9.4174626207
31
0.0000000000
11
-0.9572716334
21
-9.4104229236
31
0.0000000000
11
-1.7552714026
21
-9.3932323948
31
0.0000000000
11
-2.4817733854
21
-9.3683108639
31
0.0000000000
11
-3.1237654639
21
-9.3383140389
31
0.0000000000
11
-3.6949236263
21
-9.3046622828
31
0.0000000000
11
-4.2084485961
21
-9.2681763945
31
0.0000000000
11
-4.6714664868
21
-9.2295648345
31
0.0000000000
11
-5.0901916122
21
-9.1892814764
31
0.0000000000
11
-5.4702454840
21
-9.1475567069
31
0.0000000000
11
-5.8159006445
21
-9.1045294293
31
0.0000000000
11
-6.1307458500
21
-9.0602802345
31
0.0000000000
11
-6.4180416904
21
-9.0148077765
31
0.0000000000
11
-6.6804994644
21
-8.9680071423
31
0.0000000000
11
-6.9198914944
21
-8.9197528567
31
0.0000000000
11
-7.1370170052
21
-8.8699532410
31
0.0000000000
11
-7.3329113622
21
-8.8182760823
31
0.0000000000
11
-7.5081896440
21
-8.7641743200
31
0.0000000000
11
-7.6626510019
21
-8.7068530354
31
0.0000000000
11
-7.7951497861
21
-8.6452263175
31
0.0000000000
11
-7.9009364150
21
-8.5794865070
31
0.0000000000
11
-7.9722808472
21
-8.5134668676
31
0.0000000000
11
-8.0081730560
21
-8.4532440883
31
0.0000000000
11
-8.0180292887
21
-8.4000000000
31
0.0000000000
0
SPLINE
5
44F
100
AcDbEntity
8
0
100
AcDbSpline
62
9
6
CONTINUOUS
70
0
71
3
72
12
73
8
74
6
42
0.0000001000
43
0.0000001000
44
0.0000000001
12
0.0007145491
22
-0.7813571074
32
0.0000000000
13
0.7813571090
23
-0.0007128017
33
0.0000000000
40
0.0000000000
40
0.0000000000
40
0.0000000000
40
0.0000000000
40
0.1998485957
40
0.3997897125
40
0.5998222854
40
0.7999110728
40
1.0000000000
40
1.0000000000
40
1.0000000000
40
1.0000000000
10
-11.0087219643
20
-21.4755923698
30
0.0000000000
10
-11.0086743637
20
-21.5276434101
30
0.0000000000
10
-10.9920032064
20
-21.6324874578
30
0.0000000000
10
-10.9197693684
20
-21.7737928627
30
0.0000000000
10
-10.8073224464
20
-21.8860912544
30
0.0000000000
10
-10.6658548235
20
-21.9582165671
30
0.0000000000
10
-10.5609117519
20
-21.9748595957
30
0.0000000000
10
-10.5087981166
20
-21.9749071370
30
0.0000000000
11
-11.0087219643
21
-21.4755923698
31
0.0000000000
11
-10.9841422864
21
-21.6297989097
31
0.0000000000
11
-10.9130872219
21
-21.7689304222
31
0.0000000000
11
-10.8025023986
21
-21.8793828084
31
0.0000000000
11
-10.6631992385
21
-21.9503553003
31
0.0000000000
11
-10.5087981166
21
-21.9749071370
31
0.0000000000
0
SPLINE
5
450
100
AcDbEntity
8
0
100
AcDbSpline
62
9
6
CONTINUOUS
70
0
71
3
72
10
73
6
74
4
42
0.0000001000
43
0.0000001000
44
0.0000000001
12
0.0308407996
22
41.9945838615
32
0.0000000000
13
-0.0308408117
23
41.9945838615
33
0.0000000000
40
0.0000000000
40
0.0000000000
40
0.0000000000
40
0.0000000000
40
0.3332886949
40
0.6667106342
40
1.0000000000
40
1.0000000000
40
1.0000000000
40
1.0000000000
10
-11.0004589101
20
-20.9972959167
30
0.0000000000
10
-10.9970326135
20
-16.3318559011
30
0.0000000000
10
-10.9924665659
20
-6.9991088406
30
0.0000000000
10
-10.9924665607
20
6.9990900570
30
0.0000000000
10
-10.9970326052
20
16.3318465093
30
0.0000000000
10
-11.0004589101
20
20.9972959167
30
0.0000000000
11
-11.0004589101
21
-20.9972959167
31
0.0000000000
11
-10.9936085333
21
-7.0009737718
31
0.0000000000
11
-10.9936085267
21
7.0009455965
31
0.0000000000
11
-11.0004589101
21
20.9972959167
31
0.0000000000
0
SPLINE
5
451
100
AcDbEntity
8
0
100
AcDbSpline
62
9
6
CONTINUOUS
70
0
71
3
72
56
73
52
74
50
42
0.0000001000
43
0.0000001000
44
0.0000000001
12
-0.0080349278
22
16.4303612060
32
0.0000000000
13
-0.0124026469
23
-16.4303584895
33
0.0000000000
40
0.0000000000
40
0.0000000000
40
0.0000000000
40
0.0000000000
40
0.0026705986
40
0.0060079874
40
0.0104896311
40
0.0163148894
40
0.0233751286
40
0.0314691512
40
0.0405398995
40
0.0505867731
40
0.0616295025
40
0.0737143945
40
0.0869166008
40
0.1012888109
40
0.1169063290
40
0.1338650626
40
0.1522773353
40
0.1722615304
40
0.1939286196
40
0.2174118125
40
0.2428688216
40
0.2704738856
40
0.3004088847
40
0.3328825487
40
0.3681366720
40
0.4063929682
40
0.4479121887
40
0.4932213370
40
0.5421555803
40
0.5922056321
40
0.6385403058
40
0.6796383669
40
0.7160238286
40
0.7486602333
40
0.7780540977
40
0.8046089937
40
0.8286939083
40
0.8506003411
40
0.8705626473
40
0.8887947732
40
0.9054785769
40
0.9207480120
40
0.9346761343
40
0.9473415325
40
0.9588128241
40
0.9691154792
40
0.9782525468
40
0.9860589229
40
0.9921685429
40
0.9965685764
40
1.0000000000
40
1.0000000000
40
1.0000000000
40
1.0000000000
10
-8.0189534620
20
-4.2000000000
30
0.0000000000
10
-8.0189606147
20
-4.1853737001
30
0.0000000000
10
-8.0139291027
20
-4.1522785210
30
0.0000000000
10
-7.9877670283
20
-4.1001830943
30
0.0000000000
10
-7.9367911255
20
-4.0445488193
30
0.0000000000
10
-7.8597023836
20
-3.9881708055
30
0.0000000000
10
-7.7587366528
20
-3.9328696176
30
0.0000000000
10
-7.6369481986
20
-3.8799187430
30
0.0000000000
10
-7.4966485105
20
-3.8294340717
30
0.0000000000
10
-7.3386786436
20
-3.7809968548
30
0.0000000000
10
-7.1630936808
20
-3.7341686048
30
0.0000000000
10
-6.9693680109
20
-3.6886766754
30
0.0000000000
10
-6.7567140988
20
-3.6443477832
30
0.0000000000
10
-6.5241304078
20
-3.6011066230
30
0.0000000000
10
-6.2704757547
20
-3.5589112317
30
0.0000000000
10
-5.9942646987
20
-3.5177233128
30
0.0000000000
10
-5.6937564151
20
-3.4775676613
30
0.0000000000
10
-5.3671139422
20
-3.4385453124
30
0.0000000000
10
-5.0123822325
20
-3.4007758061
30
0.0000000000
10
-4.6273833271
20
-3.3644392409
30
0.0000000000
10
-4.2095873694
20
-3.3297840904
30
0.0000000000
10
-3.7561939859
20
-3.2971533273
30
0.0000000000
10
-3.2641216928
20
-3.2670001155
30
0.0000000000
10
-2.7299186791
20
-3.2399338622
30
0.0000000000
10
-2.1499229366
20
-3.2166499433
30
0.0000000000
10
-1.5201947808
20
-3.1979864839
30
0.0000000000
10
-0.8352412122
20
-3.1850474559
30
0.0000000000
10
-0.0917027410
20
-3.1793866817
30
0.0000000000
10
0.6985746005
20
-3.1830016466
30
0.0000000000
10
1.4943585786
20
-3.1968327446
30
0.0000000000
10
2.2469973931
20
-3.2196550357
30
0.0000000000
10
2.9245157846
20
-3.2487696472
30
0.0000000000
10
3.5267099028
20
-3.2821508963
30
0.0000000000
10
4.0644939135
20
-3.3185654286
30
0.0000000000
10
4.5481201999
20
-3.3572957624
30
0.0000000000
10
4.9845829178
20
-3.3978164018
30
0.0000000000
10
5.3796913649
20
-3.4398005071
30
0.0000000000
10
5.7383159597
20
-3.4830862901
30
0.0000000000
10
6.0644648597
20
-3.5276120048
30
0.0000000000
10
6.3615350007
20
-3.5733647452
30
0.0000000000
10
6.6323481641
20
-3.6204391522
30
0.0000000000
10
6.8789208079
20
-3.6689868422
30
0.0000000000
10
7.1026745886
20
-3.7191387178
30
0.0000000000
10
7.3046035958
20
-3.7711291769
30
0.0000000000
10
7.4853242057
20
-3.8253543553
30
0.0000000000
10
7.6447822946
20
-3.8825247709
30
0.0000000000
10
7.7812643061
20
-3.9433610998
30
0.0000000000
10
7.8904629741
20
-4.0074522649
30
0.0000000000
10
7.9675218572
20
-4.0729966302
30
0.0000000000
10
8.0102953749
20
-4.1379735715
30
0.0000000000
10
8.0189676482
20
-4.1812068265
30
0.0000000000
10
8.0189534620
20
-4.2000000000
30
0.0000000000
11
-8.0189534620
21
-4.2000000000
31
0.0000000000
11
-8.0125209436
21
-4.1565951500
31
0.0000000000
11
-7.9888517207
21
-4.1071321204
31
0.0000000000
11
-7.9404415782
21
-4.0516472007
31
0.0000000000
11
-7.8641997456
21
-3.9937870288
31
0.0000000000
11
-7.7630052816
21
-3.9370753655
31
0.0000000000
11
-7.6413681855
21
-3.8833152207
31
0.0000000000
11
-7.5013292464
21
-3.8323178469
31
0.0000000000
11
-7.3436308684
21
-3.7835267083
31
0.0000000000
11
-7.1684005819
21
-3.7364800439
31
0.0000000000
11
-6.9751550170
21
-3.6908522774
31
0.0000000000
11
-6.7628431210
21
-3.6463925935
31
0.0000000000
11
-6.5307126518
21
-3.6030585128
31
0.0000000000
11
-6.2776151243
21
-3.5607977919
31
0.0000000000
11
-6.0020443369
21
-3.5195672090
31
0.0000000000
11
-5.7022056030
21
-3.4793766320
31
0.0000000000
11
-5.3761905998
21
-3.4403080711
31
0.0000000000
11
-5.0222050375
21
-3.4025072667
31
0.0000000000
11
-4.6380842066
21
-3.3661523860
31
0.0000000000
11
-4.2212555063
21
-3.3314843276
31
0.0000000000
11
-3.7688705842
21
-3.2988397497
31
0.0000000000
11
-3.2779531763
21
-3.2686811010
31
0.0000000000
11
-2.7450868478
21
-3.2415989072
31
0.0000000000
11
-2.1663183443
21
-3.2182807049
31
0.0000000000
11
-1.5380313144
21
-3.1995947504
31
0.0000000000
11
-0.8559779802
21
-3.1866653683
31
0.0000000000
11
-0.1115538385
21
-3.1809918381
31
0.0000000000
11
0.6924451372
21
-3.1846700997
31
0.0000000000
11
1.5146603294
21
-3.1990270466
31
0.0000000000
11
2.2756024141
21
-3.2222220184
31
0.0000000000
11
2.9502295246
21
-3.2513599885
31
0.0000000000
11
3.5471327301
21
-3.2845700303
31
0.0000000000
11
4.0821273001
21
-3.3209191476
31
0.0000000000
11
4.5635273417
21
-3.3596038420
31
0.0000000000
11
4.9979528034
21
-3.4000754926
31
0.0000000000
11
5.3914453661
21
-3.4420398008
31
0.0000000000
11
5.7487630411
21
-3.4853312572
31
0.0000000000
11
6.0737138696
21
-3.5298626853
31
0.0000000000
11
6.3697546070
21
-3.5756485413
31
0.0000000000
11
6.6397877495
21
-3.6228120787
31
0.0000000000
11
6.8858958373
21
-3.6715231703
31
0.0000000000
11
7.1091316713
21
-3.7218758042
31
0.0000000000
11
7.3105569052
21
-3.7741469693
31
0.0000000000
11
7.4909194431
21
-3.8288563680
31
0.0000000000
11
7.6499794380
21
-3.8867735978
31
0.0000000000
11
7.7865878832
21
-3.9490291210
31
0.0000000000
11
7.8961808163
21
-4.0156656406
31
0.0000000000
11
7.9706689142
21
-4.0829584718
31
0.0000000000
11
8.0084198968
21
-4.1446132133
31
0.0000000000
11
8.0189534620
21
-4.2000000000
31
0.0000000000
0
SPLINE
5
452
100
AcDbEntity
8
0
100
AcDbSpline
62
9
6
CONTINUOUS
70
0
71
3
72
10
73
6
74
4
42
0.0000001000
43
0.0000001000
44
0.0000000001
12
0.0308407997
22
42.0366204979
32
0.0000000000
13
-0.0308408119
23
42.0366204979
33
0.0000000000
40
0.0000000000
40
0.0000000000
40
0.0000000000
40
0.0000000000
40
0.3332896861
40
0.6667103140
40
1.0000000000
40
1.0000000000
40
1.0000000000
40
1.0000000000
10
-10.5005350625
20
-21.0183142309
30
0.0000000000
10
-10.4971087557
20
-16.3481902144
30
0.0000000000
10
-10.4925427171
20
-7.0061055510
30
0.0000000000
10
-10.4925427189
20
7.0061055545
30
0.0000000000
10
-10.4971087544
20
16.3481902162
30
0.0000000000
10
-10.5005350625
20
21.0183142309
30
0.0000000000
11
-10.5005350625
21
-21.0183142309
31
0.0000000000
11
-10.4936846755
21
-7.0079400855
31
0.0000000000
11
-10.4936846759
21
7.0079400907
31
0.0000000000
11
-10.5005350625
21
21.0183142309
31
0.0000000000
0
SPLINE
5
453
100
AcDbEntity
8
0
100
AcDbSpline
62
9
6
CONTINUOUS
70
0
71
3
72
12
73
8
74
6
42
0.0000001000
43
0.0000001000
44
0.0000000001
12
0.1919554566
22
-0.4628308739
32
0.0000000000
13
0.5010580608
23
-0.0003673235
33
0.0000000000
40
0.0000000000
40
0.0000000000
40
0.0000000000
40
0.0000000000
40
0.0546097796
40
0.1986040208
40
0.4190274305
40
0.6949392928
40
1.0000000000
40
1.0000000000
40
1.0000000000
40
1.0000000000
10
-11.0004589101
20
-20.9972959167
30
0.0000000000
10
-10.9969646951
20
-21.0057209474
30
0.0000000000
10
-10.9527896784
20
-21.0005048020
30
0.0000000000
10
-10.8928023018
20
-21.0137704013
30
0.0000000000
10
-10.7809060038
20
-21.0135856065
30
0.0000000000
10
-10.6490214516
20
-21.0180276713
30
0.0000000000
10
-10.5514861046
20
-21.0182768782
30
0.0000000000
10
-10.5005350625
20
-21.0183142302
30
0.0000000000
11
-11.0004589101
21
-20.9972959167
31
0.0000000000
11
-10.9738615497
21
-21.0037221553
31
0.0000000000
11
-10.9019464456
21
-21.0095331260
31
0.0000000000
11
-10.7915989726
21
-21.0141724684
31
0.0000000000
11
-10.6533841395
21
-21.0171959974
31
0.0000000000
11
-10.5005350625
21
-21.0183142302
31
0.0000000000
0
SPLINE
5
454
100
AcDbEntity
8
0
100
AcDbSpline
62
9
6
CONTINUOUS
70
0
71
3
72
56
73
52
74
50
42
0.0000001000
43
0.0000001000
44
0.0000000001
12
-0.0032260526
22
-16.4300307872
32
0.0000000000
13
0.0011582748
23
16.4300310631
33
0.0000000000
40
0.0000000000
40
0.0000000000
40
0.0000000000
40
0.0000000000
40
0.0026707147
40
0.0060082371
40
0.0104902970
40
0.0163160896
40
0.0233764017
40
0.0314699610
40
0.0405399102
40
0.0505860758
40
0.0616284872
40
0.0737135988
40
0.0869165217
40
0.1012896049
40
0.1169078278
40
0.1338670377
40
0.1522796234
40
0.1722639914
40
0.1939311310
40
0.2174142706
40
0.2428710937
40
0.2704758007
40
0.3004102512
40
0.3328831348
40
0.3681361843
40
0.4063911125
40
0.4479086262
40
0.4932154764
40
0.5421473658
40
0.5921966694
40
0.6385322584
40
0.6796316255
40
0.7160182267
40
0.7486557510
40
0.7780507292
40
0.8046067111
40
0.8286926943
40
0.8506001792
40
0.8705634667
40
0.8887965621
40
0.9054814590
40
0.9207519251
40
0.9346805469
40
0.9473457051
40
0.9588162174
40
0.9691178942
40
0.9782541101
40
0.9860598007
40
0.9921689269
40
0.9965684219
40
1.0000000000
40
1.0000000000
40
1.0000000000
40
1.0000000000
10
8.0189534620
20
-4.2000000000
30
0.0000000000
10
8.0189505900
20
-4.2146266415
30
0.0000000000
10
8.0138953252
20
-4.2477188781
30
0.0000000000
10
7.9877000659
20
-4.2997994650
30
0.0000000000
10
7.9366966557
20
-4.3554132188
30
0.0000000000
10
7.8595875792
20
-4.4117688585
30
0.0000000000
10
7.7586100064
20
-4.4670447040
30
0.0000000000
10
7.6368207259
20
-4.5199700729
30
0.0000000000
10
7.4965275692
20
-4.5704318075
30
0.0000000000
10
7.3385655906
20
-4.6188490984
30
0.0000000000
10
7.1629843558
20
-4.6656598528
30
0.0000000000
10
6.9692557623
20
-4.7111364839
30
0.0000000000
10
6.7565933106
20
-4.7554514013
30
0.0000000000
10
6.5239992299
20
-4.7986792053
30
0.0000000000
10
6.2703362485
20
-4.8408613574
30
0.0000000000
10
5.9941206439
20
-4.8820359193
30
0.0000000000
10
5.6936114597
20
-4.9221782884
30
0.0000000000
10
5.3669711889
20
-4.9611877187
30
0.0000000000
10
5.0122444540
20
-4.9989445918
30
0.0000000000
10
4.6272532653
20
-5.0352686778
30
0.0000000000
10
4.2094680662
20
-5.0699114683
30
0.0000000000
10
3.7560890218
20
-5.1025301340
30
0.0000000000
10
3.2640352671
20
-5.1326718859
30
0.0000000000
10
2.7298557657
20
-5.1597283110
30
0.0000000000
10
2.1498891150
20
-5.1830043106
30
0.0000000000
10
1.5201962464
20
-5.2016614059
30
0.0000000000
10
0.8352858780
20
-5.2145958551
30
0.0000000000
10
0.0917972624
20
-5.2202547671
30
0.0000000000
10
-0.6984345261
20
-5.2166430689
30
0.0000000000
10
-1.4941905462
20
-5.2028189429
30
0.0000000000
10
-2.2468224609
20
-5.1800053340
30
0.0000000000
10
-2.9243459644
20
-5.1509004959
30
0.0000000000
10
-3.5265480672
20
-5.1175309691
30
0.0000000000
10
-4.0643405154
20
-5.0811289576
30
0.0000000000
10
-4.5479761967
20
-5.0424111089
30
0.0000000000
10
-4.9844491272
20
-5.0019027327
30
0.0000000000
10
-5.3795684405
20
-4.9599307517
30
0.0000000000
10
-5.7382042702
20
-4.9166572736
30
0.0000000000
10
-6.0643647782
20
-4.8721442602
30
0.0000000000
10
-6.3614476100
20
-4.8264043698
30
0.0000000000
10
-6.6322745675
20
-4.7793429000
30
0.0000000000
10
-6.8788593372
20
-4.7308087710
30
0.0000000000
10
-7.1026189102
20
-4.6806716742
30
0.0000000000
10
-7.3045449902
20
-4.6286982426
30
0.0000000000
10
-7.4852560629
20
-4.5744927628
30
0.0000000000
10
-7.6447035628
20
-4.5173456771
30
0.0000000000
10
-7.7811794609
20
-4.4565375817
30
0.0000000000
10
-7.8903797454
20
-4.3924768616
30
0.0000000000
10
-7.9674491377
20
-4.3269644048
30
0.0000000000
10
-8.0102520187
20
-4.2620173655
30
0.0000000000
10
-8.0189547869
20
-4.2187936448
30
0.0000000000
10
-8.0189534620
20
-4.2000000000
30
0.0000000000
11
8.0189534620
21
-4.2000000000
31
0.0000000000
11
8.0124907890
21
-4.2434014021
31
0.0000000000
11
7.9887907173
21
-4.2928508635
31
0.0000000000
11
7.9403513098
21
-4.3483173393
31
0.0000000000
11
7.8640848763
21
-4.4061564081
31
0.0000000000
11
7.7628773953
21
-4.4628424899
31
0.0000000000
11
7.6412398823
21
-4.5165762086
31
0.0000000000
11
7.5012092745
21
-4.5675492840
31
0.0000000000
11
7.3435201250
21
-4.6163196030
31
0.0000000000
11
7.1682942706
21
-4.6633484810
31
0.0000000000
11
6.9750455170
21
-4.7089609801
31
0.0000000000
11
6.7627232331
21
-4.7534071094
31
0.0000000000
11
6.5305805949
21
-4.7967281698
31
0.0000000000
11
6.2774743773
21
-4.8389756638
31
0.0000000000
11
6.0018993627
21
-4.8801928163
31
0.0000000000
11
5.7020598264
21
-4.9203700815
31
0.0000000000
11
5.3760470873
21
-4.9594256470
31
0.0000000000
11
5.0220665717
21
-4.9972137522
31
0.0000000000
11
4.6379532721
21
-5.0335561431
31
0.0000000000
11
4.2211350947
21
-5.0682118629
31
0.0000000000
11
3.7687643734
21
-5.1008443811
31
0.0000000000
11
3.2778652593
21
-5.1309916888
31
0.0000000000
11
2.7450220651
21
-5.1580640279
31
0.0000000000
11
2.1662826101
21
-5.1813741586
31
0.0000000000
11
1.5380305841
21
-5.2000537090
31
0.0000000000
11
0.8560190022
21
-5.2129785750
31
0.0000000000
11
0.1116476533
21
-5.2186504604
31
0.0000000000
11
-0.6922964115
21
-5.2149753428
31
0.0000000000
11
-1.5144828097
21
-5.2006255081
31
0.0000000000
11
-2.2754248120
21
-5.1774392327
31
0.0000000000
11
-2.9500601664
21
-5.1483111447
31
0.0000000000
11
-3.5469706663
21
-5.1151126800
31
0.0000000000
11
-4.0819736535
21
-5.0787759516
31
0.0000000000
11
-4.5633832613
21
-5.0401036808
31
0.0000000000
11
-4.9978189262
21
-4.9996442849
31
0.0000000000
11
-5.3913223986
21
-4.9576921385
31
0.0000000000
11
-5.7486516489
21
-4.9144129911
31
0.0000000000
11
-6.0736138047
21
-4.8698942892
31
0.0000000000
11
-6.3696665386
21
-4.8241213993
31
0.0000000000
11
-6.6397145243
21
-4.7769706462
31
0.0000000000
11
-6.8858372776
21
-4.7282725369
31
0.0000000000
11
-7.1090800539
21
-4.6779344013
31
0.0000000000
11
-7.3105013666
21
-4.6256805651
31
0.0000000000
11
-7.4908528012
21
-4.5709918036
31
0.0000000000
11
-7.6499010326
21
-4.5130992464
31
0.0000000000
11
-7.7865038793
21
-4.4508725046
31
0.0000000000
11
-7.8960998227
21
-4.3842676107
31
0.0000000000
11
-7.9706030229
21
-4.3170066314
31
0.0000000000
11
-8.0083816643
21
-4.2553809253
31
0.0000000000
11
-8.0189534620
21
-4.2000000000
31
0.0000000000
0
SPLINE
5
455
100
AcDbEntity
8
0
100
AcDbSpline
62
9
6
CONTINUOUS
70
0
71
3
72
13
73
9
74
7
42
0.0000001000
43
0.0000001000
44
0.0000000001
12
-0.0003487206
22
0.4784692666
32
0.0000000000
13
-0.1517232156
23
0.4537764059
33
0.0000000000
40
0.0000000000
40
0.0000000000
40
0.0000000000
40
0.0000000000
40
0.2532095848
40
0.4885745110
40
0.6915930751
40
0.8503382364
40
0.9552488215
40
1.0000000000
40
1.0000000000
40
1.0000000000
40
1.0000000000
10
-11.0004589101
20
20.9972959167
30
0.0000000000
10
-11.0004883432
20
21.0376802515
30
0.0000000000
10
-11.0007370348
20
21.1155947072
30
0.0000000000
10
-11.0014333213
20
21.2259272634
30
0.0000000000
10
-11.0029961999
20
21.3210594970
30
0.0000000000
10
-11.0036726342
20
21.3957214398
30
0.0000000000
10
-11.0070626603
20
21.4443888068
30
0.0000000000
10
-11.0064587001
20
21.4688233602
30
0.0000000000
10
-11.0087219643
20
21.4755923698
30
0.0000000000
11
-11.0004589101
21
20.9972959167
31
0.0000000000
11
-11.0008114400
21
21.1184484403
31
0.0000000000
11
-11.0016694038
21
21.2310600856
31
0.0000000000
11
-11.0029790226
21
21.3281894263
31
0.0000000000
11
-11.0046627389
21
21.4041254633
31
0.0000000000
11
-11.0066187988
21
21.4542838409
31
0.0000000000
11
-11.0087219643
21
21.4755923698
31
0.0000000000
0
SPLINE
5
456
100
AcDbEntity
8
0
100
AcDbSpline
62
9
6
CONTINUOUS
70
0
71
3
72
54
73
50
74
48
42
0.0000001000
43
0.0000001000
44
0.0000000001
12
-0.0073457078
22
16.4308539004
32
0.0000000000
13
-0.0066775248
23
-16.4308541855
33
0.0000000000
40
0.0000000000
40
0.0000000000
40
0.0000000000
40
0.0000000000
40
0.0034314050
40
0.0077598638
40
0.0137685985
40
0.0214406789
40
0.0304355281
40
0.0405960333
40
0.0518893421
40
0.0643197163
40
0.0779388872
40
0.0928170359
40
0.1090069554
40
0.1265986977
40
0.1457022710
40
0.1664462492
40
0.1889440893
40
0.2133267781
40
0.2397556550
40
0.2684119198
40
0.2994808631
40
0.3331794666
40
0.3697678876
40
0.4094467726
40
0.4525013809
40
0.4996194751
40
0.5499152478
40
0.5996955983
40
0.6447574238
40
0.6846836060
40
0.7202303624
40
0.7521673545
40
0.7809773604
40
0.8070546338
40
0.8307419250
40
0.8523109134
40
0.8719878777
40
0.8899790358
40
0.9064581500
40
0.9215505214
40
0.9353230862
40
0.9478532936
40
0.9592052906
40
0.9694031036
40
0.9784490931
40
0.9861733558
40
0.9922204156
40
0.9965621029
40
1.0000000000
40
1.0000000000
40
1.0000000000
40
1.0000000000
10
-8.0192614980
20
0.0000000000
30
0.0000000000
10
-8.0192699000
20
0.0187936383
30
0.0000000000
10
-8.0106856330
20
0.0616300831
30
0.0000000000
10
-7.9687193265
20
0.1259379773
30
0.0000000000
10
-7.8932946002
20
0.1908029738
30
0.0000000000
10
-7.7861755019
20
0.2543523120
30
0.0000000000
10
-7.6520279826
20
0.3148025607
30
0.0000000000
10
-7.4951338971
20
0.3716364096
30
0.0000000000
10
-7.3174687990
20
0.4254819806
30
0.0000000000
10
-7.1194930090
20
0.4769887809
30
0.0000000000
10
-6.9008515436
20
0.5265542536
30
0.0000000000
10
-6.6608049691
20
0.5744244718
30
0.0000000000
10
-6.3983299992
20
0.6207185182
30
0.0000000000
10
-6.1121536615
20
0.6655420821
30
0.0000000000
10
-5.8005562369
20
0.7089451211
30
0.0000000000
10
-5.4616652446
20
0.7508727541
30
0.0000000000
10
-5.0934827586
20
0.7912246260
30
0.0000000000
10
-4.6938222649
20
0.8298467400
30
0.0000000000
10
-4.2601167790
20
0.8664986503
30
0.0000000000
10
-3.7894960467
20
0.9008361446
30
0.0000000000
10
-3.2787819144
20
0.9323923629
30
0.0000000000
10
-2.7243626354
20
0.9605299182
30
0.0000000000
10
-2.1225503605
20
0.9845082198
30
0.0000000000
10
-1.4692912285
20
1.0034391341
30
0.0000000000
10
-0.7581988880
20
1.0161524258
30
0.0000000000
10
0.0111444662
20
1.0209149953
30
0.0000000000
10
0.8173263497
20
1.0157525771
30
0.0000000000
10
1.6121136289
20
1.0003490593
30
0.0000000000
10
2.3498698269
20
0.9765659229
30
0.0000000000
10
3.0093910664
20
0.9470850656
30
0.0000000000
10
3.5967308247
20
0.9136000226
30
0.0000000000
10
4.1228828194
20
0.8772067575
30
0.0000000000
10
4.5968572704
20
0.8385964271
30
0.0000000000
10
5.0253228884
20
0.7982501968
30
0.0000000000
10
5.4137848546
20
0.7564668843
30
0.0000000000
10
5.7668164487
20
0.7133956298
30
0.0000000000
10
6.0882309026
20
0.6690947022
30
0.0000000000
10
6.3812935244
20
0.6235668318
30
0.0000000000
10
6.6486910995
20
0.5767121153
30
0.0000000000
10
6.8923148819
20
0.5283837230
30
0.0000000000
10
7.1134997461
20
0.4784557309
30
0.0000000000
10
7.3131748810
20
0.4266947244
30
0.0000000000
10
7.4919167109
20
0.3727038076
30
0.0000000000
10
7.6496316104
20
0.3157722448
30
0.0000000000
10
7.7845678254
20
0.2551971179
30
0.0000000000
10
7.8924571167
20
0.1914246364
30
0.0000000000
10
7.9684263515
20
0.1263097469
30
0.0000000000
10
8.0106459202
20
0.0617751015
30
0.0000000000
10
8.0192691502
20
0.0188291951
30
0.0000000000
10
8.0192614980
20
0.0000000000
30
0.0000000000
11
-8.0192614980
21
0.0000000000
31
0.0000000000
11
-8.0087316729
21
0.0553889068
31
0.0000000000
11
-7.9717743379
21
0.1161527916
31
0.0000000000
11
-7.8988466768
21
0.1827027958
31
0.0000000000
11
-7.7914480215
21
0.2487055312
31
0.0000000000
11
-7.6572132012
21
0.3105424425
31
0.0000000000
11
-7.5005351532
21
0.3681869339
31
0.0000000000
11
-7.3231175341
21
0.4225471142
31
0.0000000000
11
-7.1255548623
21
0.4743511264
31
0.0000000000
11
-6.9073847607
21
0.5241195042
31
0.0000000000
11
-6.6676919676
21
0.5721653636
31
0.0000000000
11
-6.4057581692
21
0.6185793161
31
0.0000000000
11
-6.1202203828
21
0.6634854226
31
0.0000000000
11
-5.8093553950
21
0.7069442478
31
0.0000000000
11
-5.4711110419
21
0.7489389541
31
0.0000000000
11
-5.1036673003
21
0.7893455895
31
0.0000000000
11
-4.7049080896
21
0.8280009505
31
0.0000000000
11
-4.2722105910
21
0.8646768330
31
0.0000000000
11
-3.8026191705
21
0.8990388077
31
0.0000000000
11
-3.2931068895
21
0.9306074656
31
0.0000000000
11
-2.7401264452
21
0.9587654028
31
0.0000000000
11
-2.1394276874
21
0.9827917300
31
0.0000000000
11
-1.4877452897
21
1.0017475342
31
0.0000000000
11
-0.7804350924
21
1.0144388940
31
0.0000000000
11
-0.0062593500
21
1.0192352321
31
0.0000000000
11
0.8201262490
21
1.0139383374
31
0.0000000000
11
1.6379048956
21
0.9980102985
31
0.0000000000
11
2.3779208746
21
0.9740323105
31
0.0000000000
11
3.0332814244
21
0.9445952810
31
0.0000000000
11
3.6163915554
21
0.9112353298
31
0.0000000000
11
4.1398844509
21
0.8749040940
31
0.0000000000
11
4.6116841248
21
0.8363410618
31
0.0000000000
11
5.0382560856
21
0.7960354578
31
0.0000000000
11
5.4252105172
21
0.7542643799
31
0.0000000000
11
5.7769796603
21
0.7111870570
31
0.0000000000
11
6.0972384451
21
0.6668784580
31
0.0000000000
11
6.3893158342
21
0.6213137628
31
0.0000000000
11
6.6559804500
21
0.5743650752
31
0.0000000000
11
6.8991729091
21
0.5258697868
31
0.0000000000
11
7.1198461171
21
0.4757422220
31
0.0000000000
11
7.3190412733
21
0.4236970545
31
0.0000000000
11
7.4974320594
21
0.3692216884
31
0.0000000000
11
7.6547517366
21
0.3115461478
31
0.0000000000
11
7.7898385267
21
0.2495507388
31
0.0000000000
11
7.8980731084
21
0.1832709639
31
0.0000000000
11
7.9715639332
21
0.1164040547
31
0.0000000000
11
8.0086927028
21
0.0554900747
31
0.0000000000
11
8.0192614980
21
0.0000000000
31
0.0000000000
0
SPLINE
5
457
100
AcDbEntity
8
0
100
AcDbSpline
62
9
6
CONTINUOUS
70
0
71
3
72
13
73
9
74
7
42
0.0000001000
43
0.0000001000
44
0.0000000001
12
-0.0003449115
22
0.9566793721
32
0.0000000000
13
-0.1577707732
23
0.9435803745
33
0.0000000000
40
0.0000000000
40
0.0000000000
40
0.0000000000
40
0.0000000000
40
0.2530310260
40
0.4882997269
40
0.6913336956
40
0.8501745167
40
0.9551752019
40
1.0000000000
40
1.0000000000
40
1.0000000000
40
1.0000000000
10
-10.5005350625
20
21.0183142309
30
0.0000000000
10
-10.5005641536
20
21.0990040853
30
0.0000000000
10
-10.5008152485
20
21.2547151132
30
0.0000000000
10
-10.5015012526
20
21.4751932123
30
0.0000000000
10
-10.5030911067
20
21.6655626178
30
0.0000000000
10
-10.5036915785
20
21.8145717156
30
0.0000000000
10
-10.5072303685
20
21.9127237242
30
0.0000000000
10
-10.5064407690
20
21.9608085373
30
0.0000000000
10
-10.5087981167
20
21.9749071372
30
0.0000000000
11
-10.5005350625
21
21.0183142309
31
0.0000000000
11
-10.5008870654
21
21.2603835538
31
0.0000000000
11
-10.5017441538
21
21.4854586496
31
0.0000000000
11
-10.5030519894
21
21.6796926689
31
0.0000000000
11
-10.5047341778
21
21.8316431047
31
0.0000000000
11
-10.5066888073
21
21.9320760821
31
0.0000000000
11
-10.5087981167
21
21.9749071372
31
0.0000000000
0
SPLINE
5
458
100
AcDbEntity
8
0
100
AcDbSpline
62
9
6
CONTINUOUS
70
0
71
3
72
12
73
8
74
6
42
0.0000001000
43
0.0000001000
44
0.0000000001
12
0.1920144796
22
0.4628063375
32
0.0000000000
13
0.5010580120
23
0.0003673725
33
0.0000000000
40
0.0000000000
40
0.0000000000
40
0.0000000000
40
0.0000000000
40
0.0546111894
40
0.1986060630
40
0.4190293170
40
0.6949404067
40
1.0000000000
40
1.0000000000
40
1.0000000000
40
1.0000000000
10
-11.0004589101
20
20.9972959167
30
0.0000000000
10
-10.9969635304
20
21.0057207182
30
0.0000000000
10
-10.9527903228
20
21.0005049635
30
0.0000000000
10
-10.8928006189
20
21.0137700305
30
0.0000000000
10
-10.7809054436
20
21.0135854735
30
0.0000000000
10
-10.6490208276
20
21.0180273997
30
0.0000000000
10
-10.5514859137
20
21.0182766372
30
0.0000000000
10
-10.5005350625
20
21.0183139940
30
0.0000000000
11
-11.0004589101
21
20.9972959167
31
0.0000000000
11
-10.9738608069
21
21.0037220776
31
0.0000000000
11
-10.9019453861
21
21.0095329760
31
0.0000000000
11
-10.7915979997
21
21.0141722630
31
0.0000000000
11
-10.6533835666
21
21.0171957618
31
0.0000000000
11
-10.5005350625
21
21.0183139940
31
0.0000000000
0
SPLINE
5
459
100
AcDbEntity
8
0
100
AcDbSpline
62
9
6
CONTINUOUS
70
0
71
3
72
54
73
50
74
48
42
0.0000001000
43
0.0000001000
44
0.0000000001
12
0.0073448373
22
-16.4308528206
32
0.0000000000
13
0.0066881835
23
16.4308531011
33
0.0000000000
40
0.0000000000
40
0.0000000000
40
0.0000000000
40
0.0000000000
40
0.0034299644
40
0.0077612640
40
0.0137749469
40
0.0214499289
40
0.0304458216
40
0.0406057791
40
0.0518982336
40
0.0643277215
40
0.0779455939
40
0.0928218220
40
0.1090092584
40
0.1265979504
40
0.1456977743
40
0.1664371823
40
0.1889296079
40
0.2133059833
40
0.2397275108
40
0.2683752423
40
0.2994343449
40
0.3331215694
40
0.3696968487
40
0.4093609878
40
0.4523981609
40
0.4994956655
40
0.5497763465
40
0.5995597727
40
0.6446338475
40
0.6845723971
40
0.7201294703
40
0.7520759108
40
0.7808946649
40
0.8069800259
40
0.8306748340
40
0.8522509199
40
0.8719345572
40
0.8899319966
40
0.9064170675
40
0.9215151960
40
0.9352933628
40
0.9478288920
40
0.9591860032
40
0.9693886669
40
0.9784391940
40
0.9861677926
40
0.9922185277
40
0.9965610051
40
1.0000000000
40
1.0000000000
40
1.0000000000
40
1.0000000000
10
8.0192614980
20
0.0000000000
30
0.0000000000
10
8.0192698955
20
-0.0187857466
30
0.0000000000
10
8.0106880936
20
-0.0616298058
30
0.0000000000
10
7.9686995962
20
-0.1259683060
30
0.0000000000
10
7.8932183539
20
-0.1908586904
30
0.0000000000
10
7.7860487135
20
-0.2544176390
30
0.0000000000
10
7.6518782761
20
-0.3148620909
30
0.0000000000
10
7.4949827468
20
-0.3716857333
30
0.0000000000
10
7.3173277080
20
-0.4255211018
30
0.0000000000
10
7.1193668577
20
-0.4770190435
30
0.0000000000
10
6.9007466004
20
-0.5265762261
30
0.0000000000
10
6.6607302487
20
-0.5744381562
30
0.0000000000
10
6.3982953101
20
-0.6207239676
30
0.0000000000
10
6.1121691998
20
-0.6655394741
30
0.0000000000
10
5.8006335808
20
-0.7089346410
30
0.0000000000
10
5.4618174738
20
-0.7508546884
30
0.0000000000
10
5.0937240354
20
-0.7911994321
30
0.0000000000
10
4.6941679240
20
-0.8298151030
30
0.0000000000
10
4.2605840077
20
-0.8664615036
30
0.0000000000
10
3.7901042644
20
-0.9007947651
30
0.0000000000
10
3.2795532848
20
-0.9323484853
30
0.0000000000
10
2.7253224834
20
-0.9604859448
30
0.0000000000
10
2.1237256058
20
-0.9844671724
30
0.0000000000
10
1.4707150641
20
-1.0034050193
30
0.0000000000
10
0.7599120783
20
-1.0161307703
30
0.0000000000
10
-0.0091401508
20
-1.0209140915
30
0.0000000000
10
-0.8151435597
20
-1.0157801339
30
0.0000000000
10
-1.6099326186
20
-1.0004053084
30
0.0000000000
10
-2.3478412290
20
-0.9766441034
30
0.0000000000
10
-3.0075546352
20
-0.9471785723
30
0.0000000000
10
-3.5950712772
20
-0.9137048257
30
0.0000000000
10
-4.1213803593
20
-0.8773199511
30
0.0000000000
10
-4.5954997047
20
-0.8387156438
30
0.0000000000
10
-5.0240996528
20
-0.7983735570
30
0.0000000000
10
-5.4126869277
20
-0.7565928539
30
0.0000000000
10
-5.7658361184
20
-0.7135229706
30
0.0000000000
10
-6.0873614225
20
-0.6692221278
30
0.0000000000
10
-6.3805286756
20
-0.6236932027
30
0.0000000000
10
-6.6480259125
20
-0.5768363370
30
0.0000000000
10
-6.8917456616
20
-0.5285044207
30
0.0000000000
10
-7.1130230124
20
-0.4785713197
30
0.0000000000
10
-7.3127871143
20
-0.4268035524
30
0.0000000000
10
-7.4916138365
20
-0.3728041945
30
0.0000000000
10
-7.6494094008
20
-0.3158623074
30
0.0000000000
10
-7.7844219272
20
-0.2552734909
30
0.0000000000
10
-7.8923795940
20
-0.1914817888
30
0.0000000000
10
-7.9683963050
20
-0.1263469405
30
0.0000000000
10
-8.0106407347
20
-0.0617916311
30
0.0000000000
10
-8.0192691649
20
-0.0188352069
30
0.0000000000
10
-8.0192614980
20
0.0000000000
30
0.0000000000
11
8.0192614980
21
0.0000000000
31
0.0000000000
11
8.0087403118
21
-0.0553664499
31
0.0000000000
11
7.9717594144
21
-0.1161706323
31
0.0000000000
11
7.8987621522
21
-0.1827649688
31
0.0000000000
11
7.7913129926
21
-0.2487765630
31
0.0000000000
11
7.6570561396
21
-0.3106065999
31
0.0000000000
11
7.5003828086
21
-0.3682378160
31
0.0000000000
11
7.3229765036
21
-0.4225869644
31
0.0000000000
11
7.1254266592
21
-0.4743824249
31
0.0000000000
11
6.9072765869
21
-0.5241426130
31
0.0000000000
11
6.6676142950
21
-0.5721799941
31
0.0000000000
11
6.4057204721
21
-0.6185856077
31
0.0000000000
11
6.1202321758
21
-0.6634836736
31
0.0000000000
11
5.8094283148
21
-0.7069346350
31
0.0000000000
11
5.4712587030
21
-0.7489216867
31
0.0000000000
11
5.1039036981
21
-0.7893211508
31
0.0000000000
11
4.7052481099
21
-0.8279700701
31
0.0000000000
11
4.2726713646
21
-0.8646404442
31
0.0000000000
11
3.8032202483
21
-0.8989981721
31
0.0000000000
11
3.2938698474
21
-0.9305643532
31
0.0000000000
11
2.7410766412
21
-0.9587221464
31
0.0000000000
11
2.1405941396
21
-0.9827513213
31
0.0000000000
11
1.4891543799
21
-1.0017141870
31
0.0000000000
11
0.7821309741
21
-1.0144180168
31
0.0000000000
11
0.0082937233
21
-1.0192349984
31
0.0000000000
11
-0.8178440371
21
-1.0139677950
31
0.0000000000
11
-1.6356737358
21
-0.9980685515
31
0.0000000000
11
-2.3758917032
21
-0.9741110969
31
0.0000000000
11
-3.0314562797
21
-0.9446887095
31
0.0000000000
11
-3.6147368191
21
-0.9113402336
31
0.0000000000
11
-4.1383858820
21
-0.8750174009
31
0.0000000000
11
-4.6103302317
21
-0.8364603488
31
0.0000000000
11
-5.0370360340
21
-0.7961588802
31
0.0000000000
11
-5.4241149524
21
-0.7543904695
31
0.0000000000
11
-5.7760017195
21
-0.7113144389
31
0.0000000000
11
-6.0963711788
21
-0.6670059017
31
0.0000000000
11
-6.3885528433
21
-0.6214401796
31
0.0000000000
11
-6.6553164536
21
-0.5744894123
31
0.0000000000
11
-6.8986046508
21
-0.5259906075
31
0.0000000000
11
-7.1193710318
21
-0.4758577516
31
0.0000000000
11
-7.3186547977
21
-0.4238058816
31
0.0000000000
11
-7.4971308172
21
-0.3693219550
31
0.0000000000
11
-7.6545314723
21
-0.3116357807
31
0.0000000000
11
-7.7896939263
21
-0.2496265178
31
0.0000000000
11
-7.8979989315
21
-0.1833253445
31
0.0000000000
11
-7.9715437810
21
-0.1164280901
31
0.0000000000
11
-8.0086861084
21
-0.0555071782
31
0.0000000000
11
-8.0192614980
21
0.0000000000
31
0.0000000000
0
SPLINE
5
45A
100
AcDbEntity
8
0
100
AcDbSpline
62
9
6
CONTINUOUS
70
0
71
3
72
54
73
50
74
48
42
0.0000001000
43
0.0000001000
44
0.0000000001
12
-0.0104838085
22
-17.0577306099
32
0.0000000000
13
-0.0078096601
23
17.0577320438
33
0.0000000000
40
0.0000000000
40
0.0000000000
40
0.0000000000
40
0.0000000000
40
0.0075607190
40
0.0155843681
40
0.0242012812
40
0.0333555227
40
0.0431539703
40
0.0537078261
40
0.0651363484
40
0.0775304490
40
0.0909878895
40
0.1056022169
40
0.1214389003
40
0.1385939781
40
0.1571815110
40
0.1773307090
40
0.1991536780
40
0.2227801721
40
0.2483686448
40
0.2760961804
40
0.3061434873
40
0.3387211406
40
0.3740796389
40
0.4124146848
40
0.4540032926
40
0.4995129422
40
0.5480983811
40
0.5962069749
40
0.6397735000
40
0.6783890314
40
0.7127819553
40
0.7436969214
40
0.7716021631
40
0.7968806490
40
0.8198661579
40
0.8408245588
40
0.8599769519
40
0.8775274980
40
0.8936522279
40
0.9084814218
40
0.9220940505
40
0.9345901680
40
0.9460796132
40
0.9566711982
40
0.9665199938
40
0.9757283014
40
0.9843878689
40
0.9924189699
40
1.0000000000
40
1.0000000000
40
1.0000000000
40
1.0000000000
10
8.2192310370
20
0.0000000000
30
0.0000000000
10
8.2192046153
20
-0.0429895694
30
0.0000000000
10
8.2021948840
20
-0.1324177205
30
0.0000000000
10
8.1284432093
20
-0.2515656762
30
0.0000000000
10
8.0175243768
20
-0.3496531133
30
0.0000000000
10
7.8825705332
20
-0.4303486194
30
0.0000000000
10
7.7295131462
20
-0.4996288781
30
0.0000000000
10
7.5595313765
20
-0.5612913055
30
0.0000000000
10
7.3724269304
20
-0.6180623912
30
0.0000000000
10
7.1672514383
20
-0.6714772865
30
0.0000000000
10
6.9428358461
20
-0.7223806653
30
0.0000000000
10
6.6979784065
20
-0.7712340535
30
0.0000000000
10
6.4313939967
20
-0.8182758159
30
0.0000000000
10
6.1416389611
20
-0.8636811685
30
0.0000000000
10
5.8268712101
20
-0.9075462912
30
0.0000000000
10
5.4851300594
20
-0.9498476671
30
0.0000000000
10
5.1143532227
20
-0.9905040487
30
0.0000000000
10
4.7123024662
20
-1.0293777571
30
0.0000000000
10
4.2763598458
20
-1.0662390303
30
0.0000000000
10
3.8036115762
20
-1.1007523050
30
0.0000000000
10
3.2908440286
20
-1.1324560242
30
0.0000000000
10
2.7344248671
20
-1.1607164460
30
0.0000000000
10
2.1306443732
20
-1.1847950697
30
0.0000000000
10
1.4754229526
20
-1.2038049428
30
0.0000000000
10
0.7623195587
20
-1.2165772774
30
0.0000000000
10
-0.0091700402
20
-1.2213772255
30
0.0000000000
10
-0.8177339894
20
-1.2162254033
30
0.0000000000
10
-1.6151168364
20
-1.2007937746
30
0.0000000000
10
-2.3555735332
20
-1.1769403913
30
0.0000000000
10
-3.0177645751
20
-1.1473511970
30
0.0000000000
10
-3.6077209287
20
-1.1137245867
30
0.0000000000
10
-4.1364723953
20
-1.0771554280
30
0.0000000000
10
-4.6130836814
20
-1.0383319422
30
0.0000000000
10
-5.0442795797
20
-0.9977275258
30
0.0000000000
10
-5.4356268142
20
-0.9556324066
30
0.0000000000
10
-5.7917586816
20
-0.9121780227
30
0.0000000000
10
-6.1165591556
20
-0.8674061701
30
0.0000000000
10
-6.4133875161
20
-0.8212870270
30
0.0000000000
10
-6.6850585530
20
-0.7736741063
30
0.0000000000
10
-6.9336387223
20
-0.7243527310
30
0.0000000000
10
-7.1607223574
20
-0.6730761522
30
0.0000000000
10
-7.3676996218
20
-0.6194007052
30
0.0000000000
10
-7.5559506894
20
-0.5624803768
30
0.0000000000
10
-7.7268052675
20
-0.5007392222
30
0.0000000000
10
-7.8806903832
20
-0.4313316406
30
0.0000000000
10
-8.0165194295
20
-0.3504685478
30
0.0000000000
10
-8.1280205222
20
-0.2521142343
30
0.0000000000
10
-8.2020747670
20
-0.1326891307
30
0.0000000000
10
-8.2192113019
20
-0.0431050598
30
0.0000000000
10
-8.2192310370
20
0.0000000000
30
0.0000000000
11
8.2192310370
21
0.0000000000
31
0.0000000000
11
8.1955255389
21
-0.1267713821
31
0.0000000000
11
8.1254050185
21
-0.2443095250
31
0.0000000000
11
8.0173489858
21
-0.3439513185
31
0.0000000000
11
7.8844319099
21
-0.4259029203
31
0.0000000000
11
7.7326705782
21
-0.4959318255
31
0.0000000000
11
7.5637320721
21
-0.5581309624
31
0.0000000000
11
7.3773489254
21
-0.6152689989
31
0.0000000000
11
7.1728530556
21
-0.6689146474
31
0.0000000000
11
6.9490533586
21
-0.7199878943
31
0.0000000000
11
6.7046318445
21
-0.7690010005
31
0.0000000000
11
6.4386409264
21
-0.8161532290
31
0.0000000000
11
6.1495701496
21
-0.8616340153
31
0.0000000000
11
5.8355651943
21
-0.9055508107
31
0.0000000000
11
5.4944866643
21
-0.9479169596
31
0.0000000000
11
5.1244689251
21
-0.9886260556
31
0.0000000000
11
4.7233367283
21
-1.0275311465
31
0.0000000000
11
4.2884165728
21
-1.0644151963
31
0.0000000000
11
3.8167102927
21
-1.0989519363
31
0.0000000000
11
3.3051535438
21
-1.1306675618
31
0.0000000000
11
2.7501727025
21
-1.1589482748
31
0.0000000000
11
2.1475195736
21
-1.1830742664
31
0.0000000000
11
1.4938876565
21
-1.2021086968
31
0.0000000000
11
0.7845948349
21
-1.2148584450
31
0.0000000000
11
0.0083183955
21
-1.2196923291
31
0.0000000000
11
-0.8204222344
21
-1.2144066627
31
0.0000000000
11
-1.6408906657
21
-1.1984496464
31
0.0000000000
11
-2.3836476091
21
-1.1744001240
31
0.0000000000
11
-3.0416781141
21
-1.1448548047
31
0.0000000000
11
-3.6273861662
21
-1.1113540638
31
0.0000000000
11
-4.1534603292
21
-1.0748482501
31
0.0000000000
11
-4.6278785845
21
-1.0360733210
31
0.0000000000
11
-5.0571602562
21
-0.9955117715
31
0.0000000000
11
-5.4469761925
21
-0.9534308249
31
0.0000000000
11
-5.8018278486
21
-0.9099731325
31
0.0000000000
11
-6.1254413436
21
-0.8651974735
31
0.0000000000
11
-6.4212355706
21
-0.8190488548
31
0.0000000000
11
-6.6921197470
21
-0.7713518101
31
0.0000000000
11
-6.9401869688
21
-0.7218786652
31
0.0000000000
11
-7.1666172791
21
-0.6704351844
31
0.0000000000
11
-7.3728468011
21
-0.6165405777
31
0.0000000000
11
-7.5602803766
21
-0.5592837598
31
0.0000000000
11
-7.7298981720
21
-0.4970673002
31
0.0000000000
11
-7.8825403680
21
-0.4268979846
31
0.0000000000
11
-8.0163831240
21
-0.3446909271
31
0.0000000000
11
-8.1250914221
21
-0.2446833423
31
0.0000000000
11
-8.1953778073
21
-0.1270961942
31
0.0000000000
11
-8.2192310370
21
0.0000000000
31
0.0000000000
0
SPLINE
5
45B
100
AcDbEntity
8
0
100
AcDbSpline
62
9
6
CONTINUOUS
70
0
71
3
72
56
73
52
74
50
42
0.0000001000
43
0.0000001000
44
0.0000000001
12
0.0032260526
22
16.4300307872
32
0.0000000000
13
-0.0011582748
23
-16.4300310631
33
0.0000000000
40
0.0000000000
40
0.0000000000
40
0.0000000000
40
0.0000000000
40
0.0026707147
40
0.0060082371
40
0.0104902970
40
0.0163160896
40
0.0233764017
40
0.0314699610
40
0.0405399102
40
0.0505860758
40
0.0616284872
40
0.0737135987
40
0.0869165217
40
0.1012896049
40
0.1169078278
40
0.1338670377
40
0.1522796233
40
0.1722639914
40
0.1939311310
40
0.2174142706
40
0.2428710937
40
0.2704758007
40
0.3004102512
40
0.3328831348
40
0.3681361843
40
0.4063911125
40
0.4479086262
40
0.4932154764
40
0.5421473658
40
0.5921966693
40
0.6385322584
40
0.6796316255
40
0.7160182266
40
0.7486557510
40
0.7780507292
40
0.8046067111
40
0.8286926943
40
0.8506001792
40
0.8705634667
40
0.8887965621
40
0.9054814590
40
0.9207519251
40
0.9346805469
40
0.9473457051
40
0.9588162174
40
0.9691178942
40
0.9782541101
40
0.9860598007
40
0.9921689269
40
0.9965684219
40
1.0000000000
40
1.0000000000
40
1.0000000000
40
1.0000000000
10
-8.0189534620
20
4.2000000000
30
0.0000000000
10
-8.0189505900
20
4.2146266415
30
0.0000000000
10
-8.0138953252
20
4.2477188781
30
0.0000000000
10
-7.9877000659
20
4.2997994650
30
0.0000000000
10
-7.9366966557
20
4.3554132187
30
0.0000000000
10
-7.8595875792
20
4.4117688585
30
0.0000000000
10
-7.7586100064
20
4.4670447040
30
0.0000000000
10
-7.6368207259
20
4.5199700729
30
0.0000000000
10
-7.4965275692
20
4.5704318075
30
0.0000000000
10
-7.3385655907
20
4.6188490984
30
0.0000000000
10
-7.1629843558
20
4.6656598528
30
0.0000000000
10
-6.9692557624
20
4.7111364839
30
0.0000000000
10
-6.7565933107
20
4.7554514012
30
0.0000000000
10
-6.5239992300
20
4.7986792053
30
0.0000000000
10
-6.2703362487
20
4.8408613573
30
0.0000000000
10
-5.9941206441
20
4.8820359193
30
0.0000000000
10
-5.6936114599
20
4.9221782884
30
0.0000000000
10
-5.3669711891
20
4.9611877187
30
0.0000000000
10
-5.0122444542
20
4.9989445918
30
0.0000000000
10
-4.6272532655
20
5.0352686778
30
0.0000000000
10
-4.2094680664
20
5.0699114682
30
0.0000000000
10
-3.7560890221
20
5.1025301340
30
0.0000000000
10
-3.2640352674
20
5.1326718859
30
0.0000000000
10
-2.7298557661
20
5.1597283110
30
0.0000000000
10
-2.1498891153
20
5.1830043106
30
0.0000000000
10
-1.5201962467
20
5.2016614059
30
0.0000000000
10
-0.8352858783
20
5.2145958551
30
0.0000000000
10
-0.0917972628
20
5.2202547671
30
0.0000000000
10
0.6984345257
20
5.2166430689
30
0.0000000000
10
1.4941905459
20
5.2028189429
30
0.0000000000
10
2.2468224606
20
5.1800053340
30
0.0000000000
10
2.9243459641
20
5.1509004959
30
0.0000000000
10
3.5265480669
20
5.1175309691
30
0.0000000000
10
4.0643405152
20
5.0811289577
30
0.0000000000
10
4.5479761965
20
5.0424111089
30
0.0000000000
10
4.9844491270
20
5.0019027327
30
0.0000000000
10
5.3795684404
20
4.9599307517
30
0.0000000000
10
5.7382042701
20
4.9166572736
30
0.0000000000
10
6.0643647781
20
4.8721442602
30
0.0000000000
10
6.3614476099
20
4.8264043698
30
0.0000000000
10
6.6322745675
20
4.7793429000
30
0.0000000000
10
6.8788593372
20
4.7308087710
30
0.0000000000
10
7.1026189101
20
4.6806716742
30
0.0000000000
10
7.3045449902
20
4.6286982426
30
0.0000000000
10
7.4852560629
20
4.5744927629
30
0.0000000000
10
7.6447035628
20
4.5173456771
30
0.0000000000
10
7.7811794609
20
4.4565375817
30
0.0000000000
10
7.8903797454
20
4.3924768616
30
0.0000000000
10
7.9674491377
20
4.3269644048
30
0.0000000000
10
8.0102520187
20
4.2620173655
30
0.0000000000
10
8.0189547869
20
4.2187936448
30
0.0000000000
10
8.0189534620
20
4.2000000000
30
0.0000000000
11
-8.0189534620
21
4.2000000000
31
0.0000000000
11
-8.0124907890
21
4.2434014021
31
0.0000000000
11
-7.9887907173
21
4.2928508635
31
0.0000000000
11
-7.9403513098
21
4.3483173393
31
0.0000000000
11
-7.8640848763
21
4.4061564081
31
0.0000000000
11
-7.7628773953
21
4.4628424899
31
0.0000000000
11
-7.6412398823
21
4.5165762086
31
0.0000000000
11
-7.5012092745
21
4.5675492839
31
0.0000000000
11
-7.3435201250
21
4.6163196029
31
0.0000000000
11
-7.1682942707
21
4.6633484809
31
0.0000000000
11
-6.9750455171
21
4.7089609801
31
0.0000000000
11
-6.7627232332
21
4.7534071094
31
0.0000000000
11
-6.5305805950
21
4.7967281698
31
0.0000000000
11
-6.2774743774
21
4.8389756638
31
0.0000000000
11
-6.0018993629
21
4.8801928163
31
0.0000000000
11
-5.7020598266
21
4.9203700815
31
0.0000000000
11
-5.3760470875
21
4.9594256470
31
0.0000000000
11
-5.0220665719
21
4.9972137522
31
0.0000000000
11
-4.6379532724
21
5.0335561430
31
0.0000000000
11
-4.2211350949
21
5.0682118629
31
0.0000000000
11
-3.7687643737
21
5.1008443810
31
0.0000000000
11
-3.2778652596
21
5.1309916888
31
0.0000000000
11
-2.7450220654
21
5.1580640279
31
0.0000000000
11
-2.1662826104
21
5.1813741586
31
0.0000000000
11
-1.5380305844
21
5.2000537090
31
0.0000000000
11
-0.8560190026
21
5.2129785750
31
0.0000000000
11
-0.1116476537
21
5.2186504604
31
0.0000000000
11
0.6922964110
21
5.2149753428
31
0.0000000000
11
1.5144828093
21
5.2006255081
31
0.0000000000
11
2.2754248116
21
5.1774392327
31
0.0000000000
11
2.9500601661
21
5.1483111447
31
0.0000000000
11
3.5469706660
21
5.1151126800
31
0.0000000000
11
4.0819736533
21
5.0787759516
31
0.0000000000
11
4.5633832611
21
5.0401036808
31
0.0000000000
11
4.9978189261
21
4.9996442849
31
0.0000000000
11
5.3913223985
21
4.9576921385
31
0.0000000000
11
5.7486516488
21
4.9144129911
31
0.0000000000
11
6.0736138046
21
4.8698942892
31
0.0000000000
11
6.3696665385
21
4.8241213993
31
0.0000000000
11
6.6397145242
21
4.7769706463
31
0.0000000000
11
6.8858372776
21
4.7282725369
31
0.0000000000
11
7.1090800539
21
4.6779344013
31
0.0000000000
11
7.3105013665
21
4.6256805651
31
0.0000000000
11
7.4908528011
21
4.5709918036
31
0.0000000000
11
7.6499010326
21
4.5130992464
31
0.0000000000
11
7.7865038793
21
4.4508725046
31
0.0000000000
11
7.8960998227
21
4.3842676107
31
0.0000000000
11
7.9706030229
21
4.3170066314
31
0.0000000000
11
8.0083816643
21
4.2553809253
31
0.0000000000
11
8.0189534620
21
4.2000000000
31
0.0000000000
0
SPLINE
5
45C
100
AcDbEntity
8
0
100
AcDbSpline
62
9
6
CONTINUOUS
70
0
71
3
72
12
73
8
74
6
42
0.0000001000
43
0.0000001000
44
0.0000000001
12
0.0007145531
22
0.7813571046
32
0.0000000000
13
0.7813571062
23
0.0007128139
33
0.0000000000
40
0.0000000000
40
0.0000000000
40
0.0000000000
40
0.0000000000
40
0.1998532782
40
0.3997964689
40
0.5998286573
40
0.7999149934
40
1.0000000000
40
1.0000000000
40
1.0000000000
40
1.0000000000
10
-11.0087219643
20
21.4755923698
30
0.0000000000
10
-11.0086743624
20
21.5276446294
30
0.0000000000
10
-10.9920025187
20
21.6324904868
30
0.0000000000
10
-10.9197666025
20
21.7737967765
30
0.0000000000
10
-10.8073186645
20
21.8860938494
30
0.0000000000
10
-10.6658521001
20
21.9582171671
30
0.0000000000
10
-10.5609107306
20
21.9748595961
30
0.0000000000
10
-10.5087981167
20
21.9749071372
30
0.0000000000
11
-11.0087219643
21
21.4755923698
31
0.0000000000
11
-10.9841411372
21
21.6298024308
31
0.0000000000
11
-10.9130840750
21
21.7689347420
31
0.0000000000
11
-10.8024983179
21
21.8793857675
31
0.0000000000
11
-10.6631962884
21
21.9503562578
31
0.0000000000
11
-10.5087981167
21
21.9749071372
31
0.0000000000
0
SPLINE
5
45D
100
AcDbEntity
8
0
100
AcDbSpline
62
9
6
CONTINUOUS
70
0
71
3
72
56
73
52
74
50
42
0.0000001000
43
0.0000001000
44
0.0000000001
12
0.0062720323
22
17.0571611645
32
0.0000000000
13
0.0095825616
23
-17.0571596259
33
0.0000000000
40
0.0000000000
40
0.0000000000
40
0.0000000000
40
0.0000000000
40
0.0059698984
40
0.0126001439
40
0.0197704508
40
0.0273882553
40
0.0355264561
40
0.0442516222
40
0.0536558149
40
0.0638340180
40
0.0748651316
40
0.0868306511
40
0.0998239134
40
0.1139080051
40
0.1291623996
40
0.1456862095
40
0.1635929079
40
0.1829998538
40
0.2040160119
40
0.2267726524
40
0.2514241252
40
0.2781403951
40
0.3070986034
40
0.3385012580
40
0.3725811847
40
0.4095540557
40
0.4496738795
40
0.4934525430
40
0.5407338344
40
0.5890976147
40
0.6338810341
40
0.6736161547
40
0.7088090625
40
0.7403903407
40
0.7688509731
40
0.7945828284
40
0.8179449254
40
0.8392222011
40
0.8586435202
40
0.8764203828
40
0.8927366146
40
0.9077307011
40
0.9214868073
40
0.9341057505
40
0.9457011747
40
0.9563832939
40
0.9663084249
40
0.9755844765
40
0.9842995425
40
0.9924261229
40
1.0000000000
40
1.0000000000
40
1.0000000000
40
1.0000000000
10
-8.2189230010
20
4.2016806723
30
0.0000000000
10
-8.2189105199
20
4.2356238454
30
0.0000000000
10
-8.2081864671
20
4.3076831682
30
0.0000000000
10
-8.1585497608
20
4.4103493434
30
0.0000000000
10
-8.0767892768
20
4.5022693949
30
0.0000000000
10
-7.9715823887
20
4.5802131542
30
0.0000000000
10
-7.8494029362
20
4.6474560550
30
0.0000000000
10
-7.7123622126
20
4.7071932447
30
0.0000000000
10
-7.5608626976
20
4.7617677290
30
0.0000000000
10
-7.3944125397
20
4.8128416548
30
0.0000000000
10
-7.2121319212
20
4.8614745577
30
0.0000000000
10
-7.0129004868
20
4.9082722134
30
0.0000000000
10
-6.7955670117
20
4.9535842379
30
0.0000000000
10
-6.5589206011
20
4.9975883515
30
0.0000000000
10
-6.3016823158
20
5.0403846042
30
0.0000000000
10
-6.0222662039
20
5.0820558812
30
0.0000000000
10
-5.7188481744
20
5.1226044441
30
0.0000000000
10
-5.3895336129
20
5.1619511339
30
0.0000000000
10
-5.0323216070
20
5.1999888204
30
0.0000000000
10
-4.6449932152
20
5.2365491939
30
0.0000000000
10
-4.2249767124
20
5.2713915636
30
0.0000000000
10
-3.7694354505
20
5.3041795894
30
0.0000000000
10
-3.2752569881
20
5.3344636152
30
0.0000000000
10
-2.7389711588
20
5.3616385126
30
0.0000000000
10
-2.1568964015
20
5.3850088199
30
0.0000000000
10
-1.5250656428
20
5.4037372563
30
0.0000000000
10
-0.8379338074
20
5.4167188749
30
0.0000000000
10
-0.0920867727
20
5.4223982366
30
0.0000000000
10
0.7006504785
20
5.4187732454
30
0.0000000000
10
1.4989902202
20
5.4048989952
30
0.0000000000
10
2.2541956045
20
5.3819969552
30
0.0000000000
10
2.9342315528
20
5.3527724122
30
0.0000000000
10
3.5389004917
20
5.3192512144
30
0.0000000000
10
4.0791553076
20
5.2826676245
30
0.0000000000
10
4.5652968939
20
5.2437325941
30
0.0000000000
10
5.0043742760
20
5.2029645573
30
0.0000000000
10
5.4022574953
20
5.1606810531
30
0.0000000000
10
5.7638766739
20
5.1170268001
30
0.0000000000
10
6.0933099635
20
5.0720472961
30
0.0000000000
10
6.3940475790
20
5.0257226616
30
0.0000000000
10
6.6690382427
20
4.9779130137
30
0.0000000000
10
6.9204688916
20
4.9283988680
30
0.0000000000
10
7.1500148227
20
4.8769321770
30
0.0000000000
10
7.3591229787
20
4.8230711652
30
0.0000000000
10
7.5492115076
20
4.7659784474
30
0.0000000000
10
7.7216534958
20
4.7040870844
30
0.0000000000
10
7.8769371672
20
4.6345518924
30
0.0000000000
10
8.0139938386
20
4.5535485972
30
0.0000000000
10
8.1268253380
20
4.4548260860
30
0.0000000000
10
8.2016386889
20
4.3348238374
30
0.0000000000
10
8.2188988087
20
4.2447436158
30
0.0000000000
10
8.2189230010
20
4.2016806723
30
0.0000000000
11
-8.2189230010
21
4.2016806723
31
0.0000000000
11
-8.2040544436
21
4.3024188400
31
0.0000000000
11
-8.1557434510
21
4.4046739812
31
0.0000000000
11
-8.0758148995
21
4.4972480664
31
0.0000000000
11
-7.9724904359
21
4.5760387532
31
0.0000000000
11
-7.8514433236
21
4.6439879496
31
0.0000000000
11
-7.7153387166
21
4.7041949660
31
0.0000000000
11
-7.5646201775
21
4.7591032430
31
0.0000000000
11
-7.3987695847
21
4.8104301492
31
0.0000000000
11
-7.2170479657
21
4.8592281891
31
0.0000000000
11
-7.0184132951
21
4.9061342982
31
0.0000000000
11
-6.8014910832
21
4.9515634249
31
0.0000000000
11
-6.5653368599
21
4.9956527036
31
0.0000000000
11
-6.3086937402
21
5.0385085461
31
0.0000000000
11
-6.0299476531
21
5.0802176625
31
0.0000000000
11
-5.7272180701
21
5.1207989757
31
0.0000000000
11
-5.3985427081
21
5.1601901310
31
0.0000000000
11
-5.0420936460
21
5.1982574772
31
0.0000000000
11
-4.6556571428
21
5.2348347364
31
0.0000000000
11
-4.2366200193
21
5.2696891130
31
0.0000000000
11
-3.7820982843
21
5.3024900752
31
0.0000000000
11
-3.2890829889
21
5.3327793758
31
0.0000000000
11
-2.7541333906
21
5.3599699506
31
0.0000000000
11
-2.1732978797
21
5.3833740560
31
0.0000000000
11
-1.5429244167
21
5.4021243656
31
0.0000000000
11
-0.8587170229
21
5.4150960388
31
0.0000000000
11
-0.1119989484
21
5.4207881301
31
0.0000000000
11
0.6944772803
21
5.4170998390
31
0.0000000000
11
1.5193004156
21
5.4026983432
31
0.0000000000
11
2.2828238079
21
5.3794236906
31
0.0000000000
11
2.9599608474
21
5.3501758516
31
0.0000000000
11
3.5593249342
21
5.3168270122
31
0.0000000000
11
4.0967727472
21
5.2803096153
31
0.0000000000
11
4.5806702886
21
5.2414216119
31
0.0000000000
11
5.0176900321
21
5.2007047024
31
0.0000000000
11
5.4139337632
21
5.1584430436
31
0.0000000000
11
5.7742283649
21
5.1147859254
31
0.0000000000
11
6.1024328691
21
5.0698044308
31
0.0000000000
11
6.4020922394
21
5.0234541670
31
0.0000000000
11
6.6762496708
21
4.9755648467
31
0.0000000000
11
6.9271380918
21
4.9259017648
31
0.0000000000
11
7.1560261705
21
4.8742661068
31
0.0000000000
11
7.3643656200
21
4.8201885825
31
0.0000000000
11
7.5536293171
21
4.7627588676
31
0.0000000000
11
7.7248290981
21
4.7003898426
31
0.0000000000
11
7.8788387814
21
4.6300928378
31
0.0000000000
11
8.0139289065
21
4.5477204306
31
0.0000000000
11
8.1237036089
21
4.4474826442
31
0.0000000000
11
8.1950675309
21
4.3286478953
31
0.0000000000
11
8.2189230010
21
4.2016806723
31
0.0000000000
0
SPLINE
5
45E
100
AcDbEntity
8
0
100
AcDbSpline
62
9
6
CONTINUOUS
70
0
71
3
72
56
73
52
74
50
42
0.0000001000
43
0.0000001000
44
0.0000000001
12
0.0080349278
22
-16.4303612060
32
0.0000000000
13
0.0124026469
23
16.4303584895
33
0.0000000000
40
0.0000000000
40
0.0000000000
40
0.0000000000
40
0.0000000000
40
0.0026705986
40
0.0060079874
40
0.0104896311
40
0.0163148894
40
0.0233751286
40
0.0314691512
40
0.0405398995
40
0.0505867731
40
0.0616295025
40
0.0737143945
40
0.0869166008
40
0.1012888109
40
0.1169063290
40
0.1338650626
40
0.1522773353
40
0.1722615304
40
0.1939286196
40
0.2174118125
40
0.2428688216
40
0.2704738856
40
0.3004088847
40
0.3328825486
40
0.3681366720
40
0.4063929682
40
0.4479121887
40
0.4932213370
40
0.5421555803
40
0.5922056321
40
0.6385403058
40
0.6796383669
40
0.7160238286
40
0.7486602333
40
0.7780540977
40
0.8046089937
40
0.8286939083
40
0.8506003411
40
0.8705626473
40
0.8887947732
40
0.9054785769
40
0.9207480120
40
0.9346761343
40
0.9473415325
40
0.9588128241
40
0.9691154792
40
0.9782525468
40
0.9860589229
40
0.9921685429
40
0.9965685764
40
1.0000000000
40
1.0000000000
40
1.0000000000
40
1.0000000000
10
8.0189534620
20
4.2000000000
30
0.0000000000
10
8.0189606147
20
4.1853737001
30
0.0000000000
10
8.0139291027
20
4.1522785211
30
0.0000000000
10
7.9877670283
20
4.1001830943
30
0.0000000000
10
7.9367911255
20
4.0445488193
30
0.0000000000
10
7.8597023836
20
3.9881708055
30
0.0000000000
10
7.7587366528
20
3.9328696176
30
0.0000000000
10
7.6369481986
20
3.8799187430
30
0.0000000000
10
7.4966485106
20
3.8294340717
30
0.0000000000
10
7.3386786437
20
3.7809968549
30
0.0000000000
10
7.1630936809
20
3.7341686048
30
0.0000000000
10
6.9693680110
20
3.6886766754
30
0.0000000000
10
6.7567140989
20
3.6443477833
30
0.0000000000
10
6.5241304079
20
3.6011066230
30
0.0000000000
10
6.2704757548
20
3.5589112317
30
0.0000000000
10
5.9942646989
20
3.5177233128
30
0.0000000000
10
5.6937564152
20
3.4775676613
30
0.0000000000
10
5.3671139423
20
3.4385453124
30
0.0000000000
10
5.0123822327
20
3.4007758061
30
0.0000000000
10
4.6273833272
20
3.3644392409
30
0.0000000000
10
4.2095873696
20
3.3297840904
30
0.0000000000
10
3.7561939862
20
3.2971533273
30
0.0000000000
10
3.2641216930
20
3.2670001155
30
0.0000000000
10
2.7299186794
20
3.2399338622
30
0.0000000000
10
2.1499229369
20
3.2166499433
30
0.0000000000
10
1.5201947811
20
3.1979864839
30
0.0000000000
10
0.8352412126
20
3.1850474559
30
0.0000000000
10
0.0917027414
20
3.1793866817
30
0.0000000000
10
-0.6985746001
20
3.1830016466
30
0.0000000000
10
-1.4943585783
20
3.1968327446
30
0.0000000000
10
-2.2469973928
20
3.2196550357
30
0.0000000000
10
-2.9245157843
20
3.2487696472
30
0.0000000000
10
-3.5267099026
20
3.2821508963
30
0.0000000000
10
-4.0644939133
20
3.3185654286
30
0.0000000000
10
-4.5481201997
20
3.3572957624
30
0.0000000000
10
-4.9845829177
20
3.3978164018
30
0.0000000000
10
-5.3796913648
20
3.4398005071
30
0.0000000000
10
-5.7383159596
20
3.4830862901
30
0.0000000000
10
-6.0644648596
20
3.5276120048
30
0.0000000000
10
-6.3615350006
20
3.5733647452
30
0.0000000000
10
-6.6323481640
20
3.6204391522
30
0.0000000000
10
-6.8789208078
20
3.6689868422
30
0.0000000000
10
-7.1026745885
20
3.7191387178
30
0.0000000000
10
-7.3046035958
20
3.7711291769
30
0.0000000000
10
-7.4853242056
20
3.8253543552
30
0.0000000000
10
-7.6447822946
20
3.8825247709
30
0.0000000000
10
-7.7812643061
20
3.9433610998
30
0.0000000000
10
-7.8904629741
20
4.0074522649
30
0.0000000000
10
-7.9675218572
20
4.0729966302
30
0.0000000000
10
-8.0102953749
20
4.1379735715
30
0.0000000000
10
-8.0189676482
20
4.1812068265
30
0.0000000000
10
-8.0189534620
20
4.2000000000
30
0.0000000000
11
8.0189534620
21
4.2000000000
31
0.0000000000
11
8.0125209436
21
4.1565951500
31
0.0000000000
11
7.9888517207
21
4.1071321204
31
0.0000000000
11
7.9404415782
21
4.0516472007
31
0.0000000000
11
7.8641997456
21
3.9937870288
31
0.0000000000
11
7.7630052817
21
3.9370753655
31
0.0000000000
11
7.6413681855
21
3.8833152207
31
0.0000000000
11
7.5013292464
21
3.8323178469
31
0.0000000000
11
7.3436308685
21
3.7835267083
31
0.0000000000
11
7.1684005820
21
3.7364800439
31
0.0000000000
11
6.9751550170
21
3.6908522774
31
0.0000000000
11
6.7628431211
21
3.6463925935
31
0.0000000000
11
6.5307126519
21
3.6030585128
31
0.0000000000
11
6.2776151244
21
3.5607977919
31
0.0000000000
11
6.0020443370
21
3.5195672091
31
0.0000000000
11
5.7022056032
21
3.4793766320
31
0.0000000000
11
5.3761905999
21
3.4403080711
31
0.0000000000
11
5.0222050376
21
3.4025072667
31
0.0000000000
11
4.6380842068
21
3.3661523861
31
0.0000000000
11
4.2212555065
21
3.3314843276
31
0.0000000000
11
3.7688705844
21
3.2988397498
31
0.0000000000
11
3.2779531766
21
3.2686811011
31
0.0000000000
11
2.7450868481
21
3.2415989072
31
0.0000000000
11
2.1663183446
21
3.2182807049
31
0.0000000000
11
1.5380313147
21
3.1995947504
31
0.0000000000
11
0.8559779805
21
3.1866653683
31
0.0000000000
11
0.1115538389
21
3.1809918381
31
0.0000000000
11
-0.6924451368
21
3.1846700997
31
0.0000000000
11
-1.5146603290
21
3.1990270466
31
0.0000000000
11
-2.2756024138
21
3.2222220184
31
0.0000000000
11
-2.9502295243
21
3.2513599885
31
0.0000000000
11
-3.5471327299
21
3.2845700303
31
0.0000000000
11
-4.0821272999
21
3.3209191476
31
0.0000000000
11
-4.5635273415
21
3.3596038419
31
0.0000000000
11
-4.9979528032
21
3.4000754926
31
0.0000000000
11
-5.3914453660
21
3.4420398008
31
0.0000000000
11
-5.7487630409
21
3.4853312572
31
0.0000000000
11
-6.0737138695
21
3.5298626853
31
0.0000000000
11
-6.3697546070
21
3.5756485413
31
0.0000000000
11
-6.6397877494
21
3.6228120787
31
0.0000000000
11
-6.8858958372
21
3.6715231703
31
0.0000000000
11
-7.1091316713
21
3.7218758042
31
0.0000000000
11
-7.3105569051
21
3.7741469692
31
0.0000000000
11
-7.4909194431
21
3.8288563680
31
0.0000000000
11
-7.6499794379
21
3.8867735978
31
0.0000000000
11
-7.7865878832
21
3.9490291210
31
0.0000000000
11
-7.8961808162
21
4.0156656406
31
0.0000000000
11
-7.9706689142
21
4.0829584718
31
0.0000000000
11
-8.0084198968
21
4.1446132133
31
0.0000000000
11
-8.0189534620
21
4.2000000000
31
0.0000000000
0
SPLINE
5
45F
100
AcDbEntity
8
0
100
AcDbSpline
62
9
6
CONTINUOUS
70
0
71
3
72
15
73
11
74
9
42
0.0000001000
43
0.0000001000
44
0.0000000001
12
-0.0000000000
22
3.1415926536
32
0.0000000000
13
0.0000000000
23
-3.1415926536
33
0.0000000000
40
0.0000000000
40
0.0000000000
40
0.0000000000
40
0.0000000000
40
0.1250000000
40
0.2500000000
40
0.3750000000
40
0.5000000000
40
0.6250000000
40
0.7500000000
40
0.8750000000
40
1.0000000000
40
1.0000000000
40
1.0000000000
40
1.0000000000
10
8.0000000000
20
8.4000000000
30
0.0000000000
10
8.0000000000
20
8.5308996939
30
0.0000000000
10
7.5834549727
20
8.7926380591
30
0.0000000000
10
5.8041251562
20
9.1255178464
30
0.0000000000
10
3.1411698993
20
9.3479312425
30
0.0000000000
10
-0.0000000000
20
9.4260343788
30
0.0000000000
10
-3.1411698993
20
9.3479312425
30
0.0000000000
10
-5.8041251562
20
9.1255178464
30
0.0000000000
10
-7.5834549727
20
8.7926380591
30
0.0000000000
10
-8.0000000000
20
8.5308996939
30
0.0000000000
10
-8.0000000000
20
8.4000000000
30
0.0000000000
11
8.0000000000
21
8.4000000000
31
0.0000000000
11
7.3910362601
21
8.7826834324
31
0.0000000000
11
5.6568542495
21
9.1071067812
31
0.0000000000
11
3.0614674589
21
9.3238795325
31
0.0000000000
11
-0.0000000000
21
9.4000000000
31
0.0000000000
11
-3.0614674589
21
9.3238795325
31
0.0000000000
11
-5.6568542495
21
9.1071067812
31
0.0000000000
11
-7.3910362601
21
8.7826834324
31
0.0000000000
11
-8.0000000000
21
8.4000000000
31
0.0000000000
0
SPLINE
5
460
100
AcDbEntity
8
0
100
AcDbSpline
62
9
6
CONTINUOUS
70
0
71
3
72
57
73
53
74
51
42
0.0000001000
43
0.0000001000
44
0.0000000001
12
0.0093441939
22
16.4270134955
32
0.0000000000
13
0.0057177915
23
-16.4270151580
33
0.0000000000
40
0.0000000000
40
0.0000000000
40
0.0000000000
40
0.0000000000
40
0.0025521814
40
0.0057147107
40
0.0099266991
40
0.0153992435
40
0.0220622739
40
0.0297220479
40
0.0383118469
40
0.0478302591
40
0.0583000084
40
0.0697584436
40
0.0822767863
40
0.0959063064
40
0.1107021104
40
0.1267471534
40
0.1441404251
40
0.1629964280
40
0.1834237085
40
0.2055394616
40
0.2294839106
40
0.2554149347
40
0.2835018533
40
0.3139258976
40
0.3469022462
40
0.3826598593
40
0.4214030847
40
0.4634725988
40
0.5092939543
40
0.5582870784
40
0.6068768466
40
0.6511289066
40
0.6902530230
40
0.7250827603
40
0.7564225662
40
0.7847067675
40
0.8103144849
40
0.8335894008
40
0.8547936711
40
0.8741483396
40
0.8918552810
40
0.9080845091
40
0.9229506855
40
0.9365114747
40
0.9488445710
40
0.9600114156
40
0.9700408991
40
0.9789365698
40
0.9865185506
40
0.9924358770
40
0.9967036821
40
1.0000000000
40
1.0000000000
40
1.0000000000
40
1.0000000000
10
-8.0180292887
20
8.4000000000
30
0.0000000000
10
-8.0180213394
20
8.4139749062
30
0.0000000000
10
-8.0133929272
20
8.4454311144
30
0.0000000000
10
-7.9894812097
20
8.4950796859
30
0.0000000000
10
-7.9426597246
20
8.5484861093
30
0.0000000000
10
-7.8711900008
20
8.6030167138
30
0.0000000000
10
-7.7768404495
20
8.6568144203
30
0.0000000000
10
-7.6624110493
20
8.7085689763
30
0.0000000000
10
-7.5301708220
20
8.7579888756
30
0.0000000000
10
-7.3809941131
20
8.8054083407
30
0.0000000000
10
-7.2149806108
20
8.8512422758
30
0.0000000000
10
-7.0316785964
20
8.8958102362
30
0.0000000000
10
-6.8303866740
20
8.9393114751
30
0.0000000000
10
-6.6102501324
20
8.9818538500
30
0.0000000000
10
-6.3703148148
20
9.0234733827
30
0.0000000000
10
-6.1093439321
20
9.0641743949
30
0.0000000000
10
-5.8257605629
20
9.1039331404
30
0.0000000000
10
-5.5178335209
20
9.1426529077
30
0.0000000000
10
-5.1837282846
20
9.1802132893
30
0.0000000000
10
-4.8214677443
20
9.2164864117
30
0.0000000000
10
-4.4287969698
20
9.2512716159
30
0.0000000000
10
-4.0031717683
20
9.2842983425
30
0.0000000000
10
-3.5418204262
20
9.3151988448
30
0.0000000000
10
-3.0416566676
20
9.3434933721
30
0.0000000000
10
-2.4992693690
20
9.3685611117
30
0.0000000000
10
-1.9111293024
20
9.3897089590
30
0.0000000000
10
-1.2730255359
20
9.4060391925
30
0.0000000000
10
-0.5796818109
20
9.4163663299
30
0.0000000000
10
0.1698628830
20
9.4190107043
30
0.0000000000
10
0.9550886856
20
9.4121525894
30
0.0000000000
10
1.7315736079
20
9.3955072229
30
0.0000000000
10
2.4537742626
20
9.3708568148
30
0.0000000000
10
3.1003482130
20
9.3407841054
30
0.0000000000
10
3.6759244068
20
9.3069886757
30
0.0000000000
10
4.1918429926
20
9.2704578384
30
0.0000000000
10
4.6569524820
20
9.2318040079
30
0.0000000000
10
5.0775758746
20
9.1914775877
30
0.0000000000
10
5.4590854587
20
9.1497465592
30
0.0000000000
10
5.8059740681
20
9.1067231233
30
0.0000000000
10
6.1219500213
20
9.0624746163
30
0.0000000000
10
6.4102092512
20
9.0170321288
30
0.0000000000
10
6.6733402697
20
8.9703236230
30
0.0000000000
10
6.9131141462
20
8.9222485075
30
0.0000000000
10
7.1307535949
20
8.8726514306
30
0.0000000000
10
7.3271171546
20
8.8212710115
30
0.0000000000
10
7.5027754906
20
8.7676476990
30
0.0000000000
10
7.6576407367
20
8.7110594390
30
0.0000000000
10
7.7899436321
20
8.6508680793
30
0.0000000000
10
7.8954229295
20
8.5876163285
30
0.0000000000
10
7.9693967061
20
8.5231322526
30
0.0000000000
10
8.0099050333
20
8.4597769577
30
0.0000000000
10
8.0180230062
20
8.4180495549
30
0.0000000000
10
8.0180292887
20
8.4000000000
30
0.0000000000
11
-8.0180292887
21
8.4000000000
31
0.0000000000
11
-8.0120648090
21
8.4414982842
31
0.0000000000
11
-7.9903332756
21
8.4886855540
31
0.0000000000
11
-7.9459214250
21
8.5417411785
31
0.0000000000
11
-7.8754214526
21
8.5975204578
31
0.0000000000
11
-7.7808847006
21
8.6526830963
31
0.0000000000
11
-7.6665582339
21
8.7052373654
31
0.0000000000
11
-7.5345777225
21
8.7551542922
31
0.0000000000
11
-7.3856916199
21
8.8029151543
31
0.0000000000
11
-7.2199895018
21
8.8489830071
31
0.0000000000
11
-7.0371475436
21
8.8936882727
31
0.0000000000
11
-6.8361907828
21
8.9373206734
31
0.0000000000
11
-6.6163977070
21
8.9799679067
31
0.0000000000
11
-6.3769477296
21
9.0216506815
31
0.0000000000
11
-6.1165436029
21
9.0623935972
31
0.0000000000
11
-5.8336073734
21
9.1021774451
31
0.0000000000
11
-5.5262936108
21
9.1409329641
31
0.0000000000
11
-5.1928473811
21
9.1785312773
31
0.0000000000
11
-4.8313691263
21
9.2148263760
31
0.0000000000
11
-4.4395758061
21
9.2496270322
31
0.0000000000
11
-4.0148897442
21
9.2826669739
31
0.0000000000
11
-3.5545422141
21
9.3135796163
31
0.0000000000
11
-3.0555678380
21
9.3418796212
31
0.0000000000
11
-2.5144462665
21
9.3669713814
31
0.0000000000
11
-1.9274372614
21
9.3881487865
31
0.0000000000
11
-1.2912113906
21
9.4044859138
31
0.0000000000
11
-0.6002118814
21
9.4148071950
31
0.0000000000
11
0.1524915805
21
9.4174626207
31
0.0000000000
11
0.9572716335
21
9.4104229236
31
0.0000000000
11
1.7552714027
21
9.3932323948
31
0.0000000000
11
2.4817733855
21
9.3683108639
31
0.0000000000
11
3.1237654640
21
9.3383140389
31
0.0000000000
11
3.6949236264
21
9.3046622828
31
0.0000000000
11
4.2084485962
21
9.2681763944
31
0.0000000000
11
4.6714664868
21
9.2295648345
31
0.0000000000
11
5.0901916122
21
9.1892814764
31
0.0000000000
11
5.4702454841
21
9.1475567069
31
0.0000000000
11
5.8159006445
21
9.1045294293
31
0.0000000000
11
6.1307458501
21
9.0602802345
31
0.0000000000
11
6.4180416904
21
9.0148077765
31
0.0000000000
11
6.6804994644
21
8.9680071423
31
0.0000000000
11
6.9198914945
21
8.9197528567
31
0.0000000000
11
7.1370170052
21
8.8699532410
31
0.0000000000
11
7.3329113622
21
8.8182760823
31
0.0000000000
11
7.5081896441
21
8.7641743200
31
0.0000000000
11
7.6626510019
21
8.7068530354
31
0.0000000000
11
7.7951497861
21
8.6452263175
31
0.0000000000
11
7.9009364150
21
8.5794865070
31
0.0000000000
11
7.9722808472
21
8.5134668676
31
0.0000000000
11
8.0081730560
21
8.4532440883
31
0.0000000000
11
8.0180292887
21
8.4000000000
31
0.0000000000
0
SPLINE
5
461
100
AcDbEntity
8
0
100
AcDbSpline
62
9
6
CONTINUOUS
70
0
71
3
72
56
73
52
74
50
42
0.0000001000
43
0.0000001000
44
0.0000000001
12
-0.0012976623
22
-17.0574963810
32
0.0000000000
13
-0.0046691091
23
17.0574957913
33
0.0000000000
40
0.0000000000
40
0.0000000000
40
0.0000000000
40
0.0000000000
40
0.0059692631
40
0.0125988198
40
0.0197685431
40
0.0273859328
40
0.0355242707
40
0.0442502068
40
0.0536553887
40
0.0638343531
40
0.0748657815
40
0.0868310873
40
0.0998236624
40
0.1139069328
40
0.1291606713
40
0.1456840454
40
0.1635904660
40
0.1829972667
40
0.2040133893
40
0.2267700902
40
0.2514217515
40
0.2781383803
40
0.3070971428
40
0.3385005860
40
0.3725815738
40
0.4095557826
40
0.4496772727
40
0.4934581879
40
0.5407417922
40
0.5891063188
40
0.6338888752
40
0.6736227680
40
0.7088146110
40
0.7403948266
40
0.7688543921
40
0.7945852049
40
0.8179462795
40
0.8392225567
40
0.8586429462
40
0.8764188884
40
0.8927340791
40
0.9077271667
40
0.9214827653
40
0.9341019072
40
0.9456980928
40
0.9563812936
40
0.9663074451
40
0.9755842372
40
0.9842998603
40
0.9924269614
40
1.0000000000
40
1.0000000000
40
1.0000000000
40
1.0000000000
10
8.2189230010
20
4.2016806723
30
0.0000000000
10
8.2189204190
20
4.1677404441
30
0.0000000000
10
8.2082191251
20
4.0956843485
30
0.0000000000
10
8.1586216784
20
3.9930092185
30
0.0000000000
10
8.0768957521
20
3.9010674013
30
0.0000000000
10
7.9717102406
20
3.8230980152
30
0.0000000000
10
7.8495404713
20
3.7558257031
30
0.0000000000
10
7.7124970011
20
3.6960599326
30
0.0000000000
10
7.5609876100
20
3.6414609652
30
0.0000000000
10
7.3945279136
20
3.5903663241
30
0.0000000000
10
7.2122430983
20
3.5417157165
30
0.0000000000
10
7.0130145733
20
3.4949026614
30
0.0000000000
10
6.7956895759
20
3.4495765979
30
0.0000000000
10
6.5590533781
20
3.4055590316
30
0.0000000000
10
6.3018231467
20
3.3627494651
30
0.0000000000
10
6.0224113083
20
3.3210647554
30
0.0000000000
10
5.7189939294
20
3.2805028602
30
0.0000000000
10
5.3896769926
20
3.2411432107
30
0.0000000000
10
5.0324599400
20
3.2030928734
30
0.0000000000
10
4.6451238489
20
3.1665200085
30
0.0000000000
10
4.2250966162
20
3.1316652696
30
0.0000000000
10
3.7695409719
20
3.0988651281
30
0.0000000000
10
3.2753437964
20
3.0685696243
30
0.0000000000
10
2.7390342392
20
3.0413848759
30
0.0000000000
10
2.1569302345
20
3.0180066425
30
0.0000000000
10
1.5250641462
20
2.9992718374
30
0.0000000000
10
0.8378890363
20
2.9862856380
30
0.0000000000
10
0.0919919613
20
2.9806044080
30
0.0000000000
10
-0.7007910197
20
2.9842326807
30
0.0000000000
10
-1.4991587842
20
2.9981139093
30
0.0000000000
10
-2.2543710721
20
3.0210246477
30
0.0000000000
10
-2.9344019994
20
3.0502589694
30
0.0000000000
10
-3.5390630728
20
3.0837919197
30
0.0000000000
10
-4.0793094733
20
3.1203880448
30
0.0000000000
10
-4.5654415546
20
3.1593355677
30
0.0000000000
10
-5.0045085931
20
3.2001158720
30
0.0000000000
10
-5.4023808958
20
3.2424115010
30
0.0000000000
10
-5.7639888819
20
3.2860780869
30
0.0000000000
10
-6.0934106691
20
3.3310703205
30
0.0000000000
10
-6.3941357077
20
3.3774078417
30
0.0000000000
10
-6.6691125901
20
3.4252304741
30
0.0000000000
10
-6.9205309372
20
3.4747581625
30
0.0000000000
10
-7.1500706656
20
3.5262396252
30
0.0000000000
10
-7.3591815192
20
3.5801175428
30
0.0000000000
10
-7.5492801550
20
3.6372305360
30
0.0000000000
10
-7.7217349426
20
3.6991455205
30
0.0000000000
10
-7.8770261242
20
3.7687123189
30
0.0000000000
10
-8.0140828059
20
3.8497476908
30
0.0000000000
10
-8.1269036357
20
3.9485048712
30
0.0000000000
10
-8.2016780976
20
4.0685373247
30
0.0000000000
10
-8.2189112146
20
4.1586216473
30
0.0000000000
10
-8.2189230010
20
4.2016806723
30
0.0000000000
11
8.2189230010
21
4.2016806723
31
0.0000000000
11
8.2040865036
21
4.1009467148
31
0.0000000000
11
8.1558138001
21
3.9986840363
31
0.0000000000
11
8.0759197647
21
3.9060901431
31
0.0000000000
11
7.9726195867
21
3.8272750880
31
0.0000000000
11
7.8515828656
21
3.7592970566
31
0.0000000000
11
7.7154738113
21
3.6990604209
31
0.0000000000
11
7.5647433983
21
3.6441262732
31
0.0000000000
11
7.3988822666
21
3.5927779981
31
0.0000000000
11
7.2171560761
21
3.5439620652
31
0.0000000000
11
7.0185246608
21
3.4970406422
31
0.0000000000
11
6.8016128379
21
3.4515979137
31
0.0000000000
11
6.5654705289
21
3.4074955201
31
0.0000000000
11
6.3088358082
21
3.3646263729
31
0.0000000000
11
6.0300936738
21
3.3229037590
31
0.0000000000
11
5.7273646287
21
3.2823090813
31
0.0000000000
11
5.3986867932
21
3.2429048898
31
0.0000000000
11
5.0422326366
21
3.2048248289
31
0.0000000000
11
4.6557886447
21
3.1682350725
31
0.0000000000
11
4.2367410548
21
3.1333683506
31
0.0000000000
11
3.7822051058
21
3.1005553149
31
0.0000000000
11
3.2891713426
21
3.0702546536
31
0.0000000000
11
2.7541982736
21
3.0430541981
31
0.0000000000
11
2.1733335771
21
3.0196420134
31
0.0000000000
11
1.5429251177
21
3.0008852979
31
0.0000000000
11
0.8586759736
21
2.9879091070
31
0.0000000000
11
0.1119048738
21
2.9822153677
31
0.0000000000
11
-0.6946265889
21
2.9859068139
31
0.0000000000
11
-1.5194784929
21
3.0003154306
31
0.0000000000
11
-2.2830018638
21
3.0235987873
31
0.0000000000
11
-2.9601308006
21
3.0528565212
31
0.0000000000
11
-3.5594878267
21
3.0862169685
31
0.0000000000
11
-4.0969272069
21
3.1227467676
31
0.0000000000
11
-4.5808150303
21
3.1616471971
31
0.0000000000
11
-5.0178244086
21
3.2023763590
31
0.0000000000
11
-5.4140571523
21
3.2446501794
31
0.0000000000
11
-5.7743402647
21
3.2883196326
31
0.0000000000
11
-6.1025335642
21
3.3333138820
31
0.0000000000
11
-6.4021810472
21
3.3796771454
31
0.0000000000
11
-6.6763237451
21
3.4275792958
31
0.0000000000
11
-6.9271973362
21
3.4772553469
31
0.0000000000
11
-7.1560779969
21
3.5289054182
31
0.0000000000
11
-7.3644208442
21
3.5830001283
31
0.0000000000
11
-7.5536958671
21
3.6404505854
31
0.0000000000
11
-7.7249098146
21
3.7028450465
31
0.0000000000
11
-7.8789280254
21
3.7731732725
31
0.0000000000
11
-8.0140168538
21
3.8555780132
31
0.0000000000
11
-8.1237771651
21
3.9558499671
31
0.0000000000
11
-8.1951086638
21
4.0747177043
31
0.0000000000
11
-8.2189230010
21
4.2016806723
31
0.0000000000
0
SPLINE
5
462
100
AcDbEntity
8
0
100
AcDbSpline
62
9
6
CONTINUOUS
70
0
71
3
72
57
73
53
74
51
42
0.0000001000
43
0.0000001000
44
0.0000000001
12
0.0132824741
22
-16.4276738283
32
0.0000000000
13
0.0168407981
23
16.4276705658
33
0.0000000000
40
0.0000000000
40
0.0000000000
40
0.0000000000
40
0.0000000000
40
0.0025521252
40
0.0057146540
40
0.0099262303
40
0.0153981511
40
0.0220613451
40
0.0297223258
40
0.0383140949
40
0.0478344412
40
0.0583055068
40
0.0697644823
40
0.0822826597
40
0.0959119752
40
0.1107083465
40
0.1267550011
40
0.1441505409
40
0.1630091711
40
0.1834394725
40
0.2055586901
40
0.2295070916
40
0.2554426191
40
0.2835346419
40
0.3139644542
40
0.3469473999
40
0.3827124842
40
0.4214639566
40
0.4635432599
40
0.5093757480
40
0.5583759877
40
0.6069599320
40
0.6512003628
40
0.6903135409
40
0.7251346035
40
0.7564666909
40
0.7847439932
40
0.8103455751
40
0.8336149459
40
0.8548141619
40
0.8741643350
40
0.8918671184
40
0.9080922379
40
0.9229547451
40
0.9365131597
40
0.9488454390
40
0.9600125387
40
0.9700426928
40
0.9789388433
40
0.9865208930
40
0.9924379289
40
0.9967055092
40
1.0000000000
40
1.0000000000
40
1.0000000000
40
1.0000000000
10
8.0180292887
20
8.4000000000
30
0.0000000000
10
8.0180405883
20
8.3860248398
30
0.0000000000
10
8.0134568328
20
8.3545609904
30
0.0000000000
10
7.9896060193
20
8.3048817789
30
0.0000000000
10
7.9428333527
20
8.2514339188
30
0.0000000000
10
7.8713979724
20
8.1968586828
30
0.0000000000
10
7.7770665306
20
8.1430111992
30
0.0000000000
10
7.6626342469
20
8.0912053819
30
0.0000000000
10
7.5303752251
20
8.0417388932
30
0.0000000000
10
7.3811745428
20
7.9942792607
30
0.0000000000
10
7.2151418163
20
7.9484106511
30
0.0000000000
10
7.0318297665
20
7.9038124153
30
0.0000000000
10
6.8305344349
20
7.8602831082
30
0.0000000000
10
6.6103930169
20
7.8177125073
30
0.0000000000
10
6.3704419275
20
7.7760630529
30
0.0000000000
10
6.1094405013
20
7.7353305796
30
0.0000000000
10
5.8258139114
20
7.6955401053
30
0.0000000000
10
5.5178343413
20
7.6567900591
30
0.0000000000
10
5.1836683732
20
7.6192016053
30
0.0000000000
10
4.8213382503
20
7.5829021019
30
0.0000000000
10
4.4285881582
20
7.5480920784
30
0.0000000000
10
4.0028729867
20
7.5150421373
30
0.0000000000
10
3.5414199618
20
7.4841204551
30
0.0000000000
10
3.0411411474
20
7.4558077710
30
0.0000000000
10
2.4986237767
20
7.4307265637
30
0.0000000000
10
1.9103379799
20
7.4095695611
30
0.0000000000
10
1.2720688207
20
7.3932347563
30
0.0000000000
10
0.5785373167
20
7.3829090369
30
0.0000000000
10
-0.1711912459
20
7.3802762800
30
0.0000000000
10
-0.9565166108
20
7.3871585735
30
0.0000000000
10
-1.7329756792
20
7.4038320516
30
0.0000000000
10
-2.4550490908
20
7.4285081818
30
0.0000000000
10
-3.1014768291
20
7.4586049278
30
0.0000000000
10
-3.6769249540
20
7.4924254517
30
0.0000000000
10
-4.1927348418
20
7.5289812821
30
0.0000000000
10
-4.6577471793
20
7.5676595547
30
0.0000000000
10
-5.0782831876
20
7.6080101934
30
0.0000000000
10
-5.4597135035
20
7.6497657374
30
0.0000000000
10
-5.8065298537
20
7.6928150154
30
0.0000000000
10
-6.1224392872
20
7.7370902630
30
0.0000000000
10
-6.4106355680
20
7.7825590013
30
0.0000000000
10
-6.6737066950
20
7.8292927243
30
0.0000000000
10
-6.9134289355
20
7.8773928522
30
0.0000000000
10
-7.1310329213
20
7.9270171211
30
0.0000000000
10
-7.3273799703
20
7.9784296805
30
0.0000000000
10
-7.5030350305
20
8.0320915486
30
0.0000000000
10
-7.6578987502
20
8.0887266886
30
0.0000000000
10
-7.7901903953
20
8.1489745272
30
0.0000000000
10
-7.8956427208
20
8.2122850733
30
0.0000000000
10
-7.9695704563
20
8.2768285334
30
0.0000000000
10
-8.0099963017
20
8.3402299118
30
0.0000000000
10
-8.0180477827
20
8.3819597303
30
0.0000000000
10
-8.0180292887
20
8.4000000000
30
0.0000000000
11
8.0180292887
21
8.4000000000
31
0.0000000000
11
8.0121220230
21
8.3584927563
31
0.0000000000
11
7.9904472711
21
8.3112770788
31
0.0000000000
11
7.9460869797
21
8.2581835203
31
0.0000000000
11
7.8756289184
21
8.2023619642
31
0.0000000000
11
7.7811131674
21
8.1471492614
31
0.0000000000
11
7.6667834920
21
8.0945423748
31
0.0000000000
11
7.5347808771
21
8.0445763141
31
0.0000000000
11
7.3858682440
21
7.9967734881
31
0.0000000000
11
7.2201462750
21
7.9506703983
31
0.0000000000
11
7.0372947778
21
7.9059347949
31
0.0000000000
11
6.8363382492
21
7.8622750196
31
0.0000000000
11
6.6165447123
21
7.8196003695
31
0.0000000000
11
6.3770804827
21
7.7778879282
31
0.0000000000
11
6.1166437642
21
7.7371132406
31
0.0000000000
11
5.8336627466
21
7.6972975159
31
0.0000000000
11
5.5262966996
21
7.6585117037
31
0.0000000000
11
5.1927900854
21
7.6208851427
31
0.0000000000
11
4.8312425525
21
7.5845635663
31
0.0000000000
11
4.4393703176
21
7.5497380317
31
0.0000000000
11
4.0145946140
21
7.5166748619
31
0.0000000000
11
3.5541457985
21
7.4857410965
31
0.0000000000
11
3.0550573327
21
7.4574230767
31
0.0000000000
11
2.5138060182
21
7.4323175727
31
0.0000000000
11
1.9266508115
21
7.4111308337
31
0.0000000000
11
1.2902638363
21
7.3947892156
31
0.0000000000
11
0.5990755730
21
7.3844696388
31
0.0000000000
11
-0.1538411983
21
7.3818261165
31
0.0000000000
11
-0.9587704182
21
7.3888904421
31
0.0000000000
11
-1.7567061100
21
7.4061090895
31
0.0000000000
11
-2.4830454388
21
7.4310556381
31
0.0000000000
11
-3.1248824898
21
7.4610762319
31
0.0000000000
11
-3.6959195535
21
7.4947530610
31
0.0000000000
11
-4.2093364697
21
7.5312638501
31
0.0000000000
11
-4.6722574144
21
7.5698998232
31
0.0000000000
11
-5.0908959995
21
7.6102074884
31
0.0000000000
11
-5.4708710422
21
7.6519569683
31
0.0000000000
11
-5.8164534964
21
7.6950099612
31
0.0000000000
11
-6.1312333380
21
7.7392858199
31
0.0000000000
11
-6.4184677353
21
7.7847846223
31
0.0000000000
11
-6.6808634643
21
7.8316100062
31
0.0000000000
11
-6.9201992045
21
7.8798883738
31
0.0000000000
11
-7.1372877300
21
7.9297149574
31
0.0000000000
11
-7.3331679338
21
7.9814251969
31
0.0000000000
11
-7.5084458369
21
8.0355674811
31
0.0000000000
11
-7.6629076787
21
8.0929382259
31
0.0000000000
11
-7.7953947363
21
8.1546228045
31
0.0000000000
11
-7.9011504919
21
8.2204239258
31
0.0000000000
11
-7.9724397194
21
8.2865019251
31
0.0000000000
11
-8.0082559256
21
8.3467689335
31
0.0000000000
11
-8.0180292887
21
8.4000000000
31
0.0000000000
0
SPLINE
5
463
100
AcDbEntity
8
0
100
AcDbSpline
62
9
6
CONTINUOUS
70
0
71
3
72
10
73
6
74
4
42
0.0000001000
43
0.0000001000
44
0.0000000001
12
7.6500958174
22
-0.5080790332
32
0.0000000000
13
-0.0000000000
23
-1.0828954113
33
0.0000000000
40
0.0000000000
40
0.0000000000
40
0.0000000000
40
0.0000000000
40
0.2747238975
40
0.6373619487
40
1.0000000000
40
1.0000000000
40
1.0000000000
40
1.0000000000
10
3.7499974288
20
-7.5167078374
30
0.0000000000
10
4.4505521418
20
-7.5632349881
30
0.0000000000
10
5.9479124897
20
-7.7013821114
30
0.0000000000
10
7.5834549727
20
-8.0073619409
30
0.0000000000
10
8.0000000000
20
-8.2691003061
30
0.0000000000
10
8.0000000000
20
-8.4000000000
30
0.0000000000
11
3.7499974288
21
-7.5167078374
31
0.0000000000
11
5.6568542495
21
-7.6928932188
31
0.0000000000
11
7.3910362601
21
-8.0173165676
31
0.0000000000
11
8.0000000000
21
-8.4000000000
31
0.0000000000
0
SPLINE
5
464
100
AcDbEntity
8
0
100
AcDbSpline
62
9
6
CONTINUOUS
70
0
71
3
72
57
73
53
74
51
42
0.0000001000
43
0.0000001000
44
0.0000000001
12
0.0017329926
22
-17.0548880622
32
0.0000000000
13
-0.0005495704
23
17.0548881414
33
0.0000000000
40
0.0000000000
40
0.0000000000
40
0.0000000000
40
0.0000000000
40
0.0057357362
40
0.0120962998
40
0.0189749423
40
0.0262783286
40
0.0340701481
40
0.0424105015
40
0.0513808192
40
0.0610739729
40
0.0715690045
40
0.0829399726
40
0.0952783834
40
0.1086484546
40
0.1231136227
40
0.1387610902
40
0.1556910294
40
0.1740170433
40
0.1938446069
40
0.2152890511
40
0.2384880321
40
0.2635958618
40
0.2907776279
40
0.3202097786
40
0.3521004297
40
0.3866710503
40
0.4241207270
40
0.4647816057
40
0.5090677914
40
0.5564150214
40
0.6033643227
40
0.6461255768
40
0.6839439904
40
0.7176260172
40
0.7479481819
40
0.7753316075
40
0.8001445361
40
0.8227215083
40
0.8433186896
40
0.8621509093
40
0.8794176245
40
0.8952904978
40
0.9098917009
40
0.9232940102
40
0.9355996055
40
0.9469161774
40
0.9573547099
40
0.9670710365
40
0.9761623362
40
0.9847128874
40
0.9926841802
40
1.0000000000
40
1.0000000000
40
1.0000000000
40
1.0000000000
10
8.2179988278
20
8.4033613445
30
0.0000000000
10
8.2180021411
20
8.3707538984
30
0.0000000000
10
8.2081274501
20
8.3016091927
30
0.0000000000
10
8.1621762150
20
8.2023971603
30
0.0000000000
10
8.0858050834
20
8.1125055831
30
0.0000000000
10
7.9866048234
20
8.0356266713
30
0.0000000000
10
7.8708203305
20
7.9691661916
30
0.0000000000
10
7.7407552690
20
7.9100863283
30
0.0000000000
10
7.5969152609
20
7.8562075909
30
0.0000000000
10
7.4389175921
20
7.8058898316
30
0.0000000000
10
7.2659583599
20
7.7580727026
30
0.0000000000
10
7.0770013597
20
7.7120707537
30
0.0000000000
10
6.8709541495
20
7.6674897962
30
0.0000000000
10
6.6467110879
20
7.6241041636
30
0.0000000000
10
6.4031454023
20
7.5818076967
30
0.0000000000
10
6.1388999186
20
7.5405502257
30
0.0000000000
10
5.8523142041
20
7.5003277871
30
0.0000000000
10
5.5416086326
20
7.4612168636
30
0.0000000000
10
5.2049122118
20
7.4233282054
30
0.0000000000
10
4.8402158020
20
7.3867756668
30
0.0000000000
10
4.4452239826
20
7.3517523139
30
0.0000000000
10
4.0173545538
20
7.3185211899
30
0.0000000000
10
3.5538014559
20
7.2874459403
30
0.0000000000
10
3.0514518033
20
7.2590042671
30
0.0000000000
10
2.5068738087
20
7.2338171652
30
0.0000000000
10
1.9165155413
20
7.2125766316
30
0.0000000000
10
1.2761253774
20
7.1961808496
30
0.0000000000
10
0.5803677062
20
7.1858174629
30
0.0000000000
10
-0.1717333972
20
7.1831764133
30
0.0000000000
10
-0.9595619561
20
7.1900821170
30
0.0000000000
10
-1.7385723348
20
7.2068181474
30
0.0000000000
10
-2.4631655285
20
7.2315901773
30
0.0000000000
10
-3.1120516222
20
7.2618156171
30
0.0000000000
10
-3.6899254138
20
7.2957918990
30
0.0000000000
10
-4.2081722642
20
7.3325364470
30
0.0000000000
10
-4.6756832531
20
7.3714386378
30
0.0000000000
10
-5.0988335516
20
7.4120585032
30
0.0000000000
10
-5.4830527691
20
7.4541360992
30
0.0000000000
10
-5.8328827021
20
7.4975807891
30
0.0000000000
10
-6.1520901397
20
7.5423366674
30
0.0000000000
10
-6.4439506851
20
7.5884053043
30
0.0000000000
10
-6.7111863584
20
7.6359022297
30
0.0000000000
10
-6.9557659435
20
7.6850029821
30
0.0000000000
10
-7.1792086978
20
7.7359928158
30
0.0000000000
10
-7.3828606484
20
7.7893554837
30
0.0000000000
10
-7.5680879621
20
7.8460202353
30
0.0000000000
10
-7.7362034477
20
7.9075884058
30
0.0000000000
10
-7.8875955799
20
7.9768887822
30
0.0000000000
10
-8.0210894479
20
8.0576522199
30
0.0000000000
10
-8.1304210916
20
8.1559743968
30
0.0000000000
10
-8.2017816521
20
8.2741162508
30
0.0000000000
10
-8.2179974876
20
8.3617711820
30
0.0000000000
10
-8.2179988278
20
8.4033613445
30
0.0000000000
11
8.2179988278
21
8.4033613445
31
0.0000000000
11
8.2042714301
21
8.3065069768
31
0.0000000000
11
8.1594704280
21
8.2077117405
31
0.0000000000
11
8.0847258680
21
8.1172908477
31
0.0000000000
11
7.9873042772
21
8.0396774626
31
0.0000000000
11
7.8726241018
21
7.9725370115
31
0.0000000000
11
7.7434354962
21
7.9130088562
31
0.0000000000
11
7.6003692209
21
7.8588120183
31
0.0000000000
11
7.4429745545
21
7.8082533060
31
0.0000000000
11
7.2705379311
21
7.7602574664
31
0.0000000000
11
7.0821682541
21
7.7141495682
31
0.0000000000
11
6.8765393494
21
7.6694547223
31
0.0000000000
11
6.6526979176
21
7.6259754713
31
0.0000000000
11
6.4096587597
21
7.5836226910
31
0.0000000000
11
6.1460073115
21
7.5423277447
31
0.0000000000
11
5.8600876074
21
7.5020824626
31
0.0000000000
11
5.5500005958
21
7.4629369618
31
0.0000000000
11
5.2139772110
21
7.4250112328
31
0.0000000000
11
4.8500778339
21
7.3884383589
31
0.0000000000
11
4.4559762763
21
7.3534004612
31
0.0000000000
11
4.0290573998
21
7.3201570087
31
0.0000000000
11
3.5665188911
21
7.2890703287
31
0.0000000000
11
3.0653635578
21
7.2606235423
31
0.0000000000
11
2.5220566941
21
7.2354123841
31
0.0000000000
11
1.9328424052
21
7.2141426301
31
0.0000000000
11
1.2943530031
21
7.1977404027
31
0.0000000000
11
0.6009636036
21
7.1873837982
31
0.0000000000
11
-0.1543276824
21
7.1847313586
31
0.0000000000
11
-0.9617982777
21
7.1918202576
31
0.0000000000
11
-1.7623268436
21
7.2091019919
31
0.0000000000
11
-2.4911851417
21
7.2341451522
31
0.0000000000
11
-3.1354689871
21
7.2642930830
31
0.0000000000
11
-3.7089150354
21
7.2981252830
31
0.0000000000
11
-4.2247524226
21
7.3348231984
31
0.0000000000
11
-4.6901542386
21
7.3736819998
31
0.0000000000
11
-5.1113863645
21
7.4142562000
31
0.0000000000
11
-5.4941289033
21
7.4563264720
31
0.0000000000
11
-5.8427145309
21
7.4997723266
31
0.0000000000
11
-6.1607626960
21
7.5445256105
31
0.0000000000
11
-6.4516152294
21
7.5906167292
31
0.0000000000
11
-6.7181116533
21
7.6381940627
31
0.0000000000
11
-6.9622124958
21
7.6874553911
31
0.0000000000
11
-7.1849892426
21
7.7386120120
31
0.0000000000
11
-7.3879012785
21
7.7922063585
31
0.0000000000
11
-7.5722959360
21
7.8492038780
31
0.0000000000
11
-7.7391673479
21
7.9112353408
31
0.0000000000
11
-7.8893402320
21
7.9812938518
31
0.0000000000
11
-8.0208659166
21
8.0634025477
31
0.0000000000
11
-8.1272517426
21
8.1631425287
31
0.0000000000
11
-8.1957098954
21
8.2805978398
31
0.0000000000
11
-8.2179988278
21
8.4033613445
31
0.0000000000
0
SPLINE
5
465
100
AcDbEntity
8
0
100
AcDbSpline
62
9
6
CONTINUOUS
70
0
71
3
72
10
73
6
74
4
42
0.0000001000
43
0.0000001000
44
0.0000000001
12
0.0000000000
22
1.0828954113
32
0.0000000000
13
7.6500958174
23
0.5080790332
33
0.0000000000
40
0.0000000000
40
0.0000000000
40
0.0000000000
40
0.0000000000
40
0.3626380513
40
0.7252761025
40
1.0000000000
40
1.0000000000
40
1.0000000000
40
1.0000000000
10
-8.0000000000
20
-8.4000000000
30
0.0000000000
10
-8.0000000000
20
-8.2691003061
30
0.0000000000
10
-7.5834549727
20
-8.0073619409
30
0.0000000000
10
-5.9479124897
20
-7.7013821114
30
0.0000000000
10
-4.4505521418
20
-7.5632349881
30
0.0000000000
10
-3.7499974288
20
-7.5167078374
30
0.0000000000
11
-8.0000000000
21
-8.4000000000
31
0.0000000000
11
-7.3910362601
21
-8.0173165676
31
0.0000000000
11
-5.6568542495
21
-7.6928932188
31
0.0000000000
11
-3.7499974288
21
-7.5167078374
31
0.0000000000
0
SPLINE
5
466
100
AcDbEntity
8
0
100
AcDbSpline
62
9
6
CONTINUOUS
70
0
71
3
72
10
73
6
74
4
42
0.0000001000
43
0.0000001000
44
0.0000000001
12
0.0000000000
22
-1.0828954113
32
0.0000000000
13
-7.6500958174
23
-0.5080790332
33
0.0000000000
40
0.0000000000
40
0.0000000000
40
0.0000000000
40
0.0000000000
40
0.3626380513
40
0.7252761025
40
1.0000000000
40
1.0000000000
40
1.0000000000
40
1.0000000000
10
8.0000000000
20
-4.2000000000
30
0.0000000000
10
8.0000000000
20
-4.3308996939
30
0.0000000000
10
7.5834549727
20
-4.5926380591
30
0.0000000000
10
5.9479124897
20
-4.8986178886
30
0.0000000000
10
4.4505521418
20
-5.0367650119
30
0.0000000000
10
3.7499974288
20
-5.0832921626
30
0.0000000000
11
8.0000000000
21
-4.2000000000
31
0.0000000000
11
7.3910362601
21
-4.5826834324
31
0.0000000000
11
5.6568542495
21
-4.9071067812
31
0.0000000000
11
3.7499974288
21
-5.0832921626
31
0.0000000000
0
SPLINE
5
467
100
AcDbEntity
8
0
100
AcDbSpline
62
9
6
CONTINUOUS
70
0
71
3
72
10
73
6
74
4
42
0.0000001000
43
0.0000001000
44
0.0000000001
12
7.6500958174
22
-0.5080790332
32
0.0000000000
13
-0.0000000000
23
-1.0828954113
33
0.0000000000
40
0.0000000000
40
0.0000000000
40
0.0000000000
40
0.0000000000
40
0.2747238975
40
0.6373619487
40
1.0000000000
40
1.0000000000
40
1.0000000000
40
1.0000000000
10
3.7499974288
20
-3.3167078374
30
0.0000000000
10
4.4505521418
20
-3.3632349881
30
0.0000000000
10
5.9479124897
20
-3.5013821114
30
0.0000000000
10
7.5834549727
20
-3.8073619409
30
0.0000000000
10
8.0000000000
20
-4.0691003061
30
0.0000000000
10
8.0000000000
20
-4.2000000000
30
0.0000000000
11
3.7499974288
21
-3.3167078374
31
0.0000000000
11
5.6568542495
21
-3.4928932188
31
0.0000000000
11
7.3910362601
21
-3.8173165676
31
0.0000000000
11
8.0000000000
21
-4.2000000000
31
0.0000000000
0
SPLINE
5
468
100
AcDbEntity
8
0
100
AcDbSpline
62
9
6
CONTINUOUS
70
0
71
3
72
10
73
6
74
4
42
0.0000001000
43
0.0000001000
44
0.0000000001
12
0.0000000000
22
1.0828954113
32
0.0000000000
13
7.6500958174
23
0.5080790332
33
0.0000000000
40
0.0000000000
40
0.0000000000
40
0.0000000000
40
0.0000000000
40
0.3626380513
40
0.7252761025
40
1.0000000000
40
1.0000000000
40
1.0000000000
40
1.0000000000
10
-8.0000000000
20
-4.2000000000
30
0.0000000000
10
-8.0000000000
20
-4.0691003061
30
0.0000000000
10
-7.5834549727
20
-3.8073619409
30
0.0000000000
10
-5.9479124897
20
-3.5013821114
30
0.0000000000
10
-4.4505521418
20
-3.3632349881
30
0.0000000000
10
-3.7499974288
20
-3.3167078374
30
0.0000000000
11
-8.0000000000
21
-4.2000000000
31
0.0000000000
11
-7.3910362601
21
-3.8173165676
31
0.0000000000
11
-5.6568542495
21
-3.4928932188
31
0.0000000000
11
-3.7499974288
21
-3.3167078374
31
0.0000000000
0
SPLINE
5
469
100
AcDbEntity
8
0
100
AcDbSpline
62
9
6
CONTINUOUS
70
0
71
3
72
10
73
6
74
4
42
0.0000001000
43
0.0000001000
44
0.0000000001
12
-7.6500958174
22
0.5080790332
32
0.0000000000
13
0.0000000000
23
1.0828954113
33
0.0000000000
40
0.0000000000
40
0.0000000000
40
0.0000000000
40
0.0000000000
40
0.2747238975
40
0.6373619487
40
1.0000000000
40
1.0000000000
40
1.0000000000
40
1.0000000000
10
-3.7499974288
20
-5.0832921626
30
0.0000000000
10
-4.4505521418
20
-5.0367650119
30
0.0000000000
10
-5.9479124897
20
-4.8986178886
30
0.0000000000
10
-7.5834549727
20
-4.5926380591
30
0.0000000000
10
-8.0000000000
20
-4.3308996939
30
0.0000000000
10
-8.0000000000
20
-4.2000000000
30
0.0000000000
11
-3.7499974288
21
-5.0832921626
31
0.0000000000
11
-5.6568542495
21
-4.9071067812
31
0.0000000000
11
-7.3910362601
21
-4.5826834324
31
0.0000000000
11
-8.0000000000
21
-4.2000000000
31
0.0000000000
0
SPLINE
5
46A
100
AcDbEntity
8
0
100
AcDbSpline
62
9
6
CONTINUOUS
70
0
71
3
72
10
73
6
74
4
42
0.0000001000
43
0.0000001000
44
0.0000000001
12
0.0000000000
22
-1.0828954113
32
0.0000000000
13
-7.6500958174
23
-0.5080790332
33
0.0000000000
40
0.0000000000
40
0.0000000000
40
0.0000000000
40
0.0000000000
40
0.3626380513
40
0.7252761025
40
1.0000000000
40
1.0000000000
40
1.0000000000
40
1.0000000000
10
8.0000000000
20
0.0000000000
30
0.0000000000
10
8.0000000000
20
-0.1308996939
30
0.0000000000
10
7.5834549727
20
-0.3926380591
30
0.0000000000
10
5.9479124897
20
-0.6986178886
30
0.0000000000
10
4.4505521418
20
-0.8367650119
30
0.0000000000
10
3.7499974288
20
-0.8832921626
30
0.0000000000
11
8.0000000000
21
0.0000000000
31
0.0000000000
11
7.3910362601
21
-0.3826834324
31
0.0000000000
11
5.6568542495
21
-0.7071067812
31
0.0000000000
11
3.7499974288
21
-0.8832921626
31
0.0000000000
0
SPLINE
5
46B
100
AcDbEntity
8
0
100
AcDbSpline
62
9
6
CONTINUOUS
70
0
71
3
72
10
73
6
74
4
42
0.0000001000
43
0.0000001000
44
0.0000000001
12
7.6500958174
22
-0.5080790332
32
0.0000000000
13
-0.0000000000
23
-1.0828954113
33
0.0000000000
40
0.0000000000
40
0.0000000000
40
0.0000000000
40
0.0000000000
40
0.2747238975
40
0.6373619487
40
1.0000000000
40
1.0000000000
40
1.0000000000
40
1.0000000000
10
3.7499974288
20
0.8832921626
30
0.0000000000
10
4.4505521418
20
0.8367650119
30
0.0000000000
10
5.9479124897
20
0.6986178886
30
0.0000000000
10
7.5834549727
20
0.3926380591
30
0.0000000000
10
8.0000000000
20
0.1308996939
30
0.0000000000
10
8.0000000000
20
0.0000000000
30
0.0000000000
11
3.7499974288
21
0.8832921626
31
0.0000000000
11
5.6568542495
21
0.7071067812
31
0.0000000000
11
7.3910362601
21
0.3826834324
31
0.0000000000
11
8.0000000000
21
0.0000000000
31
0.0000000000
0
SPLINE
5
46C
100
AcDbEntity
8
0
100
AcDbSpline
62
9
6
CONTINUOUS
70
0
71
3
72
57
73
53
74
51
42
0.0000001000
43
0.0000001000
44
0.0000000001
12
0.0082207055
22
17.0542189512
32
0.0000000000
13
0.0104182980
23
-17.0542177503
33
0.0000000000
40
0.0000000000
40
0.0000000000
40
0.0000000000
40
0.0000000000
40
0.0057366103
40
0.0120981302
40
0.0189775503
40
0.0262814440
40
0.0340728150
40
0.0424114302
40
0.0513793866
40
0.0610704566
40
0.0715641807
40
0.0829346395
40
0.0952732426
40
0.1086435347
40
0.1231081551
40
0.1387540406
40
0.1556817392
40
0.1740051446
40
0.1938297366
40
0.2152707997
40
0.2384659391
40
0.2635693972
40
0.2907462043
40
0.3201727375
40
0.3520569738
40
0.3866203535
40
0.4240620431
40
0.4647134268
40
0.5089887744
40
0.5563290601
40
0.6032839405
40
0.6460563788
40
0.6838852828
40
0.7175756243
40
0.7479051987
40
0.7752952472
40
0.8001140539
40
0.8226963149
40
0.8432982954
40
0.8621348027
40
0.8794055132
40
0.8952823641
40
0.9098871418
40
0.9232917668
40
0.9355981264
40
0.9469142652
40
0.9573516628
40
0.9670668916
40
0.9761575192
40
0.9847076389
40
0.9926793893
40
1.0000000000
40
1.0000000000
40
1.0000000000
40
1.0000000000
10
-8.2179988278
20
8.4033613445
30
0.0000000000
10
-8.2179831081
20
8.4359724804
30
0.0000000000
10
-8.2080659325
20
8.5051194192
30
0.0000000000
10
-8.1620448649
20
8.6043113181
30
0.0000000000
10
-8.0856124043
20
8.6941603366
30
0.0000000000
10
-7.9863747930
20
8.7709894473
30
0.0000000000
10
-7.8705753561
20
8.8373935860
30
0.0000000000
10
-7.7405192704
20
8.8964161590
30
0.0000000000
10
-7.5967048938
20
8.9502452789
30
0.0000000000
10
-7.4387350897
20
9.0005210519
30
0.0000000000
10
-7.2657965120
20
9.0483031189
30
0.0000000000
10
-7.0768494780
20
9.0942746787
30
0.0000000000
10
-6.8708052258
20
9.1388276311
30
0.0000000000
10
-6.6465666003
20
9.1821850522
30
0.0000000000
10
-6.4030165584
20
9.2244515665
30
0.0000000000
10
-6.1388018988
20
9.2656774738
30
0.0000000000
10
-5.8522600836
20
9.3058680632
30
0.0000000000
10
-5.5416078620
20
9.3449485636
30
0.0000000000
10
-5.2049728947
20
9.3828090766
30
0.0000000000
10
-4.8403465032
20
9.4193351842
30
0.0000000000
10
-4.4454342376
20
9.4543337037
30
0.0000000000
10
-4.0176549636
20
9.4875416026
30
0.0000000000
10
-3.5542038416
20
9.5185956607
30
0.0000000000
10
-3.0519696402
20
9.5470191652
30
0.0000000000
10
-2.5075220714
20
9.5721928061
30
0.0000000000
10
-1.9173097292
20
9.5934242023
30
0.0000000000
10
-1.2770851239
20
9.6098154425
30
0.0000000000
10
-0.5815157336
20
9.6201802561
30
0.0000000000
10
0.1704007962
20
9.6228330068
30
0.0000000000
10
0.9581293274
20
9.6159515148
30
0.0000000000
10
1.7371656388
20
9.5992437000
30
0.0000000000
10
2.4618863424
20
9.5744974155
30
0.0000000000
10
3.1109187693
20
9.5442961131
30
0.0000000000
10
3.6889206175
20
9.5103449536
30
0.0000000000
10
4.2072762166
20
9.4736254785
30
0.0000000000
10
4.6748843940
20
9.4347477792
30
0.0000000000
10
5.0981219036
20
9.3941522340
30
0.0000000000
10
5.4824198915
20
9.3520992492
30
0.0000000000
10
5.8323214891
20
9.3086806122
30
0.0000000000
10
6.1515950398
20
9.2639516224
30
0.0000000000
10
6.4435185920
20
9.2179093712
30
0.0000000000
10
6.7108146360
20
9.1704377398
30
0.0000000000
10
6.9554464845
20
9.1213620017
30
0.0000000000
10
7.1789250804
20
9.0703995717
30
0.0000000000
10
7.3825924834
20
9.0170693209
30
0.0000000000
10
7.5678195386
20
8.9604454519
30
0.0000000000
10
7.7359290263
20
8.8989265730
30
0.0000000000
10
7.8873259053
20
8.8296931986
30
0.0000000000
10
8.0208384116
20
8.7489973662
30
0.0000000000
10
8.1302195519
20
8.6507497107
30
0.0000000000
10
8.2016929251
20
8.5326514411
30
0.0000000000
10
8.2179734050
20
8.4449771078
30
0.0000000000
10
8.2179988278
20
8.4033613445
30
0.0000000000
11
-8.2179988278
21
8.4033613445
31
0.0000000000
11
-8.2042115390
21
8.5002183966
31
0.0000000000
11
-8.1593420513
21
8.5989958007
31
0.0000000000
11
-8.0845364291
21
8.6893774376
31
0.0000000000
11
-7.9870723670
21
8.7669435555
31
0.0000000000
11
-7.8723748249
21
8.8340288887
31
0.0000000000
11
-7.7431979881
21
8.8934984347
31
0.0000000000
11
-7.6001613208
21
8.9476428428
31
0.0000000000
11
-7.4427968447
21
8.9981581959
31
0.0000000000
11
-7.2703807755
21
9.0461185979
31
0.0000000000
11
-7.0820204328
21
9.0921961732
31
0.0000000000
11
-6.8763906715
21
9.1368637525
31
0.0000000000
11
-6.6525491755
21
9.1803156452
31
0.0000000000
11
-6.4095241242
21
9.2226387384
31
0.0000000000
11
-6.1459055623
21
9.2639018217
31
0.0000000000
11
-5.8600313507
21
9.3041150996
31
0.0000000000
11
-5.5499976585
21
9.3432301505
31
0.0000000000
11
-5.2140353925
21
9.3811275506
31
0.0000000000
11
-4.8502056818
21
9.4176739097
31
0.0000000000
11
-4.4561832263
21
9.4526869186
31
0.0000000000
11
-4.0293541234
21
9.4859071392
31
0.0000000000
11
-3.5669171361
21
9.5169726891
31
0.0000000000
11
-3.0658764042
21
9.5454014442
31
0.0000000000
11
-2.5226997224
21
9.5705988605
31
0.0000000000
11
-1.9336317451
21
9.5918593033
31
0.0000000000
11
-1.2953034830
21
9.6082570688
31
0.0000000000
11
-0.6021031901
21
9.6186154013
31
0.0000000000
11
0.1529736689
21
9.6212798050
31
0.0000000000
11
0.9602944534
21
9.6142155951
31
0.0000000000
11
1.7608874638
21
9.5969620536
31
0.0000000000
11
2.4899089260
21
9.5719439493
31
0.0000000000
11
3.1343477263
21
9.5418198688
31
0.0000000000
11
3.7079147924
21
9.5080127944
31
0.0000000000
11
4.2238603560
21
9.4713398382
31
0.0000000000
11
4.6893592230
21
9.4325055008
31
0.0000000000
11
5.1106777741
21
9.3919556858
31
0.0000000000
11
5.4934986258
21
9.3499102396
31
0.0000000000
11
5.8421561120
21
9.3064903139
31
0.0000000000
11
6.1602692034
21
9.2617638542
31
0.0000000000
11
6.4511832508
21
9.2156991952
31
0.0000000000
11
6.7177422462
21
9.1681466501
31
0.0000000000
11
6.9619001914
21
9.1189093694
31
0.0000000000
11
7.1847144789
21
9.0677797398
31
0.0000000000
11
7.3876402991
21
9.0142187024
31
0.0000000000
11
7.5720322688
21
8.9572630799
31
0.0000000000
11
7.7388952535
21
8.8952845023
31
0.0000000000
11
7.8890709680
21
8.8252917003
31
0.0000000000
11
8.0206190574
21
8.7432520226
31
0.0000000000
11
8.1270573988
21
8.6435871986
31
0.0000000000
11
8.1956116229
21
8.5261850581
31
0.0000000000
11
8.2179988278
21
8.4033613445
31
0.0000000000
0
SPLINE
5
46D
100
AcDbEntity
8
0
100
AcDbSpline
62
9
6
CONTINUOUS
70
0
71
3
72
10
73
6
74
4
42
0.0000001000
43
0.0000001000
44
0.0000000001
12
0.0000000000
22
1.0828954113
32
0.0000000000
13
7.6500958174
23
0.5080790332
33
0.0000000000
40
0.0000000000
40
0.0000000000
40
0.0000000000
40
0.0000000000
40
0.3626380513
40
0.7252761025
40
1.0000000000
40
1.0000000000
40
1.0000000000
40
1.0000000000
10
-8.0000000000
20
0.0000000000
30
0.0000000000
10
-8.0000000000
20
0.1308996939
30
0.0000000000
10
-7.5834549727
20
0.3926380591
30
0.0000000000
10
-5.9479124897
20
0.6986178886
30
0.0000000000
10
-4.4505521418
20
0.8367650119
30
0.0000000000
10
-3.7499974288
20
0.8832921626
30
0.0000000000
11
-8.0000000000
21
0.0000000000
31
0.0000000000
11
-7.3910362601
21
0.3826834324
31
0.0000000000
11
-5.6568542495
21
0.7071067812
31
0.0000000000
11
-3.7499974288
21
0.8832921626
31
0.0000000000
0
SPLINE
5
46E
100
AcDbEntity
8
0
100
AcDbSpline
62
9
6
CONTINUOUS
70
0
71
3
72
10
73
6
74
4
42
0.0000001000
43
0.0000001000
44
0.0000000001
12
-7.6500958174
22
0.5080790332
32
0.0000000000
13
-0.0000000000
23
1.0828954113
33
0.0000000000
40
0.0000000000
40
0.0000000000
40
0.0000000000
40
0.0000000000
40
0.2747238975
40
0.6373619487
40
1.0000000000
40
1.0000000000
40
1.0000000000
40
1.0000000000
10
-3.7499974288
20
-0.8832921626
30
0.0000000000
10
-4.4505521418
20
-0.8367650119
30
0.0000000000
10
-5.9479124897
20
-0.6986178886
30
0.0000000000
10
-7.5834549727
20
-0.3926380591
30
0.0000000000
10
-8.0000000000
20
-0.1308996939
30
0.0000000000
10
-8.0000000000
20
0.0000000000
30
0.0000000000
11
-3.7499974288
21
-0.8832921626
31
0.0000000000
11
-5.6568542495
21
-0.7071067812
31
0.0000000000
11
-7.3910362601
21
-0.3826834324
31
0.0000000000
11
-8.0000000000
21
0.0000000000
31
0.0000000000
0
SPLINE
5
46F
100
AcDbEntity
8
0
100
AcDbSpline
62
9
6
CONTINUOUS
70
0
71
3
72
10
73
6
74
4
42
0.0000001000
43
0.0000001000
44
0.0000000001
12
0.0000000000
22
-1.0828954113
32
0.0000000000
13
-7.6500958174
23
-0.5080790332
33
0.0000000000
40
0.0000000000
40
0.0000000000
40
0.0000000000
40
0.0000000000
40
0.3626380513
40
0.7252761025
40
1.0000000000
40
1.0000000000
40
1.0000000000
40
1.0000000000
10
8.0000000000
20
4.2000000000
30
0.0000000000
10
8.0000000000
20
4.0691003061
30
0.0000000000
10
7.5834549727
20
3.8073619409
30
0.0000000000
10
5.9479124897
20
3.5013821114
30
0.0000000000
10
4.4505521418
20
3.3632349881
30
0.0000000000
10
3.7499974288
20
3.3167078374
30
0.0000000000
11
8.0000000000
21
4.2000000000
31
0.0000000000
11
7.3910362601
21
3.8173165676
31
0.0000000000
11
5.6568542495
21
3.4928932188
31
0.0000000000
11
3.7499974288
21
3.3167078374
31
0.0000000000
0
SPLINE
5
470
100
AcDbEntity
8
0
100
AcDbSpline
62
9
6
CONTINUOUS
70
0
71
3
72
10
73
6
74
4
42
0.0000001000
43
0.0000001000
44
0.0000000001
12
7.6500958174
22
-0.5080790332
32
0.0000000000
13
0.0000000000
23
-1.0828954113
33
0.0000000000
40
0.0000000000
40
0.0000000000
40
0.0000000000
40
0.0000000000
40
0.2747238975
40
0.6373619487
40
1.0000000000
40
1.0000000000
40
1.0000000000
40
1.0000000000
10
3.7499974288
20
5.0832921626
30
0.0000000000
10
4.4505521418
20
5.0367650119
30
0.0000000000
10
5.9479124897
20
4.8986178886
30
0.0000000000
10
7.5834549727
20
4.5926380591
30
0.0000000000
10
8.0000000000
20
4.3308996939
30
0.0000000000
10
8.0000000000
20
4.2000000000
30
0.0000000000
11
3.7499974288
21
5.0832921626
31
0.0000000000
11
5.6568542495
21
4.9071067812
31
0.0000000000
11
7.3910362601
21
4.5826834324
31
0.0000000000
11
8.0000000000
21
4.2000000000
31
0.0000000000
0
SPLINE
5
471
100
AcDbEntity
8
0
100
AcDbSpline
62
9
6
CONTINUOUS
70
0
71
3
72
10
73
6
74
4
42
0.0000001000
43
0.0000001000
44
0.0000000001
12
0.0000000000
22
1.0828954113
32
0.0000000000
13
7.6500958174
23
0.5080790332
33
0.0000000000
40
0.0000000000
40
0.0000000000
40
0.0000000000
40
0.0000000000
40
0.3626380513
40
0.7252761025
40
1.0000000000
40
1.0000000000
40
1.0000000000
40
1.0000000000
10
-8.0000000000
20
4.2000000000
30
0.0000000000
10
-8.0000000000
20
4.3308996939
30
0.0000000000
10
-7.5834549727
20
4.5926380591
30
0.0000000000
10
-5.9479124897
20
4.8986178886
30
0.0000000000
10
-4.4505521418
20
5.0367650119
30
0.0000000000
10
-3.7499974288
20
5.0832921626
30
0.0000000000
11
-8.0000000000
21
4.2000000000
31
0.0000000000
11
-7.3910362601
21
4.5826834324
31
0.0000000000
11
-5.6568542495
21
4.9071067812
31
0.0000000000
11
-3.7499974288
21
5.0832921626
31
0.0000000000
0
SPLINE
5
472
100
AcDbEntity
8
0
100
AcDbSpline
62
9
6
CONTINUOUS
70
0
71
3
72
10
73
6
74
4
42
0.0000001000
43
0.0000001000
44
0.0000000001
12
-7.6500958174
22
0.5080790332
32
0.0000000000
13
0.0000000000
23
1.0828954113
33
0.0000000000
40
0.0000000000
40
0.0000000000
40
0.0000000000
40
0.0000000000
40
0.2747238975
40
0.6373619487
40
1.0000000000
40
1.0000000000
40
1.0000000000
40
1.0000000000
10
-3.7499974288
20
3.3167078374
30
0.0000000000
10
-4.4505521418
20
3.3632349881
30
0.0000000000
10
-5.9479124897
20
3.5013821114
30
0.0000000000
10
-7.5834549727
20
3.8073619409
30
0.0000000000
10
-8.0000000000
20
4.0691003061
30
0.0000000000
10
-8.0000000000
20
4.2000000000
30
0.0000000000
11
-3.7499974288
21
3.3167078374
31
0.0000000000
11
-5.6568542495
21
3.4928932188
31
0.0000000000
11
-7.3910362601
21
3.8173165676
31
0.0000000000
11
-8.0000000000
21
4.2000000000
31
0.0000000000
0
SPLINE
5
473
100
AcDbEntity
8
0
100
AcDbSpline
62
9
6
CONTINUOUS
70
0
71
3
72
10
73
6
74
4
42
0.0000001000
43
0.0000001000
44
0.0000000001
12
-7.6500958174
22
0.5080790332
32
0.0000000000
13
0.0000000000
23
1.0828954113
33
0.0000000000
40
0.0000000000
40
0.0000000000
40
0.0000000000
40
0.0000000000
40
0.2747238975
40
0.6373619487
40
1.0000000000
40
1.0000000000
40
1.0000000000
40
1.0000000000
10
-3.7499974288
20
7.5167078374
30
0.0000000000
10
-4.4505521418
20
7.5632349881
30
0.0000000000
10
-5.9479124897
20
7.7013821114
30
0.0000000000
10
-7.5834549727
20
8.0073619409
30
0.0000000000
10
-8.0000000000
20
8.2691003061
30
0.0000000000
10
-8.0000000000
20
8.4000000000
30
0.0000000000
11
-3.7499974288
21
7.5167078374
31
0.0000000000
11
-5.6568542495
21
7.6928932188
31
0.0000000000
11
-7.3910362601
21
8.0173165676
31
0.0000000000
11
-8.0000000000
21
8.4000000000
31
0.0000000000
0
SPLINE
5
474
100
AcDbEntity
8
0
100
AcDbSpline
62
9
6
CONTINUOUS
70
0
71
3
72
10
73
6
74
4
42
0.0000001000
43
0.0000001000
44
0.0000000001
12
0.0000000000
22
-1.0828954113
32
0.0000000000
13
-7.6500958174
23
-0.5080790332
33
0.0000000000
40
0.0000000000
40
0.0000000000
40
0.0000000000
40
0.0000000000
40
0.3626380513
40
0.7252761025
40
1.0000000000
40
1.0000000000
40
1.0000000000
40
1.0000000000
10
8.0000000000
20
8.4000000000
30
0.0000000000
10
8.0000000000
20
8.2691003061
30
0.0000000000
10
7.5834549727
20
8.0073619409
30
0.0000000000
10
5.9479124897
20
7.7013821114
30
0.0000000000
10
4.4505521418
20
7.5632349881
30
0.0000000000
10
3.7499974288
20
7.5167078374
30
0.0000000000
11
8.0000000000
21
8.4000000000
31
0.0000000000
11
7.3910362601
21
8.0173165676
31
0.0000000000
11
5.6568542495
21
7.6928932188
31
0.0000000000
11
3.7499974288
21
7.5167078374
31
0.0000000000
0
SPLINE
5
475
100
AcDbEntity
8
0
100
AcDbSpline
62
9
6
CONTINUOUS
70
0
71
3
72
56
73
52
74
50
42
0.0000001000
43
0.0000001000
44
0.0000000001
12
0.0012976623
22
17.0574963810
32
0.0000000000
13
0.0046691091
23
-17.0574957913
33
0.0000000000
40
0.0000000000
40
0.0000000000
40
0.0000000000
40
0.0000000000
40
0.0059692631
40
0.0125988198
40
0.0197685431
40
0.0273859328
40
0.0355242707
40
0.0442502068
40
0.0536553887
40
0.0638343531
40
0.0748657815
40
0.0868310873
40
0.0998236624
40
0.1139069328
40
0.1291606713
40
0.1456840455
40
0.1635904660
40
0.1829972667
40
0.2040133893
40
0.2267700902
40
0.2514217516
40
0.2781383803
40
0.3070971428
40
0.3385005860
40
0.3725815738
40
0.4095557826
40
0.4496772727
40
0.4934581879
40
0.5407417922
40
0.5891063188
40
0.6338888753
40
0.6736227680
40
0.7088146110
40
0.7403948267
40
0.7688543921
40
0.7945852049
40
0.8179462795
40
0.8392225567
40
0.8586429462
40
0.8764188884
40
0.8927340791
40
0.9077271667
40
0.9214827653
40
0.9341019072
40
0.9456980928
40
0.9563812936
40
0.9663074451
40
0.9755842372
40
0.9842998603
40
0.9924269614
40
1.0000000000
40
1.0000000000
40
1.0000000000
40
1.0000000000
10
-8.2189230010
20
-4.2016806723
30
0.0000000000
10
-8.2189204190
20
-4.1677404441
30
0.0000000000
10
-8.2082191251
20
-4.0956843485
30
0.0000000000
10
-8.1586216784
20
-3.9930092185
30
0.0000000000
10
-8.0768957521
20
-3.9010674013
30
0.0000000000
10
-7.9717102406
20
-3.8230980152
30
0.0000000000
10
-7.8495404713
20
-3.7558257031
30
0.0000000000
10
-7.7124970011
20
-3.6960599326
30
0.0000000000
10
-7.5609876100
20
-3.6414609652
30
0.0000000000
10
-7.3945279135
20
-3.5903663240
30
0.0000000000
10
-7.2122430983
20
-3.5417157164
30
0.0000000000
10
-7.0130145733
20
-3.4949026613
30
0.0000000000
10
-6.7956895758
20
-3.4495765979
30
0.0000000000
10
-6.5590533780
20
-3.4055590316
30
0.0000000000
10
-6.3018231465
20
-3.3627494651
30
0.0000000000
10
-6.0224113082
20
-3.3210647554
30
0.0000000000
10
-5.7189939293
20
-3.2805028602
30
0.0000000000
10
-5.3896769924
20
-3.2411432107
30
0.0000000000
10
-5.0324599398
20
-3.2030928734
30
0.0000000000
10
-4.6451238487
20
-3.1665200085
30
0.0000000000
10
-4.2250966160
20
-3.1316652695
30
0.0000000000
10
-3.7695409717
20
-3.0988651281
30
0.0000000000
10
-3.2753437962
20
-3.0685696243
30
0.0000000000
10
-2.7390342389
20
-3.0413848759
30
0.0000000000
10
-2.1569302342
20
-3.0180066425
30
0.0000000000
10
-1.5250641459
20
-2.9992718374
30
0.0000000000
10
-0.8378890359
20
-2.9862856380
30
0.0000000000
10
-0.0919919609
20
-2.9806044080
30
0.0000000000
10
0.7007910201
20
-2.9842326807
30
0.0000000000
10
1.4991587845
20
-2.9981139093
30
0.0000000000
10
2.2543710724
20
-3.0210246477
30
0.0000000000
10
2.9344019997
20
-3.0502589694
30
0.0000000000
10
3.5390630730
20
-3.0837919197
30
0.0000000000
10
4.0793094735
20
-3.1203880448
30
0.0000000000
10
4.5654415548
20
-3.1593355677
30
0.0000000000
10
5.0045085932
20
-3.2001158720
30
0.0000000000
10
5.4023808959
20
-3.2424115010
30
0.0000000000
10
5.7639888820
20
-3.2860780869
30
0.0000000000
10
6.0934106692
20
-3.3310703205
30
0.0000000000
10
6.3941357078
20
-3.3774078417
30
0.0000000000
10
6.6691125902
20
-3.4252304741
30
0.0000000000
10
6.9205309373
20
-3.4747581625
30
0.0000000000
10
7.1500706656
20
-3.5262396252
30
0.0000000000
10
7.3591815193
20
-3.5801175428
30
0.0000000000
10
7.5492801550
20
-3.6372305360
30
0.0000000000
10
7.7217349426
20
-3.6991455205
30
0.0000000000
10
7.8770261242
20
-3.7687123189
30
0.0000000000
10
8.0140828059
20
-3.8497476908
30
0.0000000000
10
8.1269036357
20
-3.9485048712
30
0.0000000000
10
8.2016780976
20
-4.0685373247
30
0.0000000000
10
8.2189112146
20
-4.1586216473
30
0.0000000000
10
8.2189230010
20
-4.2016806723
30
0.0000000000
11
-8.2189230010
21
-4.2016806723
31
0.0000000000
11
-8.2040865036
21
-4.1009467148
31
0.0000000000
11
-8.1558138001
21
-3.9986840363
31
0.0000000000
11
-8.0759197647
21
-3.9060901431
31
0.0000000000
11
-7.9726195867
21
-3.8272750880
31
0.0000000000
11
-7.8515828655
21
-3.7592970566
31
0.0000000000
11
-7.7154738113
21
-3.6990604209
31
0.0000000000
11
-7.5647433982
21
-3.6441262732
31
0.0000000000
11
-7.3988822665
21
-3.5927779981
31
0.0000000000
11
-7.2171560761
21
-3.5439620652
31
0.0000000000
11
-7.0185246608
21
-3.4970406422
31
0.0000000000
11
-6.8016128378
21
-3.4515979137
31
0.0000000000
11
-6.5654705288
21
-3.4074955201
31
0.0000000000
11
-6.3088358080
21
-3.3646263728
31
0.0000000000
11
-6.0300936737
21
-3.3229037589
31
0.0000000000
11
-5.7273646286
21
-3.2823090813
31
0.0000000000
11
-5.3986867930
21
-3.2429048898
31
0.0000000000
11
-5.0422326365
21
-3.2048248289
31
0.0000000000
11
-4.6557886445
21
-3.1682350725
31
0.0000000000
11
-4.2367410546
21
-3.1333683505
31
0.0000000000
11
-3.7822051055
21
-3.1005553149
31
0.0000000000
11
-3.2891713424
21
-3.0702546536
31
0.0000000000
11
-2.7541982733
21
-3.0430541981
31
0.0000000000
11
-2.1733335768
21
-3.0196420134
31
0.0000000000
11
-1.5429251174
21
-3.0008852979
31
0.0000000000
11
-0.8586759733
21
-2.9879091070
31
0.0000000000
11
-0.1119048734
21
-2.9822153677
31
0.0000000000
11
0.6946265893
21
-2.9859068139
31
0.0000000000
11
1.5194784933
21
-3.0003154306
31
0.0000000000
11
2.2830018642
21
-3.0235987873
31
0.0000000000
11
2.9601308009
21
-3.0528565212
31
0.0000000000
11
3.5594878270
21
-3.0862169685
31
0.0000000000
11
4.0969272071
21
-3.1227467676
31
0.0000000000
11
4.5808150305
21
-3.1616471971
31
0.0000000000
11
5.0178244087
21
-3.2023763590
31
0.0000000000
11
5.4140571525
21
-3.2446501794
31
0.0000000000
11
5.7743402648
21
-3.2883196326
31
0.0000000000
11
6.1025335642
21
-3.3333138820
31
0.0000000000
11
6.4021810472
21
-3.3796771454
31
0.0000000000
11
6.6763237452
21
-3.4275792958
31
0.0000000000
11
6.9271973363
21
-3.4772553469
31
0.0000000000
11
7.1560779970
21
-3.5289054182
31
0.0000000000
11
7.3644208442
21
-3.5830001283
31
0.0000000000
11
7.5536958672
21
-3.6404505854
31
0.0000000000
11
7.7249098146
21
-3.7028450465
31
0.0000000000
11
7.8789280255
21
-3.7731732725
31
0.0000000000
11
8.0140168538
21
-3.8555780132
31
0.0000000000
11
8.1237771652
21
-3.9558499671
31
0.0000000000
11
8.1951086638
21
-4.0747177043
31
0.0000000000
11
8.2189230010
21
-4.2016806723
31
0.0000000000
0
SPLINE
5
476
100
AcDbEntity
8
0
100
AcDbSpline
62
9
6
CONTINUOUS
70
0
71
3
72
57
73
53
74
51
42
0.0000001000
43
0.0000001000
44
0.0000000001
12
-0.0017329926
22
17.0548880622
32
0.0000000000
13
0.0005495704
23
-17.0548881414
33
0.0000000000
40
0.0000000000
40
0.0000000000
40
0.0000000000
40
0.0000000000
40
0.0057357362
40
0.0120962998
40
0.0189749423
40
0.0262783286
40
0.0340701481
40
0.0424105015
40
0.0513808192
40
0.0610739729
40
0.0715690045
40
0.0829399727
40
0.0952783834
40
0.1086484546
40
0.1231136227
40
0.1387610902
40
0.1556910294
40
0.1740170433
40
0.1938446069
40
0.2152890511
40
0.2384880321
40
0.2635958618
40
0.2907776279
40
0.3202097786
40
0.3521004297
40
0.3866710503
40
0.4241207270
40
0.4647816057
40
0.5090677914
40
0.5564150214
40
0.6033643227
40
0.6461255768
40
0.6839439905
40
0.7176260172
40
0.7479481819
40
0.7753316075
40
0.8001445361
40
0.8227215083
40
0.8433186896
40
0.8621509093
40
0.8794176245
40
0.8952904978
40
0.9098917009
40
0.9232940102
40
0.9355996055
40
0.9469161774
40
0.9573547099
40
0.9670710365
40
0.9761623362
40
0.9847128874
40
0.9926841802
40
1.0000000000
40
1.0000000000
40
1.0000000000
40
1.0000000000
10
-8.2179988278
20
-8.4033613445
30
0.0000000000
10
-8.2180021411
20
-8.3707538984
30
0.0000000000
10
-8.2081274501
20
-8.3016091927
30
0.0000000000
10
-8.1621762150
20
-8.2023971603
30
0.0000000000
10
-8.0858050834
20
-8.1125055831
30
0.0000000000
10
-7.9866048234
20
-8.0356266713
30
0.0000000000
10
-7.8708203305
20
-7.9691661916
30
0.0000000000
10
-7.7407552690
20
-7.9100863283
30
0.0000000000
10
-7.5969152609
20
-7.8562075909
30
0.0000000000
10
-7.4389175921
20
-7.8058898316
30
0.0000000000
10
-7.2659583599
20
-7.7580727026
30
0.0000000000
10
-7.0770013597
20
-7.7120707537
30
0.0000000000
10
-6.8709541495
20
-7.6674897962
30
0.0000000000
10
-6.6467110878
20
-7.6241041636
30
0.0000000000
10
-6.4031454023
20
-7.5818076967
30
0.0000000000
10
-6.1388999186
20
-7.5405502257
30
0.0000000000
10
-5.8523142040
20
-7.5003277871
30
0.0000000000
10
-5.5416086325
20
-7.4612168636
30
0.0000000000
10
-5.2049122118
20
-7.4233282054
30
0.0000000000
10
-4.8402158019
20
-7.3867756668
30
0.0000000000
10
-4.4452239826
20
-7.3517523139
30
0.0000000000
10
-4.0173545538
20
-7.3185211899
30
0.0000000000
10
-3.5538014559
20
-7.2874459403
30
0.0000000000
10
-3.0514518033
20
-7.2590042671
30
0.0000000000
10
-2.5068738086
20
-7.2338171652
30
0.0000000000
10
-1.9165155413
20
-7.2125766316
30
0.0000000000
10
-1.2761253773
20
-7.1961808496
30
0.0000000000
10
-0.5803677061
20
-7.1858174629
30
0.0000000000
10
0.1717333973
20
-7.1831764133
30
0.0000000000
10
0.9595619562
20
-7.1900821170
30
0.0000000000
10
1.7385723349
20
-7.2068181474
30
0.0000000000
10
2.4631655286
20
-7.2315901773
30
0.0000000000
10
3.1120516223
20
-7.2618156171
30
0.0000000000
10
3.6899254139
20
-7.2957918990
30
0.0000000000
10
4.2081722643
20
-7.3325364470
30
0.0000000000
10
4.6756832532
20
-7.3714386378
30
0.0000000000
10
5.0988335517
20
-7.4120585032
30
0.0000000000
10
5.4830527691
20
-7.4541360992
30
0.0000000000
10
5.8328827021
20
-7.4975807891
30
0.0000000000
10
6.1520901398
20
-7.5423366674
30
0.0000000000
10
6.4439506851
20
-7.5884053043
30
0.0000000000
10
6.7111863584
20
-7.6359022297
30
0.0000000000
10
6.9557659435
20
-7.6850029821
30
0.0000000000
10
7.1792086978
20
-7.7359928159
30
0.0000000000
10
7.3828606484
20
-7.7893554837
30
0.0000000000
10
7.5680879621
20
-7.8460202353
30
0.0000000000
10
7.7362034477
20
-7.9075884058
30
0.0000000000
10
7.8875955799
20
-7.9768887822
30
0.0000000000
10
8.0210894479
20
-8.0576522199
30
0.0000000000
10
8.1304210916
20
-8.1559743968
30
0.0000000000
10
8.2017816521
20
-8.2741162508
30
0.0000000000
10
8.2179974876
20
-8.3617711820
30
0.0000000000
10
8.2179988278
20
-8.4033613445
30
0.0000000000
11
-8.2179988278
21
-8.4033613445
31
0.0000000000
11
-8.2042714301
21
-8.3065069768
31
0.0000000000
11
-8.1594704280
21
-8.2077117405
31
0.0000000000
11
-8.0847258680
21
-8.1172908477
31
0.0000000000
11
-7.9873042772
21
-8.0396774626
31
0.0000000000
11
-7.8726241018
21
-7.9725370115
31
0.0000000000
11
-7.7434354962
21
-7.9130088562
31
0.0000000000
11
-7.6003692209
21
-7.8588120183
31
0.0000000000
11
-7.4429745545
21
-7.8082533060
31
0.0000000000
11
-7.2705379310
21
-7.7602574664
31
0.0000000000
11
-7.0821682540
21
-7.7141495682
31
0.0000000000
11
-6.8765393494
21
-7.6694547223
31
0.0000000000
11
-6.6526979176
21
-7.6259754713
31
0.0000000000
11
-6.4096587596
21
-7.5836226910
31
0.0000000000
11
-6.1460073114
21
-7.5423277446
31
0.0000000000
11
-5.8600876073
21
-7.5020824626
31
0.0000000000
11
-5.5500005957
21
-7.4629369618
31
0.0000000000
11
-5.2139772110
21
-7.4250112328
31
0.0000000000
11
-4.8500778339
21
-7.3884383589
31
0.0000000000
11
-4.4559762762
21
-7.3534004612
31
0.0000000000
11
-4.0290573997
21
-7.3201570087
31
0.0000000000
11
-3.5665188910
21
-7.2890703286
31
0.0000000000
11
-3.0653635577
21
-7.2606235423
31
0.0000000000
11
-2.5220566940
21
-7.2354123841
31
0.0000000000
11
-1.9328424051
21
-7.2141426301
31
0.0000000000
11
-1.2943530030
21
-7.1977404027
31
0.0000000000
11
-0.6009636035
21
-7.1873837982
31
0.0000000000
11
0.1543276825
21
-7.1847313586
31
0.0000000000
11
0.9617982779
21
-7.1918202576
31
0.0000000000
11
1.7623268437
21
-7.2091019919
31
0.0000000000
11
2.4911851418
21
-7.2341451522
31
0.0000000000
11
3.1354689871
21
-7.2642930830
31
0.0000000000
11
3.7089150355
21
-7.2981252830
31
0.0000000000
11
4.2247524227
21
-7.3348231984
31
0.0000000000
11
4.6901542387
21
-7.3736819998
31
0.0000000000
11
5.1113863645
21
-7.4142562000
31
0.0000000000
11
5.4941289033
21
-7.4563264720
31
0.0000000000
11
5.8427145309
21
-7.4997723266
31
0.0000000000
11
6.1607626960
21
-7.5445256105
31
0.0000000000
11
6.4516152295
21
-7.5906167292
31
0.0000000000
11
6.7181116533
21
-7.6381940627
31
0.0000000000
11
6.9622124958
21
-7.6874553911
31
0.0000000000
11
7.1849892426
21
-7.7386120120
31
0.0000000000
11
7.3879012786
21
-7.7922063585
31
0.0000000000
11
7.5722959360
21
-7.8492038780
31
0.0000000000
11
7.7391673479
21
-7.9112353408
31
0.0000000000
11
7.8893402320
21
-7.9812938518
31
0.0000000000
11
8.0208659167
21
-8.0634025477
31
0.0000000000
11
8.1272517426
21
-8.1631425287
31
0.0000000000
11
8.1957098954
21
-8.2805978399
31
0.0000000000
11
8.2179988278
21
-8.4033613445
31
0.0000000000
0
SPLINE
5
477
100
AcDbEntity
8
0
100
AcDbSpline
62
9
6
CONTINUOUS
70
0
71
3
72
9
73
5
74
3
42
0.0000001000
43
0.0000001000
44
0.0000000001
12
0.0692477919
22
0.1980421547
32
0.0000000000
13
0.0000016715
23
0.2086998742
33
0.0000000000
40
0.0000000000
40
0.0000000000
40
0.0000000000
40
0.0000000000
40
0.2309253948
40
1.0000000000
40
1.0000000000
40
1.0000000000
40
1.0000000000
10
-19.4552162966
20
-3.2370975587
30
0.0000000000
10
-19.4498859388
20
-3.2218532378
30
0.0000000000
10
-19.4302528000
20
-3.1545845078
30
0.0000000000
10
-19.4240533211
20
-3.0845908377
30
0.0000000000
10
-19.4240528926
20
-3.0310889132
30
0.0000000000
11
-19.4552162966
21
-3.2370975587
31
0.0000000000
11
-19.4415347287
21
-3.1906398101
31
0.0000000000
11
-19.4240528926
21
-3.0310889132
31
0.0000000000
0
SPLINE
5
478
100
AcDbEntity
8
0
100
AcDbSpline
62
9
6
CONTINUOUS
70
0
71
3
72
9
73
5
74
3
42
0.0000001000
43
0.0000001000
44
0.0000000001
12
0.0000005402
22
0.3421522031
32
0.0000000000
13
-0.0873414609
23
0.3309782467
33
0.0000000000
40
0.0000000000
40
0.0000000000
40
0.0000000000
40
0.0000000000
40
0.5572447193
40
1.0000000000
40
1.0000000000
40
1.0000000000
40
1.0000000000
10
-19.4240528926
20
-3.0310889132
30
0.0000000000
10
-19.4240527922
20
-2.9675347438
30
0.0000000000
10
-19.4361783304
20
-2.8534717778
30
0.0000000000
10
-19.4610985931
20
-2.7420406024
30
0.0000000000
10
-19.4739888908
20
-2.6931931468
30
0.0000000000
11
-19.4240528926
21
-3.0310889132
31
0.0000000000
11
-19.4415396158
21
-2.8412300009
31
0.0000000000
11
-19.4739888908
21
-2.6931931468
31
0.0000000000
0
SPLINE
5
479
100
AcDbEntity
8
0
100
AcDbSpline
62
9
6
CONTINUOUS
70
0
71
3
72
8
73
4
74
2
42
0.0000001000
43
0.0000001000
44
0.0000000001
12
0.0152425794
22
0.2285968923
32
0.0000000000
13
0.0002631075
23
0.2289809709
33
0.0000000000
40
0.0000000000
40
0.0000000000
40
0.0000000000
40
0.0000000000
40
1.0000000000
40
1.0000000000
40
1.0000000000
40
1.0000000000
10
-19.4318121301
20
-0.2328971122
30
0.0000000000
10
-19.4267312703
20
-0.1566981481
30
0.0000000000
10
-19.4241429019
20
-0.0803385984
30
0.0000000000
10
-19.4240551994
20
-0.0040116081
30
0.0000000000
11
-19.4318121301
21
-0.2328971122
31
0.0000000000
11
-19.4240551994
21
-0.0040116081
31
0.0000000000
0
SPLINE
5
47A
100
AcDbEntity
8
0
100
AcDbSpline
62
9
6
CONTINUOUS
70
0
71
3
72
8
73
4
74
2
42
0.0000001000
43
0.0000001000
44
0.0000000001
12
0.0000046095
22
0.0040116391
32
0.0000000000
13
0.0000000042
23
0.0040115760
33
0.0000000000
40
0.0000000000
40
0.0000000000
40
0.0000000000
40
0.0000000000
40
1.0000000000
40
1.0000000000
40
1.0000000000
40
1.0000000000
10
-19.4240551994
20
-0.0040116081
30
0.0000000000
10
-19.4240536629
20
-0.0026743950
30
0.0000000000
10
-19.4240528939
20
-0.0013371920
30
0.0000000000
10
-19.4240528926
20
0.0000000000
30
0.0000000000
11
-19.4240551994
21
-0.0040116081
31
0.0000000000
11
-19.4240528926
21
0.0000000000
31
0.0000000000
0
SPLINE
5
47B
100
AcDbEntity
8
0
100
AcDbSpline
62
9
6
CONTINUOUS
70
0
71
3
72
8
73
4
74
2
42
0.0000001000
43
0.0000001000
44
0.0000000001
12
0.0000000872
22
0.1455352881
32
0.0000000000
13
-0.0060590796
23
0.1454945857
33
0.0000000000
40
0.0000000000
40
0.0000000000
40
0.0000000000
40
0.0000000000
40
1.0000000000
40
1.0000000000
40
1.0000000000
40
1.0000000000
10
-19.4240528926
20
0.0000000000
30
0.0000000000
10
-19.4240528635
20
0.0485117627
30
0.0000000000
10
-19.4250639438
20
0.0970413927
30
0.0000000000
10
-19.4270836370
20
0.1455395880
30
0.0000000000
11
-19.4240528926
21
0.0000000000
31
0.0000000000
11
-19.4270836370
21
0.1455395880
31
0.0000000000
0
SPLINE
5
47C
100
AcDbEntity
8
0
100
AcDbSpline
62
9
6
CONTINUOUS
70
0
71
3
72
8
73
4
74
2
42
0.0000001000
43
0.0000001000
44
0.0000000001
12
-0.0121694372
22
0.2922204907
32
0.0000000000
13
-0.0365207619
23
0.2902613229
33
0.0000000000
40
0.0000000000
40
0.0000000000
40
0.0000000000
40
0.0000000000
40
1.0000000000
40
1.0000000000
40
1.0000000000
40
1.0000000000
10
-19.4270836370
20
0.1455395880
30
0.0000000000
10
-19.4311401161
20
0.2429464182
30
0.0000000000
10
-19.4392652625
20
0.3402264430
30
0.0000000000
10
-19.4514388498
20
0.4369802173
30
0.0000000000
11
-19.4270836370
21
0.1455395880
31
0.0000000000
11
-19.4514388498
21
0.4369802173
31
0.0000000000
0
SPLINE
5
47D
100
AcDbEntity
8
0
100
AcDbSpline
62
9
6
CONTINUOUS
70
0
71
3
72
9
73
5
74
3
42
0.0000001000
43
0.0000001000
44
0.0000000001
12
0.0720664984
22
0.2730933721
32
0.0000000000
13
0.0176221626
23
0.2819714902
33
0.0000000000
40
0.0000000000
40
0.0000000000
40
0.0000000000
40
0.0000000000
40
0.5365927164
40
1.0000000000
40
1.0000000000
40
1.0000000000
40
1.0000000000
10
-19.4739888856
20
2.6931928823
30
0.0000000000
10
-19.4610987662
20
2.7420395204
30
0.0000000000
10
-19.4405367583
20
2.8339824557
30
0.0000000000
10
-19.4286857390
20
2.9277171141
30
0.0000000000
10
-19.4259636595
20
2.9712729948
30
0.0000000000
11
-19.4739888856
21
2.6931928823
31
0.0000000000
11
-19.4415400890
21
2.8412272332
31
0.0000000000
11
-19.4259636595
21
2.9712729948
31
0.0000000000
0
SPLINE
5
47E
100
AcDbEntity
8
0
100
AcDbSpline
62
9
6
CONTINUOUS
70
0
71
3
72
8
73
4
74
2
42
0.0000001000
43
0.0000001000
44
0.0000000001
12
0.0037352126
22
0.0597669818
32
0.0000000000
13
0.0000002821
23
0.0598393807
33
0.0000000000
40
0.0000000000
40
0.0000000000
40
0.0000000000
40
0.0000000000
40
1.0000000000
40
1.0000000000
40
1.0000000000
40
1.0000000000
10
-19.4259636595
20
2.9712729948
30
0.0000000000
10
-19.4247185886
20
2.9911953221
30
0.0000000000
10
-19.4240529866
20
3.0111424530
30
0.0000000000
10
-19.4240528926
20
3.0310889132
30
0.0000000000
11
-19.4259636595
21
2.9712729948
31
0.0000000000
11
-19.4240528926
21
3.0310889132
31
0.0000000000
0
SPLINE
5
47F
100
AcDbEntity
8
0
100
AcDbSpline
62
9
6
CONTINUOUS
70
0
71
3
72
10
73
6
74
4
42
0.0000001000
43
0.0000001000
44
0.0000000001
12
0.0000010481
22
0.5316169239
32
0.0000000000
13
-0.4997815173
23
0.1960289704
33
0.0000000000
40
0.0000000000
40
0.0000000000
40
0.0000000000
40
0.0000000000
40
0.3699452636
40
0.6873069184
40
1.0000000000
40
1.0000000000
40
1.0000000000
40
1.0000000000
10
-19.4240528926
20
3.0310889132
30
0.0000000000
10
-19.4240527633
20
3.0966453009
30
0.0000000000
10
-19.4368521720
20
3.2198932332
30
0.0000000000
10
-19.5237800850
20
3.3817385480
30
0.0000000000
10
-19.6218305158
20
3.4435787474
30
0.0000000000
10
-19.6739232568
20
3.4640110483
30
0.0000000000
11
-19.4240528926
21
3.0310889132
31
0.0000000000
11
-19.4514326691
21
3.2258428799
31
0.0000000000
11
-19.5351671322
21
3.3723121000
31
0.0000000000
11
-19.6739232568
21
3.4640110483
31
0.0000000000
0
SPLINE
5
480
100
AcDbEntity
8
0
100
AcDbSpline
62
9
6
CONTINUOUS
70
0
71
3
72
10
73
6
74
4
42
0.0000001000
43
0.0000001000
44
0.0000000001
12
3.9999955066
22
-0.0187275898
32
0.0000000000
13
4.0000044931
23
-0.0166982213
33
0.0000000000
40
0.0000000000
40
0.0000000000
40
0.0000000000
40
0.0000000000
40
0.3348254875
40
0.6681603972
40
1.0000000000
40
1.0000000000
40
1.0000000000
40
1.0000000000
10
-49.6740528926
20
22.6631666220
30
0.0000000000
10
-49.2276194107
20
22.6610764638
30
0.0000000000
10
-48.3367395460
20
22.6569767891
30
0.0000000000
10
-47.0034062099
20
22.6510621636
30
0.0000000000
10
-46.1165061933
20
22.6472803419
30
0.0000000000
10
-45.6740528926
20
22.6454332982
30
0.0000000000
11
-49.6740528926
21
22.6631666220
31
0.0000000000
11
-48.3347519430
21
22.6570047473
31
0.0000000000
11
-47.0014123005
21
22.6510916001
31
0.0000000000
11
-45.6740528926
21
22.6454332982
31
0.0000000000
0
SPLINE
5
481
100
AcDbEntity
8
0
100
AcDbSpline
62
9
6
CONTINUOUS
70
0
71
3
72
10
73
6
74
4
42
0.0000001000
43
0.0000001000
44
0.0000000001
12
3.9999955066
22
0.0187275898
32
0.0000000000
13
4.0000044931
23
0.0166982213
33
0.0000000000
40
0.0000000000
40
0.0000000000
40
0.0000000000
40
0.0000000000
40
0.3348254875
40
0.6681603972
40
1.0000000000
40
1.0000000000
40
1.0000000000
40
1.0000000000
10
-49.6740528926
20
-22.6631666220
30
0.0000000000
10
-49.2276194107
20
-22.6610764638
30
0.0000000000
10
-48.3367395460
20
-22.6569767891
30
0.0000000000
10
-47.0034062099
20
-22.6510621636
30
0.0000000000
10
-46.1165061933
20
-22.6472803419
30
0.0000000000
10
-45.6740528926
20
-22.6454332982
30
0.0000000000
11
-49.6740528926
21
-22.6631666220
31
0.0000000000
11
-48.3347519430
21
-22.6570047473
31
0.0000000000
11
-47.0014123005
21
-22.6510916001
31
0.0000000000
11
-45.6740528926
21
-22.6454332982
31
0.0000000000
0
SPLINE
5
482
100
AcDbEntity
8
0
100
AcDbSpline
62
9
6
CONTINUOUS
70
0
71
3
72
12
73
8
74
6
42
0.0000001000
43
0.0000001000
44
0.0000000001
12
-0.4990705807
22
0.0261551808
32
0.0000000000
13
0.0261471146
23
0.4990710033
33
0.0000000000
40
0.0000000000
40
0.0000000000
40
0.0000000000
40
0.0000000000
40
0.0492079808
40
0.1912447975
40
0.4123917745
40
0.6910545422
40
1.0000000000
40
1.0000000000
40
1.0000000000
40
1.0000000000
10
-57.7853079125
20
-21.9749071372
30
0.0000000000
10
-57.7934939977
20
-21.9744781227
30
0.0000000000
10
-57.7774661316
20
-21.9242216375
30
0.0000000000
10
-57.7907938318
20
-21.8725164707
30
0.0000000000
10
-57.7790818975
20
-21.7567818087
30
0.0000000000
10
-57.7762149761
20
-21.6256527227
30
0.0000000000
10
-57.7705588150
20
-21.5269876097
30
0.0000000000
10
-57.7678661376
20
-21.4755923698
30
0.0000000000
11
-57.7853079125
21
-21.9749071372
31
0.0000000000
11
-57.7867162604
21
-21.9503555394
31
0.0000000000
11
-57.7854282986
21
-21.8793835478
31
0.0000000000
11
-57.7815700199
21
-21.7689315022
31
0.0000000000
11
-57.7755187306
21
-21.6297997904
31
0.0000000000
11
-57.7678661376
21
-21.4755923698
31
0.0000000000
0
SPLINE
5
483
100
AcDbEntity
8
0
100
AcDbSpline
62
9
6
CONTINUOUS
70
0
71
3
72
10
73
6
74
4
42
0.0000001000
43
0.0000001000
44
0.0000000001
12
4.0000092589
22
-0.0379979400
32
0.0000000000
13
3.9999901746
23
-0.0399564427
33
0.0000000000
40
0.0000000000
40
0.0000000000
40
0.0000000000
40
0.0000000000
40
0.3348247119
40
0.6681596146
40
1.0000000000
40
1.0000000000
40
1.0000000000
40
1.0000000000
10
-49.6740528926
20
23.1799085618
30
0.0000000000
10
-49.2276189100
20
23.1756676787
30
0.0000000000
10
-48.3367380126
20
23.1671360870
30
0.0000000000
10
-47.0034046276
20
23.1541540459
30
0.0000000000
10
-46.1165056530
20
23.1453715028
30
0.0000000000
10
-45.6740528926
20
23.1409517823
30
0.0000000000
11
-49.6740528926
21
23.1799085618
31
0.0000000000
11
-48.3347519430
21
23.1670812840
31
0.0000000000
11
-47.0014123005
21
23.1540976759
31
0.0000000000
11
-45.6740528926
21
23.1409517823
31
0.0000000000
0
SPLINE
5
484
100
AcDbEntity
8
0
100
AcDbSpline
62
9
6
CONTINUOUS
70
0
71
3
72
13
73
9
74
7
42
0.0000001000
43
0.0000001000
44
0.0000000001
12
-0.7353273404
22
0.0383581398
32
0.0000000000
13
-0.0308205180
23
0.7356818199
33
0.0000000000
40
0.0000000000
40
0.0000000000
40
0.0000000000
40
0.0000000000
40
0.1664433564
40
0.3332955287
40
0.5000679105
40
0.6668499789
40
0.8336838494
40
1.0000000000
40
1.0000000000
40
1.0000000000
40
1.0000000000
10
-57.7678661376
20
-21.4755923698
30
0.0000000000
10
-57.8086629211
20
-21.4734642173
30
0.0000000000
10
-57.8901792815
20
-21.4590384867
30
0.0000000000
10
-58.0032598663
20
-21.4083351480
30
0.0000000000
10
-58.1007183703
20
-21.3315400004
30
0.0000000000
10
-58.1764804436
20
-21.2332822994
30
0.0000000000
10
-58.2259806125
20
-21.1197061361
30
0.0000000000
10
-58.2395475446
20
-21.0380811728
30
0.0000000000
10
-58.2412561946
20
-20.9972959167
30
0.0000000000
11
-57.7678661376
21
-21.4755923698
31
0.0000000000
11
-57.8885460403
21
-21.4542260342
31
0.0000000000
11
-58.0006600540
21
-21.4039818070
31
0.0000000000
11
-58.0971016253
21
-21.3279645393
31
0.0000000000
11
-58.1721041914
21
-21.2307227351
31
0.0000000000
11
-58.2211618949
21
-21.1180991805
31
0.0000000000
11
-58.2412561946
21
-20.9972959167
31
0.0000000000
0
SPLINE
5
485
100
AcDbEntity
8
0
100
AcDbSpline
62
9
6
CONTINUOUS
70
0
71
3
72
9
73
5
74
3
42
0.0000001000
43
0.0000001000
44
0.0000000001
12
1.5000066365
22
0.0711204174
32
0.0000000000
13
1.4999933276
23
0.0714005640
33
0.0000000000
40
0.0000000000
40
0.0000000000
40
0.0000000000
40
0.0000000000
40
0.4999417946
40
1.0000000000
40
1.0000000000
40
1.0000000000
40
1.0000000000
10
-49.6740528926
20
-18.2308351883
30
0.0000000000
10
-49.4240808893
20
-18.2189831653
30
0.0000000000
10
-48.9240797770
20
-18.1952531559
30
0.0000000000
10
-48.4240808831
20
-18.1714764515
30
0.0000000000
10
-48.1740528926
20
-18.1595749722
30
0.0000000000
11
-49.6740528926
21
-18.2308351883
31
0.0000000000
11
-48.9241385371
21
-18.1952442473
31
0.0000000000
11
-48.1740528926
21
-18.1595749722
31
0.0000000000
0
SPLINE
5
486
100
AcDbEntity
8
0
100
AcDbSpline
62
9
6
CONTINUOUS
70
0
71
3
72
9
73
5
74
3
42
0.0000001000
43
0.0000001000
44
0.0000000001
12
-1.4999933276
22
0.0714005640
32
0.0000000000
13
-1.5000066365
23
0.0711204174
33
0.0000000000
40
0.0000000000
40
0.0000000000
40
0.0000000000
40
0.0000000000
40
0.5000582054
40
1.0000000000
40
1.0000000000
40
1.0000000000
40
1.0000000000
10
-48.1740528926
20
18.1595749722
30
0.0000000000
10
-48.4240808831
20
18.1714764515
30
0.0000000000
10
-48.9240797770
20
18.1952531559
30
0.0000000000
10
-49.4240808893
20
18.2189831653
30
0.0000000000
10
-49.6740528926
20
18.2308351883
30
0.0000000000
11
-48.1740528926
21
18.1595749722
31
0.0000000000
11
-48.9241385370
21
18.1952442473
31
0.0000000000
11
-49.6740528926
21
18.2308351883
31
0.0000000000
0
SPLINE
5
487
100
AcDbEntity
8
0
100
AcDbSpline
62
9
6
CONTINUOUS
70
0
71
3
72
10
73
6
74
4
42
0.0000001000
43
0.0000001000
44
0.0000000001
12
-1.7657700567
22
41.9684643682
32
0.0000000000
13
1.7657699116
23
41.9684643743
33
0.0000000000
40
0.0000000000
40
0.0000000000
40
0.0000000000
40
0.0000000000
40
0.3333328627
40
0.6666672760
40
1.0000000000
40
1.0000000000
40
1.0000000000
40
1.0000000000
10
-58.2412561946
20
-20.9972959167
30
0.0000000000
10
-58.4374525906
20
-16.3341397924
30
0.0000000000
10
-58.6991352999
20
-7.0017558249
30
0.0000000000
10
-58.6991352386
20
7.0017597117
30
0.0000000000
10
-58.4374524928
20
16.3341417329
30
0.0000000000
10
-58.2412561946
20
20.9972959167
30
0.0000000000
11
-58.2412561946
21
-20.9972959167
31
0.0000000000
11
-58.6337143081
21
-7.0009521365
31
0.0000000000
11
-58.6337142308
21
7.0009579653
31
0.0000000000
11
-58.2412561946
21
20.9972959167
31
0.0000000000
0
SPLINE
5
488
100
AcDbEntity
8
0
100
AcDbSpline
62
9
6
CONTINUOUS
70
0
71
3
72
13
73
9
74
7
42
0.0000001000
43
0.0000001000
44
0.0000000001
12
0.0308204848
22
0.7356818212
32
0.0000000000
13
0.7353273388
23
0.0383581706
33
0.0000000000
40
0.0000000000
40
0.0000000000
40
0.0000000000
40
0.0000000000
40
0.1663161506
40
0.3331500210
40
0.4999320895
40
0.6667044713
40
0.8335566435
40
1.0000000000
40
1.0000000000
40
1.0000000000
40
1.0000000000
10
-58.2412561946
20
20.9972959167
30
0.0000000000
10
-58.2395475465
20
21.0380811729
30
0.0000000000
10
-58.2259806112
20
21.1197061359
30
0.0000000000
10
-58.1764804442
20
21.2332822996
30
0.0000000000
10
-58.1007183702
20
21.3315400005
30
0.0000000000
10
-58.0032598661
20
21.4083351474
30
0.0000000000
10
-57.8901792817
20
21.4590384880
30
0.0000000000
10
-57.8086629210
20
21.4734642156
30
0.0000000000
10
-57.7678661376
20
21.4755923698
30
0.0000000000
11
-58.2412561946
21
20.9972959167
31
0.0000000000
11
-58.2211618947
21
21.1180991804
31
0.0000000000
11
-58.1721041916
21
21.2307227352
31
0.0000000000
11
-58.0971016253
21
21.3279645393
31
0.0000000000
11
-58.0006600539
21
21.4039818068
31
0.0000000000
11
-57.8885460404
21
21.4542260345
31
0.0000000000
11
-57.7678661376
21
21.4755923698
31
0.0000000000
0
SPLINE
5
489
100
AcDbEntity
8
0
100
AcDbSpline
62
9
6
CONTINUOUS
70
0
71
3
72
10
73
6
74
4
42
0.0000001000
43
0.0000001000
44
0.0000000001
12
4.0000092589
22
0.0379979400
32
0.0000000000
13
3.9999901746
23
0.0399564427
33
0.0000000000
40
0.0000000000
40
0.0000000000
40
0.0000000000
40
0.0000000000
40
0.3348247119
40
0.6681596146
40
1.0000000000
40
1.0000000000
40
1.0000000000
40
1.0000000000
10
-49.6740528926
20
-23.1799085618
30
0.0000000000
10
-49.2276189100
20
-23.1756676787
30
0.0000000000
10
-48.3367380126
20
-23.1671360870
30
0.0000000000
10
-47.0034046276
20
-23.1541540459
30
0.0000000000
10
-46.1165056530
20
-23.1453715028
30
0.0000000000
10
-45.6740528926
20
-23.1409517823
30
0.0000000000
11
-49.6740528926
21
-23.1799085618
31
0.0000000000
11
-48.3347519430
21
-23.1670812840
31
0.0000000000
11
-47.0014123005
21
-23.1540976759
31
0.0000000000
11
-45.6740528926
21
-23.1409517823
31
0.0000000000
0
SPLINE
5
48A
100
AcDbEntity
8
0
100
AcDbSpline
62
9
6
CONTINUOUS
70
0
71
3
72
12
73
8
74
6
42
0.0000001000
43
0.0000001000
44
0.0000000001
12
-0.4990705852
22
-0.0261551811
32
0.0000000000
13
0.0261472363
23
-0.4990710015
33
0.0000000000
40
0.0000000000
40
0.0000000000
40
0.0000000000
40
0.0000000000
40
0.0492065483
40
0.1912403570
40
0.4123852873
40
0.6910492528
40
1.0000000000
40
1.0000000000
40
1.0000000000
40
1.0000000000
10
-57.7853079125
20
21.9749071372
30
0.0000000000
10
-57.7934937594
20
21.9744781351
30
0.0000000000
10
-57.7774664408
20
21.9242228489
30
0.0000000000
10
-57.7907938662
20
21.8725184816
30
0.0000000000
10
-57.7790820469
20
21.7567844815
30
0.0000000000
10
-57.7762151216
20
21.6256547081
30
0.0000000000
10
-57.7705588736
20
21.5269884894
30
0.0000000000
10
-57.7678661376
20
21.4755923698
30
0.0000000000
11
-57.7853079125
21
21.9749071372
31
0.0000000000
11
-57.7867162874
21
21.9503562579
31
0.0000000000
11
-57.7854284070
21
21.8793857676
31
0.0000000000
11
-57.7815701949
21
21.7689347421
31
0.0000000000
11
-57.7755188846
21
21.6298024308
31
0.0000000000
11
-57.7678661376
21
21.4755923698
31
0.0000000000
0
SPLINE
5
48B
100
AcDbEntity
8
CURVE
100
AcDbSpline
62
9
6
CONTINUOUS
70
0
71
3
72
21
73
17
74
15
42
0.0000001000
43
0.0000001000
44
0.0000000001
12
-0.3014766412
22
-7.6838463145
32
0.0052622943
13
0.2606123889
23
7.5989950615
33
-0.0045490062
40
0.0000000000
40
0.0000000000
40
0.0000000000
40
0.0000000000
40
0.0731707317
40
0.1463414634
40
0.2195121951
40
0.2926829268
40
0.3658536585
40
0.4390243902
40
0.5121951220
40
0.5853658537
40
0.6585365854
40
0.7317073171
40
0.8048780488
40
0.8780487805
40
0.9512195122
40
1.0000000000
40
1.0000000000
40
1.0000000000
40
1.0000000000
10
-46.7399818892
20
-7.9824410000
30
10.9749681975
10
-46.7473349780
20
-8.1698518857
30
10.9750965462
10
-46.7206321659
20
-8.5362569491
30
10.9746304468
10
-46.5655647184
20
-9.0685498312
30
10.9719237345
10
-46.2963467529
20
-9.5586633837
30
10.9672245174
10
-45.9089370897
20
-10.0005089564
30
10.9604622566
10
-45.3967648060
20
-10.3594114617
30
10.9515222561
10
-44.7991448488
20
-10.5857569284
30
10.9410907610
10
-44.1875844878
20
-10.6563990905
30
10.9304159352
10
-43.5652478069
20
-10.5813555289
30
10.9195530080
10
-42.9709648887
20
-10.3491699703
30
10.9091797611
10
-42.4704420569
20
-9.9937333522
30
10.9004431025
10
-42.0898246346
20
-9.5590963631
30
10.8937994007
10
-41.8203926326
20
-9.0698600501
30
10.8890964476
10
-41.6823782756
20
-8.5971497536
30
10.8866873981
10
-41.6492175861
20
-8.2927390547
30
10.8861085761
10
-41.6449799863
20
-8.1691781594
30
10.8860346085
11
-46.7399818892
21
-7.9824410000
31
10.9749681975
11
-46.7014632943
21
-8.5333711636
31
10.9742958530
11
-46.5465396321
21
-9.0615199429
31
10.9715916504
11
-46.2766481366
21
-9.5506187204
31
10.9668806768
11
-45.8881433196
21
-9.9866851118
31
10.9600993000
11
-45.3825235271
21
-10.3373186219
31
10.9512736737
11
-44.7968214482
21
-10.5598063776
31
10.9410502059
11
-44.1857884345
21
-10.6321181366
31
10.9303845849
11
-43.5699234340
21
-10.5551651961
31
10.9196346214
11
-42.9865915698
21
-10.3286281271
31
10.9094525258
11
-42.4904262918
21
-9.9805332903
31
10.9007919287
11
-42.1083555380
21
-9.5499964758
31
10.8941228588
11
-41.8394202743
21
-9.0627662550
31
10.8894285764
11
-41.6842418631
21
-8.5348329317
31
10.8867199271
11
-41.6449799863
21
-8.1691781594
31
10.8860346085
0
SPLINE
5
48C
100
AcDbEntity
8
CURVE
100
AcDbSpline
62
9
6
CONTINUOUS
70
0
71
3
72
14
73
10
74
8
42
0.0000001000
43
0.0000001000
44
0.0000000001
12
-2.5308143941
22
0.5392450697
32
0.0441755296
13
0.1432902659
23
2.5760259392
33
-0.0025011409
40
0.0000000000
40
0.0000000000
40
0.0000000000
40
0.0000000000
40
0.1428571429
40
0.2857142857
40
0.4285714286
40
0.5714285714
40
0.7142857143
40
0.8571428571
40
1.0000000000
40
1.0000000000
40
1.0000000000
40
1.0000000000
10
-44.5676062408
20
-9.8429482241
30
10.9370492395
10
-44.6881212120
20
-9.8172698875
30
10.9391528362
10
-44.9182996741
20
-9.7425249201
30
10.9431706162
10
-45.2386478742
20
-9.5624864225
30
10.9487623148
10
-45.5141993754
20
-9.3218966606
30
10.9535720842
10
-45.7362390802
20
-9.0309475862
30
10.9574478016
10
-45.8954400062
20
-8.7021033330
30
10.9602266641
10
-45.9846252258
20
-8.3462342240
30
10.9617833979
10
-45.9962169239
20
-8.1051119019
30
10.9619857318
10
-45.9893935779
20
-7.9824440000
30
10.9618666298
11
-44.5676062408
21
-9.8429482241
31
10.9370492395
11
-44.9141464252
21
-9.7312047457
31
10.9430981210
11
-45.2311817577
21
-9.5523945451
31
10.9486319933
11
-45.5052807427
21
-9.3135034419
31
10.9534164088
11
-45.7257659504
21
-9.0246317231
31
10.9572649925
11
-45.8837707218
21
-8.6975991903
31
10.9600229760
11
-45.9726589471
21
-8.3452651616
31
10.9615745257
11
-45.9893935779
21
-7.9824440000
31
10.9618666298
0
SPLINE
5
48D
100
AcDbEntity
8
CURVE
100
AcDbSpline
62
9
6
CONTINUOUS
70
0
71
3
72
14
73
10
74
8
42
0.0000001000
43
0.0000001000
44
0.0000000001
12
0.1438009531
22
-2.5851307925
32
-0.0025100550
13
-2.5242949197
23
-0.5378576936
33
0.0440617317
40
0.0000000000
40
0.0000000000
40
0.0000000000
40
0.0000000000
40
0.1428571429
40
0.2857142857
40
0.4285714286
40
0.5714285714
40
0.7142857143
40
0.8571428571
40
1.0000000000
40
1.0000000000
40
1.0000000000
40
1.0000000000
10
-42.3960515972
20
-7.9824412338
30
10.8991446122
10
-42.3892039327
20
-8.1055427001
30
10.8990250858
10
-42.4009617654
20
-8.3473255465
30
10.8992303195
10
-42.4903457206
20
-8.7030458420
30
10.9007905223
10
-42.6498712325
20
-9.0320610334
30
10.9035750504
10
-42.8721725657
20
-9.3228746340
30
10.9074553347
10
-43.1477351171
20
-9.5631253792
30
10.9122652969
10
-43.4679138000
20
-9.7428235163
30
10.9178540366
10
-43.6976306868
20
-9.8173327289
30
10.9218637598
10
-43.8178352068
20
-9.8429450000
30
10.9239619375
11
-42.3960515972
21
-7.9824412338
31
10.8991446122
11
-42.4129196331
21
-8.3461665509
31
10.8994390449
11
-42.5020359801
21
-8.6985949913
31
10.9009945765
11
-42.6603338694
21
-9.0256941016
31
10.9037576765
11
-42.8810494354
21
-9.3144474915
31
10.9076102810
11
-43.1551711390
21
-9.5530332779
31
10.9123950931
11
-43.4719799079
21
-9.7315011299
31
10.9179250108
11
-43.8178352068
21
-9.8429450000
31
10.9239619375
0
SPLINE
5
48E
100
AcDbEntity
8
CURVE
100
AcDbSpline
62
9
6
CONTINUOUS
70
0
71
3
72
25
73
21
74
19
42
0.0000001000
43
0.0000001000
44
0.0000000001
12
-0.2986680470
22
-5.3693573087
32
0.0052132702
13
0.2945645496
23
5.3090639777
33
-0.0051416433
40
0.0000000000
40
0.0000000000
40
0.0000000000
40
0.0000000000
40
0.0740740741
40
0.1481481481
40
0.2222222222
40
0.2592592593
40
0.2962962963
40
0.3333333333
40
0.3703703704
40
0.4074074074
40
0.4444444444
40
0.4814814815
40
0.5185185185
40
0.5925925926
40
0.6666666667
40
0.7407407407
40
0.8148148148
40
0.8888888889
40
0.9629629630
40
1.0000000000
40
1.0000000000
40
1.0000000000
40
1.0000000000
10
-45.9893935779
20
-12.3675540000
30
10.9618666298
10
-45.9967680976
20
-12.5001307237
30
10.9619953525
10
-45.9820997073
20
-12.7602194740
30
10.9617393148
10
-45.8769774467
20
-13.1415086049
30
10.9599043989
10
-45.7204628523
20
-13.4352925911
30
10.9571724265
10
-45.5502031010
20
-13.6550074916
30
10.9542005315
10
-45.4016700998
20
-13.8067057018
30
10.9516078783
10
-45.2289030392
20
-13.9447403520
30
10.9485922181
10
-45.0381195178
20
-14.0614653227
30
10.9452620793
10
-44.8337597616
20
-14.1543148625
30
10.9416949665
10
-44.6189614509
20
-14.2210732499
30
10.9379456481
10
-44.4044281006
20
-14.2592871247
30
10.9342009545
10
-44.1139214620
20
-14.2758626790
30
10.9291301423
10
-43.7445296936
20
-14.2304510180
30
10.9226823850
10
-43.3220796058
20
-14.0635208379
30
10.9153084912
10
-42.9662924973
20
-13.8075648411
30
10.9090982042
10
-42.6971153148
20
-13.4942116872
30
10.9043996990
10
-42.5095012963
20
-13.1441330531
30
10.9011248841
10
-42.4213603165
20
-12.8264912631
30
10.8995863776
10
-42.3996322162
20
-12.6316615919
30
10.8992071122
10
-42.3959956169
20
-12.5661175922
30
10.8991436351
11
-45.9893935779
21
-12.3675540000
31
10.9618666298
11
-45.9682464281
21
-12.7587454749
31
10.9614975049
11
-45.8631949046
21
-13.1367172136
31
10.9596638238
11
-45.6741439081
21
-13.4889452922
31
10.9563639264
11
-45.5467300697
21
-13.6528261641
31
10.9541399095
11
-45.3976310899
21
-13.8044284418
31
10.9515373772
11
-45.2259002957
21
-13.9411887388
31
10.9485398050
11
-45.0358568120
21
-14.0574860842
31
10.9452225837
11
-44.8320200025
21
-14.1499663371
31
10.9416645989
11
-44.6190056110
21
-14.2163158311
31
10.9379464189
11
-44.4038703292
21
-14.2549900899
31
10.9341912186
11
-44.1861308903
21
-14.2673100502
31
10.9303905625
11
-43.7479996993
21
-14.2117116535
31
10.9227429541
11
-43.3331901023
21
-14.0486832018
31
10.9155024257
11
-42.9807274850
21
-13.7979986482
31
10.9093501678
11
-42.7107091755
21
-13.4880907738
31
10.9046369807
11
-42.5231421034
21
-13.1389511341
31
10.9013629853
11
-42.4175794484
21
-12.7610764175
31
10.8995203823
11
-42.3959956169
21
-12.5661175922
31
10.8991436351
0
SPLINE
5
48F
100
AcDbEntity
8
CURVE
100
AcDbSpline
62
9
6
CONTINUOUS
70
0
71
3
72
21
73
17
74
15
42
0.0000001000
43
0.0000001000
44
0.0000000001
12
0.3014671308
22
-7.6838434749
32
-0.0052621283
13
-0.2606117287
23
7.5989920145
33
0.0045489946
40
0.0000000000
40
0.0000000000
40
0.0000000000
40
0.0000000000
40
0.0731707317
40
0.1463414634
40
0.2195121951
40
0.2926829268
40
0.3658536585
40
0.4390243902
40
0.5121951220
40
0.5853658537
40
0.6585365854
40
0.7317073171
40
0.8048780488
40
0.8780487805
40
0.9512195122
40
1.0000000000
40
1.0000000000
40
1.0000000000
40
1.0000000000
10
-41.6454600799
20
-12.3675541176
30
10.8860429886
10
-41.6381072231
20
-12.5549649340
30
10.8859146440
10
-41.6648104566
20
-12.9213698179
30
10.8863807506
10
-41.8198784271
20
-13.4536623040
30
10.8890874721
10
-42.0890967840
20
-13.9437753819
30
10.8937866960
10
-42.4765067105
20
-14.3856204085
30
10.9005489615
10
-42.9886790840
20
-14.7445223188
30
10.9094889635
10
-43.5862989522
20
-14.9708672289
30
10.9199204571
10
-44.1978591091
20
-15.0415089518
30
10.9305952793
10
-44.8201954845
20
-14.9664650540
30
10.9414582012
10
-45.4144780251
20
-14.7342793065
30
10.9518314415
10
-45.9150005040
20
-14.3788426403
30
10.9605680939
10
-46.2956176382
20
-13.9442057066
30
10.9672117907
10
-46.5650494145
20
-13.4549695273
30
10.9719147398
10
-46.7030636414
20
-12.9822593973
30
10.9743237871
10
-46.7362242871
20
-12.6778488160
30
10.9749026083
10
-46.7404618762
20
-12.5542879702
30
10.9749765757
11
-41.6454600799
21
-12.3675541176
31
10.8860429886
11
-41.6839793100
21
-12.9184840113
31
10.8867153442
11
-41.8389034915
21
-13.4466324026
31
10.8894195559
11
-42.1087953789
21
-13.9357307067
31
10.8941305363
11
-42.4973004517
21
-14.3717965558
31
10.9009119176
11
-43.0029203331
21
-14.7224294854
31
10.9097375454
11
-43.5886223337
21
-14.9449166977
31
10.9199610119
11
-44.1996551455
21
-15.0172280150
31
10.9306266293
11
-44.8155198454
21
-14.9402747457
31
10.9413765876
11
-45.3988513481
21
-14.7137374867
31
10.9515586769
11
-45.8950162799
21
-14.3656425958
31
10.9602192680
11
-46.2770867452
21
-13.9351058324
31
10.9668883327
11
-46.5460217860
21
-13.4478757411
31
10.9715826113
11
-46.7012000512
21
-12.9199426010
31
10.9742912580
11
-46.7404618762
21
-12.5542879702
31
10.9749765757
0
SPLINE
5
490
100
AcDbEntity
8
CURVE
100
AcDbSpline
62
9
6
CONTINUOUS
70
0
71
3
72
8
73
4
74
2
42
0.0000001000
43
0.0000001000
44
0.0000000001
12
0.0063563997
22
0.1853413430
32
-0.0001109514
13
-0.0073827207
23
0.1881719917
33
0.0001288659
40
0.0000000000
40
0.0000000000
40
0.0000000000
40
0.0000000000
40
1.0000000000
40
1.0000000000
40
1.0000000000
40
1.0000000000
10
-41.6449799863
20
-8.1691781594
30
10.8860346085
10
-41.6428611864
20
-8.1073977118
30
10.8859976247
10
-41.6429990555
20
-8.0451681102
30
10.8860000312
10
-41.6454599624
20
-7.9824441129
30
10.8860429865
11
-41.6449799863
21
-8.1691781594
31
10.8860346085
11
-41.6454599624
21
-7.9824441129
31
10.8860429865
0
SPLINE
5
491
100
AcDbEntity
8
CURVE
100
AcDbSpline
62
9
6
CONTINUOUS
70
0
71
3
72
8
73
4
74
2
42
0.0000001000
43
0.0000001000
44
0.0000000001
12
0.0109097981
22
0.1966319992
32
-0.0001904312
13
-0.0111596124
23
0.2006241174
33
0.0001947918
40
0.0000000000
40
0.0000000000
40
0.0000000000
40
0.0000000000
40
1.0000000000
40
1.0000000000
40
1.0000000000
40
1.0000000000
10
-42.3959956169
20
-12.5661175922
30
10.8991436351
10
-42.3923590175
20
-12.5005735925
30
10.8990801580
10
-42.3923285188
20
-12.4344288168
30
10.8990796257
10
-42.3960483896
20
-12.3675541109
30
10.8991445562
11
-42.3959956169
21
-12.5661175922
31
10.8991436351
11
-42.3960483896
21
-12.3675541109
31
10.8991445562
0
SPLINE
5
492
100
AcDbEntity
8
CURVE
100
AcDbSpline
62
9
6
CONTINUOUS
70
0
71
3
72
8
73
4
74
2
42
0.0000001000
43
0.0000001000
44
0.0000000001
12
-0.0063563836
22
0.1853412686
32
0.0001109511
13
0.0073827263
23
0.1881719134
33
-0.0001288660
40
0.0000000000
40
0.0000000000
40
0.0000000000
40
0.0000000000
40
1.0000000000
40
1.0000000000
40
1.0000000000
40
1.0000000000
10
-46.7404618762
20
-12.5542879702
30
10.9749765757
10
-46.7425806708
20
-12.4925075473
30
10.9750135594
10
-46.7424427980
20
-12.4302779711
30
10.9750111528
10
-46.7399818892
20
-12.3675540000
30
10.9749681975
11
-46.7404618762
21
-12.5542879702
31
10.9749765757
11
-46.7399818892
21
-12.3675540000
31
10.9749681975
0
SPLINE
5
493
100
AcDbEntity
8
0
100
AcDbSpline
62
9
6
CONTINUOUS
70
0
71
3
72
12
73
8
74
6
42
0.0000001000
43
0.0000001000
44
0.0000000001
12
3.4855048625
22
-0.3131638138
32
0.0000000000
13
-0.0174186329
23
-3.4995017234
33
0.0000000000
40
0.0000000000
40
0.0000000000
40
0.0000000000
40
0.0000000000
40
0.0491057184
40
0.1912507855
40
0.4127166238
40
0.6914659264
40
1.0000000000
40
1.0000000000
40
1.0000000000
40
1.0000000000
10
-20.6566004861
20
18.5196810816
30
0.0000000000
10
-20.5995477460
20
18.5145550369
30
0.0000000000
10
-20.7250579275
20
18.1672239802
30
0.0000000000
10
-20.6050713935
20
17.8006825001
30
0.0000000000
10
-20.6673803889
20
16.9912164923
30
0.0000000000
10
-20.6456510037
20
16.0712563499
30
0.0000000000
10
-20.6548090722
20
15.3801193226
30
0.0000000000
10
-20.6566004861
20
15.0202141485
30
0.0000000000
11
-20.6566004861
21
18.5196810816
31
0.0000000000
11
-20.6520599813
21
18.3478934010
31
0.0000000000
11
-20.6496769620
21
17.8504560398
31
0.0000000000
11
-20.6496783795
21
17.0754263565
31
0.0000000000
11
-20.6520692184
21
16.0999335376
31
0.0000000000
11
-20.6566004861
21
15.0202141485
31
0.0000000000
0
SPLINE
5
494
100
AcDbEntity
8
0
100
AcDbSpline
62
9
6
CONTINUOUS
70
0
71
3
72
12
73
8
74
6
42
0.0000001000
43
0.0000001000
44
0.0000000001
12
0.0174506458
22
-3.4995017090
32
0.0000000000
13
-3.4931521516
23
-0.2114350542
33
0.0000000000
40
0.0000000000
40
0.0000000000
40
0.0000000000
40
0.0000000000
40
0.3094034589
40
0.5880828547
40
0.8093299241
40
0.9511767253
40
1.0000000000
40
1.0000000000
40
1.0000000000
40
1.0000000000
10
-20.6566004861
20
-15.0202141485
30
0.0000000000
10
-20.6548007227
20
-15.3811334596
30
0.0000000000
10
-20.6456033937
20
-16.0734250379
30
0.0000000000
10
-20.6674357381
20
-16.9932684107
30
0.0000000000
10
-20.6049823109
20
-17.8039825963
30
0.0000000000
10
-20.7250718220
20
-18.1660739752
30
0.0000000000
10
-20.5997514438
20
-18.5162400977
30
0.0000000000
10
-20.6566004861
20
-18.5196810816
30
0.0000000000
11
-20.6566004861
21
-15.0202141485
31
0.0000000000
11
-20.6520599813
21
-16.1029760235
31
0.0000000000
11
-20.6496769620
21
-17.0782242593
31
0.0000000000
11
-20.6496783795
21
-17.8524883829
31
0.0000000000
11
-20.6520692184
21
-18.3488819203
31
0.0000000000
11
-20.6566004861
21
-18.5196810816
31
0.0000000000
0
ENDSEC
0
SECTION
2
OBJECTS
0
DICTIONARY
5
C
100
AcDbDictionary
280
0
281
1
3
ACAD_GROUP
350
D
3
ACAD_MLINESTYLE
350
17
3
ACAD_LAYOUT
350
1A
3
ACAD_PLOTSETTINGS
350
19
3
ACAD_PLOTSTYLENAME
350
E
0
DICTIONARY
5
D
102
{ACAD_REACTORS
330
C
102
}
100
AcDbDictionary
280
0
281
1
0
ACDBDICTIONARYWDFLT
5
E
102
{ACAD_REACTORS
330
C
102
}
100
AcDbDictionary
281
1
3
Normal
350
F
100
AcDbDictionaryWithDefault
340
F
0
DICTIONARY
5
17
102
{ACAD_REACTORS
330
C
102
}
100
AcDbDictionary
280
0
281
1
3
Standard
350
18
0
DICTIONARY
5
19
102
{ACAD_REACTORS
330
C
102
}
100
AcDbDictionary
281
1
0
DICTIONARY
5
1A
102
{ACAD_REACTORS
330
C
102
}
100
AcDbDictionary
281
1
3
Layout1
350
1E
3
Model
350
22
0
ACDBPLACEHOLDER
5
F
102
{ACAD_REACTORS
330
E
102
}
0
MLINESTYLE
5
18
102
{ACAD_REACTORS
330
17
102
}
100
AcDbMlineStyle
2
STANDARD
70
0
3

62
256
51
90.0
52
90.0
71
2
49
0.5
62
256
6
BYLAYER
49
-0.5
62
256
6
BYLAYER
0
LAYOUT
5
1E
102
{ACAD_REACTORS
330
1A
102
}
100
AcDbPlotSettings
1

2

4

6

40
0.0
41
0.0
42
0.0
43
0.0
44
0.0
45
0.0
46
0.0
47
0.0
48
0.0
49
0.0
140
0.0
141
0.0
142
1.0
143
1.0
70
0
72
0
73
0
74
0
7

75
0
147
1.0
148
0.0
149
0.0
100
AcDbLayout
1
Layout1
70
0
71
0
10
0.0
20
0.0
11
0.0
21
0.0
12
0.0
22
0.0
32
0.0
14
0.0
24
0.0
34
0.0
15
0.0
25
0.0
35
0.0
146
0.0
13
0.0
23
0.0
33
0.0
16
0.0
26
0.0
36
0.0
17
0.0
27
0.0
37
0.0
76
0
330
1B
331
0
345
0
346
0
0
LAYOUT
5
22
102
{ACAD_REACTORS
330
1A
102
}
100
AcDbPlotSettings
1

2

4

6

40
0.0
41
0.0
42
0.0
43
0.0
44
0.0
45
0.0
46
0.0
47
0.0
48
0.0
49
0.0
140
0.0
141
0.0
142
1.0
143
1.0
70
0
72
0
73
0
74
0
7

75
0
147
1.0
148
0.0
149
0.0
100
AcDbLayout
1
Model
70
0
71
0
10
0.0
20
0.0
11
0.0
21
0.0
12
0.0
22
0.0
32
0.0
14
0.0
24
0.0
34
0.0
15
0.0
25
0.0
35
0.0
146
0.0
13
0.0
23
0.0
33
0.0
16
0.0
26
0.0
36
0.0
17
0.0
27
0.0
37
0.0
76
0
330
1F
331
0
345
0
346
0
0
ENDSEC
0
EOF
