  0
SECTION
  2
HEADER
  9
$ACADVER
  1
AC1024
  9
$DWGCODEPAGE
  3
ANSI_1252
  9
$EXTMAX
 10
297.0
 20
210.0
 30
0.0
  9
$EXTMIN
 10
0.0
 20
0.0
 30
0.0
  9
$LIMMIN
 10
0.0
 20
0.0
  9
$LIMMAX
 10
297.0
 20
210.0
  9
$VIEWCTR
 10
148.5
 20
105.0
  9
$VIEWSIZE
 40
210.0
  9
$CLAYER
  8
0
  9
$LTSCALE
 40
16.335
  9
$CELTYPE
  6
BYLAYER
  9
$DIMSCALE
 40
1.0
  9
$DIMASZ
 40
3.0
  9
$DIMEXO
 40
0.5
  9
$DIMDLI
 40
11.286
  9
$DIMEXE
 40
1.5
  9
$DIMCEN
 40
2.673
  9
$DIMLFAC
 40
1.0
  9
$DIMBLK
  1
_FILLED
  9
$DIMALT
 70
0
  9
$DIMALTF
 40
0.0393700787
  9
$DIMTXT
 40
3.0
  9
$DIMTOL
 70
1
  9
$DIMLIM
 70
0
  9
$DIMTFAC
 40
1.0
  9
$DIMTP
 40
0.01
  9
$DIMTM
 40
0.01
  9
$DIMGAP
 40
0.625
  9
$DIMDSEP
 70
44
  9
$AUNITS
 70
0
  9
$PDMODE
 70
3
  9
$PDSIZE
 40
3.0
  9
$HANDSEED
  5
38E
  9
$TILEMODE
 70
1
  9
$MEASUREMENT
 70
1
  9
$INSUNITS
 70
4
  0
ENDSEC
  0
SECTION
  2
CLASSES
  0
CLASS
  1
ACDBDICTIONARYWDFLT
  2
AcDbDictionaryWithDefault
  3
AutoCAD 2000
 90
0
 91
1
280
0
281
0
  0
CLASS
  1
ACDBPLACEHOLDER
  2
AcDbPlaceHolder
  3
AutoCAD 2000
 90
0
 91
1
280
0
281
0
  0
CLASS
  1
LAYOUT
  2
AcDbLayout
  3
AutoCAD 2000
 90
0
 91
0
280
0
281
0
  0
ENDSEC
  0
SECTION
  2
TABLES
  0
TABLE
  2
VPORT
  5
8
100
AcDbSymbolTable
 70
2
  0
VPORT
  5
1F4
100
AcDbSymbolTableRecord
100
AcDbViewportTableRecord
  2
*ACTIVE
 70
0
 10
0.0
 20
0.0
 11
1.0
 21
1.0
 12
148.5
 22
105.0
 13
0.0
 23
0.0
 14
1.0
 24
1.0
 15
0.0
 25
0.0
 16
0.0
 26
0.0
 36
1.0
 17
0.0
 27
0.0
 37
0.0
 40
210.0
 41
1.4142857143
 42
50.0
 43
0.0
 44
0.0
 50
0.0
 51
0.0
 71
0
 72
100
 73
1
 74
1
 75
0
 76
0
 77
0
 78
0
  0
ENDTAB
  0
TABLE
  2
LTYPE
  5
5
100
AcDbSymbolTable
 70
6
  0
LTYPE
  5
14
100
AcDbSymbolTableRecord
100
AcDbLinetypeTableRecord
  2
BYBLOCK
 70
0
  3

 72
65
 73
0
 40
0.0
  0
LTYPE
  5
15
100
AcDbSymbolTableRecord
100
AcDbLinetypeTableRecord
  2
BYLAYER
 70
0
  3

 72
65
 73
0
 40
0.0
  0
LTYPE
  5
16
100
AcDbSymbolTableRecord
100
AcDbLinetypeTableRecord
  2
CONTINUOUS
 70
64
  3
Solid line
 72
65
 73
0
 40
0.0
  0
LTYPE
  5
1F5
100
AcDbSymbolTableRecord
100
AcDbLinetypeTableRecord
  2
CENTER
 70
64
  3
____ _ ____ _ ____ _ ____ _ ____ _ ____ _ ____
 72
65
 73
4
 40
0.6
 49
0.375
 74
0
 49
-0.075
 74
0
 49
0.075
 74
0
 49
-0.075
 74
0
  0
LTYPE
  5
1F6
100
AcDbSymbolTableRecord
100
AcDbLinetypeTableRecord
  2
HIDDEN
 70
64
  3
- - - - - - - - - - - - - - - - - - - -
 72
65
 73
2
 40
0.2
 49
0.1
 74
0
 49
-0.1
 74
0
  0
LTYPE
  5
1F7
100
AcDbSymbolTableRecord
100
AcDbLinetypeTableRecord
  2
PHANTOM
 70
64
  3
_____ _ _ _____ _ _ _____ _ _ _____
 72
65
 73
6
 40
0.8
 49
0.45
 74
0
 49
-0.05
 74
0
 49
0.1
 74
0
 49
-0.05
 74
0
 49
0.1
 74
0
 49
-0.05
 74
0
  0
LTYPE
  5
1F8
100
AcDbSymbolTableRecord
100
AcDbLinetypeTableRecord
  2
DOT
 70
64
  3
. . . . . . . . . . . . . . . . . . . .
 72
65
 73
2
 40
0.2
 49
0.1
 74
0
 49
-0.1
 74
0
  0
LTYPE
  5
1F9
100
AcDbSymbolTableRecord
100
AcDbLinetypeTableRecord
  2
DASHED
 70
64
  3
- - - - - - - - - - - - - - - - - - - -
 72
65
 73
2
 40
0.2
 49
0.1
 74
0
 49
-0.1
 74
0
  0
ENDTAB
  0
TABLE
  2
LAYER
  5
2
100
AcDbSymbolTable
 70
36
  0
LAYER
  5
10
100
AcDbSymbolTableRecord
100
AcDbLayerTableRecord
  2
0
 70
0
 62
7
  6
CONTINUOUS
370
-3
390
F
  0
LAYER
  5
1FA
100
AcDbSymbolTableRecord
100
AcDbLayerTableRecord
  2
DEFAULT_1
 70
0
 62
7
  6
CENTER
370
-3
390
F
  0
LAYER
  5
1FB
100
AcDbSymbolTableRecord
100
AcDbLayerTableRecord
  2
DEFAULT_2
 70
0
 62
7
  6
HIDDEN
370
-3
390
F
  0
LAYER
  5
1FC
100
AcDbSymbolTableRecord
100
AcDbLayerTableRecord
  2
DEFAULT_3
 70
0
 62
7
  6
PHANTOM
370
-3
390
F
  0
LAYER
  5
1FD
100
AcDbSymbolTableRecord
100
AcDbLayerTableRecord
  2
ASSI
 70
0
 62
7
  6
CONTINUOUS
370
-3
390
F
  0
LAYER
  5
1FE
100
AcDbSymbolTableRecord
100
AcDbLayerTableRecord
  2
COORDINATE
 70
0
 62
7
  6
CONTINUOUS
370
-3
390
F
  0
LAYER
  5
1FF
100
AcDbSymbolTableRecord
100
AcDbLayerTableRecord
  2
COORD_ORIGINE
 70
0
 62
7
  6
CONTINUOUS
370
-3
390
F
  0
LAYER
  5
200
100
AcDbSymbolTableRecord
100
AcDbLayerTableRecord
  2
COPY_PUBLISH
 70
0
 62
7
  6
CONTINUOUS
370
-3
390
F
  0
LAYER
  5
201
100
AcDbSymbolTableRecord
100
AcDbLayerTableRecord
  2
COSMETICI
 70
0
 62
7
  6
CONTINUOUS
370
-3
390
F
  0
LAYER
  5
202
100
AcDbSymbolTableRecord
100
AcDbLayerTableRecord
  2
CURVE
 70
0
 62
7
  6
CONTINUOUS
370
-3
390
F
  0
LAYER
  5
203
100
AcDbSymbolTableRecord
100
AcDbLayerTableRecord
  2
CURVE_LED_TASTO
 70
0
 62
7
  6
CONTINUOUS
370
-3
390
F
  0
LAYER
  5
204
100
AcDbSymbolTableRecord
100
AcDbLayerTableRecord
  2
DRAFT
 70
0
 62
7
  6
CONTINUOUS
370
-3
390
F
  0
LAYER
  5
205
100
AcDbSymbolTableRecord
100
AcDbLayerTableRecord
  2
IGES_SCRITTE
 70
0
 62
7
  6
CONTINUOUS
370
-3
390
F
  0
LAYER
  5
206
100
AcDbSymbolTableRecord
100
AcDbLayerTableRecord
  2
IMPORT_IGES
 70
0
 62
7
  6
CONTINUOUS
370
-3
390
F
  0
LAYER
  5
207
100
AcDbSymbolTableRecord
100
AcDbLayerTableRecord
  2
INTF_1
 70
0
 62
7
  6
CONTINUOUS
370
-3
390
F
  0
LAYER
  5
208
100
AcDbSymbolTableRecord
100
AcDbLayerTableRecord
  2
INTF_8
 70
0
 62
7
  6
CONTINUOUS
370
-3
390
F
  0
LAYER
  5
209
100
AcDbSymbolTableRecord
100
AcDbLayerTableRecord
  2
NOTE
 70
0
 62
7
  6
CONTINUOUS
370
-3
390
F
  0
LAYER
  5
20A
100
AcDbSymbolTableRecord
100
AcDbLayerTableRecord
  2
PIANI
 70
0
 62
7
  6
CONTINUOUS
370
-3
390
F
  0
LAYER
  5
20B
100
AcDbSymbolTableRecord
100
AcDbLayerTableRecord
  2
PIANI_ORIGINE
 70
0
 62
7
  6
CONTINUOUS
370
-3
390
F
  0
LAYER
  5
20C
100
AcDbSymbolTableRecord
100
AcDbLayerTableRecord
  2
PIANI_RIFERIMENTO
 70
0
 62
7
  6
CONTINUOUS
370
-3
390
F
  0
LAYER
  5
20D
100
AcDbSymbolTableRecord
100
AcDbLayerTableRecord
  2
PUNTI
 70
0
 62
7
  6
CONTINUOUS
370
-3
390
F
  0
LAYER
  5
20E
100
AcDbSymbolTableRecord
100
AcDbLayerTableRecord
  2
RACCORDO
 70
0
 62
7
  6
CONTINUOUS
370
-3
390
F
  0
LAYER
  5
20F
100
AcDbSymbolTableRecord
100
AcDbLayerTableRecord
  2
SIMBOLI
 70
0
 62
7
  6
CONTINUOUS
370
-3
390
F
  0
LAYER
  5
210
100
AcDbSymbolTableRecord
100
AcDbLayerTableRecord
  2
SMUSSO
 70
0
 62
7
  6
CONTINUOUS
370
-3
390
F
  0
LAYER
  5
211
100
AcDbSymbolTableRecord
100
AcDbLayerTableRecord
  2
SUPERFICI
 70
0
 62
7
  6
CONTINUOUS
370
-3
390
F
  0
LAYER
  5
212
100
AcDbSymbolTableRecord
100
AcDbLayerTableRecord
  2
TRASH
 70
0
 62
7
  6
CONTINUOUS
370
-3
390
F
  0
ENDTAB
  0
TABLE
  2
STYLE
  5
3
100
AcDbSymbolTable
 70
1
  0
STYLE
  5
11
100
AcDbSymbolTableRecord
100
AcDbTextStyleTableRecord
  2
STANDARD
 70
0
 40
0.0
 41
0.8
 50
0.0
 71
0
 42
0.2
  3
txt
  4

  0
STYLE
  5
213
100
AcDbSymbolTableRecord
100
AcDbTextStyleTableRecord
  2
TEXTSTYLE_1
 70
0
 40
0.0
 41
0.8
 50
0.0
 71
0
 42
0.2
  3
gdt
  4

  0
ENDTAB
  0
TABLE
  2
VIEW
  5
6
100
AcDbSymbolTable
 70
0
  0
ENDTAB
  0
TABLE
  2
UCS
  5
7
100
AcDbSymbolTable
 70
0
  0
ENDTAB
  0
TABLE
  2
APPID
  5
9
100
AcDbSymbolTable
 70
1
  0
APPID
  5
214
100
AcDbSymbolTableRecord
100
AcDbRegAppTableRecord
  2
ACAD
 70
0
  0
ENDTAB
  0
TABLE
  2
BLOCK_RECORD
  5
1
100
AcDbSymbolTable
 70
0
  0
BLOCK_RECORD
  5
215
100
AcDbSymbolTableRecord
100
AcDbBlockTableRecord
  2
*Model_Space
  0
BLOCK_RECORD
  5
216
100
AcDbSymbolTableRecord
100
AcDbBlockTableRecord
  2
*Paper_Space
  0
BLOCK_RECORD
  5
217
100
AcDbSymbolTableRecord
100
AcDbBlockTableRecord
  2
_FILLED
  0
BLOCK_RECORD
  5
218
100
AcDbSymbolTableRecord
100
AcDbBlockTableRecord
  2
*D0
  0
BLOCK_RECORD
  5
219
100
AcDbSymbolTableRecord
100
AcDbBlockTableRecord
  2
*D1
  0
BLOCK_RECORD
  5
21A
100
AcDbSymbolTableRecord
100
AcDbBlockTableRecord
  2
*D2
  0
ENDTAB
  0
TABLE
  2
DIMSTYLE
  5
A
100
AcDbSymbolTable
 70
1
100
AcDbDimStyleTable
 71
0
  0
DIMSTYLE
105
21B
100
AcDbSymbolTableRecord
100
AcDbDimStyleTableRecord
  2
STANDARD
 70
0
  3

  4

 40
1.0
 41
3.0
 42
0.5
 43
0.38
 44
1.5
 45
0.0
 46
0.0
 47
0.01
 48
0.01
140
3.0
141
0.09
142
0.0
143
25.4
144
1.0
145
0.0
146
1.0
147
0.625
 71
1
 72
0
 73
0
 74
0
 75
0
 76
0
 77
1
 78
8
 79
2
170
0
171
1
172
0
173
0
174
0
175
0
176
0
177
0
178
0
270
2
179
2
271
2
272
2
273
2
274
2
275
0
280
0
281
0
282
0
283
1
284
8
285
0
286
0
287
3
288
0
340
11
278
44
341
217
342
217
343
217
344
217
  0
DIMSTYLE
105
21C
100
AcDbSymbolTableRecord
100
AcDbDimStyleTableRecord
  2
DIMSTYLE_1
 70
0
  3

  4

 40
1.0
 41
3.0
 42
0.5
 43
0.38
 44
1.5
 45
0.0
 46
0.0
 47
0.0
 48
0.0
140
3.0
141
0.09
142
0.0
143
25.4
144
1.0
145
0.0
146
1.0
147
0.75
 71
0
 72
0
 73
0
 74
0
 75
0
 76
0
 77
1
 78
8
 79
2
170
0
171
1
172
0
173
0
174
0
175
0
176
0
177
0
178
0
270
2
179
2
271
2
272
2
273
2
274
2
275
0
280
0
281
0
282
0
283
1
284
8
285
0
286
0
287
3
288
0
340
11
278
44
341
217
342
217
343
217
344
217
  0
DIMSTYLE
105
21D
100
AcDbSymbolTableRecord
100
AcDbDimStyleTableRecord
  2
DIMSTYLE_2
 70
0
  3

  4

 40
1.0
 41
3.0
 42
0.5
 43
0.38
 44
1.5
 45
0.0
 46
0.0
 47
0.0
 48
0.0
140
3.0
141
0.09
142
0.0
143
25.4
144
1.0
145
0.0
146
1.0
147
0.75
 71
0
 72
0
 73
0
 74
0
 75
0
 76
0
 77
1
 78
8
 79
2
170
0
171
1
172
0
173
0
174
0
175
0
176
0
177
0
178
0
270
2
179
2
271
1
272
1
273
2
274
2
275
0
280
0
281
0
282
0
283
1
284
8
285
0
286
0
287
3
288
0
340
11
278
44
341
217
342
217
343
217
344
217
  0
ENDTAB
  0
ENDSEC
  0
SECTION
  2
BLOCKS
  0
BLOCK
  5
20
100
AcDbEntity
  8
0
100
AcDbBlockBegin
  2
*Model_Space
 70
0
 10
0.0
 20
0.0
 30
0.0
  3
*Model_Space
  1

  0
ENDBLK
  5
21
100
AcDbEntity
  8
0
100
AcDbBlockEnd
  0
BLOCK
  5
1C
100
AcDbEntity
  8
0
100
AcDbBlockBegin
  2
*Paper_Space
 70
0
 10
0.0
 20
0.0
 30
0.0
  3
*Paper_Space
  1

  0
ENDBLK
  5
1D
100
AcDbEntity
  8
0
100
AcDbBlockEnd
  0
BLOCK
  5
21E
100
AcDbEntity
  8
0
100
AcDbBlockBegin
  2
_FILLED
 70
64
 10
0.0
 20
0.0
  3
_FILLED
  1

  0
SOLID
  5
21F
100
AcDbEntity
  8
0
  6
BYBLOCK
 62
0
100
AcDbTrace
 10
0.0
 20
0.0
 11
-1.0
 21
0.3166666667
 12
-1.0
 22
-0.3166666667
 13
-1.0
 23
-0.3166666667
  0
ENDBLK
  5
220
100
AcDbEntity
  8
0
  6
BYBLOCK
 62
0
100
AcDbBlockEnd
  0
BLOCK
  5
221
100
AcDbEntity
  8
0
100
AcDbBlockBegin
 62
7
  6
CONTINUOUS
  2
*D0
 70
65
 10
0.0
 20
0.0
  3
*D0
  1

  0
LINE
  5
222
100
AcDbEntity
  8
0
100
AcDbLine
 62
7
  6
CONTINUOUS
 10
113.5848710448
 20
109.5840115132
 11
113.5848710448
 21
132.6734728027
  0
LINE
  5
223
100
AcDbEntity
  8
0
100
AcDbLine
 62
7
  6
CONTINUOUS
 10
106.5848710448
 20
102.0840115132
 11
106.5848710448
 21
132.6734728027
  0
LINE
  5
224
100
AcDbEntity
  8
0
100
AcDbLine
 62
7
  6
CONTINUOUS
 10
113.5848710448
 20
131.1734728027
 11
110.0848710448
 21
131.1734728027
  0
LINE
  5
225
100
AcDbEntity
  8
0
100
AcDbLine
 62
7
  6
CONTINUOUS
 10
110.0848710448
 20
131.1734728027
 11
120.6019959626
 21
131.1734728027
  0
LINE
  5
226
100
AcDbEntity
  8
0
100
AcDbLine
 62
7
  6
CONTINUOUS
 10
106.5848710448
 20
131.1734728027
 11
110.0848710448
 21
131.1734728027
  0
INSERT
  5
227
100
AcDbEntity
  8
0
100
AcDbBlockReference
 62
7
  6
CONTINUOUS
  2
_FILLED
 10
113.5848710448
 20
131.1734728027
 41
3.0
 42
3.0
 43
3.0
  0
INSERT
  5
228
100
AcDbEntity
  8
0
100
AcDbBlockReference
 62
7
  6
CONTINUOUS
  2
_FILLED
 10
106.5848710448
 20
131.1734728027
 41
3.0
 42
3.0
 43
3.0
 50
180.0
  0
ENDBLK
  5
229
100
AcDbEntity
  8
0
  6
BYBLOCK
 62
0
100
AcDbBlockEnd
  0
BLOCK
  5
22A
100
AcDbEntity
  8
0
100
AcDbBlockBegin
 62
7
  6
CONTINUOUS
  2
*D1
 70
65
 10
0.0
 20
0.0
  3
*D1
  1

  0
LINE
  5
22B
100
AcDbEntity
  8
0
100
AcDbLine
 62
7
  6
CONTINUOUS
 10
143.5610723029
 20
123.4617623015
 11
143.5610723029
 21
135.1586374382
  0
LINE
  5
22C
100
AcDbEntity
  8
0
100
AcDbLine
 62
7
  6
CONTINUOUS
 10
188.1131892103
 20
123.4617623015
 11
188.1131892103
 21
135.1586374382
  0
LINE
  5
22D
100
AcDbEntity
  8
0
100
AcDbLine
 62
7
  6
CONTINUOUS
 10
143.5610723029
 20
133.6586374382
 11
165.8371307566
 21
133.6586374382
  0
LINE
  5
22E
100
AcDbEntity
  8
0
100
AcDbLine
 62
7
  6
CONTINUOUS
 10
188.1131892103
 20
133.6586374382
 11
165.8371307566
 21
133.6586374382
  0
INSERT
  5
22F
100
AcDbEntity
  8
0
100
AcDbBlockReference
 62
7
  6
CONTINUOUS
  2
_FILLED
 10
143.5610723029
 20
133.6586374382
 41
3.0
 42
3.0
 43
3.0
 50
180.0
  0
INSERT
  5
230
100
AcDbEntity
  8
0
100
AcDbBlockReference
 62
7
  6
CONTINUOUS
  2
_FILLED
 10
188.1131892103
 20
133.6586374382
 41
3.0
 42
3.0
 43
3.0
  0
ENDBLK
  5
231
100
AcDbEntity
  8
0
  6
BYBLOCK
 62
0
100
AcDbBlockEnd
  0
BLOCK
  5
232
100
AcDbEntity
  8
0
100
AcDbBlockBegin
 62
7
  6
CONTINUOUS
  2
*D2
 70
65
 10
0.0
 20
0.0
  3
*D2
  1

  0
LINE
  5
233
100
AcDbEntity
  8
0
100
AcDbLine
 62
7
  6
CONTINUOUS
 10
187.8137981698
 20
123.7621284649
 11
201.9374845495
 21
123.7621284649
  0
LINE
  5
234
100
AcDbEntity
  8
0
100
AcDbLine
 62
7
  6
CONTINUOUS
 10
187.8137981698
 20
79.4058945615
 11
201.9374845495
 21
79.4058945615
  0
LINE
  5
235
100
AcDbEntity
  8
0
100
AcDbLine
 62
7
  6
CONTINUOUS
 10
200.4374845495
 20
123.7621284649
 11
200.4374845495
 21
101.5840115132
  0
LINE
  5
236
100
AcDbEntity
  8
0
100
AcDbLine
 62
7
  6
CONTINUOUS
 10
200.4374845495
 20
79.4058945615
 11
200.4374845495
 21
101.5840115132
  0
INSERT
  5
237
100
AcDbEntity
  8
0
100
AcDbBlockReference
 62
7
  6
CONTINUOUS
  2
_FILLED
 10
200.4374845495
 20
123.7621284649
 41
3.0
 42
3.0
 43
3.0
 50
90.0
  0
INSERT
  5
238
100
AcDbEntity
  8
0
100
AcDbBlockReference
 62
7
  6
CONTINUOUS
  2
_FILLED
 10
200.4374845495
 20
79.4058945615
 41
3.0
 42
3.0
 43
3.0
 50
270.0
  0
ENDBLK
  5
239
100
AcDbEntity
  8
0
  6
BYBLOCK
 62
0
100
AcDbBlockEnd
  0
ENDSEC
  0
SECTION
  2
ENTITIES
  0
DIMENSION
  5
23A
100
AcDbEntity
  8
0
100
AcDbDimension
 62
7
  6
CONTINUOUS
  2
*D0
 10
106.5848710448
 20
131.1734728027
 11
118.2448531054
 21
131.1734728027
 70
160
 71
1
 72
2
 41
0.9
 42
7.0
  3
DIMSTYLE_1
100
AcDbAlignedDimension
 13
113.5848710448
 23
109.0840115132
 14
106.5848710448
 24
101.5840115132
 50
180.0
100
AcDbRotatedDimension
  0
DIMENSION
  5
23B
100
AcDbEntity
  8
0
100
AcDbDimension
 62
7
  6
CONTINUOUS
  2
*D1
 10
188.1131892103
 20
133.6586374382
 11
161.4442736137
 21
133.6586374382
 70
160
 71
2
 72
2
 41
0.9
 42
44.5521169074
  3
DIMSTYLE_2
100
AcDbAlignedDimension
 13
143.5610723029
 23
122.9617623015
 14
188.1131892103
 24
122.9617623015
100
AcDbRotatedDimension
  0
DIMENSION
  5
23C
100
AcDbEntity
  8
0
100
AcDbDimension
 62
7
  6
CONTINUOUS
  2
*D2
 10
200.4374845495
 20
79.4058945615
 11
200.4374845495
 21
97.1911543703
 70
160
 71
2
 72
2
 41
0.9
 42
44.3562339034
  3
DIMSTYLE_2
100
AcDbAlignedDimension
 13
187.3137981698
 23
123.7621284649
 14
187.3137981698
 24
79.4058945615
 50
270.0
100
AcDbRotatedDimension
  0
LWPOLYLINE
  5
23D
100
AcDbEntity
  8
ASSI
100
AcDbPolyline
 62
250
  6
CONTINUOUS
 90
19
 70
0
 10
143.6382379695
 20
122.0945316144
 10
143.6389701195
 20
122.0954771458
 10
143.6403634982
 20
122.0964218948
 10
143.6424169526
 20
122.0973650798
 10
143.6451287836
 20
122.0983059203
 10
143.6484967475
 20
122.0992436379
 10
143.6525180575
 20
122.1001774567
 10
143.6571893863
 20
122.101106604
 10
143.6625068688
 20
122.1020303111
 10
143.6684661052
 20
122.1029478135
 10
143.6750621646
 20
122.1038583523
 10
143.6822895894
 20
122.1047611739
 10
143.6901423995
 20
122.1056555314
 10
143.6986140973
 20
122.1065406847
 10
143.7076976732
 20
122.1074159016
 10
143.7173856112
 20
122.1082804577
 10
143.7276698954
 20
122.1091336377
 10
143.7385420163
 20
122.1099747358
 10
143.7499929782
 20
122.1108030559
  0
LWPOLYLINE
  5
23E
100
AcDbEntity
  8
ASSI
100
AcDbPolyline
 62
250
  6
CONTINUOUS
 90
20
 70
0
 10
143.6382379695
 20
81.073491412
 10
143.6389701192
 20
81.0725458806
 10
143.6403634976
 20
81.0716011315
 10
143.6424169518
 20
81.0706579465
 10
143.6451287826
 20
81.0697171059
 10
143.6484967462
 20
81.0687793883
 10
143.652518056
 20
81.0678455695
 10
143.6571893846
 20
81.0669164222
 10
143.6625068668
 20
81.0659927152
 10
143.668466103
 20
81.0650752127
 10
143.6750621623
 20
81.0641646739
 10
143.6822895869
 20
81.0632618523
 10
143.6901423968
 20
81.0623674948
 10
143.6986140945
 20
81.0614823415
 10
143.7076976703
 20
81.0606071246
 10
143.7173856081
 20
81.0597425685
 10
143.7276698922
 20
81.0588893884
 10
143.738542013
 20
81.0580482904
 10
143.7499929748
 20
81.0572199702
 10
143.7745930512
 20
81.0556043941
  0
LWPOLYLINE
  5
23F
100
AcDbEntity
  8
0
100
AcDbPolyline
 62
7
  6
CONTINUOUS
 90
10
 70
0
 43
0.3500000006
 10
168.9442734375
 20
137.4086385498
 10
168.3014199829
 20
136.7657850952
 10
167.8728510132
 20
135.9086290283
 10
167.8728510132
 20
134.837206604
 10
168.3014199829
 20
134.4086376343
 10
168.9442734375
 20
134.4086376343
 10
169.3728424072
 20
134.837206604
 10
169.3728424072
 20
135.6943445435
 10
168.9442734375
 20
136.1229316406
 10
168.0156952515
 20
136.1229316406
  0
LINE
  5
240
100
AcDbEntity
  8
ASSI
100
AcDbLine
 62
7
  6
CONTINUOUS
 10
143.5997390039
 20
105.1568655741
 11
143.5443427689
 21
105.7164653751
  0
LWPOLYLINE
  5
241
100
AcDbEntity
  8
ASSI
100
AcDbPolyline
 62
250
  6
CONTINUOUS
 90
12
 70
0
 10
143.6297606947
 20
122.7323382932
 10
143.6294867467
 20
122.7371687267
 10
143.6292110496
 20
122.7416276431
 10
143.6289336004
 20
122.7457144296
 10
143.6286544022
 20
122.749429699
 10
143.6283739158
 20
122.7527673235
 10
143.6280921341
 20
122.755726695
 10
143.6278090642
 20
122.7583084217
 10
143.6275251887
 20
122.7605082002
 10
143.6272406684
 20
122.7623245961
 10
143.6269553424
 20
122.7637590438
 10
143.6266692108
 20
122.7648115433
  0
LINE
  5
242
100
AcDbEntity
  8
ASSI
100
AcDbLine
 62
250
  6
CONTINUOUS
 10
143.6303019855
 20
122.7215861758
 11
143.6297606947
 21
122.7323382932
  0
LINE
  5
243
100
AcDbEntity
  8
ASSI
100
AcDbLine
 62
250
  6
CONTINUOUS
 10
143.6308340301
 20
122.7093890106
 11
143.6303019855
 21
122.7215861758
  0
LINE
  5
244
100
AcDbEntity
  8
ASSI
100
AcDbLine
 62
250
  6
CONTINUOUS
 10
143.6313555031
 20
122.6957754778
 11
143.6308340301
 21
122.7093890106
  0
LINE
  5
245
100
AcDbEntity
  8
ASSI
100
AcDbLine
 62
250
  6
CONTINUOUS
 10
143.6321153288
 20
122.6727696925
 11
143.6313555031
 21
122.6957754778
  0
LINE
  5
246
100
AcDbEntity
  8
ASSI
100
AcDbLine
 62
250
  6
CONTINUOUS
 10
144.4293650062
 20
123.5044753658
 11
144.4288118644
 21
123.5227913714
  0
LINE
  5
247
100
AcDbEntity
  8
ASSI
100
AcDbLine
 62
250
  6
CONTINUOUS
 10
143.6330809253
 20
122.6374479335
 11
143.6321153288
 21
122.6727696925
  0
LINE
  5
248
100
AcDbEntity
  8
ASSI
100
AcDbLine
 62
250
  6
CONTINUOUS
 10
144.4301802278
 20
123.4710833215
 11
144.4293650062
 21
123.5044753658
  0
LINE
  5
249
100
AcDbEntity
  8
ASSI
100
AcDbLine
 62
250
  6
CONTINUOUS
 10
143.6341998794
 20
122.5862638517
 11
143.6330809253
 21
122.6374479335
  0
LINE
  5
24A
100
AcDbEntity
  8
ASSI
100
AcDbLine
 62
250
  6
CONTINUOUS
 10
144.4312337295
 20
123.4157795253
 11
144.4301802278
 21
123.4710833215
  0
LWPOLYLINE
  5
24B
100
AcDbEntity
  8
ASSI
100
AcDbPolyline
 62
250
  6
CONTINUOUS
 90
55
 70
0
 10
143.6266692108
 20
80.403211483
 10
143.6270284427
 20
80.3799890936
 10
143.6280633611
 20
80.3567863298
 10
143.6297730911
 20
80.3336228007
 10
143.6321561881
 20
80.3105180821
 10
143.6352106378
 20
80.2874917002
 10
143.6389338591
 20
80.2645631149
 10
143.6433227053
 20
80.2417517036
 10
143.6483734674
 20
80.2190767446
 10
143.6540818768
 20
80.1965574008
 10
143.6604431093
 20
80.1742127037
 10
143.6674517889
 20
80.1520615372
 10
143.6751019925
 20
80.1301226216
 10
143.6833872548
 20
80.1084144978
 10
143.6923005738
 20
80.0869555116
 10
143.7018344166
 20
80.0657637985
 10
143.711980726
 20
80.044857268
 10
143.7227309273
 20
80.0242535883
 10
143.7340759353
 20
80.0039701721
 10
143.7460061621
 20
79.9840241612
 10
143.7585115254
 20
79.9644324123
 10
143.7715814565
 20
79.9452114827
 10
143.78520491
 20
79.9263776163
 10
143.7993703723
 20
79.9079467299
 10
143.8140658722
 20
79.8899343998
 10
143.82927899
 20
79.8723558485
 10
143.8449968691
 20
79.8552259318
 10
143.8612062259
 20
79.8385591267
 10
143.8778933617
 20
79.8223695183
 10
143.8950441738
 20
79.806670789
 10
143.912644168
 20
79.7914762058
 10
143.9306784701
 20
79.7767986101
 10
143.949131839
 20
79.762650406
 10
143.9679886795
 20
79.7490435504
 10
143.9872330555
 20
79.7359895428
 10
144.006848703
 20
79.7234994152
 10
144.0268190448
 20
79.7115837234
 10
144.0471272034
 20
79.7002525374
 10
144.0677560161
 20
79.6895154333
 10
144.0886880493
 20
79.6793814854
 10
144.1099056128
 20
79.6698592579
 10
144.1313907754
 20
79.6609567983
 10
144.1531253797
 20
79.6526816302
 10
144.1750910573
 20
79.645040747
 10
144.1972692447
 20
79.6380406062
 10
144.2196411988
 20
79.6316871237
 10
144.2421880127
 20
79.625985669
 10
144.2648906316
 20
79.6209410604
 10
144.2877298692
 20
79.6165575612
 10
144.3106864238
 20
79.612838876
 10
144.3337408944
 20
79.6097881475
 10
144.3568737972
 20
79.607407954
 10
144.3800655822
 20
79.6057003069
 10
144.4032966498
 20
79.6046666494
 10
144.4265473669
 20
79.6043078552
  0
LINE
  5
24C
100
AcDbEntity
  8
ASSI
100
AcDbLine
 62
250
  6
CONTINUOUS
 10
143.6353932307
 20
122.5154798719
 11
143.6341998794
 21
122.5862638517
  0
LINE
  5
24D
100
AcDbEntity
  8
ASSI
100
AcDbLine
 62
250
  6
CONTINUOUS
 10
144.432723247
 20
123.3107496767
 11
144.4312337295
 21
123.4157795253
  0
LINE
  5
24E
100
AcDbEntity
  8
ASSI
100
AcDbLine
 62
250
  6
CONTINUOUS
 10
143.6366928761
 20
122.4075489677
 11
143.6353932307
 21
122.5154798719
  0
LINE
  5
24F
100
AcDbEntity
  8
ASSI
100
AcDbLine
 62
250
  6
CONTINUOUS
 10
144.4348930506
 20
123.0822692619
 11
144.432723247
 21
123.3107496767
  0
LINE
  5
250
100
AcDbEntity
  8
ASSI
100
AcDbLine
 62
250
  6
CONTINUOUS
 10
143.6377872402
 20
122.2562454944
 11
143.6366928761
 21
122.4075489677
  0
LINE
  5
251
100
AcDbEntity
  8
ASSI
100
AcDbLine
 62
250
  6
CONTINUOUS
 10
144.4374025954
 20
122.5743929388
 11
144.4348930506
 21
123.0822692619
  0
LINE
  5
252
100
AcDbEntity
  8
ASSI
100
AcDbLine
 62
7
  6
CONTINUOUS
 10
143.5371307566
 20
94.0840115132
 11
143.5371307566
 21
96.9591537747
  0
LINE
  5
253
100
AcDbEntity
  8
ASSI
100
AcDbLine
 62
7
  6
CONTINUOUS
 10
143.5371307566
 20
106.2088692516
 11
143.5371307566
 21
109.0840115132
  0
LINE
  5
254
100
AcDbEntity
  8
ASSI
100
AcDbLine
 62
7
  6
CONTINUOUS
 10
143.5371307566
 20
94.0840115132
 11
143.5610723029
 21
80.2062607248
  0
LINE
  5
255
100
AcDbEntity
  8
ASSI
100
AcDbLine
 62
7
  6
CONTINUOUS
 10
143.6069510163
 20
104.6644616976
 11
143.6069510163
 21
98.5035613287
  0
LINE
  5
256
100
AcDbEntity
  8
ASSI
100
AcDbLine
 62
7
  6
CONTINUOUS
 10
143.5610723029
 20
122.9617623015
 11
143.5371307566
 21
109.0840115132
  0
LINE
  5
257
100
AcDbEntity
  8
ASSI
100
AcDbLine
 62
250
  6
CONTINUOUS
 10
144.4367080214
 20
80.4007679304
 11
144.4374025954
 21
122.5743929388
  0
LINE
  5
258
100
AcDbEntity
  8
ASSI
100
AcDbLine
 62
250
  6
CONTINUOUS
 10
143.6378619678
 20
80.9276232392
 11
143.6377872402
 21
122.2562454944
  0
LINE
  5
259
100
AcDbEntity
  8
ASSI
100
AcDbLine
 62
250
  6
CONTINUOUS
 10
144.4342888098
 20
80.0107327831
 11
144.4367080214
 21
80.4007679304
  0
LINE
  5
25A
100
AcDbEntity
  8
ASSI
100
AcDbLine
 62
250
  6
CONTINUOUS
 10
143.6368298982
 20
80.7748996303
 11
143.6378619678
 21
80.9276232392
  0
LINE
  5
25B
100
AcDbEntity
  8
ASSI
100
AcDbLine
 62
250
  6
CONTINUOUS
 10
144.4322402664
 20
79.8194165564
 11
144.4342888098
 21
80.0107327831
  0
LINE
  5
25C
100
AcDbEntity
  8
ASSI
100
AcDbLine
 62
250
  6
CONTINUOUS
 10
143.6355747163
 20
80.6652446073
 11
143.6368298982
 21
80.7748996303
  0
LWPOLYLINE
  5
25D
100
AcDbEntity
  8
ASSI
100
AcDbPolyline
 62
250
  6
CONTINUOUS
 90
55
 70
0
 10
143.6266692108
 20
122.7648115433
 10
143.6270284428
 20
122.7880339329
 10
143.6280633611
 20
122.8112366969
 10
143.6297730912
 20
122.8344002262
 10
143.6321561882
 20
122.857504945
 10
143.635210638
 20
122.8805313271
 10
143.6389338593
 20
122.9034599125
 10
143.6433227056
 20
122.926271324
 10
143.6483734677
 20
122.9489462831
 10
143.6540818772
 20
122.971465627
 10
143.6604431098
 20
122.9938103242
 10
143.6674517895
 20
123.0159614909
 10
143.6751019932
 20
123.0379004066
 10
143.6833872556
 20
123.0596085305
 10
143.6923005746
 20
123.0810675167
 10
143.7018344175
 20
123.1022592298
 10
143.7119807271
 20
123.1231657604
 10
143.7227309285
 20
123.1437694401
 10
143.7340759365
 20
123.1640528563
 10
143.7460061634
 20
123.1839988672
 10
143.7585115268
 20
123.2035906161
 10
143.771581458
 20
123.2228115457
 10
143.7852049115
 20
123.2416454121
 10
143.799370374
 20
123.2600762984
 10
143.8140658738
 20
123.2780886285
 10
143.8292789918
 20
123.2956671798
 10
143.8449968709
 20
123.3127970964
 10
143.8612062277
 20
123.3294639015
 10
143.8778933635
 20
123.3456535097
 10
143.8950441757
 20
123.361352239
 10
143.9126441699
 20
123.3765468221
 10
143.930678472
 20
123.3912244178
 10
143.9491318409
 20
123.4053726218
 10
143.9679886814
 20
123.4189794772
 10
143.9872330573
 20
123.4320334848
 10
144.0068487049
 20
123.4445236122
 10
144.0268190466
 20
123.456439304
 10
144.0471272052
 20
123.4677704899
 10
144.0677560179
 20
123.4785075939
 10
144.088688051
 20
123.4886415417
 10
144.1099056144
 20
123.4981637691
 10
144.131390777
 20
123.5070662286
 10
144.1531253811
 20
123.5153413966
 10
144.1750910587
 20
123.5229822797
 10
144.197269246
 20
123.5299824205
 10
144.2196412
 20
123.5363359029
 10
144.2421880137
 20
123.5420373576
 10
144.2648906325
 20
123.5470819661
 10
144.28772987
 20
123.5514654652
 10
144.3106864245
 20
123.5551841504
 10
144.3337408949
 20
123.5582348788
 10
144.3568737976
 20
123.5606150724
 10
144.3800655825
 20
123.5623227194
 10
144.40329665
 20
123.5633563769
 10
144.4265473669
 20
123.5637151712
  0
LINE
  5
25E
100
AcDbEntity
  8
ASSI
100
AcDbLine
 62
250
  6
CONTINUOUS
 10
144.4309743223
 20
79.737283982
 11
144.4322402664
 21
79.8194165564
  0
LINE
  5
25F
100
AcDbEntity
  8
ASSI
100
AcDbLine
 62
250
  6
CONTINUOUS
 10
143.6344106642
 20
80.5928770983
 11
143.6355747163
 21
80.6652446073
  0
LINE
  5
260
100
AcDbEntity
  8
ASSI
100
AcDbLine
 62
250
  6
CONTINUOUS
 10
144.4299106927
 20
79.6850276946
 11
144.4309743223
 21
79.737283982
  0
LINE
  5
261
100
AcDbEntity
  8
ASSI
100
AcDbLine
 62
250
  6
CONTINUOUS
 10
143.6333129592
 20
80.5402044671
 11
143.6344106642
 21
80.5928770983
  0
LINE
  5
262
100
AcDbEntity
  8
ASSI
100
AcDbLine
 62
250
  6
CONTINUOUS
 10
144.4293650106
 20
79.6635476675
 11
144.4299106927
 21
79.6850276946
  0
LINE
  5
263
100
AcDbEntity
  8
ASSI
100
AcDbLine
 62
250
  6
CONTINUOUS
 10
143.632362091
 20
80.5035948005
 11
143.6333129592
 21
80.5402044671
  0
LINE
  5
264
100
AcDbEntity
  8
ASSI
100
AcDbLine
 62
250
  6
CONTINUOUS
 10
144.4288118684
 20
79.6452316607
 11
144.4293650106
 21
79.6635476675
  0
LINE
  5
265
100
AcDbEntity
  8
ASSI
100
AcDbLine
 62
250
  6
CONTINUOUS
 10
143.6316118899
 20
80.4795746481
 11
143.632362091
 21
80.5035948005
  0
LINE
  5
266
100
AcDbEntity
  8
ASSI
100
AcDbLine
 62
250
  6
CONTINUOUS
 10
143.6310961269
 20
80.4652649219
 11
143.6316118899
 21
80.4795746481
  0
LINE
  5
267
100
AcDbEntity
  8
ASSI
100
AcDbLine
 62
250
  6
CONTINUOUS
 10
143.6305693684
 20
80.4523594549
 11
143.6310961269
 21
80.4652649219
  0
LINE
  5
268
100
AcDbEntity
  8
ASSI
100
AcDbLine
 62
7
  6
CONTINUOUS
 10
143.5997390039
 20
98.0111574522
 11
143.5443427689
 21
97.4515576512
  0
LINE
  5
269
100
AcDbEntity
  8
ASSI
100
AcDbLine
 62
250
  6
CONTINUOUS
 10
187.924268535
 20
81.0572199704
 11
187.8996684585
 21
81.0556043943
  0
LINE
  5
26A
100
AcDbEntity
  8
ASSI
100
AcDbLine
 62
250
  6
CONTINUOUS
 10
187.8996684585
 20
81.0556043943
 11
187.8728727898
 21
81.0540480061
  0
LINE
  5
26B
100
AcDbEntity
  8
ASSI
100
AcDbLine
 62
250
  6
CONTINUOUS
 10
187.8728727898
 20
81.0540480061
 11
187.8439701954
 21
81.0525559561
  0
LINE
  5
26C
100
AcDbEntity
  8
ASSI
100
AcDbLine
 62
250
  6
CONTINUOUS
 10
187.8439701954
 20
81.0525559561
 11
187.8130563139
 21
81.0511331813
  0
LINE
  5
26D
100
AcDbEntity
  8
ASSI
100
AcDbLine
 62
250
  6
CONTINUOUS
 10
187.8130563139
 20
81.0511331813
 11
187.780233439
 21
81.0497843896
  0
LINE
  5
26E
100
AcDbEntity
  8
ASSI
100
AcDbLine
 62
250
  6
CONTINUOUS
 10
187.780233439
 20
81.0497843896
 11
187.7276589889
 21
81.0479096132
  0
LINE
  5
26F
100
AcDbEntity
  8
ASSI
100
AcDbLine
 62
250
  6
CONTINUOUS
 10
187.7276589889
 20
81.0479096132
 11
187.6714263682
 21
81.0462252336
  0
LINE
  5
270
100
AcDbEntity
  8
ASSI
100
AcDbLine
 62
250
  6
CONTINUOUS
 10
187.6714263682
 20
81.0462252336
 11
187.6119540972
 21
81.044743787
  0
LINE
  5
271
100
AcDbEntity
  8
ASSI
100
AcDbLine
 62
250
  6
CONTINUOUS
 10
187.6119540972
 20
81.044743787
 11
187.5283863871
 21
81.0431030275
  0
LINE
  5
272
100
AcDbEntity
  8
ASSI
100
AcDbLine
 62
250
  6
CONTINUOUS
 10
187.5283863871
 20
81.0431030275
 11
187.4409537848
 21
81.041864155
  0
LINE
  5
273
100
AcDbEntity
  8
ASSI
100
AcDbLine
 62
250
  6
CONTINUOUS
 10
187.4409537848
 20
81.041864155
 11
187.3508125881
 21
81.0410435535
  0
LINE
  5
274
100
AcDbEntity
  8
ASSI
100
AcDbLine
 62
7
  6
CONTINUOUS
 10
187.3137981698
 20
79.4058945615
 11
166.7882914799
 21
79.4058945615
  0
LINE
  5
275
100
AcDbEntity
  8
ASSI
100
AcDbLine
 62
7
  6
CONTINUOUS
 10
144.3604633433
 20
79.4058945615
 11
164.8859700333
 21
79.4058945615
  0
LINE
  5
276
100
AcDbEntity
  8
ASSI
100
AcDbLine
 62
250
  6
CONTINUOUS
 10
164.8826661668
 20
79.6043078552
 11
144.4265473669
 21
79.6043078552
  0
LINE
  5
277
100
AcDbEntity
  8
ASSI
100
AcDbLine
 62
250
  6
CONTINUOUS
 10
166.7915953464
 20
79.6043078552
 11
187.2477141462
 21
79.6043078552
  0
LINE
  5
278
100
AcDbEntity
  8
ASSI
100
AcDbLine
 62
250
  6
CONTINUOUS
 10
144.2333077267
 20
81.0418641546
 11
144.3234489242
 21
81.041043553
  0
LINE
  5
279
100
AcDbEntity
  8
ASSI
100
AcDbLine
 62
250
  6
CONTINUOUS
 10
144.1458751238
 20
81.0431030271
 11
144.2333077267
 21
81.0418641546
  0
LINE
  5
27A
100
AcDbEntity
  8
ASSI
100
AcDbLine
 62
250
  6
CONTINUOUS
 10
144.0623074132
 20
81.0447437866
 11
144.1458751238
 21
81.0431030271
  0
LINE
  5
27B
100
AcDbEntity
  8
ASSI
100
AcDbLine
 62
250
  6
CONTINUOUS
 10
144.0028351419
 20
81.0462252332
 11
144.0623074132
 21
81.0447437866
  0
LINE
  5
27C
100
AcDbEntity
  8
ASSI
100
AcDbLine
 62
250
  6
CONTINUOUS
 10
143.9466025209
 20
81.0479096129
 11
144.0028351419
 21
81.0462252332
  0
LINE
  5
27D
100
AcDbEntity
  8
ASSI
100
AcDbLine
 62
250
  6
CONTINUOUS
 10
143.8940280707
 20
81.0497843894
 11
143.9466025209
 21
81.0479096129
  0
LINE
  5
27E
100
AcDbEntity
  8
ASSI
100
AcDbLine
 62
250
  6
CONTINUOUS
 10
143.8612051957
 20
81.051133181
 11
143.8940280707
 21
81.0497843894
  0
LINE
  5
27F
100
AcDbEntity
  8
ASSI
100
AcDbLine
 62
250
  6
CONTINUOUS
 10
143.8302913142
 20
81.0525559558
 11
143.8612051957
 21
81.051133181
  0
LINE
  5
280
100
AcDbEntity
  8
ASSI
100
AcDbLine
 62
250
  6
CONTINUOUS
 10
143.8013887198
 20
81.0540480059
 11
143.8302913142
 21
81.0525559558
  0
LINE
  5
281
100
AcDbEntity
  8
ASSI
100
AcDbLine
 62
250
  6
CONTINUOUS
 10
143.7745930512
 20
81.0556043941
 11
143.8013887198
 21
81.0540480059
  0
LWPOLYLINE
  5
282
100
AcDbEntity
  8
ASSI
100
AcDbPolyline
 62
250
  6
CONTINUOUS
 90
7
 70
0
 10
144.4282521795
 20
123.5379030366
 10
144.4279704155
 20
123.5442465425
 10
144.4276873681
 20
123.5497770493
 10
144.4274034938
 20
123.5544915396
 10
144.427118945
 20
123.5583874187
 10
144.4268335694
 20
123.5614625287
 10
144.4265473669
 20
123.5637151712
  0
LINE
  5
283
100
AcDbEntity
  8
ASSI
100
AcDbLine
 62
250
  6
CONTINUOUS
 10
144.4288118644
 20
123.5227913714
 11
144.4282521795
 21
123.5379030366
  0
LWPOLYLINE
  5
284
100
AcDbEntity
  8
ASSI
100
AcDbPolyline
 62
250
  6
CONTINUOUS
 90
7
 70
0
 10
165.6336563584
 20
81.0622553848
 10
165.6253703067
 20
81.0613622235
 10
165.6164560616
 20
81.060479313
 10
165.6069211571
 20
81.0596074002
 10
165.5967736517
 20
81.0587472215
 10
165.5860221218
 20
81.0578995038
 10
165.574675654
 20
81.0570649641
  0
LINE
  5
285
100
AcDbEntity
  8
ASSI
100
AcDbLine
 62
250
  6
CONTINUOUS
 10
165.574675654
 20
81.0570649641
 11
165.5502367582
 21
81.0554382269
  0
LINE
  5
286
100
AcDbEntity
  8
ASSI
100
AcDbLine
 62
250
  6
CONTINUOUS
 10
165.5502367582
 20
81.0554382269
 11
165.5235395661
 21
81.0538725087
  0
LINE
  5
287
100
AcDbEntity
  8
ASSI
100
AcDbLine
 62
250
  6
CONTINUOUS
 10
165.5235395661
 20
81.0538725087
 11
165.4946743126
 21
81.0523731005
  0
LINE
  5
288
100
AcDbEntity
  8
ASSI
100
AcDbLine
 62
250
  6
CONTINUOUS
 10
165.4946743126
 20
81.0523731005
 11
165.4637385602
 21
81.0509450708
  0
LINE
  5
289
100
AcDbEntity
  8
ASSI
100
AcDbLine
 62
250
  6
CONTINUOUS
 10
165.4637385602
 20
81.0509450708
 11
165.4308368697
 21
81.0495932467
  0
LINE
  5
28A
100
AcDbEntity
  8
ASSI
100
AcDbLine
 62
250
  6
CONTINUOUS
 10
165.4308368697
 20
81.0495932467
 11
165.378043187
 21
81.0477183151
  0
LINE
  5
28B
100
AcDbEntity
  8
ASSI
100
AcDbLine
 62
250
  6
CONTINUOUS
 10
165.378043187
 20
81.0477183151
 11
165.3214791722
 21
81.0460393149
  0
LINE
  5
28C
100
AcDbEntity
  8
ASSI
100
AcDbLine
 62
250
  6
CONTINUOUS
 10
165.3214791722
 20
81.0460393149
 11
165.2615748345
 21
81.0445690102
  0
LINE
  5
28D
100
AcDbEntity
  8
ASSI
100
AcDbLine
 62
250
  6
CONTINUOUS
 10
165.2615748345
 20
81.0445690102
 11
165.1987855768
 21
81.0433185783
  0
LINE
  5
28E
100
AcDbEntity
  8
ASSI
100
AcDbLine
 62
250
  6
CONTINUOUS
 10
165.1987855768
 20
81.0433185783
 11
165.1114066439
 21
81.0420095399
  0
LINE
  5
28F
100
AcDbEntity
  8
ASSI
100
AcDbLine
 62
250
  6
CONTINUOUS
 10
165.1114066439
 20
81.0420095399
 11
165.02093001
 21
81.0411257686
  0
LINE
  5
290
100
AcDbEntity
  8
ASSI
100
AcDbLine
 62
250
  6
CONTINUOUS
 10
165.02093001
 20
81.0411257686
 11
164.9285779117
 21
81.0406792029
  0
LINE
  5
291
100
AcDbEntity
  8
ASSI
100
AcDbLine
 62
250
  6
CONTINUOUS
 10
187.3508125881
 20
81.0410435535
 11
187.2591549156
 21
81.0406520755
  0
LINE
  5
292
100
AcDbEntity
  8
ASSI
100
AcDbLine
 62
250
  6
CONTINUOUS
 10
164.9285779117
 20
81.0406792029
 11
144.4381161256
 21
81.0406219887
  0
LINE
  5
293
100
AcDbEntity
  8
ASSI
100
AcDbLine
 62
250
  6
CONTINUOUS
 10
166.7224877348
 20
81.0407494237
 11
187.2591549156
 21
81.0406520755
  0
LWPOLYLINE
  5
294
100
AcDbEntity
  8
ASSI
100
AcDbPolyline
 62
250
  6
CONTINUOUS
 90
3
 70
0
 10
144.3234489242
 20
81.041043553
 10
144.3462683034
 20
81.0409051532
 10
144.4381161256
 20
81.0406219887
  0
LINE
  5
295
100
AcDbEntity
  8
ASSI
100
AcDbLine
 62
250
  6
CONTINUOUS
 10
166.6304882136
 20
81.0413060897
 11
166.7224877348
 21
81.0407494237
  0
LINE
  5
296
100
AcDbEntity
  8
ASSI
100
AcDbLine
 62
250
  6
CONTINUOUS
 10
166.5406727819
 20
81.0422975252
 11
166.6304882136
 21
81.0413060897
  0
LINE
  5
297
100
AcDbEntity
  8
ASSI
100
AcDbLine
 62
250
  6
CONTINUOUS
 10
166.4542546931
 20
81.0437103363
 11
166.5406727819
 21
81.0422975252
  0
LINE
  5
298
100
AcDbEntity
  8
ASSI
100
AcDbLine
 62
250
  6
CONTINUOUS
 10
166.3923750484
 20
81.0450351996
 11
166.4542546931
 21
81.0437103363
  0
LINE
  5
299
100
AcDbEntity
  8
ASSI
100
AcDbLine
 62
250
  6
CONTINUOUS
 10
166.3335347359
 20
81.0465763916
 11
166.3923750484
 21
81.0450351996
  0
LINE
  5
29A
100
AcDbEntity
  8
ASSI
100
AcDbLine
 62
250
  6
CONTINUOUS
 10
166.2781810698
 20
81.0483221962
 11
166.3335347359
 21
81.0465763916
  0
LINE
  5
29B
100
AcDbEntity
  8
ASSI
100
AcDbLine
 62
250
  6
CONTINUOUS
 10
166.2434246467
 20
81.0495932466
 11
166.2781810698
 21
81.0483221962
  0
LINE
  5
29C
100
AcDbEntity
  8
ASSI
100
AcDbLine
 62
250
  6
CONTINUOUS
 10
166.2105229561
 20
81.0509450708
 11
166.2434246467
 21
81.0495932466
  0
LINE
  5
29D
100
AcDbEntity
  8
ASSI
100
AcDbLine
 62
250
  6
CONTINUOUS
 10
166.1795872035
 20
81.0523731005
 11
166.2105229561
 21
81.0509450708
  0
LINE
  5
29E
100
AcDbEntity
  8
ASSI
100
AcDbLine
 62
250
  6
CONTINUOUS
 10
166.1507219497
 20
81.0538725086
 11
166.1795872035
 21
81.0523731005
  0
LINE
  5
29F
100
AcDbEntity
  8
ASSI
100
AcDbLine
 62
250
  6
CONTINUOUS
 10
166.1240247574
 20
81.0554382268
 11
166.1507219497
 21
81.0538725086
  0
LWPOLYLINE
  5
2A0
100
AcDbEntity
  8
ASSI
100
AcDbPolyline
 62
250
  6
CONTINUOUS
 90
8
 70
0
 10
166.0406051559
 20
81.0622553847
 10
166.0488912078
 20
81.0613622234
 10
166.057805453
 20
81.0604793129
 10
166.0673403577
 20
81.0596074001
 10
166.0774878632
 20
81.0587472214
 10
166.0882393934
 20
81.0578995037
 10
166.0995858613
 20
81.057064964
 10
166.1240247574
 20
81.0554382268
  0
LWPOLYLINE
  5
2A1
100
AcDbEntity
  8
ASSI
100
AcDbPolyline
 62
250
  6
CONTINUOUS
 90
8
 70
0
 10
144.4265473669
 20
79.6043078552
 10
144.4268335717
 20
79.6065604985
 10
144.4271189489
 20
79.6096356098
 10
144.4274034987
 20
79.6135314902
 10
144.4276873727
 20
79.6182459814
 10
144.4279704193
 20
79.6237764887
 10
144.4282521827
 20
79.6301199949
 10
144.4288118684
 20
79.6452316607
  0
LWPOLYLINE
  5
2A2
100
AcDbEntity
  8
ASSI
100
AcDbPolyline
 62
250
  6
CONTINUOUS
 90
14
 70
0
 10
143.6266692108
 20
80.403211483
 10
143.6269553604
 20
80.4042640923
 10
143.6272406999
 20
80.405698636
 10
143.6275252292
 20
80.4075151142
 10
143.6278091078
 20
80.4097149562
 10
143.6280921762
 20
80.4122967326
 10
143.6283739565
 20
80.4152561552
 10
143.6286544429
 20
80.4185938373
 10
143.6289336411
 20
80.4223091654
 10
143.6292110903
 20
80.4263960108
 10
143.6294867873
 20
80.4308549855
 10
143.6297607353
 20
80.4356854774
 10
143.6300324827
 20
80.4408795208
 10
143.6305693684
 20
80.4523594549
  0
LINE
  5
2A3
100
AcDbEntity
  8
ASSI
100
AcDbLine
 62
250
  6
CONTINUOUS
 10
143.5610723029
 20
80.2062607248
 11
143.6266692108
 21
80.403211483
  0
LINE
  5
2A4
100
AcDbEntity
  8
ASSI
100
AcDbLine
 62
250
  6
CONTINUOUS
 10
144.3604633433
 20
79.4058945615
 11
144.4265473669
 21
79.6043078552
  0
LINE
  5
2A5
100
AcDbEntity
  8
ASSI
100
AcDbLine
 62
250
  6
CONTINUOUS
 10
143.6266692108
 20
122.7648115433
 11
143.5610723029
 21
122.9617623015
  0
LINE
  5
2A6
100
AcDbEntity
  8
ASSI
100
AcDbLine
 62
250
  6
CONTINUOUS
 10
144.4265473669
 20
123.5637151712
 11
144.3604633433
 21
123.7621284649
  0
LWPOLYLINE
  5
2A7
100
AcDbEntity
  8
0
100
AcDbPolyline
 62
7
  6
CONTINUOUS
 90
3
 70
0
 43
0.3500000006
 10
166.872850708
 20
134.6943442383
 10
166.8014104614
 20
134.4800597534
 10
166.6585662231
 20
134.1943531494
  0
LWPOLYLINE
  5
2A8
100
AcDbEntity
  8
ASSI
100
AcDbPolyline
 62
250
  6
CONTINUOUS
 90
13
 70
0
 10
165.9921737995
 20
122.0945316144
 10
165.9925321405
 20
122.0954870825
 10
165.9935663074
 20
122.096441743
 10
165.9952754262
 20
122.0973947891
 10
165.9976580524
 20
122.0983454154
 10
166.0007121723
 20
122.0992928185
 10
166.0044352047
 20
122.1002361975
 10
166.008824003
 20
122.1011747552
 10
166.013874858
 20
122.1021076985
 10
166.0195835009
 20
122.1030342387
 10
166.0259451069
 20
122.1039535928
 10
166.0329542995
 20
122.1048649839
 10
166.0406051547
 20
122.1057676415
  0
LWPOLYLINE
  5
2A9
100
AcDbEntity
  8
ASSI
100
AcDbPolyline
 62
250
  6
CONTINUOUS
 90
13
 70
0
 10
165.9921737995
 20
81.073491412
 10
165.9925321405
 20
81.0725359438
 10
165.9935663074
 20
81.0715812833
 10
165.9952754263
 20
81.0706282372
 10
165.9976580525
 20
81.0696776109
 10
166.0007121725
 20
81.0687302078
 10
166.004435205
 20
81.0677868288
 10
166.0088240035
 20
81.066848271
 10
166.0138748586
 20
81.0659153277
 10
166.0195835016
 20
81.0649887876
 10
166.0259451077
 20
81.0640694335
 10
166.0329543005
 20
81.0631580423
 10
166.0406051559
 20
81.0622553847
  0
LWPOLYLINE
  5
2AA
100
AcDbEntity
  8
0
100
AcDbPolyline
 62
7
  6
CONTINUOUS
 90
2
 70
0
 43
0.3500000006
 10
162.4442805176
 20
134.4086376343
 10
162.4442805176
 20
135.9086290283
  0
LWPOLYLINE
  5
2AB
100
AcDbEntity
  8
0
100
AcDbPolyline
 62
7
  6
CONTINUOUS
 90
2
 70
0
 43
0.3500000006
 10
199.687489563
 20
98.1911517334
 10
198.1874800415
 20
98.1911517334
  0
LINE
  5
2AC
100
AcDbEntity
  8
ASSI
100
AcDbLine
 62
7
  6
CONTINUOUS
 10
165.6859842469
 20
81.5840115132
 11
165.6831160322
 21
81.6413816185
  0
LINE
  5
2AD
100
AcDbEntity
  8
ASSI
100
AcDbLine
 62
250
  6
CONTINUOUS
 10
164.8826661668
 20
79.6043078552
 11
164.8859700333
 21
79.4058945615
  0
LINE
  5
2AE
100
AcDbEntity
  8
ASSI
100
AcDbLine
 62
250
  6
CONTINUOUS
 10
165.6826658622
 20
80.403211483
 11
165.6859338005
 21
80.2069558507
  0
LWPOLYLINE
  5
2AF
100
AcDbEntity
  8
ASSI
100
AcDbPolyline
 62
250
  6
CONTINUOUS
 90
55
 70
0
 10
165.991595651
 20
80.403211483
 10
165.9919351338
 20
80.3799762714
 10
165.9929511695
 20
80.356760718
 10
165.9946428987
 20
80.3335844643
 10
165.99700889
 20
80.3104671185
 10
166.0000471416
 20
80.2874282391
 10
166.0037550831
 20
80.2644873183
 10
166.0081295774
 20
80.241663765
 10
166.0131669233
 20
80.2189768893
 10
166.0188628591
 20
80.1964458854
 10
166.0252125657
 20
80.1740898156
 10
166.0322106709
 20
80.1519275943
 10
166.039851254
 20
80.1299779719
 10
166.0481278507
 20
80.1082595189
 10
166.0570334585
 20
80.0867906102
 10
166.0665605429
 20
80.0655894095
 10
166.0767010434
 20
80.0446738541
 10
166.0874463807
 20
80.0240616398
 10
166.0987874637
 20
80.0037702054
 10
166.1107146973
 20
79.9838167185
 10
166.1232179903
 20
79.9642180608
 10
166.1362867645
 20
79.9449908138
 10
166.1499099629
 20
79.9261512446
 10
166.1640760596
 20
79.9077152926
 10
166.1787730695
 20
79.8896985554
 10
166.193988558
 20
79.8721162761
 10
166.2097096522
 20
79.8549833303
 10
166.2259230511
 20
79.8383142132
 10
166.2426150374
 20
79.8221230278
 10
166.2597714889
 20
79.8064234727
 10
166.2773778903
 20
79.7912288304
 10
166.2954193457
 20
79.7765519565
 10
166.3138805912
 20
79.7624052682
 10
166.3327460076
 20
79.7488007345
 10
166.3519996337
 20
79.7357498654
 10
166.3716251801
 20
79.7232637026
 10
166.3916060425
 20
79.71135281
 10
166.4119253161
 20
79.700027265
 10
166.4325658099
 20
79.6892966493
 10
166.4535100608
 20
79.6791700418
 10
166.474740349
 20
79.6696560101
 10
166.4962387125
 20
79.6607626034
 10
166.5179869628
 20
79.652497346
 10
166.5399666996
 20
79.6448672309
 10
166.562159327
 20
79.6378787134
 10
166.5845460689
 20
79.6315377061
 10
166.607107985
 20
79.625849574
 10
166.6298259868
 20
79.6208191294
 10
166.6526808536
 20
79.6164506284
 10
166.6756532491
 20
79.612747767
 10
166.6987237375
 20
79.6097136778
 10
166.7218728
 20
79.607350928
 10
166.7450808514
 20
79.6056615166
 10
166.7683282563
 20
79.6046468728
 10
166.7915953464
 20
79.6043078552
  0
LWPOLYLINE
  5
2B0
100
AcDbEntity
  8
ASSI
100
AcDbPolyline
 62
250
  6
CONTINUOUS
 90
55
 70
0
 10
165.6826658622
 20
122.7648115433
 10
165.6823263794
 20
122.7880467549
 10
165.6813103436
 20
122.8112623083
 10
165.6796186145
 20
122.8344385621
 10
165.6772526232
 20
122.8575559078
 10
165.6742143715
 20
122.8805947872
 10
165.67050643
 20
122.9035357081
 10
165.6661319358
 20
122.9263592613
 10
165.6610945899
 20
122.949046137
 10
165.6553986541
 20
122.9715771409
 10
165.6490489475
 20
122.9939332107
 10
165.6420508423
 20
123.016095432
 10
165.6344102591
 20
123.0380450544
 10
165.6261336625
 20
123.0597635074
 10
165.6172280546
 20
123.0812324162
 10
165.6077009703
 20
123.1024336168
 10
165.5975604697
 20
123.1233491722
 10
165.5868151324
 20
123.1439613865
 10
165.5754740494
 20
123.1642528209
 10
165.5635468159
 20
123.1842063078
 10
165.5510435228
 20
123.2038049655
 10
165.5379747487
 20
123.2230322125
 10
165.5243515502
 20
123.2418717817
 10
165.5101854535
 20
123.2603077337
 10
165.4954884437
 20
123.2783244709
 10
165.4802729551
 20
123.2959067502
 10
165.464551861
 20
123.313039696
 10
165.4483384621
 20
123.3297088131
 10
165.4316464757
 20
123.3458999985
 10
165.4144900243
 20
123.3615995536
 10
165.3968836229
 20
123.3767941959
 10
165.3788421674
 20
123.3914710698
 10
165.360380922
 20
123.4056177581
 10
165.3415155056
 20
123.4192222918
 10
165.3222618795
 20
123.432273161
 10
165.3026363331
 20
123.4447593237
 10
165.2826554707
 20
123.4566702163
 10
165.262336197
 20
123.4679957614
 10
165.2416957033
 20
123.478726377
 10
165.2207514524
 20
123.4888529845
 10
165.1995211642
 20
123.4983670163
 10
165.1780228006
 20
123.5072604229
 10
165.1562745504
 20
123.5155256803
 10
165.1342948135
 20
123.5231557954
 10
165.1121021861
 20
123.530144313
 10
165.0897154442
 20
123.5364853202
 10
165.0671535281
 20
123.5421734523
 10
165.0444355264
 20
123.5472038969
 10
165.0215806596
 20
123.5515723979
 10
164.9986082641
 20
123.5552752593
 10
164.9755377756
 20
123.5583093485
 10
164.9523887131
 20
123.5606720983
 10
164.9291806618
 20
123.5623615097
 10
164.9059332569
 20
123.5633761535
 10
164.8826661668
 20
123.5637151712
  0
LINE
  5
2B1
100
AcDbEntity
  8
ASSI
100
AcDbLine
 62
250
  6
CONTINUOUS
 10
164.8825809363
 20
79.6301191948
 11
164.8826661668
 21
79.6043078552
  0
LWPOLYLINE
  5
2B2
100
AcDbEntity
  8
0
100
AcDbPolyline
 62
7
  6
CONTINUOUS
 90
2
 70
0
 43
0.3500000006
 10
164.8014098511
 20
134.4086376343
 10
164.8014098511
 20
135.9086290283
  0
LINE
  5
2B3
100
AcDbEntity
  8
ASSI
100
AcDbLine
 62
7
  6
CONTINUOUS
 10
165.6859338005
 20
122.9610671756
 11
165.6859909655
 21
121.5107618471
  0
LINE
  5
2B4
100
AcDbEntity
  8
ASSI
100
AcDbLine
 62
7
  6
CONTINUOUS
 10
165.9883277126
 20
80.2069558507
 11
165.9882705477
 21
81.6572611793
  0
LINE
  5
2B5
100
AcDbEntity
  8
ASSI
100
AcDbLine
 62
7
  6
CONTINUOUS
 10
165.6859842469
 20
81.5840115132
 11
165.6859338005
 21
80.2069558507
  0
LINE
  5
2B6
100
AcDbEntity
  8
ASSI
100
AcDbLine
 62
7
  6
CONTINUOUS
 10
165.9882772662
 20
121.5840115132
 11
165.9883277126
 21
122.9610671756
  0
LINE
  5
2B7
100
AcDbEntity
  8
ASSI
100
AcDbLine
 62
7
  6
CONTINUOUS
 10
165.6826658622
 20
122.7648115433
 11
165.6826658622
 21
80.403211483
  0
LINE
  5
2B8
100
AcDbEntity
  8
ASSI
100
AcDbLine
 62
7
  6
CONTINUOUS
 10
165.991595651
 20
80.403211483
 11
165.991595651
 21
122.7648115433
  0
LWPOLYLINE
  5
2B9
100
AcDbEntity
  8
ASSI
100
AcDbPolyline
 62
250
  6
CONTINUOUS
 90
3
 70
0
 10
164.8826661668
 20
123.5637151712
 10
164.8826518584
 20
123.5614625829
 10
164.8825809363
 20
79.6301191948
  0
LWPOLYLINE
  5
2BA
100
AcDbEntity
  8
ASSI
100
AcDbPolyline
 62
250
  6
CONTINUOUS
 90
55
 70
0
 10
165.991595651
 20
122.7648115433
 10
165.9919351338
 20
122.7880467553
 10
165.9929511696
 20
122.8112623091
 10
165.9946428988
 20
122.8344385631
 10
165.9970088901
 20
122.8575559092
 10
166.0000471419
 20
122.8805947889
 10
166.0037550835
 20
122.90353571
 10
166.0081295778
 20
122.9263592635
 10
166.0131669239
 20
122.9490461395
 10
166.0188628598
 20
122.9715771436
 10
166.0252125665
 20
122.9939332136
 10
166.0322106719
 20
123.0160954351
 10
166.0398512552
 20
123.0380450576
 10
166.048127852
 20
123.0597635108
 10
166.05703346
 20
123.0812324196
 10
166.0665605446
 20
123.1024336204
 10
166.0767010452
 20
123.1233491758
 10
166.0874463827
 20
123.1439613902
 10
166.0987874659
 20
123.1642528246
 10
166.1107146996
 20
123.1842063115
 10
166.1232179928
 20
123.2038049692
 10
166.1362867671
 20
123.2230322162
 10
166.1499099656
 20
123.2418717853
 10
166.1640760625
 20
123.2603077373
 10
166.1787730724
 20
123.2783244744
 10
166.1939885611
 20
123.2959067536
 10
166.2097096553
 20
123.3130396994
 10
166.2259230543
 20
123.3297088163
 10
166.2426150407
 20
123.3459000016
 10
166.2597714922
 20
123.3615995566
 10
166.2773778937
 20
123.3767941987
 10
166.2954193491
 20
123.3914710725
 10
166.3138805946
 20
123.4056177606
 10
166.3327460109
 20
123.4192222942
 10
166.351999637
 20
123.4322731632
 10
166.3716251834
 20
123.4447593258
 10
166.3916060457
 20
123.4566702182
 10
166.4119253193
 20
123.4679957631
 10
166.4325658129
 20
123.4787263785
 10
166.4535100638
 20
123.4888529859
 10
166.4747403518
 20
123.4983670175
 10
166.4962387153
 20
123.507260424
 10
166.5179869654
 20
123.5155256812
 10
166.539966702
 20
123.5231557962
 10
166.5621593293
 20
123.5301443136
 10
166.584546071
 20
123.5364853207
 10
166.6071079869
 20
123.5421734527
 10
166.6298259884
 20
123.5472038972
 10
166.652680855
 20
123.5515723981
 10
166.6756532503
 20
123.5552752595
 10
166.6987237385
 20
123.5583093486
 10
166.7218728008
 20
123.5606720983
 10
166.7450808519
 20
123.5623615097
 10
166.7683282565
 20
123.5633761535
 10
166.7915953464
 20
123.5637151712
  0
LWPOLYLINE
  5
2BB
100
AcDbEntity
  8
ASSI
100
AcDbPolyline
 62
250
  6
CONTINUOUS
 90
55
 70
0
 10
165.6826658622
 20
80.403211483
 10
165.6823263794
 20
80.379976271
 10
165.6813103436
 20
80.3567607173
 10
165.6796186144
 20
80.3335844632
 10
165.677252623
 20
80.3104671171
 10
165.6742143713
 20
80.2874282374
 10
165.6705064297
 20
80.2644873163
 10
165.6661319353
 20
80.2416637628
 10
165.6610945893
 20
80.2189768868
 10
165.6553986534
 20
80.1964458827
 10
165.6490489466
 20
80.1740898127
 10
165.6420508412
 20
80.1519275913
 10
165.634410258
 20
80.1299779687
 10
165.6261336611
 20
80.1082595156
 10
165.6172280531
 20
80.0867906067
 10
165.6077009686
 20
80.0655894059
 10
165.5975604679
 20
80.0446738505
 10
165.5868151304
 20
80.0240616361
 10
165.5754740473
 20
80.0037702017
 10
165.5635468136
 20
79.9838167148
 10
165.5510435204
 20
79.9642180571
 10
165.5379747461
 20
79.9449908101
 10
165.5243515475
 20
79.926151241
 10
165.5101854507
 20
79.907715289
 10
165.4954884407
 20
79.8896985519
 10
165.4802729521
 20
79.8721162727
 10
165.4645518579
 20
79.854983327
 10
165.4483384589
 20
79.83831421
 10
165.4316464725
 20
79.8221230247
 10
165.4144900209
 20
79.8064234698
 10
165.3968836195
 20
79.7912288276
 10
165.378842164
 20
79.7765519538
 10
165.3603809186
 20
79.7624052657
 10
165.3415155022
 20
79.7488007321
 10
165.3222618761
 20
79.7357498632
 10
165.3026363298
 20
79.7232637005
 10
165.2826554674
 20
79.7113528082
 10
165.2623361938
 20
79.7000272632
 10
165.2416957002
 20
79.6892966478
 10
165.2207514494
 20
79.6791700405
 10
165.1995211613
 20
79.6696560088
 10
165.1780227979
 20
79.6607626023
 10
165.1562745478
 20
79.6524973451
 10
165.1342948111
 20
79.6448672301
 10
165.1121021839
 20
79.6378787127
 10
165.0897154422
 20
79.6315377056
 10
165.0671535263
 20
79.6258495736
 10
165.0444355247
 20
79.6208191291
 10
165.0215806581
 20
79.6164506282
 10
164.9986082628
 20
79.6127477668
 10
164.9755377746
 20
79.6097136777
 10
164.9523887124
 20
79.607350928
 10
164.9291806613
 20
79.6056615166
 10
164.9059332566
 20
79.6046468728
 10
164.8826661668
 20
79.6043078552
  0
LINE
  5
2BC
100
AcDbEntity
  8
ASSI
100
AcDbLine
 62
250
  6
CONTINUOUS
 10
164.8859700333
 20
123.7621284649
 11
164.8826661668
 21
123.5637151712
  0
LINE
  5
2BD
100
AcDbEntity
  8
ASSI
100
AcDbLine
 62
250
  6
CONTINUOUS
 10
165.6859338005
 20
122.9610671756
 11
165.6826658622
 21
122.7648115433
  0
LINE
  5
2BE
100
AcDbEntity
  8
ASSI
100
AcDbLine
 62
7
  6
CONTINUOUS
 10
165.6859909655
 20
121.5107618471
 11
165.6831134686
 21
121.4532060803
  0
LWPOLYLINE
  5
2BF
100
AcDbEntity
  8
0
100
AcDbPolyline
 62
7
  6
CONTINUOUS
 90
2
 70
0
 43
0.3500000006
 10
199.687489563
 20
100.5482991943
 10
198.1874800415
 20
100.5482991943
  0
LINE
  5
2C0
100
AcDbEntity
  8
ASSI
100
AcDbLine
 62
7
  6
CONTINUOUS
 10
165.9882772662
 20
121.5840115132
 11
165.9911454809
 21
121.5266414078
  0
LINE
  5
2C1
100
AcDbEntity
  8
ASSI
100
AcDbLine
 62
250
  6
CONTINUOUS
 10
165.991595651
 20
122.7648115433
 11
165.9883277126
 21
122.9610671756
  0
LINE
  5
2C2
100
AcDbEntity
  8
ASSI
100
AcDbLine
 62
250
  6
CONTINUOUS
 10
166.7915953464
 20
123.5637151712
 11
166.7882914799
 21
123.7621284649
  0
LINE
  5
2C3
100
AcDbEntity
  8
ASSI
100
AcDbLine
 62
250
  6
CONTINUOUS
 10
166.7916805769
 20
123.5379038316
 11
166.7915953464
 21
123.5637151712
  0
LINE
  5
2C4
100
AcDbEntity
  8
ASSI
100
AcDbLine
 62
250
  6
CONTINUOUS
 10
166.7916239218
 20
79.6096354667
 11
166.7916805769
 21
123.5379038316
  0
LINE
  5
2C5
100
AcDbEntity
  8
ASSI
100
AcDbLine
 62
250
  6
CONTINUOUS
 10
166.7915953464
 20
79.6043078552
 11
166.7916239218
 21
79.6096354667
  0
LINE
  5
2C6
100
AcDbEntity
  8
ASSI
100
AcDbLine
 62
250
  6
CONTINUOUS
 10
165.9883277126
 20
80.2069558507
 11
165.991595651
 21
80.403211483
  0
LINE
  5
2C7
100
AcDbEntity
  8
ASSI
100
AcDbLine
 62
250
  6
CONTINUOUS
 10
166.7882914799
 20
79.4058945615
 11
166.7915953464
 21
79.6043078552
  0
LINE
  5
2C8
100
AcDbEntity
  8
ASSI
100
AcDbLine
 62
7
  6
CONTINUOUS
 10
165.9882705477
 20
81.6572611793
 11
165.9911480446
 21
81.714816946
  0
LWPOLYLINE
  5
2C9
100
AcDbEntity
  8
0
100
AcDbPolyline
 62
7
  6
CONTINUOUS
 90
2
 70
0
 43
0.3500000006
 10
199.687489563
 20
104.6197225342
 10
198.1874800415
 20
104.6197225342
  0
LWPOLYLINE
  5
2CA
100
AcDbEntity
  8
ASSI
100
AcDbPolyline
 62
250
  6
CONTINUOUS
 90
13
 70
0
 10
165.6820877136
 20
81.073491412
 10
165.6817293727
 20
81.0725359438
 10
165.6806952058
 20
81.0715812833
 10
165.678986087
 20
81.0706282372
 10
165.6766034608
 20
81.0696776109
 10
165.6735493409
 20
81.0687302078
 10
165.6698263085
 20
81.0677868288
 10
165.6654375102
 20
81.0668482711
 10
165.6603866552
 20
81.0659153278
 10
165.6546780123
 20
81.0649887876
 10
165.6483164063
 20
81.0640694336
 10
165.6413072137
 20
81.0631580424
 10
165.6336563584
 20
81.0622553848
  0
LWPOLYLINE
  5
2CB
100
AcDbEntity
  8
ASSI
100
AcDbPolyline
 62
250
  6
CONTINUOUS
 90
13
 70
0
 10
165.6820877136
 20
122.0945316144
 10
165.6817293727
 20
122.0954870825
 10
165.6806952057
 20
122.096441743
 10
165.6789860869
 20
122.0973947891
 10
165.6766034606
 20
122.0983454154
 10
165.6735493406
 20
122.0992928185
 10
165.6698263081
 20
122.1002361975
 10
165.6654375097
 20
122.1011747553
 10
165.6603866546
 20
122.1021076986
 10
165.6546780116
 20
122.1030342387
 10
165.6483164054
 20
122.1039535928
 10
165.6413072127
 20
122.104864984
 10
165.6336563573
 20
122.1057676416
  0
LWPOLYLINE
  5
2CC
100
AcDbEntity
  8
0
100
AcDbPolyline
 62
7
  6
CONTINUOUS
 90
3
 70
0
 43
0.3500000006
 10
199.4017648315
 20
102.6197219238
 10
199.6160493164
 20
102.5482998047
 10
199.9017740479
 20
102.405437439
  0
LINE
  5
2CD
100
AcDbEntity
  8
ASSI
100
AcDbLine
 62
250
  6
CONTINUOUS
 10
187.3137981698
 20
123.7621284649
 11
187.2477141462
 21
123.5637151712
  0
LINE
  5
2CE
100
AcDbEntity
  8
ASSI
100
AcDbLine
 62
250
  6
CONTINUOUS
 10
188.1131892103
 20
122.9617623015
 11
188.0475923023
 21
122.7648115433
  0
LWPOLYLINE
  5
2CF
100
AcDbEntity
  8
0
100
AcDbPolyline
 62
7
  6
CONTINUOUS
 90
10
 70
0
 43
0.3500000006
 10
199.1874803467
 20
102.5482998047
 10
199.3303427124
 20
102.6197219238
 10
199.4017648315
 20
102.6197219238
 10
199.5446271973
 20
102.4768686218
 10
199.5446271973
 20
102.405437439
 10
199.4732050781
 20
102.3340153198
 10
199.4017648315
 20
102.3340153198
 10
199.2589205933
 20
102.405437439
 10
199.1874803467
 20
102.4768686218
 10
199.1874803467
 20
102.5482998047
  0
LINE
  5
2D0
100
AcDbEntity
  8
ASSI
100
AcDbLine
 62
250
  6
CONTINUOUS
 10
187.2477141462
 20
79.6043078552
 11
187.3137981698
 21
79.4058945615
  0
LINE
  5
2D1
100
AcDbEntity
  8
ASSI
100
AcDbLine
 62
250
  6
CONTINUOUS
 10
188.0475923023
 20
80.403211483
 11
188.1131892103
 21
80.2062607248
  0
LWPOLYLINE
  5
2D2
100
AcDbEntity
  8
ASSI
100
AcDbPolyline
 62
250
  6
CONTINUOUS
 90
14
 70
0
 10
188.0475923023
 20
122.7648115433
 10
188.0473061527
 20
122.763758934
 10
188.0470208133
 20
122.7623243903
 10
188.0467362839
 20
122.7605079121
 10
188.0464524054
 20
122.7583080701
 10
188.0461693369
 20
122.7557262937
 10
188.0458875566
 20
122.7527668712
 10
188.0456070703
 20
122.7494291891
 10
188.045327872
 20
122.7457138609
 10
188.0450504229
 20
122.7416270155
 10
188.0447747259
 20
122.7371680408
 10
188.0445007779
 20
122.732337549
 10
188.0442290305
 20
122.7271435055
 10
188.0436921447
 20
122.7156635714
  0
LWPOLYLINE
  5
2D3
100
AcDbEntity
  8
0
100
AcDbPolyline
 62
7
  6
CONTINUOUS
 90
10
 70
0
 43
0.3500000006
 10
166.8014104614
 20
134.9086287231
 10
166.872850708
 20
134.7657844849
 10
166.872850708
 20
134.6943442383
 10
166.7299883423
 20
134.5515
 10
166.6585662231
 20
134.5515
 10
166.5871259766
 20
134.6229221191
 10
166.5871259766
 20
134.6943442383
 10
166.6585662231
 20
134.837206604
 10
166.7299883423
 20
134.9086287231
 10
166.8014104614
 20
134.9086287231
  0
LWPOLYLINE
  5
2D4
100
AcDbEntity
  8
ASSI
100
AcDbPolyline
 62
250
  6
CONTINUOUS
 90
9
 70
0
 10
187.2477141462
 20
123.5637151712
 10
187.2474279415
 20
123.5614625278
 10
187.2471425642
 20
123.5583874165
 10
187.2468580145
 20
123.5544915362
 10
187.2465741404
 20
123.5497770449
 10
187.2462910939
 20
123.5442465376
 10
187.2460093304
 20
123.5379030314
 10
187.245728846
 20
123.5307499927
 10
187.2451721948
 20
123.5140315452
  0
LWPOLYLINE
  5
2D5
100
AcDbEntity
  8
ASSI
100
AcDbPolyline
 62
250
  6
CONTINUOUS
 90
12
 70
0
 10
188.0445008185
 20
80.4356847332
 10
188.0447747665
 20
80.4308542996
 10
188.0450504635
 20
80.4263953832
 10
188.0453279128
 20
80.4223085967
 10
188.045607111
 20
80.4185933273
 10
188.0458875974
 20
80.4152557028
 10
188.0461693791
 20
80.4122963313
 10
188.0464524489
 20
80.4097146046
 10
188.0467363244
 20
80.4075148261
 10
188.0470208448
 20
80.4056984303
 10
188.0473061707
 20
80.4042639825
 10
188.0475923023
 20
80.403211483
  0
LWPOLYLINE
  5
2D6
100
AcDbEntity
  8
ASSI
100
AcDbPolyline
 62
250
  6
CONTINUOUS
 90
3
 70
0
 10
188.0436921849
 20
80.4523585343
 10
188.0439595277
 20
80.4464368505
 10
188.0445008185
 20
80.4356847332
  0
LWPOLYLINE
  5
2D7
100
AcDbEntity
  8
ASSI
100
AcDbPolyline
 62
250
  6
CONTINUOUS
 90
7
 70
0
 10
187.2460093336
 20
79.6301199897
 10
187.2462910976
 20
79.6237764838
 10
187.2465741451
 20
79.618245977
 10
187.2468580193
 20
79.6135314867
 10
187.2471425682
 20
79.6096356076
 10
187.2474279438
 20
79.6065604976
 10
187.2477141462
 20
79.6043078552
  0
LINE
  5
2D8
100
AcDbEntity
  8
ASSI
100
AcDbLine
 62
250
  6
CONTINUOUS
 10
187.2454496487
 20
79.6452316549
 11
187.2460093336
 21
79.6301199897
  0
LINE
  5
2D9
100
AcDbEntity
  8
ASSI
100
AcDbLine
 62
250
  6
CONTINUOUS
 10
187.2448965069
 20
79.6635476605
 11
187.2454496487
 21
79.6452316549
  0
LINE
  5
2DA
100
AcDbEntity
  8
ASSI
100
AcDbLine
 62
250
  6
CONTINUOUS
 10
187.2440812854
 20
79.6969397048
 11
187.2448965069
 21
79.6635476605
  0
LINE
  5
2DB
100
AcDbEntity
  8
ASSI
100
AcDbLine
 62
250
  6
CONTINUOUS
 10
187.2430277836
 20
79.752243501
 11
187.2440812854
 21
79.6969397048
  0
LINE
  5
2DC
100
AcDbEntity
  8
ASSI
100
AcDbLine
 62
250
  6
CONTINUOUS
 10
187.2415382661
 20
79.8572733496
 11
187.2430277836
 21
79.752243501
  0
LWPOLYLINE
  5
2DD
100
AcDbEntity
  8
ASSI
100
AcDbPolyline
 62
250
  6
CONTINUOUS
 90
3
 70
0
 10
187.2391768229
 20
80.1118972667
 10
187.2393684625
 20
80.0857537644
 10
187.2415382661
 20
79.8572733496
  0
LINE
  5
2DE
100
AcDbEntity
  8
ASSI
100
AcDbLine
 62
250
  6
CONTINUOUS
 10
187.2413023861
 20
123.2907891143
 11
187.2391768192
 21
123.0561257426
  0
LINE
  5
2DF
100
AcDbEntity
  8
ASSI
100
AcDbLine
 62
250
  6
CONTINUOUS
 10
187.2427714365
 20
123.4000776539
 11
187.2413023861
 21
123.2907891143
  0
LINE
  5
2E0
100
AcDbEntity
  8
ASSI
100
AcDbLine
 62
250
  6
CONTINUOUS
 10
187.2438139418
 20
123.4583985463
 11
187.2427714365
 21
123.4000776539
  0
LINE
  5
2E1
100
AcDbEntity
  8
ASSI
100
AcDbLine
 62
250
  6
CONTINUOUS
 10
187.2446225617
 20
123.4941280569
 11
187.2438139418
 21
123.4583985463
  0
LINE
  5
2E2
100
AcDbEntity
  8
ASSI
100
AcDbLine
 62
250
  6
CONTINUOUS
 10
187.2451721948
 20
123.5140315452
 11
187.2446225617
 21
123.4941280569
  0
LWPOLYLINE
  5
2E3
100
AcDbEntity
  8
ASSI
100
AcDbPolyline
 62
250
  6
CONTINUOUS
 90
7
 70
0
 10
166.0406051547
 20
122.1057676415
 10
166.0488912064
 20
122.1066608028
 10
166.0578054515
 20
122.1075437133
 10
166.067340356
 20
122.1084156261
 10
166.0774878614
 20
122.1092758048
 10
166.0882393914
 20
122.1101235225
 10
166.0995858592
 20
122.1109580622
  0
LINE
  5
2E4
100
AcDbEntity
  8
ASSI
100
AcDbLine
 62
250
  6
CONTINUOUS
 10
166.0995858592
 20
122.1109580622
 11
166.124024755
 21
122.1125847994
  0
LINE
  5
2E5
100
AcDbEntity
  8
ASSI
100
AcDbLine
 62
250
  6
CONTINUOUS
 10
166.124024755
 20
122.1125847994
 11
166.150721947
 21
122.1141505177
  0
LINE
  5
2E6
100
AcDbEntity
  8
ASSI
100
AcDbLine
 62
250
  6
CONTINUOUS
 10
166.150721947
 20
122.1141505177
 11
166.1795872006
 21
122.1156499258
  0
LINE
  5
2E7
100
AcDbEntity
  8
ASSI
100
AcDbLine
 62
250
  6
CONTINUOUS
 10
166.1795872006
 20
122.1156499258
 11
166.210522953
 21
122.1170779555
  0
LINE
  5
2E8
100
AcDbEntity
  8
ASSI
100
AcDbLine
 62
250
  6
CONTINUOUS
 10
166.210522953
 20
122.1170779555
 11
166.2434246434
 21
122.1184297796
  0
LINE
  5
2E9
100
AcDbEntity
  8
ASSI
100
AcDbLine
 62
250
  6
CONTINUOUS
 10
166.2434246434
 20
122.1184297796
 11
166.2962183261
 21
122.1203047112
  0
LINE
  5
2EA
100
AcDbEntity
  8
ASSI
100
AcDbLine
 62
250
  6
CONTINUOUS
 10
143.9466025242
 20
122.1201134131
 11
144.002835145
 21
122.1217977927
  0
LINE
  5
2EB
100
AcDbEntity
  8
ASSI
100
AcDbLine
 62
250
  6
CONTINUOUS
 10
166.2962183261
 20
122.1203047112
 11
166.352782341
 21
122.1219837114
  0
LINE
  5
2EC
100
AcDbEntity
  8
ASSI
100
AcDbLine
 62
250
  6
CONTINUOUS
 10
144.002835145
 20
122.1217977927
 11
144.062307416
 21
122.1232792394
  0
LINE
  5
2ED
100
AcDbEntity
  8
ASSI
100
AcDbLine
 62
250
  6
CONTINUOUS
 10
166.352782341
 20
122.1219837114
 11
166.4126866787
 21
122.1234540162
  0
LINE
  5
2EE
100
AcDbEntity
  8
ASSI
100
AcDbLine
 62
250
  6
CONTINUOUS
 10
166.4126866787
 20
122.1234540162
 11
166.4754759363
 21
122.1247044481
  0
LINE
  5
2EF
100
AcDbEntity
  8
ASSI
100
AcDbLine
 62
250
  6
CONTINUOUS
 10
144.062307416
 20
122.1232792394
 11
144.1458751261
 21
122.1249199988
  0
LINE
  5
2F0
100
AcDbEntity
  8
ASSI
100
AcDbLine
 62
250
  6
CONTINUOUS
 10
166.4754759363
 20
122.1247044481
 11
166.5628548693
 21
122.1260134864
  0
LINE
  5
2F1
100
AcDbEntity
  8
ASSI
100
AcDbLine
 62
250
  6
CONTINUOUS
 10
144.1458751261
 20
122.1249199988
 11
144.2333077283
 21
122.1261588713
  0
LINE
  5
2F2
100
AcDbEntity
  8
ASSI
100
AcDbLine
 62
250
  6
CONTINUOUS
 10
166.5628548693
 20
122.1260134864
 11
166.6533315032
 21
122.1268972577
  0
LINE
  5
2F3
100
AcDbEntity
  8
ASSI
100
AcDbLine
 62
250
  6
CONTINUOUS
 10
144.2333077283
 20
122.1261588713
 11
144.3234489251
 21
122.1269794728
  0
LINE
  5
2F4
100
AcDbEntity
  8
ASSI
100
AcDbLine
 62
250
  6
CONTINUOUS
 10
166.6533315032
 20
122.1268972577
 11
166.7456836015
 21
122.1273438234
  0
LINE
  5
2F5
100
AcDbEntity
  8
ASSI
100
AcDbLine
 62
250
  6
CONTINUOUS
 10
144.3234489251
 20
122.1269794728
 11
144.4151065975
 21
122.1273709508
  0
LINE
  5
2F6
100
AcDbEntity
  8
ASSI
100
AcDbLine
 62
250
  6
CONTINUOUS
 10
166.7456836015
 20
122.1273438234
 11
187.2361453876
 21
122.1274010376
  0
LINE
  5
2F7
100
AcDbEntity
  8
ASSI
100
AcDbLine
 62
250
  6
CONTINUOUS
 10
164.9517737784
 20
122.1272736026
 11
144.4151065975
 21
122.1273709508
  0
LINE
  5
2F8
100
AcDbEntity
  8
ASSI
100
AcDbLine
 62
250
  6
CONTINUOUS
 10
187.3279932098
 20
122.1271178731
 11
187.2361453876
 21
122.1274010376
  0
LINE
  5
2F9
100
AcDbEntity
  8
ASSI
100
AcDbLine
 62
250
  6
CONTINUOUS
 10
165.0437732995
 20
122.1267169366
 11
164.9517737784
 21
122.1272736026
  0
LINE
  5
2FA
100
AcDbEntity
  8
ASSI
100
AcDbLine
 62
250
  6
CONTINUOUS
 10
187.4186263429
 20
122.1264037549
 11
187.3279932098
 21
122.1271178731
  0
LINE
  5
2FB
100
AcDbEntity
  8
ASSI
100
AcDbLine
 62
250
  6
CONTINUOUS
 10
165.1335887313
 20
122.1257255011
 11
165.0437732995
 21
122.1267169366
  0
LINE
  5
2FC
100
AcDbEntity
  8
ASSI
100
AcDbLine
 62
250
  6
CONTINUOUS
 10
187.5068461623
 20
122.125268127
 11
187.4186263429
 21
122.1264037549
  0
LINE
  5
2FD
100
AcDbEntity
  8
ASSI
100
AcDbLine
 62
250
  6
CONTINUOUS
 10
165.2200068201
 20
122.12431269
 11
165.1335887313
 21
122.1257255011
  0
LINE
  5
2FE
100
AcDbEntity
  8
ASSI
100
AcDbLine
 62
250
  6
CONTINUOUS
 10
187.5914859594
 20
122.1237260082
 11
187.5068461623
 21
122.125268127
  0
LINE
  5
2FF
100
AcDbEntity
  8
ASSI
100
AcDbLine
 62
250
  6
CONTINUOUS
 10
165.2818864648
 20
122.1229878267
 11
165.2200068201
 21
122.12431269
  0
LINE
  5
300
100
AcDbEntity
  8
ASSI
100
AcDbLine
 62
250
  6
CONTINUOUS
 10
187.6519408488
 20
122.1223147332
 11
187.5914859594
 21
122.1237260082
  0
LINE
  5
301
100
AcDbEntity
  8
ASSI
100
AcDbLine
 62
250
  6
CONTINUOUS
 10
165.3407267772
 20
122.1214466347
 11
165.2818864648
 21
122.1229878267
  0
LWPOLYLINE
  5
302
100
AcDbEntity
  8
ASSI
100
AcDbPolyline
 62
250
  6
CONTINUOUS
 90
3
 70
0
 10
187.7276589923
 20
122.1201134134
 10
187.7093011122
 20
122.1206966777
 10
187.6519408488
 20
122.1223147332
  0
LINE
  5
303
100
AcDbEntity
  8
ASSI
100
AcDbLine
 62
250
  6
CONTINUOUS
 10
165.3960804433
 20
122.1197008301
 11
165.3407267772
 21
122.1214466347
  0
LINE
  5
304
100
AcDbEntity
  8
ASSI
100
AcDbLine
 62
250
  6
CONTINUOUS
 10
165.4308368664
 20
122.1184297797
 11
165.3960804433
 21
122.1197008301
  0
LINE
  5
305
100
AcDbEntity
  8
ASSI
100
AcDbLine
 62
250
  6
CONTINUOUS
 10
165.4637385571
 20
122.1170779556
 11
165.4308368664
 21
122.1184297797
  0
LINE
  5
306
100
AcDbEntity
  8
ASSI
100
AcDbLine
 62
250
  6
CONTINUOUS
 10
165.4946743097
 20
122.1156499258
 11
165.4637385571
 21
122.1170779556
  0
LINE
  5
307
100
AcDbEntity
  8
ASSI
100
AcDbLine
 62
250
  6
CONTINUOUS
 10
165.5235395634
 20
122.1141505177
 11
165.4946743097
 21
122.1156499258
  0
LINE
  5
308
100
AcDbEntity
  8
ASSI
100
AcDbLine
 62
250
  6
CONTINUOUS
 10
165.5502367557
 20
122.1125847995
 11
165.5235395634
 21
122.1141505177
  0
LWPOLYLINE
  5
309
100
AcDbEntity
  8
ASSI
100
AcDbPolyline
 62
250
  6
CONTINUOUS
 90
8
 70
0
 10
165.6336563573
 20
122.1057676416
 10
165.6253703054
 20
122.1066608029
 10
165.6164560601
 20
122.1075437134
 10
165.6069211555
 20
122.1084156262
 10
165.5967736499
 20
122.1092758049
 10
165.5860221198
 20
122.1101235226
 10
165.5746756519
 20
122.1109580623
 10
165.5502367557
 20
122.1125847995
  0
LINE
  5
30A
100
AcDbEntity
  8
ASSI
100
AcDbLine
 62
7
  6
CONTINUOUS
 10
188.0745225092
 20
98.0111574522
 11
188.1299187442
 21
97.4515576512
  0
LINE
  5
30B
100
AcDbEntity
  8
ASSI
100
AcDbLine
 62
250
  6
CONTINUOUS
 10
188.0431654261
 20
80.4652638833
 11
188.0436921849
 21
80.4523585343
  0
LINE
  5
30C
100
AcDbEntity
  8
ASSI
100
AcDbLine
 62
250
  6
CONTINUOUS
 10
188.0423963892
 20
80.4872422737
 11
188.0431654261
 21
80.4652638833
  0
LINE
  5
30D
100
AcDbEntity
  8
ASSI
100
AcDbLine
 62
250
  6
CONTINUOUS
 10
188.0416562236
 20
80.5122632153
 11
188.0423963892
 21
80.4872422737
  0
LINE
  5
30E
100
AcDbEntity
  8
ASSI
100
AcDbLine
 62
250
  6
CONTINUOUS
 10
188.0407204701
 20
80.5501449373
 11
188.0416562236
 21
80.5122632153
  0
LINE
  5
30F
100
AcDbEntity
  8
ASSI
100
AcDbLine
 62
250
  6
CONTINUOUS
 10
188.0396447471
 20
80.6042717827
 11
188.0407204701
 21
80.5501449373
  0
LWPOLYLINE
  5
310
100
AcDbEntity
  8
ASSI
100
AcDbPolyline
 62
250
  6
CONTINUOUS
 90
55
 70
0
 10
188.0475923023
 20
122.7648115433
 10
188.0472330704
 20
122.7880339327
 10
188.0461981521
 20
122.8112366965
 10
188.044488422
 20
122.8344002256
 10
188.0421053251
 20
122.8575049442
 10
188.0390508753
 20
122.8805313261
 10
188.035327654
 20
122.9034599114
 10
188.0309388078
 20
122.9262713227
 10
188.0258880458
 20
122.9489462817
 10
188.0201796364
 20
122.9714656255
 10
188.0138184039
 20
122.9938103226
 10
188.0068097242
 20
123.0159614891
 10
187.9991595206
 20
123.0379004047
 10
187.9908742583
 20
123.0596085286
 10
187.9819609394
 20
123.0810675147
 10
187.9724270966
 20
123.1022592278
 10
187.9622807871
 20
123.1231657584
 10
187.9515305858
 20
123.143769438
 10
187.9401855778
 20
123.1640528542
 10
187.928255351
 20
123.1839988651
 10
187.9157499878
 20
123.203590614
 10
187.9026800566
 20
123.2228115436
 10
187.8890566032
 20
123.24164541
 10
187.8748911408
 20
123.2600762964
 10
187.860195641
 20
123.2780886265
 10
187.8449825231
 20
123.2956671778
 10
187.8292646441
 20
123.3127970945
 10
187.8130552873
 20
123.3294638997
 10
187.7963681515
 20
123.345653508
 10
187.7792173393
 20
123.3613522373
 10
187.7616173452
 20
123.3765468205
 10
187.7435830431
 20
123.3912244163
 10
187.7251296742
 20
123.4053726204
 10
187.7062728336
 20
123.4189794759
 10
187.6870284577
 20
123.4320334835
 10
187.6674128101
 20
123.4445236111
 10
187.6474424684
 20
123.4564393029
 10
187.6271343098
 20
123.467770489
 10
187.606505497
 20
123.478507593
 10
187.5855734639
 20
123.4886415409
 10
187.5643559003
 20
123.4981637684
 10
187.5428707377
 20
123.507066228
 10
187.5211361335
 20
123.5153413961
 10
187.4991704559
 20
123.5229822793
 10
187.4769922684
 20
123.5299824201
 10
187.4546203143
 20
123.5363359026
 10
187.4320735005
 20
123.5420373573
 10
187.4093708816
 20
123.5470819659
 10
187.3865316439
 20
123.5514654651
 10
187.3635750893
 20
123.5551841503
 10
187.3405206188
 20
123.5582348788
 10
187.317387716
 20
123.5606150723
 10
187.2941959309
 20
123.5623227194
 10
187.2709648633
 20
123.5633563769
 10
187.2477141462
 20
123.5637151712
  0
LINE
  5
311
100
AcDbEntity
  8
ASSI
100
AcDbLine
 62
250
  6
CONTINUOUS
 10
188.0383396709
 20
80.6913626521
 11
188.0396447471
 21
80.6042717827
  0
LINE
  5
312
100
AcDbEntity
  8
ASSI
100
AcDbLine
 62
250
  6
CONTINUOUS
 10
188.0371756689
 20
80.8042600251
 11
188.0383396709
 21
80.6913626521
  0
LINE
  5
313
100
AcDbEntity
  8
ASSI
100
AcDbLine
 62
250
  6
CONTINUOUS
 10
188.0362696543
 20
80.9595959504
 11
188.0371756689
 21
80.8042600251
  0
LINE
  5
314
100
AcDbEntity
  8
ASSI
100
AcDbLine
 62
250
  6
CONTINUOUS
 10
187.2367649466
 20
80.6268571775
 11
187.2391768229
 21
80.1118972667
  0
LINE
  5
315
100
AcDbEntity
  8
ASSI
100
AcDbLine
 62
250
  6
CONTINUOUS
 10
187.2361453876
 20
81.0406219887
 11
187.2367649466
 21
80.6268571775
  0
LINE
  5
316
100
AcDbEntity
  8
ASSI
100
AcDbLine
 62
250
  6
CONTINUOUS
 10
188.0311049976
 20
89.7726990843
 11
188.0362696543
 21
80.9595959504
  0
LINE
  5
317
100
AcDbEntity
  8
ASSI
100
AcDbLine
 62
250
  6
CONTINUOUS
 10
187.2287942497
 20
100.9613094618
 11
187.2361453876
 21
81.0406219887
  0
LINE
  5
318
100
AcDbEntity
  8
ASSI
100
AcDbLine
 62
7
  6
CONTINUOUS
 10
188.0673104969
 20
98.5035613287
 11
188.0673104969
 21
104.6644616976
  0
LINE
  5
319
100
AcDbEntity
  8
ASSI
100
AcDbLine
 62
7
  6
CONTINUOUS
 10
188.1371307566
 20
109.0840115132
 11
188.1131892103
 21
122.9617623015
  0
LINE
  5
31A
100
AcDbEntity
  8
ASSI
100
AcDbLine
 62
7
  6
CONTINUOUS
 10
188.1371307566
 20
109.0840115132
 11
188.1371307566
 21
106.2088692516
  0
LINE
  5
31B
100
AcDbEntity
  8
ASSI
100
AcDbLine
 62
7
  6
CONTINUOUS
 10
188.1371307566
 20
96.9591537747
 11
188.1371307566
 21
94.0840115132
  0
LINE
  5
31C
100
AcDbEntity
  8
ASSI
100
AcDbLine
 62
250
  6
CONTINUOUS
 10
188.0288345852
 20
104.6925183725
 11
188.0311049976
 21
89.7726990843
  0
LINE
  5
31D
100
AcDbEntity
  8
ASSI
100
AcDbLine
 62
7
  6
CONTINUOUS
 10
188.1131892103
 20
80.2062607248
 11
188.1371307566
 21
94.0840115132
  0
LINE
  5
31E
100
AcDbEntity
  8
ASSI
100
AcDbLine
 62
250
  6
CONTINUOUS
 10
187.2378332741
 20
122.8286429468
 11
187.2287942497
 21
100.9613094618
  0
LINE
  5
31F
100
AcDbEntity
  8
ASSI
100
AcDbLine
 62
250
  6
CONTINUOUS
 10
188.0364742614
 20
122.2562431594
 11
188.0288345852
 21
104.6925183725
  0
LINE
  5
320
100
AcDbEntity
  8
ASSI
100
AcDbLine
 62
250
  6
CONTINUOUS
 10
187.2391768192
 20
123.0561257426
 11
187.2378332741
 21
122.8286429468
  0
LINE
  5
321
100
AcDbEntity
  8
ASSI
100
AcDbLine
 62
250
  6
CONTINUOUS
 10
188.0375686152
 20
122.407546732
 11
188.0364742614
 21
122.2562431594
  0
LINE
  5
322
100
AcDbEntity
  8
ASSI
100
AcDbLine
 62
250
  6
CONTINUOUS
 10
188.0388682525
 20
122.5154778257
 11
188.0375686152
 21
122.407546732
  0
LWPOLYLINE
  5
323
100
AcDbEntity
  8
ASSI
100
AcDbPolyline
 62
250
  6
CONTINUOUS
 90
55
 70
0
 10
188.0475923023
 20
80.403211483
 10
188.0472330704
 20
80.3799890934
 10
188.0461981521
 20
80.3567863294
 10
188.044488422
 20
80.3336228001
 10
188.042105325
 20
80.3105180813
 10
188.0390508752
 20
80.2874916992
 10
188.0353276538
 20
80.2645631138
 10
188.0309388076
 20
80.2417517024
 10
188.0258880455
 20
80.2190767432
 10
188.020179636
 20
80.1965573993
 10
188.0138184034
 20
80.1742127021
 10
188.0068097236
 20
80.1520615355
 10
187.9991595199
 20
80.1301226197
 10
187.9908742576
 20
80.1084144958
 10
187.9819609385
 20
80.0869555096
 10
187.9724270956
 20
80.0657637965
 10
187.9622807861
 20
80.0448572659
 10
187.9515305847
 20
80.0242535862
 10
187.9401855766
 20
80.00397017
 10
187.9282553497
 20
79.9840241591
 10
187.9157499864
 20
79.9644324102
 10
187.9026800552
 20
79.9452114806
 10
187.8890566016
 20
79.9263776142
 10
187.8748911392
 20
79.9079467279
 10
187.8601956393
 20
79.8899343978
 10
187.8449825214
 20
79.8723558465
 10
187.8292646423
 20
79.8552259299
 10
187.8130552854
 20
79.8385591248
 10
187.7963681496
 20
79.8223695166
 10
187.7792173374
 20
79.8066707873
 10
187.7616173433
 20
79.7914762042
 10
187.7435830412
 20
79.7767986085
 10
187.7251296722
 20
79.7626504045
 10
187.7062728317
 20
79.7490435491
 10
187.6870284558
 20
79.7359895415
 10
187.6674128083
 20
79.7234994141
 10
187.6474424666
 20
79.7115837223
 10
187.627134308
 20
79.7002525364
 10
187.6065054953
 20
79.6895154325
 10
187.5855734622
 20
79.6793814846
 10
187.5643558987
 20
79.6698592573
 10
187.5428707362
 20
79.6609567977
 10
187.521136132
 20
79.6526816297
 10
187.4991704545
 20
79.6450407466
 10
187.4769922672
 20
79.6380406058
 10
187.4546203132
 20
79.6316871234
 10
187.4320734995
 20
79.6259856687
 10
187.4093708807
 20
79.6209410602
 10
187.3865316431
 20
79.6165575611
 10
187.3635750887
 20
79.6128388759
 10
187.3405206182
 20
79.6097881475
 10
187.3173877156
 20
79.6074079539
 10
187.2941959306
 20
79.6057003069
 10
187.2709648632
 20
79.6046666494
 10
187.2477141462
 20
79.6043078552
  0
LINE
  5
324
100
AcDbEntity
  8
ASSI
100
AcDbLine
 62
250
  6
CONTINUOUS
 10
188.040061599
 20
122.5862620612
 11
188.0388682525
 21
122.5154778257
  0
LINE
  5
325
100
AcDbEntity
  8
ASSI
100
AcDbLine
 62
250
  6
CONTINUOUS
 10
188.0411805505
 20
122.6374464226
 11
188.040061599
 21
122.5862620612
  0
LINE
  5
326
100
AcDbEntity
  8
ASSI
100
AcDbLine
 62
250
  6
CONTINUOUS
 10
188.0421461456
 20
122.6727684174
 11
188.0411805505
 21
122.6374464226
  0
LINE
  5
327
100
AcDbEntity
  8
ASSI
100
AcDbLine
 62
250
  6
CONTINUOUS
 10
188.0429059704
 20
122.6957743802
 11
188.0421461456
 21
122.6727684174
  0
LWPOLYLINE
  5
328
100
AcDbEntity
  8
ASSI
100
AcDbPolyline
 62
250
  6
CONTINUOUS
 90
3
 70
0
 10
188.0436921447
 20
122.7156635714
 10
188.043427443
 20
122.709388031
 10
188.0429059704
 20
122.6957743802
  0
LINE
  5
329
100
AcDbEntity
  8
ASSI
100
AcDbLine
 62
7
  6
CONTINUOUS
 10
188.0745225092
 20
105.1568655741
 11
188.1299187442
 21
105.7164653751
  0
LINE
  5
32A
100
AcDbEntity
  8
ASSI
100
AcDbLine
 62
250
  6
CONTINUOUS
 10
143.7499929782
 20
122.1108030559
 11
143.7745930546
 21
122.112418632
  0
LINE
  5
32B
100
AcDbEntity
  8
ASSI
100
AcDbLine
 62
250
  6
CONTINUOUS
 10
143.7745930546
 20
122.112418632
 11
143.8013887234
 21
122.1139750202
  0
LINE
  5
32C
100
AcDbEntity
  8
ASSI
100
AcDbLine
 62
250
  6
CONTINUOUS
 10
143.8013887234
 20
122.1139750202
 11
143.8302913177
 21
122.1154670702
  0
LINE
  5
32D
100
AcDbEntity
  8
ASSI
100
AcDbLine
 62
250
  6
CONTINUOUS
 10
143.8302913177
 20
122.1154670702
 11
143.8612051993
 21
122.1168898451
  0
LINE
  5
32E
100
AcDbEntity
  8
ASSI
100
AcDbLine
 62
250
  6
CONTINUOUS
 10
143.8612051993
 20
122.1168898451
 11
143.8940280742
 21
122.1182386367
  0
LINE
  5
32F
100
AcDbEntity
  8
ASSI
100
AcDbLine
 62
250
  6
CONTINUOUS
 10
143.8940280742
 20
122.1182386367
 11
143.9466025242
 21
122.1201134131
  0
LINE
  5
330
100
AcDbEntity
  8
ASSI
100
AcDbLine
 62
250
  6
CONTINUOUS
 10
164.8826661668
 20
123.5637151712
 11
144.4265473669
 21
123.5637151712
  0
LINE
  5
331
100
AcDbEntity
  8
ASSI
100
AcDbLine
 62
250
  6
CONTINUOUS
 10
166.7915953464
 20
123.5637151712
 11
187.2477141462
 21
123.5637151712
  0
LINE
  5
332
100
AcDbEntity
  8
ASSI
100
AcDbLine
 62
7
  6
CONTINUOUS
 10
187.3137981698
 20
123.7621284649
 11
166.7882914799
 21
123.7621284649
  0
LINE
  5
333
100
AcDbEntity
  8
ASSI
100
AcDbLine
 62
7
  6
CONTINUOUS
 10
144.3604633433
 20
123.7621284649
 11
164.8859700333
 21
123.7621284649
  0
LINE
  5
334
100
AcDbEntity
  8
ASSI
100
AcDbLine
 62
250
  6
CONTINUOUS
 10
187.7802334425
 20
122.118238637
 11
187.7276589923
 21
122.1201134134
  0
LINE
  5
335
100
AcDbEntity
  8
ASSI
100
AcDbLine
 62
250
  6
CONTINUOUS
 10
187.8130563175
 20
122.1168898453
 11
187.7802334425
 21
122.118238637
  0
LINE
  5
336
100
AcDbEntity
  8
ASSI
100
AcDbLine
 62
250
  6
CONTINUOUS
 10
187.843970199
 20
122.1154670705
 11
187.8130563175
 21
122.1168898453
  0
LINE
  5
337
100
AcDbEntity
  8
ASSI
100
AcDbLine
 62
250
  6
CONTINUOUS
 10
187.8728727933
 20
122.1139750204
 11
187.843970199
 21
122.1154670705
  0
LINE
  5
338
100
AcDbEntity
  8
ASSI
100
AcDbLine
 62
250
  6
CONTINUOUS
 10
187.899668462
 20
122.1124186322
 11
187.8728727933
 21
122.1139750204
  0
LWPOLYLINE
  5
339
100
AcDbEntity
  8
0
100
AcDbPolyline
 62
7
  6
CONTINUOUS
 90
3
 70
0
 43
0.3500000006
 10
199.0446361084
 20
105.1197226868
 10
199.0446361084
 20
103.619722229
 10
196.6874886475
 20
104.2625847473
  0
LWPOLYLINE
  5
33A
100
AcDbEntity
  8
0
100
AcDbPolyline
 62
7
  6
CONTINUOUS
 90
3
 70
0
 43
0.3500000006
 10
199.0446361084
 20
101.0482993469
 10
199.0446361084
 20
99.5482988892
 10
196.6874886475
 20
100.1911523438
  0
LWPOLYLINE
  5
33B
100
AcDbEntity
  8
0
100
AcDbPolyline
 62
7
  6
CONTINUOUS
 90
3
 70
0
 43
0.3500000006
 10
199.0446361084
 20
98.691151886
 10
199.0446361084
 20
97.1911514282
 10
196.6874886475
 20
97.8340139465
  0
LWPOLYLINE
  5
33C
100
AcDbEntity
  8
ASSI
100
AcDbPolyline
 62
250
  6
CONTINUOUS
 90
19
 70
0
 10
188.0360235437
 20
81.073491412
 10
188.0352913937
 20
81.0725458806
 10
188.033898015
 20
81.0716011315
 10
188.0318445606
 20
81.0706579465
 10
188.0291327295
 20
81.069717106
 10
188.0257647656
 20
81.0687793884
 10
188.0217434556
 20
81.0678455696
 10
188.0170721268
 20
81.0669164223
 10
188.0117546443
 20
81.0659927152
 10
188.005795408
 20
81.0650752128
 10
187.9991993486
 20
81.064164674
 10
187.9919719237
 20
81.0632618524
 10
187.9841191136
 20
81.0623674949
 10
187.9756474158
 20
81.0614823416
 10
187.96656384
 20
81.0606071248
 10
187.956875902
 20
81.0597425686
 10
187.9465916178
 20
81.0588893886
 10
187.9357194969
 20
81.0580482905
 10
187.924268535
 20
81.0572199704
  0
LWPOLYLINE
  5
33D
100
AcDbEntity
  8
0
100
AcDbPolyline
 62
7
  6
CONTINUOUS
 90
3
 70
0
 43
0.3500000006
 10
165.3014190674
 20
135.0514910889
 10
163.8014095459
 20
135.0514910889
 10
164.4442811279
 20
137.4086385498
  0
LWPOLYLINE
  5
33E
100
AcDbEntity
  8
0
100
AcDbPolyline
 62
7
  6
CONTINUOUS
 90
3
 70
0
 43
0.3500000006
 10
162.9442716064
 20
135.0514910889
 10
161.4442802124
 20
135.0514910889
 10
162.087133667
 20
137.4086385498
  0
LWPOLYLINE
  5
33F
100
AcDbEntity
  8
ASSI
100
AcDbPolyline
 62
250
  6
CONTINUOUS
 90
20
 70
0
 10
188.0360235437
 20
122.0945316144
 10
188.0352913939
 20
122.0954771458
 10
188.0338980155
 20
122.0964218948
 10
188.0318445614
 20
122.0973650798
 10
188.0291327306
 20
122.0983059204
 10
188.025764767
 20
122.099243638
 10
188.0217434572
 20
122.1001774568
 10
188.0170721286
 20
122.1011066041
 10
188.0117546463
 20
122.1020303111
 10
188.0057954102
 20
122.1029478136
 10
187.9991993509
 20
122.1038583524
 10
187.9919719263
 20
122.104761174
 10
187.9841191163
 20
122.1056555315
 10
187.9756474186
 20
122.1065406849
 10
187.9665638429
 20
122.1074159017
 10
187.956875905
 20
122.1082804578
 10
187.9465916209
 20
122.1091336379
 10
187.9357195001
 20
122.1099747359
 10
187.9242685383
 20
122.1108030561
 10
187.899668462
 20
122.1124186322
  0
LINE
  5
340
100
AcDbEntity
  8
ASSI
100
AcDbLine
 62
7
  6
CONTINUOUS
 10
108.4273095968
 20
79.6043078552
 11
112.2132607746
 21
79.4058945615
  0
LINE
  5
341
100
AcDbEntity
  8
ASSI
100
AcDbLine
 62
250
  6
CONTINUOUS
 10
108.4552164366
 20
80.403211483
 11
112.2132607746
 21
80.2062607248
  0
LWPOLYLINE
  5
342
100
AcDbEntity
  8
ASSI
100
AcDbPolyline
 62
250
  6
CONTINUOUS
 90
3
 70
0
 10
107.0084012944
 20
81.0407093336
 10
107.0074101811
 20
81.0406520755
 10
107.007080171
 20
81.0406219892
  0
LINE
  5
343
100
AcDbEntity
  8
ASSI
100
AcDbLine
 62
250
  6
CONTINUOUS
 10
107.0337124355
 20
81.041864155
 11
107.010052691
 21
81.0407937163
  0
LINE
  5
344
100
AcDbEntity
  8
ASSI
100
AcDbLine
 62
250
  6
CONTINUOUS
 10
107.7924426987
 20
81.073491412
 11
107.0337124355
 21
81.041864155
  0
LWPOLYLINE
  5
345
100
AcDbEntity
  8
ASSI
100
AcDbPolyline
 62
250
  6
CONTINUOUS
 90
64
 70
0
 10
107.7924426987
 20
81.073491412
 10
107.7933105847
 20
81.0570877723
 10
107.7945608743
 20
81.040726227
 10
107.7961935676
 20
81.0244067761
 10
107.79820999
 20
81.0081202772
 10
107.8006088161
 20
80.9918758727
 10
107.8033860695
 20
80.9757009902
 10
107.8065423671
 20
80.9595959504
 10
107.8100770921
 20
80.9435604327
 10
107.8139844175
 20
80.9276209026
 10
107.8182649574
 20
80.9117775319
 10
107.8229180978
 20
80.8960301488
 10
107.8279361702
 20
80.8804047038
 10
107.8333197729
 20
80.8649014036
 10
107.8390683077
 20
80.8495200415
 10
107.8451723115
 20
80.8342859475
 10
107.8516323755
 20
80.8191993522
 10
107.8584479086
 20
80.8042600251
 10
107.8656076748
 20
80.7894926039
 10
107.8731122392
 20
80.7748973783
 10
107.8809610368
 20
80.7604740586
 10
107.8891411362
 20
80.7462464137
 10
107.8976530852
 20
80.7322147635
 10
107.906496336
 20
80.718378788
 10
107.9156563134
 20
80.704761296
 10
107.9251335362
 20
80.6913626521
 10
107.9349274857
 20
80.6781824916
 10
107.9450220302
 20
80.6652425292
 10
107.9554176706
 20
80.6525431544
 10
107.9661139061
 20
80.6400839777
 10
107.9770931022
 20
80.6278855451
 10
107.988355721
 20
80.6159482918
 10
107.9999013005
 20
80.6042717827
 10
108.0117108202
 20
80.592875258
 10
108.0237847208
 20
80.5817591746
 10
108.0361225616
 20
80.5709230757
 10
108.0487040004
 20
80.5603848311
 10
108.0615294323
 20
80.5501449373
 10
108.074598462
 20
80.5402028978
 10
108.0878895618
 20
80.5305750928
 10
108.1014031029
 20
80.5212620368
 10
108.1151387141
 20
80.5122632153
 10
108.1290737534
 20
80.5035934662
 10
108.1432085477
 20
80.4952533338
 10
108.1575427702
 20
80.4872422737
 10
108.1720527988
 20
80.4795734914
 10
108.18673893
 20
80.4722475485
 10
108.2016008673
 20
80.4652638833
 10
108.2166140982
 20
80.4586340157
 10
108.2317788607
 20
80.4523585343
 10
108.2470949167
 20
80.4464368505
 10
108.2625370403
 20
80.4408787181
 10
108.2781054446
 20
80.4356847332
 10
108.2937999165
 20
80.4308542996
 10
108.3095945901
 20
80.4263953832
 10
108.3254896446
 20
80.4223085967
 10
108.3414849008
 20
80.4185933273
 10
108.3575539545
 20
80.4152557028
 10
108.3736972183
 20
80.4122963313
 10
108.3899142796
 20
80.4097146046
 10
108.4061774963
 20
80.4075148261
 10
108.4224776544
 20
80.4056984303
 10
108.4388239678
 20
80.4042639825
 10
108.4552164366
 20
80.403211483
  0
LWPOLYLINE
  5
346
100
AcDbEntity
  8
ASSI
100
AcDbPolyline
 62
250
  6
CONTINUOUS
 90
34
 70
0
 10
107.7924426987
 20
122.0945316144
 10
107.7429017588
 20
120.8520945708
 10
107.6964561547
 20
119.6095533893
 10
107.6531058863
 20
118.3669080699
 10
107.6128507228
 20
117.1241508933
 10
107.575690895
 20
115.8812895786
 10
107.5416270954
 20
114.6383472841
 10
107.510659382
 20
113.395324017
 10
107.4827876967
 20
112.1522197699
 10
107.4580125581
 20
110.9090576783
 10
107.4363340238
 20
109.6658377418
 10
107.4177520362
 20
108.4225599609
 10
107.4022669409
 20
107.1792474725
 10
107.3898787955
 20
105.9359002762
 10
107.3805875424
 20
104.6925183725
 10
107.3743933545
 20
103.4491248994
 10
107.3712962893
 20
102.2057198567
 10
107.3712962892
 20
100.9623032447
 10
107.3743933542
 20
99.718898202
 10
107.380587542
 20
98.4755047289
 10
107.3898787948
 20
97.2321228251
 10
107.40226694
 20
95.9887756289
 10
107.4177520352
 20
94.7454631404
 10
107.4363340226
 20
93.5021853595
 10
107.4580125567
 20
92.2589654229
 10
107.4827876951
 20
91.0158033314
 10
107.5106593802
 20
89.7726990843
 10
107.5416270935
 20
88.5296758171
 10
107.5756908928
 20
87.2867335253
 10
107.6128507202
 20
86.0438722134
 10
107.6531058838
 20
84.8011150312
 10
107.6964561527
 20
83.5584696952
 10
107.7429017577
 20
82.3159284887
 10
107.7924426987
 20
81.073491412
  0
LINE
  5
347
100
AcDbEntity
  8
ASSI
100
AcDbLine
 62
7
  6
CONTINUOUS
 10
109.9980469559
 20
98.0111574522
 11
113.1716951336
 21
97.4515576512
  0
LINE
  5
348
100
AcDbEntity
  8
ASSI
100
AcDbLine
 62
250
  6
CONTINUOUS
 10
108.4255124103
 20
123.478507593
 11
108.4252179978
 21
123.4981637684
  0
LWPOLYLINE
  5
349
100
AcDbEntity
  8
ASSI
100
AcDbPolyline
 62
250
  6
CONTINUOUS
 90
14
 70
0
 10
108.4252179978
 20
123.4981637684
 10
108.4250721603
 20
123.5153413961
 10
108.4250551309
 20
123.5229822793
 10
108.4250753908
 20
123.5299824201
 10
108.4251329228
 20
123.5363359026
 10
108.4252276783
 20
123.5420373573
 10
108.4253595773
 20
123.5470819659
 10
108.4255285082
 20
123.5514654651
 10
108.4257343283
 20
123.5551841503
 10
108.4259768637
 20
123.5582348788
 10
108.4262559094
 20
123.5606150723
 10
108.4265712295
 20
123.5623227194
 10
108.4269225576
 20
123.5633563769
 10
108.4273095968
 20
123.5637151712
  0
LWPOLYLINE
  5
34A
100
AcDbEntity
  8
ASSI
100
AcDbPolyline
 62
250
  6
CONTINUOUS
 90
12
 70
0
 10
108.4250551309
 20
79.6450407466
 10
108.4250753908
 20
79.6380406058
 10
108.4251329228
 20
79.6316871234
 10
108.4252276783
 20
79.6259856687
 10
108.4253595773
 20
79.6209410602
 10
108.4255285082
 20
79.6165575611
 10
108.4257343283
 20
79.6128388759
 10
108.4259768637
 20
79.6097881475
 10
108.4262559094
 20
79.6074079539
 10
108.4265712295
 20
79.6057003069
 10
108.4269225576
 20
79.6046666494
 10
108.4273095968
 20
79.6043078552
  0
LINE
  5
34B
100
AcDbEntity
  8
ASSI
100
AcDbLine
 62
250
  6
CONTINUOUS
 10
108.4251264646
 20
79.6609567977
 11
108.4250551309
 21
79.6450407466
  0
LWPOLYLINE
  5
34C
100
AcDbEntity
  8
ASSI
100
AcDbPolyline
 62
250
  6
CONTINUOUS
 90
3
 70
0
 10
108.4255124104
 20
79.6895154325
 10
108.4253466827
 20
79.6793814846
 10
108.4251264646
 20
79.6609567977
  0
LINE
  5
34D
100
AcDbEntity
  8
ASSI
100
AcDbLine
 62
7
  6
CONTINUOUS
 10
111.4852516445
 20
99.0840115132
 11
109.5848710448
 21
99.0840115132
  0
LINE
  5
34E
100
AcDbEntity
  8
ASSI
100
AcDbLine
 62
250
  6
CONTINUOUS
 10
108.4552164366
 20
122.7648115433
 11
108.4448646449
 21
122.9714656255
  0
LINE
  5
34F
100
AcDbEntity
  8
ASSI
100
AcDbLine
 62
250
  6
CONTINUOUS
 10
108.4448646449
 20
122.9714656255
 11
108.4370328583
 21
123.143769438
  0
LINE
  5
350
100
AcDbEntity
  8
ASSI
100
AcDbLine
 62
250
  6
CONTINUOUS
 10
108.4370328583
 20
123.143769438
 11
108.4322752207
 21
123.2600762964
  0
LINE
  5
351
100
AcDbEntity
  8
ASSI
100
AcDbLine
 62
250
  6
CONTINUOUS
 10
108.4322752207
 20
123.2600762964
 11
108.4291609329
 21
123.345653508
  0
LINE
  5
352
100
AcDbEntity
  8
ASSI
100
AcDbLine
 62
250
  6
CONTINUOUS
 10
108.4291609329
 20
123.345653508
 11
108.4272746591
 21
123.4053726204
  0
LINE
  5
353
100
AcDbEntity
  8
ASSI
100
AcDbLine
 62
250
  6
CONTINUOUS
 10
108.4272746591
 20
123.4053726204
 11
108.4262302942
 21
123.4445236111
  0
LINE
  5
354
100
AcDbEntity
  8
ASSI
100
AcDbLine
 62
250
  6
CONTINUOUS
 10
108.4262302942
 20
123.4445236111
 11
108.4255124103
 21
123.478507593
  0
LINE
  5
355
100
AcDbEntity
  8
ASSI
100
AcDbLine
 62
7
  6
CONTINUOUS
 10
109.5848710448
 20
98.5035613287
 11
109.5848710448
 21
104.6644616976
  0
LINE
  5
356
100
AcDbEntity
  8
ASSI
100
AcDbLine
 62
250
  6
CONTINUOUS
 10
108.4262302943
 20
79.7234994141
 11
108.4255124104
 21
79.6895154325
  0
LINE
  5
357
100
AcDbEntity
  8
ASSI
100
AcDbLine
 62
250
  6
CONTINUOUS
 10
108.4272746591
 20
79.7626504045
 11
108.4262302943
 21
79.7234994141
  0
LINE
  5
358
100
AcDbEntity
  8
ASSI
100
AcDbLine
 62
250
  6
CONTINUOUS
 10
108.4291609329
 20
79.8223695166
 11
108.4272746591
 21
79.7626504045
  0
LINE
  5
359
100
AcDbEntity
  8
ASSI
100
AcDbLine
 62
250
  6
CONTINUOUS
 10
108.4322752206
 20
79.9079467279
 11
108.4291609329
 21
79.8223695166
  0
LINE
  5
35A
100
AcDbEntity
  8
ASSI
100
AcDbLine
 62
250
  6
CONTINUOUS
 10
108.4379250059
 20
80.0448572659
 11
108.4322752206
 21
79.9079467279
  0
LINE
  5
35B
100
AcDbEntity
  8
ASSI
100
AcDbLine
 62
250
  6
CONTINUOUS
 10
108.445945193
 20
80.2190767432
 11
108.4379250059
 21
80.0448572659
  0
LINE
  5
35C
100
AcDbEntity
  8
ASSI
100
AcDbLine
 62
250
  6
CONTINUOUS
 10
108.4552164366
 20
80.403211483
 11
108.445945193
 21
80.2190767432
  0
LINE
  5
35D
100
AcDbEntity
  8
ASSI
100
AcDbLine
 62
7
  6
CONTINUOUS
 10
111.6849167362
 20
100.5340115132
 11
111.3631040431
 21
100.5340115132
  0
LINE
  5
35E
100
AcDbEntity
  8
ASSI
100
AcDbLine
 62
7
  6
CONTINUOUS
 10
111.6849167362
 20
102.6340115132
 11
111.3631040431
 21
102.6340115132
  0
LINE
  5
35F
100
AcDbEntity
  8
ASSI
100
AcDbLine
 62
7
  6
CONTINUOUS
 10
111.9848710448
 20
99.5842403652
 11
111.9848710448
 21
100.2340572046
  0
LINE
  5
360
100
AcDbEntity
  8
ASSI
100
AcDbLine
 62
7
  6
CONTINUOUS
 10
111.9848710448
 20
102.9339658217
 11
111.9848710448
 21
103.5837826611
  0
LINE
  5
361
100
AcDbEntity
  8
ASSI
100
AcDbLine
 62
7
  6
CONTINUOUS
 10
112.2132607746
 20
79.4058945615
 11
112.2132607746
 21
81.0340115132
  0
LINE
  5
362
100
AcDbEntity
  8
ASSI
100
AcDbLine
 62
7
  6
CONTINUOUS
 10
112.2132607746
 20
122.1340115132
 11
112.2132607746
 21
123.7621284649
  0
LINE
  5
363
100
AcDbEntity
  8
ASSI
100
AcDbLine
 62
7
  6
CONTINUOUS
 10
111.4852516445
 20
104.0840115132
 11
109.5848710448
 21
104.0840115132
  0
LINE
  5
364
100
AcDbEntity
  8
ASSI
100
AcDbLine
 62
7
  6
CONTINUOUS
 10
113.5848710448
 20
109.0840115132
 11
112.2132607746
 21
122.1340115132
  0
LINE
  5
365
100
AcDbEntity
  8
ASSI
100
AcDbLine
 62
7
  6
CONTINUOUS
 10
113.5848710448
 20
109.0840115132
 11
113.5848710448
 21
106.2088692516
  0
LINE
  5
366
100
AcDbEntity
  8
ASSI
100
AcDbLine
 62
7
  6
CONTINUOUS
 10
113.5848710448
 20
96.9591537747
 11
113.5848710448
 21
94.0840115132
  0
LINE
  5
367
100
AcDbEntity
  8
ASSI
100
AcDbLine
 62
7
  6
CONTINUOUS
 10
112.2132607746
 20
81.0340115132
 11
113.5848710448
 21
94.0840115132
  0
LINE
  5
368
100
AcDbEntity
  8
ASSI
100
AcDbLine
 62
7
  6
CONTINUOUS
 10
109.9980469559
 20
105.1568655741
 11
113.1716951336
 21
105.7164653751
  0
LWPOLYLINE
  5
369
100
AcDbEntity
  8
0
100
AcDbPolyline
 62
7
  6
CONTINUOUS
 90
4
 70
0
 43
0.3500000006
 10
118.2448561707
 20
134.2806216431
 10
118.2448561707
 20
134.9234750977
 10
119.7448566284
 20
134.9234750977
 10
118.8877096252
 20
131.9234741821
  0
LWPOLYLINE
  5
36A
100
AcDbEntity
  8
ASSI
100
AcDbPolyline
 62
250
  6
CONTINUOUS
 90
64
 70
0
 10
108.4552164366
 20
122.7648115433
 10
108.4388229379
 20
122.763758934
 10
108.422475851
 20
122.7623243903
 10
108.4061751759
 20
122.7605079121
 10
108.3899117835
 20
122.7583080701
 10
108.373694803
 20
122.7557262937
 10
108.3575516215
 20
122.7527668712
 10
108.3414825672
 20
122.7494291891
 10
108.3254873119
 20
122.7457138609
 10
108.3095922593
 20
122.7416270155
 10
108.293797588
 20
122.7371680408
 10
108.2781031193
 20
122.732337549
 10
108.2625347199
 20
122.7271435055
 10
108.2470926036
 20
122.7215853143
 10
108.2317765566
 20
122.7156635714
 10
108.2166118046
 20
122.709388031
 10
108.2015985853
 20
122.7027581044
 10
108.186736661
 20
122.6957743802
 10
108.1720505441
 20
122.6884483782
 10
108.1575405313
 20
122.6807795367
 10
108.1432063257
 20
122.6727684174
 10
108.1290715499
 20
122.6644282258
 10
108.1151365305
 20
122.6557584177
 10
108.1014009407
 20
122.6467595372
 10
108.0878874226
 20
122.6374464226
 10
108.0745963473
 20
122.6278185592
 10
108.0615273437
 20
122.6178764616
 10
108.048701941
 20
122.6076365115
 10
108.0361205348
 20
122.5970982126
 10
108.0237827296
 20
122.5862620612
 10
108.0117088676
 20
122.575145928
 10
107.9998993898
 20
122.5637493562
 10
107.9883538553
 20
122.5520728026
 10
107.9770912841
 20
122.540135508
 10
107.9661121383
 20
122.5279370374
 10
107.9554159557
 20
122.5154778257
 10
107.9450203699
 20
122.502778419
 10
107.9349258821
 20
122.4898384281
 10
107.925131991
 20
122.4766582422
 10
107.915654827
 20
122.4632595745
 10
107.9064949084
 20
122.4496420602
 10
107.8976517168
 20
122.4358060641
 10
107.8891398271
 20
122.4217743947
 10
107.8809597871
 20
122.407546732
 10
107.8731110489
 20
122.3931233961
 10
107.8656065438
 20
122.3785281555
 10
107.8584468369
 20
122.3637607206
 10
107.851631363
 20
122.3488213812
 10
107.8451713582
 20
122.333734775
 10
107.8390674135
 20
122.3185006714
 10
107.8333189378
 20
122.303119301
 10
107.827935394
 20
122.2876159943
 10
107.8229173801
 20
122.271990545
 10
107.8182642981
 20
122.2562431594
 10
107.8139838166
 20
122.2403997871
 10
107.8100765499
 20
122.2244602559
 10
107.8065418838
 20
122.2084247379
 10
107.8033856437
 20
122.1923196994
 10
107.8006084422
 20
122.1761447351
 10
107.7982096667
 20
122.1599002503
 10
107.7961933058
 20
122.1436139276
 10
107.7945606889
 20
122.1272949945
 10
107.7933104866
 20
122.1109342234
 10
107.7924426987
 20
122.0945316144
  0
LINE
  5
36B
100
AcDbEntity
  8
ASSI
100
AcDbLine
 62
250
  6
CONTINUOUS
 10
112.2132607746
 20
122.9617623015
 11
108.4552164366
 21
122.7648115433
  0
LINE
  5
36C
100
AcDbEntity
  8
ASSI
100
AcDbLine
 62
7
  6
CONTINUOUS
 10
112.2132607746
 20
123.7621284649
 11
108.4273095968
 21
123.5637151712
  0
LWPOLYLINE
  5
36D
100
AcDbEntity
  8
ASSI
100
AcDbPolyline
 62
250
  6
CONTINUOUS
 90
3
 70
0
 10
107.7924426987
 20
122.0945316144
 10
107.0123629919
 20
122.1271178731
 10
107.0100526786
 20
122.1272293105
  0
LWPOLYLINE
  5
36E
100
AcDbEntity
  8
ASSI
100
AcDbPolyline
 62
250
  6
CONTINUOUS
 90
3
 70
0
 10
107.008401282
 20
122.1273136932
 10
107.0074101686
 20
122.1273709513
 10
107.0070801585
 20
122.1274010376
  0
ARC
  5
36F
100
AcDbEntity
  8
ASSI
100
AcDbCircle
 62
7
  6
CONTINUOUS
 10
606.5848710448
 20
101.5840115132
 40
499.9999999552
100
AcDbArc
 50
177.6452381281
 51
182.3547618719
  0
ARC
  5
370
100
AcDbEntity
  8
ASSI
100
AcDbCircle
 62
7
  6
CONTINUOUS
 10
108.5058135311
 20
81.1022521573
 40
1.5
100
AcDbArc
 50
182.3547618719
 51
267.0
  0
ARC
  5
371
100
AcDbEntity
  8
ASSI
100
AcDbCircle
 62
7
  6
CONTINUOUS
 10
108.5058135311
 20
122.065770869
 40
1.5
100
AcDbArc
 50
93.0
 51
177.6452381281
  0
ARC
  5
372
100
AcDbEntity
  8
ASSI
100
AcDbCircle
 62
7
  6
CONTINUOUS
 10
110.6848710448
 20
101.5840115132
 40
1.25
100
AcDbArc
 50
208.3493892876
 51
302.8598803789
  0
ARC
  5
373
100
AcDbEntity
  8
ASSI
100
AcDbCircle
 62
7
  6
CONTINUOUS
 10
110.6848710448
 20
101.5840115132
 40
1.25
100
AcDbArc
 50
57.1401196211
 51
151.6506107124
  0
ARC
  5
374
100
AcDbEntity
  8
ASSI
100
AcDbCircle
 62
7
  6
CONTINUOUS
 10
113.0848710448
 20
96.9591537747
 40
0.5
100
AcDbArc
 50
0.0
 51
80.0
  0
ARC
  5
375
100
AcDbEntity
  8
ASSI
100
AcDbCircle
 62
7
  6
CONTINUOUS
 10
113.0848710448
 20
106.2088692516
 40
0.5
100
AcDbArc
 50
280.0
 51
360.0
  0
ARC
  5
376
100
AcDbEntity
  8
ASSI
100
AcDbCircle
 62
7
  6
CONTINUOUS
 10
110.0848710448
 20
98.5035613287
 40
0.5
100
AcDbArc
 50
180.0
 51
260.0
  0
ARC
  5
377
100
AcDbEntity
  8
ASSI
100
AcDbCircle
 62
7
  6
CONTINUOUS
 10
110.0848710448
 20
104.6644616976
 40
0.5
100
AcDbArc
 50
100.0
 51
180.0
  0
ELLIPSE
  5
378
100
AcDbEntity
  8
ASSI
100
AcDbEllipse
 62
7
  6
CONTINUOUS
 10
188.1284032241
 20
96.9591537747
 30
0.0
 11
-0.0
 21
0.5
 31
0.0
 40
0.0174550649
 41
-1.5707963268
 42
-0.1745329252
  0
ELLIPSE
  5
379
100
AcDbEntity
  8
ASSI
100
AcDbEllipse
 62
7
  6
CONTINUOUS
 10
188.1284032241
 20
106.2088692516
 30
0.0
 11
-0.0
 21
0.5
 31
0.0
 40
0.0174550649
 41
-2.9670597284
 42
-1.5707963268
  0
ELLIPSE
  5
37A
100
AcDbEntity
  8
ASSI
100
AcDbEllipse
 62
7
  6
CONTINUOUS
 10
188.0760380293
 20
104.6644616976
 30
0.0
 11
0.0
 21
0.5
 31
0.0
 40
0.0174550649
 41
0.1745329252
 42
1.5707963268
  0
ELLIPSE
  5
37B
100
AcDbEntity
  8
ASSI
100
AcDbEllipse
 62
7
  6
CONTINUOUS
 10
188.0760380293
 20
98.5035613287
 30
0.0
 11
0.0
 21
0.5
 31
0.0
 40
0.0174550649
 41
-4.7123889804
 42
-3.3161255788
  0
ELLIPSE
  5
37C
100
AcDbEntity
  8
ASSI
100
AcDbEllipse
 62
7
  6
CONTINUOUS
 10
166.7883280173
 20
122.9610305881
 30
0.0
 11
-0.0133375872
 21
0.8009871437
 31
0.0
 40
0.9986291555
 41
-0.0166270783
 42
1.5541235768
  0
ELLIPSE
  5
37D
100
AcDbEntity
  8
ASSI
100
AcDbEllipse
 62
7
  6
CONTINUOUS
 10
166.7883280173
 20
80.2069924383
 30
0.0
 11
0.0133375872
 21
0.8009871437
 31
0.0
 40
0.9986291555
 41
-4.6957162304
 42
-3.1249655753
  0
ELLIPSE
  5
37E
100
AcDbEntity
  8
ASSI
100
AcDbEllipse
 62
7
  6
CONTINUOUS
 10
187.3130673478
 20
122.9610305881
 30
0.0
 11
0.2531825638
 21
0.7601653717
 31
0.0
 40
0.9984778551
 41
-1.2488325878
 42
0.3210503505
  0
ELLIPSE
  5
37F
100
AcDbEntity
  8
ASSI
100
AcDbEllipse
 62
7
  6
CONTINUOUS
 10
187.3130673478
 20
80.2069924383
 30
0.0
 11
-0.2531825638
 21
0.7601653717
 31
0.0
 40
0.9984778551
 41
-3.4626430041
 42
-1.8927600658
  0
ELLIPSE
  5
380
100
AcDbEntity
  8
ASSI
100
AcDbEllipse
 62
7
  6
CONTINUOUS
 10
143.545858289
 20
106.2088692516
 30
0.0
 11
0.0
 21
0.5
 31
0.0
 40
0.0174550649
 41
1.5707963268
 42
2.9670597284
  0
ELLIPSE
  5
381
100
AcDbEntity
  8
ASSI
100
AcDbEllipse
 62
7
  6
CONTINUOUS
 10
143.545858289
 20
96.9591537747
 30
0.0
 11
-0.0
 21
0.5
 31
0.0
 40
0.0174550649
 41
0.1745329252
 42
1.5707963268
  0
ELLIPSE
  5
382
100
AcDbEntity
  8
ASSI
100
AcDbEllipse
 62
7
  6
CONTINUOUS
 10
143.5982234838
 20
98.5035613287
 30
0.0
 11
0.0
 21
0.5
 31
0.0
 40
0.0174550649
 41
-2.9670597284
 42
-1.5707963268
  0
ELLIPSE
  5
383
100
AcDbEntity
  8
ASSI
100
AcDbEllipse
 62
7
  6
CONTINUOUS
 10
143.5982234838
 20
104.6644616976
 30
0.0
 11
0.0
 21
0.5
 31
0.0
 40
0.0174550649
 41
-1.5707963268
 42
-0.1745329252
  0
ELLIPSE
  5
384
100
AcDbEntity
  8
ASSI
100
AcDbEllipse
 62
7
  6
CONTINUOUS
 10
164.8859334959
 20
80.2069924383
 30
0.0
 11
-0.0133375872
 21
0.8009871437
 31
0.0
 40
0.9986291555
 41
-3.1582197319
 42
-1.5874690768
  0
ELLIPSE
  5
385
100
AcDbEntity
  8
ASSI
100
AcDbEllipse
 62
7
  6
CONTINUOUS
 10
164.8859334959
 20
122.9610305881
 30
0.0
 11
0.0133375872
 21
0.8009871437
 31
0.0
 40
0.9986291555
 41
-1.5541235768
 42
0.0166270783
  0
ELLIPSE
  5
386
100
AcDbEntity
  8
ASSI
100
AcDbEllipse
 62
7
  6
CONTINUOUS
 10
144.3611941653
 20
80.2069924383
 30
0.0
 11
0.2531825638
 21
0.7601653717
 31
0.0
 40
0.9984778551
 41
-4.3904252414
 42
-2.8205423031
  0
ELLIPSE
  5
387
100
AcDbEntity
  8
ASSI
100
AcDbEllipse
 62
7
  6
CONTINUOUS
 10
144.3611941653
 20
122.9610305881
 30
0.0
 11
-0.2531825638
 21
0.7601653717
 31
0.0
 40
0.9984778551
 41
-0.3210503505
 42
1.2488325878
  0
ELLIPSE
  5
388
100
AcDbEntity
  8
ASSI
100
AcDbEllipse
 62
7
  6
CONTINUOUS
 10
111.6848253464
 20
100.2339658147
 30
0.0
 11
0.2121966568
 21
0.2121966568
 31
0.0
 40
0.9996954599
 41
-0.7852458701
 42
0.7852458701
  0
ELLIPSE
  5
389
100
AcDbEntity
  8
ASSI
100
AcDbEllipse
 62
7
  6
CONTINUOUS
 10
111.4847948807
 20
99.5846976862
 30
0.0
 11
0.1582391023
 21
-0.4751033573
 31
0.0
 40
0.9984778551
 41
-0.3210503505
 42
1.2488325878
  0
ELLIPSE
  5
38A
100
AcDbEntity
  8
ASSI
100
AcDbEllipse
 62
7
  6
CONTINUOUS
 10
111.4847948807
 20
103.5833253402
 30
0.0
 11
-0.1582391023
 21
-0.4751033573
 31
0.0
 40
0.9984778551
 41
1.8927600658
 42
3.4626430041
  0
ELLIPSE
  5
38B
100
AcDbEntity
  8
ASSI
100
AcDbEllipse
 62
7
  6
CONTINUOUS
 10
111.6848253464
 20
102.9340572116
 30
0.0
 11
-0.2121966568
 21
0.2121966568
 31
0.0
 40
0.9996954599
 41
2.3563467834
 42
3.9268385237
  0
ENDSEC
  0
SECTION
  2
OBJECTS
  0
DICTIONARY
  5
C
100
AcDbDictionary
280
0
281
1
  3
ACAD_GROUP
350
D
  3
ACAD_MLINESTYLE
350
17
  3
ACAD_LAYOUT
350
1A
  3
ACAD_PLOTSETTINGS
350
19
  3
ACAD_PLOTSTYLENAME
350
E
  0
DICTIONARY
  5
D
102
{ACAD_REACTORS
330
C
102
}
100
AcDbDictionary
280
0
281
1
  0
ACDBDICTIONARYWDFLT
  5
E
102
{ACAD_REACTORS
330
C
102
}
100
AcDbDictionary
281
1
  3
Normal
350
F
100
AcDbDictionaryWithDefault
340
F
  0
DICTIONARY
  5
17
102
{ACAD_REACTORS
330
C
102
}
100
AcDbDictionary
280
0
281
1
  3
Standard
350
18
  0
DICTIONARY
  5
19
102
{ACAD_REACTORS
330
C
102
}
100
AcDbDictionary
281
1
  0
DICTIONARY
  5
1A
102
{ACAD_REACTORS
330
C
102
}
100
AcDbDictionary
281
1
  3
Model
350
38C
  3
Layout1
350
38D
  0
ACDBPLACEHOLDER
  5
F
102
{ACAD_REACTORS
330
E
102
}
  0
MLINESTYLE
  5
18
102
{ACAD_REACTORS
330
17
102
}
100
AcDbMlineStyle
  2
STANDARD
 70
0
  3

 62
256
 51
90.0
 52
90.0
 71
2
 49
0.5
 62
256
  6
BYLAYER
 49
-0.5
 62
256
  6
BYLAYER
  0
LAYOUT
  5
38C
102
{ACAD_REACTORS
330
1A
102
}
100
AcDbPlotSettings
  1

  2
none_device
  4
ISO_A4_(297.00_x_210.00_MM)
  6

 40
0.0
 41
0.0
 42
0.0
 43
0.0
 44
297.0
 45
210.0
 46
0.0
 47
0.0
 48
0.0
 49
0.0
140
0.0
141
0.0
142
1.0
143
1.0
 70
1024
 72
1
 73
0
 74
0
  7

 75
0
147
1.0
148
0.0
149
0.0
100
AcDbLayout
  1
Model
 70
0
 71
0
 10
0.0
 20
0.0
 11
297.0
 21
210.0
 12
0.0
 22
0.0
 32
0.0
 14
0.0
 24
0.0
 34
0.0
 15
0.0
 25
0.0
 35
0.0
146
0.0
 13
0.0
 23
0.0
 33
0.0
 16
1.0
 26
0.0
 36
0.0
 17
0.0
 27
1.0
 37
0.0
 76
0
330
215
345
0
346
0
  0
LAYOUT
  5
38D
102
{ACAD_REACTORS
330
1A
102
}
100
AcDbPlotSettings
  1

  2
none_device
  4
ISO_A4_(297.00_x_210.00_MM)
  6

 40
0.0
 41
0.0
 42
0.0
 43
0.0
 44
297.0
 45
210.0
 46
0.0
 47
0.0
 48
0.0
 49
0.0
140
0.0
141
0.0
142
1.0
143
1.0
 70
0
 72
1
 73
0
 74
0
  7

 75
0
147
1.0
148
0.0
149
0.0
100
AcDbLayout
  1
Layout1
 70
0
 71
1
 10
0.0
 20
0.0
 11
297.0
 21
210.0
 12
0.0
 22
0.0
 32
0.0
 14
0.0
 24
0.0
 34
0.0
 15
0.0
 25
0.0
 35
0.0
146
0.0
 13
0.0
 23
0.0
 33
0.0
 16
1.0
 26
0.0
 36
0.0
 17
0.0
 27
1.0
 37
0.0
 76
0
330
216
345
0
346
0
  0
ENDSEC
  0
EOF
