0
SECTION
2
HEADER
9
$ACADVER
1
AC1015
9
$DWGCODEPAGE
3
ANSI_1252
9
$EXTMAX
10
297.0000000000
20
210.0000000000
30
0.0000000000
9
$EXTMIN
10
0.0000000000
20
0.0000000000
30
0.0000000000
9
$LIMMIN
10
0.0000000000
20
0.0000000000
9
$LIMMAX
10
297.0000000000
20
210.0000000000
9
$VIEWCTR
10
148.5000000000
20
105.0000000000
9
$VIEWSIZE
40
210.0000000000
9
$CLAYER
8
0
9
$LTSCALE
40
16.3350000000
9
$CELTYPE
6
BYLAYER
9
$DIMSCALE
40
1
9
$DIMASZ
40
3.0000000000
9
$DIMEXO
40
1.8562500000
9
$DIMDLI
40
11.2860000000
9
$DIMEXE
40
5.3460000000
9
$DIMCEN
40
2.6730000000
9
$DIMLFAC
40
1.0000000000
9
$DIMBLK
1
_FILLED
9
$DIMTXT
40
3.0000000000
9
$DIMTOL
70
1
9
$DIMLIM
70
0
9
$DIMTFAC
40
1.0000000000
9
$DIMTP
40
0.0100000000
9
$DIMTM
40
0.0100000000
9
$PDMODE
70
3
9
$PDSIZE
40
3.0000000000
9
$HANDSEED
5
33A
9
$MEASUREMENT
70
1
9
$INSUNITS
70
4
0
ENDSEC
0
SECTION
2
CLASSES
0
CLASS
1
ACDBDICTIONARYWDFLT
2
AcDbDictionaryWithDefault
3
AutoCAD 2000
90
0
280
0
281
0
0
CLASS
1
ACDBPLACEHOLDER
2
AcDbPlaceHolder
3
AutoCAD 2000
90
0
280
0
281
0
0
CLASS
1
LAYOUT
2
AcDbLayout
3
AutoCAD 2000
90
0
280
0
281
0
0
ENDSEC
0
SECTION
2
TABLES
0
TABLE
2
VPORT
5
8
100
AcDbSymbolTable
70
2
0
VPORT
5
1F4
100
AcDbSymbolTableRecord
100
AcDbViewportTableRecord
2
*ACTIVE
70
0
10
0.0
20
0.0
11
1.0
21
1.0
12
148.5000000000
22
105.0000000000
13
0.0
23
0.0
14
1.0
24
1.0
15
0.0
25
0.0
16
0.0
26
0.0
36
1.0
17
0.0
27
0.0
37
0.0
40
210.0000000000
41
1.4142857143
42
50.0
43
0.0
44
0.0
50
0.0
51
0.0
71
0
72
100
73
1
74
1
75
0
76
0
77
0
78
0
0
ENDTAB
0
TABLE
2
LTYPE
5
5
100
AcDbSymbolTable
70
6
0
LTYPE
5
14
100
AcDbSymbolTableRecord
100
AcDbLinetypeTableRecord
2
BYBLOCK
70
0
3

72
65
73
0
40
0.0
0
LTYPE
5
15
100
AcDbSymbolTableRecord
100
AcDbLinetypeTableRecord
2
BYLAYER
70
0
3

72
65
73
0
40
0.0
0
LTYPE
5
16
100
AcDbSymbolTableRecord
100
AcDbLinetypeTableRecord
2
CONTINUOUS
70
64
3
Solid line
72
65
73
0
40
0
0
LTYPE
5
1F5
100
AcDbSymbolTableRecord
100
AcDbLinetypeTableRecord
2
CENTER
70
64
3
____ _ ____ _ ____ _ ____ _ ____ _ ____ _ ____
72
65
73
4
40
0.6
49
0.375
74
0
49
-0.075
74
0
49
0.075
74
0
49
-0.075
74
0
0
LTYPE
5
1F6
100
AcDbSymbolTableRecord
100
AcDbLinetypeTableRecord
2
HIDDEN
70
64
3
- - - - - - - - - - - - - - - - - - - -
72
65
73
2
40
0.2
49
0.1
74
0
49
-0.1
74
0
0
LTYPE
5
1F7
100
AcDbSymbolTableRecord
100
AcDbLinetypeTableRecord
2
PHANTOM
70
64
3
_____ _ _ _____ _ _ _____ _ _ _____
72
65
73
6
40
0.8
49
0.45
74
0
49
-0.05
74
0
49
0.1
74
0
49
-0.05
74
0
49
0.1
74
0
49
-0.05
74
0
0
LTYPE
5
1F8
100
AcDbSymbolTableRecord
100
AcDbLinetypeTableRecord
2
DOT
70
64
3
. . . . . . . . . . . . . . . . . . . .
72
65
73
2
40
0.2
49
0.1
74
0
49
-0.1
74
0
0
LTYPE
5
1F9
100
AcDbSymbolTableRecord
100
AcDbLinetypeTableRecord
2
DASHED
70
64
3
- - - - - - - - - - - - - - - - - - - -
72
65
73
2
40
0.2
49
0.1
74
0
49
-0.1
74
0
0
ENDTAB
0
TABLE
2
LAYER
5
2
100
AcDbSymbolTable
70
36
0
LAYER
5
10
100
AcDbSymbolTableRecord
100
AcDbLayerTableRecord
2
0
70
0
62
7
6
CONTINUOUS
370
-3
390
F
0
LAYER
5
1FA
100
AcDbSymbolTableRecord
100
AcDbLayerTableRecord
2
DEFAULT_1
70
0
62
7
6
CENTER
370
-3
390
F
0
LAYER
5
1FB
100
AcDbSymbolTableRecord
100
AcDbLayerTableRecord
2
DEFAULT_2
70
0
62
8
6
HIDDEN
370
-3
390
F
0
LAYER
5
1FC
100
AcDbSymbolTableRecord
100
AcDbLayerTableRecord
2
DEFAULT_3
70
0
62
7
6
PHANTOM
370
-3
390
F
0
LAYER
5
1FD
100
AcDbSymbolTableRecord
100
AcDbLayerTableRecord
2
_2D_DELETED_OBJS
70
0
62
7
6
CONTINUOUS
370
-3
390
F
0
LAYER
5
1FE
100
AcDbSymbolTableRecord
100
AcDbLayerTableRecord
2
_BLACK_HOLE
70
0
62
7
6
CONTINUOUS
370
-3
390
F
0
LAYER
5
1FF
100
AcDbSymbolTableRecord
100
AcDbLayerTableRecord
2
ASSI
70
0
62
7
6
CONTINUOUS
370
-3
390
F
0
LAYER
5
200
100
AcDbSymbolTableRecord
100
AcDbLayerTableRecord
2
COORDINATE
70
0
62
7
6
CONTINUOUS
370
-3
390
F
0
LAYER
5
201
100
AcDbSymbolTableRecord
100
AcDbLayerTableRecord
2
COPY_PUBLISH
70
0
62
7
6
CONTINUOUS
370
-3
390
F
0
LAYER
5
202
100
AcDbSymbolTableRecord
100
AcDbLayerTableRecord
2
COSMETIC
70
0
62
7
6
CONTINUOUS
370
-3
390
F
0
LAYER
5
203
100
AcDbSymbolTableRecord
100
AcDbLayerTableRecord
2
CURVE
70
0
62
7
6
CONTINUOUS
370
-3
390
F
0
LAYER
5
204
100
AcDbSymbolTableRecord
100
AcDbLayerTableRecord
2
DRAFT
70
0
62
7
6
CONTINUOUS
370
-3
390
F
0
LAYER
5
205
100
AcDbSymbolTableRecord
100
AcDbLayerTableRecord
2
IMPORT_IGES
70
0
62
7
6
CONTINUOUS
370
-3
390
F
0
LAYER
5
206
100
AcDbSymbolTableRecord
100
AcDbLayerTableRecord
2
PIANI
70
0
62
7
6
CONTINUOUS
370
-3
390
F
0
LAYER
5
207
100
AcDbSymbolTableRecord
100
AcDbLayerTableRecord
2
PUNTI
70
0
62
7
6
CONTINUOUS
370
-3
390
F
0
LAYER
5
208
100
AcDbSymbolTableRecord
100
AcDbLayerTableRecord
2
RACCORDO
70
0
62
7
6
CONTINUOUS
370
-3
390
F
0
LAYER
5
209
100
AcDbSymbolTableRecord
100
AcDbLayerTableRecord
2
SNAPLINE
70
0
62
7
6
CONTINUOUS
370
-3
390
F
0
LAYER
5
20A
100
AcDbSymbolTableRecord
100
AcDbLayerTableRecord
2
SUPERFICI
70
0
62
7
6
CONTINUOUS
370
-3
390
F
0
LAYER
5
20B
100
AcDbSymbolTableRecord
100
AcDbLayerTableRecord
2
TRASH
70
0
62
7
6
CONTINUOUS
370
-3
390
F
0
LAYER
5
20C
100
AcDbSymbolTableRecord
100
AcDbLayerTableRecord
2
XSEC_DATUMS
70
0
62
7
6
CONTINUOUS
370
-3
390
F
0
ENDTAB
0
TABLE
2
STYLE
5
3
100
AcDbSymbolTable
70
1
0
STYLE
5
11
100
AcDbSymbolTableRecord
100
AcDbTextStyleTableRecord
2
STANDARD
70
0
40
0.0
41
0.8000000000
50
0.0
71
0
42
0.2
3
txt
4

0
ENDTAB
0
TABLE
2
VIEW
5
6
100
AcDbSymbolTable
70
0
0
ENDTAB
0
TABLE
2
UCS
5
7
100
AcDbSymbolTable
70
0
0
ENDTAB
0
TABLE
2
APPID
5
9
100
AcDbSymbolTable
70
1
0
APPID
5
20D
100
AcDbSymbolTableRecord
100
AcDbRegAppTableRecord
2
ACAD
70
0
0
ENDTAB
0
TABLE
2
BLOCK_RECORD
5
1
100
AcDbSymbolTable
70
0
0
BLOCK_RECORD
5
1F
100
AcDbSymbolTableRecord
100
AcDbBlockTableRecord
2
*MODEL_SPACE
0
BLOCK_RECORD
5
1B
100
AcDbSymbolTableRecord
100
AcDbBlockTableRecord
2
*PAPER_SPACE
0
BLOCK_RECORD
5
20E
100
AcDbSymbolTableRecord
100
AcDbBlockTableRecord
2
_FILLED
0
BLOCK_RECORD
5
20F
100
AcDbSymbolTableRecord
100
AcDbBlockTableRecord
2
*D0
0
BLOCK_RECORD
5
210
100
AcDbSymbolTableRecord
100
AcDbBlockTableRecord
2
*D1
0
BLOCK_RECORD
5
211
100
AcDbSymbolTableRecord
100
AcDbBlockTableRecord
2
*D2
0
ENDTAB
0
TABLE
2
DIMSTYLE
5
A
100
AcDbSymbolTable
70
1
100
AcDbDimStyleTable
71
0
0
DIMSTYLE
105
212
100
AcDbSymbolTableRecord
100
AcDbDimStyleTableRecord
2
STANDARD
70
0
3

4

40
1.0
41
3.0000000000
42
0.0625
43
0.38
44
0.18
45
0.0
46
0.0
47
0.0100000000
48
0.0100000000
140
3.0000000000
141
0.09
142
0.0
143
25.4
144
1.0000000000
145
0.0
146
1.0000000000
147
0.09
71
1
72
0
73
0
74
0
75
0
76
0
77
1
78
8
170
0
171
2
172
0
173
0
174
0
175
0
176
0
177
0
178
0
270
2
271
2
272
2
273
2
274
2
275
0
280
0
281
0
282
0
283
1
284
8
285
0
286
0
287
3
288
0
340
11
341
20E
342
20E
343
20E
344
20E
0
DIMSTYLE
105
213
100
AcDbSymbolTableRecord
100
AcDbDimStyleTableRecord
2
DIMSTYLE_1
70
0
3

4

40
1.0
41
3.0000000000
42
0.0625
43
0.38
44
0.18
45
0.0
46
0.0
47
0.0000000000
48
0.0000000000
140
3.0000000000
141
0.09
142
0.0
143
25.4
144
1.0000000000
145
0.0
146
1.0000000000
147
0.09
71
0
72
0
73
0
74
0
75
0
76
0
77
1
78
8
170
0
171
2
172
0
173
0
174
0
175
0
176
0
177
0
178
0
270
2
271
2
272
2
273
2
274
2
275
0
280
0
281
0
282
0
283
1
284
8
285
0
286
0
287
3
288
0
340
11
341
20E
342
20E
343
20E
344
20E
0
DIMSTYLE
105
214
100
AcDbSymbolTableRecord
100
AcDbDimStyleTableRecord
2
DIMSTYLE_2
70
0
3

4

40
1.0
41
3.0000000000
42
0.0625
43
0.38
44
0.18
45
0.0
46
0.0
47
0.0000000000
48
0.0000000000
140
3.0000000000
141
0.09
142
0.0
143
25.4
144
1.0000000000
145
0.0
146
1.0000000000
147
0.09
71
0
72
0
73
0
74
0
75
0
76
0
77
1
78
8
170
0
171
2
172
0
173
0
174
0
175
0
176
0
177
0
178
0
270
2
271
0
272
0
273
2
274
2
275
0
280
0
281
0
282
0
283
1
284
8
285
0
286
0
287
3
288
0
340
11
341
20E
342
20E
343
20E
344
20E
0
DIMSTYLE
105
215
100
AcDbSymbolTableRecord
100
AcDbDimStyleTableRecord
2
DIMSTYLE_3
70
0
3

4

40
1.0
41
3.0000000000
42
0.0625
43
0.38
44
0.18
45
0.0
46
0.0
47
0.0000000000
48
0.0000000000
140
3.0000000000
141
0.09
142
0.0
143
25.4
144
1.0000000000
145
0.0
146
1.0000000000
147
0.09
71
0
72
0
73
0
74
0
75
0
76
0
77
1
78
8
170
0
171
2
172
0
173
0
174
0
175
0
176
0
177
0
178
0
270
2
271
1
272
1
273
2
274
2
275
0
280
0
281
0
282
0
283
1
284
8
285
0
286
0
287
3
288
0
340
11
341
20E
342
20E
343
20E
344
20E
0
ENDTAB
0
ENDSEC
0
SECTION
2
BLOCKS
0
BLOCK
5
20
100
AcDbEntity
8
0
100
AcDbBlockBegin
2
*MODEL_SPACE
70
0
10
0.0
20
0.0
30
0.0
3
*MODEL_SPACE
1

0
ENDBLK
5
21
100
AcDbEntity
8
0
100
AcDbBlockEnd
0
BLOCK
5
1C
100
AcDbEntity
8
0
100
AcDbBlockBegin
2
*PAPER_SPACE
70
0
10
0.0
20
0.0
30
0.0
3
*PAPER_SPACE
1

0
ENDBLK
5
1D
100
AcDbEntity
8
0
100
AcDbBlockEnd
0
BLOCK
5
216
100
AcDbEntity
8
0
100
AcDbBlockBegin
62
2
6
CONTINUOUS
2
*D0
70
65
10
0.0000000000
20
0.0000000000
3
*D0
1

0
TEXT
5
217
100
AcDbEntity
8
0
100
AcDbText
62
2
6
CONTINUOUS
10
47.2372984610
20
-2.3571428571
7
STANDARD
40
3.0000000000
1
80
50
90.0000000000
41
0.7857142857
72
0
100
AcDbText
0
LINE
5
218
100
AcDbEntity
8
0
100
AcDbLine
62
2
6
CONTINUOUS
10
0.5000000000
20
40.0000000000
11
49.4872984610
21
40.0000000000
0
LINE
5
219
100
AcDbEntity
8
0
100
AcDbLine
62
2
6
CONTINUOUS
10
0.5000000000
20
-40.0000000000
11
49.4872984610
21
-40.0000000000
0
LINE
5
21A
100
AcDbEntity
8
0
100
AcDbLine
62
2
6
CONTINUOUS
10
47.9872984610
20
40.0000000000
11
47.9872984610
21
-0.0000000000
0
LINE
5
21B
100
AcDbEntity
8
0
100
AcDbLine
62
2
6
CONTINUOUS
10
47.9872984610
20
-40.0000000000
11
47.9872984610
21
-0.0000000000
0
INSERT
5
21C
100
AcDbEntity
8
0
100
AcDbBlockReference
62
2
6
CONTINUOUS
2
_FILLED
10
47.9872984610
20
40.0000000000
41
  3.000000
42
  3.000000
43
  3.000000
50
 90.000000
0
INSERT
5
21D
100
AcDbEntity
8
0
100
AcDbBlockReference
62
2
6
CONTINUOUS
2
_FILLED
10
47.9872984610
20
-40.0000000000
41
  3.000000
42
  3.000000
43
  3.000000
50
270.000000
0
ENDBLK
5
21E
100
AcDbEntity
8
0
6
BYBLOCK
62
0
100
AcDbBlockEnd
0
BLOCK
5
21F
100
AcDbEntity
8
0
100
AcDbBlockBegin
62
2
6
CONTINUOUS
2
*D1
70
65
10
0.0000000000
20
0.0000000000
3
*D1
1

0
TEXT
5
220
100
AcDbEntity
8
0
100
AcDbText
62
2
6
CONTINUOUS
10
-2.3571428571
20
48.6261705519
7
STANDARD
40
3.0000000000
1
80
41
0.7857142857
72
0
100
AcDbText
0
LINE
5
221
100
AcDbEntity
8
0
100
AcDbLine
62
2
6
CONTINUOUS
10
39.8951844414
20
0.5000000000
11
39.8951844414
21
49.3761705519
0
LINE
5
222
100
AcDbEntity
8
0
100
AcDbLine
62
2
6
CONTINUOUS
10
-39.8951844414
20
0.5000000000
11
-39.8951844414
21
49.3761705519
0
LINE
5
223
100
AcDbEntity
8
0
100
AcDbLine
62
2
6
CONTINUOUS
10
39.8951844414
20
47.8761705519
11
-0.0000000000
21
47.8761705519
0
LINE
5
224
100
AcDbEntity
8
0
100
AcDbLine
62
2
6
CONTINUOUS
10
-39.8951844414
20
47.8761705519
11
-0.0000000000
21
47.8761705519
0
INSERT
5
225
100
AcDbEntity
8
0
100
AcDbBlockReference
62
2
6
CONTINUOUS
2
_FILLED
10
39.8951844414
20
47.8761705519
41
  3.000000
42
  3.000000
43
  3.000000
0
INSERT
5
226
100
AcDbEntity
8
0
100
AcDbBlockReference
62
2
6
CONTINUOUS
2
_FILLED
10
-39.8951844414
20
47.8761705519
41
  3.000000
42
  3.000000
43
  3.000000
50
180.000000
0
ENDBLK
5
227
100
AcDbEntity
8
0
6
BYBLOCK
62
0
100
AcDbBlockEnd
0
BLOCK
5
228
100
AcDbEntity
8
0
100
AcDbBlockBegin
62
2
6
CONTINUOUS
2
*D2
70
65
10
0.0000000000
20
0.0000000000
3
*D2
1

0
TEXT
5
229
100
AcDbEntity
8
0
100
AcDbText
62
2
6
CONTINUOUS
10
-68.5929067406
20
48.6261705519
7
STANDARD
40
3.0000000000
1
8,7
41
0.7142857143
72
0
100
AcDbText
0
LINE
5
22A
100
AcDbEntity
8
0
100
AcDbLine
62
2
6
CONTINUOUS
10
-61.0230203656
20
37.0460807167
11
-61.0230203656
21
49.3761705519
0
LINE
5
22B
100
AcDbEntity
8
0
100
AcDbLine
62
2
6
CONTINUOUS
10
-69.7342216871
20
0.5000141674
11
-69.7342216871
21
49.3761705519
0
LINE
5
22C
100
AcDbEntity
8
0
100
AcDbLine
62
2
6
CONTINUOUS
10
-61.0230203656
20
47.8761705519
11
-57.0230203656
21
47.8761705519
0
LINE
5
22D
100
AcDbEntity
8
0
100
AcDbLine
62
2
6
CONTINUOUS
10
-57.0230203656
20
47.8761705519
11
-65.3786210263
21
47.8761705519
0
LINE
5
22E
100
AcDbEntity
8
0
100
AcDbLine
62
2
6
CONTINUOUS
10
-69.7342216871
20
47.8761705519
11
-73.7342216871
21
47.8761705519
0
LINE
5
22F
100
AcDbEntity
8
0
100
AcDbLine
62
2
6
CONTINUOUS
10
-73.7342216871
20
47.8761705519
11
-65.3786210263
21
47.8761705519
0
INSERT
5
230
100
AcDbEntity
8
0
100
AcDbBlockReference
62
2
6
CONTINUOUS
2
_FILLED
10
-61.0230203656
20
47.8761705519
41
  3.000000
42
  3.000000
43
  3.000000
50
180.000000
0
INSERT
5
231
100
AcDbEntity
8
0
100
AcDbBlockReference
62
2
6
CONTINUOUS
2
_FILLED
10
-69.7342216871
20
47.8761705519
41
  3.000000
42
  3.000000
43
  3.000000
0
ENDBLK
5
232
100
AcDbEntity
8
0
6
BYBLOCK
62
0
100
AcDbBlockEnd
0
BLOCK
5
233
100
AcDbEntity
8
0
100
AcDbBlockBegin
2
_FILLED
70
64
10
0.0000000000
20
0.0000000000
3
_FILLED
1

0
SOLID
5
234
100
AcDbEntity
8
0
6
BYBLOCK
62
0
100
AcDbTrace
10
0.0000000000
20
0.0000000000
11
-1.0000000000
21
0.1333333333
12
-1.0000000000
22
-0.1333333333
13
-1.0000000000
23
-0.1333333333
0
ENDBLK
5
235
100
AcDbEntity
8
0
6
BYBLOCK
62
0
100
AcDbBlockEnd
0
ENDSEC
0
SECTION
2
ENTITIES
0
DIMENSION
5
236
100
AcDbEntity
8
0
100
AcDbDimension
62
2
6
CONTINUOUS
2
*D0
10
47.9872984610
20
-40.0000000000
11
45.7372984610
21
-0.0000000000
70
160
3
DIMSTYLE_1
100
AcDbAlignedDimension
13
0.5000000000
23
40.0000000000
14
0.5000000000
24
-40.0000000000
50
270.000000
100
AcDbRotatedDimension
0
DIMENSION
5
237
100
AcDbEntity
8
0
100
AcDbDimension
62
2
6
CONTINUOUS
2
*D1
10
-39.8951844414
20
47.8761705519
11
-0.0000000000
21
50.1261705519
70
160
3
DIMSTYLE_2
100
AcDbAlignedDimension
13
39.8951844414
23
0.5000000000
14
-39.8951844414
24
0.5000000000
50
180.000000
100
AcDbRotatedDimension
0
DIMENSION
5
238
100
AcDbEntity
8
0
100
AcDbDimension
62
2
6
CONTINUOUS
2
*D2
10
-69.7342216871
20
47.8761705519
11
-65.3786210263
21
50.1261705519
70
160
3
DIMSTYLE_3
100
AcDbAlignedDimension
13
-61.0230203656
23
37.0460807167
14
-69.7342216871
24
0.5000141674
50
180.000000
100
AcDbRotatedDimension
0
LINE
5
239
100
AcDbEntity
8
0
100
AcDbLine
62
9
6
CONTINUOUS
10
-22.5295211694
20
22.9891295155
11
-22.5201227985
21
22.2201684900
0
LINE
5
23A
100
AcDbEntity
8
0
100
AcDbLine
62
9
6
CONTINUOUS
10
-23.0520601079
20
-24.4731444180
11
-23.0520607698
21
24.4731457010
0
LINE
5
23B
100
AcDbEntity
8
0
100
AcDbLine
62
7
6
CONTINUOUS
10
-22.5000000000
20
22.2000456915
11
-22.5000000000
21
-22.2000456915
0
LINE
5
23C
100
AcDbEntity
8
0
100
AcDbLine
62
9
6
CONTINUOUS
10
-22.5295211685
20
-22.9891294478
11
-22.5201227985
21
-22.2201684900
0
LINE
5
23D
100
AcDbEntity
8
0
100
AcDbLine
62
7
6
CONTINUOUS
10
-3.3283480000
20
-24.4383990000
11
-2.9813480000
21
-24.4383990000
0
LINE
5
23E
100
AcDbEntity
8
0
100
AcDbLine
62
7
6
CONTINUOUS
10
-2.1203480000
20
-24.4383990000
11
-1.7583480000
21
-24.4383990000
0
LINE
5
23F
100
AcDbEntity
8
0
100
AcDbLine
62
7
6
CONTINUOUS
10
-1.4413480000
20
-24.4383990000
11
-1.0783480000
21
-24.4383990000
0
LINE
5
240
100
AcDbEntity
8
0
100
AcDbLine
62
7
6
CONTINUOUS
10
-0.7313480000
20
-24.4383990000
11
-0.3683480000
21
-24.4383990000
0
LINE
5
241
100
AcDbEntity
8
0
100
AcDbLine
62
7
6
CONTINUOUS
10
-0.0213480000
20
-24.4383990000
11
0.3406520000
21
-24.4383990000
0
LINE
5
242
100
AcDbEntity
8
0
100
AcDbLine
62
7
6
CONTINUOUS
10
0.6276520000
20
-24.4383990000
11
0.9906520000
21
-24.4383990000
0
LINE
5
243
100
AcDbEntity
8
0
100
AcDbLine
62
7
6
CONTINUOUS
10
1.7906520000
20
-24.4383990000
11
2.1526520000
21
-24.4383990000
0
LINE
5
244
100
AcDbEntity
8
0
100
AcDbLine
62
7
6
CONTINUOUS
10
2.4396520000
20
-24.4383990000
11
2.8026520000
21
-24.4383990000
0
LINE
5
245
100
AcDbEntity
8
0
100
AcDbLine
62
7
6
CONTINUOUS
10
3.4816520000
20
-24.4383990000
11
3.8896520000
21
-24.4383990000
0
LINE
5
246
100
AcDbEntity
8
0
100
AcDbLine
62
7
6
CONTINUOUS
10
1.0956520000
20
-24.1233990000
11
1.6696520000
21
-24.1233990000
0
LINE
5
247
100
AcDbEntity
8
0
100
AcDbLine
62
7
6
CONTINUOUS
10
1.5646520000
20
-23.8223990000
11
1.2166520000
21
-23.8223990000
0
LINE
5
248
100
AcDbEntity
8
0
100
AcDbLine
62
7
6
CONTINUOUS
10
2.8026520000
20
-23.8223990000
11
3.1196520000
21
-23.8223990000
0
LINE
5
249
100
AcDbEntity
8
0
100
AcDbLine
62
7
6
CONTINUOUS
10
3.2406520000
20
-23.5213990000
11
2.7876520000
21
-23.5213990000
0
LINE
5
24A
100
AcDbEntity
8
0
100
AcDbLine
62
7
6
CONTINUOUS
10
2.7876520000
20
-23.1103990000
11
3.2406521405
21
-23.1103990000
0
LINE
5
24B
100
AcDbEntity
8
0
100
AcDbLine
62
7
6
CONTINUOUS
10
3.2856520000
20
-22.8093990000
11
2.4396520000
21
-22.8093990000
0
LINE
5
24C
100
AcDbEntity
8
0
100
AcDbLine
62
7
6
CONTINUOUS
10
1.5646520000
20
-22.8093990000
11
1.2016520000
21
-22.8093990000
0
LINE
5
24D
100
AcDbEntity
8
0
100
AcDbLine
62
7
6
CONTINUOUS
10
0.3406520000
20
-22.8093990000
11
-0.2023480000
21
-22.8093990000
0
LINE
5
24E
100
AcDbEntity
8
0
100
AcDbLine
62
7
6
CONTINUOUS
10
-0.8823480000
20
-22.8093990000
11
-1.4413480000
21
-22.8093990000
0
LINE
5
24F
100
AcDbEntity
8
0
100
AcDbLine
62
7
6
CONTINUOUS
10
-1.7583480000
20
-22.8093990000
11
-2.1203480000
21
-22.8093990000
0
LINE
5
250
100
AcDbEntity
8
0
100
AcDbLine
62
7
6
CONTINUOUS
10
-2.3923480000
20
-22.8093990000
11
-2.7543480000
21
-22.8093990000
0
LINE
5
251
100
AcDbEntity
8
0
100
AcDbLine
62
7
6
CONTINUOUS
10
-3.5553480000
20
-22.8093990000
11
-3.9173480000
21
-22.8093990000
0
LINE
5
252
100
AcDbEntity
8
0
100
AcDbLine
62
9
6
CONTINUOUS
10
-22.2242495091
20
-22.7261444717
11
22.2242495091
21
-22.7261444717
0
LINE
5
253
100
AcDbEntity
8
0
100
AcDbLine
62
9
6
CONTINUOUS
10
-22.2130545338
20
-22.5130088423
11
22.2130545338
21
-22.5130088423
0
LINE
5
254
100
AcDbEntity
8
0
100
AcDbLine
62
9
6
CONTINUOUS
10
-22.2295668604
20
23.1612024092
11
-22.2242495091
21
22.7261444717
0
LINE
5
255
100
AcDbEntity
8
0
100
AcDbLine
62
9
6
CONTINUOUS
10
-22.2295668600
20
-23.1612023794
11
-22.2242495091
21
-22.7261444717
0
LINE
5
256
100
AcDbEntity
8
0
100
AcDbLine
62
7
6
CONTINUOUS
10
-3.3283480000
20
-24.4383990000
11
-3.9173480000
21
-22.8093990000
0
LINE
5
257
100
AcDbEntity
8
0
100
AcDbLine
62
7
6
CONTINUOUS
10
-3.1623480000
20
-23.9453990000
11
-3.5553480000
21
-22.8093990000
0
LINE
5
258
100
AcDbEntity
8
0
100
AcDbLine
62
7
6
CONTINUOUS
10
3.4966520000
20
-23.7813990000
11
3.8896520000
21
-24.4383990000
0
LINE
5
259
100
AcDbEntity
8
0
100
AcDbLine
62
7
6
CONTINUOUS
10
3.1196520000
20
-23.8223990000
11
3.4816520000
21
-24.4383990000
0
LINE
5
25A
100
AcDbEntity
8
0
100
AcDbLine
62
7
6
CONTINUOUS
10
1.6696520000
20
-24.1233990000
11
1.7906520000
21
-24.4383990000
0
LINE
5
25B
100
AcDbEntity
8
0
100
AcDbLine
62
7
6
CONTINUOUS
10
-0.7313480000
20
-24.4383990000
11
-1.0783480000
21
-23.3703990000
0
LINE
5
25C
100
AcDbEntity
8
0
100
AcDbLine
62
7
6
CONTINUOUS
10
-0.5503480000
20
-23.8773990000
11
-0.8823480000
21
-22.8093990000
0
LINE
5
25D
100
AcDbEntity
8
0
100
AcDbLine
62
7
6
CONTINUOUS
10
2.1526520000
20
-24.4383990000
11
1.5646520000
21
-22.8093990000
0
LINE
5
25E
100
AcDbEntity
8
0
100
AcDbLine
62
7
6
CONTINUOUS
10
1.5646520000
20
-23.8223990000
11
1.3826520000
21
-23.3163990000
0
LINE
5
25F
100
AcDbEntity
8
0
100
AcDbLine
62
7
6
CONTINUOUS
10
-2.1203480000
20
-24.4383990000
11
-2.1203480000
21
-22.8093990000
0
LINE
5
260
100
AcDbEntity
8
0
100
AcDbLine
62
7
6
CONTINUOUS
10
-1.7583480000
20
-24.4383990000
11
-1.7583480000
21
-22.8093990000
0
LINE
5
261
100
AcDbEntity
8
0
100
AcDbLine
62
7
6
CONTINUOUS
10
-1.4413480000
20
-24.4383990000
11
-1.4413480000
21
-22.8093990000
0
LINE
5
262
100
AcDbEntity
8
0
100
AcDbLine
62
7
6
CONTINUOUS
10
-1.0783480000
20
-24.4383990000
11
-1.0783480000
21
-23.3703990000
0
LINE
5
263
100
AcDbEntity
8
0
100
AcDbLine
62
7
6
CONTINUOUS
10
-0.0213480000
20
-24.4383990000
11
-0.0213480000
21
-23.3703990000
0
LINE
5
264
100
AcDbEntity
8
0
100
AcDbLine
62
9
6
CONTINUOUS
10
0.0000000000
20
24.5093940811
11
0.0000000000
21
39.6549452908
0
LINE
5
265
100
AcDbEntity
8
0
100
AcDbLine
62
9
6
CONTINUOUS
10
0.0000000000
20
-24.5093940811
11
0.0000000000
21
-39.6549452908
0
LINE
5
266
100
AcDbEntity
8
0
100
AcDbLine
62
7
6
CONTINUOUS
10
0.3406520000
20
-24.4383990000
11
0.3406520000
21
-22.8093990000
0
LINE
5
267
100
AcDbEntity
8
0
100
AcDbLine
62
9
6
CONTINUOUS
10
-22.5000000000
20
-22.2000456915
11
-22.5201227985
21
-22.2201684900
0
LINE
5
268
100
AcDbEntity
8
0
100
AcDbLine
62
9
6
CONTINUOUS
10
22.5000000000
20
22.2000456915
11
22.5201227985
21
22.2201684900
0
LINE
5
269
100
AcDbEntity
8
0
100
AcDbLine
62
9
6
CONTINUOUS
10
-22.5201227985
20
22.2201684900
11
-22.5000000000
21
22.2000456915
0
LINE
5
26A
100
AcDbEntity
8
0
100
AcDbLine
62
9
6
CONTINUOUS
10
22.5201227985
20
-22.2201684900
11
22.5000000000
21
-22.2000456915
0
LINE
5
26B
100
AcDbEntity
8
0
100
AcDbLine
62
7
6
CONTINUOUS
10
2.4396520000
20
-24.4383990000
11
2.4396520000
21
-22.8093990000
0
LINE
5
26C
100
AcDbEntity
8
0
100
AcDbLine
62
7
6
CONTINUOUS
10
2.7876520000
20
-23.5213990000
11
2.7876520000
21
-23.1103990000
0
LINE
5
26D
100
AcDbEntity
8
0
100
AcDbLine
62
7
6
CONTINUOUS
10
2.8026520000
20
-23.8223990000
11
2.8026520000
21
-24.4383990000
0
LINE
5
26E
100
AcDbEntity
8
0
100
AcDbLine
62
7
6
CONTINUOUS
10
-0.3683480000
20
-24.4383990000
11
-0.0213480000
21
-23.3703990000
0
LINE
5
26F
100
AcDbEntity
8
0
100
AcDbLine
62
7
6
CONTINUOUS
10
-0.5503480000
20
-23.8773990000
11
-0.2023480000
21
-22.8093990000
0
LINE
5
270
100
AcDbEntity
8
0
100
AcDbLine
62
7
6
CONTINUOUS
10
-3.1623480000
20
-23.9453990000
11
-2.7543480000
21
-22.8093990000
0
LINE
5
271
100
AcDbEntity
8
0
100
AcDbLine
62
7
6
CONTINUOUS
10
-2.9813480000
20
-24.4383990000
11
-2.3923480000
21
-22.8093990000
0
LINE
5
272
100
AcDbEntity
8
0
100
AcDbLine
62
7
6
CONTINUOUS
10
1.2166520000
20
-23.8223990000
11
1.3826520000
21
-23.3163990000
0
LINE
5
273
100
AcDbEntity
8
0
100
AcDbLine
62
7
6
CONTINUOUS
10
1.0956520000
20
-24.1233990000
11
0.9906520000
21
-24.4383990000
0
LINE
5
274
100
AcDbEntity
8
0
100
AcDbLine
62
7
6
CONTINUOUS
10
0.6276520000
20
-24.4383990000
11
1.2016520000
21
-22.8093990000
0
LINE
5
275
100
AcDbEntity
8
0
100
AcDbLine
62
9
6
CONTINUOUS
10
22.2295668600
20
-23.1612023793
11
22.2242495091
21
-22.7261444717
0
LINE
5
276
100
AcDbEntity
8
0
100
AcDbLine
62
9
6
CONTINUOUS
10
22.5295211689
20
-22.9891294772
11
22.5201227985
21
-22.2201684900
0
LINE
5
277
100
AcDbEntity
8
0
100
AcDbLine
62
7
6
CONTINUOUS
10
22.5000000000
20
22.2000456915
11
22.5000000000
21
-22.2000456915
0
LINE
5
278
100
AcDbEntity
8
0
100
AcDbLine
62
9
6
CONTINUOUS
10
23.0520601009
20
24.4731444043
11
23.0520607696
21
-24.4731457004
0
LINE
5
279
100
AcDbEntity
8
0
100
AcDbLine
62
9
6
CONTINUOUS
10
22.2242495091
20
22.7261444717
11
22.2295668604
21
23.1612024094
0
LINE
5
27A
100
AcDbEntity
8
0
100
AcDbLine
62
9
6
CONTINUOUS
10
22.5201227985
20
22.2201684900
11
22.5295211691
21
22.9891294929
0
LINE
5
27B
100
AcDbEntity
8
0
100
AcDbLine
62
9
6
CONTINUOUS
10
22.2130545338
20
22.5130088423
11
-22.2130545338
21
22.5130088423
0
LINE
5
27C
100
AcDbEntity
8
0
100
AcDbLine
62
9
6
CONTINUOUS
10
22.2242495091
20
22.7261444717
11
-22.2242495091
21
22.7261444717
0
LINE
5
27D
100
AcDbEntity
8
0
100
AcDbLine
62
7
6
CONTINUOUS
10
-67.6070539559
20
-39.6549454208
11
-61.0230203656
21
-40.0000000000
0
LINE
5
27E
100
AcDbEntity
8
0
100
AcDbLine
62
7
6
CONTINUOUS
10
-69.4535340106
20
-24.4383990000
11
-69.3680797894
21
-24.4383990000
0
LINE
5
27F
100
AcDbEntity
8
0
100
AcDbLine
62
7
6
CONTINUOUS
10
-62.7948093012
20
-3.5199658810
11
-61.2512314299
21
-3.6550114460
0
LINE
5
280
100
AcDbEntity
8
0
100
AcDbLine
62
7
6
CONTINUOUS
10
-63.0230203656
20
3.2709172065
11
-63.0230203656
21
-3.2709172065
0
LINE
5
281
100
AcDbEntity
8
0
100
AcDbLine
62
7
6
CONTINUOUS
10
-61.2512314299
20
3.6550114460
11
-62.7948093012
21
3.5199658810
0
LINE
5
282
100
AcDbEntity
8
0
100
AcDbLine
62
7
6
CONTINUOUS
10
-61.0230203656
20
39.9999478206
11
-61.0230203656
21
3.9040601206
0
LINE
5
283
100
AcDbEntity
8
0
100
AcDbLine
62
7
6
CONTINUOUS
10
-61.0230203656
20
-3.9040601206
11
-61.0230203656
21
-39.9999478206
0
LINE
5
284
100
AcDbEntity
8
0
100
AcDbLine
62
7
6
CONTINUOUS
10
-69.1550942765
20
-24.0121828886
11
-69.4535340106
21
-24.4383990000
0
LINE
5
285
100
AcDbEntity
8
0
100
AcDbLine
62
7
6
CONTINUOUS
10
-69.4177910803
20
-24.5093940811
11
-69.1500910617
21
-24.1270788330
0
LINE
5
286
100
AcDbEntity
8
0
100
AcDbLine
62
7
6
CONTINUOUS
10
-69.4177910803
20
24.5093940811
11
-69.1500900215
21
24.1270773476
0
LINE
5
287
100
AcDbEntity
8
0
100
AcDbLine
62
7
6
CONTINUOUS
10
-67.6070539559
20
39.6549454208
11
-61.0230203656
21
40.0000000000
0
ARC
5
288
100
AcDbEntity
8
0
100
AcDbCircle
62
7
6
CONTINUOUS
10
3.2406520000
20
-23.3158990000
40
0.2055000000
100
AcDbArc
50
270.0000000000
51
89.9999608239
0
ARC
5
289
100
AcDbEntity
8
0
100
AcDbCircle
62
7
6
CONTINUOUS
10
3.2856520000
20
-23.3183007490
40
0.5089017490
100
AcDbArc
50
294.4952840373
51
90.0000000000
0
ARC
5
28A
100
AcDbEntity
8
0
100
AcDbCircle
62
7
6
CONTINUOUS
10
-560.0000000000
20
-0.0000000000
40
600.0000000000
100
AcDbArc
50
0.3728129105
51
3.4920551922
0
ARC
5
28B
100
AcDbEntity
8
0
100
AcDbCircle
62
7
6
CONTINUOUS
10
0.0000000000
20
-560.0000000000
40
600.0000000000
100
AcDbArc
50
86.5079448078
51
93.4920551922
0
ARC
5
28C
100
AcDbEntity
8
0
100
AcDbCircle
62
7
6
CONTINUOUS
10
560.0000000000
20
-0.0000000000
40
600.0000000000
100
AcDbArc
50
176.5079448078
51
179.6271870895
0
ARC
5
28D
100
AcDbEntity
8
0
100
AcDbCircle
62
7
6
CONTINUOUS
10
560.0000000000
20
-0.0000000000
40
600.0000000000
100
AcDbArc
50
180.3728129105
51
183.4920551922
0
ARC
5
28E
100
AcDbEntity
8
0
100
AcDbCircle
62
7
6
CONTINUOUS
10
0.0000000000
20
560.0000000000
40
600.0000000000
100
AcDbArc
50
266.5079448078
51
273.4920551922
0
ARC
5
28F
100
AcDbEntity
8
0
100
AcDbCircle
62
7
6
CONTINUOUS
10
-560.0000000000
20
-0.0000000000
40
600.0000000000
100
AcDbArc
50
356.5079448078
51
359.6271870895
0
ARC
5
290
100
AcDbEntity
8
0
100
AcDbCircle
62
7
6
CONTINUOUS
10
-560.0000000000
20
-0.0000000000
40
599.8951844414
100
AcDbArc
50
359.6875942922
51
0.3124057078
0
ARC
5
291
100
AcDbEntity
8
0
100
AcDbCircle
62
7
6
CONTINUOUS
10
560.0000000000
20
-0.0000000000
40
599.8951844414
100
AcDbArc
50
179.6875942922
51
180.3124057078
0
ARC
5
292
100
AcDbEntity
8
0
100
AcDbCircle
62
7
6
CONTINUOUS
10
-61.2730203656
20
3.9040601206
40
0.2500000000
100
AcDbArc
50
275.0000000000
51
360.0000000000
0
ARC
5
293
100
AcDbEntity
8
0
100
AcDbCircle
62
7
6
CONTINUOUS
10
-61.2730203656
20
-3.9040601206
40
0.2500000000
100
AcDbArc
50
0.0000000000
51
85.0000000000
0
ARC
5
294
100
AcDbEntity
8
0
100
AcDbCircle
62
7
6
CONTINUOUS
10
-62.7730203656
20
-3.2709172065
40
0.2500000000
100
AcDbArc
50
180.0000000000
51
265.0000000000
0
ARC
5
295
100
AcDbEntity
8
0
100
AcDbCircle
62
7
6
CONTINUOUS
10
-62.7730203656
20
3.2709172065
40
0.2500000000
100
AcDbArc
50
95.0000000000
51
180.0000000000
0
ARC
5
296
100
AcDbEntity
8
0
100
AcDbCircle
62
7
6
CONTINUOUS
10
-68.5986389636
20
-25.0829704141
40
1.0000000000
100
AcDbArc
50
145.0000072287
51
182.8830457316
0
ARC
5
297
100
AcDbEntity
8
0
100
AcDbCircle
62
7
6
CONTINUOUS
10
-68.5986389636
20
25.0829704141
40
1.0000000000
100
AcDbArc
50
177.1169542684
51
214.9999927713
0
ARC
5
298
100
AcDbEntity
8
0
100
AcDbCircle
62
7
6
CONTINUOUS
10
-67.5442560556
20
38.4565895740
40
1.1999999997
100
AcDbArc
50
92.9997487985
51
175.5754519950
0
ARC
5
299
100
AcDbEntity
8
0
100
AcDbCircle
62
7
6
CONTINUOUS
10
-67.5442560556
20
-38.4565895740
40
1.1999999997
100
AcDbArc
50
184.4245480050
51
267.0002512015
0
SPLINE
5
29A
100
AcDbEntity
8
0
100
AcDbSpline
62
7
6
CONTINUOUS
70
0
71
3
72
10
73
6
74
4
42
0.0000001000
43
0.0000001000
44
0.0000000001
12
3.5758578814
22
-0.2182111473
32
0.0000000000
13
0.2182111473
23
-3.5758578814
33
0.0000000000
40
0.0000000000
40
0.0000000000
40
0.0000000000
40
0.0000000000
40
0.3308390392
40
0.6686542267
40
1.0000000000
40
1.0000000000
40
1.0000000000
40
1.0000000000
10
36.5460807167
20
38.8859524018
30
0.0000000000
10
36.9404251787
20
38.8618881464
30
0.0000000000
10
37.7383440654
20
38.6160000154
30
0.0000000000
10
38.6154433680
20
37.7395795446
30
0.0000000000
10
38.8618512881
20
36.9410291816
30
0.0000000000
10
38.8859524018
20
36.5460807167
30
0.0000000000
11
36.5460807167
21
38.8859524018
31
0.0000000000
11
37.6782558506
21
38.5352969387
31
0.0000000000
11
38.5343355271
21
37.6798584534
31
0.0000000000
11
38.8859524018
21
36.5460807167
31
0.0000000000
0
SPLINE
5
29B
100
AcDbEntity
8
0
100
AcDbSpline
62
7
6
CONTINUOUS
70
0
71
3
72
10
73
6
74
4
42
0.0000001000
43
0.0000001000
44
0.0000000001
12
0.2182111473
22
3.5758578813
32
0.0000000000
13
3.5758578813
23
0.2182111473
33
0.0000000000
40
0.0000000000
40
0.0000000000
40
0.0000000000
40
0.0000000000
40
0.3308390021
40
0.6686542026
40
1.0000000000
40
1.0000000000
40
1.0000000000
40
1.0000000000
10
-38.8859524018
20
36.5460807167
30
0.0000000000
10
-38.8618881491
20
36.9404251344
30
0.0000000000
10
-38.6160000519
20
37.7383439902
30
0.0000000000
10
-37.7395796188
20
38.6154433372
30
0.0000000000
10
-36.9410292104
20
38.8618512863
30
0.0000000000
10
-36.5460807167
20
38.8859524018
30
0.0000000000
11
-38.8859524018
21
36.5460807167
31
0.0000000000
11
-38.5352970091
21
37.6782557332
31
0.0000000000
11
-37.6798585298
21
38.5343354813
31
0.0000000000
11
-36.5460807167
21
38.8859524018
31
0.0000000000
0
SPLINE
5
29C
100
AcDbEntity
8
0
100
AcDbSpline
62
7
6
CONTINUOUS
70
0
71
3
72
10
73
6
74
4
42
0.0000001000
43
0.0000001000
44
0.0000000001
12
-3.5758578814
22
0.2182111473
32
0.0000000000
13
-0.2182111473
23
3.5758578814
33
0.0000000000
40
0.0000000000
40
0.0000000000
40
0.0000000000
40
0.0000000000
40
0.3308390392
40
0.6686542267
40
1.0000000000
40
1.0000000000
40
1.0000000000
40
1.0000000000
10
-36.5460807167
20
-38.8859524018
30
0.0000000000
10
-36.9404251787
20
-38.8618881464
30
0.0000000000
10
-37.7383440654
20
-38.6160000154
30
0.0000000000
10
-38.6154433680
20
-37.7395795446
30
0.0000000000
10
-38.8618512881
20
-36.9410291816
30
0.0000000000
10
-38.8859524018
20
-36.5460807167
30
0.0000000000
11
-36.5460807167
21
-38.8859524018
31
0.0000000000
11
-37.6782558506
21
-38.5352969387
31
0.0000000000
11
-38.5343355271
21
-37.6798584534
31
0.0000000000
11
-38.8859524018
21
-36.5460807167
31
0.0000000000
0
SPLINE
5
29D
100
AcDbEntity
8
0
100
AcDbSpline
62
7
6
CONTINUOUS
70
0
71
3
72
10
73
6
74
4
42
0.0000001000
43
0.0000001000
44
0.0000000001
12
-0.2182111473
22
-3.5758578813
32
0.0000000000
13
-3.5758578813
23
-0.2182111473
33
0.0000000000
40
0.0000000000
40
0.0000000000
40
0.0000000000
40
0.0000000000
40
0.3308390021
40
0.6686542026
40
1.0000000000
40
1.0000000000
40
1.0000000000
40
1.0000000000
10
38.8859524018
20
-36.5460807167
30
0.0000000000
10
38.8618881491
20
-36.9404251344
30
0.0000000000
10
38.6160000519
20
-37.7383439902
30
0.0000000000
10
37.7395796188
20
-38.6154433372
30
0.0000000000
10
36.9410292104
20
-38.8618512863
30
0.0000000000
10
36.5460807167
20
-38.8859524018
30
0.0000000000
11
38.8859524018
21
-36.5460807167
31
0.0000000000
11
38.5352970091
21
-37.6782557332
31
0.0000000000
11
37.6798585298
21
-38.5343354813
31
0.0000000000
11
36.5460807167
21
-38.8859524018
31
0.0000000000
0
SPLINE
5
29E
100
AcDbEntity
8
0
100
AcDbSpline
62
7
6
CONTINUOUS
70
0
71
3
72
9
73
5
74
3
42
0.0000001000
43
0.0000001000
44
0.0000000001
12
-0.1272718093
22
0.2145634341
32
0.0000000000
13
0.0013602338
23
0.2494668925
33
0.0000000000
40
0.0000000000
40
0.0000000000
40
0.0000000000
40
0.0000000000
40
0.3231542238
40
1.0000000000
40
1.0000000000
40
1.0000000000
40
1.0000000000
10
39.8968176563
20
-3.5199658810
30
0.0000000000
10
39.8831081821
20
-3.4968535210
30
0.0000000000
10
39.8953516776
20
-3.4068205785
30
0.0000000000
10
39.8859601784
20
-3.3272007440
30
0.0000000000
10
39.8862670679
20
-3.2709172065
30
0.0000000000
11
39.8968176563
21
-3.5199658810
31
0.0000000000
11
39.8887619433
21
-3.4397518965
31
0.0000000000
11
39.8862670679
21
-3.2709172065
31
0.0000000000
0
SPLINE
5
29F
100
AcDbEntity
8
0
100
AcDbSpline
62
7
6
CONTINUOUS
70
0
71
3
72
9
73
5
74
3
42
0.0000001000
43
0.0000001000
44
0.0000000001
12
-0.0013602344
22
0.2494670141
32
0.0000000000
13
0.1272718713
23
0.2145635387
33
0.0000000000
40
0.0000000000
40
0.0000000000
40
0.0000000000
40
0.0000000000
40
0.6772212564
40
1.0000000000
40
1.0000000000
40
1.0000000000
40
1.0000000000
10
39.8862670679
20
3.2709172065
30
0.0000000000
10
39.8859600080
20
3.3272319947
30
0.0000000000
10
39.8953531055
20
3.4068504344
30
0.0000000000
10
39.8831241047
20
3.4968803645
30
0.0000000000
10
39.8968176563
20
3.5199658810
30
0.0000000000
11
39.8862670679
21
3.2709172065
31
0.0000000000
11
39.8887659053
21
3.4398456018
31
0.0000000000
11
39.8968176563
21
3.5199658810
31
0.0000000000
0
SPLINE
5
2A0
100
AcDbEntity
8
0
100
AcDbSpline
62
7
6
CONTINUOUS
70
0
71
3
72
9
73
5
74
3
42
0.0000001000
43
0.0000001000
44
0.0000000001
12
0.0013602338
22
-0.2494668925
32
0.0000000000
13
-0.1272718093
23
-0.2145634341
33
0.0000000000
40
0.0000000000
40
0.0000000000
40
0.0000000000
40
0.0000000000
40
0.6768457762
40
1.0000000000
40
1.0000000000
40
1.0000000000
40
1.0000000000
10
-39.8862670679
20
-3.2709172065
30
0.0000000000
10
-39.8859601784
20
-3.3272007440
30
0.0000000000
10
-39.8953516776
20
-3.4068205785
30
0.0000000000
10
-39.8831081821
20
-3.4968535210
30
0.0000000000
10
-39.8968176563
20
-3.5199658810
30
0.0000000000
11
-39.8862670679
21
-3.2709172065
31
0.0000000000
11
-39.8887619433
21
-3.4397518965
31
0.0000000000
11
-39.8968176563
21
-3.5199658810
31
0.0000000000
0
SPLINE
5
2A1
100
AcDbEntity
8
0
100
AcDbSpline
62
7
6
CONTINUOUS
70
0
71
3
72
9
73
5
74
3
42
0.0000001000
43
0.0000001000
44
0.0000000001
12
0.1272718713
22
-0.2145635387
32
0.0000000000
13
-0.0013602344
23
-0.2494670141
33
0.0000000000
40
0.0000000000
40
0.0000000000
40
0.0000000000
40
0.0000000000
40
0.3227787436
40
1.0000000000
40
1.0000000000
40
1.0000000000
40
1.0000000000
10
-39.8968176563
20
3.5199658810
30
0.0000000000
10
-39.8831241047
20
3.4968803645
30
0.0000000000
10
-39.8953531055
20
3.4068504344
30
0.0000000000
10
-39.8859600080
20
3.3272319947
30
0.0000000000
10
-39.8862670679
20
3.2709172065
30
0.0000000000
11
-39.8968176563
21
3.5199658810
31
0.0000000000
11
-39.8887659053
21
3.4398456018
31
0.0000000000
11
-39.8862670679
21
3.2709172065
31
0.0000000000
0
SPLINE
5
2A2
100
AcDbEntity
8
0
100
AcDbSpline
62
7
6
CONTINUOUS
70
0
71
3
72
8
73
4
74
2
42
0.0000001000
43
0.0000001000
44
0.0000000001
12
0.0410673982
22
0.0692602971
32
0.0000000000
13
-0.0051247792
23
0.0839224996
33
0.0000000000
40
0.0000000000
40
0.0000000000
40
0.0000000000
40
0.0000000000
40
1.0000000000
40
1.0000000000
40
1.0000000000
40
1.0000000000
10
39.9769070492
20
3.6550114460
30
0.0000000000
10
39.9905961819
20
3.6780982117
30
0.0000000000
10
39.9866383852
20
3.7071568789
30
0.0000000000
10
39.9849301254
20
3.7351310454
30
0.0000000000
11
39.9769070492
21
3.6550114460
31
0.0000000000
11
39.9849301254
21
3.7351310454
31
0.0000000000
0
SPLINE
5
2A3
100
AcDbEntity
8
0
100
AcDbSpline
62
7
6
CONTINUOUS
70
0
71
3
72
8
73
4
74
2
42
0.0000001000
43
0.0000001000
44
0.0000000001
12
-0.0068215699
22
0.1117088510
32
0.0000000000
13
0.0043862530
23
0.1056702844
33
0.0000000000
40
0.0000000000
40
0.0000000000
40
0.0000000000
40
0.0000000000
40
1.0000000000
40
1.0000000000
40
1.0000000000
40
1.0000000000
10
39.9849301254
20
3.7351310454
30
0.0000000000
10
39.9826562688
20
3.7723673291
30
0.0000000000
10
39.9843681753
20
3.8076820784
30
0.0000000000
10
39.9858302597
20
3.8429055065
30
0.0000000000
11
39.9849301254
21
3.7351310454
31
0.0000000000
11
39.9858302597
21
3.8429055065
31
0.0000000000
0
SPLINE
5
2A4
100
AcDbEntity
8
0
100
AcDbSpline
62
7
6
CONTINUOUS
70
0
71
3
72
8
73
4
74
2
42
0.0000001000
43
0.0000001000
44
0.0000000001
12
0.0025276958
22
0.0608953323
32
0.0000000000
13
-0.0004018935
23
0.0617641594
33
0.0000000000
40
0.0000000000
40
0.0000000000
40
0.0000000000
40
0.0000000000
40
1.0000000000
40
1.0000000000
40
1.0000000000
40
1.0000000000
10
39.9858302597
20
3.8429055065
30
0.0000000000
10
39.9866728249
20
3.8632039506
30
0.0000000000
10
39.9874324255
20
3.8834720674
30
0.0000000000
10
39.9872984610
20
3.9040601206
30
0.0000000000
11
39.9858302597
21
3.8429055065
31
0.0000000000
11
39.9872984610
21
3.9040601206
31
0.0000000000
0
SPLINE
5
2A5
100
AcDbEntity
8
0
100
AcDbSpline
62
7
6
CONTINUOUS
70
0
71
3
72
9
73
5
74
3
42
0.0000001000
43
0.0000001000
44
0.0000000001
12
-0.0667329461
22
-0.1125453250
32
0.0000000000
13
-0.0667484529
23
-0.1125361289
33
0.0000000000
40
0.0000000000
40
0.0000000000
40
0.0000000000
40
0.0000000000
40
0.6000195859
40
1.0000000000
40
1.0000000000
40
1.0000000000
40
1.0000000000
10
39.9769070492
20
3.6550114460
30
0.0000000000
10
39.9635600243
20
3.6325016463
30
0.0000000000
10
39.9413141582
20
3.5949874574
30
0.0000000000
10
39.9190657076
20
3.5574748013
30
0.0000000000
10
39.9101663497
20
3.5424707188
30
0.0000000000
11
39.9769070492
21
3.6550114460
31
0.0000000000
11
39.9368631831
21
3.5874837020
31
0.0000000000
11
39.9101663497
21
3.5424707188
31
0.0000000000
0
SPLINE
5
2A6
100
AcDbEntity
8
0
100
AcDbSpline
62
7
6
CONTINUOUS
70
0
71
3
72
8
73
4
74
2
42
0.0000001000
43
0.0000001000
44
0.0000000001
12
-0.0133483833
22
-0.0225050217
32
0.0000000000
13
-0.0133490034
23
-0.0225046539
33
0.0000000000
40
0.0000000000
40
0.0000000000
40
0.0000000000
40
0.0000000000
40
1.0000000000
40
1.0000000000
40
1.0000000000
40
1.0000000000
10
39.9101663497
20
3.5424707188
30
0.0000000000
10
39.9057168886
20
3.5349690449
30
0.0000000000
10
39.9012673241
20
3.5274674323
30
0.0000000000
10
39.8968176563
20
3.5199658810
30
0.0000000000
11
39.9101663497
21
3.5424707188
31
0.0000000000
11
39.8968176563
21
3.5199658810
31
0.0000000000
0
SPLINE
5
2A7
100
AcDbEntity
8
0
100
AcDbSpline
62
7
6
CONTINUOUS
70
0
71
3
72
9
73
5
74
3
42
0.0000001000
43
0.0000001000
44
0.0000000001
12
0.0667493749
22
-0.1125306161
32
0.0000000000
13
0.0667338692
23
-0.1125398121
33
0.0000000000
40
0.0000000000
40
0.0000000000
40
0.0000000000
40
0.0000000000
40
0.5999804138
40
1.0000000000
40
1.0000000000
40
1.0000000000
40
1.0000000000
10
39.8968176563
20
-3.5199658810
30
0.0000000000
10
39.9101670955
20
-3.5424712696
30
0.0000000000
10
39.9324153366
20
-3.5799823946
30
0.0000000000
10
39.9546609935
20
-3.6174950524
30
0.0000000000
10
39.9635592784
20
-3.6325010954
30
0.0000000000
11
39.8968176563
21
-3.5199658810
31
0.0000000000
11
39.9368631831
21
-3.5874837020
31
0.0000000000
11
39.9635592784
21
-3.6325010954
31
0.0000000000
0
SPLINE
5
2A8
100
AcDbEntity
8
0
100
AcDbSpline
62
7
6
CONTINUOUS
70
0
71
3
72
8
73
4
74
2
42
0.0000001000
43
0.0000001000
44
0.0000000001
12
0.0133480809
22
-0.0225101667
32
0.0000000000
13
0.0133474606
23
-0.0225105346
33
0.0000000000
40
0.0000000000
40
0.0000000000
40
0.0000000000
40
0.0000000000
40
1.0000000000
40
1.0000000000
40
1.0000000000
40
1.0000000000
10
39.9635592784
20
-3.6325010954
30
0.0000000000
10
39.9680086387
20
-3.6400044843
30
0.0000000000
10
39.9724578956
20
-3.6475079345
30
0.0000000000
10
39.9769070492
20
-3.6550114460
30
0.0000000000
11
39.9635592784
21
-3.6325010954
31
0.0000000000
11
39.9769070492
21
-3.6550114460
31
0.0000000000
0
SPLINE
5
2A9
100
AcDbEntity
8
0
100
AcDbSpline
62
7
6
CONTINUOUS
70
0
71
3
72
9
73
5
74
3
42
0.0000001000
43
0.0000001000
44
0.0000000001
12
0.0016232170
22
0.2494607027
32
0.0000000000
13
-0.1272339759
23
0.2145805033
33
0.0000000000
40
0.0000000000
40
0.0000000000
40
0.0000000000
40
0.0000000000
40
0.6772293099
40
1.0000000000
40
1.0000000000
40
1.0000000000
40
1.0000000000
10
39.9872984610
20
-3.9040601206
30
0.0000000000
10
39.9876648911
20
-3.8477460874
30
0.0000000000
10
39.9783342360
20
-3.7681270403
30
0.0000000000
10
39.9905961819
20
-3.6780982117
30
0.0000000000
10
39.9769070492
20
-3.6550114460
30
0.0000000000
11
39.9872984610
21
-3.9040601206
31
0.0000000000
11
39.9849301254
21
-3.7351310454
31
0.0000000000
11
39.9769070492
21
-3.6550114460
31
0.0000000000
0
SPLINE
5
2AA
100
AcDbEntity
8
0
100
AcDbSpline
62
7
6
CONTINUOUS
70
0
71
3
72
9
73
5
74
3
42
0.0000001000
43
0.0000001000
44
0.0000000001
12
-0.0016232170
22
-0.2494607027
32
0.0000000000
13
0.1272339759
23
-0.2145805033
33
0.0000000000
40
0.0000000000
40
0.0000000000
40
0.0000000000
40
0.0000000000
40
0.6772293099
40
1.0000000000
40
1.0000000000
40
1.0000000000
40
1.0000000000
10
-39.9872984610
20
3.9040601206
30
0.0000000000
10
-39.9876648911
20
3.8477460874
30
0.0000000000
10
-39.9783342360
20
3.7681270403
30
0.0000000000
10
-39.9905961819
20
3.6780982117
30
0.0000000000
10
-39.9769070492
20
3.6550114460
30
0.0000000000
11
-39.9872984610
21
3.9040601206
31
0.0000000000
11
-39.9849301254
21
3.7351310454
31
0.0000000000
11
-39.9769070492
21
3.6550114460
31
0.0000000000
0
SPLINE
5
2AB
100
AcDbEntity
8
0
100
AcDbSpline
62
7
6
CONTINUOUS
70
0
71
3
72
8
73
4
74
2
42
0.0000001000
43
0.0000001000
44
0.0000000001
12
-0.0410673982
22
-0.0692602971
32
0.0000000000
13
0.0051247792
23
-0.0839224996
33
0.0000000000
40
0.0000000000
40
0.0000000000
40
0.0000000000
40
0.0000000000
40
1.0000000000
40
1.0000000000
40
1.0000000000
40
1.0000000000
10
-39.9769070492
20
-3.6550114460
30
0.0000000000
10
-39.9905961819
20
-3.6780982117
30
0.0000000000
10
-39.9866383852
20
-3.7071568789
30
0.0000000000
10
-39.9849301254
20
-3.7351310454
30
0.0000000000
11
-39.9769070492
21
-3.6550114460
31
0.0000000000
11
-39.9849301254
21
-3.7351310454
31
0.0000000000
0
SPLINE
5
2AC
100
AcDbEntity
8
0
100
AcDbSpline
62
7
6
CONTINUOUS
70
0
71
3
72
8
73
4
74
2
42
0.0000001000
43
0.0000001000
44
0.0000000001
12
0.0068215699
22
-0.1117088510
32
0.0000000000
13
-0.0043862530
23
-0.1056702844
33
0.0000000000
40
0.0000000000
40
0.0000000000
40
0.0000000000
40
0.0000000000
40
1.0000000000
40
1.0000000000
40
1.0000000000
40
1.0000000000
10
-39.9849301254
20
-3.7351310454
30
0.0000000000
10
-39.9826562688
20
-3.7723673291
30
0.0000000000
10
-39.9843681753
20
-3.8076820784
30
0.0000000000
10
-39.9858302597
20
-3.8429055065
30
0.0000000000
11
-39.9849301254
21
-3.7351310454
31
0.0000000000
11
-39.9858302597
21
-3.8429055065
31
0.0000000000
0
SPLINE
5
2AD
100
AcDbEntity
8
0
100
AcDbSpline
62
7
6
CONTINUOUS
70
0
71
3
72
8
73
4
74
2
42
0.0000001000
43
0.0000001000
44
0.0000000001
12
-0.0025276958
22
-0.0608953323
32
0.0000000000
13
0.0004018935
23
-0.0617641594
33
0.0000000000
40
0.0000000000
40
0.0000000000
40
0.0000000000
40
0.0000000000
40
1.0000000000
40
1.0000000000
40
1.0000000000
40
1.0000000000
10
-39.9858302597
20
-3.8429055065
30
0.0000000000
10
-39.9866728249
20
-3.8632039506
30
0.0000000000
10
-39.9874324255
20
-3.8834720674
30
0.0000000000
10
-39.9872984610
20
-3.9040601206
30
0.0000000000
11
-39.9858302597
21
-3.8429055065
31
0.0000000000
11
-39.9872984610
21
-3.9040601206
31
0.0000000000
0
SPLINE
5
2AE
100
AcDbEntity
8
0
100
AcDbSpline
62
7
6
CONTINUOUS
70
0
71
3
72
9
73
5
74
3
42
0.0000001000
43
0.0000001000
44
0.0000000001
12
0.0667329461
22
0.1125453250
32
0.0000000000
13
0.0667484529
23
0.1125361289
33
0.0000000000
40
0.0000000000
40
0.0000000000
40
0.0000000000
40
0.0000000000
40
0.6000195860
40
1.0000000000
40
1.0000000000
40
1.0000000000
40
1.0000000000
10
-39.9769070492
20
-3.6550114460
30
0.0000000000
10
-39.9635600243
20
-3.6325016463
30
0.0000000000
10
-39.9413141582
20
-3.5949874574
30
0.0000000000
10
-39.9190657076
20
-3.5574748013
30
0.0000000000
10
-39.9101663497
20
-3.5424707188
30
0.0000000000
11
-39.9769070492
21
-3.6550114460
31
0.0000000000
11
-39.9368631831
21
-3.5874837020
31
0.0000000000
11
-39.9101663497
21
-3.5424707188
31
0.0000000000
0
SPLINE
5
2AF
100
AcDbEntity
8
0
100
AcDbSpline
62
7
6
CONTINUOUS
70
0
71
3
72
8
73
4
74
2
42
0.0000001000
43
0.0000001000
44
0.0000000001
12
0.0133483833
22
0.0225050217
32
0.0000000000
13
0.0133490034
23
0.0225046539
33
0.0000000000
40
0.0000000000
40
0.0000000000
40
0.0000000000
40
0.0000000000
40
1.0000000000
40
1.0000000000
40
1.0000000000
40
1.0000000000
10
-39.9101663497
20
-3.5424707188
30
0.0000000000
10
-39.9057168886
20
-3.5349690449
30
0.0000000000
10
-39.9012673241
20
-3.5274674323
30
0.0000000000
10
-39.8968176563
20
-3.5199658810
30
0.0000000000
11
-39.9101663497
21
-3.5424707188
31
0.0000000000
11
-39.8968176563
21
-3.5199658810
31
0.0000000000
0
SPLINE
5
2B0
100
AcDbEntity
8
0
100
AcDbSpline
62
7
6
CONTINUOUS
70
0
71
3
72
9
73
5
74
3
42
0.0000001000
43
0.0000001000
44
0.0000000001
12
-0.0667493749
22
0.1125306161
32
0.0000000000
13
-0.0667338692
23
0.1125398121
33
0.0000000000
40
0.0000000000
40
0.0000000000
40
0.0000000000
40
0.0000000000
40
0.5999804138
40
1.0000000000
40
1.0000000000
40
1.0000000000
40
1.0000000000
10
-39.8968176563
20
3.5199658810
30
0.0000000000
10
-39.9101670955
20
3.5424712695
30
0.0000000000
10
-39.9324153366
20
3.5799823946
30
0.0000000000
10
-39.9546609935
20
3.6174950524
30
0.0000000000
10
-39.9635592784
20
3.6325010954
30
0.0000000000
11
-39.8968176563
21
3.5199658810
31
0.0000000000
11
-39.9368631831
21
3.5874837020
31
0.0000000000
11
-39.9635592784
21
3.6325010954
31
0.0000000000
0
SPLINE
5
2B1
100
AcDbEntity
8
0
100
AcDbSpline
62
7
6
CONTINUOUS
70
0
71
3
72
8
73
4
74
2
42
0.0000001000
43
0.0000001000
44
0.0000000001
12
-0.0133480809
22
0.0225101667
32
0.0000000000
13
-0.0133474606
23
0.0225105346
33
0.0000000000
40
0.0000000000
40
0.0000000000
40
0.0000000000
40
0.0000000000
40
1.0000000000
40
1.0000000000
40
1.0000000000
40
1.0000000000
10
-39.9635592784
20
3.6325010954
30
0.0000000000
10
-39.9680086387
20
3.6400044843
30
0.0000000000
10
-39.9724578956
20
3.6475079345
30
0.0000000000
10
-39.9769070492
20
3.6550114460
30
0.0000000000
11
-39.9635592784
21
3.6325010954
31
0.0000000000
11
-39.9769070492
21
3.6550114460
31
0.0000000000
0
SPLINE
5
2B2
100
AcDbEntity
8
0
100
AcDbSpline
62
7
6
CONTINUOUS
70
0
71
3
72
10
73
6
74
4
42
0.0000001000
43
0.0000001000
44
0.0000000001
12
0.0000000000
22
0.4658096616
32
0.0000000000
13
0.4658096616
23
-0.0000000000
33
0.0000000000
40
0.0000000000
40
0.0000000000
40
0.0000000000
40
0.0000000000
40
0.3333500763
40
0.6666504336
40
1.0000000000
40
1.0000000000
40
1.0000000000
40
1.0000000000
10
-22.5000000000
20
22.2000456915
30
0.0000000000
10
-22.5000000000
20
22.2518049202
30
0.0000000000
10
-22.4718868577
20
22.3573051469
30
0.0000000000
10
-22.3573049799
20
22.4718869272
30
0.0000000000
10
-22.2518048410
20
22.5000000000
30
0.0000000000
10
-22.2000456915
20
22.5000000000
30
0.0000000000
11
-22.5000000000
21
22.2000456915
31
0.0000000000
11
-22.4598147318
21
22.3500333711
31
0.0000000000
11
-22.3500331582
21
22.4598148547
31
0.0000000000
11
-22.2000456915
21
22.5000000000
31
0.0000000000
0
SPLINE
5
2B3
100
AcDbEntity
8
0
100
AcDbSpline
62
7
6
CONTINUOUS
70
0
71
3
72
10
73
6
74
4
42
0.0000001000
43
0.0000001000
44
0.0000000001
12
0.0000000000
22
-0.4658096616
32
0.0000000000
13
0.4658096616
23
0.0000000000
33
0.0000000000
40
0.0000000000
40
0.0000000000
40
0.0000000000
40
0.0000000000
40
0.3333500763
40
0.6666504336
40
1.0000000000
40
1.0000000000
40
1.0000000000
40
1.0000000000
10
-22.5000000000
20
-22.2000456915
30
0.0000000000
10
-22.5000000000
20
-22.2518049202
30
0.0000000000
10
-22.4718868577
20
-22.3573051469
30
0.0000000000
10
-22.3573049799
20
-22.4718869272
30
0.0000000000
10
-22.2518048410
20
-22.5000000000
30
0.0000000000
10
-22.2000456915
20
-22.5000000000
30
0.0000000000
11
-22.5000000000
21
-22.2000456915
31
0.0000000000
11
-22.4598147318
21
-22.3500333711
31
0.0000000000
11
-22.3500331582
21
-22.4598148547
31
0.0000000000
11
-22.2000456915
21
-22.5000000000
31
0.0000000000
0
SPLINE
5
2B4
100
AcDbEntity
8
0
100
AcDbSpline
62
7
6
CONTINUOUS
70
0
71
3
72
10
73
6
74
4
42
0.0000001000
43
0.0000001000
44
0.0000000001
12
0.0000000000
22
0.4658096616
32
0.0000000000
13
-0.4658096616
23
0.0000000000
33
0.0000000000
40
0.0000000000
40
0.0000000000
40
0.0000000000
40
0.0000000000
40
0.3333500763
40
0.6666504336
40
1.0000000000
40
1.0000000000
40
1.0000000000
40
1.0000000000
10
22.5000000000
20
22.2000456915
30
0.0000000000
10
22.5000000000
20
22.2518049202
30
0.0000000000
10
22.4718868577
20
22.3573051469
30
0.0000000000
10
22.3573049799
20
22.4718869272
30
0.0000000000
10
22.2518048410
20
22.5000000000
30
0.0000000000
10
22.2000456915
20
22.5000000000
30
0.0000000000
11
22.5000000000
21
22.2000456915
31
0.0000000000
11
22.4598147318
21
22.3500333711
31
0.0000000000
11
22.3500331582
21
22.4598148547
31
0.0000000000
11
22.2000456915
21
22.5000000000
31
0.0000000000
0
SPLINE
5
2B5
100
AcDbEntity
8
0
100
AcDbSpline
62
7
6
CONTINUOUS
70
0
71
3
72
10
73
6
74
4
42
0.0000001000
43
0.0000001000
44
0.0000000001
12
0.0000000000
22
-0.4658096616
32
0.0000000000
13
-0.4658096616
23
0.0000000000
33
0.0000000000
40
0.0000000000
40
0.0000000000
40
0.0000000000
40
0.0000000000
40
0.3333500763
40
0.6666504336
40
1.0000000000
40
1.0000000000
40
1.0000000000
40
1.0000000000
10
22.5000000000
20
-22.2000456915
30
0.0000000000
10
22.5000000000
20
-22.2518049202
30
0.0000000000
10
22.4718868577
20
-22.3573051469
30
0.0000000000
10
22.3573049799
20
-22.4718869272
30
0.0000000000
10
22.2518048410
20
-22.5000000000
30
0.0000000000
10
22.2000456915
20
-22.5000000000
30
0.0000000000
11
22.5000000000
21
-22.2000456915
31
0.0000000000
11
22.4598147318
21
-22.3500333711
31
0.0000000000
11
22.3500331582
21
-22.4598148547
31
0.0000000000
11
22.2000456915
21
-22.5000000000
31
0.0000000000
0
SPLINE
5
2B6
100
AcDbEntity
8
0
100
AcDbSpline
62
9
6
CONTINUOUS
70
0
71
3
72
12
73
8
74
6
42
0.0000001000
43
0.0000001000
44
0.0000000001
12
-0.4478546725
22
0.6246595759
32
0.0000000000
13
-0.0094267351
23
0.7685600367
33
0.0000000000
40
0.0000000000
40
0.0000000000
40
0.0000000000
40
0.0000000000
40
0.1841446517
40
0.3759377148
40
0.5756839825
40
0.7836506861
40
1.0000000000
40
1.0000000000
40
1.0000000000
40
1.0000000000
10
22.4519954291
20
-23.8853372482
30
0.0000000000
10
22.4245054149
20
-23.8469946749
30
0.0000000000
10
22.3738776511
20
-23.7646560666
30
0.0000000000
10
22.3131746403
20
-23.6298445864
30
0.0000000000
10
22.2673754338
20
-23.4828469019
30
0.0000000000
10
22.2378463376
20
-23.3253661735
30
0.0000000000
10
22.2302466826
20
-23.2166281915
30
0.0000000000
10
22.2295668600
20
-23.1612023793
30
0.0000000000
11
22.4519954291
21
-23.8853372482
31
0.0000000000
11
22.3775437904
21
-23.7649643368
31
0.0000000000
11
22.3167424846
21
-23.6306715529
31
0.0000000000
11
22.2708489278
21
-23.4841628640
31
0.0000000000
11
22.2412404296
21
-23.3270820740
31
0.0000000000
11
22.2295668600
21
-23.1612023793
31
0.0000000000
0
SPLINE
5
2B7
100
AcDbEntity
8
0
100
AcDbSpline
62
9
6
CONTINUOUS
70
0
71
3
72
8
73
4
74
2
42
0.0000001000
43
0.0000001000
44
0.0000000001
12
0.3407462740
22
0.0000001321
32
0.0000000000
13
0.3407465181
23
0.0002134786
33
0.0000000000
40
0.0000000000
40
0.0000000000
40
0.0000000000
40
0.0000000000
40
1.0000000000
40
1.0000000000
40
1.0000000000
40
1.0000000000
10
0.0000000000
20
-24.5093940811
30
0.0000000000
10
0.1135820913
20
-24.5093940370
30
0.0000000000
10
0.2271642401
20
-24.5093587459
30
0.0000000000
10
0.3407464128
20
-24.5092875863
30
0.0000000000
11
0.0000000000
21
-24.5093940811
31
0.0000000000
11
0.3407464128
21
-24.5092875863
31
0.0000000000
0
SPLINE
5
2B8
100
AcDbEntity
8
0
100
AcDbSpline
62
9
6
CONTINUOUS
70
0
71
3
72
8
73
4
74
2
42
0.0000001000
43
0.0000001000
44
0.0000000001
12
1.0160775724
22
0.0006365754
32
0.0000000000
13
1.0160761841
23
0.0025996047
33
0.0000000000
40
0.0000000000
40
0.0000000000
40
0.0000000000
40
0.0000000000
40
1.0000000000
40
1.0000000000
40
1.0000000000
40
1.0000000000
10
0.3407464128
20
-24.5092875863
30
0.0000000000
10
0.6794389369
20
-24.5090753945
30
0.0000000000
10
1.0181316738
20
-24.5085442673
30
0.0000000000
10
1.3568237352
20
-24.5076777324
30
0.0000000000
11
0.3407464128
21
-24.5092875863
31
0.0000000000
11
1.3568237352
21
-24.5076777324
31
0.0000000000
0
SPLINE
5
2B9
100
AcDbEntity
8
0
100
AcDbSpline
62
9
6
CONTINUOUS
70
0
71
3
72
8
73
4
74
2
42
0.0000001000
43
0.0000001000
44
0.0000000001
12
1.3254935394
22
0.0033912410
32
0.0000000000
13
1.3254807261
23
0.0069256815
33
0.0000000000
40
0.0000000000
40
0.0000000000
40
0.0000000000
40
0.0000000000
40
1.0000000000
40
1.0000000000
40
1.0000000000
40
1.0000000000
10
1.3568237352
20
-24.5076777324
30
0.0000000000
10
1.7986549150
20
-24.5065473187
30
0.0000000000
10
2.2404849452
20
-24.5048461159
30
0.0000000000
10
2.6823118539
20
-24.5025375554
30
0.0000000000
11
1.3568237352
21
-24.5076777324
31
0.0000000000
11
2.6823118539
21
-24.5025375554
31
0.0000000000
0
SPLINE
5
2BA
100
AcDbEntity
8
0
100
AcDbSpline
62
9
6
CONTINUOUS
70
0
71
3
72
8
73
4
74
2
42
0.0000001000
43
0.0000001000
44
0.0000000001
12
0.1247754105
22
0.0006519557
32
0.0000000000
13
0.1247752396
23
0.0006843401
33
0.0000000000
40
0.0000000000
40
0.0000000000
40
0.0000000000
40
0.0000000000
40
1.0000000000
40
1.0000000000
40
1.0000000000
40
1.0000000000
10
2.6823118539
20
-24.5025375554
30
0.0000000000
10
2.7239036574
20
-24.5023202368
30
0.0000000000
10
2.7654954333
20
-24.5020975361
30
0.0000000000
10
2.8070871798
20
-24.5018694227
30
0.0000000000
11
2.6823118539
21
-24.5025375554
31
0.0000000000
11
2.8070871798
21
-24.5018694227
31
0.0000000000
0
SPLINE
5
2BB
100
AcDbEntity
8
0
100
AcDbSpline
62
9
6
CONTINUOUS
70
0
71
3
72
8
73
4
74
2
42
0.0000001000
43
0.0000001000
44
0.0000000001
12
1.0829401022
22
0.0059394747
32
0.0000000000
13
1.0829236303
23
0.0084456273
33
0.0000000000
40
0.0000000000
40
0.0000000000
40
0.0000000000
40
0.0000000000
40
1.0000000000
40
1.0000000000
40
1.0000000000
40
1.0000000000
10
2.8070871798
20
-24.5018694227
30
0.0000000000
10
3.1680672138
20
-24.4998895978
30
0.0000000000
10
3.5290450403
20
-24.4975020526
30
0.0000000000
10
3.8900195837
20
-24.4946868435
30
0.0000000000
11
2.8070871798
21
-24.5018694227
31
0.0000000000
11
3.8900195837
21
-24.4946868435
31
0.0000000000
0
SPLINE
5
2BC
100
AcDbEntity
8
0
100
AcDbSpline
62
9
6
CONTINUOUS
70
0
71
3
72
8
73
4
74
2
42
0.0000001000
43
0.0000001000
44
0.0000000001
12
0.0864442338
22
0.0006741711
32
0.0000000000
13
0.0864441066
23
0.0006905520
33
0.0000000000
40
0.0000000000
40
0.0000000000
40
0.0000000000
40
0.0000000000
40
1.0000000000
40
1.0000000000
40
1.0000000000
40
1.0000000000
10
3.8900195837
20
-24.4946868435
30
0.0000000000
10
3.9188343283
20
-24.4944621198
30
0.0000000000
10
3.9476490520
20
-24.4942346710
30
0.0000000000
10
3.9764637542
20
-24.4940044871
30
0.0000000000
11
3.8900195837
21
-24.4946868435
31
0.0000000000
11
3.9764637542
21
-24.4940044871
31
0.0000000000
0
SPLINE
5
2BD
100
AcDbEntity
8
0
100
AcDbSpline
62
9
6
CONTINUOUS
70
0
71
3
72
13
73
9
74
7
42
0.0000001000
43
0.0000001000
44
0.0000000001
12
18.4872316378
22
0.1476838000
32
0.0000000000
13
18.4525113332
23
1.1410305768
33
0.0000000000
40
0.0000000000
40
0.0000000000
40
0.0000000000
40
0.0000000000
40
0.1998468991
40
0.3849169119
40
0.5556669313
40
0.7134608120
40
0.8606242304
40
1.0000000000
40
1.0000000000
40
1.0000000000
40
1.0000000000
10
3.9764637542
20
-24.4940044871
30
0.0000000000
10
5.2080023931
20
-24.4841664372
30
0.0000000000
10
7.5799429037
20
-24.4555943402
30
0.0000000000
10
11.0035788059
20
-24.3835808914
30
0.0000000000
10
14.1673649637
20
-24.2878434632
30
0.0000000000
10
17.0967123655
20
-24.1722276185
30
0.0000000000
10
19.8317698347
20
-24.0395217325
30
0.0000000000
10
21.5947177729
20
-23.9383479198
30
0.0000000000
10
22.4519954291
20
-23.8853372482
30
0.0000000000
11
3.9764637542
21
-24.4940044871
31
0.0000000000
11
7.6709073523
21
-24.4487524069
31
0.0000000000
11
11.0916685140
21
-24.3762573975
31
0.0000000000
11
14.2469975722
21
-24.2804020861
31
0.0000000000
11
17.1619729496
21
-24.1651025125
31
0.0000000000
11
19.8794893724
21
-24.0330822612
31
0.0000000000
11
22.4519954291
21
-23.8853372482
31
0.0000000000
0
SPLINE
5
2BE
100
AcDbEntity
8
0
100
AcDbSpline
62
9
6
CONTINUOUS
70
0
71
3
72
13
73
9
74
7
42
0.0000001000
43
0.0000001000
44
0.0000000001
12
18.4524824071
22
-1.1410288265
32
0.0000000000
13
18.4872026516
23
-0.1476847618
33
0.0000000000
40
0.0000000000
40
0.0000000000
40
0.0000000000
40
0.0000000000
40
0.1393769567
40
0.2865391904
40
0.4443308165
40
0.6150801511
40
0.8001514037
40
1.0000000000
40
1.0000000000
40
1.0000000000
40
1.0000000000
10
-22.4519954430
20
-23.8853372705
30
0.0000000000
10
-21.5947118292
20
-23.9383483123
30
0.0000000000
10
-19.8317666333
20
-24.0395218568
30
0.0000000000
10
-17.0967273155
20
-24.1722268596
30
0.0000000000
10
-14.1674099136
20
-24.2878418168
30
0.0000000000
10
-11.0036392020
20
-24.3835793754
30
0.0000000000
10
-7.5799948006
20
-24.4555935712
30
0.0000000000
10
-5.2080399117
20
-24.4841660576
30
0.0000000000
10
-3.9764927451
20
-24.4940042551
30
0.0000000000
11
-22.4519954430
21
-23.8853372705
31
0.0000000000
11
-19.8794715024
21
-24.0330831990
31
0.0000000000
11
-17.1619812148
21
-24.1651021481
31
0.0000000000
11
-14.2470520671
21
-24.2804001870
31
0.0000000000
11
-11.0917406264
21
-24.3762555507
31
0.0000000000
11
-7.6709619224
21
-24.4487515049
31
0.0000000000
11
-3.9764927451
21
-24.4940042551
31
0.0000000000
0
SPLINE
5
2BF
100
AcDbEntity
8
0
100
AcDbSpline
62
9
6
CONTINUOUS
70
0
71
3
72
8
73
4
74
2
42
0.0000001000
43
0.0000001000
44
0.0000000001
12
1.2941485863
22
-0.0103382880
32
0.0000000000
13
1.2941719478
23
-0.0067621488
33
0.0000000000
40
0.0000000000
40
0.0000000000
40
0.0000000000
40
0.0000000000
40
1.0000000000
40
1.0000000000
40
1.0000000000
40
1.0000000000
10
-3.9764927451
20
-24.4940042551
30
0.0000000000
10
-3.5451098830
20
-24.4974503511
30
0.0000000000
10
-3.1137222096
20
-24.5002834055
30
0.0000000000
10
-2.6823315603
20
-24.5025374551
30
0.0000000000
11
-3.9764927451
21
-24.4940042551
31
0.0000000000
11
-2.6823315603
21
-24.5025374551
31
0.0000000000
0
SPLINE
5
2C0
100
AcDbEntity
8
0
100
AcDbSpline
62
9
6
CONTINUOUS
70
0
71
3
72
8
73
4
74
2
42
0.0000001000
43
0.0000001000
44
0.0000000001
12
0.5617235896
22
-0.0029350493
32
0.0000000000
13
0.5617265031
23
-0.0022889214
33
0.0000000000
40
0.0000000000
40
0.0000000000
40
0.0000000000
40
0.0000000000
40
1.0000000000
40
1.0000000000
40
1.0000000000
40
1.0000000000
10
-2.6823315603
20
-24.5025374551
30
0.0000000000
10
-2.4950903638
20
-24.5035158049
30
0.0000000000
10
-2.3078486067
20
-24.5043850751
30
0.0000000000
10
-2.1206064390
20
-24.5051480488
30
0.0000000000
11
-2.6823315603
21
-24.5025374551
31
0.0000000000
11
-2.1206064390
21
-24.5051480488
31
0.0000000000
0
SPLINE
5
2C1
100
AcDbEntity
8
0
100
AcDbSpline
62
9
6
CONTINUOUS
70
0
71
3
72
8
73
4
74
2
42
0.0000001000
43
0.0000001000
44
0.0000000001
12
0.6789898775
22
-0.0027667458
32
0.0000000000
13
0.6789926813
23
-0.0018496407
33
0.0000000000
40
0.0000000000
40
0.0000000000
40
0.0000000000
40
0.0000000000
40
1.0000000000
40
1.0000000000
40
1.0000000000
40
1.0000000000
10
-2.1206064390
20
-24.5051480488
30
0.0000000000
10
-1.8942764798
20
-24.5060702974
30
0.0000000000
10
-1.6679459208
20
-24.5068372375
30
0.0000000000
10
-1.4416150271
20
-24.5074537844
30
0.0000000000
11
-2.1206064390
21
-24.5051480488
31
0.0000000000
11
-1.4416150271
21
-24.5074537844
31
0.0000000000
0
SPLINE
5
2C2
100
AcDbEntity
8
0
100
AcDbSpline
62
9
6
CONTINUOUS
70
0
71
3
72
8
73
4
74
2
42
0.0000001000
43
0.0000001000
44
0.0000000001
12
0.0847812340
22
-0.0002309522
32
0.0000000000
13
0.0847812637
23
-0.0002169123
33
0.0000000000
40
0.0000000000
40
0.0000000000
40
0.0000000000
40
0.0000000000
40
1.0000000000
40
1.0000000000
40
1.0000000000
40
1.0000000000
10
-1.4416150271
20
-24.5074537844
30
0.0000000000
10
-1.4133546157
20
-24.5075307685
30
0.0000000000
10
-1.3850941992
20
-24.5076054078
30
0.0000000000
10
-1.3568337780
20
-24.5076777119
30
0.0000000000
11
-1.4416150271
21
-24.5074537844
31
0.0000000000
11
-1.3568337780
21
-24.5076777119
31
0.0000000000
0
SPLINE
5
2C3
100
AcDbEntity
8
0
100
AcDbSpline
62
9
6
CONTINUOUS
70
0
71
3
72
8
73
4
74
2
42
0.0000001000
43
0.0000001000
44
0.0000000001
12
0.6253910628
22
-0.0016000591
32
0.0000000000
13
0.6253919769
23
-0.0008491931
33
0.0000000000
40
0.0000000000
40
0.0000000000
40
0.0000000000
40
0.0000000000
40
1.0000000000
40
1.0000000000
40
1.0000000000
40
1.0000000000
10
-1.3568337780
20
-24.5076777119
30
0.0000000000
10
-1.1483700903
20
-24.5082110649
30
0.0000000000
10
-0.9399061468
20
-24.5086173532
30
0.0000000000
10
-0.7314421545
20
-24.5089004176
30
0.0000000000
11
-1.3568337780
21
-24.5076777119
31
0.0000000000
11
-0.7314421545
21
-24.5089004176
31
0.0000000000
0
SPLINE
5
2C4
100
AcDbEntity
8
0
100
AcDbSpline
62
9
6
CONTINUOUS
70
0
71
3
72
8
73
4
74
2
42
0.0000001000
43
0.0000001000
44
0.0000000001
12
0.3629997508
22
-0.0004929019
32
0.0000000000
13
0.3629997279
23
-0.0002460661
33
0.0000000000
40
0.0000000000
40
0.0000000000
40
0.0000000000
40
0.0000000000
40
1.0000000000
40
1.0000000000
40
1.0000000000
40
1.0000000000
10
-0.7314421545
20
-24.5089004176
30
0.0000000000
10
-0.6104422376
20
-24.5090647182
30
0.0000000000
10
-0.4894423042
20
-24.5091875040
30
0.0000000000
10
-0.3684423949
20
-24.5092695261
30
0.0000000000
11
-0.7314421545
21
-24.5089004176
31
0.0000000000
11
-0.3684423949
21
-24.5092695261
31
0.0000000000
0
SPLINE
5
2C5
100
AcDbEntity
8
0
100
AcDbSpline
62
9
6
CONTINUOUS
70
0
71
3
72
8
73
4
74
2
42
0.0000001000
43
0.0000001000
44
0.0000000001
12
0.3684425117
22
-0.0002497556
32
0.0000000000
13
0.3684422359
23
-0.0000001397
33
0.0000000000
40
0.0000000000
40
0.0000000000
40
0.0000000000
40
0.0000000000
40
1.0000000000
40
1.0000000000
40
1.0000000000
40
1.0000000000
10
-0.3684423949
20
-24.5092695261
30
0.0000000000
10
-0.2456282244
20
-24.5093527780
30
0.0000000000
10
-0.1228140786
20
-24.5093940345
30
0.0000000000
10
0.0000000000
20
-24.5093940811
30
0.0000000000
11
-0.3684423949
21
-24.5092695261
31
0.0000000000
11
0.0000000000
21
-24.5093940811
31
0.0000000000
0
SPLINE
5
2C6
100
AcDbEntity
8
0
100
AcDbSpline
62
9
6
CONTINUOUS
70
0
71
3
72
12
73
8
74
6
42
0.0000001000
43
0.0000001000
44
0.0000000001
12
0.4476252632
22
0.6248124791
32
0.0000000000
13
0.0094350540
23
0.7685505774
33
0.0000000000
40
0.0000000000
40
0.0000000000
40
0.0000000000
40
0.0000000000
40
0.1640304043
40
0.3424337146
40
0.5379034941
40
0.7504177342
40
1.0000000000
40
1.0000000000
40
1.0000000000
40
1.0000000000
10
-22.4519954430
20
-23.8853372705
30
0.0000000000
10
-22.4275207253
20
-23.8511745226
30
0.0000000000
10
-22.3808423655
20
-23.7765995970
30
0.0000000000
10
-22.3219315745
20
-23.6516821072
30
0.0000000000
10
-22.2740760579
20
-23.5088958922
30
0.0000000000
10
-22.2396772211
20
-23.3435989270
30
0.0000000000
10
-22.2303518007
20
-23.2251412443
30
0.0000000000
10
-22.2295668600
20
-23.1612023794
30
0.0000000000
11
-22.4519954430
21
-23.8853372705
31
0.0000000000
11
-22.3849068910
21
-23.7785942497
31
0.0000000000
11
-22.3261765262
21
-23.6546859405
31
0.0000000000
11
-22.2782109182
21
-23.5123087038
31
0.0000000000
11
-22.2447566768
21
-23.3524310921
31
0.0000000000
11
-22.2295668600
21
-23.1612023794
31
0.0000000000
0
SPLINE
5
2C7
100
AcDbEntity
8
0
100
AcDbSpline
62
9
6
CONTINUOUS
70
0
71
3
72
10
73
6
74
4
42
0.0000001000
43
0.0000001000
44
0.0000000001
12
36.2433870456
22
2.0496080963
32
0.0000000000
13
36.3012947136
23
0.0000318855
33
0.0000000000
40
0.0000000000
40
0.0000000000
40
0.0000000000
40
0.0000000000
40
0.3361824492
40
0.6613596618
40
1.0000000000
40
1.0000000000
40
1.0000000000
40
1.0000000000
10
-36.2823694655
20
38.6233310657
30
0.0000000000
10
-32.2209059244
20
38.8530118223
30
0.0000000000
10
-24.2264482204
20
39.2292677952
30
0.0000000000
10
-12.1303987541
20
39.5758670442
30
0.0000000000
10
-4.0976942394
20
39.6549418216
30
0.0000000000
10
0.0000000000
20
39.6549454208
30
0.0000000000
11
-36.2823694655
21
38.6233310657
31
0.0000000000
11
-24.0920273671
21
39.1975380277
31
0.0000000000
11
-12.2924972051
21
39.5349655174
31
0.0000000000
11
0.0000000000
21
39.6549454208
31
0.0000000000
0
SPLINE
5
2C8
100
AcDbEntity
8
0
100
AcDbSpline
62
9
6
CONTINUOUS
70
0
71
3
72
10
73
6
74
4
42
0.0000001000
43
0.0000001000
44
0.0000000001
12
0.2637110144
22
-0.2626215739
32
0.0000000000
13
0.2637113209
23
-0.2626212661
33
0.0000000000
40
0.0000000000
40
0.0000000000
40
0.0000000000
40
0.0000000000
40
0.3332697751
40
0.6666059328
40
1.0000000000
40
1.0000000000
40
1.0000000000
40
1.0000000000
10
-36.5460807167
20
38.8859524018
30
0.0000000000
10
-36.5167850799
20
38.8567777909
30
0.0000000000
10
-36.4581879485
20
38.7984227804
30
0.0000000000
10
-36.3702842760
20
38.7108822567
30
0.0000000000
10
-36.3116760621
20
38.6525165230
30
0.0000000000
10
-36.2823694655
20
38.6233310657
30
0.0000000000
11
-36.5460807167
21
38.8859524018
31
0.0000000000
11
-36.4581937892
21
38.7984285860
31
0.0000000000
11
-36.3702893219
21
38.7108873710
31
0.0000000000
11
-36.2823694655
21
38.6233310657
31
0.0000000000
0
SPLINE
5
2C9
100
AcDbEntity
8
0
100
AcDbSpline
62
9
6
CONTINUOUS
70
0
71
3
72
10
73
6
74
4
42
0.0000001000
43
0.0000001000
44
0.0000000001
12
-0.2637110158
22
-0.2626215754
32
0.0000000000
13
-0.2637113223
23
-0.2626212676
33
0.0000000000
40
0.0000000000
40
0.0000000000
40
0.0000000000
40
0.0000000000
40
0.3332702938
40
0.6666069705
40
1.0000000000
40
1.0000000000
40
1.0000000000
40
1.0000000000
10
36.5460807167
20
38.8859524018
30
0.0000000000
10
36.5167850341
20
38.8567777453
30
0.0000000000
10
36.4581878110
20
38.7984226438
30
0.0000000000
10
36.3702841390
20
38.7108821187
30
0.0000000000
10
36.3116759680
20
38.6525164325
30
0.0000000000
10
36.2823694624
20
38.6233310659
30
0.0000000000
11
36.5460807167
21
38.8859524018
31
0.0000000000
11
36.4581936519
21
38.7984284493
31
0.0000000000
11
36.3702890472
21
38.7108870975
31
0.0000000000
11
36.2823694624
21
38.6233310659
31
0.0000000000
0
SPLINE
5
2CA
100
AcDbEntity
8
0
100
AcDbSpline
62
9
6
CONTINUOUS
70
0
71
3
72
10
73
6
74
4
42
0.0000001000
43
0.0000001000
44
0.0000000001
12
36.3012948445
22
-0.0000314245
32
0.0000000000
13
36.2433880257
23
-2.0495930827
33
0.0000000000
40
0.0000000000
40
0.0000000000
40
0.0000000000
40
0.0000000000
40
0.3375136443
40
0.6631085626
40
1.0000000000
40
1.0000000000
40
1.0000000000
40
1.0000000000
10
0.0000000000
20
39.6549454208
30
0.0000000000
10
4.0840607716
20
39.6549418854
30
0.0000000000
10
12.1081840785
20
39.5762133736
30
0.0000000000
10
24.2042537877
20
39.2302368668
30
0.0000000000
10
32.2123404333
20
38.8534945191
30
0.0000000000
10
36.2823694624
20
38.6233310659
30
0.0000000000
11
0.0000000000
21
39.6549454208
31
0.0000000000
11
12.2516025919
21
39.5357590012
31
0.0000000000
11
24.0663072829
21
39.1985079481
31
0.0000000000
11
36.2823694624
21
38.6233310659
31
0.0000000000
0
SPLINE
5
2CB
100
AcDbEntity
8
0
100
AcDbSpline
62
9
6
CONTINUOUS
70
0
71
3
72
10
73
6
74
4
42
0.0000001000
43
0.0000001000
44
0.0000000001
12
-0.2620701163
22
0.2631572692
32
0.0000000000
13
-0.2620698100
23
0.2631575742
33
0.0000000000
40
0.0000000000
40
0.0000000000
40
0.0000000000
40
0.0000000000
40
0.3332710557
40
0.6666083555
40
1.0000000000
40
1.0000000000
40
1.0000000000
40
1.0000000000
10
38.8859524018
20
-36.5460807167
30
0.0000000000
10
38.8568389404
20
-36.5168464830
30
0.0000000000
10
38.7986064076
20
-36.4583720287
30
0.0000000000
10
38.7112490077
20
-36.3706536305
30
0.0000000000
10
38.6530076431
20
-36.3121669028
30
0.0000000000
10
38.6238836815
20
-36.2829220573
30
0.0000000000
11
38.8859524018
21
-36.5460807167
31
0.0000000000
11
38.7986120345
21
-36.4583779988
31
0.0000000000
11
38.7112543407
21
-36.3706578144
31
0.0000000000
11
38.6238836815
21
-36.2829220573
31
0.0000000000
0
SPLINE
5
2CC
100
AcDbEntity
8
0
100
AcDbSpline
62
9
6
CONTINUOUS
70
0
71
3
72
10
73
6
74
4
42
0.0000001000
43
0.0000001000
44
0.0000000001
12
0.2620703919
22
-0.2631575458
32
0.0000000000
13
0.2620700856
23
-0.2631578509
33
0.0000000000
40
0.0000000000
40
0.0000000000
40
0.0000000000
40
0.0000000000
40
0.3332706925
40
0.6666076286
40
1.0000000000
40
1.0000000000
40
1.0000000000
40
1.0000000000
10
-38.8859524018
20
36.5460807167
30
0.0000000000
10
-38.8568389415
20
36.5168464842
30
0.0000000000
10
-38.7986064522
20
36.4583719910
30
0.0000000000
10
-38.7112487749
20
36.3706536854
30
0.0000000000
10
-38.6530077712
20
36.3121664125
30
0.0000000000
10
-38.6238837154
20
36.2829214725
30
0.0000000000
11
-38.8859524018
21
36.5460807167
31
0.0000000000
11
-38.7986120379
21
36.4583780022
31
0.0000000000
11
-38.7112543475
21
36.3706578213
31
0.0000000000
11
-38.6238837154
21
36.2829214725
31
0.0000000000
0
SPLINE
5
2CD
100
AcDbEntity
8
0
100
AcDbSpline
62
9
6
CONTINUOUS
70
0
71
3
72
10
73
6
74
4
42
0.0000001000
43
0.0000001000
44
0.0000000001
12
-4.1348311879
22
72.4828922369
32
0.0000000000
13
4.1348244016
23
72.4828926241
33
0.0000000000
40
0.0000000000
40
0.0000000000
40
0.0000000000
40
0.0000000000
40
0.3204030576
40
0.6788998849
40
1.0000000000
40
1.0000000000
40
1.0000000000
40
1.0000000000
10
-38.6238836996
20
-36.2829217439
30
0.0000000000
10
-39.0654878847
20
-28.5416749779
30
0.0000000000
10
-39.7018838408
20
-12.1202214261
30
0.0000000000
10
-39.7028464402
20
12.0864737027
30
0.0000000000
10
-39.0664479125
20
28.5248330850
30
0.0000000000
10
-38.6238837154
20
36.2829214725
30
0.0000000000
11
-38.6238836996
21
-36.2829217439
31
0.0000000000
11
-39.5245750787
21
-13.0388688104
31
0.0000000000
11
-39.5256092048
21
12.9882637671
31
0.0000000000
11
-38.6238837154
21
36.2829214725
31
0.0000000000
0
SPLINE
5
2CE
100
AcDbEntity
8
0
100
AcDbSpline
62
9
6
CONTINUOUS
70
0
71
3
72
10
73
6
74
4
42
0.0000001000
43
0.0000001000
44
0.0000000001
12
0.2620702640
22
0.2631574174
32
0.0000000000
13
0.2620699577
23
0.2631577225
33
0.0000000000
40
0.0000000000
40
0.0000000000
40
0.0000000000
40
0.0000000000
40
0.3332705122
40
0.6666072676
40
1.0000000000
40
1.0000000000
40
1.0000000000
40
1.0000000000
10
-38.8859524018
20
-36.5460807167
30
0.0000000000
10
-38.8568389715
20
-36.5168465142
30
0.0000000000
10
-38.7986065230
20
-36.4583721003
30
0.0000000000
10
-38.7112489745
20
-36.3706537517
30
0.0000000000
10
-38.6530077727
20
-36.3121667013
30
0.0000000000
10
-38.6238836996
20
-36.2829217439
30
0.0000000000
11
-38.8859524018
21
-36.5460807167
31
0.0000000000
11
-38.7986121277
21
-36.4583780924
31
0.0000000000
11
-38.7112545273
21
-36.3706580019
31
0.0000000000
11
-38.6238836996
21
-36.2829217439
31
0.0000000000
0
SPLINE
5
2CF
100
AcDbEntity
8
0
100
AcDbSpline
62
9
6
CONTINUOUS
70
0
71
3
72
10
73
6
74
4
42
0.0000001000
43
0.0000001000
44
0.0000000001
12
4.1348389481
22
-72.4829305640
32
0.0000000000
13
-4.1348421796
23
-72.4829303797
33
0.0000000000
40
0.0000000000
40
0.0000000000
40
0.0000000000
40
0.0000000000
40
0.3332700835
40
0.6667293507
40
1.0000000000
40
1.0000000000
40
1.0000000000
40
1.0000000000
10
38.6238836882
20
36.2829219416
30
0.0000000000
10
39.0832230621
20
28.2307911670
30
0.0000000000
10
39.6963966002
20
12.1027675376
30
0.0000000000
10
39.6963971794
20
-12.1027402540
30
0.0000000000
10
39.0832241942
20
-28.2307776330
30
0.0000000000
10
38.6238836815
20
-36.2829220573
30
0.0000000000
11
38.6238836882
21
36.2829219416
31
0.0000000000
11
39.5430163062
21
12.1047206173
31
0.0000000000
11
39.5430170910
21
-12.1046796564
31
0.0000000000
11
38.6238836815
21
-36.2829220573
31
0.0000000000
0
SPLINE
5
2D0
100
AcDbEntity
8
0
100
AcDbSpline
62
9
6
CONTINUOUS
70
0
71
3
72
10
73
6
74
4
42
0.0000001000
43
0.0000001000
44
0.0000000001
12
-0.2620701708
22
-0.2631573239
32
0.0000000000
13
-0.2620698645
23
-0.2631576290
33
0.0000000000
40
0.0000000000
40
0.0000000000
40
0.0000000000
40
0.0000000000
40
0.3332706353
40
0.6666075142
40
1.0000000000
40
1.0000000000
40
1.0000000000
40
1.0000000000
10
38.8859524018
20
36.5460807167
30
0.0000000000
10
38.8568389711
20
36.5168465138
30
0.0000000000
10
38.7986065078
20
36.4583721130
30
0.0000000000
10
38.7112490531
20
36.3706537331
30
0.0000000000
10
38.6530077294
20
36.3121668670
30
0.0000000000
10
38.6238836882
20
36.2829219416
30
0.0000000000
11
38.8859524018
21
36.5460807167
31
0.0000000000
11
38.7986121265
21
36.4583780912
31
0.0000000000
11
38.7112545248
21
36.3706579993
31
0.0000000000
11
38.6238836882
21
36.2829219416
31
0.0000000000
0
SPLINE
5
2D1
100
AcDbEntity
8
0
100
AcDbSpline
62
9
6
CONTINUOUS
70
0
71
3
72
10
73
6
74
4
42
0.0000001000
43
0.0000001000
44
0.0000000001
12
-36.2433870456
22
-2.0496080963
32
0.0000000000
13
-36.3012947136
23
-0.0000318855
33
0.0000000000
40
0.0000000000
40
0.0000000000
40
0.0000000000
40
0.0000000000
40
0.3361824499
40
0.6613596625
40
1.0000000000
40
1.0000000000
40
1.0000000000
40
1.0000000000
10
36.2823694655
20
-38.6233310657
30
0.0000000000
10
32.2209059162
20
-38.8530118227
30
0.0000000000
10
24.2264482045
20
-39.2292677959
30
0.0000000000
10
12.1303987382
20
-39.5758670444
30
0.0000000000
10
4.0976942317
20
-39.6549418216
30
0.0000000000
10
0.0000000000
20
-39.6549454208
30
0.0000000000
11
36.2823694655
21
-38.6233310657
31
0.0000000000
11
24.0920273425
21
-39.1975380286
31
0.0000000000
11
12.2924971821
21
-39.5349655178
31
0.0000000000
11
0.0000000000
21
-39.6549454208
31
0.0000000000
0
SPLINE
5
2D2
100
AcDbEntity
8
0
100
AcDbSpline
62
9
6
CONTINUOUS
70
0
71
3
72
10
73
6
74
4
42
0.0000001000
43
0.0000001000
44
0.0000000001
12
-0.2637110144
22
0.2626215739
32
0.0000000000
13
-0.2637113209
23
0.2626212661
33
0.0000000000
40
0.0000000000
40
0.0000000000
40
0.0000000000
40
0.0000000000
40
0.3332697747
40
0.6666059324
40
1.0000000000
40
1.0000000000
40
1.0000000000
40
1.0000000000
10
36.5460807167
20
-38.8859524018
30
0.0000000000
10
36.5167850799
20
-38.8567777909
30
0.0000000000
10
36.4581879485
20
-38.7984227804
30
0.0000000000
10
36.3702842761
20
-38.7108822568
30
0.0000000000
10
36.3116760622
20
-38.6525165231
30
0.0000000000
10
36.2823694655
20
-38.6233310657
30
0.0000000000
11
36.5460807167
21
-38.8859524018
31
0.0000000000
11
36.4581937893
21
-38.7984285862
31
0.0000000000
11
36.3702893220
21
-38.7108873711
31
0.0000000000
11
36.2823694655
21
-38.6233310657
31
0.0000000000
0
SPLINE
5
2D3
100
AcDbEntity
8
0
100
AcDbSpline
62
9
6
CONTINUOUS
70
0
71
3
72
10
73
6
74
4
42
0.0000001000
43
0.0000001000
44
0.0000000001
12
0.2637110158
22
0.2626215754
32
0.0000000000
13
0.2637113223
23
0.2626212676
33
0.0000000000
40
0.0000000000
40
0.0000000000
40
0.0000000000
40
0.0000000000
40
0.3332702943
40
0.6666069710
40
1.0000000000
40
1.0000000000
40
1.0000000000
40
1.0000000000
10
-36.5460807167
20
-38.8859524018
30
0.0000000000
10
-36.5167850341
20
-38.8567777453
30
0.0000000000
10
-36.4581878109
20
-38.7984226438
30
0.0000000000
10
-36.3702841389
20
-38.7108821186
30
0.0000000000
10
-36.3116759679
20
-38.6525164325
30
0.0000000000
10
-36.2823694624
20
-38.6233310659
30
0.0000000000
11
-36.5460807167
21
-38.8859524018
31
0.0000000000
11
-36.4581936518
21
-38.7984284492
31
0.0000000000
11
-36.3702890471
21
-38.7108870973
31
0.0000000000
11
-36.2823694624
21
-38.6233310659
31
0.0000000000
0
SPLINE
5
2D4
100
AcDbEntity
8
0
100
AcDbSpline
62
9
6
CONTINUOUS
70
0
71
3
72
10
73
6
74
4
42
0.0000001000
43
0.0000001000
44
0.0000000001
12
-0.0369690691
22
-45.9782485006
32
0.0000000000
13
0.0369690633
23
-45.9782485006
33
0.0000000000
40
0.0000000000
40
0.0000000000
40
0.0000000000
40
0.0000000000
40
0.3332907614
40
0.6667000366
40
1.0000000000
40
1.0000000000
40
1.0000000000
40
1.0000000000
10
-22.5295211694
20
22.9891295155
30
0.0000000000
10
-22.5336283191
20
17.8810876987
30
0.0000000000
10
-22.5391010364
20
7.6631852876
30
0.0000000000
10
-22.5391011504
20
-7.6629031588
30
0.0000000000
10
-22.5336284310
20
-17.8809466004
30
0.0000000000
10
-22.5295211685
20
-22.9891294478
30
0.0000000000
11
-22.5295211694
21
22.9891295155
31
0.0000000000
11
-22.5377323896
21
7.6650013114
31
0.0000000000
11
-22.5377325029
21
-7.6645781519
31
0.0000000000
11
-22.5295211685
21
-22.9891294478
31
0.0000000000
0
SPLINE
5
2D5
100
AcDbEntity
8
0
100
AcDbSpline
62
9
6
CONTINUOUS
70
0
71
3
72
10
73
6
74
4
42
0.0000001000
43
0.0000001000
44
0.0000000001
12
-36.3012948445
22
0.0000314245
32
0.0000000000
13
-36.2433880257
23
2.0495930827
33
0.0000000000
40
0.0000000000
40
0.0000000000
40
0.0000000000
40
0.0000000000
40
0.3375136442
40
0.6631085627
40
1.0000000000
40
1.0000000000
40
1.0000000000
40
1.0000000000
10
0.0000000000
20
-39.6549454208
30
0.0000000000
10
-4.0840607703
20
-39.6549418854
30
0.0000000000
10
-12.1081840781
20
-39.5762133736
30
0.0000000000
10
-24.2042537873
20
-39.2302368668
30
0.0000000000
10
-32.2123404342
20
-38.8534945190
30
0.0000000000
10
-36.2823694624
20
-38.6233310659
30
0.0000000000
11
0.0000000000
21
-39.6549454208
31
0.0000000000
11
-12.2516025882
21
-39.5357590013
31
0.0000000000
11
-24.0663072855
21
-39.1985079480
31
0.0000000000
11
-36.2823694624
21
-38.6233310659
31
0.0000000000
0
SPLINE
5
2D6
100
AcDbEntity
8
0
100
AcDbSpline
62
9
6
CONTINUOUS
70
0
71
3
72
12
73
8
74
6
42
0.0000001000
43
0.0000001000
44
0.0000000001
12
0.4475662964
22
-0.6248658981
32
0.0000000000
13
0.0094365743
23
-0.7685596472
33
0.0000000000
40
0.0000000000
40
0.0000000000
40
0.0000000000
40
0.0000000000
40
0.1764594523
40
0.3626827981
40
0.5611808124
40
0.7735733666
40
1.0000000000
40
1.0000000000
40
1.0000000000
40
1.0000000000
10
-22.4519954333
20
23.8853372807
30
0.0000000000
10
-22.4256696654
20
23.8485827827
30
0.0000000000
10
-22.3765759030
20
23.7693351009
30
0.0000000000
10
-22.3165254901
20
23.6383317531
30
0.0000000000
10
-22.2696960745
20
23.4923062821
30
0.0000000000
10
-22.2384402700
20
23.3316732429
30
0.0000000000
10
-22.2302790910
20
23.2192098670
30
0.0000000000
10
-22.2295668604
20
23.1612024092
30
0.0000000000
11
-22.4519954333
21
23.8853372807
31
0.0000000000
11
-22.3803320229
21
23.7701860401
31
0.0000000000
11
-22.3204152840
21
23.6401957326
31
0.0000000000
11
-22.2736034378
21
23.4949856433
31
0.0000000000
11
-22.2422582574
21
23.3347745278
31
0.0000000000
11
-22.2295668604
21
23.1612024092
31
0.0000000000
0
SPLINE
5
2D7
100
AcDbEntity
8
0
100
AcDbSpline
62
9
6
CONTINUOUS
70
0
71
3
72
14
73
10
74
8
42
0.0000001000
43
0.0000001000
44
0.0000000001
12
-22.4642496274
22
-0.0000087077
32
0.0000000000
13
-22.4214241471
23
-1.3864525020
33
0.0000000000
40
0.0000000000
40
0.0000000000
40
0.0000000000
40
0.0000000000
40
0.1770142380
40
0.3414853181
40
0.4937952400
40
0.6343200194
40
0.7641820874
40
0.8852954388
40
1.0000000000
40
1.0000000000
40
1.0000000000
40
1.0000000000
10
-0.0000000000
20
24.5093940811
30
0.0000000000
10
-1.3254973434
20
24.5093935673
30
0.0000000000
10
-3.8825829084
20
24.5001322632
30
0.0000000000
10
-7.5799401322
20
24.4555943816
30
0.0000000000
10
-11.0035748808
20
24.3835809884
30
0.0000000000
10
-14.1673600386
20
24.2878436299
30
0.0000000000
10
-17.0967065504
20
24.1722278757
30
0.0000000000
10
-19.8317656757
20
24.0395219447
30
0.0000000000
10
-21.5947155606
20
23.9383480894
30
0.0000000000
10
-22.4519954333
20
23.8853372807
30
0.0000000000
11
-0.0000000000
21
24.5093940811
31
0.0000000000
11
-3.9764622501
21
24.4940044991
31
0.0000000000
11
-7.6709045224
21
24.4487524542
31
0.0000000000
11
-11.0916645344
21
24.3762575003
31
0.0000000000
11
-14.2469926078
21
24.2804022600
31
0.0000000000
11
-17.1619671201
21
24.1651027699
31
0.0000000000
11
-19.8794827221
21
24.0330826142
31
0.0000000000
11
-22.4519954333
21
23.8853372807
31
0.0000000000
0
SPLINE
5
2D8
100
AcDbEntity
8
0
100
AcDbSpline
62
9
6
CONTINUOUS
70
0
71
3
72
14
73
10
74
8
42
0.0000001000
43
0.0000001000
44
0.0000000001
12
-22.4214241304
22
1.3864525475
32
0.0000000000
13
-22.4642496136
23
0.0000085166
33
0.0000000000
40
0.0000000000
40
0.0000000000
40
0.0000000000
40
0.0000000000
40
0.1147049095
40
0.2358171465
40
0.3656772103
40
0.5062012702
40
0.6585120514
40
0.8229843631
40
1.0000000000
40
1.0000000000
40
1.0000000000
40
1.0000000000
10
22.4519954178
20
23.8853372559
30
0.0000000000
10
21.5947129426
20
23.9383482272
30
0.0000000000
10
19.8317687855
20
24.0395217465
30
0.0000000000
10
17.0967303852
20
24.1722267237
30
0.0000000000
10
14.1674126094
20
24.2878417252
30
0.0000000000
10
11.0036414279
20
24.3835793202
30
0.0000000000
10
7.5799964262
20
24.4555935468
30
0.0000000000
10
3.8826130783
20
24.5001321097
30
0.0000000000
10
1.3255078175
20
24.5093935785
30
0.0000000000
10
-0.0000000000
20
24.5093940811
30
0.0000000000
11
22.4519954178
21
23.8853372559
31
0.0000000000
11
19.8794748956
21
24.0330830189
31
0.0000000000
11
17.1619843029
21
24.1651020117
31
0.0000000000
11
14.2470547944
21
24.2804000914
31
0.0000000000
11
11.0917428975
21
24.3762554920
31
0.0000000000
11
7.6709636012
21
24.4487514768
31
0.0000000000
11
3.9764936716
21
24.4940042477
31
0.0000000000
11
-0.0000000000
21
24.5093940811
31
0.0000000000
0
SPLINE
5
2D9
100
AcDbEntity
8
0
100
AcDbSpline
62
9
6
CONTINUOUS
70
0
71
3
72
15
73
11
74
9
42
0.0000001000
43
0.0000001000
44
0.0000000001
12
0.0094139120
22
0.7688403871
32
0.0000000000
13
0.4479460495
23
0.6249387964
33
0.0000000000
40
0.0000000000
40
0.0000000000
40
0.0000000000
40
0.0000000000
40
0.1623242527
40
0.3108181198
40
0.4485312368
40
0.5769944680
40
0.6953872357
40
0.8031003226
40
0.9030317218
40
1.0000000000
40
1.0000000000
40
1.0000000000
40
1.0000000000
10
22.2295668604
20
23.1612024094
30
0.0000000000
10
22.2300762291
20
23.2028028898
30
0.0000000000
10
22.2345018906
20
23.2824633281
30
0.0000000000
10
22.2505092250
20
23.3964217197
30
0.0000000000
10
22.2736292102
20
23.5002681567
30
0.0000000000
10
22.3024066817
20
23.5946374193
30
0.0000000000
10
22.3353705997
20
23.6794122941
30
0.0000000000
10
22.3712407895
20
23.7549637767
30
0.0000000000
10
22.4096352685
20
23.8230110866
30
0.0000000000
10
22.4375165654
20
23.8651375095
30
0.0000000000
10
22.4519954178
20
23.8853372559
30
0.0000000000
11
22.2295668604
21
23.1612024094
31
0.0000000000
11
22.2365171763
21
23.2858195349
31
0.0000000000
11
22.2524399896
21
23.3988804440
31
0.0000000000
11
22.2755040431
21
23.5022253945
31
0.0000000000
11
22.3043728546
21
23.5966876452
31
0.0000000000
11
22.3374204323
21
23.6815090822
31
0.0000000000
11
22.3729923087
21
23.7563011726
31
0.0000000000
11
22.4107978142
21
23.8231941972
31
0.0000000000
11
22.4519954178
21
23.8853372559
31
0.0000000000
0
SPLINE
5
2DA
100
AcDbEntity
8
0
100
AcDbSpline
62
9
6
CONTINUOUS
70
0
71
3
72
10
73
6
74
4
42
0.0000001000
43
0.0000001000
44
0.0000000001
12
36.3264288321
22
-0.0000586162
32
0.0000000000
13
36.2684749662
23
-2.0511351294
33
0.0000000000
40
0.0000000000
40
0.0000000000
40
0.0000000000
40
0.0000000000
40
0.3373242492
40
0.6629831793
40
1.0000000000
40
1.0000000000
40
1.0000000000
40
1.0000000000
10
0.0000000000
20
38.5491646150
30
0.0000000000
10
4.0845951107
20
38.5491580242
30
0.0000000000
10
12.1127555448
20
38.4703145796
30
0.0000000000
10
24.2171972587
20
38.1241195976
30
0.0000000000
10
32.2331385301
20
37.7473901879
30
0.0000000000
10
36.3075005717
20
37.5169678412
30
0.0000000000
11
0.0000000000
21
38.5491646150
31
0.0000000000
11
12.2532051242
21
38.4299205458
31
0.0000000000
11
24.0784173507
21
38.0924746690
31
0.0000000000
11
36.3075005717
21
37.5169678412
31
0.0000000000
0
SPLINE
5
2DB
100
AcDbEntity
8
0
100
AcDbSpline
62
9
6
CONTINUOUS
70
0
71
3
72
10
73
6
74
4
42
0.0000001000
43
0.0000001000
44
0.0000000001
12
1.8675572260
22
-0.1044763603
32
0.0000000000
13
0.1045033060
23
-1.8675557184
33
0.0000000000
40
0.0000000000
40
0.0000000000
40
0.0000000000
40
0.0000000000
40
0.3340742979
40
0.6659928484
40
1.0000000000
40
1.0000000000
40
1.0000000000
40
1.0000000000
10
36.3075005717
20
37.5169678412
30
0.0000000000
10
36.5154681948
20
37.5053335523
30
0.0000000000
10
36.9312847010
20
37.3778276431
30
0.0000000000
10
37.3887387832
20
36.9208886335
30
0.0000000000
10
37.5167887447
20
36.5052094759
30
0.0000000000
10
37.5284236952
20
36.2972838206
30
0.0000000000
11
36.3075005717
21
37.5169678412
31
0.0000000000
11
36.9046616245
21
37.3329252451
31
0.0000000000
11
37.3439147049
21
36.8941694750
31
0.0000000000
11
37.5284236952
21
36.2972838206
31
0.0000000000
0
SPLINE
5
2DC
100
AcDbEntity
8
0
100
AcDbSpline
62
9
6
CONTINUOUS
70
0
71
3
72
10
73
6
74
4
42
0.0000001000
43
0.0000001000
44
0.0000000001
12
4.1370968687
22
-72.5115944080
32
0.0000000000
13
-4.1371032401
23
-72.5115940445
33
0.0000000000
40
0.0000000000
40
0.0000000000
40
0.0000000000
40
0.0000000000
40
0.3332721120
40
0.6667276467
40
1.0000000000
40
1.0000000000
40
1.0000000000
40
1.0000000000
10
37.5284236952
20
36.2972838206
30
0.0000000000
10
37.9880166988
20
28.2419197505
30
0.0000000000
10
38.6014858930
20
12.1075518554
30
0.0000000000
10
38.6014856045
20
-12.1075401510
30
0.0000000000
10
37.9880177394
20
-28.2419139588
30
0.0000000000
10
37.5284236952
20
-36.2972838206
30
0.0000000000
11
37.5284236952
21
36.2972838206
31
0.0000000000
11
38.4480341493
21
12.1093661573
31
0.0000000000
11
38.4480344005
21
-12.1093486295
31
0.0000000000
11
37.5284236952
21
-36.2972838206
31
0.0000000000
0
SPLINE
5
2DD
100
AcDbEntity
8
0
100
AcDbSpline
62
9
6
CONTINUOUS
70
0
71
3
72
10
73
6
74
4
42
0.0000001000
43
0.0000001000
44
0.0000000001
12
-0.1054272829
22
-1.8675039684
32
0.0000000000
13
-1.8676084099
23
-0.1035606652
33
0.0000000000
40
0.0000000000
40
0.0000000000
40
0.0000000000
40
0.0000000000
40
0.3338422355
40
0.6657624292
40
1.0000000000
40
1.0000000000
40
1.0000000000
40
1.0000000000
10
37.5284236952
20
-36.2972838206
30
0.0000000000
10
37.5166916686
20
-36.5051010538
30
0.0000000000
10
37.3888842333
20
-36.9206968236
30
0.0000000000
10
36.9314766568
20
-37.3776836665
30
0.0000000000
10
36.5155755378
20
-37.5054298861
30
0.0000000000
10
36.3075005717
20
-37.5169678412
30
0.0000000000
11
37.5284236952
21
-36.2972838206
31
0.0000000000
11
37.3440804622
21
-36.8938978988
31
0.0000000000
11
36.9049308378
21
-37.3327616513
31
0.0000000000
11
36.3075005717
21
-37.5169678412
31
0.0000000000
0
SPLINE
5
2DE
100
AcDbEntity
8
0
100
AcDbSpline
62
9
6
CONTINUOUS
70
0
71
3
72
10
73
6
74
4
42
0.0000001000
43
0.0000001000
44
0.0000000001
12
-36.2684732882
22
-2.0511622482
32
0.0000000000
13
-36.3264286880
23
-0.0000593671
33
0.0000000000
40
0.0000000000
40
0.0000000000
40
0.0000000000
40
0.0000000000
40
0.3363076432
40
0.6615492216
40
1.0000000000
40
1.0000000000
40
1.0000000000
40
1.0000000000
10
36.3075005717
20
-37.5169678412
30
0.0000000000
10
32.2417123143
20
-37.7469083550
30
0.0000000000
10
24.2394072979
20
-38.1231487319
30
0.0000000000
10
12.1349859074
20
-38.4699683263
30
0.0000000000
10
4.0982360218
20
-38.5491579174
30
0.0000000000
10
0.0000000000
20
-38.5491646150
30
0.0000000000
11
36.3075005717
21
-37.5169678412
31
0.0000000000
11
24.1041621053
21
-38.0915036712
31
0.0000000000
11
12.2941220639
21
-38.4291267493
31
0.0000000000
11
0.0000000000
21
-38.5491646150
31
0.0000000000
0
SPLINE
5
2DF
100
AcDbEntity
8
0
100
AcDbSpline
62
9
6
CONTINUOUS
70
0
71
3
72
14
73
10
74
8
42
0.0000001000
43
0.0000001000
44
0.0000000001
12
23.0654216278
22
0.0000084432
32
0.0000000000
13
23.0187387623
23
1.4667449208
33
0.0000000000
40
0.0000000000
40
0.0000000000
40
0.0000000000
40
0.0000000000
40
0.1779189371
40
0.3428711756
40
0.4952584762
40
0.6354929723
40
0.7648830890
40
0.8855787049
40
1.0000000000
40
1.0000000000
40
1.0000000000
40
1.0000000000
10
0.0000000000
20
-25.1332678270
30
0.0000000000
10
1.3679251000
20
-25.1332673262
30
0.0000000000
10
4.0040978894
20
-25.1234197657
30
0.0000000000
10
7.8116349050
20
-25.0760096126
30
0.0000000000
10
11.3289022295
20
-24.9995171564
30
0.0000000000
10
14.5719934161
20
-24.8981079100
30
0.0000000000
10
17.5705165737
20
-24.7759276341
30
0.0000000000
10
20.3695532577
20
-24.6358400324
30
0.0000000000
10
22.1741173337
20
-24.5290892150
30
0.0000000000
10
23.0520619673
20
-24.4731469305
30
0.0000000000
11
0.0000000000
21
-25.1332678270
31
0.0000000000
11
4.1037425027
21
-25.1168609934
31
0.0000000000
11
7.9081303645
21
-25.0686812795
31
0.0000000000
11
11.4221642061
21
-24.9916821313
31
0.0000000000
11
14.6551395525
21
-24.8901975491
31
0.0000000000
11
17.6370921381
21
-24.7684332424
31
0.0000000000
11
20.4174988978
21
-24.6291094350
31
0.0000000000
11
23.0520619673
21
-24.4731469305
31
0.0000000000
0
SPLINE
5
2E0
100
AcDbEntity
8
0
100
AcDbSpline
62
9
6
CONTINUOUS
70
0
71
3
72
14
73
10
74
8
42
0.0000001000
43
0.0000001000
44
0.0000000001
12
-23.0187776989
22
1.4667026278
32
0.0000000000
13
-23.0654577962
23
0.0000082462
33
0.0000000000
40
0.0000000000
40
0.0000000000
40
0.0000000000
40
0.0000000000
40
0.1146405887
40
0.2353100204
40
0.3646711806
40
0.5048739072
40
0.6572243462
40
0.8221326707
40
1.0000000000
40
1.0000000000
40
1.0000000000
40
1.0000000000
10
23.0520636411
20
24.4725643507
30
0.0000000000
10
22.1724348988
20
24.5286122350
30
0.0000000000
10
20.3664361822
20
24.6363016067
30
0.0000000000
10
17.5661106270
20
24.7760410816
30
0.0000000000
10
14.5682553515
20
24.8982649292
30
0.0000000000
10
11.3259061014
20
24.9995858014
30
0.0000000000
10
7.8094984625
20
25.0760450470
30
0.0000000000
10
4.0029729045
20
25.1234245875
30
0.0000000000
10
1.3675304594
20
25.1332673381
30
0.0000000000
10
0.0000000000
20
25.1332678270
30
0.0000000000
11
23.0520636411
21
24.4725643507
31
0.0000000000
11
20.4124802660
21
24.6293840296
31
0.0000000000
11
17.6326701782
21
24.7686346753
31
0.0000000000
11
14.6513786957
21
24.8903336745
31
0.0000000000
11
11.4191296837
21
24.9917631681
31
0.0000000000
11
7.9059398167
21
25.0687191381
31
0.0000000000
11
4.1025586104
21
25.1168707674
31
0.0000000000
11
0.0000000000
21
25.1332678270
31
0.0000000000
0
SPLINE
5
2E1
100
AcDbEntity
8
0
100
AcDbSpline
62
9
6
CONTINUOUS
70
0
71
3
72
10
73
6
74
4
42
0.0000001000
43
0.0000001000
44
0.0000000001
12
0.1054272830
22
1.8675039684
32
0.0000000000
13
1.8676084099
23
0.1035606651
33
0.0000000000
40
0.0000000000
40
0.0000000000
40
0.0000000000
40
0.0000000000
40
0.3338422355
40
0.6657624292
40
1.0000000000
40
1.0000000000
40
1.0000000000
40
1.0000000000
10
-37.5284236952
20
36.2972838206
30
0.0000000000
10
-37.5166916686
20
36.5051010538
30
0.0000000000
10
-37.3888842333
20
36.9206968236
30
0.0000000000
10
-36.9314766568
20
37.3776836665
30
0.0000000000
10
-36.5155755378
20
37.5054298861
30
0.0000000000
10
-36.3075005717
20
37.5169678412
30
0.0000000000
11
-37.5284236952
21
36.2972838206
31
0.0000000000
11
-37.3440804622
21
36.8938978987
31
0.0000000000
11
-36.9049308378
21
37.3327616513
31
0.0000000000
11
-36.3075005717
21
37.5169678412
31
0.0000000000
0
SPLINE
5
2E2
100
AcDbEntity
8
0
100
AcDbSpline
62
9
6
CONTINUOUS
70
0
71
3
72
10
73
6
74
4
42
0.0000001000
43
0.0000001000
44
0.0000000001
12
36.2684732882
22
2.0511622482
32
0.0000000000
13
36.3264286880
23
0.0000593671
33
0.0000000000
40
0.0000000000
40
0.0000000000
40
0.0000000000
40
0.0000000000
40
0.3363076425
40
0.6615492210
40
1.0000000000
40
1.0000000000
40
1.0000000000
40
1.0000000000
10
-36.3075005717
20
37.5169678412
30
0.0000000000
10
-32.2417123225
20
37.7469083545
30
0.0000000000
10
-24.2394073138
20
38.1231487312
30
0.0000000000
10
-12.1349859232
20
38.4699683261
30
0.0000000000
10
-4.0982360294
20
38.5491579174
30
0.0000000000
10
0.0000000000
20
38.5491646150
30
0.0000000000
11
-36.3075005717
21
37.5169678412
31
0.0000000000
11
-24.1041621299
21
38.0915036703
31
0.0000000000
11
-12.2941220869
21
38.4291267488
31
0.0000000000
11
0.0000000000
21
38.5491646150
31
0.0000000000
0
SPLINE
5
2E3
100
AcDbEntity
8
0
100
AcDbSpline
62
9
6
CONTINUOUS
70
0
71
3
72
14
73
10
74
8
42
0.0000001000
43
0.0000001000
44
0.0000000001
12
-23.0654216275
22
-0.0000084432
32
0.0000000000
13
-23.0187387620
23
-1.4667449208
33
0.0000000000
40
0.0000000000
40
0.0000000000
40
0.0000000000
40
0.0000000000
40
0.1779189430
40
0.3428711847
40
0.4952584861
40
0.6354929813
40
0.7648830962
40
0.8855787091
40
1.0000000000
40
1.0000000000
40
1.0000000000
40
1.0000000000
10
0.0000000000
20
25.1332678270
30
0.0000000000
10
-1.3679251452
20
25.1332673262
30
0.0000000000
10
-4.0040980041
20
25.1234197652
30
0.0000000000
10
-7.8116350960
20
25.0760096095
30
0.0000000000
10
-11.3289024451
20
24.9995171508
30
0.0000000000
10
-14.5719936172
20
24.8981079027
30
0.0000000000
10
-17.5705167307
20
24.7759276268
30
0.0000000000
10
-20.3695533448
20
24.6358400274
30
0.0000000000
10
-22.1741173656
20
24.5290892130
30
0.0000000000
10
-23.0520619669
20
24.4731469306
30
0.0000000000
11
0.0000000000
21
25.1332678270
31
0.0000000000
11
-4.1037426383
21
25.1168609923
31
0.0000000000
11
-7.9081305731
21
25.0686812759
31
0.0000000000
11
-11.4221644348
21
24.9916821252
31
0.0000000000
11
-14.6551397618
21
24.8901975415
31
0.0000000000
11
-17.6370923034
21
24.7684332348
31
0.0000000000
11
-20.4174989943
21
24.6291094297
31
0.0000000000
11
-23.0520619669
21
24.4731469306
31
0.0000000000
0
SPLINE
5
2E4
100
AcDbEntity
8
0
100
AcDbSpline
62
9
6
CONTINUOUS
70
0
71
3
72
14
73
10
74
8
42
0.0000001000
43
0.0000001000
44
0.0000000001
12
23.0187777066
22
-1.4667026279
32
0.0000000000
13
23.0654578039
23
-0.0000082462
33
0.0000000000
40
0.0000000000
40
0.0000000000
40
0.0000000000
40
0.0000000000
40
0.1146406888
40
0.2353101126
40
0.3646712629
40
0.5048739767
40
0.6572243983
40
0.8221326998
40
1.0000000000
40
1.0000000000
40
1.0000000000
40
1.0000000000
10
-23.0520636494
20
-24.4725643616
30
0.0000000000
10
-22.1724341390
20
-24.5286122948
30
0.0000000000
10
-20.3664347129
20
-24.6363016841
30
0.0000000000
10
-17.5661085240
20
-24.7760411779
30
0.0000000000
10
-14.5682534813
20
-24.8982649948
30
0.0000000000
10
-11.3259045372
20
-24.9995858416
30
0.0000000000
10
-7.8094973057
20
-25.0760450650
30
0.0000000000
10
-4.0029722810
20
-25.1234245906
30
0.0000000000
10
-1.3675302357
20
-25.1332673381
30
0.0000000000
10
0.0000000000
20
-25.1332678270
30
0.0000000000
11
-23.0520636494
21
-24.4725643616
31
0.0000000000
11
-20.4124779679
21
-24.6293841553
31
0.0000000000
11
-17.6326680607
21
-24.7686347717
31
0.0000000000
11
-14.6513768025
21
-24.8903337430
31
0.0000000000
11
-11.4191280843
21
-24.9917632108
31
0.0000000000
11
-7.9059386172
21
-25.0687191589
31
0.0000000000
11
-4.1025579396
21
-25.1168707730
31
0.0000000000
11
0.0000000000
21
-25.1332678270
31
0.0000000000
0
SPLINE
5
2E5
100
AcDbEntity
8
0
100
AcDbSpline
62
9
6
CONTINUOUS
70
0
71
3
72
10
73
6
74
4
42
0.0000001000
43
0.0000001000
44
0.0000000001
12
-36.3264288321
22
0.0000586162
32
0.0000000000
13
-36.2684749662
23
2.0511351294
33
0.0000000000
40
0.0000000000
40
0.0000000000
40
0.0000000000
40
0.0000000000
40
0.3373242491
40
0.6629831794
40
1.0000000000
40
1.0000000000
40
1.0000000000
40
1.0000000000
10
0.0000000000
20
-38.5491646150
30
0.0000000000
10
-4.0845951094
20
-38.5491580242
30
0.0000000000
10
-12.1127555445
20
-38.4703145796
30
0.0000000000
10
-24.2171972583
20
-38.1241195976
30
0.0000000000
10
-32.2331385310
20
-37.7473901878
30
0.0000000000
10
-36.3075005717
20
-37.5169678412
30
0.0000000000
11
0.0000000000
21
-38.5491646150
31
0.0000000000
11
-12.2532051205
21
-38.4299205458
31
0.0000000000
11
-24.0784173533
21
-38.0924746689
31
0.0000000000
11
-36.3075005717
21
-37.5169678412
31
0.0000000000
0
SPLINE
5
2E6
100
AcDbEntity
8
0
100
AcDbSpline
62
9
6
CONTINUOUS
70
0
71
3
72
10
73
6
74
4
42
0.0000001000
43
0.0000001000
44
0.0000000001
12
-1.8675572260
22
0.1044763604
32
0.0000000000
13
-0.1045033060
23
1.8675557184
33
0.0000000000
40
0.0000000000
40
0.0000000000
40
0.0000000000
40
0.0000000000
40
0.3340742980
40
0.6659928484
40
1.0000000000
40
1.0000000000
40
1.0000000000
40
1.0000000000
10
-36.3075005717
20
-37.5169678412
30
0.0000000000
10
-36.5154681948
20
-37.5053335523
30
0.0000000000
10
-36.9312847011
20
-37.3778276431
30
0.0000000000
10
-37.3887387832
20
-36.9208886334
30
0.0000000000
10
-37.5167887447
20
-36.5052094759
30
0.0000000000
10
-37.5284236952
20
-36.2972838206
30
0.0000000000
11
-36.3075005717
21
-37.5169678412
31
0.0000000000
11
-36.9046616247
21
-37.3329252450
31
0.0000000000
11
-37.3439147049
21
-36.8941694750
31
0.0000000000
11
-37.5284236952
21
-36.2972838206
31
0.0000000000
0
SPLINE
5
2E7
100
AcDbEntity
8
0
100
AcDbSpline
62
9
6
CONTINUOUS
70
0
71
3
72
10
73
6
74
4
42
0.0000001000
43
0.0000001000
44
0.0000000001
12
-4.1370836857
22
72.5115571752
32
0.0000000000
13
4.1370700348
23
72.5115579541
33
0.0000000000
40
0.0000000000
40
0.0000000000
40
0.0000000000
40
0.0000000000
40
0.3204053912
40
0.6788979426
40
1.0000000000
40
1.0000000000
40
1.0000000000
40
1.0000000000
10
-37.5284236952
20
-36.2972838206
30
0.0000000000
10
-37.9702716675
20
-28.5529192062
30
0.0000000000
10
-38.6069754517
20
-12.1250111018
30
0.0000000000
10
-38.6079385512
20
12.0912692541
30
0.0000000000
10
-37.9712309284
20
28.5360803402
30
0.0000000000
10
-37.5284236952
20
36.2972838206
30
0.0000000000
11
-37.5284236952
21
-36.2972838206
31
0.0000000000
11
-38.4295841514
21
-13.0438620070
31
0.0000000000
11
-38.4306182352
21
12.9932656175
31
0.0000000000
11
-37.5284236952
21
36.2972838206
31
0.0000000000
0
SPLINE
5
2E8
100
AcDbEntity
8
0
100
AcDbSpline
62
9
6
CONTINUOUS
70
0
71
3
72
10
73
6
74
4
42
0.0000001000
43
0.0000001000
44
0.0000000001
12
0.7211694297
22
-0.8280703560
32
0.0000000000
13
1.0966551031
23
0.0559771905
33
0.0000000000
40
0.0000000000
40
0.0000000000
40
0.0000000000
40
0.0000000000
40
0.1517491783
40
0.5110244037
40
1.0000000000
40
1.0000000000
40
1.0000000000
40
1.0000000000
10
-38.6238819766
20
-36.2829243104
30
0.0000000000
10
-38.5874030205
20
-36.3248106425
30
0.0000000000
10
-38.3645826385
20
-36.2929588242
30
0.0000000000
10
-38.0274990091
20
-36.3304365006
30
0.0000000000
10
-37.7071694663
20
-36.3064075698
30
0.0000000000
10
-37.5284236053
20
-36.2972837431
30
0.0000000000
11
-38.6238819766
21
-36.2829243104
31
0.0000000000
11
-38.4595281630
21
-36.3103912979
31
0.0000000000
11
-38.0650481000
21
-36.3155620115
31
0.0000000000
11
-37.5284236053
21
-36.2972837431
31
0.0000000000
0
SPLINE
5
2E9
100
AcDbEntity
8
0
100
AcDbSpline
62
9
6
CONTINUOUS
70
0
71
3
72
10
73
6
74
4
42
0.0000001000
43
0.0000001000
44
0.0000000001
12
-0.8811821715
22
0.6735001065
32
0.0000000000
13
0.0558023975
23
1.1076870069
33
0.0000000000
40
0.0000000000
40
0.0000000000
40
0.0000000000
40
0.0000000000
40
0.1527708405
40
0.5121355386
40
1.0000000000
40
1.0000000000
40
1.0000000000
40
1.0000000000
10
-36.2823186983
20
-38.6224832460
30
0.0000000000
10
-36.3271916787
20
-38.5881861869
30
0.0000000000
10
-36.2999489756
20
-38.3585593429
30
0.0000000000
10
-36.3394537810
20
-38.0214436289
30
0.0000000000
10
-36.3165750945
20
-37.6971014144
30
0.0000000000
10
-36.3075004257
20
-37.5169677061
30
0.0000000000
11
-36.2823186983
21
-38.6224832460
31
0.0000000000
11
-36.3151630605
21
-38.4562601985
31
0.0000000000
11
-36.3242394779
21
-38.0577951523
31
0.0000000000
11
-36.3075004257
21
-37.5169677061
31
0.0000000000
0
SPLINE
5
2EA
100
AcDbEntity
8
0
100
AcDbSpline
62
9
6
CONTINUOUS
70
0
71
3
72
10
73
6
74
4
42
0.0000001000
43
0.0000001000
44
0.0000000001
12
0.8806365796
22
0.6755992448
32
0.0000000000
13
-0.0558267356
23
1.1085298826
33
0.0000000000
40
0.0000000000
40
0.0000000000
40
0.0000000000
40
0.0000000000
40
0.1528218679
40
0.5122015780
40
1.0000000000
40
1.0000000000
40
1.0000000000
40
1.0000000000
10
36.2823696128
20
-38.6233308703
30
0.0000000000
10
36.3272297885
20
-38.5889154241
30
0.0000000000
10
36.2999725111
20
-38.3592297090
30
0.0000000000
10
36.3394536993
20
-38.0217365640
30
0.0000000000
10
36.3165737009
20
-37.6972102834
30
0.0000000000
10
36.3074963030
20
-37.5169639076
30
0.0000000000
11
36.2823696128
21
-38.6233308703
31
0.0000000000
11
36.3151913263
21
-38.4569143452
31
0.0000000000
11
36.3242472898
21
-38.0581291326
31
0.0000000000
11
36.3074963030
21
-37.5169639076
31
0.0000000000
0
SPLINE
5
2EB
100
AcDbEntity
8
0
100
AcDbSpline
62
9
6
CONTINUOUS
70
0
71
3
72
10
73
6
74
4
42
0.0000001000
43
0.0000001000
44
0.0000000001
12
-0.7192778243
22
-0.8285785312
32
0.0000000000
13
-1.0957978700
23
0.0559463951
33
0.0000000000
40
0.0000000000
40
0.0000000000
40
0.0000000000
40
0.0000000000
40
0.1517056023
40
0.5109653977
40
1.0000000000
40
1.0000000000
40
1.0000000000
40
1.0000000000
10
38.6230185058
20
-36.2828724509
30
0.0000000000
10
38.5866456806
20
-36.3247724526
30
0.0000000000
10
38.3639006557
20
-36.2929267324
30
0.0000000000
10
38.0271837343
20
-36.3304315128
30
0.0000000000
10
37.7070512626
20
-36.3064036215
30
0.0000000000
10
37.5284235708
20
-36.2972837138
30
0.0000000000
11
38.6230185058
21
-36.2828724509
31
0.0000000000
11
38.4588483899
21
-36.3103589212
31
0.0000000000
11
38.0646936774
21
-36.3155483750
31
0.0000000000
11
37.5284235708
21
-36.2972837138
31
0.0000000000
0
SPLINE
5
2EC
100
AcDbEntity
8
0
100
AcDbSpline
62
9
6
CONTINUOUS
70
0
71
3
72
10
73
6
74
4
42
0.0000001000
43
0.0000001000
44
0.0000000001
12
-0.7211686410
22
0.8280715413
32
0.0000000000
13
-1.0966554772
23
-0.0559772327
33
0.0000000000
40
0.0000000000
40
0.0000000000
40
0.0000000000
40
0.0000000000
40
0.1517491429
40
0.5110243852
40
1.0000000000
40
1.0000000000
40
1.0000000000
40
1.0000000000
10
38.6238823688
20
36.2829243342
30
0.0000000000
10
38.5874034610
20
36.3248107164
30
0.0000000000
10
38.3645829037
20
36.2929588108
30
0.0000000000
10
38.0274992488
20
36.3304365605
30
0.0000000000
10
37.7071695523
20
36.3064075928
30
0.0000000000
10
37.5284236236
20
36.2972837588
30
0.0000000000
11
38.6238823688
21
36.2829243342
31
0.0000000000
11
38.4595285386
21
36.3103913328
31
0.0000000000
11
38.0650483218
21
36.3155620437
31
0.0000000000
11
37.5284236236
21
36.2972837588
31
0.0000000000
0
SPLINE
5
2ED
100
AcDbEntity
8
0
100
AcDbSpline
62
9
6
CONTINUOUS
70
0
71
3
72
10
73
6
74
4
42
0.0000001000
43
0.0000001000
44
0.0000000001
12
0.8811821715
22
-0.6735001065
32
0.0000000000
13
-0.0558023975
23
-1.1076870069
33
0.0000000000
40
0.0000000000
40
0.0000000000
40
0.0000000000
40
0.0000000000
40
0.1527708405
40
0.5121355386
40
1.0000000000
40
1.0000000000
40
1.0000000000
40
1.0000000000
10
36.2823186983
20
38.6224832460
30
0.0000000000
10
36.3271916787
20
38.5881861869
30
0.0000000000
10
36.2999489756
20
38.3585593429
30
0.0000000000
10
36.3394537810
20
38.0214436289
30
0.0000000000
10
36.3165750945
20
37.6971014144
30
0.0000000000
10
36.3075004257
20
37.5169677061
30
0.0000000000
11
36.2823186983
21
38.6224832460
31
0.0000000000
11
36.3151630605
21
38.4562601985
31
0.0000000000
11
36.3242394779
21
38.0577951523
31
0.0000000000
11
36.3075004257
21
37.5169677061
31
0.0000000000
0
SPLINE
5
2EE
100
AcDbEntity
8
0
100
AcDbSpline
62
9
6
CONTINUOUS
70
0
71
3
72
10
73
6
74
4
42
0.0000001000
43
0.0000001000
44
0.0000000001
12
-0.8806365796
22
-0.6755992448
32
0.0000000000
13
0.0558267356
23
-1.1085298826
33
0.0000000000
40
0.0000000000
40
0.0000000000
40
0.0000000000
40
0.0000000000
40
0.1528218679
40
0.5122015780
40
1.0000000000
40
1.0000000000
40
1.0000000000
40
1.0000000000
10
-36.2823696128
20
38.6233308703
30
0.0000000000
10
-36.3272297885
20
38.5889154241
30
0.0000000000
10
-36.2999725111
20
38.3592297090
30
0.0000000000
10
-36.3394536993
20
38.0217365640
30
0.0000000000
10
-36.3165737009
20
37.6972102834
30
0.0000000000
10
-36.3074963030
20
37.5169639076
30
0.0000000000
11
-36.2823696128
21
38.6233308703
31
0.0000000000
11
-36.3151913263
21
38.4569143452
31
0.0000000000
11
-36.3242472898
21
38.0581291326
31
0.0000000000
11
-36.3074963030
21
37.5169639076
31
0.0000000000
0
SPLINE
5
2EF
100
AcDbEntity
8
0
100
AcDbSpline
62
9
6
CONTINUOUS
70
0
71
3
72
10
73
6
74
4
42
0.0000001000
43
0.0000001000
44
0.0000000001
12
0.7192778312
22
0.8285785252
32
0.0000000000
13
1.0957978699
23
-0.0559463948
33
0.0000000000
40
0.0000000000
40
0.0000000000
40
0.0000000000
40
0.0000000000
40
0.1517056022
40
0.5109653975
40
1.0000000000
40
1.0000000000
40
1.0000000000
40
1.0000000000
10
-38.6230185058
20
36.2828724509
30
0.0000000000
10
-38.5866456803
20
36.3247724523
30
0.0000000000
10
-38.3639006561
20
36.2929267320
30
0.0000000000
10
-38.0271837342
20
36.3304315128
30
0.0000000000
10
-37.7070512627
20
36.3064036215
30
0.0000000000
10
-37.5284235708
20
36.2972837138
30
0.0000000000
11
-38.6230185058
21
36.2828724509
31
0.0000000000
11
-38.4588483900
21
36.3103589208
31
0.0000000000
11
-38.0646936777
21
36.3155483749
31
0.0000000000
11
-37.5284235708
21
36.2972837138
31
0.0000000000
0
SPLINE
5
2F0
100
AcDbEntity
8
0
100
AcDbSpline
62
9
6
CONTINUOUS
70
0
71
3
72
10
73
6
74
4
42
0.0000001000
43
0.0000001000
44
0.0000000001
12
-0.2133473729
22
-3.5790193981
32
0.0000000000
13
-3.5791215507
23
-0.2116267441
33
0.0000000000
40
0.0000000000
40
0.0000000000
40
0.0000000000
40
0.0000000000
40
0.3337629434
40
0.6659382362
40
1.0000000000
40
1.0000000000
40
1.0000000000
40
1.0000000000
10
38.6238836874
20
-36.2829220641
30
0.0000000000
10
38.6001478717
20
-36.6811034138
30
0.0000000000
10
38.3534487674
20
-37.4770217675
30
0.0000000000
10
37.4772581160
20
-38.3530053882
30
0.0000000000
10
36.6809186858
20
-38.5997655984
30
0.0000000000
10
36.2823694665
20
-38.6233310662
30
0.0000000000
11
38.6238836874
21
-36.2829220641
31
0.0000000000
11
38.2682612330
21
-37.4255237687
31
0.0000000000
11
37.4260643866
21
-38.2676159649
31
0.0000000000
11
36.2823694665
21
-38.6233310662
31
0.0000000000
0
SPLINE
5
2F1
100
AcDbEntity
8
0
100
AcDbSpline
62
9
6
CONTINUOUS
70
0
71
3
72
10
73
6
74
4
42
0.0000001000
43
0.0000001000
44
0.0000000001
12
3.5790747368
22
-0.2124174669
32
0.0000000000
13
0.2125350328
23
-3.5790677573
33
0.0000000000
40
0.0000000000
40
0.0000000000
40
0.0000000000
40
0.0000000000
40
0.3338954784
40
0.6660687192
40
1.0000000000
40
1.0000000000
40
1.0000000000
40
1.0000000000
10
36.2823694635
20
38.6233310663
30
0.0000000000
10
36.6807150873
20
38.5996893224
30
0.0000000000
10
37.4768629439
20
38.3532287590
30
0.0000000000
10
38.3532230291
20
37.4774171443
30
0.0000000000
10
38.6002263292
20
36.6813095088
30
0.0000000000
10
38.6238836945
20
36.2829219487
30
0.0000000000
11
36.2823694635
21
38.6233310663
31
0.0000000000
11
37.4255385747
21
38.2679328453
31
0.0000000000
11
38.2679401197
21
37.4260558178
31
0.0000000000
11
38.6238836945
21
36.2829219487
31
0.0000000000
0
SPLINE
5
2F2
100
AcDbEntity
8
0
100
AcDbSpline
62
9
6
CONTINUOUS
70
0
71
3
72
10
73
6
74
4
42
0.0000001000
43
0.0000001000
44
0.0000000001
12
-3.5790749281
22
0.2124174783
32
0.0000000000
13
-0.2125349037
23
3.5790679570
33
0.0000000000
40
0.0000000000
40
0.0000000000
40
0.0000000000
40
0.0000000000
40
0.3338954606
40
0.6660686836
40
1.0000000000
40
1.0000000000
40
1.0000000000
40
1.0000000000
10
-36.2823694635
20
-38.6233310663
30
0.0000000000
10
-36.6807150874
20
-38.5996893224
30
0.0000000000
10
-37.4768629420
20
-38.3532287583
30
0.0000000000
10
-38.3532230833
20
-37.4774170994
30
0.0000000000
10
-38.6002263531
20
-36.6813093765
30
0.0000000000
10
-38.6238837065
20
-36.2829217517
30
0.0000000000
11
-36.2823694635
21
-38.6233310663
31
0.0000000000
11
-37.4255385750
21
-38.2679328451
31
0.0000000000
11
-38.2679401197
21
-37.4260558177
31
0.0000000000
11
-38.6238837065
21
-36.2829217517
31
0.0000000000
0
SPLINE
5
2F3
100
AcDbEntity
8
0
100
AcDbSpline
62
9
6
CONTINUOUS
70
0
71
3
72
10
73
6
74
4
42
0.0000001000
43
0.0000001000
44
0.0000000001
12
0.2133469914
22
3.5790199893
32
0.0000000000
13
3.5791221171
23
0.2116267776
33
0.0000000000
40
0.0000000000
40
0.0000000000
40
0.0000000000
40
0.0000000000
40
0.3337630488
40
0.6659382891
40
1.0000000000
40
1.0000000000
40
1.0000000000
40
1.0000000000
10
-38.6238837230
20
36.2829214810
30
0.0000000000
10
-38.6001479422
20
36.6811030221
30
0.0000000000
10
-38.3534489278
20
37.4770216350
30
0.0000000000
10
-37.4772581098
20
38.3530053864
30
0.0000000000
10
-36.6809186858
20
38.5997655984
30
0.0000000000
10
-36.2823694665
20
38.6233310662
30
0.0000000000
11
-38.6238837230
21
36.2829214810
31
0.0000000000
11
-38.2682612331
21
37.4255237686
31
0.0000000000
11
-37.4260643866
21
38.2676159648
31
0.0000000000
11
-36.2823694665
21
38.6233310662
31
0.0000000000
0
SPLINE
5
2F4
100
AcDbEntity
8
0
100
AcDbSpline
62
9
6
CONTINUOUS
70
0
71
3
72
10
73
6
74
4
42
0.0000001000
43
0.0000001000
44
0.0000000001
12
0.1090489250
22
0.0801109501
32
0.0000000000
13
0.0052157610
23
0.1348790591
33
0.0000000000
40
0.0000000000
40
0.0000000000
40
0.0000000000
40
0.0000000000
40
0.2026398822
40
0.7460956292
40
1.0000000000
40
1.0000000000
40
1.0000000000
40
1.0000000000
10
22.2130545338
20
22.5130088423
30
0.0000000000
10
22.2204204209
20
22.5184200668
30
0.0000000000
10
22.2116819133
20
22.5600156102
30
0.0000000000
10
22.2201841108
20
22.6004787580
30
0.0000000000
10
22.2223823259
20
22.6357993101
30
0.0000000000
10
22.2228237608
20
22.6472147710
30
0.0000000000
11
22.2130545338
21
22.5130088423
31
0.0000000000
11
22.2167862040
21
22.5401734043
31
0.0000000000
11
22.2205178489
21
22.6136149358
31
0.0000000000
11
22.2228237608
21
22.6472147710
31
0.0000000000
0
SPLINE
5
2F5
100
AcDbEntity
8
0
100
AcDbSpline
62
9
6
CONTINUOUS
70
0
71
3
72
8
73
4
74
2
42
0.0000001000
43
0.0000001000
44
0.0000000001
12
0.0030156526
22
0.0779844744
32
0.0000000000
13
0.0022679689
23
0.0782021153
33
0.0000000000
40
0.0000000000
40
0.0000000000
40
0.0000000000
40
0.0000000000
40
1.0000000000
40
1.0000000000
40
1.0000000000
40
1.0000000000
10
22.2228237608
20
22.6472147710
30
0.0000000000
10
22.2238289783
20
22.6732095958
30
0.0000000000
10
22.2234935195
20
22.7000771000
30
0.0000000000
10
22.2242495091
20
22.7261444717
30
0.0000000000
11
22.2228237608
21
22.6472147710
31
0.0000000000
11
22.2242495091
21
22.7261444717
31
0.0000000000
0
SPLINE
5
2F6
100
AcDbEntity
8
0
100
AcDbSpline
62
9
6
CONTINUOUS
70
0
71
3
72
10
73
6
74
4
42
0.0000001000
43
0.0000001000
44
0.0000000001
12
-0.1073106002
22
0.0823102728
32
0.0000000000
13
-0.0051833773
23
0.1348216687
33
0.0000000000
40
0.0000000000
40
0.0000000000
40
0.0000000000
40
0.0000000000
40
0.2027654531
40
0.7463109389
40
1.0000000000
40
1.0000000000
40
1.0000000000
40
1.0000000000
10
-22.2130545338
20
22.5130088423
30
0.0000000000
10
-22.2203074946
20
22.5185720689
30
0.0000000000
10
-22.2116695388
20
22.5598333145
30
0.0000000000
10
-22.2202494307
20
22.6004549861
30
0.0000000000
10
-22.2224518861
20
22.6357755083
30
0.0000000000
10
-22.2228902081
20
22.6471764358
30
0.0000000000
11
-22.2130545338
21
22.5130088423
31
0.0000000000
11
-22.2167240741
21
22.5401847296
31
0.0000000000
11
-22.2205805842
21
22.6135939744
31
0.0000000000
11
-22.2228902081
21
22.6471764358
31
0.0000000000
0
SPLINE
5
2F7
100
AcDbEntity
8
0
100
AcDbSpline
62
9
6
CONTINUOUS
70
0
71
3
72
8
73
4
74
2
42
0.0000001000
43
0.0000001000
44
0.0000000001
12
-0.0029979567
22
0.0779780261
32
0.0000000000
13
-0.0021727464
23
0.0781912701
33
0.0000000000
40
0.0000000000
40
0.0000000000
40
0.0000000000
40
0.0000000000
40
1.0000000000
40
1.0000000000
40
1.0000000000
40
1.0000000000
10
-22.2228902081
20
22.6471764358
30
0.0000000000
10
-22.2238895270
20
22.6731691111
30
0.0000000000
10
-22.2235242913
20
22.7000014294
30
0.0000000000
10
-22.2242485400
20
22.7260651861
30
0.0000000000
11
-22.2228902081
21
22.6471764358
31
0.0000000000
11
-22.2242485400
21
22.7260651861
31
0.0000000000
0
SPLINE
5
2F8
100
AcDbEntity
8
0
100
AcDbSpline
62
9
6
CONTINUOUS
70
0
71
3
72
10
73
6
74
4
42
0.0000001000
43
0.0000001000
44
0.0000000001
12
-0.1090487558
22
-0.0801111742
32
0.0000000000
13
-0.0052157675
23
-0.1348790563
33
0.0000000000
40
0.0000000000
40
0.0000000000
40
0.0000000000
40
0.0000000000
40
0.2026398604
40
0.7460956392
40
1.0000000000
40
1.0000000000
40
1.0000000000
40
1.0000000000
10
-22.2130545338
20
-22.5130088423
30
0.0000000000
10
-22.2204204086
20
-22.5184200814
30
0.0000000000
10
-22.2116819060
20
-22.5600155919
30
0.0000000000
10
-22.2201841049
20
-22.6004787565
30
0.0000000000
10
-22.2223823218
20
-22.6357993109
30
0.0000000000
10
-22.2228237572
20
-22.6472147711
30
0.0000000000
11
-22.2130545338
21
-22.5130088423
31
0.0000000000
11
-22.2167861945
21
-22.5401734019
31
0.0000000000
11
-22.2205178439
21
-22.6136149354
31
0.0000000000
11
-22.2228237572
21
-22.6472147711
31
0.0000000000
0
SPLINE
5
2F9
100
AcDbEntity
8
0
100
AcDbSpline
62
9
6
CONTINUOUS
70
0
71
3
72
8
73
4
74
2
42
0.0000001000
43
0.0000001000
44
0.0000000001
12
-0.0030156565
22
-0.0779844777
32
0.0000000000
13
-0.0022679722
23
-0.0782021181
33
0.0000000000
40
0.0000000000
40
0.0000000000
40
0.0000000000
40
0.0000000000
40
1.0000000000
40
1.0000000000
40
1.0000000000
40
1.0000000000
10
-22.2228237572
20
-22.6472147711
30
0.0000000000
10
-22.2238289760
20
-22.6732095970
30
0.0000000000
10
-22.2234935184
20
-22.7000770990
30
0.0000000000
10
-22.2242495091
20
-22.7261444717
30
0.0000000000
11
-22.2228237572
21
-22.6472147711
31
0.0000000000
11
-22.2242495091
21
-22.7261444717
31
0.0000000000
0
SPLINE
5
2FA
100
AcDbEntity
8
0
100
AcDbSpline
62
9
6
CONTINUOUS
70
0
71
3
72
10
73
6
74
4
42
0.0000001000
43
0.0000001000
44
0.0000000001
12
0.1073106002
22
-0.0823102728
32
0.0000000000
13
0.0051833773
23
-0.1348216687
33
0.0000000000
40
0.0000000000
40
0.0000000000
40
0.0000000000
40
0.0000000000
40
0.2027654531
40
0.7463109389
40
1.0000000000
40
1.0000000000
40
1.0000000000
40
1.0000000000
10
22.2130545338
20
-22.5130088423
30
0.0000000000
10
22.2203074946
20
-22.5185720689
30
0.0000000000
10
22.2116695388
20
-22.5598333145
30
0.0000000000
10
22.2202494307
20
-22.6004549861
30
0.0000000000
10
22.2224518861
20
-22.6357755083
30
0.0000000000
10
22.2228902081
20
-22.6471764358
30
0.0000000000
11
22.2130545338
21
-22.5130088423
31
0.0000000000
11
22.2167240741
21
-22.5401847296
31
0.0000000000
11
22.2205805842
21
-22.6135939744
31
0.0000000000
11
22.2228902081
21
-22.6471764358
31
0.0000000000
0
SPLINE
5
2FB
100
AcDbEntity
8
0
100
AcDbSpline
62
9
6
CONTINUOUS
70
0
71
3
72
8
73
4
74
2
42
0.0000001000
43
0.0000001000
44
0.0000000001
12
0.0029979567
22
-0.0779780261
32
0.0000000000
13
0.0021727464
23
-0.0781912701
33
0.0000000000
40
0.0000000000
40
0.0000000000
40
0.0000000000
40
0.0000000000
40
1.0000000000
40
1.0000000000
40
1.0000000000
40
1.0000000000
10
22.2228902081
20
-22.6471764358
30
0.0000000000
10
22.2238895270
20
-22.6731691111
30
0.0000000000
10
22.2235242913
20
-22.7000014294
30
0.0000000000
10
22.2242485400
20
-22.7260651861
30
0.0000000000
11
22.2228902081
21
-22.6471764358
31
0.0000000000
11
22.2242485400
21
-22.7260651861
31
0.0000000000
0
SPLINE
5
2FC
100
AcDbEntity
8
0
100
AcDbSpline
62
9
6
CONTINUOUS
70
0
71
3
72
15
73
11
74
9
42
0.0000001000
43
0.0000001000
44
0.0000000001
12
-0.4684505919
22
-0.0001178619
32
0.0000000000
13
-0.0119155246
23
-0.4682990404
33
0.0000000000
40
0.0000000000
40
0.0000000000
40
0.0000000000
40
0.0000000000
40
0.1064729149
40
0.2221903908
40
0.3435469867
40
0.4666345381
40
0.5914150212
40
0.7209587998
40
0.8574030893
40
1.0000000000
40
1.0000000000
40
1.0000000000
40
1.0000000000
10
-22.2130562231
20
22.5130105316
30
0.0000000000
10
-22.2296819898
20
22.5130063486
30
0.0000000000
10
-22.2644376702
20
22.5101687119
30
0.0000000000
10
-22.3166772241
20
22.4968634469
30
0.0000000000
10
-22.3681422000
20
22.4734131261
30
0.0000000000
10
-22.4156179954
20
22.4401187136
30
0.0000000000
10
-22.4569379600
20
22.3975992391
30
0.0000000000
10
-22.4903487205
20
22.3460416958
30
0.0000000000
10
-22.5133743105
20
22.2860280014
30
0.0000000000
10
-22.5195564262
20
22.2424278221
30
0.0000000000
10
-22.5201227985
20
22.2201684900
30
0.0000000000
11
-22.2130562231
21
22.5130105316
31
0.0000000000
11
-22.2627689736
21
22.5089623654
31
0.0000000000
11
-22.3153020637
21
22.4955917549
31
0.0000000000
11
-22.3670325966
21
22.4720157991
31
0.0000000000
11
-22.4142328577
21
22.4388969000
31
0.0000000000
11
-22.4549482245
21
22.3969556345
31
0.0000000000
11
-22.4879198823
21
22.3460093665
31
0.0000000000
11
-22.5107458557
21
22.2863066843
31
0.0000000000
11
-22.5201227985
21
22.2201684900
31
0.0000000000
0
SPLINE
5
2FD
100
AcDbEntity
8
0
100
AcDbSpline
62
9
6
CONTINUOUS
70
0
71
3
72
10
73
6
74
4
42
0.0000001000
43
0.0000001000
44
0.0000000001
12
0.0369690633
22
45.9782485074
32
0.0000000000
13
-0.0369690691
23
45.9782485074
33
0.0000000000
40
0.0000000000
40
0.0000000000
40
0.0000000000
40
0.0000000000
40
0.3332906604
40
0.6666998949
40
1.0000000000
40
1.0000000000
40
1.0000000000
40
1.0000000000
10
22.5295211689
20
-22.9891294772
30
0.0000000000
10
22.5336283167
20
-17.8810892077
30
0.0000000000
10
22.5391010353
20
-7.6631889677
30
0.0000000000
10
22.5391011513
20
7.6628994810
30
0.0000000000
10
22.5336284340
20
17.8809444723
30
0.0000000000
10
22.5295211691
20
22.9891294929
30
0.0000000000
11
22.5295211689
21
-22.9891294772
31
0.0000000000
11
22.5377323883
21
-7.6650059151
31
0.0000000000
11
22.5377325047
21
7.6645716773
31
0.0000000000
11
22.5295211691
21
22.9891294929
31
0.0000000000
0
SPLINE
5
2FE
100
AcDbEntity
8
0
100
AcDbSpline
62
9
6
CONTINUOUS
70
0
71
3
72
10
73
6
74
4
42
0.0000001000
43
0.0000001000
44
0.0000000001
12
0.0092662644
22
0.3718281821
32
0.0000000000
13
0.3719311178
23
0.0030502808
33
0.0000000000
40
0.0000000000
40
0.0000000000
40
0.0000000000
40
0.0000000000
40
0.2552388202
40
0.5949522162
40
1.0000000000
40
1.0000000000
40
1.0000000000
40
1.0000000000
10
-22.5295211689
20
22.9891294783
30
0.0000000000
10
-22.5287327988
20
23.0207644738
30
0.0000000000
10
-22.4867570939
20
23.0915133806
30
0.0000000000
10
-22.3723960215
20
23.1464599091
30
0.0000000000
10
-22.2797834854
20
23.1607905727
30
0.0000000000
10
-22.2295668604
20
23.1612024092
30
0.0000000000
11
-22.5295211689
21
22.9891294783
31
0.0000000000
11
-22.4879200885
21
23.0744635296
31
0.0000000000
11
-22.3783195795
21
23.1373373750
31
0.0000000000
11
-22.2295668604
21
23.1612024092
31
0.0000000000
0
SPLINE
5
2FF
100
AcDbEntity
8
0
100
AcDbSpline
62
9
6
CONTINUOUS
70
0
71
3
72
15
73
11
74
9
42
0.0000001000
43
0.0000001000
44
0.0000000001
12
-0.6380130507
22
-0.0154708139
32
0.0000000000
13
-0.0004197998
23
-0.6382004566
33
0.0000000000
40
0.0000000000
40
0.0000000000
40
0.0000000000
40
0.0000000000
40
0.0784200359
40
0.1678100546
40
0.2699678768
40
0.3847274795
40
0.5133985912
40
0.6589193863
40
0.8224385882
40
1.0000000000
40
1.0000000000
40
1.0000000000
40
1.0000000000
10
-22.2242485400
20
22.7260651807
30
0.0000000000
10
-22.2409262088
20
22.7256607734
30
0.0000000000
10
-22.2766629170
20
22.7196723253
30
0.0000000000
10
-22.3290669172
20
22.6945618854
30
0.0000000000
10
-22.3794117413
20
22.6522671039
30
0.0000000000
10
-22.4248819425
20
22.5939392065
30
0.0000000000
10
-22.4638310707
20
22.5205365134
30
0.0000000000
10
-22.4947424568
20
22.4323625353
30
0.0000000000
10
-22.5152876381
20
22.3305993786
30
0.0000000000
10
-22.5200979518
20
22.2579417480
30
0.0000000000
10
-22.5201227985
20
22.2201684900
30
0.0000000000
11
-22.2242485400
21
22.7260651807
31
0.0000000000
11
-22.2736360643
21
22.7179629539
31
0.0000000000
11
-22.3253474232
21
22.6938694541
31
0.0000000000
11
-22.3757630662
21
22.6525301798
31
0.0000000000
11
-22.4213509349
21
22.5952083509
31
0.0000000000
11
-22.4603613927
21
22.5229480795
31
0.0000000000
11
-22.4915254378
21
22.4354614520
31
0.0000000000
11
-22.5124904309
21
22.3332309670
31
0.0000000000
11
-22.5201227985
21
22.2201684900
31
0.0000000000
0
SPLINE
5
300
100
AcDbEntity
8
0
100
AcDbSpline
62
9
6
CONTINUOUS
70
0
71
3
72
10
73
6
74
4
42
0.0000001000
43
0.0000001000
44
0.0000000001
12
0.1586024010
22
0.2371298000
32
0.0000000000
13
0.2570904457
23
0.1236517948
33
0.0000000000
40
0.0000000000
40
0.0000000000
40
0.0000000000
40
0.0000000000
40
0.3159794764
40
0.6584424428
40
1.0000000000
40
1.0000000000
40
1.0000000000
40
1.0000000000
10
-22.6683242999
20
23.7035884395
30
0.0000000000
10
-22.6516192654
20
23.7285644895
30
0.0000000000
10
-22.6106901708
20
23.7765878077
30
0.0000000000
10
-22.5374410688
20
23.8377457701
30
0.0000000000
10
-22.4812658105
20
23.8712612641
30
0.0000000000
10
-22.4519954156
20
23.8853393324
30
0.0000000000
11
-22.6683242999
21
23.7035884395
31
0.0000000000
11
-22.6106549712
21
23.7728704703
31
0.0000000000
11
-22.5358528852
21
23.8357161826
31
0.0000000000
11
-22.4519954156
21
23.8853393324
31
0.0000000000
0
SPLINE
5
301
100
AcDbEntity
8
0
100
AcDbSpline
62
9
6
CONTINUOUS
70
0
71
3
72
10
73
6
74
4
42
0.0000001000
43
0.0000001000
44
0.0000000001
12
-0.3719311178
22
0.0030502805
32
0.0000000000
13
-0.0092662644
23
0.3718281820
33
0.0000000000
40
0.0000000000
40
0.0000000000
40
0.0000000000
40
0.0000000000
40
0.4050477838
40
0.7447611798
40
1.0000000000
40
1.0000000000
40
1.0000000000
40
1.0000000000
10
-22.2295668600
20
-23.1612023794
30
0.0000000000
10
-22.2797834850
20
-23.1607905430
30
0.0000000000
10
-22.3723960212
20
-23.1464598794
30
0.0000000000
10
-22.4867570935
20
-23.0915133508
30
0.0000000000
10
-22.5287327984
20
-23.0207644441
30
0.0000000000
10
-22.5295211686
20
-22.9891294486
30
0.0000000000
11
-22.2295668600
21
-23.1612023794
31
0.0000000000
11
-22.3783195792
21
-23.1373373452
31
0.0000000000
11
-22.4879200881
21
-23.0744634999
31
0.0000000000
11
-22.5295211686
21
-22.9891294486
31
0.0000000000
0
SPLINE
5
302
100
AcDbEntity
8
0
100
AcDbSpline
62
9
6
CONTINUOUS
70
0
71
3
72
17
73
13
74
11
42
0.0000001000
43
0.0000001000
44
0.0000000001
12
0.0002846929
22
-0.6383049623
32
0.0000000000
13
0.6381027659
23
-0.0160675450
33
0.0000000000
40
0.0000000000
40
0.0000000000
40
0.0000000000
40
0.0000000000
40
0.1172908442
40
0.2214062263
40
0.3236883425
40
0.4220111963
40
0.5178456677
40
0.6127010674
40
0.7076825084
40
0.8032847879
40
0.8998805280
40
1.0000000000
40
1.0000000000
40
1.0000000000
40
1.0000000000
10
-22.5201227985
20
-22.2201684900
30
0.0000000000
10
-22.5201116679
20
-22.2451242659
30
0.0000000000
10
-22.5180315456
20
-22.2922603642
30
0.0000000000
10
-22.5092005305
20
-22.3606327902
30
0.0000000000
10
-22.4955687594
20
-22.4241012076
30
0.0000000000
10
-22.4769082814
20
-22.4844422534
30
0.0000000000
10
-22.4531059549
20
-22.5412584957
30
0.0000000000
10
-22.4234564550
20
-22.5944885261
30
0.0000000000
10
-22.3868727039
20
-22.6432530550
30
0.0000000000
10
-22.3420059544
20
-22.6853276500
30
0.0000000000
10
-22.2874928800
20
-22.7167087259
30
0.0000000000
10
-22.2455440440
20
-22.7255289560
30
0.0000000000
10
-22.2242485400
20
-22.7260651807
30
0.0000000000
11
-22.5201227985
21
-22.2201684900
31
0.0000000000
11
-22.5167963216
21
-22.2949618884
31
0.0000000000
11
-22.5082338875
21
-22.3608653554
31
0.0000000000
11
-22.4944418066
21
-22.4246791120
31
0.0000000000
11
-22.4757852546
21
-22.4846019550
31
0.0000000000
11
-22.4519931104
21
-22.5409570928
31
0.0000000000
11
-22.4223141260
21
-22.5937307428
31
0.0000000000
11
-22.3856237476
21
-22.6419952761
31
0.0000000000
11
-22.3407224932
21
-22.6833200216
31
0.0000000000
11
-22.2868806743
21
-22.7133651801
31
0.0000000000
11
-22.2242485400
21
-22.7260651807
31
0.0000000000
0
SPLINE
5
303
100
AcDbEntity
8
0
100
AcDbSpline
62
9
6
CONTINUOUS
70
0
71
3
72
10
73
6
74
4
42
0.0000001000
43
0.0000001000
44
0.0000000001
12
-0.2570909596
22
0.1236501992
32
0.0000000000
13
-0.1586025708
23
0.2371294115
33
0.0000000000
40
0.0000000000
40
0.0000000000
40
0.0000000000
40
0.0000000000
40
0.3415575957
40
0.6840206295
40
1.0000000000
40
1.0000000000
40
1.0000000000
40
1.0000000000
10
-22.4519954310
20
-23.8853383523
30
0.0000000000
10
-22.4812658877
20
-23.8712604641
30
0.0000000000
10
-22.5374412800
20
-23.8377452636
30
0.0000000000
10
-22.6106905463
20
-23.7765876095
30
0.0000000000
10
-22.6516197204
20
-23.7285644199
30
0.0000000000
10
-22.6683247673
20
-23.7035884192
30
0.0000000000
11
-22.4519954310
21
-23.8853383523
31
0.0000000000
11
-22.5358530906
21
-23.8357156551
31
0.0000000000
11
-22.6106553557
21
-23.7728702479
31
0.0000000000
11
-22.6683247673
21
-23.7035884192
31
0.0000000000
0
SPLINE
5
304
100
AcDbEntity
8
0
100
AcDbSpline
62
9
6
CONTINUOUS
70
0
71
3
72
17
73
13
74
11
42
0.0000001000
43
0.0000001000
44
0.0000000001
12
0.0116150799
22
-0.4685546985
32
0.0000000000
13
0.4686985993
23
-0.0001965294
33
0.0000000000
40
0.0000000000
40
0.0000000000
40
0.0000000000
40
0.0000000000
40
0.0933782422
40
0.1777242124
40
0.2630600762
40
0.3484860688
40
0.4362561175
40
0.5289972632
40
0.6294987960
40
0.7403165299
40
0.8633111679
40
1.0000000000
40
1.0000000000
40
1.0000000000
40
1.0000000000
10
-22.5201227985
20
-22.2201684900
30
0.0000000000
10
-22.5197612666
20
-22.2347527613
30
0.0000000000
10
-22.5169490813
20
-22.2625065329
30
0.0000000000
10
-22.5069476081
20
-22.3024895435
30
0.0000000000
10
-22.4920986679
20
-22.3396106826
30
0.0000000000
10
-22.4721427679
20
-22.3748651164
30
0.0000000000
10
-22.4469323835
20
-22.4080506197
30
0.0000000000
10
-22.4156954901
20
-22.4391098312
30
0.0000000000
10
-22.3773265448
20
-22.4674261182
30
0.0000000000
10
-22.3306920908
20
-22.4914906332
30
0.0000000000
10
-22.2751105864
20
-22.5087334951
30
0.0000000000
10
-22.2344115111
20
-22.5130015772
30
0.0000000000
10
-22.2130562231
20
-22.5130105316
30
0.0000000000
11
-22.5201227985
21
-22.2201684900
31
0.0000000000
11
-22.5157171612
21
-22.2637124384
31
0.0000000000
11
-22.5061388727
21
-22.3020673854
31
0.0000000000
11
-22.4912943852
21
-22.3392074643
31
0.0000000000
11
-22.4715817522
21
-22.3740576774
31
0.0000000000
11
-22.4467054469
21
-22.4068216821
31
0.0000000000
11
-22.4158891483
21
-22.4374777131
31
0.0000000000
11
-22.3779924101
21
-22.4654547007
31
0.0000000000
11
-22.3318379270
21
-22.4892777963
31
0.0000000000
11
-22.2767741422
21
-22.5063425140
31
0.0000000000
11
-22.2130562231
21
-22.5130105316
31
0.0000000000
0
SPLINE
5
305
100
AcDbEntity
8
0
100
AcDbSpline
62
9
6
CONTINUOUS
70
0
71
3
72
13
73
9
74
7
42
0.0000001000
43
0.0000001000
44
0.0000000001
12
-0.0121829546
22
0.4676972474
32
0.0000000000
13
-0.4678558542
23
0.0001984149
33
0.0000000000
40
0.0000000000
40
0.0000000000
40
0.0000000000
40
0.0000000000
40
0.1778237337
40
0.3327391956
40
0.4761684902
40
0.6270595100
40
0.8010588140
40
1.0000000000
40
1.0000000000
40
1.0000000000
40
1.0000000000
10
22.5201227985
20
22.2201684900
30
0.0000000000
10
22.5194006590
20
22.2478910469
30
0.0000000000
10
22.5105121155
20
22.2998956373
30
0.0000000000
10
22.4787737182
20
22.3677974927
30
0.0000000000
10
22.4349905230
20
22.4232190981
30
0.0000000000
10
22.3775731154
20
22.4693884117
30
0.0000000000
10
22.3026285662
20
22.5040428310
30
0.0000000000
10
22.2440814893
20
22.5129973740
30
0.0000000000
10
22.2130562231
20
22.5130105316
30
0.0000000000
11
22.5201227985
21
22.2201684900
31
0.0000000000
11
22.5061044897
21
22.3021748424
31
0.0000000000
11
22.4755299489
21
22.3678884196
31
0.0000000000
11
22.4339604487
21
22.4205662691
31
0.0000000000
11
22.3789719533
21
22.4648376500
31
0.0000000000
11
22.3050671390
21
22.4989714016
31
0.0000000000
11
22.2130562231
21
22.5130105316
31
0.0000000000
0
SPLINE
5
306
100
AcDbEntity
8
0
100
AcDbSpline
62
9
6
CONTINUOUS
70
0
71
3
72
13
73
9
74
7
42
0.0000001000
43
0.0000001000
44
0.0000000001
12
-0.0005648297
22
0.6371228558
32
0.0000000000
13
-0.6369506342
23
0.0148236984
33
0.0000000000
40
0.0000000000
40
0.0000000000
40
0.0000000000
40
0.0000000000
40
0.2217185517
40
0.4047156472
40
0.5601867681
40
0.7061387273
40
0.8523883120
40
1.0000000000
40
1.0000000000
40
1.0000000000
40
1.0000000000
10
22.5201227985
20
22.2201684900
30
0.0000000000
10
22.5200810541
20
22.2672558089
30
0.0000000000
10
22.5130187480
20
22.3534069148
30
0.0000000000
10
22.4842350318
20
22.4693267003
30
0.0000000000
10
22.4433965902
20
22.5642820622
30
0.0000000000
10
22.3896726107
20
22.6435904478
30
0.0000000000
10
22.3180659297
20
22.7058520994
30
0.0000000000
10
22.2555889928
20
22.7253357970
30
0.0000000000
10
22.2242485400
20
22.7260651807
30
0.0000000000
11
22.5201227985
21
22.2201684900
31
0.0000000000
11
22.5082214409
21
22.3609282634
31
0.0000000000
11
22.4795634494
21
22.4739430362
31
0.0000000000
11
22.4397310055
21
22.5646354811
31
0.0000000000
11
22.3865878250
21
22.6409429151
31
0.0000000000
11
22.3146632998
21
22.7001813046
31
0.0000000000
11
22.2242485400
21
22.7260651807
31
0.0000000000
0
SPLINE
5
307
100
AcDbEntity
8
0
100
AcDbSpline
62
9
6
CONTINUOUS
70
0
71
3
72
10
73
6
74
4
42
0.0000001000
43
0.0000001000
44
0.0000000001
12
-0.0092662643
22
0.3718281789
32
0.0000000000
13
-0.3719311147
23
0.0030502801
33
0.0000000000
40
0.0000000000
40
0.0000000000
40
0.0000000000
40
0.0000000000
40
0.2552390681
40
0.5949525729
40
1.0000000000
40
1.0000000000
40
1.0000000000
40
1.0000000000
10
22.5295211689
20
22.9891294785
30
0.0000000000
10
22.5287327980
20
23.0207645044
30
0.0000000000
10
22.4867570301
20
23.0915134436
30
0.0000000000
10
22.3723959442
20
23.1464599237
30
0.0000000000
10
22.2797834407
20
23.1607905733
30
0.0000000000
10
22.2295668604
20
23.1612024094
30
0.0000000000
11
22.5295211689
21
22.9891294785
31
0.0000000000
11
22.4879200193
21
23.0744635978
31
0.0000000000
11
22.3783194509
21
23.1373374185
31
0.0000000000
11
22.2295668604
21
23.1612024094
31
0.0000000000
0
SPLINE
5
308
100
AcDbEntity
8
0
100
AcDbSpline
62
9
6
CONTINUOUS
70
0
71
3
72
10
73
6
74
4
42
0.0000001000
43
0.0000001000
44
0.0000000001
12
-0.1586026797
22
0.2371289112
32
0.0000000000
13
-0.2570912217
23
0.1236488346
33
0.0000000000
40
0.0000000000
40
0.0000000000
40
0.0000000000
40
0.0000000000
40
0.3159793065
40
0.6584423727
40
1.0000000000
40
1.0000000000
40
1.0000000000
40
1.0000000000
10
22.6683249966
20
23.7035884082
30
0.0000000000
10
22.6516199417
20
23.7285643512
30
0.0000000000
10
22.6106907243
20
23.7765874037
30
0.0000000000
10
22.5374413699
20
23.8377447730
30
0.0000000000
10
22.4812659048
20
23.8712597155
30
0.0000000000
10
22.4519954156
20
23.8853374497
30
0.0000000000
11
22.6683249966
21
23.7035884082
31
0.0000000000
11
22.6106555392
21
23.7728700290
31
0.0000000000
11
22.5358531783
21
23.8357151475
31
0.0000000000
11
22.4519954156
21
23.8853374497
31
0.0000000000
0
SPLINE
5
309
100
AcDbEntity
8
0
100
AcDbSpline
62
9
6
CONTINUOUS
70
0
71
3
72
10
73
6
74
4
42
0.0000001000
43
0.0000001000
44
0.0000000001
12
-0.0092662644
22
-0.3718281821
32
0.0000000000
13
-0.3719311178
23
-0.0030502807
33
0.0000000000
40
0.0000000000
40
0.0000000000
40
0.0000000000
40
0.0000000000
40
0.2552388202
40
0.5949522162
40
1.0000000000
40
1.0000000000
40
1.0000000000
40
1.0000000000
10
22.5295211686
20
-22.9891294484
30
0.0000000000
10
22.5287327984
20
-23.0207644439
30
0.0000000000
10
22.4867570935
20
-23.0915133506
30
0.0000000000
10
22.3723960212
20
-23.1464598792
30
0.0000000000
10
22.2797834850
20
-23.1607905428
30
0.0000000000
10
22.2295668600
20
-23.1612023793
30
0.0000000000
11
22.5295211686
21
-22.9891294484
31
0.0000000000
11
22.4879200881
21
-23.0744634997
31
0.0000000000
11
22.3783195792
21
-23.1373373450
31
0.0000000000
11
22.2295668600
21
-23.1612023793
31
0.0000000000
0
SPLINE
5
30A
100
AcDbEntity
8
0
100
AcDbSpline
62
9
6
CONTINUOUS
70
0
71
3
72
15
73
11
74
9
42
0.0000001000
43
0.0000001000
44
0.0000000001
12
0.6380130507
22
0.0154708139
32
0.0000000000
13
0.0004197998
23
0.6382004566
33
0.0000000000
40
0.0000000000
40
0.0000000000
40
0.0000000000
40
0.0000000000
40
0.0784200359
40
0.1678100546
40
0.2699678768
40
0.3847274795
40
0.5133985912
40
0.6589193863
40
0.8224385882
40
1.0000000000
40
1.0000000000
40
1.0000000000
40
1.0000000000
10
22.2242485400
20
-22.7260651807
30
0.0000000000
10
22.2409262088
20
-22.7256607734
30
0.0000000000
10
22.2766629170
20
-22.7196723253
30
0.0000000000
10
22.3290669172
20
-22.6945618854
30
0.0000000000
10
22.3794117413
20
-22.6522671039
30
0.0000000000
10
22.4248819425
20
-22.5939392065
30
0.0000000000
10
22.4638310707
20
-22.5205365134
30
0.0000000000
10
22.4947424568
20
-22.4323625353
30
0.0000000000
10
22.5152876381
20
-22.3305993786
30
0.0000000000
10
22.5200979518
20
-22.2579417480
30
0.0000000000
10
22.5201227985
20
-22.2201684900
30
0.0000000000
11
22.2242485400
21
-22.7260651807
31
0.0000000000
11
22.2736360643
21
-22.7179629539
31
0.0000000000
11
22.3253474232
21
-22.6938694541
31
0.0000000000
11
22.3757630662
21
-22.6525301798
31
0.0000000000
11
22.4213509349
21
-22.5952083509
31
0.0000000000
11
22.4603613927
21
-22.5229480795
31
0.0000000000
11
22.4915254378
21
-22.4354614520
31
0.0000000000
11
22.5124904309
21
-22.3332309670
31
0.0000000000
11
22.5201227985
21
-22.2201684900
31
0.0000000000
0
SPLINE
5
30B
100
AcDbEntity
8
0
100
AcDbSpline
62
9
6
CONTINUOUS
70
0
71
3
72
10
73
6
74
4
42
0.0000001000
43
0.0000001000
44
0.0000000001
12
-0.1586025519
22
-0.2371287982
32
0.0000000000
13
-0.2570911835
23
-0.1236485332
33
0.0000000000
40
0.0000000000
40
0.0000000000
40
0.0000000000
40
0.0000000000
40
0.3159790205
40
0.6584421368
40
1.0000000000
40
1.0000000000
40
1.0000000000
40
1.0000000000
10
22.6683250506
20
-23.7035884067
30
0.0000000000
10
22.6516200243
20
-23.7285643151
30
0.0000000000
10
22.6106908093
20
-23.7765872984
30
0.0000000000
10
22.5374414281
20
-23.8377445497
30
0.0000000000
10
22.4812659364
20
-23.8712594257
30
0.0000000000
10
22.4519954313
20
-23.8853371353
30
0.0000000000
11
22.6683250506
21
-23.7035884067
31
0.0000000000
11
22.6106556468
21
-23.7728698980
31
0.0000000000
11
22.5358532541
21
-23.8357149130
31
0.0000000000
11
22.4519954313
21
-23.8853371353
31
0.0000000000
0
SPLINE
5
30C
100
AcDbEntity
8
0
100
AcDbSpline
62
9
6
CONTINUOUS
70
0
71
3
72
15
73
11
74
9
42
0.0000001000
43
0.0000001000
44
0.0000000001
12
0.4684505919
22
0.0001178619
32
0.0000000000
13
0.0119155246
23
0.4682990404
33
0.0000000000
40
0.0000000000
40
0.0000000000
40
0.0000000000
40
0.0000000000
40
0.1064729149
40
0.2221903908
40
0.3435469867
40
0.4666345381
40
0.5914150212
40
0.7209587998
40
0.8574030893
40
1.0000000000
40
1.0000000000
40
1.0000000000
40
1.0000000000
10
22.2130562231
20
-22.5130105316
30
0.0000000000
10
22.2296819898
20
-22.5130063486
30
0.0000000000
10
22.2644376702
20
-22.5101687119
30
0.0000000000
10
22.3166772241
20
-22.4968634469
30
0.0000000000
10
22.3681422000
20
-22.4734131261
30
0.0000000000
10
22.4156179954
20
-22.4401187136
30
0.0000000000
10
22.4569379600
20
-22.3975992391
30
0.0000000000
10
22.4903487205
20
-22.3460416958
30
0.0000000000
10
22.5133743105
20
-22.2860280014
30
0.0000000000
10
22.5195564262
20
-22.2424278221
30
0.0000000000
10
22.5201227985
20
-22.2201684900
30
0.0000000000
11
22.2130562231
21
-22.5130105316
31
0.0000000000
11
22.2627689736
21
-22.5089623654
31
0.0000000000
11
22.3153020637
21
-22.4955917549
31
0.0000000000
11
22.3670325966
21
-22.4720157991
31
0.0000000000
11
22.4142328577
21
-22.4388969000
31
0.0000000000
11
22.4549482245
21
-22.3969556345
31
0.0000000000
11
22.4879198823
21
-22.3460093665
31
0.0000000000
11
22.5107458557
21
-22.2863066843
31
0.0000000000
11
22.5201227985
21
-22.2201684900
31
0.0000000000
0
SPLINE
5
30D
100
AcDbEntity
8
0
100
AcDbSpline
62
9
6
CONTINUOUS
70
0
71
3
72
14
73
10
74
8
42
0.0000001000
43
0.0000001000
44
0.0000000001
12
0.5661531939
22
0.6196587083
32
0.0000000000
13
0.6097573825
23
0.5768035092
33
0.0000000000
40
0.0000000000
40
0.0000000000
40
0.0000000000
40
0.0000000000
40
0.1026974110
40
0.2189753156
40
0.3488469450
40
0.4920054181
40
0.6480868580
40
0.8173390306
40
1.0000000000
40
1.0000000000
40
1.0000000000
40
1.0000000000
10
22.4519954156
20
23.8853372526
30
0.0000000000
10
22.4713762380
20
23.9065497009
30
0.0000000000
10
22.5132654086
20
23.9512649479
30
0.0000000000
10
22.5813354448
20
24.0212171758
30
0.0000000000
10
22.6584674265
20
24.0981283935
30
0.0000000000
10
22.7444790595
20
24.1818925037
30
0.0000000000
10
22.8391845632
20
24.2725133604
30
0.0000000000
10
22.9425059021
20
24.3701108609
30
0.0000000000
10
23.0143308124
20
24.4374568006
30
0.0000000000
10
23.0514571039
20
24.4725766300
30
0.0000000000
11
22.4519954156
21
23.8853372526
31
0.0000000000
11
22.5108520918
21
23.9483146282
31
0.0000000000
11
22.5788475502
21
24.0183284254
31
0.0000000000
11
22.6559779915
21
24.0953579662
31
0.0000000000
11
22.7420057717
21
24.1792484884
31
0.0000000000
11
22.8366150320
21
24.2698678029
31
0.0000000000
11
22.9398362922
21
24.3674734909
31
0.0000000000
11
23.0514571039
21
24.4725766300
31
0.0000000000
0
SPLINE
5
30E
100
AcDbEntity
8
0
100
AcDbSpline
62
9
6
CONTINUOUS
70
0
71
3
72
16
73
12
74
10
42
0.0000001000
43
0.0000001000
44
0.0000000001
12
0.6090699510
22
-0.5787396410
32
0.0000000000
13
0.5666901159
23
-0.6202967757
33
0.0000000000
40
0.0000000000
40
0.0000000000
40
0.0000000000
40
0.0000000000
40
0.1525039175
40
0.2958224942
40
0.4274290192
40
0.5453538626
40
0.6508507395
40
0.7464911374
40
0.8349238162
40
0.9186664035
40
1.0000000000
40
1.0000000000
40
1.0000000000
40
1.0000000000
10
-23.0520619756
20
24.4731469390
30
0.0000000000
10
-23.0211001244
20
24.4437269181
30
0.0000000000
10
-22.9606214437
20
24.3871026229
30
0.0000000000
10
-22.8735087108
20
24.3049995577
30
0.0000000000
10
-22.7937953295
20
24.2291661569
30
0.0000000000
10
-22.7221632241
20
24.1602082235
30
0.0000000000
10
-22.6582452120
20
24.0977639445
30
0.0000000000
10
-22.6007310547
20
24.0405882496
30
0.0000000000
10
-22.5480857187
20
23.9871615759
30
0.0000000000
10
-22.4988834966
20
23.9359745536
30
0.0000000000
10
-22.4673590642
20
23.9021542419
30
0.0000000000
10
-22.4519954158
20
23.8853372527
30
0.0000000000
11
-23.0520619756
21
24.4731469390
31
0.0000000000
11
-22.9587935841
21
24.3852915360
31
0.0000000000
11
-22.8711886483
21
24.3026789990
31
0.0000000000
11
-22.7910987165
21
24.2264419561
31
0.0000000000
11
-22.7197449313
21
24.1577022096
31
0.0000000000
11
-22.6563653693
21
24.0957387225
31
0.0000000000
11
-22.5994011438
21
24.0390637046
31
0.0000000000
11
-22.5472767896
21
23.9861158628
31
0.0000000000
11
-22.4985483157
21
23.9353622752
31
0.0000000000
11
-22.4519954158
21
23.8853372527
31
0.0000000000
0
SPLINE
5
30F
100
AcDbEntity
8
0
100
AcDbSpline
62
9
6
CONTINUOUS
70
0
71
3
72
14
73
10
74
8
42
0.0000001000
43
0.0000001000
44
0.0000000001
12
0.6097835740
22
0.5767759031
32
0.0000000000
13
0.5661491574
23
0.6196624735
33
0.0000000000
40
0.0000000000
40
0.0000000000
40
0.0000000000
40
0.0000000000
40
0.1847049405
40
0.3552508624
40
0.5113599621
40
0.6541080071
40
0.7834354648
40
0.8987945459
40
1.0000000000
40
1.0000000000
40
1.0000000000
40
1.0000000000
10
-23.0514571221
20
-24.4725766287
30
0.0000000000
10
-23.0139137758
20
-24.4370655091
30
0.0000000000
10
-22.9414071041
20
-24.3690814014
30
0.0000000000
10
-22.8374094588
20
-24.2708286201
30
0.0000000000
10
-22.7425340916
20
-24.1800165753
30
0.0000000000
10
-22.6567274274
20
-24.0964136770
30
0.0000000000
10
-22.5799879285
20
-24.0198511707
30
0.0000000000
10
-22.5125148540
20
-23.9504716520
30
0.0000000000
10
-22.4710945586
20
-23.9062416590
30
0.0000000000
10
-22.4519954311
20
-23.8853372516
30
0.0000000000
11
-23.0514571221
21
-24.4725766287
31
0.0000000000
11
-22.9385869009
21
-24.3662977721
31
0.0000000000
11
-22.8345851623
21
-24.2679369537
31
0.0000000000
11
-22.7399740473
21
-24.1772860021
31
0.0000000000
11
-22.6542121626
21
-24.0936162339
31
0.0000000000
11
-22.5774263392
21
-24.0168879843
31
0.0000000000
11
-22.5099879709
21
-23.9474082078
31
0.0000000000
11
-22.4519954311
21
-23.8853372516
31
0.0000000000
0
SPLINE
5
310
100
AcDbEntity
8
0
100
AcDbSpline
62
9
6
CONTINUOUS
70
0
71
3
72
16
73
12
74
10
42
0.0000001000
43
0.0000001000
44
0.0000000001
12
-0.6090682892
22
0.5787413740
32
0.0000000000
13
-0.5666901240
23
0.6202967533
33
0.0000000000
40
0.0000000000
40
0.0000000000
40
0.0000000000
40
0.0000000000
40
0.1525039165
40
0.2958225123
40
0.4274290642
40
0.5453539576
40
0.6508508775
40
0.7464912962
40
0.8349239643
40
0.9186665004
40
1.0000000000
40
1.0000000000
40
1.0000000000
40
1.0000000000
10
23.0520619760
20
-24.4731469389
30
0.0000000000
10
23.0211002095
20
-24.4437268302
30
0.0000000000
10
22.9606214879
20
-24.3871025715
30
0.0000000000
10
22.8735087268
20
-24.3049995205
30
0.0000000000
10
22.7937953211
20
-24.2291661082
30
0.0000000000
10
22.7221631885
20
-24.1602081566
30
0.0000000000
10
22.6582451525
20
-24.0977638580
30
0.0000000000
10
22.6007309843
20
-24.0405881545
30
0.0000000000
10
22.5480856566
20
-23.9871614901
30
0.0000000000
10
22.4988834658
20
-23.9359745008
30
0.0000000000
10
22.4673590617
20
-23.9021542203
30
0.0000000000
10
22.4519954313
20
-23.8853372518
30
0.0000000000
11
23.0520619760
21
-24.4731469389
31
0.0000000000
11
22.9587936376
21
-24.3852914832
31
0.0000000000
11
22.8711886678
21
-24.3026789613
31
0.0000000000
11
22.7910987129
21
-24.2264419119
31
0.0000000000
11
22.7197448945
21
-24.1577021411
31
0.0000000000
11
22.6563653055
21
-24.0957386316
31
0.0000000000
11
22.5994010672
21
-24.0390636032
31
0.0000000000
11
22.5472767196
21
-23.9861157689
31
0.0000000000
11
22.4985482759
21
-23.9353622133
31
0.0000000000
11
22.4519954313
21
-23.8853372518
31
0.0000000000
0
SPLINE
5
311
100
AcDbEntity
8
0
100
AcDbSpline
62
9
6
CONTINUOUS
70
0
71
3
72
14
73
10
74
8
42
0.0000001000
43
0.0000001000
44
0.0000000001
12
0.3909141526
22
0.7660208335
32
0.0000000000
13
0.3555230628
23
0.7830741624
33
0.0000000000
40
0.0000000000
40
0.0000000000
40
0.0000000000
40
0.0000000000
40
0.1839810711
40
0.3529310187
40
0.5079841410
40
0.6503543262
40
0.7800961203
40
0.8967116989
40
1.0000000000
40
1.0000000000
40
1.0000000000
40
1.0000000000
10
-23.0520601079
20
-24.4731444180
30
0.0000000000
10
-23.0280865064
20
-24.4261666402
30
0.0000000000
10
-22.9817128635
20
-24.3362462694
30
0.0000000000
10
-22.9151786640
20
-24.2067122497
30
0.0000000000
10
-22.8545448990
20
-24.0875580474
30
0.0000000000
10
-22.7996254083
20
-23.9781090586
30
0.0000000000
10
-22.7504301259
20
-23.8781190040
30
0.0000000000
10
-22.7070961428
20
-23.7877365651
30
0.0000000000
10
-22.6805657144
20
-23.7305491973
30
0.0000000000
10
-22.6683252567
20
-23.7035883973
30
0.0000000000
11
-23.0520601079
21
-24.4731444180
31
0.0000000000
11
-22.9797780084
21
-24.3323960443
31
0.0000000000
11
-22.9134435755
21
-24.2031250140
31
0.0000000000
11
-22.8530126868
21
-24.0842586078
31
0.0000000000
11
-22.7981517333
21
-23.9747987342
31
0.0000000000
11
-22.7489478099
21
-23.8746556294
31
0.0000000000
11
-22.7056479399
21
-23.7841950916
31
0.0000000000
11
-22.6683252567
21
-23.7035883973
31
0.0000000000
0
SPLINE
5
312
100
AcDbEntity
8
0
100
AcDbSpline
62
9
6
CONTINUOUS
70
0
71
3
72
12
73
8
74
6
42
0.0000001000
43
0.0000001000
44
0.0000000001
12
0.3027884915
22
0.6671391412
32
0.0000000000
13
0.0054674859
23
0.7326155956
33
0.0000000000
40
0.0000000000
40
0.0000000000
40
0.0000000000
40
0.0000000000
40
0.1545984381
40
0.3287768664
40
0.5248346294
40
0.7420750532
40
1.0000000000
40
1.0000000000
40
1.0000000000
40
1.0000000000
10
-22.6683252567
20
-23.7035883973
30
0.0000000000
10
-22.6527217140
20
-23.6692088409
30
0.0000000000
10
-22.6232238363
20
-23.5943899481
30
0.0000000000
10
-22.5866753940
20
-23.4713977441
30
0.0000000000
10
-22.5570105875
20
-23.3308702703
30
0.0000000000
10
-22.5357149719
20
-23.1681875990
30
0.0000000000
10
-22.5299912356
20
-23.0521160614
30
0.0000000000
10
-22.5295211686
20
-22.9891294485
30
0.0000000000
11
-22.6683252567
21
-23.7035883973
31
0.0000000000
11
-22.6264404325
21
-23.5983530350
31
0.0000000000
11
-22.5897676320
21
-23.4761267644
31
0.0000000000
11
-22.5598257898
21
-23.3356431670
31
0.0000000000
11
-22.5389604493
21
-23.1778586440
31
0.0000000000
11
-22.5295211686
21
-22.9891294485
31
0.0000000000
0
SPLINE
5
313
100
AcDbEntity
8
0
100
AcDbSpline
62
9
6
CONTINUOUS
70
0
71
3
72
12
73
8
74
6
42
0.0000001000
43
0.0000001000
44
0.0000000001
12
0.3027772493
22
-0.6671459739
32
0.0000000000
13
0.0054669160
23
-0.7326171757
33
0.0000000000
40
0.0000000000
40
0.0000000000
40
0.0000000000
40
0.0000000000
40
0.1665634807
40
0.3488923208
40
0.5484869894
40
0.7659454897
40
1.0000000000
40
1.0000000000
40
1.0000000000
40
1.0000000000
10
-22.6683252472
20
23.7035883972
30
0.0000000000
10
-22.6515147030
20
23.6665476787
30
0.0000000000
10
-22.6205089389
20
23.5870124083
30
0.0000000000
10
-22.5833064410
20
23.4581795526
30
0.0000000000
10
-22.5542981998
20
23.3145446310
30
0.0000000000
10
-22.5349638264
20
23.1565687171
30
0.0000000000
10
-22.5299476877
20
23.0462869297
30
0.0000000000
10
-22.5295211689
20
22.9891294783
30
0.0000000000
11
-22.6683252472
21
23.7035883972
31
0.0000000000
11
-22.6235831939
21
23.5900558834
31
0.0000000000
11
-22.5861688365
21
23.4618215727
31
0.0000000000
11
-22.5569492506
21
23.3185400645
31
0.0000000000
11
-22.5374030926
21
23.1604253650
31
0.0000000000
11
-22.5295211689
21
22.9891294783
31
0.0000000000
0
SPLINE
5
314
100
AcDbEntity
8
0
100
AcDbSpline
62
9
6
CONTINUOUS
70
0
71
3
72
16
73
12
74
10
42
0.0000001000
43
0.0000001000
44
0.0000000001
12
0.3896532636
22
-0.7666655754
32
0.0000000000
13
0.3555114437
23
-0.7830819777
33
0.0000000000
40
0.0000000000
40
0.0000000000
40
0.0000000000
40
0.0000000000
40
0.1512861333
40
0.2933314184
40
0.4239963286
40
0.5413789045
40
0.6467534775
40
0.7426913265
40
0.8318587311
40
0.9168290023
40
1.0000000000
40
1.0000000000
40
1.0000000000
40
1.0000000000
10
-23.0520607698
20
24.4731457010
30
0.0000000000
10
-23.0324110579
20
24.4344837442
30
0.0000000000
10
-22.9938434455
20
24.3597604867
30
0.0000000000
10
-22.9382439838
20
24.2516767022
30
0.0000000000
10
-22.8873478163
20
24.1521030180
30
0.0000000000
10
-22.8415609924
20
24.0617243997
30
0.0000000000
10
-22.8006594347
20
23.9800315964
30
0.0000000000
10
-22.7638084840
20
23.9053577010
30
0.0000000000
10
-22.7300270301
20
23.8356935759
30
0.0000000000
10
-22.6983981236
20
23.7690557772
30
0.0000000000
10
-22.6781813277
20
23.7252983003
30
0.0000000000
10
-22.6683252472
20
23.7035883972
30
0.0000000000
11
-23.0520607698
21
24.4731457010
31
0.0000000000
11
-22.9926557096
21
24.3573926813
31
0.0000000000
11
-22.9368004830
21
24.2487505257
31
0.0000000000
11
-22.8856781093
21
24.1486804104
31
0.0000000000
11
-22.8400802939
21
24.0586158645
31
0.0000000000
11
-22.7995298636
21
23.9775720639
31
0.0000000000
11
-22.7630381187
21
23.9035738444
31
0.0000000000
11
-22.7296006440
21
23.8345636126
31
0.0000000000
11
-22.6982922496
21
23.7685355966
31
0.0000000000
11
-22.6683252472
21
23.7035883972
31
0.0000000000
0
SPLINE
5
315
100
AcDbEntity
8
0
100
AcDbSpline
62
9
6
CONTINUOUS
70
0
71
3
72
15
73
11
74
9
42
0.0000001000
43
0.0000001000
44
0.0000000001
12
0.0054595091
22
0.7327441322
32
0.0000000000
13
0.3029273680
23
0.6672171905
33
0.0000000000
40
0.0000000000
40
0.0000000000
40
0.0000000000
40
0.0000000000
40
0.1679563180
40
0.3208289723
40
0.4613723809
40
0.5909137248
40
0.7085257921
40
0.8136683140
40
0.9092932925
40
1.0000000000
40
1.0000000000
40
1.0000000000
40
1.0000000000
10
22.5295211689
20
22.9891294785
30
0.0000000000
10
22.5298268219
20
23.0301524806
30
0.0000000000
10
22.5325545054
20
23.1085167952
30
0.0000000000
10
22.5424896841
20
23.2208183706
30
0.0000000000
10
22.5568647087
20
23.3231682274
30
0.0000000000
10
22.5747746248
20
23.4161972400
30
0.0000000000
10
22.5953084860
20
23.4997992352
30
0.0000000000
10
22.6176651595
20
23.5743172806
30
0.0000000000
10
22.6415910471
20
23.6414017570
30
0.0000000000
10
22.6591660657
20
23.6834147055
30
0.0000000000
10
22.6683252471
20
23.7035883970
30
0.0000000000
11
22.5295211689
21
22.9891294785
31
0.0000000000
11
22.5338286014
21
23.1121264995
31
0.0000000000
11
22.5437470372
21
23.2237061864
31
0.0000000000
11
22.5581315125
21
23.3256818780
31
0.0000000000
11
22.5761465904
21
23.4188799937
31
0.0000000000
11
22.5967763828
21
23.5025563893
31
0.0000000000
11
22.6189868435
21
23.5763302459
31
0.0000000000
11
22.6425952119
21
23.6423039684
31
0.0000000000
11
22.6683252471
21
23.7035883970
31
0.0000000000
0
SPLINE
5
316
100
AcDbEntity
8
0
100
AcDbSpline
62
9
6
CONTINUOUS
70
0
71
3
72
12
73
8
74
6
42
0.0000001000
43
0.0000001000
44
0.0000000001
12
-0.3027801093
22
0.6671435862
32
0.0000000000
13
-0.0054632129
23
0.7326162109
33
0.0000000000
40
0.0000000000
40
0.0000000000
40
0.0000000000
40
0.0000000000
40
0.1739642474
40
0.3620570506
40
0.5632342354
40
0.7763464874
40
1.0000000000
40
1.0000000000
40
1.0000000000
40
1.0000000000
10
22.6683252568
20
-23.7035883974
30
0.0000000000
10
22.6507676189
20
-23.6649020202
30
0.0000000000
10
22.6187832000
20
-23.5822767251
30
0.0000000000
10
22.5812254521
20
-23.4497901544
30
0.0000000000
10
22.5528689301
20
-23.3052785646
30
0.0000000000
10
22.5346023592
20
-23.1504228257
30
0.0000000000
10
22.5299284575
20
-23.0437468447
30
0.0000000000
10
22.5295211686
20
-22.9891294484
30
0.0000000000
11
22.6683252568
21
-23.7035883974
31
0.0000000000
11
22.6218417181
21
-23.5849147332
31
0.0000000000
11
22.5838800559
21
-23.4524429885
31
0.0000000000
11
22.5552322199
21
-23.3078641372
31
0.0000000000
11
22.5367688815
21
-23.1528258241
31
0.0000000000
11
22.5295211686
21
-22.9891294484
31
0.0000000000
0
SPLINE
5
317
100
AcDbEntity
8
0
100
AcDbSpline
62
9
6
CONTINUOUS
70
0
71
3
72
16
73
12
74
10
42
0.0000001000
43
0.0000001000
44
0.0000000001
12
-0.3896516313
22
0.7666663989
32
0.0000000000
13
-0.3555114547
23
0.7830819667
33
0.0000000000
40
0.0000000000
40
0.0000000000
40
0.0000000000
40
0.0000000000
40
0.1512861838
40
0.2933314611
40
0.4239963895
40
0.5413790101
40
0.6467536234
40
0.7426914916
40
0.8318588842
40
0.9168291025
40
1.0000000000
40
1.0000000000
40
1.0000000000
40
1.0000000000
10
23.0520607696
20
-24.4731457004
30
0.0000000000
10
23.0324111335
20
-24.4344836892
30
0.0000000000
10
22.9938434822
20
-24.3597604379
30
0.0000000000
10
22.9382439896
20
-24.2516766507
30
0.0000000000
10
22.8873478100
20
-24.1521029558
30
0.0000000000
10
22.8415609686
20
-24.0617243139
30
0.0000000000
10
22.8006593960
20
-23.9800314853
30
0.0000000000
10
22.7638084383
20
-23.9053575787
30
0.0000000000
10
22.7300269898
20
-23.8356934661
30
0.0000000000
10
22.6983981035
20
-23.7690557107
30
0.0000000000
10
22.6781813257
20
-23.7252982741
30
0.0000000000
10
22.6683252568
20
-23.7035883974
30
0.0000000000
11
23.0520607696
21
-24.4731457004
31
0.0000000000
11
22.9926557423
21
-24.3573926160
31
0.0000000000
11
22.9368004947
21
-24.2487504797
31
0.0000000000
11
22.8856781063
21
-24.1486803550
31
0.0000000000
11
22.8400802699
21
-24.0586157774
31
0.0000000000
11
22.7995298222
21
-23.9775719473
31
0.0000000000
11
22.7630380692
21
-23.9035737141
31
0.0000000000
11
22.7296005986
21
-23.8345634922
31
0.0000000000
11
22.6982922236
21
-23.7685355179
31
0.0000000000
11
22.6683252568
21
-23.7035883974
31
0.0000000000
0
SPLINE
5
318
100
AcDbEntity
8
0
100
AcDbSpline
62
9
6
CONTINUOUS
70
0
71
3
72
14
73
10
74
8
42
0.0000001000
43
0.0000001000
44
0.0000000001
12
0.3555235443
22
0.7830739005
32
0.0000000000
13
0.3908914976
23
0.7660323501
33
0.0000000000
40
0.0000000000
40
0.0000000000
40
0.0000000000
40
0.0000000000
40
0.1048032808
40
0.2223308912
40
0.3526005918
40
0.4953644169
40
0.6503790993
40
0.8180421582
40
1.0000000000
40
1.0000000000
40
1.0000000000
40
1.0000000000
10
22.6683252471
20
23.7035883970
30
0.0000000000
10
22.6807452583
20
23.7309446350
30
0.0000000000
10
22.7075754160
20
23.7887600209
30
0.0000000000
10
22.7512935541
20
23.8798976875
30
0.0000000000
10
22.8007395985
20
23.9803501581
30
0.0000000000
10
22.8557890170
20
24.0900171713
30
0.0000000000
10
22.9163129462
20
24.2089275702
30
0.0000000000
10
22.9824144867
20
24.3376046583
30
0.0000000000
10
23.0283515098
20
24.4266825399
30
0.0000000000
10
23.0520601009
20
24.4731444043
30
0.0000000000
11
22.6683252471
21
23.7035883970
31
0.0000000000
11
22.7062034584
21
23.7853736343
31
0.0000000000
11
22.7498594497
21
23.8765332753
31
0.0000000000
11
22.7992823101
21
23.9770746413
31
0.0000000000
11
22.8543113542
21
24.0868289308
31
0.0000000000
11
22.9147391891
21
24.2056597967
31
0.0000000000
11
22.9805743778
21
24.3339430731
31
0.0000000000
11
23.0520601009
21
24.4731444043
31
0.0000000000
0
SPLINE
5
319
100
AcDbEntity
8
0
100
AcDbSpline
62
7
6
CONTINUOUS
70
0
71
3
72
10
73
6
74
4
42
0.0000001000
43
0.0000001000
44
0.0000000001
12
0.6761760280
22
13.4265667621
32
0.0000000000
13
1.0371122924
23
13.4035184609
33
0.0000000000
40
0.0000000000
40
0.0000000000
40
0.0000000000
40
0.0000000000
40
0.3334112341
40
0.6668382000
40
1.0000000000
40
1.0000000000
40
1.0000000000
40
1.0000000000
10
-69.5973733253
20
25.1332678270
30
0.0000000000
10
-69.5222250973
20
26.6254572248
30
0.0000000000
10
-69.3585387799
20
29.6092503317
30
0.0000000000
10
-69.0729464355
20
34.0813888493
30
0.0000000000
10
-68.8558500193
20
37.0606511695
30
0.0000000000
10
-68.7406746200
20
38.5491646150
30
0.0000000000
11
-69.5973733253
21
25.1332678270
31
0.0000000000
11
-69.3518535653
21
29.6087798809
31
0.0000000000
11
-69.0661844478
21
34.0821206033
31
0.0000000000
11
-68.7406746200
21
38.5491646150
31
0.0000000000
0
SPLINE
5
31A
100
AcDbEntity
8
0
100
AcDbSpline
62
7
6
CONTINUOUS
70
0
71
3
72
10
73
6
74
4
42
0.0000001000
43
0.0000001000
44
0.0000000001
12
-1.0371122924
22
13.4035184609
32
0.0000000000
13
-0.6761760280
23
13.4265667621
33
0.0000000000
40
0.0000000000
40
0.0000000000
40
0.0000000000
40
0.0000000000
40
0.3331619593
40
0.6665763119
40
1.0000000000
40
1.0000000000
40
1.0000000000
40
1.0000000000
10
-68.7406746200
20
-38.5491646150
30
0.0000000000
10
-68.8558500744
20
-37.0606504576
30
0.0000000000
10
-69.0729424282
20
-34.0814437985
30
0.0000000000
10
-69.3585355119
20
-29.6093053340
30
0.0000000000
10
-69.5222222903
20
-26.6255129631
30
0.0000000000
10
-69.5973733253
20
-25.1332678270
30
0.0000000000
11
-68.7406746200
21
-38.5491646150
31
0.0000000000
11
-69.0661845939
21
-34.0821184662
31
0.0000000000
11
-69.3518436445
21
-29.6089470151
31
0.0000000000
11
-69.5973733253
21
-25.1332678270
31
0.0000000000
0
SPLINE
5
31B
100
AcDbEntity
8
0
100
AcDbSpline
62
7
6
CONTINUOUS
70
0
71
3
72
8
73
4
74
2
42
0.0000001000
43
0.0000001000
44
0.0000000001
12
-0.0047386111
22
-0.0967183934
32
0.0000000000
13
-0.0047198894
23
-0.0967194004
33
0.0000000000
40
0.0000000000
40
0.0000000000
40
0.0000000000
40
0.0000000000
40
1.0000000000
40
1.0000000000
40
1.0000000000
40
1.0000000000
10
-69.1350214733
20
24.4731444043
30
0.0000000000
10
-69.1366010103
20
24.4409049399
30
0.0000000000
10
-69.1381774271
20
24.4086653072
30
0.0000000000
10
-69.1397507236
20
24.3764255071
30
0.0000000000
11
-69.1350214733
21
24.4731444043
31
0.0000000000
11
-69.1397507236
21
24.3764255071
31
0.0000000000
0
SPLINE
5
31C
100
AcDbEntity
8
0
100
AcDbSpline
62
7
6
CONTINUOUS
70
0
71
3
72
8
73
4
74
2
42
0.0000001000
43
0.0000001000
44
0.0000000001
12
-0.0235765203
22
-0.4831271880
32
0.0000000000
13
-0.0231093729
23
-0.4831519897
33
0.0000000000
40
0.0000000000
40
0.0000000000
40
0.0000000000
40
0.0000000000
40
1.0000000000
40
1.0000000000
40
1.0000000000
40
1.0000000000
10
-69.1397507236
20
24.3764255071
30
0.0000000000
10
-69.1476095637
20
24.2153831111
30
0.0000000000
10
-69.1553905479
20
24.0543365362
30
0.0000000000
10
-69.1630936722
20
23.8932858730
30
0.0000000000
11
-69.1397507236
21
24.3764255071
31
0.0000000000
11
-69.1630936722
21
23.8932858730
31
0.0000000000
0
SPLINE
5
31D
100
AcDbEntity
8
0
100
AcDbSpline
62
7
6
CONTINUOUS
70
0
71
3
72
10
73
6
74
4
42
0.0000001000
43
0.0000001000
44
0.0000000001
12
-2.2838213454
22
-47.7482808287
32
0.0000000000
13
2.2838455403
23
-47.7482794675
33
0.0000000000
40
0.0000000000
40
0.0000000000
40
0.0000000000
40
0.0000000000
40
0.3293915432
40
0.6707653796
40
1.0000000000
40
1.0000000000
40
1.0000000000
40
1.0000000000
10
-69.1630936722
20
23.8932858730
30
0.0000000000
10
-69.4138508180
20
18.6506592371
30
0.0000000000
10
-69.7564732035
20
7.9658723126
30
0.0000000000
10
-69.7563518151
20
-7.9708748565
30
0.0000000000
10
-69.4137342544
20
-18.6531575820
30
0.0000000000
10
-69.1630939146
20
-23.8932864698
30
0.0000000000
11
-69.1630936722
21
23.8932858730
31
0.0000000000
11
-69.6677104018
21
8.1555279147
31
0.0000000000
11
-69.6675879828
21
-8.1630298179
31
0.0000000000
11
-69.1630939146
21
-23.8932864698
31
0.0000000000
0
SPLINE
5
31E
100
AcDbEntity
8
0
100
AcDbSpline
62
7
6
CONTINUOUS
70
0
71
3
72
8
73
4
74
2
42
0.0000001000
43
0.0000001000
44
0.0000000001
12
0.0230872805
22
-0.4826849725
32
0.0000000000
13
0.0235535539
23
-0.4826602191
33
0.0000000000
40
0.0000000000
40
0.0000000000
40
0.0000000000
40
0.0000000000
40
1.0000000000
40
1.0000000000
40
1.0000000000
40
1.0000000000
10
-69.1630939146
20
-23.8932864698
30
0.0000000000
10
-69.1553981544
20
-24.0541814606
30
0.0000000000
10
-69.1476246802
20
-24.2150723710
30
0.0000000000
10
-69.1397734955
20
-24.3759591107
30
0.0000000000
11
-69.1630939146
21
-23.8932864698
31
0.0000000000
11
-69.1397734955
21
-24.3759591107
31
0.0000000000
0
SPLINE
5
31F
100
AcDbEntity
8
0
100
AcDbSpline
62
7
6
CONTINUOUS
70
0
71
3
72
8
73
4
74
2
42
0.0000001000
43
0.0000001000
44
0.0000000001
12
0.0047426771
22
-0.0971870978
32
0.0000000000
13
0.0047615814
23
-0.0971860810
33
0.0000000000
40
0.0000000000
40
0.0000000000
40
0.0000000000
40
0.0000000000
40
1.0000000000
40
1.0000000000
40
1.0000000000
40
1.0000000000
10
-69.1397734955
20
-24.3759591107
30
0.0000000000
10
-69.1381926032
20
-24.4083548099
30
0.0000000000
10
-69.1366085601
20
-24.4407503401
30
0.0000000000
10
-69.1350213663
20
-24.4731457004
30
0.0000000000
11
-69.1397734955
21
-24.3759591107
31
0.0000000000
11
-69.1350213663
21
-24.4731457004
31
0.0000000000
0
SPLINE
5
320
100
AcDbEntity
8
0
100
AcDbSpline
62
7
6
CONTINUOUS
70
0
71
3
72
9
73
5
74
3
42
0.0000001000
43
0.0000001000
44
0.0000000001
12
-0.0096033035
22
0.0968432840
32
0.0000000000
13
0.0010684023
23
0.0973567300
33
0.0000000000
40
0.0000000000
40
0.0000000000
40
0.0000000000
40
0.0000000000
40
0.9038764818
40
1.0000000000
40
1.0000000000
40
1.0000000000
40
1.0000000000
10
-69.1350466233
20
-24.4731469389
30
0.0000000000
10
-69.1379400233
20
-24.4439688167
30
0.0000000000
10
-69.1395725328
20
-24.4115068283
30
0.0000000000
10
-69.1393908055
20
-24.3790520888
30
0.0000000000
10
-69.1393565726
20
-24.3759326650
30
0.0000000000
11
-69.1350466233
21
-24.4731469389
31
0.0000000000
11
-69.1394089790
21
-24.3852914832
31
0.0000000000
11
-69.1393565726
21
-24.3759326650
31
0.0000000000
0
SPLINE
5
321
100
AcDbEntity
8
0
100
AcDbSpline
62
7
6
CONTINUOUS
70
0
71
3
72
8
73
4
74
2
42
0.0000001000
43
0.0000001000
44
0.0000000001
12
-0.0010198143
22
0.0963326775
32
0.0000000000
13
0.0095114182
23
0.0957928851
33
0.0000000000
40
0.0000000000
40
0.0000000000
40
0.0000000000
40
0.0000000000
40
1.0000000000
40
1.0000000000
40
1.0000000000
40
1.0000000000
10
-69.1393623844
20
24.3763989279
30
0.0000000000
10
-69.1397023225
20
24.4085098204
30
0.0000000000
10
-69.1382737690
20
24.4406456683
30
0.0000000000
10
-69.1351032962
20
24.4725766300
30
0.0000000000
11
-69.1393623844
21
24.3763989279
31
0.0000000000
11
-69.1351032962
21
24.4725766300
31
0.0000000000
0
SPLINE
5
322
100
AcDbEntity
8
0
100
AcDbSpline
62
9
6
CONTINUOUS
70
0
71
3
72
10
73
6
74
4
42
0.0000001000
43
0.0000001000
44
0.0000000001
12
1.0969754181
22
-1.2278571426
32
0.0000000000
13
1.3265292350
23
-0.9703972594
33
0.0000000000
40
0.0000000000
40
0.0000000000
40
0.0000000000
40
0.0000000000
40
0.1004089089
40
0.4162961278
40
1.0000000000
40
1.0000000000
40
1.0000000000
40
1.0000000000
10
-67.6070539559
20
39.6549454208
30
0.0000000000
10
-67.5703385877
20
39.6138494888
30
0.0000000000
10
-67.4121644573
20
39.4495369522
30
0.0000000000
10
-66.9855714427
20
39.1032508462
30
0.0000000000
10
-66.5884517152
20
38.8121392785
30
0.0000000000
10
-66.3303516315
20
38.6233310659
30
0.0000000000
11
-67.6070539559
21
39.6549454208
31
0.0000000000
11
-67.4929072221
21
39.5357590012
31
0.0000000000
11
-67.0981727717
21
39.1985079481
31
0.0000000000
11
-66.3303516315
21
38.6233310659
31
0.0000000000
0
SPLINE
5
323
100
AcDbEntity
8
0
100
AcDbSpline
62
9
6
CONTINUOUS
70
0
71
3
72
10
73
6
74
4
42
0.0000001000
43
0.0000001000
44
0.0000000001
12
0.7084892961
22
-2.2310571508
32
0.0000000000
13
-0.0323676869
23
-2.3406250075
33
0.0000000000
40
0.0000000000
40
0.0000000000
40
0.0000000000
40
0.0000000000
40
0.1519912489
40
0.5116414241
40
1.0000000000
40
1.0000000000
40
1.0000000000
40
1.0000000000
10
-66.3303516212
20
38.6233310663
30
0.0000000000
10
-66.2944568969
20
38.5102973454
30
0.0000000000
10
-66.3362106720
20
38.1000528279
30
0.0000000000
10
-66.2943805460
20
37.3286824292
30
0.0000000000
10
-66.3139193674
20
36.6639433805
30
0.0000000000
10
-66.3191883799
20
36.2829219487
30
0.0000000000
11
-66.3303516212
21
38.6233310663
31
0.0000000000
11
-66.3136907626
21
38.2679328453
31
0.0000000000
11
-66.3096593135
21
37.4260558178
31
0.0000000000
11
-66.3191883799
21
36.2829219487
31
0.0000000000
0
SPLINE
5
324
100
AcDbEntity
8
0
100
AcDbSpline
62
9
6
CONTINUOUS
70
0
71
3
72
10
73
6
74
4
42
0.0000001000
43
0.0000001000
44
0.0000000001
12
0.0323279166
22
-2.3406257226
32
0.0000000000
13
-0.7111520479
23
-2.2302099974
33
0.0000000000
40
0.0000000000
40
0.0000000000
40
0.0000000000
40
0.0000000000
40
0.4881311701
40
0.8478731774
40
1.0000000000
40
1.0000000000
40
1.0000000000
40
1.0000000000
10
-66.3191883806
20
-36.2829220641
30
0.0000000000
10
-66.3139282927
20
-36.6637661884
30
0.0000000000
10
-66.2943414729
20
-37.3284226036
30
0.0000000000
10
-66.3363427153
20
-38.0997202788
30
0.0000000000
10
-66.2942898541
20
-38.5102394793
30
0.0000000000
10
-66.3303516212
20
-38.6233310662
30
0.0000000000
11
-66.3191883806
21
-36.2829220641
31
0.0000000000
11
-66.3096708141
21
-37.4255237687
31
0.0000000000
11
-66.3136726112
21
-38.2676159649
31
0.0000000000
11
-66.3303516212
21
-38.6233310662
31
0.0000000000
0
SPLINE
5
325
100
AcDbEntity
8
0
100
AcDbSpline
62
9
6
CONTINUOUS
70
0
71
3
72
9
73
5
74
3
42
0.0000001000
43
0.0000001000
44
0.0000000001
12
0.4579111023
22
-0.5118158440
32
0.0000000000
13
0.5408549492
23
-0.4226493298
33
0.0000000000
40
0.0000000000
40
0.0000000000
40
0.0000000000
40
0.0000000000
40
0.2410579229
40
1.0000000000
40
1.0000000000
40
1.0000000000
40
1.0000000000
10
-68.7406746200
20
38.5491646150
30
0.0000000000
10
-68.7038802536
20
38.5080388603
30
0.0000000000
10
-68.5452554114
20
38.3435573485
30
0.0000000000
10
-68.3671017219
20
38.1993967891
30
0.0000000000
10
-68.2302758623
20
38.0924746690
30
0.0000000000
11
-68.7406746200
21
38.5491646150
31
0.0000000000
11
-68.6262699033
21
38.4299205458
31
0.0000000000
11
-68.2302758623
21
38.0924746690
31
0.0000000000
0
SPLINE
5
326
100
AcDbEntity
8
0
100
AcDbSpline
62
9
6
CONTINUOUS
70
0
71
3
72
8
73
4
74
2
42
0.0000001000
43
0.0000001000
44
0.0000000001
12
0.7584925771
22
-0.5927215418
32
0.0000000000
13
0.7766894850
23
-0.5665568286
33
0.0000000000
40
0.0000000000
40
0.0000000000
40
0.0000000000
40
0.0000000000
40
1.0000000000
40
1.0000000000
40
1.0000000000
40
1.0000000000
10
-68.2302758623
20
38.0924746690
30
0.0000000000
10
-67.9774450033
20
37.8949008218
30
0.0000000000
10
-67.7190911361
20
37.7058201174
30
0.0000000000
10
-67.4601946412
20
37.5169678412
30
0.0000000000
11
-68.2302758623
21
38.0924746690
31
0.0000000000
11
-67.4601946412
21
37.5169678412
31
0.0000000000
0
SPLINE
5
327
100
AcDbEntity
8
0
100
AcDbSpline
62
9
6
CONTINUOUS
70
0
71
3
72
10
73
6
74
4
42
0.0000001000
43
0.0000001000
44
0.0000000001
12
0.9928946042
22
-0.7153569078
32
0.0000000000
13
-0.0831513588
23
-1.2209263090
33
0.0000000000
40
0.0000000000
40
0.0000000000
40
0.0000000000
40
0.0000000000
40
0.1531553822
40
0.5117031012
40
1.0000000000
40
1.0000000000
40
1.0000000000
40
1.0000000000
10
-67.4601946412
20
37.5169678412
30
0.0000000000
10
-67.4095055903
20
37.4804475876
30
0.0000000000
10
-67.4429443553
20
37.2239156297
30
0.0000000000
10
-67.4041895900
20
36.8543554106
30
0.0000000000
10
-67.4354594942
20
36.4960086641
30
0.0000000000
10
-67.4489936777
20
36.2972838206
30
0.0000000000
11
-67.4601946412
21
37.5169678412
31
0.0000000000
11
-67.4247502901
21
37.3329252451
31
0.0000000000
11
-67.4207066946
21
36.8941694750
31
0.0000000000
11
-67.4489936777
21
36.2972838206
31
0.0000000000
0
SPLINE
5
328
100
AcDbEntity
8
0
100
AcDbSpline
62
9
6
CONTINUOUS
70
0
71
3
72
10
73
6
74
4
42
0.0000001000
43
0.0000001000
44
0.0000000001
12
-1.7054823027
22
-0.0970149582
32
0.0000000000
13
-0.1359759520
23
-1.7028189356
33
0.0000000000
40
0.0000000000
40
0.0000000000
40
0.0000000000
40
0.0000000000
40
0.3330653149
40
0.6666014452
40
1.0000000000
40
1.0000000000
40
1.0000000000
40
1.0000000000
10
-66.3303071844
20
38.6224832460
30
0.0000000000
10
-66.5196528512
20
38.6117124735
30
0.0000000000
10
-66.8993485227
20
38.4959321014
30
0.0000000000
10
-67.3208793515
20
38.0833618247
30
0.0000000000
10
-67.4450814622
20
37.7062068302
30
0.0000000000
10
-67.4601928575
20
37.5169677061
30
0.0000000000
11
-66.3303071844
21
38.6224832460
31
0.0000000000
11
-66.8744395377
21
38.4562601985
31
0.0000000000
11
-67.2816883012
21
38.0577951523
31
0.0000000000
11
-67.4601928575
21
37.5169677061
31
0.0000000000
0
SPLINE
5
329
100
AcDbEntity
8
0
100
AcDbSpline
62
9
6
CONTINUOUS
70
0
71
3
72
10
73
6
74
4
42
0.0000001000
43
0.0000001000
44
0.0000000001
12
-1.1290845678
22
0.0731614600
32
0.0000000000
13
-0.9791592170
23
-0.5669495464
33
0.0000000000
40
0.0000000000
40
0.0000000000
40
0.0000000000
40
0.0000000000
40
0.4793489406
40
0.8389584907
40
1.0000000000
40
1.0000000000
40
1.0000000000
40
1.0000000000
10
-66.3191883336
20
36.2829243342
30
0.0000000000
10
-66.4995968308
20
36.2946142903
30
0.0000000000
10
-66.8195006166
20
36.3195244339
30
0.0000000000
10
-67.1850904853
20
36.3028882550
30
0.0000000000
10
-67.3964310701
20
36.3277178957
30
0.0000000000
10
-67.4489928295
20
36.2972837588
30
0.0000000000
11
-66.3191883336
21
36.2829243342
31
0.0000000000
11
-66.8608528906
21
36.3103913328
31
0.0000000000
11
-67.2677011269
21
36.3155620437
31
0.0000000000
11
-67.4489928295
21
36.2972837588
31
0.0000000000
0
SPLINE
5
32A
100
AcDbEntity
8
0
100
AcDbSpline
62
9
6
CONTINUOUS
70
0
71
3
72
10
73
6
74
4
42
0.0000001000
43
0.0000001000
44
0.0000000001
12
-1.1291248910
22
-0.0732179424
32
0.0000000000
13
-0.9803623808
23
0.5649544132
33
0.0000000000
40
0.0000000000
40
0.0000000000
40
0.0000000000
40
0.0000000000
40
0.4792387398
40
0.8388355448
40
1.0000000000
40
1.0000000000
40
1.0000000000
40
1.0000000000
10
-66.3191430705
20
-36.2828724509
30
0.0000000000
10
-66.4995165338
20
-36.2945687424
30
0.0000000000
10
-66.8193517603
20
-36.3194417471
30
0.0000000000
10
-67.1850535675
20
-36.3029627659
30
0.0000000000
10
-67.3963256886
20
-36.3276339039
30
0.0000000000
10
-67.4489922116
20
-36.2972837138
30
0.0000000000
11
-66.3191430705
21
-36.2828724509
31
0.0000000000
11
-66.8607028543
21
-36.3103589212
31
0.0000000000
11
-67.2675522152
21
-36.3155483750
31
0.0000000000
11
-67.4489922116
21
-36.2972837138
31
0.0000000000
0
SPLINE
5
32B
100
AcDbEntity
8
0
100
AcDbSpline
62
9
6
CONTINUOUS
70
0
71
3
72
10
73
6
74
4
42
0.0000001000
43
0.0000001000
44
0.0000000001
12
-1.7060841338
22
0.0973420713
32
0.0000000000
13
-0.1352732543
23
1.7034963156
33
0.0000000000
40
0.0000000000
40
0.0000000000
40
0.0000000000
40
0.0000000000
40
0.3330265034
40
0.6665642121
40
1.0000000000
40
1.0000000000
40
1.0000000000
40
1.0000000000
10
-66.3303516115
20
-38.6233308703
30
0.0000000000
10
-66.5197420227
20
-38.6125250404
30
0.0000000000
10
-66.8995336749
20
-38.4965900746
30
0.0000000000
10
-67.3210315315
20
-38.0836699301
30
0.0000000000
10
-67.4451074164
20
-37.7062994529
30
0.0000000000
10
-67.4601423977
20
-37.5169639076
30
0.0000000000
11
-66.3303516115
21
-38.6233308703
31
0.0000000000
11
-66.8745712220
21
-38.4569143452
31
0.0000000000
11
-67.2817994868
21
-38.0581291326
31
0.0000000000
11
-67.4601423977
21
-37.5169639076
31
0.0000000000
0
SPLINE
5
32C
100
AcDbEntity
8
0
100
AcDbSpline
62
9
6
CONTINUOUS
70
0
71
3
72
10
73
6
74
4
42
0.0000001000
43
0.0000001000
44
0.0000000001
12
-4.9293761347
22
-72.4766564457
32
0.0000000000
13
4.9293772178
23
-72.4766563721
33
0.0000000000
40
0.0000000000
40
0.0000000000
40
0.0000000000
40
0.0000000000
40
0.3333055670
40
0.6666941917
40
1.0000000000
40
1.0000000000
40
1.0000000000
40
1.0000000000
10
-67.4489936777
20
36.2972838206
30
0.0000000000
10
-67.9966565136
20
28.2449927967
30
0.0000000000
10
-68.7262210220
20
12.1110522678
30
0.0000000000
10
-68.7262213626
20
-12.1110405749
30
0.0000000000
10
-67.9966570304
20
-28.2449869756
30
0.0000000000
10
-67.4489936777
20
-36.2972838206
30
0.0000000000
11
-67.4489936777
21
36.2972838206
31
0.0000000000
11
-68.5437845037
21
12.1093661573
31
0.0000000000
11
-68.5437849069
21
-12.1093486295
31
0.0000000000
11
-67.4489936777
21
-36.2972838206
31
0.0000000000
0
SPLINE
5
32D
100
AcDbEntity
8
0
100
AcDbSpline
62
9
6
CONTINUOUS
70
0
71
3
72
10
73
6
74
4
42
0.0000001000
43
0.0000001000
44
0.0000000001
12
0.0831011394
22
-1.2209285474
32
0.0000000000
13
-0.9960335941
23
-0.7109777750
33
0.0000000000
40
0.0000000000
40
0.0000000000
40
0.0000000000
40
0.0000000000
40
0.4880754582
40
0.8467116348
40
1.0000000000
40
1.0000000000
40
1.0000000000
40
1.0000000000
10
-67.4489936777
20
-36.2972838206
30
0.0000000000
10
-67.4354738022
20
-36.4959189074
30
0.0000000000
10
-67.4041011842
20
-36.8543342177
30
0.0000000000
10
-67.4431396080
20
-37.2235099707
30
0.0000000000
10
-67.4093011874
20
-37.4806396342
30
0.0000000000
10
-67.4601946412
20
-37.5169678412
30
0.0000000000
11
-67.4489936777
21
-36.2972838206
31
0.0000000000
11
-67.4207128678
21
-36.8938978988
31
0.0000000000
11
-67.4247401645
21
-37.3327616513
31
0.0000000000
11
-67.4601946412
21
-37.5169678412
31
0.0000000000
0
SPLINE
5
32E
100
AcDbEntity
8
0
100
AcDbSpline
62
9
6
CONTINUOUS
70
0
71
3
72
8
73
4
74
2
42
0.0000001000
43
0.0000001000
44
0.0000000001
12
-0.7754095448
22
-0.5656600399
32
0.0000000000
13
-0.7573304837
23
-0.5916556747
33
0.0000000000
40
0.0000000000
40
0.0000000000
40
0.0000000000
40
0.0000000000
40
1.0000000000
40
1.0000000000
40
1.0000000000
40
1.0000000000
10
-67.4601946412
20
-37.5169678412
30
0.0000000000
10
-67.7186644894
20
-37.7055211878
30
0.0000000000
10
-67.9766073249
20
-37.8942851130
30
0.0000000000
10
-68.2290508195
20
-38.0915036712
30
0.0000000000
11
-67.4601946412
21
-37.5169678412
31
0.0000000000
11
-68.2290508195
21
-38.0915036712
31
0.0000000000
0
SPLINE
5
32F
100
AcDbEntity
8
0
100
AcDbSpline
62
9
6
CONTINUOUS
70
0
71
3
72
9
73
5
74
3
42
0.0000001000
43
0.0000001000
44
0.0000000001
12
-0.5421386054
22
-0.4235395105
32
0.0000000000
13
-0.4590485692
23
-0.5129061314
33
0.0000000000
40
0.0000000000
40
0.0000000000
40
0.0000000000
40
0.0000000000
40
0.7578172049
40
1.0000000000
40
1.0000000000
40
1.0000000000
40
1.0000000000
10
-68.2290508195
20
-38.0915036712
30
0.0000000000
10
-68.3659981403
20
-38.1984921805
30
0.0000000000
10
-68.5445753843
20
-38.3429553057
30
0.0000000000
10
-68.7036167314
20
-38.5077589349
30
0.0000000000
10
-68.7406746200
20
-38.5491646150
30
0.0000000000
11
-68.2290508195
21
-38.0915036712
31
0.0000000000
11
-68.6254367461
21
-38.4291267493
31
0.0000000000
11
-68.7406746200
21
-38.5491646150
31
0.0000000000
0
SPLINE
5
330
100
AcDbEntity
8
0
100
AcDbSpline
62
9
6
CONTINUOUS
70
0
71
3
72
14
73
10
74
8
42
0.0000001000
43
0.0000001000
44
0.0000000001
12
0.4244241945
22
0.6065144910
32
0.0000000000
13
0.4247448178
23
0.6062899989
33
0.0000000000
40
0.0000000000
40
0.0000000000
40
0.0000000000
40
0.0000000000
40
0.0270517197
40
0.1064969794
40
0.2334732577
40
0.4008382717
40
0.6016583489
40
0.8314471256
40
1.0000000000
40
1.0000000000
40
1.0000000000
40
1.0000000000
10
-69.5973733253
20
-25.1332678270
30
0.0000000000
10
-69.5935461905
20
-25.1277987403
30
0.0000000000
10
-69.5784787101
20
-25.1062686806
30
0.0000000000
10
-69.5454402318
20
-25.0590725800
30
0.0000000000
10
-69.4925390596
20
-24.9835174668
30
0.0000000000
10
-69.4224507840
20
-24.8834347706
30
0.0000000000
10
-69.3378008529
20
-24.7625777207
30
0.0000000000
10
-69.2529770028
20
-24.6414846287
30
0.0000000000
10
-69.1965798305
20
-24.5609806337
30
0.0000000000
10
-69.1727158439
20
-24.5269166597
30
0.0000000000
11
-69.5973733253
21
-25.1332678270
31
0.0000000000
11
-69.5858913117
21
-25.1168609934
31
0.0000000000
11
-69.5521656955
21
-25.0686812795
31
0.0000000000
11
-69.4982541693
21
-24.9916821313
31
0.0000000000
11
-69.4271850902
21
-24.8901975491
31
0.0000000000
11
-69.3419007974
21
-24.7684332424
31
0.0000000000
11
-69.2443065858
21
-24.6291094350
31
0.0000000000
11
-69.1727158439
21
-24.5269166597
31
0.0000000000
0
SPLINE
5
331
100
AcDbEntity
8
0
100
AcDbSpline
62
9
6
CONTINUOUS
70
0
71
3
72
8
73
4
74
2
42
0.0000001000
43
0.0000001000
44
0.0000000001
12
0.0376692166
22
0.0537698598
32
0.0000000000
13
0.0376695375
23
0.0537696350
33
0.0000000000
40
0.0000000000
40
0.0000000000
40
0.0000000000
40
0.0000000000
40
1.0000000000
40
1.0000000000
40
1.0000000000
40
1.0000000000
10
-69.1727158439
20
-24.5269166597
30
0.0000000000
10
-69.1601594383
20
-24.5089933731
30
0.0000000000
10
-69.1476029533
20
-24.4910701422
30
0.0000000000
10
-69.1350464408
20
-24.4731469305
30
0.0000000000
11
-69.1727158439
21
-24.5269166597
31
0.0000000000
11
-69.1350464408
21
-24.4731469305
31
0.0000000000
0
SPLINE
5
332
100
AcDbEntity
8
0
100
AcDbSpline
62
9
6
CONTINUOUS
70
0
71
3
72
11
73
7
74
5
42
0.0000001000
43
0.0000001000
44
0.0000000001
12
-0.3416734845
22
0.4876978040
32
0.0000000000
13
-0.3415852679
23
0.4877596116
33
0.0000000000
40
0.0000000000
40
0.0000000000
40
0.0000000000
40
0.0000000000
40
0.3211261669
40
0.6066392797
40
0.8561559103
40
1.0000000000
40
1.0000000000
40
1.0000000000
40
1.0000000000
10
-69.1350749274
20
24.4725643507
30
0.0000000000
10
-69.1716483595
20
24.5247685262
30
0.0000000000
10
-69.2403232636
20
24.6236782249
30
0.0000000000
10
-69.3379705158
20
24.7627630768
30
0.0000000000
10
-69.4152460688
20
24.8731543412
30
0.0000000000
10
-69.4600362184
20
24.9371085125
30
0.0000000000
10
-69.4764145590
20
24.9604956249
30
0.0000000000
11
-69.1350749274
21
24.4725643507
31
0.0000000000
11
-69.2444989429
21
24.6293840296
31
0.0000000000
11
-69.3420418851
21
24.7686346753
31
0.0000000000
11
-69.4272804173
21
24.8903336745
31
0.0000000000
11
-69.4764145590
21
24.9604956249
31
0.0000000000
0
SPLINE
5
333
100
AcDbEntity
8
0
100
AcDbSpline
62
9
6
CONTINUOUS
70
0
71
3
72
11
73
7
74
5
42
0.0000001000
43
0.0000001000
44
0.0000000001
12
-0.1209830325
22
0.1727552165
32
0.0000000000
13
-0.1209202822
23
0.1727991390
33
0.0000000000
40
0.0000000000
40
0.0000000000
40
0.0000000000
40
0.0000000000
40
0.1809912255
40
0.6264207880
40
0.9051065752
40
1.0000000000
40
1.0000000000
40
1.0000000000
40
1.0000000000
10
-69.4764145590
20
24.9604956249
30
0.0000000000
10
-69.4837135148
20
24.9709180177
30
0.0000000000
10
-69.5089752566
20
25.0069907518
30
0.0000000000
10
-69.5454701096
20
25.0591155733
30
0.0000000000
10
-69.5784898240
20
25.1062845582
30
0.0000000000
10
-69.5935484788
20
25.1278019929
30
0.0000000000
10
-69.5973733253
20
25.1332678270
30
0.0000000000
11
-69.4764145590
21
24.9604956249
31
0.0000000000
11
-69.4983109052
21
24.9917631681
31
0.0000000000
11
-69.5521921956
21
25.0687191381
31
0.0000000000
11
-69.5858981532
21
25.1168707674
31
0.0000000000
11
-69.5973733253
21
25.1332678270
31
0.0000000000
0
SPLINE
5
334
100
AcDbEntity
8
0
100
AcDbSpline
62
9
6
CONTINUOUS
70
0
71
3
72
10
73
6
74
4
42
0.0000001000
43
0.0000001000
44
0.0000000001
12
-5.2961706505
22
0.2631080518
32
0.0000000000
13
-5.2961658515
23
0.2632046332
33
0.0000000000
40
0.0000000000
40
0.0000000000
40
0.0000000000
40
0.0000000000
40
0.3333130913
40
0.6666517972
40
1.0000000000
40
1.0000000000
40
1.0000000000
40
1.0000000000
10
-61.0230203656
20
-36.5460807167
30
0.0000000000
10
-61.6114480361
20
-36.5168482640
30
0.0000000000
10
-62.7883484039
20
-36.4583772282
30
0.0000000000
10
-64.5537378912
20
-36.3706598613
30
0.0000000000
10
-65.7306993787
20
-36.3121683211
30
0.0000000000
10
-66.3191885016
20
-36.2829220573
30
0.0000000000
11
-61.0230203656
21
-36.5460807167
31
0.0000000000
11
-62.7883031108
21
-36.4583779988
31
0.0000000000
11
-64.5537209822
21
-36.3706578144
31
0.0000000000
11
-66.3191885016
21
-36.2829220573
31
0.0000000000
0
SPLINE
5
335
100
AcDbEntity
8
0
100
AcDbSpline
62
9
6
CONTINUOUS
70
0
71
3
72
10
73
6
74
4
42
0.0000001000
43
0.0000001000
44
0.0000000001
12
-4.9176757274
22
-72.4484456979
32
0.0000000000
13
4.9176782440
23
-72.4484455271
33
0.0000000000
40
0.0000000000
40
0.0000000000
40
0.0000000000
40
0.0000000000
40
0.3333031090
40
0.6666963254
40
1.0000000000
40
1.0000000000
40
1.0000000000
40
1.0000000000
10
-66.3191885068
20
36.2829219416
30
0.0000000000
10
-66.8655473765
20
28.2338245436
30
0.0000000000
10
-67.5933841314
20
12.1062209722
30
0.0000000000
10
-67.5933846008
20
-12.1061936817
30
0.0000000000
10
-66.8655485780
20
-28.2338110193
30
0.0000000000
10
-66.3191885016
20
-36.2829220573
30
0.0000000000
11
-66.3191885068
21
36.2829219416
31
0.0000000000
11
-67.4113758322
21
12.1047206173
31
0.0000000000
11
-67.4113766370
21
-12.1046796564
31
0.0000000000
11
-66.3191885016
21
-36.2829220573
31
0.0000000000
0
SPLINE
5
336
100
AcDbEntity
8
0
100
AcDbSpline
62
9
6
CONTINUOUS
70
0
71
3
72
10
73
6
74
4
42
0.0000001000
43
0.0000001000
44
0.0000000001
12
-5.2961706614
22
-0.2631080523
32
0.0000000000
13
-5.2961658625
23
-0.2632046338
33
0.0000000000
40
0.0000000000
40
0.0000000000
40
0.0000000000
40
0.0000000000
40
0.3333127394
40
0.6666510932
40
1.0000000000
40
1.0000000000
40
1.0000000000
40
1.0000000000
10
-61.0230203656
20
36.5460807167
30
0.0000000000
10
-61.6114474161
20
36.5168482948
30
0.0000000000
10
-62.7883465428
20
36.4583773053
30
0.0000000000
10
-64.5537360372
20
36.3706600073
30
0.0000000000
10
-65.7306981399
20
36.3121682672
30
0.0000000000
10
-66.3191885068
20
36.2829219416
30
0.0000000000
11
-61.0230203656
21
36.5460807167
31
0.0000000000
11
-62.7883012510
21
36.4583780912
31
0.0000000000
11
-64.5537172611
21
36.3706579993
31
0.0000000000
11
-66.3191885068
21
36.2829219416
31
0.0000000000
0
SPLINE
5
337
100
AcDbEntity
8
0
100
AcDbSpline
62
9
6
CONTINUOUS
70
0
71
3
72
10
73
6
74
4
42
0.0000001000
43
0.0000001000
44
0.0000000001
12
-1.3264789615
22
-0.9704668331
32
0.0000000000
13
-1.0972108147
23
-1.2276616142
33
0.0000000000
40
0.0000000000
40
0.0000000000
40
0.0000000000
40
0.0000000000
40
0.5827588814
40
0.8988924248
40
1.0000000000
40
1.0000000000
40
1.0000000000
40
1.0000000000
10
-66.3303516313
20
-38.6233310657
30
0.0000000000
10
-66.5880240966
20
-38.8118471211
30
0.0000000000
10
-66.9848599856
20
-39.1027040079
30
0.0000000000
10
-67.4114870633
20
-39.4489372688
30
0.0000000000
10
-67.5700751809
20
-39.6135701245
30
0.0000000000
10
-67.6070539559
20
-39.6549454208
30
0.0000000000
11
-66.3303516313
21
-38.6233310657
31
0.0000000000
11
-67.0969590838
21
-39.1975380286
31
0.0000000000
11
-67.4920754798
21
-39.5349655178
31
0.0000000000
11
-67.6070539559
21
-39.6549454208
31
0.0000000000
0
SPLINE
5
338
100
AcDbEntity
8
0
100
AcDbSpline
62
9
6
CONTINUOUS
70
0
71
3
72
10
73
6
74
4
42
0.0000001000
43
0.0000001000
44
0.0000000001
12
-5.3073336387
22
0.2625733765
32
0.0000000000
13
-5.3073288895
23
0.2626693548
33
0.0000000000
40
0.0000000000
40
0.0000000000
40
0.0000000000
40
0.0000000000
40
0.3333105992
40
0.6666468650
40
1.0000000000
40
1.0000000000
40
1.0000000000
40
1.0000000000
10
-61.0230203656
20
-38.8859524018
30
0.0000000000
10
-61.6126838839
20
-38.8567795720
30
0.0000000000
10
-62.7920561523
20
-38.7984281172
30
0.0000000000
10
-64.5611665741
20
-38.7108876680
30
0.0000000000
10
-65.7406133901
20
-38.6525182833
30
0.0000000000
10
-66.3303516313
20
-38.6233310657
30
0.0000000000
11
-61.0230203656
21
-38.8859524018
31
0.0000000000
11
-62.7920106571
21
-38.7984285862
31
0.0000000000
11
-64.5611366430
21
-38.7108873711
31
0.0000000000
11
-66.3303516313
21
-38.6233310657
31
0.0000000000
0
SPLINE
5
339
100
AcDbEntity
8
0
100
AcDbSpline
62
9
6
CONTINUOUS
70
0
71
3
72
10
73
6
74
4
42
0.0000001000
43
0.0000001000
44
0.0000000001
12
-5.3073336389
22
-0.2625733765
32
0.0000000000
13
-5.3073288896
23
-0.2626693549
33
0.0000000000
40
0.0000000000
40
0.0000000000
40
0.0000000000
40
0.0000000000
40
0.3333111201
40
0.6666479068
40
1.0000000000
40
1.0000000000
40
1.0000000000
40
1.0000000000
10
-61.0230203656
20
38.8859524018
30
0.0000000000
10
-61.6126848056
20
38.8567795264
30
0.0000000000
10
-62.7920589170
20
38.7984279805
30
0.0000000000
10
-64.5611693388
20
38.7108875311
30
0.0000000000
10
-65.7406152332
20
38.6525181923
30
0.0000000000
10
-66.3303516315
20
38.6233310659
30
0.0000000000
11
-61.0230203656
21
38.8859524018
31
0.0000000000
11
-62.7920134220
21
38.7984284493
31
0.0000000000
11
-64.5611421721
21
38.7108870975
31
0.0000000000
11
-66.3303516315
21
38.6233310659
31
0.0000000000
0
ENDSEC
0
SECTION
2
OBJECTS
0
DICTIONARY
5
C
100
AcDbDictionary
280
0
281
1
3
ACAD_GROUP
350
D
3
ACAD_MLINESTYLE
350
17
3
ACAD_LAYOUT
350
1A
3
ACAD_PLOTSETTINGS
350
19
3
ACAD_PLOTSTYLENAME
350
E
0
DICTIONARY
5
D
102
{ACAD_REACTORS
330
C
102
}
100
AcDbDictionary
280
0
281
1
0
ACDBDICTIONARYWDFLT
5
E
102
{ACAD_REACTORS
330
C
102
}
100
AcDbDictionary
281
1
3
Normal
350
F
100
AcDbDictionaryWithDefault
340
F
0
DICTIONARY
5
17
102
{ACAD_REACTORS
330
C
102
}
100
AcDbDictionary
280
0
281
1
3
Standard
350
18
0
DICTIONARY
5
19
102
{ACAD_REACTORS
330
C
102
}
100
AcDbDictionary
281
1
0
DICTIONARY
5
1A
102
{ACAD_REACTORS
330
C
102
}
100
AcDbDictionary
281
1
3
Layout1
350
1E
3
Model
350
22
0
ACDBPLACEHOLDER
5
F
102
{ACAD_REACTORS
330
E
102
}
0
MLINESTYLE
5
18
102
{ACAD_REACTORS
330
17
102
}
100
AcDbMlineStyle
2
STANDARD
70
0
3

62
256
51
90.0
52
90.0
71
2
49
0.5
62
256
6
BYLAYER
49
-0.5
62
256
6
BYLAYER
0
LAYOUT
5
1E
102
{ACAD_REACTORS
330
1A
102
}
100
AcDbPlotSettings
1

2

4

6

40
0.0
41
0.0
42
0.0
43
0.0
44
0.0
45
0.0
46
0.0
47
0.0
48
0.0
49
0.0
140
0.0
141
0.0
142
1.0
143
1.0
70
0
72
0
73
0
74
0
7

75
0
147
1.0
148
0.0
149
0.0
100
AcDbLayout
1
Layout1
70
0
71
0
10
0.0
20
0.0
11
0.0
21
0.0
12
0.0
22
0.0
32
0.0
14
0.0
24
0.0
34
0.0
15
0.0
25
0.0
35
0.0
146
0.0
13
0.0
23
0.0
33
0.0
16
0.0
26
0.0
36
0.0
17
0.0
27
0.0
37
0.0
76
0
330
1B
331
0
345
0
346
0
0
LAYOUT
5
22
102
{ACAD_REACTORS
330
1A
102
}
100
AcDbPlotSettings
1

2

4

6

40
0.0
41
0.0
42
0.0
43
0.0
44
0.0
45
0.0
46
0.0
47
0.0
48
0.0
49
0.0
140
0.0
141
0.0
142
1.0
143
1.0
70
0
72
0
73
0
74
0
7

75
0
147
1.0
148
0.0
149
0.0
100
AcDbLayout
1
Model
70
0
71
0
10
0.0
20
0.0
11
0.0
21
0.0
12
0.0
22
0.0
32
0.0
14
0.0
24
0.0
34
0.0
15
0.0
25
0.0
35
0.0
146
0.0
13
0.0
23
0.0
33
0.0
16
0.0
26
0.0
36
0.0
17
0.0
27
0.0
37
0.0
76
0
330
1F
331
0
345
0
346
0
0
ENDSEC
0
EOF
