  0
SECTION
  2
HEADER
  9
$ACADVER
  1
AC1015
  9
$DWGCODEPAGE
  3
ANSI_1252
  9
$EXTMAX
 10
297.0
 20
210.0
 30
0.0
  9
$EXTMIN
 10
0.0
 20
0.0
 30
0.0
  9
$LIMMIN
 10
0.0
 20
0.0
  9
$LIMMAX
 10
297.0
 20
210.0
  9
$VIEWCTR
 10
148.5
 20
105.0
  9
$VIEWSIZE
 40
210.0
  9
$CLAYER
  8
0
  9
$LTSCALE
 40
16.335
  9
$CELTYPE
  6
BYLAYER
  9
$DIMSCALE
 40
1.0
  9
$DIMASZ
 40
3.0
  9
$DIMEXO
 40
1.85625
  9
$DIMDLI
 40
11.286
  9
$DIMEXE
 40
5.346
  9
$DIMCEN
 40
2.673
  9
$DIMLFAC
 40
1.0
  9
$DIMBLK
  1
_FILLED
  9
$DIMTXT
 40
3.0
  9
$DIMTOL
 70
1
  9
$DIMLIM
 70
0
  9
$DIMTFAC
 40
1.0
  9
$DIMTP
 40
0.01
  9
$DIMTM
 40
0.01
  9
$PDMODE
 70
3
  9
$PDSIZE
 40
3.0
  9
$HANDSEED
  5
359
  9
$TILEMODE
 70
1
  9
$MEASUREMENT
 70
1
  9
$INSUNITS
 70
4
  0
ENDSEC
  0
SECTION
  2
CLASSES
  0
CLASS
  1
ACDBDICTIONARYWDFLT
  2
AcDbDictionaryWithDefault
  3
AutoCAD 2000
 90
0
280
0
281
0
  0
CLASS
  1
ACDBPLACEHOLDER
  2
AcDbPlaceHolder
  3
AutoCAD 2000
 90
0
280
0
281
0
  0
CLASS
  1
LAYOUT
  2
AcDbLayout
  3
AutoCAD 2000
 90
0
280
0
281
0
  0
ENDSEC
  0
SECTION
  2
TABLES
  0
TABLE
  2
VPORT
  5
8
100
AcDbSymbolTable
 70
2
  0
VPORT
  5
1F4
100
AcDbSymbolTableRecord
100
AcDbViewportTableRecord
  2
*ACTIVE
 70
0
 10
0.0
 20
0.0
 11
1.0
 21
1.0
 12
148.5
 22
105.0
 13
0.0
 23
0.0
 14
1.0
 24
1.0
 15
0.0
 25
0.0
 16
0.0
 26
0.0
 36
1.0
 17
0.0
 27
0.0
 37
0.0
 40
210.0
 41
1.4142857143
 42
50.0
 43
0.0
 44
0.0
 50
0.0
 51
0.0
 71
0
 72
100
 73
1
 74
1
 75
0
 76
0
 77
0
 78
0
  0
ENDTAB
  0
TABLE
  2
LTYPE
  5
5
100
AcDbSymbolTable
 70
6
  0
LTYPE
  5
14
100
AcDbSymbolTableRecord
100
AcDbLinetypeTableRecord
  2
BYBLOCK
 70
0
  3

 72
65
 73
0
 40
0.0
  0
LTYPE
  5
15
100
AcDbSymbolTableRecord
100
AcDbLinetypeTableRecord
  2
BYLAYER
 70
0
  3

 72
65
 73
0
 40
0.0
  0
LTYPE
  5
16
100
AcDbSymbolTableRecord
100
AcDbLinetypeTableRecord
  2
CONTINUOUS
 70
64
  3
Solid line
 72
65
 73
0
 40
0.0
  0
LTYPE
  5
1F5
100
AcDbSymbolTableRecord
100
AcDbLinetypeTableRecord
  2
CENTER
 70
64
  3
____ _ ____ _ ____ _ ____ _ ____ _ ____ _ ____
 72
65
 73
4
 40
0.6
 49
0.375
 74
0
 49
-0.075
 74
0
 49
0.075
 74
0
 49
-0.075
 74
0
  0
LTYPE
  5
1F6
100
AcDbSymbolTableRecord
100
AcDbLinetypeTableRecord
  2
HIDDEN
 70
64
  3
- - - - - - - - - - - - - - - - - - - -
 72
65
 73
2
 40
0.2
 49
0.1
 74
0
 49
-0.1
 74
0
  0
LTYPE
  5
1F7
100
AcDbSymbolTableRecord
100
AcDbLinetypeTableRecord
  2
PHANTOM
 70
64
  3
_____ _ _ _____ _ _ _____ _ _ _____
 72
65
 73
6
 40
0.8
 49
0.45
 74
0
 49
-0.05
 74
0
 49
0.1
 74
0
 49
-0.05
 74
0
 49
0.1
 74
0
 49
-0.05
 74
0
  0
LTYPE
  5
1F8
100
AcDbSymbolTableRecord
100
AcDbLinetypeTableRecord
  2
DOT
 70
64
  3
. . . . . . . . . . . . . . . . . . . .
 72
65
 73
2
 40
0.2
 49
0.1
 74
0
 49
-0.1
 74
0
  0
LTYPE
  5
1F9
100
AcDbSymbolTableRecord
100
AcDbLinetypeTableRecord
  2
DASHED
 70
64
  3
- - - - - - - - - - - - - - - - - - - -
 72
65
 73
2
 40
0.2
 49
0.1
 74
0
 49
-0.1
 74
0
  0
ENDTAB
  0
TABLE
  2
LAYER
  5
2
100
AcDbSymbolTable
 70
36
  0
LAYER
  5
10
100
AcDbSymbolTableRecord
100
AcDbLayerTableRecord
  2
0
 70
0
 62
7
  6
CONTINUOUS
370
-3
390
F
  0
LAYER
  5
1FA
100
AcDbSymbolTableRecord
100
AcDbLayerTableRecord
  2
DEFAULT_1
 70
0
 62
7
  6
CENTER
370
-3
390
F
  0
LAYER
  5
1FB
100
AcDbSymbolTableRecord
100
AcDbLayerTableRecord
  2
DEFAULT_2
 70
0
 62
7
  6
HIDDEN
370
-3
390
F
  0
LAYER
  5
1FC
100
AcDbSymbolTableRecord
100
AcDbLayerTableRecord
  2
DEFAULT_3
 70
0
 62
7
  6
PHANTOM
370
-3
390
F
  0
LAYER
  5
1FD
100
AcDbSymbolTableRecord
100
AcDbLayerTableRecord
  2
ASSI
 70
0
 62
7
  6
CONTINUOUS
370
-3
390
F
  0
LAYER
  5
1FE
100
AcDbSymbolTableRecord
100
AcDbLayerTableRecord
  2
COORDINATE
 70
0
 62
7
  6
CONTINUOUS
370
-3
390
F
  0
LAYER
  5
1FF
100
AcDbSymbolTableRecord
100
AcDbLayerTableRecord
  2
COPY_PUBLISH
 70
0
 62
7
  6
CONTINUOUS
370
-3
390
F
  0
LAYER
  5
200
100
AcDbSymbolTableRecord
100
AcDbLayerTableRecord
  2
COSMETIC
 70
0
 62
7
  6
CONTINUOUS
370
-3
390
F
  0
LAYER
  5
201
100
AcDbSymbolTableRecord
100
AcDbLayerTableRecord
  2
CURVE
 70
0
 62
7
  6
CONTINUOUS
370
-3
390
F
  0
LAYER
  5
202
100
AcDbSymbolTableRecord
100
AcDbLayerTableRecord
  2
DRAFT
 70
0
 62
7
  6
CONTINUOUS
370
-3
390
F
  0
LAYER
  5
203
100
AcDbSymbolTableRecord
100
AcDbLayerTableRecord
  2
IMPORT_IGES
 70
0
 62
7
  6
CONTINUOUS
370
-3
390
F
  0
LAYER
  5
204
100
AcDbSymbolTableRecord
100
AcDbLayerTableRecord
  2
INTFCLR_1
 70
0
 62
7
  6
CONTINUOUS
370
-3
390
F
  0
LAYER
  5
205
100
AcDbSymbolTableRecord
100
AcDbLayerTableRecord
  2
NOTE
 70
0
 62
7
  6
CONTINUOUS
370
-3
390
F
  0
LAYER
  5
206
100
AcDbSymbolTableRecord
100
AcDbLayerTableRecord
  2
PIANI
 70
0
 62
7
  6
CONTINUOUS
370
-3
390
F
  0
LAYER
  5
207
100
AcDbSymbolTableRecord
100
AcDbLayerTableRecord
  2
PUNTI
 70
0
 62
7
  6
CONTINUOUS
370
-3
390
F
  0
LAYER
  5
208
100
AcDbSymbolTableRecord
100
AcDbLayerTableRecord
  2
RACCORDO
 70
0
 62
7
  6
CONTINUOUS
370
-3
390
F
  0
LAYER
  5
209
100
AcDbSymbolTableRecord
100
AcDbLayerTableRecord
  2
SNAPLINE
 70
0
 62
7
  6
CONTINUOUS
370
-3
390
F
  0
LAYER
  5
20A
100
AcDbSymbolTableRecord
100
AcDbLayerTableRecord
  2
SUPERFICI
 70
0
 62
7
  6
CONTINUOUS
370
-3
390
F
  0
LAYER
  5
20B
100
AcDbSymbolTableRecord
100
AcDbLayerTableRecord
  2
TRASH
 70
0
 62
7
  6
CONTINUOUS
370
-3
390
F
  0
LAYER
  5
20C
100
AcDbSymbolTableRecord
100
AcDbLayerTableRecord
  2
XSEC_DATUMS
 70
0
 62
7
  6
CONTINUOUS
370
-3
390
F
  0
ENDTAB
  0
TABLE
  2
STYLE
  5
3
100
AcDbSymbolTable
 70
1
  0
STYLE
  5
11
100
AcDbSymbolTableRecord
100
AcDbTextStyleTableRecord
  2
STANDARD
 70
0
 40
0.0
 41
0.8
 50
0.0
 71
0
 42
0.2
  3
txt
  4

  0
STYLE
  5
20D
100
AcDbSymbolTableRecord
100
AcDbTextStyleTableRecord
  2
TEXTSTYLE_1
 70
0
 40
0.0
 41
0.8
 50
0.0
 71
0
 42
0.2
  3
gdt
  4

  0
ENDTAB
  0
TABLE
  2
VIEW
  5
6
100
AcDbSymbolTable
 70
0
  0
ENDTAB
  0
TABLE
  2
UCS
  5
7
100
AcDbSymbolTable
 70
0
  0
ENDTAB
  0
TABLE
  2
APPID
  5
9
100
AcDbSymbolTable
 70
1
  0
APPID
  5
20E
100
AcDbSymbolTableRecord
100
AcDbRegAppTableRecord
  2
ACAD
 70
0
  0
ENDTAB
  0
TABLE
  2
BLOCK_RECORD
  5
1
100
AcDbSymbolTable
 70
0
  0
BLOCK_RECORD
  5
20F
100
AcDbSymbolTableRecord
100
AcDbBlockTableRecord
  2
*Model_Space
  0
BLOCK_RECORD
  5
210
100
AcDbSymbolTableRecord
100
AcDbBlockTableRecord
  2
*Paper_Space
  0
BLOCK_RECORD
  5
211
100
AcDbSymbolTableRecord
100
AcDbBlockTableRecord
  2
_FILLED
  0
BLOCK_RECORD
  5
212
100
AcDbSymbolTableRecord
100
AcDbBlockTableRecord
  2
*D0
  0
BLOCK_RECORD
  5
213
100
AcDbSymbolTableRecord
100
AcDbBlockTableRecord
  2
*D1
  0
BLOCK_RECORD
  5
214
100
AcDbSymbolTableRecord
100
AcDbBlockTableRecord
  2
*D2
  0
ENDTAB
  0
TABLE
  2
DIMSTYLE
  5
A
100
AcDbSymbolTable
 70
1
100
AcDbDimStyleTable
 71
0
  0
DIMSTYLE
105
215
100
AcDbSymbolTableRecord
100
AcDbDimStyleTableRecord
  2
STANDARD
 70
0
  3

  4

 40
1.0
 41
3.0
 42
0.0625
 43
0.38
 44
0.18
 45
0.0
 46
0.0
 47
0.01
 48
0.01
140
3.0
141
0.09
142
0.0
143
25.4
144
1.0
145
0.0
146
1.0
147
0.09
 71
1.0
 72
0.0
 73
0
 74
0
 75
0
 76
0
 77
1
 78
8
170
0
171
2
172
0
173
0
174
0
175
0
176
0
177
0
178
0
270
2
271
2
272
2
273
2
274
2
275
0
280
0
281
0
282
0
283
1
284
8
285
0
286
0
287
3
288
0
340
11
341
211
342
211
343
211
344
211
  0
DIMSTYLE
105
216
100
AcDbSymbolTableRecord
100
AcDbDimStyleTableRecord
  2
DIMSTYLE_1
 70
0
  3

  4

 40
1.0
 41
3.0
 42
0.0625
 43
0.38
 44
0.18
 45
0.0
 46
0.0
 47
0.0
 48
0.0
140
3.0
141
0.09
142
0.0
143
25.4
144
1.0
145
0.0
146
1.0
147
0.09
 71
0.0
 72
0.0
 73
0
 74
0
 75
0
 76
0
 77
1
 78
8
170
0
171
2
172
0
173
0
174
0
175
0
176
0
177
0
178
0
270
2
271
1
272
1
273
2
274
2
275
0
280
0
281
0
282
0
283
1
284
8
285
0
286
0
287
3
288
0
340
11
341
211
342
211
343
211
344
211
  0
DIMSTYLE
105
217
100
AcDbSymbolTableRecord
100
AcDbDimStyleTableRecord
  2
DIMSTYLE_2
 70
0
  3

  4

 40
1.0
 41
3.0
 42
0.0625
 43
0.38
 44
0.18
 45
0.0
 46
0.0
 47
0.0
 48
0.0
140
3.0
141
0.09
142
0.0
143
25.4
144
1.0
145
0.0
146
1.0
147
0.09
 71
0.0
 72
0.0
 73
0
 74
0
 75
0
 76
0
 77
1
 78
8
170
0
171
2
172
0
173
0
174
0
175
0
176
0
177
0
178
0
270
2
271
2
272
2
273
2
274
2
275
0
280
0
281
0
282
0
283
1
284
8
285
0
286
0
287
3
288
0
340
11
341
211
342
211
343
211
344
211
  0
ENDTAB
  0
ENDSEC
  0
SECTION
  2
BLOCKS
  0
BLOCK
  5
20
100
AcDbEntity
  8
0
100
AcDbBlockBegin
  2
*Model_Space
 70
0
 10
0.0
 20
0.0
 30
0.0
  3
*Model_Space
  1

  0
ENDBLK
  5
21
100
AcDbEntity
  8
0
100
AcDbBlockEnd
  0
BLOCK
  5
1C
100
AcDbEntity
  8
0
100
AcDbBlockBegin
  2
*Paper_Space
 70
0
 10
0.0
 20
0.0
 30
0.0
  3
*Paper_Space
  1

  0
ENDBLK
  5
1D
100
AcDbEntity
  8
0
100
AcDbBlockEnd
  0
BLOCK
  5
218
100
AcDbEntity
  8
0
100
AcDbBlockBegin
  2
_FILLED
 70
64
 10
0.0
 20
0.0
  3
_FILLED
  1

  0
SOLID
  5
219
100
AcDbEntity
  8
0
  6
BYBLOCK
 62
0
100
AcDbTrace
 10
0.0
 20
0.0
 11
-1.0
 21
0.3166666667
 12
-1.0
 22
-0.3166666667
 13
-1.0
 23
-0.3166666667
  0
ENDBLK
  5
21A
100
AcDbEntity
  8
0
  6
BYBLOCK
 62
0
100
AcDbBlockEnd
  0
BLOCK
  5
21B
100
AcDbEntity
  8
0
100
AcDbBlockBegin
 62
7
  6
CONTINUOUS
  2
*D0
 70
65
 10
0.0
 20
0.0
  3
*D0
  1

  0
MTEXT
  5
21C
100
AcDbEntity
  8
0
100
AcDbMText
 62
7
  6
CONTINUOUS
  7
STANDARD
 71
2
 72
1
 10
-82.2821301873
 20
55.75
 30
0.0
 11
1.0
 21
0.0
 31
0.0
 44
0.9
  1
9
 40
3.0
 41
2.3571428571
  0
LINE
  5
21D
100
AcDbEntity
  8
0
100
AcDbLine
 62
7
  6
CONTINUOUS
 10
-77.7689623214
 20
36.5563828951
 11
-77.7689623214
 21
53.5
  0
LINE
  5
21E
100
AcDbEntity
  8
0
100
AcDbLine
 62
7
  6
CONTINUOUS
 10
-86.7952980533
 20
0.4999999962
 11
-86.7952980533
 21
53.5
  0
LINE
  5
21F
100
AcDbEntity
  8
0
100
AcDbLine
 62
7
  6
CONTINUOUS
 10
-77.7689623214
 20
52.0
 11
-82.2821301873
 21
52.0
  0
LINE
  5
220
100
AcDbEntity
  8
0
100
AcDbLine
 62
7
  6
CONTINUOUS
 10
-86.7952980533
 20
52.0
 11
-82.2821301873
 21
52.0
  0
INSERT
  5
221
100
AcDbEntity
  8
0
100
AcDbBlockReference
 62
7
  6
CONTINUOUS
  2
_FILLED
 10
-77.7689623214
 20
52.0
 41
3.0
 42
3.0
 43
3.0
 50
0.0
  0
INSERT
  5
222
100
AcDbEntity
  8
0
100
AcDbBlockReference
 62
7
  6
CONTINUOUS
  2
_FILLED
 10
-86.7952980533
 20
52.0
 41
3.0
 42
3.0
 43
3.0
 50
180.0
  0
ENDBLK
  5
223
100
AcDbEntity
  8
0
  6
BYBLOCK
 62
0
100
AcDbBlockEnd
  0
BLOCK
  5
224
100
AcDbEntity
  8
0
100
AcDbBlockBegin
 62
7
  6
CONTINUOUS
  2
*D1
 70
65
 10
0.0
 20
0.0
  3
*D1
  1

  0
MTEXT
  5
225
100
AcDbEntity
  8
0
100
AcDbMText
 62
7
  6
CONTINUOUS
  7
STANDARD
 71
2
 72
1
 10
-0.0062296385
 20
55.75
 30
0.0
 11
1.0
 21
0.0
 31
0.0
 44
0.9
  1
120
 40
3.0
 41
6.4285714286
  0
LINE
  5
226
100
AcDbEntity
  8
0
100
AcDbLine
 62
7
  6
CONTINUOUS
 10
59.9745393107
 20
4.1510182698
 11
59.9745393107
 21
53.5
  0
LINE
  5
227
100
AcDbEntity
  8
0
100
AcDbLine
 62
7
  6
CONTINUOUS
 10
-59.9869985877
 20
4.4498766793
 11
-59.9869985877
 21
53.5
  0
LINE
  5
228
100
AcDbEntity
  8
0
100
AcDbLine
 62
7
  6
CONTINUOUS
 10
59.9745393107
 20
52.0
 11
-0.0062296385
 21
52.0
  0
LINE
  5
229
100
AcDbEntity
  8
0
100
AcDbLine
 62
7
  6
CONTINUOUS
 10
-59.9869985877
 20
52.0
 11
-0.0062296385
 21
52.0
  0
INSERT
  5
22A
100
AcDbEntity
  8
0
100
AcDbBlockReference
 62
7
  6
CONTINUOUS
  2
_FILLED
 10
59.9745393107
 20
52.0
 41
3.0
 42
3.0
 43
3.0
  0
INSERT
  5
22B
100
AcDbEntity
  8
0
100
AcDbBlockReference
 62
7
  6
CONTINUOUS
  2
_FILLED
 10
-59.9869985877
 20
52.0
 41
3.0
 42
3.0
 43
3.0
 50
180.0
  0
ENDBLK
  5
22C
100
AcDbEntity
  8
0
  6
BYBLOCK
 62
0
100
AcDbBlockEnd
  0
BLOCK
  5
22D
100
AcDbEntity
  8
0
100
AcDbBlockBegin
 62
7
  6
CONTINUOUS
  2
*D2
 70
65
 10
0.0
 20
0.0
  3
*D2
  1

  0
MTEXT
  5
22E
100
AcDbEntity
  8
0
100
AcDbMText
 62
7
  6
CONTINUOUS
  7
STANDARD
 71
2
 72
1
 10
68.25
 20
-0.0
 30
0.0
 11
0.0
 21
1.0
 31
0.0
 44
0.9
  1
80
 40
3.0
 41
4.7142857143
  0
LINE
  5
22F
100
AcDbEntity
  8
0
100
AcDbLine
 62
7
  6
CONTINUOUS
 10
0.5
 20
40.0
 11
73.5
 21
40.0
  0
LINE
  5
230
100
AcDbEntity
  8
0
100
AcDbLine
 62
7
  6
CONTINUOUS
 10
0.5
 20
-40.0
 11
73.5
 21
-40.0
  0
LINE
  5
231
100
AcDbEntity
  8
0
100
AcDbLine
 62
7
  6
CONTINUOUS
 10
72.0
 20
40.0
 11
72.0
 21
0.0
  0
LINE
  5
232
100
AcDbEntity
  8
0
100
AcDbLine
 62
7
  6
CONTINUOUS
 10
72.0
 20
-40.0
 11
72.0
 21
0.0
  0
INSERT
  5
233
100
AcDbEntity
  8
0
100
AcDbBlockReference
 62
7
  6
CONTINUOUS
  2
_FILLED
 10
72.0
 20
40.0
 41
3.0
 42
3.0
 43
3.0
 50
90.0
  0
INSERT
  5
234
100
AcDbEntity
  8
0
100
AcDbBlockReference
 62
7
  6
CONTINUOUS
  2
_FILLED
 10
72.0
 20
-40.0
 41
3.0
 42
3.0
 43
3.0
 50
270.0
  0
ENDBLK
  5
235
100
AcDbEntity
  8
0
  6
BYBLOCK
 62
0
100
AcDbBlockEnd
  0
ENDSEC
  0
SECTION
  2
ENTITIES
  0
DIMENSION
  5
236
100
AcDbEntity
  8
0
100
AcDbDimension
 62
7
  6
CONTINUOUS
  2
*D0
 10
-86.7952980533
 20
52.0
 11
-83.4607016159
 21
54.25
 70
160
 71
2
 42
9.0263357319
  3
DIMSTYLE_1
100
AcDbAlignedDimension
 13
-77.7689623214
 23
36.5563828951
 14
-86.7952980533
 24
0.4999999962
 50
180.0
100
AcDbRotatedDimension
  0
DIMENSION
  5
237
100
AcDbEntity
  8
0
100
AcDbDimension
 62
7
  6
CONTINUOUS
  2
*D1
 10
-59.9869985877
 20
52.0
 11
-3.2205153528
 21
54.25
 70
160
 71
2
 42
119.9615378983
  3
DIMSTYLE_1
100
AcDbAlignedDimension
 13
59.9745393107
 23
4.1510182698
 14
-59.9869985877
 24
4.4498766793
 50
180.0
100
AcDbRotatedDimension
  0
DIMENSION
  5
238
100
AcDbEntity
  8
0
100
AcDbDimension
 62
7
  6
CONTINUOUS
  2
*D2
 10
72.0
 20
-40.0
 11
70.8061735237
 21
-2.1072778499
 70
160
 71
2
 42
80.0
  3
DIMSTYLE_2
100
AcDbAlignedDimension
 13
0.5
 23
40.0
 14
0.5
 24
-40.0
 50
270.0
100
AcDbRotatedDimension
  0
LINE
  5
239
100
AcDbEntity
  8
RACCORDO
100
AcDbLine
 62
253
  6
CONTINUOUS
 10
-22.7263561463
 20
-22.5542832154
 11
-22.7263619064
 21
22.5542889755
  0
LINE
  5
23A
100
AcDbEntity
  8
RACCORDO
100
AcDbLine
 62
253
  6
CONTINUOUS
 10
-22.5132247812
 20
-22.2132704726
 11
-22.5132248706
 21
22.213270562
  0
LINE
  5
23B
100
AcDbEntity
  8
0
100
AcDbLine
 62
7
  6
CONTINUOUS
 10
-22.5
 20
22.2000456915
 11
-22.5
 21
-22.2000456915
  0
LINE
  5
23C
100
AcDbEntity
  8
0
100
AcDbLine
 62
7
  6
CONTINUOUS
 10
3.326652
 20
-23.705399
 11
3.240652
 21
-23.721399
  0
LINE
  5
23D
100
AcDbEntity
  8
0
100
AcDbLine
 62
7
  6
CONTINUOUS
 10
-3.328348
 20
-24.638399
 11
-2.981348
 21
-24.638399
  0
LINE
  5
23E
100
AcDbEntity
  8
0
100
AcDbLine
 62
7
  6
CONTINUOUS
 10
-2.120348
 20
-24.638399
 11
-1.758348
 21
-24.638399
  0
LINE
  5
23F
100
AcDbEntity
  8
0
100
AcDbLine
 62
7
  6
CONTINUOUS
 10
-1.441348
 20
-24.638399
 11
-1.078348
 21
-24.638399
  0
LINE
  5
240
100
AcDbEntity
  8
0
100
AcDbLine
 62
7
  6
CONTINUOUS
 10
-0.731348
 20
-24.638399
 11
-0.368348
 21
-24.638399
  0
LINE
  5
241
100
AcDbEntity
  8
0
100
AcDbLine
 62
7
  6
CONTINUOUS
 10
-0.021348
 20
-24.638399
 11
0.340652
 21
-24.638399
  0
LINE
  5
242
100
AcDbEntity
  8
0
100
AcDbLine
 62
7
  6
CONTINUOUS
 10
0.627652
 20
-24.638399
 11
0.990652
 21
-24.638399
  0
LINE
  5
243
100
AcDbEntity
  8
0
100
AcDbLine
 62
7
  6
CONTINUOUS
 10
1.790652
 20
-24.638399
 11
2.152652
 21
-24.638399
  0
LINE
  5
244
100
AcDbEntity
  8
0
100
AcDbLine
 62
7
  6
CONTINUOUS
 10
2.439652
 20
-24.638399
 11
2.802652
 21
-24.638399
  0
LINE
  5
245
100
AcDbEntity
  8
0
100
AcDbLine
 62
7
  6
CONTINUOUS
 10
3.481652
 20
-24.638399
 11
3.889652
 21
-24.638399
  0
LINE
  5
246
100
AcDbEntity
  8
0
100
AcDbLine
 62
7
  6
CONTINUOUS
 10
1.095652
 20
-24.323399
 11
1.669652
 21
-24.323399
  0
LINE
  5
247
100
AcDbEntity
  8
0
100
AcDbLine
 62
7
  6
CONTINUOUS
 10
1.564652
 20
-24.022399
 11
1.216652
 21
-24.022399
  0
LINE
  5
248
100
AcDbEntity
  8
0
100
AcDbLine
 62
7
  6
CONTINUOUS
 10
2.802652
 20
-24.022399
 11
3.119652
 21
-24.022399
  0
LINE
  5
249
100
AcDbEntity
  8
0
100
AcDbLine
 62
7
  6
CONTINUOUS
 10
3.240652
 20
-23.721399
 11
2.787652
 21
-23.721399
  0
LINE
  5
24A
100
AcDbEntity
  8
0
100
AcDbLine
 62
7
  6
CONTINUOUS
 10
2.787652
 20
-23.310399
 11
3.240652
 21
-23.310399
  0
LINE
  5
24B
100
AcDbEntity
  8
0
100
AcDbLine
 62
7
  6
CONTINUOUS
 10
3.285652
 20
-23.009399
 11
2.439652
 21
-23.009399
  0
LINE
  5
24C
100
AcDbEntity
  8
0
100
AcDbLine
 62
7
  6
CONTINUOUS
 10
1.564652
 20
-23.009399
 11
1.201652
 21
-23.009399
  0
LINE
  5
24D
100
AcDbEntity
  8
0
100
AcDbLine
 62
7
  6
CONTINUOUS
 10
0.340652
 20
-23.009399
 11
-0.202348
 21
-23.009399
  0
LINE
  5
24E
100
AcDbEntity
  8
0
100
AcDbLine
 62
7
  6
CONTINUOUS
 10
-0.882348
 20
-23.009399
 11
-1.441348
 21
-23.009399
  0
LINE
  5
24F
100
AcDbEntity
  8
0
100
AcDbLine
 62
7
  6
CONTINUOUS
 10
-1.758348
 20
-23.009399
 11
-2.120348
 21
-23.009399
  0
LINE
  5
250
100
AcDbEntity
  8
0
100
AcDbLine
 62
7
  6
CONTINUOUS
 10
-2.392348
 20
-23.009399
 11
-2.754348
 21
-23.009399
  0
LINE
  5
251
100
AcDbEntity
  8
0
100
AcDbLine
 62
7
  6
CONTINUOUS
 10
-3.555348
 20
-23.009399
 11
-3.917348
 21
-23.009399
  0
LINE
  5
252
100
AcDbEntity
  8
RACCORDO
100
AcDbLine
 62
253
  6
CONTINUOUS
 10
22.5542889828
 20
-22.7263619137
 11
-22.5542889755
 21
-22.7263619064
  0
LINE
  5
253
100
AcDbEntity
  8
RACCORDO
100
AcDbLine
 62
253
  6
CONTINUOUS
 10
22.213270562
 20
-22.5132248706
 11
-22.213270562
 21
-22.5132248706
  0
LINE
  5
254
100
AcDbEntity
  8
0
100
AcDbLine
 62
7
  6
CONTINUOUS
 10
-22.2000456915
 20
-22.5
 11
22.2000456915
 21
-22.5
  0
LINE
  5
255
100
AcDbEntity
  8
0
100
AcDbLine
 62
7
  6
CONTINUOUS
 10
3.473652
 20
-23.039399
 11
3.285652
 21
-23.009399
  0
LINE
  5
256
100
AcDbEntity
  8
0
100
AcDbLine
 62
7
  6
CONTINUOUS
 10
3.240652
 20
-23.310399
 11
3.326652
 21
-23.326399
  0
LINE
  5
257
100
AcDbEntity
  8
0
100
AcDbLine
 62
7
  6
CONTINUOUS
 10
3.639652
 20
-23.124399
 11
3.473652
 21
-23.039399
  0
LINE
  5
258
100
AcDbEntity
  8
0
100
AcDbLine
 62
7
  6
CONTINUOUS
 10
3.326652
 20
-23.326399
 11
3.400652
 21
-23.371399
  0
LINE
  5
259
100
AcDbEntity
  8
0
100
AcDbLine
 62
7
  6
CONTINUOUS
 10
3.763652
 20
-23.255399
 11
3.639652
 21
-23.124399
  0
LINE
  5
25A
100
AcDbEntity
  8
0
100
AcDbLine
 62
7
  6
CONTINUOUS
 10
3.400652
 20
-23.371399
 11
3.449652
 21
-23.437399
  0
LINE
  5
25B
100
AcDbEntity
  8
0
100
AcDbLine
 62
7
  6
CONTINUOUS
 10
3.889652
 20
-24.638399
 11
3.496652
 21
-23.981399
  0
LINE
  5
25C
100
AcDbEntity
  8
0
100
AcDbLine
 62
7
  6
CONTINUOUS
 10
3.119652
 20
-24.022399
 11
3.481652
 21
-24.638399
  0
LINE
  5
25D
100
AcDbEntity
  8
0
100
AcDbLine
 62
7
  6
CONTINUOUS
 10
1.669652
 20
-24.323399
 11
1.790652
 21
-24.638399
  0
LINE
  5
25E
100
AcDbEntity
  8
0
100
AcDbLine
 62
7
  6
CONTINUOUS
 10
-3.917348
 20
-23.009399
 11
-3.328348
 21
-24.638399
  0
LINE
  5
25F
100
AcDbEntity
  8
0
100
AcDbLine
 62
7
  6
CONTINUOUS
 10
2.152652
 20
-24.638399
 11
1.564652
 21
-23.009399
  0
LINE
  5
260
100
AcDbEntity
  8
0
100
AcDbLine
 62
7
  6
CONTINUOUS
 10
1.382652
 20
-23.516399
 11
1.564652
 21
-24.022399
  0
LINE
  5
261
100
AcDbEntity
  8
0
100
AcDbLine
 62
7
  6
CONTINUOUS
 10
-3.162348
 20
-24.145399
 11
-3.555348
 21
-23.009399
  0
LINE
  5
262
100
AcDbEntity
  8
0
100
AcDbLine
 62
7
  6
CONTINUOUS
 10
-1.078348
 20
-23.570399
 11
-0.731348
 21
-24.638399
  0
LINE
  5
263
100
AcDbEntity
  8
0
100
AcDbLine
 62
7
  6
CONTINUOUS
 10
-0.550348
 20
-24.077399
 11
-0.882348
 21
-23.009399
  0
LINE
  5
264
100
AcDbEntity
  8
0
100
AcDbLine
 62
7
  6
CONTINUOUS
 10
-2.120348
 20
-23.009399
 11
-2.120348
 21
-24.638399
  0
LINE
  5
265
100
AcDbEntity
  8
0
100
AcDbLine
 62
7
  6
CONTINUOUS
 10
-1.758348
 20
-24.638399
 11
-1.758348
 21
-23.009399
  0
LINE
  5
266
100
AcDbEntity
  8
0
100
AcDbLine
 62
7
  6
CONTINUOUS
 10
-1.441348
 20
-23.009399
 11
-1.441348
 21
-24.638399
  0
LINE
  5
267
100
AcDbEntity
  8
0
100
AcDbLine
 62
7
  6
CONTINUOUS
 10
-1.078348
 20
-24.638399
 11
-1.078348
 21
-23.570399
  0
LINE
  5
268
100
AcDbEntity
  8
0
100
AcDbLine
 62
7
  6
CONTINUOUS
 10
-0.021348
 20
-23.570399
 11
-0.021348
 21
-24.638399
  0
LINE
  5
269
100
AcDbEntity
  8
0
100
AcDbLine
 62
7
  6
CONTINUOUS
 10
0.340652
 20
-24.638399
 11
0.340652
 21
-23.009399
  0
LINE
  5
26A
100
AcDbEntity
  8
0
100
AcDbLine
 62
253
  6
CONTINUOUS
 10
-22.5
 20
-22.2000456915
 11
-22.5132247812
 21
-22.2132704726
  0
LINE
  5
26B
100
AcDbEntity
  8
0
100
AcDbLine
 62
253
  6
CONTINUOUS
 10
22.2000456915
 20
22.5
 11
22.213270562
 21
22.5132248706
  0
LINE
  5
26C
100
AcDbEntity
  8
RACCORDO
100
AcDbLine
 62
253
  6
CONTINUOUS
 10
-22.7263561463
 20
-22.5542832154
 11
-24.3279260269
 21
-24.155853096
  0
LINE
  5
26D
100
AcDbEntity
  8
RACCORDO
100
AcDbLine
 62
253
  6
CONTINUOUS
 10
22.5542889755
 20
22.7263619064
 11
24.1558535547
 21
24.3279264856
  0
LINE
  5
26E
100
AcDbEntity
  8
RACCORDO
100
AcDbLine
 62
253
  6
CONTINUOUS
 10
-22.5542889755
 20
-22.7263619064
 11
-24.1558535604
 21
-24.3279264913
  0
LINE
  5
26F
100
AcDbEntity
  8
RACCORDO
100
AcDbLine
 62
253
  6
CONTINUOUS
 10
22.7263561463
 20
22.5542832154
 11
24.327926027
 21
24.1558530961
  0
LINE
  5
270
100
AcDbEntity
  8
0
100
AcDbLine
 62
253
  6
CONTINUOUS
 10
-22.2000456915
 20
-22.5
 11
-22.213270562
 21
-22.5132248706
  0
LINE
  5
271
100
AcDbEntity
  8
0
100
AcDbLine
 62
253
  6
CONTINUOUS
 10
22.5
 20
22.2000456915
 11
22.5132247812
 21
22.2132704726
  0
LINE
  5
272
100
AcDbEntity
  8
0
100
AcDbLine
 62
253
  6
CONTINUOUS
 10
22.213270562
 20
-22.5132248706
 11
22.2000456915
 21
-22.5
  0
LINE
  5
273
100
AcDbEntity
  8
0
100
AcDbLine
 62
253
  6
CONTINUOUS
 10
-22.5
 20
22.2000456915
 11
-22.5132248706
 21
22.213270562
  0
LINE
  5
274
100
AcDbEntity
  8
RACCORDO
100
AcDbLine
 62
253
  6
CONTINUOUS
 10
24.1558535674
 20
-24.3279264983
 11
22.5542889828
 21
-22.7263619137
  0
LINE
  5
275
100
AcDbEntity
  8
RACCORDO
100
AcDbLine
 62
253
  6
CONTINUOUS
 10
-22.7263619064
 20
22.5542889755
 11
-24.3279260344
 21
24.1558531035
  0
LINE
  5
276
100
AcDbEntity
  8
RACCORDO
100
AcDbLine
 62
253
  6
CONTINUOUS
 10
24.3279260345
 20
-24.1558531036
 11
22.7263561378
 21
-22.5542832069
  0
LINE
  5
277
100
AcDbEntity
  8
RACCORDO
100
AcDbLine
 62
253
  6
CONTINUOUS
 10
-22.5542832154
 20
22.7263561463
 11
-24.1558544595
 21
24.3279273905
  0
LINE
  5
278
100
AcDbEntity
  8
0
100
AcDbLine
 62
253
  6
CONTINUOUS
 10
22.5132247811
 20
-22.2132704726
 11
22.5
 21
-22.2000456915
  0
LINE
  5
279
100
AcDbEntity
  8
0
100
AcDbLine
 62
253
  6
CONTINUOUS
 10
-22.2000456915
 20
22.5
 11
-22.2132704726
 21
22.5132247812
  0
LINE
  5
27A
100
AcDbEntity
  8
0
100
AcDbLine
 62
7
  6
CONTINUOUS
 10
3.831652
 20
-23.416399
 11
3.763652
 21
-23.255399
  0
LINE
  5
27B
100
AcDbEntity
  8
0
100
AcDbLine
 62
7
  6
CONTINUOUS
 10
3.449652
 20
-23.437399
 11
3.466652
 21
-23.516399
  0
LINE
  5
27C
100
AcDbEntity
  8
0
100
AcDbLine
 62
7
  6
CONTINUOUS
 10
3.836652
 20
-23.589399
 11
3.831652
 21
-23.416399
  0
LINE
  5
27D
100
AcDbEntity
  8
0
100
AcDbLine
 62
7
  6
CONTINUOUS
 10
2.439652
 20
-23.009399
 11
2.439652
 21
-24.638399
  0
LINE
  5
27E
100
AcDbEntity
  8
0
100
AcDbLine
 62
7
  6
CONTINUOUS
 10
2.787652
 20
-23.721399
 11
2.787652
 21
-23.310399
  0
LINE
  5
27F
100
AcDbEntity
  8
0
100
AcDbLine
 62
7
  6
CONTINUOUS
 10
2.802652
 20
-24.638399
 11
2.802652
 21
-24.022399
  0
LINE
  5
280
100
AcDbEntity
  8
0
100
AcDbLine
 62
7
  6
CONTINUOUS
 10
-0.368348
 20
-24.638399
 11
-0.021348
 21
-23.570399
  0
LINE
  5
281
100
AcDbEntity
  8
0
100
AcDbLine
 62
7
  6
CONTINUOUS
 10
-0.202348
 20
-23.009399
 11
-0.550348
 21
-24.077399
  0
LINE
  5
282
100
AcDbEntity
  8
0
100
AcDbLine
 62
7
  6
CONTINUOUS
 10
-2.754348
 20
-23.009399
 11
-3.162348
 21
-24.145399
  0
LINE
  5
283
100
AcDbEntity
  8
0
100
AcDbLine
 62
7
  6
CONTINUOUS
 10
-2.981348
 20
-24.638399
 11
-2.392348
 21
-23.009399
  0
LINE
  5
284
100
AcDbEntity
  8
0
100
AcDbLine
 62
7
  6
CONTINUOUS
 10
3.466652
 20
-23.516399
 11
3.449652
 21
-23.594399
  0
LINE
  5
285
100
AcDbEntity
  8
0
100
AcDbLine
 62
7
  6
CONTINUOUS
 10
1.216652
 20
-24.022399
 11
1.382652
 21
-23.516399
  0
LINE
  5
286
100
AcDbEntity
  8
0
100
AcDbLine
 62
7
  6
CONTINUOUS
 10
0.990652
 20
-24.638399
 11
1.095652
 21
-24.323399
  0
LINE
  5
287
100
AcDbEntity
  8
0
100
AcDbLine
 62
7
  6
CONTINUOUS
 10
1.201652
 20
-23.009399
 11
0.627652
 21
-24.638399
  0
LINE
  5
288
100
AcDbEntity
  8
0
100
AcDbLine
 62
7
  6
CONTINUOUS
 10
3.776652
 20
-23.753399
 11
3.836652
 21
-23.589399
  0
LINE
  5
289
100
AcDbEntity
  8
0
100
AcDbLine
 62
7
  6
CONTINUOUS
 10
3.449652
 20
-23.594399
 11
3.400652
 21
-23.661399
  0
LINE
  5
28A
100
AcDbEntity
  8
0
100
AcDbLine
 62
7
  6
CONTINUOUS
 10
3.658652
 20
-23.889399
 11
3.776652
 21
-23.753399
  0
LINE
  5
28B
100
AcDbEntity
  8
0
100
AcDbLine
 62
7
  6
CONTINUOUS
 10
22.5
 20
-22.2000456915
 11
22.5
 21
22.2000456915
  0
LINE
  5
28C
100
AcDbEntity
  8
RACCORDO
100
AcDbLine
 62
253
  6
CONTINUOUS
 10
22.5132247812
 20
22.2132704726
 11
22.5132247811
 21
-22.2132704726
  0
LINE
  5
28D
100
AcDbEntity
  8
RACCORDO
100
AcDbLine
 62
253
  6
CONTINUOUS
 10
22.7263561463
 20
22.5542832154
 11
22.7263561378
 21
-22.5542832069
  0
LINE
  5
28E
100
AcDbEntity
  8
0
100
AcDbLine
 62
7
  6
CONTINUOUS
 10
3.400652
 20
-23.661399
 11
3.326652
 21
-23.705399
  0
LINE
  5
28F
100
AcDbEntity
  8
0
100
AcDbLine
 62
7
  6
CONTINUOUS
 10
3.496652
 20
-23.981399
 11
3.658652
 21
-23.889399
  0
LINE
  5
290
100
AcDbEntity
  8
0
100
AcDbLine
 62
7
  6
CONTINUOUS
 10
22.2000456915
 20
22.5
 11
-22.2000456915
 21
22.5
  0
LINE
  5
291
100
AcDbEntity
  8
RACCORDO
100
AcDbLine
 62
253
  6
CONTINUOUS
 10
-22.2132704726
 20
22.5132247812
 11
22.213270562
 21
22.5132248706
  0
LINE
  5
292
100
AcDbEntity
  8
RACCORDO
100
AcDbLine
 62
253
  6
CONTINUOUS
 10
-22.5542832154
 20
22.7263561463
 11
22.5542889755
 21
22.7263619064
  0
LINE
  5
293
100
AcDbEntity
  8
DRAFT
100
AcDbLine
 62
7
  6
CONTINUOUS
 10
-77.7689623214
 20
-40.0
 11
-84.6482851154
 21
-39.6394699694
  0
LINE
  5
294
100
AcDbEntity
  8
0
100
AcDbLine
 62
7
  6
CONTINUOUS
 10
-86.2662854209
 20
-24.638399
 11
-86.3883628797
 21
-24.638399
  0
LINE
  5
295
100
AcDbEntity
  8
RACCORDO
100
AcDbLine
 62
253
  6
CONTINUOUS
 10
-86.204533537
 20
-24.917986788
 11
-86.2072337345
 21
-24.874461918
  0
LINE
  5
296
100
AcDbEntity
  8
RACCORDO
100
AcDbLine
 62
7
  6
CONTINUOUS
 10
-86.2685376982
 20
-23.5455744027
 11
-86.2072351236
 21
-24.8744326827
  0
LINE
  5
297
100
AcDbEntity
  8
RACCORDO
100
AcDbLine
 62
7
  6
CONTINUOUS
 10
-86.3287510933
 20
-22.1624733925
 11
-86.2685095672
 21
-23.5461841976
  0
LINE
  5
298
100
AcDbEntity
  8
RACCORDO
100
AcDbLine
 62
7
  6
CONTINUOUS
 10
-86.3853188145
 20
-20.7790075071
 11
-86.3287005804
 21
-22.1636700332
  0
LINE
  5
299
100
AcDbEntity
  8
RACCORDO
100
AcDbLine
 62
7
  6
CONTINUOUS
 10
-86.4382396047
 20
-19.3952125411
 11
-86.3852713678
 21
-20.7802067184
  0
LINE
  5
29A
100
AcDbEntity
  8
RACCORDO
100
AcDbLine
 62
7
  6
CONTINUOUS
 10
-86.487512919
 20
-18.0111108683
 11
-86.4381952352
 21
-19.3964141736
  0
LINE
  5
29B
100
AcDbEntity
  8
RACCORDO
100
AcDbLine
 62
7
  6
CONTINUOUS
 10
-86.5331387379
 20
-16.6267114211
 11
-86.4874716499
 21
-18.0123147761
  0
LINE
  5
29C
100
AcDbEntity
  8
RACCORDO
100
AcDbLine
 62
7
  6
CONTINUOUS
 10
-86.5751162518
 20
-15.2420432981
 11
-86.5331005851
 21
-16.6279174454
  0
LINE
  5
29D
100
AcDbEntity
  8
RACCORDO
100
AcDbLine
 62
7
  6
CONTINUOUS
 10
-86.6134447736
 20
-13.8571356098
 11
-86.5750812223
 21
-15.2432512688
  0
LINE
  5
29E
100
AcDbEntity
  8
RACCORDO
100
AcDbLine
 62
7
  6
CONTINUOUS
 10
-86.6481243145
 20
-12.4719972871
 11
-86.6134128866
 21
-13.8583453547
  0
LINE
  5
29F
100
AcDbEntity
  8
RACCORDO
100
AcDbLine
 62
7
  6
CONTINUOUS
 10
-86.6791542687
 20
-11.086657443
 11
-86.6480955852
 21
-12.4732086344
  0
LINE
  5
2A0
100
AcDbEntity
  8
RACCORDO
100
AcDbLine
 62
7
  6
CONTINUOUS
 10
-86.7065340998
 20
-9.7011451966
 11
-86.6791287011
 21
-11.087870222
  0
LINE
  5
2A1
100
AcDbEntity
  8
RACCORDO
100
AcDbLine
 62
7
  6
CONTINUOUS
 10
-86.730263833
 20
-8.3154694839
 11
-86.7065117055
 21
-9.7023592402
  0
LINE
  5
2A2
100
AcDbEntity
  8
RACCORDO
100
AcDbLine
 62
7
  6
CONTINUOUS
 10
-86.750343067
 20
-6.9296594385
 11
-86.7302446258
 21
-8.3166846254
  0
LINE
  5
2A3
100
AcDbEntity
  8
RACCORDO
100
AcDbLine
 62
7
  6
CONTINUOUS
 10
-86.766771432
 20
-5.5437441904
 11
-86.7503270494
 21
-6.9308755099
  0
LINE
  5
2A4
100
AcDbEntity
  8
RACCORDO
100
AcDbLine
 62
7
  6
CONTINUOUS
 10
-86.7795489493
 20
-4.1577326706
 11
-86.7667586071
 21
-5.5449610231
  0
LINE
  5
2A5
100
AcDbEntity
  8
RACCORDO
100
AcDbLine
 62
7
  6
CONTINUOUS
 10
-86.7886754208
 20
-2.7716540216
 11
-86.7795393294
 21
-4.1589500962
  0
LINE
  5
2A6
100
AcDbEntity
  8
RACCORDO
100
AcDbLine
 62
7
  6
CONTINUOUS
 10
-86.7941506596
 20
-1.3855373825
 11
-86.788669007
 21
-2.772871871
  0
LINE
  5
2A7
100
AcDbEntity
  8
RACCORDO
100
AcDbLine
 62
7
  6
CONTINUOUS
 10
-86.7959746697
 20
0.0006083201
 11
-86.7941474482
 21
-1.386755486
  0
LINE
  5
2A8
100
AcDbEntity
  8
RACCORDO
100
AcDbLine
 62
7
  6
CONTINUOUS
 10
-86.7941474524
 20
1.3867539426
 11
-86.7959746697
 21
-0.0006098677
  0
LINE
  5
2A9
100
AcDbEntity
  8
RACCORDO
100
AcDbLine
 62
7
  6
CONTINUOUS
 10
-86.788669015
 20
2.7728703416
 11
-86.7941506638
 21
1.3855358402
  0
LINE
  5
2AA
100
AcDbEntity
  8
RACCORDO
100
AcDbLine
 62
7
  6
CONTINUOUS
 10
-86.7795393412
 20
4.1589485904
 11
-86.7886754287
 21
2.7716524942
  0
LINE
  5
2AB
100
AcDbEntity
  8
RACCORDO
100
AcDbLine
 62
7
  6
CONTINUOUS
 10
-86.7667586228
 20
5.5449595505
 11
-86.7795489611
 21
4.1577311678
  0
LINE
  5
2AC
100
AcDbEntity
  8
RACCORDO
100
AcDbLine
 62
7
  6
CONTINUOUS
 10
-86.7503270681
 20
6.9308740801
 11
-86.7667714477
 21
5.5437427217
  0
LINE
  5
2AD
100
AcDbEntity
  8
RACCORDO
100
AcDbLine
 62
7
  6
CONTINUOUS
 10
-86.7302446475
 20
8.3166832481
 11
-86.7503430857
 21
6.9296580135
  0
LINE
  5
2AE
100
AcDbEntity
  8
RACCORDO
100
AcDbLine
 62
7
  6
CONTINUOUS
 10
-86.7065117299
 20
9.702357925
 11
-86.7302638546
 21
8.3154681121
  0
LINE
  5
2AF
100
AcDbEntity
  8
RACCORDO
100
AcDbLine
 62
7
  6
CONTINUOUS
 10
-86.6791287274
 20
11.0878689786
 11
-86.706534124
 21
9.7011438875
  0
LINE
  5
2B0
100
AcDbEntity
  8
RACCORDO
100
AcDbLine
 62
7
  6
CONTINUOUS
 10
-86.6480956126
 20
12.4732074722
 11
-86.6791542948
 21
11.086656206
  0
LINE
  5
2B1
100
AcDbEntity
  8
RACCORDO
100
AcDbLine
 62
7
  6
CONTINUOUS
 10
-86.6134129149
 20
13.8583442835
 11
-86.6481243417
 21
12.4719961317
  0
LINE
  5
2B2
100
AcDbEntity
  8
RACCORDO
100
AcDbLine
 62
7
  6
CONTINUOUS
 10
-86.5750812505
 20
15.2432502982
 11
-86.6134448017
 21
13.8571345456
  0
LINE
  5
2B3
100
AcDbEntity
  8
RACCORDO
100
AcDbLine
 62
7
  6
CONTINUOUS
 10
-86.5331006122
 20
16.6279165849
 11
-86.5751162798
 21
15.2420423344
  0
LINE
  5
2B4
100
AcDbEntity
  8
RACCORDO
100
AcDbLine
 62
7
  6
CONTINUOUS
 10
-86.4874716753
 20
18.0123140354
 11
-86.5331387647
 21
16.6267105671
  0
LINE
  5
2B5
100
AcDbEntity
  8
RACCORDO
100
AcDbLine
 62
7
  6
CONTINUOUS
 10
-86.4381952579
 20
19.3964135623
 11
-86.4875129442
 21
18.0111101334
  0
LINE
  5
2B6
100
AcDbEntity
  8
RACCORDO
100
AcDbLine
 62
7
  6
CONTINUOUS
 10
-86.3852713864
 20
20.780206246
 11
-86.4382396273
 21
19.3952119346
  0
LINE
  5
2B7
100
AcDbEntity
  8
RACCORDO
100
AcDbLine
 62
7
  6
CONTINUOUS
 10
-86.328700594
 20
22.1636697093
 11
-86.3853188329
 21
20.7790070383
  0
LINE
  5
2B8
100
AcDbEntity
  8
RACCORDO
100
AcDbLine
 62
7
  6
CONTINUOUS
 10
-86.2684841441
 20
23.5467681446
 11
-86.3287511068
 21
22.1624730707
  0
LINE
  5
2B9
100
AcDbEntity
  8
RACCORDO
100
AcDbLine
 62
7
  6
CONTINUOUS
 10
-86.2072351193
 20
24.8744327971
 11
-86.2685095748
 21
23.5461840324
  0
LINE
  5
2BA
100
AcDbEntity
  8
RACCORDO
100
AcDbLine
 62
253
  6
CONTINUOUS
 10
-86.2072337525
 20
24.8744615636
 11
-86.2045295938
 21
24.9180382089
  0
LINE
  5
2BB
100
AcDbEntity
  8
RACCORDO
100
AcDbLine
 62
7
  6
CONTINUOUS
 10
-78.0428155985
 20
-3.6510182698
 11
-79.4951090442
 21
-3.5239590572
  0
LINE
  5
2BC
100
AcDbEntity
  8
RACCORDO
100
AcDbLine
 62
7
  6
CONTINUOUS
 10
-79.7689623214
 20
-3.2251006478
 11
-79.7689623214
 21
3.2251006478
  0
LINE
  5
2BD
100
AcDbEntity
  8
RACCORDO
100
AcDbLine
 62
7
  6
CONTINUOUS
 10
-79.4951090442
 20
3.5239590572
 11
-78.0428155985
 21
3.6510182698
  0
LINE
  5
2BE
100
AcDbEntity
  8
RACCORDO
100
AcDbLine
 62
7
  6
CONTINUOUS
 10
-77.7689623214
 20
-39.9999999233
 11
-77.7689623214
 21
-3.9498766793
  0
LINE
  5
2BF
100
AcDbEntity
  8
RACCORDO
100
AcDbLine
 62
7
  6
CONTINUOUS
 10
-77.7689623214
 20
3.9498766793
 11
-77.7689623214
 21
39.9999999233
  0
LINE
  5
2C0
100
AcDbEntity
  8
0
100
AcDbLine
 62
7
  6
CONTINUOUS
 10
-86.3883628797
 20
-24.638399
 11
-86.2286463735
 21
-24.41030019
  0
LINE
  5
2C1
100
AcDbEntity
  8
RACCORDO
100
AcDbLine
 62
7
  6
CONTINUOUS
 10
-86.221100679
 20
-24.573868501
 11
-86.4383010757
 21
-24.8840628146
  0
LINE
  5
2C2
100
AcDbEntity
  8
RACCORDO
100
AcDbLine
 62
7
  6
CONTINUOUS
 10
-86.4383010684
 20
24.8840628041
 11
-86.2211010016
 21
24.5738689617
  0
LINE
  5
2C3
100
AcDbEntity
  8
DRAFT
100
AcDbLine
 62
7
  6
CONTINUOUS
 10
-77.7689623214
 20
40.0
 11
-84.6482851156
 21
39.6394699694
  0
ARC
  5
2C4
100
AcDbEntity
  8
RACCORDO
100
AcDbCircle
 62
253
  6
CONTINUOUS
 10
-0.0000102778
 20
-500.0006771613
 40
524.8847726097
100
AcDbArc
 50
87.3622436297
 51
92.6377542229
  0
ARC
  5
2C5
100
AcDbEntity
  8
RACCORDO
100
AcDbCircle
 62
253
  6
CONTINUOUS
 10
-103.9235920978
 20
-75.986802357
 40
128.1636228993
100
AcDbArc
 50
51.5166474146
 51
51.9350336827
  0
ARC
  5
2C6
100
AcDbEntity
  8
RACCORDO
100
AcDbCircle
 62
7
  6
CONTINUOUS
 10
-56.424742309
 20
-35.9075276453
 40
2.4952684276
100
AcDbArc
 50
183.4199177835
 51
266.7826343479
  0
ARC
  5
2C7
100
AcDbEntity
  8
RACCORDO
100
AcDbCircle
 62
253
  6
CONTINUOUS
 10
-23.4196078241
 20
-25.0642464393
 40
1.2846090548
100
AcDbArc
 50
134.9976302081
 51
135.8487139638
  0
ARC
  5
2C8
100
AcDbEntity
  8
RACCORDO
100
AcDbCircle
 62
253
  6
CONTINUOUS
 10
-23.4621437379
 20
-25.2264379481
 40
1.1351459562
100
AcDbArc
 50
127.6705018455
 51
128.5151673603
  0
ARC
  5
2C9
100
AcDbEntity
  8
RACCORDO
100
AcDbCircle
 62
253
  6
CONTINUOUS
 10
-22.2131609554
 20
-22.2131609554
 40
0.300064636
100
AcDbArc
 50
180.0209193665
 51
269.9790806336
  0
ARC
  5
2CA
100
AcDbEntity
  8
RACCORDO
100
AcDbCircle
 62
253
  6
CONTINUOUS
 10
-579.0924484843
 20
-0.0
 40
637.6847702742
100
AcDbArc
 50
356.7784955799
 51
3.2215044201
  0
ARC
  5
2CB
100
AcDbEntity
  8
RACCORDO
100
AcDbCircle
 62
253
  6
CONTINUOUS
 10
-577.390948258
 20
0.0000000016
 40
637.0811820262
100
AcDbArc
 50
356.7767143399
 51
3.2232855957
  0
ARC
  5
2CC
100
AcDbEntity
  8
RACCORDO
100
AcDbCircle
 62
7
  6
CONTINUOUS
 10
-540.0
 20
-0.0
 40
600.0
100
AcDbArc
 50
356.5547933296
 51
359.6228118367
  0
ARC
  5
2CD
100
AcDbEntity
  8
RACCORDO
100
AcDbCircle
 62
7
  6
CONTINUOUS
 10
-540.0
 20
-0.0
 40
600.0
100
AcDbArc
 50
0.3771881633
 51
3.4452066704
  0
ARC
  5
2CE
100
AcDbEntity
  8
RACCORDO
100
AcDbCircle
 62
7
  6
CONTINUOUS
 10
-540.0
 20
-0.0
 40
599.8951844414
100
AcDbArc
 50
359.6919702799
 51
0.3080297201
  0
ARC
  5
2CF
100
AcDbEntity
  8
RACCORDO
100
AcDbCircle
 62
253
  6
CONTINUOUS
 10
-342.8498735508
 20
0.0001097877
 40
368.5968531505
100
AcDbArc
 50
356.123694489
 51
3.8762642143
  0
ARC
  5
2D0
100
AcDbEntity
  8
RACCORDO
100
AcDbCircle
 62
253
  6
CONTINUOUS
 10
-342.5296127829
 20
0.0000001317
 40
367.666236266
100
AcDbArc
 50
356.2308025601
 51
3.7691974014
  0
ARC
  5
2D1
100
AcDbEntity
  8
RACCORDO
100
AcDbCircle
 62
253
  6
CONTINUOUS
 10
-103.9196386781
 20
75.9817870219
 40
128.1572367784
100
AcDbArc
 50
308.0649572206
 51
308.4833643391
  0
ARC
  5
2D2
100
AcDbEntity
  8
RACCORDO
100
AcDbCircle
 62
7
  6
CONTINUOUS
 10
-56.4247423091
 20
35.9075276452
 40
2.4952683846
100
AcDbArc
 50
93.2173656512
 51
176.580082212
  0
ARC
  5
2D3
100
AcDbEntity
  8
RACCORDO
100
AcDbCircle
 62
253
  6
CONTINUOUS
 10
-23.423192717
 20
25.0607149519
 40
1.2795770161
100
AcDbArc
 50
224.1495344599
 51
225.0040695726
  0
ARC
  5
2D4
100
AcDbEntity
  8
RACCORDO
100
AcDbCircle
 62
253
  6
CONTINUOUS
 10
-23.4641231693
 20
25.2239132491
 40
1.1319378862
100
AcDbArc
 50
231.4836483478
 51
232.3306348182
  0
ARC
  5
2D5
100
AcDbEntity
  8
RACCORDO
100
AcDbCircle
 62
253
  6
CONTINUOUS
 10
-22.2131609514
 20
22.2131609514
 40
0.300064636
100
AcDbArc
 50
90.0209201242
 51
179.9790798758
  0
ARC
  5
2D6
100
AcDbEntity
  8
RACCORDO
100
AcDbCircle
 62
253
  6
CONTINUOUS
 10
-0.0000000015
 20
-1036.6058228063
 40
1076.2452636292
100
AcDbArc
 50
86.9997835741
 51
93.0002163877
  0
ARC
  5
2D7
100
AcDbEntity
  8
RACCORDO
100
AcDbCircle
 62
253
  6
CONTINUOUS
 10
0.0
 20
-1037.4082875325
 40
1075.941851723
100
AcDbArc
 50
86.9973991403
 51
93.0026008597
  0
ARC
  5
2D8
100
AcDbEntity
  8
RACCORDO
100
AcDbCircle
 62
7
  6
CONTINUOUS
 10
0.0
 20
-960.0
 40
1000.0
100
AcDbArc
 50
86.7573454592
 51
93.2426545408
  0
ARC
  5
2D9
100
AcDbEntity
  8
RACCORDO
100
AcDbCircle
 62
253
  6
CONTINUOUS
 10
0.000002006
 20
-499.7781501278
 40
525.2868447756
100
AcDbArc
 50
87.2825985692
 51
92.7173972724
  0
ARC
  5
2DA
100
AcDbEntity
  8
RACCORDO
100
AcDbCircle
 62
253
  6
CONTINUOUS
 10
342.8498218094
 20
-0.0001113408
 40
368.5968014406
100
AcDbArc
 50
176.1237002252
 51
183.8762645147
  0
ARC
  5
2DB
100
AcDbEntity
  8
RACCORDO
100
AcDbCircle
 62
253
  6
CONTINUOUS
 10
103.9196390576
 20
-75.9817875747
 40
128.1572374473
100
AcDbArc
 50
128.0649572018
 51
128.483364318
  0
ARC
  5
2DC
100
AcDbEntity
  8
RACCORDO
100
AcDbCircle
 62
7
  6
CONTINUOUS
 10
56.4247423089
 20
-35.907527645
 40
2.4952684279
100
AcDbArc
 50
273.2173656549
 51
356.5800822083
  0
ARC
  5
2DD
100
AcDbEntity
  8
RACCORDO
100
AcDbCircle
 62
253
  6
CONTINUOUS
 10
23.4196091887
 20
-25.064245101
 40
1.2846071436
100
AcDbArc
 50
44.1512865453
 51
45.0023701468
  0
ARC
  5
2DE
100
AcDbEntity
  8
RACCORDO
100
AcDbCircle
 62
253
  6
CONTINUOUS
 10
23.4621431514
 20
-25.2264387131
 40
1.1351469187
100
AcDbArc
 50
51.484833294
 51
52.3294978321
  0
ARC
  5
2DF
100
AcDbEntity
  8
RACCORDO
100
AcDbCircle
 62
253
  6
CONTINUOUS
 10
22.2131609511
 20
-22.2131609511
 40
0.3000646363
100
AcDbArc
 50
270.0209201754
 51
359.9790798246
  0
ARC
  5
2E0
100
AcDbEntity
  8
RACCORDO
100
AcDbCircle
 62
253
  6
CONTINUOUS
 10
0.0000000015
 20
1036.6058228063
 40
1076.2452636293
100
AcDbArc
 50
266.9997835741
 51
273.0002163877
  0
ARC
  5
2E1
100
AcDbEntity
  8
RACCORDO
100
AcDbCircle
 62
253
  6
CONTINUOUS
 10
-0.0
 20
1037.4082875324
 40
1075.941851723
100
AcDbArc
 50
266.9973991403
 51
273.0026008597
  0
ARC
  5
2E2
100
AcDbEntity
  8
RACCORDO
100
AcDbCircle
 62
7
  6
CONTINUOUS
 10
-0.0
 20
960.0
 40
1000.0
100
AcDbArc
 50
266.7573454592
 51
273.2426545408
  0
ARC
  5
2E3
100
AcDbEntity
  8
RACCORDO
100
AcDbCircle
 62
253
  6
CONTINUOUS
 10
579.0924484846
 20
0.0
 40
637.6847702742
100
AcDbArc
 50
176.7784955799
 51
183.2215044201
  0
ARC
  5
2E4
100
AcDbEntity
  8
RACCORDO
100
AcDbCircle
 62
253
  6
CONTINUOUS
 10
577.390948258
 20
-0.0000000016
 40
637.0811820262
100
AcDbArc
 50
176.7767143399
 51
183.2232855957
  0
ARC
  5
2E5
100
AcDbEntity
  8
RACCORDO
100
AcDbCircle
 62
7
  6
CONTINUOUS
 10
540.0
 20
0.0
 40
600.0
100
AcDbArc
 50
180.3771881633
 51
183.4452066704
  0
ARC
  5
2E6
100
AcDbEntity
  8
RACCORDO
100
AcDbCircle
 62
7
  6
CONTINUOUS
 10
540.0
 20
0.0
 40
600.0
100
AcDbArc
 50
176.5547933296
 51
179.6228118367
  0
ARC
  5
2E7
100
AcDbEntity
  8
RACCORDO
100
AcDbCircle
 62
7
  6
CONTINUOUS
 10
540.0
 20
0.0
 40
599.8951844414
100
AcDbArc
 50
179.6919702799
 51
180.3080297201
  0
ARC
  5
2E8
100
AcDbEntity
  8
RACCORDO
100
AcDbCircle
 62
253
  6
CONTINUOUS
 10
0.0001975608
 20
499.7984859763
 40
525.3071754186
100
AcDbArc
 50
267.2826819841
 51
272.7172698707
  0
ARC
  5
2E9
100
AcDbEntity
  8
RACCORDO
100
AcDbCircle
 62
253
  6
CONTINUOUS
 10
0.000000084
 20
500.000233559
 40
524.8843291148
100
AcDbArc
 50
267.3622425122
 51
272.6377574702
  0
ARC
  5
2EA
100
AcDbEntity
  8
RACCORDO
100
AcDbCircle
 62
253
  6
CONTINUOUS
 10
342.530059818
 20
0.0000132594
 40
367.6666830677
100
AcDbArc
 50
176.2308089763
 51
183.7691949039
  0
ARC
  5
2EB
100
AcDbEntity
  8
RACCORDO
100
AcDbCircle
 62
253
  6
CONTINUOUS
 10
101.7407686832
 20
73.220443405
 40
124.6397918258
100
AcDbArc
 50
231.5107727129
 51
231.9410170878
  0
ARC
  5
2EC
100
AcDbEntity
  8
RACCORDO
100
AcDbCircle
 62
7
  6
CONTINUOUS
 10
56.424742309
 20
35.9075276453
 40
2.4952683846
100
AcDbArc
 50
3.419917785
 51
86.7826343463
  0
ARC
  5
2ED
100
AcDbEntity
  8
RACCORDO
100
AcDbCircle
 62
253
  6
CONTINUOUS
 10
23.4195784637
 20
25.06427537
 40
1.2846502728
100
AcDbArc
 50
314.9976438407
 51
315.8487003847
  0
ARC
  5
2EE
100
AcDbEntity
  8
RACCORDO
100
AcDbCircle
 62
253
  6
CONTINUOUS
 10
23.4621330815
 20
25.2264515398
 40
1.1351632269
100
AcDbArc
 50
307.6705078769
 51
308.515161023
  0
ARC
  5
2EF
100
AcDbEntity
  8
RACCORDO
100
AcDbCircle
 62
253
  6
CONTINUOUS
 10
22.2131609514
 20
22.2131609514
 40
0.300064636
100
AcDbArc
 50
0.0209201242
 51
89.9790798758
  0
ARC
  5
2F0
100
AcDbEntity
  8
RACCORDO
100
AcDbCircle
 62
253
  6
CONTINUOUS
 10
439.0089339155
 20
-0.0000156512
 40
525.8042953316
100
AcDbArc
 50
177.2884749293
 51
182.711521651
  0
ARC
  5
2F1
100
AcDbEntity
  8
SUPERFICI
100
AcDbCircle
 62
7
  6
CONTINUOUS
 10
412.7310376786
 20
0.0
 40
500.0
100
AcDbArc
 50
182.9243462271
 51
184.4200074591
  0
ARC
  5
2F2
100
AcDbEntity
  8
SUPERFICI
100
AcDbCircle
 62
7
  6
CONTINUOUS
 10
412.7310376786
 20
0.0
 40
500.0
100
AcDbArc
 50
175.5799925409
 51
177.0756537729
  0
ARC
  5
2F3
100
AcDbEntity
  8
RACCORDO
100
AcDbCircle
 62
7
  6
CONTINUOUS
 10
-84.5854819684
 20
38.4411145277
 40
1.2
100
AcDbArc
 50
93.0
 51
175.5799925409
  0
ARC
  5
2F4
100
AcDbEntity
  8
RACCORDO
100
AcDbCircle
 62
7
  6
CONTINUOUS
 10
-84.5854819684
 20
-38.4411145277
 40
1.2
100
AcDbArc
 50
184.4200074591
 51
267.0
  0
ARC
  5
2F5
100
AcDbEntity
  8
RACCORDO
100
AcDbCircle
 62
7
  6
CONTINUOUS
 10
-85.6191490375
 20
-25.4576392596
 40
1.0
100
AcDbArc
 50
145.0
 51
182.9243462282
  0
ARC
  5
2F6
100
AcDbEntity
  8
RACCORDO
100
AcDbCircle
 62
7
  6
CONTINUOUS
 10
-85.6191490375
 20
25.4576392597
 40
1.0
100
AcDbArc
 50
177.0756537719
 51
215.0
  0
ARC
  5
2F7
100
AcDbEntity
  8
RACCORDO
100
AcDbCircle
 62
253
  6
CONTINUOUS
 10
-85.3138755218
 20
-24.8331000038
 40
0.8946940696
100
AcDbArc
 50
182.6508221566
 51
185.4468401101
  0
ARC
  5
2F8
100
AcDbEntity
  8
RACCORDO
100
AcDbCircle
 62
253
  6
CONTINUOUS
 10
-85.3143467734
 20
24.8331265389
 40
0.8942224199
100
AcDbArc
 50
174.5545296449
 51
177.3530836008
  0
ARC
  5
2F9
100
AcDbEntity
  8
RACCORDO
100
AcDbCircle
 62
253
  6
CONTINUOUS
 10
-85.3170337007
 20
-24.8332577394
 40
0.8915319752
100
AcDbArc
 50
181.5199410681
 51
182.6500828397
  0
ARC
  5
2FA
100
AcDbEntity
  8
RACCORDO
100
AcDbCircle
 62
253
  6
CONTINUOUS
 10
-85.3172201258
 20
24.8332695532
 40
0.8913455286
100
AcDbArc
 50
177.3537371712
 51
178.4810609711
  0
ARC
  5
2FB
100
AcDbEntity
  8
RACCORDO
100
AcDbCircle
 62
253
  6
CONTINUOUS
 10
-85.3187216306
 20
-24.8333060648
 40
0.8898433573
100
AcDbArc
 50
181.1509997706
 51
181.5197133706
  0
ARC
  5
2FC
100
AcDbEntity
  8
RACCORDO
100
AcDbCircle
 62
253
  6
CONTINUOUS
 10
-85.3187971298
 20
24.8333146514
 40
0.8897678833
100
AcDbArc
 50
178.4812721896
 51
178.8496154469
  0
ARC
  5
2FD
100
AcDbEntity
  8
RACCORDO
100
AcDbCircle
 62
7
  6
CONTINUOUS
 10
-78.0689623214
 20
-3.9498766793
 40
0.3
100
AcDbArc
 50
0.0
 51
85.0
  0
ARC
  5
2FE
100
AcDbEntity
  8
RACCORDO
100
AcDbCircle
 62
7
  6
CONTINUOUS
 10
-78.0689623214
 20
3.9498766793
 40
0.3
100
AcDbArc
 50
275.0
 51
360.0
  0
ARC
  5
2FF
100
AcDbEntity
  8
RACCORDO
100
AcDbCircle
 62
7
  6
CONTINUOUS
 10
-79.4689623214
 20
3.2251006478
 40
0.3
100
AcDbArc
 50
95.0
 51
180.0
  0
ARC
  5
300
100
AcDbEntity
  8
RACCORDO
100
AcDbCircle
 62
7
  6
CONTINUOUS
 10
-79.4689623214
 20
-3.2251006478
 40
0.3
100
AcDbArc
 50
180.0
 51
265.0
  0
SPLINE
  5
301
100
AcDbEntity
  8
RACCORDO
100
AcDbSpline
 62
7
  6
CONTINUOUS
 70
0
 71
3
 72
22
 73
18
 74
16
 42
0.0000001
 43
0.0000001
 44
0.0000000001
 12
-0.0016108373
 22
0.2996246236
 32
0.0
 13
0.152859714
 23
0.2577041282
 33
0.0
 40
0.0
 40
0.0
 40
0.0
 40
0.0
 40
0.0985803046
 40
0.1965455975
 40
0.2924693179
 40
0.3852683305
 40
0.4746828898
 40
0.5597137624
 40
0.6390803976
 40
0.7118784196
 40
0.7781197269
 40
0.8369050013
 40
0.8873648342
 40
0.9290665628
 40
0.9619447132
 40
0.9856171717
 40
1.0
 40
1.0
 40
1.0
 40
1.0
 10
59.8865151358
 20
3.2251006478
 30
0.0
 10
59.8864622036
 20
3.2349463433
 30
0.0
 10
59.8864067077
 20
3.2545766169
 30
0.0
 10
59.8864747778
 20
3.2837874231
 30
0.0
 10
59.8866937797
 20
3.3124200728
 30
0.0
 10
59.8870612038
 20
3.3401971236
 30
0.0
 10
59.8875740834
 20
3.3668837635
 30
0.0
 10
59.8882284654
 20
3.3922253297
 30
0.0
 10
59.88901608
 20
3.4159027227
 30
0.0
 10
59.8899283955
 20
3.4376974557
 30
0.0
 10
59.8909565729
 20
3.4574293448
 30
0.0
 10
59.8920924346
 20
3.4749192822
 30
0.0
 10
59.8933163538
 20
3.4899486621
 30
0.0
 10
59.8946194451
 20
3.5023643824
 30
0.0
 10
59.8959563714
 20
3.5121043066
 30
0.0
 10
59.8973537187
 20
3.5190221753
 30
0.0
 10
59.8984534092
 20
3.5227235525
 30
0.0
 10
59.8991862609
 20
3.5239590572
 30
0.0
 11
59.8865151358
 21
3.2251006478
 31
0.0
 11
59.8864320028
 21
3.2546380443
 31
0.0
 11
59.8865015446
 21
3.2839912001
 31
0.0
 11
59.8867233293
 21
3.3127318684
 31
0.0
 11
59.8870939428
 21
3.3405346694
 31
0.0
 11
59.8876127022
 21
3.3673208374
 31
0.0
 11
59.8882757162
 21
3.3927899204
 31
0.0
 11
59.8890733525
 21
3.4165570815
 31
0.0
 11
59.8899946718
 21
3.4383500105
 31
0.0
 11
59.8910400802
 21
3.4581702735
 31
0.0
 11
59.8921980616
 21
3.475745938
 31
0.0
 11
59.8934512732
 21
3.4908131369
 31
0.0
 11
59.8947856815
 21
3.5032367239
 31
0.0
 11
59.89619809
 21
3.5129861929
 31
0.0
 11
59.8976721612
 21
3.5199242841
 31
0.0
 11
59.8991862609
 21
3.5239590572
 31
0.0
  0
SPLINE
  5
302
100
AcDbEntity
  8
RACCORDO
100
AcDbSpline
 62
7
  6
CONTINUOUS
 70
0
 71
3
 72
22
 73
18
 74
16
 42
0.0000001
 43
0.0000001
 44
0.0000000001
 12
-0.1528597144
 22
0.2577041289
 32
0.0
 13
0.0016108373
 23
0.2996246244
 33
0.0
 40
0.0
 40
0.0
 40
0.0
 40
0.0
 40
0.0143831169
 40
0.0380512788
 40
0.0709172597
 40
0.1126188578
 40
0.1630836636
 40
0.2218663759
 40
0.2880957247
 40
0.3608912466
 40
0.4402677768
 40
0.5252985548
 40
0.6146988232
 40
0.707489454
 40
0.8034406637
 40
0.9014213275
 40
1.0
 40
1.0
 40
1.0
 40
1.0
 10
59.8991862609
 20
-3.5239590572
 30
0.0
 10
59.8984533945
 20
-3.5227235277
 30
0.0
 10
59.8973538307
 20
-3.519022534
 30
0.0
 10
59.8959567315
 20
-3.5121062593
 30
0.0
 10
59.894619883
 20
-3.5023680033
 30
0.0
 10
59.8933167431
 20
-3.4899530229
 30
0.0
 10
59.8920927311
 20
-3.4749234214
 30
0.0
 10
59.8909568764
 20
-3.457434439
 30
0.0
 10
59.8899287176
 20
-3.4377042513
 30
0.0
 10
59.8890163459
 20
-3.4159099768
 30
0.0
 10
59.8882286531
 20
-3.3922318566
 30
0.0
 10
59.8875742441
 20
-3.3668907397
 30
0.0
 10
59.8870613592
 20
-3.3402063742
 30
0.0
 10
59.8866938647
 20
-3.3124288432
 30
0.0
 10
59.8864747928
 20
-3.2837927501
 30
0.0
 10
59.8864067039
 20
-3.2545778261
 30
0.0
 10
59.8864622044
 20
-3.2349461804
 30
0.0
 10
59.8865151358
 20
-3.2251006478
 30
0.0
 11
59.8991862609
 21
-3.5239590572
 31
0.0
 11
59.8976721383
 21
-3.5199242003
 31
0.0
 11
59.8961982947
 21
-3.5129873768
 31
0.0
 11
59.8947862773
 21
-3.5032415355
 31
0.0
 11
59.8934517315
 21
-3.4908180027
 31
0.0
 11
59.8921983119
 21
-3.4757493258
 31
0.0
 11
59.8910403251
 21
-3.458174431
 31
0.0
 11
59.8899950374
 21
-3.4383577497
 31
0.0
 11
59.889073673
 21
-3.4165655723
 31
0.0
 11
59.8882758803
 21
-3.3927954499
 31
0.0
 11
59.8876128279
 21
-3.3673263961
 31
0.0
 11
59.887094103
 21
-3.3405445102
 31
0.0
 11
59.8867234588
 21
-3.3127442212
 31
0.0
 11
59.8865015652
 21
-3.2839953168
 31
0.0
 11
59.8864320029
 21
-3.2546375554
 31
0.0
 11
59.8865151358
 21
-3.2251006478
 31
0.0
  0
SPLINE
  5
303
100
AcDbEntity
  8
RACCORDO
100
AcDbSpline
 62
7
  6
CONTINUOUS
 70
0
 71
3
 72
22
 73
18
 74
16
 42
0.0000001
 43
0.0000001
 44
0.0000000001
 12
0.152859714
 22
-0.2577041282
 32
0.0
 13
-0.0016108373
 23
-0.2996246236
 33
0.0
 40
0.0
 40
0.0
 40
0.0
 40
0.0
 40
0.0143828283
 40
0.0380552868
 40
0.0709334372
 40
0.1126351658
 40
0.1630949987
 40
0.2218802731
 40
0.2881215804
 40
0.3609196024
 40
0.4402862376
 40
0.5253171102
 40
0.6147316695
 40
0.7075306821
 40
0.8034544025
 40
0.9014196954
 40
1.0
 40
1.0
 40
1.0
 40
1.0
 10
-59.8991862609
 20
3.5239590572
 30
0.0
 10
-59.8984534092
 20
3.5227235525
 30
0.0
 10
-59.8973537187
 20
3.5190221753
 30
0.0
 10
-59.8959563714
 20
3.5121043066
 30
0.0
 10
-59.8946194451
 20
3.5023643824
 30
0.0
 10
-59.8933163538
 20
3.4899486621
 30
0.0
 10
-59.8920924346
 20
3.4749192822
 30
0.0
 10
-59.8909565729
 20
3.4574293448
 30
0.0
 10
-59.8899283955
 20
3.4376974557
 30
0.0
 10
-59.88901608
 20
3.4159027227
 30
0.0
 10
-59.8882284654
 20
3.3922253297
 30
0.0
 10
-59.8875740834
 20
3.3668837635
 30
0.0
 10
-59.8870612038
 20
3.3401971236
 30
0.0
 10
-59.8866937797
 20
3.3124200728
 30
0.0
 10
-59.8864747778
 20
3.2837874231
 30
0.0
 10
-59.8864067077
 20
3.2545766169
 30
0.0
 10
-59.8864622036
 20
3.2349463433
 30
0.0
 10
-59.8865151358
 20
3.2251006478
 30
0.0
 11
-59.8991862609
 21
3.5239590572
 31
0.0
 11
-59.8976721612
 21
3.5199242841
 31
0.0
 11
-59.89619809
 21
3.5129861929
 31
0.0
 11
-59.8947856815
 21
3.5032367239
 31
0.0
 11
-59.8934512732
 21
3.4908131369
 31
0.0
 11
-59.8921980616
 21
3.475745938
 31
0.0
 11
-59.8910400802
 21
3.4581702735
 31
0.0
 11
-59.8899946718
 21
3.4383500105
 31
0.0
 11
-59.8890733525
 21
3.4165570815
 31
0.0
 11
-59.8882757162
 21
3.3927899204
 31
0.0
 11
-59.8876127022
 21
3.3673208374
 31
0.0
 11
-59.8870939428
 21
3.3405346694
 31
0.0
 11
-59.8867233293
 21
3.3127318684
 31
0.0
 11
-59.8865015446
 21
3.2839912001
 31
0.0
 11
-59.8864320028
 21
3.2546380443
 31
0.0
 11
-59.8865151358
 21
3.2251006478
 31
0.0
  0
SPLINE
  5
304
100
AcDbEntity
  8
RACCORDO
100
AcDbSpline
 62
7
  6
CONTINUOUS
 70
0
 71
3
 72
22
 73
18
 74
16
 42
0.0000001
 43
0.0000001
 44
0.0000000001
 12
0.0016108373
 22
-0.2996246244
 32
0.0
 13
-0.1528597144
 23
-0.2577041289
 33
0.0
 40
0.0
 40
0.0
 40
0.0
 40
0.0
 40
0.0985786725
 40
0.1965593363
 40
0.292510546
 40
0.3853011768
 40
0.4747014452
 40
0.5597322232
 40
0.6391087534
 40
0.7119042753
 40
0.7781336241
 40
0.8369163364
 40
0.8873811422
 40
0.9290827403
 40
0.9619487212
 40
0.9856168831
 40
1.0
 40
1.0
 40
1.0
 40
1.0
 10
-59.8865151358
 20
-3.2251006478
 30
0.0
 10
-59.8864622044
 20
-3.2349461804
 30
0.0
 10
-59.8864067039
 20
-3.2545778261
 30
0.0
 10
-59.8864747928
 20
-3.2837927501
 30
0.0
 10
-59.8866938647
 20
-3.3124288432
 30
0.0
 10
-59.8870613592
 20
-3.3402063742
 30
0.0
 10
-59.8875742441
 20
-3.3668907397
 30
0.0
 10
-59.8882286531
 20
-3.3922318566
 30
0.0
 10
-59.8890163459
 20
-3.4159099768
 30
0.0
 10
-59.8899287176
 20
-3.4377042513
 30
0.0
 10
-59.8909568764
 20
-3.457434439
 30
0.0
 10
-59.8920927311
 20
-3.4749234214
 30
0.0
 10
-59.8933167431
 20
-3.4899530229
 30
0.0
 10
-59.894619883
 20
-3.5023680033
 30
0.0
 10
-59.8959567315
 20
-3.5121062593
 30
0.0
 10
-59.8973538307
 20
-3.519022534
 30
0.0
 10
-59.8984533945
 20
-3.5227235277
 30
0.0
 10
-59.8991862609
 20
-3.5239590572
 30
0.0
 11
-59.8865151358
 21
-3.2251006478
 31
0.0
 11
-59.8864320029
 21
-3.2546375554
 31
0.0
 11
-59.8865015652
 21
-3.2839953168
 31
0.0
 11
-59.8867234588
 21
-3.3127442212
 31
0.0
 11
-59.887094103
 21
-3.3405445102
 31
0.0
 11
-59.8876128279
 21
-3.3673263961
 31
0.0
 11
-59.8882758803
 21
-3.3927954499
 31
0.0
 11
-59.889073673
 21
-3.4165655723
 31
0.0
 11
-59.8899950374
 21
-3.4383577497
 31
0.0
 11
-59.8910403251
 21
-3.458174431
 31
0.0
 11
-59.8921983119
 21
-3.4757493258
 31
0.0
 11
-59.8934517315
 21
-3.4908180027
 31
0.0
 11
-59.8947862773
 21
-3.5032415355
 31
0.0
 11
-59.8961982947
 21
-3.5129873768
 31
0.0
 11
-59.8976721383
 21
-3.5199242003
 31
0.0
 11
-59.8991862609
 21
-3.5239590572
 31
0.0
  0
SPLINE
  5
305
100
AcDbEntity
  8
RACCORDO
100
AcDbSpline
 62
7
  6
CONTINUOUS
 70
0
 71
3
 72
22
 73
18
 74
16
 42
0.0000001
 43
0.0000001
 44
0.0000000001
 12
0.0019724624
 22
0.2996174055
 32
0.0
 13
-0.1528170437
 23
0.2577235563
 33
0.0
 40
0.0
 40
0.0
 40
0.0
 40
0.0
 40
0.0985817599
 40
0.1965476251
 40
0.2924712868
 40
0.385269882
 40
0.4746839592
 40
0.5597144621
 40
0.6390809077
 40
0.7118789403
 40
0.7781204779
 40
0.8369060712
 40
0.8873661477
 40
0.9290679179
 40
0.9619458709
 40
0.9856178654
 40
1.0
 40
1.0
 40
1.0
 40
1.0
 10
59.9869985877
 20
-3.9498766793
 30
0.0
 10
59.9870634039
 20
-3.9400310755
 30
0.0
 10
59.9871416282
 20
-3.9204010042
 30
0.0
 10
59.9871045133
 20
-3.8911904337
 30
0.0
 10
59.9869130837
 20
-3.8625580548
 30
0.0
 10
59.9865697929
 20
-3.8347812548
 30
0.0
 10
59.9860776731
 20
-3.8080947962
 30
0.0
 10
59.9854407982
 20
-3.7827533108
 30
0.0
 10
59.9846675972
 20
-3.7590758924
 30
0.0
 10
59.9837668918
 20
-3.7372810349
 30
0.0
 10
59.9827478531
 20
-3.7175489444
 30
0.0
 10
59.9816189966
 20
-3.7000587658
 30
0.0
 10
59.980400275
 20
-3.6850291522
 30
0.0
 10
59.9791009046
 20
-3.6726132428
 30
0.0
 10
59.9777665378
 20
-3.6628731859
 30
0.0
 10
59.9763708121
 20
-3.6559552575
 30
0.0
 10
59.9752719224
 20
-3.6522538081
 30
0.0
 10
59.9745393107
 20
-3.6510182698
 30
0.0
 11
59.9869985877
 21
-3.9498766793
 31
0.0
 11
59.9871159198
 21
-3.9203394611
 31
0.0
 11
59.9870774838
 21
-3.8909865719
 31
0.0
 11
59.9868833755
 21
-3.8622462059
 31
0.0
 11
59.9865369179
 21
-3.8344436877
 31
0.0
 11
59.9860389962
 21
-3.8076577208
 31
0.0
 11
59.9853935777
 21
-3.7821887267
 31
0.0
 11
59.98461041
 21
-3.7584215427
 31
0.0
 11
59.9837007002
 21
-3.7366284912
 31
0.0
 11
59.9826644709
 21
-3.7168080124
 31
0.0
 11
59.981513528
 21
-3.6992320877
 31
0.0
 11
59.9802655255
 21
-3.6841646391
 31
0.0
 11
59.9789348395
 21
-3.6717408525
 31
0.0
 11
59.9775249882
 21
-3.661991241
 31
0.0
 11
59.976052541
 21
-3.6550530694
 31
0.0
 11
59.9745393107
 21
-3.6510182698
 31
0.0
  0
SPLINE
  5
306
100
AcDbEntity
  8
RACCORDO
100
AcDbSpline
 62
7
  6
CONTINUOUS
 70
0
 71
3
 72
22
 73
18
 74
16
 42
0.0000001
 43
0.0000001
 44
0.0000000001
 12
0.1528170437
 22
0.2577235563
 32
0.0
 13
-0.0019724624
 23
0.2996174055
 33
0.0
 40
0.0
 40
0.0
 40
0.0
 40
0.0
 40
0.0143821346
 40
0.0380541291
 40
0.0709320821
 40
0.1126338523
 40
0.1630939288
 40
0.2218795221
 40
0.2881210597
 40
0.3609190923
 40
0.4402855379
 40
0.5253160408
 40
0.614730118
 40
0.7075287132
 40
0.8034523749
 40
0.9014182401
 40
1.0
 40
1.0
 40
1.0
 40
1.0
 10
59.9745393107
 20
3.6510182698
 30
0.0
 10
59.9752719224
 20
3.6522538081
 30
0.0
 10
59.9763708121
 20
3.6559552575
 30
0.0
 10
59.9777665378
 20
3.6628731859
 30
0.0
 10
59.9791009046
 20
3.6726132428
 30
0.0
 10
59.980400275
 20
3.6850291522
 30
0.0
 10
59.9816189966
 20
3.7000587658
 30
0.0
 10
59.9827478531
 20
3.7175489444
 30
0.0
 10
59.9837668918
 20
3.7372810349
 30
0.0
 10
59.9846675972
 20
3.7590758924
 30
0.0
 10
59.9854407982
 20
3.7827533108
 30
0.0
 10
59.9860776731
 20
3.8080947962
 30
0.0
 10
59.9865697929
 20
3.8347812548
 30
0.0
 10
59.9869130837
 20
3.8625580548
 30
0.0
 10
59.9871045133
 20
3.8911904337
 30
0.0
 10
59.9871416282
 20
3.9204010042
 30
0.0
 10
59.9870634039
 20
3.9400310755
 30
0.0
 10
59.9869985877
 20
3.9498766793
 30
0.0
 11
59.9745393107
 21
3.6510182698
 31
0.0
 11
59.976052541
 21
3.6550530694
 31
0.0
 11
59.9775249882
 21
3.661991241
 31
0.0
 11
59.9789348395
 21
3.6717408525
 31
0.0
 11
59.9802655255
 21
3.6841646391
 31
0.0
 11
59.981513528
 21
3.6992320877
 31
0.0
 11
59.9826644709
 21
3.7168080124
 31
0.0
 11
59.9837007002
 21
3.7366284912
 31
0.0
 11
59.98461041
 21
3.7584215427
 31
0.0
 11
59.9853935777
 21
3.7821887267
 31
0.0
 11
59.9860389962
 21
3.8076577208
 31
0.0
 11
59.9865369179
 21
3.8344436877
 31
0.0
 11
59.9868833755
 21
3.8622462059
 31
0.0
 11
59.9870774838
 21
3.8909865719
 31
0.0
 11
59.9871159198
 21
3.9203394611
 31
0.0
 11
59.9869985877
 21
3.9498766793
 31
0.0
  0
SPLINE
  5
307
100
AcDbEntity
  8
RACCORDO
100
AcDbSpline
 62
7
  6
CONTINUOUS
 70
0
 71
3
 72
22
 73
18
 74
16
 42
0.0000001
 43
0.0000001
 44
0.0000000001
 12
-0.1528170437
 22
-0.2577235563
 32
0.0
 13
0.0019724624
 23
-0.2996174055
 33
0.0
 40
0.0
 40
0.0
 40
0.0
 40
0.0
 40
0.0143821346
 40
0.0380541291
 40
0.0709320821
 40
0.1126338523
 40
0.1630939288
 40
0.2218795221
 40
0.2881210597
 40
0.3609190923
 40
0.4402855379
 40
0.5253160408
 40
0.614730118
 40
0.7075287132
 40
0.8034523749
 40
0.9014182401
 40
1.0
 40
1.0
 40
1.0
 40
1.0
 10
-59.9745393107
 20
-3.6510182698
 30
0.0
 10
-59.9752719224
 20
-3.6522538081
 30
0.0
 10
-59.9763708121
 20
-3.6559552575
 30
0.0
 10
-59.9777665378
 20
-3.6628731859
 30
0.0
 10
-59.9791009046
 20
-3.6726132428
 30
0.0
 10
-59.980400275
 20
-3.6850291522
 30
0.0
 10
-59.9816189966
 20
-3.7000587658
 30
0.0
 10
-59.9827478531
 20
-3.7175489444
 30
0.0
 10
-59.9837668918
 20
-3.7372810349
 30
0.0
 10
-59.9846675972
 20
-3.7590758924
 30
0.0
 10
-59.9854407982
 20
-3.7827533108
 30
0.0
 10
-59.9860776731
 20
-3.8080947962
 30
0.0
 10
-59.9865697929
 20
-3.8347812548
 30
0.0
 10
-59.9869130837
 20
-3.8625580548
 30
0.0
 10
-59.9871045133
 20
-3.8911904337
 30
0.0
 10
-59.9871416282
 20
-3.9204010042
 30
0.0
 10
-59.9870634039
 20
-3.9400310755
 30
0.0
 10
-59.9869985877
 20
-3.9498766793
 30
0.0
 11
-59.9745393107
 21
-3.6510182698
 31
0.0
 11
-59.976052541
 21
-3.6550530694
 31
0.0
 11
-59.9775249882
 21
-3.661991241
 31
0.0
 11
-59.9789348395
 21
-3.6717408525
 31
0.0
 11
-59.9802655255
 21
-3.6841646391
 31
0.0
 11
-59.981513528
 21
-3.6992320877
 31
0.0
 11
-59.9826644709
 21
-3.7168080124
 31
0.0
 11
-59.9837007002
 21
-3.7366284912
 31
0.0
 11
-59.98461041
 21
-3.7584215427
 31
0.0
 11
-59.9853935777
 21
-3.7821887267
 31
0.0
 11
-59.9860389962
 21
-3.8076577208
 31
0.0
 11
-59.9865369179
 21
-3.8344436877
 31
0.0
 11
-59.9868833755
 21
-3.8622462059
 31
0.0
 11
-59.9870774838
 21
-3.8909865719
 31
0.0
 11
-59.9871159198
 21
-3.9203394611
 31
0.0
 11
-59.9869985877
 21
-3.9498766793
 31
0.0
  0
SPLINE
  5
308
100
AcDbEntity
  8
RACCORDO
100
AcDbSpline
 62
7
  6
CONTINUOUS
 70
0
 71
3
 72
22
 73
18
 74
16
 42
0.0000001
 43
0.0000001
 44
0.0000000001
 12
-0.0019724624
 22
-0.2996174055
 32
0.0
 13
0.1528170437
 23
-0.2577235563
 33
0.0
 40
0.0
 40
0.0
 40
0.0
 40
0.0
 40
0.0985817599
 40
0.1965476251
 40
0.2924712868
 40
0.385269882
 40
0.4746839592
 40
0.5597144621
 40
0.6390809077
 40
0.7118789403
 40
0.7781204779
 40
0.8369060712
 40
0.8873661477
 40
0.9290679179
 40
0.9619458709
 40
0.9856178654
 40
1.0
 40
1.0
 40
1.0
 40
1.0
 10
-59.9869985877
 20
3.9498766793
 30
0.0
 10
-59.9870634039
 20
3.9400310755
 30
0.0
 10
-59.9871416282
 20
3.9204010042
 30
0.0
 10
-59.9871045133
 20
3.8911904337
 30
0.0
 10
-59.9869130837
 20
3.8625580548
 30
0.0
 10
-59.9865697929
 20
3.8347812548
 30
0.0
 10
-59.9860776731
 20
3.8080947962
 30
0.0
 10
-59.9854407982
 20
3.7827533108
 30
0.0
 10
-59.9846675972
 20
3.7590758924
 30
0.0
 10
-59.9837668918
 20
3.7372810349
 30
0.0
 10
-59.9827478531
 20
3.7175489444
 30
0.0
 10
-59.9816189966
 20
3.7000587658
 30
0.0
 10
-59.980400275
 20
3.6850291522
 30
0.0
 10
-59.9791009046
 20
3.6726132428
 30
0.0
 10
-59.9777665378
 20
3.6628731859
 30
0.0
 10
-59.9763708121
 20
3.6559552575
 30
0.0
 10
-59.9752719224
 20
3.6522538081
 30
0.0
 10
-59.9745393107
 20
3.6510182698
 30
0.0
 11
-59.9869985877
 21
3.9498766793
 31
0.0
 11
-59.9871159198
 21
3.9203394611
 31
0.0
 11
-59.9870774838
 21
3.8909865719
 31
0.0
 11
-59.9868833755
 21
3.8622462059
 31
0.0
 11
-59.9865369179
 21
3.8344436877
 31
0.0
 11
-59.9860389962
 21
3.8076577208
 31
0.0
 11
-59.9853935777
 21
3.7821887267
 31
0.0
 11
-59.98461041
 21
3.7584215427
 31
0.0
 11
-59.9837007002
 21
3.7366284912
 31
0.0
 11
-59.9826644709
 21
3.7168080124
 31
0.0
 11
-59.981513528
 21
3.6992320877
 31
0.0
 11
-59.9802655255
 21
3.6841646391
 31
0.0
 11
-59.9789348395
 21
3.6717408525
 31
0.0
 11
-59.9775249882
 21
3.661991241
 31
0.0
 11
-59.976052541
 21
3.6550530694
 31
0.0
 11
-59.9745393107
 21
3.6510182698
 31
0.0
  0
SPLINE
  5
309
100
AcDbEntity
  8
RACCORDO
100
AcDbSpline
 62
253
  6
CONTINUOUS
 70
0
 71
3
 72
15
 73
11
 74
9
 42
0.0000001
 43
0.0000001
 44
0.0000000001
 12
-0.1363880511
 22
0.20325783
 32
0.0
 13
-0.20325783
 23
0.1363880511
 33
0.0
 40
0.0
 40
0.0
 40
0.0
 40
0.0
 40
0.1211641801
 40
0.2455965044
 40
0.3722404598
 40
0.5
 40
0.6277595402
 40
0.7544034956
 40
0.8788358199
 40
1.0
 40
1.0
 40
1.0
 40
1.0
 10
22.7263604502
 20
22.5542875193
 30
0.0
 10
22.7208520014
 20
22.5624967087
 30
0.0
 10
22.7092346445
 20
22.5788372219
 30
0.0
 10
22.6904154699
 20
22.6026904526
 30
0.0
 10
22.6701249663
 20
22.6260237476
 30
0.0
 10
22.6485833301
 20
22.6485833301
 30
0.0
 10
22.6260237476
 20
22.6701249663
 30
0.0
 10
22.6026904526
 20
22.6904154699
 30
0.0
 10
22.5788372219
 20
22.7092346445
 30
0.0
 10
22.5624967087
 20
22.7208520014
 30
0.0
 10
22.5542875193
 20
22.7263604502
 30
0.0
 11
22.7263604502
 21
22.5542875193
 31
0.0
 11
22.7091947323
 21
22.5784731002
 31
0.0
 11
22.6903420527
 21
22.6023952967
 31
0.0
 11
22.6700077197
 21
22.6257935926
 31
0.0
 11
22.6484131771
 21
22.6484131771
 31
0.0
 11
22.6257935926
 21
22.6700077197
 31
0.0
 11
22.6023952967
 21
22.6903420527
 31
0.0
 11
22.5784731002
 21
22.7091947323
 31
0.0
 11
22.5542875193
 21
22.7263604502
 31
0.0
  0
SPLINE
  5
30A
100
AcDbEntity
  8
RACCORDO
100
AcDbSpline
 62
253
  6
CONTINUOUS
 70
0
 71
3
 72
15
 73
11
 74
9
 42
0.0000001
 43
0.0000001
 44
0.0000000001
 12
-0.1363880501
 22
0.2032578307
 32
0.0
 13
-0.2032578307
 23
0.1363880501
 33
0.0
 40
0.0
 40
0.0
 40
0.0
 40
0.0
 40
0.1211641651
 40
0.2455964789
 40
0.3722404289
 40
0.4999999683
 40
0.627759512
 40
0.7544034745
 40
0.8788358085
 40
1.0
 40
1.0
 40
1.0
 40
1.0
 10
24.327926027
 20
24.1558530961
 30
0.0
 10
24.3224175789
 20
24.1640622846
 30
0.0
 10
24.3108002234
 20
24.1804027961
 30
0.0
 10
24.2919810506
 20
24.2042560251
 30
0.0
 10
24.2716905482
 20
24.2275893193
 30
0.0
 10
24.2501489123
 20
24.2501489019
 30
0.0
 10
24.2275893296
 20
24.2716905389
 30
0.0
 10
24.2042560334
 20
24.2919810438
 30
0.0
 10
24.1804028009
 20
24.3108002199
 30
0.0
 10
24.1640622863
 20
24.3224175777
 30
0.0
 10
24.1558530961
 20
24.327926027
 30
0.0
 11
24.327926027
 21
24.1558530961
 31
0.0
 11
24.3107603115
 21
24.1800386742
 31
0.0
 11
24.2919076337
 21
24.2039608689
 31
0.0
 11
24.2715733018
 21
24.227359164
 31
0.0
 11
24.2499787596
 21
24.2499787487
 31
0.0
 11
24.2273591747
 21
24.2715732921
 31
0.0
 11
24.2039608777
 21
24.2919076264
 31
0.0
 11
24.1800386794
 21
24.3107603076
 31
0.0
 11
24.1558530961
 21
24.327926027
 31
0.0
  0
SPLINE
  5
30B
100
AcDbEntity
  8
RACCORDO
100
AcDbSpline
 62
253
  6
CONTINUOUS
 70
0
 71
3
 72
14
 73
10
 74
8
 42
0.0000001
 43
0.0000001
 44
0.0000000001
 12
-0.1379125889
 22
0.1995330619
 32
0.0
 13
-0.2021317922
 23
0.134074843
 33
0.0
 40
0.0
 40
0.0
 40
0.0
 40
0.0
 40
0.1383937868
 40
0.2809463069
 40
0.4260914227
 40
0.5722043753
 40
0.7176389282
 40
0.8607638771
 40
1.0
 40
1.0
 40
1.0
 40
1.0
 10
24.3413204527
 20
24.1694468494
 30
0.0
 10
24.3349583709
 20
24.1786515614
 30
0.0
 10
24.3214711831
 20
24.1969478132
 30
0.0
 10
24.2995100063
 20
24.2235113115
 30
0.0
 10
24.2757482324
 20
24.2493325576
 30
0.0
 10
24.2505160455
 20
24.2740519575
 30
0.0
 10
24.2241626399
 20
24.2973273721
 30
0.0
 10
24.1970549717
 20
24.3188353317
 30
0.0
 10
24.1784052056
 20
24.3320278666
 30
0.0
 10
24.1690238566
 20
24.3382505537
 30
0.0
 11
24.3413204527
 21
24.1694468494
 31
0.0
 11
24.3214298577
 21
24.1964873654
 31
0.0
 11
24.2994152336
 21
24.2231504733
 31
0.0
 11
24.2755838414
 21
24.2490640326
 31
0.0
 11
24.2502682989
 21
24.2738663644
 31
0.0
 11
24.2238219385
 21
24.2972112993
 31
0.0
 11
24.1966138756
 21
24.318773009
 31
0.0
 11
24.1690238566
 21
24.3382505537
 31
0.0
  0
SPLINE
  5
30C
100
AcDbEntity
  8
RACCORDO
100
AcDbSpline
 62
253
  6
CONTINUOUS
 70
0
 71
3
 72
14
 73
10
 74
8
 42
0.0000001
 43
0.0000001
 44
0.0000000001
 12
-0.1379125983
 22
-0.1995330584
 32
0.0
 13
-0.2021318005
 23
-0.1340748351
 33
0.0
 40
0.0
 40
0.0
 40
0.0
 40
0.0
 40
0.1383937907
 40
0.2809463134
 40
0.4260914305
 40
0.572204383
 40
0.7176389345
 40
0.8607638808
 40
1.0
 40
1.0
 40
1.0
 40
1.0
 10
24.3413204633
 20
-24.1694468518
 30
0.0
 10
24.3349583809
 20
-24.1786515639
 30
0.0
 10
24.3214711919
 20
-24.1969478158
 30
0.0
 10
24.2995100135
 20
-24.223511314
 30
0.0
 10
24.2757482382
 20
-24.2493325598
 30
0.0
 10
24.2505160501
 20
-24.274051959
 30
0.0
 10
24.2241626437
 20
-24.2973273726
 30
0.0
 10
24.1970549748
 20
-24.3188353309
 30
0.0
 10
24.1784052083
 20
-24.3320278649
 30
0.0
 10
24.1690238592
 20
-24.3382505515
 30
0.0
 11
24.3413204633
 21
-24.1694468518
 31
0.0
 11
24.3214298665
 21
-24.196487368
 31
0.0
 11
24.2994152408
 21
-24.2231504759
 31
0.0
 11
24.2755838471
 21
-24.2490640348
 31
0.0
 11
24.2502683035
 21
-24.273866366
 31
0.0
 11
24.2238219422
 21
-24.2972112999
 31
0.0
 11
24.1966138786
 21
-24.3187730083
 31
0.0
 11
24.1690238592
 21
-24.3382505515
 31
0.0
  0
SPLINE
  5
30D
100
AcDbEntity
  8
RACCORDO
100
AcDbSpline
 62
253
  6
CONTINUOUS
 70
0
 71
3
 72
15
 73
11
 74
9
 42
0.0000001
 43
0.0000001
 44
0.0000000001
 12
-0.1363880511
 22
-0.20325783
 32
0.0
 13
-0.20325783
 23
-0.1363880511
 33
0.0
 40
0.0
 40
0.0
 40
0.0
 40
0.0
 40
0.1211641801
 40
0.2455965044
 40
0.3722404598
 40
0.5
 40
0.6277595402
 40
0.7544034956
 40
0.8788358199
 40
1.0
 40
1.0
 40
1.0
 40
1.0
 10
24.3279260345
 20
-24.1558531036
 30
0.0
 10
24.3224175857
 20
-24.1640622931
 30
0.0
 10
24.3108002289
 20
-24.1804028062
 30
0.0
 10
24.2919810542
 20
-24.2042560369
 30
0.0
 10
24.2716905507
 20
-24.227589332
 30
0.0
 10
24.2501489144
 20
-24.2501489144
 30
0.0
 10
24.227589332
 20
-24.2716905507
 30
0.0
 10
24.2042560369
 20
-24.2919810542
 30
0.0
 10
24.1804028062
 20
-24.3108002289
 30
0.0
 10
24.1640622931
 20
-24.3224175857
 30
0.0
 10
24.1558531036
 20
-24.3279260345
 30
0.0
 11
24.3279260345
 21
-24.1558531036
 31
0.0
 11
24.3107603167
 21
-24.1800386846
 31
0.0
 11
24.291907637
 21
-24.203960881
 31
0.0
 11
24.271573304
 21
-24.2273591769
 31
0.0
 11
24.2499787615
 21
-24.2499787615
 31
0.0
 11
24.2273591769
 21
-24.271573304
 31
0.0
 11
24.203960881
 21
-24.291907637
 31
0.0
 11
24.1800386846
 21
-24.3107603167
 31
0.0
 11
24.1558531036
 21
-24.3279260345
 31
0.0
  0
SPLINE
  5
30E
100
AcDbEntity
  8
RACCORDO
100
AcDbSpline
 62
253
  6
CONTINUOUS
 70
0
 71
3
 72
15
 73
11
 74
9
 42
0.0000001
 43
0.0000001
 44
0.0000000001
 12
-0.1363880651
 22
-0.2032578192
 32
0.0
 13
-0.2032578192
 23
-0.1363880651
 33
0.0
 40
0.0
 40
0.0
 40
0.0
 40
0.0
 40
0.1211642127
 40
0.2455965704
 40
0.3722405546
 40
0.5000001134
 40
0.6277596569
 40
0.7544035962
 40
0.8788358819
 40
1.0
 40
1.0
 40
1.0
 40
1.0
 10
22.7263604502
 20
-22.5542875193
 30
0.0
 10
22.7208519993
 20
-22.5624967105
 30
0.0
 10
22.7092346383
 20
-22.5788372272
 30
0.0
 10
22.6904154574
 20
-22.6026904626
 30
0.0
 10
22.6701249483
 20
-22.6260237614
 30
0.0
 10
22.6485833082
 20
-22.6485833457
 30
0.0
 10
22.6260237248
 20
-22.6701249814
 30
0.0
 10
22.6026904328
 20
-22.6904154819
 30
0.0
 10
22.5788372099
 20
-22.7092346508
 30
0.0
 10
22.5624967041
 20
-22.7208520036
 30
0.0
 10
22.5542875193
 20
-22.7263604502
 30
0.0
 11
22.7263604502
 21
-22.5542875193
 31
0.0
 11
22.7091947261
 21
-22.5784731054
 31
0.0
 11
22.69034204
 21
-22.602395307
 31
0.0
 11
22.6700077011
 21
-22.625793607
 31
0.0
 11
22.6484131544
 21
-22.6484131937
 31
0.0
 11
22.6257935687
 21
-22.670007736
 31
0.0
 11
22.6023952756
 21
-22.690342066
 31
0.0
 11
22.5784730869
 21
-22.70919474
 31
0.0
 11
22.5542875193
 21
-22.7263604502
 31
0.0
  0
LINE
  5
30F
100
AcDbEntity
  8
RACCORDO
100
AcDbLine
 62
253
  6
CONTINUOUS
 10
24.3413188264
 20
24.1694446383
 11
24.9037535686
 21
24.9180382089
  0
LINE
  5
310
100
AcDbEntity
  8
RACCORDO
100
AcDbLine
 62
253
  6
CONTINUOUS
 10
24.9037148627
 20
-24.917986788
 11
24.3413188106
 21
-24.1694446154
  0
LINE
  5
311
100
AcDbEntity
  8
RACCORDO
100
AcDbLine
 62
253
  6
CONTINUOUS
 10
-24.3413188249
 20
-24.1694446362
 11
-24.9037535674
 21
-24.9180382073
  0
LINE
  5
312
100
AcDbEntity
  8
RACCORDO
100
AcDbLine
 62
253
  6
CONTINUOUS
 10
-24.3413204282
 20
24.1694468367
 11
-24.9037148627
 21
24.917986788
  0
LINE
  5
313
100
AcDbEntity
  8
RACCORDO
100
AcDbLine
 62
253
  6
CONTINUOUS
 10
-22.2132707214
 20
-22.5132248706
 11
-22.5542897635
 21
-22.7263619064
  0
LINE
  5
314
100
AcDbEntity
  8
RACCORDO
100
AcDbLine
 62
253
  6
CONTINUOUS
 10
22.5542897749
 20
-22.7263619137
 11
22.2132707214
 21
-22.5132248706
  0
LINE
  5
315
100
AcDbEntity
  8
RACCORDO
100
AcDbLine
 62
253
  6
CONTINUOUS
 10
22.5132247812
 20
22.213270346
 11
22.7263561463
 21
22.5542808861
  0
LINE
  5
316
100
AcDbEntity
  8
RACCORDO
100
AcDbLine
 62
253
  6
CONTINUOUS
 10
22.7263561378
 20
-22.554280873
 11
22.5132247811
 21
-22.2132703457
  0
LINE
  5
317
100
AcDbEntity
  8
RACCORDO
100
AcDbLine
 62
253
  6
CONTINUOUS
 10
-22.213270346
 20
22.5132247812
 11
-22.5542808861
 21
22.7263561463
  0
LINE
  5
318
100
AcDbEntity
  8
RACCORDO
100
AcDbLine
 62
253
  6
CONTINUOUS
 10
22.2132707214
 20
22.5132248706
 11
22.5542897635
 21
22.7263619064
  0
LINE
  5
319
100
AcDbEntity
  8
RACCORDO
100
AcDbLine
 62
253
  6
CONTINUOUS
 10
-22.5132247812
 20
-22.213270346
 11
-22.7263561463
 21
-22.5542808861
  0
LINE
  5
31A
100
AcDbEntity
  8
RACCORDO
100
AcDbLine
 62
253
  6
CONTINUOUS
 10
-22.5132248706
 20
22.2132707214
 11
-22.7263619064
 21
22.5542897635
  0
SPLINE
  5
31B
100
AcDbEntity
  8
RACCORDO
100
AcDbSpline
 62
253
  6
CONTINUOUS
 70
0
 71
3
 72
30
 73
26
 74
24
 42
0.0000001
 43
0.0000001
 44
0.0000000001
 12
1.8918929299
 22
0.0992270072
 32
0.0
 13
0.1064618945
 23
1.8914995962
 33
0.0
 40
0.0
 40
0.0
 40
0.0
 40
0.0
 40
0.0436499319
 40
0.0872578141
 40
0.1308266324
 40
0.1743579587
 40
0.2178545434
 40
0.2613199457
 40
0.3047580676
 40
0.3481732519
 40
0.3915700894
 40
0.4349536157
 40
0.4783289409
 40
0.5217014271
 40
0.5650763245
 40
0.6084589924
 40
0.6518545344
 40
0.6952679729
 40
0.7387038758
 40
0.7821665747
 40
0.8256599771
 40
0.8691876452
 40
0.9127522757
 40
0.9563554803
 40
1.0
 40
1.0
 40
1.0
 40
1.0
 10
56.3592211356
 20
-37.0564969183
 30
0.0
 10
56.3867481348
 20
-37.0550531676
 30
0.0
 10
56.4417002332
 20
-37.050424008
 30
0.0
 10
56.5234726634
 20
-37.0382788108
 30
0.0
 10
56.604240719
 20
-37.0209886825
 30
0.0
 10
56.6836802207
 20
-36.9986269816
 30
0.0
 10
56.7614778947
 20
-36.9712870452
 30
0.0
 10
56.8373265936
 20
-36.9390811973
 30
0.0
 10
56.9109279095
 20
-36.9021403506
 30
0.0
 10
56.9819924677
 20
-36.8606134698
 30
0.0
 10
57.0502412266
 20
-36.8146668855
 30
0.0
 10
57.1154062932
 20
-36.7644836598
 30
0.0
 10
57.1772319427
 20
-36.7102627946
 30
0.0
 10
57.2354753099
 20
-36.6522186163
 30
0.0
 10
57.2899073392
 20
-36.5905798981
 30
0.0
 10
57.34031345
 20
-36.5255891796
 30
0.0
 10
57.386494396
 20
-36.4575018074
 30
0.0
 10
57.4282668584
 20
-36.3865852411
 30
0.0
 10
57.4654642241
 20
-36.313118024
 30
0.0
 10
57.4979372017
 20
-36.2373889541
 30
0.0
 10
57.5255544921
 20
-36.1596957878
 30
0.0
 10
57.5482032642
 20
-36.0803449902
 30
0.0
 10
57.5657896161
 20
-35.9996491088
 30
0.0
 10
57.5782393775
 20
-35.9179317106
 30
0.0
 10
57.5830766306
 20
-35.8630040166
 30
0.0
 10
57.5846254567
 20
-35.8354861528
 30
0.0
 11
56.3592211356
 21
-37.0564969183
 31
0.0
 11
56.4416235888
 21
-37.0495531012
 31
0.0
 11
56.5233418332
 21
-37.0374147152
 31
0.0
 11
56.6040536562
 21
-37.0201349298
 31
0.0
 11
56.6834378915
 21
-36.9977874007
 31
0.0
 11
56.7611805868
 21
-36.9704654203
 31
0.0
 11
56.8369754557
 21
-36.9382812223
 31
0.0
 11
56.91052421
 21
-36.901365689
 31
0.0
 11
56.9815378659
 21
-36.8598676617
 31
0.0
 11
57.0497375231
 21
-36.8139534383
 31
0.0
 11
57.1148557273
 21
-36.7638058295
 31
0.0
 11
57.1766368932
 21
-36.7096237568
 31
0.0
 11
57.2348385391
 21
-36.6516212223
 31
0.0
 11
57.2892317022
 21
-36.5900269036
 31
0.0
 11
57.3396021239
 21
-36.5250829547
 31
0.0
 11
57.3857506355
 21
-36.4570445797
 31
0.0
 11
57.4274941674
 21
-36.3861787975
 31
0.0
 11
57.4646661283
 21
-36.3127640219
 31
0.0
 11
57.4971173482
 21
-36.2370886651
 31
0.0
 11
57.5247165567
 21
-36.1594503536
 31
0.0
 11
57.5473510309
 21
-36.0801546639
 31
0.0
 11
57.5649268639
 21
-35.9995149108
 31
0.0
 11
57.5773696795
 21
-35.9178514302
 31
0.0
 11
57.5846254567
 21
-35.8354861528
 31
0.0
  0
SPLINE
  5
31C
100
AcDbEntity
  8
RACCORDO
100
AcDbSpline
 62
253
  6
CONTINUOUS
 70
0
 71
3
 72
30
 73
26
 74
24
 42
0.0000001
 43
0.0000001
 44
0.0000000001
 12
0.1064627499
 22
-1.8914995479
 32
0.0
 13
1.8918929758
 23
-0.0992261313
 33
0.0
 40
0.0
 40
0.0
 40
0.0
 40
0.0
 40
0.0436447016
 40
0.0872478787
 40
0.1308125294
 40
0.1743401912
 40
0.2178335938
 40
0.2612962953
 40
0.3047322019
 40
0.3481456419
 40
0.3915411854
 40
0.4349238547
 40
0.478298753
 40
0.5216712388
 40
0.5650465622
 40
0.6084300861
 40
0.6518269211
 40
0.6952421029
 40
0.7386802204
 40
0.7821456192
 40
0.8256422024
 40
0.8691735338
 40
0.9127423318
 40
0.9563502433
 40
1.0
 40
1.0
 40
1.0
 40
1.0
 10
-57.5846254567
 20
-35.8354861528
 30
0.0
 10
-57.5830766117
 20
-35.8630041306
 30
0.0
 10
-57.5782393672
 20
-35.9179319234
 30
0.0
 10
-57.5657895441
 20
-35.9996494242
 30
0.0
 10
-57.5482031885
 20
-36.0803452956
 30
0.0
 10
-57.5255543882
 20
-36.1596960947
 30
0.0
 10
-57.4979370822
 20
-36.2373892529
 30
0.0
 10
-57.4654640836
 20
-36.3131183184
 30
0.0
 10
-57.4282666976
 20
-36.3865855308
 30
0.0
 10
-57.386494215
 20
-36.4575020901
 30
0.0
 10
-57.3403132501
 20
-36.5255894528
 30
0.0
 10
-57.2899071211
 20
-36.5905801603
 30
0.0
 10
-57.2354750751
 20
-36.6522188652
 30
0.0
 10
-57.1772316935
 20
-36.7102630278
 30
0.0
 10
-57.1154060321
 20
-36.7644838753
 30
0.0
 10
-57.0502409561
 20
-36.8146670818
 30
0.0
 10
-56.9819921895
 20
-36.8606136464
 30
0.0
 10
-56.9109276262
 20
-36.9021405065
 30
0.0
 10
-56.8373263073
 20
-36.9390813328
 30
0.0
 10
-56.761477606
 20
-36.9712871593
 30
0.0
 10
-56.6836799262
 20
-36.9986270802
 30
0.0
 10
-56.6042404281
 20
-37.0209887533
 30
0.0
 10
-56.5234723624
 20
-37.0382788791
 30
0.0
 10
-56.44170003
 20
-37.0504240162
 30
0.0
 10
-56.386748025
 20
-37.0550531861
 30
0.0
 10
-56.3592211356
 20
-37.0564969183
 30
0.0
 11
-57.5846254567
 21
-35.8354861528
 31
0.0
 11
-57.57736964
 21
-35.9178517726
 31
0.0
 11
-57.564926804
 21
-35.9995151975
 31
0.0
 11
-57.5473509475
 21
-36.0801549846
 31
0.0
 11
-57.5247164557
 21
-36.1594506568
 31
0.0
 11
-57.4971172287
 21
-36.2370889622
 31
0.0
 11
-57.4646659882
 21
-36.3127643155
 31
0.0
 11
-57.4274940059
 21
-36.3861790881
 31
0.0
 11
-57.3857504546
 21
-36.4570448622
 31
0.0
 11
-57.339601924
 21
-36.5250832278
 31
0.0
 11
-57.289231484
 21
-36.5900271658
 31
0.0
 11
-57.2348383039
 21
-36.6516214717
 31
0.0
 11
-57.1766366435
 21
-36.7096239905
 31
0.0
 11
-57.1148554662
 21
-36.7638060452
 31
0.0
 11
-57.0497372527
 21
-36.8139536347
 31
0.0
 11
-56.981537588
 21
-36.8598678382
 31
0.0
 11
-56.9105239258
 21
-36.9013658456
 31
0.0
 11
-56.8369751702
 21
-36.9382813573
 31
0.0
 11
-56.7611802996
 21
-36.9704655347
 31
0.0
 11
-56.683437601
 21
-36.9977874965
 31
0.0
 11
-56.6040533505
 21
-37.020135008
 31
0.0
 11
-56.5233415623
 21
-37.0374147711
 31
0.0
 11
-56.441623259
 21
-37.0495531377
 31
0.0
 11
-56.3592211356
 21
-37.0564969183
 31
0.0
  0
SPLINE
  5
31D
100
AcDbEntity
  8
RACCORDO
100
AcDbSpline
 62
253
  6
CONTINUOUS
 70
0
 71
3
 72
30
 73
26
 74
24
 42
0.0000001
 43
0.0000001
 44
0.0000000001
 12
-1.8918929299
 22
-0.0992270072
 32
0.0
 13
-0.1064618945
 23
-1.8914995962
 33
0.0
 40
0.0
 40
0.0
 40
0.0
 40
0.0
 40
0.0436499319
 40
0.0872578141
 40
0.1308266324
 40
0.1743579587
 40
0.2178545434
 40
0.2613199457
 40
0.3047580676
 40
0.3481732519
 40
0.3915700894
 40
0.4349536157
 40
0.4783289409
 40
0.5217014271
 40
0.5650763245
 40
0.6084589924
 40
0.6518545344
 40
0.6952679729
 40
0.7387038758
 40
0.7821665747
 40
0.8256599771
 40
0.8691876452
 40
0.9127522757
 40
0.9563554803
 40
1.0
 40
1.0
 40
1.0
 40
1.0
 10
-56.3592211356
 20
37.0564969183
 30
0.0
 10
-56.3867481348
 20
37.0550531676
 30
0.0
 10
-56.4417002332
 20
37.050424008
 30
0.0
 10
-56.5234726634
 20
37.0382788108
 30
0.0
 10
-56.604240719
 20
37.0209886825
 30
0.0
 10
-56.6836802207
 20
36.9986269816
 30
0.0
 10
-56.7614778947
 20
36.9712870452
 30
0.0
 10
-56.8373265936
 20
36.9390811973
 30
0.0
 10
-56.9109279095
 20
36.9021403506
 30
0.0
 10
-56.9819924677
 20
36.8606134698
 30
0.0
 10
-57.0502412266
 20
36.8146668855
 30
0.0
 10
-57.1154062932
 20
36.7644836598
 30
0.0
 10
-57.1772319427
 20
36.7102627946
 30
0.0
 10
-57.2354753099
 20
36.6522186163
 30
0.0
 10
-57.2899073392
 20
36.5905798981
 30
0.0
 10
-57.34031345
 20
36.5255891796
 30
0.0
 10
-57.386494396
 20
36.4575018074
 30
0.0
 10
-57.4282668584
 20
36.3865852411
 30
0.0
 10
-57.4654642241
 20
36.313118024
 30
0.0
 10
-57.4979372017
 20
36.2373889541
 30
0.0
 10
-57.5255544921
 20
36.1596957878
 30
0.0
 10
-57.5482032642
 20
36.0803449902
 30
0.0
 10
-57.5657896161
 20
35.9996491088
 30
0.0
 10
-57.5782393775
 20
35.9179317106
 30
0.0
 10
-57.5830766306
 20
35.8630040166
 30
0.0
 10
-57.5846254567
 20
35.8354861528
 30
0.0
 11
-56.3592211356
 21
37.0564969183
 31
0.0
 11
-56.4416235888
 21
37.0495531012
 31
0.0
 11
-56.5233418332
 21
37.0374147152
 31
0.0
 11
-56.6040536562
 21
37.0201349298
 31
0.0
 11
-56.6834378915
 21
36.9977874007
 31
0.0
 11
-56.7611805868
 21
36.9704654203
 31
0.0
 11
-56.8369754557
 21
36.9382812223
 31
0.0
 11
-56.91052421
 21
36.901365689
 31
0.0
 11
-56.9815378659
 21
36.8598676617
 31
0.0
 11
-57.0497375231
 21
36.8139534383
 31
0.0
 11
-57.1148557273
 21
36.7638058295
 31
0.0
 11
-57.1766368932
 21
36.7096237568
 31
0.0
 11
-57.2348385391
 21
36.6516212223
 31
0.0
 11
-57.2892317022
 21
36.5900269036
 31
0.0
 11
-57.3396021239
 21
36.5250829547
 31
0.0
 11
-57.3857506355
 21
36.4570445797
 31
0.0
 11
-57.4274941674
 21
36.3861787975
 31
0.0
 11
-57.4646661283
 21
36.3127640219
 31
0.0
 11
-57.4971173482
 21
36.2370886651
 31
0.0
 11
-57.5247165567
 21
36.1594503536
 31
0.0
 11
-57.5473510309
 21
36.0801546639
 31
0.0
 11
-57.5649268639
 21
35.9995149108
 31
0.0
 11
-57.5773696795
 21
35.9178514302
 31
0.0
 11
-57.5846254567
 21
35.8354861528
 31
0.0
  0
LINE
  5
31E
100
AcDbEntity
  8
RACCORDO
100
AcDbLine
 62
253
  6
CONTINUOUS
 10
56.3303856094
 20
-38.1643004261
 11
56.5647908409
 21
-38.3989305068
  0
LINE
  5
31F
100
AcDbEntity
  8
RACCORDO
100
AcDbLine
 62
253
  6
CONTINUOUS
 10
-56.3303863234
 20
-38.1643003886
 11
-56.5647908409
 21
-38.3989305068
  0
LINE
  5
320
100
AcDbEntity
  8
RACCORDO
100
AcDbLine
 62
253
  6
CONTINUOUS
 10
58.6823774118
 20
-35.8213413168
 11
58.9156345033
 21
-36.0563828951
  0
LINE
  5
321
100
AcDbEntity
  8
RACCORDO
100
AcDbLine
 62
253
  6
CONTINUOUS
 10
58.682377452
 20
35.8213406058
 11
58.9156345033
 21
36.0563828951
  0
SPLINE
  5
322
100
AcDbEntity
  8
RACCORDO
100
AcDbSpline
 62
253
  6
CONTINUOUS
 70
0
 71
3
 72
15
 73
11
 74
9
 42
0.0000001
 43
0.0000001
 44
0.0000000001
 12
0.1363880511
 22
-0.20325783
 32
0.0
 13
0.20325783
 23
-0.1363880511
 33
0.0
 40
0.0
 40
0.0
 40
0.0
 40
0.0
 40
0.1211641801
 40
0.2455965044
 40
0.3722404598
 40
0.5
 40
0.6277595402
 40
0.7544034956
 40
0.8788358199
 40
1.0
 40
1.0
 40
1.0
 40
1.0
 10
-22.7263604502
 20
-22.5542875193
 30
0.0
 10
-22.7208520014
 20
-22.5624967087
 30
0.0
 10
-22.7092346445
 20
-22.5788372219
 30
0.0
 10
-22.6904154699
 20
-22.6026904526
 30
0.0
 10
-22.6701249663
 20
-22.6260237476
 30
0.0
 10
-22.6485833301
 20
-22.6485833301
 30
0.0
 10
-22.6260237476
 20
-22.6701249663
 30
0.0
 10
-22.6026904526
 20
-22.6904154699
 30
0.0
 10
-22.5788372219
 20
-22.7092346445
 30
0.0
 10
-22.5624967087
 20
-22.7208520014
 30
0.0
 10
-22.5542875193
 20
-22.7263604502
 30
0.0
 11
-22.7263604502
 21
-22.5542875193
 31
0.0
 11
-22.7091947323
 21
-22.5784731002
 31
0.0
 11
-22.6903420527
 21
-22.6023952967
 31
0.0
 11
-22.6700077197
 21
-22.6257935926
 31
0.0
 11
-22.6484131771
 21
-22.6484131771
 31
0.0
 11
-22.6257935926
 21
-22.6700077197
 31
0.0
 11
-22.6023952967
 21
-22.6903420527
 31
0.0
 11
-22.5784731002
 21
-22.7091947323
 31
0.0
 11
-22.5542875193
 21
-22.7263604502
 31
0.0
  0
SPLINE
  5
323
100
AcDbEntity
  8
RACCORDO
100
AcDbSpline
 62
253
  6
CONTINUOUS
 70
0
 71
3
 72
15
 73
11
 74
9
 42
0.0000001
 43
0.0000001
 44
0.0000000001
 12
0.1363880501
 22
-0.2032578307
 32
0.0
 13
0.2032578307
 23
-0.1363880501
 33
0.0
 40
0.0
 40
0.0
 40
0.0
 40
0.0
 40
0.121164165
 40
0.2455964788
 40
0.3722404286
 40
0.4999999681
 40
0.6277595118
 40
0.7544034744
 40
0.8788358084
 40
1.0
 40
1.0
 40
1.0
 40
1.0
 10
-24.3279260269
 20
-24.155853096
 30
0.0
 10
-24.3224175789
 20
-24.1640622845
 30
0.0
 10
-24.3108002234
 20
-24.180402796
 30
0.0
 10
-24.2919810506
 20
-24.204256025
 30
0.0
 10
-24.2716905481
 20
-24.2275893192
 30
0.0
 10
-24.2501489123
 20
-24.2501489018
 30
0.0
 10
-24.2275893295
 20
-24.2716905388
 30
0.0
 10
-24.2042560334
 20
-24.2919810437
 30
0.0
 10
-24.1804028009
 20
-24.3108002198
 30
0.0
 10
-24.1640622863
 20
-24.3224175777
 30
0.0
 10
-24.155853096
 20
-24.3279260269
 30
0.0
 11
-24.3279260269
 21
-24.155853096
 31
0.0
 11
-24.3107603114
 21
-24.1800386741
 31
0.0
 11
-24.2919076336
 21
-24.2039608688
 31
0.0
 11
-24.2715733018
 21
-24.2273591639
 31
0.0
 11
-24.2499787596
 21
-24.2499787486
 31
0.0
 11
-24.2273591747
 21
-24.271573292
 31
0.0
 11
-24.2039608776
 21
-24.2919076263
 31
0.0
 11
-24.1800386793
 21
-24.3107603075
 31
0.0
 11
-24.155853096
 21
-24.3279260269
 31
0.0
  0
SPLINE
  5
324
100
AcDbEntity
  8
RACCORDO
100
AcDbSpline
 62
253
  6
CONTINUOUS
 70
0
 71
3
 72
14
 73
10
 74
8
 42
0.0000001
 43
0.0000001
 44
0.0000000001
 12
0.1379125889
 22
-0.1995330619
 32
0.0
 13
0.2021317923
 23
-0.134074843
 33
0.0
 40
0.0
 40
0.0
 40
0.0
 40
0.0
 40
0.1383937868
 40
0.2809463069
 40
0.4260914228
 40
0.5722043753
 40
0.7176389282
 40
0.8607638771
 40
1.0
 40
1.0
 40
1.0
 40
1.0
 10
-24.3413204526
 20
-24.1694468492
 30
0.0
 10
-24.3349583707
 20
-24.1786515612
 30
0.0
 10
-24.3214711829
 20
-24.196947813
 30
0.0
 10
-24.2995100061
 20
-24.2235113113
 30
0.0
 10
-24.2757482322
 20
-24.2493325575
 30
0.0
 10
-24.2505160453
 20
-24.2740519573
 30
0.0
 10
-24.2241626397
 20
-24.2973273719
 30
0.0
 10
-24.1970549715
 20
-24.3188353315
 30
0.0
 10
-24.1784052054
 20
-24.3320278665
 30
0.0
 10
-24.1690238564
 20
-24.3382505536
 30
0.0
 11
-24.3413204526
 21
-24.1694468492
 31
0.0
 11
-24.3214298575
 21
-24.1964873652
 31
0.0
 11
-24.2994152334
 21
-24.2231504731
 31
0.0
 11
-24.2755838412
 21
-24.2490640324
 31
0.0
 11
-24.2502682987
 21
-24.2738663643
 31
0.0
 11
-24.2238219383
 21
-24.2972112992
 31
0.0
 11
-24.1966138754
 21
-24.3187730088
 31
0.0
 11
-24.1690238564
 21
-24.3382505536
 31
0.0
  0
LINE
  5
325
100
AcDbEntity
  8
RACCORDO
100
AcDbLine
 62
253
  6
CONTINUOUS
 10
-56.3303856094
 20
38.1643004261
 11
-56.5647908409
 21
38.3989305068
  0
LINE
  5
326
100
AcDbEntity
  8
RACCORDO
100
AcDbLine
 62
253
  6
CONTINUOUS
 10
56.3303863234
 20
38.1643003886
 11
56.5647908409
 21
38.3989305068
  0
SPLINE
  5
327
100
AcDbEntity
  8
RACCORDO
100
AcDbSpline
 62
253
  6
CONTINUOUS
 70
0
 71
3
 72
15
 73
11
 74
9
 42
0.0000001
 43
0.0000001
 44
0.0000000001
 12
-0.20325783
 22
-0.1363880511
 32
0.0
 13
-0.1363880511
 23
-0.20325783
 33
0.0
 40
0.0
 40
0.0
 40
0.0
 40
0.0
 40
0.1211641801
 40
0.2455965044
 40
0.3722404598
 40
0.5
 40
0.6277595402
 40
0.7544034956
 40
0.8788358199
 40
1.0
 40
1.0
 40
1.0
 40
1.0
 10
-22.5542875193
 20
22.7263604502
 30
0.0
 10
-22.5624967087
 20
22.7208520014
 30
0.0
 10
-22.5788372219
 20
22.7092346445
 30
0.0
 10
-22.6026904526
 20
22.6904154699
 30
0.0
 10
-22.6260237476
 20
22.6701249663
 30
0.0
 10
-22.6485833301
 20
22.6485833301
 30
0.0
 10
-22.6701249663
 20
22.6260237476
 30
0.0
 10
-22.6904154699
 20
22.6026904526
 30
0.0
 10
-22.7092346445
 20
22.5788372219
 30
0.0
 10
-22.7208520014
 20
22.5624967087
 30
0.0
 10
-22.7263604502
 20
22.5542875193
 30
0.0
 11
-22.5542875193
 21
22.7263604502
 31
0.0
 11
-22.5784731002
 21
22.7091947323
 31
0.0
 11
-22.6023952967
 21
22.6903420527
 31
0.0
 11
-22.6257935926
 21
22.6700077197
 31
0.0
 11
-22.6484131771
 21
22.6484131771
 31
0.0
 11
-22.6700077197
 21
22.6257935926
 31
0.0
 11
-22.6903420527
 21
22.6023952967
 31
0.0
 11
-22.7091947323
 21
22.5784731002
 31
0.0
 11
-22.7263604502
 21
22.5542875193
 31
0.0
  0
SPLINE
  5
328
100
AcDbEntity
  8
RACCORDO
100
AcDbSpline
 62
253
  6
CONTINUOUS
 70
0
 71
3
 72
15
 73
11
 74
9
 42
0.0000001
 43
0.0000001
 44
0.0000000001
 12
-0.2032578315
 22
-0.136388049
 32
0.0
 13
-0.136388049
 23
-0.2032578315
 33
0.0
 40
0.0
 40
0.0
 40
0.0
 40
0.0
 40
0.1211641971
 40
0.2455965358
 40
0.3722405016
 40
0.5000000469
 40
0.6277595859
 40
0.7544035331
 40
0.878835842
 40
1.0
 40
1.0
 40
1.0
 40
1.0
 10
-24.1558531035
 20
24.3279260344
 30
0.0
 10
-24.1640622942
 20
24.322417585
 30
0.0
 10
-24.1804028095
 20
24.3108002267
 30
0.0
 10
-24.2042560429
 20
24.2919810499
 30
0.0
 10
-24.2275893396
 20
24.2716905444
 30
0.0
 10
-24.2501489226
 20
24.250148907
 30
0.0
 10
-24.2716905582
 20
24.2275893245
 30
0.0
 10
-24.29198106
 20
24.2042560305
 30
0.0
 10
-24.3108002319
 20
24.1804028024
 30
0.0
 10
-24.3224175867
 20
24.1640622915
 30
0.0
 10
-24.3279260344
 20
24.1558531035
 30
0.0
 11
-24.1558531035
 21
24.3279260344
 31
0.0
 11
-24.180038688
 21
24.3107603143
 31
0.0
 11
-24.2039608872
 21
24.2919076324
 31
0.0
 11
-24.2273591848
 21
24.2715732975
 31
0.0
 11
-24.2499787699
 21
24.2499787537
 31
0.0
 11
-24.2715733119
 21
24.227359169
 31
0.0
 11
-24.2919076432
 21
24.2039608742
 31
0.0
 11
-24.3107603201
 21
24.1800386803
 31
0.0
 11
-24.3279260344
 21
24.1558531035
 31
0.0
  0
SPLINE
  5
329
100
AcDbEntity
  8
RACCORDO
100
AcDbSpline
 62
253
  6
CONTINUOUS
 70
0
 71
3
 72
14
 73
10
 74
8
 42
0.0000001
 43
0.0000001
 44
0.0000000001
 12
-0.2021317859
 22
-0.1340748459
 32
0.0
 13
-0.1379126105
 23
-0.1995330425
 33
0.0
 40
0.0
 40
0.0
 40
0.0
 40
0.0
 40
0.1392361264
 40
0.2823610767
 40
0.4277956295
 40
0.5739085809
 40
0.7190536952
 40
0.8616062139
 40
1.0
 40
1.0
 40
1.0
 40
1.0
 10
-24.1690238594
 20
24.3382505458
 30
0.0
 10
-24.1784052083
 20
24.3320278584
 30
0.0
 10
-24.1970549743
 20
24.3188353232
 30
0.0
 10
-24.2241626427
 20
24.297327364
 30
0.0
 10
-24.2505160485
 20
24.2740519506
 30
0.0
 10
-24.2757482361
 20
24.2493325525
 30
0.0
 10
-24.2995100112
 20
24.2235113086
 30
0.0
 10
-24.3214711897
 20
24.196947813
 30
0.0
 10
-24.3349583793
 20
24.178651563
 30
0.0
 10
-24.341320462
 20
24.169446852
 30
0.0
 11
-24.1690238594
 21
24.3382505458
 31
0.0
 11
-24.1966138784
 21
24.3187730005
 31
0.0
 11
-24.2238219414
 21
24.2972112913
 31
0.0
 11
-24.2502683021
 21
24.2738663576
 31
0.0
 11
-24.2755838452
 21
24.2490640276
 31
0.0
 11
-24.2994152386
 21
24.2231504705
 31
0.0
 11
-24.3214298645
 21
24.1964873652
 31
0.0
 11
-24.341320462
 21
24.169446852
 31
0.0
  0
SPLINE
  5
32A
100
AcDbEntity
  8
RACCORDO
100
AcDbSpline
 62
253
  6
CONTINUOUS
 70
0
 71
3
 72
30
 73
26
 74
24
 42
0.0000001
 43
0.0000001
 44
0.0000000001
 12
-0.1064627499
 22
1.8914995479
 32
0.0
 13
-1.8918929758
 23
0.0992261313
 33
0.0
 40
0.0
 40
0.0
 40
0.0
 40
0.0
 40
0.0436447016
 40
0.0872478787
 40
0.1308125294
 40
0.1743401912
 40
0.2178335938
 40
0.2612962953
 40
0.3047322019
 40
0.3481456419
 40
0.3915411854
 40
0.4349238547
 40
0.478298753
 40
0.5216712388
 40
0.5650465622
 40
0.6084300861
 40
0.6518269211
 40
0.6952421029
 40
0.7386802204
 40
0.7821456192
 40
0.8256422024
 40
0.8691735338
 40
0.9127423318
 40
0.9563502433
 40
1.0
 40
1.0
 40
1.0
 40
1.0
 10
57.5846254567
 20
35.8354861528
 30
0.0
 10
57.5830766117
 20
35.8630041306
 30
0.0
 10
57.5782393672
 20
35.9179319234
 30
0.0
 10
57.5657895441
 20
35.9996494242
 30
0.0
 10
57.5482031885
 20
36.0803452956
 30
0.0
 10
57.5255543882
 20
36.1596960947
 30
0.0
 10
57.4979370822
 20
36.2373892529
 30
0.0
 10
57.4654640836
 20
36.3131183184
 30
0.0
 10
57.4282666976
 20
36.3865855308
 30
0.0
 10
57.386494215
 20
36.4575020901
 30
0.0
 10
57.3403132501
 20
36.5255894528
 30
0.0
 10
57.2899071211
 20
36.5905801603
 30
0.0
 10
57.2354750751
 20
36.6522188652
 30
0.0
 10
57.1772316935
 20
36.7102630278
 30
0.0
 10
57.1154060321
 20
36.7644838753
 30
0.0
 10
57.0502409561
 20
36.8146670818
 30
0.0
 10
56.9819921895
 20
36.8606136464
 30
0.0
 10
56.9109276262
 20
36.9021405065
 30
0.0
 10
56.8373263073
 20
36.9390813328
 30
0.0
 10
56.761477606
 20
36.9712871593
 30
0.0
 10
56.6836799262
 20
36.9986270802
 30
0.0
 10
56.6042404281
 20
37.0209887533
 30
0.0
 10
56.5234723624
 20
37.0382788791
 30
0.0
 10
56.44170003
 20
37.0504240162
 30
0.0
 10
56.386748025
 20
37.0550531861
 30
0.0
 10
56.3592211356
 20
37.0564969183
 30
0.0
 11
57.5846254567
 21
35.8354861528
 31
0.0
 11
57.57736964
 21
35.9178517726
 31
0.0
 11
57.564926804
 21
35.9995151975
 31
0.0
 11
57.5473509475
 21
36.0801549846
 31
0.0
 11
57.5247164557
 21
36.1594506568
 31
0.0
 11
57.4971172287
 21
36.2370889622
 31
0.0
 11
57.4646659882
 21
36.3127643155
 31
0.0
 11
57.4274940059
 21
36.3861790881
 31
0.0
 11
57.3857504546
 21
36.4570448622
 31
0.0
 11
57.339601924
 21
36.5250832278
 31
0.0
 11
57.289231484
 21
36.5900271658
 31
0.0
 11
57.2348383039
 21
36.6516214717
 31
0.0
 11
57.1766366435
 21
36.7096239905
 31
0.0
 11
57.1148554662
 21
36.7638060452
 31
0.0
 11
57.0497372527
 21
36.8139536347
 31
0.0
 11
56.981537588
 21
36.8598678382
 31
0.0
 11
56.9105239258
 21
36.9013658456
 31
0.0
 11
56.8369751702
 21
36.9382813573
 31
0.0
 11
56.7611802996
 21
36.9704655347
 31
0.0
 11
56.683437601
 21
36.9977874965
 31
0.0
 11
56.6040533505
 21
37.020135008
 31
0.0
 11
56.5233415623
 21
37.0374147711
 31
0.0
 11
56.441623259
 21
37.0495531377
 31
0.0
 11
56.3592211356
 21
37.0564969183
 31
0.0
  0
LINE
  5
32B
100
AcDbEntity
  8
RACCORDO
100
AcDbLine
 62
253
  6
CONTINUOUS
 10
-58.6823774118
 20
35.8213413168
 11
-58.9156345033
 21
36.0563828951
  0
LINE
  5
32C
100
AcDbEntity
  8
RACCORDO
100
AcDbLine
 62
253
  6
CONTINUOUS
 10
-58.682377452
 20
-35.8213406058
 11
-58.9156345033
 21
-36.0563828951
  0
SPLINE
  5
32D
100
AcDbEntity
  8
RACCORDO
100
AcDbSpline
 62
253
  6
CONTINUOUS
 70
0
 71
3
 72
25
 73
21
 74
19
 42
0.0000001
 43
0.0000001
 44
0.0000000001
 12
1.1004107556
 22
-0.0555856741
 32
0.0
 13
0.72775122
 23
0.8272676471
 33
0.0
 40
0.0
 40
0.0
 40
0.0
 40
0.0
 40
0.0859567703
 40
0.1707824789
 40
0.2539429585
 40
0.3349147411
 40
0.4131884421
 40
0.4882720759
 40
0.5596942907
 40
0.627007522
 40
0.689791071
 40
0.7476541387
 40
0.8002388857
 40
0.8472236757
 40
0.8883268488
 40
0.923311851
 40
0.9519958891
 40
0.9742687554
 40
0.9901472434
 40
1.0
 40
1.0
 40
1.0
 40
1.0
 10
57.5846254564
 20
-35.8354861525
 30
0.0
 10
57.6161547079
 20
-35.8370788076
 30
0.0
 10
57.67880691
 20
-35.8400760966
 30
0.0
 10
57.7719897153
 20
-35.8440241556
 30
0.0
 10
57.8633637582
 20
-35.8473792629
 30
0.0
 10
57.952350838
 20
-35.8501204331
 30
0.0
 10
58.0383879181
 20
-35.8522306709
 30
0.0
 10
58.1209306461
 20
-35.8536971031
 30
0.0
 10
58.1994568189
 20
-35.8545111084
 30
0.0
 10
58.2734697404
 20
-35.8546684388
 30
0.0
 10
58.3425013046
 20
-35.8541693709
 30
0.0
 10
58.4061153908
 20
-35.8530188467
 30
0.0
 10
58.4639096223
 20
-35.8512268892
 30
0.0
 10
58.515521972
 20
-35.8488086583
 30
0.0
 10
58.5606220732
 20
-35.8457867623
 30
0.0
 10
58.5989507947
 20
-35.8421890259
 30
0.0
 10
58.630223269
 20
-35.8380647417
 30
0.0
 10
58.6544359216
 20
-35.8334596755
 30
0.0
 10
58.6712181887
 20
-35.8285086613
 30
0.0
 10
58.6799870832
 20
-35.8240619191
 30
0.0
 10
58.6823772017
 20
-35.8213449635
 30
0.0
 11
57.5846254564
 21
-35.8354861525
 31
0.0
 11
57.6792257397
 21
-35.8400092783
 31
0.0
 11
57.772604279
 21
-35.8439613617
 31
0.0
 11
57.8641701598
 21
-35.8473173933
 31
0.0
 11
57.9533439385
 21
-35.8500561357
 31
0.0
 11
58.0395613091
 21
-35.8521602576
 31
0.0
 11
58.1222766743
 21
-35.8536164438
 31
0.0
 11
58.2009665978
 21
-35.8544154794
 31
0.0
 11
58.2751331172
 21
-35.8545523079
 31
0.0
 11
58.3443068947
 21
-35.8540260634
 31
0.0
 11
58.4080501877
 21
-35.8528400761
 31
0.0
 11
58.4659596183
 21
-35.8510018511
 31
0.0
 11
58.5176687262
 21
-35.848523021
 31
0.0
 11
58.562850288
 21
-35.8454192723
 31
0.0
 11
58.6012183874
 21
-35.8417102459
 31
0.0
 11
58.632530225
 21
-35.8374194132
 31
0.0
 11
58.6565876543
 21
-35.8325739272
 31
0.0
 11
58.6732384362
 21
-35.827204451
 31
0.0
 11
58.6823772017
 21
-35.8213449635
 31
0.0
  0
SPLINE
  5
32E
100
AcDbEntity
  8
RACCORDO
100
AcDbSpline
 62
253
  6
CONTINUOUS
 70
0
 71
3
 72
25
 73
21
 74
19
 42
0.0000001
 43
0.0000001
 44
0.0000000001
 12
1.1004107182
 22
0.0555856726
 32
0.0
 13
0.7277511189
 23
-0.8272676862
 33
0.0
 40
0.0
 40
0.0
 40
0.0
 40
0.0
 40
0.0859567712
 40
0.1707824806
 40
0.2539429608
 40
0.3349147438
 40
0.4131884453
 40
0.4882720792
 40
0.5596942941
 40
0.6270075254
 40
0.6897910743
 40
0.7476541418
 40
0.8002388885
 40
0.8472236782
 40
0.8883268509
 40
0.9233118528
 40
0.9519958904
 40
0.9742687562
 40
0.9901472437
 40
1.0
 40
1.0
 40
1.0
 40
1.0
 10
57.5846254567
 20
35.8354861528
 30
0.0
 10
57.6161547075
 20
35.8370788078
 30
0.0
 10
57.6788069081
 20
35.8400760967
 30
0.0
 10
57.771989711
 20
35.8440241557
 30
0.0
 10
57.8633637515
 20
35.8473792629
 30
0.0
 10
57.9523508288
 20
35.850120433
 30
0.0
 10
58.0383879064
 20
35.8522306707
 30
0.0
 10
58.1209306318
 20
35.8536971027
 30
0.0
 10
58.199456802
 20
35.8545111079
 30
0.0
 10
58.273469721
 20
35.8546684381
 30
0.0
 10
58.3425012828
 20
35.85416937
 30
0.0
 10
58.4061153666
 20
35.8530188458
 30
0.0
 10
58.4639095959
 20
35.8512268881
 30
0.0
 10
58.5155219434
 20
35.848808657
 30
0.0
 10
58.5606220427
 20
35.8457867609
 30
0.0
 10
58.5989507624
 20
35.8421890243
 30
0.0
 10
58.630223235
 20
35.8380647399
 30
0.0
 10
58.6544358863
 20
35.8334596736
 30
0.0
 10
58.6712181522
 20
35.8285086592
 30
0.0
 10
58.679987046
 20
35.8240619169
 30
0.0
 10
58.6823771641
 20
35.8213449613
 30
0.0
 11
57.5846254567
 21
35.8354861528
 31
0.0
 11
57.6792257378
 21
35.8400092784
 31
0.0
 11
57.7726042747
 21
35.8439613617
 31
0.0
 11
57.8641701531
 21
35.8473173933
 31
0.0
 11
57.9533439293
 21
35.8500561355
 31
0.0
 11
58.0395612974
 21
35.8521602573
 31
0.0
 11
58.12227666
 21
35.8536164434
 31
0.0
 11
58.2009665809
 21
35.8544154789
 31
0.0
 11
58.2751330978
 21
35.8545523072
 31
0.0
 11
58.3443068729
 21
35.8540260626
 31
0.0
 11
58.4080501635
 21
35.8528400751
 31
0.0
 11
58.4659595918
 21
35.85100185
 31
0.0
 11
58.5176686976
 21
35.8485230198
 31
0.0
 11
58.5628502574
 21
35.8454192708
 31
0.0
 11
58.601218355
 21
35.8417102443
 31
0.0
 11
58.632530191
 21
35.8374194114
 31
0.0
 11
58.6565876189
 21
35.8325739253
 31
0.0
 11
58.6732383996
 21
35.827204449
 31
0.0
 11
58.6823771641
 21
35.8213449613
 31
0.0
  0
SPLINE
  5
32F
100
AcDbEntity
  8
RACCORDO
100
AcDbSpline
 62
253
  6
CONTINUOUS
 70
0
 71
3
 72
25
 73
21
 74
19
 42
0.0000001
 43
0.0000001
 44
0.0000000001
 12
0.0515975896
 22
1.112097278
 32
0.0
 13
-0.8835385356
 23
0.6773347201
 33
0.0
 40
0.0
 40
0.0
 40
0.0
 40
0.0
 40
0.0856246792
 40
0.170170165
 40
0.2530989183
 40
0.3338839505
 40
0.4120122893
 40
0.4869883791
 40
0.5583374112
 40
0.6256085812
 40
0.6883782921
 40
0.7462533442
 40
0.7988742069
 40
0.8459185768
 40
0.8871056684
 40
0.9222022849
 40
0.9510333956
 40
0.9735054469
 40
0.9896729914
 40
1.0
 40
1.0
 40
1.0
 40
1.0
 10
56.3592211355
 20
37.0564969181
 30
0.0
 10
56.3606938111
 20
37.088237909
 30
0.0
 10
56.3634273768
 20
37.1513289816
 30
0.0
 10
56.3669054067
 20
37.2451896361
 30
0.0
 10
56.3697218102
 20
37.3372757404
 30
0.0
 10
56.3718588448
 20
37.4269981117
 30
0.0
 10
56.3733032353
 20
37.5137827712
 30
0.0
 10
56.3740462865
 20
37.597074559
 30
0.0
 10
56.3740839941
 20
37.6763407177
 30
0.0
 10
56.3734171402
 20
37.7510743572
 30
0.0
 10
56.3720514471
 20
37.8207976696
 30
0.0
 10
56.3699976323
 20
37.8850653893
 30
0.0
 10
56.3672720539
 20
37.9434668753
 30
0.0
 10
56.3638960166
 20
37.995632307
 30
0.0
 10
56.3599004971
 20
38.0412261329
 30
0.0
 10
56.3553166729
 20
38.0799816485
 30
0.0
 10
56.3502132767
 20
38.1116215354
 30
0.0
 10
56.3446110281
 20
38.1361253176
 30
0.0
 10
56.3387154557
 20
38.1531992596
 30
0.0
 10
56.3334312945
 20
38.1619685869
 30
0.0
 10
56.3303898579
 20
38.1643002007
 30
0.0
 11
56.3592211355
 21
37.0564969181
 31
0.0
 11
56.3633446746
 21
37.1517330978
 31
0.0
 11
56.3668253101
 21
37.2457926693
 31
0.0
 11
56.3696407705
 21
37.3380737813
 31
0.0
 11
56.3717730409
 21
37.4279859618
 31
0.0
 11
56.3732084776
 21
37.5149538969
 31
0.0
 11
56.3739378958
 21
37.5984211117
 31
0.0
 11
56.3739566284
 21
37.6778535311
 31
0.0
 11
56.3732645553
 21
37.7527428972
 31
0.0
 11
56.3718661049
 21
37.8226100212
 31
0.0
 11
56.3697702254
 21
37.88700785
 31
0.0
 11
56.3669903275
 21
37.9455243263
 31
0.0
 11
56.3635441987
 21
37.9977850252
 31
0.0
 11
56.3594538895
 21
38.0434555504
 31
0.0
 11
56.3547455722
 21
38.0822436735
 31
0.0
 11
56.3494493736
 21
38.113901204
 31
0.0
 11
56.343599182
 21
38.1382255773
 31
0.0
 11
56.3372324306
 21
38.1550611511
 31
0.0
 11
56.3303898579
 21
38.1643002007
 31
0.0
  0
SPLINE
  5
330
100
AcDbEntity
  8
RACCORDO
100
AcDbSpline
 62
253
  6
CONTINUOUS
 70
0
 71
3
 72
25
 73
21
 74
19
 42
0.0000001
 43
0.0000001
 44
0.0000000001
 12
-0.0515975882
 22
1.1120972404
 32
0.0
 13
0.8835385553
 23
0.6773346326
 33
0.0
 40
0.0
 40
0.0
 40
0.0
 40
0.0
 40
0.08562468
 40
0.1701701665
 40
0.2530989203
 40
0.333883953
 40
0.412012292
 40
0.486988382
 40
0.5583374141
 40
0.625608584
 40
0.6883782949
 40
0.7462533468
 40
0.7988742092
 40
0.8459185788
 40
0.88710567
 40
0.9222022861
 40
0.9510333965
 40
0.9735054474
 40
0.9896729916
 40
1.0
 40
1.0
 40
1.0
 40
1.0
 10
-56.3592211356
 20
37.0564969183
 30
0.0
 10
-56.3606938113
 20
37.0882379084
 30
0.0
 10
-56.3634273768
 20
37.1513289794
 30
0.0
 10
-56.3669054067
 20
37.2451896315
 30
0.0
 10
-56.3697218101
 20
37.3372757333
 30
0.0
 10
-56.3718588445
 20
37.426998102
 30
0.0
 10
-56.373303235
 20
37.5137827589
 30
0.0
 10
-56.3740462861
 20
37.597074544
 30
0.0
 10
-56.3740839935
 20
37.6763407001
 30
0.0
 10
-56.3734171395
 20
37.7510743371
 30
0.0
 10
-56.3720514462
 20
37.8207976469
 30
0.0
 10
-56.3699976313
 20
37.8850653643
 30
0.0
 10
-56.3672720527
 20
37.943466848
 30
0.0
 10
-56.3638960153
 20
37.9956322776
 30
0.0
 10
-56.3599004957
 20
38.0412261015
 30
0.0
 10
-56.3553166714
 20
38.0799816153
 30
0.0
 10
-56.350213275
 20
38.1116215007
 30
0.0
 10
-56.3446110262
 20
38.1361252816
 30
0.0
 10
-56.3387154538
 20
38.1531992226
 30
0.0
 10
-56.3334312924
 20
38.1619685492
 30
0.0
 10
-56.3303898557
 20
38.1643001627
 30
0.0
 11
-56.3592211356
 21
37.0564969183
 31
0.0
 11
-56.3633446747
 21
37.1517330956
 31
0.0
 11
-56.36682531
 21
37.2457926648
 31
0.0
 11
-56.3696407704
 21
37.3380737742
 31
0.0
 11
-56.3717730406
 21
37.4279859522
 31
0.0
 11
-56.3732084772
 21
37.5149538846
 31
0.0
 11
-56.3739378954
 21
37.5984210967
 31
0.0
 11
-56.3739566278
 21
37.6778535135
 31
0.0
 11
-56.3732645545
 21
37.752742877
 31
0.0
 11
-56.371866104
 21
37.8226099985
 31
0.0
 11
-56.3697702244
 21
37.8870078249
 31
0.0
 11
-56.3669903263
 21
37.9455242989
 31
0.0
 11
-56.3635441974
 21
37.9977849957
 31
0.0
 11
-56.359453888
 21
38.043455519
 31
0.0
 11
-56.3547455706
 21
38.0822436403
 31
0.0
 11
-56.3494493719
 21
38.1139011692
 31
0.0
 11
-56.3435991801
 21
38.1382255412
 31
0.0
 11
-56.3372324286
 21
38.1550611139
 31
0.0
 11
-56.3303898557
 21
38.1643001627
 31
0.0
  0
SPLINE
  5
331
100
AcDbEntity
  8
RACCORDO
100
AcDbSpline
 62
253
  6
CONTINUOUS
 70
0
 71
3
 72
25
 73
21
 74
19
 42
0.0000001
 43
0.0000001
 44
0.0000000001
 12
-1.1004107556
 22
0.0555856741
 32
0.0
 13
-0.72775122
 23
-0.8272676471
 33
0.0
 40
0.0
 40
0.0
 40
0.0
 40
0.0
 40
0.0859567703
 40
0.1707824789
 40
0.2539429585
 40
0.3349147411
 40
0.4131884421
 40
0.4882720759
 40
0.5596942907
 40
0.627007522
 40
0.689791071
 40
0.7476541387
 40
0.8002388857
 40
0.8472236757
 40
0.8883268488
 40
0.923311851
 40
0.9519958891
 40
0.9742687554
 40
0.9901472434
 40
1.0
 40
1.0
 40
1.0
 40
1.0
 10
-57.5846254564
 20
35.8354861525
 30
0.0
 10
-57.6161547079
 20
35.8370788076
 30
0.0
 10
-57.67880691
 20
35.8400760966
 30
0.0
 10
-57.7719897153
 20
35.8440241556
 30
0.0
 10
-57.8633637582
 20
35.8473792629
 30
0.0
 10
-57.952350838
 20
35.8501204331
 30
0.0
 10
-58.0383879181
 20
35.8522306709
 30
0.0
 10
-58.1209306461
 20
35.8536971031
 30
0.0
 10
-58.1994568189
 20
35.8545111084
 30
0.0
 10
-58.2734697404
 20
35.8546684388
 30
0.0
 10
-58.3425013046
 20
35.8541693709
 30
0.0
 10
-58.4061153908
 20
35.8530188467
 30
0.0
 10
-58.4639096223
 20
35.8512268892
 30
0.0
 10
-58.515521972
 20
35.8488086583
 30
0.0
 10
-58.5606220732
 20
35.8457867623
 30
0.0
 10
-58.5989507947
 20
35.8421890259
 30
0.0
 10
-58.630223269
 20
35.8380647417
 30
0.0
 10
-58.6544359216
 20
35.8334596755
 30
0.0
 10
-58.6712181887
 20
35.8285086613
 30
0.0
 10
-58.6799870832
 20
35.8240619191
 30
0.0
 10
-58.6823772017
 20
35.8213449635
 30
0.0
 11
-57.5846254564
 21
35.8354861525
 31
0.0
 11
-57.6792257397
 21
35.8400092783
 31
0.0
 11
-57.772604279
 21
35.8439613617
 31
0.0
 11
-57.8641701598
 21
35.8473173933
 31
0.0
 11
-57.9533439385
 21
35.8500561357
 31
0.0
 11
-58.0395613091
 21
35.8521602576
 31
0.0
 11
-58.1222766743
 21
35.8536164438
 31
0.0
 11
-58.2009665978
 21
35.8544154794
 31
0.0
 11
-58.2751331172
 21
35.8545523079
 31
0.0
 11
-58.3443068947
 21
35.8540260634
 31
0.0
 11
-58.4080501877
 21
35.8528400761
 31
0.0
 11
-58.4659596183
 21
35.8510018511
 31
0.0
 11
-58.5176687262
 21
35.848523021
 31
0.0
 11
-58.562850288
 21
35.8454192723
 31
0.0
 11
-58.6012183874
 21
35.8417102459
 31
0.0
 11
-58.632530225
 21
35.8374194132
 31
0.0
 11
-58.6565876543
 21
35.8325739272
 31
0.0
 11
-58.6732384362
 21
35.827204451
 31
0.0
 11
-58.6823772017
 21
35.8213449635
 31
0.0
  0
SPLINE
  5
332
100
AcDbEntity
  8
RACCORDO
100
AcDbSpline
 62
253
  6
CONTINUOUS
 70
0
 71
3
 72
25
 73
21
 74
19
 42
0.0000001
 43
0.0000001
 44
0.0000000001
 12
-1.1004107182
 22
-0.0555856726
 32
0.0
 13
-0.7277511189
 23
0.8272676862
 33
0.0
 40
0.0
 40
0.0
 40
0.0
 40
0.0
 40
0.0859567712
 40
0.1707824806
 40
0.2539429608
 40
0.3349147438
 40
0.4131884453
 40
0.4882720792
 40
0.5596942941
 40
0.6270075254
 40
0.6897910743
 40
0.7476541418
 40
0.8002388885
 40
0.8472236782
 40
0.8883268509
 40
0.9233118528
 40
0.9519958904
 40
0.9742687562
 40
0.9901472437
 40
1.0
 40
1.0
 40
1.0
 40
1.0
 10
-57.5846254567
 20
-35.8354861528
 30
0.0
 10
-57.6161547075
 20
-35.8370788078
 30
0.0
 10
-57.6788069081
 20
-35.8400760967
 30
0.0
 10
-57.771989711
 20
-35.8440241557
 30
0.0
 10
-57.8633637515
 20
-35.8473792629
 30
0.0
 10
-57.9523508288
 20
-35.850120433
 30
0.0
 10
-58.0383879064
 20
-35.8522306707
 30
0.0
 10
-58.1209306318
 20
-35.8536971027
 30
0.0
 10
-58.199456802
 20
-35.8545111079
 30
0.0
 10
-58.273469721
 20
-35.8546684381
 30
0.0
 10
-58.3425012828
 20
-35.85416937
 30
0.0
 10
-58.4061153666
 20
-35.8530188458
 30
0.0
 10
-58.4639095959
 20
-35.8512268881
 30
0.0
 10
-58.5155219434
 20
-35.848808657
 30
0.0
 10
-58.5606220427
 20
-35.8457867609
 30
0.0
 10
-58.5989507624
 20
-35.8421890243
 30
0.0
 10
-58.630223235
 20
-35.8380647399
 30
0.0
 10
-58.6544358863
 20
-35.8334596736
 30
0.0
 10
-58.6712181522
 20
-35.8285086592
 30
0.0
 10
-58.679987046
 20
-35.8240619169
 30
0.0
 10
-58.6823771641
 20
-35.8213449613
 30
0.0
 11
-57.5846254567
 21
-35.8354861528
 31
0.0
 11
-57.6792257378
 21
-35.8400092784
 31
0.0
 11
-57.7726042747
 21
-35.8439613617
 31
0.0
 11
-57.8641701531
 21
-35.8473173933
 31
0.0
 11
-57.9533439293
 21
-35.8500561355
 31
0.0
 11
-58.0395612974
 21
-35.8521602573
 31
0.0
 11
-58.12227666
 21
-35.8536164434
 31
0.0
 11
-58.2009665809
 21
-35.8544154789
 31
0.0
 11
-58.2751330978
 21
-35.8545523072
 31
0.0
 11
-58.3443068729
 21
-35.8540260626
 31
0.0
 11
-58.4080501635
 21
-35.8528400751
 31
0.0
 11
-58.4659595918
 21
-35.85100185
 31
0.0
 11
-58.5176686976
 21
-35.8485230198
 31
0.0
 11
-58.5628502574
 21
-35.8454192708
 31
0.0
 11
-58.601218355
 21
-35.8417102443
 31
0.0
 11
-58.632530191
 21
-35.8374194114
 31
0.0
 11
-58.6565876189
 21
-35.8325739253
 31
0.0
 11
-58.6732383996
 21
-35.827204449
 31
0.0
 11
-58.6823771641
 21
-35.8213449613
 31
0.0
  0
SPLINE
  5
333
100
AcDbEntity
  8
RACCORDO
100
AcDbSpline
 62
253
  6
CONTINUOUS
 70
0
 71
3
 72
25
 73
21
 74
19
 42
0.0000001
 43
0.0000001
 44
0.0000000001
 12
-0.0515975896
 22
-1.112097278
 32
0.0
 13
0.8835385356
 23
-0.6773347201
 33
0.0
 40
0.0
 40
0.0
 40
0.0
 40
0.0
 40
0.0856246792
 40
0.170170165
 40
0.2530989183
 40
0.3338839505
 40
0.4120122893
 40
0.4869883791
 40
0.5583374112
 40
0.6256085812
 40
0.6883782921
 40
0.7462533442
 40
0.7988742069
 40
0.8459185768
 40
0.8871056684
 40
0.9222022849
 40
0.9510333956
 40
0.9735054469
 40
0.9896729914
 40
1.0
 40
1.0
 40
1.0
 40
1.0
 10
-56.3592211355
 20
-37.0564969181
 30
0.0
 10
-56.3606938111
 20
-37.088237909
 30
0.0
 10
-56.3634273768
 20
-37.1513289816
 30
0.0
 10
-56.3669054067
 20
-37.2451896361
 30
0.0
 10
-56.3697218102
 20
-37.3372757404
 30
0.0
 10
-56.3718588448
 20
-37.4269981117
 30
0.0
 10
-56.3733032353
 20
-37.5137827712
 30
0.0
 10
-56.3740462865
 20
-37.597074559
 30
0.0
 10
-56.3740839941
 20
-37.6763407177
 30
0.0
 10
-56.3734171402
 20
-37.7510743572
 30
0.0
 10
-56.3720514471
 20
-37.8207976696
 30
0.0
 10
-56.3699976323
 20
-37.8850653893
 30
0.0
 10
-56.3672720539
 20
-37.9434668753
 30
0.0
 10
-56.3638960166
 20
-37.995632307
 30
0.0
 10
-56.3599004971
 20
-38.0412261329
 30
0.0
 10
-56.3553166729
 20
-38.0799816485
 30
0.0
 10
-56.3502132767
 20
-38.1116215354
 30
0.0
 10
-56.3446110281
 20
-38.1361253176
 30
0.0
 10
-56.3387154557
 20
-38.1531992596
 30
0.0
 10
-56.3334312945
 20
-38.1619685869
 30
0.0
 10
-56.3303898579
 20
-38.1643002007
 30
0.0
 11
-56.3592211355
 21
-37.0564969181
 31
0.0
 11
-56.3633446746
 21
-37.1517330978
 31
0.0
 11
-56.3668253101
 21
-37.2457926693
 31
0.0
 11
-56.3696407705
 21
-37.3380737813
 31
0.0
 11
-56.3717730409
 21
-37.4279859618
 31
0.0
 11
-56.3732084776
 21
-37.5149538969
 31
0.0
 11
-56.3739378958
 21
-37.5984211117
 31
0.0
 11
-56.3739566284
 21
-37.6778535311
 31
0.0
 11
-56.3732645553
 21
-37.7527428972
 31
0.0
 11
-56.3718661049
 21
-37.8226100212
 31
0.0
 11
-56.3697702254
 21
-37.88700785
 31
0.0
 11
-56.3669903275
 21
-37.9455243263
 31
0.0
 11
-56.3635441987
 21
-37.9977850252
 31
0.0
 11
-56.3594538895
 21
-38.0434555504
 31
0.0
 11
-56.3547455722
 21
-38.0822436735
 31
0.0
 11
-56.3494493736
 21
-38.113901204
 31
0.0
 11
-56.343599182
 21
-38.1382255773
 31
0.0
 11
-56.3372324306
 21
-38.1550611511
 31
0.0
 11
-56.3303898579
 21
-38.1643002007
 31
0.0
  0
SPLINE
  5
334
100
AcDbEntity
  8
RACCORDO
100
AcDbSpline
 62
253
  6
CONTINUOUS
 70
0
 71
3
 72
25
 73
21
 74
19
 42
0.0000001
 43
0.0000001
 44
0.0000000001
 12
0.0515975882
 22
-1.1120972404
 32
0.0
 13
-0.8835385553
 23
-0.6773346326
 33
0.0
 40
0.0
 40
0.0
 40
0.0
 40
0.0
 40
0.08562468
 40
0.1701701665
 40
0.2530989203
 40
0.333883953
 40
0.412012292
 40
0.486988382
 40
0.5583374141
 40
0.625608584
 40
0.6883782949
 40
0.7462533468
 40
0.7988742092
 40
0.8459185788
 40
0.88710567
 40
0.9222022861
 40
0.9510333965
 40
0.9735054474
 40
0.9896729916
 40
1.0
 40
1.0
 40
1.0
 40
1.0
 10
56.3592211356
 20
-37.0564969183
 30
0.0
 10
56.3606938113
 20
-37.0882379084
 30
0.0
 10
56.3634273768
 20
-37.1513289794
 30
0.0
 10
56.3669054067
 20
-37.2451896315
 30
0.0
 10
56.3697218101
 20
-37.3372757333
 30
0.0
 10
56.3718588445
 20
-37.426998102
 30
0.0
 10
56.373303235
 20
-37.5137827589
 30
0.0
 10
56.3740462861
 20
-37.597074544
 30
0.0
 10
56.3740839935
 20
-37.6763407001
 30
0.0
 10
56.3734171395
 20
-37.7510743371
 30
0.0
 10
56.3720514462
 20
-37.8207976469
 30
0.0
 10
56.3699976313
 20
-37.8850653643
 30
0.0
 10
56.3672720527
 20
-37.943466848
 30
0.0
 10
56.3638960153
 20
-37.9956322776
 30
0.0
 10
56.3599004957
 20
-38.0412261015
 30
0.0
 10
56.3553166714
 20
-38.0799816153
 30
0.0
 10
56.350213275
 20
-38.1116215007
 30
0.0
 10
56.3446110262
 20
-38.1361252816
 30
0.0
 10
56.3387154538
 20
-38.1531992226
 30
0.0
 10
56.3334312924
 20
-38.1619685492
 30
0.0
 10
56.3303898557
 20
-38.1643001627
 30
0.0
 11
56.3592211356
 21
-37.0564969183
 31
0.0
 11
56.3633446747
 21
-37.1517330956
 31
0.0
 11
56.36682531
 21
-37.2457926648
 31
0.0
 11
56.3696407704
 21
-37.3380737742
 31
0.0
 11
56.3717730406
 21
-37.4279859522
 31
0.0
 11
56.3732084772
 21
-37.5149538846
 31
0.0
 11
56.3739378954
 21
-37.5984210967
 31
0.0
 11
56.3739566278
 21
-37.6778535135
 31
0.0
 11
56.3732645545
 21
-37.752742877
 31
0.0
 11
56.371866104
 21
-37.8226099985
 31
0.0
 11
56.3697702244
 21
-37.8870078249
 31
0.0
 11
56.3669903263
 21
-37.9455242989
 31
0.0
 11
56.3635441974
 21
-37.9977849957
 31
0.0
 11
56.359453888
 21
-38.043455519
 31
0.0
 11
56.3547455706
 21
-38.0822436403
 31
0.0
 11
56.3494493719
 21
-38.1139011692
 31
0.0
 11
56.3435991801
 21
-38.1382255412
 31
0.0
 11
56.3372324286
 21
-38.1550611139
 31
0.0
 11
56.3303898557
 21
-38.1643001627
 31
0.0
  0
SPLINE
  5
335
100
AcDbEntity
  8
RACCORDO
100
AcDbSpline
 62
253
  6
CONTINUOUS
 70
0
 71
3
 72
30
 73
26
 74
24
 42
0.0000001
 43
0.0000001
 44
0.0000000001
 12
0.2145338425
 22
-3.6259544659
 32
0.0
 13
3.6267140111
 23
-0.2012859646
 33
0.0
 40
0.0
 40
0.0
 40
0.0
 40
0.0
 40
0.0435699685
 40
0.0871135258
 40
0.1306343657
 40
0.1741333051
 40
0.2176121104
 40
0.2610731513
 40
0.3045189405
 40
0.3479522285
 40
0.3913758488
 40
0.4347929555
 40
0.4782066814
 40
0.5216203441
 40
0.5650371132
 40
0.608460266
 40
0.6518928541
 40
0.6953379146
 40
0.7387981289
 40
0.7822760576
 40
0.8257739692
 40
0.8692939706
 40
0.9128375226
 40
0.9564052395
 40
1.0
 40
1.0
 40
1.0
 40
1.0
 10
-58.6823774632
 20
-35.8213406171
 30
0.0
 10
-58.679261719
 20
-35.8740015244
 30
0.0
 10
-58.6696993024
 20
-35.979124794
 30
0.0
 10
-58.6454216537
 20
-36.1355196707
 30
0.0
 10
-58.6113190018
 20
-36.2899884639
 30
0.0
 10
-58.5675351058
 20
-36.4419135124
 30
0.0
 10
-58.5142514063
 20
-36.5906963919
 30
0.0
 10
-58.4516856223
 20
-36.7357503192
 30
0.0
 10
-58.3800907244
 20
-36.8765050225
 30
0.0
 10
-58.2997540668
 20
-37.0124072809
 30
0.0
 10
-58.2109960755
 20
-37.1429233931
 30
0.0
 10
-58.11416907
 20
-37.2675407661
 30
0.0
 10
-58.0096557692
 20
-37.3857698774
 30
0.0
 10
-57.8978681532
 20
-37.497145607
 30
0.0
 10
-57.7792458124
 20
-37.6012290738
 30
0.0
 10
-57.6542546734
 20
-37.6976089372
 30
0.0
 10
-57.5233851784
 20
-37.7859030799
 30
0.0
 10
-57.3871509646
 20
-37.8657597824
 30
0.0
 10
-57.2460869083
 20
-37.9368592495
 30
0.0
 10
-57.1007475614
 20
-37.9989148154
 30
0.0
 10
-56.9517046669
 20
-38.0516743009
 30
0.0
 10
-56.7995466204
 20
-38.0949209247
 30
0.0
 10
-56.6448733991
 20
-38.1284743937
 30
0.0
 10
-56.4883048461
 20
-38.1521922082
 30
0.0
 10
-56.383088243
 20
-38.1613753941
 30
0.0
 10
-56.3303863334
 20
-38.1643003985
 30
0.0
 11
-58.6823774632
 21
-35.8213406171
 31
0.0
 11
-58.6680386152
 21
-35.9789487027
 31
0.0
 11
-58.6437764575
 21
-36.1352397881
 31
0.0
 11
-58.609695723
 21
-36.2896028797
 31
0.0
 11
-58.5659406327
 21
-36.441424514
 31
0.0
 11
-58.512692596
 21
-36.5901049036
 31
0.0
 11
-58.4501690486
 21
-36.7350588312
 31
0.0
 11
-58.3786228731
 21
-36.875716188
 31
0.0
 11
-58.2983411677
 21
-37.0115243824
 31
0.0
 11
-58.2096443099
 21
-37.1419498651
 31
0.0
 11
-58.1128841569
 21
-37.2664807809
 31
0.0
 11
-58.0084433142
 21
-37.384627781
 31
0.0
 11
-57.8967331979
 21
-37.4959263911
 31
0.0
 11
-57.7781932905
 21
-37.5999378321
 31
0.0
 11
-57.6532888648
 21
-37.6962513198
 31
0.0
 11
-57.5225101899
 21
-37.7844848392
 31
0.0
 11
-57.3863701613
 21
-37.8642871231
 31
0.0
 11
-57.2454034973
 21
-37.9353384198
 31
0.0
 11
-57.1001641001
 21
-37.9973523169
 31
0.0
 11
-56.9512235873
 21
-38.0500766993
 31
0.0
 11
-56.7991687604
 21
-38.0932950657
 31
0.0
 11
-56.644601133
 21
-38.1268271132
 31
0.0
 11
-56.4881354981
 21
-38.1505300174
 31
0.0
 11
-56.3303863334
 21
-38.1643003985
 31
0.0
  0
SPLINE
  5
336
100
AcDbEntity
  8
RACCORDO
100
AcDbSpline
 62
253
  6
CONTINUOUS
 70
0
 71
3
 72
30
 73
26
 74
24
 42
0.0000001
 43
0.0000001
 44
0.0000000001
 12
-3.6267140113
 22
-0.2012860069
 32
0.0
 13
-0.2145337699
 23
-3.6259544727
 33
0.0
 40
0.0
 40
0.0
 40
0.0
 40
0.0
 40
0.0435951245
 40
0.0871628125
 40
0.1307063851
 40
0.1742263815
 40
0.2177242951
 40
0.2612022274
 40
0.3046624464
 40
0.3481075096
 40
0.3915401004
 40
0.4349632557
 40
0.4783800267
 40
0.5217936897
 40
0.5652074147
 40
0.6086245199
 40
0.6520481386
 40
0.6954814248
 40
0.7389272101
 40
0.7823882482
 40
0.825867053
 40
0.8693659985
 40
0.9128868181
 40
0.9564304023
 40
1.0
 40
1.0
 40
1.0
 40
1.0
 10
-56.3303856214
 20
38.1643004381
 30
0.0
 10
-56.383087971
 20
38.1613754086
 30
0.0
 10
-56.4883049813
 20
38.1521922092
 30
0.0
 10
-56.6448739547
 20
38.1284742886
 30
0.0
 10
-56.7995471532
 20
38.0949207903
 30
0.0
 10
-56.9517052104
 20
38.0516741257
 30
0.0
 10
-57.1007480937
 20
37.9989146061
 30
0.0
 10
-57.2460874379
 20
37.9368590019
 30
0.0
 10
-57.3871514895
 20
37.8657594952
 30
0.0
 10
-57.5233856946
 20
37.7859027536
 30
0.0
 10
-57.654255176
 20
37.6976085734
 30
0.0
 10
-57.7792462978
 20
37.6012286735
 30
0.0
 10
-57.8978686168
 20
37.497145173
 30
0.0
 10
-58.0096562059
 20
37.3857694139
 30
0.0
 10
-58.1141694752
 20
37.2675402779
 30
0.0
 10
-58.2109964464
 20
37.1429228843
 30
0.0
 10
-58.2997544018
 20
37.0124067547
 30
0.0
 10
-58.3800910212
 20
36.876504484
 30
0.0
 10
-58.4516858803
 20
36.7357497724
 30
0.0
 10
-58.5142516261
 20
36.5906958381
 30
0.0
 10
-58.5675352915
 20
36.4419129425
 30
0.0
 10
-58.6113191458
 20
36.2899879006
 30
0.0
 10
-58.6454217667
 20
36.1355190845
 30
0.0
 10
-58.6696993038
 20
35.9791246373
 30
0.0
 10
-58.6792617045
 20
35.8740017854
 30
0.0
 10
-58.6823774212
 20
35.8213413262
 30
0.0
 11
-56.3303856214
 21
38.1643004381
 31
0.0
 11
-56.4881361033
 21
38.1505299433
 31
0.0
 11
-56.6446016294
 21
38.1268270205
 31
0.0
 11
-56.7991693227
 21
38.0932949231
 31
0.0
 11
-56.9512241226
 21
38.0500765269
 31
0.0
 11
-57.10016463
 21
37.9973521084
 31
0.0
 11
-57.2454040254
 21
37.9353381724
 31
0.0
 11
-57.3863706878
 21
37.8642868348
 31
0.0
 11
-57.5225107056
 21
37.7844845129
 31
0.0
 11
-57.6532893672
 21
37.6962509558
 31
0.0
 11
-57.778193776
 21
37.5999374315
 31
0.0
 11
-57.8967336624
 21
37.4959259562
 31
0.0
 11
-58.0084437518
 21
37.3846273166
 31
0.0
 11
-58.1128845623
 21
37.2664802926
 31
0.0
 11
-58.2096446808
 21
37.1419493565
 31
0.0
 11
-58.2983415026
 21
37.0115238565
 31
0.0
 11
-58.3786231712
 21
36.8757156477
 31
0.0
 11
-58.450169306
 21
36.735058286
 31
0.0
 11
-58.5126928148
 21
36.5901043527
 31
0.0
 11
-58.5659408156
 21
36.4414239521
 31
0.0
 11
-58.6096958757
 21
36.2896022859
 31
0.0
 11
-58.6437765582
 21
36.1352392586
 31
0.0
 11
-58.6680386947
 21
35.9789480703
 31
0.0
 11
-58.6823774212
 21
35.8213413262
 31
0.0
  0
SPLINE
  5
337
100
AcDbEntity
  8
RACCORDO
100
AcDbSpline
 62
253
  6
CONTINUOUS
 70
0
 71
3
 72
30
 73
26
 74
24
 42
0.0000001
 43
0.0000001
 44
0.0000000001
 12
-0.2145338425
 22
3.6259544659
 32
0.0
 13
-3.6267140111
 23
0.2012859646
 33
0.0
 40
0.0
 40
0.0
 40
0.0
 40
0.0
 40
0.0435699685
 40
0.0871135258
 40
0.1306343657
 40
0.1741333051
 40
0.2176121104
 40
0.2610731513
 40
0.3045189405
 40
0.3479522285
 40
0.3913758488
 40
0.4347929555
 40
0.4782066814
 40
0.5216203441
 40
0.5650371132
 40
0.608460266
 40
0.6518928541
 40
0.6953379146
 40
0.7387981289
 40
0.7822760576
 40
0.8257739692
 40
0.8692939706
 40
0.9128375226
 40
0.9564052395
 40
1.0
 40
1.0
 40
1.0
 40
1.0
 10
58.6823774632
 20
35.8213406171
 30
0.0
 10
58.679261719
 20
35.8740015244
 30
0.0
 10
58.6696993024
 20
35.979124794
 30
0.0
 10
58.6454216537
 20
36.1355196707
 30
0.0
 10
58.6113190018
 20
36.2899884639
 30
0.0
 10
58.5675351058
 20
36.4419135124
 30
0.0
 10
58.5142514063
 20
36.5906963919
 30
0.0
 10
58.4516856223
 20
36.7357503192
 30
0.0
 10
58.3800907244
 20
36.8765050225
 30
0.0
 10
58.2997540668
 20
37.0124072809
 30
0.0
 10
58.2109960755
 20
37.1429233931
 30
0.0
 10
58.11416907
 20
37.2675407661
 30
0.0
 10
58.0096557692
 20
37.3857698774
 30
0.0
 10
57.8978681532
 20
37.497145607
 30
0.0
 10
57.7792458124
 20
37.6012290738
 30
0.0
 10
57.6542546734
 20
37.6976089372
 30
0.0
 10
57.5233851784
 20
37.7859030799
 30
0.0
 10
57.3871509646
 20
37.8657597824
 30
0.0
 10
57.2460869083
 20
37.9368592495
 30
0.0
 10
57.1007475614
 20
37.9989148154
 30
0.0
 10
56.9517046669
 20
38.0516743009
 30
0.0
 10
56.7995466204
 20
38.0949209247
 30
0.0
 10
56.6448733991
 20
38.1284743937
 30
0.0
 10
56.4883048461
 20
38.1521922082
 30
0.0
 10
56.383088243
 20
38.1613753941
 30
0.0
 10
56.3303863334
 20
38.1643003985
 30
0.0
 11
58.6823774632
 21
35.8213406171
 31
0.0
 11
58.6680386152
 21
35.9789487027
 31
0.0
 11
58.6437764575
 21
36.1352397881
 31
0.0
 11
58.609695723
 21
36.2896028797
 31
0.0
 11
58.5659406327
 21
36.441424514
 31
0.0
 11
58.512692596
 21
36.5901049036
 31
0.0
 11
58.4501690486
 21
36.7350588312
 31
0.0
 11
58.3786228731
 21
36.875716188
 31
0.0
 11
58.2983411677
 21
37.0115243824
 31
0.0
 11
58.2096443099
 21
37.1419498651
 31
0.0
 11
58.1128841569
 21
37.2664807809
 31
0.0
 11
58.0084433142
 21
37.384627781
 31
0.0
 11
57.8967331979
 21
37.4959263911
 31
0.0
 11
57.7781932905
 21
37.5999378321
 31
0.0
 11
57.6532888648
 21
37.6962513198
 31
0.0
 11
57.5225101899
 21
37.7844848392
 31
0.0
 11
57.3863701613
 21
37.8642871231
 31
0.0
 11
57.2454034973
 21
37.9353384198
 31
0.0
 11
57.1001641001
 21
37.9973523169
 31
0.0
 11
56.9512235873
 21
38.0500766993
 31
0.0
 11
56.7991687604
 21
38.0932950657
 31
0.0
 11
56.644601133
 21
38.1268271132
 31
0.0
 11
56.4881354981
 21
38.1505300174
 31
0.0
 11
56.3303863334
 21
38.1643003985
 31
0.0
  0
SPLINE
  5
338
100
AcDbEntity
  8
RACCORDO
100
AcDbSpline
 62
253
  6
CONTINUOUS
 70
0
 71
3
 72
30
 73
26
 74
24
 42
0.0000001
 43
0.0000001
 44
0.0000000001
 12
3.6267140113
 22
0.2012860069
 32
0.0
 13
0.2145337699
 23
3.6259544727
 33
0.0
 40
0.0
 40
0.0
 40
0.0
 40
0.0
 40
0.0435951245
 40
0.0871628125
 40
0.1307063851
 40
0.1742263815
 40
0.2177242951
 40
0.2612022274
 40
0.3046624464
 40
0.3481075096
 40
0.3915401004
 40
0.4349632557
 40
0.4783800267
 40
0.5217936897
 40
0.5652074147
 40
0.6086245199
 40
0.6520481386
 40
0.6954814248
 40
0.7389272101
 40
0.7823882482
 40
0.825867053
 40
0.8693659985
 40
0.9128868181
 40
0.9564304023
 40
1.0
 40
1.0
 40
1.0
 40
1.0
 10
56.3303856214
 20
-38.1643004381
 30
0.0
 10
56.383087971
 20
-38.1613754086
 30
0.0
 10
56.4883049813
 20
-38.1521922092
 30
0.0
 10
56.6448739547
 20
-38.1284742886
 30
0.0
 10
56.7995471532
 20
-38.0949207903
 30
0.0
 10
56.9517052104
 20
-38.0516741257
 30
0.0
 10
57.1007480937
 20
-37.9989146061
 30
0.0
 10
57.2460874379
 20
-37.9368590019
 30
0.0
 10
57.3871514895
 20
-37.8657594952
 30
0.0
 10
57.5233856946
 20
-37.7859027536
 30
0.0
 10
57.654255176
 20
-37.6976085734
 30
0.0
 10
57.7792462978
 20
-37.6012286735
 30
0.0
 10
57.8978686168
 20
-37.497145173
 30
0.0
 10
58.0096562059
 20
-37.3857694139
 30
0.0
 10
58.1141694752
 20
-37.2675402779
 30
0.0
 10
58.2109964464
 20
-37.1429228843
 30
0.0
 10
58.2997544018
 20
-37.0124067547
 30
0.0
 10
58.3800910212
 20
-36.876504484
 30
0.0
 10
58.4516858803
 20
-36.7357497724
 30
0.0
 10
58.5142516261
 20
-36.5906958381
 30
0.0
 10
58.5675352915
 20
-36.4419129425
 30
0.0
 10
58.6113191458
 20
-36.2899879006
 30
0.0
 10
58.6454217667
 20
-36.1355190845
 30
0.0
 10
58.6696993038
 20
-35.9791246373
 30
0.0
 10
58.6792617045
 20
-35.8740017854
 30
0.0
 10
58.6823774212
 20
-35.8213413262
 30
0.0
 11
56.3303856214
 21
-38.1643004381
 31
0.0
 11
56.4881361033
 21
-38.1505299433
 31
0.0
 11
56.6446016294
 21
-38.1268270205
 31
0.0
 11
56.7991693227
 21
-38.0932949231
 31
0.0
 11
56.9512241226
 21
-38.0500765269
 31
0.0
 11
57.10016463
 21
-37.9973521084
 31
0.0
 11
57.2454040254
 21
-37.9353381724
 31
0.0
 11
57.3863706878
 21
-37.8642868348
 31
0.0
 11
57.5225107056
 21
-37.7844845129
 31
0.0
 11
57.6532893672
 21
-37.6962509558
 31
0.0
 11
57.778193776
 21
-37.5999374315
 31
0.0
 11
57.8967336624
 21
-37.4959259562
 31
0.0
 11
58.0084437518
 21
-37.3846273166
 31
0.0
 11
58.1128845623
 21
-37.2664802926
 31
0.0
 11
58.2096446808
 21
-37.1419493565
 31
0.0
 11
58.2983415026
 21
-37.0115238565
 31
0.0
 11
58.3786231712
 21
-36.8757156477
 31
0.0
 11
58.450169306
 21
-36.735058286
 31
0.0
 11
58.5126928148
 21
-36.5901043527
 31
0.0
 11
58.5659408156
 21
-36.4414239521
 31
0.0
 11
58.6096958757
 21
-36.2896022859
 31
0.0
 11
58.6437765582
 21
-36.1352392586
 31
0.0
 11
58.6680386947
 21
-35.9789480703
 31
0.0
 11
58.6823774212
 21
-35.8213413262
 31
0.0
  0
LINE
  5
339
100
AcDbEntity
  8
RACCORDO
100
AcDbLine
 62
253
  6
CONTINUOUS
 10
-82.4913362144
 20
38.1643003886
 11
-77.7689623214
 21
38.3989305068
  0
SPLINE
  5
33A
100
AcDbEntity
  8
RACCORDO
100
AcDbSpline
 62
253
  6
CONTINUOUS
 70
0
 71
3
 72
21
 73
17
 74
15
 42
0.0000001
 43
0.0000001
 44
0.0000000001
 12
-4.8097597754
 22
71.5630028253
 32
0.0
 13
4.8097597712
 23
71.5630028256
 33
0.0
 40
0.0
 40
0.0
 40
0.0
 40
0.0
 40
0.0714224758
 40
0.1428484645
 40
0.2142767433
 40
0.2857061904
 40
0.3571366401
 40
0.4285682605
 40
0.4999999979
 40
0.5714317327
 40
0.6428633552
 40
0.7142938033
 40
0.7857232508
 40
0.8571515302
 40
0.9285775161
 40
1.0
 40
1.0
 40
1.0
 40
1.0
 10
-83.6105424061
 20
-35.8354861528
 30
0.0
 10
-83.7250507231
 20
-34.1317505405
 30
0.0
 10
-83.9376891352
 20
-30.7230715788
 30
0.0
 10
-84.2075263439
 20
-25.6071473107
 30
0.0
 10
-84.4282723407
 20
-20.4886982298
 30
0.0
 10
-84.599943763
 20
-15.3682630121
 30
0.0
 10
-84.7225556664
 20
-10.2463380297
 30
0.0
 10
-84.7961185706
 20
-5.1234192125
 30
0.0
 10
-84.8206388174
 20
-0.0000002135
 30
0.0
 10
-84.7961185741
 20
5.1234188373
 30
0.0
 10
-84.7225556746
 20
10.2463376066
 30
0.0
 10
-84.5999437744
 20
15.3682626112
 30
0.0
 10
-84.4282723567
 20
20.4886978136
 30
0.0
 10
-84.2075263657
 20
25.6071468508
 30
0.0
 10
-83.9376891543
 20
30.7230712594
 30
0.0
 10
-83.725050736
 20
34.1317503472
 30
0.0
 10
-83.6105424061
 20
35.8354861528
 30
0.0
 11
-83.6105424061
 21
-35.8354861528
 31
0.0
 11
-83.9294967245
 21
-30.7226872261
 31
0.0
 11
-84.199340479
 21
-25.6068089412
 31
0.0
 11
-84.4200914698
 21
-20.4884128817
 31
0.0
 11
-84.5917661058
 21
-15.3680519866
 31
0.0
 11
-84.7143801057
 21
-10.2462094988
 31
0.0
 11
-84.7879446962
 21
-5.1233437668
 31
0.0
 11
-84.812465398
 21
-0.0000001527
 31
0.0
 11
-84.7879447008
 21
5.123343279
 31
0.0
 11
-84.7143801121
 21
10.2462091665
 31
0.0
 11
-84.5917661187
 21
15.3680515375
 31
0.0
 11
-84.4200914859
 21
20.4884124604
 31
0.0
 11
-84.1993404971
 21
25.6068085632
 31
0.0
 11
-83.9294967579
 21
30.7226866459
 31
0.0
 11
-83.6105424061
 21
35.8354861528
 31
0.0
  0
SPLINE
  5
33B
100
AcDbEntity
  8
RACCORDO
100
AcDbSpline
 62
253
  6
CONTINUOUS
 70
0
 71
3
 72
30
 73
26
 74
24
 42
0.0000001
 43
0.0000001
 44
0.0000000001
 12
1.0140091988
 22
0.6917920505
 32
0.0
 13
-0.082315341
 23
1.2247510281
 33
0.0
 40
0.0
 40
0.0
 40
0.0
 40
0.0
 40
0.0075538084
 40
0.018483104
 40
0.0331979357
 40
0.051816311
 40
0.0743474872
 40
0.1007472065
 40
0.1309378128
 40
0.1648172847
 40
0.2022637142
 40
0.2431382187
 40
0.2872864792
 40
0.3345403059
 40
0.3847184229
 40
0.4376277431
 40
0.4930639146
 40
0.5508124668
 40
0.6106492509
 40
0.6723416499
 40
0.735649271
 40
0.8003250164
 40
0.8661152877
 40
0.9327605937
 40
1.0
 40
1.0
 40
1.0
 40
1.0
 10
-83.6213688348
 20
-37.0564969183
 30
0.0
 10
-83.6188156244
 20
-37.0547550301
 30
0.0
 10
-83.6140634018
 20
-37.0485372238
 30
0.0
 10
-83.6086739387
 20
-37.0360825757
 30
0.0
 10
-83.6035955625
 20
-37.0186401638
 30
0.0
 10
-83.5989638425
 20
-36.9962517811
 30
0.0
 10
-83.5947720539
 20
-36.9689200279
 30
0.0
 10
-83.5910663789
 20
-36.9367541955
 30
0.0
 10
-83.587863925
 20
-36.8998712103
 30
0.0
 10
-83.5851841432
 20
-36.8584175324
 30
0.0
 10
-83.5830399914
 20
-36.8125564046
 30
0.0
 10
-83.5814419673
 20
-36.7624694718
 30
0.0
 10
-83.5803974602
 20
-36.7083545261
 30
0.0
 10
-83.57991133
 20
-36.6504249968
 30
0.0
 10
-83.579985954
 20
-36.5889088609
 30
0.0
 10
-83.580621357
 20
-36.5240479336
 30
0.0
 10
-83.5818152719
 20
-36.4560968696
 30
0.0
 10
-83.5835631931
 20
-36.3853224502
 30
0.0
 10
-83.5858584216
 20
-36.3120025526
 30
0.0
 10
-83.5886921037
 20
-36.2364252741
 30
0.0
 10
-83.5920532804
 20
-36.1588877777
 30
0.0
 10
-83.595928916
 20
-36.0796955381
 30
0.0
 10
-83.6003039354
 20
-35.9991615969
 30
0.0
 10
-83.6051612845
 20
-35.9176044833
 30
0.0
 10
-83.6086974612
 20
-35.8629366635
 30
0.0
 10
-83.6105424061
 20
-35.8354861528
 30
0.0
 11
-83.6213688348
 21
-37.0564969183
 31
0.0
 11
-83.6152238429
 21
-37.0495531012
 31
0.0
 11
-83.6095102618
 21
-37.0374147152
 31
0.0
 11
-83.6042501451
 21
-37.0201349298
 31
0.0
 11
-83.599463934
 21
-36.9977874007
 31
0.0
 11
-83.5951700239
 21
-36.9704654203
 31
0.0
 11
-83.5913847823
 21
-36.9382812223
 31
0.0
 11
-83.5881225471
 21
-36.901365689
 31
0.0
 11
-83.5853955764
 21
-36.8598676617
 31
0.0
 11
-83.5832140279
 21
-36.8139534383
 31
0.0
 11
-83.5815859228
 21
-36.7638058295
 31
0.0
 11
-83.5805171479
 21
-36.7096237568
 31
0.0
 11
-83.580011437
 21
-36.6516212223
 31
0.0
 11
-83.580070374
 21
-36.5900269036
 31
0.0
 11
-83.5806933908
 21
-36.5250829547
 31
0.0
 11
-83.5818777745
 21
-36.4570445797
 31
0.0
 11
-83.5836186818
 21
-36.3861787975
 31
0.0
 11
-83.5859091462
 21
-36.3127640219
 31
0.0
 11
-83.5887401085
 21
-36.2370886651
 31
0.0
 11
-83.5921004417
 21
-36.1594503536
 31
0.0
 11
-83.5959769946
 21
-36.0801546639
 31
0.0
 11
-83.6003545912
 21
-35.9995149108
 31
0.0
 11
-83.605216029
 21
-35.9178514302
 31
0.0
 11
-83.6105424061
 21
-35.8354861528
 31
0.0
  0
SPLINE
  5
33C
100
AcDbEntity
  8
RACCORDO
100
AcDbSpline
 62
253
  6
CONTINUOUS
 70
0
 71
3
 72
16
 73
12
 74
10
 42
0.0000001
 43
0.0000001
 44
0.0000000001
 12
-2.158441557
 22
-1.4729853514
 32
0.0
 13
0.0000000739
 23
0.0000000512
 33
0.0
 40
0.0
 40
0.0
 40
0.0
 40
0.0
 40
0.2097773132
 40
0.3949228682
 40
0.55541346
 40
0.6912354083
 40
0.8023786888
 40
0.8888322859
 40
0.9505907582
 40
0.9876473213
 40
1.0
 40
1.0
 40
1.0
 40
1.0
 10
-82.4913362672
 20
-38.1643004246
 30
0.0
 10
-82.6422669574
 20
-38.267300061
 30
0.0
 10
-82.926387405
 20
-38.4612807917
 30
0.0
 10
-83.325743088
 20
-38.7341711782
 30
0.0
 10
-83.6721711299
 20
-38.9710731465
 30
0.0
 10
-83.9643323153
 20
-39.1709927606
 30
0.0
 10
-84.2060258919
 20
-39.3364695668
 30
0.0
 10
-84.3871438279
 20
-39.4605226624
 30
0.0
 10
-84.5321762251
 20
-39.5598965217
 30
0.0
 10
-84.5911736976
 20
-39.6003262481
 30
0.0
 10
-84.6482851162
 20
-39.6394699696
 30
0.0
 10
-84.6482851159
 20
-39.6394699694
 30
0.0
 11
-82.4913362672
 21
-38.1643004246
 31
0.0
 11
-82.9440627658
 21
-38.4733953979
 31
0.0
 11
-83.343521698
 21
-38.7463565356
 31
0.0
 11
-83.6897037321
 21
-38.983089892
 31
0.0
 11
-83.9826147542
 21
-39.1835234478
 31
0.0
 11
-84.222263166
 21
-39.3475984901
 31
0.0
 11
-84.4086498232
 21
-39.475262787
 31
0.0
 11
-84.5417821638
 21
-39.5664803037
 31
0.0
 11
-84.6216592702
 21
-39.6212210077
 31
0.0
 11
-84.6482851159
 21
-39.6394699694
 31
0.0
  0
SPLINE
  5
33D
100
AcDbEntity
  8
RACCORDO
100
AcDbSpline
 62
253
  6
CONTINUOUS
 70
0
 71
3
 72
16
 73
12
 74
10
 42
0.0000001
 43
0.0000001
 44
0.0000000001
 12
-2.1620453139
 22
-1.4749009717
 32
0.0
 13
0.0000001415
 23
0.0000000973
 33
0.0
 40
0.0
 40
0.0
 40
0.0
 40
0.0
 40
0.2097775743
 40
0.3949229889
 40
0.5554135026
 40
0.6912354101
 40
0.8023786755
 40
0.888832272
 40
0.9505907498
 40
0.9876473187
 40
1.0
 40
1.0
 40
1.0
 40
1.0
 10
-83.6213688348
 20
-37.0564969183
 30
0.0
 10
-83.7725517086
 20
-37.1596306343
 30
0.0
 10
-84.0571464263
 20
-37.3538640162
 30
0.0
 10
-84.4571682546
 20
-37.6271104557
 30
0.0
 10
-84.8041736073
 20
-37.8643219538
 30
0.0
 10
-85.0968215024
 20
-38.0645032164
 30
0.0
 10
-85.3389175859
 20
-38.2301969086
 30
0.0
 10
-85.5203370819
 20
-38.3544127698
 30
0.0
 10
-85.6656109035
 20
-38.4539171399
 30
0.0
 10
-85.7247065776
 20
-38.4943999838
 30
0.0
 10
-85.7819130508
 20
-38.5335951564
 30
0.0
 10
-85.7819130502
 20
-38.533595156
 30
0.0
 11
-83.6213688348
 21
-37.0564969183
 31
0.0
 11
-84.0748514973
 21
-37.3659947329
 31
0.0
 11
-84.474976405
 21
-37.6393117995
 31
0.0
 11
-84.8217353608
 21
-37.8763544729
 31
0.0
 11
-85.1151343478
 21
-38.0770503594
 31
0.0
 11
-85.3551818717
 21
-38.2413404508
 31
0.0
 11
-85.5418788625
 21
-38.3691722636
 31
0.0
 11
-85.6752328273
 21
-38.4605095736
 31
0.0
 11
-85.7552428882
 21
-38.5153222078
 31
0.0
 11
-85.7819130502
 21
-38.533595156
 31
0.0
  0
SPLINE
  5
33E
100
AcDbEntity
  8
RACCORDO
100
AcDbSpline
 62
253
  6
CONTINUOUS
 70
0
 71
3
 72
16
 73
12
 74
10
 42
0.0000001
 43
0.0000001
 44
0.0000000001
 12
-2.1620453139
 22
1.4749009717
 32
0.0
 13
0.000000123
 23
-0.0000000846
 33
0.0
 40
0.0
 40
0.0
 40
0.0
 40
0.0
 40
0.2097775743
 40
0.3949229888
 40
0.5554135026
 40
0.6912354102
 40
0.8023786756
 40
0.8888322721
 40
0.9505907499
 40
0.9876473188
 40
1.0
 40
1.0
 40
1.0
 40
1.0
 10
-83.6213688348
 20
37.0564969183
 30
0.0
 10
-83.7725517086
 20
37.1596306343
 30
0.0
 10
-84.0571464262
 20
37.3538640161
 30
0.0
 10
-84.4571682546
 20
37.6271104556
 30
0.0
 10
-84.8041736073
 20
37.8643219538
 30
0.0
 10
-85.0968215025
 20
38.0645032165
 30
0.0
 10
-85.3389175861
 20
38.2301969087
 30
0.0
 10
-85.5203370822
 20
38.3544127699
 30
0.0
 10
-85.6656109037
 20
38.45391714
 30
0.0
 10
-85.7247065779
 20
38.494399984
 30
0.0
 10
-85.7819130507
 20
38.5335951564
 30
0.0
 10
-85.7819130502
 20
38.533595156
 30
0.0
 11
-83.6213688348
 21
37.0564969183
 31
0.0
 11
-84.0748514974
 21
37.365994733
 31
0.0
 11
-84.4749764048
 21
37.6393117993
 31
0.0
 11
-84.8217353608
 21
37.8763544729
 31
0.0
 11
-85.115134348
 21
38.0770503595
 31
0.0
 11
-85.3551818719
 21
38.241340451
 31
0.0
 11
-85.5418788628
 21
38.3691722638
 31
0.0
 11
-85.6752328276
 21
38.4605095738
 31
0.0
 11
-85.7552428885
 21
38.515322208
 31
0.0
 11
-85.7819130502
 21
38.533595156
 31
0.0
  0
SPLINE
  5
33F
100
AcDbEntity
  8
RACCORDO
100
AcDbSpline
 62
253
  6
CONTINUOUS
 70
0
 71
3
 72
30
 73
26
 74
24
 42
0.0000001
 43
0.0000001
 44
0.0000000001
 12
0.0823152966
 22
1.2247510319
 32
0.0
 13
-1.0140121945
 23
0.6917876607
 33
0.0
 40
0.0
 40
0.0
 40
0.0
 40
0.0
 40
0.0672396858
 40
0.1338849461
 40
0.199675245
 40
0.2643509761
 40
0.3276585921
 40
0.3893509881
 40
0.4491877697
 40
0.5069363152
 40
0.5623724791
 40
0.6152817902
 40
0.6654598969
 40
0.7127137107
 40
0.7568619566
 40
0.7977364454
 40
0.8351828588
 40
0.8690623146
 40
0.8992529035
 40
0.9256526062
 40
0.9481837676
 40
0.9668021294
 40
0.9815169434
 40
0.9924462268
 40
1.0
 40
1.0
 40
1.0
 40
1.0
 10
-83.6105424061
 20
35.8354861528
 30
0.0
 10
-83.6086974545
 20
35.8629367776
 30
0.0
 10
-83.6051612702
 20
35.9176046929
 30
0.0
 10
-83.6003039185
 20
35.9991619136
 30
0.0
 10
-83.5959289002
 20
36.0796958416
 30
0.0
 10
-83.5920532667
 20
36.1588880847
 30
0.0
 10
-83.5886920919
 20
36.236425572
 30
0.0
 10
-83.5858584118
 20
36.3120028463
 30
0.0
 10
-83.5835631852
 20
36.3853227391
 30
0.0
 10
-83.5818152661
 20
36.4560971516
 30
0.0
 10
-83.5806213534
 20
36.5240482062
 30
0.0
 10
-83.5799859526
 20
36.5889091225
 30
0.0
 10
-83.5799113309
 20
36.6504252452
 30
0.0
 10
-83.5803974633
 20
36.708354759
 30
0.0
 10
-83.5814419727
 20
36.7624696871
 30
0.0
 10
-83.5830399989
 20
36.8125566008
 30
0.0
 10
-83.5851841527
 20
36.8584177089
 30
0.0
 10
-83.5878639365
 20
36.8998713664
 30
0.0
 10
-83.5910663918
 20
36.9367543309
 30
0.0
 10
-83.594772069
 20
36.9689201428
 30
0.0
 10
-83.5989638576
 20
36.9962518781
 30
0.0
 10
-83.6035955831
 20
37.0186402388
 30
0.0
 10
-83.6086739516
 20
37.0360826382
 30
0.0
 10
-83.614063427
 20
37.0485372456
 30
0.0
 10
-83.6188156287
 20
37.0547550493
 30
0.0
 10
-83.6213688348
 20
37.0564969183
 30
0.0
 11
-83.6105424061
 21
35.8354861528
 31
0.0
 11
-83.6052160076
 21
35.9178517726
 31
0.0
 11
-83.6003545755
 21
35.9995151975
 31
0.0
 11
-83.5959769783
 21
36.0801549846
 31
0.0
 11
-83.592100428
 21
36.1594506568
 31
0.0
 11
-83.5887400968
 21
36.2370889622
 31
0.0
 11
-83.5859091363
 21
36.3127643155
 31
0.0
 11
-83.5836186739
 21
36.3861790881
 31
0.0
 11
-83.5818777687
 21
36.4570448622
 31
0.0
 11
-83.5806933872
 21
36.5250832278
 31
0.0
 11
-83.5800703727
 21
36.5900271658
 31
0.0
 11
-83.580011438
 21
36.6516214717
 31
0.0
 11
-83.5805171511
 21
36.7096239905
 31
0.0
 11
-83.5815859282
 21
36.7638060452
 31
0.0
 11
-83.5832140355
 21
36.8139536347
 31
0.0
 11
-83.5853955861
 21
36.8598678382
 31
0.0
 11
-83.5881225587
 21
36.9013658456
 31
0.0
 11
-83.5913847955
 21
36.9382813573
 31
0.0
 11
-83.5951700388
 21
36.9704655347
 31
0.0
 11
-83.5994639505
 21
36.9977874965
 31
0.0
 11
-83.6042501641
 21
37.020135008
 31
0.0
 11
-83.6095102796
 21
37.0374147711
 31
0.0
 11
-83.6152238669
 21
37.0495531377
 31
0.0
 11
-83.6213688348
 21
37.0564969183
 31
0.0
  0
LINE
  5
340
100
AcDbEntity
  8
RACCORDO
100
AcDbLine
 62
253
  6
CONTINUOUS
 10
-86.6169937852
 20
25.5074374931
 11
-86.2045321312
 21
24.9179849812
  0
LINE
  5
341
100
AcDbEntity
  8
RACCORDO
100
AcDbLine
 62
253
  6
CONTINUOUS
 10
-86.2045315436
 20
-24.9180286568
 11
-86.6178103885
 21
-25.5086045247
  0
LINE
  5
342
100
AcDbEntity
  8
RACCORDO
100
AcDbLine
 62
253
  6
CONTINUOUS
 10
-86.2045321312
 20
24.9179849812
 11
-86.2065997864
 21
24.8744034621
  0
LINE
  5
343
100
AcDbEntity
  8
RACCORDO
100
AcDbLine
 62
253
  6
CONTINUOUS
 10
-86.2066012711
 20
-24.8744034165
 11
-86.2045315436
 21
-24.9180286568
  0
LINE
  5
344
100
AcDbEntity
  8
RACCORDO
100
AcDbLine
 62
253
  6
CONTINUOUS
 10
-82.4913362662
 20
-38.1643004261
 11
-77.7689623214
 21
-38.3989305068
  0
LINE
  5
345
100
AcDbEntity
  8
RACCORDO
100
AcDbLine
 62
253
  6
CONTINUOUS
 10
-82.4804678797
 20
-35.8213413168
 11
-77.7689623214
 21
-36.0563828951
  0
SPLINE
  5
346
100
AcDbEntity
  8
RACCORDO
100
AcDbSpline
 62
253
  6
CONTINUOUS
 70
0
 71
3
 72
30
 73
26
 74
24
 42
0.0000001
 43
0.0000001
 44
0.0000000001
 12
0.7154280929
 22
2.2317997009
 32
0.0
 13
-0.0298260083
 23
2.3434755536
 33
0.0
 40
0.0
 40
0.0
 40
0.0
 40
0.0
 40
0.0059905148
 40
0.0161634717
 40
0.0305075299
 40
0.0489722074
 40
0.0714852901
 40
0.0979569287
 40
0.1282810828
 40
0.1623365529
 40
0.1999876172
 40
0.2410849195
 40
0.2854658632
 40
0.3329554929
 40
0.3833668507
 40
0.4365019733
 40
0.4921522507
 40
0.5500994447
 40
0.6101160378
 40
0.6719663789
 40
0.7354073267
 40
0.800189287
 40
0.8660563838
 40
0.9327470575
 40
1.0
 40
1.0
 40
1.0
 40
1.0
 10
-82.4913360243
 20
-38.1643004381
 30
0.0
 10
-82.4899074301
 20
-38.1598438951
 30
0.0
 10
-82.4880396161
 20
-38.1472718194
 30
0.0
 10
-82.4855668298
 20
-38.1236113533
 30
0.0
 10
-82.4833363423
 20
-38.0900801026
 30
0.0
 10
-82.4811772198
 20
-38.0469237946
 30
0.0
 10
-82.479213528
 20
-37.9942629506
 30
0.0
 10
-82.4774266125
 20
-37.9323316109
 30
0.0
 10
-82.4758407071
 20
-37.8613735509
 30
0.0
 10
-82.4744603876
 20
-37.7816767742
 30
0.0
 10
-82.4732938168
 20
-37.6935594395
 30
0.0
 10
-82.4723458998
 20
-37.5973726699
 30
0.0
 10
-82.4716208665
 20
-37.4934976727
 30
0.0
 10
-82.4711216767
 20
-37.3823449506
 30
0.0
 10
-82.4708503205
 20
-37.2643524793
 30
0.0
 10
-82.4708078005
 20
-37.1399844402
 30
0.0
 10
-82.4709941852
 20
-37.009729377
 30
0.0
 10
-82.4714086235
 20
-36.8740988662
 30
0.0
 10
-82.4720493811
 20
-36.7336255643
 30
0.0
 10
-82.4729138081
 20
-36.5888615459
 30
0.0
 10
-82.4739985082
 20
-36.4403761034
 30
0.0
 10
-82.4752989213
 20
-36.288754301
 30
0.0
 10
-82.4768104819
 20
-36.1345955775
 30
0.0
 10
-82.4785258884
 20
-35.9785084874
 30
0.0
 10
-82.4797990617
 20
-35.8738765351
 30
0.0
 10
-82.4804676906
 20
-35.8213413262
 30
0.0
 11
-82.4913360243
 21
-38.1643004381
 31
0.0
 11
-82.4885995329
 21
-38.1505299433
 31
0.0
 11
-82.4860280103
 21
-38.1268270205
 31
0.0
 11
-82.4836308601
 21
-38.0932949231
 31
0.0
 11
-82.4814177165
 21
-38.0500765269
 31
0.0
 11
-82.4793968836
 21
-37.9973521084
 31
0.0
 11
-82.4775760297
 21
-37.9353381724
 31
0.0
 11
-82.4759619402
 21
-37.8642868348
 31
0.0
 11
-82.4745605749
 21
-37.7844845129
 31
0.0
 11
-82.4733770355
 21
-37.6962509558
 31
0.0
 11
-82.4724155555
 21
-37.5999374315
 31
0.0
 11
-82.4716795009
 21
-37.4959259562
 31
0.0
 11
-82.4711713613
 21
-37.3846273166
 31
0.0
 11
-82.4708927531
 21
-37.2664802926
 31
0.0
 11
-82.4708444165
 21
-37.1419493565
 31
0.0
 11
-82.4710262207
 21
-37.0115238565
 31
0.0
 11
-82.4714371679
 21
-36.8757156477
 31
0.0
 11
-82.4720753996
 21
-36.735058286
 31
0.0
 11
-82.4729382011
 21
-36.5901043527
 31
0.0
 11
-82.4740220339
 21
-36.4414239521
 31
0.0
 11
-82.4753224762
 21
-36.2896022859
 31
0.0
 11
-82.4768344632
 21
-36.1352392586
 31
0.0
 11
-82.4785516146
 21
-35.9789480703
 31
0.0
 11
-82.4804676906
 21
-35.8213413262
 31
0.0
  0
SPLINE
  5
347
100
AcDbEntity
  8
RACCORDO
100
AcDbSpline
 62
253
  6
CONTINUOUS
 70
0
 71
3
 72
30
 73
26
 74
24
 42
0.0000001
 43
0.0000001
 44
0.0000000001
 12
0.0298313984
 22
2.3434761585
 32
0.0
 13
-0.7153381014
 23
2.2318292539
 33
0.0
 40
0.0
 40
0.0
 40
0.0
 40
0.0
 40
0.0672534954
 40
0.1339441062
 40
0.1998112114
 40
0.2645931395
 40
0.3280340644
 40
0.3898843852
 40
0.4499009591
 40
0.5078481302
 40
0.5634983843
 40
0.6166334829
 40
0.6670448161
 40
0.7145344195
 40
0.7589153358
 40
0.8000126106
 40
0.837663648
 40
0.8717190921
 40
0.90204322
 40
0.9285148344
 40
0.9510278952
 40
0.9694925547
 40
0.9838365878
 40
0.9940095334
 40
1.0
 40
1.0
 40
1.0
 40
1.0
 10
-82.480467698
 20
35.8213406171
 30
0.0
 10
-82.4797989427
 20
35.8738762715
 30
0.0
 10
-82.4785259943
 20
35.9785086394
 30
0.0
 10
-82.4768104712
 20
36.1345961624
 30
0.0
 10
-82.4752989518
 20
36.2887548629
 30
0.0
 10
-82.4739985244
 20
36.4403766722
 30
0.0
 10
-82.4729138286
 20
36.5888620986
 30
0.0
 10
-82.4720493988
 20
36.7336261097
 30
0.0
 10
-82.4714086398
 20
36.8740994033
 30
0.0
 10
-82.4709941988
 20
37.009729902
 30
0.0
 10
-82.4708078109
 20
37.1399849478
 30
0.0
 10
-82.4708503269
 20
37.2643529664
 30
0.0
 10
-82.4711216784
 20
37.3823454131
 30
0.0
 10
-82.4716208633
 20
37.493498106
 30
0.0
 10
-82.472345892
 20
37.5973730697
 30
0.0
 10
-82.4732938051
 20
37.6935598031
 30
0.0
 10
-82.4744603732
 20
37.7816771004
 30
0.0
 10
-82.4758406895
 20
37.8613738383
 30
0.0
 10
-82.4774265959
 20
37.9323318586
 30
0.0
 10
-82.4792135025
 20
37.9942631614
 30
0.0
 10
-82.4811772158
 20
38.0469239653
 30
0.0
 10
-82.4833362815
 20
38.0900802489
 30
0.0
 10
-82.4855669039
 20
38.1236114311
 30
0.0
 10
-82.4880394149
 20
38.1472719157
 30
0.0
 10
-82.4899076102
 20
38.1598438324
 30
0.0
 10
-82.4913360132
 20
38.1643003985
 30
0.0
 11
-82.480467698
 21
35.8213406171
 31
0.0
 11
-82.4785516392
 21
35.9789487027
 31
0.0
 11
-82.4768344784
 21
36.1352397881
 31
0.0
 11
-82.4753224973
 21
36.2896028797
 31
0.0
 11
-82.4740220532
 21
36.441424514
 31
0.0
 11
-82.4729382205
 21
36.5901049036
 31
0.0
 11
-82.4720754175
 21
36.7350588312
 31
0.0
 11
-82.4714371839
 21
36.875716188
 31
0.0
 11
-82.4710262341
 21
37.0115243824
 31
0.0
 11
-82.4708444266
 21
37.1419498651
 31
0.0
 11
-82.4708927592
 21
37.2664807809
 31
0.0
 11
-82.4711713629
 21
37.384627781
 31
0.0
 11
-82.4716794976
 21
37.4959263911
 31
0.0
 11
-82.4724155477
 21
37.5999378321
 31
0.0
 11
-82.4733770239
 21
37.6962513198
 31
0.0
 11
-82.4745605603
 21
37.7844848392
 31
0.0
 11
-82.4759619233
 21
37.8642871231
 31
0.0
 11
-82.4775760111
 21
37.9353384198
 31
0.0
 11
-82.4793968638
 21
37.9973523169
 31
0.0
 11
-82.4814176972
 21
38.0500766993
 31
0.0
 11
-82.4836308389
 21
38.0932950657
 31
0.0
 11
-82.4860279958
 21
38.1268271132
 31
0.0
 11
-82.4885995084
 21
38.1505300174
 31
0.0
 11
-82.4913360132
 21
38.1643003985
 31
0.0
  0
SPLINE
  5
348
100
AcDbEntity
  8
RACCORDO
100
AcDbSpline
 62
253
  6
CONTINUOUS
 70
0
 71
3
 72
25
 73
21
 74
19
 42
0.0000001
 43
0.0000001
 44
0.0000000001
 12
0.1343677112
 22
-1.7212261585
 32
0.0
 13
1.7236980558
 23
-0.0976687415
 33
0.0
 40
0.0
 40
0.0
 40
0.0
 40
0.0
 40
0.0555477006
 40
0.1111101626
 40
0.1666852672
 40
0.2222705737
 40
0.2778633823
 40
0.3334608027
 40
0.3890598274
 40
0.444657408
 40
0.5002505331
 40
0.5558363041
 40
0.6114120095
 40
0.6669751935
 40
0.7225237187
 40
0.7780558207
 40
0.8335701537
 40
0.8890658245
 40
0.9445424164
 40
1.0
 40
1.0
 40
1.0
 40
1.0
 10
-83.6213688347
 20
-37.0564969183
 30
0.0
 10
-83.6188808956
 20
-37.08836697
 30
0.0
 10
-83.6113548836
 20
-37.1519459477
 30
0.0
 10
-83.5925012039
 20
-37.2460989665
 30
0.0
 10
-83.566199612
 20
-37.3384776776
 30
0.0
 10
-83.5326190611
 20
-37.4284830803
 30
0.0
 10
-83.4919742656
 20
-37.5155415073
 30
0.0
 10
-83.4445253293
 20
-37.5990954297
 30
0.0
 10
-83.3905758134
 20
-37.6786104656
 30
0.0
 10
-83.3304708676
 20
-37.7535778701
 30
0.0
 10
-83.2645950063
 20
-37.8235180338
 30
0.0
 10
-83.1933696556
 20
-37.8879834815
 30
0.0
 10
-83.1172504658
 20
-37.94656175
 30
0.0
 10
-83.0367243833
 20
-37.998878022
 30
0.0
 10
-82.9523066074
 20
-38.044597522
 30
0.0
 10
-82.8645370499
 20
-38.0834276729
 30
0.0
 10
-82.773977816
 20
-38.1151199185
 30
0.0
 10
-82.6812061414
 20
-38.1394715132
 30
0.0
 10
-82.5868236481
 20
-38.156326092
 30
0.0
 10
-82.5231999991
 20
-38.1624946719
 30
0.0
 10
-82.4913359561
 20
-38.1643001627
 30
0.0
 11
-83.6213688347
 21
-37.0564969183
 31
0.0
 11
-83.6100958189
 21
-37.1517330956
 31
0.0
 11
-83.5912624292
 21
-37.2457926648
 31
0.0
 11
-83.5649891736
 21
-37.3380737742
 31
0.0
 11
-83.5314441645
 21
-37.4279859522
 31
0.0
 11
-83.4908420438
 21
-37.5149538846
 31
0.0
 11
-83.4434426091
 21
-37.5984210967
 31
0.0
 11
-83.3895491513
 21
-37.6778535135
 31
0.0
 11
-83.3295065143
 21
-37.752742877
 31
0.0
 11
-83.2636988881
 21
-37.8226099985
 31
0.0
 11
-83.1925473508
 21
-37.8870078249
 31
0.0
 11
-83.1165071741
 21
-37.9455242989
 31
0.0
 11
-83.0360649103
 21
-37.9977849957
 31
0.0
 11
-82.9517352789
 21
-38.043455519
 31
0.0
 11
-82.8640578733
 21
-38.0822436403
 31
0.0
 11
-82.7735937079
 21
-38.1139011692
 31
0.0
 11
-82.6809216287
 21
-38.1382255412
 31
0.0
 11
-82.5866346091
 21
-38.1550611139
 31
0.0
 11
-82.4913359561
 21
-38.1643001627
 31
0.0
  0
SPLINE
  5
349
100
AcDbEntity
  8
RACCORDO
100
AcDbSpline
 62
253
  6
CONTINUOUS
 70
0
 71
3
 72
25
 73
21
 74
19
 42
0.0000001
 43
0.0000001
 44
0.0000000001
 12
0.1343676733
 22
1.7212261912
 32
0.0
 13
1.7236980847
 23
0.0976687549
 33
0.0
 40
0.0
 40
0.0
 40
0.0
 40
0.0
 40
0.0555477008
 40
0.1111101631
 40
0.1666852678
 40
0.2222705745
 40
0.2778633833
 40
0.3334608039
 40
0.3890598286
 40
0.4446574093
 40
0.5002505344
 40
0.5558363054
 40
0.6114120108
 40
0.6669751947
 40
0.7225237197
 40
0.7780558216
 40
0.8335701544
 40
0.889065825
 40
0.9445424167
 40
1.0
 40
1.0
 40
1.0
 40
1.0
 10
-83.6213688329
 20
37.0564969181
 30
0.0
 10
-83.6188808945
 20
37.0883669706
 30
0.0
 10
-83.6113548838
 20
37.1519459498
 30
0.0
 10
-83.5925012058
 20
37.246098971
 30
0.0
 10
-83.5661996155
 20
37.3384776847
 30
0.0
 10
-83.5326190659
 20
37.42848309
 30
0.0
 10
-83.4919742714
 20
37.5155415196
 30
0.0
 10
-83.444525336
 20
37.5990954447
 30
0.0
 10
-83.3905758208
 20
37.6786104831
 30
0.0
 10
-83.3304708754
 20
37.7535778902
 30
0.0
 10
-83.2645950143
 20
37.8235180565
 30
0.0
 10
-83.1933696636
 20
37.8879835066
 30
0.0
 10
-83.1172504735
 20
37.9465617774
 30
0.0
 10
-83.0367243906
 20
37.9988780515
 30
0.0
 10
-82.9523066142
 20
38.0445975534
 30
0.0
 10
-82.864537056
 20
38.0834277062
 30
0.0
 10
-82.7739778212
 20
38.1151199533
 30
0.0
 10
-82.6812061456
 20
38.1394715493
 30
0.0
 10
-82.5868236513
 20
38.1563261292
 30
0.0
 10
-82.5232000014
 20
38.1624947097
 30
0.0
 10
-82.4913359581
 20
38.1643002007
 30
0.0
 11
-83.6213688329
 21
37.0564969181
 31
0.0
 11
-83.610095819
 21
37.1517330978
 31
0.0
 11
-83.5912624311
 21
37.2457926693
 31
0.0
 11
-83.564989177
 21
37.3380737813
 31
0.0
 11
-83.5314441693
 21
37.4279859618
 31
0.0
 11
-83.4908420497
 21
37.5149538969
 31
0.0
 11
-83.4434426158
 21
37.5984211117
 31
0.0
 11
-83.3895491586
 21
37.6778535311
 31
0.0
 11
-83.329506522
 21
37.7527428972
 31
0.0
 11
-83.263698896
 21
37.8226100212
 31
0.0
 11
-83.1925473587
 21
37.88700785
 31
0.0
 11
-83.1165071818
 21
37.9455243263
 31
0.0
 11
-83.0360649176
 21
37.9977850252
 31
0.0
 11
-82.9517352856
 21
38.0434555504
 31
0.0
 11
-82.8640578793
 21
38.0822436735
 31
0.0
 11
-82.7735937131
 21
38.113901204
 31
0.0
 11
-82.6809216329
 21
38.1382255773
 31
0.0
 11
-82.5866346122
 21
38.1550611511
 31
0.0
 11
-82.4913359581
 21
38.1643002007
 31
0.0
  0
SPLINE
  5
34A
100
AcDbEntity
  8
RACCORDO
100
AcDbSpline
 62
253
  6
CONTINUOUS
 70
0
 71
3
 72
25
 73
21
 74
19
 42
0.0000001
 43
0.0000001
 44
0.0000000001
 12
0.9769919854
 22
0.5726992985
 32
0.0
 13
1.130159383
 23
-0.0723712302
 33
0.0
 40
0.0
 40
0.0
 40
0.0
 40
0.0
 40
0.0112853625
 40
0.028790602
 40
0.0526197944
 40
0.0827020852
 40
0.1188857153
 40
0.1609635604
 40
0.208683117
 40
0.2617517974
 40
0.3198405752
 40
0.3825870274
 40
0.4495981802
 40
0.520453334
 40
0.5947069435
 40
0.6718915833
 40
0.7515210087
 40
0.8330933071
 40
0.9160941314
 40
1.0
 40
1.0
 40
1.0
 40
1.0
 10
-83.610542406
 20
35.8354861528
 30
0.0
 10
-83.6068671698
 20
35.8376405258
 30
0.0
 10
-83.5963301897
 20
35.8409062409
 30
0.0
 10
-83.576865092
 20
35.8445976679
 30
0.0
 10
-83.5500462404
 20
35.8477517683
 30
0.0
 10
-83.5161446378
 20
35.8503774947
 30
0.0
 10
-83.475287346
 20
35.8523962474
 30
0.0
 10
-83.4277503375
 20
35.8537935427
 30
0.0
 10
-83.3738227258
 20
35.8545482889
 30
0.0
 10
-83.3138470529
 20
35.8546524166
 30
0.0
 10
-83.2482011414
 20
35.8541018349
 30
0.0
 10
-83.1773002283
 20
35.8528982061
 30
0.0
 10
-83.1015926246
 20
35.8510477599
 30
0.0
 10
-83.0215572713
 20
35.8485612731
 30
0.0
 10
-82.9377005221
 20
35.8454537967
 30
0.0
 10
-82.8505529576
 20
35.8417445015
 30
0.0
 10
-82.7606660038
 20
35.8374564988
 30
0.0
 10
-82.6686084278
 20
35.8326166617
 30
0.0
 10
-82.5749627709
 20
35.8272554367
 30
0.0
 10
-82.512076652
 20
35.8233690849
 30
0.0
 10
-82.4804676504
 20
35.8213449613
 30
0.0
 11
-83.610542406
 21
35.8354861528
 31
0.0
 11
-83.5985891849
 21
35.8400092784
 31
0.0
 11
-83.5791628825
 21
35.8439613617
 31
0.0
 11
-83.5523864317
 21
35.8473173933
 31
0.0
 11
-83.5184292781
 21
35.8500561355
 31
0.0
 11
-83.477506308
 21
35.8521602573
 31
0.0
 11
-83.4298764887
 21
35.8536164434
 31
0.0
 11
-83.3758412292
 21
35.8544154789
 31
0.0
 11
-83.3157424733
 21
35.8545523072
 31
0.0
 11
-83.2499605357
 21
35.8540260626
 31
0.0
 11
-83.178911695
 21
35.8528400751
 31
0.0
 11
-83.1030455597
 21
35.85100185
 31
0.0
 11
-83.0228422229
 21
35.8485230198
 31
0.0
 11
-82.9388092242
 21
35.8454192708
 31
0.0
 11
-82.851478338
 21
35.8417102443
 31
0.0
 11
-82.7614022081
 21
35.8374194114
 31
0.0
 11
-82.6691508508
 21
35.8325739253
 31
0.0
 11
-82.5753080474
 21
35.827204449
 31
0.0
 11
-82.4804676504
 21
35.8213449613
 31
0.0
  0
SPLINE
  5
34B
100
AcDbEntity
  8
RACCORDO
100
AcDbSpline
 62
253
  6
CONTINUOUS
 70
0
 71
3
 72
25
 73
21
 74
19
 42
0.0000001
 43
0.0000001
 44
0.0000000001
 12
0.9769919168
 22
-0.5726994053
 32
0.0
 13
1.1301593781
 23
0.0723712273
 33
0.0
 40
0.0
 40
0.0
 40
0.0
 40
0.0
 40
0.011285361
 40
0.0287905992
 40
0.0526197904
 40
0.0827020801
 40
0.1188857095
 40
0.1609635539
 40
0.2086831102
 40
0.2617517903
 40
0.3198405682
 40
0.3825870206
 40
0.4495981737
 40
0.5204533281
 40
0.5947069383
 40
0.671891579
 40
0.7515210053
 40
0.8330933048
 40
0.9160941302
 40
1.0
 40
1.0
 40
1.0
 40
1.0
 10
-83.6105424026
 20
-35.8354861525
 30
0.0
 10
-83.6068671672
 20
-35.8376405257
 30
0.0
 10
-83.5963301882
 20
-35.8409062408
 30
0.0
 10
-83.5768650922
 20
-35.8445976679
 30
0.0
 10
-83.550046242
 20
-35.8477517684
 30
0.0
 10
-83.5161446408
 20
-35.8503774949
 30
0.0
 10
-83.4752873501
 20
-35.8523962477
 30
0.0
 10
-83.4277503424
 20
-35.8537935431
 30
0.0
 10
-83.3738227314
 20
-35.8545482894
 30
0.0
 10
-83.313847059
 20
-35.8546524172
 30
0.0
 10
-83.2482011478
 20
-35.8541018357
 30
0.0
 10
-83.1773002348
 20
-35.8528982071
 30
0.0
 10
-83.1015926311
 20
-35.851047761
 30
0.0
 10
-83.0215572775
 20
-35.8485612744
 30
0.0
 10
-82.9377005279
 20
-35.8454537982
 30
0.0
 10
-82.8505529628
 20
-35.8417445031
 30
0.0
 10
-82.7606660084
 20
-35.8374565006
 30
0.0
 10
-82.6686084316
 20
-35.8326166637
 30
0.0
 10
-82.5749627738
 20
-35.8272554388
 30
0.0
 10
-82.5120766543
 20
-35.8233690871
 30
0.0
 10
-82.4804676524
 20
-35.8213449635
 30
0.0
 11
-83.6105424026
 21
-35.8354861525
 31
0.0
 11
-83.5985891834
 21
-35.8400092783
 31
0.0
 11
-83.5791628827
 21
-35.8439613617
 31
0.0
 11
-83.5523864334
 21
-35.8473173933
 31
0.0
 11
-83.5184292811
 21
-35.8500561357
 31
0.0
 11
-83.4775063122
 21
-35.8521602576
 31
0.0
 11
-83.4298764937
 21
-35.8536164438
 31
0.0
 11
-83.3758412349
 21
-35.8544154794
 31
0.0
 11
-83.3157424795
 21
-35.8545523079
 31
0.0
 11
-83.2499605422
 21
-35.8540260634
 31
0.0
 11
-83.1789117016
 21
-35.8528400761
 31
0.0
 11
-83.1030455662
 21
-35.8510018511
 31
0.0
 11
-83.0228422291
 21
-35.848523021
 31
0.0
 11
-82.9388092301
 21
-35.8454192723
 31
0.0
 11
-82.8514783433
 21
-35.8417102459
 31
0.0
 11
-82.7614022127
 21
-35.8374194132
 31
0.0
 11
-82.6691508546
 21
-35.8325739272
 31
0.0
 11
-82.5753080504
 21
-35.827204451
 31
0.0
 11
-82.4804676524
 21
-35.8213449635
 31
0.0
  0
SPLINE
  5
34C
100
AcDbEntity
  8
RACCORDO
100
AcDbSpline
 62
253
  6
CONTINUOUS
 70
0
 71
3
 72
21
 73
17
 74
15
 42
0.0000001
 43
0.0000001
 44
0.0000000001
 12
-4.7981416517
 22
71.5351906881
 32
0.0
 13
4.7981416402
 23
71.5351906888
 33
0.0
 40
0.0
 40
0.0
 40
0.0
 40
0.0
 40
0.0714218864
 40
0.1428476908
 40
0.2142759367
 40
0.2857054775
 40
0.3571361146
 40
0.4285679853
 40
0.5000000047
 40
0.5714320214
 40
0.6428638943
 40
0.7142945297
 40
0.7857240708
 40
0.8571523173
 40
0.9285781189
 40
1.0
 40
1.0
 40
1.0
 40
1.0
 10
-82.4804678797
 20
-35.8213413168
 30
0.0
 10
-82.5946986558
 20
-34.1182818952
 30
0.0
 10
-82.8068220239
 20
-30.7109506676
 30
0.0
 10
-83.0760054483
 20
-25.5970520394
 30
0.0
 10
-83.2962168943
 20
-20.4806228219
 30
0.0
 10
-83.4674726208
 20
-15.3622069706
 30
0.0
 10
-83.5897876439
 20
-10.2423008821
 30
0.0
 10
-83.6631724356
 20
-5.1214006527
 30
0.0
 10
-83.6876333138
 20
-0.0000000838
 30
0.0
 10
-83.6631724366
 20
5.1214005357
 30
0.0
 10
-83.5897876472
 20
10.2423007138
 30
0.0
 10
-83.4674726248
 20
15.3622068213
 30
0.0
 10
-83.296216901
 20
20.4806226534
 30
0.0
 10
-83.076005458
 20
25.5970518258
 30
0.0
 10
-82.8068220463
 20
30.7109502746
 30
0.0
 10
-82.5946986913
 20
34.1182813102
 30
0.0
 10
-82.480467924
 20
35.8213406058
 30
0.0
 11
-82.4804678797
 21
-35.8213413168
 31
0.0
 11
-82.7986487946
 21
-30.7105780197
 31
0.0
 11
-83.0678391569
 21
-25.5967190092
 31
0.0
 11
-83.2880556637
 21
-20.480341873
 31
0.0
 11
-83.4593146709
 21
-15.3619992216
 31
0.0
 11
-83.5816318354
 21
-10.2421745382
 31
0.0
 11
-83.6550183401
 21
-5.121326308
 31
0.0
 11
-83.6794796823
 21
-0.0000000219
 31
0.0
 11
-83.6550183423
 21
5.1213260784
 31
0.0
 11
-83.5816318369
 21
10.2421744607
 31
0.0
 11
-83.4593146765
 21
15.3619990238
 31
0.0
 11
-83.2880556703
 21
20.4803417002
 31
0.0
 11
-83.0678391634
 21
25.5967188742
 31
0.0
 11
-82.7986488138
 21
30.7105776869
 31
0.0
 11
-82.480467924
 21
35.8213406058
 31
0.0
  0
LINE
  5
34D
100
AcDbEntity
  8
RACCORDO
100
AcDbLine
 62
253
  6
CONTINUOUS
 10
-82.480467924
 20
35.8213406058
 11
-77.7689623214
 21
36.0563828951
  0
SPLINE
  5
34E
100
AcDbEntity
  8
RACCORDO
100
AcDbSpline
 62
253
  6
CONTINUOUS
 70
0
 71
3
 72
16
 73
12
 74
10
 42
0.0000001
 43
0.0000001
 44
0.0000000001
 12
-2.1584416099
 22
1.4729853873
 32
0.0
 13
0.0000000554
 23
-0.0000000386
 33
0.0
 40
0.0
 40
0.0
 40
0.0
 40
0.0
 40
0.2097773325
 40
0.3949228829
 40
0.5554134709
 40
0.6912354159
 40
0.8023786937
 40
0.8888322888
 40
0.9505907595
 40
0.9876473217
 40
1.0
 40
1.0
 40
1.0
 40
1.0
 10
-82.4913362144
 20
38.1643003886
 30
0.0
 10
-82.6422669222
 20
38.267300037
 30
0.0
 10
-82.9263873874
 20
38.4612807797
 30
0.0
 10
-83.325743088
 20
38.7341711781
 30
0.0
 10
-83.6721711299
 20
38.9710731465
 30
0.0
 10
-83.9643323154
 20
39.1709927607
 30
0.0
 10
-84.2060258921
 20
39.336469567
 30
0.0
 10
-84.3871438282
 20
39.4605226626
 30
0.0
 10
-84.5321762253
 20
39.5598965218
 30
0.0
 10
-84.5911736978
 20
39.6003262483
 30
0.0
 10
-84.6482851162
 20
39.6394699695
 30
0.0
 10
-84.6482851159
 20
39.6394699694
 30
0.0
 11
-82.4913362144
 21
38.1643003886
 31
0.0
 11
-82.9440627659
 21
38.473395398
 31
0.0
 11
-83.3435216977
 21
38.7463565355
 31
0.0
 11
-83.6897037321
 21
38.9830898921
 31
0.0
 11
-83.9826147544
 21
39.1835234479
 31
0.0
 11
-84.2222631661
 21
39.3475984902
 31
0.0
 11
-84.4086498236
 21
39.4752627873
 31
0.0
 11
-84.5417821641
 21
39.5664803039
 31
0.0
 11
-84.6216592705
 21
39.6212210079
 31
0.0
 11
-84.6482851159
 21
39.6394699694
 31
0.0
  0
ELLIPSE
  5
34F
100
AcDbEntity
  8
0
100
AcDbEllipse
 62
7
  6
CONTINUOUS
 10
-22.1999543016
 20
-22.1999543016
 30
0.0
 11
0.2121966568
 21
0.2121966568
 31
0.0
 40
0.9996954599
 41
2.3563467834
 42
3.9268385237
  0
ELLIPSE
  5
350
100
AcDbEntity
  8
0
100
AcDbEllipse
 62
7
  6
CONTINUOUS
 10
-22.1999543016
 20
22.1999543016
 30
0.0
 11
0.2121966568
 21
-0.2121966568
 31
-0.0
 40
0.9996954599
 41
2.3563467834
 42
3.9268385237
  0
ELLIPSE
  5
351
100
AcDbEntity
  8
0
100
AcDbEllipse
 62
7
  6
CONTINUOUS
 10
22.1999543016
 20
22.1999543016
 30
0.0
 11
-0.2121966568
 21
-0.2121966568
 31
0.0
 40
0.9996954599
 41
2.3563467834
 42
3.9268385237
  0
ELLIPSE
  5
352
100
AcDbEntity
  8
0
100
AcDbEllipse
 62
7
  6
CONTINUOUS
 10
22.1999543016
 20
-22.1999543016
 30
0.0
 11
-0.2121966567
 21
0.2121966568
 31
0.0
 40
0.9996954599
 41
-3.9268385237
 42
-2.3563467834
  0
ELLIPSE
  5
353
100
AcDbEntity
  8
RACCORDO
100
AcDbEllipse
 62
7
  6
CONTINUOUS
 10
-540.0
 20
558.5026411517
 30
0.0
 11
-0.0
 21
932.3548968974
 31
0.0
 40
0.8007313262
 41
-2.2083656276
 42
-2.2081960426
  0
ELLIPSE
  5
354
100
AcDbEntity
  8
RACCORDO
100
AcDbEllipse
 62
7
  6
CONTINUOUS
 10
-540.0
 20
-558.5026411517
 30
0.0
 11
-0.0
 21
932.3548968974
 31
0.0
 40
0.8007313262
 41
-0.933396611
 42
-0.933227026
  0
ELLIPSE
  5
355
100
AcDbEntity
  8
RACCORDO
100
AcDbEllipse
 62
7
  6
CONTINUOUS
 10
540.0
 20
-558.5026411517
 30
0.0
 11
-0.0
 21
932.3548968974
 31
0.0
 40
0.8007313262
 41
0.933227026
 42
0.933396611
  0
ELLIPSE
  5
356
100
AcDbEntity
  8
RACCORDO
100
AcDbEllipse
 62
7
  6
CONTINUOUS
 10
540.0
 20
558.5026411517
 30
0.0
 11
-0.0
 21
932.3548968974
 31
0.0
 40
0.8007313262
 41
-4.0749892646
 42
-4.0748196796
  0
ENDSEC
  0
SECTION
  2
OBJECTS
  0
DICTIONARY
  5
C
100
AcDbDictionary
280
0
281
1
  3
ACAD_GROUP
350
D
  3
ACAD_MLINESTYLE
350
17
  3
ACAD_LAYOUT
350
1A
  3
ACAD_PLOTSETTINGS
350
19
  3
ACAD_PLOTSTYLENAME
350
E
  0
DICTIONARY
  5
D
102
{ACAD_REACTORS
330
C
102
}
100
AcDbDictionary
280
0
281
1
  0
ACDBDICTIONARYWDFLT
  5
E
102
{ACAD_REACTORS
330
C
102
}
100
AcDbDictionary
281
1
  3
Normal
350
F
100
AcDbDictionaryWithDefault
340
F
  0
DICTIONARY
  5
17
102
{ACAD_REACTORS
330
C
102
}
100
AcDbDictionary
280
0
281
1
  3
Standard
350
18
  0
DICTIONARY
  5
19
102
{ACAD_REACTORS
330
C
102
}
100
AcDbDictionary
281
1
  0
DICTIONARY
  5
1A
102
{ACAD_REACTORS
330
C
102
}
100
AcDbDictionary
281
1
  3
Model
350
357
  3
Layout1
350
358
  0
ACDBPLACEHOLDER
  5
F
102
{ACAD_REACTORS
330
E
102
}
  0
MLINESTYLE
  5
18
102
{ACAD_REACTORS
330
17
102
}
100
AcDbMlineStyle
  2
STANDARD
 70
0
  3

 62
256
 51
90.0
 52
90.0
 71
2
 49
0.5
 62
256
  6
BYLAYER
 49
-0.5
 62
256
  6
BYLAYER
  0
LAYOUT
  5
357
102
{ACAD_REACTORS
330
1A
102
}
100
AcDbPlotSettings
  1

  2
none_device
  4
ISO_A4_(297.00_x_210.00_MM)
  6

 40
0.0
 41
0.0
 42
0.0
 43
0.0
 44
297.0
 45
210.0
 46
0.0
 47
0.0
 48
0.0
 49
0.0
140
0.0
141
0.0
142
1.0
143
1.0
 70
1024
 72
1
 73
0
 74
0
  7

 75
0
147
1.0
148
0.0
149
0.0
100
AcDbLayout
  1
Model
 70
0
 71
0
 10
0.0
 20
0.0
 11
297.0
 21
210.0
 12
0.0
 22
0.0
 32
0.0
 14
0.0
 24
0.0
 34
0.0
 15
0.0
 25
0.0
 35
0.0
146
0.0
 13
0.0
 23
0.0
 33
0.0
 16
1.0
 26
0.0
 36
0.0
 17
0.0
 27
1.0
 37
0.0
 76
0
330
20F
345
0
346
0
  0
LAYOUT
  5
358
102
{ACAD_REACTORS
330
1A
102
}
100
AcDbPlotSettings
  1

  2
none_device
  4
ISO_A4_(297.00_x_210.00_MM)
  6

 40
0.0
 41
0.0
 42
0.0
 43
0.0
 44
297.0
 45
210.0
 46
0.0
 47
0.0
 48
0.0
 49
0.0
140
0.0
141
0.0
142
1.0
143
1.0
 70
0
 72
1
 73
0
 74
0
  7

 75
0
147
1.0
148
0.0
149
0.0
100
AcDbLayout
  1
Layout1
 70
0
 71
1
 10
0.0
 20
0.0
 11
297.0
 21
210.0
 12
0.0
 22
0.0
 32
0.0
 14
0.0
 24
0.0
 34
0.0
 15
0.0
 25
0.0
 35
0.0
146
0.0
 13
0.0
 23
0.0
 33
0.0
 16
1.0
 26
0.0
 36
0.0
 17
0.0
 27
1.0
 37
0.0
 76
0
330
210
345
0
346
0
  0
ENDSEC
  0
EOF
