  0
SECTION
  2
HEADER
  9
$ACADVER
  1
AC1015
  9
$DWGCODEPAGE
  3
ANSI_1252
  9
$EXTMAX
 10
297.0
 20
210.0
 30
0.0
  9
$EXTMIN
 10
0.0
 20
0.0
 30
0.0
  9
$LIMMIN
 10
0.0
 20
0.0
  9
$LIMMAX
 10
297.0
 20
210.0
  9
$VIEWCTR
 10
148.5
 20
105.0
  9
$VIEWSIZE
 40
210.0
  9
$CLAYER
  8
0
  9
$LTSCALE
 40
16.335
  9
$CELTYPE
  6
BYLAYER
  9
$DIMSCALE
 40
1.0
  9
$DIMASZ
 40
3.0
  9
$DIMEXO
 40
1.85625
  9
$DIMDLI
 40
11.286
  9
$DIMEXE
 40
5.346
  9
$DIMCEN
 40
2.673
  9
$DIMLFAC
 40
1.0
  9
$DIMBLK
  1
_FILLED
  9
$DIMTXT
 40
3.0
  9
$DIMTOL
 70
1
  9
$DIMLIM
 70
0
  9
$DIMTFAC
 40
1.0
  9
$DIMTP
 40
0.01
  9
$DIMTM
 40
0.01
  9
$PDMODE
 70
3
  9
$PDSIZE
 40
3.0
  9
$HANDSEED
  5
33B
  9
$TILEMODE
 70
1
  9
$MEASUREMENT
 70
1
  9
$INSUNITS
 70
4
  0
ENDSEC
  0
SECTION
  2
CLASSES
  0
CLASS
  1
ACDBDICTIONARYWDFLT
  2
AcDbDictionaryWithDefault
  3
AutoCAD 2000
 90
0
280
0
281
0
  0
CLASS
  1
ACDBPLACEHOLDER
  2
AcDbPlaceHolder
  3
AutoCAD 2000
 90
0
280
0
281
0
  0
CLASS
  1
LAYOUT
  2
AcDbLayout
  3
AutoCAD 2000
 90
0
280
0
281
0
  0
ENDSEC
  0
SECTION
  2
TABLES
  0
TABLE
  2
VPORT
  5
8
100
AcDbSymbolTable
 70
2
  0
VPORT
  5
1F4
100
AcDbSymbolTableRecord
100
AcDbViewportTableRecord
  2
*ACTIVE
 70
0
 10
0.0
 20
0.0
 11
1.0
 21
1.0
 12
148.5
 22
105.0
 13
0.0
 23
0.0
 14
1.0
 24
1.0
 15
0.0
 25
0.0
 16
0.0
 26
0.0
 36
1.0
 17
0.0
 27
0.0
 37
0.0
 40
210.0
 41
1.4142857143
 42
50.0
 43
0.0
 44
0.0
 50
0.0
 51
0.0
 71
0
 72
100
 73
1
 74
1
 75
0
 76
0
 77
0
 78
0
  0
ENDTAB
  0
TABLE
  2
LTYPE
  5
5
100
AcDbSymbolTable
 70
6
  0
LTYPE
  5
14
100
AcDbSymbolTableRecord
100
AcDbLinetypeTableRecord
  2
BYBLOCK
 70
0
  3

 72
65
 73
0
 40
0.0
  0
LTYPE
  5
15
100
AcDbSymbolTableRecord
100
AcDbLinetypeTableRecord
  2
BYLAYER
 70
0
  3

 72
65
 73
0
 40
0.0
  0
LTYPE
  5
16
100
AcDbSymbolTableRecord
100
AcDbLinetypeTableRecord
  2
CONTINUOUS
 70
64
  3
Solid line
 72
65
 73
0
 40
0.0
  0
LTYPE
  5
1F5
100
AcDbSymbolTableRecord
100
AcDbLinetypeTableRecord
  2
CENTER
 70
64
  3
____ _ ____ _ ____ _ ____ _ ____ _ ____ _ ____
 72
65
 73
4
 40
0.6
 49
0.375
 74
0
 49
-0.075
 74
0
 49
0.075
 74
0
 49
-0.075
 74
0
  0
LTYPE
  5
1F6
100
AcDbSymbolTableRecord
100
AcDbLinetypeTableRecord
  2
HIDDEN
 70
64
  3
- - - - - - - - - - - - - - - - - - - -
 72
65
 73
2
 40
0.2
 49
0.1
 74
0
 49
-0.1
 74
0
  0
LTYPE
  5
1F7
100
AcDbSymbolTableRecord
100
AcDbLinetypeTableRecord
  2
PHANTOM
 70
64
  3
_____ _ _ _____ _ _ _____ _ _ _____
 72
65
 73
6
 40
0.8
 49
0.45
 74
0
 49
-0.05
 74
0
 49
0.1
 74
0
 49
-0.05
 74
0
 49
0.1
 74
0
 49
-0.05
 74
0
  0
LTYPE
  5
1F8
100
AcDbSymbolTableRecord
100
AcDbLinetypeTableRecord
  2
DOT
 70
64
  3
. . . . . . . . . . . . . . . . . . . .
 72
65
 73
2
 40
0.2
 49
0.1
 74
0
 49
-0.1
 74
0
  0
LTYPE
  5
1F9
100
AcDbSymbolTableRecord
100
AcDbLinetypeTableRecord
  2
DASHED
 70
64
  3
- - - - - - - - - - - - - - - - - - - -
 72
65
 73
2
 40
0.2
 49
0.1
 74
0
 49
-0.1
 74
0
  0
ENDTAB
  0
TABLE
  2
LAYER
  5
2
100
AcDbSymbolTable
 70
36
  0
LAYER
  5
10
100
AcDbSymbolTableRecord
100
AcDbLayerTableRecord
  2
0
 70
0
 62
7
  6
CONTINUOUS
370
-3
390
F
  0
LAYER
  5
1FA
100
AcDbSymbolTableRecord
100
AcDbLayerTableRecord
  2
DEFAULT_1
 70
0
 62
7
  6
CENTER
370
-3
390
F
  0
LAYER
  5
1FB
100
AcDbSymbolTableRecord
100
AcDbLayerTableRecord
  2
DEFAULT_2
 70
0
 62
7
  6
HIDDEN
370
-3
390
F
  0
LAYER
  5
1FC
100
AcDbSymbolTableRecord
100
AcDbLayerTableRecord
  2
DEFAULT_3
 70
0
 62
7
  6
PHANTOM
370
-3
390
F
  0
LAYER
  5
1FD
100
AcDbSymbolTableRecord
100
AcDbLayerTableRecord
  2
ASSI
 70
0
 62
7
  6
CONTINUOUS
370
-3
390
F
  0
LAYER
  5
1FE
100
AcDbSymbolTableRecord
100
AcDbLayerTableRecord
  2
COORDINATE
 70
0
 62
7
  6
CONTINUOUS
370
-3
390
F
  0
LAYER
  5
1FF
100
AcDbSymbolTableRecord
100
AcDbLayerTableRecord
  2
COPY_PUBLISH
 70
0
 62
7
  6
CONTINUOUS
370
-3
390
F
  0
LAYER
  5
200
100
AcDbSymbolTableRecord
100
AcDbLayerTableRecord
  2
COSMETIC
 70
0
 62
7
  6
CONTINUOUS
370
-3
390
F
  0
LAYER
  5
201
100
AcDbSymbolTableRecord
100
AcDbLayerTableRecord
  2
CURVE
 70
0
 62
7
  6
CONTINUOUS
370
-3
390
F
  0
LAYER
  5
202
100
AcDbSymbolTableRecord
100
AcDbLayerTableRecord
  2
DRAFT
 70
0
 62
7
  6
CONTINUOUS
370
-3
390
F
  0
LAYER
  5
203
100
AcDbSymbolTableRecord
100
AcDbLayerTableRecord
  2
IMPORT_IGES
 70
0
 62
7
  6
CONTINUOUS
370
-3
390
F
  0
LAYER
  5
204
100
AcDbSymbolTableRecord
100
AcDbLayerTableRecord
  2
INTFCLR_1
 70
0
 62
7
  6
CONTINUOUS
370
-3
390
F
  0
LAYER
  5
205
100
AcDbSymbolTableRecord
100
AcDbLayerTableRecord
  2
NOTE
 70
0
 62
7
  6
CONTINUOUS
370
-3
390
F
  0
LAYER
  5
206
100
AcDbSymbolTableRecord
100
AcDbLayerTableRecord
  2
PIANI
 70
0
 62
7
  6
CONTINUOUS
370
-3
390
F
  0
LAYER
  5
207
100
AcDbSymbolTableRecord
100
AcDbLayerTableRecord
  2
PUNTI
 70
0
 62
7
  6
CONTINUOUS
370
-3
390
F
  0
LAYER
  5
208
100
AcDbSymbolTableRecord
100
AcDbLayerTableRecord
  2
RACCORDO
 70
0
 62
7
  6
CONTINUOUS
370
-3
390
F
  0
LAYER
  5
209
100
AcDbSymbolTableRecord
100
AcDbLayerTableRecord
  2
SNAPLINE
 70
0
 62
7
  6
CONTINUOUS
370
-3
390
F
  0
LAYER
  5
20A
100
AcDbSymbolTableRecord
100
AcDbLayerTableRecord
  2
SUPERFICI
 70
0
 62
7
  6
CONTINUOUS
370
-3
390
F
  0
LAYER
  5
20B
100
AcDbSymbolTableRecord
100
AcDbLayerTableRecord
  2
TRASH
 70
0
 62
7
  6
CONTINUOUS
370
-3
390
F
  0
LAYER
  5
20C
100
AcDbSymbolTableRecord
100
AcDbLayerTableRecord
  2
XSEC_DATUMS
 70
0
 62
7
  6
CONTINUOUS
370
-3
390
F
  0
ENDTAB
  0
TABLE
  2
STYLE
  5
3
100
AcDbSymbolTable
 70
1
  0
STYLE
  5
11
100
AcDbSymbolTableRecord
100
AcDbTextStyleTableRecord
  2
STANDARD
 70
0
 40
0.0
 41
0.8
 50
0.0
 71
0
 42
0.2
  3
txt
  4

  0
STYLE
  5
20D
100
AcDbSymbolTableRecord
100
AcDbTextStyleTableRecord
  2
TEXTSTYLE_1
 70
0
 40
0.0
 41
0.8
 50
0.0
 71
0
 42
0.2
  3
gdt
  4

  0
ENDTAB
  0
TABLE
  2
VIEW
  5
6
100
AcDbSymbolTable
 70
0
  0
ENDTAB
  0
TABLE
  2
UCS
  5
7
100
AcDbSymbolTable
 70
0
  0
ENDTAB
  0
TABLE
  2
APPID
  5
9
100
AcDbSymbolTable
 70
1
  0
APPID
  5
20E
100
AcDbSymbolTableRecord
100
AcDbRegAppTableRecord
  2
ACAD
 70
0
  0
ENDTAB
  0
TABLE
  2
BLOCK_RECORD
  5
1
100
AcDbSymbolTable
 70
0
  0
BLOCK_RECORD
  5
20F
100
AcDbSymbolTableRecord
100
AcDbBlockTableRecord
  2
*Model_Space
  0
BLOCK_RECORD
  5
210
100
AcDbSymbolTableRecord
100
AcDbBlockTableRecord
  2
*Paper_Space
  0
BLOCK_RECORD
  5
211
100
AcDbSymbolTableRecord
100
AcDbBlockTableRecord
  2
_FILLED
  0
BLOCK_RECORD
  5
212
100
AcDbSymbolTableRecord
100
AcDbBlockTableRecord
  2
*D0
  0
BLOCK_RECORD
  5
213
100
AcDbSymbolTableRecord
100
AcDbBlockTableRecord
  2
*D1
  0
BLOCK_RECORD
  5
214
100
AcDbSymbolTableRecord
100
AcDbBlockTableRecord
  2
*D2
  0
ENDTAB
  0
TABLE
  2
DIMSTYLE
  5
A
100
AcDbSymbolTable
 70
1
100
AcDbDimStyleTable
 71
0
  0
DIMSTYLE
105
215
100
AcDbSymbolTableRecord
100
AcDbDimStyleTableRecord
  2
STANDARD
 70
0
  3

  4

 40
1.0
 41
3.0
 42
0.0625
 43
0.38
 44
0.18
 45
0.0
 46
0.0
 47
0.01
 48
0.01
140
3.0
141
0.09
142
0.0
143
25.4
144
1.0
145
0.0
146
1.0
147
0.09
 71
1.0
 72
0.0
 73
0
 74
0
 75
0
 76
0
 77
1
 78
8
170
0
171
2
172
0
173
0
174
0
175
0
176
0
177
0
178
0
270
2
271
2
272
2
273
2
274
2
275
0
280
0
281
0
282
0
283
1
284
8
285
0
286
0
287
3
288
0
340
11
341
211
342
211
343
211
344
211
  0
DIMSTYLE
105
216
100
AcDbSymbolTableRecord
100
AcDbDimStyleTableRecord
  2
DIMSTYLE_1
 70
0
  3

  4

 40
1.0
 41
3.0
 42
0.0625
 43
0.38
 44
0.18
 45
0.0
 46
0.0
 47
0.0
 48
0.0
140
3.0
141
0.09
142
0.0
143
25.4
144
1.0
145
0.0
146
1.0
147
0.09
 71
0.0
 72
0.0
 73
0
 74
0
 75
0
 76
0
 77
1
 78
8
170
0
171
2
172
0
173
0
174
0
175
0
176
0
177
0
178
0
270
2
271
2
272
2
273
2
274
2
275
0
280
0
281
0
282
0
283
1
284
8
285
0
286
0
287
3
288
0
340
11
341
211
342
211
343
211
344
211
  0
DIMSTYLE
105
217
100
AcDbSymbolTableRecord
100
AcDbDimStyleTableRecord
  2
DIMSTYLE_2
 70
0
  3

  4

 40
1.0
 41
3.0
 42
0.0625
 43
0.38
 44
0.18
 45
0.0
 46
0.0
 47
0.0
 48
0.0
140
3.0
141
0.09
142
0.0
143
25.4
144
1.0
145
0.0
146
1.0
147
0.09
 71
0.0
 72
0.0
 73
0
 74
0
 75
0
 76
0
 77
1
 78
8
170
0
171
2
172
0
173
0
174
0
175
0
176
0
177
0
178
0
270
2
271
1
272
1
273
2
274
2
275
0
280
0
281
0
282
0
283
1
284
8
285
0
286
0
287
3
288
0
340
11
341
211
342
211
343
211
344
211
  0
ENDTAB
  0
ENDSEC
  0
SECTION
  2
BLOCKS
  0
BLOCK
  5
20
100
AcDbEntity
  8
0
100
AcDbBlockBegin
  2
*Model_Space
 70
0
 10
0.0
 20
0.0
 30
0.0
  3
*Model_Space
  1

  0
ENDBLK
  5
21
100
AcDbEntity
  8
0
100
AcDbBlockEnd
  0
BLOCK
  5
1C
100
AcDbEntity
  8
0
100
AcDbBlockBegin
  2
*Paper_Space
 70
0
 10
0.0
 20
0.0
 30
0.0
  3
*Paper_Space
  1

  0
ENDBLK
  5
1D
100
AcDbEntity
  8
0
100
AcDbBlockEnd
  0
BLOCK
  5
218
100
AcDbEntity
  8
0
100
AcDbBlockBegin
  2
_FILLED
 70
64
 10
0.0
 20
0.0
  3
_FILLED
  1

  0
SOLID
  5
219
100
AcDbEntity
  8
0
  6
BYBLOCK
 62
0
100
AcDbTrace
 10
0.0
 20
0.0
 11
-1.0
 21
0.3166666667
 12
-1.0
 22
-0.3166666667
 13
-1.0
 23
-0.3166666667
  0
ENDBLK
  5
21A
100
AcDbEntity
  8
0
  6
BYBLOCK
 62
0
100
AcDbBlockEnd
  0
BLOCK
  5
21B
100
AcDbEntity
  8
0
100
AcDbBlockBegin
 62
7
  6
CONTINUOUS
  2
*D0
 70
65
 10
0.0
 20
0.0
  3
*D0
  1

  0
MTEXT
  5
21C
100
AcDbEntity
  8
0
100
AcDbMText
 62
7
  6
CONTINUOUS
  7
STANDARD
 71
2
 72
1
 10
-80.0091905974
 20
55.75
 30
0.0
 11
1.0
 21
0.0
 31
0.0
 44
0.9
  1
9,5
 40
3.0
 41
6.2142857143
  0
LINE
  5
21D
100
AcDbEntity
  8
0
100
AcDbLine
 62
7
  6
CONTINUOUS
 10
-75.2591905974
 20
36.5563828951
 11
-75.2591905974
 21
53.5
  0
LINE
  5
21E
100
AcDbEntity
  8
0
100
AcDbLine
 62
7
  6
CONTINUOUS
 10
-84.7591905974
 20
0.5
 11
-84.7591905974
 21
53.5
  0
LINE
  5
21F
100
AcDbEntity
  8
0
100
AcDbLine
 62
7
  6
CONTINUOUS
 10
-75.2591905974
 20
52.0
 11
-80.0091905974
 21
52.0
  0
LINE
  5
220
100
AcDbEntity
  8
0
100
AcDbLine
 62
7
  6
CONTINUOUS
 10
-84.7591905974
 20
52.0
 11
-80.0091905974
 21
52.0
  0
INSERT
  5
221
100
AcDbEntity
  8
0
100
AcDbBlockReference
 62
7
  6
CONTINUOUS
  2
_FILLED
 10
-75.2591905974
 20
52.0
 41
3.0
 42
3.0
 43
3.0
  0
INSERT
  5
222
100
AcDbEntity
  8
0
100
AcDbBlockReference
 62
7
  6
CONTINUOUS
  2
_FILLED
 10
-84.7591905974
 20
52.0
 41
3.0
 42
3.0
 43
3.0
 50
180.0
  0
ENDBLK
  5
223
100
AcDbEntity
  8
0
  6
BYBLOCK
 62
0
100
AcDbBlockEnd
  0
BLOCK
  5
224
100
AcDbEntity
  8
0
100
AcDbBlockBegin
 62
7
  6
CONTINUOUS
  2
*D1
 70
65
 10
0.0
 20
0.0
  3
*D1
  1

  0
MTEXT
  5
225
100
AcDbEntity
  8
0
100
AcDbMText
 62
7
  6
CONTINUOUS
  7
STANDARD
 71
2
 72
1
 10
0.0
 20
55.75
 30
0.0
 11
1.0
 21
0.0
 31
0.0
 44
0.9
  1
120
 40
3.0
 41
6.4285714286
  0
LINE
  5
226
100
AcDbEntity
  8
0
100
AcDbLine
 62
7
  6
CONTINUOUS
 10
59.9869985877
 20
4.4498766793
 11
59.9869985877
 21
53.5
  0
LINE
  5
227
100
AcDbEntity
  8
0
100
AcDbLine
 62
7
  6
CONTINUOUS
 10
-59.9869985877
 20
4.4498766793
 11
-59.9869985877
 21
53.5
  0
LINE
  5
228
100
AcDbEntity
  8
0
100
AcDbLine
 62
7
  6
CONTINUOUS
 10
59.9869985877
 20
52.0
 11
0.0
 21
52.0
  0
LINE
  5
229
100
AcDbEntity
  8
0
100
AcDbLine
 62
7
  6
CONTINUOUS
 10
-59.9869985877
 20
52.0
 11
0.0
 21
52.0
  0
INSERT
  5
22A
100
AcDbEntity
  8
0
100
AcDbBlockReference
 62
7
  6
CONTINUOUS
  2
_FILLED
 10
59.9869985877
 20
52.0
 41
3.0
 42
3.0
 43
3.0
  0
INSERT
  5
22B
100
AcDbEntity
  8
0
100
AcDbBlockReference
 62
7
  6
CONTINUOUS
  2
_FILLED
 10
-59.9869985877
 20
52.0
 41
3.0
 42
3.0
 43
3.0
 50
180.0
  0
ENDBLK
  5
22C
100
AcDbEntity
  8
0
  6
BYBLOCK
 62
0
100
AcDbBlockEnd
  0
BLOCK
  5
22D
100
AcDbEntity
  8
0
100
AcDbBlockBegin
 62
7
  6
CONTINUOUS
  2
*D2
 70
65
 10
0.0
 20
0.0
  3
*D2
  1

  0
MTEXT
  5
22E
100
AcDbEntity
  8
0
100
AcDbMText
 62
7
  6
CONTINUOUS
  7
STANDARD
 71
2
 72
1
 10
68.25
 20
-0.0
 30
0.0
 11
0.0
 21
1.0
 31
0.0
 44
0.9
  1
80
 40
3.0
 41
4.7142857143
  0
LINE
  5
22F
100
AcDbEntity
  8
0
100
AcDbLine
 62
7
  6
CONTINUOUS
 10
0.5
 20
40.0
 11
73.5
 21
40.0
  0
LINE
  5
230
100
AcDbEntity
  8
0
100
AcDbLine
 62
7
  6
CONTINUOUS
 10
0.5
 20
-40.0
 11
73.5
 21
-40.0
  0
LINE
  5
231
100
AcDbEntity
  8
0
100
AcDbLine
 62
7
  6
CONTINUOUS
 10
72.0
 20
40.0
 11
72.0
 21
-0.0
  0
LINE
  5
232
100
AcDbEntity
  8
0
100
AcDbLine
 62
7
  6
CONTINUOUS
 10
72.0
 20
-40.0
 11
72.0
 21
-0.0
  0
INSERT
  5
233
100
AcDbEntity
  8
0
100
AcDbBlockReference
 62
7
  6
CONTINUOUS
  2
_FILLED
 10
72.0
 20
40.0
 41
3.0
 42
3.0
 43
3.0
 50
90.0
  0
INSERT
  5
234
100
AcDbEntity
  8
0
100
AcDbBlockReference
 62
7
  6
CONTINUOUS
  2
_FILLED
 10
72.0
 20
-40.0
 41
3.0
 42
3.0
 43
3.0
 50
270.0
  0
ENDBLK
  5
235
100
AcDbEntity
  8
0
  6
BYBLOCK
 62
0
100
AcDbBlockEnd
  0
ENDSEC
  0
SECTION
  2
ENTITIES
  0
DIMENSION
  5
236
100
AcDbEntity
  8
0
100
AcDbDimension
 62
7
  6
CONTINUOUS
  2
*D0
 10
-84.7591905974
 20
52.0
 11
-83.1163334546
 21
54.25
 70
160
 71
2
 42
9.5
  3
DIMSTYLE_1
100
AcDbAlignedDimension
 13
-75.2591905974
 23
36.5563828951
 14
-84.7591905974
 24
0.5
 50
180.0
100
AcDbRotatedDimension
  0
DIMENSION
  5
237
100
AcDbEntity
  8
0
100
AcDbDimension
 62
7
  6
CONTINUOUS
  2
*D1
 10
-59.9869985877
 20
52.0
 11
-3.2142857143
 21
54.25
 70
160
 71
2
 42
119.9739971753
  3
DIMSTYLE_2
100
AcDbAlignedDimension
 13
59.9869985877
 23
4.4498766793
 14
-59.9869985877
 24
4.4498766793
 50
180.0
100
AcDbRotatedDimension
  0
DIMENSION
  5
238
100
AcDbEntity
  8
0
100
AcDbDimension
 62
7
  6
CONTINUOUS
  2
*D2
 10
72.0
 20
-40.0
 11
70.8061735237
 21
-2.1072778499
 70
160
 71
2
 42
80.0
  3
DIMSTYLE_1
100
AcDbAlignedDimension
 13
0.5
 23
40.0
 14
0.5
 24
-40.0
 50
270.0
100
AcDbRotatedDimension
  0
LINE
  5
239
100
AcDbEntity
  8
0
100
AcDbLine
 62
7
  6
CONTINUOUS
 10
3.326652
 20
-23.705399
 11
3.240652
 21
-23.721399
  0
LINE
  5
23A
100
AcDbEntity
  8
0
100
AcDbLine
 62
7
  6
CONTINUOUS
 10
-3.328348
 20
-24.638399
 11
-2.981348
 21
-24.638399
  0
LINE
  5
23B
100
AcDbEntity
  8
0
100
AcDbLine
 62
7
  6
CONTINUOUS
 10
-2.120348
 20
-24.638399
 11
-1.758348
 21
-24.638399
  0
LINE
  5
23C
100
AcDbEntity
  8
0
100
AcDbLine
 62
7
  6
CONTINUOUS
 10
-1.441348
 20
-24.638399
 11
-1.078348
 21
-24.638399
  0
LINE
  5
23D
100
AcDbEntity
  8
0
100
AcDbLine
 62
7
  6
CONTINUOUS
 10
-0.731348
 20
-24.638399
 11
-0.368348
 21
-24.638399
  0
LINE
  5
23E
100
AcDbEntity
  8
0
100
AcDbLine
 62
7
  6
CONTINUOUS
 10
-0.021348
 20
-24.638399
 11
0.340652
 21
-24.638399
  0
LINE
  5
23F
100
AcDbEntity
  8
0
100
AcDbLine
 62
7
  6
CONTINUOUS
 10
0.627652
 20
-24.638399
 11
0.990652
 21
-24.638399
  0
LINE
  5
240
100
AcDbEntity
  8
0
100
AcDbLine
 62
7
  6
CONTINUOUS
 10
1.790652
 20
-24.638399
 11
2.152652
 21
-24.638399
  0
LINE
  5
241
100
AcDbEntity
  8
0
100
AcDbLine
 62
7
  6
CONTINUOUS
 10
2.439652
 20
-24.638399
 11
2.802652
 21
-24.638399
  0
LINE
  5
242
100
AcDbEntity
  8
0
100
AcDbLine
 62
7
  6
CONTINUOUS
 10
3.481652
 20
-24.638399
 11
3.889652
 21
-24.638399
  0
LINE
  5
243
100
AcDbEntity
  8
0
100
AcDbLine
 62
7
  6
CONTINUOUS
 10
1.095652
 20
-24.323399
 11
1.669652
 21
-24.323399
  0
LINE
  5
244
100
AcDbEntity
  8
0
100
AcDbLine
 62
7
  6
CONTINUOUS
 10
1.564652
 20
-24.022399
 11
1.216652
 21
-24.022399
  0
LINE
  5
245
100
AcDbEntity
  8
0
100
AcDbLine
 62
7
  6
CONTINUOUS
 10
2.802652
 20
-24.022399
 11
3.119652
 21
-24.022399
  0
LINE
  5
246
100
AcDbEntity
  8
0
100
AcDbLine
 62
7
  6
CONTINUOUS
 10
3.240652
 20
-23.721399
 11
2.787652
 21
-23.721399
  0
LINE
  5
247
100
AcDbEntity
  8
0
100
AcDbLine
 62
7
  6
CONTINUOUS
 10
2.787652
 20
-23.310399
 11
3.240652
 21
-23.310399
  0
LINE
  5
248
100
AcDbEntity
  8
0
100
AcDbLine
 62
7
  6
CONTINUOUS
 10
3.285652
 20
-23.009399
 11
2.439652
 21
-23.009399
  0
LINE
  5
249
100
AcDbEntity
  8
0
100
AcDbLine
 62
7
  6
CONTINUOUS
 10
1.564652
 20
-23.009399
 11
1.201652
 21
-23.009399
  0
LINE
  5
24A
100
AcDbEntity
  8
0
100
AcDbLine
 62
7
  6
CONTINUOUS
 10
0.340652
 20
-23.009399
 11
-0.202348
 21
-23.009399
  0
LINE
  5
24B
100
AcDbEntity
  8
0
100
AcDbLine
 62
7
  6
CONTINUOUS
 10
-0.882348
 20
-23.009399
 11
-1.441348
 21
-23.009399
  0
LINE
  5
24C
100
AcDbEntity
  8
0
100
AcDbLine
 62
7
  6
CONTINUOUS
 10
-1.758348
 20
-23.009399
 11
-2.120348
 21
-23.009399
  0
LINE
  5
24D
100
AcDbEntity
  8
0
100
AcDbLine
 62
7
  6
CONTINUOUS
 10
-2.392348
 20
-23.009399
 11
-2.754348
 21
-23.009399
  0
LINE
  5
24E
100
AcDbEntity
  8
0
100
AcDbLine
 62
7
  6
CONTINUOUS
 10
-3.555348
 20
-23.009399
 11
-3.917348
 21
-23.009399
  0
LINE
  5
24F
100
AcDbEntity
  8
0
100
AcDbLine
 62
7
  6
CONTINUOUS
 10
3.473652
 20
-23.039399
 11
3.285652
 21
-23.009399
  0
LINE
  5
250
100
AcDbEntity
  8
0
100
AcDbLine
 62
7
  6
CONTINUOUS
 10
3.240652
 20
-23.310399
 11
3.326652
 21
-23.326399
  0
LINE
  5
251
100
AcDbEntity
  8
0
100
AcDbLine
 62
7
  6
CONTINUOUS
 10
3.639652
 20
-23.124399
 11
3.473652
 21
-23.039399
  0
LINE
  5
252
100
AcDbEntity
  8
0
100
AcDbLine
 62
7
  6
CONTINUOUS
 10
3.326652
 20
-23.326399
 11
3.400652
 21
-23.371399
  0
LINE
  5
253
100
AcDbEntity
  8
0
100
AcDbLine
 62
7
  6
CONTINUOUS
 10
3.763652
 20
-23.255399
 11
3.639652
 21
-23.124399
  0
LINE
  5
254
100
AcDbEntity
  8
0
100
AcDbLine
 62
7
  6
CONTINUOUS
 10
3.400652
 20
-23.371399
 11
3.449652
 21
-23.437399
  0
LINE
  5
255
100
AcDbEntity
  8
0
100
AcDbLine
 62
7
  6
CONTINUOUS
 10
3.889652
 20
-24.638399
 11
3.496652
 21
-23.981399
  0
LINE
  5
256
100
AcDbEntity
  8
0
100
AcDbLine
 62
7
  6
CONTINUOUS
 10
3.119652
 20
-24.022399
 11
3.481652
 21
-24.638399
  0
LINE
  5
257
100
AcDbEntity
  8
0
100
AcDbLine
 62
7
  6
CONTINUOUS
 10
1.669652
 20
-24.323399
 11
1.790652
 21
-24.638399
  0
LINE
  5
258
100
AcDbEntity
  8
0
100
AcDbLine
 62
7
  6
CONTINUOUS
 10
-3.917348
 20
-23.009399
 11
-3.328348
 21
-24.638399
  0
LINE
  5
259
100
AcDbEntity
  8
0
100
AcDbLine
 62
7
  6
CONTINUOUS
 10
2.152652
 20
-24.638399
 11
1.564652
 21
-23.009399
  0
LINE
  5
25A
100
AcDbEntity
  8
0
100
AcDbLine
 62
7
  6
CONTINUOUS
 10
1.382652
 20
-23.516399
 11
1.564652
 21
-24.022399
  0
LINE
  5
25B
100
AcDbEntity
  8
0
100
AcDbLine
 62
7
  6
CONTINUOUS
 10
-3.162348
 20
-24.145399
 11
-3.555348
 21
-23.009399
  0
LINE
  5
25C
100
AcDbEntity
  8
0
100
AcDbLine
 62
7
  6
CONTINUOUS
 10
-1.078348
 20
-23.570399
 11
-0.731348
 21
-24.638399
  0
LINE
  5
25D
100
AcDbEntity
  8
0
100
AcDbLine
 62
7
  6
CONTINUOUS
 10
-0.550348
 20
-24.077399
 11
-0.882348
 21
-23.009399
  0
LINE
  5
25E
100
AcDbEntity
  8
0
100
AcDbLine
 62
7
  6
CONTINUOUS
 10
-2.120348
 20
-23.009399
 11
-2.120348
 21
-24.638399
  0
LINE
  5
25F
100
AcDbEntity
  8
0
100
AcDbLine
 62
7
  6
CONTINUOUS
 10
-1.758348
 20
-24.638399
 11
-1.758348
 21
-23.009399
  0
LINE
  5
260
100
AcDbEntity
  8
0
100
AcDbLine
 62
7
  6
CONTINUOUS
 10
-1.441348
 20
-23.009399
 11
-1.441348
 21
-24.638399
  0
LINE
  5
261
100
AcDbEntity
  8
0
100
AcDbLine
 62
7
  6
CONTINUOUS
 10
-1.078348
 20
-24.638399
 11
-1.078348
 21
-23.570399
  0
LINE
  5
262
100
AcDbEntity
  8
0
100
AcDbLine
 62
7
  6
CONTINUOUS
 10
-0.021348
 20
-23.570399
 11
-0.021348
 21
-24.638399
  0
LINE
  5
263
100
AcDbEntity
  8
0
100
AcDbLine
 62
7
  6
CONTINUOUS
 10
0.340652
 20
-24.638399
 11
0.340652
 21
-23.009399
  0
LINE
  5
264
100
AcDbEntity
  8
0
100
AcDbLine
 62
7
  6
CONTINUOUS
 10
3.831652
 20
-23.416399
 11
3.763652
 21
-23.255399
  0
LINE
  5
265
100
AcDbEntity
  8
0
100
AcDbLine
 62
7
  6
CONTINUOUS
 10
3.449652
 20
-23.437399
 11
3.466652
 21
-23.516399
  0
LINE
  5
266
100
AcDbEntity
  8
0
100
AcDbLine
 62
7
  6
CONTINUOUS
 10
3.836652
 20
-23.589399
 11
3.831652
 21
-23.416399
  0
LINE
  5
267
100
AcDbEntity
  8
0
100
AcDbLine
 62
7
  6
CONTINUOUS
 10
2.439652
 20
-23.009399
 11
2.439652
 21
-24.638399
  0
LINE
  5
268
100
AcDbEntity
  8
0
100
AcDbLine
 62
7
  6
CONTINUOUS
 10
2.787652
 20
-23.721399
 11
2.787652
 21
-23.310399
  0
LINE
  5
269
100
AcDbEntity
  8
0
100
AcDbLine
 62
7
  6
CONTINUOUS
 10
2.802652
 20
-24.638399
 11
2.802652
 21
-24.022399
  0
LINE
  5
26A
100
AcDbEntity
  8
0
100
AcDbLine
 62
7
  6
CONTINUOUS
 10
-0.368348
 20
-24.638399
 11
-0.021348
 21
-23.570399
  0
LINE
  5
26B
100
AcDbEntity
  8
0
100
AcDbLine
 62
7
  6
CONTINUOUS
 10
-0.202348
 20
-23.009399
 11
-0.550348
 21
-24.077399
  0
LINE
  5
26C
100
AcDbEntity
  8
0
100
AcDbLine
 62
7
  6
CONTINUOUS
 10
-2.754348
 20
-23.009399
 11
-3.162348
 21
-24.145399
  0
LINE
  5
26D
100
AcDbEntity
  8
0
100
AcDbLine
 62
7
  6
CONTINUOUS
 10
-2.981348
 20
-24.638399
 11
-2.392348
 21
-23.009399
  0
LINE
  5
26E
100
AcDbEntity
  8
0
100
AcDbLine
 62
7
  6
CONTINUOUS
 10
3.466652
 20
-23.516399
 11
3.449652
 21
-23.594399
  0
LINE
  5
26F
100
AcDbEntity
  8
0
100
AcDbLine
 62
7
  6
CONTINUOUS
 10
1.216652
 20
-24.022399
 11
1.382652
 21
-23.516399
  0
LINE
  5
270
100
AcDbEntity
  8
0
100
AcDbLine
 62
7
  6
CONTINUOUS
 10
0.990652
 20
-24.638399
 11
1.095652
 21
-24.323399
  0
LINE
  5
271
100
AcDbEntity
  8
0
100
AcDbLine
 62
7
  6
CONTINUOUS
 10
1.201652
 20
-23.009399
 11
0.627652
 21
-24.638399
  0
LINE
  5
272
100
AcDbEntity
  8
0
100
AcDbLine
 62
7
  6
CONTINUOUS
 10
3.776652
 20
-23.753399
 11
3.836652
 21
-23.589399
  0
LINE
  5
273
100
AcDbEntity
  8
0
100
AcDbLine
 62
7
  6
CONTINUOUS
 10
3.449652
 20
-23.594399
 11
3.400652
 21
-23.661399
  0
LINE
  5
274
100
AcDbEntity
  8
0
100
AcDbLine
 62
7
  6
CONTINUOUS
 10
3.658652
 20
-23.889399
 11
3.776652
 21
-23.753399
  0
LINE
  5
275
100
AcDbEntity
  8
0
100
AcDbLine
 62
7
  6
CONTINUOUS
 10
3.400652
 20
-23.661399
 11
3.326652
 21
-23.705399
  0
LINE
  5
276
100
AcDbEntity
  8
0
100
AcDbLine
 62
7
  6
CONTINUOUS
 10
3.496652
 20
-23.981399
 11
3.658652
 21
-23.889399
  0
LINE
  5
277
100
AcDbEntity
  8
DRAFT
100
AcDbLine
 62
7
  6
CONTINUOUS
 10
-75.2591905974
 20
-40.0
 11
-82.1385133915
 21
-39.6394699694
  0
LINE
  5
278
100
AcDbEntity
  8
0
100
AcDbLine
 62
7
  6
CONTINUOUS
 10
-84.2495619234
 20
-24.638399
 11
-84.2511518807
 21
-24.638399
  0
LINE
  5
279
100
AcDbEntity
  8
0
100
AcDbLine
 62
7
  6
CONTINUOUS
 10
-84.1409641267
 20
-24.638399
 11
-84.2485419008
 21
-24.638399
  0
LINE
  5
27A
100
AcDbEntity
  8
0
100
AcDbLine
 62
7
  6
CONTINUOUS
 10
-84.2664329803
 20
-24.323399
 11
-84.2652987478
 21
-24.323399
  0
LINE
  5
27B
100
AcDbEntity
  8
0
100
AcDbLine
 62
7
  6
CONTINUOUS
 10
-84.2762435112
 20
-24.022399
 11
-84.2749020411
 21
-24.022399
  0
LINE
  5
27C
100
AcDbEntity
  8
0
100
AcDbLine
 62
7
  6
CONTINUOUS
 10
-84.2801069348
 20
-24.022399
 11
-84.2807302657
 21
-24.022399
  0
LINE
  5
27D
100
AcDbEntity
  8
0
100
AcDbLine
 62
7
  6
CONTINUOUS
 10
-84.1750186323
 20
-23.981399
 11
-84.2750896674
 21
-23.981399
  0
LINE
  5
27E
100
AcDbEntity
  8
0
100
AcDbLine
 62
7
  6
CONTINUOUS
 10
-84.1785998191
 20
-23.889399
 11
-84.2786694883
 21
-23.889399
  0
LINE
  5
27F
100
AcDbEntity
  8
0
100
AcDbLine
 62
7
  6
CONTINUOUS
 10
-84.1844599074
 20
-23.753399
 11
-84.2845277757
 21
-23.753399
  0
LINE
  5
280
100
AcDbEntity
  8
0
100
AcDbLine
 62
7
  6
CONTINUOUS
 10
-84.2887358903
 20
-23.721399
 11
-84.2906871894
 21
-23.721399
  0
LINE
  5
281
100
AcDbEntity
  8
0
100
AcDbLine
 62
7
  6
CONTINUOUS
 10
-84.191906553
 20
-23.589399
 11
-84.2919724153
 21
-23.589399
  0
LINE
  5
282
100
AcDbEntity
  8
0
100
AcDbLine
 62
7
  6
CONTINUOUS
 10
-84.2000749423
 20
-23.416399
 11
-84.300138837
 21
-23.416399
  0
LINE
  5
283
100
AcDbEntity
  8
0
100
AcDbLine
 62
7
  6
CONTINUOUS
 10
-84.3100339739
 20
-23.310399
 11
-84.3080826747
 21
-23.310399
  0
LINE
  5
284
100
AcDbEntity
  8
0
100
AcDbLine
 62
7
  6
CONTINUOUS
 10
-84.2079662192
 20
-23.255399
 11
-84.3080284201
 21
-23.255399
  0
LINE
  5
285
100
AcDbEntity
  8
0
100
AcDbLine
 62
7
  6
CONTINUOUS
 10
-84.2147042482
 20
-23.124399
 11
-84.3147652078
 21
-23.124399
  0
LINE
  5
286
100
AcDbEntity
  8
0
100
AcDbLine
 62
7
  6
CONTINUOUS
 10
-84.2194758042
 20
-23.039399
 11
-84.3195361102
 21
-23.039399
  0
LINE
  5
287
100
AcDbEntity
  8
0
100
AcDbLine
 62
7
  6
CONTINUOUS
 10
-84.2217664237
 20
-23.009399
 11
-84.3294578339
 21
-23.009399
  0
LINE
  5
288
100
AcDbEntity
  8
RACCORDO
100
AcDbLine
 62
7
  6
CONTINUOUS
 10
-75.5330438746
 20
-3.6510182698
 11
-76.9853373202
 21
-3.5239590572
  0
LINE
  5
289
100
AcDbEntity
  8
RACCORDO
100
AcDbLine
 62
7
  6
CONTINUOUS
 10
-77.2591905974
 20
-3.2251006478
 11
-77.2591905974
 21
3.2251006478
  0
LINE
  5
28A
100
AcDbEntity
  8
RACCORDO
100
AcDbLine
 62
7
  6
CONTINUOUS
 10
-76.9853373202
 20
3.5239590572
 11
-75.5330438746
 21
3.6510182698
  0
LINE
  5
28B
100
AcDbEntity
  8
RACCORDO
100
AcDbLine
 62
7
  6
CONTINUOUS
 10
-75.2591905974
 20
-39.9999999233
 11
-75.2591905974
 21
-3.9498766793
  0
LINE
  5
28C
100
AcDbEntity
  8
RACCORDO
100
AcDbLine
 62
7
  6
CONTINUOUS
 10
-75.2591905974
 20
3.9498766793
 11
-75.2591905974
 21
39.9999999233
  0
LINE
  5
28D
100
AcDbEntity
  8
DRAFT
100
AcDbLine
 62
7
  6
CONTINUOUS
 10
-75.2591905974
 20
40.0
 11
-82.1385133916
 21
39.6394699694
  0
ARC
  5
28E
100
AcDbEntity
  8
RACCORDO
100
AcDbCircle
 62
253
  6
CONTINUOUS
 10
0.0000000015
 20
1036.6058228063
 40
1076.2452636293
100
AcDbArc
 50
266.9997835741
 51
273.0002163877
  0
ARC
  5
28F
100
AcDbEntity
  8
RACCORDO
100
AcDbCircle
 62
253
  6
CONTINUOUS
 10
-0.0000000015
 20
-1036.6058228063
 40
1076.2452636292
100
AcDbArc
 50
86.9997835741
 51
93.0002163877
  0
ARC
  5
290
100
AcDbEntity
  8
0
100
AcDbCircle
 62
253
  6
CONTINUOUS
 10
-0.0000000005
 20
1037.4082862618
 40
1075.9418504529
100
AcDbArc
 50
266.9973991368
 51
273.0026008633
  0
ARC
  5
291
100
AcDbEntity
  8
0
100
AcDbCircle
 62
253
  6
CONTINUOUS
 10
0.0000000005
 20
-1037.4082862619
 40
1075.9418504529
100
AcDbArc
 50
86.9973991368
 51
93.0026008633
  0
ARC
  5
292
100
AcDbEntity
  8
RACCORDO
100
AcDbCircle
 62
7
  6
CONTINUOUS
 10
-0.0
 20
960.0
 40
1000.0
100
AcDbArc
 50
266.7573454592
 51
273.2426545408
  0
ARC
  5
293
100
AcDbEntity
  8
RACCORDO
100
AcDbCircle
 62
7
  6
CONTINUOUS
 10
0.0
 20
-960.0
 40
1000.0
100
AcDbArc
 50
86.7573454592
 51
93.2426545408
  0
ARC
  5
294
100
AcDbEntity
  8
0
100
AcDbCircle
 62
253
  6
CONTINUOUS
 10
579.0924461533
 20
0.0000000011
 40
637.6847679441
100
AcDbArc
 50
176.7784955682
 51
183.2215044319
  0
ARC
  5
295
100
AcDbEntity
  8
0
100
AcDbCircle
 62
253
  6
CONTINUOUS
 10
-579.0924461533
 20
-0.0000000011
 40
637.6847679441
100
AcDbArc
 50
356.7784955682
 51
3.2215044319
  0
ARC
  5
296
100
AcDbEntity
  8
RACCORDO
100
AcDbCircle
 62
253
  6
CONTINUOUS
 10
577.3909482577
 20
-0.0000000016
 40
637.0811820262
100
AcDbArc
 50
176.7767143399
 51
183.2232855957
  0
ARC
  5
297
100
AcDbEntity
  8
RACCORDO
100
AcDbCircle
 62
253
  6
CONTINUOUS
 10
-577.390948258
 20
0.0000000016
 40
637.0811820262
100
AcDbArc
 50
356.7767143399
 51
3.2232855957
  0
ARC
  5
298
100
AcDbEntity
  8
RACCORDO
100
AcDbCircle
 62
7
  6
CONTINUOUS
 10
540.0
 20
0.0
 40
600.0
100
AcDbArc
 50
180.3771881633
 51
183.4452066704
  0
ARC
  5
299
100
AcDbEntity
  8
RACCORDO
100
AcDbCircle
 62
7
  6
CONTINUOUS
 10
-540.0
 20
-0.0
 40
600.0
100
AcDbArc
 50
356.5547933296
 51
359.6228118367
  0
ARC
  5
29A
100
AcDbEntity
  8
RACCORDO
100
AcDbCircle
 62
7
  6
CONTINUOUS
 10
-540.0
 20
-0.0
 40
600.0
100
AcDbArc
 50
0.3771881633
 51
3.4452066704
  0
ARC
  5
29B
100
AcDbEntity
  8
RACCORDO
100
AcDbCircle
 62
7
  6
CONTINUOUS
 10
540.0
 20
0.0
 40
600.0
100
AcDbArc
 50
176.5547933296
 51
179.6228118367
  0
ARC
  5
29C
100
AcDbEntity
  8
RACCORDO
100
AcDbCircle
 62
7
  6
CONTINUOUS
 10
-540.0
 20
-0.0
 40
599.8951844414
100
AcDbArc
 50
359.6919702799
 51
0.3080297201
  0
ARC
  5
29D
100
AcDbEntity
  8
RACCORDO
100
AcDbCircle
 62
7
  6
CONTINUOUS
 10
540.0
 20
0.0
 40
599.8951844414
100
AcDbArc
 50
179.6919702799
 51
180.3080297201
  0
ARC
  5
29E
100
AcDbEntity
  8
RACCORDO
100
AcDbCircle
 62
7
  6
CONTINUOUS
 10
-56.4247423089
 20
-35.9075276452
 40
2.4952684278
100
AcDbArc
 50
183.4199177867
 51
266.7826343446
  0
ARC
  5
29F
100
AcDbEntity
  8
RACCORDO
100
AcDbCircle
 62
7
  6
CONTINUOUS
 10
56.4247423089
 20
-35.907527645
 40
2.4952684279
100
AcDbArc
 50
273.2173656549
 51
356.5800822083
  0
ARC
  5
2A0
100
AcDbEntity
  8
RACCORDO
100
AcDbCircle
 62
7
  6
CONTINUOUS
 10
56.4247423089
 20
35.9075276452
 40
2.4952683847
100
AcDbArc
 50
3.4199177864
 51
86.7826343449
  0
ARC
  5
2A1
100
AcDbEntity
  8
RACCORDO
100
AcDbCircle
 62
7
  6
CONTINUOUS
 10
-56.4247423091
 20
35.9075276452
 40
2.4952683846
100
AcDbArc
 50
93.2173656504
 51
176.5800822128
  0
ARC
  5
2A2
100
AcDbEntity
  8
0
100
AcDbCircle
 62
7
  6
CONTINUOUS
 10
415.2408094026
 20
0.0
 40
500.0
100
AcDbArc
 50
182.8244964158
 51
184.4200074591
  0
ARC
  5
2A3
100
AcDbEntity
  8
0
100
AcDbCircle
 62
7
  6
CONTINUOUS
 10
415.2408094026
 20
0.0
 40
500.0
100
AcDbArc
 50
175.5799925409
 51
182.637614422
  0
ARC
  5
2A4
100
AcDbEntity
  8
RACCORDO
100
AcDbCircle
 62
7
  6
CONTINUOUS
 10
-82.0757102445
 20
-38.4411145277
 40
1.2
100
AcDbArc
 50
184.4200074591
 51
267.0
  0
ARC
  5
2A5
100
AcDbEntity
  8
RACCORDO
100
AcDbCircle
 62
7
  6
CONTINUOUS
 10
-82.0757102445
 20
38.4411145277
 40
1.2
100
AcDbArc
 50
93.0
 51
175.5799925409
  0
ARC
  5
2A6
100
AcDbEntity
  8
RACCORDO
100
AcDbCircle
 62
7
  6
CONTINUOUS
 10
-75.5591905974
 20
-3.9498766793
 40
0.3
100
AcDbArc
 50
0.0
 51
85.0
  0
ARC
  5
2A7
100
AcDbEntity
  8
RACCORDO
100
AcDbCircle
 62
7
  6
CONTINUOUS
 10
-75.5591905974
 20
3.9498766793
 40
0.3
100
AcDbArc
 50
275.0
 51
360.0
  0
ARC
  5
2A8
100
AcDbEntity
  8
RACCORDO
100
AcDbCircle
 62
7
  6
CONTINUOUS
 10
-76.9591905974
 20
-3.2251006478
 40
0.3
100
AcDbArc
 50
180.0
 51
265.0
  0
ARC
  5
2A9
100
AcDbEntity
  8
RACCORDO
100
AcDbCircle
 62
7
  6
CONTINUOUS
 10
-76.9591905974
 20
3.2251006478
 40
0.3
100
AcDbArc
 50
95.0
 51
180.0
  0
SPLINE
  5
2AA
100
AcDbEntity
  8
RACCORDO
100
AcDbSpline
 62
7
  6
CONTINUOUS
 70
0
 71
3
 72
22
 73
18
 74
16
 42
0.0000001
 43
0.0000001
 44
0.0000000001
 12
0.0019724624
 22
0.2996174055
 32
0.0
 13
-0.1528170437
 23
0.2577235563
 33
0.0
 40
0.0
 40
0.0
 40
0.0
 40
0.0
 40
0.0985817599
 40
0.1965476251
 40
0.2924712868
 40
0.385269882
 40
0.4746839592
 40
0.5597144621
 40
0.6390809077
 40
0.7118789403
 40
0.7781204779
 40
0.8369060712
 40
0.8873661477
 40
0.9290679179
 40
0.9619458709
 40
0.9856178654
 40
1.0
 40
1.0
 40
1.0
 40
1.0
 10
59.9869985877
 20
-3.9498766793
 30
0.0
 10
59.9870634039
 20
-3.9400310755
 30
0.0
 10
59.9871416282
 20
-3.9204010042
 30
0.0
 10
59.9871045133
 20
-3.8911904337
 30
0.0
 10
59.9869130837
 20
-3.8625580548
 30
0.0
 10
59.9865697929
 20
-3.8347812548
 30
0.0
 10
59.9860776731
 20
-3.8080947962
 30
0.0
 10
59.9854407982
 20
-3.7827533108
 30
0.0
 10
59.9846675972
 20
-3.7590758924
 30
0.0
 10
59.9837668918
 20
-3.7372810349
 30
0.0
 10
59.9827478531
 20
-3.7175489444
 30
0.0
 10
59.9816189966
 20
-3.7000587658
 30
0.0
 10
59.980400275
 20
-3.6850291522
 30
0.0
 10
59.9791009046
 20
-3.6726132428
 30
0.0
 10
59.9777665378
 20
-3.6628731859
 30
0.0
 10
59.9763708121
 20
-3.6559552575
 30
0.0
 10
59.9752719224
 20
-3.6522538081
 30
0.0
 10
59.9745393107
 20
-3.6510182698
 30
0.0
 11
59.9869985877
 21
-3.9498766793
 31
0.0
 11
59.9871159198
 21
-3.9203394611
 31
0.0
 11
59.9870774838
 21
-3.8909865719
 31
0.0
 11
59.9868833755
 21
-3.8622462059
 31
0.0
 11
59.9865369179
 21
-3.8344436877
 31
0.0
 11
59.9860389962
 21
-3.8076577208
 31
0.0
 11
59.9853935777
 21
-3.7821887267
 31
0.0
 11
59.98461041
 21
-3.7584215427
 31
0.0
 11
59.9837007002
 21
-3.7366284912
 31
0.0
 11
59.9826644709
 21
-3.7168080124
 31
0.0
 11
59.981513528
 21
-3.6992320877
 31
0.0
 11
59.9802655255
 21
-3.6841646391
 31
0.0
 11
59.9789348395
 21
-3.6717408525
 31
0.0
 11
59.9775249882
 21
-3.661991241
 31
0.0
 11
59.976052541
 21
-3.6550530694
 31
0.0
 11
59.9745393107
 21
-3.6510182698
 31
0.0
  0
SPLINE
  5
2AB
100
AcDbEntity
  8
RACCORDO
100
AcDbSpline
 62
7
  6
CONTINUOUS
 70
0
 71
3
 72
22
 73
18
 74
16
 42
0.0000001
 43
0.0000001
 44
0.0000000001
 12
0.1528170437
 22
0.2577235563
 32
0.0
 13
-0.0019724624
 23
0.2996174055
 33
0.0
 40
0.0
 40
0.0
 40
0.0
 40
0.0
 40
0.0143821346
 40
0.0380541291
 40
0.0709320821
 40
0.1126338523
 40
0.1630939288
 40
0.2218795221
 40
0.2881210597
 40
0.3609190923
 40
0.4402855379
 40
0.5253160408
 40
0.614730118
 40
0.7075287132
 40
0.8034523749
 40
0.9014182401
 40
1.0
 40
1.0
 40
1.0
 40
1.0
 10
59.9745393107
 20
3.6510182698
 30
0.0
 10
59.9752719224
 20
3.6522538081
 30
0.0
 10
59.9763708121
 20
3.6559552575
 30
0.0
 10
59.9777665378
 20
3.6628731859
 30
0.0
 10
59.9791009046
 20
3.6726132428
 30
0.0
 10
59.980400275
 20
3.6850291522
 30
0.0
 10
59.9816189966
 20
3.7000587658
 30
0.0
 10
59.9827478531
 20
3.7175489444
 30
0.0
 10
59.9837668918
 20
3.7372810349
 30
0.0
 10
59.9846675972
 20
3.7590758924
 30
0.0
 10
59.9854407982
 20
3.7827533108
 30
0.0
 10
59.9860776731
 20
3.8080947962
 30
0.0
 10
59.9865697929
 20
3.8347812548
 30
0.0
 10
59.9869130837
 20
3.8625580548
 30
0.0
 10
59.9871045133
 20
3.8911904337
 30
0.0
 10
59.9871416282
 20
3.9204010042
 30
0.0
 10
59.9870634039
 20
3.9400310755
 30
0.0
 10
59.9869985877
 20
3.9498766793
 30
0.0
 11
59.9745393107
 21
3.6510182698
 31
0.0
 11
59.976052541
 21
3.6550530694
 31
0.0
 11
59.9775249882
 21
3.661991241
 31
0.0
 11
59.9789348395
 21
3.6717408525
 31
0.0
 11
59.9802655255
 21
3.6841646391
 31
0.0
 11
59.981513528
 21
3.6992320877
 31
0.0
 11
59.9826644709
 21
3.7168080124
 31
0.0
 11
59.9837007002
 21
3.7366284912
 31
0.0
 11
59.98461041
 21
3.7584215427
 31
0.0
 11
59.9853935777
 21
3.7821887267
 31
0.0
 11
59.9860389962
 21
3.8076577208
 31
0.0
 11
59.9865369179
 21
3.8344436877
 31
0.0
 11
59.9868833755
 21
3.8622462059
 31
0.0
 11
59.9870774838
 21
3.8909865719
 31
0.0
 11
59.9871159198
 21
3.9203394611
 31
0.0
 11
59.9869985877
 21
3.9498766793
 31
0.0
  0
SPLINE
  5
2AC
100
AcDbEntity
  8
RACCORDO
100
AcDbSpline
 62
7
  6
CONTINUOUS
 70
0
 71
3
 72
22
 73
18
 74
16
 42
0.0000001
 43
0.0000001
 44
0.0000000001
 12
-0.1528170437
 22
-0.2577235563
 32
0.0
 13
0.0019724624
 23
-0.2996174055
 33
0.0
 40
0.0
 40
0.0
 40
0.0
 40
0.0
 40
0.0143821346
 40
0.0380541291
 40
0.0709320821
 40
0.1126338523
 40
0.1630939288
 40
0.2218795221
 40
0.2881210597
 40
0.3609190923
 40
0.4402855379
 40
0.5253160408
 40
0.614730118
 40
0.7075287132
 40
0.8034523749
 40
0.9014182401
 40
1.0
 40
1.0
 40
1.0
 40
1.0
 10
-59.9745393107
 20
-3.6510182698
 30
0.0
 10
-59.9752719224
 20
-3.6522538081
 30
0.0
 10
-59.9763708121
 20
-3.6559552575
 30
0.0
 10
-59.9777665378
 20
-3.6628731859
 30
0.0
 10
-59.9791009046
 20
-3.6726132428
 30
0.0
 10
-59.980400275
 20
-3.6850291522
 30
0.0
 10
-59.9816189966
 20
-3.7000587658
 30
0.0
 10
-59.9827478531
 20
-3.7175489444
 30
0.0
 10
-59.9837668918
 20
-3.7372810349
 30
0.0
 10
-59.9846675972
 20
-3.7590758924
 30
0.0
 10
-59.9854407982
 20
-3.7827533108
 30
0.0
 10
-59.9860776731
 20
-3.8080947962
 30
0.0
 10
-59.9865697929
 20
-3.8347812548
 30
0.0
 10
-59.9869130837
 20
-3.8625580548
 30
0.0
 10
-59.9871045133
 20
-3.8911904337
 30
0.0
 10
-59.9871416282
 20
-3.9204010042
 30
0.0
 10
-59.9870634039
 20
-3.9400310755
 30
0.0
 10
-59.9869985877
 20
-3.9498766793
 30
0.0
 11
-59.9745393107
 21
-3.6510182698
 31
0.0
 11
-59.976052541
 21
-3.6550530694
 31
0.0
 11
-59.9775249882
 21
-3.661991241
 31
0.0
 11
-59.9789348395
 21
-3.6717408525
 31
0.0
 11
-59.9802655255
 21
-3.6841646391
 31
0.0
 11
-59.981513528
 21
-3.6992320877
 31
0.0
 11
-59.9826644709
 21
-3.7168080124
 31
0.0
 11
-59.9837007002
 21
-3.7366284912
 31
0.0
 11
-59.98461041
 21
-3.7584215427
 31
0.0
 11
-59.9853935777
 21
-3.7821887267
 31
0.0
 11
-59.9860389962
 21
-3.8076577208
 31
0.0
 11
-59.9865369179
 21
-3.8344436877
 31
0.0
 11
-59.9868833755
 21
-3.8622462059
 31
0.0
 11
-59.9870774838
 21
-3.8909865719
 31
0.0
 11
-59.9871159198
 21
-3.9203394611
 31
0.0
 11
-59.9869985877
 21
-3.9498766793
 31
0.0
  0
SPLINE
  5
2AD
100
AcDbEntity
  8
RACCORDO
100
AcDbSpline
 62
7
  6
CONTINUOUS
 70
0
 71
3
 72
22
 73
18
 74
16
 42
0.0000001
 43
0.0000001
 44
0.0000000001
 12
-0.0019724624
 22
-0.2996174055
 32
0.0
 13
0.1528170437
 23
-0.2577235563
 33
0.0
 40
0.0
 40
0.0
 40
0.0
 40
0.0
 40
0.0985817599
 40
0.1965476251
 40
0.2924712868
 40
0.385269882
 40
0.4746839592
 40
0.5597144621
 40
0.6390809077
 40
0.7118789403
 40
0.7781204779
 40
0.8369060712
 40
0.8873661477
 40
0.9290679179
 40
0.9619458709
 40
0.9856178654
 40
1.0
 40
1.0
 40
1.0
 40
1.0
 10
-59.9869985877
 20
3.9498766793
 30
0.0
 10
-59.9870634039
 20
3.9400310755
 30
0.0
 10
-59.9871416282
 20
3.9204010042
 30
0.0
 10
-59.9871045133
 20
3.8911904337
 30
0.0
 10
-59.9869130837
 20
3.8625580548
 30
0.0
 10
-59.9865697929
 20
3.8347812548
 30
0.0
 10
-59.9860776731
 20
3.8080947962
 30
0.0
 10
-59.9854407982
 20
3.7827533108
 30
0.0
 10
-59.9846675972
 20
3.7590758924
 30
0.0
 10
-59.9837668918
 20
3.7372810349
 30
0.0
 10
-59.9827478531
 20
3.7175489444
 30
0.0
 10
-59.9816189966
 20
3.7000587658
 30
0.0
 10
-59.980400275
 20
3.6850291522
 30
0.0
 10
-59.9791009046
 20
3.6726132428
 30
0.0
 10
-59.9777665378
 20
3.6628731859
 30
0.0
 10
-59.9763708121
 20
3.6559552575
 30
0.0
 10
-59.9752719224
 20
3.6522538081
 30
0.0
 10
-59.9745393107
 20
3.6510182698
 30
0.0
 11
-59.9869985877
 21
3.9498766793
 31
0.0
 11
-59.9871159198
 21
3.9203394611
 31
0.0
 11
-59.9870774838
 21
3.8909865719
 31
0.0
 11
-59.9868833755
 21
3.8622462059
 31
0.0
 11
-59.9865369179
 21
3.8344436877
 31
0.0
 11
-59.9860389962
 21
3.8076577208
 31
0.0
 11
-59.9853935777
 21
3.7821887267
 31
0.0
 11
-59.98461041
 21
3.7584215427
 31
0.0
 11
-59.9837007002
 21
3.7366284912
 31
0.0
 11
-59.9826644709
 21
3.7168080124
 31
0.0
 11
-59.981513528
 21
3.6992320877
 31
0.0
 11
-59.9802655255
 21
3.6841646391
 31
0.0
 11
-59.9789348395
 21
3.6717408525
 31
0.0
 11
-59.9775249882
 21
3.661991241
 31
0.0
 11
-59.976052541
 21
3.6550530694
 31
0.0
 11
-59.9745393107
 21
3.6510182698
 31
0.0
  0
SPLINE
  5
2AE
100
AcDbEntity
  8
RACCORDO
100
AcDbSpline
 62
7
  6
CONTINUOUS
 70
0
 71
3
 72
22
 73
18
 74
16
 42
0.0000001
 43
0.0000001
 44
0.0000000001
 12
-0.0016108373
 22
0.2996246236
 32
0.0
 13
0.152859714
 23
0.2577041282
 33
0.0
 40
0.0
 40
0.0
 40
0.0
 40
0.0
 40
0.0985803046
 40
0.1965455975
 40
0.2924693179
 40
0.3852683305
 40
0.4746828898
 40
0.5597137624
 40
0.6390803976
 40
0.7118784196
 40
0.7781197269
 40
0.8369050013
 40
0.8873648342
 40
0.9290665628
 40
0.9619447132
 40
0.9856171717
 40
1.0
 40
1.0
 40
1.0
 40
1.0
 10
59.8865151358
 20
3.2251006478
 30
0.0
 10
59.8864622036
 20
3.2349463433
 30
0.0
 10
59.8864067077
 20
3.2545766169
 30
0.0
 10
59.8864747778
 20
3.2837874231
 30
0.0
 10
59.8866937797
 20
3.3124200728
 30
0.0
 10
59.8870612038
 20
3.3401971236
 30
0.0
 10
59.8875740834
 20
3.3668837635
 30
0.0
 10
59.8882284654
 20
3.3922253297
 30
0.0
 10
59.88901608
 20
3.4159027227
 30
0.0
 10
59.8899283955
 20
3.4376974557
 30
0.0
 10
59.8909565729
 20
3.4574293448
 30
0.0
 10
59.8920924346
 20
3.4749192822
 30
0.0
 10
59.8933163538
 20
3.4899486621
 30
0.0
 10
59.8946194451
 20
3.5023643824
 30
0.0
 10
59.8959563714
 20
3.5121043066
 30
0.0
 10
59.8973537187
 20
3.5190221753
 30
0.0
 10
59.8984534092
 20
3.5227235525
 30
0.0
 10
59.8991862609
 20
3.5239590572
 30
0.0
 11
59.8865151358
 21
3.2251006478
 31
0.0
 11
59.8864320028
 21
3.2546380443
 31
0.0
 11
59.8865015446
 21
3.2839912001
 31
0.0
 11
59.8867233293
 21
3.3127318684
 31
0.0
 11
59.8870939428
 21
3.3405346694
 31
0.0
 11
59.8876127022
 21
3.3673208374
 31
0.0
 11
59.8882757162
 21
3.3927899204
 31
0.0
 11
59.8890733525
 21
3.4165570815
 31
0.0
 11
59.8899946718
 21
3.4383500105
 31
0.0
 11
59.8910400802
 21
3.4581702735
 31
0.0
 11
59.8921980616
 21
3.475745938
 31
0.0
 11
59.8934512732
 21
3.4908131369
 31
0.0
 11
59.8947856815
 21
3.5032367239
 31
0.0
 11
59.89619809
 21
3.5129861929
 31
0.0
 11
59.8976721612
 21
3.5199242841
 31
0.0
 11
59.8991862609
 21
3.5239590572
 31
0.0
  0
SPLINE
  5
2AF
100
AcDbEntity
  8
RACCORDO
100
AcDbSpline
 62
7
  6
CONTINUOUS
 70
0
 71
3
 72
22
 73
18
 74
16
 42
0.0000001
 43
0.0000001
 44
0.0000000001
 12
-0.1528597144
 22
0.2577041289
 32
0.0
 13
0.0016108373
 23
0.2996246244
 33
0.0
 40
0.0
 40
0.0
 40
0.0
 40
0.0
 40
0.0143831169
 40
0.0380512788
 40
0.0709172597
 40
0.1126188578
 40
0.1630836636
 40
0.2218663759
 40
0.2880957247
 40
0.3608912466
 40
0.4402677768
 40
0.5252985548
 40
0.6146988232
 40
0.707489454
 40
0.8034406637
 40
0.9014213275
 40
1.0
 40
1.0
 40
1.0
 40
1.0
 10
59.8991862609
 20
-3.5239590572
 30
0.0
 10
59.8984533945
 20
-3.5227235277
 30
0.0
 10
59.8973538307
 20
-3.519022534
 30
0.0
 10
59.8959567315
 20
-3.5121062593
 30
0.0
 10
59.894619883
 20
-3.5023680033
 30
0.0
 10
59.8933167431
 20
-3.4899530229
 30
0.0
 10
59.8920927311
 20
-3.4749234214
 30
0.0
 10
59.8909568764
 20
-3.457434439
 30
0.0
 10
59.8899287176
 20
-3.4377042513
 30
0.0
 10
59.8890163459
 20
-3.4159099768
 30
0.0
 10
59.8882286531
 20
-3.3922318566
 30
0.0
 10
59.8875742441
 20
-3.3668907397
 30
0.0
 10
59.8870613592
 20
-3.3402063742
 30
0.0
 10
59.8866938647
 20
-3.3124288432
 30
0.0
 10
59.8864747928
 20
-3.2837927501
 30
0.0
 10
59.8864067039
 20
-3.2545778261
 30
0.0
 10
59.8864622044
 20
-3.2349461804
 30
0.0
 10
59.8865151358
 20
-3.2251006478
 30
0.0
 11
59.8991862609
 21
-3.5239590572
 31
0.0
 11
59.8976721383
 21
-3.5199242003
 31
0.0
 11
59.8961982947
 21
-3.5129873768
 31
0.0
 11
59.8947862773
 21
-3.5032415355
 31
0.0
 11
59.8934517315
 21
-3.4908180027
 31
0.0
 11
59.8921983119
 21
-3.4757493258
 31
0.0
 11
59.8910403251
 21
-3.458174431
 31
0.0
 11
59.8899950374
 21
-3.4383577497
 31
0.0
 11
59.889073673
 21
-3.4165655723
 31
0.0
 11
59.8882758803
 21
-3.3927954499
 31
0.0
 11
59.8876128279
 21
-3.3673263961
 31
0.0
 11
59.887094103
 21
-3.3405445102
 31
0.0
 11
59.8867234588
 21
-3.3127442212
 31
0.0
 11
59.8865015652
 21
-3.2839953168
 31
0.0
 11
59.8864320029
 21
-3.2546375554
 31
0.0
 11
59.8865151358
 21
-3.2251006478
 31
0.0
  0
SPLINE
  5
2B0
100
AcDbEntity
  8
RACCORDO
100
AcDbSpline
 62
7
  6
CONTINUOUS
 70
0
 71
3
 72
22
 73
18
 74
16
 42
0.0000001
 43
0.0000001
 44
0.0000000001
 12
0.152859714
 22
-0.2577041282
 32
0.0
 13
-0.0016108373
 23
-0.2996246236
 33
0.0
 40
0.0
 40
0.0
 40
0.0
 40
0.0
 40
0.0143828283
 40
0.0380552868
 40
0.0709334372
 40
0.1126351658
 40
0.1630949987
 40
0.2218802731
 40
0.2881215804
 40
0.3609196024
 40
0.4402862376
 40
0.5253171102
 40
0.6147316695
 40
0.7075306821
 40
0.8034544025
 40
0.9014196954
 40
1.0
 40
1.0
 40
1.0
 40
1.0
 10
-59.8991862609
 20
3.5239590572
 30
0.0
 10
-59.8984534092
 20
3.5227235525
 30
0.0
 10
-59.8973537187
 20
3.5190221753
 30
0.0
 10
-59.8959563714
 20
3.5121043066
 30
0.0
 10
-59.8946194451
 20
3.5023643824
 30
0.0
 10
-59.8933163538
 20
3.4899486621
 30
0.0
 10
-59.8920924346
 20
3.4749192822
 30
0.0
 10
-59.8909565729
 20
3.4574293448
 30
0.0
 10
-59.8899283955
 20
3.4376974557
 30
0.0
 10
-59.88901608
 20
3.4159027227
 30
0.0
 10
-59.8882284654
 20
3.3922253297
 30
0.0
 10
-59.8875740834
 20
3.3668837635
 30
0.0
 10
-59.8870612038
 20
3.3401971236
 30
0.0
 10
-59.8866937797
 20
3.3124200728
 30
0.0
 10
-59.8864747778
 20
3.2837874231
 30
0.0
 10
-59.8864067077
 20
3.2545766169
 30
0.0
 10
-59.8864622036
 20
3.2349463433
 30
0.0
 10
-59.8865151358
 20
3.2251006478
 30
0.0
 11
-59.8991862609
 21
3.5239590572
 31
0.0
 11
-59.8976721612
 21
3.5199242841
 31
0.0
 11
-59.89619809
 21
3.5129861929
 31
0.0
 11
-59.8947856815
 21
3.5032367239
 31
0.0
 11
-59.8934512732
 21
3.4908131369
 31
0.0
 11
-59.8921980616
 21
3.475745938
 31
0.0
 11
-59.8910400802
 21
3.4581702735
 31
0.0
 11
-59.8899946718
 21
3.4383500105
 31
0.0
 11
-59.8890733525
 21
3.4165570815
 31
0.0
 11
-59.8882757162
 21
3.3927899204
 31
0.0
 11
-59.8876127022
 21
3.3673208374
 31
0.0
 11
-59.8870939428
 21
3.3405346694
 31
0.0
 11
-59.8867233293
 21
3.3127318684
 31
0.0
 11
-59.8865015446
 21
3.2839912001
 31
0.0
 11
-59.8864320028
 21
3.2546380443
 31
0.0
 11
-59.8865151358
 21
3.2251006478
 31
0.0
  0
SPLINE
  5
2B1
100
AcDbEntity
  8
RACCORDO
100
AcDbSpline
 62
7
  6
CONTINUOUS
 70
0
 71
3
 72
22
 73
18
 74
16
 42
0.0000001
 43
0.0000001
 44
0.0000000001
 12
0.0016108373
 22
-0.2996246244
 32
0.0
 13
-0.1528597144
 23
-0.2577041289
 33
0.0
 40
0.0
 40
0.0
 40
0.0
 40
0.0
 40
0.0985786725
 40
0.1965593363
 40
0.292510546
 40
0.3853011768
 40
0.4747014452
 40
0.5597322232
 40
0.6391087534
 40
0.7119042753
 40
0.7781336241
 40
0.8369163364
 40
0.8873811422
 40
0.9290827403
 40
0.9619487212
 40
0.9856168831
 40
1.0
 40
1.0
 40
1.0
 40
1.0
 10
-59.8865151358
 20
-3.2251006478
 30
0.0
 10
-59.8864622044
 20
-3.2349461804
 30
0.0
 10
-59.8864067039
 20
-3.2545778261
 30
0.0
 10
-59.8864747928
 20
-3.2837927501
 30
0.0
 10
-59.8866938647
 20
-3.3124288432
 30
0.0
 10
-59.8870613592
 20
-3.3402063742
 30
0.0
 10
-59.8875742441
 20
-3.3668907397
 30
0.0
 10
-59.8882286531
 20
-3.3922318566
 30
0.0
 10
-59.8890163459
 20
-3.4159099768
 30
0.0
 10
-59.8899287176
 20
-3.4377042513
 30
0.0
 10
-59.8909568764
 20
-3.457434439
 30
0.0
 10
-59.8920927311
 20
-3.4749234214
 30
0.0
 10
-59.8933167431
 20
-3.4899530229
 30
0.0
 10
-59.894619883
 20
-3.5023680033
 30
0.0
 10
-59.8959567315
 20
-3.5121062593
 30
0.0
 10
-59.8973538307
 20
-3.519022534
 30
0.0
 10
-59.8984533945
 20
-3.5227235277
 30
0.0
 10
-59.8991862609
 20
-3.5239590572
 30
0.0
 11
-59.8865151358
 21
-3.2251006478
 31
0.0
 11
-59.8864320029
 21
-3.2546375554
 31
0.0
 11
-59.8865015652
 21
-3.2839953168
 31
0.0
 11
-59.8867234588
 21
-3.3127442212
 31
0.0
 11
-59.887094103
 21
-3.3405445102
 31
0.0
 11
-59.8876128279
 21
-3.3673263961
 31
0.0
 11
-59.8882758803
 21
-3.3927954499
 31
0.0
 11
-59.889073673
 21
-3.4165655723
 31
0.0
 11
-59.8899950374
 21
-3.4383577497
 31
0.0
 11
-59.8910403251
 21
-3.458174431
 31
0.0
 11
-59.8921983119
 21
-3.4757493258
 31
0.0
 11
-59.8934517315
 21
-3.4908180027
 31
0.0
 11
-59.8947862773
 21
-3.5032415355
 31
0.0
 11
-59.8961982947
 21
-3.5129873768
 31
0.0
 11
-59.8976721383
 21
-3.5199242003
 31
0.0
 11
-59.8991862609
 21
-3.5239590572
 31
0.0
  0
LINE
  5
2B2
100
AcDbEntity
  8
RACCORDO
100
AcDbLine
 62
253
  6
CONTINUOUS
 10
-58.6823774118
 20
35.8213413168
 11
-58.9156345033
 21
36.0563828951
  0
LINE
  5
2B3
100
AcDbEntity
  8
RACCORDO
100
AcDbLine
 62
253
  6
CONTINUOUS
 10
-58.682377452
 20
-35.8213406058
 11
-58.9156345033
 21
-36.0563828951
  0
LINE
  5
2B4
100
AcDbEntity
  8
RACCORDO
100
AcDbLine
 62
253
  6
CONTINUOUS
 10
58.6823774118
 20
-35.8213413168
 11
58.9156345033
 21
-36.0563828951
  0
LINE
  5
2B5
100
AcDbEntity
  8
RACCORDO
100
AcDbLine
 62
253
  6
CONTINUOUS
 10
-56.3303856094
 20
38.1643004261
 11
-56.5647908409
 21
38.3989305068
  0
LINE
  5
2B6
100
AcDbEntity
  8
RACCORDO
100
AcDbLine
 62
253
  6
CONTINUOUS
 10
56.3303863234
 20
38.1643003886
 11
56.5647908409
 21
38.3989305068
  0
LINE
  5
2B7
100
AcDbEntity
  8
RACCORDO
100
AcDbLine
 62
253
  6
CONTINUOUS
 10
58.682377452
 20
35.8213406058
 11
58.9156345033
 21
36.0563828951
  0
LINE
  5
2B8
100
AcDbEntity
  8
RACCORDO
100
AcDbLine
 62
253
  6
CONTINUOUS
 10
56.3303856094
 20
-38.1643004261
 11
56.5647908409
 21
-38.3989305068
  0
LINE
  5
2B9
100
AcDbEntity
  8
RACCORDO
100
AcDbLine
 62
253
  6
CONTINUOUS
 10
-56.3303863234
 20
-38.1643003886
 11
-56.5647908409
 21
-38.3989305068
  0
SPLINE
  5
2BA
100
AcDbEntity
  8
0
100
AcDbSpline
 62
253
  6
CONTINUOUS
 70
0
 71
3
 72
25
 73
21
 74
19
 42
0.0000001
 43
0.0000001
 44
0.0000000001
 12
0.0515975916
 22
-1.1120972697
 32
0.0
 13
-0.8835385786
 23
-0.6773346505
 33
0.0
 40
0.0
 40
0.0
 40
0.0
 40
0.0
 40
0.0856247042
 40
0.1701701884
 40
0.2530989401
 40
0.3338839706
 40
0.4120123076
 40
0.4869883956
 40
0.5583374258
 40
0.6256085939
 40
0.6883783031
 40
0.7462533535
 40
0.7988742145
 40
0.8459185828
 40
0.887105673
 40
0.9222022882
 40
0.9510333978
 40
0.9735054481
 40
0.9896729919
 40
1.0
 40
1.0
 40
1.0
 40
1.0
 10
56.3592211342
 20
-37.0564968889
 30
0.0
 10
56.3606938104
 20
-37.0882378888
 30
0.0
 10
56.3634273765
 20
-37.1513289696
 30
0.0
 10
56.3669054067
 20
-37.2451896315
 30
0.0
 10
56.3697218101
 20
-37.3372757333
 30
0.0
 10
56.3718588445
 20
-37.426998102
 30
0.0
 10
56.373303235
 20
-37.5137827589
 30
0.0
 10
56.3740462861
 20
-37.597074544
 30
0.0
 10
56.3740839935
 20
-37.6763407001
 30
0.0
 10
56.3734171395
 20
-37.7510743371
 30
0.0
 10
56.3720514462
 20
-37.8207976469
 30
0.0
 10
56.3699976313
 20
-37.8850653643
 30
0.0
 10
56.3672720527
 20
-37.943466848
 30
0.0
 10
56.3638960153
 20
-37.9956322776
 30
0.0
 10
56.3599004957
 20
-38.0412261015
 30
0.0
 10
56.3553166714
 20
-38.0799816153
 30
0.0
 10
56.350213275
 20
-38.1116215007
 30
0.0
 10
56.3446110262
 20
-38.1361252816
 30
0.0
 10
56.3387154538
 20
-38.1531992226
 30
0.0
 10
56.3334312924
 20
-38.1619685492
 30
0.0
 10
56.3303898557
 20
-38.1643001627
 30
0.0
 11
56.3592211342
 21
-37.0564968889
 31
0.0
 11
56.3633446747
 21
-37.1517330956
 31
0.0
 11
56.36682531
 21
-37.2457926648
 31
0.0
 11
56.3696407704
 21
-37.3380737742
 31
0.0
 11
56.3717730406
 21
-37.4279859522
 31
0.0
 11
56.3732084772
 21
-37.5149538846
 31
0.0
 11
56.3739378954
 21
-37.5984210967
 31
0.0
 11
56.3739566278
 21
-37.6778535135
 31
0.0
 11
56.3732645545
 21
-37.752742877
 31
0.0
 11
56.371866104
 21
-37.8226099985
 31
0.0
 11
56.3697702244
 21
-37.8870078249
 31
0.0
 11
56.3669903263
 21
-37.9455242989
 31
0.0
 11
56.3635441974
 21
-37.9977849957
 31
0.0
 11
56.359453888
 21
-38.043455519
 31
0.0
 11
56.3547455706
 21
-38.0822436403
 31
0.0
 11
56.3494493719
 21
-38.1139011692
 31
0.0
 11
56.3435991801
 21
-38.1382255412
 31
0.0
 11
56.3372324286
 21
-38.1550611139
 31
0.0
 11
56.3303898557
 21
-38.1643001627
 31
0.0
  0
SPLINE
  5
2BB
100
AcDbEntity
  8
0
100
AcDbSpline
 62
253
  6
CONTINUOUS
 70
0
 71
3
 72
27
 73
23
 74
21
 42
0.0000001
 43
0.0000001
 44
0.0000000001
 12
1.891790133
 22
0.0992216165
 32
0.0
 13
0.1064561104
 23
1.8913968206
 33
0.0
 40
0.0
 40
0.0
 40
0.0
 40
0.0
 40
0.0503479579
 40
0.1006292353
 40
0.1507983322
 40
0.2008778688
 40
0.2508724878
 40
0.300794652
 40
0.3506567219
 40
0.4004725748
 40
0.4502569636
 40
0.500025254
 40
0.5497931153
 40
0.5995762044
 40
0.6493898478
 40
0.6992487412
 40
0.7491666864
 40
0.7991559601
 40
0.8492289666
 40
0.8993902483
 40
0.9496623989
 40
1.0
 40
1.0
 40
1.0
 40
1.0
 10
56.3592211342
 20
-37.0564968889
 30
0.0
 10
56.3909703909
 20
-37.054831687
 30
0.0
 10
56.4543298468
 20
-37.0491844207
 30
0.0
 10
56.5483858619
 20
-37.0338086288
 30
0.0
 10
56.6409068863
 20
-37.011639298
 30
0.0
 10
56.7313864074
 20
-36.9828230117
 30
0.0
 10
56.819373691
 20
-36.9475298133
 30
0.0
 10
56.9044230663
 20
-36.905961598
 30
0.0
 10
56.9861099558
 20
-36.8583465877
 30
0.0
 10
57.0640274401
 20
-36.8049392776
 30
0.0
 10
57.1377881354
 20
-36.7460186637
 30
0.0
 10
57.2070246767
 20
-36.6818871425
 30
0.0
 10
57.2713904797
 20
-36.6128694866
 30
0.0
 10
57.330560505
 20
-36.5393119548
 30
0.0
 10
57.3842321274
 20
-36.4615815039
 30
0.0
 10
57.4321261264
 20
-36.3800650075
 30
0.0
 10
57.4739877774
 20
-36.2951687664
 30
0.0
 10
57.5095885673
 20
-36.2073165895
 30
0.0
 10
57.5387261949
 20
-36.1169532543
 30
0.0
 10
57.5612301292
 20
-36.0245284657
 30
0.0
 10
57.5769529465
 20
-35.9305474822
 30
0.0
 10
57.5828391892
 20
-35.8672222781
 30
0.0
 10
57.5846254376
 20
-35.8354861518
 30
0.0
 11
56.3592211342
 21
-37.0564968889
 31
0.0
 11
56.4542228998
 21
-37.0480258613
 31
0.0
 11
56.5482271723
 21
-37.0326567296
 31
0.0
 11
56.6406502231
 21
-37.0105082888
 31
0.0
 11
56.7310459954
 21
-36.9817166652
 31
0.0
 11
56.818946821
 21
-36.9464561921
 31
0.0
 11
56.9039127615
 21
-36.9049271091
 31
0.0
 11
56.9855187
 21
-36.8573579281
 31
0.0
 11
57.0633586142
 21
-36.8040027843
 31
0.0
 11
57.137045724
 21
-36.7451403423
 31
0.0
 11
57.206213261
 21
-36.6810725843
 31
0.0
 11
57.2705151823
 21
-36.6121237957
 31
0.0
 11
57.3296269295
 21
-36.5386396876
 31
0.0
 11
57.38324628
 21
-36.46098662
 31
0.0
 11
57.4310943401
 21
-36.3795508628
 31
0.0
 11
57.4729167298
 21
-36.2947378221
 31
0.0
 11
57.5084846292
 21
-36.2069718682
 31
0.0
 11
57.5375974215
 21
-36.1166920172
 31
0.0
 11
57.5600801898
 21
-36.0243649629
 31
0.0
 11
57.5757962141
 21
-35.9304355928
 31
0.0
 11
57.5846254376
 21
-35.8354861518
 31
0.0
  0
SPLINE
  5
2BC
100
AcDbEntity
  8
0
100
AcDbSpline
 62
253
  6
CONTINUOUS
 70
0
 71
3
 72
25
 73
21
 74
19
 42
0.0000001
 43
0.0000001
 44
0.0000000001
 12
-0.0515975898
 22
-1.1120972796
 32
0.0
 13
0.8835385369
 23
-0.6773347211
 33
0.0
 40
0.0
 40
0.0
 40
0.0
 40
0.0
 40
0.0856246805
 40
0.1701701662
 40
0.2530989193
 40
0.3338839515
 40
0.4120122901
 40
0.4869883799
 40
0.5583374118
 40
0.6256085817
 40
0.6883782926
 40
0.7462533446
 40
0.7988742072
 40
0.845918577
 40
0.8871056685
 40
0.922202285
 40
0.9510333957
 40
0.9735054469
 40
0.9896729914
 40
1.0
 40
1.0
 40
1.0
 40
1.0
 10
-56.3592211354
 20
-37.0564969166
 30
0.0
 10
-56.3606938111
 20
-37.088237908
 30
0.0
 10
-56.3634273767
 20
-37.1513289811
 30
0.0
 10
-56.3669054067
 20
-37.2451896361
 30
0.0
 10
-56.3697218102
 20
-37.3372757404
 30
0.0
 10
-56.3718588448
 20
-37.4269981117
 30
0.0
 10
-56.3733032353
 20
-37.5137827712
 30
0.0
 10
-56.3740462865
 20
-37.597074559
 30
0.0
 10
-56.3740839941
 20
-37.6763407177
 30
0.0
 10
-56.3734171402
 20
-37.7510743572
 30
0.0
 10
-56.3720514471
 20
-37.8207976696
 30
0.0
 10
-56.3699976323
 20
-37.8850653893
 30
0.0
 10
-56.3672720539
 20
-37.9434668753
 30
0.0
 10
-56.3638960166
 20
-37.995632307
 30
0.0
 10
-56.3599004971
 20
-38.0412261329
 30
0.0
 10
-56.3553166729
 20
-38.0799816485
 30
0.0
 10
-56.3502132767
 20
-38.1116215354
 30
0.0
 10
-56.3446110281
 20
-38.1361253176
 30
0.0
 10
-56.3387154557
 20
-38.1531992596
 30
0.0
 10
-56.3334312945
 20
-38.1619685869
 30
0.0
 10
-56.3303898579
 20
-38.1643002007
 30
0.0
 11
-56.3592211354
 21
-37.0564969166
 31
0.0
 11
-56.3633446746
 21
-37.1517330978
 31
0.0
 11
-56.3668253101
 21
-37.2457926693
 31
0.0
 11
-56.3696407705
 21
-37.3380737813
 31
0.0
 11
-56.3717730409
 21
-37.4279859618
 31
0.0
 11
-56.3732084776
 21
-37.5149538969
 31
0.0
 11
-56.3739378958
 21
-37.5984211117
 31
0.0
 11
-56.3739566284
 21
-37.6778535311
 31
0.0
 11
-56.3732645553
 21
-37.7527428972
 31
0.0
 11
-56.3718661049
 21
-37.8226100212
 31
0.0
 11
-56.3697702254
 21
-37.88700785
 31
0.0
 11
-56.3669903275
 21
-37.9455243263
 31
0.0
 11
-56.3635441987
 21
-37.9977850252
 31
0.0
 11
-56.3594538895
 21
-38.0434555504
 31
0.0
 11
-56.3547455722
 21
-38.0822436735
 31
0.0
 11
-56.3494493736
 21
-38.113901204
 31
0.0
 11
-56.343599182
 21
-38.1382255773
 31
0.0
 11
-56.3372324306
 21
-38.1550611511
 31
0.0
 11
-56.3303898579
 21
-38.1643002007
 31
0.0
  0
SPLINE
  5
2BD
100
AcDbEntity
  8
0
100
AcDbSpline
 62
253
  6
CONTINUOUS
 70
0
 71
3
 72
25
 73
21
 74
19
 42
0.0000001
 43
0.0000001
 44
0.0000000001
 12
-1.1004107482
 22
-0.055585676
 32
0.0
 13
-0.7277511389
 23
0.8272677088
 33
0.0
 40
0.0
 40
0.0
 40
0.0
 40
0.0
 40
0.0859567963
 40
0.1707825033
 40
0.2539429812
 40
0.334914762
 40
0.4131884613
 40
0.4882720933
 40
0.5596943062
 40
0.6270075356
 40
0.6897910828
 40
0.7476541487
 40
0.800238894
 40
0.8472236824
 40
0.888326854
 40
0.9233118549
 40
0.9519958917
 40
0.9742687569
 40
0.990147244
 40
1.0
 40
1.0
 40
1.0
 40
1.0
 10
-57.5846254265
 20
-35.8354861513
 30
0.0
 10
-57.6161546874
 20
-35.8370788068
 30
0.0
 10
-57.678806898
 20
-35.8400760963
 30
0.0
 10
-57.771989711
 20
-35.8440241557
 30
0.0
 10
-57.8633637515
 20
-35.8473792629
 30
0.0
 10
-57.9523508288
 20
-35.850120433
 30
0.0
 10
-58.0383879064
 20
-35.8522306707
 30
0.0
 10
-58.1209306318
 20
-35.8536971027
 30
0.0
 10
-58.199456802
 20
-35.8545111079
 30
0.0
 10
-58.273469721
 20
-35.8546684381
 30
0.0
 10
-58.3425012828
 20
-35.85416937
 30
0.0
 10
-58.4061153666
 20
-35.8530188458
 30
0.0
 10
-58.4639095959
 20
-35.8512268881
 30
0.0
 10
-58.5155219434
 20
-35.848808657
 30
0.0
 10
-58.5606220427
 20
-35.8457867609
 30
0.0
 10
-58.5989507624
 20
-35.8421890243
 30
0.0
 10
-58.630223235
 20
-35.8380647399
 30
0.0
 10
-58.6544358863
 20
-35.8334596736
 30
0.0
 10
-58.6712181522
 20
-35.8285086592
 30
0.0
 10
-58.679987046
 20
-35.8240619169
 30
0.0
 10
-58.6823771641
 20
-35.8213449613
 30
0.0
 11
-57.5846254265
 21
-35.8354861513
 31
0.0
 11
-57.6792257378
 21
-35.8400092784
 31
0.0
 11
-57.7726042747
 21
-35.8439613617
 31
0.0
 11
-57.8641701531
 21
-35.8473173933
 31
0.0
 11
-57.9533439293
 21
-35.8500561355
 31
0.0
 11
-58.0395612974
 21
-35.8521602573
 31
0.0
 11
-58.12227666
 21
-35.8536164434
 31
0.0
 11
-58.2009665809
 21
-35.8544154789
 31
0.0
 11
-58.2751330978
 21
-35.8545523072
 31
0.0
 11
-58.3443068729
 21
-35.8540260626
 31
0.0
 11
-58.4080501635
 21
-35.8528400751
 31
0.0
 11
-58.4659595918
 21
-35.85100185
 31
0.0
 11
-58.5176686976
 21
-35.8485230198
 31
0.0
 11
-58.5628502574
 21
-35.8454192708
 31
0.0
 11
-58.601218355
 21
-35.8417102443
 31
0.0
 11
-58.632530191
 21
-35.8374194114
 31
0.0
 11
-58.6565876189
 21
-35.8325739253
 31
0.0
 11
-58.6732383996
 21
-35.827204449
 31
0.0
 11
-58.6823771641
 21
-35.8213449613
 31
0.0
  0
SPLINE
  5
2BE
100
AcDbEntity
  8
0
100
AcDbSpline
 62
253
  6
CONTINUOUS
 70
0
 71
3
 72
27
 73
23
 74
21
 42
0.0000001
 43
0.0000001
 44
0.0000000001
 12
0.1064569663
 22
-1.8913967725
 32
0.0
 13
1.891790179
 23
-0.0992207403
 33
0.0
 40
0.0
 40
0.0
 40
0.0
 40
0.0
 40
0.050337426
 40
0.1006096417
 40
0.1507709232
 40
0.2008439233
 40
0.2508332004
 40
0.3007511462
 40
0.3506100392
 40
0.4004236831
 40
0.4502067719
 40
0.4999746333
 40
0.5497429234
 40
0.5995273124
 40
0.6493431645
 40
0.6992052346
 40
0.7491273981
 40
0.7991220136
 40
0.8492015564
 40
0.8993706533
 40
0.9496518652
 40
1.0
 40
1.0
 40
1.0
 40
1.0
 10
-57.5846254265
 20
-35.8354861513
 30
0.0
 10
-57.58283917
 20
-35.8672221663
 30
0.0
 10
-57.5769529761
 20
-35.9305473038
 30
0.0
 10
-57.5612301729
 20
-36.0245282207
 30
0.0
 10
-57.538726254
 20
-36.1169530504
 30
0.0
 10
-57.5095886454
 20
-36.2073163899
 30
0.0
 10
-57.4739878721
 20
-36.2951685719
 30
0.0
 10
-57.4321262316
 20
-36.3800648208
 30
0.0
 10
-57.3842322376
 20
-36.4615813206
 30
0.0
 10
-57.3305606274
 20
-36.5393117794
 30
0.0
 10
-57.2713906159
 20
-36.6128693226
 30
0.0
 10
-57.2070248278
 20
-36.681886992
 30
0.0
 10
-57.1377883001
 20
-36.7460185279
 30
0.0
 10
-57.0640276163
 20
-36.8049391555
 30
0.0
 10
-56.9861101403
 20
-36.8583464776
 30
0.0
 10
-56.9044232545
 20
-36.9059614927
 30
0.0
 10
-56.8193738874
 20
-36.9475297186
 30
0.0
 10
-56.7313866092
 20
-36.9828229337
 30
0.0
 10
-56.6409070927
 20
-37.011639239
 30
0.0
 10
-56.5483861098
 20
-37.0338085856
 30
0.0
 10
-56.4543300272
 20
-37.0491843914
 30
0.0
 10
-56.3909705037
 20
-37.0548317067
 30
0.0
 10
-56.3592211347
 20
-37.0564968998
 30
0.0
 11
-57.5846254265
 21
-35.8354861513
 31
0.0
 11
-57.5757962544
 21
-35.9304352638
 31
0.0
 11
-57.5600802281
 21
-36.0243647587
 31
0.0
 11
-57.5375974787
 21
-36.1166918172
 31
0.0
 11
-57.5084847091
 21
-36.2069716629
 31
0.0
 11
-57.472916823
 21
-36.2947376291
 31
0.0
 11
-57.431094444
 21
-36.3795506761
 31
0.0
 11
-57.3832463916
 21
-36.460986437
 31
0.0
 11
-57.3296270518
 21
-36.5386395132
 31
0.0
 11
-57.2705153187
 21
-36.612123632
 31
0.0
 11
-57.2062134118
 21
-36.681072434
 31
0.0
 11
-57.1370458885
 21
-36.7451402062
 31
0.0
 11
-57.0633587896
 21
-36.8040026621
 31
0.0
 11
-56.9855188842
 21
-36.8573578165
 31
0.0
 11
-56.9039129496
 21
-36.9049270053
 31
0.0
 11
-56.8189470158
 21
-36.946456099
 31
0.0
 11
-56.7310462028
 21
-36.9817165854
 31
0.0
 11
-56.6406504256
 21
-37.0105082318
 31
0.0
 11
-56.5482273792
 21
-37.0326566917
 31
0.0
 11
-56.4542232323
 21
-37.0480258218
 31
0.0
 11
-56.3592211347
 21
-37.0564968998
 31
0.0
  0
SPLINE
  5
2BF
100
AcDbEntity
  8
0
100
AcDbSpline
 62
253
  6
CONTINUOUS
 70
0
 71
3
 72
25
 73
21
 74
19
 42
0.0000001
 43
0.0000001
 44
0.0000000001
 12
-1.1004107589
 22
0.0555856745
 32
0.0
 13
-0.7277512222
 23
-0.8272676496
 33
0.0
 40
0.0
 40
0.0
 40
0.0
 40
0.0
 40
0.0859567731
 40
0.1707824814
 40
0.2539429608
 40
0.3349147431
 40
0.4131884439
 40
0.4882720775
 40
0.559694292
 40
0.6270075231
 40
0.689791072
 40
0.7476541394
 40
0.8002388863
 40
0.8472236761
 40
0.8883268491
 40
0.9233118513
 40
0.9519958892
 40
0.9742687555
 40
0.9901472434
 40
1.0
 40
1.0
 40
1.0
 40
1.0
 10
-57.5846254531
 20
35.8354861524
 30
0.0
 10
-57.6161547057
 20
35.8370788074
 30
0.0
 10
-57.6788069089
 20
35.8400760965
 30
0.0
 10
-57.7719897153
 20
35.8440241556
 30
0.0
 10
-57.8633637582
 20
35.8473792629
 30
0.0
 10
-57.952350838
 20
35.8501204331
 30
0.0
 10
-58.0383879181
 20
35.8522306709
 30
0.0
 10
-58.1209306461
 20
35.8536971031
 30
0.0
 10
-58.1994568189
 20
35.8545111084
 30
0.0
 10
-58.2734697404
 20
35.8546684388
 30
0.0
 10
-58.3425013046
 20
35.8541693709
 30
0.0
 10
-58.4061153908
 20
35.8530188467
 30
0.0
 10
-58.4639096223
 20
35.8512268892
 30
0.0
 10
-58.515521972
 20
35.8488086583
 30
0.0
 10
-58.5606220732
 20
35.8457867623
 30
0.0
 10
-58.5989507947
 20
35.8421890259
 30
0.0
 10
-58.630223269
 20
35.8380647417
 30
0.0
 10
-58.6544359216
 20
35.8334596755
 30
0.0
 10
-58.6712181887
 20
35.8285086613
 30
0.0
 10
-58.6799870832
 20
35.8240619191
 30
0.0
 10
-58.6823772017
 20
35.8213449635
 30
0.0
 11
-57.5846254531
 21
35.8354861524
 31
0.0
 11
-57.6792257397
 21
35.8400092783
 31
0.0
 11
-57.772604279
 21
35.8439613617
 31
0.0
 11
-57.8641701598
 21
35.8473173933
 31
0.0
 11
-57.9533439385
 21
35.8500561357
 31
0.0
 11
-58.0395613091
 21
35.8521602576
 31
0.0
 11
-58.1222766743
 21
35.8536164438
 31
0.0
 11
-58.2009665978
 21
35.8544154794
 31
0.0
 11
-58.2751331172
 21
35.8545523079
 31
0.0
 11
-58.3443068947
 21
35.8540260634
 31
0.0
 11
-58.4080501877
 21
35.8528400761
 31
0.0
 11
-58.4659596183
 21
35.8510018511
 31
0.0
 11
-58.5176687262
 21
35.848523021
 31
0.0
 11
-58.562850288
 21
35.8454192723
 31
0.0
 11
-58.6012183874
 21
35.8417102459
 31
0.0
 11
-58.632530225
 21
35.8374194132
 31
0.0
 11
-58.6565876543
 21
35.8325739272
 31
0.0
 11
-58.6732384362
 21
35.827204451
 31
0.0
 11
-58.6823772017
 21
35.8213449635
 31
0.0
  0
SPLINE
  5
2C0
100
AcDbEntity
  8
0
100
AcDbSpline
 62
253
  6
CONTINUOUS
 70
0
 71
3
 72
25
 73
21
 74
19
 42
0.0000001
 43
0.0000001
 44
0.0000000001
 12
-0.0515975916
 22
1.1120972697
 32
0.0
 13
0.8835385786
 23
0.6773346505
 33
0.0
 40
0.0
 40
0.0
 40
0.0
 40
0.0
 40
0.0856247042
 40
0.1701701884
 40
0.2530989401
 40
0.3338839706
 40
0.4120123076
 40
0.4869883956
 40
0.5583374258
 40
0.6256085939
 40
0.6883783031
 40
0.7462533535
 40
0.7988742145
 40
0.8459185828
 40
0.887105673
 40
0.9222022882
 40
0.9510333978
 40
0.9735054481
 40
0.9896729919
 40
1.0
 40
1.0
 40
1.0
 40
1.0
 10
-56.3592211342
 20
37.0564968889
 30
0.0
 10
-56.3606938104
 20
37.0882378888
 30
0.0
 10
-56.3634273765
 20
37.1513289696
 30
0.0
 10
-56.3669054067
 20
37.2451896315
 30
0.0
 10
-56.3697218101
 20
37.3372757333
 30
0.0
 10
-56.3718588445
 20
37.426998102
 30
0.0
 10
-56.373303235
 20
37.5137827589
 30
0.0
 10
-56.3740462861
 20
37.597074544
 30
0.0
 10
-56.3740839935
 20
37.6763407001
 30
0.0
 10
-56.3734171395
 20
37.7510743371
 30
0.0
 10
-56.3720514462
 20
37.8207976469
 30
0.0
 10
-56.3699976313
 20
37.8850653643
 30
0.0
 10
-56.3672720527
 20
37.943466848
 30
0.0
 10
-56.3638960153
 20
37.9956322776
 30
0.0
 10
-56.3599004957
 20
38.0412261015
 30
0.0
 10
-56.3553166714
 20
38.0799816153
 30
0.0
 10
-56.350213275
 20
38.1116215007
 30
0.0
 10
-56.3446110262
 20
38.1361252816
 30
0.0
 10
-56.3387154538
 20
38.1531992226
 30
0.0
 10
-56.3334312924
 20
38.1619685492
 30
0.0
 10
-56.3303898557
 20
38.1643001627
 30
0.0
 11
-56.3592211342
 21
37.0564968889
 31
0.0
 11
-56.3633446747
 21
37.1517330956
 31
0.0
 11
-56.36682531
 21
37.2457926648
 31
0.0
 11
-56.3696407704
 21
37.3380737742
 31
0.0
 11
-56.3717730406
 21
37.4279859522
 31
0.0
 11
-56.3732084772
 21
37.5149538846
 31
0.0
 11
-56.3739378954
 21
37.5984210967
 31
0.0
 11
-56.3739566278
 21
37.6778535135
 31
0.0
 11
-56.3732645545
 21
37.752742877
 31
0.0
 11
-56.371866104
 21
37.8226099985
 31
0.0
 11
-56.3697702244
 21
37.8870078249
 31
0.0
 11
-56.3669903263
 21
37.9455242989
 31
0.0
 11
-56.3635441974
 21
37.9977849957
 31
0.0
 11
-56.359453888
 21
38.043455519
 31
0.0
 11
-56.3547455706
 21
38.0822436403
 31
0.0
 11
-56.3494493719
 21
38.1139011692
 31
0.0
 11
-56.3435991801
 21
38.1382255412
 31
0.0
 11
-56.3372324286
 21
38.1550611139
 31
0.0
 11
-56.3303898557
 21
38.1643001627
 31
0.0
  0
SPLINE
  5
2C1
100
AcDbEntity
  8
0
100
AcDbSpline
 62
253
  6
CONTINUOUS
 70
0
 71
3
 72
27
 73
23
 74
21
 42
0.0000001
 43
0.0000001
 44
0.0000000001
 12
-1.891790133
 22
-0.0992216165
 32
0.0
 13
-0.1064561104
 23
-1.8913968206
 33
0.0
 40
0.0
 40
0.0
 40
0.0
 40
0.0
 40
0.0503479579
 40
0.1006292353
 40
0.1507983322
 40
0.2008778688
 40
0.2508724878
 40
0.300794652
 40
0.3506567219
 40
0.4004725748
 40
0.4502569636
 40
0.500025254
 40
0.5497931153
 40
0.5995762044
 40
0.6493898478
 40
0.6992487412
 40
0.7491666864
 40
0.7991559601
 40
0.8492289666
 40
0.8993902483
 40
0.9496623989
 40
1.0
 40
1.0
 40
1.0
 40
1.0
 10
-56.3592211342
 20
37.0564968889
 30
0.0
 10
-56.3909703909
 20
37.054831687
 30
0.0
 10
-56.4543298468
 20
37.0491844207
 30
0.0
 10
-56.5483858619
 20
37.0338086288
 30
0.0
 10
-56.6409068863
 20
37.011639298
 30
0.0
 10
-56.7313864074
 20
36.9828230117
 30
0.0
 10
-56.819373691
 20
36.9475298133
 30
0.0
 10
-56.9044230663
 20
36.905961598
 30
0.0
 10
-56.9861099558
 20
36.8583465877
 30
0.0
 10
-57.0640274401
 20
36.8049392775
 30
0.0
 10
-57.1377881354
 20
36.7460186637
 30
0.0
 10
-57.2070246767
 20
36.6818871425
 30
0.0
 10
-57.2713904797
 20
36.6128694866
 30
0.0
 10
-57.330560505
 20
36.5393119548
 30
0.0
 10
-57.3842321274
 20
36.4615815039
 30
0.0
 10
-57.4321261264
 20
36.3800650075
 30
0.0
 10
-57.4739877774
 20
36.2951687664
 30
0.0
 10
-57.5095885673
 20
36.2073165895
 30
0.0
 10
-57.5387261949
 20
36.1169532543
 30
0.0
 10
-57.5612301292
 20
36.0245284657
 30
0.0
 10
-57.5769529465
 20
35.9305474822
 30
0.0
 10
-57.5828391892
 20
35.8672222781
 30
0.0
 10
-57.5846254376
 20
35.8354861518
 30
0.0
 11
-56.3592211342
 21
37.0564968889
 31
0.0
 11
-56.4542228998
 21
37.0480258613
 31
0.0
 11
-56.5482271723
 21
37.0326567296
 31
0.0
 11
-56.6406502231
 21
37.0105082888
 31
0.0
 11
-56.7310459954
 21
36.9817166652
 31
0.0
 11
-56.818946821
 21
36.9464561921
 31
0.0
 11
-56.9039127615
 21
36.9049271091
 31
0.0
 11
-56.9855187
 21
36.8573579281
 31
0.0
 11
-57.0633586142
 21
36.8040027843
 31
0.0
 11
-57.1370457241
 21
36.7451403423
 31
0.0
 11
-57.206213261
 21
36.6810725843
 31
0.0
 11
-57.2705151823
 21
36.6121237957
 31
0.0
 11
-57.3296269295
 21
36.5386396876
 31
0.0
 11
-57.38324628
 21
36.46098662
 31
0.0
 11
-57.4310943401
 21
36.3795508628
 31
0.0
 11
-57.4729167298
 21
36.2947378221
 31
0.0
 11
-57.5084846292
 21
36.2069718682
 31
0.0
 11
-57.5375974215
 21
36.1166920172
 31
0.0
 11
-57.5600801898
 21
36.0243649629
 31
0.0
 11
-57.5757962141
 21
35.9304355928
 31
0.0
 11
-57.5846254376
 21
35.8354861518
 31
0.0
  0
SPLINE
  5
2C2
100
AcDbEntity
  8
0
100
AcDbSpline
 62
253
  6
CONTINUOUS
 70
0
 71
3
 72
25
 73
21
 74
19
 42
0.0000001
 43
0.0000001
 44
0.0000000001
 12
0.0515975898
 22
1.1120972796
 32
0.0
 13
-0.8835385369
 23
0.6773347211
 33
0.0
 40
0.0
 40
0.0
 40
0.0
 40
0.0
 40
0.0856246805
 40
0.1701701662
 40
0.2530989193
 40
0.3338839515
 40
0.4120122901
 40
0.4869883799
 40
0.5583374118
 40
0.6256085817
 40
0.6883782926
 40
0.7462533446
 40
0.7988742072
 40
0.845918577
 40
0.8871056685
 40
0.922202285
 40
0.9510333957
 40
0.9735054469
 40
0.9896729914
 40
1.0
 40
1.0
 40
1.0
 40
1.0
 10
56.3592211354
 20
37.0564969166
 30
0.0
 10
56.3606938111
 20
37.088237908
 30
0.0
 10
56.3634273767
 20
37.1513289811
 30
0.0
 10
56.3669054067
 20
37.2451896361
 30
0.0
 10
56.3697218102
 20
37.3372757404
 30
0.0
 10
56.3718588448
 20
37.4269981117
 30
0.0
 10
56.3733032353
 20
37.5137827712
 30
0.0
 10
56.3740462865
 20
37.597074559
 30
0.0
 10
56.3740839941
 20
37.6763407177
 30
0.0
 10
56.3734171402
 20
37.7510743572
 30
0.0
 10
56.3720514471
 20
37.8207976696
 30
0.0
 10
56.3699976323
 20
37.8850653893
 30
0.0
 10
56.3672720539
 20
37.9434668753
 30
0.0
 10
56.3638960166
 20
37.995632307
 30
0.0
 10
56.3599004971
 20
38.0412261329
 30
0.0
 10
56.3553166729
 20
38.0799816485
 30
0.0
 10
56.3502132767
 20
38.1116215354
 30
0.0
 10
56.3446110281
 20
38.1361253176
 30
0.0
 10
56.3387154557
 20
38.1531992596
 30
0.0
 10
56.3334312945
 20
38.1619685869
 30
0.0
 10
56.3303898579
 20
38.1643002007
 30
0.0
 11
56.3592211354
 21
37.0564969166
 31
0.0
 11
56.3633446746
 21
37.1517330978
 31
0.0
 11
56.3668253101
 21
37.2457926693
 31
0.0
 11
56.3696407705
 21
37.3380737813
 31
0.0
 11
56.3717730409
 21
37.4279859618
 31
0.0
 11
56.3732084776
 21
37.5149538969
 31
0.0
 11
56.3739378958
 21
37.5984211117
 31
0.0
 11
56.3739566284
 21
37.6778535311
 31
0.0
 11
56.3732645553
 21
37.7527428972
 31
0.0
 11
56.3718661049
 21
37.8226100212
 31
0.0
 11
56.3697702254
 21
37.88700785
 31
0.0
 11
56.3669903275
 21
37.9455243263
 31
0.0
 11
56.3635441987
 21
37.9977850252
 31
0.0
 11
56.3594538895
 21
38.0434555504
 31
0.0
 11
56.3547455722
 21
38.0822436735
 31
0.0
 11
56.3494493736
 21
38.113901204
 31
0.0
 11
56.343599182
 21
38.1382255773
 31
0.0
 11
56.3372324306
 21
38.1550611511
 31
0.0
 11
56.3303898579
 21
38.1643002007
 31
0.0
  0
SPLINE
  5
2C3
100
AcDbEntity
  8
0
100
AcDbSpline
 62
253
  6
CONTINUOUS
 70
0
 71
3
 72
25
 73
21
 74
19
 42
0.0000001
 43
0.0000001
 44
0.0000000001
 12
1.1004107482
 22
0.055585676
 32
0.0
 13
0.7277511389
 23
-0.8272677088
 33
0.0
 40
0.0
 40
0.0
 40
0.0
 40
0.0
 40
0.0859567963
 40
0.1707825033
 40
0.2539429812
 40
0.334914762
 40
0.4131884613
 40
0.4882720933
 40
0.5596943062
 40
0.6270075356
 40
0.6897910828
 40
0.7476541487
 40
0.800238894
 40
0.8472236824
 40
0.888326854
 40
0.9233118549
 40
0.9519958917
 40
0.9742687569
 40
0.990147244
 40
1.0
 40
1.0
 40
1.0
 40
1.0
 10
57.5846254265
 20
35.8354861513
 30
0.0
 10
57.6161546874
 20
35.8370788068
 30
0.0
 10
57.678806898
 20
35.8400760963
 30
0.0
 10
57.771989711
 20
35.8440241557
 30
0.0
 10
57.8633637515
 20
35.8473792629
 30
0.0
 10
57.9523508288
 20
35.850120433
 30
0.0
 10
58.0383879064
 20
35.8522306707
 30
0.0
 10
58.1209306318
 20
35.8536971027
 30
0.0
 10
58.199456802
 20
35.8545111079
 30
0.0
 10
58.273469721
 20
35.8546684381
 30
0.0
 10
58.3425012828
 20
35.85416937
 30
0.0
 10
58.4061153666
 20
35.8530188458
 30
0.0
 10
58.4639095959
 20
35.8512268881
 30
0.0
 10
58.5155219434
 20
35.848808657
 30
0.0
 10
58.5606220427
 20
35.8457867609
 30
0.0
 10
58.5989507624
 20
35.8421890243
 30
0.0
 10
58.630223235
 20
35.8380647399
 30
0.0
 10
58.6544358863
 20
35.8334596736
 30
0.0
 10
58.6712181522
 20
35.8285086592
 30
0.0
 10
58.679987046
 20
35.8240619169
 30
0.0
 10
58.6823771641
 20
35.8213449613
 30
0.0
 11
57.5846254265
 21
35.8354861513
 31
0.0
 11
57.6792257378
 21
35.8400092784
 31
0.0
 11
57.7726042747
 21
35.8439613617
 31
0.0
 11
57.8641701531
 21
35.8473173933
 31
0.0
 11
57.9533439293
 21
35.8500561355
 31
0.0
 11
58.0395612974
 21
35.8521602573
 31
0.0
 11
58.12227666
 21
35.8536164434
 31
0.0
 11
58.2009665809
 21
35.8544154789
 31
0.0
 11
58.2751330978
 21
35.8545523072
 31
0.0
 11
58.3443068729
 21
35.8540260626
 31
0.0
 11
58.4080501635
 21
35.8528400751
 31
0.0
 11
58.4659595918
 21
35.85100185
 31
0.0
 11
58.5176686976
 21
35.8485230198
 31
0.0
 11
58.5628502574
 21
35.8454192708
 31
0.0
 11
58.601218355
 21
35.8417102443
 31
0.0
 11
58.632530191
 21
35.8374194114
 31
0.0
 11
58.6565876189
 21
35.8325739253
 31
0.0
 11
58.6732383996
 21
35.827204449
 31
0.0
 11
58.6823771641
 21
35.8213449613
 31
0.0
  0
SPLINE
  5
2C4
100
AcDbEntity
  8
0
100
AcDbSpline
 62
253
  6
CONTINUOUS
 70
0
 71
3
 72
27
 73
23
 74
21
 42
0.0000001
 43
0.0000001
 44
0.0000000001
 12
-0.1064569663
 22
1.8913967725
 32
0.0
 13
-1.891790179
 23
0.0992207403
 33
0.0
 40
0.0
 40
0.0
 40
0.0
 40
0.0
 40
0.050337426
 40
0.1006096417
 40
0.1507709232
 40
0.2008439233
 40
0.2508332004
 40
0.3007511462
 40
0.3506100392
 40
0.4004236831
 40
0.4502067719
 40
0.4999746333
 40
0.5497429234
 40
0.5995273124
 40
0.6493431645
 40
0.6992052346
 40
0.7491273981
 40
0.7991220136
 40
0.8492015564
 40
0.8993706533
 40
0.9496518652
 40
1.0
 40
1.0
 40
1.0
 40
1.0
 10
57.5846254265
 20
35.8354861513
 30
0.0
 10
57.58283917
 20
35.8672221663
 30
0.0
 10
57.5769529761
 20
35.9305473038
 30
0.0
 10
57.5612301729
 20
36.0245282207
 30
0.0
 10
57.538726254
 20
36.1169530504
 30
0.0
 10
57.5095886454
 20
36.2073163899
 30
0.0
 10
57.4739878721
 20
36.2951685719
 30
0.0
 10
57.4321262316
 20
36.3800648208
 30
0.0
 10
57.3842322376
 20
36.4615813206
 30
0.0
 10
57.3305606274
 20
36.5393117794
 30
0.0
 10
57.2713906159
 20
36.6128693226
 30
0.0
 10
57.2070248278
 20
36.681886992
 30
0.0
 10
57.1377883001
 20
36.7460185279
 30
0.0
 10
57.0640276163
 20
36.8049391555
 30
0.0
 10
56.9861101403
 20
36.8583464776
 30
0.0
 10
56.9044232545
 20
36.9059614927
 30
0.0
 10
56.8193738874
 20
36.9475297186
 30
0.0
 10
56.7313866092
 20
36.9828229337
 30
0.0
 10
56.6409070927
 20
37.011639239
 30
0.0
 10
56.5483861098
 20
37.0338085856
 30
0.0
 10
56.4543300272
 20
37.0491843914
 30
0.0
 10
56.3909705037
 20
37.0548317067
 30
0.0
 10
56.3592211347
 20
37.0564968998
 30
0.0
 11
57.5846254265
 21
35.8354861513
 31
0.0
 11
57.5757962544
 21
35.9304352638
 31
0.0
 11
57.5600802281
 21
36.0243647587
 31
0.0
 11
57.5375974787
 21
36.1166918172
 31
0.0
 11
57.5084847091
 21
36.2069716629
 31
0.0
 11
57.472916823
 21
36.2947376291
 31
0.0
 11
57.431094444
 21
36.3795506761
 31
0.0
 11
57.3832463916
 21
36.460986437
 31
0.0
 11
57.3296270518
 21
36.5386395132
 31
0.0
 11
57.2705153187
 21
36.612123632
 31
0.0
 11
57.2062134118
 21
36.681072434
 31
0.0
 11
57.1370458885
 21
36.7451402062
 31
0.0
 11
57.0633587896
 21
36.8040026621
 31
0.0
 11
56.9855188842
 21
36.8573578165
 31
0.0
 11
56.9039129496
 21
36.9049270053
 31
0.0
 11
56.8189470158
 21
36.946456099
 31
0.0
 11
56.7310462028
 21
36.9817165854
 31
0.0
 11
56.6406504256
 21
37.0105082318
 31
0.0
 11
56.5482273792
 21
37.0326566917
 31
0.0
 11
56.4542232323
 21
37.0480258218
 31
0.0
 11
56.3592211347
 21
37.0564968998
 31
0.0
  0
SPLINE
  5
2C5
100
AcDbEntity
  8
0
100
AcDbSpline
 62
253
  6
CONTINUOUS
 70
0
 71
3
 72
25
 73
21
 74
19
 42
0.0000001
 43
0.0000001
 44
0.0000000001
 12
1.1004107589
 22
-0.0555856745
 32
0.0
 13
0.7277512222
 23
0.8272676496
 33
0.0
 40
0.0
 40
0.0
 40
0.0
 40
0.0
 40
0.0859567731
 40
0.1707824814
 40
0.2539429608
 40
0.3349147431
 40
0.4131884439
 40
0.4882720775
 40
0.559694292
 40
0.6270075231
 40
0.689791072
 40
0.7476541394
 40
0.8002388863
 40
0.8472236761
 40
0.8883268491
 40
0.9233118513
 40
0.9519958892
 40
0.9742687555
 40
0.9901472434
 40
1.0
 40
1.0
 40
1.0
 40
1.0
 10
57.5846254531
 20
-35.8354861524
 30
0.0
 10
57.6161547057
 20
-35.8370788074
 30
0.0
 10
57.6788069089
 20
-35.8400760965
 30
0.0
 10
57.7719897153
 20
-35.8440241556
 30
0.0
 10
57.8633637582
 20
-35.8473792629
 30
0.0
 10
57.952350838
 20
-35.8501204331
 30
0.0
 10
58.0383879181
 20
-35.8522306709
 30
0.0
 10
58.1209306461
 20
-35.8536971031
 30
0.0
 10
58.1994568189
 20
-35.8545111084
 30
0.0
 10
58.2734697404
 20
-35.8546684388
 30
0.0
 10
58.3425013046
 20
-35.8541693709
 30
0.0
 10
58.4061153908
 20
-35.8530188467
 30
0.0
 10
58.4639096223
 20
-35.8512268892
 30
0.0
 10
58.515521972
 20
-35.8488086583
 30
0.0
 10
58.5606220732
 20
-35.8457867623
 30
0.0
 10
58.5989507947
 20
-35.8421890259
 30
0.0
 10
58.630223269
 20
-35.8380647417
 30
0.0
 10
58.6544359216
 20
-35.8334596755
 30
0.0
 10
58.6712181887
 20
-35.8285086613
 30
0.0
 10
58.6799870832
 20
-35.8240619191
 30
0.0
 10
58.6823772017
 20
-35.8213449635
 30
0.0
 11
57.5846254531
 21
-35.8354861524
 31
0.0
 11
57.6792257397
 21
-35.8400092783
 31
0.0
 11
57.772604279
 21
-35.8439613617
 31
0.0
 11
57.8641701598
 21
-35.8473173933
 31
0.0
 11
57.9533439385
 21
-35.8500561357
 31
0.0
 11
58.0395613091
 21
-35.8521602576
 31
0.0
 11
58.1222766743
 21
-35.8536164438
 31
0.0
 11
58.2009665978
 21
-35.8544154794
 31
0.0
 11
58.2751331172
 21
-35.8545523079
 31
0.0
 11
58.3443068947
 21
-35.8540260634
 31
0.0
 11
58.4080501877
 21
-35.8528400761
 31
0.0
 11
58.4659596183
 21
-35.8510018511
 31
0.0
 11
58.5176687262
 21
-35.848523021
 31
0.0
 11
58.562850288
 21
-35.8454192723
 31
0.0
 11
58.6012183874
 21
-35.8417102459
 31
0.0
 11
58.632530225
 21
-35.8374194132
 31
0.0
 11
58.6565876543
 21
-35.8325739272
 31
0.0
 11
58.6732384362
 21
-35.8272044511
 31
0.0
 11
58.6823772017
 21
-35.8213449635
 31
0.0
  0
SPLINE
  5
2C6
100
AcDbEntity
  8
RACCORDO
100
AcDbSpline
 62
253
  6
CONTINUOUS
 70
0
 71
3
 72
30
 73
26
 74
24
 42
0.0000001
 43
0.0000001
 44
0.0000000001
 12
0.2145338425
 22
-3.6259544659
 32
0.0
 13
3.6267140111
 23
-0.2012859646
 33
0.0
 40
0.0
 40
0.0
 40
0.0
 40
0.0
 40
0.0435699685
 40
0.0871135258
 40
0.1306343657
 40
0.1741333051
 40
0.2176121104
 40
0.2610731513
 40
0.3045189405
 40
0.3479522285
 40
0.3913758488
 40
0.4347929555
 40
0.4782066814
 40
0.5216203441
 40
0.5650371132
 40
0.608460266
 40
0.6518928541
 40
0.6953379146
 40
0.7387981289
 40
0.7822760576
 40
0.8257739692
 40
0.8692939706
 40
0.9128375226
 40
0.9564052395
 40
1.0
 40
1.0
 40
1.0
 40
1.0
 10
-58.6823774632
 20
-35.8213406171
 30
0.0
 10
-58.679261719
 20
-35.8740015244
 30
0.0
 10
-58.6696993024
 20
-35.979124794
 30
0.0
 10
-58.6454216537
 20
-36.1355196707
 30
0.0
 10
-58.6113190018
 20
-36.2899884639
 30
0.0
 10
-58.5675351058
 20
-36.4419135124
 30
0.0
 10
-58.5142514063
 20
-36.5906963919
 30
0.0
 10
-58.4516856223
 20
-36.7357503192
 30
0.0
 10
-58.3800907244
 20
-36.8765050225
 30
0.0
 10
-58.2997540668
 20
-37.0124072809
 30
0.0
 10
-58.2109960755
 20
-37.1429233931
 30
0.0
 10
-58.11416907
 20
-37.2675407661
 30
0.0
 10
-58.0096557692
 20
-37.3857698774
 30
0.0
 10
-57.8978681532
 20
-37.497145607
 30
0.0
 10
-57.7792458124
 20
-37.6012290738
 30
0.0
 10
-57.6542546734
 20
-37.6976089372
 30
0.0
 10
-57.5233851784
 20
-37.7859030799
 30
0.0
 10
-57.3871509646
 20
-37.8657597824
 30
0.0
 10
-57.2460869083
 20
-37.9368592495
 30
0.0
 10
-57.1007475614
 20
-37.9989148154
 30
0.0
 10
-56.9517046669
 20
-38.0516743009
 30
0.0
 10
-56.7995466204
 20
-38.0949209247
 30
0.0
 10
-56.6448733991
 20
-38.1284743937
 30
0.0
 10
-56.4883048461
 20
-38.1521922082
 30
0.0
 10
-56.383088243
 20
-38.1613753941
 30
0.0
 10
-56.3303863334
 20
-38.1643003985
 30
0.0
 11
-58.6823774632
 21
-35.8213406171
 31
0.0
 11
-58.6680386152
 21
-35.9789487027
 31
0.0
 11
-58.6437764575
 21
-36.1352397881
 31
0.0
 11
-58.609695723
 21
-36.2896028797
 31
0.0
 11
-58.5659406327
 21
-36.441424514
 31
0.0
 11
-58.512692596
 21
-36.5901049036
 31
0.0
 11
-58.4501690486
 21
-36.7350588312
 31
0.0
 11
-58.3786228731
 21
-36.875716188
 31
0.0
 11
-58.2983411677
 21
-37.0115243824
 31
0.0
 11
-58.2096443099
 21
-37.1419498651
 31
0.0
 11
-58.1128841569
 21
-37.2664807809
 31
0.0
 11
-58.0084433142
 21
-37.384627781
 31
0.0
 11
-57.8967331979
 21
-37.4959263911
 31
0.0
 11
-57.7781932905
 21
-37.5999378321
 31
0.0
 11
-57.6532888648
 21
-37.6962513198
 31
0.0
 11
-57.5225101899
 21
-37.7844848392
 31
0.0
 11
-57.3863701613
 21
-37.8642871231
 31
0.0
 11
-57.2454034973
 21
-37.9353384198
 31
0.0
 11
-57.1001641001
 21
-37.9973523169
 31
0.0
 11
-56.9512235873
 21
-38.0500766993
 31
0.0
 11
-56.7991687604
 21
-38.0932950657
 31
0.0
 11
-56.644601133
 21
-38.1268271132
 31
0.0
 11
-56.4881354981
 21
-38.1505300174
 31
0.0
 11
-56.3303863334
 21
-38.1643003985
 31
0.0
  0
SPLINE
  5
2C7
100
AcDbEntity
  8
RACCORDO
100
AcDbSpline
 62
253
  6
CONTINUOUS
 70
0
 71
3
 72
30
 73
26
 74
24
 42
0.0000001
 43
0.0000001
 44
0.0000000001
 12
-3.6267140113
 22
-0.2012860069
 32
0.0
 13
-0.2145337699
 23
-3.6259544727
 33
0.0
 40
0.0
 40
0.0
 40
0.0
 40
0.0
 40
0.0435951245
 40
0.0871628125
 40
0.1307063851
 40
0.1742263815
 40
0.2177242951
 40
0.2612022274
 40
0.3046624464
 40
0.3481075096
 40
0.3915401004
 40
0.4349632557
 40
0.4783800267
 40
0.5217936897
 40
0.5652074147
 40
0.6086245199
 40
0.6520481386
 40
0.6954814248
 40
0.7389272101
 40
0.7823882482
 40
0.825867053
 40
0.8693659985
 40
0.9128868181
 40
0.9564304023
 40
1.0
 40
1.0
 40
1.0
 40
1.0
 10
-56.3303856214
 20
38.1643004381
 30
0.0
 10
-56.383087971
 20
38.1613754086
 30
0.0
 10
-56.4883049813
 20
38.1521922092
 30
0.0
 10
-56.6448739547
 20
38.1284742886
 30
0.0
 10
-56.7995471532
 20
38.0949207903
 30
0.0
 10
-56.9517052104
 20
38.0516741257
 30
0.0
 10
-57.1007480937
 20
37.9989146061
 30
0.0
 10
-57.2460874379
 20
37.9368590019
 30
0.0
 10
-57.3871514895
 20
37.8657594952
 30
0.0
 10
-57.5233856946
 20
37.7859027536
 30
0.0
 10
-57.654255176
 20
37.6976085734
 30
0.0
 10
-57.7792462978
 20
37.6012286735
 30
0.0
 10
-57.8978686168
 20
37.497145173
 30
0.0
 10
-58.0096562059
 20
37.3857694139
 30
0.0
 10
-58.1141694752
 20
37.2675402779
 30
0.0
 10
-58.2109964464
 20
37.1429228843
 30
0.0
 10
-58.2997544018
 20
37.0124067547
 30
0.0
 10
-58.3800910212
 20
36.876504484
 30
0.0
 10
-58.4516858803
 20
36.7357497724
 30
0.0
 10
-58.5142516261
 20
36.5906958381
 30
0.0
 10
-58.5675352915
 20
36.4419129425
 30
0.0
 10
-58.6113191458
 20
36.2899879006
 30
0.0
 10
-58.6454217667
 20
36.1355190845
 30
0.0
 10
-58.6696993038
 20
35.9791246373
 30
0.0
 10
-58.6792617045
 20
35.8740017854
 30
0.0
 10
-58.6823774212
 20
35.8213413262
 30
0.0
 11
-56.3303856214
 21
38.1643004381
 31
0.0
 11
-56.4881361033
 21
38.1505299433
 31
0.0
 11
-56.6446016294
 21
38.1268270205
 31
0.0
 11
-56.7991693227
 21
38.0932949231
 31
0.0
 11
-56.9512241226
 21
38.0500765269
 31
0.0
 11
-57.10016463
 21
37.9973521084
 31
0.0
 11
-57.2454040254
 21
37.9353381724
 31
0.0
 11
-57.3863706878
 21
37.8642868348
 31
0.0
 11
-57.5225107056
 21
37.7844845129
 31
0.0
 11
-57.6532893672
 21
37.6962509558
 31
0.0
 11
-57.778193776
 21
37.5999374315
 31
0.0
 11
-57.8967336624
 21
37.4959259562
 31
0.0
 11
-58.0084437518
 21
37.3846273166
 31
0.0
 11
-58.1128845623
 21
37.2664802926
 31
0.0
 11
-58.2096446808
 21
37.1419493565
 31
0.0
 11
-58.2983415026
 21
37.0115238565
 31
0.0
 11
-58.3786231712
 21
36.8757156477
 31
0.0
 11
-58.450169306
 21
36.735058286
 31
0.0
 11
-58.5126928148
 21
36.5901043527
 31
0.0
 11
-58.5659408156
 21
36.4414239521
 31
0.0
 11
-58.6096958757
 21
36.2896022859
 31
0.0
 11
-58.6437765582
 21
36.1352392586
 31
0.0
 11
-58.6680386947
 21
35.9789480703
 31
0.0
 11
-58.6823774212
 21
35.8213413262
 31
0.0
  0
SPLINE
  5
2C8
100
AcDbEntity
  8
RACCORDO
100
AcDbSpline
 62
253
  6
CONTINUOUS
 70
0
 71
3
 72
30
 73
26
 74
24
 42
0.0000001
 43
0.0000001
 44
0.0000000001
 12
-0.2145338425
 22
3.6259544659
 32
0.0
 13
-3.6267140111
 23
0.2012859646
 33
0.0
 40
0.0
 40
0.0
 40
0.0
 40
0.0
 40
0.0435699685
 40
0.0871135258
 40
0.1306343657
 40
0.1741333051
 40
0.2176121104
 40
0.2610731513
 40
0.3045189405
 40
0.3479522285
 40
0.3913758488
 40
0.4347929555
 40
0.4782066814
 40
0.5216203441
 40
0.5650371132
 40
0.608460266
 40
0.6518928541
 40
0.6953379146
 40
0.7387981289
 40
0.7822760576
 40
0.8257739692
 40
0.8692939706
 40
0.9128375226
 40
0.9564052395
 40
1.0
 40
1.0
 40
1.0
 40
1.0
 10
58.6823774632
 20
35.8213406171
 30
0.0
 10
58.679261719
 20
35.8740015244
 30
0.0
 10
58.6696993024
 20
35.979124794
 30
0.0
 10
58.6454216537
 20
36.1355196707
 30
0.0
 10
58.6113190018
 20
36.2899884639
 30
0.0
 10
58.5675351058
 20
36.4419135124
 30
0.0
 10
58.5142514063
 20
36.5906963919
 30
0.0
 10
58.4516856223
 20
36.7357503192
 30
0.0
 10
58.3800907244
 20
36.8765050225
 30
0.0
 10
58.2997540668
 20
37.0124072809
 30
0.0
 10
58.2109960755
 20
37.1429233931
 30
0.0
 10
58.11416907
 20
37.2675407661
 30
0.0
 10
58.0096557692
 20
37.3857698774
 30
0.0
 10
57.8978681532
 20
37.497145607
 30
0.0
 10
57.7792458124
 20
37.6012290738
 30
0.0
 10
57.6542546734
 20
37.6976089372
 30
0.0
 10
57.5233851784
 20
37.7859030799
 30
0.0
 10
57.3871509646
 20
37.8657597824
 30
0.0
 10
57.2460869083
 20
37.9368592495
 30
0.0
 10
57.1007475614
 20
37.9989148154
 30
0.0
 10
56.9517046669
 20
38.0516743009
 30
0.0
 10
56.7995466204
 20
38.0949209247
 30
0.0
 10
56.6448733991
 20
38.1284743937
 30
0.0
 10
56.4883048461
 20
38.1521922082
 30
0.0
 10
56.383088243
 20
38.1613753941
 30
0.0
 10
56.3303863334
 20
38.1643003985
 30
0.0
 11
58.6823774632
 21
35.8213406171
 31
0.0
 11
58.6680386152
 21
35.9789487027
 31
0.0
 11
58.6437764575
 21
36.1352397881
 31
0.0
 11
58.609695723
 21
36.2896028797
 31
0.0
 11
58.5659406327
 21
36.441424514
 31
0.0
 11
58.512692596
 21
36.5901049036
 31
0.0
 11
58.4501690486
 21
36.7350588312
 31
0.0
 11
58.3786228731
 21
36.875716188
 31
0.0
 11
58.2983411677
 21
37.0115243824
 31
0.0
 11
58.2096443099
 21
37.1419498651
 31
0.0
 11
58.1128841569
 21
37.2664807809
 31
0.0
 11
58.0084433142
 21
37.384627781
 31
0.0
 11
57.8967331979
 21
37.4959263911
 31
0.0
 11
57.7781932905
 21
37.5999378321
 31
0.0
 11
57.6532888648
 21
37.6962513198
 31
0.0
 11
57.5225101899
 21
37.7844848392
 31
0.0
 11
57.3863701613
 21
37.8642871231
 31
0.0
 11
57.2454034973
 21
37.9353384198
 31
0.0
 11
57.1001641001
 21
37.9973523169
 31
0.0
 11
56.9512235873
 21
38.0500766993
 31
0.0
 11
56.7991687604
 21
38.0932950657
 31
0.0
 11
56.644601133
 21
38.1268271132
 31
0.0
 11
56.4881354981
 21
38.1505300174
 31
0.0
 11
56.3303863334
 21
38.1643003985
 31
0.0
  0
SPLINE
  5
2C9
100
AcDbEntity
  8
RACCORDO
100
AcDbSpline
 62
253
  6
CONTINUOUS
 70
0
 71
3
 72
30
 73
26
 74
24
 42
0.0000001
 43
0.0000001
 44
0.0000000001
 12
3.6267140113
 22
0.2012860069
 32
0.0
 13
0.2145337699
 23
3.6259544727
 33
0.0
 40
0.0
 40
0.0
 40
0.0
 40
0.0
 40
0.0435951245
 40
0.0871628125
 40
0.1307063851
 40
0.1742263815
 40
0.2177242951
 40
0.2612022274
 40
0.3046624464
 40
0.3481075096
 40
0.3915401004
 40
0.4349632557
 40
0.4783800267
 40
0.5217936897
 40
0.5652074147
 40
0.6086245199
 40
0.6520481386
 40
0.6954814248
 40
0.7389272101
 40
0.7823882482
 40
0.825867053
 40
0.8693659985
 40
0.9128868181
 40
0.9564304023
 40
1.0
 40
1.0
 40
1.0
 40
1.0
 10
56.3303856214
 20
-38.1643004381
 30
0.0
 10
56.383087971
 20
-38.1613754086
 30
0.0
 10
56.4883049813
 20
-38.1521922092
 30
0.0
 10
56.6448739547
 20
-38.1284742886
 30
0.0
 10
56.7995471532
 20
-38.0949207903
 30
0.0
 10
56.9517052104
 20
-38.0516741257
 30
0.0
 10
57.1007480937
 20
-37.9989146061
 30
0.0
 10
57.2460874379
 20
-37.9368590019
 30
0.0
 10
57.3871514895
 20
-37.8657594952
 30
0.0
 10
57.5233856946
 20
-37.7859027536
 30
0.0
 10
57.654255176
 20
-37.6976085734
 30
0.0
 10
57.7792462978
 20
-37.6012286735
 30
0.0
 10
57.8978686168
 20
-37.497145173
 30
0.0
 10
58.0096562059
 20
-37.3857694139
 30
0.0
 10
58.1141694752
 20
-37.2675402779
 30
0.0
 10
58.2109964464
 20
-37.1429228843
 30
0.0
 10
58.2997544018
 20
-37.0124067547
 30
0.0
 10
58.3800910212
 20
-36.876504484
 30
0.0
 10
58.4516858803
 20
-36.7357497724
 30
0.0
 10
58.5142516261
 20
-36.5906958381
 30
0.0
 10
58.5675352915
 20
-36.4419129425
 30
0.0
 10
58.6113191458
 20
-36.2899879006
 30
0.0
 10
58.6454217667
 20
-36.1355190845
 30
0.0
 10
58.6696993038
 20
-35.9791246373
 30
0.0
 10
58.6792617045
 20
-35.8740017854
 30
0.0
 10
58.6823774212
 20
-35.8213413262
 30
0.0
 11
56.3303856214
 21
-38.1643004381
 31
0.0
 11
56.4881361033
 21
-38.1505299433
 31
0.0
 11
56.6446016294
 21
-38.1268270205
 31
0.0
 11
56.7991693227
 21
-38.0932949231
 31
0.0
 11
56.9512241226
 21
-38.0500765269
 31
0.0
 11
57.10016463
 21
-37.9973521084
 31
0.0
 11
57.2454040254
 21
-37.9353381724
 31
0.0
 11
57.3863706878
 21
-37.8642868348
 31
0.0
 11
57.5225107056
 21
-37.7844845129
 31
0.0
 11
57.6532893672
 21
-37.6962509558
 31
0.0
 11
57.778193776
 21
-37.5999374315
 31
0.0
 11
57.8967336624
 21
-37.4959259562
 31
0.0
 11
58.0084437518
 21
-37.3846273166
 31
0.0
 11
58.1128845623
 21
-37.2664802926
 31
0.0
 11
58.2096446808
 21
-37.1419493565
 31
0.0
 11
58.2983415026
 21
-37.0115238565
 31
0.0
 11
58.3786231712
 21
-36.8757156477
 31
0.0
 11
58.450169306
 21
-36.735058286
 31
0.0
 11
58.5126928148
 21
-36.5901043527
 31
0.0
 11
58.5659408156
 21
-36.4414239521
 31
0.0
 11
58.6096958757
 21
-36.2896022859
 31
0.0
 11
58.6437765582
 21
-36.1352392586
 31
0.0
 11
58.6680386947
 21
-35.9789480703
 31
0.0
 11
58.6823774212
 21
-35.8213413262
 31
0.0
  0
LINE
  5
2CA
100
AcDbEntity
  8
0
100
AcDbLine
 62
7
  6
CONTINUOUS
 10
-84.3080826747
 20
-23.310399
 11
-84.3069322884
 21
-23.326399
  0
LINE
  5
2CB
100
AcDbEntity
  8
0
100
AcDbLine
 62
7
  6
CONTINUOUS
 10
-84.3069322884
 20
-23.326399
 11
-84.3044733876
 21
-23.371399
  0
LINE
  5
2CC
100
AcDbEntity
  8
0
100
AcDbLine
 62
7
  6
CONTINUOUS
 10
-84.3044733876
 20
-23.371399
 11
-84.3011415195
 21
-23.437399
  0
LINE
  5
2CD
100
AcDbEntity
  8
0
100
AcDbLine
 62
7
  6
CONTINUOUS
 10
-84.3011415195
 20
-23.437399
 11
-84.2973449611
 21
-23.516399
  0
LINE
  5
2CE
100
AcDbEntity
  8
0
100
AcDbLine
 62
7
  6
CONTINUOUS
 10
-84.2973449611
 20
-23.516399
 11
-84.2937511425
 21
-23.594399
  0
LINE
  5
2CF
100
AcDbEntity
  8
0
100
AcDbLine
 62
7
  6
CONTINUOUS
 10
-84.2937511425
 20
-23.594399
 11
-84.2908220816
 21
-23.661399
  0
LINE
  5
2D0
100
AcDbEntity
  8
0
100
AcDbLine
 62
7
  6
CONTINUOUS
 10
-84.2908220816
 20
-23.661399
 11
-84.2890918231
 21
-23.705399
  0
LINE
  5
2D1
100
AcDbEntity
  8
0
100
AcDbLine
 62
7
  6
CONTINUOUS
 10
-84.2890918231
 20
-23.705399
 11
-84.2887358903
 21
-23.721399
  0
SPLINE
  5
2D2
100
AcDbEntity
  8
0
100
AcDbSpline
 62
7
  6
CONTINUOUS
 70
0
 71
3
 72
10
 73
6
 74
4
 42
0.0000001
 43
0.0000001
 44
0.0000000001
 12
0.0312376306
 22
-0.6160242235
 32
0.0
 13
0.0321836953
 23
-0.6159755216
 33
0.0
 40
0.0
 40
0.0
 40
0.0
 40
0.0
 40
0.3333297449
 40
0.6666630708
 40
1.0
 40
1.0
 40
1.0
 40
1.0
 10
-84.2749020411
 20
-24.022399
 30
0.0
 10
-84.2714312306
 20
-24.0908453991
 30
0.0
 10
-84.2644545305
 20
-24.2277371584
 30
0.0
 10
-84.2538843034
 20
-24.4330705177
 30
0.0
 10
-84.2467673696
 20
-24.5699565371
 30
0.0
 10
-84.2431913649
 20
-24.638399
 30
0.0
 11
-84.2749020411
 21
-24.022399
 31
0.0
 11
-84.2644370482
 21
-24.2277355252
 31
0.0
 11
-84.2538668222
 21
-24.4330688719
 31
0.0
 11
-84.2431913649
 21
-24.638399
 31
0.0
  0
LINE
  5
2D3
100
AcDbEntity
  8
0
100
AcDbLine
 62
7
  6
CONTINUOUS
 10
-84.325287706
 20
-23.009399
 11
-84.311330998
 21
-23.3104594432
  0
LINE
  5
2D4
100
AcDbEntity
  8
0
100
AcDbLine
 62
7
  6
CONTINUOUS
 10
-84.311330998
 20
-23.3104594432
 11
-84.310579062
 21
-23.3265689444
  0
LINE
  5
2D5
100
AcDbEntity
  8
0
100
AcDbLine
 62
7
  6
CONTINUOUS
 10
-84.310579062
 20
-23.3265689444
 11
-84.3084826925
 21
-23.3714228784
  0
LINE
  5
2D6
100
AcDbEntity
  8
0
100
AcDbLine
 62
7
  6
CONTINUOUS
 10
-84.3084826925
 20
-23.3714228784
 11
-84.3053824435
 21
-23.4375981713
  0
LINE
  5
2D7
100
AcDbEntity
  8
0
100
AcDbLine
 62
7
  6
CONTINUOUS
 10
-84.3053824435
 20
-23.4375981713
 11
-84.3016696818
 21
-23.5166021076
  0
LINE
  5
2D8
100
AcDbEntity
  8
0
100
AcDbLine
 62
7
  6
CONTINUOUS
 10
-84.3016696818
 20
-23.5166021076
 11
-84.2979919314
 21
-23.5945997044
  0
LINE
  5
2D9
100
AcDbEntity
  8
0
100
AcDbLine
 62
7
  6
CONTINUOUS
 10
-84.2979919314
 20
-23.5945997044
 11
-84.2948235338
 21
-23.6615883781
  0
LINE
  5
2DA
100
AcDbEntity
  8
0
100
AcDbLine
 62
7
  6
CONTINUOUS
 10
-84.2948235338
 20
-23.6615883781
 11
-84.2927383425
 21
-23.7055715804
  0
LINE
  5
2DB
100
AcDbEntity
  8
0
100
AcDbLine
 62
7
  6
CONTINUOUS
 10
-84.2927383425
 20
-23.7055715804
 11
-84.2919797439
 21
-23.7215525231
  0
LINE
  5
2DC
100
AcDbEntity
  8
0
100
AcDbLine
 62
7
  6
CONTINUOUS
 10
-84.2919797439
 20
-23.7215525231
 11
-84.277600139
 21
-24.0224641909
  0
LINE
  5
2DD
100
AcDbEntity
  8
0
100
AcDbLine
 62
7
  6
CONTINUOUS
 10
-84.277600139
 20
-24.0224641909
 11
-84.2476001194
 21
-24.638399
  0
LINE
  5
2DE
100
AcDbEntity
  8
0
100
AcDbLine
 62
7
  6
CONTINUOUS
 10
-84.3285089198
 20
-23.009399
 11
-84.3147191915
 21
-23.3106147276
  0
LINE
  5
2DF
100
AcDbEntity
  8
0
100
AcDbLine
 62
7
  6
CONTINUOUS
 10
-84.3147191915
 20
-23.3106147276
 11
-84.3139761562
 21
-23.3267233299
  0
LINE
  5
2E0
100
AcDbEntity
  8
0
100
AcDbLine
 62
7
  6
CONTINUOUS
 10
-84.3139761562
 20
-23.3267233299
 11
-84.3119114533
 21
-23.3714206533
  0
LINE
  5
2E1
100
AcDbEntity
  8
0
100
AcDbLine
 62
7
  6
CONTINUOUS
 10
-84.3119114533
 20
-23.3714206533
 11
-84.3088391635
 21
-23.4377564733
  0
LINE
  5
2E2
100
AcDbEntity
  8
0
100
AcDbLine
 62
7
  6
CONTINUOUS
 10
-84.3088391635
 20
-23.4377564733
 11
-84.305167539
 21
-23.5167622762
  0
LINE
  5
2E3
100
AcDbEntity
  8
0
100
AcDbLine
 62
7
  6
CONTINUOUS
 10
-84.2813348864
 20
-24.0226414769
 11
-84.2668998363
 21
-24.3234216024
  0
LINE
  5
2E4
100
AcDbEntity
  8
0
100
AcDbLine
 62
7
  6
CONTINUOUS
 10
-84.2652987478
 20
-24.323399
 11
-84.2495619234
 21
-24.638399
  0
LINE
  5
2E5
100
AcDbEntity
  8
0
100
AcDbLine
 62
7
  6
CONTINUOUS
 10
-84.2947105169
 20
-23.7216870685
 11
-84.2801069348
 21
-24.022399
  0
LINE
  5
2E6
100
AcDbEntity
  8
0
100
AcDbLine
 62
7
  6
CONTINUOUS
 10
-84.267206048
 20
-24.3234367094
 11
-84.2817606526
 21
-24.022664118
  0
LINE
  5
2E7
100
AcDbEntity
  8
0
100
AcDbLine
 62
7
  6
CONTINUOUS
 10
-84.2817606526
 20
-24.022664118
 11
-84.2961405211
 21
-23.7217494413
  0
LINE
  5
2E8
100
AcDbEntity
  8
0
100
AcDbLine
 62
7
  6
CONTINUOUS
 10
-84.2961405211
 20
-23.7217494413
 11
-84.296899126
 21
-23.7057684989
  0
LINE
  5
2E9
100
AcDbEntity
  8
0
100
AcDbLine
 62
7
  6
CONTINUOUS
 10
-84.296899126
 20
-23.7057684989
 11
-84.2989843346
 21
-23.6617852975
  0
LINE
  5
2EA
100
AcDbEntity
  8
0
100
AcDbLine
 62
7
  6
CONTINUOUS
 10
-84.2989843346
 20
-23.6617852975
 11
-84.3021527586
 21
-23.594796625
  0
LINE
  5
2EB
100
AcDbEntity
  8
0
100
AcDbLine
 62
7
  6
CONTINUOUS
 10
-84.3021527586
 20
-23.594796625
 11
-84.3058306107
 21
-23.5167975224
  0
LINE
  5
2EC
100
AcDbEntity
  8
0
100
AcDbLine
 62
7
  6
CONTINUOUS
 10
-84.3058306107
 20
-23.5167975224
 11
-84.3095434033
 21
-23.4377935874
  0
LINE
  5
2ED
100
AcDbEntity
  8
0
100
AcDbLine
 62
7
  6
CONTINUOUS
 10
-84.3095434033
 20
-23.4377935874
 11
-84.3126360032
 21
-23.3717823507
  0
LINE
  5
2EE
100
AcDbEntity
  8
0
100
AcDbLine
 62
7
  6
CONTINUOUS
 10
-84.3126360032
 20
-23.3717823507
 11
-84.3147401356
 21
-23.3267628552
  0
LINE
  5
2EF
100
AcDbEntity
  8
0
100
AcDbLine
 62
7
  6
CONTINUOUS
 10
-84.3147401356
 20
-23.3267628552
 11
-84.3154920779
 21
-23.3106533544
  0
LINE
  5
2F0
100
AcDbEntity
  8
0
100
AcDbLine
 62
7
  6
CONTINUOUS
 10
-84.3154920779
 20
-23.3106533544
 11
-84.3294578339
 21
-23.009399
  0
LINE
  5
2F1
100
AcDbEntity
  8
0
100
AcDbLine
 62
7
  6
CONTINUOUS
 10
-84.191906553
 20
-23.589399
 11
-84.1844599074
 21
-23.753399
  0
LINE
  5
2F2
100
AcDbEntity
  8
0
100
AcDbLine
 62
7
  6
CONTINUOUS
 10
-84.1844599074
 20
-23.753399
 11
-84.1785998191
 21
-23.889399
  0
LINE
  5
2F3
100
AcDbEntity
  8
0
100
AcDbLine
 62
7
  6
CONTINUOUS
 10
-84.1785998191
 20
-23.889399
 11
-84.1750186323
 21
-23.981399
  0
SPLINE
  5
2F4
100
AcDbEntity
  8
0
100
AcDbSpline
 62
7
  6
CONTINUOUS
 70
0
 71
3
 72
10
 73
6
 74
4
 42
0.0000001
 43
0.0000001
 44
0.0000000001
 12
0.0335124356
 22
-0.6570279395
 32
0.0
 13
0.0345965409
 23
-0.6569717467
 33
0.0
 40
0.0
 40
0.0
 40
0.0
 40
0.0
 40
0.3333289426
 40
0.6666622668
 40
1.0
 40
1.0
 40
1.0
 40
1.0
 10
-84.1750186323
 20
-23.981399
 30
0.0
 10
-84.1712950774
 20
-24.0544011428
 30
0.0
 10
-84.1638077634
 20
-24.2004043431
 30
0.0
 10
-84.1524562595
 20
-24.4194043751
 30
0.0
 10
-84.1448082375
 20
-24.5654011757
 30
0.0
 10
-84.1409641267
 20
-24.638399
 30
0.0
 11
-84.1750186323
 21
-23.981399
 31
0.0
 11
-84.1637877365
 21
-24.2004023479
 31
0.0
 11
-84.1524362341
 21
-24.419402364
 31
0.0
 11
-84.1409641267
 21
-24.638399
 31
0.0
  0
LINE
  5
2F5
100
AcDbEntity
  8
0
100
AcDbLine
 62
7
  6
CONTINUOUS
 10
-84.2906871894
 20
-23.721399
 11
-84.2914413983
 21
-23.7055104612
  0
LINE
  5
2F6
100
AcDbEntity
  8
0
100
AcDbLine
 62
7
  6
CONTINUOUS
 10
-84.2914413983
 20
-23.7055104612
 11
-84.2928535239
 21
-23.6757331912
  0
LINE
  5
2F7
100
AcDbEntity
  8
0
100
AcDbLine
 62
7
  6
CONTINUOUS
 10
-84.2928535239
 20
-23.6757331912
 11
-84.2935265941
 21
-23.6615270513
  0
LINE
  5
2F8
100
AcDbEntity
  8
0
100
AcDbLine
 62
7
  6
CONTINUOUS
 10
-84.2935265941
 20
-23.6615270513
 11
-84.2966949959
 21
-23.5945381138
  0
LINE
  5
2F9
100
AcDbEntity
  8
0
100
AcDbLine
 62
7
  6
CONTINUOUS
 10
-84.2966949959
 20
-23.5945381138
 11
-84.2971736741
 21
-23.5844009292
  0
LINE
  5
2FA
100
AcDbEntity
  8
0
100
AcDbLine
 62
7
  6
CONTINUOUS
 10
-84.2971736741
 20
-23.5844009292
 11
-84.3003726894
 21
-23.5165415226
  0
LINE
  5
2FB
100
AcDbEntity
  8
0
100
AcDbLine
 62
7
  6
CONTINUOUS
 10
-84.3003726894
 20
-23.5165415226
 11
-84.3036226024
 21
-23.4474009256
  0
LINE
  5
2FC
100
AcDbEntity
  8
0
100
AcDbLine
 62
7
  6
CONTINUOUS
 10
-84.3036226024
 20
-23.4474009256
 11
-84.304085467
 21
-23.4375370396
  0
LINE
  5
2FD
100
AcDbEntity
  8
0
100
AcDbLine
 62
7
  6
CONTINUOUS
 10
-84.304085467
 20
-23.4375370396
 11
-84.3071780438
 21
-23.3715255716
  0
LINE
  5
2FE
100
AcDbEntity
  8
0
100
AcDbLine
 62
7
  6
CONTINUOUS
 10
-84.3071780438
 20
-23.3715255716
 11
-84.3079010231
 21
-23.3560665221
  0
LINE
  5
2FF
100
AcDbEntity
  8
0
100
AcDbLine
 62
7
  6
CONTINUOUS
 10
-84.3079010231
 20
-23.3560665221
 11
-84.3092820283
 21
-23.3265087471
  0
LINE
  5
300
100
AcDbEntity
  8
0
100
AcDbLine
 62
7
  6
CONTINUOUS
 10
-84.3092820283
 20
-23.3265087471
 11
-84.3100339739
 21
-23.310399
  0
LINE
  5
301
100
AcDbEntity
  8
RACCORDO
100
AcDbLine
 62
253
  6
CONTINUOUS
 10
-79.9815645422
 20
-38.1643004261
 11
-75.2591905974
 21
-38.3989305068
  0
SPLINE
  5
302
100
AcDbEntity
  8
RACCORDO
100
AcDbSpline
 62
253
  6
CONTINUOUS
 70
0
 71
3
 72
30
 73
26
 74
24
 42
0.0000001
 43
0.0000001
 44
0.0000000001
 12
0.7154280929
 22
2.2317997009
 32
0.0
 13
-0.0298260083
 23
2.3434755536
 33
0.0
 40
0.0
 40
0.0
 40
0.0
 40
0.0
 40
0.0059905148
 40
0.0161634717
 40
0.0305075299
 40
0.0489722074
 40
0.0714852901
 40
0.0979569287
 40
0.1282810828
 40
0.1623365529
 40
0.1999876172
 40
0.2410849195
 40
0.2854658632
 40
0.3329554929
 40
0.3833668507
 40
0.4365019733
 40
0.4921522507
 40
0.5500994447
 40
0.6101160378
 40
0.6719663789
 40
0.7354073267
 40
0.800189287
 40
0.8660563838
 40
0.9327470575
 40
1.0
 40
1.0
 40
1.0
 40
1.0
 10
-79.9815643004
 20
-38.1643004381
 30
0.0
 10
-79.9801357062
 20
-38.1598438951
 30
0.0
 10
-79.9782678922
 20
-38.1472718194
 30
0.0
 10
-79.9757951059
 20
-38.1236113533
 30
0.0
 10
-79.9735646184
 20
-38.0900801026
 30
0.0
 10
-79.9714054959
 20
-38.0469237946
 30
0.0
 10
-79.969441804
 20
-37.9942629506
 30
0.0
 10
-79.9676548885
 20
-37.9323316109
 30
0.0
 10
-79.9660689832
 20
-37.8613735509
 30
0.0
 10
-79.9646886637
 20
-37.7816767742
 30
0.0
 10
-79.9635220928
 20
-37.6935594395
 30
0.0
 10
-79.9625741759
 20
-37.5973726699
 30
0.0
 10
-79.9618491425
 20
-37.4934976727
 30
0.0
 10
-79.9613499527
 20
-37.3823449506
 30
0.0
 10
-79.9610785965
 20
-37.2643524793
 30
0.0
 10
-79.9610360766
 20
-37.1399844402
 30
0.0
 10
-79.9612224612
 20
-37.009729377
 30
0.0
 10
-79.9616368995
 20
-36.8740988662
 30
0.0
 10
-79.9622776571
 20
-36.7336255643
 30
0.0
 10
-79.9631420842
 20
-36.5888615459
 30
0.0
 10
-79.9642267843
 20
-36.4403761034
 30
0.0
 10
-79.9655271973
 20
-36.288754301
 30
0.0
 10
-79.9670387579
 20
-36.1345955775
 30
0.0
 10
-79.9687541645
 20
-35.9785084874
 30
0.0
 10
-79.9700273377
 20
-35.8738765351
 30
0.0
 10
-79.9706959666
 20
-35.8213413262
 30
0.0
 11
-79.9815643004
 21
-38.1643004381
 31
0.0
 11
-79.978827809
 21
-38.1505299433
 31
0.0
 11
-79.9762562863
 21
-38.1268270205
 31
0.0
 11
-79.9738591361
 21
-38.0932949231
 31
0.0
 11
-79.9716459925
 21
-38.0500765269
 31
0.0
 11
-79.9696251596
 21
-37.9973521084
 31
0.0
 11
-79.9678043057
 21
-37.9353381724
 31
0.0
 11
-79.9661902162
 21
-37.8642868348
 31
0.0
 11
-79.964788851
 21
-37.7844845129
 31
0.0
 11
-79.9636053116
 21
-37.6962509558
 31
0.0
 11
-79.9626438316
 21
-37.5999374315
 31
0.0
 11
-79.961907777
 21
-37.4959259562
 31
0.0
 11
-79.9613996374
 21
-37.3846273166
 31
0.0
 11
-79.9611210291
 21
-37.2664802926
 31
0.0
 11
-79.9610726925
 21
-37.1419493565
 31
0.0
 11
-79.9612544967
 21
-37.0115238565
 31
0.0
 11
-79.9616654439
 21
-36.8757156477
 31
0.0
 11
-79.9623036756
 21
-36.735058286
 31
0.0
 11
-79.9631664772
 21
-36.5901043527
 31
0.0
 11
-79.96425031
 21
-36.4414239521
 31
0.0
 11
-79.9655507522
 21
-36.2896022859
 31
0.0
 11
-79.9670627393
 21
-36.1352392586
 31
0.0
 11
-79.9687798907
 21
-35.9789480703
 31
0.0
 11
-79.9706959666
 21
-35.8213413262
 31
0.0
  0
SPLINE
  5
303
100
AcDbEntity
  8
RACCORDO
100
AcDbSpline
 62
253
  6
CONTINUOUS
 70
0
 71
3
 72
30
 73
26
 74
24
 42
0.0000001
 43
0.0000001
 44
0.0000000001
 12
0.0298313984
 22
2.3434761585
 32
0.0
 13
-0.7153381014
 23
2.2318292539
 33
0.0
 40
0.0
 40
0.0
 40
0.0
 40
0.0
 40
0.0672534954
 40
0.1339441062
 40
0.1998112114
 40
0.2645931395
 40
0.3280340644
 40
0.3898843852
 40
0.4499009591
 40
0.5078481302
 40
0.5634983843
 40
0.6166334829
 40
0.6670448161
 40
0.7145344195
 40
0.7589153358
 40
0.8000126106
 40
0.837663648
 40
0.8717190921
 40
0.90204322
 40
0.9285148344
 40
0.9510278952
 40
0.9694925547
 40
0.9838365878
 40
0.9940095334
 40
1.0
 40
1.0
 40
1.0
 40
1.0
 10
-79.9706959741
 20
35.8213406171
 30
0.0
 10
-79.9700272188
 20
35.8738762715
 30
0.0
 10
-79.9687542704
 20
35.9785086394
 30
0.0
 10
-79.9670387473
 20
36.1345961624
 30
0.0
 10
-79.9655272279
 20
36.2887548629
 30
0.0
 10
-79.9642268004
 20
36.4403766722
 30
0.0
 10
-79.9631421047
 20
36.5888620986
 30
0.0
 10
-79.9622776748
 20
36.7336261097
 30
0.0
 10
-79.9616369158
 20
36.8740994033
 30
0.0
 10
-79.9612224748
 20
37.009729902
 30
0.0
 10
-79.9610360869
 20
37.1399849478
 30
0.0
 10
-79.9610786029
 20
37.2643529664
 30
0.0
 10
-79.9613499544
 20
37.3823454131
 30
0.0
 10
-79.9618491393
 20
37.493498106
 30
0.0
 10
-79.9625741681
 20
37.5973730697
 30
0.0
 10
-79.9635220812
 20
37.6935598031
 30
0.0
 10
-79.9646886493
 20
37.7816771004
 30
0.0
 10
-79.9660689656
 20
37.8613738383
 30
0.0
 10
-79.9676548719
 20
37.9323318586
 30
0.0
 10
-79.9694417785
 20
37.9942631614
 30
0.0
 10
-79.9714054919
 20
38.0469239653
 30
0.0
 10
-79.9735645576
 20
38.0900802489
 30
0.0
 10
-79.97579518
 20
38.1236114311
 30
0.0
 10
-79.978267691
 20
38.1472719157
 30
0.0
 10
-79.9801358863
 20
38.1598438324
 30
0.0
 10
-79.9815642893
 20
38.1643003985
 30
0.0
 11
-79.9706959741
 21
35.8213406171
 31
0.0
 11
-79.9687799153
 21
35.9789487027
 31
0.0
 11
-79.9670627545
 21
36.1352397881
 31
0.0
 11
-79.9655507734
 21
36.2896028797
 31
0.0
 11
-79.9642503292
 21
36.441424514
 31
0.0
 11
-79.9631664965
 21
36.5901049036
 31
0.0
 11
-79.9623036935
 21
36.7350588312
 31
0.0
 11
-79.96166546
 21
36.875716188
 31
0.0
 11
-79.9612545102
 21
37.0115243824
 31
0.0
 11
-79.9610727027
 21
37.1419498651
 31
0.0
 11
-79.9611210353
 21
37.2664807809
 31
0.0
 11
-79.9613996389
 21
37.384627781
 31
0.0
 11
-79.9619077737
 21
37.4959263911
 31
0.0
 11
-79.9626438238
 21
37.5999378321
 31
0.0
 11
-79.9636053
 21
37.6962513198
 31
0.0
 11
-79.9647888364
 21
37.7844848392
 31
0.0
 11
-79.9661901993
 21
37.8642871231
 31
0.0
 11
-79.9678042872
 21
37.9353384198
 31
0.0
 11
-79.9696251399
 21
37.9973523169
 31
0.0
 11
-79.9716459733
 21
38.0500766993
 31
0.0
 11
-79.973859115
 21
38.0932950657
 31
0.0
 11
-79.9762562719
 21
38.1268271132
 31
0.0
 11
-79.9788277844
 21
38.1505300174
 31
0.0
 11
-79.9815642893
 21
38.1643003985
 31
0.0
  0
SPLINE
  5
304
100
AcDbEntity
  8
0
100
AcDbSpline
 62
253
  6
CONTINUOUS
 70
0
 71
3
 72
21
 73
17
 74
15
 42
0.0000001
 43
0.0000001
 44
0.0000000001
 12
-4.8097597475
 22
71.5630028268
 32
0.0
 13
4.8097597241
 23
71.5630028283
 33
0.0
 40
0.0
 40
0.0
 40
0.0
 40
0.0
 40
0.0714226034
 40
0.1428490731
 40
0.2142768964
 40
0.2857063445
 40
0.3571369087
 40
0.4285682593
 40
0.5
 40
0.5714317407
 40
0.6428630913
 40
0.7142936555
 40
0.7857231037
 40
0.857150927
 40
0.9285773967
 40
1.0
 40
1.0
 40
1.0
 40
1.0
 10
-81.100770679
 20
-35.8354861524
 30
0.0
 10
-81.2152791999
 20
-34.1317474969
 30
0.0
 10
-81.4279184997
 20
-30.7230540133
 30
0.0
 10
-81.697755636
 20
-25.6071260752
 30
0.0
 10
-81.9185014047
 20
-20.4886763521
 30
0.0
 10
-82.0901724468
 20
-15.3682492529
 30
0.0
 10
-82.2127841178
 20
-10.2463279538
 30
0.0
 10
-82.2863468777
 20
-5.1234127674
 30
0.0
 10
-82.3108670945
 20
0.0000000016
 30
0.0
 10
-82.2863468777
 20
5.1234127705
 30
0.0
 10
-82.2127841177
 20
10.246327957
 30
0.0
 10
-82.0901724467
 20
15.3682492559
 30
0.0
 10
-81.9185014046
 20
20.4886763552
 30
0.0
 10
-81.6977556356
 20
25.607126079
 30
0.0
 10
-81.4279185
 20
30.7230540163
 30
0.0
 10
-81.2152791991
 20
34.1317474987
 30
0.0
 10
-81.1007706789
 20
35.8354861524
 30
0.0
 11
-81.100770679
 21
-35.8354861524
 31
0.0
 11
-81.4197255289
 21
-30.7226780911
 31
0.0
 11
-81.6895708432
 21
-25.6067653446
 31
0.0
 11
-81.9103201665
 21
-20.4884019103
 31
0.0
 11
-82.0819946989
 21
-15.3680409415
 31
0.0
 11
-82.2046087506
 21
-10.2461902363
 31
0.0
 11
-82.2781729714
 21
-5.1233438515
 31
0.0
 11
-82.302693674
 21
0.0000000015
 31
0.0
 11
-82.2781729714
 21
5.1233438547
 31
0.0
 11
-82.2046087505
 21
10.2461902392
 31
0.0
 11
-82.0819946988
 21
15.368040945
 31
0.0
 11
-81.9103201664
 21
20.4884019128
 31
0.0
 11
-81.689570843
 21
25.6067653482
 31
0.0
 11
-81.4197255287
 21
30.7226780965
 31
0.0
 11
-81.1007706789
 21
35.8354861524
 31
0.0
  0
SPLINE
  5
305
100
AcDbEntity
  8
0
100
AcDbSpline
 62
253
  6
CONTINUOUS
 70
0
 71
3
 72
25
 73
21
 74
19
 42
0.0000001
 43
0.0000001
 44
0.0000000001
 12
0.9769919081
 22
-0.5726994209
 32
0.0
 13
1.1301593784
 23
0.0723712273
 33
0.0
 40
0.0
 40
0.0
 40
0.0
 40
0.0
 40
0.0112853613
 40
0.0287905995
 40
0.0526197907
 40
0.0827020804
 40
0.1188857097
 40
0.1609635542
 40
0.2086831104
 40
0.2617517905
 40
0.3198405684
 40
0.3825870207
 40
0.4495981739
 40
0.5204533282
 40
0.5947069384
 40
0.6718915791
 40
0.7515210054
 40
0.8330933048
 40
0.9160941302
 40
1.0
 40
1.0
 40
1.0
 40
1.0
 10
-81.100770679
 20
-35.8354861524
 30
0.0
 10
-81.0970954434
 20
-35.8376405257
 30
0.0
 10
-81.0865584644
 20
-35.8409062408
 30
0.0
 10
-81.0670933682
 20
-35.8445976679
 30
0.0
 10
-81.0402745181
 20
-35.8477517684
 30
0.0
 10
-81.0063729168
 20
-35.8503774949
 30
0.0
 10
-80.9655156261
 20
-35.8523962477
 30
0.0
 10
-80.9179786185
 20
-35.8537935431
 30
0.0
 10
-80.8640510074
 20
-35.8545482894
 30
0.0
 10
-80.8040753351
 20
-35.8546524172
 30
0.0
 10
-80.7384294238
 20
-35.8541018357
 30
0.0
 10
-80.6675285109
 20
-35.8528982071
 30
0.0
 10
-80.5918209071
 20
-35.851047761
 30
0.0
 10
-80.5117855535
 20
-35.8485612744
 30
0.0
 10
-80.4279288039
 20
-35.8454537982
 30
0.0
 10
-80.3407812389
 20
-35.8417445031
 30
0.0
 10
-80.2508942844
 20
-35.8374565006
 30
0.0
 10
-80.1588367077
 20
-35.8326166637
 30
0.0
 10
-80.0651910499
 20
-35.8272554388
 30
0.0
 10
-80.0023049303
 20
-35.8233690871
 30
0.0
 10
-79.9706959285
 20
-35.8213449635
 30
0.0
 11
-81.100770679
 21
-35.8354861524
 31
0.0
 11
-81.0888174594
 21
-35.8400092783
 31
0.0
 11
-81.0693911588
 21
-35.8439613617
 31
0.0
 11
-81.0426147095
 21
-35.8473173933
 31
0.0
 11
-81.0086575572
 21
-35.8500561357
 31
0.0
 11
-80.9677345882
 21
-35.8521602576
 31
0.0
 11
-80.9201047697
 21
-35.8536164438
 31
0.0
 11
-80.8660695109
 21
-35.8544154794
 31
0.0
 11
-80.8059707555
 21
-35.8545523079
 31
0.0
 11
-80.7401888182
 21
-35.8540260634
 31
0.0
 11
-80.6691399776
 21
-35.8528400761
 31
0.0
 11
-80.5932738422
 21
-35.8510018511
 31
0.0
 11
-80.5130705052
 21
-35.848523021
 31
0.0
 11
-80.4290375061
 21
-35.8454192723
 31
0.0
 11
-80.3417066193
 21
-35.8417102459
 31
0.0
 11
-80.2516304888
 21
-35.8374194132
 31
0.0
 11
-80.1593791307
 21
-35.8325739272
 31
0.0
 11
-80.0655363264
 21
-35.8272044511
 31
0.0
 11
-79.9706959285
 21
-35.8213449635
 31
0.0
  0
SPLINE
  5
306
100
AcDbEntity
  8
0
100
AcDbSpline
 62
253
  6
CONTINUOUS
 70
0
 71
3
 72
27
 73
23
 74
21
 42
0.0000001
 43
0.0000001
 44
0.0000000001
 12
0.0823130213
 22
1.2247171916
 32
0.0
 13
-1.013984174
 23
0.6917685507
 33
0.0
 40
0.0
 40
0.0
 40
0.0
 40
0.0
 40
0.0775124926
 40
0.1541647909
 40
0.2294841015
 40
0.3031105416
 40
0.374666649
 40
0.4437978362
 40
0.5101618972
 40
0.5734326137
 40
0.6333000278
 40
0.6894712942
 40
0.741671592
 40
0.7896452435
 40
0.8331572025
 40
0.8719951906
 40
0.9059730179
 40
0.9349359621
 40
0.9587725228
 40
0.9774356538
 40
0.9910210206
 40
1.0
 40
1.0
 40
1.0
 40
1.0
 10
-81.1007706847
 20
35.8354861513
 30
0.0
 10
-81.0986439222
 20
35.8671297787
 30
0.0
 10
-81.0945963216
 20
35.9300782839
 30
0.0
 10
-81.0891244578
 20
36.0238149724
 30
0.0
 10
-81.0843034038
 20
36.1159952901
 30
0.0
 10
-81.0801572986
 20
36.2061211465
 30
0.0
 10
-81.0767049754
 20
36.2937424551
 30
0.0
 10
-81.0739622232
 20
36.378415932
 30
0.0
 10
-81.0719412183
 20
36.4597187453
 30
0.0
 10
-81.0706506792
 20
36.5372456918
 30
0.0
 10
-81.0700958136
 20
36.6106109621
 30
0.0
 10
-81.0702782861
 20
36.6794487562
 30
0.0
 10
-81.0711960598
 20
36.743414055
 30
0.0
 10
-81.0728433496
 20
36.8021837434
 30
0.0
 10
-81.075209762
 20
36.8554570663
 30
0.0
 10
-81.0782813182
 20
36.9029593112
 30
0.0
 10
-81.0820342229
 20
36.9444372402
 30
0.0
 10
-81.0864484708
 20
36.9796840308
 30
0.0
 10
-81.0914585558
 20
37.0084870249
 30
0.0
 10
-81.0970761086
 20
37.030823844
 30
0.0
 10
-81.1030787321
 20
37.0465202134
 30
0.0
 10
-81.1085622646
 20
37.0544264413
 30
0.0
 10
-81.1115971122
 20
37.0564968998
 30
0.0
 11
-81.1007706847
 21
35.8354861513
 31
0.0
 11
-81.0946676932
 21
35.9304352638
 31
0.0
 11
-81.0891883278
 21
36.0243647587
 31
0.0
 11
-81.0843650006
 21
36.1166918172
 31
0.0
 11
-81.0802189705
 21
36.2069716629
 31
0.0
 11
-81.0767700751
 21
36.2947376291
 31
0.0
 11
-81.0740341675
 21
36.3795506761
 31
0.0
 11
-81.0720238367
 21
36.460986437
 31
0.0
 11
-81.0707482983
 21
36.5386395132
 31
0.0
 11
-81.0702134554
 21
36.612123632
 31
0.0
 11
-81.0704219237
 21
36.681072434
 31
0.0
 11
-81.0713730449
 21
36.7451402062
 31
0.0
 11
-81.0730628856
 21
36.8040026621
 31
0.0
 11
-81.075484222
 21
36.8573578165
 31
0.0
 11
-81.0786265108
 21
36.9049270053
 31
0.0
 11
-81.0824758506
 21
36.946456099
 31
0.0
 11
-81.0870149041
 21
36.9817165854
 31
0.0
 11
-81.0922230416
 21
37.0105082318
 31
0.0
 11
-81.098075457
 21
37.0326566917
 31
0.0
 11
-81.1045462451
 21
37.0480258218
 31
0.0
 11
-81.1115971122
 21
37.0564968998
 31
0.0
  0
SPLINE
  5
307
100
AcDbEntity
  8
0
100
AcDbSpline
 62
253
  6
CONTINUOUS
 70
0
 71
3
 72
25
 73
21
 74
19
 42
0.0000001
 43
0.0000001
 44
0.0000000001
 12
0.9769919058
 22
0.5726994401
 32
0.0
 13
1.130159386
 23
-0.0723712304
 33
0.0
 40
0.0
 40
0.0
 40
0.0
 40
0.0
 40
0.0112853651
 40
0.0287906046
 40
0.0526197969
 40
0.0827020876
 40
0.1188857176
 40
0.1609635626
 40
0.2086831191
 40
0.2617517993
 40
0.319840577
 40
0.382587029
 40
0.4495981816
 40
0.5204533352
 40
0.5947069446
 40
0.6718915842
 40
0.7515210094
 40
0.8330933076
 40
0.9160941317
 40
1.0
 40
1.0
 40
1.0
 40
1.0
 10
-81.1007706847
 20
35.8354861513
 30
0.0
 10
-81.0970954479
 20
35.8376405253
 30
0.0
 10
-81.0865584666
 20
35.8409062406
 30
0.0
 10
-81.0670933681
 20
35.844597668
 30
0.0
 10
-81.0402745164
 20
35.8477517683
 30
0.0
 10
-81.0063729139
 20
35.8503774947
 30
0.0
 10
-80.9655156221
 20
35.8523962474
 30
0.0
 10
-80.9179786135
 20
35.8537935427
 30
0.0
 10
-80.8640510018
 20
35.8545482889
 30
0.0
 10
-80.804075329
 20
35.8546524166
 30
0.0
 10
-80.7384294174
 20
35.8541018349
 30
0.0
 10
-80.6675285044
 20
35.8528982061
 30
0.0
 10
-80.5918209007
 20
35.8510477599
 30
0.0
 10
-80.5117855473
 20
35.8485612731
 30
0.0
 10
-80.4279287981
 20
35.8454537967
 30
0.0
 10
-80.3407812336
 20
35.8417445015
 30
0.0
 10
-80.2508942798
 20
35.8374564988
 30
0.0
 10
-80.1588367039
 20
35.8326166617
 30
0.0
 10
-80.065191047
 20
35.8272554367
 30
0.0
 10
-80.002304928
 20
35.8233690849
 30
0.0
 10
-79.9706959265
 20
35.8213449613
 30
0.0
 11
-81.1007706847
 21
35.8354861513
 31
0.0
 11
-81.0888174609
 21
35.8400092784
 31
0.0
 11
-81.0693911586
 21
35.8439613617
 31
0.0
 11
-81.0426147077
 21
35.8473173933
 31
0.0
 11
-81.0086575541
 21
35.8500561355
 31
0.0
 11
-80.9677345841
 21
35.8521602573
 31
0.0
 11
-80.9201047647
 21
35.8536164434
 31
0.0
 11
-80.8660695052
 21
35.8544154789
 31
0.0
 11
-80.8059707493
 21
35.8545523072
 31
0.0
 11
-80.7401888117
 21
35.8540260626
 31
0.0
 11
-80.669139971
 21
35.8528400751
 31
0.0
 11
-80.5932738357
 21
35.85100185
 31
0.0
 11
-80.5130704989
 21
35.8485230198
 31
0.0
 11
-80.4290375003
 21
35.8454192708
 31
0.0
 11
-80.341706614
 21
35.8417102443
 31
0.0
 11
-80.2516304842
 21
35.8374194114
 31
0.0
 11
-80.1593791268
 21
35.8325739253
 31
0.0
 11
-80.0655363235
 21
35.827204449
 31
0.0
 11
-79.9706959265
 21
35.8213449613
 31
0.0
  0
SPLINE
  5
308
100
AcDbEntity
  8
0
100
AcDbSpline
 62
253
  6
CONTINUOUS
 70
0
 71
3
 72
16
 73
12
 74
10
 42
0.0000001
 43
0.0000001
 44
0.0000000001
 12
-2.1620453135
 22
1.4749009766
 32
0.0
 13
0.0000000006
 23
-0.0000000012
 33
0.0
 40
0.0
 40
0.0
 40
0.0
 40
0.0
 40
0.2097810105
 40
0.3949258189
 40
0.5554152834
 40
0.691236946
 40
0.802379249
 40
0.8888329241
 40
0.9505907072
 40
0.9876474261
 40
1.0
 40
1.0
 40
1.0
 40
1.0
 10
-81.1115971091
 20
37.0564969166
 30
0.0
 10
-81.2627824593
 20
37.1596323223
 30
0.0
 10
-81.5473792172
 20
37.3538670958
 30
0.0
 10
-81.9474023254
 20
37.6271144167
 30
0.0
 10
-82.2944063081
 20
37.8643249786
 30
0.0
 10
-82.5870525805
 20
38.0645051335
 30
0.0
 10
-82.8291478387
 20
38.2301982613
 30
0.0
 10
-83.0105662119
 20
38.3544133542
 30
0.0
 10
-83.1558396162
 20
38.4539174388
 30
0.0
 10
-83.2149348408
 20
38.4943999749
 30
0.0
 10
-83.2721413262
 20
38.533595156
 30
0.0
 10
-83.2721413262
 20
38.533595156
 30
0.0
 11
-81.1115971091
 21
37.0564969166
 31
0.0
 11
-81.5650871995
 21
37.3659998024
 31
0.0
 11
-81.9652107949
 21
37.6393159776
 31
0.0
 11
-82.3119674836
 21
37.8763571028
 31
0.0
 11
-82.6053659408
 21
38.0770526286
 31
0.0
 11
-82.8454113862
 21
38.2413412982
 31
0.0
 11
-83.0321085467
 21
38.3691732276
 31
0.0
 11
-83.1654610113
 21
38.4605095104
 31
0.0
 11
-83.2454713962
 21
38.5153223666
 31
0.0
 11
-83.2721413262
 21
38.533595156
 31
0.0
  0
SPLINE
  5
309
100
AcDbEntity
  8
0
100
AcDbSpline
 62
253
  6
CONTINUOUS
 70
0
 71
3
 72
25
 73
21
 74
19
 42
0.0000001
 43
0.0000001
 44
0.0000000001
 12
0.1343676712
 22
1.721226193
 32
0.0
 13
1.7236980863
 23
0.097668755
 33
0.0
 40
0.0
 40
0.0
 40
0.0
 40
0.0
 40
0.0555477017
 40
0.1111101639
 40
0.1666852686
 40
0.2222705752
 40
0.277863384
 40
0.3334608045
 40
0.3890598292
 40
0.4446574098
 40
0.5002505349
 40
0.5558363058
 40
0.6114120111
 40
0.666975195
 40
0.72252372
 40
0.7780558218
 40
0.8335701546
 40
0.8890658251
 40
0.9445424167
 40
1.0
 40
1.0
 40
1.0
 40
1.0
 10
-81.1115971091
 20
37.0564969166
 30
0.0
 10
-81.1091091706
 20
37.0883669696
 30
0.0
 10
-81.1015831599
 20
37.1519459493
 30
0.0
 10
-81.0827294819
 20
37.246098971
 30
0.0
 10
-81.0564278915
 20
37.3384776847
 30
0.0
 10
-81.0228473419
 20
37.42848309
 30
0.0
 10
-80.9822025475
 20
37.5155415196
 30
0.0
 10
-80.9347536121
 20
37.5990954447
 30
0.0
 10
-80.8808040968
 20
37.6786104831
 30
0.0
 10
-80.8206991515
 20
37.7535778902
 30
0.0
 10
-80.7548232903
 20
37.8235180565
 30
0.0
 10
-80.6835979396
 20
37.8879835066
 30
0.0
 10
-80.6074787496
 20
37.9465617774
 30
0.0
 10
-80.5269526667
 20
37.9988780515
 30
0.0
 10
-80.4425348902
 20
38.0445975534
 30
0.0
 10
-80.354765332
 20
38.0834277062
 30
0.0
 10
-80.2642060972
 20
38.1151199533
 30
0.0
 10
-80.1714344216
 20
38.1394715493
 30
0.0
 10
-80.0770519273
 20
38.1563261292
 30
0.0
 10
-80.0134282775
 20
38.1624947097
 30
0.0
 10
-79.9815642341
 20
38.1643002007
 30
0.0
 11
-81.1115971091
 21
37.0564969166
 31
0.0
 11
-81.1003240951
 21
37.1517330978
 31
0.0
 11
-81.0814907072
 21
37.2457926693
 31
0.0
 11
-81.0552174531
 21
37.3380737813
 31
0.0
 11
-81.0216724453
 21
37.4279859618
 31
0.0
 11
-80.9810703257
 21
37.5149538969
 31
0.0
 11
-80.9336708918
 21
37.5984211117
 31
0.0
 11
-80.8797774347
 21
37.6778535311
 31
0.0
 11
-80.819734798
 21
37.7527428972
 31
0.0
 11
-80.753927172
 21
37.8226100212
 31
0.0
 11
-80.6827756347
 21
37.88700785
 31
0.0
 11
-80.6067354578
 21
37.9455243263
 31
0.0
 11
-80.5262931936
 21
37.9977850252
 31
0.0
 11
-80.4419635617
 21
38.0434555504
 31
0.0
 11
-80.3542861553
 21
38.0822436735
 31
0.0
 11
-80.2638219891
 21
38.113901204
 31
0.0
 11
-80.1711499089
 21
38.1382255773
 31
0.0
 11
-80.0768628883
 21
38.1550611511
 31
0.0
 11
-79.9815642341
 21
38.1643002007
 31
0.0
  0
SPLINE
  5
30A
100
AcDbEntity
  8
0
100
AcDbSpline
 62
253
  6
CONTINUOUS
 70
0
 71
3
 72
27
 73
23
 74
21
 42
0.0000001
 43
0.0000001
 44
0.0000000001
 12
1.0139811701
 22
0.6917729388
 32
0.0
 13
-0.0823130656
 23
1.2247171802
 33
0.0
 40
0.0
 40
0.0
 40
0.0
 40
0.0
 40
0.0089789358
 40
0.022564307
 40
0.0412274235
 40
0.0650639664
 40
0.0940269001
 40
0.1280047191
 40
0.1668427012
 40
0.210354652
 40
0.2583282925
 40
0.3105285791
 40
0.366699835
 40
0.4265672407
 40
0.4898379507
 40
0.5562020092
 40
0.6253331915
 40
0.6968892894
 40
0.7705157342
 40
0.8458350419
 40
0.9224872388
 40
1.0
 40
1.0
 40
1.0
 40
1.0
 10
-81.1115971131
 20
-37.0564968889
 30
0.0
 10
-81.1085622891
 20
-37.0544264273
 30
0.0
 10
-81.1030787351
 20
-37.0465202502
 30
0.0
 10
-81.0970761289
 20
-37.0308238836
 30
0.0
 10
-81.0914585656
 20
-37.008487086
 30
0.0
 10
-81.0864484815
 20
-36.9796841068
 30
0.0
 10
-81.0820342312
 20
-36.9444373329
 30
0.0
 10
-81.0782813256
 20
-36.902959414
 30
0.0
 10
-81.075209769
 20
-36.8554571788
 30
0.0
 10
-81.0728433549
 20
-36.8021838666
 30
0.0
 10
-81.0711960632
 20
-36.7434141912
 30
0.0
 10
-81.0702782873
 20
-36.6794489062
 30
0.0
 10
-81.0700958127
 20
-36.610611125
 30
0.0
 10
-81.0706506764
 20
-36.5372458655
 30
0.0
 10
-81.071941214
 20
-36.4597189267
 30
0.0
 10
-81.0739622182
 20
-36.3784161196
 30
0.0
 10
-81.0767049689
 20
-36.2937426501
 30
0.0
 10
-81.0801572905
 20
-36.2061213459
 30
0.0
 10
-81.084303394
 20
-36.1159954933
 30
0.0
 10
-81.0891244437
 20
-36.0238152168
 30
0.0
 10
-81.0945963112
 20
-35.9300784619
 30
0.0
 10
-81.0986439127
 20
-35.8671298886
 30
0.0
 10
-81.1007706837
 20
-35.8354861518
 30
0.0
 11
-81.1115971131
 21
-37.0564968889
 31
0.0
 11
-81.104546269
 21
-37.0480258613
 31
0.0
 11
-81.0980754709
 21
-37.0326567296
 31
0.0
 11
-81.0922230538
 21
-37.0105082888
 31
0.0
 11
-81.087014915
 21
-36.9817166652
 31
0.0
 11
-81.0824758596
 21
-36.9464561921
 31
0.0
 11
-81.0786265185
 21
-36.9049271091
 31
0.0
 11
-81.0754842288
 21
-36.8573579281
 31
0.0
 11
-81.0730628909
 21
-36.8040027843
 31
0.0
 11
-81.0713730483
 21
-36.7451403423
 31
0.0
 11
-81.070421925
 21
-36.6810725843
 31
0.0
 11
-81.0702134546
 21
-36.6121237957
 31
0.0
 11
-81.0707482956
 21
-36.5386396876
 31
0.0
 11
-81.0720238325
 21
-36.46098662
 31
0.0
 11
-81.0740341624
 21
-36.3795508628
 31
0.0
 11
-81.0767700687
 21
-36.2947378221
 31
0.0
 11
-81.0802189622
 21
-36.2069718682
 31
0.0
 11
-81.0843649908
 21
-36.1166920172
 31
0.0
 11
-81.0891883163
 21
-36.0243649629
 31
0.0
 11
-81.0946676729
 21
-35.9304355928
 31
0.0
 11
-81.1007706837
 21
-35.8354861518
 31
0.0
  0
SPLINE
  5
30B
100
AcDbEntity
  8
0
100
AcDbSpline
 62
253
  6
CONTINUOUS
 70
0
 71
3
 72
25
 73
21
 74
19
 42
0.0000001
 43
0.0000001
 44
0.0000000001
 12
0.1343676712
 22
-1.7212261912
 32
0.0
 13
1.7236980852
 23
-0.0976687431
 33
0.0
 40
0.0
 40
0.0
 40
0.0
 40
0.0
 40
0.0555477167
 40
0.1111101778
 40
0.1666852814
 40
0.2222705869
 40
0.2778633946
 40
0.3334608141
 40
0.3890598378
 40
0.4446574175
 40
0.5002505416
 40
0.5558363117
 40
0.6114120161
 40
0.6669751992
 40
0.7225237234
 40
0.7780558245
 40
0.8335701565
 40
0.8890658264
 40
0.9445424174
 40
1.0
 40
1.0
 40
1.0
 40
1.0
 10
-81.1115971131
 20
-37.0564968889
 30
0.0
 10
-81.109109174
 20
-37.0883669505
 30
0.0
 10
-81.1015831616
 20
-37.1519459381
 30
0.0
 10
-81.0827294799
 20
-37.2460989665
 30
0.0
 10
-81.056427888
 20
-37.3384776776
 30
0.0
 10
-81.0228473371
 20
-37.4284830803
 30
0.0
 10
-80.9822025416
 20
-37.5155415073
 30
0.0
 10
-80.9347536053
 20
-37.5990954297
 30
0.0
 10
-80.8808040894
 20
-37.6786104656
 30
0.0
 10
-80.8206991437
 20
-37.7535778701
 30
0.0
 10
-80.7548232823
 20
-37.8235180338
 30
0.0
 10
-80.6835979317
 20
-37.8879834815
 30
0.0
 10
-80.6074787419
 20
-37.94656175
 30
0.0
 10
-80.5269526594
 20
-37.998878022
 30
0.0
 10
-80.4425348835
 20
-38.044597522
 30
0.0
 10
-80.354765326
 20
-38.0834276729
 30
0.0
 10
-80.264206092
 20
-38.1151199185
 30
0.0
 10
-80.1714344174
 20
-38.1394715132
 30
0.0
 10
-80.0770519242
 20
-38.156326092
 30
0.0
 10
-80.0134282751
 20
-38.1624946719
 30
0.0
 10
-79.9815642321
 20
-38.1643001627
 30
0.0
 11
-81.1115971131
 21
-37.0564968889
 31
0.0
 11
-81.1003240949
 21
-37.1517330956
 31
0.0
 11
-81.0814907053
 21
-37.2457926648
 31
0.0
 11
-81.0552174497
 21
-37.3380737742
 31
0.0
 11
-81.0216724406
 21
-37.4279859522
 31
0.0
 11
-80.9810703199
 21
-37.5149538846
 31
0.0
 11
-80.9336708851
 21
-37.5984210967
 31
0.0
 11
-80.8797774273
 21
-37.6778535135
 31
0.0
 11
-80.8197347903
 21
-37.752742877
 31
0.0
 11
-80.7539271641
 21
-37.8226099985
 31
0.0
 11
-80.6827756268
 21
-37.8870078249
 31
0.0
 11
-80.6067354502
 21
-37.9455242989
 31
0.0
 11
-80.5262931864
 21
-37.9977849957
 31
0.0
 11
-80.441963555
 21
-38.043455519
 31
0.0
 11
-80.3542861493
 21
-38.0822436403
 31
0.0
 11
-80.263821984
 21
-38.1139011692
 31
0.0
 11
-80.1711499047
 21
-38.1382255412
 31
0.0
 11
-80.0768628852
 21
-38.1550611139
 31
0.0
 11
-79.9815642321
 21
-38.1643001627
 31
0.0
  0
SPLINE
  5
30C
100
AcDbEntity
  8
RACCORDO
100
AcDbSpline
 62
253
  6
CONTINUOUS
 70
0
 71
3
 72
16
 73
12
 74
10
 42
0.0000001
 43
0.0000001
 44
0.0000000001
 12
-2.1584416099
 22
1.4729853873
 32
0.0
 13
0.0000000554
 23
-0.0000000386
 33
0.0
 40
0.0
 40
0.0
 40
0.0
 40
0.0
 40
0.2097773325
 40
0.3949228829
 40
0.5554134709
 40
0.6912354159
 40
0.8023786937
 40
0.8888322888
 40
0.9505907595
 40
0.9876473217
 40
1.0
 40
1.0
 40
1.0
 40
1.0
 10
-79.9815644905
 20
38.1643003886
 30
0.0
 10
-80.1324951983
 20
38.267300037
 30
0.0
 10
-80.4166156634
 20
38.4612807797
 30
0.0
 10
-80.815971364
 20
38.7341711781
 30
0.0
 10
-81.162399406
 20
38.9710731465
 30
0.0
 10
-81.4545605915
 20
39.1709927607
 30
0.0
 10
-81.6962541682
 20
39.336469567
 30
0.0
 10
-81.8773721042
 20
39.4605226626
 30
0.0
 10
-82.0224045014
 20
39.5598965218
 30
0.0
 10
-82.0814019739
 20
39.6003262483
 30
0.0
 10
-82.1385133922
 20
39.6394699695
 30
0.0
 10
-82.138513392
 20
39.6394699694
 30
0.0
 11
-79.9815644905
 21
38.1643003886
 31
0.0
 11
-80.4342910419
 21
38.473395398
 31
0.0
 11
-80.8337499738
 21
38.7463565355
 31
0.0
 11
-81.1799320082
 21
38.9830898921
 31
0.0
 11
-81.4728430305
 21
39.1835234479
 31
0.0
 11
-81.7124914422
 21
39.3475984902
 31
0.0
 11
-81.8988780996
 21
39.4752627873
 31
0.0
 11
-82.0320104401
 21
39.5664803039
 31
0.0
 11
-82.1118875465
 21
39.6212210079
 31
0.0
 11
-82.138513392
 21
39.6394699694
 31
0.0
  0
SPLINE
  5
30D
100
AcDbEntity
  8
RACCORDO
100
AcDbSpline
 62
253
  6
CONTINUOUS
 70
0
 71
3
 72
16
 73
12
 74
10
 42
0.0000001
 43
0.0000001
 44
0.0000000001
 12
-2.158441557
 22
-1.4729853514
 32
0.0
 13
0.0000000739
 23
0.0000000512
 33
0.0
 40
0.0
 40
0.0
 40
0.0
 40
0.0
 40
0.2097773132
 40
0.3949228682
 40
0.55541346
 40
0.6912354083
 40
0.8023786888
 40
0.8888322859
 40
0.9505907582
 40
0.9876473213
 40
1.0
 40
1.0
 40
1.0
 40
1.0
 10
-79.9815645433
 20
-38.1643004246
 30
0.0
 10
-80.1324952334
 20
-38.267300061
 30
0.0
 10
-80.4166156811
 20
-38.4612807917
 30
0.0
 10
-80.815971364
 20
-38.7341711782
 30
0.0
 10
-81.162399406
 20
-38.9710731465
 30
0.0
 10
-81.4545605914
 20
-39.1709927606
 30
0.0
 10
-81.6962541679
 20
-39.3364695668
 30
0.0
 10
-81.877372104
 20
-39.4605226624
 30
0.0
 10
-82.0224045011
 20
-39.5598965217
 30
0.0
 10
-82.0814019736
 20
-39.6003262481
 30
0.0
 10
-82.1385133923
 20
-39.6394699696
 30
0.0
 10
-82.138513392
 20
-39.6394699694
 30
0.0
 11
-79.9815645433
 21
-38.1643004246
 31
0.0
 11
-80.4342910418
 21
-38.4733953979
 31
0.0
 11
-80.833749974
 21
-38.7463565356
 31
0.0
 11
-81.1799320081
 21
-38.983089892
 31
0.0
 11
-81.4728430303
 21
-39.1835234478
 31
0.0
 11
-81.712491442
 21
-39.3475984901
 31
0.0
 11
-81.8988780993
 21
-39.475262787
 31
0.0
 11
-82.0320104399
 21
-39.5664803037
 31
0.0
 11
-82.1118875463
 21
-39.6212210077
 31
0.0
 11
-82.138513392
 21
-39.6394699694
 31
0.0
  0
LINE
  5
30E
100
AcDbEntity
  8
RACCORDO
100
AcDbLine
 62
253
  6
CONTINUOUS
 10
-79.9815644905
 20
38.1643003886
 11
-75.2591905974
 21
38.3989305068
  0
LINE
  5
30F
100
AcDbEntity
  8
RACCORDO
100
AcDbLine
 62
253
  6
CONTINUOUS
 10
-79.9706961558
 20
-35.8213413168
 11
-75.2591905974
 21
-36.0563828951
  0
SPLINE
  5
310
100
AcDbEntity
  8
RACCORDO
100
AcDbSpline
 62
253
  6
CONTINUOUS
 70
0
 71
3
 72
21
 73
17
 74
15
 42
0.0000001
 43
0.0000001
 44
0.0000000001
 12
-4.7981416517
 22
71.5351906881
 32
0.0
 13
4.7981416402
 23
71.5351906888
 33
0.0
 40
0.0
 40
0.0
 40
0.0
 40
0.0
 40
0.0714218864
 40
0.1428476908
 40
0.2142759367
 40
0.2857054775
 40
0.3571361146
 40
0.4285679853
 40
0.5000000047
 40
0.5714320214
 40
0.6428638943
 40
0.7142945297
 40
0.7857240708
 40
0.8571523173
 40
0.9285781189
 40
1.0
 40
1.0
 40
1.0
 40
1.0
 10
-79.9706961558
 20
-35.8213413168
 30
0.0
 10
-80.0849269318
 20
-34.1182818952
 30
0.0
 10
-80.2970502999
 20
-30.7109506676
 30
0.0
 10
-80.5662337243
 20
-25.5970520394
 30
0.0
 10
-80.7864451704
 20
-20.4806228219
 30
0.0
 10
-80.9577008968
 20
-15.3622069706
 30
0.0
 10
-81.08001592
 20
-10.2423008821
 30
0.0
 10
-81.1534007116
 20
-5.1214006527
 30
0.0
 10
-81.1778615899
 20
-0.0000000838
 30
0.0
 10
-81.1534007127
 20
5.1214005357
 30
0.0
 10
-81.0800159233
 20
10.2423007138
 30
0.0
 10
-80.9577009009
 20
15.3622068213
 30
0.0
 10
-80.786445177
 20
20.4806226534
 30
0.0
 10
-80.566233734
 20
25.5970518258
 30
0.0
 10
-80.2970503224
 20
30.7109502746
 30
0.0
 10
-80.0849269673
 20
34.1182813102
 30
0.0
 10
-79.9706962
 20
35.8213406058
 30
0.0
 11
-79.9706961558
 21
-35.8213413168
 31
0.0
 11
-80.2888770707
 21
-30.7105780197
 31
0.0
 11
-80.558067433
 21
-25.5967190092
 31
0.0
 11
-80.7782839397
 21
-20.480341873
 31
0.0
 11
-80.9495429469
 21
-15.3619992216
 31
0.0
 11
-81.0718601115
 21
-10.2421745382
 31
0.0
 11
-81.1452466161
 21
-5.121326308
 31
0.0
 11
-81.1697079584
 21
-0.0000000219
 31
0.0
 11
-81.1452466183
 21
5.1213260784
 31
0.0
 11
-81.0718601129
 21
10.2421744607
 31
0.0
 11
-80.9495429526
 21
15.3619990238
 31
0.0
 11
-80.7782839463
 21
20.4803417002
 31
0.0
 11
-80.5580674394
 21
25.5967188742
 31
0.0
 11
-80.2888770899
 21
30.7105776869
 31
0.0
 11
-79.9706962
 21
35.8213406058
 31
0.0
  0
SPLINE
  5
311
100
AcDbEntity
  8
0
100
AcDbSpline
 62
7
  6
CONTINUOUS
 70
0
 71
3
 72
10
 73
6
 74
4
 42
0.0000001
 43
0.0000001
 44
0.0000000001
 12
-0.0324358214
 22
0.6160722327
 32
0.0
 13
-0.031482757
 23
0.6161216763
 33
0.0
 40
0.0
 40
0.0
 40
0.0
 40
0.0
 40
0.3554668346
 40
0.7109293425
 40
1.0
 40
1.0
 40
1.0
 40
1.0
 10
-84.2410424017
 20
-24.638399
 30
0.0
 10
-84.244885688
 20
-24.5654012512
 30
0.0
 10
-84.2525320755
 20
-24.4194045255
 30
0.0
 10
-84.2631746329
 20
-24.2140382574
 30
0.0
 10
-84.2699681243
 20
-24.0816694832
 30
0.0
 10
-84.2730017047
 20
-24.0223019172
 30
0.0
 11
-84.2410424017
 21
-24.638399
 31
0.0
 11
-84.2525120515
 21
-24.4194025919
 31
0.0
 11
-84.2638611407
 21
-24.2004025757
 31
0.0
 11
-84.2730017047
 21
-24.0223019172
 31
0.0
  0
LINE
  5
312
100
AcDbEntity
  8
0
100
AcDbLine
 62
7
  6
CONTINUOUS
 10
-84.2730017047
 20
-24.0223019172
 11
-84.2750896674
 21
-23.981399
  0
LINE
  5
313
100
AcDbEntity
  8
0
100
AcDbLine
 62
7
  6
CONTINUOUS
 10
-84.2750896674
 20
-23.981399
 11
-84.2786694883
 21
-23.889399
  0
LINE
  5
314
100
AcDbEntity
  8
0
100
AcDbLine
 62
7
  6
CONTINUOUS
 10
-84.2786694883
 20
-23.889399
 11
-84.2845277757
 21
-23.753399
  0
LINE
  5
315
100
AcDbEntity
  8
0
100
AcDbLine
 62
7
  6
CONTINUOUS
 10
-84.2845277757
 20
-23.753399
 11
-84.2919724153
 21
-23.589399
  0
LINE
  5
316
100
AcDbEntity
  8
0
100
AcDbLine
 62
7
  6
CONTINUOUS
 10
-84.2919724153
 20
-23.589399
 11
-84.300138837
 21
-23.416399
  0
LINE
  5
317
100
AcDbEntity
  8
0
100
AcDbLine
 62
7
  6
CONTINUOUS
 10
-84.300138837
 20
-23.416399
 11
-84.3080284201
 21
-23.255399
  0
LINE
  5
318
100
AcDbEntity
  8
0
100
AcDbLine
 62
7
  6
CONTINUOUS
 10
-84.3080284201
 20
-23.255399
 11
-84.3147652078
 21
-23.124399
  0
LINE
  5
319
100
AcDbEntity
  8
0
100
AcDbLine
 62
7
  6
CONTINUOUS
 10
-84.3147652078
 20
-23.124399
 11
-84.3195361102
 21
-23.039399
  0
LINE
  5
31A
100
AcDbEntity
  8
0
100
AcDbLine
 62
7
  6
CONTINUOUS
 10
-84.3195361102
 20
-23.039399
 11
-84.3218267129
 21
-23.009399
  0
LINE
  5
31B
100
AcDbEntity
  8
RACCORDO
100
AcDbLine
 62
253
  6
CONTINUOUS
 10
-79.9706962
 20
35.8213406058
 11
-75.2591905974
 21
36.0563828951
  0
LINE
  5
31C
100
AcDbEntity
  8
0
100
AcDbLine
 62
7
  6
CONTINUOUS
 10
-84.2462403565
 20
-24.638399
 11
-84.2762435112
 21
-24.022399
  0
SPLINE
  5
31D
100
AcDbEntity
  8
0
100
AcDbSpline
 62
253
  6
CONTINUOUS
 70
0
 71
3
 72
16
 73
12
 74
10
 42
0.0000001
 43
0.0000001
 44
0.0000000001
 12
-2.1620453135
 22
-1.4749009767
 32
0.0
 13
-0.0000000004
 23
0.0000000005
 33
0.0
 40
0.0
 40
0.0
 40
0.0
 40
0.0
 40
0.2097810106
 40
0.3949258189
 40
0.5554152834
 40
0.691236946
 40
0.802379249
 40
0.8888329241
 40
0.9505907072
 40
0.9876474261
 40
1.0
 40
1.0
 40
1.0
 40
1.0
 10
-81.111597109
 20
-37.0564969165
 30
0.0
 10
-81.2627824593
 20
-37.1596323223
 30
0.0
 10
-81.5473792172
 20
-37.3538670958
 30
0.0
 10
-81.9474023254
 20
-37.6271144167
 30
0.0
 10
-82.2944063081
 20
-37.8643249786
 30
0.0
 10
-82.5870525805
 20
-38.0645051335
 30
0.0
 10
-82.8291478387
 20
-38.2301982613
 30
0.0
 10
-83.0105662119
 20
-38.3544133542
 30
0.0
 10
-83.1558396162
 20
-38.4539174388
 30
0.0
 10
-83.2149348408
 20
-38.4943999749
 30
0.0
 10
-83.2721413262
 20
-38.533595156
 30
0.0
 10
-83.2721413262
 20
-38.533595156
 30
0.0
 11
-81.111597109
 21
-37.0564969165
 31
0.0
 11
-81.5650871995
 21
-37.3659998024
 31
0.0
 11
-81.9652107949
 21
-37.6393159776
 31
0.0
 11
-82.3119674836
 21
-37.8763571028
 31
0.0
 11
-82.6053659408
 21
-38.0770526286
 31
0.0
 11
-82.8454113862
 21
-38.2413412982
 31
0.0
 11
-83.0321085467
 21
-38.3691732276
 31
0.0
 11
-83.1654610113
 21
-38.4605095104
 31
0.0
 11
-83.2454713962
 21
-38.5153223666
 31
0.0
 11
-83.2721413262
 21
-38.533595156
 31
0.0
  0
LINE
  5
31E
100
AcDbEntity
  8
0
100
AcDbLine
 62
7
  6
CONTINUOUS
 10
-84.2217664237
 20
-23.009399
 11
-84.2194758042
 21
-23.039399
  0
LINE
  5
31F
100
AcDbEntity
  8
0
100
AcDbLine
 62
7
  6
CONTINUOUS
 10
-84.2511518807
 20
-24.638399
 11
-84.2664329803
 21
-24.323399
  0
LINE
  5
320
100
AcDbEntity
  8
0
100
AcDbLine
 62
7
  6
CONTINUOUS
 10
-84.2194758042
 20
-23.039399
 11
-84.2147042482
 21
-23.124399
  0
LINE
  5
321
100
AcDbEntity
  8
0
100
AcDbLine
 62
7
  6
CONTINUOUS
 10
-84.2485419008
 20
-24.638399
 11
-84.2643253176
 21
-24.3232939543
  0
LINE
  5
322
100
AcDbEntity
  8
0
100
AcDbLine
 62
7
  6
CONTINUOUS
 10
-84.2643253176
 20
-24.3232939543
 11
-84.2791866817
 21
-24.0225433509
  0
LINE
  5
323
100
AcDbEntity
  8
0
100
AcDbLine
 62
7
  6
CONTINUOUS
 10
-84.2791866817
 20
-24.0225433509
 11
-84.2938568493
 21
-23.7216460988
  0
LINE
  5
324
100
AcDbEntity
  8
0
100
AcDbLine
 62
7
  6
CONTINUOUS
 10
-84.2938568493
 20
-23.7216460988
 11
-84.2946303925
 21
-23.7056662497
  0
LINE
  5
325
100
AcDbEntity
  8
0
100
AcDbLine
 62
7
  6
CONTINUOUS
 10
-84.2946303925
 20
-23.7056662497
 11
-84.2967565035
 21
-23.6616853503
  0
LINE
  5
326
100
AcDbEntity
  8
0
100
AcDbLine
 62
7
  6
CONTINUOUS
 10
-84.2967565035
 20
-23.6616853503
 11
-84.2999865477
 21
-23.5946998724
  0
LINE
  5
327
100
AcDbEntity
  8
0
100
AcDbLine
 62
7
  6
CONTINUOUS
 10
-84.2999865477
 20
-23.5946998724
 11
-84.3037350815
 21
-23.5167048037
  0
LINE
  5
328
100
AcDbEntity
  8
0
100
AcDbLine
 62
7
  6
CONTINUOUS
 10
-84.3037350815
 20
-23.5167048037
 11
-84.3075183505
 21
-23.4377041666
  0
LINE
  5
329
100
AcDbEntity
  8
0
100
AcDbLine
 62
7
  6
CONTINUOUS
 10
-84.3075183505
 20
-23.4377041666
 11
-84.3106689554
 21
-23.3716954926
  0
LINE
  5
32A
100
AcDbEntity
  8
0
100
AcDbLine
 62
7
  6
CONTINUOUS
 10
-84.3106689554
 20
-23.3716954926
 11
-84.3128121675
 21
-23.3266780529
  0
LINE
  5
32B
100
AcDbEntity
  8
0
100
AcDbLine
 62
7
  6
CONTINUOUS
 10
-84.3128121675
 20
-23.3266780529
 11
-84.3135781015
 21
-23.3105672007
  0
LINE
  5
32C
100
AcDbEntity
  8
0
100
AcDbLine
 62
7
  6
CONTINUOUS
 10
-84.3135781015
 20
-23.3105672007
 11
-84.3277913669
 21
-23.009399
  0
LINE
  5
32D
100
AcDbEntity
  8
0
100
AcDbLine
 62
7
  6
CONTINUOUS
 10
-84.2807985667
 20
-24.022399
 11
-84.2949899268
 21
-23.7216920028
  0
LINE
  5
32E
100
AcDbEntity
  8
0
100
AcDbLine
 62
7
  6
CONTINUOUS
 10
-84.2949899268
 20
-23.7216920028
 11
-84.2957386857
 21
-23.7057104068
  0
LINE
  5
32F
100
AcDbEntity
  8
0
100
AcDbLine
 62
7
  6
CONTINUOUS
 10
-84.2957386857
 20
-23.7057104068
 11
-84.2977966158
 21
-23.6617249114
  0
LINE
  5
330
100
AcDbEntity
  8
0
100
AcDbLine
 62
7
  6
CONTINUOUS
 10
-84.2977966158
 20
-23.6617249114
 11
-84.300922897
 21
-23.5947332564
  0
LINE
  5
331
100
AcDbEntity
  8
0
100
AcDbLine
 62
7
  6
CONTINUOUS
 10
-84.300922897
 20
-23.5947332564
 11
-84.3045662072
 21
-23.516399
  0
LINE
  5
332
100
AcDbEntity
  8
0
100
AcDbLine
 62
7
  6
CONTINUOUS
 10
-84.2147042482
 20
-23.124399
 11
-84.2079662192
 21
-23.255399
  0
LINE
  5
333
100
AcDbEntity
  8
0
100
AcDbLine
 62
7
  6
CONTINUOUS
 10
-84.2079662192
 20
-23.255399
 11
-84.2000749423
 21
-23.416399
  0
LINE
  5
334
100
AcDbEntity
  8
0
100
AcDbLine
 62
7
  6
CONTINUOUS
 10
-84.2000749423
 20
-23.416399
 11
-84.191906553
 21
-23.589399
  0
ELLIPSE
  5
335
100
AcDbEntity
  8
RACCORDO
100
AcDbEllipse
 62
7
  6
CONTINUOUS
 10
-540.0
 20
558.5026411517
 30
0.0
 11
-0.0
 21
932.3548968974
 31
0.0
 40
0.8007313262
 41
-2.2083656276
 42
-2.2081960426
  0
ELLIPSE
  5
336
100
AcDbEntity
  8
RACCORDO
100
AcDbEllipse
 62
7
  6
CONTINUOUS
 10
-540.0
 20
-558.5026411517
 30
0.0
 11
-0.0
 21
932.3548968974
 31
0.0
 40
0.8007313262
 41
-0.933396611
 42
-0.933227026
  0
ELLIPSE
  5
337
100
AcDbEntity
  8
RACCORDO
100
AcDbEllipse
 62
7
  6
CONTINUOUS
 10
540.0
 20
-558.5026411517
 30
0.0
 11
-0.0
 21
932.3548968974
 31
0.0
 40
0.8007313262
 41
0.933227026
 42
0.933396611
  0
ELLIPSE
  5
338
100
AcDbEntity
  8
RACCORDO
100
AcDbEllipse
 62
7
  6
CONTINUOUS
 10
540.0
 20
558.5026411517
 30
0.0
 11
-0.0
 21
932.3548968974
 31
0.0
 40
0.8007313262
 41
-4.0749892646
 42
-4.0748196796
  0
ENDSEC
  0
SECTION
  2
OBJECTS
  0
DICTIONARY
  5
C
100
AcDbDictionary
280
0
281
1
  3
ACAD_GROUP
350
D
  3
ACAD_MLINESTYLE
350
17
  3
ACAD_LAYOUT
350
1A
  3
ACAD_PLOTSETTINGS
350
19
  3
ACAD_PLOTSTYLENAME
350
E
  0
DICTIONARY
  5
D
102
{ACAD_REACTORS
330
C
102
}
100
AcDbDictionary
280
0
281
1
  0
ACDBDICTIONARYWDFLT
  5
E
102
{ACAD_REACTORS
330
C
102
}
100
AcDbDictionary
281
1
  3
Normal
350
F
100
AcDbDictionaryWithDefault
340
F
  0
DICTIONARY
  5
17
102
{ACAD_REACTORS
330
C
102
}
100
AcDbDictionary
280
0
281
1
  3
Standard
350
18
  0
DICTIONARY
  5
19
102
{ACAD_REACTORS
330
C
102
}
100
AcDbDictionary
281
1
  0
DICTIONARY
  5
1A
102
{ACAD_REACTORS
330
C
102
}
100
AcDbDictionary
281
1
  3
Model
350
339
  3
Layout1
350
33A
  0
ACDBPLACEHOLDER
  5
F
102
{ACAD_REACTORS
330
E
102
}
  0
MLINESTYLE
  5
18
102
{ACAD_REACTORS
330
17
102
}
100
AcDbMlineStyle
  2
STANDARD
 70
0
  3

 62
256
 51
90.0
 52
90.0
 71
2
 49
0.5
 62
256
  6
BYLAYER
 49
-0.5
 62
256
  6
BYLAYER
  0
LAYOUT
  5
339
102
{ACAD_REACTORS
330
1A
102
}
100
AcDbPlotSettings
  1

  2
none_device
  4
ISO_A4_(297.00_x_210.00_MM)
  6

 40
0.0
 41
0.0
 42
0.0
 43
0.0
 44
297.0
 45
210.0
 46
0.0
 47
0.0
 48
0.0
 49
0.0
140
0.0
141
0.0
142
1.0
143
1.0
 70
1024
 72
1
 73
0
 74
0
  7

 75
0
147
1.0
148
0.0
149
0.0
100
AcDbLayout
  1
Model
 70
0
 71
0
 10
0.0
 20
0.0
 11
297.0
 21
210.0
 12
0.0
 22
0.0
 32
0.0
 14
0.0
 24
0.0
 34
0.0
 15
0.0
 25
0.0
 35
0.0
146
0.0
 13
0.0
 23
0.0
 33
0.0
 16
1.0
 26
0.0
 36
0.0
 17
0.0
 27
1.0
 37
0.0
 76
0
330
20F
345
0
346
0
  0
LAYOUT
  5
33A
102
{ACAD_REACTORS
330
1A
102
}
100
AcDbPlotSettings
  1

  2
none_device
  4
ISO_A4_(297.00_x_210.00_MM)
  6

 40
0.0
 41
0.0
 42
0.0
 43
0.0
 44
297.0
 45
210.0
 46
0.0
 47
0.0
 48
0.0
 49
0.0
140
0.0
141
0.0
142
1.0
143
1.0
 70
0
 72
1
 73
0
 74
0
  7

 75
0
147
1.0
148
0.0
149
0.0
100
AcDbLayout
  1
Layout1
 70
0
 71
1
 10
0.0
 20
0.0
 11
297.0
 21
210.0
 12
0.0
 22
0.0
 32
0.0
 14
0.0
 24
0.0
 34
0.0
 15
0.0
 25
0.0
 35
0.0
146
0.0
 13
0.0
 23
0.0
 33
0.0
 16
1.0
 26
0.0
 36
0.0
 17
0.0
 27
1.0
 37
0.0
 76
0
330
210
345
0
346
0
  0
ENDSEC
  0
EOF
