  0
SECTION
  2
HEADER
  9
$ACADVER
  1
AC1015
  9
$DWGCODEPAGE
  3
ANSI_1252
  9
$EXTMAX
 10
297.0
 20
210.0
 30
0.0
  9
$EXTMIN
 10
0.0
 20
0.0
 30
0.0
  9
$LIMMIN
 10
0.0
 20
0.0
  9
$LIMMAX
 10
297.0
 20
210.0
  9
$VIEWCTR
 10
148.5
 20
105.0
  9
$VIEWSIZE
 40
210.0
  9
$CLAYER
  8
0
  9
$LTSCALE
 40
16.335
  9
$CELTYPE
  6
BYLAYER
  9
$DIMSCALE
 40
1.0
  9
$DIMASZ
 40
3.0
  9
$DIMEXO
 40
1.85625
  9
$DIMDLI
 40
11.286
  9
$DIMEXE
 40
5.346
  9
$DIMCEN
 40
2.673
  9
$DIMLFAC
 40
1.0
  9
$DIMBLK
  1
_FILLED
  9
$DIMTXT
 40
3.0
  9
$DIMTOL
 70
1
  9
$DIMLIM
 70
0
  9
$DIMTFAC
 40
1.0
  9
$DIMTP
 40
0.01
  9
$DIMTM
 40
0.01
  9
$PDMODE
 70
3
  9
$PDSIZE
 40
3.0
  9
$HANDSEED
  5
359
  9
$TILEMODE
 70
1
  9
$MEASUREMENT
 70
1
  9
$INSUNITS
 70
4
  0
ENDSEC
  0
SECTION
  2
CLASSES
  0
CLASS
  1
ACDBDICTIONARYWDFLT
  2
AcDbDictionaryWithDefault
  3
AutoCAD 2000
 90
0
280
0
281
0
  0
CLASS
  1
ACDBPLACEHOLDER
  2
AcDbPlaceHolder
  3
AutoCAD 2000
 90
0
280
0
281
0
  0
CLASS
  1
LAYOUT
  2
AcDbLayout
  3
AutoCAD 2000
 90
0
280
0
281
0
  0
ENDSEC
  0
SECTION
  2
TABLES
  0
TABLE
  2
VPORT
  5
8
100
AcDbSymbolTable
 70
2
  0
VPORT
  5
1F4
100
AcDbSymbolTableRecord
100
AcDbViewportTableRecord
  2
*ACTIVE
 70
0
 10
0.0
 20
0.0
 11
1.0
 21
1.0
 12
148.5
 22
105.0
 13
0.0
 23
0.0
 14
1.0
 24
1.0
 15
0.0
 25
0.0
 16
0.0
 26
0.0
 36
1.0
 17
0.0
 27
0.0
 37
0.0
 40
210.0
 41
1.4142857143
 42
50.0
 43
0.0
 44
0.0
 50
0.0
 51
0.0
 71
0
 72
100
 73
1
 74
1
 75
0
 76
0
 77
0
 78
0
  0
ENDTAB
  0
TABLE
  2
LTYPE
  5
5
100
AcDbSymbolTable
 70
6
  0
LTYPE
  5
14
100
AcDbSymbolTableRecord
100
AcDbLinetypeTableRecord
  2
BYBLOCK
 70
0
  3

 72
65
 73
0
 40
0.0
  0
LTYPE
  5
15
100
AcDbSymbolTableRecord
100
AcDbLinetypeTableRecord
  2
BYLAYER
 70
0
  3

 72
65
 73
0
 40
0.0
  0
LTYPE
  5
16
100
AcDbSymbolTableRecord
100
AcDbLinetypeTableRecord
  2
CONTINUOUS
 70
64
  3
Solid line
 72
65
 73
0
 40
0.0
  0
LTYPE
  5
1F5
100
AcDbSymbolTableRecord
100
AcDbLinetypeTableRecord
  2
CENTER
 70
64
  3
____ _ ____ _ ____ _ ____ _ ____ _ ____ _ ____
 72
65
 73
4
 40
0.6
 49
0.375
 74
0
 49
-0.075
 74
0
 49
0.075
 74
0
 49
-0.075
 74
0
  0
LTYPE
  5
1F6
100
AcDbSymbolTableRecord
100
AcDbLinetypeTableRecord
  2
HIDDEN
 70
64
  3
- - - - - - - - - - - - - - - - - - - -
 72
65
 73
2
 40
0.2
 49
0.1
 74
0
 49
-0.1
 74
0
  0
LTYPE
  5
1F7
100
AcDbSymbolTableRecord
100
AcDbLinetypeTableRecord
  2
PHANTOM
 70
64
  3
_____ _ _ _____ _ _ _____ _ _ _____
 72
65
 73
6
 40
0.8
 49
0.45
 74
0
 49
-0.05
 74
0
 49
0.1
 74
0
 49
-0.05
 74
0
 49
0.1
 74
0
 49
-0.05
 74
0
  0
LTYPE
  5
1F8
100
AcDbSymbolTableRecord
100
AcDbLinetypeTableRecord
  2
DOT
 70
64
  3
. . . . . . . . . . . . . . . . . . . .
 72
65
 73
2
 40
0.2
 49
0.1
 74
0
 49
-0.1
 74
0
  0
LTYPE
  5
1F9
100
AcDbSymbolTableRecord
100
AcDbLinetypeTableRecord
  2
DASHED
 70
64
  3
- - - - - - - - - - - - - - - - - - - -
 72
65
 73
2
 40
0.2
 49
0.1
 74
0
 49
-0.1
 74
0
  0
ENDTAB
  0
TABLE
  2
LAYER
  5
2
100
AcDbSymbolTable
 70
36
  0
LAYER
  5
10
100
AcDbSymbolTableRecord
100
AcDbLayerTableRecord
  2
0
 70
0
 62
7
  6
CONTINUOUS
370
-3
390
F
  0
LAYER
  5
1FA
100
AcDbSymbolTableRecord
100
AcDbLayerTableRecord
  2
DEFAULT_1
 70
0
 62
7
  6
CENTER
370
-3
390
F
  0
LAYER
  5
1FB
100
AcDbSymbolTableRecord
100
AcDbLayerTableRecord
  2
DEFAULT_2
 70
0
 62
7
  6
HIDDEN
370
-3
390
F
  0
LAYER
  5
1FC
100
AcDbSymbolTableRecord
100
AcDbLayerTableRecord
  2
DEFAULT_3
 70
0
 62
7
  6
PHANTOM
370
-3
390
F
  0
LAYER
  5
1FD
100
AcDbSymbolTableRecord
100
AcDbLayerTableRecord
  2
ASSI
 70
0
 62
7
  6
CONTINUOUS
370
-3
390
F
  0
LAYER
  5
1FE
100
AcDbSymbolTableRecord
100
AcDbLayerTableRecord
  2
COORDINATE
 70
0
 62
7
  6
CONTINUOUS
370
-3
390
F
  0
LAYER
  5
1FF
100
AcDbSymbolTableRecord
100
AcDbLayerTableRecord
  2
COPY_PUBLISH
 70
0
 62
7
  6
CONTINUOUS
370
-3
390
F
  0
LAYER
  5
200
100
AcDbSymbolTableRecord
100
AcDbLayerTableRecord
  2
COSMETIC
 70
0
 62
7
  6
CONTINUOUS
370
-3
390
F
  0
LAYER
  5
201
100
AcDbSymbolTableRecord
100
AcDbLayerTableRecord
  2
CURVE
 70
0
 62
7
  6
CONTINUOUS
370
-3
390
F
  0
LAYER
  5
202
100
AcDbSymbolTableRecord
100
AcDbLayerTableRecord
  2
DRAFT
 70
0
 62
7
  6
CONTINUOUS
370
-3
390
F
  0
LAYER
  5
203
100
AcDbSymbolTableRecord
100
AcDbLayerTableRecord
  2
IMPORT_IGES
 70
0
 62
7
  6
CONTINUOUS
370
-3
390
F
  0
LAYER
  5
204
100
AcDbSymbolTableRecord
100
AcDbLayerTableRecord
  2
INTFCLR_1
 70
0
 62
7
  6
CONTINUOUS
370
-3
390
F
  0
LAYER
  5
205
100
AcDbSymbolTableRecord
100
AcDbLayerTableRecord
  2
NOTE
 70
0
 62
7
  6
CONTINUOUS
370
-3
390
F
  0
LAYER
  5
206
100
AcDbSymbolTableRecord
100
AcDbLayerTableRecord
  2
PIANI
 70
0
 62
7
  6
CONTINUOUS
370
-3
390
F
  0
LAYER
  5
207
100
AcDbSymbolTableRecord
100
AcDbLayerTableRecord
  2
PUNTI
 70
0
 62
7
  6
CONTINUOUS
370
-3
390
F
  0
LAYER
  5
208
100
AcDbSymbolTableRecord
100
AcDbLayerTableRecord
  2
RACCORDO
 70
0
 62
7
  6
CONTINUOUS
370
-3
390
F
  0
LAYER
  5
209
100
AcDbSymbolTableRecord
100
AcDbLayerTableRecord
  2
SNAPLINE
 70
0
 62
7
  6
CONTINUOUS
370
-3
390
F
  0
LAYER
  5
20A
100
AcDbSymbolTableRecord
100
AcDbLayerTableRecord
  2
SUPERFICI
 70
0
 62
7
  6
CONTINUOUS
370
-3
390
F
  0
LAYER
  5
20B
100
AcDbSymbolTableRecord
100
AcDbLayerTableRecord
  2
TRASH
 70
0
 62
7
  6
CONTINUOUS
370
-3
390
F
  0
LAYER
  5
20C
100
AcDbSymbolTableRecord
100
AcDbLayerTableRecord
  2
XSEC_DATUMS
 70
0
 62
7
  6
CONTINUOUS
370
-3
390
F
  0
ENDTAB
  0
TABLE
  2
STYLE
  5
3
100
AcDbSymbolTable
 70
1
  0
STYLE
  5
11
100
AcDbSymbolTableRecord
100
AcDbTextStyleTableRecord
  2
STANDARD
 70
0
 40
0.0
 41
0.8
 50
0.0
 71
0
 42
0.2
  3
txt
  4

  0
STYLE
  5
20D
100
AcDbSymbolTableRecord
100
AcDbTextStyleTableRecord
  2
TEXTSTYLE_1
 70
0
 40
0.0
 41
0.8
 50
0.0
 71
0
 42
0.2
  3
gdt
  4

  0
ENDTAB
  0
TABLE
  2
VIEW
  5
6
100
AcDbSymbolTable
 70
0
  0
ENDTAB
  0
TABLE
  2
UCS
  5
7
100
AcDbSymbolTable
 70
0
  0
ENDTAB
  0
TABLE
  2
APPID
  5
9
100
AcDbSymbolTable
 70
1
  0
APPID
  5
20E
100
AcDbSymbolTableRecord
100
AcDbRegAppTableRecord
  2
ACAD
 70
0
  0
ENDTAB
  0
TABLE
  2
BLOCK_RECORD
  5
1
100
AcDbSymbolTable
 70
0
  0
BLOCK_RECORD
  5
20F
100
AcDbSymbolTableRecord
100
AcDbBlockTableRecord
  2
*Model_Space
  0
BLOCK_RECORD
  5
210
100
AcDbSymbolTableRecord
100
AcDbBlockTableRecord
  2
*Paper_Space
  0
BLOCK_RECORD
  5
211
100
AcDbSymbolTableRecord
100
AcDbBlockTableRecord
  2
_FILLED
  0
BLOCK_RECORD
  5
212
100
AcDbSymbolTableRecord
100
AcDbBlockTableRecord
  2
*D0
  0
BLOCK_RECORD
  5
213
100
AcDbSymbolTableRecord
100
AcDbBlockTableRecord
  2
*D1
  0
BLOCK_RECORD
  5
214
100
AcDbSymbolTableRecord
100
AcDbBlockTableRecord
  2
*D2
  0
ENDTAB
  0
TABLE
  2
DIMSTYLE
  5
A
100
AcDbSymbolTable
 70
1
100
AcDbDimStyleTable
 71
0
  0
DIMSTYLE
105
215
100
AcDbSymbolTableRecord
100
AcDbDimStyleTableRecord
  2
STANDARD
 70
0
  3

  4

 40
1.0
 41
3.0
 42
0.0625
 43
0.38
 44
0.18
 45
0.0
 46
0.0
 47
0.01
 48
0.01
140
3.0
141
0.09
142
0.0
143
25.4
144
1.0
145
0.0
146
1.0
147
0.09
 71
1.0
 72
0.0
 73
0
 74
0
 75
0
 76
0
 77
1
 78
8
170
0
171
2
172
0
173
0
174
0
175
0
176
0
177
0
178
0
270
2
271
2
272
2
273
2
274
2
275
0
280
0
281
0
282
0
283
1
284
8
285
0
286
0
287
3
288
0
340
11
341
211
342
211
343
211
344
211
  0
DIMSTYLE
105
216
100
AcDbSymbolTableRecord
100
AcDbDimStyleTableRecord
  2
DIMSTYLE_1
 70
0
  3

  4

 40
1.0
 41
3.0
 42
0.0625
 43
0.38
 44
0.18
 45
0.0
 46
0.0
 47
0.0
 48
0.0
140
3.0
141
0.09
142
0.0
143
25.4
144
1.0
145
0.0
146
1.0
147
0.09
 71
0.0
 72
0.0
 73
0
 74
0
 75
0
 76
0
 77
1
 78
8
170
0
171
2
172
0
173
0
174
0
175
0
176
0
177
0
178
0
270
2
271
1
272
1
273
2
274
2
275
0
280
0
281
0
282
0
283
1
284
8
285
0
286
0
287
3
288
0
340
11
341
211
342
211
343
211
344
211
  0
DIMSTYLE
105
217
100
AcDbSymbolTableRecord
100
AcDbDimStyleTableRecord
  2
DIMSTYLE_2
 70
0
  3

  4

 40
1.0
 41
3.0
 42
0.0625
 43
0.38
 44
0.18
 45
0.0
 46
0.0
 47
0.0
 48
0.0
140
3.0
141
0.09
142
0.0
143
25.4
144
1.0
145
0.0
146
1.0
147
0.09
 71
0.0
 72
0.0
 73
0
 74
0
 75
0
 76
0
 77
1
 78
8
170
0
171
2
172
0
173
0
174
0
175
0
176
0
177
0
178
0
270
2
271
2
272
2
273
2
274
2
275
0
280
0
281
0
282
0
283
1
284
8
285
0
286
0
287
3
288
0
340
11
341
211
342
211
343
211
344
211
  0
ENDTAB
  0
ENDSEC
  0
SECTION
  2
BLOCKS
  0
BLOCK
  5
20
100
AcDbEntity
  8
0
100
AcDbBlockBegin
  2
*Model_Space
 70
0
 10
0.0
 20
0.0
 30
0.0
  3
*Model_Space
  1

  0
ENDBLK
  5
21
100
AcDbEntity
  8
0
100
AcDbBlockEnd
  0
BLOCK
  5
1C
100
AcDbEntity
  8
0
100
AcDbBlockBegin
  2
*Paper_Space
 70
0
 10
0.0
 20
0.0
 30
0.0
  3
*Paper_Space
  1

  0
ENDBLK
  5
1D
100
AcDbEntity
  8
0
100
AcDbBlockEnd
  0
BLOCK
  5
218
100
AcDbEntity
  8
0
100
AcDbBlockBegin
  2
_FILLED
 70
64
 10
0.0
 20
0.0
  3
_FILLED
  1

  0
SOLID
  5
219
100
AcDbEntity
  8
0
  6
BYBLOCK
 62
0
100
AcDbTrace
 10
0.0
 20
0.0
 11
-1.0
 21
0.3166666667
 12
-1.0
 22
-0.3166666667
 13
-1.0
 23
-0.3166666667
  0
ENDBLK
  5
21A
100
AcDbEntity
  8
0
  6
BYBLOCK
 62
0
100
AcDbBlockEnd
  0
BLOCK
  5
21B
100
AcDbEntity
  8
0
100
AcDbBlockBegin
 62
7
  6
CONTINUOUS
  2
*D0
 70
65
 10
0.0
 20
0.0
  3
*D0
  1

  0
MTEXT
  5
21C
100
AcDbEntity
  8
0
100
AcDbMText
 62
7
  6
CONTINUOUS
  7
STANDARD
 71
2
 72
1
 10
-92.8993513628
 20
55.75
 30
0.0
 11
1.0
 21
0.0
 31
0.0
 44
0.9
  1
8,8
 40
3.0
 41
6.4285714286
  0
LINE
  5
21D
100
AcDbEntity
  8
0
100
AcDbLine
 62
7
  6
CONTINUOUS
 10
-88.47490912
 20
36.5136580925
 11
-88.47490912
 21
53.5
  0
LINE
  5
21E
100
AcDbEntity
  8
0
100
AcDbLine
 62
7
  6
CONTINUOUS
 10
-97.3237936056
 20
26.0086565736
 11
-97.3237936056
 21
53.5
  0
LINE
  5
21F
100
AcDbEntity
  8
0
100
AcDbLine
 62
7
  6
CONTINUOUS
 10
-88.47490912
 20
52.0
 11
-92.8993513628
 21
52.0
  0
LINE
  5
220
100
AcDbEntity
  8
0
100
AcDbLine
 62
7
  6
CONTINUOUS
 10
-97.3237936056
 20
52.0
 11
-92.8993513628
 21
52.0
  0
INSERT
  5
221
100
AcDbEntity
  8
0
100
AcDbBlockReference
 62
7
  6
CONTINUOUS
  2
_FILLED
 10
-88.47490912
 20
52.0
 41
3.0
 42
3.0
 43
3.0
  0
INSERT
  5
222
100
AcDbEntity
  8
0
100
AcDbBlockReference
 62
7
  6
CONTINUOUS
  2
_FILLED
 10
-97.3237936056
 20
52.0
 41
3.0
 42
3.0
 43
3.0
 50
180.0
  0
ENDBLK
  5
223
100
AcDbEntity
  8
0
  6
BYBLOCK
 62
0
100
AcDbBlockEnd
  0
BLOCK
  5
224
100
AcDbEntity
  8
0
100
AcDbBlockBegin
 62
7
  6
CONTINUOUS
  2
*D1
 70
65
 10
0.0
 20
0.0
  3
*D1
  1

  0
MTEXT
  5
225
100
AcDbEntity
  8
0
100
AcDbMText
 62
7
  6
CONTINUOUS
  7
STANDARD
 71
2
 72
1
 10
-0.0
 20
55.75
 30
0.0
 11
1.0
 21
0.0
 31
0.0
 44
0.9
  1
142,5
 40
3.0
 41
10.2857142857
  0
LINE
  5
226
100
AcDbEntity
  8
0
100
AcDbLine
 62
7
  6
CONTINUOUS
 10
-71.2369985875
 20
4.4498766793
 11
-71.2369985875
 21
53.5
  0
LINE
  5
227
100
AcDbEntity
  8
0
100
AcDbLine
 62
7
  6
CONTINUOUS
 10
71.2369985875
 20
4.4498766793
 11
71.2369985875
 21
53.5
  0
LINE
  5
228
100
AcDbEntity
  8
0
100
AcDbLine
 62
7
  6
CONTINUOUS
 10
-71.2369985875
 20
52.0
 11
-0.0
 21
52.0
  0
LINE
  5
229
100
AcDbEntity
  8
0
100
AcDbLine
 62
7
  6
CONTINUOUS
 10
71.2369985875
 20
52.0
 11
-0.0
 21
52.0
  0
INSERT
  5
22A
100
AcDbEntity
  8
0
100
AcDbBlockReference
 62
7
  6
CONTINUOUS
  2
_FILLED
 10
-71.2369985875
 20
52.0
 41
3.0
 42
3.0
 43
3.0
 50
180.0
  0
INSERT
  5
22B
100
AcDbEntity
  8
0
100
AcDbBlockReference
 62
7
  6
CONTINUOUS
  2
_FILLED
 10
71.2369985875
 20
52.0
 41
3.0
 42
3.0
 43
3.0
  0
ENDBLK
  5
22C
100
AcDbEntity
  8
0
  6
BYBLOCK
 62
0
100
AcDbBlockEnd
  0
BLOCK
  5
22D
100
AcDbEntity
  8
0
100
AcDbBlockBegin
 62
7
  6
CONTINUOUS
  2
*D2
 70
65
 10
0.0
 20
0.0
  3
*D2
  1

  0
MTEXT
  5
22E
100
AcDbEntity
  8
0
100
AcDbMText
 62
7
  6
CONTINUOUS
  7
STANDARD
 71
2
 72
1
 10
78.25
 20
0.0
 30
0.0
 11
0.0
 21
1.0
 31
0.0
 44
0.9
  1
80
 40
3.0
 41
4.7142857143
  0
LINE
  5
22F
100
AcDbEntity
  8
0
100
AcDbLine
 62
7
  6
CONTINUOUS
 10
0.5
 20
40.0
 11
83.5
 21
40.0
  0
LINE
  5
230
100
AcDbEntity
  8
0
100
AcDbLine
 62
7
  6
CONTINUOUS
 10
0.5
 20
-40.0
 11
83.5
 21
-40.0
  0
LINE
  5
231
100
AcDbEntity
  8
0
100
AcDbLine
 62
7
  6
CONTINUOUS
 10
82.0
 20
40.0
 11
82.0
 21
0.0
  0
LINE
  5
232
100
AcDbEntity
  8
0
100
AcDbLine
 62
7
  6
CONTINUOUS
 10
82.0
 20
-40.0
 11
82.0
 21
0.0
  0
INSERT
  5
233
100
AcDbEntity
  8
0
100
AcDbBlockReference
 62
7
  6
CONTINUOUS
  2
_FILLED
 10
82.0
 20
40.0
 41
3.0
 42
3.0
 43
3.0
 50
90.0
  0
INSERT
  5
234
100
AcDbEntity
  8
0
100
AcDbBlockReference
 62
7
  6
CONTINUOUS
  2
_FILLED
 10
82.0
 20
-40.0
 41
3.0
 42
3.0
 43
3.0
 50
270.0
  0
ENDBLK
  5
235
100
AcDbEntity
  8
0
  6
BYBLOCK
 62
0
100
AcDbBlockEnd
  0
ENDSEC
  0
SECTION
  2
ENTITIES
  0
DIMENSION
  5
236
100
AcDbEntity
  8
0
100
AcDbDimension
 62
7
  6
CONTINUOUS
  2
*D0
 10
-97.3237936056
 20
52.0
 11
-96.1136370771
 21
54.25
 70
160
 71
2
 42
8.8488844855
  3
DIMSTYLE_1
100
AcDbAlignedDimension
 13
-88.47490912
 23
36.5136580925
 14
-97.3237936056
 24
26.0086565736
 50
180.0
100
AcDbRotatedDimension
  0
DIMENSION
  5
237
100
AcDbEntity
  8
0
100
AcDbDimension
 62
7
  6
CONTINUOUS
  2
*D1
 10
71.2369985875
 20
52.0
 11
-5.1428571429
 21
54.25
 70
160
 71
2
 42
142.473997175
  3
DIMSTYLE_1
100
AcDbAlignedDimension
 13
-71.2369985875
 23
4.4498766793
 14
71.2369985875
 24
4.4498766793
100
AcDbRotatedDimension
  0
DIMENSION
  5
238
100
AcDbEntity
  8
0
100
AcDbDimension
 62
7
  6
CONTINUOUS
  2
*D2
 10
82.0
 20
-40.0
 11
80.8061735237
 21
-2.1072778499
 70
160
 71
2
 42
80.0
  3
DIMSTYLE_2
100
AcDbAlignedDimension
 13
0.5
 23
40.0
 14
0.5
 24
-40.0
 50
270.0
100
AcDbRotatedDimension
  0
LINE
  5
239
100
AcDbEntity
  8
RACCORDO
100
AcDbLine
 62
253
  6
CONTINUOUS
 10
-44.7246011243
 20
22.737458046
 11
-44.7244623797
 21
22.7262811819
  0
LINE
  5
23A
100
AcDbEntity
  8
RACCORDO
100
AcDbLine
 62
253
  6
CONTINUOUS
 10
-45.0245554857
 20
22.5653894377
 11
-45.0203398345
 21
22.220385526
  0
LINE
  5
23B
100
AcDbEntity
  8
0
100
AcDbLine
 62
7
  6
CONTINUOUS
 10
-45.0
 20
22.2000456915
 11
-45.0
 21
-22.2000456915
  0
LINE
  5
23C
100
AcDbEntity
  8
RACCORDO
100
AcDbLine
 62
253
  6
CONTINUOUS
 10
-44.7132705122
 20
-22.5132248208
 11
-44.7132705122
 21
-22.7263604502
  0
LINE
  5
23D
100
AcDbEntity
  8
RACCORDO
100
AcDbLine
 62
253
  6
CONTINUOUS
 10
-44.7132705122
 20
22.5132248208
 11
-44.7132705122
 21
22.7263604502
  0
LINE
  5
23E
100
AcDbEntity
  8
RACCORDO
100
AcDbLine
 62
253
  6
CONTINUOUS
 10
-45.0245554691
 20
-22.5653880806
 11
-45.0203382118
 21
-22.220338224
  0
LINE
  5
23F
100
AcDbEntity
  8
RACCORDO
100
AcDbLine
 62
253
  6
CONTINUOUS
 10
-44.7246011243
 20
-22.7374580432
 11
-44.7244629083
 21
-22.7262811763
  0
LINE
  5
240
100
AcDbEntity
  8
0
100
AcDbLine
 62
7
  6
CONTINUOUS
 10
3.326652
 20
-23.705399
 11
3.240652
 21
-23.721399
  0
LINE
  5
241
100
AcDbEntity
  8
0
100
AcDbLine
 62
7
  6
CONTINUOUS
 10
-3.328348
 20
-24.638399
 11
-2.981348
 21
-24.638399
  0
LINE
  5
242
100
AcDbEntity
  8
0
100
AcDbLine
 62
7
  6
CONTINUOUS
 10
-2.120348
 20
-24.638399
 11
-1.758348
 21
-24.638399
  0
LINE
  5
243
100
AcDbEntity
  8
0
100
AcDbLine
 62
7
  6
CONTINUOUS
 10
-1.441348
 20
-24.638399
 11
-1.078348
 21
-24.638399
  0
LINE
  5
244
100
AcDbEntity
  8
0
100
AcDbLine
 62
7
  6
CONTINUOUS
 10
-0.731348
 20
-24.638399
 11
-0.368348
 21
-24.638399
  0
LINE
  5
245
100
AcDbEntity
  8
0
100
AcDbLine
 62
7
  6
CONTINUOUS
 10
-0.021348
 20
-24.638399
 11
0.340652
 21
-24.638399
  0
LINE
  5
246
100
AcDbEntity
  8
0
100
AcDbLine
 62
7
  6
CONTINUOUS
 10
0.627652
 20
-24.638399
 11
0.990652
 21
-24.638399
  0
LINE
  5
247
100
AcDbEntity
  8
0
100
AcDbLine
 62
7
  6
CONTINUOUS
 10
1.790652
 20
-24.638399
 11
2.152652
 21
-24.638399
  0
LINE
  5
248
100
AcDbEntity
  8
0
100
AcDbLine
 62
7
  6
CONTINUOUS
 10
2.439652
 20
-24.638399
 11
2.802652
 21
-24.638399
  0
LINE
  5
249
100
AcDbEntity
  8
0
100
AcDbLine
 62
7
  6
CONTINUOUS
 10
3.481652
 20
-24.638399
 11
3.889652
 21
-24.638399
  0
LINE
  5
24A
100
AcDbEntity
  8
0
100
AcDbLine
 62
7
  6
CONTINUOUS
 10
1.095652
 20
-24.323399
 11
1.669652
 21
-24.323399
  0
LINE
  5
24B
100
AcDbEntity
  8
0
100
AcDbLine
 62
7
  6
CONTINUOUS
 10
1.564652
 20
-24.022399
 11
1.216652
 21
-24.022399
  0
LINE
  5
24C
100
AcDbEntity
  8
0
100
AcDbLine
 62
7
  6
CONTINUOUS
 10
2.802652
 20
-24.022399
 11
3.119652
 21
-24.022399
  0
LINE
  5
24D
100
AcDbEntity
  8
0
100
AcDbLine
 62
7
  6
CONTINUOUS
 10
3.240652
 20
-23.721399
 11
2.787652
 21
-23.721399
  0
LINE
  5
24E
100
AcDbEntity
  8
0
100
AcDbLine
 62
7
  6
CONTINUOUS
 10
2.787652
 20
-23.310399
 11
3.240652
 21
-23.310399
  0
LINE
  5
24F
100
AcDbEntity
  8
0
100
AcDbLine
 62
7
  6
CONTINUOUS
 10
3.285652
 20
-23.009399
 11
2.439652
 21
-23.009399
  0
LINE
  5
250
100
AcDbEntity
  8
0
100
AcDbLine
 62
7
  6
CONTINUOUS
 10
1.564652
 20
-23.009399
 11
1.201652
 21
-23.009399
  0
LINE
  5
251
100
AcDbEntity
  8
0
100
AcDbLine
 62
7
  6
CONTINUOUS
 10
0.340652
 20
-23.009399
 11
-0.202348
 21
-23.009399
  0
LINE
  5
252
100
AcDbEntity
  8
0
100
AcDbLine
 62
7
  6
CONTINUOUS
 10
-0.882348
 20
-23.009399
 11
-1.441348
 21
-23.009399
  0
LINE
  5
253
100
AcDbEntity
  8
0
100
AcDbLine
 62
7
  6
CONTINUOUS
 10
-1.758348
 20
-23.009399
 11
-2.120348
 21
-23.009399
  0
LINE
  5
254
100
AcDbEntity
  8
0
100
AcDbLine
 62
7
  6
CONTINUOUS
 10
-2.392348
 20
-23.009399
 11
-2.754348
 21
-23.009399
  0
LINE
  5
255
100
AcDbEntity
  8
0
100
AcDbLine
 62
7
  6
CONTINUOUS
 10
-3.555348
 20
-23.009399
 11
-3.917348
 21
-23.009399
  0
LINE
  5
256
100
AcDbEntity
  8
RACCORDO
100
AcDbLine
 62
253
  6
CONTINUOUS
 10
-44.7132705122
 20
-22.7263604502
 11
44.7132705122
 21
-22.7263604502
  0
LINE
  5
257
100
AcDbEntity
  8
RACCORDO
100
AcDbLine
 62
253
  6
CONTINUOUS
 10
-44.7132705122
 20
-22.5132248208
 11
44.7132705122
 21
-22.5132248208
  0
LINE
  5
258
100
AcDbEntity
  8
0
100
AcDbLine
 62
7
  6
CONTINUOUS
 10
-44.7000456915
 20
-22.5
 11
44.7000456915
 21
-22.5
  0
LINE
  5
259
100
AcDbEntity
  8
0
100
AcDbLine
 62
7
  6
CONTINUOUS
 10
3.473652
 20
-23.039399
 11
3.285652
 21
-23.009399
  0
LINE
  5
25A
100
AcDbEntity
  8
0
100
AcDbLine
 62
7
  6
CONTINUOUS
 10
3.240652
 20
-23.310399
 11
3.326652
 21
-23.326399
  0
LINE
  5
25B
100
AcDbEntity
  8
0
100
AcDbLine
 62
253
  6
CONTINUOUS
 10
-44.7132705122
 20
-22.5132248208
 11
-44.7000456915
 21
-22.5
  0
LINE
  5
25C
100
AcDbEntity
  8
0
100
AcDbLine
 62
253
  6
CONTINUOUS
 10
-45.0203382118
 20
-22.220338224
 11
-45.0
 21
-22.2000456915
  0
LINE
  5
25D
100
AcDbEntity
  8
0
100
AcDbLine
 62
7
  6
CONTINUOUS
 10
3.639652
 20
-23.124399
 11
3.473652
 21
-23.039399
  0
LINE
  5
25E
100
AcDbEntity
  8
0
100
AcDbLine
 62
7
  6
CONTINUOUS
 10
3.326652
 20
-23.326399
 11
3.400652
 21
-23.371399
  0
LINE
  5
25F
100
AcDbEntity
  8
0
100
AcDbLine
 62
253
  6
CONTINUOUS
 10
-45.0
 20
22.2000456915
 11
-45.0203398345
 21
22.220385526
  0
LINE
  5
260
100
AcDbEntity
  8
0
100
AcDbLine
 62
253
  6
CONTINUOUS
 10
-44.7000456915
 20
22.5
 11
-44.7132705122
 21
22.5132248208
  0
LINE
  5
261
100
AcDbEntity
  8
0
100
AcDbLine
 62
7
  6
CONTINUOUS
 10
3.763652
 20
-23.255399
 11
3.639652
 21
-23.124399
  0
LINE
  5
262
100
AcDbEntity
  8
0
100
AcDbLine
 62
7
  6
CONTINUOUS
 10
3.400652
 20
-23.371399
 11
3.449652
 21
-23.437399
  0
LINE
  5
263
100
AcDbEntity
  8
0
100
AcDbLine
 62
7
  6
CONTINUOUS
 10
3.889652
 20
-24.638399
 11
3.496652
 21
-23.981399
  0
LINE
  5
264
100
AcDbEntity
  8
0
100
AcDbLine
 62
7
  6
CONTINUOUS
 10
3.119652
 20
-24.022399
 11
3.481652
 21
-24.638399
  0
LINE
  5
265
100
AcDbEntity
  8
0
100
AcDbLine
 62
7
  6
CONTINUOUS
 10
1.669652
 20
-24.323399
 11
1.790652
 21
-24.638399
  0
LINE
  5
266
100
AcDbEntity
  8
0
100
AcDbLine
 62
7
  6
CONTINUOUS
 10
-3.917348
 20
-23.009399
 11
-3.328348
 21
-24.638399
  0
LINE
  5
267
100
AcDbEntity
  8
0
100
AcDbLine
 62
7
  6
CONTINUOUS
 10
2.152652
 20
-24.638399
 11
1.564652
 21
-23.009399
  0
LINE
  5
268
100
AcDbEntity
  8
0
100
AcDbLine
 62
7
  6
CONTINUOUS
 10
1.382652
 20
-23.516399
 11
1.564652
 21
-24.022399
  0
LINE
  5
269
100
AcDbEntity
  8
0
100
AcDbLine
 62
7
  6
CONTINUOUS
 10
-3.162348
 20
-24.145399
 11
-3.555348
 21
-23.009399
  0
LINE
  5
26A
100
AcDbEntity
  8
0
100
AcDbLine
 62
7
  6
CONTINUOUS
 10
-1.078348
 20
-23.570399
 11
-0.731348
 21
-24.638399
  0
LINE
  5
26B
100
AcDbEntity
  8
0
100
AcDbLine
 62
7
  6
CONTINUOUS
 10
-0.550348
 20
-24.077399
 11
-0.882348
 21
-23.009399
  0
LINE
  5
26C
100
AcDbEntity
  8
0
100
AcDbLine
 62
7
  6
CONTINUOUS
 10
-2.120348
 20
-23.009399
 11
-2.120348
 21
-24.638399
  0
LINE
  5
26D
100
AcDbEntity
  8
0
100
AcDbLine
 62
7
  6
CONTINUOUS
 10
-1.758348
 20
-24.638399
 11
-1.758348
 21
-23.009399
  0
LINE
  5
26E
100
AcDbEntity
  8
0
100
AcDbLine
 62
7
  6
CONTINUOUS
 10
-1.441348
 20
-23.009399
 11
-1.441348
 21
-24.638399
  0
LINE
  5
26F
100
AcDbEntity
  8
0
100
AcDbLine
 62
7
  6
CONTINUOUS
 10
-1.078348
 20
-24.638399
 11
-1.078348
 21
-23.570399
  0
LINE
  5
270
100
AcDbEntity
  8
0
100
AcDbLine
 62
7
  6
CONTINUOUS
 10
-0.021348
 20
-23.570399
 11
-0.021348
 21
-24.638399
  0
LINE
  5
271
100
AcDbEntity
  8
0
100
AcDbLine
 62
7
  6
CONTINUOUS
 10
0.340652
 20
-24.638399
 11
0.340652
 21
-23.009399
  0
LINE
  5
272
100
AcDbEntity
  8
0
100
AcDbLine
 62
7
  6
CONTINUOUS
 10
3.831652
 20
-23.416399
 11
3.763652
 21
-23.255399
  0
LINE
  5
273
100
AcDbEntity
  8
0
100
AcDbLine
 62
7
  6
CONTINUOUS
 10
3.449652
 20
-23.437399
 11
3.466652
 21
-23.516399
  0
LINE
  5
274
100
AcDbEntity
  8
0
100
AcDbLine
 62
7
  6
CONTINUOUS
 10
3.836652
 20
-23.589399
 11
3.831652
 21
-23.416399
  0
LINE
  5
275
100
AcDbEntity
  8
0
100
AcDbLine
 62
7
  6
CONTINUOUS
 10
2.439652
 20
-23.009399
 11
2.439652
 21
-24.638399
  0
LINE
  5
276
100
AcDbEntity
  8
0
100
AcDbLine
 62
7
  6
CONTINUOUS
 10
2.787652
 20
-23.721399
 11
2.787652
 21
-23.310399
  0
LINE
  5
277
100
AcDbEntity
  8
0
100
AcDbLine
 62
7
  6
CONTINUOUS
 10
2.802652
 20
-24.638399
 11
2.802652
 21
-24.022399
  0
LINE
  5
278
100
AcDbEntity
  8
0
100
AcDbLine
 62
7
  6
CONTINUOUS
 10
-0.368348
 20
-24.638399
 11
-0.021348
 21
-23.570399
  0
LINE
  5
279
100
AcDbEntity
  8
0
100
AcDbLine
 62
7
  6
CONTINUOUS
 10
-0.202348
 20
-23.009399
 11
-0.550348
 21
-24.077399
  0
LINE
  5
27A
100
AcDbEntity
  8
0
100
AcDbLine
 62
7
  6
CONTINUOUS
 10
-2.754348
 20
-23.009399
 11
-3.162348
 21
-24.145399
  0
LINE
  5
27B
100
AcDbEntity
  8
0
100
AcDbLine
 62
7
  6
CONTINUOUS
 10
-2.981348
 20
-24.638399
 11
-2.392348
 21
-23.009399
  0
LINE
  5
27C
100
AcDbEntity
  8
0
100
AcDbLine
 62
7
  6
CONTINUOUS
 10
3.466652
 20
-23.516399
 11
3.449652
 21
-23.594399
  0
LINE
  5
27D
100
AcDbEntity
  8
0
100
AcDbLine
 62
7
  6
CONTINUOUS
 10
1.216652
 20
-24.022399
 11
1.382652
 21
-23.516399
  0
LINE
  5
27E
100
AcDbEntity
  8
0
100
AcDbLine
 62
7
  6
CONTINUOUS
 10
0.990652
 20
-24.638399
 11
1.095652
 21
-24.323399
  0
LINE
  5
27F
100
AcDbEntity
  8
0
100
AcDbLine
 62
7
  6
CONTINUOUS
 10
1.201652
 20
-23.009399
 11
0.627652
 21
-24.638399
  0
LINE
  5
280
100
AcDbEntity
  8
0
100
AcDbLine
 62
7
  6
CONTINUOUS
 10
3.776652
 20
-23.753399
 11
3.836652
 21
-23.589399
  0
LINE
  5
281
100
AcDbEntity
  8
0
100
AcDbLine
 62
7
  6
CONTINUOUS
 10
3.449652
 20
-23.594399
 11
3.400652
 21
-23.661399
  0
LINE
  5
282
100
AcDbEntity
  8
0
100
AcDbLine
 62
7
  6
CONTINUOUS
 10
3.658652
 20
-23.889399
 11
3.776652
 21
-23.753399
  0
LINE
  5
283
100
AcDbEntity
  8
0
100
AcDbLine
 62
253
  6
CONTINUOUS
 10
44.7132705122
 20
22.5132248208
 11
44.7000456915
 21
22.5
  0
LINE
  5
284
100
AcDbEntity
  8
0
100
AcDbLine
 62
253
  6
CONTINUOUS
 10
45.0203381756
 20
22.2203352687
 11
45.0
 21
22.2000456915
  0
LINE
  5
285
100
AcDbEntity
  8
0
100
AcDbLine
 62
7
  6
CONTINUOUS
 10
3.400652
 20
-23.661399
 11
3.326652
 21
-23.705399
  0
LINE
  5
286
100
AcDbEntity
  8
0
100
AcDbLine
 62
7
  6
CONTINUOUS
 10
3.496652
 20
-23.981399
 11
3.658652
 21
-23.889399
  0
LINE
  5
287
100
AcDbEntity
  8
0
100
AcDbLine
 62
7
  6
CONTINUOUS
 10
44.7000456915
 20
22.5
 11
-44.7000456915
 21
22.5
  0
LINE
  5
288
100
AcDbEntity
  8
RACCORDO
100
AcDbLine
 62
253
  6
CONTINUOUS
 10
44.7132705122
 20
22.5132248208
 11
-44.7132705122
 21
22.5132248208
  0
LINE
  5
289
100
AcDbEntity
  8
0
100
AcDbLine
 62
253
  6
CONTINUOUS
 10
44.7000456915
 20
-22.5
 11
44.7132705122
 21
-22.5132248208
  0
LINE
  5
28A
100
AcDbEntity
  8
0
100
AcDbLine
 62
253
  6
CONTINUOUS
 10
45.0
 20
-22.2000456915
 11
45.0203397709
 21
-22.2203854623
  0
LINE
  5
28B
100
AcDbEntity
  8
RACCORDO
100
AcDbLine
 62
253
  6
CONTINUOUS
 10
44.7132705122
 20
22.7263604502
 11
-44.7132705122
 21
22.7263604502
  0
LINE
  5
28C
100
AcDbEntity
  8
RACCORDO
100
AcDbLine
 62
253
  6
CONTINUOUS
 10
44.7244634334
 20
-22.7262811707
 11
44.7246011243
 21
-22.7374580461
  0
LINE
  5
28D
100
AcDbEntity
  8
RACCORDO
100
AcDbLine
 62
253
  6
CONTINUOUS
 10
45.0203397709
 20
-22.2203854623
 11
45.0245554694
 21
-22.5653881026
  0
LINE
  5
28E
100
AcDbEntity
  8
RACCORDO
100
AcDbLine
 62
253
  6
CONTINUOUS
 10
44.7132705122
 20
-22.5132248208
 11
44.7132705122
 21
-22.7263604502
  0
LINE
  5
28F
100
AcDbEntity
  8
RACCORDO
100
AcDbLine
 62
253
  6
CONTINUOUS
 10
44.7132705122
 20
22.5132248208
 11
44.7132705122
 21
22.7263604502
  0
LINE
  5
290
100
AcDbEntity
  8
0
100
AcDbLine
 62
7
  6
CONTINUOUS
 10
45.0
 20
22.2000456915
 11
45.0
 21
-22.2000456915
  0
LINE
  5
291
100
AcDbEntity
  8
RACCORDO
100
AcDbLine
 62
253
  6
CONTINUOUS
 10
45.0203381756
 20
22.2203352687
 11
45.0245554882
 21
22.5653896425
  0
LINE
  5
292
100
AcDbEntity
  8
RACCORDO
100
AcDbLine
 62
253
  6
CONTINUOUS
 10
44.7244628969
 20
22.7262811764
 11
44.7246011243
 21
22.7374580431
  0
LINE
  5
293
100
AcDbEntity
  8
DRAFT
100
AcDbLine
 62
7
  6
CONTINUOUS
 10
-88.47490912
 20
-40.0
 11
-95.3542319144
 21
-39.6394699694
  0
LINE
  5
294
100
AcDbEntity
  8
0
100
AcDbLine
 62
7
  6
CONTINUOUS
 10
-96.9722322195
 20
-24.638399
 11
-97.2163871373
 21
-24.638399
  0
LINE
  5
295
100
AcDbEntity
  8
0
100
AcDbLine
 62
7
  6
CONTINUOUS
 10
-96.5121958669
 20
-23.981399
 11
-96.7563507847
 21
-23.981399
  0
LINE
  5
296
100
AcDbEntity
  8
0
100
AcDbLine
 62
7
  6
CONTINUOUS
 10
-96.4477767734
 20
-23.889399
 11
-96.6919316912
 21
-23.889399
  0
LINE
  5
297
100
AcDbEntity
  8
0
100
AcDbLine
 62
7
  6
CONTINUOUS
 10
-96.3525485482
 20
-23.753399
 11
-96.596703466
 21
-23.753399
  0
LINE
  5
298
100
AcDbEntity
  8
0
100
AcDbLine
 62
7
  6
CONTINUOUS
 10
-96.3256556129
 20
-23.589399
 11
-96.4818694297
 21
-23.589399
  0
LINE
  5
299
100
AcDbEntity
  8
0
100
AcDbLine
 62
7
  6
CONTINUOUS
 10
-96.3336650321
 20
-23.416399
 11
-96.3607335256
 21
-23.416399
  0
LINE
  5
29A
100
AcDbEntity
  8
RACCORDO
100
AcDbLine
 62
7
  6
CONTINUOUS
 10
-96.3861583889
 20
-22.2825651394
 11
-96.3064729083
 21
-24.0037371423
  0
LINE
  5
29B
100
AcDbEntity
  8
RACCORDO
100
AcDbLine
 62
7
  6
CONTINUOUS
 10
-96.4623880948
 20
-20.500953025
 11
-96.386127968
 21
-22.2832222177
  0
LINE
  5
29C
100
AcDbEntity
  8
RACCORDO
100
AcDbLine
 62
7
  6
CONTINUOUS
 10
-96.5322685786
 20
-18.7190800315
 11
-96.4623351627
 21
-20.5022439802
  0
LINE
  5
29D
100
AcDbEntity
  8
RACCORDO
100
AcDbLine
 62
7
  6
CONTINUOUS
 10
-96.5957989067
 20
-16.9369687448
 11
-96.5322202511
 21
-18.720371096
  0
LINE
  5
29E
100
AcDbEntity
  8
RACCORDO
100
AcDbLine
 62
7
  6
CONTINUOUS
 10
-96.6529782628
 20
-15.154641869
 11
-96.5957551734
 21
-16.9382600255
  0
LINE
  5
29F
100
AcDbEntity
  8
RACCORDO
100
AcDbLine
 62
7
  6
CONTINUOUS
 10
-96.7038059656
 20
-13.3721222278
 11
-96.6529391305
 21
-15.1559334187
  0
LINE
  5
2A0
100
AcDbEntity
  8
RACCORDO
100
AcDbLine
 62
7
  6
CONTINUOUS
 10
-96.7482813474
 20
-11.5894324755
 11
-96.7037714383
 21
-13.3734139593
  0
LINE
  5
2A1
100
AcDbEntity
  8
RACCORDO
100
AcDbLine
 62
7
  6
CONTINUOUS
 10
-96.7864037988
 20
-9.8065952842
 11
-96.7482514183
 21
-11.5907242914
  0
LINE
  5
2A2
100
AcDbEntity
  8
RACCORDO
100
AcDbLine
 62
7
  6
CONTINUOUS
 10
-96.8181728856
 20
-8.0236334876
 11
-96.786378475
 21
-9.8078870575
  0
LINE
  5
2A3
100
AcDbEntity
  8
RACCORDO
100
AcDbLine
 62
7
  6
CONTINUOUS
 10
-96.8435882124
 20
-6.2405697122
 11
-96.8181521768
 21
-8.0249249419
  0
LINE
  5
2A4
100
AcDbEntity
  8
RACCORDO
100
AcDbLine
 62
7
  6
CONTINUOUS
 10
-96.8626494026
 20
-4.457426603
 11
-96.843572113
 21
-6.2418605908
  0
LINE
  5
2A5
100
AcDbEntity
  8
RACCORDO
100
AcDbLine
 62
7
  6
CONTINUOUS
 10
-96.8753562424
 20
-2.674227025
 11
-96.8626379059
 21
-4.4587166534
  0
LINE
  5
2A6
100
AcDbEntity
  8
RACCORDO
100
AcDbLine
 62
7
  6
CONTINUOUS
 10
-96.8817086051
 20
-0.8909936572
 11
-96.8753493542
 21
-2.6755158206
  0
LINE
  5
2A7
100
AcDbEntity
  8
RACCORDO
100
AcDbLine
 62
7
  6
CONTINUOUS
 10
-96.8817063685
 20
0.8922508854
 11
-96.8817063153
 21
-0.892280717
  0
LINE
  5
2A8
100
AcDbEntity
  8
RACCORDO
100
AcDbLine
 62
7
  6
CONTINUOUS
 10
-96.8753495253
 20
2.675483828
 11
-96.8817086545
 21
0.890965977
  0
LINE
  5
2A9
100
AcDbEntity
  8
RACCORDO
100
AcDbLine
 62
7
  6
CONTINUOUS
 10
-96.8626382102
 20
4.4586824893
 11
-96.8753563789
 21
2.6742014884
  0
LINE
  5
2AA
100
AcDbEntity
  8
RACCORDO
100
AcDbLine
 62
7
  6
CONTINUOUS
 10
-96.8435725664
 20
6.2418242458
 11
-96.862649611
 21
4.4574032013
  0
LINE
  5
2AB
100
AcDbEntity
  8
RACCORDO
100
AcDbLine
 62
7
  6
CONTINUOUS
 10
-96.8181527949
 20
8.0248864074
 11
-96.8435884778
 21
6.2405484374
  0
LINE
  5
2AC
100
AcDbEntity
  8
RACCORDO
100
AcDbLine
 62
7
  6
CONTINUOUS
 10
-96.7863792734
 20
9.8078463253
 11
-96.8181731927
 21
8.0236143366
  0
LINE
  5
2AD
100
AcDbEntity
  8
RACCORDO
100
AcDbLine
 62
7
  6
CONTINUOUS
 10
-96.7482524131
 20
11.590681353
 11
-96.7864041325
 21
9.8065782536
  0
LINE
  5
2AE
100
AcDbEntity
  8
RACCORDO
100
AcDbLine
 62
7
  6
CONTINUOUS
 10
-96.7037726454
 20
13.3733688077
 11
-96.7482816928
 21
11.5894175621
  0
LINE
  5
2AF
100
AcDbEntity
  8
RACCORDO
100
AcDbLine
 62
7
  6
CONTINUOUS
 10
-96.6529405658
 20
15.1558860466
 11
-96.7038063077
 21
13.3721094331
  0
LINE
  5
2B0
100
AcDbEntity
  8
RACCORDO
100
AcDbLine
 62
7
  6
CONTINUOUS
 10
-96.5957568531
 20
16.938210426
 11
-96.6529785862
 21
15.1546311945
  0
LINE
  5
2B1
100
AcDbEntity
  8
RACCORDO
100
AcDbLine
 62
7
  6
CONTINUOUS
 10
-96.5322221916
 20
18.7203192632
 11
-96.5957991963
 21
16.9369601919
  0
LINE
  5
2B2
100
AcDbEntity
  8
RACCORDO
100
AcDbLine
 62
7
  6
CONTINUOUS
 10
-96.4623373799
 20
20.5021899087
 11
-96.5322688192
 21
18.7190736065
  0
LINE
  5
2B3
100
AcDbEntity
  8
RACCORDO
100
AcDbLine
 62
7
  6
CONTINUOUS
 10
-96.3861033563
 20
22.2837997476
 11
-96.4623882707
 21
20.5009487356
  0
LINE
  5
2B4
100
AcDbEntity
  8
RACCORDO
100
AcDbLine
 62
7
  6
CONTINUOUS
 10
-96.3064729151
 20
24.0037370169
 11
-96.3861293392
 21
22.2831925205
  0
LINE
  5
2B5
100
AcDbEntity
  8
RACCORDO
100
AcDbLine
 62
7
  6
CONTINUOUS
 10
-88.7487623972
 20
-3.6510182698
 11
-90.2010558429
 21
-3.5239590572
  0
LINE
  5
2B6
100
AcDbEntity
  8
RACCORDO
100
AcDbLine
 62
7
  6
CONTINUOUS
 10
-90.47490912
 20
-3.2251006478
 11
-90.47490912
 21
3.2251006478
  0
LINE
  5
2B7
100
AcDbEntity
  8
RACCORDO
100
AcDbLine
 62
7
  6
CONTINUOUS
 10
-90.2010558429
 20
3.5239590572
 11
-88.7487623972
 21
3.6510182698
  0
LINE
  5
2B8
100
AcDbEntity
  8
RACCORDO
100
AcDbLine
 62
7
  6
CONTINUOUS
 10
-88.47490912
 20
-40.0
 11
-88.47490912
 21
-3.9498766793
  0
LINE
  5
2B9
100
AcDbEntity
  8
RACCORDO
100
AcDbLine
 62
7
  6
CONTINUOUS
 10
-88.47490912
 20
3.9498766793
 11
-88.47490912
 21
40.0
  0
LINE
  5
2BA
100
AcDbEntity
  8
0
100
AcDbLine
 62
7
  6
CONTINUOUS
 10
-97.2163871373
 20
-24.638399
 11
-96.3353437837
 21
-23.3801386907
  0
LINE
  5
2BB
100
AcDbEntity
  8
RACCORDO
100
AcDbLine
 62
7
  6
CONTINUOUS
 10
-97.1442476118
 20
-24.8840624395
 11
-96.3202016241
 21
-23.7072028048
  0
LINE
  5
2BC
100
AcDbEntity
  8
RACCORDO
100
AcDbLine
 62
7
  6
CONTINUOUS
 10
-97.1442476117
 20
24.8840624395
 11
-96.3202019687
 21
23.7072032969
  0
LINE
  5
2BD
100
AcDbEntity
  8
DRAFT
100
AcDbLine
 62
7
  6
CONTINUOUS
 10
-88.47490912
 20
40.0
 11
-95.3542319145
 21
39.6394699694
  0
ARC
  5
2BE
100
AcDbEntity
  8
RACCORDO
100
AcDbCircle
 62
253
  6
CONTINUOUS
 10
0.0000000016
 20
1471.1400979509
 40
1510.7795400673
100
AcDbArc
 50
267.4365957066
 51
272.5634042656
  0
ARC
  5
2BF
100
AcDbEntity
  8
RACCORDO
100
AcDbCircle
 62
253
  6
CONTINUOUS
 10
-0.0000000016
 20
-1471.1400979508
 40
1510.7795400673
100
AcDbArc
 50
87.4365957066
 51
92.5634042656
  0
ARC
  5
2C0
100
AcDbEntity
  8
RACCORDO
100
AcDbCircle
 62
253
  6
CONTINUOUS
 10
-0.0
 20
1471.0116071623
 40
1509.545172934
100
AcDbArc
 50
267.4334606294
 51
272.5665393706
  0
ARC
  5
2C1
100
AcDbEntity
  8
RACCORDO
100
AcDbCircle
 62
253
  6
CONTINUOUS
 10
0.0
 20
-1471.0116071625
 40
1509.5451729342
100
AcDbArc
 50
87.4334606294
 51
92.5665393706
  0
ARC
  5
2C2
100
AcDbEntity
  8
RACCORDO
100
AcDbCircle
 62
7
  6
CONTINUOUS
 10
-0.0
 20
1360.0
 40
1400.0
100
AcDbArc
 50
267.2242830635
 51
272.7757169365
  0
ARC
  5
2C3
100
AcDbEntity
  8
RACCORDO
100
AcDbCircle
 62
7
  6
CONTINUOUS
 10
-0.0
 20
-1360.0
 40
1400.0
100
AcDbArc
 50
87.2242830635
 51
92.7757169365
  0
ARC
  5
2C4
100
AcDbEntity
  8
RACCORDO
100
AcDbCircle
 62
253
  6
CONTINUOUS
 10
-568.503326296
 20
-0.0
 40
638.3394377006
100
AcDbArc
 50
356.7852483613
 51
3.2147516387
  0
ARC
  5
2C5
100
AcDbEntity
  8
RACCORDO
100
AcDbCircle
 62
253
  6
CONTINUOUS
 10
568.5033262961
 20
0.0
 40
638.3394377007
100
AcDbArc
 50
176.7852483613
 51
183.2147516387
  0
ARC
  5
2C6
100
AcDbEntity
  8
RACCORDO
100
AcDbCircle
 62
253
  6
CONTINUOUS
 10
-566.4795797066
 20
0.0000000016
 40
637.4258327702
100
AcDbArc
 50
356.7819139191
 51
3.2180860164
  0
ARC
  5
2C7
100
AcDbEntity
  8
RACCORDO
100
AcDbCircle
 62
253
  6
CONTINUOUS
 10
566.4795797069
 20
-0.0000000016
 40
637.4258327702
100
AcDbArc
 50
176.7819139191
 51
183.2180860164
  0
ARC
  5
2C8
100
AcDbEntity
  8
RACCORDO
100
AcDbCircle
 62
7
  6
CONTINUOUS
 10
528.7499925308
 20
-0.0
 40
599.9999925308
100
AcDbArc
 50
180.377188168
 51
183.4411194171
  0
ARC
  5
2C9
100
AcDbEntity
  8
RACCORDO
100
AcDbCircle
 62
7
  6
CONTINUOUS
 10
-528.7499925308
 20
-0.0
 40
599.9999925308
100
AcDbArc
 50
356.5588805829
 51
359.622811832
  0
ARC
  5
2CA
100
AcDbEntity
  8
RACCORDO
100
AcDbCircle
 62
7
  6
CONTINUOUS
 10
-528.7499925308
 20
-0.0
 40
599.9999925308
100
AcDbArc
 50
0.377188168
 51
3.4411194171
  0
ARC
  5
2CB
100
AcDbEntity
  8
RACCORDO
100
AcDbCircle
 62
7
  6
CONTINUOUS
 10
528.7499925308
 20
-0.0
 40
599.9999925308
100
AcDbArc
 50
176.5588805829
 51
179.622811832
  0
ARC
  5
2CC
100
AcDbEntity
  8
RACCORDO
100
AcDbCircle
 62
7
  6
CONTINUOUS
 10
-528.7499925308
 20
-0.0
 40
599.8951769722
100
AcDbArc
 50
359.6919702761
 51
0.3080297239
  0
ARC
  5
2CD
100
AcDbEntity
  8
RACCORDO
100
AcDbCircle
 62
7
  6
CONTINUOUS
 10
528.7499925308
 20
-0.0
 40
599.8951769722
100
AcDbArc
 50
179.6919702761
 51
180.3080297239
  0
ARC
  5
2CE
100
AcDbEntity
  8
RACCORDO
100
AcDbCircle
 62
7
  6
CONTINUOUS
 10
-67.6773187093
 20
-35.8650068181
 40
2.4952485111
100
AcDbArc
 50
183.4152505144
 51
267.2501519672
  0
ARC
  5
2CF
100
AcDbEntity
  8
RACCORDO
100
AcDbCircle
 62
7
  6
CONTINUOUS
 10
67.6773187097
 20
-35.8650068182
 40
2.4952485108
100
AcDbArc
 50
272.7498480248
 51
356.5847494877
  0
ARC
  5
2D0
100
AcDbEntity
  8
RACCORDO
100
AcDbCircle
 62
7
  6
CONTINUOUS
 10
67.6773187099
 20
35.8650068187
 40
2.4952484665
100
AcDbArc
 50
3.4152505021
 51
87.2501519794
  0
ARC
  5
2D1
100
AcDbEntity
  8
RACCORDO
100
AcDbCircle
 62
7
  6
CONTINUOUS
 10
-67.6773187098
 20
35.8650068184
 40
2.4952484668
100
AcDbArc
 50
92.7498480225
 51
176.5847494899
  0
ARC
  5
2D2
100
AcDbEntity
  8
RACCORDO
100
AcDbCircle
 62
253
  6
CONTINUOUS
 10
44.7132547492
 20
-21.9339700524
 40
0.7923903979
100
AcDbArc
 50
270.0011397873
 51
270.8104991152
  0
ARC
  5
2D3
100
AcDbEntity
  8
RACCORDO
100
AcDbCircle
 62
253
  6
CONTINUOUS
 10
44.713254889
 20
21.9340087294
 40
0.792351721
100
AcDbArc
 50
89.1895102279
 51
89.9988702661
  0
ARC
  5
2D4
100
AcDbEntity
  8
RACCORDO
100
AcDbCircle
 62
253
  6
CONTINUOUS
 10
-44.713262541
 20
-21.9350886105
 40
0.7912718397
100
AcDbArc
 50
269.1889573522
 51
269.9994228071
  0
ARC
  5
2D5
100
AcDbEntity
  8
RACCORDO
100
AcDbCircle
 62
253
  6
CONTINUOUS
 10
-44.7132626711
 20
21.9351256434
 40
0.7912348068
100
AcDbArc
 50
90.000567797
 51
90.8110329038
  0
ARC
  5
2D6
100
AcDbEntity
  8
RACCORDO
100
AcDbCircle
 62
253
  6
CONTINUOUS
 10
-44.7134185968
 20
-22.2228553995
 40
0.2903694591
100
AcDbArc
 50
269.2005946073
 51
270.0292200986
  0
ARC
  5
2D7
100
AcDbEntity
  8
RACCORDO
100
AcDbCircle
 62
253
  6
CONTINUOUS
 10
-44.7134185969
 20
22.2228554026
 40
0.290369456
100
AcDbArc
 50
89.9707798969
 51
90.799405397
  0
ARC
  5
2D8
100
AcDbEntity
  8
RACCORDO
100
AcDbCircle
 62
253
  6
CONTINUOUS
 10
44.7134186379
 20
22.2228615064
 40
0.2903633522
100
AcDbArc
 50
89.2005858934
 51
90.0292288127
  0
ARC
  5
2D9
100
AcDbEntity
  8
RACCORDO
100
AcDbCircle
 62
253
  6
CONTINUOUS
 10
44.7134186379
 20
-22.2228615101
 40
0.2903633485
100
AcDbArc
 50
269.9707711822
 51
270.7994141119
  0
ARC
  5
2DA
100
AcDbEntity
  8
RACCORDO
100
AcDbCircle
 62
253
  6
CONTINUOUS
 10
403.5375226591
 20
0.0000000083
 40
500.4194492058
100
AcDbArc
 50
177.2506279356
 51
182.7493720807
  0
ARC
  5
2DB
100
AcDbEntity
  8
SUPERFICI
100
AcDbCircle
 62
7
  6
CONTINUOUS
 10
402.02509088
 20
0.0
 40
500.0
100
AcDbArc
 50
182.9243462271
 51
184.4200074591
  0
ARC
  5
2DC
100
AcDbEntity
  8
SUPERFICI
100
AcDbCircle
 62
7
  6
CONTINUOUS
 10
402.02509088
 20
0.0
 40
500.0
100
AcDbArc
 50
175.5799925409
 51
177.0756537729
  0
ARC
  5
2DD
100
AcDbEntity
  8
RACCORDO
100
AcDbCircle
 62
253
  6
CONTINUOUS
 10
-94.4222999362
 20
-23.9132231565
 40
1.8863455223
100
AcDbArc
 50
182.7509587636
 51
184.1647652856
  0
ARC
  5
2DE
100
AcDbEntity
  8
RACCORDO
100
AcDbCircle
 62
253
  6
CONTINUOUS
 10
-94.4223202643
 20
23.9132241924
 40
1.8863251735
100
AcDbArc
 50
175.8352211602
 51
177.2490584545
  0
ARC
  5
2DF
100
AcDbEntity
  8
RACCORDO
100
AcDbCircle
 62
7
  6
CONTINUOUS
 10
-95.2914287671
 20
-38.4411145277
 40
1.2
100
AcDbArc
 50
184.4200074591
 51
267.0
  0
ARC
  5
2E0
100
AcDbEntity
  8
RACCORDO
100
AcDbCircle
 62
7
  6
CONTINUOUS
 10
-95.2914287671
 20
38.4411145277
 40
1.2
100
AcDbArc
 50
93.0
 51
175.5799925409
  0
ARC
  5
2E1
100
AcDbEntity
  8
RACCORDO
100
AcDbCircle
 62
7
  6
CONTINUOUS
 10
-96.3250958366
 20
-25.4576392602
 40
1.0
100
AcDbArc
 50
145.0
 51
182.9243462382
  0
ARC
  5
2E2
100
AcDbEntity
  8
RACCORDO
100
AcDbCircle
 62
7
  6
CONTINUOUS
 10
-96.3250958366
 20
25.4576392602
 40
1.0
100
AcDbArc
 50
177.0756537618
 51
215.0
  0
ARC
  5
2E3
100
AcDbEntity
  8
RACCORDO
100
AcDbCircle
 62
253
  6
CONTINUOUS
 10
-95.4239521801
 20
-23.9628603864
 40
0.8840389083
100
AcDbArc
 50
182.6511432021
 51
185.6710717874
  0
ARC
  5
2E4
100
AcDbEntity
  8
RACCORDO
100
AcDbCircle
 62
253
  6
CONTINUOUS
 10
-95.4239548239
 20
23.9628603617
 40
0.8840362825
100
AcDbArc
 50
174.3289094918
 51
177.3488585395
  0
ARC
  5
2E5
100
AcDbEntity
  8
RACCORDO
100
AcDbCircle
 62
253
  6
CONTINUOUS
 10
-95.4278327097
 20
23.9630640565
 40
0.8801531258
100
AcDbArc
 50
177.3504278212
 51
177.9772563922
  0
ARC
  5
2E6
100
AcDbEntity
  8
RACCORDO
100
AcDbCircle
 62
253
  6
CONTINUOUS
 10
-95.427833181
 20
-23.9630640969
 40
0.8801526391
100
AcDbArc
 50
182.0126814625
 51
182.6495822858
  0
ARC
  5
2E7
100
AcDbEntity
  8
RACCORDO
100
AcDbCircle
 62
253
  6
CONTINUOUS
 10
-95.4304685098
 20
-23.9631516211
 40
0.8775158623
100
AcDbArc
 50
180.7629975886
 51
182.0130134386
  0
ARC
  5
2E8
100
AcDbEntity
  8
RACCORDO
100
AcDbCircle
 62
253
  6
CONTINUOUS
 10
-95.4304727894
 20
23.96315203
 40
0.877511586
100
AcDbArc
 50
177.9769125478
 51
179.2394800456
  0
ARC
  5
2E9
100
AcDbEntity
  8
RACCORDO
100
AcDbCircle
 62
7
  6
CONTINUOUS
 10
-88.77490912
 20
-3.9498766793
 40
0.3
100
AcDbArc
 50
0.0
 51
85.0
  0
ARC
  5
2EA
100
AcDbEntity
  8
RACCORDO
100
AcDbCircle
 62
7
  6
CONTINUOUS
 10
-88.77490912
 20
3.9498766793
 40
0.3
100
AcDbArc
 50
275.0
 51
360.0
  0
ARC
  5
2EB
100
AcDbEntity
  8
RACCORDO
100
AcDbCircle
 62
7
  6
CONTINUOUS
 10
-90.17490912
 20
-3.2251006478
 40
0.3
100
AcDbArc
 50
180.0
 51
265.0
  0
ARC
  5
2EC
100
AcDbEntity
  8
RACCORDO
100
AcDbCircle
 62
7
  6
CONTINUOUS
 10
-90.17490912
 20
3.2251006478
 40
0.3
100
AcDbArc
 50
95.0
 51
180.0
  0
SPLINE
  5
2ED
100
AcDbEntity
  8
RACCORDO
100
AcDbSpline
 62
7
  6
CONTINUOUS
 70
0
 71
3
 72
21
 73
17
 74
15
 42
0.0000001
 43
0.0000001
 44
0.0000000001
 12
0.0019724483
 22
0.2996152554
 32
0.0
 13
-0.152815947
 23
0.2577217068
 33
0.0
 40
0.0
 40
0.0
 40
0.0
 40
0.0
 40
0.1056127956
 40
0.2103901899
 40
0.3126344643
 40
0.4111640547
 40
0.5056218971
 40
0.5944876144
 40
0.676301419
 40
0.7505933169
 40
0.8168371764
 40
0.873856122
 40
0.9208722032
 40
0.9578160727
 40
0.9842434229
 40
1.0
 40
1.0
 40
1.0
 40
1.0
 10
71.2369985875
 20
-3.9498766793
 30
0.0
 10
71.2370680261
 20
-3.9393289444
 30
0.0
 10
71.2371478861
 20
-3.9183164746
 30
0.0
 10
71.2370905926
 20
-3.8870923361
 30
0.0
 10
71.2368567046
 20
-3.8565764488
 30
0.0
 10
71.2364493415
 20
-3.8270931149
 30
0.0
 10
71.235872668
 20
-3.7989490218
 30
0.0
 10
71.2351331636
 20
-3.7724787352
 30
0.0
 10
71.2342416018
 20
-3.7480284853
 30
0.0
 10
71.233209616
 20
-3.7258447907
 30
0.0
 10
71.2320472787
 20
-3.7061488307
 30
0.0
 10
71.2307757313
 20
-3.6891861841
 30
0.0
 10
71.2294050218
 20
-3.6751792337
 30
0.0
 10
71.22799546
 20
-3.664222074
 30
0.0
 10
71.2265047549
 20
-3.6564971641
 30
0.0
 10
71.2253419293
 20
-3.6523718738
 30
0.0
 10
71.2245393105
 20
-3.6510182698
 30
0.0
 11
71.2369985875
 21
-3.9498766793
 31
0.0
 11
71.2371183636
 21
-3.9182330155
 31
0.0
 11
71.2370592543
 21
-3.8868394851
 31
0.0
 11
71.2368218734
 21
-3.8562057966
 31
0.0
 11
71.2364102106
 21
-3.8266870589
 31
0.0
 11
71.2358250586
 21
-3.7983914849
 31
0.0
 11
71.2350741519
 21
-3.7717759739
 31
0.0
 11
71.23417127
 21
-3.7472794121
 31
0.0
 11
71.233123472
 21
-3.7250446185
 31
0.0
 11
71.2319366177
 21
-3.7052320344
 31
0.0
 11
71.2306305541
 21
-3.688197915
 31
0.0
 11
71.2292268845
 21
-3.6741809817
 31
0.0
 11
71.2277304409
 21
-3.6632134135
 31
0.0
 11
71.2261592501
 21
-3.6554526538
 31
0.0
 11
71.2245393105
 21
-3.6510182698
 31
0.0
  0
SPLINE
  5
2EE
100
AcDbEntity
  8
RACCORDO
100
AcDbSpline
 62
7
  6
CONTINUOUS
 70
0
 71
3
 72
21
 73
17
 74
15
 42
0.0000001
 43
0.0000001
 44
0.0000000001
 12
0.152815947
 22
0.2577217068
 32
0.0
 13
-0.0019724483
 23
0.2996152554
 33
0.0
 40
0.0
 40
0.0
 40
0.0
 40
0.0
 40
0.0157565771
 40
0.0421839273
 40
0.0791277968
 40
0.126143878
 40
0.1831628236
 40
0.2494066831
 40
0.323698581
 40
0.4055123856
 40
0.4943781029
 40
0.5888359453
 40
0.6873655357
 40
0.7896098101
 40
0.8943872044
 40
1.0
 40
1.0
 40
1.0
 40
1.0
 10
71.2245393105
 20
3.6510182698
 30
0.0
 10
71.2253419293
 20
3.6523718738
 30
0.0
 10
71.2265047549
 20
3.6564971641
 30
0.0
 10
71.22799546
 20
3.664222074
 30
0.0
 10
71.2294050218
 20
3.6751792337
 30
0.0
 10
71.2307757313
 20
3.6891861841
 30
0.0
 10
71.2320472787
 20
3.7061488307
 30
0.0
 10
71.233209616
 20
3.7258447907
 30
0.0
 10
71.2342416018
 20
3.7480284853
 30
0.0
 10
71.2351331636
 20
3.7724787352
 30
0.0
 10
71.235872668
 20
3.7989490218
 30
0.0
 10
71.2364493415
 20
3.8270931149
 30
0.0
 10
71.2368567046
 20
3.8565764488
 30
0.0
 10
71.2370905926
 20
3.8870923361
 30
0.0
 10
71.2371478861
 20
3.9183164746
 30
0.0
 10
71.2370680261
 20
3.9393289444
 30
0.0
 10
71.2369985875
 20
3.9498766793
 30
0.0
 11
71.2245393105
 21
3.6510182698
 31
0.0
 11
71.2261592501
 21
3.6554526538
 31
0.0
 11
71.2277304409
 21
3.6632134135
 31
0.0
 11
71.2292268845
 21
3.6741809817
 31
0.0
 11
71.2306305541
 21
3.688197915
 31
0.0
 11
71.2319366177
 21
3.7052320344
 31
0.0
 11
71.233123472
 21
3.7250446185
 31
0.0
 11
71.23417127
 21
3.7472794121
 31
0.0
 11
71.2350741519
 21
3.7717759739
 31
0.0
 11
71.2358250586
 21
3.7983914849
 31
0.0
 11
71.2364102106
 21
3.8266870589
 31
0.0
 11
71.2368218734
 21
3.8562057966
 31
0.0
 11
71.2370592543
 21
3.8868394851
 31
0.0
 11
71.2371183636
 21
3.9182330155
 31
0.0
 11
71.2369985875
 21
3.9498766793
 31
0.0
  0
SPLINE
  5
2EF
100
AcDbEntity
  8
RACCORDO
100
AcDbSpline
 62
7
  6
CONTINUOUS
 70
0
 71
3
 72
21
 73
17
 74
15
 42
0.0000001
 43
0.0000001
 44
0.0000000001
 12
-0.152815947
 22
-0.2577217068
 32
0.0
 13
0.0019724483
 23
-0.2996152554
 33
0.0
 40
0.0
 40
0.0
 40
0.0
 40
0.0
 40
0.0157565771
 40
0.0421839273
 40
0.0791277968
 40
0.126143878
 40
0.1831628236
 40
0.2494066831
 40
0.323698581
 40
0.4055123856
 40
0.4943781029
 40
0.5888359453
 40
0.6873655357
 40
0.7896098101
 40
0.8943872044
 40
1.0
 40
1.0
 40
1.0
 40
1.0
 10
-71.2245393105
 20
-3.6510182698
 30
0.0
 10
-71.2253419293
 20
-3.6523718738
 30
0.0
 10
-71.2265047549
 20
-3.6564971641
 30
0.0
 10
-71.22799546
 20
-3.664222074
 30
0.0
 10
-71.2294050218
 20
-3.6751792337
 30
0.0
 10
-71.2307757313
 20
-3.6891861841
 30
0.0
 10
-71.2320472787
 20
-3.7061488307
 30
0.0
 10
-71.233209616
 20
-3.7258447907
 30
0.0
 10
-71.2342416018
 20
-3.7480284853
 30
0.0
 10
-71.2351331636
 20
-3.7724787352
 30
0.0
 10
-71.235872668
 20
-3.7989490218
 30
0.0
 10
-71.2364493415
 20
-3.8270931149
 30
0.0
 10
-71.2368567046
 20
-3.8565764488
 30
0.0
 10
-71.2370905926
 20
-3.8870923361
 30
0.0
 10
-71.2371478861
 20
-3.9183164746
 30
0.0
 10
-71.2370680261
 20
-3.9393289444
 30
0.0
 10
-71.2369985875
 20
-3.9498766793
 30
0.0
 11
-71.2245393105
 21
-3.6510182698
 31
0.0
 11
-71.2261592501
 21
-3.6554526538
 31
0.0
 11
-71.2277304409
 21
-3.6632134135
 31
0.0
 11
-71.2292268845
 21
-3.6741809817
 31
0.0
 11
-71.2306305541
 21
-3.688197915
 31
0.0
 11
-71.2319366177
 21
-3.7052320344
 31
0.0
 11
-71.233123472
 21
-3.7250446185
 31
0.0
 11
-71.23417127
 21
-3.7472794121
 31
0.0
 11
-71.2350741519
 21
-3.7717759739
 31
0.0
 11
-71.2358250586
 21
-3.7983914849
 31
0.0
 11
-71.2364102106
 21
-3.8266870589
 31
0.0
 11
-71.2368218734
 21
-3.8562057966
 31
0.0
 11
-71.2370592543
 21
-3.8868394851
 31
0.0
 11
-71.2371183636
 21
-3.9182330155
 31
0.0
 11
-71.2369985875
 21
-3.9498766793
 31
0.0
  0
SPLINE
  5
2F0
100
AcDbEntity
  8
RACCORDO
100
AcDbSpline
 62
7
  6
CONTINUOUS
 70
0
 71
3
 72
21
 73
17
 74
15
 42
0.0000001
 43
0.0000001
 44
0.0000000001
 12
-0.0019724483
 22
-0.2996152554
 32
0.0
 13
0.152815947
 23
-0.2577217068
 33
0.0
 40
0.0
 40
0.0
 40
0.0
 40
0.0
 40
0.1056127956
 40
0.2103901899
 40
0.3126344643
 40
0.4111640547
 40
0.5056218971
 40
0.5944876144
 40
0.676301419
 40
0.7505933169
 40
0.8168371764
 40
0.873856122
 40
0.9208722032
 40
0.9578160727
 40
0.9842434229
 40
1.0
 40
1.0
 40
1.0
 40
1.0
 10
-71.2369985875
 20
3.9498766793
 30
0.0
 10
-71.2370680261
 20
3.9393289444
 30
0.0
 10
-71.2371478861
 20
3.9183164746
 30
0.0
 10
-71.2370905926
 20
3.8870923361
 30
0.0
 10
-71.2368567046
 20
3.8565764488
 30
0.0
 10
-71.2364493415
 20
3.8270931149
 30
0.0
 10
-71.235872668
 20
3.7989490218
 30
0.0
 10
-71.2351331636
 20
3.7724787352
 30
0.0
 10
-71.2342416018
 20
3.7480284853
 30
0.0
 10
-71.233209616
 20
3.7258447907
 30
0.0
 10
-71.2320472787
 20
3.7061488307
 30
0.0
 10
-71.2307757313
 20
3.6891861841
 30
0.0
 10
-71.2294050218
 20
3.6751792337
 30
0.0
 10
-71.22799546
 20
3.664222074
 30
0.0
 10
-71.2265047549
 20
3.6564971641
 30
0.0
 10
-71.2253419293
 20
3.6523718738
 30
0.0
 10
-71.2245393105
 20
3.6510182698
 30
0.0
 11
-71.2369985875
 21
3.9498766793
 31
0.0
 11
-71.2371183636
 21
3.9182330155
 31
0.0
 11
-71.2370592543
 21
3.8868394851
 31
0.0
 11
-71.2368218734
 21
3.8562057966
 31
0.0
 11
-71.2364102106
 21
3.8266870589
 31
0.0
 11
-71.2358250586
 21
3.7983914849
 31
0.0
 11
-71.2350741519
 21
3.7717759739
 31
0.0
 11
-71.23417127
 21
3.7472794121
 31
0.0
 11
-71.233123472
 21
3.7250446185
 31
0.0
 11
-71.2319366177
 21
3.7052320344
 31
0.0
 11
-71.2306305541
 21
3.688197915
 31
0.0
 11
-71.2292268845
 21
3.6741809817
 31
0.0
 11
-71.2277304409
 21
3.6632134135
 31
0.0
 11
-71.2261592501
 21
3.6554526538
 31
0.0
 11
-71.2245393105
 21
3.6510182698
 31
0.0
  0
SPLINE
  5
2F1
100
AcDbEntity
  8
RACCORDO
100
AcDbSpline
 62
7
  6
CONTINUOUS
 70
0
 71
3
 72
21
 73
17
 74
15
 42
0.0000001
 43
0.0000001
 44
0.0000000001
 12
-0.0016108258
 22
0.2996224767
 32
0.0
 13
0.1528586187
 23
0.2577022817
 33
0.0
 40
0.0
 40
0.0
 40
0.0
 40
0.0
 40
0.1056112692
 40
0.21038814
 40
0.3126325714
 40
0.4111626552
 40
0.5056209795
 40
0.5944870194
 40
0.676300915
 40
0.7505926815
 40
0.8168362162
 40
0.8738548596
 40
0.9208708367
 40
0.9578148683
 40
0.9842426854
 40
1.0
 40
1.0
 40
1.0
 40
1.0
 10
71.1365151357
 20
3.2251006478
 30
0.0
 10
71.1364584286
 20
3.2356484845
 30
0.0
 10
71.1364028239
 20
3.2566611777
 30
0.0
 10
71.1364928813
 20
3.287885571
 30
0.0
 10
71.1367556377
 20
3.3184017451
 30
0.0
 10
71.1371879394
 20
3.3478853288
 30
0.0
 10
71.1377857084
 20
3.3760295806
 30
0.0
 10
71.1385426312
 20
3.4024999053
 30
0.0
 10
71.1394481976
 20
3.4269500761
 30
0.0
 10
71.140491158
 20
3.44913359
 30
0.0
 10
71.141661854
 20
3.4688293071
 30
0.0
 10
71.1429395529
 20
3.4857916986
 30
0.0
 10
71.1443146124
 20
3.4997984346
 30
0.0
 10
71.1457271212
 20
3.510755441
 30
0.0
 10
71.147219657
 20
3.5184802823
 30
0.0
 10
71.1483833803
 20
3.5226054919
 30
0.0
 10
71.1491862607
 20
3.5239590572
 30
0.0
 11
71.1365151357
 21
3.2251006478
 31
0.0
 11
71.1364318866
 21
3.2567445056
 31
0.0
 11
71.1365239372
 21
3.2881383299
 31
0.0
 11
71.1367902981
 21
3.3187723444
 31
0.0
 11
71.1372269299
 21
3.3482913697
 31
0.0
 11
71.1378332915
 21
3.3765871195
 31
0.0
 11
71.1386017127
 21
3.403202677
 31
0.0
 11
71.1395186259
 21
3.4276991591
 31
0.0
 11
71.1405774241
 21
3.4499337685
 31
0.0
 11
71.1417726853
 21
3.4697460854
 31
0.0
 11
71.1430849246
 21
3.4867799286
 31
0.0
 11
71.1444929461
 21
3.5007966331
 31
0.0
 11
71.145992334
 21
3.5117640368
 31
0.0
 11
71.1475653627
 21
3.5195247034
 31
0.0
 11
71.1491862607
 21
3.5239590572
 31
0.0
  0
SPLINE
  5
2F2
100
AcDbEntity
  8
RACCORDO
100
AcDbSpline
 62
7
  6
CONTINUOUS
 70
0
 71
3
 72
21
 73
17
 74
15
 42
0.0000001
 43
0.0000001
 44
0.0000000001
 12
-0.1528586192
 22
0.2577022825
 32
0.0
 13
0.0016108258
 23
0.2996224777
 33
0.0
 40
0.0
 40
0.0
 40
0.0
 40
0.0
 40
0.0157576208
 40
0.0421794616
 40
0.0791100661
 40
0.1261301514
 40
0.1831526742
 40
0.2493866524
 40
0.3236706786
 40
0.4054878086
 40
0.4943621103
 40
0.5888089291
 40
0.6873213025
 40
0.7895933099
 40
0.8943904027
 40
1.0
 40
1.0
 40
1.0
 40
1.0
 10
71.1491862607
 20
-3.5239590572
 30
0.0
 10
71.1483833647
 20
-3.5226054656
 30
0.0
 10
71.1472198101
 20
-3.5184808029
 30
0.0
 10
71.1457275372
 20
-3.5107578462
 30
0.0
 10
71.144315053
 20
-3.4998023828
 30
0.0
 10
71.1429399243
 20
-3.4857961988
 30
0.0
 10
71.1416621681
 20
-3.4688339682
 30
0.0
 10
71.1404914827
 20
-3.4491395929
 30
0.0
 10
71.1394485066
 20
-3.4269574857
 30
0.0
 10
71.1385428545
 20
-3.4025069426
 30
0.0
 10
71.1377858837
 20
-3.37603662
 30
0.0
 10
71.1371881113
 20
-3.3478944615
 30
0.0
 10
71.1367557412
 20
-3.3184110426
 30
0.0
 10
71.1364929034
 20
-3.2878918638
 30
0.0
 10
71.136402819
 20
-3.2566628635
 30
0.0
 10
71.1364584295
 20
-3.2356483175
 30
0.0
 10
71.1365151357
 20
-3.2251006478
 30
0.0
 11
71.1491862607
 21
-3.5239590572
 31
0.0
 11
71.1475653393
 21
-3.5195246142
 31
0.0
 11
71.1459926091
 21
-3.5117657142
 31
0.0
 11
71.1444936074
 21
-3.5008023182
 31
0.0
 11
71.143085317
 21
-3.4867844036
 31
0.0
 11
71.1417729114
 21
-3.4697494073
 31
0.0
 11
71.1405777554
 21
-3.4499399525
 31
0.0
 11
71.1395189855
 21
-3.4277076636
 31
0.0
 11
71.1386019614
 21
-3.4032102158
 31
0.0
 11
71.1378334183
 21
-3.3765921852
 31
0.0
 11
71.1372270833
 21
-3.3482998829
 31
0.0
 11
71.1367904598
 21
-3.3187861644
 31
0.0
 11
71.1365239693
 21
-3.2881438881
 31
0.0
 11
71.1364318866
 21
-3.2567440048
 31
0.0
 11
71.1365151357
 21
-3.2251006478
 31
0.0
  0
SPLINE
  5
2F3
100
AcDbEntity
  8
RACCORDO
100
AcDbSpline
 62
7
  6
CONTINUOUS
 70
0
 71
3
 72
21
 73
17
 74
15
 42
0.0000001
 43
0.0000001
 44
0.0000000001
 12
0.1528586187
 22
-0.2577022817
 32
0.0
 13
-0.0016108258
 23
-0.2996224767
 33
0.0
 40
0.0
 40
0.0
 40
0.0
 40
0.0
 40
0.0157573146
 40
0.0421851317
 40
0.0791291633
 40
0.1261451404
 40
0.1831637838
 40
0.2494073185
 40
0.323699085
 40
0.4055129806
 40
0.4943790205
 40
0.5888373448
 40
0.6873674286
 40
0.78961186
 40
0.8943887308
 40
1.0
 40
1.0
 40
1.0
 40
1.0
 10
-71.1491862607
 20
3.5239590572
 30
0.0
 10
-71.1483833803
 20
3.5226054919
 30
0.0
 10
-71.147219657
 20
3.5184802823
 30
0.0
 10
-71.1457271212
 20
3.510755441
 30
0.0
 10
-71.1443146124
 20
3.4997984346
 30
0.0
 10
-71.1429395529
 20
3.4857916986
 30
0.0
 10
-71.141661854
 20
3.4688293071
 30
0.0
 10
-71.140491158
 20
3.44913359
 30
0.0
 10
-71.1394481976
 20
3.4269500761
 30
0.0
 10
-71.1385426312
 20
3.4024999053
 30
0.0
 10
-71.1377857084
 20
3.3760295806
 30
0.0
 10
-71.1371879394
 20
3.3478853288
 30
0.0
 10
-71.1367556377
 20
3.3184017451
 30
0.0
 10
-71.1364928813
 20
3.287885571
 30
0.0
 10
-71.1364028239
 20
3.2566611777
 30
0.0
 10
-71.1364584286
 20
3.2356484845
 30
0.0
 10
-71.1365151357
 20
3.2251006478
 30
0.0
 11
-71.1491862607
 21
3.5239590572
 31
0.0
 11
-71.1475653627
 21
3.5195247034
 31
0.0
 11
-71.145992334
 21
3.5117640368
 31
0.0
 11
-71.1444929461
 21
3.5007966331
 31
0.0
 11
-71.1430849246
 21
3.4867799286
 31
0.0
 11
-71.1417726853
 21
3.4697460854
 31
0.0
 11
-71.1405774241
 21
3.4499337685
 31
0.0
 11
-71.1395186259
 21
3.4276991591
 31
0.0
 11
-71.1386017127
 21
3.403202677
 31
0.0
 11
-71.1378332915
 21
3.3765871195
 31
0.0
 11
-71.1372269299
 21
3.3482913697
 31
0.0
 11
-71.1367902981
 21
3.3187723444
 31
0.0
 11
-71.1365239372
 21
3.2881383299
 31
0.0
 11
-71.1364318866
 21
3.2567445056
 31
0.0
 11
-71.1365151357
 21
3.2251006478
 31
0.0
  0
SPLINE
  5
2F4
100
AcDbEntity
  8
RACCORDO
100
AcDbSpline
 62
7
  6
CONTINUOUS
 70
0
 71
3
 72
21
 73
17
 74
15
 42
0.0000001
 43
0.0000001
 44
0.0000000001
 12
0.0016108258
 22
-0.2996224777
 32
0.0
 13
-0.1528586192
 23
-0.2577022825
 33
0.0
 40
0.0
 40
0.0
 40
0.0
 40
0.0
 40
0.1056095973
 40
0.2104066901
 40
0.3126786975
 40
0.4111910709
 40
0.5056378897
 40
0.5945121914
 40
0.6763293214
 40
0.7506133476
 40
0.8168473258
 40
0.8738698486
 40
0.9208899339
 40
0.9578205384
 40
0.9842423792
 40
1.0
 40
1.0
 40
1.0
 40
1.0
 10
-71.1365151357
 20
-3.2251006478
 30
0.0
 10
-71.1364584295
 20
-3.2356483175
 30
0.0
 10
-71.136402819
 20
-3.2566628635
 30
0.0
 10
-71.1364929034
 20
-3.2878918638
 30
0.0
 10
-71.1367557412
 20
-3.3184110426
 30
0.0
 10
-71.1371881113
 20
-3.3478944615
 30
0.0
 10
-71.1377858837
 20
-3.37603662
 30
0.0
 10
-71.1385428545
 20
-3.4025069426
 30
0.0
 10
-71.1394485066
 20
-3.4269574857
 30
0.0
 10
-71.1404914827
 20
-3.4491395929
 30
0.0
 10
-71.1416621681
 20
-3.4688339682
 30
0.0
 10
-71.1429399243
 20
-3.4857961988
 30
0.0
 10
-71.144315053
 20
-3.4998023828
 30
0.0
 10
-71.1457275372
 20
-3.5107578462
 30
0.0
 10
-71.1472198101
 20
-3.5184808029
 30
0.0
 10
-71.1483833647
 20
-3.5226054656
 30
0.0
 10
-71.1491862607
 20
-3.5239590572
 30
0.0
 11
-71.1365151357
 21
-3.2251006478
 31
0.0
 11
-71.1364318866
 21
-3.2567440048
 31
0.0
 11
-71.1365239693
 21
-3.2881438881
 31
0.0
 11
-71.1367904598
 21
-3.3187861644
 31
0.0
 11
-71.1372270833
 21
-3.3482998829
 31
0.0
 11
-71.1378334183
 21
-3.3765921852
 31
0.0
 11
-71.1386019614
 21
-3.4032102158
 31
0.0
 11
-71.1395189855
 21
-3.4277076636
 31
0.0
 11
-71.1405777554
 21
-3.4499399525
 31
0.0
 11
-71.1417729114
 21
-3.4697494073
 31
0.0
 11
-71.143085317
 21
-3.4867844036
 31
0.0
 11
-71.1444936074
 21
-3.5008023182
 31
0.0
 11
-71.1459926091
 21
-3.5117657142
 31
0.0
 11
-71.1475653393
 21
-3.5195246142
 31
0.0
 11
-71.1491862607
 21
-3.5239590572
 31
0.0
  0
SPLINE
  5
2F5
100
AcDbEntity
  8
RACCORDO
100
AcDbSpline
 62
253
  6
CONTINUOUS
 70
0
 71
3
 72
30
 73
26
 74
24
 42
0.0000001
 43
0.0000001
 44
0.0000000001
 12
1.9026438306
 22
0.0852799408
 32
0.0
 13
0.1068047533
 23
1.9015569829
 33
0.0
 40
0.0
 40
0.0
 40
0.0
 40
0.0
 40
0.0436148403
 40
0.0871901815
 40
0.1307294368
 40
0.1742344467
 40
0.2177082235
 40
0.261154544
 40
0.3045774722
 40
0.347981449
 40
0.391371099
 40
0.4347514311
 40
0.4781274629
 40
0.5215044028
 40
0.5648872823
 40
0.608281182
 40
0.6516908646
 40
0.6951209683
 40
0.738575638
 40
0.7820587304
 40
0.8255736175
 40
0.8691233201
 40
0.9127100291
 40
0.95633483
 40
1.0
 40
1.0
 40
1.0
 40
1.0
 10
67.5968053728
 20
-37.0193572601
 30
0.0
 10
67.6244665417
 20
-37.0181174364
 30
0.0
 10
67.6797011432
 20
-37.0138767087
 30
0.0
 10
67.7619311329
 20
-37.0022537934
 30
0.0
 10
67.8431875378
 20
-36.9854233161
 30
0.0
 10
67.9231407141
 20
-36.9634570664
 30
0.0
 10
68.0014718504
 20
-36.9364473555
 30
0.0
 10
68.0778681788
 20
-36.9045059357
 30
0.0
 10
68.152025629
 20
-36.8677636466
 30
0.0
 10
68.2236491438
 20
-36.826369881
 30
0.0
 10
68.2924540267
 20
-36.7804919088
 30
0.0
 10
68.3581668014
 20
-36.7303142426
 30
0.0
 10
68.42052628
 20
-36.6760378418
 30
0.0
 10
68.4792842967
 20
-36.6178794925
 30
0.0
 10
68.534206706
 20
-36.5560709159
 30
0.0
 10
68.5850740904
 20
-36.4908580748
 30
0.0
 10
68.6316826718
 20
-36.4225001863
 30
0.0
 10
68.6738449485
 20
-36.3512689935
 30
0.0
 10
68.7113905124
 20
-36.277447704
 30
0.0
 10
68.7441666912
 20
-36.2013301437
 30
0.0
 10
68.7720392631
 20
-36.1232194088
 30
0.0
 10
68.7948929772
 20
-36.0434275387
 30
0.0
 10
68.8126320197
 20
-35.9622727957
 30
0.0
 10
68.8251808511
 20
-35.8800846262
 30
0.0
 10
68.8300478709
 20
-35.8248382404
 30
0.0
 10
68.8316024201
 20
-35.7971609708
 30
0.0
 11
67.5968053728
 21
-37.0193572601
 31
0.0
 11
67.6796282784
 21
-37.0129961941
 31
0.0
 11
67.7618028959
 21
-37.0013799617
 31
0.0
 11
67.8430019275
 21
-36.9845597668
 31
0.0
 11
67.9228987219
 21
-36.9626077418
 31
0.0
 11
68.0011738002
 21
-36.9356161289
 31
0.0
 11
68.077515278
 21
-36.903696586
 31
0.0
 11
68.1516192127
 21
-36.8669799097
 31
0.0
 11
68.2231909442
 21
-36.8256153597
 31
0.0
 11
68.2919459167
 21
-36.779770164
 31
0.0
 11
68.357611099
 21
-36.7296285711
 31
0.0
 11
68.4199254398
 21
-36.6753914515
 31
0.0
 11
68.4786411589
 21
-36.6172752549
 31
0.0
 11
68.5335241985
 21
-36.5555115992
 31
0.0
 11
68.5843554619
 21
-36.490346051
 31
0.0
 11
68.6309312367
 21
-36.4220376863
 31
0.0
 11
68.6730642666
 21
-36.3508578024
 31
0.0
 11
68.7105841636
 21
-36.2770894652
 31
0.0
 11
68.7433383745
 21
-36.2010261029
 31
0.0
 11
68.7711926878
 21
-36.1229707117
 31
0.0
 11
68.794031951
 21
-36.0432344585
 31
0.0
 11
68.8117603576
 21
-35.9621363555
 31
0.0
 11
68.8243021419
 21
-35.8800026079
 31
0.0
 11
68.8316024201
 21
-35.7971609708
 31
0.0
  0
SPLINE
  5
2F6
100
AcDbEntity
  8
RACCORDO
100
AcDbSpline
 62
253
  6
CONTINUOUS
 70
0
 71
3
 72
30
 73
26
 74
24
 42
0.0000001
 43
0.0000001
 44
0.0000000001
 12
0.1068056069
 22
-1.9015569349
 32
0.0
 13
1.9026438702
 23
-0.0852790572
 33
0.0
 40
0.0
 40
0.0
 40
0.0
 40
0.0
 40
0.0436653518
 40
0.0872901215
 40
0.1308768513
 40
0.1744265482
 40
0.2179414371
 40
0.2614245329
 40
0.304879207
 40
0.3483093131
 40
0.3917189983
 40
0.4351129004
 40
0.4784957819
 40
0.5218727223
 40
0.5652487532
 40
0.6086290839
 40
0.6520187321
 40
0.6954227073
 40
0.7388456316
 40
0.7822919493
 40
0.8257657255
 40
0.8692707421
 40
0.9128099763
 40
0.9563853479
 40
1.0
 40
1.0
 40
1.0
 40
1.0
 10
-68.8316024201
 20
-35.7971609708
 30
0.0
 10
-68.830047852
 20
-35.824838355
 30
0.0
 10
-68.825180841
 20
-35.8800848377
 30
0.0
 10
-68.8126319468
 20
-35.9622731083
 30
0.0
 10
-68.794892902
 20
-36.0434278398
 30
0.0
 10
-68.7720391591
 20
-36.123219713
 30
0.0
 10
-68.7441665712
 20
-36.2013304417
 30
0.0
 10
-68.7113903703
 20
-36.2774479993
 30
0.0
 10
-68.6738447855
 20
-36.3512692853
 30
0.0
 10
-68.6316824874
 20
-36.4225004724
 30
0.0
 10
-68.5850738857
 20
-36.4908583529
 30
0.0
 10
-68.5342064814
 20
-36.5560711841
 30
0.0
 10
-68.4792840536
 20
-36.6178797485
 30
0.0
 10
-68.4205260208
 20
-36.6760380828
 30
0.0
 10
-68.3581665285
 20
-36.7303144662
 30
0.0
 10
-68.2924537426
 20
-36.7804921134
 30
0.0
 10
-68.2236488502
 20
-36.8263700658
 30
0.0
 10
-68.1520253285
 20
-36.8677638102
 30
0.0
 10
-68.0778678737
 20
-36.9045060783
 30
0.0
 10
-68.0014715413
 20
-36.936447476
 30
0.0
 10
-67.923140397
 20
-36.9634571708
 30
0.0
 10
-67.8431872228
 20
-36.985423391
 30
0.0
 10
-67.7619308064
 20
-37.0022538652
 30
0.0
 10
-67.679700923
 20
-37.0138767169
 30
0.0
 10
-67.624466423
 20
-37.0181174546
 30
0.0
 10
-67.5968053728
 20
-37.0193572601
 30
0.0
 11
-68.8316024201
 21
-35.7971609708
 31
0.0
 11
-68.8243021021
 21
-35.880002952
 31
0.0
 11
-68.8117602978
 21
-35.9621366365
 31
0.0
 11
-68.794031868
 21
-36.043234775
 31
0.0
 11
-68.771192587
 21
-36.1229710116
 31
0.0
 11
-68.7433382542
 21
-36.2010263995
 31
0.0
 11
-68.7105840219
 21
-36.2770897598
 31
0.0
 11
-68.6730641028
 21
-36.3508580951
 31
0.0
 11
-68.6309310524
 21
-36.4220379721
 31
0.0
 11
-68.5843552572
 21
-36.4903463289
 31
0.0
 11
-68.5335239738
 21
-36.5555118674
 31
0.0
 11
-68.4786409154
 21
-36.6172755114
 31
0.0
 11
-68.4199251801
 21
-36.675391693
 31
0.0
 11
-68.357610826
 21
-36.7296287948
 31
0.0
 11
-68.2919456326
 21
-36.7797703686
 31
0.0
 11
-68.2231906508
 21
-36.8256155444
 31
0.0
 11
-68.1516189113
 21
-36.8669800741
 31
0.0
 11
-68.0775149738
 21
-36.9036967282
 31
0.0
 11
-68.0011734928
 21
-36.9356162496
 31
0.0
 11
-67.922898409
 21
-36.9626078431
 31
0.0
 11
-67.8430015963
 21
-36.9845598496
 31
0.0
 11
-67.7618026008
 21
-37.0013800207
 31
0.0
 11
-67.6796279219
 21
-37.0129962313
 31
0.0
 11
-67.5968053728
 21
-37.0193572601
 31
0.0
  0
SPLINE
  5
2F7
100
AcDbEntity
  8
RACCORDO
100
AcDbSpline
 62
253
  6
CONTINUOUS
 70
0
 71
3
 72
30
 73
26
 74
24
 42
0.0000001
 43
0.0000001
 44
0.0000000001
 12
-1.9026438306
 22
-0.0852799408
 32
0.0
 13
-0.1068047533
 23
-1.9015569829
 33
0.0
 40
0.0
 40
0.0
 40
0.0
 40
0.0
 40
0.0436148403
 40
0.0871901815
 40
0.1307294368
 40
0.1742344467
 40
0.2177082235
 40
0.261154544
 40
0.3045774722
 40
0.347981449
 40
0.391371099
 40
0.4347514311
 40
0.4781274629
 40
0.5215044028
 40
0.5648872823
 40
0.608281182
 40
0.6516908646
 40
0.6951209683
 40
0.738575638
 40
0.7820587304
 40
0.8255736175
 40
0.8691233201
 40
0.9127100291
 40
0.95633483
 40
1.0
 40
1.0
 40
1.0
 40
1.0
 10
-67.5968053728
 20
37.0193572601
 30
0.0
 10
-67.6244665417
 20
37.0181174364
 30
0.0
 10
-67.6797011432
 20
37.0138767087
 30
0.0
 10
-67.7619311329
 20
37.0022537934
 30
0.0
 10
-67.8431875378
 20
36.9854233161
 30
0.0
 10
-67.9231407141
 20
36.9634570664
 30
0.0
 10
-68.0014718504
 20
36.9364473555
 30
0.0
 10
-68.0778681788
 20
36.9045059357
 30
0.0
 10
-68.152025629
 20
36.8677636466
 30
0.0
 10
-68.2236491438
 20
36.826369881
 30
0.0
 10
-68.2924540267
 20
36.7804919088
 30
0.0
 10
-68.3581668014
 20
36.7303142426
 30
0.0
 10
-68.42052628
 20
36.6760378418
 30
0.0
 10
-68.4792842967
 20
36.6178794925
 30
0.0
 10
-68.534206706
 20
36.5560709159
 30
0.0
 10
-68.5850740904
 20
36.4908580748
 30
0.0
 10
-68.6316826718
 20
36.4225001863
 30
0.0
 10
-68.6738449485
 20
36.3512689935
 30
0.0
 10
-68.7113905124
 20
36.277447704
 30
0.0
 10
-68.7441666912
 20
36.2013301437
 30
0.0
 10
-68.7720392631
 20
36.1232194088
 30
0.0
 10
-68.7948929772
 20
36.0434275387
 30
0.0
 10
-68.8126320197
 20
35.9622727957
 30
0.0
 10
-68.8251808511
 20
35.8800846262
 30
0.0
 10
-68.8300478709
 20
35.8248382404
 30
0.0
 10
-68.8316024201
 20
35.7971609708
 30
0.0
 11
-67.5968053728
 21
37.0193572601
 31
0.0
 11
-67.6796282784
 21
37.0129961941
 31
0.0
 11
-67.7618028959
 21
37.0013799617
 31
0.0
 11
-67.8430019275
 21
36.9845597668
 31
0.0
 11
-67.9228987219
 21
36.9626077418
 31
0.0
 11
-68.0011738002
 21
36.9356161289
 31
0.0
 11
-68.077515278
 21
36.903696586
 31
0.0
 11
-68.1516192127
 21
36.8669799097
 31
0.0
 11
-68.2231909442
 21
36.8256153597
 31
0.0
 11
-68.2919459167
 21
36.779770164
 31
0.0
 11
-68.357611099
 21
36.7296285711
 31
0.0
 11
-68.4199254398
 21
36.6753914515
 31
0.0
 11
-68.4786411589
 21
36.617275255
 31
0.0
 11
-68.5335241985
 21
36.5555115992
 31
0.0
 11
-68.5843554619
 21
36.490346051
 31
0.0
 11
-68.6309312367
 21
36.4220376863
 31
0.0
 11
-68.6730642666
 21
36.3508578024
 31
0.0
 11
-68.7105841636
 21
36.2770894652
 31
0.0
 11
-68.7433383745
 21
36.2010261029
 31
0.0
 11
-68.7711926878
 21
36.1229707117
 31
0.0
 11
-68.794031951
 21
36.0432344585
 31
0.0
 11
-68.8117603576
 21
35.9621363555
 31
0.0
 11
-68.8243021419
 21
35.8800026079
 31
0.0
 11
-68.8316024201
 21
35.7971609708
 31
0.0
  0
SPLINE
  5
2F8
100
AcDbEntity
  8
RACCORDO
100
AcDbSpline
 62
253
  6
CONTINUOUS
 70
0
 71
3
 72
30
 73
26
 74
24
 42
0.0000001
 43
0.0000001
 44
0.0000000001
 12
-0.1068056069
 22
1.9015569349
 32
0.0
 13
-1.9026438702
 23
0.0852790572
 33
0.0
 40
0.0
 40
0.0
 40
0.0
 40
0.0
 40
0.0436653518
 40
0.0872901215
 40
0.1308768513
 40
0.1744265482
 40
0.2179414371
 40
0.2614245329
 40
0.304879207
 40
0.3483093131
 40
0.3917189983
 40
0.4351129004
 40
0.4784957819
 40
0.5218727223
 40
0.5652487532
 40
0.6086290839
 40
0.6520187321
 40
0.6954227073
 40
0.7388456316
 40
0.7822919493
 40
0.8257657255
 40
0.8692707421
 40
0.9128099763
 40
0.9563853479
 40
1.0
 40
1.0
 40
1.0
 40
1.0
 10
68.8316024201
 20
35.7971609708
 30
0.0
 10
68.830047852
 20
35.824838355
 30
0.0
 10
68.825180841
 20
35.8800848377
 30
0.0
 10
68.8126319468
 20
35.9622731083
 30
0.0
 10
68.794892902
 20
36.0434278398
 30
0.0
 10
68.7720391591
 20
36.123219713
 30
0.0
 10
68.7441665712
 20
36.2013304417
 30
0.0
 10
68.7113903703
 20
36.2774479993
 30
0.0
 10
68.6738447855
 20
36.3512692853
 30
0.0
 10
68.6316824874
 20
36.4225004724
 30
0.0
 10
68.5850738857
 20
36.4908583529
 30
0.0
 10
68.5342064814
 20
36.5560711841
 30
0.0
 10
68.4792840536
 20
36.6178797485
 30
0.0
 10
68.4205260208
 20
36.6760380828
 30
0.0
 10
68.3581665285
 20
36.7303144662
 30
0.0
 10
68.2924537426
 20
36.7804921134
 30
0.0
 10
68.2236488502
 20
36.8263700658
 30
0.0
 10
68.1520253285
 20
36.8677638102
 30
0.0
 10
68.0778678737
 20
36.9045060783
 30
0.0
 10
68.0014715413
 20
36.936447476
 30
0.0
 10
67.923140397
 20
36.9634571708
 30
0.0
 10
67.8431872228
 20
36.985423391
 30
0.0
 10
67.7619308064
 20
37.0022538652
 30
0.0
 10
67.679700923
 20
37.0138767169
 30
0.0
 10
67.624466423
 20
37.0181174546
 30
0.0
 10
67.5968053728
 20
37.0193572601
 30
0.0
 11
68.8316024201
 21
35.7971609708
 31
0.0
 11
68.8243021021
 21
35.880002952
 31
0.0
 11
68.8117602978
 21
35.9621366365
 31
0.0
 11
68.794031868
 21
36.043234775
 31
0.0
 11
68.771192587
 21
36.1229710116
 31
0.0
 11
68.7433382542
 21
36.2010263995
 31
0.0
 11
68.7105840219
 21
36.2770897598
 31
0.0
 11
68.6730641028
 21
36.3508580951
 31
0.0
 11
68.6309310524
 21
36.4220379721
 31
0.0
 11
68.5843552572
 21
36.4903463289
 31
0.0
 11
68.5335239738
 21
36.5555118674
 31
0.0
 11
68.4786409154
 21
36.6172755114
 31
0.0
 11
68.4199251801
 21
36.675391693
 31
0.0
 11
68.357610826
 21
36.7296287948
 31
0.0
 11
68.2919456326
 21
36.7797703686
 31
0.0
 11
68.2231906508
 21
36.8256155444
 31
0.0
 11
68.1516189113
 21
36.8669800741
 31
0.0
 11
68.0775149738
 21
36.9036967282
 31
0.0
 11
68.0011734928
 21
36.9356162496
 31
0.0
 11
67.922898409
 21
36.9626078431
 31
0.0
 11
67.8430015963
 21
36.9845598496
 31
0.0
 11
67.7618026008
 21
37.0013800207
 31
0.0
 11
67.6796279219
 21
37.0129962313
 31
0.0
 11
67.5968053728
 21
37.0193572601
 31
0.0
  0
SPLINE
  5
2F9
100
AcDbEntity
  8
RACCORDO
100
AcDbSpline
 62
253
  6
CONTINUOUS
 70
0
 71
3
 72
22
 73
18
 74
16
 42
0.0000001
 43
0.0000001
 44
0.0000000001
 12
-90.9691874988
 22
5.8404682915
 32
0.0
 13
-90.9691875241
 23
-5.8404678974
 33
0.0
 40
0.0
 40
0.0
 40
0.0
 40
0.0
 40
0.0660629985
 40
0.1321822729
 40
0.1983545305
 40
0.2645599416
 40
0.3307922038
 40
0.3970410414
 40
0.4632973679
 40
0.5295516307
 40
0.5957954068
 40
0.6620158864
 40
0.7282145684
 40
0.7943404474
 40
0.861350665
 40
0.9304850696
 40
1.0
 40
1.0
 40
1.0
 40
1.0
 10
45.5472343185
 20
24.0502187637
 30
0.0
 10
43.5440018848
 20
24.1788317131
 30
0.0
 10
39.5347131926
 20
24.4190900783
 30
0.0
 10
33.5154874984
 20
24.7284329604
 30
0.0
 10
27.48952278
 20
24.9868030127
 30
0.0
 10
21.4581519607
 20
25.1941251305
 30
0.0
 10
15.4229131509
 20
25.3503397514
 30
0.0
 10
9.3850202531
 20
25.4554150413
 30
0.0
 10
3.3457853419
 20
25.5093332812
 30
0.0
 10
-2.6935357908
 20
25.5120938513
 30
0.0
 10
-8.7315744905
 20
25.4637123611
 30
0.0
 10
-14.7672981449
 20
25.3642183458
 30
0.0
 10
-20.7983811397
 20
25.2136808663
 30
0.0
 10
-26.8519549098
 20
25.0112387918
 30
0.0
 10
-32.9927092081
 20
24.7533842265
 30
0.0
 10
-39.2338218134
 20
24.4366292276
 30
0.0
 10
-43.4393287375
 20
24.1855520005
 30
0.0
 10
-45.5472343186
 20
24.0502187606
 30
0.0
 11
45.5472343185
 21
24.0502187637
 31
0.0
 11
39.5359486971
 21
24.4104665205
 31
0.0
 11
33.5166928574
 21
24.7198272377
 31
0.0
 11
27.4902001561
 21
24.9782334965
 31
0.0
 11
21.4587104482
 21
25.1855706088
 31
0.0
 11
15.4232321134
 21
25.3417996368
 31
0.0
 11
9.385135525
 21
25.4468840041
 31
0.0
 11
3.34568263
 21
25.5008070319
 31
0.0
 11
-2.6938222287
 21
25.5035678296
 31
0.0
 11
-8.7321779287
 21
25.4551812471
 31
0.0
 11
-14.7677838031
 21
25.3556839483
 31
0.0
 11
-20.8003436481
 21
25.2051017007
 31
0.0
 11
-26.8247780032
 21
25.0036235217
 31
0.0
 11
-32.9278149698
 21
24.7473389432
 31
0.0
 11
-39.2217621503
 21
24.4278840504
 31
0.0
 11
-45.5472343186
 21
24.0502187606
 31
0.0
  0
SPLINE
  5
2FA
100
AcDbEntity
  8
RACCORDO
100
AcDbSpline
 62
253
  6
CONTINUOUS
 70
0
 71
3
 72
22
 73
18
 74
16
 42
0.0000001
 43
0.0000001
 44
0.0000000001
 12
90.969217658
 22
-5.8404703002
 32
0.0
 13
90.9692176879
 23
5.8404698345
 33
0.0
 40
0.0
 40
0.0
 40
0.0
 40
0.0
 40
0.0660633526
 40
0.1321826195
 40
0.1983548717
 40
0.2645602774
 40
0.330792534
 40
0.3970413659
 40
0.4632976871
 40
0.5295519447
 40
0.595795716
 40
0.6620161895
 40
0.7282148711
 40
0.7943407123
 40
0.8613507886
 40
0.9304850766
 40
1.0
 40
1.0
 40
1.0
 40
1.0
 10
-45.5472644904
 20
-24.0502169553
 30
0.0
 10
-43.5440206571
 20
-24.1788306382
 30
0.0
 10
-39.5347201252
 20
-24.4190897224
 30
0.0
 10
-33.5154820788
 20
-24.7284332253
 30
0.0
 10
-27.4895159129
 20
-24.9868032807
 30
0.0
 10
-21.4581435883
 20
-25.1941253874
 30
0.0
 10
-15.4229032843
 20
-25.350339969
 30
0.0
 10
-9.3850088892
 20
-25.4554151951
 30
0.0
 10
-3.3457724653
 20
-25.509333346
 30
0.0
 10
2.6935502042
 20
-25.5120938012
 30
0.0
 10
8.7315904179
 20
-25.4637121702
 30
0.0
 10
14.7673157277
 20
-25.3642179863
 30
0.0
 10
20.798399371
 20
-25.2136803347
 30
0.0
 10
26.8519696903
 20
-25.0112382167
 30
0.0
 10
32.9927170451
 20
-24.7533838347
 30
0.0
 10
39.2338236823
 20
-24.4366291138
 30
0.0
 10
43.4393282534
 20
-24.1855520315
 30
0.0
 10
45.5472343186
 20
-24.0502187606
 30
0.0
 11
-45.5472644904
 21
-24.0502169553
 31
0.0
 11
-39.5359446601
 21
-24.4104667452
 31
0.0
 11
-33.5166875056
 21
-24.7198274899
 31
0.0
 11
-27.490193284
 21
-24.978233762
 31
0.0
 11
-21.4587020706
 21
-25.1855708612
 31
0.0
 11
-15.4232222456
 21
-25.3417998504
 31
0.0
 11
-9.385124171
 21
-25.4468841536
 31
0.0
 11
-3.3456697608
 21
-25.5008070923
 31
0.0
 11
2.693836634
 21
-25.5035677752
 31
0.0
 11
8.7321938927
 21
-25.4551810515
 31
0.0
 11
14.7678012139
 21
-25.3556835875
 31
0.0
 11
20.8003630191
 21
-25.205101135
 31
0.0
 11
26.8247959132
 21
-25.0036228468
 31
0.0
 11
32.9278220345
 21
-24.7473386161
 31
0.0
 11
39.2217606974
 21
-24.4278841306
 31
0.0
 11
45.5472343186
 21
-24.0502187606
 31
0.0
  0
LINE
  5
2FB
100
AcDbEntity
  8
RACCORDO
100
AcDbLine
 62
253
  6
CONTINUOUS
 10
69.9411001206
 20
-35.7829651325
 11
70.168205112
 21
-36.0136580925
  0
LINE
  5
2FC
100
AcDbEntity
  8
RACCORDO
100
AcDbLine
 62
253
  6
CONTINUOUS
 10
69.941100161
 20
35.7829644185
 11
70.168205112
 21
36.0136580925
  0
LINE
  5
2FD
100
AcDbEntity
  8
RACCORDO
100
AcDbLine
 62
253
  6
CONTINUOUS
 10
67.5694958805
 20
-38.1276933929
 11
67.7970327896
 21
-38.3574515641
  0
SPLINE
  5
2FE
100
AcDbEntity
  8
RACCORDO
100
AcDbSpline
 62
253
  6
CONTINUOUS
 70
0
 71
3
 72
17
 73
13
 74
11
 42
0.0000001
 43
0.0000001
 44
0.0000000001
 12
-0.1068823735
 22
-0.1845212685
 32
0.0
 13
-0.0045016771
 23
-0.2131939849
 33
0.0
 40
0.0
 40
0.0
 40
0.0
 40
0.0
 40
0.014470822
 40
0.0495167963
 40
0.1049006406
 40
0.1801450782
 40
0.2745877233
 40
0.3873931782
 40
0.5175620295
 40
0.6639402733
 40
0.825229794
 40
1.0
 40
1.0
 40
1.0
 40
1.0
 10
-44.7174697745
 20
-22.5131965979
 30
0.0
 10
-44.7179853331
 20
-22.5140866561
 30
0.0
 10
-44.7178994487
 20
-22.5178160816
 30
0.0
 10
-44.7188092707
 20
-22.52506221
 30
0.0
 10
-44.7191872779
 20
-22.5369261907
 30
0.0
 10
-44.7199263815
 20
-22.5528679793
 30
0.0
 10
-44.7205882763
 20
-22.572952032
 30
0.0
 10
-44.7213337593
 20
-22.5969189097
 30
0.0
 10
-44.722093475
 20
-22.624585677
 30
0.0
 10
-44.7228809611
 20
-22.6556968052
 30
0.0
 10
-44.7236819656
 20
-22.6899795815
 30
0.0
 10
-44.7242022655
 20
-22.7138611738
 30
0.0
 10
-44.7244645185
 20
-22.7262811593
 30
0.0
 11
-44.7174697745
 21
-22.5131965979
 31
0.0
 11
-44.7179791488
 21
-22.5162400459
 31
0.0
 11
-44.7185460665
 21
-22.5236917682
 31
0.0
 11
-44.7191654976
 21
-22.5354856471
 31
0.0
 11
-44.719831946
 21
-22.5515170377
 31
0.0
 11
-44.7205394984
 21
-22.5716436965
 31
0.0
 11
-44.7212818769
 21
-22.5956870434
 31
0.0
 11
-44.7220524943
 21
-22.6234337462
 31
0.0
 11
-44.7228445133
 21
-22.6546376136
 31
0.0
 11
-44.7236509064
 21
-22.6890217794
 31
0.0
 11
-44.7244645185
 21
-22.7262811593
 31
0.0
  0
SPLINE
  5
2FF
100
AcDbEntity
  8
RACCORDO
100
AcDbSpline
 62
253
  6
CONTINUOUS
 70
0
 71
3
 72
17
 73
13
 74
11
 42
0.0000001
 43
0.0000001
 44
0.0000000001
 12
0.1068839212
 22
-0.1845205715
 32
0.0
 13
0.0045016785
 23
-0.2131941575
 33
0.0
 40
0.0
 40
0.0
 40
0.0
 40
0.0
 40
0.0144707574
 40
0.049516684
 40
0.1049004974
 40
0.1801449206
 40
0.2745875665
 40
0.3873930357
 40
0.5175619125
 40
0.6639401905
 40
0.8252297513
 40
1.0
 40
1.0
 40
1.0
 40
1.0
 10
44.7174697728
 20
-22.5131964771
 30
0.0
 10
44.7179853366
 20
-22.5140865279
 30
0.0
 10
44.7178994414
 20
-22.517815956
 30
0.0
 10
44.718809273
 20
-22.5250620733
 30
0.0
 10
44.7191872747
 20
-22.5369260608
 30
0.0
 10
44.7199263807
 20
-22.5528678575
 30
0.0
 10
44.7205882747
 20
-22.5729519272
 30
0.0
 10
44.7213337582
 20
-22.5969188269
 30
0.0
 10
44.722093474
 20
-22.624585622
 30
0.0
 10
44.7228809603
 20
-22.6556967824
 30
0.0
 10
44.7236819651
 20
-22.6899795948
 30
0.0
 10
44.7242022653
 20
-22.7138612123
 30
0.0
 10
44.7244645185
 20
-22.726281211
 30
0.0
 11
44.7174697728
 21
-22.5131964771
 31
0.0
 11
44.7179791471
 21
-22.5162399137
 31
0.0
 11
44.7185460649
 21
-22.5236916318
 31
0.0
 11
44.7191654961
 21
-22.5354855137
 31
0.0
 11
44.7198319445
 21
-22.5515169143
 31
0.0
 11
44.7205394971
 21
-22.5716435895
 31
0.0
 11
44.7212818756
 21
-22.5956869589
 31
0.0
 11
44.7220524933
 21
-22.6234336896
 31
0.0
 11
44.7228445126
 21
-22.6546375895
 31
0.0
 11
44.7236509059
 21
-22.6890217917
 31
0.0
 11
44.7244645185
 21
-22.726281211
 31
0.0
  0
SPLINE
  5
300
100
AcDbEntity
  8
RACCORDO
100
AcDbSpline
 62
253
  6
CONTINUOUS
 70
0
 71
3
 72
17
 73
13
 74
11
 42
0.0000001
 43
0.0000001
 44
0.0000000001
 12
0.106882387
 22
0.1845212594
 32
0.0
 13
0.0045016763
 23
0.2131939838
 33
0.0
 40
0.0
 40
0.0
 40
0.0
 40
0.0
 40
0.0144708223
 40
0.0495167968
 40
0.1049006412
 40
0.1801450788
 40
0.2745877239
 40
0.3873931788
 40
0.51756203
 40
0.6639402736
 40
0.8252297942
 40
1.0
 40
1.0
 40
1.0
 40
1.0
 10
44.7174697745
 20
22.5131965977
 30
0.0
 10
44.7179853332
 20
22.5140866558
 30
0.0
 10
44.7178994488
 20
22.5178160813
 30
0.0
 10
44.7188092709
 20
22.5250622097
 30
0.0
 10
44.7191872781
 20
22.5369261904
 30
0.0
 10
44.7199263818
 20
22.5528679789
 30
0.0
 10
44.7205882766
 20
22.5729520315
 30
0.0
 10
44.7213337597
 20
22.596918909
 30
0.0
 10
44.7220934753
 20
22.6245856762
 30
0.0
 10
44.7228809613
 20
22.6556968042
 30
0.0
 10
44.7236819657
 20
22.6899795803
 30
0.0
 10
44.7242022655
 20
22.7138611724
 30
0.0
 10
44.7244645185
 20
22.7262811579
 30
0.0
 11
44.7174697745
 21
22.5131965977
 31
0.0
 11
44.7179791489
 21
22.5162400457
 31
0.0
 11
44.7185460667
 21
22.523691768
 31
0.0
 11
44.7191654979
 21
22.5354856468
 31
0.0
 11
44.7198319464
 21
22.5515170374
 31
0.0
 11
44.7205394988
 21
22.5716436961
 31
0.0
 11
44.7212818772
 21
22.5956870428
 31
0.0
 11
44.7220524946
 21
22.6234337454
 31
0.0
 11
44.7228445135
 21
22.6546376126
 31
0.0
 11
44.7236509065
 21
22.6890217782
 31
0.0
 11
44.7244645185
 21
22.7262811579
 31
0.0
  0
SPLINE
  5
301
100
AcDbEntity
  8
RACCORDO
100
AcDbSpline
 62
253
  6
CONTINUOUS
 70
0
 71
3
 72
17
 73
13
 74
11
 42
0.0000001
 43
0.0000001
 44
0.0000000001
 12
-0.1068827608
 22
0.1845210916
 32
0.0
 13
-0.004501678
 23
0.213194026
 33
0.0
 40
0.0
 40
0.0
 40
0.0
 40
0.0
 40
0.0144708069
 40
0.04951677
 40
0.104900607
 40
0.1801450413
 40
0.2745876865
 40
0.3873931449
 40
0.5175620022
 40
0.663940254
 40
0.8252297841
 40
1.0
 40
1.0
 40
1.0
 40
1.0
 10
-44.7174697741
 20
22.5131965668
 30
0.0
 10
-44.717985334
 20
22.5140866232
 30
0.0
 10
-44.717899447
 20
22.5178160494
 30
0.0
 10
-44.7188092714
 20
22.5250621751
 30
0.0
 10
-44.7191872772
 20
22.5369261575
 30
0.0
 10
-44.7199263814
 20
22.552867948
 30
0.0
 10
-44.7205882759
 20
22.5729520048
 30
0.0
 10
-44.721333759
 20
22.5969188877
 30
0.0
 10
-44.7220934747
 20
22.6245856616
 30
0.0
 10
-44.7228809608
 20
22.6556967974
 30
0.0
 10
-44.7236819654
 20
22.6899795823
 30
0.0
 10
-44.7242022654
 20
22.7138611805
 30
0.0
 10
-44.7244645185
 20
22.7262811692
 30
0.0
 11
-44.7174697741
 21
22.5131965668
 31
0.0
 11
-44.7179791484
 21
22.5162400121
 31
0.0
 11
-44.7185460662
 21
22.5236917334
 31
0.0
 11
-44.7191654974
 21
22.5354856131
 31
0.0
 11
-44.7198319458
 21
22.5515170061
 31
0.0
 11
-44.7205394981
 21
22.5716436688
 31
0.0
 11
-44.7212818765
 21
22.595687021
 31
0.0
 11
-44.722052494
 21
22.6234337304
 31
0.0
 11
-44.722844513
 21
22.6546376055
 31
0.0
 11
-44.7236509062
 21
22.6890217799
 31
0.0
 11
-44.7244645185
 21
22.7262811692
 31
0.0
  0
SPLINE
  5
302
100
AcDbEntity
  8
RACCORDO
100
AcDbSpline
 62
253
  6
CONTINUOUS
 70
0
 71
3
 72
21
 73
17
 74
15
 42
0.0000001
 43
0.0000001
 44
0.0000000001
 12
-0.3758327693
 22
0.0030822789
 32
0.0
 13
-0.0093634699
 23
0.3757287537
 33
0.0
 40
0.0
 40
0.0
 40
0.0
 40
0.0
 40
0.088626872
 40
0.1765676168
 40
0.2631068139
 40
0.3475647184
 40
0.429316866
 40
0.5078153038
 40
0.5826122604
 40
0.6533872063
 40
0.7199781866
 40
0.782417608
 40
0.8409704676
 40
0.8961681237
 40
0.9488227096
 40
1.0
 40
1.0
 40
1.0
 40
1.0
 10
-44.7246011243
 20
-22.7374580432
 30
0.0
 10
-44.7357040852
 20
-22.7373669856
 30
0.0
 10
-44.7578248329
 20
-22.7364821354
 30
0.0
 10
-44.7906310002
 20
-22.7330581313
 30
0.0
 10
-44.8226301693
 20
-22.7275807195
 30
0.0
 10
-44.8534293608
 20
-22.720116773
 30
0.0
 10
-44.8826531451
 20
-22.7107570313
 30
0.0
 10
-44.9099455991
 20
-22.6996145672
 30
0.0
 10
-44.9349753848
 20
-22.6868227128
 30
0.0
 10
-44.9574392457
 20
-22.672532391
 30
0.0
 10
-44.977064601
 20
-22.6569091355
 30
0.0
 10
-44.9936102867
 20
-22.6401296271
 30
0.0
 10
-45.0068649213
 20
-22.6223814788
 30
0.0
 10
-45.0166438954
 20
-22.6038611647
 30
0.0
 10
-45.0227893839
 20
-22.5847993073
 30
0.0
 10
-45.0243957005
 20
-22.5717947055
 30
0.0
 10
-45.0245554328
 20
-22.5653851123
 30
0.0
 11
-44.7246011243
 21
-22.7374580432
 31
0.0
 11
-44.7578843509
 21
-22.7361227075
 31
0.0
 11
-44.7907565981
 21
-22.7326791139
 31
0.0
 11
-44.8228119613
 21
-22.7271697835
 31
0.0
 11
-44.8536546228
 21
-22.7196627453
 31
0.0
 11
-44.8829037391
 21
-22.7102506958
 31
0.0
 11
-44.9101981438
 21
-22.6990498543
 31
0.0
 11
-44.9352008072
 21
-22.6861985284
 31
0.0
 11
-44.9576029978
 21
-22.6718554053
 31
0.0
 11
-44.9771280947
 21
-22.6561975931
 31
0.0
 11
-44.993535003
 21
-22.6394184337
 31
0.0
 11
-45.0066211313
 21
-22.6217251151
 31
0.0
 11
-45.0162248928
 21
-22.6033361133
 31
0.0
 11
-45.0222277007
 21
-22.5844784948
 31
0.0
 11
-45.0245554328
 21
-22.5653851123
 31
0.0
  0
SPLINE
  5
303
100
AcDbEntity
  8
RACCORDO
100
AcDbSpline
 62
253
  6
CONTINUOUS
 70
0
 71
3
 72
23
 73
19
 74
17
 42
0.0000001
 43
0.0000001
 44
0.0000000001
 12
0.0002770845
 22
-0.638899946
 32
0.0
 13
0.6387149735
 23
-0.0153753195
 33
0.0
 40
0.0
 40
0.0
 40
0.0
 40
0.0
 40
0.1041816242
 40
0.2058042424
 40
0.3026698642
 40
0.3928096858
 40
0.4756109996
 40
0.5503755849
 40
0.6175547148
 40
0.6774596298
 40
0.731072188
 40
0.7791736912
 40
0.8225927723
 40
0.8623843196
 40
0.8993193697
 40
0.9339497101
 40
0.9671077015
 40
1.0
 40
1.0
 40
1.0
 40
1.0
 10
-45.020338777
 20
-22.2203844684
 30
0.0
 10
-45.0203291546
 20
-22.2425716798
 30
0.0
 10
-45.018605283
 20
-22.2864201477
 30
0.0
 10
-45.0110452614
 20
-22.3504977763
 30
0.0
 10
-44.9990229799
 20
-22.4108467397
 30
0.0
 10
-44.9832711595
 20
-22.4661717949
 30
0.0
 10
-44.9646476012
 20
-22.5155953391
 30
0.0
 10
-44.9439716992
 20
-22.5588295695
 30
0.0
 10
-44.9220272859
 20
-22.5958619761
 30
0.0
 10
-44.8994066278
 20
-22.6270639466
 30
0.0
 10
-44.8765898349
 20
-22.6529073023
 30
0.0
 10
-44.8538869705
 20
-22.673959767
 30
0.0
 10
-44.8314872027
 20
-22.6907873617
 30
0.0
 10
-44.8094639166
 20
-22.7039115129
 30
0.0
 10
-44.7878352483
 20
-22.7137575832
 30
0.0
 10
-44.7665799727
 20
-22.7206701813
 30
0.0
 10
-44.7455218851
 20
-22.724938649
 30
0.0
 10
-44.7314658439
 20
-22.726112684
 30
0.0
 10
-44.7244629094
 20
-22.7262812606
 30
0.0
 11
-45.020338777
 21
-22.2203844684
 31
0.0
 11
-45.0177083089
 21
-22.2868941113
 31
0.0
 11
-45.010058836
 21
-22.3513686088
 31
0.0
 11
-44.9979034726
 21
-22.4120505926
 31
0.0
 11
-44.9820533094
 21
-22.4674168163
 31
0.0
 11
-44.9633117961
 21
-22.5168875337
 31
0.0
 11
-44.9426154242
 21
-22.5599381488
 31
0.0
 11
-44.9206516147
 21
-22.5968133648
 31
0.0
 11
-44.8981134072
 21
-22.6277466948
 31
0.0
 11
-44.8753808192
 21
-22.6533689864
 31
0.0
 11
-44.8527966203
 21
-22.6742115606
 31
0.0
 11
-44.8305802031
 21
-22.6908237078
 31
0.0
 11
-44.8087148854
 21
-22.7037939679
 31
0.0
 11
-44.7872210499
 21
-22.713534162
 31
0.0
 11
-44.7661716027
 21
-22.7203496417
 31
0.0
 11
-44.7454055421
 21
-22.7245400757
 31
0.0
 11
-44.7244629094
 21
-22.7262812606
 31
0.0
  0
SPLINE
  5
304
100
AcDbEntity
  8
RACCORDO
100
AcDbSpline
 62
253
  6
CONTINUOUS
 70
0
 71
3
 72
16
 73
12
 74
10
 42
0.0000001
 43
0.0000001
 44
0.0000000001
 12
-0.2569182207
 22
0.1238535995
 32
0.0
 13
-0.1586986042
 23
0.2369840486
 33
0.0
 40
0.0
 40
0.0
 40
0.0
 40
0.0
 40
0.1119601577
 40
0.2261022856
 40
0.3414036
 40
0.456816737
 40
0.5712919843
 40
0.68379945
 40
0.7933517684
 40
0.8990280453
 40
1.0
 40
1.0
 40
1.0
 40
1.0
 10
-44.9479919274
 20
-23.4637441865
 30
0.0
 10
-44.9575801289
 20
-23.4591219637
 30
0.0
 10
-44.976667769
 20
-23.4492051847
 30
0.0
 10
-45.0045955853
 20
-23.4326356167
 30
0.0
 10
-45.0318491018
 20
-23.414380875
 30
0.0
 10
-45.0581005307
 20
-23.3946601832
 30
0.0
 10
-45.0830359458
 20
-23.3737095175
 30
0.0
 10
-45.1063568105
 20
-23.3517799981
 30
0.0
 10
-45.1277849347
 20
-23.3291334774
 30
0.0
 10
-45.1470635051
 20
-23.3060423536
 30
0.0
 10
-45.1586227861
 20
-23.2901321111
 30
0.0
 10
-45.1639641555
 20
-23.2821558636
 30
0.0
 11
-44.9479919274
 21
-23.4637441865
 31
0.0
 11
-44.9763384557
 21
-23.4490417615
 31
0.0
 11
-45.0043432235
 21
-23.4324419962
 31
0.0
 11
-45.031668591
 21
-23.4141450259
 31
0.0
 11
-45.0579851092
 21
-23.3943714485
 31
0.0
 11
-45.0829754927
 21
-23.3733596644
 31
0.0
 11
-45.1063384445
 21
-23.3513630026
 31
0.0
 11
-45.1277922887
 21
-23.3286466661
 31
0.0
 11
-45.1470783667
 21
-23.3054845349
 31
0.0
 11
-45.1639641555
 21
-23.2821558636
 31
0.0
  0
SPLINE
  5
305
100
AcDbEntity
  8
RACCORDO
100
AcDbSpline
 62
253
  6
CONTINUOUS
 70
0
 71
3
 72
23
 73
19
 74
17
 42
0.0000001
 43
0.0000001
 44
0.0000000001
 12
0.0114624469
 22
-0.4647004999
 32
0.0
 13
0.4647966294
 23
-0.006483486
 33
0.0
 40
0.0
 40
0.0
 40
0.0
 40
0.0
 40
0.0832634749
 40
0.1656166248
 40
0.2461841655
 40
0.3238377445
 40
0.3982742504
 40
0.4687821529
 40
0.5354570556
 40
0.5981019522
 40
0.657131534
 40
0.7127606127
 40
0.7652921996
 40
0.8153909975
 40
0.8634747172
 40
0.9097455323
 40
0.9548463719
 40
1.0
 40
1.0
 40
1.0
 40
1.0
 10
-45.0203398671
 20
-22.2203398805
 30
0.0
 10
-45.0200217327
 20
-22.2332374067
 30
0.0
 10
-45.0176575775
 20
-22.2588823429
 30
0.0
 10
-45.0091100966
 20
-22.2961657453
 30
0.0
 10
-44.9961319921
 20
-22.331218545
 30
0.0
 10
-44.9794889148
 20
-22.3632952104
 30
0.0
 10
-44.9600764645
 20
-22.3918960488
 30
0.0
 10
-44.9387300038
 20
-22.4168688348
 30
0.0
 10
-44.9162379859
 20
-22.4382242208
 30
0.0
 10
-44.8931863396
 20
-22.456192354
 30
0.0
 10
-44.8700410633
 20
-22.4710586937
 30
0.0
 10
-44.8471007376
 20
-22.4831577415
 30
0.0
 10
-44.8245368846
 20
-22.4928232791
 30
0.0
 10
-44.8024103316
 20
-22.5003586173
 30
0.0
 10
-44.7807329233
 20
-22.506009429
 30
0.0
 10
-44.7594741486
 20
-22.5099763186
 30
0.0
 10
-44.7384468477
 20
-22.5124262819
 30
0.0
 10
-44.7244655259
 20
-22.5130990122
 30
0.0
 10
-44.7174697745
 20
-22.5131965965
 30
0.0
 11
-45.0203398671
 21
-22.2203398805
 31
0.0
 11
-45.0167887435
 21
-22.2588809759
 31
0.0
 11
-45.0082477427
 21
-22.2961972034
 31
0.0
 11
-44.9952532235
 21
-22.3313217274
 31
0.0
 11
-44.9786373416
 21
-22.3633666861
 31
0.0
 11
-44.9592115445
 21
-22.3920002617
 31
0.0
 11
-44.9379199066
 21
-22.4169174912
 31
0.0
 11
-44.9154464389
 21
-22.4382605687
 31
0.0
 11
-44.8924809194
 21
-22.4561646893
 31
0.0
 11
-44.8693944425
 21
-22.4709949402
 31
0.0
 11
-44.8465222536
 21
-22.4830587938
 31
0.0
 11
-44.8240761204
 21
-22.4926740317
 31
0.0
 11
-44.8020313191
 21
-22.5001812617
 31
0.0
 11
-44.7804026415
 21
-22.505818818
 31
0.0
 11
-44.7592588625
 21
-22.5097635562
 31
0.0
 11
-44.738434866
 21
-22.5121888871
 31
0.0
 11
-44.7174697745
 21
-22.5131965965
 31
0.0
  0
LINE
  5
306
100
AcDbEntity
  8
RACCORDO
100
AcDbLine
 62
253
  6
CONTINUOUS
 10
-67.5694966111
 20
-38.1276933601
 11
-67.7970327896
 21
-38.3574515641
  0
SPLINE
  5
307
100
AcDbEntity
  8
RACCORDO
100
AcDbSpline
 62
253
  6
CONTINUOUS
 70
0
 71
3
 72
23
 73
19
 74
17
 42
0.0000001
 43
0.0000001
 44
0.0000000001
 12
0.6387919273
 22
0.0153778803
 32
0.0
 13
0.0002482235
 23
0.638976951
 33
0.0
 40
0.0
 40
0.0
 40
0.0
 40
0.0
 40
0.0328875126
 40
0.0660415086
 40
0.1006676763
 40
0.1375982759
 40
0.1773850285
 40
0.2207988779
 40
0.2688945851
 40
0.3225006833
 40
0.3823983801
 40
0.4495694152
 40
0.5243249918
 40
0.6071163285
 40
0.6972452888
 40
0.7940992387
 40
0.8957096118
 40
1.0
 40
1.0
 40
1.0
 40
1.0
 10
44.7244634341
 20
-22.7262812275
 30
0.0
 10
44.7314661932
 20
-22.7261126474
 30
0.0
 10
44.7455220575
 20
-22.7249386175
 30
0.0
 10
44.7665799726
 20
-22.7206701803
 30
0.0
 10
44.7878352483
 20
-22.7137575835
 30
0.0
 10
44.8094639166
 20
-22.7039115129
 30
0.0
 10
44.8314872027
 20
-22.6907873617
 30
0.0
 10
44.8538869705
 20
-22.673959767
 30
0.0
 10
44.8765898348
 20
-22.6529073023
 30
0.0
 10
44.8994066278
 20
-22.6270639466
 30
0.0
 10
44.9220272859
 20
-22.5958619761
 30
0.0
 10
44.943971699
 20
-22.5588295695
 30
0.0
 10
44.9646476023
 20
-22.515595339
 30
0.0
 10
44.9832711539
 20
-22.466171795
 30
0.0
 10
44.9990230062
 20
-22.4108467403
 30
0.0
 10
45.0110451476
 20
-22.3504977725
 30
0.0
 10
45.0186087719
 20
-22.2863944775
 30
0.0
 10
45.0203301781
 20
-22.2425199419
 30
0.0
 10
45.0203388072
 20
-22.2203068904
 30
0.0
 11
44.7244634341
 21
-22.7262812275
 31
0.0
 11
44.7454055421
 21
-22.7245400757
 31
0.0
 11
44.7661716027
 21
-22.7203496417
 31
0.0
 11
44.7872210499
 21
-22.713534162
 31
0.0
 11
44.8087148854
 21
-22.7037939679
 31
0.0
 11
44.8305802031
 21
-22.6908237078
 31
0.0
 11
44.8527966203
 21
-22.6742115606
 31
0.0
 11
44.8753808192
 21
-22.6533689864
 31
0.0
 11
44.8981134071
 21
-22.6277466948
 31
0.0
 11
44.9206516147
 21
-22.5968133648
 31
0.0
 11
44.9426154243
 21
-22.5599381489
 31
0.0
 11
44.963311796
 21
-22.5168875337
 31
0.0
 11
44.9820533097
 21
-22.4674168165
 31
0.0
 11
44.9979034718
 21
-22.4120505924
 31
0.0
 11
45.0100588367
 21
-22.351368609
 31
0.0
 11
45.0177083103
 21
-22.2868941117
 31
0.0
 11
45.0203388072
 21
-22.2203068904
 31
0.0
  0
SPLINE
  5
308
100
AcDbEntity
  8
RACCORDO
100
AcDbSpline
 62
253
  6
CONTINUOUS
 70
0
 71
3
 72
21
 73
17
 74
15
 42
0.0000001
 43
0.0000001
 44
0.0000000001
 12
0.3758327691
 22
0.0030822791
 32
0.0
 13
0.0093634699
 23
0.3757287535
 33
0.0
 40
0.0
 40
0.0
 40
0.0
 40
0.0
 40
0.0886267483
 40
0.1765673861
 40
0.2631064981
 40
0.3475643429
 40
0.4293164576
 40
0.5078148887
 40
0.5826118623
 40
0.6533868448
 40
0.7199778763
 40
0.7824173578
 40
0.8409702814
 40
0.8961680015
 40
0.9488226494
 40
1.0
 40
1.0
 40
1.0
 40
1.0
 10
44.7246011243
 20
-22.7374580461
 30
0.0
 10
44.7357040697
 20
-22.7373669886
 30
0.0
 10
44.7578247885
 20
-22.7364821406
 30
0.0
 10
44.7906309168
 20
-22.7330581448
 30
0.0
 10
44.8226300559
 20
-22.7275807451
 30
0.0
 10
44.8534292277
 20
-22.7201168126
 30
0.0
 10
44.8826530035
 20
-22.7107570852
 30
0.0
 10
44.9099454595
 20
-22.6996146338
 30
0.0
 10
44.9349752566
 20
-22.6868227888
 30
0.0
 10
44.9574391362
 20
-22.672532472
 30
0.0
 10
44.977064515
 20
-22.6569092163
 30
0.0
 10
44.9936102258
 20
-22.6401297017
 30
0.0
 10
45.0068648843
 20
-22.6223815418
 30
0.0
 10
45.0166438784
 20
-22.603861211
 30
0.0
 10
45.0227893803
 20
-22.584799333
 30
0.0
 10
45.0243957003
 20
-22.5717947159
 30
0.0
 10
45.0245554328
 20
-22.5653851152
 30
0.0
 11
44.7246011243
 21
-22.7374580461
 31
0.0
 11
44.7578843045
 21
-22.7361227138
 31
0.0
 11
44.7907565121
 21
-22.7326791286
 31
0.0
 11
44.822811845
 21
-22.7271698104
 31
0.0
 11
44.8536544868
 21
-22.7196627865
 31
0.0
 11
44.8829035947
 21
-22.7102507513
 31
0.0
 11
44.9101980019
 21
-22.6990499225
 31
0.0
 11
44.9352006772
 21
-22.6861986058
 31
0.0
 11
44.9576028871
 21
-22.6718554874
 31
0.0
 11
44.9771280079
 21
-22.6561976743
 31
0.0
 11
44.9935349417
 21
-22.6394185082
 31
0.0
 11
45.006621094
 21
-22.6217251774
 31
0.0
 11
45.016224875
 21
-22.6033361588
 31
0.0
 11
45.0222276959
 21
-22.5844785199
 31
0.0
 11
45.0245554328
 21
-22.5653851152
 31
0.0
  0
SPLINE
  5
309
100
AcDbEntity
  8
RACCORDO
100
AcDbSpline
 62
253
  6
CONTINUOUS
 70
0
 71
3
 72
16
 73
12
 74
10
 42
0.0000001
 43
0.0000001
 44
0.0000000001
 12
0.256918209
 22
0.1238536379
 32
0.0
 13
0.1586986772
 23
0.2369840071
 33
0.0
 40
0.0
 40
0.0
 40
0.0
 40
0.0
 40
0.1119601713
 40
0.2261023087
 40
0.3414036286
 40
0.4568167675
 40
0.5712920135
 40
0.6837994753
 40
0.7933517872
 40
0.8990280556
 40
1.0
 40
1.0
 40
1.0
 40
1.0
 10
44.9479919226
 20
-23.4637441697
 30
0.0
 10
44.9575801248
 20
-23.4591219449
 30
0.0
 10
44.9766677662
 20
-23.4492051626
 30
0.0
 10
45.0045955844
 20
-23.4326355912
 30
0.0
 10
45.0318491026
 20
-23.414380848
 30
0.0
 10
45.0581005332
 20
-23.3946601562
 30
0.0
 10
45.0830359501
 20
-23.3737094922
 30
0.0
 10
45.1063568171
 20
-23.3517799759
 30
0.0
 10
45.1277849443
 20
-23.3291334596
 30
0.0
 10
45.1470635185
 20
-23.3060423413
 30
0.0
 10
45.1586228029
 20
-23.290132103
 30
0.0
 10
45.1639641742
 20
-23.2821558577
 30
0.0
 11
44.9479919226
 21
-23.4637441697
 31
0.0
 11
44.9763384533
 21
-23.4490417394
 31
0.0
 11
45.0043432231
 21
-23.4324419707
 31
0.0
 11
45.0316685921
 21
-23.4141449988
 31
0.0
 11
45.057985112
 21
-23.3943714215
 31
0.0
 11
45.0829754974
 21
-23.3733596391
 31
0.0
 11
45.1063384515
 21
-23.3513629804
 31
0.0
 11
45.1277922987
 21
-23.3286466483
 31
0.0
 11
45.1470783805
 21
-23.3054845226
 31
0.0
 11
45.1639641742
 21
-23.2821558577
 31
0.0
  0
SPLINE
  5
30A
100
AcDbEntity
  8
RACCORDO
100
AcDbSpline
 62
253
  6
CONTINUOUS
 70
0
 71
3
 72
23
 73
19
 74
17
 42
0.0000001
 43
0.0000001
 44
0.0000000001
 12
0.464752134
 22
0.0064828597
 32
0.0
 13
0.0114980805
 23
0.4646551062
 33
0.0
 40
0.0
 40
0.0
 40
0.0
 40
0.0
 40
0.0451579511
 40
0.0902631088
 40
0.1365383537
 40
0.184626677
 40
0.2347302714
 40
0.2872668877
 40
0.3429012923
 40
0.4019365255
 40
0.4645874197
 40
0.5312687062
 40
0.6017833581
 40
0.6762269936
 40
0.7538879997
 40
0.834463266
 40
0.9168243127
 40
1.0
 40
1.0
 40
1.0
 40
1.0
 10
44.7174697745
 20
-22.5131965965
 30
0.0
 10
44.7244655259
 20
-22.5130990123
 30
0.0
 10
44.7384468477
 20
-22.5124262819
 30
0.0
 10
44.7594741486
 20
-22.5099763186
 30
0.0
 10
44.7807329233
 20
-22.506009429
 30
0.0
 10
44.8024103316
 20
-22.5003586173
 30
0.0
 10
44.8245368846
 20
-22.4928232791
 30
0.0
 10
44.8471007376
 20
-22.4831577415
 30
0.0
 10
44.8700410633
 20
-22.4710586937
 30
0.0
 10
44.8931863396
 20
-22.456192354
 30
0.0
 10
44.9162379858
 20
-22.4382242208
 30
0.0
 10
44.9387300041
 20
-22.4168688349
 30
0.0
 10
44.9600764628
 20
-22.3918960484
 30
0.0
 10
44.979488922
 20
-22.3632952115
 30
0.0
 10
44.9961319623
 20
-22.3312185419
 30
0.0
 10
45.0091102165
 20
-22.2961657527
 30
0.0
 10
45.0176537978
 20
-22.2588967966
 30
0.0
 10
45.02001999
 20
-22.2332671377
 30
0.0
 10
45.020338777
 20
-22.2203844684
 30
0.0
 11
44.7174697745
 21
-22.5131965965
 31
0.0
 11
44.738434866
 21
-22.5121888871
 31
0.0
 11
44.7592588625
 21
-22.5097635562
 31
0.0
 11
44.7804026415
 21
-22.505818818
 31
0.0
 11
44.8020313191
 21
-22.5001812617
 31
0.0
 11
44.8240761204
 21
-22.4926740317
 31
0.0
 11
44.8465222536
 21
-22.4830587938
 31
0.0
 11
44.8693944425
 21
-22.4709949402
 31
0.0
 11
44.8924809194
 21
-22.4561646893
 31
0.0
 11
44.9154464388
 21
-22.4382605687
 31
0.0
 11
44.9379199066
 21
-22.4169174911
 31
0.0
 11
44.9592115443
 21
-22.392000262
 31
0.0
 11
44.978637342
 21
-22.3633666852
 31
0.0
 11
44.9952532226
 21
-22.3313217296
 31
0.0
 11
45.0082477435
 21
-22.2961972003
 31
0.0
 11
45.0167887445
 21
-22.258880967
 31
0.0
 11
45.020338777
 21
-22.2203844684
 31
0.0
  0
SPLINE
  5
30B
100
AcDbEntity
  8
RACCORDO
100
AcDbSpline
 62
253
  6
CONTINUOUS
 70
0
 71
3
 72
23
 73
19
 74
17
 42
0.0000001
 43
0.0000001
 44
0.0000000001
 12
-0.0114638167
 22
0.4647033587
 32
0.0
 13
-0.4647995334
 23
0.0064826264
 33
0.0
 40
0.0
 40
0.0
 40
0.0
 40
0.0
 40
0.0833872045
 40
0.1656775024
 40
0.2461098691
 40
0.3238066197
 40
0.3981103008
 40
0.4686384212
 40
0.5352755125
 40
0.598024618
 40
0.6569925882
 40
0.712492575
 40
0.765109394
 40
0.8154723617
 40
0.8639308997
 40
0.9106414903
 40
0.9558579655
 40
1.0
 40
1.0
 40
1.0
 40
1.0
 10
45.0203399365
 20
22.220337031
 30
0.0
 10
45.0200212913
 20
22.2332538023
 30
0.0
 10
45.0176541224
 20
22.2589084246
 30
0.0
 10
45.0091039253
 20
22.2961794176
 30
0.0
 10
44.9961349335
 20
22.3312097602
 30
0.0
 10
44.9795105772
 20
22.3632572591
 30
0.0
 10
44.9601087356
 20
22.3918521118
 30
0.0
 10
44.9387832395
 20
22.4168124865
 30
0.0
 10
44.9162867648
 20
22.4381828379
 30
0.0
 10
44.8932378129
 20
22.45615623
 30
0.0
 10
44.870106216
 20
22.4710191936
 30
0.0
 10
44.8471840707
 20
22.4831176519
 30
0.0
 10
44.8245918671
 20
22.4928043957
 30
0.0
 10
44.8023592214
 20
22.5003777973
 30
0.0
 10
44.7805172203
 20
22.5060621857
 30
0.0
 10
44.7591121554
 20
22.5100339881
 30
0.0
 10
44.7381513372
 20
22.5124457509
 30
0.0
 10
44.7243088402
 20
22.5131012111
 30
0.0
 10
44.7174697745
 20
22.5131965965
 30
0.0
 11
45.0203399365
 21
22.220337031
 31
0.0
 11
45.0167800209
 21
22.2589353165
 31
0.0
 11
45.008240296
 21
22.2962221081
 31
0.0
 11
44.9952681306
 21
22.3312881533
 31
0.0
 11
44.9786457564
 21
22.363352604
 31
0.0
 11
44.9592589612
 21
22.3919382881
 31
0.0
 11
44.9379670649
 21
22.4168679257
 31
0.0
 11
44.9155115516
 21
22.4382046634
 31
0.0
 11
44.8925112536
 21
22.4561432537
 31
0.0
 11
44.8694511838
 21
22.4709619379
 31
0.0
 11
44.8466356256
 21
22.4830048756
 31
0.0
 11
44.8241561982
 21
22.4926433909
 31
0.0
 11
44.8019956035
 21
22.5001919745
 31
0.0
 11
44.7801959196
 21
22.5058647851
 31
0.0
 11
44.7588470306
 21
22.5098254401
 31
0.0
 11
44.7379660499
 21
22.5122270853
 31
0.0
 11
44.7174697745
 21
22.5131965965
 31
0.0
  0
LINE
  5
30C
100
AcDbEntity
  8
RACCORDO
100
AcDbLine
 62
253
  6
CONTINUOUS
 10
-69.9411001206
 20
35.7829651325
 11
-70.168205112
 21
36.0136580925
  0
SPLINE
  5
30D
100
AcDbEntity
  8
RACCORDO
100
AcDbSpline
 62
253
  6
CONTINUOUS
 70
0
 71
3
 72
23
 73
19
 74
17
 42
0.0000001
 43
0.0000001
 44
0.0000000001
 12
-0.0002783043
 22
0.6389001881
 32
0.0
 13
-0.638715051
 23
0.0153821761
 33
0.0
 40
0.0
 40
0.0
 40
0.0
 40
0.0
 40
0.1043288419
 40
0.2058720635
 40
0.3025760471
 40
0.3927695008
 40
0.4754288654
 40
0.5502237617
 40
0.6173736737
 40
0.6773848949
 40
0.7309464791
 40
0.7789448238
 40
0.822442612
 40
0.8624459222
 40
0.8996632658
 40
0.9346120802
 40
0.9678460089
 40
1.0
 40
1.0
 40
1.0
 40
1.0
 10
45.020338777
 20
22.2203844684
 30
0.0
 10
45.0203290986
 20
22.2426030406
 30
0.0
 10
45.0186023188
 20
22.2864660533
 30
0.0
 10
45.0110392376
 20
22.3505231088
 30
0.0
 10
44.9990252736
 20
22.4108327328
 30
0.0
 10
44.9832915385
 20
22.4661076951
 30
0.0
 10
44.9646777472
 20
22.5155214029
 30
0.0
 10
44.9440231274
 20
22.5587326095
 30
0.0
 10
44.9220751068
 20
22.5957893462
 30
0.0
 10
44.899457387
 20
22.6270006015
 30
0.0
 10
44.8766520584
 20
22.6528403069
 30
0.0
 10
44.8539691227
 20
22.6738901234
 30
0.0
 10
44.8315453073
 20
22.6907524471
 30
0.0
 10
44.8094185633
 20
22.703942777
 30
0.0
 10
44.7876254715
 20
22.7138481856
 30
0.0
 10
44.7662205503
 20
22.7207707567
 30
0.0
 10
44.7452234536
 20
22.7249734114
 30
0.0
 10
44.7313086439
 20
22.7261163937
 30
0.0
 10
44.7244628979
 20
22.7262812599
 30
0.0
 11
45.020338777
 21
22.2203844684
 31
0.0
 11
45.0177008848
 21
22.2869879738
 31
0.0
 11
45.0100519945
 21
22.3514114827
 31
0.0
 11
44.9979176195
 21
22.4119923725
 31
0.0
 11
44.9820614417
 21
22.4673925391
 31
0.0
 11
44.9633577152
 21
22.5167806115
 31
0.0
 11
44.9426612444
 21
22.5598526856
 31
0.0
 11
44.9207151188
 21
22.5967167244
 31
0.0
 11
44.8981429857
 21
22.6277093883
 31
0.0
 11
44.8754367635
 21
22.653311551
 31
0.0
 11
44.8529090141
 21
22.6741181253
 31
0.0
 11
44.8306601008
 21
22.6907707983
 31
0.0
 11
44.8086800642
 21
22.7038128739
 31
0.0
 11
44.7870159101
 21
22.71361419
 31
0.0
 11
44.7657615123
 21
22.7204571543
 31
0.0
 11
44.7449377025
 21
22.7246064022
 31
0.0
 11
44.7244628979
 21
22.7262812599
 31
0.0
  0
SPLINE
  5
30E
100
AcDbEntity
  8
RACCORDO
100
AcDbSpline
 62
253
  6
CONTINUOUS
 70
0
 71
3
 72
21
 73
17
 74
15
 42
0.0000001
 43
0.0000001
 44
0.0000000001
 12
-0.0093634699
 22
0.3757287536
 32
0.0
 13
-0.3758327692
 23
0.0030822791
 33
0.0
 40
0.0
 40
0.0
 40
0.0
 40
0.0
 40
0.0511773292
 40
0.1038319551
 40
0.1590296524
 40
0.2175825532
 40
0.2800220133
 40
0.3466130265
 40
0.4173879959
 40
0.4921849633
 40
0.5706833967
 40
0.652435523
 40
0.736893389
 40
0.8234325313
 40
0.9113732073
 40
1.0
 40
1.0
 40
1.0
 40
1.0
 10
45.0245554328
 20
22.5653851122
 30
0.0
 10
45.0243957003
 20
22.5717947102
 30
0.0
 10
45.0227893816
 20
22.5847993219
 30
0.0
 10
45.0166438844
 20
22.6038611926
 30
0.0
 10
45.0068648974
 20
22.6223815174
 30
0.0
 10
44.9936102474
 20
22.6401296732
 30
0.0
 10
44.9770645456
 20
22.6569091856
 30
0.0
 10
44.9574391752
 20
22.6725324412
 30
0.0
 10
44.9349753023
 20
22.6868227598
 30
0.0
 10
44.9099455092
 20
22.6996146081
 30
0.0
 10
44.8826530539
 20
22.7107570639
 30
0.0
 10
44.8534292752
 20
22.7201167965
 30
0.0
 10
44.8226300964
 20
22.727580734
 30
0.0
 10
44.7906309467
 20
22.733058138
 30
0.0
 10
44.7578248043
 20
22.7364821368
 30
0.0
 10
44.7357040752
 20
22.7373669856
 30
0.0
 10
44.7246011243
 20
22.7374580431
 30
0.0
 11
45.0245554328
 21
22.5653851122
 31
0.0
 11
45.0222276976
 21
22.584478509
 31
0.0
 11
45.0162248813
 21
22.6033361406
 31
0.0
 11
45.0066211072
 21
22.6217251533
 31
0.0
 11
44.9935349635
 21
22.6394184797
 31
0.0
 11
44.9771280387
 21
22.6561976435
 31
0.0
 11
44.9576029265
 21
22.6718554562
 31
0.0
 11
44.9352007235
 21
22.6861985762
 31
0.0
 11
44.9101980524
 21
22.6990498962
 31
0.0
 11
44.8829036462
 21
22.7102507295
 31
0.0
 11
44.8536545353
 21
22.7196627698
 31
0.0
 11
44.8228118866
 21
22.7271697988
 31
0.0
 11
44.7907565429
 21
22.7326791213
 31
0.0
 11
44.7578843211
 21
22.7361227096
 31
0.0
 11
44.7246011243
 21
22.7374580431
 31
0.0
  0
SPLINE
  5
30F
100
AcDbEntity
  8
RACCORDO
100
AcDbSpline
 62
253
  6
CONTINUOUS
 70
0
 71
3
 72
16
 73
12
 74
10
 42
0.0000001
 43
0.0000001
 44
0.0000000001
 12
-0.1586986716
 22
0.236984009
 32
0.0
 13
-0.2569182085
 23
0.1238536354
 33
0.0
 40
0.0
 40
0.0
 40
0.0
 40
0.0
 40
0.1009719453
 40
0.2066482146
 40
0.3162005271
 40
0.4287079892
 40
0.5431832352
 40
0.658596374
 40
0.7738976934
 40
0.8880398299
 40
1.0
 40
1.0
 40
1.0
 40
1.0
 10
45.1639641763
 20
23.2821558627
 30
0.0
 10
45.1586228051
 20
23.2901321081
 30
0.0
 10
45.147063521
 20
23.3060423467
 30
0.0
 10
45.1277849471
 20
23.3291334653
 30
0.0
 10
45.1063568202
 20
23.3517799819
 30
0.0
 10
45.0830359534
 20
23.3737094984
 30
0.0
 10
45.0581005368
 20
23.3946601625
 30
0.0
 10
45.0318491064
 20
23.4143808542
 30
0.0
 10
45.0045955886
 20
23.4326355973
 30
0.0
 10
44.9766677707
 20
23.4492051685
 30
0.0
 10
44.9575801295
 20
23.4591219505
 30
0.0
 10
44.9479919274
 20
23.4637441752
 30
0.0
 11
45.1639641763
 21
23.2821558627
 31
0.0
 11
45.1470783829
 21
23.305484528
 31
0.0
 11
45.1277923014
 21
23.328646654
 31
0.0
 11
45.1063384545
 21
23.3513629864
 31
0.0
 11
45.0829755007
 21
23.3733596453
 31
0.0
 11
45.0579851156
 21
23.3943714278
 31
0.0
 11
45.031668596
 21
23.4141450051
 31
0.0
 11
45.0043432272
 21
23.4324419768
 31
0.0
 11
44.9763384578
 21
23.4490417453
 31
0.0
 11
44.9479919274
 21
23.4637441752
 31
0.0
  0
SPLINE
  5
310
100
AcDbEntity
  8
RACCORDO
100
AcDbSpline
 62
253
  6
CONTINUOUS
 70
0
 71
3
 72
23
 73
19
 74
17
 42
0.0000001
 43
0.0000001
 44
0.0000000001
 12
-0.4647521974
 22
-0.0064819689
 32
0.0
 13
-0.0115017295
 23
-0.4646550668
 33
0.0
 40
0.0
 40
0.0
 40
0.0
 40
0.0
 40
0.0441461565
 40
0.0893748368
 40
0.1360976144
 40
0.1845636408
 40
0.234925965
 40
0.2875425203
 40
0.3430474155
 40
0.4020219229
 40
0.4647764359
 40
0.5314178245
 40
0.6019504955
 40
0.6762611927
 40
0.7539676755
 40
0.8344108125
 40
0.9167098482
 40
1.0
 40
1.0
 40
1.0
 40
1.0
 10
-44.7174697745
 20
22.5131965965
 30
0.0
 10
-44.7243087822
 20
22.5131012119
 30
0.0
 10
-44.738152398
 20
22.5124457027
 30
0.0
 10
-44.759115467
 20
22.5100335714
 30
0.0
 10
-44.7805231528
 20
22.5060609197
 30
0.0
 10
-44.8023656526
 20
22.5003758465
 30
0.0
 10
-44.8245968331
 20
22.4928024141
 30
0.0
 10
-44.8471871766
 20
22.4831161242
 30
0.0
 10
-44.8701084228
 20
22.4710179028
 30
0.0
 10
-44.8932397456
 20
22.4561548546
 30
0.0
 10
-44.9162881984
 20
22.4381815672
 30
0.0
 10
-44.9387838749
 20
22.4168117566
 30
0.0
 10
-44.9601087623
 20
22.3918520288
 30
0.0
 10
-44.9795105289
 20
22.363257377
 30
0.0
 10
-44.9961351302
 20
22.3312093451
 30
0.0
 10
-45.0091044264
 20
22.2961782759
 30
0.0
 10
-45.0176502383
 20
22.2589227168
 30
0.0
 10
-45.02001945
 20
22.2332848654
 30
0.0
 10
-45.020338777
 20
22.2203844684
 30
0.0
 11
-44.7174697745
 21
22.5131965965
 31
0.0
 11
-44.7379658766
 21
22.5122270993
 31
0.0
 11
-44.7588503541
 21
22.5098249431
 31
0.0
 11
-44.7802025734
 21
22.5058633084
 31
0.0
 11
-44.8020032706
 21
22.5001896802
 31
0.0
 11
-44.8241611641
 21
22.4926414885
 31
0.0
 11
-44.8466380656
 21
22.4830037141
 31
0.0
 11
-44.8694532201
 21
22.4709607528
 31
0.0
 11
-44.8925133793
 21
22.4561417512
 31
0.0
 11
-44.9155131793
 21
22.4382032657
 31
0.0
 11
-44.9379677451
 21
22.4168672108
 31
0.0
 11
-44.9592588162
 21
22.3919384777
 31
0.0
 11
-44.9786455021
 21
22.3633530294
 31
0.0
 11
-44.9952682732
 21
22.3312878323
 31
0.0
 11
-45.0082407407
 21
22.2962206212
 31
0.0
 11
-45.0167802928
 21
22.2589336202
 31
0.0
 11
-45.020338777
 21
22.2203844684
 31
0.0
  0
SPLINE
  5
311
100
AcDbEntity
  8
RACCORDO
100
AcDbSpline
 62
253
  6
CONTINUOUS
 70
0
 71
3
 72
21
 73
17
 74
15
 42
0.0000001
 43
0.0000001
 44
0.0000000001
 12
0.0093634699
 22
0.3757287537
 32
0.0
 13
0.3758327693
 23
0.0030822789
 33
0.0
 40
0.0
 40
0.0
 40
0.0
 40
0.0
 40
0.0511772904
 40
0.1038318763
 40
0.1590295324
 40
0.217582392
 40
0.2800218134
 40
0.3466127937
 40
0.4173877396
 40
0.4921846962
 40
0.570683134
 40
0.6524352816
 40
0.7368931861
 40
0.8234323832
 40
0.911373128
 40
1.0
 40
1.0
 40
1.0
 40
1.0
 10
-45.0245554328
 20
22.5653851151
 30
0.0
 10
-45.0243957005
 20
22.5717947083
 30
0.0
 10
-45.022789384
 20
22.5847993101
 30
0.0
 10
-45.0166438954
 20
22.6038611676
 30
0.0
 10
-45.0068649213
 20
22.6223814817
 30
0.0
 10
-44.9936102867
 20
22.6401296299
 30
0.0
 10
-44.9770646011
 20
22.6569091384
 30
0.0
 10
-44.9574392458
 20
22.6725323938
 30
0.0
 10
-44.9349753849
 20
22.6868227156
 30
0.0
 10
-44.9099455991
 20
22.69961457
 30
0.0
 10
-44.8826531451
 20
22.7107570341
 30
0.0
 10
-44.8534293608
 20
22.7201167758
 30
0.0
 10
-44.8226301694
 20
22.7275807223
 30
0.0
 10
-44.7906310003
 20
22.7330581341
 30
0.0
 10
-44.7578248329
 20
22.7364821382
 30
0.0
 10
-44.7357040852
 20
22.7373669884
 30
0.0
 10
-44.7246011243
 20
22.737458046
 30
0.0
 11
-45.0245554328
 21
22.5653851151
 31
0.0
 11
-45.0222277008
 21
22.5844784976
 31
0.0
 11
-45.0162248928
 21
22.6033361161
 31
0.0
 11
-45.0066211313
 21
22.6217251179
 31
0.0
 11
-44.9935350031
 21
22.6394184365
 31
0.0
 11
-44.9771280947
 21
22.6561975959
 31
0.0
 11
-44.9576029978
 21
22.6718554081
 31
0.0
 11
-44.9352008072
 21
22.6861985312
 31
0.0
 11
-44.9101981438
 21
22.6990498572
 31
0.0
 11
-44.8829037391
 21
22.7102506986
 31
0.0
 11
-44.8536546228
 21
22.7196627481
 31
0.0
 11
-44.8228119614
 21
22.7271697863
 31
0.0
 11
-44.7907565981
 21
22.7326791167
 31
0.0
 11
-44.7578843509
 21
22.7361227103
 31
0.0
 11
-44.7246011243
 21
22.737458046
 31
0.0
  0
SPLINE
  5
312
100
AcDbEntity
  8
RACCORDO
100
AcDbSpline
 62
253
  6
CONTINUOUS
 70
0
 71
3
 72
23
 73
19
 74
17
 42
0.0000001
 43
0.0000001
 44
0.0000000001
 12
-0.6387980464
 22
-0.0153835155
 32
0.0
 13
-0.0002476025
 23
-0.6389832043
 33
0.0
 40
0.0
 40
0.0
 40
0.0
 40
0.0
 40
0.0321503515
 40
0.0653855819
 40
0.1003355947
 40
0.1375504323
 40
0.1775443822
 40
0.2210321778
 40
0.2690238658
 40
0.3225792192
 40
0.3825819591
 40
0.4497208158
 40
0.524503248
 40
0.6071512187
 40
0.6973350686
 40
0.7940296527
 40
0.8955601875
 40
1.0
 40
1.0
 40
1.0
 40
1.0
 10
-44.7244623811
 20
22.726281292
 30
0.0
 10
-44.7313082417
 20
22.7261164302
 30
0.0
 10
-44.745224362
 20
22.7249733573
 30
0.0
 10
-44.7662239278
 20
22.720770017
 30
0.0
 10
-44.7876314535
 20
22.7138459568
 30
0.0
 10
-44.8094249383
 20
22.7039393921
 30
0.0
 10
-44.8315501339
 20
22.6907490697
 30
0.0
 10
-44.8539721347
 20
22.6738875235
 30
0.0
 10
-44.8766542305
 20
22.6528380704
 30
0.0
 10
-44.8994592764
 20
22.6269982237
 30
0.0
 10
-44.9220764717
 20
22.5957871955
 30
0.0
 10
-44.9440237
 20
22.5587314252
 30
0.0
 10
-44.9646777556
 20
22.5155213095
 30
0.0
 10
-44.9832914876
 20
22.4661078775
 30
0.0
 10
-44.9990255326
 20
22.410831967
 30
0.0
 10
-45.0110394616
 20
22.3505211004
 30
0.0
 10
-45.0186061429
 20
22.2864368991
 30
0.0
 10
-45.0203301891
 20
22.2425470159
 30
0.0
 10
-45.0203388089
 20
22.2203019205
 30
0.0
 11
-44.7244623811
 21
22.726281292
 31
0.0
 11
-44.7449375295
 21
22.7246064264
 31
0.0
 11
-44.7657648243
 21
22.7204562962
 31
0.0
 11
-44.7870225291
 21
22.7136116392
 31
0.0
 11
-44.8086876771
 21
22.7038089102
 31
0.0
 11
-44.8306650217
 21
22.6907675118
 31
0.0
 11
-44.8529114269
 21
22.6741161184
 31
0.0
 11
-44.8754387715
 21
22.6533095031
 31
0.0
 11
-44.8981450754
 21
22.627706792
 31
0.0
 11
-44.9207167128
 21
22.5967143093
 31
0.0
 11
-44.9426619072
 21
22.5598514506
 31
0.0
 11
-44.9633575746
 21
22.5167809388
 31
0.0
 11
-44.9820611975
 21
22.4673932758
 31
0.0
 11
-44.9979177546
 21
22.4119918139
 31
0.0
 11
-45.0100524037
 21
22.3514089181
 31
0.0
 11
-45.017701117
 21
22.2869850642
 31
0.0
 11
-45.0203388089
 21
22.2203019205
 31
0.0
  0
SPLINE
  5
313
100
AcDbEntity
  8
RACCORDO
100
AcDbSpline
 62
253
  6
CONTINUOUS
 70
0
 71
3
 72
16
 73
12
 74
10
 42
0.0000001
 43
0.0000001
 44
0.0000000001
 12
0.158698605
 22
0.2369840477
 32
0.0
 13
0.256918224
 23
0.123853592
 33
0.0
 40
0.0
 40
0.0
 40
0.0
 40
0.0
 40
0.1009719537
 40
0.20664823
 40
0.316200548
 40
0.4287080137
 40
0.5431832611
 40
0.6585963985
 40
0.7738977134
 40
0.8880398418
 40
1.0
 40
1.0
 40
1.0
 40
1.0
 10
-45.1639641539
 20
23.2821558586
 30
0.0
 10
-45.1586227845
 20
23.290132106
 30
0.0
 10
-45.1470635035
 20
23.3060423483
 30
0.0
 10
-45.127784933
 20
23.3291334717
 30
0.0
 10
-45.1063568085
 20
23.351779992
 30
0.0
 10
-45.0830359435
 20
23.373709511
 30
0.0
 10
-45.058100528
 20
23.3946601762
 30
0.0
 10
-45.0318490986
 20
23.4143808675
 30
0.0
 10
-45.0045955816
 20
23.4326356085
 30
0.0
 10
-44.9766677648
 20
23.4492051759
 30
0.0
 10
-44.9575801243
 20
23.4591219543
 30
0.0
 10
-44.9479919226
 20
23.4637441769
 30
0.0
 11
-45.1639641539
 21
23.2821558586
 31
0.0
 11
-45.147078365
 21
23.3054845295
 31
0.0
 11
-45.1277922869
 21
23.3286466604
 31
0.0
 11
-45.1063384425
 21
23.3513629965
 31
0.0
 11
-45.0829754904
 21
23.3733596579
 31
0.0
 11
-45.0579851065
 21
23.3943714415
 31
0.0
 11
-45.0316685877
 21
23.4141450184
 31
0.0
 11
-45.0043432198
 21
23.432441988
 31
0.0
 11
-44.9763384514
 21
23.4490417526
 31
0.0
 11
-44.9479919226
 21
23.4637441769
 31
0.0
  0
SPLINE
  5
314
100
AcDbEntity
  8
RACCORDO
100
AcDbSpline
 62
253
  6
CONTINUOUS
 70
0
 71
3
 72
15
 73
11
 74
9
 42
0.0000001
 43
0.0000001
 44
0.0000000001
 12
0.6115174523
 22
0.5739219283
 32
0.0
 13
0.5662398227
 23
0.6186375655
 33
0.0
 40
0.0
 40
0.0
 40
0.0
 40
0.0
 40
0.1466625944
 40
0.2908824109
 40
0.430764729
 40
0.5635641522
 40
0.6879263378
 40
0.8022731415
 40
0.9065192069
 40
1.0
 40
1.0
 40
1.0
 40
1.0
 10
-45.5472343187
 20
-24.0502187638
 30
0.0
 10
-45.51733874
 20
-24.0221611375
 30
0.0
 10
-45.4580570243
 20
-23.9665009273
 30
0.0
 10
-45.3704424334
 20
-23.883887978
 30
0.0
 10
-45.2859884607
 20
-23.8035731802
 30
0.0
 10
-45.2060458861
 20
-23.7265724778
 30
0.0
 10
-45.131873564
 20
-23.6538758248
 30
0.0
 10
-45.0641596604
 20
-23.586000483
 30
0.0
 10
-45.0034218054
 20
-23.523371495
 30
0.0
 10
-44.9656369842
 20
-23.4830220039
 30
0.0
 10
-44.9479928016
 20
-23.4637450938
 30
0.0
 11
-45.5472343187
 21
-24.0502187638
 31
0.0
 11
-45.4575892429
 21
-23.9660015176
 31
0.0
 11
-45.3696200882
 21
-23.8829928074
 31
0.0
 11
-45.2846419695
 21
-23.802116254
 31
0.0
 11
-45.2044631718
 21
-23.7248165523
 31
0.0
 11
-45.1300171153
 21
-23.6517713074
 31
0.0
 11
-45.0623337756
 21
-23.583835526
 31
0.0
 11
-45.0015206421
 21
-23.5210252673
 31
0.0
 11
-44.9479928016
 21
-23.4637450938
 31
0.0
  0
SPLINE
  5
315
100
AcDbEntity
  8
RACCORDO
100
AcDbSpline
 62
253
  6
CONTINUOUS
 70
0
 71
3
 72
15
 73
11
 74
9
 42
0.0000001
 43
0.0000001
 44
0.0000000001
 12
0.5662397143
 22
-0.6186376741
 32
0.0
 13
0.6115178121
 23
-0.5739215551
 33
0.0
 40
0.0
 40
0.0
 40
0.0
 40
0.0
 40
0.093480847
 40
0.197726857
 40
0.3120736294
 40
0.4364357744
 40
0.5692351963
 40
0.7091188153
 40
0.8533402554
 40
1.0
 40
1.0
 40
1.0
 40
1.0
 10
44.9479927951
 20
-23.4637450874
 30
0.0
 10
44.9656369845
 20
-23.483022012
 30
0.0
 10
45.003421812
 20
-23.5233714974
 30
0.0
 10
45.0641596564
 20
-23.5860004838
 30
0.0
 10
45.1318735371
 20
-23.6538757992
 30
0.0
 10
45.206045843
 20
-23.7265724409
 30
0.0
 10
45.2859886716
 20
-23.8035733882
 30
0.0
 10
45.3704432371
 20
-23.8838887498
 30
0.0
 10
45.4580578477
 20
-23.9665017102
 30
0.0
 10
45.5173393032
 20
-24.0221616977
 30
0.0
 10
45.5472343186
 20
-24.0502187606
 30
0.0
 11
44.9479927951
 21
-23.4637450874
 31
0.0
 11
45.0015206673
 21
-23.521025294
 31
0.0
 11
45.0623337679
 21
-23.5838355209
 31
0.0
 11
45.1300170895
 21
-23.6517712843
 31
0.0
 11
45.2044631211
 21
-23.7248165073
 31
0.0
 11
45.2846419179
 21
-23.8021162098
 31
0.0
 11
45.3696208276
 21
-23.8829935159
 31
0.0
 11
45.4575909736
 21
-23.966003161
 31
0.0
 11
45.5472343186
 21
-24.0502187606
 31
0.0
  0
SPLINE
  5
316
100
AcDbEntity
  8
RACCORDO
100
AcDbSpline
 62
253
  6
CONTINUOUS
 70
0
 71
3
 72
15
 73
11
 74
9
 42
0.0000001
 43
0.0000001
 44
0.0000000001
 12
0.5662400439
 22
0.6186373857
 32
0.0
 13
0.6115172807
 23
0.5739221356
 33
0.0
 40
0.0
 40
0.0
 40
0.0
 40
0.0
 40
0.0934465614
 40
0.1977292201
 40
0.3120634036
 40
0.4364242193
 40
0.5692047757
 40
0.7090189688
 40
0.8536297496
 40
1.0
 40
1.0
 40
1.0
 40
1.0
 10
44.9479927902
 20
23.4637450819
 30
0.0
 10
44.9656305186
 20
23.4830149274
 30
0.0
 10
45.003415628
 20
23.5233650503
 30
0.0
 10
45.0641513585
 20
23.585992112
 30
0.0
 10
45.1318696902
 20
23.6538719624
 30
0.0
 10
45.2060353864
 20
23.7265622569
 30
0.0
 10
45.285960072
 20
23.8035459273
 30
0.0
 10
45.3704754078
 20
23.8839195124
 30
0.0
 10
45.4580965009
 20
23.9665379979
 30
0.0
 10
45.5173983395
 20
24.022217055
 30
0.0
 10
45.5472343187
 20
24.0502187638
 30
0.0
 11
44.9479927902
 21
23.4637450819
 31
0.0
 11
45.0015008414
 21
23.5210044577
 31
0.0
 11
45.0623351543
 21
23.5838369295
 31
0.0
 11
45.1300109974
 21
23.651765242
 31
0.0
 11
45.2044561685
 21
23.7248097519
 31
0.0
 11
45.284623486
 21
23.8020985676
 31
0.0
 11
45.3695600293
 21
23.8829359353
 31
0.0
 11
45.4577678023
 21
23.9661695245
 31
0.0
 11
45.5472343187
 21
24.0502187638
 31
0.0
  0
SPLINE
  5
317
100
AcDbEntity
  8
RACCORDO
100
AcDbSpline
 62
253
  6
CONTINUOUS
 70
0
 71
3
 72
15
 73
11
 74
9
 42
0.0000001
 43
0.0000001
 44
0.0000000001
 12
0.6115173879
 22
-0.5739220288
 32
0.0
 13
0.5662401606
 23
-0.6186372858
 33
0.0
 40
0.0
 40
0.0
 40
0.0
 40
0.0
 40
0.1463702919
 40
0.2909810834
 40
0.4307952792
 40
0.5635758395
 40
0.6879366586
 40
0.8022708365
 40
0.9065535157
 40
1.0
 40
1.0
 40
1.0
 40
1.0
 10
-45.5472343186
 20
24.0502187606
 30
0.0
 10
-45.5173983257
 20
24.0222170489
 30
0.0
 10
-45.4580964696
 20
23.9665379885
 30
0.0
 10
-45.3704753724
 20
23.8839194839
 30
0.0
 10
-45.2859600317
 20
23.8035458958
 30
0.0
 10
-45.2060353461
 20
23.7265622205
 30
0.0
 10
-45.1318696485
 20
23.6538719258
 30
0.0
 10
-45.0641513163
 20
23.5859920679
 30
0.0
 10
-45.0034155938
 20
23.5233650217
 30
0.0
 10
-44.9656305025
 20
23.4830149033
 30
0.0
 10
-44.947992785
 20
23.4637450768
 30
0.0
 11
-45.5472343186
 21
24.0502187606
 31
0.0
 11
-45.4577677676
 21
23.9661695061
 31
0.0
 11
-45.3695599909
 21
23.8829359066
 31
0.0
 11
-45.2846234465
 21
23.8020985357
 31
0.0
 11
-45.2044561276
 21
23.7248097159
 31
0.0
 11
-45.1300109547
 21
23.651765203
 31
0.0
 11
-45.062335116
 21
23.5838368918
 31
0.0
 11
-45.0015007909
 21
23.5210044071
 31
0.0
 11
-44.947992785
 21
23.4637450768
 31
0.0
  0
SPLINE
  5
318
100
AcDbEntity
  8
RACCORDO
100
AcDbSpline
 62
253
  6
CONTINUOUS
 70
0
 71
3
 72
17
 73
13
 74
11
 42
0.0000001
 43
0.0000001
 44
0.0000000001
 12
-0.0404896326
 22
48.1004846002
 32
0.0
 13
0.0404896727
 23
48.1004846002
 33
0.0
 40
0.0
 40
0.0
 40
0.0
 40
0.0
 40
0.0999449351
 40
0.1999263138
 40
0.2999354619
 40
0.3999632016
 40
0.500000225
 40
0.6000372502
 40
0.7000650216
 40
0.8000742494
 40
0.9000556629
 40
1.0
 40
1.0
 40
1.0
 40
1.0
 10
-45.5472644431
 20
-24.0502772855
 30
0.0
 10
-45.5486133544
 20
-22.4478106815
 30
0.0
 10
-45.5509972003
 20
-19.2422928881
 30
0.0
 10
-45.5538473885
 20
-14.4332783222
 30
0.0
 10
-45.5558659749
 20
-9.622935681
 30
0.0
 10
-45.5570813368
 20
-4.8117005927
 30
0.0
 10
-45.557485705
 20
-0.0000183984
 30
0.0
 10
-45.5570810926
 20
4.8116643029
 30
0.0
 10
-45.5558669879
 20
9.6229012061
 30
0.0
 10
-45.5538436514
 20
14.4332461864
 30
0.0
 10
-45.5510112326
 20
19.2422530135
 30
0.0
 10
-45.548583223
 20
22.4477617441
 30
0.0
 10
-45.5472343185
 20
24.0502187605
 30
0.0
 11
-45.5472644431
 21
-24.0502772855
 31
0.0
 11
-45.5508758069
 21
-19.2428771268
 31
0.0
 11
-45.5537084467
 21
-14.4337234912
 31
0.0
 11
-45.5557319498
 21
-9.6232337264
 31
0.0
 11
-45.5569461294
 21
-4.8118494193
 31
0.0
 11
-45.5573508707
 21
-0.0000184276
 31
0.0
 11
-45.5569461356
 21
4.8118126515
 31
0.0
 11
-45.5557319617
 21
9.6231984807
 31
0.0
 11
-45.5537084625
 21
14.4336920776
 31
0.0
 11
-45.5508758269
 21
19.2428473871
 31
0.0
 11
-45.5472343185
 21
24.0502187605
 31
0.0
  0
SPLINE
  5
319
100
AcDbEntity
  8
RACCORDO
100
AcDbSpline
 62
253
  6
CONTINUOUS
 70
0
 71
3
 72
15
 73
11
 74
9
 42
0.0000001
 43
0.0000001
 44
0.0000000001
 12
0.392405316
 22
0.7635947738
 32
0.0
 13
0.3555086969
 23
0.7814553583
 33
0.0
 40
0.0
 40
0.0
 40
0.0
 40
0.0
 40
0.1454458973
 40
0.2884259728
 40
0.4273161323
 40
0.5595476528
 40
0.6838992326
 40
0.798883743
 40
0.9044697485
 40
1.0
 40
1.0
 40
1.0
 40
1.0
 10
-45.5472644431
 20
-24.0502772855
 30
0.0
 10
-45.5282398621
 20
-24.0132567098
 30
0.0
 10
-45.4904639683
 20
-23.9398685226
 30
0.0
 10
-45.4345683143
 20
-23.8311040376
 30
0.0
 10
-45.3806275289
 20
-23.7255868248
 30
0.0
 10
-45.3295015331
 20
-23.6246185245
 30
0.0
 10
-45.2819948877
 20
-23.5294872464
 30
0.0
 10
-45.2385533119
 20
-23.4408516456
 30
0.0
 10
-45.1995123616
 20
-23.3592486773
 30
0.0
 10
-45.1752847686
 20
-23.3070400725
 30
0.0
 10
-45.1639641568
 20
-23.2821558635
 30
0.0
 11
-45.5472644431
 21
-24.0502772855
 31
0.0
 11
-45.490153207
 21
-23.9392348337
 31
0.0
 11
-45.4340729703
 21
-23.8300426869
 31
0.0
 11
-45.3798300268
 21
-23.723854549
 31
0.0
 11
-45.328579827
 21
-23.6225578509
 31
0.0
 11
-45.2809205772
 21
-23.5270279062
 31
0.0
 11
-45.2375157534
 21
-23.4383656274
 31
0.0
 11
-45.1984390398
 21
-23.3565729543
 31
0.0
 11
-45.1639641568
 21
-23.2821558635
 31
0.0
  0
SPLINE
  5
31A
100
AcDbEntity
  8
RACCORDO
100
AcDbSpline
 62
253
  6
CONTINUOUS
 70
0
 71
3
 72
15
 73
11
 74
9
 42
0.0000001
 43
0.0000001
 44
0.0000000001
 12
0.3043934721
 22
0.6692027365
 32
0.0
 13
0.0054740399
 23
0.7351582981
 33
0.0
 40
0.0
 40
0.0
 40
0.0
 40
0.0
 40
0.0963389826
 40
0.2023194795
 40
0.3175219197
 40
0.4412141003
 40
0.5723691082
 40
0.7099214457
 40
0.8528496325
 40
1.0
 40
1.0
 40
1.0
 40
1.0
 10
-45.1639641568
 20
-23.2821558635
 30
0.0
 10
-45.154189171
 20
-23.2606657599
 30
0.0
 10
-45.1350937943
 20
-23.2148726429
 30
0.0
 10
-45.1093479923
 20
-23.1414019054
 30
0.0
 10
-45.0858432348
 20
-23.0601773724
 30
0.0
 10
-45.0652808548
 20
-22.9718132878
 30
0.0
 10
-45.0482863167
 20
-22.8771246219
 30
0.0
 10
-45.0353949894
 20
-22.7770353939
 30
0.0
 10
-45.027059883
 20
-22.6725335615
 30
0.0
 10
-45.0248239701
 20
-22.6014493928
 30
0.0
 10
-45.0245554677
 20
-22.5653897882
 30
0.0
 11
-45.1639641568
 21
-23.2821558635
 31
0.0
 11
-45.1366138493
 21
-23.2168233695
 31
0.0
 11
-45.1107522933
 21
-23.1433259881
 31
0.0
 11
-45.0871211563
 21
-23.0619951393
 31
0.0
 11
-45.066431404
 21
-22.9734442294
 31
0.0
 11
-45.0493310593
 21
-22.8785503374
 31
0.0
 11
-45.036361103
 21
-22.7782599778
 31
0.0
 11
-45.0279720122
 21
-22.6735176376
 31
0.0
 11
-45.0245554677
 21
-22.5653897882
 31
0.0
  0
SPLINE
  5
31B
100
AcDbEntity
  8
RACCORDO
100
AcDbSpline
 62
253
  6
CONTINUOUS
 70
0
 71
3
 72
15
 73
11
 74
9
 42
0.0000001
 43
0.0000001
 44
0.0000000001
 12
0.3043904399
 22
-0.6692017431
 32
0.0
 13
0.0054735763
 23
-0.7351561418
 33
0.0
 40
0.0
 40
0.0
 40
0.0
 40
0.0
 40
0.0963690122
 40
0.2023187357
 40
0.3174559557
 40
0.4410694576
 40
0.5721432265
 40
0.7096563846
 40
0.8526435275
 40
1.0
 40
1.0
 40
1.0
 40
1.0
 10
-45.1639641539
 20
23.2821558586
 30
0.0
 10
-45.1541862185
 20
23.2606590883
 30
0.0
 10
-45.1350914523
 20
23.2148660509
 30
0.0
 10
-45.1093515736
 20
23.1414106518
 30
0.0
 10
-45.0858574025
 20
23.0602279433
 30
0.0
 10
-45.0653035507
 20
22.9719188656
 30
0.0
 10
-45.0483108441
 20
22.8772797916
 30
0.0
 10
-45.0354126447
 20
22.7772069521
 30
0.0
 10
-45.0270648018
 20
22.6726508649
 30
0.0
 10
-45.0248243393
 20
22.6015019295
 30
0.0
 10
-45.0245554837
 20
22.5653919243
 30
0.0
 11
-45.1639641539
 21
23.2821558586
 31
0.0
 11
-45.136606086
 21
23.2168029053
 31
0.0
 11
-45.1107526825
 21
23.1433268816
 31
0.0
 11
-45.0871336832
 21
23.0620426965
 31
0.0
 11
-45.0664531707
 21
22.9735493027
 31
0.0
 11
-45.0493566532
 21
22.8787156961
 31
0.0
 11
-45.0363815659
 21
22.7784553437
 31
0.0
 11
-45.0279805745
 21
22.6736707847
 31
0.0
 11
-45.0245554837
 21
22.5653919243
 31
0.0
  0
SPLINE
  5
31C
100
AcDbEntity
  8
RACCORDO
100
AcDbSpline
 62
253
  6
CONTINUOUS
 70
0
 71
3
 72
15
 73
11
 74
9
 42
0.0000001
 43
0.0000001
 44
0.0000000001
 12
0.392376486
 22
-0.7635355902
 32
0.0
 13
0.3554813664
 23
-0.781395484
 33
0.0
 40
0.0
 40
0.0
 40
0.0
 40
0.0
 40
0.1450906446
 40
0.2884692776
 40
0.4273025618
 40
0.5595254994
 40
0.6838852932
 40
0.7988659452
 40
0.9044972655
 40
1.0
 40
1.0
 40
1.0
 40
1.0
 10
-45.5472343185
 20
24.0502187605
 30
0.0
 10
-45.5282575994
 20
24.0132914702
 30
0.0
 10
-45.4904791183
 20
23.9398977949
 30
0.0
 10
-45.4345892794
 20
23.8311452275
 30
0.0
 10
-45.3806094238
 20
23.7255511413
 30
0.0
 10
-45.3294948281
 20
23.6246051547
 30
0.0
 10
-45.2819924149
 20
23.5294822268
 30
0.0
 10
-45.2385479508
 20
23.4408406409
 30
0.0
 10
-45.1995083648
 20
23.3592402837
 30
0.0
 10
-45.1752806347
 20
23.3070309937
 30
0.0
 10
-45.1639641539
 20
23.2821558586
 30
0.0
 11
-45.5472343185
 21
24.0502187605
 31
0.0
 11
-45.4902669521
 21
23.939456019
 31
0.0
 11
-45.4340346483
 21
23.8299679209
 31
0.0
 11
-45.379818219
 21
23.7238313303
 31
0.0
 11
-45.3285753482
 21
23.622548935
 31
0.0
 11
-45.2809166569
 21
23.5270199781
 31
0.0
 11
-45.2375166395
 21
23.4383674603
 31
0.0
 11
-45.1984262884
 21
23.356545892
 31
0.0
 11
-45.1639641539
 21
23.2821558586
 31
0.0
  0
SPLINE
  5
31D
100
AcDbEntity
  8
RACCORDO
100
AcDbSpline
 62
253
  6
CONTINUOUS
 70
0
 71
3
 72
15
 73
11
 74
9
 42
0.0000001
 43
0.0000001
 44
0.0000000001
 12
0.0054735167
 22
0.7351557817
 32
0.0
 13
0.3044194535
 23
0.6691881492
 33
0.0
 40
0.0
 40
0.0
 40
0.0
 40
0.0
 40
0.1473492029
 40
0.2903423909
 40
0.427859744
 40
0.5589301644
 40
0.6825383452
 40
0.7976867987
 40
0.9036578789
 40
1.0
 40
1.0
 40
1.0
 40
1.0
 10
45.0245554861
 20
22.5653922485
 30
0.0
 10
45.0248243256
 20
22.6015004547
 30
0.0
 10
45.0270647109
 20
22.6726490533
 30
0.0
 10
45.0354124669
 20
22.7772058309
 30
0.0
 10
45.0483109295
 20
22.8772802912
 30
0.0
 10
45.0653035054
 20
22.9719182303
 30
0.0
 10
45.0858575273
 20
23.0602278491
 30
0.0
 10
45.1093534131
 20
23.1414170241
 30
0.0
 10
45.1350952552
 20
23.2148731213
 30
0.0
 10
45.1541880182
 20
23.2606655283
 30
0.0
 10
45.1639641569
 20
23.2821558635
 30
0.0
 11
45.0245554861
 21
22.5653922485
 31
0.0
 11
45.0279802886
 21
22.6736657178
 31
0.0
 11
45.0363814967
 21
22.7784546662
 31
0.0
 11
45.0493570279
 21
22.8787180209
 31
0.0
 11
45.0664531921
 21
22.9735491418
 31
0.0
 11
45.0871327678
 21
23.0620386914
 31
0.0
 11
45.1107541738
 21
23.1433307341
 31
0.0
 11
45.1366134954
 21
23.2168212795
 31
0.0
 11
45.1639641569
 21
23.2821558635
 31
0.0
  0
SPLINE
  5
31E
100
AcDbEntity
  8
RACCORDO
100
AcDbSpline
 62
253
  6
CONTINUOUS
 70
0
 71
3
 72
15
 73
11
 74
9
 42
0.0000001
 43
0.0000001
 44
0.0000000001
 12
0.0054740346
 22
-0.7351582583
 32
0.0
 13
0.3043922826
 23
-0.6692032338
 33
0.0
 40
0.0
 40
0.0
 40
0.0
 40
0.0
 40
0.1471499017
 40
0.2900784387
 40
0.4276309141
 40
0.5587855926
 40
0.6824775683
 40
0.797680895
 40
0.9036630127
 40
1.0
 40
1.0
 40
1.0
 40
1.0
 10
45.024555468
 20
-22.5653898211
 30
0.0
 10
45.0248239692
 20
-22.6014493096
 30
0.0
 10
45.0270598774
 20
-22.672533446
 30
0.0
 10
45.0353949739
 20
-22.7770352791
 30
0.0
 10
45.0482863042
 20
-22.8771245406
 30
0.0
 10
45.0652808208
 20
-22.971813106
 30
0.0
 10
45.0858432056
 20
-23.0601772733
 30
0.0
 10
45.1093481238
 20
-23.1414023425
 30
0.0
 10
45.1350940062
 20
-23.2148731841
 30
0.0
 10
45.1541894087
 20
-23.2606661841
 30
0.0
 10
45.1639641538
 20
-23.2821558586
 30
0.0
 11
45.024555468
 21
-22.5653898211
 31
0.0
 11
45.0279719942
 21
-22.6735173225
 31
0.0
 11
45.0363610956
 21
-22.7782599145
 31
0.0
 11
45.0493310633
 21
-22.8785503692
 31
0.0
 11
45.0664313602
 21
-22.9734440185
 31
0.0
 11
45.0871210645
 21
-23.0619947799
 31
0.0
 11
45.1107523847
 21
-23.1433262494
 31
0.0
 11
45.1366143895
 21
-23.2168247316
 31
0.0
 11
45.1639641538
 21
-23.2821558586
 31
0.0
  0
SPLINE
  5
31F
100
AcDbEntity
  8
RACCORDO
100
AcDbSpline
 62
253
  6
CONTINUOUS
 70
0
 71
3
 72
15
 73
11
 74
9
 42
0.0000001
 43
0.0000001
 44
0.0000000001
 12
0.3554816153
 22
-0.7813953706
 32
0.0
 13
0.3923756447
 23
-0.7635360224
 33
0.0
 40
0.0
 40
0.0
 40
0.0
 40
0.0
 40
0.0955376221
 40
0.2011316701
 40
0.3161249659
 40
0.4404860415
 40
0.5727277015
 40
0.7116298034
 40
0.8546224552
 40
1.0
 40
1.0
 40
1.0
 40
1.0
 10
45.1639641538
 20
-23.2821558586
 30
0.0
 10
45.1752847766
 20
-23.3070400771
 30
0.0
 10
45.1995123589
 20
-23.3592486848
 30
0.0
 10
45.2385533109
 20
-23.4408516407
 30
0.0
 10
45.2819948672
 20
-23.5294872124
 30
0.0
 10
45.3295015052
 20
-23.6246184729
 30
0.0
 10
45.3806276616
 20
-23.725587095
 30
0.0
 10
45.434568825
 20
-23.8311050495
 30
0.0
 10
45.4904544704
 20
-23.9398500351
 30
0.0
 10
45.5282201159
 20
-24.0132184298
 30
0.0
 10
45.5472343185
 20
-24.0502187605
 30
0.0
 11
45.1639641538
 21
-23.2821558586
 31
0.0
 11
45.1984390528
 21
-23.3565729858
 31
0.0
 11
45.2375157477
 21
-23.4383656177
 31
0.0
 11
45.2809205586
 21
-23.5270278739
 31
0.0
 11
45.3285797934
 21
-23.6225577893
 31
0.0
 11
45.3798299924
 21
-23.7238544893
 31
0.0
 11
45.4340734413
 21
-23.830043616
 31
0.0
 11
45.490154309
 21
-23.9392369966
 31
0.0
 11
45.5472343185
 21
-24.0502187605
 31
0.0
  0
SPLINE
  5
320
100
AcDbEntity
  8
RACCORDO
100
AcDbSpline
 62
253
  6
CONTINUOUS
 70
0
 71
3
 72
16
 73
12
 74
10
 42
0.0000001
 43
0.0000001
 44
0.0000000001
 12
0.0404896245
 22
-48.1004260878
 32
0.0
 13
-0.0404896235
 23
-48.1004260878
 33
0.0
 40
0.0
 40
0.0
 40
0.0
 40
0.0
 40
0.1110518068
 40
0.2221480983
 40
0.3332761612
 40
0.4444232879
 40
0.555576742
 40
0.6667238563
 40
0.7778518332
 40
0.8889480477
 40
1.0
 40
1.0
 40
1.0
 40
1.0
 10
45.5472343185
 20
24.0502187637
 30
0.0
 10
45.5487331338
 20
22.2696723558
 30
0.0
 10
45.5513976444
 20
18.7078660048
 30
0.0
 10
45.5543949059
 20
13.3642898025
 30
0.0
 10
45.5563932715
 20
8.0191848217
 30
0.0
 10
45.5573925114
 20
2.6731630457
 30
0.0
 10
45.5573925112
 20
-2.6731642835
 30
0.0
 10
45.5563932714
 20
-8.0191844811
 30
0.0
 10
45.5543949071
 20
-13.3642866496
 30
0.0
 10
45.5513976467
 20
-18.7078625704
 30
0.0
 10
45.5487331358
 20
-22.26967002
 30
0.0
 10
45.5472343185
 20
-24.0502187605
 30
0.0
 11
45.5472343185
 21
24.0502187637
 31
0.0
 11
45.5512305126
 21
18.7085791423
 31
0.0
 11
45.5542280598
 21
13.3647991302
 31
0.0
 11
45.5562266156
 21
8.0194904331
 31
0.0
 11
45.5572259508
 21
2.6732644816
 31
0.0
 11
45.5572259506
 21
-2.6732659176
 31
0.0
 11
45.5562266154
 21
-8.0194912744
 31
0.0
 11
45.5542280612
 21
-13.3647958313
 31
0.0
 11
45.5512305171
 21
-18.7085721412
 31
0.0
 11
45.5472343185
 21
-24.0502187605
 31
0.0
  0
SPLINE
  5
321
100
AcDbEntity
  8
RACCORDO
100
AcDbSpline
 62
253
  6
CONTINUOUS
 70
0
 71
3
 72
15
 73
11
 74
9
 42
0.0000001
 43
0.0000001
 44
0.0000000001
 12
0.3554815573
 22
0.7813953939
 32
0.0
 13
0.3923758755
 23
0.7635359006
 33
0.0
 40
0.0
 40
0.0
 40
0.0
 40
0.0
 40
0.0955028067
 40
0.2011341075
 40
0.316114764
 40
0.4404745542
 40
0.5726974875
 40
0.7115307681
 40
0.8549093876
 40
1.0
 40
1.0
 40
1.0
 40
1.0
 10
45.1639641569
 20
23.2821558635
 30
0.0
 10
45.1752806524
 20
23.3070310146
 30
0.0
 10
45.1995083788
 20
23.3592403227
 30
0.0
 10
45.2385479796
 20
23.4408406906
 30
0.0
 10
45.2819924381
 20
23.5294822729
 30
0.0
 10
45.329494854
 20
23.624605198
 30
0.0
 10
45.3806094469
 20
23.7255511819
 30
0.0
 10
45.4345893039
 20
23.83114526
 30
0.0
 10
45.4904791318
 20
23.9398978166
 30
0.0
 10
45.5282576332
 20
24.0132914666
 30
0.0
 10
45.5472343185
 20
24.0502187637
 30
0.0
 11
45.1639641569
 21
23.2821558635
 31
0.0
 11
45.1984263175
 21
23.3565459529
 31
0.0
 11
45.2375166633
 21
23.4383675048
 31
0.0
 11
45.2809166822
 21
23.5270200258
 31
0.0
 11
45.3285753735
 21
23.6225489789
 31
0.0
 11
45.3798182428
 21
23.7238313702
 31
0.0
 11
45.4340346727
 21
23.8299679567
 31
0.0
 11
45.4902669753
 21
23.9394560418
 31
0.0
 11
45.5472343185
 21
24.0502187637
 31
0.0
  0
SPLINE
  5
322
100
AcDbEntity
  8
RACCORDO
100
AcDbSpline
 62
253
  6
CONTINUOUS
 70
0
 71
3
 72
15
 73
11
 74
9
 42
0.0000001
 43
0.0000001
 44
0.0000000001
 12
0.0355943327
 22
-45.1307683104
 32
0.0
 13
-0.0355943288
 23
-45.1307683104
 33
0.0
 40
0.0
 40
0.0
 40
0.0
 40
0.0
 40
0.12469946
 40
0.2494561373
 40
0.3742448724
 40
0.4990470898
 40
0.623846984
 40
0.7489277417
 40
0.8746113679
 40
1.0
 40
1.0
 40
1.0
 40
1.0
 10
45.0245554882
 20
22.5653896425
 30
0.0
 10
45.0260350195
 20
20.6894621636
 30
0.0
 10
45.0286248549
 20
16.9367461489
 30
0.0
 10
45.0314019881
 20
11.3067588395
 30
0.0
 10
45.0330717861
 20
5.6752252493
 30
0.0
 10
45.0336340424
 20
0.0430413029
 30
0.0
 10
45.0330882863
 20
-5.5935357156
 30
0.0
 10
45.0314287528
 20
-11.243372073
 30
0.0
 10
45.028647764
 20
-16.9020647227
 30
0.0
 10
45.0260431774
 20
-20.679093001
 30
0.0
 10
45.0245554694
 20
-22.5653881026
 30
0.0
 11
45.0245554882
 21
22.5653896425
 31
0.0
 11
45.0284396672
 21
16.9376067959
 31
0.0
 11
45.0312171292
 21
11.3072410289
 31
0.0
 11
45.0328871257
 21
5.6754280361
 31
0.0
 11
45.0334494386
 21
0.0430063538
 31
0.0
 11
45.0329040625
 21
-5.5893104838
 31
0.0
 11
45.0312458398
 21
-11.2343026917
 31
0.0
 11
45.0284580557
 21
-16.9065023836
 31
0.0
 11
45.0245554694
 21
-22.5653881026
 31
0.0
  0
LINE
  5
323
100
AcDbEntity
  8
RACCORDO
100
AcDbLine
 62
253
  6
CONTINUOUS
 10
-69.941100161
 20
-35.7829644185
 11
-70.168205112
 21
-36.0136580925
  0
LINE
  5
324
100
AcDbEntity
  8
RACCORDO
100
AcDbLine
 62
253
  6
CONTINUOUS
 10
-67.5694958805
 20
38.1276933929
 11
-67.7970327896
 21
38.3574515641
  0
SPLINE
  5
325
100
AcDbEntity
  8
RACCORDO
100
AcDbSpline
 62
253
  6
CONTINUOUS
 70
0
 71
3
 72
15
 73
11
 74
9
 42
0.0000001
 43
0.0000001
 44
0.0000000001
 12
-0.0355943287
 22
45.1307680837
 32
0.0
 13
0.0355943319
 23
45.1307680837
 33
0.0
 40
0.0
 40
0.0
 40
0.0
 40
0.0
 40
0.1246997737
 40
0.2494567768
 40
0.3742458412
 40
0.4990484218
 40
0.6238485086
 40
0.7489290244
 40
0.8746128915
 40
1.0
 40
1.0
 40
1.0
 40
1.0
 10
-45.0245554691
 20
-22.5653880806
 30
0.0
 10
-45.026035004
 20
-20.6894558915
 30
0.0
 10
-45.0286248747
 20
-16.9367302755
 30
0.0
 10
-45.0314019985
 20
-11.3067284192
 30
0.0
 10
-45.0330717968
 20
-5.6751795384
 30
0.0
 10
-45.0336340433
 20
-0.0429823054
 30
0.0
 10
-45.0330882733
 20
5.5935994057
 30
0.0
 10
-45.0314287289
 20
11.2434386167
 30
0.0
 10
-45.0286477282
 20
16.9021083029
 30
0.0
 10
-45.0260431758
 20
20.6791172661
 30
0.0
 10
-45.0245554857
 20
22.5653894377
 30
0.0
 11
-45.0245554691
 21
-22.5653880806
 31
0.0
 11
-45.0284396765
 21
-16.9375911032
 31
0.0
 11
-45.0312171412
 21
-11.3072106633
 31
0.0
 11
-45.0328871347
 21
-5.6753828336
 31
0.0
 11
-45.0334494387
 21
-0.0429447892
 31
0.0
 11
-45.0329040488
 21
5.5893807091
 31
0.0
 11
-45.0312458166
 21
11.2343619723
 31
0.0
 11
-45.0284580143
 21
16.9065725087
 31
0.0
 11
-45.0245554857
 21
22.5653894377
 31
0.0
  0
LINE
  5
326
100
AcDbEntity
  8
RACCORDO
100
AcDbLine
 62
253
  6
CONTINUOUS
 10
67.5694966111
 20
38.1276933601
 11
67.7970327896
 21
38.3574515641
  0
SPLINE
  5
327
100
AcDbEntity
  8
RACCORDO
100
AcDbSpline
 62
253
  6
CONTINUOUS
 70
0
 71
3
 72
15
 73
11
 74
9
 42
0.0000001
 43
0.0000001
 44
0.0000000001
 12
0.0094189481
 22
0.7712607118
 32
0.0
 13
0.4500567703
 23
0.6264029899
 33
0.0
 40
0.0
 40
0.0
 40
0.0
 40
0.0
 40
0.142329043
 40
0.2810626887
 40
0.4154984294
 40
0.5450474429
 40
0.6689966252
 40
0.786546326
 40
0.8970508954
 40
1.0
 40
1.0
 40
1.0
 40
1.0
 10
44.7246011243
 20
22.7374580431
 30
0.0
 10
44.7250479875
 20
22.7740489761
 30
0.0
 10
44.7286806749
 20
22.8463039563
 30
0.0
 10
44.7421285313
 20
22.9523788643
 30
0.0
 10
44.7628791894
 20
23.0539213611
 30
0.0
 10
44.7901973711
 20
23.1499466507
 30
0.0
 10
44.8232249939
 20
23.2395442228
 30
0.0
 10
44.8609624901
 20
23.3219023531
 30
0.0
 10
44.9022857435
 20
23.3963906969
 30
0.0
 10
44.932548219
 20
23.4422492217
 30
0.0
 10
44.9479925328
 20
23.4637450973
 30
0.0
 11
44.7246011243
 21
22.7374580431
 31
0.0
 11
44.7301283359
 21
22.8470997984
 31
0.0
 11
44.7436176761
 21
22.9532539535
 31
0.0
 11
44.7644244549
 21
23.0548377199
 31
0.0
 11
44.791822605
 21
23.1509316855
 31
0.0
 11
44.8249521949
 21
23.2406122598
 31
0.0
 11
44.8627862757
 21
23.3230095268
 31
0.0
 11
44.9041976882
 21
23.3975075922
 31
0.0
 11
44.9479925328
 21
23.4637450973
 31
0.0
  0
SPLINE
  5
328
100
AcDbEntity
  8
RACCORDO
100
AcDbSpline
 62
253
  6
CONTINUOUS
 70
0
 71
3
 72
22
 73
18
 74
16
 42
0.0000001
 43
0.0000001
 44
0.0000000001
 12
-89.7755923872
 22
5.6876888714
 32
0.0
 13
-89.7755923975
 23
-5.6876887094
 33
0.0
 40
0.0
 40
0.0
 40
0.0
 40
0.0
 40
0.0660629094
 40
0.1321998698
 40
0.1983888151
 40
0.2646099641
 40
0.3308572857
 40
0.3971207228
 40
0.4633913777
 40
0.5296599654
 40
0.5959180775
 40
0.6621539286
 40
0.7283630399
 40
0.7944892196
 40
0.8614439368
 40
0.9304736106
 40
1.0
 40
1.0
 40
1.0
 40
1.0
 10
44.9479925328
 20
23.4637450973
 30
0.0
 10
42.9710469235
 20
23.5889935222
 30
0.0
 10
39.0138658231
 20
23.8229982331
 30
0.0
 10
33.0727075726
 20
24.1243001011
 30
0.0
 10
27.1244862889
 20
24.3759617034
 30
0.0
 10
21.1710590114
 20
24.5778836687
 30
0.0
 10
15.2139166048
 20
24.7300091444
 30
0.0
 10
9.2542257564
 20
24.832308306
 30
0.0
 10
3.293250134
 20
24.8847645593
 30
0.0
 10
-2.6677960089
 20
24.8873775305
 30
0.0
 10
-8.6276120976
 20
24.8401622248
 30
0.0
 10
-14.5850419131
 20
24.7431491105
 30
0.0
 10
-20.5374974303
 20
24.5964168407
 30
0.0
 10
-26.5100609774
 20
24.3991958299
 30
0.0
 10
-32.5652586852
 20
24.1481857359
 30
0.0
 10
-38.7198983388
 20
23.839901942
 30
0.0
 10
-42.8674015956
 20
23.5955599132
 30
0.0
 10
-44.9479925283
 20
23.4637450932
 30
0.0
 11
44.9479925328
 21
23.4637450973
 31
0.0
 11
39.0156294228
 21
23.8145697297
 31
0.0
 11
33.0738774101
 21
24.1159166832
 31
0.0
 11
27.1251346792
 21
24.3676134424
 31
0.0
 11
21.1715963682
 21
24.5695495369
 31
0.0
 11
15.214222326
 21
24.7216887664
 31
0.0
 11
9.2543343015
 21
24.8239965855
 31
0.0
 11
3.2931497826
 21
24.8764573852
 31
0.0
 11
-2.668079041
 21
24.8790705696
 31
0.0
 11
-8.6281790518
 21
24.8318505745
 31
0.0
 11
-14.5856736663
 21
24.7348314176
 31
0.0
 11
-20.5397439075
 21
24.5880517879
 31
0.0
 11
-26.4849221537
 21
24.3917250201
 31
0.0
 11
-32.5027039022
 21
24.1422526912
 31
0.0
 11
-38.7045323238
 21
23.8315883459
 31
0.0
 11
-44.9479925283
 21
23.4637450932
 31
0.0
  0
SPLINE
  5
329
100
AcDbEntity
  8
RACCORDO
100
AcDbSpline
 62
253
  6
CONTINUOUS
 70
0
 71
3
 72
15
 73
11
 74
9
 42
0.0000001
 43
0.0000001
 44
0.0000000001
 12
0.4500356396
 22
-0.6264181967
 32
0.0
 13
0.0094192919
 23
-0.7712607282
 33
0.0
 40
0.0
 40
0.0
 40
0.0
 40
0.0
 40
0.1029789179
 40
0.2134603307
 40
0.3309966994
 40
0.4549498776
 40
0.5845016209
 40
0.7189333438
 40
0.857661805
 40
1.0
 40
1.0
 40
1.0
 40
1.0
 10
-44.9479925283
 20
23.4637450932
 30
0.0
 10
-44.9325444672
 20
23.4422424705
 30
0.0
 10
-44.9022805416
 20
23.396382864
 30
0.0
 10
-44.8609593755
 20
23.3218953074
 30
0.0
 10
-44.8232252013
 20
23.2395448997
 30
0.0
 10
-44.7901979555
 20
23.1499489766
 30
0.0
 10
-44.7628795251
 20
23.0539230301
 30
0.0
 10
-44.7421291324
 20
22.9523821814
 30
0.0
 10
-44.7286809108
 20
22.8463073393
 30
0.0
 10
-44.7250480326
 20
22.7740513326
 30
0.0
 10
-44.7246011243
 20
22.737458046
 30
0.0
 11
-44.9479925283
 21
23.4637450932
 31
0.0
 11
-44.9041857611
 21
23.3974879011
 31
0.0
 11
-44.8627838888
 21
23.323004965
 31
0.0
 11
-44.8249540607
 21
23.2406170582
 31
0.0
 11
-44.7918231481
 21
23.1509336841
 31
0.0
 11
-44.7644243714
 21
23.054837705
 31
0.0
 11
-44.7436181375
 21
22.9532569875
 31
0.0
 11
-44.7301289471
 21
22.8471068416
 31
0.0
 11
-44.7246011243
 21
22.737458046
 31
0.0
  0
SPLINE
  5
32A
100
AcDbEntity
  8
RACCORDO
100
AcDbSpline
 62
253
  6
CONTINUOUS
 70
0
 71
3
 72
15
 73
11
 74
9
 42
0.0000001
 43
0.0000001
 44
0.0000000001
 12
0.4500298806
 22
0.6264224729
 32
0.0
 13
0.0094213855
 23
0.7712608154
 33
0.0
 40
0.0
 40
0.0
 40
0.0
 40
0.0
 40
0.1029489045
 40
0.213463991
 40
0.3310672193
 40
0.455098326
 40
0.5847286897
 40
0.7191970249
 40
0.8578676277
 40
1.0
 40
1.0
 40
1.0
 40
1.0
 10
-44.9479925416
 20
-23.4637451107
 30
0.0
 10
-44.9325491806
 20
-23.4422486083
 30
0.0
 10
-44.9022838725
 20
-23.3963888455
 30
0.0
 10
-44.8609532986
 20
-23.3218856464
 30
0.0
 10
-44.823201914
 20
-23.2394924899
 30
0.0
 10
-44.7901608369
 20
-23.1498402555
 30
0.0
 10
-44.7628393472
 20
-23.0537633687
 30
0.0
 10
-44.7421000771
 20
-22.9522051298
 30
0.0
 10
-44.7286725702
 20
-22.8461866072
 30
0.0
 10
-44.7250474855
 20
-22.7739984196
 30
0.0
 10
-44.7246011243
 20
-22.7374580432
 30
0.0
 11
-44.9479925416
 21
-23.4637451107
 31
0.0
 11
-44.9041977574
 21
-23.3975077343
 31
0.0
 11
-44.8627825169
 21
-23.3230024988
 31
0.0
 11
-44.8249331062
 21
-23.2405668225
 31
0.0
 11
-44.791787379
 21
-23.1508248285
 31
0.0
 11
-44.7643825332
 21
-23.0546675072
 31
0.0
 11
-44.7435846734
 21
-22.953056234
 31
0.0
 11
-44.7301147104
 21
-22.8469486159
 31
0.0
 11
-44.7246011243
 21
-22.7374580432
 31
0.0
  0
SPLINE
  5
32B
100
AcDbEntity
  8
RACCORDO
100
AcDbSpline
 62
253
  6
CONTINUOUS
 70
0
 71
3
 72
22
 73
18
 74
16
 42
0.0000001
 43
0.0000001
 44
0.0000000001
 12
89.7755924018
 22
-5.6876888735
 32
0.0
 13
89.775592412
 23
5.6876887118
 33
0.0
 40
0.0
 40
0.0
 40
0.0
 40
0.0
 40
0.0660629496
 40
0.1321999247
 40
0.1983888874
 40
0.2646100538
 40
0.3308573925
 40
0.3971208466
 40
0.463391519
 40
0.5296601243
 40
0.5959182544
 40
0.6621541218
 40
0.7283632581
 40
0.7944894282
 40
0.8614440254
 40
0.9304735956
 40
1.0
 40
1.0
 40
1.0
 40
1.0
 10
-44.9479925416
 20
-23.4637451107
 30
0.0
 10
-42.971045731
 20
-23.5889936118
 30
0.0
 10
-39.0138629872
 20
-23.8229983892
 30
0.0
 10
-33.0727025664
 20
-24.1243003398
 30
0.0
 10
-27.1244797958
 20
-24.3759619547
 30
0.0
 10
-21.1710509583
 20
-24.5778839126
 30
0.0
 10
-15.2139070059
 20
-24.7300093536
 30
0.0
 10
-9.2542146075
 20
-24.8323084551
 30
0.0
 10
-3.2932374203
 20
-24.8847646225
 30
0.0
 10
2.6678103125
 20
-24.8873774815
 30
0.0
 10
8.6276279596
 20
-24.8401620372
 30
0.0
 10
14.5850595511
 20
-24.7431487547
 30
0.0
 10
20.537516018
 20
-24.5964163068
 30
0.0
 10
26.5100764246
 20
-24.3991952379
 30
0.0
 10
32.5652671428
 20
-24.1481853211
 30
0.0
 10
38.7199005473
 20
-23.8399018047
 30
0.0
 10
42.8674011539
 20
-23.5955599528
 30
0.0
 10
44.9479925356
 20
-23.4637451043
 30
0.0
 11
-44.9479925416
 21
-23.4637451107
 31
0.0
 11
-39.0156258251
 21
-23.8145699273
 31
0.0
 11
-33.07387249
 21
-24.115916912
 31
0.0
 11
-27.125128177
 21
-24.3676136902
 31
0.0
 11
-21.1715883106
 21
-24.5695497765
 31
0.0
 11
-15.214212726
 21
-24.7216889714
 31
0.0
 11
-9.2543231624
 21
-24.8239967301
 31
0.0
 11
-3.2931370755
 21
-24.8764574439
 31
0.0
 11
2.6680933349
 21
-24.8790705161
 31
0.0
 11
8.62819496
 21
-24.831850382
 31
0.0
 11
14.5856910481
 21
-24.7348310619
 31
0.0
 11
20.5397635286
 21
-24.588051222
 31
0.0
 11
26.4849409116
 21
-24.3917243221
 31
0.0
 11
32.5027118687
 21
-24.1422523271
 31
0.0
 11
38.7045309828
 21
-23.8315884189
 31
0.0
 11
44.9479925356
 21
-23.4637451043
 31
0.0
  0
SPLINE
  5
32C
100
AcDbEntity
  8
RACCORDO
100
AcDbSpline
 62
253
  6
CONTINUOUS
 70
0
 71
3
 72
15
 73
11
 74
9
 42
0.0000001
 43
0.0000001
 44
0.0000000001
 12
0.0094213534
 22
-0.7712608009
 32
0.0
 13
0.450031437
 23
-0.6264213363
 33
0.0
 40
0.0
 40
0.0
 40
0.0
 40
0.0
 40
0.1421317565
 40
0.2808025914
 40
0.4152709921
 40
0.5449009953
 40
0.6689319071
 40
0.7865361118
 40
0.8970530474
 40
1.0
 40
1.0
 40
1.0
 40
1.0
 10
44.7246011243
 20
-22.7374580461
 30
0.0
 10
44.7250474821
 20
-22.7739982635
 30
0.0
 10
44.7286725522
 20
-22.8461863508
 30
0.0
 10
44.7421000196
 20
-22.9522047942
 30
0.0
 10
44.7628392691
 20
-23.0537630188
 30
0.0
 10
44.7901606973
 20
-23.1498397898
 30
0.0
 10
44.8232017746
 20
-23.239492136
 30
0.0
 10
44.8609534096
 20
-23.3218859246
 30
0.0
 10
44.9022841819
 20
-23.3963892669
 30
0.0
 10
44.9325494139
 20
-23.4422490484
 30
0.0
 10
44.9479925356
 20
-23.4637451043
 30
0.0
 11
44.7246011243
 21
-22.7374580461
 31
0.0
 11
44.7301146684
 21
-22.8469481432
 31
0.0
 11
44.7435846259
 21
-22.9530559403
 31
0.0
 11
44.7643824777
 21
-23.0546672648
 31
0.0
 11
44.7917872212
 21
-23.1508243241
 31
0.0
 11
44.8249328552
 21
-23.2405661903
 31
0.0
 11
44.8627825601
 21
-23.3230025582
 31
0.0
 11
44.9041985444
 21
-23.3975090101
 31
0.0
 11
44.9479925356
 21
-23.4637451043
 31
0.0
  0
SPLINE
  5
32D
100
AcDbEntity
  8
RACCORDO
100
AcDbSpline
 62
253
  6
CONTINUOUS
 70
0
 71
3
 72
25
 73
21
 74
19
 42
0.0000001
 43
0.0000001
 44
0.0000000001
 12
0.0439406377
 22
-1.1118892252
 32
0.0
 13
-0.8482249827
 23
-0.7202380215
 33
0.0
 40
0.0
 40
0.0
 40
0.0
 40
0.0
 40
0.085738209
 40
0.1704002901
 40
0.2534464258
 40
0.3343473152
 40
0.412587639
 40
0.4876694553
 40
0.5591155154
 40
0.6264724949
 40
0.6893141502
 40
0.7472444275
 40
0.7999005988
 40
0.8469565816
 40
0.8881267979
 40
0.9231714096
 40
0.9519051414
 40
0.974216453
 40
0.9901229376
 40
1.0
 40
1.0
 40
1.0
 40
1.0
 10
67.5968053728
 20
-37.0193572601
 30
0.0
 10
67.59806117
 20
-37.0511343904
 30
0.0
 10
67.6003855903
 20
-37.1142967227
 30
0.0
 10
67.6033216116
 20
-37.2082594423
 30
0.0
 10
67.6056738271
 20
-37.3004438201
 30
0.0
 10
67.6074274117
 20
-37.3902591686
 30
0.0
 10
67.6085714832
 20
-37.4771300436
 30
0.0
 10
67.6090991978
 20
-37.560499887
 30
0.0
 10
67.6090078428
 20
-37.6398346152
 30
0.0
 10
67.608298921
 20
-37.7146260961
 30
0.0
 10
67.6069782707
 20
-37.7843953472
 30
0.0
 10
67.6050561626
 20
-37.8486960455
 30
0.0
 10
67.6025477193
 20
-37.9071163822
 30
0.0
 10
67.5994728351
 20
-37.9592858183
 30
0.0
 10
67.5958588115
 20
-38.004866379
 30
0.0
 10
67.5917370589
 20
-38.04359279
 30
0.0
 10
67.587162387
 20
-38.0751745604
 30
0.0
 10
67.5821793877
 20
-38.0996070215
 30
0.0
 10
67.5769351295
 20
-38.1165167185
 30
0.0
 10
67.572293032
 20
-38.1253218662
 30
0.0
 10
67.569500375
 20
-38.1276931448
 30
0.0
 11
67.5968053728
 21
-37.0193572601
 31
0.0
 11
67.6003115502
 21
-37.1146986154
 31
0.0
 11
67.6032496015
 21
-37.2088611244
 31
0.0
 11
67.6056006995
 21
-37.3012413908
 31
0.0
 11
67.6073497783
 21
-37.3912474391
 31
0.0
 11
67.6084856298
 21
-37.4783025075
 31
0.0
 11
67.6090009753
 21
-37.5618487444
 31
0.0
 11
67.6088925126
 21
-37.6413507831
 31
0.0
 11
67.6081609366
 21
-37.7162991719
 31
0.0
 11
67.6068109354
 21
-37.7862136393
 31
0.0
 11
67.6048511597
 21
-37.850646171
 31
0.0
 11
67.6022941679
 21
-37.9091838815
 31
0.0
 11
67.5991563453
 21
-37.9614516593
 31
0.0
 11
67.5954577991
 21
-38.0071145707
 31
0.0
 11
67.5912222297
 21
-38.0458800065
 31
0.0
 11
67.5864767789
 21
-38.0774995564
 31
0.0
 11
67.5812518555
 21
-38.1017706016
 31
0.0
 11
67.575580941
 21
-38.1185376122
 31
0.0
 11
67.569500375
 21
-38.1276931448
 31
0.0
  0
SPLINE
  5
32E
100
AcDbEntity
  8
RACCORDO
100
AcDbSpline
 62
253
  6
CONTINUOUS
 70
0
 71
3
 72
25
 73
21
 74
19
 42
0.0000001
 43
0.0000001
 44
0.0000000001
 12
-0.0439406392
 22
-1.1118892696
 32
0.0
 13
0.8482249567
 23
-0.7202381206
 33
0.0
 40
0.0
 40
0.0
 40
0.0
 40
0.0
 40
0.0857382081
 40
0.1704002884
 40
0.2534464235
 40
0.3343473124
 40
0.4125876359
 40
0.487669452
 40
0.559115512
 40
0.6264724916
 40
0.6893141471
 40
0.7472444246
 40
0.7999005961
 40
0.8469565794
 40
0.888126796
 40
0.9231714082
 40
0.9519051404
 40
0.9742164523
 40
0.9901229373
 40
1.0
 40
1.0
 40
1.0
 40
1.0
 10
-67.5968053727
 20
-37.01935726
 30
0.0
 10
-67.5980611699
 20
-37.0511343912
 30
0.0
 10
-67.6003855903
 20
-37.1142967254
 30
0.0
 10
-67.6033216117
 20
-37.2082594479
 30
0.0
 10
-67.6056738273
 20
-37.3004438287
 30
0.0
 10
-67.607427412
 20
-37.3902591802
 30
0.0
 10
-67.6085714837
 20
-37.4771300584
 30
0.0
 10
-67.6090991984
 20
-37.5604999048
 30
0.0
 10
-67.6090078434
 20
-37.6398346361
 30
0.0
 10
-67.6082989218
 20
-37.7146261202
 30
0.0
 10
-67.6069782716
 20
-37.7843953742
 30
0.0
 10
-67.6050561637
 20
-37.8486960753
 30
0.0
 10
-67.6025477205
 20
-37.9071164147
 30
0.0
 10
-67.5994728364
 20
-37.9592858533
 30
0.0
 10
-67.5958588129
 20
-38.0048664162
 30
0.0
 10
-67.5917370606
 20
-38.0435928292
 30
0.0
 10
-67.5871623888
 20
-38.0751746014
 30
0.0
 10
-67.5821793896
 20
-38.099607064
 30
0.0
 10
-67.5769351315
 20
-38.1165167622
 30
0.0
 10
-67.5722930342
 20
-38.1253219106
 30
0.0
 10
-67.5695003771
 20
-38.1276931896
 30
0.0
 11
-67.5968053727
 21
-37.01935726
 31
0.0
 11
-67.6003115502
 21
-37.114698618
 31
0.0
 11
-67.6032496016
 21
-37.2088611299
 31
0.0
 11
-67.6056006997
 21
-37.3012413994
 31
0.0
 11
-67.6073497786
 21
-37.3912474507
 31
0.0
 11
-67.6084856302
 21
-37.4783025222
 31
0.0
 11
-67.6090009759
 21
-37.5618487623
 31
0.0
 11
-67.6088925133
 21
-37.6413508041
 31
0.0
 11
-67.6081609374
 21
-37.716299196
 31
0.0
 11
-67.6068109363
 21
-37.7862136663
 31
0.0
 11
-67.6048511608
 21
-37.8506462009
 31
0.0
 11
-67.6022941691
 21
-37.909183914
 31
0.0
 11
-67.5991563467
 21
-37.9614516943
 31
0.0
 11
-67.5954578006
 21
-38.007114608
 31
0.0
 11
-67.5912222314
 21
-38.0458800458
 31
0.0
 11
-67.5864767806
 21
-38.0774995976
 31
0.0
 11
-67.5812518574
 21
-38.1017706442
 31
0.0
 11
-67.5755809431
 21
-38.1185376561
 31
0.0
 11
-67.5695003771
 21
-38.1276931896
 31
0.0
  0
SPLINE
  5
32F
100
AcDbEntity
  8
RACCORDO
100
AcDbSpline
 62
253
  6
CONTINUOUS
 70
0
 71
3
 72
25
 73
21
 74
19
 42
0.0000001
 43
0.0000001
 44
0.0000000001
 12
-1.1121869994
 22
-0.0567758668
 32
0.0
 13
-0.7325764184
 23
0.8387581367
 33
0.0
 40
0.0
 40
0.0
 40
0.0
 40
0.0
 40
0.0857252851
 40
0.1703791293
 40
0.2534211452
 40
0.334321445
 40
0.4125641123
 40
0.4876506039
 40
0.5591030724
 40
0.626467602
 40
0.6893173696
 40
0.7472557565
 40
0.7999194842
 40
0.84698193
 40
0.8881569729
 40
0.9232041998
 40
0.9519376607
 40
0.9742448758
 40
0.9901417752
 40
1.0
 40
1.0
 40
1.0
 40
1.0
 10
-68.8316024201
 20
-35.7971609708
 30
0.0
 10
-68.8633832693
 20
-35.7987833465
 30
0.0
 10
-68.9265566049
 20
-35.8018372022
 30
0.0
 10
-69.020543897
 20
-35.8058607034
 30
0.0
 10
-69.1127627833
 20
-35.8092822941
 30
0.0
 10
-69.2026217031
 20
-35.8120802714
 30
0.0
 10
-69.2895442956
 20
-35.8142370403
 30
0.0
 10
-69.3729730529
 20
-35.8157392515
 30
0.0
 10
-69.4523729174
 20
-35.8165779358
 30
0.0
 10
-69.5272347683
 20
-35.8167486296
 30
0.0
 10
-69.5970786261
 20
-35.8162515307
 30
0.0
 10
-69.6614571735
 20
-35.8150916393
 30
0.0
 10
-69.7199576026
 20
-35.8132791883
 30
0.0
 10
-69.7722084074
 20
-35.8108296738
 30
0.0
 10
-69.8178705494
 20
-35.8077662838
 30
0.0
 10
-69.8566779214
 20
-35.8041173833
 30
0.0
 10
-69.8883383034
 20
-35.7999337456
 30
0.0
 10
-69.9128470089
 20
-35.795261176
 30
0.0
 10
-69.9298248837
 20
-35.7902394473
 30
0.0
 10
-69.9386925571
 20
-35.7857251725
 30
0.0
 10
-69.9410998581
 20
-35.7829689504
 30
0.0
 11
-68.8316024201
 21
-35.7971609708
 31
0.0
 11
-68.9269578845
 21
-35.8017681087
 31
0.0
 11
-69.0211453015
 21
-35.8057959938
 31
0.0
 11
-69.1135604523
 21
-35.8092187868
 31
0.0
 11
-69.2036104875
 21
-35.8120145303
 31
0.0
 11
-69.2907177299
 21
-35.8141652894
 31
0.0
 11
-69.3743233808
 21
-35.8156572667
 31
0.0
 11
-69.4538911041
 21
-35.8164808913
 31
0.0
 11
-69.5289104675
 21
-35.8166308794
 31
0.0
 11
-69.5989002166
 21
-35.816106269
 31
0.0
 11
-69.6634113626
 21
-35.8149104253
 31
0.0
 11
-69.7220300619
 21
-35.8130510199
 31
0.0
 11
-69.7743802716
 21
-35.8105399809
 31
0.0
 11
-69.8201261616
 21
-35.8073934168
 31
0.0
 11
-69.858974269
 21
-35.8036315131
 31
0.0
 11
-69.8906753803
 21
-35.7992784025
 31
0.0
 11
-69.9150261309
 21
-35.7943620107
 31
0.0
 11
-69.931870309
 21
-35.7889138766
 31
0.0
 11
-69.9410998581
 21
-35.7829689504
 31
0.0
  0
SPLINE
  5
330
100
AcDbEntity
  8
RACCORDO
100
AcDbSpline
 62
253
  6
CONTINUOUS
 70
0
 71
3
 72
25
 73
21
 74
19
 42
0.0000001
 43
0.0000001
 44
0.0000000001
 12
-1.1121870421
 22
0.0567758687
 32
0.0
 13
-0.732576528
 23
-0.8387580977
 33
0.0
 40
0.0
 40
0.0
 40
0.0
 40
0.0
 40
0.0857252841
 40
0.1703791274
 40
0.2534211427
 40
0.334321442
 40
0.4125641089
 40
0.4876506003
 40
0.5591030687
 40
0.6264675983
 40
0.689317366
 40
0.7472557531
 40
0.7999194811
 40
0.8469819273
 40
0.8881569706
 40
0.923204198
 40
0.9519376594
 40
0.974244875
 40
0.9901417749
 40
1.0
 40
1.0
 40
1.0
 40
1.0
 10
-68.8316024198
 20
35.7971609705
 30
0.0
 10
-68.8633832699
 20
35.7987833463
 30
0.0
 10
-68.9265566072
 20
35.8018372021
 30
0.0
 10
-69.020543902
 20
35.8058607034
 30
0.0
 10
-69.1127627911
 20
35.8092822942
 30
0.0
 10
-69.2026217137
 20
35.8120802716
 30
0.0
 10
-69.2895443092
 20
35.8142370407
 30
0.0
 10
-69.3729730694
 20
35.815739252
 30
0.0
 10
-69.4523729369
 20
35.8165779364
 30
0.0
 10
-69.5272347907
 20
35.8167486304
 30
0.0
 10
-69.5970786513
 20
35.8162515317
 30
0.0
 10
-69.6614572014
 20
35.8150916405
 30
0.0
 10
-69.7199576331
 20
35.8132791897
 30
0.0
 10
-69.7722084403
 20
35.8108296753
 30
0.0
 10
-69.8178705845
 20
35.8077662855
 30
0.0
 10
-69.8566779585
 20
35.8041173852
 30
0.0
 10
-69.8883383423
 20
35.7999337476
 30
0.0
 10
-69.9128470494
 20
35.7952611782
 30
0.0
 10
-69.9298249254
 20
35.7902394496
 30
0.0
 10
-69.9386925997
 20
35.785725175
 30
0.0
 10
-69.9410999011
 20
35.782968953
 30
0.0
 11
-68.8316024198
 21
35.7971609705
 31
0.0
 11
-68.9269578868
 21
35.8017681086
 31
0.0
 11
-69.0211453065
 21
35.8057959938
 31
0.0
 11
-69.1135604601
 21
35.8092187869
 31
0.0
 11
-69.2036104982
 21
35.8120145305
 31
0.0
 11
-69.2907177435
 21
35.8141652897
 31
0.0
 11
-69.3743233974
 21
35.8156572673
 31
0.0
 11
-69.4538911236
 21
35.816480892
 31
0.0
 11
-69.5289104899
 21
35.8166308803
 31
0.0
 11
-69.5989002419
 21
35.81610627
 31
0.0
 11
-69.6634113905
 21
35.8149104265
 31
0.0
 11
-69.7220300924
 21
35.8130510212
 31
0.0
 11
-69.7743803046
 21
35.8105399824
 31
0.0
 11
-69.8201261968
 21
35.8073934185
 31
0.0
 11
-69.8589743062
 21
35.803631515
 31
0.0
 11
-69.8906754193
 21
35.7992784046
 31
0.0
 11
-69.9150261715
 21
35.794362013
 31
0.0
 11
-69.931870351
 21
35.7889138791
 31
0.0
 11
-69.9410999011
 21
35.782968953
 31
0.0
  0
SPLINE
  5
331
100
AcDbEntity
  8
RACCORDO
100
AcDbSpline
 62
253
  6
CONTINUOUS
 70
0
 71
3
 72
25
 73
21
 74
19
 42
0.0000001
 43
0.0000001
 44
0.0000000001
 12
-0.0439406377
 22
1.1118892252
 32
0.0
 13
0.8482249827
 23
0.7202380215
 33
0.0
 40
0.0
 40
0.0
 40
0.0
 40
0.0
 40
0.085738209
 40
0.1704002901
 40
0.2534464258
 40
0.3343473152
 40
0.412587639
 40
0.4876694553
 40
0.5591155154
 40
0.6264724949
 40
0.6893141502
 40
0.7472444275
 40
0.7999005988
 40
0.8469565816
 40
0.8881267979
 40
0.9231714096
 40
0.9519051414
 40
0.974216453
 40
0.9901229376
 40
1.0
 40
1.0
 40
1.0
 40
1.0
 10
-67.5968053728
 20
37.0193572601
 30
0.0
 10
-67.59806117
 20
37.0511343904
 30
0.0
 10
-67.6003855903
 20
37.1142967227
 30
0.0
 10
-67.6033216116
 20
37.2082594423
 30
0.0
 10
-67.6056738271
 20
37.3004438201
 30
0.0
 10
-67.6074274117
 20
37.3902591686
 30
0.0
 10
-67.6085714832
 20
37.4771300436
 30
0.0
 10
-67.6090991978
 20
37.560499887
 30
0.0
 10
-67.6090078428
 20
37.6398346152
 30
0.0
 10
-67.608298921
 20
37.7146260961
 30
0.0
 10
-67.6069782707
 20
37.7843953472
 30
0.0
 10
-67.6050561626
 20
37.8486960455
 30
0.0
 10
-67.6025477193
 20
37.9071163822
 30
0.0
 10
-67.5994728351
 20
37.9592858183
 30
0.0
 10
-67.5958588115
 20
38.004866379
 30
0.0
 10
-67.5917370589
 20
38.04359279
 30
0.0
 10
-67.587162387
 20
38.0751745604
 30
0.0
 10
-67.5821793877
 20
38.0996070215
 30
0.0
 10
-67.5769351295
 20
38.1165167185
 30
0.0
 10
-67.572293032
 20
38.1253218662
 30
0.0
 10
-67.569500375
 20
38.1276931448
 30
0.0
 11
-67.5968053728
 21
37.0193572601
 31
0.0
 11
-67.6003115502
 21
37.1146986154
 31
0.0
 11
-67.6032496015
 21
37.2088611244
 31
0.0
 11
-67.6056006995
 21
37.3012413908
 31
0.0
 11
-67.6073497783
 21
37.3912474391
 31
0.0
 11
-67.6084856298
 21
37.4783025075
 31
0.0
 11
-67.6090009753
 21
37.5618487444
 31
0.0
 11
-67.6088925126
 21
37.6413507831
 31
0.0
 11
-67.6081609366
 21
37.7162991719
 31
0.0
 11
-67.6068109354
 21
37.7862136393
 31
0.0
 11
-67.6048511597
 21
37.850646171
 31
0.0
 11
-67.6022941679
 21
37.9091838815
 31
0.0
 11
-67.5991563453
 21
37.9614516593
 31
0.0
 11
-67.5954577991
 21
38.0071145707
 31
0.0
 11
-67.5912222297
 21
38.0458800065
 31
0.0
 11
-67.5864767789
 21
38.0774995564
 31
0.0
 11
-67.5812518555
 21
38.1017706016
 31
0.0
 11
-67.575580941
 21
38.1185376122
 31
0.0
 11
-67.569500375
 21
38.1276931448
 31
0.0
  0
SPLINE
  5
332
100
AcDbEntity
  8
RACCORDO
100
AcDbSpline
 62
253
  6
CONTINUOUS
 70
0
 71
3
 72
25
 73
21
 74
19
 42
0.0000001
 43
0.0000001
 44
0.0000000001
 12
0.0439406392
 22
1.1118892696
 32
0.0
 13
-0.8482249567
 23
0.7202381206
 33
0.0
 40
0.0
 40
0.0
 40
0.0
 40
0.0
 40
0.0857382081
 40
0.1704002884
 40
0.2534464235
 40
0.3343473124
 40
0.4125876359
 40
0.487669452
 40
0.559115512
 40
0.6264724916
 40
0.6893141471
 40
0.7472444246
 40
0.7999005961
 40
0.8469565794
 40
0.888126796
 40
0.9231714082
 40
0.9519051404
 40
0.9742164523
 40
0.9901229373
 40
1.0
 40
1.0
 40
1.0
 40
1.0
 10
67.5968053727
 20
37.01935726
 30
0.0
 10
67.5980611699
 20
37.0511343912
 30
0.0
 10
67.6003855903
 20
37.1142967254
 30
0.0
 10
67.6033216117
 20
37.2082594479
 30
0.0
 10
67.6056738273
 20
37.3004438287
 30
0.0
 10
67.607427412
 20
37.3902591802
 30
0.0
 10
67.6085714837
 20
37.4771300584
 30
0.0
 10
67.6090991984
 20
37.5604999048
 30
0.0
 10
67.6090078434
 20
37.6398346361
 30
0.0
 10
67.6082989218
 20
37.7146261202
 30
0.0
 10
67.6069782716
 20
37.7843953742
 30
0.0
 10
67.6050561637
 20
37.8486960753
 30
0.0
 10
67.6025477205
 20
37.9071164147
 30
0.0
 10
67.5994728364
 20
37.9592858533
 30
0.0
 10
67.5958588129
 20
38.0048664162
 30
0.0
 10
67.5917370605
 20
38.0435928292
 30
0.0
 10
67.5871623888
 20
38.0751746014
 30
0.0
 10
67.5821793896
 20
38.099607064
 30
0.0
 10
67.5769351315
 20
38.1165167622
 30
0.0
 10
67.5722930342
 20
38.1253219106
 30
0.0
 10
67.5695003771
 20
38.1276931896
 30
0.0
 11
67.5968053727
 21
37.01935726
 31
0.0
 11
67.6003115502
 21
37.114698618
 31
0.0
 11
67.6032496016
 21
37.2088611299
 31
0.0
 11
67.6056006997
 21
37.3012413994
 31
0.0
 11
67.6073497786
 21
37.3912474507
 31
0.0
 11
67.6084856302
 21
37.4783025222
 31
0.0
 11
67.6090009759
 21
37.5618487623
 31
0.0
 11
67.6088925133
 21
37.6413508041
 31
0.0
 11
67.6081609374
 21
37.716299196
 31
0.0
 11
67.6068109363
 21
37.7862136663
 31
0.0
 11
67.6048511608
 21
37.8506462009
 31
0.0
 11
67.6022941691
 21
37.909183914
 31
0.0
 11
67.5991563467
 21
37.9614516943
 31
0.0
 11
67.5954578006
 21
38.007114608
 31
0.0
 11
67.5912222314
 21
38.0458800458
 31
0.0
 11
67.5864767806
 21
38.0774995976
 31
0.0
 11
67.5812518574
 21
38.1017706442
 31
0.0
 11
67.5755809431
 21
38.1185376561
 31
0.0
 11
67.5695003771
 21
38.1276931896
 31
0.0
  0
SPLINE
  5
333
100
AcDbEntity
  8
RACCORDO
100
AcDbSpline
 62
253
  6
CONTINUOUS
 70
0
 71
3
 72
25
 73
21
 74
19
 42
0.0000001
 43
0.0000001
 44
0.0000000001
 12
1.1121869994
 22
0.0567758668
 32
0.0
 13
0.7325764184
 23
-0.8387581366
 33
0.0
 40
0.0
 40
0.0
 40
0.0
 40
0.0
 40
0.0857252851
 40
0.1703791293
 40
0.2534211452
 40
0.334321445
 40
0.4125641123
 40
0.4876506039
 40
0.5591030724
 40
0.626467602
 40
0.6893173696
 40
0.7472557565
 40
0.7999194842
 40
0.84698193
 40
0.8881569729
 40
0.9232041998
 40
0.9519376607
 40
0.9742448758
 40
0.9901417752
 40
1.0
 40
1.0
 40
1.0
 40
1.0
 10
68.8316024201
 20
35.7971609708
 30
0.0
 10
68.8633832693
 20
35.7987833465
 30
0.0
 10
68.9265566049
 20
35.8018372022
 30
0.0
 10
69.020543897
 20
35.8058607034
 30
0.0
 10
69.1127627833
 20
35.8092822941
 30
0.0
 10
69.2026217031
 20
35.8120802714
 30
0.0
 10
69.2895442956
 20
35.8142370403
 30
0.0
 10
69.3729730529
 20
35.8157392515
 30
0.0
 10
69.4523729174
 20
35.8165779358
 30
0.0
 10
69.5272347683
 20
35.8167486296
 30
0.0
 10
69.5970786261
 20
35.8162515307
 30
0.0
 10
69.6614571735
 20
35.8150916393
 30
0.0
 10
69.7199576026
 20
35.8132791883
 30
0.0
 10
69.7722084074
 20
35.8108296738
 30
0.0
 10
69.8178705494
 20
35.8077662838
 30
0.0
 10
69.8566779214
 20
35.8041173833
 30
0.0
 10
69.8883383034
 20
35.7999337456
 30
0.0
 10
69.9128470089
 20
35.795261176
 30
0.0
 10
69.9298248837
 20
35.7902394473
 30
0.0
 10
69.9386925571
 20
35.7857251725
 30
0.0
 10
69.9410998581
 20
35.7829689504
 30
0.0
 11
68.8316024201
 21
35.7971609708
 31
0.0
 11
68.9269578845
 21
35.8017681088
 31
0.0
 11
69.0211453015
 21
35.8057959938
 31
0.0
 11
69.1135604523
 21
35.8092187868
 31
0.0
 11
69.2036104875
 21
35.8120145303
 31
0.0
 11
69.2907177299
 21
35.8141652894
 31
0.0
 11
69.3743233808
 21
35.8156572667
 31
0.0
 11
69.4538911041
 21
35.8164808913
 31
0.0
 11
69.5289104675
 21
35.8166308794
 31
0.0
 11
69.5989002166
 21
35.816106269
 31
0.0
 11
69.6634113626
 21
35.8149104253
 31
0.0
 11
69.7220300619
 21
35.8130510199
 31
0.0
 11
69.7743802716
 21
35.8105399809
 31
0.0
 11
69.8201261616
 21
35.8073934168
 31
0.0
 11
69.858974269
 21
35.8036315131
 31
0.0
 11
69.8906753803
 21
35.7992784025
 31
0.0
 11
69.9150261309
 21
35.7943620107
 31
0.0
 11
69.931870309
 21
35.7889138766
 31
0.0
 11
69.9410998581
 21
35.7829689504
 31
0.0
  0
SPLINE
  5
334
100
AcDbEntity
  8
RACCORDO
100
AcDbSpline
 62
253
  6
CONTINUOUS
 70
0
 71
3
 72
25
 73
21
 74
19
 42
0.0000001
 43
0.0000001
 44
0.0000000001
 12
1.1121870421
 22
-0.0567758687
 32
0.0
 13
0.732576528
 23
0.8387580977
 33
0.0
 40
0.0
 40
0.0
 40
0.0
 40
0.0
 40
0.0857252841
 40
0.1703791274
 40
0.2534211427
 40
0.334321442
 40
0.4125641089
 40
0.4876506003
 40
0.5591030687
 40
0.6264675983
 40
0.689317366
 40
0.7472557531
 40
0.7999194811
 40
0.8469819273
 40
0.8881569706
 40
0.923204198
 40
0.9519376594
 40
0.974244875
 40
0.9901417749
 40
1.0
 40
1.0
 40
1.0
 40
1.0
 10
68.8316024198
 20
-35.7971609705
 30
0.0
 10
68.8633832699
 20
-35.7987833463
 30
0.0
 10
68.9265566072
 20
-35.8018372021
 30
0.0
 10
69.020543902
 20
-35.8058607034
 30
0.0
 10
69.1127627911
 20
-35.8092822942
 30
0.0
 10
69.2026217137
 20
-35.8120802716
 30
0.0
 10
69.2895443092
 20
-35.8142370407
 30
0.0
 10
69.3729730694
 20
-35.815739252
 30
0.0
 10
69.4523729369
 20
-35.8165779364
 30
0.0
 10
69.5272347907
 20
-35.8167486304
 30
0.0
 10
69.5970786513
 20
-35.8162515317
 30
0.0
 10
69.6614572014
 20
-35.8150916405
 30
0.0
 10
69.7199576331
 20
-35.8132791897
 30
0.0
 10
69.7722084402
 20
-35.8108296753
 30
0.0
 10
69.8178705845
 20
-35.8077662855
 30
0.0
 10
69.8566779585
 20
-35.8041173851
 30
0.0
 10
69.8883383423
 20
-35.7999337476
 30
0.0
 10
69.9128470494
 20
-35.7952611782
 30
0.0
 10
69.9298249254
 20
-35.7902394496
 30
0.0
 10
69.9386925997
 20
-35.785725175
 30
0.0
 10
69.9410999011
 20
-35.782968953
 30
0.0
 11
68.8316024198
 21
-35.7971609705
 31
0.0
 11
68.9269578868
 21
-35.8017681086
 31
0.0
 11
69.0211453065
 21
-35.8057959938
 31
0.0
 11
69.1135604601
 21
-35.8092187869
 31
0.0
 11
69.2036104981
 21
-35.8120145305
 31
0.0
 11
69.2907177435
 21
-35.8141652897
 31
0.0
 11
69.3743233974
 21
-35.8156572673
 31
0.0
 11
69.4538911236
 21
-35.816480892
 31
0.0
 11
69.5289104899
 21
-35.8166308803
 31
0.0
 11
69.5989002419
 21
-35.81610627
 31
0.0
 11
69.6634113905
 21
-35.8149104265
 31
0.0
 11
69.7220300924
 21
-35.8130510212
 31
0.0
 11
69.7743803046
 21
-35.8105399824
 31
0.0
 11
69.8201261968
 21
-35.8073934185
 31
0.0
 11
69.8589743062
 21
-35.803631515
 31
0.0
 11
69.8906754193
 21
-35.7992784046
 31
0.0
 11
69.9150261715
 21
-35.794362013
 31
0.0
 11
69.931870351
 21
-35.7889138791
 31
0.0
 11
69.9410999011
 21
-35.782968953
 31
0.0
  0
SPLINE
  5
335
100
AcDbEntity
  8
RACCORDO
100
AcDbSpline
 62
253
  6
CONTINUOUS
 70
0
 71
3
 72
30
 73
26
 74
24
 42
0.0000001
 43
0.0000001
 44
0.0000000001
 12
-3.6483664363
 22
-0.1738386625
 32
0.0
 13
-0.21547758
 23
-3.6461441204
 33
0.0
 40
0.0
 40
0.0
 40
0.0
 40
0.0
 40
0.0435758866
 40
0.0871260439
 40
0.1306540802
 40
0.1741606117
 40
0.2176472186
 40
0.2611160658
 40
0.3045694504
 40
0.3480099211
 40
0.3914401147
 40
0.4348629905
 40
0.4782814859
 40
0.5216987333
 40
0.5651177253
 40
0.6085415731
 40
0.6519731712
 40
0.6954154207
 40
0.7388708877
 40
0.7823420342
 40
0.8258310432
 40
0.8693399714
 40
0.9128702853
 40
0.9564226006
 40
1.0
 40
1.0
 40
1.0
 40
1.0
 10
-67.5694958924
 20
38.1276934049
 30
0.0
 10
-67.6224894931
 20
38.125168347
 30
0.0
 10
-67.7283158019
 20
38.1167480025
 30
0.0
 10
-67.8858641036
 20
38.0940586428
 30
0.0
 10
-68.0415747713
 20
38.0614137915
 30
0.0
 10
-68.1948176642
 20
38.0189527821
 30
0.0
 10
-68.3449817382
 20
37.966853837
 30
0.0
 10
-68.4914674674
 20
37.9053325294
 30
0.0
 10
-68.6336918599
 20
37.8346407884
 30
0.0
 10
-68.7710890903
 20
37.7550659909
 30
0.0
 10
-68.9031130696
 20
37.6669296202
 30
0.0
 10
-69.0292390953
 20
37.5705860633
 30
0.0
 10
-69.148965898
 20
37.4664210797
 30
0.0
 10
-69.2618170463
 20
37.3548506158
 30
0.0
 10
-69.3673428624
 20
37.2363190966
 30
0.0
 10
-69.4651217793
 20
37.1112980997
 30
0.0
 10
-69.5547620905
 20
36.9802844648
 30
0.0
 10
-69.6359031743
 20
36.8437989025
 30
0.0
 10
-69.7082170661
 20
36.7023839638
 30
0.0
 10
-69.7714096887
 20
36.5566024199
 30
0.0
 10
-69.8252222513
 20
36.4070346894
 30
0.0
 10
-69.869432184
 20
36.2542782006
 30
0.0
 10
-69.9038542378
 20
36.0989422133
 30
0.0
 10
-69.9283417807
 20
35.9416560368
 30
0.0
 10
-69.9379701463
 20
35.835928302
 30
0.0
 10
-69.9411001305
 20
35.7829651425
 30
0.0
 11
-67.5694958924
 21
38.1276934049
 31
0.0
 11
-67.7281554447
 21
38.1150670386
 31
0.0
 11
-67.8855982227
 21
38.0923922867
 31
0.0
 11
-68.0412014571
 21
38.0597685461
 31
0.0
 11
-68.1943391667
 21
38.0173356889
 31
0.0
 11
-68.3443989591
 21
37.9652718768
 31
0.0
 11
-68.4907828899
 21
37.9037924139
 31
0.0
 11
-68.6329081108
 21
37.833149151
 31
0.0
 11
-68.7702094482
 21
37.7536292071
 31
0.0
 11
-68.9021409782
 21
37.6655540126
 31
0.0
 11
-69.0281787527
 21
37.5692774908
 31
0.0
 11
-69.1478216745
 21
37.4651852925
 31
0.0
 11
-69.2605939761
 21
37.3536927958
 31
0.0
 11
-69.3660460867
 21
37.2352443171
 31
0.0
 11
-69.4637570127
 21
37.1103107729
 31
0.0
 11
-69.5533351495
 21
36.9793888369
 31
0.0
 11
-69.6344203439
 21
36.8429984714
 31
0.0
 11
-69.7066846848
 21
36.701682059
 31
0.0
 11
-69.7698343631
 21
36.5560017084
 31
0.0
 11
-69.8236106497
 21
36.4065377325
 31
0.0
 11
-69.8677912663
 21
36.2538859692
 31
0.0
 11
-69.9021909746
 21
36.0986571696
 31
0.0
 11
-69.9266627993
 21
35.9414757133
 31
0.0
 11
-69.9411001305
 21
35.7829651425
 31
0.0
  0
SPLINE
  5
336
100
AcDbEntity
  8
RACCORDO
100
AcDbSpline
 62
253
  6
CONTINUOUS
 70
0
 71
3
 72
30
 73
26
 74
24
 42
0.0000001
 43
0.0000001
 44
0.0000000001
 12
0.2154776229
 22
-3.6461441017
 32
0.0
 13
3.6483664227
 23
-0.1738386087
 33
0.0
 40
0.0
 40
0.0
 40
0.0
 40
0.0
 40
0.0435777697
 40
0.0871300544
 40
0.1306603895
 40
0.1741693124
 40
0.2176583237
 40
0.2611294741
 40
0.3045849459
 40
0.3480271981
 40
0.3914587992
 40
0.4348826498
 40
0.478301644
 40
0.5217188922
 40
0.5651373869
 40
0.6085602613
 40
0.6519904532
 40
0.6954309223
 40
0.738884303
 40
0.7823531473
 40
0.8258397535
 40
0.8693462916
 40
0.9128743068
 40
0.9564244943
 40
1.0
 40
1.0
 40
1.0
 40
1.0
 10
-69.9411001726
 20
-35.7829644303
 30
0.0
 10
-69.9379701612
 20
-35.8359280396
 30
0.0
 10
-69.9283417795
 20
-35.941656189
 30
0.0
 10
-69.9038541256
 20
-36.0989427929
 30
0.0
 10
-69.8694320417
 20
-36.2542787543
 30
0.0
 10
-69.8252220667
 20
-36.4070352532
 30
0.0
 10
-69.7714094687
 20
-36.5566029713
 30
0.0
 10
-69.7082168062
 20
-36.7023845117
 30
0.0
 10
-69.6359028737
 20
-36.8437994446
 30
0.0
 10
-69.5547617495
 20
-36.980284997
 30
0.0
 10
-69.4651213995
 20
-37.1112986173
 30
0.0
 10
-69.3673424448
 20
-37.2363195962
 30
0.0
 10
-69.2618165936
 20
-37.3548510925
 30
0.0
 10
-69.1489654147
 20
-37.4664215283
 30
0.0
 10
-69.0292385865
 20
-37.5705864789
 30
0.0
 10
-68.9031125399
 20
-37.6669299998
 30
0.0
 10
-68.7710885432
 20
-37.7550663327
 30
0.0
 10
-68.6336913007
 20
-37.8346410903
 30
0.0
 10
-68.4914669002
 20
-37.9053327905
 30
0.0
 10
-68.3449811648
 20
-37.9668540582
 30
0.0
 10
-68.1948170752
 20
-38.0189529676
 30
0.0
 10
-68.0415741904
 20
-38.0614139338
 30
0.0
 10
-67.885863497
 20
-38.0940587529
 30
0.0
 10
-67.7283156382
 20
-38.1167480027
 30
0.0
 10
-67.6224897584
 20
-38.125168335
 30
0.0
 10
-67.5694966211
 20
-38.1276933701
 30
0.0
 11
-69.9411001726
 21
-35.7829644303
 31
0.0
 11
-69.9266627193
 21
-35.9414763475
 31
0.0
 11
-69.9021908759
 21
-36.098657687
 31
0.0
 11
-69.8677911153
 21
-36.2538865536
 31
0.0
 11
-69.8236104681
 21
-36.4065382872
 31
0.0
 11
-69.7698341439
 21
-36.5560022575
 31
0.0
 11
-69.7066844253
 21
-36.7016826055
 31
0.0
 11
-69.634420042
 21
-36.8429990151
 31
0.0
 11
-69.5533348088
 21
-36.9793893684
 31
0.0
 11
-69.4637566328
 21
-37.1103112902
 31
0.0
 11
-69.3660456689
 21
-37.2352448166
 31
0.0
 11
-69.2605935225
 21
-37.3536932735
 31
0.0
 11
-69.1478211902
 21
-37.465185742
 31
0.0
 11
-69.0281782436
 21
-37.5692779067
 31
0.0
 11
-68.9021404485
 21
-37.6655543923
 31
0.0
 11
-68.7702089016
 21
-37.7536295488
 31
0.0
 11
-68.6329075497
 21
-37.8331494541
 31
0.0
 11
-68.4907823244
 21
-37.9037926746
 31
0.0
 11
-68.3443983887
 21
-37.9652720971
 31
0.0
 11
-68.1943385865
 21
-38.0173358714
 31
0.0
 11
-68.0412008437
 21
-38.059768697
 31
0.0
 11
-67.885597678
 21
-38.0923923842
 31
0.0
 11
-67.7281547861
 21
-38.115067114
 31
0.0
 11
-67.5694966211
 21
-38.1276933701
 31
0.0
  0
SPLINE
  5
337
100
AcDbEntity
  8
RACCORDO
100
AcDbSpline
 62
253
  6
CONTINUOUS
 70
0
 71
3
 72
30
 73
26
 74
24
 42
0.0000001
 43
0.0000001
 44
0.0000000001
 12
-0.2154776229
 22
3.6461441017
 32
0.0
 13
-3.6483664227
 23
0.1738386087
 33
0.0
 40
0.0
 40
0.0
 40
0.0
 40
0.0
 40
0.0435777697
 40
0.0871300544
 40
0.1306603895
 40
0.1741693124
 40
0.2176583237
 40
0.2611294741
 40
0.3045849459
 40
0.3480271981
 40
0.3914587992
 40
0.4348826498
 40
0.478301644
 40
0.5217188922
 40
0.5651373869
 40
0.6085602613
 40
0.6519904532
 40
0.6954309223
 40
0.738884303
 40
0.7823531473
 40
0.8258397535
 40
0.8693462916
 40
0.9128743068
 40
0.9564244943
 40
1.0
 40
1.0
 40
1.0
 40
1.0
 10
69.9411001726
 20
35.7829644303
 30
0.0
 10
69.9379701612
 20
35.8359280396
 30
0.0
 10
69.9283417795
 20
35.941656189
 30
0.0
 10
69.9038541256
 20
36.0989427929
 30
0.0
 10
69.8694320417
 20
36.2542787543
 30
0.0
 10
69.8252220667
 20
36.4070352532
 30
0.0
 10
69.7714094687
 20
36.5566029713
 30
0.0
 10
69.7082168062
 20
36.7023845117
 30
0.0
 10
69.6359028737
 20
36.8437994446
 30
0.0
 10
69.5547617495
 20
36.980284997
 30
0.0
 10
69.4651213995
 20
37.1112986173
 30
0.0
 10
69.3673424448
 20
37.2363195962
 30
0.0
 10
69.2618165936
 20
37.3548510925
 30
0.0
 10
69.1489654147
 20
37.4664215283
 30
0.0
 10
69.0292385865
 20
37.5705864789
 30
0.0
 10
68.9031125399
 20
37.6669299998
 30
0.0
 10
68.7710885432
 20
37.7550663327
 30
0.0
 10
68.6336913007
 20
37.8346410903
 30
0.0
 10
68.4914669002
 20
37.9053327905
 30
0.0
 10
68.3449811648
 20
37.9668540582
 30
0.0
 10
68.1948170752
 20
38.0189529676
 30
0.0
 10
68.0415741904
 20
38.0614139338
 30
0.0
 10
67.885863497
 20
38.0940587529
 30
0.0
 10
67.7283156382
 20
38.1167480027
 30
0.0
 10
67.6224897584
 20
38.125168335
 30
0.0
 10
67.5694966211
 20
38.1276933701
 30
0.0
 11
69.9411001726
 21
35.7829644303
 31
0.0
 11
69.9266627193
 21
35.9414763475
 31
0.0
 11
69.9021908759
 21
36.098657687
 31
0.0
 11
69.8677911153
 21
36.2538865536
 31
0.0
 11
69.8236104681
 21
36.4065382872
 31
0.0
 11
69.7698341439
 21
36.5560022575
 31
0.0
 11
69.7066844253
 21
36.7016826055
 31
0.0
 11
69.634420042
 21
36.8429990151
 31
0.0
 11
69.5533348088
 21
36.9793893684
 31
0.0
 11
69.4637566328
 21
37.1103112902
 31
0.0
 11
69.3660456689
 21
37.2352448166
 31
0.0
 11
69.2605935225
 21
37.3536932735
 31
0.0
 11
69.1478211902
 21
37.465185742
 31
0.0
 11
69.0281782436
 21
37.5692779067
 31
0.0
 11
68.9021404485
 21
37.6655543923
 31
0.0
 11
68.7702089016
 21
37.7536295488
 31
0.0
 11
68.6329075497
 21
37.8331494541
 31
0.0
 11
68.4907823244
 21
37.9037926746
 31
0.0
 11
68.3443983887
 21
37.9652720971
 31
0.0
 11
68.1943385865
 21
38.0173358714
 31
0.0
 11
68.0412008437
 21
38.059768697
 31
0.0
 11
67.885597678
 21
38.0923923842
 31
0.0
 11
67.7281547861
 21
38.115067114
 31
0.0
 11
67.5694966211
 21
38.1276933701
 31
0.0
  0
SPLINE
  5
338
100
AcDbEntity
  8
RACCORDO
100
AcDbSpline
 62
253
  6
CONTINUOUS
 70
0
 71
3
 72
30
 73
26
 74
24
 42
0.0000001
 43
0.0000001
 44
0.0000000001
 12
3.6483664363
 22
0.1738386625
 32
0.0
 13
0.21547758
 23
3.6461441204
 33
0.0
 40
0.0
 40
0.0
 40
0.0
 40
0.0
 40
0.0435758866
 40
0.0871260439
 40
0.1306540802
 40
0.1741606117
 40
0.2176472186
 40
0.2611160658
 40
0.3045694504
 40
0.3480099211
 40
0.3914401147
 40
0.4348629905
 40
0.4782814859
 40
0.5216987333
 40
0.5651177253
 40
0.6085415731
 40
0.6519731712
 40
0.6954154207
 40
0.7388708877
 40
0.7823420342
 40
0.8258310432
 40
0.8693399714
 40
0.9128702853
 40
0.9564226006
 40
1.0
 40
1.0
 40
1.0
 40
1.0
 10
67.5694958924
 20
-38.1276934049
 30
0.0
 10
67.6224894931
 20
-38.125168347
 30
0.0
 10
67.7283158019
 20
-38.1167480025
 30
0.0
 10
67.8858641036
 20
-38.0940586428
 30
0.0
 10
68.0415747713
 20
-38.0614137915
 30
0.0
 10
68.1948176642
 20
-38.0189527821
 30
0.0
 10
68.3449817382
 20
-37.966853837
 30
0.0
 10
68.4914674674
 20
-37.9053325294
 30
0.0
 10
68.6336918599
 20
-37.8346407884
 30
0.0
 10
68.7710890903
 20
-37.7550659909
 30
0.0
 10
68.9031130696
 20
-37.6669296202
 30
0.0
 10
69.0292390953
 20
-37.5705860633
 30
0.0
 10
69.148965898
 20
-37.4664210797
 30
0.0
 10
69.2618170463
 20
-37.3548506158
 30
0.0
 10
69.3673428624
 20
-37.2363190966
 30
0.0
 10
69.4651217793
 20
-37.1112980997
 30
0.0
 10
69.5547620905
 20
-36.9802844648
 30
0.0
 10
69.6359031743
 20
-36.8437989025
 30
0.0
 10
69.7082170661
 20
-36.7023839638
 30
0.0
 10
69.7714096887
 20
-36.5566024199
 30
0.0
 10
69.8252222513
 20
-36.4070346894
 30
0.0
 10
69.869432184
 20
-36.2542782006
 30
0.0
 10
69.9038542378
 20
-36.0989422133
 30
0.0
 10
69.9283417807
 20
-35.9416560368
 30
0.0
 10
69.9379701463
 20
-35.835928302
 30
0.0
 10
69.9411001305
 20
-35.7829651425
 30
0.0
 11
67.5694958924
 21
-38.1276934049
 31
0.0
 11
67.7281554447
 21
-38.1150670385
 31
0.0
 11
67.8855982227
 21
-38.0923922867
 31
0.0
 11
68.0412014571
 21
-38.0597685461
 31
0.0
 11
68.1943391667
 21
-38.0173356889
 31
0.0
 11
68.3443989591
 21
-37.9652718768
 31
0.0
 11
68.4907828899
 21
-37.9037924139
 31
0.0
 11
68.6329081108
 21
-37.833149151
 31
0.0
 11
68.7702094482
 21
-37.7536292071
 31
0.0
 11
68.9021409782
 21
-37.6655540126
 31
0.0
 11
69.0281787527
 21
-37.5692774908
 31
0.0
 11
69.1478216745
 21
-37.4651852925
 31
0.0
 11
69.2605939761
 21
-37.3536927958
 31
0.0
 11
69.3660460867
 21
-37.2352443171
 31
0.0
 11
69.4637570127
 21
-37.1103107729
 31
0.0
 11
69.5533351495
 21
-36.9793888369
 31
0.0
 11
69.6344203439
 21
-36.8429984714
 31
0.0
 11
69.7066846848
 21
-36.701682059
 31
0.0
 11
69.7698343631
 21
-36.5560017084
 31
0.0
 11
69.8236106497
 21
-36.4065377325
 31
0.0
 11
69.8677912663
 21
-36.2538859692
 31
0.0
 11
69.9021909746
 21
-36.0986571696
 31
0.0
 11
69.9266627993
 21
-35.9414757133
 31
0.0
 11
69.9411001305
 21
-35.7829651425
 31
0.0
  0
LINE
  5
339
100
AcDbEntity
  8
RACCORDO
100
AcDbLine
 62
253
  6
CONTINUOUS
 10
-93.0639840066
 20
-35.7829651325
 11
-88.47490912
 21
-36.0136580925
  0
SPLINE
  5
33A
100
AcDbEntity
  8
RACCORDO
100
AcDbSpline
 62
253
  6
CONTINUOUS
 70
0
 71
3
 72
21
 73
17
 74
15
 42
0.0000001
 43
0.0000001
 44
0.0000000001
 12
-4.827603383
 22
71.457013676
 32
0.0
 13
4.8276033684
 23
71.4570136769
 33
0.0
 40
0.0
 40
0.0
 40
0.0
 40
0.0
 40
0.0714344945
 40
0.142866984
 40
0.2142971759
 40
0.2857248151
 40
0.3571506034
 40
0.4285757288
 40
0.5000000041
 40
0.5714242764
 40
0.6428494044
 40
0.7142751908
 40
0.7857028306
 40
0.8571330233
 40
0.9285655096
 40
1.0
 40
1.0
 40
1.0
 40
1.0
 10
-93.0639840066
 20
-35.7829651325
 30
0.0
 10
-93.1789364757
 20
-34.0814665823
 30
0.0
 10
-93.3924010903
 20
-30.6773837814
 30
0.0
 10
-93.6632955794
 20
-25.5685042625
 30
0.0
 10
-93.884904685
 20
-20.457408693
 30
0.0
 10
-94.0572461004
 20
-15.3445762617
 30
0.0
 10
-94.1803358707
 20
-10.2304418046
 30
0.0
 10
-94.2541851999
 20
-5.1154398001
 30
0.0
 10
-94.2788008722
 20
-0.0000001352
 30
0.0
 10
-94.2541852018
 20
5.1154395919
 30
0.0
 10
-94.1803358759
 20
10.2304415404
 30
0.0
 10
-94.0572461069
 20
15.3445760286
 30
0.0
 10
-93.8849046946
 20
20.4574084486
 30
0.0
 10
-93.6632955926
 20
25.5685039748
 30
0.0
 10
-93.3924011159
 20
30.6773833391
 30
0.0
 10
-93.1789365135
 20
34.0814659655
 30
0.0
 10
-93.0639840513
 20
35.7829644185
 30
0.0
 11
-93.0639840066
 21
-35.7829651325
 31
0.0
 11
-93.3841874786
 21
-30.6768636631
 31
0.0
 11
-93.6550852915
 21
-25.568052887
 31
0.0
 11
-93.876696785
 21
-20.4570316753
 31
0.0
 11
-94.049039387
 21
-15.3442949409
 31
0.0
 11
-94.172129712
 21
-10.2302680086
 31
0.0
 11
-94.2459798564
 21
-5.1153405313
 31
0.0
 11
-94.2705956811
 21
-0.000000062
 31
0.0
 11
-94.2459798597
 21
5.1153401878
 31
0.0
 11
-94.172129715
 21
10.2302678516
 31
0.0
 11
-94.0490393955
 21
15.3442946488
 31
0.0
 11
-93.8766967946
 21
20.457031425
 31
0.0
 11
-93.6550853006
 21
25.5680526963
 31
0.0
 11
-93.3841875031
 21
30.676863241
 31
0.0
 11
-93.0639840513
 21
35.7829644185
 31
0.0
  0
SPLINE
  5
33B
100
AcDbEntity
  8
RACCORDO
100
AcDbSpline
 62
253
  6
CONTINUOUS
 70
0
 71
3
 72
16
 73
12
 74
10
 42
0.0000001
 43
0.0000001
 44
0.0000000001
 12
-2.2946036069
 22
1.5121533029
 32
0.0
 13
0.0000000607
 23
-0.0000000404
 33
0.0
 40
0.0
 40
0.0
 40
0.0
 40
0.0
 40
0.2097697028
 40
0.3949110892
 40
0.555401218
 40
0.6912248383
 40
0.8023707146
 40
0.8888275508
 40
0.9505883638
 40
0.9876467619
 40
1.0
 40
1.0
 40
1.0
 40
1.0
 10
-94.1946317993
 20
37.0193572601
 30
0.0
 10
-94.3550779048
 20
37.1250919097
 30
0.0
 10
-94.657118465
 20
37.3242204779
 30
0.0
 10
-95.0816811884
 20
37.604343385
 30
0.0
 10
-95.4499931315
 20
37.8475191607
 30
0.0
 10
-95.760623419
 20
38.0527301202
 30
0.0
 10
-96.0176051334
 20
38.2225844366
 30
0.0
 10
-96.2101845755
 20
38.3499179594
 30
0.0
 10
-96.3643986094
 20
38.451918683
 30
0.0
 10
-96.4271315499
 20
38.4934169399
 30
0.0
 10
-96.4878598491
 20
38.5335951562
 30
0.0
 10
-96.4878598488
 20
38.533595156
 30
0.0
 11
-94.1946317993
 21
37.0193572601
 31
0.0
 11
-94.6759096858
 21
37.336652889
 31
0.0
 11
-95.1005819763
 21
37.6168482951
 31
0.0
 11
-95.4686335532
 21
37.8598518083
 31
0.0
 11
-95.7800620496
 21
38.0655908796
 31
0.0
 11
-96.0348693636
 21
38.2340065777
 31
0.0
 11
-96.2330522778
 21
38.3650474492
 31
0.0
 11
-96.3746124538
 21
38.4586761754
 31
0.0
 11
-96.4595478786
 21
38.5148639558
 31
0.0
 11
-96.4878598488
 21
38.533595156
 31
0.0
  0
SPLINE
  5
33C
100
AcDbEntity
  8
RACCORDO
100
AcDbSpline
 62
253
  6
CONTINUOUS
 70
0
 71
3
 72
30
 73
26
 74
24
 42
0.0000001
 43
0.0000001
 44
0.0000000001
 12
0.0829185555
 22
1.2248260868
 32
0.0
 13
-1.0250326566
 23
0.6755608652
 33
0.0
 40
0.0
 40
0.0
 40
0.0
 40
0.0
 40
0.0676256782
 40
0.134654072
 40
0.2008195105
 40
0.265857173
 40
0.3295084239
 40
0.3915211243
 40
0.4516499948
 40
0.5096577758
 40
0.5653159294
 40
0.6184058318
 40
0.6687192283
 40
0.7160593944
 40
0.7602416606
 40
0.80109465
 40
0.8384609894
 40
0.8721987644
 40
0.9021828639
 40
0.928307583
 40
0.9504905487
 40
0.9686807797
 40
0.9828771635
 40
0.9931822264
 40
1.0
 40
1.0
 40
1.0
 40
1.0
 10
-94.1949714533
 20
35.7971609708
 30
0.0
 10
-94.1931023121
 20
35.824770869
 30
0.0
 10
-94.1895021794
 20
35.8797551256
 30
0.0
 10
-94.1845017525
 20
35.9617804428
 30
0.0
 10
-94.1799376419
 20
36.042770522
 30
0.0
 10
-94.1758280364
 20
36.1224011784
 30
0.0
 10
-94.1721893338
 20
36.2003536112
 30
0.0
 10
-94.16903606
 20
36.2763168038
 30
0.0
 10
-94.1663808202
 20
36.3499882523
 30
0.0
 10
-94.16423426
 20
36.4210748343
 30
0.0
 10
-94.1626050045
 20
36.4892940078
 30
0.0
 10
-94.1614996113
 20
36.5543747039
 30
0.0
 10
-94.1609225147
 20
36.6160583843
 30
0.0
 10
-94.160875963
 20
36.6740997838
 30
0.0
 10
-94.1613599509
 20
36.7282679367
 30
0.0
 10
-94.1623720716
 20
36.7783468708
 30
0.0
 10
-94.1639074896
 20
36.8241367526
 30
0.0
 10
-94.1659582481
 20
36.865454172
 30
0.0
 10
-94.1685141983
 20
36.9021349753
 30
0.0
 10
-94.1715579262
 20
36.9340305927
 30
0.0
 10
-94.1750762085
 20
36.9610264247
 30
0.0
 10
-94.1790198031
 20
36.9830029544
 30
0.0
 10
-94.1834043851
 20
36.9999806472
 30
0.0
 10
-94.1880584763
 20
37.0118716972
 30
0.0
 10
-94.1923023191
 20
37.0178219864
 30
0.0
 10
-94.1946317993
 20
37.0193572601
 30
0.0
 11
-94.1949714533
 21
35.7971609708
 31
0.0
 11
-94.1895485679
 21
35.880002952
 31
0.0
 11
-94.1845435435
 21
35.9621366365
 31
0.0
 11
-94.1799761908
 21
36.043234775
 31
0.0
 11
-94.1758648646
 21
36.1229710116
 31
0.0
 11
-94.1722260524
 21
36.2010263995
 31
0.0
 11
-94.1690743891
 21
36.2770897598
 31
0.0
 11
-94.1664226397
 21
36.3508580951
 31
0.0
 11
-94.1642816404
 21
36.4220379721
 31
0.0
 11
-94.162660267
 21
36.4903463289
 31
0.0
 11
-94.1615653911
 21
36.5555118674
 31
0.0
 11
-94.1610018647
 21
36.6172755114
 31
0.0
 11
-94.1609724914
 21
36.675391693
 31
0.0
 11
-94.1614780121
 21
36.7296287948
 31
0.0
 11
-94.1625170927
 21
36.7797703686
 31
0.0
 11
-94.1640863141
 21
36.8256155444
 31
0.0
 11
-94.1661801769
 21
36.8669800741
 31
0.0
 11
-94.1687910928
 21
36.9036967282
 31
0.0
 11
-94.1719094077
 21
36.9356162496
 31
0.0
 11
-94.175523413
 21
36.9626078431
 31
0.0
 11
-94.1796193849
 21
36.9845598496
 31
0.0
 11
-94.1841815751
 21
37.0013800207
 31
0.0
 11
-94.1891922036
 21
37.0129962313
 31
0.0
 11
-94.1946317993
 21
37.0193572601
 31
0.0
  0
LINE
  5
33D
100
AcDbEntity
  8
RACCORDO
100
AcDbLine
 62
253
  6
CONTINUOUS
 10
-96.3036642383
 20
24.0502187637
 11
-97.3225039932
 21
25.5068128642
  0
SPLINE
  5
33E
100
AcDbEntity
  8
RACCORDO
100
AcDbSpline
 62
253
  6
CONTINUOUS
 70
0
 71
3
 72
16
 73
12
 74
10
 42
0.0000001
 43
0.0000001
 44
0.0000000001
 12
-2.2946036069
 22
-1.5121533029
 32
0.0
 13
0.0000000707
 23
0.000000047
 33
0.0
 40
0.0
 40
0.0
 40
0.0
 40
0.0
 40
0.2097697029
 40
0.3949110895
 40
0.5554012182
 40
0.6912248384
 40
0.8023707146
 40
0.8888275508
 40
0.9505883638
 40
0.9876467619
 40
1.0
 40
1.0
 40
1.0
 40
1.0
 10
-94.1946317993
 20
-37.0193572601
 30
0.0
 10
-94.3550779049
 20
-37.1250919098
 30
0.0
 10
-94.6571184653
 20
-37.324220478
 30
0.0
 10
-95.0816811888
 20
-37.6043433852
 30
0.0
 10
-95.4499931318
 20
-37.8475191609
 30
0.0
 10
-95.7606234192
 20
-38.0527301203
 30
0.0
 10
-96.0176051335
 20
-38.2225844366
 30
0.0
 10
-96.2101845755
 20
-38.3499179594
 30
0.0
 10
-96.3643986093
 20
-38.451918683
 30
0.0
 10
-96.4271315497
 20
-38.4934169398
 30
0.0
 10
-96.4878598491
 20
-38.5335951562
 30
0.0
 10
-96.4878598488
 20
-38.533595156
 30
0.0
 11
-94.1946317993
 21
-37.0193572601
 31
0.0
 11
-94.6759096861
 21
-37.3366528892
 31
0.0
 11
-95.1005819768
 21
-37.6168482954
 31
0.0
 11
-95.4686335536
 21
-37.8598518086
 31
0.0
 11
-95.7800620498
 21
-38.0655908797
 31
0.0
 11
-96.0348693637
 21
-38.2340065778
 31
0.0
 11
-96.2330522777
 21
-38.3650474492
 31
0.0
 11
-96.3746124537
 21
-38.4586761753
 31
0.0
 11
-96.4595478785
 21
-38.5148639557
 31
0.0
 11
-96.4878598488
 21
-38.533595156
 31
0.0
  0
LINE
  5
33F
100
AcDbEntity
  8
RACCORDO
100
AcDbLine
 62
253
  6
CONTINUOUS
 10
-96.3036641723
 20
-24.0502188069
 11
-97.322503981
 21
-25.5068128467
  0
LINE
  5
340
100
AcDbEntity
  8
RACCORDO
100
AcDbLine
 62
253
  6
CONTINUOUS
 10
-93.0639840513
 20
35.7829644185
 11
-88.47490912
 21
36.0136580925
  0
SPLINE
  5
341
100
AcDbEntity
  8
RACCORDO
100
AcDbSpline
 62
253
  6
CONTINUOUS
 70
0
 71
3
 72
16
 73
12
 74
10
 42
0.0000001
 43
0.0000001
 44
0.0000000001
 12
-2.2918538051
 22
-1.5097034484
 32
0.0
 13
0.0000000195
 23
0.0000000134
 33
0.0
 40
0.0
 40
0.0
 40
0.0
 40
0.0
 40
0.2097695377
 40
0.3949110356
 40
0.5554012221
 40
0.691224867
 40
0.8023707465
 40
0.8888275748
 40
0.9505883765
 40
0.9876467655
 40
1.0
 40
1.0
 40
1.0
 40
1.0
 10
-93.0637455174
 20
-38.1276933915
 30
0.0
 10
-93.2239992218
 20
-38.2332566564
 30
0.0
 10
-93.5256779802
 20
-38.4320623355
 30
0.0
 10
-93.9497326427
 20
-38.7117305156
 30
0.0
 10
-94.3176043506
 20
-38.9545111805
 30
0.0
 10
-94.6278635432
 20
-39.1593883604
 30
0.0
 10
-94.8845384004
 20
-39.3289661519
 30
0.0
 10
-95.0768879634
 20
-39.4560922348
 30
0.0
 10
-95.230917975
 20
-39.5579266873
 30
0.0
 10
-95.2935760647
 20
-39.5993572816
 30
0.0
 10
-95.3542319147
 20
-39.6394699694
 30
0.0
 10
-95.3542319146
 20
-39.6394699694
 30
0.0
 11
-93.0637455174
 21
-38.1276933915
 31
0.0
 11
-93.5444465724
 21
-38.4444743406
 31
0.0
 11
-93.9686109291
 21
-38.7242150593
 31
0.0
 11
-94.3362225638
 21
-38.9668237347
 31
0.0
 11
-94.6472790053
 21
-39.1722281586
 31
0.0
 11
-94.9017820473
 21
-39.3403696727
 31
0.0
 11
-95.0997283928
 21
-39.4711970545
 31
0.0
 11
-95.2411196368
 21
-39.5646731604
 31
0.0
 11
-95.3259537217
 21
-39.6207693187
 31
0.0
 11
-95.3542319146
 21
-39.6394699694
 31
0.0
  0
SPLINE
  5
342
100
AcDbEntity
  8
RACCORDO
100
AcDbSpline
 62
253
  6
CONTINUOUS
 70
0
 71
3
 72
16
 73
12
 74
10
 42
0.0000001
 43
0.0000001
 44
0.0000000001
 12
-2.2918538529
 22
1.5097034797
 32
0.0
 13
0.0000000095
 23
-0.000000007
 33
0.0
 40
0.0
 40
0.0
 40
0.0
 40
0.0
 40
0.2097695541
 40
0.394911048
 40
0.5554012312
 40
0.6912248734
 40
0.8023707506
 40
0.8888275772
 40
0.9505883776
 40
0.9876467658
 40
1.0
 40
1.0
 40
1.0
 40
1.0
 10
-93.0637454696
 20
38.1276933601
 30
0.0
 10
-93.2239991899
 20
38.2332566353
 30
0.0
 10
-93.525677964
 20
38.4320623249
 30
0.0
 10
-93.9497326423
 20
38.7117305153
 30
0.0
 10
-94.3176043502
 20
38.9545111803
 30
0.0
 10
-94.627863543
 20
39.1593883603
 30
0.0
 10
-94.8845384003
 20
39.3289661518
 30
0.0
 10
-95.0768879634
 20
39.4560922348
 30
0.0
 10
-95.2309179751
 20
39.5579266873
 30
0.0
 10
-95.2935760648
 20
39.5993572817
 30
0.0
 10
-95.3542319146
 20
39.6394699694
 30
0.0
 10
-95.3542319146
 20
39.6394699694
 30
0.0
 11
-93.0637454696
 21
38.1276933601
 31
0.0
 11
-93.5444465721
 21
38.4444743404
 31
0.0
 11
-93.9686109286
 21
38.724215059
 31
0.0
 11
-94.3362225634
 21
38.9668237345
 31
0.0
 11
-94.6472790051
 21
39.1722281585
 31
0.0
 11
-94.9017820471
 21
39.3403696726
 31
0.0
 11
-95.0997283929
 21
39.4711970546
 31
0.0
 11
-95.2411196369
 21
39.5646731605
 31
0.0
 11
-95.3259537218
 21
39.6207693187
 31
0.0
 11
-95.3542319146
 21
39.6394699694
 31
0.0
  0
SPLINE
  5
343
100
AcDbEntity
  8
RACCORDO
100
AcDbSpline
 62
253
  6
CONTINUOUS
 70
0
 71
3
 72
30
 73
26
 74
24
 42
0.0000001
 43
0.0000001
 44
0.0000000001
 12
0.6164217626
 22
2.2626586168
 32
0.0
 13
-0.0300157181
 23
2.34493046
 33
0.0
 40
0.0
 40
0.0
 40
0.0
 40
0.0
 40
0.0054504524
 40
0.0151507496
 40
0.0290801216
 40
0.0471853615
 40
0.0693932984
 40
0.0956136013
 40
0.1257397628
 40
0.1596499296
 40
0.1972074423
 40
0.2382616781
 40
0.2826484148
 40
0.330190706
 40
0.3806992308
 40
0.4339733002
 40
0.4898012225
 40
0.5479613603
 40
0.6082225032
 40
0.6703450196
 40
0.7340815068
 40
0.7991779348
 40
0.8653739092
 40
0.9324032164
 40
1.0
 40
1.0
 40
1.0
 40
1.0
 10
-93.0637452765
 20
-38.1276934049
 30
0.0
 10
-93.0626253506
 20
-38.1235825672
 30
0.0
 10
-93.061358359
 20
-38.1117359187
 30
0.0
 10
-93.0595655804
 20
-38.0891175972
 30
0.0
 10
-93.0580585027
 20
-38.0565028606
 30
0.0
 10
-93.0566011558
 20
-38.0141348157
 30
0.0
 10
-93.0553370611
 20
-37.9621363799
 30
0.0
 10
-93.0542328684
 20
-37.9007406759
 30
0.0
 10
-93.0533126892
 20
-37.8301917604
 30
0.0
 10
-93.0525764783
 20
-37.7507784884
 30
0.0
 10
-93.0520297326
 20
-37.6628208071
 30
0.0
 10
-93.0516743433
 20
-37.5666725511
 30
0.0
 10
-93.0515118663
 20
-37.4627185896
 30
0.0
 10
-93.051542683
 20
-37.3513740345
 30
0.0
 10
-93.0517663672
 20
-37.2330823995
 30
0.0
 10
-93.0521816468
 20
-37.1083143113
 30
0.0
 10
-93.0527864693
 20
-36.9775656126
 30
0.0
 10
-93.0535780207
 20
-36.841355971
 30
0.0
 10
-93.0545527721
 20
-36.7002268673
 30
0.0
 10
-93.0557064527
 20
-36.5547398996
 30
0.0
 10
-93.0570342341
 20
-36.4054744864
 30
0.0
 10
-93.0585303083
 20
-36.2530262572
 30
0.0
 10
-93.0601890786
 20
-36.0980055404
 30
0.0
 10
-93.0620024129
 20
-35.9410318773
 30
0.0
 10
-93.0633074856
 20
-35.8358017281
 30
0.0
 10
-93.0639838076
 20
-35.7829651425
 30
0.0
 11
-93.0637452765
 21
-38.1276934049
 31
0.0
 11
-93.0617568455
 21
-38.1150670385
 31
0.0
 11
-93.0599279998
 21
-38.0923922867
 31
0.0
 11
-93.0582652824
 21
-38.0597685461
 31
0.0
 11
-93.05677536
 21
-38.0173356889
 31
0.0
 11
-93.0554636327
 21
-37.9652718768
 31
0.0
 11
-93.0543348835
 21
-37.9037924139
 31
0.0
 11
-93.0533930571
 21
-37.833149151
 31
0.0
 11
-93.052641325
 21
-37.7536292071
 31
0.0
 11
-93.0520820653
 21
-37.6655540126
 31
0.0
 11
-93.0517168679
 21
-37.5692774908
 31
0.0
 11
-93.0515465433
 21
-37.4651852925
 31
0.0
 11
-93.0515711288
 21
-37.3536927958
 31
0.0
 11
-93.0517899003
 21
-37.2352443171
 31
0.0
 11
-93.0522013846
 21
-37.1103107729
 31
0.0
 11
-93.0528033725
 21
-36.9793888369
 31
0.0
 11
-93.053592937
 21
-36.8429984714
 31
0.0
 11
-93.0545664487
 21
-36.701682059
 31
0.0
 11
-93.0557195921
 21
-36.5560017084
 31
0.0
 11
-93.0570474078
 21
-36.4065377325
 31
0.0
 11
-93.0585442406
 21
-36.2538859692
 31
0.0
 11
-93.0602039982
 21
-36.0986571696
 31
0.0
 11
-93.0620194654
 21
-35.9414757133
 31
0.0
 11
-93.0639838076
 21
-35.7829651425
 31
0.0
  0
SPLINE
  5
344
100
AcDbEntity
  8
RACCORDO
100
AcDbSpline
 62
253
  6
CONTINUOUS
 70
0
 71
3
 72
30
 73
26
 74
24
 42
0.0000001
 43
0.0000001
 44
0.0000000001
 12
0.0300214945
 22
2.344931067
 32
0.0
 13
-0.6163121505
 23
2.2626891816
 33
0.0
 40
0.0
 40
0.0
 40
0.0
 40
0.0
 40
0.0675973379
 40
0.134626576
 40
0.2008225597
 40
0.2659189561
 40
0.3296554224
 40
0.3917779197
 40
0.4520390439
 40
0.5101991596
 40
0.5660270597
 40
0.619301106
 40
0.6698096068
 40
0.7173518722
 40
0.7617385817
 40
0.8027927901
 40
0.8403502757
 40
0.8742604162
 40
0.9043865508
 40
0.9306068289
 40
0.9528147432
 40
0.9709199644
 40
0.9848493098
 40
0.9945495944
 40
1.0
 40
1.0
 40
1.0
 40
1.0
 10
-93.0639838151
 20
35.7829644303
 30
0.0
 10
-93.0633073574
 20
35.8358014629
 30
0.0
 10
-93.0620025263
 20
35.9410320249
 30
0.0
 10
-93.0601890656
 20
36.0980061187
 30
0.0
 10
-93.058530341
 20
36.2530268095
 30
0.0
 10
-93.0570342508
 20
36.4054750491
 30
0.0
 10
-93.0557064746
 20
36.5547404497
 30
0.0
 10
-93.0545527911
 20
36.7002274137
 30
0.0
 10
-93.0535780385
 20
36.8413565116
 30
0.0
 10
-93.0527864844
 20
36.9775661434
 30
0.0
 10
-93.0521816587
 20
37.1083148274
 30
0.0
 10
-93.051766375
 20
37.2330828977
 30
0.0
 10
-93.0515426859
 20
37.35137451
 30
0.0
 10
-93.0515118639
 20
37.4627190373
 30
0.0
 10
-93.0516743358
 20
37.5666729661
 30
0.0
 10
-93.0520297209
 20
37.6628211862
 30
0.0
 10
-93.0525764634
 20
37.7507788298
 30
0.0
 10
-93.0533126706
 20
37.8301920624
 30
0.0
 10
-93.054232851
 20
37.9007409368
 30
0.0
 10
-93.0553370335
 20
37.9621366025
 30
0.0
 10
-93.0566011531
 20
38.0141349964
 30
0.0
 10
-93.0580584339
 20
38.0565030147
 30
0.0
 10
-93.0595656682
 20
38.0891176799
 30
0.0
 10
-93.0613581321
 20
38.1117360168
 30
0.0
 10
-93.0626255515
 20
38.1235825122
 30
0.0
 10
-93.0637452686
 20
38.1276933701
 30
0.0
 11
-93.0639838151
 21
35.7829644303
 31
0.0
 11
-93.0620194913
 21
35.9414763475
 31
0.0
 11
-93.0602040134
 21
36.098657687
 31
0.0
 11
-93.0585442629
 21
36.2538865536
 31
0.0
 11
-93.057047428
 21
36.4065382872
 31
0.0
 11
-93.0557196126
 21
36.5560022575
 31
0.0
 11
-93.054566468
 21
36.7016826055
 31
0.0
 11
-93.0535929545
 21
36.8429990151
 31
0.0
 11
-93.0528033874
 21
36.9793893684
 31
0.0
 11
-93.0522013962
 21
37.1103112902
 31
0.0
 11
-93.0517899078
 21
37.2352448166
 31
0.0
 11
-93.0515711314
 21
37.3536932735
 31
0.0
 11
-93.0515465407
 21
37.465185742
 31
0.0
 11
-93.0517168604
 21
37.5692779067
 31
0.0
 11
-93.0520820536
 21
37.6655543923
 31
0.0
 11
-93.0526413099
 21
37.7536295488
 31
0.0
 11
-93.0533930394
 21
37.8331494541
 31
0.0
 11
-93.0543348639
 21
37.9037926746
 31
0.0
 11
-93.0554636117
 21
37.9652720971
 31
0.0
 11
-93.0567753394
 21
38.0173358714
 31
0.0
 11
-93.0582652598
 21
38.059768697
 31
0.0
 11
-93.0599279841
 21
38.0923923842
 31
0.0
 11
-93.0617568192
 21
38.115067114
 31
0.0
 11
-93.0637452686
 21
38.1276933701
 31
0.0
  0
SPLINE
  5
345
100
AcDbEntity
  8
RACCORDO
100
AcDbSpline
 62
253
  6
CONTINUOUS
 70
0
 71
3
 72
25
 73
21
 74
19
 42
0.0000001
 43
0.0000001
 44
0.0000000001
 12
0.9421656181
 22
-0.6302818444
 32
0.0
 13
1.1311955556
 23
0.0729922622
 33
0.0
 40
0.0
 40
0.0
 40
0.0
 40
0.0
 40
0.0106241359
 40
0.0275112125
 40
0.0508038836
 40
0.0804417656
 40
0.1162766035
 40
0.1581018197
 40
0.2056636216
 40
0.2586667123
 40
0.3167781371
 40
0.3796304527
 40
0.4468246736
 40
0.5179331897
 40
0.5925027393
 40
0.6700574698
 40
0.7501020978
 40
0.8321251635
 40
0.9156023713
 40
1.0
 40
1.0
 40
1.0
 40
1.0
 10
-94.1949714497
 20
-35.7971609705
 30
0.0
 10
-94.1916348846
 20
-35.7993930372
 30
0.0
 10
-94.1815642209
 20
-35.8027183487
 30
0.0
 10
-94.1628155666
 20
-35.806466324
 30
0.0
 10
-94.1365714273
 20
-35.8096715637
 30
0.0
 10
-94.1031503231
 20
-35.8123483084
 30
0.0
 10
-94.0626498128
 20
-35.81440901
 30
0.0
 10
-94.0153562042
 20
-35.8158395131
 30
0.0
 10
-93.9615573428
 20
-35.8166169705
 30
0.0
 10
-93.9016006774
 20
-35.8167330146
 30
0.0
 10
-93.8358686786
 20
-35.8161831873
 30
0.0
 10
-93.7647829302
 20
-35.8149691029
 30
0.0
 10
-93.6887990378
 20
-35.8130970804
 30
0.0
 10
-93.6084042965
 20
-35.8105781499
 30
0.0
 10
-93.5241143125
 20
-35.8074277532
 30
0.0
 10
-93.4364697312
 20
-35.8036655842
 30
0.0
 10
-93.3460327383
 20
-35.7993154001
 30
0.0
 10
-93.2533834398
 20
-35.794404835
 30
0.0
 10
-93.1591161724
 20
-35.7889652021
 30
0.0
 10
-93.0958071742
 20
-35.7850224109
 30
0.0
 10
-93.0639837667
 20
-35.782968953
 30
0.0
 11
-94.1949714497
 21
-35.7971609705
 31
0.0
 11
-94.1838445734
 21
-35.8017681086
 31
0.0
 11
-94.1651308271
 21
-35.8057959938
 31
0.0
 11
-94.1389502609
 21
-35.8092187869
 31
0.0
 11
-94.1054708249
 21
-35.8120145305
 31
0.0
 11
-94.0649072918
 21
-35.8141652897
 31
0.0
 11
-94.0175198796
 21
-35.8156572673
 31
0.0
 11
-93.9636125818
 21
-35.816480892
 31
0.0
 11
-93.9035312172
 21
-35.8166308803
 31
0.0
 11
-93.837661212
 21
-35.81610627
 31
0.0
 11
-93.7664251268
 21
-35.8149104265
 31
0.0
 11
-93.6902799459
 21
-35.8130510212
 31
0.0
 11
-93.6097141458
 21
-35.8105399824
 31
0.0
 11
-93.5252445616
 21
-35.8073934185
 31
0.0
 11
-93.4374130714
 21
-35.803631515
 31
0.0
 11
-93.3467831203
 21
-35.7992784046
 31
0.0
 11
-93.2539361056
 21
-35.794362013
 31
0.0
 11
-93.1594676472
 21
-35.7889138791
 31
0.0
 11
-93.0639837667
 21
-35.782968953
 31
0.0
  0
SPLINE
  5
346
100
AcDbEntity
  8
RACCORDO
100
AcDbSpline
 62
253
  6
CONTINUOUS
 70
0
 71
3
 72
25
 73
21
 74
19
 42
0.0000001
 43
0.0000001
 44
0.0000000001
 12
0.9421657191
 22
0.6302817032
 32
0.0
 13
1.1311955609
 23
-0.0729922653
 33
0.0
 40
0.0
 40
0.0
 40
0.0
 40
0.0
 40
0.0106241375
 40
0.0275112157
 40
0.0508038882
 40
0.0804417714
 40
0.1162766102
 40
0.1581018271
 40
0.2056636295
 40
0.2586667203
 40
0.3167781452
 40
0.3796304606
 40
0.446824681
 40
0.5179331964
 40
0.5925027453
 40
0.6700574749
 40
0.7501021017
 40
0.8321251662
 40
0.9156023727
 40
1.0
 40
1.0
 40
1.0
 40
1.0
 10
-94.1949714532
 20
35.7971609708
 30
0.0
 10
-94.1916348871
 20
35.7993930373
 30
0.0
 10
-94.1815642222
 20
35.8027183487
 30
0.0
 10
-94.1628155659
 20
35.806466324
 30
0.0
 10
-94.136571425
 20
35.8096715636
 30
0.0
 10
-94.1031503193
 20
35.8123483081
 30
0.0
 10
-94.0626498077
 20
35.8144090096
 30
0.0
 10
-94.0153561982
 20
35.8158395126
 30
0.0
 10
-93.961557336
 20
35.8166169698
 30
0.0
 10
-93.9016006701
 20
35.8167330137
 30
0.0
 10
-93.835868671
 20
35.8161831863
 30
0.0
 10
-93.7647829224
 20
35.8149691017
 30
0.0
 10
-93.6887990302
 20
35.8130970791
 30
0.0
 10
-93.6084042892
 20
35.8105781483
 30
0.0
 10
-93.5241143057
 20
35.8074277514
 30
0.0
 10
-93.4364697251
 20
35.8036655823
 30
0.0
 10
-93.346032733
 20
35.7993153981
 30
0.0
 10
-93.2533834353
 20
35.7944048328
 30
0.0
 10
-93.1591161691
 20
35.7889651997
 30
0.0
 10
-93.0958071716
 20
35.7850224084
 30
0.0
 10
-93.0639837645
 20
35.7829689504
 30
0.0
 11
-94.1949714532
 21
35.7971609708
 31
0.0
 11
-94.1838445747
 21
35.8017681088
 31
0.0
 11
-94.1651308265
 21
35.8057959938
 31
0.0
 11
-94.1389502585
 21
35.8092187868
 31
0.0
 11
-94.105470821
 21
35.8120145303
 31
0.0
 11
-94.0649072867
 21
35.8141652894
 31
0.0
 11
-94.0175198735
 21
35.8156572667
 31
0.0
 11
-93.9636125749
 21
35.8164808913
 31
0.0
 11
-93.9035312098
 21
35.8166308794
 31
0.0
 11
-93.8376612043
 21
35.816106269
 31
0.0
 11
-93.766425119
 21
35.8149104253
 31
0.0
 11
-93.6902799382
 21
35.8130510199
 31
0.0
 11
-93.6097141384
 21
35.8105399809
 31
0.0
 11
-93.5252445547
 21
35.8073934168
 31
0.0
 11
-93.4374130652
 21
35.8036315131
 31
0.0
 11
-93.346783115
 21
35.7992784025
 31
0.0
 11
-93.2539361012
 21
35.7943620107
 31
0.0
 11
-93.1594676438
 21
35.7889138766
 31
0.0
 11
-93.0639837645
 21
35.7829689504
 31
0.0
  0
SPLINE
  5
347
100
AcDbEntity
  8
RACCORDO
100
AcDbSpline
 62
253
  6
CONTINUOUS
 70
0
 71
3
 72
25
 73
21
 74
19
 42
0.0000001
 43
0.0000001
 44
0.0000000001
 12
0.1327703209
 22
1.7229120428
 32
0.0
 13
1.7253520269
 23
0.0959908781
 33
0.0
 40
0.0
 40
0.0
 40
0.0
 40
0.0
 40
0.0555527116
 40
0.1111164574
 40
0.1666895579
 40
0.2222700953
 40
0.2778559623
 40
0.3334449155
 40
0.3890346333
 40
0.4446227744
 40
0.5002070377
 40
0.5557852208
 40
0.6113552765
 40
0.6669153643
 40
0.7224638982
 40
0.7779995869
 40
0.833521467
 40
0.889028928
 40
0.9445217279
 40
1.0
 40
1.0
 40
1.0
 40
1.0
 10
-94.1946317979
 20
37.01935726
 30
0.0
 10
-94.1921732141
 20
37.0512614053
 30
0.0
 10
-94.1847006025
 20
37.1149086813
 30
0.0
 10
-94.1659093973
 20
37.2091653043
 30
0.0
 10
-94.1396528485
 20
37.3016439219
 30
0.0
 10
-94.1060998522
 20
37.391743977
 30
0.0
 10
-94.0654652584
 20
37.4788903333
 30
0.0
 10
-94.0180094882
 20
37.5625240542
 30
0.0
 10
-93.9640365987
 20
37.6421094383
 30
0.0
 10
-93.9038924079
 20
37.7171365213
 30
0.0
 10
-93.8379622623
 20
37.7871245886
 30
0.0
 10
-93.766668575
 20
37.8516251864
 30
0.0
 10
-93.6904681258
 20
37.9102250113
 30
0.0
 10
-93.6098491209
 20
37.9625485535
 30
0.0
 10
-93.5253281362
 20
38.0082605007
 30
0.0
 10
-93.4374465607
 20
38.0470679016
 30
0.0
 10
-93.3467680642
 20
38.0787219935
 30
0.0
 10
-93.2538715102
 20
38.103019992
 30
0.0
 10
-93.1593602244
 20
38.1198056738
 30
0.0
 10
-93.0956517443
 20
38.1259180536
 30
0.0
 10
-93.0637452279
 20
38.1276931896
 30
0.0
 11
-94.1946317979
 21
37.01935726
 31
0.0
 11
-94.1834381602
 21
37.114698618
 31
0.0
 11
-94.1646670505
 21
37.2088611299
 31
0.0
 11
-94.1384387544
 21
37.3012413994
 31
0.0
 11
-94.1049213439
 21
37.3912474507
 31
0.0
 11
-94.0643295994
 21
37.4783025222
 31
0.0
 11
-94.0169236342
 21
37.5618487623
 31
0.0
 11
-93.9630072272
 21
37.6413508041
 31
0.0
 11
-93.9029258764
 21
37.716299196
 31
0.0
 11
-93.8370645851
 21
37.7862136663
 31
0.0
 11
-93.7658453944
 21
37.8506462009
 31
0.0
 11
-93.6897246791
 21
37.909183914
 31
0.0
 11
-93.6091902233
 21
37.9614516943
 31
0.0
 11
-93.5247580942
 21
38.007114608
 31
0.0
 11
-93.4369693356
 21
38.0458800458
 31
0.0
 11
-93.3463865005
 21
38.0774995976
 31
0.0
 11
-93.2535900468
 21
38.1017706442
 31
0.0
 11
-93.1591746169
 21
38.1185376561
 31
0.0
 11
-93.0637452279
 21
38.1276931896
 31
0.0
  0
LINE
  5
348
100
AcDbEntity
  8
RACCORDO
100
AcDbLine
 62
253
  6
CONTINUOUS
 10
-93.0637455165
 20
-38.1276933929
 11
-88.47490912
 21
-38.3574515641
  0
SPLINE
  5
349
100
AcDbEntity
  8
RACCORDO
100
AcDbSpline
 62
253
  6
CONTINUOUS
 70
0
 71
3
 72
25
 73
21
 74
19
 42
0.0000001
 43
0.0000001
 44
0.0000000001
 12
0.1327703647
 22
-1.7229120038
 32
0.0
 13
1.7253519921
 23
-0.0959908634
 33
0.0
 40
0.0
 40
0.0
 40
0.0
 40
0.0
 40
0.0555527113
 40
0.1111164568
 40
0.1666895571
 40
0.2222700943
 40
0.277855961
 40
0.3334449141
 40
0.3890346318
 40
0.4446227728
 40
0.500207036
 40
0.5557852192
 40
0.6113552749
 40
0.6669153628
 40
0.7224638969
 40
0.7779995858
 40
0.8335214662
 40
0.8890289274
 40
0.9445217276
 40
1.0
 40
1.0
 40
1.0
 40
1.0
 10
-94.1946317992
 20
-37.0193572601
 30
0.0
 10
-94.1921732147
 20
-37.0512614045
 30
0.0
 10
-94.1847006015
 20
-37.1149086787
 30
0.0
 10
-94.1659093943
 20
-37.2091652988
 30
0.0
 10
-94.1396528438
 20
-37.3016439134
 30
0.0
 10
-94.1060998459
 20
-37.3917439654
 30
0.0
 10
-94.0654652509
 20
-37.4788903186
 30
0.0
 10
-94.0180094797
 20
-37.5625240363
 30
0.0
 10
-93.9640365895
 20
-37.6421094173
 30
0.0
 10
-93.9038923983
 20
-37.7171364972
 30
0.0
 10
-93.8379622526
 20
-37.7871245616
 30
0.0
 10
-93.7666685654
 20
-37.8516251566
 30
0.0
 10
-93.6904681164
 20
-37.9102249788
 30
0.0
 10
-93.6098491121
 20
-37.9625485184
 30
0.0
 10
-93.525328128
 20
-38.0082604633
 30
0.0
 10
-93.4374465534
 20
-38.0470678622
 30
0.0
 10
-93.346768058
 20
-38.0787219523
 30
0.0
 10
-93.2538715052
 20
-38.1030199493
 30
0.0
 10
-93.1593602207
 20
-38.1198056299
 30
0.0
 10
-93.0956517415
 20
-38.1259180091
 30
0.0
 10
-93.0637452256
 20
-38.1276931448
 30
0.0
 11
-94.1946317992
 21
-37.0193572601
 31
0.0
 11
-94.1834381593
 21
-37.1146986154
 31
0.0
 11
-94.1646670475
 21
-37.2088611244
 31
0.0
 11
-94.1384387497
 21
-37.3012413908
 31
0.0
 11
-94.1049213377
 21
-37.3912474391
 31
0.0
 11
-94.064329592
 21
-37.4783025075
 31
0.0
 11
-94.0169236258
 21
-37.5618487444
 31
0.0
 11
-93.9630072181
 21
-37.6413507831
 31
0.0
 11
-93.902925867
 21
-37.7162991719
 31
0.0
 11
-93.8370645754
 21
-37.7862136393
 31
0.0
 11
-93.7658453848
 21
-37.850646171
 31
0.0
 11
-93.6897246699
 21
-37.9091838815
 31
0.0
 11
-93.6091902145
 21
-37.9614516593
 31
0.0
 11
-93.5247580861
 21
-38.0071145707
 31
0.0
 11
-93.4369693284
 21
-38.0458800065
 31
0.0
 11
-93.3463864944
 21
-38.0774995564
 31
0.0
 11
-93.2535900418
 21
-38.1017706016
 31
0.0
 11
-93.1591746132
 21
-38.1185376122
 31
0.0
 11
-93.0637452256
 21
-38.1276931448
 31
0.0
  0
LINE
  5
34A
100
AcDbEntity
  8
RACCORDO
100
AcDbLine
 62
253
  6
CONTINUOUS
 10
-93.0637454696
 20
38.1276933601
 11
-88.47490912
 21
38.3574515641
  0
SPLINE
  5
34B
100
AcDbEntity
  8
RACCORDO
100
AcDbSpline
 62
253
  6
CONTINUOUS
 70
0
 71
3
 72
21
 73
17
 74
15
 42
0.0000001
 43
0.0000001
 44
0.0000000001
 12
-4.8394229573
 22
71.4849158284
 32
0.0
 13
4.8394229514
 23
71.4849158288
 33
0.0
 40
0.0
 40
0.0
 40
0.0
 40
0.0
 40
0.0714350832
 40
0.142867755
 40
0.2142979788
 40
0.2857255244
 40
0.357151126
 40
0.4285760023
 40
0.4999999971
 40
0.571423989
 40
0.6428488679
 40
0.7142744677
 40
0.7857020139
 40
0.8571322386
 40
0.9285649071
 40
1.0
 40
1.0
 40
1.0
 40
1.0
 10
-94.1949714533
 20
-35.7971609708
 30
0.0
 10
-94.3102063138
 20
-34.094984001
 30
0.0
 10
-94.5241950012
 20
-30.6895489639
 30
0.0
 10
-94.7957548117
 20
-25.578636793
 30
0.0
 10
-95.0179079366
 20
-20.4655141852
 30
0.0
 10
-95.190672434
 20
-15.3506550311
 30
0.0
 10
-95.3140643717
 20
-10.2344941856
 30
0.0
 10
-95.3880949904
 20
-5.1174660063
 30
0.0
 10
-95.4127710911
 20
-0.0000002773
 30
0.0
 10
-95.3880949951
 20
5.117465515
 30
0.0
 10
-95.3140643823
 20
10.234493642
 30
0.0
 10
-95.1906724485
 20
15.3506545222
 30
0.0
 10
-95.0179079567
 20
20.4655136693
 30
0.0
 10
-94.7957548384
 20
25.5786362351
 30
0.0
 10
-94.5241950242
 20
30.6895485804
 30
0.0
 10
-94.3102063293
 20
34.0949837699
 30
0.0
 10
-94.1949714533
 20
35.7971609708
 30
0.0
 11
-94.1949714533
 21
-35.7971609708
 31
0.0
 11
-94.5159619032
 21
-30.6890170107
 31
0.0
 11
-94.7875246261
 21
-25.5781800206
 31
0.0
 11
-95.0096800621
 21
-20.4651327223
 31
0.0
 11
-95.1824456708
 21
-15.3503703986
 31
0.0
 11
-95.3058381124
 21
-10.2343181798
 31
0.0
 11
-95.379869516
 21
-5.1173656246
 31
0.0
 11
-95.4045457589
 21
-0.0000002053
 31
0.0
 11
-95.3798695221
 21
5.117364998
 31
0.0
 11
-95.3058381208
 21
10.2343177434
 31
0.0
 11
-95.1824456872
 21
15.3503698309
 31
0.0
 11
-95.0096800823
 21
20.4651321996
 31
0.0
 11
-94.7875246482
 21
25.5781795633
 31
0.0
 11
-94.5159619434
 21
30.6890163171
 31
0.0
 11
-94.1949714533
 21
35.7971609708
 31
0.0
  0
SPLINE
  5
34C
100
AcDbEntity
  8
RACCORDO
100
AcDbSpline
 62
253
  6
CONTINUOUS
 70
0
 71
3
 72
30
 73
26
 74
24
 42
0.0000001
 43
0.0000001
 44
0.0000000001
 12
1.0250292739
 22
0.6755659963
 32
0.0
 13
-0.0829185938
 23
1.2248260833
 33
0.0
 40
0.0
 40
0.0
 40
0.0
 40
0.0
 40
0.0068178086
 40
0.0171228859
 40
0.0313192887
 40
0.0495095341
 40
0.0716925152
 40
0.0978172517
 40
0.1278013691
 40
0.1615391606
 40
0.1989055161
 40
0.2397585211
 40
0.2839408018
 40
0.3312809801
 40
0.3815943862
 40
0.4346842966
 40
0.4903424566
 40
0.5483502434
 40
0.6084791156
 40
0.6704918177
 40
0.7341430713
 40
0.7991807475
 40
0.8653461571
 40
0.9323746026
 40
1.0
 40
1.0
 40
1.0
 40
1.0
 10
-94.1946317993
 20
-37.0193572601
 30
0.0
 10
-94.1923023148
 20
-37.0178219669
 30
0.0
 10
-94.1880584518
 20
-37.0118716743
 30
0.0
 10
-94.183404374
 20
-36.9999805817
 30
0.0
 10
-94.1790197839
 20
-36.983002875
 30
0.0
 10
-94.1750761952
 20
-36.9610263222
 30
0.0
 10
-94.1715579128
 20
-36.9340304714
 30
0.0
 10
-94.1685141873
 20
-36.9021348327
 30
0.0
 10
-94.1659582387
 20
-36.8654540083
 30
0.0
 10
-94.1639074822
 20
-36.824136568
 30
0.0
 10
-94.1623720664
 20
-36.7783466664
 30
0.0
 10
-94.1613599478
 20
-36.7282677134
 30
0.0
 10
-94.1608759621
 20
-36.6740995433
 30
0.0
 10
-94.160922516
 20
-36.6160581289
 30
0.0
 10
-94.1614996148
 20
-36.5543744364
 30
0.0
 10
-94.1626050101
 20
-36.4892937305
 30
0.0
 10
-94.1642342676
 20
-36.4210745488
 30
0.0
 10
-94.1663808297
 20
-36.3499879613
 30
0.0
 10
-94.1690360712
 20
-36.2763165091
 30
0.0
 10
-94.1721893467
 20
-36.2003533141
 30
0.0
 10
-94.1758280509
 20
-36.1224008741
 30
0.0
 10
-94.1799376581
 20
-36.0427702229
 30
0.0
 10
-94.1845017699
 20
-35.9617801289
 30
0.0
 10
-94.1895021937
 20
-35.8797549173
 30
0.0
 10
-94.193102319
 20
-35.8247707543
 30
0.0
 10
-94.1949714533
 20
-35.7971609708
 30
0.0
 11
-94.1946317993
 21
-37.0193572601
 31
0.0
 11
-94.1891921808
 21
-37.0129961941
 31
0.0
 11
-94.1841815583
 21
-37.0013799617
 31
0.0
 11
-94.1796193673
 21
-36.9845597668
 31
0.0
 11
-94.1755233981
 21
-36.9626077418
 31
0.0
 11
-94.1719093946
 21
-36.9356161289
 31
0.0
 11
-94.1687910815
 21
-36.903696586
 31
0.0
 11
-94.1661801673
 21
-36.8669799097
 31
0.0
 11
-94.1640863066
 21
-36.8256153597
 31
0.0
 11
-94.1625170873
 21
-36.779770164
 31
0.0
 11
-94.1614780089
 21
-36.7296285711
 31
0.0
 11
-94.1609724904
 21
-36.6753914515
 31
0.0
 11
-94.161001866
 21
-36.6172752549
 31
0.0
 11
-94.1615653945
 21
-36.5555115992
 31
0.0
 11
-94.1626602725
 21
-36.490346051
 31
0.0
 11
-94.1642816479
 21
-36.4220376863
 31
0.0
 11
-94.1664226491
 21
-36.3508578024
 31
0.0
 11
-94.1690744003
 21
-36.2770894652
 31
0.0
 11
-94.1722260652
 21
-36.2010261029
 31
0.0
 11
-94.175864879
 21
-36.1229707117
 31
0.0
 11
-94.1799762077
 21
-36.0432344585
 31
0.0
 11
-94.1845435594
 21
-35.9621363555
 31
0.0
 11
-94.1895485898
 21
-35.8800026079
 31
0.0
 11
-94.1949714533
 21
-35.7971609708
 31
0.0
  0
LINE
  5
34D
100
AcDbEntity
  8
RACCORDO
100
AcDbLine
 62
253
  6
CONTINUOUS
 10
-96.3036642381
 20
24.0502187637
 11
-96.3058998456
 21
24.0037106024
  0
LINE
  5
34E
100
AcDbEntity
  8
RACCORDO
100
AcDbLine
 62
253
  6
CONTINUOUS
 10
-96.3058998387
 20
-24.0037107278
 11
-96.3036642374
 21
-24.0502187605
  0
ELLIPSE
  5
34F
100
AcDbEntity
  8
RACCORDO
100
AcDbEllipse
 62
7
  6
CONTINUOUS
 10
-528.7499925308
 20
558.5026341735
 30
0.0
 11
-0.0
 21
932.3548852481
 31
0.0
 40
0.8007313262
 41
-2.2083656276
 42
-2.2081960426
  0
ELLIPSE
  5
350
100
AcDbEntity
  8
RACCORDO
100
AcDbEllipse
 62
7
  6
CONTINUOUS
 10
-528.7499925308
 20
-558.5026341735
 30
0.0
 11
-0.0
 21
932.3548852481
 31
0.0
 40
0.8007313262
 41
-0.933396611
 42
-0.933227026
  0
ELLIPSE
  5
351
100
AcDbEntity
  8
RACCORDO
100
AcDbEllipse
 62
7
  6
CONTINUOUS
 10
528.7499925308
 20
-558.5026341735
 30
0.0
 11
-0.0
 21
932.3548852481
 31
0.0
 40
0.8007313262
 41
0.933227026
 42
0.933396611
  0
ELLIPSE
  5
352
100
AcDbEntity
  8
RACCORDO
100
AcDbEllipse
 62
7
  6
CONTINUOUS
 10
528.7499925308
 20
558.5026341735
 30
0.0
 11
-0.0
 21
932.3548852481
 31
0.0
 40
0.8007313262
 41
-4.0749892646
 42
-4.0748196796
  0
ELLIPSE
  5
353
100
AcDbEntity
  8
0
100
AcDbEllipse
 62
7
  6
CONTINUOUS
 10
-44.6999543016
 20
-22.1999543016
 30
0.0
 11
0.2121966568
 21
0.2121966568
 31
0.0
 40
0.9996954599
 41
-3.9268385237
 42
-2.3563467834
  0
ELLIPSE
  5
354
100
AcDbEntity
  8
0
100
AcDbEllipse
 62
7
  6
CONTINUOUS
 10
44.6999543016
 20
-22.1999543016
 30
0.0
 11
-0.2121966568
 21
0.2121966568
 31
0.0
 40
0.9996954599
 41
2.3563467834
 42
3.9268385237
  0
ELLIPSE
  5
355
100
AcDbEntity
  8
0
100
AcDbEllipse
 62
7
  6
CONTINUOUS
 10
44.6999543016
 20
22.1999543016
 30
0.0
 11
0.2121966568
 21
0.2121966567
 31
0.0
 40
0.9996954599
 41
-0.7852458701
 42
0.7852458702
  0
ELLIPSE
  5
356
100
AcDbEntity
  8
0
100
AcDbEllipse
 62
7
  6
CONTINUOUS
 10
-44.6999543016
 20
22.1999543016
 30
0.0
 11
0.2121966568
 21
-0.2121966568
 31
-0.0
 40
0.9996954599
 41
2.3563467834
 42
3.9268385237
  0
ENDSEC
  0
SECTION
  2
OBJECTS
  0
DICTIONARY
  5
C
100
AcDbDictionary
280
0
281
1
  3
ACAD_GROUP
350
D
  3
ACAD_MLINESTYLE
350
17
  3
ACAD_LAYOUT
350
1A
  3
ACAD_PLOTSETTINGS
350
19
  3
ACAD_PLOTSTYLENAME
350
E
  0
DICTIONARY
  5
D
102
{ACAD_REACTORS
330
C
102
}
100
AcDbDictionary
280
0
281
1
  0
ACDBDICTIONARYWDFLT
  5
E
102
{ACAD_REACTORS
330
C
102
}
100
AcDbDictionary
281
1
  3
Normal
350
F
100
AcDbDictionaryWithDefault
340
F
  0
DICTIONARY
  5
17
102
{ACAD_REACTORS
330
C
102
}
100
AcDbDictionary
280
0
281
1
  3
Standard
350
18
  0
DICTIONARY
  5
19
102
{ACAD_REACTORS
330
C
102
}
100
AcDbDictionary
281
1
  0
DICTIONARY
  5
1A
102
{ACAD_REACTORS
330
C
102
}
100
AcDbDictionary
281
1
  3
Model
350
357
  3
Layout1
350
358
  0
ACDBPLACEHOLDER
  5
F
102
{ACAD_REACTORS
330
E
102
}
  0
MLINESTYLE
  5
18
102
{ACAD_REACTORS
330
17
102
}
100
AcDbMlineStyle
  2
STANDARD
 70
0
  3

 62
256
 51
90.0
 52
90.0
 71
2
 49
0.5
 62
256
  6
BYLAYER
 49
-0.5
 62
256
  6
BYLAYER
  0
LAYOUT
  5
357
102
{ACAD_REACTORS
330
1A
102
}
100
AcDbPlotSettings
  1

  2
none_device
  4
ISO_A4_(297.00_x_210.00_MM)
  6

 40
0.0
 41
0.0
 42
0.0
 43
0.0
 44
297.0
 45
210.0
 46
0.0
 47
0.0
 48
0.0
 49
0.0
140
0.0
141
0.0
142
1.0
143
1.0
 70
1024
 72
1
 73
0
 74
0
  7

 75
0
147
1.0
148
0.0
149
0.0
100
AcDbLayout
  1
Model
 70
0
 71
0
 10
0.0
 20
0.0
 11
297.0
 21
210.0
 12
0.0
 22
0.0
 32
0.0
 14
0.0
 24
0.0
 34
0.0
 15
0.0
 25
0.0
 35
0.0
146
0.0
 13
0.0
 23
0.0
 33
0.0
 16
1.0
 26
0.0
 36
0.0
 17
0.0
 27
1.0
 37
0.0
 76
0
330
20F
345
0
346
0
  0
LAYOUT
  5
358
102
{ACAD_REACTORS
330
1A
102
}
100
AcDbPlotSettings
  1

  2
none_device
  4
ISO_A4_(297.00_x_210.00_MM)
  6

 40
0.0
 41
0.0
 42
0.0
 43
0.0
 44
297.0
 45
210.0
 46
0.0
 47
0.0
 48
0.0
 49
0.0
140
0.0
141
0.0
142
1.0
143
1.0
 70
0
 72
1
 73
0
 74
0
  7

 75
0
147
1.0
148
0.0
149
0.0
100
AcDbLayout
  1
Layout1
 70
0
 71
1
 10
0.0
 20
0.0
 11
297.0
 21
210.0
 12
0.0
 22
0.0
 32
0.0
 14
0.0
 24
0.0
 34
0.0
 15
0.0
 25
0.0
 35
0.0
146
0.0
 13
0.0
 23
0.0
 33
0.0
 16
1.0
 26
0.0
 36
0.0
 17
0.0
 27
1.0
 37
0.0
 76
0
330
210
345
0
346
0
  0
ENDSEC
  0
EOF
