  0
SECTION
  2
HEADER
  9
$ACADVER
  1
AC1021
  9
$DWGCODEPAGE
  3
ANSI_1252
  9
$EXTMAX
 10
297.0
 20
210.0
 30
0.0
  9
$EXTMIN
 10
0.0
 20
0.0
 30
0.0
  9
$LIMMIN
 10
0.0
 20
0.0
  9
$LIMMAX
 10
297.0
 20
210.0
  9
$VIEWCTR
 10
148.5
 20
105.0
  9
$VIEWSIZE
 40
210.0
  9
$CLAYER
  8
0
  9
$LTSCALE
 40
16.335
  9
$CELTYPE
  6
BYLAYER
  9
$DIMSCALE
 40
1.0
  9
$DIMASZ
 40
3.0
  9
$DIMEXO
 40
0.5
  9
$DIMDLI
 40
11.286
  9
$DIMEXE
 40
1.5
  9
$DIMCEN
 40
2.673
  9
$DIMLFAC
 40
1.0
  9
$DIMBLK
  1
_FILLED
  9
$DIMALT
 70
0
  9
$DIMALTF
 40
25.4
  9
$DIMTXT
 40
3.0
  9
$DIMTOL
 70
1
  9
$DIMLIM
 70
0
  9
$DIMTFAC
 40
1.0
  9
$DIMTP
 40
0.01
  9
$DIMTM
 40
0.01
  9
$DIMGAP
 40
0.625
  9
$DIMDSEP
 70
44
  9
$AUNITS
 70
0
  9
$PDMODE
 70
3
  9
$PDSIZE
 40
3.0
  9
$HANDSEED
  5
404
  9
$TILEMODE
 70
1
  9
$MEASUREMENT
 70
1
  9
$INSUNITS
 70
4
  0
ENDSEC
  0
SECTION
  2
CLASSES
  0
CLASS
  1
ACDBDICTIONARYWDFLT
  2
AcDbDictionaryWithDefault
  3
AutoCAD 2000
 90
0
 91
1
280
0
281
0
  0
CLASS
  1
ACDBPLACEHOLDER
  2
AcDbPlaceHolder
  3
AutoCAD 2000
 90
0
 91
1
280
0
281
0
  0
CLASS
  1
LAYOUT
  2
AcDbLayout
  3
AutoCAD 2000
 90
0
 91
0
280
0
281
0
  0
ENDSEC
  0
SECTION
  2
TABLES
  0
TABLE
  2
VPORT
  5
8
100
AcDbSymbolTable
 70
2
  0
VPORT
  5
1F4
100
AcDbSymbolTableRecord
100
AcDbViewportTableRecord
  2
*ACTIVE
 70
0
 10
0.0
 20
0.0
 11
1.0
 21
1.0
 12
148.5
 22
105.0
 13
0.0
 23
0.0
 14
1.0
 24
1.0
 15
0.0
 25
0.0
 16
0.0
 26
0.0
 36
1.0
 17
0.0
 27
0.0
 37
0.0
 40
210.0
 41
1.4142857143
 42
50.0
 43
0.0
 44
0.0
 50
0.0
 51
0.0
 71
0
 72
100
 73
1
 74
1
 75
0
 76
0
 77
0
 78
0
  0
ENDTAB
  0
TABLE
  2
LTYPE
  5
5
100
AcDbSymbolTable
 70
6
  0
LTYPE
  5
14
100
AcDbSymbolTableRecord
100
AcDbLinetypeTableRecord
  2
BYBLOCK
 70
0
  3

 72
65
 73
0
 40
0.0
  0
LTYPE
  5
15
100
AcDbSymbolTableRecord
100
AcDbLinetypeTableRecord
  2
BYLAYER
 70
0
  3

 72
65
 73
0
 40
0.0
  0
LTYPE
  5
16
100
AcDbSymbolTableRecord
100
AcDbLinetypeTableRecord
  2
CONTINUOUS
 70
64
  3
Solid line
 72
65
 73
0
 40
0.0
  0
LTYPE
  5
1F5
100
AcDbSymbolTableRecord
100
AcDbLinetypeTableRecord
  2
CENTER
 70
64
  3
____ _ ____ _ ____ _ ____ _ ____ _ ____ _ ____
 72
65
 73
4
 40
0.6
 49
0.375
 74
0
 49
-0.075
 74
0
 49
0.075
 74
0
 49
-0.075
 74
0
  0
LTYPE
  5
1F6
100
AcDbSymbolTableRecord
100
AcDbLinetypeTableRecord
  2
HIDDEN
 70
64
  3
- - - - - - - - - - - - - - - - - - - -
 72
65
 73
2
 40
0.2
 49
0.1
 74
0
 49
-0.1
 74
0
  0
LTYPE
  5
1F7
100
AcDbSymbolTableRecord
100
AcDbLinetypeTableRecord
  2
PHANTOM
 70
64
  3
_____ _ _ _____ _ _ _____ _ _ _____
 72
65
 73
6
 40
0.8
 49
0.45
 74
0
 49
-0.05
 74
0
 49
0.1
 74
0
 49
-0.05
 74
0
 49
0.1
 74
0
 49
-0.05
 74
0
  0
LTYPE
  5
1F8
100
AcDbSymbolTableRecord
100
AcDbLinetypeTableRecord
  2
DOT
 70
64
  3
. . . . . . . . . . . . . . . . . . . .
 72
65
 73
2
 40
0.2
 49
0.1
 74
0
 49
-0.1
 74
0
  0
LTYPE
  5
1F9
100
AcDbSymbolTableRecord
100
AcDbLinetypeTableRecord
  2
DASHED
 70
64
  3
- - - - - - - - - - - - - - - - - - - -
 72
65
 73
2
 40
0.2
 49
0.1
 74
0
 49
-0.1
 74
0
  0
ENDTAB
  0
TABLE
  2
LAYER
  5
2
100
AcDbSymbolTable
 70
36
  0
LAYER
  5
10
100
AcDbSymbolTableRecord
100
AcDbLayerTableRecord
  2
0
 70
0
 62
7
  6
CONTINUOUS
370
-3
390
F
  0
LAYER
  5
1FA
100
AcDbSymbolTableRecord
100
AcDbLayerTableRecord
  2
DEFAULT_1
 70
0
 62
7
  6
CENTER
370
-3
390
F
  0
LAYER
  5
1FB
100
AcDbSymbolTableRecord
100
AcDbLayerTableRecord
  2
DEFAULT_2
 70
0
 62
7
  6
HIDDEN
370
-3
390
F
  0
LAYER
  5
1FC
100
AcDbSymbolTableRecord
100
AcDbLayerTableRecord
  2
DEFAULT_3
 70
0
 62
7
  6
PHANTOM
370
-3
390
F
  0
LAYER
  5
1FD
100
AcDbSymbolTableRecord
100
AcDbLayerTableRecord
  2
ASSI
 70
0
 62
7
  6
CONTINUOUS
370
-3
390
F
  0
LAYER
  5
1FE
100
AcDbSymbolTableRecord
100
AcDbLayerTableRecord
  2
COORDINATE
 70
0
 62
7
  6
CONTINUOUS
370
-3
390
F
  0
LAYER
  5
1FF
100
AcDbSymbolTableRecord
100
AcDbLayerTableRecord
  2
COPY_PUBLISH
 70
0
 62
7
  6
CONTINUOUS
370
-3
390
F
  0
LAYER
  5
200
100
AcDbSymbolTableRecord
100
AcDbLayerTableRecord
  2
COSMETIC
 70
0
 62
7
  6
CONTINUOUS
370
-3
390
F
  0
LAYER
  5
201
100
AcDbSymbolTableRecord
100
AcDbLayerTableRecord
  2
COSMETICI
 70
0
 62
7
  6
CONTINUOUS
370
-3
390
F
  0
LAYER
  5
202
100
AcDbSymbolTableRecord
100
AcDbLayerTableRecord
  2
CURVE
 70
0
 62
7
  6
CONTINUOUS
370
-3
390
F
  0
LAYER
  5
203
100
AcDbSymbolTableRecord
100
AcDbLayerTableRecord
  2
DRAFT
 70
0
 62
7
  6
CONTINUOUS
370
-3
390
F
  0
LAYER
  5
204
100
AcDbSymbolTableRecord
100
AcDbLayerTableRecord
  2
IMPORT_IGES
 70
0
 62
7
  6
CONTINUOUS
370
-3
390
F
  0
LAYER
  5
205
100
AcDbSymbolTableRecord
100
AcDbLayerTableRecord
  2
INTF_1
 70
0
 62
7
  6
CONTINUOUS
370
-3
390
F
  0
LAYER
  5
206
100
AcDbSymbolTableRecord
100
AcDbLayerTableRecord
  2
INTF_11
 70
0
 62
7
  6
CONTINUOUS
370
-3
390
F
  0
LAYER
  5
207
100
AcDbSymbolTableRecord
100
AcDbLayerTableRecord
  2
NOTE
 70
0
 62
7
  6
CONTINUOUS
370
-3
390
F
  0
LAYER
  5
208
100
AcDbSymbolTableRecord
100
AcDbLayerTableRecord
  2
PIANI
 70
0
 62
7
  6
CONTINUOUS
370
-3
390
F
  0
LAYER
  5
209
100
AcDbSymbolTableRecord
100
AcDbLayerTableRecord
  2
PUNTI
 70
0
 62
7
  6
CONTINUOUS
370
-3
390
F
  0
LAYER
  5
20A
100
AcDbSymbolTableRecord
100
AcDbLayerTableRecord
  2
RACCORDO
 70
0
 62
7
  6
CONTINUOUS
370
-3
390
F
  0
LAYER
  5
20B
100
AcDbSymbolTableRecord
100
AcDbLayerTableRecord
  2
RGB____0____0____0__
 70
0
 62
7
  6
CONTINUOUS
370
-3
390
F
  0
LAYER
  5
20C
100
AcDbSymbolTableRecord
100
AcDbLayerTableRecord
  2
SIMBOLI
 70
0
 62
7
  6
CONTINUOUS
370
-3
390
F
  0
LAYER
  5
20D
100
AcDbSymbolTableRecord
100
AcDbLayerTableRecord
  2
SNAPLINE
 70
0
 62
7
  6
CONTINUOUS
370
-3
390
F
  0
LAYER
  5
20E
100
AcDbSymbolTableRecord
100
AcDbLayerTableRecord
  2
SUPERFICI
 70
0
 62
7
  6
CONTINUOUS
370
-3
390
F
  0
LAYER
  5
20F
100
AcDbSymbolTableRecord
100
AcDbLayerTableRecord
  2
TRASH
 70
0
 62
7
  6
CONTINUOUS
370
-3
390
F
  0
LAYER
  5
210
100
AcDbSymbolTableRecord
100
AcDbLayerTableRecord
  2
XSEC_DATUMS
 70
0
 62
7
  6
CONTINUOUS
370
-3
390
F
  0
ENDTAB
  0
TABLE
  2
STYLE
  5
3
100
AcDbSymbolTable
 70
1
  0
STYLE
  5
11
100
AcDbSymbolTableRecord
100
AcDbTextStyleTableRecord
  2
STANDARD
 70
0
 40
0.0
 41
0.8
 50
0.0
 71
0
 42
0.2
  3
txt
  4

  0
STYLE
  5
211
100
AcDbSymbolTableRecord
100
AcDbTextStyleTableRecord
  2
TEXTSTYLE_1
 70
0
 40
0.0
 41
0.8
 50
0.0
 71
0
 42
0.2
  3
gdt
  4

  0
ENDTAB
  0
TABLE
  2
VIEW
  5
6
100
AcDbSymbolTable
 70
0
  0
ENDTAB
  0
TABLE
  2
UCS
  5
7
100
AcDbSymbolTable
 70
0
  0
ENDTAB
  0
TABLE
  2
APPID
  5
9
100
AcDbSymbolTable
 70
1
  0
APPID
  5
212
100
AcDbSymbolTableRecord
100
AcDbRegAppTableRecord
  2
ACAD
 70
0
  0
ENDTAB
  0
TABLE
  2
BLOCK_RECORD
  5
1
100
AcDbSymbolTable
 70
0
  0
BLOCK_RECORD
  5
213
100
AcDbSymbolTableRecord
100
AcDbBlockTableRecord
  2
*Model_Space
  0
BLOCK_RECORD
  5
214
100
AcDbSymbolTableRecord
100
AcDbBlockTableRecord
  2
*Paper_Space
  0
BLOCK_RECORD
  5
215
100
AcDbSymbolTableRecord
100
AcDbBlockTableRecord
  2
_FILLED
  0
BLOCK_RECORD
  5
216
100
AcDbSymbolTableRecord
100
AcDbBlockTableRecord
  2
*D0
  0
BLOCK_RECORD
  5
217
100
AcDbSymbolTableRecord
100
AcDbBlockTableRecord
  2
*D1
  0
BLOCK_RECORD
  5
218
100
AcDbSymbolTableRecord
100
AcDbBlockTableRecord
  2
*D2
  0
BLOCK_RECORD
  5
219
100
AcDbSymbolTableRecord
100
AcDbBlockTableRecord
  2
*D3
  0
BLOCK_RECORD
  5
21A
100
AcDbSymbolTableRecord
100
AcDbBlockTableRecord
  2
*D4
  0
ENDTAB
  0
TABLE
  2
DIMSTYLE
  5
A
100
AcDbSymbolTable
 70
1
100
AcDbDimStyleTable
 71
0
  0
DIMSTYLE
105
21B
100
AcDbSymbolTableRecord
100
AcDbDimStyleTableRecord
  2
STANDARD
 70
0
  3

  4

 40
1.0
 41
3.0
 42
0.5
 43
0.38
 44
1.5
 45
0.0
 46
0.0
 47
0.01
 48
0.01
140
3.0
141
0.09
142
0.0
143
25.4
144
1.0
145
0.0
146
1.0
147
0.625
 71
1.0
 72
0.0
 73
0
 74
0
 75
0
 76
0
 77
1
 78
8
170
0
171
1
172
0
173
0
174
0
175
0
176
0
177
0
178
0
270
2
271
2
272
2
273
2
274
2
275
0
280
0
281
0
282
0
283
1
284
8
285
0
286
0
287
3
288
0
340
11
278
44
341
215
342
215
343
215
344
215
  0
DIMSTYLE
105
21C
100
AcDbSymbolTableRecord
100
AcDbDimStyleTableRecord
  2
DIMSTYLE_1
 70
0
  3

  4

 40
1.0
 41
3.0
 42
0.5
 43
0.38
 44
1.5
 45
0.0
 46
0.0
 47
0.0
 48
0.0
140
3.0
141
0.09
142
0.0
143
25.4
144
1.0
145
0.0
146
1.0
147
0.75
 71
0.0
 72
0.0
 73
0
 74
0
 75
0
 76
0
 77
1
 78
8
170
0
171
1
172
0
173
0
174
0
175
0
176
0
177
0
178
0
270
2
271
1
272
1
273
2
274
2
275
0
280
0
281
0
282
0
283
1
284
8
285
0
286
0
287
3
288
0
340
11
278
44
341
215
342
215
343
215
344
215
  0
DIMSTYLE
105
21D
100
AcDbSymbolTableRecord
100
AcDbDimStyleTableRecord
  2
DIMSTYLE_2
 70
0
  3

  4

 40
1.0
 41
3.0
 42
0.5
 43
0.38
 44
1.5
 45
0.0
 46
0.0
 47
0.0
 48
0.0
140
3.0
141
0.09
142
0.0
143
25.4
144
1.0
145
0.0
146
1.0
147
0.75
 71
0.0
 72
0.0
 73
0
 74
0
 75
0
 76
0
 77
1
 78
8
170
0
171
1
172
0
173
0
174
0
175
0
176
0
177
0
178
0
270
2
271
2
272
2
273
2
274
2
275
0
280
0
281
0
282
0
283
1
284
8
285
0
286
0
287
3
288
0
340
11
278
44
341
215
342
215
343
215
344
215
  0
ENDTAB
  0
ENDSEC
  0
SECTION
  2
BLOCKS
  0
BLOCK
  5
20
100
AcDbEntity
  8
0
100
AcDbBlockBegin
  2
*Model_Space
 70
0
 10
0.0
 20
0.0
 30
0.0
  3
*Model_Space
  1

  0
ENDBLK
  5
21
100
AcDbEntity
  8
0
100
AcDbBlockEnd
  0
BLOCK
  5
1C
100
AcDbEntity
  8
0
100
AcDbBlockBegin
  2
*Paper_Space
 70
0
 10
0.0
 20
0.0
 30
0.0
  3
*Paper_Space
  1

  0
ENDBLK
  5
1D
100
AcDbEntity
  8
0
100
AcDbBlockEnd
  0
BLOCK
  5
21E
100
AcDbEntity
  8
0
100
AcDbBlockBegin
  2
_FILLED
 70
64
 10
0.0
 20
0.0
  3
_FILLED
  1

  0
SOLID
  5
21F
100
AcDbEntity
  8
0
  6
BYBLOCK
 62
0
100
AcDbTrace
 10
0.0
 20
0.0
 11
-1.0
 21
0.3166666667
 12
-1.0
 22
-0.3166666667
 13
-1.0
 23
-0.3166666667
  0
ENDBLK
  5
220
100
AcDbEntity
  8
0
  6
BYBLOCK
 62
0
100
AcDbBlockEnd
  0
BLOCK
  5
221
100
AcDbEntity
  8
0
100
AcDbBlockBegin
 62
7
  6
CONTINUOUS
  2
*D0
 70
65
 10
0.0
 20
0.0
  3
*D0
  1

  0
MTEXT
  5
222
100
AcDbEntity
  8
0
100
AcDbMText
 62
7
  6
CONTINUOUS
  7
STANDARD
 71
2
 72
1
 10
163.956363678
 20
163.1826343536
 30
0.0
 11
1.0
 21
0.0
 31
0.0
 44
0.9
  1
157,5
 40
3.0
 41
15.1071428571
  0
LINE
  5
223
100
AcDbEntity
  8
0
100
AcDbLine
 62
7
  6
CONTINUOUS
 10
85.206363678
 20
124.2111720024
 11
85.206363678
 21
160.9326343536
  0
LINE
  5
224
100
AcDbEntity
  8
0
100
AcDbLine
 62
7
  6
CONTINUOUS
 10
242.706363678
 20
124.211172307
 11
242.706363678
 21
160.9326343536
  0
LINE
  5
225
100
AcDbEntity
  8
0
100
AcDbLine
 62
7
  6
CONTINUOUS
 10
85.206363678
 20
159.4326343536
 11
163.956363678
 21
159.4326343536
  0
LINE
  5
226
100
AcDbEntity
  8
0
100
AcDbLine
 62
7
  6
CONTINUOUS
 10
242.706363678
 20
159.4326343536
 11
163.956363678
 21
159.4326343536
  0
INSERT
  5
227
100
AcDbEntity
  8
0
100
AcDbBlockReference
 62
7
  6
CONTINUOUS
  2
_FILLED
 10
85.206363678
 20
159.4326343536
 41
3.0
 42
3.0
 43
3.0
 50
180.0
  0
INSERT
  5
228
100
AcDbEntity
  8
0
100
AcDbBlockReference
 62
7
  6
CONTINUOUS
  2
_FILLED
 10
242.706363678
 20
159.4326343536
 41
3.0
 42
3.0
 43
3.0
 50
360.0
  0
ENDBLK
  5
229
100
AcDbEntity
  8
0
  6
BYBLOCK
 62
0
100
AcDbBlockEnd
  0
BLOCK
  5
22A
100
AcDbEntity
  8
0
100
AcDbBlockBegin
 62
7
  6
CONTINUOUS
  2
*D1
 70
65
 10
0.0
 20
0.0
  3
*D1
  1

  0
MTEXT
  5
22B
100
AcDbEntity
  8
0
100
AcDbMText
 62
7
  6
CONTINUOUS
  7
STANDARD
 71
2
 72
1
 10
278.206363678
 20
101.4326343536
 30
0.0
 11
0.0
 21
1.0
 31
0.0
 44
0.9
  1
45
 40
3.0
 41
6.75
  0
LINE
  5
22C
100
AcDbEntity
  8
0
100
AcDbLine
 62
7
  6
CONTINUOUS
 10
242.706363678
 20
123.9326343536
 11
283.456363678
 21
123.9326343536
  0
LINE
  5
22D
100
AcDbEntity
  8
0
100
AcDbLine
 62
7
  6
CONTINUOUS
 10
242.706363678
 20
78.9326343536
 11
283.456363678
 21
78.9326343536
  0
LINE
  5
22E
100
AcDbEntity
  8
0
100
AcDbLine
 62
7
  6
CONTINUOUS
 10
281.956363678
 20
123.9326343536
 11
281.956363678
 21
101.4326343536
  0
LINE
  5
22F
100
AcDbEntity
  8
0
100
AcDbLine
 62
7
  6
CONTINUOUS
 10
281.956363678
 20
78.9326343536
 11
281.956363678
 21
101.4326343536
  0
INSERT
  5
230
100
AcDbEntity
  8
0
100
AcDbBlockReference
 62
7
  6
CONTINUOUS
  2
_FILLED
 10
281.956363678
 20
123.9326343536
 41
3.0
 42
3.0
 43
3.0
 50
90.0
  0
INSERT
  5
231
100
AcDbEntity
  8
0
100
AcDbBlockReference
 62
7
  6
CONTINUOUS
  2
_FILLED
 10
281.956363678
 20
78.9326343536
 41
3.0
 42
3.0
 43
3.0
 50
270.0
  0
ENDBLK
  5
232
100
AcDbEntity
  8
0
  6
BYBLOCK
 62
0
100
AcDbBlockEnd
  0
BLOCK
  5
233
100
AcDbEntity
  8
0
100
AcDbBlockBegin
 62
7
  6
CONTINUOUS
  2
*D2
 70
65
 10
0.0
 20
0.0
  3
*D2
  1

  0
MTEXT
  5
234
100
AcDbEntity
  8
0
100
AcDbMText
 62
7
  6
CONTINUOUS
  7
STANDARD
 71
2
 72
1
 10
288.206363678
 20
101.4326343536
 30
0.0
 11
0.0
 21
1.0
 31
0.0
 44
0.9
  1
80
 40
3.0
 41
7.0714285714
  0
LINE
  5
235
100
AcDbEntity
  8
0
100
AcDbLine
 62
7
  6
CONTINUOUS
 10
164.456363678
 20
141.4326343536
 11
293.456363678
 21
141.4326343536
  0
LINE
  5
236
100
AcDbEntity
  8
0
100
AcDbLine
 62
7
  6
CONTINUOUS
 10
164.456363678
 20
61.4326343536
 11
293.456363678
 21
61.4326343536
  0
LINE
  5
237
100
AcDbEntity
  8
0
100
AcDbLine
 62
7
  6
CONTINUOUS
 10
291.956363678
 20
141.4326343536
 11
291.956363678
 21
101.4326343536
  0
LINE
  5
238
100
AcDbEntity
  8
0
100
AcDbLine
 62
7
  6
CONTINUOUS
 10
291.956363678
 20
61.4326343536
 11
291.956363678
 21
101.4326343536
  0
INSERT
  5
239
100
AcDbEntity
  8
0
100
AcDbBlockReference
 62
7
  6
CONTINUOUS
  2
_FILLED
 10
291.956363678
 20
141.4326343536
 41
3.0
 42
3.0
 43
3.0
 50
90.0
  0
INSERT
  5
23A
100
AcDbEntity
  8
0
100
AcDbBlockReference
 62
7
  6
CONTINUOUS
  2
_FILLED
 10
291.956363678
 20
61.4326343536
 41
3.0
 42
3.0
 43
3.0
 50
270.0
  0
ENDBLK
  5
23B
100
AcDbEntity
  8
0
  6
BYBLOCK
 62
0
100
AcDbBlockEnd
  0
BLOCK
  5
23C
100
AcDbEntity
  8
0
100
AcDbBlockBegin
 62
7
  6
CONTINUOUS
  2
*D3
 70
65
 10
0.0
 20
0.0
  3
*D3
  1

  0
MTEXT
  5
23D
100
AcDbEntity
  8
0
100
AcDbMText
 62
7
  6
CONTINUOUS
  7
STANDARD
 71
2
 72
1
 10
17.59292458
 20
163.1826343536
 30
0.0
 11
1.0
 21
0.0
 31
0.0
 44
0.9
  1
9,5
 40
3.0
 41
9.3214285714
  0
LINE
  5
23E
100
AcDbEntity
  8
0
100
AcDbLine
 62
7
  6
CONTINUOUS
 10
22.34292458
 20
137.9128397903
 11
22.34292458
 21
160.9326343536
  0
LINE
  5
23F
100
AcDbEntity
  8
0
100
AcDbLine
 62
7
  6
CONTINUOUS
 10
12.84292458
 20
103.0677860311
 11
12.84292458
 21
160.9326343536
  0
LINE
  5
240
100
AcDbEntity
  8
0
100
AcDbLine
 62
7
  6
CONTINUOUS
 10
22.34292458
 20
159.4326343536
 11
26.34292458
 21
159.4326343536
  0
LINE
  5
241
100
AcDbEntity
  8
0
100
AcDbLine
 62
7
  6
CONTINUOUS
 10
26.34292458
 20
159.4326343536
 11
17.59292458
 21
159.4326343536
  0
LINE
  5
242
100
AcDbEntity
  8
0
100
AcDbLine
 62
7
  6
CONTINUOUS
 10
12.84292458
 20
159.4326343536
 11
8.84292458
 21
159.4326343536
  0
LINE
  5
243
100
AcDbEntity
  8
0
100
AcDbLine
 62
7
  6
CONTINUOUS
 10
8.84292458
 20
159.4326343536
 11
17.59292458
 21
159.4326343536
  0
INSERT
  5
244
100
AcDbEntity
  8
0
100
AcDbBlockReference
 62
7
  6
CONTINUOUS
  2
_FILLED
 10
22.34292458
 20
159.4326343536
 41
3.0
 42
3.0
 43
3.0
 50
180.0
  0
INSERT
  5
245
100
AcDbEntity
  8
0
100
AcDbBlockReference
 62
7
  6
CONTINUOUS
  2
_FILLED
 10
12.84292458
 20
159.4326343536
 41
3.0
 42
3.0
 43
3.0
  0
ENDBLK
  5
246
100
AcDbEntity
  8
0
  6
BYBLOCK
 62
0
100
AcDbBlockEnd
  0
BLOCK
  5
247
100
AcDbEntity
  8
0
100
AcDbBlockBegin
 62
7
  6
CONTINUOUS
  2
*D4
 70
65
 10
0.0
 20
0.0
  3
*D4
  1

  0
MTEXT
  5
248
100
AcDbEntity
  8
0
100
AcDbMText
 62
7
  6
CONTINUOUS
  7
STANDARD
 71
2
 72
1
 10
163.956363678
 20
173.1826343536
 30
0.0
 11
1.0
 21
0.0
 31
0.0
 44
0.9
  1
210
 40
3.0
 41
9.6428571429
  0
LINE
  5
249
100
AcDbEntity
  8
0
100
AcDbLine
 62
7
  6
CONTINUOUS
 10
58.9693650903
 20
97.9827576744
 11
58.9693650903
 21
170.9326343536
  0
LINE
  5
24A
100
AcDbEntity
  8
0
100
AcDbLine
 62
7
  6
CONTINUOUS
 10
268.9433622656
 20
97.9827576744
 11
268.9433622656
 21
170.9326343536
  0
LINE
  5
24B
100
AcDbEntity
  8
0
100
AcDbLine
 62
7
  6
CONTINUOUS
 10
58.9693650903
 20
169.4326343536
 11
163.956363678
 21
169.4326343536
  0
LINE
  5
24C
100
AcDbEntity
  8
0
100
AcDbLine
 62
7
  6
CONTINUOUS
 10
268.9433622656
 20
169.4326343536
 11
163.956363678
 21
169.4326343536
  0
INSERT
  5
24D
100
AcDbEntity
  8
0
100
AcDbBlockReference
 62
7
  6
CONTINUOUS
  2
_FILLED
 10
58.9693650903
 20
169.4326343536
 41
3.0
 42
3.0
 43
3.0
 50
180.0
  0
INSERT
  5
24E
100
AcDbEntity
  8
0
100
AcDbBlockReference
 62
7
  6
CONTINUOUS
  2
_FILLED
 10
268.9433622656
 20
169.4326343536
 41
3.0
 42
3.0
 43
3.0
  0
ENDBLK
  5
24F
100
AcDbEntity
  8
0
  6
BYBLOCK
 62
0
100
AcDbBlockEnd
  0
ENDSEC
  0
SECTION
  2
ENTITIES
  0
DIMENSION
  5
250
100
AcDbEntity
  8
0
100
AcDbDimension
 62
7
  6
CONTINUOUS
  2
*D0
 10
242.706363678
 20
159.4326343536
 11
163.5277939453
 21
159.4326343536
 70
160
 71
2
 42
157.5
  3
DIMSTYLE_1
100
AcDbAlignedDimension
 13
85.206363678
 23
123.7111720024
 14
242.706363678
 24
123.711172307
100
AcDbRotatedDimension
  0
DIMENSION
  5
251
100
AcDbEntity
  8
0
100
AcDbDimension
 62
7
  6
CONTINUOUS
  2
*D1
 10
281.956363678
 20
78.9326343536
 11
281.956363678
 21
101.0040557709
 70
160
 71
2
 42
45.0
  3
DIMSTYLE_1
100
AcDbAlignedDimension
 13
242.206363678
 23
123.9326343536
 14
242.206363678
 24
78.9326343536
 50
270.0
100
AcDbRotatedDimension
  0
DIMENSION
  5
252
100
AcDbEntity
  8
0
100
AcDbDimension
 62
7
  6
CONTINUOUS
  2
*D2
 10
291.956363678
 20
61.4326343536
 11
291.956363678
 21
101.0040582079
 70
160
 71
2
 42
80.0
  3
DIMSTYLE_1
100
AcDbAlignedDimension
 13
163.956363678
 23
141.4326343536
 14
163.956363678
 24
61.4326343536
 50
270.0
100
AcDbRotatedDimension
  0
DIMENSION
  5
253
100
AcDbEntity
  8
0
100
AcDbDimension
 62
7
  6
CONTINUOUS
  2
*D3
 10
12.84292458
 20
159.4326343536
 11
17.1643531036
 21
159.4326343536
 70
160
 71
2
 42
9.5
  3
DIMSTYLE_2
100
AcDbAlignedDimension
 13
22.34292458
 23
137.4128397903
 14
12.84292458
 24
102.5677860311
 50
180.0
100
AcDbRotatedDimension
  0
DIMENSION
  5
254
100
AcDbEntity
  8
0
100
AcDbDimension
 62
7
  6
CONTINUOUS
  2
*D4
 10
268.9433622656
 20
169.4326343536
 11
163.5277939453
 21
169.4326343536
 70
160
 71
2
 42
209.9739971753
  3
DIMSTYLE_1
100
AcDbAlignedDimension
 13
58.9693650903
 23
97.4827576744
 14
268.9433622656
 24
97.4827576744
100
AcDbRotatedDimension
  0
LWPOLYLINE
  5
255
100
AcDbEntity
  8
0
100
AcDbPolyline
 62
253
  6
CONTINUOUS
 90
19
 70
0
 10
60.2679108284
 20
65.6914951495
 10
60.0554831207
 20
69.6955606022
 10
59.8700603962
 20
73.6616158
 10
59.7108700872
 20
77.5894820101
 10
59.577528285
 20
81.4661152277
 10
59.4687284433
 20
85.3042274146
 10
59.3830673071
 20
89.1423066548
 10
59.3205978952
 20
92.9800722468
 10
59.2812472379
 20
96.8175448346
 10
59.2649171665
 20
100.6936915388
 10
59.2724596901
 20
104.6224899641
 10
59.3047105955
 20
108.5896915411
 10
59.3622452689
 20
112.5919218031
 10
59.445864717
 20
116.6335632803
 10
59.5562445875
 20
120.7099107718
 10
59.6933729328
 20
124.8039584505
 10
59.8573420793
 20
128.9099286242
 10
60.0487299569
 20
133.0332597362
 10
60.2679108284
 20
137.1737735578
  0
LWPOLYLINE
  5
256
100
AcDbEntity
  8
0
100
AcDbPolyline
 62
7
  6
CONTINUOUS
 90
34
 70
0
 10
60.0361479424
 20
137.4128397903
 10
60.0452590034
 20
137.5238936024
 10
60.0593305456
 20
137.6342852339
 10
60.078362569
 20
137.7440146848
 10
60.1024312629
 20
137.85342952
 10
60.131460438
 20
137.9621821745
 10
60.1652215265
 20
138.0692299541
 10
60.2037751212
 20
138.1744880806
 10
60.2470606293
 20
138.2780413322
 10
60.2946677044
 20
138.3791013488
 10
60.3464781409
 20
138.4774338375
 10
60.4026101444
 20
138.5732730913
 10
60.4630079847
 20
138.666533629
 10
60.5277854709
 20
138.7574050654
 10
60.5968287941
 20
138.8456977857
 10
60.6697407966
 20
138.9307574653
 10
60.7466373104
 20
139.0126072148
 10
60.8274025036
 20
139.0912239235
 10
60.9112917236
 20
139.1658839347
 10
60.9982762105
 20
139.236470868
 10
61.0883847241
 20
139.3031011039
 10
61.1809588915
 20
139.3654001263
 10
61.2758053191
 20
139.423260501
 10
61.3731174004
 20
139.4767896624
 10
61.4728169434
 20
139.5259353975
 10
61.5751491944
 20
139.5708124387
 10
61.6798689071
 20
139.6113060536
 10
61.7861621504
 20
139.6470198332
 10
61.8941073359
 20
139.6778879214
 10
62.0036260521
 20
139.7039761742
 10
62.1136691322
 20
139.7250857498
 10
62.2238868542
 20
139.7411503677
 10
62.3346289402
 20
139.7522363083
 10
62.4458953902
 20
139.7583435718
  0
LWPOLYLINE
  5
257
100
AcDbEntity
  8
0
100
AcDbPolyline
 62
253
  6
CONTINUOUS
 90
34
 70
0
 10
60.2679108446
 20
137.1737735411
 10
60.2773170831
 20
137.2882798734
 10
60.2917638466
 20
137.4008596044
 10
60.3110369081
 20
137.5113056433
 10
60.3347997034
 20
137.6189504606
 10
60.3629038844
 20
137.7241111401
 10
60.3955971826
 20
137.8280336751
 10
60.4330248638
 20
137.9310186972
 10
60.4749783939
 20
138.0323475471
 10
60.5213307904
 20
138.1316969643
 10
60.5719621955
 20
138.2288277171
 10
60.626794859
 20
138.3236077043
 10
60.6857402506
 20
138.4158854383
 10
60.7486932614
 20
138.505493202
 10
60.8155273994
 20
138.5922484273
 10
60.8861143451
 20
138.6759827399
 10
60.9603106499
 20
138.7565258491
 10
61.0379822666
 20
138.8337325228
 10
61.1190077533
 20
138.907477769
 10
61.2032840392
 20
138.9776542968
 10
61.2906074603
 20
139.0440801107
 10
61.3806874525
 20
139.1065404319
 10
61.4729267407
 20
139.1646772595
 10
61.5675356219
 20
139.2186764015
 10
61.6655015043
 20
139.2690189774
 10
61.7670276803
 20
139.3156061777
 10
61.8716716381
 20
139.3580323064
 10
61.9795253952
 20
139.3961397304
 10
62.0907047141
 20
139.4297366879
 10
62.2047630487
 20
139.4584567665
 10
62.320911123
 20
139.4819334199
 10
62.4387161151
 20
139.499969011
 10
62.5581246923
 20
139.5124454391
 10
62.6788761992
 20
139.5192110427
  0
LWPOLYLINE
  5
258
100
AcDbEntity
  8
0
100
AcDbPolyline
 62
253
  6
CONTINUOUS
 90
19
 70
0
 10
61.3585167332
 20
65.6770954072
 10
61.1471532808
 20
69.6825700275
 10
60.9613048196
 20
73.6502668959
 10
60.8009709832
 20
77.5798786099
 10
60.6668737961
 20
81.4581251484
 10
60.5582367063
 20
85.2977102691
 10
60.4728716185
 20
89.1373572686
 10
60.409946665
 20
92.9767005245
 10
60.3703489171
 20
96.8156515101
 10
60.3546146881
 20
100.6933939803
 10
60.36240033
 20
104.6238013827
 10
60.394236024
 20
108.592526976
 10
60.4520307562
 20
112.5964156645
 10
60.5360987031
 20
116.6397217719
 10
60.6462236744
 20
120.7176293789
 10
60.7834579868
 20
124.8133717255
 10
60.9481169177
 20
128.9211673285
 10
61.1398194717
 20
133.0462044551
 10
61.3585167332
 20
137.1881733001
  0
LWPOLYLINE
  5
259
100
AcDbEntity
  8
0
100
AcDbPolyline
 62
7
  6
CONTINUOUS
 90
17
 70
0
 10
58.9692567124
 20
105.3335875259
 10
58.9693613809
 20
105.3095338034
 10
58.9695727335
 20
105.28601102
 10
58.9698899911
 20
105.2631316244
 10
58.970310816
 20
105.2409284347
 10
58.9708392067
 20
105.219488768
 10
58.9714711647
 20
105.1990623504
 10
58.9721923568
 20
105.1799149887
 10
58.9730063669
 20
105.1621822303
 10
58.973909611
 20
105.1459837619
 10
58.9748770042
 20
105.1315021134
 10
58.9759058867
 20
105.1188546005
 10
58.9769989183
 20
105.1080420048
 10
58.9781389927
 20
105.0990588578
 10
58.979320408
 20
105.0919570124
 10
58.9805488662
 20
105.0868085921
 10
58.9818243673
 20
105.0836526235
  0
LWPOLYLINE
  5
25A
100
AcDbEntity
  8
0
100
AcDbPolyline
 62
7
  6
CONTINUOUS
 90
3
 70
0
 10
59.069773036
 20
104.7307130044
 10
59.0699269539
 20
104.6822785268
 10
59.0698485421
 20
104.6577350014
  0
LWPOLYLINE
  5
25B
100
AcDbEntity
  8
0
100
AcDbPolyline
 62
7
  6
CONTINUOUS
 90
18
 70
0
 10
59.0698485421
 20
98.2075337058
 10
59.0699012419
 20
98.1585244135
 10
59.0697722476
 20
98.1344527257
 10
59.0695389094
 20
98.1109325024
 10
59.0692020084
 20
98.0880706838
 10
59.068763888
 20
98.0658865893
 10
59.0682208285
 20
98.0444671283
 10
59.0675765495
 20
98.0240611578
 10
59.0668445535
 20
98.0049234057
 10
59.0660210495
 20
97.9871848369
 10
59.0651098285
 20
97.970974698
 10
59.0641357654
 20
97.956485573
 10
59.0631013754
 20
97.943834578
 10
59.0620041433
 20
97.9330221453
 10
59.0608613985
 20
97.9240469135
 10
59.0596789175
 20
97.9169582769
 10
59.0584509236
 20
97.9118227032
 10
59.0571774171
 20
97.9086752964
  0
LINE
  5
25C
100
AcDbEntity
  8
0
100
AcDbLine
 62
7
  6
CONTINUOUS
 10
58.9693650903
 20
105.3825110329
 11
58.9692567124
 21
105.3335875259
  0
LWPOLYLINE
  5
25D
100
AcDbEntity
  8
0
100
AcDbPolyline
 62
253
  6
CONTINUOUS
 90
34
 70
0
 10
61.3585167332
 20
137.1881733001
 10
61.3634551801
 20
137.2481869334
 10
61.3708064926
 20
137.3069840639
 10
61.380570569
 20
137.3645647215
 10
61.3927527294
 20
137.4207790822
 10
61.4073474723
 20
137.475777031
 10
61.4243384857
 20
137.5300081507
 10
61.4437682962
 20
137.5837462891
 10
61.4655942632
 20
137.6367176288
 10
61.4896723401
 20
137.6885502516
 10
61.5160067365
 20
137.7392094458
 10
61.5445931571
 20
137.7887299735
 10
61.5752748027
 20
137.8368441412
 10
61.6080659035
 20
137.8835498969
 10
61.6429521842
 20
137.9288493504
 10
61.6797340965
 20
137.9724810593
 10
61.718417272
 20
138.0144318533
 10
61.7589960773
 20
138.0547149652
 10
61.8012540776
 20
138.093108566
 10
61.8452284835
 20
138.1296187953
 10
61.8908821268
 20
138.1642395756
 10
61.937887013
 20
138.1967307578
 10
61.9860162145
 20
138.2269889749
 10
62.0354967396
 20
138.2551176539
 10
62.0866815113
 20
138.2811868367
 10
62.1397237871
 20
138.3053353758
 10
62.1944704479
 20
138.3274244635
 10
62.2508148732
 20
138.3471076505
 10
62.3089302754
 20
138.3644079906
 10
62.3686436441
 20
138.3793024696
 10
62.4293290349
 20
138.3913755387
 10
62.4907778736
 20
138.4004886917
 10
62.5531989658
 20
138.4067804619
 10
62.61659244
 20
138.4102508573
  0
LWPOLYLINE
  5
25E
100
AcDbEntity
  8
0
100
AcDbPolyline
 62
253
  6
CONTINUOUS
 90
25
 70
0
 10
62.6788761422
 20
63.3460576581
 10
62.6730960842
 20
63.3521707918
 10
62.6674791552
 20
63.3625833093
 10
62.6620456218
 20
63.3772576481
 10
62.6568150881
 20
63.3961408725
 10
62.6518064277
 20
63.4191648538
 10
62.6470377157
 20
63.4462465082
 10
62.6425261587
 20
63.4772881148
 10
62.6382880341
 20
63.5121776763
 10
62.6343386333
 20
63.5507893061
 10
62.6306922061
 20
63.5929836884
 10
62.6273619092
 20
63.6386085807
 10
62.6243597586
 20
63.6874993624
 10
62.6216965861
 20
63.7394796295
 10
62.6193820007
 20
63.7943618311
 10
62.6174243536
 20
63.8519479456
 10
62.6158307081
 20
63.9120301956
 10
62.614606814
 20
63.9743917977
 10
62.6137570872
 20
64.0388077443
 10
62.6132845935
 20
64.1050456157
 10
62.6131910374
 20
64.1728664187
 10
62.6134767567
 20
64.242025449
 10
62.6141407202
 20
64.3122731737
 10
62.615180532
 20
64.3833561321
 10
62.61659244
 20
64.45501785
  0
LWPOLYLINE
  5
25F
100
AcDbEntity
  8
0
100
AcDbPolyline
 62
7
  6
CONTINUOUS
 90
16
 70
0
 10
59.0571774171
 20
104.9565934109
 10
59.0584533896
 20
104.9534374643
 10
59.0596830544
 20
104.9482890919
 10
59.0608664113
 20
104.9411873234
 10
59.0620089784
 20
104.9322042897
 10
59.0631052376
 20
104.9213918436
 10
59.0641386355
 20
104.9087445016
 10
59.0651118218
 20
104.8942630422
 10
59.0660221467
 20
104.8780647743
 10
59.0668451077
 20
104.860332192
 10
59.0675772113
 20
104.8411849686
 10
59.068221951
 20
104.8207586428
 10
59.0687653054
 20
104.7993189824
 10
59.0692033326
 20
104.7771156672
 10
59.0695399745
 20
104.754236042
 10
59.069773036
 20
104.7307130044
  0
LWPOLYLINE
  5
260
100
AcDbEntity
  8
0
100
AcDbPolyline
 62
7
  6
CONTINUOUS
 90
18
 70
0
 10
58.9818243673
 20
97.7816160838
 10
58.98054886
 20
97.7784600942
 10
58.9793203971
 20
97.7733116391
 10
58.9781389784
 20
97.7662097508
 10
58.9769989023
 20
97.7572265602
 10
58.9759058704
 20
97.7464139255
 10
58.9748769884
 20
97.7337663797
 10
58.9739095965
 20
97.7192847079
 10
58.9730063544
 20
97.7030862297
 10
58.9721923465
 20
97.6853534725
 10
58.9714711567
 20
97.666206126
 10
58.970839201
 20
97.6457797373
 10
58.9703108123
 20
97.6243401026
 10
58.9698899888
 20
97.6021369429
 10
58.9695727322
 20
97.5792575778
 10
58.9693613804
 20
97.5557348244
 10
58.9692567124
 20
97.5316811307
 10
58.9693650903
 20
97.4827576744
  0
LWPOLYLINE
  5
261
100
AcDbEntity
  8
0
100
AcDbPolyline
 62
253
  6
CONTINUOUS
 90
25
 70
0
 10
62.6788761728
 20
139.5192110699
 10
62.6730961152
 20
139.5130979475
 10
62.6674791891
 20
139.5026854357
 10
62.6620456611
 20
139.4880111037
 10
62.6568151357
 20
139.4691278982
 10
62.6518064852
 20
139.4461039516
 10
62.6470377815
 20
139.4190223365
 10
62.6425262303
 20
139.3879807663
 10
62.63828811
 20
139.353091242
 10
62.634338712
 20
139.3144796486
 10
62.6306922861
 20
139.2722853005
 10
62.6273619891
 20
139.2266604394
 10
62.624359837
 20
139.1777696842
 10
62.6216966618
 20
139.1257894377
 10
62.6193820726
 20
139.0709072501
 10
62.6174244207
 20
139.0133211417
 10
62.6158307693
 20
138.953238889
 10
62.6146068687
 20
138.890877275
 10
62.6137571348
 20
138.8264613066
 10
62.6132846334
 20
138.7602234031
 10
62.6131910695
 20
138.6924025577
 10
62.6134767806
 20
138.6232434748
 10
62.6141407358
 20
138.5529956874
 10
62.6151805395
 20
138.4819126566
 10
62.61659244
 20
138.4102508573
  0
LWPOLYLINE
  5
262
100
AcDbEntity
  8
0
100
AcDbPolyline
 62
253
  6
CONTINUOUS
 90
22
 70
0
 10
60.2679108284
 20
65.6914951495
 10
60.2740217006
 20
65.6870879236
 10
60.284334616
 20
65.6829484047
 10
60.298813162
 20
65.6790912087
 10
60.3174062178
 20
65.6755299545
 10
60.3400481355
 20
65.6722772161
 10
60.3666589711
 20
65.6693444783
 10
60.3971447674
 20
65.666742096
 10
60.4313978857
 20
65.6644792575
 10
60.4692973852
 20
65.6625639526
 10
60.5107094511
 20
65.6610029438
 10
60.5554878659
 20
65.6598017425
 10
60.6034745267
 20
65.6589645901
 10
60.6545000026
 20
65.6584944424
 10
60.7083841336
 20
65.6583929593
 10
60.764936666
 20
65.6586604991
 10
60.823957925
 20
65.6592961172
 10
60.8852395189
 20
65.6602975695
 10
60.9485650754
 20
65.6616613199
 10
61.0137110054
 20
65.6633825533
 10
61.0804472922
 20
65.6654551925
 10
61.2177436267
 20
65.6706242011
  0
LWPOLYLINE
  5
263
100
AcDbEntity
  8
0
100
AcDbPolyline
 62
253
  6
CONTINUOUS
 90
11
 70
0
 10
85.244242281
 20
140.1157360269
 10
85.2426324563
 20
140.1097572154
 10
85.2411391392
 20
140.0994731427
 10
85.2397677235
 20
140.0849209533
 10
85.2385231623
 20
140.0661532074
 10
85.2374099509
 20
140.0432376912
 10
85.23643211
 20
140.0162571718
 10
85.2355931714
 20
139.9853090988
 10
85.2348961653
 20
139.9505052516
 10
85.234343609
 20
139.9119713363
 10
85.2336793003
 20
139.8242829848
  0
LWPOLYLINE
  5
264
100
AcDbEntity
  8
0
100
AcDbPolyline
 62
253
  6
CONTINUOUS
 90
21
 70
0
 10
60.2679108468
 20
137.1737735785
 10
60.2740217301
 20
137.1781808078
 10
60.284334653
 20
137.1823203317
 10
60.2988132085
 20
137.1861775339
 10
60.317406285
 20
137.1897387958
 10
60.3400482376
 20
137.1929915421
 10
60.3666591125
 20
137.1959242862
 10
60.3971449457
 20
137.198526673
 10
60.4313981015
 20
137.2007895144
 10
60.4692976376
 20
137.2027048208
 10
60.5107097379
 20
137.20426583
 10
60.5554881839
 20
137.2054670304
 10
60.603474871
 20
137.2063041808
 10
60.6545003673
 20
137.2067743256
 10
60.7083845119
 20
137.2068758049
 10
60.76493705
 20
137.2066082605
 10
60.8239583059
 20
137.2059726372
 10
60.8852398874
 20
137.2049711794
 10
60.9485654216
 20
137.203607423
 10
61.013711319
 20
137.2018861834
 10
61.080447563
 20
137.1998135381
  0
LWPOLYLINE
  5
265
100
AcDbEntity
  8
0
100
AcDbPolyline
 62
253
  6
CONTINUOUS
 90
10
 70
0
 10
85.244242281
 20
62.7495326804
 10
85.2426324563
 20
62.7555114919
 10
85.2411391392
 20
62.7657955646
 10
85.2397677235
 20
62.780347754
 10
85.2385231623
 20
62.7991154999
 10
85.2374099509
 20
62.8220310161
 10
85.23643211
 20
62.8490115355
 10
85.2355931714
 20
62.8799596085
 10
85.2348961653
 20
62.9147634557
 10
85.234343609
 20
62.953297371
  0
LWPOLYLINE
  5
266
100
AcDbEntity
  8
0
100
AcDbPolyline
 62
253
  6
CONTINUOUS
 90
6
 70
0
 10
85.230768716
 20
79.212602964
 10
85.2442725889
 20
79.1601478109
 10
85.2607464077
 20
79.109169722
 10
85.2802167424
 20
79.0598770123
 10
85.3025841052
 20
79.0123602217
 10
85.3277689279
 20
78.9667677615
  0
LWPOLYLINE
  5
267
100
AcDbEntity
  8
0
100
AcDbPolyline
 62
253
  6
CONTINUOUS
 90
6
 70
0
 10
85.206363678
 20
79.1540964691
 10
85.2072428074
 20
79.137097338
 10
85.2098771041
 20
79.120157985
 10
85.2142573044
 20
79.1033379776
 10
85.2203680053
 20
79.0866964636
 10
85.2281877181
 20
79.0702919632
  0
LINE
  5
268
100
AcDbEntity
  8
0
100
AcDbLine
 62
253
  6
CONTINUOUS
 10
85.2314079551
 20
125.2980174021
 11
85.2400715523
 21
125.0977447054
  0
LWPOLYLINE
  5
269
100
AcDbEntity
  8
0
100
AcDbPolyline
 62
253
  6
CONTINUOUS
 90
3
 70
0
 10
85.221654404
 20
125.5607204173
 10
85.2234793202
 20
125.5078586722
 10
85.2314079551
 20
125.2980174021
  0
LWPOLYLINE
  5
26A
100
AcDbEntity
  8
0
100
AcDbPolyline
 62
253
  6
CONTINUOUS
 90
5
 70
0
 10
85.206363678
 20
79.4326343536
 10
85.2079049148
 20
79.3763518601
 10
85.2125165806
 20
79.3208371838
 10
85.2201664742
 20
79.2662277551
 10
85.230768716
 20
79.212602964
  0
LINE
  5
26B
100
AcDbEntity
  8
0
100
AcDbLine
 62
253
  6
CONTINUOUS
 10
85.7033298393
 20
123.9891285206
 11
85.7022807358
 21
124.03156608
  0
LINE
  5
26C
100
AcDbEntity
  8
0
100
AcDbLine
 62
253
  6
CONTINUOUS
 10
85.2391722194
 20
139.2210356211
 11
85.2434786506
 21
139.0079533088
  0
LWPOLYLINE
  5
26D
100
AcDbEntity
  8
0
100
AcDbPolyline
 62
253
  6
CONTINUOUS
 90
3
 70
0
 10
85.7022807358
 20
124.03156608
 10
85.7007709418
 20
124.1140283339
 10
85.7002879681
 20
124.145845384
  0
LINE
  5
26E
100
AcDbEntity
  8
0
100
AcDbLine
 62
253
  6
CONTINUOUS
 10
85.2360240435
 20
139.4242836094
 11
85.2391722194
 21
139.2210356211
  0
LINE
  5
26F
100
AcDbEntity
  8
0
100
AcDbLine
 62
253
  6
CONTINUOUS
 10
85.234136213
 20
139.6111062749
 11
85.2360240435
 21
139.4242836094
  0
LINE
  5
270
100
AcDbEntity
  8
0
100
AcDbLine
 62
253
  6
CONTINUOUS
 10
85.234343609
 20
62.953297371
 11
85.2336793003
 21
63.0409857225
  0
LINE
  5
271
100
AcDbEntity
  8
0
100
AcDbLine
 62
253
  6
CONTINUOUS
 10
85.233609834
 20
139.7235097665
 11
85.234136213
 21
139.6111062749
  0
LINE
  5
272
100
AcDbEntity
  8
0
100
AcDbLine
 62
253
  6
CONTINUOUS
 10
85.2434786506
 20
63.8573153985
 11
85.2278721643
 21
72.8197082976
  0
LINE
  5
273
100
AcDbEntity
  8
0
100
AcDbLine
 62
253
  6
CONTINUOUS
 10
85.2278721643
 20
72.8197082976
 11
85.221654404
 21
77.30454829
  0
LINE
  5
274
100
AcDbEntity
  8
0
100
AcDbLine
 62
253
  6
CONTINUOUS
 10
84.6925693007
 20
125.5416855979
 11
84.6925693062
 21
77.3235831092
  0
LINE
  5
275
100
AcDbEntity
  8
0
100
AcDbLine
 62
7
  6
CONTINUOUS
 10
85.206363678
 20
123.7111720024
 11
85.206363678
 21
79.1540964683
  0
LINE
  5
276
100
AcDbEntity
  8
0
100
AcDbLine
 62
253
  6
CONTINUOUS
 10
85.2336793003
 20
63.0409857225
 11
85.233609834
 21
63.1417589408
  0
LINE
  5
277
100
AcDbEntity
  8
0
100
AcDbLine
 62
253
  6
CONTINUOUS
 10
85.221654404
 20
125.5607204173
 11
85.2434786506
 21
139.0079533088
  0
LINE
  5
278
100
AcDbEntity
  8
0
100
AcDbLine
 62
253
  6
CONTINUOUS
 10
85.2336793003
 20
139.8242829848
 11
85.233609834
 21
139.7235097665
  0
LWPOLYLINE
  5
279
100
AcDbEntity
  8
0
100
AcDbPolyline
 62
253
  6
CONTINUOUS
 90
28
 70
0
 10
85.206363678
 20
79.1540965665
 10
85.2061660432
 20
79.1168973392
 10
85.2055727652
 20
79.0797663092
 10
85.2045835184
 20
79.0427039829
 10
85.2032006517
 20
79.0057355337
 10
85.2014232864
 20
78.9688368109
 10
85.1992414488
 20
78.9319343515
 10
85.1966384789
 20
78.8948668076
 10
85.1936192096
 20
78.8577966504
 10
85.1902117065
 20
78.8211361364
 10
85.1864309929
 20
78.7849650852
 10
85.1822782304
 20
78.7492047054
 10
85.1777749986
 20
78.714029246
 10
85.1729412695
 20
78.6795037784
 10
85.1677807431
 20
78.6455640905
 10
85.1622916697
 20
78.6121904842
 10
85.1564952909
 20
78.5794444795
 10
85.1503898107
 20
78.5472653618
 10
85.143928132
 20
78.5154502566
 10
85.1371483903
 20
78.4841332498
 10
85.1300182378
 20
78.4531812928
 10
85.1223531341
 20
78.4219915542
 10
85.1141497865
 20
78.3905516541
 10
85.1053705201
 20
78.3588764659
 10
85.0957253149
 20
78.3264057071
 10
85.0850693085
 20
78.2929549161
 10
85.0734379565
 20
78.2587144144
 10
85.0607814992
 20
78.223687495
  0
LINE
  5
27A
100
AcDbEntity
  8
0
100
AcDbLine
 62
253
  6
CONTINUOUS
 10
85.233609834
 20
63.1417589408
 11
85.234136213
 21
63.2541624324
  0
LINE
  5
27B
100
AcDbEntity
  8
0
100
AcDbLine
 62
253
  6
CONTINUOUS
 10
85.234136213
 20
63.2541624324
 11
85.2360240435
 21
63.4409850979
  0
LINE
  5
27C
100
AcDbEntity
  8
0
100
AcDbLine
 62
253
  6
CONTINUOUS
 10
85.2360240435
 20
63.4409850979
 11
85.2391722194
 21
63.6442330862
  0
LINE
  5
27D
100
AcDbEntity
  8
0
100
AcDbLine
 62
253
  6
CONTINUOUS
 10
85.7017621739
 20
78.8085541812
 11
85.7002880785
 21
78.7194218202
  0
LINE
  5
27E
100
AcDbEntity
  8
0
100
AcDbLine
 62
253
  6
CONTINUOUS
 10
85.2391722194
 20
63.6442330862
 11
85.2434786506
 21
63.8573153985
  0
LINE
  5
27F
100
AcDbEntity
  8
0
100
AcDbLine
 62
253
  6
CONTINUOUS
 10
85.221654404
 20
77.30454829
 11
85.2293422929
 21
77.515324
  0
LWPOLYLINE
  5
280
100
AcDbEntity
  8
0
100
AcDbPolyline
 62
253
  6
CONTINUOUS
 90
3
 70
0
 10
85.2293422929
 20
77.515324
 10
85.237857347
 20
77.7188496104
 10
85.24007144
 20
77.7675215748
  0
LWPOLYLINE
  5
281
100
AcDbEntity
  8
0
100
AcDbPolyline
 62
253
  6
CONTINUOUS
 90
6
 70
0
 10
85.206363678
 20
123.7111720004
 10
85.2072428519
 20
123.7281715611
 10
85.2098772818
 20
123.7451113395
 10
85.2142577031
 20
123.7619317636
 10
85.2203687114
 20
123.778573681
 10
85.2281888161
 20
123.7949785673
  0
LWPOLYLINE
  5
282
100
AcDbEntity
  8
0
100
AcDbPolyline
 62
253
  6
CONTINUOUS
 90
25
 70
0
 10
85.7002877544
 20
78.7194218202
 10
85.6969444293
 20
78.6832199943
 10
85.6928477156
 20
78.6470849897
 10
85.6879976133
 20
78.6110168067
 10
85.6823706084
 20
78.5748903469
 10
85.6759902148
 20
78.5388307085
 10
85.668926975
 20
78.5032131864
 10
85.6611816995
 20
78.4681232662
 10
85.6527535776
 20
78.4334754622
 10
85.6437107196
 20
78.3993886119
 10
85.6340685587
 20
78.3659171042
 10
85.6238116616
 20
78.3330065502
 10
85.6129618385
 20
78.3006126196
 10
85.6015561855
 20
78.2687930383
 10
85.5895576064
 20
78.2374900804
 10
85.576876624
 20
78.2064862386
 10
85.5636144613
 20
78.1758973734
 10
85.5496698952
 20
78.1456076244
 10
85.5346497792
 20
78.115051902
 10
85.5186436973
 20
78.08420794
 10
85.5015620655
 20
78.0530980047
 10
85.482742986
 20
78.0212238052
 10
85.461965826
 20
77.9884192446
 10
85.4394512183
 20
77.9548504199
 10
85.4151991629
 20
77.9205173309
  0
LWPOLYLINE
  5
283
100
AcDbEntity
  8
0
100
AcDbPolyline
 62
253
  6
CONTINUOUS
 90
4
 70
0
 10
85.2225721844
 20
123.6127457597
 10
85.2137620942
 20
123.5551071893
 10
85.2082605985
 20
123.4950180105
 10
85.206363678
 20
123.4326343536
  0
LWPOLYLINE
  5
284
100
AcDbEntity
  8
0
100
AcDbPolyline
 62
253
  6
CONTINUOUS
 90
7
 70
0
 10
85.3277686485
 20
123.8985005222
 10
85.3054999001
 20
123.8588100355
 10
85.2847337102
 20
123.8158963069
 10
85.2657578622
 20
123.7697818122
 10
85.2488741724
 20
123.7203970451
 10
85.2343798338
 20
123.6679139864
 10
85.2225721844
 20
123.6127457597
  0
LWPOLYLINE
  5
285
100
AcDbEntity
  8
0
100
AcDbPolyline
 62
253
  6
CONTINUOUS
 90
8
 70
0
 10
85.2281888161
 20
123.7949785673
 10
85.2376905161
 20
123.8110887314
 10
85.2488398687
 20
123.8268468312
 10
85.261598051
 20
123.8421981738
 10
85.2759222
 20
123.8570907184
 10
85.2917632768
 20
123.8714725127
 10
85.3090655355
 20
123.8852920711
 10
85.3277686485
 20
123.8985005222
  0
LWPOLYLINE
  5
286
100
AcDbEntity
  8
0
100
AcDbPolyline
 62
253
  6
CONTINUOUS
 90
13
 70
0
 10
85.0607814522
 20
124.6415813515
 10
85.0813867775
 20
124.6706874824
 10
85.1042097295
 20
124.699709098
 10
85.1290986917
 20
124.7284533985
 10
85.15588833
 20
124.7567294347
 10
85.1844006675
 20
124.7843493497
 10
85.2144462608
 20
124.8111296291
 10
85.2458254961
 20
124.8368923568
 10
85.2783299177
 20
124.861466392
 10
85.311743584
 20
124.8846884809
 10
85.3458445153
 20
124.9064043534
 10
85.3804061689
 20
124.9264697482
 10
85.4151989408
 20
124.9447513681
  0
LWPOLYLINE
  5
287
100
AcDbEntity
  8
0
100
AcDbPolyline
 62
253
  6
CONTINUOUS
 90
10
 70
0
 10
84.9712658623
 20
77.9947731983
 10
84.9966928088
 20
77.9677534618
 10
85.0236616413
 20
77.9407797371
 10
85.0519986888
 20
77.9140257076
 10
85.0815213821
 20
77.8876637177
 10
85.1120396992
 20
77.861863421
 10
85.143357417
 20
77.8367907066
 10
85.1752729926
 20
77.8126069539
 10
85.2075808345
 20
77.7894679731
 10
85.2400729148
 20
77.7675227728
  0
LWPOLYLINE
  5
288
100
AcDbEntity
  8
0
100
AcDbPolyline
 62
253
  6
CONTINUOUS
 90
10
 70
0
 10
85.3277689026
 20
79.106036748
 10
85.3350396588
 20
79.0958349047
 10
85.3405224049
 20
79.0841669217
 10
85.3441917372
 20
79.0710868709
 10
85.3460306583
 20
79.0566553253
 10
85.3460306377
 20
79.0409391948
 10
85.3441917009
 20
79.0240114503
 10
85.34052243
 20
79.0059506107
 10
85.3350398746
 20
78.9868403458
 10
85.3277694876
 20
78.9667692279
  0
LWPOLYLINE
  5
289
100
AcDbEntity
  8
0
100
AcDbPolyline
 62
253
  6
CONTINUOUS
 90
13
 70
0
 10
85.0607813717
 20
78.2236876245
 10
85.0813867179
 20
78.1945814135
 10
85.1042096866
 20
78.1655597414
 10
85.1290986555
 20
78.1368154087
 10
85.1558882746
 20
78.1085393757
 10
85.1844005725
 20
78.0809194863
 10
85.2144461401
 20
78.0541392204
 10
85.2458253753
 20
78.0283764874
 10
85.2783298155
 20
78.003802438
 10
85.3117435314
 20
77.98058032
 10
85.3458445483
 20
77.9588644048
 10
85.3804063195
 20
77.9387989615
 10
85.4151992401
 20
77.9205172929
  0
LWPOLYLINE
  5
28A
100
AcDbEntity
  8
0
100
AcDbPolyline
 62
253
  6
CONTINUOUS
 90
8
 70
0
 10
85.2281877181
 20
79.0702919632
 10
85.2376889447
 20
79.0541821631
 10
85.2488376037
 20
79.0384245855
 10
85.2615949804
 20
79.0230737249
 10
85.275918753
 20
79.0081810964
 10
85.291760244
 20
78.9937985374
 10
85.3090636989
 20
78.979977777
 10
85.3277689279
 20
78.9667677615
  0
LWPOLYLINE
  5
28B
100
AcDbEntity
  8
0
100
AcDbPolyline
 62
253
  6
CONTINUOUS
 90
19
 70
0
 10
85.3277711955
 20
78.9667662538
 10
85.3432411763
 20
78.9397209153
 10
85.3592388056
 20
78.9142882972
 10
85.3757552373
 20
78.8904977723
 10
85.3927317202
 20
78.8684862191
 10
85.410198272
 20
78.8481780327
 10
85.4282849271
 20
78.8292892872
 10
85.4469303027
 20
78.8118388847
 10
85.4661674267
 20
78.7958829096
 10
85.4862942682
 20
78.7812163748
 10
85.507452793
 20
78.7677898055
 10
85.5294935672
 20
78.7557853313
 10
85.5522826616
 20
78.7453604664
 10
85.5758229705
 20
78.7366104001
 10
85.6000450126
 20
78.7295721261
 10
85.6246826348
 20
78.7242925749
 10
85.64960574
 20
78.7208107616
 10
85.6748289054
 20
78.7191785332
 10
85.7002897597
 20
78.7194420047
  0
LWPOLYLINE
  5
28C
100
AcDbEntity
  8
0
100
AcDbPolyline
 62
253
  6
CONTINUOUS
 90
9
 70
0
 10
85.706363678
 20
78.9326343536
 10
85.7058822695
 20
78.9310354047
 10
85.7053909045
 20
78.9262488048
 10
85.7048895828
 20
78.9183051979
 10
85.7043749858
 20
78.9072554325
 10
85.7038504321
 20
78.8931702015
 10
85.7033258784
 20
78.8761395584
 10
85.7028013247
 20
78.8562724248
 10
85.7017621739
 20
78.8085541812
  0
LWPOLYLINE
  5
28D
100
AcDbEntity
  8
0
100
AcDbPolyline
 62
253
  6
CONTINUOUS
 90
10
 70
0
 10
85.3277685895
 20
123.7592315964
 10
85.3350394013
 20
123.7694335074
 10
85.3405221973
 20
123.7811015263
 10
85.3441915711
 20
123.794181586
 10
85.3460305194
 20
123.8086130759
 10
85.3460305211
 20
123.8243291243
 10
85.3441915755
 20
123.8412569086
 10
85.340522203
 20
123.8593179906
 10
85.3350394059
 20
123.8784286791
 10
85.3277685896
 20
123.8985004198
  0
LWPOLYLINE
  5
28E
100
AcDbEntity
  8
0
100
AcDbPolyline
 62
253
  6
CONTINUOUS
 90
10
 70
0
 10
84.9712670583
 20
124.8704963275
 10
84.9966935591
 20
124.8975156274
 10
85.023662017
 20
124.9244890206
 10
85.0519987873
 20
124.9512428296
 10
85.0815214164
 20
124.9776047921
 10
85.1120398117
 20
125.0034051655
 10
85.1433574647
 20
125.0284778204
 10
85.1752727237
 20
125.0526613162
 10
85.2075800929
 20
125.0757999405
 10
85.2400715501
 20
125.0977447074
  0
LINE
  5
28F
100
AcDbEntity
  8
0
100
AcDbLine
 62
253
  6
CONTINUOUS
 10
84.9925233431
 20
124.8172700341
 11
85.0130285823
 21
124.7653798843
  0
LINE
  5
290
100
AcDbEntity
  8
0
100
AcDbLine
 62
253
  6
CONTINUOUS
 10
85.0130285823
 20
124.7653798843
 11
85.0327360011
 21
124.7148473949
  0
LWPOLYLINE
  5
291
100
AcDbEntity
  8
0
100
AcDbPolyline
 62
253
  6
CONTINUOUS
 90
3
 70
0
 10
85.0327360011
 20
124.7148473949
 10
85.0516461024
 20
124.6656649466
 10
85.0607813804
 20
124.6415811891
  0
LWPOLYLINE
  5
292
100
AcDbEntity
  8
0
100
AcDbPolyline
 62
253
  6
CONTINUOUS
 90
25
 70
0
 10
85.0607813804
 20
124.6415811891
 10
85.0724294839
 20
124.6095668623
 10
85.0834640612
 20
124.5773090679
 10
85.0938955337
 20
124.5448094025
 10
85.1037004033
 20
124.5121281149
 10
85.112929668
 20
124.4792080119
 10
85.1216941939
 20
124.4458740055
 10
85.1299970933
 20
124.4121548033
 10
85.1378390863
 20
124.3780235279
 10
85.1453025554
 20
124.3432209579
 10
85.152396241
 20
124.3076683823
 10
85.159090231
 20
124.2714456575
 10
85.1653928384
 20
124.2345310535
 10
85.1712843405
 20
124.1969764714
 10
85.1767607102
 20
124.1587312011
 10
85.1818415681
 20
124.1196194431
 10
85.1864956803
 20
124.0797386674
 10
85.1907142905
 20
124.038992582
 10
85.1945221208
 20
123.9969145457
 10
85.1978767443
 20
123.9535127786
 10
85.2007367539
 20
123.9087803909
 10
85.2030846355
 20
123.8622280223
 10
85.2048579656
 20
123.8136932458
 10
85.2059750406
 20
123.7633406631
 10
85.206363678
 20
123.7111717133
  0
LWPOLYLINE
  5
293
100
AcDbEntity
  8
0
100
AcDbPolyline
 62
253
  6
CONTINUOUS
 90
7
 70
0
 10
85.706363678
 20
123.9326343536
 10
85.705883365
 20
123.9342337976
 10
85.7053929213
 20
123.9390214671
 10
85.7048923469
 20
123.946966095
 10
85.7043783255
 20
123.9580159523
 10
85.7038541733
 20
123.972099899
 10
85.7033298393
 20
123.9891285206
  0
LINE
  5
294
100
AcDbEntity
  8
0
100
AcDbLine
 62
253
  6
CONTINUOUS
 10
85.0607814992
 20
78.223687495
 11
85.0402614927
 21
78.1698417765
  0
LINE
  5
295
100
AcDbEntity
  8
0
100
AcDbLine
 62
253
  6
CONTINUOUS
 10
85.0402614927
 20
78.1698417765
 11
85.0100006396
 21
78.0921792603
  0
LINE
  5
296
100
AcDbEntity
  8
0
100
AcDbLine
 62
253
  6
CONTINUOUS
 10
85.0100006396
 20
78.0921792603
 11
84.9712663216
 21
77.9947722899
  0
LINE
  5
297
100
AcDbEntity
  8
0
100
AcDbLine
 62
253
  6
CONTINUOUS
 10
84.9712663216
 20
77.9947722899
 11
84.9440734033
 21
77.9271048776
  0
LINE
  5
298
100
AcDbEntity
  8
0
100
AcDbLine
 62
253
  6
CONTINUOUS
 10
84.9440734033
 20
77.9271048776
 11
84.8869586185
 21
77.7880018477
  0
LINE
  5
299
100
AcDbEntity
  8
0
100
AcDbLine
 62
253
  6
CONTINUOUS
 10
84.8869586185
 20
77.7880018477
 11
84.7961766012
 21
77.5699723051
  0
LINE
  5
29A
100
AcDbEntity
  8
0
100
AcDbLine
 62
253
  6
CONTINUOUS
 10
84.7961766012
 20
77.5699723051
 11
84.6925693062
 21
77.3235831092
  0
LINE
  5
29B
100
AcDbEntity
  8
0
100
AcDbLine
 62
253
  6
CONTINUOUS
 10
84.6925693062
 20
125.5416855884
 11
84.8541495548
 21
125.1564191553
  0
LWPOLYLINE
  5
29C
100
AcDbEntity
  8
0
100
AcDbPolyline
 62
253
  6
CONTINUOUS
 90
3
 70
0
 10
84.8541495548
 20
125.1564191553
 10
84.9226101006
 20
124.9908410731
 10
84.9467736514
 20
124.9316052929
  0
LINE
  5
29D
100
AcDbEntity
  8
0
100
AcDbLine
 62
253
  6
CONTINUOUS
 10
84.9467736514
 20
124.9316052929
 11
84.9925233431
 21
124.8172700341
  0
LINE
  5
29E
100
AcDbEntity
  8
0
100
AcDbLine
 62
253
  6
CONTINUOUS
 10
60.2679108284
 20
137.1737735578
 11
60.0361479424
 21
137.4128397903
  0
LWPOLYLINE
  5
29F
100
AcDbEntity
  8
0
100
AcDbPolyline
 62
253
  6
CONTINUOUS
 90
25
 70
0
 10
85.4151989406
 20
124.9447513683
 10
85.4357620191
 20
124.9160710673
 10
85.4553858315
 20
124.8872116374
 10
85.4740703779
 20
124.8581730784
 10
85.4917553224
 20
124.8289905171
 10
85.5085010008
 20
124.7996288267
 10
85.5244884206
 20
124.7699826276
 10
85.5397348504
 20
124.7400778821
 10
85.5542230216
 20
124.709888628
 10
85.5680821354
 20
124.6792315981
 10
85.5813492177
 20
124.648069266
 10
85.5939872427
 20
124.6164391581
 10
85.6060143339
 20
124.5842705872
 10
85.6174438369
 20
124.5515536751
 10
85.6282624061
 20
124.5182982999
 10
85.6384481287
 20
124.4844634083
 10
85.6480016504
 20
124.4500947961
 10
85.6569223255
 20
124.4151466674
 10
85.6651863036
 20
124.3794405811
 10
85.6728094963
 20
124.3430313042
 10
85.6797759919
 20
124.3058640697
 10
85.686014205
 20
124.2675961347
 10
85.6915002735
 20
124.2281132516
 10
85.6962580594
 20
124.187529668
 10
85.7002875627
 20
124.145845384
  0
LINE
  5
2A0
100
AcDbEntity
  8
0
100
AcDbLine
 62
253
  6
CONTINUOUS
 10
60.2679108284
 20
65.6914951495
 11
60.0361479424
 21
65.452428917
  0
LINE
  5
2A1
100
AcDbEntity
  8
0
100
AcDbLine
 62
253
  6
CONTINUOUS
 10
265.2338511832
 20
63.3460576374
 11
259.6374426011
 21
63.1890304811
  0
LINE
  5
2A2
100
AcDbEntity
  8
0
100
AcDbLine
 62
253
  6
CONTINUOUS
 10
259.6374426011
 20
63.1890304811
 11
254.3729451077
 21
63.0469760374
  0
LWPOLYLINE
  5
2A3
100
AcDbEntity
  8
0
100
AcDbPolyline
 62
253
  6
CONTINUOUS
 90
3
 70
0
 10
254.3729451077
 20
63.0469760374
 10
249.4407769191
 20
62.9184578862
 10
247.0999318073
 20
62.8591955415
  0
LINE
  5
2A4
100
AcDbEntity
  8
0
100
AcDbLine
 62
253
  6
CONTINUOUS
 10
85.244242281
 20
62.7495326804
 11
79.6108634072
 21
62.8893153581
  0
LINE
  5
2A5
100
AcDbEntity
  8
0
100
AcDbLine
 62
253
  6
CONTINUOUS
 10
79.6108634072
 20
62.8893153581
 11
74.3313630587
 21
63.0260469912
  0
LINE
  5
2A6
100
AcDbEntity
  8
0
100
AcDbLine
 62
253
  6
CONTINUOUS
 10
74.3313630587
 20
63.0260469912
 11
69.4055519873
 21
63.1581798224
  0
LWPOLYLINE
  5
2A7
100
AcDbEntity
  8
0
100
AcDbPolyline
 62
253
  6
CONTINUOUS
 90
3
 70
0
 10
69.4055519873
 20
63.1581798224
 10
64.8328173274
 20
63.2851091995
 10
62.6788761728
 20
63.3460576374
  0
LWPOLYLINE
  5
2A8
100
AcDbEntity
  8
0
100
AcDbPolyline
 62
253
  6
CONTINUOUS
 90
34
 70
0
 10
62.61659244
 20
64.45501785
 10
62.5563217412
 20
64.4583022795
 10
62.4972079082
 20
64.4640309903
 10
62.4392508236
 20
64.4722039886
 10
62.3826004833
 20
64.4828313542
 10
62.3271066756
 20
64.4959030278
 10
62.2723189971
 20
64.5113888106
 10
62.2179617854
 20
64.5293237044
 10
62.164310561
 20
64.5496727433
 10
62.1117417113
 20
64.5723007792
 10
62.0602899253
 20
64.5972130343
 10
62.0099203895
 20
64.6244043344
 10
61.9609052366
 20
64.6537239373
 10
61.9132463347
 20
64.6851860417
 10
61.8669417265
 20
64.7187765061
 10
61.8222578138
 20
64.7543020758
 10
61.7792078475
 20
64.7917685076
 10
61.7377785276
 20
64.8311701068
 10
61.6981964386
 20
64.8722964375
 10
61.6604544021
 20
64.9151844027
 10
61.6245595911
 20
64.9597971631
 10
61.5907601268
 20
65.005813662
 10
61.5591658144
 20
65.0530099432
 10
61.5296668857
 20
65.1016100165
 10
61.502182115
 20
65.1519647751
 10
61.4765684042
 20
65.2042228523
 10
61.4529689415
 20
65.2582356949
 10
61.4317319499
 20
65.3139084233
 10
61.4128293364
 20
65.3714138512
 10
61.3962893472
 20
65.4305792481
 10
61.3825447277
 20
65.4907914025
 10
61.3717397906
 20
65.5518459212
 10
61.3637304214
 20
65.6139472471
 10
61.3585167332
 20
65.6770954072
  0
LWPOLYLINE
  5
2A9
100
AcDbEntity
  8
0
100
AcDbPolyline
 62
7
  6
CONTINUOUS
 90
34
 70
0
 10
62.4458953902
 20
63.1069251355
 10
62.3346350075
 20
63.1130326445
 10
62.2239018816
 20
63.1241170786
 10
62.1136960125
 20
63.1401784379
 10
62.0036678486
 20
63.1612834089
 10
61.8941669415
 20
63.1873653051
 10
61.7862419465
 20
63.2182240666
 10
61.6799751669
 20
63.2539230786
 10
61.5752842994
 20
63.2943989559
 10
61.4729710886
 20
63.3392614836
 10
61.3732743243
 20
63.3883983091
 10
61.2759552166
 20
63.441921785
 10
61.1810991414
 20
63.4997787543
 10
61.0885133323
 20
63.5620776472
 10
60.9983905556
 20
63.6287100335
 10
60.9113944861
 20
63.6992974666
 10
60.8274983945
 20
63.7739553925
 10
60.74672901
 20
63.852568365
 10
60.6698301953
 20
63.9344115996
 10
60.5969189213
 20
64.0194598525
 10
60.5278782169
 20
64.1077383674
 10
60.4631010321
 20
64.1985980903
 10
60.4027001838
 20
64.291848717
 10
60.3465628551
 20
64.3876805516
 10
60.2947435446
 20
64.4860154528
 10
60.2471214352
 20
64.5870942145
 10
60.2038173441
 20
64.6906760428
 10
60.1652482219
 20
64.7959604138
 10
60.1314772669
 20
64.903028267
 10
60.1024412808
 20
65.011798663
 10
60.0783676197
 20
65.1212282601
 10
60.059332069
 20
65.2309692779
 10
60.0452588432
 20
65.3413694969
 10
60.0361479424
 20
65.452428917
  0
LWPOLYLINE
  5
2AA
100
AcDbEntity
  8
0
100
AcDbPolyline
 62
253
  6
CONTINUOUS
 90
34
 70
0
 10
62.6788761914
 20
63.3460576565
 10
62.5640070565
 20
63.352358552
 10
62.4509376095
 20
63.3637566978
 10
62.3398810204
 20
63.3800420823
 10
62.2315147092
 20
63.4008945949
 10
62.1255249749
 20
63.4261561433
 10
62.020657275
 20
63.4560403833
 10
61.9166063406
 20
63.4906836969
 10
61.8140971764
 20
63.5298958621
 10
61.7134567881
 20
63.5735580177
 10
61.6149273049
 20
63.6215558783
 10
61.5186427351
 20
63.6738142918
 10
61.424757338
 20
63.7302480604
 10
61.3334413402
 20
63.7907555792
 10
61.2448800102
 20
63.8552145255
 10
61.1592448616
 20
63.9235007878
 10
61.0767096341
 20
63.9954745308
 10
60.9974221575
 20
64.0710051456
 10
60.921509505
 20
64.1499751847
 10
60.8490808865
 20
64.2322841247
 10
60.7803231517
 20
64.3177326897
 10
60.7154581631
 20
64.4060367268
 10
60.6548593763
 20
64.4966084469
 10
60.5983343881
 20
64.5896529339
 10
60.5453744092
 20
64.6861453015
 10
60.4960722658
 20
64.7862904774
 10
60.450844482
 20
64.88965775
 10
60.4098447288
 20
64.9963471154
 10
60.3732607953
 20
65.1064809606
 10
60.3414713392
 20
65.2196216936
 10
60.314864645
 20
65.3349903075
 10
60.2936498599
 20
65.4521596823
 10
60.2779458298
 20
65.5710800208
 10
60.2679108515
 20
65.6914951734
  0
LINE
  5
2AB
100
AcDbEntity
  8
0
100
AcDbLine
 62
253
  6
CONTINUOUS
 10
62.6788761728
 20
139.5192110699
 11
62.4458953902
 21
139.7583435718
  0
LINE
  5
2AC
100
AcDbEntity
  8
0
100
AcDbLine
 62
253
  6
CONTINUOUS
 10
62.6788761728
 20
63.3460576374
 11
62.4458953902
 21
63.1069251355
  0
LINE
  5
2AD
100
AcDbEntity
  8
0
100
AcDbLine
 62
253
  6
CONTINUOUS
 10
265.296134916
 20
64.45501785
 11
259.6847749124
 21
64.2979697445
  0
LINE
  5
2AE
100
AcDbEntity
  8
0
100
AcDbLine
 62
253
  6
CONTINUOUS
 10
259.6847749124
 20
64.2979697445
 11
254.4055166506
 21
64.1552702518
  0
LINE
  5
2AF
100
AcDbEntity
  8
0
100
AcDbLine
 62
253
  6
CONTINUOUS
 10
254.4055166506
 20
64.1552702518
 11
249.4600041874
 21
64.0265764722
  0
LWPOLYLINE
  5
2B0
100
AcDbEntity
  8
0
100
AcDbPolyline
 62
253
  6
CONTINUOUS
 90
3
 70
0
 10
249.4600041874
 20
64.0265764722
 10
244.8489573688
 20
63.9105196567
 10
242.6692487054
 20
63.8573153985
  0
LINE
  5
2B1
100
AcDbEntity
  8
0
100
AcDbLine
 62
253
  6
CONTINUOUS
 10
247.0999318073
 20
62.8591955415
 11
242.668485075
 21
62.7495326804
  0
LWPOLYLINE
  5
2B2
100
AcDbEntity
  8
0
100
AcDbPolyline
 62
253
  6
CONTINUOUS
 90
19
 70
0
 10
242.668485075
 20
62.7495326804
 10
233.7637179062
 20
62.5452441401
 10
225.0336680089
 20
62.3688836775
 10
216.4784246159
 20
62.218961043
 10
208.1523154636
 20
62.0947198214
 10
200.0011695581
 20
61.9937366284
 10
191.8623017233
 20
61.9133627645
 10
183.7400400005
 20
61.8536169006
 10
175.6301548805
 20
61.8142604487
 10
167.3571026847
 20
61.7949494195
 10
158.8660234206
 20
61.7971459048
 10
150.2118802053
 20
61.8223521431
 10
141.3838657119
 20
61.8718078767
 10
132.3600128815
 20
61.9472191354
 10
123.1624374504
 20
62.0500341619
 10
113.8464605172
 20
62.1807469079
 10
104.4305788795
 20
62.3400233687
 10
94.8964730291
 20
62.5292512885
 10
85.244242281
 20
62.7495326804
  0
LWPOLYLINE
  5
2B3
100
AcDbEntity
  8
0
100
AcDbPolyline
 62
253
  6
CONTINUOUS
 90
19
 70
0
 10
242.6692487054
 20
63.8573153985
 10
233.7643941104
 20
63.6550555721
 10
225.0342588422
 20
63.4778462083
 10
216.4789325615
 20
63.3256853017
 10
208.152742507
 20
63.199972369
 10
200.0015171294
 20
63.0993046574
 10
191.8625711096
 20
63.0194773689
 10
183.7402310694
 20
62.9587880438
 10
175.6302668412
 20
62.9189378246
 10
167.3571354898
 20
62.9008277939
 10
158.8659746208
 20
62.9033925864
 10
150.2117469481
 20
62.927697413
 10
141.3836478659
 20
62.9778395807
 10
132.3597084089
 20
63.054156315
 10
123.1620431813
 20
63.1563119103
 10
113.8459760106
 20
63.2873949314
 10
104.4300036238
 20
63.4484362588
 10
94.8958046816
 20
63.6384089197
 10
85.2434786506
 20
63.8573153985
  0
LINE
  5
2B4
100
AcDbEntity
  8
0
100
AcDbLine
 62
253
  6
CONTINUOUS
 10
85.2434786506
 20
63.8573153985
 11
79.5948157995
 21
63.9976826706
  0
LINE
  5
2B5
100
AcDbEntity
  8
0
100
AcDbLine
 62
253
  6
CONTINUOUS
 10
79.5948157995
 20
63.9976826706
 11
74.3008080433
 21
64.1342933156
  0
LINE
  5
2B6
100
AcDbEntity
  8
0
100
AcDbLine
 62
253
  6
CONTINUOUS
 10
74.3008080433
 20
64.1342933156
 11
69.3616069373
 21
64.2667715955
  0
LWPOLYLINE
  5
2B7
100
AcDbEntity
  8
0
100
AcDbPolyline
 62
253
  6
CONTINUOUS
 90
3
 70
0
 10
69.3616069373
 20
64.2667715955
 10
64.7764309918
 20
64.3936152414
 10
62.61659244
 20
64.45501785
  0
LINE
  5
2B8
100
AcDbEntity
  8
0
100
AcDbLine
 62
253
  6
CONTINUOUS
 10
85.2400715523
 20
125.0977447054
 11
85.2817389997
 21
125.0622646181
  0
LINE
  5
2B9
100
AcDbEntity
  8
0
100
AcDbLine
 62
253
  6
CONTINUOUS
 10
85.2817389997
 20
125.0622646181
 11
85.3218568262
 21
125.0276158077
  0
LINE
  5
2BA
100
AcDbEntity
  8
0
100
AcDbLine
 62
253
  6
CONTINUOUS
 10
85.3218568262
 20
125.0276158077
 11
85.3604088976
 21
124.9938309248
  0
LWPOLYLINE
  5
2BB
100
AcDbEntity
  8
0
100
AcDbPolyline
 62
253
  6
CONTINUOUS
 90
3
 70
0
 10
85.3604088976
 20
124.9938309248
 10
85.3973393886
 20
124.9608867496
 10
85.4151989879
 20
124.9447513698
  0
LWPOLYLINE
  5
2BC
100
AcDbEntity
  8
0
100
AcDbPolyline
 62
253
  6
CONTINUOUS
 90
4
 70
0
 10
85.4151992797
 20
77.9205173272
 10
85.3750421584
 20
77.8844772822
 10
85.3551972116
 20
77.8668374736
 10
85.3354842604
 20
77.8495109809
  0
LINE
  5
2BD
100
AcDbEntity
  8
0
100
AcDbLine
 62
253
  6
CONTINUOUS
 10
85.3354842604
 20
77.8495109809
 11
85.2966009113
 21
77.8157899794
  0
LWPOLYLINE
  5
2BE
100
AcDbEntity
  8
0
100
AcDbPolyline
 62
253
  6
CONTINUOUS
 90
3
 70
0
 10
85.2966009113
 20
77.8157899794
 10
85.2586847716
 20
77.7832684334
 10
85.2400715341
 20
77.7675236066
  0
LINE
  5
2BF
100
AcDbEntity
  8
0
100
AcDbLine
 62
253
  6
CONTINUOUS
 10
85.24007144
 20
77.7675215748
 11
85.1864055945
 21
77.7226762621
  0
LINE
  5
2C0
100
AcDbEntity
  8
0
100
AcDbLine
 62
253
  6
CONTINUOUS
 10
61.2177436267
 20
65.6706242011
 11
61.3585167332
 21
65.6770954072
  0
LWPOLYLINE
  5
2C1
100
AcDbEntity
  8
0
100
AcDbPolyline
 62
253
  6
CONTINUOUS
 90
18
 70
0
 10
243.2201580558
 20
77.3235831094
 10
233.9167306325
 20
77.0143888706
 10
225.1812875214
 20
76.7588027747
 10
216.4848122558
 20
76.5377874625
 10
207.8405842245
 20
76.3518390564
 10
199.2354543702
 20
76.2004572762
 10
190.6298413511
 20
76.082145529
 10
182.0253792064
 20
75.9962485284
 10
173.4205476603
 20
75.9434195267
 10
164.7710280663
 20
75.9241252849
 10
156.0594058957
 20
75.9380495868
 10
147.3032112878
 20
75.9855085936
 10
138.510542988
 20
76.0679181609
 10
129.6762379083
 20
76.1855544717
 10
120.8055860881
 20
76.3381434705
 10
111.9223654061
 20
76.5262762462
 10
103.0345442457
 20
76.7501512826
 10
94.1342847108
 20
77.0095744134
  0
LWPOLYLINE
  5
2C2
100
AcDbEntity
  8
0
100
AcDbPolyline
 62
253
  6
CONTINUOUS
 90
19
 70
0
 10
242.4975284334
 20
77.9205173396
 10
233.7451629843
 20
77.6321894105
 10
225.0316101279
 20
77.3782093061
 10
216.3568698642
 20
77.1585770267
 10
207.7340494928
 20
76.9737877333
 10
199.1500417142
 20
76.8233462647
 10
190.5655246293
 20
76.7057671375
 10
181.9820490795
 20
76.6204003489
 10
173.3980642234
 20
76.5678959017
 10
164.7695956379
 20
76.5487183199
 10
156.0792554253
 20
76.5625534943
 10
147.3444314834
 20
76.6097155343
 10
138.5733130823
 20
76.6916112915
 10
129.7606891793
 20
76.8085130602
 10
120.9117708171
 20
76.9601485462
 10
112.0503803945
 20
77.1471077193
 10
103.1844587111
 20
77.3695872361
 10
94.3060649672
 20
77.62739044
 10
85.4151991629
 20
77.9205173309
  0
LINE
  5
2C3
100
AcDbEntity
  8
0
100
AcDbLine
 62
253
  6
CONTINUOUS
 10
94.1342847108
 20
77.0095744134
 11
84.6925693062
 21
77.3235831092
  0
LINE
  5
2C4
100
AcDbEntity
  8
0
100
AcDbLine
 62
253
  6
CONTINUOUS
 10
266.832279793
 20
65.6654551692
 11
266.6949835747
 21
65.6706241902
  0
LINE
  5
2C5
100
AcDbEntity
  8
0
100
AcDbLine
 62
253
  6
CONTINUOUS
 10
266.6949835747
 20
65.6706241902
 11
266.5542106228
 21
65.6770954072
  0
LINE
  5
2C6
100
AcDbEntity
  8
0
100
AcDbLine
 62
253
  6
CONTINUOUS
 10
84.6925693007
 20
125.5416855979
 11
84.7894075852
 21
125.4648786432
  0
LINE
  5
2C7
100
AcDbEntity
  8
0
100
AcDbLine
 62
253
  6
CONTINUOUS
 10
84.7894075852
 20
125.4648786432
 11
84.9237061999
 21
125.3575319753
  0
LWPOLYLINE
  5
2C8
100
AcDbEntity
  8
0
100
AcDbPolyline
 62
253
  6
CONTINUOUS
 90
3
 70
0
 10
84.9237061999
 20
125.3575319753
 10
85.053679824
 20
125.2524734473
 10
85.0982128416
 20
125.2159075664
  0
LWPOLYLINE
  5
2C9
100
AcDbEntity
  8
0
100
AcDbPolyline
 62
253
  6
CONTINUOUS
 90
3
 70
0
 10
85.0982128416
 20
125.2159075664
 10
85.1916074885
 20
125.1381598475
 10
85.2400715241
 20
125.0977453153
  0
LWPOLYLINE
  5
2CA
100
AcDbEntity
  8
0
100
AcDbPolyline
 62
253
  6
CONTINUOUS
 90
3
 70
0
 10
85.1864055945
 20
77.7226762621
 10
85.0747181005
 20
77.6301022221
 10
85.0171770129
 20
77.5831440049
  0
LWPOLYLINE
  5
2CB
100
AcDbEntity
  8
0
100
AcDbPolyline
 62
253
  6
CONTINUOUS
 90
4
 70
0
 10
85.0171770129
 20
77.5831440049
 10
84.8312565532
 20
77.4335959584
 10
84.7633162631
 20
77.3794466439
 10
84.6925693062
 20
77.3235831092
  0
LWPOLYLINE
  5
2CC
100
AcDbEntity
  8
0
100
AcDbPolyline
 62
7
  6
CONTINUOUS
 90
22
 70
0
 10
165.9725703419
 20
78.4801054631
 10
166.013770186
 20
78.4862096282
 10
166.0549709322
 20
78.4919687424
 10
166.0961725804
 20
78.4973828058
 10
166.1373315389
 20
78.5025213331
 10
166.1784913994
 20
78.5073148095
 10
166.2197829373
 20
78.5115546909
 10
166.2612213807
 20
78.5152513382
 10
166.3027915015
 20
78.5183943904
 10
166.3445783901
 20
78.5207442202
 10
166.3866351228
 20
78.5223076058
 10
166.4289086234
 20
78.523077769
 10
166.4713247532
 20
78.5227947486
 10
166.5139430315
 20
78.521455163
 10
166.5567039392
 20
78.5190623937
 10
166.5993547801
 20
78.5153666246
 10
166.6419672973
 20
78.5103999893
 10
166.6844697478
 20
78.5041303541
 10
166.7263942069
 20
78.4962115018
 10
166.7675846998
 20
78.4865280265
 10
166.8081972013
 20
78.4751953342
 10
166.8482317115
 20
78.4622134246
  0
LWPOLYLINE
  5
2CD
100
AcDbEntity
  8
0
100
AcDbPolyline
 62
7
  6
CONTINUOUS
 90
25
 70
0
 10
166.5169858224
 20
77.7439321886
 10
166.5409990183
 20
77.7450892466
 10
166.5638917022
 20
77.7472373599
 10
166.585663874
 20
77.7503765283
 10
166.6063063457
 20
77.7545118075
 10
166.6258283053
 20
77.759638142
 10
166.6442573171
 20
77.7657403651
 10
166.6616438554
 20
77.7728227918
 10
166.677937446
 20
77.7808811072
 10
166.6930142298
 20
77.7898871995
 10
166.7067989756
 20
77.7998676707
 10
166.7193669146
 20
77.8107959188
 10
166.7308198822
 20
77.8225640268
 10
166.7411348107
 20
77.8352168412
 10
166.7503347679
 20
77.8487095154
 10
166.7585907927
 20
77.8627995924
 10
166.7659416192
 20
77.87750083
 10
166.7723485134
 20
77.8927994703
 10
166.7778663129
 20
77.9084117831
 10
166.7825056552
 20
77.9242511785
 10
166.7862559029
 20
77.9404042463
 10
166.7891399804
 20
77.9568470259
 10
166.7911655295
 20
77.9735715306
 10
166.7923249084
 20
77.9905857471
 10
166.7926181173
 20
78.0078896755
  0
LINE
  5
2CE
100
AcDbEntity
  8
0
100
AcDbLine
 62
7
  6
CONTINUOUS
 10
161.154087678
 20
76.80056013
 11
161.466779678
 21
76.80056013
  0
LINE
  5
2CF
100
AcDbEntity
  8
0
100
AcDbLine
 62
7
  6
CONTINUOUS
 10
162.144861678
 20
76.80056013
 11
162.499689678
 21
76.80056013
  0
LINE
  5
2D0
100
AcDbEntity
  8
0
100
AcDbLine
 62
7
  6
CONTINUOUS
 10
162.690704678
 20
76.80056013
 11
163.030159678
 21
76.80056013
  0
LINE
  5
2D1
100
AcDbEntity
  8
0
100
AcDbLine
 62
7
  6
CONTINUOUS
 10
163.522987678
 20
76.80056013
 11
163.572751678
 21
76.80056013
  0
LINE
  5
2D2
100
AcDbEntity
  8
0
100
AcDbLine
 62
7
  6
CONTINUOUS
 10
164.067543678
 20
76.80056013
 11
164.414659678
 21
76.80056013
  0
LINE
  5
2D3
100
AcDbEntity
  8
0
100
AcDbLine
 62
7
  6
CONTINUOUS
 10
164.470376678
 20
76.80056013
 11
164.821354678
 21
76.80056013
  0
LINE
  5
2D4
100
AcDbEntity
  8
0
100
AcDbLine
 62
7
  6
CONTINUOUS
 10
165.494401678
 20
76.80056013
 11
165.868375678
 21
76.80056013
  0
LINE
  5
2D5
100
AcDbEntity
  8
0
100
AcDbLine
 62
7
  6
CONTINUOUS
 10
165.9725703419
 20
76.8005604433
 11
166.325970674
 21
76.8005604433
  0
LINE
  5
2D6
100
AcDbEntity
  8
0
100
AcDbLine
 62
7
  6
CONTINUOUS
 10
166.8693408931
 20
76.8005604433
 11
167.2106442364
 21
76.8005604433
  0
LINE
  5
2D7
100
AcDbEntity
  8
0
100
AcDbLine
 62
7
  6
CONTINUOUS
 10
164.919265678
 20
77.1398206668
 11
165.402482678
 21
77.1398206668
  0
LINE
  5
2D8
100
AcDbEntity
  8
0
100
AcDbLine
 62
7
  6
CONTINUOUS
 10
165.331569678
 20
77.4023391191
 11
164.991847678
 21
77.4023391191
  0
LINE
  5
2D9
100
AcDbEntity
  8
0
100
AcDbLine
 62
7
  6
CONTINUOUS
 10
166.325970674
 20
77.4656115905
 11
166.516220997
 21
77.4656115905
  0
LINE
  5
2DA
100
AcDbEntity
  8
0
100
AcDbLine
 62
7
  6
CONTINUOUS
 10
166.5169858224
 20
77.7439321886
 11
166.3142051096
 21
77.7439321886
  0
LINE
  5
2DB
100
AcDbEntity
  8
0
100
AcDbLine
 62
7
  6
CONTINUOUS
 10
165.346815678
 20
78.4999599697
 11
165.003561678
 21
78.4999599697
  0
LINE
  5
2DC
100
AcDbEntity
  8
0
100
AcDbLine
 62
7
  6
CONTINUOUS
 10
164.255702678
 20
78.4999599697
 11
163.904635678
 21
78.4999599697
  0
LINE
  5
2DD
100
AcDbEntity
  8
0
100
AcDbLine
 62
7
  6
CONTINUOUS
 10
163.198726678
 20
78.4999599697
 11
162.844191678
 21
78.4999599697
  0
LINE
  5
2DE
100
AcDbEntity
  8
0
100
AcDbLine
 62
7
  6
CONTINUOUS
 10
162.013183678
 20
78.4999599697
 11
161.658597678
 21
78.4999599697
  0
LINE
  5
2DF
100
AcDbEntity
  8
0
100
AcDbLine
 62
7
  6
CONTINUOUS
 10
161.000650678
 20
78.4999599697
 11
160.615197678
 21
78.4999599697
  0
LINE
  5
2E0
100
AcDbEntity
  8
0
100
AcDbLine
 62
7
  6
CONTINUOUS
 10
162.499689678
 20
78.5000619419
 11
162.144861678
 21
78.5000619419
  0
LINE
  5
2E1
100
AcDbEntity
  8
0
100
AcDbLine
 62
253
  6
CONTINUOUS
 10
85.7002877544
 20
78.7194218202
 11
242.2124398303
 21
78.7194228267
  0
LINE
  5
2E2
100
AcDbEntity
  8
0
100
AcDbLine
 62
7
  6
CONTINUOUS
 10
85.706363678
 20
78.9326343536
 11
242.206363678
 21
78.9326343536
  0
LWPOLYLINE
  5
2E3
100
AcDbEntity
  8
0
100
AcDbPolyline
 62
253
  6
CONTINUOUS
 90
16
 70
0
 10
242.2124375726
 20
78.719445557
 10
242.2397487632
 20
78.7191638715
 10
242.2669863515
 20
78.7211630723
 10
242.2940692218
 20
78.7254031107
 10
242.320914844
 20
78.7317453472
 10
242.3474477398
 20
78.7402426135
 10
242.3736006218
 20
78.7511329579
 10
242.3992676326
 20
78.7643191272
 10
242.4244117435
 20
78.7797894748
 10
242.4490697902
 20
78.7979032423
 10
242.473136597
 20
78.818488547
 10
242.4965809985
 20
78.8416079269
 10
242.5195397156
 20
78.8679723712
 10
242.5420042643
 20
78.8977830014
 10
242.5638328827
 20
78.93073151
 10
242.5849543662
 20
78.9667653167
  0
LWPOLYLINE
  5
2E4
100
AcDbEntity
  8
0
100
AcDbPolyline
 62
7
  6
CONTINUOUS
 90
7
 70
0
 10
166.5921719982
 20
78.220455298
 10
166.5462420896
 20
78.2245794343
 10
166.5001530185
 20
78.2263869312
 10
166.4539047849
 20
78.2258777887
 10
166.4074973889
 20
78.2230520067
 10
166.3609308305
 20
78.2179095854
 10
166.3142051096
 20
78.2104505246
  0
LWPOLYLINE
  5
2E5
100
AcDbEntity
  8
0
100
AcDbPolyline
 62
7
  6
CONTINUOUS
 90
54
 70
0
 10
166.8482317115
 20
78.4622134246
 10
166.8675779891
 20
78.4544449795
 10
166.8867896322
 20
78.4451942603
 10
166.905866641
 20
78.4344612672
 10
166.9248569236
 20
78.4222377743
 10
166.9437125718
 20
78.4085320075
 10
166.9622898607
 20
78.3933686436
 10
166.9806934003
 20
78.3767772046
 10
166.9988185807
 20
78.3587281686
 10
167.0162078474
 20
78.3391576469
 10
167.0329343079
 20
78.3178692065
 10
167.0489248549
 20
78.2950592804
 10
167.0635026117
 20
78.271253279
 10
167.0765361081
 20
78.246256162
 10
167.0881568144
 20
78.2202629697
 10
167.0980822654
 20
78.1943842329
 10
167.1060962199
 20
78.1687659768
 10
167.1124149191
 20
78.1432621763
 10
167.1174046216
 20
78.1185452874
 10
167.1210323858
 20
78.0948224844
 10
167.1233311532
 20
78.0718865931
 10
167.1247660064
 20
78.0497885458
 10
167.1254170672
 20
78.0285903578
 10
167.1252042138
 20
78.008230014
 10
167.1243521624
 20
77.9885724012
 10
167.1228914783
 20
77.9695946727
 10
167.1207915961
 20
77.9513196753
 10
167.1181855364
 20
77.933680837
 10
167.1150744952
 20
77.916667898
 10
167.1114572763
 20
77.9002911182
 10
167.1074633123
 20
77.8845147051
 10
167.1030997127
 20
77.8693442193
 10
167.0983593678
 20
77.8547741003
 10
167.0933503807
 20
77.8407518743
 10
167.0880819133
 20
77.8272755059
 10
167.0825448037
 20
77.8143470305
 10
167.0768196698
 20
77.8019200799
 10
167.0709174019
 20
77.7899941103
 10
167.0648271097
 20
77.7785696657
 10
167.05859674
 20
77.7676020099
 10
167.0522249714
 20
77.7570835752
 10
167.0457131254
 20
77.7470219295
 10
167.0391131129
 20
77.7373950406
 10
167.0324206964
 20
77.7282113778
 10
167.0256401134
 20
77.7194624718
 10
167.0188359875
 20
77.7111008825
 10
167.0120142673
 20
77.7031299497
 10
167.0051690041
 20
77.6955463335
 10
166.9983469756
 20
77.6882925747
 10
166.991544492
 20
77.6813724375
 10
166.9847652431
 20
77.6747821576
 10
166.9780670763
 20
77.6684529835
 10
166.9714562979
 20
77.6623893076
 10
166.9649266014
 20
77.6565867375
  0
LWPOLYLINE
  5
2E6
100
AcDbEntity
  8
0
100
AcDbPolyline
 62
7
  6
CONTINUOUS
 90
21
 70
0
 10
166.8848158607
 20
77.5938251225
 10
166.8992289858
 20
77.5872320393
 10
166.9131340464
 20
77.579536471
 10
166.9265310425
 20
77.5707384175
 10
166.9394152683
 20
77.5607799375
 10
166.9517914297
 20
77.5497189723
 10
166.9636736435
 20
77.537729346
 10
166.9750561307
 20
77.5248352685
 10
166.9859446704
 20
77.51101253
 10
166.9963707172
 20
77.4963623254
 10
167.0063435471
 20
77.480901126
 10
167.015853884
 20
77.4646124605
 10
167.0249053546
 20
77.4475481097
 10
167.0334803235
 20
77.4297115145
 10
167.041596426
 20
77.4110992339
 10
167.0493101948
 20
77.3917527259
 10
167.0565625086
 20
77.3716818005
 10
167.0634124887
 20
77.3508766477
 10
167.0700940312
 20
77.3293492961
 10
167.0766851017
 20
77.3071037551
 10
167.0831077345
 20
77.2841360152
  0
LWPOLYLINE
  5
2E7
100
AcDbEntity
  8
0
100
AcDbPolyline
 62
7
  6
CONTINUOUS
 90
19
 70
0
 10
166.7141509849
 20
77.3159601133
 10
166.7075959969
 20
77.3312148096
 10
166.7003522575
 20
77.3456828817
 10
166.6924197666
 20
77.3593643297
 10
166.6837491521
 20
77.3722329448
 10
166.6743897862
 20
77.3843149358
 10
166.6644897852
 20
77.395688929
 10
166.6540364548
 20
77.4064256115
 10
166.6430424894
 20
77.4164542963
 10
166.6316940876
 20
77.4256415479
 10
166.6200359176
 20
77.4339985487
 10
166.6080233113
 20
77.4415141164
 10
166.5957084633
 20
77.448021269
 10
166.5830849086
 20
77.4534621948
 10
166.5701591122
 20
77.4578947055
 10
166.5570026639
 20
77.4613252551
 10
166.5436394269
 20
77.4637559947
 10
166.5300455379
 20
77.4651847732
 10
166.516220997
 20
77.4656115905
  0
LINE
  5
2E8
100
AcDbEntity
  8
0
100
AcDbLine
 62
7
  6
CONTINUOUS
 10
163.106731678
 20
77.9102366949
 11
163.522987678
 21
76.80056013
  0
LINE
  5
2E9
100
AcDbEntity
  8
0
100
AcDbLine
 62
7
  6
CONTINUOUS
 10
163.549807678
 20
77.5564481177
 11
163.198726678
 21
78.4999599697
  0
LINE
  5
2EA
100
AcDbEntity
  8
0
100
AcDbLine
 62
7
  6
CONTINUOUS
 10
160.615197678
 20
78.4999599697
 11
161.154087678
 21
76.80056013
  0
LINE
  5
2EB
100
AcDbEntity
  8
0
100
AcDbLine
 62
7
  6
CONTINUOUS
 10
165.868375678
 20
76.80056013
 11
165.346815678
 21
78.4999599697
  0
LINE
  5
2EC
100
AcDbEntity
  8
0
100
AcDbLine
 62
7
  6
CONTINUOUS
 10
166.8693408931
 20
76.8005604433
 11
166.815944767
 21
76.983934818
  0
LWPOLYLINE
  5
2ED
100
AcDbEntity
  8
0
100
AcDbPolyline
 62
7
  6
CONTINUOUS
 90
6
 70
0
 10
166.815944767
 20
76.983934818
 10
166.7829082612
 20
77.1001688035
 10
166.7663172864
 20
77.1562678573
 10
166.7492106104
 20
77.2109031408
 10
166.7318218432
 20
77.2641338928
 10
166.7141509849
 20
77.3159601133
  0
LINE
  5
2EE
100
AcDbEntity
  8
0
100
AcDbLine
 62
7
  6
CONTINUOUS
 10
161.324675678
 20
77.3302107772
 11
161.000650678
 21
78.4999599697
  0
LINE
  5
2EF
100
AcDbEntity
  8
0
100
AcDbLine
 62
7
  6
CONTINUOUS
 10
165.402482678
 20
77.1398206668
 11
165.494401678
 21
76.80056013
  0
LWPOLYLINE
  5
2F0
100
AcDbEntity
  8
0
100
AcDbPolyline
 62
7
  6
CONTINUOUS
 90
6
 70
0
 10
167.0831077345
 20
77.2841360152
 10
167.1300685989
 20
77.1073338362
 10
167.1433944654
 20
77.0562230448
 10
167.1566289822
 20
77.0050810175
 10
167.1699531205
 20
76.9539404718
 10
167.2106442364
 20
76.8005604433
  0
LINE
  5
2F1
100
AcDbEntity
  8
0
100
AcDbLine
 62
7
  6
CONTINUOUS
 10
165.168521678
 20
78.0330082343
 11
165.331569678
 21
77.4023391191
  0
LINE
  5
2F2
100
AcDbEntity
  8
0
100
AcDbLine
 62
7
  6
CONTINUOUS
 10
164.414659678
 20
76.80056013
 11
164.255702678
 21
78.4999599697
  0
LINE
  5
2F3
100
AcDbEntity
  8
0
100
AcDbLine
 62
7
  6
CONTINUOUS
 10
163.994642678
 20
77.9056109556
 11
164.067543678
 21
76.80056013
  0
LWPOLYLINE
  5
2F4
100
AcDbEntity
  8
0
100
AcDbPolyline
 62
7
  6
CONTINUOUS
 90
19
 70
0
 10
166.7926181173
 20
78.0078896755
 10
166.7916395719
 20
78.0248674941
 10
166.789327317
 20
78.0416554091
 10
166.7856813528
 20
78.0582534204
 10
166.7807284125
 20
78.0747499925
 10
166.7744417628
 20
78.091056661
 10
166.7667412035
 20
78.1069080321
 10
166.7575676458
 20
78.1224124021
 10
166.7469801785
 20
78.1374614747
 10
166.7350758672
 20
78.1514649676
 10
166.7216607923
 20
78.1643376742
 10
166.7069288735
 20
78.1761648011
 10
166.6915589356
 20
78.1866116857
 10
166.6755967556
 20
78.1955365253
 10
166.6589965566
 20
78.2030811227
 10
166.642299832
 20
78.209336224
 10
166.6256870796
 20
78.2143320781
 10
166.6089778017
 20
78.218038436
 10
166.5921719982
 20
78.220455298
  0
LINE
  5
2F5
100
AcDbEntity
  8
0
100
AcDbLine
 62
7
  6
CONTINUOUS
 10
162.144861678
 20
78.5000619419
 11
162.144861678
 21
76.80056013
  0
LINE
  5
2F6
100
AcDbEntity
  8
0
100
AcDbLine
 62
7
  6
CONTINUOUS
 10
162.499689678
 20
76.80056013
 11
162.499689678
 21
78.5000619419
  0
LINE
  5
2F7
100
AcDbEntity
  8
0
100
AcDbLine
 62
7
  6
CONTINUOUS
 10
165.9725703419
 20
78.4801054631
 11
165.9725703419
 21
76.8005604433
  0
LINE
  5
2F8
100
AcDbEntity
  8
0
100
AcDbLine
 62
7
  6
CONTINUOUS
 10
166.3142051096
 20
77.7439321886
 11
166.3142051096
 21
78.2104505246
  0
LINE
  5
2F9
100
AcDbEntity
  8
0
100
AcDbLine
 62
7
  6
CONTINUOUS
 10
166.325970674
 20
76.8005604433
 11
166.325970674
 21
77.4656115905
  0
LINE
  5
2FA
100
AcDbEntity
  8
0
100
AcDbLine
 62
7
  6
CONTINUOUS
 10
166.8848158607
 20
77.5938251225
 11
166.8848158607
 21
77.6038670928
  0
LINE
  5
2FB
100
AcDbEntity
  8
0
100
AcDbLine
 62
7
  6
CONTINUOUS
 10
163.030159678
 20
76.80056013
 11
163.106731678
 21
77.9102366949
  0
LINE
  5
2FC
100
AcDbEntity
  8
0
100
AcDbLine
 62
7
  6
CONTINUOUS
 10
162.844191678
 20
78.4999599697
 11
162.690704678
 21
76.80056013
  0
LINE
  5
2FD
100
AcDbEntity
  8
0
100
AcDbLine
 62
7
  6
CONTINUOUS
 10
164.991847678
 20
77.4023391191
 11
165.168521678
 21
78.0330082343
  0
LINE
  5
2FE
100
AcDbEntity
  8
0
100
AcDbLine
 62
7
  6
CONTINUOUS
 10
161.658597678
 20
78.4999599697
 11
161.324675678
 21
77.3302107772
  0
LINE
  5
2FF
100
AcDbEntity
  8
0
100
AcDbLine
 62
7
  6
CONTINUOUS
 10
164.821354678
 20
76.80056013
 11
164.919265678
 21
77.1398206668
  0
LINE
  5
300
100
AcDbEntity
  8
0
100
AcDbLine
 62
7
  6
CONTINUOUS
 10
165.003561678
 20
78.4999599697
 11
164.470376678
 21
76.80056013
  0
LINE
  5
301
100
AcDbEntity
  8
0
100
AcDbLine
 62
7
  6
CONTINUOUS
 10
161.466779678
 20
76.80056013
 11
162.013183678
 21
78.4999599697
  0
LINE
  5
302
100
AcDbEntity
  8
0
100
AcDbLine
 62
7
  6
CONTINUOUS
 10
163.904635678
 20
78.4999599697
 11
163.549807678
 21
77.5564481177
  0
LINE
  5
303
100
AcDbEntity
  8
0
100
AcDbLine
 62
7
  6
CONTINUOUS
 10
163.572751678
 20
76.80056013
 11
163.994642678
 21
77.9056109556
  0
LWPOLYLINE
  5
304
100
AcDbEntity
  8
0
100
AcDbPolyline
 62
7
  6
CONTINUOUS
 90
3
 70
0
 10
166.9649266014
 20
77.6565867375
 10
166.9522586649
 20
77.645497378
 10
166.9461204247
 20
77.6402105885
  0
LWPOLYLINE
  5
305
100
AcDbEntity
  8
0
100
AcDbPolyline
 62
7
  6
CONTINUOUS
 90
10
 70
0
 10
166.9461204247
 20
77.6402105885
 10
166.9340524532
 20
77.630048247
 10
166.9281227219
 20
77.6251726948
 10
166.9221587096
 20
77.6206717516
 10
166.916151177
 20
77.6165453795
 10
166.9101093635
 20
77.6127936162
 10
166.9039620473
 20
77.6096286837
 10
166.8976854878
 20
77.6071213227
 10
166.8913034256
 20
77.6052007923
 10
166.8848158607
 20
77.6038670928
  0
LWPOLYLINE
  5
306
100
AcDbEntity
  8
0
100
AcDbPolyline
 62
253
  6
CONTINUOUS
 90
18
 70
0
 10
84.6925693007
 20
125.5416855979
 10
93.9959672971
 20
125.8508789417
 10
102.7313819981
 20
126.1064643731
 10
111.4278298708
 20
126.3274792511
 10
120.0720275147
 20
126.5134274641
 10
128.6771279997
 20
126.6648092815
 10
137.2827247063
 20
126.7831212649
 10
145.8871899215
 20
126.8690188141
 10
154.4920375972
 20
126.9218485634
 10
163.1415794428
 20
126.941143379
 10
171.8532317761
 20
126.9272193315
 10
180.6094626678
 20
126.8797604053
 10
189.4021610671
 20
126.79735081
 10
198.2364860648
 20
126.679714308
 10
207.1071516185
 20
126.5271250094
 10
215.9903795362
 20
126.3389920536
 10
224.8782013303
 20
126.1151170332
 10
233.7784550028
 20
125.8556940382
  0
LWPOLYLINE
  5
307
100
AcDbEntity
  8
0
100
AcDbPolyline
 62
253
  6
CONTINUOUS
 90
19
 70
0
 10
85.4151989406
 20
124.9447513683
 10
94.1675349846
 20
125.2330784067
 10
102.8810594631
 20
125.4870578496
 10
111.5557723762
 20
125.7066896971
 10
120.1785624252
 20
125.8914787986
 10
128.7625409087
 20
126.0419203047
 10
137.3470417228
 20
126.1594996671
 10
145.9305203337
 20
126.2448670012
 10
154.5145212752
 20
126.2973721916
 10
163.1430120449
 20
126.3165503442
 10
171.833382317
 20
126.3027154232
 10
180.5682424173
 20
126.2555534644
 10
189.3393908204
 20
126.1736576801
 10
198.1520345878
 20
126.0567557223
 10
207.000966658
 20
125.905119939
 10
215.8623643217
 20
125.7181605872
 10
224.7282866758
 20
125.4956810858
 10
233.6066746233
 20
125.2378780159
 10
242.4975281642
 20
124.9447513774
  0
LINE
  5
308
100
AcDbEntity
  8
0
100
AcDbLine
 62
7
  6
CONTINUOUS
 10
242.206363678
 20
123.9326343536
 11
85.706363678
 21
123.9326343536
  0
LINE
  5
309
100
AcDbEntity
  8
0
100
AcDbLine
 62
253
  6
CONTINUOUS
 10
242.2124396366
 20
124.1458469738
 11
85.7002875627
 21
124.145845384
  0
LWPOLYLINE
  5
30A
100
AcDbEntity
  8
0
100
AcDbPolyline
 62
253
  6
CONTINUOUS
 90
16
 70
0
 10
85.7002899188
 20
124.1458216835
 10
85.6729776854
 20
124.1461032823
 10
85.645739172
 20
124.144103918
 10
85.6186555011
 20
124.1398636515
 10
85.5918091812
 20
124.133521119
 10
85.5652757196
 20
124.1250235152
 10
85.5391224786
 20
124.1141328547
 10
85.5134553164
 20
124.1009463974
 10
85.4883112438
 20
124.0854758177
 10
85.4636534616
 20
124.0673619777
 10
85.4395871899
 20
124.0467768294
 10
85.4161435021
 20
124.0236578058
 10
85.3931855177
 20
123.9972938664
 10
85.370721669
 20
123.9674838791
 10
85.3488937583
 20
123.9345361916
 10
85.3277729874
 20
123.8985034071
  0
LINE
  5
30B
100
AcDbEntity
  8
0
100
AcDbLine
 62
253
  6
CONTINUOUS
 10
233.7784550028
 20
125.8556940382
 11
243.2201580498
 21
125.5416855981
  0
LINE
  5
30C
100
AcDbEntity
  8
0
100
AcDbLine
 62
253
  6
CONTINUOUS
 10
266.6949837293
 20
137.1946445062
 11
266.5542106228
 21
137.1881733001
  0
LINE
  5
30D
100
AcDbEntity
  8
0
100
AcDbLine
 62
253
  6
CONTINUOUS
 10
61.080447563
 20
137.1998135381
 11
61.2177437812
 21
137.1946445171
  0
LINE
  5
30E
100
AcDbEntity
  8
0
100
AcDbLine
 62
253
  6
CONTINUOUS
 10
61.2177437812
 20
137.1946445171
 11
61.3585167332
 21
137.1881733001
  0
LINE
  5
30F
100
AcDbEntity
  8
0
100
AcDbLine
 62
253
  6
CONTINUOUS
 10
243.2201580558
 20
77.3235831094
 11
243.1233198459
 21
77.4003901027
  0
LINE
  5
310
100
AcDbEntity
  8
0
100
AcDbLine
 62
253
  6
CONTINUOUS
 10
243.1233198459
 20
77.4003901027
 11
242.989021217
 21
77.5077367661
  0
LWPOLYLINE
  5
311
100
AcDbEntity
  8
0
100
AcDbPolyline
 62
253
  6
CONTINUOUS
 90
3
 70
0
 10
242.989021217
 20
77.5077367661
 10
242.8590475571
 20
77.6127952832
 10
242.8145145329
 20
77.6493611643
  0
LWPOLYLINE
  5
312
100
AcDbEntity
  8
0
100
AcDbPolyline
 62
253
  6
CONTINUOUS
 90
3
 70
0
 10
242.8145145329
 20
77.6493611643
 10
242.7211198724
 20
77.7271088852
 10
242.6726558306
 20
77.7675234195
  0
LINE
  5
313
100
AcDbEntity
  8
0
100
AcDbLine
 62
253
  6
CONTINUOUS
 10
242.6726558023
 20
77.7675240293
 11
242.6309883596
 21
77.8030041101
  0
LINE
  5
314
100
AcDbEntity
  8
0
100
AcDbLine
 62
253
  6
CONTINUOUS
 10
242.6309883596
 20
77.8030041101
 11
242.5908705375
 21
77.8376529143
  0
LINE
  5
315
100
AcDbEntity
  8
0
100
AcDbLine
 62
253
  6
CONTINUOUS
 10
242.5908705375
 20
77.8376529143
 11
242.5523184704
 21
77.8714377914
  0
LWPOLYLINE
  5
316
100
AcDbEntity
  8
0
100
AcDbPolyline
 62
253
  6
CONTINUOUS
 90
3
 70
0
 10
242.5523184704
 20
77.8714377914
 10
242.5153879834
 20
77.904381961
 10
242.4975283862
 20
77.9205173381
  0
LWPOLYLINE
  5
317
100
AcDbEntity
  8
0
100
AcDbPolyline
 62
253
  6
CONTINUOUS
 90
4
 70
0
 10
242.4975280474
 20
124.9447513811
 10
242.5376851764
 20
124.9807914345
 10
242.5575301269
 20
124.998431247
 10
242.5772430816
 20
125.0157577434
  0
LINE
  5
318
100
AcDbEntity
  8
0
100
AcDbLine
 62
253
  6
CONTINUOUS
 10
242.5772430816
 20
125.0157577434
 11
242.6161264374
 21
125.0494787518
  0
LWPOLYLINE
  5
319
100
AcDbEntity
  8
0
100
AcDbPolyline
 62
253
  6
CONTINUOUS
 90
3
 70
0
 10
242.6161264374
 20
125.0494787518
 10
242.6540425831
 20
125.0820003037
 10
242.6726558234
 20
125.0977451331
  0
LWPOLYLINE
  5
31A
100
AcDbEntity
  8
0
100
AcDbPolyline
 62
253
  6
CONTINUOUS
 90
4
 70
0
 10
242.6726559174
 20
125.0977471649
 10
242.7814412687
 20
125.1884382407
 10
242.8380092486
 20
125.2351665133
 10
242.8955503334
 20
125.2821247298
  0
LWPOLYLINE
  5
31B
100
AcDbEntity
  8
0
100
AcDbPolyline
 62
253
  6
CONTINUOUS
 90
4
 70
0
 10
242.8955503334
 20
125.2821247298
 10
243.0814707921
 20
125.4316727671
 10
243.1494110865
 20
125.4858220736
 10
243.2201580498
 20
125.5416855981
  0
LINE
  5
31C
100
AcDbEntity
  8
0
100
AcDbLine
 62
253
  6
CONTINUOUS
 10
62.61659244
 20
138.4102508573
 11
68.2279524435
 21
138.5672989628
  0
LINE
  5
31D
100
AcDbEntity
  8
0
100
AcDbLine
 62
253
  6
CONTINUOUS
 10
62.6788761728
 20
139.5192110699
 11
68.2752847548
 21
139.6762382262
  0
LINE
  5
31E
100
AcDbEntity
  8
0
100
AcDbLine
 62
253
  6
CONTINUOUS
 10
68.2279524435
 20
138.5672989628
 11
73.5072107053
 21
138.7099984555
  0
LINE
  5
31F
100
AcDbEntity
  8
0
100
AcDbLine
 62
253
  6
CONTINUOUS
 10
68.2752847548
 20
139.6762382262
 11
73.5397822483
 21
139.8182926699
  0
LINE
  5
320
100
AcDbEntity
  8
0
100
AcDbLine
 62
253
  6
CONTINUOUS
 10
73.5072107053
 20
138.7099984555
 11
78.4527231685
 21
138.8386922351
  0
LINE
  5
321
100
AcDbEntity
  8
0
100
AcDbLine
 62
253
  6
CONTINUOUS
 10
73.5397822483
 20
139.8182926699
 11
78.4719504368
 21
139.946810821
  0
LWPOLYLINE
  5
322
100
AcDbEntity
  8
0
100
AcDbPolyline
 62
253
  6
CONTINUOUS
 90
3
 70
0
 10
78.4527231685
 20
138.8386922351
 10
83.0637699872
 20
138.9547490506
 10
85.2434786506
 20
139.0079533088
  0
LWPOLYLINE
  5
323
100
AcDbEntity
  8
0
100
AcDbPolyline
 62
253
  6
CONTINUOUS
 90
3
 70
0
 10
78.4719504368
 20
139.946810821
 10
83.0702273916
 20
140.0623203445
 10
85.244242281
 20
140.1157360269
  0
LWPOLYLINE
  5
324
100
AcDbEntity
  8
0
100
AcDbPolyline
 62
253
  6
CONTINUOUS
 90
19
 70
0
 10
85.244242281
 20
140.1157360269
 10
94.1502713611
 20
140.3200519322
 10
102.8813593041
 20
140.496428531
 10
111.4374168151
 20
140.6463581566
 10
119.7641121202
 20
140.7705993296
 10
127.9156201659
 20
140.8715773011
 10
136.0546380684
 20
140.9519422286
 10
144.1768159009
 20
141.0116769749
 10
152.2864050287
 20
141.0510220725
 10
160.559026694
 20
141.0703228574
 10
169.0494936899
 20
141.0681183474
 10
177.7028901132
 20
141.0429078341
 10
186.5302424768
 20
140.9934512085
 10
195.5535769936
 20
140.9180411568
 10
204.7507187864
 20
140.8152291127
 10
214.0663884871
 20
140.6845199175
 10
223.4821031998
 20
140.5252462462
 10
233.0161685081
 20
140.3360193437
 10
242.668485075
 20
140.1157360269
  0
LWPOLYLINE
  5
325
100
AcDbEntity
  8
0
100
AcDbPolyline
 62
253
  6
CONTINUOUS
 90
19
 70
0
 10
85.2434786506
 20
139.0079533088
 10
94.1495951688
 20
139.2102372036
 10
102.880768493
 20
139.3874634316
 10
111.4369088998
 20
139.5396339986
 10
119.7636851125
 20
139.665347675
 10
127.9152726338
 20
139.7660089277
 10
136.0543687229
 20
139.8458276967
 10
144.1766248716
 20
139.9065067438
 10
152.2862931046
 20
139.9463446244
 10
160.5589939217
 20
139.9644444901
 10
169.0495425167
 20
139.9618730657
 10
177.7030233899
 20
139.9375637809
 10
186.5304603362
 20
139.8874194853
 10
195.5538814748
 20
139.811104
 10
204.7511130597
 20
139.7089519841
 10
214.0668729949
 20
139.5778718903
 10
223.4826784554
 20
139.4168318437
 10
233.0168368552
 20
139.2268598113
 10
242.6692487054
 20
139.0079533088
  0
LINE
  5
326
100
AcDbEntity
  8
0
100
AcDbLine
 62
253
  6
CONTINUOUS
 10
242.6692487054
 20
139.0079533088
 11
248.3179115563
 21
138.8675860367
  0
LINE
  5
327
100
AcDbEntity
  8
0
100
AcDbLine
 62
253
  6
CONTINUOUS
 10
242.668485075
 20
140.1157360269
 11
248.3018639487
 21
139.9759533492
  0
LINE
  5
328
100
AcDbEntity
  8
0
100
AcDbLine
 62
253
  6
CONTINUOUS
 10
248.3179115563
 20
138.8675860367
 11
253.6119193126
 21
138.7309753917
  0
LINE
  5
329
100
AcDbEntity
  8
0
100
AcDbLine
 62
253
  6
CONTINUOUS
 10
248.3018639487
 20
139.9759533492
 11
253.5813642971
 21
139.8392217161
  0
LINE
  5
32A
100
AcDbEntity
  8
0
100
AcDbLine
 62
253
  6
CONTINUOUS
 10
253.6119193126
 20
138.7309753917
 11
258.5511204186
 21
138.5984971118
  0
LINE
  5
32B
100
AcDbEntity
  8
0
100
AcDbLine
 62
253
  6
CONTINUOUS
 10
253.5813642971
 20
139.8392217161
 11
258.5071753686
 21
139.7070888849
  0
LWPOLYLINE
  5
32C
100
AcDbEntity
  8
0
100
AcDbPolyline
 62
253
  6
CONTINUOUS
 90
3
 70
0
 10
258.5511204186
 20
138.5984971118
 10
263.1362963641
 20
138.4716534659
 10
265.296134916
 20
138.4102508573
  0
LWPOLYLINE
  5
32D
100
AcDbEntity
  8
0
100
AcDbPolyline
 62
253
  6
CONTINUOUS
 90
3
 70
0
 10
258.5071753686
 20
139.7070888849
 10
263.0799100285
 20
139.5801595078
 10
265.2338511832
 20
139.5192110699
  0
LWPOLYLINE
  5
32E
100
AcDbEntity
  8
0
100
AcDbPolyline
 62
253
  6
CONTINUOUS
 90
34
 70
0
 10
265.296134916
 20
138.4102508573
 10
265.3564056147
 20
138.4069664277
 10
265.4155194478
 20
138.401237717
 10
265.4734765323
 20
138.3930647187
 10
265.5301268726
 20
138.3824373531
 10
265.5856206803
 20
138.3693656794
 10
265.6404083588
 20
138.3538798967
 10
265.6947655706
 20
138.3359450029
 10
265.7484167949
 20
138.315595964
 10
265.8009856447
 20
138.2929679281
 10
265.8524374306
 20
138.268055673
 10
265.9028069665
 20
138.2408643728
 10
265.9518221194
 20
138.21154477
 10
265.9994810213
 20
138.1800826656
 10
266.0457856295
 20
138.1464922012
 10
266.0904695422
 20
138.1109666315
 10
266.1335195085
 20
138.0735001997
 10
266.1749488283
 20
138.0340986005
 10
266.2145309174
 20
137.9929722698
 10
266.2522729539
 20
137.9500843046
 10
266.2881677649
 20
137.9054715441
 10
266.3219672291
 20
137.8594550453
 10
266.3535615416
 20
137.812258764
 10
266.3830604703
 20
137.7636586908
 10
266.4105452409
 20
137.7133039322
 10
266.4361589518
 20
137.6610458549
 10
266.4597584144
 20
137.6070330124
 10
266.4809954061
 20
137.5513602839
 10
266.4998980196
 20
137.4938548561
 10
266.5164380087
 20
137.4346894592
 10
266.5301826283
 20
137.3744773048
 10
266.5409875654
 20
137.3134227861
 10
266.5489969346
 20
137.2513214602
 10
266.5542106228
 20
137.1881733001
  0
LWPOLYLINE
  5
32F
100
AcDbEntity
  8
0
100
AcDbPolyline
 62
253
  6
CONTINUOUS
 90
34
 70
0
 10
265.2338511646
 20
139.5192110507
 10
265.3487202994
 20
139.5129101553
 10
265.4617897465
 20
139.5015120095
 10
265.5728463355
 20
139.485226625
 10
265.6812126467
 20
139.4643741123
 10
265.787202381
 20
139.439112564
 10
265.8920700809
 20
139.409228324
 10
265.9961210154
 20
139.3745850104
 10
266.0986301795
 20
139.3353728452
 10
266.1992705679
 20
139.2917106896
 10
266.2978000511
 20
139.2437128289
 10
266.3940846209
 20
139.1914544154
 10
266.487970018
 20
139.1350206469
 10
266.5792860157
 20
139.074513128
 10
266.6678473458
 20
139.0100541818
 10
266.7534824943
 20
138.9417679195
 10
266.8360177219
 20
138.8697941765
 10
266.9153051984
 20
138.7942635617
 10
266.9912178509
 20
138.7152935226
 10
267.0636464694
 20
138.6329845825
 10
267.1324042043
 20
138.5475360175
 10
267.1972691929
 20
138.4592319805
 10
267.2578679797
 20
138.3686602603
 10
267.3143929679
 20
138.2756157733
 10
267.3673529467
 20
138.1791234058
 10
267.4166550902
 20
138.0789782299
 10
267.4618828739
 20
137.9756109573
 10
267.5028826271
 20
137.8689215918
 10
267.5394665607
 20
137.7587877467
 10
267.5712560167
 20
137.6456470137
 10
267.597862711
 20
137.5302783998
 10
267.619077496
 20
137.413109025
 10
267.6347815262
 20
137.2941886865
 10
267.6448165045
 20
137.1737735339
  0
LWPOLYLINE
  5
330
100
AcDbEntity
  8
0
100
AcDbPolyline
 62
7
  6
CONTINUOUS
 90
34
 70
0
 10
265.4668319657
 20
139.7583435718
 10
265.5780923485
 20
139.7522360628
 10
265.6888254744
 20
139.7411516287
 10
265.7990313434
 20
139.7250902694
 10
265.9090595074
 20
139.7039852984
 10
266.0185604144
 20
139.6779034022
 10
266.1264854095
 20
139.6470446407
 10
266.232752189
 20
139.6113456287
 10
266.3374430566
 20
139.5708697514
 10
266.4397562673
 20
139.5260072236
 10
266.5394530317
 20
139.4768703982
 10
266.6367721393
 20
139.4233469223
 10
266.7316282145
 20
139.365489953
 10
266.8242140237
 20
139.3031910601
 10
266.9143368004
 20
139.2365586738
 10
267.0013328699
 20
139.1659712407
 10
267.0852289615
 20
139.0913133148
 10
267.1659983459
 20
139.0127003423
 10
267.2428971606
 20
138.9308571077
 10
267.3158084347
 20
138.8458088548
 10
267.384849139
 20
138.7575303399
 10
267.4496263239
 20
138.666670617
 10
267.5100271721
 20
138.5734199903
 10
267.5661645009
 20
138.4775881557
 10
267.6179838113
 20
138.3792532545
 10
267.6656059208
 20
138.2781744928
 10
267.7089100119
 20
138.1745926645
 10
267.747479134
 20
138.0693082935
 10
267.781250089
 20
137.9622404403
 10
267.8102860751
 20
137.8534700443
 10
267.8343597362
 20
137.7440404472
 10
267.853395287
 20
137.6342994294
 10
267.8674685128
 20
137.5238992104
 10
267.8765794136
 20
137.4128397903
  0
LINE
  5
331
100
AcDbEntity
  8
0
100
AcDbLine
 62
253
  6
CONTINUOUS
 10
265.2338511832
 20
63.3460576374
 11
265.4668319657
 21
63.1069251355
  0
LINE
  5
332
100
AcDbEntity
  8
0
100
AcDbLine
 62
253
  6
CONTINUOUS
 10
267.6448165276
 20
65.6914951495
 11
267.8765794136
 21
65.452428917
  0
LWPOLYLINE
  5
333
100
AcDbEntity
  8
0
100
AcDbPolyline
 62
253
  6
CONTINUOUS
 90
25
 70
0
 10
242.4975284334
 20
77.9205173396
 10
242.4762737882
 20
77.9502569091
 10
242.4561275099
 20
77.9799576963
 10
242.4370895984
 20
78.0096197012
 10
242.4192754265
 20
78.0391329282
 10
242.4025696215
 20
78.0686073729
 10
242.3866260653
 20
78.0983730225
 10
242.3713760369
 20
78.1284672823
 10
242.3568882574
 20
78.158852747
 10
242.3430227724
 20
78.1897471876
 10
242.3297340811
 20
78.2212064358
 10
242.3170676844
 20
78.2531746599
 10
242.3050201301
 20
78.285702135
 10
242.2935730618
 20
78.3188314206
 10
242.2827448359
 20
78.3525199571
 10
242.2725870697
 20
78.3866903407
 10
242.2631064296
 20
78.4213169748
 10
242.2542962492
 20
78.456425456
 10
242.2461881464
 20
78.4920151704
 10
242.2387892
 20
78.5279464804
 10
242.2320923312
 20
78.5643590237
 10
242.2261079217
 20
78.6016711001
 10
242.220839432
 20
78.6400221426
 10
242.2162834015
 20
78.6792727181
 10
242.2124398303
 20
78.7194228267
  0
LINE
  5
334
100
AcDbEntity
  8
0
100
AcDbLine
 62
253
  6
CONTINUOUS
 10
267.6448165276
 20
137.1737735578
 11
267.8765794136
 21
137.4128397903
  0
LINE
  5
335
100
AcDbEntity
  8
0
100
AcDbLine
 62
253
  6
CONTINUOUS
 10
265.2338511832
 20
139.5192110699
 11
265.4668319657
 21
139.7583435718
  0
LINE
  5
336
100
AcDbEntity
  8
0
100
AcDbLine
 62
253
  6
CONTINUOUS
 10
243.2201580498
 20
77.3235831199
 11
243.0585778168
 21
77.7088495884
  0
LWPOLYLINE
  5
337
100
AcDbEntity
  8
0
100
AcDbPolyline
 62
253
  6
CONTINUOUS
 90
3
 70
0
 10
243.0585778168
 20
77.7088495884
 10
242.9901172612
 20
77.8744276708
 10
242.9659537074
 20
77.9336634523
  0
LINE
  5
338
100
AcDbEntity
  8
0
100
AcDbLine
 62
253
  6
CONTINUOUS
 10
242.9659537074
 20
77.9336634523
 11
242.9098513574
 21
78.0741139441
  0
LINE
  5
339
100
AcDbEntity
  8
0
100
AcDbLine
 62
253
  6
CONTINUOUS
 10
242.9098513574
 20
78.0741139441
 11
242.889747836
 21
78.125323929
  0
LINE
  5
33A
100
AcDbEntity
  8
0
100
AcDbLine
 62
253
  6
CONTINUOUS
 10
242.889747836
 20
78.125323929
 11
242.8704319954
 21
78.1751816179
  0
LINE
  5
33B
100
AcDbEntity
  8
0
100
AcDbLine
 62
253
  6
CONTINUOUS
 10
242.8704319954
 20
78.1751816179
 11
242.8519459704
 21
78.2236875105
  0
LWPOLYLINE
  5
33C
100
AcDbEntity
  8
0
100
AcDbPolyline
 62
253
  6
CONTINUOUS
 90
25
 70
0
 10
242.8519459704
 20
78.2236875105
 10
242.8398636325
 20
78.25697599
 10
242.8285164124
 20
78.2902579658
 10
242.8178838876
 20
78.3235313542
 10
242.808011581
 20
78.3566317916
 10
242.7988030866
 20
78.3897196971
 10
242.7900484075
 20
78.4232811278
 10
242.7817160351
 20
78.4573977168
 10
242.773840349
 20
78.4919861507
 10
242.7663466917
 20
78.5272861609
 10
242.7592263836
 20
78.5633868557
 10
242.7525121155
 20
78.6001979785
 10
242.7462050941
 20
78.6376905182
 10
242.7403130293
 20
78.6758973387
 10
242.7348531279
 20
78.7147843339
 10
242.7298412476
 20
78.7542220349
 10
242.7253111754
 20
78.7939877477
 10
242.7212438383
 20
78.8343027297
 10
242.7175966719
 20
78.875703576
 10
242.7144051836
 20
78.9181409247
 10
242.7116978955
 20
78.9616627977
 10
242.7094745366
 20
79.006951992
 10
242.707792232
 20
79.0542354697
 10
242.7067324216
 20
79.1032842493
 10
242.706363678
 20
79.1540969926
  0
LWPOLYLINE
  5
33D
100
AcDbEntity
  8
0
100
AcDbPolyline
 62
253
  6
CONTINUOUS
 90
9
 70
0
 10
242.206363678
 20
123.9326343536
 10
242.2068450893
 20
123.9342333033
 10
242.2073364572
 20
123.9390199053
 10
242.2078377818
 20
123.9469635156
 10
242.2083523819
 20
123.9580132859
 10
242.2088769386
 20
123.972098523
 10
242.2094014954
 20
123.9891291733
 10
242.2099260522
 20
124.0089963153
 10
242.2109652091
 20
124.0567145785
  0
LINE
  5
33E
100
AcDbEntity
  8
0
100
AcDbLine
 62
253
  6
CONTINUOUS
 10
242.8519458328
 20
124.6415812109
 11
242.8724658505
 21
124.6954269357
  0
LINE
  5
33F
100
AcDbEntity
  8
0
100
AcDbLine
 62
253
  6
CONTINUOUS
 10
242.8724658505
 20
124.6954269357
 11
242.9027267118
 21
124.7730894656
  0
LINE
  5
340
100
AcDbEntity
  8
0
100
AcDbLine
 62
253
  6
CONTINUOUS
 10
242.9027267118
 20
124.7730894656
 11
242.9414610354
 21
124.8704964528
  0
LINE
  5
341
100
AcDbEntity
  8
0
100
AcDbLine
 62
253
  6
CONTINUOUS
 10
242.9414610354
 20
124.8704964528
 11
242.9686539523
 21
124.9381638619
  0
LINE
  5
342
100
AcDbEntity
  8
0
100
AcDbLine
 62
253
  6
CONTINUOUS
 10
242.9686539523
 20
124.9381638619
 11
243.0257687343
 21
125.0772668858
  0
LWPOLYLINE
  5
343
100
AcDbEntity
  8
0
100
AcDbPolyline
 62
253
  6
CONTINUOUS
 90
3
 70
0
 10
243.0257687343
 20
125.0772668858
 10
243.1165507486
 20
125.2952964198
 10
243.2201580498
 20
125.5416855981
  0
LWPOLYLINE
  5
344
100
AcDbEntity
  8
0
100
AcDbPolyline
 62
253
  6
CONTINUOUS
 90
10
 70
0
 10
242.9414614948
 20
124.8704955444
 10
242.9160345482
 20
124.8975152801
 10
242.8890657157
 20
124.9244890042
 10
242.8607286683
 20
124.9512430331
 10
242.831205975
 20
124.9776050226
 10
242.8006876579
 20
125.003405319
 10
242.7693699402
 20
125.0284780332
 10
242.7374543647
 20
125.0526617857
 10
242.7051465228
 20
125.0758007665
 10
242.6726544426
 20
125.0977459669
  0
LWPOLYLINE
  5
345
100
AcDbEntity
  8
0
100
AcDbPolyline
 62
253
  6
CONTINUOUS
 90
7
 70
0
 10
242.206363678
 20
78.9326343536
 10
242.2068440017
 20
78.9310349009
 10
242.2073344558
 20
78.9262472057
 10
242.2078350403
 20
78.918302536
 10
242.2083490716
 20
78.9072526224
 10
242.2088732333
 20
78.8931686061
 10
242.2093975763
 20
78.8761399019
  0
LWPOLYLINE
  5
346
100
AcDbEntity
  8
0
100
AcDbPolyline
 62
253
  6
CONTINUOUS
 90
6
 70
0
 10
242.706363678
 20
123.711172306
 10
242.7054845482
 20
123.7281714407
 10
242.7028502503
 20
123.7451107976
 10
242.6984700479
 20
123.761930809
 10
242.6923593441
 20
123.7785723271
 10
242.6845396273
 20
123.7949768317
  0
LINE
  5
347
100
AcDbEntity
  8
0
100
AcDbLine
 62
253
  6
CONTINUOUS
 10
242.6813194002
 20
77.5672513216
 11
242.6726558023
 21
77.7675240293
  0
LWPOLYLINE
  5
348
100
AcDbEntity
  8
0
100
AcDbPolyline
 62
253
  6
CONTINUOUS
 90
3
 70
0
 10
242.691072952
 20
77.30454829
 10
242.6892480357
 20
77.3574100384
 10
242.6813194002
 20
77.5672513216
  0
LWPOLYLINE
  5
349
100
AcDbEntity
  8
0
100
AcDbPolyline
 62
253
  6
CONTINUOUS
 90
5
 70
0
 10
242.706363678
 20
123.4326343536
 10
242.7048224395
 20
123.4889168773
 10
242.7002107691
 20
123.5444315796
 10
242.6925608687
 20
123.5990410297
 10
242.6819586184
 20
123.6526658376
  0
LINE
  5
34A
100
AcDbEntity
  8
0
100
AcDbLine
 62
253
  6
CONTINUOUS
 10
242.2093975763
 20
78.8761399019
 11
242.2104466989
 21
78.833702115
  0
LINE
  5
34B
100
AcDbEntity
  8
0
100
AcDbLine
 62
253
  6
CONTINUOUS
 10
242.6735551365
 20
63.6442330862
 11
242.6692487054
 21
63.8573153985
  0
LWPOLYLINE
  5
34C
100
AcDbEntity
  8
0
100
AcDbPolyline
 62
253
  6
CONTINUOUS
 90
3
 70
0
 10
242.2104466989
 20
78.833702115
 10
242.2119564875
 20
78.7512397762
 10
242.2124394489
 20
78.7194228267
  0
LINE
  5
34D
100
AcDbEntity
  8
0
100
AcDbLine
 62
253
  6
CONTINUOUS
 10
242.6767033124
 20
63.4409850979
 11
242.6735551365
 21
63.6442330862
  0
LINE
  5
34E
100
AcDbEntity
  8
0
100
AcDbLine
 62
253
  6
CONTINUOUS
 10
242.6785911429
 20
63.2541624324
 11
242.6767033124
 21
63.4409850979
  0
LINE
  5
34F
100
AcDbEntity
  8
0
100
AcDbLine
 62
253
  6
CONTINUOUS
 10
242.6783837469
 20
139.9119713363
 11
242.6790480557
 21
139.8242829848
  0
LINE
  5
350
100
AcDbEntity
  8
0
100
AcDbLine
 62
253
  6
CONTINUOUS
 10
242.6791175219
 20
63.1417589408
 11
242.6785911429
 21
63.2541624324
  0
LINE
  5
351
100
AcDbEntity
  8
0
100
AcDbLine
 62
253
  6
CONTINUOUS
 10
242.691072952
 20
125.5607204173
 11
242.6692487054
 21
139.0079533088
  0
LINE
  5
352
100
AcDbEntity
  8
0
100
AcDbLine
 62
7
  6
CONTINUOUS
 10
242.706363678
 20
79.154096723
 11
242.706363678
 21
123.711172307
  0
LINE
  5
353
100
AcDbEntity
  8
0
100
AcDbLine
 62
253
  6
CONTINUOUS
 10
243.2201580558
 20
77.3235831094
 11
243.2201580498
 21
125.5416855981
  0
LINE
  5
354
100
AcDbEntity
  8
0
100
AcDbLine
 62
253
  6
CONTINUOUS
 10
242.6790480557
 20
139.8242829848
 11
242.6791175219
 21
139.7235097665
  0
LINE
  5
355
100
AcDbEntity
  8
0
100
AcDbLine
 62
253
  6
CONTINUOUS
 10
242.6692487054
 20
63.8573153985
 11
242.691072952
 21
77.30454829
  0
LINE
  5
356
100
AcDbEntity
  8
0
100
AcDbLine
 62
253
  6
CONTINUOUS
 10
242.6790480557
 20
63.0409857225
 11
242.6791175219
 21
63.1417589408
  0
LWPOLYLINE
  5
357
100
AcDbEntity
  8
0
100
AcDbPolyline
 62
253
  6
CONTINUOUS
 90
28
 70
0
 10
242.706363678
 20
123.7111721835
 10
242.7065792833
 20
123.7500209254
 10
242.7072162237
 20
123.7883373617
 10
242.7082595607
 20
123.8261208912
 10
242.70968743
 20
123.8632436754
 10
242.7114881805
 20
123.8998324606
 10
242.713676774
 20
123.9362685548
 10
242.7162686716
 20
123.9727645373
 10
242.7192510648
 20
124.0091067748
 10
242.7226050725
 20
124.0450372538
 10
242.7263199965
 20
124.0805188282
 10
242.7303909972
 20
124.1155876765
 10
242.7347993417
 20
124.1500958345
 10
242.7395287176
 20
124.1839983922
 10
242.7445735699
 20
124.2173394417
 10
242.7499297357
 20
124.2501045528
 10
242.7555599291
 20
124.2821504909
 10
242.7614792731
 20
124.3136197965
 10
242.7677782543
 20
124.34492643
 10
242.7744359982
 20
124.3759964178
 10
242.7814804675
 20
124.406902478
 10
242.7891152781
 20
124.4382776822
 10
242.7973629211
 20
124.4701820867
 10
242.806258565
 20
124.5025526853
 10
242.8160790886
 20
124.535836251
 10
242.8269686715
 20
124.5701792441
 10
242.8389054415
 20
124.6054287831
 10
242.8519458328
 20
124.6415812109
  0
LINE
  5
358
100
AcDbEntity
  8
0
100
AcDbLine
 62
253
  6
CONTINUOUS
 10
242.6791175219
 20
139.7235097665
 11
242.6785911429
 21
139.6111062749
  0
LINE
  5
359
100
AcDbEntity
  8
0
100
AcDbLine
 62
253
  6
CONTINUOUS
 10
242.6785911429
 20
139.6111062749
 11
242.6767033124
 21
139.4242836094
  0
LINE
  5
35A
100
AcDbEntity
  8
0
100
AcDbLine
 62
253
  6
CONTINUOUS
 10
242.6767033124
 20
139.4242836094
 11
242.6735551365
 21
139.2210356211
  0
LINE
  5
35B
100
AcDbEntity
  8
0
100
AcDbLine
 62
253
  6
CONTINUOUS
 10
242.2109652091
 20
124.0567145785
 11
242.2124393132
 21
124.1458469738
  0
LINE
  5
35C
100
AcDbEntity
  8
0
100
AcDbLine
 62
253
  6
CONTINUOUS
 10
242.6735551365
 20
139.2210356211
 11
242.6692487054
 21
139.0079533088
  0
LINE
  5
35D
100
AcDbEntity
  8
0
100
AcDbLine
 62
253
  6
CONTINUOUS
 10
242.691072952
 20
125.5607204173
 11
242.6833850636
 21
125.3499447229
  0
LWPOLYLINE
  5
35E
100
AcDbEntity
  8
0
100
AcDbPolyline
 62
253
  6
CONTINUOUS
 90
3
 70
0
 10
242.6833850636
 20
125.3499447229
 10
242.6748700103
 20
125.1464191264
 10
242.6726559174
 20
125.0977471649
  0
LWPOLYLINE
  5
35F
100
AcDbEntity
  8
0
100
AcDbPolyline
 62
253
  6
CONTINUOUS
 90
6
 70
0
 10
242.706363678
 20
79.154096725
 10
242.7054845042
 20
79.1370971649
 10
242.7028500745
 20
79.1201573872
 10
242.6984696534
 20
79.1033369637
 10
242.6923586456
 20
79.0866950469
 10
242.6845385416
 20
79.0702901613
  0
LWPOLYLINE
  5
360
100
AcDbEntity
  8
0
100
AcDbPolyline
 62
253
  6
CONTINUOUS
 90
25
 70
0
 10
242.2124396366
 20
124.1458469738
 10
242.2157765161
 20
124.1818905359
 10
242.2198374604
 20
124.217777953
 10
242.2246224693
 20
124.2535092254
 10
242.2301516484
 20
124.2891748668
 10
242.2364048921
 20
124.3246843634
 10
242.243321884
 20
124.3597661732
 10
242.250904616
 20
124.3943691366
 10
242.2591510963
 20
124.4285444131
 10
242.2679950335
 20
124.4621739397
 10
242.2774237279
 20
124.495209348
 10
242.2874498791
 20
124.5276990064
 10
242.2980452949
 20
124.5596699567
 10
242.309139794
 20
124.5909928293
 10
242.3208035576
 20
124.6217969939
 10
242.3332189364
 20
124.652497601
 10
242.3462962987
 20
124.6830379126
 10
242.3601252762
 20
124.7134746668
 10
242.3751571148
 20
124.7443932286
 10
242.3913193617
 20
124.7758569386
 10
242.4086844698
 20
124.8078024563
 10
242.4279210436
 20
124.8406251246
 10
242.4492519514
 20
124.8744567248
 10
242.4724543249
 20
124.9091654757
 10
242.4975281642
 20
124.9447513774
  0
LWPOLYLINE
  5
361
100
AcDbEntity
  8
0
100
AcDbPolyline
 62
253
  6
CONTINUOUS
 90
13
 70
0
 10
242.8519458897
 20
78.2236873239
 10
242.8313405867
 20
78.1945812265
 10
242.8085176567
 20
78.1655596377
 10
242.7836287147
 20
78.1368153569
 10
242.7568390919
 20
78.1085393322
 10
242.7283267648
 20
78.0809194216
 10
242.6982811782
 20
78.0541391424
 10
242.6669019466
 20
78.0283764119
 10
242.634397524
 20
78.0038023702
 10
242.6009838505
 20
77.9805802712
 10
242.5668829053
 20
77.9588643855
 10
242.5323212315
 20
77.9387989755
 10
242.4975284333
 20
77.9205173397
  0
LWPOLYLINE
  5
362
100
AcDbEntity
  8
0
100
AcDbPolyline
 62
253
  6
CONTINUOUS
 90
10
 70
0
 10
242.584958774
 20
79.1060371196
 10
242.5776879627
 20
79.0958352089
 10
242.5722051672
 20
79.0841671906
 10
242.5685357936
 20
79.0710871316
 10
242.5666968454
 20
79.0566556425
 10
242.5666968437
 20
79.0409395953
 10
242.5685357892
 20
79.0240118122
 10
242.5722051614
 20
79.0059507315
 10
242.5776879581
 20
78.9868400444
 10
242.5849587739
 20
78.9667683052
  0
LWPOLYLINE
  5
363
100
AcDbEntity
  8
0
100
AcDbPolyline
 62
253
  6
CONTINUOUS
 90
10
 70
0
 10
242.9414602967
 20
77.9947724224
 10
242.9160337962
 20
77.9677531206
 10
242.8890653384
 20
77.9407797255
 10
242.8607285682
 20
77.9140259146
 10
242.831205939
 20
77.8876639503
 10
242.8006875437
 20
77.8618635751
 10
242.7693698906
 20
77.8367909186
 10
242.7374546314
 20
77.8126074213
 10
242.705147262
 20
77.7894687955
 10
242.6726558046
 20
77.7675240274
  0
LWPOLYLINE
  5
364
100
AcDbEntity
  8
0
100
AcDbPolyline
 62
253
  6
CONTINUOUS
 90
10
 70
0
 10
242.5849583883
 20
123.7592320348
 10
242.5776876294
 20
123.7694338783
 10
242.5722048812
 20
123.7811018625
 10
242.5685355475
 20
123.7941819157
 10
242.5666966257
 20
123.8086134647
 10
242.5666966462
 20
123.8243295995
 10
242.5685355838
 20
123.8412573491
 10
242.5722048559
 20
123.8593181945
 10
242.5776874133
 20
123.8784284658
 10
242.5849578027
 20
123.8984995907
  0
LWPOLYLINE
  5
365
100
AcDbEntity
  8
0
100
AcDbPolyline
 62
253
  6
CONTINUOUS
 90
13
 70
0
 10
242.8519459698
 20
124.6415810745
 10
242.8313406236
 20
124.6706872864
 10
242.8085176546
 20
124.6997089595
 10
242.7836286852
 20
124.7284532932
 10
242.7568390652
 20
124.7567293271
 10
242.7283267663
 20
124.7843492175
 10
242.6982811974
 20
124.8111294844
 10
242.6669019608
 20
124.8368922182
 10
242.634397519
 20
124.8614662683
 10
242.6009838014
 20
124.8846883871
 10
242.5668827827
 20
124.9064043028
 10
242.5323210095
 20
124.9264697465
 10
242.497528087
 20
124.9447514154
  0
LWPOLYLINE
  5
366
100
AcDbEntity
  8
0
100
AcDbPolyline
 62
253
  6
CONTINUOUS
 90
8
 70
0
 10
242.6845396273
 20
123.7949768317
 10
242.6750383957
 20
123.811086636
 10
242.6638897303
 20
123.826844218
 10
242.6511323462
 20
123.842195083
 10
242.6368085652
 20
123.8570877153
 10
242.6209670652
 20
123.8714702775
 10
242.6036636006
 20
123.8852910404
 10
242.5849583614
 20
123.8985010579
  0
LWPOLYLINE
  5
367
100
AcDbEntity
  8
0
100
AcDbPolyline
 62
253
  6
CONTINUOUS
 90
19
 70
0
 10
242.5849560947
 20
123.898502565
 10
242.5694872401
 20
123.925546231
 10
242.553490418
 20
123.9509777929
 10
242.5369744337
 20
123.9747678407
 10
242.5199979439
 20
123.9967795785
 10
242.502530947
 20
124.0170884667
 10
242.4844435488
 20
124.0359780642
 10
242.4657969814
 20
124.0534294738
 10
242.4465583237
 20
124.0693865598
 10
242.4264301842
 20
124.0840538982
 10
242.4052708103
 20
124.0974808387
 10
242.3832294773
 20
124.1094854172
 10
242.3604401746
 20
124.1199101841
 10
242.3369001247
 20
124.1286599295
 10
242.3126787283
 20
124.1356977399
 10
242.2880418892
 20
124.1409768905
 10
242.263119616
 20
124.1444584352
 10
242.2378974125
 20
124.1460904799
 10
242.2124376444
 20
124.1458269231
  0
LWPOLYLINE
  5
368
100
AcDbEntity
  8
0
100
AcDbPolyline
 62
253
  6
CONTINUOUS
 90
6
 70
0
 10
242.6819586184
 20
123.6526658376
 10
242.6684547361
 20
123.7051210031
 10
242.6519809074
 20
123.7560990998
 10
242.632510563
 20
123.805391813
 10
242.6101431914
 20
123.8529086027
 10
242.5849583614
 20
123.8985010579
  0
LWPOLYLINE
  5
369
100
AcDbEntity
  8
0
100
AcDbPolyline
 62
253
  6
CONTINUOUS
 90
4
 70
0
 10
242.6901551705
 20
79.2525229422
 10
242.6989652611
 20
79.3101615124
 10
242.7044667572
 20
79.370250693
 10
242.706363678
 20
79.4326343536
  0
LWPOLYLINE
  5
36A
100
AcDbEntity
  8
0
100
AcDbPolyline
 62
253
  6
CONTINUOUS
 90
11
 70
0
 10
242.668485075
 20
62.7495326804
 10
242.6700948997
 20
62.7555114919
 10
242.6715882167
 20
62.7657955646
 10
242.6729596325
 20
62.780347754
 10
242.6742041936
 20
62.7991154999
 10
242.675317405
 20
62.8220310161
 10
242.6762952459
 20
62.8490115354
 10
242.6771341845
 20
62.8799596085
 10
242.6778311907
 20
62.9147634557
 10
242.6783837469
 20
62.953297371
 10
242.6790480557
 20
63.0409857225
  0
LWPOLYLINE
  5
36B
100
AcDbEntity
  8
0
100
AcDbPolyline
 62
253
  6
CONTINUOUS
 90
7
 70
0
 10
242.58495872
 20
78.9667682114
 10
242.6072274642
 20
79.0064586907
 10
242.6279936507
 20
79.0493724128
 10
242.6469694962
 20
79.0954869017
 10
242.6638531841
 20
79.1448716635
 10
242.6783475215
 20
79.1973547179
 10
242.6901551705
 20
79.2525229422
  0
LWPOLYLINE
  5
36C
100
AcDbEntity
  8
0
100
AcDbPolyline
 62
253
  6
CONTINUOUS
 90
8
 70
0
 10
242.6845385416
 20
79.0702901613
 10
242.6750368423
 20
79.0541799977
 10
242.6638874905
 20
79.0384218983
 10
242.651129309
 20
79.0230705561
 10
242.6368051613
 20
79.0081780121
 10
242.6209640863
 20
78.9937962187
 10
242.60366183
 20
78.9799766613
 10
242.58495872
 20
78.9667682114
  0
LWPOLYLINE
  5
36D
100
AcDbEntity
  8
0
100
AcDbPolyline
 62
253
  6
CONTINUOUS
 90
22
 70
0
 10
267.6448165276
 20
137.1737735578
 10
267.6387056554
 20
137.1781807837
 10
267.62839274
 20
137.1823203026
 10
267.613914194
 20
137.1861774986
 10
267.5953211381
 20
137.1897387528
 10
267.5726792205
 20
137.1929914912
 10
267.5460683849
 20
137.195924229
 10
267.5155825885
 20
137.1985266113
 10
267.4813294703
 20
137.2007894497
 10
267.4434299707
 20
137.2027047547
 10
267.4020179049
 20
137.2042657635
 10
267.35723949
 20
137.2054669648
 10
267.3092528293
 20
137.2063041171
 10
267.2582273533
 20
137.2067742649
 10
267.2043432224
 20
137.206875748
 10
267.1477906899
 20
137.2066082082
 10
267.0887694309
 20
137.20597259
 10
267.027487837
 20
137.2049711378
 10
266.9641622805
 20
137.2036073874
 10
266.8990163506
 20
137.2018861539
 10
266.8322800637
 20
137.1998135147
 10
266.6949837293
 20
137.1946445062
  0
LWPOLYLINE
  5
36E
100
AcDbEntity
  8
0
100
AcDbPolyline
 62
253
  6
CONTINUOUS
 90
10
 70
0
 10
242.668485075
 20
140.1157360269
 10
242.6700948997
 20
140.1097572154
 10
242.6715882167
 20
140.0994731427
 10
242.6729596325
 20
140.0849209533
 10
242.6742041936
 20
140.0661532074
 10
242.6753174051
 20
140.0432376912
 10
242.676295246
 20
140.0162571718
 10
242.6771341845
 20
139.9853090988
 10
242.6778311907
 20
139.9505052516
 10
242.6783837469
 20
139.9119713363
  0
LWPOLYLINE
  5
36F
100
AcDbEntity
  8
0
100
AcDbPolyline
 62
253
  6
CONTINUOUS
 90
21
 70
0
 10
267.6448165092
 20
65.6914951287
 10
267.6387056259
 20
65.6870878994
 10
267.6283927029
 20
65.6829483756
 10
267.6139141475
 20
65.6790911734
 10
267.5953210709
 20
65.6755299115
 10
267.5726791184
 20
65.6722771652
 10
267.5460682435
 20
65.669344421
 10
267.5155824103
 20
65.6667420343
 10
267.4813292545
 20
65.6644791929
 10
267.4434297183
 20
65.6625638864
 10
267.4020176181
 20
65.6610028773
 10
267.3572391721
 20
65.6598016769
 10
267.309252485
 20
65.6589645265
 10
267.2582269887
 20
65.6584943817
 10
267.2043428441
 20
65.6583929024
 10
267.1477903059
 20
65.6586604468
 10
267.0887690501
 20
65.6592960701
 10
267.0274874685
 20
65.6602975279
 10
266.9641619343
 20
65.6616612843
 10
266.8990160369
 20
65.6633825239
 10
266.832279793
 20
65.6654551692
  0
LWPOLYLINE
  5
370
100
AcDbEntity
  8
0
100
AcDbPolyline
 62
7
  6
CONTINUOUS
 90
16
 70
0
 10
268.8555499389
 20
97.9086752964
 10
268.8542764355
 20
97.9118226931
 10
268.8530484448
 20
97.9169582458
 10
268.8518659667
 20
97.9240468497
 10
268.8507232251
 20
97.9330220347
 10
268.849625996
 20
97.9438344072
 10
268.8485916083
 20
97.9564853344
 10
268.8476175466
 20
97.9709743855
 10
268.8467063261
 20
97.9871844474
 10
268.8458828218
 20
98.004922949
 10
268.8451508241
 20
98.0240606507
 10
268.8445065426
 20
98.0444665892
 10
268.8439634802
 20
98.065886044
 10
268.8435253566
 20
98.0880701641
 10
268.8431884522
 20
98.1109320388
 10
268.8429551113
 20
98.1344523436
  0
LWPOLYLINE
  5
371
100
AcDbEntity
  8
0
100
AcDbPolyline
 62
253
  6
CONTINUOUS
 90
19
 70
0
 10
266.5542106228
 20
137.1881733001
 10
266.7655740752
 20
133.1826986798
 10
266.9514225363
 20
129.2150018114
 10
267.1117563727
 20
125.2853900974
 10
267.2458535598
 20
121.4071435589
 10
267.3544906497
 20
117.5675584382
 10
267.4398557375
 20
113.7279114387
 10
267.502780691
 20
109.8885681827
 10
267.5423784388
 20
106.0496171971
 10
267.5581126678
 20
102.1718747269
 10
267.550327026
 20
98.2414673246
 10
267.5184913319
 20
94.2727417312
 10
267.4606965998
 20
90.2688530427
 10
267.3766286529
 20
86.2255469353
 10
267.2665036815
 20
82.1476393284
 10
267.1292693691
 20
78.0518969818
 10
266.9646104382
 20
73.9441013788
 10
266.7729078842
 20
69.8190642522
 10
266.5542106228
 20
65.6770954072
  0
LWPOLYLINE
  5
372
100
AcDbEntity
  8
0
100
AcDbPolyline
 62
7
  6
CONTINUOUS
 90
18
 70
0
 10
268.9309029887
 20
105.0836526235
 10
268.9321784959
 20
105.086808613
 10
268.9334069589
 20
105.0919570682
 10
268.9345883775
 20
105.0990589565
 10
268.9357284537
 20
105.108042147
 10
268.9368214856
 20
105.1188547818
 10
268.9378503676
 20
105.1315023276
 10
268.9388177595
 20
105.1459839994
 10
268.9397210015
 20
105.1621824776
 10
268.9405350094
 20
105.1799152348
 10
268.9412561993
 20
105.1990625813
 10
268.941888155
 20
105.21948897
 10
268.9424165437
 20
105.2409286047
 10
268.9428373672
 20
105.2631317644
 10
268.9431546237
 20
105.2860111295
 10
268.9433659756
 20
105.3095338829
 10
268.9434706436
 20
105.3335875766
 10
268.9433622656
 20
105.3825110329
  0
LWPOLYLINE
  5
373
100
AcDbEntity
  8
0
100
AcDbPolyline
 62
253
  6
CONTINUOUS
 90
25
 70
0
 10
265.2338511832
 20
63.3460576374
 10
265.2396312408
 20
63.3521707598
 10
265.2452481668
 20
63.3625832716
 10
265.2506816949
 20
63.3772576035
 10
265.2559122203
 20
63.3961408091
 10
265.2609208707
 20
63.4191647557
 10
265.2656895745
 20
63.4462463707
 10
265.2702011256
 20
63.477287941
 10
265.274439246
 20
63.5121774653
 10
265.278388644
 20
63.5507890587
 10
265.2820350699
 20
63.5929834067
 10
265.2853653669
 20
63.6386082679
 10
265.288367519
 20
63.6874990231
 10
265.2910306942
 20
63.7394792695
 10
265.2933452834
 20
63.7943614572
 10
265.2953029353
 20
63.8519475656
 10
265.2968965866
 20
63.9120298183
 10
265.2981204872
 20
63.9743914323
 10
265.2989702212
 20
64.0388074007
 10
265.2994427225
 20
64.1050453042
 10
265.2995362865
 20
64.1728661496
 10
265.2992505754
 20
64.2420252325
 10
265.2985866202
 20
64.3122730199
 10
265.2975468165
 20
64.3833560506
 10
265.296134916
 20
64.45501785
  0
LWPOLYLINE
  5
374
100
AcDbEntity
  8
0
100
AcDbPolyline
 62
253
  6
CONTINUOUS
 90
25
 70
0
 10
265.2338512138
 20
139.5192110492
 10
265.2396312717
 20
139.5130979155
 10
265.2452482008
 20
139.5026853979
 10
265.2506817341
 20
139.4880110591
 10
265.2559122679
 20
139.4691278348
 10
265.2609209283
 20
139.4461038534
 10
265.2656896403
 20
139.419022199
 10
265.2702011972
 20
139.3879805924
 10
265.2744393219
 20
139.353091031
 10
265.2783887227
 20
139.3144794012
 10
265.2820351498
 20
139.2722850189
 10
265.2853654468
 20
139.2266601266
 10
265.2883675974
 20
139.1777693449
 10
265.2910307699
 20
139.1257890778
 10
265.2933453553
 20
139.0709068762
 10
265.2953030023
 20
139.0133207617
 10
265.2968966479
 20
138.9532385117
 10
265.298120542
 20
138.8908769096
 10
265.2989702687
 20
138.8264609629
 10
265.2994427625
 20
138.7602230915
 10
265.2995363186
 20
138.6924022885
 10
265.2992505993
 20
138.6232432583
 10
265.2985866358
 20
138.5529955336
 10
265.297546824
 20
138.4819125752
 10
265.296134916
 20
138.4102508573
  0
LWPOLYLINE
  5
375
100
AcDbEntity
  8
0
100
AcDbPolyline
 62
253
  6
CONTINUOUS
 90
19
 70
0
 10
267.6448165276
 20
137.1737735578
 10
267.8572442353
 20
133.1697081051
 10
268.0426669597
 20
129.2036529073
 10
268.2018572688
 20
125.2757866972
 10
268.335199071
 20
121.3991534795
 10
268.4439989127
 20
117.5610412927
 10
268.5296600489
 20
113.7229620525
 10
268.5921294607
 20
109.8851964605
 10
268.6314801181
 20
106.0477238726
 10
268.6478101894
 20
102.1715771685
 10
268.6402676659
 20
98.2427787431
 10
268.6080167605
 20
94.2755771662
 10
268.550482087
 20
90.2733469042
 10
268.4668626389
 20
86.231705427
 10
268.3564827685
 20
82.1553579355
 10
268.2193544232
 20
78.0613102568
 10
268.0553852767
 20
73.9553400831
 10
267.8639973991
 20
69.8320089711
 10
267.6448165276
 20
65.6914951495
  0
LWPOLYLINE
  5
376
100
AcDbEntity
  8
0
100
AcDbPolyline
 62
7
  6
CONTINUOUS
 90
17
 70
0
 10
268.9434706435
 20
97.5316811814
 10
268.9433659751
 20
97.5557349039
 10
268.9431546225
 20
97.5792576872
 10
268.9428373649
 20
97.6021370828
 10
268.94241654
 20
97.6243402726
 10
268.9418881493
 20
97.6457799393
 10
268.9412561912
 20
97.6662063568
 10
268.9405349991
 20
97.6853537185
 10
268.9397209891
 20
97.703086477
 10
268.9388177449
 20
97.7192849453
 10
268.9378503518
 20
97.7337665939
 10
268.9368214692
 20
97.7464141068
 10
268.9357284377
 20
97.7572267024
 10
268.9345883632
 20
97.7662098494
 10
268.9334069479
 20
97.7733116949
 10
268.9321784897
 20
97.7784601151
 10
268.9309029887
 20
97.7816160838
  0
LWPOLYLINE
  5
377
100
AcDbEntity
  8
0
100
AcDbPolyline
 62
7
  6
CONTINUOUS
 90
3
 70
0
 10
268.8429551113
 20
98.1344523436
 10
268.8428006828
 20
98.1829391757
 10
268.8428788138
 20
98.2075337058
  0
LWPOLYLINE
  5
378
100
AcDbEntity
  8
0
100
AcDbPolyline
 62
7
  6
CONTINUOUS
 90
18
 70
0
 10
268.8428788138
 20
104.6577350014
 10
268.8428255696
 20
104.7066587675
 10
268.8429543172
 20
104.7307126356
 10
268.843187376
 20
104.7542355953
 10
268.8435240147
 20
104.7771151673
 10
268.8439620388
 20
104.7993184587
 10
268.8445053905
 20
104.8207581258
 10
268.8451501278
 20
104.8411844831
 10
268.8458822298
 20
104.8603317553
 10
268.8467051905
 20
104.8780644024
 10
268.847615516
 20
104.8942627442
 10
268.8485887035
 20
104.9087442744
 10
268.8496221037
 20
104.9213916812
 10
268.8507183658
 20
104.9322041847
 10
268.8518609358
 20
104.9411872628
 10
268.8530442956
 20
104.9482890624
 10
268.8542739633
 20
104.9534374548
 10
268.8555499389
 20
104.9565934109
  0
LINE
  5
379
100
AcDbEntity
  8
0
100
AcDbLine
 62
7
  6
CONTINUOUS
 10
268.9433622656
 20
97.4827576744
 11
268.9434706435
 21
97.5316811814
  0
LWPOLYLINE
  5
37A
100
AcDbEntity
  8
0
100
AcDbPolyline
 62
7
  6
CONTINUOUS
 90
34
 70
0
 10
267.8765794136
 20
65.452428917
 10
267.8674683525
 20
65.3413751049
 10
267.8533968103
 20
65.2309834734
 10
267.8343647869
 20
65.1212540224
 10
267.8102960931
 20
65.0118391873
 10
267.781266918
 20
64.9030865328
 10
267.7475058295
 20
64.7960387532
 10
267.7089522348
 20
64.6907806267
 10
267.6656667266
 20
64.5872273751
 10
267.6180596516
 20
64.4861673584
 10
267.5662492151
 20
64.3878348698
 10
267.5101172116
 20
64.291995616
 10
267.4497193713
 20
64.1987350783
 10
267.384941885
 20
64.1078636419
 10
267.3158985619
 20
64.0195709216
 10
267.2429865594
 20
63.934511242
 10
267.1660900456
 20
63.8526614925
 10
267.0853248524
 20
63.7740447838
 10
267.0014356324
 20
63.6993847726
 10
266.9144511455
 20
63.6287978392
 10
266.8243426318
 20
63.5621676034
 10
266.7317684644
 20
63.499868581
 10
266.6369220369
 20
63.4420082063
 10
266.5396099555
 20
63.3884790449
 10
266.4399104126
 20
63.3393333098
 10
266.3375781615
 20
63.2944562686
 10
266.2328584488
 20
63.2539626536
 10
266.1265652056
 20
63.2182488741
 10
266.01862002
 20
63.1873807859
 10
265.9091013039
 20
63.1612925331
 10
265.7990582237
 20
63.1401829575
 10
265.6888405018
 20
63.1241183396
 10
265.5780984157
 20
63.1130323989
 10
265.4668319657
 20
63.1069251355
  0
LWPOLYLINE
  5
37B
100
AcDbEntity
  8
0
100
AcDbPolyline
 62
253
  6
CONTINUOUS
 90
34
 70
0
 10
267.6448165114
 20
65.6914951662
 10
267.6354102729
 20
65.5769888339
 10
267.6209635094
 20
65.4644091029
 10
267.6016904478
 20
65.3539630639
 10
267.5779276526
 20
65.2463182467
 10
267.5498234716
 20
65.1411575672
 10
267.5171301734
 20
65.0372350321
 10
267.4797024921
 20
64.9342500101
 10
267.437748962
 20
64.8329211602
 10
267.3913965656
 20
64.733571743
 10
267.3407651605
 20
64.6364409901
 10
267.2859324969
 20
64.541661003
 10
267.2269871054
 20
64.449383269
 10
267.1640340945
 20
64.3597755053
 10
267.0971999566
 20
64.27302028
 10
267.0266130109
 20
64.1892859674
 10
266.952416706
 20
64.1087428582
 10
266.8747450894
 20
64.0315361845
 10
266.7937196027
 20
63.9577909382
 10
266.7094433168
 20
63.8876144105
 10
266.6221198956
 20
63.8211885965
 10
266.5320399034
 20
63.7587282754
 10
266.4398006153
 20
63.7005914478
 10
266.3451917341
 20
63.6465923058
 10
266.2472258517
 20
63.5962497298
 10
266.1456996757
 20
63.5496625296
 10
266.0410557179
 20
63.5072364008
 10
265.9332019608
 20
63.4691289769
 10
265.8220226418
 20
63.4355320194
 10
265.7079643073
 20
63.4068119408
 10
265.5918162329
 20
63.3833352874
 10
265.4740112409
 20
63.3652996963
 10
265.3546026637
 20
63.3528232682
 10
265.2338511567
 20
63.3460576646
  0
LWPOLYLINE
  5
37C
100
AcDbEntity
  8
0
100
AcDbPolyline
 62
253
  6
CONTINUOUS
 90
34
 70
0
 10
266.5542106228
 20
65.6770954072
 10
266.5492721759
 20
65.6170817738
 10
266.5419208634
 20
65.5582846434
 10
266.5321567869
 20
65.5007039857
 10
266.5199746266
 20
65.4444896251
 10
266.5053798837
 20
65.3894916762
 10
266.4883888702
 20
65.3352605566
 10
266.4689590598
 20
65.2815224182
 10
266.4471330928
 20
65.2285510785
 10
266.4230550159
 20
65.1767184557
 10
266.3967206194
 20
65.1260592615
 10
266.3681341989
 20
65.0765387338
 10
266.3374525533
 20
65.0284245661
 10
266.3046614525
 20
64.9817188103
 10
266.2697751718
 20
64.9364193569
 10
266.2329932594
 20
64.892787648
 10
266.194310084
 20
64.850836854
 10
266.1537312787
 20
64.8105537421
 10
266.1114732784
 20
64.7721601412
 10
266.0674988725
 20
64.735649912
 10
266.0218452292
 20
64.7010291317
 10
265.974840343
 20
64.6685379495
 10
265.9267111415
 20
64.6382797324
 10
265.8772306164
 20
64.6101510533
 10
265.8260458447
 20
64.5840818706
 10
265.7730035688
 20
64.5599333315
 10
265.7182569081
 20
64.5378442438
 10
265.6619124827
 20
64.5181610568
 10
265.6037970806
 20
64.5008607167
 10
265.5440837119
 20
64.4859662377
 10
265.4833983211
 20
64.4738931686
 10
265.4219494824
 20
64.4647800156
 10
265.3595283902
 20
64.4584882454
 10
265.296134916
 20
64.45501785
  0
LINE
  5
37D
100
AcDbEntity
  8
SUPERFICI
100
AcDbLine
 62
7
  6
CONTINUOUS
 10
22.34292458
 20
61.4326343536
 11
15.4636651204
 21
61.793161065
  0
LINE
  5
37E
100
AcDbEntity
  8
0
100
AcDbLine
 62
253
  6
CONTINUOUS
 10
17.6558381011
 20
65.6914951287
 11
17.5144996237
 21
65.6829483756
  0
LINE
  5
37F
100
AcDbEntity
  8
0
100
AcDbLine
 62
253
  6
CONTINUOUS
 10
17.5144996237
 20
65.6829483756
 11
17.3760415904
 21
65.6755299115
  0
LINE
  5
380
100
AcDbEntity
  8
0
100
AcDbLine
 62
253
  6
CONTINUOUS
 10
17.3760415904
 20
65.6755299115
 11
17.2424177852
 21
65.669344421
  0
LWPOLYLINE
  5
381
100
AcDbEntity
  8
0
100
AcDbPolyline
 62
253
  6
CONTINUOUS
 90
18
 70
0
 10
17.2424177852
 20
65.669344421
 10
17.1155138761
 20
65.6644791929
 10
17.0551458738
 20
65.6625638864
 10
16.9971205413
 20
65.6610028773
 10
16.9416427531
 20
65.6598016769
 10
16.8889083893
 20
65.6589645265
 10
16.8391036431
 20
65.6584943817
 10
16.7924043636
 20
65.6583929024
 10
16.7489754352
 20
65.6586604468
 10
16.7089701952
 20
65.6592960701
 10
16.6725298925
 20
65.6602975279
 10
16.6397831888
 20
65.6616612843
 10
16.6108457045
 20
65.6633825239
 10
16.5858196103
 20
65.6654551692
 10
16.5647932666
 20
65.6678719023
 10
16.5478409116
 20
65.6706241902
 10
16.535022399
 20
65.6737023146
 10
16.5263829868
 20
65.6770954072
  0
LINE
  5
382
100
AcDbEntity
  8
0
100
AcDbLine
 62
253
  6
CONTINUOUS
 10
17.6360359411
 20
63.3460576374
 11
22.34292458
 21
63.1069251355
  0
LINE
  5
383
100
AcDbEntity
  8
0
100
AcDbLine
 62
253
  6
CONTINUOUS
 10
17.6558384281
 20
65.6914951495
 11
22.34292458
 21
65.452428917
  0
LWPOLYLINE
  5
384
100
AcDbEntity
  8
0
100
AcDbPolyline
 62
253
  6
CONTINUOUS
 90
25
 70
0
 10
16.4235040886
 20
62.7495326804
 10
16.3516520476
 20
62.7555114919
 10
16.2802863599
 20
62.7657955646
 10
16.2096647872
 20
62.780347754
 10
16.1400424035
 20
62.7991154999
 10
16.071670674
 20
62.8220310161
 10
16.0047965465
 20
62.8490115354
 10
15.9396615599
 20
62.8799596085
 10
15.8765009715
 20
62.9147634557
 10
15.8155429074
 20
62.953297371
 10
15.7570075386
 20
62.995422176
 10
15.7011062856
 20
63.0409857225
 10
15.6480410549
 20
63.0898234421
 10
15.5980035098
 20
63.1417589408
 10
15.5511743781
 20
63.1966046355
 10
15.5077227992
 20
63.2541624324
 10
15.4678057134
 20
63.3142244416
 10
15.4315672949
 20
63.3765737288
 10
15.3991384312
 20
63.4409850979
 10
15.3706362502
 20
63.5072259054
 10
15.3461636973
 20
63.5750568998
 10
15.3258091636
 20
63.6442330862
 10
15.3096461664
 20
63.7145046112
 10
15.297733084
 20
63.785617665
 10
15.2901129444
 20
63.8573153985
  0
LWPOLYLINE
  5
385
100
AcDbEntity
  8
0
100
AcDbPolyline
 62
253
  6
CONTINUOUS
 90
25
 70
0
 10
17.6360359411
 20
63.3460576374
 10
17.5644476293
 20
63.3521707598
 10
17.4933442155
 20
63.3625832716
 10
17.4229822479
 20
63.3772576035
 10
17.3536155996
 20
63.3961408091
 10
17.2854945526
 20
63.4191647557
 10
17.2188648944
 20
63.4462463707
 10
17.1539670317
 20
63.477287941
 10
17.0910351225
 20
63.5121774653
 10
17.0302962314
 20
63.5507890587
 10
16.9719695106
 20
63.5929834067
 10
16.9162654088
 20
63.6386082679
 10
16.8633849121
 20
63.6874990231
 10
16.8135188186
 20
63.7394792695
 10
16.7668470502
 20
63.7943614572
 10
16.7235380035
 20
63.8519475656
 10
16.6837479418
 20
63.9120298183
 10
16.6476204317
 20
63.9743914323
 10
16.615285825
 20
64.0388074007
 10
16.5868607882
 20
64.1050453042
 10
16.5624478818
 20
64.1728661496
 10
16.5421351898
 20
64.2420252325
 10
16.5259960027
 20
64.3122730199
 10
16.5140885522
 20
64.3833560506
 10
16.5064558016
 20
64.45501785
  0
LINE
  5
386
100
AcDbEntity
  8
0
100
AcDbLine
 62
7
  6
CONTINUOUS
 10
13.850030356
 20
76.8005604433
 11
13.6058754382
 21
76.8005604433
  0
LINE
  5
387
100
AcDbEntity
  8
0
100
AcDbLine
 62
253
  6
CONTINUOUS
 10
14.1720457704
 20
77.2604461124
 11
13.9278908505
 21
77.2604461124
  0
LINE
  5
388
100
AcDbEntity
  8
0
100
AcDbLine
 62
7
  6
CONTINUOUS
 10
14.4054802641
 20
77.5938251225
 11
14.1613253464
 21
77.5938251225
  0
LINE
  5
389
100
AcDbEntity
  8
0
100
AcDbLine
 62
7
  6
CONTINUOUS
 10
14.4125117274
 20
77.6038670928
 11
14.1683568097
 21
77.6038670928
  0
LINE
  5
38A
100
AcDbEntity
  8
0
100
AcDbLine
 62
7
  6
CONTINUOUS
 10
20.6167778572
 20
104.9565934109
 11
22.0690713029
 21
105.0836526235
  0
LINE
  5
38B
100
AcDbEntity
  8
0
100
AcDbLine
 62
7
  6
CONTINUOUS
 10
22.0690713029
 20
97.7816160838
 11
20.6167778572
 21
97.9086752964
  0
LWPOLYLINE
  5
38C
100
AcDbEntity
  8
0
100
AcDbPolyline
 62
7
  6
CONTINUOUS
 90
26
 70
0
 10
14.3299737347
 20
62.899039252
 10
14.3366309558
 20
62.8351927861
 10
14.3477380856
 20
62.766253954
 10
14.3628362555
 20
62.6980778862
 10
14.3818743421
 20
62.6308954313
 10
14.4047878813
 20
62.5649340733
 10
14.4314992864
 20
62.5004171617
 10
14.4619181109
 20
62.4375631548
 10
14.4959413548
 20
62.3765848803
 10
14.5334538132
 20
62.3176888146
 10
14.5743284666
 20
62.2610743833
 10
14.6184269108
 20
62.2069332867
 10
14.6655998256
 20
62.15544885
 10
14.7156874807
 20
62.1067954026
 10
14.7685202759
 20
62.0611376883
 10
14.8239193161
 20
62.018630307
 10
14.8816970166
 20
61.9794171914
 10
14.9416577385
 20
61.9436311196
 10
15.0035984508
 20
61.9113932655
 10
15.0673094184
 20
61.8828127884
 10
15.1325749118
 20
61.8579864638
 10
15.199173938
 20
61.836998355
 10
15.2668809884
 20
61.8199195291
 10
15.3354668024
 20
61.8068078161
 10
15.4046991442
 20
61.797707613
 10
15.4636016691
 20
61.7931644385
  0
LWPOLYLINE
  5
38D
100
AcDbEntity
  8
0
100
AcDbPolyline
 62
253
  6
CONTINUOUS
 90
7
 70
0
 10
15.2901129444
 20
63.8573153985
 10
15.1264434371
 20
66.0968897304
 10
14.972830246
 20
68.3371767842
 10
14.8292764694
 20
70.5781313733
 10
14.6957850027
 20
72.8197082976
 10
14.5723585386
 20
75.0618623446
 10
14.4589995666
 20
77.30454829
  0
LWPOLYLINE
  5
38E
100
AcDbEntity
  8
0
100
AcDbPolyline
 62
253
  6
CONTINUOUS
 90
3
 70
0
 10
14.4723362915
 20
77.3235831094
 10
14.4699342647
 20
77.3624147721
 10
14.4696493156
 20
77.3770127899
  0
LINE
  5
38F
100
AcDbEntity
  8
0
100
AcDbLine
 62
253
  6
CONTINUOUS
 10
16.5302686763
 20
65.6170817738
 11
16.5371571793
 21
65.5007039857
  0
LINE
  5
390
100
AcDbEntity
  8
0
100
AcDbLine
 62
253
  6
CONTINUOUS
 10
14.4723365096
 20
77.3235831199
 11
14.4705792716
 21
77.3560473442
  0
LINE
  5
391
100
AcDbEntity
  8
0
100
AcDbLine
 62
253
  6
CONTINUOUS
 10
16.5371571793
 20
65.5007039857
 11
16.5428441512
 21
65.3894916762
  0
LINE
  5
392
100
AcDbEntity
  8
0
100
AcDbLine
 62
253
  6
CONTINUOUS
 10
14.4723362915
 20
77.3235831094
 11
14.470564417
 21
77.3563547982
  0
LINE
  5
393
100
AcDbEntity
  8
0
100
AcDbLine
 62
7
  6
CONTINUOUS
 10
14.2971217733
 20
81.2717426303
 11
14.470564417
 21
77.3563547982
  0
LINE
  5
394
100
AcDbEntity
  8
0
100
AcDbLine
 62
7
  6
CONTINUOUS
 10
14.2968577235
 20
81.2782883895
 11
14.2970037229
 21
81.2749920286
  0
LWPOLYLINE
  5
395
100
AcDbEntity
  8
0
100
AcDbPolyline
 62
253
  6
CONTINUOUS
 90
28
 70
0
 10
16.5428441512
 20
65.3894916762
 10
16.5474695515
 20
65.2815224182
 10
16.5493991825
 20
65.2285510785
 10
16.5510538335
 20
65.1767184557
 10
16.5524306607
 20
65.1260592615
 10
16.55353269
 20
65.0765387338
 10
16.5543542673
 20
65.0284245661
 10
16.5548940833
 20
64.9817188103
 10
16.5551536901
 20
64.9364193569
 10
16.5551315553
 20
64.892787648
 10
16.5548263218
 20
64.850836854
 10
16.5542396088
 20
64.8105537421
 10
16.5533741681
 20
64.7721601412
 10
16.5522273232
 20
64.735649912
 10
16.5508020439
 20
64.7010291317
 10
16.5491093283
 20
64.6685379495
 10
16.5471613362
 20
64.6382797324
 10
16.5449460428
 20
64.6101510533
 10
16.5424382132
 20
64.5840818706
 10
16.5396352523
 20
64.5599333315
 10
16.5365405795
 20
64.5378442438
 10
16.5331381114
 20
64.5181610568
 10
16.5294150725
 20
64.5008607167
 10
16.5253851879
 20
64.4859662377
 10
16.5210717865
 20
64.4738931686
 10
16.5164826885
 20
64.4647800156
 10
16.511610571
 20
64.4584882454
 10
16.5064558016
 20
64.45501785
  0
LINE
  5
396
100
AcDbEntity
  8
0
100
AcDbLine
 62
253
  6
CONTINUOUS
 10
14.3063559064
 20
81.0489212003
 11
14.2971217733
 21
81.2717426303
  0
LINE
  5
397
100
AcDbEntity
  8
0
100
AcDbLine
 62
7
  6
CONTINUOUS
 10
14.1505048112
 20
85.3081889864
 11
14.2971217733
 21
81.2717426303
  0
LINE
  5
398
100
AcDbEntity
  8
0
100
AcDbLine
 62
253
  6
CONTINUOUS
 10
14.4577985664
 20
125.5078593006
 11
14.4593957738
 21
125.4550110735
  0
LWPOLYLINE
  5
399
100
AcDbEntity
  8
0
100
AcDbPolyline
 62
253
  6
CONTINUOUS
 90
10
 70
0
 10
14.1669666606
 20
84.8116870623
 10
14.0549959968
 20
88.6116976328
 10
13.9716019392
 20
92.430693083
 10
13.917022022
 20
96.2865260973
 10
13.8919691642
 20
100.2331813027
 10
13.8987688566
 20
104.3022657213
 10
13.9399585555
 20
108.4616676267
 10
14.0168671761
 20
112.6697692313
 10
14.1303057463
 20
116.9124836099
 10
14.2817104884
 20
121.2032427697
  0
LINE
  5
39A
100
AcDbEntity
  8
0
100
AcDbLine
 62
7
  6
CONTINUOUS
 10
14.0366692668
 20
89.3391510472
 11
14.1507125495
 21
85.3017317874
  0
LINE
  5
39B
100
AcDbEntity
  8
0
100
AcDbLine
 62
253
  6
CONTINUOUS
 10
14.4589995666
 20
77.30454829
 11
14.4577985687
 21
77.3574100384
  0
LINE
  5
39C
100
AcDbEntity
  8
0
100
AcDbLine
 62
7
  6
CONTINUOUS
 10
13.9553602589
 20
93.3709102138
 11
14.0368240495
 21
89.3327598842
  0
LINE
  5
39D
100
AcDbEntity
  8
0
100
AcDbLine
 62
7
  6
CONTINUOUS
 10
13.906583107
 20
97.4032038031
 11
13.9554628124
 21
93.3645670105
  0
LINE
  5
39E
100
AcDbEntity
  8
0
100
AcDbLine
 62
253
  6
CONTINUOUS
 10
14.4694219586
 20
125.4831192775
 11
14.4693999628
 21
125.4858220736
  0
LINE
  5
39F
100
AcDbEntity
  8
0
100
AcDbLine
 62
7
  6
CONTINUOUS
 10
13.8903400438
 20
101.4357707418
 11
13.9066334385
 21
97.3968915843
  0
LINE
  5
3A0
100
AcDbEntity
  8
0
100
AcDbLine
 62
7
  6
CONTINUOUS
 10
13.9066332328
 20
105.4683496199
 11
13.8903400807
 21
101.4294700269
  0
LINE
  5
3A1
100
AcDbEntity
  8
0
100
AcDbLine
 62
7
  6
CONTINUOUS
 10
13.9554624237
 20
109.5006765905
 11
13.9065829005
 21
105.4620380266
  0
LINE
  5
3A2
100
AcDbEntity
  8
0
100
AcDbLine
 62
7
  6
CONTINUOUS
 10
14.0368235266
 20
113.5324878207
 11
13.9553598449
 21
109.4943339597
  0
LINE
  5
3A3
100
AcDbEntity
  8
0
100
AcDbLine
 62
253
  6
CONTINUOUS
 10
14.4589995666
 20
125.5607204173
 11
14.4577985664
 21
125.5078593006
  0
LINE
  5
3A4
100
AcDbEntity
  8
0
100
AcDbLine
 62
7
  6
CONTINUOUS
 10
14.1507120654
 20
117.5635215253
 11
14.03666879
 21
113.5260970728
  0
LINE
  5
3A5
100
AcDbEntity
  8
0
100
AcDbLine
 62
7
  6
CONTINUOUS
 10
14.2970037029
 20
121.5902769563
 11
14.1505043083
 21
117.5570646723
  0
LINE
  5
3A6
100
AcDbEntity
  8
0
100
AcDbLine
 62
253
  6
CONTINUOUS
 10
14.2817104884
 20
121.2032427697
 11
14.4723362913
 21
125.5416855981
  0
LINE
  5
3A7
100
AcDbEntity
  8
0
100
AcDbLine
 62
7
  6
CONTINUOUS
 10
14.4705670853
 20
125.5089738331
 11
14.2968573277
 21
121.5869721129
  0
LWPOLYLINE
  5
3A8
100
AcDbEntity
  8
0
100
AcDbPolyline
 62
253
  6
CONTINUOUS
 90
7
 70
0
 10
14.4589995666
 20
125.5607204173
 10
14.5723585386
 20
127.8034063627
 10
14.6957850027
 20
130.0455604096
 10
14.8292764694
 20
132.287137334
 10
14.972830246
 20
134.5280919231
 10
15.1264434371
 20
136.7683789768
 10
15.2901129444
 20
139.0079533088
  0
LINE
  5
3A9
100
AcDbEntity
  8
0
100
AcDbLine
 62
253
  6
CONTINUOUS
 10
14.4693999628
 20
125.4858220736
 11
14.4723362913
 21
125.5416855981
  0
LWPOLYLINE
  5
3AA
100
AcDbEntity
  8
0
100
AcDbPolyline
 62
253
  6
CONTINUOUS
 90
18
 70
0
 10
16.2730796306
 20
133.1826986798
 10
16.0521054544
 20
129.2150018114
 10
15.8624928978
 20
125.2853900974
 10
15.7037411754
 20
121.4071435589
 10
15.5742520893
 20
117.5675584382
 10
15.472328067
 20
113.7279114387
 10
15.3980205967
 20
109.8885681827
 10
15.351220012
 20
106.0496171971
 10
15.3317941511
 20
102.1718747269
 10
15.3407632602
 20
98.2414673246
 10
15.3791227684
 20
94.2727417312
 10
15.4475576638
 20
90.2688530427
 10
15.5470416073
 20
86.2255469353
 10
15.6784033372
 20
82.1476393284
 10
15.8416574012
 20
78.0518969818
 10
16.0369557235
 20
73.9441013788
 10
16.2650324817
 20
69.8190642522
 10
16.5302686763
 20
65.6170817738
  0
LWPOLYLINE
  5
3AB
100
AcDbEntity
  8
0
100
AcDbPolyline
 62
253
  6
CONTINUOUS
 90
3
 70
0
 10
16.537699502
 20
137.3744773048
 10
16.5304702957
 20
137.2513214602
 10
16.2730796306
 20
133.1826986798
  0
LWPOLYLINE
  5
3AC
100
AcDbEntity
  8
0
100
AcDbPolyline
 62
253
  6
CONTINUOUS
 90
3
 70
0
 10
14.4593957738
 20
125.4550110735
 10
14.4637867181
 20
125.4023236619
 10
14.4653407698
 20
125.390974599
  0
LINE
  5
3AD
100
AcDbEntity
  8
0
100
AcDbLine
 62
253
  6
CONTINUOUS
 10
17.6533602279
 20
139.2917106896
 11
17.6561499687
 21
139.1914544154
  0
LINE
  5
3AE
100
AcDbEntity
  8
0
100
AcDbLine
 62
253
  6
CONTINUOUS
 10
17.6561499687
 20
139.1914544154
 11
17.6585139111
 21
139.074513128
  0
LINE
  5
3AF
100
AcDbEntity
  8
0
100
AcDbLine
 62
253
  6
CONTINUOUS
 10
17.6585139111
 20
139.074513128
 11
17.6604451032
 21
138.9417679195
  0
LINE
  5
3B0
100
AcDbEntity
  8
0
100
AcDbLine
 62
253
  6
CONTINUOUS
 10
17.6558381007
 20
65.6914951662
 11
17.661170035
 21
65.1411575672
  0
LINE
  5
3B1
100
AcDbEntity
  8
0
100
AcDbLine
 62
253
  6
CONTINUOUS
 10
17.6604451032
 20
138.9417679195
 11
17.6624791112
 21
138.7152935226
  0
LINE
  5
3B2
100
AcDbEntity
  8
0
100
AcDbLine
 62
253
  6
CONTINUOUS
 10
17.661170035
 20
65.1411575672
 11
17.6634326647
 21
64.6364409901
  0
LINE
  5
3B3
100
AcDbEntity
  8
0
100
AcDbLine
 62
253
  6
CONTINUOUS
 10
17.6624791112
 20
138.7152935226
 11
17.663542601
 21
138.3686602603
  0
LINE
  5
3B4
100
AcDbEntity
  8
0
100
AcDbLine
 62
253
  6
CONTINUOUS
 10
17.6634326647
 20
64.6364409901
 11
17.6630926838
 21
64.27302028
  0
LINE
  5
3B5
100
AcDbEntity
  8
0
100
AcDbLine
 62
253
  6
CONTINUOUS
 10
17.663542601
 20
138.3686602603
 11
17.6626421539
 21
137.9756109573
  0
LINE
  5
3B6
100
AcDbEntity
  8
0
100
AcDbLine
 62
253
  6
CONTINUOUS
 10
17.6630926838
 20
64.27302028
 11
17.6615800625
 21
64.0315361845
  0
LINE
  5
3B7
100
AcDbEntity
  8
0
100
AcDbLine
 62
253
  6
CONTINUOUS
 10
17.6626421539
 20
137.9756109573
 11
17.6584907117
 21
137.413109025
  0
LINE
  5
3B8
100
AcDbEntity
  8
0
100
AcDbLine
 62
253
  6
CONTINUOUS
 10
17.6584907117
 20
137.413109025
 11
17.6558379605
 21
137.1737735339
  0
LINE
  5
3B9
100
AcDbEntity
  8
0
100
AcDbLine
 62
253
  6
CONTINUOUS
 10
17.6615800625
 20
64.0315361845
 11
17.6599868263
 21
63.8876144105
  0
LINE
  5
3BA
100
AcDbEntity
  8
0
100
AcDbLine
 62
253
  6
CONTINUOUS
 10
17.6599868263
 20
63.8876144105
 11
17.6579414193
 21
63.7587282754
  0
LWPOLYLINE
  5
3BB
100
AcDbEntity
  8
0
100
AcDbPolyline
 62
253
  6
CONTINUOUS
 90
12
 70
0
 10
17.6579414193
 20
63.7587282754
 10
17.6554855736
 20
63.6465923058
 10
17.6540727556
 20
63.5962497298
 10
17.6525430916
 20
63.5496625296
 10
17.650899194
 20
63.5072364008
 10
17.64912658
 20
63.4691289769
 10
17.6472207289
 20
63.4355320194
 10
17.6451981592
 20
63.4068119408
 10
17.6430713803
 20
63.3833352874
 10
17.6408399998
 20
63.3652996963
 10
17.6384964043
 20
63.3528232682
 10
17.6360354063
 20
63.3460576646
  0
LINE
  5
3BC
100
AcDbEntity
  8
0
100
AcDbLine
 62
253
  6
CONTINUOUS
 10
14.4577985687
 20
77.3574100384
 11
14.4593958454
 21
77.4102588952
  0
LWPOLYLINE
  5
3BD
100
AcDbEntity
  8
0
100
AcDbPolyline
 62
253
  6
CONTINUOUS
 90
19
 70
0
 10
17.6558384281
 20
137.1737735578
 10
17.4047201249
 20
133.1697081051
 10
17.1839441532
 20
129.2036529073
 10
16.993510513
 20
125.2757866972
 10
16.8343094776
 20
121.3991534795
 10
16.7054507736
 20
117.5610412927
 10
16.604263581
 20
113.7229620525
 10
16.5296112959
 20
109.8851964605
 10
16.482630522
 20
106.0477238726
 10
16.4640602512
 20
102.1715771685
 10
16.4733324854
 20
98.2427787431
 10
16.5110152227
 20
94.2755771662
 10
16.5795514479
 20
90.2733469042
 10
16.6793014004
 20
86.231705427
 10
16.8099048409
 20
82.1553579355
 10
16.9727240372
 20
78.0613102568
 10
17.1682130784
 20
73.9553400831
 10
17.3959178753
 20
69.8320089711
 10
17.6558384281
 20
65.6914951495
  0
LWPOLYLINE
  5
3BE
100
AcDbEntity
  8
0
100
AcDbPolyline
 62
253
  6
CONTINUOUS
 90
3
 70
0
 10
14.4593958454
 20
77.4102588952
 10
14.4637869255
 20
77.4629469291
 10
14.4653401654
 20
77.4742898728
  0
LINE
  5
3BF
100
AcDbEntity
  8
0
100
AcDbLine
 62
7
  6
CONTINUOUS
 10
20.34292458
 20
98.2075337058
 11
20.34292458
 21
104.6577350014
  0
LINE
  5
3C0
100
AcDbEntity
  8
0
100
AcDbLine
 62
7
  6
CONTINUOUS
 10
13.673632135
 20
126.3166310316
 11
14.4568003942
 21
125.1981508434
  0
LWPOLYLINE
  5
3C1
100
AcDbEntity
  8
0
100
AcDbPolyline
 62
253
  6
CONTINUOUS
 90
3
 70
0
 10
13.5037171521
 20
126.9272193315
 10
13.5946477505
 20
126.79735081
 10
14.4723362913
 20
125.5416855981
  0
LINE
  5
3C2
100
AcDbEntity
  8
0
100
AcDbLine
 62
253
  6
CONTINUOUS
 10
13.4940366904
 20
126.9412243456
 11
13.5037171521
 21
126.9272193315
  0
LINE
  5
3C3
100
AcDbEntity
  8
0
100
AcDbLine
 62
7
  6
CONTINUOUS
 10
22.34292458
 20
61.4326343536
 11
22.34292458
 21
97.4827576744
  0
LINE
  5
3C4
100
AcDbEntity
  8
0
100
AcDbLine
 62
7
  6
CONTINUOUS
 10
22.34292458
 20
105.3825110329
 11
22.34292458
 21
141.4326343536
  0
LWPOLYLINE
  5
3C5
100
AcDbEntity
  8
0
100
AcDbPolyline
 62
253
  6
CONTINUOUS
 90
25
 70
0
 10
17.6360355653
 20
139.5192110492
 10
17.5644473559
 20
139.5130979155
 10
17.493344007
 20
139.5026853979
 10
17.4229820673
 20
139.4880110591
 10
17.3536153972
 20
139.4691278348
 10
17.2854942949
 20
139.4461038534
 10
17.2188645898
 20
139.419022199
 10
17.1539667013
 20
139.3879805924
 10
17.0910347743
 20
139.353091031
 10
17.0302958739
 20
139.3144794012
 10
16.9719691518
 20
139.2722850189
 10
16.9162650563
 20
139.2266601266
 10
16.8633845732
 20
139.1777693449
 10
16.8135184999
 20
139.1257890778
 10
16.7668467572
 20
139.0709068762
 10
16.7235377409
 20
139.0133207617
 10
16.6837477132
 20
138.9532385117
 10
16.6476202392
 20
138.8908769096
 10
16.6152856695
 20
138.8264609629
 10
16.5868606691
 20
138.7602230915
 10
16.5624477969
 20
138.6924022885
 10
16.5421351355
 20
138.6232432583
 10
16.5259959737
 20
138.5529955336
 10
16.5140885418
 20
138.4819125752
 10
16.5064558016
 20
138.4102508573
  0
LWPOLYLINE
  5
3C6
100
AcDbEntity
  8
0
100
AcDbPolyline
 62
253
  6
CONTINUOUS
 90
25
 70
0
 10
16.4235040886
 20
140.1157360269
 10
16.3516520475
 20
140.1097572154
 10
16.2802863599
 20
140.0994731427
 10
16.2096647872
 20
140.0849209533
 10
16.1400424035
 20
140.0661532074
 10
16.071670674
 20
140.0432376912
 10
16.0047965465
 20
140.0162571718
 10
15.9396615599
 20
139.9853090988
 10
15.8765009715
 20
139.9505052516
 10
15.8155429074
 20
139.9119713363
 10
15.7570075386
 20
139.8698465313
 10
15.7011062855
 20
139.8242829848
 10
15.6480410549
 20
139.7754452651
 10
15.5980035098
 20
139.7235097665
 10
15.5511743781
 20
139.6686640717
 10
15.5077227992
 20
139.6111062749
 10
15.4678057134
 20
139.5510442656
 10
15.4315672949
 20
139.4886949785
 10
15.3991384312
 20
139.4242836094
 10
15.3706362502
 20
139.3580428019
 10
15.3461636973
 20
139.2902118075
 10
15.3258091636
 20
139.2210356211
 10
15.3096461664
 20
139.1507640961
 10
15.297733084
 20
139.0796510423
 10
15.2901129444
 20
139.0079533088
  0
LINE
  5
3C7
100
AcDbEntity
  8
0
100
AcDbLine
 62
253
  6
CONTINUOUS
 10
17.6558384281
 20
137.1737735578
 11
22.34292458
 21
137.4128397903
  0
LINE
  5
3C8
100
AcDbEntity
  8
0
100
AcDbLine
 62
253
  6
CONTINUOUS
 10
17.6360359411
 20
139.5192110699
 11
22.34292458
 21
139.7583435718
  0
LWPOLYLINE
  5
3C9
100
AcDbEntity
  8
0
100
AcDbPolyline
 62
253
  6
CONTINUOUS
 90
17
 70
0
 10
17.115514235
 20
137.2007894497
 10
17.0551462422
 20
137.2027047547
 10
16.9971209109
 20
137.2042657635
 10
16.9416431161
 20
137.2054669648
 10
16.8889087384
 20
137.2063041171
 10
16.8391039716
 20
137.2067742649
 10
16.7924046658
 20
137.206875748
 10
16.7489757064
 20
137.2066082082
 10
16.7089704319
 20
137.20597259
 10
16.6725300923
 20
137.2049711378
 10
16.6397833509
 20
137.2036073874
 10
16.6108458294
 20
137.2018861539
 10
16.5858197
 20
137.1998135147
 10
16.5647933247
 20
137.1973967878
 10
16.5478409432
 20
137.1946445062
 10
16.5350224108
 20
137.1915663876
 10
16.5263829868
 20
137.1881733001
  0
LINE
  5
3CA
100
AcDbEntity
  8
0
100
AcDbLine
 62
253
  6
CONTINUOUS
 10
17.2424180998
 20
137.195924229
 11
17.115514235
 21
137.2007894497
  0
LINE
  5
3CB
100
AcDbEntity
  8
0
100
AcDbLine
 62
253
  6
CONTINUOUS
 10
17.3760418043
 20
137.1897387528
 11
17.2424180998
 21
137.195924229
  0
LINE
  5
3CC
100
AcDbEntity
  8
0
100
AcDbLine
 62
253
  6
CONTINUOUS
 10
17.5144998264
 20
137.1823203026
 11
17.3760418043
 21
137.1897387528
  0
LINE
  5
3CD
100
AcDbEntity
  8
0
100
AcDbLine
 62
253
  6
CONTINUOUS
 10
17.6558384281
 20
137.1737735578
 11
17.5144998264
 21
137.1823203026
  0
LINE
  5
3CE
100
AcDbEntity
  8
0
100
AcDbLine
 62
7
  6
CONTINUOUS
 10
13.6058754382
 20
76.8005604433
 11
14.4422713568
 21
77.9950576072
  0
LINE
  5
3CF
100
AcDbEntity
  8
0
100
AcDbLine
 62
7
  6
CONTINUOUS
 10
14.4567984532
 20
77.6671150919
 11
13.6736321217
 21
76.5486376566
  0
LINE
  5
3D0
100
AcDbEntity
  8
0
100
AcDbLine
 62
253
  6
CONTINUOUS
 10
14.4723362915
 20
77.3235831094
 11
13.5079790482
 21
75.9434195267
  0
LINE
  5
3D1
100
AcDbEntity
  8
0
100
AcDbLine
 62
253
  6
CONTINUOUS
 10
13.5079790482
 20
75.9434195267
 11
13.4940366918
 21
75.9240443334
  0
LWPOLYLINE
  5
3D2
100
AcDbEntity
  8
0
100
AcDbPolyline
 62
7
  6
CONTINUOUS
 90
26
 70
0
 10
15.4636016694
 20
141.0721042689
 10
15.4046991444
 20
141.0675610944
 10
15.3354668027
 20
141.0584608912
 10
15.2668809886
 20
141.0453491782
 10
15.1991739382
 20
141.0282703524
 10
15.132574912
 20
141.0072822436
 10
15.0673094186
 20
140.982455919
 10
15.003598451
 20
140.9538754419
 10
14.9416577387
 20
140.9216375878
 10
14.8816970168
 20
140.885851516
 10
14.8239193163
 20
140.8466384004
 10
14.7685202761
 20
140.8041310191
 10
14.7156874809
 20
140.7584733048
 10
14.6655998258
 20
140.7098198574
 10
14.618426911
 20
140.6583354206
 10
14.5743284668
 20
140.6041943241
 10
14.5334538134
 20
140.5475798928
 10
14.495941355
 20
140.4886838271
 10
14.4619181111
 20
140.4277055526
 10
14.4314992866
 20
140.3648515457
 10
14.4047878815
 20
140.3003346341
 10
14.3818743423
 20
140.2343732761
 10
14.3628362557
 20
140.1671908212
 10
14.3477380858
 20
140.0990147534
 10
14.336630956
 20
140.0300759213
 10
14.329973735
 20
139.9662294554
  0
LINE
  5
3D3
100
AcDbEntity
  8
SUPERFICI
100
AcDbLine
 62
7
  6
CONTINUOUS
 10
22.34292458
 20
141.4326343536
 11
15.463665113
 21
141.0721076419
  0
LWPOLYLINE
  5
3D4
100
AcDbEntity
  8
0
100
AcDbPolyline
 62
253
  6
CONTINUOUS
 90
10
 70
0
 10
17.6360355644
 20
139.5192110507
 10
17.6383671837
 20
139.5129101553
 10
17.640593917
 20
139.5015120095
 10
17.6427156383
 20
139.485226625
 10
17.6447280021
 20
139.4643741123
 10
17.6466290484
 20
139.439112564
 10
17.6484323467
 20
139.409228324
 10
17.650162943
 20
139.3745850104
 10
17.6518138182
 20
139.3353728452
 10
17.6533602279
 20
139.2917106896
  0
LWPOLYLINE
  5
3D5
100
AcDbEntity
  8
0
100
AcDbPolyline
 62
253
  6
CONTINUOUS
 90
31
 70
0
 10
16.5064558016
 20
138.4102508573
 10
16.5113575159
 20
138.4069664277
 10
16.5159878416
 20
138.401237717
 10
16.5203463285
 20
138.3930647187
 10
16.5244189263
 20
138.3824373531
 10
16.5282188801
 20
138.3693656794
 10
16.5317869452
 20
138.3538798967
 10
16.5351442413
 20
138.3359450029
 10
16.5382696107
 20
138.315595964
 10
16.5411404696
 20
138.2929679281
 10
16.5437532812
 20
138.268055673
 10
16.5461113427
 20
138.2408643728
 10
16.5482020753
 20
138.21154477
 10
16.5500241185
 20
138.1800826656
 10
16.5515785857
 20
138.1464922012
 10
16.5528564035
 20
138.1109666315
 10
16.5538558335
 20
138.0735001997
 10
16.5545783466
 20
138.0340986005
 10
16.5550194903
 20
137.9929722698
 10
16.5551770371
 20
137.9500843046
 10
16.5550529735
 20
137.9054715441
 10
16.5546489564
 20
137.8594550453
 10
16.5539715529
 20
137.812258764
 10
16.5530138481
 20
137.7636586908
 10
16.5517573099
 20
137.7133039322
 10
16.5502038349
 20
137.6610458549
 10
16.5483518194
 20
137.6070330124
 10
16.5461775824
 20
137.5513602839
 10
16.5436712342
 20
137.4938548561
 10
16.5408430907
 20
137.4346894592
 10
16.537699502
 20
137.3744773048
  0
LWPOLYLINE
  5
3D6
100
AcDbEntity
  8
0
100
AcDbPolyline
 62
253
  6
CONTINUOUS
 90
10
 70
0
 10
15.2901129444
 20
139.0079533088
 10
15.3708138146
 20
138.9372844649
 10
15.469362564
 20
138.8675860367
 10
15.5838483146
 20
138.7988580562
 10
15.7124073398
 20
138.7309753917
 10
15.8532617622
 20
138.6640632347
 10
16.0047240217
 20
138.5984971118
 10
16.1651434209
 20
138.5344022304
 10
16.3329019404
 20
138.4716534659
 10
16.5064558016
 20
138.4102508573
  0
LINE
  5
3D7
100
AcDbEntity
  8
0
100
AcDbLine
 62
253
  6
CONTINUOUS
 10
14.3299376469
 20
139.9657611283
 11
14.3592697737
 21
139.9375637809
  0
LINE
  5
3D8
100
AcDbEntity
  8
0
100
AcDbLine
 62
253
  6
CONTINUOUS
 10
15.0687504226
 20
139.2268598113
 11
15.2901129444
 21
139.0079533088
  0
LINE
  5
3D9
100
AcDbEntity
  8
0
100
AcDbLine
 62
253
  6
CONTINUOUS
 10
14.4844943839
 20
139.811104
 11
14.5876709923
 21
139.7089519841
  0
LINE
  5
3DA
100
AcDbEntity
  8
0
100
AcDbLine
 62
253
  6
CONTINUOUS
 10
14.5876709923
 20
139.7089519841
 11
15.0687504226
 21
139.2268598113
  0
LINE
  5
3DB
100
AcDbEntity
  8
0
100
AcDbLine
 62
253
  6
CONTINUOUS
 10
14.3592697737
 20
139.9375637809
 11
14.4844943839
 21
139.811104
  0
LWPOLYLINE
  5
3DC
100
AcDbEntity
  8
0
100
AcDbPolyline
 62
253
  6
CONTINUOUS
 90
10
 70
0
 10
16.4235040886
 20
140.1157360269
 10
16.5070250698
 20
140.0455932434
 10
16.6046289203
 20
139.9759533492
 10
16.71631564
 20
139.9070553786
 10
16.843794128
 20
139.8392217161
 10
16.9853554853
 20
139.7725852297
 10
17.1358730149
 20
139.7070888849
 10
17.293637818
 20
139.6428497748
 10
17.4603587934
 20
139.5801595078
 10
17.6360359411
 20
139.5192110699
  0
LWPOLYLINE
  5
3DD
100
AcDbEntity
  8
0
100
AcDbPolyline
 62
253
  6
CONTINUOUS
 90
4
 70
0
 10
15.4922790004
 20
141.0429078341
 10
15.6188545104
 20
140.9180411568
 10
15.7211069597
 20
140.8152291127
 10
16.2041069512
 20
140.3360193437
  0
LINE
  5
3DE
100
AcDbEntity
  8
0
100
AcDbLine
 62
253
  6
CONTINUOUS
 10
16.2041069512
 20
140.3360193437
 11
16.4235040886
 21
140.1157360269
  0
LINE
  5
3DF
100
AcDbEntity
  8
0
100
AcDbLine
 62
253
  6
CONTINUOUS
 10
15.46406901
 20
141.0721288092
 11
15.4922790004
 21
141.0429078341
  0
LWPOLYLINE
  5
3E0
100
AcDbEntity
  8
0
100
AcDbPolyline
 62
253
  6
CONTINUOUS
 90
3
 70
0
 10
15.4835111505
 20
61.8142604487
 10
15.4653915957
 20
61.7949494195
 10
15.464069847
 20
61.7931398542
  0
LWPOLYLINE
  5
3E1
100
AcDbEntity
  8
0
100
AcDbPolyline
 62
253
  6
CONTINUOUS
 90
4
 70
0
 10
14.4505384806
 20
63.0194773689
 10
14.3511608195
 20
62.9189378246
 10
14.3317640991
 20
62.9008277939
 10
14.3299375825
 20
62.8995084128
  0
LINE
  5
3E2
100
AcDbEntity
  8
0
100
AcDbLine
 62
253
  6
CONTINUOUS
 10
14.9076869692
 20
63.4778462083
 11
14.6325339087
 21
63.199972369
  0
LINE
  5
3E3
100
AcDbEntity
  8
0
100
AcDbLine
 62
253
  6
CONTINUOUS
 10
14.6325339087
 20
63.199972369
 11
14.4505384806
 21
63.0194773689
  0
LWPOLYLINE
  5
3E4
100
AcDbEntity
  8
0
100
AcDbPolyline
 62
253
  6
CONTINUOUS
 90
3
 70
0
 10
15.2901129444
 20
63.8573153985
 10
15.0848033762
 20
63.6550555721
 10
14.9076869692
 20
63.4778462083
  0
LWPOLYLINE
  5
3E5
100
AcDbEntity
  8
0
100
AcDbPolyline
 62
253
  6
CONTINUOUS
 90
4
 70
0
 10
16.4235040886
 20
62.7495326804
 10
16.2207817204
 20
62.5452441401
 10
16.0431904875
 20
62.3688836775
 10
15.7648211322
 20
62.0947198214
  0
LINE
  5
3E6
100
AcDbEntity
  8
0
100
AcDbLine
 62
253
  6
CONTINUOUS
 10
15.7648211322
 20
62.0947198214
 11
15.5841369067
 21
61.9133627645
  0
LINE
  5
3E7
100
AcDbEntity
  8
0
100
AcDbLine
 62
253
  6
CONTINUOUS
 10
15.5841369067
 20
61.9133627645
 11
15.4835111505
 21
61.8142604487
  0
LWPOLYLINE
  5
3E8
100
AcDbEntity
  8
0
100
AcDbPolyline
 62
253
  6
CONTINUOUS
 90
10
 70
0
 10
17.6360359411
 20
63.3460576374
 10
17.4134082109
 20
63.2655504678
 10
17.213985271
 20
63.1890304811
 10
17.0377671214
 20
63.1162744107
 10
16.8863928261
 20
63.0469760374
 10
16.758223321
 20
62.9810154256
 10
16.648341414
 20
62.9184578862
 10
16.5551080408
 20
62.8591955415
 10
16.4801622657
 20
62.8029483628
 10
16.4235040886
 20
62.7495326804
  0
LWPOLYLINE
  5
3E9
100
AcDbEntity
  8
0
100
AcDbPolyline
 62
253
  6
CONTINUOUS
 90
10
 70
0
 10
16.5064558016
 20
64.45501785
 10
16.2801990455
 20
64.3747144111
 10
16.0807543802
 20
64.2979697445
 10
15.9063101243
 20
64.2247837299
 10
15.7551023411
 20
64.1552702518
 10
15.6254301635
 20
64.0893151982
 10
15.5156601004
 20
64.0265764722
 10
15.42420437
 20
63.9669399875
 10
15.3495172366
 20
63.9105196567
 10
15.2901129444
 20
63.8573153985
  0
ARC
  5
3EA
100
AcDbEntity
  8
0
100
AcDbCircle
 62
7
  6
CONTINUOUS
 10
163.956363678
 20
-2936.6403424166
 40
3078.0729767702
100
AcDbArc
 50
88.1101240206
 51
91.8898759794
  0
ARC
  5
3EB
100
AcDbEntity
  8
0
100
AcDbCircle
 62
7
  6
CONTINUOUS
 10
163.956363678
 20
3139.5056111239
 40
3078.0729767702
100
AcDbArc
 50
268.1101240206
 51
271.8898759794
  0
ARC
  5
3EC
100
AcDbEntity
  8
0
100
AcDbCircle
 62
7
  6
CONTINUOUS
 10
-331.043636322
 20
101.4326343536
 40
600.0
100
AcDbArc
 50
356.5620808838
 51
359.6228118367
  0
ARC
  5
3ED
100
AcDbEntity
  8
0
100
AcDbCircle
 62
7
  6
CONTINUOUS
 10
-331.043636322
 20
101.4326343536
 40
600.0
100
AcDbArc
 50
0.3771881633
 51
3.4379191162
  0
ARC
  5
3EE
100
AcDbEntity
  8
0
100
AcDbCircle
 62
7
  6
CONTINUOUS
 10
658.956363678
 20
101.4326343536
 40
600.0
100
AcDbArc
 50
176.5620808838
 51
179.6228118367
  0
ARC
  5
3EF
100
AcDbEntity
  8
0
100
AcDbCircle
 62
7
  6
CONTINUOUS
 10
658.956363678
 20
101.4326343536
 40
600.0
100
AcDbArc
 50
180.3771881633
 51
183.4379191162
  0
ARC
  5
3F0
100
AcDbEntity
  8
0
100
AcDbCircle
 62
7
  6
CONTINUOUS
 10
-331.043636322
 20
101.4326343536
 40
599.8951844414
100
AcDbArc
 50
359.6919702799
 51
0.3080297201
  0
ARC
  5
3F1
100
AcDbEntity
  8
0
100
AcDbCircle
 62
7
  6
CONTINUOUS
 10
658.956363678
 20
101.4326343536
 40
599.8951844414
100
AcDbArc
 50
179.6919702799
 51
180.3080297201
  0
ARC
  5
3F2
100
AcDbEntity
  8
0
100
AcDbCircle
 62
7
  6
CONTINUOUS
 10
85.706363678
 20
79.4326343536
 40
0.5
100
AcDbArc
 50
180.0
 51
270.0
  0
ARC
  5
3F3
100
AcDbEntity
  8
0
100
AcDbCircle
 62
7
  6
CONTINUOUS
 10
242.206363678
 20
79.4326343536
 40
0.5
100
AcDbArc
 50
270.0
 51
360.0
  0
ARC
  5
3F4
100
AcDbEntity
  8
0
100
AcDbCircle
 62
7
  6
CONTINUOUS
 10
242.206363678
 20
123.4326343536
 40
0.5
100
AcDbArc
 50
0.0
 51
90.0
  0
ARC
  5
3F5
100
AcDbEntity
  8
0
100
AcDbCircle
 62
7
  6
CONTINUOUS
 10
85.706363678
 20
123.4326343536
 40
0.5
100
AcDbArc
 50
90.0
 51
180.0
  0
ARC
  5
3F6
100
AcDbEntity
  8
SUPERFICI
100
AcDbCircle
 62
7
  6
CONTINUOUS
 10
512.84292458
 20
101.4326343536
 40
500.0
100
AcDbArc
 50
175.5800000131
 51
177.0756537697
  0
ARC
  5
3F7
100
AcDbEntity
  8
SUPERFICI
100
AcDbCircle
 62
7
  6
CONTINUOUS
 10
512.84292458
 20
101.4326343536
 40
500.0
100
AcDbArc
 50
182.9243462303
 51
184.4199999857
  0
ARC
  5
3F8
100
AcDbEntity
  8
0
100
AcDbCircle
 62
7
  6
CONTINUOUS
 10
14.4927378433
 20
75.9749950646
 40
1.0
100
AcDbArc
 50
145.0
 51
182.9243462343
  0
ARC
  5
3F9
100
AcDbEntity
  8
0
100
AcDbCircle
 62
7
  6
CONTINUOUS
 10
14.4927378433
 20
126.8902736426
 40
1.0
100
AcDbArc
 50
177.0756537657
 51
215.0
  0
ARC
  5
3FA
100
AcDbEntity
  8
0
100
AcDbCircle
 62
7
  6
CONTINUOUS
 10
22.04292458
 20
105.3825110329
 40
0.3
100
AcDbArc
 50
275.0
 51
360.0
  0
ARC
  5
3FB
100
AcDbEntity
  8
0
100
AcDbCircle
 62
7
  6
CONTINUOUS
 10
22.04292458
 20
97.4827576744
 40
0.3
100
AcDbArc
 50
0.0
 51
85.0
  0
ARC
  5
3FC
100
AcDbEntity
  8
0
100
AcDbCircle
 62
7
  6
CONTINUOUS
 10
20.64292458
 20
104.6577350014
 40
0.3
100
AcDbArc
 50
95.0
 51
180.0
  0
ARC
  5
3FD
100
AcDbEntity
  8
0
100
AcDbCircle
 62
7
  6
CONTINUOUS
 10
20.64292458
 20
98.2075337058
 40
0.3
100
AcDbArc
 50
180.0
 51
265.0
  0
ELLIPSE
  5
3FE
100
AcDbEntity
  8
0
100
AcDbEllipse
 62
7
  6
CONTINUOUS
 10
-331.043636322
 20
659.9352755053
 30
0.0
 11
-0.0
 21
932.3548968974
 31
0.0
 40
0.8007313262
 41
-2.2083656276
 42
-2.2081960426
  0
ELLIPSE
  5
3FF
100
AcDbEntity
  8
0
100
AcDbEllipse
 62
7
  6
CONTINUOUS
 10
-331.043636322
 20
-457.0700067981
 30
0.0
 11
-0.0
 21
932.3548968974
 31
0.0
 40
0.8007313262
 41
-0.933396611
 42
-0.933227026
  0
ELLIPSE
  5
400
100
AcDbEntity
  8
0
100
AcDbEllipse
 62
7
  6
CONTINUOUS
 10
658.956363678
 20
-457.070006798
 30
0.0
 11
-0.0
 21
932.3548968974
 31
0.0
 40
0.8007313262
 41
0.933227026
 42
0.933396611
  0
ELLIPSE
  5
401
100
AcDbEntity
  8
0
100
AcDbEllipse
 62
7
  6
CONTINUOUS
 10
658.956363678
 20
659.9352755053
 30
0.0
 11
-0.0
 21
932.3548968974
 31
0.0
 40
0.8007313262
 41
-4.0749892646
 42
-4.0748196796
  0
ENDSEC
  0
SECTION
  2
OBJECTS
  0
DICTIONARY
  5
C
100
AcDbDictionary
280
0
281
1
  3
ACAD_GROUP
350
D
  3
ACAD_MLINESTYLE
350
17
  3
ACAD_LAYOUT
350
1A
  3
ACAD_PLOTSETTINGS
350
19
  3
ACAD_PLOTSTYLENAME
350
E
  0
DICTIONARY
  5
D
102
{ACAD_REACTORS
330
C
102
}
100
AcDbDictionary
280
0
281
1
  0
ACDBDICTIONARYWDFLT
  5
E
102
{ACAD_REACTORS
330
C
102
}
100
AcDbDictionary
281
1
  3
Normal
350
F
100
AcDbDictionaryWithDefault
340
F
  0
DICTIONARY
  5
17
102
{ACAD_REACTORS
330
C
102
}
100
AcDbDictionary
280
0
281
1
  3
Standard
350
18
  0
DICTIONARY
  5
19
102
{ACAD_REACTORS
330
C
102
}
100
AcDbDictionary
281
1
  0
DICTIONARY
  5
1A
102
{ACAD_REACTORS
330
C
102
}
100
AcDbDictionary
281
1
  3
Model
350
402
  3
Layout1
350
403
  0
ACDBPLACEHOLDER
  5
F
102
{ACAD_REACTORS
330
E
102
}
  0
MLINESTYLE
  5
18
102
{ACAD_REACTORS
330
17
102
}
100
AcDbMlineStyle
  2
STANDARD
 70
0
  3

 62
256
 51
90.0
 52
90.0
 71
2
 49
0.5
 62
256
  6
BYLAYER
 49
-0.5
 62
256
  6
BYLAYER
  0
LAYOUT
  5
402
102
{ACAD_REACTORS
330
1A
102
}
100
AcDbPlotSettings
  1

  2
none_device
  4
ISO_A4_(297.00_x_210.00_MM)
  6

 40
0.0
 41
0.0
 42
0.0
 43
0.0
 44
297.0
 45
210.0
 46
0.0
 47
0.0
 48
0.0
 49
0.0
140
0.0
141
0.0
142
1.0
143
1.0
 70
1024
 72
1
 73
0
 74
0
  7

 75
0
147
1.0
148
0.0
149
0.0
100
AcDbLayout
  1
Model
 70
0
 71
0
 10
0.0
 20
0.0
 11
297.0
 21
210.0
 12
0.0
 22
0.0
 32
0.0
 14
0.0
 24
0.0
 34
0.0
 15
0.0
 25
0.0
 35
0.0
146
0.0
 13
0.0
 23
0.0
 33
0.0
 16
1.0
 26
0.0
 36
0.0
 17
0.0
 27
1.0
 37
0.0
 76
0
330
213
345
0
346
0
  0
LAYOUT
  5
403
102
{ACAD_REACTORS
330
1A
102
}
100
AcDbPlotSettings
  1

  2
none_device
  4
ISO_A4_(297.00_x_210.00_MM)
  6

 40
0.0
 41
0.0
 42
0.0
 43
0.0
 44
297.0
 45
210.0
 46
0.0
 47
0.0
 48
0.0
 49
0.0
140
0.0
141
0.0
142
1.0
143
1.0
 70
0
 72
1
 73
0
 74
0
  7

 75
0
147
1.0
148
0.0
149
0.0
100
AcDbLayout
  1
Layout1
 70
0
 71
1
 10
0.0
 20
0.0
 11
297.0
 21
210.0
 12
0.0
 22
0.0
 32
0.0
 14
0.0
 24
0.0
 34
0.0
 15
0.0
 25
0.0
 35
0.0
146
0.0
 13
0.0
 23
0.0
 33
0.0
 16
1.0
 26
0.0
 36
0.0
 17
0.0
 27
1.0
 37
0.0
 76
0
330
214
345
0
346
0
  0
ENDSEC
  0
EOF
