0
SECTION
2
HEADER
9
$ACADVER
1
AC1015
9
$DWGCODEPAGE
3
ANSI_1252
9
$EXTMAX
10
297.0000000000
20
210.0000000000
30
0.0000000000
9
$EXTMIN
10
0.0000000000
20
0.0000000000
30
0.0000000000
9
$LIMMIN
10
0.0000000000
20
0.0000000000
9
$LIMMAX
10
297.0000000000
20
210.0000000000
9
$VIEWCTR
10
148.5000000000
20
105.0000000000
9
$VIEWSIZE
40
210.0000000000
9
$CLAYER
8
0
9
$LTSCALE
40
16.3350000000
9
$CELTYPE
6
BYLAYER
9
$DIMSCALE
40
1
9
$DIMASZ
40
3.0000000000
9
$DIMEXO
40
1.8562500000
9
$DIMDLI
40
11.2860000000
9
$DIMEXE
40
5.3460000000
9
$DIMCEN
40
2.6730000000
9
$DIMLFAC
40
1.0000000000
9
$DIMBLK
1
_FILLED
9
$DIMTXT
40
3.0000000000
9
$DIMTOL
70
1
9
$DIMLIM
70
0
9
$DIMTFAC
40
1.0000000000
9
$DIMTP
40
0.0100000000
9
$DIMTM
40
0.0100000000
9
$PDMODE
70
3
9
$PDSIZE
40
3.0000000000
9
$HANDSEED
5
3C1
9
$MEASUREMENT
70
1
9
$INSUNITS
70
4
0
ENDSEC
0
SECTION
2
CLASSES
0
CLASS
1
ACDBDICTIONARYWDFLT
2
AcDbDictionaryWithDefault
3
AutoCAD 2000
90
0
280
0
281
0
0
CLASS
1
ACDBPLACEHOLDER
2
AcDbPlaceHolder
3
AutoCAD 2000
90
0
280
0
281
0
0
CLASS
1
LAYOUT
2
AcDbLayout
3
AutoCAD 2000
90
0
280
0
281
0
0
ENDSEC
0
SECTION
2
TABLES
0
TABLE
2
VPORT
5
8
100
AcDbSymbolTable
70
2
0
VPORT
5
1F4
100
AcDbSymbolTableRecord
100
AcDbViewportTableRecord
2
*ACTIVE
70
0
10
0.0
20
0.0
11
1.0
21
1.0
12
148.5000000000
22
105.0000000000
13
0.0
23
0.0
14
1.0
24
1.0
15
0.0
25
0.0
16
0.0
26
0.0
36
1.0
17
0.0
27
0.0
37
0.0
40
210.0000000000
41
1.4142857143
42
50.0
43
0.0
44
0.0
50
0.0
51
0.0
71
0
72
100
73
1
74
1
75
0
76
0
77
0
78
0
0
ENDTAB
0
TABLE
2
LTYPE
5
5
100
AcDbSymbolTable
70
6
0
LTYPE
5
14
100
AcDbSymbolTableRecord
100
AcDbLinetypeTableRecord
2
BYBLOCK
70
0
3

72
65
73
0
40
0.0
0
LTYPE
5
15
100
AcDbSymbolTableRecord
100
AcDbLinetypeTableRecord
2
BYLAYER
70
0
3

72
65
73
0
40
0.0
0
LTYPE
5
16
100
AcDbSymbolTableRecord
100
AcDbLinetypeTableRecord
2
CONTINUOUS
70
64
3
Solid line
72
65
73
0
40
0
0
LTYPE
5
1F5
100
AcDbSymbolTableRecord
100
AcDbLinetypeTableRecord
2
CENTER
70
64
3
____ _ ____ _ ____ _ ____ _ ____ _ ____ _ ____
72
65
73
4
40
0.6
49
0.375
74
0
49
-0.075
74
0
49
0.075
74
0
49
-0.075
74
0
0
LTYPE
5
1F6
100
AcDbSymbolTableRecord
100
AcDbLinetypeTableRecord
2
HIDDEN
70
64
3
- - - - - - - - - - - - - - - - - - - -
72
65
73
2
40
0.2
49
0.1
74
0
49
-0.1
74
0
0
LTYPE
5
1F7
100
AcDbSymbolTableRecord
100
AcDbLinetypeTableRecord
2
PHANTOM
70
64
3
_____ _ _ _____ _ _ _____ _ _ _____
72
65
73
6
40
0.8
49
0.45
74
0
49
-0.05
74
0
49
0.1
74
0
49
-0.05
74
0
49
0.1
74
0
49
-0.05
74
0
0
LTYPE
5
1F8
100
AcDbSymbolTableRecord
100
AcDbLinetypeTableRecord
2
DOT
70
64
3
. . . . . . . . . . . . . . . . . . . .
72
65
73
2
40
0.2
49
0.1
74
0
49
-0.1
74
0
0
LTYPE
5
1F9
100
AcDbSymbolTableRecord
100
AcDbLinetypeTableRecord
2
DASHED
70
64
3
- - - - - - - - - - - - - - - - - - - -
72
65
73
2
40
0.2
49
0.1
74
0
49
-0.1
74
0
0
ENDTAB
0
TABLE
2
LAYER
5
2
100
AcDbSymbolTable
70
36
0
LAYER
5
10
100
AcDbSymbolTableRecord
100
AcDbLayerTableRecord
2
0
70
0
62
7
6
CONTINUOUS
370
-3
390
F
0
LAYER
5
1FA
100
AcDbSymbolTableRecord
100
AcDbLayerTableRecord
2
DEFAULT_1
70
0
62
7
6
CENTER
370
-3
390
F
0
LAYER
5
1FB
100
AcDbSymbolTableRecord
100
AcDbLayerTableRecord
2
DEFAULT_2
70
0
62
9
6
HIDDEN
370
-3
390
F
0
LAYER
5
1FC
100
AcDbSymbolTableRecord
100
AcDbLayerTableRecord
2
DEFAULT_3
70
0
62
7
6
PHANTOM
370
-3
390
F
0
LAYER
5
1FD
100
AcDbSymbolTableRecord
100
AcDbLayerTableRecord
2
_2D_DELETED_OBJS
70
0
62
7
6
CONTINUOUS
370
-3
390
F
0
LAYER
5
1FE
100
AcDbSymbolTableRecord
100
AcDbLayerTableRecord
2
_BLACK_HOLE
70
0
62
7
6
CONTINUOUS
370
-3
390
F
0
LAYER
5
1FF
100
AcDbSymbolTableRecord
100
AcDbLayerTableRecord
2
ASSI
70
0
62
7
6
CONTINUOUS
370
-3
390
F
0
LAYER
5
200
100
AcDbSymbolTableRecord
100
AcDbLayerTableRecord
2
COORDINATE
70
0
62
7
6
CONTINUOUS
370
-3
390
F
0
LAYER
5
201
100
AcDbSymbolTableRecord
100
AcDbLayerTableRecord
2
COPY_PUBLISH
70
0
62
7
6
CONTINUOUS
370
-3
390
F
0
LAYER
5
202
100
AcDbSymbolTableRecord
100
AcDbLayerTableRecord
2
COSMETIC
70
0
62
7
6
CONTINUOUS
370
-3
390
F
0
LAYER
5
203
100
AcDbSymbolTableRecord
100
AcDbLayerTableRecord
2
CURVE
70
0
62
7
6
CONTINUOUS
370
-3
390
F
0
LAYER
5
204
100
AcDbSymbolTableRecord
100
AcDbLayerTableRecord
2
DRAFT
70
0
62
7
6
CONTINUOUS
370
-3
390
F
0
LAYER
5
205
100
AcDbSymbolTableRecord
100
AcDbLayerTableRecord
2
IMPORT_IGES
70
0
62
7
6
CONTINUOUS
370
-3
390
F
0
LAYER
5
206
100
AcDbSymbolTableRecord
100
AcDbLayerTableRecord
2
PIANI
70
0
62
7
6
CONTINUOUS
370
-3
390
F
0
LAYER
5
207
100
AcDbSymbolTableRecord
100
AcDbLayerTableRecord
2
PUNTI
70
0
62
7
6
CONTINUOUS
370
-3
390
F
0
LAYER
5
208
100
AcDbSymbolTableRecord
100
AcDbLayerTableRecord
2
RACCORDO
70
0
62
7
6
CONTINUOUS
370
-3
390
F
0
LAYER
5
209
100
AcDbSymbolTableRecord
100
AcDbLayerTableRecord
2
SNAPLINE
70
0
62
7
6
CONTINUOUS
370
-3
390
F
0
LAYER
5
20A
100
AcDbSymbolTableRecord
100
AcDbLayerTableRecord
2
SUPERFICI
70
0
62
7
6
CONTINUOUS
370
-3
390
F
0
LAYER
5
20B
100
AcDbSymbolTableRecord
100
AcDbLayerTableRecord
2
TRASH
70
0
62
7
6
CONTINUOUS
370
-3
390
F
0
ENDTAB
0
TABLE
2
STYLE
5
3
100
AcDbSymbolTable
70
1
0
STYLE
5
11
100
AcDbSymbolTableRecord
100
AcDbTextStyleTableRecord
2
STANDARD
70
0
40
0.0
41
0.8000000000
50
0.0
71
0
42
0.2
3
txt
4

0
ENDTAB
0
TABLE
2
VIEW
5
6
100
AcDbSymbolTable
70
0
0
ENDTAB
0
TABLE
2
UCS
5
7
100
AcDbSymbolTable
70
0
0
ENDTAB
0
TABLE
2
APPID
5
9
100
AcDbSymbolTable
70
1
0
APPID
5
20C
100
AcDbSymbolTableRecord
100
AcDbRegAppTableRecord
2
ACAD
70
0
0
ENDTAB
0
TABLE
2
BLOCK_RECORD
5
1
100
AcDbSymbolTable
70
0
0
BLOCK_RECORD
5
1F
100
AcDbSymbolTableRecord
100
AcDbBlockTableRecord
2
*MODEL_SPACE
0
BLOCK_RECORD
5
1B
100
AcDbSymbolTableRecord
100
AcDbBlockTableRecord
2
*PAPER_SPACE
0
BLOCK_RECORD
5
20D
100
AcDbSymbolTableRecord
100
AcDbBlockTableRecord
2
_FILLED
0
BLOCK_RECORD
5
20E
100
AcDbSymbolTableRecord
100
AcDbBlockTableRecord
2
*D0
0
BLOCK_RECORD
5
20F
100
AcDbSymbolTableRecord
100
AcDbBlockTableRecord
2
*D1
0
BLOCK_RECORD
5
210
100
AcDbSymbolTableRecord
100
AcDbBlockTableRecord
2
*D2
0
ENDTAB
0
TABLE
2
DIMSTYLE
5
A
100
AcDbSymbolTable
70
1
100
AcDbDimStyleTable
71
0
0
DIMSTYLE
105
211
100
AcDbSymbolTableRecord
100
AcDbDimStyleTableRecord
2
STANDARD
70
0
3

4

40
1.0
41
3.0000000000
42
0.0625
43
0.38
44
0.18
45
0.0
46
0.0
47
0.0100000000
48
0.0100000000
140
3.0000000000
141
0.09
142
0.0
143
25.4
144
1.0000000000
145
0.0
146
1.0000000000
147
0.09
71
1
72
0
73
0
74
0
75
0
76
0
77
1
78
8
170
0
171
2
172
0
173
0
174
0
175
0
176
0
177
0
178
0
270
2
271
2
272
2
273
2
274
2
275
0
280
0
281
0
282
0
283
1
284
8
285
0
286
0
287
3
288
0
340
11
341
20D
342
20D
343
20D
344
20D
0
DIMSTYLE
105
212
100
AcDbSymbolTableRecord
100
AcDbDimStyleTableRecord
2
DIMSTYLE_1
70
0
3

4

40
1.0
41
3.0000000000
42
0.0625
43
0.38
44
0.18
45
0.0
46
0.0
47
0.0000000000
48
0.0000000000
140
3.0000000000
141
0.09
142
0.0
143
25.4
144
1.0000000000
145
0.0
146
1.0000000000
147
0.09
71
0
72
0
73
0
74
0
75
0
76
0
77
1
78
8
170
0
171
2
172
0
173
0
174
0
175
0
176
0
177
0
178
0
270
2
271
2
272
2
273
2
274
2
275
0
280
0
281
0
282
0
283
1
284
8
285
0
286
0
287
3
288
0
340
11
341
20D
342
20D
343
20D
344
20D
0
DIMSTYLE
105
213
100
AcDbSymbolTableRecord
100
AcDbDimStyleTableRecord
2
DIMSTYLE_2
70
0
3

4

40
1.0
41
3.0000000000
42
0.0625
43
0.38
44
0.18
45
0.0
46
0.0
47
0.0000000000
48
0.0000000000
140
3.0000000000
141
0.09
142
0.0
143
25.4
144
1.0000000000
145
0.0
146
1.0000000000
147
0.09
71
0
72
0
73
0
74
0
75
0
76
0
77
1
78
8
170
0
171
2
172
0
173
0
174
0
175
0
176
0
177
0
178
0
270
2
271
1
272
1
273
2
274
2
275
0
280
0
281
0
282
0
283
1
284
8
285
0
286
0
287
3
288
0
340
11
341
20D
342
20D
343
20D
344
20D
0
ENDTAB
0
ENDSEC
0
SECTION
2
BLOCKS
0
BLOCK
5
20
100
AcDbEntity
8
0
100
AcDbBlockBegin
2
*MODEL_SPACE
70
0
10
0.0
20
0.0
30
0.0
3
*MODEL_SPACE
1

0
ENDBLK
5
21
100
AcDbEntity
8
0
100
AcDbBlockEnd
0
BLOCK
5
1C
100
AcDbEntity
8
0
100
AcDbBlockBegin
2
*PAPER_SPACE
70
0
10
0.0
20
0.0
30
0.0
3
*PAPER_SPACE
1

0
ENDBLK
5
1D
100
AcDbEntity
8
0
100
AcDbBlockEnd
0
BLOCK
5
214
100
AcDbEntity
8
0
100
AcDbBlockBegin
62
9
6
CONTINUOUS
2
*D0
70
65
10
0.0000000000
20
0.0000000000
3
*D0
1

0
TEXT
5
215
100
AcDbEntity
8
0
100
AcDbText
62
9
6
CONTINUOUS
10
67.2500000002
20
-3.1071428571
7
STANDARD
40
3.0000000000
1
132
50
90.0000000000
41
0.6904761905
72
0
100
AcDbText
0
LINE
5
216
100
AcDbEntity
8
0
100
AcDbLine
62
9
6
CONTINUOUS
10
0.5000000002
20
-65.9999999999
11
69.5000000002
21
-65.9999999999
0
LINE
5
217
100
AcDbEntity
8
0
100
AcDbLine
62
9
6
CONTINUOUS
10
0.5000000002
20
65.9999999999
11
69.5000000002
21
65.9999999999
0
LINE
5
218
100
AcDbEntity
8
0
100
AcDbLine
62
9
6
CONTINUOUS
10
68.0000000002
20
-65.9999999999
11
68.0000000002
21
-0.0000000000
0
LINE
5
219
100
AcDbEntity
8
0
100
AcDbLine
62
9
6
CONTINUOUS
10
68.0000000002
20
65.9999999999
11
68.0000000002
21
-0.0000000000
0
INSERT
5
21A
100
AcDbEntity
8
0
100
AcDbBlockReference
62
9
6
CONTINUOUS
2
_FILLED
10
68.0000000002
20
-65.9999999999
41
  3.000000
42
  3.000000
43
  3.000000
50
270.000000
0
INSERT
5
21B
100
AcDbEntity
8
0
100
AcDbBlockReference
62
9
6
CONTINUOUS
2
_FILLED
10
68.0000000002
20
65.9999999999
41
  3.000000
42
  3.000000
43
  3.000000
50
 90.000000
0
ENDBLK
5
21C
100
AcDbEntity
8
0
6
BYBLOCK
62
0
100
AcDbBlockEnd
0
BLOCK
5
21D
100
AcDbEntity
8
0
100
AcDbBlockBegin
62
9
6
CONTINUOUS
2
*D1
70
65
10
0.0000000000
20
0.0000000000
3
*D1
1

0
TEXT
5
21E
100
AcDbEntity
8
0
100
AcDbText
62
9
6
CONTINUOUS
10
-3.2142857141
20
74.5727345940
7
STANDARD
40
3.0000000000
1
120
41
0.7142857143
72
0
100
AcDbText
0
LINE
5
21F
100
AcDbEntity
8
0
100
AcDbLine
62
9
6
CONTINUOUS
10
60.0000000002
20
19.5959398794
11
60.0000000002
21
75.3227345940
0
LINE
5
220
100
AcDbEntity
8
0
100
AcDbLine
62
9
6
CONTINUOUS
10
-59.9999999998
20
19.5959398794
11
-59.9999999998
21
75.3227345940
0
LINE
5
221
100
AcDbEntity
8
0
100
AcDbLine
62
9
6
CONTINUOUS
10
60.0000000002
20
73.8227345940
11
0.0000000002
21
73.8227345940
0
LINE
5
222
100
AcDbEntity
8
0
100
AcDbLine
62
9
6
CONTINUOUS
10
-59.9999999998
20
73.8227345940
11
0.0000000002
21
73.8227345940
0
INSERT
5
223
100
AcDbEntity
8
0
100
AcDbBlockReference
62
9
6
CONTINUOUS
2
_FILLED
10
60.0000000002
20
73.8227345940
41
  3.000000
42
  3.000000
43
  3.000000
0
INSERT
5
224
100
AcDbEntity
8
0
100
AcDbBlockReference
62
9
6
CONTINUOUS
2
_FILLED
10
-59.9999999998
20
73.8227345940
41
  3.000000
42
  3.000000
43
  3.000000
50
180.000000
0
ENDBLK
5
225
100
AcDbEntity
8
0
6
BYBLOCK
62
0
100
AcDbBlockEnd
0
BLOCK
5
226
100
AcDbEntity
8
0
100
AcDbBlockBegin
62
9
6
CONTINUOUS
2
*D2
70
65
10
0.0000000000
20
0.0000000000
3
*D2
1

0
TEXT
5
227
100
AcDbEntity
8
0
100
AcDbText
62
9
6
CONTINUOUS
10
-81.3518913856
20
74.5727345940
7
STANDARD
40
3.0000000000
1
9,5
41
0.6904761905
72
0
100
AcDbText
0
LINE
5
228
100
AcDbEntity
8
0
100
AcDbLine
62
9
6
CONTINUOUS
10
-73.4877037993
20
62.5698515803
11
-73.4877037993
21
75.3227345940
0
LINE
5
229
100
AcDbEntity
8
0
100
AcDbLine
62
9
6
CONTINUOUS
10
-83.0017932576
20
24.7500031676
11
-83.0017932576
21
75.3227345940
0
LINE
5
22A
100
AcDbEntity
8
0
100
AcDbLine
62
9
6
CONTINUOUS
10
-73.4877037993
20
73.8227345940
11
-69.4877037993
21
73.8227345940
0
LINE
5
22B
100
AcDbEntity
8
0
100
AcDbLine
62
9
6
CONTINUOUS
10
-69.4877037993
20
73.8227345940
11
-78.2447485284
21
73.8227345940
0
LINE
5
22C
100
AcDbEntity
8
0
100
AcDbLine
62
9
6
CONTINUOUS
10
-83.0017932576
20
73.8227345940
11
-87.0017932576
21
73.8227345940
0
LINE
5
22D
100
AcDbEntity
8
0
100
AcDbLine
62
9
6
CONTINUOUS
10
-87.0017932576
20
73.8227345940
11
-78.2447485284
21
73.8227345940
0
INSERT
5
22E
100
AcDbEntity
8
0
100
AcDbBlockReference
62
9
6
CONTINUOUS
2
_FILLED
10
-73.4877037993
20
73.8227345940
41
  3.000000
42
  3.000000
43
  3.000000
50
180.000000
0
INSERT
5
22F
100
AcDbEntity
8
0
100
AcDbBlockReference
62
9
6
CONTINUOUS
2
_FILLED
10
-83.0017932576
20
73.8227345940
41
  3.000000
42
  3.000000
43
  3.000000
0
ENDBLK
5
230
100
AcDbEntity
8
0
6
BYBLOCK
62
0
100
AcDbBlockEnd
0
BLOCK
5
231
100
AcDbEntity
8
0
100
AcDbBlockBegin
2
_FILLED
70
64
10
0.0000000000
20
0.0000000000
3
_FILLED
1

0
SOLID
5
232
100
AcDbEntity
8
0
6
BYBLOCK
62
0
100
AcDbTrace
10
0.0000000000
20
0.0000000000
11
-1.0000000000
21
0.3166666667
12
-1.0000000000
22
-0.3166666667
13
-1.0000000000
23
-0.3166666667
0
ENDBLK
5
233
100
AcDbEntity
8
0
6
BYBLOCK
62
0
100
AcDbBlockEnd
0
ENDSEC
0
SECTION
2
ENTITIES
0
DIMENSION
5
234
100
AcDbEntity
8
0
100
AcDbDimension
62
9
6
CONTINUOUS
2
*D0
10
68.0000000002
20
65.9999999999
11
65.7500000002
21
-0.0000000000
70
160
3
DIMSTYLE_1
100
AcDbAlignedDimension
13
0.5000000002
23
-65.9999999999
14
0.5000000002
24
65.9999999999
50
90.000000
100
AcDbRotatedDimension
0
DIMENSION
5
235
100
AcDbEntity
8
0
100
AcDbDimension
62
9
6
CONTINUOUS
2
*D1
10
-59.9999999998
20
73.8227345940
11
0.0000000002
21
76.0727345940
70
160
3
DIMSTYLE_1
100
AcDbAlignedDimension
13
60.0000000002
23
19.5959398794
14
-59.9999999998
24
19.5959398794
50
180.000000
100
AcDbRotatedDimension
0
DIMENSION
5
236
100
AcDbEntity
8
0
100
AcDbDimension
62
9
6
CONTINUOUS
2
*D2
10
-83.0017932576
20
73.8227345940
11
-78.2447485284
21
76.0727345940
70
160
3
DIMSTYLE_2
100
AcDbAlignedDimension
13
-73.4877037993
23
62.5698515803
14
-83.0017932576
24
24.7500031676
50
180.000000
100
AcDbRotatedDimension
0
LINE
5
237
100
AcDbEntity
8
0
100
AcDbLine
62
9
6
CONTINUOUS
10
-59.9999999998
20
19.0959398794
11
-59.9999999998
21
-19.0959398794
0
LINE
5
238
100
AcDbEntity
8
0
100
AcDbLine
62
9
6
CONTINUOUS
10
-59.8951844413
20
24.2500000002
11
-59.8951844413
21
19.7290827935
0
LINE
5
239
100
AcDbEntity
8
0
100
AcDbLine
62
9
6
CONTINUOUS
10
-59.8951844413
20
-24.2500000002
11
-59.8951844413
21
-19.7290827935
0
LINE
5
23A
100
AcDbEntity
8
0
100
AcDbLine
62
9
6
CONTINUOUS
10
-59.6895012480
20
24.2498513187
11
-59.6895012480
21
-24.2498421837
0
LINE
5
23B
100
AcDbEntity
8
0
100
AcDbLine
62
9
6
CONTINUOUS
10
-58.5915567768
20
24.2499999883
11
-58.5915567768
21
-24.2500000584
0
LINE
5
23C
100
AcDbEntity
8
0
100
AcDbLine
62
9
6
CONTINUOUS
10
-59.9880399647
20
19.3449885540
11
-59.9071444763
21
19.4800341190
0
LINE
5
23D
100
AcDbEntity
8
0
100
AcDbLine
62
9
6
CONTINUOUS
10
-59.9071444763
20
-19.4800341190
11
-59.9880399647
21
-19.3449885540
0
LINE
5
23E
100
AcDbEntity
8
0
100
AcDbLine
62
9
6
CONTINUOUS
10
-3.3283479998
20
-48.8383990000
11
-2.9813479998
21
-48.8383990000
0
LINE
5
23F
100
AcDbEntity
8
0
100
AcDbLine
62
9
6
CONTINUOUS
10
-2.1203479998
20
-48.8383990000
11
-1.7583479998
21
-48.8383990000
0
LINE
5
240
100
AcDbEntity
8
0
100
AcDbLine
62
9
6
CONTINUOUS
10
-1.4413479998
20
-48.8383990000
11
-1.0783479998
21
-48.8383990000
0
LINE
5
241
100
AcDbEntity
8
0
100
AcDbLine
62
9
6
CONTINUOUS
10
-0.7313479998
20
-48.8383990000
11
-0.3683479998
21
-48.8383990000
0
LINE
5
242
100
AcDbEntity
8
0
100
AcDbLine
62
9
6
CONTINUOUS
10
-0.0213479998
20
-48.8383990000
11
0.3406520002
21
-48.8383990000
0
LINE
5
243
100
AcDbEntity
8
0
100
AcDbLine
62
9
6
CONTINUOUS
10
0.6276520002
20
-48.8383990000
11
0.9906520002
21
-48.8383990000
0
LINE
5
244
100
AcDbEntity
8
0
100
AcDbLine
62
9
6
CONTINUOUS
10
1.7906520002
20
-48.8383990000
11
2.1526520002
21
-48.8383990000
0
LINE
5
245
100
AcDbEntity
8
0
100
AcDbLine
62
9
6
CONTINUOUS
10
2.4396520002
20
-48.8383990000
11
2.8026520002
21
-48.8383990000
0
LINE
5
246
100
AcDbEntity
8
0
100
AcDbLine
62
9
6
CONTINUOUS
10
3.4816520002
20
-48.8383990000
11
3.8896520002
21
-48.8383990000
0
LINE
5
247
100
AcDbEntity
8
0
100
AcDbLine
62
9
6
CONTINUOUS
10
1.0900767789
20
-48.5401246637
11
1.6760767789
21
-48.5401246637
0
LINE
5
248
100
AcDbEntity
8
0
100
AcDbLine
62
9
6
CONTINUOUS
10
1.5646520002
20
-48.2223990000
11
1.2166520002
21
-48.2223990000
0
LINE
5
249
100
AcDbEntity
8
0
100
AcDbLine
62
9
6
CONTINUOUS
10
2.8026520002
20
-48.2223990000
11
3.1196520002
21
-48.2223990000
0
LINE
5
24A
100
AcDbEntity
8
0
100
AcDbLine
62
9
6
CONTINUOUS
10
3.2647972043
20
-47.9213990000
11
2.7876520002
21
-47.9213990000
0
LINE
5
24B
100
AcDbEntity
8
0
100
AcDbLine
62
9
6
CONTINUOUS
10
2.7876520002
20
-47.5103990000
11
3.2647973423
21
-47.5103990000
0
LINE
5
24C
100
AcDbEntity
8
0
100
AcDbLine
62
9
6
CONTINUOUS
10
3.2856520002
20
-47.2093990000
11
2.4396520002
21
-47.2093990000
0
LINE
5
24D
100
AcDbEntity
8
0
100
AcDbLine
62
9
6
CONTINUOUS
10
1.5646520002
20
-47.2093990000
11
1.2016520002
21
-47.2093990000
0
LINE
5
24E
100
AcDbEntity
8
0
100
AcDbLine
62
9
6
CONTINUOUS
10
0.3406520002
20
-47.2093990000
11
-0.2023479998
21
-47.2093990000
0
LINE
5
24F
100
AcDbEntity
8
0
100
AcDbLine
62
9
6
CONTINUOUS
10
-0.8823479998
20
-47.2093990000
11
-1.4413479998
21
-47.2093990000
0
LINE
5
250
100
AcDbEntity
8
0
100
AcDbLine
62
9
6
CONTINUOUS
10
-1.7583479998
20
-47.2093990000
11
-2.1203479998
21
-47.2093990000
0
LINE
5
251
100
AcDbEntity
8
0
100
AcDbLine
62
9
6
CONTINUOUS
10
-2.3923479998
20
-47.2093990000
11
-2.7543479998
21
-47.2093990000
0
LINE
5
252
100
AcDbEntity
8
0
100
AcDbLine
62
9
6
CONTINUOUS
10
-3.5553479998
20
-47.2093990000
11
-3.9173479998
21
-47.2093990000
0
LINE
5
253
100
AcDbEntity
8
0
100
AcDbLine
62
9
6
CONTINUOUS
10
-33.4742495090
20
-46.9761444717
11
33.4742495093
21
-46.9761444717
0
LINE
5
254
100
AcDbEntity
8
0
100
AcDbLine
62
9
6
CONTINUOUS
10
-33.4630545336
20
-46.7630088423
11
33.4630545339
21
-46.7630088423
0
LINE
5
255
100
AcDbEntity
8
0
100
AcDbLine
62
9
6
CONTINUOUS
10
-33.7788703861
20
47.1858833917
11
-33.7742038175
21
46.8040715408
0
LINE
5
256
100
AcDbEntity
8
0
100
AcDbLine
62
9
6
CONTINUOUS
10
-33.4789160702
20
47.3579557212
11
-33.4742495090
21
46.9761444717
0
LINE
5
257
100
AcDbEntity
8
0
100
AcDbLine
62
9
6
CONTINUOUS
10
-34.3020497154
20
-48.6700808613
11
-34.3123879907
21
-24.2500031129
0
LINE
5
258
100
AcDbEntity
8
0
100
AcDbLine
62
9
6
CONTINUOUS
10
-34.3125348054
20
-24.2500076612
11
-34.3125188232
21
-0.9221659023
0
LINE
5
259
100
AcDbEntity
8
0
100
AcDbLine
62
9
6
CONTINUOUS
10
-34.3125188231
20
0.9221659060
11
-34.3125558727
21
24.2499953853
0
LINE
5
25A
100
AcDbEntity
8
0
100
AcDbLine
62
9
6
CONTINUOUS
10
-33.7880599010
20
24.2499907786
11
-33.7880860365
21
1.9483441131
0
LINE
5
25B
100
AcDbEntity
8
0
100
AcDbLine
62
9
6
CONTINUOUS
10
-33.7880860366
20
-1.9483441136
11
-33.7880599010
21
-24.2499940072
0
LINE
5
25C
100
AcDbEntity
8
0
100
AcDbLine
62
9
6
CONTINUOUS
10
-33.7499999998
20
-46.4500456915
11
-33.7499999998
21
-2.0499543085
0
LINE
5
25D
100
AcDbEntity
8
0
100
AcDbLine
62
9
6
CONTINUOUS
10
-33.7499999998
20
2.0499543085
11
-33.7499999998
21
46.4500456915
0
LINE
5
25E
100
AcDbEntity
8
0
100
AcDbLine
62
9
6
CONTINUOUS
10
-34.3123879907
20
24.2499998827
11
-34.3020497198
21
48.6700808254
0
LINE
5
25F
100
AcDbEntity
8
0
100
AcDbLine
62
9
6
CONTINUOUS
10
-33.7788704270
20
-47.1858867353
11
-33.7742038175
21
-46.8040715408
0
LINE
5
260
100
AcDbEntity
8
0
100
AcDbLine
62
9
6
CONTINUOUS
10
-33.4789160877
20
-47.3579571482
11
-33.4742495090
21
-46.9761444717
0
LINE
5
261
100
AcDbEntity
8
0
100
AcDbLine
62
9
6
CONTINUOUS
10
-58.5915567768
20
-24.2500000584
11
-34.3125558728
21
-24.2500031676
0
LINE
5
262
100
AcDbEntity
8
0
100
AcDbLine
62
9
6
CONTINUOUS
10
34.3125558731
20
-24.2499999373
11
58.5915567770
21
-24.2499999878
0
LINE
5
263
100
AcDbEntity
8
0
100
AcDbLine
62
9
6
CONTINUOUS
10
33.7880621432
20
-24.2499907786
11
34.3125558730
21
-24.2499953853
0
LINE
5
264
100
AcDbEntity
8
0
100
AcDbLine
62
9
6
CONTINUOUS
10
-58.5915567767
20
-24.2499890837
11
-59.8951844413
21
-24.2500000002
0
LINE
5
265
100
AcDbEntity
8
0
100
AcDbLine
62
9
6
CONTINUOUS
10
-33.7880621429
20
-24.2499940072
11
-34.3125348054
21
-24.2500076612
0
LINE
5
266
100
AcDbEntity
8
0
100
AcDbLine
62
9
6
CONTINUOUS
10
59.8951844416
20
-24.2500000002
11
58.5915567770
21
-24.2499890132
0
LINE
5
267
100
AcDbEntity
8
0
100
AcDbLine
62
9
6
CONTINUOUS
10
3.8896520002
20
-48.8383990000
11
3.5037521457
21
-48.1932687089
0
LINE
5
268
100
AcDbEntity
8
0
100
AcDbLine
62
9
6
CONTINUOUS
10
3.1196520002
20
-48.2223990000
11
3.4816520002
21
-48.8383990000
0
LINE
5
269
100
AcDbEntity
8
0
100
AcDbLine
62
9
6
CONTINUOUS
10
-3.3283479998
20
-48.8383990000
11
-3.9173479998
21
-47.2093990000
0
LINE
5
26A
100
AcDbEntity
8
0
100
AcDbLine
62
9
6
CONTINUOUS
10
-3.1623479998
20
-48.3453990000
11
-3.5553479998
21
-47.2093990000
0
LINE
5
26B
100
AcDbEntity
8
0
100
AcDbLine
62
9
6
CONTINUOUS
10
1.6760767789
20
-48.5401246637
11
1.7906520002
21
-48.8383990000
0
LINE
5
26C
100
AcDbEntity
8
0
100
AcDbLine
62
9
6
CONTINUOUS
10
2.1526520002
20
-48.8383990000
11
1.5646520002
21
-47.2093990000
0
LINE
5
26D
100
AcDbEntity
8
0
100
AcDbLine
62
9
6
CONTINUOUS
10
1.3826520002
20
-47.7163990000
11
1.5646520002
21
-48.2223990000
0
LINE
5
26E
100
AcDbEntity
8
0
100
AcDbLine
62
9
6
CONTINUOUS
10
-1.0783479998
20
-47.7703990000
11
-0.7313479998
21
-48.8383990000
0
LINE
5
26F
100
AcDbEntity
8
0
100
AcDbLine
62
9
6
CONTINUOUS
10
-0.5503479998
20
-48.2773990000
11
-0.8823479998
21
-47.2093990000
0
LINE
5
270
100
AcDbEntity
8
0
100
AcDbLine
62
9
6
CONTINUOUS
10
33.7500000002
20
46.4500456915
11
33.7630088425
21
46.4630545338
0
LINE
5
271
100
AcDbEntity
8
0
100
AcDbLine
62
9
6
CONTINUOUS
10
33.7630088425
20
-46.4630545338
11
33.7500000002
21
-46.4500456915
0
LINE
5
272
100
AcDbEntity
8
0
100
AcDbLine
62
9
6
CONTINUOUS
10
-2.1203479998
20
-48.8383990000
11
-2.1203479998
21
-47.2093990000
0
LINE
5
273
100
AcDbEntity
8
0
100
AcDbLine
62
9
6
CONTINUOUS
10
-1.7583479998
20
-48.8383990000
11
-1.7583479998
21
-47.2093990000
0
LINE
5
274
100
AcDbEntity
8
0
100
AcDbLine
62
9
6
CONTINUOUS
10
-1.4413479998
20
-48.8383990000
11
-1.4413479998
21
-47.2093990000
0
LINE
5
275
100
AcDbEntity
8
0
100
AcDbLine
62
9
6
CONTINUOUS
10
-1.0783479998
20
-48.8383990000
11
-1.0783479998
21
-47.7703990000
0
LINE
5
276
100
AcDbEntity
8
0
100
AcDbLine
62
9
6
CONTINUOUS
10
-0.0213479998
20
-48.8383990000
11
-0.0213479998
21
-47.7703990000
0
LINE
5
277
100
AcDbEntity
8
0
100
AcDbLine
62
9
6
CONTINUOUS
10
0.3406520002
20
-48.8383990000
11
0.3406520002
21
-47.2093990000
0
LINE
5
278
100
AcDbEntity
8
0
100
AcDbLine
62
9
6
CONTINUOUS
10
-33.4500456913
20
-1.7500000000
11
33.4500456916
21
-1.7500000000
0
LINE
5
279
100
AcDbEntity
8
0
100
AcDbLine
62
9
6
CONTINUOUS
10
-33.4826990715
20
-1.7173466197
11
33.4826990719
21
-1.7173466197
0
LINE
5
27A
100
AcDbEntity
8
0
100
AcDbLine
62
9
6
CONTINUOUS
10
-33.4929494792
20
-1.6504354741
11
33.4929494795
21
-1.6504354741
0
LINE
5
27B
100
AcDbEntity
8
0
100
AcDbLine
62
9
6
CONTINUOUS
10
2.4396520002
20
-48.8383990000
11
2.4396520002
21
-47.2093990000
0
LINE
5
27C
100
AcDbEntity
8
0
100
AcDbLine
62
9
6
CONTINUOUS
10
2.7876520002
20
-47.9213990000
11
2.7876520002
21
-47.5103990000
0
LINE
5
27D
100
AcDbEntity
8
0
100
AcDbLine
62
9
6
CONTINUOUS
10
2.8026520002
20
-48.2223990000
11
2.8026520002
21
-48.8383990000
0
LINE
5
27E
100
AcDbEntity
8
0
100
AcDbLine
62
9
6
CONTINUOUS
10
-33.4929494792
20
1.6504354741
11
33.4929494795
21
1.6504354741
0
LINE
5
27F
100
AcDbEntity
8
0
100
AcDbLine
62
9
6
CONTINUOUS
10
-33.4826990715
20
1.7173466197
11
33.4826990719
21
1.7173466197
0
LINE
5
280
100
AcDbEntity
8
0
100
AcDbLine
62
9
6
CONTINUOUS
10
-33.4500456913
20
1.7500000000
11
33.4500456916
21
1.7500000000
0
LINE
5
281
100
AcDbEntity
8
0
100
AcDbLine
62
9
6
CONTINUOUS
10
-33.7630088421
20
-46.4630545338
11
-33.7499999998
21
-46.4500456915
0
LINE
5
282
100
AcDbEntity
8
0
100
AcDbLine
62
9
6
CONTINUOUS
10
-33.7630088421
20
46.4630545338
11
-33.7499999998
21
46.4500456915
0
LINE
5
283
100
AcDbEntity
8
0
100
AcDbLine
62
9
6
CONTINUOUS
10
-0.0213479998
20
-47.7703990000
11
-0.3683479998
21
-48.8383990000
0
LINE
5
284
100
AcDbEntity
8
0
100
AcDbLine
62
9
6
CONTINUOUS
10
-0.5503479998
20
-48.2773990000
11
-0.2023479998
21
-47.2093990000
0
LINE
5
285
100
AcDbEntity
8
0
100
AcDbLine
62
9
6
CONTINUOUS
10
1.2166520002
20
-48.2223990000
11
1.3826520002
21
-47.7163990000
0
LINE
5
286
100
AcDbEntity
8
0
100
AcDbLine
62
9
6
CONTINUOUS
10
1.0900767789
20
-48.5401246637
11
0.9906520002
21
-48.8383990000
0
LINE
5
287
100
AcDbEntity
8
0
100
AcDbLine
62
9
6
CONTINUOUS
10
0.6276520002
20
-48.8383990000
11
1.2016520002
21
-47.2093990000
0
LINE
5
288
100
AcDbEntity
8
0
100
AcDbLine
62
9
6
CONTINUOUS
10
-3.1623479998
20
-48.3453990000
11
-2.7543479998
21
-47.2093990000
0
LINE
5
289
100
AcDbEntity
8
0
100
AcDbLine
62
9
6
CONTINUOUS
10
-2.9813479998
20
-48.8383990000
11
-2.3923479998
21
-47.2093990000
0
LINE
5
28A
100
AcDbEntity
8
0
100
AcDbLine
62
9
6
CONTINUOUS
10
33.7880621432
20
24.2499940072
11
34.3125348058
21
24.2500076612
0
LINE
5
28B
100
AcDbEntity
8
0
100
AcDbLine
62
9
6
CONTINUOUS
10
58.5915567770
20
24.2499890838
11
59.8951844416
21
24.2500000002
0
LINE
5
28C
100
AcDbEntity
8
0
100
AcDbLine
62
9
6
CONTINUOUS
10
-33.7880621429
20
24.2499907786
11
-34.3125558727
21
24.2499953853
0
LINE
5
28D
100
AcDbEntity
8
0
100
AcDbLine
62
9
6
CONTINUOUS
10
-34.3125558728
20
24.2499999374
11
-58.5915567768
21
24.2499999883
0
LINE
5
28E
100
AcDbEntity
8
0
100
AcDbLine
62
9
6
CONTINUOUS
10
58.5915567770
20
24.2500000584
11
34.3125558731
21
24.2500031676
0
LINE
5
28F
100
AcDbEntity
8
0
100
AcDbLine
62
9
6
CONTINUOUS
10
-59.8951844413
20
24.2500000002
11
-58.5915567767
21
24.2499890137
0
LINE
5
290
100
AcDbEntity
8
0
100
AcDbLine
62
9
6
CONTINUOUS
10
33.4789160706
20
-47.3579557226
11
33.4742495093
21
-46.9761444717
0
LINE
5
291
100
AcDbEntity
8
0
100
AcDbLine
62
9
6
CONTINUOUS
10
33.7788703865
20
-47.1858833941
11
33.7742038179
21
-46.8040715408
0
LINE
5
292
100
AcDbEntity
8
0
100
AcDbLine
62
9
6
CONTINUOUS
10
34.3020497102
20
48.6700834951
11
34.3123879910
21
24.2500031129
0
LINE
5
293
100
AcDbEntity
8
0
100
AcDbLine
62
9
6
CONTINUOUS
10
33.7500000002
20
-46.4500456915
11
33.7500000002
21
-2.0499543085
0
LINE
5
294
100
AcDbEntity
8
0
100
AcDbLine
62
9
6
CONTINUOUS
10
33.7500000002
20
2.0499543085
11
33.7500000002
21
46.4500456915
0
LINE
5
295
100
AcDbEntity
8
0
100
AcDbLine
62
9
6
CONTINUOUS
10
33.7880599014
20
-24.2499907786
11
33.7880860369
21
-1.9483441216
0
LINE
5
296
100
AcDbEntity
8
0
100
AcDbLine
62
9
6
CONTINUOUS
10
33.7880860369
20
1.9483441141
11
33.7880599014
21
24.2499940072
0
LINE
5
297
100
AcDbEntity
8
0
100
AcDbLine
62
9
6
CONTINUOUS
10
34.3125348058
20
24.2500076612
11
34.3125188235
21
0.9221647428
0
LINE
5
298
100
AcDbEntity
8
0
100
AcDbLine
62
9
6
CONTINUOUS
10
34.3125188235
20
-0.9221647461
11
34.3125558730
21
-24.2499953853
0
LINE
5
299
100
AcDbEntity
8
0
100
AcDbLine
62
9
6
CONTINUOUS
10
34.3123879910
20
-24.2499998827
11
34.3020497172
21
-48.6700834625
0
LINE
5
29A
100
AcDbEntity
8
0
100
AcDbLine
62
9
6
CONTINUOUS
10
33.4742495093
20
46.9761444717
11
33.4789160876
21
47.3579571174
0
LINE
5
29B
100
AcDbEntity
8
0
100
AcDbLine
62
9
6
CONTINUOUS
10
33.7742038179
20
46.8040715408
11
33.7788703859
21
47.1858833437
0
LINE
5
29C
100
AcDbEntity
8
0
100
AcDbLine
62
9
6
CONTINUOUS
10
-33.4630545336
20
46.7630088423
11
33.4630545339
21
46.7630088423
0
LINE
5
29D
100
AcDbEntity
8
0
100
AcDbLine
62
9
6
CONTINUOUS
10
-33.4742495090
20
46.9761444717
11
33.4742495093
21
46.9761444717
0
LINE
5
29E
100
AcDbEntity
8
0
100
AcDbLine
62
9
6
CONTINUOUS
10
58.5915567770
20
-24.2499999878
11
58.5915567770
21
24.2500000584
0
LINE
5
29F
100
AcDbEntity
8
0
100
AcDbLine
62
9
6
CONTINUOUS
10
59.6895012484
20
-24.2498419090
11
59.6895012484
21
24.2498471080
0
LINE
5
2A0
100
AcDbEntity
8
0
100
AcDbLine
62
9
6
CONTINUOUS
10
59.8951844416
20
24.2500000002
11
59.8951844416
21
19.7290827935
0
LINE
5
2A1
100
AcDbEntity
8
0
100
AcDbLine
62
9
6
CONTINUOUS
10
59.8951844416
20
-24.2500000002
11
59.8951844416
21
-19.7290827935
0
LINE
5
2A2
100
AcDbEntity
8
0
100
AcDbLine
62
9
6
CONTINUOUS
10
60.0000000002
20
-19.0959398794
11
60.0000000002
21
19.0959398794
0
LINE
5
2A3
100
AcDbEntity
8
0
100
AcDbLine
62
9
6
CONTINUOUS
10
59.9071444767
20
-19.4800341190
11
59.9880399651
21
-19.3449885540
0
LINE
5
2A4
100
AcDbEntity
8
0
100
AcDbLine
62
9
6
CONTINUOUS
10
59.9880399651
20
19.3449885540
11
59.9071444767
21
19.4800341190
0
LINE
5
2A5
100
AcDbEntity
8
0
100
AcDbLine
62
9
6
CONTINUOUS
10
-73.4877037993
20
-65.9999999999
11
-80.1866553217
21
-65.6489228271
0
LINE
5
2A6
100
AcDbEntity
8
0
100
AcDbLine
62
9
6
CONTINUOUS
10
-82.0293524480
20
-48.8383990000
11
-81.9377943538
21
-48.8383990000
0
LINE
5
2A7
100
AcDbEntity
8
0
100
AcDbLine
62
9
6
CONTINUOUS
10
-73.7159148636
20
-26.6550114460
11
-75.2594927350
21
-26.5199658810
0
LINE
5
2A8
100
AcDbEntity
8
0
100
AcDbLine
62
9
6
CONTINUOUS
10
-82.1603221403
20
-24.2499999373
11
-80.5453614126
21
-24.2499999878
0
LINE
5
2A9
100
AcDbEntity
8
0
100
AcDbLine
62
9
6
CONTINUOUS
10
-75.4877037993
20
-24.2500000002
11
-80.5453614122
21
-24.2499890132
0
LINE
5
2AA
100
AcDbEntity
8
0
100
AcDbLine
62
9
6
CONTINUOUS
10
-82.1609250081
20
-24.2499952375
11
-82.1603221389
21
-24.2499953853
0
LINE
5
2AB
100
AcDbEntity
8
0
100
AcDbLine
62
9
6
CONTINUOUS
10
-75.2594927350
20
-19.4800341190
11
-73.7159148636
21
-19.3449885540
0
LINE
5
2AC
100
AcDbEntity
8
0
100
AcDbLine
62
9
6
CONTINUOUS
10
-82.1603239586
20
0.9221647428
11
-82.1609241099
21
0.9664766748
0
LINE
5
2AD
100
AcDbEntity
8
0
100
AcDbLine
62
9
6
CONTINUOUS
10
-83.0017932576
20
-0.4907001012
11
-83.0017932576
21
0.4906850167
0
LINE
5
2AE
100
AcDbEntity
8
0
100
AcDbLine
62
9
6
CONTINUOUS
10
-82.1609250081
20
-24.2499952405
11
-82.1609250081
21
-0.9645348175
0
LINE
5
2AF
100
AcDbEntity
8
0
100
AcDbLine
62
9
6
CONTINUOUS
10
-82.1609250081
20
0.9645957903
11
-82.1609250081
21
24.2500075841
0
LINE
5
2B0
100
AcDbEntity
8
0
100
AcDbLine
62
9
6
CONTINUOUS
10
-82.1609250081
20
0.9645957903
11
-82.1603239586
21
0.9221647428
0
LINE
5
2B1
100
AcDbEntity
8
0
100
AcDbLine
62
9
6
CONTINUOUS
10
-82.1603239586
20
-0.9221647461
11
-82.1609250081
21
-0.9645348175
0
LINE
5
2B2
100
AcDbEntity
8
0
100
AcDbLine
62
9
6
CONTINUOUS
10
-82.1609244640
20
-0.9663499138
11
-82.1603239586
21
-0.9221647461
0
LINE
5
2B3
100
AcDbEntity
8
0
100
AcDbLine
62
9
6
CONTINUOUS
10
-80.5453614126
20
-24.2499999878
11
-80.5453614126
21
24.2500000584
0
LINE
5
2B4
100
AcDbEntity
8
0
100
AcDbLine
62
9
6
CONTINUOUS
10
-79.4123729235
20
-24.2498419090
11
-79.4123729235
21
24.2498471080
0
LINE
5
2B5
100
AcDbEntity
8
0
100
AcDbLine
62
9
6
CONTINUOUS
10
-82.1609250081
20
1.3264054240
11
-82.6518227467
21
1.0429854825
0
LINE
5
2B6
100
AcDbEntity
8
0
100
AcDbLine
62
9
6
CONTINUOUS
10
-82.1609250081
20
-1.3264054240
11
-82.6518231244
21
-1.0429852644
0
LINE
5
2B7
100
AcDbEntity
8
0
100
AcDbLine
62
9
6
CONTINUOUS
10
-75.4877037993
20
-26.2709172065
11
-75.4877037993
21
-19.7290827935
0
LINE
5
2B8
100
AcDbEntity
8
0
100
AcDbLine
62
9
6
CONTINUOUS
10
-75.4877037993
20
19.7290827935
11
-75.4877037993
21
26.2709172065
0
LINE
5
2B9
100
AcDbEntity
8
0
100
AcDbLine
62
9
6
CONTINUOUS
10
-73.4877037993
20
-19.0959398794
11
-73.4877037993
21
19.0959398794
0
LINE
5
2BA
100
AcDbEntity
8
0
100
AcDbLine
62
9
6
CONTINUOUS
10
-73.4877037993
20
-26.9040601206
11
-73.4877037993
21
-65.9999418157
0
LINE
5
2BB
100
AcDbEntity
8
0
100
AcDbLine
62
9
6
CONTINUOUS
10
-73.4877037993
20
26.9040601206
11
-73.4877037993
21
65.9999418157
0
LINE
5
2BC
100
AcDbEntity
8
0
100
AcDbLine
62
9
6
CONTINUOUS
10
-73.7159148636
20
19.3449885540
11
-75.2594927350
21
19.4800341190
0
LINE
5
2BD
100
AcDbEntity
8
0
100
AcDbLine
62
9
6
CONTINUOUS
10
-82.0293524480
20
-48.8383990000
11
-81.5776273550
21
-48.1932687089
0
LINE
5
2BE
100
AcDbEntity
8
0
100
AcDbLine
62
9
6
CONTINUOUS
10
-82.1680448463
20
-49.1672307820
11
-81.5786706746
21
-48.3255172334
0
LINE
5
2BF
100
AcDbEntity
8
0
100
AcDbLine
62
9
6
CONTINUOUS
10
-75.2594927350
20
26.5199658810
11
-73.7159148636
21
26.6550114460
0
LINE
5
2C0
100
AcDbEntity
8
0
100
AcDbLine
62
9
6
CONTINUOUS
10
-80.5453614126
20
24.2500000584
11
-82.1603221403
21
24.2500031676
0
LINE
5
2C1
100
AcDbEntity
8
0
100
AcDbLine
62
9
6
CONTINUOUS
10
-80.5453614122
20
24.2499890838
11
-75.4877037993
21
24.2500000002
0
LINE
5
2C2
100
AcDbEntity
8
0
100
AcDbLine
62
9
6
CONTINUOUS
10
-82.1609250078
20
24.2500077564
11
-82.1603231740
21
24.2500076612
0
LINE
5
2C3
100
AcDbEntity
8
0
100
AcDbLine
62
9
6
CONTINUOUS
10
-81.5786706836
20
48.3255172461
11
-82.1680418008
21
49.1672264325
0
LINE
5
2C4
100
AcDbEntity
8
0
100
AcDbLine
62
9
6
CONTINUOUS
10
-73.4877037993
20
65.9999999999
11
-80.1866326519
21
65.6489240152
0
ARC
5
2C5
100
AcDbEntity
8
0
100
AcDbCircle
62
9
6
CONTINUOUS
10
-539.9999999959
20
24.2500000002
40
599.8951844379
100
AcDbArc
50
0.0000000356
51
0.1930174615
0
ARC
5
2C6
100
AcDbEntity
8
0
100
AcDbCircle
62
9
6
CONTINUOUS
10
539.9999999967
20
24.2500000002
40
599.8951844383
100
AcDbArc
50
179.8069825385
51
179.9999999601
0
ARC
5
2C7
100
AcDbEntity
8
0
100
AcDbCircle
62
9
6
CONTINUOUS
10
3.2647972043
20
-47.7158990000
40
0.2055000000
100
AcDbArc
50
270.0000000000
51
89.9999615126
0
ARC
5
2C8
100
AcDbEntity
8
0
100
AcDbCircle
62
9
6
CONTINUOUS
10
3.3002025675
20
-47.7222821118
40
0.5130894712
100
AcDbArc
50
293.3728906906
51
91.6250535725
0
ARC
5
2C9
100
AcDbEntity
8
0
100
AcDbCircle
62
9
6
CONTINUOUS
10
-539.9999999959
20
-24.2500000002
40
599.8951844379
100
AcDbArc
50
359.8069825385
51
359.9999999644
0
ARC
5
2CA
100
AcDbEntity
8
0
100
AcDbCircle
62
9
6
CONTINUOUS
10
539.9999999967
20
-24.2500000002
40
599.8951844383
100
AcDbArc
50
180.0000000345
51
180.1930174615
0
ARC
5
2CB
100
AcDbEntity
8
0
100
AcDbCircle
62
9
6
CONTINUOUS
10
539.9999999967
20
24.2500000002
40
599.9999999969
100
AcDbArc
50
176.3860743814
51
179.7465551010
0
ARC
5
2CC
100
AcDbEntity
8
0
100
AcDbCircle
62
9
6
CONTINUOUS
10
0.0000000002
20
-933.9999999988
40
999.9999999987
100
AcDbArc
50
86.7635771836
51
93.2364228164
0
ARC
5
2CD
100
AcDbEntity
8
0
100
AcDbCircle
62
9
6
CONTINUOUS
10
-539.9999999959
20
24.2500000002
40
599.9999999965
100
AcDbArc
50
0.2534448990
51
3.6139256186
0
ARC
5
2CE
100
AcDbEntity
8
0
100
AcDbCircle
62
9
6
CONTINUOUS
10
-539.9999999959
20
-24.2500000002
40
599.9999999965
100
AcDbArc
50
356.3860743814
51
359.7465551010
0
ARC
5
2CF
100
AcDbEntity
8
0
100
AcDbCircle
62
9
6
CONTINUOUS
10
0.0000000002
20
933.9999999988
40
999.9999999987
100
AcDbArc
50
266.7635771836
51
273.2364228164
0
ARC
5
2D0
100
AcDbEntity
8
0
100
AcDbCircle
62
9
6
CONTINUOUS
10
539.9999999967
20
-24.2500000002
40
599.9999999969
100
AcDbArc
50
180.2534448990
51
183.6139256186
0
ARC
5
2D1
100
AcDbEntity
8
0
100
AcDbCircle
62
9
6
CONTINUOUS
10
-73.7377037993
20
19.0959398794
40
0.2500000000
100
AcDbArc
50
0.0000000000
51
85.0000000000
0
ARC
5
2D2
100
AcDbEntity
8
0
100
AcDbCircle
62
9
6
CONTINUOUS
10
-73.7377037993
20
-19.0959398794
40
0.2500000000
100
AcDbArc
50
275.0000000000
51
360.0000000000
0
ARC
5
2D3
100
AcDbEntity
8
0
100
AcDbCircle
62
9
6
CONTINUOUS
10
-73.7377037993
20
26.9040601206
40
0.2500000000
100
AcDbArc
50
275.0000000000
51
360.0000000000
0
ARC
5
2D4
100
AcDbEntity
8
0
100
AcDbCircle
62
9
6
CONTINUOUS
10
-80.1832500460
20
-64.4474512355
40
1.1999999959
100
AcDbArc
50
184.5967216337
51
267.0000000005
0
ARC
5
2D5
100
AcDbEntity
8
0
100
AcDbCircle
62
9
6
CONTINUOUS
10
-82.3017879499
20
-0.4367877898
40
0.7000000000
100
AcDbArc
50
180.0000071971
51
240.0000000000
0
ARC
5
2D6
100
AcDbEntity
8
0
100
AcDbCircle
62
9
6
CONTINUOUS
10
-82.3017879500
20
0.4367877897
40
0.7000000000
100
AcDbArc
50
120.0000000000
51
171.8367626003
0
ARC
5
2D7
100
AcDbEntity
8
0
100
AcDbCircle
62
9
6
CONTINUOUS
10
-81.3488754070
20
-49.7407823757
40
1.0000000000
100
AcDbArc
50
145.0000000001
51
176.0430028615
0
ARC
5
2D8
100
AcDbEntity
8
0
100
AcDbCircle
62
9
6
CONTINUOUS
10
420.0102396029
20
-24.2316449986
40
503.0075718909
100
AcDbArc
50
182.8990202256
51
184.5926348588
0
ARC
5
2D9
100
AcDbEntity
8
0
100
AcDbCircle
62
9
6
CONTINUOUS
10
-80.1832500454
20
64.4474512339
40
1.1999999959
100
AcDbArc
50
92.9999999995
51
175.4032783664
0
ARC
5
2DA
100
AcDbEntity
8
0
100
AcDbCircle
62
9
6
CONTINUOUS
10
-81.3488754077
20
49.7407823766
40
1.0000000000
100
AcDbArc
50
177.0872652928
51
214.9999999999
0
ARC
5
2DB
100
AcDbEntity
8
0
100
AcDbCircle
62
9
6
CONTINUOUS
10
420.0102396030
20
24.2316449986
40
503.0075718910
100
AcDbArc
50
175.4073667012
51
177.1009800834
0
ARC
5
2DC
100
AcDbEntity
8
0
100
AcDbCircle
62
9
6
CONTINUOUS
10
420.0102385889
20
-24.2316449986
40
502.1677121077
100
AcDbArc
50
180.0020942360
51
182.7894498590
0
ARC
5
2DD
100
AcDbEntity
8
0
100
AcDbCircle
62
9
6
CONTINUOUS
10
-75.2377037993
20
-19.7290827935
40
0.2500000000
100
AcDbArc
50
95.0000000000
51
180.0000000000
0
ARC
5
2DE
100
AcDbEntity
8
0
100
AcDbCircle
62
9
6
CONTINUOUS
10
-75.2377037993
20
-26.2709172065
40
0.2500000000
100
AcDbArc
50
180.0000000000
51
265.0000000000
0
ARC
5
2DF
100
AcDbEntity
8
0
100
AcDbCircle
62
9
6
CONTINUOUS
10
420.0102385889
20
24.2316449986
40
502.1677121091
100
AcDbArc
50
177.2105501373
51
179.9979053955
0
ARC
5
2E0
100
AcDbEntity
8
0
100
AcDbCircle
62
9
6
CONTINUOUS
10
-75.2377037993
20
26.2709172065
40
0.2500000000
100
AcDbArc
50
95.0000000000
51
180.0000000000
0
ARC
5
2E1
100
AcDbEntity
8
0
100
AcDbCircle
62
9
6
CONTINUOUS
10
-75.2377037993
20
19.7290827935
40
0.2500000000
100
AcDbArc
50
180.0000000000
51
265.0000000000
0
ARC
5
2E2
100
AcDbEntity
8
0
100
AcDbCircle
62
9
6
CONTINUOUS
10
-73.7377037993
20
-26.9040601206
40
0.2500000000
100
AcDbArc
50
0.0000000000
51
85.0000000000
0
SPLINE
5
2E3
100
AcDbEntity
8
0
100
AcDbSpline
62
9
6
CONTINUOUS
70
0
71
3
72
10
73
6
74
4
42
0.0000001000
43
0.0000001000
44
0.0000000001
12
0.0000000000
22
0.2496170087
32
0.0000000000
13
-0.1282731297
23
0.2141370010
33
0.0000000000
40
0.0000000000
40
0.0000000000
40
0.0000000000
40
0.0000000000
40
0.4749594820
40
0.8369618733
40
1.0000000000
40
1.0000000000
40
1.0000000000
40
1.0000000000
10
60.0000000002
20
19.0959398794
30
0.0000000000
10
60.0000000002
20
19.1354592012
30
0.0000000000
10
60.0008510904
20
19.2059195272
30
0.0000000000
10
59.9924714191
20
19.2866125319
30
0.0000000000
10
59.9950111020
20
19.3333510555
30
0.0000000000
10
59.9880399651
20
19.3449885540
30
0.0000000000
11
60.0000000002
21
19.0959398794
31
0.0000000000
11
59.9984332997
21
19.2144874924
31
0.0000000000
11
59.9941029642
21
19.3047456275
31
0.0000000000
11
59.9880399651
21
19.3449885540
31
0.0000000000
0
SPLINE
5
2E4
100
AcDbEntity
8
0
100
AcDbSpline
62
9
6
CONTINUOUS
70
0
71
3
72
10
73
6
74
4
42
0.0000001000
43
0.0000001000
44
0.0000000001
12
0.1282731297
22
0.2141370010
32
0.0000000000
13
0.0000000000
23
0.2496170087
33
0.0000000000
40
0.0000000000
40
0.0000000000
40
0.0000000000
40
0.0000000000
40
0.1630381267
40
0.5250405180
40
1.0000000000
40
1.0000000000
40
1.0000000000
40
1.0000000000
10
59.9880399651
20
-19.3449885540
30
0.0000000000
10
59.9950111020
20
-19.3333510555
30
0.0000000000
10
59.9924714191
20
-19.2866125319
30
0.0000000000
10
60.0008510904
20
-19.2059195272
30
0.0000000000
10
60.0000000002
20
-19.1354592012
30
0.0000000000
10
60.0000000002
20
-19.0959398794
30
0.0000000000
11
59.9880399651
21
-19.3449885540
31
0.0000000000
11
59.9941029642
21
-19.3047456275
31
0.0000000000
11
59.9984332997
21
-19.2144874924
31
0.0000000000
11
60.0000000002
21
-19.0959398794
31
0.0000000000
0
SPLINE
5
2E5
100
AcDbEntity
8
0
100
AcDbSpline
62
9
6
CONTINUOUS
70
0
71
3
72
9
73
5
74
3
42
0.0000001000
43
0.0000001000
44
0.0000000001
12
0.1275745836
22
0.2144038559
32
0.0000000000
13
-0.0011035938
23
0.2494856106
33
0.0000000000
40
0.0000000000
40
0.0000000000
40
0.0000000000
40
0.0000000000
40
0.3228912299
40
1.0000000000
40
1.0000000000
40
1.0000000000
40
1.0000000000
10
59.9832197833
20
26.6550114460
30
0.0000000000
10
59.9969506880
20
26.6780878209
30
0.0000000000
10
59.9848939701
20
26.7681357933
30
0.0000000000
10
59.9943790269
20
26.8477504889
30
0.0000000000
10
59.9941299425
20
26.9040601206
30
0.0000000000
11
59.9832197833
21
26.6550114460
31
0.0000000000
11
59.9914105895
21
26.7351514617
31
0.0000000000
11
59.9941299425
21
26.9040601206
31
0.0000000000
0
SPLINE
5
2E6
100
AcDbEntity
8
0
100
AcDbSpline
62
9
6
CONTINUOUS
70
0
71
3
72
9
73
5
74
3
42
0.0000001000
43
0.0000001000
44
0.0000000001
12
0.0669831669
22
0.1125305932
32
0.0000000000
13
0.0669676511
23
0.1125398274
33
0.0000000000
40
0.0000000000
40
0.0000000000
40
0.0000000000
40
0.0000000000
40
0.5999804140
40
1.0000000000
40
1.0000000000
40
1.0000000000
40
1.0000000000
10
59.9028498428
20
26.5199658810
30
0.0000000000
10
59.9162460389
20
26.5424712650
30
0.0000000000
10
59.9385722096
20
26.5799823863
30
0.0000000000
10
59.9608957944
20
26.6174950465
30
0.0000000000
10
59.9698252518
20
26.6325010916
30
0.0000000000
11
59.9028498428
21
26.5199658810
31
0.0000000000
11
59.9430356383
21
26.5874836951
31
0.0000000000
11
59.9698252518
21
26.6325010916
31
0.0000000000
0
SPLINE
5
2E7
100
AcDbEntity
8
0
100
AcDbSpline
62
9
6
CONTINUOUS
70
0
71
3
72
8
73
4
74
2
42
0.0000001000
43
0.0000001000
44
0.0000000001
12
0.0133948419
22
0.0225101697
32
0.0000000000
13
0.0133942211
23
0.0225105391
33
0.0000000000
40
0.0000000000
40
0.0000000000
40
0.0000000000
40
0.0000000000
40
1.0000000000
40
1.0000000000
40
1.0000000000
40
1.0000000000
10
59.9698252518
20
26.6325010916
30
0.0000000000
10
59.9742901991
20
26.6400044815
30
0.0000000000
10
59.9787550429
20
26.6475079330
30
0.0000000000
10
59.9832197833
20
26.6550114460
30
0.0000000000
11
59.9698252518
21
26.6325010916
31
0.0000000000
11
59.9832197833
21
26.6550114460
31
0.0000000000
0
SPLINE
5
2E8
100
AcDbEntity
8
0
100
AcDbSpline
62
9
6
CONTINUOUS
70
0
71
3
72
9
73
5
74
3
42
0.0000001000
43
0.0000001000
44
0.0000000001
12
-0.0011035938
22
-0.2494856106
32
0.0000000000
13
0.1275745836
23
-0.2144038559
33
0.0000000000
40
0.0000000000
40
0.0000000000
40
0.0000000000
40
0.0000000000
40
0.6771087700
40
1.0000000000
40
1.0000000000
40
1.0000000000
40
1.0000000000
10
-59.9941299422
20
26.9040601206
30
0.0000000000
10
-59.9943790266
20
26.8477504889
30
0.0000000000
10
-59.9848939698
20
26.7681357933
30
0.0000000000
10
-59.9969506877
20
26.6780878209
30
0.0000000000
10
-59.9832197830
20
26.6550114460
30
0.0000000000
11
-59.9941299422
21
26.9040601206
31
0.0000000000
11
-59.9914105892
21
26.7351514617
31
0.0000000000
11
-59.9832197830
21
26.6550114460
31
0.0000000000
0
SPLINE
5
2E9
100
AcDbEntity
8
0
100
AcDbSpline
62
9
6
CONTINUOUS
70
0
71
3
72
9
73
5
74
3
42
0.0000001000
43
0.0000001000
44
0.0000000001
12
0.0669667336
22
-0.1125453479
32
0.0000000000
13
0.0669822504
23
-0.1125361136
33
0.0000000000
40
0.0000000000
40
0.0000000000
40
0.0000000000
40
0.0000000000
40
0.6000195857
40
1.0000000000
40
1.0000000000
40
1.0000000000
40
1.0000000000
10
-59.9832197830
20
26.6550114460
30
0.0000000000
10
-59.9698259991
20
26.6325016417
30
0.0000000000
10
-59.9475022028
20
26.5949874490
30
0.0000000000
10
-59.9251758204
20
26.5574747955
30
0.0000000000
10
-59.9162452910
20
26.5424707150
30
0.0000000000
11
-59.9832197830
21
26.6550114460
31
0.0000000000
11
-59.9430356380
21
26.5874836951
31
0.0000000000
11
-59.9162452910
21
26.5424707150
31
0.0000000000
0
SPLINE
5
2EA
100
AcDbEntity
8
0
100
AcDbSpline
62
9
6
CONTINUOUS
70
0
71
3
72
8
73
4
74
2
42
0.0000001000
43
0.0000001000
44
0.0000000001
12
0.0133951382
22
-0.0225050187
32
0.0000000000
13
0.0133957588
23
-0.0225046493
33
0.0000000000
40
0.0000000000
40
0.0000000000
40
0.0000000000
40
0.0000000000
40
1.0000000000
40
1.0000000000
40
1.0000000000
40
1.0000000000
10
-59.9162452910
20
26.5424707150
30
0.0000000000
10
-59.9117802449
20
26.5349690421
30
0.0000000000
10
-59.9073150954
20
26.5274674308
30
0.0000000000
10
-59.9028498425
20
26.5199658810
30
0.0000000000
11
-59.9162452910
21
26.5424707150
31
0.0000000000
11
-59.9028498425
21
26.5199658810
31
0.0000000000
0
SPLINE
5
2EB
100
AcDbEntity
8
0
100
AcDbSpline
62
9
6
CONTINUOUS
70
0
71
3
72
10
73
6
74
4
42
0.0000001000
43
0.0000001000
44
0.0000000001
12
-0.1282731297
22
-0.2141370010
32
0.0000000000
13
-0.0000000000
23
-0.2496170087
33
0.0000000000
40
0.0000000000
40
0.0000000000
40
0.0000000000
40
0.0000000000
40
0.1630381267
40
0.5250405180
40
1.0000000000
40
1.0000000000
40
1.0000000000
40
1.0000000000
10
-59.9880399647
20
19.3449885540
30
0.0000000000
10
-59.9950111017
20
19.3333510555
30
0.0000000000
10
-59.9924714187
20
19.2866125319
30
0.0000000000
10
-60.0008510900
20
19.2059195272
30
0.0000000000
10
-59.9999999998
20
19.1354592012
30
0.0000000000
10
-59.9999999998
20
19.0959398794
30
0.0000000000
11
-59.9880399647
21
19.3449885540
31
0.0000000000
11
-59.9941029639
21
19.3047456275
31
0.0000000000
11
-59.9984332993
21
19.2144874924
31
0.0000000000
11
-59.9999999998
21
19.0959398794
31
0.0000000000
0
SPLINE
5
2EC
100
AcDbEntity
8
0
100
AcDbSpline
62
9
6
CONTINUOUS
70
0
71
3
72
10
73
6
74
4
42
0.0000001000
43
0.0000001000
44
0.0000000001
12
0.0000000000
22
-0.2496170087
32
0.0000000000
13
0.1282731297
23
-0.2141370010
33
0.0000000000
40
0.0000000000
40
0.0000000000
40
0.0000000000
40
0.0000000000
40
0.4749594820
40
0.8369618733
40
1.0000000000
40
1.0000000000
40
1.0000000000
40
1.0000000000
10
-59.9999999998
20
-19.0959398794
30
0.0000000000
10
-59.9999999998
20
-19.1354592012
30
0.0000000000
10
-60.0008510900
20
-19.2059195272
30
0.0000000000
10
-59.9924714187
20
-19.2866125319
30
0.0000000000
10
-59.9950111017
20
-19.3333510555
30
0.0000000000
10
-59.9880399647
20
-19.3449885540
30
0.0000000000
11
-59.9999999998
21
-19.0959398794
31
0.0000000000
11
-59.9984332993
21
-19.2144874924
31
0.0000000000
11
-59.9941029639
21
-19.3047456275
31
0.0000000000
11
-59.9880399647
21
-19.3449885540
31
0.0000000000
0
SPLINE
5
2ED
100
AcDbEntity
8
0
100
AcDbSpline
62
9
6
CONTINUOUS
70
0
71
3
72
10
73
6
74
4
42
0.0000001000
43
0.0000001000
44
0.0000000001
12
0.0000000000
22
-0.4658096616
32
0.0000000000
13
0.4658096616
23
0.0000000000
33
0.0000000000
40
0.0000000000
40
0.0000000000
40
0.0000000000
40
0.0000000000
40
0.3333550668
40
0.6666444233
40
1.0000000000
40
1.0000000000
40
1.0000000000
40
1.0000000000
10
-33.7499999998
20
2.0499543085
30
0.0000000000
10
-33.7499999998
20
1.9981943049
30
0.0000000000
10
-33.7218865767
20
1.8926949368
30
0.0000000000
10
-33.6073052300
20
1.7781134926
30
0.0000000000
10
-33.5018057741
20
1.7500000000
30
0.0000000000
10
-33.4500456913
20
1.7500000000
30
0.0000000000
11
-33.7499999998
21
2.0499543085
31
0.0000000000
11
-33.7098135283
21
1.8999645447
31
0.0000000000
11
-33.6000356681
21
1.7901865945
31
0.0000000000
11
-33.4500456913
21
1.7500000000
31
0.0000000000
0
SPLINE
5
2EE
100
AcDbEntity
8
0
100
AcDbSpline
62
9
6
CONTINUOUS
70
0
71
3
72
10
73
6
74
4
42
0.0000001000
43
0.0000001000
44
0.0000000001
12
0.4658096616
22
0.0000000000
32
0.0000000000
13
-0.0000000000
23
0.4658096616
33
0.0000000000
40
0.0000000000
40
0.0000000000
40
0.0000000000
40
0.0000000000
40
0.3333550668
40
0.6666444233
40
1.0000000000
40
1.0000000000
40
1.0000000000
40
1.0000000000
10
33.4500456916
20
1.7500000000
30
0.0000000000
10
33.5018056952
20
1.7500000000
30
0.0000000000
10
33.6073050634
20
1.7781134231
30
0.0000000000
10
33.7218865076
20
1.8926947698
30
0.0000000000
10
33.7500000002
20
1.9981942258
30
0.0000000000
10
33.7500000002
20
2.0499543085
30
0.0000000000
11
33.4500456916
21
1.7500000000
31
0.0000000000
11
33.6000354555
21
1.7901864715
31
0.0000000000
11
33.7098134057
21
1.8999643317
31
0.0000000000
11
33.7500000002
21
2.0499543085
31
0.0000000000
0
SPLINE
5
2EF
100
AcDbEntity
8
0
100
AcDbSpline
62
9
6
CONTINUOUS
70
0
71
3
72
10
73
6
74
4
42
0.0000001000
43
0.0000001000
44
0.0000000001
12
0.0000000000
22
0.4658096616
32
0.0000000000
13
-0.4658096616
23
0.0000000000
33
0.0000000000
40
0.0000000000
40
0.0000000000
40
0.0000000000
40
0.0000000000
40
0.3333555767
40
0.6666449332
40
1.0000000000
40
1.0000000000
40
1.0000000000
40
1.0000000000
10
33.7500000002
20
-2.0499543085
30
0.0000000000
10
33.7500000002
20
-1.9981942258
30
0.0000000000
10
33.7218865076
20
-1.8926947698
30
0.0000000000
10
33.6073050634
20
-1.7781134231
30
0.0000000000
10
33.5018056952
20
-1.7500000000
30
0.0000000000
10
33.4500456916
20
-1.7500000000
30
0.0000000000
11
33.7500000002
21
-2.0499543085
31
0.0000000000
11
33.7098134057
21
-1.8999643317
31
0.0000000000
11
33.6000354555
21
-1.7901864715
31
0.0000000000
11
33.4500456916
21
-1.7500000000
31
0.0000000000
0
SPLINE
5
2F0
100
AcDbEntity
8
0
100
AcDbSpline
62
9
6
CONTINUOUS
70
0
71
3
72
10
73
6
74
4
42
0.0000001000
43
0.0000001000
44
0.0000000001
12
-0.4658096616
22
0.0000000000
32
0.0000000000
13
-0.0000000000
23
-0.4658096616
33
0.0000000000
40
0.0000000000
40
0.0000000000
40
0.0000000000
40
0.0000000000
40
0.3333550668
40
0.6666444233
40
1.0000000000
40
1.0000000000
40
1.0000000000
40
1.0000000000
10
-33.4500456913
20
-1.7500000000
30
0.0000000000
10
-33.5018056949
20
-1.7500000000
30
0.0000000000
10
-33.6073050630
20
-1.7781134231
30
0.0000000000
10
-33.7218865072
20
-1.8926947698
30
0.0000000000
10
-33.7499999998
20
-1.9981942258
30
0.0000000000
10
-33.7499999998
20
-2.0499543085
30
0.0000000000
11
-33.4500456913
21
-1.7500000000
31
0.0000000000
11
-33.6000354551
21
-1.7901864715
31
0.0000000000
11
-33.7098134053
21
-1.8999643317
31
0.0000000000
11
-33.7499999998
21
-2.0499543085
31
0.0000000000
0
SPLINE
5
2F1
100
AcDbEntity
8
0
100
AcDbSpline
62
9
6
CONTINUOUS
70
0
71
3
72
10
73
6
74
4
42
0.0000001000
43
0.0000001000
44
0.0000000001
12
0.0000000000
22
-0.4658096616
32
0.0000000000
13
0.4658096616
23
0.0000000000
33
0.0000000000
40
0.0000000000
40
0.0000000000
40
0.0000000000
40
0.0000000000
40
0.3333550668
40
0.6666444233
40
1.0000000000
40
1.0000000000
40
1.0000000000
40
1.0000000000
10
-33.7499999998
20
-46.4500456915
30
0.0000000000
10
-33.7499999998
20
-46.5018056951
30
0.0000000000
10
-33.7218865767
20
-46.6073050632
30
0.0000000000
10
-33.6073052300
20
-46.7218865074
30
0.0000000000
10
-33.5018057741
20
-46.7500000000
30
0.0000000000
10
-33.4500456913
20
-46.7500000000
30
0.0000000000
11
-33.7499999998
21
-46.4500456915
31
0.0000000000
11
-33.7098135283
21
-46.6000354553
31
0.0000000000
11
-33.6000356681
21
-46.7098134055
31
0.0000000000
11
-33.4500456913
21
-46.7500000000
31
0.0000000000
0
SPLINE
5
2F2
100
AcDbEntity
8
0
100
AcDbSpline
62
9
6
CONTINUOUS
70
0
71
3
72
9
73
5
74
3
42
0.0000001000
43
0.0000001000
44
0.0000000001
12
0.2593337177
22
0.0000000000
32
0.0000000000
13
0.1681796988
23
0.2011820879
33
0.0000000000
40
0.0000000000
40
0.0000000000
40
0.0000000000
40
0.0000000000
40
0.5987652211
40
1.0000000000
40
1.0000000000
40
1.0000000000
40
1.0000000000
10
33.4500456916
20
-46.7500000000
30
0.0000000000
10
33.5018056952
20
-46.7500000000
30
0.0000000000
10
33.5899118204
20
-46.7265215203
30
0.0000000000
10
33.6577122136
20
-46.6693760641
30
0.0000000000
10
33.6802053950
20
-46.6424689806
30
0.0000000000
11
33.4500456916
21
-46.7500000000
31
0.0000000000
11
33.6000354555
21
-46.7098135285
31
0.0000000000
11
33.6802053950
21
-46.6424689806
31
0.0000000000
0
SPLINE
5
2F3
100
AcDbEntity
8
0
100
AcDbSpline
62
9
6
CONTINUOUS
70
0
71
3
72
9
73
5
74
3
42
0.0000001000
43
0.0000001000
44
0.0000000001
12
0.1339010691
22
0.1601768634
32
0.0000000000
13
0.0000000000
23
0.2064759438
33
0.0000000000
40
0.0000000000
40
0.0000000000
40
0.0000000000
40
0.0000000000
40
0.2479499282
40
1.0000000000
40
1.0000000000
40
1.0000000000
40
1.0000000000
10
33.6802053950
20
-46.6424689806
30
0.0000000000
10
33.6912723152
20
-46.6292303667
30
0.0000000000
10
33.7313069063
20
-46.5719539861
30
0.0000000000
10
33.7500000002
20
-46.5018057742
30
0.0000000000
10
33.7500000002
20
-46.4500456915
30
0.0000000000
11
33.6802053950
21
-46.6424689806
31
0.0000000000
11
33.7098134057
21
-46.6000356683
31
0.0000000000
11
33.7500000002
21
-46.4500456915
31
0.0000000000
0
SPLINE
5
2F4
100
AcDbEntity
8
0
100
AcDbSpline
62
9
6
CONTINUOUS
70
0
71
3
72
10
73
6
74
4
42
0.0000001000
43
0.0000001000
44
0.0000000001
12
0.1282731298
22
-0.2141370012
32
0.0000000000
13
-0.0000000000
23
-0.2496170088
33
0.0000000000
40
0.0000000000
40
0.0000000000
40
0.0000000000
40
0.0000000000
40
0.1630377720
40
0.5250415269
40
1.0000000000
40
1.0000000000
40
1.0000000000
40
1.0000000000
10
-59.9071444763
20
-19.4800341190
30
0.0000000000
10
-59.9001733546
20
-19.4916715922
30
0.0000000000
10
-59.9027130255
20
-19.5384102010
30
0.0000000000
10
-59.8943333539
20
-19.6191032011
30
0.0000000000
10
-59.8951844413
20
-19.6895635557
30
0.0000000000
10
-59.8951844413
20
-19.7290827935
30
0.0000000000
11
-59.9071444763
21
-19.4800341190
31
0.0000000000
11
-59.9010814842
21
-19.5202769570
31
0.0000000000
11
-59.8967511347
21
-19.6105354322
31
0.0000000000
11
-59.8951844413
21
-19.7290827935
31
0.0000000000
0
SPLINE
5
2F5
100
AcDbEntity
8
0
100
AcDbSpline
62
9
6
CONTINUOUS
70
0
71
3
72
9
73
5
74
3
42
0.0000001000
43
0.0000001000
44
0.0000000001
12
0.0008404884
22
-0.2494917088
32
0.0000000000
13
-0.1276126501
23
-0.2143871048
33
0.0000000000
40
0.0000000000
40
0.0000000000
40
0.0000000000
40
0.0000000000
40
0.6771000263
40
1.0000000000
40
1.0000000000
40
1.0000000000
40
1.0000000000
10
-59.8917804153
20
-26.2709172065
30
0.0000000000
10
-59.8915907171
20
-26.3272274874
30
0.0000000000
10
-59.9011382590
20
-26.4068415557
30
0.0000000000
10
-59.8891144686
20
-26.4968906842
30
0.0000000000
10
-59.9028498424
20
-26.5199658810
30
0.0000000000
11
-59.8917804153
21
-26.2709172065
31
0.0000000000
11
-59.8946303100
21
-26.4398249670
31
0.0000000000
11
-59.9028498424
21
-26.5199658810
31
0.0000000000
0
SPLINE
5
2F6
100
AcDbEntity
8
0
100
AcDbSpline
62
9
6
CONTINUOUS
70
0
71
3
72
10
73
6
74
4
42
0.0000001000
43
0.0000001000
44
0.0000000001
12
0.0000000000
22
0.2496170088
32
0.0000000000
13
0.1282731298
23
0.2141370012
33
0.0000000000
40
0.0000000000
40
0.0000000000
40
0.0000000000
40
0.0000000000
40
0.4749584731
40
0.8369622280
40
1.0000000000
40
1.0000000000
40
1.0000000000
40
1.0000000000
10
59.8951844416
20
-19.7290827935
30
0.0000000000
10
59.8951844416
20
-19.6895635557
30
0.0000000000
10
59.8943333542
20
-19.6191032011
30
0.0000000000
10
59.9027130258
20
-19.5384102010
30
0.0000000000
10
59.9001733549
20
-19.4916715922
30
0.0000000000
10
59.9071444767
20
-19.4800341190
30
0.0000000000
11
59.8951844416
21
-19.7290827935
31
0.0000000000
11
59.8967511350
21
-19.6105354322
31
0.0000000000
11
59.9010814846
21
-19.5202769570
31
0.0000000000
11
59.9071444767
21
-19.4800341190
31
0.0000000000
0
SPLINE
5
2F7
100
AcDbEntity
8
0
100
AcDbSpline
62
9
6
CONTINUOUS
70
0
71
3
72
9
73
5
74
3
42
0.0000001000
43
0.0000001000
44
0.0000000001
12
-0.1276126501
22
0.2143871048
32
0.0000000000
13
0.0008404884
23
0.2494917088
33
0.0000000000
40
0.0000000000
40
0.0000000000
40
0.0000000000
40
0.0000000000
40
0.3228999737
40
1.0000000000
40
1.0000000000
40
1.0000000000
40
1.0000000000
10
59.9028498428
20
-26.5199658810
30
0.0000000000
10
59.8891144690
20
-26.4968906842
30
0.0000000000
10
59.9011382594
20
-26.4068415557
30
0.0000000000
10
59.8915907174
20
-26.3272274874
30
0.0000000000
10
59.8917804157
20
-26.2709172065
30
0.0000000000
11
59.9028498428
21
-26.5199658810
31
0.0000000000
11
59.8946303103
21
-26.4398249670
31
0.0000000000
11
59.8917804157
21
-26.2709172065
31
0.0000000000
0
SPLINE
5
2F8
100
AcDbEntity
8
0
100
AcDbSpline
62
9
6
CONTINUOUS
70
0
71
3
72
9
73
5
74
3
42
0.0000001000
43
0.0000001000
44
0.0000000001
12
-0.0669667336
22
0.1125453479
32
0.0000000000
13
-0.0669822504
23
0.1125361136
33
0.0000000000
40
0.0000000000
40
0.0000000000
40
0.0000000000
40
0.0000000000
40
0.6000195857
40
1.0000000000
40
1.0000000000
40
1.0000000000
40
1.0000000000
10
59.9832197833
20
-26.6550114460
30
0.0000000000
10
59.9698259994
20
-26.6325016417
30
0.0000000000
10
59.9475022031
20
-26.5949874490
30
0.0000000000
10
59.9251758207
20
-26.5574747955
30
0.0000000000
10
59.9162452913
20
-26.5424707150
30
0.0000000000
11
59.9832197833
21
-26.6550114460
31
0.0000000000
11
59.9430356383
21
-26.5874836951
31
0.0000000000
11
59.9162452913
21
-26.5424707150
31
0.0000000000
0
SPLINE
5
2F9
100
AcDbEntity
8
0
100
AcDbSpline
62
9
6
CONTINUOUS
70
0
71
3
72
8
73
4
74
2
42
0.0000001000
43
0.0000001000
44
0.0000000001
12
-0.0133951382
22
0.0225050187
32
0.0000000000
13
-0.0133957588
23
0.0225046493
33
0.0000000000
40
0.0000000000
40
0.0000000000
40
0.0000000000
40
0.0000000000
40
1.0000000000
40
1.0000000000
40
1.0000000000
40
1.0000000000
10
59.9162452913
20
-26.5424707150
30
0.0000000000
10
59.9117802452
20
-26.5349690421
30
0.0000000000
10
59.9073150957
20
-26.5274674308
30
0.0000000000
10
59.9028498428
20
-26.5199658810
30
0.0000000000
11
59.9162452913
21
-26.5424707150
31
0.0000000000
11
59.9028498428
21
-26.5199658810
31
0.0000000000
0
SPLINE
5
2FA
100
AcDbEntity
8
0
100
AcDbSpline
62
9
6
CONTINUOUS
70
0
71
3
72
9
73
5
74
3
42
0.0000001000
43
0.0000001000
44
0.0000000001
12
0.0011035938
22
0.2494856106
32
0.0000000000
13
-0.1275745836
23
0.2144038559
33
0.0000000000
40
0.0000000000
40
0.0000000000
40
0.0000000000
40
0.0000000000
40
0.6771087701
40
1.0000000000
40
1.0000000000
40
1.0000000000
40
1.0000000000
10
59.9941299425
20
-26.9040601206
30
0.0000000000
10
59.9943790269
20
-26.8477504889
30
0.0000000000
10
59.9848939701
20
-26.7681357933
30
0.0000000000
10
59.9969506880
20
-26.6780878209
30
0.0000000000
10
59.9832197833
20
-26.6550114460
30
0.0000000000
11
59.9941299425
21
-26.9040601206
31
0.0000000000
11
59.9914105895
21
-26.7351514617
31
0.0000000000
11
59.9832197833
21
-26.6550114460
31
0.0000000000
0
SPLINE
5
2FB
100
AcDbEntity
8
0
100
AcDbSpline
62
9
6
CONTINUOUS
70
0
71
3
72
9
73
5
74
3
42
0.0000001000
43
0.0000001000
44
0.0000000001
12
-0.0669831669
22
-0.1125305932
32
0.0000000000
13
-0.0669676511
23
-0.1125398274
33
0.0000000000
40
0.0000000000
40
0.0000000000
40
0.0000000000
40
0.0000000000
40
0.5999804140
40
1.0000000000
40
1.0000000000
40
1.0000000000
40
1.0000000000
10
-59.9028498424
20
-26.5199658810
30
0.0000000000
10
-59.9162460385
20
-26.5424712650
30
0.0000000000
10
-59.9385722093
20
-26.5799823863
30
0.0000000000
10
-59.9608957941
20
-26.6174950465
30
0.0000000000
10
-59.9698252514
20
-26.6325010916
30
0.0000000000
11
-59.9028498424
21
-26.5199658810
31
0.0000000000
11
-59.9430356380
21
-26.5874836951
31
0.0000000000
11
-59.9698252514
21
-26.6325010916
31
0.0000000000
0
SPLINE
5
2FC
100
AcDbEntity
8
0
100
AcDbSpline
62
9
6
CONTINUOUS
70
0
71
3
72
8
73
4
74
2
42
0.0000001000
43
0.0000001000
44
0.0000000001
12
-0.0133948419
22
-0.0225101697
32
0.0000000000
13
-0.0133942211
23
-0.0225105391
33
0.0000000000
40
0.0000000000
40
0.0000000000
40
0.0000000000
40
0.0000000000
40
1.0000000000
40
1.0000000000
40
1.0000000000
40
1.0000000000
10
-59.9698252514
20
-26.6325010916
30
0.0000000000
10
-59.9742901987
20
-26.6400044815
30
0.0000000000
10
-59.9787550425
20
-26.6475079330
30
0.0000000000
10
-59.9832197829
20
-26.6550114460
30
0.0000000000
11
-59.9698252514
21
-26.6325010916
31
0.0000000000
11
-59.9832197829
21
-26.6550114460
31
0.0000000000
0
SPLINE
5
2FD
100
AcDbEntity
8
0
100
AcDbSpline
62
9
6
CONTINUOUS
70
0
71
3
72
9
73
5
74
3
42
0.0000001000
43
0.0000001000
44
0.0000000001
12
-0.1275745836
22
-0.2144038559
32
0.0000000000
13
0.0011035938
23
-0.2494856106
33
0.0000000000
40
0.0000000000
40
0.0000000000
40
0.0000000000
40
0.0000000000
40
0.3228912299
40
1.0000000000
40
1.0000000000
40
1.0000000000
40
1.0000000000
10
-59.9832197829
20
-26.6550114460
30
0.0000000000
10
-59.9969506877
20
-26.6780878209
30
0.0000000000
10
-59.9848939698
20
-26.7681357933
30
0.0000000000
10
-59.9943790265
20
-26.8477504889
30
0.0000000000
10
-59.9941299422
20
-26.9040601206
30
0.0000000000
11
-59.9832197829
21
-26.6550114460
31
0.0000000000
11
-59.9914105891
21
-26.7351514617
31
0.0000000000
11
-59.9941299422
21
-26.9040601206
31
0.0000000000
0
SPLINE
5
2FE
100
AcDbEntity
8
0
100
AcDbSpline
62
9
6
CONTINUOUS
70
0
71
3
72
10
73
6
74
4
42
0.0000001000
43
0.0000001000
44
0.0000000001
12
0.2261740377
22
3.5810443535
32
0.0000000000
13
3.5824568008
23
0.2025749911
33
0.0000000000
40
0.0000000000
40
0.0000000000
40
0.0000000000
40
0.0000000000
40
0.3331637717
40
0.6684858114
40
1.0000000000
40
1.0000000000
40
1.0000000000
40
1.0000000000
10
-58.8068627084
20
62.0698515803
30
0.0000000000
10
-58.7817450433
20
62.4675429947
30
0.0000000000
10
-58.5318636211
20
63.2661735425
30
0.0000000000
10
-57.6502709708
20
64.1397675758
30
0.0000000000
10
-56.8520789568
20
64.3826913258
30
0.0000000000
10
-56.4562005370
20
64.4050768204
30
0.0000000000
11
-58.8068627084
21
62.0698515803
31
0.0000000000
11
-58.4483547868
21
63.2102796990
31
0.0000000000
11
-57.5937332779
21
64.0572165519
31
0.0000000000
11
-56.4562005370
21
64.4050768204
31
0.0000000000
0
SPLINE
5
2FF
100
AcDbEntity
8
0
100
AcDbSpline
62
9
6
CONTINUOUS
70
0
71
3
72
10
73
6
74
4
42
0.0000001000
43
0.0000001000
44
0.0000000001
12
3.5824563726
22
-0.2025749669
32
0.0000000000
13
0.2261740107
23
-3.5810439254
33
0.0000000000
40
0.0000000000
40
0.0000000000
40
0.0000000000
40
0.0000000000
40
0.3330914641
40
0.6685932237
40
1.0000000000
40
1.0000000000
40
1.0000000000
40
1.0000000000
10
56.4562005373
20
64.4050768204
30
0.0000000000
10
56.8539624167
20
64.3825848229
30
0.0000000000
10
57.6543437488
20
64.1379860959
30
0.0000000000
10
58.5337507716
20
63.2620979451
30
0.0000000000
10
58.7818775088
20
62.4654456546
30
0.0000000000
10
58.8068627087
20
62.0698515803
30
0.0000000000
11
56.4562005373
21
64.4050768204
31
0.0000000000
11
57.5987366068
21
64.0542279160
31
0.0000000000
11
58.4517206125
21
63.2047279957
31
0.0000000000
11
58.8068627087
21
62.0698515803
31
0.0000000000
0
SPLINE
5
300
100
AcDbEntity
8
0
100
AcDbSpline
62
9
6
CONTINUOUS
70
0
71
3
72
10
73
6
74
4
42
0.0000001000
43
0.0000001000
44
0.0000000001
12
-0.2261740377
22
-3.5810443535
32
0.0000000000
13
-3.5824568008
23
-0.2025749911
33
0.0000000000
40
0.0000000000
40
0.0000000000
40
0.0000000000
40
0.0000000000
40
0.3331637717
40
0.6684858114
40
1.0000000000
40
1.0000000000
40
1.0000000000
40
1.0000000000
10
58.8068627087
20
-62.0698515803
30
0.0000000000
10
58.7817450436
20
-62.4675429947
30
0.0000000000
10
58.5318636214
20
-63.2661735425
30
0.0000000000
10
57.6502709711
20
-64.1397675758
30
0.0000000000
10
56.8520789571
20
-64.3826913258
30
0.0000000000
10
56.4562005373
20
-64.4050768204
30
0.0000000000
11
58.8068627087
21
-62.0698515803
31
0.0000000000
11
58.4483547871
21
-63.2102796990
31
0.0000000000
11
57.5937332782
21
-64.0572165519
31
0.0000000000
11
56.4562005373
21
-64.4050768204
31
0.0000000000
0
SPLINE
5
301
100
AcDbEntity
8
0
100
AcDbSpline
62
9
6
CONTINUOUS
70
0
71
3
72
10
73
6
74
4
42
0.0000001000
43
0.0000001000
44
0.0000000001
12
-3.5824563730
22
0.2025749669
32
0.0000000000
13
-0.2261740107
23
3.5810439258
33
0.0000000000
40
0.0000000000
40
0.0000000000
40
0.0000000000
40
0.0000000000
40
0.3330917162
40
0.6685932430
40
1.0000000000
40
1.0000000000
40
1.0000000000
40
1.0000000000
10
-56.4562005369
20
-64.4050768204
30
0.0000000000
10
-56.8539627174
20
-64.3825848059
30
0.0000000000
10
-57.6543440904
20
-64.1379858962
30
0.0000000000
10
-58.5337508703
20
-63.2620976234
30
0.0000000000
10
-58.7818775099
20
-62.4654456317
30
0.0000000000
10
-58.8068627084
20
-62.0698515803
30
0.0000000000
11
-56.4562005369
21
-64.4050768204
31
0.0000000000
11
-57.5987374059
21
-64.0542274372
31
0.0000000000
11
-58.4517206488
21
-63.2047279350
31
0.0000000000
11
-58.8068627084
21
-62.0698515803
31
0.0000000000
0
SPLINE
5
302
100
AcDbEntity
8
0
100
AcDbSpline
62
9
6
CONTINUOUS
70
0
71
3
72
10
73
6
74
4
42
0.0000001000
43
0.0000001000
44
0.0000000001
12
-0.1282731297
22
0.2141370010
32
0.0000000000
13
-0.0000000000
23
0.2496170087
33
0.0000000000
40
0.0000000000
40
0.0000000000
40
0.0000000000
40
0.0000000000
40
0.1630381267
40
0.5250405180
40
1.0000000000
40
1.0000000000
40
1.0000000000
40
1.0000000000
10
59.9071444767
20
19.4800341190
30
0.0000000000
10
59.9001733398
20
19.4916716175
30
0.0000000000
10
59.9027130227
20
19.5384101411
30
0.0000000000
10
59.8943333514
20
19.6191031457
30
0.0000000000
10
59.8951844416
20
19.6895634718
30
0.0000000000
10
59.8951844416
20
19.7290827935
30
0.0000000000
11
59.9071444767
21
19.4800341190
31
0.0000000000
11
59.9010814775
21
19.5202770455
31
0.0000000000
11
59.8967511421
21
19.6105351805
31
0.0000000000
11
59.8951844416
21
19.7290827935
31
0.0000000000
0
SPLINE
5
303
100
AcDbEntity
8
0
100
AcDbSpline
62
9
6
CONTINUOUS
70
0
71
3
72
9
73
5
74
3
42
0.0000001000
43
0.0000001000
44
0.0000000001
12
-0.0008404880
22
0.2494915876
32
0.0000000000
13
0.1276125881
23
0.2143870006
33
0.0000000000
40
0.0000000000
40
0.0000000000
40
0.0000000000
40
0.0000000000
40
0.6767254418
40
1.0000000000
40
1.0000000000
40
1.0000000000
40
1.0000000000
10
59.8917804157
20
26.2709172065
30
0.0000000000
10
59.8915908225
20
26.3271963081
30
0.0000000000
10
59.9011367742
20
26.4068117680
30
0.0000000000
10
59.8890985418
20
26.4968639267
30
0.0000000000
10
59.9028498428
20
26.5199658810
30
0.0000000000
11
59.8917804157
21
26.2709172065
31
0.0000000000
11
59.8946261641
21
26.4397314853
31
0.0000000000
11
59.9028498428
21
26.5199658810
31
0.0000000000
0
SPLINE
5
304
100
AcDbEntity
8
0
100
AcDbSpline
62
9
6
CONTINUOUS
70
0
71
3
72
9
73
5
74
3
42
0.0000001000
43
0.0000001000
44
0.0000000001
12
0.1276125881
22
-0.2143870006
32
0.0000000000
13
-0.0008404880
23
-0.2494915876
33
0.0000000000
40
0.0000000000
40
0.0000000000
40
0.0000000000
40
0.0000000000
40
0.3232745582
40
1.0000000000
40
1.0000000000
40
1.0000000000
40
1.0000000000
10
-59.9028498425
20
26.5199658810
30
0.0000000000
10
-59.8890985415
20
26.4968639267
30
0.0000000000
10
-59.9011367738
20
26.4068117680
30
0.0000000000
10
-59.8915908222
20
26.3271963081
30
0.0000000000
10
-59.8917804154
20
26.2709172065
30
0.0000000000
11
-59.9028498425
21
26.5199658810
31
0.0000000000
11
-59.8946261637
21
26.4397314853
31
0.0000000000
11
-59.8917804154
21
26.2709172065
31
0.0000000000
0
SPLINE
5
305
100
AcDbEntity
8
0
100
AcDbSpline
62
9
6
CONTINUOUS
70
0
71
3
72
10
73
6
74
4
42
0.0000001000
43
0.0000001000
44
0.0000000001
12
0.0000000000
22
-0.2496170087
32
0.0000000000
13
-0.1282731297
23
-0.2141370010
33
0.0000000000
40
0.0000000000
40
0.0000000000
40
0.0000000000
40
0.0000000000
40
0.4749594820
40
0.8369618733
40
1.0000000000
40
1.0000000000
40
1.0000000000
40
1.0000000000
10
-59.8951844413
20
19.7290827935
30
0.0000000000
10
-59.8951844413
20
19.6895634718
30
0.0000000000
10
-59.8943333510
20
19.6191031457
30
0.0000000000
10
-59.9027130223
20
19.5384101411
30
0.0000000000
10
-59.9001733394
20
19.4916716175
30
0.0000000000
10
-59.9071444763
20
19.4800341190
30
0.0000000000
11
-59.8951844413
21
19.7290827935
31
0.0000000000
11
-59.8967511418
21
19.6105351805
31
0.0000000000
11
-59.9010814772
21
19.5202770455
31
0.0000000000
11
-59.9071444763
21
19.4800341190
31
0.0000000000
0
SPLINE
5
306
100
AcDbEntity
8
0
100
AcDbSpline
62
9
6
CONTINUOUS
70
0
71
3
72
10
73
6
74
4
42
0.0000001000
43
0.0000001000
44
0.0000000001
12
0.0000000000
22
0.4658096616
32
0.0000000000
13
-0.4658096616
23
0.0000000000
33
0.0000000000
40
0.0000000000
40
0.0000000000
40
0.0000000000
40
0.0000000000
40
0.3333555767
40
0.6666449332
40
1.0000000000
40
1.0000000000
40
1.0000000000
40
1.0000000000
10
33.7500000002
20
46.4500456915
30
0.0000000000
10
33.7500000002
20
46.5018057742
30
0.0000000000
10
33.7218865076
20
46.6073052302
30
0.0000000000
10
33.6073050634
20
46.7218865769
30
0.0000000000
10
33.5018056952
20
46.7500000000
30
0.0000000000
10
33.4500456916
20
46.7500000000
30
0.0000000000
11
33.7500000002
21
46.4500456915
31
0.0000000000
11
33.7098134057
21
46.6000356683
31
0.0000000000
11
33.6000354555
21
46.7098135285
31
0.0000000000
11
33.4500456916
21
46.7500000000
31
0.0000000000
0
SPLINE
5
307
100
AcDbEntity
8
0
100
AcDbSpline
62
9
6
CONTINUOUS
70
0
71
3
72
9
73
5
74
3
42
0.0000001000
43
0.0000001000
44
0.0000000001
12
-0.2593337177
22
0.0000000000
32
0.0000000000
13
-0.1681796988
23
-0.2011820879
33
0.0000000000
40
0.0000000000
40
0.0000000000
40
0.0000000000
40
0.0000000000
40
0.5987652211
40
1.0000000000
40
1.0000000000
40
1.0000000000
40
1.0000000000
10
-33.4500456913
20
46.7500000000
30
0.0000000000
10
-33.5018056949
20
46.7500000000
30
0.0000000000
10
-33.5899118201
20
46.7265215203
30
0.0000000000
10
-33.6577122132
20
46.6693760641
30
0.0000000000
10
-33.6802053947
20
46.6424689806
30
0.0000000000
11
-33.4500456913
21
46.7500000000
31
0.0000000000
11
-33.6000354551
21
46.7098135285
31
0.0000000000
11
-33.6802053947
21
46.6424689806
31
0.0000000000
0
SPLINE
5
308
100
AcDbEntity
8
0
100
AcDbSpline
62
9
6
CONTINUOUS
70
0
71
3
72
9
73
5
74
3
42
0.0000001000
43
0.0000001000
44
0.0000000001
12
-0.1339010691
22
-0.1601768634
32
0.0000000000
13
0.0000000000
23
-0.2064759438
33
0.0000000000
40
0.0000000000
40
0.0000000000
40
0.0000000000
40
0.0000000000
40
0.2479499282
40
1.0000000000
40
1.0000000000
40
1.0000000000
40
1.0000000000
10
-33.6802053947
20
46.6424689806
30
0.0000000000
10
-33.6912723148
20
46.6292303667
30
0.0000000000
10
-33.7313069059
20
46.5719539862
30
0.0000000000
10
-33.7499999998
20
46.5018057742
30
0.0000000000
10
-33.7499999998
20
46.4500456915
30
0.0000000000
11
-33.6802053947
21
46.6424689806
31
0.0000000000
11
-33.7098134053
21
46.6000356683
31
0.0000000000
11
-33.7499999998
21
46.4500456915
31
0.0000000000
0
SPLINE
5
309
100
AcDbEntity
8
0
100
AcDbSpline
62
9
6
CONTINUOUS
70
0
71
3
72
13
73
9
74
7
42
0.0000001000
43
0.0000001000
44
0.0000000001
12
0.4340981653
22
0.8696769693
32
0.0000000000
13
0.4864996737
23
0.8414851843
33
0.0000000000
40
0.0000000000
40
0.0000000000
40
0.0000000000
40
0.0000000000
40
0.1050201361
40
0.2376325363
40
0.3927779681
40
0.5705249074
40
0.7727638833
40
1.0000000000
40
1.0000000000
40
1.0000000000
40
1.0000000000
10
33.8339512675
20
-1.7680940775
30
0.0000000000
10
33.8491476170
20
-1.7376495462
30
0.0000000000
10
33.8851724409
20
-1.6695861483
30
0.0000000000
10
33.9469215494
20
-1.5583112021
30
0.0000000000
10
34.0214851296
20
-1.4272055910
30
0.0000000000
10
34.1079693998
20
-1.2769333546
30
0.0000000000
10
34.2063106275
20
-1.1065354431
30
0.0000000000
10
34.2756687246
20
-0.9859033546
30
0.0000000000
10
34.3125188235
20
-0.9221647461
30
0.0000000000
11
33.8339512675
21
-1.7680940775
31
0.0000000000
11
33.8812499712
21
-1.6776340349
31
0.0000000000
11
33.9435604092
21
-1.5647963499
31
0.0000000000
11
34.0179686450
21
-1.4336309956
31
0.0000000000
11
34.1040393923
21
-1.2838272644
31
0.0000000000
11
34.2022186922
21
-1.1135249851
31
0.0000000000
11
34.3125188235
21
-0.9221647461
31
0.0000000000
0
SPLINE
5
30A
100
AcDbEntity
8
0
100
AcDbSpline
62
9
6
CONTINUOUS
70
0
71
3
72
14
73
10
74
8
42
0.0000001000
43
0.0000001000
44
0.0000000001
12
0.3992446149
22
0.7602879846
32
0.0000000000
13
0.3557951155
23
0.7815650439
33
0.0000000000
40
0.0000000000
40
0.0000000000
40
0.0000000000
40
0.0000000000
40
0.1877730436
40
0.3520816013
40
0.4981973840
40
0.6313749366
40
0.7565796212
40
0.8783642344
40
1.0000000000
40
1.0000000000
40
1.0000000000
40
1.0000000000
10
-34.3020497392
20
-48.6700808889
30
0.0000000000
10
-34.2770606137
20
-48.6224936926
30
0.0000000000
10
-34.2309689729
20
-48.5328665551
30
0.0000000000
10
-34.1659699834
20
-48.4059343616
30
0.0000000000
10
-34.1083297828
20
-48.2927905559
30
0.0000000000
10
-34.0562966513
20
-48.1893539431
30
0.0000000000
10
-34.0080533709
20
-48.0918092580
30
0.0000000000
10
-33.9621653820
20
-47.9967901906
30
0.0000000000
10
-33.9326835890
20
-47.9336522552
30
0.0000000000
10
-33.9182577852
20
-47.9019635010
30
0.0000000000
11
-34.3020497392
21
-48.6700808889
31
0.0000000000
11
-34.2279416047
21
-48.5268713809
31
0.0000000000
11
-34.1636426322
21
-48.4012753107
31
0.0000000000
11
-34.1067480418
21
-48.2894402002
31
0.0000000000
11
-34.0553902178
21
-48.1872555785
31
0.0000000000
11
-34.0077727109
21
-48.0908566843
31
0.0000000000
11
-33.9623521520
21
-47.9966536030
31
0.0000000000
11
-33.9182577852
21
-47.9019635010
31
0.0000000000
0
SPLINE
5
30B
100
AcDbEntity
8
0
100
AcDbSpline
62
9
6
CONTINUOUS
70
0
71
3
72
11
73
7
74
5
42
0.0000001000
43
0.0000001000
44
0.0000000001
12
0.3043811437
22
0.6681934255
32
0.0000000000
13
0.0054529275
23
0.7342347037
33
0.0000000000
40
0.0000000000
40
0.0000000000
40
0.0000000000
40
0.0000000000
40
0.2115582430
40
0.4448250911
40
0.7061540309
40
1.0000000000
40
1.0000000000
40
1.0000000000
40
1.0000000000
10
-33.9182577852
20
-47.9019635010
30
0.0000000000
10
-33.8967930052
20
-47.8548428920
30
0.0000000000
10
-33.8585475987
20
-47.7525705296
30
0.0000000000
10
-33.8159161990
20
-47.5847988751
30
0.0000000000
10
-33.7869008584
20
-47.3937297981
30
0.0000000000
10
-33.7794044926
20
-47.2578006625
30
0.0000000000
10
-33.7788703856
20
-47.1858833598
30
0.0000000000
11
-33.9182577852
21
-47.9019635010
31
0.0000000000
11
-33.8629905960
21
-47.7567900359
31
0.0000000000
11
-33.8202034601
21
-47.5909431558
31
0.0000000000
11
-33.7909634511
21
-47.4013020476
31
0.0000000000
11
-33.7788703856
21
-47.1858833598
31
0.0000000000
0
SPLINE
5
30C
100
AcDbEntity
8
0
100
AcDbSpline
62
9
6
CONTINUOUS
70
0
71
3
72
15
73
11
74
9
42
0.0000001000
43
0.0000001000
44
0.0000000001
12
0.4891902660
22
-0.8399262264
32
0.0000000000
13
0.4344865109
23
-0.8694852811
33
0.0000000000
40
0.0000000000
40
0.0000000000
40
0.0000000000
40
0.0000000000
40
0.1770984543
40
0.3322061140
40
0.4687138718
40
0.5908402663
40
0.7027240564
40
0.8079748006
40
0.9078965688
40
1.0000000000
40
1.0000000000
40
1.0000000000
40
1.0000000000
10
-34.3125188232
20
-0.9221659023
30
0.0000000000
10
-34.2836405432
20
-0.9717491144
30
0.0000000000
10
-34.2301197901
20
-1.0651354649
30
0.0000000000
10
-34.1542838585
20
-1.1967077383
30
0.0000000000
10
-34.0872934677
20
-1.3128211235
30
0.0000000000
10
-34.0274699157
20
-1.4169011054
30
0.0000000000
10
-33.9730087007
20
-1.5123815909
30
0.0000000000
10
-33.9226303698
20
-1.6019081885
30
0.0000000000
10
-33.8762457616
20
-1.6863214736
30
0.0000000000
10
-33.8472898739
20
-1.7414011392
30
0.0000000000
10
-33.8339506411
20
-1.7680953318
30
0.0000000000
11
-34.3125188232
21
-0.9221659023
31
0.0000000000
11
-34.2265118948
21
-1.0712794768
31
0.0000000000
11
-34.1512647604
21
-1.2019233720
31
0.0000000000
11
-34.0849976594
21
-1.3168760091
31
0.0000000000
11
-34.0258754438
21
-1.4198122463
31
0.0000000000
11
-33.9720381656
21
-1.5143020702
31
0.0000000000
11
-33.9219381424
21
-1.6034986533
31
0.0000000000
11
-33.8752983056
21
-1.6886912633
31
0.0000000000
11
-33.8339506411
21
-1.7680953318
31
0.0000000000
0
SPLINE
5
30D
100
AcDbEntity
8
0
100
AcDbSpline
62
9
6
CONTINUOUS
70
0
71
3
72
9
73
5
74
3
42
0.0000001000
43
0.0000001000
44
0.0000000001
12
0.0857825962
22
-0.1718707910
32
0.0000000000
13
0.0039128407
23
-0.1920492444
33
0.0000000000
40
0.0000000000
40
0.0000000000
40
0.0000000000
40
0.0000000000
40
0.4349532744
40
1.0000000000
40
1.0000000000
40
1.0000000000
40
1.0000000000
10
-33.8339506411
20
-1.7680953318
30
0.0000000000
10
-33.8215135007
20
-1.7930139196
30
0.0000000000
10
-33.7982196206
20
-1.8530843285
30
0.0000000000
10
-33.7888230099
20
-1.9172576835
30
0.0000000000
10
-33.7880860306
20
-1.9534299491
30
0.0000000000
11
-33.8339506411
21
-1.7680953318
31
0.0000000000
11
-33.8038791477
21
-1.8460457749
31
0.0000000000
11
-33.7880860306
21
-1.9534299491
31
0.0000000000
0
SPLINE
5
30E
100
AcDbEntity
8
0
100
AcDbSpline
62
9
6
CONTINUOUS
70
0
71
3
72
10
73
6
74
4
42
0.0000001000
43
0.0000001000
44
0.0000000001
12
-67.3063423752
22
4.3356262229
32
0.0000000000
13
-67.3063449541
23
-4.3355861876
33
0.0000000000
40
0.0000000000
40
0.0000000000
40
0.0000000000
40
0.0000000000
40
0.3333161678
40
0.6666935617
40
1.0000000000
40
1.0000000000
40
1.0000000000
40
1.0000000000
10
33.7022787799
20
48.0836711634
30
0.0000000000
10
26.2241814098
20
48.5653826026
30
0.0000000000
10
11.2438425743
20
49.2073693447
30
0.0000000000
10
-11.2442780367
20
49.2073509415
30
0.0000000000
10
-26.2243971588
20
48.5653609377
30
0.0000000000
10
-33.7022765283
20
48.0836680077
30
0.0000000000
11
33.7022787799
21
48.0836711634
31
0.0000000000
11
11.2421322695
21
49.0468401125
31
0.0000000000
11
-11.2427862130
21
49.0468223416
31
0.0000000000
11
-33.7022765283
21
48.0836680077
31
0.0000000000
0
SPLINE
5
30F
100
AcDbEntity
8
0
100
AcDbSpline
62
9
6
CONTINUOUS
70
0
71
3
72
8
73
4
74
2
42
0.0000001000
43
0.0000001000
44
0.0000000001
12
0.0016030939
22
0.1313097089
32
0.0000000000
13
0.0136273066
23
0.1306707592
33
0.0000000000
40
0.0000000000
40
0.0000000000
40
0.0000000000
40
0.0000000000
40
1.0000000000
40
1.0000000000
40
1.0000000000
40
1.0000000000
10
33.4789160876
20
47.3579571174
30
0.0000000000
10
33.4794504523
20
47.4017270204
30
0.0000000000
10
33.4819809793
20
47.4454991608
30
0.0000000000
10
33.4865234149
20
47.4890560805
30
0.0000000000
11
33.4789160876
21
47.3579571174
31
0.0000000000
11
33.4865234149
21
47.4890560805
31
0.0000000000
0
SPLINE
5
310
100
AcDbEntity
8
0
100
AcDbSpline
62
9
6
CONTINUOUS
70
0
71
3
72
12
73
8
74
6
42
0.0000001000
43
0.0000001000
44
0.0000000001
12
0.0663417316
22
0.6361436422
32
0.0000000000
13
0.3730528640
23
0.5191709234
33
0.0000000000
40
0.0000000000
40
0.0000000000
40
0.0000000000
40
0.0000000000
40
0.2064928483
40
0.4117430542
40
0.6137070950
40
0.8104656303
40
1.0000000000
40
1.0000000000
40
1.0000000000
40
1.0000000000
10
33.4865234149
20
47.4890560805
30
0.0000000000
10
33.4910897792
20
47.5328424514
30
0.0000000000
10
33.5042491153
20
47.6197180140
30
0.0000000000
10
33.5361567363
20
47.7467639402
30
0.0000000000
10
33.5798908569
20
47.8680555447
30
0.0000000000
10
33.6346533552
20
47.9810779767
30
0.0000000000
10
33.6787100001
20
48.0508709188
30
0.0000000000
10
33.7022787799
20
48.0836711634
30
0.0000000000
11
33.4865234149
21
47.4890560805
31
0.0000000000
11
33.5063632573
21
47.6195679756
31
0.0000000000
11
33.5384400158
21
47.7468037451
31
0.0000000000
11
33.5823835755
21
47.8682117448
31
0.0000000000
11
33.6374261667
21
47.9813177101
31
0.0000000000
11
33.7022787799
21
48.0836711634
31
0.0000000000
0
SPLINE
5
311
100
AcDbEntity
8
0
100
AcDbSpline
62
9
6
CONTINUOUS
70
0
71
3
72
10
73
6
74
4
42
0.0000001000
43
0.0000001000
44
0.0000000001
12
-68.6056904184
22
1.9421257079
32
0.0000000000
13
-68.6056907807
23
-1.9421129085
33
0.0000000000
40
0.0000000000
40
0.0000000000
40
0.0000000000
40
0.0000000000
40
0.3332500990
40
0.6666082804
40
1.0000000000
40
1.0000000000
40
1.0000000000
40
1.0000000000
10
34.3125188235
20
-0.9221647461
30
0.0000000000
10
26.6915677833
20
-0.7064268847
30
0.0000000000
10
11.4427125485
20
-0.4188304623
30
0.0000000000
10
-11.4362299547
20
-0.4187898087
30
0.0000000000
10
-26.6883290807
20
-0.7062489014
30
0.0000000000
10
-34.3125188230
20
-0.9220770221
30
0.0000000000
11
34.3125188235
21
-0.9221647461
31
0.0000000000
11
11.4445758421
21
-0.4907461121
31
0.0000000000
11
-11.4348543153
21
-0.4906541294
31
0.0000000000
11
-34.3125188230
21
-0.9220770221
31
0.0000000000
0
SPLINE
5
312
100
AcDbEntity
8
0
100
AcDbSpline
62
9
6
CONTINUOUS
70
0
71
3
72
10
73
6
74
4
42
0.0000001000
43
0.0000001000
44
0.0000000001
12
68.6056891341
22
-1.9421128868
32
0.0000000000
13
68.6056887802
23
1.9421253883
33
0.0000000000
40
0.0000000000
40
0.0000000000
40
0.0000000000
40
0.0000000000
40
0.3333450764
40
0.6666566007
40
1.0000000000
40
1.0000000000
40
1.0000000000
40
1.0000000000
10
-34.3125188229
20
0.9220771346
30
0.0000000000
10
-26.6893959274
20
0.7062792118
30
0.0000000000
10
-11.4394318733
20
0.4188283964
30
0.0000000000
10
11.4395085987
20
0.4188310095
30
0.0000000000
10
26.6894343195
20
0.7062791249
30
0.0000000000
10
34.3125188234
20
0.9220773512
30
0.0000000000
11
-34.3125188229
21
0.9220771346
31
0.0000000000
11
-11.4380561398
21
0.4906843024
31
0.0000000000
11
11.4381712410
21
0.4906857310
31
0.0000000000
11
34.3125188234
21
0.9220773512
31
0.0000000000
0
SPLINE
5
313
100
AcDbEntity
8
0
100
AcDbSpline
62
9
6
CONTINUOUS
70
0
71
3
72
10
73
6
74
4
42
0.0000001000
43
0.0000001000
44
0.0000000001
12
0.0000569123
22
37.6260930570
32
0.0000000000
13
-2.2182099618
23
37.5606499318
33
0.0000000000
40
0.0000000000
40
0.0000000000
40
0.0000000000
40
0.0000000000
40
0.3333367549
40
0.6667785563
40
1.0000000000
40
1.0000000000
40
1.0000000000
40
1.0000000000
10
58.5914548942
20
24.2500000552
30
0.0000000000
10
58.5914612179
20
28.4307199749
30
0.0000000000
10
58.5091954312
20
36.7937194613
30
0.0000000000
10
58.1392549020
20
49.3310216844
30
0.0000000000
10
57.7283131993
20
57.6828749473
30
0.0000000000
10
57.4819281573
20
61.8548796133
30
0.0000000000
11
58.5914548942
21
24.2500000552
31
0.0000000000
11
58.4681206845
21
36.7915533920
31
0.0000000000
11
58.0980672347
21
49.3322070018
31
0.0000000000
11
57.4819281573
21
61.8548796133
31
0.0000000000
0
SPLINE
5
314
100
AcDbEntity
8
0
100
AcDbSpline
62
9
6
CONTINUOUS
70
0
71
3
72
10
73
6
74
4
42
0.0000001000
43
0.0000001000
44
0.0000000001
12
-68.5007147053
22
4.4876463940
32
0.0000000000
13
-68.5007173548
23
-4.4876059516
33
0.0000000000
40
0.0000000000
40
0.0000000000
40
0.0000000000
40
0.0000000000
40
0.3332837290
40
0.6667167376
40
1.0000000000
40
1.0000000000
40
1.0000000000
40
1.0000000000
10
34.3020497102
20
48.6700834951
30
0.0000000000
10
26.6919918323
20
49.1686366699
30
0.0000000000
10
11.4444989195
20
49.8331708667
30
0.0000000000
10
-11.4445203279
20
49.8331655511
30
0.0000000000
10
-26.6920022011
20
49.1686288093
30
0.0000000000
10
-34.3020497198
20
48.6700808254
30
0.0000000000
11
34.3020497102
21
48.6700834951
31
0.0000000000
11
11.4446644976
21
49.6669620280
31
0.0000000000
11
-11.4446964908
21
49.6669576145
31
0.0000000000
11
-34.3020497198
21
48.6700808254
31
0.0000000000
0
SPLINE
5
315
100
AcDbEntity
8
0
100
AcDbSpline
62
9
6
CONTINUOUS
70
0
71
3
72
10
73
6
74
4
42
0.0000001000
43
0.0000001000
44
0.0000000001
12
2.2191362111
22
37.5459350523
32
0.0000000000
13
-0.0000683466
23
37.6114584199
33
0.0000000000
40
0.0000000000
40
0.0000000000
40
0.0000000000
40
0.0000000000
40
0.3332200171
40
0.6666632168
40
1.0000000000
40
1.0000000000
40
1.0000000000
40
1.0000000000
10
58.5795614307
20
-61.8400614572
30
0.0000000000
10
58.8260482994
20
-57.6697090842
30
0.0000000000
10
59.2371525231
20
-49.3211196025
30
0.0000000000
10
59.6072656752
20
-36.7887015768
30
0.0000000000
10
59.6895180201
20
-28.4289361037
30
0.0000000000
10
59.6895104260
20
-24.2498419161
30
0.0000000000
11
58.5795614307
21
-61.8400614572
31
0.0000000000
11
59.1959515534
21
-49.3223374052
31
0.0000000000
11
59.5661590068
21
-36.7865176512
31
0.0000000000
11
59.6895104260
21
-24.2498419161
31
0.0000000000
0
SPLINE
5
316
100
AcDbEntity
8
0
100
AcDbSpline
62
9
6
CONTINUOUS
70
0
71
3
72
10
73
6
74
4
42
0.0000001000
43
0.0000001000
44
0.0000000001
12
0.2273359848
22
-0.2297557919
32
0.0000000000
13
0.2273196928
23
-0.2297719112
33
0.0000000000
40
0.0000000000
40
0.0000000000
40
0.0000000000
40
0.0000000000
40
0.3334523092
40
0.6667514854
40
1.0000000000
40
1.0000000000
40
1.0000000000
40
1.0000000000
10
58.5795614307
20
-61.8400614572
30
0.0000000000
10
58.6048300004
20
-61.8655989903
30
0.0000000000
10
58.6553159840
20
-61.9167014496
30
0.0000000000
10
58.7311078554
20
-61.9932736486
30
0.0000000000
10
58.7816113921
20
-62.0443278642
30
0.0000000000
10
58.8068627087
20
-62.0698515803
30
0.0000000000
11
58.5795614307
21
-61.8400614572
31
0.0000000000
11
58.6553396745
21
-61.9167012229
31
0.0000000000
11
58.7311078545
21
-61.9932813268
31
0.0000000000
11
58.8068627087
21
-62.0698515803
31
0.0000000000
0
SPLINE
5
317
100
AcDbEntity
8
0
100
AcDbSpline
62
9
6
CONTINUOUS
70
0
71
3
72
10
73
6
74
4
42
0.0000001000
43
0.0000001000
44
0.0000000001
12
-2.2182140430
22
-37.5606497611
32
0.0000000000
13
0.0000586334
23
-37.6260931272
33
0.0000000000
40
0.0000000000
40
0.0000000000
40
0.0000000000
40
0.0000000000
40
0.3332197792
40
0.6666596480
40
1.0000000000
40
1.0000000000
40
1.0000000000
40
1.0000000000
10
-57.4819281569
20
61.8548796131
30
0.0000000000
10
-57.7283124215
20
57.6828958063
30
0.0000000000
10
-58.1392516330
20
49.3310875762
30
0.0000000000
10
-58.5091943758
20
36.7937854185
30
0.0000000000
10
-58.5914614089
20
28.4307650273
30
0.0000000000
10
-58.5914548939
20
24.2499999851
30
0.0000000000
11
-57.4819281569
21
61.8548796131
31
0.0000000000
11
-58.0980647567
21
49.3322695616
31
0.0000000000
11
-58.4681180542
21
36.7916886701
31
0.0000000000
11
-58.5914548939
21
24.2499999851
31
0.0000000000
0
SPLINE
5
318
100
AcDbEntity
8
0
100
AcDbSpline
62
9
6
CONTINUOUS
70
0
71
3
72
10
73
6
74
4
42
0.0000001000
43
0.0000001000
44
0.0000000001
12
-0.2282649788
22
-0.2291711027
32
0.0000000000
13
-0.2282483973
23
-0.2291876175
33
0.0000000000
40
0.0000000000
40
0.0000000000
40
0.0000000000
40
0.0000000000
40
0.3334544997
40
0.6667525652
40
1.0000000000
40
1.0000000000
40
1.0000000000
40
1.0000000000
10
-56.2279164583
20
-64.1759247514
30
0.0000000000
10
-56.2532884531
20
-64.2013974632
30
0.0000000000
10
-56.3040600921
20
-64.2522915275
30
0.0000000000
10
-56.3801292292
20
-64.3287010137
30
0.0000000000
10
-56.4308461393
20
-64.3796180918
30
0.0000000000
10
-56.4562005369
20
-64.4050768204
30
0.0000000000
11
-56.2279164583
21
-64.1759247514
31
0.0000000000
11
-56.3040589114
21
-64.2523165136
31
0.0000000000
11
-56.3801364234
21
-64.3287015516
31
0.0000000000
11
-56.4562005369
21
-64.4050768204
31
0.0000000000
0
SPLINE
5
319
100
AcDbEntity
8
0
100
AcDbSpline
62
9
6
CONTINUOUS
70
0
71
3
72
10
73
6
74
4
42
0.0000001000
43
0.0000001000
44
0.0000000001
12
0.2282406117
22
-0.2291466351
32
0.0000000000
13
0.2282240301
23
-0.2291631500
33
0.0000000000
40
0.0000000000
40
0.0000000000
40
0.0000000000
40
0.0000000000
40
0.3333842432
40
0.6667174393
40
1.0000000000
40
1.0000000000
40
1.0000000000
40
1.0000000000
10
56.2279681181
20
-64.1759220255
30
0.0000000000
10
56.2533320593
20
-64.2013866513
30
0.0000000000
10
56.3040555894
20
-64.2523124707
30
0.0000000000
10
56.3801329691
20
-64.3286974954
30
0.0000000000
10
56.4308461742
20
-64.3796181266
30
0.0000000000
10
56.4562005373
20
-64.4050768204
30
0.0000000000
11
56.2279681181
21
-64.1759220255
31
0.0000000000
11
56.3040591194
21
-64.2523167221
31
0.0000000000
11
56.3801365275
21
-64.3287016558
31
0.0000000000
11
56.4562005373
21
-64.4050768204
31
0.0000000000
0
SPLINE
5
31A
100
AcDbEntity
8
0
100
AcDbSpline
62
9
6
CONTINUOUS
70
0
71
3
72
14
73
10
74
8
42
0.0000001000
43
0.0000001000
44
0.0000000001
12
112.3523789269
22
-5.8773191182
32
0.0000000000
13
112.3523788094
23
5.8773213643
33
0.0000000000
40
0.0000000000
40
0.0000000000
40
0.0000000000
40
0.0000000000
40
0.1130704863
40
0.2559940546
40
0.4165275709
40
0.5829690212
40
0.7435983975
40
0.8867373677
40
1.0000000000
40
1.0000000000
40
1.0000000000
40
1.0000000000
10
-56.2279164583
20
-64.1759247514
30
0.0000000000
10
-51.9933370828
20
-64.3974418618
30
0.0000000000
10
-42.4031110502
20
-64.8423420099
30
0.0000000000
10
-26.7904170162
20
-65.3574562950
30
0.0000000000
10
-9.1700279932
20
-65.6591468015
30
0.0000000000
10
9.1170362496
20
-65.6596276612
30
0.0000000000
10
26.7491123684
20
-65.3585760671
30
0.0000000000
10
42.3806935688
20
-64.8433284153
30
0.0000000000
10
51.9861927301
20
-64.3978156549
30
0.0000000000
10
56.2279681181
20
-64.1759220255
30
0.0000000000
11
-56.2279164583
21
-64.1759247514
31
0.0000000000
11
-43.5204745823
21
-64.7654260904
31
0.0000000000
11
-27.4494599951
21
-65.2956493084
31
0.0000000000
11
-9.3911228521
21
-65.6048286446
31
0.0000000000
11
9.3345388764
21
-65.6053210102
31
0.0000000000
11
27.4036739739
21
-65.2968166317
31
0.0000000000
11
43.4989259993
21
-64.7662979800
31
0.0000000000
11
56.2279681181
21
-64.1759220255
31
0.0000000000
0
SPLINE
5
31B
100
AcDbEntity
8
0
100
AcDbSpline
62
9
6
CONTINUOUS
70
0
71
3
72
10
73
6
74
4
42
0.0000001000
43
0.0000001000
44
0.0000000001
12
-0.2273128195
22
-0.2297323861
32
0.0000000000
13
-0.2272965322
23
-0.2297485006
33
0.0000000000
40
0.0000000000
40
0.0000000000
40
0.0000000000
40
0.0000000000
40
0.3333852283
40
0.6667179477
40
1.0000000000
40
1.0000000000
40
1.0000000000
40
1.0000000000
10
-58.5795584904
20
-61.8401106837
30
0.0000000000
10
-58.6048194025
20
-61.8656404783
30
0.0000000000
10
-58.6553359746
20
-61.9166973066
30
0.0000000000
10
-58.7311044729
20
-61.9932771844
30
0.0000000000
10
-58.7816114235
20
-62.0443278963
30
0.0000000000
10
-58.8068627084
20
-62.0698515803
30
0.0000000000
11
-58.5795584904
21
-61.8401106837
31
0.0000000000
11
-58.6553398645
21
-61.9167014153
31
0.0000000000
11
-58.7311079494
21
-61.9932814231
31
0.0000000000
11
-58.8068627084
21
-62.0698515803
31
0.0000000000
0
SPLINE
5
31C
100
AcDbEntity
8
0
100
AcDbSpline
62
9
6
CONTINUOUS
70
0
71
3
72
10
73
6
74
4
42
0.0000001000
43
0.0000001000
44
0.0000000001
12
-0.0000683552
22
-37.6115074568
32
0.0000000000
13
2.2191386217
23
-37.5459840323
33
0.0000000000
40
0.0000000000
40
0.0000000000
40
0.0000000000
40
0.0000000000
40
0.3333327587
40
0.6667772977
40
1.0000000000
40
1.0000000000
40
1.0000000000
40
1.0000000000
10
-59.6895104259
20
-24.2498421907
30
0.0000000000
10
-59.6895180209
20
-28.4288913706
30
0.0000000000
10
-59.6072667319
20
-36.7886340662
30
0.0000000000
10
-59.2371553199
20
-49.3210685143
30
0.0000000000
10
-58.8260476132
20
-57.6697192633
30
0.0000000000
10
-58.5795584904
20
-61.8401106837
30
0.0000000000
11
-59.6895104259
21
-24.2498421907
31
0.0000000000
11
-59.5661616612
21
-36.7863829222
31
0.0000000000
11
-59.1959542261
21
-49.3222694290
31
0.0000000000
11
-58.5795584904
21
-61.8401106837
31
0.0000000000
0
SPLINE
5
31D
100
AcDbEntity
8
0
100
AcDbSpline
62
9
6
CONTINUOUS
70
0
71
3
72
15
73
11
74
9
42
0.0000001000
43
0.0000001000
44
0.0000000001
12
-1.8857198884
22
-0.0987273220
32
0.0000000000
13
-0.1113910936
23
-1.8850142190
33
0.0000000000
40
0.0000000000
40
0.0000000000
40
0.0000000000
40
0.0000000000
40
0.0920802262
40
0.1946564014
40
0.3082207307
40
0.4320341411
40
0.5649031640
40
0.7050704273
40
0.8468039052
40
1.0000000000
40
1.0000000000
40
1.0000000000
40
1.0000000000
10
-56.2568435842
20
63.0722416369
30
0.0000000000
10
-56.3147227555
20
63.0692113589
30
0.0000000000
10
-56.4368006567
20
63.0546346770
30
0.0000000000
10
-56.6249436981
20
63.0045280982
30
0.0000000000
10
-56.8214189594
20
62.9172934423
30
0.0000000000
10
-57.0159250128
20
62.7866131806
30
0.0000000000
10
-57.1946680333
20
62.6098677734
30
0.0000000000
10
-57.3411157833
20
62.3914722691
30
0.0000000000
10
-57.4445806136
20
62.1359257484
30
0.0000000000
10
-57.4762399301
20
61.9511385521
30
0.0000000000
10
-57.4819281569
20
61.8548796131
30
0.0000000000
11
-56.2568435842
21
63.0722416369
31
0.0000000000
11
-56.4294894931
21
63.0516013940
31
0.0000000000
11
-56.6166556932
21
63.0017364730
31
0.0000000000
11
-56.8126374746
21
62.9146888374
31
0.0000000000
11
-57.0066922938
21
62.7842900305
31
0.0000000000
11
-57.1850881027
21
62.6078695148
31
0.0000000000
11
-57.3325280943
21
62.3880605069
31
0.0000000000
11
-57.4329694347
21
62.1399871311
31
0.0000000000
11
-57.4819281569
21
61.8548796131
31
0.0000000000
0
SPLINE
5
31E
100
AcDbEntity
8
0
100
AcDbSpline
62
9
6
CONTINUOUS
70
0
71
3
72
14
73
10
74
8
42
0.0000001000
43
0.0000001000
44
0.0000000001
12
-112.4100236896
22
5.8833040127
32
0.0000000000
13
-112.4100237517
23
-5.8833028250
33
0.0000000000
40
0.0000000000
40
0.0000000000
40
0.0000000000
40
0.0000000000
40
0.1131425284
40
0.2561397987
40
0.4167329981
40
0.5832048244
40
0.7438205986
40
0.8868868498
40
1.0000000000
40
1.0000000000
40
1.0000000000
40
1.0000000000
10
56.2568435846
20
63.0722416372
30
0.0000000000
10
52.0173921517
20
63.2941256010
30
0.0000000000
10
42.4167778367
20
63.7396969993
30
0.0000000000
10
26.7883493809
20
64.2554121649
30
0.0000000000
10
9.1527472160
20
64.5571914508
30
0.0000000000
10
-9.1465950113
20
64.5572508559
30
0.0000000000
10
-26.7856339123
20
64.2555065486
30
0.0000000000
10
-42.4163951178
20
63.7397228130
30
0.0000000000
10
-52.0184929516
20
63.2940679422
30
0.0000000000
10
-56.2568435842
20
63.0722416369
30
0.0000000000
11
56.2568435846
21
63.0722416372
31
0.0000000000
11
43.5347753311
21
63.6626718753
31
0.0000000000
11
27.4472041154
21
64.1935257805
31
0.0000000000
11
9.3728566564
21
64.5028032492
31
0.0000000000
11
-9.3658577265
21
64.5028640921
31
0.0000000000
11
-27.4427475687
21
64.1936392557
31
0.0000000000
11
-43.5380796023
21
63.6625379410
31
0.0000000000
11
-56.2568435842
21
63.0722416369
31
0.0000000000
0
SPLINE
5
31F
100
AcDbEntity
8
0
100
AcDbSpline
62
9
6
CONTINUOUS
70
0
71
3
72
15
73
11
74
9
42
0.0000001000
43
0.0000001000
44
0.0000000001
12
-0.1113565417
22
1.8850153158
32
0.0000000000
13
-1.8857170045
23
0.0987643624
33
0.0000000000
40
0.0000000000
40
0.0000000000
40
0.0000000000
40
0.0000000000
40
0.0921182690
40
0.1947242339
40
0.3083012986
40
0.4321045618
40
0.5649353864
40
0.7050427962
40
0.8468228562
40
1.0000000000
40
1.0000000000
40
1.0000000000
40
1.0000000000
10
57.4819281573
20
61.8548796133
30
0.0000000000
10
57.4785088334
20
61.9127610626
30
0.0000000000
10
57.4631161410
20
62.0347812002
30
0.0000000000
10
57.4117696885
20
62.2226411148
30
0.0000000000
10
57.3232719782
20
62.4185713756
30
0.0000000000
10
57.1913867575
20
62.6122331721
30
0.0000000000
10
57.0135870600
20
62.7898290403
30
0.0000000000
10
56.7943193012
20
62.9349082308
30
0.0000000000
10
56.5381388100
20
63.0367517657
30
0.0000000000
10
56.3531264996
20
63.0671988228
30
0.0000000000
10
56.2568435846
20
63.0722416372
30
0.0000000000
11
57.4819281573
21
61.8548796133
31
0.0000000000
11
57.4601321690
21
62.0274557428
31
0.0000000000
11
57.4090312412
21
62.2143464839
31
0.0000000000
11
57.3207199617
21
62.4097883834
31
0.0000000000
11
57.1891137145
21
62.6030030401
31
0.0000000000
11
57.0116399590
21
62.7802488498
31
0.0000000000
11
56.7910171392
21
62.9262633583
31
0.0000000000
11
56.5422315607
21
63.0251654193
31
0.0000000000
11
56.2568435846
21
63.0722416372
31
0.0000000000
0
SPLINE
5
320
100
AcDbEntity
8
0
100
AcDbSpline
62
9
6
CONTINUOUS
70
0
71
3
72
9
73
5
74
3
42
0.0000001000
43
0.0000001000
44
0.0000000001
12
0.0991926863
22
-0.1242429764
32
0.0000000000
13
0.0300562015
23
-0.1561157614
33
0.0000000000
40
0.0000000000
40
0.0000000000
40
0.0000000000
40
0.0000000000
40
0.5032902681
40
1.0000000000
40
1.0000000000
40
1.0000000000
40
1.0000000000
10
-33.5615151273
20
-1.5082876634
30
0.0000000000
10
-33.5448742228
20
-1.5291310904
30
0.0000000000
10
-33.5156313957
20
-1.5738478375
30
0.0000000000
10
-33.4979258817
20
-1.6245874014
30
0.0000000000
10
-33.4929494792
20
-1.6504354741
30
0.0000000000
11
-33.5615151273
21
-1.5082876634
31
0.0000000000
11
-33.5183613763
21
-1.5756676837
31
0.0000000000
11
-33.4929494792
21
-1.6504354741
31
0.0000000000
0
SPLINE
5
321
100
AcDbEntity
8
0
100
AcDbSpline
62
9
6
CONTINUOUS
70
0
71
3
72
9
73
5
74
3
42
0.0000001000
43
0.0000001000
44
0.0000000001
12
0.0301844573
22
0.1561040453
32
0.0000000000
13
0.0992123966
23
0.1242436107
33
0.0000000000
40
0.0000000000
40
0.0000000000
40
0.0000000000
40
0.0000000000
40
0.4630834853
40
1.0000000000
40
1.0000000000
40
1.0000000000
40
1.0000000000
10
33.4929494795
20
-1.6504354741
30
0.0000000000
10
33.4976087874
20
-1.6263390723
30
0.0000000000
10
33.5147388042
20
-1.5755139849
30
0.0000000000
10
33.5437626883
20
-1.5305180843
30
0.0000000000
10
33.5615189464
20
-1.5082819355
30
0.0000000000
11
33.4929494795
21
-1.6504354741
31
0.0000000000
11
33.5160246392
21
-1.5805166027
31
0.0000000000
11
33.5615189464
21
-1.5082819355
31
0.0000000000
0
SPLINE
5
322
100
AcDbEntity
8
0
100
AcDbSpline
62
9
6
CONTINUOUS
70
0
71
3
72
10
73
6
74
4
42
0.0000001000
43
0.0000001000
44
0.0000000001
12
-67.1048596554
22
1.8617098675
32
0.0000000000
13
-67.1048599766
23
-1.8616982885
33
0.0000000000
40
0.0000000000
40
0.0000000000
40
0.0000000000
40
0.0000000000
40
0.3333276253
40
0.6666822632
40
1.0000000000
40
1.0000000000
40
1.0000000000
40
1.0000000000
10
33.5615189464
20
-1.5082819355
30
0.0000000000
10
26.1055511082
20
-1.3014288258
30
0.0000000000
10
11.1887996118
20
-1.0257591736
30
0.0000000000
10
-11.1892385348
20
-1.0257601733
30
0.0000000000
10
-26.1057684419
20
-1.3014419767
30
0.0000000000
10
-33.5615151273
20
-1.5082876634
30
0.0000000000
11
33.5615189464
21
-1.5082819355
31
0.0000000000
11
11.1888316493
21
-1.0946823382
31
0.0000000000
11
-11.1894917641
21
-1.0946880874
31
0.0000000000
11
-33.5615151273
21
-1.5082876634
31
0.0000000000
0
SPLINE
5
323
100
AcDbEntity
8
0
100
AcDbSpline
62
9
6
CONTINUOUS
70
0
71
3
72
10
73
6
74
4
42
0.0000001000
43
0.0000001000
44
0.0000000001
12
-0.4495786440
22
0.6246566537
32
0.0000000000
13
-0.0094714834
23
0.7695629819
33
0.0000000000
40
0.0000000000
40
0.0000000000
40
0.0000000000
40
0.0000000000
40
0.2798949213
40
0.6234445039
40
1.0000000000
40
1.0000000000
40
1.0000000000
40
1.0000000000
10
33.7022786401
20
-48.0836709544
30
0.0000000000
10
33.6603337137
20
-48.0253915461
30
0.0000000000
10
33.5808391618
20
-47.8851854750
30
0.0000000000
10
33.5009231372
20
-47.6396634367
30
0.0000000000
10
33.4801049170
20
-47.4545501128
30
0.0000000000
10
33.4789160706
20
-47.3579557226
30
0.0000000000
11
33.7022786401
21
-48.0836709544
31
0.0000000000
11
33.5949361001
21
-47.8969080683
31
0.0000000000
11
33.5119208075
21
-47.6458753180
31
0.0000000000
11
33.4789160706
21
-47.3579557226
31
0.0000000000
0
SPLINE
5
324
100
AcDbEntity
8
0
100
AcDbSpline
62
9
6
CONTINUOUS
70
0
71
3
72
11
73
7
74
5
42
0.0000001000
43
0.0000001000
44
0.0000000001
12
0.4496656907
22
0.6253140688
32
0.0000000000
13
0.0093758500
23
0.7701486944
33
0.0000000000
40
0.0000000000
40
0.0000000000
40
0.0000000000
40
0.0000000000
40
0.2229279531
40
0.4586239631
40
0.7154752704
40
1.0000000000
40
1.0000000000
40
1.0000000000
40
1.0000000000
10
-33.7022767537
20
-48.0836683880
30
0.0000000000
10
-33.6688624031
20
-48.0372017262
30
0.0000000000
10
-33.6082314653
20
-47.9355693825
30
0.0000000000
10
-33.5391511442
20
-47.7646767999
30
0.0000000000
10
-33.4920747581
20
-47.5701037769
30
0.0000000000
10
-33.4798053081
20
-47.4309992645
30
0.0000000000
10
-33.4789160877
20
-47.3579571482
30
0.0000000000
11
-33.7022767537
21
-48.0836683880
31
0.0000000000
11
-33.6137825111
21
-47.9365296969
31
0.0000000000
11
-33.5452506368
21
-47.7684281509
31
0.0000000000
11
-33.4983720223
21
-47.5762343569
31
0.0000000000
11
-33.4789160877
21
-47.3579571482
31
0.0000000000
0
SPLINE
5
325
100
AcDbEntity
8
0
100
AcDbSpline
62
9
6
CONTINUOUS
70
0
71
3
72
9
73
5
74
3
42
0.0000001000
43
0.0000001000
44
0.0000000001
12
29.9122879583
22
-1.9268212349
32
0.0000000000
13
29.9756537688
23
-0.2140694069
33
0.0000000000
40
0.0000000000
40
0.0000000000
40
0.0000000000
40
0.0000000000
40
0.7499817232
40
1.0000000000
40
1.0000000000
40
1.0000000000
40
1.0000000000
10
-33.7022767537
20
-48.0836683880
30
0.0000000000
10
-26.2243869977
20
-48.5653619580
30
0.0000000000
10
-16.2384465400
20
-48.9933200945
30
0.0000000000
10
-6.2470193618
20
-49.1360011836
30
0.0000000000
10
-3.7488655948
20
-49.1538416050
30
0.0000000000
11
-33.7022767537
21
-48.0836683880
31
0.0000000000
11
-11.2427552033
21
-49.0468230010
31
0.0000000000
11
-3.7488655948
21
-49.1538416050
31
0.0000000000
0
SPLINE
5
326
100
AcDbEntity
8
0
100
AcDbSpline
62
9
6
CONTINUOUS
70
0
71
3
72
8
73
4
74
2
42
0.0000001000
43
0.0000001000
44
0.0000000001
12
0.4204981798
22
-0.0030029636
32
0.0000000000
13
0.4205002188
23
-0.0026661342
33
0.0000000000
40
0.0000000000
40
0.0000000000
40
0.0000000000
40
0.0000000000
40
1.0000000000
40
1.0000000000
40
1.0000000000
40
1.0000000000
10
-3.7488655948
20
-49.1538416050
30
0.0000000000
10
-3.6086995348
20
-49.1548425929
30
0.0000000000
10
-3.4685331149
20
-49.1557874425
30
0.0000000000
10
-3.3283663753
20
-49.1566761539
30
0.0000000000
11
-3.7488655948
21
-49.1538416050
31
0.0000000000
11
-3.3283663753
21
-49.1566761539
31
0.0000000000
0
SPLINE
5
327
100
AcDbEntity
8
0
100
AcDbSpline
62
9
6
CONTINUOUS
70
0
71
3
72
8
73
4
74
2
42
0.0000001000
43
0.0000001000
44
0.0000000001
12
0.3469893979
22
-0.0022000472
32
0.0000000000
13
0.3469906357
23
-0.0019706913
33
0.0000000000
40
0.0000000000
40
0.0000000000
40
0.0000000000
40
0.0000000000
40
1.0000000000
40
1.0000000000
40
1.0000000000
40
1.0000000000
10
-3.3283663753
20
-49.1566761539
30
0.0000000000
10
-3.2127032427
20
-49.1574095030
30
0.0000000000
10
-3.0970398924
20
-49.1581046261
30
0.0000000000
10
-2.9813763471
20
-49.1587615231
30
0.0000000000
11
-3.3283663753
21
-49.1566761539
31
0.0000000000
11
-2.9813763471
21
-49.1587615231
31
0.0000000000
0
SPLINE
5
328
100
AcDbEntity
8
0
100
AcDbSpline
62
9
6
CONTINUOUS
70
0
71
3
72
8
73
4
74
2
42
0.0000001000
43
0.0000001000
44
0.0000000001
12
0.8609879078
22
-0.0048898765
32
0.0000000000
13
0.8609940701
23
-0.0034777664
33
0.0000000000
40
0.0000000000
40
0.0000000000
40
0.0000000000
40
0.0000000000
40
1.0000000000
40
1.0000000000
40
1.0000000000
40
1.0000000000
10
-2.9813763471
20
-49.1587615231
30
0.0000000000
10
-2.6943803779
20
-49.1603914820
30
0.0000000000
10
-2.4073832082
20
-49.1617860891
30
0.0000000000
10
-2.1203851849
20
-49.1629453446
30
0.0000000000
11
-2.9813763471
21
-49.1587615231
31
0.0000000000
11
-2.1203851849
21
-49.1629453446
31
0.0000000000
0
SPLINE
5
329
100
AcDbEntity
8
0
100
AcDbSpline
62
9
6
CONTINUOUS
70
0
71
3
72
8
73
4
74
2
42
0.0000001000
43
0.0000001000
44
0.0000000001
12
0.3620013665
22
-0.0014622124
32
0.0000000000
13
0.3620021947
23
-0.0012125870
33
0.0000000000
40
0.0000000000
40
0.0000000000
40
0.0000000000
40
0.0000000000
40
1.0000000000
40
1.0000000000
40
1.0000000000
40
1.0000000000
10
-2.1203851849
20
-49.1629453446
30
0.0000000000
10
-1.9997180627
20
-49.1634327487
30
0.0000000000
10
-1.8790507896
20
-49.1638785486
30
0.0000000000
10
-1.7583833914
20
-49.1642827443
30
0.0000000000
11
-2.1203851849
21
-49.1629453446
31
0.0000000000
11
-1.7583833914
21
-49.1642827443
31
0.0000000000
0
SPLINE
5
32A
100
AcDbEntity
8
0
100
AcDbSpline
62
9
6
CONTINUOUS
70
0
71
3
72
8
73
4
74
2
42
0.0000001000
43
0.0000001000
44
0.0000000001
12
0.3170033770
22
-0.0010618559
32
0.0000000000
13
0.3170039010
23
-0.0008704329
33
0.0000000000
40
0.0000000000
40
0.0000000000
40
0.0000000000
40
0.0000000000
40
1.0000000000
40
1.0000000000
40
1.0000000000
40
1.0000000000
10
-1.7583833914
20
-49.1642827443
30
0.0000000000
10
-1.6527155990
20
-49.1646366963
30
0.0000000000
10
-1.5470477107
20
-49.1649587444
30
0.0000000000
10
-1.4413797437
20
-49.1652488887
30
0.0000000000
11
-1.7583833914
21
-49.1642827443
31
0.0000000000
11
-1.4413797437
21
-49.1652488887
31
0.0000000000
0
SPLINE
5
32B
100
AcDbEntity
8
0
100
AcDbSpline
62
9
6
CONTINUOUS
70
0
71
3
72
8
73
4
74
2
42
0.0000001000
43
0.0000001000
44
0.0000000001
12
0.3630042899
22
-0.0009967413
32
0.0000000000
13
0.3630048310
23
-0.0007457328
33
0.0000000000
40
0.0000000000
40
0.0000000000
40
0.0000000000
40
0.0000000000
40
1.0000000000
40
1.0000000000
40
1.0000000000
40
1.0000000000
10
-1.4413797437
20
-49.1652488887
30
0.0000000000
10
-1.3203783137
20
-49.1655811358
30
0.0000000000
10
-1.1993767806
20
-49.1658715481
30
0.0000000000
10
-1.0783751703
20
-49.1661201257
30
0.0000000000
11
-1.4413797437
21
-49.1652488887
31
0.0000000000
11
-1.0783751703
21
-49.1661201257
31
0.0000000000
0
SPLINE
5
32C
100
AcDbEntity
8
0
100
AcDbSpline
62
9
6
CONTINUOUS
70
0
71
3
72
8
73
4
74
2
42
0.0000001000
43
0.0000001000
44
0.0000000001
12
0.3470086065
22
-0.0007128712
32
0.0000000000
13
0.3470089617
23
-0.0004834972
33
0.0000000000
40
0.0000000000
40
0.0000000000
40
0.0000000000
40
0.0000000000
40
1.0000000000
40
1.0000000000
40
1.0000000000
40
1.0000000000
10
-1.0783751703
20
-49.1661201257
30
0.0000000000
10
-0.9627056348
20
-49.1663577494
30
0.0000000000
10
-0.8470360287
20
-49.1665571442
30
0.0000000000
10
-0.7313663748
20
-49.1667183099
30
0.0000000000
11
-1.0783751703
21
-49.1661201257
31
0.0000000000
11
-0.7313663748
21
-49.1667183099
31
0.0000000000
0
SPLINE
5
32D
100
AcDbEntity
8
0
100
AcDbSpline
62
9
6
CONTINUOUS
70
0
71
3
72
8
73
4
74
2
42
0.0000001000
43
0.0000001000
44
0.0000000001
12
0.3630084989
22
-0.0005057898
32
0.0000000000
13
0.3630087351
23
-0.0002547766
33
0.0000000000
40
0.0000000000
40
0.0000000000
40
0.0000000000
40
0.0000000000
40
1.0000000000
40
1.0000000000
40
1.0000000000
40
1.0000000000
10
-0.7313663748
20
-49.1667183099
30
0.0000000000
10
-0.6103635419
20
-49.1668869065
30
0.0000000000
10
-0.4893606566
20
-49.1670136675
30
0.0000000000
10
-0.3683577449
20
-49.1670985931
30
0.0000000000
11
-0.7313663748
21
-49.1667183099
31
0.0000000000
11
-0.3683577449
21
-49.1670985931
31
0.0000000000
0
SPLINE
5
32E
100
AcDbEntity
8
0
100
AcDbSpline
62
9
6
CONTINUOUS
70
0
71
3
72
8
73
4
74
2
42
0.0000001000
43
0.0000001000
44
0.0000000001
12
0.3470087005
22
-0.0002435470
32
0.0000000000
13
0.3470087771
23
-0.0000141736
33
0.0000000000
40
0.0000000000
40
0.0000000000
40
0.0000000000
40
0.0000000000
40
1.0000000000
40
1.0000000000
40
1.0000000000
40
1.0000000000
10
-0.3683577449
20
-49.1670985931
30
0.0000000000
10
-0.2526881780
20
-49.1671797754
30
0.0000000000
10
-0.1370185871
20
-49.1672227289
30
0.0000000000
10
-0.0213489947
20
-49.1672274534
30
0.0000000000
11
-0.3683577449
21
-49.1670985931
31
0.0000000000
11
-0.0213489947
21
-49.1672274534
31
0.0000000000
0
SPLINE
5
32F
100
AcDbEntity
8
0
100
AcDbSpline
62
9
6
CONTINUOUS
70
0
71
3
72
8
73
4
74
2
42
0.0000001000
43
0.0000001000
44
0.0000000001
12
0.3620091718
22
-0.0000147863
32
0.0000000000
13
0.3620091038
23
0.0002348463
33
0.0000000000
40
0.0000000000
40
0.0000000000
40
0.0000000000
40
0.0000000000
40
1.0000000000
40
1.0000000000
40
1.0000000000
40
1.0000000000
10
-0.0213489947
20
-49.1672274534
30
0.0000000000
10
0.0993207292
20
-49.1672323822
30
0.0000000000
10
0.2199904547
20
-49.1671957055
30
0.0000000000
10
0.3406601559
20
-49.1671174234
30
0.0000000000
11
-0.0213489947
21
-49.1672274534
31
0.0000000000
11
0.3406601559
21
-49.1671174234
31
0.0000000000
0
SPLINE
5
330
100
AcDbEntity
8
0
100
AcDbSpline
62
9
6
CONTINUOUS
70
0
71
3
72
8
73
4
74
2
42
0.0000001000
43
0.0000001000
44
0.0000000001
12
0.2870069929
22
0.0001861902
32
0.0000000000
13
0.2870068630
23
0.0003430990
33
0.0000000000
40
0.0000000000
40
0.0000000000
40
0.0000000000
40
0.0000000000
40
1.0000000000
40
1.0000000000
40
1.0000000000
40
1.0000000000
10
0.3406601559
20
-49.1671174234
30
0.0000000000
10
0.4363291536
20
-49.1670553600
30
0.0000000000
10
0.5319981360
20
-49.1669671452
30
0.0000000000
10
0.6276670903
20
-49.1668527789
30
0.0000000000
11
0.3406601559
21
-49.1671174234
31
0.0000000000
11
0.6276670903
21
-49.1668527789
31
0.0000000000
0
SPLINE
5
331
100
AcDbEntity
8
0
100
AcDbSpline
62
9
6
CONTINUOUS
70
0
71
3
72
8
73
4
74
2
42
0.0000001000
43
0.0000001000
44
0.0000000001
12
0.3630080922
22
0.0004339538
32
0.0000000000
13
0.3630077449
23
0.0006849663
33
0.0000000000
40
0.0000000000
40
0.0000000000
40
0.0000000000
40
0.0000000000
40
1.0000000000
40
1.0000000000
40
1.0000000000
40
1.0000000000
10
0.6276670903
20
-49.1668527789
30
0.0000000000
10
0.7486697877
20
-49.1667081276
30
0.0000000000
10
0.8696724402
20
-49.1665216409
30
0.0000000000
10
0.9906750218
20
-49.1662933188
30
0.0000000000
11
0.6276670903
21
-49.1668527789
31
0.0000000000
11
0.9906750218
21
-49.1662933188
31
0.0000000000
0
SPLINE
5
332
100
AcDbEntity
8
0
100
AcDbSpline
62
9
6
CONTINUOUS
70
0
71
3
72
8
73
4
74
2
42
0.0000001000
43
0.0000001000
44
0.0000000001
12
0.0994263174
22
0.0001876094
32
0.0000000000
13
0.0994262839
23
0.0002064401
33
0.0000000000
40
0.0000000000
40
0.0000000000
40
0.0000000000
40
0.0000000000
40
1.0000000000
40
1.0000000000
40
1.0000000000
40
1.0000000000
10
0.9906750218
20
-49.1662933188
30
0.0000000000
10
1.0238171276
20
-49.1662307824
30
0.0000000000
10
1.0569592281
20
-49.1661651074
30
0.0000000000
10
1.0901013228
20
-49.1660962941
30
0.0000000000
11
0.9906750218
21
-49.1662933188
31
0.0000000000
11
1.0901013228
21
-49.1660962941
31
0.0000000000
0
SPLINE
5
333
100
AcDbEntity
8
0
100
AcDbSpline
62
9
6
CONTINUOUS
70
0
71
3
72
8
73
4
74
2
42
0.0000001000
43
0.0000001000
44
0.0000000001
12
0.5860094522
22
0.0012167393
32
0.0000000000
13
0.5860079049
23
0.0018708832
33
0.0000000000
40
0.0000000000
40
0.0000000000
40
0.0000000000
40
0.0000000000
40
1.0000000000
40
1.0000000000
40
1.0000000000
40
1.0000000000
10
1.0901013228
20
-49.1660962941
30
0.0000000000
10
1.2854378069
20
-49.1656907143
30
0.0000000000
10
1.4807740877
20
-49.1651761106
30
0.0000000000
10
1.6761100560
20
-49.1645524828
30
0.0000000000
11
1.0901013228
21
-49.1660962941
31
0.0000000000
11
1.6761100560
21
-49.1645524828
31
0.0000000000
0
SPLINE
5
334
100
AcDbEntity
8
0
100
AcDbSpline
62
9
6
CONTINUOUS
70
0
71
3
72
8
73
4
74
2
42
0.0000001000
43
0.0000001000
44
0.0000000001
12
0.1145767258
22
0.0003657965
32
0.0000000000
13
0.1145766517
23
0.0003908034
33
0.0000000000
40
0.0000000000
40
0.0000000000
40
0.0000000000
40
0.0000000000
40
1.0000000000
40
1.0000000000
40
1.0000000000
40
1.0000000000
10
1.6761100560
20
-49.1645524828
30
0.0000000000
10
1.7143022979
20
-49.1644305507
30
0.0000000000
10
1.7524945279
20
-49.1643044507
30
0.0000000000
10
1.7906867452
20
-49.1641741829
30
0.0000000000
11
1.6761100560
21
-49.1645524828
31
0.0000000000
11
1.7906867452
21
-49.1641741829
31
0.0000000000
0
SPLINE
5
335
100
AcDbEntity
8
0
100
AcDbSpline
62
9
6
CONTINUOUS
70
0
71
3
72
8
73
4
74
2
42
0.0000001000
43
0.0000001000
44
0.0000000001
12
0.3620019464
22
0.0012347332
32
0.0000000000
13
0.3620011046
23
0.0014843586
33
0.0000000000
40
0.0000000000
40
0.0000000000
40
0.0000000000
40
0.0000000000
40
1.0000000000
40
1.0000000000
40
1.0000000000
40
1.0000000000
10
1.7906867452
20
-49.1641741829
30
0.0000000000
10
1.9113540606
20
-49.1637626051
30
0.0000000000
10
2.0320212487
20
-49.1633094232
30
0.0000000000
10
2.1526882835
20
-49.1628146370
30
0.0000000000
11
1.7906867452
21
-49.1641741829
31
0.0000000000
11
2.1526882835
21
-49.1628146370
31
0.0000000000
0
SPLINE
5
336
100
AcDbEntity
8
0
100
AcDbSpline
62
9
6
CONTINUOUS
70
0
71
3
72
8
73
4
74
2
42
0.0000001000
43
0.0000001000
44
0.0000000001
12
0.2869993639
22
0.0011768195
32
0.0000000000
13
0.2869987477
23
0.0013337224
33
0.0000000000
40
0.0000000000
40
0.0000000000
40
0.0000000000
40
0.0000000000
40
1.0000000000
40
1.0000000000
40
1.0000000000
40
1.0000000000
10
2.1526882835
20
-49.1628146370
30
0.0000000000
10
2.2483547381
20
-49.1624223638
30
0.0000000000
10
2.3440210965
20
-49.1620039402
30
0.0000000000
10
2.4396873457
20
-49.1615593660
30
0.0000000000
11
2.1526882835
21
-49.1628146370
31
0.0000000000
11
2.4396873457
21
-49.1615593660
31
0.0000000000
0
SPLINE
5
337
100
AcDbEntity
8
0
100
AcDbSpline
62
9
6
CONTINUOUS
70
0
71
3
72
8
73
4
74
2
42
0.0000001000
43
0.0000001000
44
0.0000000001
12
0.3629953213
22
0.0016868888
32
0.0000000000
13
0.3629941960
23
0.0019378884
33
0.0000000000
40
0.0000000000
40
0.0000000000
40
0.0000000000
40
0.0000000000
40
1.0000000000
40
1.0000000000
40
1.0000000000
40
1.0000000000
10
2.4396873457
20
-49.1615593660
30
0.0000000000
10
2.5606857861
20
-49.1609970697
30
0.0000000000
10
2.6816840520
20
-49.1603929402
30
0.0000000000
10
2.8026821173
20
-49.1597469774
30
0.0000000000
11
2.4396873457
21
-49.1615593660
31
0.0000000000
11
2.8026821173
21
-49.1597469774
31
0.0000000000
0
SPLINE
5
338
100
AcDbEntity
8
0
100
AcDbSpline
62
9
6
CONTINUOUS
70
0
71
3
72
8
73
4
74
2
42
0.0000001000
43
0.0000001000
44
0.0000000001
12
0.3169934046
22
0.0016923076
32
0.0000000000
13
0.3169924351
23
0.0018837218
33
0.0000000000
40
0.0000000000
40
0.0000000000
40
0.0000000000
40
0.0000000000
40
1.0000000000
40
1.0000000000
40
1.0000000000
40
1.0000000000
10
2.8026821173
20
-49.1597469774
30
0.0000000000
10
2.9083465855
20
-49.1591828749
30
0.0000000000
10
3.0140109008
20
-49.1585868700
30
0.0000000000
10
3.1196750458
20
-49.1579589627
30
0.0000000000
11
2.8026821173
21
-49.1597469774
31
0.0000000000
11
3.1196750458
21
-49.1579589627
31
0.0000000000
0
SPLINE
5
339
100
AcDbEntity
8
0
100
AcDbSpline
62
9
6
CONTINUOUS
70
0
71
3
72
8
73
4
74
2
42
0.0000001000
43
0.0000001000
44
0.0000000001
12
0.3840877105
22
0.0022824343
32
0.0000000000
13
0.3840861187
23
0.0025634542
33
0.0000000000
40
0.0000000000
40
0.0000000000
40
0.0000000000
40
0.0000000000
40
1.0000000000
40
1.0000000000
40
1.0000000000
40
1.0000000000
10
3.1196750458
20
-49.1579589627
30
0.0000000000
10
3.2477042826
20
-49.1571981513
30
0.0000000000
10
3.3757332696
20
-49.1563905032
30
0.0000000000
10
3.5037619758
20
-49.1555360185
30
0.0000000000
11
3.1196750458
21
-49.1579589627
31
0.0000000000
11
3.5037619758
21
-49.1555360185
31
0.0000000000
0
SPLINE
5
33A
100
AcDbEntity
8
0
100
AcDbSpline
62
9
6
CONTINUOUS
70
0
71
3
72
8
73
4
74
2
42
0.0000001000
43
0.0000001000
44
0.0000000001
12
0.2440438992
22
0.0016287893
32
0.0000000000
13
0.2440431956
23
0.0017422423
33
0.0000000000
40
0.0000000000
40
0.0000000000
40
0.0000000000
40
0.0000000000
40
1.0000000000
40
1.0000000000
40
1.0000000000
40
1.0000000000
10
3.5037619758
20
-49.1555360185
30
0.0000000000
10
3.5851099422
20
-49.1549930887
30
0.0000000000
10
3.6664577952
20
-49.1544312501
30
0.0000000000
10
3.7478055271
20
-49.1538505027
30
0.0000000000
11
3.5037619758
21
-49.1555360185
31
0.0000000000
11
3.7478055271
21
-49.1538505027
31
0.0000000000
0
SPLINE
5
33B
100
AcDbEntity
8
0
100
AcDbSpline
62
9
6
CONTINUOUS
70
0
71
3
72
8
73
4
74
2
42
0.0000001000
43
0.0000001000
44
0.0000000001
12
0.1463289610
22
0.0010446532
32
0.0000000000
13
0.1463286944
23
0.0010854422
33
0.0000000000
40
0.0000000000
40
0.0000000000
40
0.0000000000
40
0.0000000000
40
1.0000000000
40
1.0000000000
40
1.0000000000
40
1.0000000000
10
3.7478055271
20
-49.1538505027
30
0.0000000000
10
3.7965818474
20
-49.1535022850
30
0.0000000000
10
3.8453581242
20
-49.1531472691
30
0.0000000000
10
3.8941343557
20
-49.1527854550
30
0.0000000000
11
3.7478055271
21
-49.1538505027
31
0.0000000000
11
3.8941343557
21
-49.1527854550
31
0.0000000000
0
SPLINE
5
33C
100
AcDbEntity
8
0
100
AcDbSpline
62
9
6
CONTINUOUS
70
0
71
3
72
9
73
5
74
3
42
0.0000001000
43
0.0000001000
44
0.0000000001
12
29.8303328281
22
0.2212765025
32
0.0000000000
13
29.7673266962
23
1.9175014594
33
0.0000000000
40
0.0000000000
40
0.0000000000
40
0.0000000000
40
0.0000000000
40
0.2463339941
40
1.0000000000
40
1.0000000000
40
1.0000000000
40
1.0000000000
10
3.8941343557
20
-49.1527854550
30
0.0000000000
10
6.3435426993
20
-49.1346161468
30
0.0000000000
10
16.2865234353
20
-48.9912630577
30
0.0000000000
10
26.2240712344
20
-48.5653895098
30
0.0000000000
10
33.7022786401
20
-48.0836709544
30
0.0000000000
11
3.8941343557
21
-49.1527854550
31
0.0000000000
11
11.2418013424
21
-49.0468472040
31
0.0000000000
11
33.7022786401
21
-48.0836709544
31
0.0000000000
0
SPLINE
5
33D
100
AcDbEntity
8
0
100
AcDbSpline
62
9
6
CONTINUOUS
70
0
71
3
72
9
73
5
74
3
42
0.0000001000
43
0.0000001000
44
0.0000000001
12
-0.0991941618
22
0.1242438443
32
0.0000000000
13
-0.0300565048
23
0.1561173311
33
0.0000000000
40
0.0000000000
40
0.0000000000
40
0.0000000000
40
0.0000000000
40
0.5032903651
40
1.0000000000
40
1.0000000000
40
1.0000000000
40
1.0000000000
10
33.5615161318
20
1.5082864061
30
0.0000000000
10
33.5448749765
20
1.5291299827
30
0.0000000000
10
33.5156317009
20
1.5738470850
30
0.0000000000
10
33.4979259314
20
1.6245871465
30
0.0000000000
10
33.4929494795
20
1.6504354741
30
0.0000000000
11
33.5615161318
21
1.5082864061
31
0.0000000000
11
33.5183617228
21
1.5756669789
31
0.0000000000
11
33.4929494795
21
1.6504354741
31
0.0000000000
0
SPLINE
5
33E
100
AcDbEntity
8
0
100
AcDbSpline
62
9
6
CONTINUOUS
70
0
71
3
72
9
73
5
74
3
42
0.0000001000
43
0.0000001000
44
0.0000000001
12
0.0992198339
22
0.1242212089
32
0.0000000000
13
0.0301571965
23
0.1560962129
33
0.0000000000
40
0.0000000000
40
0.0000000000
40
0.0000000000
40
0.0000000000
40
0.5084810763
40
1.0000000000
40
1.0000000000
40
1.0000000000
40
1.0000000000
10
-33.5615150880
20
1.5082877239
30
0.0000000000
10
-33.5446979521
20
1.5293424353
30
0.0000000000
10
-33.5155005984
20
1.5741113612
30
0.0000000000
10
-33.4978904234
20
1.6248607265
30
0.0000000000
10
-33.4929494792
20
1.6504354741
30
0.0000000000
11
-33.5615150880
21
1.5082877239
31
0.0000000000
11
-33.5180012483
21
1.5764169991
31
0.0000000000
11
-33.4929494792
21
1.6504354741
31
0.0000000000
0
SPLINE
5
33F
100
AcDbEntity
8
0
100
AcDbSpline
62
9
6
CONTINUOUS
70
0
71
3
72
10
73
6
74
4
42
0.0000001000
43
0.0000001000
44
0.0000000001
12
67.1048572074
22
-1.8616982366
32
0.0000000000
13
67.1048568875
23
1.8617097663
33
0.0000000000
40
0.0000000000
40
0.0000000000
40
0.0000000000
40
0.0000000000
40
0.3333202255
40
0.6666763142
40
1.0000000000
40
1.0000000000
40
1.0000000000
40
1.0000000000
10
-33.5615150880
20
1.5082877239
30
0.0000000000
10
-26.1057130434
20
1.3014404986
30
0.0000000000
10
-11.1890955868
20
1.0257586208
30
0.0000000000
10
11.1889417017
20
1.0257588981
30
0.0000000000
10
26.1056367203
20
1.3014357523
30
0.0000000000
10
33.5615161318
20
1.5082864061
30
0.0000000000
11
-33.5615150880
21
1.5082877239
31
0.0000000000
11
-11.1893255841
21
1.0946865517
31
0.0000000000
11
11.1890943002
21
1.0946847650
31
0.0000000000
11
33.5615161318
21
1.5082864061
31
0.0000000000
0
SPLINE
5
340
100
AcDbEntity
8
0
100
AcDbSpline
62
9
6
CONTINUOUS
70
0
71
3
72
10
73
6
74
4
42
0.0000001000
43
0.0000001000
44
0.0000000001
12
68.5007173744
22
-4.4876056863
32
0.0000000000
13
68.5007146906
23
4.4876466536
33
0.0000000000
40
0.0000000000
40
0.0000000000
40
0.0000000000
40
0.0000000000
40
0.3332774228
40
0.6667066661
40
1.0000000000
40
1.0000000000
40
1.0000000000
40
1.0000000000
10
-34.3020497154
20
-48.6700808613
30
0.0000000000
10
-26.6921355322
20
-49.1686200806
30
0.0000000000
10
-11.4448737658
20
-49.8331530569
30
0.0000000000
10
11.4441452686
20
-49.8331814804
30
0.0000000000
10
26.6917725260
20
-49.1686510340
30
0.0000000000
10
34.3020497172
20
-48.6700834625
30
0.0000000000
11
-34.3020497154
21
-48.6700808613
31
0.0000000000
11
-11.4450973545
21
-49.6669488769
31
0.0000000000
11
11.4440051499
21
-49.6669763950
31
0.0000000000
11
34.3020497172
21
-48.6700834625
31
0.0000000000
0
SPLINE
5
341
100
AcDbEntity
8
0
100
AcDbSpline
62
9
6
CONTINUOUS
70
0
71
3
72
10
73
6
74
4
42
0.0000001000
43
0.0000001000
44
0.0000000001
12
-0.0000563367
22
-37.6260930569
32
0.0000000000
13
2.2182098881
23
-37.5606499361
33
0.0000000000
40
0.0000000000
40
0.0000000000
40
0.0000000000
40
0.0000000000
40
0.3333369106
40
0.6667789589
40
1.0000000000
40
1.0000000000
40
1.0000000000
40
1.0000000000
10
-58.5914548939
20
-24.2500000552
30
0.0000000000
10
-58.5914611536
20
-28.4307219282
30
0.0000000000
10
-58.5091953856
20
-36.7937264648
30
0.0000000000
10
-58.1392545994
20
-49.3310286832
30
0.0000000000
10
-57.7283128930
20
-57.6828799876
30
0.0000000000
10
-57.4819281569
20
-61.8548796131
30
0.0000000000
11
-58.5914548939
21
-24.2500000552
31
0.0000000000
11
-58.4681205767
21
-36.7915592511
31
0.0000000000
11
-58.0980666392
21
-49.3322221400
31
0.0000000000
11
-57.4819281569
21
-61.8548796131
31
0.0000000000
0
SPLINE
5
342
100
AcDbEntity
8
0
100
AcDbSpline
62
9
6
CONTINUOUS
70
0
71
3
72
15
73
11
74
9
42
0.0000001000
43
0.0000001000
44
0.0000000001
12
0.1113565417
22
-1.8850153158
32
0.0000000000
13
1.8857170045
23
-0.0987643624
33
0.0000000000
40
0.0000000000
40
0.0000000000
40
0.0000000000
40
0.0000000000
40
0.0921182690
40
0.1947242340
40
0.3083012986
40
0.4321045618
40
0.5649353865
40
0.7050427963
40
0.8468228562
40
1.0000000000
40
1.0000000000
40
1.0000000000
40
1.0000000000
10
-57.4819281569
20
-61.8548796131
30
0.0000000000
10
-57.4785088329
20
-61.9127610624
30
0.0000000000
10
-57.4631161406
20
-62.0347812000
30
0.0000000000
10
-57.4117696880
20
-62.2226411146
30
0.0000000000
10
-57.3232719777
20
-62.4185713754
30
0.0000000000
10
-57.1913867570
20
-62.6122331719
30
0.0000000000
10
-57.0135870595
20
-62.7898290401
30
0.0000000000
10
-56.7943193007
20
-62.9349082306
30
0.0000000000
10
-56.5381388096
20
-63.0367517655
30
0.0000000000
10
-56.3531264991
20
-63.0671988226
30
0.0000000000
10
-56.2568435842
20
-63.0722416369
30
0.0000000000
11
-57.4819281569
21
-61.8548796131
31
0.0000000000
11
-57.4601321685
21
-62.0274557426
31
0.0000000000
11
-57.4090312407
21
-62.2143464837
31
0.0000000000
11
-57.3207199613
21
-62.4097883832
31
0.0000000000
11
-57.1891137141
21
-62.6030030399
31
0.0000000000
11
-57.0116399586
21
-62.7802488496
31
0.0000000000
11
-56.7910171387
21
-62.9262633581
31
0.0000000000
11
-56.5422315603
21
-63.0251654190
31
0.0000000000
11
-56.2568435842
21
-63.0722416369
31
0.0000000000
0
SPLINE
5
343
100
AcDbEntity
8
0
100
AcDbSpline
62
9
6
CONTINUOUS
70
0
71
3
72
14
73
10
74
8
42
0.0000001000
43
0.0000001000
44
0.0000000001
12
112.4100238524
22
-5.8833040522
32
0.0000000000
13
112.4100239208
23
5.8833027468
33
0.0000000000
40
0.0000000000
40
0.0000000000
40
0.0000000000
40
0.0000000000
40
0.1130712320
40
0.2559948396
40
0.4165278664
40
0.5829686844
40
0.7435978368
40
0.8867370866
40
1.0000000000
40
1.0000000000
40
1.0000000000
40
1.0000000000
10
-56.2568435842
20
-63.0722416369
30
0.0000000000
10
-52.0200636219
20
-63.2939857827
30
0.0000000000
10
-42.4248846242
20
-63.7393407514
30
0.0000000000
10
-26.8041554676
20
-64.2549786704
30
0.0000000000
10
-9.1747439724
20
-64.5569749143
30
0.0000000000
10
9.1216785135
20
-64.5574566224
30
0.0000000000
10
26.7628021212
20
-64.2561001897
30
0.0000000000
10
42.4024297202
20
-63.7403288522
30
0.0000000000
10
52.0128813179
20
-63.2943616402
30
0.0000000000
10
56.2568435846
20
-63.0722416372
30
0.0000000000
11
-56.2568435842
21
-63.0722416369
31
0.0000000000
11
-43.5427942820
21
-63.6623472023
31
0.0000000000
11
-27.4635162991
21
-64.1931094667
31
0.0000000000
11
-9.3959467406
21
-64.5026018705
31
0.0000000000
11
9.3392772481
21
-64.5030951267
31
0.0000000000
11
27.4176802099
21
-64.1942784305
31
0.0000000000
11
43.5212351592
21
-63.6632197996
31
0.0000000000
11
56.2568435846
21
-63.0722416372
31
0.0000000000
0
SPLINE
5
344
100
AcDbEntity
8
0
100
AcDbSpline
62
9
6
CONTINUOUS
70
0
71
3
72
15
73
11
74
9
42
0.0000001000
43
0.0000001000
44
0.0000000001
12
1.8857198884
22
0.0987273220
32
0.0000000000
13
0.1113910936
23
1.8850142190
33
0.0000000000
40
0.0000000000
40
0.0000000000
40
0.0000000000
40
0.0000000000
40
0.0920802262
40
0.1946564014
40
0.3082207307
40
0.4320341411
40
0.5649031641
40
0.7050704273
40
0.8468039052
40
1.0000000000
40
1.0000000000
40
1.0000000000
40
1.0000000000
10
56.2568435846
20
-63.0722416372
30
0.0000000000
10
56.3147227559
20
-63.0692113591
30
0.0000000000
10
56.4368006571
20
-63.0546346772
30
0.0000000000
10
56.6249436985
20
-63.0045280984
30
0.0000000000
10
56.8214189599
20
-62.9172934425
30
0.0000000000
10
57.0159250132
20
-62.7866131808
30
0.0000000000
10
57.1946680338
20
-62.6098677735
30
0.0000000000
10
57.3411157837
20
-62.3914722693
30
0.0000000000
10
57.4445806140
20
-62.1359257486
30
0.0000000000
10
57.4762399305
20
-61.9511385523
30
0.0000000000
10
57.4819281573
20
-61.8548796133
30
0.0000000000
11
56.2568435846
21
-63.0722416372
31
0.0000000000
11
56.4294894935
21
-63.0516013943
31
0.0000000000
11
56.6166556936
21
-63.0017364733
31
0.0000000000
11
56.8126374751
21
-62.9146888376
31
0.0000000000
11
57.0066922943
21
-62.7842900307
31
0.0000000000
11
57.1850881031
21
-62.6078695150
31
0.0000000000
11
57.3325280948
21
-62.3880605070
31
0.0000000000
11
57.4329694351
21
-62.1399871313
31
0.0000000000
11
57.4819281573
21
-61.8548796133
31
0.0000000000
0
SPLINE
5
345
100
AcDbEntity
8
0
100
AcDbSpline
62
9
6
CONTINUOUS
70
0
71
3
72
10
73
6
74
4
42
0.0000001000
43
0.0000001000
44
0.0000000001
12
2.2182139255
22
37.5606497689
32
0.0000000000
13
-0.0000575337
23
37.6260931280
33
0.0000000000
40
0.0000000000
40
0.0000000000
40
0.0000000000
40
0.0000000000
40
0.3332190275
40
0.6666593601
40
1.0000000000
40
1.0000000000
40
1.0000000000
40
1.0000000000
10
57.4819281573
20
-61.8548796133
30
0.0000000000
10
57.7283118530
20
-57.6829052176
30
0.0000000000
10
58.1392510652
20
-49.3311006078
30
0.0000000000
10
58.5091942889
20
-36.7937984586
30
0.0000000000
10
58.5914612870
20
-28.4307686382
30
0.0000000000
10
58.5914548942
20
-24.2499999846
30
0.0000000000
11
57.4819281573
21
-61.8548796133
31
0.0000000000
11
58.0980636427
21
-49.3322978261
31
0.0000000000
11
58.4681178522
21
-36.7916995021
31
0.0000000000
11
58.5914548942
21
-24.2499999846
31
0.0000000000
0
SPLINE
5
346
100
AcDbEntity
8
0
100
AcDbSpline
62
9
6
CONTINUOUS
70
0
71
3
72
10
73
6
74
4
42
0.0000001000
43
0.0000001000
44
0.0000000001
12
-0.3042025500
22
0.6679964522
32
0.0000000000
13
-0.0054829319
23
0.7339811912
33
0.0000000000
40
0.0000000000
40
0.0000000000
40
0.0000000000
40
0.0000000000
40
0.2672006122
40
0.6119407031
40
1.0000000000
40
1.0000000000
40
1.0000000000
40
1.0000000000
10
33.9182590933
20
-47.9019663736
30
0.0000000000
10
33.8911647241
20
-47.8424700200
30
0.0000000000
10
33.8409732949
20
-47.7007265479
30
0.0000000000
10
33.7921541668
20
-47.4602849787
30
0.0000000000
10
33.7795796202
20
-47.2808260857
30
0.0000000000
10
33.7788703860
20
-47.1858833441
30
0.0000000000
11
33.9182590933
21
-47.9019663736
31
0.0000000000
11
33.8512067021
21
-47.7176588445
31
0.0000000000
11
33.7994035285
21
-47.4699784601
31
0.0000000000
11
33.7788703860
21
-47.1858833441
31
0.0000000000
0
SPLINE
5
347
100
AcDbEntity
8
0
100
AcDbSpline
62
9
6
CONTINUOUS
70
0
71
3
72
9
73
5
74
3
42
0.0000001000
43
0.0000001000
44
0.0000000001
12
0.0036304551
22
0.1920761493
32
0.0000000000
13
0.0857931781
23
0.1718893770
33
0.0000000000
40
0.0000000000
40
0.0000000000
40
0.0000000000
40
0.0000000000
40
0.4726886351
40
1.0000000000
40
1.0000000000
40
1.0000000000
40
1.0000000000
10
33.7880860309
20
-1.9534299525
30
0.0000000000
10
33.7886580559
20
-1.9231658816
30
0.0000000000
10
33.7967265742
20
-1.8591044646
30
0.0000000000
10
33.8188713616
20
-1.7983071515
30
0.0000000000
10
33.8339512675
20
-1.7680940775
30
0.0000000000
11
33.7880860309
21
-1.9534299525
31
0.0000000000
11
33.7994309745
21
-1.8633329876
31
0.0000000000
11
33.8339512675
21
-1.7680940775
31
0.0000000000
0
SPLINE
5
348
100
AcDbEntity
8
0
100
AcDbSpline
62
9
6
CONTINUOUS
70
0
71
3
72
10
73
6
74
4
42
0.0000001000
43
0.0000001000
44
0.0000000001
12
0.0000684895
22
37.6115025357
32
0.0000000000
13
-2.2191383683
23
37.5459791176
33
0.0000000000
40
0.0000000000
40
0.0000000000
40
0.0000000000
40
0.0000000000
40
0.3333327539
40
0.6667769655
40
1.0000000000
40
1.0000000000
40
1.0000000000
40
1.0000000000
10
59.6895104292
20
24.2498471148
30
0.0000000000
10
59.6895180391
20
28.4288956874
30
0.0000000000
10
59.6072666772
20
36.7886331242
30
0.0000000000
10
59.2371554160
20
49.3210659324
30
0.0000000000
10
58.8260478310
20
57.6697156547
30
0.0000000000
10
58.5795584907
20
61.8401106864
30
0.0000000000
11
59.6895104292
21
24.2498471148
31
0.0000000000
11
59.5661616010
21
36.7863860239
31
0.0000000000
11
59.1959546534
21
49.3222585861
31
0.0000000000
11
58.5795584907
21
61.8401106864
31
0.0000000000
0
SPLINE
5
349
100
AcDbEntity
8
0
100
AcDbSpline
62
9
6
CONTINUOUS
70
0
71
3
72
10
73
6
74
4
42
0.0000001000
43
0.0000001000
44
0.0000000001
12
0.2273128181
22
0.2297323847
32
0.0000000000
13
0.2272965309
23
0.2297484993
33
0.0000000000
40
0.0000000000
40
0.0000000000
40
0.0000000000
40
0.0000000000
40
0.3333852238
40
0.6667179452
40
1.0000000000
40
1.0000000000
40
1.0000000000
40
1.0000000000
10
58.5795584907
20
61.8401106864
30
0.0000000000
10
58.6048194023
20
61.8656404806
30
0.0000000000
10
58.6553359760
20
61.9166973062
30
0.0000000000
10
58.7311044730
20
61.9932771845
30
0.0000000000
10
58.7816114238
20
62.0443278963
30
0.0000000000
10
58.8068627087
20
62.0698515803
30
0.0000000000
11
58.5795584907
21
61.8401106864
31
0.0000000000
11
58.6553398648
21
61.9167014152
31
0.0000000000
11
58.7311079496
21
61.9932814229
31
0.0000000000
11
58.8068627087
21
62.0698515803
31
0.0000000000
0
SPLINE
5
34A
100
AcDbEntity
8
0
100
AcDbSpline
62
9
6
CONTINUOUS
70
0
71
3
72
14
73
10
74
8
42
0.0000001000
43
0.0000001000
44
0.0000000001
12
-112.3523787642
22
5.8773190944
32
0.0000000000
13
-112.3523786436
23
-5.8773213991
33
0.0000000000
40
0.0000000000
40
0.0000000000
40
0.0000000000
40
0.0000000000
40
0.1131417823
40
0.2561390145
40
0.4167327054
40
0.5832051638
40
0.7438211597
40
0.8868871289
40
1.0000000000
40
1.0000000000
40
1.0000000000
40
1.0000000000
10
56.2279164584
20
64.1759247515
30
0.0000000000
10
51.9906669997
20
64.3975815373
30
0.0000000000
10
42.3950084141
20
64.8426978955
30
0.0000000000
10
26.7746189363
20
65.3578893528
30
0.0000000000
10
9.1480423177
20
65.6593631206
30
0.0000000000
10
-9.1419401493
20
65.6594221015
30
0.0000000000
10
-26.7719324572
20
65.3579830271
30
0.0000000000
10
-42.3946517325
20
64.8427229970
30
0.0000000000
10
-51.9918014096
20
64.3975222581
30
0.0000000000
10
-56.2279681188
20
64.1759220254
30
0.0000000000
11
56.2279164584
21
64.1759247515
31
0.0000000000
11
43.5124598004
21
64.7657504312
31
0.0000000000
11
27.4331561139
21
65.2960652015
31
0.0000000000
11
9.3680443214
21
65.6050298216
31
0.0000000000
11
-9.3611059794
21
65.6050902074
31
0.0000000000
11
-27.4287284851
21
65.2961781054
31
0.0000000000
11
-43.5157615635
21
64.7656168245
31
0.0000000000
11
-56.2279681188
21
64.1759220254
31
0.0000000000
0
SPLINE
5
34B
100
AcDbEntity
8
0
100
AcDbSpline
62
9
6
CONTINUOUS
70
0
71
3
72
10
73
6
74
4
42
0.0000001000
43
0.0000001000
44
0.0000000001
12
-0.2282406113
22
0.2291466347
32
0.0000000000
13
-0.2282240297
23
0.2291631496
33
0.0000000000
40
0.0000000000
40
0.0000000000
40
0.0000000000
40
0.0000000000
40
0.3333842413
40
0.6667174382
40
1.0000000000
40
1.0000000000
40
1.0000000000
40
1.0000000000
10
-56.2279681188
20
64.1759220254
30
0.0000000000
10
-56.2533320598
20
64.2013866510
30
0.0000000000
10
-56.3040555889
20
64.2523124710
30
0.0000000000
10
-56.3801329687
20
64.3286974953
30
0.0000000000
10
-56.4308461739
20
64.3796181265
30
0.0000000000
10
-56.4562005370
20
64.4050768204
30
0.0000000000
11
-56.2279681188
21
64.1759220254
31
0.0000000000
11
-56.3040591190
21
64.2523167219
31
0.0000000000
11
-56.3801365271
21
64.3287016557
31
0.0000000000
11
-56.4562005370
21
64.4050768204
31
0.0000000000
0
SPLINE
5
34C
100
AcDbEntity
8
0
100
AcDbSpline
62
9
6
CONTINUOUS
70
0
71
3
72
10
73
6
74
4
42
0.0000001000
43
0.0000001000
44
0.0000000001
12
0.2282649789
22
0.2291711028
32
0.0000000000
13
0.2282483974
23
0.2291876176
33
0.0000000000
40
0.0000000000
40
0.0000000000
40
0.0000000000
40
0.0000000000
40
0.3334544995
40
0.6667525648
40
1.0000000000
40
1.0000000000
40
1.0000000000
40
1.0000000000
10
56.2279164584
20
64.1759247515
30
0.0000000000
10
56.2532884532
20
64.2013974633
30
0.0000000000
10
56.3040600925
20
64.2522915273
30
0.0000000000
10
56.3801292295
20
64.3287010137
30
0.0000000000
10
56.4308461396
20
64.3796180918
30
0.0000000000
10
56.4562005373
20
64.4050768204
30
0.0000000000
11
56.2279164584
21
64.1759247515
31
0.0000000000
11
56.3040589117
21
64.2523165135
31
0.0000000000
11
56.3801364237
21
64.3287015515
31
0.0000000000
11
56.4562005373
21
64.4050768204
31
0.0000000000
0
SPLINE
5
34D
100
AcDbEntity
8
0
100
AcDbSpline
62
9
6
CONTINUOUS
70
0
71
3
72
10
73
6
74
4
42
0.0000001000
43
0.0000001000
44
0.0000000001
12
-0.4657623658
22
0.0001418649
32
0.0000000000
13
-0.0001418649
23
0.4657623658
33
0.0000000000
40
0.0000000000
40
0.0000000000
40
0.0000000000
40
0.0000000000
40
0.3333248774
40
0.6666751226
40
1.0000000000
40
1.0000000000
40
1.0000000000
40
1.0000000000
10
-33.4826990715
20
1.7173466197
30
0.0000000000
10
-33.5344491327
20
1.7173623821
30
0.0000000000
10
-33.6399291998
20
1.7455074434
30
0.0000000000
10
-33.7544925565
20
1.8600708000
30
0.0000000000
10
-33.7826376177
20
1.9655508671
30
0.0000000000
10
-33.7826533801
20
2.0173009283
30
0.0000000000
11
-33.4826990715
21
1.7173466197
31
0.0000000000
11
-33.6326498581
21
1.7575633244
31
0.0000000000
11
-33.7424366754
21
1.8673501418
31
0.0000000000
11
-33.7826533801
21
2.0173009283
31
0.0000000000
0
SPLINE
5
34E
100
AcDbEntity
8
0
100
AcDbSpline
62
9
6
CONTINUOUS
70
0
71
3
72
10
73
6
74
4
42
0.0000001000
43
0.0000001000
44
0.0000000001
12
-0.2273359829
22
0.2297557899
32
0.0000000000
13
-0.2273196909
23
0.2297719092
33
0.0000000000
40
0.0000000000
40
0.0000000000
40
0.0000000000
40
0.0000000000
40
0.3334523029
40
0.6667514820
40
1.0000000000
40
1.0000000000
40
1.0000000000
40
1.0000000000
10
-58.5795614301
20
61.8400614614
30
0.0000000000
10
-58.6048299991
20
61.8655989938
30
0.0000000000
10
-58.6553159853
20
61.9167014492
30
0.0000000000
10
-58.7311078547
20
61.9932736488
30
0.0000000000
10
-58.7816113917
20
62.0443278642
30
0.0000000000
10
-58.8068627084
20
62.0698515803
30
0.0000000000
11
-58.5795614301
21
61.8400614614
31
0.0000000000
11
-58.6553396740
21
61.9167012227
31
0.0000000000
11
-58.7311078541
21
61.9932813266
31
0.0000000000
11
-58.8068627084
21
62.0698515803
31
0.0000000000
0
SPLINE
5
34F
100
AcDbEntity
8
0
100
AcDbSpline
62
9
6
CONTINUOUS
70
0
71
3
72
10
73
6
74
4
42
0.0000001000
43
0.0000001000
44
0.0000000001
12
-0.4591130108
22
0.0293203201
32
0.0000000000
13
-0.0019764003
23
0.4600440541
33
0.0000000000
40
0.0000000000
40
0.0000000000
40
0.0000000000
40
0.0000000000
40
0.3380373848
40
0.6707346769
40
1.0000000000
40
1.0000000000
40
1.0000000000
40
1.0000000000
10
-33.4894373912
20
1.6504341876
30
0.0000000000
10
-33.5411698450
20
1.6537379757
30
0.0000000000
10
-33.6440530843
20
1.6837153924
30
0.0000000000
10
-33.7592919879
20
1.7943361307
30
0.0000000000
10
-33.7878687285
20
1.8978522183
30
0.0000000000
10
-33.7880856485
20
1.9483444030
30
0.0000000000
11
-33.4894373912
21
1.6504341876
31
0.0000000000
11
-33.6383727998
21
1.6951857262
31
0.0000000000
11
-33.7476367177
21
1.8023668228
31
0.0000000000
11
-33.7880856485
21
1.9483444030
31
0.0000000000
0
SPLINE
5
350
100
AcDbEntity
8
0
100
AcDbSpline
62
9
6
CONTINUOUS
70
0
71
3
72
10
73
6
74
4
42
0.0000001000
43
0.0000001000
44
0.0000000001
12
-0.3868802707
22
0.0772442208
32
0.0000000000
13
-0.0845948634
23
0.3853397495
33
0.0000000000
40
0.0000000000
40
0.0000000000
40
0.0000000000
40
0.0000000000
40
0.3348070541
40
0.6758472350
40
1.0000000000
40
1.0000000000
40
1.0000000000
40
1.0000000000
10
-33.5615150948
20
1.5082830284
30
0.0000000000
10
-33.6046918427
20
1.5169036651
30
0.0000000000
10
-33.6888150583
20
1.5527281915
30
0.0000000000
10
-33.7860749113
20
1.6448295223
30
0.0000000000
10
-33.8248103565
20
1.7264590199
30
0.0000000000
10
-33.8339509095
20
1.7680953350
30
0.0000000000
11
-33.5615150948
21
1.5082830284
31
0.0000000000
11
-33.6835260265
21
1.5588819904
31
0.0000000000
11
-33.7808933744
21
1.6517377398
31
0.0000000000
11
-33.8339509095
21
1.7680953350
31
0.0000000000
0
SPLINE
5
351
100
AcDbEntity
8
0
100
AcDbSpline
62
9
6
CONTINUOUS
70
0
71
3
72
10
73
6
74
4
42
0.0000001000
43
0.0000001000
44
0.0000000001
12
-0.0845939607
22
-0.3853393117
32
0.0000000000
13
-0.3868789003
23
-0.0772479116
33
0.0000000000
40
0.0000000000
40
0.0000000000
40
0.0000000000
40
0.0000000000
40
0.3241530454
40
0.6651930736
40
1.0000000000
40
1.0000000000
40
1.0000000000
40
1.0000000000
10
33.8339498587
20
1.7680940745
30
0.0000000000
10
33.8248093954
20
1.7264577707
30
0.0000000000
10
33.7860744104
20
1.6448282533
30
0.0000000000
10
33.6888153963
20
1.5527263755
30
0.0000000000
10
33.6046926798
20
1.5169012019
30
0.0000000000
10
33.5615161013
20
1.5082801566
30
0.0000000000
11
33.8339498587
21
1.7680940745
31
0.0000000000
11
33.7808928484
21
1.6517363398
31
0.0000000000
11
33.6835263482
21
1.5588800956
31
0.0000000000
11
33.5615161013
21
1.5082801566
31
0.0000000000
0
SPLINE
5
352
100
AcDbEntity
8
0
100
AcDbSpline
62
9
6
CONTINUOUS
70
0
71
3
72
9
73
5
74
3
42
0.0000001000
43
0.0000001000
44
0.0000000001
12
-0.0022569944
22
0.0576814405
32
0.0000000000
13
-0.0715007508
23
0.0270935113
33
0.0000000000
40
0.0000000000
40
0.0000000000
40
0.0000000000
40
0.0000000000
40
0.8464242573
40
1.0000000000
40
1.0000000000
40
1.0000000000
40
1.0000000000
10
33.7880860369
20
1.9483441141
30
0.0000000000
10
33.7874492453
20
1.9646184376
30
0.0000000000
10
33.7987664138
20
1.9894073071
30
0.0000000000
10
33.7806674483
20
2.0010134546
30
0.0000000000
10
33.7770071880
20
2.0024004233
30
0.0000000000
11
33.7880860369
21
1.9483441141
31
0.0000000000
11
33.7855327779
21
1.9971376879
31
0.0000000000
11
33.7770071880
21
2.0024004233
31
0.0000000000
0
SPLINE
5
353
100
AcDbEntity
8
0
100
AcDbSpline
62
9
6
CONTINUOUS
70
0
71
3
72
9
73
5
74
3
42
0.0000001000
43
0.0000001000
44
0.0000000001
12
-0.0000147735
22
22.9358916287
32
0.0000000000
13
-0.0183217327
23
22.9358843108
33
0.0000000000
40
0.0000000000
40
0.0000000000
40
0.0000000000
40
0.0000000000
40
0.5000796243
40
1.0000000000
40
1.0000000000
40
1.0000000000
40
1.0000000000
10
33.7880599014
20
24.2499940072
30
0.0000000000
10
33.7880574387
20
28.0732513638
30
0.0000000000
10
33.7864893360
20
35.7185486405
30
0.0000000000
10
33.7819235217
20
43.3638447101
30
0.0000000000
10
33.7788703859
20
47.1858833437
30
0.0000000000
11
33.7880599014
21
24.2499940072
31
0.0000000000
11
33.7857394197
21
35.7197658422
31
0.0000000000
11
33.7788703859
21
47.1858833437
31
0.0000000000
0
SPLINE
5
354
100
AcDbEntity
8
0
100
AcDbSpline
62
9
6
CONTINUOUS
70
0
71
3
72
10
73
6
74
4
42
0.0000001000
43
0.0000001000
44
0.0000000001
12
0.2400811977
22
0.2425686567
32
0.0000000000
13
0.0041805041
23
0.3412639126
33
0.0000000000
40
0.0000000000
40
0.0000000000
40
0.0000000000
40
0.0000000000
40
0.2326399148
40
0.5421792363
40
1.0000000000
40
1.0000000000
40
1.0000000000
40
1.0000000000
10
33.7630088425
20
46.4630545338
30
0.0000000000
10
33.7816263323
20
46.4818649176
30
0.0000000000
10
33.7601888615
20
46.5556095087
30
0.0000000000
10
33.7767230248
20
46.6624589814
30
0.0000000000
10
33.7735658440
20
46.7519923058
30
0.0000000000
10
33.7742038179
20
46.8040715408
30
0.0000000000
11
33.7630088425
21
46.4630545338
31
0.0000000000
11
33.7688267937
21
46.5422386524
31
0.0000000000
11
33.7716930889
21
46.6478422867
31
0.0000000000
11
33.7742038179
21
46.8040715408
31
0.0000000000
0
SPLINE
5
355
100
AcDbEntity
8
0
100
AcDbSpline
62
9
6
CONTINUOUS
70
0
71
3
72
10
73
6
74
4
42
0.0000001000
43
0.0000001000
44
0.0000000001
12
-0.0019767743
22
-0.4600444385
32
0.0000000000
13
-0.4591136643
23
-0.0293161445
33
0.0000000000
40
0.0000000000
40
0.0000000000
40
0.0000000000
40
0.0000000000
40
0.3292678148
40
0.6619644246
40
1.0000000000
40
1.0000000000
40
1.0000000000
40
1.0000000000
10
33.7880841668
20
1.9483444043
30
0.0000000000
10
33.7878672041
20
1.8978517953
30
0.0000000000
10
33.7592910961
20
1.7943353223
30
0.0000000000
10
33.6440529716
20
1.6837133341
30
0.0000000000
10
33.5411696421
20
1.6537364195
30
0.0000000000
10
33.4894373916
20
1.6504331196
30
0.0000000000
11
33.7880841668
21
1.9483444043
31
0.0000000000
11
33.7476354906
21
1.8023654321
31
0.0000000000
11
33.6383723107
21
1.6951838481
31
0.0000000000
11
33.4894373916
21
1.6504331196
31
0.0000000000
0
SPLINE
5
356
100
AcDbEntity
8
0
100
AcDbSpline
62
9
6
CONTINUOUS
70
0
71
3
72
11
73
7
74
5
42
0.0000001000
43
0.0000001000
44
0.0000000001
12
-0.0041945893
22
0.3413083841
32
0.0000000000
13
-0.2407623333
23
0.2419555879
33
0.0000000000
40
0.0000000000
40
0.0000000000
40
0.0000000000
40
0.0000000000
40
0.3660949893
40
0.6799930745
40
0.9059846709
40
1.0000000000
40
1.0000000000
40
1.0000000000
40
1.0000000000
10
33.7742038179
20
-46.8040715408
30
0.0000000000
10
33.7736919452
20
-46.7624211111
30
0.0000000000
10
33.7714134196
20
-46.6857127311
30
0.0000000000
10
33.7733139179
20
-46.5802959443
30
0.0000000000
10
33.7618125329
20
-46.5132855575
30
0.0000000000
10
33.7705539592
20
-46.4706370452
30
0.0000000000
10
33.7630088425
20
-46.4630545338
30
0.0000000000
11
33.7742038179
21
-46.8040715408
31
0.0000000000
11
33.7723124129
21
-46.6791251307
31
0.0000000000
11
33.7698041813
21
-46.5720103547
31
0.0000000000
11
33.7666732934
21
-46.4949352675
31
0.0000000000
11
33.7630088425
21
-46.4630545338
31
0.0000000000
0
SPLINE
5
357
100
AcDbEntity
8
0
100
AcDbSpline
62
9
6
CONTINUOUS
70
0
71
3
72
9
73
5
74
3
42
0.0000001000
43
0.0000001000
44
0.0000000001
12
0.0183217332
22
22.9358875898
32
0.0000000000
13
0.0000147451
23
22.9358949077
33
0.0000000000
40
0.0000000000
40
0.0000000000
40
0.0000000000
40
0.0000000000
40
0.4999178688
40
1.0000000000
40
1.0000000000
40
1.0000000000
40
1.0000000000
10
33.7788703865
20
-47.1858833941
30
0.0000000000
10
33.7819235071
20
-43.3638633796
30
0.0000000000
10
33.7864893189
20
-35.7185662169
30
0.0000000000
10
33.7880574435
20
-28.0732678472
30
0.0000000000
10
33.7880599014
20
-24.2499907786
30
0.0000000000
11
33.7788703865
21
-47.1858833941
31
0.0000000000
11
33.7857393933
21
-35.7198217498
31
0.0000000000
11
33.7880599014
21
-24.2499907786
31
0.0000000000
0
SPLINE
5
358
100
AcDbEntity
8
0
100
AcDbSpline
62
9
6
CONTINUOUS
70
0
71
3
72
8
73
4
74
2
42
0.0000001000
43
0.0000001000
44
0.0000000001
12
0.0487774345
22
0.0490440295
32
0.0000000000
13
0.0027471851
23
0.0691159021
33
0.0000000000
40
0.0000000000
40
0.0000000000
40
0.0000000000
40
0.0000000000
40
1.0000000000
40
1.0000000000
40
1.0000000000
40
1.0000000000
10
33.7826533804
20
-2.0173009283
30
0.0000000000
10
33.7989125253
20
-2.0009529184
30
0.0000000000
10
33.7871703086
20
-1.9713827556
30
0.0000000000
10
33.7880860369
20
-1.9483441216
30
0.0000000000
11
33.7826533804
21
-2.0173009283
31
0.0000000000
11
33.7880860369
21
-1.9483441216
31
0.0000000000
0
SPLINE
5
359
100
AcDbEntity
8
0
100
AcDbSpline
62
9
6
CONTINUOUS
70
0
71
3
72
10
73
6
74
4
42
0.0000001000
43
0.0000001000
44
0.0000000001
12
-0.0001418649
22
-0.4657623659
32
0.0000000000
13
-0.4657623659
23
-0.0001418649
33
0.0000000000
40
0.0000000000
40
0.0000000000
40
0.0000000000
40
0.0000000000
40
0.3333248774
40
0.6666751226
40
1.0000000000
40
1.0000000000
40
1.0000000000
40
1.0000000000
10
33.7826533804
20
2.0173009283
30
0.0000000000
10
33.7826376181
20
1.9655508671
30
0.0000000000
10
33.7544925568
20
1.8600708000
30
0.0000000000
10
33.6399292002
20
1.7455074433
30
0.0000000000
10
33.5344491331
20
1.7173623821
30
0.0000000000
10
33.4826990719
20
1.7173466197
30
0.0000000000
11
33.7826533804
21
2.0173009283
31
0.0000000000
11
33.7424366757
21
1.8673501418
31
0.0000000000
11
33.6326498584
21
1.7575633244
31
0.0000000000
11
33.4826990719
21
1.7173466197
31
0.0000000000
0
SPLINE
5
35A
100
AcDbEntity
8
0
100
AcDbSpline
62
9
6
CONTINUOUS
70
0
71
3
72
10
73
6
74
4
42
0.0000001000
43
0.0000001000
44
0.0000000001
12
-2.2191357153
22
-37.5459256607
32
0.0000000000
13
0.0000686032
23
-37.6114490154
33
0.0000000000
40
0.0000000000
40
0.0000000000
40
0.0000000000
40
0.0000000000
40
0.3332206550
40
0.6666632689
40
1.0000000000
40
1.0000000000
40
1.0000000000
40
1.0000000000
10
-58.5795614301
20
61.8400614614
30
0.0000000000
10
-58.8260487156
20
57.6697021477
30
0.0000000000
10
-59.2371527342
20
49.3211140903
30
0.0000000000
10
-59.6072655806
20
36.7886991978
30
0.0000000000
10
-59.6895180542
20
28.4289438139
30
0.0000000000
10
-59.6895104316
20
24.2498513253
30
0.0000000000
11
-58.5795614301
21
61.8400614614
31
0.0000000000
11
-59.1959523736
21
49.3223165652
31
0.0000000000
11
-59.5661589227
21
36.7865219623
31
0.0000000000
11
-59.6895104316
21
24.2498513253
31
0.0000000000
0
SPLINE
5
35B
100
AcDbEntity
8
0
100
AcDbSpline
62
9
6
CONTINUOUS
70
0
71
3
72
11
73
7
74
5
42
0.0000001000
43
0.0000001000
44
0.0000000001
12
0.0041847368
22
-0.3413080747
32
0.0000000000
13
0.2395224948
23
-0.2431824178
33
0.0000000000
40
0.0000000000
40
0.0000000000
40
0.0000000000
40
0.0000000000
40
0.3632235201
40
0.6777931600
40
0.9048012437
40
1.0000000000
40
1.0000000000
40
1.0000000000
40
1.0000000000
10
-33.7742038175
20
46.8040715408
30
0.0000000000
10
-33.7736971526
20
46.7627478340
30
0.0000000000
10
-33.7714407585
20
46.6862745463
30
0.0000000000
10
-33.7733180550
20
46.5810285456
30
0.0000000000
10
-33.7618380209
20
46.5136427404
30
0.0000000000
10
-33.7706095900
20
46.4707714217
30
0.0000000000
10
-33.7630088421
20
46.4630545338
30
0.0000000000
11
-33.7742038175
21
46.8040715408
31
0.0000000000
11
-33.7723306382
21
46.6801052540
31
0.0000000000
11
-33.7698265894
21
46.5727612286
31
0.0000000000
11
-33.7666991296
21
46.4953388538
31
0.0000000000
11
-33.7630088421
21
46.4630545338
31
0.0000000000
0
SPLINE
5
35C
100
AcDbEntity
8
0
100
AcDbSpline
62
9
6
CONTINUOUS
70
0
71
3
72
9
73
5
74
3
42
0.0000001000
43
0.0000001000
44
0.0000000001
12
-0.0183217353
22
-22.9358875874
32
0.0000000000
13
-0.0000147710
23
-22.9358949053
33
0.0000000000
40
0.0000000000
40
0.0000000000
40
0.0000000000
40
0.0000000000
40
0.4999204444
40
1.0000000000
40
1.0000000000
40
1.0000000000
40
1.0000000000
10
-33.7788703861
20
47.1858833917
30
0.0000000000
10
-33.7819235228
20
43.3638436865
30
0.0000000000
10
-33.7864893364
20
35.7185465246
30
0.0000000000
10
-33.7880574388
20
28.0732481557
30
0.0000000000
10
-33.7880599010
20
24.2499907786
30
0.0000000000
11
-33.7788703861
21
47.1858833917
31
0.0000000000
11
-33.7857394206
21
35.7197626752
31
0.0000000000
11
-33.7880599010
21
24.2499907786
31
0.0000000000
0
SPLINE
5
35D
100
AcDbEntity
8
0
100
AcDbSpline
62
9
6
CONTINUOUS
70
0
71
3
72
9
73
5
74
3
42
0.0000001000
43
0.0000001000
44
0.0000000001
12
0.0022524824
22
0.0574851992
32
0.0000000000
13
0.0715320224
23
0.0270216882
33
0.0000000000
40
0.0000000000
40
0.0000000000
40
0.0000000000
40
0.0000000000
40
0.8444829699
40
1.0000000000
40
1.0000000000
40
1.0000000000
40
1.0000000000
10
-33.7880860365
20
1.9483441131
30
0.0000000000
10
-33.7874519755
20
1.9645258703
30
0.0000000000
10
-33.7986952187
20
1.9891853297
30
0.0000000000
10
-33.7806513800
20
2.0007841993
30
0.0000000000
10
-33.7769432308
20
2.0021849769
30
0.0000000000
11
-33.7880860365
21
1.9483441131
31
0.0000000000
11
-33.7855553043
21
1.9968606783
31
0.0000000000
11
-33.7769432308
21
2.0021849769
31
0.0000000000
0
SPLINE
5
35E
100
AcDbEntity
8
0
100
AcDbSpline
62
9
6
CONTINUOUS
70
0
71
3
72
10
73
6
74
4
42
0.0000001000
43
0.0000001000
44
0.0000000001
12
-0.0845956882
22
0.3853355960
32
0.0000000000
13
-0.3868762444
23
0.0772445698
33
0.0000000000
40
0.0000000000
40
0.0000000000
40
0.0000000000
40
0.0000000000
40
0.3241516649
40
0.6651917408
40
1.0000000000
40
1.0000000000
40
1.0000000000
40
1.0000000000
10
33.8339503578
20
-1.7680940775
30
0.0000000000
10
33.8248097467
20
-1.7264583525
30
0.0000000000
10
33.7860743392
20
-1.6448299968
30
0.0000000000
10
33.6888150473
20
-1.5527300280
30
0.0000000000
10
33.6046925530
20
-1.5169059060
30
0.0000000000
10
33.5615160990
20
-1.5082851994
30
0.0000000000
11
33.8339503578
21
-1.7680940775
31
0.0000000000
11
33.7808929881
21
-1.6517382662
31
0.0000000000
11
33.6835262789
21
-1.5588838244
31
0.0000000000
11
33.5615160990
21
-1.5082851994
31
0.0000000000
0
SPLINE
5
35F
100
AcDbEntity
8
0
100
AcDbSpline
62
9
6
CONTINUOUS
70
0
71
3
72
9
73
5
74
3
42
0.0000001000
43
0.0000001000
44
0.0000000001
12
0.0022514392
22
-0.0574935808
32
0.0000000000
13
0.0715984325
23
-0.0264485294
33
0.0000000000
40
0.0000000000
40
0.0000000000
40
0.0000000000
40
0.0000000000
40
0.8479853663
40
1.0000000000
40
1.0000000000
40
1.0000000000
40
1.0000000000
10
-33.7880860366
20
-1.9483441136
30
0.0000000000
10
-33.7874496407
20
-1.9645953520
30
0.0000000000
10
-33.7988690780
20
-1.9894398922
30
0.0000000000
10
-33.7806985010
20
-2.0008474005
30
0.0000000000
10
-33.7770704979
20
-2.0021875883
30
0.0000000000
11
-33.7880860366
21
-1.9483441136
31
0.0000000000
11
-33.7855391089
21
-1.9970686751
31
0.0000000000
11
-33.7770704979
21
-2.0021875883
31
0.0000000000
0
SPLINE
5
360
100
AcDbEntity
8
0
100
AcDbSpline
62
9
6
CONTINUOUS
70
0
71
3
72
9
73
5
74
3
42
0.0000001000
43
0.0000001000
44
0.0000000001
12
0.0000147476
22
-22.9358950203
32
0.0000000000
13
0.0183217333
23
-22.9358877024
33
0.0000000000
40
0.0000000000
40
0.0000000000
40
0.0000000000
40
0.0000000000
40
0.5000773807
40
1.0000000000
40
1.0000000000
40
1.0000000000
40
1.0000000000
10
-33.7880599010
20
-24.2499940072
30
0.0000000000
10
-33.7880574427
20
-28.0732347759
30
0.0000000000
10
-33.7864893099
20
-35.7185331831
30
0.0000000000
10
-33.7819235766
20
-43.3638303833
30
0.0000000000
10
-33.7788704270
20
-47.1858867353
30
0.0000000000
11
-33.7880599010
21
-24.2499940072
31
0.0000000000
11
-33.7857394351
21
-35.7197160785
31
0.0000000000
11
-33.7788704270
21
-47.1858867353
31
0.0000000000
0
SPLINE
5
361
100
AcDbEntity
8
0
100
AcDbSpline
62
9
6
CONTINUOUS
70
0
71
3
72
11
73
7
74
5
42
0.0000001000
43
0.0000001000
44
0.0000000001
12
0.0041826739
22
0.3413077750
32
0.0000000000
13
0.2408238983
23
0.2418932451
33
0.0000000000
40
0.0000000000
40
0.0000000000
40
0.0000000000
40
0.0000000000
40
0.3627710363
40
0.6767055819
40
0.9041145585
40
1.0000000000
40
1.0000000000
40
1.0000000000
40
1.0000000000
10
-33.7742038175
20
-46.8040715408
30
0.0000000000
10
-33.7736980332
20
-46.7627993491
30
0.0000000000
10
-33.7714371942
20
-46.6864563040
30
0.0000000000
10
-33.7733417411
20
-46.5812641701
30
0.0000000000
10
-33.7617810663
20
-46.5138981083
30
0.0000000000
10
-33.7707060107
20
-46.4707858806
30
0.0000000000
10
-33.7630088421
20
-46.4630545338
30
0.0000000000
11
-33.7742038175
21
-46.8040715408
31
0.0000000000
11
-33.7723334371
21
-46.6802597953
31
0.0000000000
11
-33.7698376217
21
-46.5731325179
31
0.0000000000
11
-33.7667129528
21
-46.4955731549
31
0.0000000000
11
-33.7630088421
21
-46.4630545338
31
0.0000000000
0
SPLINE
5
362
100
AcDbEntity
8
0
100
AcDbSpline
62
9
6
CONTINUOUS
70
0
71
3
72
10
73
6
74
4
42
0.0000001000
43
0.0000001000
44
0.0000000001
12
-0.0032775058
22
0.4554938721
32
0.0000000000
13
-0.4509041448
23
0.0645822096
33
0.0000000000
40
0.0000000000
40
0.0000000000
40
0.0000000000
40
0.0000000000
40
0.3203041020
40
0.6572634195
40
1.0000000000
40
1.0000000000
40
1.0000000000
40
1.0000000000
10
33.7880854840
20
-1.9534294718
30
0.0000000000
10
33.7877355511
20
-1.9047972865
30
0.0000000000
10
33.7572233791
20
-1.8037096038
30
0.0000000000
10
33.6445887112
20
-1.6945604347
30
0.0000000000
10
33.5444632611
20
-1.6578137129
30
0.0000000000
10
33.4929494795
20
-1.6504354843
30
0.0000000000
11
33.7880854840
21
-1.9534294718
31
0.0000000000
11
33.7476613445
21
-1.8132410415
31
0.0000000000
11
33.6394471354
21
-1.7043929523
31
0.0000000000
11
33.4929494795
21
-1.6504354843
31
0.0000000000
0
SPLINE
5
363
100
AcDbEntity
8
0
100
AcDbSpline
62
9
6
CONTINUOUS
70
0
71
3
72
10
73
6
74
4
42
0.0000001000
43
0.0000001000
44
0.0000000001
12
-0.0001418649
22
0.4657623658
32
0.0000000000
13
-0.4657623658
23
0.0001418649
33
0.0000000000
40
0.0000000000
40
0.0000000000
40
0.0000000000
40
0.0000000000
40
0.3333272979
40
0.6666772484
40
1.0000000000
40
1.0000000000
40
1.0000000000
40
1.0000000000
10
33.7826533804
20
-2.0173009283
30
0.0000000000
10
33.7826376180
20
-1.9655504913
30
0.0000000000
10
33.7544922375
20
-1.8600700536
30
0.0000000000
10
33.6399284582
20
-1.7455071428
30
0.0000000000
10
33.5344488030
20
-1.7173623820
30
0.0000000000
10
33.4826990719
20
-1.7173466197
30
0.0000000000
11
33.7826533804
21
-2.0173009283
31
0.0000000000
11
33.7424360921
21
-1.8673491311
31
0.0000000000
11
33.6326489708
21
-1.7575628118
31
0.0000000000
11
33.4826990719
21
-1.7173466197
31
0.0000000000
0
SPLINE
5
364
100
AcDbEntity
8
0
100
AcDbSpline
62
9
6
CONTINUOUS
70
0
71
3
72
10
73
6
74
4
42
0.0000001000
43
0.0000001000
44
0.0000000001
12
0.0845936275
22
0.3853397665
32
0.0000000000
13
0.3868793828
23
0.0772473988
33
0.0000000000
40
0.0000000000
40
0.0000000000
40
0.0000000000
40
0.0000000000
40
0.3241528928
40
0.6651928952
40
1.0000000000
40
1.0000000000
40
1.0000000000
40
1.0000000000
10
-33.8339492308
20
-1.7680953318
30
0.0000000000
10
-33.8248088078
20
-1.7264589985
30
0.0000000000
10
-33.7860738146
20
-1.6448293971
30
0.0000000000
10
-33.6888146242
20
-1.5527275023
30
0.0000000000
10
-33.6046917522
20
-1.5169024068
30
0.0000000000
10
-33.5615150969
20
-1.5082814142
30
0.0000000000
11
-33.8339492308
21
-1.7680953318
31
0.0000000000
11
-33.7808922412
21
-1.6517375210
31
0.0000000000
11
-33.6835255923
21
-1.5588812634
31
0.0000000000
11
-33.5615150969
21
-1.5082814142
31
0.0000000000
0
SPLINE
5
365
100
AcDbEntity
8
0
100
AcDbSpline
62
9
6
CONTINUOUS
70
0
71
3
72
10
73
6
74
4
42
0.0000001000
43
0.0000001000
44
0.0000000001
12
0.0019719157
22
0.4600435295
32
0.0000000000
13
0.4591127608
23
0.0293157013
33
0.0000000000
40
0.0000000000
40
0.0000000000
40
0.0000000000
40
0.0000000000
40
0.3292661175
40
0.6619618432
40
1.0000000000
40
1.0000000000
40
1.0000000000
40
1.0000000000
10
-33.7880827945
20
-1.9483444034
30
0.0000000000
10
-33.7878663662
20
-1.8978521544
30
0.0000000000
10
-33.7592915752
20
-1.7943358378
30
0.0000000000
10
-33.6440534520
20
-1.6837139145
30
0.0000000000
10
-33.5411699350
20
-1.6537375287
30
0.0000000000
10
-33.4894373912
20
-1.6504342535
30
0.0000000000
11
-33.7880827945
21
-1.9483444034
31
0.0000000000
11
-33.7476357761
21
-1.8023660998
31
0.0000000000
11
-33.6383732575
21
-1.6951848642
31
0.0000000000
11
-33.4894373912
21
-1.6504342535
31
0.0000000000
0
SPLINE
5
366
100
AcDbEntity
8
0
100
AcDbSpline
62
9
6
CONTINUOUS
70
0
71
3
72
10
73
6
74
4
42
0.0000001000
43
0.0000001000
44
0.0000000001
12
0.0001418649
22
0.4657623659
32
0.0000000000
13
0.4657623659
23
0.0001418649
33
0.0000000000
40
0.0000000000
40
0.0000000000
40
0.0000000000
40
0.0000000000
40
0.3333248775
40
0.6666751224
40
1.0000000000
40
1.0000000000
40
1.0000000000
40
1.0000000000
10
-33.7826533801
20
-2.0173009283
30
0.0000000000
10
-33.7826376177
20
-1.9655508671
30
0.0000000000
10
-33.7544925565
20
-1.8600708000
30
0.0000000000
10
-33.6399291998
20
-1.7455074433
30
0.0000000000
10
-33.5344491327
20
-1.7173623821
30
0.0000000000
10
-33.4826990715
20
-1.7173466197
30
0.0000000000
11
-33.7826533801
21
-2.0173009283
31
0.0000000000
11
-33.7424366754
21
-1.8673501417
31
0.0000000000
11
-33.6326498581
21
-1.7575633245
31
0.0000000000
11
-33.4826990715
21
-1.7173466197
31
0.0000000000
0
SPLINE
5
367
100
AcDbEntity
8
0
100
AcDbSpline
62
9
6
CONTINUOUS
70
0
71
3
72
10
73
6
74
4
42
0.0000001000
43
0.0000001000
44
0.0000000001
12
-0.4657623658
22
0.0001418649
32
0.0000000000
13
-0.0001418649
23
0.4657623658
33
0.0000000000
40
0.0000000000
40
0.0000000000
40
0.0000000000
40
0.0000000000
40
0.3333248774
40
0.6666751226
40
1.0000000000
40
1.0000000000
40
1.0000000000
40
1.0000000000
10
-33.4630545336
20
-46.7630088423
30
0.0000000000
10
-33.5148045947
20
-46.7629930799
30
0.0000000000
10
-33.6202846618
20
-46.7348480187
30
0.0000000000
10
-33.7348480185
20
-46.6202846620
30
0.0000000000
10
-33.7629930798
20
-46.5148045949
30
0.0000000000
10
-33.7630088421
20
-46.4630545338
30
0.0000000000
11
-33.4630545336
21
-46.7630088423
31
0.0000000000
11
-33.6130053201
21
-46.7227921376
31
0.0000000000
11
-33.7227921374
21
-46.6130053203
31
0.0000000000
11
-33.7630088421
21
-46.4630545338
31
0.0000000000
0
SPLINE
5
368
100
AcDbEntity
8
0
100
AcDbSpline
62
9
6
CONTINUOUS
70
0
71
3
72
10
73
6
74
4
42
0.0000001000
43
0.0000001000
44
0.0000000001
12
-0.3719311057
22
0.0030502803
32
0.0000000000
13
-0.0092662641
23
0.3718281699
33
0.0000000000
40
0.0000000000
40
0.0000000000
40
0.0000000000
40
0.0000000000
40
0.4050466545
40
0.7447602074
40
1.0000000000
40
1.0000000000
40
1.0000000000
40
1.0000000000
10
-33.4742495090
20
-46.9761444717
30
0.0000000000
10
-33.5244659923
20
-46.9757326364
30
0.0000000000
10
-33.6170784038
20
-46.9614020193
30
0.0000000000
10
-33.7314395110
20
-46.9064556585
30
0.0000000000
10
-33.7734154444
20
-46.8357066558
30
0.0000000000
10
-33.7742038175
20
-46.8040715408
30
0.0000000000
11
-33.4742495090
21
-46.9761444717
31
0.0000000000
11
-33.6230018198
21
-46.9522795747
31
0.0000000000
11
-33.7326024654
21
-46.8894058586
31
0.0000000000
11
-33.7742038175
21
-46.8040715408
31
0.0000000000
0
SPLINE
5
369
100
AcDbEntity
8
0
100
AcDbSpline
62
9
6
CONTINUOUS
70
0
71
3
72
10
73
6
74
4
42
0.0000001000
43
0.0000001000
44
0.0000000001
12
-0.3719311178
22
0.0030502808
32
0.0000000000
13
-0.0092662644
23
0.3718281821
33
0.0000000000
40
0.0000000000
40
0.0000000000
40
0.0000000000
40
0.0000000000
40
0.4050477838
40
0.7447611798
40
1.0000000000
40
1.0000000000
40
1.0000000000
40
1.0000000000
10
-33.4789160694
20
-47.3579556509
30
0.0000000000
10
-33.5291326944
20
-47.3575438144
30
0.0000000000
10
-33.6217452305
20
-47.3432131508
30
0.0000000000
10
-33.7361063029
20
-47.2882666223
30
0.0000000000
10
-33.7780820078
20
-47.2175177155
30
0.0000000000
10
-33.7788703779
20
-47.1858827200
30
0.0000000000
11
-33.4789160694
21
-47.3579556509
31
0.0000000000
11
-33.6276687885
21
-47.3340906167
31
0.0000000000
11
-33.7372692975
21
-47.2712167713
31
0.0000000000
11
-33.7788703779
21
-47.1858827200
31
0.0000000000
0
SPLINE
5
36A
100
AcDbEntity
8
0
100
AcDbSpline
62
9
6
CONTINUOUS
70
0
71
3
72
10
73
6
74
4
42
0.0000001000
43
0.0000001000
44
0.0000000001
12
-0.2566599496
22
0.1238270116
32
0.0000000000
13
-0.1584730424
23
0.2368411986
33
0.0000000000
40
0.0000000000
40
0.0000000000
40
0.0000000000
40
0.0000000000
40
0.3414465384
40
0.6838919187
40
1.0000000000
40
1.0000000000
40
1.0000000000
40
1.0000000000
10
-33.7022765647
20
-48.0836766223
30
0.0000000000
10
-33.7314884484
20
-48.0695831875
30
0.0000000000
10
-33.7875550119
20
-48.0360518530
30
0.0000000000
10
-33.8606778640
20
-47.9749075728
30
0.0000000000
10
-33.9015534425
20
-47.9269195807
30
0.0000000000
10
-33.9182516457
20
-47.9019637751
30
0.0000000000
11
-33.7022765647
21
-48.0836766223
31
0.0000000000
11
-33.7859629373
21
-48.0340356859
31
0.0000000000
11
-33.8606353116
21
-47.9712094106
31
0.0000000000
11
-33.9182516457
21
-47.9019637751
31
0.0000000000
0
SPLINE
5
36B
100
AcDbEntity
8
0
100
AcDbSpline
62
9
6
CONTINUOUS
70
0
71
3
72
10
73
6
74
4
42
0.0000001000
43
0.0000001000
44
0.0000000001
12
-0.1584750913
22
-0.2368378333
32
0.0000000000
13
-0.2566632399
23
-0.1238163768
33
0.0000000000
40
0.0000000000
40
0.0000000000
40
0.0000000000
40
0.0000000000
40
0.3161080573
40
0.6585539665
40
1.0000000000
40
1.0000000000
40
1.0000000000
40
1.0000000000
10
33.9182568961
20
-47.9019664720
30
0.0000000000
10
33.9015584783
20
-47.9269219212
30
0.0000000000
10
33.8606822171
20
-47.9749089690
30
0.0000000000
10
33.7875582420
20
-48.0360510845
30
0.0000000000
10
33.7314908722
20
-48.0695804170
30
0.0000000000
10
33.7022786571
20
-48.0836726206
30
0.0000000000
11
33.9182568961
21
-47.9019664720
31
0.0000000000
11
33.8606397062
21
-47.9712107051
31
0.0000000000
11
33.7859660769
21
-48.0340348410
31
0.0000000000
11
33.7022786571
21
-48.0836726206
31
0.0000000000
0
SPLINE
5
36C
100
AcDbEntity
8
0
100
AcDbSpline
62
9
6
CONTINUOUS
70
0
71
3
72
10
73
6
74
4
42
0.0000001000
43
0.0000001000
44
0.0000000001
12
-0.0092662644
22
-0.3718281821
32
0.0000000000
13
-0.3719311178
23
-0.0030502807
33
0.0000000000
40
0.0000000000
40
0.0000000000
40
0.0000000000
40
0.0000000000
40
0.2552388202
40
0.5949522162
40
1.0000000000
40
1.0000000000
40
1.0000000000
40
1.0000000000
10
33.7788703782
20
-47.1858827144
30
0.0000000000
10
33.7780820081
20
-47.2175177099
30
0.0000000000
10
33.7361063032
20
-47.2882666167
30
0.0000000000
10
33.6217452308
20
-47.3432131452
30
0.0000000000
10
33.5291326947
20
-47.3575438089
30
0.0000000000
10
33.4789160697
20
-47.3579556453
30
0.0000000000
11
33.7788703782
21
-47.1858827144
31
0.0000000000
11
33.7372692978
21
-47.2712167658
31
0.0000000000
11
33.6276687888
21
-47.3340906111
31
0.0000000000
11
33.4789160697
21
-47.3579556453
31
0.0000000000
0
SPLINE
5
36D
100
AcDbEntity
8
0
100
AcDbSpline
62
9
6
CONTINUOUS
70
0
71
3
72
10
73
6
74
4
42
0.0000001000
43
0.0000001000
44
0.0000000001
12
-0.0092662637
22
-0.3718281568
32
0.0000000000
13
-0.3719310926
23
-0.0030502793
33
0.0000000000
40
0.0000000000
40
0.0000000000
40
0.0000000000
40
0.0000000000
40
0.2552408427
40
0.5949545640
40
1.0000000000
40
1.0000000000
40
1.0000000000
40
1.0000000000
10
33.7742038179
20
-46.8040715408
30
0.0000000000
10
33.7734154416
20
-46.8357067848
30
0.0000000000
10
33.7314392616
20
-46.9064558910
30
0.0000000000
10
33.6170781168
20
-46.9614020710
30
0.0000000000
10
33.5244658399
20
-46.9757326378
30
0.0000000000
10
33.4742495093
20
-46.9761444717
30
0.0000000000
11
33.7742038179
21
-46.8040715408
31
0.0000000000
11
33.7326021723
21
-46.8894061464
31
0.0000000000
11
33.6230013795
21
-46.9522797228
31
0.0000000000
11
33.4742495093
21
-46.9761444717
31
0.0000000000
0
SPLINE
5
36E
100
AcDbEntity
8
0
100
AcDbSpline
62
9
6
CONTINUOUS
70
0
71
3
72
10
73
6
74
4
42
0.0000001000
43
0.0000001000
44
0.0000000001
12
-0.0001418649
22
-0.4657623659
32
0.0000000000
13
-0.4657623659
23
-0.0001418649
33
0.0000000000
40
0.0000000000
40
0.0000000000
40
0.0000000000
40
0.0000000000
40
0.3333248774
40
0.6666751226
40
1.0000000000
40
1.0000000000
40
1.0000000000
40
1.0000000000
10
33.7630088425
20
-46.4630545338
30
0.0000000000
10
33.7629930801
20
-46.5148045949
30
0.0000000000
10
33.7348480189
20
-46.6202846620
30
0.0000000000
10
33.6202846622
20
-46.7348480187
30
0.0000000000
10
33.5148045951
20
-46.7629930799
30
0.0000000000
10
33.4630545339
20
-46.7630088423
30
0.0000000000
11
33.7630088425
21
-46.4630545338
31
0.0000000000
11
33.7227921378
21
-46.6130053203
31
0.0000000000
11
33.6130053205
21
-46.7227921376
31
0.0000000000
11
33.4630545339
21
-46.7630088423
31
0.0000000000
0
SPLINE
5
36F
100
AcDbEntity
8
0
100
AcDbSpline
62
9
6
CONTINUOUS
70
0
71
3
72
10
73
6
74
4
42
0.0000001000
43
0.0000001000
44
0.0000000001
12
0.4495743074
22
-0.6246553361
32
0.0000000000
13
0.0094714429
23
-0.7695593795
33
0.0000000000
40
0.0000000000
40
0.0000000000
40
0.0000000000
40
0.0000000000
40
0.2798953222
40
0.6234448943
40
1.0000000000
40
1.0000000000
40
1.0000000000
40
1.0000000000
10
-33.7022765283
20
48.0836680077
30
0.0000000000
10
-33.6603319464
20
48.0253886388
30
0.0000000000
10
-33.5808381354
20
47.8851829148
30
0.0000000000
10
-33.5009229150
20
47.6396619071
30
0.0000000000
10
-33.4801049103
20
47.4545495590
30
0.0000000000
10
-33.4789160702
20
47.3579557212
30
0.0000000000
11
-33.7022765283
21
48.0836680077
31
0.0000000000
11
-33.5949348956
21
47.8969054072
31
0.0000000000
11
-33.5119204471
21
47.6458736899
31
0.0000000000
11
-33.4789160702
21
47.3579557212
31
0.0000000000
0
SPLINE
5
370
100
AcDbEntity
8
0
100
AcDbSpline
62
9
6
CONTINUOUS
70
0
71
3
72
9
73
5
74
3
42
0.0000001000
43
0.0000001000
44
0.0000000001
12
0.0032531715
22
0.0672310211
32
0.0000000000
13
0.0570156103
23
0.0357744812
33
0.0000000000
40
0.0000000000
40
0.0000000000
40
0.0000000000
40
0.0000000000
40
0.5053755031
40
1.0000000000
40
1.0000000000
40
1.0000000000
40
1.0000000000
10
-33.4894373912
20
1.6504354741
30
0.0000000000
10
-33.4888893668
20
1.6617611111
30
0.0000000000
10
-33.4843635115
20
1.6816481966
30
0.0000000000
10
-33.4920995107
20
1.7114483082
30
0.0000000000
10
-33.4826990715
20
1.7173466197
30
0.0000000000
11
-33.4894373912
21
1.6504354741
31
0.0000000000
11
-33.4874465856
21
1.6843938332
31
0.0000000000
11
-33.4826990715
21
1.7173466197
31
0.0000000000
0
SPLINE
5
371
100
AcDbEntity
8
0
100
AcDbSpline
62
9
6
CONTINUOUS
70
0
71
3
72
10
73
6
74
4
42
0.0000001000
43
0.0000001000
44
0.0000000001
12
-1.0989010221
22
0.0582437078
32
0.0000000000
13
-0.7102433517
23
-0.8405534886
33
0.0000000000
40
0.0000000000
40
0.0000000000
40
0.0000000000
40
0.0000000000
40
0.4887161008
40
0.8479983460
40
1.0000000000
40
1.0000000000
40
1.0000000000
40
1.0000000000
10
-57.4819281268
20
61.8548795856
30
0.0000000000
10
-57.6609450010
20
61.8643677982
30
0.0000000000
10
-57.9821355801
20
61.8887994239
30
0.0000000000
10
-58.3191300816
20
61.8514843573
30
0.0000000000
10
-58.5435719275
20
61.8827000231
30
0.0000000000
10
-58.5795579822
20
61.8401115163
30
0.0000000000
11
-57.4819281268
21
61.8548795856
31
0.0000000000
11
-58.0193959742
21
61.8739037799
31
0.0000000000
11
-58.4147299867
21
61.8685847554
31
0.0000000000
11
-58.5795579822
21
61.8401115163
31
0.0000000000
0
SPLINE
5
372
100
AcDbEntity
8
0
100
AcDbSpline
62
9
6
CONTINUOUS
70
0
71
3
72
10
73
6
74
4
42
0.0000001000
43
0.0000001000
44
0.0000000001
12
-0.0509438372
22
1.1060901784
32
0.0000000000
13
0.8779210701
23
0.6747483619
33
0.0000000000
40
0.0000000000
40
0.0000000000
40
0.0000000000
40
0.0000000000
40
0.4880007537
40
0.8473210491
40
1.0000000000
40
1.0000000000
40
1.0000000000
40
1.0000000000
10
-56.2568435842
20
63.0722416369
30
0.0000000000
10
-56.2651304612
20
63.2521659172
30
0.0000000000
10
-56.2866927581
20
63.5759700924
30
0.0000000000
10
-56.2459726647
20
63.9127416859
30
0.0000000000
10
-56.2726483006
20
64.1415815591
30
0.0000000000
10
-56.2279682779
20
64.1759215164
30
0.0000000000
11
-56.2568435842
21
63.0722416369
31
0.0000000000
11
-56.2713705324
21
63.6123913739
31
0.0000000000
11
-56.2609649275
21
64.0101172494
31
0.0000000000
11
-56.2279682779
21
64.1759215164
31
0.0000000000
0
SPLINE
5
373
100
AcDbEntity
8
0
100
AcDbSpline
62
9
6
CONTINUOUS
70
0
71
3
72
10
73
6
74
4
42
0.0000001000
43
0.0000001000
44
0.0000000001
12
0.0509438147
22
1.1060905406
32
0.0000000000
13
-0.8779203134
23
0.6747499386
33
0.0000000000
40
0.0000000000
40
0.0000000000
40
0.0000000000
40
0.0000000000
40
0.4880007138
40
0.8473210111
40
1.0000000000
40
1.0000000000
40
1.0000000000
40
1.0000000000
10
56.2568435774
20
63.0722416302
30
0.0000000000
10
56.2651304500
20
63.2521659546
30
0.0000000000
10
56.2866927324
20
63.5759701841
30
0.0000000000
10
56.2459726692
20
63.9127419930
30
0.0000000000
10
56.2726482939
20
64.1415818316
30
0.0000000000
10
56.2279682987
20
64.1759218777
30
0.0000000000
11
56.2568435774
21
63.0722416302
31
0.0000000000
11
56.2713705188
21
63.6123914993
31
0.0000000000
11
56.2609649241
21
64.0101175068
31
0.0000000000
11
56.2279682987
21
64.1759218777
31
0.0000000000
0
SPLINE
5
374
100
AcDbEntity
8
0
100
AcDbSpline
62
9
6
CONTINUOUS
70
0
71
3
72
10
73
6
74
4
42
0.0000001000
43
0.0000001000
44
0.0000000001
12
1.0989009511
22
0.0582437603
32
0.0000000000
13
0.7102404525
23
-0.8405558491
33
0.0000000000
40
0.0000000000
40
0.0000000000
40
0.0000000000
40
0.0000000000
40
0.4887161805
40
0.8479984404
40
1.0000000000
40
1.0000000000
40
1.0000000000
40
1.0000000000
10
57.4819281572
20
61.8548796132
30
0.0000000000
10
57.6609450491
20
61.8643678359
30
0.0000000000
10
57.9821357258
20
61.8887995213
30
0.0000000000
10
58.3191299699
20
61.8514843180
30
0.0000000000
10
58.5435720499
20
61.8827001134
30
0.0000000000
10
58.5795579354
20
61.8401115134
30
0.0000000000
11
57.4819281572
21
61.8548796132
31
0.0000000000
11
58.0193960583
21
61.8739038265
31
0.0000000000
11
58.4147300624
21
61.8685847905
31
0.0000000000
11
58.5795579354
21
61.8401115134
31
0.0000000000
0
SPLINE
5
375
100
AcDbEntity
8
0
100
AcDbSpline
62
9
6
CONTINUOUS
70
0
71
3
72
15
73
11
74
9
42
0.0000001000
43
0.0000001000
44
0.0000000001
12
-0.2242087101
22
3.6135728310
32
0.0000000000
13
-3.6149754600
23
0.2003261699
33
0.0000000000
40
0.0000000000
40
0.0000000000
40
0.0000000000
40
0.0000000000
40
0.0919913477
40
0.1945231896
40
0.3081070783
40
0.4319929089
40
0.5649507679
40
0.7051655417
40
0.8469667780
40
1.0000000000
40
1.0000000000
40
1.0000000000
40
1.0000000000
10
58.5795584928
20
61.8401106885
30
0.0000000000
10
58.5726834056
20
61.9509165001
30
0.0000000000
10
58.5424991114
20
62.1845390349
30
0.0000000000
10
58.4431138936
20
62.5442224788
30
0.0000000000
10
58.2725842675
20
62.9195068242
30
0.0000000000
10
58.0190560205
20
63.2906587633
30
0.0000000000
10
57.6778064164
20
63.6313155821
30
0.0000000000
10
57.2574362306
20
63.9100291458
30
0.0000000000
10
56.7667137879
20
64.1063130224
30
0.0000000000
10
56.4123203889
20
64.1657060482
30
0.0000000000
10
56.2279166082
20
64.1759249013
30
0.0000000000
11
58.5795584928
21
61.8401106885
31
0.0000000000
11
58.5368523820
21
62.1704180310
31
0.0000000000
11
58.4379721773
21
62.5282253531
31
0.0000000000
11
58.2678165310
21
62.9026042945
31
0.0000000000
11
58.0148065602
21
63.2729640223
31
0.0000000000
11
57.6741060329
21
63.6130328400
31
0.0000000000
11
57.2510287041
21
63.8935943352
31
0.0000000000
11
56.7743337569
21
64.0842138707
31
0.0000000000
11
56.2279166082
21
64.1759249013
31
0.0000000000
0
SPLINE
5
376
100
AcDbEntity
8
0
100
AcDbSpline
62
9
6
CONTINUOUS
70
0
71
3
72
15
73
11
74
9
42
0.0000001000
43
0.0000001000
44
0.0000000001
12
-3.6149746106
22
-0.2003006441
32
0.0000000000
13
-0.2242310106
23
-3.6135691826
33
0.0000000000
40
0.0000000000
40
0.0000000000
40
0.0000000000
40
0.0000000000
40
0.0920014596
40
0.1945518469
40
0.3081645399
40
0.4320861305
40
0.5650830742
40
0.7053284974
40
0.8470276699
40
1.0000000000
40
1.0000000000
40
1.0000000000
40
1.0000000000
10
-56.2279681193
20
64.1759220259
30
0.0000000000
10
-56.3388290995
20
64.1697793754
30
0.0000000000
10
-56.5726805797
20
64.1411416321
30
0.0000000000
10
-56.9330852372
20
64.0441389306
30
0.0000000000
10
-57.3095923351
20
63.8760796374
30
0.0000000000
10
-57.6825317863
20
63.6249621918
30
0.0000000000
10
-58.0255356464
20
63.2858876427
30
0.0000000000
10
-58.3069823264
20
62.8673862791
30
0.0000000000
10
-58.5064243463
20
62.3781172193
30
0.0000000000
10
-58.5681278461
20
62.0243202920
30
0.0000000000
10
-58.5795615595
20
61.8400615927
30
0.0000000000
11
-56.2279681193
21
64.1759220259
31
0.0000000000
11
-56.5585876424
21
64.1354037241
31
0.0000000000
11
-56.9171107405
21
64.0388933855
31
0.0000000000
11
-57.2927127409
21
63.8711994837
31
0.0000000000
11
-57.6648580192
21
63.6205918761
31
0.0000000000
11
-58.0072769287
21
63.2820525022
31
0.0000000000
11
-58.2906693800
21
62.8607328465
31
0.0000000000
11
-58.4842760308
21
62.3856426140
31
0.0000000000
11
-58.5795615595
21
61.8400615927
31
0.0000000000
0
SPLINE
5
377
100
AcDbEntity
8
0
100
AcDbSpline
62
9
6
CONTINUOUS
70
0
71
3
72
9
73
5
74
3
42
0.0000001000
43
0.0000001000
44
0.0000000001
12
-0.0025965559
22
0.0536549927
32
0.0000000000
13
-0.0705193863
23
0.0134168756
33
0.0000000000
40
0.0000000000
40
0.0000000000
40
0.0000000000
40
0.0000000000
40
0.8799106055
40
1.0000000000
40
1.0000000000
40
1.0000000000
40
1.0000000000
10
33.4894373916
20
1.6504354741
30
0.0000000000
10
33.4886758125
20
1.6661726731
30
0.0000000000
10
33.5012084389
20
1.6923892764
30
0.0000000000
10
33.4822494805
20
1.6996093819
30
0.0000000000
10
33.4794266037
20
1.7001464567
30
0.0000000000
11
33.4894373916
21
1.6504354741
31
0.0000000000
11
33.4863488655
21
1.6976013084
31
0.0000000000
11
33.4794266037
21
1.7001464567
31
0.0000000000
0
SPLINE
5
378
100
AcDbEntity
8
0
100
AcDbSpline
62
9
6
CONTINUOUS
70
0
71
3
72
10
73
6
74
4
42
0.0000001000
43
0.0000001000
44
0.0000000001
12
-0.0001418650
22
0.4657623658
32
0.0000000000
13
-0.4657623658
23
0.0001418650
33
0.0000000000
40
0.0000000000
40
0.0000000000
40
0.0000000000
40
0.0000000000
40
0.3333274052
40
0.6666773416
40
1.0000000000
40
1.0000000000
40
1.0000000000
40
1.0000000000
10
33.7630088425
20
46.4630545338
30
0.0000000000
10
33.7629930800
20
46.5148049874
30
0.0000000000
10
33.7348476854
20
46.6202854414
30
0.0000000000
10
33.6202838875
20
46.7348483325
30
0.0000000000
10
33.5148042506
20
46.7629930800
30
0.0000000000
10
33.4630545339
20
46.7630088423
30
0.0000000000
11
33.7630088425
21
46.4630545338
31
0.0000000000
11
33.7227915282
21
46.6130063758
31
0.0000000000
11
33.6130043939
21
46.7227926727
31
0.0000000000
11
33.4630545339
21
46.7630088423
31
0.0000000000
0
SPLINE
5
379
100
AcDbEntity
8
0
100
AcDbSpline
62
9
6
CONTINUOUS
70
0
71
3
72
10
73
6
74
4
42
0.0000001000
43
0.0000001000
44
0.0000000001
12
-0.0092662644
22
0.3718281820
32
0.0000000000
13
-0.3719311178
23
0.0030502809
33
0.0000000000
40
0.0000000000
40
0.0000000000
40
0.0000000000
40
0.0000000000
40
0.2552388202
40
0.5949522162
40
1.0000000000
40
1.0000000000
40
1.0000000000
40
1.0000000000
10
33.7742038179
20
46.8040715408
30
0.0000000000
10
33.7734154477
20
46.8357065363
30
0.0000000000
10
33.7314397429
20
46.9064554431
30
0.0000000000
10
33.6170786705
20
46.9614019716
30
0.0000000000
10
33.5244661343
20
46.9757326352
30
0.0000000000
10
33.4742495093
20
46.9761444717
30
0.0000000000
11
33.7742038179
21
46.8040715408
31
0.0000000000
11
33.7326027375
21
46.8894055922
31
0.0000000000
11
33.6230022285
21
46.9522794375
31
0.0000000000
11
33.4742495093
21
46.9761444717
31
0.0000000000
0
SPLINE
5
37A
100
AcDbEntity
8
0
100
AcDbSpline
62
9
6
CONTINUOUS
70
0
71
3
72
10
73
6
74
4
42
0.0000001000
43
0.0000001000
44
0.0000000001
12
-0.0092659749
22
0.3718292280
32
0.0000000000
13
-0.3719321982
23
0.0030451588
33
0.0000000000
40
0.0000000000
40
0.0000000000
40
0.0000000000
40
0.0000000000
40
0.2552416652
40
0.5949541052
40
1.0000000000
40
1.0000000000
40
1.0000000000
40
1.0000000000
10
33.7788703782
20
47.1858827115
30
0.0000000000
10
33.7780820239
20
47.2175181486
30
0.0000000000
10
33.7361069075
20
47.2882679067
30
0.0000000000
10
33.6217452453
20
47.3432147854
30
0.0000000000
10
33.5291326063
20
47.3575444994
30
0.0000000000
10
33.4789160696
20
47.3579556424
30
0.0000000000
11
33.7788703782
21
47.1858827115
31
0.0000000000
11
33.7372692423
21
47.2712182079
31
0.0000000000
11
33.6276687344
21
47.3340920492
31
0.0000000000
11
33.4789160696
21
47.3579556424
31
0.0000000000
0
SPLINE
5
37B
100
AcDbEntity
8
0
100
AcDbSpline
62
9
6
CONTINUOUS
70
0
71
3
72
10
73
6
74
4
42
0.0000001000
43
0.0000001000
44
0.0000000001
12
-0.1584762831
22
0.2368375434
32
0.0000000000
13
-0.2566646518
23
0.1238144207
33
0.0000000000
40
0.0000000000
40
0.0000000000
40
0.0000000000
40
0.0000000000
40
0.3161093428
40
0.6585551630
40
1.0000000000
40
1.0000000000
40
1.0000000000
40
1.0000000000
10
33.9182578398
20
47.9019664574
30
0.0000000000
10
33.9015592286
20
47.9269219775
30
0.0000000000
10
33.8606827424
20
47.9749090959
30
0.0000000000
10
33.7875585027
20
48.0360511300
30
0.0000000000
10
33.7314909580
20
48.0695801554
30
0.0000000000
10
33.7022786846
20
48.0836720870
30
0.0000000000
11
33.9182578398
21
47.9019664574
31
0.0000000000
11
33.8606401362
21
47.9712109130
31
0.0000000000
11
33.7859662294
21
48.0340349041
31
0.0000000000
11
33.7022786846
21
48.0836720870
31
0.0000000000
0
SPLINE
5
37C
100
AcDbEntity
8
0
100
AcDbSpline
62
9
6
CONTINUOUS
70
0
71
3
72
10
73
6
74
4
42
0.0000001000
43
0.0000001000
44
0.0000000001
12
0.1584754297
22
0.2368383492
32
0.0000000000
13
0.2566641642
23
0.1238158805
33
0.0000000000
40
0.0000000000
40
0.0000000000
40
0.0000000000
40
0.0000000000
40
0.3161077709
40
0.6585537109
40
1.0000000000
40
1.0000000000
40
1.0000000000
40
1.0000000000
10
-33.9182555764
20
47.9019635638
30
0.0000000000
10
-33.9015571382
20
47.9269190446
30
0.0000000000
10
-33.8606807520
20
47.9749061425
30
0.0000000000
10
-33.7875564946
20
48.0360482466
30
0.0000000000
10
-33.7314888874
20
48.0695775168
30
0.0000000000
10
-33.7022765453
20
48.0836696744
30
0.0000000000
11
-33.9182555764
21
47.9019635638
31
0.0000000000
11
-33.8606382585
21
47.9712078377
31
0.0000000000
11
-33.7859643408
21
48.0340319727
31
0.0000000000
11
-33.7022765453
21
48.0836696744
31
0.0000000000
0
SPLINE
5
37D
100
AcDbEntity
8
0
100
AcDbSpline
62
9
6
CONTINUOUS
70
0
71
3
72
10
73
6
74
4
42
0.0000001000
43
0.0000001000
44
0.0000000001
12
0.0092662644
22
0.3718281821
32
0.0000000000
13
0.3719311178
23
0.0030502807
33
0.0000000000
40
0.0000000000
40
0.0000000000
40
0.0000000000
40
0.0000000000
40
0.2552388202
40
0.5949522162
40
1.0000000000
40
1.0000000000
40
1.0000000000
40
1.0000000000
10
-33.7788703779
20
47.1858827191
30
0.0000000000
10
-33.7780820078
20
47.2175177146
30
0.0000000000
10
-33.7361063029
20
47.2882666214
30
0.0000000000
10
-33.6217452305
20
47.3432131499
30
0.0000000000
10
-33.5291326943
20
47.3575438136
30
0.0000000000
10
-33.4789160694
20
47.3579556500
30
0.0000000000
11
-33.7788703779
21
47.1858827191
31
0.0000000000
11
-33.7372692975
21
47.2712167705
31
0.0000000000
11
-33.6276687885
21
47.3340906158
31
0.0000000000
11
-33.4789160694
21
47.3579556500
31
0.0000000000
0
SPLINE
5
37E
100
AcDbEntity
8
0
100
AcDbSpline
62
9
6
CONTINUOUS
70
0
71
3
72
10
73
6
74
4
42
0.0000001000
43
0.0000001000
44
0.0000000001
12
0.0092662643
22
0.3718281753
32
0.0000000000
13
0.3719311111
23
0.0030502805
33
0.0000000000
40
0.0000000000
40
0.0000000000
40
0.0000000000
40
0.0000000000
40
0.2552393595
40
0.5949528426
40
1.0000000000
40
1.0000000000
40
1.0000000000
40
1.0000000000
10
-33.7742038175
20
46.8040715408
30
0.0000000000
10
-33.7734154457
20
46.8357066026
30
0.0000000000
10
-33.7314396141
20
46.9064555626
30
0.0000000000
10
-33.6170785224
20
46.9614019981
30
0.0000000000
10
-33.5244660554
20
46.9757326359
30
0.0000000000
10
-33.4742495090
20
46.9761444717
30
0.0000000000
11
-33.7742038175
21
46.8040715408
31
0.0000000000
11
-33.7326025864
21
46.8894057399
31
0.0000000000
11
-33.6230020016
21
46.9522795136
31
0.0000000000
11
-33.4742495090
21
46.9761444717
31
0.0000000000
0
SPLINE
5
37F
100
AcDbEntity
8
0
100
AcDbSpline
62
9
6
CONTINUOUS
70
0
71
3
72
10
73
6
74
4
42
0.0000001000
43
0.0000001000
44
0.0000000001
12
0.0001418649
22
0.4657623658
32
0.0000000000
13
0.4657623658
23
0.0001418650
33
0.0000000000
40
0.0000000000
40
0.0000000000
40
0.0000000000
40
0.0000000000
40
0.3333248779
40
0.6666751217
40
1.0000000000
40
1.0000000000
40
1.0000000000
40
1.0000000000
10
-33.7630088421
20
46.4630545338
30
0.0000000000
10
-33.7629930798
20
46.5148045950
30
0.0000000000
10
-33.7348480185
20
46.6202846620
30
0.0000000000
10
-33.6202846619
20
46.7348480186
30
0.0000000000
10
-33.5148045949
20
46.7629930799
30
0.0000000000
10
-33.4630545336
20
46.7630088423
30
0.0000000000
11
-33.7630088421
21
46.4630545338
31
0.0000000000
11
-33.7227921373
21
46.6130053205
31
0.0000000000
11
-33.6130053205
21
46.7227921374
31
0.0000000000
11
-33.4630545336
21
46.7630088423
31
0.0000000000
0
SPLINE
5
380
100
AcDbEntity
8
0
100
AcDbSpline
62
9
6
CONTINUOUS
70
0
71
3
72
8
73
4
74
2
42
0.0000001000
43
0.0000001000
44
0.0000000001
12
0.0569971008
22
0.0356908514
32
0.0000000000
13
0.0032421046
23
0.0671713862
33
0.0000000000
40
0.0000000000
40
0.0000000000
40
0.0000000000
40
0.0000000000
40
1.0000000000
40
1.0000000000
40
1.0000000000
40
1.0000000000
10
33.4826990719
20
-1.7173466197
30
0.0000000000
10
33.5016981055
20
-1.7054496693
30
0.0000000000
10
33.4883566900
20
-1.6728259361
30
0.0000000000
10
33.4894373916
20
-1.6504354741
30
0.0000000000
11
33.4826990719
21
-1.7173466197
31
0.0000000000
11
33.4894373916
21
-1.6504354741
31
0.0000000000
0
SPLINE
5
381
100
AcDbEntity
8
0
100
AcDbSpline
62
9
6
CONTINUOUS
70
0
71
3
72
10
73
6
74
4
42
0.0000001000
43
0.0000001000
44
0.0000000001
12
0.1808963546
22
0.1135303739
32
0.0000000000
13
0.0041782336
23
0.2135302772
33
0.0000000000
40
0.0000000000
40
0.0000000000
40
0.0000000000
40
0.0000000000
40
0.2327842844
40
0.5414878017
40
1.0000000000
40
1.0000000000
40
1.0000000000
40
1.0000000000
10
33.4630545339
20
46.7630088423
30
0.0000000000
10
33.4770911434
20
46.7718182046
30
0.0000000000
10
33.4630800666
20
46.8223882448
30
0.0000000000
10
33.4753944302
20
46.8866596739
30
0.0000000000
10
33.4736109190
20
46.9435090594
30
0.0000000000
10
33.4742495093
20
46.9761444717
30
0.0000000000
11
33.4630545339
21
46.7630088423
31
0.0000000000
11
33.4688662420
21
46.8123839927
31
0.0000000000
11
33.4717312811
21
46.8782518780
31
0.0000000000
11
33.4742495093
21
46.9761444717
31
0.0000000000
0
SPLINE
5
382
100
AcDbEntity
8
0
100
AcDbSpline
62
9
6
CONTINUOUS
70
0
71
3
72
10
73
6
74
4
42
0.0000001000
43
0.0000001000
44
0.0000000001
12
0.0041745521
22
-0.2135021920
32
0.0000000000
13
0.1808230501
23
-0.1135941787
33
0.0000000000
40
0.0000000000
40
0.0000000000
40
0.0000000000
40
0.0000000000
40
0.3629725230
40
0.6770070638
40
1.0000000000
40
1.0000000000
40
1.0000000000
40
1.0000000000
10
-33.4742495090
20
46.9761444717
30
0.0000000000
10
-33.4737444264
20
46.9503126620
30
0.0000000000
10
-33.4748643911
20
46.9005770460
30
0.0000000000
10
-33.4633167042
20
46.8357202815
30
0.0000000000
10
-33.4825227229
20
46.7752388814
30
0.0000000000
10
-33.4630545336
20
46.7630088423
30
0.0000000000
11
-33.4742495090
21
46.9761444717
31
0.0000000000
11
-33.4723761765
21
46.8986568717
31
0.0000000000
11
-33.4698752497
21
46.8316436446
31
0.0000000000
11
-33.4630545336
21
46.7630088423
31
0.0000000000
0
SPLINE
5
383
100
AcDbEntity
8
0
100
AcDbSpline
62
9
6
CONTINUOUS
70
0
71
3
72
14
73
10
74
8
42
0.0000001000
43
0.0000001000
44
0.0000000001
12
0.6260783483
22
-0.5585070968
32
0.0000000000
13
0.5664857257
23
-0.6188684820
33
0.0000000000
40
0.0000000000
40
0.0000000000
40
0.0000000000
40
0.0000000000
40
0.1428677692
40
0.2814013256
40
0.4185666171
40
0.5569721513
40
0.6990298952
40
0.8465103723
40
1.0000000000
40
1.0000000000
40
1.0000000000
40
1.0000000000
10
-34.3020454881
20
48.6700766286
30
0.0000000000
10
-34.2722300157
20
48.6434790743
30
0.0000000000
10
-34.2151684099
20
48.5892555630
30
0.0000000000
10
-34.1301104688
20
48.5088442108
30
0.0000000000
10
-34.0461734718
20
48.4290506129
30
0.0000000000
10
-33.9620075984
20
48.3480730612
30
0.0000000000
10
-33.8765224771
20
48.2643092554
30
0.0000000000
10
-33.7892468351
20
48.1763615728
30
0.0000000000
10
-33.7312597725
20
48.1153313341
30
0.0000000000
10
-33.7022765448
20
48.0836680364
30
0.0000000000
11
-34.3020454881
21
48.6700766286
31
0.0000000000
11
-34.2142579205
21
48.5884624536
31
0.0000000000
11
-34.1298684209
21
48.5085410935
31
0.0000000000
11
-34.0465042262
21
48.4292070570
31
0.0000000000
11
-33.9628648740
21
48.3486557455
31
0.0000000000
11
-33.8777980611
21
48.2651769518
31
0.0000000000
11
-33.7907436123
21
48.1772463732
31
0.0000000000
11
-33.7022765448
21
48.0836680364
31
0.0000000000
0
SPLINE
5
384
100
AcDbEntity
8
0
100
AcDbSpline
62
9
6
CONTINUOUS
70
0
71
3
72
12
73
8
74
6
42
0.0000001000
43
0.0000001000
44
0.0000000001
12
0.5666242426
22
0.6187335723
32
0.0000000000
13
0.6158697354
23
0.5697356709
33
0.0000000000
40
0.0000000000
40
0.0000000000
40
0.0000000000
40
0.0000000000
40
0.1659090807
40
0.3396508730
40
0.5373249065
40
0.7582576912
40
1.0000000000
40
1.0000000000
40
1.0000000000
40
1.0000000000
10
33.7022786846
20
48.0836710129
30
0.0000000000
10
33.7336147203
20
48.1178888523
30
0.0000000000
10
33.7991367517
20
48.1866856256
30
0.0000000000
10
33.9053343828
20
48.2930094345
30
0.0000000000
10
34.0242825172
20
48.4083151729
30
0.0000000000
10
34.1581395808
20
48.5355430019
30
0.0000000000
10
34.2524183304
20
48.6241696601
30
0.0000000000
10
34.3020455876
20
48.6700793989
30
0.0000000000
11
33.7022786846
21
48.0836710129
31
0.0000000000
11
33.7980091856
21
48.1847202098
31
0.0000000000
11
33.9008617163
21
48.2880123070
31
0.0000000000
11
34.0197892310
21
48.4036018013
31
0.0000000000
11
34.1540334251
21
48.5314160700
31
0.0000000000
11
34.3020455876
21
48.6700793989
31
0.0000000000
0
SPLINE
5
385
100
AcDbEntity
8
0
100
AcDbSpline
62
9
6
CONTINUOUS
70
0
71
3
72
14
73
10
74
8
42
0.0000001000
43
0.0000001000
44
0.0000000001
12
0.4070749896
22
-0.7561238934
32
0.0000000000
13
0.3558996883
23
-0.7815169872
33
0.0000000000
40
0.0000000000
40
0.0000000000
40
0.0000000000
40
0.0000000000
40
0.1412163651
40
0.2787856120
40
0.4150412144
40
0.5528764013
40
0.6949755172
40
0.8435610428
40
1.0000000000
40
1.0000000000
40
1.0000000000
40
1.0000000000
10
-34.3020497389
20
48.6700808523
30
0.0000000000
10
-34.2828878555
20
48.6344884964
30
0.0000000000
10
-34.2466469940
20
48.5633802922
30
0.0000000000
10
-34.1924669055
20
48.4576539828
30
0.0000000000
10
-34.1388056564
20
48.3527440253
30
0.0000000000
10
-34.0849393074
20
48.2464845085
30
0.0000000000
10
-34.0301092291
20
48.1367574910
30
0.0000000000
10
-33.9739603688
20
48.0217417874
30
0.0000000000
10
-33.9368166328
20
47.9427166995
30
0.0000000000
10
-33.9182577740
20
47.9019634653
30
0.0000000000
11
-34.3020497389
21
48.6700808523
31
0.0000000000
11
-34.2461338278
21
48.5624734497
31
0.0000000000
11
-34.1923084246
21
48.4573118008
31
0.0000000000
11
-34.1390742819
21
48.3531148171
31
0.0000000000
11
-34.0855912867
21
48.2475225540
31
0.0000000000
11
-34.0311041096
21
48.1383368425
31
0.0000000000
11
-33.9752219904
21
48.0236285550
31
0.0000000000
11
-33.9182577740
21
47.9019634653
31
0.0000000000
0
SPLINE
5
386
100
AcDbEntity
8
0
100
AcDbSpline
62
9
6
CONTINUOUS
70
0
71
3
72
10
73
6
74
4
42
0.0000001000
43
0.0000001000
44
0.0000000001
12
0.3041993354
22
-0.6679944201
32
0.0000000000
13
0.0054829095
23
-0.7339780097
33
0.0000000000
40
0.0000000000
40
0.0000000000
40
0.0000000000
40
0.0000000000
40
0.2672011498
40
0.6119412299
40
1.0000000000
40
1.0000000000
40
1.0000000000
40
1.0000000000
10
-33.9182577740
20
47.9019634653
30
0.0000000000
10
-33.8911636366
20
47.8424671729
30
0.0000000000
10
-33.8409726849
20
47.7007240961
30
0.0000000000
10
-33.7921540358
20
47.4602835239
30
0.0000000000
10
-33.7795796160
20
47.2808255432
30
0.0000000000
10
-33.7788703856
20
47.1858833419
30
0.0000000000
11
-33.9182577740
21
47.9019634653
31
0.0000000000
11
-33.8512059500
21
47.7176562145
31
0.0000000000
11
-33.7994033034
21
47.4699768486
31
0.0000000000
11
-33.7788703856
21
47.1858833419
31
0.0000000000
0
SPLINE
5
387
100
AcDbEntity
8
0
100
AcDbSpline
62
9
6
CONTINUOUS
70
0
71
3
72
16
73
12
74
10
42
0.0000001000
43
0.0000001000
44
0.0000000001
12
0.4931152025
22
0.8376281369
32
0.0000000000
13
0.4338207595
23
0.8698178242
33
0.0000000000
40
0.0000000000
40
0.0000000000
40
0.0000000000
40
0.0000000000
40
0.1278156159
40
0.2522580016
40
0.3726843452
40
0.4881207802
40
0.5988753748
40
0.7057124317
40
0.8089727312
40
0.9079263024
40
1.0000000000
40
1.0000000000
40
1.0000000000
40
1.0000000000
10
-34.3125188231
20
0.9221659060
30
0.0000000000
10
-34.2915095487
20
0.9578532247
30
0.0000000000
10
-34.2509180407
20
1.0287957755
30
0.0000000000
10
-34.1907616035
20
1.1334927058
30
0.0000000000
10
-34.1324045199
20
1.2345989871
30
0.0000000000
10
-34.0763208268
20
1.3318964105
30
0.0000000000
10
-34.0225765403
20
1.4254604573
30
0.0000000000
10
-33.9710959186
20
1.5157744047
30
0.0000000000
10
-33.9220009858
20
1.6030471898
30
0.0000000000
10
-33.8761017406
20
1.6866216834
30
0.0000000000
10
-33.8472651333
20
1.7413995539
30
0.0000000000
10
-33.8339506395
20
1.7680953350
30
0.0000000000
11
-34.3125188231
21
0.9221659060
31
0.0000000000
11
-34.2503427836
21
1.0297247693
31
0.0000000000
11
-34.1900784613
21
1.1346010832
31
0.0000000000
11
-34.1316063373
21
1.2360049165
31
0.0000000000
11
-34.0755881674
21
1.3332249956
31
0.0000000000
11
-34.0219968029
21
1.4265910934
31
0.0000000000
11
-33.9706085554
21
1.5168305247
31
0.0000000000
11
-33.9214692083
21
1.6043477093
31
0.0000000000
11
-33.8752856073
21
1.6887172229
31
0.0000000000
11
-33.8339506395
21
1.7680953350
31
0.0000000000
0
SPLINE
5
388
100
AcDbEntity
8
0
100
AcDbSpline
62
9
6
CONTINUOUS
70
0
71
3
72
9
73
5
74
3
42
0.0000001000
43
0.0000001000
44
0.0000000001
12
0.0857713030
22
0.1718274274
32
0.0000000000
13
0.0039051480
23
0.1920055495
33
0.0000000000
40
0.0000000000
40
0.0000000000
40
0.0000000000
40
0.0000000000
40
0.3859827652
40
1.0000000000
40
1.0000000000
40
1.0000000000
40
1.0000000000
10
-33.8339506395
20
1.7680953350
30
0.0000000000
10
-33.8229152246
20
1.7902028102
30
0.0000000000
10
-33.7990336112
20
1.8498977720
30
0.0000000000
10
-33.7888853066
20
1.9141317074
30
0.0000000000
10
-33.7880860306
20
1.9534299463
30
0.0000000000
11
-33.8339506395
21
1.7680953350
31
0.0000000000
11
-33.8065254676
21
1.8369614916
31
0.0000000000
11
-33.7880860306
21
1.9534299463
31
0.0000000000
0
SPLINE
5
389
100
AcDbEntity
8
0
100
AcDbSpline
62
9
6
CONTINUOUS
70
0
71
3
72
15
73
11
74
9
42
0.0000001000
43
0.0000001000
44
0.0000000001
12
-0.4890261530
22
0.8400212964
32
0.0000000000
13
-0.4344890505
23
0.8694835374
33
0.0000000000
40
0.0000000000
40
0.0000000000
40
0.0000000000
40
0.0000000000
40
0.1771013731
40
0.3322076097
40
0.4687149296
40
0.5908411108
40
0.7027247237
40
0.8079752509
40
0.9078967808
40
1.0000000000
40
1.0000000000
40
1.0000000000
40
1.0000000000
10
34.3125188235
20
0.9221647428
30
0.0000000000
10
34.2836497558
20
0.9717543845
30
0.0000000000
10
34.2301243348
20
1.0651384716
30
0.0000000000
10
34.1542858412
20
1.1967096167
30
0.0000000000
10
34.0872950593
20
1.3128219262
30
0.0000000000
10
34.0274711301
20
1.4169013229
30
0.0000000000
10
33.9730097048
20
1.5123814065
30
0.0000000000
10
33.9226312247
20
1.6019076336
30
0.0000000000
10
33.8762465109
20
1.6863205662
30
0.0000000000
10
33.8472905491
20
1.7413999969
30
0.0000000000
10
33.8339512690
20
1.7680940745
30
0.0000000000
11
34.3125188235
21
0.9221647428
31
0.0000000000
11
34.2265162216
21
1.0712840009
31
0.0000000000
11
34.1512670837
21
1.2019250698
31
0.0000000000
11
34.0849992893
21
1.3168767489
31
0.0000000000
11
34.0258766798
21
1.4198124612
31
0.0000000000
11
33.9720391640
21
1.5143018968
31
0.0000000000
11
33.9219389939
21
1.6034981040
31
0.0000000000
11
33.8752990510
21
1.6886903436
31
0.0000000000
11
33.8339512690
21
1.7680940745
31
0.0000000000
0
SPLINE
5
38A
100
AcDbEntity
8
0
100
AcDbSpline
62
9
6
CONTINUOUS
70
0
71
3
72
9
73
5
74
3
42
0.0000001000
43
0.0000001000
44
0.0000000001
12
-0.0857837615
22
0.1718717699
32
0.0000000000
13
-0.0039128699
23
0.1920506404
33
0.0000000000
40
0.0000000000
40
0.0000000000
40
0.0000000000
40
0.0000000000
40
0.4349535600
40
1.0000000000
40
1.0000000000
40
1.0000000000
40
1.0000000000
10
33.8339512690
20
1.7680940745
30
0.0000000000
10
33.8215139515
20
1.7930128206
30
0.0000000000
10
33.7982197517
20
1.8530836146
30
0.0000000000
10
33.7888230154
20
1.9172574388
30
0.0000000000
10
33.7880860310
20
1.9534299490
30
0.0000000000
11
33.8339512690
21
1.7680940745
31
0.0000000000
11
33.8038793473
21
1.8460450621
31
0.0000000000
11
33.7880860310
21
1.9534299490
31
0.0000000000
0
SPLINE
5
38B
100
AcDbEntity
8
0
100
AcDbSpline
62
9
6
CONTINUOUS
70
0
71
3
72
13
73
9
74
7
42
0.0000001000
43
0.0000001000
44
0.0000000001
12
0.0054636628
22
0.7344202594
32
0.0000000000
13
0.3042864006
23
0.6684405400
33
0.0000000000
40
0.0000000000
40
0.0000000000
40
0.0000000000
40
0.0000000000
40
0.1763067718
40
0.3524871638
40
0.5256032362
40
0.6929373562
40
0.8519224291
40
1.0000000000
40
1.0000000000
40
1.0000000000
40
1.0000000000
10
33.7788703860
20
47.1858833537
30
0.0000000000
10
33.7791914796
20
47.2290444421
30
0.0000000000
10
33.7823163601
20
47.3153384921
30
0.0000000000
10
33.7945384320
20
47.4435064803
30
0.0000000000
10
33.8143275358
20
47.5685147371
30
0.0000000000
10
33.8414543026
20
47.6878393371
30
0.0000000000
10
33.8754190337
20
47.7990118897
30
0.0000000000
10
33.9032397803
20
47.8689727169
30
0.0000000000
10
33.9182591106
20
47.9019664007
30
0.0000000000
11
33.7788703860
21
47.1858833537
31
0.0000000000
11
33.7835863026
21
47.3152842965
31
0.0000000000
11
33.7959471425
21
47.4440865657
31
0.0000000000
11
33.8159584010
21
47.5696453617
31
0.0000000000
11
33.8433906011
21
47.6894416023
31
0.0000000000
11
33.8777645663
21
47.8010324471
31
0.0000000000
11
33.9182591106
21
47.9019664007
31
0.0000000000
0
SPLINE
5
38C
100
AcDbEntity
8
0
100
AcDbSpline
62
9
6
CONTINUOUS
70
0
71
3
72
9
73
5
74
3
42
0.0000001000
43
0.0000001000
44
0.0000000001
12
0.0032524930
22
-0.0672306016
32
0.0000000000
13
0.0571917434
23
-0.0354913650
33
0.0000000000
40
0.0000000000
40
0.0000000000
40
0.0000000000
40
0.0000000000
40
0.5027137290
40
1.0000000000
40
1.0000000000
40
1.0000000000
40
1.0000000000
10
-33.4894373912
20
-1.6504354741
30
0.0000000000
10
-33.4888923669
20
-1.6617013895
30
0.0000000000
10
-33.4843647187
20
-1.6815770864
30
0.0000000000
10
-33.4921792945
20
-1.7114634969
30
0.0000000000
10
-33.4826990715
20
-1.7173466197
30
0.0000000000
11
-33.4894373912
21
-1.6504354741
31
0.0000000000
11
-33.4874592854
21
-1.6842148794
31
0.0000000000
11
-33.4826990715
21
-1.7173466197
31
0.0000000000
0
SPLINE
5
38D
100
AcDbEntity
8
0
100
AcDbSpline
62
9
6
CONTINUOUS
70
0
71
3
72
12
73
8
74
6
42
0.0000001000
43
0.0000001000
44
0.0000000001
12
0.3558743537
22
0.7815253406
32
0.0000000000
13
0.3964685193
23
0.7617356016
33
0.0000000000
40
0.0000000000
40
0.0000000000
40
0.0000000000
40
0.0000000000
40
0.1690084632
40
0.3438005617
40
0.5410748554
40
0.7605696718
40
1.0000000000
40
1.0000000000
40
1.0000000000
40
1.0000000000
10
33.9182591106
20
47.9019664007
30
0.0000000000
10
33.9383077032
20
47.9459945330
30
0.0000000000
10
33.9802621794
20
48.0350244919
30
0.0000000000
10
34.0485013780
20
48.1740647947
30
0.0000000000
10
34.1247263272
20
48.3252724460
30
0.0000000000
10
34.2102366655
20
48.4925137728
30
0.0000000000
10
34.2704075411
20
48.6092893200
30
0.0000000000
10
34.3020497370
20
48.6700835217
30
0.0000000000
11
33.9182591106
21
47.9019664007
31
0.0000000000
11
33.9798959044
21
48.0333616369
31
0.0000000000
11
34.0458906400
21
48.1681756292
31
0.0000000000
11
34.1219992389
21
48.3195232131
31
0.0000000000
11
34.2077229391
21
48.4873899890
31
0.0000000000
11
34.3020497370
21
48.6700835217
31
0.0000000000
0
SPLINE
5
38E
100
AcDbEntity
8
0
100
AcDbSpline
62
9
6
CONTINUOUS
70
0
71
3
72
10
73
6
74
4
42
0.0000001000
43
0.0000001000
44
0.0000000001
12
0.0041760653
22
0.2135020445
32
0.0000000000
13
0.1809493636
23
0.1133926380
33
0.0000000000
40
0.0000000000
40
0.0000000000
40
0.0000000000
40
0.0000000000
40
0.3626784173
40
0.6764401467
40
1.0000000000
40
1.0000000000
40
1.0000000000
40
1.0000000000
10
-33.4742495090
20
-46.9761444717
30
0.0000000000
10
-33.4737446527
20
-46.9503336105
30
0.0000000000
10
-33.4748638293
20
-46.9006382609
30
0.0000000000
10
-33.4633191968
20
-46.8357869104
30
0.0000000000
10
-33.4825705168
20
-46.7752386107
30
0.0000000000
10
-33.4630545336
20
-46.7630088423
30
0.0000000000
11
-33.4742495090
21
-46.9761444717
31
0.0000000000
11
-33.4723781533
21
-46.8987196892
31
0.0000000000
11
-33.4698815838
21
-46.8317646341
31
0.0000000000
11
-33.4630545336
21
-46.7630088423
31
0.0000000000
0
SPLINE
5
38F
100
AcDbEntity
8
0
100
AcDbSpline
62
9
6
CONTINUOUS
70
0
71
3
72
10
73
6
74
4
42
0.0000001000
43
0.0000001000
44
0.0000000001
12
1.0989010196
22
-0.0582437074
32
0.0000000000
13
0.7102433608
23
0.8405534777
33
0.0000000000
40
0.0000000000
40
0.0000000000
40
0.0000000000
40
0.0000000000
40
0.4887161005
40
0.8479983456
40
1.0000000000
40
1.0000000000
40
1.0000000000
40
1.0000000000
10
57.4819281270
20
-61.8548795857
30
0.0000000000
10
57.6609450007
20
-61.8643677982
30
0.0000000000
10
57.9821355786
20
-61.8887994236
30
0.0000000000
10
58.3191300803
20
-61.8514843576
30
0.0000000000
10
58.5435719247
20
-61.8827000226
30
0.0000000000
10
58.5795579800
20
-61.8401115162
30
0.0000000000
11
57.4819281270
21
-61.8548795857
31
0.0000000000
11
58.0193959728
21
-61.8739037798
31
0.0000000000
11
58.4147299844
21
-61.8685847553
31
0.0000000000
11
58.5795579800
21
-61.8401115162
31
0.0000000000
0
SPLINE
5
390
100
AcDbEntity
8
0
100
AcDbSpline
62
9
6
CONTINUOUS
70
0
71
3
72
10
73
6
74
4
42
0.0000001000
43
0.0000001000
44
0.0000000001
12
-1.0989009511
22
-0.0582437603
32
0.0000000000
13
-0.7102404533
23
0.8405558484
33
0.0000000000
40
0.0000000000
40
0.0000000000
40
0.0000000000
40
0.0000000000
40
0.4887161805
40
0.8479984404
40
1.0000000000
40
1.0000000000
40
1.0000000000
40
1.0000000000
10
-57.4819281568
20
-61.8548796130
30
0.0000000000
10
-57.6609450486
20
-61.8643678357
30
0.0000000000
10
-57.9821357253
20
-61.8887995211
30
0.0000000000
10
-58.3191299695
20
-61.8514843178
30
0.0000000000
10
-58.5435720495
20
-61.8827001133
30
0.0000000000
10
-58.5795579350
20
-61.8401115133
30
0.0000000000
11
-57.4819281568
21
-61.8548796130
31
0.0000000000
11
-58.0193960579
21
-61.8739038263
31
0.0000000000
11
-58.4147300620
21
-61.8685847904
31
0.0000000000
11
-58.5795579350
21
-61.8401115133
31
0.0000000000
0
SPLINE
5
391
100
AcDbEntity
8
0
100
AcDbSpline
62
9
6
CONTINUOUS
70
0
71
3
72
10
73
6
74
4
42
0.0000001000
43
0.0000001000
44
0.0000000001
12
-0.0509438147
22
-1.1060905411
32
0.0000000000
13
0.8779203146
23
-0.6747499378
33
0.0000000000
40
0.0000000000
40
0.0000000000
40
0.0000000000
40
0.0000000000
40
0.4880007139
40
0.8473210112
40
1.0000000000
40
1.0000000000
40
1.0000000000
40
1.0000000000
10
-56.2568435770
20
-63.0722416299
30
0.0000000000
10
-56.2651304496
20
-63.2521659545
30
0.0000000000
10
-56.2866927320
20
-63.5759701841
30
0.0000000000
10
-56.2459726688
20
-63.9127419931
30
0.0000000000
10
-56.2726482935
20
-64.1415818319
30
0.0000000000
10
-56.2279682982
20
-64.1759218779
30
0.0000000000
11
-56.2568435770
21
-63.0722416299
31
0.0000000000
11
-56.2713705183
21
-63.6123914993
31
0.0000000000
11
-56.2609649237
21
-64.0101175070
31
0.0000000000
11
-56.2279682982
21
-64.1759218779
31
0.0000000000
0
SPLINE
5
392
100
AcDbEntity
8
0
100
AcDbSpline
62
9
6
CONTINUOUS
70
0
71
3
72
10
73
6
74
4
42
0.0000001000
43
0.0000001000
44
0.0000000001
12
0.0509438372
22
-1.1060901782
32
0.0000000000
13
-0.8779210700
23
-0.6747483618
33
0.0000000000
40
0.0000000000
40
0.0000000000
40
0.0000000000
40
0.0000000000
40
0.4880007537
40
0.8473210491
40
1.0000000000
40
1.0000000000
40
1.0000000000
40
1.0000000000
10
56.2568435846
20
-63.0722416372
30
0.0000000000
10
56.2651304616
20
-63.2521659174
30
0.0000000000
10
56.2866927585
20
-63.5759700926
30
0.0000000000
10
56.2459726651
20
-63.9127416860
30
0.0000000000
10
56.2726483010
20
-64.1415815591
30
0.0000000000
10
56.2279682783
20
-64.1759215165
30
0.0000000000
11
56.2568435846
21
-63.0722416372
31
0.0000000000
11
56.2713705328
21
-63.6123913741
31
0.0000000000
11
56.2609649279
21
-64.0101172495
31
0.0000000000
11
56.2279682783
21
-64.1759215165
31
0.0000000000
0
SPLINE
5
393
100
AcDbEntity
8
0
100
AcDbSpline
62
9
6
CONTINUOUS
70
0
71
3
72
15
73
11
74
9
42
0.0000001000
43
0.0000001000
44
0.0000000001
12
3.6149746159
22
0.2003006436
32
0.0000000000
13
0.2242310078
23
3.6135691880
33
0.0000000000
40
0.0000000000
40
0.0000000000
40
0.0000000000
40
0.0000000000
40
0.0920014598
40
0.1945518469
40
0.3081645397
40
0.4320861302
40
0.5650830737
40
0.7053284967
40
0.8470276689
40
1.0000000000
40
1.0000000000
40
1.0000000000
40
1.0000000000
10
56.2279681186
20
-64.1759220260
30
0.0000000000
10
56.3388290992
20
-64.1697793755
30
0.0000000000
10
56.5726805797
20
-64.1411416323
30
0.0000000000
10
56.9330852376
20
-64.0441389306
30
0.0000000000
10
57.3095923356
20
-63.8760796374
30
0.0000000000
10
57.6825317868
20
-63.6249621918
30
0.0000000000
10
58.0255356469
20
-63.2858876426
30
0.0000000000
10
58.3069823268
20
-62.8673862791
30
0.0000000000
10
58.5064243473
20
-62.3781172180
30
0.0000000000
10
58.5681278468
20
-62.0243202892
30
0.0000000000
10
58.5795615601
20
-61.8400615885
30
0.0000000000
11
56.2279681186
21
-64.1759220260
31
0.0000000000
11
56.5585876428
21
-64.1354037241
31
0.0000000000
11
56.9171107410
21
-64.0388933855
31
0.0000000000
11
57.2927127414
21
-63.8711994837
31
0.0000000000
11
57.6648580197
21
-63.6205918761
31
0.0000000000
11
58.0072769292
21
-63.2820525022
31
0.0000000000
11
58.2906693805
21
-62.8607328464
31
0.0000000000
11
58.4842760312
21
-62.3856426139
31
0.0000000000
11
58.5795615601
21
-61.8400615885
31
0.0000000000
0
SPLINE
5
394
100
AcDbEntity
8
0
100
AcDbSpline
62
9
6
CONTINUOUS
70
0
71
3
72
15
73
11
74
9
42
0.0000001000
43
0.0000001000
44
0.0000000001
12
0.2242087083
22
-3.6135728334
32
0.0000000000
13
3.6149754623
23
-0.2003261703
33
0.0000000000
40
0.0000000000
40
0.0000000000
40
0.0000000000
40
0.0000000000
40
0.0919913484
40
0.1945231902
40
0.3081070788
40
0.4319929094
40
0.5649507683
40
0.7051655420
40
0.8469667782
40
1.0000000000
40
1.0000000000
40
1.0000000000
40
1.0000000000
10
-58.5795584925
20
-61.8401106858
30
0.0000000000
10
-58.5726834054
20
-61.9509164983
30
0.0000000000
10
-58.5424991112
20
-62.1845390340
30
0.0000000000
10
-58.4431138932
20
-62.5442224787
30
0.0000000000
10
-58.2725842670
20
-62.9195068242
30
0.0000000000
10
-58.0190560200
20
-63.2906587633
30
0.0000000000
10
-57.6778064159
20
-63.6313155821
30
0.0000000000
10
-57.2574362301
20
-63.9100291458
30
0.0000000000
10
-56.7667137875
20
-64.1063130223
30
0.0000000000
10
-56.4123203887
20
-64.1657060481
30
0.0000000000
10
-56.2279166081
20
-64.1759249012
30
0.0000000000
11
-58.5795584925
21
-61.8401106858
31
0.0000000000
11
-58.5368523816
21
-62.1704180309
31
0.0000000000
11
-58.4379721769
21
-62.5282253530
31
0.0000000000
11
-58.2678165306
21
-62.9026042945
31
0.0000000000
11
-58.0148065598
21
-63.2729640223
31
0.0000000000
11
-57.6741060324
21
-63.6130328400
31
0.0000000000
11
-57.2510287035
21
-63.8935943352
31
0.0000000000
11
-56.7743337565
21
-64.0842138707
31
0.0000000000
11
-56.2279166081
21
-64.1759249012
31
0.0000000000
0
SPLINE
5
395
100
AcDbEntity
8
0
100
AcDbSpline
62
9
6
CONTINUOUS
70
0
71
3
72
15
73
11
74
9
42
0.0000001000
43
0.0000001000
44
0.0000000001
12
0.7626680386
22
-0.5711248056
32
0.0000000000
13
0.7053236799
23
-0.6405970553
33
0.0000000000
40
0.0000000000
40
0.0000000000
40
0.0000000000
40
0.0000000000
40
0.1792802322
40
0.3359935367
40
0.4737670323
40
0.5966769314
40
0.7087539723
40
0.8134100383
40
0.9115505855
40
1.0000000000
40
1.0000000000
40
1.0000000000
40
1.0000000000
10
-34.3125109171
20
-0.9221690582
30
0.0000000000
10
-34.2669338161
20
-0.9562995207
30
0.0000000000
10
-34.1821667022
20
-1.0211273254
30
0.0000000000
10
-34.0624169643
20
-1.1122369571
30
0.0000000000
10
-33.9569888443
20
-1.1926038903
30
0.0000000000
10
-33.8630440562
20
-1.2646500049
30
0.0000000000
10
-33.7777833134
20
-1.3307329434
30
0.0000000000
10
-33.6992434344
20
-1.3926453415
30
0.0000000000
10
-33.6274168409
20
-1.4509309187
30
0.0000000000
10
-33.5823102525
20
-1.4894008992
30
0.0000000000
10
-33.5615150970
20
-1.5082877107
30
0.0000000000
11
-34.3125109171
21
-0.9221690582
31
0.0000000000
11
-34.1764281028
21
-1.0254207563
31
0.0000000000
11
-34.0576443896
21
-1.1158987960
31
0.0000000000
11
-33.9532753267
21
-1.1955192196
31
0.0000000000
11
-33.8603778186
21
-1.2668265927
31
0.0000000000
11
-33.7760130077
21
-1.3322962206
31
0.0000000000
11
-33.6977702699
21
-1.3941154262
31
0.0000000000
11
-33.6252785501
21
-1.4531825991
31
0.0000000000
11
-33.5615150970
21
-1.5082877107
31
0.0000000000
0
SPLINE
5
396
100
AcDbEntity
8
0
100
AcDbSpline
62
9
6
CONTINUOUS
70
0
71
3
72
13
73
9
74
7
42
0.0000001000
43
0.0000001000
44
0.0000000001
12
0.7050081874
22
0.6409460029
32
0.0000000000
13
0.7606278915
23
0.5738410352
33
0.0000000000
40
0.0000000000
40
0.0000000000
40
0.0000000000
40
0.0000000000
40
0.1010381349
40
0.2318227402
40
0.3868761183
40
0.5658065934
40
0.7700681785
40
1.0000000000
40
1.0000000000
40
1.0000000000
40
1.0000000000
10
33.5615160991
20
-1.5082864563
30
0.0000000000
10
33.5852603366
20
-1.4866997934
30
0.0000000000
10
33.6414931231
20
-1.4391211374
30
0.0000000000
10
33.7373420055
20
-1.3622426901
30
0.0000000000
10
33.8538583674
20
-1.2716058359
30
0.0000000000
10
33.9895763527
20
-1.1676638984
30
0.0000000000
10
34.1445650895
20
-1.0497722382
30
0.0000000000
10
34.2542176279
20
-0.9661461843
30
0.0000000000
10
34.3125151468
20
-0.9221647461
30
0.0000000000
11
33.5615160991
21
-1.5082864563
31
0.0000000000
11
33.6345058137
21
-1.4455133967
31
0.0000000000
11
33.7315057348
21
-1.3672867420
31
0.0000000000
11
33.8479769007
21
-1.2763991827
31
0.0000000000
11
33.9832423194
21
-1.1726251845
31
0.0000000000
11
34.1380527487
21
-1.0546773120
31
0.0000000000
11
34.3125151468
21
-0.9221647461
31
0.0000000000
0
SPLINE
5
397
100
AcDbEntity
8
0
100
AcDbSpline
62
9
6
CONTINUOUS
70
0
71
3
72
15
73
11
74
9
42
0.0000001000
43
0.0000001000
44
0.0000000001
12
-0.7625359913
22
0.5712989824
32
0.0000000000
13
-0.7053253079
23
0.6405933775
33
0.0000000000
40
0.0000000000
40
0.0000000000
40
0.0000000000
40
0.0000000000
40
0.1792769082
40
0.3359917924
40
0.4737659784
40
0.5966763142
40
0.7087536348
40
0.8134098524
40
0.9115504871
40
1.0000000000
40
1.0000000000
40
1.0000000000
40
1.0000000000
10
34.3125106728
20
0.9221681610
30
0.0000000000
10
34.2669423079
20
0.9563083994
30
0.0000000000
10
34.1821718469
20
1.0211304485
30
0.0000000000
10
34.0624207700
20
1.1122375140
30
0.0000000000
10
33.9569914616
20
1.1926039994
30
0.0000000000
10
33.8630460352
20
1.2646497613
30
0.0000000000
10
33.7777849196
20
1.3307324340
30
0.0000000000
10
33.6992448002
20
1.3926445787
30
0.0000000000
10
33.6274180313
20
1.4509299151
30
0.0000000000
10
33.5823113281
20
1.4893997293
30
0.0000000000
10
33.5615161015
20
1.5082864534
30
0.0000000000
11
34.3125106728
21
0.9221681610
31
0.0000000000
11
34.1764349859
21
1.0254236369
31
0.0000000000
11
34.0576480884
21
1.1158996521
31
0.0000000000
11
33.9532778949
21
1.1955193904
31
0.0000000000
11
33.8603797696
21
1.2668263871
31
0.0000000000
11
33.7760145846
21
1.3322957357
31
0.0000000000
11
33.6977716197
21
1.3941146728
31
0.0000000000
11
33.6252797374
21
1.4531815814
31
0.0000000000
11
33.5615161015
21
1.5082864534
31
0.0000000000
0
SPLINE
5
398
100
AcDbEntity
8
0
100
AcDbSpline
62
9
6
CONTINUOUS
70
0
71
3
72
16
73
12
74
10
42
0.0000001000
43
0.0000001000
44
0.0000000001
12
0.7656221535
22
0.5671595227
32
0.0000000000
13
0.7055522830
23
0.6403461423
33
0.0000000000
40
0.0000000000
40
0.0000000000
40
0.0000000000
40
0.0000000000
40
0.1295112387
40
0.2552169861
40
0.3768710876
40
0.4933203971
40
0.6047382222
40
0.7117288604
40
0.8143909436
40
0.9115845513
40
1.0000000000
40
1.0000000000
40
1.0000000000
40
1.0000000000
10
-34.3125108965
20
0.9221690604
30
0.0000000000
10
-34.2794586720
20
0.9466535711
30
0.0000000000
10
-34.2150924863
20
0.9959295273
30
0.0000000000
10
-34.1199174889
20
1.0685127058
30
0.0000000000
10
-34.0279602492
20
1.1384776265
30
0.0000000000
10
-33.9397172523
20
1.2058288176
30
0.0000000000
10
-33.8553563547
20
1.2705903900
30
0.0000000000
10
-33.7747796481
20
1.3330879905
30
0.0000000000
10
-33.6982566491
20
1.3934402928
30
0.0000000000
10
-33.6271634174
20
1.4511308620
30
0.0000000000
10
-33.5823090017
20
1.4894155501
30
0.0000000000
10
-33.5615150945
20
1.5082877139
30
0.0000000000
11
-34.3125108965
21
0.9221690604
31
0.0000000000
11
-34.2141105130
21
0.9966326879
31
0.0000000000
11
-34.1188800809
21
1.0692750123
31
0.0000000000
11
-34.0266629544
21
1.1395024030
31
0.0000000000
11
-33.9384789591
21
1.2068402977
31
0.0000000000
11
-33.8542960254
21
1.2715178590
31
0.0000000000
11
-33.7737794578
21
1.3340415048
31
0.0000000000
11
-33.6970387628
21
1.3946972908
31
0.0000000000
11
-33.6252509230
21
1.4532000521
31
0.0000000000
11
-33.5615150945
21
1.5082877139
31
0.0000000000
0
SPLINE
5
399
100
AcDbEntity
8
0
100
AcDbSpline
62
9
6
CONTINUOUS
70
0
71
3
72
14
73
10
74
8
42
0.0000001000
43
0.0000001000
44
0.0000000001
12
-0.6257521179
22
0.5588698655
32
0.0000000000
13
-0.5664868945
23
0.6188649594
33
0.0000000000
40
0.0000000000
40
0.0000000000
40
0.0000000000
40
0.0000000000
40
0.1428627939
40
0.2813985501
40
0.4185646607
40
0.5569707640
40
0.6990290070
40
0.8465099530
40
1.0000000000
40
1.0000000000
40
1.0000000000
40
1.0000000000
10
34.3020455859
20
-48.6700793654
30
0.0000000000
10
34.2722466873
20
-48.6434654620
30
0.0000000000
10
34.2151782339
20
-48.5892517427
30
0.0000000000
10
34.1301170273
20
-48.5088445403
30
0.0000000000
10
34.0461782680
20
-48.4290518202
30
0.0000000000
10
33.9620113189
20
-48.3480749542
30
0.0000000000
10
33.8765255433
20
-48.2643115778
30
0.0000000000
10
33.7892493750
20
-48.1763642438
30
0.0000000000
10
33.7312620234
20
-48.1153341871
30
0.0000000000
10
33.7022786567
20
-48.0836709832
30
0.0000000000
11
34.3020455859
21
-48.6700793654
31
0.0000000000
11
34.2142703627
21
-48.5884584236
31
0.0000000000
11
34.1298751227
21
-48.5085408054
31
0.0000000000
11
34.0465090323
21
-48.4292081240
31
0.0000000000
11
33.9628686454
21
-48.3486575598
31
0.0000000000
11
33.8778011431
21
-48.2651792376
31
0.0000000000
11
33.7907461599
21
-48.1772490101
31
0.0000000000
11
33.7022786567
21
-48.0836709832
31
0.0000000000
0
SPLINE
5
39A
100
AcDbEntity
8
0
100
AcDbSpline
62
9
6
CONTINUOUS
70
0
71
3
72
14
73
10
74
8
42
0.0000001000
43
0.0000001000
44
0.0000000001
12
0.6185762950
22
0.5668063414
32
0.0000000000
13
0.5666085923
23
0.6187574359
33
0.0000000000
40
0.0000000000
40
0.0000000000
40
0.0000000000
40
0.0000000000
40
0.1897228371
40
0.3552061989
40
0.5021246508
40
0.6355445593
40
0.7603340715
40
0.8808470118
40
1.0000000000
40
1.0000000000
40
1.0000000000
40
1.0000000000
10
-34.3020454888
20
-48.6700766658
30
0.0000000000
10
-34.2629261390
20
-48.6342312967
30
0.0000000000
10
-34.1905962705
20
-48.5661319824
30
0.0000000000
10
-34.0886614977
20
-48.4695486437
30
0.0000000000
10
-33.9985424616
20
-48.3833859784
30
0.0000000000
10
-33.9172838925
20
-48.3044292949
30
0.0000000000
10
-33.8420937985
20
-48.2298304304
30
0.0000000000
10
-33.7707529180
20
-48.1570298669
30
0.0000000000
10
-33.7247809317
20
-48.1082436695
30
0.0000000000
10
-33.7022765627
20
-48.0836680704
30
0.0000000000
11
-34.3020454888
21
-48.6700766658
31
0.0000000000
11
-34.1857233600
21
-48.5614208399
31
0.0000000000
11
-34.0849685603
21
-48.4658972462
31
0.0000000000
11
-33.9959344467
21
-48.3806519464
31
0.0000000000
11
-33.9156934126
21
-48.3026037682
31
0.0000000000
11
-33.8414218401
21
-48.2288117903
31
0.0000000000
11
-33.7707248374
21
-48.1565274827
31
0.0000000000
11
-33.7022765627
21
-48.0836680704
31
0.0000000000
0
SPLINE
5
39B
100
AcDbEntity
8
0
100
AcDbSpline
62
9
6
CONTINUOUS
70
0
71
3
72
10
73
6
74
4
42
0.0000001000
43
0.0000001000
44
0.0000000001
12
-0.0041763434
22
0.2135026783
32
0.0000000000
13
-0.1810013705
23
0.1133108088
33
0.0000000000
40
0.0000000000
40
0.0000000000
40
0.0000000000
40
0.0000000000
40
0.3658527765
40
0.6789057944
40
1.0000000000
40
1.0000000000
40
1.0000000000
40
1.0000000000
10
33.4742495093
20
-46.9761444717
30
0.0000000000
10
33.4737402004
20
-46.9501076225
30
0.0000000000
10
33.4748786556
20
-46.9002174401
30
0.0000000000
10
33.4633202518
20
-46.8353768434
30
0.0000000000
10
33.4824273644
20
-46.7751366570
30
0.0000000000
10
33.4630545339
20
-46.7630088423
30
0.0000000000
11
33.4742495093
21
-46.9761444717
31
0.0000000000
11
33.4723578173
21
-46.8980418871
31
0.0000000000
11
33.4698558546
21
-46.8312382793
31
0.0000000000
11
33.4630545339
21
-46.7630088423
31
0.0000000000
0
SPLINE
5
39C
100
AcDbEntity
8
0
100
AcDbSpline
62
9
6
CONTINUOUS
70
0
71
3
72
14
73
10
74
8
42
0.0000001000
43
0.0000001000
44
0.0000000001
12
-0.4067395974
22
0.7563032897
32
0.0000000000
13
-0.3559015459
23
0.7815151026
33
0.0000000000
40
0.0000000000
40
0.0000000000
40
0.0000000000
40
0.0000000000
40
0.1412211190
40
0.2787874591
40
0.4150421238
40
0.5528768057
40
0.6949757153
40
0.8435611246
40
1.0000000000
40
1.0000000000
40
1.0000000000
40
1.0000000000
10
34.3020497373
20
-48.6700834903
30
0.0000000000
10
34.2829029970
20
-48.6344814913
30
0.0000000000
10
34.2466547315
20
-48.5633770744
30
0.0000000000
10
34.1924703608
20
-48.4576526181
30
0.0000000000
10
34.1388086002
20
-48.3527445167
30
0.0000000000
10
34.0849415760
20
-48.2464860038
30
0.0000000000
10
34.0301111437
20
-48.1367595819
30
0.0000000000
10
33.9739619453
20
-48.0217443275
30
0.0000000000
10
33.9368180391
20
-47.9427194882
30
0.0000000000
10
33.9182590933
20
-47.9019663736
30
0.0000000000
11
34.3020497373
21
-48.6700834903
31
0.0000000000
11
34.2461415938
21
-48.5624676018
31
0.0000000000
11
34.1923126356
21
-48.4573107228
31
0.0000000000
11
34.1390773186
21
-48.3531153881
31
0.0000000000
11
34.0855936746
21
-48.2475240855
31
0.0000000000
11
34.0311060565
21
-48.1383389422
31
0.0000000000
11
33.9752235946
21
-48.0236310891
31
0.0000000000
11
33.9182590933
21
-47.9019663736
31
0.0000000000
0
SPLINE
5
39D
100
AcDbEntity
8
0
100
AcDbSpline
62
9
6
CONTINUOUS
70
0
71
3
72
9
73
5
74
3
42
0.0000001000
43
0.0000001000
44
0.0000000001
12
-0.0096670903
22
0.0929325472
32
0.0000000000
13
0.0005844166
23
0.0934730709
33
0.0000000000
40
0.0000000000
40
0.0000000000
40
0.0000000000
40
0.0000000000
40
0.8748753716
40
1.0000000000
40
1.0000000000
40
1.0000000000
40
1.0000000000
10
-81.5627449830
20
-48.6700793654
30
0.0000000000
10
-81.5655641494
20
-48.6429778998
30
0.0000000000
10
-81.5672287472
20
-48.6118206604
30
0.0000000000
10
-81.5672411861
20
-48.5806607121
30
0.0000000000
10
-81.5672168111
20
-48.5767621177
30
0.0000000000
11
-81.5627449830
21
-48.6700793654
31
0.0000000000
11
-81.5672122068
21
-48.5884584236
31
0.0000000000
11
-81.5672168111
21
-48.5767621177
31
0.0000000000
0
SPLINE
5
39E
100
AcDbEntity
8
0
100
AcDbSpline
62
9
6
CONTINUOUS
70
0
71
3
72
8
73
4
74
2
42
0.0000001000
43
0.0000001000
44
0.0000000001
12
-0.0006721783
22
0.0947598771
32
0.0000000000
13
0.0095347949
23
0.0941484797
33
0.0000000000
40
0.0000000000
40
0.0000000000
40
0.0000000000
40
0.0000000000
40
1.0000000000
40
1.0000000000
40
1.0000000000
40
1.0000000000
10
-81.5671927420
20
48.5755141124
30
0.0000000000
10
-81.5674168015
20
48.6071007381
30
0.0000000000
10
-81.5659232714
20
48.6386965723
30
0.0000000000
10
-81.5627450064
20
48.6700793989
30
0.0000000000
11
-81.5671927420
21
48.5755141124
31
0.0000000000
11
-81.5627450064
21
48.6700793989
31
0.0000000000
0
SPLINE
5
39F
100
AcDbEntity
8
0
100
AcDbSpline
62
9
6
CONTINUOUS
70
0
71
3
72
8
73
4
74
2
42
0.0000001000
43
0.0000001000
44
0.0000000001
12
-0.6529303382
22
-0.3765556600
32
0.0000000000
13
0.0000000525
23
-0.0000000911
33
0.0000000000
40
0.0000000000
40
0.0000000000
40
0.0000000000
40
0.0000000000
40
1.0000000000
40
1.0000000000
40
1.0000000000
40
1.0000000000
10
-82.4768319410
20
0.7395328575
30
0.0000000000
10
-82.6944753871
20
0.6140143041
30
0.0000000000
10
-82.9083376592
20
0.4906843328
30
0.0000000000
10
-82.9083376417
20
0.4906843024
30
0.0000000000
11
-82.4768319410
21
0.7395328575
31
0.0000000000
11
-82.9083376417
21
0.4906843024
31
0.0000000000
0
SPLINE
5
3A0
100
AcDbEntity
8
0
100
AcDbSpline
62
9
6
CONTINUOUS
70
0
71
3
72
8
73
4
74
2
42
0.0000001000
43
0.0000001000
44
0.0000000001
12
-0.2581542786
22
-0.1489019811
32
0.0000000000
13
-0.3441096220
23
-0.1984536761
33
0.0000000000
40
0.0000000000
40
0.0000000000
40
0.0000000000
40
0.0000000000
40
1.0000000000
40
1.0000000000
40
1.0000000000
40
1.0000000000
10
-82.1603238649
20
0.9220771887
30
0.0000000000
10
-82.2463752911
20
0.8724431950
30
0.0000000000
10
-82.3621287337
20
0.8056840828
30
0.0000000000
10
-82.4768319410
20
0.7395328575
30
0.0000000000
11
-82.1603238649
21
0.9220771887
31
0.0000000000
11
-82.4768319410
21
0.7395328575
31
0.0000000000
0
SPLINE
5
3A1
100
AcDbEntity
8
0
100
AcDbSpline
62
9
6
CONTINUOUS
70
0
71
3
72
10
73
6
74
4
42
0.0000001000
43
0.0000001000
44
0.0000000001
12
-2.6463568431
22
37.5419012388
32
0.0000000000
13
-0.0013922027
23
37.6350574760
33
0.0000000000
40
0.0000000000
40
0.0000000000
40
0.0000000000
40
0.0000000000
40
0.3333098554
40
0.6667318990
40
1.0000000000
40
1.0000000000
40
1.0000000000
40
1.0000000000
10
-79.2216623555
20
-61.8548796133
30
0.0000000000
10
-79.5156812944
20
-57.6838510561
30
0.0000000000
10
-80.0057701869
20
-49.3331332148
30
0.0000000000
10
-80.4468444939
20
-36.7948356007
30
0.0000000000
10
-80.5450391178
20
-28.4308546968
30
0.0000000000
10
-80.5451937767
20
-24.2499999846
30
0.0000000000
11
-79.2216623555
21
-61.8548796133
31
0.0000000000
11
-79.9567015657
21
-49.3322978261
31
0.0000000000
11
-80.3979234608
21
-36.7916995021
31
0.0000000000
11
-80.5451937767
21
-24.2499999846
31
0.0000000000
0
SPLINE
5
3A2
100
AcDbEntity
8
0
100
AcDbSpline
62
9
6
CONTINUOUS
70
0
71
3
72
8
73
4
74
2
42
0.0000001000
43
0.0000001000
44
0.0000000001
12
-0.7479146834
22
0.4313945340
32
0.0000000000
13
0.0000283241
23
0.0000491017
33
0.0000000000
40
0.0000000000
40
0.0000000000
40
0.0000000000
40
0.0000000000
40
1.0000000000
40
1.0000000000
40
1.0000000000
40
1.0000000000
10
-82.1603239586
20
-0.9221647461
30
0.0000000000
10
-82.4096288531
20
-0.7783665681
30
0.0000000000
10
-82.9082405063
20
-0.4907624796
30
0.0000000000
10
-82.9082310649
20
-0.4907461124
30
0.0000000000
11
-82.1603239586
21
-0.9221647461
31
0.0000000000
11
-82.9082310649
21
-0.4907461124
31
0.0000000000
0
SPLINE
5
3A3
100
AcDbEntity
8
0
100
AcDbSpline
62
9
6
CONTINUOUS
70
0
71
3
72
10
73
6
74
4
42
0.0000001000
43
0.0000001000
44
0.0000000001
12
0.9647739803
22
-0.5912963344
32
0.0000000000
13
1.1290150833
23
0.0757966347
33
0.0000000000
40
0.0000000000
40
0.0000000000
40
0.0000000000
40
0.0000000000
40
0.1605951429
40
0.5202297438
40
1.0000000000
40
1.0000000000
40
1.0000000000
40
1.0000000000
10
-79.2216619885
20
-61.8548795857
30
0.0000000000
10
-79.1700159834
20
-61.8865326921
30
0.0000000000
10
-78.9574012208
20
-61.8606898385
30
0.0000000000
10
-78.5928942270
20
-61.8781130243
30
0.0000000000
10
-78.2724419110
20
-61.8522331731
30
0.0000000000
10
-78.0918859591
20
-61.8401115162
30
0.0000000000
11
-79.2216619885
21
-61.8548795857
31
0.0000000000
11
-79.0409380529
21
-61.8739037798
31
0.0000000000
11
-78.6340259334
21
-61.8685847553
31
0.0000000000
11
-78.0918859591
21
-61.8401115162
31
0.0000000000
0
SPLINE
5
3A4
100
AcDbEntity
8
0
100
AcDbSpline
62
9
6
CONTINUOUS
70
0
71
3
72
10
73
6
74
4
42
0.0000001000
43
0.0000001000
44
0.0000000001
12
0.1386492470
22
-1.7008401480
32
0.0000000000
13
1.7037510831
23
-0.0965042463
33
0.0000000000
40
0.0000000000
40
0.0000000000
40
0.0000000000
40
0.0000000000
40
0.3334664206
40
0.6669857715
40
1.0000000000
40
1.0000000000
40
1.0000000000
40
1.0000000000
10
-79.2284112436
20
-63.0722416372
30
0.0000000000
10
-79.2129996209
20
-63.2612993292
30
0.0000000000
10
-79.0884659588
20
-63.6378959083
30
0.0000000000
10
-78.6671034272
20
-64.0497215007
30
0.0000000000
10
-78.2878105084
20
-64.1652090874
30
0.0000000000
10
-78.0986860576
20
-64.1759215165
30
0.0000000000
11
-79.2284112436
21
-63.0722416372
31
0.0000000000
11
-79.0493547635
21
-63.6123913741
31
0.0000000000
11
-78.6422431119
21
-64.0101172495
31
0.0000000000
11
-78.0986860576
21
-64.1759215165
31
0.0000000000
0
SPLINE
5
3A5
100
AcDbEntity
8
0
100
AcDbSpline
62
9
6
CONTINUOUS
70
0
71
3
72
15
73
11
74
9
42
0.0000001000
43
0.0000001000
44
0.0000000001
12
0.7121995364
22
2.2253148812
32
0.0000000000
13
-0.0336395622
23
2.3362625880
33
0.0000000000
40
0.0000000000
40
0.0000000000
40
0.0000000000
40
0.0000000000
40
0.0175010281
40
0.0588648989
40
0.1306599491
40
0.2379247850
40
0.3828167771
40
0.5631382530
40
0.7664788075
40
1.0000000000
40
1.0000000000
40
1.0000000000
40
1.0000000000
10
-78.0986860862
20
-64.1759220260
30
0.0000000000
10
-78.0945313449
20
-64.1629402599
30
0.0000000000
10
-78.0923508586
20
-64.1164905976
30
0.0000000000
10
-78.0860361999
20
-64.0154778132
30
0.0000000000
10
-78.0831619253
20
-63.8434554877
30
0.0000000000
10
-78.0800448007
20
-63.5913447446
30
0.0000000000
10
-78.0794893697
20
-63.2544370779
30
0.0000000000
10
-78.0809367825
20
-62.8428099451
30
0.0000000000
10
-78.0849746481
20
-62.3621318690
30
0.0000000000
10
-78.0892677718
20
-62.0219171970
30
0.0000000000
10
-78.0918862887
20
-61.8400615885
30
0.0000000000
11
-78.0986860862
21
-64.1759220260
31
0.0000000000
11
-78.0931760640
21
-64.1354037241
31
0.0000000000
11
-78.0880404816
21
-64.0388933855
31
0.0000000000
11
-78.0837228238
21
-63.8711994837
31
0.0000000000
11
-78.0807873082
21
-63.6205918761
31
0.0000000000
11
-78.0797945537
21
-63.2820525022
31
0.0000000000
11
-78.0811961375
21
-62.8607328464
31
0.0000000000
11
-78.0850880866
21
-62.3856426139
31
0.0000000000
11
-78.0918862887
21
-61.8400615885
31
0.0000000000
0
SPLINE
5
3A6
100
AcDbEntity
8
0
100
AcDbSpline
62
9
6
CONTINUOUS
70
0
71
3
72
10
73
6
74
4
42
0.0000001000
43
0.0000001000
44
0.0000000001
12
-1.6091039848
22
-1.1003582809
32
0.0000000000
13
-0.0000001837
23
0.0000002531
33
0.0000000000
40
0.0000000000
40
0.0000000000
40
0.0000000000
40
0.0000000000
40
0.2281039413
40
0.7159123898
40
1.0000000000
40
1.0000000000
40
1.0000000000
40
1.0000000000
10
-78.6093230374
20
-64.5249681448
30
0.0000000000
10
-78.7316706910
20
-64.6086334984
30
0.0000000000
10
-79.1053192231
20
-64.8642106435
30
0.0000000000
10
-79.5048835993
20
-65.1376686219
30
0.0000000000
10
-80.1862954301
20
-65.6048288095
30
0.0000000000
10
-80.1862954474
20
-65.6048287855
30
0.0000000000
11
-78.6093230374
21
-64.5249681448
31
0.0000000000
11
-78.9608818434
21
-64.7654260904
31
0.0000000000
11
-79.7352459746
21
-65.2956493084
31
0.0000000000
11
-80.1862954474
21
-65.6048287855
31
0.0000000000
0
SPLINE
5
3A7
100
AcDbEntity
8
0
100
AcDbSpline
62
9
6
CONTINUOUS
70
0
71
3
72
13
73
9
74
7
42
0.0000001000
43
0.0000001000
44
0.0000000001
12
-3.7252019365
22
-2.5474157278
32
0.0000000000
13
3.6776434441
23
2.5125616741
33
0.0000000000
40
0.0000000000
40
0.0000000000
40
0.0000000000
40
0.0000000000
40
0.0985296817
40
0.3092389349
40
0.4320149237
40
0.5543272505
40
0.7651535216
40
1.0000000000
40
1.0000000000
40
1.0000000000
40
1.0000000000
10
-78.6093230374
20
-64.5249681448
30
0.0000000000
10
-78.7316706910
20
-64.6086334984
30
0.0000000000
10
-79.1053192231
20
-64.8642106435
30
0.0000000000
10
-79.5049429082
20
-65.1377092123
30
0.0000000000
10
-80.4365531867
20
-65.7763997638
30
0.0000000000
10
-79.5062787126
20
-65.1386247425
30
0.0000000000
10
-78.9805110777
20
-64.7787927754
30
0.0000000000
10
-78.3865799672
20
-64.3726107791
30
0.0000000000
10
-78.0986860966
20
-64.1759220255
30
0.0000000000
11
-78.6093230374
21
-64.5249681448
31
0.0000000000
11
-78.9608818434
21
-64.7654260904
31
0.0000000000
11
-79.7352459746
21
-65.2956493084
31
0.0000000000
11
-80.1862952420
21
-65.6048286446
31
0.0000000000
11
-79.7369495540
21
-65.2968166317
31
0.0000000000
11
-78.9621560446
21
-64.7662979800
31
0.0000000000
11
-78.0986860966
21
-64.1759220255
31
0.0000000000
0
SPLINE
5
3A8
100
AcDbEntity
8
0
100
AcDbSpline
62
9
6
CONTINUOUS
70
0
71
3
72
10
73
6
74
4
42
0.0000001000
43
0.0000001000
44
0.0000000001
12
-0.0000004870
22
0.0000007457
32
0.0000000000
13
1.8610379192
23
1.2713741327
33
0.0000000000
40
0.0000000000
40
0.0000000000
40
0.0000000000
40
0.0000000000
40
0.2492487737
40
0.6786496665
40
1.0000000000
40
1.0000000000
40
1.0000000000
40
1.0000000000
10
-81.3195319409
20
-64.5026020117
30
0.0000000000
10
-81.3195319814
20
-64.5026019498
30
0.0000000000
10
-80.6384324068
20
-64.0359655210
30
0.0000000000
10
-80.1831833484
20
-63.7246031427
30
0.0000000000
10
-79.7171213924
20
-63.4060505633
30
0.0000000000
10
-79.5177730071
20
-63.2698650628
30
0.0000000000
11
-81.3195319409
21
-64.5026020117
31
0.0000000000
11
-80.8694329283
21
-64.1942784305
31
0.0000000000
11
-80.0933354249
21
-63.6632197996
31
0.0000000000
11
-79.5177730071
21
-63.2698650628
31
0.0000000000
0
SPLINE
5
3A9
100
AcDbEntity
8
0
100
AcDbSpline
62
9
6
CONTINUOUS
70
0
71
3
72
8
73
4
74
2
42
0.0000001000
43
0.0000001000
44
0.0000000001
12
0.0236821188
22
0.0161785168
32
0.0000000000
13
0.0236764950
23
0.0161740180
33
0.0000000000
40
0.0000000000
40
0.0000000000
40
0.0000000000
40
0.0000000000
40
1.0000000000
40
1.0000000000
40
1.0000000000
40
1.0000000000
10
-79.5177730071
20
-63.2698650628
30
0.0000000000
10
-79.5098789675
20
-63.2644722239
30
0.0000000000
10
-79.5019851537
20
-63.2590796472
30
0.0000000000
10
-79.4940929887
20
-63.2536883079
30
0.0000000000
11
-79.5177730071
21
-63.2698650628
31
0.0000000000
11
-79.4940929887
21
-63.2536883079
31
0.0000000000
0
SPLINE
5
3AA
100
AcDbEntity
8
0
100
AcDbSpline
62
9
6
CONTINUOUS
70
0
71
3
72
13
73
9
74
7
42
0.0000001000
43
0.0000001000
44
0.0000000001
12
-3.9238163983
22
-2.6789689066
32
0.0000000000
13
4.0364487069
23
2.7574011333
33
0.0000000000
40
0.0000000000
40
0.0000000000
40
0.0000000000
40
0.0000000000
40
0.2201578958
40
0.4179795801
40
0.5332458047
40
0.6480764882
40
0.8460082917
40
1.0000000000
40
1.0000000000
40
1.0000000000
40
1.0000000000
10
-79.2284112440
20
-63.0722416364
30
0.0000000000
10
-79.5163642980
20
-63.2688403556
30
0.0000000000
10
-80.1107514005
20
-63.6750647824
30
0.0000000000
10
-80.6370342285
20
-64.0350083370
30
0.0000000000
10
-81.5702093287
20
-64.6743465359
30
0.0000000000
10
-80.6383727890
20
-64.0359247459
30
0.0000000000
10
-80.1773902406
20
-63.7206410131
30
0.0000000000
10
-79.7012861993
20
-63.3952272781
30
0.0000000000
10
-79.4940929887
20
-63.2536883079
30
0.0000000000
11
-79.2284112440
21
-63.0722416364
31
0.0000000000
11
-80.0920590774
21
-63.6623472023
31
0.0000000000
11
-80.8677254238
21
-64.1931094667
31
0.0000000000
11
-81.3195317350
21
-64.5026018705
31
0.0000000000
11
-80.8694329283
21
-64.1942784305
31
0.0000000000
11
-80.0933354249
21
-63.6632197996
31
0.0000000000
11
-79.4940929887
21
-63.2536883079
31
0.0000000000
0
SPLINE
5
3AB
100
AcDbEntity
8
0
100
AcDbSpline
62
9
6
CONTINUOUS
70
0
71
3
72
10
73
6
74
4
42
0.0000001000
43
0.0000001000
44
0.0000000001
12
0.0013987049
22
37.6203064782
32
0.0000000000
13
2.6399279230
23
37.5275664283
33
0.0000000000
40
0.0000000000
40
0.0000000000
40
0.0000000000
40
0.0000000000
40
0.3332614963
40
0.6666877319
40
1.0000000000
40
1.0000000000
40
1.0000000000
40
1.0000000000
10
-79.4121977496
20
24.2498471148
30
0.0000000000
10
-79.4120423714
20
28.4289803238
30
0.0000000000
10
-79.3140872994
20
36.7896512427
30
0.0000000000
10
-78.8740963072
20
49.3230623134
30
0.0000000000
10
-78.3851928214
20
57.6706445922
30
0.0000000000
10
-78.0918860336
20
61.8401106864
30
0.0000000000
11
-79.4121977496
21
24.2498471148
31
0.0000000000
11
-79.2652902596
21
36.7863860239
31
0.0000000000
11
-78.8251433111
21
49.3222585861
31
0.0000000000
11
-78.0918860336
21
61.8401106864
31
0.0000000000
0
SPLINE
5
3AC
100
AcDbEntity
8
0
100
AcDbSpline
62
9
6
CONTINUOUS
70
0
71
3
72
10
73
6
74
4
42
0.0000001000
43
0.0000001000
44
0.0000000001
12
4.6041812129
22
0.2297613629
32
0.0000000000
13
4.6041833402
23
0.2297187293
33
0.0000000000
40
0.0000000000
40
0.0000000000
40
0.0000000000
40
0.0000000000
40
0.3333556363
40
0.6666889506
40
1.0000000000
40
1.0000000000
40
1.0000000000
40
1.0000000000
10
-78.0918860336
20
61.8401106864
30
0.0000000000
10
-77.5802761143
20
61.8656414348
30
0.0000000000
10
-76.5570905175
20
61.9167008940
30
0.0000000000
10
-75.0223630662
20
61.9932803933
30
0.0000000000
10
-73.9992455261
20
62.0443289833
30
0.0000000000
10
-73.4877037993
20
62.0698515803
30
0.0000000000
11
-78.0918860336
21
61.8401106864
31
0.0000000000
11
-76.5570562001
21
61.9167014152
31
0.0000000000
11
-75.0223288618
21
61.9932814229
31
0.0000000000
11
-73.4877037993
21
62.0698515803
31
0.0000000000
0
SPLINE
5
3AD
100
AcDbEntity
8
0
100
AcDbSpline
62
9
6
CONTINUOUS
70
0
71
3
72
10
73
6
74
4
42
0.0000001000
43
0.0000001000
44
0.0000000001
12
0.0013927461
22
37.6350574055
32
0.0000000000
13
2.6463555536
23
37.5419012590
33
0.0000000000
40
0.0000000000
40
0.0000000000
40
0.0000000000
40
0.0000000000
40
0.3332642167
40
0.6666877282
40
1.0000000000
40
1.0000000000
40
1.0000000000
40
1.0000000000
10
-80.5451937767
20
24.2500000552
30
0.0000000000
10
-80.5450390592
20
28.4308060304
30
0.0000000000
10
-80.4468460075
20
36.7947565917
30
0.0000000000
10
-80.0057745158
20
49.3330542987
30
0.0000000000
10
-79.5156832827
20
57.6838208150
30
0.0000000000
10
-79.2216623555
20
61.8548796133
30
0.0000000000
11
-80.5451937767
21
24.2500000552
31
0.0000000000
11
-80.3979268910
21
36.7915533920
31
0.0000000000
11
-79.9567058264
21
49.3322070018
31
0.0000000000
11
-79.2216623555
21
61.8548796133
31
0.0000000000
0
SPLINE
5
3AE
100
AcDbEntity
8
0
100
AcDbSpline
62
9
6
CONTINUOUS
70
0
71
3
72
8
73
4
74
2
42
0.0000001000
43
0.0000001000
44
0.0000000001
12
-0.6975572026
22
0.9968275404
32
0.0000000000
13
-0.0000015624
23
-0.0000010914
33
0.0000000000
40
0.0000000000
40
0.0000000000
40
0.0000000000
40
0.0000000000
40
1.0000000000
40
1.0000000000
40
1.0000000000
40
1.0000000000
10
-81.5628290769
20
48.6700834951
30
0.0000000000
10
-81.7953481445
20
49.0023593419
30
0.0000000000
10
-82.2603124232
20
49.6669623919
30
0.0000000000
10
-82.2603129440
20
49.6669620280
30
0.0000000000
11
-81.5628290769
21
48.6700834951
31
0.0000000000
11
-82.2603129440
21
49.6669620280
31
0.0000000000
0
SPLINE
5
3AF
100
AcDbEntity
8
0
100
AcDbSpline
62
9
6
CONTINUOUS
70
0
71
3
72
8
73
4
74
2
42
0.0000001000
43
0.0000001000
44
0.0000000001
12
-0.5932276267
22
-0.8478740512
32
0.0000000000
13
0.0000009867
23
-0.0000006892
33
0.0000000000
40
0.0000000000
40
0.0000000000
40
0.0000000000
40
0.0000000000
40
1.0000000000
40
1.0000000000
40
1.0000000000
40
1.0000000000
10
-81.8727097681
20
-49.1129532393
30
0.0000000000
10
-82.0704523104
20
-49.3955779230
30
0.0000000000
10
-82.2603068640
20
-49.6669486471
30
0.0000000000
10
-82.2603065351
20
-49.6669488769
30
0.0000000000
11
-81.8727097681
21
-49.1129532393
31
0.0000000000
11
-82.2603065351
21
-49.6669488769
31
0.0000000000
0
SPLINE
5
3B0
100
AcDbEntity
8
0
100
AcDbSpline
62
9
6
CONTINUOUS
70
0
71
3
72
8
73
4
74
2
42
0.0000001000
43
0.0000001000
44
0.0000000001
12
-0.0769939719
22
-0.1100417800
32
0.0000000000
13
-0.0774007976
23
-0.1106255421
33
0.0000000000
40
0.0000000000
40
0.0000000000
40
0.0000000000
40
0.0000000000
40
1.0000000000
40
1.0000000000
40
1.0000000000
40
1.0000000000
10
-81.7953102982
20
-49.0023307031
30
0.0000000000
10
-81.8209749555
20
-49.0390112964
30
0.0000000000
10
-81.8469095023
20
-49.0760780586
30
0.0000000000
10
-81.8727097681
20
-49.1129532393
30
0.0000000000
11
-81.7953102982
21
-49.0023307031
31
0.0000000000
11
-81.8727097681
21
-49.1129532393
31
0.0000000000
0
SPLINE
5
3B1
100
AcDbEntity
8
0
100
AcDbSpline
62
9
6
CONTINUOUS
70
0
71
3
72
8
73
4
74
2
42
0.0000001000
43
0.0000001000
44
0.0000000001
12
-0.0299389870
22
-0.0427891542
32
0.0000000000
13
-0.0302627887
23
-0.0432523619
33
0.0000000000
40
0.0000000000
40
0.0000000000
40
0.0000000000
40
0.0000000000
40
1.0000000000
40
1.0000000000
40
1.0000000000
40
1.0000000000
10
-81.7651971390
20
-48.9592924035
30
0.0000000000
10
-81.7751768014
20
-48.9735554549
30
0.0000000000
10
-81.7852227020
20
-48.9879132491
30
0.0000000000
10
-81.7953102982
20
-49.0023307031
30
0.0000000000
11
-81.7651971390
21
-48.9592924035
31
0.0000000000
11
-81.7953102982
21
-49.0023307031
31
0.0000000000
0
SPLINE
5
3B2
100
AcDbEntity
8
0
100
AcDbSpline
62
9
6
CONTINUOUS
70
0
71
3
72
8
73
4
74
2
42
0.0000001000
43
0.0000001000
44
0.0000000001
12
-0.1570641652
22
-0.2244541546
32
0.0000000000
13
-0.1935841311
23
-0.2766727288
33
0.0000000000
40
0.0000000000
40
0.0000000000
40
0.0000000000
40
0.0000000000
40
1.0000000000
40
1.0000000000
40
1.0000000000
40
1.0000000000
10
-81.5865556568
20
-48.7039869265
30
0.0000000000
10
-81.6389103785
20
-48.7788049780
30
0.0000000000
10
-81.7006690953
20
-48.8670681606
30
0.0000000000
10
-81.7651971390
20
-48.9592924035
30
0.0000000000
11
-81.5865556568
21
-48.7039869265
31
0.0000000000
11
-81.7651971390
21
-48.9592924035
31
0.0000000000
0
SPLINE
5
3B3
100
AcDbEntity
8
0
100
AcDbSpline
62
9
6
CONTINUOUS
70
0
71
3
72
9
73
5
74
3
42
0.0000001000
43
0.0000001000
44
0.0000000001
12
-1.4580677424
22
-2.0836666468
32
0.0000000000
13
1.3721050685
23
1.9607741945
33
0.0000000000
40
0.0000000000
40
0.0000000000
40
0.0000000000
40
0.0000000000
40
0.4916214629
40
1.0000000000
40
1.0000000000
40
1.0000000000
40
1.0000000000
10
-81.5865556568
20
-48.7039869265
30
0.0000000000
10
-81.8254947890
20
-49.0454453415
30
0.0000000000
10
-82.7099403769
20
-50.3096364034
30
0.0000000000
10
-81.7953453340
20
-49.0023553014
30
0.0000000000
10
-81.5628290782
20
-48.6700834625
30
0.0000000000
11
-81.5865556568
21
-48.7039869265
31
0.0000000000
11
-82.2603065351
21
-49.6669488769
31
0.0000000000
11
-81.5628290782
21
-48.6700834625
31
0.0000000000
0
SPLINE
5
3B4
100
AcDbEntity
8
0
100
AcDbSpline
62
9
6
CONTINUOUS
70
0
71
3
72
13
73
9
74
7
42
0.0000001000
43
0.0000001000
44
0.0000000001
12
-3.6782104683
22
2.5129480080
32
0.0000000000
13
3.7257816043
23
-2.5478139186
33
0.0000000000
40
0.0000000000
40
0.0000000000
40
0.0000000000
40
0.0000000000
40
0.2345916532
40
0.4453046914
40
0.5679764518
40
0.6906033837
40
0.9014143665
40
1.0000000000
40
1.0000000000
40
1.0000000000
40
1.0000000000
10
-78.0986896024
20
64.1759247515
30
0.0000000000
10
-78.3863154273
20
64.3724302941
30
0.0000000000
10
-78.9798699595
20
64.7783541909
30
0.0000000000
10
-79.5055718157
20
65.1381401429
30
0.0000000000
10
-80.4371151319
20
65.7767851195
30
0.0000000000
10
-79.5055372388
20
65.1381164611
30
0.0000000000
10
-79.1056776852
20
64.8644559922
30
0.0000000000
10
-78.7317623124
20
64.6086960653
30
0.0000000000
10
-78.6093261325
20
64.5249701155
30
0.0000000000
11
-78.0986896024
21
64.1759247515
31
0.0000000000
11
-78.9613558520
21
64.7657504312
31
0.0000000000
11
-79.7358529465
21
65.2960652015
31
0.0000000000
11
-80.1865886131
21
65.6050298216
31
0.0000000000
11
-79.7360176628
21
65.2961781054
31
0.0000000000
11
-78.9611605676
21
64.7656168245
31
0.0000000000
11
-78.6093261325
21
64.5249701155
31
0.0000000000
0
SPLINE
5
3B5
100
AcDbEntity
8
0
100
AcDbSpline
62
9
6
CONTINUOUS
70
0
71
3
72
10
73
6
74
4
42
0.0000001000
43
0.0000001000
44
0.0000000001
12
0.0000000161
22
0.0000000222
32
0.0000000000
13
1.6096468486
23
-1.1007302844
33
0.0000000000
40
0.0000000000
40
0.0000000000
40
0.0000000000
40
0.0000000000
40
0.2838527143
40
0.7718079963
40
1.0000000000
40
1.0000000000
40
1.0000000000
40
1.0000000000
10
-80.1865886147
20
65.6050298227
30
0.0000000000
10
-80.1865886132
20
65.6050298248
30
0.0000000000
10
-79.5055425710
20
65.1381201104
30
0.0000000000
10
-79.1056776850
20
64.8644559921
30
0.0000000000
10
-78.7317623124
20
64.6086960653
30
0.0000000000
10
-78.6093261325
20
64.5249701155
30
0.0000000000
11
-80.1865886147
21
65.6050298227
31
0.0000000000
11
-79.7360176628
21
65.2961781054
31
0.0000000000
11
-78.9611605676
21
64.7656168245
31
0.0000000000
11
-78.6093261325
21
64.5249701155
31
0.0000000000
0
SPLINE
5
3B6
100
AcDbEntity
8
0
100
AcDbSpline
62
9
6
CONTINUOUS
70
0
71
3
72
15
73
11
74
9
42
0.0000001000
43
0.0000001000
44
0.0000000001
12
0.0338685050
22
2.3361541815
32
0.0000000000
13
-0.7083217786
23
2.2264419357
33
0.0000000000
40
0.0000000000
40
0.0000000000
40
0.0000000000
40
0.0000000000
40
0.1413869666
40
0.2945403078
40
0.4547821632
40
0.6133002254
40
0.7588532771
40
0.8789449573
40
0.9605699889
40
1.0000000000
40
1.0000000000
40
1.0000000000
40
1.0000000000
10
-78.0918859914
20
61.8401106885
30
0.0000000000
10
-78.0902898030
20
61.9502112729
30
0.0000000000
10
-78.0872425338
20
62.1795779293
30
0.0000000000
10
-78.0834460962
20
62.5337487808
30
0.0000000000
10
-78.0807832605
20
62.9012412540
30
0.0000000000
10
-78.0792429383
20
63.2629343213
30
0.0000000000
10
-78.0809129416
20
63.5929924408
30
0.0000000000
10
-78.0810656403
20
63.8642092876
30
0.0000000000
10
-78.0914830871
20
64.0503272786
30
0.0000000000
10
-78.0893768664
20
64.1466620245
30
0.0000000000
10
-78.0986865783
20
64.1759249013
30
0.0000000000
11
-78.0918859914
21
61.8401106885
31
0.0000000000
11
-78.0874998722
21
62.1704180310
31
0.0000000000
11
-78.0837077378
21
62.5282253531
31
0.0000000000
11
-78.0809608397
21
62.9026042945
31
0.0000000000
11
-78.0797994368
21
63.2729640223
31
0.0000000000
11
-78.0807342579
21
63.6130328400
31
0.0000000000
11
-78.0841397325
21
63.8935943352
31
0.0000000000
11
-78.0899706672
21
64.0842138707
31
0.0000000000
11
-78.0986865783
21
64.1759249013
31
0.0000000000
0
SPLINE
5
3B7
100
AcDbEntity
8
0
100
AcDbSpline
62
9
6
CONTINUOUS
70
0
71
3
72
10
73
6
74
4
42
0.0000001000
43
0.0000001000
44
0.0000000001
12
0.9647736429
22
0.5912975967
32
0.0000000000
13
1.1290154498
23
-0.0757967281
33
0.0000000000
40
0.0000000000
40
0.0000000000
40
0.0000000000
40
0.0000000000
40
0.1605951049
40
0.5202297226
40
1.0000000000
40
1.0000000000
40
1.0000000000
40
1.0000000000
10
-79.2216623544
20
61.8548796132
30
0.0000000000
10
-79.1700163796
20
61.8865327798
30
0.0000000000
10
-78.9574014877
20
61.8606898383
30
0.0000000000
10
-78.5928944285
20
61.8781130855
30
0.0000000000
10
-78.2724419753
20
61.8522331858
30
0.0000000000
10
-78.0918859568
20
61.8401115134
30
0.0000000000
11
-79.2216623544
21
61.8548796132
31
0.0000000000
11
-79.0409384038
21
61.8739038265
31
0.0000000000
11
-78.6340261318
21
61.8685847905
31
0.0000000000
11
-78.0918859568
21
61.8401115134
31
0.0000000000
0
SPLINE
5
3B8
100
AcDbEntity
8
0
100
AcDbSpline
62
9
6
CONTINUOUS
70
0
71
3
72
10
73
6
74
4
42
0.0000001000
43
0.0000001000
44
0.0000000001
12
0.1386490789
22
1.7008403484
32
0.0000000000
13
1.7037512551
23
0.0965044993
33
0.0000000000
40
0.0000000000
40
0.0000000000
40
0.0000000000
40
0.0000000000
40
0.3334664484
40
0.6669858004
40
1.0000000000
40
1.0000000000
40
1.0000000000
40
1.0000000000
10
-79.2284111537
20
63.0722416302
30
0.0000000000
10
-79.2129995484
20
63.2612993603
30
0.0000000000
10
-79.0884659333
20
63.6378960111
30
0.0000000000
10
-78.6671034566
20
64.0497217493
30
0.0000000000
10
-78.2878105301
20
64.1652094215
30
0.0000000000
10
-78.0986860766
20
64.1759218777
30
0.0000000000
11
-79.2284111537
21
63.0722416302
31
0.0000000000
11
-79.0493547243
21
63.6123914993
31
0.0000000000
11
-78.6422431124
21
64.0101175068
31
0.0000000000
11
-78.0986860766
21
64.1759218777
31
0.0000000000
0
SPLINE
5
3B9
100
AcDbEntity
8
0
100
AcDbSpline
62
9
6
CONTINUOUS
70
0
71
3
72
10
73
6
74
4
42
0.0000001000
43
0.0000001000
44
0.0000000001
12
4.6109846154
22
0.2291759662
32
0.0000000000
13
4.6109867010
23
0.2291340017
33
0.0000000000
40
0.0000000000
40
0.0000000000
40
0.0000000000
40
0.0000000000
40
0.3333552078
40
0.6666887523
40
1.0000000000
40
1.0000000000
40
1.0000000000
40
1.0000000000
10
-78.0986896024
20
64.1759247515
30
0.0000000000
10
-77.5863243574
20
64.2013904188
30
0.0000000000
10
-76.5616268749
20
64.2523142804
30
0.0000000000
10
-75.0246317418
20
64.3287010123
30
0.0000000000
10
-74.0000017094
20
64.3796191737
30
0.0000000000
10
-73.4877037993
20
64.4050768204
30
0.0000000000
11
-78.0986896024
21
64.1759247515
31
0.0000000000
11
-76.5615936071
21
64.2523165135
31
0.0000000000
11
-75.0245974141
21
64.3287015515
31
0.0000000000
11
-73.4877037993
21
64.4050768204
31
0.0000000000
0
SPLINE
5
3BA
100
AcDbEntity
8
0
100
AcDbSpline
62
9
6
CONTINUOUS
70
0
71
3
72
8
73
4
74
2
42
0.0000001000
43
0.0000001000
44
0.0000000001
12
-0.8643342044
22
0.5901204881
32
0.0000000000
13
-0.7883756456
23
0.5389757115
33
0.0000000000
40
0.0000000000
40
0.0000000000
40
0.0000000000
40
0.0000000000
40
1.0000000000
40
1.0000000000
40
1.0000000000
40
1.0000000000
10
-79.2284112435
20
63.0722416372
30
0.0000000000
10
-79.5165226450
20
63.2689484665
30
0.0000000000
10
-79.8297420042
20
63.4830133047
30
0.0000000000
10
-80.0925338860
20
63.6626718753
30
0.0000000000
11
-79.2284112435
21
63.0722416372
31
0.0000000000
11
-80.0925338860
21
63.6626718753
31
0.0000000000
0
SPLINE
5
3BB
100
AcDbEntity
8
0
100
AcDbSpline
62
9
6
CONTINUOUS
70
0
71
3
72
9
73
5
74
3
42
0.0000001000
43
0.0000001000
44
0.0000000001
12
-1.1203532911
22
0.7659333665
32
0.0000000000
13
-0.0000001882
23
-0.0000002882
33
0.0000000000
40
0.0000000000
40
0.0000000000
40
0.0000000000
40
0.0000000000
40
0.6320534026
40
1.0000000000
40
1.0000000000
40
1.0000000000
40
1.0000000000
10
-80.0925338860
20
63.6626718753
30
0.0000000000
10
-80.3285749226
20
63.8240421387
30
0.0000000000
10
-80.6376588215
20
64.0354360322
30
0.0000000000
10
-81.3198255743
20
64.5028032857
30
0.0000000000
10
-81.3198255973
20
64.5028032503
30
0.0000000000
11
-80.0925338860
21
63.6626718753
31
0.0000000000
11
-80.8683334129
21
64.1935257805
31
0.0000000000
11
-81.3198255973
21
64.5028032503
31
0.0000000000
0
SPLINE
5
3BC
100
AcDbEntity
8
0
100
AcDbSpline
62
9
6
CONTINUOUS
70
0
71
3
72
15
73
11
74
9
42
0.0000001000
43
0.0000001000
44
0.0000000001
12
0.0859946120
22
1.2199625471
32
0.0000000000
13
-1.0097921282
23
0.6899445975
33
0.0000000000
40
0.0000000000
40
0.0000000000
40
0.0000000000
40
0.0000000000
40
0.1414089306
40
0.2944410000
40
0.4543696817
40
0.6123890672
40
0.7573191817
40
0.8768369695
40
0.9583551058
40
1.0000000000
40
1.0000000000
40
1.0000000000
40
1.0000000000
10
-79.2216623555
20
61.8548796133
30
0.0000000000
10
-79.2176088868
20
61.9123841464
30
0.0000000000
10
-79.2097988203
20
62.0321605219
30
0.0000000000
10
-79.1998677700
20
62.2171514071
30
0.0000000000
10
-79.1922977544
20
62.4089235688
30
0.0000000000
10
-79.1879964678
20
62.5978996660
30
0.0000000000
10
-79.1888727900
20
62.7691448217
30
0.0000000000
10
-79.1929593672
20
62.9128792946
30
0.0000000000
10
-79.2061054779
20
63.0054950991
30
0.0000000000
10
-79.2143936814
20
63.0626640806
30
0.0000000000
10
-79.2284112435
20
63.0722416372
30
0.0000000000
11
-79.2216623555
21
61.8548796133
31
0.0000000000
11
-79.2104241650
21
62.0274557428
31
0.0000000000
11
-79.2004513135
21
62.2143464839
31
0.0000000000
11
-79.1928125139
21
62.4097883834
31
0.0000000000
11
-79.1888117243
21
62.6030030401
31
0.0000000000
11
-79.1896989614
21
62.7802488498
31
0.0000000000
11
-79.1964179685
21
62.9262633583
31
0.0000000000
11
-79.2089735367
21
63.0251654193
31
0.0000000000
11
-79.2284112435
21
63.0722416372
31
0.0000000000
0
SPLINE
5
3BD
100
AcDbEntity
8
0
100
AcDbSpline
62
9
6
CONTINUOUS
70
0
71
3
72
10
73
6
74
4
42
0.0000001000
43
0.0000001000
44
0.0000000001
12
-2.6399274655
22
37.5275222364
32
0.0000000000
13
-0.0013990865
23
37.6202623631
33
0.0000000000
40
0.0000000000
40
0.0000000000
40
0.0000000000
40
0.0000000000
40
0.3333092507
40
0.6667344752
40
1.0000000000
40
1.0000000000
40
1.0000000000
40
1.0000000000
10
-78.0918889188
20
-61.8400614572
30
0.0000000000
10
-78.3851930006
20
-57.6706380179
30
0.0000000000
10
-78.8740928408
20
-49.3231159674
30
0.0000000000
10
-79.3140862193
20
-36.7897197128
30
0.0000000000
10
-79.4120423881
20
-28.4290207427
30
0.0000000000
10
-79.4121978105
20
-24.2498419161
30
0.0000000000
11
-78.0918889188
21
-61.8400614572
31
0.0000000000
11
-78.8251395336
21
-49.3223374052
31
0.0000000000
11
-79.2652872455
21
-36.7865176512
31
0.0000000000
11
-79.4121978105
21
-24.2498419161
31
0.0000000000
0
SPLINE
5
3BE
100
AcDbEntity
8
0
100
AcDbSpline
62
9
6
CONTINUOUS
70
0
71
3
72
10
73
6
74
4
42
0.0000001000
43
0.0000001000
44
0.0000000001
12
4.6041865417
22
-0.2297616399
32
0.0000000000
13
4.6041886696
23
-0.2297189952
33
0.0000000000
40
0.0000000000
40
0.0000000000
40
0.0000000000
40
0.0000000000
40
0.3333555708
40
0.6666889179
40
1.0000000000
40
1.0000000000
40
1.0000000000
40
1.0000000000
10
-78.0918889188
20
-61.8400614572
30
0.0000000000
10
-77.5802785078
20
-61.8655922314
30
0.0000000000
10
-76.5570953614
20
-61.9167235567
30
0.0000000000
10
-75.0223646673
20
-61.9932737700
30
0.0000000000
10
-73.9992461684
20
-62.0443289513
30
0.0000000000
10
-73.4877037993
20
-62.0698515803
30
0.0000000000
11
-78.0918889188
21
-61.8400614572
31
0.0000000000
11
-76.5570600542
21
-61.9167012229
31
0.0000000000
11
-75.0223307886
21
-61.9932813268
31
0.0000000000
11
-73.4877037993
21
-62.0698515803
31
0.0000000000
0
SPLINE
5
3BF
100
AcDbEntity
8
0
100
AcDbSpline
62
9
6
CONTINUOUS
70
0
71
3
72
10
73
6
74
4
42
0.0000001000
43
0.0000001000
44
0.0000000001
12
4.6109812540
22
-0.2291757884
32
0.0000000000
13
4.6109833390
23
-0.2291338346
33
0.0000000000
40
0.0000000000
40
0.0000000000
40
0.0000000000
40
0.0000000000
40
0.3333556320
40
0.6666889644
40
1.0000000000
40
1.0000000000
40
1.0000000000
40
1.0000000000
10
-78.0986860966
20
-64.1759220255
30
0.0000000000
10
-77.5863205733
20
-64.2013877054
30
0.0000000000
10
-76.5616237229
20
-64.2523157909
30
0.0000000000
10
-75.0246296242
20
-64.3287007307
30
0.0000000000
10
-74.0000010100
20
-64.3796192085
30
0.0000000000
10
-73.4877037993
20
-64.4050768204
30
0.0000000000
11
-78.0986860966
21
-64.1759220255
31
0.0000000000
11
-76.5615894101
21
-64.2523167221
31
0.0000000000
11
-75.0245953156
21
-64.3287016558
31
0.0000000000
11
-73.4877037993
21
-64.4050768204
31
0.0000000000
0
SPLINE
5
3C0
100
AcDbEntity
8
0
100
AcDbSpline
62
9
6
CONTINUOUS
70
0
71
3
72
15
73
11
74
9
42
0.0000001000
43
0.0000001000
44
0.0000000001
12
1.0103195067
22
0.6900317737
32
0.0000000000
13
-0.0860268089
23
1.2204461244
33
0.0000000000
40
0.0000000000
40
0.0000000000
40
0.0000000000
40
0.0000000000
40
0.0196610984
40
0.0614525238
40
0.1329965355
40
0.2396812473
40
0.3838800147
40
0.5635813680
40
0.7665287940
40
1.0000000000
40
1.0000000000
40
1.0000000000
40
1.0000000000
10
-79.2284112435
20
-63.0722416372
30
0.0000000000
10
-79.2217899131
20
-63.0677193763
30
0.0000000000
10
-79.2120156848
20
-63.0422943800
30
0.0000000000
10
-79.2018959316
20
-62.9904606378
30
0.0000000000
10
-79.1935915226
20
-62.9001436476
30
0.0000000000
10
-79.1885481714
20
-62.7691378183
30
0.0000000000
10
-79.1880460455
20
-62.5933307347
30
0.0000000000
10
-79.1930168817
20
-62.3785737210
30
0.0000000000
10
-79.2039753597
20
-62.1275077234
30
0.0000000000
10
-79.2149674279
20
-61.9498592895
30
0.0000000000
10
-79.2216623555
20
-61.8548796133
30
0.0000000000
11
-79.2284112435
21
-63.0722416372
31
0.0000000000
11
-79.2160574543
21
-63.0516013943
31
0.0000000000
11
-79.2047507440
21
-63.0017364733
31
0.0000000000
11
-79.1955526161
21
-62.9146888376
31
0.0000000000
11
-79.1897916651
21
-62.7842900307
31
0.0000000000
11
-79.1887680080
21
-62.6078695150
31
0.0000000000
11
-79.1935023313
21
-62.3880605070
31
0.0000000000
11
-79.2041309084
21
-62.1399871313
31
0.0000000000
11
-79.2216623555
21
-61.8548796133
31
0.0000000000
0
ENDSEC
0
SECTION
2
OBJECTS
0
DICTIONARY
5
C
100
AcDbDictionary
280
0
281
1
3
ACAD_GROUP
350
D
3
ACAD_MLINESTYLE
350
17
3
ACAD_LAYOUT
350
1A
3
ACAD_PLOTSETTINGS
350
19
3
ACAD_PLOTSTYLENAME
350
E
0
DICTIONARY
5
D
102
{ACAD_REACTORS
330
C
102
}
100
AcDbDictionary
280
0
281
1
0
ACDBDICTIONARYWDFLT
5
E
102
{ACAD_REACTORS
330
C
102
}
100
AcDbDictionary
281
1
3
Normal
350
F
100
AcDbDictionaryWithDefault
340
F
0
DICTIONARY
5
17
102
{ACAD_REACTORS
330
C
102
}
100
AcDbDictionary
280
0
281
1
3
Standard
350
18
0
DICTIONARY
5
19
102
{ACAD_REACTORS
330
C
102
}
100
AcDbDictionary
281
1
0
DICTIONARY
5
1A
102
{ACAD_REACTORS
330
C
102
}
100
AcDbDictionary
281
1
3
Layout1
350
1E
3
Model
350
22
0
ACDBPLACEHOLDER
5
F
102
{ACAD_REACTORS
330
E
102
}
0
MLINESTYLE
5
18
102
{ACAD_REACTORS
330
17
102
}
100
AcDbMlineStyle
2
STANDARD
70
0
3

62
256
51
90.0
52
90.0
71
2
49
0.5
62
256
6
BYLAYER
49
-0.5
62
256
6
BYLAYER
0
LAYOUT
5
1E
102
{ACAD_REACTORS
330
1A
102
}
100
AcDbPlotSettings
1

2

4

6

40
0.0
41
0.0
42
0.0
43
0.0
44
0.0
45
0.0
46
0.0
47
0.0
48
0.0
49
0.0
140
0.0
141
0.0
142
1.0
143
1.0
70
0
72
0
73
0
74
0
7

75
0
147
1.0
148
0.0
149
0.0
100
AcDbLayout
1
Layout1
70
0
71
0
10
0.0
20
0.0
11
0.0
21
0.0
12
0.0
22
0.0
32
0.0
14
0.0
24
0.0
34
0.0
15
0.0
25
0.0
35
0.0
146
0.0
13
0.0
23
0.0
33
0.0
16
0.0
26
0.0
36
0.0
17
0.0
27
0.0
37
0.0
76
0
330
1B
331
0
345
0
346
0
0
LAYOUT
5
22
102
{ACAD_REACTORS
330
1A
102
}
100
AcDbPlotSettings
1

2

4

6

40
0.0
41
0.0
42
0.0
43
0.0
44
0.0
45
0.0
46
0.0
47
0.0
48
0.0
49
0.0
140
0.0
141
0.0
142
1.0
143
1.0
70
0
72
0
73
0
74
0
7

75
0
147
1.0
148
0.0
149
0.0
100
AcDbLayout
1
Model
70
0
71
0
10
0.0
20
0.0
11
0.0
21
0.0
12
0.0
22
0.0
32
0.0
14
0.0
24
0.0
34
0.0
15
0.0
25
0.0
35
0.0
146
0.0
13
0.0
23
0.0
33
0.0
16
0.0
26
0.0
36
0.0
17
0.0
27
0.0
37
0.0
76
0
330
1F
331
0
345
0
346
0
0
ENDSEC
0
EOF
