  0
SECTION
  2
HEADER
  9
$ACADVER
  1
AC1024
  9
$DWGCODEPAGE
  3
ANSI_1252
  9
$EXTMAX
 10
210.0
 20
297.0
 30
0.0
  9
$EXTMIN
 10
0.0
 20
0.0
 30
0.0
  9
$LIMMIN
 10
0.0
 20
0.0
  9
$LIMMAX
 10
210.0
 20
297.0
  9
$VIEWCTR
 10
105.0
 20
148.5
  9
$VIEWSIZE
 40
297.0
  9
$CLAYER
  8
0
  9
$LTSCALE
 40
19.36
  9
$CELTYPE
  6
BYLAYER
  9
$DIMSCALE
 40
1.0
  9
$DIMASZ
 40
3.0
  9
$DIMEXO
 40
0.5
  9
$DIMDLI
 40
13.376
  9
$DIMEXE
 40
1.5
  9
$DIMCEN
 40
3.168
  9
$DIMLFAC
 40
1.0
  9
$DIMBLK
  1
_FILLED
  9
$DIMALT
 70
0
  9
$DIMALTF
 40
0.0393700787
  9
$DIMTXT
 40
3.0
  9
$DIMTOL
 70
1
  9
$DIMLIM
 70
0
  9
$DIMTFAC
 40
1.0
  9
$DIMTP
 40
0.01
  9
$DIMTM
 40
0.01
  9
$DIMGAP
 40
0.625
  9
$DIMDSEP
 70
44
  9
$AUNITS
 70
0
  9
$PDMODE
 70
3
  9
$PDSIZE
 40
3.0
  9
$HANDSEED
  5
498
  9
$TILEMODE
 70
1
  9
$MEASUREMENT
 70
1
  9
$INSUNITS
 70
4
  0
ENDSEC
  0
SECTION
  2
CLASSES
  0
CLASS
  1
ACDBDICTIONARYWDFLT
  2
AcDbDictionaryWithDefault
  3
AutoCAD 2000
 90
0
 91
1
280
0
281
0
  0
CLASS
  1
ACDBPLACEHOLDER
  2
AcDbPlaceHolder
  3
AutoCAD 2000
 90
0
 91
1
280
0
281
0
  0
CLASS
  1
LAYOUT
  2
AcDbLayout
  3
AutoCAD 2000
 90
0
 91
0
280
0
281
0
  0
ENDSEC
  0
SECTION
  2
TABLES
  0
TABLE
  2
VPORT
  5
8
100
AcDbSymbolTable
 70
2
  0
VPORT
  5
1F4
100
AcDbSymbolTableRecord
100
AcDbViewportTableRecord
  2
*ACTIVE
 70
0
 10
0.0
 20
0.0
 11
1.0
 21
1.0
 12
105.0
 22
148.5
 13
0.0
 23
0.0
 14
1.0
 24
1.0
 15
0.0
 25
0.0
 16
0.0
 26
0.0
 36
1.0
 17
0.0
 27
0.0
 37
0.0
 40
297.0
 41
0.7070707071
 42
50.0
 43
0.0
 44
0.0
 50
0.0
 51
0.0
 71
0
 72
100
 73
1
 74
1
 75
0
 76
0
 77
0
 78
0
  0
ENDTAB
  0
TABLE
  2
LTYPE
  5
5
100
AcDbSymbolTable
 70
6
  0
LTYPE
  5
14
100
AcDbSymbolTableRecord
100
AcDbLinetypeTableRecord
  2
BYBLOCK
 70
0
  3

 72
65
 73
0
 40
0.0
  0
LTYPE
  5
15
100
AcDbSymbolTableRecord
100
AcDbLinetypeTableRecord
  2
BYLAYER
 70
0
  3

 72
65
 73
0
 40
0.0
  0
LTYPE
  5
16
100
AcDbSymbolTableRecord
100
AcDbLinetypeTableRecord
  2
CONTINUOUS
 70
64
  3
Solid line
 72
65
 73
0
 40
0.0
  0
LTYPE
  5
1F5
100
AcDbSymbolTableRecord
100
AcDbLinetypeTableRecord
  2
CENTER
 70
64
  3
____ _ ____ _ ____ _ ____ _ ____ _ ____ _ ____
 72
65
 73
4
 40
0.6
 49
0.375
 74
0
 49
-0.075
 74
0
 49
0.075
 74
0
 49
-0.075
 74
0
  0
LTYPE
  5
1F6
100
AcDbSymbolTableRecord
100
AcDbLinetypeTableRecord
  2
HIDDEN
 70
64
  3
- - - - - - - - - - - - - - - - - - - -
 72
65
 73
2
 40
0.2
 49
0.1
 74
0
 49
-0.1
 74
0
  0
LTYPE
  5
1F7
100
AcDbSymbolTableRecord
100
AcDbLinetypeTableRecord
  2
PHANTOM
 70
64
  3
_____ _ _ _____ _ _ _____ _ _ _____
 72
65
 73
6
 40
0.8
 49
0.45
 74
0
 49
-0.05
 74
0
 49
0.1
 74
0
 49
-0.05
 74
0
 49
0.1
 74
0
 49
-0.05
 74
0
  0
LTYPE
  5
1F8
100
AcDbSymbolTableRecord
100
AcDbLinetypeTableRecord
  2
DOT
 70
64
  3
. . . . . . . . . . . . . . . . . . . .
 72
65
 73
2
 40
0.2
 49
0.1
 74
0
 49
-0.1
 74
0
  0
LTYPE
  5
1F9
100
AcDbSymbolTableRecord
100
AcDbLinetypeTableRecord
  2
DASHED
 70
64
  3
- - - - - - - - - - - - - - - - - - - -
 72
65
 73
2
 40
0.2
 49
0.1
 74
0
 49
-0.1
 74
0
  0
ENDTAB
  0
TABLE
  2
LAYER
  5
2
100
AcDbSymbolTable
 70
36
  0
LAYER
  5
10
100
AcDbSymbolTableRecord
100
AcDbLayerTableRecord
  2
0
 70
0
 62
7
  6
CONTINUOUS
370
-3
390
F
  0
LAYER
  5
1FA
100
AcDbSymbolTableRecord
100
AcDbLayerTableRecord
  2
DEFAULT_1
 70
0
 62
7
  6
CENTER
370
-3
390
F
  0
LAYER
  5
1FB
100
AcDbSymbolTableRecord
100
AcDbLayerTableRecord
  2
DEFAULT_2
 70
0
 62
7
  6
HIDDEN
370
-3
390
F
  0
LAYER
  5
1FC
100
AcDbSymbolTableRecord
100
AcDbLayerTableRecord
  2
DEFAULT_3
 70
0
 62
7
  6
PHANTOM
370
-3
390
F
  0
LAYER
  5
1FD
100
AcDbSymbolTableRecord
100
AcDbLayerTableRecord
  2
ASSI
 70
0
 62
7
  6
CONTINUOUS
370
-3
390
F
  0
LAYER
  5
1FE
100
AcDbSymbolTableRecord
100
AcDbLayerTableRecord
  2
COORDINATE
 70
0
 62
7
  6
CONTINUOUS
370
-3
390
F
  0
LAYER
  5
1FF
100
AcDbSymbolTableRecord
100
AcDbLayerTableRecord
  2
COPY_PUBLISH
 70
0
 62
7
  6
CONTINUOUS
370
-3
390
F
  0
LAYER
  5
200
100
AcDbSymbolTableRecord
100
AcDbLayerTableRecord
  2
COSMETICI
 70
0
 62
7
  6
CONTINUOUS
370
-3
390
F
  0
LAYER
  5
201
100
AcDbSymbolTableRecord
100
AcDbLayerTableRecord
  2
CURVE
 70
0
 62
7
  6
CONTINUOUS
370
-3
390
F
  0
LAYER
  5
202
100
AcDbSymbolTableRecord
100
AcDbLayerTableRecord
  2
DRAFT
 70
0
 62
7
  6
CONTINUOUS
370
-3
390
F
  0
LAYER
  5
203
100
AcDbSymbolTableRecord
100
AcDbLayerTableRecord
  2
IMPORT_IGES
 70
0
 62
7
  6
CONTINUOUS
370
-3
390
F
  0
LAYER
  5
204
100
AcDbSymbolTableRecord
100
AcDbLayerTableRecord
  2
INTF_1
 70
0
 62
7
  6
CONTINUOUS
370
-3
390
F
  0
LAYER
  5
205
100
AcDbSymbolTableRecord
100
AcDbLayerTableRecord
  2
INTF_11
 70
0
 62
7
  6
CONTINUOUS
370
-3
390
F
  0
LAYER
  5
206
100
AcDbSymbolTableRecord
100
AcDbLayerTableRecord
  2
INTF_8
 70
0
 62
7
  6
CONTINUOUS
370
-3
390
F
  0
LAYER
  5
207
100
AcDbSymbolTableRecord
100
AcDbLayerTableRecord
  2
NONE
 70
0
 62
7
  6
CONTINUOUS
370
-3
390
F
  0
LAYER
  5
208
100
AcDbSymbolTableRecord
100
AcDbLayerTableRecord
  2
NOTE
 70
0
 62
7
  6
CONTINUOUS
370
-3
390
F
  0
LAYER
  5
209
100
AcDbSymbolTableRecord
100
AcDbLayerTableRecord
  2
PIANI
 70
0
 62
7
  6
CONTINUOUS
370
-3
390
F
  0
LAYER
  5
20A
100
AcDbSymbolTableRecord
100
AcDbLayerTableRecord
  2
PUNTI
 70
0
 62
7
  6
CONTINUOUS
370
-3
390
F
  0
LAYER
  5
20B
100
AcDbSymbolTableRecord
100
AcDbLayerTableRecord
  2
RACCORDO
 70
0
 62
7
  6
CONTINUOUS
370
-3
390
F
  0
LAYER
  5
20C
100
AcDbSymbolTableRecord
100
AcDbLayerTableRecord
  2
RGB____0____0____0__
 70
0
 62
7
  6
CONTINUOUS
370
-3
390
F
  0
LAYER
  5
20D
100
AcDbSymbolTableRecord
100
AcDbLayerTableRecord
  2
SIMBOLI
 70
0
 62
7
  6
CONTINUOUS
370
-3
390
F
  0
LAYER
  5
20E
100
AcDbSymbolTableRecord
100
AcDbLayerTableRecord
  2
SMUSSO
 70
0
 62
7
  6
CONTINUOUS
370
-3
390
F
  0
LAYER
  5
20F
100
AcDbSymbolTableRecord
100
AcDbLayerTableRecord
  2
SNAPLINE
 70
0
 62
7
  6
CONTINUOUS
370
-3
390
F
  0
LAYER
  5
210
100
AcDbSymbolTableRecord
100
AcDbLayerTableRecord
  2
SUPERFICI
 70
0
 62
7
  6
CONTINUOUS
370
-3
390
F
  0
LAYER
  5
211
100
AcDbSymbolTableRecord
100
AcDbLayerTableRecord
  2
TRASH
 70
0
 62
7
  6
CONTINUOUS
370
-3
390
F
  0
ENDTAB
  0
TABLE
  2
STYLE
  5
3
100
AcDbSymbolTable
 70
1
  0
STYLE
  5
11
100
AcDbSymbolTableRecord
100
AcDbTextStyleTableRecord
  2
STANDARD
 70
0
 40
0.0
 41
0.8
 50
0.0
 71
0
 42
0.2
  3
txt
  4

  0
STYLE
  5
212
100
AcDbSymbolTableRecord
100
AcDbTextStyleTableRecord
  2
TEXTSTYLE_1
 70
0
 40
0.0
 41
0.8
 50
0.0
 71
0
 42
0.2
  3
gdt
  4

  0
ENDTAB
  0
TABLE
  2
VIEW
  5
6
100
AcDbSymbolTable
 70
0
  0
ENDTAB
  0
TABLE
  2
UCS
  5
7
100
AcDbSymbolTable
 70
0
  0
ENDTAB
  0
TABLE
  2
APPID
  5
9
100
AcDbSymbolTable
 70
1
  0
APPID
  5
213
100
AcDbSymbolTableRecord
100
AcDbRegAppTableRecord
  2
ACAD
 70
0
  0
ENDTAB
  0
TABLE
  2
BLOCK_RECORD
  5
1
100
AcDbSymbolTable
 70
0
  0
BLOCK_RECORD
  5
214
100
AcDbSymbolTableRecord
100
AcDbBlockTableRecord
  2
*Model_Space
  0
BLOCK_RECORD
  5
215
100
AcDbSymbolTableRecord
100
AcDbBlockTableRecord
  2
*Paper_Space
  0
BLOCK_RECORD
  5
216
100
AcDbSymbolTableRecord
100
AcDbBlockTableRecord
  2
_FILLED
  0
BLOCK_RECORD
  5
217
100
AcDbSymbolTableRecord
100
AcDbBlockTableRecord
  2
*D0
  0
BLOCK_RECORD
  5
218
100
AcDbSymbolTableRecord
100
AcDbBlockTableRecord
  2
*D1
  0
BLOCK_RECORD
  5
219
100
AcDbSymbolTableRecord
100
AcDbBlockTableRecord
  2
*D2
  0
ENDTAB
  0
TABLE
  2
DIMSTYLE
  5
A
100
AcDbSymbolTable
 70
1
100
AcDbDimStyleTable
 71
0
  0
DIMSTYLE
105
21A
100
AcDbSymbolTableRecord
100
AcDbDimStyleTableRecord
  2
STANDARD
 70
0
  3

  4

 40
1.0
 41
3.0
 42
0.5
 43
0.38
 44
1.5
 45
0.0
 46
0.0
 47
0.01
 48
0.01
140
3.0
141
0.09
142
0.0
143
25.4
144
1.0
145
0.0
146
1.0
147
0.625
 71
1
 72
0
 73
0
 74
0
 75
0
 76
0
 77
1
 78
8
 79
2
170
0
171
1
172
0
173
0
174
0
175
0
176
0
177
0
178
0
270
2
179
2
271
2
272
2
273
2
274
2
275
0
280
0
281
0
282
0
283
1
284
8
285
0
286
0
287
3
288
0
340
11
278
44
341
216
342
216
343
216
344
216
  0
DIMSTYLE
105
21B
100
AcDbSymbolTableRecord
100
AcDbDimStyleTableRecord
  2
DIMSTYLE_1
 70
0
  3

  4

 40
1.0
 41
3.0
 42
0.5
 43
0.38
 44
1.5
 45
0.0
 46
0.0
 47
0.0
 48
0.0
140
3.0
141
0.09
142
0.0
143
25.4
144
1.0
145
0.0
146
1.0
147
0.75
 71
0
 72
0
 73
0
 74
0
 75
0
 76
0
 77
1
 78
8
 79
2
170
0
171
1
172
0
173
0
174
0
175
0
176
0
177
0
178
0
270
2
179
2
271
0
272
0
273
2
274
2
275
0
280
0
281
0
282
0
283
1
284
8
285
0
286
0
287
3
288
0
340
11
278
44
341
216
342
216
343
216
344
216
  0
DIMSTYLE
105
21C
100
AcDbSymbolTableRecord
100
AcDbDimStyleTableRecord
  2
DIMSTYLE_2
 70
0
  3

  4

 40
1.0
 41
3.0
 42
0.5
 43
0.38
 44
1.5
 45
0.0
 46
0.0
 47
0.0
 48
0.0
140
3.0
141
0.09
142
0.0
143
25.4
144
1.0
145
0.0
146
1.0
147
0.75
 71
0
 72
0
 73
0
 74
0
 75
0
 76
0
 77
1
 78
8
 79
2
170
0
171
1
172
0
173
0
174
0
175
0
176
0
177
0
178
0
270
2
179
2
271
1
272
1
273
2
274
2
275
0
280
0
281
0
282
0
283
1
284
8
285
0
286
0
287
3
288
0
340
11
278
44
341
216
342
216
343
216
344
216
  0
ENDTAB
  0
ENDSEC
  0
SECTION
  2
BLOCKS
  0
BLOCK
  5
20
100
AcDbEntity
  8
0
100
AcDbBlockBegin
  2
*Model_Space
 70
0
 10
0.0
 20
0.0
 30
0.0
  3
*Model_Space
  1

  0
ENDBLK
  5
21
100
AcDbEntity
  8
0
100
AcDbBlockEnd
  0
BLOCK
  5
1C
100
AcDbEntity
  8
0
100
AcDbBlockBegin
  2
*Paper_Space
 70
0
 10
0.0
 20
0.0
 30
0.0
  3
*Paper_Space
  1

  0
ENDBLK
  5
1D
100
AcDbEntity
  8
0
100
AcDbBlockEnd
  0
BLOCK
  5
21D
100
AcDbEntity
  8
0
100
AcDbBlockBegin
  2
_FILLED
 70
64
 10
0.0
 20
0.0
  3
_FILLED
  1

  0
SOLID
  5
21E
100
AcDbEntity
  8
0
  6
BYBLOCK
 62
0
100
AcDbTrace
 10
0.0
 20
0.0
 11
-1.0
 21
0.3166666667
 12
-1.0
 22
-0.3166666667
 13
-1.0
 23
-0.3166666667
  0
ENDBLK
  5
21F
100
AcDbEntity
  8
0
  6
BYBLOCK
 62
0
100
AcDbBlockEnd
  0
BLOCK
  5
220
100
AcDbEntity
  8
0
100
AcDbBlockBegin
 62
7
  6
CONTINUOUS
  2
*D0
 70
65
 10
0.0
 20
0.0
  3
*D0
  1

  0
LINE
  5
221
100
AcDbEntity
  8
0
100
AcDbLine
 62
7
  6
CONTINUOUS
 10
-42.95
 20
42.65027414
 11
-42.95
 21
52.45
  0
LINE
  5
222
100
AcDbEntity
  8
0
100
AcDbLine
 62
7
  6
CONTINUOUS
 10
42.95
 20
42.65027414
 11
42.95
 21
52.45
  0
LINE
  5
223
100
AcDbEntity
  8
0
100
AcDbLine
 62
7
  6
CONTINUOUS
 10
-42.95
 20
50.95
 11
0.0
 21
50.95
  0
LINE
  5
224
100
AcDbEntity
  8
0
100
AcDbLine
 62
7
  6
CONTINUOUS
 10
42.95
 20
50.95
 11
0.0
 21
50.95
  0
INSERT
  5
225
100
AcDbEntity
  8
0
100
AcDbBlockReference
 62
7
  6
CONTINUOUS
  2
_FILLED
 10
-42.95
 20
50.95
 41
3.0
 42
3.0
 43
3.0
 50
180.0
  0
INSERT
  5
226
100
AcDbEntity
  8
0
100
AcDbBlockReference
 62
7
  6
CONTINUOUS
  2
_FILLED
 10
42.95
 20
50.95
 41
3.0
 42
3.0
 43
3.0
 50
0.0
  0
ENDBLK
  5
227
100
AcDbEntity
  8
0
  6
BYBLOCK
 62
0
100
AcDbBlockEnd
  0
BLOCK
  5
228
100
AcDbEntity
  8
0
100
AcDbBlockBegin
 62
7
  6
CONTINUOUS
  2
*D1
 70
65
 10
0.0
 20
0.0
  3
*D1
  1

  0
LINE
  5
229
100
AcDbEntity
  8
0
100
AcDbLine
 62
7
  6
CONTINUOUS
 10
42.65027414
 20
42.95
 11
52.45
 21
42.95
  0
LINE
  5
22A
100
AcDbEntity
  8
0
100
AcDbLine
 62
7
  6
CONTINUOUS
 10
42.65027414
 20
-42.95
 11
52.45
 21
-42.95
  0
LINE
  5
22B
100
AcDbEntity
  8
0
100
AcDbLine
 62
7
  6
CONTINUOUS
 10
50.95
 20
42.95
 11
50.95
 21
0.0
  0
LINE
  5
22C
100
AcDbEntity
  8
0
100
AcDbLine
 62
7
  6
CONTINUOUS
 10
50.95
 20
-42.95
 11
50.95
 21
0.0
  0
INSERT
  5
22D
100
AcDbEntity
  8
0
100
AcDbBlockReference
 62
7
  6
CONTINUOUS
  2
_FILLED
 10
50.95
 20
42.95
 41
3.0
 42
3.0
 43
3.0
 50
90.0
  0
INSERT
  5
22E
100
AcDbEntity
  8
0
100
AcDbBlockReference
 62
7
  6
CONTINUOUS
  2
_FILLED
 10
50.95
 20
-42.95
 41
3.0
 42
3.0
 43
3.0
 50
270.0
  0
ENDBLK
  5
22F
100
AcDbEntity
  8
0
  6
BYBLOCK
 62
0
100
AcDbBlockEnd
  0
BLOCK
  5
230
100
AcDbEntity
  8
0
100
AcDbBlockBegin
 62
7
  6
CONTINUOUS
  2
*D2
 70
65
 10
0.0
 20
0.0
  3
*D2
  1

  0
LINE
  5
231
100
AcDbEntity
  8
0
100
AcDbLine
 62
7
  6
CONTINUOUS
 10
-64.5036561765
 20
41.9532985447
 11
-64.5036561765
 21
52.45
  0
LINE
  5
232
100
AcDbEntity
  8
0
100
AcDbLine
 62
7
  6
CONTINUOUS
 10
-73.2725201789
 20
0.5
 11
-73.2725201789
 21
52.45
  0
LINE
  5
233
100
AcDbEntity
  8
0
100
AcDbLine
 62
7
  6
CONTINUOUS
 10
-64.5036561765
 20
50.95
 11
-68.8880881777
 21
50.95
  0
LINE
  5
234
100
AcDbEntity
  8
0
100
AcDbLine
 62
7
  6
CONTINUOUS
 10
-68.8880881777
 20
50.95
 11
-56.5750495479
 21
50.95
  0
LINE
  5
235
100
AcDbEntity
  8
0
100
AcDbLine
 62
7
  6
CONTINUOUS
 10
-73.2725201789
 20
50.95
 11
-68.8880881777
 21
50.95
  0
INSERT
  5
236
100
AcDbEntity
  8
0
100
AcDbBlockReference
 62
7
  6
CONTINUOUS
  2
_FILLED
 10
-64.5036561765
 20
50.95
 41
3.0
 42
3.0
 43
3.0
  0
INSERT
  5
237
100
AcDbEntity
  8
0
100
AcDbBlockReference
 62
7
  6
CONTINUOUS
  2
_FILLED
 10
-73.2725201789
 20
50.95
 41
3.0
 42
3.0
 43
3.0
 50
180.0
  0
ENDBLK
  5
238
100
AcDbEntity
  8
0
  6
BYBLOCK
 62
0
100
AcDbBlockEnd
  0
ENDSEC
  0
SECTION
  2
ENTITIES
  0
DIMENSION
  5
239
100
AcDbEntity
  8
0
100
AcDbDimension
 62
7
  6
CONTINUOUS
  2
*D0
 10
42.95
 20
50.95
 11
-2.3571428571
 21
50.95
 70
160
 71
2
 72
2
 41
0.9
 42
85.9
  3
DIMSTYLE_1
100
AcDbAlignedDimension
 13
-42.95
 23
42.15027414
 14
42.95
 24
42.15027414
100
AcDbRotatedDimension
  0
DIMENSION
  5
23A
100
AcDbEntity
  8
0
100
AcDbDimension
 62
7
  6
CONTINUOUS
  2
*D1
 10
50.95
 20
-42.95
 11
50.95
 21
-2.3571428571
 70
160
 71
2
 72
2
 41
0.9
 42
85.9
  3
DIMSTYLE_1
100
AcDbAlignedDimension
 13
42.15027414
 23
42.95
 14
42.15027414
 24
-42.95
 50
270.0
100
AcDbRotatedDimension
  0
DIMENSION
  5
23B
100
AcDbEntity
  8
0
100
AcDbDimension
 62
7
  6
CONTINUOUS
  2
*D2
 10
-73.2725201789
 20
50.95
 11
-63.0036209765
 21
50.95
 70
160
 71
1
 72
2
 41
0.9
 42
8.7688640024
  3
DIMSTYLE_2
100
AcDbAlignedDimension
 13
-64.5036561765
 23
41.4532985447
 14
-73.2725201789
 24
0.0
 50
180.0
100
AcDbRotatedDimension
  0
LWPOLYLINE
  5
23C
100
AcDbEntity
  8
ASSI
100
AcDbPolyline
 62
250
  6
CONTINUOUS
 90
16
 70
0
 10
-42.9090814841
 20
42.1093556241
 10
-42.9063796216
 20
42.1113904431
 10
-42.9004097669
 20
42.1134118856
 10
-42.8912111645
 20
42.1154066633
 10
-42.8788442836
 20
42.1173616629
 10
-42.8633904213
 20
42.1192640327
 10
-42.8449511675
 20
42.121101267
 10
-42.8236477374
 20
42.1228612883
 10
-42.7996201747
 20
42.1245325266
 10
-42.7730264308
 20
42.1261039955
 10
-42.7440413266
 20
42.1275653647
 10
-42.7128554032
 20
42.1289070275
 10
-42.6796736693
 20
42.130120164
 10
-42.6447142539
 20
42.1311967994
 10
-42.6082069715
 20
42.1321298562
 10
-42.5703918124
 20
42.1329132006
  0
LWPOLYLINE
  5
23D
100
AcDbEntity
  8
ASSI
100
AcDbPolyline
 62
250
  6
CONTINUOUS
 90
16
 70
0
 10
-42.1093581624
 20
-42.9090840223
 10
-42.1113776939
 20
-42.90638281
 10
-42.1133839537
 20
-42.9004146094
 10
-42.115363757
 20
-42.891218642
 10
-42.1173040931
 20
-42.8788553412
 10
-42.1191922107
 20
-42.8634059555
 10
-42.1210157016
 20
-42.8449720141
 10
-42.1227625822
 20
-42.8236746601
 10
-42.1244213725
 20
-42.7996538541
 10
-42.1259811715
 20
-42.7730674542
 10
-42.1274317285
 20
-42.7440901794
 10
-42.1287635109
 20
-42.7129124605
 10
-42.1299677666
 20
-42.6797391891
 10
-42.1310365814
 20
-42.6447883709
 10
-42.1319629316
 20
-42.6082896935
 10
-42.1327407293
 20
-42.5704830162
  0
LWPOLYLINE
  5
23E
100
AcDbEntity
  8
ASSI
100
AcDbPolyline
 62
250
  6
CONTINUOUS
 90
22
 70
0
 10
-42.4515986827
 20
-42.1344425449
 10
-42.4497061979
 20
-42.1572940074
 10
-42.4461708949
 20
-42.1798632742
 10
-42.4409921685
 20
-42.2021497999
 10
-42.434119454
 20
-42.2242775342
 10
-42.4256020706
 20
-42.2461213929
 10
-42.4155893651
 20
-42.2673074135
 10
-42.4040567854
 20
-42.2878210527
 10
-42.3910279845
 20
-42.3076760725
 10
-42.3767249488
 20
-42.3265413157
 10
-42.3611267528
 20
-42.3444012959
 10
-42.3442539562
 20
-42.3612712504
 10
-42.3263911841
 20
-42.3768665291
 10
-42.3075232612
 20
-42.3911665392
 10
-42.2876656004
 20
-42.4041922411
 10
-42.2671491223
 20
-42.4157217348
 10
-42.2459607478
 20
-42.4257312911
 10
-42.2241143143
 20
-42.4342455504
 10
-42.2019814557
 20
-42.4411155069
 10
-42.1796864689
 20
-42.4462919618
 10
-42.157106161
 20
-42.4498253766
 10
-42.1342410639
 20
-42.4517163637
  0
LWPOLYLINE
  5
23F
100
AcDbEntity
  8
ASSI
100
AcDbPolyline
 62
250
  6
CONTINUOUS
 90
5
 70
0
 10
-42.4515986827
 20
-42.1344425449
 10
-42.4682120187
 20
-41.7254049018
 10
-42.4828647558
 20
-41.3167998992
 10
-42.49557623
 20
-40.9086714574
 10
-42.5062150904
 20
-40.5002329696
  0
LWPOLYLINE
  5
240
100
AcDbEntity
  8
ASSI
100
AcDbPolyline
 62
250
  6
CONTINUOUS
 90
22
 70
0
 10
-42.9090814841
 20
-42.1093556241
 10
-42.9068509685
 20
-42.1691072239
 10
-42.9001635167
 20
-42.228527322
 10
-42.8890552724
 20
-42.2872842077
 10
-42.8735868627
 20
-42.3450499461
 10
-42.8538436336
 20
-42.4015013802
 10
-42.8299354604
 20
-42.4563220332
 10
-42.8019947273
 20
-42.509205773
 10
-42.7701768433
 20
-42.559855986
 10
-42.7346607531
 20
-42.6079868589
 10
-42.6956443815
 20
-42.6533294669
 10
-42.653345717
 20
-42.6956295499
 10
-42.6080043108
 20
-42.7346475227
 10
-42.5598745171
 20
-42.7701652778
 10
-42.5092251284
 20
-42.8019849526
 10
-42.4563415384
 20
-42.8299277506
 10
-42.4015202125
 20
-42.8538381655
 10
-42.3450673393
 20
-42.8735836206
 10
-42.2872992491
 20
-42.8890541226
 10
-42.228539057
 20
-42.9001641529
 10
-42.1691147725
 20
-42.9068528926
 10
-42.1093581624
 20
-42.9090840223
  0
LINE
  5
241
100
AcDbEntity
  8
ASSI
100
AcDbLine
 62
250
  6
CONTINUOUS
 10
-42.4717424633
 20
41.6399373338
 11
-42.4516269687
 21
42.1342618723
  0
LWPOLYLINE
  5
242
100
AcDbEntity
  8
ASSI
100
AcDbPolyline
 62
250
  6
CONTINUOUS
 90
22
 70
0
 10
42.1342212947
 20
-42.4517194562
 10
42.1570931109
 20
-42.4498274544
 10
42.1796782768
 20
-42.4462934777
 10
42.2019762614
 20
-42.4411169138
 10
42.224109543
 20
-42.4342474722
 10
42.2459545402
 20
-42.4257341817
 10
42.2671417621
 20
-42.4157255366
 10
42.2876581462
 20
-42.4041967277
 10
42.3075159965
 20
-42.3911716526
 10
42.3263842101
 20
-42.3768722053
 10
42.3442473254
 20
-42.3612774355
 10
42.3611205663
 20
-42.3444079257
 10
42.3767192707
 20
-42.3265482892
 10
42.3910228688
 20
-42.3076833373
 10
42.4040522964
 20
-42.2878285077
 10
42.4155855608
 20
-42.267314775
 10
42.4255980132
 20
-42.2461350231
 10
42.4341152024
 20
-42.2242971506
 10
42.4409907601
 20
-42.2021549961
 10
42.4461763553
 20
-42.1798269308
 10
42.449721557
 20
-42.1571957086
 10
42.4516269687
 20
-42.1342618724
  0
LWPOLYLINE
  5
243
100
AcDbEntity
  8
ASSI
100
AcDbPolyline
 62
250
  6
CONTINUOUS
 90
5
 70
0
 10
42.1342212947
 20
-42.4517194562
 10
41.729083285
 20
-42.4680685477
 10
41.3249176705
 20
-42.4824633849
 10
40.9217674188
 20
-42.4949262262
 10
40.5189965547
 20
-42.5053156537
  0
LWPOLYLINE
  5
244
100
AcDbEntity
  8
ASSI
100
AcDbPolyline
 62
250
  6
CONTINUOUS
 90
22
 70
0
 10
42.1093581624
 20
-42.9090840223
 10
42.1691094052
 20
-42.9068532946
 10
42.2285291532
 20
-42.9001656445
 10
42.2872856976
 20
-42.8890572136
 10
42.3450511025
 20
-42.8735886263
 10
42.4015022147
 20
-42.8538452263
 10
42.4563225648
 20
-42.8299368848
 10
42.5092060217
 20
-42.801995981
 10
42.5598559698
 20
-42.770177921
 10
42.6079865978
 20
-42.7346616469
 10
42.6533289791
 20
-42.6956450799
 10
42.6956288511
 20
-42.6533462053
 10
42.7346466276
 20
-42.6080045736
 10
42.7701641982
 20
-42.5598745364
 10
42.8019836962
 20
-42.5092248845
 10
42.8299263234
 20
-42.4563410128
 10
42.8538365703
 20
-42.4015193847
 10
42.873581855
 20
-42.3450661898
 10
42.8890521801
 20
-42.2872977656
 10
42.9001620243
 20
-42.2285372308
 10
42.9068505664
 20
-42.1691125941
 10
42.9090814841
 20
-42.1093556241
  0
LINE
  5
245
100
AcDbEntity
  8
ASSI
100
AcDbLine
 62
250
  6
CONTINUOUS
 10
-41.632574442
 20
-42.4720095225
 11
-42.1342410639
 21
-42.4517163637
  0
LINE
  5
246
100
AcDbEntity
  8
ASSI
100
AcDbLine
 62
250
  6
CONTINUOUS
 10
-42.5062150904
 20
-40.5002329696
 11
-42.5222287902
 21
-39.6874977973
  0
LWPOLYLINE
  5
247
100
AcDbEntity
  8
ASSI
100
AcDbPolyline
 62
250
  6
CONTINUOUS
 90
3
 70
0
 10
-42.1327407293
 20
-42.5704830162
 10
-42.1338312312
 20
-42.4919464462
 10
-42.134136769
 20
-42.4517326748
  0
LINE
  5
248
100
AcDbEntity
  8
ASSI
100
AcDbLine
 62
250
  6
CONTINUOUS
 10
-42.5222287902
 20
-39.6874977973
 11
-42.5324373814
 21
-38.8918563963
  0
LINE
  5
249
100
AcDbEntity
  8
ASSI
100
AcDbLine
 62
250
  6
CONTINUOUS
 10
-42.5324373814
 20
-38.8918563963
 11
-42.5386185824
 21
-38.095283849
  0
LINE
  5
24A
100
AcDbEntity
  8
ASSI
100
AcDbLine
 62
250
  6
CONTINUOUS
 10
-42.5386185824
 20
-38.095283849
 11
-42.5427093148
 21
-36.8674015877
  0
LINE
  5
24B
100
AcDbEntity
  8
ASSI
100
AcDbLine
 62
250
  6
CONTINUOUS
 10
-42.5559090988
 20
-22.3192835961
 11
-42.5617935874
 21
-18.7565285372
  0
LINE
  5
24C
100
AcDbEntity
  8
ASSI
100
AcDbLine
 62
250
  6
CONTINUOUS
 10
-42.5617935874
 20
-18.7565285372
 11
-42.5655704805
 21
-13.7221133459
  0
LINE
  5
24D
100
AcDbEntity
  8
ASSI
100
AcDbLine
 62
7
  6
CONTINUOUS
 10
-42.95
 20
42.15027414
 11
-42.95
 21
-42.15027414
  0
LINE
  5
24E
100
AcDbEntity
  8
ASSI
100
AcDbLine
 62
250
  6
CONTINUOUS
 10
-42.9066021339
 20
37.4201560162
 11
-42.9090814937
 21
42.1093556337
  0
LINE
  5
24F
100
AcDbEntity
  8
ASSI
100
AcDbLine
 62
250
  6
CONTINUOUS
 10
-42.5655704805
 20
-13.7221133459
 11
-42.5667597186
 21
-0.0
  0
LINE
  5
250
100
AcDbEntity
  8
ASSI
100
AcDbLine
 62
250
  6
CONTINUOUS
 10
-42.5382300465
 20
-30.8504550894
 11
-42.5559090988
 21
-22.3192835961
  0
LINE
  5
251
100
AcDbEntity
  8
ASSI
100
AcDbLine
 62
250
  6
CONTINUOUS
 10
-42.5667597186
 20
-0.0
 11
-42.5655610721
 21
13.7212915225
  0
LINE
  5
252
100
AcDbEntity
  8
ASSI
100
AcDbLine
 62
250
  6
CONTINUOUS
 10
-42.5427093148
 20
-36.8674015877
 11
-42.5432039415
 21
-35.0830463162
  0
LINE
  5
253
100
AcDbEntity
  8
ASSI
100
AcDbLine
 62
250
  6
CONTINUOUS
 10
-42.9075298168
 20
-40.4881692533
 11
-42.9066021339
 21
37.4201560162
  0
LINE
  5
254
100
AcDbEntity
  8
ASSI
100
AcDbLine
 62
250
  6
CONTINUOUS
 10
-42.9090810647
 20
-42.1093552047
 11
-42.9075298168
 21
-40.4881692533
  0
LINE
  5
255
100
AcDbEntity
  8
ASSI
100
AcDbLine
 62
250
  6
CONTINUOUS
 10
-42.5655610721
 20
13.7212915225
 11
-42.5607478995
 21
19.552165953
  0
LINE
  5
256
100
AcDbEntity
  8
ASSI
100
AcDbLine
 62
250
  6
CONTINUOUS
 10
-42.5432039415
 20
-35.0830463162
 11
-42.5382300465
 21
-30.8504550894
  0
LINE
  5
257
100
AcDbEntity
  8
ASSI
100
AcDbLine
 62
250
  6
CONTINUOUS
 10
-42.5424519766
 20
27.5219870818
 11
-42.5423853919
 21
37.0418930347
  0
LINE
  5
258
100
AcDbEntity
  8
ASSI
100
AcDbLine
 62
250
  6
CONTINUOUS
 10
-42.5607478995
 20
19.552165953
 11
-42.5540589191
 21
23.1598112072
  0
LINE
  5
259
100
AcDbEntity
  8
ASSI
100
AcDbLine
 62
250
  6
CONTINUOUS
 10
-42.5540589191
 20
23.1598112072
 11
-42.5424519766
 21
27.5219870818
  0
LINE
  5
25A
100
AcDbEntity
  8
ASSI
100
AcDbLine
 62
250
  6
CONTINUOUS
 10
-42.5423853919
 20
37.0418930347
 11
-42.5380724193
 21
38.1793579737
  0
LINE
  5
25B
100
AcDbEntity
  8
ASSI
100
AcDbLine
 62
250
  6
CONTINUOUS
 10
-42.5380724193
 20
38.1793579737
 11
-42.5322368873
 21
38.908819723
  0
LWPOLYLINE
  5
25C
100
AcDbEntity
  8
ASSI
100
AcDbPolyline
 62
250
  6
CONTINUOUS
 90
18
 70
0
 10
-42.1341368305
 20
42.4517326218
 10
-42.1333649217
 20
42.5316169518
 10
-42.1327407854
 20
42.5704832478
 10
-42.1319629852
 20
42.6082899724
 10
-42.1310366325
 20
42.6447886763
 10
-42.1299678147
 20
42.6797395163
 10
-42.1287635556
 20
42.7129128088
 10
-42.1274317696
 20
42.744090542
 10
-42.1259812085
 20
42.7730678236
 10
-42.1244214053
 20
42.7996542219
 10
-42.1227626108
 20
42.8236750176
 10
-42.1210157256
 20
42.8449723515
 10
-42.1191922283
 20
42.8634062799
 10
-42.1173041044
 20
42.8788556362
 10
-42.1153637675
 20
42.8912188582
 10
-42.1133839716
 20
42.9004147186
 10
-42.1113777259
 20
42.9063828277
 10
-42.1093582154
 20
42.9090839945
  0
LINE
  5
25D
100
AcDbEntity
  8
ASSI
100
AcDbLine
 62
250
  6
CONTINUOUS
 10
-42.5322368873
 20
38.908819723
 11
-42.5236023969
 21
39.5995249141
  0
LINE
  5
25E
100
AcDbEntity
  8
ASSI
100
AcDbLine
 62
250
  6
CONTINUOUS
 10
-42.5236023969
 20
39.5995249141
 11
-42.5120276465
 21
40.2384836159
  0
LINE
  5
25F
100
AcDbEntity
  8
ASSI
100
AcDbLine
 62
250
  6
CONTINUOUS
 10
-42.5120276465
 20
40.2384836159
 11
-42.4977599446
 21
40.8306301764
  0
LWPOLYLINE
  5
260
100
AcDbEntity
  8
ASSI
100
AcDbPolyline
 62
250
  6
CONTINUOUS
 90
3
 70
0
 10
-42.4977599446
 20
40.8306301764
 10
-42.480959027
 20
41.3789216566
 10
-42.4717424633
 20
41.6399373338
  0
LINE
  5
261
100
AcDbEntity
  8
ASSI
100
AcDbLine
 62
250
  6
CONTINUOUS
 10
40.5189965547
 20
-42.5053156537
 11
39.7187519272
 21
-42.5209116269
  0
LWPOLYLINE
  5
262
100
AcDbEntity
  8
ASSI
100
AcDbPolyline
 62
250
  6
CONTINUOUS
 90
3
 70
0
 10
42.5703918124
 20
-42.1329132006
 10
42.4918391786
 20
-42.1340111725
 10
42.4516180899
 20
-42.1343185821
  0
LINE
  5
263
100
AcDbEntity
  8
ASSI
100
AcDbLine
 62
250
  6
CONTINUOUS
 10
39.7187519272
 20
-42.5209116269
 11
38.9350820762
 21
-42.5309376503
  0
LINE
  5
264
100
AcDbEntity
  8
ASSI
100
AcDbLine
 62
250
  6
CONTINUOUS
 10
38.9350820762
 20
-42.5309376503
 11
38.1532041523
 21
-42.5371941326
  0
LINE
  5
265
100
AcDbEntity
  8
ASSI
100
AcDbLine
 62
250
  6
CONTINUOUS
 10
38.1532041523
 20
-42.5371941326
 11
36.9566303872
 21
-42.5420165973
  0
LINE
  5
266
100
AcDbEntity
  8
ASSI
100
AcDbLine
 62
250
  6
CONTINUOUS
 10
19.4493046045
 20
-42.5849185075
 11
15.8474560045
 21
-42.590713081
  0
LINE
  5
267
100
AcDbEntity
  8
ASSI
100
AcDbLine
 62
250
  6
CONTINUOUS
 10
36.9566303872
 20
-42.5420165973
 11
34.3117511962
 21
-42.546217848
  0
LWPOLYLINE
  5
268
100
AcDbEntity
  8
ASSI
100
AcDbPolyline
 62
250
  6
CONTINUOUS
 90
3
 70
0
 10
34.3117511962
 20
-42.546217848
 10
33.3362072462
 20
-42.547076603
 10
19.4493046045
 20
-42.5849185075
  0
LINE
  5
269
100
AcDbEntity
  8
ASSI
100
AcDbLine
 62
250
  6
CONTINUOUS
 10
15.8474560045
 20
-42.590713081
 11
10.7967868126
 21
-42.593916511
  0
LINE
  5
26A
100
AcDbEntity
  8
ASSI
100
AcDbLine
 62
7
  6
CONTINUOUS
 10
-42.15027414
 20
-42.95
 11
42.15027414
 21
-42.95
  0
LINE
  5
26B
100
AcDbEntity
  8
ASSI
100
AcDbLine
 62
250
  6
CONTINUOUS
 10
-37.6853028114
 20
-42.9066600276
 11
-42.1093582869
 21
-42.9090841469
  0
LINE
  5
26C
100
AcDbEntity
  8
ASSI
100
AcDbLine
 62
250
  6
CONTINUOUS
 10
10.7967868126
 20
-42.593916511
 11
-12.1939548511
 21
-42.5934313371
  0
LINE
  5
26D
100
AcDbEntity
  8
ASSI
100
AcDbLine
 62
250
  6
CONTINUOUS
 10
40.507064824
 20
-42.9075647741
 11
-37.6853028114
 21
-42.9066600276
  0
LINE
  5
26E
100
AcDbEntity
  8
ASSI
100
AcDbLine
 62
250
  6
CONTINUOUS
 10
42.1093609276
 20
-42.9090867876
 11
40.507064824
 21
-42.9075647741
  0
LINE
  5
26F
100
AcDbEntity
  8
ASSI
100
AcDbLine
 62
250
  6
CONTINUOUS
 10
-12.1939548511
 20
-42.5934313371
 11
-16.7517324961
 21
-42.5895998084
  0
LINE
  5
270
100
AcDbEntity
  8
ASSI
100
AcDbLine
 62
250
  6
CONTINUOUS
 10
-16.7517324961
 20
-42.5895998084
 11
-20.0230147513
 21
-42.5836208656
  0
LINE
  5
271
100
AcDbEntity
  8
ASSI
100
AcDbLine
 62
250
  6
CONTINUOUS
 10
-20.0230147513
 20
-42.5836208656
 11
-23.7041340514
 21
-42.5729778558
  0
LINE
  5
272
100
AcDbEntity
  8
ASSI
100
AcDbLine
 62
250
  6
CONTINUOUS
 10
-26.3534137603
 20
-42.5633838027
 11
-37.6873423236
 21
-42.5394133316
  0
LINE
  5
273
100
AcDbEntity
  8
ASSI
100
AcDbLine
 62
250
  6
CONTINUOUS
 10
-23.7041340514
 20
-42.5729778558
 11
-26.3534137603
 21
-42.5633838027
  0
LINE
  5
274
100
AcDbEntity
  8
ASSI
100
AcDbLine
 62
250
  6
CONTINUOUS
 10
-37.6873423236
 20
-42.5394133316
 11
-38.4751150126
 21
-42.5349818148
  0
LINE
  5
275
100
AcDbEntity
  8
ASSI
100
AcDbLine
 62
250
  6
CONTINUOUS
 10
-38.4751150126
 20
-42.5349818148
 11
-39.2073217062
 21
-42.5279535572
  0
LWPOLYLINE
  5
276
100
AcDbEntity
  8
ASSI
100
AcDbPolyline
 62
250
  6
CONTINUOUS
 90
18
 70
0
 10
-42.4516180851
 20
-42.1343185919
 10
-42.5315173957
 20
-42.1335416925
 10
-42.5703918571
 20
-42.1329132095
 10
-42.6082070255
 20
-42.1321298646
 10
-42.6447143139
 20
-42.1311968074
 10
-42.6796737341
 20
-42.1301201715
 10
-42.7128554721
 20
-42.1289070344
 10
-42.744041398
 20
-42.127565371
 10
-42.7730265032
 20
-42.1261040012
 10
-42.7996202463
 20
-42.1245325316
 10
-42.8236478065
 20
-42.1228612926
 10
-42.8449512322
 20
-42.1211012706
 10
-42.8633904829
 20
-42.1192640353
 10
-42.8788443391
 20
-42.1173616644
 10
-42.8912112049
 20
-42.1154066649
 10
-42.9004097873
 20
-42.113411889
 10
-42.9063796249
 20
-42.1113904492
 10
-42.9090814788
 20
-42.1093556341
  0
LINE
  5
277
100
AcDbEntity
  8
ASSI
100
AcDbLine
 62
250
  6
CONTINUOUS
 10
-39.2073217062
 20
-42.5279535572
 11
-39.8856982981
 21
-42.5181329083
  0
LINE
  5
278
100
AcDbEntity
  8
ASSI
100
AcDbLine
 62
250
  6
CONTINUOUS
 10
-39.8856982981
 20
-42.5181329083
 11
-40.5117066504
 21
-42.5054535308
  0
LINE
  5
279
100
AcDbEntity
  8
ASSI
100
AcDbLine
 62
250
  6
CONTINUOUS
 10
-40.5117066504
 20
-42.5054535308
 11
-41.0922689318
 21
-42.4899557981
  0
LINE
  5
27A
100
AcDbEntity
  8
ASSI
100
AcDbLine
 62
250
  6
CONTINUOUS
 10
-41.0922689318
 20
-42.4899557981
 11
-41.632574442
 21
-42.4720095225
  0
LWPOLYLINE
  5
27B
100
AcDbEntity
  8
0
100
AcDbPolyline
 62
7
  6
CONTINUOUS
 90
10
 70
0
 43
0.3500000019
 10
1.0714306641
 20
54.6999975586
 10
0.4285698242
 20
54.0571420898
 10
-0.0000004883
 20
53.2000014648
 10
-0.0000004883
 20
52.1285703125
 10
0.4285698242
 20
51.7
 10
1.0714306641
 20
51.7
 10
1.5000009766
 20
52.1285703125
 10
1.5000009766
 20
52.9857163086
 10
1.0714306641
 20
53.4142866211
 10
0.1428544922
 20
53.4142866211
  0
LINE
  5
27C
100
AcDbEntity
  8
0
100
AcDbLine
 62
7
  6
CONTINUOUS
 10
2.811079
 20
-27.98018
 11
2.261131
 21
-27.98018
  0
LINE
  5
27D
100
AcDbEntity
  8
0
100
AcDbLine
 62
7
  6
CONTINUOUS
 10
1.271381
 20
-27.98018
 11
0.75525
 21
-27.98018
  0
LINE
  5
27E
100
AcDbEntity
  8
0
100
AcDbLine
 62
7
  6
CONTINUOUS
 10
0.673314
 20
-27.98018
 11
0.162862
 21
-27.98018
  0
LINE
  5
27F
100
AcDbEntity
  8
0
100
AcDbLine
 62
7
  6
CONTINUOUS
 10
-0.564753
 20
-27.98018
 11
-0.637935
 21
-27.98018
  0
LINE
  5
280
100
AcDbEntity
  8
0
100
AcDbLine
 62
7
  6
CONTINUOUS
 10
-1.362664
 20
-27.98018
 11
-1.86185
 21
-27.98018
  0
LINE
  5
281
100
AcDbEntity
  8
0
100
AcDbLine
 62
7
  6
CONTINUOUS
 10
-2.142747
 20
-27.98018
 11
-2.66454
 21
-27.98018
  0
LINE
  5
282
100
AcDbEntity
  8
0
100
AcDbLine
 62
7
  6
CONTINUOUS
 10
-3.661694
 20
-27.98018
 11
-4.121524
 21
-27.98018
  0
LINE
  5
283
100
AcDbEntity
  8
0
100
AcDbLine
 62
7
  6
CONTINUOUS
 10
4.7849537607
 20
-27.9801797807
 11
4.2830496624
 21
-27.9801797807
  0
LINE
  5
284
100
AcDbEntity
  8
0
100
AcDbLine
 62
7
  6
CONTINUOUS
 10
3.4839958436
 20
-27.9801797807
 11
2.9643025021
 21
-27.9801797807
  0
LWPOLYLINE
  5
285
100
AcDbEntity
  8
0
100
AcDbPolyline
 62
7
  6
CONTINUOUS
 90
25
 70
0
 10
2.9643025021
 20
-25.5096494116
 10
3.0177741336
 20
-25.5019415604
 10
3.0712115087
 20
-25.494589528
 10
3.1246067374
 20
-25.487643882
 10
3.1779100944
 20
-25.4811593536
 10
3.2311557341
 20
-25.4751792936
 10
3.2844622099
 20
-25.4697397331
 10
3.3378360311
 20
-25.4648913715
 10
3.3912565277
 20
-25.4606875512
 10
3.4448021677
 20
-25.4571751228
 10
3.4984735115
 20
-25.4544093443
 10
3.5522560432
 20
-25.452446868
 10
3.606205812
 20
-25.4513435387
 10
3.660369789
 20
-25.4511600875
 10
3.7146866484
 20
-25.4519595597
 10
3.7690498887
 20
-25.4538000126
 10
3.8234041756
 20
-25.4567355078
 10
3.8777899786
 20
-25.4608244951
 10
3.9322226059
 20
-25.466158573
 10
3.9866494219
 20
-25.4729423492
 10
4.0408852469
 20
-25.4813945227
 10
4.094677504
 20
-25.4917149107
 10
4.1478587497
 20
-25.5041060572
 10
4.2003440194
 20
-25.5187867199
 10
4.2520075265
 20
-25.5359677442
  0
LWPOLYLINE
  5
286
100
AcDbEntity
  8
0
100
AcDbPolyline
 62
7
  6
CONTINUOUS
 90
31
 70
0
 10
3.7648934314
 20
-26.5925250773
 10
3.7859371813
 20
-26.5917852427
 10
3.8070888251
 20
-26.5904723683
 10
3.8282501861
 20
-26.5885436029
 10
3.8492641819
 20
-26.5859666522
 10
3.8701023424
 20
-26.5826980637
 10
3.8908620227
 20
-26.5786613439
 10
3.911452381
 20
-26.5737989948
 10
3.9317803899
 20
-26.5680527961
 10
3.9519257115
 20
-26.5613003756
 10
3.9718760438
 20
-26.553412714
 10
3.9914091186
 20
-26.5443295402
 10
4.0102829471
 20
-26.5340232049
 10
4.0284015777
 20
-26.5224035419
 10
4.0456242871
 20
-26.5094029561
 10
4.0616865686
 20
-26.4950960703
 10
4.0765413175
 20
-26.4795887199
 10
4.0902358041
 20
-26.4629893849
 10
4.1027373985
 20
-26.4455033025
 10
4.1140600264
 20
-26.4272961493
 10
4.1242522264
 20
-26.4084745548
 10
4.133345376
 20
-26.3891588889
 10
4.14134683
 20
-26.369523141
 10
4.1483105712
 20
-26.349627847
 10
4.1543118212
 20
-26.3294040502
 10
4.1593501709
 20
-26.3089618497
 10
4.1634325085
 20
-26.2883839238
 10
4.1665896481
 20
-26.2675462986
 10
4.1687994866
 20
-26.2464742638
 10
4.1700208479
 20
-26.225346116
 10
4.170225122
 20
-26.2042730878
  0
LINE
  5
287
100
AcDbEntity
  8
0
100
AcDbLine
 62
7
  6
CONTINUOUS
 10
2.125959
 20
-27.481144
 11
1.415364
 21
-27.481144
  0
LINE
  5
288
100
AcDbEntity
  8
0
100
AcDbLine
 62
7
  6
CONTINUOUS
 10
1.522099
 20
-27.094992
 11
2.021679
 21
-27.094992
  0
LINE
  5
289
100
AcDbEntity
  8
0
100
AcDbLine
 62
7
  6
CONTINUOUS
 10
3.7637687163
 20
-27.0019213614
 11
3.4839958436
 21
-27.0019213614
  0
LINE
  5
28A
100
AcDbEntity
  8
0
100
AcDbLine
 62
7
  6
CONTINUOUS
 10
3.4666939769
 20
-26.5925250773
 11
3.7648934314
 21
-26.5925250773
  0
LINE
  5
28B
100
AcDbEntity
  8
0
100
AcDbLine
 62
7
  6
CONTINUOUS
 10
-4.913989
 20
-25.480444
 11
-4.347161
 21
-25.480444
  0
LINE
  5
28C
100
AcDbEntity
  8
0
100
AcDbLine
 62
7
  6
CONTINUOUS
 10
-3.379615
 20
-25.480444
 11
-2.858179
 21
-25.480444
  0
LINE
  5
28D
100
AcDbEntity
  8
0
100
AcDbLine
 62
7
  6
CONTINUOUS
 10
-1.636138
 20
-25.480444
 11
-1.114777
 21
-25.480444
  0
LINE
  5
28E
100
AcDbEntity
  8
0
100
AcDbLine
 62
7
  6
CONTINUOUS
 10
-0.076702
 20
-25.480444
 11
0.439561
 21
-25.480444
  0
LINE
  5
28F
100
AcDbEntity
  8
0
100
AcDbLine
 62
7
  6
CONTINUOUS
 10
1.539326
 20
-25.480444
 11
2.044098
 21
-25.480444
  0
LINE
  5
290
100
AcDbEntity
  8
0
100
AcDbLine
 62
7
  6
CONTINUOUS
 10
-2.66454
 20
-25.480294
 11
-2.142747
 21
-25.480294
  0
LWPOLYLINE
  5
291
100
AcDbEntity
  8
0
100
AcDbPolyline
 62
7
  6
CONTINUOUS
 90
10
 70
0
 10
3.8754584185
 20
-25.891582365
 10
3.8316354814
 20
-25.8872341266
 10
3.7872748854
 20
-25.8843180982
 10
3.7424414946
 20
-25.8828697548
 10
3.6972262021
 20
-25.8829244126
 10
3.6516780222
 20
-25.8845169178
 10
3.6058045176
 20
-25.887689311
 10
3.5596619958
 20
-25.8924848392
 10
3.5133052663
 20
-25.8987968114
 10
3.4666939769
 20
-25.906298925
  0
LWPOLYLINE
  5
292
100
AcDbEntity
  8
RACCORDO
100
AcDbPolyline
 62
250
  6
CONTINUOUS
 90
16
 70
0
 10
-11.8294846269
 20
-22.2920472372
 10
-11.7994887666
 20
-22.2918702312
 10
-11.7697403027
 20
-22.2915469321
 10
-11.7405369568
 20
-22.2910805758
 10
-11.7121709948
 20
-22.2904758299
 10
-11.6849263021
 20
-22.2897387467
 10
-11.6590755428
 20
-22.2888767027
 10
-11.6348774301
 20
-22.287898325
 10
-11.612574138
 20
-22.2868134055
 10
-11.5923888768
 20
-22.285632802
 10
-11.5745236598
 20
-22.2843683298
 10
-11.5591572814
 20
-22.2830326436
 10
-11.5464435277
 20
-22.2816391113
 10
-11.5365096372
 20
-22.2802016792
 10
-11.5294550279
 20
-22.2787347328
 10
-11.5253503019
 20
-22.2772529529
  0
LINE
  5
293
100
AcDbEntity
  8
RACCORDO
100
AcDbLine
 62
250
  6
CONTINUOUS
 10
11.0294928854
 20
-23.0885923924
 11
5.617461204
 21
-23.0972992158
  0
LINE
  5
294
100
AcDbEntity
  8
RACCORDO
100
AcDbLine
 62
250
  6
CONTINUOUS
 10
11.024752362
 20
-22.7728497111
 11
4.3891501251
 21
-22.7805190945
  0
LINE
  5
295
100
AcDbEntity
  8
RACCORDO
100
AcDbLine
 62
250
  6
CONTINUOUS
 10
5.617461204
 20
-23.0972992158
 11
1.0214523639
 21
-23.1011606658
  0
LINE
  5
296
100
AcDbEntity
  8
RACCORDO
100
AcDbLine
 62
250
  6
CONTINUOUS
 10
4.3891501251
 20
-22.7805190945
 11
0.0
 21
-22.7824277395
  0
LINE
  5
297
100
AcDbEntity
  8
RACCORDO
100
AcDbLine
 62
7
  6
CONTINUOUS
 10
-10.851902651
 20
-22.6
 11
10.851902651
 21
-22.6
  0
LINE
  5
298
100
AcDbEntity
  8
RACCORDO
100
AcDbLine
 62
250
  6
CONTINUOUS
 10
1.0214523639
 20
-23.1011606658
 11
-3.1296671482
 21
-23.099968402
  0
LINE
  5
299
100
AcDbEntity
  8
RACCORDO
100
AcDbLine
 62
250
  6
CONTINUOUS
 10
0.0
 20
-22.7824277395
 11
-5.0750528573
 21
-22.7799366569
  0
LINE
  5
29A
100
AcDbEntity
  8
RACCORDO
100
AcDbLine
 62
250
  6
CONTINUOUS
 10
-5.0750528573
 20
-22.7799366569
 11
-11.024752362
 21
-22.7728497111
  0
LINE
  5
29B
100
AcDbEntity
  8
RACCORDO
100
AcDbLine
 62
250
  6
CONTINUOUS
 10
-3.1296671482
 20
-23.099968402
 11
-10.2619705885
 21
-23.0900068388
  0
LINE
  5
29C
100
AcDbEntity
  8
RACCORDO
100
AcDbLine
 62
250
  6
CONTINUOUS
 10
-10.2619705885
 20
-23.0900068388
 11
-11.0294928854
 21
-23.0885923924
  0
LWPOLYLINE
  5
29D
100
AcDbEntity
  8
RACCORDO
100
AcDbPolyline
 62
250
  6
CONTINUOUS
 90
16
 70
0
 10
11.8294846269
 20
-22.2920472378
 10
11.7994882284
 20
-22.2918702001
 10
11.7697393268
 20
-22.2915468689
 10
11.7405356537
 20
-22.2910804815
 10
11.712169482
 20
-22.2904757072
 10
11.684924693
 20
-22.2897385996
 10
11.6590739365
 20
-22.2888765365
 10
11.6348759174
 20
-22.2878981467
 10
11.6125727931
 20
-22.2868132226
 10
11.5923877456
 20
-22.2856326223
 10
11.5745227781
 20
-22.284368162
 10
11.5591566555
 20
-22.2830324965
 10
11.5464431213
 20
-22.2816389904
 10
11.5365094028
 20
-22.280201589
 10
11.5294549213
 20
-22.2787346781
 10
11.5253502748
 20
-22.2772529384
  0
LWPOLYLINE
  5
29E
100
AcDbEntity
  8
RACCORDO
100
AcDbPolyline
 62
250
  6
CONTINUOUS
 90
25
 70
0
 10
-11.0247523108
 20
-22.7728496599
 10
-11.0572987486
 20
-22.7718787884
 10
-11.0895775784
 20
-22.7688281391
 10
-11.1214580231
 20
-22.7637346189
 10
-11.1527701193
 20
-22.7566557976
 10
-11.1834364909
 20
-22.7476370221
 10
-11.2134645033
 20
-22.7366832785
 10
-11.2427764911
 20
-22.7238157656
 10
-11.2712058455
 20
-22.7091003965
 10
-11.2986240573
 20
-22.692597685
 10
-11.3249288977
 20
-22.6743670331
 10
-11.3500023525
 20
-22.6544890004
 10
-11.3737053489
 20
-22.6330751098
 10
-11.3959246031
 20
-22.6102427589
 10
-11.4166010905
 20
-22.5860696037
 10
-11.435685063
 20
-22.5606161577
 10
-11.4530095857
 20
-22.5341309275
 10
-11.4686097433
 20
-22.5065853611
 10
-11.4826483244
 20
-22.4775733868
 10
-11.4950384069
 20
-22.4469774804
 10
-11.5055261476
 20
-22.4150694109
 10
-11.5139413135
 20
-22.3820023235
 10
-11.5201375111
 20
-22.3479190695
 10
-11.5239834968
 20
-22.3129490817
 10
-11.5253502675
 20
-22.2772529184
  0
LWPOLYLINE
  5
29F
100
AcDbEntity
  8
RACCORDO
100
AcDbPolyline
 62
250
  6
CONTINUOUS
 90
25
 70
0
 10
-11.0294928854
 20
-23.0885923924
 10
-11.0817240999
 20
-23.0867015333
 10
-11.1331301163
 20
-23.0816233013
 10
-11.1837109344
 20
-23.0733576962
 10
-11.2335934528
 20
-23.0618505518
 10
-11.282650773
 20
-23.0471560344
 10
-11.3305021996
 20
-23.0294366427
 10
-11.3772118264
 20
-23.0086508172
 10
-11.4227155595
 20
-22.9848401173
 10
-11.4664404224
 20
-22.9582917198
 10
-11.5083742745
 20
-22.9289521413
 10
-11.5485292563
 20
-22.8968748652
 10
-11.5863688129
 20
-22.8625075176
 10
-11.6218274916
 20
-22.8258591875
 10
-11.6549707451
 20
-22.786920786
 10
-11.6854583764
 20
-22.7461126713
 10
-11.7132153477
 20
-22.7036898955
 10
-11.7383166968
 20
-22.6593974066
 10
-11.7606473404
 20
-22.6128904073
 10
-11.7804182355
 20
-22.5638542189
 10
-11.7974184251
 20
-22.51260352
 10
-11.8108999545
 20
-22.4597375486
 10
-11.8206135055
 20
-22.4054560506
 10
-11.8268083963
 20
-22.3495592802
 10
-11.8294846269
 20
-22.2920472372
  0
LWPOLYLINE
  5
2A0
100
AcDbEntity
  8
0
100
AcDbPolyline
 62
7
  6
CONTINUOUS
 90
55
 70
0
 10
4.2520075265
 20
-25.5359677442
 10
4.2833182145
 20
-25.5487533046
 10
4.3149743751
 20
-25.5646461062
 10
4.3468398251
 20
-25.5835319616
 10
4.3787174136
 20
-25.6051661887
 10
4.410466137
 20
-25.6295233984
 10
4.4419630666
 20
-25.6568824001
 10
4.4730872417
 20
-25.6876371975
 10
4.5032289365
 20
-25.7217583325
 10
4.5315699672
 20
-25.7587580478
 10
4.5579968644
 20
-25.798856994
 10
4.5819500454
 20
-25.841647947
 10
4.6023765415
 20
-25.8853139532
 10
4.6192419
 20
-25.9292996609
 10
4.6328343421
 20
-25.9735544276
 10
4.6431372344
 20
-26.0168064312
 10
4.6504979961
 20
-26.0583546748
 10
4.655451613
 20
-26.0984559728
 10
4.6583896262
 20
-26.1372944713
 10
4.6595589496
 20
-26.174772086
 10
4.6591170144
 20
-26.2107713425
 10
4.6571970477
 20
-26.2454880413
 10
4.6539132939
 20
-26.278916593
 10
4.6493902122
 20
-26.310955566
 10
4.6437313635
 20
-26.3416883494
 10
4.6370498081
 20
-26.3711068355
 10
4.6294577697
 20
-26.399211658
 10
4.6210321222
 20
-26.4261111857
 10
4.6118829515
 20
-26.451784471
 10
4.6021273677
 20
-26.4762130909
 10
4.5918169704
 20
-26.4995142289
 10
4.5810507873
 20
-26.5216601175
 10
4.569919469
 20
-26.5426400015
 10
4.5584214249
 20
-26.5625969565
 10
4.5466059771
 20
-26.5815528214
 10
4.5345543394
 20
-26.5994772639
 10
4.5222865496
 20
-26.6164310613
 10
4.5098413822
 20
-26.6324382309
 10
4.4972839797
 20
-26.6474998658
 10
4.4846700746
 20
-26.6616905643
 10
4.4720452198
 20
-26.6751046585
 10
4.4594673724
 20
-26.6878088495
 10
4.4470097193
 20
-26.6998443201
 10
4.4347294975
 20
-26.7112585937
 10
4.4226559256
 20
-26.7221137791
 10
4.4108163239
 20
-26.7324615242
 10
4.399315228
 20
-26.7422777738
 10
4.3881157144
 20
-26.7516513547
 10
4.3770162521
 20
-26.7607855842
 10
4.3660369991
 20
-26.7694909199
 10
4.3550775243
 20
-26.7774947704
 10
4.3437027269
 20
-26.7847540201
 10
4.3316968735
 20
-26.7909802695
 10
4.3190956166
 20
-26.7957113765
 10
4.3058063972
 20
-26.7985541322
  0
LWPOLYLINE
  5
2A1
100
AcDbEntity
  8
0
100
AcDbPolyline
 62
7
  6
CONTINUOUS
 90
3
 70
0
 10
4.3058063972
 20
-26.8133253901
 10
4.3314910381
 20
-26.8250935345
 10
4.3551703546
 20
-26.8388287572
  0
LWPOLYLINE
  5
2A2
100
AcDbEntity
  8
0
100
AcDbPolyline
 62
7
  6
CONTINUOUS
 90
23
 70
0
 10
4.3551703546
 20
-26.8388287572
 10
4.376984999
 20
-26.8541853044
 10
4.3971003292
 20
-26.8708784762
 10
4.4156038641
 20
-26.8885988422
 10
4.4325232912
 20
-26.9069859366
 10
4.4478947557
 20
-26.925679328
 10
4.4619295291
 20
-26.9445619578
 10
4.4748933592
 20
-26.9636904224
 10
4.4868671706
 20
-26.9829333516
 10
4.4979124162
 20
-27.0021511239
 10
4.5082114813
 20
-27.0214572279
 10
4.5178233593
 20
-27.0407943373
 10
4.5267717279
 20
-27.0600474821
 10
4.5351528877
 20
-27.0792755295
 10
4.5429925773
 20
-27.0984049749
 10
4.5503208715
 20
-27.1173791654
 10
4.5572188217
 20
-27.1362937002
 10
4.5637058619
 20
-27.1551021224
 10
4.5697938592
 20
-27.1737379701
 10
4.5755533893
 20
-27.1922991896
 10
4.5810593929
 20
-27.2108719197
 10
4.5863560537
 20
-27.229431965
 10
4.5914927749
 20
-27.2479607712
  0
LINE
  5
2A3
100
AcDbEntity
  8
RACCORDO
100
AcDbLine
 62
250
  6
CONTINUOUS
 10
-11.5253503019
 20
-22.2772529529
 11
-11.5317118944
 21
-20.6420512566
  0
LINE
  5
2A4
100
AcDbEntity
  8
RACCORDO
100
AcDbLine
 62
250
  6
CONTINUOUS
 10
-11.8294846269
 20
-22.2920472372
 11
-11.8400108274
 21
-19.6130572348
  0
LINE
  5
2A5
100
AcDbEntity
  8
RACCORDO
100
AcDbLine
 62
250
  6
CONTINUOUS
 10
-11.8400108274
 20
-19.6130572348
 11
-11.8479722434
 21
-16.5562486611
  0
LINE
  5
2A6
100
AcDbEntity
  8
RACCORDO
100
AcDbLine
 62
250
  6
CONTINUOUS
 10
-11.8479722434
 20
-16.5562486611
 11
-11.8548691479
 21
-11.9926687228
  0
LINE
  5
2A7
100
AcDbEntity
  8
RACCORDO
100
AcDbLine
 62
250
  6
CONTINUOUS
 10
-11.8548691479
 20
-11.9926687228
 11
-11.8621974273
 21
-4.2828639825
  0
LINE
  5
2A8
100
AcDbEntity
  8
RACCORDO
100
AcDbLine
 62
250
  6
CONTINUOUS
 10
-11.8621974273
 20
-4.2828639825
 11
-11.8636334455
 21
0.5979510676
  0
LINE
  5
2A9
100
AcDbEntity
  8
RACCORDO
100
AcDbLine
 62
250
  6
CONTINUOUS
 10
-11.8636334455
 20
0.5979510676
 11
-11.8600437484
 21
7.0170637014
  0
LINE
  5
2AA
100
AcDbEntity
  8
RACCORDO
100
AcDbLine
 62
250
  6
CONTINUOUS
 10
-11.8600437484
 20
7.0170637014
 11
-11.8522000998
 21
14.0922774501
  0
LINE
  5
2AB
100
AcDbEntity
  8
RACCORDO
100
AcDbLine
 62
250
  6
CONTINUOUS
 10
-11.8522000998
 20
14.0922774501
 11
-11.8442300356
 21
18.171833031
  0
LINE
  5
2AC
100
AcDbEntity
  8
RACCORDO
100
AcDbLine
 62
250
  6
CONTINUOUS
 10
-11.8442300356
 20
18.171833031
 11
-11.8349464493
 21
21.0141037164
  0
LINE
  5
2AD
100
AcDbEntity
  8
RACCORDO
100
AcDbLine
 62
250
  6
CONTINUOUS
 10
-11.5325660279
 20
20.3946937032
 11
-11.5253503019
 21
22.2772529529
  0
LINE
  5
2AE
100
AcDbEntity
  8
RACCORDO
100
AcDbLine
 62
250
  6
CONTINUOUS
 10
-11.8349464493
 20
21.0141037164
 11
-11.8294846269
 21
22.2920472372
  0
LWPOLYLINE
  5
2AF
100
AcDbEntity
  8
RACCORDO
100
AcDbPolyline
 62
250
  6
CONTINUOUS
 90
25
 70
0
 10
-11.5253502748
 20
22.2772529258
 10
-11.5242213061
 20
22.3096171093
 10
-11.5210057122
 20
22.3417067393
 10
-11.5157399225
 20
22.3733912462
 10
-11.5084803352
 20
22.4044999964
 10
-11.4992725047
 20
22.4349565169
 10
-11.4881229528
 20
22.4647706384
 10
-11.4750519004
 20
22.4938642969
 10
-11.4601251886
 20
22.5220711191
 10
-11.4434061801
 20
22.5492658983
 10
-11.4249535114
 20
22.5753461248
 10
-11.404847563
 20
22.6001935059
 10
-11.3832036893
 20
22.6236722308
 10
-11.3601392202
 20
22.6456689008
 10
-11.3357313307
 20
22.6661238788
 10
-11.3100439292
 20
22.6849899926
 10
-11.2833253731
 20
22.7021015902
 10
-11.2555470083
 20
22.7174915909
 10
-11.2263066917
 20
22.7313208751
 10
-11.1954877696
 20
22.7435004041
 10
-11.163361812
 20
22.7537793661
 10
-11.1300844094
 20
22.7619935194
 10
-11.0957992005
 20
22.7679981319
 10
-11.060634941
 20
22.7716598882
 10
-11.0247522959
 20
22.772849645
  0
LWPOLYLINE
  5
2B0
100
AcDbEntity
  8
RACCORDO
100
AcDbPolyline
 62
250
  6
CONTINUOUS
 90
25
 70
0
 10
-11.8294846269
 20
22.2920472372
 10
-11.8274443954
 20
22.3441779215
 10
-11.822216223
 20
22.3954774789
 10
-11.8138001095
 20
22.4459459093
 10
-11.8021421807
 20
22.4957094514
 10
-11.7872963108
 20
22.5446418664
 10
-11.7694241232
 20
22.5923644388
 10
-11.7484837079
 20
22.6389414095
 10
-11.7245169748
 20
22.6843085374
 10
-11.6978112765
 20
22.7278943844
 10
-11.6683126733
 20
22.7696870977
 10
-11.6360751049
 20
22.80969853
 10
-11.6015477435
 20
22.8473928007
 10
-11.564739542
 20
22.8827046223
 10
-11.5256415474
 20
22.9156992824
 10
-11.4846760732
 20
22.9460367632
 10
-11.4420964774
 20
22.9736432845
 10
-11.3976494019
 20
22.9985926265
 10
-11.3509970857
 20
23.0207661118
 10
-11.3018271167
 20
23.0403717475
 10
-11.250451907
 20
23.0572015265
 10
-11.1974709315
 20
23.0705127503
 10
-11.1430840153
 20
23.0800578528
 10
-11.0870913332
 20
23.0860844002
 10
-11.0294928854
 20
23.0885923924
  0
LINE
  5
2B1
100
AcDbEntity
  8
0
100
AcDbLine
 62
7
  6
CONTINUOUS
 10
-4.121524
 20
-27.98018
 11
-4.913989
 21
-25.480444
  0
LWPOLYLINE
  5
2B2
100
AcDbEntity
  8
RACCORDO
100
AcDbPolyline
 62
250
  6
CONTINUOUS
 90
6
 70
0
 10
-11.0270812064
 20
22.8241991894
 10
-11.0266455591
 20
22.8081297432
 10
-11.0261899795
 20
22.7948355552
 10
-11.0257192647
 20
22.7844566048
 10
-11.025238371
 20
22.7771021771
 10
-11.024752362
 20
22.7728497111
  0
LINE
  5
2B3
100
AcDbEntity
  8
RACCORDO
100
AcDbLine
 62
250
  6
CONTINUOUS
 10
-11.0278746154
 20
22.8639596178
 11
-11.0270812064
 21
22.8241991894
  0
LINE
  5
2B4
100
AcDbEntity
  8
RACCORDO
100
AcDbLine
 62
250
  6
CONTINUOUS
 10
-11.0285368789
 20
22.912446659
 11
-11.0278746154
 21
22.8639596178
  0
LINE
  5
2B5
100
AcDbEntity
  8
RACCORDO
100
AcDbLine
 62
250
  6
CONTINUOUS
 10
-11.0292253226
 20
22.9970048153
 11
-11.0285368789
 21
22.912446659
  0
LINE
  5
2B6
100
AcDbEntity
  8
RACCORDO
100
AcDbLine
 62
250
  6
CONTINUOUS
 10
-11.5317118944
 20
-20.6420512566
 11
-11.5406313937
 21
-17.5618703189
  0
LINE
  5
2B7
100
AcDbEntity
  8
RACCORDO
100
AcDbLine
 62
250
  6
CONTINUOUS
 10
-11.5406313937
 20
-17.5618703189
 11
-11.5480561968
 21
-13.5089721332
  0
LINE
  5
2B8
100
AcDbEntity
  8
RACCORDO
100
AcDbLine
 62
250
  6
CONTINUOUS
 10
-11.0294928855
 20
23.0885923924
 11
-11.0292253226
 21
22.9970048153
  0
LINE
  5
2B9
100
AcDbEntity
  8
RACCORDO
100
AcDbLine
 62
250
  6
CONTINUOUS
 10
-11.5480561968
 20
-13.5089721332
 11
-11.5562593133
 21
-6.4168849003
  0
LINE
  5
2BA
100
AcDbEntity
  8
RACCORDO
100
AcDbLine
 62
250
  6
CONTINUOUS
 10
-11.5562593133
 20
-6.4168849003
 11
-11.5593689603
 21
-1.3111230155
  0
LINE
  5
2BB
100
AcDbEntity
  8
RACCORDO
100
AcDbLine
 62
7
  6
CONTINUOUS
 10
-11.35
 20
22.101902651
 11
-11.35
 21
-22.101902651
  0
LINE
  5
2BC
100
AcDbEntity
  8
RACCORDO
100
AcDbLine
 62
250
  6
CONTINUOUS
 10
-11.5593689603
 20
-1.3111230155
 11
-11.5574770801
 21
4.9767315329
  0
LINE
  5
2BD
100
AcDbEntity
  8
RACCORDO
100
AcDbLine
 62
250
  6
CONTINUOUS
 10
-11.5574770801
 20
4.9767315329
 11
-11.5479568277
 21
13.5808534689
  0
LINE
  5
2BE
100
AcDbEntity
  8
RACCORDO
100
AcDbLine
 62
250
  6
CONTINUOUS
 10
-11.5479568277
 20
13.5808534689
 11
-11.5404444076
 21
17.6411428045
  0
LINE
  5
2BF
100
AcDbEntity
  8
RACCORDO
100
AcDbLine
 62
250
  6
CONTINUOUS
 10
-11.5404444076
 20
17.6411428045
 11
-11.5325660279
 21
20.3946937032
  0
LINE
  5
2C0
100
AcDbEntity
  8
RACCORDO
100
AcDbLine
 62
250
  6
CONTINUOUS
 10
-11.0294928859
 20
-23.0885923924
 11
-11.029225362
 21
-22.9970033918
  0
LINE
  5
2C1
100
AcDbEntity
  8
RACCORDO
100
AcDbLine
 62
250
  6
CONTINUOUS
 10
-11.029225362
 20
-22.9970033918
 11
-11.0285369303
 21
-22.9124448725
  0
LINE
  5
2C2
100
AcDbEntity
  8
RACCORDO
100
AcDbLine
 62
250
  6
CONTINUOUS
 10
-11.0285369303
 20
-22.9124448725
 11
-11.0278746647
 21
-22.8639581056
  0
LWPOLYLINE
  5
2C3
100
AcDbEntity
  8
RACCORDO
100
AcDbPolyline
 62
250
  6
CONTINUOUS
 90
7
 70
0
 10
-11.0278746647
 20
-22.8639581056
 10
-11.0270812481
 20
-22.8241981933
 10
-11.0266455954
 20
-22.8081290373
 10
-11.0261900084
 20
-22.7948350895
 10
-11.0257192835
 20
-22.7844563205
 10
-11.0252383775
 20
-22.7771020301
 10
-11.0247523536
 20
-22.77284966
  0
LINE
  5
2C4
100
AcDbEntity
  8
RACCORDO
100
AcDbLine
 62
250
  6
CONTINUOUS
 10
11.024752362
 20
22.7728497111
 11
10.851902651
 21
22.6
  0
LINE
  5
2C5
100
AcDbEntity
  8
RACCORDO
100
AcDbLine
 62
250
  6
CONTINUOUS
 10
11.5253503019
 20
22.2772529529
 11
11.35
 21
22.101902651
  0
LINE
  5
2C6
100
AcDbEntity
  8
RACCORDO
100
AcDbLine
 62
250
  6
CONTINUOUS
 10
11.024752362
 20
-22.7728497111
 11
10.851902651
 21
-22.6
  0
LINE
  5
2C7
100
AcDbEntity
  8
RACCORDO
100
AcDbLine
 62
250
  6
CONTINUOUS
 10
11.5253503019
 20
-22.2772529529
 11
11.35
 21
-22.101902651
  0
LINE
  5
2C8
100
AcDbEntity
  8
0
100
AcDbLine
 62
7
  6
CONTINUOUS
 10
-0.637935
 20
-27.98018
 11
-1.250061
 21
-26.3479
  0
LINE
  5
2C9
100
AcDbEntity
  8
0
100
AcDbLine
 62
7
  6
CONTINUOUS
 10
-1.114777
 20
-25.480444
 11
-0.598495
 21
-26.868305
  0
LINE
  5
2CA
100
AcDbEntity
  8
0
100
AcDbLine
 62
7
  6
CONTINUOUS
 10
-4.347161
 20
-25.480444
 11
-3.870666
 21
-27.20109
  0
LWPOLYLINE
  5
2CB
100
AcDbEntity
  8
0
100
AcDbPolyline
 62
7
  6
CONTINUOUS
 90
19
 70
0
 10
4.054823388
 20
-27.2220207429
 10
4.0466392554
 20
-27.2019176561
 10
4.0373381469
 20
-27.1821886253
 10
4.0269720556
 20
-27.1629613289
 10
4.0156176642
 20
-27.1443984617
 10
4.003302968
 20
-27.1265750841
 10
3.9899849801
 20
-27.1094937501
 10
3.9756819175
 20
-27.0932701961
 10
3.9604304003
 20
-27.0780426381
 10
3.9441821929
 20
-27.0638758737
 10
3.9269017663
 20
-27.0508793005
 10
3.9086526187
 20
-27.0392465504
 10
3.8895353958
 20
-27.0291690804
 10
3.8696608283
 20
-27.0207282678
 10
3.8491500707
 20
-27.0138857081
 10
3.8281500088
 20
-27.0086108035
 10
3.8068135817
 20
-27.004876175
 10
3.7853005346
 20
-27.0026554811
 10
3.7637687163
 20
-27.0019213614
  0
LINE
  5
2CC
100
AcDbEntity
  8
0
100
AcDbLine
 62
7
  6
CONTINUOUS
 10
2.044098
 20
-25.480444
 11
2.811079
 21
-27.98018
  0
LWPOLYLINE
  5
2CD
100
AcDbEntity
  8
0
100
AcDbPolyline
 62
7
  6
CONTINUOUS
 90
8
 70
0
 10
4.1346332747
 20
-27.4668987634
 10
4.124226825
 20
-27.4316023677
 10
4.1135936703
 20
-27.3964147762
 10
4.1026796938
 20
-27.361358361
 10
4.0914057834
 20
-27.3263779944
 10
4.0797063465
 20
-27.2914690231
 10
4.067531569
 20
-27.2566764973
 10
4.0548233605
 20
-27.2220207532
  0
LINE
  5
2CE
100
AcDbEntity
  8
0
100
AcDbLine
 62
7
  6
CONTINUOUS
 10
4.2719146006
 20
-27.9416368972
 11
4.1958754599
 21
-27.6814558618
  0
LINE
  5
2CF
100
AcDbEntity
  8
0
100
AcDbLine
 62
7
  6
CONTINUOUS
 10
4.2830496624
 20
-27.9801797807
 11
4.2719146006
 21
-27.9416368972
  0
LWPOLYLINE
  5
2D0
100
AcDbEntity
  8
0
100
AcDbPolyline
 62
7
  6
CONTINUOUS
 90
5
 70
0
 10
4.1958754599
 20
-27.6814558618
 10
4.1752567626
 20
-27.609323691
 10
4.1651248171
 20
-27.5735198391
 10
4.1550144791
 20
-27.5378341875
 10
4.1346332747
 20
-27.4668987634
  0
LINE
  5
2D1
100
AcDbEntity
  8
0
100
AcDbLine
 62
7
  6
CONTINUOUS
 10
2.261131
 20
-27.98018
 11
2.125959
 21
-27.481144
  0
LINE
  5
2D2
100
AcDbEntity
  8
0
100
AcDbLine
 62
7
  6
CONTINUOUS
 10
2.021679
 20
-27.094992
 11
1.781908
 21
-26.167308
  0
LINE
  5
2D3
100
AcDbEntity
  8
0
100
AcDbLine
 62
7
  6
CONTINUOUS
 10
0.439561
 20
-25.480444
 11
0.673314
 21
-27.98018
  0
LINE
  5
2D4
100
AcDbEntity
  8
0
100
AcDbLine
 62
7
  6
CONTINUOUS
 10
0.162862
 20
-27.98018
 11
0.055658
 21
-26.354704
  0
LINE
  5
2D5
100
AcDbEntity
  8
0
100
AcDbLine
 62
7
  6
CONTINUOUS
 10
-2.66454
 20
-27.98018
 11
-2.66454
 21
-25.480294
  0
LWPOLYLINE
  5
2D6
100
AcDbEntity
  8
0
100
AcDbPolyline
 62
7
  6
CONTINUOUS
 90
4
 70
0
 43
0.3500000019
 10
-2.3571425781
 20
52.1285703125
 10
-2.3571425781
 20
52.9857163086
 10
-1.9285722656
 20
53.4142866211
 10
-1.2857167969
 20
53.4142866211
  0
LINE
  5
2D7
100
AcDbEntity
  8
0
100
AcDbLine
 62
7
  6
CONTINUOUS
 10
-2.142747
 20
-25.480294
 11
-2.142747
 21
-27.98018
  0
LINE
  5
2D8
100
AcDbEntity
  8
ASSI
100
AcDbLine
 62
250
  6
CONTINUOUS
 10
0.0
 20
42.9050268075
 11
0.0
 21
42.5941084398
  0
LINE
  5
2D9
100
AcDbEntity
  8
ASSI
100
AcDbLine
 62
250
  6
CONTINUOUS
 10
0.0
 20
-42.9050268075
 11
0.0
 21
-42.5941084398
  0
LINE
  5
2DA
100
AcDbEntity
  8
RACCORDO
100
AcDbLine
 62
250
  6
CONTINUOUS
 10
0.0
 20
-23.1013025313
 11
0.0
 21
-22.7824277395
  0
LINE
  5
2DB
100
AcDbEntity
  8
0
100
AcDbLine
 62
250
  6
CONTINUOUS
 10
0.0
 20
-23.1013025313
 11
0.0
 21
-42.5941084398
  0
LINE
  5
2DC
100
AcDbEntity
  8
RACCORDO
100
AcDbLine
 62
250
  6
CONTINUOUS
 10
0.0
 20
22.7824277395
 11
0.0
 21
42.5941084398
  0
LINE
  5
2DD
100
AcDbEntity
  8
ASSI
100
AcDbLine
 62
250
  6
CONTINUOUS
 10
-42.9090810647
 20
-42.1093552047
 11
-42.95
 21
-42.15027414
  0
LINE
  5
2DE
100
AcDbEntity
  8
ASSI
100
AcDbLine
 62
250
  6
CONTINUOUS
 10
42.1093582871
 20
42.9090841471
 11
42.15027414
 21
42.95
  0
LWPOLYLINE
  5
2DF
100
AcDbEntity
  8
0
100
AcDbPolyline
 62
7
  6
CONTINUOUS
 90
4
 70
0
 43
0.3500000019
 10
49.7714277344
 20
-2.3571429291
 10
48.9142871094
 20
-2.3571429291
 10
48.4857167969
 20
-1.9285714417
 10
48.4857167969
 20
-1.2857142944
  0
LINE
  5
2E0
100
AcDbEntity
  8
ASSI
100
AcDbLine
 62
250
  6
CONTINUOUS
 10
42.9057939262
 20
0.0
 11
42.5667597186
 21
0.0
  0
LINE
  5
2E1
100
AcDbEntity
  8
RACCORDO
100
AcDbLine
 62
250
  6
CONTINUOUS
 10
42.5667597186
 20
0.0
 11
11.559540349
 21
0.0
  0
LINE
  5
2E2
100
AcDbEntity
  8
ASSI
100
AcDbLine
 62
250
  6
CONTINUOUS
 10
-42.9057939262
 20
-0.0
 11
-42.5667597186
 21
-0.0
  0
LINE
  5
2E3
100
AcDbEntity
  8
RACCORDO
100
AcDbLine
 62
250
  6
CONTINUOUS
 10
-42.5667597186
 20
-0.0
 11
-11.559540349
 21
0.0
  0
LINE
  5
2E4
100
AcDbEntity
  8
ASSI
100
AcDbLine
 62
250
  6
CONTINUOUS
 10
-42.9090814937
 20
42.1093556337
 11
-42.95
 21
42.15027414
  0
LINE
  5
2E5
100
AcDbEntity
  8
ASSI
100
AcDbLine
 62
250
  6
CONTINUOUS
 10
42.1093609276
 20
-42.9090867876
 11
42.15027414
 21
-42.95
  0
LINE
  5
2E6
100
AcDbEntity
  8
0
100
AcDbLine
 62
7
  6
CONTINUOUS
 10
4.7656773519
 20
-27.9081207844
 11
4.7849537607
 21
-27.9801797807
  0
LINE
  5
2E7
100
AcDbEntity
  8
0
100
AcDbLine
 62
7
  6
CONTINUOUS
 10
4.5914927749
 20
-27.2479607712
 11
4.6483072047
 21
-27.459137936
  0
LINE
  5
2E8
100
AcDbEntity
  8
0
100
AcDbLine
 62
7
  6
CONTINUOUS
 10
4.6483072047
 20
-27.459137936
 11
4.7656773519
 21
-27.9081207844
  0
LWPOLYLINE
  5
2E9
100
AcDbEntity
  8
0
100
AcDbPolyline
 62
7
  6
CONTINUOUS
 90
22
 70
0
 10
4.1702251436
 20
-26.2042730875
 10
4.1690549503
 20
-26.1819419382
 10
4.1662514203
 20
-26.1596787023
 10
4.1618739486
 20
-26.1376232908
 10
4.1559893209
 20
-26.1159393983
 10
4.1486499918
 20
-26.0947307696
 10
4.139875309
 20
-26.0740469485
 10
4.1296947716
 20
-26.0540037375
 10
4.1181541842
 20
-26.0347518493
 10
4.1052750809
 20
-26.0164006905
 10
4.0910829944
 20
-25.9990767581
 10
4.0756205676
 20
-25.9829237804
 10
4.0589735797
 20
-25.968018754
 10
4.0412669259
 20
-25.9543756679
 10
4.0226206514
 20
-25.9420008008
 10
4.0031542463
 20
-25.9309014166
 10
3.9830094683
 20
-25.9210958896
 10
3.9622917884
 20
-25.9125834389
 10
3.9410617465
 20
-25.9053548202
 10
3.9194194379
 20
-25.8994265979
 10
3.8975094684
 20
-25.8948283981
 10
3.8754584186
 20
-25.8915823649
  0
LINE
  5
2EA
100
AcDbEntity
  8
0
100
AcDbLine
 62
7
  6
CONTINUOUS
 10
2.9643025021
 20
-27.9801797807
 11
2.9643025021
 21
-25.5096494116
  0
LINE
  5
2EB
100
AcDbEntity
  8
0
100
AcDbLine
 62
7
  6
CONTINUOUS
 10
3.4666939769
 20
-25.906298925
 11
3.4666939769
 21
-26.5925250773
  0
LINE
  5
2EC
100
AcDbEntity
  8
0
100
AcDbLine
 62
7
  6
CONTINUOUS
 10
3.4839958436
 20
-27.0019213614
 11
3.4839958436
 21
-27.9801797807
  0
LINE
  5
2ED
100
AcDbEntity
  8
0
100
AcDbLine
 62
7
  6
CONTINUOUS
 10
4.3058063972
 20
-26.7985541322
 11
4.3058063972
 21
-26.8133253901
  0
LINE
  5
2EE
100
AcDbEntity
  8
0
100
AcDbLine
 62
7
  6
CONTINUOUS
 10
-1.250061
 20
-26.3479
 11
-1.362664
 21
-27.98018
  0
LINE
  5
2EF
100
AcDbEntity
  8
0
100
AcDbLine
 62
7
  6
CONTINUOUS
 10
-1.86185
 20
-27.98018
 11
-1.636138
 21
-25.480444
  0
LINE
  5
2F0
100
AcDbEntity
  8
0
100
AcDbLine
 62
7
  6
CONTINUOUS
 10
-3.870666
 20
-27.20109
 11
-3.379615
 21
-25.480444
  0
LINE
  5
2F1
100
AcDbEntity
  8
ASSI
100
AcDbLine
 62
250
  6
CONTINUOUS
 10
-42.1093582869
 20
-42.9090841469
 11
-42.15027414
 21
-42.95
  0
LINE
  5
2F2
100
AcDbEntity
  8
ASSI
100
AcDbLine
 62
250
  6
CONTINUOUS
 10
42.9090809768
 20
42.1093551168
 11
42.95
 21
42.15027414
  0
LINE
  5
2F3
100
AcDbEntity
  8
ASSI
100
AcDbLine
 62
250
  6
CONTINUOUS
 10
-42.1093609276
 20
42.9090867876
 11
-42.15027414
 21
42.95
  0
LINE
  5
2F4
100
AcDbEntity
  8
ASSI
100
AcDbLine
 62
250
  6
CONTINUOUS
 10
42.9090814937
 20
-42.1093556337
 11
42.95
 21
-42.15027414
  0
LINE
  5
2F5
100
AcDbEntity
  8
0
100
AcDbLine
 62
7
  6
CONTINUOUS
 10
-2.858179
 20
-25.480444
 11
-3.661694
 21
-27.98018
  0
LINE
  5
2F6
100
AcDbEntity
  8
RACCORDO
100
AcDbLine
 62
250
  6
CONTINUOUS
 10
-11.5253503019
 20
-22.2772529529
 11
-11.35
 21
-22.101902651
  0
LINE
  5
2F7
100
AcDbEntity
  8
RACCORDO
100
AcDbLine
 62
250
  6
CONTINUOUS
 10
-11.024752362
 20
-22.7728497111
 11
-10.851902651
 21
-22.6
  0
LINE
  5
2F8
100
AcDbEntity
  8
RACCORDO
100
AcDbLine
 62
250
  6
CONTINUOUS
 10
-11.5253503019
 20
22.2772529529
 11
-11.35
 21
22.101902651
  0
LINE
  5
2F9
100
AcDbEntity
  8
RACCORDO
100
AcDbLine
 62
250
  6
CONTINUOUS
 10
-11.024752362
 20
22.7728497111
 11
-10.851902651
 21
22.6
  0
LWPOLYLINE
  5
2FA
100
AcDbEntity
  8
RACCORDO
100
AcDbPolyline
 62
250
  6
CONTINUOUS
 90
6
 70
0
 10
11.0270812064
 20
-22.8241991894
 10
11.0266455591
 20
-22.8081297432
 10
11.0261899795
 20
-22.7948355552
 10
11.0257192647
 20
-22.7844566048
 10
11.025238371
 20
-22.7771021771
 10
11.024752362
 20
-22.7728497111
  0
LINE
  5
2FB
100
AcDbEntity
  8
RACCORDO
100
AcDbLine
 62
250
  6
CONTINUOUS
 10
11.0278746154
 20
-22.8639596178
 11
11.0270812064
 21
-22.8241991894
  0
LINE
  5
2FC
100
AcDbEntity
  8
RACCORDO
100
AcDbLine
 62
250
  6
CONTINUOUS
 10
11.0285368789
 20
-22.912446659
 11
11.0278746154
 21
-22.8639596178
  0
LINE
  5
2FD
100
AcDbEntity
  8
RACCORDO
100
AcDbLine
 62
250
  6
CONTINUOUS
 10
11.0292253226
 20
-22.9970048153
 11
11.0285368789
 21
-22.912446659
  0
LINE
  5
2FE
100
AcDbEntity
  8
RACCORDO
100
AcDbLine
 62
250
  6
CONTINUOUS
 10
11.8294846269
 20
22.2920472372
 11
11.8400108274
 21
19.6130572344
  0
LINE
  5
2FF
100
AcDbEntity
  8
RACCORDO
100
AcDbLine
 62
250
  6
CONTINUOUS
 10
11.5253503019
 20
22.2772529529
 11
11.5351285622
 21
19.6025164398
  0
LINE
  5
300
100
AcDbEntity
  8
RACCORDO
100
AcDbLine
 62
250
  6
CONTINUOUS
 10
11.8400108274
 20
19.6130572344
 11
11.8479722434
 21
16.5562486605
  0
LINE
  5
301
100
AcDbEntity
  8
RACCORDO
100
AcDbLine
 62
250
  6
CONTINUOUS
 10
11.5351285622
 20
19.6025164398
 11
11.5438656597
 21
16.0432570169
  0
LINE
  5
302
100
AcDbEntity
  8
RACCORDO
100
AcDbLine
 62
250
  6
CONTINUOUS
 10
11.0294928855
 20
-23.0885923924
 11
11.0292253226
 21
-22.9970048153
  0
LINE
  5
303
100
AcDbEntity
  8
RACCORDO
100
AcDbLine
 62
250
  6
CONTINUOUS
 10
11.5438656597
 20
16.0432570169
 11
11.5552694533
 21
7.444175483
  0
LINE
  5
304
100
AcDbEntity
  8
RACCORDO
100
AcDbLine
 62
250
  6
CONTINUOUS
 10
11.8479722434
 20
16.5562486605
 11
11.8586571905
 21
8.4616726325
  0
LINE
  5
305
100
AcDbEntity
  8
RACCORDO
100
AcDbLine
 62
250
  6
CONTINUOUS
 10
11.8586571905
 20
8.4616726325
 11
11.8633493772
 21
1.940909276
  0
LINE
  5
306
100
AcDbEntity
  8
RACCORDO
100
AcDbLine
 62
250
  6
CONTINUOUS
 10
11.5552694533
 20
7.444175483
 11
11.5594830318
 21
0.6645462742
  0
LINE
  5
307
100
AcDbEntity
  8
RACCORDO
100
AcDbLine
 62
7
  6
CONTINUOUS
 10
11.35
 20
-22.101902651
 11
11.35
 21
22.101902651
  0
LINE
  5
308
100
AcDbEntity
  8
RACCORDO
100
AcDbLine
 62
250
  6
CONTINUOUS
 10
11.8633493772
 20
1.940909276
 11
11.8627149801
 21
-3.402549938
  0
LINE
  5
309
100
AcDbEntity
  8
RACCORDO
100
AcDbLine
 62
250
  6
CONTINUOUS
 10
11.5594830318
 20
0.6645462742
 11
11.5582131392
 21
-3.9327237065
  0
LINE
  5
30A
100
AcDbEntity
  8
RACCORDO
100
AcDbLine
 62
250
  6
CONTINUOUS
 10
11.5582131392
 20
-3.9327237065
 11
11.550624746
 21
-11.5540998432
  0
LINE
  5
30B
100
AcDbEntity
  8
RACCORDO
100
AcDbLine
 62
250
  6
CONTINUOUS
 10
11.8627149801
 20
-3.402549938
 11
11.8559228396
 21
-11.0515936537
  0
LINE
  5
30C
100
AcDbEntity
  8
RACCORDO
100
AcDbLine
 62
250
  6
CONTINUOUS
 10
11.8559228396
 20
-11.0515936537
 11
11.8488458077
 21
-16.1161384348
  0
LINE
  5
30D
100
AcDbEntity
  8
RACCORDO
100
AcDbLine
 62
250
  6
CONTINUOUS
 10
11.550624746
 20
-11.5540998432
 11
11.5427287917
 21
-16.6143301268
  0
LINE
  5
30E
100
AcDbEntity
  8
RACCORDO
100
AcDbLine
 62
250
  6
CONTINUOUS
 10
11.8488458077
 20
-16.1161384348
 11
11.84113124
 21
-19.2580932333
  0
LINE
  5
30F
100
AcDbEntity
  8
RACCORDO
100
AcDbLine
 62
250
  6
CONTINUOUS
 10
11.5427287917
 20
-16.6143301268
 11
11.5344922249
 21
-19.8109964252
  0
LINE
  5
310
100
AcDbEntity
  8
RACCORDO
100
AcDbLine
 62
250
  6
CONTINUOUS
 10
11.5344922249
 20
-19.8109964252
 11
11.5253503019
 21
-22.2772529529
  0
LWPOLYLINE
  5
311
100
AcDbEntity
  8
RACCORDO
100
AcDbPolyline
 62
250
  6
CONTINUOUS
 90
3
 70
0
 10
11.84113124
 20
-19.2580932333
 10
11.8323452208
 20
-21.6426662792
 10
11.8294846269
 20
-22.2920472372
  0
LINE
  5
312
100
AcDbEntity
  8
RACCORDO
100
AcDbLine
 62
250
  6
CONTINUOUS
 10
11.0294928859
 20
23.0885923924
 11
11.029225362
 21
22.9970033918
  0
LINE
  5
313
100
AcDbEntity
  8
RACCORDO
100
AcDbLine
 62
250
  6
CONTINUOUS
 10
11.029225362
 20
22.9970033918
 11
11.0285369303
 21
22.9124448725
  0
LINE
  5
314
100
AcDbEntity
  8
RACCORDO
100
AcDbLine
 62
250
  6
CONTINUOUS
 10
11.0285369303
 20
22.9124448725
 11
11.0278746647
 21
22.8639581056
  0
LWPOLYLINE
  5
315
100
AcDbEntity
  8
RACCORDO
100
AcDbPolyline
 62
250
  6
CONTINUOUS
 90
7
 70
0
 10
11.0278746647
 20
22.8639581056
 10
11.0270812481
 20
22.8241981933
 10
11.0266455954
 20
22.8081290373
 10
11.0261900084
 20
22.7948350895
 10
11.0257192835
 20
22.7844563205
 10
11.0252383775
 20
22.7771020301
 10
11.0247523536
 20
22.77284966
  0
LWPOLYLINE
  5
316
100
AcDbEntity
  8
RACCORDO
100
AcDbPolyline
 62
250
  6
CONTINUOUS
 90
25
 70
0
 10
11.5253502748
 20
-22.2772529258
 10
11.5242213061
 20
-22.3096171093
 10
11.5210057122
 20
-22.3417067393
 10
11.5157399225
 20
-22.3733912462
 10
11.5084803352
 20
-22.4044999964
 10
11.4992725047
 20
-22.4349565169
 10
11.4881229528
 20
-22.4647706384
 10
11.4750519004
 20
-22.4938642969
 10
11.4601251886
 20
-22.5220711191
 10
11.4434061801
 20
-22.5492658983
 10
11.4249535114
 20
-22.5753461248
 10
11.404847563
 20
-22.6001935059
 10
11.3832036893
 20
-22.6236722308
 10
11.3601392202
 20
-22.6456689008
 10
11.3357313307
 20
-22.6661238788
 10
11.3100439292
 20
-22.6849899926
 10
11.2833253731
 20
-22.7021015902
 10
11.2555470083
 20
-22.7174915909
 10
11.2263066917
 20
-22.7313208751
 10
11.1954877696
 20
-22.7435004041
 10
11.163361812
 20
-22.7537793661
 10
11.1300844094
 20
-22.7619935194
 10
11.0957992005
 20
-22.7679981319
 10
11.060634941
 20
-22.7716598882
 10
11.0247522959
 20
-22.772849645
  0
LINE
  5
317
100
AcDbEntity
  8
0
100
AcDbLine
 62
7
  6
CONTINUOUS
 10
1.781908
 20
-26.167308
 11
1.522099
 21
-27.094992
  0
LINE
  5
318
100
AcDbEntity
  8
0
100
AcDbLine
 62
7
  6
CONTINUOUS
 10
1.415364
 20
-27.481144
 11
1.271381
 21
-27.98018
  0
LINE
  5
319
100
AcDbEntity
  8
0
100
AcDbLine
 62
7
  6
CONTINUOUS
 10
0.75525
 20
-27.98018
 11
1.539326
 21
-25.480444
  0
LINE
  5
31A
100
AcDbEntity
  8
0
100
AcDbLine
 62
7
  6
CONTINUOUS
 10
-0.598495
 20
-26.868305
 11
-0.076702
 21
-25.480444
  0
LINE
  5
31B
100
AcDbEntity
  8
0
100
AcDbLine
 62
7
  6
CONTINUOUS
 10
0.055658
 20
-26.354704
 11
-0.564753
 21
-27.98018
  0
LWPOLYLINE
  5
31C
100
AcDbEntity
  8
RACCORDO
100
AcDbPolyline
 62
250
  6
CONTINUOUS
 90
25
 70
0
 10
11.8294846269
 20
-22.2920472372
 10
11.8274443954
 20
-22.3441779215
 10
11.822216223
 20
-22.3954774789
 10
11.8138001095
 20
-22.4459459093
 10
11.8021421807
 20
-22.4957094514
 10
11.7872963108
 20
-22.5446418664
 10
11.7694241232
 20
-22.5923644388
 10
11.7484837079
 20
-22.6389414095
 10
11.7245169748
 20
-22.6843085374
 10
11.6978112765
 20
-22.7278943844
 10
11.6683126733
 20
-22.7696870977
 10
11.6360751049
 20
-22.80969853
 10
11.6015477435
 20
-22.8473928007
 10
11.564739542
 20
-22.8827046223
 10
11.5256415474
 20
-22.9156992824
 10
11.4846760732
 20
-22.9460367632
 10
11.4420964774
 20
-22.9736432845
 10
11.3976494019
 20
-22.9985926265
 10
11.3509970857
 20
-23.0207661118
 10
11.3018271167
 20
-23.0403717475
 10
11.250451907
 20
-23.0572015265
 10
11.1974709315
 20
-23.0705127503
 10
11.1430840153
 20
-23.0800578528
 10
11.0870913332
 20
-23.0860844002
 10
11.0294928854
 20
-23.0885923924
  0
LWPOLYLINE
  5
31D
100
AcDbEntity
  8
RACCORDO
100
AcDbPolyline
 62
250
  6
CONTINUOUS
 90
16
 70
0
 10
11.8294846269
 20
22.2920472372
 10
11.7994887666
 20
22.2918702312
 10
11.7697403027
 20
22.2915469321
 10
11.7405369568
 20
22.2910805758
 10
11.7121709948
 20
22.2904758299
 10
11.6849263021
 20
22.2897387467
 10
11.6590755428
 20
22.2888767027
 10
11.6348774301
 20
22.287898325
 10
11.612574138
 20
22.2868134055
 10
11.5923888768
 20
22.285632802
 10
11.5745236598
 20
22.2843683298
 10
11.5591572814
 20
22.2830326436
 10
11.5464435277
 20
22.2816391113
 10
11.5365096372
 20
22.2802016792
 10
11.5294550279
 20
22.2787347328
 10
11.5253503019
 20
22.2772529529
  0
LINE
  5
31E
100
AcDbEntity
  8
RACCORDO
100
AcDbLine
 62
250
  6
CONTINUOUS
 10
-11.0294928854
 20
23.0885923924
 11
-2.0939229342
 21
23.1006918869
  0
LINE
  5
31F
100
AcDbEntity
  8
RACCORDO
100
AcDbLine
 62
250
  6
CONTINUOUS
 10
-11.024752362
 20
22.7728497111
 11
-1.0206819958
 21
22.7823220086
  0
LINE
  5
320
100
AcDbEntity
  8
RACCORDO
100
AcDbLine
 62
7
  6
CONTINUOUS
 10
10.851902651
 20
22.6
 11
-10.851902651
 21
22.6
  0
LINE
  5
321
100
AcDbEntity
  8
RACCORDO
100
AcDbLine
 62
250
  6
CONTINUOUS
 10
-2.0939229342
 20
23.1006918869
 11
1.0708107351
 21
23.1010617156
  0
LINE
  5
322
100
AcDbEntity
  8
RACCORDO
100
AcDbLine
 62
250
  6
CONTINUOUS
 10
-1.0206819958
 20
22.7823220086
 11
3.1275639996
 21
22.781426285
  0
LINE
  5
323
100
AcDbEntity
  8
RACCORDO
100
AcDbLine
 62
250
  6
CONTINUOUS
 10
3.1275639996
 20
22.781426285
 11
9.462370828
 21
22.7749743075
  0
LINE
  5
324
100
AcDbEntity
  8
RACCORDO
100
AcDbLine
 62
250
  6
CONTINUOUS
 10
1.0708107351
 20
23.1010617156
 11
5.0781593316
 21
23.0979865671
  0
LINE
  5
325
100
AcDbEntity
  8
RACCORDO
100
AcDbLine
 62
250
  6
CONTINUOUS
 10
9.462370828
 20
22.7749743075
 11
11.024752362
 21
22.7728497111
  0
LINE
  5
326
100
AcDbEntity
  8
RACCORDO
100
AcDbLine
 62
250
  6
CONTINUOUS
 10
5.0781593316
 20
23.0979865671
 11
11.0294928854
 21
23.0885923924
  0
LWPOLYLINE
  5
327
100
AcDbEntity
  8
RACCORDO
100
AcDbPolyline
 62
250
  6
CONTINUOUS
 90
16
 70
0
 10
-11.8294846269
 20
22.2920472378
 10
-11.7994882284
 20
22.2918702001
 10
-11.7697393268
 20
22.2915468689
 10
-11.7405356537
 20
22.2910804815
 10
-11.712169482
 20
22.2904757072
 10
-11.684924693
 20
22.2897385996
 10
-11.6590739365
 20
22.2888765365
 10
-11.6348759174
 20
22.2878981467
 10
-11.6125727931
 20
22.2868132226
 10
-11.5923877456
 20
22.2856326223
 10
-11.5745227781
 20
22.284368162
 10
-11.5591566555
 20
22.2830324965
 10
-11.5464431213
 20
22.2816389904
 10
-11.5365094028
 20
22.280201589
 10
-11.5294549213
 20
22.2787346781
 10
-11.5253502748
 20
22.2772529384
  0
LWPOLYLINE
  5
328
100
AcDbEntity
  8
RACCORDO
100
AcDbPolyline
 62
250
  6
CONTINUOUS
 90
25
 70
0
 10
11.0247523108
 20
22.7728496599
 10
11.0572987486
 20
22.7718787884
 10
11.0895775784
 20
22.7688281391
 10
11.1214580231
 20
22.7637346189
 10
11.1527701193
 20
22.7566557976
 10
11.1834364909
 20
22.7476370221
 10
11.2134645033
 20
22.7366832785
 10
11.2427764911
 20
22.7238157656
 10
11.2712058455
 20
22.7091003965
 10
11.2986240573
 20
22.692597685
 10
11.3249288977
 20
22.6743670331
 10
11.3500023525
 20
22.6544890004
 10
11.3737053489
 20
22.6330751098
 10
11.3959246031
 20
22.6102427589
 10
11.4166010905
 20
22.5860696037
 10
11.435685063
 20
22.5606161577
 10
11.4530095857
 20
22.5341309275
 10
11.4686097433
 20
22.5065853611
 10
11.4826483244
 20
22.4775733868
 10
11.4950384069
 20
22.4469774804
 10
11.5055261476
 20
22.4150694109
 10
11.5139413135
 20
22.3820023235
 10
11.5201375111
 20
22.3479190695
 10
11.5239834968
 20
22.3129490817
 10
11.5253502675
 20
22.2772529184
  0
LWPOLYLINE
  5
329
100
AcDbEntity
  8
RACCORDO
100
AcDbPolyline
 62
250
  6
CONTINUOUS
 90
25
 70
0
 10
11.0294928854
 20
23.0885923924
 10
11.0817240999
 20
23.0867015333
 10
11.1331301163
 20
23.0816233013
 10
11.1837109344
 20
23.0733576962
 10
11.2335934528
 20
23.0618505518
 10
11.282650773
 20
23.0471560344
 10
11.3305021996
 20
23.0294366427
 10
11.3772118264
 20
23.0086508172
 10
11.4227155595
 20
22.9848401173
 10
11.4664404224
 20
22.9582917198
 10
11.5083742745
 20
22.9289521413
 10
11.5485292563
 20
22.8968748652
 10
11.5863688129
 20
22.8625075176
 10
11.6218274916
 20
22.8258591875
 10
11.6549707451
 20
22.786920786
 10
11.6854583764
 20
22.7461126713
 10
11.7132153477
 20
22.7036898955
 10
11.7383166968
 20
22.6593974066
 10
11.7606473404
 20
22.6128904073
 10
11.7804182355
 20
22.5638542189
 10
11.7974184251
 20
22.51260352
 10
11.8108999545
 20
22.4597375486
 10
11.8206135055
 20
22.4054560506
 10
11.8268083963
 20
22.3495592802
 10
11.8294846269
 20
22.2920472372
  0
LWPOLYLINE
  5
32A
100
AcDbEntity
  8
0
100
AcDbPolyline
 62
7
  6
CONTINUOUS
 90
10
 70
0
 43
0.3500000019
 10
47.1999951172
 20
1.0714285507
 10
47.8428613281
 20
0.4285714455
 10
48.7000019531
 20
0.0
 10
49.7714277344
 20
0.0
 10
50.1999980469
 20
0.4285714455
 10
50.1999980469
 20
1.0714285507
 10
49.7714277344
 20
1.4999999542
 10
48.9142871094
 20
1.4999999542
 10
48.4857167969
 20
1.0714285507
 10
48.4857167969
 20
0.1428571415
  0
LWPOLYLINE
  5
32B
100
AcDbEntity
  8
0
100
AcDbPolyline
 62
7
  6
CONTINUOUS
 90
13
 70
0
 43
0.3500000019
 10
48.4857167969
 20
-1.9285714417
 10
48.2714316406
 20
-2.2142857666
 10
47.6285761719
 20
-2.2142857666
 10
47.1999951172
 20
-1.9285714417
 10
47.1999951172
 20
-1.2857142944
 10
47.6285761719
 20
-0.9999999695
 10
48.2714316406
 20
-0.9999999695
 10
48.4857167969
 20
-1.2857142944
 10
48.9142871094
 20
-0.8571428909
 10
49.7714277344
 20
-0.8571428909
 10
50.1999980469
 20
-1.2857142944
 10
50.1999980469
 20
-1.9285714417
 10
49.7714277344
 20
-2.3571429291
  0
LWPOLYLINE
  5
32C
100
AcDbEntity
  8
ASSI
100
AcDbPolyline
 62
250
  6
CONTINUOUS
 90
5
 70
0
 10
42.4515930429
 20
42.1344785684
 10
42.4682092509
 20
41.7254155242
 10
42.4828641442
 20
41.3167885001
 10
42.4955770688
 20
40.908641433
 10
42.5062164664
 20
40.5001891616
  0
LWPOLYLINE
  5
32D
100
AcDbEntity
  8
ASSI
100
AcDbPolyline
 62
250
  6
CONTINUOUS
 90
22
 70
0
 10
42.9090814841
 20
42.1093556241
 10
42.9068509685
 20
42.1691072239
 10
42.9001635167
 20
42.228527322
 10
42.8890552724
 20
42.2872842077
 10
42.8735868627
 20
42.3450499461
 10
42.8538436336
 20
42.4015013802
 10
42.8299354604
 20
42.4563220332
 10
42.8019947273
 20
42.509205773
 10
42.7701768433
 20
42.559855986
 10
42.7346607531
 20
42.6079868589
 10
42.6956443815
 20
42.6533294669
 10
42.653345717
 20
42.6956295499
 10
42.6080043108
 20
42.7346475227
 10
42.5598745171
 20
42.7701652778
 10
42.5092251284
 20
42.8019849526
 10
42.4563415384
 20
42.8299277506
 10
42.4015202125
 20
42.8538381655
 10
42.3450673393
 20
42.8735836206
 10
42.2872992491
 20
42.8890541226
 10
42.228539057
 20
42.9001641529
 10
42.1691147725
 20
42.9068528926
 10
42.1093581624
 20
42.9090840223
  0
LINE
  5
32E
100
AcDbEntity
  8
ASSI
100
AcDbLine
 62
250
  6
CONTINUOUS
 10
42.5062164664
 20
40.5001891616
 11
42.5222298248
 21
39.6874323776
  0
LWPOLYLINE
  5
32F
100
AcDbEntity
  8
ASSI
100
AcDbPolyline
 62
250
  6
CONTINUOUS
 90
3
 70
0
 10
42.1327407293
 20
42.5704830162
 10
42.1338312312
 20
42.4919464462
 10
42.134136769
 20
42.4517326748
  0
LINE
  5
330
100
AcDbEntity
  8
ASSI
100
AcDbLine
 62
250
  6
CONTINUOUS
 10
42.5222298248
 20
39.6874323776
 11
42.5324383686
 21
38.8917585059
  0
LINE
  5
331
100
AcDbEntity
  8
ASSI
100
AcDbLine
 62
250
  6
CONTINUOUS
 10
42.5324383686
 20
38.8917585059
 11
42.53861921
 21
38.0951731722
  0
LINE
  5
332
100
AcDbEntity
  8
ASSI
100
AcDbLine
 62
250
  6
CONTINUOUS
 10
42.53861921
 20
38.0951731722
 11
42.5427093759
 21
36.8673141939
  0
LINE
  5
333
100
AcDbEntity
  8
ASSI
100
AcDbLine
 62
250
  6
CONTINUOUS
 10
42.5576143514
 20
21.4647436359
 11
42.5628675044
 21
17.8033259746
  0
LINE
  5
334
100
AcDbEntity
  8
ASSI
100
AcDbLine
 62
250
  6
CONTINUOUS
 10
42.5628675044
 20
17.8033259746
 11
42.5663844481
 21
10.3557873508
  0
LINE
  5
335
100
AcDbEntity
  8
ASSI
100
AcDbLine
 62
250
  6
CONTINUOUS
 10
42.5382299635
 20
30.8503766738
 11
42.5576143514
 21
21.4647436359
  0
LINE
  5
336
100
AcDbEntity
  8
ASSI
100
AcDbLine
 62
250
  6
CONTINUOUS
 10
42.9057941189
 20
-3.5529552106
 11
42.9066626467
 21
-32.1563828383
  0
LWPOLYLINE
  5
337
100
AcDbEntity
  8
ASSI
100
AcDbPolyline
 62
250
  6
CONTINUOUS
 90
3
 70
0
 10
42.9066626467
 20
-32.1563828383
 10
42.9066143062
 20
-33.4880230143
 10
42.9090814937
 20
-42.1093556337
  0
LINE
  5
338
100
AcDbEntity
  8
ASSI
100
AcDbLine
 62
7
  6
CONTINUOUS
 10
42.95
 20
-42.15027414
 11
42.95
 21
42.15027414
  0
LINE
  5
339
100
AcDbEntity
  8
ASSI
100
AcDbLine
 62
250
  6
CONTINUOUS
 10
42.5427093759
 20
36.8673141939
 11
42.5432039024
 21
35.0829826771
  0
LINE
  5
33A
100
AcDbEntity
  8
ASSI
100
AcDbLine
 62
250
  6
CONTINUOUS
 10
42.5663844481
 20
10.3557873508
 11
42.5647185793
 21
-15.4849498922
  0
LINE
  5
33B
100
AcDbEntity
  8
ASSI
100
AcDbLine
 62
250
  6
CONTINUOUS
 10
42.9090809768
 20
42.1093551168
 11
42.9057941189
 21
-3.5529552106
  0
LINE
  5
33C
100
AcDbEntity
  8
ASSI
100
AcDbLine
 62
250
  6
CONTINUOUS
 10
42.5647185793
 20
-15.4849498922
 11
42.5607478998
 21
-19.5521657262
  0
LINE
  5
33D
100
AcDbEntity
  8
ASSI
100
AcDbLine
 62
250
  6
CONTINUOUS
 10
42.5432039024
 20
35.0829826771
 11
42.5382299635
 21
30.8503766738
  0
LINE
  5
33E
100
AcDbEntity
  8
ASSI
100
AcDbLine
 62
250
  6
CONTINUOUS
 10
42.5607478998
 20
-19.5521657262
 11
42.5540589197
 21
-23.1598109562
  0
LINE
  5
33F
100
AcDbEntity
  8
ASSI
100
AcDbLine
 62
250
  6
CONTINUOUS
 10
42.5424519772
 20
-27.5219868104
 11
42.5423853925
 21
-37.041892736
  0
LINE
  5
340
100
AcDbEntity
  8
ASSI
100
AcDbLine
 62
250
  6
CONTINUOUS
 10
42.5540589197
 20
-23.1598109562
 11
42.5424519772
 21
-27.5219868104
  0
LINE
  5
341
100
AcDbEntity
  8
ASSI
100
AcDbLine
 62
250
  6
CONTINUOUS
 10
42.5423853925
 20
-37.041892736
 11
42.538072421
 21
-38.1793576931
  0
LINE
  5
342
100
AcDbEntity
  8
ASSI
100
AcDbLine
 62
250
  6
CONTINUOUS
 10
42.538072421
 20
-38.1793576931
 11
42.5322368897
 21
-38.9088194792
  0
LWPOLYLINE
  5
343
100
AcDbEntity
  8
ASSI
100
AcDbPolyline
 62
250
  6
CONTINUOUS
 90
18
 70
0
 10
42.1341368305
 20
-42.4517326218
 10
42.1333649217
 20
-42.5316169518
 10
42.1327407854
 20
-42.5704832478
 10
42.1319629852
 20
-42.6082899724
 10
42.1310366325
 20
-42.6447886763
 10
42.1299678147
 20
-42.6797395163
 10
42.1287635556
 20
-42.7129128088
 10
42.1274317696
 20
-42.744090542
 10
42.1259812085
 20
-42.7730678236
 10
42.1244214053
 20
-42.7996542219
 10
42.1227626108
 20
-42.8236750176
 10
42.1210157256
 20
-42.8449723515
 10
42.1191922283
 20
-42.8634062799
 10
42.1173041044
 20
-42.8788556362
 10
42.1153637675
 20
-42.8912188582
 10
42.1133839716
 20
-42.9004147186
 10
42.1113777259
 20
-42.9063828277
 10
42.1093582154
 20
-42.9090839945
  0
LINE
  5
344
100
AcDbEntity
  8
ASSI
100
AcDbLine
 62
250
  6
CONTINUOUS
 10
42.5322368897
 20
-38.9088194792
 11
42.5236023998
 21
-39.599524722
  0
LINE
  5
345
100
AcDbEntity
  8
ASSI
100
AcDbLine
 62
250
  6
CONTINUOUS
 10
42.5236023998
 20
-39.599524722
 11
42.5120276495
 21
-40.238483474
  0
LINE
  5
346
100
AcDbEntity
  8
ASSI
100
AcDbLine
 62
250
  6
CONTINUOUS
 10
42.5120276495
 20
-40.238483474
 11
42.4977599472
 21
-40.8306300804
  0
LINE
  5
347
100
AcDbEntity
  8
ASSI
100
AcDbLine
 62
250
  6
CONTINUOUS
 10
42.4977599472
 20
-40.8306300804
 11
42.4809590289
 21
-41.3789216012
  0
LWPOLYLINE
  5
348
100
AcDbEntity
  8
ASSI
100
AcDbPolyline
 62
250
  6
CONTINUOUS
 90
3
 70
0
 10
42.4809590289
 20
-41.3789216012
 10
42.4619645749
 20
-41.89171757
 10
42.4516269687
 20
-42.1342618724
  0
LWPOLYLINE
  5
349
100
AcDbEntity
  8
ASSI
100
AcDbPolyline
 62
250
  6
CONTINUOUS
 90
5
 70
0
 10
-42.1342212949
 20
42.4517194562
 10
-41.7290832851
 20
42.4680685476
 10
-41.3249176704
 20
42.4824633849
 10
-40.9217674187
 20
42.4949262263
 10
-40.5189965547
 20
42.5053156537
  0
LWPOLYLINE
  5
34A
100
AcDbEntity
  8
ASSI
100
AcDbPolyline
 62
250
  6
CONTINUOUS
 90
22
 70
0
 10
-42.1093581624
 20
42.9090840223
 10
-42.1691094052
 20
42.9068532946
 10
-42.2285291532
 20
42.9001656445
 10
-42.2872856976
 20
42.8890572136
 10
-42.3450511025
 20
42.8735886263
 10
-42.4015022147
 20
42.8538452263
 10
-42.4563225648
 20
42.8299368848
 10
-42.5092060217
 20
42.801995981
 10
-42.5598559698
 20
42.770177921
 10
-42.6079865978
 20
42.7346616469
 10
-42.6533289791
 20
42.6956450799
 10
-42.6956288511
 20
42.6533462053
 10
-42.7346466276
 20
42.6080045736
 10
-42.7701641982
 20
42.5598745364
 10
-42.8019836962
 20
42.5092248845
 10
-42.8299263234
 20
42.4563410128
 10
-42.8538365703
 20
42.4015193847
 10
-42.873581855
 20
42.3450661898
 10
-42.8890521801
 20
42.2872977656
 10
-42.9001620243
 20
42.2285372308
 10
-42.9068505664
 20
42.1691125941
 10
-42.9090814841
 20
42.1093556241
  0
LINE
  5
34B
100
AcDbEntity
  8
ASSI
100
AcDbLine
 62
250
  6
CONTINUOUS
 10
-40.5189965547
 20
42.5053156537
 11
-39.7187519276
 21
42.5209116269
  0
LWPOLYLINE
  5
34C
100
AcDbEntity
  8
ASSI
100
AcDbPolyline
 62
250
  6
CONTINUOUS
 90
3
 70
0
 10
-42.5703918124
 20
42.1329132006
 10
-42.4918391786
 20
42.1340111725
 10
-42.4516180899
 20
42.1343185821
  0
LINE
  5
34D
100
AcDbEntity
  8
ASSI
100
AcDbLine
 62
250
  6
CONTINUOUS
 10
-39.7187519276
 20
42.5209116269
 11
-38.9350820764
 21
42.5309376503
  0
LINE
  5
34E
100
AcDbEntity
  8
ASSI
100
AcDbLine
 62
250
  6
CONTINUOUS
 10
-38.9350820764
 20
42.5309376503
 11
-38.1532041522
 21
42.5371941326
  0
LINE
  5
34F
100
AcDbEntity
  8
ASSI
100
AcDbLine
 62
250
  6
CONTINUOUS
 10
-38.1532041522
 20
42.5371941326
 11
-36.9566303868
 21
42.5420165973
  0
LINE
  5
350
100
AcDbEntity
  8
ASSI
100
AcDbLine
 62
250
  6
CONTINUOUS
 10
-21.1147121096
 20
42.5808777252
 11
-17.6949359379
 21
42.5882060193
  0
LWPOLYLINE
  5
351
100
AcDbEntity
  8
ASSI
100
AcDbPolyline
 62
250
  6
CONTINUOUS
 90
3
 70
0
 10
-36.9566303868
 20
42.5420165973
 10
-34.3117511963
 20
42.546217848
 10
-32.82924831
 20
42.5475185736
  0
LINE
  5
352
100
AcDbEntity
  8
ASSI
100
AcDbLine
 62
250
  6
CONTINUOUS
 10
-32.82924831
 20
42.5475185736
 11
-21.1147121096
 21
42.5808777252
  0
LINE
  5
353
100
AcDbEntity
  8
ASSI
100
AcDbLine
 62
250
  6
CONTINUOUS
 10
-17.6949359379
 20
42.5882060193
 11
-13.9037630471
 21
42.5924636077
  0
LINE
  5
354
100
AcDbEntity
  8
ASSI
100
AcDbLine
 62
250
  6
CONTINUOUS
 10
-13.9037630471
 20
42.5924636077
 11
-5.0808039176
 21
42.5943608043
  0
LWPOLYLINE
  5
355
100
AcDbEntity
  8
ASSI
100
AcDbPolyline
 62
250
  6
CONTINUOUS
 90
3
 70
0
 10
4.8173907541
 20
42.9050197015
 10
33.8632092024
 20
42.9064648096
 10
42.1093582871
 20
42.9090841471
  0
LINE
  5
356
100
AcDbEntity
  8
ASSI
100
AcDbLine
 62
7
  6
CONTINUOUS
 10
42.15027414
 20
42.95
 11
-42.15027414
 21
42.95
  0
LINE
  5
357
100
AcDbEntity
  8
ASSI
100
AcDbLine
 62
250
  6
CONTINUOUS
 10
-5.0808039176
 20
42.5943608043
 11
11.2128185799
 21
42.5937910999
  0
LINE
  5
358
100
AcDbEntity
  8
ASSI
100
AcDbLine
 62
250
  6
CONTINUOUS
 10
11.2128185799
 20
42.5937910999
 11
15.8808076542
 21
42.5906774165
  0
LINE
  5
359
100
AcDbEntity
  8
ASSI
100
AcDbLine
 62
250
  6
CONTINUOUS
 10
-42.1093609276
 20
42.9090867876
 11
4.8173907541
 21
42.9050197015
  0
LINE
  5
35A
100
AcDbEntity
  8
ASSI
100
AcDbLine
 62
250
  6
CONTINUOUS
 10
15.8808076542
 20
42.5906774165
 11
19.2311229276
 21
42.5853804264
  0
LINE
  5
35B
100
AcDbEntity
  8
ASSI
100
AcDbLine
 62
250
  6
CONTINUOUS
 10
19.2311229276
 20
42.5853804264
 11
22.998096492
 21
42.5753149086
  0
LWPOLYLINE
  5
35C
100
AcDbEntity
  8
ASSI
100
AcDbPolyline
 62
250
  6
CONTINUOUS
 90
3
 70
0
 10
22.998096492
 20
42.5753149086
 10
25.7107910883
 20
42.5657890927
 10
37.2763578704
 20
42.5409941444
  0
LINE
  5
35D
100
AcDbEntity
  8
ASSI
100
AcDbLine
 62
250
  6
CONTINUOUS
 10
37.2763578704
 20
42.5409941444
 11
38.4714686113
 21
42.5350089875
  0
LINE
  5
35E
100
AcDbEntity
  8
ASSI
100
AcDbLine
 62
250
  6
CONTINUOUS
 10
38.4714686113
 20
42.5350089875
 11
39.2043812643
 21
42.5279883897
  0
LWPOLYLINE
  5
35F
100
AcDbEntity
  8
ASSI
100
AcDbPolyline
 62
250
  6
CONTINUOUS
 90
18
 70
0
 10
42.4516180827
 20
42.134318596
 10
42.531517408
 20
42.1335416964
 10
42.5703918748
 20
42.1329132133
 10
42.6082070469
 20
42.1321298682
 10
42.6447143375
 20
42.1311968108
 10
42.6796737597
 20
42.1301201747
 10
42.7128554992
 20
42.1289070374
 10
42.7440414263
 20
42.1275653737
 10
42.7730265319
 20
42.1261040036
 10
42.7996202748
 20
42.1245325337
 10
42.823647834
 20
42.1228612944
 10
42.844951258
 20
42.1211012722
 10
42.8633905075
 20
42.1192640364
 10
42.8788443613
 20
42.1173616651
 10
42.8912112211
 20
42.1154066656
 10
42.9004097954
 20
42.1134118903
 10
42.9063796262
 20
42.1113904517
 10
42.9090814767
 20
42.1093556382
  0
LINE
  5
360
100
AcDbEntity
  8
ASSI
100
AcDbLine
 62
250
  6
CONTINUOUS
 10
39.2043812643
 20
42.5279883897
 11
39.8834669321
 21
42.5181713292
  0
LINE
  5
361
100
AcDbEntity
  8
ASSI
100
AcDbLine
 62
250
  6
CONTINUOUS
 10
39.8834669321
 20
42.5181713292
 11
40.5101253436
 21
42.5054905511
  0
LINE
  5
362
100
AcDbEntity
  8
ASSI
100
AcDbLine
 62
250
  6
CONTINUOUS
 10
40.5101253436
 20
42.5054905511
 11
41.0912605127
 21
42.4899860381
  0
LINE
  5
363
100
AcDbEntity
  8
ASSI
100
AcDbLine
 62
250
  6
CONTINUOUS
 10
41.0912605127
 20
42.4899860381
 11
41.6320913066
 21
42.4720274267
  0
LINE
  5
364
100
AcDbEntity
  8
ASSI
100
AcDbLine
 62
250
  6
CONTINUOUS
 10
41.6320913066
 20
42.4720274267
 11
42.1342415897
 21
42.4517162814
  0
LWPOLYLINE
  5
365
100
AcDbEntity
  8
0
100
AcDbPolyline
 62
7
  6
CONTINUOUS
 90
13
 70
0
 43
0.3500000019
 10
-1.9285722656
 20
53.4142866211
 10
-2.2142875977
 20
53.6285717773
 10
-2.2142875977
 20
54.2714272461
 10
-1.9285722656
 20
54.6999975586
 10
-1.2857167969
 20
54.6999975586
 10
-1.0000014648
 20
54.2714272461
 10
-1.0000014648
 20
53.6285717773
 10
-1.2857167969
 20
53.4142866211
 10
-0.8571411133
 20
52.9857163086
 10
-0.8571411133
 20
52.1285703125
 10
-1.2857167969
 20
51.7
 10
-1.9285722656
 20
51.7
 10
-2.3571425781
 20
52.1285703125
  0
LWPOLYLINE
  5
366
100
AcDbEntity
  8
ASSI
100
AcDbPolyline
 62
250
  6
CONTINUOUS
 90
22
 70
0
 10
42.4515930429
 20
42.1344785684
 10
42.4497030638
 20
42.1573140193
 10
42.4461696408
 20
42.1798712784
 10
42.4409921685
 20
42.2021497999
 10
42.4341198723
 20
42.2242748666
 10
42.4256022799
 20
42.2461200592
 10
42.4155893651
 20
42.2673074135
 10
42.4040567854
 20
42.2878210527
 10
42.3910279845
 20
42.3076760725
 10
42.3767249488
 20
42.3265413157
 10
42.3611267528
 20
42.3444012959
 10
42.3442539562
 20
42.3612712504
 10
42.3263911841
 20
42.3768665291
 10
42.3075232612
 20
42.3911665392
 10
42.2876656004
 20
42.4041922411
 10
42.2671491223
 20
42.4157217348
 10
42.2459607283
 20
42.4257312942
 10
42.2241142753
 20
42.4342455565
 10
42.2019814557
 20
42.4411155069
 10
42.1796865857
 20
42.4462919435
 10
42.1571064531
 20
42.4498253309
 10
42.1342415897
 20
42.4517162814
  0
LWPOLYLINE
  5
367
100
AcDbEntity
  8
ASSI
100
AcDbPolyline
 62
250
  6
CONTINUOUS
 90
22
 70
0
 10
-42.1342212949
 20
42.4517194562
 10
-42.157093111
 20
42.4498274544
 10
-42.1796782769
 20
42.4462934777
 10
-42.2019762614
 20
42.4411169138
 10
-42.224109543
 20
42.4342474722
 10
-42.2459545402
 20
42.4257341817
 10
-42.2671417621
 20
42.4157255366
 10
-42.2876581462
 20
42.4041967277
 10
-42.3075159965
 20
42.3911716526
 10
-42.3263842101
 20
42.3768722053
 10
-42.3442473254
 20
42.3612774355
 10
-42.3611205663
 20
42.3444079257
 10
-42.3767192707
 20
42.3265482892
 10
-42.3910228688
 20
42.3076833373
 10
-42.4040522964
 20
42.2878285077
 10
-42.4155855608
 20
42.267314775
 10
-42.4255980132
 20
42.2461350231
 10
-42.4341152024
 20
42.2242971506
 10
-42.4409907601
 20
42.2021549961
 10
-42.4461763553
 20
42.1798269308
 10
-42.449721557
 20
42.1571957086
 10
-42.4516269687
 20
42.1342618723
  0
LWPOLYLINE
  5
368
100
AcDbEntity
  8
ASSI
100
AcDbPolyline
 62
250
  6
CONTINUOUS
 90
16
 70
0
 10
42.9090814841
 20
-42.1093556241
 10
42.9063796216
 20
-42.1113904431
 10
42.9004097669
 20
-42.1134118856
 10
42.8912111645
 20
-42.1154066633
 10
42.8788442836
 20
-42.1173616629
 10
42.8633904213
 20
-42.1192640327
 10
42.8449511675
 20
-42.121101267
 10
42.8236477374
 20
-42.1228612883
 10
42.7996201747
 20
-42.1245325266
 10
42.7730264308
 20
-42.1261039955
 10
42.7440413266
 20
-42.1275653647
 10
42.7128554032
 20
-42.1289070275
 10
42.6796736693
 20
-42.130120164
 10
42.6447142539
 20
-42.1311967994
 10
42.6082069715
 20
-42.1321298562
 10
42.5703918124
 20
-42.1329132006
  0
LWPOLYLINE
  5
369
100
AcDbEntity
  8
ASSI
100
AcDbPolyline
 62
250
  6
CONTINUOUS
 90
16
 70
0
 10
42.1093581624
 20
42.9090840223
 10
42.1113776939
 20
42.90638281
 10
42.1133839537
 20
42.9004146094
 10
42.115363757
 20
42.8912186419
 10
42.1173040931
 20
42.8788553412
 10
42.1191922107
 20
42.8634059554
 10
42.1210157016
 20
42.844972014
 10
42.1227625822
 20
42.82367466
 10
42.1244213725
 20
42.799653854
 10
42.1259811715
 20
42.7730674542
 10
42.1274317285
 20
42.7440901793
 10
42.1287635109
 20
42.7129124604
 10
42.1299677666
 20
42.679739189
 10
42.1310365814
 20
42.6447883709
 10
42.1319629316
 20
42.6082896934
 10
42.1327407293
 20
42.5704830162
  0
LINE
  5
36A
100
AcDbEntity
  8
ASSI
100
AcDbLine
 62
7
  6
CONTINUOUS
 10
-68.2214620425
 20
-42.9050176703
 11
-66.5036561765
 21
-42.95
  0
LWPOLYLINE
  5
36B
100
AcDbEntity
  8
ASSI
100
AcDbPolyline
 62
250
  6
CONTINUOUS
 90
19
 70
0
 10
-66.5036560526
 20
-42.1528974414
 10
-66.3904384016
 20
-42.1408566984
 10
-66.2766366821
 20
-42.1257214733
 10
-66.1623586077
 20
-42.1074917661
 10
-66.0480016008
 20
-42.0863181147
 10
-65.9333940347
 20
-42.0620499813
 10
-65.8178155481
 20
-42.0342357521
 10
-65.7009537325
 20
-42.0027613897
 10
-65.5834393164
 20
-41.9677409316
 10
-65.4659824175
 20
-41.9290648764
 10
-65.3482659219
 20
-41.8864158676
 10
-65.2309470252
 20
-41.8401112617
 10
-65.1161049447
 20
-41.7909936268
 10
-65.0037541574
 20
-41.7388105136
 10
-64.8940437918
 20
-41.6838143713
 10
-64.7890502012
 20
-41.6276051157
 10
-64.6893748934
 20
-41.570716052
 10
-64.5942696671
 20
-41.5126138749
 10
-64.5036562579
 20
-41.4532985845
  0
LINE
  5
36C
100
AcDbEntity
  8
ASSI
100
AcDbLine
 62
250
  6
CONTINUOUS
 10
-68.5374001056
 20
-42.1335416832
 11
-68.5507589421
 21
-42.1343185821
  0
LINE
  5
36D
100
AcDbEntity
  8
ASSI
100
AcDbLine
 62
250
  6
CONTINUOUS
 10
-68.0662712565
 20
-42.1093556241
 11
-68.5374001056
 21
-42.1335416832
  0
LINE
  5
36E
100
AcDbEntity
  8
ASSI
100
AcDbLine
 62
250
  6
CONTINUOUS
 10
-68.0662708888
 20
-42.1093556337
 11
-66.5036561765
 21
-42.15027414
  0
LWPOLYLINE
  5
36F
100
AcDbEntity
  8
ASSI
100
AcDbPolyline
 62
7
  6
CONTINUOUS
 90
4
 70
0
 10
-68.3325475316
 20
-42.8895262498
 10
-68.2834530735
 20
-42.8994995493
 10
-68.2456362498
 20
-42.9037607931
 10
-68.2194452768
 20
-42.9050704812
  0
LINE
  5
370
100
AcDbEntity
  8
0
100
AcDbLine
 62
7
  6
CONTINUOUS
 10
-72.4883763107
 20
-27.9801797807
 11
-72.5589535269
 21
-27.9801797807
  0
LINE
  5
371
100
AcDbEntity
  8
0
100
AcDbLine
 62
250
  6
CONTINUOUS
 10
-72.5696850395
 20
-27.3036609179
 11
-72.6402082354
 21
-27.3036609179
  0
LINE
  5
372
100
AcDbEntity
  8
0
100
AcDbLine
 62
7
  6
CONTINUOUS
 10
-72.6255988857
 20
-26.8133253901
 11
-72.6960832987
 21
-26.8133253901
  0
LINE
  5
373
100
AcDbEntity
  8
0
100
AcDbLine
 62
7
  6
CONTINUOUS
 10
-72.6271880691
 20
-26.7985541322
 11
-72.6976714431
 21
-26.7985541322
  0
LINE
  5
374
100
AcDbEntity
  8
0
100
AcDbLine
 62
7
  6
CONTINUOUS
 10
-72.723728151
 20
-26.5925250773
 11
-72.722318045
 21
-26.5925250773
  0
LINE
  5
375
100
AcDbEntity
  8
0
100
AcDbLine
 62
250
  6
CONTINUOUS
 10
-72.7527568707
 20
-25.5359677442
 11
-72.8231540526
 21
-25.5359677442
  0
LINE
  5
376
100
AcDbEntity
  8
SUPERFICI
100
AcDbLine
 62
7
  6
CONTINUOUS
 10
-72.7642951275
 20
-25.451114715
 11
-72.8346695537
 21
-25.451114715
  0
LWPOLYLINE
  5
377
100
AcDbEntity
  8
0
100
AcDbPolyline
 62
7
  6
CONTINUOUS
 90
9
 70
0
 10
-72.8346671866
 20
-25.451114715
 10
-72.8345657911
 20
-25.4511600875
 10
-72.8341740173
 20
-25.4519595597
 10
-72.8336784871
 20
-25.4538000126
 10
-72.8330849387
 20
-25.4567355078
 10
-72.832387634
 20
-25.4608244951
 10
-72.8315542021
 20
-25.466158573
 10
-72.8305914879
 20
-25.4729423492
 10
-72.8294926465
 20
-25.4813945227
  0
LINE
  5
378
100
AcDbEntity
  8
RACCORDO
100
AcDbLine
 62
250
  6
CONTINUOUS
 10
-72.8813611171
 20
22.2920472372
 11
-72.8814085765
 21
22.2920268249
  0
LWPOLYLINE
  5
379
100
AcDbEntity
  8
RACCORDO
100
AcDbPolyline
 62
250
  6
CONTINUOUS
 90
3
 70
0
 10
-72.8526776679
 20
-23.0885923924
 10
-72.8948052047
 20
-23.0935188546
 10
-72.9619995535
 20
-23.1013025313
  0
LINE
  5
37A
100
AcDbEntity
  8
RACCORDO
100
AcDbLine
 62
250
  6
CONTINUOUS
 10
-72.881361117
 20
-22.2920472378
 11
-72.8814085767
 21
-22.2920268209
  0
LINE
  5
37B
100
AcDbEntity
  8
ASSI
100
AcDbLine
 62
7
  6
CONTINUOUS
 10
-69.6208788596
 20
40.1190535331
 11
-69.7213740113
 21
39.8364737901
  0
LINE
  5
37C
100
AcDbEntity
  8
ASSI
100
AcDbLine
 62
7
  6
CONTINUOUS
 10
-69.5214934909
 20
40.3941348152
 11
-69.6208788596
 21
40.1190535331
  0
LINE
  5
37D
100
AcDbEntity
  8
ASSI
100
AcDbLine
 62
7
  6
CONTINUOUS
 10
-69.4232203167
 20
40.6620508089
 11
-69.5214934909
 21
40.3941348152
  0
LINE
  5
37E
100
AcDbEntity
  8
ASSI
100
AcDbLine
 62
7
  6
CONTINUOUS
 10
-69.3260590646
 20
40.923113185
 11
-69.4232203167
 21
40.6620508089
  0
LINE
  5
37F
100
AcDbEntity
  8
ASSI
100
AcDbLine
 62
7
  6
CONTINUOUS
 10
-69.230233587
 20
41.177018153
 11
-69.3260590646
 21
40.923113185
  0
LINE
  5
380
100
AcDbEntity
  8
ASSI
100
AcDbLine
 62
7
  6
CONTINUOUS
 10
-69.1206167221
 20
41.4633011255
 11
-69.230233587
 21
41.177018153
  0
LINE
  5
381
100
AcDbEntity
  8
ASSI
100
AcDbLine
 62
7
  6
CONTINUOUS
 10
-69.0137508388
 20
41.7382992302
 11
-69.1206167221
 21
41.4633011255
  0
LINE
  5
382
100
AcDbEntity
  8
ASSI
100
AcDbLine
 62
7
  6
CONTINUOUS
 10
-68.9102072269
 20
42.0010464389
 11
-69.0137508388
 21
41.7382992302
  0
LINE
  5
383
100
AcDbEntity
  8
ASSI
100
AcDbLine
 62
7
  6
CONTINUOUS
 10
-68.7976561409
 20
42.2826853279
 11
-68.9102072269
 21
42.0010464389
  0
LINE
  5
384
100
AcDbEntity
  8
ASSI
100
AcDbLine
 62
7
  6
CONTINUOUS
 10
-68.6929208115
 20
42.5412019395
 11
-68.7976561409
 21
42.2826853279
  0
LINE
  5
385
100
AcDbEntity
  8
ASSI
100
AcDbLine
 62
7
  6
CONTINUOUS
 10
-68.671192822
 20
42.594414965
 11
-68.6929208115
 21
42.5412019395
  0
LINE
  5
386
100
AcDbEntity
  8
ASSI
100
AcDbLine
 62
7
  6
CONTINUOUS
 10
-68.7706344328
 20
-42.3497058827
 11
-68.6711925896
 21
-42.5944155335
  0
LINE
  5
387
100
AcDbEntity
  8
ASSI
100
AcDbLine
 62
7
  6
CONTINUOUS
 10
-68.8814470552
 20
-42.0733999643
 11
-68.7706344328
 21
-42.3497058827
  0
LINE
  5
388
100
AcDbEntity
  8
ASSI
100
AcDbLine
 62
7
  6
CONTINUOUS
 10
-68.9837685898
 20
-41.8147488352
 11
-68.8814470552
 21
-42.0733999643
  0
LINE
  5
389
100
AcDbEntity
  8
ASSI
100
AcDbLine
 62
7
  6
CONTINUOUS
 10
-69.0897888734
 20
-41.5430381441
 11
-68.9837685898
 21
-41.8147488352
  0
LINE
  5
38A
100
AcDbEntity
  8
ASSI
100
AcDbLine
 62
7
  6
CONTINUOUS
 10
-69.1986524211
 20
-41.2599454542
 11
-69.0897888734
 21
-41.5430381441
  0
LINE
  5
38B
100
AcDbEntity
  8
ASSI
100
AcDbLine
 62
7
  6
CONTINUOUS
 10
-69.2939474094
 20
-41.0085856955
 11
-69.1986524211
 21
-41.2599454542
  0
LINE
  5
38C
100
AcDbEntity
  8
ASSI
100
AcDbLine
 62
7
  6
CONTINUOUS
 10
-69.390704895
 20
-40.7498314305
 11
-69.2939474094
 21
-41.0085856955
  0
LINE
  5
38D
100
AcDbEntity
  8
ASSI
100
AcDbLine
 62
7
  6
CONTINUOUS
 10
-69.4886110169
 20
-40.4842235751
 11
-69.390704895
 21
-40.7498314305
  0
LINE
  5
38E
100
AcDbEntity
  8
ASSI
100
AcDbLine
 62
7
  6
CONTINUOUS
 10
-69.5876252561
 20
-40.211568142
 11
-69.4886110169
 21
-40.4842235751
  0
LINE
  5
38F
100
AcDbEntity
  8
ASSI
100
AcDbLine
 62
7
  6
CONTINUOUS
 10
-69.6877515198
 20
-39.9315247332
 11
-69.5876252561
 21
-40.211568142
  0
LINE
  5
390
100
AcDbEntity
  8
ASSI
100
AcDbLine
 62
7
  6
CONTINUOUS
 10
-69.7213724426
 20
-39.8364782371
 11
-69.6877515198
 21
-39.9315247332
  0
LINE
  5
391
100
AcDbEntity
  8
ASSI
100
AcDbLine
 62
7
  6
CONTINUOUS
 10
-70.9672568504
 20
35.8434300817
 11
-71.0454822003
 21
35.5513735119
  0
LINE
  5
392
100
AcDbEntity
  8
ASSI
100
AcDbLine
 62
7
  6
CONTINUOUS
 10
-70.8892753743
 20
36.128187332
 11
-70.9672568504
 21
35.8434300817
  0
LINE
  5
393
100
AcDbEntity
  8
ASSI
100
AcDbLine
 62
7
  6
CONTINUOUS
 10
-70.8117941112
 20
36.4052124933
 11
-70.8892753743
 21
36.128187332
  0
LINE
  5
394
100
AcDbEntity
  8
ASSI
100
AcDbLine
 62
7
  6
CONTINUOUS
 10
-70.7350963485
 20
36.6739997754
 11
-70.8117941112
 21
36.4052124933
  0
LINE
  5
395
100
AcDbEntity
  8
ASSI
100
AcDbLine
 62
7
  6
CONTINUOUS
 10
-70.6594755674
 20
36.9340309208
 11
-70.7350963485
 21
36.6739997754
  0
LINE
  5
396
100
AcDbEntity
  8
ASSI
100
AcDbLine
 62
7
  6
CONTINUOUS
 10
-70.5849120391
 20
37.1858556894
 11
-70.6594755674
 21
36.9340309208
  0
LINE
  5
397
100
AcDbEntity
  8
ASSI
100
AcDbLine
 62
7
  6
CONTINUOUS
 10
-70.5111132693
 20
37.4308675215
 11
-70.5849120391
 21
37.1858556894
  0
LINE
  5
398
100
AcDbEntity
  8
ASSI
100
AcDbLine
 62
7
  6
CONTINUOUS
 10
-70.438022401
 20
37.6695926068
 11
-70.5111132693
 21
37.4308675215
  0
LINE
  5
399
100
AcDbEntity
  8
ASSI
100
AcDbLine
 62
7
  6
CONTINUOUS
 10
-70.3475769473
 20
37.9598614145
 11
-70.438022401
 21
37.6695926068
  0
LINE
  5
39A
100
AcDbEntity
  8
ASSI
100
AcDbLine
 62
7
  6
CONTINUOUS
 10
-70.2580745201
 20
38.2418087221
 11
-70.3475769473
 21
37.9598614145
  0
LINE
  5
39B
100
AcDbEntity
  8
ASSI
100
AcDbLine
 62
7
  6
CONTINUOUS
 10
-70.1694552655
 20
38.516068562
 11
-70.2580745201
 21
38.2418087221
  0
LINE
  5
39C
100
AcDbEntity
  8
ASSI
100
AcDbLine
 62
7
  6
CONTINUOUS
 10
-70.0816797631
 20
38.7831564191
 11
-70.1694552655
 21
38.516068562
  0
LINE
  5
39D
100
AcDbEntity
  8
ASSI
100
AcDbLine
 62
7
  6
CONTINUOUS
 10
-69.9946957964
 20
39.0435806054
 11
-70.0816797631
 21
38.7831564191
  0
LINE
  5
39E
100
AcDbEntity
  8
ASSI
100
AcDbLine
 62
7
  6
CONTINUOUS
 10
-69.9084575097
 20
39.2977892887
 11
-69.9946957964
 21
39.0435806054
  0
LINE
  5
39F
100
AcDbEntity
  8
ASSI
100
AcDbLine
 62
7
  6
CONTINUOUS
 10
-69.8229674183
 20
39.5460560026
 11
-69.9084575097
 21
39.2977892887
  0
LWPOLYLINE
  5
3A0
100
AcDbEntity
  8
ASSI
100
AcDbPolyline
 62
7
  6
CONTINUOUS
 90
3
 70
0
 10
-69.7213740113
 20
39.8364737901
 10
-69.7382305297
 20
39.7886241163
 10
-69.8229674183
 20
39.5460560026
  0
LINE
  5
3A1
100
AcDbEntity
  8
ASSI
100
AcDbLine
 62
7
  6
CONTINUOUS
 10
-69.8059577534
 20
-39.5950234708
 11
-69.7213724426
 21
-39.8364782371
  0
LINE
  5
3A2
100
AcDbEntity
  8
ASSI
100
AcDbLine
 62
7
  6
CONTINUOUS
 10
-69.8912984755
 20
-39.34791281
 11
-69.8059577534
 21
-39.5950234708
  0
LINE
  5
3A3
100
AcDbEntity
  8
ASSI
100
AcDbLine
 62
7
  6
CONTINUOUS
 10
-69.9773869336
 20
-39.0949148278
 11
-69.8912984755
 21
-39.34791281
  0
LINE
  5
3A4
100
AcDbEntity
  8
ASSI
100
AcDbLine
 62
7
  6
CONTINUOUS
 10
-70.0642200921
 20
-38.8357625386
 11
-69.9773869336
 21
-39.0949148278
  0
LINE
  5
3A5
100
AcDbEntity
  8
ASSI
100
AcDbLine
 62
7
  6
CONTINUOUS
 10
-70.1518332303
 20
-38.5700463609
 11
-70.0642200921
 21
-38.8357625386
  0
LINE
  5
3A6
100
AcDbEntity
  8
ASSI
100
AcDbLine
 62
7
  6
CONTINUOUS
 10
-70.2402798926
 20
-38.2972627937
 11
-70.1518332303
 21
-38.5700463609
  0
LINE
  5
3A7
100
AcDbEntity
  8
ASSI
100
AcDbLine
 62
7
  6
CONTINUOUS
 10
-70.3296011047
 20
-38.0169012141
 11
-70.2402798926
 21
-38.2972627937
  0
LINE
  5
3A8
100
AcDbEntity
  8
ASSI
100
AcDbLine
 62
7
  6
CONTINUOUS
 10
-70.4198542099
 20
-37.7283472005
 11
-70.3296011047
 21
-38.0169012141
  0
LINE
  5
3A9
100
AcDbEntity
  8
ASSI
100
AcDbLine
 62
7
  6
CONTINUOUS
 10
-70.4927744057
 20
-37.4911251732
 11
-70.4198542099
 21
-37.7283472005
  0
LINE
  5
3AA
100
AcDbEntity
  8
ASSI
100
AcDbLine
 62
7
  6
CONTINUOUS
 10
-70.5663911953
 20
-37.2477316038
 11
-70.4927744057
 21
-37.4911251732
  0
LINE
  5
3AB
100
AcDbEntity
  8
ASSI
100
AcDbLine
 62
7
  6
CONTINUOUS
 10
-70.6407594422
 20
-36.9976578767
 11
-70.5663911953
 21
-37.2477316038
  0
LINE
  5
3AC
100
AcDbEntity
  8
ASSI
100
AcDbLine
 62
7
  6
CONTINUOUS
 10
-70.716081297
 20
-36.7398393339
 11
-70.6407594422
 21
-36.9976578767
  0
LINE
  5
3AD
100
AcDbEntity
  8
ASSI
100
AcDbLine
 62
7
  6
CONTINUOUS
 10
-70.7925343808
 20
-36.4732035526
 11
-70.716081297
 21
-36.7398393339
  0
LINE
  5
3AE
100
AcDbEntity
  8
ASSI
100
AcDbLine
 62
7
  6
CONTINUOUS
 10
-70.869845246
 20
-36.198195354
 11
-70.7925343808
 21
-36.4732035526
  0
LINE
  5
3AF
100
AcDbEntity
  8
ASSI
100
AcDbLine
 62
7
  6
CONTINUOUS
 10
-70.947727959
 20
-35.915323388
 11
-70.869845246
 21
-36.198195354
  0
LWPOLYLINE
  5
3B0
100
AcDbEntity
  8
ASSI
100
AcDbPolyline
 62
7
  6
CONTINUOUS
 90
3
 70
0
 10
-71.0454809644
 20
-35.5513781793
 10
-71.0259158795
 20
-35.6250516298
 10
-70.947727959
 20
-35.915323388
  0
LINE
  5
3B1
100
AcDbEntity
  8
ASSI
100
AcDbLine
 62
7
  6
CONTINUOUS
 10
-71.8642268559
 20
31.9601012335
 11
-71.9178676477
 21
31.6806390652
  0
LINE
  5
3B2
100
AcDbEntity
  8
ASSI
100
AcDbLine
 62
7
  6
CONTINUOUS
 10
-71.8084519845
 20
32.2440916243
 11
-71.8642268559
 21
31.9601012335
  0
LINE
  5
3B3
100
AcDbEntity
  8
ASSI
100
AcDbLine
 62
7
  6
CONTINUOUS
 10
-71.7523972133
 20
32.5229680667
 11
-71.8084519845
 21
32.2440916243
  0
LINE
  5
3B4
100
AcDbEntity
  8
ASSI
100
AcDbLine
 62
7
  6
CONTINUOUS
 10
-71.6977294721
 20
32.7886237394
 11
-71.7523972133
 21
32.5229680667
  0
LINE
  5
3B5
100
AcDbEntity
  8
ASSI
100
AcDbLine
 62
7
  6
CONTINUOUS
 10
-71.6437448495
 20
33.0449162417
 11
-71.6977294721
 21
32.7886237394
  0
LINE
  5
3B6
100
AcDbEntity
  8
ASSI
100
AcDbLine
 62
7
  6
CONTINUOUS
 10
-71.5866862274
 20
33.3094667184
 11
-71.6437448495
 21
33.0449162417
  0
LINE
  5
3B7
100
AcDbEntity
  8
ASSI
100
AcDbLine
 62
7
  6
CONTINUOUS
 10
-71.5297756285
 20
33.5671148814
 11
-71.5866873999
 21
33.3094613473
  0
LINE
  5
3B8
100
AcDbEntity
  8
ASSI
100
AcDbLine
 62
7
  6
CONTINUOUS
 10
-71.4768487398
 20
33.8014275015
 11
-71.5297756285
 21
33.5671148814
  0
LINE
  5
3B9
100
AcDbEntity
  8
ASSI
100
AcDbLine
 62
7
  6
CONTINUOUS
 10
-71.4167561647
 20
34.0616042333
 11
-71.4768487398
 21
33.8014275015
  0
LINE
  5
3BA
100
AcDbEntity
  8
ASSI
100
AcDbLine
 62
7
  6
CONTINUOUS
 10
-71.3499076268
 20
34.3441437175
 11
-71.4167561647
 21
34.0616042333
  0
LINE
  5
3BB
100
AcDbEntity
  8
ASSI
100
AcDbLine
 62
7
  6
CONTINUOUS
 10
-71.2960658055
 20
34.5667529959
 11
-71.3499076268
 21
34.3441437175
  0
LINE
  5
3BC
100
AcDbEntity
  8
ASSI
100
AcDbLine
 62
7
  6
CONTINUOUS
 10
-71.2398830836
 20
34.7946033245
 11
-71.2960658055
 21
34.5667529959
  0
LINE
  5
3BD
100
AcDbEntity
  8
ASSI
100
AcDbLine
 62
7
  6
CONTINUOUS
 10
-71.1821482054
 20
35.0242872399
 11
-71.2398830836
 21
34.7946033245
  0
LINE
  5
3BE
100
AcDbEntity
  8
ASSI
100
AcDbLine
 62
7
  6
CONTINUOUS
 10
-71.1236877613
 20
35.2525057356
 11
-71.1821482054
 21
35.0242872399
  0
LWPOLYLINE
  5
3BF
100
AcDbEntity
  8
ASSI
100
AcDbPolyline
 62
7
  6
CONTINUOUS
 90
3
 70
0
 10
-71.0454822003
 20
35.5513735119
 10
-71.0650482748
 20
35.4772656773
 10
-71.1236877613
 20
35.2525057356
  0
LINE
  5
3C0
100
AcDbEntity
  8
ASSI
100
AcDbLine
 62
7
  6
CONTINUOUS
 10
-71.1041517765
 20
-35.3278365317
 11
-71.0454809644
 21
-35.5513781793
  0
LINE
  5
3C1
100
AcDbEntity
  8
ASSI
100
AcDbLine
 62
7
  6
CONTINUOUS
 10
-71.1626859362
 20
-35.1007383009
 11
-71.1041517765
 21
-35.3278365317
  0
LINE
  5
3C2
100
AcDbEntity
  8
ASSI
100
AcDbLine
 62
7
  6
CONTINUOUS
 10
-71.2207452184
 20
-34.8712270616
 11
-71.1626859362
 21
-35.1007383009
  0
LINE
  5
3C3
100
AcDbEntity
  8
ASSI
100
AcDbLine
 62
7
  6
CONTINUOUS
 10
-71.2775399502
 20
-34.6423735479
 11
-71.2207452184
 21
-34.8712270616
  0
LINE
  5
3C4
100
AcDbEntity
  8
ASSI
100
AcDbLine
 62
7
  6
CONTINUOUS
 10
-71.3322445417
 20
-34.4176451656
 11
-71.2775399502
 21
-34.6423735479
  0
LINE
  5
3C5
100
AcDbEntity
  8
ASSI
100
AcDbLine
 62
7
  6
CONTINUOUS
 10
-71.4006433917
 20
-34.1303521302
 11
-71.3322445417
 21
-34.4176451656
  0
LINE
  5
3C6
100
AcDbEntity
  8
ASSI
100
AcDbLine
 62
7
  6
CONTINUOUS
 10
-71.4624978418
 20
-33.8641147069
 11
-71.4006433917
 21
-34.1303521302
  0
LINE
  5
3C7
100
AcDbEntity
  8
ASSI
100
AcDbLine
 62
7
  6
CONTINUOUS
 10
-71.5172143165
 20
-33.6231772155
 11
-71.4624978418
 21
-33.8641147069
  0
LINE
  5
3C8
100
AcDbEntity
  8
ASSI
100
AcDbLine
 62
7
  6
CONTINUOUS
 10
-71.5760430881
 20
-33.358113717
 11
-71.5172143165
 21
-33.6231772155
  0
LINE
  5
3C9
100
AcDbEntity
  8
ASSI
100
AcDbLine
 62
7
  6
CONTINUOUS
 10
-71.6349844588
 20
-33.0859506474
 11
-71.5760430881
 21
-33.358113717
  0
LINE
  5
3CA
100
AcDbEntity
  8
ASSI
100
AcDbLine
 62
7
  6
CONTINUOUS
 10
-71.6907465948
 20
-32.8221102989
 11
-71.6349844588
 21
-33.0859506474
  0
LINE
  5
3CB
100
AcDbEntity
  8
ASSI
100
AcDbLine
 62
7
  6
CONTINUOUS
 10
-71.7469617334
 20
-32.5496604615
 11
-71.6907465948
 21
-32.8221102989
  0
LINE
  5
3CC
100
AcDbEntity
  8
ASSI
100
AcDbLine
 62
7
  6
CONTINUOUS
 10
-71.8043395906
 20
-32.2647742712
 11
-71.7469617334
 21
-32.5496604615
  0
LINE
  5
3CD
100
AcDbEntity
  8
ASSI
100
AcDbLine
 62
7
  6
CONTINUOUS
 10
-71.8612067308
 20
-31.9756452028
 11
-71.8043395906
 21
-32.2647742712
  0
LWPOLYLINE
  5
3CE
100
AcDbEntity
  8
ASSI
100
AcDbPolyline
 62
7
  6
CONTINUOUS
 90
3
 70
0
 10
-71.917867648
 20
-31.6806390634
 10
-71.9155557645
 20
-31.6928276687
 10
-71.8612067308
 20
-31.9756452028
  0
LINE
  5
3CF
100
AcDbEntity
  8
0
100
AcDbLine
 62
7
  6
CONTINUOUS
 10
-72.8250266583
 20
-25.5187867199
 11
-72.8217634284
 21
-25.5487533046
  0
LINE
  5
3D0
100
AcDbEntity
  8
0
100
AcDbLine
 62
7
  6
CONTINUOUS
 10
-72.6255988857
 20
-26.8133253901
 11
-72.6271880691
 21
-26.7985541322
  0
LINE
  5
3D1
100
AcDbEntity
  8
0
100
AcDbLine
 62
7
  6
CONTINUOUS
 10
-72.6979756598
 20
-26.7957113765
 11
-72.6960832987
 21
-26.8133253901
  0
LINE
  5
3D2
100
AcDbEntity
  8
0
100
AcDbLine
 62
7
  6
CONTINUOUS
 10
-72.7278977674
 20
-26.5929664757
 11
-72.6953068832
 21
-26.8912049062
  0
LINE
  5
3D3
100
AcDbEntity
  8
0
100
AcDbLine
 62
7
  6
CONTINUOUS
 10
-72.749799338
 20
-25.563873791
 11
-72.7527568638
 21
-25.5359678339
  0
LINE
  5
3D4
100
AcDbEntity
  8
0
100
AcDbLine
 62
7
  6
CONTINUOUS
 10
-72.6922110744
 20
-26.904018567
 11
-72.7257929956
 21
-26.5927410836
  0
LINE
  5
3D5
100
AcDbEntity
  8
0
100
AcDbLine
 62
7
  6
CONTINUOUS
 10
-72.7628215945
 20
-26.2129273411
 11
-72.723728151
 21
-26.5925250773
  0
LINE
  5
3D6
100
AcDbEntity
  8
0
100
AcDbLine
 62
7
  6
CONTINUOUS
 10
-72.8217634284
 20
-25.5487533046
 11
-72.8107937772
 21
-25.6568824001
  0
LINE
  5
3D7
100
AcDbEntity
  8
0
100
AcDbLine
 62
7
  6
CONTINUOUS
 10
-72.7311288678
 20
-25.7503532664
 11
-72.749799338
 21
-25.563873791
  0
LINE
  5
3D8
100
AcDbEntity
  8
0
100
AcDbLine
 62
7
  6
CONTINUOUS
 10
-72.7930300991
 20
-25.906298925
 11
-72.7628215945
 21
-26.2129273411
  0
LWPOLYLINE
  5
3D9
100
AcDbEntity
  8
0
100
AcDbPolyline
 62
7
  6
CONTINUOUS
 90
3
 70
0
 10
-72.8107937772
 20
-25.6568824001
 10
-72.6989528003
 20
-26.7847540201
 10
-72.6979756598
 20
-26.7957113765
  0
LINE
  5
3DA
100
AcDbEntity
  8
0
100
AcDbLine
 62
7
  6
CONTINUOUS
 10
-72.836733011
 20
-25.5100067269
 11
-72.7684876629
 21
-26.2051483403
  0
LINE
  5
3DB
100
AcDbEntity
  8
0
100
AcDbLine
 62
7
  6
CONTINUOUS
 10
-72.7976277127
 20
-25.8830665044
 11
-72.8329789272
 21
-25.5096494116
  0
LINE
  5
3DC
100
AcDbEntity
  8
0
100
AcDbLine
 62
7
  6
CONTINUOUS
 10
-72.8081725614
 20
-25.0920136835
 11
-72.775507755
 21
-25.4521317656
  0
LWPOLYLINE
  5
3DD
100
AcDbEntity
  8
0
100
AcDbPolyline
 62
7
  6
CONTINUOUS
 90
4
 70
0
 10
-72.6271880691
 20
-26.7985541322
 10
-72.6275174697
 20
-26.7948185135
 10
-72.6279727888
 20
-26.7899335422
 10
-72.7311288678
 20
-25.7503532664
  0
LWPOLYLINE
  5
3DE
100
AcDbEntity
  8
0
100
AcDbPolyline
 62
7
  6
CONTINUOUS
 90
4
 70
0
 10
-72.9048440189
 20
-23.9072989061
 10
-72.8741038404
 20
-24.3054411365
 10
-72.841887458
 20
-24.7003460623
 10
-72.8081725614
 20
-25.0920136835
  0
LINE
  5
3DF
100
AcDbEntity
  8
0
100
AcDbLine
 62
7
  6
CONTINUOUS
 10
-72.9619995535
 20
-23.1013025313
 11
-72.9048440189
 21
-23.9072989061
  0
LINE
  5
3E0
100
AcDbEntity
  8
0
100
AcDbLine
 62
7
  6
CONTINUOUS
 10
-72.7935307501
 20
-25.8987968114
 11
-72.7930300991
 21
-25.906298925
  0
LINE
  5
3E1
100
AcDbEntity
  8
0
100
AcDbLine
 62
7
  6
CONTINUOUS
 10
-72.8329789272
 20
-25.5096494116
 11
-72.8334320104
 21
-25.5019415604
  0
LWPOLYLINE
  5
3E2
100
AcDbEntity
  8
RACCORDO
100
AcDbPolyline
 62
7
  6
CONTINUOUS
 90
6
 70
0
 10
-72.9619995535
 20
23.1013025313
 10
-72.8145287791
 20
25.019741339
 10
-72.6320644029
 20
26.863130367
 10
-72.413235465
 20
28.6314696153
 10
-72.160181434
 20
30.3115217181
 10
-71.9178682433
 20
31.6806359234
  0
LWPOLYLINE
  5
3E3
100
AcDbEntity
  8
0
100
AcDbPolyline
 62
7
  6
CONTINUOUS
 90
3
 70
0
 43
0.3500000019
 10
-59.932192627
 20
51.985715332
 10
-60.0036207886
 20
51.7714301758
 10
-60.1464784546
 20
51.4857148438
  0
LWPOLYLINE
  5
3E4
100
AcDbEntity
  8
0
100
AcDbPolyline
 62
7
  6
CONTINUOUS
 90
4
 70
0
 10
-72.4962234557
 20
-28.0035833478
 10
-72.2937590272
 20
-29.4633487363
 10
-72.0637160641
 20
-30.879824052
 10
-71.9178682414
 20
-31.6806359331
  0
LWPOLYLINE
  5
3E5
100
AcDbEntity
  8
0
100
AcDbPolyline
 62
7
  6
CONTINUOUS
 90
10
 70
0
 10
-72.7578119496
 20
-25.4917378276
 10
-72.7591026527
 20
-25.4813378146
 10
-72.7602053999
 20
-25.4730090861
 10
-72.7611717587
 20
-25.4661493803
 10
-72.7620082079
 20
-25.4606796016
 10
-72.7627083385
 20
-25.4566788457
 10
-72.763304321
 20
-25.4537821381
 10
-72.7638015759
 20
-25.4519285122
 10
-72.7641944806
 20
-25.4511789346
 10
-72.7642926415
 20
-25.4511420889
  0
LINE
  5
3E6
100
AcDbEntity
  8
0
100
AcDbLine
 62
7
  6
CONTINUOUS
 10
-72.6960832987
 20
-26.8133253901
 11
-72.6946276294
 21
-26.8250935345
  0
LWPOLYLINE
  5
3E7
100
AcDbEntity
  8
0
100
AcDbPolyline
 62
7
  6
CONTINUOUS
 90
3
 70
0
 10
-72.8294926465
 20
-25.4813945227
 10
-72.8267102317
 20
-25.5041060572
 10
-72.8250266583
 20
-25.5187867199
  0
LINE
  5
3E8
100
AcDbEntity
  8
0
100
AcDbLine
 62
7
  6
CONTINUOUS
 10
-72.6039931305
 20
-27.6117982536
 11
-72.5589535269
 21
-27.9801797807
  0
LINE
  5
3E9
100
AcDbEntity
  8
0
100
AcDbLine
 62
7
  6
CONTINUOUS
 10
-72.4883763107
 20
-27.9801797807
 11
-72.5335385046
 21
-27.6110192517
  0
LINE
  5
3EA
100
AcDbEntity
  8
0
100
AcDbLine
 62
7
  6
CONTINUOUS
 10
-72.4989547498
 20
-27.9801529117
 11
-72.4962234557
 21
-28.0035833478
  0
LINE
  5
3EB
100
AcDbEntity
  8
0
100
AcDbLine
 62
7
  6
CONTINUOUS
 10
-72.5335385046
 20
-27.6110192517
 11
-72.5696850466
 21
-27.3036608576
  0
LINE
  5
3EC
100
AcDbEntity
  8
0
100
AcDbLine
 62
7
  6
CONTINUOUS
 10
-72.6178604385
 20
-26.8799962742
 11
-72.6255988857
 21
-26.8133253901
  0
LINE
  5
3ED
100
AcDbEntity
  8
0
100
AcDbLine
 62
7
  6
CONTINUOUS
 10
-72.6953068832
 20
-26.8912049062
 11
-72.6827117895
 21
-27.002442131
  0
LINE
  5
3EE
100
AcDbEntity
  8
0
100
AcDbLine
 62
7
  6
CONTINUOUS
 10
-72.5696850466
 20
-27.3036608576
 11
-72.6178604385
 21
-26.8799962742
  0
LINE
  5
3EF
100
AcDbEntity
  8
0
100
AcDbLine
 62
7
  6
CONTINUOUS
 10
-72.6946276294
 20
-26.8250935345
 11
-72.6039931305
 21
-27.6117982536
  0
LWPOLYLINE
  5
3F0
100
AcDbEntity
  8
0
100
AcDbPolyline
 62
7
  6
CONTINUOUS
 90
3
 70
0
 10
-72.7527568638
 20
-25.5359678339
 10
-72.7546310324
 20
-25.5191532141
 10
-72.7578119496
 20
-25.4917378276
  0
LINE
  5
3F1
100
AcDbEntity
  8
0
100
AcDbLine
 62
7
  6
CONTINUOUS
 10
-72.8334320104
 20
-25.5019415604
 11
-72.8341980339
 21
-25.487643882
  0
LINE
  5
3F2
100
AcDbEntity
  8
RACCORDO
100
AcDbLine
 62
250
  6
CONTINUOUS
 10
-72.9120378709
 20
-21.6426662792
 11
-72.8813611171
 21
-22.2920472372
  0
LWPOLYLINE
  5
3F3
100
AcDbEntity
  8
0
100
AcDbPolyline
 62
7
  6
CONTINUOUS
 90
10
 70
0
 10
-72.8341980339
 20
-25.487643882
 10
-72.8347855643
 20
-25.4751792936
 10
-72.8349967122
 20
-25.4697397331
 10
-72.8351490503
 20
-25.4648913715
 10
-72.8352421282
 20
-25.4606875512
 10
-72.8352620484
 20
-25.4571751228
 10
-72.8352093257
 20
-25.4544093443
 10
-72.8350834453
 20
-25.452446868
 10
-72.8348689654
 20
-25.4513435387
 10
-72.8346671866
 20
-25.451114715
  0
LINE
  5
3F4
100
AcDbEntity
  8
RACCORDO
100
AcDbLine
 62
7
  6
CONTINUOUS
 10
-72.8814085767
 20
-22.2920268209
 11
-72.8681529895
 21
-22.5733752518
  0
LWPOLYLINE
  5
3F5
100
AcDbEntity
  8
RACCORDO
100
AcDbPolyline
 62
250
  6
CONTINUOUS
 90
3
 70
0
 10
-72.9639644384
 20
-20.4063595488
 10
-72.9394306262
 20
-21.0141037164
 10
-72.9120378709
 20
-21.6426662792
  0
LINE
  5
3F6
100
AcDbEntity
  8
RACCORDO
100
AcDbLine
 62
7
  6
CONTINUOUS
 10
-72.8681529895
 20
-22.5733752518
 11
-72.8596765148
 21
-22.7719570279
  0
LINE
  5
3F7
100
AcDbEntity
  8
RACCORDO
100
AcDbLine
 62
250
  6
CONTINUOUS
 10
-72.859703578
 20
-22.7696870977
 11
-72.8596765148
 21
-22.7719570279
  0
LINE
  5
3F8
100
AcDbEntity
  8
RACCORDO
100
AcDbLine
 62
7
  6
CONTINUOUS
 10
-72.8596765148
 20
-22.7719570279
 11
-72.8555136126
 21
-22.8816288752
  0
LINE
  5
3F9
100
AcDbEntity
  8
RACCORDO
100
AcDbLine
 62
250
  6
CONTINUOUS
 10
-73.0054671653
 20
-19.2580932333
 11
-72.9639644384
 21
-20.4063595488
  0
LINE
  5
3FA
100
AcDbEntity
  8
RACCORDO
100
AcDbLine
 62
7
  6
CONTINUOUS
 10
-72.8555136126
 20
-22.8816288752
 11
-72.8535582154
 21
-22.9405407659
  0
LINE
  5
3FB
100
AcDbEntity
  8
RACCORDO
100
AcDbLine
 62
250
  6
CONTINUOUS
 10
-73.0394322704
 20
-18.171833031
 11
-73.0054671653
 21
-19.2580932333
  0
LINE
  5
3FC
100
AcDbEntity
  8
RACCORDO
100
AcDbLine
 62
250
  6
CONTINUOUS
 10
-73.0676747105
 20
-17.1327285798
 11
-73.0394322704
 21
-18.171833031
  0
LINE
  5
3FD
100
AcDbEntity
  8
RACCORDO
100
AcDbLine
 62
7
  6
CONTINUOUS
 10
-72.8535582154
 20
-22.9405407659
 11
-72.8524222439
 21
-22.9806061152
  0
LWPOLYLINE
  5
3FE
100
AcDbEntity
  8
RACCORDO
100
AcDbPolyline
 62
7
  6
CONTINUOUS
 90
5
 70
0
 10
-72.8515048545
 20
23.0493433221
 10
-72.8514900894
 20
23.0487250868
 10
-72.8514701343
 20
23.0475970196
 10
-72.8514490586
 20
23.0458487058
 10
-72.8514334762
 20
23.0436223698
  0
LINE
  5
3FF
100
AcDbEntity
  8
RACCORDO
100
AcDbLine
 62
7
  6
CONTINUOUS
 10
-72.8524222439
 20
-22.9806061152
 11
-72.8519560343
 21
-23.0006023133
  0
LINE
  5
400
100
AcDbEntity
  8
RACCORDO
100
AcDbLine
 62
250
  6
CONTINUOUS
 10
-72.8517296702
 20
-23.0122670533
 11
-72.8513291226
 21
-23.0207661118
  0
LINE
  5
401
100
AcDbEntity
  8
RACCORDO
100
AcDbLine
 62
250
  6
CONTINUOUS
 10
-73.1032440952
 20
-15.58582128
 11
-73.1026536009
 21
-15.61113204
  0
LINE
  5
402
100
AcDbEntity
  8
RACCORDO
100
AcDbLine
 62
7
  6
CONTINUOUS
 10
-72.8519560343
 20
-23.0006023133
 11
-72.851640977
 21
-23.0175677708
  0
LWPOLYLINE
  5
403
100
AcDbEntity
  8
RACCORDO
100
AcDbPolyline
 62
250
  6
CONTINUOUS
 90
7
 70
0
 10
-72.8515114019
 20
-23.027080631
 10
-72.8510336667
 20
-23.0403717475
 10
-72.8509207483
 20
-23.0572015265
 10
-72.8510237944
 20
-23.0705127503
 10
-72.8513552943
 20
-23.0800578528
 10
-72.8519061545
 20
-23.0860844002
 10
-72.8526776679
 20
-23.0885923924
  0
LINE
  5
404
100
AcDbEntity
  8
RACCORDO
100
AcDbLine
 62
7
  6
CONTINUOUS
 10
-72.851640977
 20
-23.0175677708
 11
-72.8515114019
 21
-23.027080631
  0
LINE
  5
405
100
AcDbEntity
  8
RACCORDO
100
AcDbLine
 62
7
  6
CONTINUOUS
 10
-72.8515114019
 20
-23.027080631
 11
-72.8514425171
 21
-23.0351035554
  0
LWPOLYLINE
  5
406
100
AcDbEntity
  8
RACCORDO
100
AcDbPolyline
 62
250
  6
CONTINUOUS
 90
3
 70
0
 10
-72.8526776679
 20
-23.0885923924
 10
-72.852831692
 20
-23.0578093352
 10
-72.8514345299
 20
-23.0435456328
  0
LWPOLYLINE
  5
407
100
AcDbEntity
  8
RACCORDO
100
AcDbPolyline
 62
7
  6
CONTINUOUS
 90
10
 70
0
 10
-73.2725666017
 20
-0.0
 10
-73.2650181497
 20
-2.725169651
 10
-73.2446746949
 20
-5.4529498703
 10
-73.2159815927
 20
-8.1027258624
 10
-73.1827940881
 20
-10.674718279
 10
-73.1468159808
 20
-13.1691739952
 10
-73.1032440952
 20
-15.58582128
 10
-73.0465852948
 20
-17.9242636278
 10
-72.9725177391
 20
-20.1844055624
 10
-72.8814085767
 20
-22.2920268198
  0
LWPOLYLINE
  5
408
100
AcDbEntity
  8
RACCORDO
100
AcDbPolyline
 62
250
  6
CONTINUOUS
 90
3
 70
0
 10
-73.2721350717
 20
-0.5979510676
 10
-73.2710343742
 20
-1.1835583706
 10
-73.2650181497
 20
-2.725169651
  0
LWPOLYLINE
  5
409
100
AcDbEntity
  8
RACCORDO
100
AcDbPolyline
 62
7
  6
CONTINUOUS
 90
6
 70
0
 10
-72.8514425171
 20
-23.0351035554
 10
-72.8514275508
 20
-23.0415494738
 10
-72.8514365769
 20
-23.0441311263
 10
-72.8514536544
 20
-23.0462769576
 10
-72.8514740762
 20
-23.047857246
 10
-72.8514937759
 20
-23.0489315127
  0
LINE
  5
40A
100
AcDbEntity
  8
RACCORDO
100
AcDbLine
 62
7
  6
CONTINUOUS
 10
-72.8514334762
 20
23.0436223698
 11
-72.8514308562
 21
23.0377491775
  0
LWPOLYLINE
  5
40B
100
AcDbEntity
  8
RACCORDO
100
AcDbPolyline
 62
250
  6
CONTINUOUS
 90
3
 70
0
 10
-72.8526776679
 20
23.0885923924
 10
-72.8528316647
 20
23.0578087535
 10
-72.8514332446
 20
23.0435326145
  0
LINE
  5
40C
100
AcDbEntity
  8
RACCORDO
100
AcDbLine
 62
7
  6
CONTINUOUS
 10
-72.8514308562
 20
23.0377491775
 11
-72.8514809252
 21
23.0300664878
  0
LINE
  5
40D
100
AcDbEntity
  8
RACCORDO
100
AcDbLine
 62
7
  6
CONTINUOUS
 10
-72.8514809252
 20
23.0300664878
 11
-72.8515946429
 21
23.0206472478
  0
LINE
  5
40E
100
AcDbEntity
  8
RACCORDO
100
AcDbLine
 62
7
  6
CONTINUOUS
 10
-72.8515946429
 20
23.0206472478
 11
-72.8518938954
 21
23.0035563765
  0
LINE
  5
40F
100
AcDbEntity
  8
RACCORDO
100
AcDbLine
 62
250
  6
CONTINUOUS
 10
-72.8515753136
 20
23.0086508172
 11
-72.8518938954
 21
23.0035563765
  0
LWPOLYLINE
  5
410
100
AcDbEntity
  8
RACCORDO
100
AcDbPolyline
 62
250
  6
CONTINUOUS
 90
3
 70
0
 10
-72.852185283
 20
22.9902792503
 10
-72.8521492979
 20
22.9848401173
 10
-72.8523601813
 20
22.9830724616
  0
LINE
  5
411
100
AcDbEntity
  8
RACCORDO
100
AcDbLine
 62
7
  6
CONTINUOUS
 10
-72.8518938954
 20
23.0035563765
 11
-72.8523601813
 21
22.9830724616
  0
LWPOLYLINE
  5
412
100
AcDbEntity
  8
RACCORDO
100
AcDbPolyline
 62
250
  6
CONTINUOUS
 90
3
 70
0
 10
-73.0562628268
 20
17.5699397126
 10
-73.0694458794
 20
17.062545387
 10
-73.1031050406
 20
15.5925157461
  0
LINE
  5
413
100
AcDbEntity
  8
RACCORDO
100
AcDbLine
 62
7
  6
CONTINUOUS
 10
-72.8523601813
 20
22.9830724616
 11
-72.8532594408
 21
22.950436902
  0
LINE
  5
414
100
AcDbEntity
  8
RACCORDO
100
AcDbLine
 62
250
  6
CONTINUOUS
 10
-72.8528927918
 20
22.9582917198
 11
-72.8532594408
 21
22.950436902
  0
LINE
  5
415
100
AcDbEntity
  8
RACCORDO
100
AcDbLine
 62
250
  6
CONTINUOUS
 10
-72.853827764
 20
22.9318597614
 11
-72.8538070726
 21
22.9289521413
  0
LINE
  5
416
100
AcDbEntity
  8
RACCORDO
100
AcDbLine
 62
250
  6
CONTINUOUS
 10
-73.0107190732
 20
19.0998907299
 11
-73.0463949721
 21
17.9309581627
  0
LINE
  5
417
100
AcDbEntity
  8
RACCORDO
100
AcDbLine
 62
7
  6
CONTINUOUS
 10
-72.8532594408
 20
22.950436902
 11
-72.8552080356
 21
22.8903544821
  0
LINE
  5
418
100
AcDbEntity
  8
RACCORDO
100
AcDbLine
 62
250
  6
CONTINUOUS
 10
-72.8548870667
 20
22.8968748652
 11
-72.8552080356
 21
22.8903544821
  0
LINE
  5
419
100
AcDbEntity
  8
RACCORDO
100
AcDbLine
 62
250
  6
CONTINUOUS
 10
-72.8560232035
 20
22.8674110621
 11
-72.856115558
 21
22.8625075176
  0
LINE
  5
41A
100
AcDbEntity
  8
RACCORDO
100
AcDbLine
 62
250
  6
CONTINUOUS
 10
-72.9745566096
 20
20.1289174542
 11
-73.0107190732
 21
19.0998907299
  0
LINE
  5
41B
100
AcDbEntity
  8
RACCORDO
100
AcDbLine
 62
7
  6
CONTINUOUS
 10
-72.8552080356
 20
22.8903544821
 11
-72.8589537144
 21
22.7901152226
  0
LWPOLYLINE
  5
41C
100
AcDbEntity
  8
RACCORDO
100
AcDbPolyline
 62
7
  6
CONTINUOUS
 90
10
 70
0
 10
-72.8814085765
 20
22.2920268249
 10
-72.9722623971
 20
20.1910905976
 10
-73.0463949721
 20
17.9309581627
 10
-73.1031050406
 20
15.5925157461
 10
-73.146709719
 20
13.1758575018
 10
-73.1827166015
 20
10.6813869984
 10
-73.2159036035
 20
8.1093772389
 10
-73.2446124179
 20
5.4596010493
 10
-73.2649826317
 20
2.7318264148
 10
-73.2725666017
 20
-0.0
  0
LINE
  5
41D
100
AcDbEntity
  8
RACCORDO
100
AcDbLine
 62
7
  6
CONTINUOUS
 10
-72.8589537144
 20
22.7901152226
 11
-72.8669264196
 21
22.600911825
  0
LINE
  5
41E
100
AcDbEntity
  8
RACCORDO
100
AcDbLine
 62
250
  6
CONTINUOUS
 10
-72.8663447641
 20
22.6128904073
 11
-72.8669264196
 21
22.600911825
  0
LWPOLYLINE
  5
41F
100
AcDbEntity
  8
RACCORDO
100
AcDbPolyline
 62
250
  6
CONTINUOUS
 90
4
 70
0
 10
-72.8818783058
 20
22.2811646369
 10
-72.9077511539
 20
21.7367523756
 10
-72.9319437118
 20
21.1907650248
 10
-72.9745566096
 20
20.1289174542
  0
LINE
  5
420
100
AcDbEntity
  8
RACCORDO
100
AcDbLine
 62
7
  6
CONTINUOUS
 10
-72.8669264196
 20
22.600911825
 11
-72.8792489479
 21
22.336049928
  0
LINE
  5
421
100
AcDbEntity
  8
RACCORDO
100
AcDbLine
 62
7
  6
CONTINUOUS
 10
-72.8792489479
 20
22.336049928
 11
-72.8814085766
 21
22.2920268216
  0
LINE
  5
422
100
AcDbEntity
  8
RACCORDO
100
AcDbLine
 62
7
  6
CONTINUOUS
 10
-64.5036561765
 20
-3.5892788824
 11
-65.8088915661
 21
-3.5551000908
  0
LWPOLYLINE
  5
423
100
AcDbEntity
  8
ASSI
100
AcDbPolyline
 62
250
  6
CONTINUOUS
 90
19
 70
0
 10
-68.5506629045
 20
-42.4517326218
 10
-68.5455941728
 20
-42.4919465085
 10
-68.5372888016
 20
-42.5316169518
 10
-68.5258013759
 20
-42.5704832478
 10
-68.5112073943
 20
-42.6082899724
 10
-68.4936027672
 20
-42.6447886763
 10
-68.4731031817
 20
-42.6797395163
 10
-68.449843352
 20
-42.7129128088
 10
-68.4239761384
 20
-42.744090542
 10
-68.3956715334
 20
-42.7730678236
 10
-68.3651155473
 20
-42.7996542219
 10
-68.3325089864
 20
-42.8236750176
 10
-68.2980661328
 20
-42.8449723515
 10
-68.2620132992
 20
-42.8634062799
 10
-68.2245874499
 20
-42.8788556362
 10
-68.1860346562
 20
-42.8912188582
 10
-68.1466083254
 20
-42.9004147186
 10
-68.1065675228
 20
-42.9063828277
 10
-68.0661753862
 20
-42.9090839945
  0
LWPOLYLINE
  5
424
100
AcDbEntity
  8
ASSI
100
AcDbPolyline
 62
250
  6
CONTINUOUS
 90
3
 70
0
 10
-68.0886521532
 20
-41.6196118029
 10
-68.0778365643
 20
-41.8691501369
 10
-68.0662708888
 20
-42.1093556337
  0
LINE
  5
425
100
AcDbEntity
  8
ASSI
100
AcDbLine
 62
250
  6
CONTINUOUS
 10
-68.5711152252
 20
-41.6399372977
 11
-68.5613670422
 21
-41.89171757
  0
LINE
  5
426
100
AcDbEntity
  8
ASSI
100
AcDbLine
 62
250
  6
CONTINUOUS
 10
-68.1080355033
 20
-41.0932589908
 11
-68.0886521532
 21
-41.6196118029
  0
LWPOLYLINE
  5
427
100
AcDbEntity
  8
ASSI
100
AcDbPolyline
 62
250
  6
CONTINUOUS
 90
4
 70
0
 10
-68.5481567011
 20
-42.2021549961
 10
-68.5488997871
 20
-42.1798269308
 10
-68.5497645539
 20
-42.1571957086
 10
-68.5613670422
 20
-41.89171757
  0
LINE
  5
428
100
AcDbEntity
  8
ASSI
100
AcDbLine
 62
250
  6
CONTINUOUS
 10
-68.5880046269
 20
-41.1093918653
 11
-68.5711152252
 21
-41.6399372977
  0
LINE
  5
429
100
AcDbEntity
  8
ASSI
100
AcDbLine
 62
250
  6
CONTINUOUS
 10
-68.1244136426
 20
-40.5281300946
 11
-68.1080355033
 21
-41.0932589908
  0
LINE
  5
42A
100
AcDbEntity
  8
ASSI
100
AcDbLine
 62
250
  6
CONTINUOUS
 10
-68.5469898911
 20
-42.2461350231
 11
-68.5481567011
 21
-42.2021549961
  0
LINE
  5
42B
100
AcDbEntity
  8
ASSI
100
AcDbLine
 62
250
  6
CONTINUOUS
 10
-68.6015717069
 20
-40.5404768936
 11
-68.5880046269
 21
-41.1093918653
  0
LINE
  5
42C
100
AcDbEntity
  8
ASSI
100
AcDbLine
 62
250
  6
CONTINUOUS
 10
-68.1377642799
 20
-39.9160996685
 11
-68.1244136426
 21
-40.5281300946
  0
LINE
  5
42D
100
AcDbEntity
  8
ASSI
100
AcDbLine
 62
250
  6
CONTINUOUS
 10
-68.5462195055
 20
-42.2878285077
 11
-68.5469898911
 21
-42.2461350231
  0
LINE
  5
42E
100
AcDbEntity
  8
ASSI
100
AcDbLine
 62
250
  6
CONTINUOUS
 10
-68.6121745229
 20
-39.9251022371
 11
-68.6015717069
 21
-40.5404768936
  0
LWPOLYLINE
  5
42F
100
AcDbEntity
  8
ASSI
100
AcDbPolyline
 62
250
  6
CONTINUOUS
 90
3
 70
0
 10
-68.1519942342
 20
-38.9039419322
 10
-68.1480275706
 20
-39.2541382088
 10
-68.1377642799
 20
-39.9160996685
  0
LINE
  5
430
100
AcDbEntity
  8
ASSI
100
AcDbLine
 62
250
  6
CONTINUOUS
 10
-68.6200227982
 20
-39.2602661428
 11
-68.6121745229
 21
-39.9251022371
  0
LINE
  5
431
100
AcDbEntity
  8
ASSI
100
AcDbLine
 62
250
  6
CONTINUOUS
 10
-68.6271525811
 20
-38.1793576931
 11
-68.6200227982
 21
-39.2602661428
  0
LINE
  5
432
100
AcDbEntity
  8
ASSI
100
AcDbLine
 62
250
  6
CONTINUOUS
 10
-68.6520040425
 20
-7.9105793017
 11
-68.6274331301
 21
-30.2200318352
  0
LWPOLYLINE
  5
433
100
AcDbEntity
  8
ASSI
100
AcDbPolyline
 62
250
  6
CONTINUOUS
 90
12
 70
0
 10
-68.5457156683
 20
42.3444012959
 10
-68.5457107052
 20
42.3612712504
 10
-68.5457849118
 20
42.3768665291
 10
-68.5459428696
 20
42.3911665392
 10
-68.5461852523
 20
42.4041922411
 10
-68.5465134355
 20
42.4157217348
 10
-68.5469369472
 20
42.4257312942
 10
-68.5474607503
 20
42.4342455565
 10
-68.5480852053
 20
42.4411155069
 10
-68.5488181501
 20
42.4462919435
 10
-68.5496723569
 20
42.4498253309
 10
-68.5506578508
 20
42.4517162814
  0
LINE
  5
434
100
AcDbEntity
  8
ASSI
100
AcDbLine
 62
250
  6
CONTINUOUS
 10
-68.6304194323
 20
-35.1214478966
 11
-68.6271525811
 21
-38.1793576931
  0
LINE
  5
435
100
AcDbEntity
  8
ASSI
100
AcDbLine
 62
250
  6
CONTINUOUS
 10
-68.6274331301
 20
-30.2200318352
 11
-68.6280681157
 21
-32.6109347821
  0
LINE
  5
436
100
AcDbEntity
  8
ASSI
100
AcDbLine
 62
250
  6
CONTINUOUS
 10
-68.6280681157
 20
-32.6109347821
 11
-68.6304194323
 21
-35.1214478966
  0
LINE
  5
437
100
AcDbEntity
  8
ASSI
100
AcDbLine
 62
250
  6
CONTINUOUS
 10
-68.6271611999
 20
30.8503766738
 11
-68.6300733605
 21
28.3393233088
  0
LINE
  5
438
100
AcDbEntity
  8
ASSI
100
AcDbLine
 62
250
  6
CONTINUOUS
 10
-68.6287957974
 20
37.6949074611
 11
-68.6271611999
 21
30.8503766738
  0
LINE
  5
439
100
AcDbEntity
  8
ASSI
100
AcDbLine
 62
250
  6
CONTINUOUS
 10
-68.6300733605
 20
28.3393233088
 11
-68.6349229697
 21
26.2472888941
  0
LINE
  5
43A
100
AcDbEntity
  8
ASSI
100
AcDbLine
 62
250
  6
CONTINUOUS
 10
-68.6349229697
 20
26.2472888941
 11
-68.6520040425
 21
-7.9105793017
  0
LINE
  5
43B
100
AcDbEntity
  8
ASSI
100
AcDbLine
 62
250
  6
CONTINUOUS
 10
-68.6231124851
 20
38.8917585059
 11
-68.6287957974
 21
37.6949074611
  0
LINE
  5
43C
100
AcDbEntity
  8
ASSI
100
AcDbLine
 62
250
  6
CONTINUOUS
 10
-68.5459674746
 20
42.3076760725
 11
-68.5457156683
 21
42.3444012959
  0
LINE
  5
43D
100
AcDbEntity
  8
ASSI
100
AcDbLine
 62
250
  6
CONTINUOUS
 10
-68.6153521853
 20
39.6874323776
 11
-68.6231124851
 21
38.8917585059
  0
LINE
  5
43E
100
AcDbEntity
  8
ASSI
100
AcDbLine
 62
250
  6
CONTINUOUS
 10
-68.1418993463
 20
39.6795407373
 11
-68.1522016444
 21
38.8869459726
  0
LINE
  5
43F
100
AcDbEntity
  8
ASSI
100
AcDbLine
 62
250
  6
CONTINUOUS
 10
-68.5465573746
 20
42.2673074135
 11
-68.5459674746
 21
42.3076760725
  0
LWPOLYLINE
  5
440
100
AcDbEntity
  8
ASSI
100
AcDbPolyline
 62
250
  6
CONTINUOUS
 90
5
 70
0
 10
-68.5679795882
 20
41.7254155242
 10
-68.5819739869
 20
41.3167885001
 10
-68.5932671451
 20
40.908641433
 10
-68.6023786297
 20
40.5001891616
 10
-68.6153521853
 20
39.6874323776
  0
LWPOLYLINE
  5
441
100
AcDbEntity
  8
ASSI
100
AcDbPolyline
 62
250
  6
CONTINUOUS
 90
6
 70
0
 10
-68.5679795882
 20
41.7254155242
 10
-68.54976009
 20
42.1573140193
 10
-68.548898051
 20
42.1798712784
 10
-68.5481568617
 20
42.2021497999
 10
-68.5475235587
 20
42.2242748666
 10
-68.5465573746
 20
42.2673074135
  0
LWPOLYLINE
  5
442
100
AcDbEntity
  8
ASSI
100
AcDbPolyline
 62
250
  6
CONTINUOUS
 90
6
 70
0
 10
-68.0662906289
 20
42.1093551168
 10
-68.0845646677
 20
41.7040993386
 10
-68.1005696721
 20
41.2989582463
 10
-68.1143056421
 20
40.8939318401
 10
-68.1255278003
 20
40.4881286411
 10
-68.1418993463
 20
39.6795407373
  0
LINE
  5
443
100
AcDbEntity
  8
ASSI
100
AcDbLine
 62
250
  6
CONTINUOUS
 10
-68.1918180255
 20
0.0
 11
-68.6521692448
 21
0.0
  0
LINE
  5
444
100
AcDbEntity
  8
RACCORDO
100
AcDbLine
 62
250
  6
CONTINUOUS
 10
-68.6521692448
 20
0.0
 11
-73.2725201789
 21
0.0
  0
LWPOLYLINE
  5
445
100
AcDbEntity
  8
ASSI
100
AcDbPolyline
 62
250
  6
CONTINUOUS
 90
3
 70
0
 10
-68.0659975308
 20
42.9001641529
 10
-68.0660633878
 20
42.9068528926
 10
-68.0661743239
 20
42.9090840223
  0
LINE
  5
446
100
AcDbEntity
  8
ASSI
100
AcDbLine
 62
250
  6
CONTINUOUS
 10
-68.1595810243
 20
-37.7993400382
 11
-68.1519942342
 21
-38.9039419322
  0
LINE
  5
447
100
AcDbEntity
  8
ASSI
100
AcDbLine
 62
250
  6
CONTINUOUS
 10
-68.1899646077
 20
-14.6128361185
 11
-68.1586598368
 21
-29.7051795663
  0
LINE
  5
448
100
AcDbEntity
  8
ASSI
100
AcDbLine
 62
250
  6
CONTINUOUS
 10
-68.1918180255
 20
-0.0000000011
 11
-68.1899646077
 21
-14.6128361185
  0
LINE
  5
449
100
AcDbEntity
  8
ASSI
100
AcDbLine
 62
7
  6
CONTINUOUS
 10
-66.5036561765
 20
42.95
 11
-66.5036561765
 21
-42.95
  0
LINE
  5
44A
100
AcDbEntity
  8
RACCORDO
100
AcDbLine
 62
7
  6
CONTINUOUS
 10
-66.0036561765
 20
3.3551686258
 11
-66.0036561765
 21
-3.3551686258
  0
LINE
  5
44B
100
AcDbEntity
  8
ASSI
100
AcDbLine
 62
250
  6
CONTINUOUS
 10
-68.1586598368
 20
-29.7051795663
 11
-68.1581496418
 21
-31.6899992129
  0
LINE
  5
44C
100
AcDbEntity
  8
ASSI
100
AcDbLine
 62
250
  6
CONTINUOUS
 10
-68.1624999959
 20
-35.1218081433
 11
-68.1595810243
 21
-37.7993400382
  0
LINE
  5
44D
100
AcDbEntity
  8
ASSI
100
AcDbLine
 62
250
  6
CONTINUOUS
 10
-68.0659690197
 20
-42.8890572136
 11
-68.0662712565
 21
-42.1093556241
  0
LINE
  5
44E
100
AcDbEntity
  8
ASSI
100
AcDbLine
 62
250
  6
CONTINUOUS
 10
-68.1579898103
 20
31.4339941083
 11
-68.1587694249
 21
29.6313427158
  0
LINE
  5
44F
100
AcDbEntity
  8
ASSI
100
AcDbLine
 62
250
  6
CONTINUOUS
 10
-68.1581496418
 20
-31.6899992129
 11
-68.1624999959
 21
-35.1218081433
  0
LINE
  5
450
100
AcDbEntity
  8
ASSI
100
AcDbLine
 62
250
  6
CONTINUOUS
 10
-68.1613197568
 20
37.2848399785
 11
-68.1579898103
 21
31.4339941083
  0
LINE
  5
451
100
AcDbEntity
  8
ASSI
100
AcDbLine
 62
250
  6
CONTINUOUS
 10
-68.0662712565
 20
42.1093556241
 11
-68.0659975308
 21
42.9001641529
  0
LINE
  5
452
100
AcDbEntity
  8
ASSI
100
AcDbLine
 62
250
  6
CONTINUOUS
 10
-68.1795840258
 20
22.3180401749
 11
-68.1918180255
 21
-0.0000000011
  0
LWPOLYLINE
  5
453
100
AcDbEntity
  8
ASSI
100
AcDbPolyline
 62
250
  6
CONTINUOUS
 90
3
 70
0
 10
-68.1587694249
 20
29.6313427158
 10
-68.1654336101
 20
26.96394514
 10
-68.1795840258
 20
22.3180401749
  0
LWPOLYLINE
  5
454
100
AcDbEntity
  8
ASSI
100
AcDbPolyline
 62
250
  6
CONTINUOUS
 90
3
 70
0
 10
-68.1522016444
 20
38.8869459726
 10
-68.1556807351
 20
38.4902517344
 10
-68.1613197568
 20
37.2848399785
  0
LWPOLYLINE
  5
455
100
AcDbEntity
  8
ASSI
100
AcDbPolyline
 62
250
  6
CONTINUOUS
 90
4
 70
0
 10
-68.0661743239
 20
-42.9090840223
 10
-68.0660633847
 20
-42.9068532946
 10
-68.0659975299
 20
-42.9001656445
 10
-68.0659690197
 20
-42.8890572136
  0
LINE
  5
456
100
AcDbEntity
  8
ASSI
100
AcDbLine
 62
7
  6
CONTINUOUS
 10
-64.5036561765
 20
41.8504584023
 11
-64.5036561765
 21
41.4532983136
  0
LINE
  5
457
100
AcDbEntity
  8
0
100
AcDbLine
 62
7
  6
CONTINUOUS
 10
-64.5036561765
 20
41.4532983136
 11
-64.5036561765
 21
3.5892788824
  0
LINE
  5
458
100
AcDbEntity
  8
0
100
AcDbLine
 62
7
  6
CONTINUOUS
 10
-64.5036561765
 20
-3.5892788824
 11
-64.5036561765
 21
-41.4532975428
  0
LINE
  5
459
100
AcDbEntity
  8
ASSI
100
AcDbLine
 62
7
  6
CONTINUOUS
 10
-64.5036561765
 20
-41.4532975428
 11
-64.5036561765
 21
-41.8504588735
  0
LWPOLYLINE
  5
45A
100
AcDbEntity
  8
0
100
AcDbPolyline
 62
7
  6
CONTINUOUS
 90
4
 70
0
 43
0.3500000019
 10
-63.0036210327
 20
52.1285703125
 10
-63.0036210327
 20
52.9857163086
 10
-62.5750493774
 20
53.4142866211
 10
-61.9321925659
 20
53.4142866211
  0
LINE
  5
45B
100
AcDbEntity
  8
RACCORDO
100
AcDbLine
 62
7
  6
CONTINUOUS
 10
-64.5036561765
 20
3.5892788824
 11
-65.8088915661
 21
3.5551000908
  0
LWPOLYLINE
  5
45C
100
AcDbEntity
  8
RACCORDO
100
AcDbPolyline
 62
250
  6
CONTINUOUS
 90
8
 70
0
 10
-72.8526776679
 20
23.0885923924
 10
-72.8519565685
 20
23.0867015333
 10
-72.8514257067
 20
23.0816233013
 10
-72.8510839711
 20
23.0733576962
 10
-72.8509310352
 20
23.0618505518
 10
-72.8509643376
 20
23.0471560344
 10
-72.8511792606
 20
23.0294366427
 10
-72.8515946429
 20
23.0206472478
  0
LWPOLYLINE
  5
45D
100
AcDbEntity
  8
0
100
AcDbPolyline
 62
7
  6
CONTINUOUS
 90
6
 70
0
 10
-72.7939265463
 20
-25.8827061758
 10
-72.7940384643
 20
-25.8829244126
 10
-72.7941360732
 20
-25.8845169178
 10
-72.794084497
 20
-25.887689311
 10
-72.7938822161
 20
-25.8924848392
 10
-72.7935307501
 20
-25.8987968114
  0
LWPOLYLINE
  5
45E
100
AcDbEntity
  8
0
100
AcDbPolyline
 62
7
  6
CONTINUOUS
 90
4
 70
0
 43
0.3500000019
 10
-58.9321929932
 20
52.1285703125
 10
-58.9321929932
 20
52.9857163086
 10
-58.5036213379
 20
53.4142866211
 10
-57.8607631836
 20
53.4142866211
  0
LWPOLYLINE
  5
45F
100
AcDbEntity
  8
ASSI
100
AcDbPolyline
 62
250
  6
CONTINUOUS
 90
6
 70
0
 10
-68.6711928753
 20
42.5944127375
 10
-68.6711741293
 20
42.5943604312
 10
-68.671108776
 20
42.5942551571
 10
-68.6709999505
 20
42.594064317
 10
-68.6708376656
 20
42.5937910999
 10
-68.670608438
 20
42.5934323168
  0
LINE
  5
460
100
AcDbEntity
  8
ASSI
100
AcDbLine
 62
250
  6
CONTINUOUS
 10
-68.6711523053
 20
-42.5943200354
 11
-68.6711895964
 21
-42.5944024532
  0
LWPOLYLINE
  5
461
100
AcDbEntity
  8
ASSI
100
AcDbPolyline
 62
250
  6
CONTINUOUS
 90
14
 70
0
 10
-68.5506585905
 20
-42.4517194562
 10
-68.5496728518
 20
-42.4498274544
 10
-68.5488184497
 20
-42.4462934777
 10
-68.5480853637
 20
-42.4411169138
 10
-68.5474608535
 20
-42.4342474722
 10
-68.5469370664
 20
-42.4257341817
 10
-68.5465135677
 20
-42.4157255366
 10
-68.5461853605
 20
-42.4041967277
 10
-68.5459429453
 20
-42.3911716526
 10
-68.5457849557
 20
-42.3768722053
 10
-68.5457107191
 20
-42.3612774355
 10
-68.5457156507
 20
-42.3444079257
 10
-68.5457996759
 20
-42.3265482892
 10
-68.5462195055
 20
-42.2878285077
  0
LWPOLYLINE
  5
462
100
AcDbEntity
  8
ASSI
100
AcDbPolyline
 62
250
  6
CONTINUOUS
 90
5
 70
0
 10
-68.6699997483
 20
-42.5924636077
 10
-68.6703958214
 20
-42.5930909047
 10
-68.6706990253
 20
-42.5935574272
 10
-68.6709120217
 20
-42.593916511
 10
-68.6710580241
 20
-42.5941719918
  0
LWPOLYLINE
  5
463
100
AcDbEntity
  8
RACCORDO
100
AcDbPolyline
 62
250
  6
CONTINUOUS
 90
6
 70
0
 10
-72.9619995535
 20
23.1013025313
 10
-72.9605859008
 20
23.1010617156
 10
-72.9566328187
 20
23.1006170058
 10
-72.9505675487
 20
23.099968402
 10
-72.9427785243
 20
23.0990794316
 10
-72.8526776679
 20
23.0885923924
  0
LINE
  5
464
100
AcDbEntity
  8
ASSI
100
AcDbLine
 62
250
  6
CONTINUOUS
 10
-68.6703082554
 20
42.5929457985
 11
-68.6699205134
 21
42.5923283092
  0
LWPOLYLINE
  5
465
100
AcDbEntity
  8
ASSI
100
AcDbPolyline
 62
250
  6
CONTINUOUS
 90
3
 70
0
 10
-68.6661394396
 20
-42.5866546017
 10
-68.667191427
 20
-42.5882060193
 10
-68.669493699
 20
-42.5916687644
  0
LINE
  5
466
100
AcDbEntity
  8
ASSI
100
AcDbLine
 62
250
  6
CONTINUOUS
 10
-68.6308388969
 20
-42.5437819449
 11
-68.6313876945
 21
-42.5445369728
  0
LWPOLYLINE
  5
467
100
AcDbEntity
  8
ASSI
100
AcDbPolyline
 62
250
  6
CONTINUOUS
 90
4
 70
0
 10
-68.6604522581
 20
-42.5786446322
 10
-68.662089617
 20
-42.5808777252
 10
-68.6635779978
 20
-42.5829869983
 10
-68.6661394396
 20
-42.5866546017
  0
LWPOLYLINE
  5
468
100
AcDbEntity
  8
ASSI
100
AcDbPolyline
 62
250
  6
CONTINUOUS
 90
13
 70
0
 10
-68.6264170635
 20
42.5375311335
 10
-68.6222787462
 20
42.5318067135
 10
-68.6193898198
 20
42.5279883897
 10
-68.6158904304
 20
42.5234551571
 10
-68.6117600652
 20
42.5181713292
 10
-68.6069499568
 20
42.5121780326
 10
-68.6013936977
 20
42.5054905511
 10
-68.595068422
 20
42.4980838919
 10
-68.5879551814
 20
42.4899860381
 10
-68.5799752448
 20
42.4812900414
 10
-68.5710898864
 20
42.4720274267
 10
-68.5613164259
 20
42.4621689952
 10
-68.5506578508
 20
42.4517162814
  0
LWPOLYLINE
  5
469
100
AcDbEntity
  8
ASSI
100
AcDbPolyline
 62
250
  6
CONTINUOUS
 90
6
 70
0
 10
-68.6640390966
 20
42.5836285624
 10
-68.6626961487
 20
42.581740912
 10
-68.6612322781
 20
42.5797126858
 10
-68.6596567669
 20
42.5775534137
 10
-68.6579690731
 20
42.5753149086
 10
-68.6543485425
 20
42.5705897411
  0
LWPOLYLINE
  5
46A
100
AcDbEntity
  8
ASSI
100
AcDbPolyline
 62
250
  6
CONTINUOUS
 90
5
 70
0
 10
-68.6699205134
 20
42.5923283092
 10
-68.6681262984
 20
42.589603701
 10
-68.6672961415
 20
42.5883696045
 10
-68.6663371732
 20
42.5869657888
 10
-68.6640390966
 20
42.5836285624
  0
LWPOLYLINE
  5
46B
100
AcDbEntity
  8
ASSI
100
AcDbPolyline
 62
250
  6
CONTINUOUS
 90
4
 70
0
 10
-68.6302035949
 20
-42.5429630478
 10
-68.6318806169
 20
-42.5451711911
 10
-68.6323250031
 20
-42.545731629
 10
-68.6327431142
 20
-42.546217848
  0
LWPOLYLINE
  5
46C
100
AcDbEntity
  8
ASSI
100
AcDbPolyline
 62
250
  6
CONTINUOUS
 90
3
 70
0
 10
-68.654861744
 20
-42.5712775773
 10
-68.6568289768
 20
-42.5738022517
 10
-68.6604522581
 20
-42.5786446322
  0
LWPOLYLINE
  5
46D
100
AcDbEntity
  8
ASSI
100
AcDbPolyline
 62
250
  6
CONTINUOUS
 90
4
 70
0
 10
-68.6446197892
 20
-42.5587683093
 10
-68.6486457002
 20
-42.5635425942
 10
-68.6507411218
 20
-42.5660761927
 10
-68.654861744
 20
-42.5712775773
  0
LINE
  5
46E
100
AcDbEntity
  8
ASSI
100
AcDbLine
 62
250
  6
CONTINUOUS
 10
-68.6427533224
 20
-42.5566242389
 11
-68.6446197892
 21
-42.5587683093
  0
LWPOLYLINE
  5
46F
100
AcDbEntity
  8
ASSI
100
AcDbPolyline
 62
250
  6
CONTINUOUS
 90
10
 70
0
 10
-68.6327453154
 20
42.5462195964
 10
-68.6323563008
 20
42.5457666465
 10
-68.6319408619
 20
42.5452508342
 10
-68.6314801468
 20
42.5446673065
 10
-68.6309639521
 20
42.5439611827
 10
-68.6303547165
 20
42.5431745481
 10
-68.6296523483
 20
42.5422520338
 10
-68.6288670556
 20
42.5409941444
 10
-68.6278370172
 20
42.5394311223
 10
-68.6264170635
 20
42.5375311335
  0
LWPOLYLINE
  5
470
100
AcDbEntity
  8
ASSI
100
AcDbPolyline
 62
250
  6
CONTINUOUS
 90
4
 70
0
 10
-68.6466194893
 20
42.5611193857
 10
-68.6430272843
 20
42.5569317958
 10
-68.6413948796
 20
42.5550862772
 10
-68.6385667318
 20
42.5519952418
  0
LWPOLYLINE
  5
471
100
AcDbEntity
  8
ASSI
100
AcDbPolyline
 62
250
  6
CONTINUOUS
 90
3
 70
0
 10
-68.6524250213
 20
42.5681904052
 10
-68.6485319212
 20
42.5633980855
 10
-68.6466194893
 20
42.5611193857
  0
LINE
  5
472
100
AcDbEntity
  8
ASSI
100
AcDbLine
 62
250
  6
CONTINUOUS
 10
-68.6543485425
 20
42.5705897411
 11
-68.6524250213
 21
42.5681904052
  0
LINE
  5
473
100
AcDbEntity
  8
ASSI
100
AcDbLine
 62
250
  6
CONTINUOUS
 10
-68.6331569223
 20
-42.5466431177
 11
-68.633577541
 21
-42.547076603
  0
LWPOLYLINE
  5
474
100
AcDbEntity
  8
ASSI
100
AcDbPolyline
 62
250
  6
CONTINUOUS
 90
15
 70
0
 10
-68.5506585905
 20
-42.4517194562
 10
-68.5675750366
 20
-42.4680685477
 10
-68.58128032
 20
-42.4824633849
 10
-68.5923171897
 20
-42.4949262262
 10
-68.6012123591
 20
-42.5053156537
 10
-68.6083364104
 20
-42.5138109445
 10
-68.6139092354
 20
-42.5209116269
 10
-68.6182304758
 20
-42.5266092142
 10
-68.6216114341
 20
-42.5309376503
 10
-68.6241812997
 20
-42.5344532851
 10
-68.6261092877
 20
-42.5371941326
 10
-68.6275839101
 20
-42.5391320074
 10
-68.6286671466
 20
-42.5407153303
 10
-68.62948472
 20
-42.5420165973
 10
-68.6302035949
 20
-42.5429630478
  0
LINE
  5
475
100
AcDbEntity
  8
ASSI
100
AcDbLine
 62
250
  6
CONTINUOUS
 10
-68.6356249564
 20
42.5490133084
 11
-68.6349669167
 21
42.5483709737
  0
LINE
  5
476
100
AcDbEntity
  8
ASSI
100
AcDbLine
 62
250
  6
CONTINUOUS
 10
-68.6335152804
 20
42.5470174879
 11
-68.633127745
 21
42.5466171923
  0
LWPOLYLINE
  5
477
100
AcDbEntity
  8
ASSI
100
AcDbPolyline
 62
250
  6
CONTINUOUS
 90
4
 70
0
 10
-68.6385667318
 20
42.5519952418
 10
-68.6374086324
 20
42.5507646284
 10
-68.6364304802
 20
42.5497840135
 10
-68.6344158553
 20
42.5478451022
  0
LWPOLYLINE
  5
478
100
AcDbEntity
  8
0
100
AcDbPolyline
 62
7
  6
CONTINUOUS
 90
10
 70
0
 43
0.3500000019
 10
-60.0036207886
 20
52.2000004883
 10
-59.932192627
 20
52.0571455078
 10
-59.932192627
 20
51.985715332
 10
-60.0750496216
 20
51.8428549805
 10
-60.1464784546
 20
51.8428549805
 10
-60.2179066162
 20
51.9142851563
 10
-60.2179066162
 20
51.985715332
 10
-60.1464784546
 20
52.1285703125
 10
-60.0750496216
 20
52.2000004883
 10
-60.0036207886
 20
52.2000004883
  0
LWPOLYLINE
  5
479
100
AcDbEntity
  8
ASSI
100
AcDbPolyline
 62
250
  6
CONTINUOUS
 90
8
 70
0
 10
-68.6340397973
 20
-42.5475185736
 10
-68.6345774703
 20
-42.5479907178
 10
-68.6352068478
 20
-42.5485972643
 10
-68.6359719694
 20
-42.5493628562
 10
-68.636927322
 20
-42.5502971321
 10
-68.6380994772
 20
-42.5514819378
 10
-68.6394690512
 20
-42.5529603242
 10
-68.6427533224
 20
-42.5566242389
  0
LINE
  5
47A
100
AcDbEntity
  8
ASSI
100
AcDbLine
 62
250
  6
CONTINUOUS
 10
-68.6344158553
 20
42.5478451022
 11
-68.6339361343
 21
42.5474214171
  0
LWPOLYLINE
  5
47B
100
AcDbEntity
  8
ASSI
100
AcDbPolyline
 62
250
  6
CONTINUOUS
 90
19
 70
0
 10
-64.5036561948
 20
41.4532985447
 10
-64.5982809493
 20
41.5147292063
 10
-64.6944584637
 20
41.5733919648
 10
-64.7920774045
 20
41.6292868203
 10
-64.8909269242
 20
41.6823792392
 10
-64.9909947402
 20
41.732703755
 10
-65.0924840496
 20
41.7803639684
 10
-65.1949589045
 20
41.8252836577
 10
-65.2986594332
 20
41.8675390445
 10
-65.4048717457
 20
41.9074623944
 10
-65.5136218422
 20
41.9452115926
 10
-65.6247883185
 20
41.9806287539
 10
-65.739518617
 20
42.0135724882
 10
-65.858142399
 20
42.0442220615
 10
-65.9802572191
 20
42.0723982077
 10
-66.1059340722
 20
42.0974217393
 10
-66.2351440332
 20
42.1190662601
 10
-66.367753758
 20
42.1375581662
 10
-66.5036561744
 20
42.1528974575
  0
LWPOLYLINE
  5
47C
100
AcDbEntity
  8
ASSI
100
AcDbPolyline
 62
7
  6
CONTINUOUS
 90
3
 70
0
 10
-68.245644573
 20
42.9037605752
 10
-68.283450702
 20
42.8994996117
 10
-68.3325485112
 20
42.8895262251
  0
LWPOLYLINE
  5
47D
100
AcDbEntity
  8
ASSI
100
AcDbPolyline
 62
250
  6
CONTINUOUS
 90
19
 70
0
 10
-68.0661743239
 20
42.9090840223
 10
-68.1065668722
 20
42.90638281
 10
-68.1466079572
 20
42.9004146094
 10
-68.1860344396
 20
42.8912186419
 10
-68.2245872193
 20
42.8788553412
 10
-68.2620129376
 20
42.8634059554
 10
-68.2980656429
 20
42.844972014
 10
-68.3325084064
 20
42.82367466
 10
-68.3651148796
 20
42.799653854
 10
-68.3956707817
 20
42.7730674542
 10
-68.4239753075
 20
42.7440901793
 10
-68.4498424473
 20
42.7129124604
 10
-68.4731022094
 20
42.679739189
 10
-68.493601737
 20
42.6447883709
 10
-68.5112063126
 20
42.6082896934
 10
-68.5258002439
 20
42.5704830162
 10
-68.5372876235
 20
42.5316167943
 10
-68.5455929595
 20
42.4919464462
 10
-68.5506616715
 20
42.4517326748
  0
LINE
  5
47E
100
AcDbEntity
  8
ASSI
100
AcDbLine
 62
7
  6
CONTINUOUS
 10
-68.2194551846
 20
42.9050702217
 11
-68.245644573
 21
42.9037605752
  0
LINE
  5
47F
100
AcDbEntity
  8
ASSI
100
AcDbLine
 62
250
  6
CONTINUOUS
 10
-68.0662906289
 20
42.1093551168
 11
-66.5036561765
 21
42.15027414
  0
LINE
  5
480
100
AcDbEntity
  8
ASSI
100
AcDbLine
 62
7
  6
CONTINUOUS
 10
-68.2211134272
 20
42.9050267991
 11
-66.5036561765
 21
42.95
  0
LINE
  5
481
100
AcDbEntity
  8
ASSI
100
AcDbLine
 62
250
  6
CONTINUOUS
 10
-68.5374003697
 20
42.1335416964
 11
-68.0662715375
 21
42.1093556382
  0
LINE
  5
482
100
AcDbEntity
  8
ASSI
100
AcDbLine
 62
250
  6
CONTINUOUS
 10
-68.5507592189
 20
42.134318596
 11
-68.5374003697
 21
42.1335416964
  0
LWPOLYLINE
  5
483
100
AcDbEntity
  8
0
100
AcDbPolyline
 62
7
  6
CONTINUOUS
 90
13
 70
0
 43
0.3500000019
 10
-62.5750493774
 20
53.4142866211
 10
-62.8607640381
 20
53.6285717773
 10
-62.8607640381
 20
54.2714272461
 10
-62.5750493774
 20
54.6999975586
 10
-61.9321925659
 20
54.6999975586
 10
-61.6464779053
 20
54.2714272461
 10
-61.6464779053
 20
53.6285717773
 10
-61.9321925659
 20
53.4142866211
 10
-61.5036209106
 20
52.9857163086
 10
-61.5036209106
 20
52.1285703125
 10
-61.9321925659
 20
51.7
 10
-62.5750493774
 20
51.7
 10
-63.0036210327
 20
52.1285703125
  0
LWPOLYLINE
  5
484
100
AcDbEntity
  8
0
100
AcDbPolyline
 62
7
  6
CONTINUOUS
 90
13
 70
0
 43
0.3500000019
 10
-58.5036213379
 20
53.4142866211
 10
-58.7893353271
 20
53.6285717773
 10
-58.7893353271
 20
54.2714272461
 10
-58.5036213379
 20
54.6999975586
 10
-57.8607631836
 20
54.6999975586
 10
-57.5750491943
 20
54.2714272461
 10
-57.5750491943
 20
53.6285717773
 10
-57.8607631836
 20
53.4142866211
 10
-57.4321928711
 20
52.9857163086
 10
-57.4321928711
 20
52.1285703125
 10
-57.8607631836
 20
51.7
 10
-58.5036213379
 20
51.7
 10
-58.9321929932
 20
52.1285703125
  0
ARC
  5
485
100
AcDbEntity
  8
ASSI
100
AcDbCircle
 62
7
  6
CONTINUOUS
 10
-66.9336561765
 20
-38.6731796621
 40
4.0
100
AcDbArc
 50
276.1712213777
 51
307.4089490037
  0
ARC
  5
486
100
AcDbEntity
  8
ASSI
100
AcDbCircle
 62
7
  6
CONTINUOUS
 10
-66.9336561765
 20
38.6731796621
 40
4.0
100
AcDbArc
 50
52.5910507011
 51
83.8287756249
  0
ARC
  5
487
100
AcDbEntity
  8
ASSI
100
AcDbCircle
 62
7
  6
CONTINUOUS
 10
-68.2083825897
 20
42.4051887716
 40
0.5
100
AcDbArc
 50
132.9322889254
 51
157.7621146658
  0
ARC
  5
488
100
AcDbEntity
  8
ASSI
100
AcDbCircle
 62
7
  6
CONTINUOUS
 10
-68.2080246336
 20
-42.405198145
 40
0.5
100
AcDbArc
 50
202.2378852867
 51
268.5
  0
ARC
  5
489
100
AcDbEntity
  8
ASSI
100
AcDbCircle
 62
7
  6
CONTINUOUS
 10
-68.2080246336
 20
42.405198145
 40
0.5
100
AcDbArc
 50
91.5
 51
96.0129394714
  0
ARC
  5
48A
100
AcDbEntity
  8
RACCORDO
100
AcDbCircle
 62
7
  6
CONTINUOUS
 10
-72.6626680576
 20
23.0812861489
 40
0.3
100
AcDbArc
 50
176.1743104807
 51
229.7235208804
  0
ARC
  5
48B
100
AcDbEntity
  8
RACCORDO
100
AcDbCircle
 62
7
  6
CONTINUOUS
 10
-72.6626680576
 20
-23.0812861489
 40
0.3
100
AcDbArc
 50
130.2764738533
 51
183.8256895193
  0
ARC
  5
48C
100
AcDbEntity
  8
RACCORDO
100
AcDbCircle
 62
7
  6
CONTINUOUS
 10
-65.8036561765
 20
-3.3551686258
 40
0.2
100
AcDbArc
 50
180.0
 51
268.5
  0
ARC
  5
48D
100
AcDbEntity
  8
RACCORDO
100
AcDbCircle
 62
7
  6
CONTINUOUS
 10
-65.8036561765
 20
3.3551686258
 40
0.2
100
AcDbArc
 50
91.5
 51
180.0
  0
ELLIPSE
  5
48E
100
AcDbEntity
  8
RACCORDO
100
AcDbEllipse
 62
7
  6
CONTINUOUS
 10
-10.8480900812
 20
-22.0980900812
 30
0.0
 11
0.3562493039
 21
0.3562493039
 31
0.0
 40
0.9924325091
 41
2.3599925885
 42
3.9231927187
  0
ELLIPSE
  5
48F
100
AcDbEntity
  8
RACCORDO
100
AcDbEllipse
 62
7
  6
CONTINUOUS
 10
10.8480900812
 20
-22.0980900812
 30
0.0
 11
-0.3562493039
 21
0.3562493039
 31
0.0
 40
0.9924325091
 41
2.3599925885
 42
3.9231927187
  0
ELLIPSE
  5
490
100
AcDbEntity
  8
RACCORDO
100
AcDbEllipse
 62
7
  6
CONTINUOUS
 10
10.8480900812
 20
22.0980900812
 30
0.0
 11
-0.3562493039
 21
-0.3562493039
 31
0.0
 40
0.9924325091
 41
2.3599925885
 42
3.9231927187
  0
ELLIPSE
  5
491
100
AcDbEntity
  8
RACCORDO
100
AcDbEllipse
 62
7
  6
CONTINUOUS
 10
-10.8480900812
 20
22.0980900812
 30
0.0
 11
0.3562493039
 21
-0.3562493039
 31
0.0
 40
0.9924325091
 41
2.3599925885
 42
3.9231927187
  0
ELLIPSE
  5
492
100
AcDbEntity
  8
ASSI
100
AcDbEllipse
 62
7
  6
CONTINUOUS
 10
-42.149725766
 20
42.149725766
 30
0.0
 11
0.566073184
 21
-0.566073184
 31
0.0
 40
0.999315002
 41
2.3565371065
 42
3.9266482006
  0
ELLIPSE
  5
493
100
AcDbEntity
  8
ASSI
100
AcDbEllipse
 62
7
  6
CONTINUOUS
 10
42.149725766
 20
42.149725766
 30
0.0
 11
0.566073184
 21
0.566073184
 31
0.0
 40
0.999315002
 41
-0.7850555471
 42
0.7850555471
  0
ELLIPSE
  5
494
100
AcDbEntity
  8
ASSI
100
AcDbEllipse
 62
7
  6
CONTINUOUS
 10
42.149725766
 20
-42.149725766
 30
0.0
 11
-0.566073184
 21
0.566073184
 31
0.0
 40
0.999315002
 41
-3.9266482006
 42
-2.3565371065
  0
ELLIPSE
  5
495
100
AcDbEntity
  8
ASSI
100
AcDbEllipse
 62
7
  6
CONTINUOUS
 10
-42.149725766
 20
-42.149725766
 30
0.0
 11
0.566073184
 21
0.566073184
 31
0.0
 40
0.999315002
 41
-3.9266482006
 42
-2.3565371065
  0
ENDSEC
  0
SECTION
  2
OBJECTS
  0
DICTIONARY
  5
C
100
AcDbDictionary
280
0
281
1
  3
ACAD_GROUP
350
D
  3
ACAD_MLINESTYLE
350
17
  3
ACAD_LAYOUT
350
1A
  3
ACAD_PLOTSETTINGS
350
19
  3
ACAD_PLOTSTYLENAME
350
E
  0
DICTIONARY
  5
D
102
{ACAD_REACTORS
330
C
102
}
100
AcDbDictionary
280
0
281
1
  0
ACDBDICTIONARYWDFLT
  5
E
102
{ACAD_REACTORS
330
C
102
}
100
AcDbDictionary
281
1
  3
Normal
350
F
100
AcDbDictionaryWithDefault
340
F
  0
DICTIONARY
  5
17
102
{ACAD_REACTORS
330
C
102
}
100
AcDbDictionary
280
0
281
1
  3
Standard
350
18
  0
DICTIONARY
  5
19
102
{ACAD_REACTORS
330
C
102
}
100
AcDbDictionary
281
1
  0
DICTIONARY
  5
1A
102
{ACAD_REACTORS
330
C
102
}
100
AcDbDictionary
281
1
  3
Model
350
496
  3
Layout1
350
497
  0
ACDBPLACEHOLDER
  5
F
102
{ACAD_REACTORS
330
E
102
}
  0
MLINESTYLE
  5
18
102
{ACAD_REACTORS
330
17
102
}
100
AcDbMlineStyle
  2
STANDARD
 70
0
  3

 62
256
 51
90.0
 52
90.0
 71
2
 49
0.5
 62
256
  6
BYLAYER
 49
-0.5
 62
256
  6
BYLAYER
  0
LAYOUT
  5
496
102
{ACAD_REACTORS
330
1A
102
}
100
AcDbPlotSettings
  1

  2
none_device
  4

  6

 40
0.0
 41
0.0
 42
0.0
 43
0.0
 44
210.0
 45
297.0
 46
0.0
 47
0.0
 48
0.0
 49
0.0
140
0.0
141
0.0
142
1.0
143
1.0
 70
1024
 72
1
 73
0
 74
0
  7

 75
0
147
1.0
148
0.0
149
0.0
100
AcDbLayout
  1
Model
 70
0
 71
0
 10
0.0
 20
0.0
 11
210.0
 21
297.0
 12
0.0
 22
0.0
 32
0.0
 14
0.0
 24
0.0
 34
0.0
 15
0.0
 25
0.0
 35
0.0
146
0.0
 13
0.0
 23
0.0
 33
0.0
 16
1.0
 26
0.0
 36
0.0
 17
0.0
 27
1.0
 37
0.0
 76
0
330
214
345
0
346
0
  0
LAYOUT
  5
497
102
{ACAD_REACTORS
330
1A
102
}
100
AcDbPlotSettings
  1

  2
none_device
  4

  6

 40
0.0
 41
0.0
 42
0.0
 43
0.0
 44
210.0
 45
297.0
 46
0.0
 47
0.0
 48
0.0
 49
0.0
140
0.0
141
0.0
142
1.0
143
1.0
 70
0
 72
1
 73
0
 74
0
  7

 75
0
147
1.0
148
0.0
149
0.0
100
AcDbLayout
  1
Layout1
 70
0
 71
1
 10
0.0
 20
0.0
 11
210.0
 21
297.0
 12
0.0
 22
0.0
 32
0.0
 14
0.0
 24
0.0
 34
0.0
 15
0.0
 25
0.0
 35
0.0
146
0.0
 13
0.0
 23
0.0
 33
0.0
 16
1.0
 26
0.0
 36
0.0
 17
0.0
 27
1.0
 37
0.0
 76
0
330
215
345
0
346
0
  0
ENDSEC
  0
EOF
