  0
SECTION
  2
HEADER
  9
$ACADVER
  1
AC1024
  9
$DWGCODEPAGE
  3
ANSI_1252
  9
$EXTMAX
 10
297.0
 20
210.0
 30
0.0
  9
$EXTMIN
 10
0.0
 20
0.0
 30
0.0
  9
$LIMMIN
 10
0.0
 20
0.0
  9
$LIMMAX
 10
297.0
 20
210.0
  9
$VIEWCTR
 10
148.5
 20
105.0
  9
$VIEWSIZE
 40
210.0
  9
$CLAYER
  8
0
  9
$LTSCALE
 40
16.335
  9
$CELTYPE
  6
BYLAYER
  9
$DIMSCALE
 40
1.0
  9
$DIMASZ
 40
3.0
  9
$DIMEXO
 40
0.5
  9
$DIMDLI
 40
11.286
  9
$DIMEXE
 40
1.5
  9
$DIMCEN
 40
2.673
  9
$DIMLFAC
 40
1.0
  9
$DIMBLK
  1
_FILLED
  9
$DIMALT
 70
0
  9
$DIMALTF
 40
0.0393700787
  9
$DIMTXT
 40
3.0
  9
$DIMTOL
 70
1
  9
$DIMLIM
 70
0
  9
$DIMTFAC
 40
1.0
  9
$DIMTP
 40
0.01
  9
$DIMTM
 40
0.01
  9
$DIMGAP
 40
0.625
  9
$DIMDSEP
 70
44
  9
$AUNITS
 70
0
  9
$PDMODE
 70
3
  9
$PDSIZE
 40
3.0
  9
$HANDSEED
  5
4F0
  9
$TILEMODE
 70
1
  9
$MEASUREMENT
 70
1
  9
$INSUNITS
 70
4
  0
ENDSEC
  0
SECTION
  2
CLASSES
  0
CLASS
  1
ACDBDICTIONARYWDFLT
  2
AcDbDictionaryWithDefault
  3
AutoCAD 2000
 90
0
 91
1
280
0
281
0
  0
CLASS
  1
ACDBPLACEHOLDER
  2
AcDbPlaceHolder
  3
AutoCAD 2000
 90
0
 91
1
280
0
281
0
  0
CLASS
  1
LAYOUT
  2
AcDbLayout
  3
AutoCAD 2000
 90
0
 91
0
280
0
281
0
  0
ENDSEC
  0
SECTION
  2
TABLES
  0
TABLE
  2
VPORT
  5
8
100
AcDbSymbolTable
 70
2
  0
VPORT
  5
1F4
100
AcDbSymbolTableRecord
100
AcDbViewportTableRecord
  2
*ACTIVE
 70
0
 10
0.0
 20
0.0
 11
1.0
 21
1.0
 12
148.5
 22
105.0
 13
0.0
 23
0.0
 14
1.0
 24
1.0
 15
0.0
 25
0.0
 16
0.0
 26
0.0
 36
1.0
 17
0.0
 27
0.0
 37
0.0
 40
210.0
 41
1.4142857143
 42
50.0
 43
0.0
 44
0.0
 50
0.0
 51
0.0
 71
0
 72
100
 73
1
 74
1
 75
0
 76
0
 77
0
 78
0
  0
ENDTAB
  0
TABLE
  2
LTYPE
  5
5
100
AcDbSymbolTable
 70
6
  0
LTYPE
  5
14
100
AcDbSymbolTableRecord
100
AcDbLinetypeTableRecord
  2
BYBLOCK
 70
0
  3

 72
65
 73
0
 40
0.0
  0
LTYPE
  5
15
100
AcDbSymbolTableRecord
100
AcDbLinetypeTableRecord
  2
BYLAYER
 70
0
  3

 72
65
 73
0
 40
0.0
  0
LTYPE
  5
16
100
AcDbSymbolTableRecord
100
AcDbLinetypeTableRecord
  2
CONTINUOUS
 70
64
  3
Solid line
 72
65
 73
0
 40
0.0
  0
LTYPE
  5
1F5
100
AcDbSymbolTableRecord
100
AcDbLinetypeTableRecord
  2
CENTER
 70
64
  3
____ _ ____ _ ____ _ ____ _ ____ _ ____ _ ____
 72
65
 73
4
 40
0.6
 49
0.375
 74
0
 49
-0.075
 74
0
 49
0.075
 74
0
 49
-0.075
 74
0
  0
LTYPE
  5
1F6
100
AcDbSymbolTableRecord
100
AcDbLinetypeTableRecord
  2
HIDDEN
 70
64
  3
- - - - - - - - - - - - - - - - - - - -
 72
65
 73
2
 40
0.2
 49
0.1
 74
0
 49
-0.1
 74
0
  0
LTYPE
  5
1F7
100
AcDbSymbolTableRecord
100
AcDbLinetypeTableRecord
  2
PHANTOM
 70
64
  3
_____ _ _ _____ _ _ _____ _ _ _____
 72
65
 73
6
 40
0.8
 49
0.45
 74
0
 49
-0.05
 74
0
 49
0.1
 74
0
 49
-0.05
 74
0
 49
0.1
 74
0
 49
-0.05
 74
0
  0
LTYPE
  5
1F8
100
AcDbSymbolTableRecord
100
AcDbLinetypeTableRecord
  2
DOT
 70
64
  3
. . . . . . . . . . . . . . . . . . . .
 72
65
 73
2
 40
0.2
 49
0.1
 74
0
 49
-0.1
 74
0
  0
LTYPE
  5
1F9
100
AcDbSymbolTableRecord
100
AcDbLinetypeTableRecord
  2
DASHED
 70
64
  3
- - - - - - - - - - - - - - - - - - - -
 72
65
 73
2
 40
0.2
 49
0.1
 74
0
 49
-0.1
 74
0
  0
ENDTAB
  0
TABLE
  2
LAYER
  5
2
100
AcDbSymbolTable
 70
36
  0
LAYER
  5
10
100
AcDbSymbolTableRecord
100
AcDbLayerTableRecord
  2
0
 70
0
 62
7
  6
CONTINUOUS
370
-3
390
F
  0
LAYER
  5
1FA
100
AcDbSymbolTableRecord
100
AcDbLayerTableRecord
  2
DEFAULT_1
 70
0
 62
7
  6
CENTER
370
-3
390
F
  0
LAYER
  5
1FB
100
AcDbSymbolTableRecord
100
AcDbLayerTableRecord
  2
DEFAULT_2
 70
0
 62
7
  6
HIDDEN
370
-3
390
F
  0
LAYER
  5
1FC
100
AcDbSymbolTableRecord
100
AcDbLayerTableRecord
  2
DEFAULT_3
 70
0
 62
7
  6
PHANTOM
370
-3
390
F
  0
LAYER
  5
1FD
100
AcDbSymbolTableRecord
100
AcDbLayerTableRecord
  2
ASSI
 70
0
 62
7
  6
CONTINUOUS
370
-3
390
F
  0
LAYER
  5
1FE
100
AcDbSymbolTableRecord
100
AcDbLayerTableRecord
  2
COORDINATE
 70
0
 62
7
  6
CONTINUOUS
370
-3
390
F
  0
LAYER
  5
1FF
100
AcDbSymbolTableRecord
100
AcDbLayerTableRecord
  2
COPY_PUBLISH
 70
0
 62
7
  6
CONTINUOUS
370
-3
390
F
  0
LAYER
  5
200
100
AcDbSymbolTableRecord
100
AcDbLayerTableRecord
  2
COSMETICI
 70
0
 62
7
  6
CONTINUOUS
370
-3
390
F
  0
LAYER
  5
201
100
AcDbSymbolTableRecord
100
AcDbLayerTableRecord
  2
CURVE
 70
0
 62
7
  6
CONTINUOUS
370
-3
390
F
  0
LAYER
  5
202
100
AcDbSymbolTableRecord
100
AcDbLayerTableRecord
  2
DRAFT
 70
0
 62
7
  6
CONTINUOUS
370
-3
390
F
  0
LAYER
  5
203
100
AcDbSymbolTableRecord
100
AcDbLayerTableRecord
  2
IMPORT_IGES
 70
0
 62
7
  6
CONTINUOUS
370
-3
390
F
  0
LAYER
  5
204
100
AcDbSymbolTableRecord
100
AcDbLayerTableRecord
  2
INTF_1
 70
0
 62
7
  6
CONTINUOUS
370
-3
390
F
  0
LAYER
  5
205
100
AcDbSymbolTableRecord
100
AcDbLayerTableRecord
  2
INTF_11
 70
0
 62
7
  6
CONTINUOUS
370
-3
390
F
  0
LAYER
  5
206
100
AcDbSymbolTableRecord
100
AcDbLayerTableRecord
  2
INTF_8
 70
0
 62
7
  6
CONTINUOUS
370
-3
390
F
  0
LAYER
  5
207
100
AcDbSymbolTableRecord
100
AcDbLayerTableRecord
  2
NONE
 70
0
 62
7
  6
CONTINUOUS
370
-3
390
F
  0
LAYER
  5
208
100
AcDbSymbolTableRecord
100
AcDbLayerTableRecord
  2
NOTE
 70
0
 62
7
  6
CONTINUOUS
370
-3
390
F
  0
LAYER
  5
209
100
AcDbSymbolTableRecord
100
AcDbLayerTableRecord
  2
PIANI
 70
0
 62
7
  6
CONTINUOUS
370
-3
390
F
  0
LAYER
  5
20A
100
AcDbSymbolTableRecord
100
AcDbLayerTableRecord
  2
PUNTI
 70
0
 62
7
  6
CONTINUOUS
370
-3
390
F
  0
LAYER
  5
20B
100
AcDbSymbolTableRecord
100
AcDbLayerTableRecord
  2
RACCORDO
 70
0
 62
7
  6
CONTINUOUS
370
-3
390
F
  0
LAYER
  5
20C
100
AcDbSymbolTableRecord
100
AcDbLayerTableRecord
  2
RGB____0____0____0__
 70
0
 62
7
  6
CONTINUOUS
370
-3
390
F
  0
LAYER
  5
20D
100
AcDbSymbolTableRecord
100
AcDbLayerTableRecord
  2
SIMBOLI
 70
0
 62
7
  6
CONTINUOUS
370
-3
390
F
  0
LAYER
  5
20E
100
AcDbSymbolTableRecord
100
AcDbLayerTableRecord
  2
SMUSSO
 70
0
 62
7
  6
CONTINUOUS
370
-3
390
F
  0
LAYER
  5
20F
100
AcDbSymbolTableRecord
100
AcDbLayerTableRecord
  2
SNAPLINE
 70
0
 62
7
  6
CONTINUOUS
370
-3
390
F
  0
LAYER
  5
210
100
AcDbSymbolTableRecord
100
AcDbLayerTableRecord
  2
SUPERFICI
 70
0
 62
7
  6
CONTINUOUS
370
-3
390
F
  0
LAYER
  5
211
100
AcDbSymbolTableRecord
100
AcDbLayerTableRecord
  2
TRASH
 70
0
 62
7
  6
CONTINUOUS
370
-3
390
F
  0
ENDTAB
  0
TABLE
  2
STYLE
  5
3
100
AcDbSymbolTable
 70
1
  0
STYLE
  5
11
100
AcDbSymbolTableRecord
100
AcDbTextStyleTableRecord
  2
STANDARD
 70
0
 40
0.0
 41
0.8
 50
0.0
 71
0
 42
0.2
  3
txt
  4

  0
STYLE
  5
212
100
AcDbSymbolTableRecord
100
AcDbTextStyleTableRecord
  2
TEXTSTYLE_1
 70
0
 40
0.0
 41
0.8
 50
0.0
 71
0
 42
0.2
  3
gdt
  4

  0
ENDTAB
  0
TABLE
  2
VIEW
  5
6
100
AcDbSymbolTable
 70
0
  0
ENDTAB
  0
TABLE
  2
UCS
  5
7
100
AcDbSymbolTable
 70
0
  0
ENDTAB
  0
TABLE
  2
APPID
  5
9
100
AcDbSymbolTable
 70
1
  0
APPID
  5
213
100
AcDbSymbolTableRecord
100
AcDbRegAppTableRecord
  2
ACAD
 70
0
  0
ENDTAB
  0
TABLE
  2
BLOCK_RECORD
  5
1
100
AcDbSymbolTable
 70
0
  0
BLOCK_RECORD
  5
214
100
AcDbSymbolTableRecord
100
AcDbBlockTableRecord
  2
*Model_Space
  0
BLOCK_RECORD
  5
215
100
AcDbSymbolTableRecord
100
AcDbBlockTableRecord
  2
*Paper_Space
  0
BLOCK_RECORD
  5
216
100
AcDbSymbolTableRecord
100
AcDbBlockTableRecord
  2
_FILLED
  0
BLOCK_RECORD
  5
217
100
AcDbSymbolTableRecord
100
AcDbBlockTableRecord
  2
*D0
  0
BLOCK_RECORD
  5
218
100
AcDbSymbolTableRecord
100
AcDbBlockTableRecord
  2
*D1
  0
BLOCK_RECORD
  5
219
100
AcDbSymbolTableRecord
100
AcDbBlockTableRecord
  2
*D2
  0
ENDTAB
  0
TABLE
  2
DIMSTYLE
  5
A
100
AcDbSymbolTable
 70
1
100
AcDbDimStyleTable
 71
0
  0
DIMSTYLE
105
21A
100
AcDbSymbolTableRecord
100
AcDbDimStyleTableRecord
  2
STANDARD
 70
0
  3

  4

 40
1.0
 41
3.0
 42
0.5
 43
0.38
 44
1.5
 45
0.0
 46
0.0
 47
0.01
 48
0.01
140
3.0
141
0.09
142
0.0
143
25.4
144
1.0
145
0.0
146
1.0
147
0.625
 71
1
 72
0
 73
0
 74
0
 75
0
 76
0
 77
1
 78
8
 79
2
170
0
171
1
172
0
173
0
174
0
175
0
176
0
177
0
178
0
270
2
179
2
271
2
272
2
273
2
274
2
275
0
280
0
281
0
282
0
283
1
284
8
285
0
286
0
287
3
288
0
340
11
278
44
341
216
342
216
343
216
344
216
  0
DIMSTYLE
105
21B
100
AcDbSymbolTableRecord
100
AcDbDimStyleTableRecord
  2
DIMSTYLE_1
 70
0
  3

  4

 40
1.0
 41
3.0
 42
0.5
 43
0.38
 44
1.5
 45
0.0
 46
0.0
 47
0.0
 48
0.0
140
3.0
141
0.09
142
0.0
143
25.4
144
1.0
145
0.0
146
1.0
147
0.75
 71
0
 72
0
 73
0
 74
0
 75
0
 76
0
 77
1
 78
8
 79
2
170
0
171
1
172
0
173
0
174
0
175
0
176
0
177
0
178
0
270
2
179
2
271
0
272
0
273
2
274
2
275
0
280
0
281
0
282
0
283
1
284
8
285
0
286
0
287
3
288
0
340
11
278
44
341
216
342
216
343
216
344
216
  0
DIMSTYLE
105
21C
100
AcDbSymbolTableRecord
100
AcDbDimStyleTableRecord
  2
DIMSTYLE_2
 70
0
  3

  4

 40
1.0
 41
3.0
 42
0.5
 43
0.38
 44
1.5
 45
0.0
 46
0.0
 47
0.0
 48
0.0
140
3.0
141
0.09
142
0.0
143
25.4
144
1.0
145
0.0
146
1.0
147
0.75
 71
0
 72
0
 73
0
 74
0
 75
0
 76
0
 77
1
 78
8
 79
2
170
0
171
1
172
0
173
0
174
0
175
0
176
0
177
0
178
0
270
2
179
2
271
1
272
1
273
2
274
2
275
0
280
0
281
0
282
0
283
1
284
8
285
0
286
0
287
3
288
0
340
11
278
44
341
216
342
216
343
216
344
216
  0
ENDTAB
  0
ENDSEC
  0
SECTION
  2
BLOCKS
  0
BLOCK
  5
20
100
AcDbEntity
  8
0
100
AcDbBlockBegin
  2
*Model_Space
 70
0
 10
0.0
 20
0.0
 30
0.0
  3
*Model_Space
  1

  0
ENDBLK
  5
21
100
AcDbEntity
  8
0
100
AcDbBlockEnd
  0
BLOCK
  5
1C
100
AcDbEntity
  8
0
100
AcDbBlockBegin
  2
*Paper_Space
 70
0
 10
0.0
 20
0.0
 30
0.0
  3
*Paper_Space
  1

  0
ENDBLK
  5
1D
100
AcDbEntity
  8
0
100
AcDbBlockEnd
  0
BLOCK
  5
21D
100
AcDbEntity
  8
0
100
AcDbBlockBegin
  2
_FILLED
 70
64
 10
0.0
 20
0.0
  3
_FILLED
  1

  0
SOLID
  5
21E
100
AcDbEntity
  8
0
  6
BYBLOCK
 62
0
100
AcDbTrace
 10
0.0
 20
0.0
 11
-1.0
 21
0.3166666667
 12
-1.0
 22
-0.3166666667
 13
-1.0
 23
-0.3166666667
  0
ENDBLK
  5
21F
100
AcDbEntity
  8
0
  6
BYBLOCK
 62
0
100
AcDbBlockEnd
  0
BLOCK
  5
220
100
AcDbEntity
  8
0
100
AcDbBlockBegin
 62
7
  6
CONTINUOUS
  2
*D0
 70
65
 10
0.0
 20
0.0
  3
*D0
  1

  0
LINE
  5
221
100
AcDbEntity
  8
0
100
AcDbLine
 62
7
  6
CONTINUOUS
 10
-79.7689144737
 20
42.9140570348
 11
-79.7689144737
 21
52.7137828947
  0
LINE
  5
222
100
AcDbEntity
  8
0
100
AcDbLine
 62
7
  6
CONTINUOUS
 10
77.1310855263
 20
42.9140570348
 11
77.1310855263
 21
52.7137828947
  0
LINE
  5
223
100
AcDbEntity
  8
0
100
AcDbLine
 62
7
  6
CONTINUOUS
 10
-79.7689144737
 20
51.2137828947
 11
-1.3189144737
 21
51.2137828947
  0
LINE
  5
224
100
AcDbEntity
  8
0
100
AcDbLine
 62
7
  6
CONTINUOUS
 10
77.1310855263
 20
51.2137828947
 11
-1.3189144737
 21
51.2137828947
  0
INSERT
  5
225
100
AcDbEntity
  8
0
100
AcDbBlockReference
 62
7
  6
CONTINUOUS
  2
_FILLED
 10
-79.7689144737
 20
51.2137828947
 41
3.0
 42
3.0
 43
3.0
 50
180.0
  0
INSERT
  5
226
100
AcDbEntity
  8
0
100
AcDbBlockReference
 62
7
  6
CONTINUOUS
  2
_FILLED
 10
77.1310855263
 20
51.2137828947
 41
3.0
 42
3.0
 43
3.0
  0
ENDBLK
  5
227
100
AcDbEntity
  8
0
  6
BYBLOCK
 62
0
100
AcDbBlockEnd
  0
BLOCK
  5
228
100
AcDbEntity
  8
0
100
AcDbBlockBegin
 62
7
  6
CONTINUOUS
  2
*D1
 70
65
 10
0.0
 20
0.0
  3
*D1
  1

  0
LINE
  5
229
100
AcDbEntity
  8
0
100
AcDbLine
 62
7
  6
CONTINUOUS
 10
76.8313596663
 20
43.2137828947
 11
86.6310855263
 21
43.2137828947
  0
LINE
  5
22A
100
AcDbEntity
  8
0
100
AcDbLine
 62
7
  6
CONTINUOUS
 10
76.8313596663
 20
-42.6862171053
 11
86.6310855263
 21
-42.6862171053
  0
LINE
  5
22B
100
AcDbEntity
  8
0
100
AcDbLine
 62
7
  6
CONTINUOUS
 10
85.1310855263
 20
43.2137828947
 11
85.1310855263
 21
0.2637828947
  0
LINE
  5
22C
100
AcDbEntity
  8
0
100
AcDbLine
 62
7
  6
CONTINUOUS
 10
85.1310855263
 20
-42.6862171053
 11
85.1310855263
 21
0.2637828947
  0
INSERT
  5
22D
100
AcDbEntity
  8
0
100
AcDbBlockReference
 62
7
  6
CONTINUOUS
  2
_FILLED
 10
85.1310855263
 20
43.2137828947
 41
3.0
 42
3.0
 43
3.0
 50
90.0
  0
INSERT
  5
22E
100
AcDbEntity
  8
0
100
AcDbBlockReference
 62
7
  6
CONTINUOUS
  2
_FILLED
 10
85.1310855263
 20
-42.6862171053
 41
3.0
 42
3.0
 43
3.0
 50
270.0
  0
ENDBLK
  5
22F
100
AcDbEntity
  8
0
  6
BYBLOCK
 62
0
100
AcDbBlockEnd
  0
BLOCK
  5
230
100
AcDbEntity
  8
0
100
AcDbBlockBegin
 62
7
  6
CONTINUOUS
  2
*D2
 70
65
 10
0.0
 20
0.0
  3
*D2
  1

  0
LINE
  5
231
100
AcDbEntity
  8
0
100
AcDbLine
 62
7
  6
CONTINUOUS
 10
-102.6302585515
 20
42.2170813844
 11
-102.6302585318
 21
52.7137828975
  0
LINE
  5
232
100
AcDbEntity
  8
0
100
AcDbLine
 62
7
  6
CONTINUOUS
 10
-111.0814408257
 20
23.965846227
 11
-111.0814407718
 21
52.7137829134
  0
LINE
  5
233
100
AcDbEntity
  8
0
100
AcDbLine
 62
7
  6
CONTINUOUS
 10
-102.6302585347
 20
51.2137828975
 11
-106.8558496546
 21
51.2137829055
  0
LINE
  5
234
100
AcDbEntity
  8
0
100
AcDbLine
 62
7
  6
CONTINUOUS
 10
-106.8558496546
 20
51.2137829055
 11
-94.9159431188
 21
51.2137828947
  0
LINE
  5
235
100
AcDbEntity
  8
0
100
AcDbLine
 62
7
  6
CONTINUOUS
 10
-111.0814407746
 20
51.2137829134
 11
-106.8558496546
 21
51.2137829055
  0
INSERT
  5
236
100
AcDbEntity
  8
0
100
AcDbBlockReference
 62
7
  6
CONTINUOUS
  2
_FILLED
 10
-102.6302585347
 20
51.2137828975
 41
3.0
 42
3.0
 43
3.0
 50
359.9999998927
  0
INSERT
  5
237
100
AcDbEntity
  8
0
100
AcDbBlockReference
 62
7
  6
CONTINUOUS
  2
_FILLED
 10
-111.0814407746
 20
51.2137829134
 41
3.0
 42
3.0
 43
3.0
 50
179.9999998927
  0
ENDBLK
  5
238
100
AcDbEntity
  8
0
  6
BYBLOCK
 62
0
100
AcDbBlockEnd
  0
ENDSEC
  0
SECTION
  2
ENTITIES
  0
DIMENSION
  5
239
100
AcDbEntity
  8
0
100
AcDbDimension
 62
7
  6
CONTINUOUS
  2
*D0
 10
77.1310855263
 20
51.2137828947
 11
-4.4260573308
 21
51.2137828947
 70
160
 71
2
 72
2
 41
0.9
 42
156.9
  3
DIMSTYLE_1
100
AcDbAlignedDimension
 13
-79.7689144737
 23
42.4140570348
 14
77.1310855263
 24
42.4140570348
100
AcDbRotatedDimension
  0
DIMENSION
  5
23A
100
AcDbEntity
  8
0
100
AcDbDimension
 62
7
  6
CONTINUOUS
  2
*D1
 10
85.1310855263
 20
-42.6862171053
 11
85.1310855263
 21
-1.472511023
 70
160
 71
2
 72
2
 41
0.9
 42
85.9
  3
DIMSTYLE_1
100
AcDbAlignedDimension
 13
76.3313596663
 23
43.2137828947
 14
76.3313596663
 24
-42.6862171053
 50
270.0
100
AcDbRotatedDimension
  0
DIMENSION
  5
23B
100
AcDbEntity
  8
0
100
AcDbDimension
 62
7
  6
CONTINUOUS
  2
*D2
 10
-111.0814407746
 20
51.2137829134
 11
-101.1302288345
 21
51.2137828947
 70
160
 71
1
 72
2
 41
0.9
 42
8.45118224
  3
DIMSTYLE_2
100
AcDbAlignedDimension
 13
-102.6302585524
 23
41.7170813844
 14
-111.0814408266
 24
23.465846227
 50
179.9999998927
100
AcDbRotatedDimension
  0
LWPOLYLINE
  5
23C
100
AcDbEntity
  8
ASSI
100
AcDbPolyline
 62
250
  6
CONTINUOUS
 90
19
 70
0
 10
-79.727481426
 20
42.3726240397
 10
-79.7248858531
 20
42.3753595025
 10
-79.7191793266
 20
42.3780778548
 10
-79.710397535
 20
42.3807620893
 10
-79.6985954007
 20
42.3833954132
 10
-79.6838467545
 20
42.3859613493
 10
-79.6662438887
 20
42.3884438392
 10
-79.6458969488
 20
42.3908273498
 10
-79.6229332285
 20
42.39309697
 10
-79.5974964025
 20
42.3952384994
 10
-79.5697456185
 20
42.3972385395
 10
-79.5398545016
 20
42.399084577
 10
-79.5080100681
 20
42.4007650618
 10
-79.4744115585
 20
42.4022694798
 10
-79.4392691819
 20
42.4035884186
 10
-79.4028028002
 20
42.4047136265
 10
-79.3652405645
 20
42.4056380633
 10
-79.3268174884
 20
42.406355945
 10
-79.2877739692
 20
42.4068627801
  0
LWPOLYLINE
  5
23D
100
AcDbEntity
  8
ASSI
100
AcDbPolyline
 62
250
  6
CONTINUOUS
 90
14
 70
0
 10
-78.9284419739
 20
-42.6454704655
 10
-78.9299801363
 20
-42.6433287513
 10
-78.9315107504
 20
-42.638744911
 10
-78.9330263058
 20
-42.6317414393
 10
-78.9345193657
 20
-42.6223527038
 10
-78.9359826038
 20
-42.6106247768
 10
-78.9374088398
 20
-42.5966152097
 10
-78.9387910755
 20
-42.5803927497
 10
-78.9401225283
 20
-42.5620370012
 10
-78.9413966649
 20
-42.5416380366
 10
-78.9426072334
 20
-42.5192959544
 10
-78.9437482936
 20
-42.4951203874
 10
-78.9448142465
 20
-42.4692299637
 10
-78.9457998618
 20
-42.4417517273
  0
LWPOLYLINE
  5
23E
100
AcDbEntity
  8
ASSI
100
AcDbPolyline
 62
250
  6
CONTINUOUS
 90
25
 70
0
 10
-79.2650557021
 20
-41.8669122662
 10
-79.2635814694
 20
-41.8871725931
 10
-79.2608532148
 20
-41.9071572723
 10
-79.2568706463
 20
-41.9268660514
 10
-79.2516076131
 20
-41.9463554931
 10
-79.2450896776
 20
-41.9655685237
 10
-79.2373941562
 20
-41.984334477
 10
-79.2285019276
 20
-42.0026725885
 10
-79.2184316311
 20
-42.0205632156
 10
-79.2073173379
 20
-42.0377774907
 10
-79.1951473907
 20
-42.054305397
 10
-79.181933171
 20
-42.0701567453
 10
-79.1678434674
 20
-42.0851325697
 10
-79.1528683009
 20
-42.099222862
 10
-79.1370176175
 20
-42.112437664
 10
-79.120490265
 20
-42.1246082553
 10
-79.1032764164
 20
-42.135723296
 10
-79.0853861053
 20
-42.1457944023
 10
-79.0670481309
 20
-42.1546874474
 10
-79.0482303627
 20
-42.1623908742
 10
-79.0289653337
 20
-42.1689167177
 10
-79.0095789783
 20
-42.1741663723
 10
-78.9901801491
 20
-42.1781071974
 10
-78.9706605463
 20
-42.1807724535
 10
-78.9510204337
 20
-42.1821624392
  0
LWPOLYLINE
  5
23F
100
AcDbEntity
  8
ASSI
100
AcDbPolyline
 62
250
  6
CONTINUOUS
 90
25
 70
0
 10
-79.7281680287
 20
-41.8457448003
 10
-79.7264558654
 20
-41.8980606529
 10
-79.7213259792
 20
-41.9501538385
 10
-79.7127996399
 20
-42.0018015018
 10
-79.7009119098
 20
-42.0527851314
 10
-79.6857133848
 20
-42.1028837873
 10
-79.6672716616
 20
-42.1518755458
 10
-79.6456666945
 20
-42.1995506067
 10
-79.6209915488
 20
-42.2457057321
 10
-79.5933563232
 20
-42.2901384292
 10
-79.5628844902
 20
-42.3326552678
 10
-79.5297051607
 20
-42.3730805899
 10
-79.4939544188
 20
-42.4112503606
 10
-79.4557851824
 20
-42.4470014267
 10
-79.4153604545
 20
-42.4801810655
 10
-79.3728439755
 20
-42.5106534097
 10
-79.3284113098
 20
-42.5382893392
 10
-79.2822559186
 20
-42.5629652889
 10
-79.2345801366
 20
-42.5845711654
 10
-79.1855868758
 20
-42.6030139241
 10
-79.1354862153
 20
-42.6182133829
 10
-79.0845008761
 20
-42.6301016989
 10
-79.0328521055
 20
-42.6386283101
 10
-78.9807581807
 20
-42.6437582971
 10
-78.9284419739
 20
-42.6454704655
  0
LINE
  5
240
100
AcDbEntity
  8
ASSI
100
AcDbLine
 62
250
  6
CONTINUOUS
 10
-79.2900806804
 20
-41.1296254954
 11
-79.2650557021
 21
-41.8669122662
  0
LINE
  5
241
100
AcDbEntity
  8
ASSI
100
AcDbLine
 62
250
  6
CONTINUOUS
 10
-78.9457998618
 20
-42.4417517273
 11
-78.9475111521
 21
-42.3825782823
  0
LINE
  5
242
100
AcDbEntity
  8
ASSI
100
AcDbLine
 62
250
  6
CONTINUOUS
 10
-79.3098839156
 20
-40.4081283857
 11
-79.2900806804
 21
-41.1296254954
  0
LINE
  5
243
100
AcDbEntity
  8
ASSI
100
AcDbLine
 62
250
  6
CONTINUOUS
 10
-79.3248881931
 20
-39.6974167957
 11
-79.3098839156
 21
-40.4081283857
  0
LINE
  5
244
100
AcDbEntity
  8
ASSI
100
AcDbLine
 62
250
  6
CONTINUOUS
 10
-78.9475111521
 20
-42.3825782823
 11
-78.9488486178
 21
-42.3187600657
  0
LINE
  5
245
100
AcDbEntity
  8
ASSI
100
AcDbLine
 62
250
  6
CONTINUOUS
 10
-79.3364292868
 20
-38.9761545893
 11
-79.3248881931
 21
-39.6974167957
  0
LINE
  5
246
100
AcDbEntity
  8
ASSI
100
AcDbLine
 62
250
  6
CONTINUOUS
 10
-78.9488486178
 20
-42.3187600657
 11
-78.9497860404
 21
-42.2515481372
  0
LINE
  5
247
100
AcDbEntity
  8
ASSI
100
AcDbLine
 62
250
  6
CONTINUOUS
 10
-79.348376756
 20
-37.8889750866
 11
-79.3364292868
 21
-38.9761545893
  0
LINE
  5
248
100
AcDbEntity
  8
ASSI
100
AcDbLine
 62
250
  6
CONTINUOUS
 10
-78.9497860404
 20
-42.2515481372
 11
-78.9503050436
 21
-42.1822600884
  0
LINE
  5
249
100
AcDbEntity
  8
ASSI
100
AcDbLine
 62
250
  6
CONTINUOUS
 10
-79.3619530465
 20
-35.3997434795
 11
-79.348376756
 21
-37.8889750866
  0
LINE
  5
24A
100
AcDbEntity
  8
ASSI
100
AcDbLine
 62
250
  6
CONTINUOUS
 10
-79.3694139615
 20
-32.2673760826
 11
-79.3619530465
 21
-35.3997434795
  0
LINE
  5
24B
100
AcDbEntity
  8
ASSI
100
AcDbLine
 62
250
  6
CONTINUOUS
 10
-79.3848214635
 20
32.0225564442
 11
-79.3815806714
 21
30.4775549368
  0
LINE
  5
24C
100
AcDbEntity
  8
ASSI
100
AcDbLine
 62
250
  6
CONTINUOUS
 10
-79.407776578
 20
-18.2976048533
 11
-79.3694139615
 21
-32.2673760826
  0
LINE
  5
24D
100
AcDbEntity
  8
ASSI
100
AcDbLine
 62
250
  6
CONTINUOUS
 10
-79.4040189001
 20
37.3477309982
 11
-79.3848214635
 21
32.0225564442
  0
LINE
  5
24E
100
AcDbEntity
  8
ASSI
100
AcDbLine
 62
250
  6
CONTINUOUS
 10
-79.7274806228
 20
42.3726231839
 11
-79.7246245862
 21
39.2200284709
  0
LINE
  5
24F
100
AcDbEntity
  8
ASSI
100
AcDbLine
 62
7
  6
CONTINUOUS
 10
-79.7689144737
 20
42.4140570348
 11
-79.7689144737
 21
-41.8864912453
  0
LINE
  5
250
100
AcDbEntity
  8
ASSI
100
AcDbLine
 62
250
  6
CONTINUOUS
 10
-79.7246245862
 20
39.2200284709
 11
-79.7241714655
 21
-20.5233413757
  0
LINE
  5
251
100
AcDbEntity
  8
ASSI
100
AcDbLine
 62
250
  6
CONTINUOUS
 10
-79.4097710446
 20
-5.4874203902
 11
-79.407776578
 21
-18.2976048533
  0
LINE
  5
252
100
AcDbEntity
  8
ASSI
100
AcDbLine
 62
250
  6
CONTINUOUS
 10
-79.7241714655
 20
-20.5233413757
 11
-79.7266503564
 21
-40.0426353011
  0
LINE
  5
253
100
AcDbEntity
  8
ASSI
100
AcDbLine
 62
250
  6
CONTINUOUS
 10
-79.7266503564
 20
-40.0426353011
 11
-79.7281616235
 21
-41.8457383951
  0
LINE
  5
254
100
AcDbEntity
  8
ASSI
100
AcDbLine
 62
250
  6
CONTINUOUS
 10
-79.3815806714
 20
30.4775549368
 11
-79.383005627
 21
28.7813839347
  0
LINE
  5
255
100
AcDbEntity
  8
ASSI
100
AcDbLine
 62
250
  6
CONTINUOUS
 10
-79.4017642877
 20
22.5836486764
 11
-79.4097710446
 21
-5.4874203902
  0
LINE
  5
256
100
AcDbEntity
  8
ASSI
100
AcDbLine
 62
250
  6
CONTINUOUS
 10
-79.4022971671
 20
38.3252872899
 11
-79.4040189001
 21
37.3477309982
  0
LWPOLYLINE
  5
257
100
AcDbEntity
  8
ASSI
100
AcDbPolyline
 62
250
  6
CONTINUOUS
 90
3
 70
0
 10
-79.383005627
 20
28.7813839347
 10
-79.3931481577
 20
25.5602486066
 10
-79.4017642877
 20
22.5836486764
  0
LINE
  5
258
100
AcDbEntity
  8
ASSI
100
AcDbLine
 62
250
  6
CONTINUOUS
 10
-79.3984093
 20
38.9322376665
 11
-79.4022971671
 21
38.3252872899
  0
LINE
  5
259
100
AcDbEntity
  8
ASSI
100
AcDbLine
 62
250
  6
CONTINUOUS
 10
-79.3917956764
 20
39.5116926128
 11
-79.3984093
 21
38.9322376665
  0
LWPOLYLINE
  5
25A
100
AcDbEntity
  8
ASSI
100
AcDbPolyline
 62
250
  6
CONTINUOUS
 90
19
 70
0
 10
-78.9620253485
 20
42.7326322756
 10
-78.9615180962
 20
42.771676368
 10
-78.960799598
 20
42.810100072
 10
-78.9598743495
 20
42.8476629803
 10
-78.9587481396
 20
42.8841300709
 10
-78.9574280147
 20
42.9192731786
 10
-78.9559222345
 20
42.9528724225
 10
-78.95424022
 20
42.9847175805
 10
-78.9523924954
 20
43.0146094047
 10
-78.9503906212
 20
43.0423608694
 10
-78.9482471225
 20
43.06779834
 10
-78.9459754107
 20
43.0907626598
 10
-78.9435896994
 20
43.1111101455
 10
-78.9411049153
 20
43.1287134874
 10
-78.9385366051
 20
43.1434625447
 10
-78.9359008382
 20
43.1552650349
 10
-78.933214106
 20
43.1640471124
 10
-78.9304932186
 20
43.1697538297
 10
-78.9277552
 20
43.1723494811
  0
LWPOLYLINE
  5
25B
100
AcDbEntity
  8
ASSI
100
AcDbPolyline
 62
250
  6
CONTINUOUS
 90
10
 70
0
 10
-79.2877228807
 20
42.4071792688
 10
-79.3052294687
 20
42.1127426664
 10
-79.3210099079
 20
41.8190554179
 10
-79.3350861972
 20
41.5261598947
 10
-79.3473898733
 20
41.2337235323
 10
-79.3580289693
 20
40.9421476173
 10
-79.3672872755
 20
40.6525687602
 10
-79.375144152
 20
40.3664225417
 10
-79.3816498008
 20
40.0823192832
 10
-79.3917956764
 20
39.5116926128
  0
LWPOLYLINE
  5
25C
100
AcDbEntity
  8
RACCORDO
100
AcDbPolyline
 62
250
  6
CONTINUOUS
 90
25
 70
0
 10
-59.6745086086
 20
22.6212796806
 10
-59.6735092444
 20
22.6528777518
 10
-59.6705094345
 20
22.6844142203
 10
-59.6655068176
 20
22.7157626339
 10
-59.6584986065
 20
22.7468320517
 10
-59.6495028747
 20
22.7774569637
 10
-59.6385810184
 20
22.8074043942
 10
-59.6257940792
 20
22.836531238
 10
-59.6111914877
 20
22.8647479925
 10
-59.5948535135
 20
22.8919162468
 10
-59.5768683026
 20
22.9179157862
 10
-59.5573073264
 20
22.9426682789
 10
-59.5362352097
 20
22.966105424
 10
-59.5138598869
 20
22.9880280615
 10
-59.4901675022
 20
23.0084777708
 10
-59.4648295183
 20
23.0276788786
 10
-59.4377573557
 20
23.0455632911
 10
-59.4091355426
 20
23.0618761621
 10
-59.3789984403
 20
23.0764788695
 10
-59.3472806731
 20
23.0892643565
 10
-59.3142336226
 20
23.0999967647
 10
-59.2804158553
 20
23.1084267148
 10
-59.2461320596
 20
23.1144733824
 10
-59.2114010153
 20
23.1181283708
 10
-59.176388051
 20
23.1193538211
  0
LWPOLYLINE
  5
25D
100
AcDbEntity
  8
RACCORDO
100
AcDbPolyline
 62
250
  6
CONTINUOUS
 90
25
 70
0
 10
-59.9855232083
 20
22.631357587
 10
-59.9837587716
 20
22.6822362734
 10
-59.9788093685
 20
22.7326209403
 10
-59.9706749877
 20
22.7825115762
 10
-59.9592882687
 20
22.832162488
 10
-59.9447165502
 20
22.8813193471
 10
-59.9271618697
 20
22.9292191886
 10
-59.9065776274
 20
22.975797278
 10
-59.8830104032
 20
23.0211183301
 10
-59.8568020054
 20
23.064613555
 10
-59.8279411838
 20
23.106229722
 10
-59.7964391769
 20
23.1460200502
 10
-59.7626715293
 20
23.1835754272
 10
-59.7268602787
 20
23.2187686778
 10
-59.6887833864
 20
23.2517269762
 10
-59.6481502855
 20
23.2824227372
 10
-59.6047640661
 20
23.3110889065
 10
-59.5588216464
 20
23.3374925467
 10
-59.5106232058
 20
23.3609072512
 10
-59.4598351352
 20
23.3813393184
 10
-59.406791066
 20
23.3987824724
 10
-59.3527920421
 20
23.4124914495
 10
-59.2982717548
 20
23.4222178386
 10
-59.2427965423
 20
23.4282100804
 10
-59.1863664202
 20
23.4304681904
  0
LWPOLYLINE
  5
25E
100
AcDbEntity
  8
RACCORDO
100
AcDbPolyline
 62
250
  6
CONTINUOUS
 90
10
 70
0
 10
-59.1843029161
 20
23.2565980593
 10
-59.1836438207
 20
23.2317897925
 10
-59.1829098514
 20
23.2089053469
 10
-59.1821085824
 20
23.1881808824
 10
-59.1812482827
 20
23.1698302679
 10
-59.1803378304
 20
23.1540428747
 10
-59.1793866208
 20
23.1409816226
 10
-59.1784044701
 20
23.1307812983
 10
-59.1774015141
 20
23.1235471643
 10
-59.1763881031
 20
23.1193538732
  0
LINE
  5
25F
100
AcDbEntity
  8
RACCORDO
100
AcDbLine
 62
250
  6
CONTINUOUS
 10
-59.1853701212
 20
23.3109447938
 11
-59.1843029161
 21
23.2565980593
  0
LINE
  5
260
100
AcDbEntity
  8
RACCORDO
100
AcDbLine
 62
250
  6
CONTINUOUS
 10
-59.1860675269
 20
23.3697079744
 11
-59.1853701212
 21
23.3109447938
  0
LINE
  5
261
100
AcDbEntity
  8
RACCORDO
100
AcDbLine
 62
250
  6
CONTINUOUS
 10
-59.1863664202
 20
23.4304681904
 11
-59.1860675269
 21
23.3697079744
  0
LINE
  5
262
100
AcDbEntity
  8
RACCORDO
100
AcDbLine
 62
250
  6
CONTINUOUS
 10
-59.98554083
 20
-22.103816023
 11
-60.0170297857
 21
-6.7722792637
  0
LINE
  5
263
100
AcDbEntity
  8
RACCORDO
100
AcDbLine
 62
250
  6
CONTINUOUS
 10
-59.6744936135
 20
-22.0936988961
 11
-59.6971152866
 21
-7.8116570252
  0
LINE
  5
264
100
AcDbEntity
  8
RACCORDO
100
AcDbLine
 62
250
  6
CONTINUOUS
 10
-60.0170297857
 20
-6.7722792637
 11
-60.0204545292
 21
-2.316037127
  0
LINE
  5
265
100
AcDbEntity
  8
RACCORDO
100
AcDbLine
 62
250
  6
CONTINUOUS
 10
-59.6971152866
 20
-7.8116570252
 11
-59.7003648882
 21
-2.3150567818
  0
LINE
  5
266
100
AcDbEntity
  8
RACCORDO
100
AcDbLine
 62
7
  6
CONTINUOUS
 10
-59.5189144737
 20
22.4656855457
 11
-59.5189144737
 21
-21.9381197562
  0
LINE
  5
267
100
AcDbEntity
  8
RACCORDO
100
AcDbLine
 62
250
  6
CONTINUOUS
 10
-60.0204545292
 20
-2.316037127
 11
-60.0203814322
 21
3.0124936586
  0
LINE
  5
268
100
AcDbEntity
  8
RACCORDO
100
AcDbLine
 62
250
  6
CONTINUOUS
 10
-59.7003648882
 20
-2.3150567818
 11
-59.6999586015
 21
4.0041099927
  0
LINE
  5
269
100
AcDbEntity
  8
RACCORDO
100
AcDbLine
 62
250
  6
CONTINUOUS
 10
-59.6999586015
 20
4.0041099927
 11
-59.6955117493
 21
9.9587896218
  0
LINE
  5
26A
100
AcDbEntity
  8
RACCORDO
100
AcDbLine
 62
250
  6
CONTINUOUS
 10
-60.0203814322
 20
3.0124936586
 11
-60.0162586885
 21
7.9427421741
  0
LINE
  5
26B
100
AcDbEntity
  8
RACCORDO
100
AcDbLine
 62
250
  6
CONTINUOUS
 10
-59.6955117493
 20
9.9587896218
 11
-59.6801989999
 21
20.1274701268
  0
LINE
  5
26C
100
AcDbEntity
  8
RACCORDO
100
AcDbLine
 62
250
  6
CONTINUOUS
 10
-60.0162586885
 20
7.9427421741
 11
-60.0072525607
 21
13.1837698721
  0
LINE
  5
26D
100
AcDbEntity
  8
RACCORDO
100
AcDbLine
 62
250
  6
CONTINUOUS
 10
-59.6801989999
 20
20.1274701268
 11
-59.6745086465
 21
22.6212797185
  0
LINE
  5
26E
100
AcDbEntity
  8
RACCORDO
100
AcDbLine
 62
250
  6
CONTINUOUS
 10
-60.0072525607
 20
13.1837698721
 11
-59.9855232083
 21
22.631357587
  0
LINE
  5
26F
100
AcDbEntity
  8
RACCORDO
100
AcDbLine
 62
250
  6
CONTINUOUS
 10
-59.1863906467
 20
-22.9029200203
 11
-59.1860908046
 21
-22.8421547582
  0
LINE
  5
270
100
AcDbEntity
  8
RACCORDO
100
AcDbLine
 62
250
  6
CONTINUOUS
 10
-59.1860908046
 20
-22.8421547582
 11
-59.1853908019
 21
-22.7833858196
  0
LWPOLYLINE
  5
271
100
AcDbEntity
  8
RACCORDO
100
AcDbPolyline
 62
250
  6
CONTINUOUS
 90
11
 70
0
 10
-59.1853908019
 20
-22.7833858196
 10
-59.1843194662
 20
-22.7290331908
 10
-59.1836577835
 20
-22.7042220923
 10
-59.182920915
 20
-22.6813349746
 10
-59.1821164658
 20
-22.660608049
 10
-59.1812527395
 20
-22.6422552447
 10
-59.1803386503
 20
-22.6264659653
 10
-59.1793836311
 20
-22.6134031452
 10
-59.1783975378
 20
-22.6032016111
 10
-59.1773905485
 20
-22.5959666729
 10
-59.1763730565
 20
-22.5917730135
  0
LWPOLYLINE
  5
272
100
AcDbEntity
  8
ASSI
100
AcDbPolyline
 62
250
  6
CONTINUOUS
 90
25
 70
0
 10
76.3126981947
 20
-42.1822297729
 10
76.3325574163
 20
-42.180809835
 10
76.3522411763
 20
-42.1781221979
 10
76.3717492148
 20
-42.1741665651
 10
76.3911714666
 20
-42.1689122127
 10
76.4104174587
 20
-42.1623892559
 10
76.429216371
 20
-42.1546887044
 10
76.4475540632
 20
-42.1457960034
 10
76.4654442713
 20
-42.1357252283
 10
76.4826581219
 20
-42.124610461
 10
76.4991855966
 20
-42.1124400461
 10
76.5150365072
 20
-42.0992253627
 10
76.530011886
 20
-42.0851352038
 10
76.544101723
 20
-42.0701595917
 10
76.5573160614
 20
-42.0543084705
 10
76.569486185
 20
-42.0377806864
 10
76.5806007516
 20
-42.0205664133
 10
76.5906713793
 20
-42.0026756832
 10
76.599563952
 20
-41.9843372894
 10
76.6072628557
 20
-41.9655487673
 10
76.6137841845
 20
-41.9463129864
 10
76.6190415062
 20
-41.9268668676
 10
76.6230062276
 20
-41.9072895791
 10
76.6257075439
 20
-41.8875024815
 10
76.6271457497
 20
-41.8675058317
  0
LWPOLYLINE
  5
273
100
AcDbEntity
  8
ASSI
100
AcDbPolyline
 62
250
  6
CONTINUOUS
 90
25
 70
0
 10
76.2906130266
 20
-42.6454704655
 10
76.3429289011
 20
-42.6437583187
 10
76.3950221069
 20
-42.6386284484
 10
76.4466697886
 20
-42.6301021246
 10
76.4976534341
 20
-42.6182144104
 10
76.5477521044
 20
-42.6030159014
 10
76.5967438772
 20
-42.5845741947
 10
76.6444189528
 20
-42.5629692438
 10
76.6905740928
 20
-42.5382941147
 10
76.7350068047
 20
-42.5106589055
 10
76.7775236584
 20
-42.4801870889
 10
76.8179489958
 20
-42.4470077757
 10
76.8561187822
 20
-42.4112570499
 10
76.8918698644
 20
-42.3730878291
 10
76.9250495196
 20
-42.3326631163
 10
76.9555218803
 20
-42.2901466523
 10
76.9831578262
 20
-42.2457140014
 10
77.0078337923
 20
-42.1995586248
 10
77.0294396852
 20
-42.1518828575
 10
77.0478824601
 20
-42.1028896111
 10
77.0630819351
 20
-42.052788965
 10
77.0749702668
 20
-42.001803642
 10
77.0834968936
 20
-41.9501548898
 10
77.0886268964
 20
-41.8980609852
 10
77.0903390813
 20
-41.8457448003
  0
LINE
  5
274
100
AcDbEntity
  8
ASSI
100
AcDbLine
 62
250
  6
CONTINUOUS
 10
76.3126981947
 20
-42.1822297729
 11
75.6031029277
 21
-42.2065550634
  0
LINE
  5
275
100
AcDbEntity
  8
ASSI
100
AcDbLine
 62
250
  6
CONTINUOUS
 10
76.8866234274
 20
-41.8630896732
 11
76.827450641
 21
-41.864799701
  0
LINE
  5
276
100
AcDbEntity
  8
ASSI
100
AcDbLine
 62
250
  6
CONTINUOUS
 10
75.6031029277
 20
-42.2065550634
 11
74.8935589334
 21
-42.2262331874
  0
LINE
  5
277
100
AcDbEntity
  8
ASSI
100
AcDbLine
 62
250
  6
CONTINUOUS
 10
74.8935589334
 20
-42.2262331874
 11
74.1859989575
 21
-42.24149905
  0
LINE
  5
278
100
AcDbEntity
  8
ASSI
100
AcDbLine
 62
250
  6
CONTINUOUS
 10
76.827450641
 20
-41.864799701
 11
76.763633035
 21
-41.8661361892
  0
LINE
  5
279
100
AcDbEntity
  8
ASSI
100
AcDbLine
 62
250
  6
CONTINUOUS
 10
74.1859989575
 20
-42.24149905
 11
73.488863053
 21
-42.2529818358
  0
LINE
  5
27A
100
AcDbEntity
  8
ASSI
100
AcDbLine
 62
250
  6
CONTINUOUS
 10
76.763633035
 20
-41.8661361892
 11
76.6964216478
 21
-41.867072938
  0
LINE
  5
27B
100
AcDbEntity
  8
ASSI
100
AcDbLine
 62
250
  6
CONTINUOUS
 10
73.488863053
 20
-42.2529818358
 11
72.7961845542
 21
-42.2616003911
  0
LINE
  5
27C
100
AcDbEntity
  8
ASSI
100
AcDbLine
 62
250
  6
CONTINUOUS
 10
72.7961845542
 20
-42.2616003911
 11
71.7459885932
 21
-42.2704843298
  0
LINE
  5
27D
100
AcDbEntity
  8
ASSI
100
AcDbLine
 62
250
  6
CONTINUOUS
 10
76.6964216478
 20
-41.867072938
 11
76.6271340467
 21
-41.8675915841
  0
LINE
  5
27E
100
AcDbEntity
  8
ASSI
100
AcDbLine
 62
250
  6
CONTINUOUS
 10
71.7459885932
 20
-42.2704843298
 11
70.2488448534
 21
-42.2781264339
  0
LINE
  5
27F
100
AcDbEntity
  8
ASSI
100
AcDbLine
 62
250
  6
CONTINUOUS
 10
59.1233993143
 20
-42.3116683542
 11
56.1532188354
 21
-42.3198352767
  0
LINE
  5
280
100
AcDbEntity
  8
ASSI
100
AcDbLine
 62
250
  6
CONTINUOUS
 10
70.2488448534
 20
-42.2781264339
 11
68.1410380678
 21
-42.284220666
  0
LINE
  5
281
100
AcDbEntity
  8
ASSI
100
AcDbLine
 62
250
  6
CONTINUOUS
 10
-12.6492341646
 20
-42.3138032187
 11
-15.2488516473
 21
-42.3204833745
  0
LWPOLYLINE
  5
282
100
AcDbEntity
  8
ASSI
100
AcDbPolyline
 62
250
  6
CONTINUOUS
 90
3
 70
0
 10
68.1410380678
 20
-42.284220666
 10
66.7367326192
 20
-42.286909304
 10
59.1233993143
 20
-42.3116683542
  0
LINE
  5
283
100
AcDbEntity
  8
ASSI
100
AcDbLine
 62
250
  6
CONTINUOUS
 10
56.1532188354
 20
-42.3198352767
 11
52.8408469164
 21
-42.3249817084
  0
LINE
  5
284
100
AcDbEntity
  8
ASSI
100
AcDbLine
 62
250
  6
CONTINUOUS
 10
-15.2488516473
 20
-42.3204833745
 11
-18.9962622526
 21
-42.3256203164
  0
LWPOLYLINE
  5
285
100
AcDbEntity
  8
ASSI
100
AcDbPolyline
 62
250
  6
CONTINUOUS
 90
3
 70
0
 10
52.8408469164
 20
-42.3249817084
 10
48.1729004398
 20
-42.3276049695
 10
47.1612333047
 20
-42.3277264748
  0
LINE
  5
286
100
AcDbEntity
  8
ASSI
100
AcDbLine
 62
7
  6
CONTINUOUS
 10
-78.9691886137
 20
-42.6862171053
 11
76.3313596663
 21
-42.6862171053
  0
LINE
  5
287
100
AcDbEntity
  8
ASSI
100
AcDbLine
 62
250
  6
CONTINUOUS
 10
24.851824389
 20
-42.641323683
 11
-1.8819284538
 21
-42.6436501788
  0
LINE
  5
288
100
AcDbEntity
  8
ASSI
100
AcDbLine
 62
250
  6
CONTINUOUS
 10
-73.1402971455
 20
-42.6428290565
 11
-78.9284433192
 21
-42.6454718107
  0
LINE
  5
289
100
AcDbEntity
  8
ASSI
100
AcDbLine
 62
250
  6
CONTINUOUS
 10
-18.9962622526
 20
-42.3256203164
 11
-33.3995301347
 21
-42.3268028072
  0
LINE
  5
28A
100
AcDbEntity
  8
ASSI
100
AcDbLine
 62
250
  6
CONTINUOUS
 10
-33.3995301347
 20
-42.3268028072
 11
-50.8249635613
 21
-42.3276032794
  0
LINE
  5
28B
100
AcDbEntity
  8
ASSI
100
AcDbLine
 62
250
  6
CONTINUOUS
 10
-1.8819284538
 20
-42.6436501788
 11
-73.1402971455
 21
-42.6428290565
  0
LWPOLYLINE
  5
28C
100
AcDbEntity
  8
ASSI
100
AcDbPolyline
 62
250
  6
CONTINUOUS
 90
3
 70
0
 10
74.1764020141
 20
-42.6437786011
 10
73.8281619706
 20
-42.6436099717
 10
24.851824389
 20
-42.641323683
  0
LINE
  5
28D
100
AcDbEntity
  8
ASSI
100
AcDbLine
 62
250
  6
CONTINUOUS
 10
47.1612333047
 20
-42.3277264748
 11
18.1320591971
 21
-42.3268238603
  0
LINE
  5
28E
100
AcDbEntity
  8
ASSI
100
AcDbLine
 62
250
  6
CONTINUOUS
 10
-0.5242772309
 20
-42.2804530976
 11
-12.6492341646
 21
-42.3138032187
  0
LINE
  5
28F
100
AcDbEntity
  8
ASSI
100
AcDbLine
 62
250
  6
CONTINUOUS
 10
74.880760531
 20
-42.6441974049
 11
74.1764020141
 21
-42.6437786011
  0
LWPOLYLINE
  5
290
100
AcDbEntity
  8
ASSI
100
AcDbPolyline
 62
250
  6
CONTINUOUS
 90
3
 70
0
 10
76.2906151446
 20
-42.6454725835
 10
75.9384081721
 20
-42.6450970137
 10
74.880760531
 20
-42.6441974049
  0
LINE
  5
291
100
AcDbEntity
  8
ASSI
100
AcDbLine
 62
250
  6
CONTINUOUS
 10
-50.8249635613
 20
-42.3276032794
 11
-55.563100418
 21
-42.3248911832
  0
LINE
  5
292
100
AcDbEntity
  8
ASSI
100
AcDbLine
 62
250
  6
CONTINUOUS
 10
18.1320591971
 20
-42.3268238603
 11
13.6058007211
 21
-42.3222658557
  0
LINE
  5
293
100
AcDbEntity
  8
ASSI
100
AcDbLine
 62
250
  6
CONTINUOUS
 10
-55.563100418
 20
-42.3248911832
 11
-59.0345116999
 21
-42.3193076697
  0
LINE
  5
294
100
AcDbEntity
  8
ASSI
100
AcDbLine
 62
250
  6
CONTINUOUS
 10
13.6058007211
 20
-42.3222658557
 11
10.3668928049
 21
-42.3146594002
  0
LINE
  5
295
100
AcDbEntity
  8
ASSI
100
AcDbLine
 62
250
  6
CONTINUOUS
 10
-59.0345116999
 20
-42.3193076697
 11
-62.1117605572
 21
-42.3104429901
  0
LWPOLYLINE
  5
296
100
AcDbEntity
  8
ASSI
100
AcDbPolyline
 62
250
  6
CONTINUOUS
 90
3
 70
0
 10
-62.1117605572
 20
-42.3104429901
 10
-63.7899508625
 20
-42.3040741774
 10
-72.1148240217
 20
-42.2808232297
  0
LWPOLYLINE
  5
297
100
AcDbEntity
  8
ASSI
100
AcDbPolyline
 62
250
  6
CONTINUOUS
 90
3
 70
0
 10
10.3668928049
 20
-42.3146594002
 10
6.8195182321
 20
-42.3021622381
 10
-0.5242772309
 20
-42.2804530976
  0
LINE
  5
298
100
AcDbEntity
  8
ASSI
100
AcDbLine
 62
250
  6
CONTINUOUS
 10
-72.1148240217
 20
-42.2808232297
 11
-73.8172214497
 21
-42.2738237042
  0
LINE
  5
299
100
AcDbEntity
  8
ASSI
100
AcDbLine
 62
250
  6
CONTINUOUS
 10
-73.8172214497
 20
-42.2738237042
 11
-74.8432337024
 21
-42.2670699694
  0
LINE
  5
29A
100
AcDbEntity
  8
ASSI
100
AcDbLine
 62
250
  6
CONTINUOUS
 10
-79.2649629801
 20
-41.8675916063
 11
-79.3342506617
 21
-41.8670729593
  0
LINE
  5
29B
100
AcDbEntity
  8
ASSI
100
AcDbLine
 62
250
  6
CONTINUOUS
 10
-74.8432337024
 20
-42.2670699694
 11
-75.8839941844
 21
-42.2562949511
  0
LINE
  5
29C
100
AcDbEntity
  8
ASSI
100
AcDbLine
 62
250
  6
CONTINUOUS
 10
-79.3342506617
 20
-41.8670729593
 11
-79.4014621001
 21
-41.8661362091
  0
LINE
  5
29D
100
AcDbEntity
  8
ASSI
100
AcDbLine
 62
250
  6
CONTINUOUS
 10
-75.8839941844
 20
-42.2562949511
 11
-76.5752365262
 21
-42.2459875045
  0
LINE
  5
29E
100
AcDbEntity
  8
ASSI
100
AcDbLine
 62
250
  6
CONTINUOUS
 10
-76.5752365262
 20
-42.2459875045
 11
-77.262055221
 21
-42.2324784617
  0
LINE
  5
29F
100
AcDbEntity
  8
ASSI
100
AcDbLine
 62
250
  6
CONTINUOUS
 10
-79.4014621001
 20
-41.8661362091
 11
-79.4652797324
 21
-41.8647997193
  0
LINE
  5
2A0
100
AcDbEntity
  8
ASSI
100
AcDbLine
 62
250
  6
CONTINUOUS
 10
-77.262055221
 20
-42.2324784617
 11
-77.9432426516
 21
-42.2154136808
  0
LWPOLYLINE
  5
2A1
100
AcDbEntity
  8
ASSI
100
AcDbPolyline
 62
250
  6
CONTINUOUS
 90
15
 70
0
 10
-79.4652797324
 20
-41.8647997193
 10
-79.52445254
 20
-41.8630896894
 10
-79.5519304448
 20
-41.8621048037
 10
-79.5778205334
 20
-41.8610396418
 10
-79.6019957668
 20
-41.8598994304
 10
-79.6243375204
 20
-41.8586897643
 10
-79.6447361664
 20
-41.8574165792
 10
-79.6630916115
 20
-41.8560861223
 10
-79.6793137882
 20
-41.8547049223
 10
-79.6933231032
 20
-41.8532797554
 10
-79.7050508056
 20
-41.8518176157
 10
-79.714439336
 20
-41.85032568
 10
-79.7214426345
 20
-41.84881127
 10
-79.7260263543
 20
-41.8472818158
 10
-79.7281680155
 20
-41.8457448223
  0
LWPOLYLINE
  5
2A2
100
AcDbEntity
  8
ASSI
100
AcDbPolyline
 62
250
  6
CONTINUOUS
 90
3
 70
0
 10
-77.9432426516
 20
-42.2154136808
 10
-78.6169118854
 20
-42.1942521573
 10
-78.9510204337
 20
-42.1821624392
  0
LINE
  5
2A3
100
AcDbEntity
  8
RACCORDO
100
AcDbLine
 62
250
  6
CONTINUOUS
 10
-36.8189144737
 20
42.854144507
 11
-36.8189144737
 21
23.1456085935
  0
LINE
  5
2A4
100
AcDbEntity
  8
ASSI
100
AcDbLine
 62
250
  6
CONTINUOUS
 10
-36.8189144737
 20
-42.6413471418
 11
-36.8189144737
 21
-42.3265813506
  0
LINE
  5
2A5
100
AcDbEntity
  8
RACCORDO
100
AcDbLine
 62
250
  6
CONTINUOUS
 10
-36.8189144737
 20
-42.3265787176
 11
-36.8189144737
 21
-22.618042804
  0
LINE
  5
2A6
100
AcDbEntity
  8
ASSI
100
AcDbLine
 62
250
  6
CONTINUOUS
 10
-36.8189144737
 20
42.8541471401
 11
-36.8189144737
 21
43.1689129313
  0
LWPOLYLINE
  5
2A7
100
AcDbEntity
  8
0
100
AcDbPolyline
 62
7
  6
CONTINUOUS
 90
3
 70
0
 43
0.3500000006
 10
-4.4260572739
 20
54.1066417694
 10
-3.5689145193
 20
54.9637842407
 10
-3.5689145193
 20
51.9637833252
  0
LINE
  5
2A8
100
AcDbEntity
  8
ASSI
100
AcDbLine
 62
250
  6
CONTINUOUS
 10
-79.7281616235
 20
-41.8457383951
 11
-79.7689144737
 21
-41.8864912453
  0
LINE
  5
2A9
100
AcDbEntity
  8
RACCORDO
100
AcDbLine
 62
250
  6
CONTINUOUS
 10
-59.6744936135
 20
-22.0936988961
 11
-59.5189144737
 21
-21.9381197562
  0
LINE
  5
2AA
100
AcDbEntity
  8
RACCORDO
100
AcDbLine
 62
250
  6
CONTINUOUS
 10
-14.4644292649
 20
23.1163654525
 11
-14.6170118227
 21
22.9637828947
  0
LINE
  5
2AB
100
AcDbEntity
  8
RACCORDO
100
AcDbLine
 62
250
  6
CONTINUOUS
 10
-59.1763730709
 20
-22.5917730515
 11
-59.0208171246
 21
-22.4362171053
  0
LINE
  5
2AC
100
AcDbEntity
  8
RACCORDO
100
AcDbLine
 62
250
  6
CONTINUOUS
 10
-13.9662311875
 20
22.6183688319
 11
-14.1189144737
 21
22.4656855457
  0
LINE
  5
2AD
100
AcDbEntity
  8
ASSI
100
AcDbLine
 62
250
  6
CONTINUOUS
 10
-78.9284433192
 20
-42.6454718107
 11
-78.9691886137
 21
-42.6862171053
  0
LINE
  5
2AE
100
AcDbEntity
  8
RACCORDO
100
AcDbLine
 62
250
  6
CONTINUOUS
 10
-14.4543914875
 20
-22.8991732686
 11
-22.2837808499
 21
-22.9208655431
  0
LINE
  5
2AF
100
AcDbEntity
  8
RACCORDO
100
AcDbLine
 62
250
  6
CONTINUOUS
 10
-22.2837808499
 20
-22.9208655431
 11
-28.0079521214
 21
-22.9320252347
  0
LINE
  5
2B0
100
AcDbEntity
  8
RACCORDO
100
AcDbLine
 62
250
  6
CONTINUOUS
 10
56.5485616992
 20
-22.9029200203
 11
41.2313090504
 21
-22.9343397108
  0
LINE
  5
2B1
100
AcDbEntity
  8
RACCORDO
100
AcDbLine
 62
250
  6
CONTINUOUS
 10
41.2313090504
 20
-22.9343397108
 11
36.7663074885
 21
-22.9377670095
  0
LINE
  5
2B2
100
AcDbEntity
  8
RACCORDO
100
AcDbLine
 62
250
  6
CONTINUOUS
 10
-28.0079521214
 20
-22.9320252347
 11
-35.1493440948
 21
-22.938158371
  0
LINE
  5
2B3
100
AcDbEntity
  8
RACCORDO
100
AcDbLine
 62
250
  6
CONTINUOUS
 10
36.7663074885
 20
-22.9377670095
 11
31.8042745038
 21
-22.9379440491
  0
LINE
  5
2B4
100
AcDbEntity
  8
RACCORDO
100
AcDbLine
 62
250
  6
CONTINUOUS
 10
-35.1493440948
 20
-22.938158371
 11
-40.3028563453
 21
-22.93734086
  0
LINE
  5
2B5
100
AcDbEntity
  8
RACCORDO
100
AcDbLine
 62
250
  6
CONTINUOUS
 10
31.8042745038
 20
-22.9379440491
 11
27.0240575489
 21
-22.9342390758
  0
LINE
  5
2B6
100
AcDbEntity
  8
RACCORDO
100
AcDbLine
 62
250
  6
CONTINUOUS
 10
-40.3028563453
 20
-22.93734086
 11
-45.5985949758
 21
-22.9320930503
  0
LINE
  5
2B7
100
AcDbEntity
  8
RACCORDO
100
AcDbLine
 62
250
  6
CONTINUOUS
 10
27.0240575489
 20
-22.9342390758
 11
22.3870364783
 21
-22.9268583931
  0
LINE
  5
2B8
100
AcDbEntity
  8
RACCORDO
100
AcDbLine
 62
250
  6
CONTINUOUS
 10
22.3870364783
 20
-22.9268583931
 11
17.3675266699
 21
-22.9151274207
  0
LINE
  5
2B9
100
AcDbEntity
  8
RACCORDO
100
AcDbLine
 62
250
  6
CONTINUOUS
 10
-45.5985949758
 20
-22.9320930503
 11
-59.1863906465
 21
-22.9029200203
  0
LINE
  5
2BA
100
AcDbEntity
  8
RACCORDO
100
AcDbLine
 62
250
  6
CONTINUOUS
 10
17.3675266699
 20
-22.9151274207
 11
11.8165625402
 21
-22.8991732686
  0
LWPOLYLINE
  5
2BB
100
AcDbEntity
  8
RACCORDO
100
AcDbPolyline
 62
250
  6
CONTINUOUS
 90
25
 70
0
 10
-59.1763730329
 20
-22.5917730135
 10
-59.2079736285
 20
-22.5907744916
 10
-59.2395124711
 20
-22.5877754678
 10
-59.2708630971
 20
-22.5827736282
 10
-59.3019345401
 20
-22.5757662426
 10
-59.3325613106
 20
-22.5667714261
 10
-59.3625104959
 20
-22.5558505876
 10
-59.3916390055
 20
-22.543064802
 10
-59.4198573402
 20
-22.5284635324
 10
-59.4470271317
 20
-22.5121270364
 10
-59.473028172
 20
-22.4941434881
 10
-59.4977821525
 20
-22.4745843712
 10
-59.5212208293
 20
-22.4535142518
 10
-59.5431450599
 20
-22.4311410412
 10
-59.5635964227
 20
-22.4074509111
 10
-59.5827992633
 20
-22.3821153289
 10
-59.6006855053
 20
-22.3550457407
 10
-59.6170003072
 20
-22.3264266527
 10
-59.6316050417
 20
-22.2962923542
 10
-59.6443926705
 20
-22.2645774806
 10
-59.6551273245
 20
-22.2315333917
 10
-59.6635595563
 20
-22.1977185242
 10
-59.6696085093
 20
-22.1634375168
 10
-59.6732658005
 20
-22.1287091826
 10
-59.6744935619
 20
-22.0936988444
  0
LWPOLYLINE
  5
2BC
100
AcDbEntity
  8
RACCORDO
100
AcDbPolyline
 62
250
  6
CONTINUOUS
 90
25
 70
0
 10
-59.1863906465
 20
-22.9029200203
 10
-59.2372736099
 20
-22.9011575651
 10
-59.2876621414
 20
-22.8962100932
 10
-59.3375562351
 20
-22.8880775988
 10
-59.3872101774
 20
-22.8766926938
 10
-59.4363696708
 20
-22.8621227552
 10
-59.4842718334
 20
-22.8445699247
 10
-59.5308519309
 20
-22.8239876302
 10
-59.5761746873
 20
-22.8004224336
 10
-59.6196714094
 20
-22.7742161781
 10
-59.6612888549
 20
-22.7453576508
 10
-59.70108026
 20
-22.7138580586
 10
-59.7386366496
 20
-22.6800928765
 10
-59.7738308761
 20
-22.6442841203
 10
-59.8067900867
 20
-22.6062097736
 10
-59.8374867507
 20
-22.565579264
 10
-59.866153813
 20
-22.5221957138
 10
-59.892558333
 20
-22.476256005
 10
-59.9159739532
 20
-22.4280602061
 10
-59.9364069875
 20
-22.3772747136
 10
-59.9538511335
 20
-22.3242331425
 10
-59.9675611118
 20
-22.2702363912
 10
-59.9772885011
 20
-22.2157180976
 10
-59.9832817378
 20
-22.1602446388
 10
-59.98554083
 20
-22.103816023
  0
LINE
  5
2BD
100
AcDbEntity
  8
ASSI
100
AcDbLine
 62
250
  6
CONTINUOUS
 10
-79.7274806228
 20
42.3726231839
 11
-79.7689144737
 21
42.4140570348
  0
LINE
  5
2BE
100
AcDbEntity
  8
RACCORDO
100
AcDbLine
 62
250
  6
CONTINUOUS
 10
-59.6745086465
 20
22.6212797185
 11
-59.5189144737
 21
22.4656855457
  0
LINE
  5
2BF
100
AcDbEntity
  8
RACCORDO
100
AcDbLine
 62
250
  6
CONTINUOUS
 10
-14.4644292649
 20
-22.5887996631
 11
-14.6170118227
 21
-22.4362171053
  0
LINE
  5
2C0
100
AcDbEntity
  8
RACCORDO
100
AcDbLine
 62
250
  6
CONTINUOUS
 10
-59.1763881031
 20
23.1193538732
 11
-59.0208171246
 21
22.9637828947
  0
LINE
  5
2C1
100
AcDbEntity
  8
RACCORDO
100
AcDbLine
 62
250
  6
CONTINUOUS
 10
-13.9662311875
 20
-22.0908030424
 11
-14.1189144737
 21
-21.9381197562
  0
LINE
  5
2C2
100
AcDbEntity
  8
ASSI
100
AcDbLine
 62
250
  6
CONTINUOUS
 10
-78.9277564175
 20
43.1723506985
 11
-78.9691886137
 21
43.2137828947
  0
LWPOLYLINE
  5
2C3
100
AcDbEntity
  8
RACCORDO
100
AcDbPolyline
 62
250
  6
CONTINUOUS
 90
10
 70
0
 10
-59.81170358
 20
-22.1017230871
 10
-59.7869011899
 20
-22.1010548148
 10
-59.7640223585
 20
-22.1003106563
 10
-59.7433031193
 20
-22.0994982888
 10
-59.7249572232
 20
-22.0986260934
 10
-59.7091739351
 20
-22.0977030684
 10
-59.696116083
 20
-22.0967387362
 10
-59.6859183764
 20
-22.0957430456
 10
-59.6786860169
 20
-22.0947262689
 10
-59.6744936135
 20
-22.0936988961
  0
LWPOLYLINE
  5
2C4
100
AcDbEntity
  8
RACCORDO
100
AcDbPolyline
 62
250
  6
CONTINUOUS
 90
11
 70
0
 10
11.1654117811
 20
-22.0996341108
 10
11.1917778905
 20
-22.0990320139
 10
11.2164787462
 20
-22.0983454519
 10
11.2392608069
 20
-22.0975814719
 10
11.2598902262
 20
-22.0967479158
 10
11.2781552541
 20
-22.0958533398
 10
11.2938684102
 20
-22.0949069262
 10
11.3068684078
 20
-22.0939183894
 10
11.3170218093
 20
-22.0928978763
 10
11.3242243967
 20
-22.091855862
 10
11.3284022401
 20
-22.0908030424
  0
LINE
  5
2C5
100
AcDbEntity
  8
RACCORDO
100
AcDbLine
 62
250
  6
CONTINUOUS
 10
-59.8660383254
 20
-22.1028052492
 11
-59.81170358
 21
-22.1017230871
  0
LINE
  5
2C6
100
AcDbEntity
  8
RACCORDO
100
AcDbLine
 62
250
  6
CONTINUOUS
 10
11.1087806564
 20
-22.1005611184
 11
11.1654117811
 21
-22.0996341108
  0
LINE
  5
2C7
100
AcDbEntity
  8
RACCORDO
100
AcDbLine
 62
250
  6
CONTINUOUS
 10
-59.924790157
 20
-22.1035125993
 11
-59.8660383254
 21
-22.1028052492
  0
LWPOLYLINE
  5
2C8
100
AcDbEntity
  8
RACCORDO
100
AcDbPolyline
 62
250
  6
CONTINUOUS
 90
3
 70
0
 10
11.0185134753
 20
-22.101194934
 10
11.0489045686
 20
-22.1010885109
 10
11.1087806564
 20
-22.1005611184
  0
LINE
  5
2C9
100
AcDbEntity
  8
RACCORDO
100
AcDbLine
 62
250
  6
CONTINUOUS
 10
-59.98554083
 20
-22.103816023
 11
-59.924790157
 21
-22.1035125993
  0
LINE
  5
2CA
100
AcDbEntity
  8
ASSI
100
AcDbLine
 62
250
  6
CONTINUOUS
 10
-11.3189144736
 20
-21.4862169867
 11
-4.4508279184
 21
-21.464587321
  0
LINE
  5
2CB
100
AcDbEntity
  8
RACCORDO
100
AcDbLine
 62
250
  6
CONTINUOUS
 10
-14.4644292649
 20
-22.5887996631
 11
-20.6276209538
 21
-22.603040188
  0
LINE
  5
2CC
100
AcDbEntity
  8
RACCORDO
100
AcDbLine
 62
250
  6
CONTINUOUS
 10
-20.6276209538
 20
-22.603040188
 11
-26.8041948287
 21
-22.6123747613
  0
LINE
  5
2CD
100
AcDbEntity
  8
ASSI
100
AcDbLine
 62
250
  6
CONTINUOUS
 10
-4.4508279184
 20
-21.464587321
 11
-1.8943354122
 21
-21.4598921717
  0
LINE
  5
2CE
100
AcDbEntity
  8
RACCORDO
100
AcDbLine
 62
250
  6
CONTINUOUS
 10
56.5385441235
 20
-22.5917730515
 11
42.2716656414
 21
-22.6144089153
  0
LINE
  5
2CF
100
AcDbEntity
  8
RACCORDO
100
AcDbLine
 62
250
  6
CONTINUOUS
 10
-26.8041948287
 20
-22.6123747613
 11
-32.7993200098
 21
-22.6172119767
  0
LINE
  5
2D0
100
AcDbEntity
  8
RACCORDO
100
AcDbLine
 62
250
  6
CONTINUOUS
 10
42.2716656414
 20
-22.6144089153
 11
36.765334927
 21
-22.6176631489
  0
LINE
  5
2D1
100
AcDbEntity
  8
RACCORDO
100
AcDbLine
 62
7
  6
CONTINUOUS
 10
-59.0208171246
 20
-22.4362171053
 11
-14.6170118227
 21
-22.4362171053
  0
LINE
  5
2D2
100
AcDbEntity
  8
RACCORDO
100
AcDbLine
 62
7
  6
CONTINUOUS
 10
11.9791828754
 20
-22.4362171053
 11
56.3829881773
 21
-22.4362171053
  0
LINE
  5
2D3
100
AcDbEntity
  8
RACCORDO
100
AcDbLine
 62
250
  6
CONTINUOUS
 10
-32.7993200098
 20
-22.6172119767
 11
-40.3015411641
 21
-22.617364158
  0
LINE
  5
2D4
100
AcDbEntity
  8
RACCORDO
100
AcDbLine
 62
250
  6
CONTINUOUS
 10
36.765334927
 20
-22.6176631489
 11
31.059451348
 21
-22.6175590496
  0
LINE
  5
2D5
100
AcDbEntity
  8
RACCORDO
100
AcDbLine
 62
250
  6
CONTINUOUS
 10
-40.3015411641
 20
-22.617364158
 11
-46.6410783796
 21
-22.6126701026
  0
LINE
  5
2D6
100
AcDbEntity
  8
RACCORDO
100
AcDbLine
 62
250
  6
CONTINUOUS
 10
31.059451348
 20
-22.6175590496
 11
25.8173162088
 21
-22.6141447881
  0
LINE
  5
2D7
100
AcDbEntity
  8
ASSI
100
AcDbLine
 62
250
  6
CONTINUOUS
 10
-1.8943354122
 20
-21.4598921717
 11
0.6002681479
 21
-21.4616839307
  0
LINE
  5
2D8
100
AcDbEntity
  8
RACCORDO
100
AcDbLine
 62
250
  6
CONTINUOUS
 10
25.8173162088
 20
-22.6141447881
 11
20.1594493693
 21
-22.6067998995
  0
LINE
  5
2D9
100
AcDbEntity
  8
RACCORDO
100
AcDbLine
 62
250
  6
CONTINUOUS
 10
20.1594493693
 20
-22.6067998995
 11
15.0694771621
 21
-22.597101716
  0
LINE
  5
2DA
100
AcDbEntity
  8
RACCORDO
100
AcDbLine
 62
250
  6
CONTINUOUS
 10
-46.6410783796
 20
-22.6126701026
 11
-59.1763730709
 21
-22.5917730515
  0
LINE
  5
2DB
100
AcDbEntity
  8
RACCORDO
100
AcDbLine
 62
250
  6
CONTINUOUS
 10
15.0694771621
 20
-22.597101716
 11
11.8266003176
 21
-22.5887996631
  0
LINE
  5
2DC
100
AcDbEntity
  8
ASSI
100
AcDbLine
 62
250
  6
CONTINUOUS
 10
0.6002681479
 20
-21.4616839307
 11
3.1908950863
 21
-21.4688972364
  0
LINE
  5
2DD
100
AcDbEntity
  8
ASSI
100
AcDbLine
 62
250
  6
CONTINUOUS
 10
3.1908950863
 20
-21.4688972364
 11
8.6811084084
 21
-21.4862170302
  0
LINE
  5
2DE
100
AcDbEntity
  8
RACCORDO
100
AcDbLine
 62
250
  6
CONTINUOUS
 10
57.3477118826
 20
-22.1038160232
 11
57.2869609547
 21
-22.1035126329
  0
LINE
  5
2DF
100
AcDbEntity
  8
RACCORDO
100
AcDbLine
 62
250
  6
CONTINUOUS
 10
-13.6563424226
 20
-22.1011949342
 11
-13.7169262104
 21
-22.1008765406
  0
LINE
  5
2E0
100
AcDbEntity
  8
RACCORDO
100
AcDbLine
 62
250
  6
CONTINUOUS
 10
57.2869609547
 20
-22.1035126329
 11
57.2282090002
 21
-22.1028053042
  0
LWPOLYLINE
  5
2E1
100
AcDbEntity
  8
RACCORDO
100
AcDbPolyline
 62
250
  6
CONTINUOUS
 90
13
 70
0
 10
-13.7169262104
 20
-22.1008765406
 10
-13.7754805093
 20
-22.1001456047
 10
-13.8032412668
 20
-22.0996341578
 10
-13.8296073722
 20
-22.0990320633
 10
-13.8543081937
 20
-22.0983455019
 10
-13.8770901956
 20
-22.097581521
 10
-13.897719542
 20
-22.0967479624
 10
-13.9159844885
 20
-22.0958533822
 10
-13.9316975613
 20
-22.0949069632
 10
-13.9446974839
 20
-22.0939184196
 10
-13.9548508243
 20
-22.0928978981
 10
-13.9620533673
 20
-22.0918558739
 10
-13.9662311875
 20
-22.0908030427
  0
LWPOLYLINE
  5
2E2
100
AcDbEntity
  8
RACCORDO
100
AcDbPolyline
 62
250
  6
CONTINUOUS
 90
11
 70
0
 10
57.2282090002
 20
-22.1028053042
 10
57.1738742568
 20
-22.1017231535
 10
57.1490719009
 20
-22.1010548832
 10
57.1261931203
 20
-22.1003107244
 10
57.1054739377
 20
-22.0994983543
 10
57.0871281094
 20
-22.0986261544
 10
57.0713448846
 20
-22.0977031227
 10
57.0582870646
 20
-22.0967387799
 10
57.0480893657
 20
-22.0957430741
 10
57.0408570125
 20
-22.094726278
 10
57.0366646284
 20
-22.0936988817
  0
LWPOLYLINE
  5
2E3
100
AcDbEntity
  8
RACCORDO
100
AcDbPolyline
 62
250
  6
CONTINUOUS
 90
25
 70
0
 10
11.8266003176
 20
-22.5887996631
 10
11.7950031042
 20
-22.5878012029
 10
11.7634672904
 20
-22.5848030967
 10
11.7321192979
 20
-22.5798030492
 10
11.7010500877
 20
-22.5727983874
 10
11.6704250595
 20
-22.5638072045
 10
11.6404769656
 20
-22.5528907645
 10
11.6113488429
 20
-22.5401101091
 10
11.5831301788
 20
-22.5255146611
 10
11.5559592755
 20
-22.5091844531
 10
11.5299561211
 20
-22.4912074265
 10
11.5051992614
 20
-22.4716551391
 10
11.4817575088
 20
-22.450592463
 10
11.4598304249
 20
-22.4282277955
 10
11.4393758056
 20
-22.404546922
 10
11.4201684
 20
-22.3792202268
 10
11.4022763868
 20
-22.3521590785
 10
11.3859547438
 20
-22.323547773
 10
11.3713417073
 20
-22.2934190247
 10
11.358544513
 20
-22.2617066816
 10
11.3477998727
 20
-22.2286624733
 10
11.3393580372
 20
-22.1948449765
 10
11.3333004004
 20
-22.1605589176
 10
11.3296357093
 20
-22.1258231048
 10
11.3284022907
 20
-22.0908029918
  0
LWPOLYLINE
  5
2E4
100
AcDbEntity
  8
RACCORDO
100
AcDbPolyline
 62
250
  6
CONTINUOUS
 90
25
 70
0
 10
11.8165625402
 20
-22.8991732686
 10
11.7657627998
 20
-22.8974146959
 10
11.7154563216
 20
-22.8924763667
 10
11.6656431057
 20
-22.8843582808
 10
11.6160696613
 20
-22.8729932597
 10
11.5669894792
 20
-22.858448482
 10
11.5191630313
 20
-22.8409254835
 10
11.4726544683
 20
-22.8203778192
 10
11.4273996396
 20
-22.7968519342
 10
11.3839665651
 20
-22.7706886997
 10
11.3424081037
 20
-22.7418765798
 10
11.3026713964
 20
-22.7104271103
 10
11.265165886
 20
-22.6767157706
 10
11.230019267
 20
-22.6409650519
 10
11.1971038448
 20
-22.6029524628
 10
11.1664459789
 20
-22.5623860092
 10
11.1378125245
 20
-22.5190693785
 10
11.1114366263
 20
-22.4731988832
 10
11.0880440781
 20
-22.4250714663
 10
11.0676278207
 20
-22.3743531668
 10
11.0501949132
 20
-22.3213779457
 10
11.0364923278
 20
-22.2674446293
 10
11.026769055
 20
-22.2129861596
 10
11.0207761041
 20
-22.1575695945
 10
11.0185134753
 20
-22.101194934
  0
LWPOLYLINE
  5
2E5
100
AcDbEntity
  8
RACCORDO
100
AcDbPolyline
 62
250
  6
CONTINUOUS
 90
10
 70
0
 10
-14.4564753564
 20
-22.7256693363
 10
-14.457138464
 20
-22.7009260122
 10
-14.4578765668
 20
-22.6781034655
 10
-14.4586820723
 20
-22.6574364554
 10
-14.459546695
 20
-22.6391375685
 10
-14.4604615411
 20
-22.6233950326
 10
-14.4614172002
 20
-22.61037078
 10
-14.4624038422
 20
-22.6001987818
 10
-14.4634113182
 20
-22.5929836706
 10
-14.4644292649
 20
-22.5887996631
  0
LINE
  5
2E6
100
AcDbEntity
  8
RACCORDO
100
AcDbLine
 62
250
  6
CONTINUOUS
 10
-14.4554005684
 20
-22.7798831101
 11
-14.4564753564
 21
-22.7256693363
  0
LINE
  5
2E7
100
AcDbEntity
  8
RACCORDO
100
AcDbLine
 62
250
  6
CONTINUOUS
 10
-14.4546963114
 20
-22.8385198916
 11
-14.4554005684
 21
-22.7798831101
  0
LINE
  5
2E8
100
AcDbEntity
  8
RACCORDO
100
AcDbLine
 62
250
  6
CONTINUOUS
 10
-14.4543914875
 20
-22.8991732686
 11
-14.4546963114
 21
-22.8385198916
  0
LINE
  5
2E9
100
AcDbEntity
  8
RACCORDO
100
AcDbLine
 62
250
  6
CONTINUOUS
 10
-13.6563424226
 20
22.6287607235
 11
-13.633915186
 21
14.5633360363
  0
LINE
  5
2EA
100
AcDbEntity
  8
RACCORDO
100
AcDbLine
 62
250
  6
CONTINUOUS
 10
-13.9662311875
 20
22.6183688319
 11
-13.953481062
 21
17.2210801815
  0
LINE
  5
2EB
100
AcDbEntity
  8
RACCORDO
100
AcDbLine
 62
250
  6
CONTINUOUS
 10
-13.633915186
 20
14.5633360363
 11
-13.6234200103
 21
9.2325844088
  0
LINE
  5
2EC
100
AcDbEntity
  8
RACCORDO
100
AcDbLine
 62
250
  6
CONTINUOUS
 10
-13.953481062
 20
17.2210801815
 11
-13.943064187
 21
10.5616741568
  0
LINE
  5
2ED
100
AcDbEntity
  8
RACCORDO
100
AcDbLine
 62
250
  6
CONTINUOUS
 10
-13.943064187
 20
10.5616741568
 11
-13.9380332549
 21
4.5654714169
  0
LINE
  5
2EE
100
AcDbEntity
  8
RACCORDO
100
AcDbLine
 62
250
  6
CONTINUOUS
 10
-13.6234200103
 20
9.2325844088
 11
-13.6174955803
 21
3.2348368047
  0
LINE
  5
2EF
100
AcDbEntity
  8
RACCORDO
100
AcDbLine
 62
7
  6
CONTINUOUS
 10
-14.1189144737
 20
-21.9381197562
 11
-14.1189144737
 21
22.4656855457
  0
LINE
  5
2F0
100
AcDbEntity
  8
RACCORDO
100
AcDbLine
 62
250
  6
CONTINUOUS
 10
-13.9380332549
 20
4.5654714169
 11
-13.9392549061
 21
-6.0897399608
  0
LINE
  5
2F1
100
AcDbEntity
  8
RACCORDO
100
AcDbLine
 62
250
  6
CONTINUOUS
 10
-13.6174955803
 20
3.2348368047
 11
-13.618818416
 21
-4.7589926414
  0
LINE
  5
2F2
100
AcDbEntity
  8
RACCORDO
100
AcDbLine
 62
250
  6
CONTINUOUS
 10
-13.9392549061
 20
-6.0897399608
 11
-13.9448384103
 21
-11.4187405752
  0
LINE
  5
2F3
100
AcDbEntity
  8
RACCORDO
100
AcDbLine
 62
250
  6
CONTINUOUS
 10
-13.618818416
 20
-4.7589926414
 11
-13.6245553299
 21
-9.4251954438
  0
LINE
  5
2F4
100
AcDbEntity
  8
RACCORDO
100
AcDbLine
 62
250
  6
CONTINUOUS
 10
-13.9448384103
 20
-11.4187405752
 11
-13.9535913354
 21
-16.7565340967
  0
LINE
  5
2F5
100
AcDbEntity
  8
RACCORDO
100
AcDbLine
 62
250
  6
CONTINUOUS
 10
-13.6245553299
 20
-9.4251954438
 11
-13.6340319386
 21
-14.0857861048
  0
LWPOLYLINE
  5
2F6
100
AcDbEntity
  8
RACCORDO
100
AcDbPolyline
 62
250
  6
CONTINUOUS
 90
3
 70
0
 10
-13.9535913354
 20
-16.7565340967
 10
-13.963845693
 20
-21.2456322064
 10
-13.9662311875
 20
-22.0908030424
  0
LINE
  5
2F7
100
AcDbEntity
  8
RACCORDO
100
AcDbLine
 62
250
  6
CONTINUOUS
 10
-13.6340319386
 20
-14.0857861048
 11
-13.6488976337
 21
-19.6493744657
  0
LINE
  5
2F8
100
AcDbEntity
  8
RACCORDO
100
AcDbLine
 62
250
  6
CONTINUOUS
 10
-13.6488976337
 20
-19.6493744657
 11
-13.6563424226
 21
-22.101194934
  0
LINE
  5
2F9
100
AcDbEntity
  8
RACCORDO
100
AcDbLine
 62
250
  6
CONTINUOUS
 10
-14.4543914874
 20
23.426739058
 11
-14.454696295
 21
23.3660853149
  0
LINE
  5
2FA
100
AcDbEntity
  8
RACCORDO
100
AcDbLine
 62
250
  6
CONTINUOUS
 10
-14.454696295
 20
23.3660853149
 11
-14.4554005445
 21
23.3074483294
  0
LWPOLYLINE
  5
2FB
100
AcDbEntity
  8
RACCORDO
100
AcDbPolyline
 62
250
  6
CONTINUOUS
 90
11
 70
0
 10
-14.4554005445
 20
23.3074483294
 10
-14.4564753305
 20
23.2532345177
 10
-14.4571384387
 20
23.228491228
 10
-14.4578765426
 20
23.2056687441
 10
-14.4586820501
 20
23.1850018145
 10
-14.4595466752
 20
23.1667030196
 10
-14.460461524
 20
23.1509605792
 10
-14.4614171864
 20
23.1379364142
 10
-14.4624038322
 20
23.1277644892
 10
-14.4634113126
 20
23.1205494316
 10
-14.4644292647
 20
23.1163654525
  0
LWPOLYLINE
  5
2FC
100
AcDbEntity
  8
RACCORDO
100
AcDbPolyline
 62
250
  6
CONTINUOUS
 90
25
 70
0
 10
-13.9662311875
 20
-22.0908030424
 10
-13.9672351405
 20
-22.1223935646
 10
-13.9702391855
 20
-22.1539223419
 10
-13.9752456568
 20
-22.1852629601
 10
-13.9822573291
 20
-22.2163244235
 10
-13.9912560894
 20
-22.2469413665
 10
-14.0021805189
 20
-22.2768811428
 10
-14.014969615
 20
-22.3060007108
 10
-14.0295739695
 20
-22.3342105682
 10
-14.045913329
 20
-22.3613725108
 10
-14.0638997504
 20
-22.3873665388
 10
-14.0834616897
 20
-22.412114104
 10
-14.1045340516
 20
-22.4355465216
 10
-14.1269083906
 20
-22.4574642756
 10
-14.1505989611
 20
-22.4779095241
 10
-14.1759352697
 20
-22.4971075261
 10
-14.2030059447
 20
-22.5149900187
 10
-14.2316266693
 20
-22.5313021415
 10
-14.2617645982
 20
-22.5459059598
 10
-14.2934859015
 20
-22.5586941889
 10
-14.3265388388
 20
-22.5694301572
 10
-14.360364682
 20
-22.5778639898
 10
-14.3946586629
 20
-22.5839143693
 10
-14.4294020274
 20
-22.5875723684
 10
-14.4644293165
 20
-22.5887996114
  0
LWPOLYLINE
  5
2FD
100
AcDbEntity
  8
RACCORDO
100
AcDbPolyline
 62
250
  6
CONTINUOUS
 90
25
 70
0
 10
-13.6563424226
 20
-22.101194934
 10
-13.6581068595
 20
-22.1520001455
 10
-13.6630513018
 20
-22.2023114338
 10
-13.6711757497
 20
-22.2521287988
 10
-13.6825474363
 20
-22.301705861
 10
-13.6970991283
 20
-22.3507889999
 10
-13.7146291265
 20
-22.3986173544
 10
-13.7351839321
 20
-22.4451266223
 10
-13.7587170438
 20
-22.4903811059
 10
-13.7848872575
 20
-22.5338128501
 10
-13.8137061299
 20
-22.5753689473
 10
-13.8451621043
 20
-22.6151023052
 10
-13.8788793067
 20
-22.6526036928
 10
-13.9146352591
 20
-22.6877454253
 10
-13.9526524395
 20
-22.7206551876
 10
-13.9932224073
 20
-22.7513068029
 10
-14.0365414258
 20
-22.7799333238
 10
-14.0824132318
 20
-22.8063016977
 10
-14.1305405952
 20
-22.8296865901
 10
-14.1812572365
 20
-22.8500950707
 10
-14.2342294351
 20
-22.8675200699
 10
-14.2881587987
 20
-22.8812150437
 10
-14.34261253
 20
-22.8909311441
 10
-14.3980234262
 20
-22.896917219
 10
-14.4543914875
 20
-22.8991732686
  0
LWPOLYLINE
  5
2FE
100
AcDbEntity
  8
ASSI
100
AcDbPolyline
 62
250
  6
CONTINUOUS
 90
4
 70
0
 10
-11.3203076323
 20
43.151872913
 10
-11.3204630136
 20
43.1608802018
 10
-11.3206203819
 20
43.1667298646
 10
-11.3207787242
 20
43.1693843579
  0
LINE
  5
2FF
100
AcDbEntity
  8
ASSI
100
AcDbLine
 62
250
  6
CONTINUOUS
 10
-11.3200068137
 20
43.1246367266
 11
-11.3203076323
 21
43.151872913
  0
LINE
  5
300
100
AcDbEntity
  8
ASSI
100
AcDbLine
 62
250
  6
CONTINUOUS
 10
-11.3193563494
 20
43.0077060073
 11
-11.3200068137
 21
43.1246367266
  0
LINE
  5
301
100
AcDbEntity
  8
ASSI
100
AcDbLine
 62
250
  6
CONTINUOUS
 10
-11.3190222994
 20
-42.3094864825
 11
-11.3193563494
 21
43.0077060073
  0
LINE
  5
302
100
AcDbEntity
  8
ASSI
100
AcDbLine
 62
250
  6
CONTINUOUS
 10
-11.3198300555
 20
-42.5581561288
 11
-11.3190348832
 21
-42.309499079
  0
LWPOLYLINE
  5
303
100
AcDbEntity
  8
ASSI
100
AcDbPolyline
 62
250
  6
CONTINUOUS
 90
6
 70
0
 10
-11.3208830578
 20
-42.6418183853
 10
-11.3207247259
 20
-42.6391639628
 10
-11.3205673682
 20
-42.6333144688
 10
-11.3204119979
 20
-42.6243074347
 10
-11.3202596158
 20
-42.6122006823
 10
-11.3198300555
 20
-42.5581561288
  0
LWPOLYLINE
  5
304
100
AcDbEntity
  8
0
100
AcDbPolyline
 62
7
  6
CONTINUOUS
 90
4
 70
0
 43
0.3500000006
 10
-0.5689144889
 20
54.3209262543
 10
-0.5689144889
 20
54.9637842407
 10
0.9310855086
 20
54.9637842407
 10
0.0739426699
 20
51.9637833252
  0
LWPOLYLINE
  5
305
100
AcDbEntity
  8
0
100
AcDbPolyline
 62
7
  6
CONTINUOUS
 90
4
 70
0
 43
0.3500000006
 10
83.9525136108
 20
-1.4725105133
 10
83.0953756714
 20
-1.4725105133
 10
82.6667976379
 20
-1.0439392776
 10
82.6667976379
 20
-0.4010835571
  0
LINE
  5
306
100
AcDbEntity
  8
ASSI
100
AcDbLine
 62
250
  6
CONTINUOUS
 10
77.0862158409
 20
0.2637828947
 11
76.7714321231
 21
0.2637828947
  0
LINE
  5
307
100
AcDbEntity
  8
RACCORDO
100
AcDbLine
 62
250
  6
CONTINUOUS
 10
57.062901126
 20
0.2637828947
 11
76.7714321231
 21
0.2637828947
  0
LINE
  5
308
100
AcDbEntity
  8
RACCORDO
100
AcDbLine
 62
250
  6
CONTINUOUS
 10
-59.7007300733
 20
0.2637828947
 11
-79.4092610705
 21
0.2637828947
  0
LINE
  5
309
100
AcDbEntity
  8
ASSI
100
AcDbLine
 62
250
  6
CONTINUOUS
 10
-79.4092610705
 20
0.2637828947
 11
-79.7240447883
 21
0.2637828947
  0
LWPOLYLINE
  5
30A
100
AcDbEntity
  8
ASSI
100
AcDbPolyline
 62
250
  6
CONTINUOUS
 90
4
 70
0
 10
8.6828789603
 20
-42.6418560994
 10
8.6827177774
 20
-42.6392021952
 10
8.6825576739
 20
-42.6333541451
 10
8.6823996767
 20
-42.6243495773
  0
LINE
  5
30B
100
AcDbEntity
  8
ASSI
100
AcDbLine
 62
250
  6
CONTINUOUS
 10
8.6823996767
 20
-42.6243495773
 11
8.6820940329
 21
-42.5971224151
  0
LINE
  5
30C
100
AcDbEntity
  8
ASSI
100
AcDbLine
 62
250
  6
CONTINUOUS
 10
8.6820940329
 20
-42.5971224151
 11
8.6814345467
 21
-42.480231162
  0
LINE
  5
30D
100
AcDbEntity
  8
RACCORDO
100
AcDbLine
 62
250
  6
CONTINUOUS
 10
11.0185134753
 20
-22.101194934
 11
11.0010739553
 21
-16.0337230095
  0
LINE
  5
30E
100
AcDbEntity
  8
RACCORDO
100
AcDbLine
 62
250
  6
CONTINUOUS
 10
11.3284022401
 20
-22.0908030424
 11
11.3182886193
 21
-18.0253472778
  0
LINE
  5
30F
100
AcDbEntity
  8
RACCORDO
100
AcDbLine
 62
250
  6
CONTINUOUS
 10
11.0010739553
 20
-16.0337230095
 11
10.9889708343
 21
-10.7047094538
  0
LINE
  5
310
100
AcDbEntity
  8
RACCORDO
100
AcDbLine
 62
250
  6
CONTINUOUS
 10
11.3182886193
 20
-18.0253472778
 11
11.3078655471
 21
-12.0325481566
  0
LINE
  5
311
100
AcDbEntity
  8
RACCORDO
100
AcDbLine
 62
250
  6
CONTINUOUS
 10
10.9889708343
 20
-10.7047094538
 11
10.982181651
 21
-6.0385864105
  0
LINE
  5
312
100
AcDbEntity
  8
RACCORDO
100
AcDbLine
 62
250
  6
CONTINUOUS
 10
11.3078655471
 20
-12.0325481566
 11
11.3018926577
 21
-6.7023686229
  0
LINE
  5
313
100
AcDbEntity
  8
RACCORDO
100
AcDbLine
 62
250
  6
CONTINUOUS
 10
10.982181651
 20
-6.0385864105
 11
10.9791806877
 21
-1.3752317411
  0
LINE
  5
314
100
AcDbEntity
  8
RACCORDO
100
AcDbLine
 62
250
  6
CONTINUOUS
 10
11.3018926577
 20
-6.7023686229
 11
11.2993661024
 21
-1.3746557177
  0
LINE
  5
315
100
AcDbEntity
  8
ASSI
100
AcDbLine
 62
250
  6
CONTINUOUS
 10
8.6814345467
 20
-42.480231162
 11
8.6811149768
 21
42.8373387073
  0
LINE
  5
316
100
AcDbEntity
  8
RACCORDO
100
AcDbLine
 62
250
  6
CONTINUOUS
 10
10.9791806877
 20
-1.3752317411
 11
10.9800489044
 21
3.9535410007
  0
LINE
  5
317
100
AcDbEntity
  8
RACCORDO
100
AcDbLine
 62
250
  6
CONTINUOUS
 10
11.2993661024
 20
-1.3746557177
 11
11.3005728382
 21
5.2846650277
  0
LINE
  5
318
100
AcDbEntity
  8
RACCORDO
100
AcDbLine
 62
250
  6
CONTINUOUS
 10
11.3005728382
 20
5.2846650277
 11
11.3061292628
 21
11.2804792851
  0
LINE
  5
319
100
AcDbEntity
  8
RACCORDO
100
AcDbLine
 62
250
  6
CONTINUOUS
 10
10.9800489044
 20
3.9535410007
 11
10.98672642
 21
9.9527841074
  0
LINE
  5
31A
100
AcDbEntity
  8
RACCORDO
100
AcDbLine
 62
250
  6
CONTINUOUS
 10
11.3061292628
 20
11.2804792851
 11
11.3171234966
 21
17.977156322
  0
LINE
  5
31B
100
AcDbEntity
  8
RACCORDO
100
AcDbLine
 62
250
  6
CONTINUOUS
 10
10.98672642
 20
9.9527841074
 11
10.997812729
 21
15.2756170084
  0
LINE
  5
31C
100
AcDbEntity
  8
RACCORDO
100
AcDbLine
 62
250
  6
CONTINUOUS
 10
11.3171234966
 20
17.977156322
 11
11.3284022401
 21
22.6183688319
  0
LINE
  5
31D
100
AcDbEntity
  8
RACCORDO
100
AcDbLine
 62
250
  6
CONTINUOUS
 10
10.997812729
 20
15.2756170084
 11
11.0185134753
 21
22.6287607235
  0
LINE
  5
31E
100
AcDbEntity
  8
ASSI
100
AcDbLine
 62
250
  6
CONTINUOUS
 10
8.6811022617
 20
42.8373386628
 11
8.6819057656
 21
43.0857767685
  0
LWPOLYLINE
  5
31F
100
AcDbEntity
  8
ASSI
100
AcDbPolyline
 62
250
  6
CONTINUOUS
 90
6
 70
0
 10
8.6819057656
 20
43.0857767685
 10
8.6823418736
 20
43.1398053442
 10
8.682496752
 20
43.1519088935
 10
8.6826547491
 20
43.1609137204
 10
8.6828148525
 20
43.1667619238
 10
8.6829760352
 20
43.1694158826
  0
LWPOLYLINE
  5
320
100
AcDbEntity
  8
RACCORDO
100
AcDbPolyline
 62
250
  6
CONTINUOUS
 90
25
 70
0
 10
11.3284022401
 20
22.6183688319
 10
11.3294061931
 20
22.649959354
 10
11.3324102381
 20
22.6814881314
 10
11.3374167094
 20
22.7128287496
 10
11.3444283818
 20
22.743890213
 10
11.353427142
 20
22.774507156
 10
11.3643515715
 20
22.8044469323
 10
11.3771406676
 20
22.8335665003
 10
11.3917450221
 20
22.8617763577
 10
11.4080843816
 20
22.8889383003
 10
11.426070803
 20
22.9149323283
 10
11.4456327423
 20
22.9396798935
 10
11.4667051042
 20
22.963112311
 10
11.4890794432
 20
22.985030065
 10
11.5127700138
 20
23.0054753135
 10
11.5381063223
 20
23.0246733156
 10
11.5651769973
 20
23.0425558082
 10
11.5937977219
 20
23.058867931
 10
11.6239356508
 20
23.0734717493
 10
11.6556569542
 20
23.0862599783
 10
11.6887098914
 20
23.0969959467
 10
11.7225357346
 20
23.1054297793
 10
11.7568297155
 20
23.1114801587
 10
11.79157308
 20
23.1151381578
 10
11.8266003692
 20
23.1163654009
  0
LWPOLYLINE
  5
321
100
AcDbEntity
  8
RACCORDO
100
AcDbPolyline
 62
250
  6
CONTINUOUS
 90
25
 70
0
 10
11.0185134753
 20
22.6287607235
 10
11.0202779121
 20
22.679565935
 10
11.0252223544
 20
22.7298772232
 10
11.0333468023
 20
22.7796945883
 10
11.0447184889
 20
22.8292716504
 10
11.059270181
 20
22.8783547894
 10
11.0768001791
 20
22.9261831439
 10
11.0973549847
 20
22.9726924118
 10
11.1208880964
 20
23.0179468953
 10
11.1470583101
 20
23.0613786396
 10
11.1758771825
 20
23.1029347367
 10
11.207333157
 20
23.1426680946
 10
11.2410503593
 20
23.1801694822
 10
11.2768063118
 20
23.2153112148
 10
11.3148234921
 20
23.2482209771
 10
11.3553934599
 20
23.2788725923
 10
11.3987124784
 20
23.3074991132
 10
11.4445842845
 20
23.3338674871
 10
11.4927116478
 20
23.3572523795
 10
11.5434282891
 20
23.3776608602
 10
11.5964004877
 20
23.3950858594
 10
11.6503298514
 20
23.4087808332
 10
11.7047835826
 20
23.4184969335
 10
11.7601944789
 20
23.4244830085
 10
11.8165625402
 20
23.426739058
  0
LWPOLYLINE
  5
322
100
AcDbEntity
  8
RACCORDO
100
AcDbPolyline
 62
250
  6
CONTINUOUS
 90
10
 70
0
 10
11.818646409
 20
23.2532351258
 10
11.8193095166
 20
23.2284918017
 10
11.8200476194
 20
23.205669255
 10
11.820853125
 20
23.1850022449
 10
11.8217177476
 20
23.166703358
 10
11.8226325937
 20
23.1509608221
 10
11.8235882528
 20
23.1379365694
 10
11.8245748948
 20
23.1277645713
 10
11.8255823708
 20
23.12054946
 10
11.8266003176
 20
23.1163654525
  0
LINE
  5
323
100
AcDbEntity
  8
RACCORDO
100
AcDbLine
 62
250
  6
CONTINUOUS
 10
11.817571621
 20
23.3074488995
 11
11.818646409
 21
23.2532351258
  0
LINE
  5
324
100
AcDbEntity
  8
RACCORDO
100
AcDbLine
 62
250
  6
CONTINUOUS
 10
11.816867364
 20
23.3660856811
 11
11.817571621
 21
23.3074488995
  0
LINE
  5
325
100
AcDbEntity
  8
RACCORDO
100
AcDbLine
 62
250
  6
CONTINUOUS
 10
11.8165625402
 20
23.426739058
 11
11.816867364
 21
23.3660856811
  0
LINE
  5
326
100
AcDbEntity
  8
RACCORDO
100
AcDbLine
 62
7
  6
CONTINUOUS
 10
11.4810855263
 20
22.4656855457
 11
11.4810855263
 21
-21.9381197562
  0
LINE
  5
327
100
AcDbEntity
  8
RACCORDO
100
AcDbLine
 62
250
  6
CONTINUOUS
 10
11.81656254
 20
-22.8991732686
 11
11.8168673477
 21
-22.8385195255
  0
LINE
  5
328
100
AcDbEntity
  8
RACCORDO
100
AcDbLine
 62
250
  6
CONTINUOUS
 10
11.8168673477
 20
-22.8385195255
 11
11.8175715972
 21
-22.7798825399
  0
LWPOLYLINE
  5
329
100
AcDbEntity
  8
RACCORDO
100
AcDbPolyline
 62
250
  6
CONTINUOUS
 90
11
 70
0
 10
11.8175715972
 20
-22.7798825399
 10
11.8186463831
 20
-22.7256687283
 10
11.8193094914
 20
-22.7009254385
 10
11.8200475952
 20
-22.6781029546
 10
11.8208531027
 20
-22.657436025
 10
11.8217177279
 20
-22.6391372302
 10
11.8226325767
 20
-22.6233947897
 10
11.823588239
 20
-22.6103706248
 10
11.8245748849
 20
-22.6001986998
 10
11.8255823653
 20
-22.5929836422
 10
11.8266003173
 20
-22.5887996631
  0
LINE
  5
32A
100
AcDbEntity
  8
ASSI
100
AcDbLine
 62
250
  6
CONTINUOUS
 10
76.2906156106
 20
43.173038839
 11
76.3313596663
 21
43.2137828947
  0
LWPOLYLINE
  5
32B
100
AcDbEntity
  8
RACCORDO
100
AcDbPolyline
 62
250
  6
CONTINUOUS
 90
10
 70
0
 10
57.1738746326
 20
22.6292888765
 10
57.1490722425
 20
22.6286206043
 10
57.1261934111
 20
22.6278764458
 10
57.105474172
 20
22.6270640782
 10
57.0871282758
 20
22.6261918829
 10
57.0713449877
 20
22.6252688579
 10
57.0582871356
 20
22.6243045257
 10
57.0480894291
 20
22.6233088351
 10
57.0408570695
 20
22.6222920584
 10
57.0366646662
 20
22.6212646855
  0
LWPOLYLINE
  5
32C
100
AcDbEntity
  8
RACCORDO
100
AcDbPolyline
 62
250
  6
CONTINUOUS
 90
11
 70
0
 10
-13.8032407285
 20
22.6271999003
 10
-13.8296068378
 20
22.6265978034
 10
-13.8543076935
 20
22.6259112414
 10
-13.8770897543
 20
22.6251472614
 10
-13.8977191735
 20
22.6243137053
 10
-13.9159842014
 20
22.6234191293
 10
-13.9316973576
 20
22.6224727157
 10
-13.9446973551
 20
22.6214841789
 10
-13.9548507567
 20
22.6204636658
 10
-13.9620533441
 20
22.6194216515
 10
-13.9662311875
 20
22.6183688319
  0
LINE
  5
32D
100
AcDbEntity
  8
RACCORDO
100
AcDbLine
 62
250
  6
CONTINUOUS
 10
57.228209378
 20
22.6303710387
 11
57.1738746326
 21
22.6292888765
  0
LINE
  5
32E
100
AcDbEntity
  8
RACCORDO
100
AcDbLine
 62
250
  6
CONTINUOUS
 10
-13.7466096037
 20
22.6281269078
 11
-13.8032407285
 21
22.6271999003
  0
LINE
  5
32F
100
AcDbEntity
  8
RACCORDO
100
AcDbLine
 62
250
  6
CONTINUOUS
 10
57.2869612097
 20
22.6310783888
 11
57.228209378
 21
22.6303710387
  0
LWPOLYLINE
  5
330
100
AcDbEntity
  8
RACCORDO
100
AcDbPolyline
 62
250
  6
CONTINUOUS
 90
3
 70
0
 10
-13.6563424226
 20
22.6287607235
 10
-13.686733516
 20
22.6286543003
 10
-13.7466096037
 20
22.6281269078
  0
LINE
  5
331
100
AcDbEntity
  8
RACCORDO
100
AcDbLine
 62
250
  6
CONTINUOUS
 10
57.3477118826
 20
22.6313818125
 11
57.2869612097
 21
22.6310783888
  0
LINE
  5
332
100
AcDbEntity
  8
RACCORDO
100
AcDbLine
 62
250
  6
CONTINUOUS
 10
11.8165625402
 20
23.426739058
 11
18.5369776727
 21
23.445714551
  0
LINE
  5
333
100
AcDbEntity
  8
RACCORDO
100
AcDbLine
 62
250
  6
CONTINUOUS
 10
11.8266003176
 20
23.1163654525
 11
16.3268089239
 21
23.1273626485
  0
LINE
  5
334
100
AcDbEntity
  8
RACCORDO
100
AcDbLine
 62
250
  6
CONTINUOUS
 10
-59.1863664202
 20
23.4304681904
 11
-48.945361187
 21
23.4537746144
  0
LINE
  5
335
100
AcDbEntity
  8
RACCORDO
100
AcDbLine
 62
250
  6
CONTINUOUS
 10
18.5369776727
 20
23.445714551
 11
23.5749521745
 21
23.4566608639
  0
LINE
  5
336
100
AcDbEntity
  8
RACCORDO
100
AcDbLine
 62
250
  6
CONTINUOUS
 10
16.3268089239
 20
23.1273626485
 11
21.873677298
 21
23.1369682803
  0
LINE
  5
337
100
AcDbEntity
  8
RACCORDO
100
AcDbLine
 62
250
  6
CONTINUOUS
 10
-59.1763881031
 20
23.1193538732
 11
-48.9406772068
 21
23.1373906055
  0
LINE
  5
338
100
AcDbEntity
  8
RACCORDO
100
AcDbLine
 62
250
  6
CONTINUOUS
 10
-48.945361187
 20
23.4537746144
 11
-44.0574662869
 21
23.4616866668
  0
LINE
  5
339
100
AcDbEntity
  8
RACCORDO
100
AcDbLine
 62
250
  6
CONTINUOUS
 10
23.5749521745
 20
23.4566608639
 11
27.9891462058
 21
23.4628684466
  0
LINE
  5
33A
100
AcDbEntity
  8
RACCORDO
100
AcDbLine
 62
250
  6
CONTINUOUS
 10
21.873677298
 20
23.1369682803
 11
27.3080890568
 21
23.1430292639
  0
LINE
  5
33B
100
AcDbEntity
  8
RACCORDO
100
AcDbLine
 62
250
  6
CONTINUOUS
 10
-48.9406772068
 20
23.1373906055
 11
-42.7211207158
 21
23.143677555
  0
LINE
  5
33C
100
AcDbEntity
  8
RACCORDO
100
AcDbLine
 62
250
  6
CONTINUOUS
 10
27.9891462058
 20
23.4628684466
 11
32.5108354259
 21
23.4657239492
  0
LINE
  5
33D
100
AcDbEntity
  8
RACCORDO
100
AcDbLine
 62
250
  6
CONTINUOUS
 10
-44.0574662869
 20
23.4616866668
 11
-38.5995383239
 21
23.4656016282
  0
LINE
  5
33E
100
AcDbEntity
  8
RACCORDO
100
AcDbLine
 62
250
  6
CONTINUOUS
 10
27.3080890568
 20
23.1430292639
 11
32.5114223379
 21
23.1454778385
  0
LINE
  5
33F
100
AcDbEntity
  8
RACCORDO
100
AcDbLine
 62
7
  6
CONTINUOUS
 10
56.3829881773
 20
22.9637828947
 11
11.9791828754
 21
22.9637828947
  0
LINE
  5
340
100
AcDbEntity
  8
RACCORDO
100
AcDbLine
 62
7
  6
CONTINUOUS
 10
-14.6170118227
 20
22.9637828947
 11
-59.0208171246
 21
22.9637828947
  0
LINE
  5
341
100
AcDbEntity
  8
RACCORDO
100
AcDbLine
 62
250
  6
CONTINUOUS
 10
-42.7211207158
 20
23.143677555
 11
-36.0041775076
 21
23.1455776878
  0
LINE
  5
342
100
AcDbEntity
  8
RACCORDO
100
AcDbLine
 62
250
  6
CONTINUOUS
 10
32.5114223379
 20
23.1454778385
 11
38.2106668835
 21
23.1447049597
  0
LINE
  5
343
100
AcDbEntity
  8
RACCORDO
100
AcDbLine
 62
250
  6
CONTINUOUS
 10
-38.5995383239
 20
23.4656016282
 11
-32.9734864208
 21
23.4647864304
  0
LINE
  5
344
100
AcDbEntity
  8
RACCORDO
100
AcDbLine
 62
250
  6
CONTINUOUS
 10
32.5108354259
 20
23.4657239492
 11
37.1113366242
 21
23.4651835477
  0
LINE
  5
345
100
AcDbEntity
  8
RACCORDO
100
AcDbLine
 62
250
  6
CONTINUOUS
 10
-36.0041775076
 20
23.1455776878
 11
-30.2918768771
 21
23.1432961388
  0
LINE
  5
346
100
AcDbEntity
  8
RACCORDO
100
AcDbLine
 62
250
  6
CONTINUOUS
 10
38.2106668835
 20
23.1447049597
 11
43.4801837786
 21
23.1407978212
  0
LINE
  5
347
100
AcDbEntity
  8
RACCORDO
100
AcDbLine
 62
250
  6
CONTINUOUS
 10
37.1113366242
 20
23.4651835477
 11
41.3940018296
 21
23.4617170213
  0
LINE
  5
348
100
AcDbEntity
  8
RACCORDO
100
AcDbLine
 62
250
  6
CONTINUOUS
 10
-30.2918768771
 20
23.1432961388
 11
-24.4713974838
 21
23.1369114125
  0
LINE
  5
349
100
AcDbEntity
  8
RACCORDO
100
AcDbLine
 62
250
  6
CONTINUOUS
 10
-32.9734864208
 20
23.4647864304
 11
-27.2861973797
 21
23.4584789624
  0
LINE
  5
34A
100
AcDbEntity
  8
RACCORDO
100
AcDbLine
 62
250
  6
CONTINUOUS
 10
43.4801837786
 20
23.1407978212
 11
50.3016501828
 21
23.1313145373
  0
LINE
  5
34B
100
AcDbEntity
  8
RACCORDO
100
AcDbLine
 62
250
  6
CONTINUOUS
 10
41.3940018296
 20
23.4617170213
 11
45.5785493686
 21
23.455224415
  0
LINE
  5
34C
100
AcDbEntity
  8
RACCORDO
100
AcDbLine
 62
250
  6
CONTINUOUS
 10
-24.4713974838
 20
23.1369114125
 11
-18.3014599711
 21
23.1259717795
  0
LINE
  5
34D
100
AcDbEntity
  8
RACCORDO
100
AcDbLine
 62
250
  6
CONTINUOUS
 10
-27.2861973797
 20
23.4584789624
 11
-21.1201189287
 21
23.4455778713
  0
LINE
  5
34E
100
AcDbEntity
  8
RACCORDO
100
AcDbLine
 62
250
  6
CONTINUOUS
 10
-18.3014599711
 20
23.1259717795
 11
-14.4644292649
 21
23.1163654525
  0
LINE
  5
34F
100
AcDbEntity
  8
RACCORDO
100
AcDbLine
 62
250
  6
CONTINUOUS
 10
50.3016501828
 20
23.1313145373
 11
56.5385441235
 21
23.119338841
  0
LINE
  5
350
100
AcDbEntity
  8
RACCORDO
100
AcDbLine
 62
250
  6
CONTINUOUS
 10
45.5785493686
 20
23.455224415
 11
56.5485616992
 21
23.4304858098
  0
LINE
  5
351
100
AcDbEntity
  8
RACCORDO
100
AcDbLine
 62
250
  6
CONTINUOUS
 10
-21.1201189287
 20
23.4455778713
 11
-14.4543914875
 21
23.426739058
  0
LINE
  5
352
100
AcDbEntity
  8
RACCORDO
100
AcDbLine
 62
250
  6
CONTINUOUS
 10
-59.9855232083
 20
22.6313575872
 11
-59.9247769981
 21
22.6310551877
  0
LINE
  5
353
100
AcDbEntity
  8
RACCORDO
100
AcDbLine
 62
250
  6
CONTINUOUS
 10
11.0185134753
 20
22.6287607237
 11
11.079097263
 21
22.6284423301
  0
LINE
  5
354
100
AcDbEntity
  8
RACCORDO
100
AcDbLine
 62
250
  6
CONTINUOUS
 10
-59.9247769981
 20
22.6310551877
 11
-59.8660306253
 21
22.6303504825
  0
LWPOLYLINE
  5
355
100
AcDbEntity
  8
RACCORDO
100
AcDbPolyline
 62
250
  6
CONTINUOUS
 90
13
 70
0
 10
11.079097263
 20
22.6284423301
 10
11.1376515619
 20
22.6277113941
 10
11.1654123194
 20
22.6271999473
 10
11.1917784249
 20
22.6265978528
 10
11.2164792464
 20
22.6259112913
 10
11.2392612482
 20
22.6251473105
 10
11.2598905947
 20
22.6243137518
 10
11.2781555411
 20
22.6234191717
 10
11.293868614
 20
22.6224727527
 10
11.3068685365
 20
22.6214842091
 10
11.3170218769
 20
22.6204636876
 10
11.3242244199
 20
22.6194216634
 10
11.3284022401
 20
22.6183688322
  0
LWPOLYLINE
  5
356
100
AcDbEntity
  8
RACCORDO
100
AcDbPolyline
 62
250
  6
CONTINUOUS
 90
11
 70
0
 10
-59.8660306253
 20
22.6303504825
 10
-59.8117017521
 20
22.6292724757
 10
-59.7869022624
 20
22.6286067946
 10
-59.764026213
 20
22.6278655341
 10
-59.7433095643
 20
22.6270563404
 10
-59.724966016
 20
22.626187561
 10
-59.7091847664
 20
22.6252681574
 10
-59.6961285734
 20
22.6243076115
 10
-59.685932117
 20
22.6233158307
 10
-59.678700594
 20
22.6223030459
 10
-59.6745086086
 20
22.6212797041
  0
LWPOLYLINE
  5
357
100
AcDbEntity
  8
RACCORDO
100
AcDbPolyline
 62
250
  6
CONTINUOUS
 90
25
 70
0
 10
-14.4644292649
 20
23.1163654525
 10
-14.4328320515
 20
23.1153669924
 10
-14.4012962378
 20
23.1123688861
 10
-14.3699482453
 20
23.1073688387
 10
-14.3388790351
 20
23.1003641769
 10
-14.3082540069
 20
23.091372994
 10
-14.278305913
 20
23.0804565539
 10
-14.2491777903
 20
23.0676758986
 10
-14.2209591262
 20
23.0530804506
 10
-14.1937882229
 20
23.0367502426
 10
-14.1677850684
 20
23.0187732159
 10
-14.1430282087
 20
22.9992209286
 10
-14.1195864562
 20
22.9781582524
 10
-14.0976593723
 20
22.955793585
 10
-14.0772047529
 20
22.9321127115
 10
-14.0579973473
 20
22.9067860162
 10
-14.0401053342
 20
22.879724868
 10
-14.0237836911
 20
22.8511135625
 10
-14.0091706547
 20
22.8209848142
 10
-13.9963734604
 20
22.789272471
 10
-13.9856288201
 20
22.7562282628
 10
-13.9771869846
 20
22.722410766
 10
-13.9711293478
 20
22.6881247071
 10
-13.9674646567
 20
22.6533888943
 10
-13.9662312381
 20
22.6183687813
  0
LWPOLYLINE
  5
358
100
AcDbEntity
  8
RACCORDO
100
AcDbPolyline
 62
250
  6
CONTINUOUS
 90
25
 70
0
 10
-14.4543914875
 20
23.426739058
 10
-14.4035917472
 20
23.4249804854
 10
-14.353285269
 20
23.4200421561
 10
-14.3034720531
 20
23.4119240703
 10
-14.2538986087
 20
23.4005590492
 10
-14.2048184266
 20
23.3860142714
 10
-14.1569919787
 20
23.368491273
 10
-14.1104834157
 20
23.3479436087
 10
-14.065228587
 20
23.3244177237
 10
-14.0217955124
 20
23.2982544892
 10
-13.980237051
 20
23.2694423693
 10
-13.9405003438
 20
23.2379928998
 10
-13.9029948334
 20
23.2042815601
 10
-13.8678482143
 20
23.1685308413
 10
-13.8349327922
 20
23.1305182523
 10
-13.8042749263
 20
23.0899517987
 10
-13.7756414718
 20
23.046635168
 10
-13.7492655736
 20
23.0007646727
 10
-13.7258730255
 20
22.9526372558
 10
-13.705456768
 20
22.9019189563
 10
-13.6880238606
 20
22.8489437352
 10
-13.6743212752
 20
22.7950104188
 10
-13.6645980024
 20
22.740551949
 10
-13.6586050515
 20
22.685135384
 10
-13.6563424226
 20
22.6287607235
  0
LINE
  5
359
100
AcDbEntity
  8
ASSI
100
AcDbLine
 62
250
  6
CONTINUOUS
 10
76.2906151446
 20
-42.6454725835
 11
76.3313596663
 21
-42.6862171053
  0
LINE
  5
35A
100
AcDbEntity
  8
RACCORDO
100
AcDbLine
 62
250
  6
CONTINUOUS
 10
56.5385441235
 20
23.119338841
 11
56.3829881773
 21
22.9637828947
  0
LINE
  5
35B
100
AcDbEntity
  8
RACCORDO
100
AcDbLine
 62
250
  6
CONTINUOUS
 10
11.3284022401
 20
-22.0908030424
 11
11.4810855263
 21
-21.9381197562
  0
LINE
  5
35C
100
AcDbEntity
  8
RACCORDO
100
AcDbLine
 62
250
  6
CONTINUOUS
 10
57.0366646662
 20
22.6212646855
 11
56.8810855263
 21
22.4656855457
  0
LINE
  5
35D
100
AcDbEntity
  8
RACCORDO
100
AcDbLine
 62
250
  6
CONTINUOUS
 10
11.8266003176
 20
-22.5887996631
 11
11.9791828754
 21
-22.4362171053
  0
LINE
  5
35E
100
AcDbEntity
  8
ASSI
100
AcDbLine
 62
250
  6
CONTINUOUS
 10
77.0903389663
 20
42.3733104747
 11
77.1310855263
 21
42.4140570348
  0
LWPOLYLINE
  5
35F
100
AcDbEntity
  8
RACCORDO
100
AcDbPolyline
 62
250
  6
CONTINUOUS
 90
25
 70
0
 10
56.5385440855
 20
23.119338803
 10
56.5701446811
 20
23.118340281
 10
56.6016835238
 20
23.1153412573
 10
56.6330341497
 20
23.1103394177
 10
56.6641055927
 20
23.103332032
 10
56.6947323632
 20
23.0943372156
 10
56.7246815485
 20
23.0834163771
 10
56.7538100582
 20
23.0706305915
 10
56.7820283928
 20
23.0560293219
 10
56.8091981844
 20
23.0396928259
 10
56.8351992247
 20
23.0217092775
 10
56.8599532051
 20
23.0021501607
 10
56.8833918819
 20
22.9810800412
 10
56.9053161126
 20
22.9587068307
 10
56.9257674754
 20
22.9350167006
 10
56.9449703159
 20
22.9096811183
 10
56.9628565579
 20
22.8826115302
 10
56.9791713599
 20
22.8539924422
 10
56.9937760943
 20
22.8238581437
 10
57.0065637231
 20
22.7921432701
 10
57.0172983771
 20
22.7590991811
 10
57.0257306089
 20
22.7252843137
 10
57.0317795619
 20
22.6910033062
 10
57.0354368531
 20
22.6562749721
 10
57.0366646145
 20
22.6212646339
  0
LWPOLYLINE
  5
360
100
AcDbEntity
  8
RACCORDO
100
AcDbPolyline
 62
250
  6
CONTINUOUS
 90
25
 70
0
 10
56.5485616992
 20
23.4304858098
 10
56.5994446626
 20
23.4287233545
 10
56.649833194
 20
23.4237758826
 10
56.6997272877
 20
23.4156433883
 10
56.74938123
 20
23.4042584833
 10
56.7985407234
 20
23.3896885447
 10
56.846442886
 20
23.3721357142
 10
56.8930229835
 20
23.3515534197
 10
56.93834574
 20
23.3279882231
 10
56.981842462
 20
23.3017819676
 10
57.0234599075
 20
23.2729234403
 10
57.0632513126
 20
23.2414238481
 10
57.1008077023
 20
23.2076586659
 10
57.1360019287
 20
23.1718499098
 10
57.1689611394
 20
23.1337755631
 10
57.1996578033
 20
23.0931450534
 10
57.2283248657
 20
23.0497615033
 10
57.2547293857
 20
23.0038217945
 10
57.2781450059
 20
22.9556259955
 10
57.2985780402
 20
22.9048405031
 10
57.3160221862
 20
22.851798932
 10
57.3297321645
 20
22.7978021807
 10
57.3394595537
 20
22.743283887
 10
57.3454527904
 20
22.6878104283
 10
57.3477118826
 20
22.6313818125
  0
LINE
  5
361
100
AcDbEntity
  8
RACCORDO
100
AcDbLine
 62
250
  6
CONTINUOUS
 10
56.5385441235
 20
-22.5917730515
 11
56.3829881773
 21
-22.4362171053
  0
LINE
  5
362
100
AcDbEntity
  8
RACCORDO
100
AcDbLine
 62
250
  6
CONTINUOUS
 10
11.3284022401
 20
22.6183688319
 11
11.4810855263
 21
22.4656855457
  0
LINE
  5
363
100
AcDbEntity
  8
RACCORDO
100
AcDbLine
 62
250
  6
CONTINUOUS
 10
57.0366646662
 20
-22.0936988961
 11
56.8810855263
 21
-21.9381197562
  0
LINE
  5
364
100
AcDbEntity
  8
RACCORDO
100
AcDbLine
 62
250
  6
CONTINUOUS
 10
11.8266003176
 20
23.1163654525
 11
11.9791828754
 21
22.9637828947
  0
LINE
  5
365
100
AcDbEntity
  8
ASSI
100
AcDbLine
 62
250
  6
CONTINUOUS
 10
77.0903382082
 20
-41.8457439271
 11
77.1310855263
 21
-41.8864912453
  0
LINE
  5
366
100
AcDbEntity
  8
RACCORDO
100
AcDbLine
 62
250
  6
CONTINUOUS
 10
34.1810855263
 20
42.8541497753
 11
34.1810855263
 21
23.1456085935
  0
LINE
  5
367
100
AcDbEntity
  8
ASSI
100
AcDbLine
 62
250
  6
CONTINUOUS
 10
34.1810855263
 20
-42.6413471418
 11
34.1810855263
 21
-42.3265813506
  0
LINE
  5
368
100
AcDbEntity
  8
RACCORDO
100
AcDbLine
 62
250
  6
CONTINUOUS
 10
34.1810855263
 20
-42.3265839859
 11
34.1810855263
 21
-22.618042804
  0
LINE
  5
369
100
AcDbEntity
  8
ASSI
100
AcDbLine
 62
250
  6
CONTINUOUS
 10
34.1810855263
 20
42.8541471401
 11
34.1810855263
 21
43.1689129313
  0
LWPOLYLINE
  5
36A
100
AcDbEntity
  8
ASSI
100
AcDbPolyline
 62
250
  6
CONTINUOUS
 90
3
 70
0
 10
8.6811149768
 20
42.8373387073
 10
3.0739666013
 20
42.8150135205
 10
2.7892631329
 20
42.8141472889
  0
LINE
  5
36B
100
AcDbEntity
  8
ASSI
100
AcDbLine
 62
250
  6
CONTINUOUS
 10
-66.6819185124
 20
42.8265083923
 11
-67.9870234739
 21
42.8281900902
  0
LINE
  5
36C
100
AcDbEntity
  8
ASSI
100
AcDbLine
 62
250
  6
CONTINUOUS
 10
-5.4768220646
 20
42.8142926944
 11
-11.3189174712
 21
42.8373386052
  0
LWPOLYLINE
  5
36D
100
AcDbEntity
  8
ASSI
100
AcDbPolyline
 62
250
  6
CONTINUOUS
 90
3
 70
0
 10
-67.9870234739
 20
42.8281900902
 10
-69.9563967856
 20
42.8359064884
 10
-73.8098275704
 20
42.8495772256
  0
LWPOLYLINE
  5
36E
100
AcDbEntity
  8
ASSI
100
AcDbPolyline
 62
250
  6
CONTINUOUS
 90
7
 70
0
 10
-77.36649703
 20
42.807443465
 10
-77.6393077473
 20
42.7980100218
 10
-77.9100032944
 20
42.7874137776
 10
-78.1777090998
 20
42.775595484
 10
-78.4421209764
 20
42.7625291935
 10
-78.7035038159
 20
42.7482217396
 10
-78.9618352067
 20
42.7326629881
  0
LWPOLYLINE
  5
36F
100
AcDbEntity
  8
ASSI
100
AcDbPolyline
 62
250
  6
CONTINUOUS
 90
25
 70
0
 10
-78.9277552
 20
43.1723494811
 10
-78.9800837558
 20
43.1706496083
 10
-79.0321912588
 20
43.1655303126
 10
-79.0838547558
 20
43.1570123006
 10
-79.1348573831
 20
43.1451295125
 10
-79.1849760648
 20
43.1299323481
 10
-79.233983331
 20
43.1114903655
 10
-79.2816680841
 20
43.089884823
 10
-79.3278287037
 20
43.0652088439
 10
-79.3722620796
 20
43.0375738963
 10
-79.4147736681
 20
43.0071054051
 10
-79.4551900676
 20
42.9739320708
 10
-79.4933513264
 20
42.9381871925
 10
-79.5290950029
 20
42.900022805
 10
-79.5622675767
 20
42.8596023668
 10
-79.5927341022
 20
42.8170878961
 10
-79.6203658437
 20
42.7726534391
 10
-79.6450379574
 20
42.7264932668
 10
-79.6666388584
 20
42.6788115537
 10
-79.685075336
 20
42.6298117335
 10
-79.7002674111
 20
42.579703396
 10
-79.7121468659
 20
42.5287098544
 10
-79.7206631799
 20
42.4770525854
 10
-79.7257817199
 20
42.4249496809
 10
-79.7274814404
 20
42.3726240015
  0
LINE
  5
370
100
AcDbEntity
  8
ASSI
100
AcDbLine
 62
250
  6
CONTINUOUS
 10
-76.8137068413
 20
42.82278763
 11
-77.36649703
 21
42.807443465
  0
LINE
  5
371
100
AcDbEntity
  8
ASSI
100
AcDbLine
 62
250
  6
CONTINUOUS
 10
-76.2593577195
 20
42.8340133056
 11
-76.8137068413
 21
42.82278763
  0
LINE
  5
372
100
AcDbEntity
  8
ASSI
100
AcDbLine
 62
250
  6
CONTINUOUS
 10
-75.7074691207
 20
42.8415640127
 11
-76.2593577195
 21
42.8340133056
  0
LINE
  5
373
100
AcDbEntity
  8
ASSI
100
AcDbLine
 62
250
  6
CONTINUOUS
 10
-74.8955959525
 20
42.8476911217
 11
-75.7074691207
 21
42.8415640127
  0
LINE
  5
374
100
AcDbEntity
  8
ASSI
100
AcDbLine
 62
250
  6
CONTINUOUS
 10
13.6045474269
 20
42.8498296107
 11
8.6811152174
 21
42.8370542092
  0
LINE
  5
375
100
AcDbEntity
  8
ASSI
100
AcDbLine
 62
250
  6
CONTINUOUS
 10
-58.3945582106
 20
42.848213321
 11
-65.754652995
 21
42.8272315605
  0
LINE
  5
376
100
AcDbEntity
  8
ASSI
100
AcDbLine
 62
250
  6
CONTINUOUS
 10
2.7892631329
 20
42.8141472889
 11
0.4598910342
 21
42.8090096118
  0
LINE
  5
377
100
AcDbEntity
  8
ASSI
100
AcDbLine
 62
250
  6
CONTINUOUS
 10
76.2906156106
 20
43.173038839
 11
75.5854679362
 21
43.1723240905
  0
LINE
  5
378
100
AcDbEntity
  8
ASSI
100
AcDbLine
 62
250
  6
CONTINUOUS
 10
-53.2784916397
 20
42.8543018752
 11
-58.3945582106
 21
42.848213321
  0
LWPOLYLINE
  5
379
100
AcDbEntity
  8
ASSI
100
AcDbPolyline
 62
250
  6
CONTINUOUS
 90
3
 70
0
 10
75.5854679362
 20
43.1723240905
 10
74.527516184
 20
43.1715399732
 10
74.1765904393
 20
43.1713444802
  0
LINE
  5
37A
100
AcDbEntity
  8
ASSI
100
AcDbLine
 62
250
  6
CONTINUOUS
 10
19.5503998042
 20
42.8550147169
 11
13.6045474269
 21
42.8498296107
  0
LINE
  5
37B
100
AcDbEntity
  8
ASSI
100
AcDbLine
 62
250
  6
CONTINUOUS
 10
-65.754652995
 20
42.8272315605
 11
-66.6819185124
 21
42.8265083923
  0
LINE
  5
37C
100
AcDbEntity
  8
ASSI
100
AcDbLine
 62
250
  6
CONTINUOUS
 10
0.4598910342
 20
42.8090096118
 11
-1.5458788606
 21
42.8077626262
  0
LINE
  5
37D
100
AcDbEntity
  8
ASSI
100
AcDbLine
 62
250
  6
CONTINUOUS
 10
-73.8098275704
 20
42.8495772256
 11
-74.8955959525
 21
42.8476911217
  0
LINE
  5
37E
100
AcDbEntity
  8
ASSI
100
AcDbLine
 62
250
  6
CONTINUOUS
 10
74.1765904393
 20
43.1713444802
 11
53.7053452897
 21
43.1689892863
  0
LINE
  5
37F
100
AcDbEntity
  8
ASSI
100
AcDbLine
 62
250
  6
CONTINUOUS
 10
-11.3207787242
 20
43.1693843579
 11
-57.7164293457
 21
43.1690446454
  0
LINE
  5
380
100
AcDbEntity
  8
ASSI
100
AcDbLine
 62
7
  6
CONTINUOUS
 10
76.3313596663
 20
43.2137828947
 11
-78.9691886137
 21
43.2137828947
  0
LINE
  5
381
100
AcDbEntity
  8
ASSI
100
AcDbLine
 62
250
  6
CONTINUOUS
 10
-39.1046318578
 20
42.8542498649
 11
-53.2784916397
 21
42.8543018752
  0
LINE
  5
382
100
AcDbEntity
  8
ASSI
100
AcDbLine
 62
250
  6
CONTINUOUS
 10
29.9785378155
 20
42.8544149344
 11
19.5503998042
 21
42.8550147169
  0
LINE
  5
383
100
AcDbEntity
  8
ASSI
100
AcDbLine
 62
250
  6
CONTINUOUS
 10
53.7053452897
 20
43.1689892863
 11
10.3679035166
 21
43.1692444049
  0
LINE
  5
384
100
AcDbEntity
  8
ASSI
100
AcDbLine
 62
250
  6
CONTINUOUS
 10
49.1622668274
 20
42.854926368
 11
29.9785378155
 21
42.8544149344
  0
LINE
  5
385
100
AcDbEntity
  8
ASSI
100
AcDbLine
 62
250
  6
CONTINUOUS
 10
-57.7164293457
 20
43.1690446454
 11
-76.2517659498
 21
43.1696511426
  0
LINE
  5
386
100
AcDbEntity
  8
ASSI
100
AcDbLine
 62
250
  6
CONTINUOUS
 10
10.3679035166
 20
43.1692444049
 11
-11.3207787242
 21
43.1693843579
  0
LINE
  5
387
100
AcDbEntity
  8
ASSI
100
AcDbLine
 62
250
  6
CONTINUOUS
 10
-16.5129815578
 20
42.8503252353
 11
-39.1046318578
 21
42.8542498649
  0
LINE
  5
388
100
AcDbEntity
  8
ASSI
100
AcDbLine
 62
250
  6
CONTINUOUS
 10
-1.5458788606
 20
42.8077626262
 11
-3.7466431763
 21
42.8100673448
  0
LINE
  5
389
100
AcDbEntity
  8
ASSI
100
AcDbLine
 62
250
  6
CONTINUOUS
 10
-76.2517659498
 20
43.1696511426
 11
-78.9277564175
 21
43.1723506985
  0
LINE
  5
38A
100
AcDbEntity
  8
ASSI
100
AcDbLine
 62
250
  6
CONTINUOUS
 10
56.9295160674
 20
42.8456310674
 11
49.1622668274
 21
42.854926368
  0
LINE
  5
38B
100
AcDbEntity
  8
ASSI
100
AcDbLine
 62
250
  6
CONTINUOUS
 10
-3.7466431763
 20
42.8100673448
 11
-5.4768220646
 21
42.8142926944
  0
LWPOLYLINE
  5
38C
100
AcDbEntity
  8
ASSI
100
AcDbPolyline
 62
250
  6
CONTINUOUS
 90
3
 70
0
 10
-11.3189176986
 20
42.8370541055
 10
-12.6514536117
 20
42.8413756
 10
-16.5129815578
 20
42.8503252353
  0
LINE
  5
38D
100
AcDbEntity
  8
ASSI
100
AcDbLine
 62
250
  6
CONTINUOUS
 10
60.488109258
 20
42.8342293523
 11
56.9295160674
 21
42.8456310674
  0
LWPOLYLINE
  5
38E
100
AcDbEntity
  8
ASSI
100
AcDbPolyline
 62
250
  6
CONTINUOUS
 90
3
 70
0
 10
64.683065862
 20
42.8189834959
 10
61.7737614894
 20
42.8291791331
 10
60.488109258
 20
42.8342293523
  0
LINE
  5
38F
100
AcDbEntity
  8
ASSI
100
AcDbLine
 62
250
  6
CONTINUOUS
 10
71.7466389431
 20
42.7980459355
 11
64.683065862
 21
42.8189834959
  0
LINE
  5
390
100
AcDbEntity
  8
ASSI
100
AcDbLine
 62
250
  6
CONTINUOUS
 10
76.6271340467
 20
42.3951573736
 11
76.6964214559
 21
42.3946387295
  0
LINE
  5
391
100
AcDbEntity
  8
ASSI
100
AcDbLine
 62
250
  6
CONTINUOUS
 10
73.142304894
 20
42.7851694755
 11
71.7466389431
 21
42.7980459355
  0
LINE
  5
392
100
AcDbEntity
  8
ASSI
100
AcDbLine
 62
250
  6
CONTINUOUS
 10
73.8367866137
 20
42.7752635547
 11
73.142304894
 21
42.7851694755
  0
LINE
  5
393
100
AcDbEntity
  8
ASSI
100
AcDbLine
 62
250
  6
CONTINUOUS
 10
76.6964214559
 20
42.3946387295
 11
76.7636326884
 21
42.3937019847
  0
LINE
  5
394
100
AcDbEntity
  8
ASSI
100
AcDbLine
 62
250
  6
CONTINUOUS
 10
74.5386097362
 20
42.7619064052
 11
73.8367866137
 21
42.7752635547
  0
LINE
  5
395
100
AcDbEntity
  8
ASSI
100
AcDbLine
 62
250
  6
CONTINUOUS
 10
76.7636326884
 20
42.3937019847
 11
76.8274501866
 21
42.3923655018
  0
LINE
  5
396
100
AcDbEntity
  8
ASSI
100
AcDbLine
 62
250
  6
CONTINUOUS
 10
75.2478051933
 20
42.7445825325
 11
74.5386097362
 21
42.7619064052
  0
LWPOLYLINE
  5
397
100
AcDbEntity
  8
ASSI
100
AcDbPolyline
 62
250
  6
CONTINUOUS
 90
15
 70
0
 10
76.8274501866
 20
42.3923655018
 10
76.886622925
 20
42.3906554795
 10
76.9141008223
 20
42.3896705974
 10
76.9399909212
 20
42.388605439
 10
76.9641661809
 20
42.3874652306
 10
76.9865079764
 20
42.386255567
 10
77.0069066774
 20
42.3849823838
 10
77.0252621878
 20
42.3836519281
 10
77.0414844375
 20
42.3822707283
 10
77.0554938235
 20
42.3808455615
 10
77.0672216001
 20
42.379383421
 10
77.0766102166
 20
42.3778914813
 10
77.0836136017
 20
42.3763770632
 10
77.0881973882
 20
42.3748475977
 10
77.0903390813
 20
42.3733105897
  0
LWPOLYLINE
  5
398
100
AcDbEntity
  8
ASSI
100
AcDbPolyline
 62
250
  6
CONTINUOUS
 90
3
 70
0
 10
76.3130971759
 20
42.7097411049
 10
75.9576197174
 20
42.7225152886
 10
75.2478051933
 20
42.7445825325
  0
LWPOLYLINE
  5
399
100
AcDbEntity
  8
ASSI
100
AcDbPolyline
 62
250
  6
CONTINUOUS
 90
25
 70
0
 10
-78.9618352067
 20
42.7326629881
 10
-78.9820706433
 20
42.73069418
 10
-79.0021204588
 20
42.7274527671
 10
-79.0219839628
 20
42.7229379594
 10
-79.0417367763
 20
42.7171166482
 10
-79.0613018448
 20
42.7100203177
 10
-79.0804495925
 20
42.7017451906
 10
-79.0991810512
 20
42.6922741728
 10
-79.1174940763
 20
42.6816230607
 10
-79.1351546799
 20
42.669937759
 10
-79.1521529182
 20
42.6572076195
 10
-79.1684981624
 20
42.6434425536
 10
-79.1839858471
 20
42.6288197537
 10
-79.1986072575
 20
42.613329941
 10
-79.2123711847
 20
42.5969823162
 10
-79.2250998002
 20
42.579982268
 10
-79.2367829066
 20
42.56232054
 10
-79.2474314393
 20
42.5440069606
 10
-79.2568997201
 20
42.5252759951
 10
-79.2651748296
 20
42.5061117431
 10
-79.2722709811
 20
42.4865312107
 10
-79.2780835633
 20
42.4668185998
 10
-79.2825783146
 20
42.4470691953
 10
-79.2857911546
 20
42.4271891845
 10
-79.2877228807
 20
42.4071792688
  0
LWPOLYLINE
  5
39A
100
AcDbEntity
  8
0
100
AcDbPolyline
 62
7
  6
CONTINUOUS
 90
8
 70
0
 43
0.3500000006
 10
-2.7117714815
 20
51.9637833252
 10
-1.854628727
 20
51.9637833252
 10
-1.4260573497
 20
52.3923522949
 10
-1.4260573497
 20
53.2494992981
 10
-1.854628727
 20
53.6780682678
 10
-2.7117714815
 20
53.6780682678
 10
-2.7117714815
 20
54.9637842407
 10
-1.4260573497
 20
54.9637842407
  0
LWPOLYLINE
  5
39B
100
AcDbEntity
  8
RACCORDO
100
AcDbPolyline
 62
250
  6
CONTINUOUS
 90
10
 70
0
 10
56.5464904411
 20
-22.7290335717
 10
56.5458287561
 20
-22.704222439
 10
56.5450918878
 20
-22.6813352702
 10
56.5442874416
 20
-22.6606082875
 10
56.5434237207
 20
-22.6422554146
 10
56.5425096396
 20
-22.6264660709
 10
56.5415546326
 20
-22.6134032181
 10
56.5405685566
 20
-22.6032016756
 10
56.5395615891
 20
-22.5959667306
 10
56.5385441235
 20
-22.5917730515
  0
LINE
  5
39C
100
AcDbEntity
  8
RACCORDO
100
AcDbLine
 62
250
  6
CONTINUOUS
 10
56.5475617904
 20
-22.7833862016
 11
56.5464904411
 21
-22.7290335717
  0
LINE
  5
39D
100
AcDbEntity
  8
RACCORDO
100
AcDbLine
 62
250
  6
CONTINUOUS
 10
56.5482618182
 20
-22.8421550157
 11
56.5475617904
 21
-22.7833862016
  0
LINE
  5
39E
100
AcDbEntity
  8
RACCORDO
100
AcDbLine
 62
250
  6
CONTINUOUS
 10
56.5485616992
 20
-22.9029200203
 11
56.5482618182
 21
-22.8421550157
  0
LINE
  5
39F
100
AcDbEntity
  8
RACCORDO
100
AcDbLine
 62
250
  6
CONTINUOUS
 10
57.3477118826
 20
22.6313818125
 11
57.3729265324
 21
11.4450154468
  0
LINE
  5
3A0
100
AcDbEntity
  8
RACCORDO
100
AcDbLine
 62
250
  6
CONTINUOUS
 10
57.0366646662
 20
22.6212646855
 11
57.0546079277
 21
12.4760562847
  0
LINE
  5
3A1
100
AcDbEntity
  8
RACCORDO
100
AcDbLine
 62
250
  6
CONTINUOUS
 10
57.3729265324
 20
11.4450154468
 11
57.3803137134
 21
6.2448185567
  0
LINE
  5
3A2
100
AcDbEntity
  8
RACCORDO
100
AcDbLine
 62
250
  6
CONTINUOUS
 10
57.0546079277
 20
12.4760562847
 11
57.0609244754
 21
6.242535769
  0
LINE
  5
3A3
100
AcDbEntity
  8
RACCORDO
100
AcDbLine
 62
250
  6
CONTINUOUS
 10
57.3803137134
 20
6.2448185567
 11
57.3830956204
 21
0.9356968526
  0
LINE
  5
3A4
100
AcDbEntity
  8
RACCORDO
100
AcDbLine
 62
7
  6
CONTINUOUS
 10
56.8810855263
 20
-21.9381197562
 11
56.8810855263
 21
22.4656855457
  0
LINE
  5
3A5
100
AcDbEntity
  8
RACCORDO
100
AcDbLine
 62
250
  6
CONTINUOUS
 10
57.3830956204
 20
0.9356968526
 11
57.3818755239
 21
-3.7603915713
  0
LINE
  5
3A6
100
AcDbEntity
  8
RACCORDO
100
AcDbLine
 62
250
  6
CONTINUOUS
 10
57.0609244754
 20
6.242535769
 11
57.0600277253
 21
-6.9390630337
  0
LINE
  5
3A7
100
AcDbEntity
  8
RACCORDO
100
AcDbLine
 62
250
  6
CONTINUOUS
 10
57.0600277253
 20
-6.9390630337
 11
57.0535721744
 21
-12.6942881319
  0
LINE
  5
3A8
100
AcDbEntity
  8
RACCORDO
100
AcDbLine
 62
250
  6
CONTINUOUS
 10
57.3818755239
 20
-3.7603915713
 11
57.3776832465
 21
-7.9859891932
  0
LINE
  5
3A9
100
AcDbEntity
  8
RACCORDO
100
AcDbLine
 62
250
  6
CONTINUOUS
 10
57.3776832465
 20
-7.9859891932
 11
57.3693328492
 21
-12.6991772629
  0
LINE
  5
3AA
100
AcDbEntity
  8
RACCORDO
100
AcDbLine
 62
250
  6
CONTINUOUS
 10
57.0535721744
 20
-12.6942881319
 11
57.0366646662
 21
-22.0936988961
  0
LINE
  5
3AB
100
AcDbEntity
  8
RACCORDO
100
AcDbLine
 62
250
  6
CONTINUOUS
 10
57.3693328492
 20
-12.6991772629
 11
57.3477118826
 21
-22.103816023
  0
LINE
  5
3AC
100
AcDbEntity
  8
RACCORDO
100
AcDbLine
 62
250
  6
CONTINUOUS
 10
56.5485616993
 20
23.4304858098
 11
56.5482618572
 21
23.3697205477
  0
LINE
  5
3AD
100
AcDbEntity
  8
RACCORDO
100
AcDbLine
 62
250
  6
CONTINUOUS
 10
56.5482618572
 20
23.3697205477
 11
56.5475618545
 21
23.310951609
  0
LWPOLYLINE
  5
3AE
100
AcDbEntity
  8
RACCORDO
100
AcDbPolyline
 62
250
  6
CONTINUOUS
 90
11
 70
0
 10
56.5475618545
 20
23.310951609
 10
56.5464905188
 20
23.2565989803
 10
56.5458288362
 20
23.2317878818
 10
56.5450919676
 20
23.2089007641
 10
56.5442875184
 20
23.1881738384
 10
56.5434237921
 20
23.1698210342
 10
56.542509703
 20
23.1540317547
 10
56.5415546837
 20
23.1409689347
 10
56.5405685904
 20
23.1307674006
 10
56.5395616011
 20
23.1235324624
 10
56.5385441092
 20
23.1193388029
  0
LWPOLYLINE
  5
3AF
100
AcDbEntity
  8
RACCORDO
100
AcDbPolyline
 62
250
  6
CONTINUOUS
 90
25
 70
0
 10
57.0366646284
 20
-22.0936988583
 10
57.0356646522
 20
-22.1252969197
 10
57.0326642073
 20
-22.1568332767
 10
57.0276609569
 20
-22.188181474
 10
57.0206521358
 20
-22.2192505508
 10
57.0116558461
 20
-22.2498750207
 10
57.0007335096
 20
-22.2798219738
 10
56.9879461854
 20
-22.308948313
 10
56.9733433159
 20
-22.3371645415
 10
56.957005172
 20
-22.3643323052
 10
56.939019914
 20
-22.3903313898
 10
56.9194590097
 20
-22.415083478
 10
56.8983870382
 20
-22.4385203357
 10
56.876011908
 20
-22.4604428191
 10
56.8523197726
 20
-22.4808924847
 10
56.8269820926
 20
-22.5000936568
 10
56.7999102866
 20
-22.5179782394
 10
56.7712888742
 20
-22.5342913814
 10
56.7411522056
 20
-22.548894455
 10
56.7094349276
 20
-22.5616803954
 10
56.6763883921
 20
-22.5724133419
 10
56.6425710709
 20
-22.5808439001
 10
56.6082876174
 20
-22.5868912192
 10
56.5735568406
 20
-22.5905468798
 10
56.5385440715
 20
-22.5917729995
  0
LWPOLYLINE
  5
3B0
100
AcDbEntity
  8
RACCORDO
100
AcDbPolyline
 62
250
  6
CONTINUOUS
 90
25
 70
0
 10
57.3477118826
 20
-22.103816023
 10
57.3459480141
 20
-22.1546960286
 10
57.3409991507
 20
-22.2050817271
 10
57.3328652867
 20
-22.2549731128
 10
57.3214790528
 20
-22.3046244753
 10
57.3069078069
 20
-22.3537815138
 10
57.2893536339
 20
-22.4016813365
 10
57.2687699567
 20
-22.4482592079
 10
57.2452033421
 20
-22.4935798534
 10
57.2189955904
 20
-22.5370745735
 10
57.1901354837
 20
-22.5786901323
 10
57.158634234
 20
-22.6184797597
 10
57.1248672882
 20
-22.6560344566
 10
57.0890566623
 20
-22.6912270892
 10
57.0509803398
 20
-22.7241847908
 10
57.01034772
 20
-22.7548799646
 10
56.9669618905
 20
-22.7835455511
 10
56.921019768
 20
-22.8099486139
 10
56.8728214972
 20
-22.8333627434
 10
56.8220334898
 20
-22.85379423
 10
56.7689893457
 20
-22.8712367946
 10
56.7149899947
 20
-22.8849451753
 10
56.6604690852
 20
-22.8946709564
 10
56.604992984
 20
-22.9006625688
 10
56.5485616992
 20
-22.9029200203
  0
LWPOLYLINE
  5
3B1
100
AcDbEntity
  8
0
100
AcDbPolyline
 62
7
  6
CONTINUOUS
 90
10
 70
0
 43
0.3500000006
 10
81.381081665
 20
1.9560593719
 10
82.0239441833
 20
1.3132036514
 10
82.8810821228
 20
0.8846324158
 10
83.9525136108
 20
0.8846324158
 10
84.3810825806
 20
1.3132036514
 10
84.3810825806
 20
1.9560593719
 10
83.9525136108
 20
2.3846328735
 10
83.0953756714
 20
2.3846328735
 10
82.6667976379
 20
1.9560593719
 10
82.6667976379
 20
1.0274879837
  0
LWPOLYLINE
  5
3B2
100
AcDbEntity
  8
0
100
AcDbPolyline
 62
7
  6
CONTINUOUS
 90
13
 70
0
 43
0.3500000006
 10
82.6667976379
 20
-1.0439392776
 10
82.4525131531
 20
-1.3296538124
 10
81.8096596985
 20
-1.3296538124
 10
81.381081665
 20
-1.0439392776
 10
81.381081665
 20
-0.4010835571
 10
81.8096596985
 20
-0.1153678894
 10
82.4525131531
 20
-0.1153678894
 10
82.6667976379
 20
-0.4010835571
 10
83.0953756714
 20
0.0274899445
 10
83.9525136108
 20
0.0274899445
 10
84.3810825806
 20
-0.4010835571
 10
84.3810825806
 20
-1.0439392776
 10
83.9525136108
 20
-1.4725105133
  0
LINE
  5
3B3
100
AcDbEntity
  8
ASSI
100
AcDbLine
 62
250
  6
CONTINUOUS
 10
76.3110197824
 20
42.8463267829
 11
76.3119572165
 21
42.7791144445
  0
LINE
  5
3B4
100
AcDbEntity
  8
ASSI
100
AcDbLine
 62
250
  6
CONTINUOUS
 10
76.3119572165
 20
42.7791144445
 11
76.3124762264
 21
42.7098257785
  0
LINE
  5
3B5
100
AcDbEntity
  8
ASSI
100
AcDbLine
 62
250
  6
CONTINUOUS
 10
76.7126142171
 20
38.1650933653
 11
76.7210952543
 21
36.6995198496
  0
LINE
  5
3B6
100
AcDbEntity
  8
ASSI
100
AcDbLine
 62
250
  6
CONTINUOUS
 10
76.7210952543
 20
36.6995198496
 11
76.7278308443
 21
34.6433050835
  0
LINE
  5
3B7
100
AcDbEntity
  8
ASSI
100
AcDbLine
 62
250
  6
CONTINUOUS
 10
76.7278308443
 20
34.6433050835
 11
76.7647447523
 21
22.2129072683
  0
LINE
  5
3B8
100
AcDbEntity
  8
ASSI
100
AcDbLine
 62
250
  6
CONTINUOUS
 10
76.7647447523
 20
22.2129072683
 11
76.7698656674
 21
18.9060193577
  0
LINE
  5
3B9
100
AcDbEntity
  8
ASSI
100
AcDbLine
 62
250
  6
CONTINUOUS
 10
76.7698656674
 20
18.9060193577
 11
76.7724732058
 21
14.2481859319
  0
LINE
  5
3BA
100
AcDbEntity
  8
ASSI
100
AcDbLine
 62
250
  6
CONTINUOUS
 10
76.7724732058
 20
14.2481859319
 11
76.7714956232
 21
1.5901743063
  0
LINE
  5
3BB
100
AcDbEntity
  8
ASSI
100
AcDbLine
 62
250
  6
CONTINUOUS
 10
76.7714956232
 20
1.5901743063
 11
76.7722331792
 21
-14.7312559611
  0
LINE
  5
3BC
100
AcDbEntity
  8
ASSI
100
AcDbLine
 62
250
  6
CONTINUOUS
 10
76.7722331792
 20
-14.7312559611
 11
76.7692425205
 21
-18.9286258466
  0
LINE
  5
3BD
100
AcDbEntity
  8
ASSI
100
AcDbLine
 62
250
  6
CONTINUOUS
 10
76.7692425205
 20
-18.9286258466
 11
76.7642325156
 21
-21.921849089
  0
LINE
  5
3BE
100
AcDbEntity
  8
ASSI
100
AcDbLine
 62
250
  6
CONTINUOUS
 10
76.7642325156
 20
-21.921849089
 11
76.7567272351
 21
-24.6187423308
  0
LINE
  5
3BF
100
AcDbEntity
  8
ASSI
100
AcDbLine
 62
250
  6
CONTINUOUS
 10
76.7567272351
 20
-24.6187423308
 11
76.7475723005
 21
-27.0521932839
  0
LINE
  5
3C0
100
AcDbEntity
  8
ASSI
100
AcDbLine
 62
250
  6
CONTINUOUS
 10
76.7475723005
 20
-27.0521932839
 11
76.717281573
 21
-36.9400013398
  0
LINE
  5
3C1
100
AcDbEntity
  8
ASSI
100
AcDbLine
 62
250
  6
CONTINUOUS
 10
76.717281573
 20
-36.9400013398
 11
76.7121746598
 21
-37.6899076183
  0
LINE
  5
3C2
100
AcDbEntity
  8
ASSI
100
AcDbLine
 62
250
  6
CONTINUOUS
 10
76.3124761555
 20
-42.1822600418
 11
76.3119571484
 21
-42.2515484572
  0
LINE
  5
3C3
100
AcDbEntity
  8
ASSI
100
AcDbLine
 62
250
  6
CONTINUOUS
 10
76.3119571484
 20
-42.2515484572
 11
76.3110197187
 21
-42.3187606407
  0
LWPOLYLINE
  5
3C4
100
AcDbEntity
  8
ASSI
100
AcDbPolyline
 62
250
  6
CONTINUOUS
 90
25
 70
0
 10
76.627041215
 20
42.3958375774
 10
76.6256498106
 20
42.4154932675
 10
76.6229832601
 20
42.4350253886
 10
76.6190412651
 20
42.4544336772
 10
76.6137905758
 20
42.4738256881
 10
76.6072638227
 20
42.4930933152
 10
76.59955958
 20
42.5119128612
 10
76.5906656046
 20
42.5302525516
 10
76.5805936622
 20
42.5481437594
 10
76.5694784735
 20
42.5653576489
 10
76.5573088222
 20
42.5818838026
 10
76.5440956493
 20
42.5977324327
 10
76.530007071
 20
42.6127058083
 10
76.5150330264
 20
42.6267942943
 10
76.4991835431
 20
42.6400075592
 10
76.4826570408
 20
42.6521769967
 10
76.4654433838
 20
42.6632914383
 10
76.4475529139
 20
42.6733623284
 10
76.4292149278
 20
42.6822551388
 10
76.4104009443
 20
42.6899576761
 10
76.3911398475
 20
42.6964826119
 10
76.3717471207
 20
42.7017328493
 10
76.3523281314
 20
42.7056762492
 10
76.3327780621
 20
42.7083455683
 10
76.3130971759
 20
42.7097411049
  0
LINE
  5
3C5
100
AcDbEntity
  8
ASSI
100
AcDbLine
 62
250
  6
CONTINUOUS
 10
76.627041215
 20
42.3958375774
 11
76.6514986881
 21
41.6822335876
  0
LWPOLYLINE
  5
3C6
100
AcDbEntity
  8
ASSI
100
AcDbPolyline
 62
250
  6
CONTINUOUS
 90
25
 70
0
 10
77.0903390813
 20
42.3733105897
 10
77.0886269981
 20
42.4256252349
 10
77.083496977
 20
42.4777200508
 10
77.0749697347
 20
42.5293721067
 10
77.0630793417
 20
42.5803644297
 10
77.0478761073
 20
42.6304741098
 10
77.0294291486
 20
42.6794740786
 10
77.0078195943
 20
42.7271531977
 10
76.9831404776
 20
42.7733098307
 10
76.9555026653
 20
42.8177411918
 10
76.9250309526
 20
42.8602530991
 10
76.8918542314
 20
42.9006714433
 10
76.8561065544
 20
42.9388350667
 10
76.8179400844
 20
42.9745813808
 10
76.7775182759
 20
43.0077570094
 10
76.7350040227
 20
43.0382265542
 10
76.6905719554
 20
43.065861138
 10
76.6444160659
 20
43.090536457
 10
76.5967401253
 20
43.1121415385
 10
76.5477475807
 20
43.1305832265
 10
76.4976480397
 20
43.1457816451
 10
76.4466642969
 20
43.1576690064
 10
76.3950176198
 20
43.1661948288
 10
76.3429262474
 20
43.1713242823
 10
76.2906130266
 20
43.173036255
  0
LINE
  5
3C7
100
AcDbEntity
  8
ASSI
100
AcDbLine
 62
250
  6
CONTINUOUS
 10
76.3079709965
 20
42.9693188239
 11
76.3096823032
 21
42.9101452248
  0
LINE
  5
3C8
100
AcDbEntity
  8
ASSI
100
AcDbLine
 62
250
  6
CONTINUOUS
 10
76.6514986881
 20
41.6822335876
 11
76.671209621
 21
40.9693471233
  0
LINE
  5
3C9
100
AcDbEntity
  8
ASSI
100
AcDbLine
 62
250
  6
CONTINUOUS
 10
76.671209621
 20
40.9693471233
 11
76.6864290946
 21
40.2588627258
  0
LINE
  5
3CA
100
AcDbEntity
  8
ASSI
100
AcDbLine
 62
250
  6
CONTINUOUS
 10
76.3096823032
 20
42.9101452248
 11
76.3110197824
 21
42.8463267829
  0
LINE
  5
3CB
100
AcDbEntity
  8
ASSI
100
AcDbLine
 62
250
  6
CONTINUOUS
 10
76.6864290946
 20
40.2588627258
 11
76.6978559673
 21
39.5580037366
  0
LINE
  5
3CC
100
AcDbEntity
  8
ASSI
100
AcDbLine
 62
250
  6
CONTINUOUS
 10
76.6978559673
 20
39.5580037366
 11
76.7063995465
 21
38.8622532635
  0
LINE
  5
3CD
100
AcDbEntity
  8
ASSI
100
AcDbLine
 62
250
  6
CONTINUOUS
 10
76.7063995465
 20
38.8622532635
 11
76.7126142171
 21
38.1650933653
  0
LINE
  5
3CE
100
AcDbEntity
  8
ASSI
100
AcDbLine
 62
250
  6
CONTINUOUS
 10
77.0861937861
 20
-7.9018908846
 11
77.0903382082
 21
-41.8457439271
  0
LINE
  5
3CF
100
AcDbEntity
  8
ASSI
100
AcDbLine
 62
7
  6
CONTINUOUS
 10
77.1310855263
 20
-41.8864912453
 11
77.1310855263
 21
42.4140570348
  0
LINE
  5
3D0
100
AcDbEntity
  8
ASSI
100
AcDbLine
 62
250
  6
CONTINUOUS
 10
77.0903389663
 20
42.3733104747
 11
77.0861937861
 21
-7.9018908846
  0
LINE
  5
3D1
100
AcDbEntity
  8
ASSI
100
AcDbLine
 62
250
  6
CONTINUOUS
 10
76.7121746598
 20
-37.6899076183
 11
76.7051413211
 21
-38.4488078541
  0
LINE
  5
3D2
100
AcDbEntity
  8
ASSI
100
AcDbLine
 62
250
  6
CONTINUOUS
 10
76.7051413211
 20
-38.4488078541
 11
76.695306286
 21
-39.2075105456
  0
LINE
  5
3D3
100
AcDbEntity
  8
ASSI
100
AcDbLine
 62
250
  6
CONTINUOUS
 10
76.695306286
 20
-39.2075105456
 11
76.6819588645
 21
-39.9594443601
  0
LINE
  5
3D4
100
AcDbEntity
  8
ASSI
100
AcDbLine
 62
250
  6
CONTINUOUS
 10
76.3110197187
 20
-42.3187606407
 11
76.3096822445
 21
-42.3825790071
  0
LINE
  5
3D5
100
AcDbEntity
  8
ASSI
100
AcDbLine
 62
250
  6
CONTINUOUS
 10
76.6819588645
 20
-39.9594443601
 11
76.6644011609
 21
-40.708512203
  0
LWPOLYLINE
  5
3D6
100
AcDbEntity
  8
ASSI
100
AcDbPolyline
 62
250
  6
CONTINUOUS
 90
15
 70
0
 10
76.3096822445
 20
-42.3825790071
 10
76.3079709442
 20
-42.441752543
 10
76.3069853239
 20
-42.4692307968
 10
76.3059193659
 20
-42.4951212189
 10
76.3047783008
 20
-42.5192967665
 10
76.3035677279
 20
-42.5416388115
 10
76.3022935872
 20
-42.5620377228
 10
76.300962131
 20
-42.5803934039
 10
76.2995798925
 20
-42.5966157844
 10
76.2981536525
 20
-42.6106252793
 10
76.2966904112
 20
-42.6223531213
 10
76.2951973548
 20
-42.6317417294
 10
76.2936818118
 20
-42.6387450552
 10
76.2921512171
 20
-42.6433287772
 10
76.2906130813
 20
-42.6454704329
  0
LWPOLYLINE
  5
3D7
100
AcDbEntity
  8
ASSI
100
AcDbPolyline
 62
250
  6
CONTINUOUS
 90
3
 70
0
 10
76.6644011609
 20
-40.708512203
 10
76.6409761913
 20
-41.4772264665
 10
76.6271457497
 20
-41.8675058317
  0
LWPOLYLINE
  5
3D8
100
AcDbEntity
  8
ASSI
100
AcDbPolyline
 62
250
  6
CONTINUOUS
 90
14
 70
0
 10
77.0903390813
 20
-41.8457448003
 10
77.0881974008
 20
-41.8472818025
 10
77.0836136429
 20
-41.8488112629
 10
77.0766102995
 20
-41.8503256766
 10
77.0672217349
 20
-41.8518176127
 10
77.0554940175
 20
-41.8532797503
 10
77.0414846934
 20
-41.854704915
 10
77.0252625043
 20
-41.8560861138
 10
77.0069070502
 20
-41.8574165693
 10
76.9865083986
 20
-41.858689753
 10
76.9641666427
 20
-41.8598994178
 10
76.9399914102
 20
-41.861039628
 10
76.9141013255
 20
-41.8621047886
 10
76.8866234274
 20
-41.8630896732
  0
LWPOLYLINE
  5
3D9
100
AcDbEntity
  8
ASSI
100
AcDbPolyline
 62
250
  6
CONTINUOUS
 90
14
 70
0
 10
76.2906131483
 20
43.1730361826
 10
76.2921512575
 20
43.1708945857
 10
76.2936818333
 20
43.1663109796
 10
76.2951973654
 20
43.1593077901
 10
76.2966904212
 20
43.1499192852
 10
76.2981536692
 20
43.1381914877
 10
76.2995799159
 20
43.124182019
 10
76.3009621588
 20
43.1079596747
 10
76.3022936194
 20
43.0896040193
 10
76.3035677643
 20
43.0692051236
 10
76.3047783415
 20
43.0468630843
 10
76.3059194106
 20
43.022687533
 10
76.3069853725
 20
42.9967970983
 10
76.3079709965
 20
42.9693188239
  0
LINE
  5
3DA
100
AcDbEntity
  8
ASSI
100
AcDbLine
 62
7
  6
CONTINUOUS
 10
-104.6302586217
 20
-42.6862171053
 11
-106.3448739872
 21
-42.6413183218
  0
LINE
  5
3DB
100
AcDbEntity
  8
ASSI
100
AcDbLine
 62
7
  6
CONTINUOUS
 10
-106.3471197293
 20
-42.6412014015
 11
-106.3446973397
 21
-42.6413229475
  0
LWPOLYLINE
  5
3DC
100
AcDbEntity
  8
ASSI
100
AcDbPolyline
 62
250
  6
CONTINUOUS
 90
16
 70
0
 10
-104.630258301
 20
-41.8891145188
 10
-104.500134149
 20
-41.8750718607
 10
-104.3692150433
 20
-41.8568950352
 10
-104.2376668167
 20
-41.8345840422
 10
-104.1059309078
 20
-41.8083232229
 10
-103.9739188565
 20
-41.7779282361
 10
-103.8410362187
 20
-41.7428460583
 10
-103.7074758932
 20
-41.7031369322
 10
-103.5735154144
 20
-41.6587406151
 10
-103.4387586554
 20
-41.6089233551
 10
-103.3033305775
 20
-41.5536330423
 10
-103.1677475286
 20
-41.4929217866
 10
-103.0322660777
 20
-41.4262121659
 10
-102.8972353808
 20
-41.3533117061
 10
-102.7630908352
 20
-41.2744128813
 10
-102.6302587077
 20
-41.1895156914
  0
LINE
  5
3DD
100
AcDbEntity
  8
ASSI
100
AcDbLine
 62
250
  6
CONTINUOUS
 10
-106.6614025129
 20
-41.867072938
 11
-106.6713922131
 21
-41.8675915841
  0
LINE
  5
3DE
100
AcDbEntity
  8
ASSI
100
AcDbLine
 62
250
  6
CONTINUOUS
 10
-106.1863025786
 20
-41.8457448003
 11
-106.6614025129
 21
-41.867072938
  0
LINE
  5
3DF
100
AcDbEntity
  8
ASSI
100
AcDbLine
 62
250
  6
CONTINUOUS
 10
-106.1863359227
 20
-41.8457439271
 11
-104.6302586217
 21
-41.8864912453
  0
LINE
  5
3E0
100
AcDbEntity
  8
ASSI
100
AcDbLine
 62
7
  6
CONTINUOUS
 10
-106.4048955955
 20
-42.6361222482
 11
-106.3776118634
 21
-42.6391435436
  0
LINE
  5
3E1
100
AcDbEntity
  8
ASSI
100
AcDbLine
 62
7
  6
CONTINUOUS
 10
-106.7958058916
 20
-42.3277426765
 11
-106.7958915416
 21
-42.3277288191
  0
LINE
  5
3E2
100
AcDbEntity
  8
ASSI
100
AcDbLine
 62
7
  6
CONTINUOUS
 10
-106.4521852914
 20
-42.6267971917
 11
-106.4048955955
 21
-42.6361222482
  0
LWPOLYLINE
  5
3E3
100
AcDbEntity
  8
RACCORDO
100
AcDbPolyline
 62
250
  6
CONTINUOUS
 90
4
 70
0
 10
-110.7817052732
 20
-22.9029200203
 10
-110.7967836186
 20
-22.9042748584
 10
-110.8103509411
 20
-22.9055566171
 10
-110.8441919728
 20
-22.9089047471
  0
LINE
  5
3E4
100
AcDbEntity
  8
RACCORDO
100
AcDbLine
 62
250
  6
CONTINUOUS
 10
-110.7819711072
 20
-22.1038160232
 11
-110.7822198894
 21
-22.1037885111
  0
LWPOLYLINE
  5
3E5
100
AcDbEntity
  8
RACCORDO
100
AcDbPolyline
 62
7
  6
CONTINUOUS
 90
17
 70
0
 10
-110.8340744952
 20
-22.6213940454
 10
-110.8590815684
 20
-22.6268696857
 10
-110.883731926
 20
-22.6345367965
 10
-110.9076923007
 20
-22.6443225073
 10
-110.930766814
 20
-22.6561635901
 10
-110.9527452573
 20
-22.6699622631
 10
-110.9734479121
 20
-22.6856078777
 10
-110.992732211
 20
-22.70299501
 10
-111.0104593249
 20
-22.7220061851
 10
-111.0264935633
 20
-22.7425076308
 10
-111.0407049827
 20
-22.764346219
 10
-111.0529794876
 20
-22.7873598135
 10
-111.0632179386
 20
-22.8113772554
 10
-111.0713366173
 20
-22.8362198384
 10
-111.0772672414
 20
-22.8617011872
 10
-111.0809578742
 20
-22.8876290982
 10
-111.0823370457
 20
-22.9131339684
  0
LINE
  5
3E6
100
AcDbEntity
  8
RACCORDO
100
AcDbLine
 62
7
  6
CONTINUOUS
 10
-110.8085359885
 20
-22.6180428145
 11
-110.8340744952
 21
-22.6213940454
  0
LINE
  5
3E7
100
AcDbEntity
  8
RACCORDO
100
AcDbLine
 62
250
  6
CONTINUOUS
 10
-110.9424005819
 20
-22.9203165307
 11
-111.0589358584
 21
-22.9354550021
  0
LINE
  5
3E8
100
AcDbEntity
  8
RACCORDO
100
AcDbLine
 62
250
  6
CONTINUOUS
 10
-111.0589358584
 20
-22.9354550021
 11
-111.0790428035
 21
-22.9379823744
  0
LINE
  5
3E9
100
AcDbEntity
  8
RACCORDO
100
AcDbLine
 62
250
  6
CONTINUOUS
 10
-110.9136181119
 20
-22.9167408732
 11
-110.9424005819
 21
-22.9203165307
  0
LWPOLYLINE
  5
3EA
100
AcDbEntity
  8
RACCORDO
100
AcDbPolyline
 62
250
  6
CONTINUOUS
 90
3
 70
0
 10
-111.080348194
 20
-22.9381381512
 10
-111.0811612438
 20
-22.9382375056
 10
-111.0814408266
 20
-22.9382804376
  0
LINE
  5
3EB
100
AcDbEntity
  8
RACCORDO
100
AcDbLine
 62
250
  6
CONTINUOUS
 10
-110.8838483505
 20
-22.9132229811
 11
-110.9136181119
 21
-22.9167408732
  0
LWPOLYLINE
  5
3EC
100
AcDbEntity
  8
RACCORDO
100
AcDbPolyline
 62
250
  6
CONTINUOUS
 90
3
 70
0
 10
-110.8441919728
 20
-22.9089047471
 10
-110.8541479871
 20
-22.9099481242
 10
-110.8838483505
 20
-22.9132229811
  0
LINE
  5
3ED
100
AcDbEntity
  8
RACCORDO
100
AcDbLine
 62
7
  6
CONTINUOUS
 10
-110.8085356182
 20
-22.6180427821
 11
-110.7713949742
 21
-22.6147933968
  0
LINE
  5
3EE
100
AcDbEntity
  8
ASSI
100
AcDbLine
 62
7
  6
CONTINUOUS
 10
-107.6973822104
 20
40.4748884052
 11
-107.8362222042
 21
40.0807525883
  0
LINE
  5
3EF
100
AcDbEntity
  8
ASSI
100
AcDbLine
 62
7
  6
CONTINUOUS
 10
-107.5949410703
 20
40.7604560816
 11
-107.7143856544
 21
40.4271035574
  0
LINE
  5
3F0
100
AcDbEntity
  8
ASSI
100
AcDbLine
 62
7
  6
CONTINUOUS
 10
-107.4780530532
 20
41.0810658434
 11
-107.5970968952
 21
40.7546590616
  0
LINE
  5
3F1
100
AcDbEntity
  8
ASSI
100
AcDbLine
 62
7
  6
CONTINUOUS
 10
-107.3640193143
 20
41.3887814836
 11
-107.4907953162
 21
41.0466634742
  0
LINE
  5
3F2
100
AcDbEntity
  8
ASSI
100
AcDbLine
 62
7
  6
CONTINUOUS
 10
-107.2721343231
 20
41.6336245099
 11
-107.3886194978
 21
41.32315794
  0
LINE
  5
3F3
100
AcDbEntity
  8
ASSI
100
AcDbLine
 62
7
  6
CONTINUOUS
 10
-107.1788169103
 20
41.8788573035
 11
-107.308279055
 21
41.5374496445
  0
LINE
  5
3F4
100
AcDbEntity
  8
ASSI
100
AcDbLine
 62
7
  6
CONTINUOUS
 10
-107.0693034221
 20
42.1628765079
 11
-107.1995948019
 21
41.8241604602
  0
LINE
  5
3F5
100
AcDbEntity
  8
ASSI
100
AcDbLine
 62
7
  6
CONTINUOUS
 10
-106.9478563616
 20
42.4730370324
 11
-107.094975212
 21
42.0963353553
  0
LINE
  5
3F6
100
AcDbEntity
  8
ASSI
100
AcDbLine
 62
7
  6
CONTINUOUS
 10
-106.8527403326
 20
42.7131978546
 11
-106.9645813633
 21
42.430815982
  0
LINE
  5
3F7
100
AcDbEntity
  8
ASSI
100
AcDbLine
 62
7
  6
CONTINUOUS
 10
-106.7958847594
 20
42.8553115048
 11
-106.8592152891
 21
42.6967396582
  0
LINE
  5
3F8
100
AcDbEntity
  8
ASSI
100
AcDbLine
 62
7
  6
CONTINUOUS
 10
-106.7958090104
 20
42.8553044738
 11
-106.8182955814
 21
42.7992072071
  0
LINE
  5
3F9
100
AcDbEntity
  8
ASSI
100
AcDbLine
 62
7
  6
CONTINUOUS
 10
-106.9221021178
 20
-42.0109536368
 11
-106.7958089356
 21
-42.3277388706
  0
LINE
  5
3FA
100
AcDbEntity
  8
ASSI
100
AcDbLine
 62
7
  6
CONTINUOUS
 10
-107.0445879612
 20
-41.6985664547
 11
-106.9023429626
 21
-42.0606325392
  0
LINE
  5
3FB
100
AcDbEntity
  8
ASSI
100
AcDbLine
 62
7
  6
CONTINUOUS
 10
-107.146747825
 20
-41.4345371559
 11
-107.0353294758
 21
-41.7226193833
  0
LINE
  5
3FC
100
AcDbEntity
  8
ASSI
100
AcDbLine
 62
7
  6
CONTINUOUS
 10
-107.253429236
 20
-41.1550939555
 11
-107.1380180332
 21
-41.4575694591
  0
LINE
  5
3FD
100
AcDbEntity
  8
ASSI
100
AcDbLine
 62
7
  6
CONTINUOUS
 10
-107.3640199075
 20
-40.861214106
 11
-107.2449975211
 21
-41.1776856724
  0
LINE
  5
3FE
100
AcDbEntity
  8
ASSI
100
AcDbLine
 62
7
  6
CONTINUOUS
 10
-107.4780537725
 20
-40.5534980976
 11
-107.3551476251
 21
-40.8853119153
  0
LINE
  5
3FF
100
AcDbEntity
  8
ASSI
100
AcDbLine
 62
7
  6
CONTINUOUS
 10
-107.5949419128
 20
-40.2328879618
 11
-107.4678881803
 21
-40.5814347421
  0
LINE
  5
400
100
AcDbEntity
  8
ASSI
100
AcDbLine
 62
7
  6
CONTINUOUS
 10
-107.6598000782
 20
-40.052681634
 11
-107.5633693547
 21
-40.3202342385
  0
LWPOLYLINE
  5
401
100
AcDbEntity
  8
ASSI
100
AcDbPolyline
 62
7
  6
CONTINUOUS
 90
3
 70
0
 10
-107.8362232739
 20
-39.5531837289
 10
-107.7750128082
 20
-39.7280121294
 10
-107.6543387885
 20
-40.0678642459
  0
LWPOLYLINE
  5
402
100
AcDbEntity
  8
ASSI
100
AcDbPolyline
 62
7
  6
CONTINUOUS
 90
12
 70
0
 10
-108.7606383055
 20
37.1919850796
 10
-108.8286392798
 20
36.9563717418
 10
-108.8954750584
 20
36.720839673
 10
-108.9611214975
 20
36.4854594262
 10
-109.0255942078
 20
36.2501604484
 10
-109.0882525081
 20
36.0173286044
 10
-109.1490136232
 20
35.7873972325
 10
-109.2080259785
 20
35.5599329943
 10
-109.2650465297
 20
35.3360217395
 10
-109.3200765625
 20
35.1158457373
 10
-109.3732123311
 20
34.8992227186
 10
-109.4736289132
 20
34.478321171
  0
LINE
  5
403
100
AcDbEntity
  8
ASSI
100
AcDbLine
 62
7
  6
CONTINUOUS
 10
-108.6235481332
 20
37.6555077239
 11
-108.7606383055
 21
37.1919850796
  0
LINE
  5
404
100
AcDbEntity
  8
ASSI
100
AcDbLine
 62
7
  6
CONTINUOUS
 10
-108.4859288395
 20
38.1066783627
 11
-108.6235481332
 21
37.6555077239
  0
LINE
  5
405
100
AcDbEntity
  8
ASSI
100
AcDbLine
 62
7
  6
CONTINUOUS
 10
-108.3505729312
 20
38.5379072975
 11
-108.4859288395
 21
38.1066783627
  0
LINE
  5
406
100
AcDbEntity
  8
ASSI
100
AcDbLine
 62
7
  6
CONTINUOUS
 10
-108.2177607111
 20
38.9500180248
 11
-108.3505729312
 21
38.5379072975
  0
LINE
  5
407
100
AcDbEntity
  8
ASSI
100
AcDbLine
 62
7
  6
CONTINUOUS
 10
-108.0878539976
 20
39.3434123913
 11
-108.2177607111
 21
38.9500180248
  0
LINE
  5
408
100
AcDbEntity
  8
ASSI
100
AcDbLine
 62
7
  6
CONTINUOUS
 10
-107.9607137691
 20
39.7198357522
 11
-108.0878539976
 21
39.3434123913
  0
LINE
  5
409
100
AcDbEntity
  8
ASSI
100
AcDbLine
 62
7
  6
CONTINUOUS
 10
-107.8362222042
 20
40.0807525883
 11
-107.9607137691
 21
39.7198357522
  0
LINE
  5
40A
100
AcDbEntity
  8
ASSI
100
AcDbLine
 62
7
  6
CONTINUOUS
 10
-107.9607149406
 20
-39.1922665314
 11
-107.8362232739
 21
-39.5531837289
  0
LINE
  5
40B
100
AcDbEntity
  8
ASSI
100
AcDbLine
 62
7
  6
CONTINUOUS
 10
-108.0878552649
 20
-38.8158428084
 11
-107.9607149406
 21
-39.1922665314
  0
LINE
  5
40C
100
AcDbEntity
  8
ASSI
100
AcDbLine
 62
7
  6
CONTINUOUS
 10
-108.2177620697
 20
-38.4224480721
 11
-108.0878552649
 21
-38.8158428084
  0
LINE
  5
40D
100
AcDbEntity
  8
ASSI
100
AcDbLine
 62
7
  6
CONTINUOUS
 10
-108.3505743771
 20
-38.0103369638
 11
-108.2177620697
 21
-38.4224480721
  0
LINE
  5
40E
100
AcDbEntity
  8
ASSI
100
AcDbLine
 62
7
  6
CONTINUOUS
 10
-108.4859303738
 20
-37.5791076169
 11
-108.3505743771
 21
-38.0103369638
  0
LINE
  5
40F
100
AcDbEntity
  8
ASSI
100
AcDbLine
 62
7
  6
CONTINUOUS
 10
-108.6235497767
 20
-37.1279364648
 11
-108.4859303738
 21
-37.5791076169
  0
LINE
  5
410
100
AcDbEntity
  8
ASSI
100
AcDbLine
 62
7
  6
CONTINUOUS
 10
-110.1996910168
 20
30.8572903326
 11
-110.2858683885
 21
30.3513453908
  0
LINE
  5
411
100
AcDbEntity
  8
ASSI
100
AcDbLine
 62
7
  6
CONTINUOUS
 10
-110.0795359707
 20
31.5213868683
 11
-110.1406058134
 21
31.1723059101
  0
LINE
  5
412
100
AcDbEntity
  8
ASSI
100
AcDbLine
 62
7
  6
CONTINUOUS
 10
-110.1522541368
 20
31.1261377058
 11
-110.204953333
 21
30.8270702371
  0
LINE
  5
413
100
AcDbEntity
  8
ASSI
100
AcDbLine
 62
7
  6
CONTINUOUS
 10
-110.0694076909
 20
31.5899310204
 11
-110.1300215602
 21
31.24554707
  0
LINE
  5
414
100
AcDbEntity
  8
ASSI
100
AcDbLine
 62
7
  6
CONTINUOUS
 10
-110.0327946455
 20
31.7813618915
 11
-110.0795359707
 21
31.5213868683
  0
LINE
  5
415
100
AcDbEntity
  8
ASSI
100
AcDbLine
 62
7
  6
CONTINUOUS
 10
-110.0941680113
 20
31.4477634272
 11
-110.1528362944
 21
31.122875329
  0
LINE
  5
416
100
AcDbEntity
  8
ASSI
100
AcDbLine
 62
7
  6
CONTINUOUS
 10
-110.0146379679
 20
31.8917809796
 11
-110.0694076909
 21
31.5899310204
  0
LINE
  5
417
100
AcDbEntity
  8
RACCORDO
100
AcDbLine
 62
7
  6
CONTINUOUS
 10
-110.1382167849
 20
31.1718664757
 11
-110.2515605927
 21
30.5556617001
  0
LINE
  5
418
100
AcDbEntity
  8
ASSI
100
AcDbLine
 62
7
  6
CONTINUOUS
 10
-109.9719702864
 20
32.1103695321
 11
-110.0327946455
 21
31.7813618915
  0
LINE
  5
419
100
AcDbEntity
  8
ASSI
100
AcDbLine
 62
7
  6
CONTINUOUS
 10
-109.962350742
 20
32.1717550958
 11
-110.0146379679
 21
31.8917809796
  0
LINE
  5
41A
100
AcDbEntity
  8
ASSI
100
AcDbLine
 62
7
  6
CONTINUOUS
 10
-109.9228166708
 20
32.3688815572
 11
-109.9719702864
 21
32.1103695321
  0
LINE
  5
41B
100
AcDbEntity
  8
ASSI
100
AcDbLine
 62
7
  6
CONTINUOUS
 10
-109.8980161856
 20
32.5058283688
 11
-109.962350742
 21
32.1717550958
  0
LINE
  5
41C
100
AcDbEntity
  8
ASSI
100
AcDbLine
 62
7
  6
CONTINUOUS
 10
-109.8664182518
 20
32.6578132268
 11
-109.9228166708
 21
32.3688815572
  0
LINE
  5
41D
100
AcDbEntity
  8
ASSI
100
AcDbLine
 62
7
  6
CONTINUOUS
 10
-109.8353584077
 20
32.8135925755
 11
-109.8980161856
 21
32.5058283688
  0
LINE
  5
41E
100
AcDbEntity
  8
ASSI
100
AcDbLine
 62
7
  6
CONTINUOUS
 10
-109.7677307354
 20
33.1450106402
 11
-109.8490165865
 21
32.7530271585
  0
LINE
  5
41F
100
AcDbEntity
  8
ASSI
100
AcDbLine
 62
7
  6
CONTINUOUS
 10
-109.6925899032
 20
33.5015205538
 11
-109.7967475794
 21
33.0102494749
  0
LINE
  5
420
100
AcDbEntity
  8
ASSI
100
AcDbLine
 62
7
  6
CONTINUOUS
 10
-109.6524025052
 20
33.6874467524
 11
-109.7141891793
 21
33.4038754208
  0
LINE
  5
421
100
AcDbEntity
  8
ASSI
100
AcDbLine
 62
7
  6
CONTINUOUS
 10
-109.5665785363
 20
34.0741899362
 11
-109.6577506564
 21
33.6646929818
  0
LINE
  5
422
100
AcDbEntity
  8
ASSI
100
AcDbLine
 62
7
  6
CONTINUOUS
 10
-109.5928345584
 20
33.9568976952
 11
-109.6008648028
 21
33.921301839
  0
LINE
  5
423
100
AcDbEntity
  8
ASSI
100
AcDbLine
 62
7
  6
CONTINUOUS
 10
-109.4736289132
 20
34.478321171
 11
-109.5665785363
 21
34.0741899362
  0
LWPOLYLINE
  5
424
100
AcDbEntity
  8
ASSI
100
AcDbPolyline
 62
7
  6
CONTINUOUS
 90
11
 70
0
 10
-109.3200786237
 20
-34.5882716229
 10
-109.2650485893
 20
-34.8084477858
 10
-109.2080280296
 20
-35.0323592249
 10
-109.1490156584
 20
-35.2598236706
 10
-109.0882545188
 20
-35.4897552752
 10
-109.0255961835
 20
-35.7225873831
 10
-108.961123429
 20
-35.9578866499
 10
-108.8954769401
 20
-36.1932671951
 10
-108.828641105
 20
-36.4287995748
 10
-108.7606400683
 20
-36.6644132329
 10
-108.6235497767
 20
-37.1279364648
  0
LINE
  5
425
100
AcDbEntity
  8
ASSI
100
AcDbLine
 62
7
  6
CONTINUOUS
 10
-109.424383021
 20
-34.1591173557
 11
-109.3200786237
 21
-34.5882716229
  0
LINE
  5
426
100
AcDbEntity
  8
ASSI
100
AcDbLine
 62
7
  6
CONTINUOUS
 10
-109.5210355397
 20
-33.7464680967
 11
-109.424383021
 21
-34.1591173557
  0
LINE
  5
427
100
AcDbEntity
  8
ASSI
100
AcDbLine
 62
7
  6
CONTINUOUS
 10
-109.6177630132
 20
-33.3181405696
 11
-109.5210355397
 21
-33.7464680967
  0
LINE
  5
428
100
AcDbEntity
  8
ASSI
100
AcDbLine
 62
7
  6
CONTINUOUS
 10
-109.6751829098
 20
-33.0572510333
 11
-109.6103623484
 21
-33.3510307893
  0
LINE
  5
429
100
AcDbEntity
  8
ASSI
100
AcDbLine
 62
7
  6
CONTINUOUS
 10
-109.7320116238
 20
-32.7925870603
 11
-109.6524044399
 21
-33.1598720886
  0
LINE
  5
42A
100
AcDbEntity
  8
ASSI
100
AcDbLine
 62
7
  6
CONTINUOUS
 10
-109.7880519207
 20
-32.5248558459
 11
-109.7320116238
 21
-32.7925870603
  0
LINE
  5
42B
100
AcDbEntity
  8
ASSI
100
AcDbLine
 62
7
  6
CONTINUOUS
 10
-109.8427313571
 20
-32.2567373351
 11
-109.7677325238
 21
-32.6174362224
  0
LINE
  5
42C
100
AcDbEntity
  8
ASSI
100
AcDbLine
 62
7
  6
CONTINUOUS
 10
-109.9120342854
 20
-31.9064125697
 11
-109.8353600632
 21
-32.2860185444
  0
LINE
  5
42D
100
AcDbEntity
  8
ASSI
100
AcDbLine
 62
7
  6
CONTINUOUS
 10
-109.9482878626
 20
-31.7081563429
 11
-109.8955627063
 21
-31.9819372189
  0
LINE
  5
42E
100
AcDbEntity
  8
ASSI
100
AcDbLine
 62
7
  6
CONTINUOUS
 10
-109.9602031906
 20
-31.6555227041
 11
-109.9120342854
 21
-31.9064125697
  0
LINE
  5
42F
100
AcDbEntity
  8
ASSI
100
AcDbLine
 62
7
  6
CONTINUOUS
 10
-110.0141500966
 20
-31.3557481186
 11
-109.9482878626
 21
-31.7081563429
  0
LINE
  5
430
100
AcDbEntity
  8
RACCORDO
100
AcDbLine
 62
7
  6
CONTINUOUS
 10
-110.1424677426
 20
-30.6253371695
 11
-110.237698489
 21
-30.1095159791
  0
LINE
  5
431
100
AcDbEntity
  8
ASSI
100
AcDbLine
 62
7
  6
CONTINUOUS
 10
-110.017942302
 20
-31.3462566735
 11
-109.9602031906
 21
-31.6555227041
  0
LINE
  5
432
100
AcDbEntity
  8
ASSI
100
AcDbLine
 62
7
  6
CONTINUOUS
 10
-110.0654312166
 20
-31.0729372888
 11
-110.0141500966
 21
-31.3557481186
  0
LINE
  5
433
100
AcDbEntity
  8
ASSI
100
AcDbLine
 62
7
  6
CONTINUOUS
 10
-110.0669591476
 20
-31.0760515171
 11
-110.017942302
 21
-31.3462566735
  0
LINE
  5
434
100
AcDbEntity
  8
ASSI
100
AcDbLine
 62
7
  6
CONTINUOUS
 10
-110.1647426018
 20
-30.5283934796
 11
-110.0654312166
 21
-31.0729372888
  0
LINE
  5
435
100
AcDbEntity
  8
ASSI
100
AcDbLine
 62
7
  6
CONTINUOUS
 10
-110.1083397947
 20
-30.8423317797
 11
-110.0669591476
 21
-31.0760515171
  0
LINE
  5
436
100
AcDbEntity
  8
ASSI
100
AcDbLine
 62
7
  6
CONTINUOUS
 10
-110.2170982781
 20
-30.2294402806
 11
-110.1581499431
 21
-30.5654916738
  0
LINE
  5
437
100
AcDbEntity
  8
ASSI
100
AcDbLine
 62
7
  6
CONTINUOUS
 10
-110.1444103802
 20
-30.6226831927
 11
-110.0922389102
 21
-30.9220741367
  0
LINE
  5
438
100
AcDbEntity
  8
ASSI
100
AcDbLine
 62
7
  6
CONTINUOUS
 10
-110.288549406
 20
-29.8076401527
 11
-110.2072701182
 21
-30.2861734576
  0
LINE
  5
439
100
AcDbEntity
  8
RACCORDO
100
AcDbLine
 62
7
  6
CONTINUOUS
 10
-110.9257334532
 20
25.3620457528
 11
-111.0818050729
 21
23.4659422303
  0
LWPOLYLINE
  5
43A
100
AcDbEntity
  8
RACCORDO
100
AcDbPolyline
 62
7
  6
CONTINUOUS
 90
4
 70
0
 10
-110.2515605927
 20
30.5556617001
 10
-110.5042849696
 20
28.9418385654
 10
-110.7333903775
 20
27.1874322974
 10
-110.9256884627
 20
25.3621335191
  0
LWPOLYLINE
  5
43B
100
AcDbEntity
  8
0
100
AcDbPolyline
 62
7
  6
CONTINUOUS
 90
3
 70
0
 43
0.3500000006
 10
-98.0587990723
 20
52.2494989929
 10
-98.1302302551
 20
52.0352099762
 10
-98.2730835571
 20
51.7494988403
  0
LWPOLYLINE
  5
43C
100
AcDbEntity
  8
RACCORDO
100
AcDbPolyline
 62
7
  6
CONTINUOUS
 90
5
 70
0
 10
-110.237698489
 20
-30.1095159791
 10
-110.5042850267
 20
-28.4142723792
 10
-110.7333904123
 20
-26.6598662123
 10
-110.9256884779
 20
-24.8345675661
 10
-111.0818050729
 20
-22.9383764408
  0
LWPOLYLINE
  5
43D
100
AcDbEntity
  8
ASSI
100
AcDbPolyline
 62
250
  6
CONTINUOUS
 90
22
 70
0
 10
-106.6714006742
 20
-42.1822600418
 10
-106.667619117
 20
-42.2170795282
 10
-106.6614115814
 20
-42.2515484572
 10
-106.6528085306
 20
-42.2854976918
 10
-106.6418521845
 20
-42.3187606407
 10
-106.6285963072
 20
-42.3511740909
 10
-106.6131059399
 20
-42.3825790071
 10
-106.5954570898
 20
-42.4128212918
 10
-106.575736361
 20
-42.441752543
 10
-106.5540405217
 20
-42.4692307968
 10
-106.530476032
 20
-42.4951212189
 10
-106.5051585214
 20
-42.5192967665
 10
-106.4782122213
 20
-42.5416388115
 10
-106.4497693556
 20
-42.5620377228
 10
-106.4199694916
 20
-42.5803934039
 10
-106.3889588557
 20
-42.5966157844
 10
-106.3568895716
 20
-42.6106252793
 10
-106.3239190425
 20
-42.6223531213
 10
-106.2902091897
 20
-42.6317417294
 10
-106.2559254785
 20
-42.6387450552
 10
-106.2212360957
 20
-42.6433287772
 10
-106.1863112599
 20
-42.6454704329
  0
LINE
  5
43E
100
AcDbEntity
  8
RACCORDO
100
AcDbLine
 62
7
  6
CONTINUOUS
 10
-110.7735571872
 20
23.3392707728
 11
-110.7730817653
 21
23.3269064254
  0
LINE
  5
43F
100
AcDbEntity
  8
RACCORDO
100
AcDbLine
 62
250
  6
CONTINUOUS
 10
-110.7982010963
 20
-21.5926086636
 11
-110.7819711072
 21
-22.103816023
  0
LINE
  5
440
100
AcDbEntity
  8
RACCORDO
100
AcDbLine
 62
7
  6
CONTINUOUS
 10
-111.0823734381
 20
-22.9138069698
 11
-111.081620727
 21
-22.9383632135
  0
LINE
  5
441
100
AcDbEntity
  8
RACCORDO
100
AcDbLine
 62
7
  6
CONTINUOUS
 10
-110.7822198897
 20
-22.1037884994
 11
-110.7793535331
 21
-22.1941430189
  0
LINE
  5
442
100
AcDbEntity
  8
RACCORDO
100
AcDbLine
 62
7
  6
CONTINUOUS
 10
-110.7730817653
 20
23.3269064254
 11
-110.7726371589
 21
23.3123628279
  0
LINE
  5
443
100
AcDbEntity
  8
RACCORDO
100
AcDbLine
 62
7
  6
CONTINUOUS
 10
-110.8393506092
 20
-19.9869869027
 11
-110.7822198894
 21
-22.103788511
  0
LINE
  5
444
100
AcDbEntity
  8
RACCORDO
100
AcDbLine
 62
7
  6
CONTINUOUS
 10
-110.7793535331
 20
-22.1941430189
 11
-110.776515552
 21
-22.2979283071
  0
LINE
  5
445
100
AcDbEntity
  8
RACCORDO
100
AcDbLine
 62
250
  6
CONTINUOUS
 10
-110.8260502062
 20
-20.5551436122
 11
-110.7982010963
 21
-21.5926086636
  0
LINE
  5
446
100
AcDbEntity
  8
RACCORDO
100
AcDbLine
 62
7
  6
CONTINUOUS
 10
-110.7726371589
 20
23.3123628279
 11
-110.7722389166
 21
23.2956534177
  0
LINE
  5
447
100
AcDbEntity
  8
RACCORDO
100
AcDbLine
 62
7
  6
CONTINUOUS
 10
-110.776515552
 20
-22.2979283071
 11
-110.7743358296
 21
-22.3941688448
  0
LINE
  5
448
100
AcDbEntity
  8
RACCORDO
100
AcDbLine
 62
250
  6
CONTINUOUS
 10
-110.860281631
 20
-18.961316142
 11
-110.8260502062
 21
-20.5551436122
  0
LINE
  5
449
100
AcDbEntity
  8
RACCORDO
100
AcDbLine
 62
7
  6
CONTINUOUS
 10
-110.8847811972
 20
-17.7194093307
 11
-110.8392015414
 21
-19.9936550149
  0
LINE
  5
44A
100
AcDbEntity
  8
RACCORDO
100
AcDbLine
 62
7
  6
CONTINUOUS
 10
-110.9291132219
 20
-15.3738237813
 11
-110.8846295063
 21
-17.7260950956
  0
LINE
  5
44B
100
AcDbEntity
  8
RACCORDO
100
AcDbLine
 62
7
  6
CONTINUOUS
 10
-110.9715053974
 20
-12.9495210286
 11
-110.9289930238
 21
-15.3805006315
  0
LINE
  5
44C
100
AcDbEntity
  8
RACCORDO
100
AcDbLine
 62
7
  6
CONTINUOUS
 10
-110.7722389166
 20
23.2956534177
 11
-110.7718970728
 21
23.2768034257
  0
LINE
  5
44D
100
AcDbEntity
  8
RACCORDO
100
AcDbLine
 62
7
  6
CONTINUOUS
 10
-110.7743358296
 20
-22.3941688448
 11
-110.7727732954
 21
-22.4820549114
  0
LINE
  5
44E
100
AcDbEntity
  8
RACCORDO
100
AcDbLine
 62
7
  6
CONTINUOUS
 10
-111.009429912
 20
-10.4466164578
 11
-110.9713963344
 21
-12.9561971348
  0
LINE
  5
44F
100
AcDbEntity
  8
RACCORDO
100
AcDbLine
 62
250
  6
CONTINUOUS
 10
-110.7716326986
 20
23.3017819676
 11
-110.7718970728
 21
23.2768034257
  0
LINE
  5
450
100
AcDbEntity
  8
RACCORDO
100
AcDbLine
 62
7
  6
CONTINUOUS
 10
-110.7718970728
 20
23.2768034257
 11
-110.7716208788
 21
23.2558115914
  0
LINE
  5
451
100
AcDbEntity
  8
RACCORDO
100
AcDbLine
 62
7
  6
CONTINUOUS
 10
-110.7727732954
 20
-22.4820549114
 11
-110.7717881989
 21
-22.5610868359
  0
LWPOLYLINE
  5
452
100
AcDbEntity
  8
RACCORDO
100
AcDbPolyline
 62
250
  6
CONTINUOUS
 90
4
 70
0
 10
-110.7817052731
 20
23.4304858098
 10
-110.7814083372
 20
23.4000093012
 10
-110.7780224133
 20
23.3697205477
 10
-110.7741820669
 20
23.3519568054
  0
LINE
  5
453
100
AcDbEntity
  8
RACCORDO
100
AcDbLine
 62
7
  6
CONTINUOUS
 10
-111.0427224377
 20
-7.5970751678
 11
-111.0093393319
 21
-10.4532900471
  0
LINE
  5
454
100
AcDbEntity
  8
RACCORDO
100
AcDbLine
 62
250
  6
CONTINUOUS
 10
-110.771221578
 20
23.2729234403
 11
-110.7716208788
 21
23.2558115914
  0
LWPOLYLINE
  5
455
100
AcDbEntity
  8
RACCORDO
100
AcDbPolyline
 62
250
  6
CONTINUOUS
 90
3
 70
0
 10
-110.7715113126
 20
23.2445247082
 10
-110.7709588395
 20
23.2414238481
 10
-110.7713546035
 20
23.2203349179
  0
LINE
  5
456
100
AcDbEntity
  8
RACCORDO
100
AcDbLine
 62
7
  6
CONTINUOUS
 10
-111.074307734
 20
-3.494205369
 11
-111.0544052762
 21
-6.2446209406
  0
LINE
  5
457
100
AcDbEntity
  8
RACCORDO
100
AcDbLine
 62
7
  6
CONTINUOUS
 10
-110.7717881989
 20
-22.5610868359
 11
-110.7713966878
 21
-22.6143692978
  0
LINE
  5
458
100
AcDbEntity
  8
RACCORDO
100
AcDbLine
 62
7
  6
CONTINUOUS
 10
-110.7716208788
 20
23.2558115914
 11
-110.7713546035
 21
23.2203349179
  0
LWPOLYLINE
  5
459
100
AcDbEntity
  8
RACCORDO
100
AcDbPolyline
 62
7
  6
CONTINUOUS
 90
3
 70
0
 10
-111.0775613244
 20
-2.4702043507
 10
-111.0633622026
 20
-5.2068928286
 10
-111.0404136945
 20
-7.8656521832
  0
LINE
  5
45A
100
AcDbEntity
  8
RACCORDO
100
AcDbLine
 62
7
  6
CONTINUOUS
 10
-111.0826692938
 20
0.2637820227
 11
-111.074307734
 21
-3.494205369
  0
LINE
  5
45B
100
AcDbEntity
  8
RACCORDO
100
AcDbLine
 62
7
  6
CONTINUOUS
 10
-110.7713966878
 20
-22.6143692978
 11
-110.7712827937
 21
-22.6624539485
  0
LINE
  5
45C
100
AcDbEntity
  8
RACCORDO
100
AcDbLine
 62
7
  6
CONTINUOUS
 10
-110.7713546035
 20
23.2203349179
 11
-110.7712853497
 21
23.1799438819
  0
LINE
  5
45D
100
AcDbEntity
  8
RACCORDO
100
AcDbLine
 62
250
  6
CONTINUOUS
 10
-110.7708450846
 20
23.2076586659
 11
-110.7712853497
 21
23.1799438819
  0
LINE
  5
45E
100
AcDbEntity
  8
RACCORDO
100
AcDbLine
 62
7
  6
CONTINUOUS
 10
-111.0743077307
 20
4.0217719048
 11
-111.0827069844
 21
0.2466862863
  0
LINE
  5
45F
100
AcDbEntity
  8
RACCORDO
100
AcDbLine
 62
7
  6
CONTINUOUS
 10
-110.7712853497
 20
23.1799438819
 11
-110.7714348544
 21
23.134678031
  0
LINE
  5
460
100
AcDbEntity
  8
RACCORDO
100
AcDbLine
 62
250
  6
CONTINUOUS
 10
-110.7715232864
 20
-22.7181918725
 11
-110.7710184422
 21
-22.7241847908
  0
LINE
  5
461
100
AcDbEntity
  8
RACCORDO
100
AcDbLine
 62
7
  6
CONTINUOUS
 10
-110.7712827937
 20
-22.6624539485
 11
-110.7714229312
 21
-22.7051723022
  0
LINE
  5
462
100
AcDbEntity
  8
RACCORDO
100
AcDbLine
 62
7
  6
CONTINUOUS
 10
-111.0472432004
 20
7.7619479069
 11
-111.0744589559
 21
3.9883380318
  0
LWPOLYLINE
  5
463
100
AcDbEntity
  8
RACCORDO
100
AcDbPolyline
 62
250
  6
CONTINUOUS
 90
4
 70
0
 10
-110.7817052732
 20
-22.9029200203
 10
-110.7814083467
 20
-22.8724436557
 10
-110.7780224568
 20
-22.8421550157
 10
-110.7741772552
 20
-22.8243687265
  0
LINE
  5
464
100
AcDbEntity
  8
RACCORDO
100
AcDbLine
 62
7
  6
CONTINUOUS
 10
-110.7714229312
 20
-22.7051723022
 11
-110.7716484487
 21
-22.7306067851
  0
LINE
  5
465
100
AcDbEntity
  8
RACCORDO
100
AcDbLine
 62
250
  6
CONTINUOUS
 10
-110.7717966077
 20
-22.7424083822
 11
-110.7713367155
 21
-22.7548799646
  0
LINE
  5
466
100
AcDbEntity
  8
RACCORDO
100
AcDbLine
 62
7
  6
CONTINUOUS
 10
-110.7716165771
 20
23.142378574
 11
-110.7722906236
 21
23.0618554474
  0
LINE
  5
467
100
AcDbEntity
  8
RACCORDO
100
AcDbLine
 62
250
  6
CONTINUOUS
 10
-110.7713999133
 20
23.0931450534
 11
-110.7720171676
 21
23.0667458899
  0
LINE
  5
468
100
AcDbEntity
  8
RACCORDO
100
AcDbLine
 62
7
  6
CONTINUOUS
 10
-110.7716484487
 20
-22.7306067851
 11
-110.7719658962
 21
-22.7535633686
  0
LINE
  5
469
100
AcDbEntity
  8
RACCORDO
100
AcDbLine
 62
7
  6
CONTINUOUS
 10
-110.7720171676
 20
23.0667458899
 11
-110.7733795583
 21
22.9847931172
  0
LINE
  5
46A
100
AcDbEntity
  8
RACCORDO
100
AcDbLine
 62
250
  6
CONTINUOUS
 10
-110.772155632
 20
-22.7640704079
 11
-110.7718132277
 21
-22.7835455511
  0
LINE
  5
46B
100
AcDbEntity
  8
RACCORDO
100
AcDbLine
 62
250
  6
CONTINUOUS
 10
-110.7725600596
 20
23.0038217945
 11
-110.7730760012
 21
22.9903958139
  0
LINE
  5
46C
100
AcDbEntity
  8
RACCORDO
100
AcDbLine
 62
250
  6
CONTINUOUS
 10
-110.7737332633
 20
22.9642592463
 11
-110.7733955561
 21
22.9556259955
  0
LWPOLYLINE
  5
46D
100
AcDbEntity
  8
RACCORDO
100
AcDbPolyline
 62
7
  6
CONTINUOUS
 90
8
 70
0
 10
-110.8392015414
 20
20.5212208044
 10
-110.8846295064
 20
18.2536608851
 10
-110.9289930238
 20
15.9080664209
 10
-110.9713963344
 20
13.4837629243
 10
-111.0093393319
 20
10.9808558365
 10
-111.0403442896
 20
8.3998908526
 10
-111.0633158793
 20
5.7411298236
 10
-111.0775382825
 20
3.0044393062
  0
LINE
  5
46E
100
AcDbEntity
  8
RACCORDO
100
AcDbLine
 62
7
  6
CONTINUOUS
 10
-110.7730760012
 20
22.9903958139
 11
-110.7749965723
 21
22.8997479358
  0
LINE
  5
46F
100
AcDbEntity
  8
RACCORDO
100
AcDbLine
 62
7
  6
CONTINUOUS
 10
-110.7719658962
 20
-22.7535633686
 11
-110.7723650032
 21
-22.7739373226
  0
LWPOLYLINE
  5
470
100
AcDbEntity
  8
RACCORDO
100
AcDbPolyline
 62
250
  6
CONTINUOUS
 90
9
 70
0
 10
-110.7728355006
 20
-22.7917092248
 10
-110.7724487018
 20
-22.8099486139
 10
-110.7732603379
 20
-22.8333627434
 10
-110.7742592591
 20
-22.85379423
 10
-110.7754327163
 20
-22.8712367946
 10
-110.7767647861
 20
-22.8849451753
 10
-110.7782514724
 20
-22.8946709564
 10
-110.779898305
 20
-22.9006625688
 10
-110.7817052732
 20
-22.9029200203
  0
LINE
  5
471
100
AcDbEntity
  8
RACCORDO
100
AcDbLine
 62
7
  6
CONTINUOUS
 10
-110.7746583235
 20
22.9060602446
 11
-110.7771686237
 21
22.807453319
  0
LINE
  5
472
100
AcDbEntity
  8
RACCORDO
100
AcDbLine
 62
250
  6
CONTINUOUS
 10
-110.8112188555
 20
21.6630770431
 11
-110.8392015414
 21
20.5212208044
  0
LINE
  5
473
100
AcDbEntity
  8
RACCORDO
100
AcDbLine
 62
7
  6
CONTINUOUS
 10
-110.7823930298
 20
22.6313302327
 11
-110.8392180311
 21
20.5203977108
  0
LWPOLYLINE
  5
474
100
AcDbEntity
  8
RACCORDO
100
AcDbPolyline
 62
7
  6
CONTINUOUS
 90
12
 70
0
 10
-110.7723650032
 20
-22.7739373226
 10
-110.7728355006
 20
-22.7917092248
 10
-110.7730925973
 20
-22.7996242114
 10
-110.7733588418
 20
-22.8068442351
 10
-110.7736316555
 20
-22.8133978848
 10
-110.7739072735
 20
-22.8192703333
 10
-110.7741761318
 20
-22.8243499081
 10
-110.7744341291
 20
-22.8286717428
 10
-110.7746733769
 20
-22.8322197798
 10
-110.7748710031
 20
-22.8348146332
 10
-110.7750188992
 20
-22.836535541
 10
-110.7750461652
 20
-22.8368273126
  0
LWPOLYLINE
  5
475
100
AcDbEntity
  8
RACCORDO
100
AcDbPolyline
 62
7
  6
CONTINUOUS
 90
18
 70
0
 10
-111.0816207065
 20
23.4659290024
 10
-111.0823671593
 20
23.4408161218
 10
-111.0808932134
 20
23.4145429057
 10
-111.0771306449
 20
23.3885423152
 10
-111.0711194966
 20
23.3630121182
 10
-111.0629167036
 20
23.3381448767
 10
-111.0525954685
 20
23.3141265272
 10
-111.0402440698
 20
23.2911342742
 10
-111.0259661963
 20
23.2693376248
 10
-111.0098806251
 20
23.2488968199
 10
-110.992123247
 20
23.2299636985
 10
-110.9728310372
 20
23.2126654971
 10
-110.9521384262
 20
23.1971105287
 10
-110.9301790268
 20
23.1833957744
 10
-110.90714133
 20
23.1716357
 10
-110.8832584905
 20
23.1619331199
 10
-110.8587354993
 20
23.1543441895
 10
-110.8339770996
 20
23.14894623
  0
LINE
  5
476
100
AcDbEntity
  8
RACCORDO
100
AcDbLine
 62
7
  6
CONTINUOUS
 10
-110.7767946731
 20
22.8144677762
 11
-110.7799193078
 21
22.7089141982
  0
LINE
  5
477
100
AcDbEntity
  8
RACCORDO
100
AcDbLine
 62
7
  6
CONTINUOUS
 10
-110.7795038619
 20
22.716596611
 11
-110.7823930301
 21
22.631330222
  0
LINE
  5
478
100
AcDbEntity
  8
RACCORDO
100
AcDbLine
 62
250
  6
CONTINUOUS
 10
-110.7819711072
 20
22.6313818125
 11
-110.8112188555
 21
21.6630770431
  0
LINE
  5
479
100
AcDbEntity
  8
ASSI
100
AcDbLine
 62
250
  6
CONTINUOUS
 10
-106.6699319445
 20
-41.9072895791
 11
-106.6861633096
 21
-41.4772264665
  0
LINE
  5
47A
100
AcDbEntity
  8
ASSI
100
AcDbLine
 62
250
  6
CONTINUOUS
 10
-106.6984853583
 20
-41.0908862055
 11
-106.6861633096
 21
-41.4772264665
  0
LWPOLYLINE
  5
47B
100
AcDbEntity
  8
ASSI
100
AcDbPolyline
 62
250
  6
CONTINUOUS
 90
3
 70
0
 10
-106.2276904727
 20
-40.694337155
 10
-106.2156096283
 20
-41.0744140112
 10
-106.1863359227
 20
-41.8457439271
  0
LINE
  5
47C
100
AcDbEntity
  8
ASSI
100
AcDbLine
 62
250
  6
CONTINUOUS
 10
-106.6687982414
 20
-41.9463129864
 11
-106.6699319445
 21
-41.9072895791
  0
LINE
  5
47D
100
AcDbEntity
  8
ASSI
100
AcDbLine
 62
250
  6
CONTINUOUS
 10
-106.2463147645
 20
-39.9489657295
 11
-106.2276904727
 21
-40.694337155
  0
LINE
  5
47E
100
AcDbEntity
  8
ASSI
100
AcDbLine
 62
250
  6
CONTINUOUS
 10
-106.7172633184
 20
-40.3319728916
 11
-106.6984853583
 21
-41.0908862055
  0
LINE
  5
47F
100
AcDbEntity
  8
ASSI
100
AcDbLine
 62
250
  6
CONTINUOUS
 10
-106.6679523124
 20
-41.9843372894
 11
-106.6687982414
 21
-41.9463129864
  0
LINE
  5
480
100
AcDbEntity
  8
ASSI
100
AcDbLine
 62
250
  6
CONTINUOUS
 10
-106.2601377562
 20
-39.1999316768
 11
-106.2463147645
 21
-39.9489657295
  0
LINE
  5
481
100
AcDbEntity
  8
ASSI
100
AcDbLine
 62
250
  6
CONTINUOUS
 10
-106.7303674757
 20
-39.5854062121
 11
-106.7172633184
 21
-40.3319728916
  0
LINE
  5
482
100
AcDbEntity
  8
ASSI
100
AcDbLine
 62
250
  6
CONTINUOUS
 10
-106.6673729078
 20
-42.0205664133
 11
-106.6679523124
 21
-41.9843372894
  0
LINE
  5
483
100
AcDbEntity
  8
ASSI
100
AcDbLine
 62
250
  6
CONTINUOUS
 10
-106.2740447327
 20
-38.0648078778
 11
-106.2601377562
 21
-39.1999316768
  0
LINE
  5
484
100
AcDbEntity
  8
ASSI
100
AcDbLine
 62
250
  6
CONTINUOUS
 10
-106.7431760661
 20
-38.4488078541
 11
-106.7303674757
 21
-39.5854062121
  0
LINE
  5
485
100
AcDbEntity
  8
ASSI
100
AcDbLine
 62
250
  6
CONTINUOUS
 10
-106.6670358363
 20
-42.0543084705
 11
-106.6673729078
 21
-42.0205664133
  0
LINE
  5
486
100
AcDbEntity
  8
ASSI
100
AcDbLine
 62
250
  6
CONTINUOUS
 10
-106.2843475032
 20
-36.5670398611
 11
-106.2740447327
 21
-38.0648078778
  0
LINE
  5
487
100
AcDbEntity
  8
ASSI
100
AcDbLine
 62
250
  6
CONTINUOUS
 10
-106.7550158505
 20
-36.1983701161
 11
-106.7431760661
 21
-38.4488078541
  0
LINE
  5
488
100
AcDbEntity
  8
ASSI
100
AcDbLine
 62
250
  6
CONTINUOUS
 10
-106.7677674119
 20
-30.7729075506
 11
-106.7550158505
 21
-36.1983701161
  0
LINE
  5
489
100
AcDbEntity
  8
ASSI
100
AcDbLine
 62
250
  6
CONTINUOUS
 10
-106.7929459768
 20
-19.7060767308
 11
-106.7677674119
 21
-30.7729075506
  0
LINE
  5
48A
100
AcDbEntity
  8
ASSI
100
AcDbLine
 62
250
  6
CONTINUOUS
 10
-106.7955031971
 20
-5.7164785897
 11
-106.7929459768
 21
-19.7060767308
  0
LINE
  5
48B
100
AcDbEntity
  8
ASSI
100
AcDbLine
 62
250
  6
CONTINUOUS
 10
-106.6669526519
 20
42.5977324327
 11
-106.6669532942
 21
42.6267942943
  0
LINE
  5
48C
100
AcDbEntity
  8
ASSI
100
AcDbLine
 62
250
  6
CONTINUOUS
 10
-106.7779229948
 20
27.8271253677
 11
-106.7955031971
 21
-5.7164785897
  0
LINE
  5
48D
100
AcDbEntity
  8
ASSI
100
AcDbLine
 62
250
  6
CONTINUOUS
 10
-106.7441021592
 20
38.8622532635
 11
-106.7779229948
 21
27.8271253677
  0
LINE
  5
48E
100
AcDbEntity
  8
ASSI
100
AcDbLine
 62
250
  6
CONTINUOUS
 10
-106.667174616
 20
42.5653576489
 11
-106.6669526519
 21
42.5977324327
  0
LINE
  5
48F
100
AcDbEntity
  8
ASSI
100
AcDbLine
 62
250
  6
CONTINUOUS
 10
-106.2714152969
 20
38.8571630819
 11
-106.2844292648
 21
37.0771258967
  0
LINE
  5
490
100
AcDbEntity
  8
ASSI
100
AcDbLine
 62
250
  6
CONTINUOUS
 10
-106.733226191
 20
39.9074648987
 11
-106.7441021592
 21
38.8622532635
  0
LINE
  5
491
100
AcDbEntity
  8
ASSI
100
AcDbLine
 62
250
  6
CONTINUOUS
 10
-106.6676316999
 20
42.5302525516
 11
-106.667174616
 21
42.5653576489
  0
LINE
  5
492
100
AcDbEntity
  8
ASSI
100
AcDbLine
 62
250
  6
CONTINUOUS
 10
-106.2573698342
 20
39.8992997111
 11
-106.2714152969
 21
38.8571630819
  0
LINE
  5
493
100
AcDbEntity
  8
ASSI
100
AcDbLine
 62
250
  6
CONTINUOUS
 10
-106.7221150063
 20
40.6131483598
 11
-106.733226191
 21
39.9074648987
  0
LINE
  5
494
100
AcDbEntity
  8
ASSI
100
AcDbLine
 62
250
  6
CONTINUOUS
 10
-106.6683408291
 20
42.4930933152
 11
-106.6676316999
 21
42.5302525516
  0
LINE
  5
495
100
AcDbEntity
  8
ASSI
100
AcDbLine
 62
250
  6
CONTINUOUS
 10
-106.2435066331
 20
40.6021315141
 11
-106.2573698342
 21
39.8992997111
  0
LINE
  5
496
100
AcDbEntity
  8
ASSI
100
AcDbLine
 62
250
  6
CONTINUOUS
 10
-106.6693274348
 20
42.4544336772
 11
-106.6683408291
 21
42.4930933152
  0
LINE
  5
497
100
AcDbEntity
  8
ASSI
100
AcDbLine
 62
250
  6
CONTINUOUS
 10
-106.2250764731
 20
41.3112131747
 11
-106.2435066331
 21
40.6021315141
  0
LWPOLYLINE
  5
498
100
AcDbEntity
  8
ASSI
100
AcDbPolyline
 62
250
  6
CONTINUOUS
 90
4
 70
0
 10
-106.6849671104
 20
42.0388900255
 10
-106.6965862087
 20
41.6822335876
 10
-106.7064873349
 20
41.3258869037
 10
-106.7221150063
 20
40.6131483598
  0
LWPOLYLINE
  5
499
100
AcDbEntity
  8
ASSI
100
AcDbPolyline
 62
250
  6
CONTINUOUS
 90
3
 70
0
 10
-106.6849671104
 20
42.0388900255
 10
-106.6706045728
 20
42.4154932675
 10
-106.6693274348
 20
42.4544336772
  0
LWPOLYLINE
  5
49A
100
AcDbEntity
  8
ASSI
100
AcDbPolyline
 62
250
  6
CONTINUOUS
 90
3
 70
0
 10
-106.1863069713
 20
42.3733104747
 10
-106.2006621434
 20
42.0192522943
 10
-106.2250764731
 20
41.3112131747
  0
LINE
  5
49B
100
AcDbEntity
  8
RACCORDO
100
AcDbLine
 62
250
  6
CONTINUOUS
 10
-111.0822737125
 20
0.2637828947
 11
-106.7951722777
 21
0.2637828947
  0
LINE
  5
49C
100
AcDbEntity
  8
ASSI
100
AcDbLine
 62
250
  6
CONTINUOUS
 10
-106.3437627772
 20
0.2637828947
 11
-106.7951722777
 21
0.2637828947
  0
LWPOLYLINE
  5
49D
100
AcDbEntity
  8
RACCORDO
100
AcDbPolyline
 62
7
  6
CONTINUOUS
 90
10
 70
0
 10
-110.7750709799
 20
23.3646679451
 10
-110.7750780668
 20
23.3647236542
 10
-110.7750066523
 20
23.3639712495
 10
-110.7748699269
 20
23.3623686665
 10
-110.7746965659
 20
23.360103257
 10
-110.7744962716
 20
23.3571933253
 10
-110.7742735909
 20
23.3535980768
 10
-110.7740403637
 20
23.3494156848
 10
-110.7738006426
 20
23.34464674
 10
-110.7735571872
 20
23.3392707728
  0
LWPOLYLINE
  5
49E
100
AcDbEntity
  8
ASSI
100
AcDbPolyline
 62
250
  6
CONTINUOUS
 90
12
 70
0
 10
-106.6669532942
 20
42.6267942943
 10
-106.6670370423
 20
42.6400075592
 10
-106.6671765324
 20
42.6521769967
 10
-106.6673753171
 20
42.6632914383
 10
-106.6676348906
 20
42.6733623284
 10
-106.6679559213
 20
42.6822551388
 10
-106.6683450941
 20
42.6899576761
 10
-106.6688049682
 20
42.6964826119
 10
-106.6693328548
 20
42.7017328493
 10
-106.6699323989
 20
42.7056762492
 10
-106.6706122357
 20
42.7083455683
 10
-106.6713782962
 20
42.7097411049
  0
LINE
  5
49F
100
AcDbEntity
  8
ASSI
100
AcDbLine
 62
250
  6
CONTINUOUS
 10
-106.3065780189
 20
-29.7727045586
 11
-106.2966641115
 21
-33.0596550101
  0
LINE
  5
4A0
100
AcDbEntity
  8
ASSI
100
AcDbLine
 62
250
  6
CONTINUOUS
 10
-106.2966641115
 20
-33.0596550101
 11
-106.2843475032
 21
-36.5670398611
  0
LINE
  5
4A1
100
AcDbEntity
  8
ASSI
100
AcDbLine
 62
250
  6
CONTINUOUS
 10
-106.3361263046
 20
-21.9207880376
 11
-106.3065780189
 21
-29.7727045586
  0
LINE
  5
4A2
100
AcDbEntity
  8
ASSI
100
AcDbLine
 62
250
  6
CONTINUOUS
 10
-106.1863100156
 20
-42.6454704655
 11
-106.1868304333
 21
-42.5106589055
  0
LINE
  5
4A3
100
AcDbEntity
  8
ASSI
100
AcDbLine
 62
250
  6
CONTINUOUS
 10
-106.3444059299
 20
-14.7310962085
 11
-106.3361263046
 21
-21.9207880376
  0
LINE
  5
4A4
100
AcDbEntity
  8
ASSI
100
AcDbLine
 62
7
  6
CONTINUOUS
 10
-104.6302586217
 20
-42.6862171053
 11
-104.6302586217
 21
43.2137828947
  0
LINE
  5
4A5
100
AcDbEntity
  8
ASSI
100
AcDbLine
 62
250
  6
CONTINUOUS
 10
-106.1868304333
 20
-42.5106589055
 11
-106.1863025786
 21
-41.8457448003
  0
LINE
  5
4A6
100
AcDbEntity
  8
ASSI
100
AcDbLine
 62
250
  6
CONTINUOUS
 10
-106.3382654967
 20
21.4180784186
 11
-106.3444059299
 21
-14.7310962085
  0
LINE
  5
4A7
100
AcDbEntity
  8
ASSI
100
AcDbLine
 62
250
  6
CONTINUOUS
 10
-106.1863025786
 20
42.3733105897
 11
-106.1867030539
 21
43.090536457
  0
LWPOLYLINE
  5
4A8
100
AcDbEntity
  8
ASSI
100
AcDbPolyline
 62
250
  6
CONTINUOUS
 90
3
 70
0
 10
-106.3050019348
 20
30.7347394812
 10
-106.3171221603
 20
27.825040098
 10
-106.3382654967
 20
21.4180784186
  0
LINE
  5
4A9
100
AcDbEntity
  8
ASSI
100
AcDbLine
 62
250
  6
CONTINUOUS
 10
-106.2844292648
 20
37.0771258967
 11
-106.3050019348
 21
30.7347394812
  0
LINE
  5
4AA
100
AcDbEntity
  8
ASSI
100
AcDbLine
 62
250
  6
CONTINUOUS
 10
-106.1867030539
 20
43.090536457
 11
-106.1863100156
 21
43.173036255
  0
LINE
  5
4AB
100
AcDbEntity
  8
ASSI
100
AcDbLine
 62
7
  6
CONTINUOUS
 10
-102.6302586217
 20
42.1142414537
 11
-102.6302586217
 21
-41.5866756485
  0
LWPOLYLINE
  5
4AC
100
AcDbEntity
  8
0
100
AcDbPolyline
 62
7
  6
CONTINUOUS
 90
4
 70
0
 43
0.3500000006
 10
-101.1302311707
 20
52.3923522949
 10
-101.1302311707
 20
53.2494992981
 10
-100.7016531372
 20
53.6780682678
 10
-100.0587996826
 20
53.6780682678
  0
LWPOLYLINE
  5
4AD
100
AcDbEntity
  8
RACCORDO
100
AcDbPolyline
 62
250
  6
CONTINUOUS
 90
10
 70
0
 10
-110.7817052732
 20
23.4304858098
 10
-110.7800658976
 20
23.4287233545
 10
-110.778553189
 20
23.4237758826
 10
-110.7771668175
 20
23.4156433883
 10
-110.7759000143
 20
23.4042584833
 10
-110.774757864
 20
23.3896885447
 10
-110.7737584614
 20
23.3721357142
 10
-110.7729057075
 20
23.3515534197
 10
-110.772194867
 20
23.3279882231
 10
-110.7726371589
 20
23.3123628279
  0
LWPOLYLINE
  5
4AE
100
AcDbEntity
  8
ASSI
100
AcDbPolyline
 62
250
  6
CONTINUOUS
 90
14
 70
0
 10
-106.6713918088
 20
-42.1822297729
 10
-106.6706198387
 20
-42.180809835
 10
-106.6699354612
 20
-42.1781221979
 10
-106.669332794
 20
-42.1741665651
 10
-106.6688038251
 20
-42.1689122127
 10
-106.6683444949
 20
-42.1623892559
 10
-106.6679558937
 20
-42.1546887044
 10
-106.6676348681
 20
-42.1457960034
 10
-106.6673752986
 20
-42.1357252283
 10
-106.6671765216
 20
-42.124610461
 10
-106.6670370347
 20
-42.1124400461
 10
-106.6669532849
 20
-42.0992253627
 10
-106.6669248656
 20
-42.0851352038
 10
-106.6670358363
 20
-42.0543084705
  0
LWPOLYLINE
  5
4AF
100
AcDbEntity
  8
ASSI
100
AcDbPolyline
 62
250
  6
CONTINUOUS
 90
7
 70
0
 10
-106.7944729251
 20
-42.3258148628
 10
-106.7948983217
 20
-42.3264915053
 10
-106.7952345537
 20
-42.3270050773
 10
-106.795489155
 20
-42.3273621374
 10
-106.7956584031
 20
-42.3276049695
 10
-106.795760147
 20
-42.3277264748
 10
-106.7958101214
 20
-42.3277337523
  0
LINE
  5
4B0
100
AcDbEntity
  8
RACCORDO
100
AcDbLine
 62
250
  6
CONTINUOUS
 10
-110.7819711072
 20
22.6313818125
 11
-110.7822198896
 21
22.6313542926
  0
LINE
  5
4B1
100
AcDbEntity
  8
RACCORDO
100
AcDbLine
 62
7
  6
CONTINUOUS
 10
-110.8085356182
 20
23.1456085716
 11
-110.7713974391
 21
23.1423594019
  0
LWPOLYLINE
  5
4B2
100
AcDbEntity
  8
RACCORDO
100
AcDbPolyline
 62
250
  6
CONTINUOUS
 90
3
 70
0
 10
-110.8124092869
 20
23.4333106038
 10
-110.7978979482
 20
23.4319355585
 10
-110.7817052732
 20
23.4304858098
  0
LWPOLYLINE
  5
4B3
100
AcDbEntity
  8
RACCORDO
100
AcDbPolyline
 62
250
  6
CONTINUOUS
 90
3
 70
0
 10
-110.8592583593
 20
23.4380580721
 10
-110.8487343419
 20
23.436940136
 10
-110.8124092869
 20
23.4333106038
  0
LINE
  5
4B4
100
AcDbEntity
  8
RACCORDO
100
AcDbLine
 62
250
  6
CONTINUOUS
 10
-110.8893371862
 20
23.4414213524
 11
-110.8592583593
 21
23.4380580721
  0
LINE
  5
4B5
100
AcDbEntity
  8
RACCORDO
100
AcDbLine
 62
250
  6
CONTINUOUS
 10
-110.9185919437
 20
23.4449135751
 11
-110.8893371862
 21
23.4414213524
  0
LINE
  5
4B6
100
AcDbEntity
  8
RACCORDO
100
AcDbLine
 62
250
  6
CONTINUOUS
 10
-111.0805354701
 20
23.4657293689
 11
-111.0713114148
 21
23.4645851059
  0
LINE
  5
4B7
100
AcDbEntity
  8
RACCORDO
100
AcDbLine
 62
250
  6
CONTINUOUS
 10
-110.9474596606
 20
23.4485252087
 11
-110.9185919437
 21
23.4449135751
  0
LINE
  5
4B8
100
AcDbEntity
  8
RACCORDO
100
AcDbLine
 62
250
  6
CONTINUOUS
 10
-110.7823930301
 20
22.631330222
 11
-110.7822211424
 21
22.6313078992
  0
LINE
  5
4B9
100
AcDbEntity
  8
RACCORDO
100
AcDbLine
 62
250
  6
CONTINUOUS
 10
-111.0713114148
 20
23.4645851059
 11
-111.0203560298
 21
23.4580383069
  0
LINE
  5
4BA
100
AcDbEntity
  8
RACCORDO
100
AcDbLine
 62
7
  6
CONTINUOUS
 10
-110.834065394
 20
23.1489578133
 11
-110.8085359885
 21
23.145608604
  0
LINE
  5
4BB
100
AcDbEntity
  8
RACCORDO
100
AcDbLine
 62
250
  6
CONTINUOUS
 10
-111.0203560298
 20
23.4580383069
 11
-110.9474596606
 21
23.4485252087
  0
LINE
  5
4BC
100
AcDbEntity
  8
RACCORDO
100
AcDbLine
 62
250
  6
CONTINUOUS
 10
-111.0814408266
 20
23.465846227
 11
-111.0812105839
 21
23.4658123398
  0
LWPOLYLINE
  5
4BD
100
AcDbEntity
  8
ASSI
100
AcDbPolyline
 62
250
  6
CONTINUOUS
 90
6
 70
0
 10
-106.7948965224
 20
42.8540544547
 10
-106.795233121
 20
42.8545686553
 10
-106.7954880844
 20
42.854926368
 10
-106.7956577018
 20
42.8551698103
 10
-106.7957597703
 20
42.8552918991
 10
-106.7958099894
 20
42.8552997174
  0
LWPOLYLINE
  5
4BE
100
AcDbEntity
  8
ASSI
100
AcDbPolyline
 62
250
  6
CONTINUOUS
 90
3
 70
0
 10
-106.793321818
 20
42.8515307089
 10
-106.7939458771
 20
42.8525434579
 10
-106.7944707701
 20
42.8533772002
  0
LWPOLYLINE
  5
4BF
100
AcDbEntity
  8
ASSI
100
AcDbPolyline
 62
250
  6
CONTINUOUS
 90
6
 70
0
 10
-106.7883131998
 20
-42.3161177384
 10
-106.789597472
 20
-42.3180712676
 10
-106.7907327508
 20
-42.3198352767
 10
-106.7917285474
 20
-42.3213993827
 10
-106.7925895731
 20
-42.3227739677
 10
-106.7933246157
 20
-42.3239694329
  0
LWPOLYLINE
  5
4C0
100
AcDbEntity
  8
ASSI
100
AcDbPolyline
 62
250
  6
CONTINUOUS
 90
4
 70
0
 10
-106.7817056928
 20
-42.3066690546
 10
-106.7835460598
 20
-42.3091793864
 10
-106.7852695362
 20
-42.3116683542
 10
-106.7883131998
 20
-42.3161177384
  0
LWPOLYLINE
  5
4C1
100
AcDbEntity
  8
ASSI
100
AcDbPolyline
 62
250
  6
CONTINUOUS
 90
8
 70
0
 10
-106.7553187565
 20
-42.2764978495
 10
-106.7565749034
 20
-42.2781264339
 10
-106.7577423582
 20
-42.2796051301
 10
-106.7588332913
 20
-42.2809414545
 10
-106.7598633054
 20
-42.2821352383
 10
-106.7608413204
 20
-42.2832296643
 10
-106.7617885719
 20
-42.284220666
 10
-106.762724003
 20
-42.2851258554
  0
LWPOLYLINE
  5
4C2
100
AcDbEntity
  8
ASSI
100
AcDbPolyline
 62
250
  6
CONTINUOUS
 90
4
 70
0
 10
-106.7778942311
 20
42.8291791331
 10
-106.781701335
 20
42.8342293523
 10
-106.7835418123
 20
42.8367389489
 10
-106.7852655976
 20
42.8392269961
  0
LWPOLYLINE
  5
4C3
100
AcDbEntity
  8
ASSI
100
AcDbPolyline
 62
250
  6
CONTINUOUS
 90
8
 70
0
 10
-106.7524949109
 20
42.8002357599
 10
-106.7553148034
 20
42.8040576352
 10
-106.7565707801
 20
42.8056868077
 10
-106.7577382942
 20
42.8071661336
 10
-106.758829577
 20
42.8085029956
 10
-106.7598600195
 20
42.8096973076
 10
-106.7608383526
 20
42.8107922059
 10
-106.7617857314
 20
42.8117836951
  0
LWPOLYLINE
  5
4C4
100
AcDbEntity
  8
ASSI
100
AcDbPolyline
 62
250
  6
CONTINUOUS
 90
6
 70
0
 10
-106.7852655976
 20
42.8392269961
 10
-106.788309569
 20
42.8436765112
 10
-106.7895937085
 20
42.8456310674
 10
-106.7907289773
 20
42.8473959085
 10
-106.7917250074
 20
42.8489603211
 10
-106.7925863942
 20
42.8503350178
  0
LWPOLYLINE
  5
4C5
100
AcDbEntity
  8
ASSI
100
AcDbPolyline
 62
250
  6
CONTINUOUS
 90
8
 70
0
 10
-106.7375265305
 20
-42.2529818358
 10
-106.7411465892
 20
-42.2576111069
 10
-106.744182864
 20
-42.2616003911
 10
-106.7467616292
 20
-42.2649448934
 10
-106.7489588389
 20
-42.2679003177
 10
-106.7508447203
 20
-42.2704843298
 10
-106.7524984504
 20
-42.2726753807
 10
-106.7553187565
 20
-42.2764978495
  0
LWPOLYLINE
  5
4C6
100
AcDbEntity
  8
ASSI
100
AcDbPolyline
 62
250
  6
CONTINUOUS
 90
3
 70
0
 10
-106.7759925456
 20
-42.2992246457
 10
-106.7778981249
 20
-42.301618729
 10
-106.7817056928
 20
-42.3066690546
  0
LWPOLYLINE
  5
4C7
100
AcDbEntity
  8
ASSI
100
AcDbPolyline
 62
250
  6
CONTINUOUS
 90
3
 70
0
 10
-106.7723832888
 20
42.8224531965
 10
-106.7759888819
 20
42.8267852999
 10
-106.7778942311
 20
42.8291791331
  0
LWPOLYLINE
  5
4C8
100
AcDbEntity
  8
ASSI
100
AcDbPolyline
 62
250
  6
CONTINUOUS
 90
8
 70
0
 10
-106.728125216
 20
42.7690612559
 10
-106.7375207822
 20
42.7805401806
 10
-106.7411409757
 20
42.7851694755
 10
-106.7441782946
 20
42.789159735
 10
-106.7467581749
 20
42.7925060242
 10
-106.7489558125
 20
42.7954624854
 10
-106.7508414823
 20
42.7980459355
 10
-106.7524949109
 20
42.8002357599
  0
LWPOLYLINE
  5
4C9
100
AcDbEntity
  8
ASSI
100
AcDbPolyline
 62
250
  6
CONTINUOUS
 90
4
 70
0
 10
-106.7692353348
 20
-42.2914201435
 10
-106.7707456546
 20
-42.293019938
 10
-106.7723870395
 20
-42.2948902882
 10
-106.7759925456
 20
-42.2992246457
  0
LWPOLYLINE
  5
4CA
100
AcDbEntity
  8
ASSI
100
AcDbPolyline
 62
250
  6
CONTINUOUS
 90
8
 70
0
 10
-106.6713918088
 20
-42.1822297729
 10
-106.6849278634
 20
-42.1949679461
 10
-106.6965158826
 20
-42.2065550634
 10
-106.7064088456
 20
-42.2169966792
 10
-106.7148643942
 20
-42.2262331874
 10
-106.7220649374
 20
-42.2343342612
 10
-106.7281281217
 20
-42.24149905
 10
-106.7375265305
 20
-42.2529818358
  0
LWPOLYLINE
  5
4CB
100
AcDbEntity
  8
ASSI
100
AcDbPolyline
 62
250
  6
CONTINUOUS
 90
5
 70
0
 10
-106.7636548809
 20
-42.2860227352
 10
-106.7646133869
 20
-42.286909304
 10
-106.7656291432
 20
-42.2878098165
 10
-106.7667110063
 20
-42.2888441693
 10
-106.7692353348
 20
-42.2914201435
  0
LWPOLYLINE
  5
4CC
100
AcDbEntity
  8
ASSI
100
AcDbPolyline
 62
250
  6
CONTINUOUS
 90
7
 70
0
 10
-106.6713782962
 20
42.7097411049
 10
-106.6849377624
 20
42.7225152886
 10
-106.6965350617
 20
42.73412719
 10
-106.7064278814
 20
42.7445825325
 10
-106.7148759653
 20
42.7538175439
 10
-106.7220674027
 20
42.7619064052
 10
-106.728125216
 20
42.7690612559
  0
LWPOLYLINE
  5
4CD
100
AcDbEntity
  8
ASSI
100
AcDbPolyline
 62
250
  6
CONTINUOUS
 90
5
 70
0
 10
-106.7627211979
 20
42.8126893213
 10
-106.763652137
 20
42.8135863468
 10
-106.7646108493
 20
42.8144724744
 10
-106.7656268414
 20
42.8153722516
 10
-106.7667087273
 20
42.8164062182
  0
LWPOLYLINE
  5
4CE
100
AcDbEntity
  8
ASSI
100
AcDbPolyline
 62
250
  6
CONTINUOUS
 90
4
 70
0
 10
-106.7667087273
 20
42.8164062182
 10
-106.7692321163
 20
42.8189834959
 10
-106.7707419968
 20
42.8205836074
 10
-106.7723832888
 20
42.8224531965
  0
LWPOLYLINE
  5
4CF
100
AcDbEntity
  8
0
100
AcDbPolyline
 62
7
  6
CONTINUOUS
 90
10
 70
0
 43
0.3500000006
 10
-98.1302302551
 20
52.4637834778
 10
-98.0587990723
 20
52.3209256439
 10
-98.0587990723
 20
52.2494989929
 10
-98.201661438
 20
52.1066411591
 10
-98.2730835571
 20
52.1066411591
 10
-98.34451474
 20
52.1780678101
 10
-98.34451474
 20
52.2494989929
 10
-98.2730835571
 20
52.3923522949
 10
-98.201661438
 20
52.4637834778
 10
-98.1302302551
 20
52.4637834778
  0
LWPOLYLINE
  5
4D0
100
AcDbEntity
  8
ASSI
100
AcDbPolyline
 62
250
  6
CONTINUOUS
 90
19
 70
0
 10
-102.6302585524
 20
41.7170813844
 10
-102.7292432345
 20
41.7812038993
 10
-102.8295612957
 20
41.842146882
 10
-102.931064039
 20
41.8999103327
 10
-103.0334310275
 20
41.9544015572
 10
-103.1366897496
 20
42.0057132496
 10
-103.241245556
 20
42.0541234922
 10
-103.3469090204
 20
42.0996563979
 10
-103.4536481623
 20
42.1422878537
 10
-103.5621644028
 20
42.1822236034
 10
-103.6724215111
 20
42.2195506867
 10
-103.7842946126
 20
42.254182064
 10
-103.8984011509
 20
42.2860623591
 10
-104.0147889078
 20
42.3152760896
 10
-104.1332640612
 20
42.3417387381
 10
-104.2541016716
 20
42.3651413764
 10
-104.3773372757
 20
42.3853810286
 10
-104.5027574096
 20
42.4025606707
 10
-104.6302582564
 20
42.4166803028
  0
LINE
  5
4D1
100
AcDbEntity
  8
ASSI
100
AcDbLine
 62
7
  6
CONTINUOUS
 10
-106.4085570575
 20
43.1631333819
 11
-106.4586413516
 21
43.1527160043
  0
LINE
  5
4D2
100
AcDbEntity
  8
ASSI
100
AcDbLine
 62
7
  6
CONTINUOUS
 10
-106.795806
 20
42.8553085869
 11
-106.7958915228
 21
42.8552946555
  0
LINE
  5
4D3
100
AcDbEntity
  8
ASSI
100
AcDbLine
 62
7
  6
CONTINUOUS
 10
-106.3778733392
 20
43.1666923053
 11
-106.4085570575
 21
43.1631333819
  0
LWPOLYLINE
  5
4D4
100
AcDbEntity
  8
ASSI
100
AcDbPolyline
 62
250
  6
CONTINUOUS
 90
22
 70
0
 10
-106.1863127809
 20
43.1730361826
 10
-106.2212370124
 20
43.1708945857
 10
-106.2559259701
 20
43.1663109796
 10
-106.2902094373
 20
43.1593077901
 10
-106.3239192782
 20
43.1499192852
 10
-106.356889962
 20
43.1381914877
 10
-106.3889593996
 20
43.124182019
 10
-106.4199701364
 20
43.1079596747
 10
-106.4497701005
 20
43.0896040193
 10
-106.4782130647
 20
43.0692051236
 10
-106.5051594603
 20
43.0468630843
 10
-106.5304770629
 20
43.022687533
 10
-106.5540416401
 20
42.9967970983
 10
-106.5757375615
 20
42.9693188239
 10
-106.5954583665
 20
42.9403875446
 10
-106.6131072861
 20
42.9101452248
 10
-106.6285977132
 20
42.8787402733
 10
-106.6418536434
 20
42.8463267829
 10
-106.6528100406
 20
42.8130637711
 10
-106.6614131377
 20
42.7791144445
 10
-106.6676207085
 20
42.744645401
 10
-106.6714022854
 20
42.7098257785
  0
LINE
  5
4D5
100
AcDbEntity
  8
ASSI
100
AcDbLine
 62
250
  6
CONTINUOUS
 10
-106.1863069713
 20
42.3733104747
 11
-104.6302586217
 21
42.4140570348
  0
LINE
  5
4D6
100
AcDbEntity
  8
ASSI
100
AcDbLine
 62
7
  6
CONTINUOUS
 10
-104.6302586217
 20
43.2137828947
 11
-106.3446718008
 21
43.1688894057
  0
LWPOLYLINE
  5
4D7
100
AcDbEntity
  8
0
100
AcDbPolyline
 62
7
  6
CONTINUOUS
 90
8
 70
0
 43
0.3500000006
 10
-97.0587987671
 20
51.9637833252
 10
-96.2016608276
 20
51.9637833252
 10
-95.7730827942
 20
52.3923522949
 10
-95.7730827942
 20
53.2494992981
 10
-96.2016608276
 20
53.6780682678
 10
-97.0587987671
 20
53.6780682678
 10
-97.0587987671
 20
54.9637842407
 10
-95.7730827942
 20
54.9637842407
  0
LINE
  5
4D8
100
AcDbEntity
  8
ASSI
100
AcDbLine
 62
250
  6
CONTINUOUS
 10
-106.6614025544
 20
42.3946387295
 11
-106.1863025786
 21
42.3733105897
  0
LINE
  5
4D9
100
AcDbEntity
  8
ASSI
100
AcDbLine
 62
250
  6
CONTINUOUS
 10
-106.6713922131
 20
42.3951573736
 11
-106.6614025544
 21
42.3946387295
  0
LWPOLYLINE
  5
4DA
100
AcDbEntity
  8
0
100
AcDbPolyline
 62
7
  6
CONTINUOUS
 90
13
 70
0
 43
0.3500000006
 10
-100.7016531372
 20
53.6780682678
 10
-100.9873688049
 20
53.8923527527
 10
-100.9873688049
 20
54.5352107391
 10
-100.7016531372
 20
54.9637842407
 10
-100.0587996826
 20
54.9637842407
 10
-99.7730840149
 20
54.5352107391
 10
-99.7730840149
 20
53.8923527527
 10
-100.0587996826
 20
53.6780682678
 10
-99.6302307129
 20
53.2494992981
 10
-99.6302307129
 20
52.3923522949
 10
-100.0587996826
 20
51.9637833252
 10
-100.7016531372
 20
51.9637833252
 10
-101.1302311707
 20
52.3923522949
  0
ARC
  5
4DB
100
AcDbEntity
  8
RACCORDO
100
AcDbCircle
 62
7
  6
CONTINUOUS
 10
-110.7823891341
 20
-22.9169013418
 40
0.3000001289
100
AcDbArc
 50
95.0
 51
184.0890975657
  0
ARC
  5
4DC
100
AcDbEntity
  8
RACCORDO
100
AcDbCircle
 62
7
  6
CONTINUOUS
 10
-110.7823891341
 20
23.4444671313
 40
0.3000001289
100
AcDbArc
 50
175.8975826243
 51
265.0
  0
ARC
  5
4DD
100
AcDbEntity
  8
ASSI
100
AcDbCircle
 62
7
  6
CONTINUOUS
 10
-105.0602586217
 20
-38.4093967674
 40
4.0
100
AcDbArc
 50
276.1712306096
 51
307.4089531253
  0
ARC
  5
4DE
100
AcDbEntity
  8
ASSI
100
AcDbCircle
 62
7
  6
CONTINUOUS
 10
-106.3318728815
 20
-42.141487372
 40
0.4999999995
100
AcDbArc
 50
201.8707063604
 51
268.4069472714
  0
ARC
  5
4DF
100
AcDbEntity
  8
ASSI
100
AcDbCircle
 62
7
  6
CONTINUOUS
 10
-105.0602586217
 20
38.9369625568
 40
4.0
100
AcDbArc
 50
52.5910474677
 51
83.8287703664
  0
ARC
  5
4E0
100
AcDbEntity
  8
ASSI
100
AcDbCircle
 62
7
  6
CONTINUOUS
 10
-106.3318728423
 20
42.6690531624
 40
0.4999999996
100
AcDbArc
 50
104.6869139266
 51
158.1292890371
  0
ARC
  5
4E1
100
AcDbEntity
  8
ASSI
100
AcDbCircle
 62
7
  6
CONTINUOUS
 10
-106.3306849208
 20
42.6690842713
 40
0.4999999975
100
AcDbArc
 50
91.5
 51
95.9517421895
  0
ELLIPSE
  5
4E2
100
AcDbEntity
  8
RACCORDO
100
AcDbEllipse
 62
7
  6
CONTINUOUS
 10
-14.6208243925
 20
-21.9343071865
 30
0.0
 11
-0.3562493039
 21
0.3562493039
 31
0.0
 40
0.9924325091
 41
2.3599925885
 42
3.9231927187
  0
ELLIPSE
  5
4E3
100
AcDbEntity
  8
RACCORDO
100
AcDbEllipse
 62
7
  6
CONTINUOUS
 10
-59.0170045549
 20
-21.9343071865
 30
0.0
 11
0.3562493039
 21
0.3562493039
 31
0.0
 40
0.9924325091
 41
2.3599925885
 42
3.9231927187
  0
ELLIPSE
  5
4E4
100
AcDbEntity
  8
RACCORDO
100
AcDbEllipse
 62
7
  6
CONTINUOUS
 10
-59.0170045549
 20
22.461872976
 30
0.0
 11
0.3562493039
 21
-0.3562493039
 31
0.0
 40
0.9924325091
 41
2.3599925885
 42
3.9231927187
  0
ELLIPSE
  5
4E5
100
AcDbEntity
  8
RACCORDO
100
AcDbEllipse
 62
7
  6
CONTINUOUS
 10
-14.6208243925
 20
22.461872976
 30
0.0
 11
-0.3562493039
 21
-0.3562493039
 31
0.0
 40
0.9924325091
 41
2.3599925885
 42
3.9231927187
  0
ELLIPSE
  5
4E6
100
AcDbEntity
  8
RACCORDO
100
AcDbEllipse
 62
7
  6
CONTINUOUS
 10
11.9829954451
 20
-21.9343071865
 30
0.0
 11
0.3562493039
 21
0.3562493039
 31
0.0
 40
0.9924325091
 41
2.3599925885
 42
3.9231927187
  0
ELLIPSE
  5
4E7
100
AcDbEntity
  8
RACCORDO
100
AcDbEllipse
 62
7
  6
CONTINUOUS
 10
56.3791756075
 20
-21.9343071865
 30
0.0
 11
-0.3562493039
 21
0.3562493039
 31
0.0
 40
0.9924325091
 41
2.3599925885
 42
3.9231927187
  0
ELLIPSE
  5
4E8
100
AcDbEntity
  8
RACCORDO
100
AcDbEllipse
 62
7
  6
CONTINUOUS
 10
56.3791756075
 20
22.461872976
 30
0.0
 11
-0.3562493039
 21
-0.3562493039
 31
0.0
 40
0.9924325091
 41
2.3599925885
 42
3.9231927187
  0
ELLIPSE
  5
4E9
100
AcDbEntity
  8
RACCORDO
100
AcDbEllipse
 62
7
  6
CONTINUOUS
 10
11.9829954451
 20
22.461872976
 30
0.0
 11
0.3562493039
 21
-0.3562493039
 31
0.0
 40
0.9924325091
 41
2.3599925885
 42
3.9231927187
  0
ELLIPSE
  5
4EA
100
AcDbEntity
  8
ASSI
100
AcDbEllipse
 62
7
  6
CONTINUOUS
 10
76.3308112923
 20
42.4135086607
 30
0.0
 11
0.566073184
 21
0.566073184
 31
0.0
 40
0.999315002
 41
-0.7850555471
 42
0.7850555471
  0
ELLIPSE
  5
4EB
100
AcDbEntity
  8
ASSI
100
AcDbEllipse
 62
7
  6
CONTINUOUS
 10
76.3308112923
 20
-41.8859428713
 30
0.0
 11
0.566073184
 21
-0.566073184
 31
0.0
 40
0.999315002
 41
-0.7850555471
 42
0.7850555471
  0
ELLIPSE
  5
4EC
100
AcDbEntity
  8
ASSI
100
AcDbEllipse
 62
7
  6
CONTINUOUS
 10
-78.9686402397
 20
-41.8859428713
 30
0.0
 11
0.566073184
 21
0.566073184
 31
0.0
 40
0.999315002
 41
-3.9266482006
 42
-2.3565371065
  0
ELLIPSE
  5
4ED
100
AcDbEntity
  8
ASSI
100
AcDbEllipse
 62
7
  6
CONTINUOUS
 10
-78.9686402397
 20
42.4135086607
 30
0.0
 11
0.566073184
 21
-0.566073184
 31
0.0
 40
0.999315002
 41
2.3565371065
 42
3.9266482006
  0
ENDSEC
  0
SECTION
  2
OBJECTS
  0
DICTIONARY
  5
C
100
AcDbDictionary
280
0
281
1
  3
ACAD_GROUP
350
D
  3
ACAD_MLINESTYLE
350
17
  3
ACAD_LAYOUT
350
1A
  3
ACAD_PLOTSETTINGS
350
19
  3
ACAD_PLOTSTYLENAME
350
E
  0
DICTIONARY
  5
D
102
{ACAD_REACTORS
330
C
102
}
100
AcDbDictionary
280
0
281
1
  0
ACDBDICTIONARYWDFLT
  5
E
102
{ACAD_REACTORS
330
C
102
}
100
AcDbDictionary
281
1
  3
Normal
350
F
100
AcDbDictionaryWithDefault
340
F
  0
DICTIONARY
  5
17
102
{ACAD_REACTORS
330
C
102
}
100
AcDbDictionary
280
0
281
1
  3
Standard
350
18
  0
DICTIONARY
  5
19
102
{ACAD_REACTORS
330
C
102
}
100
AcDbDictionary
281
1
  0
DICTIONARY
  5
1A
102
{ACAD_REACTORS
330
C
102
}
100
AcDbDictionary
281
1
  3
Model
350
4EE
  3
Layout1
350
4EF
  0
ACDBPLACEHOLDER
  5
F
102
{ACAD_REACTORS
330
E
102
}
  0
MLINESTYLE
  5
18
102
{ACAD_REACTORS
330
17
102
}
100
AcDbMlineStyle
  2
STANDARD
 70
0
  3

 62
256
 51
90.0
 52
90.0
 71
2
 49
0.5
 62
256
  6
BYLAYER
 49
-0.5
 62
256
  6
BYLAYER
  0
LAYOUT
  5
4EE
102
{ACAD_REACTORS
330
1A
102
}
100
AcDbPlotSettings
  1

  2
none_device
  4
ISO_A4_(297.00_x_210.00_MM)
  6

 40
0.0
 41
0.0
 42
0.0
 43
0.0
 44
297.0
 45
210.0
 46
0.0
 47
0.0
 48
0.0
 49
0.0
140
0.0
141
0.0
142
1.0
143
1.0
 70
1024
 72
1
 73
0
 74
0
  7

 75
0
147
1.0
148
0.0
149
0.0
100
AcDbLayout
  1
Model
 70
0
 71
0
 10
0.0
 20
0.0
 11
297.0
 21
210.0
 12
0.0
 22
0.0
 32
0.0
 14
0.0
 24
0.0
 34
0.0
 15
0.0
 25
0.0
 35
0.0
146
0.0
 13
0.0
 23
0.0
 33
0.0
 16
1.0
 26
0.0
 36
0.0
 17
0.0
 27
1.0
 37
0.0
 76
0
330
214
345
0
346
0
  0
LAYOUT
  5
4EF
102
{ACAD_REACTORS
330
1A
102
}
100
AcDbPlotSettings
  1

  2
none_device
  4
ISO_A4_(297.00_x_210.00_MM)
  6

 40
0.0
 41
0.0
 42
0.0
 43
0.0
 44
297.0
 45
210.0
 46
0.0
 47
0.0
 48
0.0
 49
0.0
140
0.0
141
0.0
142
1.0
143
1.0
 70
0
 72
1
 73
0
 74
0
  7

 75
0
147
1.0
148
0.0
149
0.0
100
AcDbLayout
  1
Layout1
 70
0
 71
1
 10
0.0
 20
0.0
 11
297.0
 21
210.0
 12
0.0
 22
0.0
 32
0.0
 14
0.0
 24
0.0
 34
0.0
 15
0.0
 25
0.0
 35
0.0
146
0.0
 13
0.0
 23
0.0
 33
0.0
 16
1.0
 26
0.0
 36
0.0
 17
0.0
 27
1.0
 37
0.0
 76
0
330
215
345
0
346
0
  0
ENDSEC
  0
EOF
