  0
SECTION
  2
HEADER
  9
$ACADVER
  1
AC1024
  9
$DWGCODEPAGE
  3
ANSI_1252
  9
$EXTMAX
 10
297.0
 20
210.0
 30
0.0
  9
$EXTMIN
 10
0.0
 20
0.0
 30
0.0
  9
$LIMMIN
 10
0.0
 20
0.0
  9
$LIMMAX
 10
297.0
 20
210.0
  9
$VIEWCTR
 10
148.5
 20
105.0
  9
$VIEWSIZE
 40
210.0
  9
$CLAYER
  8
0
  9
$LTSCALE
 40
16.335
  9
$CELTYPE
  6
BYLAYER
  9
$DIMSCALE
 40
1.0
  9
$DIMASZ
 40
3.0
  9
$DIMEXO
 40
0.5
  9
$DIMDLI
 40
11.286
  9
$DIMEXE
 40
1.5
  9
$DIMCEN
 40
2.673
  9
$DIMLFAC
 40
1.0
  9
$DIMBLK
  1
_FILLED
  9
$DIMALT
 70
0
  9
$DIMALTF
 40
0.0393700787
  9
$DIMTXT
 40
3.0
  9
$DIMTOL
 70
1
  9
$DIMLIM
 70
0
  9
$DIMTFAC
 40
1.0
  9
$DIMTP
 40
0.01
  9
$DIMTM
 40
0.01
  9
$DIMGAP
 40
0.625
  9
$DIMDSEP
 70
44
  9
$AUNITS
 70
0
  9
$PDMODE
 70
3
  9
$PDSIZE
 40
3.0
  9
$HANDSEED
  5
5FD
  9
$TILEMODE
 70
1
  9
$MEASUREMENT
 70
1
  9
$INSUNITS
 70
4
  0
ENDSEC
  0
SECTION
  2
CLASSES
  0
CLASS
  1
ACDBDICTIONARYWDFLT
  2
AcDbDictionaryWithDefault
  3
AutoCAD 2000
 90
0
 91
1
280
0
281
0
  0
CLASS
  1
ACDBPLACEHOLDER
  2
AcDbPlaceHolder
  3
AutoCAD 2000
 90
0
 91
1
280
0
281
0
  0
CLASS
  1
LAYOUT
  2
AcDbLayout
  3
AutoCAD 2000
 90
0
 91
0
280
0
281
0
  0
ENDSEC
  0
SECTION
  2
TABLES
  0
TABLE
  2
VPORT
  5
8
100
AcDbSymbolTable
 70
2
  0
VPORT
  5
1F4
100
AcDbSymbolTableRecord
100
AcDbViewportTableRecord
  2
*ACTIVE
 70
0
 10
0.0
 20
0.0
 11
1.0
 21
1.0
 12
148.5
 22
105.0
 13
0.0
 23
0.0
 14
1.0
 24
1.0
 15
0.0
 25
0.0
 16
0.0
 26
0.0
 36
1.0
 17
0.0
 27
0.0
 37
0.0
 40
210.0
 41
1.4142857143
 42
50.0
 43
0.0
 44
0.0
 50
0.0
 51
0.0
 71
0
 72
100
 73
1
 74
1
 75
0
 76
0
 77
0
 78
0
  0
ENDTAB
  0
TABLE
  2
LTYPE
  5
5
100
AcDbSymbolTable
 70
6
  0
LTYPE
  5
14
100
AcDbSymbolTableRecord
100
AcDbLinetypeTableRecord
  2
BYBLOCK
 70
0
  3

 72
65
 73
0
 40
0.0
  0
LTYPE
  5
15
100
AcDbSymbolTableRecord
100
AcDbLinetypeTableRecord
  2
BYLAYER
 70
0
  3

 72
65
 73
0
 40
0.0
  0
LTYPE
  5
16
100
AcDbSymbolTableRecord
100
AcDbLinetypeTableRecord
  2
CONTINUOUS
 70
64
  3
Solid line
 72
65
 73
0
 40
0.0
  0
LTYPE
  5
1F5
100
AcDbSymbolTableRecord
100
AcDbLinetypeTableRecord
  2
CENTER
 70
64
  3
____ _ ____ _ ____ _ ____ _ ____ _ ____ _ ____
 72
65
 73
4
 40
0.6
 49
0.375
 74
0
 49
-0.075
 74
0
 49
0.075
 74
0
 49
-0.075
 74
0
  0
LTYPE
  5
1F6
100
AcDbSymbolTableRecord
100
AcDbLinetypeTableRecord
  2
HIDDEN
 70
64
  3
- - - - - - - - - - - - - - - - - - - -
 72
65
 73
2
 40
0.2
 49
0.1
 74
0
 49
-0.1
 74
0
  0
LTYPE
  5
1F7
100
AcDbSymbolTableRecord
100
AcDbLinetypeTableRecord
  2
PHANTOM
 70
64
  3
_____ _ _ _____ _ _ _____ _ _ _____
 72
65
 73
6
 40
0.8
 49
0.45
 74
0
 49
-0.05
 74
0
 49
0.1
 74
0
 49
-0.05
 74
0
 49
0.1
 74
0
 49
-0.05
 74
0
  0
LTYPE
  5
1F8
100
AcDbSymbolTableRecord
100
AcDbLinetypeTableRecord
  2
DOT
 70
64
  3
. . . . . . . . . . . . . . . . . . . .
 72
65
 73
2
 40
0.2
 49
0.1
 74
0
 49
-0.1
 74
0
  0
LTYPE
  5
1F9
100
AcDbSymbolTableRecord
100
AcDbLinetypeTableRecord
  2
DASHED
 70
64
  3
- - - - - - - - - - - - - - - - - - - -
 72
65
 73
2
 40
0.2
 49
0.1
 74
0
 49
-0.1
 74
0
  0
ENDTAB
  0
TABLE
  2
LAYER
  5
2
100
AcDbSymbolTable
 70
36
  0
LAYER
  5
10
100
AcDbSymbolTableRecord
100
AcDbLayerTableRecord
  2
0
 70
0
 62
7
  6
CONTINUOUS
370
-3
390
F
  0
LAYER
  5
1FA
100
AcDbSymbolTableRecord
100
AcDbLayerTableRecord
  2
DEFAULT_1
 70
0
 62
7
  6
CENTER
370
-3
390
F
  0
LAYER
  5
1FB
100
AcDbSymbolTableRecord
100
AcDbLayerTableRecord
  2
DEFAULT_2
 70
0
 62
7
  6
HIDDEN
370
-3
390
F
  0
LAYER
  5
1FC
100
AcDbSymbolTableRecord
100
AcDbLayerTableRecord
  2
DEFAULT_3
 70
0
 62
7
  6
PHANTOM
370
-3
390
F
  0
LAYER
  5
1FD
100
AcDbSymbolTableRecord
100
AcDbLayerTableRecord
  2
ASSI
 70
0
 62
7
  6
CONTINUOUS
370
-3
390
F
  0
LAYER
  5
1FE
100
AcDbSymbolTableRecord
100
AcDbLayerTableRecord
  2
COORDINATE
 70
0
 62
7
  6
CONTINUOUS
370
-3
390
F
  0
LAYER
  5
1FF
100
AcDbSymbolTableRecord
100
AcDbLayerTableRecord
  2
COPY_PUBLISH
 70
0
 62
7
  6
CONTINUOUS
370
-3
390
F
  0
LAYER
  5
200
100
AcDbSymbolTableRecord
100
AcDbLayerTableRecord
  2
COSMETICI
 70
0
 62
7
  6
CONTINUOUS
370
-3
390
F
  0
LAYER
  5
201
100
AcDbSymbolTableRecord
100
AcDbLayerTableRecord
  2
CURVE
 70
0
 62
7
  6
CONTINUOUS
370
-3
390
F
  0
LAYER
  5
202
100
AcDbSymbolTableRecord
100
AcDbLayerTableRecord
  2
DRAFT
 70
0
 62
7
  6
CONTINUOUS
370
-3
390
F
  0
LAYER
  5
203
100
AcDbSymbolTableRecord
100
AcDbLayerTableRecord
  2
IMPORT_IGES
 70
0
 62
7
  6
CONTINUOUS
370
-3
390
F
  0
LAYER
  5
204
100
AcDbSymbolTableRecord
100
AcDbLayerTableRecord
  2
INTF_1
 70
0
 62
7
  6
CONTINUOUS
370
-3
390
F
  0
LAYER
  5
205
100
AcDbSymbolTableRecord
100
AcDbLayerTableRecord
  2
INTF_11
 70
0
 62
7
  6
CONTINUOUS
370
-3
390
F
  0
LAYER
  5
206
100
AcDbSymbolTableRecord
100
AcDbLayerTableRecord
  2
INTF_8
 70
0
 62
7
  6
CONTINUOUS
370
-3
390
F
  0
LAYER
  5
207
100
AcDbSymbolTableRecord
100
AcDbLayerTableRecord
  2
NONE
 70
0
 62
7
  6
CONTINUOUS
370
-3
390
F
  0
LAYER
  5
208
100
AcDbSymbolTableRecord
100
AcDbLayerTableRecord
  2
NOTE
 70
0
 62
7
  6
CONTINUOUS
370
-3
390
F
  0
LAYER
  5
209
100
AcDbSymbolTableRecord
100
AcDbLayerTableRecord
  2
PIANI
 70
0
 62
7
  6
CONTINUOUS
370
-3
390
F
  0
LAYER
  5
20A
100
AcDbSymbolTableRecord
100
AcDbLayerTableRecord
  2
PUNTI
 70
0
 62
7
  6
CONTINUOUS
370
-3
390
F
  0
LAYER
  5
20B
100
AcDbSymbolTableRecord
100
AcDbLayerTableRecord
  2
RACCORDO
 70
0
 62
7
  6
CONTINUOUS
370
-3
390
F
  0
LAYER
  5
20C
100
AcDbSymbolTableRecord
100
AcDbLayerTableRecord
  2
RGB____0____0____0__
 70
0
 62
7
  6
CONTINUOUS
370
-3
390
F
  0
LAYER
  5
20D
100
AcDbSymbolTableRecord
100
AcDbLayerTableRecord
  2
SIMBOLI
 70
0
 62
7
  6
CONTINUOUS
370
-3
390
F
  0
LAYER
  5
20E
100
AcDbSymbolTableRecord
100
AcDbLayerTableRecord
  2
SMUSSO
 70
0
 62
7
  6
CONTINUOUS
370
-3
390
F
  0
LAYER
  5
20F
100
AcDbSymbolTableRecord
100
AcDbLayerTableRecord
  2
SNAPLINE
 70
0
 62
7
  6
CONTINUOUS
370
-3
390
F
  0
LAYER
  5
210
100
AcDbSymbolTableRecord
100
AcDbLayerTableRecord
  2
SUPERFICI
 70
0
 62
7
  6
CONTINUOUS
370
-3
390
F
  0
LAYER
  5
211
100
AcDbSymbolTableRecord
100
AcDbLayerTableRecord
  2
TRASH
 70
0
 62
7
  6
CONTINUOUS
370
-3
390
F
  0
ENDTAB
  0
TABLE
  2
STYLE
  5
3
100
AcDbSymbolTable
 70
1
  0
STYLE
  5
11
100
AcDbSymbolTableRecord
100
AcDbTextStyleTableRecord
  2
STANDARD
 70
0
 40
0.0
 41
0.8
 50
0.0
 71
0
 42
0.2
  3
txt
  4

  0
STYLE
  5
212
100
AcDbSymbolTableRecord
100
AcDbTextStyleTableRecord
  2
TEXTSTYLE_1
 70
0
 40
0.0
 41
0.8
 50
0.0
 71
0
 42
0.2
  3
gdt
  4

  0
ENDTAB
  0
TABLE
  2
VIEW
  5
6
100
AcDbSymbolTable
 70
0
  0
ENDTAB
  0
TABLE
  2
UCS
  5
7
100
AcDbSymbolTable
 70
0
  0
ENDTAB
  0
TABLE
  2
APPID
  5
9
100
AcDbSymbolTable
 70
1
  0
APPID
  5
213
100
AcDbSymbolTableRecord
100
AcDbRegAppTableRecord
  2
ACAD
 70
0
  0
ENDTAB
  0
TABLE
  2
BLOCK_RECORD
  5
1
100
AcDbSymbolTable
 70
0
  0
BLOCK_RECORD
  5
214
100
AcDbSymbolTableRecord
100
AcDbBlockTableRecord
  2
*Model_Space
  0
BLOCK_RECORD
  5
215
100
AcDbSymbolTableRecord
100
AcDbBlockTableRecord
  2
*Paper_Space
  0
BLOCK_RECORD
  5
216
100
AcDbSymbolTableRecord
100
AcDbBlockTableRecord
  2
_FILLED
  0
BLOCK_RECORD
  5
217
100
AcDbSymbolTableRecord
100
AcDbBlockTableRecord
  2
*D0
  0
BLOCK_RECORD
  5
218
100
AcDbSymbolTableRecord
100
AcDbBlockTableRecord
  2
*D1
  0
BLOCK_RECORD
  5
219
100
AcDbSymbolTableRecord
100
AcDbBlockTableRecord
  2
*D2
  0
ENDTAB
  0
TABLE
  2
DIMSTYLE
  5
A
100
AcDbSymbolTable
 70
1
100
AcDbDimStyleTable
 71
0
  0
DIMSTYLE
105
21A
100
AcDbSymbolTableRecord
100
AcDbDimStyleTableRecord
  2
STANDARD
 70
0
  3

  4

 40
1.0
 41
3.0
 42
0.5
 43
0.38
 44
1.5
 45
0.0
 46
0.0
 47
0.01
 48
0.01
140
3.0
141
0.09
142
0.0
143
25.4
144
1.0
145
0.0
146
1.0
147
0.625
 71
1
 72
0
 73
0
 74
0
 75
0
 76
0
 77
1
 78
8
 79
2
170
0
171
1
172
0
173
0
174
0
175
0
176
0
177
0
178
0
270
2
179
2
271
2
272
2
273
2
274
2
275
0
280
0
281
0
282
0
283
1
284
8
285
0
286
0
287
3
288
0
340
11
278
44
341
216
342
216
343
216
344
216
  0
DIMSTYLE
105
21B
100
AcDbSymbolTableRecord
100
AcDbDimStyleTableRecord
  2
DIMSTYLE_1
 70
0
  3

  4

 40
1.0
 41
3.0
 42
0.5
 43
0.38
 44
1.5
 45
0.0
 46
0.0
 47
0.0
 48
0.0
140
3.0
141
0.09
142
0.0
143
25.4
144
1.0
145
0.0
146
1.0
147
0.75
 71
0
 72
0
 73
0
 74
0
 75
0
 76
0
 77
1
 78
8
 79
2
170
0
171
1
172
0
173
0
174
0
175
0
176
0
177
0
178
0
270
2
179
2
271
0
272
0
273
2
274
2
275
0
280
0
281
0
282
0
283
1
284
8
285
0
286
0
287
3
288
0
340
11
278
44
341
216
342
216
343
216
344
216
  0
DIMSTYLE
105
21C
100
AcDbSymbolTableRecord
100
AcDbDimStyleTableRecord
  2
DIMSTYLE_2
 70
0
  3

  4

 40
1.0
 41
3.0
 42
0.5
 43
0.38
 44
1.5
 45
0.0
 46
0.0
 47
0.0
 48
0.0
140
3.0
141
0.09
142
0.0
143
25.4
144
1.0
145
0.0
146
1.0
147
0.75
 71
0
 72
0
 73
0
 74
0
 75
0
 76
0
 77
1
 78
8
 79
2
170
0
171
1
172
0
173
0
174
0
175
0
176
0
177
0
178
0
270
2
179
2
271
1
272
1
273
2
274
2
275
0
280
0
281
0
282
0
283
1
284
8
285
0
286
0
287
3
288
0
340
11
278
44
341
216
342
216
343
216
344
216
  0
ENDTAB
  0
ENDSEC
  0
SECTION
  2
BLOCKS
  0
BLOCK
  5
20
100
AcDbEntity
  8
0
100
AcDbBlockBegin
  2
*Model_Space
 70
0
 10
0.0
 20
0.0
 30
0.0
  3
*Model_Space
  1

  0
ENDBLK
  5
21
100
AcDbEntity
  8
0
100
AcDbBlockEnd
  0
BLOCK
  5
1C
100
AcDbEntity
  8
0
100
AcDbBlockBegin
  2
*Paper_Space
 70
0
 10
0.0
 20
0.0
 30
0.0
  3
*Paper_Space
  1

  0
ENDBLK
  5
1D
100
AcDbEntity
  8
0
100
AcDbBlockEnd
  0
BLOCK
  5
21D
100
AcDbEntity
  8
0
100
AcDbBlockBegin
  2
_FILLED
 70
64
 10
0.0
 20
0.0
  3
_FILLED
  1

  0
SOLID
  5
21E
100
AcDbEntity
  8
0
  6
BYBLOCK
 62
0
100
AcDbTrace
 10
0.0
 20
0.0
 11
-1.0
 21
0.3166666667
 12
-1.0
 22
-0.3166666667
 13
-1.0
 23
-0.3166666667
  0
ENDBLK
  5
21F
100
AcDbEntity
  8
0
  6
BYBLOCK
 62
0
100
AcDbBlockEnd
  0
BLOCK
  5
220
100
AcDbEntity
  8
0
100
AcDbBlockBegin
 62
7
  6
CONTINUOUS
  2
*D0
 70
65
 10
0.0
 20
0.0
  3
*D0
  1

  0
LINE
  5
221
100
AcDbEntity
  8
0
100
AcDbLine
 62
7
  6
CONTINUOUS
 10
-113.95
 20
42.65027414
 11
-113.95
 21
52.45
  0
LINE
  5
222
100
AcDbEntity
  8
0
100
AcDbLine
 62
7
  6
CONTINUOUS
 10
113.95
 20
42.65027414
 11
113.95
 21
52.45
  0
LINE
  5
223
100
AcDbEntity
  8
0
100
AcDbLine
 62
7
  6
CONTINUOUS
 10
-113.95
 20
50.95
 11
0.0
 21
50.95
  0
LINE
  5
224
100
AcDbEntity
  8
0
100
AcDbLine
 62
7
  6
CONTINUOUS
 10
113.95
 20
50.95
 11
0.0
 21
50.95
  0
INSERT
  5
225
100
AcDbEntity
  8
0
100
AcDbBlockReference
 62
7
  6
CONTINUOUS
  2
_FILLED
 10
-113.95
 20
50.95
 41
3.0
 42
3.0
 43
3.0
 50
180.0
  0
INSERT
  5
226
100
AcDbEntity
  8
0
100
AcDbBlockReference
 62
7
  6
CONTINUOUS
  2
_FILLED
 10
113.95
 20
50.95
 41
3.0
 42
3.0
 43
3.0
 50
360.0
  0
ENDBLK
  5
227
100
AcDbEntity
  8
0
  6
BYBLOCK
 62
0
100
AcDbBlockEnd
  0
BLOCK
  5
228
100
AcDbEntity
  8
0
100
AcDbBlockBegin
 62
7
  6
CONTINUOUS
  2
*D1
 70
65
 10
0.0
 20
0.0
  3
*D1
  1

  0
LINE
  5
229
100
AcDbEntity
  8
0
100
AcDbLine
 62
7
  6
CONTINUOUS
 10
113.65027414
 20
-42.95
 11
123.45
 21
-42.95
  0
LINE
  5
22A
100
AcDbEntity
  8
0
100
AcDbLine
 62
7
  6
CONTINUOUS
 10
113.65027414
 20
42.95
 11
123.45
 21
42.95
  0
LINE
  5
22B
100
AcDbEntity
  8
0
100
AcDbLine
 62
7
  6
CONTINUOUS
 10
121.95
 20
-42.95
 11
121.95
 21
0.0
  0
LINE
  5
22C
100
AcDbEntity
  8
0
100
AcDbLine
 62
7
  6
CONTINUOUS
 10
121.95
 20
42.95
 11
121.95
 21
0.0
  0
INSERT
  5
22D
100
AcDbEntity
  8
0
100
AcDbBlockReference
 62
7
  6
CONTINUOUS
  2
_FILLED
 10
121.95
 20
-42.95
 41
3.0
 42
3.0
 43
3.0
 50
270.0
  0
INSERT
  5
22E
100
AcDbEntity
  8
0
100
AcDbBlockReference
 62
7
  6
CONTINUOUS
  2
_FILLED
 10
121.95
 20
42.95
 41
3.0
 42
3.0
 43
3.0
 50
90.0
  0
ENDBLK
  5
22F
100
AcDbEntity
  8
0
  6
BYBLOCK
 62
0
100
AcDbBlockEnd
  0
BLOCK
  5
230
100
AcDbEntity
  8
0
100
AcDbBlockBegin
 62
7
  6
CONTINUOUS
  2
*D2
 70
65
 10
0.0
 20
0.0
  3
*D2
  1

  0
LINE
  5
231
100
AcDbEntity
  8
0
100
AcDbLine
 62
7
  6
CONTINUOUS
 10
-148.7365129587
 20
41.953298605
 11
-148.7365129704
 21
52.4499999983
  0
LINE
  5
232
100
AcDbEntity
  8
0
100
AcDbLine
 62
7
  6
CONTINUOUS
 10
-157.1876950498
 20
23.7020633323
 11
-157.1876950817
 21
52.4499999889
  0
LINE
  5
233
100
AcDbEntity
  8
0
100
AcDbLine
 62
7
  6
CONTINUOUS
 10
-148.7365129687
 20
50.9499999983
 11
-152.9621040244
 21
50.9499999936
  0
LINE
  5
234
100
AcDbEntity
  8
0
100
AcDbLine
 62
7
  6
CONTINUOUS
 10
-152.9621040244
 20
50.9499999936
 11
-141.0221975556
 21
50.95
  0
LINE
  5
235
100
AcDbEntity
  8
0
100
AcDbLine
 62
7
  6
CONTINUOUS
 10
-157.18769508
 20
50.9499999889
 11
-152.9621040244
 21
50.9499999936
  0
INSERT
  5
236
100
AcDbEntity
  8
0
100
AcDbBlockReference
 62
7
  6
CONTINUOUS
  2
_FILLED
 10
-148.7365129687
 20
50.9499999983
 41
3.0
 42
3.0
 43
3.0
 50
0.0000000636
  0
INSERT
  5
237
100
AcDbEntity
  8
0
100
AcDbBlockReference
 62
7
  6
CONTINUOUS
  2
_FILLED
 10
-157.18769508
 20
50.9499999889
 41
3.0
 42
3.0
 43
3.0
 50
180.0000000636
  0
ENDBLK
  5
238
100
AcDbEntity
  8
0
  6
BYBLOCK
 62
0
100
AcDbBlockEnd
  0
ENDSEC
  0
SECTION
  2
ENTITIES
  0
DIMENSION
  5
239
100
AcDbEntity
  8
0
100
AcDbDimension
 62
7
  6
CONTINUOUS
  2
*D0
 10
113.95
 20
50.95
 11
-3.5357142857
 21
50.95
 70
160
 71
2
 72
2
 41
0.9
 42
227.9
  3
DIMSTYLE_1
100
AcDbAlignedDimension
 13
-113.95
 23
42.15027414
 14
113.95
 24
42.15027414
100
AcDbRotatedDimension
  0
DIMENSION
  5
23A
100
AcDbEntity
  8
0
100
AcDbDimension
 62
7
  6
CONTINUOUS
  2
*D1
 10
121.95
 20
42.95
 11
121.95
 21
-2.3571428571
 70
160
 71
2
 72
2
 41
0.9
 42
85.9
  3
DIMSTYLE_1
100
AcDbAlignedDimension
 13
113.15027414
 23
-42.95
 14
113.15027414
 24
42.95
 50
90.0
100
AcDbRotatedDimension
  0
DIMENSION
  5
23B
100
AcDbEntity
  8
0
100
AcDbDimension
 62
7
  6
CONTINUOUS
  2
*D2
 10
-157.18769508
 20
50.9499999889
 11
-147.2364832691
 21
50.95
 70
160
 71
1
 72
2
 41
0.9
 42
8.4511821113
  3
DIMSTYLE_2
100
AcDbAlignedDimension
 13
-148.7365129581
 23
41.453298605
 14
-157.1876950492
 24
23.2020633323
 50
180.0000000636
100
AcDbRotatedDimension
  0
LWPOLYLINE
  5
23C
100
AcDbEntity
  8
ASSI
100
AcDbPolyline
 62
250
  6
CONTINUOUS
 90
25
 70
0
 10
-113.4460457529
 20
-42.1313947575
 10
-113.4446139445
 20
-42.1513441395
 10
-113.4419175162
 20
-42.1710956217
 10
-113.4379561727
 20
-42.1906489462
 10
-113.4327002182
 20
-42.2100865743
 10
-113.4261787444
 20
-42.229325513
 10
-113.4184796825
 20
-42.2481173717
 10
-113.4095874539
 20
-42.2664554833
 10
-113.3995171574
 20
-42.2843461103
 10
-113.3884028642
 20
-42.3015603854
 10
-113.3762329171
 20
-42.3180882917
 10
-113.3630186973
 20
-42.33393964
 10
-113.3489289937
 20
-42.3489154644
 10
-113.3339538272
 20
-42.3630057567
 10
-113.3181031439
 20
-42.3762205587
 10
-113.3015757913
 20
-42.38839115
 10
-113.2843619428
 20
-42.3995061908
 10
-113.2664716317
 20
-42.409577297
 10
-113.2481336572
 20
-42.4184703421
 10
-113.2293485283
 20
-42.4261693074
 10
-113.2101161419
 20
-42.4326906921
 10
-113.1906645046
 20
-42.437949267
 10
-113.1710698119
 20
-42.4419168391
 10
-113.1512563953
 20
-42.4446222017
 10
-113.1312245115
 20
-42.4460656497
  0
LINE
  5
23D
100
AcDbEntity
  8
ASSI
100
AcDbLine
 62
250
  6
CONTINUOUS
 10
-113.4460457529
 20
-42.1313947575
 11
-113.4680342355
 21
-41.5005239022
  0
LWPOLYLINE
  5
23E
100
AcDbEntity
  8
ASSI
100
AcDbPolyline
 62
250
  6
CONTINUOUS
 90
25
 70
0
 10
-113.909253555
 20
-42.109527695
 10
-113.9075413917
 20
-42.1618435476
 10
-113.9024115056
 20
-42.2139367333
 10
-113.8938851662
 20
-42.2655843966
 10
-113.8819974362
 20
-42.3165680261
 10
-113.8667989111
 20
-42.366666682
 10
-113.8483571879
 20
-42.4156584406
 10
-113.8267522208
 20
-42.4633335015
 10
-113.8020770752
 20
-42.5094886269
 10
-113.7744418495
 20
-42.553921324
 10
-113.7439700165
 20
-42.5964381626
 10
-113.710790687
 20
-42.6368634847
 10
-113.6750399451
 20
-42.6750332553
 10
-113.6368707088
 20
-42.7107843214
 10
-113.5964459808
 20
-42.7439639602
 10
-113.5539295018
 20
-42.7744363045
 10
-113.5094968361
 20
-42.8020722339
 10
-113.4633414449
 20
-42.8267481836
 10
-113.4156656629
 20
-42.8483540602
 10
-113.3666724021
 20
-42.8667968188
 10
-113.3165717416
 20
-42.8819962777
 10
-113.2655864024
 20
-42.8938845937
 10
-113.2139376318
 20
-42.9024112049
 10
-113.1618437071
 20
-42.9075411918
 10
-113.1095275003
 20
-42.9092533602
  0
LINE
  5
23F
100
AcDbEntity
  8
ASSI
100
AcDbLine
 62
250
  6
CONTINUOUS
 10
-113.4680342355
 20
-41.5005239022
 11
-113.4872357611
 21
-40.8203864261
  0
LINE
  5
240
100
AcDbEntity
  8
ASSI
100
AcDbLine
 62
250
  6
CONTINUOUS
 10
-113.1268853787
 20
-42.7055349031
 11
-113.1285966721
 21
-42.6463614312
  0
LINE
  5
241
100
AcDbEntity
  8
ASSI
100
AcDbLine
 62
250
  6
CONTINUOUS
 10
-113.4872357611
 20
-40.8203864261
 11
-113.5035848169
 21
-40.0873578688
  0
LINE
  5
242
100
AcDbEntity
  8
ASSI
100
AcDbLine
 62
250
  6
CONTINUOUS
 10
-113.1285966721
 20
-42.6463614312
 11
-113.1299341407
 21
-42.5825431544
  0
LINE
  5
243
100
AcDbEntity
  8
ASSI
100
AcDbLine
 62
250
  6
CONTINUOUS
 10
-113.5035848169
 20
-40.0873578688
 11
-113.5168464839
 21
-39.2872532651
  0
LINE
  5
244
100
AcDbEntity
  8
ASSI
100
AcDbLine
 62
250
  6
CONTINUOUS
 10
-113.1299341407
 20
-42.5825431544
 11
-113.1308715656
 21
-42.5153311393
  0
LINE
  5
245
100
AcDbEntity
  8
ASSI
100
AcDbLine
 62
250
  6
CONTINUOUS
 10
-113.5168464839
 20
-39.2872532651
 11
-113.5270616047
 21
-38.4172900784
  0
LINE
  5
246
100
AcDbEntity
  8
ASSI
100
AcDbLine
 62
250
  6
CONTINUOUS
 10
-113.5270616047
 20
-38.4172900784
 11
-113.5344285685
 21
-37.4857643947
  0
LINE
  5
247
100
AcDbEntity
  8
ASSI
100
AcDbLine
 62
250
  6
CONTINUOUS
 10
-113.1308715656
 20
-42.5153311393
 11
-113.13139057
 21
-42.4460429832
  0
LINE
  5
248
100
AcDbEntity
  8
ASSI
100
AcDbLine
 62
250
  6
CONTINUOUS
 10
-113.5344285685
 20
-37.4857643947
 11
-113.54165671
 21
-36.0374917871
  0
LINE
  5
249
100
AcDbEntity
  8
ASSI
100
AcDbLine
 62
250
  6
CONTINUOUS
 10
-113.54165671
 20
-36.0374917871
 11
-113.5482244829
 21
-33.7072661752
  0
LINE
  5
24A
100
AcDbEntity
  8
ASSI
100
AcDbLine
 62
250
  6
CONTINUOUS
 10
-113.5779094639
 20
-24.1803563968
 11
-113.5846560921
 21
-21.4555196795
  0
LWPOLYLINE
  5
24B
100
AcDbEntity
  8
ASSI
100
AcDbPolyline
 62
250
  6
CONTINUOUS
 90
3
 70
0
 10
-113.5482244829
 20
-33.7072661752
 10
-113.5500094665
 20
-32.8006877135
 10
-113.5779094639
 20
-24.1803563968
  0
LINE
  5
24C
100
AcDbEntity
  8
ASSI
100
AcDbLine
 62
250
  6
CONTINUOUS
 10
-113.5846560921
 20
-21.4555196795
 11
-113.5893739926
 21
-18.03461004
  0
LINE
  5
24D
100
AcDbEntity
  8
ASSI
100
AcDbLine
 62
7
  6
CONTINUOUS
 10
-113.95
 20
42.15027414
 11
-113.95
 21
-42.15027414
  0
LINE
  5
24E
100
AcDbEntity
  8
ASSI
100
AcDbLine
 62
250
  6
CONTINUOUS
 10
-113.9065741356
 20
35.9199559112
 11
-113.9092532374
 21
42.1095273774
  0
LINE
  5
24F
100
AcDbEntity
  8
ASSI
100
AcDbLine
 62
250
  6
CONTINUOUS
 10
-113.5893739926
 20
-18.03461004
 11
-113.5914809618
 21
-13.2238116681
  0
LINE
  5
250
100
AcDbEntity
  8
ASSI
100
AcDbLine
 62
250
  6
CONTINUOUS
 10
-113.5914809618
 20
-13.2238116681
 11
-113.5913321986
 21
14.2764698271
  0
LWPOLYLINE
  5
251
100
AcDbEntity
  8
ASSI
100
AcDbPolyline
 62
250
  6
CONTINUOUS
 90
3
 70
0
 10
-113.9092536245
 20
-42.1095277645
 10
-113.9089180624
 20
-41.8027294541
 10
-113.9065741356
 20
35.9199559112
  0
LINE
  5
252
100
AcDbEntity
  8
ASSI
100
AcDbLine
 62
250
  6
CONTINUOUS
 10
-113.5913321986
 20
14.2764698271
 11
-113.5868267854
 21
20.1839017261
  0
LINE
  5
253
100
AcDbEntity
  8
ASSI
100
AcDbLine
 62
250
  6
CONTINUOUS
 10
-113.5868267854
 20
20.1839017261
 11
-113.5801247478
 21
23.4170915246
  0
LINE
  5
254
100
AcDbEntity
  8
ASSI
100
AcDbLine
 62
250
  6
CONTINUOUS
 10
-113.5801247478
 20
23.4170915246
 11
-113.5441555843
 21
35.33440557
  0
LWPOLYLINE
  5
255
100
AcDbEntity
  8
ASSI
100
AcDbPolyline
 62
250
  6
CONTINUOUS
 90
10
 70
0
 10
-113.5441555843
 20
35.33440557
 10
-113.5364512746
 20
37.1522832912
 10
-113.5325614086
 20
37.7953307535
 10
-113.5268802245
 20
38.4392975122
 10
-113.5193173049
 20
39.0845386075
 10
-113.5099498737
 20
39.7306053878
 10
-113.4980146331
 20
40.3601221283
 10
-113.4832586029
 20
40.9672731352
 10
-113.4659279469
 20
41.5577876664
 10
-113.4460154175
 20
42.1316170392
  0
LINE
  5
256
100
AcDbEntity
  8
ASSI
100
AcDbLine
 62
250
  6
CONTINUOUS
 10
-113.1313916309
 20
42.4460422268
 11
-113.1308725849
 21
42.5153342087
  0
LINE
  5
257
100
AcDbEntity
  8
ASSI
100
AcDbLine
 62
250
  6
CONTINUOUS
 10
-113.1308725849
 20
42.5153342087
 11
-113.1299350923
 21
42.5825486145
  0
LINE
  5
258
100
AcDbEntity
  8
ASSI
100
AcDbLine
 62
250
  6
CONTINUOUS
 10
-113.1299350923
 20
42.5825486145
 11
-113.1285975459
 21
42.6463680867
  0
LWPOLYLINE
  5
259
100
AcDbEntity
  8
ASSI
100
AcDbPolyline
 62
250
  6
CONTINUOUS
 90
15
 70
0
 10
-113.1285975459
 20
42.6463680867
 10
-113.126886153
 20
42.7055425348
 10
-113.1259004813
 20
42.7330210841
 10
-113.1248344687
 20
42.7589116825
 10
-113.1236933457
 20
42.7830872785
 10
-113.1224827138
 20
42.8054292364
 10
-113.1212085127
 20
42.8258279189
 10
-113.119876994
 20
42.8441832241
 10
-113.1184946944
 20
42.8604050773
 10
-113.1170683599
 20
42.8744141903
 10
-113.1156050226
 20
42.8861413875
 10
-113.1141119774
 20
42.8955285122
 10
-113.1125965935
 20
42.9025298832
 10
-113.1110662702
 20
42.9071119441
 10
-113.1095285149
 20
42.9092527564
  0
LWPOLYLINE
  5
25A
100
AcDbEntity
  8
ASSI
100
AcDbPolyline
 62
250
  6
CONTINUOUS
 90
14
 70
0
 10
-113.1095275003
 20
-42.9092533602
 10
-113.1110656594
 20
-42.907111653
 10
-113.1125962707
 20
-42.9025278286
 10
-113.1141118237
 20
-42.8955243802
 10
-113.1156048815
 20
-42.8861356738
 10
-113.1170681179
 20
-42.8744077798
 10
-113.1184943529
 20
-42.8603982474
 10
-113.1198765879
 20
-42.8441758212
 10
-113.1212080406
 20
-42.8258201043
 10
-113.1224821775
 20
-42.8054211674
 10
-113.1236927466
 20
-42.7830791073
 10
-113.1248338078
 20
-42.7589035555
 10
-113.125899762
 20
-42.7330131398
 10
-113.1268853787
 20
-42.7055349031
  0
LWPOLYLINE
  5
25B
100
AcDbEntity
  8
ASSI
100
AcDbPolyline
 62
250
  6
CONTINUOUS
 90
14
 70
0
 10
-113.909253555
 20
42.109527695
 10
-113.9071118729
 20
42.111064698
 10
-113.9025281115
 20
42.112594159
 10
-113.8955247631
 20
42.1141085732
 10
-113.8861361926
 20
42.1156005096
 10
-113.8744084687
 20
42.1170626476
 10
-113.8603991379
 20
42.1184878125
 10
-113.8441769425
 20
42.1198690113
 10
-113.8258214826
 20
42.1211994668
 10
-113.805422826
 20
42.1224726505
 10
-113.7830810663
 20
42.1236823151
 10
-113.7589058313
 20
42.124822525
 10
-113.7330157455
 20
42.1258876854
 10
-113.7055378479
 20
42.1268725697
  0
LWPOLYLINE
  5
25C
100
AcDbEntity
  8
RACCORDO
100
AcDbPolyline
 62
250
  6
CONTINUOUS
 90
11
 70
0
 10
-93.364972497
 20
22.9760742632
 10
-93.3643837336
 20
22.9563060573
 10
-93.3637453234
 20
22.9379581636
 10
-93.3630618432
 20
22.9211621237
 10
-93.3623381934
 20
22.9060383538
 10
-93.3615795619
 20
22.8926952802
 10
-93.3607913879
 20
22.8812285626
 10
-93.3599793219
 20
22.8717204085
 10
-93.3591491858
 20
22.8642389835
 10
-93.3583069314
 20
22.8588379227
 10
-93.3574585972
 20
22.8555559462
  0
LINE
  5
25D
100
AcDbEntity
  8
RACCORDO
100
AcDbLine
 62
250
  6
CONTINUOUS
 10
-93.365984585
 20
23.0192955456
 11
-93.364972497
 21
22.9760742632
  0
LINE
  5
25E
100
AcDbEntity
  8
RACCORDO
100
AcDbLine
 62
250
  6
CONTINUOUS
 10
-93.366752615
 20
23.0663847581
 11
-93.365984585
 21
23.0192955456
  0
LINE
  5
25F
100
AcDbEntity
  8
RACCORDO
100
AcDbLine
 62
250
  6
CONTINUOUS
 10
-93.3672546008
 20
23.1159939198
 11
-93.366752615
 21
23.0663847581
  0
LINE
  5
260
100
AcDbEntity
  8
RACCORDO
100
AcDbLine
 62
250
  6
CONTINUOUS
 10
-93.3674761729
 20
23.1667029151
 11
-93.3672546008
 21
23.1159939198
  0
LINE
  5
261
100
AcDbEntity
  8
RACCORDO
100
AcDbLine
 62
250
  6
CONTINUOUS
 10
-94.1666263563
 20
-22.3675989178
 11
-94.1946510739
 21
-9.5695917548
  0
LINE
  5
262
100
AcDbEntity
  8
RACCORDO
100
AcDbLine
 62
250
  6
CONTINUOUS
 10
-94.1946510739
 20
-9.5695917548
 11
-94.2000671392
 21
-5.0272147901
  0
LINE
  5
263
100
AcDbEntity
  8
RACCORDO
100
AcDbLine
 62
250
  6
CONTINUOUS
 10
-93.8555791399
 20
-22.3574817908
 11
-93.8781330066
 21
-8.15037459
  0
LINE
  5
264
100
AcDbEntity
  8
RACCORDO
100
AcDbLine
 62
250
  6
CONTINUOUS
 10
-93.8781330066
 20
-8.15037459
 11
-93.881431891
 21
-2.6414414108
  0
LINE
  5
265
100
AcDbEntity
  8
RACCORDO
100
AcDbLine
 62
250
  6
CONTINUOUS
 10
-94.2000671392
 20
-5.0272147901
 11
-94.2020094262
 21
-0.68490272
  0
LINE
  5
266
100
AcDbEntity
  8
RACCORDO
100
AcDbLine
 62
7
  6
CONTINUOUS
 10
-93.7
 20
22.201902651
 11
-93.7
 21
-22.201902651
  0
LINE
  5
267
100
AcDbEntity
  8
RACCORDO
100
AcDbLine
 62
250
  6
CONTINUOUS
 10
-93.881431891
 20
-2.6414414108
 11
-93.8810660537
 21
3.6842280594
  0
LINE
  5
268
100
AcDbEntity
  8
RACCORDO
100
AcDbLine
 62
250
  6
CONTINUOUS
 10
-94.2020094262
 20
-0.68490272
 11
-94.2002635928
 21
4.776645162
  0
LINE
  5
269
100
AcDbEntity
  8
RACCORDO
100
AcDbLine
 62
250
  6
CONTINUOUS
 10
-93.8810660537
 20
3.6842280594
 11
-93.8766936337
 21
9.605491477
  0
LINE
  5
26A
100
AcDbEntity
  8
RACCORDO
100
AcDbLine
 62
250
  6
CONTINUOUS
 10
-94.2002635928
 20
4.776645162
 11
-94.1945875849
 21
9.6091779549
  0
LINE
  5
26B
100
AcDbEntity
  8
RACCORDO
100
AcDbLine
 62
250
  6
CONTINUOUS
 10
-93.8766936337
 20
9.605491477
 11
-93.8614409963
 21
19.7745492215
  0
LINE
  5
26C
100
AcDbEntity
  8
RACCORDO
100
AcDbLine
 62
250
  6
CONTINUOUS
 10
-94.1945875849
 20
9.6091779549
 11
-94.1666263563
 21
22.3675989178
  0
LINE
  5
26D
100
AcDbEntity
  8
RACCORDO
100
AcDbLine
 62
250
  6
CONTINUOUS
 10
-93.8614409963
 20
19.7745492215
 11
-93.8555791399
 21
22.3574817908
  0
LINE
  5
26E
100
AcDbEntity
  8
RACCORDO
100
AcDbLine
 62
250
  6
CONTINUOUS
 10
-93.367476173
 20
-23.1667029151
 11
-93.3672546354
 21
-23.1159936691
  0
LINE
  5
26F
100
AcDbEntity
  8
RACCORDO
100
AcDbLine
 62
250
  6
CONTINUOUS
 10
-93.3672546354
 20
-23.1159936691
 11
-93.3667526741
 21
-23.0663843552
  0
LINE
  5
270
100
AcDbEntity
  8
RACCORDO
100
AcDbLine
 62
250
  6
CONTINUOUS
 10
-93.3667526741
 20
-23.0663843552
 11
-93.3659846596
 21
-23.0192950907
  0
LWPOLYLINE
  5
271
100
AcDbEntity
  8
RACCORDO
100
AcDbPolyline
 62
250
  6
CONTINUOUS
 90
12
 70
0
 10
-93.3659846596
 20
-23.0192950907
 10
-93.3649725787
 20
-22.9760738398
 10
-93.3643838158
 20
-22.956305672
 10
-93.363745404
 20
-22.937957827
 10
-93.3630619205
 20
-22.9211618432
 10
-93.3623382654
 20
-22.9060381307
 10
-93.3615796272
 20
-22.8926951218
 10
-93.3607914447
 20
-22.8812284624
 10
-93.3599793666
 20
-22.8717203383
 10
-93.3591492142
 20
-22.8642389213
 10
-93.3583069399
 20
-22.8588378663
 10
-93.357458582
 20
-22.8555559059
  0
LWPOLYLINE
  5
272
100
AcDbEntity
  8
RACCORDO
100
AcDbPolyline
 62
250
  6
CONTINUOUS
 90
25
 70
0
 10
-93.8555790998
 20
22.3574817507
 10
-93.8545347733
 20
22.3897744084
 10
-93.8514011186
 20
22.421997795
 10
-93.8461762848
 20
22.4540169503
 10
-93.8388579805
 20
22.4857345782
 10
-93.8294666515
 20
22.5169744003
 10
-93.8180697932
 20
22.5474890302
 10
-93.80473391
 20
22.5771276457
 10
-93.789513742
 20
22.6057944155
 10
-93.772498931
 20
22.6333405535
 10
-93.7538003107
 20
22.6596215205
 10
-93.7334844631
 20
22.6845761041
 10
-93.7115752435
 20
22.7081810151
 10
-93.6881781649
 20
22.7303181474
 10
-93.6633700499
 20
22.75091021
 10
-93.637105144
 20
22.7699653253
 10
-93.6093867404
 20
22.7874199088
 10
-93.5803890718
 20
22.8031059261
 10
-93.5503258175
 20
22.8168753448
 10
-93.5192740701
 20
22.8286665575
 10
-93.4874075953
 20
22.8383899359
 10
-93.4551195448
 20
22.8459363414
 10
-93.4226451464
 20
22.8512942307
 10
-93.3900443352
 20
22.8544945287
 10
-93.3574585539
 20
22.8555559029
  0
LWPOLYLINE
  5
273
100
AcDbEntity
  8
RACCORDO
100
AcDbPolyline
 62
250
  6
CONTINUOUS
 90
25
 70
0
 10
-94.1666263563
 20
22.3675989178
 10
-94.1647849438
 20
22.4196127002
 10
-94.1596200069
 20
22.4710933669
 10
-94.1511315393
 20
22.5220409114
 10
-94.1392452191
 20
22.5727256094
 10
-94.1240353563
 20
22.6228771734
 10
-94.1057248927
 20
22.6716847523
 10
-94.084262281
 20
22.7190794219
 10
-94.0596990577
 20
22.7651300957
 10
-94.0324127905
 20
22.8092326792
 10
-94.0024217887
 20
22.8513074425
 10
-93.969707737
 20
22.8914341095
 10
-93.934593268
 20
22.9292477697
 10
-93.8971121467
 20
22.9647348833
 10
-93.8572306079
 20
22.9979089898
 10
-93.8151699904
 20
23.0284457987
 10
-93.7707734159
 20
23.0564143161
 10
-93.7241977684
 20
23.0817455417
 10
-93.6761350326
 20
23.1039081777
 10
-93.626461721
 20
23.1228206258
 10
-93.5753013323
 20
23.1385644955
 10
-93.5237163312
 20
23.1508533022
 10
-93.4720608764
 20
23.1595915551
 10
-93.4199808215
 20
23.1648747572
 10
-93.3674761729
 20
23.1667029151
  0
LINE
  5
274
100
AcDbEntity
  8
ASSI
100
AcDbLine
 62
250
  6
CONTINUOUS
 10
-71.0
 20
42.9051300365
 11
-71.0
 21
42.5903642453
  0
LINE
  5
275
100
AcDbEntity
  8
RACCORDO
100
AcDbLine
 62
250
  6
CONTINUOUS
 10
-71.0
 20
42.5903668806
 11
-71.0
 21
22.8818256987
  0
LINE
  5
276
100
AcDbEntity
  8
ASSI
100
AcDbLine
 62
250
  6
CONTINUOUS
 10
-71.0
 20
-42.9051300365
 11
-71.0
 21
-42.5903371467
  0
LINE
  5
277
100
AcDbEntity
  8
RACCORDO
100
AcDbLine
 62
250
  6
CONTINUOUS
 10
-71.0
 20
-42.5903668806
 11
-71.0
 21
-22.8818256987
  0
LWPOLYLINE
  5
278
100
AcDbEntity
  8
RACCORDO
100
AcDbPolyline
 62
250
  6
CONTINUOUS
 90
11
 70
0
 10
-48.6379942682
 20
-22.9727554485
 10
-48.6385841246
 20
-22.9530423716
 10
-48.6392235014
 20
-22.9347468765
 10
-48.6399078302
 20
-22.9179996868
 10
-48.6406322213
 20
-22.9029204633
 10
-48.641391499
 20
-22.889616949
 10
-48.642180238
 20
-22.8781841992
 10
-48.6429928027
 20
-22.8687039026
 10
-48.6438233873
 20
-22.861243797
 10
-48.6446660572
 20
-22.855857186
 10
-48.6455147912
 20
-22.8525825578
  0
LINE
  5
279
100
AcDbEntity
  8
RACCORDO
100
AcDbLine
 62
250
  6
CONTINUOUS
 10
-48.636979591
 20
-23.0158618158
 11
-48.6379942682
 21
-22.9727554485
  0
LINE
  5
27A
100
AcDbEntity
  8
RACCORDO
100
AcDbLine
 62
250
  6
CONTINUOUS
 10
-48.6362084179
 20
-23.0628361781
 11
-48.636979591
 21
-23.0158618158
  0
LINE
  5
27B
100
AcDbEntity
  8
RACCORDO
100
AcDbLine
 62
250
  6
CONTINUOUS
 10
-48.6357027501
 20
-23.1123383838
 11
-48.6362084179
 21
-23.0628361781
  0
LINE
  5
27C
100
AcDbEntity
  8
RACCORDO
100
AcDbLine
 62
250
  6
CONTINUOUS
 10
-48.6354770138
 20
-23.1629561633
 11
-48.6357027501
 21
-23.1123383838
  0
LINE
  5
27D
100
AcDbEntity
  8
RACCORDO
100
AcDbLine
 62
250
  6
CONTINUOUS
 10
-47.837427949
 20
22.3649778288
 11
-47.8155712998
 21
14.5378760904
  0
LINE
  5
27E
100
AcDbEntity
  8
RACCORDO
100
AcDbLine
 62
250
  6
CONTINUOUS
 10
-48.1473167138
 20
22.3545859371
 11
-48.1368281175
 21
18.1057152311
  0
LINE
  5
27F
100
AcDbEntity
  8
RACCORDO
100
AcDbLine
 62
250
  6
CONTINUOUS
 10
-47.8155712998
 20
14.5378760904
 11
-47.8044220827
 21
8.9137511042
  0
LINE
  5
280
100
AcDbEntity
  8
RACCORDO
100
AcDbLine
 62
250
  6
CONTINUOUS
 10
-48.1368281175
 20
18.1057152311
 11
-48.1256276041
 21
11.4626902295
  0
LINE
  5
281
100
AcDbEntity
  8
RACCORDO
100
AcDbLine
 62
250
  6
CONTINUOUS
 10
-48.1256276041
 20
11.4626902295
 11
-48.119972828
 21
5.8229381306
  0
LINE
  5
282
100
AcDbEntity
  8
RACCORDO
100
AcDbLine
 62
250
  6
CONTINUOUS
 10
-47.8044220827
 20
8.9137511042
 11
-47.7992998765
 21
4.2206397059
  0
LINE
  5
283
100
AcDbEntity
  8
RACCORDO
100
AcDbLine
 62
7
  6
CONTINUOUS
 10
-48.3
 20
-22.201902651
 11
-48.3
 21
22.201902651
  0
LINE
  5
284
100
AcDbEntity
  8
RACCORDO
100
AcDbLine
 62
250
  6
CONTINUOUS
 10
-47.7992998765
 20
4.2206397059
 11
-47.7994093101
 21
-4.375630073
  0
LINE
  5
285
100
AcDbEntity
  8
RACCORDO
100
AcDbLine
 62
250
  6
CONTINUOUS
 10
-48.119972828
 20
5.8229381306
 11
-48.1207964347
 21
-6.9531582559
  0
LINE
  5
286
100
AcDbEntity
  8
RACCORDO
100
AcDbLine
 62
250
  6
CONTINUOUS
 10
-48.1207964347
 20
-6.9531582559
 11
-48.1271898304
 21
-12.5800604016
  0
LINE
  5
287
100
AcDbEntity
  8
RACCORDO
100
AcDbLine
 62
250
  6
CONTINUOUS
 10
-47.7994093101
 20
-4.375630073
 11
-47.8045527942
 21
-9.0001259571
  0
LINE
  5
288
100
AcDbEntity
  8
RACCORDO
100
AcDbLine
 62
250
  6
CONTINUOUS
 10
-48.1271898304
 20
-12.5800604016
 11
-48.1370792547
 21
-18.231809832
  0
LINE
  5
289
100
AcDbEntity
  8
RACCORDO
100
AcDbLine
 62
250
  6
CONTINUOUS
 10
-47.8045527942
 20
-9.0001259571
 11
-47.8133870747
 21
-13.6077609784
  0
LINE
  5
28A
100
AcDbEntity
  8
RACCORDO
100
AcDbLine
 62
250
  6
CONTINUOUS
 10
-48.1370792547
 20
-18.231809832
 11
-48.1473167138
 21
-22.3545859371
  0
LINE
  5
28B
100
AcDbEntity
  8
RACCORDO
100
AcDbLine
 62
250
  6
CONTINUOUS
 10
-47.8133870747
 20
-13.6077609784
 11
-47.8299521021
 21
-19.9031190259
  0
LINE
  5
28C
100
AcDbEntity
  8
RACCORDO
100
AcDbLine
 62
250
  6
CONTINUOUS
 10
-47.8299521021
 20
-19.9031190259
 11
-47.837427949
 21
-22.3649778288
  0
LINE
  5
28D
100
AcDbEntity
  8
RACCORDO
100
AcDbLine
 62
250
  6
CONTINUOUS
 10
-48.6354770137
 20
23.1629561633
 11
-48.6357027359
 21
23.1123380677
  0
LINE
  5
28E
100
AcDbEntity
  8
RACCORDO
100
AcDbLine
 62
250
  6
CONTINUOUS
 10
-48.6357027359
 20
23.1123380677
 11
-48.6362083959
 21
23.0628356566
  0
LINE
  5
28F
100
AcDbEntity
  8
RACCORDO
100
AcDbLine
 62
250
  6
CONTINUOUS
 10
-48.6362083959
 20
23.0628356566
 11
-48.6369795655
 21
23.0158612071
  0
LWPOLYLINE
  5
290
100
AcDbEntity
  8
RACCORDO
100
AcDbPolyline
 62
250
  6
CONTINUOUS
 90
12
 70
0
 10
-48.6369795655
 20
23.0158612071
 10
-48.6379942425
 20
22.9727548605
 10
-48.6385840998
 20
22.953041826
 10
-48.6392234779
 20
22.9347463899
 10
-48.6399078083
 20
22.9179992717
 10
-48.6406322014
 20
22.9029201252
 10
-48.6413914809
 20
22.889616698
 10
-48.6421802219
 20
22.8781840301
 10
-48.6429927907
 20
22.8687037867
 10
-48.6438233821
 20
22.86124371
 10
-48.6446660609
 20
22.855857121
 10
-48.6455148063
 20
22.8525825179
  0
LINE
  5
291
100
AcDbEntity
  8
ASSI
100
AcDbLine
 62
250
  6
CONTINUOUS
 10
-113.9092536245
 20
-42.1095277645
 11
-113.95
 21
-42.15027414
  0
LINE
  5
292
100
AcDbEntity
  8
RACCORDO
100
AcDbLine
 62
250
  6
CONTINUOUS
 10
-93.8555791399
 20
-22.3574817908
 11
-93.7
 21
-22.201902651
  0
LINE
  5
293
100
AcDbEntity
  8
RACCORDO
100
AcDbLine
 62
250
  6
CONTINUOUS
 10
-48.6455147912
 20
22.8525825578
 11
-48.798097349
 21
22.7
  0
LINE
  5
294
100
AcDbEntity
  8
RACCORDO
100
AcDbLine
 62
250
  6
CONTINUOUS
 10
-93.3574585972
 20
-22.8555559462
 11
-93.201902651
 21
-22.7
  0
LINE
  5
295
100
AcDbEntity
  8
RACCORDO
100
AcDbLine
 62
250
  6
CONTINUOUS
 10
-48.1473167138
 20
22.3545859371
 11
-48.3
 21
22.201902651
  0
LINE
  5
296
100
AcDbEntity
  8
ASSI
100
AcDbLine
 62
250
  6
CONTINUOUS
 10
-113.1095266638
 20
-42.9092525238
 11
-113.15027414
 21
-42.95
  0
LWPOLYLINE
  5
297
100
AcDbEntity
  8
ASSI
100
AcDbPolyline
 62
250
  6
CONTINUOUS
 90
25
 70
0
 10
113.1356942262
 20
-42.44545553
 10
113.1537394911
 20
-42.4442831915
 10
113.1720630137
 20
-42.4417812078
 10
113.1906645046
 20
-42.437949267
 10
113.2097851042
 20
-42.432735926
 10
113.2291830182
 20
-42.4261919316
 10
113.2481336572
 20
-42.4184703421
 10
113.2664716317
 20
-42.409577297
 10
113.2843619428
 20
-42.3995061908
 10
113.3015757913
 20
-42.38839115
 10
113.3181031439
 20
-42.3762205587
 10
113.3339538272
 20
-42.3630057567
 10
113.3489289937
 20
-42.3489154644
 10
113.3630186973
 20
-42.33393964
 10
113.3762329171
 20
-42.3180882917
 10
113.3884028642
 20
-42.3015603854
 10
113.3995171574
 20
-42.2843461104
 10
113.4095874539
 20
-42.2664554833
 10
113.4184796825
 20
-42.2481173717
 10
113.4261797555
 20
-42.229318115
 10
113.4327022397
 20
-42.2100717775
 10
113.4379561727
 20
-42.1906489462
 10
113.4419114548
 20
-42.1711400162
 10
113.4445987942
 20
-42.15145513
 10
113.4460184871
 20
-42.131594547
  0
LINE
  5
298
100
AcDbEntity
  8
ASSI
100
AcDbLine
 62
250
  6
CONTINUOUS
 10
-113.95
 20
42.15027414
 11
-113.9092532374
 21
42.1095273774
  0
LINE
  5
299
100
AcDbEntity
  8
RACCORDO
100
AcDbLine
 62
250
  6
CONTINUOUS
 10
-93.8555791399
 20
22.3574817908
 11
-93.7
 21
22.201902651
  0
LINE
  5
29A
100
AcDbEntity
  8
RACCORDO
100
AcDbLine
 62
250
  6
CONTINUOUS
 10
-48.6455147912
 20
-22.8525825578
 11
-48.798097349
 21
-22.7
  0
LINE
  5
29B
100
AcDbEntity
  8
RACCORDO
100
AcDbLine
 62
250
  6
CONTINUOUS
 10
-93.3574585972
 20
22.8555559462
 11
-93.201902651
 21
22.7
  0
LINE
  5
29C
100
AcDbEntity
  8
RACCORDO
100
AcDbLine
 62
250
  6
CONTINUOUS
 10
-48.1473167138
 20
-22.3545859371
 11
-48.3
 21
-22.201902651
  0
LINE
  5
29D
100
AcDbEntity
  8
ASSI
100
AcDbLine
 62
250
  6
CONTINUOUS
 10
-113.15027414
 20
42.95
 11
-113.1095289671
 21
42.909254827
  0
LWPOLYLINE
  5
29E
100
AcDbEntity
  8
ASSI
100
AcDbPolyline
 62
250
  6
CONTINUOUS
 90
4
 70
0
 10
-45.5018575871
 20
42.9056389906
 10
-45.5016963984
 20
42.9029850883
 10
-45.5015362893
 20
42.8971370431
 10
-45.5013782865
 20
42.8881324829
  0
LINE
  5
29F
100
AcDbEntity
  8
ASSI
100
AcDbLine
 62
250
  6
CONTINUOUS
 10
-45.5013782865
 20
42.8881324829
 11
-45.5010726324
 21
42.860905344
  0
LINE
  5
2A0
100
AcDbEntity
  8
ASSI
100
AcDbLine
 62
250
  6
CONTINUOUS
 10
-45.5010726324
 20
42.860905344
 11
-45.5004131249
 21
42.7440141879
  0
LINE
  5
2A1
100
AcDbEntity
  8
ASSI
100
AcDbLine
 62
250
  6
CONTINUOUS
 10
-45.4999979464
 20
-42.5732689689
 11
-45.5004131249
 21
42.7440141879
  0
LINE
  5
2A2
100
AcDbEntity
  8
ASSI
100
AcDbLine
 62
250
  6
CONTINUOUS
 10
-45.5008057551
 20
-42.8219389044
 11
-45.5000105526
 21
-42.5732815636
  0
LWPOLYLINE
  5
2A3
100
AcDbEntity
  8
RACCORDO
100
AcDbPolyline
 62
250
  6
CONTINUOUS
 90
25
 70
0
 10
-48.1473167529
 20
-22.354585898
 10
-48.1483651127
 20
-22.386870675
 10
-48.1515023851
 20
-22.4190861372
 10
-48.1567304179
 20
-22.4510973704
 10
-48.164051513
 20
-22.482807038
 10
-48.1734452126
 20
-22.5140389991
 10
-48.1848440288
 20
-22.5445461692
 10
-48.1981815316
 20
-22.5741778072
 10
-48.2134030149
 20
-22.6028380531
 10
-48.2304188295
 20
-22.6303782335
 10
-48.249118343
 20
-22.6566540049
 10
-48.2694349097
 20
-22.6816039535
 10
-48.2913441724
 20
-22.7052043794
 10
-48.3147399499
 20
-22.7273366972
 10
-48.3395459544
 20
-22.7479243586
 10
-48.3658093849
 20
-22.7669767317
 10
-48.3935274235
 20
-22.7844302002
 10
-48.4225257566
 20
-22.8001163185
 10
-48.4525915879
 20
-22.8138872665
 10
-48.4836484933
 20
-22.825681196
 10
-48.5155223522
 20
-22.835407766
 10
-48.5478193127
 20
-22.8429572869
 10
-48.5803038553
 20
-22.8483178732
 10
-48.6129162153
 20
-22.8515201654
 10
-48.6455148342
 20
-22.8525825149
  0
LWPOLYLINE
  5
2A4
100
AcDbEntity
  8
RACCORDO
100
AcDbPolyline
 62
250
  6
CONTINUOUS
 90
25
 70
0
 10
-47.837427949
 20
-22.3649778288
 10
-47.8392698624
 20
-22.416914778
 10
-47.8444300529
 20
-22.4683190785
 10
-47.8529085205
 20
-22.5191907305
 10
-47.8647794326
 20
-22.5697993052
 10
-47.8799686217
 20
-22.6198752312
 10
-47.8982535853
 20
-22.6686097946
 10
-47.9196858089
 20
-22.7159345459
 10
-47.9442138068
 20
-22.7619179345
 10
-47.9714606195
 20
-22.8059565946
 10
-48.0014083028
 20
-22.847971111
 10
-48.0340748009
 20
-22.8880408989
 10
-48.0691369858
 20
-22.9258008381
 10
-48.1065600744
 20
-22.9612366079
 10
-48.1463788499
 20
-22.9943625291
 10
-48.1883745343
 20
-23.0248564441
 10
-48.2327040071
 20
-23.0527880732
 10
-48.2792103887
 20
-23.0780876962
 10
-48.3272042631
 20
-23.1002239952
 10
-48.3768094918
 20
-23.1191159082
 10
-48.4279022133
 20
-23.1348444973
 10
-48.4794214263
 20
-23.1471216305
 10
-48.5310134639
 20
-23.1558512639
 10
-48.5830319931
 20
-23.1611294415
 10
-48.6354770138
 20
-23.1629561633
  0
LWPOLYLINE
  5
2A5
100
AcDbEntity
  8
ASSI
100
AcDbPolyline
 62
250
  6
CONTINUOUS
 90
6
 70
0
 10
-45.5018587788
 20
-42.9056012915
 10
-45.5017004445
 20
-42.9029468651
 10
-45.5015430841
 20
-42.8970973616
 10
-45.5013877109
 20
-42.8880903125
 10
-45.5012353257
 20
-42.8759835406
 10
-45.5008057551
 20
-42.8219389044
  0
LWPOLYLINE
  5
2A6
100
AcDbEntity
  8
ASSI
100
AcDbPolyline
 62
250
  6
CONTINUOUS
 90
5
 70
0
 10
113.1356942262
 20
-42.44545553
 10
112.5186336169
 20
-42.4664409189
 10
111.9079945269
 20
-42.4843809936
 10
111.3038673702
 20
-42.4993051945
 10
110.7026131447
 20
-42.5108229499
  0
LWPOLYLINE
  5
2A7
100
AcDbEntity
  8
ASSI
100
AcDbPolyline
 62
250
  6
CONTINUOUS
 90
25
 70
0
 10
113.1095275003
 20
-42.9092533602
 10
113.1618437071
 20
-42.9075411918
 10
113.2139376318
 20
-42.9024112049
 10
113.2655864024
 20
-42.8938845937
 10
113.3165717416
 20
-42.8819962777
 10
113.3666724021
 20
-42.8667968188
 10
113.4156656629
 20
-42.8483540602
 10
113.4633414449
 20
-42.8267481836
 10
113.5094968361
 20
-42.8020722339
 10
113.5539295018
 20
-42.7744363045
 10
113.5964459808
 20
-42.7439639602
 10
113.6368707088
 20
-42.7107843214
 10
113.6750399451
 20
-42.6750332553
 10
113.710790687
 20
-42.6368634847
 10
113.7439700165
 20
-42.5964381626
 10
113.7744418495
 20
-42.553921324
 10
113.8020770752
 20
-42.5094886269
 10
113.8267522208
 20
-42.4633335015
 10
113.8483571879
 20
-42.4156584406
 10
113.8667989111
 20
-42.366666682
 10
113.8819974362
 20
-42.3165680261
 10
113.8938851662
 20
-42.2655843966
 10
113.9024115056
 20
-42.2139367333
 10
113.9075413918
 20
-42.1618435476
 10
113.909253555
 20
-42.109527695
  0
LINE
  5
2A8
100
AcDbEntity
  8
ASSI
100
AcDbLine
 62
250
  6
CONTINUOUS
 10
113.7055378543
 20
-42.1268725695
 11
113.6463650729
 21
-42.1285825968
  0
LINE
  5
2A9
100
AcDbEntity
  8
ASSI
100
AcDbLine
 62
250
  6
CONTINUOUS
 10
113.6463650729
 20
-42.1285825968
 11
113.5825474772
 21
-42.1299190845
  0
LINE
  5
2AA
100
AcDbEntity
  8
ASSI
100
AcDbLine
 62
250
  6
CONTINUOUS
 10
113.5825474772
 20
-42.1299190845
 11
113.5153361041
 21
-42.1308558329
  0
LINE
  5
2AB
100
AcDbEntity
  8
ASSI
100
AcDbLine
 62
250
  6
CONTINUOUS
 10
110.7026131447
 20
-42.5108229499
 11
109.5312192124
 21
-42.5262233254
  0
LINE
  5
2AC
100
AcDbEntity
  8
ASSI
100
AcDbLine
 62
250
  6
CONTINUOUS
 10
109.5312192124
 20
-42.5262233254
 11
108.439466702
 21
-42.5350727492
  0
LINE
  5
2AD
100
AcDbEntity
  8
ASSI
100
AcDbLine
 62
250
  6
CONTINUOUS
 10
113.5153361041
 20
-42.1308558329
 11
113.4460485204
 21
-42.1313744788
  0
LINE
  5
2AE
100
AcDbEntity
  8
ASSI
100
AcDbLine
 62
250
  6
CONTINUOUS
 10
108.439466702
 20
-42.5350727492
 11
106.9333164153
 21
-42.5424644886
  0
LINE
  5
2AF
100
AcDbEntity
  8
ASSI
100
AcDbLine
 62
250
  6
CONTINUOUS
 10
25.5000417626
 20
-42.5732688213
 11
22.8546566936
 21
-42.581262909
  0
LINE
  5
2B0
100
AcDbEntity
  8
ASSI
100
AcDbLine
 62
250
  6
CONTINUOUS
 10
-46.8331715944
 20
-42.5775928516
 11
-49.4371939764
 21
-42.5842805382
  0
LINE
  5
2B1
100
AcDbEntity
  8
ASSI
100
AcDbLine
 62
250
  6
CONTINUOUS
 10
106.9333164153
 20
-42.5424644886
 11
104.6482448559
 21
-42.54865095
  0
LINE
  5
2B2
100
AcDbEntity
  8
ASSI
100
AcDbLine
 62
250
  6
CONTINUOUS
 10
104.6482448559
 20
-42.54865095
 11
91.7283685712
 21
-42.5859691571
  0
LINE
  5
2B3
100
AcDbEntity
  8
ASSI
100
AcDbLine
 62
250
  6
CONTINUOUS
 10
22.8546566936
 20
-42.581262909
 11
20.304702696
 21
-42.5865445566
  0
LINE
  5
2B4
100
AcDbEntity
  8
ASSI
100
AcDbLine
 62
250
  6
CONTINUOUS
 10
91.7283685712
 20
-42.5859691571
 11
89.8204448975
 21
-42.588591178
  0
LINE
  5
2B5
100
AcDbEntity
  8
ASSI
100
AcDbLine
 62
250
  6
CONTINUOUS
 10
-49.4371939764
 20
-42.5842805382
 11
-53.1874152643
 21
-42.589411871
  0
LINE
  5
2B6
100
AcDbEntity
  8
ASSI
100
AcDbLine
 62
250
  6
CONTINUOUS
 10
89.8204448975
 20
-42.588591178
 11
88.2578828405
 21
-42.5900059797
  0
LINE
  5
2B7
100
AcDbEntity
  8
ASSI
100
AcDbLine
 62
250
  6
CONTINUOUS
 10
20.304702696
 20
-42.5865445566
 11
16.5354316548
 21
-42.590363205
  0
LINE
  5
2B8
100
AcDbEntity
  8
ASSI
100
AcDbLine
 62
250
  6
CONTINUOUS
 10
88.2578828405
 20
-42.5900059797
 11
86.5471465565
 21
-42.590953127
  0
LINE
  5
2B9
100
AcDbEntity
  8
ASSI
100
AcDbLine
 62
250
  6
CONTINUOUS
 10
86.5471465565
 20
-42.590953127
 11
85.3200861498
 21
-42.5913244991
  0
LINE
  5
2BA
100
AcDbEntity
  8
ASSI
100
AcDbLine
 62
7
  6
CONTINUOUS
 10
-113.15027414
 20
-42.95
 11
113.15027414
 21
-42.95
  0
LINE
  5
2BB
100
AcDbEntity
  8
ASSI
100
AcDbLine
 62
250
  6
CONTINUOUS
 10
61.6708024218
 20
-42.905106578
 11
35.6105001328
 21
-42.9074476817
  0
LINE
  5
2BC
100
AcDbEntity
  8
ASSI
100
AcDbLine
 62
250
  6
CONTINUOUS
 10
-25.4981821805
 20
-42.9056012957
 11
-36.0642469412
 21
-42.9074330011
  0
LINE
  5
2BD
100
AcDbEntity
  8
ASSI
100
AcDbLine
 62
250
  6
CONTINUOUS
 10
-107.4238303285
 20
-42.9066241755
 11
-113.1095266638
 21
-42.9092525238
  0
LINE
  5
2BE
100
AcDbEntity
  8
ASSI
100
AcDbLine
 62
250
  6
CONTINUOUS
 10
-53.1874152643
 20
-42.589411871
 11
-59.8685594023
 21
-42.5915082779
  0
LINE
  5
2BF
100
AcDbEntity
  8
ASSI
100
AcDbLine
 62
250
  6
CONTINUOUS
 10
35.6103130772
 20
-42.5439879248
 11
25.5000420472
 21
-42.5735783591
  0
LINE
  5
2C0
100
AcDbEntity
  8
ASSI
100
AcDbLine
 62
250
  6
CONTINUOUS
 10
-59.8685594023
 20
-42.5915082779
 11
-84.0744642884
 21
-42.5914979521
  0
LINE
  5
2C1
100
AcDbEntity
  8
ASSI
100
AcDbLine
 62
250
  6
CONTINUOUS
 10
16.5354316548
 20
-42.590363205
 11
9.6784500005
 21
-42.5914040971
  0
LINE
  5
2C2
100
AcDbEntity
  8
ASSI
100
AcDbLine
 62
250
  6
CONTINUOUS
 10
9.6784500005
 20
-42.5914040971
 11
-14.6304383514
 21
-42.5912318934
  0
LWPOLYLINE
  5
2C3
100
AcDbEntity
  8
ASSI
100
AcDbPolyline
 62
250
  6
CONTINUOUS
 90
3
 70
0
 10
85.3200861498
 20
-42.5913244991
 10
77.3288755187
 20
-42.5909364083
 10
57.749102307
 20
-42.5914548106
  0
LINE
  5
2C4
100
AcDbEntity
  8
ASSI
100
AcDbLine
 62
250
  6
CONTINUOUS
 10
-36.0642469412
 20
-42.9074330011
 11
-107.4238303285
 21
-42.9066241755
  0
LINE
  5
2C5
100
AcDbEntity
  8
ASSI
100
AcDbLine
 62
250
  6
CONTINUOUS
 10
35.6105001328
 20
-42.9074476817
 11
-25.4981821805
 21
-42.9056012957
  0
LWPOLYLINE
  5
2C6
100
AcDbEntity
  8
ASSI
100
AcDbPolyline
 62
250
  6
CONTINUOUS
 90
3
 70
0
 10
110.1016702466
 20
-42.9071816657
 10
109.5262462196
 20
-42.9070006835
 10
61.6708024218
 20
-42.905106578
  0
LINE
  5
2C7
100
AcDbEntity
  8
ASSI
100
AcDbLine
 62
250
  6
CONTINUOUS
 10
-35.0491297247
 20
-42.5440645066
 11
-46.8331715944
 21
-42.5775928516
  0
LINE
  5
2C8
100
AcDbEntity
  8
ASSI
100
AcDbLine
 62
250
  6
CONTINUOUS
 10
57.749102307
 20
-42.5914548106
 11
53.4854117964
 21
-42.5896608223
  0
LINE
  5
2C9
100
AcDbEntity
  8
ASSI
100
AcDbLine
 62
250
  6
CONTINUOUS
 10
-84.0744642884
 20
-42.5914979521
 11
-88.7674001722
 21
-42.5896088519
  0
LINE
  5
2CA
100
AcDbEntity
  8
ASSI
100
AcDbLine
 62
250
  6
CONTINUOUS
 10
-14.6304383514
 20
-42.5912318934
 11
-19.0236416071
 21
-42.5883105865
  0
LINE
  5
2CB
100
AcDbEntity
  8
ASSI
100
AcDbLine
 62
250
  6
CONTINUOUS
 10
113.1095288876
 20
-42.9092547476
 11
110.1016702466
 21
-42.9071816657
  0
LINE
  5
2CC
100
AcDbEntity
  8
ASSI
100
AcDbLine
 62
250
  6
CONTINUOUS
 10
53.4854117964
 20
-42.5896608223
 11
50.4247708936
 21
-42.5860488408
  0
LINE
  5
2CD
100
AcDbEntity
  8
ASSI
100
AcDbLine
 62
250
  6
CONTINUOUS
 10
-88.7674001722
 20
-42.5896088519
 11
-92.4692534322
 21
-42.5846382479
  0
LINE
  5
2CE
100
AcDbEntity
  8
ASSI
100
AcDbLine
 62
250
  6
CONTINUOUS
 10
-19.0236416071
 20
-42.5883105865
 11
-22.1729377923
 21
-42.5827015889
  0
LINE
  5
2CF
100
AcDbEntity
  8
ASSI
100
AcDbLine
 62
250
  6
CONTINUOUS
 10
50.4247708936
 20
-42.5860488408
 11
47.1858677011
 21
-42.5784424744
  0
LINE
  5
2D0
100
AcDbEntity
  8
ASSI
100
AcDbLine
 62
250
  6
CONTINUOUS
 10
-92.4692534322
 20
-42.5846382479
 11
-95.2240587471
 21
-42.5777903739
  0
LINE
  5
2D1
100
AcDbEntity
  8
ASSI
100
AcDbLine
 62
250
  6
CONTINUOUS
 10
40.7533472422
 20
-42.5541679428
 11
35.6103130772
 21
-42.5439879248
  0
LWPOLYLINE
  5
2D2
100
AcDbEntity
  8
ASSI
100
AcDbPolyline
 62
250
  6
CONTINUOUS
 90
3
 70
0
 10
-95.2240587471
 20
-42.5777903739
 10
-98.9087471227
 20
-42.5641712205
 10
-106.0080462968
 20
-42.54543669
  0
LINE
  5
2D3
100
AcDbEntity
  8
ASSI
100
AcDbLine
 62
250
  6
CONTINUOUS
 10
-22.1729377923
 20
-42.5827015889
 11
-26.1454240545
 21
-42.571031692
  0
LINE
  5
2D4
100
AcDbEntity
  8
ASSI
100
AcDbLine
 62
250
  6
CONTINUOUS
 10
-26.1454240545
 20
-42.571031692
 11
-35.0491297247
 21
-42.5440645066
  0
LWPOLYLINE
  5
2D5
100
AcDbEntity
  8
ASSI
100
AcDbPolyline
 62
250
  6
CONTINUOUS
 90
3
 70
0
 10
47.1858677011
 20
-42.5784424744
 10
43.6385184955
 20
-42.5659455112
 10
40.7533472422
 20
-42.5541679428
  0
LINE
  5
2D6
100
AcDbEntity
  8
ASSI
100
AcDbLine
 62
250
  6
CONTINUOUS
 10
-106.0080462968
 20
-42.54543669
 11
-107.8652007974
 21
-42.5383551569
  0
LINE
  5
2D7
100
AcDbEntity
  8
ASSI
100
AcDbLine
 62
250
  6
CONTINUOUS
 10
-107.8652007974
 20
-42.5383551569
 11
-109.0833980785
 21
-42.5303629432
  0
LINE
  5
2D8
100
AcDbEntity
  8
ASSI
100
AcDbLine
 62
250
  6
CONTINUOUS
 10
-113.4460484565
 20
-42.1313745628
 11
-113.5153363531
 21
-42.1308559135
  0
LINE
  5
2D9
100
AcDbEntity
  8
ASSI
100
AcDbLine
 62
250
  6
CONTINUOUS
 10
-109.0833980785
 20
-42.5303629432
 11
-109.8242984175
 21
-42.5230031083
  0
LINE
  5
2DA
100
AcDbEntity
  8
ASSI
100
AcDbLine
 62
250
  6
CONTINUOUS
 10
-109.8242984175
 20
-42.5230031083
 11
-110.5157088324
 21
-42.5136845259
  0
LINE
  5
2DB
100
AcDbEntity
  8
ASSI
100
AcDbLine
 62
250
  6
CONTINUOUS
 10
-113.5153363531
 20
-42.1308559135
 11
-113.5825479221
 21
-42.1299191594
  0
LINE
  5
2DC
100
AcDbEntity
  8
ASSI
100
AcDbLine
 62
250
  6
CONTINUOUS
 10
-110.5157088324
 20
-42.5136845259
 11
-111.1617201174
 21
-42.5022176634
  0
LINE
  5
2DD
100
AcDbEntity
  8
ASSI
100
AcDbLine
 62
250
  6
CONTINUOUS
 10
-113.5825479221
 20
-42.1299191594
 11
-113.646365616
 21
-42.1285826653
  0
LINE
  5
2DE
100
AcDbEntity
  8
ASSI
100
AcDbLine
 62
250
  6
CONTINUOUS
 10
-111.1617201174
 20
-42.5022176634
 11
-111.7662862713
 21
-42.4886859269
  0
LINE
  5
2DF
100
AcDbEntity
  8
ASSI
100
AcDbLine
 62
250
  6
CONTINUOUS
 10
-111.7662862713
 20
-42.4886859269
 11
-112.3333890082
 21
-42.4731220124
  0
LWPOLYLINE
  5
2E0
100
AcDbEntity
  8
ASSI
100
AcDbPolyline
 62
250
  6
CONTINUOUS
 90
15
 70
0
 10
-113.646365616
 20
-42.1285826653
 10
-113.7055384763
 20
-42.1268726299
 10
-113.7330163986
 20
-42.125887741
 10
-113.7589064981
 20
-42.1248225758
 10
-113.783081735
 20
-42.1236823609
 10
-113.8054234845
 20
-42.1224726911
 10
-113.8258221181
 20
-42.1211995022
 10
-113.8441775423
 20
-42.1198690416
 10
-113.8603996891
 20
-42.1184878376
 10
-113.8744089828
 20
-42.1170626649
 10
-113.8861366483
 20
-42.1156005193
 10
-113.8955250917
 20
-42.114108584
 10
-113.902528275
 20
-42.1125941829
 10
-113.9071118967
 20
-42.1110647445
 10
-113.9092535082
 20
-42.1095277736
  0
LWPOLYLINE
  5
2E1
100
AcDbEntity
  8
ASSI
100
AcDbPolyline
 62
250
  6
CONTINUOUS
 90
3
 70
0
 10
-112.3333890082
 20
-42.4731220124
 10
-112.8726628734
 20
-42.4555794572
 10
-113.1312245115
 20
-42.4460656497
  0
LWPOLYLINE
  5
2E2
100
AcDbEntity
  8
ASSI
100
AcDbPolyline
 62
250
  6
CONTINUOUS
 90
4
 70
0
 10
-25.4981821808
 20
-42.9056389928
 10
-25.4983433615
 20
-42.9029850893
 10
-25.4985034629
 20
-42.897137041
 10
-25.4986614581
 20
-42.888132476
  0
LINE
  5
2E3
100
AcDbEntity
  8
ASSI
100
AcDbLine
 62
250
  6
CONTINUOUS
 10
-25.4986614581
 20
-42.888132476
 11
-25.4989670979
 21
-42.8609053223
  0
LINE
  5
2E4
100
AcDbEntity
  8
ASSI
100
AcDbLine
 62
250
  6
CONTINUOUS
 10
-25.4989670979
 20
-42.8609053223
 11
-25.499626576
 21
-42.7440141044
  0
LINE
  5
2E5
100
AcDbEntity
  8
ASSI
100
AcDbLine
 62
250
  6
CONTINUOUS
 10
-25.4994882858
 20
42.7723410417
 11
-25.499626576
 21
-42.7440141044
  0
LINE
  5
2E6
100
AcDbEntity
  8
ASSI
100
AcDbLine
 62
250
  6
CONTINUOUS
 10
-25.4989528518
 20
42.8608547781
 11
-25.4994882858
 21
42.7723410417
  0
LWPOLYLINE
  5
2E7
100
AcDbEntity
  8
RACCORDO
100
AcDbPolyline
 62
250
  6
CONTINUOUS
 90
25
 70
0
 10
-22.8526832471
 20
22.354585898
 10
-22.8516348873
 20
22.386870675
 10
-22.8484976149
 20
22.4190861372
 10
-22.8432695821
 20
22.4510973704
 10
-22.835948487
 20
22.482807038
 10
-22.8265547874
 20
22.5140389991
 10
-22.8151559712
 20
22.5445461692
 10
-22.8018184684
 20
22.5741778072
 10
-22.7865969851
 20
22.6028380531
 10
-22.7695811705
 20
22.6303782335
 10
-22.750881657
 20
22.6566540049
 10
-22.7305650903
 20
22.6816039535
 10
-22.7086558276
 20
22.7052043794
 10
-22.6852600501
 20
22.7273366972
 10
-22.6604540456
 20
22.7479243586
 10
-22.6341906151
 20
22.7669767317
 10
-22.6064725765
 20
22.7844302002
 10
-22.5774742434
 20
22.8001163185
 10
-22.5474084121
 20
22.8138872665
 10
-22.5163515067
 20
22.825681196
 10
-22.4844776478
 20
22.835407766
 10
-22.4521806873
 20
22.8429572869
 10
-22.4196961447
 20
22.8483178732
 10
-22.3870837847
 20
22.8515201654
 10
-22.3544851658
 20
22.8525825149
  0
LWPOLYLINE
  5
2E8
100
AcDbEntity
  8
RACCORDO
100
AcDbPolyline
 62
250
  6
CONTINUOUS
 90
25
 70
0
 10
-23.162572051
 20
22.3649778288
 10
-23.1607301376
 20
22.416914778
 10
-23.1555699471
 20
22.4683190785
 10
-23.1470914795
 20
22.5191907305
 10
-23.1352205674
 20
22.5697993052
 10
-23.1200313783
 20
22.6198752312
 10
-23.1017464147
 20
22.6686097946
 10
-23.0803141911
 20
22.7159345459
 10
-23.0557861932
 20
22.7619179345
 10
-23.0285393805
 20
22.8059565946
 10
-22.9985916972
 20
22.847971111
 10
-22.9659251991
 20
22.8880408989
 10
-22.9308630142
 20
22.9258008381
 10
-22.8934399256
 20
22.9612366079
 10
-22.8536211501
 20
22.9943625291
 10
-22.8116254657
 20
23.0248564441
 10
-22.7672959929
 20
23.0527880732
 10
-22.7207896113
 20
23.0780876962
 10
-22.6727957369
 20
23.1002239952
 10
-22.6231905082
 20
23.1191159082
 10
-22.5720977867
 20
23.1348444973
 10
-22.5205785737
 20
23.1471216305
 10
-22.4689865361
 20
23.1558512639
 10
-22.4169680069
 20
23.1611294415
 10
-22.3645229862
 20
23.1629561633
  0
LWPOLYLINE
  5
2E9
100
AcDbEntity
  8
ASSI
100
AcDbPolyline
 62
250
  6
CONTINUOUS
 90
5
 70
0
 10
-25.4981809856
 20
42.9056012956
 10
-25.4983393193
 20
42.9029468681
 10
-25.4984966788
 20
42.897097362
 10
-25.4986520512
 20
42.8880903087
 10
-25.4989528518
 20
42.8608547781
  0
LWPOLYLINE
  5
2EA
100
AcDbEntity
  8
RACCORDO
100
AcDbPolyline
 62
250
  6
CONTINUOUS
 90
11
 70
0
 10
48.0273605795
 20
-22.3623662101
 10
48.0470391263
 20
-22.3617556047
 10
48.065301795
 20
-22.3610938796
 10
48.0820183729
 20
-22.3603857529
 10
48.097069671
 20
-22.3596362735
 10
48.1103483735
 20
-22.3588507852
 10
48.1217598033
 20
-22.3580348885
 10
48.1312225968
 20
-22.3571944008
 10
48.1386692842
 20
-22.3563353146
 10
48.1440467704
 20
-22.3554637553
 10
48.1473167138
 20
-22.3545859371
  0
LINE
  5
2EB
100
AcDbEntity
  8
RACCORDO
100
AcDbLine
 62
250
  6
CONTINUOUS
 10
47.9843261779
 20
-22.363417043
 11
48.0273605795
 21
-22.3623662101
  0
LWPOLYLINE
  5
2EC
100
AcDbEntity
  8
RACCORDO
100
AcDbPolyline
 62
250
  6
CONTINUOUS
 90
3
 70
0
 10
93.3674761729
 20
-23.1667029151
 10
82.8447952325
 20
-23.1905629326
 10
82.3925251236
 20
-23.1914510553
  0
LINE
  5
2ED
100
AcDbEntity
  8
RACCORDO
100
AcDbLine
 62
250
  6
CONTINUOUS
 10
82.3925251236
 20
-23.1914510553
 11
81.4867758977
 21
-23.1931269855
  0
LINE
  5
2EE
100
AcDbEntity
  8
RACCORDO
100
AcDbLine
 62
250
  6
CONTINUOUS
 10
81.4867758977
 20
-23.1931269855
 11
80.5694070351
 21
-23.1946716601
  0
LINE
  5
2EF
100
AcDbEntity
  8
RACCORDO
100
AcDbLine
 62
250
  6
CONTINUOUS
 10
80.5694070351
 20
-23.1946716601
 11
79.6333140461
 21
-23.1960870226
  0
LINE
  5
2F0
100
AcDbEntity
  8
RACCORDO
100
AcDbLine
 62
250
  6
CONTINUOUS
 10
79.6333140461
 20
-23.1960870226
 11
78.6654670268
 21
-23.1973859779
  0
LINE
  5
2F1
100
AcDbEntity
  8
RACCORDO
100
AcDbLine
 62
250
  6
CONTINUOUS
 10
78.6654670268
 20
-23.1973859779
 11
77.6514933404
 21
-23.1985651183
  0
LINE
  5
2F2
100
AcDbEntity
  8
RACCORDO
100
AcDbLine
 62
250
  6
CONTINUOUS
 10
77.6514933404
 20
-23.1985651183
 11
76.5841838392
 21
-23.1996164656
  0
LINE
  5
2F3
100
AcDbEntity
  8
RACCORDO
100
AcDbLine
 62
250
  6
CONTINUOUS
 10
-76.3062510861
 20
-23.1998582038
 11
-81.074949863
 21
-23.1938392274
  0
LINE
  5
2F4
100
AcDbEntity
  8
RACCORDO
100
AcDbLine
 62
250
  6
CONTINUOUS
 10
-81.074949863
 20
-23.1938392274
 11
-93.3674761729
 21
-23.1667029151
  0
LWPOLYLINE
  5
2F5
100
AcDbEntity
  8
RACCORDO
100
AcDbPolyline
 62
250
  6
CONTINUOUS
 90
12
 70
0
 10
-47.9843267939
 20
-22.3634170525
 10
-48.0273611752
 20
-22.3623662178
 10
-48.0470396794
 20
-22.3617556112
 10
-48.0653022885
 20
-22.361093885
 10
-48.0820187943
 20
-22.3603857574
 10
-48.0970700145
 20
-22.3596362771
 10
-48.110348629
 20
-22.3588507886
 10
-48.121759976
 20
-22.358034892
 10
-48.1312227148
 20
-22.3571944027
 10
-48.1386693718
 20
-22.3563353126
 10
-48.144046835
 20
-22.3554637477
 10
-48.147316753
 20
-22.3545859218
  0
LWPOLYLINE
  5
2F6
100
AcDbEntity
  8
RACCORDO
100
AcDbPolyline
 62
250
  6
CONTINUOUS
 90
25
 70
0
 10
-93.3574585569
 20
-22.8555559059
 10
-93.3897537927
 20
-22.8545130667
 10
-93.4219797066
 20
-22.8513808661
 10
-93.4540013295
 20
-22.8461574775
 10
-93.48572136
 20
-22.8388406467
 10
-93.5169635167
 20
-22.8294508335
 10
-93.5474804098
 20
-22.818055519
 10
-93.5771212244
 20
-22.8047212242
 10
-93.6057901274
 20
-22.7895027112
 10
-93.6333383167
 20
-22.7724896071
 10
-93.6596212588
 20
-22.7537927588
 10
-93.6845777528
 20
-22.7334787661
 10
-93.7081845045
 20
-22.7115714725
 10
-93.7303234131
 20
-22.6881764073
 10
-93.7509172079
 20
-22.6633703986
 10
-93.7699740257
 20
-22.6371076577
 10
-93.787430302
 20
-22.6093914822
 10
-93.8031180035
 20
-22.580396106
 10
-93.8168890785
 20
-22.5503351634
 10
-93.8286819333
 20
-22.5192857363
 10
-93.8384069442
 20
-22.4874215968
 10
-93.8459549395
 20
-22.4551358737
 10
-93.8513143746
 20
-22.4226637841
 10
-93.8545162007
 20
-22.3900652636
 10
-93.8555790968
 20
-22.3574817478
  0
LWPOLYLINE
  5
2F7
100
AcDbEntity
  8
RACCORDO
100
AcDbPolyline
 62
250
  6
CONTINUOUS
 90
25
 70
0
 10
-22.3544851689
 20
-22.8525825179
 10
-22.386776789
 20
-22.8515397814
 10
-22.4189994508
 20
-22.8484085959
 10
-22.4510182326
 20
-22.8431871556
 10
-22.4827358341
 20
-22.8358732683
 10
-22.5139760797
 20
-22.8264873695
 10
-22.5444917745
 20
-22.8150967782
 10
-22.5741321855
 20
-22.801767964
 10
-22.6028014657
 20
-22.7865556478
 10
-22.6303508314
 20
-22.7695492408
 10
-22.656635943
 20
-22.7508593657
 10
-22.6815953973
 20
-22.7305526888
 10
-22.7052053783
 20
-22.7086533462
 10
-22.7273472941
 20
-22.6852675079
 10
-22.747944601
 20
-22.660471462
 10
-22.7670065471
 20
-22.6342177852
 10
-22.7844695695
 20
-22.6065092469
 10
-22.80016513
 20
-22.5775201825
 10
-22.8139450828
 20
-22.5474632786
 10
-22.8257475831
 20
-22.5164149578
 10
-22.835482307
 20
-22.4845493534
 10
-22.8430393192
 20
-22.4522602505
 10
-22.8484066944
 20
-22.4197831528
 10
-22.8516152048
 20
-22.3871778498
 10
-22.8526832441
 20
-22.3545858951
  0
LWPOLYLINE
  5
2F8
100
AcDbEntity
  8
RACCORDO
100
AcDbPolyline
 62
250
  6
CONTINUOUS
 90
25
 70
0
 10
-93.3674761729
 20
-23.1667029151
 10
-93.4194929584
 20
-23.1648629452
 10
-93.4709764983
 20
-23.1596994321
 10
-93.5219267862
 20
-23.1512123697
 10
-93.5726140942
 20
-23.1393274158
 10
-93.6227681382
 20
-23.1241189005
 10
-93.6715780784
 20
-23.1058098255
 10
-93.7189749919
 20
-23.0843486488
 10
-93.7650277909
 20
-23.0597869015
 10
-93.8091323884
 20
-23.0325021957
 10
-93.8512090456
 20
-23.0025128455
 10
-93.8913374952
 20
-22.9698005307
 10
-93.9291528592
 20
-22.934687913
 10
-93.9646415874
 20
-22.8972087766
 10
-93.9978172297
 20
-22.8573293371
 10
-94.0283555601
 20
-22.8152709048
 10
-94.0563256001
 20
-22.7708766092
 10
-94.0816583338
 20
-22.7243033265
 10
-94.1038224804
 20
-22.676242989
 10
-94.1227364474
 20
-22.6265720995
 10
-94.1384818386
 20
-22.5754141666
 10
-94.1507721681
 20
-22.5238316322
 10
-94.1595119447
 20
-22.4721786477
 10
-94.164796672
 20
-22.4201010741
 10
-94.1666263563
 20
-22.3675989178
  0
LWPOLYLINE
  5
2F9
100
AcDbEntity
  8
RACCORDO
100
AcDbPolyline
 62
250
  6
CONTINUOUS
 90
25
 70
0
 10
-22.3645229862
 20
-23.1629561633
 10
-22.4164543192
 20
-23.1611202473
 10
-22.4678537088
 20
-23.1559663138
 10
-22.5187211552
 20
-23.1474943627
 10
-22.5693260984
 20
-23.1356302876
 10
-22.6193990982
 20
-23.1204481949
 10
-22.6681318343
 20
-23.1021704042
 10
-22.7154560158
 20
-23.0807454889
 10
-22.7614399336
 20
-23.0562248755
 10
-22.805480139
 20
-23.0289851628
 10
-22.8474972623
 20
-22.9990443144
 10
-22.8875706732
 20
-22.9663843667
 10
-22.9253350328
 20
-22.9313280272
 10
-22.9607760436
 20
-22.8939100978
 10
-22.9939080032
 20
-22.8540957767
 10
-23.0244084645
 20
-22.8121033665
 10
-23.052347227
 20
-22.7677758643
 10
-23.0776544913
 20
-22.721270273
 10
-23.0997984128
 20
-22.673275904
 10
-23.1186978579
 20
-22.6236686815
 10
-23.1344339602
 20
-22.5725726814
 10
-23.1467182751
 20
-22.5210494422
 10
-23.1554546545
 20
-22.4694528101
 10
-23.1607392464
 20
-22.417428939
 10
-23.162572051
 20
-22.3649778288
  0
LWPOLYLINE
  5
2FA
100
AcDbEntity
  8
RACCORDO
100
AcDbPolyline
 62
250
  6
CONTINUOUS
 90
11
 70
0
 10
-22.3620057318
 20
22.9727554485
 10
-22.3614158754
 20
22.9530423716
 10
-22.3607764986
 20
22.9347468765
 10
-22.3600921698
 20
22.9179996868
 10
-22.3593677787
 20
22.9029204633
 10
-22.358608501
 20
22.889616949
 10
-22.357819762
 20
22.8781841992
 10
-22.3570071973
 20
22.8687039026
 10
-22.3561766127
 20
22.861243797
 10
-22.3553339428
 20
22.855857186
 10
-22.3544852088
 20
22.8525825578
  0
LINE
  5
2FB
100
AcDbEntity
  8
RACCORDO
100
AcDbLine
 62
250
  6
CONTINUOUS
 10
-22.363020409
 20
23.0158618158
 11
-22.3620057318
 21
22.9727554485
  0
LINE
  5
2FC
100
AcDbEntity
  8
RACCORDO
100
AcDbLine
 62
250
  6
CONTINUOUS
 10
-22.3637915821
 20
23.0628361781
 11
-22.363020409
 21
23.0158618158
  0
LINE
  5
2FD
100
AcDbEntity
  8
RACCORDO
100
AcDbLine
 62
250
  6
CONTINUOUS
 10
-22.3642972499
 20
23.1123383838
 11
-22.3637915821
 21
23.0628361781
  0
LINE
  5
2FE
100
AcDbEntity
  8
RACCORDO
100
AcDbLine
 62
250
  6
CONTINUOUS
 10
-22.3645229862
 20
23.1629561633
 11
-22.3642972499
 21
23.1123383838
  0
LINE
  5
2FF
100
AcDbEntity
  8
RACCORDO
100
AcDbLine
 62
250
  6
CONTINUOUS
 10
-23.162572051
 20
-22.3649778288
 11
-23.1806025864
 21
-16.0694966916
  0
LINE
  5
300
100
AcDbEntity
  8
RACCORDO
100
AcDbLine
 62
250
  6
CONTINUOUS
 10
-22.8526832862
 20
-22.3545859371
 11
-22.8621100308
 21
-18.6189895217
  0
LINE
  5
301
100
AcDbEntity
  8
RACCORDO
100
AcDbLine
 62
250
  6
CONTINUOUS
 10
-23.1806025864
 20
-16.0694966916
 11
-23.1921386933
 21
-10.9560342976
  0
LINE
  5
302
100
AcDbEntity
  8
RACCORDO
100
AcDbLine
 62
250
  6
CONTINUOUS
 10
-22.8621100308
 20
-18.6189895217
 11
-22.8721910106
 21
-12.9976847288
  0
LINE
  5
303
100
AcDbEntity
  8
RACCORDO
100
AcDbLine
 62
250
  6
CONTINUOUS
 10
-23.1921386933
 20
-10.9560342976
 11
-23.1988603679
 21
-6.3443360499
  0
LINE
  5
304
100
AcDbEntity
  8
RACCORDO
100
AcDbLine
 62
250
  6
CONTINUOUS
 10
-22.8721910106
 20
-12.9976847288
 11
-22.8788564694
 21
-7.3739137633
  0
LINE
  5
305
100
AcDbEntity
  8
RACCORDO
100
AcDbLine
 62
250
  6
CONTINUOUS
 10
-23.1988603679
 20
-6.3443360499
 11
-23.2018281733
 21
-1.9121299332
  0
LINE
  5
306
100
AcDbEntity
  8
RACCORDO
100
AcDbLine
 62
250
  6
CONTINUOUS
 10
-22.8788564694
 20
-7.3739137633
 11
-22.8816690595
 21
-1.9114554147
  0
LINE
  5
307
100
AcDbEntity
  8
RACCORDO
100
AcDbLine
 62
7
  6
CONTINUOUS
 10
-22.7
 20
22.201902651
 11
-22.7
 21
-22.201902651
  0
LINE
  5
308
100
AcDbEntity
  8
RACCORDO
100
AcDbLine
 62
250
  6
CONTINUOUS
 10
-23.2018281733
 20
-1.9121299332
 11
-23.2012427461
 21
3.3228052664
  0
LINE
  5
309
100
AcDbEntity
  8
RACCORDO
100
AcDbLine
 62
250
  6
CONTINUOUS
 10
-22.8816690595
 20
-1.9114554147
 11
-22.8805821193
 21
4.894827617
  0
LINE
  5
30A
100
AcDbEntity
  8
RACCORDO
100
AcDbLine
 62
250
  6
CONTINUOUS
 10
-22.8805821193
 20
4.894827617
 11
-22.8749219811
 21
11.0436946326
  0
LINE
  5
30B
100
AcDbEntity
  8
RACCORDO
100
AcDbLine
 62
250
  6
CONTINUOUS
 10
-23.2012427461
 20
3.3228052664
 11
-23.1962004428
 21
8.4890030719
  0
LINE
  5
30C
100
AcDbEntity
  8
RACCORDO
100
AcDbLine
 62
250
  6
CONTINUOUS
 10
-22.8749219811
 20
11.0436946326
 11
-22.8639823227
 21
17.7033261287
  0
LINE
  5
30D
100
AcDbEntity
  8
RACCORDO
100
AcDbLine
 62
250
  6
CONTINUOUS
 10
-23.1962004428
 20
8.4890030719
 11
-23.1866129253
 21
13.6077609827
  0
LINE
  5
30E
100
AcDbEntity
  8
RACCORDO
100
AcDbLine
 62
250
  6
CONTINUOUS
 10
-23.1866129253
 20
13.6077609827
 11
-23.1664892409
 21
21.0960677746
  0
LINE
  5
30F
100
AcDbEntity
  8
RACCORDO
100
AcDbLine
 62
250
  6
CONTINUOUS
 10
-22.8639823227
 20
17.7033261287
 11
-22.8526832862
 21
22.3545859371
  0
LINE
  5
310
100
AcDbEntity
  8
RACCORDO
100
AcDbLine
 62
250
  6
CONTINUOUS
 10
-23.1664892409
 20
21.0960677746
 11
-23.162572051
 21
22.3649778288
  0
LINE
  5
311
100
AcDbEntity
  8
RACCORDO
100
AcDbLine
 62
250
  6
CONTINUOUS
 10
-22.3645229863
 20
-23.1629561633
 11
-22.3642972641
 21
-23.1123380677
  0
LINE
  5
312
100
AcDbEntity
  8
RACCORDO
100
AcDbLine
 62
250
  6
CONTINUOUS
 10
-22.3642972641
 20
-23.1123380677
 11
-22.3637916041
 21
-23.0628356566
  0
LINE
  5
313
100
AcDbEntity
  8
RACCORDO
100
AcDbLine
 62
250
  6
CONTINUOUS
 10
-22.3637916041
 20
-23.0628356566
 11
-22.3630204345
 21
-23.0158612071
  0
LWPOLYLINE
  5
314
100
AcDbEntity
  8
RACCORDO
100
AcDbPolyline
 62
250
  6
CONTINUOUS
 90
12
 70
0
 10
-22.3630204345
 20
-23.0158612071
 10
-22.3620057575
 20
-22.9727548605
 10
-22.3614159002
 20
-22.953041826
 10
-22.3607765221
 20
-22.9347463899
 10
-22.3600921917
 20
-22.9179992717
 10
-22.3593677986
 20
-22.9029201252
 10
-22.3586085191
 20
-22.889616698
 10
-22.3578197781
 20
-22.8781840301
 10
-22.3570072093
 20
-22.8687037867
 10
-22.3561766179
 20
-22.86124371
 10
-22.3553339391
 20
-22.855857121
 10
-22.3544851937
 20
-22.8525825179
  0
LWPOLYLINE
  5
315
100
AcDbEntity
  8
RACCORDO
100
AcDbPolyline
 62
250
  6
CONTINUOUS
 90
11
 70
0
 10
-22.9726394205
 20
-22.3623662101
 10
-22.9529608737
 20
-22.3617556047
 10
-22.934698205
 20
-22.3610938796
 10
-22.9179816271
 20
-22.3603857529
 10
-22.902930329
 20
-22.3596362735
 10
-22.8896516265
 20
-22.3588507852
 10
-22.8782401967
 20
-22.3580348885
 10
-22.8687774032
 20
-22.3571944008
 10
-22.8613307158
 20
-22.3563353146
 10
-22.8559532296
 20
-22.3554637553
 10
-22.8526832862
 20
-22.3545859371
  0
LWPOLYLINE
  5
316
100
AcDbEntity
  8
RACCORDO
100
AcDbPolyline
 62
250
  6
CONTINUOUS
 90
11
 70
0
 10
-93.9760527748
 20
-22.3650692445
 10
-93.9562916791
 20
-22.3644746422
 10
-93.9379505469
 20
-22.3638299294
 10
-93.9211608142
 20
-22.3631397261
 10
-93.9060427996
 20
-22.3624089786
 10
-93.8927048411
 20
-22.3616429238
 10
-93.88124252
 20
-22.3608470512
 10
-93.8717379768
 20
-22.3600270643
 10
-93.8642593214
 20
-22.3591888393
 10
-93.8588601458
 20
-22.3583383832
 10
-93.8555791399
 20
-22.3574817908
  0
LINE
  5
317
100
AcDbEntity
  8
RACCORDO
100
AcDbLine
 62
250
  6
CONTINUOUS
 10
-23.0156738221
 20
-22.363417043
 11
-22.9726394205
 21
-22.3623662101
  0
LINE
  5
318
100
AcDbEntity
  8
RACCORDO
100
AcDbLine
 62
250
  6
CONTINUOUS
 10
-94.019259247
 20
-22.3660914626
 11
-93.9760527748
 21
-22.3650692445
  0
LINE
  5
319
100
AcDbEntity
  8
RACCORDO
100
AcDbLine
 62
250
  6
CONTINUOUS
 10
47.9374237413
 20
-22.3642164619
 11
47.9843261779
 21
-22.363417043
  0
LINE
  5
31A
100
AcDbEntity
  8
RACCORDO
100
AcDbLine
 62
250
  6
CONTINUOUS
 10
-23.0625762587
 20
-22.3642164619
 11
-23.0156738221
 21
-22.363417043
  0
LINE
  5
31B
100
AcDbEntity
  8
RACCORDO
100
AcDbLine
 62
250
  6
CONTINUOUS
 10
-94.0663336717
 20
-22.366867334
 11
-94.019259247
 21
-22.3660914626
  0
LINE
  5
31C
100
AcDbEntity
  8
RACCORDO
100
AcDbLine
 62
250
  6
CONTINUOUS
 10
47.8879885398
 20
-22.3647417083
 11
47.9374237413
 21
-22.3642164619
  0
LINE
  5
31D
100
AcDbEntity
  8
RACCORDO
100
AcDbLine
 62
250
  6
CONTINUOUS
 10
-23.1120114602
 20
-22.3647417083
 11
-23.0625762587
 21
-22.3642164619
  0
LINE
  5
31E
100
AcDbEntity
  8
RACCORDO
100
AcDbLine
 62
250
  6
CONTINUOUS
 10
-94.1159290766
 20
-22.3673746577
 11
-94.0663336717
 21
-22.366867334
  0
LINE
  5
31F
100
AcDbEntity
  8
RACCORDO
100
AcDbLine
 62
250
  6
CONTINUOUS
 10
47.837427949
 20
-22.3649778288
 11
47.8879885398
 21
-22.3647417083
  0
LINE
  5
320
100
AcDbEntity
  8
RACCORDO
100
AcDbLine
 62
250
  6
CONTINUOUS
 10
-23.162572051
 20
-22.3649778288
 11
-23.1120114602
 21
-22.3647417083
  0
LINE
  5
321
100
AcDbEntity
  8
ASSI
100
AcDbLine
 62
250
  6
CONTINUOUS
 10
26.9332510034
 20
-21.7465885525
 11
32.3793680918
 21
-21.7283386255
  0
LINE
  5
322
100
AcDbEntity
  8
RACCORDO
100
AcDbLine
 62
250
  6
CONTINUOUS
 10
-94.1666263563
 20
-22.3675989178
 11
-94.1159290766
 21
-22.3673746577
  0
LINE
  5
323
100
AcDbEntity
  8
RACCORDO
100
AcDbLine
 62
250
  6
CONTINUOUS
 10
22.3645229862
 20
-23.1629561633
 11
15.643219369
 21
-23.1819338925
  0
LINE
  5
324
100
AcDbEntity
  8
RACCORDO
100
AcDbLine
 62
250
  6
CONTINUOUS
 10
-48.6354770138
 20
-23.1629561633
 11
-56.4640171085
 21
-23.1846464175
  0
LINE
  5
325
100
AcDbEntity
  8
ASSI
100
AcDbLine
 62
250
  6
CONTINUOUS
 10
-37.4205753527
 20
-21.7254695757
 11
-44.0859153392
 21
-21.7466432824
  0
LINE
  5
326
100
AcDbEntity
  8
ASSI
100
AcDbLine
 62
250
  6
CONTINUOUS
 10
25.5000874039
 20
-21.7499997223
 11
26.9332510034
 21
-21.7465885525
  0
LINE
  5
327
100
AcDbEntity
  8
ASSI
100
AcDbLine
 62
250
  6
CONTINUOUS
 10
-44.0859153392
 20
-21.7466432824
 11
-45.4999364024
 21
-21.7499997673
  0
LINE
  5
328
100
AcDbEntity
  8
RACCORDO
100
AcDbLine
 62
250
  6
CONTINUOUS
 10
22.3544852088
 20
-22.8525825578
 11
17.8536807864
 21
-22.8635809767
  0
LINE
  5
329
100
AcDbEntity
  8
RACCORDO
100
AcDbLine
 62
250
  6
CONTINUOUS
 10
-48.6455147912
 20
-22.8525825578
 11
-54.8080093801
 21
-22.8668217905
  0
LINE
  5
32A
100
AcDbEntity
  8
RACCORDO
100
AcDbLine
 62
250
  6
CONTINUOUS
 10
15.643219369
 20
-23.1819338925
 11
10.6045168371
 21
-23.1928808526
  0
LINE
  5
32B
100
AcDbEntity
  8
RACCORDO
100
AcDbLine
 62
250
  6
CONTINUOUS
 10
-56.4640171085
 20
-23.1846464175
 11
-61.5760602256
 21
-23.194872112
  0
LINE
  5
32C
100
AcDbEntity
  8
RACCORDO
100
AcDbLine
 62
250
  6
CONTINUOUS
 10
17.8536807864
 20
-22.8635809767
 11
12.3060668566
 21
-22.8731872947
  0
LINE
  5
32D
100
AcDbEntity
  8
RACCORDO
100
AcDbLine
 62
250
  6
CONTINUOUS
 10
-54.8080093801
 20
-22.8668217905
 11
-60.984120907
 21
-22.8761563016
  0
LINE
  5
32E
100
AcDbEntity
  8
ASSI
100
AcDbLine
 62
250
  6
CONTINUOUS
 10
32.3793680918
 20
-21.7283386255
 11
34.9334416288
 21
-21.7236692288
  0
LINE
  5
32F
100
AcDbEntity
  8
RACCORDO
100
AcDbLine
 62
250
  6
CONTINUOUS
 10
10.6045168371
 20
-23.1928808526
 11
6.1893484745
 21
-23.1990881772
  0
LINE
  5
330
100
AcDbEntity
  8
RACCORDO
100
AcDbLine
 62
250
  6
CONTINUOUS
 10
93.3574585972
 20
-22.8555559462
 11
79.1502490853
 21
-22.8781374992
  0
LINE
  5
331
100
AcDbEntity
  8
RACCORDO
100
AcDbLine
 62
250
  6
CONTINUOUS
 10
12.3060668566
 20
-22.8731872947
 11
6.8705986287
 21
-22.8792482703
  0
LINE
  5
332
100
AcDbEntity
  8
RACCORDO
100
AcDbLine
 62
250
  6
CONTINUOUS
 10
76.5841838392
 20
-23.1996164656
 11
75.4547703447
 21
-23.2005194181
  0
LINE
  5
333
100
AcDbEntity
  8
RACCORDO
100
AcDbLine
 62
250
  6
CONTINUOUS
 10
-61.5760602256
 20
-23.194872112
 11
-66.9777615857
 21
-23.2008919374
  0
LINE
  5
334
100
AcDbEntity
  8
RACCORDO
100
AcDbLine
 62
250
  6
CONTINUOUS
 10
75.4547703447
 20
-23.2005194181
 11
73.6422896299
 21
-23.2015261079
  0
LINE
  5
335
100
AcDbEntity
  8
RACCORDO
100
AcDbLine
 62
250
  6
CONTINUOUS
 10
6.1893484745
 20
-23.1990881772
 11
1.6683655794
 21
-23.2019422737
  0
LINE
  5
336
100
AcDbEntity
  8
RACCORDO
100
AcDbLine
 62
250
  6
CONTINUOUS
 10
79.1502490853
 20
-22.8781374992
 11
74.8651219649
 21
-22.8809927436
  0
LINE
  5
337
100
AcDbEntity
  8
RACCORDO
100
AcDbLine
 62
250
  6
CONTINUOUS
 10
73.6422896299
 20
-23.2015261079
 11
72.353522462
 21
-23.2019165282
  0
LINE
  5
338
100
AcDbEntity
  8
RACCORDO
100
AcDbLine
 62
250
  6
CONTINUOUS
 10
74.8651219649
 20
-22.8809927436
 11
73.0052826771
 21
-22.8815907315
  0
LINE
  5
339
100
AcDbEntity
  8
RACCORDO
100
AcDbLine
 62
250
  6
CONTINUOUS
 10
6.8705986287
 20
-22.8792482703
 11
1.667779373
 21
-22.8816989278
  0
LINE
  5
33A
100
AcDbEntity
  8
RACCORDO
100
AcDbLine
 62
250
  6
CONTINUOUS
 10
-60.984120907
 20
-22.8761563016
 11
-68.5261511738
 21
-22.8815301232
  0
LINE
  5
33B
100
AcDbEntity
  8
RACCORDO
100
AcDbLine
 62
250
  6
CONTINUOUS
 10
73.0052826771
 20
-22.8815907315
 11
71.0
 21
-22.8818256987
  0
LINE
  5
33C
100
AcDbEntity
  8
RACCORDO
100
AcDbLine
 62
7
  6
CONTINUOUS
 10
-93.201902651
 20
-22.7
 11
-48.798097349
 21
-22.7
  0
LINE
  5
33D
100
AcDbEntity
  8
RACCORDO
100
AcDbLine
 62
7
  6
CONTINUOUS
 10
-22.201902651
 20
-22.7
 11
22.201902651
 21
-22.7
  0
LINE
  5
33E
100
AcDbEntity
  8
RACCORDO
100
AcDbLine
 62
7
  6
CONTINUOUS
 10
48.798097349
 20
-22.7
 11
93.201902651
 21
-22.7
  0
LINE
  5
33F
100
AcDbEntity
  8
ASSI
100
AcDbLine
 62
250
  6
CONTINUOUS
 10
-34.9334416288
 20
-21.7236692288
 11
-37.4205753527
 21
-21.7254695757
  0
LINE
  5
340
100
AcDbEntity
  8
RACCORDO
100
AcDbLine
 62
250
  6
CONTINUOUS
 10
-66.9777615857
 20
-23.2008919374
 11
-71.6597071161
 21
-23.2020217759
  0
LINE
  5
341
100
AcDbEntity
  8
RACCORDO
100
AcDbLine
 62
250
  6
CONTINUOUS
 10
72.353522462
 20
-23.2019165282
 11
70.1848873234
 21
-23.2020999493
  0
LINE
  5
342
100
AcDbEntity
  8
RACCORDO
100
AcDbLine
 62
250
  6
CONTINUOUS
 10
71.0
 20
-22.8818256987
 11
69.3931833351
 21
-22.8817044898
  0
LINE
  5
343
100
AcDbEntity
  8
RACCORDO
100
AcDbLine
 62
250
  6
CONTINUOUS
 10
69.3931833351
 20
-22.8817044898
 11
67.8783753159
 21
-22.8813419475
  0
LINE
  5
344
100
AcDbEntity
  8
RACCORDO
100
AcDbLine
 62
250
  6
CONTINUOUS
 10
1.6683655794
 20
-23.2019422737
 11
-3.8456777742
 21
-23.2010032726
  0
LINE
  5
345
100
AcDbEntity
  8
RACCORDO
100
AcDbLine
 62
250
  6
CONTINUOUS
 10
70.1848873234
 20
-23.2020999493
 11
67.8772370066
 21
-23.2014074739
  0
LINE
  5
346
100
AcDbEntity
  8
RACCORDO
100
AcDbLine
 62
250
  6
CONTINUOUS
 10
1.667779373
 20
-22.8816989278
 11
-5.2259867554
 21
-22.8803821968
  0
LINE
  5
347
100
AcDbEntity
  8
RACCORDO
100
AcDbLine
 62
250
  6
CONTINUOUS
 10
67.8783753159
 20
-22.8813419475
 11
66.4537139783
 21
-22.8807495082
  0
LINE
  5
348
100
AcDbEntity
  8
RACCORDO
100
AcDbLine
 62
250
  6
CONTINUOUS
 10
-68.5261511738
 20
-22.8815301232
 11
-77.8072009046
 21
-22.8792568517
  0
LINE
  5
349
100
AcDbEntity
  8
RACCORDO
100
AcDbLine
 62
250
  6
CONTINUOUS
 10
-71.6597071161
 20
-23.2020217759
 11
-76.3062510861
 21
-23.1998582038
  0
LINE
  5
34A
100
AcDbEntity
  8
RACCORDO
100
AcDbLine
 62
250
  6
CONTINUOUS
 10
67.8772370066
 20
-23.2014074739
 11
65.7718367158
 21
-23.1999947139
  0
LINE
  5
34B
100
AcDbEntity
  8
RACCORDO
100
AcDbLine
 62
250
  6
CONTINUOUS
 10
66.4537139783
 20
-22.8807495082
 11
63.8458440482
 21
-22.8790208024
  0
LINE
  5
34C
100
AcDbEntity
  8
RACCORDO
100
AcDbLine
 62
250
  6
CONTINUOUS
 10
65.7718367158
 20
-23.1999947139
 11
63.8429962613
 21
-23.1980219994
  0
LINE
  5
34D
100
AcDbEntity
  8
RACCORDO
100
AcDbLine
 62
250
  6
CONTINUOUS
 10
-77.8072009046
 20
-22.8792568517
 11
-83.804329006
 21
-22.8726570391
  0
LINE
  5
34E
100
AcDbEntity
  8
RACCORDO
100
AcDbLine
 62
250
  6
CONTINUOUS
 10
-5.2259867554
 20
-22.8803821968
 11
-12.3481956922
 21
-22.8731275494
  0
LINE
  5
34F
100
AcDbEntity
  8
RACCORDO
100
AcDbLine
 62
250
  6
CONTINUOUS
 10
63.8458440482
 20
-22.8790208024
 11
58.6517344168
 21
-22.8731274496
  0
LINE
  5
350
100
AcDbEntity
  8
ASSI
100
AcDbLine
 62
250
  6
CONTINUOUS
 10
34.9334416288
 20
-21.7236692288
 11
37.4205753527
 21
-21.7254695757
  0
LINE
  5
351
100
AcDbEntity
  8
RACCORDO
100
AcDbLine
 62
250
  6
CONTINUOUS
 10
-3.8456777742
 20
-23.2010032726
 11
-9.5334566344
 21
-23.1946948816
  0
LINE
  5
352
100
AcDbEntity
  8
RACCORDO
100
AcDbLine
 62
250
  6
CONTINUOUS
 10
63.8429962613
 20
-23.1980219994
 11
62.0442237624
 21
-23.1955943038
  0
LINE
  5
353
100
AcDbEntity
  8
RACCORDO
100
AcDbLine
 62
250
  6
CONTINUOUS
 10
62.0442237624
 20
-23.1955943038
 11
60.8942634172
 21
-23.1937495962
  0
LINE
  5
354
100
AcDbEntity
  8
RACCORDO
100
AcDbLine
 62
250
  6
CONTINUOUS
 10
60.8942634172
 20
-23.1937495962
 11
59.765858163
 21
-23.1917240478
  0
LINE
  5
355
100
AcDbEntity
  8
RACCORDO
100
AcDbLine
 62
250
  6
CONTINUOUS
 10
59.765858163
 20
-23.1917240478
 11
58.6468216934
 21
-23.1895100935
  0
LINE
  5
356
100
AcDbEntity
  8
RACCORDO
100
AcDbLine
 62
250
  6
CONTINUOUS
 10
-12.3481956922
 20
-22.8731275494
 11
-18.5177729652
 21
-22.8621882008
  0
LINE
  5
357
100
AcDbEntity
  8
RACCORDO
100
AcDbLine
 62
250
  6
CONTINUOUS
 10
58.6517344168
 20
-22.8731274496
 11
53.0626851798
 21
-22.8634151217
  0
LINE
  5
358
100
AcDbEntity
  8
RACCORDO
100
AcDbLine
 62
250
  6
CONTINUOUS
 10
-9.5334566344
 20
-23.1946948816
 11
-15.6993055033
 21
-23.1817936891
  0
LINE
  5
359
100
AcDbEntity
  8
ASSI
100
AcDbLine
 62
250
  6
CONTINUOUS
 10
-32.3793680918
 20
-21.7283386255
 11
-34.9334416288
 21
-21.7236692288
  0
LINE
  5
35A
100
AcDbEntity
  8
RACCORDO
100
AcDbLine
 62
250
  6
CONTINUOUS
 10
-83.804329006
 20
-22.8726570391
 11
-93.3574585972
 21
-22.8555559462
  0
LINE
  5
35B
100
AcDbEntity
  8
RACCORDO
100
AcDbLine
 62
250
  6
CONTINUOUS
 10
58.6468216934
 20
-23.1895100935
 11
53.0555892483
 21
-23.175852162
  0
LINE
  5
35C
100
AcDbEntity
  8
RACCORDO
100
AcDbLine
 62
250
  6
CONTINUOUS
 10
-18.5177729652
 20
-22.8621882008
 11
-22.3544852088
 21
-22.8525825578
  0
LWPOLYLINE
  5
35D
100
AcDbEntity
  8
RACCORDO
100
AcDbPolyline
 62
250
  6
CONTINUOUS
 90
3
 70
0
 10
53.0626851798
 20
-22.8634151217
 10
49.3354325074
 20
-22.854514793
 10
48.6455147912
 20
-22.8525825578
  0
LINE
  5
35E
100
AcDbEntity
  8
RACCORDO
100
AcDbLine
 62
250
  6
CONTINUOUS
 10
-15.6993055033
 20
-23.1817936891
 11
-22.3645229862
 21
-23.1629561633
  0
LINE
  5
35F
100
AcDbEntity
  8
RACCORDO
100
AcDbLine
 62
250
  6
CONTINUOUS
 10
53.0555892483
 20
-23.175852162
 11
48.6354770138
 21
-23.1629561633
  0
LINE
  5
360
100
AcDbEntity
  8
ASSI
100
AcDbLine
 62
250
  6
CONTINUOUS
 10
37.4205753527
 20
-21.7254695757
 11
40.0101420237
 21
-21.7326812864
  0
LWPOLYLINE
  5
361
100
AcDbEntity
  8
ASSI
100
AcDbPolyline
 62
250
  6
CONTINUOUS
 90
3
 70
0
 10
-25.5000874039
 20
-21.7499997223
 10
-28.3373020654
 20
-21.7421035613
 10
-32.3793680918
 20
-21.7283386255
  0
LINE
  5
362
100
AcDbEntity
  8
ASSI
100
AcDbLine
 62
250
  6
CONTINUOUS
 10
40.0101420237
 20
-21.7326812864
 11
45.4999364024
 21
-21.7499997673
  0
LINE
  5
363
100
AcDbEntity
  8
RACCORDO
100
AcDbLine
 62
250
  6
CONTINUOUS
 10
94.1666263563
 20
-22.3675989179
 11
94.1159288247
 21
-22.3673746916
  0
LINE
  5
364
100
AcDbEntity
  8
RACCORDO
100
AcDbLine
 62
250
  6
CONTINUOUS
 10
-47.837427949
 20
-22.3649778289
 11
-47.8879888591
 21
-22.3647417156
  0
LINE
  5
365
100
AcDbEntity
  8
RACCORDO
100
AcDbLine
 62
250
  6
CONTINUOUS
 10
23.162572051
 20
-22.3649778289
 11
23.1120111409
 21
-22.3647417156
  0
LINE
  5
366
100
AcDbEntity
  8
RACCORDO
100
AcDbLine
 62
250
  6
CONTINUOUS
 10
94.1159288247
 20
-22.3673746916
 11
94.0663332666
 21
-22.3668673917
  0
LINE
  5
367
100
AcDbEntity
  8
RACCORDO
100
AcDbLine
 62
250
  6
CONTINUOUS
 10
-47.8879888591
 20
-22.3647417156
 11
-47.9374242686
 21
-22.3642164718
  0
LINE
  5
368
100
AcDbEntity
  8
RACCORDO
100
AcDbLine
 62
250
  6
CONTINUOUS
 10
23.1120111409
 20
-22.3647417156
 11
23.0625757314
 21
-22.3642164718
  0
LINE
  5
369
100
AcDbEntity
  8
RACCORDO
100
AcDbLine
 62
250
  6
CONTINUOUS
 10
94.0663332666
 20
-22.3668673917
 11
94.0192587893
 21
-22.3660915354
  0
LINE
  5
36A
100
AcDbEntity
  8
RACCORDO
100
AcDbLine
 62
250
  6
CONTINUOUS
 10
-47.9374242686
 20
-22.3642164718
 11
-47.9843267939
 21
-22.3634170525
  0
LINE
  5
36B
100
AcDbEntity
  8
RACCORDO
100
AcDbLine
 62
250
  6
CONTINUOUS
 10
23.0625757314
 20
-22.3642164718
 11
23.0156732061
 21
-22.3634170525
  0
LWPOLYLINE
  5
36C
100
AcDbEntity
  8
RACCORDO
100
AcDbPolyline
 62
250
  6
CONTINUOUS
 90
12
 70
0
 10
94.0192587893
 20
-22.3660915354
 10
93.9760523484
 20
-22.3650693241
 10
93.9562912909
 20
-22.3644747222
 10
93.9379502076
 20
-22.3638300079
 10
93.9211605313
 20
-22.3631398013
 10
93.9060425744
 20
-22.3624090487
 10
93.8927046809
 20
-22.3616429873
 10
93.8812424185
 20
-22.3608471065
 10
93.8717379057
 20
-22.3600271078
 10
93.8642592588
 20
-22.3591888669
 10
93.8588600895
 20
-22.3583383912
 10
93.8555790998
 20
-22.3574817755
  0
LWPOLYLINE
  5
36D
100
AcDbEntity
  8
RACCORDO
100
AcDbPolyline
 62
250
  6
CONTINUOUS
 90
12
 70
0
 10
23.0156732061
 20
-22.3634170525
 10
22.9726388248
 20
-22.3623662178
 10
22.9529603206
 20
-22.3617556112
 10
22.9346977115
 20
-22.361093885
 10
22.9179812057
 20
-22.3603857574
 10
22.9029299855
 20
-22.3596362771
 10
22.889651371
 20
-22.3588507886
 10
22.878240024
 20
-22.358034892
 10
22.8687772852
 20
-22.3571944027
 10
22.8613306282
 20
-22.3563353126
 10
22.855953165
 20
-22.3554637477
 10
22.852683247
 20
-22.3545859218
  0
LWPOLYLINE
  5
36E
100
AcDbEntity
  8
RACCORDO
100
AcDbPolyline
 62
250
  6
CONTINUOUS
 90
25
 70
0
 10
48.6455148311
 20
-22.8525825179
 10
48.613223211
 20
-22.8515397814
 10
48.5810005492
 20
-22.8484085959
 10
48.5489817674
 20
-22.8431871556
 10
48.5172641659
 20
-22.8358732683
 10
48.4860239203
 20
-22.8264873695
 10
48.4555082255
 20
-22.8150967782
 10
48.4258678145
 20
-22.801767964
 10
48.3971985343
 20
-22.7865556478
 10
48.3696491686
 20
-22.7695492408
 10
48.343364057
 20
-22.7508593657
 10
48.3184046027
 20
-22.7305526888
 10
48.2947946217
 20
-22.7086533462
 10
48.2726527059
 20
-22.6852675079
 10
48.252055399
 20
-22.660471462
 10
48.2329934529
 20
-22.6342177852
 10
48.2155304305
 20
-22.6065092469
 10
48.19983487
 20
-22.5775201825
 10
48.1860549172
 20
-22.5474632786
 10
48.1742524169
 20
-22.5164149578
 10
48.164517693
 20
-22.4845493534
 10
48.1569606808
 20
-22.4522602505
 10
48.1515933056
 20
-22.4197831528
 10
48.1483847952
 20
-22.3871778498
 10
48.1473167559
 20
-22.3545858951
  0
LWPOLYLINE
  5
36F
100
AcDbEntity
  8
RACCORDO
100
AcDbPolyline
 62
250
  6
CONTINUOUS
 90
25
 70
0
 10
48.6354770138
 20
-23.1629561633
 10
48.5835456808
 20
-23.1611202473
 10
48.5321462912
 20
-23.1559663138
 10
48.4812788448
 20
-23.1474943627
 10
48.4306739016
 20
-23.1356302876
 10
48.3806009018
 20
-23.1204481949
 10
48.3318681657
 20
-23.1021704042
 10
48.2845439842
 20
-23.0807454889
 10
48.2385600664
 20
-23.0562248755
 10
48.194519861
 20
-23.0289851628
 10
48.1525027377
 20
-22.9990443144
 10
48.1124293268
 20
-22.9663843667
 10
48.0746649672
 20
-22.9313280272
 10
48.0392239564
 20
-22.8939100978
 10
48.0060919968
 20
-22.8540957767
 10
47.9755915355
 20
-22.8121033665
 10
47.947652773
 20
-22.7677758643
 10
47.9223455087
 20
-22.721270273
 10
47.9002015872
 20
-22.673275904
 10
47.8813021421
 20
-22.6236686815
 10
47.8655660398
 20
-22.5725726814
 10
47.8532817249
 20
-22.5210494422
 10
47.8445453455
 20
-22.4694528101
 10
47.8392607536
 20
-22.417428939
 10
47.837427949
 20
-22.3649778288
  0
LINE
  5
370
100
AcDbEntity
  8
ASSI
100
AcDbLine
 62
250
  6
CONTINUOUS
 10
-0.0
 20
42.9051298338
 11
-0.0
 21
42.5903807141
  0
LINE
  5
371
100
AcDbEntity
  8
RACCORDO
100
AcDbLine
 62
250
  6
CONTINUOUS
 10
0.0
 20
42.5903807141
 11
0.0
 21
22.8818418316
  0
LINE
  5
372
100
AcDbEntity
  8
RACCORDO
100
AcDbLine
 62
250
  6
CONTINUOUS
 10
0.0
 20
-42.5903807141
 11
0.0
 21
-22.8818418316
  0
LINE
  5
373
100
AcDbEntity
  8
ASSI
100
AcDbLine
 62
250
  6
CONTINUOUS
 10
0.0
 20
-42.9051298338
 11
0.0
 21
-42.5903807141
  0
LINE
  5
374
100
AcDbEntity
  8
RACCORDO
100
AcDbLine
 62
250
  6
CONTINUOUS
 10
22.3544852088
 20
22.8525825578
 11
22.201902651
 21
22.7
  0
LINE
  5
375
100
AcDbEntity
  8
RACCORDO
100
AcDbLine
 62
250
  6
CONTINUOUS
 10
-22.8526832862
 20
-22.3545859371
 11
-22.7
 21
-22.201902651
  0
LINE
  5
376
100
AcDbEntity
  8
RACCORDO
100
AcDbLine
 62
250
  6
CONTINUOUS
 10
22.8526832862
 20
22.3545859371
 11
22.7
 21
22.201902651
  0
LINE
  5
377
100
AcDbEntity
  8
RACCORDO
100
AcDbLine
 62
250
  6
CONTINUOUS
 10
-22.3544852088
 20
-22.8525825578
 11
-22.201902651
 21
-22.7
  0
LWPOLYLINE
  5
378
100
AcDbEntity
  8
0
100
AcDbPolyline
 62
7
  6
CONTINUOUS
 90
4
 70
0
 43
0.3500000006
 10
120.7714317627
 20
-2.3571432495
 10
119.9142847595
 20
-2.3571432495
 10
119.4857157898
 20
-1.9285708809
 10
119.4857157898
 20
-1.2857140274
  0
LINE
  5
379
100
AcDbEntity
  8
ASSI
100
AcDbLine
 62
250
  6
CONTINUOUS
 10
-113.9051303146
 20
0.0
 11
-113.5903465968
 21
0.0
  0
LINE
  5
37A
100
AcDbEntity
  8
ASSI
100
AcDbLine
 62
250
  6
CONTINUOUS
 10
113.9051303146
 20
0.0
 11
113.5903465968
 21
0.0
  0
LINE
  5
37B
100
AcDbEntity
  8
RACCORDO
100
AcDbLine
 62
250
  6
CONTINUOUS
 10
22.8818532964
 20
0.0
 11
25.5000019929
 21
0.0
  0
LINE
  5
37C
100
AcDbEntity
  8
RACCORDO
100
AcDbLine
 62
250
  6
CONTINUOUS
 10
-22.8818532964
 20
0.0
 11
-25.5000019929
 21
0.0
  0
LINE
  5
37D
100
AcDbEntity
  8
ASSI
100
AcDbLine
 62
250
  6
CONTINUOUS
 10
25.5000005558
 20
0.0
 11
45.5000305206
 21
0.0
  0
LINE
  5
37E
100
AcDbEntity
  8
ASSI
100
AcDbLine
 62
250
  6
CONTINUOUS
 10
-25.5000005558
 20
0.0
 11
-45.5000305206
 21
0.0
  0
LINE
  5
37F
100
AcDbEntity
  8
RACCORDO
100
AcDbLine
 62
250
  6
CONTINUOUS
 10
45.5000290837
 20
0.0
 11
48.1181467036
 21
0.0
  0
LINE
  5
380
100
AcDbEntity
  8
RACCORDO
100
AcDbLine
 62
250
  6
CONTINUOUS
 10
-45.5000290837
 20
0.0
 11
-48.1181467036
 21
0.0
  0
LINE
  5
381
100
AcDbEntity
  8
RACCORDO
100
AcDbLine
 62
250
  6
CONTINUOUS
 10
93.8818155997
 20
0.0
 11
113.5903465968
 21
0.0
  0
LINE
  5
382
100
AcDbEntity
  8
RACCORDO
100
AcDbLine
 62
250
  6
CONTINUOUS
 10
-93.8818155997
 20
0.0
 11
-113.5903465968
 21
0.0
  0
LINE
  5
383
100
AcDbEntity
  8
RACCORDO
100
AcDbLine
 62
250
  6
CONTINUOUS
 10
-22.8526832862
 20
22.3545859371
 11
-22.7
 21
22.201902651
  0
LINE
  5
384
100
AcDbEntity
  8
RACCORDO
100
AcDbLine
 62
250
  6
CONTINUOUS
 10
22.3544852088
 20
-22.8525825578
 11
22.201902651
 21
-22.7
  0
LINE
  5
385
100
AcDbEntity
  8
RACCORDO
100
AcDbLine
 62
250
  6
CONTINUOUS
 10
-22.3544852088
 20
22.8525825578
 11
-22.201902651
 21
22.7
  0
LINE
  5
386
100
AcDbEntity
  8
RACCORDO
100
AcDbLine
 62
250
  6
CONTINUOUS
 10
22.8526832862
 20
-22.3545859371
 11
22.7
 21
-22.201902651
  0
LWPOLYLINE
  5
387
100
AcDbEntity
  8
0
100
AcDbPolyline
 62
7
  6
CONTINUOUS
 90
4
 70
0
 43
0.3500000006
 10
1.1785713937
 20
52.1285708313
 10
1.1785713937
 20
52.9857133026
 10
1.6071428418
 20
53.4142868042
 10
2.2499999785
 20
53.4142868042
  0
LWPOLYLINE
  5
388
100
AcDbEntity
  8
RACCORDO
100
AcDbPolyline
 62
250
  6
CONTINUOUS
 90
11
 70
0
 10
22.3620057318
 20
-22.9727554485
 10
22.3614158754
 20
-22.9530423716
 10
22.3607764986
 20
-22.9347468765
 10
22.3600921698
 20
-22.9179996868
 10
22.3593677787
 20
-22.9029204633
 10
22.358608501
 20
-22.889616949
 10
22.357819762
 20
-22.8781841992
 10
22.3570071973
 20
-22.8687039026
 10
22.3561766127
 20
-22.861243797
 10
22.3553339428
 20
-22.855857186
 10
22.3544852088
 20
-22.8525825578
  0
LINE
  5
389
100
AcDbEntity
  8
RACCORDO
100
AcDbLine
 62
250
  6
CONTINUOUS
 10
22.363020409
 20
-23.0158618158
 11
22.3620057318
 21
-22.9727554485
  0
LINE
  5
38A
100
AcDbEntity
  8
RACCORDO
100
AcDbLine
 62
250
  6
CONTINUOUS
 10
22.3637915821
 20
-23.0628361781
 11
22.363020409
 21
-23.0158618158
  0
LINE
  5
38B
100
AcDbEntity
  8
RACCORDO
100
AcDbLine
 62
250
  6
CONTINUOUS
 10
22.3642972499
 20
-23.1123383838
 11
22.3637915821
 21
-23.0628361781
  0
LINE
  5
38C
100
AcDbEntity
  8
RACCORDO
100
AcDbLine
 62
250
  6
CONTINUOUS
 10
22.3645229862
 20
-23.1629561633
 11
22.3642972499
 21
-23.1123383838
  0
LINE
  5
38D
100
AcDbEntity
  8
RACCORDO
100
AcDbLine
 62
250
  6
CONTINUOUS
 10
23.162572051
 20
22.3649778288
 11
23.1844287002
 21
14.5378760942
  0
LINE
  5
38E
100
AcDbEntity
  8
RACCORDO
100
AcDbLine
 62
250
  6
CONTINUOUS
 10
22.8526832862
 20
22.3545859371
 11
22.8631718825
 21
18.1057152355
  0
LINE
  5
38F
100
AcDbEntity
  8
RACCORDO
100
AcDbLine
 62
250
  6
CONTINUOUS
 10
23.1844287002
 20
14.5378760942
 11
23.1955779173
 21
8.9137511072
  0
LINE
  5
390
100
AcDbEntity
  8
RACCORDO
100
AcDbLine
 62
250
  6
CONTINUOUS
 10
22.8631718825
 20
18.1057152355
 11
22.8743723959
 21
11.4626902328
  0
LINE
  5
391
100
AcDbEntity
  8
RACCORDO
100
AcDbLine
 62
250
  6
CONTINUOUS
 10
22.8743723959
 20
11.4626902328
 11
22.880027172
 21
5.8229381327
  0
LINE
  5
392
100
AcDbEntity
  8
RACCORDO
100
AcDbLine
 62
250
  6
CONTINUOUS
 10
23.1955779173
 20
8.9137511072
 11
23.2007001235
 21
4.2206397075
  0
LINE
  5
393
100
AcDbEntity
  8
RACCORDO
100
AcDbLine
 62
7
  6
CONTINUOUS
 10
22.7
 20
-22.201902651
 11
22.7
 21
22.201902651
  0
LINE
  5
394
100
AcDbEntity
  8
RACCORDO
100
AcDbLine
 62
250
  6
CONTINUOUS
 10
23.2007001235
 20
4.2206397075
 11
23.2005906899
 21
-4.375630075
  0
LINE
  5
395
100
AcDbEntity
  8
RACCORDO
100
AcDbLine
 62
250
  6
CONTINUOUS
 10
22.880027172
 20
5.8229381327
 11
22.8792035653
 21
-6.9531582588
  0
LINE
  5
396
100
AcDbEntity
  8
RACCORDO
100
AcDbLine
 62
250
  6
CONTINUOUS
 10
22.8792035653
 20
-6.9531582588
 11
22.8728101696
 21
-12.5800604057
  0
LINE
  5
397
100
AcDbEntity
  8
RACCORDO
100
AcDbLine
 62
250
  6
CONTINUOUS
 10
23.2005906899
 20
-4.375630075
 11
23.1954472058
 21
-9.0001259605
  0
LINE
  5
398
100
AcDbEntity
  8
RACCORDO
100
AcDbLine
 62
250
  6
CONTINUOUS
 10
22.8728101696
 20
-12.5800604057
 11
22.8629207453
 21
-18.2318098358
  0
LINE
  5
399
100
AcDbEntity
  8
RACCORDO
100
AcDbLine
 62
250
  6
CONTINUOUS
 10
23.1954472058
 20
-9.0001259605
 11
23.1866129253
 21
-13.6077609827
  0
LINE
  5
39A
100
AcDbEntity
  8
RACCORDO
100
AcDbLine
 62
250
  6
CONTINUOUS
 10
22.8629207453
 20
-18.2318098358
 11
22.8526832862
 21
-22.3545859371
  0
LINE
  5
39B
100
AcDbEntity
  8
RACCORDO
100
AcDbLine
 62
250
  6
CONTINUOUS
 10
23.1866129253
 20
-13.6077609827
 11
23.1700478979
 21
-19.9031190281
  0
LINE
  5
39C
100
AcDbEntity
  8
RACCORDO
100
AcDbLine
 62
250
  6
CONTINUOUS
 10
23.1700478979
 20
-19.9031190281
 11
23.162572051
 21
-22.3649778288
  0
LINE
  5
39D
100
AcDbEntity
  8
RACCORDO
100
AcDbLine
 62
250
  6
CONTINUOUS
 10
22.3645229863
 20
23.1629561633
 11
22.3642972641
 21
23.1123380677
  0
LINE
  5
39E
100
AcDbEntity
  8
RACCORDO
100
AcDbLine
 62
250
  6
CONTINUOUS
 10
22.3642972641
 20
23.1123380677
 11
22.3637916041
 21
23.0628356566
  0
LINE
  5
39F
100
AcDbEntity
  8
RACCORDO
100
AcDbLine
 62
250
  6
CONTINUOUS
 10
22.3637916041
 20
23.0628356566
 11
22.3630204345
 21
23.0158612071
  0
LWPOLYLINE
  5
3A0
100
AcDbEntity
  8
RACCORDO
100
AcDbPolyline
 62
250
  6
CONTINUOUS
 90
12
 70
0
 10
22.3630204345
 20
23.0158612071
 10
22.3620057575
 20
22.9727548605
 10
22.3614159002
 20
22.953041826
 10
22.3607765221
 20
22.9347463899
 10
22.3600921917
 20
22.9179992717
 10
22.3593677986
 20
22.9029201252
 10
22.3586085191
 20
22.889616698
 10
22.3578197781
 20
22.8781840301
 10
22.3570072093
 20
22.8687037867
 10
22.3561766179
 20
22.86124371
 10
22.3553339391
 20
22.855857121
 10
22.3544851937
 20
22.8525825179
  0
LWPOLYLINE
  5
3A1
100
AcDbEntity
  8
RACCORDO
100
AcDbPolyline
 62
250
  6
CONTINUOUS
 90
25
 70
0
 10
22.8526832471
 20
-22.354585898
 10
22.8516348873
 20
-22.386870675
 10
22.8484976149
 20
-22.4190861372
 10
22.8432695821
 20
-22.4510973704
 10
22.835948487
 20
-22.482807038
 10
22.8265547874
 20
-22.5140389991
 10
22.8151559712
 20
-22.5445461692
 10
22.8018184684
 20
-22.5741778072
 10
22.7865969851
 20
-22.6028380531
 10
22.7695811705
 20
-22.6303782335
 10
22.750881657
 20
-22.6566540049
 10
22.7305650903
 20
-22.6816039535
 10
22.7086558276
 20
-22.7052043794
 10
22.6852600501
 20
-22.7273366972
 10
22.6604540456
 20
-22.7479243586
 10
22.6341906151
 20
-22.7669767317
 10
22.6064725765
 20
-22.7844302002
 10
22.5774742434
 20
-22.8001163185
 10
22.5474084121
 20
-22.8138872665
 10
22.5163515067
 20
-22.825681196
 10
22.4844776478
 20
-22.835407766
 10
22.4521806873
 20
-22.8429572869
 10
22.4196961447
 20
-22.8483178732
 10
22.3870837847
 20
-22.8515201654
 10
22.3544851658
 20
-22.8525825149
  0
LWPOLYLINE
  5
3A2
100
AcDbEntity
  8
RACCORDO
100
AcDbPolyline
 62
250
  6
CONTINUOUS
 90
25
 70
0
 10
23.162572051
 20
-22.3649778288
 10
23.1607301376
 20
-22.416914778
 10
23.1555699471
 20
-22.4683190785
 10
23.1470914795
 20
-22.5191907305
 10
23.1352205674
 20
-22.5697993052
 10
23.1200313783
 20
-22.6198752312
 10
23.1017464147
 20
-22.6686097946
 10
23.0803141911
 20
-22.7159345459
 10
23.0557861932
 20
-22.7619179345
 10
23.0285393805
 20
-22.8059565946
 10
22.9985916972
 20
-22.847971111
 10
22.9659251991
 20
-22.8880408989
 10
22.9308630142
 20
-22.9258008381
 10
22.8934399256
 20
-22.9612366079
 10
22.8536211501
 20
-22.9943625291
 10
22.8116254657
 20
-23.0248564441
 10
22.7672959929
 20
-23.0527880732
 10
22.7207896113
 20
-23.0780876962
 10
22.6727957369
 20
-23.1002239952
 10
22.6231905082
 20
-23.1191159082
 10
22.5720977867
 20
-23.1348444973
 10
22.5205785737
 20
-23.1471216305
 10
22.4689865361
 20
-23.1558512639
 10
22.4169680069
 20
-23.1611294415
 10
22.3645229862
 20
-23.1629561633
  0
LWPOLYLINE
  5
3A3
100
AcDbEntity
  8
RACCORDO
100
AcDbPolyline
 62
250
  6
CONTINUOUS
 90
11
 70
0
 10
22.9726394205
 20
22.3623662101
 10
22.9529608737
 20
22.3617556047
 10
22.934698205
 20
22.3610938796
 10
22.9179816271
 20
22.3603857529
 10
22.902930329
 20
22.3596362735
 10
22.8896516265
 20
22.3588507852
 10
22.8782401967
 20
22.3580348885
 10
22.8687774032
 20
22.3571944008
 10
22.8613307158
 20
22.3563353146
 10
22.8559532296
 20
22.3554637553
 10
22.8526832862
 20
22.3545859371
  0
LWPOLYLINE
  5
3A4
100
AcDbEntity
  8
RACCORDO
100
AcDbPolyline
 62
250
  6
CONTINUOUS
 90
11
 70
0
 10
-48.0273605795
 20
22.3623662101
 10
-48.0470391263
 20
22.3617556047
 10
-48.065301795
 20
22.3610938796
 10
-48.0820183729
 20
22.3603857529
 10
-48.097069671
 20
22.3596362735
 10
-48.1103483735
 20
22.3588507852
 10
-48.1217598033
 20
22.3580348885
 10
-48.1312225968
 20
22.3571944008
 10
-48.1386692842
 20
22.3563353146
 10
-48.1440467704
 20
22.3554637553
 10
-48.1473167138
 20
22.3545859371
  0
LWPOLYLINE
  5
3A5
100
AcDbEntity
  8
RACCORDO
100
AcDbPolyline
 62
250
  6
CONTINUOUS
 90
11
 70
0
 10
93.9760527748
 20
22.3650692445
 10
93.9562916791
 20
22.3644746422
 10
93.9379505469
 20
22.3638299294
 10
93.9211608142
 20
22.3631397261
 10
93.9060427996
 20
22.3624089786
 10
93.8927048411
 20
22.3616429238
 10
93.88124252
 20
22.3608470512
 10
93.8717379768
 20
22.3600270643
 10
93.8642593214
 20
22.3591888393
 10
93.8588601458
 20
22.3583383832
 10
93.8555791399
 20
22.3574817908
  0
LINE
  5
3A6
100
AcDbEntity
  8
RACCORDO
100
AcDbLine
 62
250
  6
CONTINUOUS
 10
23.0156738221
 20
22.363417043
 11
22.9726394205
 21
22.3623662101
  0
LINE
  5
3A7
100
AcDbEntity
  8
RACCORDO
100
AcDbLine
 62
250
  6
CONTINUOUS
 10
-47.9843261779
 20
22.363417043
 11
-48.0273605795
 21
22.3623662101
  0
LINE
  5
3A8
100
AcDbEntity
  8
RACCORDO
100
AcDbLine
 62
250
  6
CONTINUOUS
 10
94.019259247
 20
22.3660914626
 11
93.9760527748
 21
22.3650692445
  0
LINE
  5
3A9
100
AcDbEntity
  8
RACCORDO
100
AcDbLine
 62
250
  6
CONTINUOUS
 10
23.0625762587
 20
22.3642164619
 11
23.0156738221
 21
22.363417043
  0
LINE
  5
3AA
100
AcDbEntity
  8
RACCORDO
100
AcDbLine
 62
250
  6
CONTINUOUS
 10
-47.9374237413
 20
22.3642164619
 11
-47.9843261779
 21
22.363417043
  0
LINE
  5
3AB
100
AcDbEntity
  8
RACCORDO
100
AcDbLine
 62
250
  6
CONTINUOUS
 10
94.0663336717
 20
22.366867334
 11
94.019259247
 21
22.3660914626
  0
LINE
  5
3AC
100
AcDbEntity
  8
RACCORDO
100
AcDbLine
 62
250
  6
CONTINUOUS
 10
23.1120114603
 20
22.3647417083
 11
23.0625762587
 21
22.3642164619
  0
LINE
  5
3AD
100
AcDbEntity
  8
RACCORDO
100
AcDbLine
 62
250
  6
CONTINUOUS
 10
-47.8879885398
 20
22.3647417083
 11
-47.9374237413
 21
22.3642164619
  0
LINE
  5
3AE
100
AcDbEntity
  8
RACCORDO
100
AcDbLine
 62
250
  6
CONTINUOUS
 10
94.1159290766
 20
22.3673746577
 11
94.0663336717
 21
22.366867334
  0
LINE
  5
3AF
100
AcDbEntity
  8
RACCORDO
100
AcDbLine
 62
250
  6
CONTINUOUS
 10
23.162572051
 20
22.3649778288
 11
23.1120114603
 21
22.3647417083
  0
LINE
  5
3B0
100
AcDbEntity
  8
RACCORDO
100
AcDbLine
 62
250
  6
CONTINUOUS
 10
-47.837427949
 20
22.3649778288
 11
-47.8879885398
 21
22.3647417083
  0
LINE
  5
3B1
100
AcDbEntity
  8
RACCORDO
100
AcDbLine
 62
250
  6
CONTINUOUS
 10
94.1666263563
 20
22.3675989178
 11
94.1159290766
 21
22.3673746577
  0
LINE
  5
3B2
100
AcDbEntity
  8
RACCORDO
100
AcDbLine
 62
250
  6
CONTINUOUS
 10
48.6455147912
 20
22.8525825578
 11
49.8052951674
 21
22.8557995799
  0
LINE
  5
3B3
100
AcDbEntity
  8
ASSI
100
AcDbLine
 62
250
  6
CONTINUOUS
 10
37.4205753527
 20
21.7254695757
 11
44.0859153392
 21
21.7466432824
  0
LINE
  5
3B4
100
AcDbEntity
  8
RACCORDO
100
AcDbLine
 62
250
  6
CONTINUOUS
 10
48.6354770138
 20
23.1629561633
 11
55.3559204218
 21
23.1819317275
  0
LINE
  5
3B5
100
AcDbEntity
  8
RACCORDO
100
AcDbLine
 62
250
  6
CONTINUOUS
 10
-22.3645229862
 20
23.1629561633
 11
-14.5349789577
 21
23.1846488066
  0
LINE
  5
3B6
100
AcDbEntity
  8
ASSI
100
AcDbLine
 62
250
  6
CONTINUOUS
 10
44.0859153392
 20
21.7466432824
 11
45.4999364024
 21
21.7499997673
  0
LINE
  5
3B7
100
AcDbEntity
  8
ASSI
100
AcDbLine
 62
250
  6
CONTINUOUS
 10
-25.5000874039
 20
21.7499997223
 11
-32.3793680918
 21
21.7283386255
  0
LINE
  5
3B8
100
AcDbEntity
  8
RACCORDO
100
AcDbLine
 62
250
  6
CONTINUOUS
 10
55.3559204218
 20
23.1819317275
 11
58.1284182477
 21
23.1884179952
  0
LINE
  5
3B9
100
AcDbEntity
  8
RACCORDO
100
AcDbLine
 62
250
  6
CONTINUOUS
 10
49.8052951674
 20
22.8557995799
 11
54.8080093801
 21
22.8668217905
  0
LINE
  5
3BA
100
AcDbEntity
  8
RACCORDO
100
AcDbLine
 62
250
  6
CONTINUOUS
 10
-22.3544852088
 20
22.8525825578
 11
-16.1912029115
 21
22.8668232506
  0
LINE
  5
3BB
100
AcDbEntity
  8
RACCORDO
100
AcDbLine
 62
250
  6
CONTINUOUS
 10
58.1284182477
 20
23.1884179952
 11
59.2504458558
 21
23.1907286562
  0
LINE
  5
3BC
100
AcDbEntity
  8
RACCORDO
100
AcDbLine
 62
250
  6
CONTINUOUS
 10
59.2504458558
 20
23.1907286562
 11
60.3938980106
 21
23.1928780251
  0
LINE
  5
3BD
100
AcDbEntity
  8
RACCORDO
100
AcDbLine
 62
250
  6
CONTINUOUS
 10
60.3938980106
 20
23.1928780251
 11
61.5760602257
 21
23.194872112
  0
LINE
  5
3BE
100
AcDbEntity
  8
RACCORDO
100
AcDbLine
 62
250
  6
CONTINUOUS
 10
-14.5349789577
 20
23.1846488066
 11
-8.810210441
 21
23.195809242
  0
LINE
  5
3BF
100
AcDbEntity
  8
RACCORDO
100
AcDbLine
 62
250
  6
CONTINUOUS
 10
-93.3574585972
 20
22.8555559462
 11
-82.8402086442
 21
22.8739879514
  0
LINE
  5
3C0
100
AcDbEntity
  8
ASSI
100
AcDbLine
 62
250
  6
CONTINUOUS
 10
-32.3793680918
 20
21.7283386255
 11
-34.9334416288
 21
21.7236692288
  0
LINE
  5
3C1
100
AcDbEntity
  8
RACCORDO
100
AcDbLine
 62
250
  6
CONTINUOUS
 10
54.8080093801
 20
22.8668217905
 11
60.3981453879
 21
22.8754522618
  0
LINE
  5
3C2
100
AcDbEntity
  8
RACCORDO
100
AcDbLine
 62
250
  6
CONTINUOUS
 10
-16.1912029115
 20
22.8668232506
 11
-10.0141855602
 21
22.8761582791
  0
LINE
  5
3C3
100
AcDbEntity
  8
RACCORDO
100
AcDbLine
 62
250
  6
CONTINUOUS
 10
61.5760602257
 20
23.194872112
 11
63.4606778524
 21
23.1975534887
  0
LINE
  5
3C4
100
AcDbEntity
  8
RACCORDO
100
AcDbLine
 62
250
  6
CONTINUOUS
 10
-93.3674761729
 20
23.1667029151
 11
-78.6654670268
 21
23.1973859779
  0
LINE
  5
3C5
100
AcDbEntity
  8
RACCORDO
100
AcDbLine
 62
250
  6
CONTINUOUS
 10
60.3981453879
 20
22.8754522618
 11
63.463687742
 21
22.8786957762
  0
LINE
  5
3C6
100
AcDbEntity
  8
RACCORDO
100
AcDbLine
 62
250
  6
CONTINUOUS
 10
63.4606778524
 20
23.1975534887
 11
65.5111498492
 21
23.1997655977
  0
LINE
  5
3C7
100
AcDbEntity
  8
RACCORDO
100
AcDbLine
 62
250
  6
CONTINUOUS
 10
63.463687742
 20
22.8786957762
 11
64.8105104106
 21
22.8797563138
  0
LINE
  5
3C8
100
AcDbEntity
  8
RACCORDO
100
AcDbLine
 62
250
  6
CONTINUOUS
 10
-82.8402086442
 20
22.8739879514
 11
-77.1230996097
 21
22.8797489954
  0
LINE
  5
3C9
100
AcDbEntity
  8
RACCORDO
100
AcDbLine
 62
250
  6
CONTINUOUS
 10
64.8105104106
 20
22.8797563138
 11
66.2361343247
 21
22.8806378811
  0
LINE
  5
3CA
100
AcDbEntity
  8
RACCORDO
100
AcDbLine
 62
250
  6
CONTINUOUS
 10
-10.0141855602
 20
22.8761582791
 11
-4.0178534129
 21
22.8809950266
  0
LINE
  5
3CB
100
AcDbEntity
  8
RACCORDO
100
AcDbLine
 62
250
  6
CONTINUOUS
 10
-78.6654670268
 20
23.1973859779
 11
-74.2623782197
 21
23.2012390677
  0
LINE
  5
3CC
100
AcDbEntity
  8
RACCORDO
100
AcDbLine
 62
250
  6
CONTINUOUS
 10
65.5111498492
 20
23.1997655977
 11
68.5252644219
 21
23.2016898555
  0
LINE
  5
3CD
100
AcDbEntity
  8
RACCORDO
100
AcDbLine
 62
250
  6
CONTINUOUS
 10
-8.810210441
 20
23.195809242
 11
-1.6683655794
 21
23.2019422737
  0
LINE
  5
3CE
100
AcDbEntity
  8
RACCORDO
100
AcDbLine
 62
250
  6
CONTINUOUS
 10
66.2361343247
 20
22.8806378811
 11
68.5261511738
 21
22.8815301232
  0
LINE
  5
3CF
100
AcDbEntity
  8
ASSI
100
AcDbLine
 62
250
  6
CONTINUOUS
 10
34.9334416288
 20
21.7236692288
 11
37.4205753527
 21
21.7254695757
  0
LINE
  5
3D0
100
AcDbEntity
  8
RACCORDO
100
AcDbLine
 62
7
  6
CONTINUOUS
 10
93.201902651
 20
22.7
 11
48.798097349
 21
22.7
  0
LINE
  5
3D1
100
AcDbEntity
  8
RACCORDO
100
AcDbLine
 62
7
  6
CONTINUOUS
 10
22.201902651
 20
22.7
 11
-22.201902651
 21
22.7
  0
LINE
  5
3D2
100
AcDbEntity
  8
RACCORDO
100
AcDbLine
 62
7
  6
CONTINUOUS
 10
-48.798097349
 20
22.7
 11
-93.201902651
 21
22.7
  0
LINE
  5
3D3
100
AcDbEntity
  8
RACCORDO
100
AcDbLine
 62
250
  6
CONTINUOUS
 10
68.5261511738
 20
22.8815301232
 11
70.1549579494
 21
22.8817934698
  0
LINE
  5
3D4
100
AcDbEntity
  8
RACCORDO
100
AcDbLine
 62
250
  6
CONTINUOUS
 10
-77.1230996097
 20
22.8797489954
 11
-71.0
 21
22.8818256987
  0
LINE
  5
3D5
100
AcDbEntity
  8
RACCORDO
100
AcDbLine
 62
250
  6
CONTINUOUS
 10
68.5252644219
 20
23.2016898555
 11
71.6597071161
 21
23.2020217759
  0
LINE
  5
3D6
100
AcDbEntity
  8
RACCORDO
100
AcDbLine
 62
250
  6
CONTINUOUS
 10
70.1549579494
 20
22.8817934698
 11
73.5296661247
 21
22.8814610682
  0
LINE
  5
3D7
100
AcDbEntity
  8
RACCORDO
100
AcDbLine
 62
250
  6
CONTINUOUS
 10
-74.2623782197
 20
23.2012390677
 11
-68.623196056
 21
23.2017269464
  0
LINE
  5
3D8
100
AcDbEntity
  8
RACCORDO
100
AcDbLine
 62
250
  6
CONTINUOUS
 10
71.6597071161
 20
23.2020217759
 11
72.9252910944
 21
23.2017775858
  0
LINE
  5
3D9
100
AcDbEntity
  8
RACCORDO
100
AcDbLine
 62
250
  6
CONTINUOUS
 10
73.5296661247
 20
22.8814610682
 11
75.2416081572
 21
22.8808263265
  0
LINE
  5
3DA
100
AcDbEntity
  8
RACCORDO
100
AcDbLine
 62
250
  6
CONTINUOUS
 10
-1.6683655794
 20
23.2019422737
 11
3.1225440321
 21
23.2014073667
  0
LINE
  5
3DB
100
AcDbEntity
  8
RACCORDO
100
AcDbLine
 62
250
  6
CONTINUOUS
 10
72.9252910944
 20
23.2017775858
 11
74.1180013941
 21
23.2013110842
  0
LINE
  5
3DC
100
AcDbEntity
  8
RACCORDO
100
AcDbLine
 62
250
  6
CONTINUOUS
 10
-71.0
 20
22.8818256987
 11
-65.1149653834
 21
22.8799667486
  0
LINE
  5
3DD
100
AcDbEntity
  8
RACCORDO
100
AcDbLine
 62
250
  6
CONTINUOUS
 10
-4.0178534129
 20
22.8809950266
 11
5.884882564
 21
22.8799668497
  0
LINE
  5
3DE
100
AcDbEntity
  8
RACCORDO
100
AcDbLine
 62
250
  6
CONTINUOUS
 10
74.1180013941
 20
23.2013110842
 11
75.2432145558
 21
23.2006650498
  0
LINE
  5
3DF
100
AcDbEntity
  8
RACCORDO
100
AcDbLine
 62
250
  6
CONTINUOUS
 10
75.2432145558
 20
23.2006650498
 11
76.3062510861
 21
23.1998582038
  0
LINE
  5
3E0
100
AcDbEntity
  8
RACCORDO
100
AcDbLine
 62
250
  6
CONTINUOUS
 10
75.2416081572
 20
22.8808263265
 11
80.613740769
 21
22.8766807244
  0
LINE
  5
3E1
100
AcDbEntity
  8
RACCORDO
100
AcDbLine
 62
250
  6
CONTINUOUS
 10
76.3062510861
 20
23.1998582038
 11
77.3186347397
 21
23.1989143288
  0
LINE
  5
3E2
100
AcDbEntity
  8
RACCORDO
100
AcDbLine
 62
250
  6
CONTINUOUS
 10
-68.623196056
 20
23.2017269464
 11
-63.8429962613
 21
23.1980219994
  0
LINE
  5
3E3
100
AcDbEntity
  8
RACCORDO
100
AcDbLine
 62
250
  6
CONTINUOUS
 10
3.1225440321
 20
23.2014073667
 11
7.7673799141
 21
23.1972580983
  0
LINE
  5
3E4
100
AcDbEntity
  8
RACCORDO
100
AcDbLine
 62
250
  6
CONTINUOUS
 10
77.3186347397
 20
23.1989143288
 11
78.2922444724
 21
23.197841292
  0
LINE
  5
3E5
100
AcDbEntity
  8
ASSI
100
AcDbLine
 62
250
  6
CONTINUOUS
 10
-34.9334416288
 20
21.7236692288
 11
-37.4205753527
 21
21.7254695757
  0
LINE
  5
3E6
100
AcDbEntity
  8
RACCORDO
100
AcDbLine
 62
250
  6
CONTINUOUS
 10
-65.1149653834
 20
22.8799667486
 11
-58.6517344168
 21
22.8731274496
  0
LINE
  5
3E7
100
AcDbEntity
  8
RACCORDO
100
AcDbLine
 62
250
  6
CONTINUOUS
 10
5.884882564
 20
22.8799668497
 11
11.2295754288
 21
22.8746559276
  0
LINE
  5
3E8
100
AcDbEntity
  8
RACCORDO
100
AcDbLine
 62
250
  6
CONTINUOUS
 10
78.2922444724
 20
23.197841292
 11
79.234962888
 21
23.196641278
  0
LINE
  5
3E9
100
AcDbEntity
  8
RACCORDO
100
AcDbLine
 62
250
  6
CONTINUOUS
 10
79.234962888
 20
23.196641278
 11
80.1591838035
 21
23.1953118648
  0
LINE
  5
3EA
100
AcDbEntity
  8
RACCORDO
100
AcDbLine
 62
250
  6
CONTINUOUS
 10
80.613740769
 20
22.8766807244
 11
87.929276054
 21
22.8661947249
  0
LINE
  5
3EB
100
AcDbEntity
  8
RACCORDO
100
AcDbLine
 62
250
  6
CONTINUOUS
 10
80.1591838035
 20
23.1953118648
 11
81.074949863
 21
23.1938392274
  0
LINE
  5
3EC
100
AcDbEntity
  8
RACCORDO
100
AcDbLine
 62
250
  6
CONTINUOUS
 10
11.2295754288
 20
22.8746559276
 11
16.8068916088
 21
22.8656593479
  0
LINE
  5
3ED
100
AcDbEntity
  8
RACCORDO
100
AcDbLine
 62
250
  6
CONTINUOUS
 10
81.074949863
 20
23.1938392274
 11
81.9867632557
 21
23.1922204251
  0
LINE
  5
3EE
100
AcDbEntity
  8
RACCORDO
100
AcDbLine
 62
250
  6
CONTINUOUS
 10
-63.8429962613
 20
23.1980219994
 11
-58.6468216934
 21
23.1895100935
  0
LINE
  5
3EF
100
AcDbEntity
  8
RACCORDO
100
AcDbLine
 62
250
  6
CONTINUOUS
 10
7.7673799141
 20
23.1972580983
 11
12.3531083892
 21
23.1895102382
  0
LINE
  5
3F0
100
AcDbEntity
  8
RACCORDO
100
AcDbLine
 62
250
  6
CONTINUOUS
 10
-58.6517344168
 20
22.8731274496
 11
-51.2816488635
 21
22.8594994313
  0
LINE
  5
3F1
100
AcDbEntity
  8
RACCORDO
100
AcDbLine
 62
250
  6
CONTINUOUS
 10
88.8635064585
 20
23.1771997145
 11
91.3061964993
 21
23.1719784887
  0
LINE
  5
3F2
100
AcDbEntity
  8
RACCORDO
100
AcDbLine
 62
250
  6
CONTINUOUS
 10
81.9867632557
 20
23.1922204251
 11
88.8635064585
 21
23.1771997145
  0
LINE
  5
3F3
100
AcDbEntity
  8
ASSI
100
AcDbLine
 62
250
  6
CONTINUOUS
 10
32.3793680918
 20
21.7283386255
 11
34.9334416288
 21
21.7236692288
  0
LINE
  5
3F4
100
AcDbEntity
  8
RACCORDO
100
AcDbLine
 62
250
  6
CONTINUOUS
 10
87.929276054
 20
22.8661947249
 11
93.3574585972
 21
22.8555559462
  0
LINE
  5
3F5
100
AcDbEntity
  8
RACCORDO
100
AcDbLine
 62
250
  6
CONTINUOUS
 10
91.3061964993
 20
23.1719784887
 11
92.3283547459
 21
23.1695358008
  0
LWPOLYLINE
  5
3F6
100
AcDbEntity
  8
RACCORDO
100
AcDbPolyline
 62
250
  6
CONTINUOUS
 90
3
 70
0
 10
-51.2816488635
 20
22.8594994313
 10
-49.3354325074
 20
22.854514793
 10
-48.6455147912
 20
22.8525825578
  0
LWPOLYLINE
  5
3F7
100
AcDbEntity
  8
RACCORDO
100
AcDbPolyline
 62
250
  6
CONTINUOUS
 90
3
 70
0
 10
16.8068916088
 20
22.8656593479
 10
21.6645628859
 20
22.8545148052
 10
22.3544852088
 20
22.8525825578
  0
LINE
  5
3F8
100
AcDbEntity
  8
RACCORDO
100
AcDbLine
 62
250
  6
CONTINUOUS
 10
-58.6468216934
 20
23.1895100935
 11
-51.8806947871
 21
23.1725520977
  0
LINE
  5
3F9
100
AcDbEntity
  8
RACCORDO
100
AcDbLine
 62
250
  6
CONTINUOUS
 10
12.3531083892
 20
23.1895102382
 11
17.9443836386
 21
23.1758522368
  0
LINE
  5
3FA
100
AcDbEntity
  8
RACCORDO
100
AcDbLine
 62
250
  6
CONTINUOUS
 10
92.3283547459
 20
23.1695358008
 11
93.3674761729
 21
23.1667029151
  0
LWPOLYLINE
  5
3FB
100
AcDbEntity
  8
ASSI
100
AcDbPolyline
 62
250
  6
CONTINUOUS
 90
3
 70
0
 10
-37.4205753527
 20
21.7254695757
 10
-40.0101420237
 20
21.7326812864
 10
-45.4999364024
 20
21.7499997673
  0
LINE
  5
3FC
100
AcDbEntity
  8
RACCORDO
100
AcDbLine
 62
250
  6
CONTINUOUS
 10
-51.8806947871
 20
23.1725520977
 11
-48.6354770138
 21
23.1629561633
  0
LINE
  5
3FD
100
AcDbEntity
  8
RACCORDO
100
AcDbLine
 62
250
  6
CONTINUOUS
 10
17.9443836386
 20
23.1758522368
 11
22.3645229862
 21
23.1629561633
  0
LWPOLYLINE
  5
3FE
100
AcDbEntity
  8
ASSI
100
AcDbPolyline
 62
250
  6
CONTINUOUS
 90
3
 70
0
 10
25.5000874039
 20
21.7499997223
 10
28.3373020654
 20
21.7421035613
 10
32.3793680918
 20
21.7283386255
  0
LINE
  5
3FF
100
AcDbEntity
  8
RACCORDO
100
AcDbLine
 62
250
  6
CONTINUOUS
 10
-94.1666263563
 20
22.3675989179
 11
-94.1159288247
 21
22.3673746916
  0
LINE
  5
400
100
AcDbEntity
  8
RACCORDO
100
AcDbLine
 62
250
  6
CONTINUOUS
 10
-23.162572051
 20
22.3649778289
 11
-23.1120111409
 21
22.3647417156
  0
LINE
  5
401
100
AcDbEntity
  8
RACCORDO
100
AcDbLine
 62
250
  6
CONTINUOUS
 10
47.837427949
 20
22.3649778289
 11
47.8879888591
 21
22.3647417156
  0
LINE
  5
402
100
AcDbEntity
  8
RACCORDO
100
AcDbLine
 62
250
  6
CONTINUOUS
 10
-94.1159288247
 20
22.3673746916
 11
-94.0663332666
 21
22.3668673917
  0
LINE
  5
403
100
AcDbEntity
  8
RACCORDO
100
AcDbLine
 62
250
  6
CONTINUOUS
 10
-23.1120111409
 20
22.3647417156
 11
-23.0625757314
 21
22.3642164718
  0
LINE
  5
404
100
AcDbEntity
  8
RACCORDO
100
AcDbLine
 62
250
  6
CONTINUOUS
 10
47.8879888591
 20
22.3647417156
 11
47.9374242686
 21
22.3642164718
  0
LINE
  5
405
100
AcDbEntity
  8
RACCORDO
100
AcDbLine
 62
250
  6
CONTINUOUS
 10
-94.0663332666
 20
22.3668673917
 11
-94.0192587893
 21
22.3660915354
  0
LINE
  5
406
100
AcDbEntity
  8
RACCORDO
100
AcDbLine
 62
250
  6
CONTINUOUS
 10
-23.0625757314
 20
22.3642164718
 11
-23.0156732061
 21
22.3634170525
  0
LINE
  5
407
100
AcDbEntity
  8
RACCORDO
100
AcDbLine
 62
250
  6
CONTINUOUS
 10
47.9374242686
 20
22.3642164718
 11
47.9843267939
 21
22.3634170525
  0
LWPOLYLINE
  5
408
100
AcDbEntity
  8
RACCORDO
100
AcDbPolyline
 62
250
  6
CONTINUOUS
 90
12
 70
0
 10
-94.0192587893
 20
22.3660915354
 10
-93.9760523484
 20
22.3650693241
 10
-93.9562912909
 20
22.3644747222
 10
-93.9379502076
 20
22.3638300079
 10
-93.9211605313
 20
22.3631398013
 10
-93.9060425744
 20
22.3624090487
 10
-93.8927046809
 20
22.3616429873
 10
-93.8812424185
 20
22.3608471065
 10
-93.8717379057
 20
22.3600271078
 10
-93.8642592588
 20
22.3591888669
 10
-93.8588600895
 20
22.3583383912
 10
-93.8555790998
 20
22.3574817755
  0
LWPOLYLINE
  5
409
100
AcDbEntity
  8
RACCORDO
100
AcDbPolyline
 62
250
  6
CONTINUOUS
 90
12
 70
0
 10
-23.0156732061
 20
22.3634170525
 10
-22.9726388248
 20
22.3623662178
 10
-22.9529603206
 20
22.3617556112
 10
-22.9346977115
 20
22.361093885
 10
-22.9179812057
 20
22.3603857574
 10
-22.9029299855
 20
22.3596362771
 10
-22.889651371
 20
22.3588507886
 10
-22.878240024
 20
22.358034892
 10
-22.8687772852
 20
22.3571944027
 10
-22.8613306282
 20
22.3563353126
 10
-22.855953165
 20
22.3554637477
 10
-22.852683247
 20
22.3545859218
  0
LWPOLYLINE
  5
40A
100
AcDbEntity
  8
RACCORDO
100
AcDbPolyline
 62
250
  6
CONTINUOUS
 90
12
 70
0
 10
47.9843267939
 20
22.3634170525
 10
48.0273611752
 20
22.3623662178
 10
48.0470396794
 20
22.3617556112
 10
48.0653022885
 20
22.361093885
 10
48.0820187943
 20
22.3603857574
 10
48.0970700145
 20
22.3596362771
 10
48.110348629
 20
22.3588507886
 10
48.121759976
 20
22.358034892
 10
48.1312227148
 20
22.3571944027
 10
48.1386693718
 20
22.3563353126
 10
48.144046835
 20
22.3554637477
 10
48.147316753
 20
22.3545859218
  0
LWPOLYLINE
  5
40B
100
AcDbEntity
  8
RACCORDO
100
AcDbPolyline
 62
250
  6
CONTINUOUS
 90
25
 70
0
 10
-48.6455148311
 20
22.8525825179
 10
-48.613223211
 20
22.8515397814
 10
-48.5810005492
 20
22.8484085959
 10
-48.5489817674
 20
22.8431871556
 10
-48.5172641659
 20
22.8358732683
 10
-48.4860239203
 20
22.8264873695
 10
-48.4555082255
 20
22.8150967782
 10
-48.4258678145
 20
22.801767964
 10
-48.3971985343
 20
22.7865556478
 10
-48.3696491686
 20
22.7695492408
 10
-48.343364057
 20
22.7508593657
 10
-48.3184046027
 20
22.7305526888
 10
-48.2947946217
 20
22.7086533462
 10
-48.2726527059
 20
22.6852675079
 10
-48.252055399
 20
22.660471462
 10
-48.2329934529
 20
22.6342177852
 10
-48.2155304305
 20
22.6065092469
 10
-48.19983487
 20
22.5775201825
 10
-48.1860549172
 20
22.5474632786
 10
-48.1742524169
 20
22.5164149578
 10
-48.164517693
 20
22.4845493534
 10
-48.1569606808
 20
22.4522602505
 10
-48.1515933056
 20
22.4197831528
 10
-48.1483847952
 20
22.3871778498
 10
-48.1473167559
 20
22.3545858951
  0
LWPOLYLINE
  5
40C
100
AcDbEntity
  8
RACCORDO
100
AcDbPolyline
 62
250
  6
CONTINUOUS
 90
25
 70
0
 10
22.3544851689
 20
22.8525825179
 10
22.386776789
 20
22.8515397814
 10
22.4189994508
 20
22.8484085959
 10
22.4510182326
 20
22.8431871556
 10
22.4827358341
 20
22.8358732683
 10
22.5139760797
 20
22.8264873695
 10
22.5444917745
 20
22.8150967782
 10
22.5741321855
 20
22.801767964
 10
22.6028014657
 20
22.7865556478
 10
22.6303508314
 20
22.7695492408
 10
22.656635943
 20
22.7508593657
 10
22.6815953973
 20
22.7305526888
 10
22.7052053783
 20
22.7086533462
 10
22.7273472941
 20
22.6852675079
 10
22.747944601
 20
22.660471462
 10
22.7670065471
 20
22.6342177852
 10
22.7844695695
 20
22.6065092469
 10
22.80016513
 20
22.5775201825
 10
22.8139450828
 20
22.5474632786
 10
22.8257475831
 20
22.5164149578
 10
22.835482307
 20
22.4845493534
 10
22.8430393192
 20
22.4522602505
 10
22.8484066944
 20
22.4197831528
 10
22.8516152048
 20
22.3871778498
 10
22.8526832441
 20
22.3545858951
  0
LWPOLYLINE
  5
40D
100
AcDbEntity
  8
RACCORDO
100
AcDbPolyline
 62
250
  6
CONTINUOUS
 90
25
 70
0
 10
-48.6354770138
 20
23.1629561633
 10
-48.5835456808
 20
23.1611202473
 10
-48.5321462912
 20
23.1559663138
 10
-48.4812788448
 20
23.1474943627
 10
-48.4306739016
 20
23.1356302876
 10
-48.3806009018
 20
23.1204481949
 10
-48.3318681657
 20
23.1021704042
 10
-48.2845439842
 20
23.0807454889
 10
-48.2385600664
 20
23.0562248755
 10
-48.194519861
 20
23.0289851628
 10
-48.1525027377
 20
22.9990443144
 10
-48.1124293268
 20
22.9663843667
 10
-48.0746649672
 20
22.9313280272
 10
-48.0392239564
 20
22.8939100978
 10
-48.0060919968
 20
22.8540957767
 10
-47.9755915355
 20
22.8121033665
 10
-47.947652773
 20
22.7677758643
 10
-47.9223455087
 20
22.721270273
 10
-47.9002015872
 20
22.673275904
 10
-47.8813021421
 20
22.6236686815
 10
-47.8655660398
 20
22.5725726814
 10
-47.8532817249
 20
22.5210494422
 10
-47.8445453455
 20
22.4694528101
 10
-47.8392607536
 20
22.417428939
 10
-47.837427949
 20
22.3649778288
  0
LWPOLYLINE
  5
40E
100
AcDbEntity
  8
RACCORDO
100
AcDbPolyline
 62
250
  6
CONTINUOUS
 90
25
 70
0
 10
22.3645229862
 20
23.1629561633
 10
22.4164543192
 20
23.1611202473
 10
22.4678537088
 20
23.1559663138
 10
22.5187211552
 20
23.1474943627
 10
22.5693260984
 20
23.1356302876
 10
22.6193990982
 20
23.1204481949
 10
22.6681318343
 20
23.1021704042
 10
22.7154560158
 20
23.0807454889
 10
22.7614399336
 20
23.0562248755
 10
22.805480139
 20
23.0289851628
 10
22.8474972623
 20
22.9990443144
 10
22.8875706732
 20
22.9663843667
 10
22.9253350328
 20
22.9313280272
 10
22.9607760436
 20
22.8939100978
 10
22.9939080032
 20
22.8540957767
 10
23.0244084645
 20
22.8121033665
 10
23.052347227
 20
22.7677758643
 10
23.0776544913
 20
22.721270273
 10
23.0997984128
 20
22.673275904
 10
23.1186978579
 20
22.6236686815
 10
23.1344339602
 20
22.5725726814
 10
23.1467182751
 20
22.5210494422
 10
23.1554546545
 20
22.4694528101
 10
23.1607392464
 20
22.417428939
 10
23.162572051
 20
22.3649778288
  0
LWPOLYLINE
  5
40F
100
AcDbEntity
  8
ASSI
100
AcDbPolyline
 62
250
  6
CONTINUOUS
 90
4
 70
0
 10
25.4981821808
 20
42.9056389928
 10
25.4983433615
 20
42.9029850893
 10
25.4985034629
 20
42.897137041
 10
25.4986614581
 20
42.888132476
  0
LINE
  5
410
100
AcDbEntity
  8
ASSI
100
AcDbLine
 62
250
  6
CONTINUOUS
 10
25.4986614581
 20
42.888132476
 11
25.4989670979
 21
42.8609053223
  0
LINE
  5
411
100
AcDbEntity
  8
ASSI
100
AcDbLine
 62
250
  6
CONTINUOUS
 10
25.4989670979
 20
42.8609053223
 11
25.499626576
 21
42.7440141044
  0
LINE
  5
412
100
AcDbEntity
  8
ASSI
100
AcDbLine
 62
250
  6
CONTINUOUS
 10
25.4994882858
 20
-42.7723410417
 11
25.499626576
 21
42.7440141044
  0
LINE
  5
413
100
AcDbEntity
  8
ASSI
100
AcDbLine
 62
250
  6
CONTINUOUS
 10
25.4989528518
 20
-42.8608547781
 11
25.4994882858
 21
-42.7723410417
  0
LWPOLYLINE
  5
414
100
AcDbEntity
  8
ASSI
100
AcDbPolyline
 62
250
  6
CONTINUOUS
 90
5
 70
0
 10
25.4981809856
 20
-42.9056012956
 10
25.4983393193
 20
-42.9029468681
 10
25.4984966788
 20
-42.897097362
 10
25.4986520512
 20
-42.8880903087
 10
25.4989528518
 20
-42.8608547781
  0
LWPOLYLINE
  5
415
100
AcDbEntity
  8
RACCORDO
100
AcDbPolyline
 62
250
  6
CONTINUOUS
 90
25
 70
0
 10
93.3574585569
 20
22.8555559059
 10
93.3897537927
 20
22.8545130667
 10
93.4219797066
 20
22.8513808661
 10
93.4540013295
 20
22.8461574775
 10
93.48572136
 20
22.8388406467
 10
93.5169635167
 20
22.8294508335
 10
93.5474804098
 20
22.818055519
 10
93.5771212244
 20
22.8047212242
 10
93.6057901274
 20
22.7895027112
 10
93.6333383167
 20
22.7724896071
 10
93.6596212588
 20
22.7537927588
 10
93.6845777528
 20
22.7334787661
 10
93.7081845045
 20
22.7115714725
 10
93.7303234131
 20
22.6881764073
 10
93.7509172079
 20
22.6633703986
 10
93.7699740257
 20
22.6371076577
 10
93.787430302
 20
22.6093914822
 10
93.8031180035
 20
22.580396106
 10
93.8168890785
 20
22.5503351634
 10
93.8286819333
 20
22.5192857363
 10
93.8384069442
 20
22.4874215968
 10
93.8459549395
 20
22.4551358737
 10
93.8513143746
 20
22.4226637841
 10
93.8545162007
 20
22.3900652636
 10
93.8555790968
 20
22.3574817478
  0
LWPOLYLINE
  5
416
100
AcDbEntity
  8
RACCORDO
100
AcDbPolyline
 62
250
  6
CONTINUOUS
 90
25
 70
0
 10
93.3674761729
 20
23.1667029151
 10
93.4194929584
 20
23.1648629452
 10
93.4709764983
 20
23.1596994321
 10
93.5219267862
 20
23.1512123697
 10
93.5726140942
 20
23.1393274158
 10
93.6227681382
 20
23.1241189005
 10
93.6715780784
 20
23.1058098255
 10
93.7189749919
 20
23.0843486488
 10
93.7650277909
 20
23.0597869015
 10
93.8091323884
 20
23.0325021957
 10
93.8512090456
 20
23.0025128455
 10
93.8913374952
 20
22.9698005307
 10
93.9291528592
 20
22.934687913
 10
93.9646415874
 20
22.8972087766
 10
93.9978172297
 20
22.8573293371
 10
94.0283555601
 20
22.8152709048
 10
94.0563256001
 20
22.7708766092
 10
94.0816583338
 20
22.7243033265
 10
94.1038224804
 20
22.676242989
 10
94.1227364474
 20
22.6265720995
 10
94.1384818386
 20
22.5754141666
 10
94.1507721681
 20
22.5238316322
 10
94.1595119447
 20
22.4721786477
 10
94.164796672
 20
22.4201010741
 10
94.1666263563
 20
22.3675989178
  0
LWPOLYLINE
  5
417
100
AcDbEntity
  8
ASSI
100
AcDbPolyline
 62
250
  6
CONTINUOUS
 90
4
 70
0
 10
45.5018575871
 20
-42.9056389906
 10
45.5016963984
 20
-42.9029850883
 10
45.5015362893
 20
-42.8971370431
 10
45.5013782865
 20
-42.8881324829
  0
LWPOLYLINE
  5
418
100
AcDbEntity
  8
RACCORDO
100
AcDbPolyline
 62
250
  6
CONTINUOUS
 90
11
 70
0
 10
48.6379942682
 20
22.9727554485
 10
48.6385841246
 20
22.9530423716
 10
48.6392235014
 20
22.9347468765
 10
48.6399078302
 20
22.9179996868
 10
48.6406322213
 20
22.9029204633
 10
48.641391499
 20
22.889616949
 10
48.642180238
 20
22.8781841992
 10
48.6429928027
 20
22.8687039026
 10
48.6438233873
 20
22.861243797
 10
48.6446660572
 20
22.855857186
 10
48.6455147912
 20
22.8525825578
  0
LINE
  5
419
100
AcDbEntity
  8
RACCORDO
100
AcDbLine
 62
250
  6
CONTINUOUS
 10
48.636979591
 20
23.0158618158
 11
48.6379942682
 21
22.9727554485
  0
LINE
  5
41A
100
AcDbEntity
  8
RACCORDO
100
AcDbLine
 62
250
  6
CONTINUOUS
 10
48.6362084179
 20
23.0628361781
 11
48.636979591
 21
23.0158618158
  0
LINE
  5
41B
100
AcDbEntity
  8
ASSI
100
AcDbLine
 62
250
  6
CONTINUOUS
 10
45.5013782865
 20
-42.8881324829
 11
45.5010726324
 21
-42.860905344
  0
LINE
  5
41C
100
AcDbEntity
  8
RACCORDO
100
AcDbLine
 62
250
  6
CONTINUOUS
 10
48.6357027501
 20
23.1123383838
 11
48.6362084179
 21
23.0628361781
  0
LINE
  5
41D
100
AcDbEntity
  8
ASSI
100
AcDbLine
 62
250
  6
CONTINUOUS
 10
45.5010726324
 20
-42.860905344
 11
45.5004131249
 21
-42.7440141879
  0
LINE
  5
41E
100
AcDbEntity
  8
RACCORDO
100
AcDbLine
 62
250
  6
CONTINUOUS
 10
48.6354770138
 20
23.1629561633
 11
48.6357027501
 21
23.1123383838
  0
LINE
  5
41F
100
AcDbEntity
  8
RACCORDO
100
AcDbLine
 62
250
  6
CONTINUOUS
 10
47.837427949
 20
-22.3649778288
 11
47.8193974136
 21
-16.0694966874
  0
LINE
  5
420
100
AcDbEntity
  8
RACCORDO
100
AcDbLine
 62
250
  6
CONTINUOUS
 10
48.1473167138
 20
-22.3545859371
 11
48.1378899692
 21
-18.6189895175
  0
LINE
  5
421
100
AcDbEntity
  8
RACCORDO
100
AcDbLine
 62
250
  6
CONTINUOUS
 10
47.8193974136
 20
-16.0694966874
 11
47.8078613067
 21
-10.9560342943
  0
LINE
  5
422
100
AcDbEntity
  8
RACCORDO
100
AcDbLine
 62
250
  6
CONTINUOUS
 10
48.1378899692
 20
-18.6189895175
 11
48.1278089894
 21
-12.9976847252
  0
LINE
  5
423
100
AcDbEntity
  8
RACCORDO
100
AcDbLine
 62
250
  6
CONTINUOUS
 10
47.8078613067
 20
-10.9560342943
 11
47.8011396321
 21
-6.3443360476
  0
LINE
  5
424
100
AcDbEntity
  8
RACCORDO
100
AcDbLine
 62
250
  6
CONTINUOUS
 10
48.1278089894
 20
-12.9976847252
 11
48.1211435306
 21
-7.3739137607
  0
LINE
  5
425
100
AcDbEntity
  8
RACCORDO
100
AcDbLine
 62
250
  6
CONTINUOUS
 10
47.8011396321
 20
-6.3443360476
 11
47.7981718267
 21
-1.9121299325
  0
LINE
  5
426
100
AcDbEntity
  8
RACCORDO
100
AcDbLine
 62
250
  6
CONTINUOUS
 10
48.1211435306
 20
-7.3739137607
 11
48.1183309405
 21
-1.911455414
  0
LINE
  5
427
100
AcDbEntity
  8
RACCORDO
100
AcDbLine
 62
7
  6
CONTINUOUS
 10
48.3
 20
22.201902651
 11
48.3
 21
-22.201902651
  0
LINE
  5
428
100
AcDbEntity
  8
RACCORDO
100
AcDbLine
 62
250
  6
CONTINUOUS
 10
47.7981718267
 20
-1.9121299325
 11
47.7987572539
 21
3.3228052648
  0
LINE
  5
429
100
AcDbEntity
  8
RACCORDO
100
AcDbLine
 62
250
  6
CONTINUOUS
 10
48.1183309405
 20
-1.911455414
 11
48.1194178807
 21
4.8948276148
  0
LINE
  5
42A
100
AcDbEntity
  8
RACCORDO
100
AcDbLine
 62
250
  6
CONTINUOUS
 10
48.1194178807
 20
4.8948276148
 11
48.1250780189
 21
11.0436946288
  0
LINE
  5
42B
100
AcDbEntity
  8
RACCORDO
100
AcDbLine
 62
250
  6
CONTINUOUS
 10
47.7987572539
 20
3.3228052648
 11
47.8037995572
 21
8.4890030686
  0
LINE
  5
42C
100
AcDbEntity
  8
RACCORDO
100
AcDbLine
 62
250
  6
CONTINUOUS
 10
48.1250780189
 20
11.0436946288
 11
48.1360176773
 21
17.7033261245
  0
LINE
  5
42D
100
AcDbEntity
  8
RACCORDO
100
AcDbLine
 62
250
  6
CONTINUOUS
 10
47.8037995572
 20
8.4890030686
 11
47.8133870747
 21
13.6077609784
  0
LINE
  5
42E
100
AcDbEntity
  8
RACCORDO
100
AcDbLine
 62
250
  6
CONTINUOUS
 10
47.8133870747
 20
13.6077609784
 11
47.8335107591
 21
21.0960677735
  0
LINE
  5
42F
100
AcDbEntity
  8
RACCORDO
100
AcDbLine
 62
250
  6
CONTINUOUS
 10
48.1360176773
 20
17.7033261245
 11
48.1473167138
 21
22.3545859371
  0
LINE
  5
430
100
AcDbEntity
  8
RACCORDO
100
AcDbLine
 62
250
  6
CONTINUOUS
 10
47.8335107591
 20
21.0960677735
 11
47.837427949
 21
22.3649778288
  0
LINE
  5
431
100
AcDbEntity
  8
ASSI
100
AcDbLine
 62
250
  6
CONTINUOUS
 10
45.5005514694
 20
42.7723410992
 11
45.5004131249
 21
-42.7440141879
  0
LINE
  5
432
100
AcDbEntity
  8
RACCORDO
100
AcDbLine
 62
250
  6
CONTINUOUS
 10
48.6354770137
 20
-23.1629561633
 11
48.6357027359
 21
-23.1123380677
  0
LINE
  5
433
100
AcDbEntity
  8
ASSI
100
AcDbLine
 62
250
  6
CONTINUOUS
 10
45.5010869082
 20
42.8608547948
 11
45.5005514694
 21
42.7723410992
  0
LINE
  5
434
100
AcDbEntity
  8
RACCORDO
100
AcDbLine
 62
250
  6
CONTINUOUS
 10
48.6357027359
 20
-23.1123380677
 11
48.6362083959
 21
-23.0628356566
  0
LINE
  5
435
100
AcDbEntity
  8
RACCORDO
100
AcDbLine
 62
250
  6
CONTINUOUS
 10
48.6362083959
 20
-23.0628356566
 11
48.6369795655
 21
-23.0158612071
  0
LWPOLYLINE
  5
436
100
AcDbEntity
  8
RACCORDO
100
AcDbPolyline
 62
250
  6
CONTINUOUS
 90
12
 70
0
 10
48.6369795655
 20
-23.0158612071
 10
48.6379942425
 20
-22.9727548605
 10
48.6385840998
 20
-22.953041826
 10
48.6392234779
 20
-22.9347463899
 10
48.6399078083
 20
-22.9179992717
 10
48.6406322014
 20
-22.9029201252
 10
48.6413914809
 20
-22.889616698
 10
48.6421802219
 20
-22.8781840301
 10
48.6429927907
 20
-22.8687037867
 10
48.6438233821
 20
-22.86124371
 10
48.6446660609
 20
-22.855857121
 10
48.6455148063
 20
-22.8525825179
  0
LWPOLYLINE
  5
437
100
AcDbEntity
  8
RACCORDO
100
AcDbPolyline
 62
250
  6
CONTINUOUS
 90
25
 70
0
 10
48.1473167529
 20
22.354585898
 10
48.1483651127
 20
22.386870675
 10
48.1515023851
 20
22.4190861372
 10
48.1567304179
 20
22.4510973704
 10
48.164051513
 20
22.482807038
 10
48.1734452126
 20
22.5140389991
 10
48.1848440288
 20
22.5445461692
 10
48.1981815316
 20
22.5741778072
 10
48.2134030149
 20
22.6028380531
 10
48.2304188295
 20
22.6303782335
 10
48.249118343
 20
22.6566540049
 10
48.2694349097
 20
22.6816039535
 10
48.2913441724
 20
22.7052043794
 10
48.3147399499
 20
22.7273366972
 10
48.3395459544
 20
22.7479243586
 10
48.3658093849
 20
22.7669767317
 10
48.3935274235
 20
22.7844302002
 10
48.4225257566
 20
22.8001163185
 10
48.4525915879
 20
22.8138872665
 10
48.4836484933
 20
22.825681196
 10
48.5155223522
 20
22.835407766
 10
48.5478193127
 20
22.8429572869
 10
48.5803038553
 20
22.8483178732
 10
48.6129162153
 20
22.8515201654
 10
48.6455148342
 20
22.8525825149
  0
LWPOLYLINE
  5
438
100
AcDbEntity
  8
RACCORDO
100
AcDbPolyline
 62
250
  6
CONTINUOUS
 90
25
 70
0
 10
47.837427949
 20
22.3649778288
 10
47.8392698624
 20
22.416914778
 10
47.8444300529
 20
22.4683190785
 10
47.8529085205
 20
22.5191907305
 10
47.8647794326
 20
22.5697993052
 10
47.8799686217
 20
22.6198752312
 10
47.8982535853
 20
22.6686097946
 10
47.9196858089
 20
22.7159345459
 10
47.9442138068
 20
22.7619179345
 10
47.9714606195
 20
22.8059565946
 10
48.0014083028
 20
22.847971111
 10
48.0340748009
 20
22.8880408989
 10
48.0691369858
 20
22.9258008381
 10
48.1065600744
 20
22.9612366079
 10
48.1463788499
 20
22.9943625291
 10
48.1883745343
 20
23.0248564441
 10
48.2327040071
 20
23.0527880732
 10
48.2792103887
 20
23.0780876962
 10
48.3272042631
 20
23.1002239952
 10
48.3768094918
 20
23.1191159082
 10
48.4279022133
 20
23.1348444973
 10
48.4794214263
 20
23.1471216305
 10
48.5310134639
 20
23.1558512639
 10
48.5830319931
 20
23.1611294415
 10
48.6354770138
 20
23.1629561633
  0
LWPOLYLINE
  5
439
100
AcDbEntity
  8
ASSI
100
AcDbPolyline
 62
250
  6
CONTINUOUS
 90
5
 70
0
 10
45.5018587788
 20
42.9056012915
 10
45.5017004445
 20
42.9029468651
 10
45.5015430841
 20
42.8970973616
 10
45.5013877109
 20
42.8880903125
 10
45.5010869082
 20
42.8608547948
  0
LINE
  5
43A
100
AcDbEntity
  8
ASSI
100
AcDbLine
 62
250
  6
CONTINUOUS
 10
113.1095266639
 20
42.9092525239
 11
113.15027414
 21
42.95
  0
LWPOLYLINE
  5
43B
100
AcDbEntity
  8
ASSI
100
AcDbPolyline
 62
250
  6
CONTINUOUS
 90
25
 70
0
 10
-113.1357093924
 20
42.4454534597
 10
-113.1537479165
 20
42.4442820412
 10
-113.1720663837
 20
42.4417807476
 10
-113.1906645046
 20
42.437949267
 10
-113.209783981
 20
42.4327360795
 10
-113.2291824566
 20
42.4261920084
 10
-113.2481336572
 20
42.4184703421
 10
-113.2664716317
 20
42.409577297
 10
-113.2843619428
 20
42.3995061908
 10
-113.3015757913
 20
42.38839115
 10
-113.3181031439
 20
42.3762205587
 10
-113.3339538272
 20
42.3630057567
 10
-113.3489289937
 20
42.3489154644
 10
-113.3630186973
 20
42.33393964
 10
-113.3762329171
 20
42.3180882917
 10
-113.3884028642
 20
42.3015603854
 10
-113.3995171574
 20
42.2843461104
 10
-113.4095874539
 20
42.2664554833
 10
-113.4184796825
 20
42.2481173717
 10
-113.4261798693
 20
42.2293172821
 10
-113.4327024673
 20
42.2100701116
 10
-113.4379561727
 20
42.1906489462
 10
-113.4419107724
 20
42.1711450142
 10
-113.4445970886
 20
42.1514676252
 10
-113.4460154175
 20
42.1316170392
  0
LWPOLYLINE
  5
43C
100
AcDbEntity
  8
ASSI
100
AcDbPolyline
 62
250
  6
CONTINUOUS
 90
5
 70
0
 10
-113.1357093924
 20
42.4454534597
 10
-112.5189189648
 20
42.4664327871
 10
-111.9084965864
 20
42.4843688823
 10
-111.3045325142
 20
42.4992911158
 10
-110.7033801413
 20
42.5108095061
  0
LWPOLYLINE
  5
43D
100
AcDbEntity
  8
ASSI
100
AcDbPolyline
 62
250
  6
CONTINUOUS
 90
25
 70
0
 10
-113.1095275003
 20
42.9092533602
 10
-113.1618437071
 20
42.9075411918
 10
-113.2139376318
 20
42.9024112049
 10
-113.2655864024
 20
42.8938845937
 10
-113.3165717416
 20
42.8819962777
 10
-113.3666724021
 20
42.8667968188
 10
-113.4156656629
 20
42.8483540602
 10
-113.4633414449
 20
42.8267481836
 10
-113.5094968361
 20
42.8020722339
 10
-113.5539295018
 20
42.7744363045
 10
-113.5964459808
 20
42.7439639602
 10
-113.6368707088
 20
42.7107843214
 10
-113.6750399451
 20
42.6750332553
 10
-113.710790687
 20
42.6368634847
 10
-113.7439700165
 20
42.5964381626
 10
-113.7744418495
 20
42.553921324
 10
-113.8020770752
 20
42.5094886269
 10
-113.8267522208
 20
42.4633335015
 10
-113.8483571879
 20
42.4156584406
 10
-113.8667989111
 20
42.366666682
 10
-113.8819974362
 20
42.3165680261
 10
-113.8938851662
 20
42.2655843966
 10
-113.9024115056
 20
42.2139367333
 10
-113.9075413918
 20
42.1618435476
 10
-113.909253555
 20
42.109527695
  0
LINE
  5
43E
100
AcDbEntity
  8
ASSI
100
AcDbLine
 62
250
  6
CONTINUOUS
 10
-113.7055378479
 20
42.1268725697
 11
-113.6463650672
 21
42.128582597
  0
LINE
  5
43F
100
AcDbEntity
  8
ASSI
100
AcDbLine
 62
250
  6
CONTINUOUS
 10
-113.6463650672
 20
42.128582597
 11
-113.5825474728
 21
42.1299190845
  0
LINE
  5
440
100
AcDbEntity
  8
ASSI
100
AcDbLine
 62
250
  6
CONTINUOUS
 10
-113.5825474728
 20
42.1299190845
 11
-113.5153361017
 21
42.1308558329
  0
LINE
  5
441
100
AcDbEntity
  8
ASSI
100
AcDbLine
 62
250
  6
CONTINUOUS
 10
-110.7033801413
 20
42.5108095061
 11
-109.5320509677
 21
42.5262148516
  0
LINE
  5
442
100
AcDbEntity
  8
ASSI
100
AcDbLine
 62
250
  6
CONTINUOUS
 10
-109.5320509677
 20
42.5262148516
 11
-108.4402303221
 21
42.5350676524
  0
LINE
  5
443
100
AcDbEntity
  8
ASSI
100
AcDbLine
 62
250
  6
CONTINUOUS
 10
-113.5153361017
 20
42.1308558329
 11
-113.4460485204
 21
42.1313744788
  0
LINE
  5
444
100
AcDbEntity
  8
ASSI
100
AcDbLine
 62
250
  6
CONTINUOUS
 10
-108.4402303221
 20
42.5350676524
 11
-106.9339668935
 21
42.5424620799
  0
LINE
  5
445
100
AcDbEntity
  8
ASSI
100
AcDbLine
 62
250
  6
CONTINUOUS
 10
45.4999979464
 20
42.5732689689
 11
48.145570271
 21
42.5812633747
  0
LINE
  5
446
100
AcDbEntity
  8
ASSI
100
AcDbLine
 62
250
  6
CONTINUOUS
 10
-25.5000417626
 20
42.5732688213
 11
-22.8546566936
 21
42.581262909
  0
LINE
  5
447
100
AcDbEntity
  8
ASSI
100
AcDbLine
 62
250
  6
CONTINUOUS
 10
-95.7507541623
 20
42.576101239
 11
-93.084573264
 21
42.5833785549
  0
LINE
  5
448
100
AcDbEntity
  8
ASSI
100
AcDbLine
 62
250
  6
CONTINUOUS
 10
-106.9339668935
 20
42.5424620799
 11
-104.6488001059
 21
42.5486498438
  0
LINE
  5
449
100
AcDbEntity
  8
ASSI
100
AcDbLine
 62
250
  6
CONTINUOUS
 10
48.145570271
 20
42.5812633747
 11
50.6955347943
 21
42.5865449442
  0
LINE
  5
44A
100
AcDbEntity
  8
ASSI
100
AcDbLine
 62
250
  6
CONTINUOUS
 10
-22.8546566936
 20
42.581262909
 11
-20.304702696
 21
42.5865445566
  0
LWPOLYLINE
  5
44B
100
AcDbEntity
  8
ASSI
100
AcDbPolyline
 62
250
  6
CONTINUOUS
 90
3
 70
0
 10
-104.6488001059
 20
42.5486498438
 10
-103.7636065703
 20
42.5503065152
 10
-95.7507541623
 20
42.576101239
  0
LINE
  5
44C
100
AcDbEntity
  8
ASSI
100
AcDbLine
 62
250
  6
CONTINUOUS
 10
-93.084573264
 20
42.5833785549
 11
-89.8207119659
 21
42.5885908843
  0
LINE
  5
44D
100
AcDbEntity
  8
ASSI
100
AcDbLine
 62
250
  6
CONTINUOUS
 10
112.8527670566
 20
42.9089700922
 11
113.1095266639
 21
42.9092525239
  0
LINE
  5
44E
100
AcDbEntity
  8
ASSI
100
AcDbLine
 62
250
  6
CONTINUOUS
 10
50.6955347943
 20
42.5865449442
 11
54.4642937869
 21
42.5903631267
  0
LINE
  5
44F
100
AcDbEntity
  8
ASSI
100
AcDbLine
 62
250
  6
CONTINUOUS
 10
-20.304702696
 20
42.5865445566
 11
-16.5354316548
 21
42.590363205
  0
LWPOLYLINE
  5
450
100
AcDbEntity
  8
ASSI
100
AcDbPolyline
 62
250
  6
CONTINUOUS
 90
3
 70
0
 10
111.7528435345
 20
42.9080184578
 10
112.0385874795
 20
42.9082295488
 10
112.8527670566
 20
42.9089700922
  0
LINE
  5
451
100
AcDbEntity
  8
ASSI
100
AcDbLine
 62
250
  6
CONTINUOUS
 10
111.1509830771
 20
42.9076445188
 11
111.7528435345
 21
42.9080184578
  0
LWPOLYLINE
  5
452
100
AcDbEntity
  8
ASSI
100
AcDbPolyline
 62
250
  6
CONTINUOUS
 90
3
 70
0
 10
110.16827017
 20
42.9072020759
 10
110.5072852446
 20
42.9073340147
 10
111.1509830771
 20
42.9076445188
  0
LINE
  5
453
100
AcDbEntity
  8
ASSI
100
AcDbLine
 62
250
  6
CONTINUOUS
 10
54.4642937869
 20
42.5903631267
 11
57.0883755412
 21
42.5913467098
  0
LINE
  5
454
100
AcDbEntity
  8
ASSI
100
AcDbLine
 62
250
  6
CONTINUOUS
 10
-89.8207119659
 20
42.5885908843
 11
-85.3203012784
 21
42.5913244531
  0
LINE
  5
455
100
AcDbEntity
  8
ASSI
100
AcDbLine
 62
250
  6
CONTINUOUS
 10
35.390238144
 20
42.5439878717
 11
45.4999976716
 21
42.5735785109
  0
LINE
  5
456
100
AcDbEntity
  8
ASSI
100
AcDbLine
 62
250
  6
CONTINUOUS
 10
9.3325473518
 20
42.9051065635
 11
35.390052088
 21
42.9074476878
  0
LINE
  5
457
100
AcDbEntity
  8
ASSI
100
AcDbLine
 62
7
  6
CONTINUOUS
 10
-113.15027414
 20
42.95
 11
113.15027414
 21
42.95
  0
LINE
  5
458
100
AcDbEntity
  8
ASSI
100
AcDbLine
 62
250
  6
CONTINUOUS
 10
-85.3203012784
 20
42.5913244531
 11
-57.749102307
 21
42.5914548106
  0
LINE
  5
459
100
AcDbEntity
  8
ASSI
100
AcDbLine
 62
250
  6
CONTINUOUS
 10
-9.6784500005
 20
42.5914040971
 11
-1.7321689831
 21
42.590464634
  0
LINE
  5
45A
100
AcDbEntity
  8
ASSI
100
AcDbLine
 62
250
  6
CONTINUOUS
 10
-16.5354316548
 20
42.590363205
 11
-9.6784500005
 21
42.5914040971
  0
LINE
  5
45B
100
AcDbEntity
  8
ASSI
100
AcDbLine
 62
250
  6
CONTINUOUS
 10
-1.7321689831
 20
42.590464634
 11
13.2530309061
 21
42.5914545479
  0
LINE
  5
45C
100
AcDbEntity
  8
ASSI
100
AcDbLine
 62
250
  6
CONTINUOUS
 10
57.0883755412
 20
42.5913467098
 11
84.0738015033
 21
42.5914979998
  0
LINE
  5
45D
100
AcDbEntity
  8
ASSI
100
AcDbLine
 62
250
  6
CONTINUOUS
 10
-45.5018575874
 20
42.9056012916
 11
-31.9107794148
 21
42.906978828
  0
LINE
  5
45E
100
AcDbEntity
  8
ASSI
100
AcDbLine
 62
250
  6
CONTINUOUS
 10
-35.9513849026
 20
42.5440646742
 11
-25.5000420472
 21
42.5735783591
  0
LWPOLYLINE
  5
45F
100
AcDbEntity
  8
ASSI
100
AcDbPolyline
 62
250
  6
CONTINUOUS
 90
3
 70
0
 10
84.0738015033
 20
42.5914979998
 10
85.7513281178
 20
42.5912196375
 10
86.2821115198
 20
42.5910530647
  0
LINE
  5
460
100
AcDbEntity
  8
ASSI
100
AcDbLine
 62
250
  6
CONTINUOUS
 10
-31.9107794148
 20
42.906978828
 11
9.3325473518
 21
42.9051065635
  0
LINE
  5
461
100
AcDbEntity
  8
ASSI
100
AcDbLine
 62
250
  6
CONTINUOUS
 10
35.390052088
 20
42.9074476878
 11
110.16827017
 21
42.9072020759
  0
LINE
  5
462
100
AcDbEntity
  8
ASSI
100
AcDbLine
 62
250
  6
CONTINUOUS
 10
-57.749102307
 20
42.5914548106
 11
-53.4854117964
 21
42.5896608223
  0
LINE
  5
463
100
AcDbEntity
  8
ASSI
100
AcDbLine
 62
250
  6
CONTINUOUS
 10
13.2530309061
 20
42.5914545479
 11
17.5157437019
 21
42.5896599127
  0
LINE
  5
464
100
AcDbEntity
  8
ASSI
100
AcDbLine
 62
250
  6
CONTINUOUS
 10
86.2821115198
 20
42.5910530647
 11
87.8018859464
 21
42.590315454
  0
LINE
  5
465
100
AcDbEntity
  8
ASSI
100
AcDbLine
 62
250
  6
CONTINUOUS
 10
87.8018859464
 20
42.590315454
 11
88.7665858774
 21
42.589609535
  0
LINE
  5
466
100
AcDbEntity
  8
ASSI
100
AcDbLine
 62
250
  6
CONTINUOUS
 10
-113.1095289671
 20
42.909254827
 11
-45.5018575874
 21
42.9056012916
  0
LINE
  5
467
100
AcDbEntity
  8
ASSI
100
AcDbLine
 62
250
  6
CONTINUOUS
 10
88.7665858774
 20
42.589609535
 11
90.1700848165
 21
42.5881897035
  0
LINE
  5
468
100
AcDbEntity
  8
ASSI
100
AcDbLine
 62
250
  6
CONTINUOUS
 10
-53.4854117964
 20
42.5896608223
 11
-50.4247708936
 21
42.5860488408
  0
LINE
  5
469
100
AcDbEntity
  8
ASSI
100
AcDbLine
 62
250
  6
CONTINUOUS
 10
17.5157437019
 20
42.5896599127
 11
20.5758481185
 21
42.5860478365
  0
LINE
  5
46A
100
AcDbEntity
  8
ASSI
100
AcDbLine
 62
250
  6
CONTINUOUS
 10
90.1700848165
 20
42.5881897035
 11
93.3861413329
 21
42.5827073015
  0
LINE
  5
46B
100
AcDbEntity
  8
ASSI
100
AcDbLine
 62
250
  6
CONTINUOUS
 10
-50.4247708936
 20
42.5860488408
 11
-47.1858677011
 21
42.5784424744
  0
LINE
  5
46C
100
AcDbEntity
  8
ASSI
100
AcDbLine
 62
250
  6
CONTINUOUS
 10
20.5758481185
 20
42.5860478365
 11
23.8143360722
 21
42.5784419175
  0
LINE
  5
46D
100
AcDbEntity
  8
ASSI
100
AcDbLine
 62
250
  6
CONTINUOUS
 10
93.3861413329
 20
42.5827073015
 11
96.1416863935
 21
42.5747606206
  0
LINE
  5
46E
100
AcDbEntity
  8
ASSI
100
AcDbLine
 62
250
  6
CONTINUOUS
 10
-40.7533472422
 20
42.5541679428
 11
-35.9513849026
 21
42.5440646742
  0
LINE
  5
46F
100
AcDbEntity
  8
ASSI
100
AcDbLine
 62
250
  6
CONTINUOUS
 10
96.1416863935
 20
42.5747606206
 11
97.0615012172
 21
42.5713855471
  0
LWPOLYLINE
  5
470
100
AcDbEntity
  8
ASSI
100
AcDbPolyline
 62
250
  6
CONTINUOUS
 90
3
 70
0
 10
97.0615012172
 20
42.5713855471
 10
97.983562898
 20
42.567799923
 10
106.0062651267
 20
42.5454416851
  0
LINE
  5
471
100
AcDbEntity
  8
ASSI
100
AcDbLine
 62
250
  6
CONTINUOUS
 10
-47.1858677011
 20
42.5784424744
 11
-43.9359695165
 21
42.5672095925
  0
LINE
  5
472
100
AcDbEntity
  8
ASSI
100
AcDbLine
 62
250
  6
CONTINUOUS
 10
-43.9359695165
 20
42.5672095925
 11
-40.7533472422
 21
42.5541679428
  0
LWPOLYLINE
  5
473
100
AcDbEntity
  8
ASSI
100
AcDbPolyline
 62
250
  6
CONTINUOUS
 90
3
 70
0
 10
23.8143360722
 20
42.5784419175
 10
27.3642805077
 20
42.5659335399
 10
35.390238144
 20
42.5439878717
  0
LINE
  5
474
100
AcDbEntity
  8
ASSI
100
AcDbLine
 62
250
  6
CONTINUOUS
 10
106.0062651267
 20
42.5454416851
 11
107.8638799402
 21
42.5383618792
  0
LINE
  5
475
100
AcDbEntity
  8
ASSI
100
AcDbLine
 62
250
  6
CONTINUOUS
 10
107.8638799402
 20
42.5383618792
 11
109.0824008671
 21
42.530371303
  0
LINE
  5
476
100
AcDbEntity
  8
ASSI
100
AcDbLine
 62
250
  6
CONTINUOUS
 10
113.4460484565
 20
42.1313745629
 11
113.5153363533
 21
42.1308559136
  0
LINE
  5
477
100
AcDbEntity
  8
ASSI
100
AcDbLine
 62
250
  6
CONTINUOUS
 10
109.0824008671
 20
42.530371303
 11
109.8234861201
 21
42.5230125197
  0
LINE
  5
478
100
AcDbEntity
  8
ASSI
100
AcDbLine
 62
250
  6
CONTINUOUS
 10
109.8234861201
 20
42.5230125197
 11
110.5150659973
 21
42.5136945211
  0
LINE
  5
479
100
AcDbEntity
  8
ASSI
100
AcDbLine
 62
250
  6
CONTINUOUS
 10
113.5153363533
 20
42.1308559136
 11
113.5825479225
 21
42.1299191595
  0
LINE
  5
47A
100
AcDbEntity
  8
ASSI
100
AcDbLine
 62
250
  6
CONTINUOUS
 10
110.5150659973
 20
42.5136945211
 11
111.1612379081
 21
42.5022273147
  0
LINE
  5
47B
100
AcDbEntity
  8
ASSI
100
AcDbLine
 62
250
  6
CONTINUOUS
 10
113.5825479225
 20
42.1299191595
 11
113.6463656165
 21
42.1285826654
  0
LINE
  5
47C
100
AcDbEntity
  8
ASSI
100
AcDbLine
 62
250
  6
CONTINUOUS
 10
111.1612379081
 20
42.5022273147
 11
111.7659533019
 21
42.4886942151
  0
LINE
  5
47D
100
AcDbEntity
  8
ASSI
100
AcDbLine
 62
250
  6
CONTINUOUS
 10
111.7659533019
 20
42.4886942151
 11
112.3331945381
 21
42.4731278533
  0
LWPOLYLINE
  5
47E
100
AcDbEntity
  8
ASSI
100
AcDbPolyline
 62
250
  6
CONTINUOUS
 90
15
 70
0
 10
113.6463656165
 20
42.1285826654
 10
113.7055384769
 20
42.12687263
 10
113.7330163992
 20
42.1258877411
 10
113.7589064987
 20
42.1248225759
 10
113.7830817356
 20
42.1236823609
 10
113.8054234851
 20
42.1224726912
 10
113.8258221187
 20
42.1211995023
 10
113.8441775429
 20
42.1198690417
 10
113.8603996896
 20
42.1184878377
 10
113.8744089833
 20
42.117062665
 10
113.8861366487
 20
42.1156005193
 10
113.895525092
 20
42.114108584
 10
113.9025282752
 20
42.1125941829
 10
113.9071118968
 20
42.1110647446
 10
113.9092535081
 20
42.1095277737
  0
LWPOLYLINE
  5
47F
100
AcDbEntity
  8
ASSI
100
AcDbPolyline
 62
250
  6
CONTINUOUS
 90
3
 70
0
 10
112.3331945381
 20
42.4731278533
 10
112.8725998757
 20
42.4555817004
 10
113.1312243793
 20
42.4460656677
  0
LWPOLYLINE
  5
480
100
AcDbEntity
  8
0
100
AcDbPolyline
 62
7
  6
CONTINUOUS
 90
13
 70
0
 43
0.3500000006
 10
1.6071428418
 20
53.4142868042
 10
1.3214285903
 20
53.6285712891
 10
1.3214285903
 20
54.2714292755
 10
1.6071428418
 20
54.6999982452
 10
2.2499999785
 20
54.6999982452
 10
2.5357143717
 20
54.2714292755
 10
2.5357143717
 20
53.6285712891
 10
2.2499999785
 20
53.4142868042
 10
2.6785713558
 20
52.9857133026
 10
2.6785713558
 20
52.1285708313
 10
2.2499999785
 20
51.7000018616
 10
1.6071428418
 20
51.7000018616
 10
1.1785713937
 20
52.1285708313
  0
LINE
  5
481
100
AcDbEntity
  8
ASSI
100
AcDbLine
 62
250
  6
CONTINUOUS
 10
113.15027414
 20
-42.95
 11
113.1095288876
 21
-42.9092547476
  0
LINE
  5
482
100
AcDbEntity
  8
RACCORDO
100
AcDbLine
 62
250
  6
CONTINUOUS
 10
93.3574585972
 20
22.8555559462
 11
93.201902651
 21
22.7
  0
LINE
  5
483
100
AcDbEntity
  8
RACCORDO
100
AcDbLine
 62
250
  6
CONTINUOUS
 10
48.1473167138
 20
-22.3545859371
 11
48.3
 21
-22.201902651
  0
LINE
  5
484
100
AcDbEntity
  8
RACCORDO
100
AcDbLine
 62
250
  6
CONTINUOUS
 10
93.8555791399
 20
22.3574817908
 11
93.7
 21
22.201902651
  0
LINE
  5
485
100
AcDbEntity
  8
RACCORDO
100
AcDbLine
 62
250
  6
CONTINUOUS
 10
48.6455147912
 20
-22.8525825578
 11
48.798097349
 21
-22.7
  0
LINE
  5
486
100
AcDbEntity
  8
ASSI
100
AcDbLine
 62
250
  6
CONTINUOUS
 10
113.9092536243
 20
42.1095277644
 11
113.95
 21
42.15027414
  0
LWPOLYLINE
  5
487
100
AcDbEntity
  8
0
100
AcDbPolyline
 62
7
  6
CONTINUOUS
 90
7
 70
0
 43
0.3500000006
 10
0.3214285684
 20
51.7000018616
 10
-1.1785713937
 20
51.7000018616
 10
0.3214285684
 20
53.8428557739
 10
0.3214285684
 20
54.2714292755
 10
-0.1071428532
 20
54.6999982452
 10
-0.7500000165
 20
54.6999982452
 10
-1.1785713937
 20
54.0571447906
  0
LWPOLYLINE
  5
488
100
AcDbEntity
  8
0
100
AcDbPolyline
 62
7
  6
CONTINUOUS
 90
7
 70
0
 43
0.3500000006
 10
-2.0357142191
 20
51.7000018616
 10
-3.5357143936
 20
51.7000018616
 10
-2.0357142191
 20
53.8428557739
 10
-2.0357142191
 20
54.2714292755
 10
-2.464285738
 20
54.6999982452
 10
-3.1071428747
 20
54.6999982452
 10
-3.5357143936
 20
54.0571447906
  0
LINE
  5
489
100
AcDbEntity
  8
RACCORDO
100
AcDbLine
 62
250
  6
CONTINUOUS
 10
93.3574585972
 20
-22.8555559462
 11
93.201902651
 21
-22.7
  0
LINE
  5
48A
100
AcDbEntity
  8
RACCORDO
100
AcDbLine
 62
250
  6
CONTINUOUS
 10
48.1473167138
 20
22.3545859371
 11
48.3
 21
22.201902651
  0
LINE
  5
48B
100
AcDbEntity
  8
RACCORDO
100
AcDbLine
 62
250
  6
CONTINUOUS
 10
93.8555791399
 20
-22.3574817908
 11
93.7
 21
-22.201902651
  0
LINE
  5
48C
100
AcDbEntity
  8
RACCORDO
100
AcDbLine
 62
250
  6
CONTINUOUS
 10
48.6455147912
 20
22.8525825578
 11
48.798097349
 21
22.7
  0
LINE
  5
48D
100
AcDbEntity
  8
ASSI
100
AcDbLine
 62
250
  6
CONTINUOUS
 10
113.95
 20
-42.15027414
 11
113.9092532626
 21
-42.1095274026
  0
LINE
  5
48E
100
AcDbEntity
  8
ASSI
100
AcDbLine
 62
250
  6
CONTINUOUS
 10
71.0
 20
42.9051300365
 11
71.0
 21
42.5903371467
  0
LINE
  5
48F
100
AcDbEntity
  8
RACCORDO
100
AcDbLine
 62
250
  6
CONTINUOUS
 10
71.0
 20
42.5903668806
 11
71.0
 21
22.8818256987
  0
LINE
  5
490
100
AcDbEntity
  8
ASSI
100
AcDbLine
 62
250
  6
CONTINUOUS
 10
71.0
 20
-42.9051300365
 11
71.0
 21
-42.5903642453
  0
LINE
  5
491
100
AcDbEntity
  8
RACCORDO
100
AcDbLine
 62
250
  6
CONTINUOUS
 10
71.0
 20
-42.5903668806
 11
71.0
 21
-22.8818256987
  0
LWPOLYLINE
  5
492
100
AcDbEntity
  8
0
100
AcDbPolyline
 62
7
  6
CONTINUOUS
 90
10
 70
0
 43
0.3500000006
 10
118.1999998169
 20
1.0714289017
 10
118.8428532715
 20
0.4285709152
 10
119.7000002747
 20
-0.0000003204
 10
120.7714317627
 20
-0.0000003204
 10
121.2000007324
 20
0.4285709152
 10
121.2000007324
 20
1.0714289017
 10
120.7714317627
 20
1.5000001373
 10
119.9142847595
 20
1.5000001373
 10
119.4857157898
 20
1.0714289017
 10
119.4857157898
 20
0.1428575134
  0
LWPOLYLINE
  5
493
100
AcDbEntity
  8
RACCORDO
100
AcDbPolyline
 62
250
  6
CONTINUOUS
 90
11
 70
0
 10
93.364972497
 20
-22.9760742632
 10
93.3643837336
 20
-22.9563060573
 10
93.3637453234
 20
-22.9379581636
 10
93.3630618432
 20
-22.9211621237
 10
93.3623381934
 20
-22.9060383538
 10
93.3615795619
 20
-22.8926952802
 10
93.3607913879
 20
-22.8812285626
 10
93.3599793219
 20
-22.8717204085
 10
93.3591491858
 20
-22.8642389835
 10
93.3583069314
 20
-22.8588379227
 10
93.3574585972
 20
-22.8555559462
  0
LINE
  5
494
100
AcDbEntity
  8
RACCORDO
100
AcDbLine
 62
250
  6
CONTINUOUS
 10
93.365984585
 20
-23.0192955456
 11
93.364972497
 21
-22.9760742632
  0
LINE
  5
495
100
AcDbEntity
  8
RACCORDO
100
AcDbLine
 62
250
  6
CONTINUOUS
 10
93.366752615
 20
-23.0663847581
 11
93.365984585
 21
-23.0192955456
  0
LINE
  5
496
100
AcDbEntity
  8
RACCORDO
100
AcDbLine
 62
250
  6
CONTINUOUS
 10
93.3672546008
 20
-23.1159939198
 11
93.366752615
 21
-23.0663847581
  0
LINE
  5
497
100
AcDbEntity
  8
RACCORDO
100
AcDbLine
 62
250
  6
CONTINUOUS
 10
93.3674761729
 20
-23.1667029151
 11
93.3672546008
 21
-23.1159939198
  0
LINE
  5
498
100
AcDbEntity
  8
RACCORDO
100
AcDbLine
 62
250
  6
CONTINUOUS
 10
94.1666263563
 20
22.3675989178
 11
94.1922918028
 21
10.9404368554
  0
LINE
  5
499
100
AcDbEntity
  8
RACCORDO
100
AcDbLine
 62
250
  6
CONTINUOUS
 10
93.8555791399
 20
22.3574817908
 11
93.8734131666
 21
12.2920912575
  0
LINE
  5
49A
100
AcDbEntity
  8
RACCORDO
100
AcDbLine
 62
250
  6
CONTINUOUS
 10
94.1922918028
 20
10.9404368554
 11
94.1990873811
 21
6.1255551986
  0
LINE
  5
49B
100
AcDbEntity
  8
RACCORDO
100
AcDbLine
 62
250
  6
CONTINUOUS
 10
93.8734131666
 20
12.2920912575
 11
93.8797420792
 21
6.123216797
  0
LINE
  5
49C
100
AcDbEntity
  8
RACCORDO
100
AcDbLine
 62
250
  6
CONTINUOUS
 10
94.1990873811
 20
6.1255551986
 11
94.2020094262
 21
0.68490272
  0
LINE
  5
49D
100
AcDbEntity
  8
RACCORDO
100
AcDbLine
 62
7
  6
CONTINUOUS
 10
93.7
 20
-22.201902651
 11
93.7
 21
22.201902651
  0
LINE
  5
49E
100
AcDbEntity
  8
RACCORDO
100
AcDbLine
 62
250
  6
CONTINUOUS
 10
93.8797420792
 20
6.123216797
 11
93.8817856318
 21
-0.6588193383
  0
LINE
  5
49F
100
AcDbEntity
  8
RACCORDO
100
AcDbLine
 62
250
  6
CONTINUOUS
 10
93.8817856318
 20
-0.6588193383
 11
93.8796115032
 21
-6.3105715306
  0
LINE
  5
4A0
100
AcDbEntity
  8
RACCORDO
100
AcDbLine
 62
250
  6
CONTINUOUS
 10
94.2020094262
 20
0.68490272
 11
94.2006504595
 21
-4.2392709253
  0
LINE
  5
4A1
100
AcDbEntity
  8
RACCORDO
100
AcDbLine
 62
250
  6
CONTINUOUS
 10
93.8796115032
 20
-6.3105715306
 11
93.8739610303
 21
-11.8836651737
  0
LINE
  5
4A2
100
AcDbEntity
  8
RACCORDO
100
AcDbLine
 62
250
  6
CONTINUOUS
 10
94.2006504595
 20
-4.2392709253
 11
94.1959810027
 21
-8.6919090775
  0
LINE
  5
4A3
100
AcDbEntity
  8
RACCORDO
100
AcDbLine
 62
250
  6
CONTINUOUS
 10
94.1959810027
 20
-8.6919090775
 11
94.1866305101
 21
-13.7085283058
  0
LINE
  5
4A4
100
AcDbEntity
  8
RACCORDO
100
AcDbLine
 62
250
  6
CONTINUOUS
 10
93.8739610303
 20
-11.8836651737
 11
93.8555791399
 21
-22.3574817908
  0
LINE
  5
4A5
100
AcDbEntity
  8
RACCORDO
100
AcDbLine
 62
250
  6
CONTINUOUS
 10
94.1866305101
 20
-13.7085283058
 11
94.1666263563
 21
-22.3675989178
  0
LINE
  5
4A6
100
AcDbEntity
  8
RACCORDO
100
AcDbLine
 62
250
  6
CONTINUOUS
 10
93.367476173
 20
23.1667029151
 11
93.3672546354
 21
23.1159936691
  0
LINE
  5
4A7
100
AcDbEntity
  8
RACCORDO
100
AcDbLine
 62
250
  6
CONTINUOUS
 10
93.3672546354
 20
23.1159936691
 11
93.3667526741
 21
23.0663843552
  0
LINE
  5
4A8
100
AcDbEntity
  8
RACCORDO
100
AcDbLine
 62
250
  6
CONTINUOUS
 10
93.3667526741
 20
23.0663843552
 11
93.3659846596
 21
23.0192950907
  0
LWPOLYLINE
  5
4A9
100
AcDbEntity
  8
RACCORDO
100
AcDbPolyline
 62
250
  6
CONTINUOUS
 90
12
 70
0
 10
93.3659846596
 20
23.0192950907
 10
93.3649725787
 20
22.9760738398
 10
93.3643838158
 20
22.956305672
 10
93.363745404
 20
22.937957827
 10
93.3630619205
 20
22.9211618432
 10
93.3623382654
 20
22.9060381307
 10
93.3615796272
 20
22.8926951218
 10
93.3607914447
 20
22.8812284624
 10
93.3599793666
 20
22.8717203383
 10
93.3591492142
 20
22.8642389213
 10
93.3583069399
 20
22.8588378663
 10
93.357458582
 20
22.8555559059
  0
LWPOLYLINE
  5
4AA
100
AcDbEntity
  8
RACCORDO
100
AcDbPolyline
 62
250
  6
CONTINUOUS
 90
25
 70
0
 10
93.8555790998
 20
-22.3574817507
 10
93.8545347733
 20
-22.3897744084
 10
93.8514011186
 20
-22.421997795
 10
93.8461762848
 20
-22.4540169503
 10
93.8388579805
 20
-22.4857345782
 10
93.8294666515
 20
-22.5169744003
 10
93.8180697932
 20
-22.5474890302
 10
93.80473391
 20
-22.5771276457
 10
93.789513742
 20
-22.6057944155
 10
93.772498931
 20
-22.6333405535
 10
93.7538003107
 20
-22.6596215205
 10
93.7334844631
 20
-22.6845761041
 10
93.7115752435
 20
-22.7081810151
 10
93.6881781649
 20
-22.7303181474
 10
93.6633700499
 20
-22.75091021
 10
93.637105144
 20
-22.7699653253
 10
93.6093867404
 20
-22.7874199088
 10
93.5803890718
 20
-22.8031059261
 10
93.5503258175
 20
-22.8168753448
 10
93.5192740701
 20
-22.8286665575
 10
93.4874075953
 20
-22.8383899359
 10
93.4551195448
 20
-22.8459363414
 10
93.4226451464
 20
-22.8512942307
 10
93.3900443352
 20
-22.8544945287
 10
93.3574585539
 20
-22.8555559029
  0
LWPOLYLINE
  5
4AB
100
AcDbEntity
  8
RACCORDO
100
AcDbPolyline
 62
250
  6
CONTINUOUS
 90
25
 70
0
 10
94.1666263563
 20
-22.3675989178
 10
94.1647849438
 20
-22.4196127002
 10
94.1596200069
 20
-22.4710933669
 10
94.1511315393
 20
-22.5220409114
 10
94.1392452191
 20
-22.5727256094
 10
94.1240353563
 20
-22.6228771734
 10
94.1057248927
 20
-22.6716847523
 10
94.084262281
 20
-22.7190794219
 10
94.0596990577
 20
-22.7651300957
 10
94.0324127905
 20
-22.8092326792
 10
94.0024217887
 20
-22.8513074425
 10
93.969707737
 20
-22.8914341095
 10
93.934593268
 20
-22.9292477697
 10
93.8971121467
 20
-22.9647348833
 10
93.8572306079
 20
-22.9979089898
 10
93.8151699904
 20
-23.0284457987
 10
93.7707734159
 20
-23.0564143161
 10
93.7241977684
 20
-23.0817455417
 10
93.6761350326
 20
-23.1039081777
 10
93.626461721
 20
-23.1228206258
 10
93.5753013323
 20
-23.1385644955
 10
93.5237163312
 20
-23.1508533022
 10
93.4720608764
 20
-23.1595915551
 10
93.4199808215
 20
-23.1648747572
 10
93.3674761729
 20
-23.1667029151
  0
LWPOLYLINE
  5
4AC
100
AcDbEntity
  8
0
100
AcDbPolyline
 62
7
  6
CONTINUOUS
 90
13
 70
0
 43
0.3500000006
 10
119.4857157898
 20
-1.9285708809
 10
119.2714313049
 20
-2.2142854156
 10
118.6285687866
 20
-2.2142854156
 10
118.1999998169
 20
-1.9285708809
 10
118.1999998169
 20
-1.2857140274
 10
118.6285687866
 20
-1.0000006256
 10
119.2714313049
 20
-1.0000006256
 10
119.4857157898
 20
-1.2857140274
 10
119.9142847595
 20
-0.8571427917
 10
120.7714317627
 20
-0.8571427917
 10
121.2000007324
 20
-1.2857140274
 10
121.2000007324
 20
-1.9285708809
 10
120.7714317627
 20
-2.3571432495
  0
LWPOLYLINE
  5
4AD
100
AcDbEntity
  8
ASSI
100
AcDbPolyline
 62
250
  6
CONTINUOUS
 90
14
 70
0
 10
113.909253555
 20
-42.109527695
 10
113.907111873
 20
-42.1110646979
 10
113.9025281121
 20
-42.1125941588
 10
113.8955247643
 20
-42.114108573
 10
113.8861361945
 20
-42.1156005094
 10
113.8744084713
 20
-42.1170626473
 10
113.8603991414
 20
-42.1184878122
 10
113.8441769467
 20
-42.119869011
 10
113.8258214875
 20
-42.1211994664
 10
113.8054228315
 20
-42.1224726501
 10
113.7830810723
 20
-42.1236823148
 10
113.7589058376
 20
-42.1248225248
 10
113.733015752
 20
-42.1258876852
 10
113.7055378543
 20
-42.1268725695
  0
LWPOLYLINE
  5
4AE
100
AcDbEntity
  8
ASSI
100
AcDbPolyline
 62
250
  6
CONTINUOUS
 90
25
 70
0
 10
113.4460457882
 20
42.1313944992
 10
113.4446139641
 20
42.151343996
 10
113.441917524
 20
42.1710955644
 10
113.4379561727
 20
42.1906489462
 10
113.4327002156
 20
42.2100865934
 10
113.4261787431
 20
42.2293255226
 10
113.4184796825
 20
42.2481173717
 10
113.4095874539
 20
42.2664554833
 10
113.3995171574
 20
42.2843461104
 10
113.3884028642
 20
42.3015603854
 10
113.3762329171
 20
42.3180882917
 10
113.3630186973
 20
42.33393964
 10
113.3489289937
 20
42.3489154644
 10
113.3339538272
 20
42.3630057567
 10
113.3181031439
 20
42.3762205587
 10
113.3015757913
 20
42.38839115
 10
113.2843619428
 20
42.3995061908
 10
113.2664716317
 20
42.409577297
 10
113.2481336572
 20
42.4184703421
 10
113.2293485332
 20
42.4261693067
 10
113.2101161517
 20
42.4326906907
 10
113.1906645046
 20
42.437949267
 10
113.1710697825
 20
42.4419168431
 10
113.1512563219
 20
42.4446222118
 10
113.1312243793
 20
42.4460656677
  0
LINE
  5
4AF
100
AcDbEntity
  8
ASSI
100
AcDbLine
 62
250
  6
CONTINUOUS
 10
113.4460457882
 20
42.1313944992
 11
113.4680396474
 21
41.5003534227
  0
LWPOLYLINE
  5
4B0
100
AcDbEntity
  8
ASSI
100
AcDbPolyline
 62
250
  6
CONTINUOUS
 90
25
 70
0
 10
113.909253555
 20
42.109527695
 10
113.9075413917
 20
42.1618435476
 10
113.9024115056
 20
42.2139367333
 10
113.8938851662
 20
42.2655843966
 10
113.8819974362
 20
42.3165680261
 10
113.8667989111
 20
42.366666682
 10
113.8483571879
 20
42.4156584406
 10
113.8267522208
 20
42.4633335015
 10
113.8020770752
 20
42.5094886269
 10
113.7744418495
 20
42.553921324
 10
113.7439700165
 20
42.5964381626
 10
113.710790687
 20
42.6368634847
 10
113.6750399451
 20
42.6750332553
 10
113.6368707088
 20
42.7107843214
 10
113.5964459808
 20
42.7439639602
 10
113.5539295018
 20
42.7744363045
 10
113.5094968361
 20
42.8020722339
 10
113.4633414449
 20
42.8267481836
 10
113.4156656629
 20
42.8483540602
 10
113.3666724021
 20
42.8667968188
 10
113.3165717416
 20
42.8819962777
 10
113.2655864024
 20
42.8938845937
 10
113.2139376318
 20
42.9024112049
 10
113.1618437071
 20
42.9075411918
 10
113.1095275003
 20
42.9092533602
  0
LINE
  5
4B1
100
AcDbEntity
  8
ASSI
100
AcDbLine
 62
250
  6
CONTINUOUS
 10
113.1268853787
 20
42.705534903
 11
113.1285966721
 21
42.6463614312
  0
LINE
  5
4B2
100
AcDbEntity
  8
ASSI
100
AcDbLine
 62
250
  6
CONTINUOUS
 10
113.4680396474
 20
41.5003534227
 11
113.4872447759
 21
40.8200294564
  0
LINE
  5
4B3
100
AcDbEntity
  8
ASSI
100
AcDbLine
 62
250
  6
CONTINUOUS
 10
113.4872447759
 20
40.8200294564
 11
113.5035956987
 21
40.0867965823
  0
LINE
  5
4B4
100
AcDbEntity
  8
ASSI
100
AcDbLine
 62
250
  6
CONTINUOUS
 10
113.1285966721
 20
42.6463614312
 11
113.1299341407
 21
42.5825431544
  0
LINE
  5
4B5
100
AcDbEntity
  8
ASSI
100
AcDbLine
 62
250
  6
CONTINUOUS
 10
113.5035956987
 20
40.0867965823
 11
113.516857573
 21
39.2864581788
  0
LINE
  5
4B6
100
AcDbEntity
  8
ASSI
100
AcDbLine
 62
250
  6
CONTINUOUS
 10
113.1299341407
 20
42.5825431544
 11
113.1308715656
 21
42.5153311393
  0
LINE
  5
4B7
100
AcDbEntity
  8
ASSI
100
AcDbLine
 62
250
  6
CONTINUOUS
 10
113.516857573
 20
39.2864581788
 11
113.5270715681
 21
38.4162581972
  0
LINE
  5
4B8
100
AcDbEntity
  8
ASSI
100
AcDbLine
 62
250
  6
CONTINUOUS
 10
113.5270715681
 20
38.4162581972
 11
113.5344364852
 21
37.4845203443
  0
LINE
  5
4B9
100
AcDbEntity
  8
ASSI
100
AcDbLine
 62
250
  6
CONTINUOUS
 10
113.1308715656
 20
42.5153311393
 11
113.13139057
 21
42.4460429832
  0
LINE
  5
4BA
100
AcDbEntity
  8
ASSI
100
AcDbLine
 62
250
  6
CONTINUOUS
 10
113.5344364852
 20
37.4845203443
 11
113.5416621362
 21
36.0361125693
  0
LWPOLYLINE
  5
4BB
100
AcDbEntity
  8
ASSI
100
AcDbPolyline
 62
250
  6
CONTINUOUS
 90
3
 70
0
 10
113.5416621362
 20
36.0361125693
 10
113.5482270542
 20
33.7060196142
 10
113.5500117242
 20
32.7994938149
  0
LINE
  5
4BC
100
AcDbEntity
  8
ASSI
100
AcDbLine
 62
250
  6
CONTINUOUS
 10
113.5779118968
 20
24.1795655503
 11
113.5846573898
 21
21.4548463675
  0
LINE
  5
4BD
100
AcDbEntity
  8
ASSI
100
AcDbLine
 62
250
  6
CONTINUOUS
 10
113.5500117242
 20
32.7994938149
 11
113.5779118968
 21
24.1795655503
  0
LINE
  5
4BE
100
AcDbEntity
  8
ASSI
100
AcDbLine
 62
250
  6
CONTINUOUS
 10
113.5846573898
 20
21.4548463675
 11
113.5898272933
 21
17.4935643065
  0
LINE
  5
4BF
100
AcDbEntity
  8
ASSI
100
AcDbLine
 62
250
  6
CONTINUOUS
 10
113.5898272933
 20
17.4935643065
 11
113.5915233848
 21
11.8444894119
  0
LINE
  5
4C0
100
AcDbEntity
  8
ASSI
100
AcDbLine
 62
7
  6
CONTINUOUS
 10
113.95
 20
42.15027414
 11
113.95
 21
-42.15027414
  0
LINE
  5
4C1
100
AcDbEntity
  8
ASSI
100
AcDbLine
 62
250
  6
CONTINUOUS
 10
113.5915233848
 20
11.8444894119
 11
113.591491429
 21
-13.1397815435
  0
LINE
  5
4C2
100
AcDbEntity
  8
ASSI
100
AcDbLine
 62
250
  6
CONTINUOUS
 10
113.591491429
 20
-13.1397815435
 11
113.5895385789
 21
-17.8476425212
  0
LWPOLYLINE
  5
4C3
100
AcDbEntity
  8
ASSI
100
AcDbPolyline
 62
250
  6
CONTINUOUS
 90
3
 70
0
 10
113.9092536243
 20
42.1095277644
 10
113.9089179779
 20
41.80264692
 10
113.9092532626
 20
-42.1095274026
  0
LINE
  5
4C4
100
AcDbEntity
  8
ASSI
100
AcDbLine
 62
250
  6
CONTINUOUS
 10
113.5895385789
 20
-17.8476425212
 11
113.5853045114
 21
-21.1067972906
  0
LINE
  5
4C5
100
AcDbEntity
  8
ASSI
100
AcDbLine
 62
250
  6
CONTINUOUS
 10
113.5853045114
 20
-21.1067972906
 11
113.578816519
 21
-23.8784057597
  0
LINE
  5
4C6
100
AcDbEntity
  8
ASSI
100
AcDbLine
 62
250
  6
CONTINUOUS
 10
113.578816519
 20
-23.8784057597
 11
113.5672448925
 21
-27.1183902447
  0
LINE
  5
4C7
100
AcDbEntity
  8
ASSI
100
AcDbLine
 62
250
  6
CONTINUOUS
 10
113.5672448925
 20
-27.1183902447
 11
113.5395913774
 21
-36.5246166358
  0
LWPOLYLINE
  5
4C8
100
AcDbEntity
  8
ASSI
100
AcDbPolyline
 62
250
  6
CONTINUOUS
 90
9
 70
0
 10
113.5395913774
 20
-36.5246166358
 10
113.5325750344
 20
-37.7935719399
 10
113.5268966336
 20
-38.437610021
 10
113.5193364517
 20
-39.0830261613
 10
113.5099712605
 20
-39.7293428724
 10
113.4980357613
 20
-40.3591382745
 10
113.483276296
 20
-40.9665812391
 10
113.4659396362
 20
-41.5574162698
 10
113.4460184871
 20
-42.131594547
  0
LINE
  5
4C9
100
AcDbEntity
  8
ASSI
100
AcDbLine
 62
250
  6
CONTINUOUS
 10
113.1313916261
 20
-42.4460422306
 11
113.1308725803
 21
-42.5153341958
  0
LINE
  5
4CA
100
AcDbEntity
  8
ASSI
100
AcDbLine
 62
250
  6
CONTINUOUS
 10
113.1308725803
 20
-42.5153341958
 11
113.129935088
 21
-42.5825485915
  0
LINE
  5
4CB
100
AcDbEntity
  8
ASSI
100
AcDbLine
 62
250
  6
CONTINUOUS
 10
113.129935088
 20
-42.5825485915
 11
113.128597542
 21
-42.6463680588
  0
LWPOLYLINE
  5
4CC
100
AcDbEntity
  8
ASSI
100
AcDbPolyline
 62
250
  6
CONTINUOUS
 90
15
 70
0
 10
113.128597542
 20
-42.6463680588
 10
113.1268861494
 20
-42.7055425029
 10
113.125900478
 20
-42.7330210508
 10
113.1248344657
 20
-42.7589116484
 10
113.1236933429
 20
-42.7830872441
 10
113.1224827113
 20
-42.8054292024
 10
113.1212085105
 20
-42.8258278858
 10
113.1198769922
 20
-42.8441831927
 10
113.1184946928
 20
-42.8604050482
 10
113.1170683587
 20
-42.8744141628
 10
113.1156050219
 20
-42.886141363
 10
113.1141119767
 20
-42.8955284944
 10
113.1125965921
 20
-42.9025298743
 10
113.1110662675
 20
-42.9071119428
 10
113.1095285105
 20
-42.909252759
  0
LWPOLYLINE
  5
4CD
100
AcDbEntity
  8
ASSI
100
AcDbPolyline
 62
250
  6
CONTINUOUS
 90
14
 70
0
 10
113.1095275003
 20
42.9092533602
 10
113.1110656594
 20
42.907111653
 10
113.1125962707
 20
42.9025278286
 10
113.1141118237
 20
42.8955243802
 10
113.1156048815
 20
42.8861356737
 10
113.1170681179
 20
42.8744077798
 10
113.1184943529
 20
42.8603982473
 10
113.1198765879
 20
42.8441758212
 10
113.1212080406
 20
42.8258201042
 10
113.1224821775
 20
42.8054211673
 10
113.1236927466
 20
42.7830791073
 10
113.1248338078
 20
42.7589035555
 10
113.125899762
 20
42.7330131397
 10
113.1268853787
 20
42.705534903
  0
LINE
  5
4CE
100
AcDbEntity
  8
ASSI
100
AcDbLine
 62
7
  6
CONTINUOUS
 10
-150.7365128443
 20
-42.95
 11
-152.4511382663
 21
-42.9051009532
  0
LINE
  5
4CF
100
AcDbEntity
  8
ASSI
100
AcDbLine
 62
7
  6
CONTINUOUS
 10
-152.4539853807
 20
-42.9049536168
 11
-152.4509515556
 21
-42.9051058424
  0
LWPOLYLINE
  5
4D0
100
AcDbEntity
  8
ASSI
100
AcDbPolyline
 62
250
  6
CONTINUOUS
 90
22
 70
0
 10
-150.7365127891
 20
-42.1528974507
 10
-150.6383334784
 20
-42.1425849771
 10
-150.5398488436
 20
-42.1300008412
 10
-150.4411267132
 20
-42.1151450431
 10
-150.3423542398
 20
-42.0980809515
 10
-150.2434850395
 20
-42.0787451976
 10
-150.1442457982
 20
-42.0569476751
 10
-150.0447610586
 20
-42.0327295488
 10
-149.9450761814
 20
-42.0060496539
 10
-149.8448215581
 20
-41.9765943905
 10
-149.7436717422
 20
-41.9442047328
 10
-149.6421822134
 20
-41.9090397067
 10
-149.5412975088
 20
-41.8712627895
 10
-149.4407447634
 20
-41.8305920074
 10
-149.3409980008
 20
-41.7873093342
 10
-149.2440187986
 20
-41.7424241697
 10
-149.1499261889
 20
-41.6958352442
 10
-149.0586185883
 20
-41.6476438274
 10
-148.9715667059
 20
-41.5991631283
 10
-148.8891728602
 20
-41.5508308834
 10
-148.8108524159
 20
-41.5022093564
 10
-148.736512866
 20
-41.4532985471
  0
LINE
  5
4D1
100
AcDbEntity
  8
ASSI
100
AcDbLine
 62
250
  6
CONTINUOUS
 10
-152.7676567393
 20
-42.1308558329
 11
-152.7776464357
 21
-42.1313744788
  0
LINE
  5
4D2
100
AcDbEntity
  8
ASSI
100
AcDbLine
 62
250
  6
CONTINUOUS
 10
-152.2925568012
 20
-42.109527695
 11
-152.7676567393
 21
-42.1308558329
  0
LINE
  5
4D3
100
AcDbEntity
  8
ASSI
100
AcDbLine
 62
250
  6
CONTINUOUS
 10
-150.7365128443
 20
-42.15027414
 11
-152.2925679684
 21
-42.1095274026
  0
LINE
  5
4D4
100
AcDbEntity
  8
ASSI
100
AcDbLine
 62
7
  6
CONTINUOUS
 10
-152.5111497823
 20
-42.8999051482
 11
-152.4838660846
 21
-42.9029264385
  0
LINE
  5
4D5
100
AcDbEntity
  8
ASSI
100
AcDbLine
 62
7
  6
CONTINUOUS
 10
-152.9020621558
 20
-42.5915258566
 11
-152.9021457605
 21
-42.5915117232
  0
LINE
  5
4D6
100
AcDbEntity
  8
ASSI
100
AcDbLine
 62
7
  6
CONTINUOUS
 10
-152.5584395966
 20
-42.8905800602
 11
-152.5111497823
 21
-42.8999051482
  0
LWPOLYLINE
  5
4D7
100
AcDbEntity
  8
RACCORDO
100
AcDbPolyline
 62
250
  6
CONTINUOUS
 90
3
 70
0
 10
-156.9492395247
 20
-23.1725667084
 10
-156.9586364897
 20
-23.1735449782
 10
-156.9766890603
 20
-23.1755045118
  0
LWPOLYLINE
  5
4D8
100
AcDbEntity
  8
RACCORDO
100
AcDbPolyline
 62
250
  6
CONTINUOUS
 90
4
 70
0
 10
-156.8879594958
 20
-23.1667029151
 10
-156.9030312803
 20
-23.1680545662
 10
-156.9164371158
 20
-23.1693220611
 10
-156.9492395247
 20
-23.1725667084
  0
LINE
  5
4D9
100
AcDbEntity
  8
RACCORDO
100
AcDbLine
 62
250
  6
CONTINUOUS
 10
-156.8882253299
 20
-22.3675989179
 11
-156.888474112
 21
-22.3675714059
  0
LWPOLYLINE
  5
4DA
100
AcDbEntity
  8
RACCORDO
100
AcDbPolyline
 62
7
  6
CONTINUOUS
 90
19
 70
0
 10
-156.9369690931
 20
-22.8846019737
 10
-156.9590425261
 20
-22.8890611128
 10
-156.9807723525
 20
-22.8951805702
 10
-157.0020474893
 20
-22.9029440631
 10
-157.0227262329
 20
-22.9123152939
 10
-157.042642202
 20
-22.9232265346
 10
-157.0616629542
 20
-22.9356039702
 10
-157.0796982681
 20
-22.9493875785
 10
-157.0966549544
 20
-22.9645099935
 10
-157.1124359321
 20
-22.9808918044
 10
-157.126943145
 20
-22.9984389404
 10
-157.1400893356
 20
-23.0170533692
 10
-157.1517948083
 20
-23.0366305724
 10
-157.1619876925
 20
-23.0570597167
 10
-157.1706045051
 20
-23.0782241884
 10
-157.1775908616
 20
-23.1000028108
 10
-157.1829017448
 20
-23.1222705738
 10
-157.1865016562
 20
-23.1448989057
 10
-157.1883649481
 20
-23.1677565473
  0
LINE
  5
4DB
100
AcDbEntity
  8
RACCORDO
100
AcDbLine
 62
250
  6
CONTINUOUS
 10
-157.0536118652
 20
-23.1847304582
 11
-157.1641820439
 21
-23.1991096589
  0
LINE
  5
4DC
100
AcDbEntity
  8
RACCORDO
100
AcDbLine
 62
7
  6
CONTINUOUS
 10
-156.9147902111
 20
-22.8818257093
 11
-156.9369690931
 21
-22.8846019737
  0
LINE
  5
4DD
100
AcDbEntity
  8
RACCORDO
100
AcDbLine
 62
250
  6
CONTINUOUS
 10
-157.0204844294
 20
-23.1805969198
 11
-157.0536118652
 21
-23.1847304582
  0
LWPOLYLINE
  5
4DE
100
AcDbEntity
  8
RACCORDO
100
AcDbPolyline
 62
250
  6
CONTINUOUS
 90
3
 70
0
 10
-157.1641820439
 20
-23.1991096589
 10
-157.1874056694
 20
-23.2020199084
 10
-157.1876950492
 20
-23.2020633323
  0
LINE
  5
4DF
100
AcDbEntity
  8
RACCORDO
100
AcDbLine
 62
250
  6
CONTINUOUS
 10
-157.1851993389
 20
-23.2017531919
 11
-157.1865611456
 21
-23.2019165282
  0
LINE
  5
4E0
100
AcDbEntity
  8
RACCORDO
100
AcDbLine
 62
250
  6
CONTINUOUS
 10
-156.9944384472
 20
-23.1775050666
 11
-157.0204844294
 21
-23.1805969198
  0
LINE
  5
4E1
100
AcDbEntity
  8
RACCORDO
100
AcDbLine
 62
250
  6
CONTINUOUS
 10
-156.9766890603
 20
-23.1755045118
 11
-156.9944384472
 21
-23.1775050666
  0
LINE
  5
4E2
100
AcDbEntity
  8
RACCORDO
100
AcDbLine
 62
7
  6
CONTINUOUS
 10
-156.9147898407
 20
-22.8818256769
 11
-156.8776497146
 21
-22.8785763369
  0
LINE
  5
4E3
100
AcDbEntity
  8
ASSI
100
AcDbLine
 62
7
  6
CONTINUOUS
 10
-153.718256524
 20
40.4495648711
 11
-153.8436564206
 21
40.0983911518
  0
LINE
  5
4E4
100
AcDbEntity
  8
ASSI
100
AcDbLine
 62
7
  6
CONTINUOUS
 10
-153.6192991529
 20
40.7221360426
 11
-153.7334346355
 21
40.4072820622
  0
LINE
  5
4E5
100
AcDbEntity
  8
ASSI
100
AcDbLine
 62
7
  6
CONTINUOUS
 10
-153.5052333159
 20
41.0315221042
 11
-153.6251955595
 21
40.7057430514
  0
LINE
  5
4E6
100
AcDbEntity
  8
ASSI
100
AcDbLine
 62
7
  6
CONTINUOUS
 10
-153.3946518134
 20
41.3267901221
 11
-153.5193186363
 21
40.9932488884
  0
LINE
  5
4E7
100
AcDbEntity
  8
ASSI
100
AcDbLine
 62
7
  6
CONTINUOUS
 10
-153.2672901113
 20
41.6611179212
 11
-153.4161108961
 21
41.2694743676
  0
LINE
  5
4E8
100
AcDbEntity
  8
ASSI
100
AcDbLine
 62
7
  6
CONTINUOUS
 10
-153.1699333039
 20
41.9135732442
 11
-153.2880531003
 21
41.6072844931
  0
LINE
  5
4E9
100
AcDbEntity
  8
ASSI
100
AcDbLine
 62
7
  6
CONTINUOUS
 10
-153.0391332343
 20
42.2472213263
 11
-153.1725030957
 21
41.9066520616
  0
LINE
  5
4EA
100
AcDbEntity
  8
ASSI
100
AcDbLine
 62
7
  6
CONTINUOUS
 10
-152.9212336599
 20
42.5437064878
 11
-153.0445141226
 21
42.2338351685
  0
LINE
  5
4EB
100
AcDbEntity
  8
ASSI
100
AcDbLine
 62
7
  6
CONTINUOUS
 10
-152.9020634144
 20
42.5915211273
 11
-152.9350015217
 21
42.5095027751
  0
LINE
  5
4EC
100
AcDbEntity
  8
ASSI
100
AcDbLine
 62
7
  6
CONTINUOUS
 10
-153.0198266327
 20
-42.2962961063
 11
-152.9020635542
 21
-42.5915207791
  0
LINE
  5
4ED
100
AcDbEntity
  8
ASSI
100
AcDbLine
 62
7
  6
CONTINUOUS
 10
-153.1300253483
 20
-42.0160210573
 11
-152.997804152
 21
-42.3516316444
  0
LINE
  5
4EE
100
AcDbEntity
  8
ASSI
100
AcDbLine
 62
7
  6
CONTINUOUS
 10
-153.2672971702
 20
-41.6610995247
 11
-153.1268341656
 21
-42.0239056282
  0
LINE
  5
4EF
100
AcDbEntity
  8
ASSI
100
AcDbLine
 62
7
  6
CONTINUOUS
 10
-153.3656750983
 20
-41.4030660225
 11
-153.2470522162
 21
-41.7141285738
  0
LINE
  5
4F0
100
AcDbEntity
  8
ASSI
100
AcDbLine
 62
7
  6
CONTINUOUS
 10
-153.4673463145
 20
-41.1328339826
 11
-153.3506956085
 21
-41.4429337635
  0
LINE
  5
4F1
100
AcDbEntity
  8
ASSI
100
AcDbLine
 62
7
  6
CONTINUOUS
 10
-153.5719617616
 20
-40.850833652
 11
-153.4562060863
 21
-41.1629846739
  0
LINE
  5
4F2
100
AcDbEntity
  8
ASSI
100
AcDbLine
 62
7
  6
CONTINUOUS
 10
-153.6790562617
 20
-40.5578142677
 11
-153.5642413017
 21
-40.8720983686
  0
LINE
  5
4F3
100
AcDbEntity
  8
ASSI
100
AcDbLine
 62
7
  6
CONTINUOUS
 10
-153.788311781
 20
-40.2541341144
 11
-153.6757017088
 21
-40.5672662466
  0
LINE
  5
4F4
100
AcDbEntity
  8
ASSI
100
AcDbLine
 62
7
  6
CONTINUOUS
 10
-153.8436568786
 20
-40.0983898577
 11
-153.7717297679
 21
-40.3005962288
  0
LINE
  5
4F5
100
AcDbEntity
  8
ASSI
100
AcDbLine
 62
7
  6
CONTINUOUS
 10
-155.1115467872
 20
36.0609260594
 11
-155.2262833844
 21
35.6338221507
  0
LINE
  5
4F6
100
AcDbEntity
  8
ASSI
100
AcDbLine
 62
7
  6
CONTINUOUS
 10
-154.9913314253
 20
36.4939658966
 11
-155.1115467872
 21
36.0609260594
  0
LINE
  5
4F7
100
AcDbEntity
  8
ASSI
100
AcDbLine
 62
7
  6
CONTINUOUS
 10
-154.8672811039
 20
36.9268669408
 11
-154.9913314253
 21
36.4939658966
  0
LINE
  5
4F8
100
AcDbEntity
  8
ASSI
100
AcDbLine
 62
7
  6
CONTINUOUS
 10
-154.7412892281
 20
37.3534457284
 11
-154.8672811039
 21
36.9268669408
  0
LINE
  5
4F9
100
AcDbEntity
  8
ASSI
100
AcDbLine
 62
7
  6
CONTINUOUS
 10
-154.6147208863
 20
37.7699189752
 11
-154.7412892281
 21
37.3534457284
  0
LINE
  5
4FA
100
AcDbEntity
  8
ASSI
100
AcDbLine
 62
7
  6
CONTINUOUS
 10
-154.4898291552
 20
38.1700664145
 11
-154.6147208863
 21
37.7699189752
  0
LINE
  5
4FB
100
AcDbEntity
  8
ASSI
100
AcDbLine
 62
7
  6
CONTINUOUS
 10
-154.3670384064
 20
38.5538725382
 11
-154.4898291552
 21
38.1700664145
  0
LINE
  5
4FC
100
AcDbEntity
  8
ASSI
100
AcDbLine
 62
7
  6
CONTINUOUS
 10
-154.2467022953
 20
38.9214666446
 11
-154.3670384064
 21
38.5538725382
  0
LINE
  5
4FD
100
AcDbEntity
  8
ASSI
100
AcDbLine
 62
7
  6
CONTINUOUS
 10
-154.1287154205
 20
39.274259802
 11
-154.2467022953
 21
38.9214666446
  0
LINE
  5
4FE
100
AcDbEntity
  8
ASSI
100
AcDbLine
 62
7
  6
CONTINUOUS
 10
-154.0130022761
 20
39.6134070066
 11
-154.1287154205
 21
39.274259802
  0
LWPOLYLINE
  5
4FF
100
AcDbEntity
  8
ASSI
100
AcDbPolyline
 62
7
  6
CONTINUOUS
 90
3
 70
0
 10
-153.8436564206
 20
40.0983911518
 10
-153.8995821195
 20
39.9396601636
 10
-154.0130022761
 20
39.6134070066
  0
LINE
  5
500
100
AcDbEntity
  8
ASSI
100
AcDbLine
 62
7
  6
CONTINUOUS
 10
-153.9560524891
 20
-39.7779637347
 11
-153.8436706584
 21
-40.0983509162
  0
LINE
  5
501
100
AcDbEntity
  8
ASSI
100
AcDbLine
 62
7
  6
CONTINUOUS
 10
-154.0705907964
 20
-39.4454389007
 11
-153.9560524891
 21
-39.7779637347
  0
LINE
  5
502
100
AcDbEntity
  8
ASSI
100
AcDbLine
 62
7
  6
CONTINUOUS
 10
-154.1874128713
 20
-39.0996588201
 11
-154.0705907964
 21
-39.4454389007
  0
LINE
  5
503
100
AcDbEntity
  8
ASSI
100
AcDbLine
 62
7
  6
CONTINUOUS
 10
-154.3066174223
 20
-38.7394590149
 11
-154.1874128713
 21
-39.0996588201
  0
LINE
  5
504
100
AcDbEntity
  8
ASSI
100
AcDbLine
 62
7
  6
CONTINUOUS
 10
-154.4281307044
 20
-38.3640594566
 11
-154.3066174223
 21
-38.7394590149
  0
LINE
  5
505
100
AcDbEntity
  8
ASSI
100
AcDbLine
 62
7
  6
CONTINUOUS
 10
-154.5521015867
 20
-37.9718319
 11
-154.4281307044
 21
-38.3640594566
  0
LINE
  5
506
100
AcDbEntity
  8
ASSI
100
AcDbLine
 62
7
  6
CONTINUOUS
 10
-154.6778863478
 20
-37.5635134108
 11
-154.5521015867
 21
-37.9718319
  0
LINE
  5
507
100
AcDbEntity
  8
ASSI
100
AcDbLine
 62
7
  6
CONTINUOUS
 10
-154.8044589199
 20
-37.1411373712
 11
-154.6778863478
 21
-37.5635134108
  0
LINE
  5
508
100
AcDbEntity
  8
ASSI
100
AcDbLine
 62
7
  6
CONTINUOUS
 10
-154.9298095673
 20
-36.7103415557
 11
-154.8044589199
 21
-37.1411373712
  0
LINE
  5
509
100
AcDbEntity
  8
ASSI
100
AcDbLine
 62
7
  6
CONTINUOUS
 10
-155.0519477909
 20
-36.277366686
 11
-154.9298095673
 21
-36.7103415557
  0
LWPOLYLINE
  5
50A
100
AcDbEntity
  8
ASSI
100
AcDbPolyline
 62
7
  6
CONTINUOUS
 90
3
 70
0
 10
-155.2263111358
 20
-35.6337170943
 10
-155.1697172914
 20
-35.8461660497
 10
-155.0519477909
 20
-36.277366686
  0
LINE
  5
50B
100
AcDbEntity
  8
ASSI
100
AcDbLine
 62
7
  6
CONTINUOUS
 10
-156.2209620726
 20
31.0697271165
 11
-156.2263374316
 21
31.0389119177
  0
LINE
  5
50C
100
AcDbEntity
  8
ASSI
100
AcDbLine
 62
7
  6
CONTINUOUS
 10
-156.1880788999
 20
31.2447117559
 11
-156.2452491539
 21
30.9178560456
  0
LINE
  5
50D
100
AcDbEntity
  8
ASSI
100
AcDbLine
 62
7
  6
CONTINUOUS
 10
-156.2557130326
 20
30.8780075953
 11
-156.3472349926
 21
30.3541069872
  0
LINE
  5
50E
100
AcDbEntity
  8
ASSI
100
AcDbLine
 62
7
  6
CONTINUOUS
 10
-156.1681699923
 20
31.3679678829
 11
-156.2144612339
 21
31.1068908557
  0
LWPOLYLINE
  5
50F
100
AcDbEntity
  8
RACCORDO
100
AcDbPolyline
 62
7
  6
CONTINUOUS
 90
3
 70
0
 10
-156.2449293739
 20
30.9177985342
 10
-156.3629053927
 20
30.2618174722
 10
-156.4093427777
 20
29.9834510211
  0
LINE
  5
510
100
AcDbEntity
  8
ASSI
100
AcDbLine
 62
7
  6
CONTINUOUS
 10
-156.1298513659
 20
31.5679960233
 11
-156.1880788999
 21
31.2447117559
  0
LINE
  5
511
100
AcDbEntity
  8
ASSI
100
AcDbLine
 62
7
  6
CONTINUOUS
 10
-156.2004240933
 20
31.1839702848
 11
-156.2557130326
 21
30.8780075953
  0
LINE
  5
512
100
AcDbEntity
  8
ASSI
100
AcDbLine
 62
7
  6
CONTINUOUS
 10
-156.1167177052
 20
31.650639987
 11
-156.1681699923
 21
31.3679678829
  0
LINE
  5
513
100
AcDbEntity
  8
ASSI
100
AcDbLine
 62
7
  6
CONTINUOUS
 10
-156.0722070054
 20
31.8785807258
 11
-156.1298513659
 21
31.5679960233
  0
LINE
  5
514
100
AcDbEntity
  8
ASSI
100
AcDbLine
 62
7
  6
CONTINUOUS
 10
-156.0682794896
 20
31.9096906755
 11
-156.1167177052
 21
31.650639987
  0
LINE
  5
515
100
AcDbEntity
  8
ASSI
100
AcDbLine
 62
7
  6
CONTINUOUS
 10
-156.0264816659
 20
32.1185399988
 11
-156.0722070054
 21
31.8785807258
  0
LINE
  5
516
100
AcDbEntity
  8
ASSI
100
AcDbLine
 62
7
  6
CONTINUOUS
 10
-156.0094628894
 20
32.2154911842
 11
-156.0682794896
 21
31.9096906755
  0
LINE
  5
517
100
AcDbEntity
  8
ASSI
100
AcDbLine
 62
7
  6
CONTINUOUS
 10
-155.9745315568
 20
32.3846323601
 11
-156.0264816659
 21
32.1185399988
  0
LINE
  5
518
100
AcDbEntity
  8
ASSI
100
AcDbLine
 62
7
  6
CONTINUOUS
 10
-155.941343798
 20
32.5584173527
 11
-156.0094628894
 21
32.2154911842
  0
LINE
  5
519
100
AcDbEntity
  8
ASSI
100
AcDbLine
 62
7
  6
CONTINUOUS
 10
-155.8847608369
 20
32.8291096559
 11
-155.9462277646
 21
32.5268083961
  0
LINE
  5
51A
100
AcDbEntity
  8
ASSI
100
AcDbLine
 62
7
  6
CONTINUOUS
 10
-155.8170976583
 20
33.1522179488
 11
-155.9172131624
 21
32.6771692578
  0
LINE
  5
51B
100
AcDbEntity
  8
ASSI
100
AcDbLine
 62
7
  6
CONTINUOUS
 10
-155.7432251212
 20
33.4942189265
 11
-155.8435498381
 21
33.0314184837
  0
LINE
  5
51C
100
AcDbEntity
  8
ASSI
100
AcDbLine
 62
7
  6
CONTINUOUS
 10
-155.6634801064
 20
33.8517415962
 11
-155.7688403235
 21
33.3788134899
  0
LINE
  5
51D
100
AcDbEntity
  8
ASSI
100
AcDbLine
 62
7
  6
CONTINUOUS
 10
-155.5776343889
 20
34.2241369868
 11
-155.6634801064
 21
33.8517415962
  0
LINE
  5
51E
100
AcDbEntity
  8
ASSI
100
AcDbLine
 62
7
  6
CONTINUOUS
 10
-155.4854544432
 20
34.6107716003
 11
-155.5776343889
 21
34.2241369868
  0
LINE
  5
51F
100
AcDbEntity
  8
ASSI
100
AcDbLine
 62
7
  6
CONTINUOUS
 10
-155.3867249424
 20
35.010941263
 11
-155.4854544432
 21
34.6107716003
  0
LWPOLYLINE
  5
520
100
AcDbEntity
  8
ASSI
100
AcDbPolyline
 62
7
  6
CONTINUOUS
 90
3
 70
0
 10
-155.2262833844
 20
35.6338221507
 10
-155.2814375635
 20
35.4232620952
 10
-155.3867249424
 20
35.010941263
  0
LINE
  5
521
100
AcDbEntity
  8
ASSI
100
AcDbLine
 62
7
  6
CONTINUOUS
 10
-155.3349471227
 20
-35.2154754806
 11
-155.2263111358
 21
-35.6337170943
  0
LINE
  5
522
100
AcDbEntity
  8
ASSI
100
AcDbLine
 62
7
  6
CONTINUOUS
 10
-155.4369528387
 20
-34.8090819095
 11
-155.3349471227
 21
-35.2154754806
  0
LINE
  5
523
100
AcDbEntity
  8
ASSI
100
AcDbLine
 62
7
  6
CONTINUOUS
 10
-155.5323576489
 20
-34.4156852897
 11
-155.4369528387
 21
-34.8090819095
  0
LINE
  5
524
100
AcDbEntity
  8
ASSI
100
AcDbLine
 62
7
  6
CONTINUOUS
 10
-155.6213515997
 20
-34.0360452091
 11
-155.5323576489
 21
-34.4156852897
  0
LINE
  5
525
100
AcDbEntity
  8
ASSI
100
AcDbLine
 62
7
  6
CONTINUOUS
 10
-155.7041395296
 20
-33.6709072753
 11
-155.6213515997
 21
-34.0360452091
  0
LINE
  5
526
100
AcDbEntity
  8
ASSI
100
AcDbLine
 62
7
  6
CONTINUOUS
 10
-155.7808998821
 20
-33.3211516494
 11
-155.7041395296
 21
-33.6709072753
  0
LINE
  5
527
100
AcDbEntity
  8
ASSI
100
AcDbLine
 62
7
  6
CONTINUOUS
 10
-155.8489003788
 20
-33.0060917688
 11
-155.7806826666
 21
-33.3245033843
  0
LINE
  5
528
100
AcDbEntity
  8
ASSI
100
AcDbLine
 62
7
  6
CONTINUOUS
 10
-155.8945861366
 20
-32.7872835218
 11
-155.8171127793
 21
-33.1521468221
  0
LINE
  5
529
100
AcDbEntity
  8
ASSI
100
AcDbLine
 62
7
  6
CONTINUOUS
 10
-155.9629417301
 20
-32.4509418785
 11
-155.8847742749
 21
-32.8290445021
  0
LINE
  5
52A
100
AcDbEntity
  8
ASSI
100
AcDbLine
 62
7
  6
CONTINUOUS
 10
-156.0066113844
 20
-32.2300824281
 11
-155.9462396137
 21
-32.5267492765
  0
LINE
  5
52B
100
AcDbEntity
  8
ASSI
100
AcDbLine
 62
7
  6
CONTINUOUS
 10
-156.0660546243
 20
-31.9214298306
 11
-156.0013128788
 21
-32.2483030856
  0
LINE
  5
52C
100
AcDbEntity
  8
ASSI
100
AcDbLine
 62
7
  6
CONTINUOUS
 10
-156.1120535706
 20
-31.6648760421
 11
-156.0501002061
 21
-31.9952834754
  0
LINE
  5
52D
100
AcDbEntity
  8
ASSI
100
AcDbLine
 62
7
  6
CONTINUOUS
 10
-156.1154641193
 20
-31.6574293382
 11
-156.0660546243
 21
-31.9214298306
  0
LINE
  5
52E
100
AcDbEntity
  8
ASSI
100
AcDbLine
 62
7
  6
CONTINUOUS
 10
-156.1673406064
 20
-31.3725871229
 11
-156.1154641193
 21
-31.6574293382
  0
LWPOLYLINE
  5
52F
100
AcDbEntity
  8
RACCORDO
100
AcDbPolyline
 62
7
  6
CONTINUOUS
 90
3
 70
0
 10
-156.2505545324
 20
-30.8865210126
 10
-156.3629054728
 20
-30.2618169987
 10
-156.4093446871
 20
-29.9834394177
  0
LINE
  5
530
100
AcDbEntity
  8
ASSI
100
AcDbLine
 62
7
  6
CONTINUOUS
 10
-156.1754001208
 20
-31.3159398291
 11
-156.1120535706
 21
-31.6648760421
  0
LINE
  5
531
100
AcDbEntity
  8
ASSI
100
AcDbLine
 62
7
  6
CONTINUOUS
 10
-156.2687685871
 20
-30.8047280297
 11
-156.2005522546
 21
-31.1832673276
  0
LINE
  5
532
100
AcDbEntity
  8
ASSI
100
AcDbLine
 62
7
  6
CONTINUOUS
 10
-156.2146286872
 20
-31.1059282056
 11
-156.1673406064
 21
-31.3725871229
  0
LINE
  5
533
100
AcDbEntity
  8
ASSI
100
AcDbLine
 62
7
  6
CONTINUOUS
 10
-156.316253637
 20
-30.5342309762
 11
-156.2687685871
 21
-30.8047280297
  0
LINE
  5
534
100
AcDbEntity
  8
ASSI
100
AcDbLine
 62
7
  6
CONTINUOUS
 10
-156.2340028366
 20
-30.9828538479
 11
-156.1754001208
 21
-31.3159398291
  0
LINE
  5
535
100
AcDbEntity
  8
ASSI
100
AcDbLine
 62
7
  6
CONTINUOUS
 10
-156.2506645738
 20
-30.8864659643
 11
-156.2340028366
 21
-30.9828538479
  0
LINE
  5
536
100
AcDbEntity
  8
ASSI
100
AcDbLine
 62
7
  6
CONTINUOUS
 10
-156.3491617914
 20
-30.3428039295
 11
-156.316253637
 21
-30.5342309762
  0
LINE
  5
537
100
AcDbEntity
  8
RACCORDO
100
AcDbLine
 62
7
  6
CONTINUOUS
 10
-157.065143638
 20
-24.7318305654
 11
-157.0678601121
 21
-24.7040540322
  0
LINE
  5
538
100
AcDbEntity
  8
RACCORDO
100
AcDbLine
 62
7
  6
CONTINUOUS
 10
-157.0651436434
 20
-24.7318304988
 11
-157.1880590967
 21
-23.202162108
  0
LINE
  5
539
100
AcDbEntity
  8
RACCORDO
100
AcDbLine
 62
7
  6
CONTINUOUS
 10
-157.065143638
 20
24.7318305654
 11
-157.1880590967
 21
23.202162108
  0
LINE
  5
53A
100
AcDbEntity
  8
RACCORDO
100
AcDbLine
 62
7
  6
CONTINUOUS
 10
-157.0651436434
 20
24.7318304988
 11
-157.0678601121
 21
24.7040540322
  0
LINE
  5
53B
100
AcDbEntity
  8
RACCORDO
100
AcDbLine
 62
7
  6
CONTINUOUS
 10
-156.5517061838
 20
29.0783554796
 11
-156.7539195865
 21
27.6221087152
  0
LINE
  5
53C
100
AcDbEntity
  8
RACCORDO
100
AcDbLine
 62
7
  6
CONTINUOUS
 10
-156.4093427777
 20
29.9834510211
 11
-156.5721783948
 21
28.9409812037
  0
LINE
  5
53D
100
AcDbEntity
  8
ASSI
100
AcDbLine
 62
7
  6
CONTINUOUS
 10
-156.3472362481
 20
30.3540995814
 11
-156.3691644503
 21
30.2247412821
  0
LWPOLYLINE
  5
53E
100
AcDbEntity
  8
0
100
AcDbPolyline
 62
7
  6
CONTINUOUS
 90
3
 70
0
 43
0.3500000006
 10
-144.1650580444
 20
51.9857129974
 10
-144.2364801636
 20
51.7714285126
 10
-144.3793425293
 20
51.4857128448
  0
LINE
  5
53F
100
AcDbEntity
  8
ASSI
100
AcDbLine
 62
7
  6
CONTINUOUS
 10
-156.3691644503
 20
-30.2247412821
 11
-156.3491617914
 21
-30.3428039295
  0
LINE
  5
540
100
AcDbEntity
  8
RACCORDO
100
AcDbLine
 62
7
  6
CONTINUOUS
 10
-156.4093446044
 20
-29.9834399204
 11
-156.5721784207
 21
-28.9409810159
  0
LINE
  5
541
100
AcDbEntity
  8
RACCORDO
100
AcDbLine
 62
7
  6
CONTINUOUS
 10
-156.5517061838
 20
-29.0783554796
 11
-156.7539195874
 21
-27.6221087082
  0
LWPOLYLINE
  5
542
100
AcDbEntity
  8
ASSI
100
AcDbPolyline
 62
250
  6
CONTINUOUS
 90
22
 70
0
 10
-152.7776775257
 20
-42.4460422306
 10
-152.7738956904
 20
-42.4808636425
 10
-152.7676876593
 20
-42.5153341958
 10
-152.7590839544
 20
-42.549284739
 10
-152.7481268855
 20
-42.5825485915
 10
-152.7348702565
 20
-42.6149626289
 10
-152.7193790406
 20
-42.6463680588
 10
-152.7017292052
 20
-42.6766108478
 10
-152.6820073988
 20
-42.7055425029
 10
-152.6603103987
 20
-42.7330210508
 10
-152.6367446753
 20
-42.7589116484
 10
-152.6114258697
 20
-42.7830872441
 10
-152.5844782257
 20
-42.8054292024
 10
-152.5560339798
 20
-42.8258278858
 10
-152.5262327134
 20
-42.8441831927
 10
-152.495220668
 20
-42.8604050482
 10
-152.4631492289
 20
-42.8744141628
 10
-152.4301765297
 20
-42.886141363
 10
-152.3964668828
 20
-42.8955284944
 10
-152.3621866821
 20
-42.9025298743
 10
-152.327503389
 20
-42.9071119428
 10
-152.2925871975
 20
-42.909252759
  0
LINE
  5
543
100
AcDbEntity
  8
RACCORDO
100
AcDbLine
 62
7
  6
CONTINUOUS
 10
-156.8800008958
 20
23.0797169193
 11
-156.8795483572
 21
23.0689814445
  0
LINE
  5
544
100
AcDbEntity
  8
RACCORDO
100
AcDbLine
 62
7
  6
CONTINUOUS
 10
-156.8795483572
 20
23.0689814445
 11
-156.8791158588
 21
23.0563627771
  0
LINE
  5
545
100
AcDbEntity
  8
RACCORDO
100
AcDbLine
 62
250
  6
CONTINUOUS
 10
-156.9050152057
 20
-21.8376641213
 11
-156.8882253299
 21
-22.3675989178
  0
LINE
  5
546
100
AcDbEntity
  8
RACCORDO
100
AcDbLine
 62
7
  6
CONTINUOUS
 10
-156.8884741123
 20
-22.3675713948
 11
-156.8852410832
 21
-22.4703894213
  0
LINE
  5
547
100
AcDbEntity
  8
RACCORDO
100
AcDbLine
 62
7
  6
CONTINUOUS
 10
-156.8791158588
 20
23.0563627771
 11
-156.8787179366
 21
23.0418553804
  0
LINE
  5
548
100
AcDbEntity
  8
RACCORDO
100
AcDbLine
 62
250
  6
CONTINUOUS
 10
-156.9328313423
 20
-20.7970526148
 11
-156.9050152057
 21
-21.8376641213
  0
LINE
  5
549
100
AcDbEntity
  8
RACCORDO
100
AcDbLine
 62
7
  6
CONTINUOUS
 10
-156.8852410832
 20
-22.4703894213
 11
-156.882086105
 21
-22.5897908489
  0
LINE
  5
54A
100
AcDbEntity
  8
RACCORDO
100
AcDbLine
 62
250
  6
CONTINUOUS
 10
-156.8822383651
 20
-22.5727256094
 11
-156.882086105
 21
-22.5897908489
  0
LINE
  5
54B
100
AcDbEntity
  8
RACCORDO
100
AcDbLine
 62
250
  6
CONTINUOUS
 10
-156.8815629448
 20
-22.6124360607
 11
-156.8810630646
 21
-22.6228771734
  0
LINE
  5
54C
100
AcDbEntity
  8
RACCORDO
100
AcDbLine
 62
7
  6
CONTINUOUS
 10
-156.8787179366
 20
23.0418553804
 11
-156.8783651886
 21
23.0254562936
  0
LINE
  5
54D
100
AcDbEntity
  8
RACCORDO
100
AcDbLine
 62
7
  6
CONTINUOUS
 10
-156.882086105
 20
-22.5897908489
 11
-156.880200433
 21
-22.6777256139
  0
LINE
  5
54E
100
AcDbEntity
  8
RACCORDO
100
AcDbLine
 62
250
  6
CONTINUOUS
 10
-156.9748951469
 20
-18.7977945339
 11
-156.9328313423
 21
-20.7970526148
  0
LINE
  5
54F
100
AcDbEntity
  8
RACCORDO
100
AcDbLine
 62
250
  6
CONTINUOUS
 10
-156.8800366887
 20
-22.6716847523
 11
-156.880200433
 21
-22.6777256139
  0
LINE
  5
550
100
AcDbEntity
  8
RACCORDO
100
AcDbLine
 62
250
  6
CONTINUOUS
 10
-156.8798121351
 20
-22.6985746219
 11
-156.8791634969
 21
-22.7190794219
  0
LINE
  5
551
100
AcDbEntity
  8
RACCORDO
100
AcDbLine
 62
7
  6
CONTINUOUS
 10
-156.8783651886
 20
23.0254562936
 11
-156.8780643753
 21
23.0071632829
  0
LINE
  5
552
100
AcDbEntity
  8
RACCORDO
100
AcDbLine
 62
7
  6
CONTINUOUS
 10
-156.880200433
 20
-22.6777256139
 11
-156.8788441369
 21
-22.7582640376
  0
LINE
  5
553
100
AcDbEntity
  8
RACCORDO
100
AcDbLine
 62
250
  6
CONTINUOUS
 10
-156.8777937925
 20
23.0325021957
 11
-156.8780643753
 21
23.0071632829
  0
LWPOLYLINE
  5
554
100
AcDbEntity
  8
RACCORDO
100
AcDbPolyline
 62
7
  6
CONTINUOUS
 90
7
 70
0
 10
-157.1466680915
 20
-8.1294331798
 10
-157.1156887993
 20
-10.710400108
 10
-157.0777605683
 20
-13.2133075146
 10
-157.0353658379
 20
-15.6376134179
 10
-156.9910174584
 20
-17.9832067862
 10
-156.9456073541
 20
-20.2507704302
 10
-156.888474112
 20
-22.3675714058
  0
LINE
  5
555
100
AcDbEntity
  8
RACCORDO
100
AcDbLine
 62
7
  6
CONTINUOUS
 10
-156.8788441369
 20
-22.7582640376
 11
-156.8779846991
 21
-22.8310546885
  0
LINE
  5
556
100
AcDbEntity
  8
RACCORDO
100
AcDbLine
 62
7
  6
CONTINUOUS
 10
-156.8780643753
 20
23.0071632829
 11
-156.877728717
 21
22.9762491735
  0
LINE
  5
557
100
AcDbEntity
  8
RACCORDO
100
AcDbLine
 62
7
  6
CONTINUOUS
 10
-157.1696163817
 20
-5.4706734392
 11
-157.1469032507
 21
-8.1353971516
  0
LINE
  5
558
100
AcDbEntity
  8
RACCORDO
100
AcDbLine
 62
250
  6
CONTINUOUS
 10
-156.8774051667
 20
23.0025128455
 11
-156.877728717
 21
22.9762491735
  0
LINE
  5
559
100
AcDbEntity
  8
RACCORDO
100
AcDbLine
 62
7
  6
CONTINUOUS
 10
-156.8779846991
 20
-22.8310546885
 11
-156.877639727
 21
-22.8804087638
  0
LINE
  5
55A
100
AcDbEntity
  8
RACCORDO
100
AcDbLine
 62
7
  6
CONTINUOUS
 10
-157.1838155466
 20
-2.7339855668
 11
-157.1705981005
 21
-5.4769253039
  0
LINE
  5
55B
100
AcDbEntity
  8
RACCORDO
100
AcDbLine
 62
7
  6
CONTINUOUS
 10
-156.877728717
 20
22.9762491735
 11
-156.8775565454
 21
22.9410959429
  0
LINE
  5
55C
100
AcDbEntity
  8
RACCORDO
100
AcDbLine
 62
250
  6
CONTINUOUS
 10
-156.8771716902
 20
22.9698005307
 11
-156.8775565454
 21
22.9410959429
  0
LINE
  5
55D
100
AcDbEntity
  8
RACCORDO
100
AcDbLine
 62
7
  6
CONTINUOUS
 10
-157.1885279351
 20
0.0
 11
-157.1845689319
 21
-2.7404492155
  0
LWPOLYLINE
  5
55E
100
AcDbEntity
  8
RACCORDO
100
AcDbPolyline
 62
250
  6
CONTINUOUS
 90
5
 70
0
 10
-156.8879594958
 20
23.1667029151
 10
-156.8879270409
 20
23.141301274
 10
-156.8857469937
 20
23.1159936691
 10
-156.8814349896
 20
23.0909615411
 10
-156.8803625767
 20
23.086851651
  0
LINE
  5
55F
100
AcDbEntity
  8
RACCORDO
100
AcDbLine
 62
7
  6
CONTINUOUS
 10
-156.877639727
 20
-22.8804087638
 11
-156.877537052
 21
-22.9252224592
  0
LWPOLYLINE
  5
560
100
AcDbEntity
  8
RACCORDO
100
AcDbPolyline
 62
250
  6
CONTINUOUS
 90
5
 70
0
 10
-156.8879594958
 20
-23.1667029151
 10
-156.8879270475
 20
-23.1413014106
 10
-156.8857470272
 20
-23.1159939198
 10
-156.8814350648
 20
-23.0909618812
 10
-156.880360338
 20
-23.0868431016
  0
LINE
  5
561
100
AcDbEntity
  8
RACCORDO
100
AcDbLine
 62
7
  6
CONTINUOUS
 10
-157.1845689319
 20
2.7404492155
 11
-157.1889588104
 21
-0.0000000007
  0
LINE
  5
562
100
AcDbEntity
  8
RACCORDO
100
AcDbLine
 62
7
  6
CONTINUOUS
 10
-156.8775565454
 20
22.9410959429
 11
-156.8775636643
 21
22.9016418071
  0
LWPOLYLINE
  5
563
100
AcDbEntity
  8
RACCORDO
100
AcDbPolyline
 62
7
  6
CONTINUOUS
 90
3
 70
0
 10
-157.1883649481
 20
-23.1677565473
 10
-157.1884760367
 20
-23.1907103052
 10
-157.1878749497
 20
-23.2021461082
  0
LINE
  5
564
100
AcDbEntity
  8
RACCORDO
100
AcDbLine
 62
7
  6
CONTINUOUS
 10
-156.877537052
 20
-22.9252224592
 11
-156.8776543106
 21
-22.9653862873
  0
LINE
  5
565
100
AcDbEntity
  8
RACCORDO
100
AcDbLine
 62
7
  6
CONTINUOUS
 10
-157.1705981005
 20
5.4769253039
 11
-157.1845907192
 21
2.7337824085
  0
LINE
  5
566
100
AcDbEntity
  8
RACCORDO
100
AcDbLine
 62
250
  6
CONTINUOUS
 10
-157.1752674424
 20
4.4549239819
 11
-157.1833743804
 21
2.642445636
  0
LINE
  5
567
100
AcDbEntity
  8
RACCORDO
100
AcDbLine
 62
250
  6
CONTINUOUS
 10
-156.8778489017
 20
-22.9894932482
 11
-156.8773597674
 21
-22.9979089898
  0
LINE
  5
568
100
AcDbEntity
  8
RACCORDO
100
AcDbLine
 62
7
  6
CONTINUOUS
 10
-156.8775636643
 20
22.9016418071
 11
-156.877886497
 21
22.8423978023
  0
LINE
  5
569
100
AcDbEntity
  8
RACCORDO
100
AcDbLine
 62
250
  6
CONTINUOUS
 10
-157.1695700952
 20
5.4773451836
 11
-157.1718429766
 21
5.0272147901
  0
LINE
  5
56A
100
AcDbEntity
  8
RACCORDO
100
AcDbLine
 62
7
  6
CONTINUOUS
 10
-157.1465987146
 20
8.1361065628
 11
-157.1706424537
 21
5.4702584772
  0
LINE
  5
56B
100
AcDbEntity
  8
RACCORDO
100
AcDbLine
 62
7
  6
CONTINUOUS
 10
-156.8776543106
 20
-22.9653862873
 11
-156.8778489017
 21
-22.9894932482
  0
LINE
  5
56C
100
AcDbEntity
  8
RACCORDO
100
AcDbLine
 62
250
  6
CONTINUOUS
 10
-156.8774067022
 20
22.8573293371
 11
-156.877886497
 21
22.8423978023
  0
LINE
  5
56D
100
AcDbEntity
  8
RACCORDO
100
AcDbLine
 62
250
  6
CONTINUOUS
 10
-156.8780284849
 20
22.826402331
 11
-156.8778009571
 21
22.8152709048
  0
LINE
  5
56E
100
AcDbEntity
  8
RACCORDO
100
AcDbLine
 62
250
  6
CONTINUOUS
 10
-156.8782946574
 20
-23.0216292135
 11
-156.8777297949
 21
-23.0284457987
  0
LINE
  5
56F
100
AcDbEntity
  8
RACCORDO
100
AcDbLine
 62
7
  6
CONTINUOUS
 10
-157.1155948312
 20
10.7170738886
 11
-157.1469748025
 21
8.128729834
  0
LINE
  5
570
100
AcDbEntity
  8
RACCORDO
100
AcDbLine
 62
7
  6
CONTINUOUS
 10
-156.877886497
 20
22.8423978023
 11
-156.878674383
 21
22.7704795934
  0
LINE
  5
571
100
AcDbEntity
  8
RACCORDO
100
AcDbLine
 62
7
  6
CONTINUOUS
 10
-156.8778489017
 20
-22.9894932482
 11
-156.8781277051
 21
-23.0114723672
  0
LINE
  5
572
100
AcDbEntity
  8
RACCORDO
100
AcDbLine
 62
7
  6
CONTINUOUS
 10
-157.0776503134
 20
13.2199824438
 11
-157.1156887993
 21
10.710400108
  0
LINE
  5
573
100
AcDbEntity
  8
RACCORDO
100
AcDbLine
 62
7
  6
CONTINUOUS
 10
-157.0352410752
 20
15.6442889716
 11
-157.0777605683
 21
13.2133075146
  0
LINE
  5
574
100
AcDbEntity
  8
RACCORDO
100
AcDbLine
 62
7
  6
CONTINUOUS
 10
-156.8786053785
 20
22.7756261363
 11
-156.8798623106
 21
22.6958053234
  0
LINE
  5
575
100
AcDbEntity
  8
RACCORDO
100
AcDbLine
 62
250
  6
CONTINUOUS
 10
-156.8790752356
 20
22.7243033265
 11
-156.8797577782
 21
22.7016139492
  0
LINE
  5
576
100
AcDbEntity
  8
RACCORDO
100
AcDbLine
 62
250
  6
CONTINUOUS
 10
-156.8801186817
 20
22.682022529
 11
-156.8799472968
 21
22.676242989
  0
LINE
  5
577
100
AcDbEntity
  8
RACCORDO
100
AcDbLine
 62
7
  6
CONTINUOUS
 10
-156.9908602441
 20
17.9898844343
 11
-157.0353658379
 21
15.6376134179
  0
LWPOLYLINE
  5
578
100
AcDbEntity
  8
RACCORDO
100
AcDbPolyline
 62
250
  6
CONTINUOUS
 90
10
 70
0
 10
-156.8786789533
 20
-23.0402540145
 10
-156.8782630195
 20
-23.0564143161
 10
-156.8789559636
 20
-23.0817455417
 10
-156.8798046323
 20
-23.1039081777
 10
-156.8808172062
 20
-23.1228206258
 10
-156.8819861334
 20
-23.1385644955
 10
-156.8832861988
 20
-23.1508533022
 10
-156.884710333
 20
-23.1595915551
 10
-156.886267925
 20
-23.1648747572
 10
-156.8879594958
 20
-23.1667029151
  0
LINE
  5
579
100
AcDbEntity
  8
RACCORDO
100
AcDbLine
 62
7
  6
CONTINUOUS
 10
-156.8781277051
 20
-23.0114723672
 11
-156.8784786026
 21
-23.0312211242
  0
LINE
  5
57A
100
AcDbEntity
  8
RACCORDO
100
AcDbLine
 62
7
  6
CONTINUOUS
 10
-156.9454623584
 20
20.2574375565
 11
-156.9910174584
 21
17.9832067862
  0
LINE
  5
57B
100
AcDbEntity
  8
RACCORDO
100
AcDbLine
 62
7
  6
CONTINUOUS
 10
-156.8797577782
 20
22.7016139492
 11
-156.8818569797
 21
22.5995648591
  0
LINE
  5
57C
100
AcDbEntity
  8
RACCORDO
100
AcDbLine
 62
250
  6
CONTINUOUS
 10
-156.8809826955
 20
22.6265720995
 11
-156.8815210896
 21
22.6142974228
  0
LINE
  5
57D
100
AcDbEntity
  8
RACCORDO
100
AcDbLine
 62
250
  6
CONTINUOUS
 10
-156.8820120477
 20
22.592930294
 11
-156.8821738626
 21
22.5754141666
  0
LINE
  5
57E
100
AcDbEntity
  8
RACCORDO
100
AcDbLine
 62
7
  6
CONTINUOUS
 10
-156.8784786026
 20
-23.0312211242
 11
-156.8788941484
 21
-23.048708067
  0
LINE
  5
57F
100
AcDbEntity
  8
RACCORDO
100
AcDbLine
 62
250
  6
CONTINUOUS
 10
-156.9170021668
 20
21.416640982
 11
-156.9454623584
 21
20.2574375565
  0
LINE
  5
580
100
AcDbEntity
  8
RACCORDO
100
AcDbLine
 62
7
  6
CONTINUOUS
 10
-156.8815210896
 20
22.6142974228
 11
-156.8842925741
 21
22.5038662265
  0
LINE
  5
581
100
AcDbEntity
  8
RACCORDO
100
AcDbLine
 62
7
  6
CONTINUOUS
 10
-156.8884741123
 20
22.3675713965
 11
-156.9455627602
 21
20.2524226438
  0
LINE
  5
582
100
AcDbEntity
  8
RACCORDO
100
AcDbLine
 62
250
  6
CONTINUOUS
 10
-156.8834951293
 20
22.5238316322
 11
-156.8840928154
 21
22.511146449
  0
LINE
  5
583
100
AcDbEntity
  8
RACCORDO
100
AcDbLine
 62
250
  6
CONTINUOUS
 10
-156.8847298085
 20
22.4882049536
 11
-156.8849392745
 21
22.4721786477
  0
LWPOLYLINE
  5
584
100
AcDbEntity
  8
RACCORDO
100
AcDbPolyline
 62
7
  6
CONTINUOUS
 90
3
 70
0
 10
-156.8840928154
 20
22.511146449
 10
-156.8876109649
 20
22.3936177356
 10
-156.8884741126
 20
22.3675713878
  0
LINE
  5
585
100
AcDbEntity
  8
RACCORDO
100
AcDbLine
 62
250
  6
CONTINUOUS
 10
-156.8884741126
 20
22.3675713878
 11
-156.9170021668
 21
21.416640982
  0
LWPOLYLINE
  5
586
100
AcDbEntity
  8
RACCORDO
100
AcDbPolyline
 62
7
  6
CONTINUOUS
 90
11
 70
0
 10
-156.8788941484
 20
-23.048708067
 10
-156.8793631531
 20
-23.0639022198
 10
-156.8796117859
 20
-23.0706147395
 10
-156.8798669492
 20
-23.076755496
 10
-156.8801249077
 20
-23.0823076717
 10
-156.880377641
 20
-23.087176433
 10
-156.8806220067
 20
-23.0913875107
 10
-156.8808522123
 20
-23.0949304622
 10
-156.8810510666
 20
-23.0976625595
 10
-156.8812118507
 20
-23.099635074
 10
-156.8812463655
 20
-23.1000272025
  0
LWPOLYLINE
  5
587
100
AcDbEntity
  8
RACCORDO
100
AcDbPolyline
 62
7
  6
CONTINUOUS
 90
20
 70
0
 10
-157.1878749291
 20
23.2021461077
 10
-157.188492354
 20
23.1902091779
 10
-157.188338671
 20
23.1671615211
 10
-157.1864200779
 20
23.1442264714
 10
-157.1827554286
 20
23.1215383812
 10
-157.1773737102
 20
23.0992291914
 10
-157.1703137709
 20
23.0774276769
 10
-157.1616238848
 20
23.0562584826
 10
-157.1513616635
 20
23.0358421657
 10
-157.1395938077
 20
23.0162944489
 10
-157.1263951681
 20
22.9977246673
 10
-157.1118479881
 20
22.980235199
 10
-157.0960417433
 20
22.9639216257
 10
-157.0790788498
 20
22.9488773362
 10
-157.0610558061
 20
22.9351764791
 10
-157.0420587262
 20
22.9228784346
 10
-157.0221651417
 20
22.9120357017
 10
-157.0015184618
 20
22.90272865
 10
-156.9803148648
 20
22.8950333533
 10
-156.9587076269
 20
22.8889804735
  0
LWPOLYLINE
  5
588
100
AcDbEntity
  8
RACCORDO
100
AcDbPolyline
 62
7
  6
CONTINUOUS
 90
9
 70
0
 10
-156.8813412791
 20
23.1010277677
 10
-156.8812881337
 20
23.1004834814
 10
-156.8811836494
 20
23.0993048336
 10
-156.8810333782
 20
23.0974303553
 10
-156.8808564903
 20
23.0949899057
 10
-156.8806597613
 20
23.0919934373
 10
-156.8804467774
 20
23.0884131578
 10
-156.8802261591
 20
23.0843217774
 10
-156.8800008958
 20
23.0797169193
  0
LINE
  5
589
100
AcDbEntity
  8
ASSI
100
AcDbLine
 62
250
  6
CONTINUOUS
 10
-152.7761837999
 20
-42.1711400162
 11
-152.7985389685
 21
-41.5574162698
  0
LINE
  5
58A
100
AcDbEntity
  8
ASSI
100
AcDbLine
 62
250
  6
CONTINUOUS
 10
-152.7750533302
 20
-42.2100717775
 11
-152.7761837999
 21
-42.1711400162
  0
LINE
  5
58B
100
AcDbEntity
  8
ASSI
100
AcDbLine
 62
250
  6
CONTINUOUS
 10
-152.7742065885
 20
-42.2481173717
 11
-152.7750533302
 21
-42.2100717775
  0
LINE
  5
58C
100
AcDbEntity
  8
ASSI
100
AcDbLine
 62
250
  6
CONTINUOUS
 10
-152.7736271718
 20
-42.2843461104
 11
-152.7742065885
 21
-42.2481173717
  0
LWPOLYLINE
  5
58D
100
AcDbEntity
  8
ASSI
100
AcDbPolyline
 62
250
  6
CONTINUOUS
 90
5
 70
0
 10
-152.8460765692
 20
-39.0830261613
 10
-152.8383476112
 20
-39.7293428724
 10
-152.8281803316
 20
-40.3591382745
 10
-152.8151695702
 20
-40.9665812391
 10
-152.7985389685
 20
-41.5574162698
  0
LINE
  5
58E
100
AcDbEntity
  8
ASSI
100
AcDbLine
 62
250
  6
CONTINUOUS
 10
-152.7732900815
 20
-42.3180882917
 11
-152.7736271718
 21
-42.2843461104
  0
LINE
  5
58F
100
AcDbEntity
  8
ASSI
100
AcDbLine
 62
250
  6
CONTINUOUS
 10
-152.8556056082
 20
-37.7935719399
 11
-152.8460765692
 21
-39.0830261613
  0
LWPOLYLINE
  5
590
100
AcDbEntity
  8
ASSI
100
AcDbPolyline
 62
250
  6
CONTINUOUS
 90
3
 70
0
 10
-152.8745528324
 20
-30.8231168893
 10
-152.8693908108
 20
-33.1898193311
 10
-152.8556056082
 20
-37.7935719399
  0
LINE
  5
591
100
AcDbEntity
  8
ASSI
100
AcDbLine
 62
250
  6
CONTINUOUS
 10
-152.7731790881
 20
-42.3489154644
 11
-152.7732900815
 21
-42.3180882917
  0
LINE
  5
592
100
AcDbEntity
  8
ASSI
100
AcDbLine
 62
250
  6
CONTINUOUS
 10
-152.9019527309
 20
-13.715654297
 11
-152.8745528324
 21
-30.8231168893
  0
LINE
  5
593
100
AcDbEntity
  8
ASSI
100
AcDbLine
 62
250
  6
CONTINUOUS
 10
-152.9016778034
 20
-4.9988804115
 11
-152.9019527309
 21
-13.715654297
  0
LINE
  5
594
100
AcDbEntity
  8
ASSI
100
AcDbLine
 62
250
  6
CONTINUOUS
 10
-152.8765591855
 20
30.0729342492
 11
-152.9016778034
 21
-4.9988804115
  0
LINE
  5
595
100
AcDbEntity
  8
ASSI
100
AcDbLine
 62
250
  6
CONTINUOUS
 10
-152.854790577
 20
37.9543745241
 11
-152.8765591855
 21
30.0729342492
  0
LINE
  5
596
100
AcDbEntity
  8
ASSI
100
AcDbLine
 62
250
  6
CONTINUOUS
 10
-152.7732900815
 20
42.3180882917
 11
-152.7731790881
 21
42.3489154644
  0
LINE
  5
597
100
AcDbEntity
  8
ASSI
100
AcDbLine
 62
250
  6
CONTINUOUS
 10
-152.8438533161
 20
39.2864581788
 11
-152.854790577
 21
37.9543745241
  0
LINE
  5
598
100
AcDbEntity
  8
ASSI
100
AcDbLine
 62
250
  6
CONTINUOUS
 10
-152.7736271718
 20
42.2843461104
 11
-152.7732900815
 21
42.3180882917
  0
LINE
  5
599
100
AcDbEntity
  8
ASSI
100
AcDbLine
 62
250
  6
CONTINUOUS
 10
-152.3690714416
 20
39.27947912
 11
-152.3794439199
 21
38.4115446188
  0
LINE
  5
59A
100
AcDbEntity
  8
ASSI
100
AcDbLine
 62
250
  6
CONTINUOUS
 10
-152.8329393925
 20
40.0867965823
 11
-152.8438533161
 21
39.2864581788
  0
LINE
  5
59B
100
AcDbEntity
  8
ASSI
100
AcDbLine
 62
250
  6
CONTINUOUS
 10
-152.7742065885
 20
42.2481173717
 11
-152.7736271718
 21
42.2843461104
  0
LINE
  5
59C
100
AcDbEntity
  8
ASSI
100
AcDbLine
 62
250
  6
CONTINUOUS
 10
-152.3553975102
 20
40.0769024926
 11
-152.3690714416
 21
39.27947912
  0
LINE
  5
59D
100
AcDbEntity
  8
ASSI
100
AcDbLine
 62
250
  6
CONTINUOUS
 10
-152.8186293708
 20
40.8200294564
 11
-152.8329393925
 21
40.0867965823
  0
LINE
  5
59E
100
AcDbEntity
  8
ASSI
100
AcDbLine
 62
250
  6
CONTINUOUS
 10
-152.7750527859
 20
42.2100865934
 11
-152.7742065885
 21
42.2481173717
  0
LINE
  5
59F
100
AcDbEntity
  8
ASSI
100
AcDbLine
 62
250
  6
CONTINUOUS
 10
-152.3381808319
 20
40.8066832204
 11
-152.3553975102
 21
40.0769024926
  0
LINE
  5
5A0
100
AcDbEntity
  8
ASSI
100
AcDbLine
 62
250
  6
CONTINUOUS
 10
-152.776185359
 20
42.1710955644
 11
-152.7750527859
 21
42.2100865934
  0
LWPOLYLINE
  5
5A1
100
AcDbEntity
  8
ASSI
100
AcDbPolyline
 62
250
  6
CONTINUOUS
 90
3
 70
0
 10
-152.7895228084
 20
41.822187463
 10
-152.8003089202
 20
41.5003534227
 10
-152.8186293708
 20
40.8200294564
  0
LINE
  5
5A2
100
AcDbEntity
  8
ASSI
100
AcDbLine
 62
250
  6
CONTINUOUS
 10
-152.7895228084
 20
41.822187463
 11
-152.776185359
 21
42.1710955644
  0
LWPOLYLINE
  5
5A3
100
AcDbEntity
  8
ASSI
100
AcDbPolyline
 62
250
  6
CONTINUOUS
 90
4
 70
0
 10
-152.2925541524
 20
42.1095277644
 10
-152.3053719712
 20
41.80264692
 10
-152.3172522197
 20
41.483010062
 10
-152.3381808319
 20
40.8066832204
  0
LINE
  5
5A4
100
AcDbEntity
  8
RACCORDO
100
AcDbLine
 62
250
  6
CONTINUOUS
 10
-157.1885279351
 20
0.0
 11
-152.9014265003
 21
0.0
  0
LINE
  5
5A5
100
AcDbEntity
  8
ASSI
100
AcDbLine
 62
250
  6
CONTINUOUS
 10
-152.4500169998
 20
0.0
 11
-152.9014265003
 21
0.0
  0
LWPOLYLINE
  5
5A6
100
AcDbEntity
  8
ASSI
100
AcDbPolyline
 62
250
  6
CONTINUOUS
 90
11
 70
0
 10
-152.7732912346
 20
42.3762205587
 10
-152.7734307122
 20
42.38839115
 10
-152.7736294796
 20
42.3995061908
 10
-152.7738890401
 20
42.409577297
 10
-152.7742100628
 20
42.4184703421
 10
-152.7745981283
 20
42.4261693067
 10
-152.7750569562
 20
42.4326906907
 10
-152.7755869929
 20
42.437949267
 10
-152.7761926964
 20
42.4419168431
 10
-152.7768814793
 20
42.4446222118
 10
-152.7776591765
 20
42.4460656677
  0
LWPOLYLINE
  5
5A7
100
AcDbEntity
  8
ASSI
100
AcDbPolyline
 62
250
  6
CONTINUOUS
 90
8
 70
0
 10
-152.3850121852
 20
-37.7900373245
 10
-152.3792594203
 20
-38.4328727435
 10
-152.3716256275
 20
-39.0766146641
 10
-152.3621206032
 20
-39.7208745563
 10
-152.3495788725
 20
-40.3480554711
 10
-152.3336119441
 20
-40.952291759
 10
-152.3146083094
 20
-41.5394490694
 10
-152.2925679684
 20
-42.1095274026
  0
LINE
  5
5A8
100
AcDbEntity
  8
ASSI
100
AcDbLine
 62
250
  6
CONTINUOUS
 10
-152.4005219346
 20
-34.2206240632
 11
-152.3850121852
 21
-37.7900373245
  0
LINE
  5
5A9
100
AcDbEntity
  8
ASSI
100
AcDbLine
 62
250
  6
CONTINUOUS
 10
-152.4116145318
 20
-30.3615617597
 11
-152.4005219346
 21
-34.2206240632
  0
LINE
  5
5AA
100
AcDbEntity
  8
ASSI
100
AcDbLine
 62
250
  6
CONTINUOUS
 10
-152.2925642382
 20
-42.9092533602
 11
-152.2930846655
 21
-42.7744363045
  0
LINE
  5
5AB
100
AcDbEntity
  8
ASSI
100
AcDbLine
 62
250
  6
CONTINUOUS
 10
-152.7731790881
 20
42.3489154644
 11
-152.7732912346
 21
42.3762205587
  0
LINE
  5
5AC
100
AcDbEntity
  8
ASSI
100
AcDbLine
 62
250
  6
CONTINUOUS
 10
-152.4489533832
 20
-17.8472320657
 11
-152.4116145318
 21
-30.3615617597
  0
LINE
  5
5AD
100
AcDbEntity
  8
ASSI
100
AcDbLine
 62
7
  6
CONTINUOUS
 10
-150.7365128443
 20
42.95
 11
-150.7365128443
 21
-42.95
  0
LWPOLYLINE
  5
5AE
100
AcDbEntity
  8
ASSI
100
AcDbPolyline
 62
250
  6
CONTINUOUS
 90
3
 70
0
 10
-152.4500885712
 20
-1.7466058985
 10
-152.4505383638
 20
-5.7662788591
 10
-152.4489533832
 20
-17.8472320657
  0
LINE
  5
5AF
100
AcDbEntity
  8
ASSI
100
AcDbLine
 62
250
  6
CONTINUOUS
 10
-152.2930846655
 20
-42.7744363045
 11
-152.2925568012
 21
-42.109527695
  0
LINE
  5
5B0
100
AcDbEntity
  8
ASSI
100
AcDbLine
 62
250
  6
CONTINUOUS
 10
-152.2925568012
 20
42.109527695
 11
-152.2929572869
 21
42.8267481836
  0
LWPOLYLINE
  5
5B1
100
AcDbEntity
  8
ASSI
100
AcDbPolyline
 62
250
  6
CONTINUOUS
 90
3
 70
0
 10
-152.4127113978
 20
30.0711534841
 10
-152.4243286035
 20
27.3472007284
 10
-152.4500885712
 20
-1.7466058985
  0
LINE
  5
5B2
100
AcDbEntity
  8
ASSI
100
AcDbLine
 62
250
  6
CONTINUOUS
 10
-152.3868635252
 20
37.4813844667
 11
-152.4127113978
 21
30.0711534841
  0
LINE
  5
5B3
100
AcDbEntity
  8
ASSI
100
AcDbLine
 62
250
  6
CONTINUOUS
 10
-152.2929572869
 20
42.8267481836
 11
-152.2925642382
 21
42.9092533602
  0
LINE
  5
5B4
100
AcDbEntity
  8
ASSI
100
AcDbLine
 62
250
  6
CONTINUOUS
 10
-152.3794439199
 20
38.4115446188
 11
-152.3868635252
 21
37.4813844667
  0
LINE
  5
5B5
100
AcDbEntity
  8
ASSI
100
AcDbLine
 62
7
  6
CONTINUOUS
 10
-148.7365128443
 20
41.8504587186
 11
-148.7365128443
 21
-41.8504585406
  0
LWPOLYLINE
  5
5B6
100
AcDbEntity
  8
0
100
AcDbPolyline
 62
7
  6
CONTINUOUS
 90
4
 70
0
 43
0.3500000006
 10
-147.2364810791
 20
52.1285708313
 10
-147.2364810791
 20
52.9857133026
 10
-146.8079121094
 20
53.4142868042
 10
-146.1650586548
 20
53.4142868042
  0
LWPOLYLINE
  5
5B7
100
AcDbEntity
  8
RACCORDO
100
AcDbPolyline
 62
250
  6
CONTINUOUS
 90
10
 70
0
 10
-156.8879594958
 20
23.1667029151
 10
-156.8862849235
 20
23.1648629452
 10
-156.8847430774
 20
23.1596994321
 10
-156.8833336177
 20
23.1512123697
 10
-156.8820494539
 20
23.1393274158
 10
-156.8808958814
 20
23.1241189005
 10
-156.8798918441
 20
23.1058098255
 10
-156.8790415929
 20
23.0843486488
 10
-156.8783400168
 20
23.0597869015
 10
-156.8787179366
 20
23.0418553804
  0
LWPOLYLINE
  5
5B8
100
AcDbEntity
  8
ASSI
100
AcDbPolyline
 62
250
  6
CONTINUOUS
 90
12
 70
0
 10
-152.7775075452
 20
-42.44545553
 10
-152.7767958916
 20
-42.4442831915
 10
-152.7761578144
 20
-42.4417812078
 10
-152.7755869929
 20
-42.437949267
 10
-152.7750691263
 20
-42.432735926
 10
-152.7746043773
 20
-42.4261919316
 10
-152.7742100628
 20
-42.4184703421
 10
-152.7738890401
 20
-42.409577297
 10
-152.7736294796
 20
-42.3995061908
 10
-152.7734307122
 20
-42.38839115
 10
-152.7732912346
 20
-42.3762205587
 10
-152.7731790881
 20
-42.3489154644
  0
LWPOLYLINE
  5
5B9
100
AcDbEntity
  8
ASSI
100
AcDbPolyline
 62
250
  6
CONTINUOUS
 90
3
 70
0
 10
-152.9004191572
 20
-42.5891142057
 10
-152.9007151153
 20
-42.5895855829
 10
-152.9009820095
 20
-42.5900059797
  0
LWPOLYLINE
  5
5BA
100
AcDbEntity
  8
ASSI
100
AcDbPolyline
 62
250
  6
CONTINUOUS
 90
4
 70
0
 10
-152.8974267276
 20
-42.5843113695
 10
-152.8979715857
 20
-42.5851704741
 10
-152.8984732184
 20
-42.5859691571
 10
-152.9000952921
 20
-42.588591178
  0
LINE
  5
5BB
100
AcDbEntity
  8
RACCORDO
100
AcDbLine
 62
250
  6
CONTINUOUS
 10
-156.8882253299
 20
22.3675989178
 11
-156.8884741123
 21
22.3675713965
  0
LINE
  5
5BC
100
AcDbEntity
  8
RACCORDO
100
AcDbLine
 62
7
  6
CONTINUOUS
 10
-156.9147898407
 20
22.8818256769
 11
-156.8776508477
 21
22.878576436
  0
LWPOLYLINE
  5
5BD
100
AcDbEntity
  8
RACCORDO
100
AcDbPolyline
 62
250
  6
CONTINUOUS
 90
3
 70
0
 10
-156.9187801493
 20
23.1695358008
 10
-156.9043364637
 20
23.168164948
 10
-156.8879594958
 20
23.1667029151
  0
LWPOLYLINE
  5
5BE
100
AcDbEntity
  8
RACCORDO
100
AcDbPolyline
 62
250
  6
CONTINUOUS
 90
3
 70
0
 10
-156.9638801642
 20
23.1741004338
 10
-156.9539274291
 20
23.1730496526
 10
-156.9187801493
 20
23.1695358008
  0
LINE
  5
5BF
100
AcDbEntity
  8
RACCORDO
100
AcDbLine
 62
250
  6
CONTINUOUS
 10
-156.9917917481
 20
23.1771997145
 11
-156.9638801642
 21
23.1741004338
  0
LINE
  5
5C0
100
AcDbEntity
  8
RACCORDO
100
AcDbLine
 62
250
  6
CONTINUOUS
 10
-157.0183099922
 20
23.1803341724
 11
-156.9917917481
 21
23.1771997145
  0
LINE
  5
5C1
100
AcDbEntity
  8
RACCORDO
100
AcDbLine
 62
250
  6
CONTINUOUS
 10
-157.1866468953
 20
23.2019265271
 11
-157.1837180078
 21
23.2015711812
  0
LINE
  5
5C2
100
AcDbEntity
  8
RACCORDO
100
AcDbLine
 62
250
  6
CONTINUOUS
 10
-157.0439402719
 20
23.1835038583
 11
-157.0183099922
 21
23.1803341724
  0
LINE
  5
5C3
100
AcDbEntity
  8
RACCORDO
100
AcDbLine
 62
250
  6
CONTINUOUS
 10
-157.0833142419
 20
23.1885704552
 11
-157.0439402719
 21
23.1835038583
  0
LINE
  5
5C4
100
AcDbEntity
  8
RACCORDO
100
AcDbLine
 62
250
  6
CONTINUOUS
 10
-157.1837180078
 20
23.2015711812
 11
-157.0833142419
 21
23.1885704552
  0
LINE
  5
5C5
100
AcDbEntity
  8
RACCORDO
100
AcDbLine
 62
250
  6
CONTINUOUS
 10
-157.1876950492
 20
23.2020633323
 11
-157.1874266297
 21
23.2020217759
  0
LWPOLYLINE
  5
5C6
100
AcDbEntity
  8
RACCORDO
100
AcDbPolyline
 62
7
  6
CONTINUOUS
 90
3
 70
0
 10
-156.9587076269
 20
22.8889804735
 10
-156.9367979188
 20
22.8845740877
 10
-156.9147901816
 20
22.8818257067
  0
LWPOLYLINE
  5
5C7
100
AcDbEntity
  8
ASSI
100
AcDbPolyline
 62
250
  6
CONTINUOUS
 90
4
 70
0
 10
-152.8976356652
 20
42.5846402287
 10
-152.8970474998
 20
42.5837143643
 10
-152.8964005969
 20
42.5827073015
 10
-152.8956894392
 20
42.5816192698
  0
LINE
  5
5C8
100
AcDbEntity
  8
ASSI
100
AcDbLine
 62
250
  6
CONTINUOUS
 10
-152.9004649825
 20
42.5891866859
 11
-152.8981711009
 21
42.585485124
  0
LINE
  5
5C9
100
AcDbEntity
  8
ASSI
100
AcDbLine
 62
250
  6
CONTINUOUS
 10
-152.8998479685
 20
42.5881897035
 11
-152.899489401
 21
42.5876074812
  0
LWPOLYLINE
  5
5CA
100
AcDbEntity
  8
ASSI
100
AcDbPolyline
 62
250
  6
CONTINUOUS
 90
8
 70
0
 10
-152.9012182173
 20
-42.590374726
 10
-152.9014243827
 20
-42.5906910303
 10
-152.9016011403
 20
-42.590953127
 10
-152.9017477812
 20
-42.5911627817
 10
-152.9018635891
 20
-42.5913244991
 10
-152.9019518986
 20
-42.5914351485
 10
-152.9020145139
 20
-42.5914978606
 10
-152.9020498586
 20
-42.5915265317
  0
LWPOLYLINE
  5
5CB
100
AcDbEntity
  8
ASSI
100
AcDbPolyline
 62
250
  6
CONTINUOUS
 90
3
 70
0
 10
-152.8954770199
 20
-42.5812967641
 10
-152.8961834829
 20
-42.5823745143
 10
-152.8968325902
 20
-42.5833792373
  0
LWPOLYLINE
  5
5CC
100
AcDbEntity
  8
ASSI
100
AcDbPolyline
 62
250
  6
CONTINUOUS
 90
3
 70
0
 10
-152.8929629423
 20
-42.5775331216
 10
-152.8938723732
 20
-42.5788760676
 10
-152.8947085146
 20
-42.5801320712
  0
LINE
  5
5CD
100
AcDbEntity
  8
ASSI
100
AcDbLine
 62
250
  6
CONTINUOUS
 10
-152.856469339
 20
42.5333249522
 11
-152.8486768325
 21
42.5230125197
  0
LWPOLYLINE
  5
5CE
100
AcDbEntity
  8
ASSI
100
AcDbPolyline
 62
250
  6
CONTINUOUS
 90
15
 70
0
 10
-152.8898776497
 20
42.5731001306
 10
-152.888640084
 20
42.5713855471
 10
-152.8873413295
 20
42.5696161211
 10
-152.8859933528
 20
42.567799923
 10
-152.8845971832
 20
42.56598696
 10
-152.8831736981
 20
42.5641769112
 10
-152.8817449618
 20
42.5623779273
 10
-152.88031982
 20
42.5606525299
 10
-152.8789230232
 20
42.559008626
 10
-152.8775759574
 20
42.5574456643
 10
-152.8762841064
 20
42.5560133397
 10
-152.8750688059
 20
42.5547442714
 10
-152.8739487649
 20
42.5536110663
 10
-152.8729018337
 20
42.5525674121
 10
-152.8699505211
 20
42.5498438572
  0
LWPOLYLINE
  5
5CF
100
AcDbEntity
  8
ASSI
100
AcDbPolyline
 62
250
  6
CONTINUOUS
 90
5
 70
0
 10
-152.8949125975
 20
42.5804387129
 10
-152.8940652467
 20
42.5791626817
 10
-152.8931397658
 20
42.5777941257
 10
-152.8921301726
 20
42.5763303523
 10
-152.8898776497
 20
42.5731001306
  0
LWPOLYLINE
  5
5D0
100
AcDbEntity
  8
ASSI
100
AcDbPolyline
 62
250
  6
CONTINUOUS
 90
4
 70
0
 10
-152.8657298203
 20
-42.5455122082
 10
-152.8667878584
 20
-42.546675196
 10
-152.8677615363
 20
-42.5477141547
 10
-152.8686801588
 20
-42.54865095
  0
LWPOLYLINE
  5
5D1
100
AcDbEntity
  8
ASSI
100
AcDbPolyline
 62
250
  6
CONTINUOUS
 90
12
 70
0
 10
-152.8486768325
 20
42.5230125197
 10
-152.8452384048
 20
42.5186176014
 10
-152.8413024959
 20
42.5136945211
 10
-152.8368392477
 20
42.5082217399
 10
-152.8318176893
 20
42.5022273147
 10
-152.8261852625
 20
42.4957182553
 10
-152.8199301803
 20
42.4886942151
 10
-152.8130293138
 20
42.4811598288
 10
-152.8053889413
 20
42.4731278533
 10
-152.7969499993
 20
42.4646027373
 10
-152.787713575
 20
42.4555817004
 10
-152.7776591765
 20
42.4460656677
  0
LWPOLYLINE
  5
5D2
100
AcDbEntity
  8
ASSI
100
AcDbPolyline
 62
250
  6
CONTINUOUS
 90
13
 70
0
 10
-152.7775075452
 20
-42.44545553
 10
-152.7998924539
 20
-42.4664409189
 10
-152.816736039
 20
-42.4843809936
 10
-152.8293036272
 20
-42.4993051945
 10
-152.838808321
 20
-42.5108229499
 10
-152.8459706663
 20
-42.5193722732
 10
-152.8511094784
 20
-42.5262233254
 10
-152.8548214717
 20
-42.5314793352
 10
-152.857701762
 20
-42.5350727492
 10
-152.8599074956
 20
-42.5380154412
 10
-152.8616759585
 20
-42.5405487849
 10
-152.8632248087
 20
-42.5424644886
 10
-152.8657298203
 20
-42.5455122082
  0
LWPOLYLINE
  5
5D3
100
AcDbEntity
  8
ASSI
100
AcDbPolyline
 62
250
  6
CONTINUOUS
 90
20
 70
0
 10
-152.8695733158
 20
-42.5494838557
 10
-152.8704531782
 20
-42.5503074906
 10
-152.8713474707
 20
-42.5511355034
 10
-152.8722794124
 20
-42.5519725797
 10
-152.8732522826
 20
-42.5529000073
 10
-152.8742854639
 20
-42.5539471629
 10
-152.8754082274
 20
-42.5551031638
 10
-152.8766203292
 20
-42.5563842236
 10
-152.8778939462
 20
-42.5578067513
 10
-152.8792137127
 20
-42.5593475289
 10
-152.8805725461
 20
-42.5609560536
 10
-152.8819486177
 20
-42.5626289377
 10
-152.8833215735
 20
-42.5643622462
 10
-152.8846882775
 20
-42.5661046838
 10
-152.8860302623
 20
-42.5678502984
 10
-152.8873277878
 20
-42.5695981488
 10
-152.8885810224
 20
-42.5713045722
 10
-152.8897795206
 20
-42.5729635559
 10
-152.8909104745
 20
-42.5745746164
 10
-152.8929629423
 20
-42.5775331216
  0
LINE
  5
5D4
100
AcDbEntity
  8
ASSI
100
AcDbLine
 62
250
  6
CONTINUOUS
 10
-152.8718952372
 20
42.5516215014
 11
-152.8709132189
 21
42.5507469143
  0
LINE
  5
5D5
100
AcDbEntity
  8
ASSI
100
AcDbLine
 62
250
  6
CONTINUOUS
 10
-152.8699505211
 20
42.5498438572
 11
-152.8689647183
 21
42.5488962738
  0
LWPOLYLINE
  5
5D6
100
AcDbEntity
  8
ASSI
100
AcDbPolyline
 62
250
  6
CONTINUOUS
 90
9
 70
0
 10
-152.8679282941
 20
42.5478955242
 10
-152.8668561716
 20
42.5467531749
 10
-152.8657170646
 20
42.5454416851
 10
-152.8644694711
 20
42.5439645248
 10
-152.8631274803
 20
42.5422862371
 10
-152.8616786935
 20
42.5404286073
 10
-152.8601030942
 20
42.5383618792
 10
-152.8583972014
 20
42.5359825612
 10
-152.856469339
 20
42.5333249522
  0
LWPOLYLINE
  5
5D7
100
AcDbEntity
  8
0
100
AcDbPolyline
 62
7
  6
CONTINUOUS
 90
10
 70
0
 43
0.3500000006
 10
-144.2364801636
 20
52.2000020142
 10
-144.1650580444
 20
52.0571441803
 10
-144.1650580444
 20
51.9857129974
 10
-144.3079113464
 20
51.8428551636
 10
-144.3793425293
 20
51.8428551636
 10
-144.4507646484
 20
51.9142863464
 10
-144.4507646484
 20
51.9857129974
 10
-144.3793425293
 20
52.1285708313
 10
-144.3079113464
 20
52.2000020142
 10
-144.2364801636
 20
52.2000020142
  0
LINE
  5
5D8
100
AcDbEntity
  8
ASSI
100
AcDbLine
 62
7
  6
CONTINUOUS
 10
-152.9021345288
 20
42.5915396503
 11
-152.9020743719
 21
42.591493797
  0
LWPOLYLINE
  5
5D9
100
AcDbEntity
  8
ASSI
100
AcDbPolyline
 62
250
  6
CONTINUOUS
 90
11
 70
0
 10
-152.9020444321
 20
42.591524954
 10
-152.902009533
 20
42.5914979998
 10
-152.9019562461
 20
42.5914383544
 10
-152.9018815907
 20
42.5913477959
 10
-152.9017861735
 20
42.5912196375
 10
-152.9016691845
 20
42.5910530647
 10
-152.9015293733
 20
42.5908488921
 10
-152.9013663059
 20
42.5906028771
 10
-152.9011792052
 20
42.590315454
 10
-152.9009676488
 20
42.5899861884
 10
-152.9007301696
 20
42.589609535
  0
LWPOLYLINE
  5
5DA
100
AcDbEntity
  8
ASSI
100
AcDbPolyline
 62
250
  6
CONTINUOUS
 90
19
 70
0
 10
-148.7365129581
 20
41.453298605
 10
-148.8261975502
 20
41.5119407822
 10
-148.9197562072
 20
41.5691762868
 10
-149.017234202
 20
41.6250051191
 10
-149.1192050772
 20
41.6798510681
 10
-149.2251763811
 20
41.7332903446
 10
-149.3334936919
 20
41.784051581
 10
-149.4437656994
 20
41.831867019
 10
-149.5562178729
 20
41.8770044168
 10
-149.6699966223
 20
41.9189956814
 10
-149.7847112266
 20
41.9576980904
 10
-149.900512967
 20
41.9932543661
 10
-150.0173304805
 20
42.0256245822
 10
-150.1349462737
 20
42.0547939969
 10
-150.2533468065
 20
42.0807773519
 10
-150.3727761878
 20
42.1035789454
 10
-150.4932466024
 20
42.1232002101
 10
-150.6145293516
 20
42.1396397132
 10
-150.7365128224
 20
42.1528974548
  0
LINE
  5
5DB
100
AcDbEntity
  8
ASSI
100
AcDbLine
 62
7
  6
CONTINUOUS
 10
-152.5111518313
 20
42.8999050946
 11
-152.5584397926
 21
42.8905800464
  0
LINE
  5
5DC
100
AcDbEntity
  8
ASSI
100
AcDbLine
 62
7
  6
CONTINUOUS
 10
-152.4838669437
 20
42.9029263354
 11
-152.5111518313
 21
42.8999050946
  0
LWPOLYLINE
  5
5DD
100
AcDbEntity
  8
ASSI
100
AcDbPolyline
 62
250
  6
CONTINUOUS
 90
22
 70
0
 10
-152.2925642382
 20
42.9092533602
 10
-152.3274896017
 20
42.907111653
 10
-152.3621793612
 20
42.9025278286
 10
-152.3964632964
 20
42.8955243802
 10
-152.4301731787
 20
42.8861356737
 10
-152.463143596
 20
42.8744077798
 10
-152.4952127639
 20
42.8603982473
 10
-152.5262233214
 20
42.8441758212
 10
-152.5560231025
 20
42.8258201042
 10
-152.5844658826
 20
42.8054211673
 10
-152.6114120953
 20
42.7830791073
 10
-152.6367295183
 20
42.7589035555
 10
-152.6602939217
 20
42.7330131397
 10
-152.6819896773
 20
42.705534903
 10
-152.7017103263
 20
42.6766036791
 10
-152.719359102
 20
42.6463614312
 10
-152.7348494036
 20
42.6149565558
 10
-152.7481052221
 20
42.5825431544
 10
-152.759061513
 20
42.5492802762
 10
-152.7676645149
 20
42.5153311393
 10
-152.773872014
 20
42.4808623297
 10
-152.7776535509
 20
42.4460429832
  0
LINE
  5
5DE
100
AcDbEntity
  8
ASSI
100
AcDbLine
 62
250
  6
CONTINUOUS
 10
-152.2925541524
 20
42.1095277644
 11
-150.7365128443
 21
42.15027414
  0
LINE
  5
5DF
100
AcDbEntity
  8
ASSI
100
AcDbLine
 62
7
  6
CONTINUOUS
 10
-152.4509513876
 20
42.9051058468
 11
-150.7365128443
 21
42.95
  0
LWPOLYLINE
  5
5E0
100
AcDbEntity
  8
0
100
AcDbPolyline
 62
7
  6
CONTINUOUS
 90
8
 70
0
 43
0.3500000006
 10
-143.1650577393
 20
51.7000018616
 10
-142.3079107361
 20
51.7000018616
 10
-141.8793417664
 20
52.1285708313
 10
-141.8793417664
 20
52.9857133026
 10
-142.3079107361
 20
53.4142868042
 10
-143.1650577393
 20
53.4142868042
 10
-143.1650577393
 20
54.6999982452
 10
-141.8793417664
 20
54.6999982452
  0
LINE
  5
5E1
100
AcDbEntity
  8
ASSI
100
AcDbLine
 62
250
  6
CONTINUOUS
 10
-152.7676585815
 20
42.1308559136
 11
-152.2925585909
 21
42.1095277737
  0
LINE
  5
5E2
100
AcDbEntity
  8
ASSI
100
AcDbLine
 62
250
  6
CONTINUOUS
 10
-152.7776483466
 20
42.1313745629
 11
-152.7676585815
 21
42.1308559136
  0
LWPOLYLINE
  5
5E3
100
AcDbEntity
  8
0
100
AcDbPolyline
 62
7
  6
CONTINUOUS
 90
13
 70
0
 43
0.3500000006
 10
-146.8079121094
 20
53.4142868042
 10
-147.0936277771
 20
53.6285712891
 10
-147.0936277771
 20
54.2714292755
 10
-146.8079121094
 20
54.6999982452
 10
-146.1650586548
 20
54.6999982452
 10
-145.8793429871
 20
54.2714292755
 10
-145.8793429871
 20
53.6285712891
 10
-146.1650586548
 20
53.4142868042
 10
-145.7364806213
 20
52.9857133026
 10
-145.7364806213
 20
52.1285708313
 10
-146.1650586548
 20
51.7000018616
 10
-146.8079121094
 20
51.7000018616
 10
-147.2364810791
 20
52.1285708313
  0
ARC
  5
5E4
100
AcDbEntity
  8
RACCORDO
100
AcDbCircle
 62
7
  6
CONTINUOUS
 10
-156.8888277677
 20
-23.180700241
 40
0.3
100
AcDbArc
 50
95.0
 51
184.1024173724
  0
ARC
  5
5E5
100
AcDbEntity
  8
RACCORDO
100
AcDbCircle
 62
7
  6
CONTINUOUS
 10
-156.8888277677
 20
23.180700241
 40
0.3
100
AcDbArc
 50
175.9109024335
 51
265.0
  0
ARC
  5
5E6
100
AcDbEntity
  8
ASSI
100
AcDbCircle
 62
7
  6
CONTINUOUS
 10
-151.1665128443
 20
-38.6731796621
 40
4.0
100
AcDbArc
 50
276.1712219527
 51
307.4089509489
  0
ARC
  5
5E7
100
AcDbEntity
  8
ASSI
100
AcDbCircle
 62
7
  6
CONTINUOUS
 10
-152.4369391434
 20
-42.4053013765
 40
0.4999999975
100
AcDbArc
 50
201.8707063444
 51
268.5
  0
ARC
  5
5E8
100
AcDbEntity
  8
ASSI
100
AcDbCircle
 62
7
  6
CONTINUOUS
 10
-151.1665128443
 20
38.6731796621
 40
4.0
100
AcDbArc
 50
52.5910490261
 51
83.8287772563
  0
ARC
  5
5E9
100
AcDbEntity
  8
ASSI
100
AcDbCircle
 62
7
  6
CONTINUOUS
 10
-152.4380464229
 20
42.4052723789
 40
0.5
100
AcDbArc
 50
103.9230508276
 51
158.1303731915
  0
ARC
  5
5EA
100
AcDbEntity
  8
ASSI
100
AcDbCircle
 62
7
  6
CONTINUOUS
 10
-152.4369391434
 20
42.4053013765
 40
0.4999999975
100
AcDbArc
 50
91.5
 51
95.9519649976
  0
ELLIPSE
  5
5EB
100
AcDbEntity
  8
RACCORDO
100
AcDbEllipse
 62
7
  6
CONTINUOUS
 10
48.8019099188
 20
22.1980900812
 30
0.0
 11
0.3562493039
 21
-0.3562493039
 31
0.0
 40
0.9924325091
 41
2.3599925885
 42
3.9231927187
  0
ELLIPSE
  5
5EC
100
AcDbEntity
  8
RACCORDO
100
AcDbEllipse
 62
7
  6
CONTINUOUS
 10
93.1980900812
 20
22.1980900812
 30
0.0
 11
-0.3562493039
 21
-0.3562493039
 31
0.0
 40
0.9924325091
 41
2.3599925885
 42
3.9231927187
  0
ELLIPSE
  5
5ED
100
AcDbEntity
  8
RACCORDO
100
AcDbEllipse
 62
7
  6
CONTINUOUS
 10
93.1980900812
 20
-22.1980900812
 30
0.0
 11
-0.3562493039
 21
0.3562493039
 31
0.0
 40
0.9924325091
 41
2.3599925885
 42
3.9231927187
  0
ELLIPSE
  5
5EE
100
AcDbEntity
  8
RACCORDO
100
AcDbEllipse
 62
7
  6
CONTINUOUS
 10
48.8019099188
 20
-22.1980900812
 30
0.0
 11
0.3562493039
 21
0.3562493039
 31
0.0
 40
0.9924325091
 41
2.3599925885
 42
3.9231927187
  0
ELLIPSE
  5
5EF
100
AcDbEntity
  8
RACCORDO
100
AcDbEllipse
 62
7
  6
CONTINUOUS
 10
22.1980900812
 20
22.1980900812
 30
0.0
 11
-0.3562493039
 21
-0.3562493039
 31
0.0
 40
0.9924325091
 41
2.3599925885
 42
3.9231927187
  0
ELLIPSE
  5
5F0
100
AcDbEntity
  8
RACCORDO
100
AcDbEllipse
 62
7
  6
CONTINUOUS
 10
-22.1980900812
 20
22.1980900812
 30
0.0
 11
0.3562493039
 21
-0.3562493039
 31
0.0
 40
0.9924325091
 41
2.3599925885
 42
3.9231927187
  0
ELLIPSE
  5
5F1
100
AcDbEntity
  8
RACCORDO
100
AcDbEllipse
 62
7
  6
CONTINUOUS
 10
-22.1980900812
 20
-22.1980900812
 30
0.0
 11
0.3562493039
 21
0.3562493039
 31
0.0
 40
0.9924325091
 41
2.3599925885
 42
3.9231927187
  0
ELLIPSE
  5
5F2
100
AcDbEntity
  8
RACCORDO
100
AcDbEllipse
 62
7
  6
CONTINUOUS
 10
22.1980900812
 20
-22.1980900812
 30
0.0
 11
-0.3562493039
 21
0.3562493039
 31
0.0
 40
0.9924325091
 41
2.3599925885
 42
3.9231927187
  0
ELLIPSE
  5
5F3
100
AcDbEntity
  8
RACCORDO
100
AcDbEllipse
 62
7
  6
CONTINUOUS
 10
-48.8019099188
 20
-22.1980900812
 30
0.0
 11
-0.3562493039
 21
0.3562493039
 31
0.0
 40
0.9924325091
 41
2.3599925885
 42
3.9231927187
  0
ELLIPSE
  5
5F4
100
AcDbEntity
  8
RACCORDO
100
AcDbEllipse
 62
7
  6
CONTINUOUS
 10
-48.8019099188
 20
22.1980900812
 30
0.0
 11
-0.3562493039
 21
-0.3562493039
 31
0.0
 40
0.9924325091
 41
2.3599925885
 42
3.9231927187
  0
ELLIPSE
  5
5F5
100
AcDbEntity
  8
RACCORDO
100
AcDbEllipse
 62
7
  6
CONTINUOUS
 10
-93.1980900812
 20
22.1980900812
 30
0.0
 11
0.3562493039
 21
-0.3562493039
 31
0.0
 40
0.9924325091
 41
2.3599925885
 42
3.9231927187
  0
ELLIPSE
  5
5F6
100
AcDbEntity
  8
RACCORDO
100
AcDbEllipse
 62
7
  6
CONTINUOUS
 10
-93.1980900812
 20
-22.1980900812
 30
0.0
 11
0.3562493039
 21
0.3562493039
 31
0.0
 40
0.9924325091
 41
2.3599925885
 42
3.9231927187
  0
ELLIPSE
  5
5F7
100
AcDbEntity
  8
ASSI
100
AcDbEllipse
 62
7
  6
CONTINUOUS
 10
-113.149725766
 20
-42.149725766
 30
0.0
 11
0.566073184
 21
0.566073184
 31
0.0
 40
0.999315002
 41
-3.9266482006
 42
-2.3565371065
  0
ELLIPSE
  5
5F8
100
AcDbEntity
  8
ASSI
100
AcDbEllipse
 62
7
  6
CONTINUOUS
 10
-113.149725766
 20
42.149725766
 30
0.0
 11
-0.566073184
 21
0.566073184
 31
0.0
 40
0.999315002
 41
-0.7850555471
 42
0.7850555471
  0
ELLIPSE
  5
5F9
100
AcDbEntity
  8
ASSI
100
AcDbEllipse
 62
7
  6
CONTINUOUS
 10
113.149725766
 20
42.149725766
 30
0.0
 11
0.566073184
 21
0.566073184
 31
0.0
 40
0.999315002
 41
-0.7850555471
 42
0.7850555471
  0
ELLIPSE
  5
5FA
100
AcDbEntity
  8
ASSI
100
AcDbEllipse
 62
7
  6
CONTINUOUS
 10
113.149725766
 20
-42.149725766
 30
0.0
 11
0.566073184
 21
-0.566073184
 31
0.0
 40
0.999315002
 41
-0.7850555471
 42
0.7850555471
  0
ENDSEC
  0
SECTION
  2
OBJECTS
  0
DICTIONARY
  5
C
100
AcDbDictionary
280
0
281
1
  3
ACAD_GROUP
350
D
  3
ACAD_MLINESTYLE
350
17
  3
ACAD_LAYOUT
350
1A
  3
ACAD_PLOTSETTINGS
350
19
  3
ACAD_PLOTSTYLENAME
350
E
  0
DICTIONARY
  5
D
102
{ACAD_REACTORS
330
C
102
}
100
AcDbDictionary
280
0
281
1
  0
ACDBDICTIONARYWDFLT
  5
E
102
{ACAD_REACTORS
330
C
102
}
100
AcDbDictionary
281
1
  3
Normal
350
F
100
AcDbDictionaryWithDefault
340
F
  0
DICTIONARY
  5
17
102
{ACAD_REACTORS
330
C
102
}
100
AcDbDictionary
280
0
281
1
  3
Standard
350
18
  0
DICTIONARY
  5
19
102
{ACAD_REACTORS
330
C
102
}
100
AcDbDictionary
281
1
  0
DICTIONARY
  5
1A
102
{ACAD_REACTORS
330
C
102
}
100
AcDbDictionary
281
1
  3
Model
350
5FB
  3
Layout1
350
5FC
  0
ACDBPLACEHOLDER
  5
F
102
{ACAD_REACTORS
330
E
102
}
  0
MLINESTYLE
  5
18
102
{ACAD_REACTORS
330
17
102
}
100
AcDbMlineStyle
  2
STANDARD
 70
0
  3

 62
256
 51
90.0
 52
90.0
 71
2
 49
0.5
 62
256
  6
BYLAYER
 49
-0.5
 62
256
  6
BYLAYER
  0
LAYOUT
  5
5FB
102
{ACAD_REACTORS
330
1A
102
}
100
AcDbPlotSettings
  1

  2
none_device
  4
ISO_A4_(297.00_x_210.00_MM)
  6

 40
0.0
 41
0.0
 42
0.0
 43
0.0
 44
297.0
 45
210.0
 46
0.0
 47
0.0
 48
0.0
 49
0.0
140
0.0
141
0.0
142
1.0
143
1.0
 70
1024
 72
1
 73
0
 74
0
  7

 75
0
147
1.0
148
0.0
149
0.0
100
AcDbLayout
  1
Model
 70
0
 71
0
 10
0.0
 20
0.0
 11
297.0
 21
210.0
 12
0.0
 22
0.0
 32
0.0
 14
0.0
 24
0.0
 34
0.0
 15
0.0
 25
0.0
 35
0.0
146
0.0
 13
0.0
 23
0.0
 33
0.0
 16
1.0
 26
0.0
 36
0.0
 17
0.0
 27
1.0
 37
0.0
 76
0
330
214
345
0
346
0
  0
LAYOUT
  5
5FC
102
{ACAD_REACTORS
330
1A
102
}
100
AcDbPlotSettings
  1

  2
none_device
  4
ISO_A4_(297.00_x_210.00_MM)
  6

 40
0.0
 41
0.0
 42
0.0
 43
0.0
 44
297.0
 45
210.0
 46
0.0
 47
0.0
 48
0.0
 49
0.0
140
0.0
141
0.0
142
1.0
143
1.0
 70
0
 72
1
 73
0
 74
0
  7

 75
0
147
1.0
148
0.0
149
0.0
100
AcDbLayout
  1
Layout1
 70
0
 71
1
 10
0.0
 20
0.0
 11
297.0
 21
210.0
 12
0.0
 22
0.0
 32
0.0
 14
0.0
 24
0.0
 34
0.0
 15
0.0
 25
0.0
 35
0.0
146
0.0
 13
0.0
 23
0.0
 33
0.0
 16
1.0
 26
0.0
 36
0.0
 17
0.0
 27
1.0
 37
0.0
 76
0
330
215
345
0
346
0
  0
ENDSEC
  0
EOF
