  0
SECTION
  2
HEADER
  9
$ACADVER
  1
AC1024
  9
$DWGCODEPAGE
  3
ANSI_1252
  9
$EXTMAX
 10
297.0
 20
210.0
 30
0.0
  9
$EXTMIN
 10
0.0
 20
0.0
 30
0.0
  9
$LIMMIN
 10
0.0
 20
0.0
  9
$LIMMAX
 10
297.0
 20
210.0
  9
$VIEWCTR
 10
148.5
 20
105.0
  9
$VIEWSIZE
 40
210.0
  9
$CLAYER
  8
0
  9
$LTSCALE
 40
16.335
  9
$CELTYPE
  6
BYLAYER
  9
$DIMSCALE
 40
1.0
  9
$DIMASZ
 40
3.0
  9
$DIMEXO
 40
0.5
  9
$DIMDLI
 40
11.286
  9
$DIMEXE
 40
1.5
  9
$DIMCEN
 40
2.673
  9
$DIMLFAC
 40
1.0
  9
$DIMBLK
  1
_FILLED
  9
$DIMALT
 70
0
  9
$DIMALTF
 40
0.0393700787
  9
$DIMTXT
 40
3.0
  9
$DIMTOL
 70
1
  9
$DIMLIM
 70
0
  9
$DIMTFAC
 40
1.0
  9
$DIMTP
 40
0.01
  9
$DIMTM
 40
0.01
  9
$DIMGAP
 40
0.625
  9
$DIMDSEP
 70
44
  9
$AUNITS
 70
0
  9
$PDMODE
 70
3
  9
$PDSIZE
 40
3.0
  9
$HANDSEED
  5
6D3
  9
$TILEMODE
 70
1
  9
$MEASUREMENT
 70
1
  9
$INSUNITS
 70
4
  0
ENDSEC
  0
SECTION
  2
CLASSES
  0
CLASS
  1
ACDBDICTIONARYWDFLT
  2
AcDbDictionaryWithDefault
  3
AutoCAD 2000
 90
0
 91
1
280
0
281
0
  0
CLASS
  1
ACDBPLACEHOLDER
  2
AcDbPlaceHolder
  3
AutoCAD 2000
 90
0
 91
1
280
0
281
0
  0
CLASS
  1
LAYOUT
  2
AcDbLayout
  3
AutoCAD 2000
 90
0
 91
0
280
0
281
0
  0
ENDSEC
  0
SECTION
  2
TABLES
  0
TABLE
  2
VPORT
  5
8
100
AcDbSymbolTable
 70
2
  0
VPORT
  5
1F4
100
AcDbSymbolTableRecord
100
AcDbViewportTableRecord
  2
*ACTIVE
 70
0
 10
0.0
 20
0.0
 11
1.0
 21
1.0
 12
148.5
 22
105.0
 13
0.0
 23
0.0
 14
1.0
 24
1.0
 15
0.0
 25
0.0
 16
0.0
 26
0.0
 36
1.0
 17
0.0
 27
0.0
 37
0.0
 40
210.0
 41
1.4142857143
 42
50.0
 43
0.0
 44
0.0
 50
0.0
 51
0.0
 71
0
 72
100
 73
1
 74
1
 75
0
 76
0
 77
0
 78
0
  0
ENDTAB
  0
TABLE
  2
LTYPE
  5
5
100
AcDbSymbolTable
 70
6
  0
LTYPE
  5
14
100
AcDbSymbolTableRecord
100
AcDbLinetypeTableRecord
  2
BYBLOCK
 70
0
  3

 72
65
 73
0
 40
0.0
  0
LTYPE
  5
15
100
AcDbSymbolTableRecord
100
AcDbLinetypeTableRecord
  2
BYLAYER
 70
0
  3

 72
65
 73
0
 40
0.0
  0
LTYPE
  5
16
100
AcDbSymbolTableRecord
100
AcDbLinetypeTableRecord
  2
CONTINUOUS
 70
64
  3
Solid line
 72
65
 73
0
 40
0.0
  0
LTYPE
  5
1F5
100
AcDbSymbolTableRecord
100
AcDbLinetypeTableRecord
  2
CENTER
 70
64
  3
____ _ ____ _ ____ _ ____ _ ____ _ ____ _ ____
 72
65
 73
4
 40
0.6
 49
0.375
 74
0
 49
-0.075
 74
0
 49
0.075
 74
0
 49
-0.075
 74
0
  0
LTYPE
  5
1F6
100
AcDbSymbolTableRecord
100
AcDbLinetypeTableRecord
  2
HIDDEN
 70
64
  3
- - - - - - - - - - - - - - - - - - - -
 72
65
 73
2
 40
0.2
 49
0.1
 74
0
 49
-0.1
 74
0
  0
LTYPE
  5
1F7
100
AcDbSymbolTableRecord
100
AcDbLinetypeTableRecord
  2
PHANTOM
 70
64
  3
_____ _ _ _____ _ _ _____ _ _ _____
 72
65
 73
6
 40
0.8
 49
0.45
 74
0
 49
-0.05
 74
0
 49
0.1
 74
0
 49
-0.05
 74
0
 49
0.1
 74
0
 49
-0.05
 74
0
  0
LTYPE
  5
1F8
100
AcDbSymbolTableRecord
100
AcDbLinetypeTableRecord
  2
DOT
 70
64
  3
. . . . . . . . . . . . . . . . . . . .
 72
65
 73
2
 40
0.2
 49
0.1
 74
0
 49
-0.1
 74
0
  0
LTYPE
  5
1F9
100
AcDbSymbolTableRecord
100
AcDbLinetypeTableRecord
  2
DASHED
 70
64
  3
- - - - - - - - - - - - - - - - - - - -
 72
65
 73
2
 40
0.2
 49
0.1
 74
0
 49
-0.1
 74
0
  0
ENDTAB
  0
TABLE
  2
LAYER
  5
2
100
AcDbSymbolTable
 70
36
  0
LAYER
  5
10
100
AcDbSymbolTableRecord
100
AcDbLayerTableRecord
  2
0
 70
0
 62
7
  6
CONTINUOUS
370
-3
390
F
  0
LAYER
  5
1FA
100
AcDbSymbolTableRecord
100
AcDbLayerTableRecord
  2
DEFAULT_1
 70
0
 62
7
  6
CENTER
370
-3
390
F
  0
LAYER
  5
1FB
100
AcDbSymbolTableRecord
100
AcDbLayerTableRecord
  2
DEFAULT_2
 70
0
 62
7
  6
HIDDEN
370
-3
390
F
  0
LAYER
  5
1FC
100
AcDbSymbolTableRecord
100
AcDbLayerTableRecord
  2
DEFAULT_3
 70
0
 62
7
  6
PHANTOM
370
-3
390
F
  0
LAYER
  5
1FD
100
AcDbSymbolTableRecord
100
AcDbLayerTableRecord
  2
ASSI
 70
0
 62
7
  6
CONTINUOUS
370
-3
390
F
  0
LAYER
  5
1FE
100
AcDbSymbolTableRecord
100
AcDbLayerTableRecord
  2
COORDINATE
 70
0
 62
7
  6
CONTINUOUS
370
-3
390
F
  0
LAYER
  5
1FF
100
AcDbSymbolTableRecord
100
AcDbLayerTableRecord
  2
COPY_PUBLISH
 70
0
 62
7
  6
CONTINUOUS
370
-3
390
F
  0
LAYER
  5
200
100
AcDbSymbolTableRecord
100
AcDbLayerTableRecord
  2
COSMETICI
 70
0
 62
7
  6
CONTINUOUS
370
-3
390
F
  0
LAYER
  5
201
100
AcDbSymbolTableRecord
100
AcDbLayerTableRecord
  2
CURVE
 70
0
 62
7
  6
CONTINUOUS
370
-3
390
F
  0
LAYER
  5
202
100
AcDbSymbolTableRecord
100
AcDbLayerTableRecord
  2
DRAFT
 70
0
 62
7
  6
CONTINUOUS
370
-3
390
F
  0
LAYER
  5
203
100
AcDbSymbolTableRecord
100
AcDbLayerTableRecord
  2
IMPORT_IGES
 70
0
 62
7
  6
CONTINUOUS
370
-3
390
F
  0
LAYER
  5
204
100
AcDbSymbolTableRecord
100
AcDbLayerTableRecord
  2
INTF_1
 70
0
 62
7
  6
CONTINUOUS
370
-3
390
F
  0
LAYER
  5
205
100
AcDbSymbolTableRecord
100
AcDbLayerTableRecord
  2
INTF_11
 70
0
 62
7
  6
CONTINUOUS
370
-3
390
F
  0
LAYER
  5
206
100
AcDbSymbolTableRecord
100
AcDbLayerTableRecord
  2
INTF_8
 70
0
 62
7
  6
CONTINUOUS
370
-3
390
F
  0
LAYER
  5
207
100
AcDbSymbolTableRecord
100
AcDbLayerTableRecord
  2
NONE
 70
0
 62
7
  6
CONTINUOUS
370
-3
390
F
  0
LAYER
  5
208
100
AcDbSymbolTableRecord
100
AcDbLayerTableRecord
  2
NOTE
 70
0
 62
7
  6
CONTINUOUS
370
-3
390
F
  0
LAYER
  5
209
100
AcDbSymbolTableRecord
100
AcDbLayerTableRecord
  2
PIANI
 70
0
 62
7
  6
CONTINUOUS
370
-3
390
F
  0
LAYER
  5
20A
100
AcDbSymbolTableRecord
100
AcDbLayerTableRecord
  2
PUNTI
 70
0
 62
7
  6
CONTINUOUS
370
-3
390
F
  0
LAYER
  5
20B
100
AcDbSymbolTableRecord
100
AcDbLayerTableRecord
  2
RACCORDO
 70
0
 62
7
  6
CONTINUOUS
370
-3
390
F
  0
LAYER
  5
20C
100
AcDbSymbolTableRecord
100
AcDbLayerTableRecord
  2
RGB____0____0____0__
 70
0
 62
7
  6
CONTINUOUS
370
-3
390
F
  0
LAYER
  5
20D
100
AcDbSymbolTableRecord
100
AcDbLayerTableRecord
  2
SIMBOLI
 70
0
 62
7
  6
CONTINUOUS
370
-3
390
F
  0
LAYER
  5
20E
100
AcDbSymbolTableRecord
100
AcDbLayerTableRecord
  2
SMUSSO
 70
0
 62
7
  6
CONTINUOUS
370
-3
390
F
  0
LAYER
  5
20F
100
AcDbSymbolTableRecord
100
AcDbLayerTableRecord
  2
SNAPLINE
 70
0
 62
7
  6
CONTINUOUS
370
-3
390
F
  0
LAYER
  5
210
100
AcDbSymbolTableRecord
100
AcDbLayerTableRecord
  2
SUPERFICI
 70
0
 62
7
  6
CONTINUOUS
370
-3
390
F
  0
LAYER
  5
211
100
AcDbSymbolTableRecord
100
AcDbLayerTableRecord
  2
TRASH
 70
0
 62
7
  6
CONTINUOUS
370
-3
390
F
  0
ENDTAB
  0
TABLE
  2
STYLE
  5
3
100
AcDbSymbolTable
 70
1
  0
STYLE
  5
11
100
AcDbSymbolTableRecord
100
AcDbTextStyleTableRecord
  2
STANDARD
 70
0
 40
0.0
 41
0.8
 50
0.0
 71
0
 42
0.2
  3
txt
  4

  0
STYLE
  5
212
100
AcDbSymbolTableRecord
100
AcDbTextStyleTableRecord
  2
TEXTSTYLE_1
 70
0
 40
0.0
 41
0.8
 50
0.0
 71
0
 42
0.2
  3
gdt
  4

  0
ENDTAB
  0
TABLE
  2
VIEW
  5
6
100
AcDbSymbolTable
 70
0
  0
ENDTAB
  0
TABLE
  2
UCS
  5
7
100
AcDbSymbolTable
 70
0
  0
ENDTAB
  0
TABLE
  2
APPID
  5
9
100
AcDbSymbolTable
 70
1
  0
APPID
  5
213
100
AcDbSymbolTableRecord
100
AcDbRegAppTableRecord
  2
ACAD
 70
0
  0
ENDTAB
  0
TABLE
  2
BLOCK_RECORD
  5
1
100
AcDbSymbolTable
 70
0
  0
BLOCK_RECORD
  5
214
100
AcDbSymbolTableRecord
100
AcDbBlockTableRecord
  2
*Model_Space
  0
BLOCK_RECORD
  5
215
100
AcDbSymbolTableRecord
100
AcDbBlockTableRecord
  2
*Paper_Space
  0
BLOCK_RECORD
  5
216
100
AcDbSymbolTableRecord
100
AcDbBlockTableRecord
  2
_FILLED
  0
BLOCK_RECORD
  5
217
100
AcDbSymbolTableRecord
100
AcDbBlockTableRecord
  2
*D0
  0
BLOCK_RECORD
  5
218
100
AcDbSymbolTableRecord
100
AcDbBlockTableRecord
  2
*D1
  0
BLOCK_RECORD
  5
219
100
AcDbSymbolTableRecord
100
AcDbBlockTableRecord
  2
*D2
  0
ENDTAB
  0
TABLE
  2
DIMSTYLE
  5
A
100
AcDbSymbolTable
 70
1
100
AcDbDimStyleTable
 71
0
  0
DIMSTYLE
105
21A
100
AcDbSymbolTableRecord
100
AcDbDimStyleTableRecord
  2
STANDARD
 70
0
  3

  4

 40
1.0
 41
3.0
 42
0.5
 43
0.38
 44
1.5
 45
0.0
 46
0.0
 47
0.01
 48
0.01
140
3.0
141
0.09
142
0.0
143
25.4
144
1.0
145
0.0
146
1.0
147
0.625
 71
1
 72
0
 73
0
 74
0
 75
0
 76
0
 77
1
 78
8
 79
2
170
0
171
1
172
0
173
0
174
0
175
0
176
0
177
0
178
0
270
2
179
2
271
2
272
2
273
2
274
2
275
0
280
0
281
0
282
0
283
1
284
8
285
0
286
0
287
3
288
0
340
11
278
44
341
216
342
216
343
216
344
216
  0
DIMSTYLE
105
21B
100
AcDbSymbolTableRecord
100
AcDbDimStyleTableRecord
  2
DIMSTYLE_1
 70
0
  3

  4

 40
1.0
 41
3.0
 42
0.5
 43
0.38
 44
1.5
 45
0.0
 46
0.0
 47
0.0
 48
0.0
140
3.0
141
0.09
142
0.0
143
25.4
144
1.0
145
0.0
146
1.0
147
0.75
 71
0
 72
0
 73
0
 74
0
 75
0
 76
0
 77
1
 78
8
 79
2
170
0
171
1
172
0
173
0
174
0
175
0
176
0
177
0
178
0
270
2
179
2
271
0
272
0
273
2
274
2
275
0
280
0
281
0
282
0
283
1
284
8
285
0
286
0
287
3
288
0
340
11
278
44
341
216
342
216
343
216
344
216
  0
DIMSTYLE
105
21C
100
AcDbSymbolTableRecord
100
AcDbDimStyleTableRecord
  2
DIMSTYLE_2
 70
0
  3

  4

 40
1.0
 41
3.0
 42
0.5
 43
0.38
 44
1.5
 45
0.0
 46
0.0
 47
0.0
 48
0.0
140
3.0
141
0.09
142
0.0
143
25.4
144
1.0
145
0.0
146
1.0
147
0.75
 71
0
 72
0
 73
0
 74
0
 75
0
 76
0
 77
1
 78
8
 79
2
170
0
171
1
172
0
173
0
174
0
175
0
176
0
177
0
178
0
270
2
179
2
271
1
272
1
273
2
274
2
275
0
280
0
281
0
282
0
283
1
284
8
285
0
286
0
287
3
288
0
340
11
278
44
341
216
342
216
343
216
344
216
  0
ENDTAB
  0
ENDSEC
  0
SECTION
  2
BLOCKS
  0
BLOCK
  5
20
100
AcDbEntity
  8
0
100
AcDbBlockBegin
  2
*Model_Space
 70
0
 10
0.0
 20
0.0
 30
0.0
  3
*Model_Space
  1

  0
ENDBLK
  5
21
100
AcDbEntity
  8
0
100
AcDbBlockEnd
  0
BLOCK
  5
1C
100
AcDbEntity
  8
0
100
AcDbBlockBegin
  2
*Paper_Space
 70
0
 10
0.0
 20
0.0
 30
0.0
  3
*Paper_Space
  1

  0
ENDBLK
  5
1D
100
AcDbEntity
  8
0
100
AcDbBlockEnd
  0
BLOCK
  5
21D
100
AcDbEntity
  8
0
100
AcDbBlockBegin
  2
_FILLED
 70
64
 10
0.0
 20
0.0
  3
_FILLED
  1

  0
SOLID
  5
21E
100
AcDbEntity
  8
0
  6
BYBLOCK
 62
0
100
AcDbTrace
 10
0.0
 20
0.0
 11
-1.0
 21
0.3166666667
 12
-1.0
 22
-0.3166666667
 13
-1.0
 23
-0.3166666667
  0
ENDBLK
  5
21F
100
AcDbEntity
  8
0
  6
BYBLOCK
 62
0
100
AcDbBlockEnd
  0
BLOCK
  5
220
100
AcDbEntity
  8
0
100
AcDbBlockBegin
 62
7
  6
CONTINUOUS
  2
*D0
 70
65
 10
0.0
 20
0.0
  3
*D0
  1

  0
LINE
  5
221
100
AcDbEntity
  8
0
100
AcDbLine
 62
7
  6
CONTINUOUS
 10
-149.45
 20
42.65027414
 11
-149.45
 21
52.45
  0
LINE
  5
222
100
AcDbEntity
  8
0
100
AcDbLine
 62
7
  6
CONTINUOUS
 10
149.45
 20
42.65027414
 11
149.45
 21
52.45
  0
LINE
  5
223
100
AcDbEntity
  8
0
100
AcDbLine
 62
7
  6
CONTINUOUS
 10
-149.45
 20
50.95
 11
-0.0
 21
50.95
  0
LINE
  5
224
100
AcDbEntity
  8
0
100
AcDbLine
 62
7
  6
CONTINUOUS
 10
149.45
 20
50.95
 11
-0.0
 21
50.95
  0
INSERT
  5
225
100
AcDbEntity
  8
0
100
AcDbBlockReference
 62
7
  6
CONTINUOUS
  2
_FILLED
 10
-149.45
 20
50.95
 41
3.0
 42
3.0
 43
3.0
 50
180.0
  0
INSERT
  5
226
100
AcDbEntity
  8
0
100
AcDbBlockReference
 62
7
  6
CONTINUOUS
  2
_FILLED
 10
149.45
 20
50.95
 41
3.0
 42
3.0
 43
3.0
  0
ENDBLK
  5
227
100
AcDbEntity
  8
0
  6
BYBLOCK
 62
0
100
AcDbBlockEnd
  0
BLOCK
  5
228
100
AcDbEntity
  8
0
100
AcDbBlockBegin
 62
7
  6
CONTINUOUS
  2
*D1
 70
65
 10
0.0
 20
0.0
  3
*D1
  1

  0
LINE
  5
229
100
AcDbEntity
  8
0
100
AcDbLine
 62
7
  6
CONTINUOUS
 10
149.15027414
 20
42.95
 11
158.95
 21
42.95
  0
LINE
  5
22A
100
AcDbEntity
  8
0
100
AcDbLine
 62
7
  6
CONTINUOUS
 10
149.15027414
 20
-42.95
 11
158.95
 21
-42.95
  0
LINE
  5
22B
100
AcDbEntity
  8
0
100
AcDbLine
 62
7
  6
CONTINUOUS
 10
157.45
 20
42.95
 11
157.45
 21
0.0
  0
LINE
  5
22C
100
AcDbEntity
  8
0
100
AcDbLine
 62
7
  6
CONTINUOUS
 10
157.45
 20
-42.95
 11
157.45
 21
0.0
  0
INSERT
  5
22D
100
AcDbEntity
  8
0
100
AcDbBlockReference
 62
7
  6
CONTINUOUS
  2
_FILLED
 10
157.45
 20
42.95
 41
3.0
 42
3.0
 43
3.0
 50
90.0
  0
INSERT
  5
22E
100
AcDbEntity
  8
0
100
AcDbBlockReference
 62
7
  6
CONTINUOUS
  2
_FILLED
 10
157.45
 20
-42.95
 41
3.0
 42
3.0
 43
3.0
 50
270.0
  0
ENDBLK
  5
22F
100
AcDbEntity
  8
0
  6
BYBLOCK
 62
0
100
AcDbBlockEnd
  0
BLOCK
  5
230
100
AcDbEntity
  8
0
100
AcDbBlockBegin
 62
7
  6
CONTINUOUS
  2
*D2
 70
65
 10
0.0
 20
0.0
  3
*D2
  1

  0
LINE
  5
231
100
AcDbEntity
  8
0
100
AcDbLine
 62
7
  6
CONTINUOUS
 10
-170.625352061
 20
41.9532985165
 11
-170.6253520514
 21
52.4499999898
  0
LINE
  5
232
100
AcDbEntity
  8
0
100
AcDbLine
 62
7
  6
CONTINUOUS
 10
-179.0765342922
 20
23.7020633323
 11
-179.0765342659
 21
52.4499999975
  0
LINE
  5
233
100
AcDbEntity
  8
0
100
AcDbLine
 62
7
  6
CONTINUOUS
 10
-170.6253520528
 20
50.9499999898
 11
-174.85094316
 21
50.9499999937
  0
LINE
  5
234
100
AcDbEntity
  8
0
100
AcDbLine
 62
7
  6
CONTINUOUS
 10
-179.0765342673
 20
50.9499999975
 11
-174.85094316
 21
50.9499999937
  0
LINE
  5
235
100
AcDbEntity
  8
0
100
AcDbLine
 62
7
  6
CONTINUOUS
 10
-174.85094316
 20
50.9499999937
 11
-187.9929774078
 21
50.95
  0
INSERT
  5
236
100
AcDbEntity
  8
0
100
AcDbBlockReference
 62
7
  6
CONTINUOUS
  2
_FILLED
 10
-170.6253520528
 20
50.9499999898
 41
3.0
 42
3.0
 43
3.0
 50
359.9999999476
  0
INSERT
  5
237
100
AcDbEntity
  8
0
100
AcDbBlockReference
 62
7
  6
CONTINUOUS
  2
_FILLED
 10
-179.0765342673
 20
50.9499999975
 41
3.0
 42
3.0
 43
3.0
 50
179.9999999476
  0
ENDBLK
  5
238
100
AcDbEntity
  8
0
  6
BYBLOCK
 62
0
100
AcDbBlockEnd
  0
ENDSEC
  0
SECTION
  2
ENTITIES
  0
DIMENSION
  5
239
100
AcDbEntity
  8
0
100
AcDbDimension
 62
7
  6
CONTINUOUS
  2
*D0
 10
149.45
 20
50.95
 11
-3.5357142857
 21
50.95
 70
160
 71
2
 72
2
 41
0.9
 42
298.9
  3
DIMSTYLE_1
100
AcDbAlignedDimension
 13
-149.45
 23
42.15027414
 14
149.45
 24
42.15027414
100
AcDbRotatedDimension
  0
DIMENSION
  5
23A
100
AcDbEntity
  8
0
100
AcDbDimension
 62
7
  6
CONTINUOUS
  2
*D1
 10
157.45
 20
-42.95
 11
157.45
 21
-2.3571428571
 70
160
 71
2
 72
2
 41
0.9
 42
85.9
  3
DIMSTYLE_1
100
AcDbAlignedDimension
 13
148.65027414
 23
42.95
 14
148.65027414
 24
-42.95
 50
270.0
100
AcDbRotatedDimension
  0
DIMENSION
  5
23B
100
AcDbEntity
  8
0
100
AcDbDimension
 62
7
  6
CONTINUOUS
  2
*D2
 10
-179.0765342673
 20
50.9499999975
 11
-187.9929774085
 21
50.9500000057
 70
160
 71
3
 72
2
 41
0.9
 42
8.4511822145
  3
DIMSTYLE_2
100
AcDbAlignedDimension
 13
-170.6253520614
 23
41.4532985165
 14
-179.0765342927
 24
23.2020633323
 50
179.9999999476
100
AcDbRotatedDimension
  0
LWPOLYLINE
  5
23C
100
AcDbEntity
  8
ASSI
100
AcDbPolyline
 62
250
  6
CONTINUOUS
 90
28
 70
0
 10
-148.9458745779
 20
-42.1327603657
 10
-148.9447497821
 20
-42.1498595832
 10
-148.9426007988
 20
-42.1669765273
 10
-148.9394274135
 20
-42.1841110047
 10
-148.9352043431
 20
-42.2013720703
 10
-148.929956417
 20
-42.2186502576
 10
-148.9237586255
 20
-42.2356176337
 10
-148.9166071118
 20
-42.2522200131
 10
-148.9085053745
 20
-42.2685112773
 10
-148.8995395245
 20
-42.2843256896
 10
-148.889701509
 20
-42.2996573326
 10
-148.8789991343
 20
-42.3145119276
 10
-148.8675423944
 20
-42.3287412918
 10
-148.8553248794
 20
-42.3423390977
 10
-148.8423528988
 20
-42.3553116196
 10
-148.8287556302
 20
-42.3675296824
 10
-148.8145268483
 20
-42.3789869581
 10
-148.7996728321
 20
-42.3896898755
 10
-148.7843416212
 20
-42.3995284993
 10
-148.7685274353
 20
-42.4084950733
 10
-148.7522362512
 20
-42.4165976003
 10
-148.7356338402
 20
-42.4237498785
 10
-148.7187132448
 20
-42.4299424972
 10
-148.7014817312
 20
-42.4351852287
 10
-148.6841264826
 20
-42.4394207175
 10
-148.6667100319
 20
-42.442629999
 10
-148.6491702275
 20
-42.4448324684
 10
-148.6315072538
 20
-42.4460283356
  0
LWPOLYLINE
  5
23D
100
AcDbEntity
  8
ASSI
100
AcDbPolyline
 62
250
  6
CONTINUOUS
 90
5
 70
0
 10
-148.9458745779
 20
-42.1327603657
 10
-148.9628261777
 20
-41.6580531429
 10
-148.9779650486
 20
-41.1659600577
 10
-148.9912916684
 20
-40.6565033046
 10
-149.0027370937
 20
-40.1245909001
  0
LWPOLYLINE
  5
23E
100
AcDbEntity
  8
ASSI
100
AcDbPolyline
 62
250
  6
CONTINUOUS
 90
28
 70
0
 10
-149.409253555
 20
-42.109527695
 10
-149.4079006894
 20
-42.1560372651
 10
-149.4038460383
 20
-42.2023907915
 10
-149.3971027833
 20
-42.248431588
 10
-149.3876928125
 20
-42.2940054039
 10
-149.375647629
 20
-42.3389565654
 10
-149.3610091033
 20
-42.3831287264
 10
-149.343826622
 20
-42.4263734101
 10
-149.3241587759
 20
-42.4685435778
 10
-149.3020760126
 20
-42.5094904912
 10
-149.2776562648
 20
-42.549073452
 10
-149.2509817117
 20
-42.5871626287
 10
-149.2221415525
 20
-42.6236328335
 10
-149.1912353365
 20
-42.6583599135
 10
-149.1583667967
 20
-42.6912288285
 10
-149.1236400967
 20
-42.7221354184
 10
-149.0871703883
 20
-42.7509758723
 10
-149.0490817266
 20
-42.7776507394
 10
-149.0094989459
 20
-42.8020710296
 10
-148.9685516838
 20
-42.8241545867
 10
-148.9263807625
 20
-42.8438233178
 10
-148.8831350214
 20
-42.8610066662
 10
-148.8389613287
 20
-42.8756460454
 10
-148.7940083235
 20
-42.8876919527
 10
-148.7484329993
 20
-42.8971023577
 10
-148.7023912747
 20
-42.9038457977
 10
-148.6560372091
 20
-42.9079005025
 10
-148.6095275003
 20
-42.9092533602
  0
LINE
  5
23F
100
AcDbEntity
  8
ASSI
100
AcDbLine
 62
250
  6
CONTINUOUS
 10
-148.6268854085
 20
-42.7055340117
 11
-148.6285966921
 21
-42.6463606239
  0
LINE
  5
240
100
AcDbEntity
  8
ASSI
100
AcDbLine
 62
250
  6
CONTINUOUS
 10
-148.6285966921
 20
-42.6463606239
 11
-148.6299341514
 21
-42.5825425378
  0
LINE
  5
241
100
AcDbEntity
  8
ASSI
100
AcDbLine
 62
250
  6
CONTINUOUS
 10
-149.0027370937
 20
-40.1245909001
 11
-149.0203932004
 21
-39.0241802035
  0
LINE
  5
242
100
AcDbEntity
  8
ASSI
100
AcDbLine
 62
250
  6
CONTINUOUS
 10
-148.6299341514
 20
-42.5825425378
 11
-148.6308715692
 21
-42.5153307977
  0
LINE
  5
243
100
AcDbEntity
  8
ASSI
100
AcDbLine
 62
250
  6
CONTINUOUS
 10
-149.0203932004
 20
-39.0241802035
 11
-149.03130496
 21
-37.9157475982
  0
LINE
  5
244
100
AcDbEntity
  8
ASSI
100
AcDbLine
 62
250
  6
CONTINUOUS
 10
-149.03130496
 20
-37.9157475982
 11
-149.0382007244
 21
-36.8531186768
  0
LINE
  5
245
100
AcDbEntity
  8
ASSI
100
AcDbLine
 62
250
  6
CONTINUOUS
 10
-148.6308715692
 20
-42.5153307977
 11
-148.63139057
 21
-42.4460429832
  0
LINE
  5
246
100
AcDbEntity
  8
ASSI
100
AcDbLine
 62
250
  6
CONTINUOUS
 10
-149.0382007244
 20
-36.8531186768
 11
-149.0453839781
 21
-34.9095372522
  0
LINE
  5
247
100
AcDbEntity
  8
ASSI
100
AcDbLine
 62
250
  6
CONTINUOUS
 10
-149.0453839781
 20
-34.9095372522
 11
-149.0502992868
 21
-32.6472541068
  0
LINE
  5
248
100
AcDbEntity
  8
ASSI
100
AcDbLine
 62
250
  6
CONTINUOUS
 10
-149.0502992868
 20
-32.6472541068
 11
-149.0856583248
 21
-20.9072396453
  0
LINE
  5
249
100
AcDbEntity
  8
ASSI
100
AcDbLine
 62
250
  6
CONTINUOUS
 10
-149.0856583248
 20
-20.9072396453
 11
-149.0898846911
 21
-17.4188302808
  0
LINE
  5
24A
100
AcDbEntity
  8
ASSI
100
AcDbLine
 62
7
  6
CONTINUOUS
 10
-149.45
 20
42.15027414
 11
-149.45
 21
-42.15027414
  0
LINE
  5
24B
100
AcDbEntity
  8
ASSI
100
AcDbLine
 62
250
  6
CONTINUOUS
 10
-149.4066046583
 20
36.163879153
 11
-149.4092537128
 21
42.1095278528
  0
LINE
  5
24C
100
AcDbEntity
  8
ASSI
100
AcDbLine
 62
250
  6
CONTINUOUS
 10
-149.0898846911
 20
-17.4188302808
 11
-149.0915219911
 21
-11.7883736147
  0
LINE
  5
24D
100
AcDbEntity
  8
ASSI
100
AcDbLine
 62
250
  6
CONTINUOUS
 10
-149.0915219911
 20
-11.7883736147
 11
-149.0913413265
 21
14.2319543255
  0
LINE
  5
24E
100
AcDbEntity
  8
ASSI
100
AcDbLine
 62
250
  6
CONTINUOUS
 10
-149.4083250192
 20
-41.150340872
 11
-149.4066046583
 21
36.163879153
  0
LINE
  5
24F
100
AcDbEntity
  8
ASSI
100
AcDbLine
 62
250
  6
CONTINUOUS
 10
-149.4092540701
 20
-42.1095282101
 11
-149.4083250192
 21
-41.150340872
  0
LINE
  5
250
100
AcDbEntity
  8
ASSI
100
AcDbLine
 62
250
  6
CONTINUOUS
 10
-149.0913413265
 20
14.2319543255
 11
-149.0869174213
 21
20.1229029159
  0
LINE
  5
251
100
AcDbEntity
  8
ASSI
100
AcDbLine
 62
250
  6
CONTINUOUS
 10
-149.0869174213
 20
20.1229029159
 11
-149.0803287425
 21
23.3415741339
  0
LWPOLYLINE
  5
252
100
AcDbEntity
  8
ASSI
100
AcDbPolyline
 62
250
  6
CONTINUOUS
 90
3
 70
0
 10
-149.0803287425
 20
23.3415741339
 10
-149.0639703788
 20
27.9516521413
 10
-149.0447519731
 20
35.1235744102
  0
LINE
  5
253
100
AcDbEntity
  8
ASSI
100
AcDbLine
 62
250
  6
CONTINUOUS
 10
-149.0447519731
 20
35.1235744102
 11
-149.0389601175
 21
36.6660948611
  0
LINE
  5
254
100
AcDbEntity
  8
ASSI
100
AcDbLine
 62
250
  6
CONTINUOUS
 10
-149.0389601175
 20
36.6660948611
 11
-149.033507267
 21
37.6259611757
  0
LINE
  5
255
100
AcDbEntity
  8
ASSI
100
AcDbLine
 62
250
  6
CONTINUOUS
 10
-149.033507267
 20
37.6259611757
 11
-149.0261333259
 21
38.5136962005
  0
LINE
  5
256
100
AcDbEntity
  8
ASSI
100
AcDbLine
 62
250
  6
CONTINUOUS
 10
-148.6313905808
 20
42.4460429736
 11
-148.6308715755
 21
42.5153312191
  0
LINE
  5
257
100
AcDbEntity
  8
ASSI
100
AcDbLine
 62
250
  6
CONTINUOUS
 10
-149.0261333259
 20
38.5136962005
 11
-149.0161191897
 21
39.3395247481
  0
LINE
  5
258
100
AcDbEntity
  8
ASSI
100
AcDbLine
 62
250
  6
CONTINUOUS
 10
-148.6308715755
 20
42.5153312191
 11
-148.6299341489
 21
42.5825432984
  0
LINE
  5
259
100
AcDbEntity
  8
ASSI
100
AcDbLine
 62
250
  6
CONTINUOUS
 10
-149.0161191897
 20
39.3395247481
 11
-149.0031884518
 21
40.1077471057
  0
LINE
  5
25A
100
AcDbEntity
  8
ASSI
100
AcDbLine
 62
250
  6
CONTINUOUS
 10
-148.6299341489
 20
42.5825432984
 11
-148.6285966781
 21
42.6463616143
  0
LINE
  5
25B
100
AcDbEntity
  8
ASSI
100
AcDbLine
 62
250
  6
CONTINUOUS
 10
-149.0031884518
 20
40.1077471057
 11
-148.987090403
 21
40.8261811022
  0
LINE
  5
25C
100
AcDbEntity
  8
ASSI
100
AcDbLine
 62
250
  6
CONTINUOUS
 10
-148.987090403
 20
40.8261811022
 11
-148.9680179304
 21
41.5002408375
  0
LWPOLYLINE
  5
25D
100
AcDbEntity
  8
ASSI
100
AcDbPolyline
 62
250
  6
CONTINUOUS
 90
15
 70
0
 10
-148.6285966781
 20
42.6463616143
 10
-148.6268853822
 20
42.7055351078
 10
-148.6258997643
 20
42.7330133477
 10
-148.624833809
 20
42.7589037613
 10
-148.6236927467
 20
42.7830793063
 10
-148.6224821766
 20
42.805421355
 10
-148.6212080388
 20
42.8258202765
 10
-148.6198765856
 20
42.8441759747
 10
-148.6184943502
 20
42.8603983795
 10
-148.6170681147
 20
42.8744078917
 10
-148.6156048781
 20
42.8861357635
 10
-148.6141118213
 20
42.8955244412
 10
-148.6125962709
 20
42.902527859
 10
-148.6110656636
 20
42.9071116591
 10
-148.6095275099
 20
42.9092533545
  0
LINE
  5
25E
100
AcDbEntity
  8
ASSI
100
AcDbLine
 62
250
  6
CONTINUOUS
 10
-148.9680179304
 20
41.5002408375
 11
-148.9460129108
 21
42.1316581978
  0
LWPOLYLINE
  5
25F
100
AcDbEntity
  8
ASSI
100
AcDbPolyline
 62
250
  6
CONTINUOUS
 90
14
 70
0
 10
-148.6095275003
 20
-42.9092533602
 10
-148.6110656693
 20
-42.9071116313
 10
-148.6125962895
 20
-42.9025277573
 10
-148.6141118501
 20
-42.8955242362
 10
-148.6156049145
 20
-42.8861354385
 10
-148.6170681561
 20
-42.8744074401
 10
-148.6184943946
 20
-42.8603977978
 10
-148.6198766316
 20
-42.8441752641
 10
-148.6212080848
 20
-42.8258194469
 10
-148.6224822208
 20
-42.8054204217
 10
-148.6236927879
 20
-42.7830782908
 10
-148.624833846
 20
-42.7589026898
 10
-148.6258997963
 20
-42.733012248
 10
-148.6268854085
 20
-42.7055340117
  0
LWPOLYLINE
  5
260
100
AcDbEntity
  8
RACCORDO
100
AcDbPolyline
 62
250
  6
CONTINUOUS
 90
11
 70
0
 10
-128.864972497
 20
22.9760742632
 10
-128.8643837336
 20
22.9563060573
 10
-128.8637453234
 20
22.9379581636
 10
-128.8630618432
 20
22.9211621237
 10
-128.8623381934
 20
22.9060383538
 10
-128.8615795619
 20
22.8926952802
 10
-128.8607913879
 20
22.8812285626
 10
-128.8599793219
 20
22.8717204085
 10
-128.8591491858
 20
22.8642389835
 10
-128.8583069314
 20
22.8588379227
 10
-128.8574585972
 20
22.8555559462
  0
LINE
  5
261
100
AcDbEntity
  8
RACCORDO
100
AcDbLine
 62
250
  6
CONTINUOUS
 10
-128.865984585
 20
23.0192955456
 11
-128.864972497
 21
22.9760742632
  0
LINE
  5
262
100
AcDbEntity
  8
RACCORDO
100
AcDbLine
 62
250
  6
CONTINUOUS
 10
-128.866752615
 20
23.0663847581
 11
-128.865984585
 21
23.0192955456
  0
LINE
  5
263
100
AcDbEntity
  8
RACCORDO
100
AcDbLine
 62
250
  6
CONTINUOUS
 10
-128.8672546008
 20
23.1159939198
 11
-128.866752615
 21
23.0663847581
  0
LINE
  5
264
100
AcDbEntity
  8
RACCORDO
100
AcDbLine
 62
250
  6
CONTINUOUS
 10
-128.8674761729
 20
23.1667029151
 11
-128.8672546008
 21
23.1159939198
  0
LINE
  5
265
100
AcDbEntity
  8
RACCORDO
100
AcDbLine
 62
250
  6
CONTINUOUS
 10
-129.6666263563
 20
-22.3675989178
 11
-129.6946513161
 21
-9.5694398425
  0
LINE
  5
266
100
AcDbEntity
  8
RACCORDO
100
AcDbLine
 62
250
  6
CONTINUOUS
 10
-129.6946513161
 20
-9.5694398425
 11
-129.7000672092
 21
-5.0271275546
  0
LINE
  5
267
100
AcDbEntity
  8
RACCORDO
100
AcDbLine
 62
250
  6
CONTINUOUS
 10
-129.3555791399
 20
-22.3574817908
 11
-129.3781331252
 21
-8.1502437102
  0
LINE
  5
268
100
AcDbEntity
  8
RACCORDO
100
AcDbLine
 62
250
  6
CONTINUOUS
 10
-129.3781331252
 20
-8.1502437102
 11
-129.3814319051
 21
-2.6413928645
  0
LINE
  5
269
100
AcDbEntity
  8
RACCORDO
100
AcDbLine
 62
250
  6
CONTINUOUS
 10
-129.7000672092
 20
-5.0271275546
 11
-129.702009428
 21
-0.6848896476
  0
LINE
  5
26A
100
AcDbEntity
  8
RACCORDO
100
AcDbLine
 62
7
  6
CONTINUOUS
 10
-129.2
 20
22.201902651
 11
-129.2
 21
-22.201902651
  0
LINE
  5
26B
100
AcDbEntity
  8
RACCORDO
100
AcDbLine
 62
250
  6
CONTINUOUS
 10
-129.3814319051
 20
-2.6413928645
 11
-129.3810660537
 21
3.6842280575
  0
LINE
  5
26C
100
AcDbEntity
  8
RACCORDO
100
AcDbLine
 62
250
  6
CONTINUOUS
 10
-129.702009428
 20
-0.6848896476
 11
-129.7002635928
 21
4.7766451602
  0
LINE
  5
26D
100
AcDbEntity
  8
RACCORDO
100
AcDbLine
 62
250
  6
CONTINUOUS
 10
-129.3810660537
 20
3.6842280575
 11
-129.3766936337
 21
9.6054914738
  0
LINE
  5
26E
100
AcDbEntity
  8
RACCORDO
100
AcDbLine
 62
250
  6
CONTINUOUS
 10
-129.7002635928
 20
4.7766451602
 11
-129.6945875849
 21
9.6091779518
  0
LINE
  5
26F
100
AcDbEntity
  8
RACCORDO
100
AcDbLine
 62
250
  6
CONTINUOUS
 10
-129.3766936337
 20
9.6054914738
 11
-129.3614409963
 21
19.7745492157
  0
LINE
  5
270
100
AcDbEntity
  8
RACCORDO
100
AcDbLine
 62
250
  6
CONTINUOUS
 10
-129.6945875849
 20
9.6091779518
 11
-129.6666263563
 21
22.3675989178
  0
LINE
  5
271
100
AcDbEntity
  8
RACCORDO
100
AcDbLine
 62
250
  6
CONTINUOUS
 10
-129.3614409963
 20
19.7745492157
 11
-129.3555791399
 21
22.3574817908
  0
LINE
  5
272
100
AcDbEntity
  8
RACCORDO
100
AcDbLine
 62
250
  6
CONTINUOUS
 10
-128.8674761729
 20
-23.1667029151
 11
-128.8672546364
 21
-23.1159938811
  0
LINE
  5
273
100
AcDbEntity
  8
RACCORDO
100
AcDbLine
 62
250
  6
CONTINUOUS
 10
-128.8672546364
 20
-23.1159938811
 11
-128.8667526778
 21
-23.0663847043
  0
LINE
  5
274
100
AcDbEntity
  8
RACCORDO
100
AcDbLine
 62
250
  6
CONTINUOUS
 10
-128.8667526778
 20
-23.0663847043
 11
-128.8659846665
 21
-23.0192954974
  0
LWPOLYLINE
  5
275
100
AcDbEntity
  8
RACCORDO
100
AcDbPolyline
 62
250
  6
CONTINUOUS
 90
12
 70
0
 10
-128.8659846665
 20
-23.0192954974
 10
-128.8649725882
 20
-22.9760742317
 10
-128.8643838262
 20
-22.9563060352
 10
-128.8637454149
 20
-22.9379581505
 10
-128.8630619314
 20
-22.9211621189
 10
-128.8623382759
 20
-22.9060383549
 10
-128.8615796364
 20
-22.892695285
 10
-128.8607914519
 20
-22.8812285693
 10
-128.8599793732
 20
-22.8717204147
 10
-128.8591492222
 20
-22.8642389876
 10
-128.8583069508
 20
-22.8588379244
 10
-128.8574585972
 20
-22.8555559462
  0
LWPOLYLINE
  5
276
100
AcDbEntity
  8
RACCORDO
100
AcDbPolyline
 62
250
  6
CONTINUOUS
 90
28
 70
0
 10
-129.3555791399
 20
22.3574817908
 10
-129.3547730762
 20
22.3858449463
 10
-129.3523516889
 20
22.4142049365
 10
-129.3483063109
 20
22.4424695646
 10
-129.3426260943
 20
22.4705807932
 10
-129.3353167728
 20
22.4984074541
 10
-129.3264205462
 20
22.525750753
 10
-129.3159728946
 20
22.5525090555
 10
-129.304006279
 20
22.5786077656
 10
-129.2905943269
 20
22.6039010796
 10
-129.2758161138
 20
22.6282753258
 10
-129.2597114045
 20
22.6516977066
 10
-129.2423024689
 20
22.6741483335
 10
-129.2236423244
 20
22.6955612188
 10
-129.2037969683
 20
22.7158629761
 10
-129.1828000535
 20
22.735016808
 10
-129.1607688779
 20
22.752916663
 10
-129.1377230765
 20
22.7695468411
 10
-129.1135265419
 20
22.7849732642
 10
-129.0881573322
 20
22.7991458217
 10
-129.0617492569
 20
22.8119269498
 10
-129.0343880836
 20
22.8232233244
 10
-129.006074272
 20
22.8329771929
 10
-128.9769682225
 20
22.8410778467
 10
-128.9474199869
 20
22.8474054401
 10
-128.9176230294
 20
22.851927118
 10
-128.8875999534
 20
22.8546471558
 10
-128.8574585972
 20
22.8555559462
  0
LWPOLYLINE
  5
277
100
AcDbEntity
  8
RACCORDO
100
AcDbPolyline
 62
250
  6
CONTINUOUS
 90
28
 70
0
 10
-129.6666263563
 20
22.3675989178
 10
-129.6652124212
 20
22.4132142336
 10
-129.6612014753
 20
22.4585350509
 10
-129.6545935146
 20
22.5035613657
 10
-129.6453480368
 20
22.5484961885
 10
-129.633505536
 20
22.5931365007
 10
-129.6191875022
 20
22.6368732533
 10
-129.6023464597
 20
22.6796679987
 10
-129.5830298763
 20
22.7215591767
 10
-129.5615016578
 20
22.7620530689
 10
-129.5377750429
 20
22.8010728514
 10
-129.5118367876
 20
22.8386953427
 10
-129.483911074
 20
22.8746572895
 10
-129.453986965
 20
22.9089621438
 10
-129.4220753957
 20
22.9416064514
 10
-129.3884333579
 20
22.9723166008
 10
-129.353151827
 20
23.0010485433
 10
-129.3161398292
 20
23.0278463293
 10
-129.277381433
 20
23.0525684967
 10
-129.2367502339
 20
23.0753082896
 10
-129.1943726414
 20
23.0959724689
 10
-129.1506119464
 20
23.1141398489
 10
-129.1053023333
 20
23.1297873077
 10
-129.0586096264
 20
23.1429379758
 10
-129.0113945773
 20
23.1532400469
 10
-128.9639441065
 20
23.1605762552
 10
-128.9159713034
 20
23.1650638763
 10
-128.8674761729
 20
23.1667029151
  0
LWPOLYLINE
  5
278
100
AcDbEntity
  8
ASSI
100
AcDbPolyline
 62
250
  6
CONTINUOUS
 90
14
 70
0
 10
-149.409253555
 20
42.109527695
 10
-149.4071118731
 20
42.1110646978
 10
-149.4025281124
 20
42.1125941588
 10
-149.3955247647
 20
42.1141085729
 10
-149.386136195
 20
42.1156005093
 10
-149.3744084718
 20
42.1170626472
 10
-149.3603991416
 20
42.1184878121
 10
-149.3441769467
 20
42.119869011
 10
-149.3258214872
 20
42.1211994665
 10
-149.3054228309
 20
42.1224726502
 10
-149.2830810712
 20
42.1236823149
 10
-149.2589058362
 20
42.1248225248
 10
-149.2330157502
 20
42.1258876853
 10
-149.2055378523
 20
42.1268725696
  0
LINE
  5
279
100
AcDbEntity
  8
ASSI
100
AcDbLine
 62
250
  6
CONTINUOUS
 10
-106.5
 20
42.9051300365
 11
-106.5
 21
42.5903642453
  0
LINE
  5
27A
100
AcDbEntity
  8
RACCORDO
100
AcDbLine
 62
250
  6
CONTINUOUS
 10
-106.5
 20
42.5903668806
 11
-106.5
 21
22.8818256987
  0
LINE
  5
27B
100
AcDbEntity
  8
ASSI
100
AcDbLine
 62
250
  6
CONTINUOUS
 10
-106.5
 20
-42.9051300365
 11
-106.5
 21
-42.5903368003
  0
LINE
  5
27C
100
AcDbEntity
  8
RACCORDO
100
AcDbLine
 62
250
  6
CONTINUOUS
 10
-106.5
 20
-42.5903668806
 11
-106.5
 21
-22.8818256987
  0
LWPOLYLINE
  5
27D
100
AcDbEntity
  8
RACCORDO
100
AcDbPolyline
 62
250
  6
CONTINUOUS
 90
11
 70
0
 10
-84.1379942682
 20
-22.9727554485
 10
-84.1385841246
 20
-22.9530423716
 10
-84.1392235014
 20
-22.9347468765
 10
-84.1399078302
 20
-22.9179996868
 10
-84.1406322213
 20
-22.9029204633
 10
-84.141391499
 20
-22.889616949
 10
-84.142180238
 20
-22.8781841992
 10
-84.1429928027
 20
-22.8687039026
 10
-84.1438233873
 20
-22.861243797
 10
-84.1446660572
 20
-22.855857186
 10
-84.1455147912
 20
-22.8525825578
  0
LINE
  5
27E
100
AcDbEntity
  8
RACCORDO
100
AcDbLine
 62
250
  6
CONTINUOUS
 10
-84.136979591
 20
-23.0158618158
 11
-84.1379942682
 21
-22.9727554485
  0
LINE
  5
27F
100
AcDbEntity
  8
RACCORDO
100
AcDbLine
 62
250
  6
CONTINUOUS
 10
-84.1362084179
 20
-23.0628361781
 11
-84.136979591
 21
-23.0158618158
  0
LINE
  5
280
100
AcDbEntity
  8
RACCORDO
100
AcDbLine
 62
250
  6
CONTINUOUS
 10
-84.1357027501
 20
-23.1123383838
 11
-84.1362084179
 21
-23.0628361781
  0
LINE
  5
281
100
AcDbEntity
  8
RACCORDO
100
AcDbLine
 62
250
  6
CONTINUOUS
 10
-84.1354770138
 20
-23.1629561633
 11
-84.1357027501
 21
-23.1123383838
  0
LINE
  5
282
100
AcDbEntity
  8
RACCORDO
100
AcDbLine
 62
250
  6
CONTINUOUS
 10
-83.337427949
 20
22.3649778288
 11
-83.3189641285
 21
15.9016984646
  0
LINE
  5
283
100
AcDbEntity
  8
RACCORDO
100
AcDbLine
 62
250
  6
CONTINUOUS
 10
-83.6473167138
 20
22.3545859371
 11
-83.6336263639
 21
16.4560176181
  0
LINE
  5
284
100
AcDbEntity
  8
RACCORDO
100
AcDbLine
 62
250
  6
CONTINUOUS
 10
-83.3189641285
 20
15.9016984646
 11
-83.3077004281
 21
10.8692855777
  0
LINE
  5
285
100
AcDbEntity
  8
RACCORDO
100
AcDbLine
 62
250
  6
CONTINUOUS
 10
-83.6336263639
 20
16.4560176181
 11
-83.6241583255
 21
10.3050566628
  0
LINE
  5
286
100
AcDbEntity
  8
RACCORDO
100
AcDbLine
 62
250
  6
CONTINUOUS
 10
-83.3077004281
 20
10.8692855777
 11
-83.3006229288
 21
5.8299630571
  0
LINE
  5
287
100
AcDbEntity
  8
RACCORDO
100
AcDbLine
 62
250
  6
CONTINUOUS
 10
-83.6241583255
 20
10.3050566628
 11
-83.6190490517
 21
4.1488805334
  0
LINE
  5
288
100
AcDbEntity
  8
RACCORDO
100
AcDbLine
 62
250
  6
CONTINUOUS
 10
-83.3006229288
 20
5.8299630571
 11
-83.2979355565
 21
0.7932405932
  0
LINE
  5
289
100
AcDbEntity
  8
RACCORDO
100
AcDbLine
 62
7
  6
CONTINUOUS
 10
-83.8
 20
-22.201902651
 11
-83.8
 21
22.201902651
  0
LINE
  5
28A
100
AcDbEntity
  8
RACCORDO
100
AcDbLine
 62
250
  6
CONTINUOUS
 10
-83.6190490517
 20
4.1488805334
 11
-83.6204330303
 21
-6.4806194321
  0
LINE
  5
28B
100
AcDbEntity
  8
RACCORDO
100
AcDbLine
 62
250
  6
CONTINUOUS
 10
-83.2979355565
 20
0.7932405932
 11
-83.2993171507
 21
-4.2435694177
  0
LINE
  5
28C
100
AcDbEntity
  8
RACCORDO
100
AcDbLine
 62
250
  6
CONTINUOUS
 10
-83.6204330303
 20
-6.4806194321
 11
-83.6264665008
 21
-12.0752202862
  0
LINE
  5
28D
100
AcDbEntity
  8
RACCORDO
100
AcDbLine
 62
250
  6
CONTINUOUS
 10
-83.2993171507
 20
-4.2435694177
 11
-83.3041387715
 21
-8.7229738229
  0
LINE
  5
28E
100
AcDbEntity
  8
RACCORDO
100
AcDbLine
 62
250
  6
CONTINUOUS
 10
-83.6264665008
 20
-12.0752202862
 11
-83.6360879647
 21
-17.7430211401
  0
LINE
  5
28F
100
AcDbEntity
  8
RACCORDO
100
AcDbLine
 62
250
  6
CONTINUOUS
 10
-83.3041387715
 20
-8.7229738229
 11
-83.3124581119
 21
-13.1966013838
  0
LWPOLYLINE
  5
290
100
AcDbEntity
  8
RACCORDO
100
AcDbPolyline
 62
250
  6
CONTINUOUS
 90
3
 70
0
 10
-83.6360879647
 20
-17.7430211401
 10
-83.645259325
 20
-21.6348935814
 10
-83.6473167138
 20
-22.3545859371
  0
LINE
  5
291
100
AcDbEntity
  8
RACCORDO
100
AcDbLine
 62
250
  6
CONTINUOUS
 10
-83.3124581119
 20
-13.1966013838
 11
-83.3272783179
 21
-18.9748437008
  0
LINE
  5
292
100
AcDbEntity
  8
RACCORDO
100
AcDbLine
 62
250
  6
CONTINUOUS
 10
-83.3272783179
 20
-18.9748437008
 11
-83.337427949
 21
-22.3649778288
  0
LINE
  5
293
100
AcDbEntity
  8
RACCORDO
100
AcDbLine
 62
250
  6
CONTINUOUS
 10
-84.1354770138
 20
23.1629561633
 11
-84.1357027418
 21
23.1123382973
  0
LINE
  5
294
100
AcDbEntity
  8
RACCORDO
100
AcDbLine
 62
250
  6
CONTINUOUS
 10
-84.1357027418
 20
23.1123382973
 11
-84.1362084041
 21
23.0628360347
  0
LINE
  5
295
100
AcDbEntity
  8
RACCORDO
100
AcDbLine
 62
250
  6
CONTINUOUS
 10
-84.1362084041
 20
23.0628360347
 11
-84.136979574
 21
23.0158616476
  0
LWPOLYLINE
  5
296
100
AcDbEntity
  8
RACCORDO
100
AcDbPolyline
 62
250
  6
CONTINUOUS
 90
12
 70
0
 10
-84.136979574
 20
23.0158616476
 10
-84.13799425
 20
22.9727552851
 10
-84.1385841065
 20
22.9530422195
 10
-84.1392234839
 20
22.9347467405
 10
-84.1399078135
 20
22.9179995704
 10
-84.1406322059
 20
22.9029203682
 10
-84.1413914853
 20
22.8896168758
 10
-84.1421802263
 20
22.8781841474
 10
-84.1429927934
 20
22.8687038696
 10
-84.1438233807
 20
22.8612437795
 10
-84.1446660536
 20
22.8558571799
 10
-84.1455147912
 20
22.8525825578
  0
LWPOLYLINE
  5
297
100
AcDbEntity
  8
RACCORDO
100
AcDbPolyline
 62
250
  6
CONTINUOUS
 90
28
 70
0
 10
-83.6473167138
 20
-22.3545859371
 10
-83.6481141621
 20
-22.3827287445
 10
-83.6505060084
 20
-22.4109006919
 10
-83.6545061039
 20
-22.43901094
 10
-83.6601295973
 20
-22.4669983779
 10
-83.667376614
 20
-22.4947360168
 10
-83.676214575
 20
-22.5220358657
 10
-83.6866170649
 20
-22.5487990226
 10
-83.6985571812
 20
-22.5749436511
 10
-83.7119668994
 20
-22.600318204
 10
-83.7267782995
 20
-22.6248133329
 10
-83.7429524073
 20
-22.6483829295
 10
-83.7604514696
 20
-22.670977187
 10
-83.7792240336
 20
-22.6925293832
 10
-83.7992026842
 20
-22.7129623532
 10
-83.8203244942
 20
-22.7322123017
 10
-83.8424593433
 20
-22.750169607
 10
-83.8655909095
 20
-22.7668291201
 10
-83.8898455532
 20
-22.7822569679
 10
-83.9152331138
 20
-22.7964037389
 10
-83.941624253
 20
-22.8091428139
 10
-83.968950126
 20
-22.820394699
 10
-83.9972090319
 20
-22.8301044363
 10
-84.026240762
 20
-22.8381646381
 10
-84.0557175884
 20
-22.844462925
 10
-84.085454605
 20
-22.8489664583
 10
-84.115422717
 20
-22.8516765784
 10
-84.1455147912
 20
-22.8525825578
  0
LWPOLYLINE
  5
298
100
AcDbEntity
  8
RACCORDO
100
AcDbPolyline
 62
250
  6
CONTINUOUS
 90
28
 70
0
 10
-83.337427949
 20
-22.3649778288
 10
-83.3388082025
 20
-22.4101830902
 10
-83.3427653679
 20
-22.4551481883
 10
-83.3492994452
 20
-22.499873123
 10
-83.3584391759
 20
-22.5445555711
 10
-83.3701558184
 20
-22.5889978558
 10
-83.3843631483
 20
-22.6326069468
 10
-83.4011106409
 20
-22.6753559898
 10
-83.4203488208
 20
-22.717271839
 10
-83.441843037
 20
-22.7578420266
 10
-83.4655950367
 20
-22.7970026553
 10
-83.4916030727
 20
-22.8348176225
 10
-83.5196272523
 20
-22.8709661526
 10
-83.5496910553
 20
-22.9054463025
 10
-83.5817710019
 20
-22.9382600154
 10
-83.6155567603
 20
-22.9690923454
 10
-83.6509490178
 20
-22.9978808362
 10
-83.6880470872
 20
-23.024687944
 10
-83.7268385746
 20
-23.0493860921
 10
-83.7674335415
 20
-23.0720611729
 10
-83.8097219266
 20
-23.092627294
 10
-83.8533611514
 20
-23.1106992006
 10
-83.8985111701
 20
-23.1262605287
 10
-83.9450120285
 20
-23.1393276422
 10
-83.9920412862
 20
-23.1495643786
 10
-84.0393247962
 20
-23.1568586839
 10
-84.0871367054
 20
-23.1613226121
 10
-84.1354770138
 20
-23.1629561633
  0
LWPOLYLINE
  5
299
100
AcDbEntity
  8
ASSI
100
AcDbPolyline
 62
250
  6
CONTINUOUS
 90
4
 70
0
 10
-81.0018880745
 20
42.9056329878
 10
-81.0017536835
 20
42.9036438946
 10
-81.0016199226
 20
42.8994332402
 10
-81.0014873878
 20
42.8930198425
  0
LINE
  5
29A
100
AcDbEntity
  8
ASSI
100
AcDbLine
 62
250
  6
CONTINUOUS
 10
-81.0014873878
 20
42.8930198425
 11
-81.0012283485
 21
42.8737091034
  0
LINE
  5
29B
100
AcDbEntity
  8
ASSI
100
AcDbLine
 62
250
  6
CONTINUOUS
 10
-81.0012283485
 20
42.8737091034
 11
-81.0007503033
 21
42.8105542133
  0
LINE
  5
29C
100
AcDbEntity
  8
ASSI
100
AcDbLine
 62
250
  6
CONTINUOUS
 10
-81.0007503033
 20
42.8105542133
 11
-81.0000139766
 21
42.5735557566
  0
LINE
  5
29D
100
AcDbEntity
  8
ASSI
100
AcDbLine
 62
250
  6
CONTINUOUS
 10
-81.0005358991
 20
-42.7677638449
 11
-81.0000270347
 21
42.5732713047
  0
LINE
  5
29E
100
AcDbEntity
  8
ASSI
100
AcDbLine
 62
250
  6
CONTINUOUS
 10
-81.0010911052
 20
-42.8608547989
 11
-81.0005358991
 21
-42.7677638449
  0
LWPOLYLINE
  5
29F
100
AcDbEntity
  8
ASSI
100
AcDbPolyline
 62
250
  6
CONTINUOUS
 90
6
 70
0
 10
-81.0018629746
 20
-42.905601291
 10
-81.0017309885
 20
-42.9036118639
 10
-81.0015995616
 20
-42.8994003088
 10
-81.0014692815
 20
-42.8929853891
 10
-81.0013407314
 20
-42.8843957023
 10
-81.0010911052
 20
-42.8608547989
  0
LINE
  5
2A0
100
AcDbEntity
  8
ASSI
100
AcDbLine
 62
250
  6
CONTINUOUS
 10
-149.4092540701
 20
-42.1095282101
 11
-149.45
 21
-42.15027414
  0
LINE
  5
2A1
100
AcDbEntity
  8
RACCORDO
100
AcDbLine
 62
250
  6
CONTINUOUS
 10
-129.3555791399
 20
-22.3574817908
 11
-129.2
 21
-22.201902651
  0
LINE
  5
2A2
100
AcDbEntity
  8
RACCORDO
100
AcDbLine
 62
250
  6
CONTINUOUS
 10
-84.1455147912
 20
22.8525825578
 11
-84.298097349
 21
22.7
  0
LINE
  5
2A3
100
AcDbEntity
  8
RACCORDO
100
AcDbLine
 62
250
  6
CONTINUOUS
 10
-128.8574585972
 20
-22.8555559462
 11
-128.701902651
 21
-22.7
  0
LINE
  5
2A4
100
AcDbEntity
  8
RACCORDO
100
AcDbLine
 62
250
  6
CONTINUOUS
 10
-83.6473167138
 20
22.3545859371
 11
-83.8
 21
22.201902651
  0
LINE
  5
2A5
100
AcDbEntity
  8
ASSI
100
AcDbLine
 62
250
  6
CONTINUOUS
 10
-148.6095280725
 20
-42.9092539325
 11
-148.65027414
 21
-42.95
  0
LINE
  5
2A6
100
AcDbEntity
  8
ASSI
100
AcDbLine
 62
250
  6
CONTINUOUS
 10
-149.4092537128
 20
42.1095278528
 11
-149.45
 21
42.15027414
  0
LINE
  5
2A7
100
AcDbEntity
  8
RACCORDO
100
AcDbLine
 62
250
  6
CONTINUOUS
 10
-129.3555791399
 20
22.3574817908
 11
-129.2
 21
22.201902651
  0
LINE
  5
2A8
100
AcDbEntity
  8
RACCORDO
100
AcDbLine
 62
250
  6
CONTINUOUS
 10
-84.1455147912
 20
-22.8525825578
 11
-84.298097349
 21
-22.7
  0
LINE
  5
2A9
100
AcDbEntity
  8
RACCORDO
100
AcDbLine
 62
250
  6
CONTINUOUS
 10
-128.8574585972
 20
22.8555559462
 11
-128.701902651
 21
22.7
  0
LINE
  5
2AA
100
AcDbEntity
  8
RACCORDO
100
AcDbLine
 62
250
  6
CONTINUOUS
 10
-83.6473167138
 20
-22.3545859371
 11
-83.8
 21
-22.201902651
  0
LINE
  5
2AB
100
AcDbEntity
  8
ASSI
100
AcDbLine
 62
250
  6
CONTINUOUS
 10
-148.6095273369
 20
42.9092531969
 11
-148.65027414
 21
42.95
  0
LWPOLYLINE
  5
2AC
100
AcDbEntity
  8
ASSI
100
AcDbPolyline
 62
250
  6
CONTINUOUS
 90
4
 70
0
 10
-60.998138849
 20
-42.9056389905
 10
-60.9982732163
 20
-42.9036499374
 10
-60.9984069536
 20
-42.8994393929
 10
-60.9985394654
 20
-42.893026179
  0
LINE
  5
2AD
100
AcDbEntity
  8
ASSI
100
AcDbLine
 62
250
  6
CONTINUOUS
 10
-60.9985394654
 20
-42.893026179
 11
-60.9987984604
 21
-42.8737160434
  0
LINE
  5
2AE
100
AcDbEntity
  8
ASSI
100
AcDbLine
 62
250
  6
CONTINUOUS
 10
-60.9987984604
 20
-42.8737160434
 11
-60.9992764281
 21
-42.8105633282
  0
LINE
  5
2AF
100
AcDbEntity
  8
ASSI
100
AcDbLine
 62
250
  6
CONTINUOUS
 10
-60.9992764281
 20
-42.8105633282
 11
-61.00001266
 21
-42.5735784762
  0
LINE
  5
2B0
100
AcDbEntity
  8
ASSI
100
AcDbLine
 62
250
  6
CONTINUOUS
 10
-60.999468392
 20
42.7677610851
 11
-60.9999999323
 21
-42.5735785205
  0
LINE
  5
2B1
100
AcDbEntity
  8
ASSI
100
AcDbLine
 62
250
  6
CONTINUOUS
 10
-60.998913152
 20
42.8608538532
 11
-60.999468392
 21
42.7677610851
  0
LWPOLYLINE
  5
2B2
100
AcDbEntity
  8
ASSI
100
AcDbPolyline
 62
250
  6
CONTINUOUS
 90
6
 70
0
 10
-60.998141244
 20
42.9056014638
 10
-60.998273236
 20
42.9036119885
 10
-60.9984046691
 20
42.8994003211
 10
-60.9985349556
 20
42.8929852312
 10
-60.9986635123
 20
42.8843953233
 10
-60.998913152
 20
42.8608538532
  0
LWPOLYLINE
  5
2B3
100
AcDbEntity
  8
RACCORDO
100
AcDbPolyline
 62
250
  6
CONTINUOUS
 90
11
 70
0
 10
-57.8620057135
 20
22.9727554149
 10
-57.8614158568
 20
22.9530423389
 10
-57.8607764801
 20
22.934746846
 10
-57.8600921519
 20
22.9179996594
 10
-57.8593677619
 20
22.90292044
 10
-57.8586084859
 20
22.8896169303
 10
-57.857819749
 20
22.8781841853
 10
-57.8570071869
 20
22.8687038933
 10
-57.8561766053
 20
22.8612437919
 10
-57.8553339389
 20
22.8558571842
 10
-57.8544852088
 20
22.8525825578
  0
LINE
  5
2B4
100
AcDbEntity
  8
RACCORDO
100
AcDbLine
 62
250
  6
CONTINUOUS
 10
-57.8630203929
 20
23.0158617842
 11
-57.8620057135
 21
22.9727554149
  0
LINE
  5
2B5
100
AcDbEntity
  8
RACCORDO
100
AcDbLine
 62
250
  6
CONTINUOUS
 10
-57.8637915698
 20
23.0628361537
 11
-57.8630203929
 21
23.0158617842
  0
LINE
  5
2B6
100
AcDbEntity
  8
RACCORDO
100
AcDbLine
 62
250
  6
CONTINUOUS
 10
-57.8642972431
 20
23.1123383703
 11
-57.8637915698
 21
23.0628361537
  0
LINE
  5
2B7
100
AcDbEntity
  8
RACCORDO
100
AcDbLine
 62
250
  6
CONTINUOUS
 10
-57.8645229862
 20
23.1629561633
 11
-57.8642972431
 21
23.1123383703
  0
LINE
  5
2B8
100
AcDbEntity
  8
RACCORDO
100
AcDbLine
 62
250
  6
CONTINUOUS
 10
-58.662572051
 20
-22.3649778288
 11
-58.6810360902
 21
-15.9016130786
  0
LINE
  5
2B9
100
AcDbEntity
  8
RACCORDO
100
AcDbLine
 62
250
  6
CONTINUOUS
 10
-58.3526832862
 20
-22.3545859371
 11
-58.3630747378
 21
-18.1563213004
  0
LINE
  5
2BA
100
AcDbEntity
  8
RACCORDO
100
AcDbLine
 62
250
  6
CONTINUOUS
 10
-58.6810360902
 20
-15.9016130786
 11
-58.6922997433
 21
-10.8691928479
  0
LINE
  5
2BB
100
AcDbEntity
  8
RACCORDO
100
AcDbLine
 62
250
  6
CONTINUOUS
 10
-58.3630747378
 20
-18.1563213004
 11
-58.3728634705
 21
-12.5436546559
  0
LINE
  5
2BC
100
AcDbEntity
  8
RACCORDO
100
AcDbLine
 62
250
  6
CONTINUOUS
 10
-58.6922997433
 20
-10.8691928479
 11
-58.6988117165
 21
-6.3898016534
  0
LINE
  5
2BD
100
AcDbEntity
  8
RACCORDO
100
AcDbLine
 62
250
  6
CONTINUOUS
 10
-58.3728634705
 20
-12.5436546559
 11
-58.3792082013
 21
-6.9469732361
  0
LINE
  5
2BE
100
AcDbEntity
  8
RACCORDO
100
AcDbLine
 62
250
  6
CONTINUOUS
 10
-58.6988117165
 20
-6.3898016534
 11
-58.7018282203
 21
-1.9119735476
  0
LINE
  5
2BF
100
AcDbEntity
  8
RACCORDO
100
AcDbLine
 62
250
  6
CONTINUOUS
 10
-58.3792082013
 20
-6.9469732361
 11
-58.3817625291
 21
-1.3520615241
  0
LINE
  5
2C0
100
AcDbEntity
  8
RACCORDO
100
AcDbLine
 62
7
  6
CONTINUOUS
 10
-58.2
 20
22.201902651
 11
-58.2
 21
-22.201902651
  0
LINE
  5
2C1
100
AcDbEntity
  8
RACCORDO
100
AcDbLine
 62
250
  6
CONTINUOUS
 10
-58.7018282203
 20
-1.9119735476
 11
-58.7010399125
 21
3.6837529197
  0
LINE
  5
2C2
100
AcDbEntity
  8
RACCORDO
100
AcDbLine
 62
250
  6
CONTINUOUS
 10
-58.3817625291
 20
-1.3520615241
 11
-58.3803155493
 21
5.3614354793
  0
LINE
  5
2C3
100
AcDbEntity
  8
RACCORDO
100
AcDbLine
 62
250
  6
CONTINUOUS
 10
-58.3803155493
 20
5.3614354793
 11
-58.3750313214
 21
10.958208201
  0
LINE
  5
2C4
100
AcDbEntity
  8
RACCORDO
100
AcDbLine
 62
250
  6
CONTINUOUS
 10
-58.7010399125
 20
3.6837529197
 11
-58.69586106
 21
8.7230884696
  0
LINE
  5
2C5
100
AcDbEntity
  8
RACCORDO
100
AcDbLine
 62
250
  6
CONTINUOUS
 10
-58.3750313214
 20
10.958208201
 11
-58.3639118854
 21
17.7430962346
  0
LINE
  5
2C6
100
AcDbEntity
  8
RACCORDO
100
AcDbLine
 62
250
  6
CONTINUOUS
 10
-58.69586106
 20
8.7230884696
 11
-58.6862746032
 21
13.7557938409
  0
LINE
  5
2C7
100
AcDbEntity
  8
RACCORDO
100
AcDbLine
 62
250
  6
CONTINUOUS
 10
-58.6862746032
 20
13.7557938409
 11
-58.6669452597
 21
20.944947577
  0
LINE
  5
2C8
100
AcDbEntity
  8
RACCORDO
100
AcDbLine
 62
250
  6
CONTINUOUS
 10
-58.3639118854
 20
17.7430962346
 11
-58.3526832862
 21
22.3545859371
  0
LINE
  5
2C9
100
AcDbEntity
  8
RACCORDO
100
AcDbLine
 62
250
  6
CONTINUOUS
 10
-58.6669452597
 20
20.944947577
 11
-58.662572051
 21
22.3649778288
  0
LINE
  5
2CA
100
AcDbEntity
  8
RACCORDO
100
AcDbLine
 62
250
  6
CONTINUOUS
 10
-57.8645229862
 20
-23.1629561633
 11
-57.8642972582
 21
-23.1123382971
  0
LINE
  5
2CB
100
AcDbEntity
  8
RACCORDO
100
AcDbLine
 62
250
  6
CONTINUOUS
 10
-57.8642972582
 20
-23.1123382971
 11
-57.8637915959
 21
-23.0628360344
  0
LINE
  5
2CC
100
AcDbEntity
  8
RACCORDO
100
AcDbLine
 62
250
  6
CONTINUOUS
 10
-57.8637915959
 20
-23.0628360344
 11
-57.8630204261
 21
-23.0158616472
  0
LWPOLYLINE
  5
2CD
100
AcDbEntity
  8
RACCORDO
100
AcDbPolyline
 62
250
  6
CONTINUOUS
 90
12
 70
0
 10
-57.8630204261
 20
-23.0158616472
 10
-57.86200575
 20
-22.9727552847
 10
-57.8614158935
 20
-22.9530422192
 10
-57.8607765162
 20
-22.9347467402
 10
-57.8600921865
 20
-22.9179995701
 10
-57.8593677941
 20
-22.902920368
 10
-57.8586085148
 20
-22.8896168757
 10
-57.8578197737
 20
-22.8781841472
 10
-57.8570072066
 20
-22.8687038695
 10
-57.8561766193
 20
-22.8612437795
 10
-57.8553339464
 20
-22.8558571798
 10
-57.8544852088
 20
-22.8525825578
  0
LWPOLYLINE
  5
2CE
100
AcDbEntity
  8
RACCORDO
100
AcDbPolyline
 62
250
  6
CONTINUOUS
 90
28
 70
0
 10
-58.3526832862
 20
22.3545859371
 10
-58.3518857418
 20
22.3827304226
 10
-58.3494936686
 20
22.4109035307
 10
-58.3454933002
 20
22.4390144181
 10
-58.3398696287
 20
22.4670017358
 10
-58.3326225851
 20
22.4947387608
 10
-58.3237845814
 20
22.5220382361
 10
-58.3133818851
 20
22.5488015083
 10
-58.3014414386
 20
22.5749464557
 10
-58.2880312734
 20
22.6003214324
 10
-58.2732191761
 20
22.6248172463
 10
-58.2570441965
 20
22.6483875828
 10
-58.2395445239
 20
22.6709820634
 10
-58.22077194
 20
22.6925337472
 10
-58.2007937114
 20
22.7129658338
 10
-58.1796725255
 20
22.7322148648
 10
-58.1575385301
 20
22.7501712342
 10
-58.1344080385
 20
22.7668298339
 10
-58.1101542973
 20
22.782257057
 10
-58.0847672748
 20
22.7964035366
 10
-58.0583764238
 20
22.8091425115
 10
-58.0310506243
 20
22.8203944158
 10
-58.0027914469
 20
22.830104287
 10
-57.9737591975
 20
22.8381646474
 10
-57.9442820127
 20
22.8444629977
 10
-57.9145449489
 20
22.8489665125
 10
-57.8845769693
 20
22.8516765978
 10
-57.8544852088
 20
22.8525825578
  0
LWPOLYLINE
  5
2CF
100
AcDbEntity
  8
RACCORDO
100
AcDbPolyline
 62
250
  6
CONTINUOUS
 90
28
 70
0
 10
-58.662572051
 20
22.3649778288
 10
-58.6611914106
 20
22.4101857573
 10
-58.6572339225
 20
22.4551527083
 10
-58.6506995866
 20
22.4998786819
 10
-58.6415597269
 20
22.544560967
 10
-58.6298430195
 20
22.5890022746
 10
-58.6156354932
 20
22.6326107377
 10
-58.598887634
 20
22.6753599594
 10
-58.5796489559
 20
22.7172763366
 10
-58.5581540289
 20
22.7578471932
 10
-58.5344008176
 20
22.7970088442
 10
-58.5083913573
 20
22.8348249747
 10
-58.4803663244
 20
22.8709739631
 10
-58.4503025841
 20
22.9054533592
 10
-58.4182232713
 20
22.9382656133
 10
-58.384438467
 20
22.969096455
 10
-58.3490476217
 20
22.9978835185
 10
-58.3119512849
 20
23.0246891697
 10
-58.2731611862
 20
23.0493862352
 10
-58.2325670495
 20
23.0720608234
 10
-58.1902791507
 20
23.092626826
 10
-58.1466400483
 20
23.1106987445
 10
-58.1014895683
 20
23.1262602027
 10
-58.0549878846
 20
23.1393275766
 10
-58.0079580765
 20
23.1495644967
 10
-57.960674504
 20
23.1568588395
 10
-57.9128628072
 20
23.1613227284
 10
-57.8645229862
 20
23.1629561633
  0
LWPOLYLINE
  5
2D0
100
AcDbEntity
  8
ASSI
100
AcDbPolyline
 62
250
  6
CONTINUOUS
 90
28
 70
0
 10
148.6310545051
 20
-42.4460851698
 10
148.6489186522
 20
-42.4448640097
 10
148.6666091747
 20
-42.442642637
 10
148.6841258916
 20
-42.4394208439
 10
148.7015141078
 20
-42.4351813656
 10
148.7187281484
 20
-42.4299410446
 10
148.7356313858
 20
-42.4237508557
 10
148.7522333925
 20
-42.4165989248
 10
148.7685242858
 20
-42.4084967632
 10
148.7843383242
 20
-42.3995304903
 10
148.7996695894
 20
-42.3896920543
 10
148.8145238033
 20
-42.3789892605
 10
148.8287527803
 20
-42.3675321073
 10
148.8423501919
 20
-42.355314186
 10
148.8553223132
 20
-42.3423418047
 10
148.8675399696
 20
-42.3287441417
 10
148.8789968321
 20
-42.3145149727
 10
148.8896993303
 20
-42.2996605752
 10
148.8995375338
 20
-42.2843289866
 10
148.9085036848
 20
-42.2685144268
 10
148.9166057874
 20
-42.2522228717
 10
148.9237576484
 20
-42.2356200882
 10
148.9299506989
 20
-42.2186924108
 10
148.9351938688
 20
-42.2014538124
 10
148.9394272871
 20
-42.1841115957
 10
148.9426311526
 20
-42.1667350024
 10
148.9448257003
 20
-42.1492551759
 10
148.9460111406
 20
-42.1316723018
  0
LINE
  5
2D1
100
AcDbEntity
  8
ASSI
100
AcDbLine
 62
250
  6
CONTINUOUS
 10
148.6310545051
 20
-42.4460851698
 11
147.9371428454
 21
-42.470054505
  0
LWPOLYLINE
  5
2D2
100
AcDbEntity
  8
ASSI
100
AcDbPolyline
 62
250
  6
CONTINUOUS
 90
28
 70
0
 10
148.6095275003
 20
-42.9092533602
 10
148.6560370903
 20
-42.9079005093
 10
148.7023906349
 20
-42.9038458724
 10
148.748431448
 20
-42.8971026312
 10
148.7940052787
 20
-42.8876926744
 10
148.8389564534
 20
-42.8756475052
 10
148.8831286273
 20
-42.8610089938
 10
148.9263733239
 20
-42.843826527
 10
148.9685435043
 20
-42.8241586955
 10
149.0094904306
 20
-42.8020759469
 10
149.0490734045
 20
-42.7776562138
 10
149.0871625946
 20
-42.7509816753
 10
149.1236328132
 20
-42.7221415305
 10
149.1583599071
 20
-42.6912353288
 10
149.1912288363
 20
-42.6583668031
 10
149.2221354405
 20
-42.6236401169
 10
149.2509759089
 20
-42.587170422
 10
149.2776507906
 20
-42.5490817736
 10
149.3020710954
 20
-42.509499006
 10
149.3241546672
 20
-42.4685517569
 10
149.3438234129
 20
-42.4263808484
 10
149.3610067758
 20
-42.3831351203
 10
149.3756461693
 20
-42.3389614406
 10
149.3876920908
 20
-42.2940084487
 10
149.3971025098
 20
-42.2484331393
 10
149.4038459636
 20
-42.2023914314
 10
149.4079006826
 20
-42.1560373841
 10
149.409253555
 20
-42.109527695
  0
LINE
  5
2D3
100
AcDbEntity
  8
ASSI
100
AcDbLine
 62
250
  6
CONTINUOUS
 10
149.2055378471
 20
-42.1268725698
 11
149.146365066
 21
-42.128582597
  0
LINE
  5
2D4
100
AcDbEntity
  8
ASSI
100
AcDbLine
 62
250
  6
CONTINUOUS
 10
147.9371428454
 20
-42.470054505
 11
147.186360897
 21
-42.4906050985
  0
LINE
  5
2D5
100
AcDbEntity
  8
ASSI
100
AcDbLine
 62
250
  6
CONTINUOUS
 10
147.186360897
 20
-42.4906050985
 11
146.3751408908
 21
-42.5076708718
  0
LINE
  5
2D6
100
AcDbEntity
  8
ASSI
100
AcDbLine
 62
250
  6
CONTINUOUS
 10
149.146365066
 20
-42.128582597
 11
149.0825474716
 21
-42.1299190846
  0
LINE
  5
2D7
100
AcDbEntity
  8
ASSI
100
AcDbLine
 62
250
  6
CONTINUOUS
 10
146.3751408908
 20
-42.5076708718
 11
145.4857484776
 21
-42.5209918445
  0
LINE
  5
2D8
100
AcDbEntity
  8
ASSI
100
AcDbLine
 62
250
  6
CONTINUOUS
 10
149.0825474716
 20
-42.1299190846
 11
149.0153361009
 21
-42.130855833
  0
LINE
  5
2D9
100
AcDbEntity
  8
ASSI
100
AcDbLine
 62
250
  6
CONTINUOUS
 10
145.4857484776
 20
-42.5209918445
 11
144.5358934901
 21
-42.5307638104
  0
LINE
  5
2DA
100
AcDbEntity
  8
ASSI
100
AcDbLine
 62
250
  6
CONTINUOUS
 10
149.0153361009
 20
-42.130855833
 11
148.9460485204
 21
-42.1313744788
  0
LINE
  5
2DB
100
AcDbEntity
  8
ASSI
100
AcDbLine
 62
250
  6
CONTINUOUS
 10
144.5358934901
 20
-42.5307638104
 11
143.0549336949
 21
-42.5399036718
  0
LINE
  5
2DC
100
AcDbEntity
  8
ASSI
100
AcDbLine
 62
250
  6
CONTINUOUS
 10
64.551762003
 20
-42.5588030653
 11
61.7225140226
 21
-42.5707212835
  0
LINE
  5
2DD
100
AcDbEntity
  8
ASSI
100
AcDbLine
 62
250
  6
CONTINUOUS
 10
65.1300443496
 20
-42.5564897488
 11
64.551762003
 21
-42.5588030653
  0
LINE
  5
2DE
100
AcDbEntity
  8
ASSI
100
AcDbLine
 62
250
  6
CONTINUOUS
 10
-77.4529144055
 20
-42.5588222612
 11
-81.0000018714
 21
-42.573578527
  0
LINE
  5
2DF
100
AcDbEntity
  8
ASSI
100
AcDbLine
 62
250
  6
CONTINUOUS
 10
61.7225140226
 20
-42.5707212835
 11
58.7133134977
 21
-42.5798074382
  0
LINE
  5
2E0
100
AcDbEntity
  8
ASSI
100
AcDbLine
 62
250
  6
CONTINUOUS
 10
-81.0000021463
 20
-42.5732689845
 11
-83.6455694558
 21
-42.581263374
  0
LINE
  5
2E1
100
AcDbEntity
  8
ASSI
100
AcDbLine
 62
250
  6
CONTINUOUS
 10
143.0549336949
 20
-42.5399036718
 11
141.1600389378
 21
-42.5463819245
  0
LWPOLYLINE
  5
2E2
100
AcDbEntity
  8
ASSI
100
AcDbPolyline
 62
250
  6
CONTINUOUS
 90
3
 70
0
 10
-10.0000001423
 20
-42.5732690054
 10
-14.5915128839
 20
-42.5849448332
 10
-16.9234186957
 20
-42.5886869706
  0
LWPOLYLINE
  5
2E3
100
AcDbEntity
  8
ASSI
100
AcDbPolyline
 62
250
  6
CONTINUOUS
 90
3
 70
0
 10
141.1600389378
 20
-42.5463819245
 10
138.9196221576
 20
-42.5509474861
 10
128.1955249682
 20
-42.5841924731
  0
LINE
  5
2E4
100
AcDbEntity
  8
ASSI
100
AcDbLine
 62
250
  6
CONTINUOUS
 10
-83.6455694558
 20
-42.581263374
 11
-86.1955305867
 21
-42.5865449372
  0
LINE
  5
2E5
100
AcDbEntity
  8
ASSI
100
AcDbLine
 62
250
  6
CONTINUOUS
 10
58.7133134977
 20
-42.5798074382
 11
54.0732027221
 21
-42.5886904903
  0
LINE
  5
2E6
100
AcDbEntity
  8
ASSI
100
AcDbLine
 62
250
  6
CONTINUOUS
 10
128.1955249682
 20
-42.5841924731
 11
125.867012056
 21
-42.5879490426
  0
LINE
  5
2E7
100
AcDbEntity
  8
ASSI
100
AcDbLine
 62
250
  6
CONTINUOUS
 10
125.867012056
 20
-42.5879490426
 11
123.8079755777
 21
-42.5899694774
  0
LINE
  5
2E8
100
AcDbEntity
  8
ASSI
100
AcDbLine
 62
250
  6
CONTINUOUS
 10
-86.1955305867
 20
-42.5865449372
 11
-89.9642877716
 21
-42.5903631228
  0
LINE
  5
2E9
100
AcDbEntity
  8
ASSI
100
AcDbLine
 62
250
  6
CONTINUOUS
 10
123.8079755777
 20
-42.5899694774
 11
122.0948536085
 21
-42.5909339617
  0
LINE
  5
2EA
100
AcDbEntity
  8
ASSI
100
AcDbLine
 62
250
  6
CONTINUOUS
 10
122.0948536085
 20
-42.5909339617
 11
120.8654511802
 21
-42.5913146695
  0
LWPOLYLINE
  5
2EB
100
AcDbEntity
  8
ASSI
100
AcDbPolyline
 62
250
  6
CONTINUOUS
 90
3
 70
0
 10
54.0732027221
 20
-42.5886904903
 10
49.3761049243
 20
-42.591330865
 10
46.9461914201
 20
-42.5915305343
  0
LINE
  5
2EC
100
AcDbEntity
  8
ASSI
100
AcDbLine
 62
250
  6
CONTINUOUS
 10
-16.9234186957
 20
-42.5886869706
 11
-21.6288617753
 21
-42.5913296561
  0
LINE
  5
2ED
100
AcDbEntity
  8
ASSI
100
AcDbLine
 62
7
  6
CONTINUOUS
 10
-148.65027414
 20
-42.95
 11
148.65027414
 21
-42.95
  0
LINE
  5
2EE
100
AcDbEntity
  8
ASSI
100
AcDbLine
 62
250
  6
CONTINUOUS
 10
28.8025742292
 20
-42.9051158888
 11
-0.5642251406
 21
-42.9074330032
  0
LINE
  5
2EF
100
AcDbEntity
  8
ASSI
100
AcDbLine
 62
250
  6
CONTINUOUS
 10
97.1707548626
 20
-42.9051065778
 11
71.110487656
 21
-42.9074476819
  0
LINE
  5
2F0
100
AcDbEntity
  8
ASSI
100
AcDbLine
 62
250
  6
CONTINUOUS
 10
-61.3234516027
 20
-42.9056398321
 11
-71.564229594
 21
-42.9074330023
  0
LINE
  5
2F1
100
AcDbEntity
  8
ASSI
100
AcDbLine
 62
250
  6
CONTINUOUS
 10
-142.9382568678
 20
-42.906625049
 11
-148.6095280725
 21
-42.9092539325
  0
LWPOLYLINE
  5
2F2
100
AcDbEntity
  8
ASSI
100
AcDbPolyline
 62
250
  6
CONTINUOUS
 90
3
 70
0
 10
120.8654511802
 20
-42.5913146695
 10
119.5679228599
 20
-42.5914949013
 10
118.8935110364
 20
-42.5915260592
  0
LINE
  5
2F3
100
AcDbEntity
  8
ASSI
100
AcDbLine
 62
250
  6
CONTINUOUS
 10
-89.9642877716
 20
-42.5903631228
 11
-96.8207767316
 21
-42.5914041823
  0
LINE
  5
2F4
100
AcDbEntity
  8
ASSI
100
AcDbLine
 62
250
  6
CONTINUOUS
 10
46.9461914201
 20
-42.5915305343
 11
24.0314689522
 21
-42.591531092
  0
LINE
  5
2F5
100
AcDbEntity
  8
ASSI
100
AcDbLine
 62
250
  6
CONTINUOUS
 10
-71.564229594
 20
-42.9074330023
 11
-142.9382568678
 21
-42.906625049
  0
LINE
  5
2F6
100
AcDbEntity
  8
ASSI
100
AcDbLine
 62
250
  6
CONTINUOUS
 10
-0.5642251406
 20
-42.9074330032
 11
-61.3234516027
 21
-42.9056398321
  0
LINE
  5
2F7
100
AcDbEntity
  8
ASSI
100
AcDbLine
 62
250
  6
CONTINUOUS
 10
71.110487656
 20
-42.9074476819
 11
28.8025742292
 21
-42.9051158888
  0
LWPOLYLINE
  5
2F8
100
AcDbEntity
  8
ASSI
100
AcDbPolyline
 62
250
  6
CONTINUOUS
 90
3
 70
0
 10
145.4796060206
 20
-42.9071390292
 10
145.013991363
 20
-42.906997046
 10
97.1707548626
 20
-42.9051065778
  0
LINE
  5
2F9
100
AcDbEntity
  8
ASSI
100
AcDbLine
 62
250
  6
CONTINUOUS
 10
-96.8207767316
 20
-42.5914041823
 11
-121.6646274401
 21
-42.5910934787
  0
LWPOLYLINE
  5
2FA
100
AcDbEntity
  8
ASSI
100
AcDbPolyline
 62
250
  6
CONTINUOUS
 90
3
 70
0
 10
24.0314689522
 20
-42.591531092
 10
19.3224245075
 20
-42.590754903
 10
16.9855203633
 20
-42.5887512048
  0
LINE
  5
2FB
100
AcDbEntity
  8
ASSI
100
AcDbLine
 62
250
  6
CONTINUOUS
 10
-70.5491114302
 20
-42.5440645136
 11
-77.4529144055
 21
-42.5588222612
  0
LINE
  5
2FC
100
AcDbEntity
  8
ASSI
100
AcDbLine
 62
250
  6
CONTINUOUS
 10
146.3660521628
 20
-42.9074965978
 11
145.4796060206
 21
-42.9071390292
  0
LINE
  5
2FD
100
AcDbEntity
  8
ASSI
100
AcDbLine
 62
250
  6
CONTINUOUS
 10
0.7940890865
 20
-42.5442356383
 11
-9.9999998594
 21
-42.5735785195
  0
LINE
  5
2FE
100
AcDbEntity
  8
ASSI
100
AcDbLine
 62
250
  6
CONTINUOUS
 10
71.7947275038
 20
-42.5442360516
 11
65.1300443496
 21
-42.5564897488
  0
LINE
  5
2FF
100
AcDbEntity
  8
ASSI
100
AcDbLine
 62
250
  6
CONTINUOUS
 10
147.1736387604
 20
-42.9079642928
 11
146.3660521628
 21
-42.9074965978
  0
LINE
  5
300
100
AcDbEntity
  8
ASSI
100
AcDbLine
 62
250
  6
CONTINUOUS
 10
118.8935110364
 20
-42.5915260592
 11
88.9854008843
 21
-42.5896608136
  0
LINE
  5
301
100
AcDbEntity
  8
ASSI
100
AcDbLine
 62
250
  6
CONTINUOUS
 10
-21.6288617753
 20
-42.5913296561
 11
-54.0002407163
 21
-42.588765796
  0
LWPOLYLINE
  5
302
100
AcDbEntity
  8
ASSI
100
AcDbPolyline
 62
250
  6
CONTINUOUS
 90
3
 70
0
 10
148.6095273419
 20
-42.9092532019
 10
148.2722084183
 20
-42.9088862832
 10
147.1736387604
 20
-42.9079642928
  0
LINE
  5
303
100
AcDbEntity
  8
ASSI
100
AcDbLine
 62
250
  6
CONTINUOUS
 10
-121.6646274401
 20
-42.5910934787
 11
-125.528718189
 21
-42.5883557887
  0
LINE
  5
304
100
AcDbEntity
  8
ASSI
100
AcDbLine
 62
250
  6
CONTINUOUS
 10
88.9854008843
 20
-42.5896608136
 11
85.9247711748
 21
-42.5860488413
  0
LINE
  5
305
100
AcDbEntity
  8
ASSI
100
AcDbLine
 62
250
  6
CONTINUOUS
 10
-125.528718189
 20
-42.5883557887
 11
-128.7124952371
 21
-42.5830974178
  0
LINE
  5
306
100
AcDbEntity
  8
ASSI
100
AcDbLine
 62
250
  6
CONTINUOUS
 10
-54.0002407163
 20
-42.588765796
 11
-58.669859402
 21
-42.5798492014
  0
LINE
  5
307
100
AcDbEntity
  8
ASSI
100
AcDbLine
 62
250
  6
CONTINUOUS
 10
16.9855203633
 20
-42.5887512048
 11
12.321792732
 21
-42.5798411059
  0
LINE
  5
308
100
AcDbEntity
  8
ASSI
100
AcDbLine
 62
250
  6
CONTINUOUS
 10
85.9247711748
 20
-42.5860488413
 11
82.6858785755
 21
-42.5784425085
  0
LINE
  5
309
100
AcDbEntity
  8
ASSI
100
AcDbLine
 62
250
  6
CONTINUOUS
 10
-137.3588710666
 20
-42.5542468626
 11
-141.8017782882
 21
-42.5446192254
  0
LINE
  5
30A
100
AcDbEntity
  8
ASSI
100
AcDbLine
 62
250
  6
CONTINUOUS
 10
-128.7124952371
 20
-42.5830974178
 11
-131.439269018
 21
-42.5754607317
  0
LINE
  5
30B
100
AcDbEntity
  8
ASSI
100
AcDbLine
 62
250
  6
CONTINUOUS
 10
-65.7504250331
 20
-42.5541542094
 11
-70.5491114302
 21
-42.5440645136
  0
LINE
  5
30C
100
AcDbEntity
  8
ASSI
100
AcDbLine
 62
250
  6
CONTINUOUS
 10
76.2533344856
 20
-42.5541678978
 11
71.7947275038
 21
-42.5442360516
  0
LINE
  5
30D
100
AcDbEntity
  8
ASSI
100
AcDbLine
 62
250
  6
CONTINUOUS
 10
-131.439269018
 20
-42.5754607317
 11
-137.3588710666
 21
-42.5542468626
  0
LINE
  5
30E
100
AcDbEntity
  8
ASSI
100
AcDbLine
 62
250
  6
CONTINUOUS
 10
77.1120080256
 20
-42.5574448241
 11
76.2533344856
 21
-42.5541678978
  0
LINE
  5
30F
100
AcDbEntity
  8
ASSI
100
AcDbLine
 62
250
  6
CONTINUOUS
 10
-58.669859402
 20
-42.5798492014
 11
-62.5665020546
 21
-42.5671990997
  0
LINE
  5
310
100
AcDbEntity
  8
ASSI
100
AcDbLine
 62
250
  6
CONTINUOUS
 10
12.321792732
 20
-42.5798411059
 11
8.4334997993
 21
-42.5671991075
  0
LINE
  5
311
100
AcDbEntity
  8
ASSI
100
AcDbLine
 62
250
  6
CONTINUOUS
 10
82.6858785755
 20
-42.5784425085
 11
80.0426548714
 21
-42.5697516153
  0
LINE
  5
312
100
AcDbEntity
  8
ASSI
100
AcDbLine
 62
250
  6
CONTINUOUS
 10
77.6849666607
 20
-42.5597789044
 11
77.1120080256
 21
-42.5574448241
  0
LINE
  5
313
100
AcDbEntity
  8
ASSI
100
AcDbLine
 62
250
  6
CONTINUOUS
 10
-62.5665020546
 20
-42.5671990997
 11
-65.7504250331
 21
-42.5541542094
  0
LWPOLYLINE
  5
314
100
AcDbEntity
  8
ASSI
100
AcDbPolyline
 62
250
  6
CONTINUOUS
 90
3
 70
0
 10
8.4334997993
 20
-42.5671991075
 10
7.8404340887
 20
-42.5646716743
 10
0.7940890865
 20
-42.5442356383
  0
LINE
  5
315
100
AcDbEntity
  8
ASSI
100
AcDbLine
 62
250
  6
CONTINUOUS
 10
80.0426548714
 20
-42.5697516153
 11
77.6849666607
 21
-42.5597789044
  0
LINE
  5
316
100
AcDbEntity
  8
ASSI
100
AcDbLine
 62
250
  6
CONTINUOUS
 10
-141.8017782882
 20
-42.5446192254
 11
-143.5246346703
 21
-42.5376395497
  0
LINE
  5
317
100
AcDbEntity
  8
ASSI
100
AcDbLine
 62
250
  6
CONTINUOUS
 10
-143.5246346703
 20
-42.5376395497
 11
-144.6686978402
 21
-42.5294805733
  0
LINE
  5
318
100
AcDbEntity
  8
ASSI
100
AcDbLine
 62
250
  6
CONTINUOUS
 10
-148.9460484078
 20
-42.1313746376
 11
-149.0153365744
 21
-42.1308559853
  0
LINE
  5
319
100
AcDbEntity
  8
ASSI
100
AcDbLine
 62
250
  6
CONTINUOUS
 10
-144.6686978402
 20
-42.5294805733
 11
-145.7706328327
 21
-42.5173089898
  0
LINE
  5
31A
100
AcDbEntity
  8
ASSI
100
AcDbLine
 62
250
  6
CONTINUOUS
 10
-149.0153365744
 20
-42.1308559853
 11
-149.0825483141
 21
-42.1299192265
  0
LWPOLYLINE
  5
31B
100
AcDbEntity
  8
ASSI
100
AcDbPolyline
 62
250
  6
CONTINUOUS
 90
6
 70
0
 10
-145.7706328327
 20
-42.5173089898
 10
-146.7949269724
 20
-42.4994243032
 10
-147.2805646784
 20
-42.48832101
 10
-147.748564463
 20
-42.4756983524
 10
-148.198883156
 20
-42.461600107
 10
-148.6315072538
 20
-42.4460283356
  0
LINE
  5
31C
100
AcDbEntity
  8
ASSI
100
AcDbLine
 62
250
  6
CONTINUOUS
 10
-149.0825483141
 20
-42.1299192265
 11
-149.1463660953
 21
-42.1285827269
  0
LWPOLYLINE
  5
31D
100
AcDbEntity
  8
ASSI
100
AcDbPolyline
 62
250
  6
CONTINUOUS
 90
15
 70
0
 10
-149.1463660953
 20
-42.1285827269
 10
-149.2055390263
 20
-42.1268726844
 10
-149.2330169712
 20
-42.1258877917
 10
-149.2589070839
 20
-42.1248226225
 10
-149.283082324
 20
-42.1236824031
 10
-149.3054240661
 20
-42.122472729
 10
-149.3258226814
 20
-42.1211995357
 10
-149.344178076
 20
-42.1198690703
 10
-149.3604001815
 20
-42.1184878618
 10
-149.3744094451
 20
-42.1170626822
 10
-149.3861370603
 20
-42.1156005293
 10
-149.3955253897
 20
-42.114108595
 10
-149.4025284231
 20
-42.1125942066
 10
-149.4071119176
 20
-42.1110647892
 10
-149.4092534644
 20
-42.1095278472
  0
LWPOLYLINE
  5
31E
100
AcDbEntity
  8
0
100
AcDbPolyline
 62
7
  6
CONTINUOUS
 90
10
 70
0
 43
0.3500000006
 10
-0.7500000165
 20
51.7000018616
 10
0.1071428532
 20
52.5571443329
 10
0.3214285684
 20
53.4142868042
 10
0.3214285684
 20
54.2714292755
 10
-0.1071428532
 20
54.6999982452
 10
-0.7500000165
 20
54.6999982452
 10
-1.1785713937
 20
54.2714292755
 10
-1.1785713937
 20
53.4142868042
 10
-0.7500000165
 20
52.9857133026
 10
0.1785714249
 20
52.9857133026
  0
LWPOLYLINE
  5
31F
100
AcDbEntity
  8
0
100
AcDbPolyline
 62
7
  6
CONTINUOUS
 90
10
 70
0
 43
0.3500000006
 10
1.6071428418
 20
51.7000018616
 10
2.464285738
 20
52.5571443329
 10
2.6785713558
 20
53.4142868042
 10
2.6785713558
 20
54.2714292755
 10
2.2499999785
 20
54.6999982452
 10
1.6071428418
 20
54.6999982452
 10
1.1785713937
 20
54.2714292755
 10
1.1785713937
 20
53.4142868042
 10
1.6071428418
 20
52.9857133026
 10
2.5357143717
 20
52.9857133026
  0
LINE
  5
320
100
AcDbEntity
  8
RACCORDO
100
AcDbLine
 62
250
  6
CONTINUOUS
 10
-58.3526832862
 20
-22.3545859371
 11
-58.2
 21
-22.201902651
  0
LINE
  5
321
100
AcDbEntity
  8
RACCORDO
100
AcDbLine
 62
250
  6
CONTINUOUS
 10
-13.1455147912
 20
22.8525825578
 11
-13.298097349
 21
22.7
  0
LINE
  5
322
100
AcDbEntity
  8
RACCORDO
100
AcDbLine
 62
250
  6
CONTINUOUS
 10
-57.8544852088
 20
-22.8525825578
 11
-57.701902651
 21
-22.7
  0
LINE
  5
323
100
AcDbEntity
  8
RACCORDO
100
AcDbLine
 62
250
  6
CONTINUOUS
 10
-12.6473167138
 20
22.3545859371
 11
-12.8
 21
22.201902651
  0
LWPOLYLINE
  5
324
100
AcDbEntity
  8
RACCORDO
100
AcDbPolyline
 62
250
  6
CONTINUOUS
 90
11
 70
0
 10
83.5273605917
 20
-22.3623661828
 10
83.5470391381
 20
-22.361755577
 10
83.5653018061
 20
-22.3610938522
 10
83.5820183828
 20
-22.3603857266
 10
83.5970696795
 20
-22.3596362489
 10
83.6103483803
 20
-22.3588507631
 10
83.6217598084
 20
-22.3580348695
 10
83.6312226001
 20
-22.3571943856
 10
83.638669286
 20
-22.3563353038
 10
83.6440467711
 20
-22.3554637496
 10
83.6473167138
 20
-22.3545859371
  0
LWPOLYLINE
  5
325
100
AcDbEntity
  8
RACCORDO
100
AcDbPolyline
 62
250
  6
CONTINUOUS
 90
11
 70
0
 10
12.5273605917
 20
-22.3623661828
 10
12.5470391381
 20
-22.361755577
 10
12.5653018061
 20
-22.3610938522
 10
12.5820183828
 20
-22.3603857266
 10
12.5970696795
 20
-22.3596362489
 10
12.6103483803
 20
-22.3588507631
 10
12.6217598084
 20
-22.3580348695
 10
12.6312226001
 20
-22.3571943856
 10
12.638669286
 20
-22.3563353038
 10
12.6440467711
 20
-22.3554637496
 10
12.6473167138
 20
-22.3545859371
  0
LWPOLYLINE
  5
326
100
AcDbEntity
  8
RACCORDO
100
AcDbPolyline
 62
250
  6
CONTINUOUS
 90
11
 70
0
 10
-58.4726394083
 20
-22.3623661828
 10
-58.4529608619
 20
-22.361755577
 10
-58.4346981939
 20
-22.3610938522
 10
-58.4179816172
 20
-22.3603857266
 10
-58.4029303205
 20
-22.3596362489
 10
-58.3896516197
 20
-22.3588507631
 10
-58.3782401916
 20
-22.3580348695
 10
-58.3687773999
 20
-22.3571943856
 10
-58.361330714
 20
-22.3563353038
 10
-58.3559532289
 20
-22.3554637496
 10
-58.3526832862
 20
-22.3545859371
  0
LINE
  5
327
100
AcDbEntity
  8
RACCORDO
100
AcDbLine
 62
250
  6
CONTINUOUS
 10
83.4843261894
 20
-22.3634170186
 11
83.5273605917
 21
-22.3623661828
  0
LINE
  5
328
100
AcDbEntity
  8
RACCORDO
100
AcDbLine
 62
250
  6
CONTINUOUS
 10
12.4843261894
 20
-22.3634170186
 11
12.5273605917
 21
-22.3623661828
  0
LINE
  5
329
100
AcDbEntity
  8
RACCORDO
100
AcDbLine
 62
250
  6
CONTINUOUS
 10
-58.5156738106
 20
-22.3634170186
 11
-58.4726394083
 21
-22.3623661828
  0
LINE
  5
32A
100
AcDbEntity
  8
RACCORDO
100
AcDbLine
 62
250
  6
CONTINUOUS
 10
-129.5423949956
 20
-22.3665117529
 11
-129.4970922222
 21
-22.3656094752
  0
LINE
  5
32B
100
AcDbEntity
  8
RACCORDO
100
AcDbLine
 62
250
  6
CONTINUOUS
 10
83.4374237502
 20
-22.3642164432
 11
83.4843261894
 21
-22.3634170186
  0
LINE
  5
32C
100
AcDbEntity
  8
RACCORDO
100
AcDbLine
 62
250
  6
CONTINUOUS
 10
12.4374237502
 20
-22.3642164432
 11
12.4843261894
 21
-22.3634170186
  0
LINE
  5
32D
100
AcDbEntity
  8
RACCORDO
100
AcDbLine
 62
250
  6
CONTINUOUS
 10
-58.5625762498
 20
-22.3642164432
 11
-58.5156738106
 21
-22.3634170186
  0
LINE
  5
32E
100
AcDbEntity
  8
RACCORDO
100
AcDbLine
 62
250
  6
CONTINUOUS
 10
-129.5909037239
 20
-22.3671556577
 11
-129.5423949956
 21
-22.3665117529
  0
LINE
  5
32F
100
AcDbEntity
  8
RACCORDO
100
AcDbLine
 62
250
  6
CONTINUOUS
 10
83.3879885447
 20
-22.3647416977
 11
83.4374237502
 21
-22.3642164432
  0
LINE
  5
330
100
AcDbEntity
  8
RACCORDO
100
AcDbLine
 62
250
  6
CONTINUOUS
 10
12.3879885447
 20
-22.3647416977
 11
12.4374237502
 21
-22.3642164432
  0
LINE
  5
331
100
AcDbEntity
  8
RACCORDO
100
AcDbLine
 62
250
  6
CONTINUOUS
 10
-58.6120114553
 20
-22.3647416977
 11
-58.5625762498
 21
-22.3642164432
  0
LINE
  5
332
100
AcDbEntity
  8
RACCORDO
100
AcDbLine
 62
250
  6
CONTINUOUS
 10
83.337427949
 20
-22.3649778288
 11
83.3879885447
 21
-22.3647416977
  0
LINE
  5
333
100
AcDbEntity
  8
RACCORDO
100
AcDbLine
 62
250
  6
CONTINUOUS
 10
12.337427949
 20
-22.3649778288
 11
12.3879885447
 21
-22.3647416977
  0
LINE
  5
334
100
AcDbEntity
  8
RACCORDO
100
AcDbLine
 62
250
  6
CONTINUOUS
 10
-58.662572051
 20
-22.3649778288
 11
-58.6120114553
 21
-22.3647416977
  0
LWPOLYLINE
  5
335
100
AcDbEntity
  8
RACCORDO
100
AcDbPolyline
 62
250
  6
CONTINUOUS
 90
3
 70
0
 10
-129.6666263563
 20
-22.3675989178
 10
-129.6412303925
 20
-22.3675227648
 10
-129.5909037239
 20
-22.3671556577
  0
LINE
  5
336
100
AcDbEntity
  8
RACCORDO
100
AcDbLine
 62
250
  6
CONTINUOUS
 10
57.8645229862
 20
-23.1629561633
 11
50.7443664181
 21
-23.1829291897
  0
LINE
  5
337
100
AcDbEntity
  8
RACCORDO
100
AcDbLine
 62
250
  6
CONTINUOUS
 10
-13.1354770138
 20
-23.1629561633
 11
-20.8922572082
 21
-23.1844745872
  0
LINE
  5
338
100
AcDbEntity
  8
RACCORDO
100
AcDbLine
 62
250
  6
CONTINUOUS
 10
57.8544852088
 20
-22.8525825578
 11
55.8459589351
 21
-22.8579800611
  0
LINE
  5
339
100
AcDbEntity
  8
ASSI
100
AcDbLine
 62
250
  6
CONTINUOUS
 10
-1.9214723205
 20
-21.7254712917
 11
-8.5858387816
 21
-21.7466431191
  0
LINE
  5
33A
100
AcDbEntity
  8
ASSI
100
AcDbLine
 62
250
  6
CONTINUOUS
 10
-72.9215410827
 20
-21.7254714492
 11
-79.5859152494
 21
-21.7466432834
  0
LWPOLYLINE
  5
33B
100
AcDbEntity
  8
ASSI
100
AcDbPolyline
 62
250
  6
CONTINUOUS
 90
3
 70
0
 10
61.0
 20
-21.7499998815
 10
62.4353840195
 20
-21.7465823932
 10
66.5675586499
 20
-21.7324180998
  0
LINE
  5
33C
100
AcDbEntity
  8
ASSI
100
AcDbLine
 62
250
  6
CONTINUOUS
 10
66.5675586499
 20
-21.7324180998
 11
69.1846029232
 21
-21.7252694134
  0
LINE
  5
33D
100
AcDbEntity
  8
ASSI
100
AcDbLine
 62
250
  6
CONTINUOUS
 10
-8.5858387816
 20
-21.7466431191
 11
-10.0
 21
-21.7499998832
  0
LINE
  5
33E
100
AcDbEntity
  8
ASSI
100
AcDbLine
 62
250
  6
CONTINUOUS
 10
-79.5859152494
 20
-21.7466432834
 11
-81.0
 21
-21.7499998832
  0
LWPOLYLINE
  5
33F
100
AcDbEntity
  8
RACCORDO
100
AcDbPolyline
 62
250
  6
CONTINUOUS
 90
3
 70
0
 10
124.6842910424
 20
-23.1764932796
 10
119.698431749
 20
-23.187735054
 10
119.2471966096
 20
-23.1887008937
  0
LINE
  5
340
100
AcDbEntity
  8
RACCORDO
100
AcDbLine
 62
250
  6
CONTINUOUS
 10
128.8674761729
 20
-23.1667029151
 11
124.6842910424
 21
-23.1764932796
  0
LWPOLYLINE
  5
341
100
AcDbEntity
  8
RACCORDO
100
AcDbPolyline
 62
250
  6
CONTINUOUS
 90
3
 70
0
 10
119.2471966096
 20
-23.1887008937
 10
118.3446047302
 20
-23.1905633137
 10
117.8923430489
 20
-23.1914514068
  0
LINE
  5
342
100
AcDbEntity
  8
RACCORDO
100
AcDbLine
 62
250
  6
CONTINUOUS
 10
-13.1455147912
 20
-22.8525825578
 11
-18.9884763782
 21
-22.8662223454
  0
LINE
  5
343
100
AcDbEntity
  8
RACCORDO
100
AcDbLine
 62
250
  6
CONTINUOUS
 10
-84.1455147912
 20
-22.8525825578
 11
-89.1998311315
 21
-22.8646971313
  0
LINE
  5
344
100
AcDbEntity
  8
RACCORDO
100
AcDbLine
 62
250
  6
CONTINUOUS
 10
117.8923430489
 20
-23.1914514068
 11
116.9866100668
 21
-23.1931272788
  0
LINE
  5
345
100
AcDbEntity
  8
RACCORDO
100
AcDbLine
 62
250
  6
CONTINUOUS
 10
50.7443664181
 20
-23.1829291897
 11
46.2824769296
 21
-23.1925607789
  0
LINE
  5
346
100
AcDbEntity
  8
RACCORDO
100
AcDbLine
 62
250
  6
CONTINUOUS
 10
128.8574585972
 20
-22.8555559462
 11
126.0623860742
 21
-22.8617330878
  0
LINE
  5
347
100
AcDbEntity
  8
RACCORDO
100
AcDbLine
 62
250
  6
CONTINUOUS
 10
-84.1354770138
 20
-23.1629561633
 11
-95.8938976411
 21
-23.1928780244
  0
LINE
  5
348
100
AcDbEntity
  8
RACCORDO
100
AcDbLine
 62
250
  6
CONTINUOUS
 10
55.8459589351
 20
-22.8579800611
 11
50.7383580689
 21
-22.868538716
  0
LINE
  5
349
100
AcDbEntity
  8
RACCORDO
100
AcDbLine
 62
250
  6
CONTINUOUS
 10
116.9866100668
 20
-23.1931272788
 11
116.0692563311
 21
-23.1946719009
  0
LINE
  5
34A
100
AcDbEntity
  8
RACCORDO
100
AcDbLine
 62
250
  6
CONTINUOUS
 10
-20.8922572082
 20
-23.1844745872
 11
-26.6302190716
 21
-23.1957208141
  0
LINE
  5
34B
100
AcDbEntity
  8
RACCORDO
100
AcDbLine
 62
250
  6
CONTINUOUS
 10
116.0692563311
 20
-23.1946719009
 11
115.1331773987
 21
-23.1960872177
  0
LINE
  5
34C
100
AcDbEntity
  8
RACCORDO
100
AcDbLine
 62
250
  6
CONTINUOUS
 10
115.1331773987
 20
-23.1960872177
 11
114.1653437674
 21
-23.1973861324
  0
LWPOLYLINE
  5
34D
100
AcDbEntity
  8
RACCORDO
100
AcDbPolyline
 62
250
  6
CONTINUOUS
 90
3
 70
0
 10
126.0623860742
 20
-22.8617330878
 10
117.8879192321
 20
-22.8745799161
 10
117.4356663317
 20
-22.8751493628
  0
LINE
  5
34E
100
AcDbEntity
  8
RACCORDO
100
AcDbLine
 62
250
  6
CONTINUOUS
 10
-18.9884763782
 20
-22.8662223454
 11
-25.3590376942
 21
-22.8760090879
  0
LINE
  5
34F
100
AcDbEntity
  8
RACCORDO
100
AcDbLine
 62
250
  6
CONTINUOUS
 10
-89.1998311315
 20
-22.8646971313
 11
-95.3217635749
 21
-22.8747238934
  0
LINE
  5
350
100
AcDbEntity
  8
RACCORDO
100
AcDbLine
 62
250
  6
CONTINUOUS
 10
114.1653437674
 20
-23.1973861324
 11
113.1513838517
 21
-23.1985652361
  0
LINE
  5
351
100
AcDbEntity
  8
RACCORDO
100
AcDbLine
 62
250
  6
CONTINUOUS
 10
46.2824769296
 20
-23.1925607789
 11
41.8189144416
 21
-23.1989564566
  0
LINE
  5
352
100
AcDbEntity
  8
RACCORDO
100
AcDbLine
 62
250
  6
CONTINUOUS
 10
-95.8938976411
 20
-23.1928780244
 11
-100.308078665
 21
-23.1990855703
  0
LWPOLYLINE
  5
353
100
AcDbEntity
  8
RACCORDO
100
AcDbPolyline
 62
250
  6
CONTINUOUS
 90
3
 70
0
 10
117.4356663317
 20
-22.8751493628
 10
116.5256850411
 20
-22.876225725
 10
116.0655571507
 20
-22.8767328184
  0
LINE
  5
354
100
AcDbEntity
  8
RACCORDO
100
AcDbLine
 62
250
  6
CONTINUOUS
 10
50.7383580689
 20
-22.868538716
 11
45.003422585
 21
-22.8767400977
  0
LINE
  5
355
100
AcDbEntity
  8
RACCORDO
100
AcDbLine
 62
250
  6
CONTINUOUS
 10
113.1513838517
 20
-23.1985652361
 11
112.0840891326
 21
-23.1996165502
  0
LWPOLYLINE
  5
356
100
AcDbEntity
  8
RACCORDO
100
AcDbPolyline
 62
250
  6
CONTINUOUS
 90
3
 70
0
 10
116.0655571507
 20
-22.8767328184
 10
115.1298530896
 20
-22.8776874208
 10
114.650119253
 20
-22.8781376174
  0
LINE
  5
357
100
AcDbEntity
  8
RACCORDO
100
AcDbLine
 62
250
  6
CONTINUOUS
 10
112.0840891326
 20
-23.1996165502
 11
110.9546925177
 21
-23.2005194728
  0
LINE
  5
358
100
AcDbEntity
  8
RACCORDO
100
AcDbLine
 62
250
  6
CONTINUOUS
 10
-26.6302190716
 20
-23.1957208141
 11
-31.7309311736
 21
-23.2010510388
  0
LWPOLYLINE
  5
359
100
AcDbEntity
  8
RACCORDO
100
AcDbPolyline
 62
250
  6
CONTINUOUS
 90
3
 70
0
 10
114.650119253
 20
-22.8781376174
 10
113.662182136
 20
-22.8789810839
 10
113.1488423321
 20
-22.8793748673
  0
LINE
  5
35A
100
AcDbEntity
  8
RACCORDO
100
AcDbLine
 62
250
  6
CONTINUOUS
 10
-95.3217635749
 20
-22.8747238934
 11
-100.3105103038
 21
-22.8797563138
  0
LWPOLYLINE
  5
35B
100
AcDbEntity
  8
RACCORDO
100
AcDbPolyline
 62
250
  6
CONTINUOUS
 90
3
 70
0
 10
113.1488423321
 20
-22.8793748673
 10
112.0819641929
 20
-22.8800984742
 10
111.5250784856
 20
-22.8804240743
  0
LINE
  5
35C
100
AcDbEntity
  8
RACCORDO
100
AcDbLine
 62
250
  6
CONTINUOUS
 10
45.003422585
 20
-22.8767400977
 11
39.9045920083
 21
-22.8808193151
  0
LINE
  5
35D
100
AcDbEntity
  8
RACCORDO
100
AcDbLine
 62
250
  6
CONTINUOUS
 10
-25.3590376942
 20
-22.8760090879
 11
-31.0952316214
 21
-22.8808192299
  0
LINE
  5
35E
100
AcDbEntity
  8
RACCORDO
100
AcDbLine
 62
250
  6
CONTINUOUS
 10
110.9546925177
 20
-23.2005194728
 11
109.1422414958
 21
-23.2015261275
  0
LINE
  5
35F
100
AcDbEntity
  8
RACCORDO
100
AcDbLine
 62
250
  6
CONTINUOUS
 10
41.8189144416
 20
-23.1989564566
 11
37.3573309479
 21
-23.2018974746
  0
LWPOLYLINE
  5
360
100
AcDbEntity
  8
RACCORDO
100
AcDbPolyline
 62
250
  6
CONTINUOUS
 90
3
 70
0
 10
111.5250784856
 20
-22.8804240743
 10
110.365053445
 20
-22.8809927727
 10
109.7610890742
 20
-22.8812274902
  0
LINE
  5
361
100
AcDbEntity
  8
RACCORDO
100
AcDbLine
 62
250
  6
CONTINUOUS
 10
109.1422414958
 20
-23.2015261275
 11
107.8534971719
 21
-23.2019165338
  0
LINE
  5
362
100
AcDbEntity
  8
RACCORDO
100
AcDbLine
 62
250
  6
CONTINUOUS
 10
-100.308078665
 20
-23.1990855703
 11
-105.6546666115
 21
-23.2020975491
  0
LINE
  5
363
100
AcDbEntity
  8
RACCORDO
100
AcDbLine
 62
250
  6
CONTINUOUS
 10
109.7610890742
 20
-22.8812274902
 11
108.5052456715
 21
-22.8815907396
  0
LWPOLYLINE
  5
364
100
AcDbEntity
  8
RACCORDO
100
AcDbPolyline
 62
250
  6
CONTINUOUS
 90
3
 70
0
 10
108.5052456715
 20
-22.8815907396
 10
107.1845749903
 20
-22.8817877132
 10
106.5
 20
-22.8818256987
  0
LINE
  5
365
100
AcDbEntity
  8
RACCORDO
100
AcDbLine
 62
250
  6
CONTINUOUS
 10
-100.3105103038
 20
-22.8797563138
 11
-105.6549579378
 21
-22.8817934698
  0
LINE
  5
366
100
AcDbEntity
  8
RACCORDO
100
AcDbLine
 62
7
  6
CONTINUOUS
 10
-128.701902651
 20
-22.7
 11
-84.298097349
 21
-22.7
  0
LINE
  5
367
100
AcDbEntity
  8
RACCORDO
100
AcDbLine
 62
7
  6
CONTINUOUS
 10
-57.701902651
 20
-22.7
 11
-13.298097349
 21
-22.7
  0
LINE
  5
368
100
AcDbEntity
  8
RACCORDO
100
AcDbLine
 62
7
  6
CONTINUOUS
 10
13.298097349
 20
-22.7
 11
57.701902651
 21
-22.7
  0
LINE
  5
369
100
AcDbEntity
  8
RACCORDO
100
AcDbLine
 62
7
  6
CONTINUOUS
 10
84.298097349
 20
-22.7
 11
128.701902651
 21
-22.7
  0
LINE
  5
36A
100
AcDbEntity
  8
ASSI
100
AcDbLine
 62
250
  6
CONTINUOUS
 10
0.5594100201
 20
-21.72366461
 11
-1.9214723205
 21
-21.7254712917
  0
LINE
  5
36B
100
AcDbEntity
  8
ASSI
100
AcDbLine
 62
250
  6
CONTINUOUS
 10
-70.4406261001
 20
-21.7236645826
 11
-72.9215410827
 21
-21.7254714492
  0
LINE
  5
36C
100
AcDbEntity
  8
RACCORDO
100
AcDbLine
 62
250
  6
CONTINUOUS
 10
-31.7309311736
 20
-23.2010510388
 11
-36.8280205861
 21
-23.2020275685
  0
LINE
  5
36D
100
AcDbEntity
  8
RACCORDO
100
AcDbLine
 62
250
  6
CONTINUOUS
 10
107.8534971719
 20
-23.2019165338
 11
105.6848847451
 21
-23.202099949
  0
LINE
  5
36E
100
AcDbEntity
  8
RACCORDO
100
AcDbLine
 62
250
  6
CONTINUOUS
 10
-31.0952316214
 20
-22.8808192299
 11
-37.4645927887
 21
-22.8816476783
  0
LINE
  5
36F
100
AcDbEntity
  8
RACCORDO
100
AcDbLine
 62
250
  6
CONTINUOUS
 10
39.9045920083
 20
-22.8808193151
 11
34.1722677164
 21
-22.8817536806
  0
LINE
  5
370
100
AcDbEntity
  8
RACCORDO
100
AcDbLine
 62
250
  6
CONTINUOUS
 10
106.5
 20
-22.8818256987
 11
104.8931781494
 21
-22.881704489
  0
LINE
  5
371
100
AcDbEntity
  8
ASSI
100
AcDbLine
 62
250
  6
CONTINUOUS
 10
69.1846029232
 20
-21.7252694134
 11
71.6706736192
 21
-21.7237429303
  0
LINE
  5
372
100
AcDbEntity
  8
RACCORDO
100
AcDbLine
 62
250
  6
CONTINUOUS
 10
37.3573309479
 20
-23.2018974746
 11
32.8971734207
 21
-23.2016389891
  0
LINE
  5
373
100
AcDbEntity
  8
RACCORDO
100
AcDbLine
 62
250
  6
CONTINUOUS
 10
104.8931781494
 20
-22.881704489
 11
103.3783648177
 21
-22.881341944
  0
LINE
  5
374
100
AcDbEntity
  8
RACCORDO
100
AcDbLine
 62
250
  6
CONTINUOUS
 10
105.6848847451
 20
-23.202099949
 11
103.3772265042
 21
-23.2014074687
  0
LINE
  5
375
100
AcDbEntity
  8
RACCORDO
100
AcDbLine
 62
250
  6
CONTINUOUS
 10
103.3783648177
 20
-22.881341944
 11
101.9536980503
 21
-22.8807495003
  0
LINE
  5
376
100
AcDbEntity
  8
RACCORDO
100
AcDbLine
 62
250
  6
CONTINUOUS
 10
-105.6546666115
 20
-23.2020975491
 11
-110.7432145844
 21
-23.2006650498
  0
LINE
  5
377
100
AcDbEntity
  8
RACCORDO
100
AcDbLine
 62
250
  6
CONTINUOUS
 10
-105.6549579378
 20
-22.8817934698
 11
-112.3165381849
 21
-22.8799516247
  0
LINE
  5
378
100
AcDbEntity
  8
RACCORDO
100
AcDbLine
 62
250
  6
CONTINUOUS
 10
34.1722677164
 20
-22.8817536806
 11
29.0739132338
 21
-22.879588291
  0
LINE
  5
379
100
AcDbEntity
  8
RACCORDO
100
AcDbLine
 62
250
  6
CONTINUOUS
 10
101.9536980503
 20
-22.8807495003
 11
100.6149438372
 21
-22.8799667341
  0
LINE
  5
37A
100
AcDbEntity
  8
RACCORDO
100
AcDbLine
 62
250
  6
CONTINUOUS
 10
103.3772265042
 20
-23.2014074687
 11
101.2718179813
 21
-23.1999946979
  0
LINE
  5
37B
100
AcDbEntity
  8
RACCORDO
100
AcDbLine
 62
250
  6
CONTINUOUS
 10
-37.4645927887
 20
-22.8816476783
 11
-43.2006681161
 21
-22.8785473538
  0
LINE
  5
37C
100
AcDbEntity
  8
RACCORDO
100
AcDbLine
 62
250
  6
CONTINUOUS
 10
100.6149438372
 20
-22.8799667341
 11
99.3458172859
 21
-22.8790207803
  0
LWPOLYLINE
  5
37D
100
AcDbEntity
  8
RACCORDO
100
AcDbPolyline
 62
250
  6
CONTINUOUS
 90
3
 70
0
 10
99.3458172859
 20
-22.8790207803
 10
98.1362277379
 20
-22.87792768
 10
97.547785846
 20
-22.8773351058
  0
LINE
  5
37E
100
AcDbEntity
  8
RACCORDO
100
AcDbLine
 62
250
  6
CONTINUOUS
 10
-36.8280205861
 20
-23.2020275685
 11
-43.2037469307
 21
-23.1973403958
  0
LINE
  5
37F
100
AcDbEntity
  8
RACCORDO
100
AcDbLine
 62
250
  6
CONTINUOUS
 10
32.8971734207
 20
-23.2016389891
 11
28.4337217404
 21
-23.1981265719
  0
LINE
  5
380
100
AcDbEntity
  8
RACCORDO
100
AcDbLine
 62
250
  6
CONTINUOUS
 10
101.2718179813
 20
-23.1999946979
 11
99.3429694876
 21
-23.1980219675
  0
LINE
  5
381
100
AcDbEntity
  8
RACCORDO
100
AcDbLine
 62
250
  6
CONTINUOUS
 10
97.547785846
 20
-22.8773351058
 11
96.3982811227
 21
-22.8760555431
  0
LINE
  5
382
100
AcDbEntity
  8
RACCORDO
100
AcDbLine
 62
250
  6
CONTINUOUS
 10
-112.3165381849
 20
-22.8799516247
 11
-118.3937540072
 21
-22.8739153542
  0
LINE
  5
383
100
AcDbEntity
  8
RACCORDO
100
AcDbLine
 62
250
  6
CONTINUOUS
 10
29.0739132338
 20
-22.879588291
 11
23.9750880383
 21
-22.8742656834
  0
LWPOLYLINE
  5
384
100
AcDbEntity
  8
RACCORDO
100
AcDbPolyline
 62
250
  6
CONTINUOUS
 90
3
 70
0
 10
96.3982811227
 20
-22.8760555431
 10
95.2703100858
 20
-22.8746557783
 10
94.7106476834
 20
-22.8739079309
  0
LINE
  5
385
100
AcDbEntity
  8
RACCORDO
100
AcDbLine
 62
250
  6
CONTINUOUS
 10
-110.7432145844
 20
-23.2006650498
 11
-115.6591838228
 21
-23.1953118648
  0
LINE
  5
386
100
AcDbEntity
  8
RACCORDO
100
AcDbLine
 62
250
  6
CONTINUOUS
 10
99.3429694876
 20
-23.1980219675
 11
97.5441908544
 21
-23.1955942543
  0
LINE
  5
387
100
AcDbEntity
  8
RACCORDO
100
AcDbLine
 62
250
  6
CONTINUOUS
 10
-43.2006681161
 20
-22.8785473538
 11
-49.5728612477
 21
-22.8705001145
  0
LWPOLYLINE
  5
388
100
AcDbEntity
  8
RACCORDO
100
AcDbPolyline
 62
250
  6
CONTINUOUS
 90
3
 70
0
 10
94.7106476834
 20
-22.8739079309
 10
93.5942823922
 20
-22.8723142123
 10
93.0367657007
 20
-22.8714663719
  0
LINE
  5
389
100
AcDbEntity
  8
RACCORDO
100
AcDbLine
 62
250
  6
CONTINUOUS
 10
97.5441908544
 20
-23.1955942543
 11
96.3942283354
 21
-23.1937495366
  0
LWPOLYLINE
  5
38A
100
AcDbEntity
  8
RACCORDO
100
AcDbPolyline
 62
250
  6
CONTINUOUS
 90
3
 70
0
 10
93.0367657007
 20
-22.8714663719
 10
91.9198584183
 20
-22.8696645569
 10
91.3620015766
 20
-22.8687129567
  0
LINE
  5
38B
100
AcDbEntity
  8
RACCORDO
100
AcDbLine
 62
250
  6
CONTINUOUS
 10
28.4337217404
 20
-23.1981265719
 11
23.9704884863
 21
-23.1911577341
  0
LINE
  5
38C
100
AcDbEntity
  8
RACCORDO
100
AcDbLine
 62
250
  6
CONTINUOUS
 10
96.3942283354
 20
-23.1937495366
 11
95.2658231464
 21
-23.1917239816
  0
LINE
  5
38D
100
AcDbEntity
  8
RACCORDO
100
AcDbLine
 62
250
  6
CONTINUOUS
 10
23.9750880383
 20
-22.8742656834
 11
18.2263187559
 21
-22.8647581263
  0
LWPOLYLINE
  5
38E
100
AcDbEntity
  8
RACCORDO
100
AcDbPolyline
 62
250
  6
CONTINUOUS
 90
3
 70
0
 10
91.3620015766
 20
-22.8687129567
 10
90.252256361
 20
-22.8667191835
 10
89.6930497192
 20
-22.8656592352
  0
LINE
  5
38F
100
AcDbEntity
  8
RACCORDO
100
AcDbLine
 62
250
  6
CONTINUOUS
 10
-43.2037469307
 20
-23.1973403958
 11
-48.3041540426
 21
-23.1885616764
  0
LINE
  5
390
100
AcDbEntity
  8
RACCORDO
100
AcDbLine
 62
250
  6
CONTINUOUS
 10
95.2658231464
 20
-23.1917239816
 11
94.1467883319
 21
-23.1895100246
  0
LINE
  5
391
100
AcDbEntity
  8
RACCORDO
100
AcDbLine
 62
250
  6
CONTINUOUS
 10
89.6930497192
 20
-22.8656592352
 11
88.5626647964
 21
-22.8634150795
  0
LINE
  5
392
100
AcDbEntity
  8
RACCORDO
100
AcDbLine
 62
250
  6
CONTINUOUS
 10
-115.6591838228
 20
-23.1953118648
 11
-119.7644260959
 21
-23.1875896097
  0
LINE
  5
393
100
AcDbEntity
  8
RACCORDO
100
AcDbLine
 62
250
  6
CONTINUOUS
 10
94.1467883319
 20
-23.1895100246
 11
93.0314296663
 21
-23.187108697
  0
LINE
  5
394
100
AcDbEntity
  8
RACCORDO
100
AcDbLine
 62
250
  6
CONTINUOUS
 10
88.5626647964
 20
-22.8634150795
 11
87.388390212
 21
-22.8608846075
  0
LWPOLYLINE
  5
395
100
AcDbEntity
  8
RACCORDO
100
AcDbPolyline
 62
250
  6
CONTINUOUS
 90
3
 70
0
 10
93.0314296663
 20
-23.187108697
 10
91.914097063
 20
-23.1845259543
 10
91.3560275794
 20
-23.1831754473
  0
LINE
  5
396
100
AcDbEntity
  8
ASSI
100
AcDbLine
 62
250
  6
CONTINUOUS
 10
-67.8884869338
 20
-21.7283132648
 11
-70.4406261001
 21
-21.7236645826
  0
LINE
  5
397
100
AcDbEntity
  8
ASSI
100
AcDbLine
 62
250
  6
CONTINUOUS
 10
3.1115356201
 20
-21.7283133333
 11
0.5594100201
 21
-21.72366461
  0
LINE
  5
398
100
AcDbEntity
  8
ASSI
100
AcDbLine
 62
250
  6
CONTINUOUS
 10
71.6706736192
 20
-21.7237429303
 11
74.2059052241
 21
-21.7285783767
  0
LINE
  5
399
100
AcDbEntity
  8
RACCORDO
100
AcDbLine
 62
250
  6
CONTINUOUS
 10
-118.3937540072
 20
-22.8739153542
 11
-128.8574585972
 21
-22.8555559462
  0
LINE
  5
39A
100
AcDbEntity
  8
RACCORDO
100
AcDbLine
 62
250
  6
CONTINUOUS
 10
23.9704884863
 20
-23.1911577341
 11
18.870229957
 21
-23.1793961845
  0
LINE
  5
39B
100
AcDbEntity
  8
RACCORDO
100
AcDbLine
 62
250
  6
CONTINUOUS
 10
91.3560275794
 20
-23.1831754473
 11
90.2458677835
 21
-23.180374702
  0
LWPOLYLINE
  5
39C
100
AcDbEntity
  8
RACCORDO
100
AcDbPolyline
 62
250
  6
CONTINUOUS
 90
3
 70
0
 10
18.2263187559
 20
-22.8647581263
 10
13.940814963
 20
-22.8547934523
 10
13.1455147912
 20
-22.8525825578
  0
LINE
  5
39D
100
AcDbEntity
  8
RACCORDO
100
AcDbLine
 62
250
  6
CONTINUOUS
 10
-119.7644260959
 20
-23.1875896097
 11
-128.8674761729
 21
-23.1667029151
  0
LINE
  5
39E
100
AcDbEntity
  8
RACCORDO
100
AcDbLine
 62
250
  6
CONTINUOUS
 10
-49.5728612477
 20
-22.8705001145
 11
-57.8544852088
 21
-22.8525825578
  0
LINE
  5
39F
100
AcDbEntity
  8
RACCORDO
100
AcDbLine
 62
250
  6
CONTINUOUS
 10
90.2458677835
 20
-23.180374702
 11
89.1233398531
 21
-23.1774039985
  0
LWPOLYLINE
  5
3A0
100
AcDbEntity
  8
RACCORDO
100
AcDbPolyline
 62
250
  6
CONTINUOUS
 90
3
 70
0
 10
87.388390212
 20
-22.8608846075
 10
84.8354293497
 20
-22.8545147845
 10
84.1455147912
 20
-22.8525825578
  0
LINE
  5
3A1
100
AcDbEntity
  8
RACCORDO
100
AcDbLine
 62
250
  6
CONTINUOUS
 10
-48.3041540426
 20
-23.1885616764
 11
-57.0685511952
 21
-23.165363706
  0
LINE
  5
3A2
100
AcDbEntity
  8
RACCORDO
100
AcDbLine
 62
250
  6
CONTINUOUS
 10
-57.0685511952
 20
-23.165363706
 11
-57.8645229862
 21
-23.1629561633
  0
LINE
  5
3A3
100
AcDbEntity
  8
RACCORDO
100
AcDbLine
 62
250
  6
CONTINUOUS
 10
18.870229957
 20
-23.1793961845
 11
13.1354770138
 21
-23.1629561633
  0
LINE
  5
3A4
100
AcDbEntity
  8
RACCORDO
100
AcDbLine
 62
250
  6
CONTINUOUS
 10
89.1233398531
 20
-23.1774039985
 11
84.1354770138
 21
-23.1629561633
  0
LWPOLYLINE
  5
3A5
100
AcDbEntity
  8
ASSI
100
AcDbPolyline
 62
250
  6
CONTINUOUS
 90
3
 70
0
 10
-61.0
 20
-21.7499998815
 10
-63.8413057174
 20
-21.7420897025
 10
-67.8884869338
 20
-21.7283132648
  0
LWPOLYLINE
  5
3A6
100
AcDbEntity
  8
ASSI
100
AcDbPolyline
 62
250
  6
CONTINUOUS
 90
3
 70
0
 10
10.0
 20
-21.7499998815
 10
7.1587105964
 20
-21.7420897572
 10
3.1115356201
 20
-21.7283133333
  0
LINE
  5
3A7
100
AcDbEntity
  8
ASSI
100
AcDbLine
 62
250
  6
CONTINUOUS
 10
74.2059052241
 20
-21.7285783767
 11
81.0000190026
 21
-21.7499999178
  0
LINE
  5
3A8
100
AcDbEntity
  8
RACCORDO
100
AcDbLine
 62
250
  6
CONTINUOUS
 10
129.6666263563
 20
-22.3675989178
 11
129.6159290367
 21
-22.3673746926
  0
LINE
  5
3A9
100
AcDbEntity
  8
RACCORDO
100
AcDbLine
 62
250
  6
CONTINUOUS
 10
-83.337427949
 20
-22.3649778288
 11
-83.3879886398
 21
-22.3647417122
  0
LINE
  5
3AA
100
AcDbEntity
  8
RACCORDO
100
AcDbLine
 62
250
  6
CONTINUOUS
 10
-12.337427949
 20
-22.3649778288
 11
-12.3879886398
 21
-22.3647417122
  0
LINE
  5
3AB
100
AcDbEntity
  8
RACCORDO
100
AcDbLine
 62
250
  6
CONTINUOUS
 10
58.662572051
 20
-22.3649778288
 11
58.6120113602
 21
-22.3647417122
  0
LINE
  5
3AC
100
AcDbEntity
  8
RACCORDO
100
AcDbLine
 62
250
  6
CONTINUOUS
 10
129.6159290367
 20
-22.3673746926
 11
129.5663336157
 21
-22.3668673954
  0
LINE
  5
3AD
100
AcDbEntity
  8
RACCORDO
100
AcDbLine
 62
250
  6
CONTINUOUS
 10
-83.3879886398
 20
-22.3647417122
 11
-83.4374239074
 21
-22.3642164679
  0
LINE
  5
3AE
100
AcDbEntity
  8
RACCORDO
100
AcDbLine
 62
250
  6
CONTINUOUS
 10
-12.3879886398
 20
-22.3647417122
 11
-12.4374239074
 21
-22.3642164679
  0
LINE
  5
3AF
100
AcDbEntity
  8
RACCORDO
100
AcDbLine
 62
250
  6
CONTINUOUS
 10
58.6120113602
 20
-22.3647417122
 11
58.5625760926
 21
-22.3642164679
  0
LWPOLYLINE
  5
3B0
100
AcDbEntity
  8
RACCORDO
100
AcDbPolyline
 62
250
  6
CONTINUOUS
 90
14
 70
0
 10
129.5663336157
 20
-22.3668673954
 10
129.5192591959
 20
-22.3660915423
 10
129.4970921782
 20
-22.3656095607
 10
129.4760527403
 20
-22.3650693337
 10
129.456291654
 20
-22.3644747328
 10
129.437950531
 20
-22.3638300189
 10
129.4211608068
 20
-22.3631398124
 10
129.4060427985
 20
-22.3624090594
 10
129.3927048441
 20
-22.3616429966
 10
129.3812425254
 20
-22.3608471138
 10
129.3717379821
 20
-22.3600271145
 10
129.364259325
 20
-22.359188875
 10
129.3588601473
 20
-22.3583384022
 10
129.3555791399
 20
-22.3574817909
  0
LINE
  5
3B1
100
AcDbEntity
  8
RACCORDO
100
AcDbLine
 62
250
  6
CONTINUOUS
 10
-83.4374239074
 20
-22.3642164679
 11
-83.4843263732
 21
-22.3634170497
  0
LINE
  5
3B2
100
AcDbEntity
  8
RACCORDO
100
AcDbLine
 62
250
  6
CONTINUOUS
 10
-12.4374239074
 20
-22.3642164679
 11
-12.4843263733
 21
-22.3634170497
  0
LINE
  5
3B3
100
AcDbEntity
  8
RACCORDO
100
AcDbLine
 62
250
  6
CONTINUOUS
 10
58.5625760926
 20
-22.3642164679
 11
58.5156736267
 21
-22.3634170497
  0
LWPOLYLINE
  5
3B4
100
AcDbEntity
  8
RACCORDO
100
AcDbPolyline
 62
250
  6
CONTINUOUS
 90
12
 70
0
 10
-83.4843263732
 20
-22.3634170497
 10
-83.5273607697
 20
-22.3623662167
 10
-83.5470393035
 20
-22.3617556109
 10
-83.5653019537
 20
-22.3610938853
 10
-83.582018509
 20
-22.3603857582
 10
-83.5970697824
 20
-22.3596362782
 10
-83.6103484594
 20
-22.3588507893
 10
-83.6217598643
 20
-22.3580348919
 10
-83.6312226356
 20
-22.3571944035
 10
-83.6386693048
 20
-22.3563353165
 10
-83.6440467777
 20
-22.3554637564
 10
-83.6473167138
 20
-22.3545859372
  0
LWPOLYLINE
  5
3B5
100
AcDbEntity
  8
RACCORDO
100
AcDbPolyline
 62
250
  6
CONTINUOUS
 90
12
 70
0
 10
-12.4843263733
 20
-22.3634170497
 10
-12.5273607698
 20
-22.3623662167
 10
-12.5470393036
 20
-22.3617556109
 10
-12.5653019538
 20
-22.3610938853
 10
-12.5820185091
 20
-22.3603857582
 10
-12.5970697824
 20
-22.3596362782
 10
-12.6103484594
 20
-22.3588507893
 10
-12.6217598643
 20
-22.3580348919
 10
-12.6312226356
 20
-22.3571944035
 10
-12.6386693048
 20
-22.3563353165
 10
-12.6440467777
 20
-22.3554637564
 10
-12.6473167138
 20
-22.3545859372
  0
LWPOLYLINE
  5
3B6
100
AcDbEntity
  8
RACCORDO
100
AcDbPolyline
 62
250
  6
CONTINUOUS
 90
12
 70
0
 10
58.5156736267
 20
-22.3634170497
 10
58.4726392302
 20
-22.3623662167
 10
58.4529606964
 20
-22.3617556109
 10
58.4346980462
 20
-22.3610938853
 10
58.4179814909
 20
-22.3603857582
 10
58.4029302176
 20
-22.3596362782
 10
58.3896515406
 20
-22.3588507893
 10
58.3782401357
 20
-22.3580348919
 10
58.3687773644
 20
-22.3571944035
 10
58.3613306952
 20
-22.3563353165
 10
58.3559532223
 20
-22.3554637564
 10
58.3526832862
 20
-22.3545859372
  0
LWPOLYLINE
  5
3B7
100
AcDbEntity
  8
RACCORDO
100
AcDbPolyline
 62
250
  6
CONTINUOUS
 90
28
 70
0
 10
-57.8544852088
 20
-22.8525825578
 10
-57.8826292442
 20
-22.8517902488
 10
-57.9108117871
 20
-22.8494034028
 10
-57.9389418221
 20
-22.845406675
 10
-57.9669673187
 20
-22.8397812929
 10
-57.9947510604
 20
-22.8325267582
 10
-58.0220769135
 20
-22.8236838731
 10
-58.0488346282
 20
-22.8132875071
 10
-58.074956421
 20
-22.8013640118
 10
-58.1003017474
 20
-22.7879790501
 10
-58.1247577621
 20
-22.7732047527
 10
-58.1482845171
 20
-22.7570786723
 10
-58.1708545246
 20
-22.7396220846
 10
-58.1924090167
 20
-22.7208750597
 10
-58.212858522
 20
-22.7009101281
 10
-58.2321294801
 20
-22.679796366
 10
-58.2501107807
 20
-22.6576637753
 10
-58.266796925
 20
-22.6345275188
 10
-58.2822484009
 20
-22.6102682048
 10
-58.2964146862
 20
-22.5848788378
 10
-58.3091709315
 20
-22.558486676
 10
-58.3204376239
 20
-22.5311609904
 10
-58.3301596212
 20
-22.5029054862
 10
-58.3382306308
 20
-22.473878872
 10
-58.344539389
 20
-22.4444037694
 10
-58.3490527036
 20
-22.4146632793
 10
-58.3517710776
 20
-22.3846882595
 10
-58.3526832862
 20
-22.3545859371
  0
LWPOLYLINE
  5
3B8
100
AcDbEntity
  8
RACCORDO
100
AcDbPolyline
 62
250
  6
CONTINUOUS
 90
28
 70
0
 10
13.1455147912
 20
-22.8525825578
 10
13.1173707561
 20
-22.8517902488
 10
13.0891882134
 20
-22.8494034029
 10
13.0610581788
 20
-22.8454066752
 10
13.0330326825
 20
-22.8397812931
 10
13.0052489411
 20
-22.8325267587
 10
12.9779230882
 20
-22.8236838738
 10
12.9511653734
 20
-22.8132875078
 10
12.9250435802
 20
-22.8013640124
 10
12.8996982535
 20
-22.7879790506
 10
12.8752422383
 20
-22.7732047529
 10
12.8517154827
 20
-22.7570786722
 10
12.8291454749
 20
-22.7396220842
 10
12.8075909827
 20
-22.7208750591
 10
12.7871414773
 20
-22.7009101274
 10
12.7678705192
 20
-22.6797963652
 10
12.7498892186
 20
-22.6576637744
 10
12.7332030743
 20
-22.6345275179
 10
12.7177515986
 20
-22.6102682039
 10
12.7035853134
 20
-22.5848788369
 10
12.6908290682
 20
-22.5584866751
 10
12.6795623759
 20
-22.5311609897
 10
12.6698403786
 20
-22.5029054856
 10
12.6617693691
 20
-22.4738788715
 10
12.655460611
 20
-22.444403769
 10
12.6509472964
 20
-22.414663279
 10
12.6482289224
 20
-22.3846882594
 10
12.6473167138
 20
-22.3545859371
  0
LWPOLYLINE
  5
3B9
100
AcDbEntity
  8
RACCORDO
100
AcDbPolyline
 62
250
  6
CONTINUOUS
 90
28
 70
0
 10
84.1455147912
 20
-22.8525825578
 10
84.1173709373
 20
-22.851790259
 10
84.0891885787
 20
-22.8494034442
 10
84.0610587294
 20
-22.8454067694
 10
84.0330334607
 20
-22.8397814728
 10
84.0052499428
 20
-22.8325270515
 10
83.9779241815
 20
-22.8236842627
 10
83.9511663676
 20
-22.8132879272
 10
83.9250443606
 20
-22.8013643962
 10
83.8996987837
 20
-22.7879793505
 10
83.8752424737
 20
-22.7732049043
 10
83.8517154015
 20
-22.7570786127
 10
83.8291451639
 20
-22.739621829
 10
83.8075905651
 20
-22.7208746744
 10
83.7871410224
 20
-22.700909657
 10
83.7678700594
 20
-22.6797958313
 10
83.7498887774
 20
-22.6576631983
 10
83.7332026756
 20
-22.6345269302
 10
83.7177512512
 20
-22.6102676219
 10
83.7035850218
 20
-22.5848782765
 10
83.6908288359
 20
-22.5584861561
 10
83.6795621996
 20
-22.5311605233
 10
83.6698402532
 20
-22.5029050821
 10
83.6617692881
 20
-22.4738785419
 10
83.6554605652
 20
-22.4444035182
 10
83.6509472758
 20
-22.414663109
 10
83.6482289172
 20
-22.3846881733
 10
83.6473167138
 20
-22.3545859371
  0
LWPOLYLINE
  5
3BA
100
AcDbEntity
  8
RACCORDO
100
AcDbPolyline
 62
250
  6
CONTINUOUS
 90
28
 70
0
 10
-128.8574585972
 20
-22.8555559462
 10
-128.8858240128
 20
-22.8547511875
 10
-128.9141862319
 20
-22.8523310816
 10
-128.9424530512
 20
-22.8482869773
 10
-128.9705664297
 20
-22.842608051
 10
-128.998395195
 20
-22.8353000455
 10
-129.0257405477
 20
-22.8264051508
 10
-129.0525008581
 20
-22.8159588596
 10
-129.0786015262
 20
-22.8039936476
 10
-129.1038967317
 20
-22.7905831326
 10
-129.1282728028
 20
-22.7758064015
 10
-129.1516969513
 20
-22.7597032322
 10
-129.1741492879
 20
-22.7422958852
 10
-129.1955638334
 20
-22.7236373859
 10
-129.2158672067
 20
-22.7037937409
 10
-129.2350226041
 20
-22.6827985932
 10
-129.2529239781
 20
-22.6607692453
 10
-129.2695556434
 20
-22.6377253394
 10
-129.2849835309
 20
-22.6135307603
 10
-129.2991575436
 20
-22.5881635792
 10
-129.3119401245
 20
-22.561757598
 10
-129.3232379452
 20
-22.5343985407
 10
-129.3329932675
 20
-22.5060868576
 10
-129.3410953817
 20
-22.4769829543
 10
-129.3474244119
 20
-22.4474368591
 10
-129.3519474998
 20
-22.4176420252
 10
-129.3546689421
 20
-22.3876210583
 10
-129.3555791399
 20
-22.3574817908
  0
LWPOLYLINE
  5
3BB
100
AcDbEntity
  8
RACCORDO
100
AcDbPolyline
 62
250
  6
CONTINUOUS
 90
28
 70
0
 10
-57.8645229862
 20
-23.1629561633
 10
-57.9097168719
 20
-23.1615855946
 10
-57.9546845288
 20
-23.1576326529
 10
-57.9994259569
 20
-23.1510973382
 10
-58.0441532408
 20
-23.1419455663
 10
-58.0886542958
 20
-23.1302114215
 10
-58.1322928681
 20
-23.115997156
 10
-58.1750206336
 20
-23.0992575832
 10
-58.2168859163
 20
-23.0800378899
 10
-58.2573974354
 20
-23.0585758891
 10
-58.2964868062
 20
-23.0348804286
 10
-58.3342224132
 20
-23.0089426607
 10
-58.370318129
 20
-22.9809738556
 10
-58.4047901742
 20
-22.950939448
 10
-58.4376223283
 20
-22.9188740032
 10
-58.4684798017
 20
-22.8850924873
 10
-58.4972969429
 20
-22.8496922976
 10
-58.5241394035
 20
-22.8125760367
 10
-58.5488693482
 20
-22.7737664793
 10
-58.5715689671
 20
-22.7331565224
 10
-58.5921560702
 20
-22.6908532689
 10
-58.6102462523
 20
-22.6472008022
 10
-58.6258229025
 20
-22.6020420712
 10
-58.6389026319
 20
-22.5555341271
 10
-58.6491508686
 20
-22.5084922071
 10
-58.6564560887
 20
-22.4611880569
 10
-58.6609298162
 20
-22.4133499308
 10
-58.662572051
 20
-22.3649778288
  0
LWPOLYLINE
  5
3BC
100
AcDbEntity
  8
RACCORDO
100
AcDbPolyline
 62
250
  6
CONTINUOUS
 90
28
 70
0
 10
13.1354770138
 20
-23.1629561633
 10
13.0902831285
 20
-23.1615855946
 10
13.0453154721
 20
-23.157632653
 10
13.0005740445
 20
-23.1510973385
 10
12.9558467612
 20
-23.1419455668
 10
12.9113457067
 20
-23.1302114222
 10
12.8677071346
 20
-23.115997157
 10
12.8249793689
 20
-23.0992575842
 10
12.7831140856
 20
-23.0800378908
 10
12.7426025659
 20
-23.0585758899
 10
12.7035131945
 20
-23.034880429
 10
12.6657775867
 20
-23.0089426606
 10
12.6296818703
 20
-22.980973855
 10
12.5952098247
 20
-22.9509394471
 10
12.5623776706
 20
-22.9188740021
 10
12.5315201972
 20
-22.885092486
 10
12.502703056
 20
-22.8496922961
 10
12.4758605955
 20
-22.8125760352
 10
12.4511306509
 20
-22.7737664778
 10
12.4284310322
 20
-22.733156521
 10
12.4078439293
 20
-22.6908532676
 10
12.3897537472
 20
-22.6472008011
 10
12.3741770971
 20
-22.6020420702
 10
12.3610973679
 20
-22.5555341263
 10
12.3508491313
 20
-22.5084922064
 10
12.3435439113
 20
-22.4611880564
 10
12.3390701838
 20
-22.4133499305
 10
12.337427949
 20
-22.3649778288
  0
LWPOLYLINE
  5
3BD
100
AcDbEntity
  8
RACCORDO
100
AcDbPolyline
 62
250
  6
CONTINUOUS
 90
28
 70
0
 10
84.1354770138
 20
-23.1629561633
 10
84.090283423
 20
-23.1615856101
 10
84.0453160598
 20
-23.1576327195
 10
84.0005749241
 20
-23.1510974916
 10
83.9558479966
 20
-23.141945877
 10
83.9113472966
 20
-23.130211925
 10
83.8677088826
 20
-23.1159977836
 10
83.8249809645
 20
-23.099258236
 10
83.7831153323
 20
-23.0800384989
 10
83.7426034142
 20
-23.0585763715
 10
83.7035135861
 20
-23.0348806525
 10
83.6657774719
 20
-23.008942543
 10
83.6296813723
 20
-22.9809734458
 10
83.5952091496
 20
-22.9509388426
 10
83.5623769413
 20
-22.9188732517
 10
83.5315194602
 20
-22.8850916308
 10
83.5027023443
 20
-22.8496913785
 10
83.4758599555
 20
-22.8125750961
 10
83.4511300932
 20
-22.7737655464
 10
83.4284305611
 20
-22.7331556261
 10
83.4078435555
 20
-22.6908524384
 10
83.3897534635
 20
-22.6472000553
 10
83.374176893
 20
-22.6020414255
 10
83.3610972362
 20
-22.5555336003
 10
83.350849057
 20
-22.5084918055
 10
83.3435438767
 20
-22.4611877829
 10
83.339070174
 20
-22.4133497907
 10
83.337427949
 20
-22.3649778288
  0
LWPOLYLINE
  5
3BE
100
AcDbEntity
  8
RACCORDO
100
AcDbPolyline
 62
250
  6
CONTINUOUS
 90
28
 70
0
 10
-128.8674761729
 20
-23.1667029151
 10
-128.9130941224
 20
-23.165290264
 10
-128.9584174828
 20
-23.1612805794
 10
-129.0034462499
 20
-23.154673857
 10
-129.0483834344
 20
-23.145429581
 10
-129.0930260175
 20
-23.1335882592
 10
-129.1367649504
 20
-23.119271423
 10
-129.1795617879
 20
-23.1024315986
 10
-129.2214549673
 20
-23.0831162521
 10
-129.2619507638
 20
-23.0615893242
 10
-129.3009723439
 20
-23.0378640579
 10
-129.3385965357
 20
-23.0119272049
 10
-129.3745601084
 20
-22.9840029701
 10
-129.4088665142
 20
-22.9540804196
 10
-129.4415122987
 20
-22.9221704853
 10
-129.4722238722
 20
-22.888530172
 10
-129.5009571785
 20
-22.85325046
 10
-129.5277562754
 20
-22.8162403706
 10
-129.5524797447
 20
-22.777483972
 10
-129.575220835
 20
-22.7368548782
 10
-129.5958863026
 20
-22.6944794801
 10
-129.6140549918
 20
-22.6507210114
 10
-129.629703793
 20
-22.6054136459
 10
-129.6428558245
 20
-22.5587232184
 10
-129.6531592735
 20
-22.5115104549
 10
-129.6604968722
 20
-22.4640622671
 10
-129.6649858981
 20
-22.4160917531
 10
-129.6666263563
 20
-22.3675989178
  0
LINE
  5
3BF
100
AcDbEntity
  8
RACCORDO
100
AcDbLine
 62
250
  6
CONTINUOUS
 10
-58.3526832862
 20
22.3545859371
 11
-58.2
 21
22.201902651
  0
LINE
  5
3C0
100
AcDbEntity
  8
RACCORDO
100
AcDbLine
 62
250
  6
CONTINUOUS
 10
-13.1455147912
 20
-22.8525825578
 11
-13.298097349
 21
-22.7
  0
LINE
  5
3C1
100
AcDbEntity
  8
RACCORDO
100
AcDbLine
 62
250
  6
CONTINUOUS
 10
-57.8544852088
 20
22.8525825578
 11
-57.701902651
 21
22.7
  0
LINE
  5
3C2
100
AcDbEntity
  8
RACCORDO
100
AcDbLine
 62
250
  6
CONTINUOUS
 10
-12.6473167138
 20
-22.3545859371
 11
-12.8
 21
-22.201902651
  0
LWPOLYLINE
  5
3C3
100
AcDbEntity
  8
RACCORDO
100
AcDbPolyline
 62
250
  6
CONTINUOUS
 90
11
 70
0
 10
-13.1379942865
 20
-22.9727554149
 10
-13.1385841432
 20
-22.9530423389
 10
-13.1392235199
 20
-22.934746846
 10
-13.1399078481
 20
-22.9179996594
 10
-13.1406322381
 20
-22.90292044
 10
-13.1413915141
 20
-22.8896169303
 10
-13.142180251
 20
-22.8781841853
 10
-13.1429928131
 20
-22.8687038934
 10
-13.1438233947
 20
-22.8612437919
 10
-13.1446660611
 20
-22.8558571842
 10
-13.1455147912
 20
-22.8525825578
  0
LINE
  5
3C4
100
AcDbEntity
  8
RACCORDO
100
AcDbLine
 62
250
  6
CONTINUOUS
 10
-13.1369796071
 20
-23.0158617843
 11
-13.1379942865
 21
-22.9727554149
  0
LINE
  5
3C5
100
AcDbEntity
  8
RACCORDO
100
AcDbLine
 62
250
  6
CONTINUOUS
 10
-13.1362084302
 20
-23.0628361537
 11
-13.1369796071
 21
-23.0158617843
  0
LINE
  5
3C6
100
AcDbEntity
  8
ASSI
100
AcDbLine
 62
250
  6
CONTINUOUS
 10
-10.0014621782
 20
42.8930198399
 11
-10.0012031764
 21
42.873709094
  0
LINE
  5
3C7
100
AcDbEntity
  8
RACCORDO
100
AcDbLine
 62
250
  6
CONTINUOUS
 10
-13.1357027569
 20
-23.1123383703
 11
-13.1362084302
 21
-23.0628361537
  0
LINE
  5
3C8
100
AcDbEntity
  8
ASSI
100
AcDbLine
 62
250
  6
CONTINUOUS
 10
-10.0012031764
 20
42.873709094
 11
-10.0007251979
 21
42.8105541822
  0
LINE
  5
3C9
100
AcDbEntity
  8
RACCORDO
100
AcDbLine
 62
250
  6
CONTINUOUS
 10
-13.1354770138
 20
-23.1629561633
 11
-13.1357027569
 21
-23.1123383703
  0
LINE
  5
3CA
100
AcDbEntity
  8
RACCORDO
100
AcDbLine
 62
250
  6
CONTINUOUS
 10
-12.337427949
 20
22.3649778288
 11
-12.3189641505
 21
15.9017070459
  0
LINE
  5
3CB
100
AcDbEntity
  8
RACCORDO
100
AcDbLine
 62
250
  6
CONTINUOUS
 10
-12.6473167138
 20
22.3545859371
 11
-12.6336263796
 21
16.4560260981
  0
LINE
  5
3CC
100
AcDbEntity
  8
RACCORDO
100
AcDbLine
 62
250
  6
CONTINUOUS
 10
-12.3189641505
 20
15.9017070459
 11
-12.3077004391
 21
10.869291541
  0
LINE
  5
3CD
100
AcDbEntity
  8
ASSI
100
AcDbLine
 62
250
  6
CONTINUOUS
 10
-10.0007251979
 20
42.8105541822
 11
-9.9999889627
 21
42.5735556614
  0
LINE
  5
3CE
100
AcDbEntity
  8
RACCORDO
100
AcDbLine
 62
250
  6
CONTINUOUS
 10
-12.6336263796
 20
16.4560260981
 11
-12.6241583323
 21
10.3050623052
  0
LINE
  5
3CF
100
AcDbEntity
  8
RACCORDO
100
AcDbLine
 62
250
  6
CONTINUOUS
 10
-12.3077004391
 20
10.869291541
 11
-12.3006229318
 21
5.8299661911
  0
LINE
  5
3D0
100
AcDbEntity
  8
RACCORDO
100
AcDbLine
 62
250
  6
CONTINUOUS
 10
-12.6241583323
 20
10.3050623052
 11
-12.6190490527
 21
4.148882724
  0
LINE
  5
3D1
100
AcDbEntity
  8
RACCORDO
100
AcDbLine
 62
250
  6
CONTINUOUS
 10
-12.3006229318
 20
5.8299661911
 11
-12.2979355566
 21
0.7932409023
  0
LINE
  5
3D2
100
AcDbEntity
  8
RACCORDO
100
AcDbLine
 62
7
  6
CONTINUOUS
 10
-12.8
 20
-22.201902651
 11
-12.8
 21
22.201902651
  0
LINE
  5
3D3
100
AcDbEntity
  8
RACCORDO
100
AcDbLine
 62
250
  6
CONTINUOUS
 10
-12.6190490527
 20
4.148882724
 11
-12.6204330331
 21
-6.4806232389
  0
LINE
  5
3D4
100
AcDbEntity
  8
RACCORDO
100
AcDbLine
 62
250
  6
CONTINUOUS
 10
-12.2979355566
 20
0.7932409023
 11
-12.2993171525
 21
-4.2435719521
  0
LINE
  5
3D5
100
AcDbEntity
  8
RACCORDO
100
AcDbLine
 62
250
  6
CONTINUOUS
 10
-12.6204330331
 20
-6.4806232389
 11
-12.6264665109
 21
-12.0752274328
  0
LINE
  5
3D6
100
AcDbEntity
  8
RACCORDO
100
AcDbLine
 62
250
  6
CONTINUOUS
 10
-12.2993171525
 20
-4.2435719521
 11
-12.3041387789
 21
-8.7229788788
  0
LINE
  5
3D7
100
AcDbEntity
  8
RACCORDO
100
AcDbLine
 62
250
  6
CONTINUOUS
 10
-12.6264665109
 20
-12.0752274328
 11
-12.6360879759
 21
-17.7430267651
  0
LINE
  5
3D8
100
AcDbEntity
  8
RACCORDO
100
AcDbLine
 62
250
  6
CONTINUOUS
 10
-12.3041387789
 20
-8.7229788788
 11
-12.3124581292
 21
-13.1966091222
  0
LWPOLYLINE
  5
3D9
100
AcDbEntity
  8
RACCORDO
100
AcDbPolyline
 62
250
  6
CONTINUOUS
 90
3
 70
0
 10
-12.6360879759
 20
-17.7430267651
 10
-12.6452593272
 20
-21.6348944133
 10
-12.6473167138
 20
-22.3545859371
  0
LINE
  5
3DA
100
AcDbEntity
  8
RACCORDO
100
AcDbLine
 62
250
  6
CONTINUOUS
 10
-12.3124581292
 20
-13.1966091222
 11
-12.3272783297
 21
-18.9748478313
  0
LINE
  5
3DB
100
AcDbEntity
  8
RACCORDO
100
AcDbLine
 62
250
  6
CONTINUOUS
 10
-12.3272783297
 20
-18.9748478313
 11
-12.337427949
 21
-22.3649778288
  0
LINE
  5
3DC
100
AcDbEntity
  8
ASSI
100
AcDbLine
 62
250
  6
CONTINUOUS
 10
-10.0005338529
 20
-42.7677638564
 11
-10.0000016982
 21
42.5735557047
  0
LINE
  5
3DD
100
AcDbEntity
  8
RACCORDO
100
AcDbLine
 62
250
  6
CONTINUOUS
 10
-13.1354770138
 20
23.1629561633
 11
-13.1357027418
 21
23.1123382973
  0
LINE
  5
3DE
100
AcDbEntity
  8
ASSI
100
AcDbLine
 62
250
  6
CONTINUOUS
 10
-10.0010890484
 20
-42.8608548069
 11
-10.0005338529
 21
-42.7677638564
  0
LINE
  5
3DF
100
AcDbEntity
  8
RACCORDO
100
AcDbLine
 62
250
  6
CONTINUOUS
 10
-13.1357027418
 20
23.1123382973
 11
-13.1362084041
 21
23.0628360348
  0
LINE
  5
3E0
100
AcDbEntity
  8
RACCORDO
100
AcDbLine
 62
250
  6
CONTINUOUS
 10
-13.1362084041
 20
23.0628360348
 11
-13.136979574
 21
23.0158616476
  0
LWPOLYLINE
  5
3E1
100
AcDbEntity
  8
RACCORDO
100
AcDbPolyline
 62
250
  6
CONTINUOUS
 90
12
 70
0
 10
-13.136979574
 20
23.0158616476
 10
-13.13799425
 20
22.9727552851
 10
-13.1385841065
 20
22.9530422196
 10
-13.1392234839
 20
22.9347467405
 10
-13.1399078135
 20
22.9179995704
 10
-13.1406322059
 20
22.9029203682
 10
-13.1413914853
 20
22.8896168759
 10
-13.1421802263
 20
22.8781841474
 10
-13.1429927934
 20
22.8687038696
 10
-13.1438233807
 20
22.8612437795
 10
-13.1446660536
 20
22.8558571799
 10
-13.1455147912
 20
22.8525825578
  0
LWPOLYLINE
  5
3E2
100
AcDbEntity
  8
RACCORDO
100
AcDbPolyline
 62
250
  6
CONTINUOUS
 90
28
 70
0
 10
-12.6473167138
 20
-22.3545859371
 10
-12.6481141722
 20
-22.3827289209
 10
-12.6505060423
 20
-22.4109009895
 10
-12.6545061661
 20
-22.4390113034
 10
-12.6601296775
 20
-22.4669987259
 10
-12.6673766957
 20
-22.4947362967
 10
-12.67621466
 20
-22.5220361046
 10
-12.6866171714
 20
-22.5487992745
 10
-12.6985573229
 20
-22.574943939
 10
-12.7119670892
 20
-22.6003185394
 10
-12.7267785648
 20
-22.6248137441
 10
-12.7429527673
 20
-22.6483834228
 10
-12.7604518964
 20
-22.6709777065
 10
-12.779224464
 20
-22.6925298497
 10
-12.7992030709
 20
-22.7129627266
 10
-12.8203248155
 20
-22.732212578
 10
-12.8424595749
 20
-22.7501697842
 10
-12.8655910276
 20
-22.7668292002
 10
-12.8898455758
 20
-22.7822569813
 10
-12.9152330792
 20
-22.7964037209
 10
-12.9416241876
 20
-22.8091427846
 10
-12.9689500522
 20
-22.8203946712
 10
-12.9972089863
 20
-22.830104422
 10
-13.0262407704
 20
-22.8381646401
 10
-13.0557176338
 20
-22.8444629333
 10
-13.0854546544
 20
-22.8489664643
 10
-13.1154227514
 20
-22.8516765806
 10
-13.1455147912
 20
-22.8525825578
  0
LWPOLYLINE
  5
3E3
100
AcDbEntity
  8
RACCORDO
100
AcDbPolyline
 62
250
  6
CONTINUOUS
 90
28
 70
0
 10
-12.337427949
 20
-22.3649778288
 10
-12.3388082435
 20
-22.4101833705
 10
-12.3427654426
 20
-22.4551486622
 10
-12.3492995464
 20
-22.4998737039
 10
-12.3584392889
 20
-22.5445561304
 10
-12.3701559361
 20
-22.5889983069
 10
-12.3843632852
 20
-22.6326073289
 10
-12.4011108161
 20
-22.675356392
 10
-12.4203490491
 20
-22.7172723007
 10
-12.4418433418
 20
-22.7578425634
 10
-12.4655954727
 20
-22.7970033055
 10
-12.4916036634
 20
-22.8348184017
 10
-12.5196279367
 20
-22.8709669848
 10
-12.5496917352
 20
-22.9054470569
 10
-12.5817716163
 20
-22.938260616
 10
-12.6155572749
 20
-22.9690927885
 10
-12.6509493838
 20
-22.997881128
 10
-12.6880472702
 20
-23.024688081
 10
-12.7268386106
 20
-23.0493861136
 10
-12.7674334895
 20
-23.0720611415
 10
-12.8097218225
 20
-23.092627249
 10
-12.8533610335
 20
-23.1106991558
 10
-12.8985110999
 20
-23.1262604967
 10
-12.9450120444
 20
-23.1393276369
 10
-12.9920413588
 20
-23.1495643921
 10
-13.0393248738
 20
-23.1568587008
 10
-13.0871367588
 20
-23.1613226246
 10
-13.1354770138
 20
-23.1629561633
  0
LWPOLYLINE
  5
3E4
100
AcDbEntity
  8
RACCORDO
100
AcDbPolyline
 62
250
  6
CONTINUOUS
 90
12
 70
0
 10
-129.4970922222
 20
-22.3656094752
 10
-129.4760527748
 20
-22.3650692445
 10
-129.4562916791
 20
-22.3644746422
 10
-129.4379505469
 20
-22.3638299294
 10
-129.4211608142
 20
-22.3631397261
 10
-129.4060427996
 20
-22.3624089786
 10
-129.3927048411
 20
-22.3616429238
 10
-129.38124252
 20
-22.3608470512
 10
-129.3717379768
 20
-22.3600270643
 10
-129.3642593214
 20
-22.3591888393
 10
-129.3588601458
 20
-22.3583383832
 10
-129.3555791399
 20
-22.3574817908
  0
LWPOLYLINE
  5
3E5
100
AcDbEntity
  8
ASSI
100
AcDbPolyline
 62
250
  6
CONTINUOUS
 90
4
 70
0
 10
-10.0018628056
 20
42.9056329893
 10
-10.0017284346
 20
42.9036438955
 10
-10.0015946936
 20
42.8994332398
 10
-10.0014621782
 20
42.8930198399
  0
LWPOLYLINE
  5
3E6
100
AcDbEntity
  8
ASSI
100
AcDbPolyline
 62
250
  6
CONTINUOUS
 90
6
 70
0
 10
-10.0018608985
 20
-42.9056012912
 10
-10.001728916
 20
-42.9036118645
 10
-10.0015974926
 20
-42.8994003105
 10
-10.0014672158
 20
-42.8929853921
 10
-10.0013386688
 20
-42.8843957069
 10
-10.0010890484
 20
-42.8608548069
  0
LWPOLYLINE
  5
3E7
100
AcDbEntity
  8
0
100
AcDbPolyline
 62
7
  6
CONTINUOUS
 90
4
 70
0
 43
0.3500000006
 10
156.2714335327
 20
-2.3571432495
 10
155.4142774658
 20
-2.3571432495
 10
154.9857084961
 20
-1.9285708809
 10
154.9857084961
 20
-1.2857140274
  0
LINE
  5
3E8
100
AcDbEntity
  8
ASSI
100
AcDbLine
 62
250
  6
CONTINUOUS
 10
-149.4051303146
 20
0.0
 11
-149.0903465968
 21
0.0
  0
LINE
  5
3E9
100
AcDbEntity
  8
ASSI
100
AcDbLine
 62
250
  6
CONTINUOUS
 10
149.4051303146
 20
0.0
 11
149.0903465968
 21
0.0
  0
LINE
  5
3EA
100
AcDbEntity
  8
RACCORDO
100
AcDbLine
 62
250
  6
CONTINUOUS
 10
129.3818155997
 20
0.0
 11
149.0903465968
 21
0.0
  0
LINE
  5
3EB
100
AcDbEntity
  8
RACCORDO
100
AcDbLine
 62
250
  6
CONTINUOUS
 10
-129.3818155997
 20
0.0
 11
-149.0903465968
 21
0.0
  0
LWPOLYLINE
  5
3EC
100
AcDbEntity
  8
ASSI
100
AcDbPolyline
 62
250
  6
CONTINUOUS
 90
4
 70
0
 10
10.001861151
 20
-42.9056389905
 10
10.0017267837
 20
-42.9036499374
 10
10.0015930464
 20
-42.8994393929
 10
10.0014605346
 20
-42.893026179
  0
LINE
  5
3ED
100
AcDbEntity
  8
ASSI
100
AcDbLine
 62
250
  6
CONTINUOUS
 10
10.0014605346
 20
-42.893026179
 11
10.0012015396
 21
-42.8737160434
  0
LINE
  5
3EE
100
AcDbEntity
  8
ASSI
100
AcDbLine
 62
250
  6
CONTINUOUS
 10
10.0012015396
 20
-42.8737160434
 11
10.0007235719
 21
-42.8105633282
  0
LINE
  5
3EF
100
AcDbEntity
  8
ASSI
100
AcDbLine
 62
250
  6
CONTINUOUS
 10
10.0007235719
 20
-42.8105633282
 11
9.99998734
 21
-42.5735784762
  0
LINE
  5
3F0
100
AcDbEntity
  8
ASSI
100
AcDbLine
 62
250
  6
CONTINUOUS
 10
10.0005316103
 20
42.7677610639
 11
10.0000000677
 21
-42.5735785205
  0
LINE
  5
3F1
100
AcDbEntity
  8
ASSI
100
AcDbLine
 62
250
  6
CONTINUOUS
 10
10.0010868501
 20
42.8608538404
 11
10.0005316103
 21
42.7677610639
  0
LWPOLYLINE
  5
3F2
100
AcDbEntity
  8
RACCORDO
100
AcDbPolyline
 62
250
  6
CONTINUOUS
 90
28
 70
0
 10
12.337427949
 20
22.3649778288
 10
12.3388085895
 20
22.4101857578
 10
12.3427660777
 20
22.4551527092
 10
12.3493004135
 20
22.4998786829
 10
12.3584402733
 20
22.544560968
 10
12.3701569807
 20
22.5890022754
 10
12.3843645071
 20
22.6326107385
 10
12.4011123663
 20
22.6753599602
 10
12.4203510445
 20
22.7172763375
 10
12.4418459716
 20
22.7578471942
 10
12.4655991832
 20
22.7970088454
 10
12.4916086438
 20
22.8348249761
 10
12.5196336768
 20
22.8709739646
 10
12.5496974171
 20
22.9054533605
 10
12.5817767298
 20
22.9382656143
 10
12.6155615339
 20
22.9690964557
 10
12.6509523789
 20
22.997883519
 10
12.6880487154
 20
23.0246891699
 10
12.7268388138
 20
23.0493862352
 10
12.7674329504
 20
23.0720608234
 10
12.809720849
 20
23.0926268259
 10
12.8533599515
 20
23.1106987444
 10
12.8985104315
 20
23.1262602026
 10
12.9450121154
 20
23.1393275766
 10
12.9920419236
 20
23.1495644967
 10
13.0393254961
 20
23.1568588395
 10
13.0871371928
 20
23.1613227284
 10
13.1354770138
 20
23.1629561633
  0
LWPOLYLINE
  5
3F3
100
AcDbEntity
  8
ASSI
100
AcDbPolyline
 62
250
  6
CONTINUOUS
 90
6
 70
0
 10
10.001858756
 20
42.9056014638
 10
10.0017267645
 20
42.9036119878
 10
10.0015953318
 20
42.8994003188
 10
10.0014650456
 20
42.8929852266
 10
10.0013364893
 20
42.8843953161
 10
10.0010868501
 20
42.8608538404
  0
LWPOLYLINE
  5
3F4
100
AcDbEntity
  8
RACCORDO
100
AcDbPolyline
 62
250
  6
CONTINUOUS
 90
11
 70
0
 10
13.1379942865
 20
22.9727554149
 10
13.1385841432
 20
22.9530423389
 10
13.1392235199
 20
22.934746846
 10
13.1399078481
 20
22.9179996594
 10
13.1406322381
 20
22.90292044
 10
13.1413915141
 20
22.8896169303
 10
13.142180251
 20
22.8781841853
 10
13.1429928131
 20
22.8687038934
 10
13.1438233947
 20
22.8612437919
 10
13.1446660611
 20
22.8558571842
 10
13.1455147912
 20
22.8525825578
  0
LINE
  5
3F5
100
AcDbEntity
  8
RACCORDO
100
AcDbLine
 62
250
  6
CONTINUOUS
 10
13.1369796071
 20
23.0158617843
 11
13.1379942865
 21
22.9727554149
  0
LINE
  5
3F6
100
AcDbEntity
  8
RACCORDO
100
AcDbLine
 62
250
  6
CONTINUOUS
 10
13.1362084302
 20
23.0628361537
 11
13.1369796071
 21
23.0158617843
  0
LINE
  5
3F7
100
AcDbEntity
  8
RACCORDO
100
AcDbLine
 62
250
  6
CONTINUOUS
 10
13.1357027569
 20
23.1123383703
 11
13.1362084302
 21
23.0628361537
  0
LINE
  5
3F8
100
AcDbEntity
  8
RACCORDO
100
AcDbLine
 62
250
  6
CONTINUOUS
 10
13.1354770138
 20
23.1629561633
 11
13.1357027569
 21
23.1123383703
  0
LINE
  5
3F9
100
AcDbEntity
  8
RACCORDO
100
AcDbLine
 62
250
  6
CONTINUOUS
 10
12.337427949
 20
-22.3649778288
 11
12.3189639097
 21
-15.9016130587
  0
LINE
  5
3FA
100
AcDbEntity
  8
RACCORDO
100
AcDbLine
 62
250
  6
CONTINUOUS
 10
12.6473167138
 20
-22.3545859371
 11
12.6369252622
 21
-18.1563212858
  0
LINE
  5
3FB
100
AcDbEntity
  8
RACCORDO
100
AcDbLine
 62
250
  6
CONTINUOUS
 10
12.3189639097
 20
-15.9016130587
 11
12.3077002567
 21
-10.8691928271
  0
LINE
  5
3FC
100
AcDbEntity
  8
RACCORDO
100
AcDbLine
 62
250
  6
CONTINUOUS
 10
12.6369252622
 20
-18.1563212858
 11
12.6271365294
 21
-12.543654635
  0
LINE
  5
3FD
100
AcDbEntity
  8
RACCORDO
100
AcDbLine
 62
250
  6
CONTINUOUS
 10
12.3077002567
 20
-10.8691928271
 11
12.3011882835
 21
-6.389801632
  0
LINE
  5
3FE
100
AcDbEntity
  8
RACCORDO
100
AcDbLine
 62
250
  6
CONTINUOUS
 10
12.6271365294
 20
-12.543654635
 11
12.6207917987
 21
-6.9469732148
  0
LINE
  5
3FF
100
AcDbEntity
  8
RACCORDO
100
AcDbLine
 62
250
  6
CONTINUOUS
 10
12.3011882835
 20
-6.389801632
 11
12.2981717797
 21
-1.9119735254
  0
LINE
  5
400
100
AcDbEntity
  8
RACCORDO
100
AcDbLine
 62
250
  6
CONTINUOUS
 10
12.6207917987
 20
-6.9469732148
 11
12.6182374709
 21
-1.3520615019
  0
LINE
  5
401
100
AcDbEntity
  8
RACCORDO
100
AcDbLine
 62
7
  6
CONTINUOUS
 10
12.8
 20
22.201902651
 11
12.8
 21
-22.201902651
  0
LINE
  5
402
100
AcDbEntity
  8
RACCORDO
100
AcDbLine
 62
250
  6
CONTINUOUS
 10
12.2981717797
 20
-1.9119735254
 11
12.2989600875
 21
3.6837529424
  0
LINE
  5
403
100
AcDbEntity
  8
RACCORDO
100
AcDbLine
 62
250
  6
CONTINUOUS
 10
12.6182374709
 20
-1.3520615019
 11
12.6196844507
 21
5.3614355021
  0
LINE
  5
404
100
AcDbEntity
  8
RACCORDO
100
AcDbLine
 62
250
  6
CONTINUOUS
 10
12.6196844507
 20
5.3614355021
 11
12.6249686786
 21
10.9582082246
  0
LINE
  5
405
100
AcDbEntity
  8
RACCORDO
100
AcDbLine
 62
250
  6
CONTINUOUS
 10
12.2989600875
 20
3.6837529424
 11
12.30413894
 21
8.7230884926
  0
LINE
  5
406
100
AcDbEntity
  8
RACCORDO
100
AcDbLine
 62
250
  6
CONTINUOUS
 10
12.6249686786
 20
10.9582082246
 11
12.6360881146
 21
17.7430962492
  0
LINE
  5
407
100
AcDbEntity
  8
RACCORDO
100
AcDbLine
 62
250
  6
CONTINUOUS
 10
12.30413894
 20
8.7230884926
 11
12.3137253968
 21
13.7557938646
  0
LINE
  5
408
100
AcDbEntity
  8
RACCORDO
100
AcDbLine
 62
250
  6
CONTINUOUS
 10
12.3137253968
 20
13.7557938646
 11
12.3330547403
 21
20.9449475814
  0
LINE
  5
409
100
AcDbEntity
  8
RACCORDO
100
AcDbLine
 62
250
  6
CONTINUOUS
 10
12.6360881146
 20
17.7430962492
 11
12.6473167138
 21
22.3545859371
  0
LINE
  5
40A
100
AcDbEntity
  8
RACCORDO
100
AcDbLine
 62
250
  6
CONTINUOUS
 10
12.3330547403
 20
20.9449475814
 11
12.337427949
 21
22.3649778288
  0
LINE
  5
40B
100
AcDbEntity
  8
RACCORDO
100
AcDbLine
 62
250
  6
CONTINUOUS
 10
13.1354770138
 20
-23.1629561633
 11
13.1357027418
 21
-23.1123382971
  0
LINE
  5
40C
100
AcDbEntity
  8
RACCORDO
100
AcDbLine
 62
250
  6
CONTINUOUS
 10
13.1357027418
 20
-23.1123382971
 11
13.1362084041
 21
-23.0628360344
  0
LINE
  5
40D
100
AcDbEntity
  8
RACCORDO
100
AcDbLine
 62
250
  6
CONTINUOUS
 10
13.1362084041
 20
-23.0628360344
 11
13.1369795739
 21
-23.0158616472
  0
LWPOLYLINE
  5
40E
100
AcDbEntity
  8
RACCORDO
100
AcDbPolyline
 62
250
  6
CONTINUOUS
 90
12
 70
0
 10
13.1369795739
 20
-23.0158616472
 10
13.13799425
 20
-22.9727552847
 10
13.1385841065
 20
-22.9530422192
 10
13.1392234838
 20
-22.9347467402
 10
13.1399078135
 20
-22.9179995701
 10
13.1406322059
 20
-22.902920368
 10
13.1413914852
 20
-22.8896168757
 10
13.1421802263
 20
-22.8781841472
 10
13.1429927934
 20
-22.8687038695
 10
13.1438233807
 20
-22.8612437795
 10
13.1446660536
 20
-22.8558571798
 10
13.1455147912
 20
-22.8525825578
  0
LWPOLYLINE
  5
40F
100
AcDbEntity
  8
RACCORDO
100
AcDbPolyline
 62
250
  6
CONTINUOUS
 90
28
 70
0
 10
12.6473167138
 20
22.3545859371
 10
12.6481142582
 20
22.382730423
 10
12.6505063315
 20
22.4109035313
 10
12.6545067
 20
22.4390144188
 10
12.6601303714
 20
22.4670017365
 10
12.667377415
 20
22.4947387613
 10
12.6762154187
 20
22.5220382366
 10
12.6866181151
 20
22.5488015088
 10
12.6985585617
 20
22.5749464563
 10
12.711968727
 20
22.600321433
 10
12.7267808244
 20
22.624817247
 10
12.7429558041
 20
22.6483875837
 10
12.7604554769
 20
22.6709820643
 10
12.7792280608
 20
22.692533748
 10
12.7992062893
 20
22.7129658345
 10
12.8203274751
 20
22.7322148652
 10
12.8424614703
 20
22.7501712345
 10
12.8655919617
 20
22.7668298341
 10
12.8898457027
 20
22.782257057
 10
12.9152327251
 20
22.7964035365
 10
12.9416235761
 20
22.8091425114
 10
12.9689493755
 20
22.8203944158
 10
12.997208553
 20
22.8301042869
 10
13.0262408025
 20
22.8381646474
 10
13.0557179873
 20
22.8444629977
 10
13.0854550512
 20
22.8489665126
 10
13.1154230308
 20
22.8516765978
 10
13.1455147912
 20
22.8525825578
  0
LWPOLYLINE
  5
410
100
AcDbEntity
  8
RACCORDO
100
AcDbPolyline
 62
250
  6
CONTINUOUS
 90
11
 70
0
 10
58.4726394083
 20
22.3623661828
 10
58.4529608619
 20
22.361755577
 10
58.4346981939
 20
22.3610938522
 10
58.4179816172
 20
22.3603857266
 10
58.4029303205
 20
22.3596362489
 10
58.3896516197
 20
22.3588507631
 10
58.3782401916
 20
22.3580348695
 10
58.3687773999
 20
22.3571943856
 10
58.361330714
 20
22.3563353039
 10
58.3559532289
 20
22.3554637496
 10
58.3526832862
 20
22.3545859371
  0
LWPOLYLINE
  5
411
100
AcDbEntity
  8
RACCORDO
100
AcDbPolyline
 62
250
  6
CONTINUOUS
 90
11
 70
0
 10
129.4760527748
 20
22.3650692445
 10
129.4562916791
 20
22.3644746422
 10
129.4379505469
 20
22.3638299294
 10
129.4211608142
 20
22.3631397261
 10
129.4060427996
 20
22.3624089786
 10
129.3927048411
 20
22.3616429238
 10
129.38124252
 20
22.3608470512
 10
129.3717379768
 20
22.3600270643
 10
129.3642593214
 20
22.3591888393
 10
129.3588601458
 20
22.3583383832
 10
129.3555791399
 20
22.3574817908
  0
LINE
  5
412
100
AcDbEntity
  8
RACCORDO
100
AcDbLine
 62
250
  6
CONTINUOUS
 10
58.5156738106
 20
22.3634170186
 11
58.4726394083
 21
22.3623661828
  0
LINE
  5
413
100
AcDbEntity
  8
RACCORDO
100
AcDbLine
 62
250
  6
CONTINUOUS
 10
129.519259247
 20
22.3660914626
 11
129.4760527748
 21
22.3650692445
  0
LINE
  5
414
100
AcDbEntity
  8
RACCORDO
100
AcDbLine
 62
250
  6
CONTINUOUS
 10
58.5625762498
 20
22.3642164432
 11
58.5156738106
 21
22.3634170186
  0
LINE
  5
415
100
AcDbEntity
  8
RACCORDO
100
AcDbLine
 62
250
  6
CONTINUOUS
 10
129.5663336717
 20
22.366867334
 11
129.519259247
 21
22.3660914626
  0
LINE
  5
416
100
AcDbEntity
  8
RACCORDO
100
AcDbLine
 62
250
  6
CONTINUOUS
 10
129.6159290766
 20
22.3673746577
 11
129.5663336717
 21
22.366867334
  0
LINE
  5
417
100
AcDbEntity
  8
RACCORDO
100
AcDbLine
 62
250
  6
CONTINUOUS
 10
129.6666263563
 20
22.3675989178
 11
129.6159290766
 21
22.3673746577
  0
LINE
  5
418
100
AcDbEntity
  8
RACCORDO
100
AcDbLine
 62
250
  6
CONTINUOUS
 10
-129.6666263563
 20
22.3675989178
 11
-129.6159290367
 21
22.3673746926
  0
LINE
  5
419
100
AcDbEntity
  8
RACCORDO
100
AcDbLine
 62
250
  6
CONTINUOUS
 10
-58.637240719
 20
22.364896528
 11
-58.5870638589
 21
22.3645144855
  0
LINE
  5
41A
100
AcDbEntity
  8
RACCORDO
100
AcDbLine
 62
250
  6
CONTINUOUS
 10
-129.6159290367
 20
22.3673746926
 11
-129.5663336157
 21
22.3668673954
  0
LINE
  5
41B
100
AcDbEntity
  8
RACCORDO
100
AcDbLine
 62
250
  6
CONTINUOUS
 10
-58.5870638589
 20
22.3645144855
 11
-58.5387226564
 21
22.3638497845
  0
LINE
  5
41C
100
AcDbEntity
  8
RACCORDO
100
AcDbLine
 62
250
  6
CONTINUOUS
 10
-129.5663336157
 20
22.3668673954
 11
-129.5192591959
 21
22.3660915423
  0
LWPOLYLINE
  5
41D
100
AcDbEntity
  8
RACCORDO
100
AcDbPolyline
 62
250
  6
CONTINUOUS
 90
13
 70
0
 10
-58.5387226564
 20
22.3638497845
 10
-58.49359334
 20
22.3629213489
 10
-58.4726392296
 20
22.3623662167
 10
-58.4529606958
 20
22.3617556109
 10
-58.4346980457
 20
22.3610938854
 10
-58.4179814905
 20
22.3603857582
 10
-58.4029302172
 20
22.3596362782
 10
-58.3896515403
 20
22.3588507893
 10
-58.3782401355
 20
22.3580348919
 10
-58.3687773642
 20
22.3571944035
 10
-58.3613306952
 20
22.3563353165
 10
-58.3559532223
 20
22.3554637564
 10
-58.3526832862
 20
22.3545859372
  0
LWPOLYLINE
  5
41E
100
AcDbEntity
  8
RACCORDO
100
AcDbPolyline
 62
250
  6
CONTINUOUS
 90
12
 70
0
 10
-129.5192591959
 20
22.3660915423
 10
-129.4760527403
 20
22.3650693337
 10
-129.456291654
 20
22.3644747328
 10
-129.437950531
 20
22.3638300189
 10
-129.4211608068
 20
22.3631398124
 10
-129.4060427985
 20
22.3624090594
 10
-129.3927048441
 20
22.3616429966
 10
-129.3812425254
 20
22.3608471138
 10
-129.3717379821
 20
22.3600271145
 10
-129.364259325
 20
22.359188875
 10
-129.3588601473
 20
22.3583384022
 10
-129.3555791399
 20
22.3574817909
  0
LWPOLYLINE
  5
41F
100
AcDbEntity
  8
RACCORDO
100
AcDbPolyline
 62
250
  6
CONTINUOUS
 90
28
 70
0
 10
-84.1455147912
 20
22.8525825578
 10
-84.1173695695
 20
22.8517901822
 10
-84.089185828
 20
22.8494031331
 10
-84.0610545943
 20
22.8454060617
 10
-84.0330276369
 20
22.8397801284
 10
-84.005242468
 20
22.8325248663
 10
-83.9779160326
 20
22.8236813638
 10
-83.9511589555
 20
22.8132848002
 10
-83.9250385356
 20
22.8013615317
 10
-83.8996948142
 20
22.7879771056
 10
-83.8752406882
 20
22.7732037563
 10
-83.8517159605
 20
22.7570790222
 10
-83.829147428
 20
22.7396236865
 10
-83.8075936263
 20
22.7208774943
 10
-83.7871443704
 20
22.7009131191
 10
-83.7678734527
 20
22.6797997711
 10
-83.7498920413
 20
22.6576674596
 10
-83.7332056316
 20
22.6345312871
 10
-83.7177538314
 20
22.610271944
 10
-83.7035871894
 20
22.5848824427
 10
-83.6908305638
 20
22.5584900173
 10
-83.6795635111
 20
22.5311639929
 10
-83.669841186
 20
22.5029080822
 10
-83.6617698895
 20
22.4738809884
 10
-83.6554609046
 20
22.4444053766
 10
-83.6509474281
 20
22.414664367
 10
-83.6482289556
 20
22.3846888096
 10
-83.6473167138
 20
22.3545859371
  0
LWPOLYLINE
  5
420
100
AcDbEntity
  8
RACCORDO
100
AcDbPolyline
 62
250
  6
CONTINUOUS
 90
28
 70
0
 10
-84.1354770138
 20
23.1629561633
 10
-84.0902812002
 20
23.1615854901
 10
-84.0453116348
 20
23.1576322162
 10
-84.0005683175
 20
23.1510963415
 10
-83.9558387506
 20
23.1419435592
 10
-83.9113354319
 20
23.1302081762
 10
-83.8676958545
 20
23.1159931132
 10
-83.8249690697
 20
23.0992533763
 10
-83.7831060264
 20
23.0800339595
 10
-83.7425970635
 20
23.0585727657
 10
-83.7035106187
 20
23.034878953
 10
-83.6657782543
 20
23.0089433633
 10
-83.6296849975
 20
22.9809764245
 10
-83.5952140992
 20
22.950943274
 10
-83.5623823084
 20
22.9188787743
 10
-83.5315248992
 20
22.8850979419
 10
-83.5027076085
 20
22.8496981668
 10
-83.4758646995
 20
22.8125820588
 10
-83.4511342353
 20
22.7737724641
 10
-83.4284340632
 20
22.7331622787
 10
-83.407846336
 20
22.6908586065
 10
-83.3897555747
 20
22.6472056044
 10
-83.3741784118
 20
22.6020462192
 10
-83.3610982149
 20
22.5555375041
 10
-83.3508496078
 20
22.5084947758
 10
-83.3435441317
 20
22.4611898066
 10
-83.3390702455
 20
22.4133508243
 10
-83.337427949
 20
22.3649778288
  0
LINE
  5
421
100
AcDbEntity
  8
RACCORDO
100
AcDbLine
 62
250
  6
CONTINUOUS
 10
57.8544852088
 20
22.8525825578
 11
57.701902651
 21
22.7
  0
LINE
  5
422
100
AcDbEntity
  8
RACCORDO
100
AcDbLine
 62
250
  6
CONTINUOUS
 10
12.6473167138
 20
-22.3545859371
 11
12.8
 21
-22.201902651
  0
LINE
  5
423
100
AcDbEntity
  8
RACCORDO
100
AcDbLine
 62
250
  6
CONTINUOUS
 10
58.3526832862
 20
22.3545859371
 11
58.2
 21
22.201902651
  0
LINE
  5
424
100
AcDbEntity
  8
RACCORDO
100
AcDbLine
 62
250
  6
CONTINUOUS
 10
13.1455147912
 20
-22.8525825578
 11
13.298097349
 21
-22.7
  0
LWPOLYLINE
  5
425
100
AcDbEntity
  8
RACCORDO
100
AcDbPolyline
 62
250
  6
CONTINUOUS
 90
11
 70
0
 10
-12.5273605917
 20
22.3623661828
 10
-12.5470391381
 20
22.361755577
 10
-12.5653018061
 20
22.3610938522
 10
-12.5820183828
 20
22.3603857266
 10
-12.5970696795
 20
22.3596362489
 10
-12.6103483803
 20
22.3588507631
 10
-12.6217598084
 20
22.3580348695
 10
-12.6312226001
 20
22.3571943856
 10
-12.638669286
 20
22.3563353039
 10
-12.6440467711
 20
22.3554637496
 10
-12.6473167138
 20
22.3545859371
  0
LWPOLYLINE
  5
426
100
AcDbEntity
  8
RACCORDO
100
AcDbPolyline
 62
250
  6
CONTINUOUS
 90
11
 70
0
 10
-83.5273605917
 20
22.3623661828
 10
-83.5470391381
 20
22.361755577
 10
-83.5653018061
 20
22.3610938522
 10
-83.5820183828
 20
22.3603857266
 10
-83.5970696795
 20
22.3596362489
 10
-83.6103483803
 20
22.3588507631
 10
-83.6217598084
 20
22.3580348695
 10
-83.6312226001
 20
22.3571943856
 10
-83.638669286
 20
22.3563353039
 10
-83.6440467711
 20
22.3554637496
 10
-83.6473167138
 20
22.3545859371
  0
LINE
  5
427
100
AcDbEntity
  8
RACCORDO
100
AcDbLine
 62
250
  6
CONTINUOUS
 10
-12.4843261894
 20
22.3634170186
 11
-12.5273605917
 21
22.3623661828
  0
LINE
  5
428
100
AcDbEntity
  8
RACCORDO
100
AcDbLine
 62
250
  6
CONTINUOUS
 10
-83.4843261894
 20
22.3634170186
 11
-83.5273605917
 21
22.3623661828
  0
LINE
  5
429
100
AcDbEntity
  8
RACCORDO
100
AcDbLine
 62
250
  6
CONTINUOUS
 10
-12.4374237502
 20
22.3642164432
 11
-12.4843261894
 21
22.3634170186
  0
LINE
  5
42A
100
AcDbEntity
  8
RACCORDO
100
AcDbLine
 62
250
  6
CONTINUOUS
 10
-83.4374237502
 20
22.3642164432
 11
-83.4843261894
 21
22.3634170186
  0
LINE
  5
42B
100
AcDbEntity
  8
RACCORDO
100
AcDbLine
 62
250
  6
CONTINUOUS
 10
-12.3879885447
 20
22.3647416977
 11
-12.4374237502
 21
22.3642164432
  0
LINE
  5
42C
100
AcDbEntity
  8
RACCORDO
100
AcDbLine
 62
250
  6
CONTINUOUS
 10
-83.3879885447
 20
22.3647416977
 11
-83.4374237502
 21
22.3642164432
  0
LWPOLYLINE
  5
42D
100
AcDbEntity
  8
RACCORDO
100
AcDbPolyline
 62
250
  6
CONTINUOUS
 90
4
 70
0
 10
58.662572051
 20
22.3649778288
 10
58.6372407705
 20
22.3648965202
 10
58.6120114553
 20
22.3647416977
 10
58.5625762498
 20
22.3642164432
  0
LINE
  5
42E
100
AcDbEntity
  8
RACCORDO
100
AcDbLine
 62
250
  6
CONTINUOUS
 10
-12.337427949
 20
22.3649778288
 11
-12.3879885447
 21
22.3647416977
  0
LINE
  5
42F
100
AcDbEntity
  8
RACCORDO
100
AcDbLine
 62
250
  6
CONTINUOUS
 10
-83.337427949
 20
22.3649778288
 11
-83.3879885447
 21
22.3647416977
  0
LINE
  5
430
100
AcDbEntity
  8
RACCORDO
100
AcDbLine
 62
250
  6
CONTINUOUS
 10
84.1455147912
 20
22.8525825578
 11
85.3052837009
 21
22.85579955
  0
LWPOLYLINE
  5
431
100
AcDbEntity
  8
RACCORDO
100
AcDbPolyline
 62
250
  6
CONTINUOUS
 90
3
 70
0
 10
84.1354770138
 20
23.1629561633
 10
90.8558892611
 20
23.181931649
 10
91.4099403796
 20
23.1833071623
  0
LINE
  5
432
100
AcDbEntity
  8
RACCORDO
100
AcDbLine
 62
250
  6
CONTINUOUS
 10
13.1354770138
 20
23.1629561633
 11
20.255480625
 21
23.1829288118
  0
LINE
  5
433
100
AcDbEntity
  8
RACCORDO
100
AcDbLine
 62
250
  6
CONTINUOUS
 10
-57.8645229862
 20
23.1629561633
 11
-50.1075387753
 21
23.1844750745
  0
LINE
  5
434
100
AcDbEntity
  8
RACCORDO
100
AcDbLine
 62
250
  6
CONTINUOUS
 10
85.3052837009
 20
22.85579955
 11
86.9855301883
 21
22.859967369
  0
LINE
  5
435
100
AcDbEntity
  8
RACCORDO
100
AcDbLine
 62
250
  6
CONTINUOUS
 10
91.4099403796
 20
23.1833071623
 11
92.5187109499
 21
23.1859449912
  0
LINE
  5
436
100
AcDbEntity
  8
RACCORDO
100
AcDbLine
 62
250
  6
CONTINUOUS
 10
86.9855301883
 20
22.859967369
 11
88.0916262371
 21
22.8624239737
  0
LINE
  5
437
100
AcDbEntity
  8
RACCORDO
100
AcDbLine
 62
250
  6
CONTINUOUS
 10
13.1455147912
 20
22.8525825578
 11
17.7147019453
 21
22.8637260426
  0
LINE
  5
438
100
AcDbEntity
  8
RACCORDO
100
AcDbLine
 62
250
  6
CONTINUOUS
 10
92.5187109499
 20
23.1859449912
 11
93.6283818028
 21
23.1884179171
  0
LINE
  5
439
100
AcDbEntity
  8
RACCORDO
100
AcDbLine
 62
250
  6
CONTINUOUS
 10
-128.8674761729
 20
23.1667029151
 11
-124.6842910417
 21
23.1764932796
  0
LWPOLYLINE
  5
43A
100
AcDbEntity
  8
RACCORDO
100
AcDbPolyline
 62
250
  6
CONTINUOUS
 90
3
 70
0
 10
88.0916262371
 20
22.8624239737
 10
89.199802886
 20
22.8646970753
 10
89.7538972301
 20
22.8657786288
  0
LINE
  5
43B
100
AcDbEntity
  8
RACCORDO
100
AcDbLine
 62
250
  6
CONTINUOUS
 10
-57.8544852088
 20
22.8525825578
 11
-52.0113117432
 21
22.8662227457
  0
LINE
  5
43C
100
AcDbEntity
  8
RACCORDO
100
AcDbLine
 62
250
  6
CONTINUOUS
 10
93.6283818028
 20
23.1884179171
 11
94.7504093953
 21
23.1907285842
  0
LWPOLYLINE
  5
43D
100
AcDbEntity
  8
RACCORDO
100
AcDbPolyline
 62
250
  6
CONTINUOUS
 90
3
 70
0
 10
89.7538972301
 20
22.8657786288
 10
90.8620539394
 20
22.8678306741
 10
91.4158932313
 20
22.8688065057
  0
LINE
  5
43E
100
AcDbEntity
  8
RACCORDO
100
AcDbLine
 62
250
  6
CONTINUOUS
 10
94.7504093953
 20
23.1907285842
 11
95.8938634269
 21
23.1928779634
  0
LINE
  5
43F
100
AcDbEntity
  8
RACCORDO
100
AcDbLine
 62
250
  6
CONTINUOUS
 10
20.255480625
 20
23.1829288118
 11
25.3549969356
 21
23.1936822145
  0
LINE
  5
440
100
AcDbEntity
  8
RACCORDO
100
AcDbLine
 62
250
  6
CONTINUOUS
 10
91.4158932313
 20
22.8688065057
 11
92.5242420722
 21
22.870656781
  0
LINE
  5
441
100
AcDbEntity
  8
RACCORDO
100
AcDbLine
 62
250
  6
CONTINUOUS
 10
95.8938634269
 20
23.1928779634
 11
97.0760291048
 21
23.1948720627
  0
LINE
  5
442
100
AcDbEntity
  8
RACCORDO
100
AcDbLine
 62
250
  6
CONTINUOUS
 10
-50.1075387753
 20
23.1844750745
 11
-44.3695794275
 21
23.1957211142
  0
LINE
  5
443
100
AcDbEntity
  8
RACCORDO
100
AcDbLine
 62
250
  6
CONTINUOUS
 10
-124.6842910417
 20
23.1764932796
 11
-116.0692563312
 21
23.1946719009
  0
LWPOLYLINE
  5
444
100
AcDbEntity
  8
RACCORDO
100
AcDbPolyline
 62
250
  6
CONTINUOUS
 90
3
 70
0
 10
92.5242420722
 20
22.870656781
 10
93.6334910598
 20
22.8723729226
 10
94.1925883589
 20
22.8731853807
  0
LINE
  5
445
100
AcDbEntity
  8
RACCORDO
100
AcDbLine
 62
250
  6
CONTINUOUS
 10
17.7147019453
 20
22.8637260426
 11
23.4468308128
 21
22.8735439502
  0
LINE
  5
446
100
AcDbEntity
  8
RACCORDO
100
AcDbLine
 62
250
  6
CONTINUOUS
 10
-128.8574585972
 20
22.8555559462
 11
-118.3400182089
 21
22.8739882053
  0
LWPOLYLINE
  5
447
100
AcDbEntity
  8
RACCORDO
100
AcDbPolyline
 62
250
  6
CONTINUOUS
 90
3
 70
0
 10
94.1925883589
 20
22.8731853807
 10
95.3217282937
 20
22.8747238476
 10
95.8981108176
 20
22.8754522192
  0
LINE
  5
448
100
AcDbEntity
  8
RACCORDO
100
AcDbLine
 62
250
  6
CONTINUOUS
 10
-52.0113117432
 20
22.8662227457
 11
-45.6407608191
 21
22.8760093261
  0
LINE
  5
449
100
AcDbEntity
  8
RACCORDO
100
AcDbLine
 62
250
  6
CONTINUOUS
 10
97.0760291048
 20
23.1948720627
 11
98.9606532563
 21
23.1975534577
  0
LINE
  5
44A
100
AcDbEntity
  8
RACCORDO
100
AcDbLine
 62
250
  6
CONTINUOUS
 10
95.8981108176
 20
22.8754522192
 11
97.0798121584
 21
22.8768339871
  0
LWPOLYLINE
  5
44B
100
AcDbEntity
  8
RACCORDO
100
AcDbPolyline
 62
250
  6
CONTINUOUS
 90
3
 70
0
 10
97.0798121584
 20
22.8768339871
 10
98.3195997959
 20
22.878103733
 10
98.9636631563
 20
22.8786957547
  0
LINE
  5
44C
100
AcDbEntity
  8
RACCORDO
100
AcDbLine
 62
250
  6
CONTINUOUS
 10
23.4468308128
 20
22.8735439502
 11
28.5460348046
 21
22.8791817531
  0
LINE
  5
44D
100
AcDbEntity
  8
RACCORDO
100
AcDbLine
 62
250
  6
CONTINUOUS
 10
98.9606532563
 20
23.1975534577
 11
101.0111322183
 21
23.1997655818
  0
LINE
  5
44E
100
AcDbEntity
  8
RACCORDO
100
AcDbLine
 62
250
  6
CONTINUOUS
 10
25.3549969356
 20
23.1936822145
 11
29.8185855963
 21
23.199586928
  0
LINE
  5
44F
100
AcDbEntity
  8
RACCORDO
100
AcDbLine
 62
250
  6
CONTINUOUS
 10
98.9636631563
 20
22.8786957547
 11
100.3104904575
 21
22.8797562997
  0
LINE
  5
450
100
AcDbEntity
  8
RACCORDO
100
AcDbLine
 62
250
  6
CONTINUOUS
 10
-44.3695794275
 20
23.1957211142
 11
-39.2688656486
 21
23.2010511609
  0
LINE
  5
451
100
AcDbEntity
  8
RACCORDO
100
AcDbLine
 62
250
  6
CONTINUOUS
 10
-116.0692563312
 20
23.1946719009
 11
-110.9546925177
 21
23.2005194728
  0
LINE
  5
452
100
AcDbEntity
  8
RACCORDO
100
AcDbLine
 62
250
  6
CONTINUOUS
 10
100.3104904575
 20
22.8797562997
 11
101.7361190662
 21
22.8806378731
  0
LINE
  5
453
100
AcDbEntity
  8
RACCORDO
100
AcDbLine
 62
250
  6
CONTINUOUS
 10
-45.6407608191
 20
22.8760093261
 11
-39.9045657178
 21
22.8808193278
  0
LINE
  5
454
100
AcDbEntity
  8
RACCORDO
100
AcDbLine
 62
250
  6
CONTINUOUS
 10
-118.3400182089
 20
22.8739882053
 11
-112.0819641929
 21
22.8800984742
  0
LINE
  5
455
100
AcDbEntity
  8
RACCORDO
100
AcDbLine
 62
250
  6
CONTINUOUS
 10
101.0111322183
 20
23.1997655818
 11
104.0252564756
 21
23.2016898524
  0
LINE
  5
456
100
AcDbEntity
  8
RACCORDO
100
AcDbLine
 62
250
  6
CONTINUOUS
 10
101.7361190662
 20
22.8806378731
 11
104.0261432305
 21
22.8815301211
  0
LINE
  5
457
100
AcDbEntity
  8
RACCORDO
100
AcDbLine
 62
250
  6
CONTINUOUS
 10
28.5460348046
 20
22.8791817531
 11
33.6431739837
 21
22.8816677652
  0
LINE
  5
458
100
AcDbEntity
  8
RACCORDO
100
AcDbLine
 62
250
  6
CONTINUOUS
 10
29.8185855963
 20
23.199586928
 11
34.279604311
 21
23.2020487927
  0
LINE
  5
459
100
AcDbEntity
  8
RACCORDO
100
AcDbLine
 62
7
  6
CONTINUOUS
 10
128.701902651
 20
22.7
 11
84.298097349
 21
22.7
  0
LINE
  5
45A
100
AcDbEntity
  8
RACCORDO
100
AcDbLine
 62
7
  6
CONTINUOUS
 10
57.701902651
 20
22.7
 11
13.298097349
 21
22.7
  0
LINE
  5
45B
100
AcDbEntity
  8
RACCORDO
100
AcDbLine
 62
7
  6
CONTINUOUS
 10
-13.298097349
 20
22.7
 11
-57.701902651
 21
22.7
  0
LINE
  5
45C
100
AcDbEntity
  8
RACCORDO
100
AcDbLine
 62
7
  6
CONTINUOUS
 10
-84.298097349
 20
22.7
 11
-128.701902651
 21
22.7
  0
LINE
  5
45D
100
AcDbEntity
  8
RACCORDO
100
AcDbLine
 62
250
  6
CONTINUOUS
 10
104.0261432305
 20
22.8815301211
 11
105.6549552318
 21
22.8817934696
  0
LINE
  5
45E
100
AcDbEntity
  8
RACCORDO
100
AcDbLine
 62
250
  6
CONTINUOUS
 10
-110.9546925177
 20
23.2005194728
 11
-106.5
 21
23.2020633323
  0
LINE
  5
45F
100
AcDbEntity
  8
RACCORDO
100
AcDbLine
 62
250
  6
CONTINUOUS
 10
-112.0819641929
 20
22.8800984742
 11
-104.8931834283
 21
22.8817044898
  0
LINE
  5
460
100
AcDbEntity
  8
RACCORDO
100
AcDbLine
 62
250
  6
CONTINUOUS
 10
-39.9045657178
 20
22.8808193278
 11
-33.535206328
 21
22.8816476377
  0
LWPOLYLINE
  5
461
100
AcDbEntity
  8
RACCORDO
100
AcDbPolyline
 62
250
  6
CONTINUOUS
 90
3
 70
0
 10
105.6549552318
 20
22.8817934696
 10
107.1594605845
 20
22.8817891464
 10
107.8009834517
 20
22.8817165916
  0
LINE
  5
462
100
AcDbEntity
  8
RACCORDO
100
AcDbLine
 62
250
  6
CONTINUOUS
 10
-39.2688656486
 20
23.2010511609
 11
-34.1717776589
 21
23.2020275273
  0
LINE
  5
463
100
AcDbEntity
  8
RACCORDO
100
AcDbLine
 62
250
  6
CONTINUOUS
 10
104.0252564756
 20
23.2016898524
 11
107.1597071313
 21
23.2020217759
  0
LINE
  5
464
100
AcDbEntity
  8
RACCORDO
100
AcDbLine
 62
250
  6
CONTINUOUS
 10
33.6431739837
 20
22.8816677652
 11
39.3763095821
 21
22.8810574713
  0
LWPOLYLINE
  5
465
100
AcDbEntity
  8
RACCORDO
100
AcDbPolyline
 62
250
  6
CONTINUOUS
 90
3
 70
0
 10
107.8009834517
 20
22.8817165916
 10
109.0296661598
 20
22.8814610682
 10
109.6168260007
 20
22.8812780996
  0
LINE
  5
466
100
AcDbEntity
  8
RACCORDO
100
AcDbLine
 62
250
  6
CONTINUOUS
 10
107.1597071313
 20
23.2020217759
 11
108.4252911277
 21
23.2017775858
  0
LWPOLYLINE
  5
467
100
AcDbEntity
  8
RACCORDO
100
AcDbPolyline
 62
250
  6
CONTINUOUS
 90
3
 70
0
 10
109.6168260007
 20
22.8812780996
 10
110.7416081858
 20
22.8808263265
 10
111.27923053
 20
22.8805575219
  0
LINE
  5
468
100
AcDbEntity
  8
RACCORDO
100
AcDbLine
 62
250
  6
CONTINUOUS
 10
34.279604311
 20
23.2020487927
 11
38.740167011
 21
23.2013454779
  0
LINE
  5
469
100
AcDbEntity
  8
RACCORDO
100
AcDbLine
 62
250
  6
CONTINUOUS
 10
108.4252911277
 20
23.2017775858
 11
109.6180014268
 21
23.2013110841
  0
LWPOLYLINE
  5
46A
100
AcDbEntity
  8
RACCORDO
100
AcDbPolyline
 62
250
  6
CONTINUOUS
 90
3
 70
0
 10
111.27923053
 20
22.8805575219
 10
112.316538185
 20
22.8799516247
 10
112.8162234958
 20
22.8796145321
  0
LINE
  5
46B
100
AcDbEntity
  8
RACCORDO
100
AcDbLine
 62
250
  6
CONTINUOUS
 10
-106.5
 20
23.2021593356
 11
-101.9519945806
 21
23.2005318665
  0
LINE
  5
46C
100
AcDbEntity
  8
RACCORDO
100
AcDbLine
 62
250
  6
CONTINUOUS
 10
109.6180014268
 20
23.2013110841
 11
110.7432145844
 21
23.2006650498
  0
LINE
  5
46D
100
AcDbEntity
  8
RACCORDO
100
AcDbLine
 62
250
  6
CONTINUOUS
 10
-104.8931834283
 20
22.8817044898
 11
-99.345844199
 21
22.8790208025
  0
LINE
  5
46E
100
AcDbEntity
  8
RACCORDO
100
AcDbLine
 62
250
  6
CONTINUOUS
 10
-33.535206328
 20
22.8816476377
 11
-27.7991366688
 21
22.8785471791
  0
LWPOLYLINE
  5
46F
100
AcDbEntity
  8
RACCORDO
100
AcDbPolyline
 62
250
  6
CONTINUOUS
 90
3
 70
0
 10
112.8162234958
 20
22.8796145321
 10
113.7894512016
 20
22.8788795268
 10
114.2629935965
 20
22.8784816141
  0
LINE
  5
470
100
AcDbEntity
  8
RACCORDO
100
AcDbLine
 62
250
  6
CONTINUOUS
 10
110.7432145844
 20
23.2006650498
 11
111.8062511112
 21
23.1998582038
  0
LINE
  5
471
100
AcDbEntity
  8
RACCORDO
100
AcDbLine
 62
250
  6
CONTINUOUS
 10
39.3763095821
 20
22.8810574713
 11
44.4755367535
 21
22.8773092874
  0
LWPOLYLINE
  5
472
100
AcDbEntity
  8
RACCORDO
100
AcDbPolyline
 62
250
  6
CONTINUOUS
 90
3
 70
0
 10
114.2629935965
 20
22.8784816141
 10
115.1960927751
 20
22.8776236905
 10
115.6556495588
 20
22.8771636796
  0
LINE
  5
473
100
AcDbEntity
  8
RACCORDO
100
AcDbLine
 62
250
  6
CONTINUOUS
 10
111.8062511112
 20
23.1998582038
 11
112.8186347622
 21
23.1989143287
  0
LWPOLYLINE
  5
474
100
AcDbEntity
  8
RACCORDO
100
AcDbPolyline
 62
250
  6
CONTINUOUS
 90
4
 70
0
 10
115.6556495588
 20
22.8771636796
 10
116.5710462957
 20
22.8761741842
 10
117.0268862489
 20
22.8756446997
 10
117.4824947184
 20
22.8750921418
  0
LINE
  5
475
100
AcDbEntity
  8
RACCORDO
100
AcDbLine
 62
250
  6
CONTINUOUS
 10
-34.1717776589
 20
23.2020275273
 11
-27.7960577722
 21
23.1973401441
  0
LINE
  5
476
100
AcDbEntity
  8
RACCORDO
100
AcDbLine
 62
250
  6
CONTINUOUS
 10
38.740167011
 20
23.2013454779
 11
43.2037722878
 21
23.1973403631
  0
LINE
  5
477
100
AcDbEntity
  8
RACCORDO
100
AcDbLine
 62
250
  6
CONTINUOUS
 10
112.8186347622
 20
23.1989143287
 11
113.7922444929
 21
23.1978412919
  0
LWPOLYLINE
  5
478
100
AcDbEntity
  8
RACCORDO
100
AcDbPolyline
 62
250
  6
CONTINUOUS
 90
3
 70
0
 10
117.4824947184
 20
22.8750921418
 10
118.3937540073
 20
22.8739153542
 10
118.8491652957
 20
22.8732958991
  0
LINE
  5
479
100
AcDbEntity
  8
RACCORDO
100
AcDbLine
 62
250
  6
CONTINUOUS
 10
113.7922444929
 20
23.1978412919
 11
114.7349629072
 21
23.196641278
  0
LINE
  5
47A
100
AcDbEntity
  8
RACCORDO
100
AcDbLine
 62
250
  6
CONTINUOUS
 10
-99.345844199
 20
22.8790208025
 11
-93.5943142472
 21
22.8723142597
  0
LINE
  5
47B
100
AcDbEntity
  8
RACCORDO
100
AcDbLine
 62
250
  6
CONTINUOUS
 10
-27.7991366688
 20
22.8785471791
 11
-21.4269382018
 21
22.8704997899
  0
LINE
  5
47C
100
AcDbEntity
  8
RACCORDO
100
AcDbLine
 62
250
  6
CONTINUOUS
 10
-101.9519945806
 20
23.2005318665
 11
-97.5442237869
 21
23.1955943038
  0
LINE
  5
47D
100
AcDbEntity
  8
RACCORDO
100
AcDbLine
 62
250
  6
CONTINUOUS
 10
114.7349629072
 20
23.196641278
 11
115.6591838229
 21
23.1953118648
  0
LINE
  5
47E
100
AcDbEntity
  8
RACCORDO
100
AcDbLine
 62
250
  6
CONTINUOUS
 10
44.4755367535
 20
22.8773092874
 11
50.2065188561
 21
22.8694530979
  0
LINE
  5
47F
100
AcDbEntity
  8
RACCORDO
100
AcDbLine
 62
250
  6
CONTINUOUS
 10
118.8491652957
 20
22.8732958991
 11
125.3111221025
 21
22.8630385372
  0
LINE
  5
480
100
AcDbEntity
  8
RACCORDO
100
AcDbLine
 62
250
  6
CONTINUOUS
 10
115.6591838229
 20
23.1953118648
 11
116.5749498837
 21
23.1938392273
  0
LINE
  5
481
100
AcDbEntity
  8
RACCORDO
100
AcDbLine
 62
250
  6
CONTINUOUS
 10
116.5749498837
 20
23.1938392273
 11
117.4867632785
 21
23.192220425
  0
LINE
  5
482
100
AcDbEntity
  8
RACCORDO
100
AcDbLine
 62
250
  6
CONTINUOUS
 10
-93.5943142472
 20
22.8723142597
 11
-88.5626850021
 21
22.8634151213
  0
LINE
  5
483
100
AcDbEntity
  8
RACCORDO
100
AcDbLine
 62
250
  6
CONTINUOUS
 10
-27.7960577722
 20
23.1973401441
 11
-22.695650504
 21
23.1885612583
  0
LINE
  5
484
100
AcDbEntity
  8
RACCORDO
100
AcDbLine
 62
250
  6
CONTINUOUS
 10
43.2037722878
 20
23.1973403631
 11
47.6667040756
 21
23.1898922391
  0
LWPOLYLINE
  5
485
100
AcDbEntity
  8
RACCORDO
100
AcDbPolyline
 62
250
  6
CONTINUOUS
 90
3
 70
0
 10
117.4867632785
 20
23.192220425
 10
118.3983590352
 20
23.190452918
 10
118.853925008
 20
23.1895248848
  0
LINE
  5
486
100
AcDbEntity
  8
RACCORDO
100
AcDbLine
 62
250
  6
CONTINUOUS
 10
-97.5442237869
 20
23.1955943038
 11
-93.0314602305
 21
23.1871087652
  0
LINE
  5
487
100
AcDbEntity
  8
RACCORDO
100
AcDbLine
 62
250
  6
CONTINUOUS
 10
124.3635064866
 20
23.1771997144
 11
126.8061965057
 21
23.1719784887
  0
LINE
  5
488
100
AcDbEntity
  8
RACCORDO
100
AcDbLine
 62
250
  6
CONTINUOUS
 10
118.853925008
 20
23.1895248848
 11
124.3635064866
 21
23.1771997144
  0
LWPOLYLINE
  5
489
100
AcDbEntity
  8
RACCORDO
100
AcDbPolyline
 62
250
  6
CONTINUOUS
 90
3
 70
0
 10
50.2065188561
 20
22.8694530979
 10
55.5399166131
 20
22.8587267979
 10
56.2876412755
 20
22.8568415869
  0
LINE
  5
48A
100
AcDbEntity
  8
RACCORDO
100
AcDbLine
 62
250
  6
CONTINUOUS
 10
-21.4269382018
 20
22.8704997899
 11
-13.9408112569
 21
22.8547934426
  0
LINE
  5
48B
100
AcDbEntity
  8
RACCORDO
100
AcDbLine
 62
250
  6
CONTINUOUS
 10
125.3111221025
 20
22.8630385372
 11
128.8574585972
 21
22.8555559462
  0
LINE
  5
48C
100
AcDbEntity
  8
RACCORDO
100
AcDbLine
 62
250
  6
CONTINUOUS
 10
47.6667040756
 20
23.1898922391
 11
52.7803540528
 21
23.1776632525
  0
LINE
  5
48D
100
AcDbEntity
  8
RACCORDO
100
AcDbLine
 62
250
  6
CONTINUOUS
 10
126.8061965057
 20
23.1719784887
 11
127.8283547468
 21
23.1695358008
  0
LWPOLYLINE
  5
48E
100
AcDbEntity
  8
RACCORDO
100
AcDbPolyline
 62
250
  6
CONTINUOUS
 90
3
 70
0
 10
-88.5626850021
 20
22.8634151213
 10
-84.8354324751
 20
22.8545147929
 10
-84.1455147912
 20
22.8525825578
  0
LINE
  5
48F
100
AcDbEntity
  8
RACCORDO
100
AcDbLine
 62
250
  6
CONTINUOUS
 10
-13.9408112569
 20
22.8547934426
 11
-13.1455147912
 21
22.8525825578
  0
LINE
  5
490
100
AcDbEntity
  8
RACCORDO
100
AcDbLine
 62
250
  6
CONTINUOUS
 10
56.2876412755
 20
22.8568415869
 11
57.8544852088
 21
22.8525825578
  0
LINE
  5
491
100
AcDbEntity
  8
RACCORDO
100
AcDbLine
 62
250
  6
CONTINUOUS
 10
127.8283547468
 20
23.1695358008
 11
128.8674761729
 21
23.1667029151
  0
LINE
  5
492
100
AcDbEntity
  8
RACCORDO
100
AcDbLine
 62
250
  6
CONTINUOUS
 10
-93.0314602305
 20
23.1871087652
 11
-86.7735733581
 21
23.1708039304
  0
LINE
  5
493
100
AcDbEntity
  8
RACCORDO
100
AcDbLine
 62
250
  6
CONTINUOUS
 10
-22.695650504
 20
23.1885612583
 11
-13.9314204923
 21
23.1653636206
  0
LINE
  5
494
100
AcDbEntity
  8
RACCORDO
100
AcDbLine
 62
250
  6
CONTINUOUS
 10
-86.7735733581
 20
23.1708039304
 11
-84.1354770138
 21
23.1629561633
  0
LINE
  5
495
100
AcDbEntity
  8
RACCORDO
100
AcDbLine
 62
250
  6
CONTINUOUS
 10
-13.9314204923
 20
23.1653636206
 11
-13.1354770138
 21
23.1629561633
  0
LINE
  5
496
100
AcDbEntity
  8
RACCORDO
100
AcDbLine
 62
250
  6
CONTINUOUS
 10
52.7803540528
 20
23.1776632525
 11
57.8645229862
 21
23.1629561633
  0
LINE
  5
497
100
AcDbEntity
  8
RACCORDO
100
AcDbLine
 62
250
  6
CONTINUOUS
 10
-58.662572051
 20
22.3649778288
 11
-58.637240719
 21
22.364896528
  0
LINE
  5
498
100
AcDbEntity
  8
RACCORDO
100
AcDbLine
 62
250
  6
CONTINUOUS
 10
12.337427949
 20
22.3649778288
 11
12.3879886402
 21
22.3647417123
  0
LINE
  5
499
100
AcDbEntity
  8
RACCORDO
100
AcDbLine
 62
250
  6
CONTINUOUS
 10
83.337427949
 20
22.3649778288
 11
83.3879886401
 21
22.3647417123
  0
LINE
  5
49A
100
AcDbEntity
  8
RACCORDO
100
AcDbLine
 62
250
  6
CONTINUOUS
 10
12.3879886402
 20
22.3647417123
 11
12.437423908
 21
22.3642164679
  0
LINE
  5
49B
100
AcDbEntity
  8
RACCORDO
100
AcDbLine
 62
250
  6
CONTINUOUS
 10
83.3879886401
 20
22.3647417123
 11
83.4374239079
 21
22.3642164679
  0
LINE
  5
49C
100
AcDbEntity
  8
RACCORDO
100
AcDbLine
 62
250
  6
CONTINUOUS
 10
12.437423908
 20
22.3642164679
 11
12.4843263739
 21
22.3634170497
  0
LINE
  5
49D
100
AcDbEntity
  8
RACCORDO
100
AcDbLine
 62
250
  6
CONTINUOUS
 10
83.4374239079
 20
22.3642164679
 11
83.4843263738
 21
22.3634170497
  0
LWPOLYLINE
  5
49E
100
AcDbEntity
  8
RACCORDO
100
AcDbPolyline
 62
250
  6
CONTINUOUS
 90
12
 70
0
 10
12.4843263739
 20
22.3634170497
 10
12.5273607704
 20
22.3623662167
 10
12.5470393042
 20
22.3617556109
 10
12.5653019543
 20
22.3610938854
 10
12.5820185095
 20
22.3603857582
 10
12.5970697828
 20
22.3596362782
 10
12.6103484597
 20
22.3588507893
 10
12.6217598645
 20
22.3580348919
 10
12.6312226358
 20
22.3571944035
 10
12.6386693048
 20
22.3563353165
 10
12.6440467777
 20
22.3554637564
 10
12.6473167138
 20
22.3545859372
  0
LWPOLYLINE
  5
49F
100
AcDbEntity
  8
RACCORDO
100
AcDbPolyline
 62
250
  6
CONTINUOUS
 90
12
 70
0
 10
83.4843263738
 20
22.3634170497
 10
83.5273607703
 20
22.3623662167
 10
83.5470393041
 20
22.3617556109
 10
83.5653019542
 20
22.3610938854
 10
83.5820185095
 20
22.3603857582
 10
83.5970697828
 20
22.3596362782
 10
83.6103484597
 20
22.3588507893
 10
83.6217598645
 20
22.3580348919
 10
83.6312226357
 20
22.3571944035
 10
83.6386693048
 20
22.3563353165
 10
83.6440467777
 20
22.3554637564
 10
83.6473167138
 20
22.3545859372
  0
LWPOLYLINE
  5
4A0
100
AcDbEntity
  8
RACCORDO
100
AcDbPolyline
 62
250
  6
CONTINUOUS
 90
28
 70
0
 10
-13.1455147912
 20
22.8525825578
 10
-13.117369377
 20
22.8517901714
 10
-13.089185442
 20
22.8494030894
 10
-13.061054016
 20
22.8454059628
 10
-13.0330268261
 20
22.8397799413
 10
-13.0052414311
 20
22.8325245632
 10
-12.9779149038
 20
22.8236809623
 10
-12.9511579285
 20
22.8132843669
 10
-12.9250377273
 20
22.8013611342
 10
-12.8996942613
 20
22.7879767928
 10
-12.8752404354
 20
22.7732035937
 10
-12.8517160298
 20
22.757079073
 10
-12.8291477321
 20
22.739623936
 10
-12.8075940413
 20
22.7208778767
 10
-12.7871448266
 20
22.7009135909
 10
-12.7678739167
 20
22.67980031
 10
-12.749892489
 20
22.6576680442
 10
-12.7332060382
 20
22.6345318865
 10
-12.7177541872
 20
22.61027254
 10
-12.7035874887
 20
22.5848830179
 10
-12.6908308026
 20
22.5584905508
 10
-12.6795636923
 20
22.5311644724
 10
-12.6698413148
 20
22.5029084965
 10
-12.6617699724
 20
22.4738813255
 10
-12.6554609513
 20
22.4444056321
 10
-12.650947449
 20
22.4146645397
 10
-12.6482289609
 20
22.3846888968
 10
-12.6473167138
 20
22.3545859371
  0
LWPOLYLINE
  5
4A1
100
AcDbEntity
  8
RACCORDO
100
AcDbPolyline
 62
250
  6
CONTINUOUS
 90
28
 70
0
 10
57.8544852088
 20
22.8525825578
 10
57.8826306233
 20
22.8517901714
 10
57.9108145586
 20
22.8494030893
 10
57.9389459849
 20
22.8454059626
 10
57.9669731752
 20
22.839779941
 10
57.9947585705
 20
22.8325245627
 10
58.0220850979
 20
22.8236809616
 10
58.0488420731
 20
22.8132843662
 10
58.074962274
 20
22.8013611336
 10
58.1003057396
 20
22.7879767924
 10
58.124759565
 20
22.7732035935
 10
58.1482839701
 20
22.757079073
 10
58.1708522675
 20
22.7396239364
 10
58.1924059581
 20
22.7208778772
 10
58.2128551727
 20
22.7009135917
 10
58.2321260825
 20
22.6798003108
 10
58.2501075103
 20
22.6576680451
 10
58.2667939611
 20
22.6345318874
 10
58.2822458123
 20
22.6102725409
 10
58.2964125108
 20
22.5848830188
 10
58.3091691971
 20
22.5584905516
 10
58.3204363074
 20
22.5311644731
 10
58.330158685
 20
22.5029084971
 10
58.3382300275
 20
22.473881326
 10
58.3445390487
 20
22.4444056325
 10
58.349052551
 20
22.4146645399
 10
58.3517710391
 20
22.3846888969
 10
58.3526832862
 20
22.3545859371
  0
LWPOLYLINE
  5
4A2
100
AcDbEntity
  8
RACCORDO
100
AcDbPolyline
 62
250
  6
CONTINUOUS
 90
28
 70
0
 10
128.8574585972
 20
22.8555559462
 10
128.8858240128
 20
22.8547511875
 10
128.9141862319
 20
22.8523310816
 10
128.9424530512
 20
22.8482869773
 10
128.9705664297
 20
22.842608051
 10
128.998395195
 20
22.8353000455
 10
129.0257405477
 20
22.8264051508
 10
129.0525008581
 20
22.8159588596
 10
129.0786015262
 20
22.8039936476
 10
129.1038967317
 20
22.7905831326
 10
129.1282728028
 20
22.7758064015
 10
129.1516969513
 20
22.7597032322
 10
129.1741492879
 20
22.7422958852
 10
129.1955638334
 20
22.7236373859
 10
129.2158672067
 20
22.7037937409
 10
129.2350226041
 20
22.6827985932
 10
129.2529239781
 20
22.6607692453
 10
129.2695556434
 20
22.6377253394
 10
129.2849835309
 20
22.6135307603
 10
129.2991575436
 20
22.5881635792
 10
129.3119401245
 20
22.561757598
 10
129.3232379452
 20
22.5343985407
 10
129.3329932675
 20
22.5060868576
 10
129.3410953817
 20
22.4769829543
 10
129.3474244119
 20
22.4474368591
 10
129.3519474998
 20
22.4176420252
 10
129.3546689421
 20
22.3876210583
 10
129.3555791399
 20
22.3574817908
  0
LWPOLYLINE
  5
4A3
100
AcDbEntity
  8
RACCORDO
100
AcDbPolyline
 62
250
  6
CONTINUOUS
 90
28
 70
0
 10
-13.1354770138
 20
23.1629561633
 10
-13.0902808875
 20
23.1615854726
 10
-13.045311014
 20
23.1576321451
 10
-13.0005673935
 20
23.1510961807
 10
-12.9558374632
 20
23.1419432371
 10
-12.9113337858
 20
23.1302076566
 10
-12.8676940499
 20
23.1159924663
 10
-12.8249674217
 20
23.0992527028
 10
-12.7831047349
 20
23.0800333295
 10
-12.7425961789
 20
23.0585722634
 10
-12.7035101991
 20
23.0348787117
 10
-12.6657783499
 20
23.0089434671
 10
-12.6296854845
 20
22.9809768246
 10
-12.5952147703
 20
22.9509438747
 10
-12.5623830397
 20
22.918879527
 10
-12.5315256431
 20
22.885098805
 10
-12.5027083306
 20
22.849699098
 10
-12.4758653521
 20
22.8125830168
 10
-12.4511348065
 20
22.7737734179
 10
-12.4284345468
 20
22.7331631972
 10
-12.4078467201
 20
22.6908594587
 10
-12.3897558665
 20
22.6472063713
 10
-12.3741786217
 20
22.6020468811
 10
-12.3610983499
 20
22.5555380419
 10
-12.3508496835
 20
22.5084951841
 10
-12.3435441666
 20
22.4611900843
 10
-12.3390702551
 20
22.4133509659
 10
-12.337427949
 20
22.3649778288
  0
LWPOLYLINE
  5
4A4
100
AcDbEntity
  8
RACCORDO
100
AcDbPolyline
 62
250
  6
CONTINUOUS
 90
28
 70
0
 10
57.8645229862
 20
23.1629561633
 10
57.909719113
 20
23.1615854726
 10
57.9546889869
 20
23.157632145
 10
57.9994326079
 20
23.1510961804
 10
58.0441625388
 20
23.1419432366
 10
58.0886662167
 20
23.1302076558
 10
58.1323059529
 20
23.1159924653
 10
58.1750325808
 20
23.0992527018
 10
58.2168952671
 20
23.0800333286
 10
58.2574038225
 20
23.0585722626
 10
58.2964898016
 20
23.0348787113
 10
58.3342216499
 20
23.0089434672
 10
58.3703145148
 20
22.9809768252
 10
58.4047852287
 20
22.9509438757
 10
58.4376169591
 20
22.9188795281
 10
58.4684743558
 20
22.8850988064
 10
58.4972916683
 20
22.8496990995
 10
58.5241346469
 20
22.8125830183
 10
58.5488651927
 20
22.7737734194
 10
58.5715654524
 20
22.7331631986
 10
58.5921532793
 20
22.69085946
 10
58.6102441331
 20
22.6472063724
 10
58.625821378
 20
22.6020468821
 10
58.6389016499
 20
22.5555380427
 10
58.6491503164
 20
22.5084951847
 10
58.6564558333
 20
22.4611900848
 10
58.6609297449
 20
22.4133509661
 10
58.662572051
 20
22.3649778288
  0
LWPOLYLINE
  5
4A5
100
AcDbEntity
  8
RACCORDO
100
AcDbPolyline
 62
250
  6
CONTINUOUS
 90
28
 70
0
 10
128.8674761729
 20
23.1667029151
 10
128.9130941224
 20
23.165290264
 10
128.9584174828
 20
23.1612805794
 10
129.0034462499
 20
23.154673857
 10
129.0483834344
 20
23.145429581
 10
129.0930260175
 20
23.1335882592
 10
129.1367649504
 20
23.119271423
 10
129.1795617879
 20
23.1024315986
 10
129.2214549673
 20
23.0831162521
 10
129.2619507638
 20
23.0615893242
 10
129.3009723439
 20
23.0378640579
 10
129.3385965357
 20
23.0119272049
 10
129.3745601084
 20
22.9840029701
 10
129.4088665142
 20
22.9540804196
 10
129.4415122987
 20
22.9221704853
 10
129.4722238722
 20
22.888530172
 10
129.5009571785
 20
22.85325046
 10
129.5277562754
 20
22.8162403706
 10
129.5524797447
 20
22.777483972
 10
129.575220835
 20
22.7368548782
 10
129.5958863026
 20
22.6944794801
 10
129.6140549918
 20
22.6507210114
 10
129.629703793
 20
22.6054136459
 10
129.6428558245
 20
22.5587232184
 10
129.6531592735
 20
22.5115104549
 10
129.6604968722
 20
22.4640622671
 10
129.6649858981
 20
22.4160917531
 10
129.6666263563
 20
22.3675989178
  0
LINE
  5
4A6
100
AcDbEntity
  8
RACCORDO
100
AcDbLine
 62
250
  6
CONTINUOUS
 10
57.8544852088
 20
-22.8525825578
 11
57.701902651
 21
-22.7
  0
LINE
  5
4A7
100
AcDbEntity
  8
RACCORDO
100
AcDbLine
 62
250
  6
CONTINUOUS
 10
12.6473167138
 20
22.3545859371
 11
12.8
 21
22.201902651
  0
LINE
  5
4A8
100
AcDbEntity
  8
RACCORDO
100
AcDbLine
 62
250
  6
CONTINUOUS
 10
58.3526832862
 20
-22.3545859371
 11
58.2
 21
-22.201902651
  0
LINE
  5
4A9
100
AcDbEntity
  8
RACCORDO
100
AcDbLine
 62
250
  6
CONTINUOUS
 10
13.1455147912
 20
22.8525825578
 11
13.298097349
 21
22.7
  0
LINE
  5
4AA
100
AcDbEntity
  8
ASSI
100
AcDbLine
 62
250
  6
CONTINUOUS
 10
81.0000234167
 20
42.5732712857
 11
83.6455570457
 21
42.5812639032
  0
LWPOLYLINE
  5
4AB
100
AcDbEntity
  8
ASSI
100
AcDbPolyline
 62
250
  6
CONTINUOUS
 90
3
 70
0
 10
9.9999977102
 20
42.5732712188
 10
14.6064538078
 20
42.5849622233
 10
16.9416636728
 20
42.5887059429
  0
LWPOLYLINE
  5
4AC
100
AcDbEntity
  8
ASSI
100
AcDbPolyline
 62
250
  6
CONTINUOUS
 90
3
 70
0
 10
-61.0000022898
 20
42.5732712187
 10
-56.3894249256
 20
42.5849653202
 10
-54.0549450775
 20
42.5887094601
  0
LINE
  5
4AD
100
AcDbEntity
  8
ASSI
100
AcDbLine
 62
250
  6
CONTINUOUS
 10
83.6455570457
 20
42.5812639032
 11
86.195686489
 21
42.5865449383
  0
LINE
  5
4AE
100
AcDbEntity
  8
ASSI
100
AcDbLine
 62
250
  6
CONTINUOUS
 10
-140.7042195908
 20
42.5474719809
 11
-138.0239501889
 21
42.5526956797
  0
LINE
  5
4AF
100
AcDbEntity
  8
ASSI
100
AcDbLine
 62
250
  6
CONTINUOUS
 10
-128.6443487217
 20
42.5832487696
 11
-124.8663823438
 21
42.5890646212
  0
LINE
  5
4B0
100
AcDbEntity
  8
ASSI
100
AcDbLine
 62
250
  6
CONTINUOUS
 10
86.195686489
 20
42.5865449383
 11
89.9647211026
 21
42.5903634252
  0
LINE
  5
4B1
100
AcDbEntity
  8
ASSI
100
AcDbLine
 62
250
  6
CONTINUOUS
 10
0.4668788823
 20
42.544051845
 11
9.9999974817
 21
42.5735556875
  0
LINE
  5
4B2
100
AcDbEntity
  8
ASSI
100
AcDbLine
 62
250
  6
CONTINUOUS
 10
-70.5330854286
 20
42.5440518582
 11
-61.0000025183
 21
42.5735556875
  0
LINE
  5
4B3
100
AcDbEntity
  8
ASSI
100
AcDbLine
 62
250
  6
CONTINUOUS
 10
146.7857605775
 20
42.9077205963
 11
148.609528071
 21
42.909253931
  0
LINE
  5
4B4
100
AcDbEntity
  8
ASSI
100
AcDbLine
 62
250
  6
CONTINUOUS
 10
145.7662096209
 20
42.907237907
 11
146.7857605775
 21
42.9077205963
  0
LINE
  5
4B5
100
AcDbEntity
  8
ASSI
100
AcDbLine
 62
250
  6
CONTINUOUS
 10
71.0346843038
 20
42.5439492218
 11
81.0000231773
 21
42.5735557865
  0
LINE
  5
4B6
100
AcDbEntity
  8
ASSI
100
AcDbLine
 62
250
  6
CONTINUOUS
 10
89.9647211026
 20
42.5903634252
 11
92.5886875409
 21
42.5913467719
  0
LINE
  5
4B7
100
AcDbEntity
  8
ASSI
100
AcDbLine
 62
250
  6
CONTINUOUS
 10
16.9416636728
 20
42.5887059429
 11
21.6435340619
 21
42.5913356952
  0
LINE
  5
4B8
100
AcDbEntity
  8
ASSI
100
AcDbLine
 62
250
  6
CONTINUOUS
 10
-54.0549450775
 20
42.5887094601
 11
-49.3614553031
 21
42.5913369095
  0
LINE
  5
4B9
100
AcDbEntity
  8
ASSI
100
AcDbLine
 62
250
  6
CONTINUOUS
 10
-124.8663823438
 20
42.5890646212
 11
-119.5673810696
 21
42.5914949401
  0
LINE
  5
4BA
100
AcDbEntity
  8
ASSI
100
AcDbLine
 62
250
  6
CONTINUOUS
 10
-49.3614553031
 20
42.5913369095
 11
-24.0424898597
 21
42.5915308209
  0
LINE
  5
4BB
100
AcDbEntity
  8
ASSI
100
AcDbLine
 62
250
  6
CONTINUOUS
 10
-119.5673810696
 20
42.5914949401
 11
-93.2488442941
 21
42.5914547625
  0
LWPOLYLINE
  5
4BC
100
AcDbEntity
  8
ASSI
100
AcDbPolyline
 62
250
  6
CONTINUOUS
 90
3
 70
0
 10
21.6435340619
 20
42.5913356952
 10
29.21783895
 20
42.5909571653
 10
46.9615248561
 20
42.5915309206
  0
LINE
  5
4BD
100
AcDbEntity
  8
ASSI
100
AcDbLine
 62
250
  6
CONTINUOUS
 10
92.5886875409
 20
42.5913467719
 11
120.5952179473
 21
42.5913691409
  0
LWPOLYLINE
  5
4BE
100
AcDbEntity
  8
ASSI
100
AcDbPolyline
 62
250
  6
CONTINUOUS
 90
3
 70
0
 10
-24.0424898597
 20
42.5915308209
 10
-19.340728652
 20
42.5907697794
 10
-17.0044986364
 20
42.5887706409
  0
LWPOLYLINE
  5
4BF
100
AcDbEntity
  8
ASSI
100
AcDbPolyline
 62
250
  6
CONTINUOUS
 90
3
 70
0
 10
46.9615248561
 20
42.5915309206
 10
51.648815795
 20
42.5907810118
 10
53.9812792669
 20
42.5887851472
  0
LINE
  5
4C0
100
AcDbEntity
  8
ASSI
100
AcDbLine
 62
250
  6
CONTINUOUS
 10
120.5952179473
 20
42.5913691409
 11
121.6658756141
 21
42.5910930607
  0
LINE
  5
4C1
100
AcDbEntity
  8
ASSI
100
AcDbLine
 62
250
  6
CONTINUOUS
 10
121.6658756141
 20
42.5910930607
 11
122.6848094288
 21
42.5906659121
  0
LINE
  5
4C2
100
AcDbEntity
  8
ASSI
100
AcDbLine
 62
250
  6
CONTINUOUS
 10
-93.2488442941
 20
42.5914547625
 11
-88.9848078766
 21
42.5896601802
  0
LINE
  5
4C3
100
AcDbEntity
  8
ASSI
100
AcDbLine
 62
250
  6
CONTINUOUS
 10
122.6848094288
 20
42.5906659121
 11
124.1372313822
 21
42.5897161178
  0
LWPOLYLINE
  5
4C4
100
AcDbEntity
  8
ASSI
100
AcDbPolyline
 62
250
  6
CONTINUOUS
 90
3
 70
0
 10
-148.6095273369
 20
42.9092531969
 10
-148.2720709622
 20
42.9088861354
 10
-145.4780085626
 20
42.9071385135
  0
LINE
  5
4C5
100
AcDbEntity
  8
ASSI
100
AcDbLine
 62
250
  6
CONTINUOUS
 10
124.1372313822
 20
42.5897161178
 11
125.5302273813
 21
42.5883540441
  0
LINE
  5
4C6
100
AcDbEntity
  8
ASSI
100
AcDbLine
 62
250
  6
CONTINUOUS
 10
-88.9848078766
 20
42.5896601802
 11
-85.9241185594
 21
42.5860477816
  0
LINE
  5
4C7
100
AcDbEntity
  8
ASSI
100
AcDbLine
 62
250
  6
CONTINUOUS
 10
125.5302273813
 20
42.5883540441
 11
127.3520212245
 21
42.5857591526
  0
LINE
  5
4C8
100
AcDbEntity
  8
ASSI
100
AcDbLine
 62
250
  6
CONTINUOUS
 10
127.3520212245
 20
42.5857591526
 11
128.7143586168
 21
42.5830932945
  0
LINE
  5
4C9
100
AcDbEntity
  8
ASSI
100
AcDbLine
 62
250
  6
CONTINUOUS
 10
-17.0044986364
 20
42.5887706409
 11
-12.3311125567
 21
42.5798531717
  0
LINE
  5
4CA
100
AcDbEntity
  8
ASSI
100
AcDbLine
 62
250
  6
CONTINUOUS
 10
53.9812792669
 20
42.5887851472
 11
58.6605401989
 21
42.5798612195
  0
LINE
  5
4CB
100
AcDbEntity
  8
ASSI
100
AcDbLine
 62
250
  6
CONTINUOUS
 10
137.8172072694
 20
42.5531416553
 11
140.713623712
 21
42.547451114
  0
LINE
  5
4CC
100
AcDbEntity
  8
ASSI
100
AcDbLine
 62
250
  6
CONTINUOUS
 10
-85.9241185594
 20
42.5860477816
 11
-82.685578689
 21
42.5784432121
  0
LINE
  5
4CD
100
AcDbEntity
  8
ASSI
100
AcDbLine
 62
250
  6
CONTINUOUS
 10
-76.4912537518
 20
42.555025724
 11
-70.5330854286
 21
42.5440518582
  0
LINE
  5
4CE
100
AcDbEntity
  8
ASSI
100
AcDbLine
 62
250
  6
CONTINUOUS
 10
-5.491178236
 20
42.5550254434
 11
0.4668788823
 21
42.544051845
  0
LINE
  5
4CF
100
AcDbEntity
  8
ASSI
100
AcDbLine
 62
250
  6
CONTINUOUS
 10
65.0706562993
 20
42.5567013059
 11
71.0346843038
 21
42.5439492218
  0
LINE
  5
4D0
100
AcDbEntity
  8
ASSI
100
AcDbLine
 62
250
  6
CONTINUOUS
 10
-12.3311125567
 20
42.5798531717
 11
-8.57682025
 21
42.5677854212
  0
LINE
  5
4D1
100
AcDbEntity
  8
ASSI
100
AcDbLine
 62
250
  6
CONTINUOUS
 10
58.6605401989
 20
42.5798612195
 11
61.9548591714
 21
42.5697476703
  0
LINE
  5
4D2
100
AcDbEntity
  8
ASSI
100
AcDbLine
 62
250
  6
CONTINUOUS
 10
64.2020735344
 20
42.5602280823
 11
65.0706562993
 21
42.5567013059
  0
LINE
  5
4D3
100
AcDbEntity
  8
ASSI
100
AcDbLine
 62
250
  6
CONTINUOUS
 10
-79.1211778809
 20
42.5658476912
 11
-76.4912537518
 21
42.555025724
  0
LINE
  5
4D4
100
AcDbEntity
  8
ASSI
100
AcDbLine
 62
250
  6
CONTINUOUS
 10
-82.685578689
 20
42.5784432121
 11
-79.1211778809
 21
42.5658476912
  0
LINE
  5
4D5
100
AcDbEntity
  8
ASSI
100
AcDbLine
 62
250
  6
CONTINUOUS
 10
-8.57682025
 20
42.5677854212
 11
-5.491178236
 21
42.5550254434
  0
LINE
  5
4D6
100
AcDbEntity
  8
ASSI
100
AcDbLine
 62
250
  6
CONTINUOUS
 10
61.9548591714
 20
42.5697476703
 11
64.2020735344
 21
42.5602280823
  0
LWPOLYLINE
  5
4D7
100
AcDbEntity
  8
ASSI
100
AcDbPolyline
 62
250
  6
CONTINUOUS
 90
28
 70
0
 10
-148.6310407691
 20
42.4460868941
 10
-148.6489110213
 20
42.4448649678
 10
-148.6666061225
 20
42.4426430203
 10
-148.6841258916
 20
42.4394208439
 10
-148.7015151251
 20
42.4351812378
 10
-148.7187286571
 20
42.4299409806
 10
-148.7356313858
 20
42.4237508557
 10
-148.7522333925
 20
42.4165989248
 10
-148.7685242858
 20
42.4084967632
 10
-148.7843383242
 20
42.3995304903
 10
-148.7996695894
 20
42.3896920543
 10
-148.8145238033
 20
42.3789892605
 10
-148.8287527803
 20
42.3675321073
 10
-148.8423501919
 20
42.355314186
 10
-148.8553223132
 20
42.3423418047
 10
-148.8675399696
 20
42.3287441417
 10
-148.8789968321
 20
42.3145149727
 10
-148.8896993303
 20
42.2996605752
 10
-148.8995375338
 20
42.2843289866
 10
-148.9085036848
 20
42.2685144268
 10
-148.9166057874
 20
42.2522228717
 10
-148.9237576484
 20
42.2356200882
 10
-148.9299506333
 20
42.2186929331
 10
-148.9351937375
 20
42.201454857
 10
-148.9394272871
 20
42.1841115957
 10
-148.9426315461
 20
42.1667318684
 10
-148.9448266839
 20
42.1492473406
 10
-148.9460129108
 20
42.1316581978
  0
LINE
  5
4D8
100
AcDbEntity
  8
ASSI
100
AcDbLine
 62
250
  6
CONTINUOUS
 10
-148.6310407691
 20
42.4460868941
 11
-147.9368430125
 21
42.4700642635
  0
LWPOLYLINE
  5
4D9
100
AcDbEntity
  8
ASSI
100
AcDbPolyline
 62
250
  6
CONTINUOUS
 90
28
 70
0
 10
-148.6095275003
 20
42.9092533602
 10
-148.6560370903
 20
42.9079005093
 10
-148.7023906349
 20
42.9038458724
 10
-148.748431448
 20
42.8971026312
 10
-148.7940052787
 20
42.8876926744
 10
-148.8389564534
 20
42.8756475052
 10
-148.8831286273
 20
42.8610089938
 10
-148.9263733239
 20
42.843826527
 10
-148.9685435043
 20
42.8241586955
 10
-149.0094904306
 20
42.8020759469
 10
-149.0490734045
 20
42.7776562138
 10
-149.0871625946
 20
42.7509816753
 10
-149.1236328132
 20
42.7221415305
 10
-149.1583599071
 20
42.6912353288
 10
-149.1912288363
 20
42.6583668031
 10
-149.2221354405
 20
42.6236401169
 10
-149.2509759089
 20
42.587170422
 10
-149.2776507906
 20
42.5490817736
 10
-149.3020710954
 20
42.509499006
 10
-149.3241546672
 20
42.4685517569
 10
-149.3438234129
 20
42.4263808484
 10
-149.3610067758
 20
42.3831351203
 10
-149.3756461693
 20
42.3389614406
 10
-149.3876920908
 20
42.2940084487
 10
-149.3971025098
 20
42.2484331393
 10
-149.4038459636
 20
42.2023914314
 10
-149.4079006826
 20
42.1560373841
 10
-149.409253555
 20
42.109527695
  0
LINE
  5
4DA
100
AcDbEntity
  8
ASSI
100
AcDbLine
 62
250
  6
CONTINUOUS
 10
-149.2055378523
 20
42.1268725696
 11
-149.1463650707
 21
42.1285825969
  0
LINE
  5
4DB
100
AcDbEntity
  8
ASSI
100
AcDbLine
 62
250
  6
CONTINUOUS
 10
-147.9368430125
 20
42.4700642635
 11
-147.1856825334
 21
42.4906212265
  0
LINE
  5
4DC
100
AcDbEntity
  8
ASSI
100
AcDbLine
 62
250
  6
CONTINUOUS
 10
-147.1856825334
 20
42.4906212265
 11
-146.3740131903
 21
42.5076910812
  0
LINE
  5
4DD
100
AcDbEntity
  8
ASSI
100
AcDbLine
 62
250
  6
CONTINUOUS
 10
-149.1463650707
 20
42.1285825969
 11
-149.0825474752
 21
42.1299190845
  0
LINE
  5
4DE
100
AcDbEntity
  8
ASSI
100
AcDbLine
 62
250
  6
CONTINUOUS
 10
-146.3740131903
 20
42.5076910812
 11
-145.4841464621
 21
42.5210114569
  0
LINE
  5
4DF
100
AcDbEntity
  8
ASSI
100
AcDbLine
 62
250
  6
CONTINUOUS
 10
-149.0825474752
 20
42.1299190845
 11
-149.0153361029
 21
42.1308558329
  0
LINE
  5
4E0
100
AcDbEntity
  8
ASSI
100
AcDbLine
 62
250
  6
CONTINUOUS
 10
-145.4841464621
 20
42.5210114569
 11
-144.5340355472
 21
42.5307794321
  0
LINE
  5
4E1
100
AcDbEntity
  8
ASSI
100
AcDbLine
 62
250
  6
CONTINUOUS
 10
-149.0153361029
 20
42.1308558329
 11
-148.9460485204
 21
42.1313744788
  0
LINE
  5
4E2
100
AcDbEntity
  8
ASSI
100
AcDbLine
 62
250
  6
CONTINUOUS
 10
-144.5340355472
 20
42.5307794321
 11
-143.0530874881
 21
42.5399118654
  0
LWPOLYLINE
  5
4E3
100
AcDbEntity
  8
ASSI
100
AcDbPolyline
 62
250
  6
CONTINUOUS
 90
3
 70
0
 10
-143.0530874881
 20
42.5399118654
 10
-141.1583451589
 20
42.5463862363
 10
-140.7042195908
 20
42.5474719809
  0
LINE
  5
4E4
100
AcDbEntity
  8
ASSI
100
AcDbLine
 62
250
  6
CONTINUOUS
 10
-138.0239501889
 20
42.5526956797
 11
-130.4293206382
 21
42.5786798051
  0
LINE
  5
4E5
100
AcDbEntity
  8
ASSI
100
AcDbLine
 62
250
  6
CONTINUOUS
 10
-130.4293206382
 20
42.5786798051
 11
-128.6443487217
 21
42.5832487696
  0
LWPOLYLINE
  5
4E6
100
AcDbEntity
  8
ASSI
100
AcDbPolyline
 62
250
  6
CONTINUOUS
 90
3
 70
0
 10
144.1018441777
 20
42.9067960012
 10
144.6678121699
 20
42.9069149622
 10
145.7662096209
 20
42.907237907
  0
LINE
  5
4E7
100
AcDbEntity
  8
ASSI
100
AcDbLine
 62
250
  6
CONTINUOUS
 10
42.206989876
 20
42.9051159009
 11
70.608289202
 21
42.9074401649
  0
LINE
  5
4E8
100
AcDbEntity
  8
ASSI
100
AcDbLine
 62
7
  6
CONTINUOUS
 10
148.65027414
 20
42.95
 11
-148.65027414
 21
42.95
  0
LWPOLYLINE
  5
4E9
100
AcDbEntity
  8
0
100
AcDbPolyline
 62
7
  6
CONTINUOUS
 90
7
 70
0
 43
0.3500000006
 10
-2.0357142191
 20
51.7000018616
 10
-3.5357143936
 20
51.7000018616
 10
-2.0357142191
 20
53.8428557739
 10
-2.0357142191
 20
54.2714292755
 10
-2.464285738
 20
54.6999982452
 10
-3.1071428747
 20
54.6999982452
 10
-3.5357143936
 20
54.0571447906
  0
LINE
  5
4EA
100
AcDbEntity
  8
ASSI
100
AcDbLine
 62
250
  6
CONTINUOUS
 10
-81.0018880747
 20
42.9056014607
 11
-67.554236399
 21
42.9070114271
  0
LWPOLYLINE
  5
4EB
100
AcDbEntity
  8
ASSI
100
AcDbPolyline
 62
250
  6
CONTINUOUS
 90
3
 70
0
 10
-145.4780085626
 20
42.9071385135
 10
-145.0122182697
 20
42.9069965737
 10
-81.0018880747
 20
42.9056014607
  0
LINE
  5
4EC
100
AcDbEntity
  8
ASSI
100
AcDbLine
 62
250
  6
CONTINUOUS
 10
-67.554236399
 20
42.9070114271
 11
0.4676435975
 21
42.9074386462
  0
LINE
  5
4ED
100
AcDbEntity
  8
ASSI
100
AcDbLine
 62
250
  6
CONTINUOUS
 10
0.4676435975
 20
42.9074386462
 11
42.206989876
 21
42.9051159009
  0
LINE
  5
4EE
100
AcDbEntity
  8
ASSI
100
AcDbLine
 62
250
  6
CONTINUOUS
 10
70.608289202
 20
42.9074401649
 11
144.1018441777
 21
42.9067960012
  0
LINE
  5
4EF
100
AcDbEntity
  8
ASSI
100
AcDbLine
 62
250
  6
CONTINUOUS
 10
128.7143586168
 20
42.5830932945
 11
131.4414492814
 21
42.5754532894
  0
LINE
  5
4F0
100
AcDbEntity
  8
ASSI
100
AcDbLine
 62
250
  6
CONTINUOUS
 10
131.4414492814
 20
42.5754532894
 11
137.8172072694
 21
42.5531416553
  0
LINE
  5
4F1
100
AcDbEntity
  8
ASSI
100
AcDbLine
 62
250
  6
CONTINUOUS
 10
140.713623712
 20
42.547451114
 11
142.9445615561
 21
42.5403712783
  0
LINE
  5
4F2
100
AcDbEntity
  8
ASSI
100
AcDbLine
 62
250
  6
CONTINUOUS
 10
142.9445615561
 20
42.5403712783
 11
144.1051763944
 21
42.533966923
  0
LINE
  5
4F3
100
AcDbEntity
  8
ASSI
100
AcDbLine
 62
250
  6
CONTINUOUS
 10
148.9460484079
 20
42.1313746374
 11
149.0153365741
 21
42.1308559851
  0
LWPOLYLINE
  5
4F4
100
AcDbEntity
  8
ASSI
100
AcDbPolyline
 62
250
  6
CONTINUOUS
 90
3
 70
0
 10
144.1051763944
 20
42.533966923
 10
145.2314955579
 20
42.5240485188
 10
145.773183009
 20
42.5172731025
  0
LINE
  5
4F5
100
AcDbEntity
  8
ASSI
100
AcDbLine
 62
250
  6
CONTINUOUS
 10
149.0153365741
 20
42.1308559851
 11
149.0825483134
 21
42.1299192264
  0
LWPOLYLINE
  5
4F6
100
AcDbEntity
  8
ASSI
100
AcDbPolyline
 62
250
  6
CONTINUOUS
 90
6
 70
0
 10
145.773183009
 20
42.5172731025
 10
146.7965847433
 20
42.4993895383
 10
147.2817814745
 20
42.4882905564
 10
147.7493613838
 20
42.4756754199
 10
148.1992725886
 20
42.461587558
 10
148.6315016436
 20
42.4460290398
  0
LINE
  5
4F7
100
AcDbEntity
  8
ASSI
100
AcDbLine
 62
250
  6
CONTINUOUS
 10
149.0825483134
 20
42.1299192264
 11
149.1463660945
 21
42.1285827268
  0
LWPOLYLINE
  5
4F8
100
AcDbEntity
  8
ASSI
100
AcDbPolyline
 62
250
  6
CONTINUOUS
 90
15
 70
0
 10
149.1463660945
 20
42.1285827268
 10
149.2055390254
 20
42.1268726843
 10
149.2330169703
 20
42.1258877917
 10
149.2589070829
 20
42.1248226224
 10
149.283082323
 20
42.123682403
 10
149.3054240651
 20
42.1224727289
 10
149.3258226805
 20
42.1211995356
 10
149.3441780751
 20
42.1198690702
 10
149.3604001806
 20
42.1184878618
 10
149.3744094443
 20
42.1170626821
 10
149.3861370597
 20
42.1156005292
 10
149.3955253892
 20
42.114108595
 10
149.4025284229
 20
42.1125942066
 10
149.4071119175
 20
42.1110647891
 10
149.4092534644
 20
42.109527847
  0
LWPOLYLINE
  5
4F9
100
AcDbEntity
  8
RACCORDO
100
AcDbPolyline
 62
250
  6
CONTINUOUS
 90
11
 70
0
 10
57.8620057135
 20
-22.9727554149
 10
57.8614158568
 20
-22.9530423389
 10
57.8607764801
 20
-22.934746846
 10
57.8600921519
 20
-22.9179996594
 10
57.8593677619
 20
-22.90292044
 10
57.8586084859
 20
-22.8896169303
 10
57.857819749
 20
-22.8781841853
 10
57.8570071869
 20
-22.8687038933
 10
57.8561766053
 20
-22.8612437919
 10
57.8553339389
 20
-22.8558571842
 10
57.8544852088
 20
-22.8525825578
  0
LINE
  5
4FA
100
AcDbEntity
  8
RACCORDO
100
AcDbLine
 62
250
  6
CONTINUOUS
 10
57.8630203929
 20
-23.0158617843
 11
57.8620057135
 21
-22.9727554149
  0
LINE
  5
4FB
100
AcDbEntity
  8
RACCORDO
100
AcDbLine
 62
250
  6
CONTINUOUS
 10
57.8637915698
 20
-23.0628361537
 11
57.8630203929
 21
-23.0158617843
  0
LINE
  5
4FC
100
AcDbEntity
  8
ASSI
100
AcDbLine
 62
250
  6
CONTINUOUS
 10
60.9985378215
 20
42.8930198398
 11
60.9987968232
 21
42.8737090939
  0
LINE
  5
4FD
100
AcDbEntity
  8
RACCORDO
100
AcDbLine
 62
250
  6
CONTINUOUS
 10
57.8642972431
 20
-23.1123383703
 11
57.8637915698
 21
-23.0628361537
  0
LINE
  5
4FE
100
AcDbEntity
  8
ASSI
100
AcDbLine
 62
250
  6
CONTINUOUS
 10
60.9987968232
 20
42.8737090939
 11
60.9992748016
 21
42.8105541818
  0
LINE
  5
4FF
100
AcDbEntity
  8
RACCORDO
100
AcDbLine
 62
250
  6
CONTINUOUS
 10
57.8645229862
 20
-23.1629561633
 11
57.8642972431
 21
-23.1123383703
  0
LINE
  5
500
100
AcDbEntity
  8
RACCORDO
100
AcDbLine
 62
250
  6
CONTINUOUS
 10
58.662572051
 20
22.3649778288
 11
58.6810358494
 21
15.9017070657
  0
LINE
  5
501
100
AcDbEntity
  8
RACCORDO
100
AcDbLine
 62
250
  6
CONTINUOUS
 10
58.3526832862
 20
22.3545859371
 11
58.3663736203
 21
16.4560261168
  0
LINE
  5
502
100
AcDbEntity
  8
RACCORDO
100
AcDbLine
 62
250
  6
CONTINUOUS
 10
58.6810358494
 20
15.9017070657
 11
58.6922995608
 21
10.8692915618
  0
LINE
  5
503
100
AcDbEntity
  8
ASSI
100
AcDbLine
 62
250
  6
CONTINUOUS
 10
60.9992748016
 20
42.8105541818
 11
61.0000110373
 21
42.5735556614
  0
LINE
  5
504
100
AcDbEntity
  8
RACCORDO
100
AcDbLine
 62
250
  6
CONTINUOUS
 10
58.3663736203
 20
16.4560261168
 11
58.3758416677
 21
10.3050623261
  0
LINE
  5
505
100
AcDbEntity
  8
RACCORDO
100
AcDbLine
 62
250
  6
CONTINUOUS
 10
58.6922995608
 20
10.8692915618
 11
58.6993770682
 21
5.8299662127
  0
LINE
  5
506
100
AcDbEntity
  8
RACCORDO
100
AcDbLine
 62
250
  6
CONTINUOUS
 10
58.3758416677
 20
10.3050623261
 11
58.3809509473
 21
4.1488827459
  0
LINE
  5
507
100
AcDbEntity
  8
RACCORDO
100
AcDbLine
 62
250
  6
CONTINUOUS
 10
58.6993770682
 20
5.8299662127
 11
58.7020644434
 21
0.7932409246
  0
LINE
  5
508
100
AcDbEntity
  8
RACCORDO
100
AcDbLine
 62
7
  6
CONTINUOUS
 10
58.2
 20
-22.201902651
 11
58.2
 21
22.201902651
  0
LINE
  5
509
100
AcDbEntity
  8
RACCORDO
100
AcDbLine
 62
250
  6
CONTINUOUS
 10
58.3809509473
 20
4.1488827459
 11
58.3795669669
 21
-6.4806232159
  0
LINE
  5
50A
100
AcDbEntity
  8
RACCORDO
100
AcDbLine
 62
250
  6
CONTINUOUS
 10
58.7020644434
 20
0.7932409246
 11
58.7006828476
 21
-4.2435719295
  0
LINE
  5
50B
100
AcDbEntity
  8
RACCORDO
100
AcDbLine
 62
250
  6
CONTINUOUS
 10
58.3795669669
 20
-6.4806232159
 11
58.3735334892
 21
-12.0752274086
  0
LINE
  5
50C
100
AcDbEntity
  8
RACCORDO
100
AcDbLine
 62
250
  6
CONTINUOUS
 10
58.7006828476
 20
-4.2435719295
 11
58.6958612211
 21
-8.7229788557
  0
LINE
  5
50D
100
AcDbEntity
  8
RACCORDO
100
AcDbLine
 62
250
  6
CONTINUOUS
 10
58.3735334892
 20
-12.0752274086
 11
58.3639120241
 21
-17.7430267504
  0
LINE
  5
50E
100
AcDbEntity
  8
RACCORDO
100
AcDbLine
 62
250
  6
CONTINUOUS
 10
58.6958612211
 20
-8.7229788557
 11
58.6875418709
 21
-13.1966090979
  0
LWPOLYLINE
  5
50F
100
AcDbEntity
  8
RACCORDO
100
AcDbPolyline
 62
250
  6
CONTINUOUS
 90
3
 70
0
 10
58.3639120241
 20
-17.7430267504
 10
58.3547406728
 20
-21.6348944111
 10
58.3526832862
 20
-22.3545859371
  0
LINE
  5
510
100
AcDbEntity
  8
RACCORDO
100
AcDbLine
 62
250
  6
CONTINUOUS
 10
58.6875418709
 20
-13.1966090979
 11
58.6727216704
 21
-18.9748478206
  0
LINE
  5
511
100
AcDbEntity
  8
RACCORDO
100
AcDbLine
 62
250
  6
CONTINUOUS
 10
58.6727216704
 20
-18.9748478206
 11
58.662572051
 21
-22.3649778288
  0
LINE
  5
512
100
AcDbEntity
  8
ASSI
100
AcDbLine
 62
250
  6
CONTINUOUS
 10
60.9994661494
 20
-42.7677638775
 11
60.9999983018
 21
42.5735557048
  0
LINE
  5
513
100
AcDbEntity
  8
RACCORDO
100
AcDbLine
 62
250
  6
CONTINUOUS
 10
57.8645229862
 20
23.1629561633
 11
57.8642972582
 21
23.1123382973
  0
LINE
  5
514
100
AcDbEntity
  8
ASSI
100
AcDbLine
 62
250
  6
CONTINUOUS
 10
60.9989109537
 20
-42.8608548197
 11
60.9994661494
 21
-42.7677638775
  0
LINE
  5
515
100
AcDbEntity
  8
RACCORDO
100
AcDbLine
 62
250
  6
CONTINUOUS
 10
57.8642972582
 20
23.1123382973
 11
57.8637915959
 21
23.0628360348
  0
LINE
  5
516
100
AcDbEntity
  8
RACCORDO
100
AcDbLine
 62
250
  6
CONTINUOUS
 10
57.8637915959
 20
23.0628360348
 11
57.863020426
 21
23.0158616476
  0
LWPOLYLINE
  5
517
100
AcDbEntity
  8
RACCORDO
100
AcDbPolyline
 62
250
  6
CONTINUOUS
 90
12
 70
0
 10
57.863020426
 20
23.0158616476
 10
57.86200575
 20
22.9727552851
 10
57.8614158935
 20
22.9530422196
 10
57.8607765161
 20
22.9347467405
 10
57.8600921865
 20
22.9179995704
 10
57.8593677941
 20
22.9029203682
 10
57.8586085147
 20
22.8896168759
 10
57.8578197737
 20
22.8781841474
 10
57.8570072066
 20
22.8687038696
 10
57.8561766193
 20
22.8612437795
 10
57.8553339464
 20
22.8558571799
 10
57.8544852088
 20
22.8525825578
  0
LWPOLYLINE
  5
518
100
AcDbEntity
  8
RACCORDO
100
AcDbPolyline
 62
250
  6
CONTINUOUS
 90
28
 70
0
 10
58.3526832862
 20
-22.3545859371
 10
58.3518858278
 20
-22.3827289206
 10
58.3494939578
 20
-22.410900989
 10
58.345493834
 20
-22.4390113028
 10
58.3398703227
 20
-22.4669987252
 10
58.3326233045
 20
-22.4947362962
 10
58.3237853401
 20
-22.5220361042
 10
58.3133828288
 20
-22.5487992741
 10
58.3014426774
 20
-22.5749439385
 10
58.2880329111
 20
-22.6003185389
 10
58.2732214356
 20
-22.6248137434
 10
58.2570472333
 20
-22.6483834219
 10
58.2395481043
 20
-22.6709777056
 10
58.2207755367
 20
-22.6925298489
 10
58.2007969298
 20
-22.7129627259
 10
58.179675185
 20
-22.7322125776
 10
58.1575404255
 20
-22.7501697839
 10
58.1344089726
 20
-22.7668292001
 10
58.1101544243
 20
-22.7822569813
 10
58.0847669207
 20
-22.7964037209
 10
58.0583758123
 20
-22.8091427847
 10
58.0310499476
 20
-22.8203946713
 10
58.0027910137
 20
-22.8301044221
 10
57.9737592296
 20
-22.8381646401
 10
57.9442823662
 20
-22.8444629333
 10
57.9145453457
 20
-22.8489664643
 10
57.8845772487
 20
-22.8516765806
 10
57.8544852088
 20
-22.8525825578
  0
LWPOLYLINE
  5
519
100
AcDbEntity
  8
RACCORDO
100
AcDbPolyline
 62
250
  6
CONTINUOUS
 90
28
 70
0
 10
58.662572051
 20
-22.3649778288
 10
58.6611917566
 20
-22.41018337
 10
58.6572345575
 20
-22.4551486613
 10
58.6507004538
 20
-22.4998737028
 10
58.6415607113
 20
-22.5445561294
 10
58.6298440641
 20
-22.5889983061
 10
58.615636715
 20
-22.6326073282
 10
58.5988891842
 20
-22.6753563913
 10
58.5796509513
 20
-22.7172722998
 10
58.5581566587
 20
-22.7578425624
 10
58.5344045281
 20
-22.7970033043
 10
58.5083963376
 20
-22.8348184003
 10
58.4803720645
 20
-22.8709669833
 10
58.450308266
 20
-22.9054470556
 10
58.4182283848
 20
-22.9382606149
 10
58.384442726
 20
-22.9690927878
 10
58.3490506168
 20
-22.9978811275
 10
58.3119527302
 20
-23.0246880808
 10
58.2731613894
 20
-23.0493861136
 10
58.2325665104
 20
-23.0720611415
 10
58.1902781773
 20
-23.092627249
 10
58.1466389663
 20
-23.1106991559
 10
58.1014889
 20
-23.1262604967
 10
58.0549879557
 20
-23.1393276369
 10
58.0079586413
 20
-23.1495643921
 10
57.9606751263
 20
-23.1568587008
 10
57.9128632412
 20
-23.1613226245
 10
57.8645229862
 20
-23.1629561633
  0
LWPOLYLINE
  5
51A
100
AcDbEntity
  8
ASSI
100
AcDbPolyline
 62
250
  6
CONTINUOUS
 90
4
 70
0
 10
60.9981371944
 20
42.9056329893
 10
60.9982715653
 20
42.9036438955
 10
60.9984053062
 20
42.8994332397
 10
60.9985378215
 20
42.8930198398
  0
LWPOLYLINE
  5
51B
100
AcDbEntity
  8
ASSI
100
AcDbPolyline
 62
250
  6
CONTINUOUS
 90
6
 70
0
 10
60.9981391015
 20
-42.9056012912
 10
60.9982710844
 20
-42.9036118653
 10
60.9984025083
 20
-42.8994003128
 10
60.9985327855
 20
-42.8929853966
 10
60.9986613328
 20
-42.8843957141
 10
60.9989109537
 20
-42.8608548197
  0
LWPOLYLINE
  5
51C
100
AcDbEntity
  8
ASSI
100
AcDbPolyline
 62
250
  6
CONTINUOUS
 90
4
 70
0
 10
81.0018734389
 20
-42.9056389898
 10
81.0017390744
 20
-42.903649937
 10
81.0016053398
 20
-42.8994393932
 10
81.0014728306
 20
-42.8930261803
  0
LINE
  5
51D
100
AcDbEntity
  8
ASSI
100
AcDbLine
 62
250
  6
CONTINUOUS
 10
81.0014728306
 20
-42.8930261803
 11
81.0012138408
 21
-42.8737160476
  0
LINE
  5
51E
100
AcDbEntity
  8
ASSI
100
AcDbLine
 62
250
  6
CONTINUOUS
 10
81.0012138408
 20
-42.8737160476
 11
81.0007358823
 21
-42.8105633424
  0
LINE
  5
51F
100
AcDbEntity
  8
RACCORDO
100
AcDbLine
 62
250
  6
CONTINUOUS
 10
84.1354770138
 20
23.1629561633
 11
84.1357027501
 21
23.1123383838
  0
LINE
  5
520
100
AcDbEntity
  8
RACCORDO
100
AcDbLine
 62
250
  6
CONTINUOUS
 10
83.337427949
 20
-22.3649778288
 11
83.3189638875
 21
-15.9016043747
  0
LINE
  5
521
100
AcDbEntity
  8
RACCORDO
100
AcDbLine
 62
250
  6
CONTINUOUS
 10
83.6473167138
 20
-22.3545859371
 11
83.636925247
 21
-18.1563138831
  0
LINE
  5
522
100
AcDbEntity
  8
RACCORDO
100
AcDbLine
 62
250
  6
CONTINUOUS
 10
83.3189638875
 20
-15.9016043747
 11
83.3077002455
 21
-10.8691867573
  0
LINE
  5
523
100
AcDbEntity
  8
ASSI
100
AcDbLine
 62
250
  6
CONTINUOUS
 10
81.0007358823
 20
-42.8105633424
 11
80.999999663
 21
-42.5735785234
  0
LINE
  5
524
100
AcDbEntity
  8
RACCORDO
100
AcDbLine
 62
250
  6
CONTINUOUS
 10
83.636925247
 20
-18.1563138831
 11
83.6271365191
 21
-12.543647511
  0
LINE
  5
525
100
AcDbEntity
  8
RACCORDO
100
AcDbLine
 62
250
  6
CONTINUOUS
 10
83.3077002455
 20
-10.8691867573
 11
83.3011882797
 21
-6.3897980724
  0
LINE
  5
526
100
AcDbEntity
  8
RACCORDO
100
AcDbLine
 62
250
  6
CONTINUOUS
 10
83.6271365191
 20
-12.543647511
 11
83.6207917956
 21
-6.9469693388
  0
LINE
  5
527
100
AcDbEntity
  8
RACCORDO
100
AcDbLine
 62
250
  6
CONTINUOUS
 10
83.3011882797
 20
-6.3897980724
 11
83.2981717794
 21
-1.9119724699
  0
LINE
  5
528
100
AcDbEntity
  8
RACCORDO
100
AcDbLine
 62
250
  6
CONTINUOUS
 10
83.6207917956
 20
-6.9469693388
 11
83.6182374708
 21
-1.3520607594
  0
LINE
  5
529
100
AcDbEntity
  8
RACCORDO
100
AcDbLine
 62
7
  6
CONTINUOUS
 10
83.8
 20
22.201902651
 11
83.8
 21
-22.201902651
  0
LINE
  5
52A
100
AcDbEntity
  8
RACCORDO
100
AcDbLine
 62
250
  6
CONTINUOUS
 10
83.2981717794
 20
-1.9119724699
 11
83.2989600863
 21
3.683750855
  0
LINE
  5
52B
100
AcDbEntity
  8
RACCORDO
100
AcDbLine
 62
250
  6
CONTINUOUS
 10
83.6182374708
 20
-1.3520607594
 11
83.6196844488
 21
5.3614324616
  0
LINE
  5
52C
100
AcDbEntity
  8
RACCORDO
100
AcDbLine
 62
250
  6
CONTINUOUS
 10
83.6196844488
 20
5.3614324616
 11
83.6249686705
 21
10.9582019242
  0
LINE
  5
52D
100
AcDbEntity
  8
RACCORDO
100
AcDbLine
 62
250
  6
CONTINUOUS
 10
83.2989600863
 20
3.683750855
 11
83.3041389328
 21
8.7230835659
  0
LINE
  5
52E
100
AcDbEntity
  8
RACCORDO
100
AcDbLine
 62
250
  6
CONTINUOUS
 10
83.6249686705
 20
10.9582019242
 11
83.6360881035
 21
17.7430907038
  0
LINE
  5
52F
100
AcDbEntity
  8
RACCORDO
100
AcDbLine
 62
250
  6
CONTINUOUS
 10
83.3041389328
 20
8.7230835659
 11
83.3137253789
 21
13.7557861002
  0
LINE
  5
530
100
AcDbEntity
  8
RACCORDO
100
AcDbLine
 62
250
  6
CONTINUOUS
 10
83.3137253789
 20
13.7557861002
 11
83.3330547354
 21
20.9449459463
  0
LINE
  5
531
100
AcDbEntity
  8
RACCORDO
100
AcDbLine
 62
250
  6
CONTINUOUS
 10
83.6360881035
 20
17.7430907038
 11
83.6473167138
 21
22.3545859371
  0
LINE
  5
532
100
AcDbEntity
  8
RACCORDO
100
AcDbLine
 62
250
  6
CONTINUOUS
 10
83.3330547354
 20
20.9449459463
 11
83.337427949
 21
22.3649778288
  0
LINE
  5
533
100
AcDbEntity
  8
ASSI
100
AcDbLine
 62
250
  6
CONTINUOUS
 10
81.0005571443
 20
42.767761096
 11
81.0000123785
 21
-42.5735785677
  0
LINE
  5
534
100
AcDbEntity
  8
RACCORDO
100
AcDbLine
 62
250
  6
CONTINUOUS
 10
84.1354770138
 20
-23.1629561633
 11
84.1357027418
 21
-23.112338297
  0
LINE
  5
535
100
AcDbEntity
  8
ASSI
100
AcDbLine
 62
250
  6
CONTINUOUS
 10
81.0011123502
 20
42.8608538454
 11
81.0005571443
 21
42.767761096
  0
LWPOLYLINE
  5
536
100
AcDbEntity
  8
RACCORDO
100
AcDbPolyline
 62
250
  6
CONTINUOUS
 90
28
 70
0
 10
83.6473167138
 20
22.3545859371
 10
83.6481142477
 20
22.3827302393
 10
83.650506296
 20
22.4109032198
 10
83.6545066343
 20
22.4390140359
 10
83.6601302856
 20
22.4670013639
 10
83.6673773249
 20
22.4947384525
 10
83.6762153228
 20
22.5220379669
 10
83.6866179962
 20
22.5488012274
 10
83.6985584072
 20
22.5749461424
 10
83.7119685247
 20
22.6003210757
 10
83.726780548
 20
22.6248168185
 10
83.7429554354
 20
22.6483870784
 10
83.760455044
 20
22.6709815375
 10
83.7792276272
 20
22.692533278
 10
83.7992059025
 20
22.7129654609
 10
83.8203271568
 20
22.7322145916
 10
83.8424612454
 20
22.7501710625
 10
83.865591854
 20
22.7668297609
 10
83.8898456931
 20
22.7822570513
 10
83.9152327739
 20
22.7964035619
 10
83.9416236558
 20
22.8091425471
 10
83.9689494627
 20
22.8203944487
 10
83.9972086101
 20
22.8301043047
 10
84.0262408022
 20
22.8381646474
 10
84.0557179472
 20
22.8444629904
 10
84.0854550049
 20
22.8489665069
 10
84.1154229978
 20
22.8516765958
 10
84.1455147912
 20
22.8525825578
  0
LWPOLYLINE
  5
537
100
AcDbEntity
  8
RACCORDO
100
AcDbPolyline
 62
250
  6
CONTINUOUS
 90
28
 70
0
 10
83.337427949
 20
22.3649778288
 10
83.3388085475
 20
22.4101854657
 10
83.3427660001
 20
22.4551522131
 10
83.349300307
 20
22.499878071
 10
83.3584401509
 20
22.5445603695
 10
83.370156849
 20
22.5890017784
 10
83.3843643526
 20
22.6326103072
 10
83.4011121714
 20
22.6753595107
 10
83.4203507957
 20
22.7172758341
 10
83.4418456469
 20
22.7578466223
 10
83.4655987296
 20
22.7970081675
 10
83.4916080392
 20
22.8348241775
 10
83.5196329828
 20
22.8709731207
 10
83.549696732
 20
22.9054526006
 10
83.5817761152
 20
22.9382650136
 10
83.6155610243
 20
22.9690960169
 10
83.6509520237
 20
22.9978832352
 10
83.688048549
 20
23.0246890438
 10
83.7268387985
 20
23.049386226
 10
83.7674330251
 20
23.0720608668
 10
83.809720976
 20
23.0926268813
 10
83.853360091
 20
23.1106987975
 10
83.8985105198
 20
23.1262602405
 10
83.9450121126
 20
23.1393275854
 10
83.9920418594
 20
23.1495644848
 10
84.0393254235
 20
23.1568588231
 10
84.0871371417
 20
23.1613227159
 10
84.1354770138
 20
23.1629561633
  0
LWPOLYLINE
  5
538
100
AcDbEntity
  8
ASSI
100
AcDbPolyline
 62
250
  6
CONTINUOUS
 90
6
 70
0
 10
81.001884226
 20
42.9056014611
 10
81.0017522384
 20
42.9036119853
 10
81.0016208101
 20
42.8994003168
 10
81.0014905289
 20
42.8929852254
 10
81.0013619777
 20
42.8843953163
 10
81.0011123502
 20
42.8608538454
  0
LINE
  5
539
100
AcDbEntity
  8
ASSI
100
AcDbLine
 62
250
  6
CONTINUOUS
 10
148.609528071
 20
42.909253931
 11
148.65027414
 21
42.95
  0
LINE
  5
53A
100
AcDbEntity
  8
RACCORDO
100
AcDbLine
 62
250
  6
CONTINUOUS
 10
128.8574585972
 20
22.8555559462
 11
128.701902651
 21
22.7
  0
LINE
  5
53B
100
AcDbEntity
  8
RACCORDO
100
AcDbLine
 62
250
  6
CONTINUOUS
 10
83.6473167138
 20
-22.3545859371
 11
83.8
 21
-22.201902651
  0
LINE
  5
53C
100
AcDbEntity
  8
RACCORDO
100
AcDbLine
 62
250
  6
CONTINUOUS
 10
129.3555791399
 20
22.3574817908
 11
129.2
 21
22.201902651
  0
LINE
  5
53D
100
AcDbEntity
  8
RACCORDO
100
AcDbLine
 62
250
  6
CONTINUOUS
 10
84.1455147912
 20
-22.8525825578
 11
84.298097349
 21
-22.7
  0
LINE
  5
53E
100
AcDbEntity
  8
ASSI
100
AcDbLine
 62
250
  6
CONTINUOUS
 10
149.409254069
 20
42.109528209
 11
149.45
 21
42.15027414
  0
LINE
  5
53F
100
AcDbEntity
  8
ASSI
100
AcDbLine
 62
250
  6
CONTINUOUS
 10
148.6095273419
 20
-42.9092532019
 11
148.65027414
 21
-42.95
  0
LINE
  5
540
100
AcDbEntity
  8
RACCORDO
100
AcDbLine
 62
250
  6
CONTINUOUS
 10
128.8574585972
 20
-22.8555559462
 11
128.701902651
 21
-22.7
  0
LINE
  5
541
100
AcDbEntity
  8
RACCORDO
100
AcDbLine
 62
250
  6
CONTINUOUS
 10
83.6473167138
 20
22.3545859371
 11
83.8
 21
22.201902651
  0
LINE
  5
542
100
AcDbEntity
  8
RACCORDO
100
AcDbLine
 62
250
  6
CONTINUOUS
 10
129.3555791399
 20
-22.3574817908
 11
129.2
 21
-22.201902651
  0
LINE
  5
543
100
AcDbEntity
  8
RACCORDO
100
AcDbLine
 62
250
  6
CONTINUOUS
 10
84.1455147912
 20
22.8525825578
 11
84.298097349
 21
22.7
  0
LINE
  5
544
100
AcDbEntity
  8
ASSI
100
AcDbLine
 62
250
  6
CONTINUOUS
 10
149.4092537221
 20
-42.1095278621
 11
149.45
 21
-42.15027414
  0
LWPOLYLINE
  5
545
100
AcDbEntity
  8
RACCORDO
100
AcDbPolyline
 62
250
  6
CONTINUOUS
 90
11
 70
0
 10
84.1379942682
 20
22.9727554485
 10
84.1385841246
 20
22.9530423716
 10
84.1392235014
 20
22.9347468765
 10
84.1399078302
 20
22.9179996868
 10
84.1406322213
 20
22.9029204633
 10
84.141391499
 20
22.889616949
 10
84.142180238
 20
22.8781841992
 10
84.1429928027
 20
22.8687039026
 10
84.1438233873
 20
22.861243797
 10
84.1446660572
 20
22.855857186
 10
84.1455147912
 20
22.8525825578
  0
LINE
  5
546
100
AcDbEntity
  8
RACCORDO
100
AcDbLine
 62
250
  6
CONTINUOUS
 10
84.136979591
 20
23.0158618158
 11
84.1379942682
 21
22.9727554485
  0
LINE
  5
547
100
AcDbEntity
  8
RACCORDO
100
AcDbLine
 62
250
  6
CONTINUOUS
 10
84.1362084179
 20
23.0628361781
 11
84.136979591
 21
23.0158618158
  0
LINE
  5
548
100
AcDbEntity
  8
RACCORDO
100
AcDbLine
 62
250
  6
CONTINUOUS
 10
84.1357027501
 20
23.1123383838
 11
84.1362084179
 21
23.0628361781
  0
LINE
  5
549
100
AcDbEntity
  8
RACCORDO
100
AcDbLine
 62
250
  6
CONTINUOUS
 10
84.1357027418
 20
-23.112338297
 11
84.1362084041
 21
-23.0628360343
  0
LINE
  5
54A
100
AcDbEntity
  8
RACCORDO
100
AcDbLine
 62
250
  6
CONTINUOUS
 10
84.1362084041
 20
-23.0628360343
 11
84.1369795739
 21
-23.0158616471
  0
LWPOLYLINE
  5
54B
100
AcDbEntity
  8
RACCORDO
100
AcDbPolyline
 62
250
  6
CONTINUOUS
 90
12
 70
0
 10
84.1369795739
 20
-23.0158616471
 10
84.13799425
 20
-22.9727552846
 10
84.1385841065
 20
-22.9530422191
 10
84.1392234838
 20
-22.9347467401
 10
84.1399078135
 20
-22.9179995701
 10
84.1406322059
 20
-22.9029203679
 10
84.1413914852
 20
-22.8896168756
 10
84.1421802263
 20
-22.8781841472
 10
84.1429927934
 20
-22.8687038695
 10
84.1438233807
 20
-22.8612437795
 10
84.1446660536
 20
-22.8558571798
 10
84.1455147912
 20
-22.8525825578
  0
LINE
  5
54C
100
AcDbEntity
  8
ASSI
100
AcDbLine
 62
250
  6
CONTINUOUS
 10
106.5
 20
42.9051300365
 11
106.5
 21
42.5903368003
  0
LINE
  5
54D
100
AcDbEntity
  8
RACCORDO
100
AcDbLine
 62
250
  6
CONTINUOUS
 10
106.5
 20
42.5903668806
 11
106.5
 21
22.8818256987
  0
LINE
  5
54E
100
AcDbEntity
  8
ASSI
100
AcDbLine
 62
250
  6
CONTINUOUS
 10
106.5
 20
-42.9051300365
 11
106.5
 21
-42.5903642453
  0
LINE
  5
54F
100
AcDbEntity
  8
RACCORDO
100
AcDbLine
 62
250
  6
CONTINUOUS
 10
106.5
 20
-42.5903668806
 11
106.5
 21
-22.8818256987
  0
LWPOLYLINE
  5
550
100
AcDbEntity
  8
0
100
AcDbPolyline
 62
7
  6
CONTINUOUS
 90
10
 70
0
 43
0.3500000006
 10
153.7000015869
 20
1.0714289017
 10
154.3428550415
 20
0.4285709152
 10
155.199992981
 20
-0.0000003204
 10
156.2714335327
 20
-0.0000003204
 10
156.7000025024
 20
0.4285709152
 10
156.7000025024
 20
1.0714289017
 10
156.2714335327
 20
1.5000001373
 10
155.4142774658
 20
1.5000001373
 10
154.9857084961
 20
1.0714289017
 10
154.9857084961
 20
0.1428575134
  0
LWPOLYLINE
  5
551
100
AcDbEntity
  8
0
100
AcDbPolyline
 62
7
  6
CONTINUOUS
 90
13
 70
0
 43
0.3500000006
 10
154.9857084961
 20
-1.9285708809
 10
154.7714240112
 20
-2.2142854156
 10
154.1285705566
 20
-2.2142854156
 10
153.7000015869
 20
-1.9285708809
 10
153.7000015869
 20
-1.2857140274
 10
154.1285705566
 20
-1.0000006256
 10
154.7714240112
 20
-1.0000006256
 10
154.9857084961
 20
-1.2857140274
 10
155.4142774658
 20
-0.8571427917
 10
156.2714335327
 20
-0.8571427917
 10
156.7000025024
 20
-1.2857140274
 10
156.7000025024
 20
-1.9285708809
 10
156.2714335327
 20
-2.3571432495
  0
LWPOLYLINE
  5
552
100
AcDbEntity
  8
ASSI
100
AcDbPolyline
 62
250
  6
CONTINUOUS
 90
14
 70
0
 10
149.409253555
 20
-42.109527695
 10
149.407111873
 20
-42.1110646979
 10
149.4025281119
 20
-42.1125941589
 10
149.3955247639
 20
-42.1141085731
 10
149.3861361936
 20
-42.1156005095
 10
149.3744084697
 20
-42.1170626474
 10
149.360399139
 20
-42.1184878124
 10
149.3441769434
 20
-42.1198690113
 10
149.3258214833
 20
-42.1211994667
 10
149.3054228265
 20
-42.1224726504
 10
149.2830810664
 20
-42.1236823151
 10
149.2589058311
 20
-42.124822525
 10
149.233015745
 20
-42.1258876855
 10
149.2055378471
 20
-42.1268725698
  0
LWPOLYLINE
  5
553
100
AcDbEntity
  8
RACCORDO
100
AcDbPolyline
 62
250
  6
CONTINUOUS
 90
11
 70
0
 10
128.864972497
 20
-22.9760742632
 10
128.8643837336
 20
-22.9563060573
 10
128.8637453234
 20
-22.9379581636
 10
128.8630618432
 20
-22.9211621237
 10
128.8623381934
 20
-22.9060383538
 10
128.8615795619
 20
-22.8926952802
 10
128.8607913879
 20
-22.8812285626
 10
128.8599793219
 20
-22.8717204085
 10
128.8591491858
 20
-22.8642389835
 10
128.8583069314
 20
-22.8588379227
 10
128.8574585972
 20
-22.8555559462
  0
LINE
  5
554
100
AcDbEntity
  8
RACCORDO
100
AcDbLine
 62
250
  6
CONTINUOUS
 10
128.865984585
 20
-23.0192955456
 11
128.864972497
 21
-22.9760742632
  0
LINE
  5
555
100
AcDbEntity
  8
RACCORDO
100
AcDbLine
 62
250
  6
CONTINUOUS
 10
128.866752615
 20
-23.0663847581
 11
128.865984585
 21
-23.0192955456
  0
LINE
  5
556
100
AcDbEntity
  8
RACCORDO
100
AcDbLine
 62
250
  6
CONTINUOUS
 10
128.8672546008
 20
-23.1159939198
 11
128.866752615
 21
-23.0663847581
  0
LINE
  5
557
100
AcDbEntity
  8
RACCORDO
100
AcDbLine
 62
250
  6
CONTINUOUS
 10
128.8674761729
 20
-23.1667029151
 11
128.8672546008
 21
-23.1159939198
  0
LINE
  5
558
100
AcDbEntity
  8
RACCORDO
100
AcDbLine
 62
250
  6
CONTINUOUS
 10
129.6666263563
 20
22.3675989178
 11
129.6922921263
 21
10.9402616105
  0
LINE
  5
559
100
AcDbEntity
  8
RACCORDO
100
AcDbLine
 62
250
  6
CONTINUOUS
 10
129.3555791399
 20
22.3574817908
 11
129.3734134397
 21
12.2918906341
  0
LINE
  5
55A
100
AcDbEntity
  8
RACCORDO
100
AcDbLine
 62
250
  6
CONTINUOUS
 10
129.6922921263
 20
10.9402616105
 11
129.6990874829
 21
6.1254520165
  0
LINE
  5
55B
100
AcDbEntity
  8
RACCORDO
100
AcDbLine
 62
250
  6
CONTINUOUS
 10
129.3734134397
 20
12.2918906341
 11
129.3797421492
 21
6.1231136546
  0
LINE
  5
55C
100
AcDbEntity
  8
RACCORDO
100
AcDbLine
 62
250
  6
CONTINUOUS
 10
129.6990874829
 20
6.1254520165
 11
129.702009428
 21
0.6848896476
  0
LINE
  5
55D
100
AcDbEntity
  8
RACCORDO
100
AcDbLine
 62
7
  6
CONTINUOUS
 10
129.2
 20
-22.201902651
 11
129.2
 21
22.201902651
  0
LINE
  5
55E
100
AcDbEntity
  8
RACCORDO
100
AcDbLine
 62
250
  6
CONTINUOUS
 10
129.3797421492
 20
6.1231136546
 11
129.3817856318
 21
-0.6588193378
  0
LINE
  5
55F
100
AcDbEntity
  8
RACCORDO
100
AcDbLine
 62
250
  6
CONTINUOUS
 10
129.3817856318
 20
-0.6588193378
 11
129.3796115032
 21
-6.3105715295
  0
LINE
  5
560
100
AcDbEntity
  8
RACCORDO
100
AcDbLine
 62
250
  6
CONTINUOUS
 10
129.702009428
 20
0.6848896476
 11
129.7006504595
 21
-4.2392709233
  0
LINE
  5
561
100
AcDbEntity
  8
RACCORDO
100
AcDbLine
 62
250
  6
CONTINUOUS
 10
129.3796115032
 20
-6.3105715295
 11
129.3739610303
 21
-11.8836651645
  0
LINE
  5
562
100
AcDbEntity
  8
RACCORDO
100
AcDbLine
 62
250
  6
CONTINUOUS
 10
129.7006504595
 20
-4.2392709233
 11
129.6959810027
 21
-8.6919090758
  0
LINE
  5
563
100
AcDbEntity
  8
RACCORDO
100
AcDbLine
 62
250
  6
CONTINUOUS
 10
129.6959810027
 20
-8.6919090758
 11
129.6866305101
 21
-13.7085282907
  0
LINE
  5
564
100
AcDbEntity
  8
RACCORDO
100
AcDbLine
 62
250
  6
CONTINUOUS
 10
129.3739610303
 20
-11.8836651645
 11
129.3555791399
 21
-22.3574817908
  0
LINE
  5
565
100
AcDbEntity
  8
RACCORDO
100
AcDbLine
 62
250
  6
CONTINUOUS
 10
129.6866305101
 20
-13.7085282907
 11
129.6666263563
 21
-22.3675989178
  0
LINE
  5
566
100
AcDbEntity
  8
RACCORDO
100
AcDbLine
 62
250
  6
CONTINUOUS
 10
128.8674761729
 20
23.1667029151
 11
128.8672546364
 21
23.1159938811
  0
LINE
  5
567
100
AcDbEntity
  8
RACCORDO
100
AcDbLine
 62
250
  6
CONTINUOUS
 10
128.8672546364
 20
23.1159938811
 11
128.8667526778
 21
23.0663847043
  0
LINE
  5
568
100
AcDbEntity
  8
RACCORDO
100
AcDbLine
 62
250
  6
CONTINUOUS
 10
128.8667526778
 20
23.0663847043
 11
128.8659846665
 21
23.0192954974
  0
LWPOLYLINE
  5
569
100
AcDbEntity
  8
RACCORDO
100
AcDbPolyline
 62
250
  6
CONTINUOUS
 90
12
 70
0
 10
128.8659846665
 20
23.0192954974
 10
128.8649725882
 20
22.9760742317
 10
128.8643838262
 20
22.9563060352
 10
128.8637454149
 20
22.9379581505
 10
128.8630619314
 20
22.9211621189
 10
128.8623382759
 20
22.9060383549
 10
128.8615796364
 20
22.892695285
 10
128.8607914519
 20
22.8812285693
 10
128.8599793732
 20
22.8717204147
 10
128.8591492222
 20
22.8642389876
 10
128.8583069508
 20
22.8588379244
 10
128.8574585972
 20
22.8555559462
  0
LWPOLYLINE
  5
56A
100
AcDbEntity
  8
RACCORDO
100
AcDbPolyline
 62
250
  6
CONTINUOUS
 90
28
 70
0
 10
129.3555791399
 20
-22.3574817908
 10
129.3547730762
 20
-22.3858449463
 10
129.3523516889
 20
-22.4142049365
 10
129.3483063109
 20
-22.4424695646
 10
129.3426260943
 20
-22.4705807932
 10
129.3353167728
 20
-22.4984074541
 10
129.3264205462
 20
-22.525750753
 10
129.3159728946
 20
-22.5525090555
 10
129.304006279
 20
-22.5786077656
 10
129.2905943269
 20
-22.6039010796
 10
129.2758161138
 20
-22.6282753258
 10
129.2597114045
 20
-22.6516977066
 10
129.2423024689
 20
-22.6741483335
 10
129.2236423244
 20
-22.6955612188
 10
129.2037969683
 20
-22.7158629761
 10
129.1828000535
 20
-22.735016808
 10
129.1607688779
 20
-22.752916663
 10
129.1377230765
 20
-22.7695468411
 10
129.1135265419
 20
-22.7849732642
 10
129.0881573322
 20
-22.7991458217
 10
129.0617492569
 20
-22.8119269498
 10
129.0343880836
 20
-22.8232233244
 10
129.006074272
 20
-22.8329771929
 10
128.9769682225
 20
-22.8410778467
 10
128.9474199869
 20
-22.8474054401
 10
128.9176230294
 20
-22.851927118
 10
128.8875999534
 20
-22.8546471558
 10
128.8574585972
 20
-22.8555559462
  0
LWPOLYLINE
  5
56B
100
AcDbEntity
  8
RACCORDO
100
AcDbPolyline
 62
250
  6
CONTINUOUS
 90
28
 70
0
 10
129.6666263563
 20
-22.3675989178
 10
129.6652124212
 20
-22.4132142336
 10
129.6612014753
 20
-22.4585350509
 10
129.6545935146
 20
-22.5035613657
 10
129.6453480368
 20
-22.5484961885
 10
129.633505536
 20
-22.5931365007
 10
129.6191875022
 20
-22.6368732533
 10
129.6023464597
 20
-22.6796679987
 10
129.5830298763
 20
-22.7215591767
 10
129.5615016578
 20
-22.7620530689
 10
129.5377750429
 20
-22.8010728514
 10
129.5118367876
 20
-22.8386953427
 10
129.483911074
 20
-22.8746572895
 10
129.453986965
 20
-22.9089621438
 10
129.4220753957
 20
-22.9416064514
 10
129.3884333579
 20
-22.9723166008
 10
129.353151827
 20
-23.0010485433
 10
129.3161398292
 20
-23.0278463293
 10
129.277381433
 20
-23.0525684967
 10
129.2367502339
 20
-23.0753082896
 10
129.1943726414
 20
-23.0959724689
 10
129.1506119464
 20
-23.1141398489
 10
129.1053023333
 20
-23.1297873077
 10
129.0586096264
 20
-23.1429379758
 10
129.0113945773
 20
-23.1532400469
 10
128.9639441065
 20
-23.1605762552
 10
128.9159713034
 20
-23.1650638763
 10
128.8674761729
 20
-23.1667029151
  0
LWPOLYLINE
  5
56C
100
AcDbEntity
  8
ASSI
100
AcDbPolyline
 62
250
  6
CONTINUOUS
 90
28
 70
0
 10
148.9458745844
 20
42.1327603139
 10
148.9447497857
 20
42.1498595545
 10
148.9426008002
 20
42.1669765158
 10
148.9394274135
 20
42.1841110047
 10
148.9352043426
 20
42.2013720741
 10
148.9299564168
 20
42.2186502595
 10
148.9237586255
 20
42.2356176337
 10
148.9166071118
 20
42.2522200131
 10
148.9085053745
 20
42.2685112773
 10
148.8995395245
 20
42.2843256896
 10
148.889701509
 20
42.2996573326
 10
148.8789991343
 20
42.3145119276
 10
148.8675423944
 20
42.3287412918
 10
148.8553248794
 20
42.3423390977
 10
148.8423528988
 20
42.3553116196
 10
148.8287556302
 20
42.3675296824
 10
148.8145268483
 20
42.3789869581
 10
148.7996728321
 20
42.3896898755
 10
148.7843416212
 20
42.3995284993
 10
148.7685274353
 20
42.4084950733
 10
148.7522362512
 20
42.4165976003
 10
148.7356338402
 20
42.4237498785
 10
148.7187134525
 20
42.429942471
 10
148.7014821467
 20
42.4351851765
 10
148.6841264826
 20
42.4394207175
 10
148.6667087853
 20
42.4426301555
 10
148.6491671109
 20
42.4448328597
 10
148.6315016436
 20
42.4460290398
  0
LWPOLYLINE
  5
56D
100
AcDbEntity
  8
ASSI
100
AcDbPolyline
 62
250
  6
CONTINUOUS
 90
5
 70
0
 10
148.9458745844
 20
42.1327603139
 10
148.9628307404
 20
41.6579055137
 10
148.9779730045
 20
41.1656702315
 10
148.9913018658
 20
40.6560766998
 10
149.002748189
 20
40.1240252782
  0
LWPOLYLINE
  5
56E
100
AcDbEntity
  8
ASSI
100
AcDbPolyline
 62
250
  6
CONTINUOUS
 90
28
 70
0
 10
149.409253555
 20
42.109527695
 10
149.4079006894
 20
42.1560372651
 10
149.4038460383
 20
42.2023907915
 10
149.3971027833
 20
42.248431588
 10
149.3876928125
 20
42.2940054039
 10
149.375647629
 20
42.3389565654
 10
149.3610091033
 20
42.3831287264
 10
149.343826622
 20
42.4263734101
 10
149.3241587759
 20
42.4685435778
 10
149.3020760126
 20
42.5094904912
 10
149.2776562648
 20
42.549073452
 10
149.2509817117
 20
42.5871626287
 10
149.2221415525
 20
42.6236328335
 10
149.1912353365
 20
42.6583599135
 10
149.1583667967
 20
42.6912288285
 10
149.1236400967
 20
42.7221354184
 10
149.0871703883
 20
42.7509758723
 10
149.0490817266
 20
42.7776507394
 10
149.0094989459
 20
42.8020710296
 10
148.9685516838
 20
42.8241545867
 10
148.9263807625
 20
42.8438233178
 10
148.8831350214
 20
42.8610066662
 10
148.8389613287
 20
42.8756460454
 10
148.7940083235
 20
42.8876919527
 10
148.7484329993
 20
42.8971023577
 10
148.7023912747
 20
42.9038457977
 10
148.6560372091
 20
42.9079005025
 10
148.6095275003
 20
42.9092533602
  0
LINE
  5
56F
100
AcDbEntity
  8
ASSI
100
AcDbLine
 62
250
  6
CONTINUOUS
 10
148.6268854083
 20
42.7055340168
 11
148.628596692
 21
42.6463606286
  0
LINE
  5
570
100
AcDbEntity
  8
ASSI
100
AcDbLine
 62
250
  6
CONTINUOUS
 10
148.628596692
 20
42.6463606286
 11
148.6299341514
 21
42.5825425414
  0
LINE
  5
571
100
AcDbEntity
  8
ASSI
100
AcDbLine
 62
250
  6
CONTINUOUS
 10
149.002748189
 20
40.1240252782
 11
149.0204033106
 21
39.0233760801
  0
LINE
  5
572
100
AcDbEntity
  8
ASSI
100
AcDbLine
 62
250
  6
CONTINUOUS
 10
148.6299341514
 20
42.5825425414
 11
148.6308715692
 21
42.5153307997
  0
LINE
  5
573
100
AcDbEntity
  8
ASSI
100
AcDbLine
 62
250
  6
CONTINUOUS
 10
149.0204033106
 20
39.0233760801
 11
149.0313121209
 21
37.9148377789
  0
LINE
  5
574
100
AcDbEntity
  8
ASSI
100
AcDbLine
 62
250
  6
CONTINUOUS
 10
148.6308715692
 20
42.5153307997
 11
148.63139057
 21
42.4460429832
  0
LINE
  5
575
100
AcDbEntity
  8
ASSI
100
AcDbLine
 62
250
  6
CONTINUOUS
 10
149.0313121209
 20
37.9148377789
 11
149.0382052954
 21
36.8522110661
  0
LINE
  5
576
100
AcDbEntity
  8
ASSI
100
AcDbLine
 62
250
  6
CONTINUOUS
 10
149.0382052954
 20
36.8522110661
 11
149.045386079
 21
34.908775354
  0
LINE
  5
577
100
AcDbEntity
  8
ASSI
100
AcDbLine
 62
250
  6
CONTINUOUS
 10
149.0511474556
 20
32.1962503433
 11
149.0782242884
 21
24.0772565998
  0
LINE
  5
578
100
AcDbEntity
  8
ASSI
100
AcDbLine
 62
250
  6
CONTINUOUS
 10
149.045386079
 20
34.908775354
 11
149.0511474556
 21
32.1962503433
  0
LINE
  5
579
100
AcDbEntity
  8
ASSI
100
AcDbLine
 62
250
  6
CONTINUOUS
 10
149.0782242884
 20
24.0772565998
 11
149.0848233743
 21
21.3679876508
  0
LINE
  5
57A
100
AcDbEntity
  8
ASSI
100
AcDbLine
 62
250
  6
CONTINUOUS
 10
149.0848233743
 20
21.3679876508
 11
149.0902742815
 21
16.863393467
  0
LINE
  5
57B
100
AcDbEntity
  8
ASSI
100
AcDbLine
 62
7
  6
CONTINUOUS
 10
149.45
 20
-42.15027414
 11
149.45
 21
42.15027414
  0
LINE
  5
57C
100
AcDbEntity
  8
ASSI
100
AcDbLine
 62
250
  6
CONTINUOUS
 10
149.0902742815
 20
16.863393467
 11
149.0915226824
 21
-12.5081289394
  0
LINE
  5
57D
100
AcDbEntity
  8
ASSI
100
AcDbLine
 62
250
  6
CONTINUOUS
 10
149.0915226824
 20
-12.5081289394
 11
149.0899626
 21
-17.3170817846
  0
LINE
  5
57E
100
AcDbEntity
  8
ASSI
100
AcDbLine
 62
250
  6
CONTINUOUS
 10
149.409254069
 20
42.109528209
 11
149.4092537221
 21
-42.1095278621
  0
LINE
  5
57F
100
AcDbEntity
  8
ASSI
100
AcDbLine
 62
250
  6
CONTINUOUS
 10
149.0899626
 20
-17.3170817846
 11
149.0854177389
 21
-21.04361696
  0
LINE
  5
580
100
AcDbEntity
  8
ASSI
100
AcDbLine
 62
250
  6
CONTINUOUS
 10
149.0854177389
 20
-21.04361696
 11
149.0790365855
 21
-23.8030320334
  0
LWPOLYLINE
  5
581
100
AcDbEntity
  8
ASSI
100
AcDbPolyline
 62
250
  6
CONTINUOUS
 90
3
 70
0
 10
149.0790365855
 20
-23.8030320334
 10
149.0676010109
 20
-27.0283186754
 10
149.0411323077
 20
-36.1684790666
  0
LINE
  5
582
100
AcDbEntity
  8
ASSI
100
AcDbLine
 62
250
  6
CONTINUOUS
 10
149.0411323077
 20
-36.1684790666
 11
149.0334943374
 21
-37.6278532759
  0
LINE
  5
583
100
AcDbEntity
  8
ASSI
100
AcDbLine
 62
250
  6
CONTINUOUS
 10
148.6313905792
 20
-42.4460429749
 11
148.630871574
 21
-42.5153312148
  0
LINE
  5
584
100
AcDbEntity
  8
ASSI
100
AcDbLine
 62
250
  6
CONTINUOUS
 10
149.0334943374
 20
-37.6278532759
 11
149.0261182184
 21
-38.5151952257
  0
LINE
  5
585
100
AcDbEntity
  8
ASSI
100
AcDbLine
 62
250
  6
CONTINUOUS
 10
149.0261182184
 20
-38.5151952257
 11
149.0161028148
 21
-39.3406687238
  0
LINE
  5
586
100
AcDbEntity
  8
ASSI
100
AcDbLine
 62
250
  6
CONTINUOUS
 10
148.630871574
 20
-42.5153312148
 11
148.6299341474
 21
-42.5825432907
  0
LINE
  5
587
100
AcDbEntity
  8
ASSI
100
AcDbLine
 62
250
  6
CONTINUOUS
 10
149.0161028148
 20
-39.3406687238
 11
149.0031723007
 21
-40.1085727212
  0
LINE
  5
588
100
AcDbEntity
  8
ASSI
100
AcDbLine
 62
250
  6
CONTINUOUS
 10
148.6299341474
 20
-42.5825432907
 11
148.6285966768
 21
-42.646361605
  0
LINE
  5
589
100
AcDbEntity
  8
ASSI
100
AcDbLine
 62
250
  6
CONTINUOUS
 10
149.0031723007
 20
-40.1085727212
 11
148.9870770112
 21
-40.8267132615
  0
LINE
  5
58A
100
AcDbEntity
  8
ASSI
100
AcDbLine
 62
250
  6
CONTINUOUS
 10
148.9870770112
 20
-40.8267132615
 11
148.9680093572
 21
-41.500502784
  0
LWPOLYLINE
  5
58B
100
AcDbEntity
  8
ASSI
100
AcDbPolyline
 62
250
  6
CONTINUOUS
 90
15
 70
0
 10
148.6285966768
 20
-42.646361605
 10
148.6268853811
 20
-42.7055350972
 10
148.6258997632
 20
-42.7330133366
 10
148.624833808
 20
-42.7589037499
 10
148.6236927458
 20
-42.7830792948
 10
148.6224821758
 20
-42.8054213436
 10
148.6212080381
 20
-42.8258202654
 10
148.619876585
 20
-42.8441759642
 10
148.6184943496
 20
-42.8603983698
 10
148.6170681143
 20
-42.8744078825
 10
148.6156048779
 20
-42.8861357553
 10
148.614111821
 20
-42.8955244353
 10
148.6125962705
 20
-42.902527856
 10
148.6110656627
 20
-42.9071116587
 10
148.6095275084
 20
-42.9092533554
  0
LINE
  5
58C
100
AcDbEntity
  8
ASSI
100
AcDbLine
 62
250
  6
CONTINUOUS
 10
148.9680093572
 20
-41.500502784
 11
148.9460111406
 21
-42.1316723018
  0
LWPOLYLINE
  5
58D
100
AcDbEntity
  8
ASSI
100
AcDbPolyline
 62
250
  6
CONTINUOUS
 90
14
 70
0
 10
148.6095275003
 20
42.9092533602
 10
148.6110656692
 20
42.9071116315
 10
148.6125962894
 20
42.9025277577
 10
148.6141118499
 20
42.895524237
 10
148.6156049143
 20
42.8861354398
 10
148.6170681558
 20
42.874407442
 10
148.6184943944
 20
42.8603978005
 10
148.6198766314
 20
42.8441752674
 10
148.6212080845
 20
42.8258194507
 10
148.6224822206
 20
42.805420426
 10
148.6236927877
 20
42.7830782955
 10
148.6248338458
 20
42.7589026948
 10
148.6258997961
 20
42.7330122531
 10
148.6268854083
 20
42.7055340168
  0
LINE
  5
58E
100
AcDbEntity
  8
ASSI
100
AcDbLine
 62
7
  6
CONTINUOUS
 10
-172.6253520877
 20
-42.95
 11
-174.3399774372
 21
-42.9051009551
  0
LINE
  5
58F
100
AcDbEntity
  8
ASSI
100
AcDbLine
 62
7
  6
CONTINUOUS
 10
-174.3640313053
 20
-42.9038905975
 11
-174.3398797398
 21
-42.9051035134
  0
LWPOLYLINE
  5
590
100
AcDbEntity
  8
ASSI
100
AcDbPolyline
 62
250
  6
CONTINUOUS
 90
19
 70
0
 10
-172.6253519424
 20
-42.1528974388
 10
-172.5172258232
 20
-42.1414364562
 10
-172.4086945548
 20
-42.1271976416
 10
-172.2998497674
 20
-42.110180995
 10
-172.1908881938
 20
-42.0904592515
 10
-172.0818050928
 20
-42.0679596761
 10
-171.9724009285
 20
-42.0424640637
 10
-171.86291009
 20
-42.0140428601
 10
-171.753325209
 20
-41.9826256196
 10
-171.6431161848
 20
-41.9477828002
 10
-171.532542644
 20
-41.9096258133
 10
-171.4216487365
 20
-41.8680432474
 10
-171.3096508175
 20
-41.8222713269
 10
-171.1964943522
 20
-41.7722346169
 10
-171.0826990435
 20
-41.7180085523
 10
-170.9684106244
 20
-41.6590556618
 10
-170.8538713645
 20
-41.5951967884
 10
-170.7394137935
 20
-41.5266110891
 10
-170.6253521373
 20
-41.453298564
  0
LINE
  5
591
100
AcDbEntity
  8
ASSI
100
AcDbLine
 62
250
  6
CONTINUOUS
 10
-174.6564959834
 20
-42.130855833
 11
-174.6664856791
 21
-42.1313744788
  0
LINE
  5
592
100
AcDbEntity
  8
ASSI
100
AcDbLine
 62
250
  6
CONTINUOUS
 10
-174.1813960447
 20
-42.109527695
 11
-174.6564959834
 21
-42.130855833
  0
LINE
  5
593
100
AcDbEntity
  8
ASSI
100
AcDbLine
 62
250
  6
CONTINUOUS
 10
-174.181389664
 20
-42.1095278621
 11
-172.6253520877
 21
-42.15027414
  0
LINE
  5
594
100
AcDbEntity
  8
ASSI
100
AcDbLine
 62
7
  6
CONTINUOUS
 10
-174.372492013
 20
-42.9031917002
 11
-174.3404671535
 21
-42.9050879395
  0
LINE
  5
595
100
AcDbEntity
  8
ASSI
100
AcDbLine
 62
7
  6
CONTINUOUS
 10
-174.4000007961
 20
-42.8999048411
 11
-174.3640313053
 21
-42.9038905975
  0
LINE
  5
596
100
AcDbEntity
  8
ASSI
100
AcDbLine
 62
7
  6
CONTINUOUS
 10
-174.7909010723
 20
-42.591525812
 11
-174.7909850033
 21
-42.5915117248
  0
LINE
  5
597
100
AcDbEntity
  8
ASSI
100
AcDbLine
 62
7
  6
CONTINUOUS
 10
-174.4472788359
 20
-42.8905800612
 11
-174.4000007961
 21
-42.8999048411
  0
LWPOLYLINE
  5
598
100
AcDbEntity
  8
0
100
AcDbPolyline
 62
7
  6
CONTINUOUS
 90
3
 70
0
 43
0.3500000006
 10
-184.9215465088
 20
51.9857129974
 10
-184.9929686279
 20
51.7714285126
 10
-185.1358309937
 20
51.4857128448
  0
LWPOLYLINE
  5
599
100
AcDbEntity
  8
RACCORDO
100
AcDbPolyline
 62
250
  6
CONTINUOUS
 90
3
 70
0
 10
-178.8380865703
 20
-23.1725675216
 10
-178.8474825556
 20
-23.1735456952
 10
-178.8655346039
 20
-23.1755052103
  0
LWPOLYLINE
  5
59A
100
AcDbEntity
  8
RACCORDO
100
AcDbPolyline
 62
250
  6
CONTINUOUS
 90
4
 70
0
 10
-178.7767987392
 20
-23.1667029151
 10
-178.7918758386
 20
-23.1680549973
 10
-178.8052846308
 20
-23.1693227995
 10
-178.8380865703
 20
-23.1725675216
  0
LINE
  5
59B
100
AcDbEntity
  8
RACCORDO
100
AcDbLine
 62
250
  6
CONTINUOUS
 10
-178.7770645733
 20
-22.3675989178
 11
-178.7773133554
 21
-22.3675714057
  0
LWPOLYLINE
  5
59C
100
AcDbEntity
  8
RACCORDO
100
AcDbPolyline
 62
7
  6
CONTINUOUS
 90
19
 70
0
 10
-178.8256853801
 20
-22.8845819314
 10
-178.8476693793
 20
-22.8890099228
 10
-178.8693434917
 20
-22.8950941949
 10
-178.8905992407
 20
-22.9028268508
 10
-178.9112893691
 20
-22.9121775224
 10
-178.9312349523
 20
-22.9230792545
 10
-178.9503008884
 20
-22.9354619757
 10
-178.9683940528
 20
-22.949269154
 10
-178.9854100094
 20
-22.9644290156
 10
-179.0012494104
 20
-22.9808629479
 10
-179.0158117438
 20
-22.9984773312
 10
-179.0290013643
 20
-23.0171652703
 10
-179.0407380895
 20
-23.0368207875
 10
-179.0509497144
 20
-23.0573315499
 10
-179.0595689254
 20
-23.0785693219
 10
-179.0665436804
 20
-23.1004106733
 10
-179.0718315661
 20
-23.1227287255
 10
-179.0753986333
 20
-23.1453827683
 10
-179.0772246667
 20
-23.1682403201
  0
LINE
  5
59D
100
AcDbEntity
  8
RACCORDO
100
AcDbLine
 62
250
  6
CONTINUOUS
 10
-178.9424554103
 20
-23.1847310064
 11
-179.0530220792
 21
-23.1991097596
  0
LINE
  5
59E
100
AcDbEntity
  8
RACCORDO
100
AcDbLine
 62
7
  6
CONTINUOUS
 10
-178.8036294545
 20
-22.8818257093
 11
-178.8256853801
 21
-22.8845819314
  0
LINE
  5
59F
100
AcDbEntity
  8
RACCORDO
100
AcDbLine
 62
250
  6
CONTINUOUS
 10
-178.9093289053
 20
-23.1805975564
 11
-178.9424554103
 21
-23.1847310064
  0
LWPOLYLINE
  5
5A0
100
AcDbEntity
  8
RACCORDO
100
AcDbPolyline
 62
250
  6
CONTINUOUS
 90
3
 70
0
 10
-179.0530220792
 20
-23.1991097596
 10
-179.0762449238
 20
-23.2020199101
 10
-179.0765342927
 20
-23.2020633323
  0
LINE
  5
5A1
100
AcDbEntity
  8
RACCORDO
100
AcDbLine
 62
250
  6
CONTINUOUS
 10
-179.0740386747
 20
-23.2017532034
 11
-179.0754004314
 21
-23.2019165338
  0
LINE
  5
5A2
100
AcDbEntity
  8
RACCORDO
100
AcDbLine
 62
250
  6
CONTINUOUS
 10
-178.8832836308
 20
-23.1775057517
 11
-178.9093289053
 21
-23.1805975564
  0
LINE
  5
5A3
100
AcDbEntity
  8
RACCORDO
100
AcDbLine
 62
250
  6
CONTINUOUS
 10
-178.8655346039
 20
-23.1755052103
 11
-178.8832836308
 21
-23.1775057517
  0
LINE
  5
5A4
100
AcDbEntity
  8
RACCORDO
100
AcDbLine
 62
7
  6
CONTINUOUS
 10
-178.8038221692
 20
-22.8818425696
 11
-178.7664903996
 21
-22.878576463
  0
LINE
  5
5A5
100
AcDbEntity
  8
ASSI
100
AcDbLine
 62
7
  6
CONTINUOUS
 10
-175.6120205408
 20
40.4357579576
 11
-175.7243706045
 21
40.1212518272
  0
LINE
  5
5A6
100
AcDbEntity
  8
ASSI
100
AcDbLine
 62
7
  6
CONTINUOUS
 10
-175.5107172925
 20
40.7148171888
 11
-175.6185923974
 21
40.4176382262
  0
LINE
  5
5A7
100
AcDbEntity
  8
ASSI
100
AcDbLine
 62
7
  6
CONTINUOUS
 10
-175.4114215577
 20
40.9844500139
 11
-175.5259667644
 21
40.673320774
  0
LINE
  5
5A8
100
AcDbEntity
  8
ASSI
100
AcDbLine
 62
7
  6
CONTINUOUS
 10
-175.3144958556
 20
41.2440884793
 11
-175.4183658716
 21
40.9660484351
  0
LINE
  5
5A9
100
AcDbEntity
  8
ASSI
100
AcDbLine
 62
7
  6
CONTINUOUS
 10
-175.2015822164
 20
41.5426692411
 11
-175.3158531263
 21
41.2408407538
  0
LINE
  5
5AA
100
AcDbEntity
  8
ASSI
100
AcDbLine
 62
7
  6
CONTINUOUS
 10
-175.0847122714
 20
41.8463897353
 11
-175.2202863961
 21
41.4932190907
  0
LINE
  5
5AB
100
AcDbEntity
  8
ASSI
100
AcDbLine
 62
7
  6
CONTINUOUS
 10
-174.9836490048
 20
42.106000379
 11
-175.0906011566
 21
41.8314957382
  0
LINE
  5
5AC
100
AcDbEntity
  8
ASSI
100
AcDbLine
 62
7
  6
CONTINUOUS
 10
-174.8701017836
 20
42.3934940894
 11
-174.9988384405
 21
42.066960662
  0
LINE
  5
5AD
100
AcDbEntity
  8
ASSI
100
AcDbLine
 62
7
  6
CONTINUOUS
 10
-174.7909026802
 20
42.5915210716
 11
-174.879052737
 21
42.370751383
  0
LINE
  5
5AE
100
AcDbEntity
  8
ASSI
100
AcDbLine
 62
7
  6
CONTINUOUS
 10
-174.9174631624
 20
-42.2738208274
 11
-174.7909028665
 21
-42.5915206076
  0
LINE
  5
5AF
100
AcDbEntity
  8
ASSI
100
AcDbLine
 62
7
  6
CONTINUOUS
 10
-175.0412085605
 20
-41.9584275471
 11
-174.9113494373
 21
-42.2895155717
  0
LINE
  5
5B0
100
AcDbEntity
  8
ASSI
100
AcDbLine
 62
7
  6
CONTINUOUS
 10
-175.1290968554
 20
-41.731445394
 11
-175.015056767
 21
-42.0257694227
  0
LINE
  5
5B1
100
AcDbEntity
  8
ASSI
100
AcDbLine
 62
7
  6
CONTINUOUS
 10
-175.2385574536
 20
-41.4455085588
 11
-175.1245653758
 21
-41.7435434261
  0
LINE
  5
5B2
100
AcDbEntity
  8
ASSI
100
AcDbLine
 62
7
  6
CONTINUOUS
 10
-175.3626589675
 20
-41.115502195
 11
-175.2202916429
 21
-41.4932053023
  0
LINE
  5
5B3
100
AcDbEntity
  8
ASSI
100
AcDbLine
 62
7
  6
CONTINUOUS
 10
-175.4607898047
 20
-40.8508640639
 11
-175.339235101
 21
-41.1785054587
  0
LINE
  5
5B4
100
AcDbEntity
  8
ASSI
100
AcDbLine
 62
7
  6
CONTINUOUS
 10
-175.5611557008
 20
-40.5763883374
 11
-175.4422646802
 21
-40.901419398
  0
LINE
  5
5B5
100
AcDbEntity
  8
ASSI
100
AcDbLine
 62
7
  6
CONTINUOUS
 10
-175.6633597709
 20
-40.2927404536
 11
-175.5471759844
 21
-40.6150831188
  0
LINE
  5
5B6
100
AcDbEntity
  8
ASSI
100
AcDbLine
 62
7
  6
CONTINUOUS
 10
-175.7240298255
 20
-40.1222161055
 11
-175.6534146493
 21
-40.3205971878
  0
LWPOLYLINE
  5
5B7
100
AcDbEntity
  8
0
100
AcDbPolyline
 62
7
  6
CONTINUOUS
 90
4
 70
0
 43
0.3500000006
 10
-187.9929695435
 20
52.1285708313
 10
-187.9929695435
 20
52.9857133026
 10
-187.5644005737
 20
53.4142868042
 10
-186.9215471191
 20
53.4142868042
  0
LINE
  5
5B8
100
AcDbEntity
  8
ASSI
100
AcDbLine
 62
7
  6
CONTINUOUS
 10
-177.015059229
 20
36.0070881815
 11
-177.1221261668
 21
35.6072814477
  0
LINE
  5
5B9
100
AcDbEntity
  8
ASSI
100
AcDbLine
 62
7
  6
CONTINUOUS
 10
-176.9030485125
 20
36.4126240653
 11
-177.015059229
 21
36.0070881815
  0
LINE
  5
5BA
100
AcDbEntity
  8
ASSI
100
AcDbLine
 62
7
  6
CONTINUOUS
 10
-176.7874054507
 20
36.8189484168
 11
-176.9030485125
 21
36.4126240653
  0
LINE
  5
5BB
100
AcDbEntity
  8
ASSI
100
AcDbLine
 62
7
  6
CONTINUOUS
 10
-176.6696521079
 20
37.2209712913
 11
-176.7874054507
 21
36.8189484168
  0
LINE
  5
5BC
100
AcDbEntity
  8
ASSI
100
AcDbLine
 62
7
  6
CONTINUOUS
 10
-176.5509151107
 20
37.6154414116
 11
-176.6696521079
 21
37.2209712913
  0
LINE
  5
5BD
100
AcDbEntity
  8
ASSI
100
AcDbLine
 62
7
  6
CONTINUOUS
 10
-176.4330829142
 20
37.9969848289
 11
-176.5509151107
 21
37.6154414116
  0
LINE
  5
5BE
100
AcDbEntity
  8
ASSI
100
AcDbLine
 62
7
  6
CONTINUOUS
 10
-176.3169494363
 20
38.3641235606
 11
-176.4330829142
 21
37.9969848289
  0
LINE
  5
5BF
100
AcDbEntity
  8
ASSI
100
AcDbLine
 62
7
  6
CONTINUOUS
 10
-176.2029541359
 20
38.7165430909
 11
-176.3169494363
 21
38.3641235606
  0
LINE
  5
5C0
100
AcDbEntity
  8
ASSI
100
AcDbLine
 62
7
  6
CONTINUOUS
 10
-176.0910332567
 20
39.0554092279
 11
-176.2029541359
 21
38.7165430909
  0
LINE
  5
5C1
100
AcDbEntity
  8
ASSI
100
AcDbLine
 62
7
  6
CONTINUOUS
 10
-175.9811355671
 20
39.3817117955
 11
-176.0910332567
 21
39.0554092279
  0
LINE
  5
5C2
100
AcDbEntity
  8
ASSI
100
AcDbLine
 62
7
  6
CONTINUOUS
 10
-175.8732945986
 20
39.6960830124
 11
-175.9811355671
 21
39.3817117955
  0
LWPOLYLINE
  5
5C3
100
AcDbEntity
  8
ASSI
100
AcDbPolyline
 62
7
  6
CONTINUOUS
 90
3
 70
0
 10
-175.7151609125
 20
40.1473136316
 10
-175.7674090929
 20
39.9994601045
 10
-175.8732945986
 20
39.6960830124
  0
LINE
  5
5C4
100
AcDbEntity
  8
ASSI
100
AcDbLine
 62
7
  6
CONTINUOUS
 10
-175.8201042424
 20
-39.8491181614
 11
-175.715170253
 21
-40.1472873057
  0
LINE
  5
5C5
100
AcDbEntity
  8
ASSI
100
AcDbLine
 62
7
  6
CONTINUOUS
 10
-175.9269941614
 20
-39.5402409696
 11
-175.8201042424
 21
-39.8491181614
  0
LINE
  5
5C6
100
AcDbEntity
  8
ASSI
100
AcDbLine
 62
7
  6
CONTINUOUS
 10
-176.0358414895
 20
-39.2200536195
 11
-175.9269941614
 21
-39.5402409696
  0
LINE
  5
5C7
100
AcDbEntity
  8
ASSI
100
AcDbLine
 62
7
  6
CONTINUOUS
 10
-176.1467299049
 20
-38.8876288662
 11
-176.0358414895
 21
-39.2200536195
  0
LINE
  5
5C8
100
AcDbEntity
  8
ASSI
100
AcDbLine
 62
7
  6
CONTINUOUS
 10
-176.2597256468
 20
-38.5419819498
 11
-176.1467299049
 21
-38.8876288662
  0
LINE
  5
5C9
100
AcDbEntity
  8
ASSI
100
AcDbLine
 62
7
  6
CONTINUOUS
 10
-176.3747376776
 20
-38.1824960606
 11
-176.2597256468
 21
-38.5419819498
  0
LINE
  5
5CA
100
AcDbEntity
  8
ASSI
100
AcDbLine
 62
7
  6
CONTINUOUS
 10
-176.4919069093
 20
-37.8076948382
 11
-176.3747376776
 21
-38.1824960606
  0
LINE
  5
5CB
100
AcDbEntity
  8
ASSI
100
AcDbLine
 62
7
  6
CONTINUOUS
 10
-176.6102330779
 20
-37.4196830271
 11
-176.4919069093
 21
-37.8076948382
  0
LINE
  5
5CC
100
AcDbEntity
  8
ASSI
100
AcDbLine
 62
7
  6
CONTINUOUS
 10
-176.728738279
 20
-37.0206538219
 11
-176.6102330779
 21
-37.4196830271
  0
LINE
  5
5CD
100
AcDbEntity
  8
ASSI
100
AcDbLine
 62
7
  6
CONTINUOUS
 10
-176.8456971588
 20
-36.6156288223
 11
-176.728738279
 21
-37.0206538219
  0
LINE
  5
5CE
100
AcDbEntity
  8
ASSI
100
AcDbLine
 62
7
  6
CONTINUOUS
 10
-176.9595254799
 20
-36.2096961633
 11
-176.8456971588
 21
-36.6156288223
  0
LWPOLYLINE
  5
5CF
100
AcDbEntity
  8
ASSI
100
AcDbPolyline
 62
7
  6
CONTINUOUS
 90
3
 70
0
 10
-177.1221445781
 20
-35.6072116018
 10
-177.0693019479
 20
-35.8061006374
 10
-176.9595254799
 20
-36.2096961633
  0
LINE
  5
5D0
100
AcDbEntity
  8
ASSI
100
AcDbLine
 62
7
  6
CONTINUOUS
 10
-178.1071565804
 20
31.084860454
 11
-178.1243769683
 21
30.9860134149
  0
LINE
  5
5D1
100
AcDbEntity
  8
ASSI
100
AcDbLine
 62
7
  6
CONTINUOUS
 10
-178.1717273381
 20
30.7249650493
 11
-178.23505471
 21
30.3600829301
  0
LINE
  5
5D2
100
AcDbEntity
  8
ASSI
100
AcDbLine
 62
7
  6
CONTINUOUS
 10
-178.0791722815
 20
31.2319994132
 11
-178.1362822562
 21
30.9051442758
  0
LINE
  5
5D3
100
AcDbEntity
  8
ASSI
100
AcDbLine
 62
7
  6
CONTINUOUS
 10
-178.0558579432
 20
31.3743794156
 11
-178.1053034
 21
31.0954530639
  0
LINE
  5
5D4
100
AcDbEntity
  8
ASSI
100
AcDbLine
 62
7
  6
CONTINUOUS
 10
-178.1091558941
 20
31.0745935924
 11
-178.1764355337
 21
30.698245424
  0
LINE
  5
5D5
100
AcDbEntity
  8
RACCORDO
100
AcDbLine
 62
7
  6
CONTINUOUS
 10
-178.135701128
 20
30.9050391191
 11
-178.2466519553
 21
30.2918912091
  0
LINE
  5
5D6
100
AcDbEntity
  8
ASSI
100
AcDbLine
 62
7
  6
CONTINUOUS
 10
-178.026067287
 20
31.527579163
 11
-178.0791722815
 21
31.2319994132
  0
LINE
  5
5D7
100
AcDbEntity
  8
ASSI
100
AcDbLine
 62
7
  6
CONTINUOUS
 10
-178.0892039905
 20
31.1842973174
 11
-178.11231053
 21
31.0571868376
  0
LINE
  5
5D8
100
AcDbEntity
  8
ASSI
100
AcDbLine
 62
7
  6
CONTINUOUS
 10
-178.0071548303
 20
31.6419792934
 11
-178.0558579432
 21
31.3743794156
  0
LINE
  5
5D9
100
AcDbEntity
  8
ASSI
100
AcDbLine
 62
7
  6
CONTINUOUS
 10
-177.9741193159
 20
31.8089480017
 11
-178.026067287
 21
31.527579163
  0
LINE
  5
5DA
100
AcDbEntity
  8
ASSI
100
AcDbLine
 62
7
  6
CONTINUOUS
 10
-177.9621718326
 20
31.8829774879
 11
-178.0071548303
 21
31.6419792934
  0
LINE
  5
5DB
100
AcDbEntity
  8
ASSI
100
AcDbLine
 62
7
  6
CONTINUOUS
 10
-177.9107011872
 20
32.1424792048
 11
-177.9741193159
 21
31.8089480017
  0
LINE
  5
5DC
100
AcDbEntity
  8
ASSI
100
AcDbLine
 62
7
  6
CONTINUOUS
 10
-177.9081682537
 20
32.1648418075
 11
-177.9621718326
 21
31.8829774879
  0
LINE
  5
5DD
100
AcDbEntity
  8
ASSI
100
AcDbLine
 62
7
  6
CONTINUOUS
 10
-177.8616780847
 20
32.3931896637
 11
-177.9107011872
 21
32.1424792048
  0
LINE
  5
5DE
100
AcDbEntity
  8
ASSI
100
AcDbLine
 62
7
  6
CONTINUOUS
 10
-177.8070663165
 20
32.6655938713
 11
-177.86736765
 21
32.3726655424
  0
LINE
  5
5DF
100
AcDbEntity
  8
ASSI
100
AcDbLine
 62
7
  6
CONTINUOUS
 10
-177.7468437751
 20
32.958050346
 11
-177.8236459106
 21
32.5907246871
  0
LINE
  5
5E0
100
AcDbEntity
  8
ASSI
100
AcDbLine
 62
7
  6
CONTINUOUS
 10
-177.6812365672
 20
33.2677799637
 11
-177.7540032414
 21
32.9287273459
  0
LINE
  5
5E1
100
AcDbEntity
  8
ASSI
100
AcDbLine
 62
7
  6
CONTINUOUS
 10
-177.6463764398
 20
33.4287979203
 11
-177.7060182186
 21
33.1553552393
  0
LINE
  5
5E2
100
AcDbEntity
  8
ASSI
100
AcDbLine
 62
7
  6
CONTINUOUS
 10
-177.572831406
 20
33.7608842401
 11
-177.6572998663
 21
33.3805502663
  0
LINE
  5
5E3
100
AcDbEntity
  8
ASSI
100
AcDbLine
 62
7
  6
CONTINUOUS
 10
-177.4939728084
 20
34.1061913466
 11
-177.572831406
 21
33.7608842401
  0
LINE
  5
5E4
100
AcDbEntity
  8
ASSI
100
AcDbLine
 62
7
  6
CONTINUOUS
 10
-177.4096108385
 20
34.4641863417
 11
-177.4939728084
 21
34.1061913466
  0
LINE
  5
5E5
100
AcDbEntity
  8
ASSI
100
AcDbLine
 62
7
  6
CONTINUOUS
 10
-177.3195926289
 20
34.8341866083
 11
-177.4096108385
 21
34.4641863417
  0
LINE
  5
5E6
100
AcDbEntity
  8
ASSI
100
AcDbLine
 62
7
  6
CONTINUOUS
 10
-177.2237670326
 20
35.2155512028
 11
-177.3195926289
 21
34.8341866083
  0
LINE
  5
5E7
100
AcDbEntity
  8
ASSI
100
AcDbLine
 62
7
  6
CONTINUOUS
 10
-177.1221261668
 20
35.6072814477
 11
-177.2237670326
 21
35.2155512028
  0
LINE
  5
5E8
100
AcDbEntity
  8
ASSI
100
AcDbLine
 62
7
  6
CONTINUOUS
 10
-177.2237845105
 20
-35.2154827484
 11
-177.1221445781
 21
-35.6072116018
  0
LINE
  5
5E9
100
AcDbEntity
  8
ASSI
100
AcDbLine
 62
7
  6
CONTINUOUS
 10
-177.3196089208
 20
-34.8341207055
 11
-177.2237845105
 21
-35.2154827484
  0
LINE
  5
5EA
100
AcDbEntity
  8
ASSI
100
AcDbLine
 62
7
  6
CONTINUOUS
 10
-177.4096258175
 20
-34.4641237703
 11
-177.3196089208
 21
-34.8341207055
  0
LINE
  5
5EB
100
AcDbEntity
  8
ASSI
100
AcDbLine
 62
7
  6
CONTINUOUS
 10
-177.493986425
 20
-34.1061326364
 11
-177.4096258175
 21
-34.4641237703
  0
LINE
  5
5EC
100
AcDbEntity
  8
ASSI
100
AcDbLine
 62
7
  6
CONTINUOUS
 10
-177.5728437093
 20
-33.7608295179
 11
-177.493986425
 21
-34.1061326364
  0
LINE
  5
5ED
100
AcDbEntity
  8
ASSI
100
AcDbLine
 62
7
  6
CONTINUOUS
 10
-177.6626767858
 20
-33.3559295107
 11
-177.5728437093
 21
-33.7608295179
  0
LINE
  5
5EE
100
AcDbEntity
  8
ASSI
100
AcDbLine
 62
7
  6
CONTINUOUS
 10
-177.7207203342
 20
-33.0864399983
 11
-177.6463875318
 21
-33.4287470653
  0
LINE
  5
5EF
100
AcDbEntity
  8
ASSI
100
AcDbLine
 62
7
  6
CONTINUOUS
 10
-177.7982249674
 20
-32.7153952787
 11
-177.7147183539
 21
-33.1108320659
  0
LINE
  5
5F0
100
AcDbEntity
  8
ASSI
100
AcDbLine
 62
7
  6
CONTINUOUS
 10
-177.8553870357
 20
-32.4328859797
 11
-177.7776830116
 21
-32.8092952709
  0
LINE
  5
5F1
100
AcDbEntity
  8
ASSI
100
AcDbLine
 62
7
  6
CONTINUOUS
 10
-177.909846146
 20
-32.1562025916
 11
-177.8350549202
 21
-32.5268687062
  0
LINE
  5
5F2
100
AcDbEntity
  8
ASSI
100
AcDbLine
 62
7
  6
CONTINUOUS
 10
-177.95431589
 20
-31.9142490795
 11
-177.8868958331
 21
-32.2649743549
  0
LINE
  5
5F3
100
AcDbEntity
  8
ASSI
100
AcDbLine
 62
7
  6
CONTINUOUS
 10
-177.9599080644
 20
-31.8949537107
 11
-177.909846146
 21
-32.1562025916
  0
LINE
  5
5F4
100
AcDbEntity
  8
ASSI
100
AcDbLine
 62
7
  6
CONTINUOUS
 10
-178.0099705668
 20
-31.6155740587
 11
-177.95431589
 21
-31.9142490795
  0
LINE
  5
5F5
100
AcDbEntity
  8
ASSI
100
AcDbLine
 62
7
  6
CONTINUOUS
 10
-178.0179922877
 20
-31.5830414989
 11
-177.9599080644
 21
-31.8949537107
  0
LINE
  5
5F6
100
AcDbEntity
  8
RACCORDO
100
AcDbLine
 62
7
  6
CONTINUOUS
 10
-178.1379803843
 20
-30.8952995307
 11
-178.2327916172
 21
-30.3733008502
  0
LINE
  5
5F7
100
AcDbEntity
  8
ASSI
100
AcDbLine
 62
7
  6
CONTINUOUS
 10
-178.0675299596
 20
-31.2974984265
 11
-178.0099705668
 21
-31.6155740587
  0
LINE
  5
5F8
100
AcDbEntity
  8
ASSI
100
AcDbLine
 62
7
  6
CONTINUOUS
 10
-178.0749474541
 20
-31.2675555489
 11
-178.0179922877
 21
-31.5830414989
  0
LINE
  5
5F9
100
AcDbEntity
  8
ASSI
100
AcDbLine
 62
7
  6
CONTINUOUS
 10
-178.1590023002
 20
-30.7968745412
 11
-178.0892321951
 21
-31.1841431144
  0
LINE
  5
5FA
100
AcDbEntity
  8
ASSI
100
AcDbLine
 62
7
  6
CONTINUOUS
 10
-178.1034353912
 20
-31.1061054454
 11
-178.0749474541
 21
-31.2675555489
  0
LINE
  5
5FB
100
AcDbEntity
  8
ASSI
100
AcDbLine
 62
7
  6
CONTINUOUS
 10
-178.2080504712
 20
-30.5171646834
 11
-178.1547326541
 21
-30.8209043585
  0
LINE
  5
5FC
100
AcDbEntity
  8
ASSI
100
AcDbLine
 62
7
  6
CONTINUOUS
 10
-178.1275918866
 20
-30.9554394266
 11
-178.0675299596
 21
-31.2974984265
  0
LINE
  5
5FD
100
AcDbEntity
  8
ASSI
100
AcDbLine
 62
7
  6
CONTINUOUS
 10
-178.1394673191
 20
-30.8866778626
 11
-178.1275918866
 21
-30.9554394266
  0
LINE
  5
5FE
100
AcDbEntity
  8
ASSI
100
AcDbLine
 62
7
  6
CONTINUOUS
 10
-178.2325942734
 20
-30.3743873591
 11
-178.2049901861
 21
-30.5348230763
  0
LINE
  5
5FF
100
AcDbEntity
  8
ASSI
100
AcDbLine
 62
7
  6
CONTINUOUS
 10
-179.0550900704
 20
-23.49963405
 11
-178.9403052337
 21
-24.8743831331
  0
LINE
  5
600
100
AcDbEntity
  8
RACCORDO
100
AcDbLine
 62
7
  6
CONTINUOUS
 10
-178.9531204595
 20
-24.7442932789
 11
-179.076898539
 21
-23.2021593356
  0
LINE
  5
601
100
AcDbEntity
  8
ASSI
100
AcDbLine
 62
7
  6
CONTINUOUS
 10
-179.0768983306
 20
-23.2021622408
 11
-179.0550900704
 21
-23.49963405
  0
LINE
  5
602
100
AcDbEntity
  8
ASSI
100
AcDbLine
 62
7
  6
CONTINUOUS
 10
-179.0551192767
 20
23.4992441783
 11
-179.0768983306
 21
23.2021622408
  0
LINE
  5
603
100
AcDbEntity
  8
RACCORDO
100
AcDbLine
 62
7
  6
CONTINUOUS
 10
-178.9531204595
 20
24.7442932789
 11
-179.076898539
 21
23.2021593356
  0
LINE
  5
604
100
AcDbEntity
  8
ASSI
100
AcDbLine
 62
7
  6
CONTINUOUS
 10
-178.9403240808
 20
24.8741918236
 11
-179.0551192767
 21
23.4992441783
  0
LWPOLYLINE
  5
605
100
AcDbEntity
  8
RACCORDO
100
AcDbPolyline
 62
7
  6
CONTINUOUS
 90
3
 70
0
 10
-178.6367480837
 20
27.6690044361
 10
-178.8064432873
 20
26.233241797
 10
-178.9531204529
 20
24.7442933615
  0
LINE
  5
606
100
AcDbEntity
  8
ASSI
100
AcDbLine
 62
7
  6
CONTINUOUS
 10
-178.6114851942
 20
27.8633808799
 11
-178.7029380618
 21
27.1089821398
  0
LINE
  5
607
100
AcDbEntity
  8
RACCORDO
100
AcDbLine
 62
7
  6
CONTINUOUS
 10
-178.4456263725
 20
29.0444455049
 11
-178.6367480593
 21
27.669004642
  0
LINE
  5
608
100
AcDbEntity
  8
ASSI
100
AcDbLine
 62
7
  6
CONTINUOUS
 10
-178.4215989563
 20
29.2037544548
 11
-178.6114851672
 21
27.8633811027
  0
LINE
  5
609
100
AcDbEntity
  8
RACCORDO
100
AcDbLine
 62
7
  6
CONTINUOUS
 10
-178.2466519553
 20
30.2918912091
 11
-178.445626339
 21
29.0444457458
  0
LINE
  5
60A
100
AcDbEntity
  8
ASSI
100
AcDbLine
 62
7
  6
CONTINUOUS
 10
-178.2636522481
 20
30.1766153204
 11
-178.4215989563
 21
29.2037544548
  0
LINE
  5
60B
100
AcDbEntity
  8
ASSI
100
AcDbLine
 62
7
  6
CONTINUOUS
 10
-178.23505471
 20
30.3600829301
 11
-178.2838280575
 21
30.0703073091
  0
LINE
  5
60C
100
AcDbEntity
  8
ASSI
100
AcDbLine
 62
7
  6
CONTINUOUS
 10
-178.2838280514
 20
-30.0703073457
 11
-178.2303748274
 21
-30.3874708594
  0
LINE
  5
60D
100
AcDbEntity
  8
ASSI
100
AcDbLine
 62
7
  6
CONTINUOUS
 10
-178.4215755365
 20
-29.2039084531
 11
-178.2685477622
 21
-30.1464643514
  0
LINE
  5
60E
100
AcDbEntity
  8
RACCORDO
100
AcDbLine
 62
7
  6
CONTINUOUS
 10
-178.2327916172
 20
-30.3733008502
 11
-178.4456264135
 21
-29.0444452475
  0
LINE
  5
60F
100
AcDbEntity
  8
ASSI
100
AcDbLine
 62
7
  6
CONTINUOUS
 10
-178.6114493943
 20
-27.8636532778
 11
-178.4215755365
 21
-29.2039084531
  0
LINE
  5
610
100
AcDbEntity
  8
RACCORDO
100
AcDbLine
 62
7
  6
CONTINUOUS
 10
-178.4456263736
 20
-29.0444454969
 11
-178.636748112
 21
-27.6690042322
  0
LINE
  5
611
100
AcDbEntity
  8
ASSI
100
AcDbLine
 62
7
  6
CONTINUOUS
 10
-178.7809638745
 20
-26.465372695
 11
-178.6114493943
 21
-27.8636532778
  0
LWPOLYLINE
  5
612
100
AcDbEntity
  8
RACCORDO
100
AcDbPolyline
 62
7
  6
CONTINUOUS
 90
3
 70
0
 10
-178.6367480837
 20
-27.6690044361
 10
-178.8064433196
 20
-26.2332414988
 10
-178.9531204673
 20
-24.7442932
  0
LWPOLYLINE
  5
613
100
AcDbEntity
  8
ASSI
100
AcDbPolyline
 62
250
  6
CONTINUOUS
 90
22
 70
0
 10
-174.6664930051
 20
-42.4460429749
 10
-174.6627114617
 20
-42.480862366
 10
-174.6565039507
 20
-42.5153312148
 10
-174.6479009325
 20
-42.5492803853
 10
-174.6369446221
 20
-42.5825432907
 10
-174.6236887818
 20
-42.6149567132
 10
-174.6081984563
 20
-42.646361605
 10
-174.590549655
 20
-42.6766038655
 10
-174.5708289795
 20
-42.7055350972
 10
-174.5491331979
 20
-42.7330133366
 10
-174.5255687696
 20
-42.7589037499
 10
-174.5002513237
 20
-42.7830792948
 10
-174.4733050909
 20
-42.8054213436
 10
-174.4448622946
 20
-42.8258202654
 10
-174.4150625014
 20
-42.8441759642
 10
-174.3840519368
 20
-42.8603983698
 10
-174.3519827608
 20
-42.8744078825
 10
-174.3190123409
 20
-42.8861357553
 10
-174.2853024809
 20
-42.8955244353
 10
-174.2510186008
 20
-42.902527856
 10
-174.2163289228
 20
-42.9071116587
 10
-174.1814036667
 20
-42.9092533554
  0
LINE
  5
614
100
AcDbEntity
  8
RACCORDO
100
AcDbLine
 62
7
  6
CONTINUOUS
 10
-178.7687866511
 20
23.0785821276
 11
-178.7683577074
 21
23.0681948954
  0
LINE
  5
615
100
AcDbEntity
  8
RACCORDO
100
AcDbLine
 62
7
  6
CONTINUOUS
 10
-178.7683577074
 20
23.0681948954
 11
-178.7679463644
 21
23.0560193085
  0
LINE
  5
616
100
AcDbEntity
  8
RACCORDO
100
AcDbLine
 62
250
  6
CONTINUOUS
 10
-178.7938544492
 20
-21.8376641217
 11
-178.7770645733
 21
-22.3675989178
  0
LINE
  5
617
100
AcDbEntity
  8
RACCORDO
100
AcDbLine
 62
7
  6
CONTINUOUS
 10
-178.7773133557
 20
-22.3675713974
 11
-178.7738503304
 21
-22.4784110977
  0
LINE
  5
618
100
AcDbEntity
  8
RACCORDO
100
AcDbLine
 62
250
  6
CONTINUOUS
 10
-178.7741813204
 20
-22.4585350509
 11
-178.7738503304
 21
-22.4784110977
  0
LINE
  5
619
100
AcDbEntity
  8
RACCORDO
100
AcDbLine
 62
250
  6
CONTINUOUS
 10
-178.7732088392
 20
-22.5011237075
 11
-178.7728879488
 21
-22.5035613657
  0
LINE
  5
61A
100
AcDbEntity
  8
RACCORDO
100
AcDbLine
 62
7
  6
CONTINUOUS
 10
-178.7679463644
 20
23.0560193085
 11
-178.7675649297
 21
23.0420789881
  0
LINE
  5
61B
100
AcDbEntity
  8
RACCORDO
100
AcDbLine
 62
250
  6
CONTINUOUS
 10
-178.8216705858
 20
-20.7970526138
 11
-178.7938544492
 21
-21.8376641217
  0
LINE
  5
61C
100
AcDbEntity
  8
RACCORDO
100
AcDbLine
 62
7
  6
CONTINUOUS
 10
-178.7738503304
 20
-22.4784110977
 11
-178.7709539597
 21
-22.588598231
  0
LINE
  5
61D
100
AcDbEntity
  8
RACCORDO
100
AcDbLine
 62
7
  6
CONTINUOUS
 10
-178.7675649297
 20
23.0420789881
 11
-178.7672231889
 21
23.0264362723
  0
LINE
  5
61E
100
AcDbEntity
  8
RACCORDO
100
AcDbLine
 62
250
  6
CONTINUOUS
 10
-178.8637343906
 20
-18.7977945225
 11
-178.8216705858
 21
-20.7970526138
  0
LINE
  5
61F
100
AcDbEntity
  8
RACCORDO
100
AcDbLine
 62
7
  6
CONTINUOUS
 10
-178.7709539597
 20
-22.588598231
 11
-178.7688125556
 21
-22.689725976
  0
LINE
  5
620
100
AcDbEntity
  8
RACCORDO
100
AcDbLine
 62
250
  6
CONTINUOUS
 10
-178.7687210896
 20
-22.6796679987
 11
-178.7688125556
 21
-22.689725976
  0
LINE
  5
621
100
AcDbEntity
  8
RACCORDO
100
AcDbLine
 62
250
  6
CONTINUOUS
 10
-178.7684710824
 20
-22.7087713893
 11
-178.7679607357
 21
-22.7215591767
  0
LINE
  5
622
100
AcDbEntity
  8
RACCORDO
100
AcDbLine
 62
7
  6
CONTINUOUS
 10
-178.7672231889
 20
23.0264362723
 11
-178.7669304644
 21
23.0090958968
  0
LINE
  5
623
100
AcDbEntity
  8
RACCORDO
100
AcDbLine
 62
7
  6
CONTINUOUS
 10
-178.7688125556
 20
-22.689725976
 11
-178.7676116634
 21
-22.7634770079
  0
LINE
  5
624
100
AcDbEntity
  8
RACCORDO
100
AcDbLine
 62
250
  6
CONTINUOUS
 10
-178.766723529
 20
23.0378640579
 11
-178.7672231889
 21
23.0264362723
  0
LINE
  5
625
100
AcDbEntity
  8
RACCORDO
100
AcDbLine
 62
7
  6
CONTINUOUS
 10
-178.7676116634
 20
-22.7634770079
 11
-178.76682852
 21
-22.8305650401
  0
LINE
  5
626
100
AcDbEntity
  8
RACCORDO
100
AcDbLine
 62
7
  6
CONTINUOUS
 10
-178.7669304644
 20
23.0090958968
 11
-178.7665991008
 21
22.9798657773
  0
LINE
  5
627
100
AcDbEntity
  8
RACCORDO
100
AcDbLine
 62
250
  6
CONTINUOUS
 10
-178.7663467698
 20
23.0119272049
 11
-178.7669304644
 21
23.0090958968
  0
LINE
  5
628
100
AcDbEntity
  8
RACCORDO
100
AcDbLine
 62
7
  6
CONTINUOUS
 10
-179.069579163
 20
-3.7189837314
 11
-179.0494506735
 21
-6.5139756939
  0
LWPOLYLINE
  5
629
100
AcDbEntity
  8
RACCORDO
100
AcDbPolyline
 62
7
  6
CONTINUOUS
 90
9
 70
0
 10
-179.07265479
 20
-2.7339855667
 10
-179.0584556251
 20
-5.4706734389
 10
-179.035507335
 20
-8.1294331793
 10
-179.0045280427
 20
-10.7104001073
 10
-178.9665998118
 20
-13.2133075139
 10
-178.9242050814
 20
-15.637613417
 10
-178.8798567018
 20
-17.9832067851
 10
-178.8344465975
 20
-20.2507704291
 10
-178.7773133554
 20
-22.3675714056
  0
LINE
  5
62A
100
AcDbEntity
  8
RACCORDO
100
AcDbLine
 62
250
  6
CONTINUOUS
 10
-178.7660910416
 20
22.9840029701
 11
-178.7665991008
 21
22.9798657773
  0
LWPOLYLINE
  5
62B
100
AcDbEntity
  8
RACCORDO
100
AcDbPolyline
 62
250
  6
CONTINUOUS
 90
3
 70
0
 10
-178.7664565917
 20
22.9582045712
 10
-178.7659566216
 20
22.9540804196
 10
-178.7664107754
 20
22.9467246542
  0
LINE
  5
62C
100
AcDbEntity
  8
RACCORDO
100
AcDbLine
 62
7
  6
CONTINUOUS
 10
-178.76682852
 20
-22.8305650401
 11
-178.7664361374
 21
-22.8908447276
  0
LINE
  5
62D
100
AcDbEntity
  8
RACCORDO
100
AcDbLine
 62
7
  6
CONTINUOUS
 10
-178.7665991008
 20
22.9798657773
 11
-178.7664107754
 21
22.9467246542
  0
LINE
  5
62E
100
AcDbEntity
  8
RACCORDO
100
AcDbLine
 62
7
  6
CONTINUOUS
 10
-179.0777488071
 20
-0.0000008383
 11
-179.0693734507
 21
-3.7635592482
  0
LWPOLYLINE
  5
62F
100
AcDbEntity
  8
RACCORDO
100
AcDbPolyline
 62
250
  6
CONTINUOUS
 90
5
 70
0
 10
-178.7767987392
 20
23.1667029151
 10
-178.7767662893
 20
23.1413013885
 10
-178.7745862645
 20
23.1159938811
 10
-178.7702742959
 20
23.0909618317
 10
-178.7691992373
 20
23.0868417837
  0
LINE
  5
630
100
AcDbEntity
  8
RACCORDO
100
AcDbLine
 62
7
  6
CONTINUOUS
 10
-178.7664361374
 20
-22.8908447276
 11
-178.7663793396
 21
-22.9314962823
  0
LINE
  5
631
100
AcDbEntity
  8
RACCORDO
100
AcDbLine
 62
7
  6
CONTINUOUS
 10
-178.7664107754
 20
22.9467246542
 11
-178.7663860685
 21
22.9096933982
  0
LWPOLYLINE
  5
632
100
AcDbEntity
  8
RACCORDO
100
AcDbPolyline
 62
250
  6
CONTINUOUS
 90
5
 70
0
 10
-178.7767987392
 20
-23.1667029151
 10
-178.7767662909
 20
-23.1413014106
 10
-178.7745862707
 20
-23.1159939198
 10
-178.7702743083
 20
-23.0909618812
 10
-178.7692008399
 20
-23.0868479243
  0
LINE
  5
633
100
AcDbEntity
  8
RACCORDO
100
AcDbLine
 62
7
  6
CONTINUOUS
 10
-179.0695791391
 20
3.7189889245
 11
-179.0777989604
 21
-0.0228250738
  0
LINE
  5
634
100
AcDbEntity
  8
RACCORDO
100
AcDbLine
 62
250
  6
CONTINUOUS
 10
-178.7665125336
 20
-22.9681656477
 11
-178.766022876
 21
-22.9723166008
  0
LWPOLYLINE
  5
635
100
AcDbEntity
  8
RACCORDO
100
AcDbPolyline
 62
7
  6
CONTINUOUS
 90
3
 70
0
 10
-179.0772246667
 20
-23.1682403201
 10
-179.0772996329
 20
-23.1911677911
 10
-179.0767141931
 20
-23.2021461082
  0
LINE
  5
636
100
AcDbEntity
  8
RACCORDO
100
AcDbLine
 62
250
  6
CONTINUOUS
 10
-178.7659430636
 20
22.9221704853
 11
-178.7663860685
 21
22.9096933982
  0
LINE
  5
637
100
AcDbEntity
  8
RACCORDO
100
AcDbLine
 62
250
  6
CONTINUOUS
 10
-178.7664175748
 20
22.8964711994
 11
-178.7660508529
 21
22.888530172
  0
LINE
  5
638
100
AcDbEntity
  8
RACCORDO
100
AcDbLine
 62
7
  6
CONTINUOUS
 10
-178.7663793396
 20
-22.9314962823
 11
-178.7665125336
 21
-22.9681656477
  0
LINE
  5
639
100
AcDbEntity
  8
RACCORDO
100
AcDbLine
 62
7
  6
CONTINUOUS
 10
-178.7663860685
 20
22.9096933982
 11
-178.7666360812
 21
22.8541898468
  0
LINE
  5
63A
100
AcDbEntity
  8
RACCORDO
100
AcDbLine
 62
7
  6
CONTINUOUS
 10
-179.0426935635
 20
7.4619378543
 11
-179.0695791391
 21
3.7189889245
  0
LWPOLYLINE
  5
63B
100
AcDbEntity
  8
RACCORDO
100
AcDbPolyline
 62
7
  6
CONTINUOUS
 90
3
 70
0
 10
-179.0354379582
 20
8.1361065608
 10
-179.0584093386
 20
5.4773451824
 10
-179.0726317501
 20
2.7406551294
  0
LINE
  5
63C
100
AcDbEntity
  8
RACCORDO
100
AcDbLine
 62
7
  6
CONTINUOUS
 10
-178.7664894113
 20
22.8785763765
 11
-178.7670545411
 21
22.8080317283
  0
LINE
  5
63D
100
AcDbEntity
  8
RACCORDO
100
AcDbLine
 62
7
  6
CONTINUOUS
 10
-178.7665125336
 20
-22.9681656477
 11
-178.7668166
 21
-23.000720597
  0
LINE
  5
63E
100
AcDbEntity
  8
RACCORDO
100
AcDbLine
 62
7
  6
CONTINUOUS
 10
-179.004434075
 20
10.717073886
 11
-179.035507335
 21
8.1294331793
  0
LINE
  5
63F
100
AcDbEntity
  8
RACCORDO
100
AcDbLine
 62
250
  6
CONTINUOUS
 10
-178.7671068136
 20
-23.0200831814
 11
-178.7665566518
 21
-23.0278463293
  0
LINE
  5
640
100
AcDbEntity
  8
RACCORDO
100
AcDbLine
 62
250
  6
CONTINUOUS
 10
-178.766627294
 20
22.8162403706
 11
-178.7670545411
 21
22.8080317283
  0
LINE
  5
641
100
AcDbEntity
  8
RACCORDO
100
AcDbLine
 62
250
  6
CONTINUOUS
 10
-178.7672416096
 20
22.7917927675
 11
-178.7671037126
 21
22.777483972
  0
LINE
  5
642
100
AcDbEntity
  8
RACCORDO
100
AcDbLine
 62
7
  6
CONTINUOUS
 10
-178.7670545411
 20
22.8080317283
 11
-178.7679485898
 21
22.7405665732
  0
LINE
  5
643
100
AcDbEntity
  8
RACCORDO
100
AcDbLine
 62
7
  6
CONTINUOUS
 10
-178.966489557
 20
13.2199824392
 11
-179.0045280427
 21
10.7104001073
  0
LINE
  5
644
100
AcDbEntity
  8
RACCORDO
100
AcDbLine
 62
7
  6
CONTINUOUS
 10
-178.7668166
 20
-23.000720597
 11
-178.7671068136
 21
-23.0200831814
  0
LINE
  5
645
100
AcDbEntity
  8
RACCORDO
100
AcDbLine
 62
7
  6
CONTINUOUS
 10
-178.924080321
 20
15.6442889658
 11
-178.9665998118
 21
13.2133075139
  0
LWPOLYLINE
  5
646
100
AcDbEntity
  8
RACCORDO
100
AcDbPolyline
 62
250
  6
CONTINUOUS
 90
11
 70
0
 10
-178.7674581149
 20
-23.0375806873
 10
-178.7670118936
 20
-23.0525684967
 10
-178.7675953833
 20
-23.0753082896
 10
-178.7683057414
 20
-23.0959724689
 10
-178.7691464944
 20
-23.1141398489
 10
-178.7701244428
 20
-23.1297873077
 10
-178.7712324862
 20
-23.1429379758
 10
-178.7724548712
 20
-23.1532400469
 10
-178.773787189
 20
-23.1605762552
 10
-178.7752350867
 20
-23.1650638763
 10
-178.7767987392
 20
-23.1667029151
  0
LINE
  5
647
100
AcDbEntity
  8
RACCORDO
100
AcDbLine
 62
7
  6
CONTINUOUS
 10
-178.879699509
 20
17.9898844331
 11
-178.9242050814
 21
15.637613417
  0
LINE
  5
648
100
AcDbEntity
  8
RACCORDO
100
AcDbLine
 62
7
  6
CONTINUOUS
 10
-178.8343016007
 20
20.2574375579
 11
-178.8798567018
 21
17.9832067851
  0
LINE
  5
649
100
AcDbEntity
  8
RACCORDO
100
AcDbLine
 62
7
  6
CONTINUOUS
 10
-178.7679485898
 20
22.7405665732
 11
-178.7696501406
 21
22.6471724058
  0
LINE
  5
64A
100
AcDbEntity
  8
RACCORDO
100
AcDbLine
 62
7
  6
CONTINUOUS
 10
-178.7671068136
 20
-23.0200831814
 11
-178.7674581149
 21
-23.0375806873
  0
LINE
  5
64B
100
AcDbEntity
  8
RACCORDO
100
AcDbLine
 62
250
  6
CONTINUOUS
 10
-178.7693010637
 20
22.6507210114
 11
-178.7696501406
 21
22.6471724058
  0
LINE
  5
64C
100
AcDbEntity
  8
RACCORDO
100
AcDbLine
 62
250
  6
CONTINUOUS
 10
-178.7700720941
 20
22.627352651
 11
-178.7702992869
 21
22.6054136459
  0
LINE
  5
64D
100
AcDbEntity
  8
RACCORDO
100
AcDbLine
 62
7
  6
CONTINUOUS
 10
-178.7696501406
 20
22.6471724058
 11
-178.7720431149
 21
22.5446279733
  0
LINE
  5
64E
100
AcDbEntity
  8
RACCORDO
100
AcDbLine
 62
250
  6
CONTINUOUS
 10
-178.8058498362
 20
21.4163312335
 11
-178.8343016007
 21
20.2574375579
  0
LINE
  5
64F
100
AcDbEntity
  8
RACCORDO
100
AcDbLine
 62
250
  6
CONTINUOUS
 10
-178.7714272121
 20
22.5587232184
 11
-178.7720431149
 21
22.5446279733
  0
LINE
  5
650
100
AcDbEntity
  8
RACCORDO
100
AcDbLine
 62
250
  6
CONTINUOUS
 10
-178.7726084076
 20
22.52313772
 11
-178.7726686791
 21
22.5115104549
  0
LINE
  5
651
100
AcDbEntity
  8
RACCORDO
100
AcDbLine
 62
7
  6
CONTINUOUS
 10
-178.7773133558
 20
22.3675713965
 11
-178.8344019996
 21
20.2524227951
  0
LINE
  5
652
100
AcDbEntity
  8
RACCORDO
100
AcDbLine
 62
7
  6
CONTINUOUS
 10
-178.7674581149
 20
-23.0375806873
 11
-178.7678592179
 21
-23.0531169782
  0
LINE
  5
653
100
AcDbEntity
  8
RACCORDO
100
AcDbLine
 62
7
  6
CONTINUOUS
 10
-178.7720431149
 20
22.5446279733
 11
-178.7751610509
 21
22.4343194121
  0
LINE
  5
654
100
AcDbEntity
  8
RACCORDO
100
AcDbLine
 62
250
  6
CONTINUOUS
 10
-178.777313356
 20
22.3675713888
 11
-178.8058498362
 21
21.4163312335
  0
LINE
  5
655
100
AcDbEntity
  8
RACCORDO
100
AcDbLine
 62
7
  6
CONTINUOUS
 10
-178.7751610509
 20
22.4343194121
 11
-178.777313356
 21
22.3675713888
  0
LINE
  5
656
100
AcDbEntity
  8
RACCORDO
100
AcDbLine
 62
7
  6
CONTINUOUS
 10
-178.7678592179
 20
-23.0531169782
 11
-178.7683008569
 21
-23.066661615
  0
LWPOLYLINE
  5
657
100
AcDbEntity
  8
RACCORDO
100
AcDbPolyline
 62
7
  6
CONTINUOUS
 90
8
 70
0
 10
-178.7683008569
 20
-23.066661615
 10
-178.7687692559
 20
-23.0781895288
 10
-178.7690056907
 20
-23.083151418
 10
-178.7692400726
 20
-23.0875910682
 10
-178.7694681621
 20
-23.0914909133
 10
-178.7696788448
 20
-23.0947392232
 10
-178.7698676197
 20
-23.0973621685
 10
-178.7699148309
 20
-23.0979743135
  0
LWPOLYLINE
  5
658
100
AcDbEntity
  8
RACCORDO
100
AcDbPolyline
 62
7
  6
CONTINUOUS
 90
20
 70
0
 10
-179.0767141725
 20
23.2021461077
 10
-179.0773074992
 20
23.1909397545
 10
-179.0772117563
 20
23.1679336201
 10
-179.0753527865
 20
23.1449981541
 10
-179.071740531
 20
23.1222683717
 10
-179.0663952629
 20
23.099878205
 10
-179.0593533853
 20
23.0779759121
 10
-179.0506590205
 20
23.0566891544
 10
-179.0403660555
 20
23.036142121
 10
-179.0285474087
 20
23.0164691547
 10
-179.0152785127
 20
22.99778199
 10
-179.0006424263
 20
22.9801853186
 10
-178.9847421283
 20
22.9637888512
 10
-178.9676840128
 20
22.9486852308
 10
-178.9495681986
 20
22.9349472665
 10
-178.9304987524
 20
22.9226412863
 10
-178.9105576597
 20
22.9118141363
 10
-178.8898927135
 20
22.9025402742
 10
-178.8687205875
 20
22.89489459
 10
-178.8472035676
 20
22.8888982294
  0
LWPOLYLINE
  5
659
100
AcDbEntity
  8
RACCORDO
100
AcDbPolyline
 62
7
  6
CONTINUOUS
 90
10
 70
0
 10
-178.7701796304
 20
23.1010229402
 10
-178.7701588235
 20
23.1008145725
 10
-178.7700813582
 20
23.0999791013
 10
-178.769954818
 20
23.0984762332
 10
-178.7697989752
 20
23.0964370235
 10
-178.7696204071
 20
23.093868612
 10
-178.7694228743
 20
23.0907476674
 10
-178.7692159092
 20
23.0871590234
 10
-178.7690031882
 20
23.0831112896
 10
-178.7687866511
 20
23.0785821276
  0
LINE
  5
65A
100
AcDbEntity
  8
ASSI
100
AcDbLine
 62
250
  6
CONTINUOUS
 10
-174.1942090836
 20
-41.8017935161
 11
-174.181389664
 21
-42.1095278621
  0
LINE
  5
65B
100
AcDbEntity
  8
ASSI
100
AcDbLine
 62
250
  6
CONTINUOUS
 10
-174.6651688558
 20
-42.1667350024
 11
-174.6783908809
 21
-41.8214904255
  0
LINE
  5
65C
100
AcDbEntity
  8
ASSI
100
AcDbLine
 62
250
  6
CONTINUOUS
 10
-174.6891465545
 20
-41.500502784
 11
-174.6783908809
 21
-41.8214904255
  0
LINE
  5
65D
100
AcDbEntity
  8
ASSI
100
AcDbLine
 62
250
  6
CONTINUOUS
 10
-174.2169451874
 20
-41.1534177026
 11
-174.1942090836
 21
-41.8017935161
  0
LINE
  5
65E
100
AcDbEntity
  8
ASSI
100
AcDbLine
 62
250
  6
CONTINUOUS
 10
-174.6641187961
 20
-42.2014538124
 11
-174.6651688558
 21
-42.1667350024
  0
LINE
  5
65F
100
AcDbEntity
  8
ASSI
100
AcDbLine
 62
250
  6
CONTINUOUS
 10
-174.235759902
 20
-40.4623142287
 11
-174.2169451874
 21
-41.1534177026
  0
LINE
  5
660
100
AcDbEntity
  8
ASSI
100
AcDbLine
 62
250
  6
CONTINUOUS
 10
-174.7073144185
 20
-40.8267132615
 11
-174.6891465545
 21
-41.500502784
  0
LINE
  5
661
100
AcDbEntity
  8
ASSI
100
AcDbLine
 62
250
  6
CONTINUOUS
 10
-174.6632966554
 20
-42.2356200882
 11
-174.6641187961
 21
-42.2014538124
  0
LINE
  5
662
100
AcDbEntity
  8
ASSI
100
AcDbLine
 62
250
  6
CONTINUOUS
 10
-174.2509108772
 20
-39.7223951022
 11
-174.235759902
 21
-40.4623142287
  0
LINE
  5
663
100
AcDbEntity
  8
ASSI
100
AcDbLine
 62
250
  6
CONTINUOUS
 10
-174.7214199284
 20
-40.1085727212
 11
-174.7073144185
 21
-40.8267132615
  0
LINE
  5
664
100
AcDbEntity
  8
ASSI
100
AcDbLine
 62
250
  6
CONTINUOUS
 10
-174.6626927113
 20
-42.2685144268
 11
-174.6632966554
 21
-42.2356200882
  0
LINE
  5
665
100
AcDbEntity
  8
ASSI
100
AcDbLine
 62
250
  6
CONTINUOUS
 10
-174.7320754348
 20
-39.3406687238
 11
-174.7214199284
 21
-40.1085727212
  0
LINE
  5
666
100
AcDbEntity
  8
ASSI
100
AcDbLine
 62
250
  6
CONTINUOUS
 10
-174.6622877764
 20
-42.2996605752
 11
-174.6626927113
 21
-42.2685144268
  0
LWPOLYLINE
  5
667
100
AcDbEntity
  8
ASSI
100
AcDbPolyline
 62
250
  6
CONTINUOUS
 90
3
 70
0
 10
-174.2673205607
 20
-38.5102806552
 10
-174.26262113
 20
-38.9295285156
 10
-174.2509108772
 20
-39.7223951022
  0
LINE
  5
668
100
AcDbEntity
  8
ASSI
100
AcDbLine
 62
250
  6
CONTINUOUS
 10
-174.7428672494
 20
-38.0799613415
 11
-174.7320754348
 21
-39.3406687238
  0
LWPOLYLINE
  5
669
100
AcDbEntity
  8
ASSI
100
AcDbPolyline
 62
250
  6
CONTINUOUS
 90
3
 70
0
 10
-174.6620240062
 20
-42.3423418047
 10
-174.6620671049
 20
-42.3287441417
 10
-174.6622877764
 20
-42.2996605752
  0
LINE
  5
66A
100
AcDbEntity
  8
ASSI
100
AcDbLine
 62
250
  6
CONTINUOUS
 10
-174.7552292786
 20
-34.6026511345
 11
-174.7428672494
 21
-38.0799613415
  0
LINE
  5
66B
100
AcDbEntity
  8
ASSI
100
AcDbLine
 62
250
  6
CONTINUOUS
 10
-174.7625331328
 20
-31.1742943216
 11
-174.7552292786
 21
-34.6026511345
  0
LINE
  5
66C
100
AcDbEntity
  8
ASSI
100
AcDbLine
 62
250
  6
CONTINUOUS
 10
-174.7907967503
 20
-13.6734503427
 11
-174.7625331328
 21
-31.1742943216
  0
LINE
  5
66D
100
AcDbEntity
  8
ASSI
100
AcDbLine
 62
250
  6
CONTINUOUS
 10
-174.7905156177
 20
-4.9810892979
 11
-174.7907967503
 21
-13.6734503427
  0
LINE
  5
66E
100
AcDbEntity
  8
ASSI
100
AcDbLine
 62
250
  6
CONTINUOUS
 10
-174.7657917327
 20
29.9341407064
 11
-174.7905156177
 21
-4.9810892979
  0
LINE
  5
66F
100
AcDbEntity
  8
ASSI
100
AcDbLine
 62
250
  6
CONTINUOUS
 10
-174.7438623113
 20
37.9148377789
 11
-174.7657917327
 21
29.9341407064
  0
LINE
  5
670
100
AcDbEntity
  8
ASSI
100
AcDbLine
 62
250
  6
CONTINUOUS
 10
-174.6621549779
 20
42.3145119276
 11
-174.6620240106
 21
42.3423390977
  0
LINE
  5
671
100
AcDbEntity
  8
ASSI
100
AcDbLine
 62
250
  6
CONTINUOUS
 10
-174.6624660723
 20
42.2843256896
 11
-174.6621549779
 21
42.3145119276
  0
LINE
  5
672
100
AcDbEntity
  8
ASSI
100
AcDbLine
 62
250
  6
CONTINUOUS
 10
-174.6629695093
 20
42.2522200131
 11
-174.6624660723
 21
42.2843256896
  0
LINE
  5
673
100
AcDbEntity
  8
ASSI
100
AcDbLine
 62
250
  6
CONTINUOUS
 10
-174.6636805575
 20
42.2186502595
 11
-174.6629695093
 21
42.2522200131
  0
LINE
  5
674
100
AcDbEntity
  8
ASSI
100
AcDbLine
 62
250
  6
CONTINUOUS
 10
-174.6646145666
 20
42.1841110047
 11
-174.6636805575
 21
42.2186502595
  0
LWPOLYLINE
  5
675
100
AcDbEntity
  8
ASSI
100
AcDbPolyline
 62
250
  6
CONTINUOUS
 90
7
 70
0
 10
-174.6840712888
 20
41.6579055137
 10
-174.6988633522
 20
41.1656702315
 10
-174.7110975901
 20
40.6560766998
 10
-174.7211866927
 20
40.1240252782
 10
-174.729275334
 20
39.5746588772
 10
-174.7354393354
 20
39.0233760801
 10
-174.7438623113
 20
37.9148377789
  0
LWPOLYLINE
  5
676
100
AcDbEntity
  8
ASSI
100
AcDbPolyline
 62
250
  6
CONTINUOUS
 90
3
 70
0
 10
-174.6840712888
 20
41.6579055137
 10
-174.6657665023
 20
42.1498595545
 10
-174.6646145666
 20
42.1841110047
  0
LWPOLYLINE
  5
677
100
AcDbEntity
  8
ASSI
100
AcDbPolyline
 62
250
  6
CONTINUOUS
 90
9
 70
0
 10
-174.1813764148
 20
42.109528209
 10
-174.2002169772
 20
41.6387038593
 10
-174.2168638734
 20
41.1500526729
 10
-174.2313171033
 20
40.6435746499
 10
-174.2434121767
 20
40.1140691094
 10
-174.2533135838
 20
39.5667367324
 10
-174.2615147958
 20
39.0171795612
 10
-174.2678895641
 20
38.4652377909
 10
-174.2795419617
 20
36.8498040914
  0
LINE
  5
678
100
AcDbEntity
  8
RACCORDO
100
AcDbLine
 62
250
  6
CONTINUOUS
 10
-179.0773671785
 20
0.0
 11
-174.7902657437
 21
0.0
  0
LINE
  5
679
100
AcDbEntity
  8
ASSI
100
AcDbLine
 62
250
  6
CONTINUOUS
 10
-174.3388562433
 20
0.0
 11
-174.7902657437
 21
0.0
  0
LWPOLYLINE
  5
67A
100
AcDbEntity
  8
ASSI
100
AcDbPolyline
 62
250
  6
CONTINUOUS
 90
12
 70
0
 10
-174.6621562586
 20
42.3789869581
 10
-174.6622896047
 20
42.3896898755
 10
-174.6624683797
 20
42.3995284993
 10
-174.6626955838
 20
42.4084950733
 10
-174.662972854
 20
42.4165976003
 10
-174.6633005766
 20
42.4237498785
 10
-174.6636831727
 20
42.429942471
 10
-174.6641232589
 20
42.4351851765
 10
-174.6646200538
 20
42.4394207175
 10
-174.6651763718
 20
42.4426301555
 10
-174.6657979453
 20
42.4448328597
 10
-174.6664889445
 20
42.4460290398
  0
LINE
  5
67B
100
AcDbEntity
  8
ASSI
100
AcDbLine
 62
250
  6
CONTINUOUS
 10
-174.2777467107
 20
-37.1538270926
 11
-174.2673205607
 21
-38.5102806552
  0
LINE
  5
67C
100
AcDbEntity
  8
ASSI
100
AcDbLine
 62
250
  6
CONTINUOUS
 10
-174.3008325356
 20
-30.2582124439
 11
-174.2777467107
 21
-37.1538270926
  0
LINE
  5
67D
100
AcDbEntity
  8
ASSI
100
AcDbLine
 62
250
  6
CONTINUOUS
 10
-174.1814089953
 20
-42.9079005093
 11
-174.1819175235
 21
-42.7776562138
  0
LINE
  5
67E
100
AcDbEntity
  8
ASSI
100
AcDbLine
 62
250
  6
CONTINUOUS
 10
-174.3373961942
 20
-18.2696326656
 11
-174.3008325356
 21
-30.2582124439
  0
LWPOLYLINE
  5
67F
100
AcDbEntity
  8
ASSI
100
AcDbPolyline
 62
250
  6
CONTINUOUS
 90
3
 70
0
 10
-174.6620240106
 20
42.3423390977
 10
-174.6620242679
 20
42.3553116196
 10
-174.6621562586
 20
42.3789869581
  0
LINE
  5
680
100
AcDbEntity
  8
ASSI
100
AcDbLine
 62
7
  6
CONTINUOUS
 10
-172.6253520877
 20
-42.95
 11
-172.6253520877
 21
42.95
  0
LINE
  5
681
100
AcDbEntity
  8
ASSI
100
AcDbLine
 62
250
  6
CONTINUOUS
 10
-174.3394808896
 20
-6.4930778698
 11
-174.3373961942
 21
-18.2696326656
  0
LINE
  5
682
100
AcDbEntity
  8
ASSI
100
AcDbLine
 62
250
  6
CONTINUOUS
 10
-174.1819175235
 20
-42.7776562138
 11
-174.1818024828
 21
-42.4685517569
  0
LINE
  5
683
100
AcDbEntity
  8
ASSI
100
AcDbLine
 62
250
  6
CONTINUOUS
 10
-174.1818024828
 20
-42.4685517569
 11
-174.1813960447
 21
-42.109527695
  0
LINE
  5
684
100
AcDbEntity
  8
ASSI
100
AcDbLine
 62
250
  6
CONTINUOUS
 10
-174.1813960447
 20
42.109527695
 11
-174.1818054634
 21
42.8241545867
  0
LINE
  5
685
100
AcDbEntity
  8
ASSI
100
AcDbLine
 62
250
  6
CONTINUOUS
 10
-174.2795419617
 20
36.8498040914
 11
-174.3003677383
 21
30.3848299477
  0
LINE
  5
686
100
AcDbEntity
  8
ASSI
100
AcDbLine
 62
250
  6
CONTINUOUS
 10
-174.3003677383
 20
30.3848299477
 11
-174.3394808896
 21
-6.4930778698
  0
LINE
  5
687
100
AcDbEntity
  8
ASSI
100
AcDbLine
 62
250
  6
CONTINUOUS
 10
-174.1818054634
 20
42.8241545867
 11
-174.1814089912
 21
42.9079005025
  0
LINE
  5
688
100
AcDbEntity
  8
ASSI
100
AcDbLine
 62
7
  6
CONTINUOUS
 10
-170.6253520877
 20
41.8504583562
 11
-170.6253520877
 21
-41.8504584731
  0
LWPOLYLINE
  5
689
100
AcDbEntity
  8
RACCORDO
100
AcDbPolyline
 62
250
  6
CONTINUOUS
 90
11
 70
0
 10
-178.7767987392
 20
23.1667029151
 10
-178.7753230838
 20
23.165290264
 10
-178.7739472798
 20
23.1612805794
 10
-178.7726709992
 20
23.154673857
 10
-178.7714883022
 20
23.145429581
 10
-178.7704037774
 20
23.1335882592
 10
-178.7694333513
 20
23.119271423
 10
-178.7685800271
 20
23.1024315986
 10
-178.7678400679
 20
23.0831162521
 10
-178.7672204775
 20
23.0615893242
 10
-178.7675649297
 20
23.0420789881
  0
LWPOLYLINE
  5
68A
100
AcDbEntity
  8
0
100
AcDbPolyline
 62
7
  6
CONTINUOUS
 90
10
 70
0
 43
0.3500000006
 10
-184.9929686279
 20
52.2000020142
 10
-184.9215465088
 20
52.0571441803
 10
-184.9215465088
 20
51.9857129974
 10
-185.0644088745
 20
51.8428551636
 10
-185.1358309937
 20
51.8428551636
 10
-185.2072712402
 20
51.9142863464
 10
-185.2072712402
 20
51.9857129974
 10
-185.1358309937
 20
52.1285708313
 10
-185.0644088745
 20
52.2000020142
 10
-184.9929686279
 20
52.2000020142
  0
LWPOLYLINE
  5
68B
100
AcDbEntity
  8
ASSI
100
AcDbPolyline
 62
250
  6
CONTINUOUS
 90
14
 70
0
 10
-174.6665044402
 20
-42.4460851698
 10
-174.665806681
 20
-42.4448640097
 10
-174.6651799316
 20
-42.442642637
 10
-174.6646200716
 20
-42.4394208439
 10
-174.6641220591
 20
-42.4351813656
 10
-174.6636825874
 20
-42.4299410446
 10
-174.6633006285
 20
-42.4237508557
 10
-174.6629729066
 20
-42.4165989248
 10
-174.6626956322
 20
-42.4084967632
 10
-174.6624684226
 20
-42.3995304903
 10
-174.6622896398
 20
-42.3896920543
 10
-174.6621562828
 20
-42.3789892605
 10
-174.6620679016
 20
-42.3675321073
 10
-174.6620240062
 20
-42.3423418047
  0
LWPOLYLINE
  5
68C
100
AcDbEntity
  8
ASSI
100
AcDbPolyline
 62
250
  6
CONTINUOUS
 90
3
 70
0
 10
-174.7892270121
 20
-42.5890638844
 10
-174.7895271545
 20
-42.589542402
 10
-174.7897979456
 20
-42.5899694774
  0
LWPOLYLINE
  5
68D
100
AcDbEntity
  8
ASSI
100
AcDbPolyline
 62
250
  6
CONTINUOUS
 90
4
 70
0
 10
-174.7861901441
 20
-42.5841924731
 10
-174.786743648
 20
-42.5850639217
 10
-174.78725304
 20
-42.5858740133
 10
-174.7888987068
 20
-42.588533223
  0
LINE
  5
68E
100
AcDbEntity
  8
RACCORDO
100
AcDbLine
 62
250
  6
CONTINUOUS
 10
-178.7770645733
 20
22.3675989178
 11
-178.7773133558
 21
22.3675713965
  0
LINE
  5
68F
100
AcDbEntity
  8
RACCORDO
100
AcDbLine
 62
7
  6
CONTINUOUS
 10
-178.8036293342
 20
22.8818256987
 11
-178.7664913889
 21
22.8785765495
  0
LWPOLYLINE
  5
690
100
AcDbEntity
  8
RACCORDO
100
AcDbPolyline
 62
250
  6
CONTINUOUS
 90
3
 70
0
 10
-178.8076193927
 20
23.1695358008
 10
-178.7931757072
 20
23.168164948
 10
-178.7767987392
 20
23.1667029151
  0
LWPOLYLINE
  5
691
100
AcDbEntity
  8
RACCORDO
100
AcDbPolyline
 62
250
  6
CONTINUOUS
 90
3
 70
0
 10
-178.8527194073
 20
23.1741004338
 10
-178.8427666724
 20
23.1730496526
 10
-178.8076193927
 20
23.1695358008
  0
LINE
  5
692
100
AcDbEntity
  8
RACCORDO
100
AcDbLine
 62
250
  6
CONTINUOUS
 10
-178.880630991
 20
23.1771997144
 11
-178.8527194073
 21
23.1741004338
  0
LINE
  5
693
100
AcDbEntity
  8
RACCORDO
100
AcDbLine
 62
250
  6
CONTINUOUS
 10
-178.907149235
 20
23.1803341723
 11
-178.880630991
 21
23.1771997144
  0
LINE
  5
694
100
AcDbEntity
  8
RACCORDO
100
AcDbLine
 62
250
  6
CONTINUOUS
 10
-179.0754861387
 20
23.2019265271
 11
-179.0725572511
 21
23.2015711812
  0
LINE
  5
695
100
AcDbEntity
  8
RACCORDO
100
AcDbLine
 62
250
  6
CONTINUOUS
 10
-178.9327795147
 20
23.1835038582
 11
-178.907149235
 21
23.1803341723
  0
LINE
  5
696
100
AcDbEntity
  8
RACCORDO
100
AcDbLine
 62
250
  6
CONTINUOUS
 10
-178.9721534849
 20
23.1885704552
 11
-178.9327795147
 21
23.1835038582
  0
LINE
  5
697
100
AcDbEntity
  8
RACCORDO
100
AcDbLine
 62
250
  6
CONTINUOUS
 10
-179.0725572511
 20
23.2015711812
 11
-178.9721534849
 21
23.1885704552
  0
LINE
  5
698
100
AcDbEntity
  8
RACCORDO
100
AcDbLine
 62
250
  6
CONTINUOUS
 10
-179.0765342927
 20
23.2020633323
 11
-179.0762658732
 21
23.2020217759
  0
LWPOLYLINE
  5
699
100
AcDbEntity
  8
RACCORDO
100
AcDbPolyline
 62
7
  6
CONTINUOUS
 90
3
 70
0
 10
-178.8472035676
 20
22.8888982294
 10
-178.8254384743
 20
22.8845418448
 10
-178.803629425
 20
22.8818257067
  0
LWPOLYLINE
  5
69A
100
AcDbEntity
  8
ASSI
100
AcDbPolyline
 62
250
  6
CONTINUOUS
 90
3
 70
0
 10
-174.7866699533
 20
42.5849485039
 10
-174.7861076353
 20
42.5840599657
 10
-174.7854891974
 20
42.5830932945
  0
LINE
  5
69B
100
AcDbEntity
  8
ASSI
100
AcDbLine
 62
250
  6
CONTINUOUS
 10
-174.7893817093
 20
42.5893107115
 11
-174.7871820067
 21
42.5857591526
  0
LINE
  5
69C
100
AcDbEntity
  8
ASSI
100
AcDbLine
 62
250
  6
CONTINUOUS
 10
-174.7887885996
 20
42.5883540441
 11
-174.7884444432
 21
42.5877954544
  0
LWPOLYLINE
  5
69D
100
AcDbEntity
  8
ASSI
100
AcDbPolyline
 62
250
  6
CONTINUOUS
 90
8
 70
0
 10
-174.7900377968
 20
-42.5903444089
 10
-174.7902474251
 20
-42.5906664668
 10
-174.7904273933
 20
-42.5909339617
 10
-174.7905769431
 20
-42.591148583
 10
-174.7906953942
 20
-42.5913146695
 10
-174.7907860472
 20
-42.5914290528
 10
-174.7908506351
 20
-42.5914949013
 10
-174.790887573
 20
-42.5915260592
  0
LWPOLYLINE
  5
69E
100
AcDbEntity
  8
ASSI
100
AcDbPolyline
 62
250
  6
CONTINUOUS
 90
3
 70
0
 10
-174.7842089913
 20
-42.5811331113
 10
-174.7849269572
 20
-42.5822270678
 10
-174.7855864967
 20
-42.5832467698
  0
LWPOLYLINE
  5
69F
100
AcDbEntity
  8
ASSI
100
AcDbPolyline
 62
250
  6
CONTINUOUS
 90
3
 70
0
 10
-174.7816533793
 20
-42.5773144707
 10
-174.7825779117
 20
-42.5786768126
 10
-174.7834278139
 20
-42.5799512361
  0
LWPOLYLINE
  5
6A0
100
AcDbEntity
  8
ASSI
100
AcDbPolyline
 62
250
  6
CONTINUOUS
 90
3
 70
0
 10
-174.7433628934
 20
-42.5307638104
 10
-174.7460898995
 20
-42.5343235117
 10
-174.7500535935
 20
-42.5399036718
  0
LWPOLYLINE
  5
6A1
100
AcDbEntity
  8
ASSI
100
AcDbPolyline
 62
250
  6
CONTINUOUS
 90
18
 70
0
 10
-174.7803653963
 20
42.5754532894
 10
-174.7792463628
 20
42.5738458157
 10
-174.7780512307
 20
42.5721778874
 10
-174.7767929749
 20
42.5704482253
 10
-174.7754826799
 20
42.5686651222
 10
-174.7741195285
 20
42.5668749265
 10
-174.7727222872
 20
42.5650769011
 10
-174.7713116505
 20
42.5632793102
 10
-174.7698951647
 20
42.5615418975
 10
-174.7684959676
 20
42.5598702552
 10
-174.767135555
 20
42.5582661234
 10
-174.7658205419
 20
42.556783212
 10
-174.7645722173
 20
42.5554475037
 10
-174.7634142408
 20
42.5542397478
 10
-174.7623409429
 20
42.5531416553
 10
-174.7613270327
 20
42.5521716871
 10
-174.7603522546
 20
42.5512938571
 10
-174.759397574
 20
42.5504034687
  0
LWPOLYLINE
  5
6A2
100
AcDbEntity
  8
ASSI
100
AcDbPolyline
 62
250
  6
CONTINUOUS
 90
5
 70
0
 10
-174.7848094206
 20
42.5820487339
 10
-174.7840669682
 20
42.5809150873
 10
-174.7832567307
 20
42.5796906722
 10
-174.7823718918
 20
42.5783771714
 10
-174.7803653963
 20
42.5754532894
  0
LWPOLYLINE
  5
6A3
100
AcDbEntity
  8
ASSI
100
AcDbPolyline
 62
250
  6
CONTINUOUS
 90
7
 70
0
 10
-174.7500535935
 20
-42.5399036718
 10
-174.7516680337
 20
-42.5419342786
 10
-174.7530626397
 20
-42.5436693334
 10
-174.7542704459
 20
-42.5451574426
 10
-174.755364141
 20
-42.5463819245
 10
-174.7563636465
 20
-42.5474682851
 10
-174.7572987622
 20
-42.5484351216
  0
LWPOLYLINE
  5
6A4
100
AcDbEntity
  8
ASSI
100
AcDbPolyline
 62
250
  6
CONTINUOUS
 90
7
 70
0
 10
-174.733005209
 20
42.5172731025
 10
-174.7264234061
 20
42.5090106843
 10
-174.7182881006
 20
42.4993895383
 10
-174.7084133629
 20
42.4882905564
 10
-174.6966081375
 20
42.4756754199
 10
-174.6826867301
 20
42.461587558
 10
-174.6664889445
 20
42.4460290398
  0
LWPOLYLINE
  5
6A5
100
AcDbEntity
  8
ASSI
100
AcDbPolyline
 62
250
  6
CONTINUOUS
 90
5
 70
0
 10
-174.7522639394
 20
42.5426622493
 10
-174.7482697212
 20
42.5376176648
 10
-174.7457461789
 20
42.533966923
 10
-174.742545125
 20
42.5294511629
 10
-174.733005209
 20
42.5172731025
  0
LWPOLYLINE
  5
6A6
100
AcDbEntity
  8
ASSI
100
AcDbPolyline
 62
250
  6
CONTINUOUS
 90
10
 70
0
 10
-174.6665044402
 20
-42.4460851698
 10
-174.679479308
 20
-42.4584973806
 10
-174.6911283269
 20
-42.470054505
 10
-174.7014777587
 20
-42.4807535508
 10
-174.7105356601
 20
-42.4906050985
 10
-174.718399587
 20
-42.4995927048
 10
-174.7252142582
 20
-42.5076708718
 10
-174.7310854288
 20
-42.5147925433
 10
-174.7360191756
 20
-42.5209918445
 10
-174.7433628934
 20
-42.5307638104
  0
LWPOLYLINE
  5
6A7
100
AcDbEntity
  8
ASSI
100
AcDbPolyline
 62
250
  6
CONTINUOUS
 90
20
 70
0
 10
-174.7582021814
 20
-42.549285083
 10
-174.7590867629
 20
-42.5501175195
 10
-174.7599803786
 20
-42.5509474861
 10
-174.7609069591
 20
-42.5517785021
 10
-174.7618708973
 20
-42.5526926102
 10
-174.762893122
 20
-42.5537163042
 10
-174.7640024133
 20
-42.5548418667
 10
-174.7652027094
 20
-42.5560970839
 10
-174.7664680971
 20
-42.5575029546
 10
-174.7677838079
 20
-42.5590325029
 10
-174.7691424762
 20
-42.560633636
 10
-174.7705219588
 20
-42.5623023391
 10
-174.7719014681
 20
-42.5640351897
 10
-174.7732773792
 20
-42.5657809787
 10
-174.7746307118
 20
-42.5675341711
 10
-174.7759413207
 20
-42.5692932973
 10
-174.7772086373
 20
-42.5710133605
 10
-174.7784218938
 20
-42.5726883991
 10
-174.7795681309
 20
-42.5743177737
 10
-174.7816533793
 20
-42.5773144707
  0
LWPOLYLINE
  5
6A8
100
AcDbEntity
  8
ASSI
100
AcDbPolyline
 62
250
  6
CONTINUOUS
 90
6
 70
0
 10
-174.7584273756
 20
42.5495039775
 10
-174.7574149791
 20
42.5485697547
 10
-174.7563470405
 20
42.547451114
 10
-174.7551567799
 20
42.5461403994
 10
-174.7537958859
 20
42.544606381
 10
-174.7522639394
 20
42.5426622493
  0
LINE
  5
6A9
100
AcDbEntity
  8
ASSI
100
AcDbLine
 62
7
  6
CONTINUOUS
 10
-174.7909737681
 20
42.5915396608
 11
-174.7909136137
 21
42.591493805
  0
LWPOLYLINE
  5
6AA
100
AcDbEntity
  8
ASSI
100
AcDbPolyline
 62
250
  6
CONTINUOUS
 90
22
 70
0
 10
-170.6253520614
 20
41.4532985165
 10
-170.7100834282
 20
41.5084516319
 10
-170.7958346314
 20
41.5612751835
 10
-170.8825129826
 20
41.6117691714
 10
-170.9700294009
 20
41.6599215219
 10
-171.0582928191
 20
41.7057443088
 10
-171.1472099536
 20
41.7492737526
 10
-171.236553997
 20
41.7904555702
 10
-171.3263787132
 20
41.8293440449
 10
-171.4170299797
 20
41.8661382469
 10
-171.5082842849
 20
41.9008305731
 10
-171.6002312343
 20
41.9334286268
 10
-171.6937300139
 20
41.9641542878
 10
-171.7887579437
 20
41.9930915087
 10
-171.8852553108
 20
42.020156337
 10
-171.984070373
 20
42.0453187946
 10
-172.0854719845
 20
42.068694309
 10
-172.1891281995
 20
42.0901674527
 10
-172.2949981601
 20
42.1093619651
 10
-172.4030322892
 20
42.126152426
 10
-172.5131719598
 20
42.1406642556
 10
-172.6253520576
 20
42.1528974538
  0
LWPOLYLINE
  5
6AB
100
AcDbEntity
  8
ASSI
100
AcDbPolyline
 62
250
  6
CONTINUOUS
 90
11
 70
0
 10
-174.7908878259
 20
42.5915267086
 10
-174.7908564702
 20
42.5915050632
 10
-174.7908073257
 20
42.5914519753
 10
-174.790737397
 20
42.5913691409
 10
-174.7906473289
 20
42.591249794
 10
-174.790536288
 20
42.5910930607
 10
-174.7904029699
 20
42.5908998148
 10
-174.790247033
 20
42.5906659121
 10
-174.7900677648
 20
42.5903916882
 10
-174.7898647288
 20
42.5900768074
 10
-174.7896365751
 20
42.5897161178
  0
LWPOLYLINE
  5
6AC
100
AcDbEntity
  8
0
100
AcDbPolyline
 62
7
  6
CONTINUOUS
 90
13
 70
0
 43
0.3500000006
 10
-187.5644005737
 20
53.4142868042
 10
-187.8501253052
 20
53.6285712891
 10
-187.8501253052
 20
54.2714292755
 10
-187.5644005737
 20
54.6999982452
 10
-186.9215471191
 20
54.6999982452
 10
-186.6358405151
 20
54.2714292755
 10
-186.6358405151
 20
53.6285712891
 10
-186.9215471191
 20
53.4142868042
 10
-186.4929781494
 20
52.9857133026
 10
-186.4929781494
 20
52.1285708313
 10
-186.9215471191
 20
51.7000018616
 10
-187.5644005737
 20
51.7000018616
 10
-187.9929695435
 20
52.1285708313
  0
LINE
  5
6AD
100
AcDbEntity
  8
ASSI
100
AcDbLine
 62
7
  6
CONTINUOUS
 10
-174.3999911119
 20
42.8999050955
 11
-174.4472788776
 21
42.8905800655
  0
LINE
  5
6AE
100
AcDbEntity
  8
ASSI
100
AcDbLine
 62
7
  6
CONTINUOUS
 10
-174.3727062635
 20
42.9029263296
 11
-174.3999911119
 21
42.8999050955
  0
LWPOLYLINE
  5
6AF
100
AcDbEntity
  8
ASSI
100
AcDbPolyline
 62
250
  6
CONTINUOUS
 90
22
 70
0
 10
-174.1814034816
 20
42.9092533602
 10
-174.2163290685
 20
42.9071116315
 10
-174.2510190267
 20
42.9025277577
 10
-174.2853031336
 20
42.895524237
 10
-174.3190131608
 20
42.8861354398
 10
-174.351983693
 20
42.874407442
 10
-174.3840529398
 20
42.8603978005
 10
-174.4150635388
 20
42.8441752674
 10
-174.4448633281
 20
42.8258194507
 10
-174.4733060867
 20
42.805420426
 10
-174.5002522508
 20
42.7830782955
 10
-174.5255696021
 20
42.7589026948
 10
-174.5491339171
 20
42.7330122531
 10
-174.5708295714
 20
42.7055340168
 10
-174.5905501112
 20
42.6766028219
 10
-174.6081987769
 20
42.6463606286
 10
-174.6236889719
 20
42.6149558347
 10
-174.6369446915
 20
42.5825425414
 10
-174.6479008974
 20
42.5492797915
 10
-174.6565038319
 20
42.5153307997
 10
-174.662711283
 20
42.4808621524
 10
-174.6664927944
 20
42.4460429832
  0
LINE
  5
6B0
100
AcDbEntity
  8
ASSI
100
AcDbLine
 62
7
  6
CONTINUOUS
 10
-174.3405644328
 20
42.9050853006
 11
-174.3726398787
 21
42.9031783462
  0
LINE
  5
6B1
100
AcDbEntity
  8
ASSI
100
AcDbLine
 62
250
  6
CONTINUOUS
 10
-174.1813764148
 20
42.109528209
 11
-172.6253520877
 21
42.15027414
  0
LINE
  5
6B2
100
AcDbEntity
  8
ASSI
100
AcDbLine
 62
7
  6
CONTINUOUS
 10
-174.3398796749
 20
42.9051035151
 11
-172.6253520877
 21
42.95
  0
LWPOLYLINE
  5
6B3
100
AcDbEntity
  8
0
100
AcDbPolyline
 62
7
  6
CONTINUOUS
 90
8
 70
0
 43
0.3500000006
 10
-183.9215462036
 20
51.7000018616
 10
-183.0644082642
 20
51.7000018616
 10
-182.6358392944
 20
52.1285708313
 10
-182.6358392944
 20
52.9857133026
 10
-183.0644082642
 20
53.4142868042
 10
-183.9215462036
 20
53.4142868042
 10
-183.9215462036
 20
54.6999982452
 10
-182.6358392944
 20
54.6999982452
  0
LINE
  5
6B4
100
AcDbEntity
  8
ASSI
100
AcDbLine
 62
250
  6
CONTINUOUS
 10
-174.6564994601
 20
42.1308559851
 11
-174.1813995024
 21
42.109527847
  0
LINE
  5
6B5
100
AcDbEntity
  8
ASSI
100
AcDbLine
 62
250
  6
CONTINUOUS
 10
-174.6664892835
 20
42.1313746374
 11
-174.6564994601
 21
42.1308559851
  0
ARC
  5
6B6
100
AcDbEntity
  8
RACCORDO
100
AcDbCircle
 62
7
  6
CONTINUOUS
 10
-178.7776754484
 20
-23.1807009792
 40
0.3
100
AcDbArc
 50
94.9999999948
 51
184.1024190575
  0
ARC
  5
6B7
100
AcDbEntity
  8
RACCORDO
100
AcDbCircle
 62
7
  6
CONTINUOUS
 10
-178.7776754467
 20
23.1807009791
 40
0.3
100
AcDbArc
 50
175.8975809412
 51
265.0000000052
  0
ARC
  5
6B8
100
AcDbEntity
  8
ASSI
100
AcDbCircle
 62
7
  6
CONTINUOUS
 10
-173.0553520877
 20
-38.6731796621
 40
4.0
100
AcDbArc
 50
276.1712222326
 51
307.4089555986
  0
ARC
  5
6B9
100
AcDbEntity
  8
ASSI
100
AcDbCircle
 62
7
  6
CONTINUOUS
 10
-174.3257783868
 20
-42.4053013765
 40
0.4999999975
100
AcDbArc
 50
201.8707063527
 51
268.5
  0
ARC
  5
6BA
100
AcDbEntity
  8
ASSI
100
AcDbCircle
 62
7
  6
CONTINUOUS
 10
-173.0553520877
 20
38.6731796621
 40
4.0
100
AcDbArc
 50
52.5910444193
 51
83.828774899
  0
ARC
  5
6BB
100
AcDbEntity
  8
ASSI
100
AcDbCircle
 62
7
  6
CONTINUOUS
 10
-174.3268856262
 20
42.40527238
 40
0.5
100
AcDbArc
 50
103.9230474812
 51
158.130362494
  0
ARC
  5
6BC
100
AcDbEntity
  8
ASSI
100
AcDbCircle
 62
7
  6
CONTINUOUS
 10
-174.3257783868
 20
42.4053013765
 40
0.4999999975
100
AcDbArc
 50
91.5
 51
95.9519678461
  0
ELLIPSE
  5
6BD
100
AcDbEntity
  8
RACCORDO
100
AcDbEllipse
 62
7
  6
CONTINUOUS
 10
84.3019099188
 20
22.1980900812
 30
0.0
 11
0.3562493039
 21
-0.3562493039
 31
0.0
 40
0.9924325091
 41
2.3599925885
 42
3.9231927187
  0
ELLIPSE
  5
6BE
100
AcDbEntity
  8
RACCORDO
100
AcDbEllipse
 62
7
  6
CONTINUOUS
 10
128.6980900812
 20
22.1980900812
 30
0.0
 11
-0.3562493039
 21
-0.3562493039
 31
0.0
 40
0.9924325091
 41
2.3599925885
 42
3.9231927187
  0
ELLIPSE
  5
6BF
100
AcDbEntity
  8
RACCORDO
100
AcDbEllipse
 62
7
  6
CONTINUOUS
 10
128.6980900812
 20
-22.1980900812
 30
0.0
 11
-0.3562493039
 21
0.3562493039
 31
0.0
 40
0.9924325091
 41
2.3599925885
 42
3.9231927187
  0
ELLIPSE
  5
6C0
100
AcDbEntity
  8
RACCORDO
100
AcDbEllipse
 62
7
  6
CONTINUOUS
 10
84.3019099188
 20
-22.1980900812
 30
0.0
 11
0.3562493039
 21
0.3562493039
 31
0.0
 40
0.9924325091
 41
2.3599925885
 42
3.9231927187
  0
ELLIPSE
  5
6C1
100
AcDbEntity
  8
RACCORDO
100
AcDbEllipse
 62
7
  6
CONTINUOUS
 10
-84.3019099188
 20
22.1980900812
 30
0.0
 11
-0.3562493039
 21
-0.3562493039
 31
0.0
 40
0.9924325091
 41
2.3599925885
 42
3.9231927187
  0
ELLIPSE
  5
6C2
100
AcDbEntity
  8
RACCORDO
100
AcDbEllipse
 62
7
  6
CONTINUOUS
 10
-128.6980900812
 20
22.1980900812
 30
0.0
 11
0.3562493039
 21
-0.3562493039
 31
0.0
 40
0.9924325091
 41
2.3599925885
 42
3.9231927187
  0
ELLIPSE
  5
6C3
100
AcDbEntity
  8
RACCORDO
100
AcDbEllipse
 62
7
  6
CONTINUOUS
 10
-128.6980900812
 20
-22.1980900812
 30
0.0
 11
0.3562493039
 21
0.3562493039
 31
0.0
 40
0.9924325091
 41
2.3599925885
 42
3.9231927187
  0
ELLIPSE
  5
6C4
100
AcDbEntity
  8
RACCORDO
100
AcDbEllipse
 62
7
  6
CONTINUOUS
 10
-84.3019099188
 20
-22.1980900812
 30
0.0
 11
-0.3562493039
 21
0.3562493039
 31
0.0
 40
0.9924325091
 41
2.3599925885
 42
3.9231927187
  0
ELLIPSE
  5
6C5
100
AcDbEntity
  8
RACCORDO
100
AcDbEllipse
 62
7
  6
CONTINUOUS
 10
-57.6980900812
 20
22.1980900812
 30
0.0
 11
0.3562493039
 21
-0.3562493039
 31
0.0
 40
0.9924325091
 41
2.3599925885
 42
3.9231927187
  0
ELLIPSE
  5
6C6
100
AcDbEntity
  8
RACCORDO
100
AcDbEllipse
 62
7
  6
CONTINUOUS
 10
-13.3019099188
 20
22.1980900812
 30
0.0
 11
-0.3562493039
 21
-0.3562493039
 31
0.0
 40
0.9924325091
 41
2.3599925885
 42
3.9231927187
  0
ELLIPSE
  5
6C7
100
AcDbEntity
  8
RACCORDO
100
AcDbEllipse
 62
7
  6
CONTINUOUS
 10
-57.6980900812
 20
-22.1980900812
 30
0.0
 11
0.3562493039
 21
0.3562493039
 31
0.0
 40
0.9924325091
 41
2.3599925885
 42
3.9231927187
  0
ELLIPSE
  5
6C8
100
AcDbEntity
  8
RACCORDO
100
AcDbEllipse
 62
7
  6
CONTINUOUS
 10
-13.3019099188
 20
-22.1980900812
 30
0.0
 11
-0.3562493039
 21
0.3562493039
 31
0.0
 40
0.9924325091
 41
2.3599925885
 42
3.9231927187
  0
ELLIPSE
  5
6C9
100
AcDbEntity
  8
RACCORDO
100
AcDbEllipse
 62
7
  6
CONTINUOUS
 10
57.6980900812
 20
-22.1980900812
 30
0.0
 11
-0.3562493039
 21
0.3562493039
 31
0.0
 40
0.9924325091
 41
2.3599925885
 42
3.9231927187
  0
ELLIPSE
  5
6CA
100
AcDbEntity
  8
RACCORDO
100
AcDbEllipse
 62
7
  6
CONTINUOUS
 10
57.6980900812
 20
22.1980900812
 30
0.0
 11
-0.3562493039
 21
-0.3562493039
 31
0.0
 40
0.9924325091
 41
2.3599925885
 42
3.9231927187
  0
ELLIPSE
  5
6CB
100
AcDbEntity
  8
RACCORDO
100
AcDbEllipse
 62
7
  6
CONTINUOUS
 10
13.3019099188
 20
22.1980900812
 30
0.0
 11
0.3562493039
 21
-0.3562493039
 31
0.0
 40
0.9924325091
 41
2.3599925885
 42
3.9231927187
  0
ELLIPSE
  5
6CC
100
AcDbEntity
  8
RACCORDO
100
AcDbEllipse
 62
7
  6
CONTINUOUS
 10
13.3019099188
 20
-22.1980900812
 30
0.0
 11
0.3562493039
 21
0.3562493039
 31
0.0
 40
0.9924325091
 41
2.3599925885
 42
3.9231927187
  0
ELLIPSE
  5
6CD
100
AcDbEntity
  8
ASSI
100
AcDbEllipse
 62
7
  6
CONTINUOUS
 10
148.649725766
 20
42.149725766
 30
0.0
 11
0.566073184
 21
0.566073184
 31
0.0
 40
0.999315002
 41
-0.7850555471
 42
0.7850555471
  0
ELLIPSE
  5
6CE
100
AcDbEntity
  8
ASSI
100
AcDbEllipse
 62
7
  6
CONTINUOUS
 10
148.649725766
 20
-42.149725766
 30
0.0
 11
0.566073184
 21
-0.566073184
 31
0.0
 40
0.999315002
 41
-0.7850555471
 42
0.7850555471
  0
ELLIPSE
  5
6CF
100
AcDbEntity
  8
ASSI
100
AcDbEllipse
 62
7
  6
CONTINUOUS
 10
-148.649725766
 20
-42.149725766
 30
0.0
 11
0.566073184
 21
0.566073184
 31
0.0
 40
0.999315002
 41
2.3565371065
 42
3.9266482006
  0
ELLIPSE
  5
6D0
100
AcDbEntity
  8
ASSI
100
AcDbEllipse
 62
7
  6
CONTINUOUS
 10
-148.649725766
 20
42.149725766
 30
0.0
 11
0.566073184
 21
-0.566073184
 31
0.0
 40
0.999315002
 41
2.3565371065
 42
3.9266482006
  0
ENDSEC
  0
SECTION
  2
OBJECTS
  0
DICTIONARY
  5
C
100
AcDbDictionary
280
0
281
1
  3
ACAD_GROUP
350
D
  3
ACAD_MLINESTYLE
350
17
  3
ACAD_LAYOUT
350
1A
  3
ACAD_PLOTSETTINGS
350
19
  3
ACAD_PLOTSTYLENAME
350
E
  0
DICTIONARY
  5
D
102
{ACAD_REACTORS
330
C
102
}
100
AcDbDictionary
280
0
281
1
  0
ACDBDICTIONARYWDFLT
  5
E
102
{ACAD_REACTORS
330
C
102
}
100
AcDbDictionary
281
1
  3
Normal
350
F
100
AcDbDictionaryWithDefault
340
F
  0
DICTIONARY
  5
17
102
{ACAD_REACTORS
330
C
102
}
100
AcDbDictionary
280
0
281
1
  3
Standard
350
18
  0
DICTIONARY
  5
19
102
{ACAD_REACTORS
330
C
102
}
100
AcDbDictionary
281
1
  0
DICTIONARY
  5
1A
102
{ACAD_REACTORS
330
C
102
}
100
AcDbDictionary
281
1
  3
Model
350
6D1
  3
Layout1
350
6D2
  0
ACDBPLACEHOLDER
  5
F
102
{ACAD_REACTORS
330
E
102
}
  0
MLINESTYLE
  5
18
102
{ACAD_REACTORS
330
17
102
}
100
AcDbMlineStyle
  2
STANDARD
 70
0
  3

 62
256
 51
90.0
 52
90.0
 71
2
 49
0.5
 62
256
  6
BYLAYER
 49
-0.5
 62
256
  6
BYLAYER
  0
LAYOUT
  5
6D1
102
{ACAD_REACTORS
330
1A
102
}
100
AcDbPlotSettings
  1

  2
none_device
  4
ISO_A4_(297.00_x_210.00_MM)
  6

 40
0.0
 41
0.0
 42
0.0
 43
0.0
 44
297.0
 45
210.0
 46
0.0
 47
0.0
 48
0.0
 49
0.0
140
0.0
141
0.0
142
1.0
143
1.0
 70
1024
 72
1
 73
0
 74
0
  7

 75
0
147
1.0
148
0.0
149
0.0
100
AcDbLayout
  1
Model
 70
0
 71
0
 10
0.0
 20
0.0
 11
297.0
 21
210.0
 12
0.0
 22
0.0
 32
0.0
 14
0.0
 24
0.0
 34
0.0
 15
0.0
 25
0.0
 35
0.0
146
0.0
 13
0.0
 23
0.0
 33
0.0
 16
1.0
 26
0.0
 36
0.0
 17
0.0
 27
1.0
 37
0.0
 76
0
330
214
345
0
346
0
  0
LAYOUT
  5
6D2
102
{ACAD_REACTORS
330
1A
102
}
100
AcDbPlotSettings
  1

  2
none_device
  4
ISO_A4_(297.00_x_210.00_MM)
  6

 40
0.0
 41
0.0
 42
0.0
 43
0.0
 44
297.0
 45
210.0
 46
0.0
 47
0.0
 48
0.0
 49
0.0
140
0.0
141
0.0
142
1.0
143
1.0
 70
0
 72
1
 73
0
 74
0
  7

 75
0
147
1.0
148
0.0
149
0.0
100
AcDbLayout
  1
Layout1
 70
0
 71
1
 10
0.0
 20
0.0
 11
297.0
 21
210.0
 12
0.0
 22
0.0
 32
0.0
 14
0.0
 24
0.0
 34
0.0
 15
0.0
 25
0.0
 35
0.0
146
0.0
 13
0.0
 23
0.0
 33
0.0
 16
1.0
 26
0.0
 36
0.0
 17
0.0
 27
1.0
 37
0.0
 76
0
330
215
345
0
346
0
  0
ENDSEC
  0
EOF
