  0
SECTION
  2
HEADER
  9
$ACADVER
  1
AC1024
  9
$DWGCODEPAGE
  3
ANSI_1252
  9
$EXTMAX
 10
297.0
 20
210.0
 30
0.0
  9
$EXTMIN
 10
0.0
 20
0.0
 30
0.0
  9
$LIMMIN
 10
0.0
 20
0.0
  9
$LIMMAX
 10
297.0
 20
210.0
  9
$VIEWCTR
 10
148.5
 20
105.0
  9
$VIEWSIZE
 40
210.0
  9
$CLAYER
  8
0
  9
$LTSCALE
 40
16.335
  9
$CELTYPE
  6
BYLAYER
  9
$DIMSCALE
 40
1.0
  9
$DIMASZ
 40
3.0
  9
$DIMEXO
 40
0.5
  9
$DIMDLI
 40
11.286
  9
$DIMEXE
 40
1.5
  9
$DIMCEN
 40
2.673
  9
$DIMLFAC
 40
1.0
  9
$DIMBLK
  1
_FILLED
  9
$DIMALT
 70
0
  9
$DIMALTF
 40
0.0393700787
  9
$DIMTXT
 40
3.0
  9
$DIMTOL
 70
1
  9
$DIMLIM
 70
0
  9
$DIMTFAC
 40
1.0
  9
$DIMTP
 40
0.01
  9
$DIMTM
 40
0.01
  9
$DIMGAP
 40
0.625
  9
$DIMDSEP
 70
44
  9
$AUNITS
 70
0
  9
$PDMODE
 70
3
  9
$PDSIZE
 40
3.0
  9
$HANDSEED
  5
3D8
  9
$TILEMODE
 70
1
  9
$MEASUREMENT
 70
1
  9
$INSUNITS
 70
4
  0
ENDSEC
  0
SECTION
  2
CLASSES
  0
CLASS
  1
ACDBDICTIONARYWDFLT
  2
AcDbDictionaryWithDefault
  3
AutoCAD 2000
 90
0
 91
1
280
0
281
0
  0
CLASS
  1
ACDBPLACEHOLDER
  2
AcDbPlaceHolder
  3
AutoCAD 2000
 90
0
 91
1
280
0
281
0
  0
CLASS
  1
LAYOUT
  2
AcDbLayout
  3
AutoCAD 2000
 90
0
 91
0
280
0
281
0
  0
ENDSEC
  0
SECTION
  2
TABLES
  0
TABLE
  2
VPORT
  5
8
100
AcDbSymbolTable
 70
2
  0
VPORT
  5
1F4
100
AcDbSymbolTableRecord
100
AcDbViewportTableRecord
  2
*ACTIVE
 70
0
 10
0.0
 20
0.0
 11
1.0
 21
1.0
 12
148.5
 22
105.0
 13
0.0
 23
0.0
 14
1.0
 24
1.0
 15
0.0
 25
0.0
 16
0.0
 26
0.0
 36
1.0
 17
0.0
 27
0.0
 37
0.0
 40
210.0
 41
1.4142857143
 42
50.0
 43
0.0
 44
0.0
 50
0.0
 51
0.0
 71
0
 72
100
 73
1
 74
1
 75
0
 76
0
 77
0
 78
0
  0
ENDTAB
  0
TABLE
  2
LTYPE
  5
5
100
AcDbSymbolTable
 70
6
  0
LTYPE
  5
14
100
AcDbSymbolTableRecord
100
AcDbLinetypeTableRecord
  2
BYBLOCK
 70
0
  3

 72
65
 73
0
 40
0.0
  0
LTYPE
  5
15
100
AcDbSymbolTableRecord
100
AcDbLinetypeTableRecord
  2
BYLAYER
 70
0
  3

 72
65
 73
0
 40
0.0
  0
LTYPE
  5
16
100
AcDbSymbolTableRecord
100
AcDbLinetypeTableRecord
  2
CONTINUOUS
 70
64
  3
Solid line
 72
65
 73
0
 40
0.0
  0
LTYPE
  5
1F5
100
AcDbSymbolTableRecord
100
AcDbLinetypeTableRecord
  2
CENTER
 70
64
  3
____ _ ____ _ ____ _ ____ _ ____ _ ____ _ ____
 72
65
 73
4
 40
0.6
 49
0.375
 74
0
 49
-0.075
 74
0
 49
0.075
 74
0
 49
-0.075
 74
0
  0
LTYPE
  5
1F6
100
AcDbSymbolTableRecord
100
AcDbLinetypeTableRecord
  2
HIDDEN
 70
64
  3
- - - - - - - - - - - - - - - - - - - -
 72
65
 73
2
 40
0.2
 49
0.1
 74
0
 49
-0.1
 74
0
  0
LTYPE
  5
1F7
100
AcDbSymbolTableRecord
100
AcDbLinetypeTableRecord
  2
PHANTOM
 70
64
  3
_____ _ _ _____ _ _ _____ _ _ _____
 72
65
 73
6
 40
0.8
 49
0.45
 74
0
 49
-0.05
 74
0
 49
0.1
 74
0
 49
-0.05
 74
0
 49
0.1
 74
0
 49
-0.05
 74
0
  0
LTYPE
  5
1F8
100
AcDbSymbolTableRecord
100
AcDbLinetypeTableRecord
  2
DOT
 70
64
  3
. . . . . . . . . . . . . . . . . . . .
 72
65
 73
2
 40
0.2
 49
0.1
 74
0
 49
-0.1
 74
0
  0
LTYPE
  5
1F9
100
AcDbSymbolTableRecord
100
AcDbLinetypeTableRecord
  2
DASHED
 70
64
  3
- - - - - - - - - - - - - - - - - - - -
 72
65
 73
2
 40
0.2
 49
0.1
 74
0
 49
-0.1
 74
0
  0
ENDTAB
  0
TABLE
  2
LAYER
  5
2
100
AcDbSymbolTable
 70
36
  0
LAYER
  5
10
100
AcDbSymbolTableRecord
100
AcDbLayerTableRecord
  2
0
 70
0
 62
7
  6
CONTINUOUS
370
-3
390
F
  0
LAYER
  5
1FA
100
AcDbSymbolTableRecord
100
AcDbLayerTableRecord
  2
DEFAULT_1
 70
0
 62
7
  6
CENTER
370
-3
390
F
  0
LAYER
  5
1FB
100
AcDbSymbolTableRecord
100
AcDbLayerTableRecord
  2
DEFAULT_2
 70
0
 62
7
  6
HIDDEN
370
-3
390
F
  0
LAYER
  5
1FC
100
AcDbSymbolTableRecord
100
AcDbLayerTableRecord
  2
DEFAULT_3
 70
0
 62
7
  6
PHANTOM
370
-3
390
F
  0
LAYER
  5
1FD
100
AcDbSymbolTableRecord
100
AcDbLayerTableRecord
  2
ASSI
 70
0
 62
7
  6
CONTINUOUS
370
-3
390
F
  0
LAYER
  5
1FE
100
AcDbSymbolTableRecord
100
AcDbLayerTableRecord
  2
COORDINATE
 70
0
 62
7
  6
CONTINUOUS
370
-3
390
F
  0
LAYER
  5
1FF
100
AcDbSymbolTableRecord
100
AcDbLayerTableRecord
  2
COPY_PUBLISH
 70
0
 62
7
  6
CONTINUOUS
370
-3
390
F
  0
LAYER
  5
200
100
AcDbSymbolTableRecord
100
AcDbLayerTableRecord
  2
COSMETICI
 70
0
 62
7
  6
CONTINUOUS
370
-3
390
F
  0
LAYER
  5
201
100
AcDbSymbolTableRecord
100
AcDbLayerTableRecord
  2
CURVE
 70
0
 62
7
  6
CONTINUOUS
370
-3
390
F
  0
LAYER
  5
202
100
AcDbSymbolTableRecord
100
AcDbLayerTableRecord
  2
DRAFT
 70
0
 62
7
  6
CONTINUOUS
370
-3
390
F
  0
LAYER
  5
203
100
AcDbSymbolTableRecord
100
AcDbLayerTableRecord
  2
IMPORT_IGES
 70
0
 62
7
  6
CONTINUOUS
370
-3
390
F
  0
LAYER
  5
204
100
AcDbSymbolTableRecord
100
AcDbLayerTableRecord
  2
INTF_1
 70
0
 62
7
  6
CONTINUOUS
370
-3
390
F
  0
LAYER
  5
205
100
AcDbSymbolTableRecord
100
AcDbLayerTableRecord
  2
INTF_11
 70
0
 62
7
  6
CONTINUOUS
370
-3
390
F
  0
LAYER
  5
206
100
AcDbSymbolTableRecord
100
AcDbLayerTableRecord
  2
NONE
 70
0
 62
7
  6
CONTINUOUS
370
-3
390
F
  0
LAYER
  5
207
100
AcDbSymbolTableRecord
100
AcDbLayerTableRecord
  2
NOTE
 70
0
 62
7
  6
CONTINUOUS
370
-3
390
F
  0
LAYER
  5
208
100
AcDbSymbolTableRecord
100
AcDbLayerTableRecord
  2
PIANI
 70
0
 62
7
  6
CONTINUOUS
370
-3
390
F
  0
LAYER
  5
209
100
AcDbSymbolTableRecord
100
AcDbLayerTableRecord
  2
PUNTI
 70
0
 62
7
  6
CONTINUOUS
370
-3
390
F
  0
LAYER
  5
20A
100
AcDbSymbolTableRecord
100
AcDbLayerTableRecord
  2
RACCORDO
 70
0
 62
7
  6
CONTINUOUS
370
-3
390
F
  0
LAYER
  5
20B
100
AcDbSymbolTableRecord
100
AcDbLayerTableRecord
  2
RGB____0____0____0__
 70
0
 62
7
  6
CONTINUOUS
370
-3
390
F
  0
LAYER
  5
20C
100
AcDbSymbolTableRecord
100
AcDbLayerTableRecord
  2
SIMBOLI
 70
0
 62
7
  6
CONTINUOUS
370
-3
390
F
  0
LAYER
  5
20D
100
AcDbSymbolTableRecord
100
AcDbLayerTableRecord
  2
SMUSSO
 70
0
 62
7
  6
CONTINUOUS
370
-3
390
F
  0
LAYER
  5
20E
100
AcDbSymbolTableRecord
100
AcDbLayerTableRecord
  2
SNAPLINE
 70
0
 62
7
  6
CONTINUOUS
370
-3
390
F
  0
LAYER
  5
20F
100
AcDbSymbolTableRecord
100
AcDbLayerTableRecord
  2
SUPERFICI
 70
0
 62
7
  6
CONTINUOUS
370
-3
390
F
  0
LAYER
  5
210
100
AcDbSymbolTableRecord
100
AcDbLayerTableRecord
  2
TRASH
 70
0
 62
7
  6
CONTINUOUS
370
-3
390
F
  0
ENDTAB
  0
TABLE
  2
STYLE
  5
3
100
AcDbSymbolTable
 70
1
  0
STYLE
  5
11
100
AcDbSymbolTableRecord
100
AcDbTextStyleTableRecord
  2
STANDARD
 70
0
 40
0.0
 41
0.8
 50
0.0
 71
0
 42
0.2
  3
txt
  4

  0
STYLE
  5
211
100
AcDbSymbolTableRecord
100
AcDbTextStyleTableRecord
  2
TEXTSTYLE_1
 70
0
 40
0.0
 41
0.8
 50
0.0
 71
0
 42
0.2
  3
gdt
  4

  0
ENDTAB
  0
TABLE
  2
VIEW
  5
6
100
AcDbSymbolTable
 70
0
  0
ENDTAB
  0
TABLE
  2
UCS
  5
7
100
AcDbSymbolTable
 70
0
  0
ENDTAB
  0
TABLE
  2
APPID
  5
9
100
AcDbSymbolTable
 70
1
  0
APPID
  5
212
100
AcDbSymbolTableRecord
100
AcDbRegAppTableRecord
  2
ACAD
 70
0
  0
ENDTAB
  0
TABLE
  2
BLOCK_RECORD
  5
1
100
AcDbSymbolTable
 70
0
  0
BLOCK_RECORD
  5
213
100
AcDbSymbolTableRecord
100
AcDbBlockTableRecord
  2
*Model_Space
  0
BLOCK_RECORD
  5
214
100
AcDbSymbolTableRecord
100
AcDbBlockTableRecord
  2
*Paper_Space
  0
BLOCK_RECORD
  5
215
100
AcDbSymbolTableRecord
100
AcDbBlockTableRecord
  2
_FILLED
  0
BLOCK_RECORD
  5
216
100
AcDbSymbolTableRecord
100
AcDbBlockTableRecord
  2
*D0
  0
BLOCK_RECORD
  5
217
100
AcDbSymbolTableRecord
100
AcDbBlockTableRecord
  2
*D1
  0
BLOCK_RECORD
  5
218
100
AcDbSymbolTableRecord
100
AcDbBlockTableRecord
  2
*D2
  0
ENDTAB
  0
TABLE
  2
DIMSTYLE
  5
A
100
AcDbSymbolTable
 70
1
100
AcDbDimStyleTable
 71
0
  0
DIMSTYLE
105
219
100
AcDbSymbolTableRecord
100
AcDbDimStyleTableRecord
  2
STANDARD
 70
0
  3

  4

 40
1.0
 41
3.0
 42
0.5
 43
0.38
 44
1.5
 45
0.0
 46
0.0
 47
0.01
 48
0.01
140
3.0
141
0.09
142
0.0
143
25.4
144
1.0
145
0.0
146
1.0
147
0.625
 71
1
 72
0
 73
0
 74
0
 75
0
 76
0
 77
1
 78
8
 79
2
170
0
171
1
172
0
173
0
174
0
175
0
176
0
177
0
178
0
270
2
179
2
271
2
272
2
273
2
274
2
275
0
280
0
281
0
282
0
283
1
284
8
285
0
286
0
287
3
288
0
340
11
278
44
341
215
342
215
343
215
344
215
  0
DIMSTYLE
105
21A
100
AcDbSymbolTableRecord
100
AcDbDimStyleTableRecord
  2
DIMSTYLE_1
 70
0
  3

  4

 40
1.0
 41
3.0
 42
0.5
 43
0.38
 44
1.5
 45
0.0
 46
0.0
 47
0.0
 48
0.0
140
3.0
141
0.09
142
0.0
143
25.4
144
1.0
145
0.0
146
1.0
147
0.75
 71
0
 72
0
 73
0
 74
0
 75
0
 76
0
 77
1
 78
8
 79
2
170
0
171
1
172
0
173
0
174
0
175
0
176
0
177
0
178
0
270
2
179
2
271
0
272
0
273
2
274
2
275
0
280
0
281
0
282
0
283
1
284
8
285
0
286
0
287
3
288
0
340
11
278
44
341
215
342
215
343
215
344
215
  0
DIMSTYLE
105
21B
100
AcDbSymbolTableRecord
100
AcDbDimStyleTableRecord
  2
DIMSTYLE_2
 70
0
  3

  4

 40
1.0
 41
3.0
 42
0.5
 43
0.38
 44
1.5
 45
0.0
 46
0.0
 47
0.0
 48
0.0
140
3.0
141
0.09
142
0.0
143
25.4
144
1.0
145
0.0
146
1.0
147
0.75
 71
0
 72
0
 73
0
 74
0
 75
0
 76
0
 77
1
 78
8
 79
2
170
0
171
1
172
0
173
0
174
0
175
0
176
0
177
0
178
0
270
2
179
2
271
1
272
1
273
2
274
2
275
0
280
0
281
0
282
0
283
1
284
8
285
0
286
0
287
3
288
0
340
11
278
44
341
215
342
215
343
215
344
215
  0
ENDTAB
  0
ENDSEC
  0
SECTION
  2
BLOCKS
  0
BLOCK
  5
20
100
AcDbEntity
  8
0
100
AcDbBlockBegin
  2
*Model_Space
 70
0
 10
0.0
 20
0.0
 30
0.0
  3
*Model_Space
  1

  0
ENDBLK
  5
21
100
AcDbEntity
  8
0
100
AcDbBlockEnd
  0
BLOCK
  5
1C
100
AcDbEntity
  8
0
100
AcDbBlockBegin
  2
*Paper_Space
 70
0
 10
0.0
 20
0.0
 30
0.0
  3
*Paper_Space
  1

  0
ENDBLK
  5
1D
100
AcDbEntity
  8
0
100
AcDbBlockEnd
  0
BLOCK
  5
21C
100
AcDbEntity
  8
0
100
AcDbBlockBegin
  2
_FILLED
 70
64
 10
0.0
 20
0.0
  3
_FILLED
  1

  0
SOLID
  5
21D
100
AcDbEntity
  8
0
  6
BYBLOCK
 62
0
100
AcDbTrace
 10
0.0
 20
0.0
 11
-1.0
 21
0.3166666667
 12
-1.0
 22
-0.3166666667
 13
-1.0
 23
-0.3166666667
  0
ENDBLK
  5
21E
100
AcDbEntity
  8
0
  6
BYBLOCK
 62
0
100
AcDbBlockEnd
  0
BLOCK
  5
21F
100
AcDbEntity
  8
0
100
AcDbBlockBegin
 62
7
  6
CONTINUOUS
  2
*D0
 70
65
 10
0.0
 20
0.0
  3
*D0
  1

  0
LINE
  5
220
100
AcDbEntity
  8
0
100
AcDbLine
 62
7
  6
CONTINUOUS
 10
-59.95
 20
42.65027414
 11
-59.95
 21
52.45
  0
LINE
  5
221
100
AcDbEntity
  8
0
100
AcDbLine
 62
7
  6
CONTINUOUS
 10
59.95
 20
42.65027414
 11
59.95
 21
52.45
  0
LINE
  5
222
100
AcDbEntity
  8
0
100
AcDbLine
 62
7
  6
CONTINUOUS
 10
-59.95
 20
50.95
 11
0.0
 21
50.95
  0
LINE
  5
223
100
AcDbEntity
  8
0
100
AcDbLine
 62
7
  6
CONTINUOUS
 10
59.95
 20
50.95
 11
0.0
 21
50.95
  0
INSERT
  5
224
100
AcDbEntity
  8
0
100
AcDbBlockReference
 62
7
  6
CONTINUOUS
  2
_FILLED
 10
-59.95
 20
50.95
 41
3.0
 42
3.0
 43
3.0
 50
180.0
  0
INSERT
  5
225
100
AcDbEntity
  8
0
100
AcDbBlockReference
 62
7
  6
CONTINUOUS
  2
_FILLED
 10
59.95
 20
50.95
 41
3.0
 42
3.0
 43
3.0
  0
ENDBLK
  5
226
100
AcDbEntity
  8
0
  6
BYBLOCK
 62
0
100
AcDbBlockEnd
  0
BLOCK
  5
227
100
AcDbEntity
  8
0
100
AcDbBlockBegin
 62
7
  6
CONTINUOUS
  2
*D1
 70
65
 10
0.0
 20
0.0
  3
*D1
  1

  0
LINE
  5
228
100
AcDbEntity
  8
0
100
AcDbLine
 62
7
  6
CONTINUOUS
 10
59.65027414
 20
42.95
 11
69.45
 21
42.95
  0
LINE
  5
229
100
AcDbEntity
  8
0
100
AcDbLine
 62
7
  6
CONTINUOUS
 10
59.65027414
 20
-42.95
 11
69.45
 21
-42.95
  0
LINE
  5
22A
100
AcDbEntity
  8
0
100
AcDbLine
 62
7
  6
CONTINUOUS
 10
67.95
 20
42.95
 11
67.95
 21
0.0
  0
LINE
  5
22B
100
AcDbEntity
  8
0
100
AcDbLine
 62
7
  6
CONTINUOUS
 10
67.95
 20
-42.95
 11
67.95
 21
0.0
  0
INSERT
  5
22C
100
AcDbEntity
  8
0
100
AcDbBlockReference
 62
7
  6
CONTINUOUS
  2
_FILLED
 10
67.95
 20
42.95
 41
3.0
 42
3.0
 43
3.0
 50
90.0
  0
INSERT
  5
22D
100
AcDbEntity
  8
0
100
AcDbBlockReference
 62
7
  6
CONTINUOUS
  2
_FILLED
 10
67.95
 20
-42.95
 41
3.0
 42
3.0
 43
3.0
 50
270.0
  0
ENDBLK
  5
22E
100
AcDbEntity
  8
0
  6
BYBLOCK
 62
0
100
AcDbBlockEnd
  0
BLOCK
  5
22F
100
AcDbEntity
  8
0
100
AcDbBlockBegin
 62
7
  6
CONTINUOUS
  2
*D2
 70
65
 10
0.0
 20
0.0
  3
*D2
  1

  0
LINE
  5
230
100
AcDbEntity
  8
0
100
AcDbLine
 62
7
  6
CONTINUOUS
 10
-85.1011879979
 20
41.953298463
 11
-85.1011879665
 21
52.4499999854
  0
LINE
  5
231
100
AcDbEntity
  8
0
100
AcDbLine
 62
7
  6
CONTINUOUS
 10
-94.8862924734
 20
0.5
 11
-94.8862923181
 21
52.4500000146
  0
LINE
  5
232
100
AcDbEntity
  8
0
100
AcDbLine
 62
7
  6
CONTINUOUS
 10
-85.101187971
 20
50.9499999854
 11
-81.101187971
 21
50.9499999734
  0
LINE
  5
233
100
AcDbEntity
  8
0
100
AcDbLine
 62
7
  6
CONTINUOUS
 10
-81.101187971
 20
50.9499999734
 11
-89.9937401468
 21
50.95
  0
LINE
  5
234
100
AcDbEntity
  8
0
100
AcDbLine
 62
7
  6
CONTINUOUS
 10
-94.8862923226
 20
50.9500000146
 11
-98.8862923226
 21
50.9500000266
  0
LINE
  5
235
100
AcDbEntity
  8
0
100
AcDbLine
 62
7
  6
CONTINUOUS
 10
-98.8862923226
 20
50.9500000266
 11
-89.9937401468
 21
50.95
  0
INSERT
  5
236
100
AcDbEntity
  8
0
100
AcDbBlockReference
 62
7
  6
CONTINUOUS
  2
_FILLED
 10
-85.101187971
 20
50.9499999854
 41
3.0
 42
3.0
 43
3.0
 50
179.9999998287
  0
INSERT
  5
237
100
AcDbEntity
  8
0
100
AcDbBlockReference
 62
7
  6
CONTINUOUS
  2
_FILLED
 10
-94.8862923226
 20
50.9500000146
 41
3.0
 42
3.0
 43
3.0
 50
359.9999998287
  0
ENDBLK
  5
238
100
AcDbEntity
  8
0
  6
BYBLOCK
 62
0
100
AcDbBlockEnd
  0
ENDSEC
  0
SECTION
  2
ENTITIES
  0
DIMENSION
  5
239
100
AcDbEntity
  8
0
100
AcDbDimension
 62
7
  6
CONTINUOUS
  2
*D0
 10
59.95
 20
50.95
 11
-3.2142857143
 21
50.95
 70
160
 71
2
 72
2
 41
0.9
 42
119.9
  3
DIMSTYLE_1
100
AcDbAlignedDimension
 13
-59.95
 23
42.15027414
 14
59.95
 24
42.15027414
100
AcDbRotatedDimension
  0
DIMENSION
  5
23A
100
AcDbEntity
  8
0
100
AcDbDimension
 62
7
  6
CONTINUOUS
  2
*D1
 10
67.95
 20
-42.95
 11
67.95
 21
-2.3571428571
 70
160
 71
2
 72
2
 41
0.9
 42
85.9
  3
DIMSTYLE_1
100
AcDbAlignedDimension
 13
59.15027414
 23
42.95
 14
59.15027414
 24
-42.95
 50
270.0
100
AcDbRotatedDimension
  0
DIMENSION
  5
23B
100
AcDbEntity
  8
0
100
AcDbDimension
 62
7
  6
CONTINUOUS
  2
*D2
 10
-94.8862923226
 20
50.9500000146
 11
-93.2080258365
 21
50.9500000096
 70
160
 71
2
 72
2
 41
0.9
 42
9.7851043516
  3
DIMSTYLE_2
100
AcDbAlignedDimension
 13
-85.1011879994
 23
41.453298463
 14
-94.8862924749
 24
-0.0
 50
179.9999998287
100
AcDbRotatedDimension
  0
LWPOLYLINE
  5
23C
100
AcDbEntity
  8
ASSI
100
AcDbPolyline
 62
250
  6
CONTINUOUS
 90
13
 70
0
 10
-59.0965149549
 20
-42.8962408149
 10
-59.0981972717
 20
-42.8934807093
 10
-59.0998682341
 20
-42.8873658971
 10
-59.1015165645
 20
-42.8779376507
 10
-59.1031311387
 20
-42.8652596045
 10
-59.1047010599
 20
-42.8494173259
 10
-59.1062157326
 20
-42.8305177383
 10
-59.1076649346
 20
-42.8086883989
 10
-59.1090388853
 20
-42.7840766357
 10
-59.1103283121
 20
-42.7568485544
 10
-59.111524513
 20
-42.727187919
 10
-59.1126194148
 20
-42.6952949095
 10
-59.1136056284
 20
-42.6613847694
  0
LWPOLYLINE
  5
23D
100
AcDbEntity
  8
ASSI
100
AcDbPolyline
 62
250
  6
CONTINUOUS
 90
12
 70
0
 10
-59.8962581526
 20
42.0965322926
 10
-59.8935004774
 20
42.0980907192
 10
-59.8873919372
 20
42.0996386399
 10
-59.8779737122
 20
42.1011656199
 10
-59.8653092938
 20
42.1026613654
 10
-59.8494840567
 20
42.1041157934
 10
-59.8306046836
 20
42.1055190991
 10
-59.808798446
 20
42.1068618227
 10
-59.7842123453
 20
42.1081349126
 10
-59.7570121223
 20
42.1093297866
 10
-59.7273811403
 20
42.1104383899
 10
-59.6955191486
 20
42.1114532492
  0
LWPOLYLINE
  5
23E
100
AcDbEntity
  8
ASSI
100
AcDbPolyline
 62
250
  6
CONTINUOUS
 90
22
 70
0
 10
-59.4296006527
 20
-42.115245455
 10
-59.4279556016
 20
-42.1382079639
 10
-59.4246760417
 20
-42.1608320759
 10
-59.4197616909
 20
-42.1831174522
 10
-59.4131654538
 20
-42.2051768228
 10
-59.4049338474
 20
-42.2268967576
 10
-59.3952070695
 20
-42.2479377611
 10
-59.3839592069
 20
-42.2682947778
 10
-59.37121576
 20
-42.2879723812
 10
-59.3571942077
 20
-42.306645735
 10
-59.3418759895
 20
-42.3242976959
 10
-59.3252795158
 20
-42.3409452679
 10
-59.3076779221
 20
-42.3563151013
 10
-59.2890539522
 20
-42.3703892071
 10
-59.2694250062
 20
-42.3831858234
 10
-59.2491164055
 20
-42.3944862056
 10
-59.2281152005
 20
-42.4042665126
 10
-59.206434747
 20
-42.4125511849
 10
-59.1844399905
 20
-42.4191941163
 10
-59.1622527967
 20
-42.4241469102
 10
-59.139751879
 20
-42.4274587874
 10
-59.1169375184
 20
-42.4291301495
  0
LWPOLYLINE
  5
23F
100
AcDbEntity
  8
ASSI
100
AcDbPolyline
 62
250
  6
CONTINUOUS
 90
22
 70
0
 10
-59.8962581526
 20
-42.0965322926
 10
-59.8940186927
 20
-42.1563061382
 10
-59.8873189143
 20
-42.2157469309
 10
-59.8761954208
 20
-42.2745225513
 10
-59.8607081649
 20
-42.3323086722
 10
-59.8409436049
 20
-42.3887777109
 10
-59.8170173936
 20
-42.4436017438
 10
-59.7890673936
 20
-42.4964714175
 10
-59.7572499936
 20
-42.5470963525
 10
-59.7217449672
 20
-42.5951947067
 10
-59.6827565504
 20
-42.6404945997
 10
-59.6405003783
 20
-42.6827496563
 10
-59.5951993101
 20
-42.721737001
 10
-59.5470998657
 20
-42.757240889
 10
-59.4964737853
 20
-42.7890572023
 10
-59.4436024033
 20
-42.817006389
 10
-59.3887756333
 20
-42.8409321033
 10
-59.3323031817
 20
-42.860696131
 10
-59.2745137131
 20
-42.8761824996
 10
-59.2157351054
 20
-42.8873047449
 10
-59.1562914715
 20
-42.8940030362
 10
-59.0965149549
 20
-42.8962408149
  0
LINE
  5
240
100
AcDbEntity
  8
ASSI
100
AcDbLine
 62
250
  6
CONTINUOUS
 10
-59.4296006527
 20
-42.115245455
 11
-59.4393690286
 21
-41.7967108678
  0
LINE
  5
241
100
AcDbEntity
  8
ASSI
100
AcDbLine
 62
250
  6
CONTINUOUS
 10
-59.4393690286
 20
-41.7967108678
 11
-59.4557907428
 21
-41.1160201006
  0
LINE
  5
242
100
AcDbEntity
  8
ASSI
100
AcDbLine
 62
250
  6
CONTINUOUS
 10
-59.1136056284
 20
-42.6613847694
 11
-59.1152261461
 21
-42.5884406017
  0
LINE
  5
243
100
AcDbEntity
  8
ASSI
100
AcDbLine
 62
250
  6
CONTINUOUS
 10
-59.4557907428
 20
-41.1160201006
 11
-59.4680819767
 21
-40.3772793703
  0
LINE
  5
244
100
AcDbEntity
  8
ASSI
100
AcDbLine
 62
250
  6
CONTINUOUS
 10
-59.1152261461
 20
-42.5884406017
 11
-59.116342394
 21
-42.5103212682
  0
LINE
  5
245
100
AcDbEntity
  8
ASSI
100
AcDbLine
 62
250
  6
CONTINUOUS
 10
-59.4680819767
 20
-40.3772793703
 11
-59.4760107412
 21
-39.5783415008
  0
LINE
  5
246
100
AcDbEntity
  8
ASSI
100
AcDbLine
 62
250
  6
CONTINUOUS
 10
-59.116342394
 20
-42.5103212682
 11
-59.1169242896
 21
-42.429132096
  0
LINE
  5
247
100
AcDbEntity
  8
ASSI
100
AcDbLine
 62
250
  6
CONTINUOUS
 10
-59.4760107412
 20
-39.5783415008
 11
-59.479791719
 21
-38.7238617664
  0
LINE
  5
248
100
AcDbEntity
  8
ASSI
100
AcDbLine
 62
250
  6
CONTINUOUS
 10
-59.5003726886
 20
-16.2866674955
 11
-59.504962776
 21
-9.9797234547
  0
LINE
  5
249
100
AcDbEntity
  8
ASSI
100
AcDbLine
 62
7
  6
CONTINUOUS
 10
-59.95
 20
42.15027414
 11
-59.95
 21
-42.15027414
  0
LINE
  5
24A
100
AcDbEntity
  8
ASSI
100
AcDbLine
 62
250
  6
CONTINUOUS
 10
-59.504962776
 20
-9.9797234547
 11
-59.5070339856
 21
-1.3494691874
  0
LINE
  5
24B
100
AcDbEntity
  8
ASSI
100
AcDbLine
 62
250
  6
CONTINUOUS
 10
-59.8948380969
 20
36.6638192851
 11
-59.8962583389
 21
42.096532479
  0
LINE
  5
24C
100
AcDbEntity
  8
ASSI
100
AcDbLine
 62
250
  6
CONTINUOUS
 10
-59.5070339856
 20
-1.3494691874
 11
-59.5056582002
 21
8.3290251928
  0
LINE
  5
24D
100
AcDbEntity
  8
ASSI
100
AcDbLine
 62
250
  6
CONTINUOUS
 10
-59.4736213896
 20
30.6134045478
 11
-59.4802685625
 21
37.9441051461
  0
LINE
  5
24E
100
AcDbEntity
  8
ASSI
100
AcDbLine
 62
250
  6
CONTINUOUS
 10
-59.5056582002
 20
8.3290251928
 11
-59.5013180883
 21
15.3352437909
  0
LINE
  5
24F
100
AcDbEntity
  8
ASSI
100
AcDbLine
 62
250
  6
CONTINUOUS
 10
-59.8962579373
 20
-42.0965320773
 11
-59.8948380969
 21
36.6638192851
  0
LINE
  5
250
100
AcDbEntity
  8
ASSI
100
AcDbLine
 62
250
  6
CONTINUOUS
 10
-59.4746004237
 20
-34.4410094218
 11
-59.5003726886
 21
-16.2866674955
  0
LINE
  5
251
100
AcDbEntity
  8
ASSI
100
AcDbLine
 62
250
  6
CONTINUOUS
 10
-59.479791719
 20
-38.7238617664
 11
-59.4795480885
 21
-37.3727603075
  0
LINE
  5
252
100
AcDbEntity
  8
ASSI
100
AcDbLine
 62
250
  6
CONTINUOUS
 10
-59.5013180883
 20
15.3352437909
 11
-59.4947176242
 21
20.4845586637
  0
LINE
  5
253
100
AcDbEntity
  8
ASSI
100
AcDbLine
 62
250
  6
CONTINUOUS
 10
-59.4795480885
 20
-37.3727603075
 11
-59.4746004237
 21
-34.4410094218
  0
LINE
  5
254
100
AcDbEntity
  8
ASSI
100
AcDbLine
 62
250
  6
CONTINUOUS
 10
-59.4947176242
 20
20.4845586637
 11
-59.4836800323
 21
25.6526852871
  0
LINE
  5
255
100
AcDbEntity
  8
ASSI
100
AcDbLine
 62
250
  6
CONTINUOUS
 10
-59.4836800323
 20
25.6526852871
 11
-59.4736213896
 21
30.6134045478
  0
LINE
  5
256
100
AcDbEntity
  8
ASSI
100
AcDbLine
 62
250
  6
CONTINUOUS
 10
-59.4802685625
 20
37.9441051461
 11
-59.478691741
 21
39.0867804884
  0
LINE
  5
257
100
AcDbEntity
  8
ASSI
100
AcDbLine
 62
250
  6
CONTINUOUS
 10
-59.478691741
 20
39.0867804884
 11
-59.4744869413
 21
39.7804364009
  0
LINE
  5
258
100
AcDbEntity
  8
ASSI
100
AcDbLine
 62
250
  6
CONTINUOUS
 10
-59.1169243341
 20
42.4291320605
 11
-59.1163424347
 21
42.5103215876
  0
LINE
  5
259
100
AcDbEntity
  8
ASSI
100
AcDbLine
 62
250
  6
CONTINUOUS
 10
-59.4744869413
 20
39.7804364009
 11
-59.4674759838
 21
40.4257207455
  0
LINE
  5
25A
100
AcDbEntity
  8
ASSI
100
AcDbLine
 62
250
  6
CONTINUOUS
 10
-59.1163424347
 20
42.5103215876
 11
-59.1152261796
 21
42.5884411679
  0
LINE
  5
25B
100
AcDbEntity
  8
ASSI
100
AcDbLine
 62
250
  6
CONTINUOUS
 10
-59.4674759838
 20
40.4257207455
 11
-59.4575403526
 21
41.0275271474
  0
LINE
  5
25C
100
AcDbEntity
  8
ASSI
100
AcDbLine
 62
250
  6
CONTINUOUS
 10
-59.4575403526
 20
41.0275271474
 11
-59.444880436
 21
41.5903730867
  0
LWPOLYLINE
  5
25D
100
AcDbEntity
  8
ASSI
100
AcDbPolyline
 62
250
  6
CONTINUOUS
 90
14
 70
0
 10
-59.1152261796
 20
42.5884411679
 10
-59.1136056529
 20
42.6613854712
 10
-59.1126194344
 20
42.6952956479
 10
-59.1115245277
 20
42.7271886711
 10
-59.1103283222
 20
42.7568492957
 10
-59.1090388909
 20
42.7840773434
 10
-59.1076649365
 20
42.8086890528
 10
-59.1062157314
 20
42.8305183203
 10
-59.1047010549
 20
42.849417837
 10
-59.103131131
 20
42.8652600289
 10
-59.1015165594
 20
42.8779379461
 10
-59.0998682387
 20
42.8873660459
 10
-59.0981972921
 20
42.8934807397
 10
-59.0965149967
 20
42.8962407882
  0
LINE
  5
25E
100
AcDbEntity
  8
ASSI
100
AcDbLine
 62
250
  6
CONTINUOUS
 10
-59.444880436
 20
41.5903730867
 11
-59.4295406079
 21
42.1156598097
  0
LWPOLYLINE
  5
25F
100
AcDbEntity
  8
ASSI
100
AcDbPolyline
 62
250
  6
CONTINUOUS
 90
22
 70
0
 10
59.1169587716
 20
-42.4291270224
 10
59.1397634336
 20
-42.4274570312
 10
59.1622569101
 20
-42.4241462899
 10
59.1844389202
 20
-42.419194397
 10
59.2064314204
 20
-42.4125520723
 10
59.2281118747
 20
-42.4042677713
 10
59.2491133265
 20
-42.3944877771
 10
59.269421819
 20
-42.383187697
 10
59.2890509027
 20
-42.3703913243
 10
59.3076750489
 20
-42.3563174369
 10
59.3252767931
 20
-42.340947812
 10
59.3418734559
 20
-42.3243004234
 10
59.3571918868
 20
-42.3066486081
 10
59.3712136594
 20
-42.2879754264
 10
59.3839573503
 20
-42.2682979575
 10
59.3952055137
 20
-42.2479408315
 10
59.4049348913
 20
-42.2268843042
 10
59.4131691528
 20
-42.2051485997
 10
59.4197614123
 20
-42.1831185259
 10
59.4246629283
 20
-42.1609226245
 10
59.4279230296
 20
-42.1384330677
 10
59.4295420007
 20
-42.1156501984
  0
LWPOLYLINE
  5
260
100
AcDbEntity
  8
ASSI
100
AcDbPolyline
 62
250
  6
CONTINUOUS
 90
22
 70
0
 10
59.0965149549
 20
-42.8962408149
 10
59.1562908597
 20
-42.8940030819
 10
59.2157335486
 20
-42.8873049794
 10
59.2745109026
 20
-42.8761831411
 10
59.3322985414
 20
-42.8606975626
 10
59.3887689525
 20
-42.840934726
 10
59.4435943913
 20
-42.8170102482
 10
59.4964655528
 20
-42.7890619561
 10
59.5470920045
 20
-42.7572462494
 10
59.5951919161
 20
-42.7217428981
 10
59.6404934046
 20
-42.682756127
 10
59.6827500862
 20
-42.6405015658
 10
59.7217390862
 20
-42.5952020798
 10
59.7572446542
 20
-42.5471041823
 10
59.7890626622
 20
-42.4964796105
 10
59.8170135539
 20
-42.4436097146
 10
59.8409409939
 20
-42.3887843612
 10
59.8607067367
 20
-42.3323133008
 10
59.8761947786
 20
-42.2745253643
 10
59.8873186786
 20
-42.215748495
 10
59.8940186465
 20
-42.1563067564
 10
59.8962581526
 20
-42.0965322926
  0
LINE
  5
261
100
AcDbEntity
  8
ASSI
100
AcDbLine
 62
250
  6
CONTINUOUS
 10
59.1169587716
 20
-42.4291270224
 11
58.3899686864
 21
-42.4517690918
  0
LWPOLYLINE
  5
262
100
AcDbEntity
  8
ASSI
100
AcDbPolyline
 62
250
  6
CONTINUOUS
 90
3
 70
0
 10
58.3899686864
 20
-42.4517690918
 10
57.6637488549
 20
-42.4703911265
 10
57.3009271477
 20
-42.478205846
  0
LINE
  5
263
100
AcDbEntity
  8
ASSI
100
AcDbLine
 62
250
  6
CONTINUOUS
 10
-57.2520858688
 20
-42.4792159233
 11
-57.9853496329
 21
-42.46264755
  0
LWPOLYLINE
  5
264
100
AcDbEntity
  8
ASSI
100
AcDbPolyline
 62
250
  6
CONTINUOUS
 90
3
 70
0
 10
-57.9853496329
 20
-42.46264755
 10
-58.7361703296
 20
-42.4414361606
 10
-59.1169375184
 20
-42.4291301495
  0
LWPOLYLINE
  5
265
100
AcDbEntity
  8
0
100
AcDbPolyline
 62
7
  6
CONTINUOUS
 90
3
 70
0
 43
0.3500000006
 10
-3.2142856836
 20
53.8428557739
 10
-2.3571427875
 20
54.6999982452
 10
-2.3571427875
 20
51.7000018616
  0
LINE
  5
266
100
AcDbEntity
  8
ASSI
100
AcDbLine
 62
250
  6
CONTINUOUS
 10
59.6616409414
 20
-42.1123675231
 11
59.5887614234
 21
-42.1138703817
  0
LINE
  5
267
100
AcDbEntity
  8
ASSI
100
AcDbLine
 62
250
  6
CONTINUOUS
 10
57.3009271477
 20
-42.478205846
 11
56.5786451657
 21
-42.4912335433
  0
LINE
  5
268
100
AcDbEntity
  8
ASSI
100
AcDbLine
 62
250
  6
CONTINUOUS
 10
56.5786451657
 20
-42.4912335433
 11
55.8580264387
 21
-42.501010017
  0
LINE
  5
269
100
AcDbEntity
  8
ASSI
100
AcDbLine
 62
250
  6
CONTINUOUS
 10
59.5887614234
 20
-42.1138703817
 11
59.5107044616
 21
-42.1149065099
  0
LINE
  5
26A
100
AcDbEntity
  8
ASSI
100
AcDbLine
 62
250
  6
CONTINUOUS
 10
55.8580264387
 20
-42.501010017
 11
55.1326982505
 21
-42.5081343494
  0
LINE
  5
26B
100
AcDbEntity
  8
ASSI
100
AcDbLine
 62
250
  6
CONTINUOUS
 10
59.5107044616
 20
-42.1149065099
 11
59.4295712995
 21
-42.1154480159
  0
LINE
  5
26C
100
AcDbEntity
  8
ASSI
100
AcDbLine
 62
250
  6
CONTINUOUS
 10
55.1326982505
 20
-42.5081343494
 11
53.9981430593
 21
-42.5148083744
  0
LINE
  5
26D
100
AcDbEntity
  8
ASSI
100
AcDbLine
 62
250
  6
CONTINUOUS
 10
32.6984366538
 20
-42.540994969
 11
28.4940111648
 21
-42.5497119957
  0
LINE
  5
26E
100
AcDbEntity
  8
ASSI
100
AcDbLine
 62
250
  6
CONTINUOUS
 10
53.9981430593
 20
-42.5148083744
 11
52.751292495
 21
-42.5175976216
  0
LINE
  5
26F
100
AcDbEntity
  8
ASSI
100
AcDbLine
 62
250
  6
CONTINUOUS
 10
28.4940111648
 20
-42.5497119957
 11
23.7787308596
 21
-42.5555971725
  0
LINE
  5
270
100
AcDbEntity
  8
ASSI
100
AcDbLine
 62
250
  6
CONTINUOUS
 10
43.6456221988
 20
-42.5145235367
 11
32.6984366538
 21
-42.540994969
  0
LINE
  5
271
100
AcDbEntity
  8
ASSI
100
AcDbLine
 62
250
  6
CONTINUOUS
 10
23.7787308596
 20
-42.5555971725
 11
18.4298049605
 21
-42.5584512143
  0
LINE
  5
272
100
AcDbEntity
  8
ASSI
100
AcDbLine
 62
7
  6
CONTINUOUS
 10
-59.15027414
 20
-42.95
 11
59.15027414
 21
-42.95
  0
LINE
  5
273
100
AcDbEntity
  8
ASSI
100
AcDbLine
 62
250
  6
CONTINUOUS
 10
-53.5610086564
 20
-42.8937177917
 11
-59.096510359
 21
-42.8962362189
  0
LINE
  5
274
100
AcDbEntity
  8
ASSI
100
AcDbLine
 62
250
  6
CONTINUOUS
 10
18.4298049605
 20
-42.5584512143
 11
-11.8361411153
 21
-42.559339418
  0
LINE
  5
275
100
AcDbEntity
  8
ASSI
100
AcDbLine
 62
250
  6
CONTINUOUS
 10
52.751292495
 20
-42.5175976216
 11
51.3495354342
 21
-42.5177291281
  0
LINE
  5
276
100
AcDbEntity
  8
ASSI
100
AcDbLine
 62
250
  6
CONTINUOUS
 10
57.6512278
 20
-42.8949981918
 11
-53.5610086564
 21
-42.8937177917
  0
LINE
  5
277
100
AcDbEntity
  8
ASSI
100
AcDbLine
 62
250
  6
CONTINUOUS
 10
51.3495354342
 20
-42.5177291281
 11
50.3315699691
 21
-42.5171477223
  0
LINE
  5
278
100
AcDbEntity
  8
ASSI
100
AcDbLine
 62
250
  6
CONTINUOUS
 10
58.3738042922
 20
-42.8955508362
 11
57.6512278
 21
-42.8949981918
  0
LWPOLYLINE
  5
279
100
AcDbEntity
  8
ASSI
100
AcDbPolyline
 62
250
  6
CONTINUOUS
 90
3
 70
0
 10
50.3315699691
 20
-42.5171477223
 10
48.6936847354
 20
-42.5159406016
 10
43.6456221988
 20
-42.5145235367
  0
LINE
  5
27A
100
AcDbEntity
  8
ASSI
100
AcDbLine
 62
250
  6
CONTINUOUS
 10
59.0965162218
 20
-42.8962420818
 11
58.3738042922
 21
-42.8955508362
  0
LINE
  5
27B
100
AcDbEntity
  8
ASSI
100
AcDbLine
 62
250
  6
CONTINUOUS
 10
-11.8361411153
 20
-42.559339418
 11
-26.0415917109
 21
-42.5532582966
  0
LINE
  5
27C
100
AcDbEntity
  8
ASSI
100
AcDbLine
 62
250
  6
CONTINUOUS
 10
-41.6069401774
 20
-42.5170322854
 11
-52.0601874727
 21
-42.5179370941
  0
LINE
  5
27D
100
AcDbEntity
  8
ASSI
100
AcDbLine
 62
250
  6
CONTINUOUS
 10
-26.0415917109
 20
-42.5532582966
 11
-30.1856671732
 21
-42.5466117926
  0
LINE
  5
27E
100
AcDbEntity
  8
ASSI
100
AcDbLine
 62
250
  6
CONTINUOUS
 10
-52.0601874727
 20
-42.5179370941
 11
-53.5623121481
 21
-42.5162372849
  0
LINE
  5
27F
100
AcDbEntity
  8
ASSI
100
AcDbLine
 62
250
  6
CONTINUOUS
 10
-30.1856671732
 20
-42.5466117926
 11
-34.7676378742
 21
-42.5354860054
  0
LINE
  5
280
100
AcDbEntity
  8
ASSI
100
AcDbLine
 62
250
  6
CONTINUOUS
 10
-34.7676378742
 20
-42.5354860054
 11
-41.6069401774
 21
-42.5170322854
  0
LINE
  5
281
100
AcDbEntity
  8
ASSI
100
AcDbLine
 62
250
  6
CONTINUOUS
 10
-53.5623121481
 20
-42.5162372849
 11
-54.6657880424
 21
-42.5114710713
  0
LINE
  5
282
100
AcDbEntity
  8
ASSI
100
AcDbLine
 62
250
  6
CONTINUOUS
 10
-54.6657880424
 20
-42.5114710713
 11
-55.4058488618
 21
-42.5057618272
  0
LINE
  5
283
100
AcDbEntity
  8
ASSI
100
AcDbLine
 62
250
  6
CONTINUOUS
 10
-59.4295712921
 20
-42.1154480228
 11
-59.5107045383
 21
-42.114906516
  0
LINE
  5
284
100
AcDbEntity
  8
ASSI
100
AcDbLine
 62
250
  6
CONTINUOUS
 10
-55.4058488618
 20
-42.5057618272
 11
-56.1465961658
 21
-42.4974112161
  0
LINE
  5
285
100
AcDbEntity
  8
ASSI
100
AcDbLine
 62
250
  6
CONTINUOUS
 10
-59.5107045383
 20
-42.114906516
 11
-59.5887615592
 21
-42.1138703862
  0
LWPOLYLINE
  5
286
100
AcDbEntity
  8
ASSI
100
AcDbPolyline
 62
250
  6
CONTINUOUS
 90
3
 70
0
 10
-56.1465961658
 20
-42.4974112161
 10
-56.8860731628
 20
-42.486097095
 10
-57.2520858688
 20
-42.4792159233
  0
LWPOLYLINE
  5
287
100
AcDbEntity
  8
ASSI
100
AcDbPolyline
 62
250
  6
CONTINUOUS
 90
14
 70
0
 10
-59.5887615592
 20
-42.1138703862
 10
-59.6616411097
 20
-42.1123675256
 10
-59.6955193307
 20
-42.1114532505
 10
-59.7273813241
 20
-42.1104383901
 10
-59.7570123012
 20
-42.1093297858
 10
-59.7842125135
 20
-42.1081349109
 10
-59.8087985985
 20
-42.1068618204
 10
-59.8306048162
 20
-42.1055190963
 10
-59.8494841687
 20
-42.1041157901
 10
-59.8653093827
 20
-42.102661362
 10
-59.8779737724
 20
-42.1011656172
 10
-59.8873919675
 20
-42.0996386391
 10
-59.8935004843
 20
-42.0980907213
 10
-59.8962581485
 20
-42.0965322986
  0
LWPOLYLINE
  5
288
100
AcDbEntity
  8
0
100
AcDbPolyline
 62
7
  6
CONTINUOUS
 90
25
 70
0
 10
2.9643025021
 20
-25.5096494116
 10
3.017756277
 20
-25.5019440786
 10
3.0711726983
 20
-25.4945947282
 10
3.1245438696
 20
-25.4876518048
 10
3.1778185742
 20
-25.4811700744
 10
3.2310324489
 20
-25.4751925278
 10
3.284308521
 20
-25.4697545816
 10
3.3376534958
 20
-25.4649068767
 10
3.3910465402
 20
-25.4607027404
 10
3.4445700828
 20
-25.4571887601
 10
3.4982250003
 20
-25.4544203313
 10
3.5519964969
 20
-25.4524543121
 10
3.605943697
 20
-25.4513467207
 10
3.6601157211
 20
-25.4511587039
 10
3.7144491054
 20
-25.4519538411
 10
3.7688339855
 20
-25.4537905729
 10
3.8232155175
 20
-25.4567233612
 10
3.8776336555
 20
-25.4608110372
 10
3.9320989781
 20
-25.4661449061
 10
3.9865596411
 20
-25.4729298299
 10
4.0408293991
 20
-25.4813848593
 10
4.0946482417
 20
-25.4917087197
 10
4.147846354
 20
-25.504102891
 10
4.2003413061
 20
-25.518785892
 10
4.2520075265
 20
-25.5359677442
  0
LWPOLYLINE
  5
289
100
AcDbEntity
  8
0
100
AcDbPolyline
 62
7
  6
CONTINUOUS
 90
31
 70
0
 10
3.7648934314
 20
-26.5925250773
 10
3.7859459644
 20
-26.5917848188
 10
3.8071095058
 20
-26.5904707917
 10
3.8282857979
 20
-26.5885398098
 10
3.8493178705
 20
-26.5859591726
 10
3.8701767555
 20
-26.5826850338
 10
3.8909587027
 20
-26.5786405881
 10
3.9115726683
 20
-26.5737678738
 10
3.9319250412
 20
-26.5680082396
 10
3.9520937555
 20
-26.5612391843
 10
3.9720674797
 20
-26.5533306032
 10
3.9916218367
 20
-26.5442223011
 10
4.0105090971
 20
-26.5338893423
 10
4.0286325404
 20
-26.5222428284
 10
4.0458528258
 20
-26.5092154006
 10
4.0619046144
 20
-26.4948851839
 10
4.0767417866
 20
-26.4793626789
 10
4.0904142784
 20
-26.4627565235
 10
4.102892383
 20
-26.4452704824
 10
4.1141905493
 20
-26.427070958
 10
4.1243582294
 20
-26.4082644436
 10
4.1334292133
 20
-26.3889673919
 10
4.1414112526
 20
-26.3693525926
 10
4.1483579684
 20
-26.349480964
 10
4.1543450408
 20
-26.3292814988
 10
4.1593719402
 20
-26.3088638066
 10
4.1634453876
 20
-26.2883102482
 10
4.1665962206
 20
-26.2674950333
 10
4.1688020602
 20
-26.2464426585
 10
4.1700213388
 20
-26.2253316608
 10
4.170225122
 20
-26.2042730878
  0
LINE
  5
28A
100
AcDbEntity
  8
0
100
AcDbLine
 62
7
  6
CONTINUOUS
 10
4.7849537607
 20
-27.9801797807
 11
4.2830496624
 21
-27.9801797807
  0
LINE
  5
28B
100
AcDbEntity
  8
0
100
AcDbLine
 62
7
  6
CONTINUOUS
 10
3.4839958436
 20
-27.9801797807
 11
2.9643025021
 21
-27.9801797807
  0
LINE
  5
28C
100
AcDbEntity
  8
0
100
AcDbLine
 62
7
  6
CONTINUOUS
 10
2.811079
 20
-27.98018
 11
2.261131
 21
-27.98018
  0
LINE
  5
28D
100
AcDbEntity
  8
0
100
AcDbLine
 62
7
  6
CONTINUOUS
 10
1.271381
 20
-27.98018
 11
0.75525
 21
-27.98018
  0
LINE
  5
28E
100
AcDbEntity
  8
0
100
AcDbLine
 62
7
  6
CONTINUOUS
 10
0.673314
 20
-27.98018
 11
0.162862
 21
-27.98018
  0
LINE
  5
28F
100
AcDbEntity
  8
0
100
AcDbLine
 62
7
  6
CONTINUOUS
 10
-0.564753
 20
-27.98018
 11
-0.637935
 21
-27.98018
  0
LINE
  5
290
100
AcDbEntity
  8
0
100
AcDbLine
 62
7
  6
CONTINUOUS
 10
-1.362664
 20
-27.98018
 11
-1.86185
 21
-27.98018
  0
LINE
  5
291
100
AcDbEntity
  8
0
100
AcDbLine
 62
7
  6
CONTINUOUS
 10
-2.142747
 20
-27.98018
 11
-2.66454
 21
-27.98018
  0
LINE
  5
292
100
AcDbEntity
  8
0
100
AcDbLine
 62
7
  6
CONTINUOUS
 10
-3.661694
 20
-27.98018
 11
-4.121524
 21
-27.98018
  0
LINE
  5
293
100
AcDbEntity
  8
0
100
AcDbLine
 62
7
  6
CONTINUOUS
 10
2.125959
 20
-27.481144
 11
1.415364
 21
-27.481144
  0
LINE
  5
294
100
AcDbEntity
  8
0
100
AcDbLine
 62
7
  6
CONTINUOUS
 10
1.522099
 20
-27.094992
 11
2.021679
 21
-27.094992
  0
LINE
  5
295
100
AcDbEntity
  8
0
100
AcDbLine
 62
7
  6
CONTINUOUS
 10
3.7637687163
 20
-27.0019213614
 11
3.4839958436
 21
-27.0019213614
  0
LINE
  5
296
100
AcDbEntity
  8
0
100
AcDbLine
 62
7
  6
CONTINUOUS
 10
3.4666939769
 20
-26.5925250773
 11
3.7648934314
 21
-26.5925250773
  0
LINE
  5
297
100
AcDbEntity
  8
0
100
AcDbLine
 62
7
  6
CONTINUOUS
 10
-4.913989
 20
-25.480444
 11
-4.347161
 21
-25.480444
  0
LINE
  5
298
100
AcDbEntity
  8
0
100
AcDbLine
 62
7
  6
CONTINUOUS
 10
-3.379615
 20
-25.480444
 11
-2.858179
 21
-25.480444
  0
LINE
  5
299
100
AcDbEntity
  8
0
100
AcDbLine
 62
7
  6
CONTINUOUS
 10
-1.636138
 20
-25.480444
 11
-1.114777
 21
-25.480444
  0
LINE
  5
29A
100
AcDbEntity
  8
0
100
AcDbLine
 62
7
  6
CONTINUOUS
 10
-0.076702
 20
-25.480444
 11
0.439561
 21
-25.480444
  0
LINE
  5
29B
100
AcDbEntity
  8
0
100
AcDbLine
 62
7
  6
CONTINUOUS
 10
1.539326
 20
-25.480444
 11
2.044098
 21
-25.480444
  0
LINE
  5
29C
100
AcDbEntity
  8
0
100
AcDbLine
 62
7
  6
CONTINUOUS
 10
-2.66454
 20
-25.480294
 11
-2.142747
 21
-25.480294
  0
LWPOLYLINE
  5
29D
100
AcDbEntity
  8
0
100
AcDbPolyline
 62
7
  6
CONTINUOUS
 90
10
 70
0
 10
3.8754584185
 20
-25.891582365
 10
3.8316899406
 20
-25.8872386201
 10
3.7873700899
 20
-25.8843227715
 10
3.7425634121
 20
-25.8828716619
 10
3.6973600727
 20
-25.8829220082
 10
3.6518095554
 20
-25.8845100915
 10
3.6059210846
 20
-25.8876792409
 10
3.5597517
 20
-25.8924739771
 10
3.5133560806
 20
-25.8987891961
 10
3.4666939769
 20
-25.906298925
  0
LWPOLYLINE
  5
29E
100
AcDbEntity
  8
0
100
AcDbPolyline
 62
7
  6
CONTINUOUS
 90
58
 70
0
 10
4.2520075265
 20
-25.5359677442
 10
4.2818828793
 20
-25.5481026079
 10
4.3121070954
 20
-25.5630866953
 10
4.3425590687
 20
-25.5808320052
 10
4.3730484005
 20
-25.6011216632
 10
4.4034801616
 20
-25.6239038701
 10
4.4337993696
 20
-25.6494557496
 10
4.4638713408
 20
-25.6781008986
 10
4.4931905236
 20
-25.7098570494
 10
4.5211327936
 20
-25.7444987866
 10
4.547605577
 20
-25.7823349399
 10
4.5720108854
 20
-25.8229915497
 10
4.5932988884
 20
-25.8648832415
 10
4.6113802882
 20
-25.9076479457
 10
4.6263483097
 20
-25.9511267609
 10
4.638008705
 20
-25.993799565
 10
4.64663842
 20
-26.0349233653
 10
4.6527712262
 20
-26.0747717148
 10
4.6567857769
 20
-26.1133291648
 10
4.6589845925
 20
-26.1503848097
 10
4.6595878279
 20
-26.1859201917
 10
4.6587403828
 20
-26.220249671
 10
4.6565488173
 20
-26.253402759
 10
4.653129764
 20
-26.2852348272
 10
4.6485818296
 20
-26.315821445
 10
4.6430075597
 20
-26.3451637285
 10
4.6365149858
 20
-26.3732428101
 10
4.6291908594
 20
-26.4001240867
 10
4.621143083
 20
-26.4257796764
 10
4.612464876
 20
-26.4502398069
 10
4.6032083495
 20
-26.4736312802
 10
4.5934689096
 20
-26.4959305627
 10
4.5833414268
 20
-26.5171129881
 10
4.5728432494
 20
-26.5372988307
 10
4.5620400191
 20
-26.5564875401
 10
4.5510028343
 20
-26.5746686193
 10
4.5397290093
 20
-26.5919439482
 10
4.528253208
 20
-26.6083388013
 10
4.516639975
 20
-26.6238351411
 10
4.5049161674
 20
-26.6384678467
 10
4.4931182491
 20
-26.652282241
 10
4.4813019681
 20
-26.6653407969
 10
4.4695182748
 20
-26.677706257
 10
4.4578086371
 20
-26.6894407905
 10
4.4462126901
 20
-26.700597877
 10
4.4347752031
 20
-26.7112168487
 10
4.4235430238
 20
-26.721327264
 10
4.4125351164
 20
-26.7309756309
 10
4.401749494
 20
-26.740217433
 10
4.3912700931
 20
-26.7490277604
 10
4.3810629453
 20
-26.7574753896
 10
4.3709210884
 20
-26.7656827032
 10
4.3608182552
 20
-26.773407924
 10
4.3506934891
 20
-26.7804344324
 10
4.3402233194
 20
-26.7867205507
 10
4.3292485281
 20
-26.7920494209
 10
4.3177980266
 20
-26.7960875983
 10
4.3058063972
 20
-26.7985541322
  0
LWPOLYLINE
  5
29F
100
AcDbEntity
  8
0
100
AcDbPolyline
 62
7
  6
CONTINUOUS
 90
3
 70
0
 10
4.3058063972
 20
-26.8133253901
 10
4.3309164616
 20
-26.8247958042
 10
4.3541714297
 20
-26.8381896433
  0
LWPOLYLINE
  5
2A0
100
AcDbEntity
  8
0
100
AcDbPolyline
 62
7
  6
CONTINUOUS
 90
23
 70
0
 10
4.3541714297
 20
-26.8381896433
 10
4.3756930481
 20
-26.8531988405
 10
4.3956356022
 20
-26.8695755456
 10
4.4140643561
 20
-26.887032493
 10
4.430976487
 20
-26.9052128133
 10
4.4464020657
 20
-26.9237759008
 10
4.4605391264
 20
-26.9426092828
 10
4.473620907
 20
-26.9617369003
 10
4.4857206463
 20
-26.9810214077
 10
4.4969021583
 20
-27.0003314123
 10
4.5073366141
 20
-27.0197621798
 10
4.5170829402
 20
-27.0392568166
 10
4.5261630491
 20
-27.0586973617
 10
4.5346627138
 20
-27.078117244
 10
4.5426083081
 20
-27.0974400165
 10
4.5500310832
 20
-27.1166075941
 10
4.5570053005
 20
-27.1356919408
 10
4.5635493117
 20
-27.1546358562
 10
4.5696803356
 20
-27.1733812587
 10
4.5754721062
 20
-27.1920309587
 10
4.5810001827
 20
-27.2106680991
 10
4.5863112636
 20
-27.2292724793
 10
4.5914602095
 20
-27.2478419936
  0
LINE
  5
2A1
100
AcDbEntity
  8
ASSI
100
AcDbLine
 62
250
  6
CONTINUOUS
 10
-59.8962579373
 20
-42.0965320773
 11
-59.95
 21
-42.15027414
  0
LINE
  5
2A2
100
AcDbEntity
  8
ASSI
100
AcDbLine
 62
250
  6
CONTINUOUS
 10
-59.096510359
 20
-42.8962362189
 11
-59.15027414
 21
-42.95
  0
LINE
  5
2A3
100
AcDbEntity
  8
ASSI
100
AcDbLine
 62
250
  6
CONTINUOUS
 10
-59.8962583389
 20
42.096532479
 11
-59.95
 21
42.15027414
  0
LINE
  5
2A4
100
AcDbEntity
  8
ASSI
100
AcDbLine
 62
250
  6
CONTINUOUS
 10
-59.0965161421
 20
42.8962420021
 11
-59.15027414
 21
42.95
  0
LINE
  5
2A5
100
AcDbEntity
  8
0
100
AcDbLine
 62
7
  6
CONTINUOUS
 10
-0.637935
 20
-27.98018
 11
-1.250061
 21
-26.3479
  0
LINE
  5
2A6
100
AcDbEntity
  8
0
100
AcDbLine
 62
7
  6
CONTINUOUS
 10
-1.114777
 20
-25.480444
 11
-0.598495
 21
-26.868305
  0
LINE
  5
2A7
100
AcDbEntity
  8
0
100
AcDbLine
 62
7
  6
CONTINUOUS
 10
-4.121524
 20
-27.98018
 11
-4.913989
 21
-25.480444
  0
LINE
  5
2A8
100
AcDbEntity
  8
0
100
AcDbLine
 62
7
  6
CONTINUOUS
 10
-4.347161
 20
-25.480444
 11
-3.870666
 21
-27.20109
  0
LWPOLYLINE
  5
2A9
100
AcDbEntity
  8
0
100
AcDbPolyline
 62
7
  6
CONTINUOUS
 90
19
 70
0
 10
4.054823388
 20
-27.2220207429
 10
4.046652613
 20
-27.2019480912
 10
4.0373689456
 20
-27.1822496558
 10
4.027024399
 20
-27.1630524397
 10
4.0156968562
 20
-27.1445202969
 10
4.0034133243
 20
-27.1267255634
 10
3.9901266416
 20
-27.1096648353
 10
3.975853886
 20
-27.0934535234
 10
3.9606310814
 20
-27.078230341
 10
3.9444051091
 20
-27.0640569842
 10
3.9271373704
 20
-27.0510431114
 10
3.9088915288
 20
-27.0393857686
 10
3.8897676401
 20
-27.0292793567
 10
3.8698726485
 20
-27.020808377
 10
3.849328758
 20
-27.0139378286
 10
3.8282894493
 20
-27.008640447
 10
3.8069106137
 20
-27.0048896395
 10
3.7853507511
 20
-27.0026589174
 10
3.7637687163
 20
-27.0019213614
  0
LINE
  5
2AA
100
AcDbEntity
  8
0
100
AcDbLine
 62
7
  6
CONTINUOUS
 10
2.044098
 20
-25.480444
 11
2.811079
 21
-27.98018
  0
LINE
  5
2AB
100
AcDbEntity
  8
0
100
AcDbLine
 62
7
  6
CONTINUOUS
 10
2.261131
 20
-27.98018
 11
2.125959
 21
-27.481144
  0
LINE
  5
2AC
100
AcDbEntity
  8
0
100
AcDbLine
 62
7
  6
CONTINUOUS
 10
2.021679
 20
-27.094992
 11
1.781908
 21
-26.167308
  0
LINE
  5
2AD
100
AcDbEntity
  8
0
100
AcDbLine
 62
7
  6
CONTINUOUS
 10
0.439561
 20
-25.480444
 11
0.673314
 21
-27.98018
  0
LINE
  5
2AE
100
AcDbEntity
  8
0
100
AcDbLine
 62
7
  6
CONTINUOUS
 10
0.162862
 20
-27.98018
 11
0.055658
 21
-26.354704
  0
LINE
  5
2AF
100
AcDbEntity
  8
0
100
AcDbLine
 62
7
  6
CONTINUOUS
 10
-2.66454
 20
-27.98018
 11
-2.66454
 21
-25.480294
  0
LINE
  5
2B0
100
AcDbEntity
  8
0
100
AcDbLine
 62
7
  6
CONTINUOUS
 10
-2.142747
 20
-25.480294
 11
-2.142747
 21
-27.98018
  0
LINE
  5
2B1
100
AcDbEntity
  8
ASSI
100
AcDbLine
 62
250
  6
CONTINUOUS
 10
0.0
 20
42.8924141321
 11
0.0
 21
-0.0
  0
LINE
  5
2B2
100
AcDbEntity
  8
ASSI
100
AcDbLine
 62
250
  6
CONTINUOUS
 10
-0.0
 20
-42.8924141321
 11
0.0
 21
-42.5593687594
  0
LINE
  5
2B3
100
AcDbEntity
  8
0
100
AcDbLine
 62
250
  6
CONTINUOUS
 10
-0.0
 20
-42.5593687594
 11
-0.0
 21
-0.0
  0
LINE
  5
2B4
100
AcDbEntity
  8
0
100
AcDbLine
 62
7
  6
CONTINUOUS
 10
-1.250061
 20
-26.3479
 11
-1.362664
 21
-27.98018
  0
LWPOLYLINE
  5
2B5
100
AcDbEntity
  8
0
100
AcDbPolyline
 62
7
  6
CONTINUOUS
 90
4
 70
0
 43
0.3500000006
 10
66.7714288788
 20
-2.3571432495
 10
65.9142864075
 20
-2.3571432495
 10
65.4857129059
 20
-1.9285708809
 10
65.4857129059
 20
-1.2857140274
  0
LINE
  5
2B6
100
AcDbEntity
  8
ASSI
100
AcDbLine
 62
250
  6
CONTINUOUS
 10
59.893936438
 20
-0.0
 11
-59.893936438
 21
-0.0
  0
LWPOLYLINE
  5
2B7
100
AcDbEntity
  8
0
100
AcDbPolyline
 62
7
  6
CONTINUOUS
 90
8
 70
0
 10
4.1346408649
 20
-27.4669247801
 10
4.1242341428
 20
-27.4316269067
 10
4.1136005537
 20
-27.3964372375
 10
4.10268595
 20
-27.3613781281
 10
4.0914110983
 20
-27.3263941786
 10
4.0797103281
 20
-27.2914806582
 10
4.0675338003
 20
-27.2566827303
 10
4.0548233605
 20
-27.2220207532
  0
LINE
  5
2B8
100
AcDbEntity
  8
0
100
AcDbLine
 62
7
  6
CONTINUOUS
 10
4.2719162539
 20
-27.941642595
 11
4.1958827798
 21
-27.681481221
  0
LINE
  5
2B9
100
AcDbEntity
  8
0
100
AcDbLine
 62
7
  6
CONTINUOUS
 10
4.2830496624
 20
-27.9801797807
 11
4.2719162539
 21
-27.941642595
  0
LINE
  5
2BA
100
AcDbEntity
  8
0
100
AcDbLine
 62
7
  6
CONTINUOUS
 10
4.1550222306
 20
-27.5378614747
 11
4.1346408649
 21
-27.4669247801
  0
LINE
  5
2BB
100
AcDbEntity
  8
0
100
AcDbLine
 62
7
  6
CONTINUOUS
 10
4.1958827798
 20
-27.681481221
 11
4.1550222306
 21
-27.5378614747
  0
LINE
  5
2BC
100
AcDbEntity
  8
0
100
AcDbLine
 62
7
  6
CONTINUOUS
 10
4.7657122602
 20
-27.9082529271
 11
4.7849537607
 21
-27.9801797807
  0
LINE
  5
2BD
100
AcDbEntity
  8
0
100
AcDbLine
 62
7
  6
CONTINUOUS
 10
4.5914602095
 20
-27.2478419936
 11
4.648368962
 21
-27.4593711488
  0
LINE
  5
2BE
100
AcDbEntity
  8
0
100
AcDbLine
 62
7
  6
CONTINUOUS
 10
4.648368962
 20
-27.4593711488
 11
4.7657122602
 21
-27.9082529271
  0
LWPOLYLINE
  5
2BF
100
AcDbEntity
  8
0
100
AcDbPolyline
 62
7
  6
CONTINUOUS
 90
19
 70
0
 10
4.1702251436
 20
-26.2042730875
 10
4.1689522125
 20
-26.1808168079
 10
4.1658042849
 20
-26.1569962387
 10
4.1607489578
 20
-26.1329860062
 10
4.1537682426
 20
-26.1090103334
 10
4.144829422
 20
-26.0852377348
 10
4.1338585502
 20
-26.0617906861
 10
4.1207453351
 20
-26.0388129634
 10
4.105499646
 20
-26.0166972736
 10
4.0882664916
 20
-25.9959410425
 10
4.0690802638
 20
-25.9767958116
 10
4.0480782841
 20
-25.9593850208
 10
4.025683105
 20
-25.9439084049
 10
4.0022114464
 20
-25.9304061858
 10
3.977819442
 20
-25.9188206288
 10
3.9527296475
 20
-25.9091481079
 10
3.9271619623
 20
-25.9013859073
 10
3.9013339343
 20
-25.8955316382
 10
3.8754584186
 20
-25.8915823649
  0
LWPOLYLINE
  5
2C0
100
AcDbEntity
  8
0
100
AcDbPolyline
 62
7
  6
CONTINUOUS
 90
13
 70
0
 43
0.3500000006
 10
0.8571428254
 20
52.5571443329
 10
0.8571428254
 20
53.8428557739
 10
1.0714285848
 20
54.2714292755
 10
1.5000000329
 20
54.6999982452
 10
1.7142856507
 20
54.6999982452
 10
2.1428571696
 20
54.2714292755
 10
2.3571427875
 20
53.8428557739
 10
2.3571427875
 20
52.5571443329
 10
2.1428571696
 20
52.1285708313
 10
1.7142856507
 20
51.7000018616
 10
1.5000000329
 20
51.7000018616
 10
1.0714285848
 20
52.1285708313
 10
0.8571428254
 20
52.5571443329
  0
LINE
  5
2C1
100
AcDbEntity
  8
0
100
AcDbLine
 62
7
  6
CONTINUOUS
 10
2.9643025021
 20
-27.9801797807
 11
2.9643025021
 21
-25.5096494116
  0
LINE
  5
2C2
100
AcDbEntity
  8
0
100
AcDbLine
 62
7
  6
CONTINUOUS
 10
3.4666939769
 20
-25.906298925
 11
3.4666939769
 21
-26.5925250773
  0
LINE
  5
2C3
100
AcDbEntity
  8
0
100
AcDbLine
 62
7
  6
CONTINUOUS
 10
3.4839958436
 20
-27.0019213614
 11
3.4839958436
 21
-27.9801797807
  0
LINE
  5
2C4
100
AcDbEntity
  8
0
100
AcDbLine
 62
7
  6
CONTINUOUS
 10
4.3058063972
 20
-26.7985541322
 11
4.3058063972
 21
-26.8133253901
  0
LINE
  5
2C5
100
AcDbEntity
  8
0
100
AcDbLine
 62
7
  6
CONTINUOUS
 10
-1.86185
 20
-27.98018
 11
-1.636138
 21
-25.480444
  0
LINE
  5
2C6
100
AcDbEntity
  8
0
100
AcDbLine
 62
7
  6
CONTINUOUS
 10
-3.870666
 20
-27.20109
 11
-3.379615
 21
-25.480444
  0
LINE
  5
2C7
100
AcDbEntity
  8
0
100
AcDbLine
 62
7
  6
CONTINUOUS
 10
-2.858179
 20
-25.480444
 11
-3.661694
 21
-27.98018
  0
LINE
  5
2C8
100
AcDbEntity
  8
0
100
AcDbLine
 62
7
  6
CONTINUOUS
 10
1.781908
 20
-26.167308
 11
1.522099
 21
-27.094992
  0
LINE
  5
2C9
100
AcDbEntity
  8
0
100
AcDbLine
 62
7
  6
CONTINUOUS
 10
1.415364
 20
-27.481144
 11
1.271381
 21
-27.98018
  0
LINE
  5
2CA
100
AcDbEntity
  8
0
100
AcDbLine
 62
7
  6
CONTINUOUS
 10
0.75525
 20
-27.98018
 11
1.539326
 21
-25.480444
  0
LINE
  5
2CB
100
AcDbEntity
  8
0
100
AcDbLine
 62
7
  6
CONTINUOUS
 10
-0.598495
 20
-26.868305
 11
-0.076702
 21
-25.480444
  0
LINE
  5
2CC
100
AcDbEntity
  8
0
100
AcDbLine
 62
7
  6
CONTINUOUS
 10
0.055658
 20
-26.354704
 11
-0.564753
 21
-27.98018
  0
LINE
  5
2CD
100
AcDbEntity
  8
ASSI
100
AcDbLine
 62
250
  6
CONTINUOUS
 10
59.0965103594
 20
42.8962362194
 11
59.15027414
 21
42.95
  0
LINE
  5
2CE
100
AcDbEntity
  8
ASSI
100
AcDbLine
 62
250
  6
CONTINUOUS
 10
59.8962579387
 20
42.0965320787
 11
59.95
 21
42.15027414
  0
LINE
  5
2CF
100
AcDbEntity
  8
ASSI
100
AcDbLine
 62
250
  6
CONTINUOUS
 10
59.0965162218
 20
-42.8962420818
 11
59.15027414
 21
-42.95
  0
LINE
  5
2D0
100
AcDbEntity
  8
ASSI
100
AcDbLine
 62
250
  6
CONTINUOUS
 10
59.8962582984
 20
-42.0965324384
 11
59.95
 21
-42.15027414
  0
LINE
  5
2D1
100
AcDbEntity
  8
ASSI
100
AcDbLine
 62
250
  6
CONTINUOUS
 10
-59.1170133932
 20
42.4291189855
 11
-58.3900370157
 21
42.4517657847
  0
LINE
  5
2D2
100
AcDbEntity
  8
ASSI
100
AcDbLine
 62
250
  6
CONTINUOUS
 10
-58.3900370157
 20
42.4517657847
 11
-57.6638168214
 21
42.470389991
  0
LINE
  5
2D3
100
AcDbEntity
  8
ASSI
100
AcDbLine
 62
250
  6
CONTINUOUS
 10
-59.6955191486
 20
42.1114532492
 11
-59.6259748813
 21
42.1131750486
  0
LINE
  5
2D4
100
AcDbEntity
  8
ASSI
100
AcDbLine
 62
250
  6
CONTINUOUS
 10
-57.6638168214
 20
42.470389991
 11
-56.9389265529
 21
42.4851579834
  0
LINE
  5
2D5
100
AcDbEntity
  8
ASSI
100
AcDbLine
 62
250
  6
CONTINUOUS
 10
-59.6259748813
 20
42.1131750486
 11
-59.5502514101
 21
42.1144488354
  0
LINE
  5
2D6
100
AcDbEntity
  8
ASSI
100
AcDbLine
 62
250
  6
CONTINUOUS
 10
-56.9389265529
 20
42.4851579834
 11
-56.2191174491
 21
42.4964573672
  0
LINE
  5
2D7
100
AcDbEntity
  8
ASSI
100
AcDbLine
 62
250
  6
CONTINUOUS
 10
-56.2191174491
 20
42.4964573672
 11
-55.496022309
 21
42.504906124
  0
LWPOLYLINE
  5
2D8
100
AcDbEntity
  8
ASSI
100
AcDbPolyline
 62
250
  6
CONTINUOUS
 90
3
 70
0
 10
-59.5502514101
 20
42.1144488354
 10
-59.4703871597
 20
42.1152403202
 10
-59.4295712995
 20
42.1154480159
  0
LINE
  5
2D9
100
AcDbEntity
  8
ASSI
100
AcDbLine
 62
250
  6
CONTINUOUS
 10
-55.496022309
 20
42.504906124
 11
-54.383339895
 21
42.5130880458
  0
LINE
  5
2DA
100
AcDbEntity
  8
ASSI
100
AcDbLine
 62
250
  6
CONTINUOUS
 10
-54.383339895
 20
42.5130880458
 11
-53.1817377718
 21
42.517066753
  0
LINE
  5
2DB
100
AcDbEntity
  8
ASSI
100
AcDbLine
 62
250
  6
CONTINUOUS
 10
-32.6994547645
 20
42.5409921335
 11
-28.4953350089
 21
42.5497097559
  0
LINE
  5
2DC
100
AcDbEntity
  8
ASSI
100
AcDbLine
 62
250
  6
CONTINUOUS
 10
-43.6461018005
 20
42.5145230167
 11
-32.6994547645
 21
42.5409921335
  0
LINE
  5
2DD
100
AcDbEntity
  8
ASSI
100
AcDbLine
 62
250
  6
CONTINUOUS
 10
-28.4953350089
 20
42.5497097559
 11
-23.7804652767
 21
42.5555957639
  0
LINE
  5
2DE
100
AcDbEntity
  8
ASSI
100
AcDbLine
 62
250
  6
CONTINUOUS
 10
58.7180422455
 20
42.8958619346
 11
59.0965103594
 21
42.8962362194
  0
LINE
  5
2DF
100
AcDbEntity
  8
ASSI
100
AcDbLine
 62
250
  6
CONTINUOUS
 10
57.9713157922
 20
42.8952252296
 11
58.7180422455
 21
42.8958619346
  0
LINE
  5
2E0
100
AcDbEntity
  8
ASSI
100
AcDbLine
 62
250
  6
CONTINUOUS
 10
-23.7804652767
 20
42.5555957639
 11
-15.4780086199
 21
42.5590162848
  0
LINE
  5
2E1
100
AcDbEntity
  8
ASSI
100
AcDbLine
 62
250
  6
CONTINUOUS
 10
7.0414367427
 20
42.8924118144
 11
46.4747632221
 21
42.8937588689
  0
LINE
  5
2E2
100
AcDbEntity
  8
ASSI
100
AcDbLine
 62
250
  6
CONTINUOUS
 10
46.4747632221
 20
42.8937588689
 11
57.9713157922
 21
42.8952252296
  0
LINE
  5
2E3
100
AcDbEntity
  8
ASSI
100
AcDbLine
 62
7
  6
CONTINUOUS
 10
59.15027414
 20
42.95
 11
-59.15027414
 21
42.95
  0
LINE
  5
2E4
100
AcDbEntity
  8
ASSI
100
AcDbLine
 62
250
  6
CONTINUOUS
 10
-53.1817377718
 20
42.517066753
 11
-51.3497894588
 21
42.51772979
  0
LINE
  5
2E5
100
AcDbEntity
  8
ASSI
100
AcDbLine
 62
250
  6
CONTINUOUS
 10
-15.4780086199
 20
42.5590162848
 11
21.4160737794
 21
42.5572425268
  0
LINE
  5
2E6
100
AcDbEntity
  8
ASSI
100
AcDbLine
 62
250
  6
CONTINUOUS
 10
-51.3497894588
 20
42.51772979
 11
-43.6461018005
 21
42.5145230167
  0
LINE
  5
2E7
100
AcDbEntity
  8
ASSI
100
AcDbLine
 62
250
  6
CONTINUOUS
 10
-59.0965161421
 20
42.8962420021
 11
7.0414367427
 21
42.8924118144
  0
LINE
  5
2E8
100
AcDbEntity
  8
ASSI
100
AcDbLine
 62
250
  6
CONTINUOUS
 10
21.4160737794
 20
42.5572425268
 11
26.0415848221
 21
42.5532583051
  0
LINE
  5
2E9
100
AcDbEntity
  8
ASSI
100
AcDbLine
 62
250
  6
CONTINUOUS
 10
41.6069394659
 20
42.5170322868
 11
52.0601895556
 21
42.5179370944
  0
LINE
  5
2EA
100
AcDbEntity
  8
ASSI
100
AcDbLine
 62
250
  6
CONTINUOUS
 10
26.0415848221
 20
42.5532583051
 11
30.1856619584
 21
42.5466118029
  0
LINE
  5
2EB
100
AcDbEntity
  8
ASSI
100
AcDbLine
 62
250
  6
CONTINUOUS
 10
52.0601895556
 20
42.5179370944
 11
53.5623173477
 21
42.516237271
  0
LINE
  5
2EC
100
AcDbEntity
  8
ASSI
100
AcDbLine
 62
250
  6
CONTINUOUS
 10
30.1856619584
 20
42.5466118029
 11
34.76763467
 21
42.535486015
  0
LINE
  5
2ED
100
AcDbEntity
  8
ASSI
100
AcDbLine
 62
250
  6
CONTINUOUS
 10
34.76763467
 20
42.535486015
 11
41.6069394659
 21
42.5170322868
  0
LINE
  5
2EE
100
AcDbEntity
  8
ASSI
100
AcDbLine
 62
250
  6
CONTINUOUS
 10
53.5623173477
 20
42.516237271
 11
54.6657963622
 21
42.5114710197
  0
LINE
  5
2EF
100
AcDbEntity
  8
ASSI
100
AcDbLine
 62
250
  6
CONTINUOUS
 10
59.4295712922
 20
42.1154480228
 11
59.5107045382
 21
42.114906516
  0
LINE
  5
2F0
100
AcDbEntity
  8
ASSI
100
AcDbLine
 62
250
  6
CONTINUOUS
 10
54.6657963622
 20
42.5114710197
 11
55.4058591073
 21
42.5057617323
  0
LINE
  5
2F1
100
AcDbEntity
  8
ASSI
100
AcDbLine
 62
250
  6
CONTINUOUS
 10
55.4058591073
 20
42.5057617323
 11
56.1466091076
 21
42.4974110433
  0
LINE
  5
2F2
100
AcDbEntity
  8
ASSI
100
AcDbLine
 62
250
  6
CONTINUOUS
 10
59.5107045382
 20
42.114906516
 11
59.5887615592
 21
42.1138703862
  0
LINE
  5
2F3
100
AcDbEntity
  8
ASSI
100
AcDbLine
 62
250
  6
CONTINUOUS
 10
56.1466091076
 20
42.4974110433
 11
56.8860892475
 21
42.4860968119
  0
LINE
  5
2F4
100
AcDbEntity
  8
ASSI
100
AcDbLine
 62
250
  6
CONTINUOUS
 10
56.8860892475
 20
42.4860968119
 11
57.6169357737
 21
42.4714859809
  0
LWPOLYLINE
  5
2F5
100
AcDbEntity
  8
ASSI
100
AcDbPolyline
 62
250
  6
CONTINUOUS
 90
14
 70
0
 10
59.5887615592
 20
42.1138703862
 10
59.6616411096
 20
42.1123675256
 10
59.6955193306
 20
42.1114532505
 10
59.727381324
 20
42.1104383901
 10
59.7570123011
 20
42.1093297858
 10
59.7842125134
 20
42.1081349109
 10
59.8087985984
 20
42.1068618204
 10
59.8306048161
 20
42.1055190963
 10
59.8494841686
 20
42.1041157901
 10
59.8653093827
 20
42.102661362
 10
59.8779737724
 20
42.1011656172
 10
59.8873919674
 20
42.0996386391
 10
59.8935004843
 20
42.0980907213
 10
59.8962581485
 20
42.0965322986
  0
LINE
  5
2F6
100
AcDbEntity
  8
ASSI
100
AcDbLine
 62
250
  6
CONTINUOUS
 10
57.6169357737
 20
42.4714859809
 11
58.3589841374
 21
42.4526050224
  0
LINE
  5
2F7
100
AcDbEntity
  8
ASSI
100
AcDbLine
 62
250
  6
CONTINUOUS
 10
58.3589841374
 20
42.4526050224
 11
59.1169373761
 21
42.4291301705
  0
LWPOLYLINE
  5
2F8
100
AcDbEntity
  8
ASSI
100
AcDbPolyline
 62
250
  6
CONTINUOUS
 90
22
 70
0
 10
-59.1170133932
 20
42.4291189855
 10
-59.1397937781
 20
42.4274525654
 10
-59.1622690476
 20
42.4241445032
 10
-59.1844389202
 20
42.419194397
 10
-59.2064273749
 20
42.4125526682
 10
-59.228109852
 20
42.4042680694
 10
-59.2491133265
 20
42.3944877771
 10
-59.269421819
 20
42.383187697
 10
-59.2890509027
 20
42.3703913243
 10
-59.3076750489
 20
42.3563174369
 10
-59.3252767931
 20
42.340947812
 10
-59.3418734559
 20
42.3243004234
 10
-59.3571918868
 20
42.3066486081
 10
-59.3712136594
 20
42.2879754264
 10
-59.3839573503
 20
42.2682979575
 10
-59.3952055137
 20
42.2479408315
 10
-59.4049349429
 20
42.2268839483
 10
-59.4131692561
 20
42.2051478879
 10
-59.4197614123
 20
42.1831185259
 10
-59.4246626187
 20
42.1609247601
 10
-59.4279222557
 20
42.1384384071
 10
-59.4295406079
 20
42.1156598097
  0
LWPOLYLINE
  5
2F9
100
AcDbEntity
  8
ASSI
100
AcDbPolyline
 62
250
  6
CONTINUOUS
 90
22
 70
0
 10
-59.0965149549
 20
42.8962408149
 10
-59.1562908597
 20
42.8940030819
 10
-59.2157335486
 20
42.8873049794
 10
-59.2745109026
 20
42.8761831411
 10
-59.3322985414
 20
42.8606975626
 10
-59.3887689525
 20
42.840934726
 10
-59.4435943913
 20
42.8170102482
 10
-59.4964655528
 20
42.7890619561
 10
-59.5470920045
 20
42.7572462494
 10
-59.5951919161
 20
42.7217428981
 10
-59.6404934046
 20
42.682756127
 10
-59.6827500862
 20
42.6405015658
 10
-59.7217390862
 20
42.5952020798
 10
-59.7572446542
 20
42.5471041823
 10
-59.7890626622
 20
42.4964796105
 10
-59.8170135539
 20
42.4436097146
 10
-59.8409409939
 20
42.3887843612
 10
-59.8607067367
 20
42.3323133008
 10
-59.8761947786
 20
42.2745253643
 10
-59.8873186786
 20
42.215748495
 10
-59.8940186465
 20
42.1563067564
 10
-59.8962581526
 20
42.0965322926
  0
LWPOLYLINE
  5
2FA
100
AcDbEntity
  8
0
100
AcDbPolyline
 62
7
  6
CONTINUOUS
 90
10
 70
0
 43
0.3500000006
 10
64.2000014648
 20
1.0714289017
 10
64.8428549194
 20
0.4285709152
 10
65.7000019226
 20
-0.0000003204
 10
66.7714288788
 20
-0.0000003204
 10
67.1999978485
 20
0.4285709152
 10
67.1999978485
 20
1.0714289017
 10
66.7714288788
 20
1.5000001373
 10
65.9142864075
 20
1.5000001373
 10
65.4857129059
 20
1.0714289017
 10
65.4857129059
 20
0.1428575134
  0
LWPOLYLINE
  5
2FB
100
AcDbEntity
  8
0
100
AcDbPolyline
 62
7
  6
CONTINUOUS
 90
13
 70
0
 43
0.3500000006
 10
65.4857129059
 20
-1.9285708809
 10
65.271428421
 20
-2.2142854156
 10
64.6285704346
 20
-2.2142854156
 10
64.2000014648
 20
-1.9285708809
 10
64.2000014648
 20
-1.2857140274
 10
64.6285704346
 20
-1.0000006256
 10
65.271428421
 20
-1.0000006256
 10
65.4857129059
 20
-1.2857140274
 10
65.9142864075
 20
-0.8571427917
 10
66.7714288788
 20
-0.8571427917
 10
67.1999978485
 20
-1.2857140274
 10
67.1999978485
 20
-1.9285708809
 10
66.7714288788
 20
-2.3571432495
  0
LWPOLYLINE
  5
2FC
100
AcDbEntity
  8
0
100
AcDbPolyline
 62
7
  6
CONTINUOUS
 90
7
 70
0
 43
0.3500000006
 10
0.0
 20
51.7000018616
 10
-1.5000000329
 20
51.7000018616
 10
0.0
 20
53.8428557739
 10
0.0
 20
54.2714292755
 10
-0.4285714127
 20
54.6999982452
 10
-1.0714285848
 20
54.6999982452
 10
-1.5000000329
 20
54.0571447906
  0
LWPOLYLINE
  5
2FD
100
AcDbEntity
  8
ASSI
100
AcDbPolyline
 62
250
  6
CONTINUOUS
 90
3
 70
0
 10
59.1158495138
 20
42.5498988671
 10
59.1167014603
 20
42.469974913
 10
59.1169242896
 20
42.429132096
  0
LINE
  5
2FE
100
AcDbEntity
  8
ASSI
100
AcDbLine
 62
250
  6
CONTINUOUS
 10
59.478334071
 20
39.1512837534
 11
59.4803519688
 21
38.2769600408
  0
LINE
  5
2FF
100
AcDbEntity
  8
ASSI
100
AcDbLine
 62
250
  6
CONTINUOUS
 10
59.4909274846
 20
22.5318655702
 11
59.5022387304
 21
14.2878094
  0
LINE
  5
300
100
AcDbEntity
  8
ASSI
100
AcDbLine
 62
250
  6
CONTINUOUS
 10
59.5022387304
 20
14.2878094
 11
59.506779284
 21
3.9595688777
  0
LINE
  5
301
100
AcDbEntity
  8
ASSI
100
AcDbLine
 62
250
  6
CONTINUOUS
 10
59.4731980159
 20
32.8061162576
 11
59.4909274846
 21
22.5318655702
  0
LINE
  5
302
100
AcDbEntity
  8
ASSI
100
AcDbLine
 62
250
  6
CONTINUOUS
 10
59.506779284
 20
3.9595688777
 11
59.5056556487
 21
-8.3358891071
  0
LINE
  5
303
100
AcDbEntity
  8
ASSI
100
AcDbLine
 62
250
  6
CONTINUOUS
 10
59.4736056435
 20
-30.6312986999
 11
59.4802752561
 21
-37.9559370659
  0
LINE
  5
304
100
AcDbEntity
  8
ASSI
100
AcDbLine
 62
250
  6
CONTINUOUS
 10
59.5056556487
 20
-8.3358891071
 11
59.5013071703
 21
-15.3468885036
  0
LINE
  5
305
100
AcDbEntity
  8
ASSI
100
AcDbLine
 62
250
  6
CONTINUOUS
 10
59.5013071703
 20
-15.3468885036
 11
59.4946933402
 21
-20.4990596011
  0
LINE
  5
306
100
AcDbEntity
  8
ASSI
100
AcDbLine
 62
250
  6
CONTINUOUS
 10
59.4803519688
 20
38.2769600408
 11
59.4731980159
 21
32.8061162576
  0
LINE
  5
307
100
AcDbEntity
  8
ASSI
100
AcDbLine
 62
250
  6
CONTINUOUS
 10
59.4946933402
 20
-20.4990596011
 11
59.4853482925
 21
-24.9812300765
  0
LWPOLYLINE
  5
308
100
AcDbEntity
  8
ASSI
100
AcDbPolyline
 62
250
  6
CONTINUOUS
 90
3
 70
0
 10
59.4853482925
 20
-24.9812300765
 10
59.4819407649
 20
-26.3416225692
 10
59.4736056435
 20
-30.6312986999
  0
LINE
  5
309
100
AcDbEntity
  8
ASSI
100
AcDbLine
 62
250
  6
CONTINUOUS
 10
59.4802752561
 20
-37.9559370659
 11
59.4786581338
 21
-39.0952745453
  0
LWPOLYLINE
  5
30A
100
AcDbEntity
  8
ASSI
100
AcDbPolyline
 62
250
  6
CONTINUOUS
 90
3
 70
0
 10
59.1169243191
 20
-42.4291320721
 10
59.1163424203
 20
-42.5103215396
 10
59.1158495373
 20
-42.5498992549
  0
LWPOLYLINE
  5
30B
100
AcDbEntity
  8
ASSI
100
AcDbPolyline
 62
250
  6
CONTINUOUS
 90
22
 70
0
 10
59.4296006178
 20
42.1152456955
 10
59.4279555823
 20
42.1382080975
 10
59.424676034
 20
42.1608321293
 10
59.4197616909
 20
42.1831174522
 10
59.4131654563
 20
42.205176805
 10
59.4049338487
 20
42.2268967487
 10
59.3952070695
 20
42.2479377611
 10
59.3839592069
 20
42.2682947778
 10
59.37121576
 20
42.2879723812
 10
59.3571942077
 20
42.306645735
 10
59.3418759895
 20
42.3242976959
 10
59.3252795158
 20
42.3409452679
 10
59.3076779221
 20
42.3563151013
 10
59.2890539522
 20
42.3703892071
 10
59.2694250062
 20
42.3831858234
 10
59.2491164055
 20
42.3944862056
 10
59.2281152057
 20
42.4042665118
 10
59.2064347575
 20
42.4125511833
 10
59.1844399905
 20
42.4191941163
 10
59.1622527651
 20
42.4241469148
 10
59.1397517999
 20
42.427458799
 10
59.1169373761
 20
42.4291301705
  0
LWPOLYLINE
  5
30C
100
AcDbEntity
  8
ASSI
100
AcDbPolyline
 62
250
  6
CONTINUOUS
 90
22
 70
0
 10
59.8962581526
 20
42.0965322926
 10
59.8940186927
 20
42.1563061382
 10
59.8873189143
 20
42.2157469309
 10
59.8761954208
 20
42.2745225513
 10
59.8607081649
 20
42.3323086722
 10
59.8409436049
 20
42.3887777109
 10
59.8170173936
 20
42.4436017438
 10
59.7890673936
 20
42.4964714175
 10
59.7572499936
 20
42.5470963525
 10
59.7217449672
 20
42.5951947067
 10
59.6827565504
 20
42.6404945997
 10
59.6405003783
 20
42.6827496563
 10
59.5951993101
 20
42.721737001
 10
59.5470998657
 20
42.757240889
 10
59.4964737853
 20
42.7890572023
 10
59.4436024033
 20
42.817006389
 10
59.3887756333
 20
42.8409321033
 10
59.3323031817
 20
42.860696131
 10
59.2745137131
 20
42.8761824996
 10
59.2157351054
 20
42.8873047449
 10
59.1562914715
 20
42.8940030362
 10
59.0965149549
 20
42.8962408149
  0
LINE
  5
30D
100
AcDbEntity
  8
ASSI
100
AcDbLine
 62
250
  6
CONTINUOUS
 10
59.4296006178
 20
42.1152456955
 11
59.4393832489
 21
41.7962156195
  0
LINE
  5
30E
100
AcDbEntity
  8
ASSI
100
AcDbLine
 62
250
  6
CONTINUOUS
 10
59.4393832489
 20
41.7962156195
 11
59.4558233124
 21
41.1144265014
  0
LWPOLYLINE
  5
30F
100
AcDbEntity
  8
ASSI
100
AcDbPolyline
 62
250
  6
CONTINUOUS
 90
3
 70
0
 10
59.1136056284
 20
42.6613847694
 10
59.1152261461
 20
42.5884406017
 10
59.1158495138
 20
42.5498988671
  0
LINE
  5
310
100
AcDbEntity
  8
ASSI
100
AcDbLine
 62
250
  6
CONTINUOUS
 10
59.4558233124
 20
41.1144265014
 11
59.4681190574
 21
40.3744105915
  0
LWPOLYLINE
  5
311
100
AcDbEntity
  8
ASSI
100
AcDbPolyline
 62
250
  6
CONTINUOUS
 90
3
 70
0
 10
59.4681190574
 20
40.3744105915
 10
59.476039481
 20
39.5741945999
 10
59.478334071
 20
39.1512837534
  0
LINE
  5
312
100
AcDbEntity
  8
ASSI
100
AcDbLine
 62
250
  6
CONTINUOUS
 10
59.8939376578
 20
-1.281332132
 11
59.8949494183
 21
-34.2998439774
  0
LINE
  5
313
100
AcDbEntity
  8
ASSI
100
AcDbLine
 62
7
  6
CONTINUOUS
 10
59.95
 20
-42.15027414
 11
59.95
 21
42.15027414
  0
LINE
  5
314
100
AcDbEntity
  8
ASSI
100
AcDbLine
 62
250
  6
CONTINUOUS
 10
59.8949494183
 20
-34.2998439774
 11
59.8962582984
 21
-42.0965324384
  0
LINE
  5
315
100
AcDbEntity
  8
ASSI
100
AcDbLine
 62
250
  6
CONTINUOUS
 10
59.8962579387
 20
42.0965320787
 11
59.8939376578
 21
-1.281332132
  0
LINE
  5
316
100
AcDbEntity
  8
ASSI
100
AcDbLine
 62
250
  6
CONTINUOUS
 10
59.4786581338
 20
-39.0952745453
 11
59.4744323392
 21
-39.7869822803
  0
LINE
  5
317
100
AcDbEntity
  8
ASSI
100
AcDbLine
 62
250
  6
CONTINUOUS
 10
59.4744323392
 20
-39.7869822803
 11
59.4674110049
 21
-40.4304856634
  0
LINE
  5
318
100
AcDbEntity
  8
ASSI
100
AcDbLine
 62
250
  6
CONTINUOUS
 10
59.4674110049
 20
-40.4304856634
 11
59.4574804948
 21
-41.030596125
  0
LWPOLYLINE
  5
319
100
AcDbEntity
  8
ASSI
100
AcDbPolyline
 62
250
  6
CONTINUOUS
 90
15
 70
0
 10
59.1158495373
 20
-42.5498992549
 10
59.1144765146
 20
-42.6256869066
 10
59.1136056411
 20
-42.6613853661
 10
59.1126194235
 20
-42.6952955352
 10
59.1115245177
 20
-42.7271885531
 10
59.1103283131
 20
-42.7568491752
 10
59.1090388829
 20
-42.7840772231
 10
59.1076649295
 20
-42.8086889359
 10
59.1062157255
 20
-42.8305182099
 10
59.1047010506
 20
-42.849417731
 10
59.1031311283
 20
-42.8652599326
 10
59.1015165567
 20
-42.8779378756
 10
59.0998682339
 20
-42.8873660103
 10
59.0981972834
 20
-42.8934807339
 10
59.0965149825
 20
-42.8962407973
  0
LINE
  5
31A
100
AcDbEntity
  8
ASSI
100
AcDbLine
 62
250
  6
CONTINUOUS
 10
59.4574804948
 20
-41.030596125
 11
59.4448424886
 21
-41.5918500925
  0
LINE
  5
31B
100
AcDbEntity
  8
ASSI
100
AcDbLine
 62
250
  6
CONTINUOUS
 10
59.4448424886
 20
-41.5918500925
 11
59.4295420007
 21
-42.1156501984
  0
LWPOLYLINE
  5
31C
100
AcDbEntity
  8
ASSI
100
AcDbPolyline
 62
250
  6
CONTINUOUS
 90
13
 70
0
 10
59.8962581526
 20
-42.0965322926
 10
59.8935004776
 20
-42.0980907191
 10
59.8873919378
 20
-42.0996386398
 10
59.8779737135
 20
-42.1011656197
 10
59.8653092959
 20
-42.1026613652
 10
59.8494840596
 20
-42.1041157931
 10
59.8306046874
 20
-42.1055190989
 10
59.8087984507
 20
-42.1068618224
 10
59.7842123506
 20
-42.1081349123
 10
59.7570121281
 20
-42.1093297864
 10
59.7273811463
 20
-42.1104383897
 10
59.6955191547
 20
-42.1114532491
 10
59.6616409414
 20
-42.1123675231
  0
LWPOLYLINE
  5
31D
100
AcDbEntity
  8
ASSI
100
AcDbPolyline
 62
250
  6
CONTINUOUS
 90
13
 70
0
 10
59.0965149549
 20
42.8962408149
 10
59.0981972717
 20
42.8934807093
 10
59.099868234
 20
42.8873658971
 10
59.1015165645
 20
42.8779376507
 10
59.1031311387
 20
42.8652596045
 10
59.1047010599
 20
42.8494173259
 10
59.1062157326
 20
42.8305177384
 10
59.1076649346
 20
42.8086883989
 10
59.1090388853
 20
42.7840766357
 10
59.1103283121
 20
42.7568485544
 10
59.111524513
 20
42.727187919
 10
59.1126194148
 20
42.6952949095
 10
59.1136056284
 20
42.6613847694
  0
LINE
  5
31E
100
AcDbEntity
  8
ASSI
100
AcDbLine
 62
7
  6
CONTINUOUS
 10
-87.1011881126
 20
-42.95
 11
-89.3000530821
 21
-42.8924206838
  0
LWPOLYLINE
  5
31F
100
AcDbEntity
  8
ASSI
100
AcDbPolyline
 62
250
  6
CONTINUOUS
 90
16
 70
0
 10
-87.1011880828
 20
-42.1528974536
 10
-86.9701372476
 20
-42.1387328146
 10
-86.8383611144
 20
-42.1203989672
 10
-86.7060276116
 20
-42.0978959114
 10
-86.5737512212
 20
-42.0714656381
 10
-86.4412704747
 20
-42.0408661565
 10
-86.3074875391
 20
-42.0053714933
 10
-86.1725091336
 20
-41.9650558064
 10
-86.0367425709
 20
-41.919844938
 10
-85.899640696
 20
-41.868790441
 10
-85.7599329515
 20
-41.8110040072
 10
-85.6196807232
 20
-41.7473739448
 10
-85.4831690436
 20
-41.6796167313
 10
-85.3518161439
 20
-41.6083045259
 10
-85.2244454608
 20
-41.5328651693
 10
-85.1011883207
 20
-41.4532986617
  0
LINE
  5
320
100
AcDbEntity
  8
ASSI
100
AcDbLine
 62
250
  6
CONTINUOUS
 10
-89.6268371712
 20
-42.1149065099
 11
-89.63895968
 21
-42.1154480159
  0
LINE
  5
321
100
AcDbEntity
  8
ASSI
100
AcDbLine
 62
250
  6
CONTINUOUS
 10
-89.153506465
 20
-42.0965322926
 11
-89.6268371712
 21
-42.1149065099
  0
LINE
  5
322
100
AcDbEntity
  8
ASSI
100
AcDbLine
 62
250
  6
CONTINUOUS
 10
-89.1535008965
 20
-42.0965324384
 11
-87.1011881126
 21
-42.15027414
  0
LWPOLYLINE
  5
323
100
AcDbEntity
  8
0
100
AcDbPolyline
 62
7
  6
CONTINUOUS
 90
10
 70
0
 43
0.3500000006
 10
-92.7794536743
 20
51.7000018616
 10
-91.9223157349
 20
52.5571443329
 10
-91.7080221863
 20
53.4142868042
 10
-91.7080221863
 20
54.2714292755
 10
-92.1366002197
 20
54.6999982452
 10
-92.7794536743
 20
54.6999982452
 10
-93.208022644
 20
54.2714292755
 10
-93.208022644
 20
53.4142868042
 10
-92.7794536743
 20
52.9857133026
 10
-91.850884552
 20
52.9857133026
  0
LINE
  5
324
100
AcDbEntity
  8
0
100
AcDbLine
 62
7
  6
CONTINUOUS
 10
-93.4063561092
 20
-27.9801797807
 11
-93.477172848
 21
-27.9801797807
  0
LINE
  5
325
100
AcDbEntity
  8
0
100
AcDbLine
 62
250
  6
CONTINUOUS
 10
-93.5079321524
 20
-27.3036609179
 11
-93.5786709963
 21
-27.3036609179
  0
LINE
  5
326
100
AcDbEntity
  8
0
100
AcDbLine
 62
7
  6
CONTINUOUS
 10
-93.5790707636
 20
-26.8133253901
 11
-93.6497579488
 21
-26.8133253901
  0
LINE
  5
327
100
AcDbEntity
  8
0
100
AcDbLine
 62
7
  6
CONTINUOUS
 10
-93.581137571
 20
-26.7985541322
 11
-93.6518232049
 21
-26.7985541322
  0
LINE
  5
328
100
AcDbEntity
  8
0
100
AcDbLine
 62
250
  6
CONTINUOUS
 10
-93.7493087913
 20
-25.5359677442
 11
-93.8198700374
 21
-25.5359677442
  0
LINE
  5
329
100
AcDbEntity
  8
SUPERFICI
100
AcDbLine
 62
7
  6
CONTINUOUS
 10
-93.7625848342
 20
-25.451114715
 11
-93.8331401688
 21
-25.451114715
  0
LWPOLYLINE
  5
32A
100
AcDbEntity
  8
0
100
AcDbPolyline
 62
7
  6
CONTINUOUS
 90
8
 70
0
 10
-93.8331367915
 20
-25.451114715
 10
-93.8330674837
 20
-25.4511587039
 10
-93.8327560929
 20
-25.4519538411
 10
-93.8323030411
 20
-25.4537905729
 10
-93.8317162183
 20
-25.4567233612
 10
-93.8309877345
 20
-25.4608110372
 10
-93.8300718192
 20
-25.4661449061
 10
-93.8289783526
 20
-25.4729298299
  0
LWPOLYLINE
  5
32B
100
AcDbEntity
  8
0
100
AcDbPolyline
 62
7
  6
CONTINUOUS
 90
3
 70
0
 43
0.3500000006
 10
-90.1365996094
 20
51.9857129974
 10
-90.2080217285
 20
51.7714285126
 10
-90.3508840942
 20
51.4857128448
  0
LWPOLYLINE
  5
32C
100
AcDbEntity
  8
ASSI
100
AcDbPolyline
 62
7
  6
CONTINUOUS
 90
20
 70
0
 10
-91.0222104353
 20
38.6782766958
 10
-91.3052383514
 20
37.7045805785
 10
-91.7471364762
 20
36.0817416153
 10
-92.1535158624
 20
34.4531940146
 10
-92.52887365
 20
32.7984146603
 10
-92.8709695885
 20
31.1226624587
 10
-93.1808742741
 20
29.4206785036
 10
-93.4647060945
 20
27.6561629598
 10
-93.7216890058
 20
25.8251778558
 10
-93.9503133173
 20
23.9316611632
 10
-94.1525266951
 20
21.9511269614
 10
-94.3278226792
 20
19.876899221
 10
-94.4753165221
 20
17.7156539714
 10
-94.5960369609
 20
15.4629333805
 10
-94.6917477949
 20
13.1178704671
 10
-94.7653913731
 20
10.6813322124
 10
-94.820483596
 20
8.1514617273
 10
-94.8582263995
 20
5.5276400486
 10
-94.8796247961
 20
2.8104861395
 10
-94.8862924749
 20
-0.0
  0
LINE
  5
32D
100
AcDbEntity
  8
ASSI
100
AcDbLine
 62
7
  6
CONTINUOUS
 10
-90.8826567536
 20
39.1420288775
 11
-91.0222099611
 21
38.6782782891
  0
LINE
  5
32E
100
AcDbEntity
  8
ASSI
100
AcDbLine
 62
7
  6
CONTINUOUS
 10
-90.717975902
 20
39.6766388002
 11
-90.8837167235
 21
39.1385445431
  0
LINE
  5
32F
100
AcDbEntity
  8
ASSI
100
AcDbLine
 62
7
  6
CONTINUOUS
 10
-90.6082087677
 20
40.0258335963
 11
-90.7210342425
 21
39.6668294033
  0
LINE
  5
330
100
AcDbEntity
  8
ASSI
100
AcDbLine
 62
7
  6
CONTINUOUS
 10
-90.4944227292
 20
40.3820709882
 11
-90.6129231613
 21
40.0109494399
  0
LINE
  5
331
100
AcDbEntity
  8
ASSI
100
AcDbLine
 62
7
  6
CONTINUOUS
 10
-90.3697211864
 20
40.766044672
 11
-90.4975262298
 21
40.3724301481
  0
LINE
  5
332
100
AcDbEntity
  8
ASSI
100
AcDbLine
 62
7
  6
CONTINUOUS
 10
-90.2545976562
 20
41.1147958302
 11
-90.3874865372
 21
40.7117431586
  0
LINE
  5
333
100
AcDbEntity
  8
ASSI
100
AcDbLine
 62
7
  6
CONTINUOUS
 10
-90.1287879812
 20
41.4898934123
 11
-90.2690961805
 21
41.0711693267
  0
LINE
  5
334
100
AcDbEntity
  8
ASSI
100
AcDbLine
 62
7
  6
CONTINUOUS
 10
-89.9947625758
 20
41.8828598068
 11
-90.1398030376
 21
41.4572970273
  0
LINE
  5
335
100
AcDbEntity
  8
ASSI
100
AcDbLine
 62
7
  6
CONTINUOUS
 10
-89.8575161695
 20
42.2785037592
 11
-90.0020272334
 21
41.8617297584
  0
LINE
  5
336
100
AcDbEntity
  8
ASSI
100
AcDbLine
 62
7
  6
CONTINUOUS
 10
-89.7586504852
 20
42.5594392955
 11
-89.8609424661
 21
42.268707491
  0
LINE
  5
337
100
AcDbEntity
  8
ASSI
100
AcDbLine
 62
7
  6
CONTINUOUS
 10
-89.8917360148
 20
-42.1804808122
 11
-89.7586504824
 21
-42.5594393034
  0
LINE
  5
338
100
AcDbEntity
  8
ASSI
100
AcDbLine
 62
7
  6
CONTINUOUS
 10
-90.0020272334
 20
-41.8617297583
 11
-89.8609424662
 21
-42.2687074909
  0
LINE
  5
339
100
AcDbEntity
  8
ASSI
100
AcDbLine
 62
7
  6
CONTINUOUS
 10
-90.1398030248
 20
-41.457297065
 11
-89.9946802632
 21
-41.8830991119
  0
LINE
  5
33A
100
AcDbEntity
  8
ASSI
100
AcDbLine
 62
7
  6
CONTINUOUS
 10
-90.2690961805
 20
-41.0711693266
 11
-90.1286721161
 21
-41.4902360411
  0
LINE
  5
33B
100
AcDbEntity
  8
ASSI
100
AcDbLine
 62
7
  6
CONTINUOUS
 10
-90.3874865286
 20
-40.711743185
 11
-90.254458932
 21
-41.1152128507
  0
LINE
  5
33C
100
AcDbEntity
  8
ASSI
100
AcDbLine
 62
7
  6
CONTINUOUS
 10
-90.4973635286
 20
-40.3729356735
 11
-90.3695679287
 21
-40.7665125488
  0
LINE
  5
33D
100
AcDbEntity
  8
ASSI
100
AcDbLine
 62
7
  6
CONTINUOUS
 10
-90.612923156
 20
-40.0109494567
 11
-90.4944227293
 21
-40.3820709881
  0
LINE
  5
33E
100
AcDbEntity
  8
ASSI
100
AcDbLine
 62
7
  6
CONTINUOUS
 10
-90.7208638735
 20
-39.6673759651
 11
-90.6080417214
 21
-40.0263608062
  0
LINE
  5
33F
100
AcDbEntity
  8
0
100
AcDbLine
 62
7
  6
CONTINUOUS
 10
-90.9156437111
 20
-39.032192178
 11
-90.9314771652
 21
-38.980951312
  0
LINE
  5
340
100
AcDbEntity
  8
ASSI
100
AcDbLine
 62
7
  6
CONTINUOUS
 10
-90.8306328647
 20
-39.312349296
 11
-90.717975898
 21
-39.6766388131
  0
LINE
  5
341
100
AcDbEntity
  8
ASSI
100
AcDbLine
 62
7
  6
CONTINUOUS
 10
-90.9314776387
 20
-38.9809497436
 11
-90.8306328647
 21
-39.312349296
  0
LINE
  5
342
100
AcDbEntity
  8
0
100
AcDbLine
 62
7
  6
CONTINUOUS
 10
-90.93147764
 20
-38.9809497394
 11
-91.0222099611
 21
-38.6782782891
  0
LWPOLYLINE
  5
343
100
AcDbEntity
  8
0
100
AcDbPolyline
 62
7
  6
CONTINUOUS
 90
9
 70
0
 10
-91.0222104243
 20
-38.6782767327
 10
-91.4004299322
 20
-37.3662531584
 10
-91.7515992441
 20
-36.064627833
 10
-92.0816563576
 20
-34.7522397833
 10
-92.3897774452
 20
-33.4312047443
 10
-92.6761712931
 20
-32.0994069811
 10
-92.9434988669
 20
-30.7419318755
 10
-93.1923100082
 20
-29.3538078882
 10
-93.4150108123
 20
-27.9801302931
  0
LWPOLYLINE
  5
344
100
AcDbEntity
  8
ASSI
100
AcDbPolyline
 62
7
  6
CONTINUOUS
 90
18
 70
0
 10
-89.7234023643
 20
-42.517910467
 10
-89.7160464147
 20
-42.5437254349
 10
-89.7030358164
 20
-42.5801440331
 10
-89.6872494194
 20
-42.6154481357
 10
-89.6687816639
 20
-42.6494265407
 10
-89.6477430304
 20
-42.6818759772
 10
-89.6242593797
 20
-42.7126023208
 10
-89.5984711994
 20
-42.7414217556
 10
-89.5705327637
 20
-42.7681618732
 10
-89.5406112103
 20
-42.7926627047
 10
-89.5088855408
 20
-42.8147776772
 10
-89.4755455495
 20
-42.8343744911
 10
-89.4407906881
 20
-42.851335911
 10
-89.4048288728
 20
-42.8655604678
 10
-89.36787524
 20
-42.8769630648
 10
-89.3301508596
 20
-42.8854754878
 10
-89.2918814125
 20
-42.8910468122
 10
-89.2532958403
 20
-42.8936437083
  0
LINE
  5
345
100
AcDbEntity
  8
ASSI
100
AcDbLine
 62
7
  6
CONTINUOUS
 10
-89.8333711127
 20
42.0683221494
 11
-89.9374884501
 21
41.6121447991
  0
LINE
  5
346
100
AcDbEntity
  8
ASSI
100
AcDbLine
 62
7
  6
CONTINUOUS
 10
-89.8072748594
 20
42.1787177101
 11
-89.8333711127
 21
42.0683221494
  0
LINE
  5
347
100
AcDbEntity
  8
ASSI
100
AcDbLine
 62
7
  6
CONTINUOUS
 10
-89.7821855219
 20
42.2826985078
 11
-89.8072748594
 21
42.1787177101
  0
LINE
  5
348
100
AcDbEntity
  8
ASSI
100
AcDbLine
 62
7
  6
CONTINUOUS
 10
-89.7591143767
 20
42.3764204716
 11
-89.7821855219
 21
42.2826985078
  0
LINE
  5
349
100
AcDbEntity
  8
ASSI
100
AcDbLine
 62
7
  6
CONTINUOUS
 10
-89.7368316748
 20
42.4652293107
 11
-89.7591143767
 21
42.3764204716
  0
LINE
  5
34A
100
AcDbEntity
  8
ASSI
100
AcDbLine
 62
7
  6
CONTINUOUS
 10
-89.7234134567
 20
42.5179114432
 11
-89.7368316748
 21
42.4652293107
  0
LINE
  5
34B
100
AcDbEntity
  8
ASSI
100
AcDbLine
 62
7
  6
CONTINUOUS
 10
-89.7437599326
 20
-42.4377946878
 11
-89.7234132356
 21
-42.5179123062
  0
LINE
  5
34C
100
AcDbEntity
  8
ASSI
100
AcDbLine
 62
7
  6
CONTINUOUS
 10
-89.7690408945
 20
-42.3363181771
 11
-89.7437599326
 21
-42.4377946878
  0
LINE
  5
34D
100
AcDbEntity
  8
ASSI
100
AcDbLine
 62
7
  6
CONTINUOUS
 10
-89.7938612309
 20
-42.2345761149
 11
-89.7690408945
 21
-42.3363181771
  0
LINE
  5
34E
100
AcDbEntity
  8
ASSI
100
AcDbLine
 62
7
  6
CONTINUOUS
 10
-89.8196141468
 20
-42.1267976468
 11
-89.7938612309
 21
-42.2345761149
  0
LINE
  5
34F
100
AcDbEntity
  8
ASSI
100
AcDbLine
 62
7
  6
CONTINUOUS
 10
-89.8461027307
 20
-42.013680293
 11
-89.8196141468
 21
-42.1267976468
  0
LINE
  5
350
100
AcDbEntity
  8
ASSI
100
AcDbLine
 62
7
  6
CONTINUOUS
 10
-89.8529196302
 20
-41.9842387982
 11
-89.8461027307
 21
-42.013680293
  0
LINE
  5
351
100
AcDbEntity
  8
ASSI
100
AcDbLine
 62
7
  6
CONTINUOUS
 10
-89.8585059674
 20
-41.9600265047
 11
-89.8529196302
 21
-41.9842387982
  0
LINE
  5
352
100
AcDbEntity
  8
ASSI
100
AcDbLine
 62
7
  6
CONTINUOUS
 10
-89.8629358341
 20
-41.9407743236
 11
-89.8585059674
 21
-41.9600265047
  0
LINE
  5
353
100
AcDbEntity
  8
ASSI
100
AcDbLine
 62
7
  6
CONTINUOUS
 10
-89.9378986865
 20
-41.6103372957
 11
-89.9373517054
 21
-41.6127478175
  0
LINE
  5
354
100
AcDbEntity
  8
ASSI
100
AcDbLine
 62
7
  6
CONTINUOUS
 10
-89.9371641419
 20
-41.6135752166
 11
-89.8629358341
 21
-41.9407743236
  0
LINE
  5
355
100
AcDbEntity
  8
0
100
AcDbLine
 62
7
  6
CONTINUOUS
 10
-93.8281784154
 20
-25.5096494116
 11
-93.8297433415
 21
-25.4945947282
  0
LWPOLYLINE
  5
356
100
AcDbEntity
  8
0
100
AcDbPolyline
 62
7
  6
CONTINUOUS
 90
10
 70
0
 10
-93.8297433415
 20
-25.4945947282
 10
-93.8316437314
 20
-25.4751925278
 10
-93.8321395851
 20
-25.4697545816
 10
-93.8325577597
 20
-25.4649068767
 10
-93.8328975411
 20
-25.4607027404
 10
-93.8331395273
 20
-25.4571887601
 10
-93.8332845065
 20
-25.4544203313
 10
-93.8333316904
 20
-25.4524543121
 10
-93.8332593125
 20
-25.4513467207
 10
-93.8331367915
 20
-25.451114715
  0
LINE
  5
357
100
AcDbEntity
  8
0
100
AcDbLine
 62
7
  6
CONTINUOUS
 10
-93.6497579488
 20
-26.8133253901
 11
-93.6479886886
 21
-26.8247958042
  0
LWPOLYLINE
  5
358
100
AcDbEntity
  8
0
100
AcDbPolyline
 62
7
  6
CONTINUOUS
 90
9
 70
0
 10
-93.7571377141
 20
-25.4813304925
 10
-93.7584214324
 20
-25.4729987512
 10
-93.7595171906
 20
-25.4661372469
 10
-93.7604345186
 20
-25.4606674906
 10
-93.761164186
 20
-25.4566679712
 10
-93.7617515597
 20
-25.453773429
 10
-93.7622042718
 20
-25.4519231655
 10
-93.762514703
 20
-25.4511778792
 10
-93.7625813684
 20
-25.4511422811
  0
LINE
  5
359
100
AcDbEntity
  8
0
100
AcDbLine
 62
7
  6
CONTINUOUS
 10
-93.5443688149
 20
-27.5361290675
 11
-93.477172848
 21
-27.9801797807
  0
LINE
  5
35A
100
AcDbEntity
  8
0
100
AcDbLine
 62
7
  6
CONTINUOUS
 10
-93.4063561092
 20
-27.9801797807
 11
-93.473716497
 21
-27.5353739493
  0
LWPOLYLINE
  5
35B
100
AcDbEntity
  8
0
100
AcDbPolyline
 62
7
  6
CONTINUOUS
 90
3
 70
0
 10
-93.8289783526
 20
-25.4729298299
 10
-93.8243219973
 20
-25.504102891
 10
-93.822227438
 20
-25.518785892
  0
LINE
  5
35C
100
AcDbEntity
  8
0
100
AcDbLine
 62
7
  6
CONTINUOUS
 10
-93.6521845319
 20
-26.7960875983
 11
-93.6518232049
 21
-26.7985541322
  0
LINE
  5
35D
100
AcDbEntity
  8
0
100
AcDbLine
 62
7
  6
CONTINUOUS
 10
-93.7537606517
 20
-25.5044071071
 11
-93.7571377141
 21
-25.4813304925
  0
LINE
  5
35E
100
AcDbEntity
  8
0
100
AcDbLine
 62
7
  6
CONTINUOUS
 10
-93.473716497
 20
-27.5353739493
 11
-93.5790707636
 21
-26.8133253901
  0
LINE
  5
35F
100
AcDbEntity
  8
0
100
AcDbLine
 62
7
  6
CONTINUOUS
 10
-93.6479886886
 20
-26.8247958042
 11
-93.5443688149
 21
-27.5361290675
  0
LINE
  5
360
100
AcDbEntity
  8
0
100
AcDbLine
 62
7
  6
CONTINUOUS
 10
-93.6844064646
 20
-26.6072097779
 11
-93.6284875818
 21
-27.002402469
  0
LINE
  5
361
100
AcDbEntity
  8
0
100
AcDbLine
 62
7
  6
CONTINUOUS
 10
-93.749308785
 20
-25.5359678174
 11
-93.7537606517
 21
-25.5044071071
  0
LINE
  5
362
100
AcDbEntity
  8
0
100
AcDbLine
 62
7
  6
CONTINUOUS
 10
-93.6518232049
 20
-26.7985541322
 11
-93.6497579488
 21
-26.8133253901
  0
LINE
  5
363
100
AcDbEntity
  8
0
100
AcDbLine
 62
7
  6
CONTINUOUS
 10
-93.5790707636
 20
-26.8133253901
 11
-93.581137571
 21
-26.7985541322
  0
LINE
  5
364
100
AcDbEntity
  8
0
100
AcDbLine
 62
7
  6
CONTINUOUS
 10
-93.6806561391
 20
-26.6238499327
 11
-93.6849167292
 21
-26.592724541
  0
LINE
  5
365
100
AcDbEntity
  8
0
100
AcDbLine
 62
7
  6
CONTINUOUS
 10
-93.822227438
 20
-25.518785892
 11
-93.8161500381
 21
-25.5630866953
  0
LINE
  5
366
100
AcDbEntity
  8
0
100
AcDbLine
 62
7
  6
CONTINUOUS
 10
-93.656149397
 20
-26.7656827032
 11
-93.6541572189
 21
-26.7804344324
  0
LINE
  5
367
100
AcDbEntity
  8
0
100
AcDbLine
 62
7
  6
CONTINUOUS
 10
-93.7369305419
 20
-25.6279105941
 11
-93.749308785
 21
-25.5359678174
  0
LINE
  5
368
100
AcDbEntity
  8
0
100
AcDbLine
 62
7
  6
CONTINUOUS
 10
-93.8161500381
 20
-25.5630866953
 11
-93.656149397
 21
-26.7656827032
  0
LINE
  5
369
100
AcDbEntity
  8
0
100
AcDbLine
 62
7
  6
CONTINUOUS
 10
-93.5821432437
 20
-26.790635812
 11
-93.7369305419
 21
-25.6279105941
  0
LWPOLYLINE
  5
36A
100
AcDbEntity
  8
0
100
AcDbPolyline
 62
7
  6
CONTINUOUS
 90
3
 70
0
 10
-93.6541572189
 20
-26.7804344324
 10
-93.6533388319
 20
-26.7867205507
 10
-93.6521845319
 20
-26.7960875983
  0
LINE
  5
36B
100
AcDbEntity
  8
0
100
AcDbLine
 62
7
  6
CONTINUOUS
 10
-93.8305514302
 20
-25.5099547207
 11
-93.7821688484
 21
-25.8833011604
  0
LINE
  5
36C
100
AcDbEntity
  8
0
100
AcDbLine
 62
7
  6
CONTINUOUS
 10
-93.7922127632
 20
-25.7906203761
 11
-93.8281784154
 21
-25.5096494116
  0
LINE
  5
36D
100
AcDbEntity
  8
0
100
AcDbLine
 62
7
  6
CONTINUOUS
 10
-93.581137571
 20
-26.7985541322
 11
-93.5821432437
 21
-26.790635812
  0
LWPOLYLINE
  5
36E
100
AcDbEntity
  8
0
100
AcDbPolyline
 62
7
  6
CONTINUOUS
 90
13
 70
0
 10
-93.7694016745
 20
-25.4519201904
 10
-93.9688243332
 20
-23.7641810035
 10
-94.1503283071
 20
-21.9746935527
 10
-94.3096990531
 20
-20.1119816474
 10
-94.4466343369
 20
-18.1765663948
 10
-94.5615558131
 20
-16.1679266879
 10
-94.655610322
 20
-14.0844992054
 10
-94.7306319562
 20
-11.9261430025
 10
-94.7892730629
 20
-9.6929990242
 10
-94.8334392324
 20
-7.3839267834
 10
-94.8637041536
 20
-4.998546118
 10
-94.8809064711
 20
-2.5372371902
 10
-94.8862924749
 20
-0.0
  0
LWPOLYLINE
  5
36F
100
AcDbEntity
  8
ASSI
100
AcDbPolyline
 62
250
  6
CONTINUOUS
 90
19
 70
0
 10
-89.639591456
 20
-42.4291320721
 10
-89.6352275513
 20
-42.4699750464
 10
-89.6275286677
 20
-42.5103215396
 10
-89.6165467667
 20
-42.5498992549
 10
-89.6023559673
 20
-42.5884410819
 10
-89.5850520441
 20
-42.6256869066
 10
-89.5647517777
 20
-42.6613853661
 10
-89.5415921723
 20
-42.6952955352
 10
-89.5157295321
 20
-42.7271885531
 10
-89.487338403
 20
-42.7568491752
 10
-89.4566103954
 20
-42.7840772231
 10
-89.4237528912
 20
-42.8086889359
 10
-89.3889876444
 20
-42.8305182099
 10
-89.3525492613
 20
-42.849417731
 10
-89.314683684
 20
-42.8652599326
 10
-89.2756465392
 20
-42.8779378756
 10
-89.2357013167
 20
-42.8873660103
 10
-89.1951175837
 20
-42.8934807339
 10
-89.154169238
 20
-42.8962407973
  0
LINE
  5
370
100
AcDbEntity
  8
0
100
AcDbLine
 62
7
  6
CONTINUOUS
 10
-85.1011881126
 20
-3.6023718431
 11
-87.1011881126
 21
-3.55
  0
LINE
  5
371
100
AcDbEntity
  8
ASSI
100
AcDbLine
 62
250
  6
CONTINUOUS
 10
-89.1626631777
 20
-41.8416559744
 11
-89.1535008965
 21
-42.0965324384
  0
LWPOLYLINE
  5
372
100
AcDbEntity
  8
ASSI
100
AcDbPolyline
 62
250
  6
CONTINUOUS
 90
3
 70
0
 10
-89.154168566
 20
-42.8962408149
 10
-89.1542408839
 20
-42.8940030819
 10
-89.1543331667
 20
-42.8873049794
  0
LINE
  5
373
100
AcDbEntity
  8
ASSI
100
AcDbLine
 62
250
  6
CONTINUOUS
 10
-89.6375293702
 20
-42.1609226245
 11
-89.6475490512
 21
-41.8584910388
  0
LINE
  5
374
100
AcDbEntity
  8
ASSI
100
AcDbLine
 62
250
  6
CONTINUOUS
 10
-89.1785254261
 20
-41.3030640926
 11
-89.1626631777
 21
-41.8416559744
  0
LINE
  5
375
100
AcDbEntity
  8
ASSI
100
AcDbLine
 62
250
  6
CONTINUOUS
 10
-89.6621608187
 20
-41.3157278978
 11
-89.6475490512
 21
-41.8584910388
  0
LINE
  5
376
100
AcDbEntity
  8
ASSI
100
AcDbLine
 62
250
  6
CONTINUOUS
 10
-89.6364823538
 20
-42.2051485997
 11
-89.6375293702
 21
-42.1609226245
  0
LINE
  5
377
100
AcDbEntity
  8
ASSI
100
AcDbLine
 62
250
  6
CONTINUOUS
 10
-89.1910997012
 20
-40.726949605
 11
-89.1785254261
 21
-41.3030640926
  0
LINE
  5
378
100
AcDbEntity
  8
ASSI
100
AcDbLine
 62
250
  6
CONTINUOUS
 10
-89.6733749333
 20
-40.7359856627
 11
-89.6621608187
 21
-41.3157278978
  0
LINE
  5
379
100
AcDbEntity
  8
ASSI
100
AcDbLine
 62
250
  6
CONTINUOUS
 10
-89.6357606659
 20
-42.2479408315
 11
-89.6364823538
 21
-42.2051485997
  0
LINE
  5
37A
100
AcDbEntity
  8
ASSI
100
AcDbLine
 62
250
  6
CONTINUOUS
 10
-89.6814570451
 20
-40.11417683
 11
-89.6733749333
 21
-40.7359856627
  0
LWPOLYLINE
  5
37B
100
AcDbEntity
  8
ASSI
100
AcDbPolyline
 62
250
  6
CONTINUOUS
 90
3
 70
0
 10
-89.2038118687
 20
-39.7824940652
 10
-89.2003941609
 20
-40.1082899671
 10
-89.1910997012
 20
-40.726949605
  0
LINE
  5
37C
100
AcDbEntity
  8
ASSI
100
AcDbLine
 62
250
  6
CONTINUOUS
 10
-89.6353436252
 20
-42.2879754264
 11
-89.6357606659
 21
-42.2479408315
  0
LINE
  5
37D
100
AcDbEntity
  8
ASSI
100
AcDbLine
 62
250
  6
CONTINUOUS
 10
-89.7234063693
 20
-42.5178891336
 11
-89.7234060105
 21
-42.5179405142
  0
LINE
  5
37E
100
AcDbEntity
  8
ASSI
100
AcDbLine
 62
250
  6
CONTINUOUS
 10
-89.6866308536
 20
-39.4472541137
 11
-89.6814570451
 21
-40.11417683
  0
LINE
  5
37F
100
AcDbEntity
  8
ASSI
100
AcDbLine
 62
250
  6
CONTINUOUS
 10
-89.6896303291
 20
-38.3512551743
 11
-89.6866308536
 21
-39.4472541137
  0
LINE
  5
380
100
AcDbEntity
  8
ASSI
100
AcDbLine
 62
250
  6
CONTINUOUS
 10
-89.7143968298
 20
-9.4117280072
 11
-89.6839229618
 21
-30.6312986999
  0
LINE
  5
381
100
AcDbEntity
  8
ASSI
100
AcDbLine
 62
250
  6
CONTINUOUS
 10
-89.6839229618
 20
-30.6312986999
 11
-89.6830684422
 21
-32.7868132536
  0
LINE
  5
382
100
AcDbEntity
  8
ASSI
100
AcDbLine
 62
250
  6
CONTINUOUS
 10
-89.6833103951
 20
33.3629650899
 11
-89.6835279743
 21
31.0474240825
  0
LINE
  5
383
100
AcDbEntity
  8
ASSI
100
AcDbLine
 62
250
  6
CONTINUOUS
 10
-89.6892233496
 20
38.7185724946
 11
-89.6833103951
 21
33.3629650899
  0
LINE
  5
384
100
AcDbEntity
  8
ASSI
100
AcDbLine
 62
250
  6
CONTINUOUS
 10
-89.6830684422
 20
-32.7868132536
 11
-89.6859786047
 21
-35.7538799501
  0
LINE
  5
385
100
AcDbEntity
  8
ASSI
100
AcDbLine
 62
250
  6
CONTINUOUS
 10
-89.6859786047
 20
-35.7538799501
 11
-89.6896303291
 21
-38.3512551743
  0
LINE
  5
386
100
AcDbEntity
  8
ASSI
100
AcDbLine
 62
250
  6
CONTINUOUS
 10
-89.6835279743
 20
31.0474240825
 11
-89.6875863887
 21
28.4851466719
  0
LINE
  5
387
100
AcDbEntity
  8
ASSI
100
AcDbLine
 62
250
  6
CONTINUOUS
 10
-89.6875863887
 20
28.4851466719
 11
-89.6946097791
 21
25.6544912654
  0
LINE
  5
388
100
AcDbEntity
  8
ASSI
100
AcDbLine
 62
250
  6
CONTINUOUS
 10
-89.6946097791
 20
25.6544912654
 11
-89.7143968298
 21
-9.4117280072
  0
LINE
  5
389
100
AcDbEntity
  8
ASSI
100
AcDbLine
 62
250
  6
CONTINUOUS
 10
-89.6858868992
 20
39.5741945999
 11
-89.6892233496
 21
38.7185724946
  0
LINE
  5
38A
100
AcDbEntity
  8
ASSI
100
AcDbLine
 62
250
  6
CONTINUOUS
 10
-89.6353436486
 20
42.2879723812
 11
-89.6352028607
 21
42.3242976959
  0
LINE
  5
38B
100
AcDbEntity
  8
ASSI
100
AcDbLine
 62
250
  6
CONTINUOUS
 10
-89.6785133523
 20
40.3744105915
 11
-89.6858868992
 21
39.5741945999
  0
LINE
  5
38C
100
AcDbEntity
  8
ASSI
100
AcDbLine
 62
250
  6
CONTINUOUS
 10
-89.6357607075
 20
42.2479377611
 11
-89.6353436486
 21
42.2879723812
  0
LINE
  5
38D
100
AcDbEntity
  8
ASSI
100
AcDbLine
 62
250
  6
CONTINUOUS
 10
-89.6364814347
 20
42.205176805
 11
-89.6357607075
 21
42.2479377611
  0
LINE
  5
38E
100
AcDbEntity
  8
ASSI
100
AcDbLine
 62
250
  6
CONTINUOUS
 10
-89.6375320674
 20
42.1608321293
 11
-89.6364814347
 21
42.205176805
  0
LWPOLYLINE
  5
38F
100
AcDbEntity
  8
ASSI
100
AcDbPolyline
 62
250
  6
CONTINUOUS
 90
4
 70
0
 10
-89.64945242
 20
41.7962156195
 10
-89.6586317129
 20
41.4626088062
 10
-89.6665157105
 20
41.1144265014
 10
-89.6785133523
 20
40.3744105915
  0
LINE
  5
390
100
AcDbEntity
  8
ASSI
100
AcDbLine
 62
250
  6
CONTINUOUS
 10
-89.64945242
 20
41.7962156195
 11
-89.6375320674
 21
42.1608321293
  0
LWPOLYLINE
  5
391
100
AcDbEntity
  8
ASSI
100
AcDbPolyline
 62
250
  6
CONTINUOUS
 90
6
 70
0
 10
-89.1535146348
 20
42.0965320787
 10
-89.1647247766
 20
41.7801116622
 10
-89.174676154
 20
41.4489672311
 10
-89.1833687668
 20
41.1030987855
 10
-89.1907848859
 20
40.7425498987
 10
-89.2018940182
 20
39.977149361
  0
LINE
  5
392
100
AcDbEntity
  8
ASSI
100
AcDbLine
 62
250
  6
CONTINUOUS
 10
-89.2421691669
 20
-0.0
 11
-94.8862924749
 21
-0.0
  0
LINE
  5
393
100
AcDbEntity
  8
ASSI
100
AcDbLine
 62
250
  6
CONTINUOUS
 10
-89.1543331667
 20
-42.8873049794
 11
-89.1546605295
 21
-42.840934726
  0
LINE
  5
394
100
AcDbEntity
  8
ASSI
100
AcDbLine
 62
250
  6
CONTINUOUS
 10
-89.2083523108
 20
-39.0931830582
 11
-89.2038118687
 21
-39.7824940652
  0
LWPOLYLINE
  5
395
100
AcDbEntity
  8
ASSI
100
AcDbPolyline
 62
250
  6
CONTINUOUS
 90
12
 70
0
 10
-89.6352028607
 20
42.3242976959
 10
-89.6352321543
 20
42.3409452679
 10
-89.6353265222
 20
42.3563151013
 10
-89.6354896178
 20
42.3703892071
 10
-89.6357221126
 20
42.3831858234
 10
-89.6360245169
 20
42.3944862056
 10
-89.6364042556
 20
42.4042665118
 10
-89.6368652393
 20
42.4125511833
 10
-89.6374070384
 20
42.4191941163
 10
-89.6380354435
 20
42.4241469148
 10
-89.6387606097
 20
42.427458799
 10
-89.6395903286
 20
42.4291301705
  0
LINE
  5
396
100
AcDbEntity
  8
ASSI
100
AcDbLine
 62
250
  6
CONTINUOUS
 10
-89.2388691813
 20
-11.4868613012
 11
-89.20323628
 21
-30.6306920386
  0
LINE
  5
397
100
AcDbEntity
  8
ASSI
100
AcDbLine
 62
250
  6
CONTINUOUS
 10
-89.1546605295
 20
-42.840934726
 11
-89.1549287536
 21
-42.682756127
  0
LWPOLYLINE
  5
398
100
AcDbEntity
  8
0
100
AcDbPolyline
 62
7
  6
CONTINUOUS
 90
4
 70
0
 43
0.3500000006
 10
-89.1365993042
 20
52.1285708313
 10
-89.1365993042
 20
52.9857133026
 10
-88.7080303345
 20
53.4142868042
 10
-88.0651678162
 20
53.4142868042
  0
LINE
  5
399
100
AcDbEntity
  8
ASSI
100
AcDbLine
 62
7
  6
CONTINUOUS
 10
-87.1011881126
 20
-42.95
 11
-87.1011881126
 21
42.95
  0
LINE
  5
39A
100
AcDbEntity
  8
ASSI
100
AcDbLine
 62
250
  6
CONTINUOUS
 10
-89.210007666
 20
-37.956284992
 11
-89.2083523108
 21
-39.0931830582
  0
LINE
  5
39B
100
AcDbEntity
  8
ASSI
100
AcDbLine
 62
250
  6
CONTINUOUS
 10
-89.20323628
 20
-30.6306920386
 11
-89.2022818748
 21
-32.7869742449
  0
LINE
  5
39C
100
AcDbEntity
  8
ASSI
100
AcDbLine
 62
250
  6
CONTINUOUS
 10
-89.153506465
 20
42.0965322926
 11
-89.154897504
 21
42.757240889
  0
LINE
  5
39D
100
AcDbEntity
  8
ASSI
100
AcDbLine
 62
250
  6
CONTINUOUS
 10
-89.2095690786
 20
38.7175073222
 11
-89.2022195964
 21
32.2346297648
  0
LINE
  5
39E
100
AcDbEntity
  8
ASSI
100
AcDbLine
 62
250
  6
CONTINUOUS
 10
-89.2022195964
 20
32.2346297648
 11
-89.2045320356
 21
29.7977003852
  0
LINE
  5
39F
100
AcDbEntity
  8
ASSI
100
AcDbLine
 62
250
  6
CONTINUOUS
 10
-89.2022818748
 20
-32.7869742449
 11
-89.2048933552
 21
-35.2785041006
  0
LINE
  5
3A0
100
AcDbEntity
  8
ASSI
100
AcDbLine
 62
250
  6
CONTINUOUS
 10
-89.2048933552
 20
-35.2785041006
 11
-89.210007666
 21
-37.956284992
  0
LINE
  5
3A1
100
AcDbEntity
  8
ASSI
100
AcDbLine
 62
250
  6
CONTINUOUS
 10
-89.2045320356
 20
29.7977003852
 11
-89.2388691813
 21
-11.4868613012
  0
LINE
  5
3A2
100
AcDbEntity
  8
ASSI
100
AcDbLine
 62
250
  6
CONTINUOUS
 10
-89.1549287536
 20
-42.682756127
 11
-89.153506465
 21
-42.0965322926
  0
LINE
  5
3A3
100
AcDbEntity
  8
ASSI
100
AcDbLine
 62
250
  6
CONTINUOUS
 10
-89.154897504
 20
42.757240889
 11
-89.1545496201
 21
42.860696131
  0
LWPOLYLINE
  5
3A4
100
AcDbEntity
  8
ASSI
100
AcDbPolyline
 62
250
  6
CONTINUOUS
 90
3
 70
0
 10
-89.2018940182
 20
39.977149361
 10
-89.2055569416
 20
39.5705173604
 10
-89.2095690786
 20
38.7175073222
  0
LWPOLYLINE
  5
3A5
100
AcDbEntity
  8
ASSI
100
AcDbPolyline
 62
250
  6
CONTINUOUS
 90
4
 70
0
 10
-89.1545496201
 20
42.860696131
 10
-89.1543331657
 20
42.8873047449
 10
-89.1542408804
 20
42.8940030362
 10
-89.154168566
 20
42.8962408149
  0
LINE
  5
3A6
100
AcDbEntity
  8
ASSI
100
AcDbLine
 62
7
  6
CONTINUOUS
 10
-85.1011881126
 20
41.8504584444
 11
-85.1011881126
 21
41.4532998869
  0
LINE
  5
3A7
100
AcDbEntity
  8
0
100
AcDbLine
 62
7
  6
CONTINUOUS
 10
-85.1011881126
 20
41.4532998869
 11
-85.1011881126
 21
3.6023718431
  0
LINE
  5
3A8
100
AcDbEntity
  8
0
100
AcDbLine
 62
7
  6
CONTINUOUS
 10
-85.1011881126
 20
-3.6023718431
 11
-85.1011881126
 21
-41.4532960053
  0
LINE
  5
3A9
100
AcDbEntity
  8
ASSI
100
AcDbLine
 62
7
  6
CONTINUOUS
 10
-85.1011881126
 20
-41.4532960053
 11
-85.1011881126
 21
-41.8504595872
  0
LINE
  5
3AA
100
AcDbEntity
  8
0
100
AcDbLine
 62
7
  6
CONTINUOUS
 10
-85.1011881126
 20
3.6023718431
 11
-87.1011881126
 21
3.55
  0
LWPOLYLINE
  5
3AB
100
AcDbEntity
  8
ASSI
100
AcDbPolyline
 62
250
  6
CONTINUOUS
 90
9
 70
0
 10
-89.7234030761
 20
42.5179221096
 10
-89.7233812054
 20
42.5178401608
 10
-89.7232059133
 20
42.5175534319
 10
-89.7228274313
 20
42.5170704464
 10
-89.7222267193
 20
42.516237271
 10
-89.7213430475
 20
42.5150589094
 10
-89.7201220712
 20
42.5135282413
 10
-89.7185321291
 20
42.5114710197
 10
-89.7164920985
 20
42.5088820893
  0
LWPOLYLINE
  5
3AC
100
AcDbEntity
  8
ASSI
100
AcDbPolyline
 62
250
  6
CONTINUOUS
 90
13
 70
0
 10
-89.6395896592
 20
-42.4291270224
 10
-89.6387602424
 20
-42.4274570312
 10
-89.6380353094
 20
-42.4241462899
 10
-89.6374070667
 20
-42.419194397
 10
-89.6368653305
 20
-42.4125520723
 10
-89.6364043296
 20
-42.4042677713
 10
-89.6360245676
 20
-42.3944877771
 10
-89.6357221578
 20
-42.383187697
 10
-89.6354896505
 20
-42.3703913243
 10
-89.6353265426
 20
-42.3563174369
 10
-89.6352321643
 20
-42.340947812
 10
-89.63520286
 20
-42.3243004234
 10
-89.6353436252
 20
-42.2879754264
  0
LWPOLYLINE
  5
3AD
100
AcDbEntity
  8
ASSI
100
AcDbPolyline
 62
250
  6
CONTINUOUS
 90
4
 70
0
 10
-89.7586500069
 20
42.5594335329
 10
-89.7586343478
 20
42.5594017897
 10
-89.7585950357
 20
42.5593394185
 10
-89.7585271565
 20
42.5592460904
  0
LWPOLYLINE
  5
3AE
100
AcDbEntity
  8
0
100
AcDbPolyline
 62
7
  6
CONTINUOUS
 90
10
 70
0
 43
0.3500000006
 10
-90.2080217285
 20
52.2000020142
 10
-90.1365996094
 20
52.0571441803
 10
-90.1365996094
 20
51.9857129974
 10
-90.2794529114
 20
51.8428551636
 10
-90.3508840942
 20
51.8428551636
 10
-90.4223152771
 20
51.9142863464
 10
-90.4223152771
 20
51.9857129974
 10
-90.3508840942
 20
52.1285708313
 10
-90.2794529114
 20
52.2000020142
 10
-90.2080217285
 20
52.2000020142
  0
LWPOLYLINE
  5
3AF
100
AcDbEntity
  8
ASSI
100
AcDbPolyline
 62
250
  6
CONTINUOUS
 90
9
 70
0
 10
-89.7571845068
 20
-42.5573511833
 10
-89.7576334976
 20
-42.5579817789
 10
-89.7579710335
 20
-42.5584512143
 10
-89.7582173794
 20
-42.5587706615
 10
-89.7583788928
 20
-42.5590164901
 10
-89.758490326
 20
-42.5592019395
 10
-89.7585755135
 20
-42.5593137705
 10
-89.7586264158
 20
-42.5593886344
 10
-89.7586482313
 20
-42.559430084
  0
LINE
  5
3B0
100
AcDbEntity
  8
ASSI
100
AcDbLine
 62
250
  6
CONTINUOUS
 10
-89.7550096888
 20
-42.5544155471
 11
-89.7558781787
 21
-42.5555971725
  0
LWPOLYLINE
  5
3B1
100
AcDbEntity
  8
ASSI
100
AcDbPolyline
 62
250
  6
CONTINUOUS
 90
3
 70
0
 10
-89.7499572904
 20
-42.5477579414
 10
-89.753983105
 20
-42.5530410835
 10
-89.7566008365
 20
-42.5565705993
  0
LINE
  5
3B2
100
AcDbEntity
  8
ASSI
100
AcDbLine
 62
250
  6
CONTINUOUS
 10
-89.7483266709
 20
-42.5456545592
 11
-89.7499572904
 21
-42.5477579414
  0
LINE
  5
3B3
100
AcDbEntity
  8
ASSI
100
AcDbLine
 62
250
  6
CONTINUOUS
 10
-89.7518527062
 20
42.5502319481
 11
-89.7475015094
 21
42.5445901222
  0
LINE
  5
3B4
100
AcDbEntity
  8
ASSI
100
AcDbLine
 62
250
  6
CONTINUOUS
 10
-89.7550689858
 20
42.5545025867
 11
-89.7518527062
 21
42.5502319481
  0
LINE
  5
3B5
100
AcDbEntity
  8
ASSI
100
AcDbLine
 62
250
  6
CONTINUOUS
 10
-89.7558698299
 20
42.5555766845
 11
-89.7550689858
 21
42.5545025867
  0
LWPOLYLINE
  5
3B6
100
AcDbEntity
  8
ASSI
100
AcDbPolyline
 62
250
  6
CONTINUOUS
 90
4
 70
0
 10
-89.7578737562
 20
42.5583114921
 10
-89.7575371315
 20
42.5578342713
 10
-89.7570937362
 20
42.5572425268
 10
-89.7565409187
 20
42.5564933487
  0
LWPOLYLINE
  5
3B7
100
AcDbEntity
  8
ASSI
100
AcDbPolyline
 62
250
  6
CONTINUOUS
 90
3
 70
0
 10
-89.7584349714
 20
42.559098922
 10
-89.75830781
 20
42.5589105135
 10
-89.7581236113
 20
42.5586682647
  0
LINE
  5
3B8
100
AcDbEntity
  8
ASSI
100
AcDbLine
 62
250
  6
CONTINUOUS
 10
-89.7446793023
 20
-42.540994969
 11
-89.7483266709
 21
-42.5456545592
  0
LWPOLYLINE
  5
3B9
100
AcDbEntity
  8
ASSI
100
AcDbPolyline
 62
250
  6
CONTINUOUS
 90
6
 70
0
 10
-89.7180464703
 20
-42.5108577097
 10
-89.7211462847
 20
-42.5148083744
 10
-89.72215404
 20
-42.5161403842
 10
-89.7228471218
 20
-42.5170663424
 10
-89.7232589115
 20
-42.5175976216
 10
-89.7234063693
 20
-42.5178891336
  0
LINE
  5
3BA
100
AcDbEntity
  8
ASSI
100
AcDbLine
 62
250
  6
CONTINUOUS
 10
-89.7383357626
 20
-42.5331220217
 11
-89.7446793023
 21
-42.540994969
  0
LWPOLYLINE
  5
3BB
100
AcDbEntity
  8
ASSI
100
AcDbPolyline
 62
250
  6
CONTINUOUS
 90
3
 70
0
 10
-89.7100240587
 20
-42.501010017
 10
-89.715867636
 20
-42.5081343494
 10
-89.7180464703
 20
-42.5108577097
  0
LWPOLYLINE
  5
3BC
100
AcDbEntity
  8
ASSI
100
AcDbPolyline
 62
250
  6
CONTINUOUS
 90
6
 70
0
 10
-89.7261094752
 20
-42.5189185809
 10
-89.7296770413
 20
-42.5229231621
 10
-89.7317157032
 20
-42.5252669062
 10
-89.7338569665
 20
-42.5278206592
 10
-89.7360848062
 20
-42.5304413249
 10
-89.7383357626
 20
-42.5331220217
  0
LWPOLYLINE
  5
3BD
100
AcDbEntity
  8
ASSI
100
AcDbPolyline
 62
250
  6
CONTINUOUS
 90
3
 70
0
 10
-89.7256006535
 20
42.5183620362
 10
-89.7243635675
 20
42.5170322868
 10
-89.7237884366
 20
42.5164468106
  0
LWPOLYLINE
  5
3BE
100
AcDbEntity
  8
ASSI
100
AcDbPolyline
 62
250
  6
CONTINUOUS
 90
4
 70
0
 10
-89.734178945
 20
42.5281700991
 10
-89.7303633954
 20
42.5237066022
 10
-89.7286199085
 20
42.5217191393
 10
-89.7256006535
 20
42.5183620362
  0
LINE
  5
3BF
100
AcDbEntity
  8
ASSI
100
AcDbLine
 62
250
  6
CONTINUOUS
 10
-89.7421989809
 20
42.5378758662
 11
-89.7382156455
 21
42.5330382603
  0
LWPOLYLINE
  5
3C0
100
AcDbEntity
  8
ASSI
100
AcDbPolyline
 62
250
  6
CONTINUOUS
 90
7
 70
0
 10
-89.7164920985
 20
42.5088820893
 10
-89.7108008654
 20
42.5019426845
 10
-89.7070214572
 20
42.4974110433
 10
-89.702489971
 20
42.4921742797
 10
-89.6971454622
 20
42.4860968119
 10
-89.6909121378
 20
42.4792155624
 10
-89.6836466481
 20
42.4714859809
  0
LWPOLYLINE
  5
3C1
100
AcDbEntity
  8
ASSI
100
AcDbPolyline
 62
250
  6
CONTINUOUS
 90
3
 70
0
 10
-89.7382156455
 20
42.5330382603
 10
-89.7361923309
 20
42.5305584441
 10
-89.734178945
 20
42.5281700991
  0
LINE
  5
3C2
100
AcDbEntity
  8
ASSI
100
AcDbLine
 62
250
  6
CONTINUOUS
 10
-89.7475015094
 20
42.5445901222
 11
-89.7421989809
 21
42.5378758662
  0
LWPOLYLINE
  5
3C3
100
AcDbEntity
  8
ASSI
100
AcDbPolyline
 62
250
  6
CONTINUOUS
 90
3
 70
0
 10
-89.723785602
 20
-42.5164581285
 10
-89.7246465036
 20
-42.5173337267
 10
-89.7261094752
 20
-42.5189185809
  0
LWPOLYLINE
  5
3C4
100
AcDbEntity
  8
ASSI
100
AcDbPolyline
 62
250
  6
CONTINUOUS
 90
10
 70
0
 10
-89.6395896592
 20
-42.4291270224
 10
-89.6527429245
 20
-42.4409491846
 10
-89.6641745573
 20
-42.4517690918
 10
-89.6740769053
 20
-42.4615937201
 10
-89.6826372837
 20
-42.4703911265
 10
-89.6900080563
 20
-42.478205846
 10
-89.6963063471
 20
-42.4851587614
 10
-89.7016541594
 20
-42.4912335433
 10
-89.7061924213
 20
-42.4964564086
 10
-89.7100240587
 20
-42.501010017
  0
LWPOLYLINE
  5
3C5
100
AcDbEntity
  8
ASSI
100
AcDbPolyline
 62
250
  6
CONTINUOUS
 90
5
 70
0
 10
-89.6836466481
 20
42.4714859809
 10
-89.6751192992
 20
42.4626470999
 10
-89.6650809401
 20
42.4526050224
 10
-89.6533244384
 20
42.4414359512
 10
-89.6395903286
 20
42.4291301705
  0
LWPOLYLINE
  5
3C6
100
AcDbEntity
  8
ASSI
100
AcDbPolyline
 62
250
  6
CONTINUOUS
 90
16
 70
0
 10
-85.1011879994
 20
41.453298463
 10
-85.2189699564
 20
41.5291211228
 10
-85.3386125312
 20
41.6004788856
 10
-85.4598689918
 20
41.6673717515
 10
-85.581981263
 20
41.7295814851
 10
-85.7052149786
 20
41.7873263218
 10
-85.8309577983
 20
41.8412609675
 10
-85.9589608101
 20
41.8915497044
 10
-86.0891852867
 20
41.9380282504
 10
-86.2235004964
 20
41.9808584654
 10
-86.362947729
 20
42.0204147125
 10
-86.5063273924
 20
42.0563226286
 10
-86.6521615724
 20
42.087620984
 10
-86.7998183986
 20
42.1139893689
 10
-86.9495592213
 20
42.135748193
 10
-87.1011881034
 20
42.1528974564
  0
LWPOLYLINE
  5
3C7
100
AcDbEntity
  8
ASSI
100
AcDbPolyline
 62
250
  6
CONTINUOUS
 90
19
 70
0
 10
-89.154168566
 20
42.8962408149
 10
-89.1951172965
 20
42.8934807093
 10
-89.2357013158
 20
42.8873658971
 10
-89.2756467235
 20
42.8779376507
 10
-89.3146839304
 20
42.8652596045
 10
-89.352549476
 20
42.8494173259
 10
-89.3889878068
 20
42.8305177384
 10
-89.4237530026
 20
42.8086883989
 10
-89.4566104382
 20
42.7840766357
 10
-89.4873383642
 20
42.7568485544
 10
-89.5157294017
 20
42.727187919
 10
-89.5415919441
 20
42.6952949095
 10
-89.5647514516
 20
42.6613847694
 10
-89.5850516244
 20
42.6256863577
 10
-89.6023554607
 20
42.5884406017
 10
-89.6165461823
 20
42.5498988671
 10
-89.6275280191
 20
42.5103212682
 10
-89.6352268567
 20
42.469974913
 10
-89.639590738
 20
42.429132096
  0
LINE
  5
3C8
100
AcDbEntity
  8
ASSI
100
AcDbLine
 62
250
  6
CONTINUOUS
 10
-89.1535146348
 20
42.0965320787
 11
-87.1011881126
 21
42.15027414
  0
LINE
  5
3C9
100
AcDbEntity
  8
ASSI
100
AcDbLine
 62
7
  6
CONTINUOUS
 10
-89.300303685
 20
42.8924141321
 11
-87.1011881126
 21
42.95
  0
LINE
  5
3CA
100
AcDbEntity
  8
ASSI
100
AcDbLine
 62
250
  6
CONTINUOUS
 10
-89.6268373336
 20
42.114906516
 11
-89.1535066214
 21
42.0965322986
  0
LINE
  5
3CB
100
AcDbEntity
  8
ASSI
100
AcDbLine
 62
250
  6
CONTINUOUS
 10
-89.6389598625
 20
42.1154480228
 11
-89.6268373336
 21
42.114906516
  0
LWPOLYLINE
  5
3CC
100
AcDbEntity
  8
0
100
AcDbPolyline
 62
7
  6
CONTINUOUS
 90
13
 70
0
 43
0.3500000006
 10
-88.7080303345
 20
53.4142868042
 10
-88.9937369385
 20
53.6285712891
 10
-88.9937369385
 20
54.2714292755
 10
-88.7080303345
 20
54.6999982452
 10
-88.0651678162
 20
54.6999982452
 10
-87.7794521484
 20
54.2714292755
 10
-87.7794521484
 20
53.6285712891
 10
-88.0651678162
 20
53.4142868042
 10
-87.6365988464
 20
52.9857133026
 10
-87.6365988464
 20
52.1285708313
 10
-88.0651678162
 20
51.7000018616
 10
-88.7080303345
 20
51.7000018616
 10
-89.1365993042
 20
52.1285708313
  0
ARC
  5
3CD
100
AcDbEntity
  8
ASSI
100
AcDbCircle
 62
7
  6
CONTINUOUS
 10
-87.5311881126
 20
-38.6731796621
 40
4.0
100
AcDbArc
 50
276.1712216472
 51
307.4089399316
  0
ARC
  5
3CE
100
AcDbEntity
  8
ASSI
100
AcDbCircle
 62
7
  6
CONTINUOUS
 10
-87.5311881126
 20
38.6731796621
 40
4.0
100
AcDbArc
 50
52.5910594984
 51
83.8287779291
  0
ARC
  5
3CF
100
AcDbEntity
  8
ASSI
100
AcDbCircle
 62
7
  6
CONTINUOUS
 10
-89.2873109326
 20
-42.392582963
 40
0.5
100
AcDbArc
 50
199.494283983
 51
268.5000000007
  0
ARC
  5
3D0
100
AcDbEntity
  8
ASSI
100
AcDbCircle
 62
7
  6
CONTINUOUS
 10
-89.2390425579
 20
42.3938469149
 40
0.5
100
AcDbArc
 50
133.4926414668
 51
165.6333294707
  0
ARC
  5
3D1
100
AcDbEntity
  8
ASSI
100
AcDbCircle
 62
7
  6
CONTINUOUS
 10
-89.2873128978
 20
42.3925829116
 40
0.5
100
AcDbArc
 50
133.4926408233
 51
160.5057576951
  0
ELLIPSE
  5
3D2
100
AcDbEntity
  8
ASSI
100
AcDbEllipse
 62
7
  6
CONTINUOUS
 10
59.149725766
 20
42.149725766
 30
0.0
 11
0.566073184
 21
0.566073184
 31
0.0
 40
0.999315002
 41
-0.7850555471
 42
0.7850555471
  0
ELLIPSE
  5
3D3
100
AcDbEntity
  8
ASSI
100
AcDbEllipse
 62
7
  6
CONTINUOUS
 10
59.149725766
 20
-42.149725766
 30
0.0
 11
0.566073184
 21
-0.566073184
 31
0.0
 40
0.999315002
 41
-0.7850555471
 42
0.7850555471
  0
ELLIPSE
  5
3D4
100
AcDbEntity
  8
ASSI
100
AcDbEllipse
 62
7
  6
CONTINUOUS
 10
-59.149725766
 20
-42.149725766
 30
0.0
 11
0.566073184
 21
0.566073184
 31
0.0
 40
0.999315002
 41
-3.9266482006
 42
-2.3565371065
  0
ELLIPSE
  5
3D5
100
AcDbEntity
  8
ASSI
100
AcDbEllipse
 62
7
  6
CONTINUOUS
 10
-59.149725766
 20
42.149725766
 30
0.0
 11
0.566073184
 21
-0.566073184
 31
0.0
 40
0.999315002
 41
2.3565371065
 42
3.9266482006
  0
ENDSEC
  0
SECTION
  2
OBJECTS
  0
DICTIONARY
  5
C
100
AcDbDictionary
280
0
281
1
  3
ACAD_GROUP
350
D
  3
ACAD_MLINESTYLE
350
17
  3
ACAD_LAYOUT
350
1A
  3
ACAD_PLOTSETTINGS
350
19
  3
ACAD_PLOTSTYLENAME
350
E
  0
DICTIONARY
  5
D
102
{ACAD_REACTORS
330
C
102
}
100
AcDbDictionary
280
0
281
1
  0
ACDBDICTIONARYWDFLT
  5
E
102
{ACAD_REACTORS
330
C
102
}
100
AcDbDictionary
281
1
  3
Normal
350
F
100
AcDbDictionaryWithDefault
340
F
  0
DICTIONARY
  5
17
102
{ACAD_REACTORS
330
C
102
}
100
AcDbDictionary
280
0
281
1
  3
Standard
350
18
  0
DICTIONARY
  5
19
102
{ACAD_REACTORS
330
C
102
}
100
AcDbDictionary
281
1
  0
DICTIONARY
  5
1A
102
{ACAD_REACTORS
330
C
102
}
100
AcDbDictionary
281
1
  3
Model
350
3D6
  3
Layout1
350
3D7
  0
ACDBPLACEHOLDER
  5
F
102
{ACAD_REACTORS
330
E
102
}
  0
MLINESTYLE
  5
18
102
{ACAD_REACTORS
330
17
102
}
100
AcDbMlineStyle
  2
STANDARD
 70
0
  3

 62
256
 51
90.0
 52
90.0
 71
2
 49
0.5
 62
256
  6
BYLAYER
 49
-0.5
 62
256
  6
BYLAYER
  0
LAYOUT
  5
3D6
102
{ACAD_REACTORS
330
1A
102
}
100
AcDbPlotSettings
  1

  2
none_device
  4
ISO_A4_(297.00_x_210.00_MM)
  6

 40
0.0
 41
0.0
 42
0.0
 43
0.0
 44
297.0
 45
210.0
 46
0.0
 47
0.0
 48
0.0
 49
0.0
140
0.0
141
0.0
142
1.0
143
1.0
 70
1024
 72
1
 73
0
 74
0
  7

 75
0
147
1.0
148
0.0
149
0.0
100
AcDbLayout
  1
Model
 70
0
 71
0
 10
0.0
 20
0.0
 11
297.0
 21
210.0
 12
0.0
 22
0.0
 32
0.0
 14
0.0
 24
0.0
 34
0.0
 15
0.0
 25
0.0
 35
0.0
146
0.0
 13
0.0
 23
0.0
 33
0.0
 16
1.0
 26
0.0
 36
0.0
 17
0.0
 27
1.0
 37
0.0
 76
0
330
213
345
0
346
0
  0
LAYOUT
  5
3D7
102
{ACAD_REACTORS
330
1A
102
}
100
AcDbPlotSettings
  1

  2
none_device
  4
ISO_A4_(297.00_x_210.00_MM)
  6

 40
0.0
 41
0.0
 42
0.0
 43
0.0
 44
297.0
 45
210.0
 46
0.0
 47
0.0
 48
0.0
 49
0.0
140
0.0
141
0.0
142
1.0
143
1.0
 70
0
 72
1
 73
0
 74
0
  7

 75
0
147
1.0
148
0.0
149
0.0
100
AcDbLayout
  1
Layout1
 70
0
 71
1
 10
0.0
 20
0.0
 11
297.0
 21
210.0
 12
0.0
 22
0.0
 32
0.0
 14
0.0
 24
0.0
 34
0.0
 15
0.0
 25
0.0
 35
0.0
146
0.0
 13
0.0
 23
0.0
 33
0.0
 16
1.0
 26
0.0
 36
0.0
 17
0.0
 27
1.0
 37
0.0
 76
0
330
214
345
0
346
0
  0
ENDSEC
  0
EOF
