  0
SECTION
  2
HEADER
  9
$ACADVER
  1
AC1024
  9
$DWGCODEPAGE
  3
ANSI_1252
  9
$EXTMAX
 10
297.0
 20
210.0
 30
0.0
  9
$EXTMIN
 10
0.0
 20
0.0
 30
0.0
  9
$LIMMIN
 10
0.0
 20
0.0
  9
$LIMMAX
 10
297.0
 20
210.0
  9
$VIEWCTR
 10
148.5
 20
105.0
  9
$VIEWSIZE
 40
210.0
  9
$CLAYER
  8
0
  9
$LTSCALE
 40
16.335
  9
$CELTYPE
  6
BYLAYER
  9
$DIMSCALE
 40
1.0
  9
$DIMASZ
 40
3.0
  9
$DIMEXO
 40
0.5
  9
$DIMDLI
 40
11.286
  9
$DIMEXE
 40
1.5
  9
$DIMCEN
 40
2.673
  9
$DIMLFAC
 40
1.0
  9
$DIMBLK
  1
_FILLED
  9
$DIMALT
 70
0
  9
$DIMALTF
 40
0.0393700787
  9
$DIMTXT
 40
3.0
  9
$DIMTOL
 70
1
  9
$DIMLIM
 70
0
  9
$DIMTFAC
 40
1.0
  9
$DIMTP
 40
0.01
  9
$DIMTM
 40
0.01
  9
$DIMGAP
 40
0.625
  9
$DIMDSEP
 70
44
  9
$AUNITS
 70
0
  9
$PDMODE
 70
3
  9
$PDSIZE
 40
3.0
  9
$HANDSEED
  5
49C
  9
$TILEMODE
 70
1
  9
$MEASUREMENT
 70
1
  9
$INSUNITS
 70
4
  0
ENDSEC
  0
SECTION
  2
CLASSES
  0
CLASS
  1
ACDBDICTIONARYWDFLT
  2
AcDbDictionaryWithDefault
  3
AutoCAD 2000
 90
0
 91
1
280
0
281
0
  0
CLASS
  1
ACDBPLACEHOLDER
  2
AcDbPlaceHolder
  3
AutoCAD 2000
 90
0
 91
1
280
0
281
0
  0
CLASS
  1
LAYOUT
  2
AcDbLayout
  3
AutoCAD 2000
 90
0
 91
0
280
0
281
0
  0
ENDSEC
  0
SECTION
  2
TABLES
  0
TABLE
  2
VPORT
  5
8
100
AcDbSymbolTable
 70
2
  0
VPORT
  5
1F4
100
AcDbSymbolTableRecord
100
AcDbViewportTableRecord
  2
*ACTIVE
 70
0
 10
0.0
 20
0.0
 11
1.0
 21
1.0
 12
148.5
 22
105.0
 13
0.0
 23
0.0
 14
1.0
 24
1.0
 15
0.0
 25
0.0
 16
0.0
 26
0.0
 36
1.0
 17
0.0
 27
0.0
 37
0.0
 40
210.0
 41
1.4142857143
 42
50.0
 43
0.0
 44
0.0
 50
0.0
 51
0.0
 71
0
 72
100
 73
1
 74
1
 75
0
 76
0
 77
0
 78
0
  0
ENDTAB
  0
TABLE
  2
LTYPE
  5
5
100
AcDbSymbolTable
 70
6
  0
LTYPE
  5
14
100
AcDbSymbolTableRecord
100
AcDbLinetypeTableRecord
  2
BYBLOCK
 70
0
  3

 72
65
 73
0
 40
0.0
  0
LTYPE
  5
15
100
AcDbSymbolTableRecord
100
AcDbLinetypeTableRecord
  2
BYLAYER
 70
0
  3

 72
65
 73
0
 40
0.0
  0
LTYPE
  5
16
100
AcDbSymbolTableRecord
100
AcDbLinetypeTableRecord
  2
CONTINUOUS
 70
64
  3
Solid line
 72
65
 73
0
 40
0.0
  0
LTYPE
  5
1F5
100
AcDbSymbolTableRecord
100
AcDbLinetypeTableRecord
  2
CENTER
 70
64
  3
____ _ ____ _ ____ _ ____ _ ____ _ ____ _ ____
 72
65
 73
4
 40
0.6
 49
0.375
 74
0
 49
-0.075
 74
0
 49
0.075
 74
0
 49
-0.075
 74
0
  0
LTYPE
  5
1F6
100
AcDbSymbolTableRecord
100
AcDbLinetypeTableRecord
  2
HIDDEN
 70
64
  3
- - - - - - - - - - - - - - - - - - - -
 72
65
 73
2
 40
0.2
 49
0.1
 74
0
 49
-0.1
 74
0
  0
LTYPE
  5
1F7
100
AcDbSymbolTableRecord
100
AcDbLinetypeTableRecord
  2
PHANTOM
 70
64
  3
_____ _ _ _____ _ _ _____ _ _ _____
 72
65
 73
6
 40
0.8
 49
0.45
 74
0
 49
-0.05
 74
0
 49
0.1
 74
0
 49
-0.05
 74
0
 49
0.1
 74
0
 49
-0.05
 74
0
  0
LTYPE
  5
1F8
100
AcDbSymbolTableRecord
100
AcDbLinetypeTableRecord
  2
DOT
 70
64
  3
. . . . . . . . . . . . . . . . . . . .
 72
65
 73
2
 40
0.2
 49
0.1
 74
0
 49
-0.1
 74
0
  0
LTYPE
  5
1F9
100
AcDbSymbolTableRecord
100
AcDbLinetypeTableRecord
  2
DASHED
 70
64
  3
- - - - - - - - - - - - - - - - - - - -
 72
65
 73
2
 40
0.2
 49
0.1
 74
0
 49
-0.1
 74
0
  0
ENDTAB
  0
TABLE
  2
LAYER
  5
2
100
AcDbSymbolTable
 70
36
  0
LAYER
  5
10
100
AcDbSymbolTableRecord
100
AcDbLayerTableRecord
  2
0
 70
0
 62
7
  6
CONTINUOUS
370
-3
390
F
  0
LAYER
  5
1FA
100
AcDbSymbolTableRecord
100
AcDbLayerTableRecord
  2
DEFAULT_1
 70
0
 62
7
  6
CENTER
370
-3
390
F
  0
LAYER
  5
1FB
100
AcDbSymbolTableRecord
100
AcDbLayerTableRecord
  2
DEFAULT_2
 70
0
 62
7
  6
HIDDEN
370
-3
390
F
  0
LAYER
  5
1FC
100
AcDbSymbolTableRecord
100
AcDbLayerTableRecord
  2
DEFAULT_3
 70
0
 62
7
  6
PHANTOM
370
-3
390
F
  0
LAYER
  5
1FD
100
AcDbSymbolTableRecord
100
AcDbLayerTableRecord
  2
ASSI
 70
0
 62
7
  6
CONTINUOUS
370
-3
390
F
  0
LAYER
  5
1FE
100
AcDbSymbolTableRecord
100
AcDbLayerTableRecord
  2
COORDINATE
 70
0
 62
7
  6
CONTINUOUS
370
-3
390
F
  0
LAYER
  5
1FF
100
AcDbSymbolTableRecord
100
AcDbLayerTableRecord
  2
COPY_PUBLISH
 70
0
 62
7
  6
CONTINUOUS
370
-3
390
F
  0
LAYER
  5
200
100
AcDbSymbolTableRecord
100
AcDbLayerTableRecord
  2
COSMETICI
 70
0
 62
7
  6
CONTINUOUS
370
-3
390
F
  0
LAYER
  5
201
100
AcDbSymbolTableRecord
100
AcDbLayerTableRecord
  2
CURVE
 70
0
 62
7
  6
CONTINUOUS
370
-3
390
F
  0
LAYER
  5
202
100
AcDbSymbolTableRecord
100
AcDbLayerTableRecord
  2
DRAFT
 70
0
 62
7
  6
CONTINUOUS
370
-3
390
F
  0
LAYER
  5
203
100
AcDbSymbolTableRecord
100
AcDbLayerTableRecord
  2
IMPORT_IGES
 70
0
 62
7
  6
CONTINUOUS
370
-3
390
F
  0
LAYER
  5
204
100
AcDbSymbolTableRecord
100
AcDbLayerTableRecord
  2
INTF_1
 70
0
 62
7
  6
CONTINUOUS
370
-3
390
F
  0
LAYER
  5
205
100
AcDbSymbolTableRecord
100
AcDbLayerTableRecord
  2
INTF_11
 70
0
 62
7
  6
CONTINUOUS
370
-3
390
F
  0
LAYER
  5
206
100
AcDbSymbolTableRecord
100
AcDbLayerTableRecord
  2
NONE
 70
0
 62
7
  6
CONTINUOUS
370
-3
390
F
  0
LAYER
  5
207
100
AcDbSymbolTableRecord
100
AcDbLayerTableRecord
  2
NOTE
 70
0
 62
7
  6
CONTINUOUS
370
-3
390
F
  0
LAYER
  5
208
100
AcDbSymbolTableRecord
100
AcDbLayerTableRecord
  2
PIANI
 70
0
 62
7
  6
CONTINUOUS
370
-3
390
F
  0
LAYER
  5
209
100
AcDbSymbolTableRecord
100
AcDbLayerTableRecord
  2
PUNTI
 70
0
 62
7
  6
CONTINUOUS
370
-3
390
F
  0
LAYER
  5
20A
100
AcDbSymbolTableRecord
100
AcDbLayerTableRecord
  2
RACCORDO
 70
0
 62
7
  6
CONTINUOUS
370
-3
390
F
  0
LAYER
  5
20B
100
AcDbSymbolTableRecord
100
AcDbLayerTableRecord
  2
RGB____0____0____0__
 70
0
 62
7
  6
CONTINUOUS
370
-3
390
F
  0
LAYER
  5
20C
100
AcDbSymbolTableRecord
100
AcDbLayerTableRecord
  2
SIMBOLI
 70
0
 62
7
  6
CONTINUOUS
370
-3
390
F
  0
LAYER
  5
20D
100
AcDbSymbolTableRecord
100
AcDbLayerTableRecord
  2
SMUSSO
 70
0
 62
7
  6
CONTINUOUS
370
-3
390
F
  0
LAYER
  5
20E
100
AcDbSymbolTableRecord
100
AcDbLayerTableRecord
  2
SNAPLINE
 70
0
 62
7
  6
CONTINUOUS
370
-3
390
F
  0
LAYER
  5
20F
100
AcDbSymbolTableRecord
100
AcDbLayerTableRecord
  2
SUPERFICI
 70
0
 62
7
  6
CONTINUOUS
370
-3
390
F
  0
LAYER
  5
210
100
AcDbSymbolTableRecord
100
AcDbLayerTableRecord
  2
TRASH
 70
0
 62
7
  6
CONTINUOUS
370
-3
390
F
  0
ENDTAB
  0
TABLE
  2
STYLE
  5
3
100
AcDbSymbolTable
 70
1
  0
STYLE
  5
11
100
AcDbSymbolTableRecord
100
AcDbTextStyleTableRecord
  2
STANDARD
 70
0
 40
0.0
 41
0.8
 50
0.0
 71
0
 42
0.2
  3
txt
  4

  0
STYLE
  5
211
100
AcDbSymbolTableRecord
100
AcDbTextStyleTableRecord
  2
TEXTSTYLE_1
 70
0
 40
0.0
 41
0.8
 50
0.0
 71
0
 42
0.2
  3
gdt
  4

  0
ENDTAB
  0
TABLE
  2
VIEW
  5
6
100
AcDbSymbolTable
 70
0
  0
ENDTAB
  0
TABLE
  2
UCS
  5
7
100
AcDbSymbolTable
 70
0
  0
ENDTAB
  0
TABLE
  2
APPID
  5
9
100
AcDbSymbolTable
 70
1
  0
APPID
  5
212
100
AcDbSymbolTableRecord
100
AcDbRegAppTableRecord
  2
ACAD
 70
0
  0
ENDTAB
  0
TABLE
  2
BLOCK_RECORD
  5
1
100
AcDbSymbolTable
 70
0
  0
BLOCK_RECORD
  5
213
100
AcDbSymbolTableRecord
100
AcDbBlockTableRecord
  2
*Model_Space
  0
BLOCK_RECORD
  5
214
100
AcDbSymbolTableRecord
100
AcDbBlockTableRecord
  2
*Paper_Space
  0
BLOCK_RECORD
  5
215
100
AcDbSymbolTableRecord
100
AcDbBlockTableRecord
  2
_FILLED
  0
BLOCK_RECORD
  5
216
100
AcDbSymbolTableRecord
100
AcDbBlockTableRecord
  2
*D0
  0
BLOCK_RECORD
  5
217
100
AcDbSymbolTableRecord
100
AcDbBlockTableRecord
  2
*D1
  0
BLOCK_RECORD
  5
218
100
AcDbSymbolTableRecord
100
AcDbBlockTableRecord
  2
*D2
  0
ENDTAB
  0
TABLE
  2
DIMSTYLE
  5
A
100
AcDbSymbolTable
 70
1
100
AcDbDimStyleTable
 71
0
  0
DIMSTYLE
105
219
100
AcDbSymbolTableRecord
100
AcDbDimStyleTableRecord
  2
STANDARD
 70
0
  3

  4

 40
1.0
 41
3.0
 42
0.5
 43
0.38
 44
1.5
 45
0.0
 46
0.0
 47
0.01
 48
0.01
140
3.0
141
0.09
142
0.0
143
25.4
144
1.0
145
0.0
146
1.0
147
0.625
 71
1
 72
0
 73
0
 74
0
 75
0
 76
0
 77
1
 78
8
 79
2
170
0
171
1
172
0
173
0
174
0
175
0
176
0
177
0
178
0
270
2
179
2
271
2
272
2
273
2
274
2
275
0
280
0
281
0
282
0
283
1
284
8
285
0
286
0
287
3
288
0
340
11
278
44
341
215
342
215
343
215
344
215
  0
DIMSTYLE
105
21A
100
AcDbSymbolTableRecord
100
AcDbDimStyleTableRecord
  2
DIMSTYLE_1
 70
0
  3

  4

 40
1.0
 41
3.0
 42
0.5
 43
0.38
 44
1.5
 45
0.0
 46
0.0
 47
0.0
 48
0.0
140
3.0
141
0.09
142
0.0
143
25.4
144
1.0
145
0.0
146
1.0
147
0.75
 71
0
 72
0
 73
0
 74
0
 75
0
 76
0
 77
1
 78
8
 79
2
170
0
171
1
172
0
173
0
174
0
175
0
176
0
177
0
178
0
270
2
179
2
271
0
272
0
273
2
274
2
275
0
280
0
281
0
282
0
283
1
284
8
285
0
286
0
287
3
288
0
340
11
278
44
341
215
342
215
343
215
344
215
  0
DIMSTYLE
105
21B
100
AcDbSymbolTableRecord
100
AcDbDimStyleTableRecord
  2
DIMSTYLE_2
 70
0
  3

  4

 40
1.0
 41
3.0
 42
0.5
 43
0.38
 44
1.5
 45
0.0
 46
0.0
 47
0.0
 48
0.0
140
3.0
141
0.09
142
0.0
143
25.4
144
1.0
145
0.0
146
1.0
147
0.75
 71
0
 72
0
 73
0
 74
0
 75
0
 76
0
 77
1
 78
8
 79
2
170
0
171
1
172
0
173
0
174
0
175
0
176
0
177
0
178
0
270
2
179
2
271
1
272
1
273
2
274
2
275
0
280
0
281
0
282
0
283
1
284
8
285
0
286
0
287
3
288
0
340
11
278
44
341
215
342
215
343
215
344
215
  0
ENDTAB
  0
ENDSEC
  0
SECTION
  2
BLOCKS
  0
BLOCK
  5
20
100
AcDbEntity
  8
0
100
AcDbBlockBegin
  2
*Model_Space
 70
0
 10
0.0
 20
0.0
 30
0.0
  3
*Model_Space
  1

  0
ENDBLK
  5
21
100
AcDbEntity
  8
0
100
AcDbBlockEnd
  0
BLOCK
  5
1C
100
AcDbEntity
  8
0
100
AcDbBlockBegin
  2
*Paper_Space
 70
0
 10
0.0
 20
0.0
 30
0.0
  3
*Paper_Space
  1

  0
ENDBLK
  5
1D
100
AcDbEntity
  8
0
100
AcDbBlockEnd
  0
BLOCK
  5
21C
100
AcDbEntity
  8
0
100
AcDbBlockBegin
  2
_FILLED
 70
64
 10
0.0
 20
0.0
  3
_FILLED
  1

  0
SOLID
  5
21D
100
AcDbEntity
  8
0
  6
BYBLOCK
 62
0
100
AcDbTrace
 10
0.0
 20
0.0
 11
-1.0
 21
0.3166666667
 12
-1.0
 22
-0.3166666667
 13
-1.0
 23
-0.3166666667
  0
ENDBLK
  5
21E
100
AcDbEntity
  8
0
  6
BYBLOCK
 62
0
100
AcDbBlockEnd
  0
BLOCK
  5
21F
100
AcDbEntity
  8
0
100
AcDbBlockBegin
 62
7
  6
CONTINUOUS
  2
*D0
 70
65
 10
0.0
 20
0.0
  3
*D0
  1

  0
LINE
  5
220
100
AcDbEntity
  8
0
100
AcDbLine
 62
7
  6
CONTINUOUS
 10
-59.95
 20
42.65027414
 11
-59.95
 21
52.45
  0
LINE
  5
221
100
AcDbEntity
  8
0
100
AcDbLine
 62
7
  6
CONTINUOUS
 10
59.95
 20
42.65027414
 11
59.95
 21
52.45
  0
LINE
  5
222
100
AcDbEntity
  8
0
100
AcDbLine
 62
7
  6
CONTINUOUS
 10
-59.95
 20
50.95
 11
0.0
 21
50.95
  0
LINE
  5
223
100
AcDbEntity
  8
0
100
AcDbLine
 62
7
  6
CONTINUOUS
 10
59.95
 20
50.95
 11
0.0
 21
50.95
  0
INSERT
  5
224
100
AcDbEntity
  8
0
100
AcDbBlockReference
 62
7
  6
CONTINUOUS
  2
_FILLED
 10
-59.95
 20
50.95
 41
3.0
 42
3.0
 43
3.0
 50
180.0
  0
INSERT
  5
225
100
AcDbEntity
  8
0
100
AcDbBlockReference
 62
7
  6
CONTINUOUS
  2
_FILLED
 10
59.95
 20
50.95
 41
3.0
 42
3.0
 43
3.0
 50
0.0
  0
ENDBLK
  5
226
100
AcDbEntity
  8
0
  6
BYBLOCK
 62
0
100
AcDbBlockEnd
  0
BLOCK
  5
227
100
AcDbEntity
  8
0
100
AcDbBlockBegin
 62
7
  6
CONTINUOUS
  2
*D1
 70
65
 10
0.0
 20
0.0
  3
*D1
  1

  0
LINE
  5
228
100
AcDbEntity
  8
0
100
AcDbLine
 62
7
  6
CONTINUOUS
 10
59.65027414
 20
42.95
 11
69.45
 21
42.95
  0
LINE
  5
229
100
AcDbEntity
  8
0
100
AcDbLine
 62
7
  6
CONTINUOUS
 10
59.65027414
 20
-42.95
 11
69.45
 21
-42.95
  0
LINE
  5
22A
100
AcDbEntity
  8
0
100
AcDbLine
 62
7
  6
CONTINUOUS
 10
67.95
 20
42.95
 11
67.95
 21
0.0
  0
LINE
  5
22B
100
AcDbEntity
  8
0
100
AcDbLine
 62
7
  6
CONTINUOUS
 10
67.95
 20
-42.95
 11
67.95
 21
0.0
  0
INSERT
  5
22C
100
AcDbEntity
  8
0
100
AcDbBlockReference
 62
7
  6
CONTINUOUS
  2
_FILLED
 10
67.95
 20
42.95
 41
3.0
 42
3.0
 43
3.0
 50
90.0
  0
INSERT
  5
22D
100
AcDbEntity
  8
0
100
AcDbBlockReference
 62
7
  6
CONTINUOUS
  2
_FILLED
 10
67.95
 20
-42.95
 41
3.0
 42
3.0
 43
3.0
 50
270.0
  0
ENDBLK
  5
22E
100
AcDbEntity
  8
0
  6
BYBLOCK
 62
0
100
AcDbBlockEnd
  0
BLOCK
  5
22F
100
AcDbEntity
  8
0
100
AcDbBlockBegin
 62
7
  6
CONTINUOUS
  2
*D2
 70
65
 10
0.0
 20
0.0
  3
*D2
  1

  0
LINE
  5
230
100
AcDbEntity
  8
0
100
AcDbLine
 62
7
  6
CONTINUOUS
 10
-77.4726185216
 20
41.953298463
 11
-77.4726184902
 21
52.450000007
  0
LINE
  5
231
100
AcDbEntity
  8
0
100
AcDbLine
 62
7
  6
CONTINUOUS
 10
-86.3656066188
 20
0.5001086694
 11
-86.3656064635
 21
52.4500000336
  0
LINE
  5
232
100
AcDbEntity
  8
0
100
AcDbLine
 62
7
  6
CONTINUOUS
 10
-77.4726184947
 20
50.950000007
 11
-81.9191124813
 21
50.9500000203
  0
LINE
  5
233
100
AcDbEntity
  8
0
100
AcDbLine
 62
7
  6
CONTINUOUS
 10
-81.9191124813
 20
50.9500000203
 11
-68.6885103398
 21
50.95
  0
LINE
  5
234
100
AcDbEntity
  8
0
100
AcDbLine
 62
7
  6
CONTINUOUS
 10
-86.3656064679
 20
50.9500000336
 11
-81.9191124813
 21
50.9500000203
  0
INSERT
  5
235
100
AcDbEntity
  8
0
100
AcDbBlockReference
 62
7
  6
CONTINUOUS
  2
_FILLED
 10
-77.4726184947
 20
50.950000007
 41
3.0
 42
3.0
 43
3.0
 50
359.9999998287
  0
INSERT
  5
236
100
AcDbEntity
  8
0
100
AcDbBlockReference
 62
7
  6
CONTINUOUS
  2
_FILLED
 10
-86.3656064679
 20
50.9500000336
 41
3.0
 42
3.0
 43
3.0
 50
179.9999998287
  0
ENDBLK
  5
237
100
AcDbEntity
  8
0
  6
BYBLOCK
 62
0
100
AcDbBlockEnd
  0
ENDSEC
  0
SECTION
  2
ENTITIES
  0
DIMENSION
  5
238
100
AcDbEntity
  8
0
100
AcDbDimension
 62
7
  6
CONTINUOUS
  2
*D0
 10
59.95
 20
50.95
 11
-3.2142857143
 21
50.95
 70
160
 71
2
 72
2
 41
0.9
 42
119.9
  3
DIMSTYLE_1
100
AcDbAlignedDimension
 13
-59.95
 23
42.15027414
 14
59.95
 24
42.15027414
100
AcDbRotatedDimension
  0
DIMENSION
  5
239
100
AcDbEntity
  8
0
100
AcDbDimension
 62
7
  6
CONTINUOUS
  2
*D1
 10
67.95
 20
-42.95
 11
67.95
 21
-2.3571428571
 70
160
 71
2
 72
2
 41
0.9
 42
85.9
  3
DIMSTYLE_1
100
AcDbAlignedDimension
 13
59.15027414
 23
42.95
 14
59.15027414
 24
-42.95
 50
270.0
100
AcDbRotatedDimension
  0
DIMENSION
  5
23A
100
AcDbEntity
  8
0
100
AcDbDimension
 62
7
  6
CONTINUOUS
  2
*D2
 10
-86.3656064679
 20
50.9500000336
 11
-75.1170817706
 21
50.95
 70
160
 71
1
 72
2
 41
0.9
 42
8.8929879732
  3
DIMSTYLE_2
100
AcDbAlignedDimension
 13
-77.4726185231
 23
41.453298463
 14
-86.3656066203
 24
0.0001086694
 50
179.9999998287
100
AcDbRotatedDimension
  0
LWPOLYLINE
  5
23B
100
AcDbEntity
  8
ASSI
100
AcDbPolyline
 62
250
  6
CONTINUOUS
 90
12
 70
0
 10
-59.0966787846
 20
-42.8964046445
 10
-59.0981463236
 20
-42.8936137022
 10
-59.0996038217
 20
-42.8874220196
 10
-59.1010413064
 20
-42.8778719614
 10
-59.1024489425
 20
-42.8650288702
 10
-59.103817099
 20
-42.8489806195
 10
-59.105136415
 20
-42.829837013
 10
-59.1063978635
 20
-42.8077290327
 10
-59.107592814
 20
-42.7828079424
 10
-59.1087130904
 20
-42.755244253
 10
-59.1097510279
 20
-42.7252265562
 10
-59.110699525
 20
-42.692960234
  0
LWPOLYLINE
  5
23C
100
AcDbEntity
  8
ASSI
100
AcDbPolyline
 62
250
  6
CONTINUOUS
 90
11
 70
0
 10
-59.8964220425
 20
42.0966961825
 10
-59.8936335456
 20
42.0980378218
 10
-59.8874481559
 20
42.099370292
 10
-59.877908146
 20
42.1006844867
 10
-59.8650787148
 20
42.1019714243
 10
-59.8490475416
 20
42.1032223097
 10
-59.8299241875
 20
42.1044285939
 10
-59.8078393462
 20
42.1055820329
 10
-59.7829439509
 20
42.1066747439
 10
-59.7554081428
 20
42.1076992589
 10
-59.7254201082
 20
42.1086485763
  0
LWPOLYLINE
  5
23D
100
AcDbEntity
  8
ASSI
100
AcDbPolyline
 62
250
  6
CONTINUOUS
 90
22
 70
0
 10
-59.4246844118
 20
-42.1126844379
 10
-59.4231539698
 20
-42.1355881419
 10
-59.4199934048
 20
-42.1581453571
 10
-59.4152024865
 20
-42.180355803
 10
-59.4087353598
 20
-42.2023320566
 10
-59.4006374126
 20
-42.2239609726
 10
-59.3910453276
 20
-42.2449037587
 10
-59.3799332181
 20
-42.2651549972
 10
-59.3673266378
 20
-42.2847197283
 10
-59.353439555
 20
-42.3032750224
 10
-59.3382531112
 20
-42.3208035077
 10
-59.3217860412
 20
-42.337322465
 10
-59.3043088592
 20
-42.3525611588
 10
-59.2858040459
 20
-42.3665012702
 10
-59.2662892303
 20
-42.3791613504
 10
-59.2460878052
 20
-42.3903261826
 10
-59.2252054734
 20
-42.3999691039
 10
-59.2036368517
 20
-42.408117306
 10
-59.1816888274
 20
-42.4146365188
 10
-59.1594638624
 20
-42.4194822433
 10
-59.1368599441
 20
-42.4226996899
 10
-59.1138772949
 20
-42.4242892153
  0
LWPOLYLINE
  5
23E
100
AcDbEntity
  8
ASSI
100
AcDbPolyline
 62
250
  6
CONTINUOUS
 90
22
 70
0
 10
-59.8964220425
 20
-42.0966961825
 10
-59.8941795989
 20
-42.156466456
 10
-59.8874772632
 20
-42.2159040309
 10
-59.8763516376
 20
-42.2746767968
 10
-59.8608627214
 20
-42.3324603531
 10
-59.8410969355
 20
-42.3889272134
 10
-59.8171697379
 20
-42.4437496933
 10
-59.789218871
 20
-42.4966184879
 10
-59.7574007008
 20
-42.5472431054
 10
-59.721894883
 20
-42.595341659
 10
-59.682905418
 20
-42.6406423798
 10
-59.6406480443
 20
-42.682898631
 10
-59.5953461284
 20
-42.7218870261
 10
-59.5472464394
 20
-42.7573917204
 10
-59.4966206133
 20
-42.7892088207
 10
-59.4437500601
 20
-42.8171588716
 10
-59.3889248166
 20
-42.8410855507
 10
-59.3324545351
 20
-42.8608507726
 10
-59.2746676511
 20
-42.8763387614
 10
-59.2158919508
 20
-42.887463096
 10
-59.1564516174
 20
-42.8941639073
 10
-59.0966787846
 20
-42.8964046445
  0
LINE
  5
23F
100
AcDbEntity
  8
ASSI
100
AcDbLine
 62
250
  6
CONTINUOUS
 10
-59.4246844118
 20
-42.1126844379
 11
-59.4427371242
 21
-41.3640673913
  0
LINE
  5
240
100
AcDbEntity
  8
ASSI
100
AcDbLine
 62
250
  6
CONTINUOUS
 10
-59.110699525
 20
-42.692960234
 11
-59.1123028959
 21
-42.622578653
  0
LINE
  5
241
100
AcDbEntity
  8
ASSI
100
AcDbLine
 62
250
  6
CONTINUOUS
 10
-59.4427371242
 20
-41.3640673913
 11
-59.4566299865
 21
-40.5563272964
  0
LINE
  5
242
100
AcDbEntity
  8
ASSI
100
AcDbLine
 62
250
  6
CONTINUOUS
 10
-59.1123028959
 20
-42.622578653
 11
-59.1134793972
 21
-42.5460224203
  0
LINE
  5
243
100
AcDbEntity
  8
ASSI
100
AcDbLine
 62
250
  6
CONTINUOUS
 10
-59.4566299865
 20
-40.5563272964
 11
-59.4663962616
 21
-39.6971718923
  0
LWPOLYLINE
  5
244
100
AcDbEntity
  8
ASSI
100
AcDbPolyline
 62
250
  6
CONTINUOUS
 90
3
 70
0
 10
-59.1134793972
 20
-42.5460224203
 10
-59.1141968858
 20
-42.4653831406
 10
-59.1143768676
 20
-42.424218121
  0
LINE
  5
245
100
AcDbEntity
  8
ASSI
100
AcDbLine
 62
250
  6
CONTINUOUS
 10
-59.4663962616
 20
-39.6971718923
 11
-59.4719491759
 21
-38.814049848
  0
LINE
  5
246
100
AcDbEntity
  8
ASSI
100
AcDbLine
 62
250
  6
CONTINUOUS
 10
-59.4719491759
 20
-38.814049848
 11
-59.4745770655
 21
-37.9228197886
  0
LINE
  5
247
100
AcDbEntity
  8
ASSI
100
AcDbLine
 62
250
  6
CONTINUOUS
 10
-59.4899957656
 20
-22.4133412639
 11
-59.496432264
 21
-18.1008445871
  0
LINE
  5
248
100
AcDbEntity
  8
ASSI
100
AcDbLine
 62
250
  6
CONTINUOUS
 10
-59.496432264
 20
-18.1008445871
 11
-59.5011034883
 21
-12.1450576109
  0
LINE
  5
249
100
AcDbEntity
  8
ASSI
100
AcDbLine
 62
7
  6
CONTINUOUS
 10
-59.95
 20
42.15027414
 11
-59.95
 21
-42.15027414
  0
LINE
  5
24A
100
AcDbEntity
  8
ASSI
100
AcDbLine
 62
250
  6
CONTINUOUS
 10
-59.8949878377
 20
38.4712850827
 11
-59.8964218373
 21
42.0966959773
  0
LINE
  5
24B
100
AcDbEntity
  8
ASSI
100
AcDbLine
 62
250
  6
CONTINUOUS
 10
-59.5011034883
 20
-12.1450576109
 11
-59.5033964072
 21
-2.6601917464
  0
LINE
  5
24C
100
AcDbEntity
  8
ASSI
100
AcDbLine
 62
250
  6
CONTINUOUS
 10
-59.5033964072
 20
-2.6601917464
 11
-59.5016213954
 21
11.0075214783
  0
LWPOLYLINE
  5
24D
100
AcDbEntity
  8
ASSI
100
AcDbPolyline
 62
250
  6
CONTINUOUS
 90
3
 70
0
 10
-59.4745770655
 20
-37.9228197886
 10
-59.4741847849
 20
-34.6615076755
 10
-59.4899957656
 20
-22.4133412639
  0
LINE
  5
24E
100
AcDbEntity
  8
ASSI
100
AcDbLine
 62
250
  6
CONTINUOUS
 10
-59.8964217558
 20
-42.0966958958
 11
-59.8949878377
 21
38.4712850827
  0
LINE
  5
24F
100
AcDbEntity
  8
ASSI
100
AcDbLine
 62
250
  6
CONTINUOUS
 10
-59.5016213954
 20
11.0075214783
 11
-59.4964172321
 21
18.1152276785
  0
LINE
  5
250
100
AcDbEntity
  8
ASSI
100
AcDbLine
 62
250
  6
CONTINUOUS
 10
-59.4964172321
 20
18.1152276785
 11
-59.4866753286
 21
24.046642861
  0
LINE
  5
251
100
AcDbEntity
  8
ASSI
100
AcDbLine
 62
250
  6
CONTINUOUS
 10
-59.4866753286
 20
24.046642861
 11
-59.4755859635
 21
28.9969083752
  0
LINE
  5
252
100
AcDbEntity
  8
ASSI
100
AcDbLine
 62
250
  6
CONTINUOUS
 10
-59.4755859635
 20
28.9969083752
 11
-59.4722441237
 21
38.7615087007
  0
LINE
  5
253
100
AcDbEntity
  8
ASSI
100
AcDbLine
 62
250
  6
CONTINUOUS
 10
-59.4722441237
 20
38.7615087007
 11
-59.4674415333
 21
39.5709858492
  0
LINE
  5
254
100
AcDbEntity
  8
ASSI
100
AcDbLine
 62
250
  6
CONTINUOUS
 10
-59.1143769322
 20
42.4242180662
 11
-59.1138971068
 21
42.506077665
  0
LINE
  5
255
100
AcDbEntity
  8
ASSI
100
AcDbLine
 62
250
  6
CONTINUOUS
 10
-59.4674415333
 20
39.5709858492
 11
-59.4600476756
 21
40.304115783
  0
LINE
  5
256
100
AcDbEntity
  8
ASSI
100
AcDbLine
 62
250
  6
CONTINUOUS
 10
-59.1138971068
 20
42.506077665
 11
-59.1129468553
 21
42.5849454545
  0
LINE
  5
257
100
AcDbEntity
  8
ASSI
100
AcDbLine
 62
250
  6
CONTINUOUS
 10
-59.4600476756
 20
40.304115783
 11
-59.4502344486
 21
40.967034796
  0
LWPOLYLINE
  5
258
100
AcDbEntity
  8
ASSI
100
AcDbPolyline
 62
250
  6
CONTINUOUS
 90
14
 70
0
 10
-59.1129468553
 20
42.5849454545
 10
-59.1115521407
 20
42.6586666854
 10
-59.1106995694
 20
42.6929609113
 10
-59.1097510679
 20
42.725227261
 10
-59.1087131257
 20
42.7552449669
 10
-59.1075928444
 20
42.7828086468
 10
-59.1063978893
 20
42.8077297087
 10
-59.105136436
 20
42.8298376417
 10
-59.1038171135
 20
42.8489812103
 10
-59.1024489506
 20
42.8650293957
 10
-59.1010413149
 20
42.877872342
 10
-59.0996038403
 20
42.8874222116
 10
-59.0981463601
 20
42.8936137351
 10
-59.0966788467
 20
42.8964045988
  0
LINE
  5
259
100
AcDbEntity
  8
ASSI
100
AcDbLine
 62
250
  6
CONTINUOUS
 10
-59.4502344486
 20
40.967034796
 11
-59.4383526102
 21
41.5657577948
  0
LINE
  5
25A
100
AcDbEntity
  8
ASSI
100
AcDbLine
 62
250
  6
CONTINUOUS
 10
-59.4383526102
 20
41.5657577948
 11
-59.4246668267
 21
42.1128099759
  0
LWPOLYLINE
  5
25B
100
AcDbEntity
  8
ASSI
100
AcDbPolyline
 62
250
  6
CONTINUOUS
 90
22
 70
0
 10
59.1138067616
 20
-42.4242992519
 10
59.1368205406
 20
-42.4227052407
 10
59.1594476404
 20
-42.4194845333
 10
59.1816878388
 20
-42.4146367733
 10
59.2036404202
 20
-42.4081171774
 10
59.2252056522
 20
-42.3999698187
 10
59.2460848337
 20
-42.3903276873
 10
59.2662861421
 20
-42.3791631555
 10
59.2858010802
 20
-42.366503322
 10
59.3043060576
 20
-42.3525634309
 10
59.321783385
 20
-42.3373249448
 10
59.3382506419
 20
-42.3208061687
 10
59.3534372976
 20
-42.3032778237
 10
59.3673246026
 20
-42.2847226896
 10
59.37993143
 20
-42.2651580776
 10
59.3910438385
 20
-42.2449067214
 10
59.4006374295
 20
-42.2239556125
 10
59.4087369341
 20
-42.202318136
 10
59.4152022337
 20
-42.1803567955
 10
59.419986797
 20
-42.1581926434
 10
59.4231376258
 20
-42.1357052016
 10
59.4246549512
 20
-42.1128947522
  0
LWPOLYLINE
  5
25C
100
AcDbEntity
  8
ASSI
100
AcDbPolyline
 62
250
  6
CONTINUOUS
 90
22
 70
0
 10
59.0966787846
 20
-42.8964046445
 10
59.1564510926
 20
-42.8941639465
 10
59.2158905496
 20
-42.8874633072
 10
59.2746650459
 20
-42.8763393561
 10
59.3324501303
 20
-42.8608521317
 10
59.3889183828
 20
-42.8410880766
 10
59.4437422891
 20
-42.8171626149
 10
59.4966125918
 20
-42.7892134528
 10
59.547238746
 20
-42.7573969665
 10
59.5953388698
 20
-42.7218928153
 10
59.64064119
 20
-42.682904991
 10
59.6828990648
 20
-42.6406492263
 10
59.7218891104
 20
-42.5953488963
 10
59.7573954761
 20
-42.5472507667
 10
59.7892142618
 20
-42.4966264691
 10
59.8171660144
 20
-42.4437574225
 10
59.8410944213
 20
-42.3889336167
 10
59.8608613654
 20
-42.3324647472
 10
59.8763510418
 20
-42.274679406
 10
59.8874770507
 20
-42.2159054408
 10
59.8941795591
 20
-42.1564669882
 10
59.8964220425
 20
-42.0966961825
  0
LINE
  5
25D
100
AcDbEntity
  8
ASSI
100
AcDbLine
 62
250
  6
CONTINUOUS
 10
59.1138067616
 20
-42.4242992519
 11
58.0827681959
 21
-42.4520164795
  0
LINE
  5
25E
100
AcDbEntity
  8
ASSI
100
AcDbLine
 62
250
  6
CONTINUOUS
 10
58.0827681959
 20
-42.4520164795
 11
56.9765826466
 21
-42.4758393062
  0
LINE
  5
25F
100
AcDbEntity
  8
ASSI
100
AcDbLine
 62
250
  6
CONTINUOUS
 10
-56.956845429
 20
-42.4762397329
 11
-58.0726911924
 21
-42.4522630701
  0
LINE
  5
260
100
AcDbEntity
  8
ASSI
100
AcDbLine
 62
250
  6
CONTINUOUS
 10
-58.0726911924
 20
-42.4522630701
 11
-59.1138772949
 21
-42.4242892153
  0
LWPOLYLINE
  5
261
100
AcDbEntity
  8
0
100
AcDbPolyline
 62
7
  6
CONTINUOUS
 90
3
 70
0
 43
0.3500000006
 10
-3.2142856836
 20
53.8428557739
 10
-2.3571427875
 20
54.6999982452
 10
-2.3571427875
 20
51.7000018616
  0
LINE
  5
262
100
AcDbEntity
  8
ASSI
100
AcDbLine
 62
250
  6
CONTINUOUS
 10
59.6931847929
 20
-42.1095162082
 11
59.6228673877
 21
-42.1109832956
  0
LINE
  5
263
100
AcDbEntity
  8
ASSI
100
AcDbLine
 62
250
  6
CONTINUOUS
 10
56.9765826466
 20
-42.4758393062
 11
55.8070809343
 21
-42.4954777905
  0
LINE
  5
264
100
AcDbEntity
  8
ASSI
100
AcDbLine
 62
250
  6
CONTINUOUS
 10
59.6228673877
 20
-42.1109832956
 11
59.5463749075
 21
-42.112060484
  0
LINE
  5
265
100
AcDbEntity
  8
ASSI
100
AcDbLine
 62
250
  6
CONTINUOUS
 10
55.8070809343
 20
-42.4954777905
 11
54.6172102186
 21
-42.509844127
  0
LINE
  5
266
100
AcDbEntity
  8
ASSI
100
AcDbLine
 62
250
  6
CONTINUOUS
 10
54.6172102186
 20
-42.509844127
 11
53.4265795644
 21
-42.5197570921
  0
LWPOLYLINE
  5
267
100
AcDbEntity
  8
ASSI
100
AcDbPolyline
 62
250
  6
CONTINUOUS
 90
3
 70
0
 10
59.5463749075
 20
-42.112060484
 10
59.4657948514
 20
-42.1127183767
 10
59.4246564555
 20
-42.1128840139
  0
LINE
  5
268
100
AcDbEntity
  8
ASSI
100
AcDbLine
 62
250
  6
CONTINUOUS
 10
53.4265795644
 20
-42.5197570921
 11
52.2361505441
 21
-42.5257317156
  0
LINE
  5
269
100
AcDbEntity
  8
ASSI
100
AcDbLine
 62
250
  6
CONTINUOUS
 10
52.2361505441
 20
-42.5257317156
 11
51.0277173049
 21
-42.5288664804
  0
LINE
  5
26A
100
AcDbEntity
  8
ASSI
100
AcDbLine
 62
250
  6
CONTINUOUS
 10
31.3784845007
 20
-42.5410406751
 11
27.7645305677
 21
-42.5467711294
  0
LINE
  5
26B
100
AcDbEntity
  8
ASSI
100
AcDbLine
 62
250
  6
CONTINUOUS
 10
41.4731807416
 20
-42.5188307743
 11
31.3784845007
 21
-42.5410406751
  0
LINE
  5
26C
100
AcDbEntity
  8
ASSI
100
AcDbLine
 62
250
  6
CONTINUOUS
 10
27.7645305677
 20
-42.5467711294
 11
23.7881360113
 21
-42.550261117
  0
LINE
  5
26D
100
AcDbEntity
  8
ASSI
100
AcDbLine
 62
250
  6
CONTINUOUS
 10
-42.0740393614
 20
-42.5185898523
 11
-48.8652306381
 21
-42.52915023
  0
LINE
  5
26E
100
AcDbEntity
  8
ASSI
100
AcDbLine
 62
7
  6
CONTINUOUS
 10
-59.15027414
 20
-42.95
 11
59.15027414
 21
-42.95
  0
LINE
  5
26F
100
AcDbEntity
  8
ASSI
100
AcDbLine
 62
250
  6
CONTINUOUS
 10
-44.9782428379
 20
-42.8935348808
 11
-59.0966784015
 21
-42.8964042615
  0
LINE
  5
270
100
AcDbEntity
  8
ASSI
100
AcDbLine
 62
250
  6
CONTINUOUS
 10
23.7881360113
 20
-42.550261117
 11
16.2832993898
 21
-42.551395957
  0
LINE
  5
271
100
AcDbEntity
  8
ASSI
100
AcDbLine
 62
250
  6
CONTINUOUS
 10
51.0277173049
 20
-42.5288664804
 11
49.1219815332
 21
-42.529371697
  0
LINE
  5
272
100
AcDbEntity
  8
ASSI
100
AcDbLine
 62
250
  6
CONTINUOUS
 10
57.528467708
 20
-42.8951835864
 11
-44.9782428379
 21
-42.8935348808
  0
LINE
  5
273
100
AcDbEntity
  8
ASSI
100
AcDbLine
 62
250
  6
CONTINUOUS
 10
16.2832993898
 20
-42.551395957
 11
-25.48145443
 21
-42.5491084387
  0
LINE
  5
274
100
AcDbEntity
  8
ASSI
100
AcDbLine
 62
250
  6
CONTINUOUS
 10
-48.8652306381
 20
-42.52915023
 11
-50.7295546801
 21
-42.5292546029
  0
LWPOLYLINE
  5
275
100
AcDbEntity
  8
ASSI
100
AcDbPolyline
 62
250
  6
CONTINUOUS
 90
3
 70
0
 10
59.0966780664
 20
-42.8964039264
 10
58.5917953261
 20
-42.8959606448
 10
57.528467708
 20
-42.8951835864
  0
LINE
  5
276
100
AcDbEntity
  8
ASSI
100
AcDbLine
 62
250
  6
CONTINUOUS
 10
-25.48145443
 20
-42.5491084387
 11
-30.1258830863
 21
-42.5433218439
  0
LINE
  5
277
100
AcDbEntity
  8
ASSI
100
AcDbLine
 62
250
  6
CONTINUOUS
 10
44.8026952019
 20
-42.5213678404
 11
41.4731807416
 21
-42.5188307743
  0
LINE
  5
278
100
AcDbEntity
  8
ASSI
100
AcDbLine
 62
250
  6
CONTINUOUS
 10
49.1219815332
 20
-42.529371697
 11
44.8026952019
 21
-42.5213678404
  0
LINE
  5
279
100
AcDbEntity
  8
ASSI
100
AcDbLine
 62
250
  6
CONTINUOUS
 10
-30.1258830863
 20
-42.5433218439
 11
-34.2752431602
 21
-42.5345646147
  0
LINE
  5
27A
100
AcDbEntity
  8
ASSI
100
AcDbLine
 62
250
  6
CONTINUOUS
 10
-37.9823553408
 20
-42.5247596901
 11
-42.0740393614
 21
-42.5185898523
  0
LINE
  5
27B
100
AcDbEntity
  8
ASSI
100
AcDbLine
 62
250
  6
CONTINUOUS
 10
-50.7295546801
 20
-42.5292546029
 11
-51.9877846689
 21
-42.5265910606
  0
LINE
  5
27C
100
AcDbEntity
  8
ASSI
100
AcDbLine
 62
250
  6
CONTINUOUS
 10
-34.2752431602
 20
-42.5345646147
 11
-37.9823553408
 21
-42.5247596901
  0
LINE
  5
27D
100
AcDbEntity
  8
ASSI
100
AcDbLine
 62
250
  6
CONTINUOUS
 10
-51.9877846689
 20
-42.5265910606
 11
-53.2637699002
 21
-42.5207594815
  0
LINE
  5
27E
100
AcDbEntity
  8
ASSI
100
AcDbLine
 62
250
  6
CONTINUOUS
 10
-59.424656368
 20
-42.1128841057
 11
-59.5064606634
 21
-42.112443328
  0
LINE
  5
27F
100
AcDbEntity
  8
ASSI
100
AcDbLine
 62
250
  6
CONTINUOUS
 10
-53.2637699002
 20
-42.5207594815
 11
-54.5304116432
 21
-42.5106887726
  0
LINE
  5
280
100
AcDbEntity
  8
ASSI
100
AcDbLine
 62
250
  6
CONTINUOUS
 10
-59.5064606634
 20
-42.112443328
 11
-59.5852665109
 21
-42.1115728059
  0
LINE
  5
281
100
AcDbEntity
  8
ASSI
100
AcDbLine
 62
250
  6
CONTINUOUS
 10
-54.5304116432
 20
-42.5106887726
 11
-55.7713825944
 21
-42.495986761
  0
LINE
  5
282
100
AcDbEntity
  8
ASSI
100
AcDbLine
 62
250
  6
CONTINUOUS
 10
-55.7713825944
 20
-42.495986761
 11
-56.956845429
 21
-42.4762397329
  0
LWPOLYLINE
  5
283
100
AcDbEntity
  8
ASSI
100
AcDbPolyline
 62
250
  6
CONTINUOUS
 90
14
 70
0
 10
-59.5852665109
 20
-42.1115728059
 10
-59.6589233017
 20
-42.1102962976
 10
-59.6931856558
 20
-42.1095162757
 10
-59.7254210139
 20
-42.1086486382
 10
-59.7554090702
 20
-42.1076993148
 10
-59.7829448778
 20
-42.1066747934
 10
-59.8078402485
 20
-42.1055820758
 10
-59.8299250401
 20
-42.1044286301
 10
-59.8490483611
 20
-42.1032223362
 10
-59.8650794593
 20
-42.101971441
 10
-59.8779086916
 20
-42.100684503
 10
-59.8874484313
 20
-42.0993703214
 10
-59.8936335903
 20
-42.0980378748
 10
-59.8964219726
 20
-42.0966962694
  0
LWPOLYLINE
  5
284
100
AcDbEntity
  8
0
100
AcDbPolyline
 62
7
  6
CONTINUOUS
 90
25
 70
0
 10
2.9643025021
 20
-25.5096494116
 10
3.0177601335
 20
-25.5019435348
 10
3.0711798708
 20
-25.4945937671
 10
3.1245538135
 20
-25.4876505516
 10
3.1778308011
 20
-25.4811686421
 10
3.2310464075
 20
-25.4751910292
 10
3.284323478
 20
-25.4697531363
 10
3.3376686607
 20
-25.4649055882
 10
3.3910611744
 20
-25.4607016815
 10
3.444583429
 20
-25.4571879755
 10
3.4982362762
 20
-25.4544198324
 10
3.5520049435
 20
-25.4524540695
 10
3.6059486098
 20
-25.4513466609
 10
3.6601161428
 20
-25.4511587062
 10
3.7144443336
 20
-25.4519537265
 10
3.768824134
 20
-25.4537901425
 10
3.8232006656
 20
-25.4567224055
 10
3.877613921
 20
-25.4608093389
 10
3.9320754309
 20
-25.4661423038
 10
3.9865328436
 20
-25.4729260941
 10
4.040800473
 20
-25.481379855
 10
4.094620818
 20
-25.4917029183
 10
4.1478247892
 20
-25.5040973831
 10
4.2003289521
 20
-25.5187821226
 10
4.2520075265
 20
-25.5359677442
  0
LWPOLYLINE
  5
285
100
AcDbEntity
  8
0
100
AcDbPolyline
 62
7
  6
CONTINUOUS
 90
31
 70
0
 10
3.7648934314
 20
-26.5925250773
 10
3.7859362169
 20
-26.5917852893
 10
3.8070876534
 20
-26.5904724576
 10
3.8282495871
 20
-26.5885436667
 10
3.849264915
 20
-26.5859665501
 10
3.8701051723
 20
-26.5826975683
 10
3.8908677448
 20
-26.5786601159
 10
3.9114618282
 20
-26.5737965518
 10
3.9317942108
 20
-26.5680485412
 10
3.951944227
 20
-26.5612936375
 10
3.9718998916
 20
-26.5534024923
 10
3.9914383271
 20
-26.5443148264
 10
4.0103159722
 20
-26.5340036731
 10
4.0284367595
 20
-26.522379083
 10
4.045660181
 20
-26.5093735273
 10
4.0617210995
 20
-26.4950627046
 10
4.0765723592
 20
-26.4795537496
 10
4.0902621916
 20
-26.4629549848
 10
4.1027590437
 20
-26.4454708122
 10
4.1140769665
 20
-26.4272669439
 10
4.1242646149
 20
-26.4084500159
 10
4.13335403
 20
-26.3891391344
 10
4.141352622
 20
-26.3695078165
 10
4.148314137
 20
-26.3496168028
 10
4.1543137973
 20
-26.3293967639
 10
4.159351108
 20
-26.3089576312
 10
4.1634328281
 20
-26.2883820965
 10
4.166589673
 20
-26.2675461048
 10
4.168799434
 20
-26.2464749102
 10
4.170020824
 20
-26.22534682
 10
4.170225122
 20
-26.2042730878
  0
LINE
  5
286
100
AcDbEntity
  8
0
100
AcDbLine
 62
7
  6
CONTINUOUS
 10
4.7849537607
 20
-27.9801797807
 11
4.2830496624
 21
-27.9801797807
  0
LINE
  5
287
100
AcDbEntity
  8
0
100
AcDbLine
 62
7
  6
CONTINUOUS
 10
3.4839958436
 20
-27.9801797807
 11
2.9643025021
 21
-27.9801797807
  0
LINE
  5
288
100
AcDbEntity
  8
0
100
AcDbLine
 62
7
  6
CONTINUOUS
 10
2.811079
 20
-27.98018
 11
2.261131
 21
-27.98018
  0
LINE
  5
289
100
AcDbEntity
  8
0
100
AcDbLine
 62
7
  6
CONTINUOUS
 10
1.271381
 20
-27.98018
 11
0.75525
 21
-27.98018
  0
LINE
  5
28A
100
AcDbEntity
  8
0
100
AcDbLine
 62
7
  6
CONTINUOUS
 10
0.673314
 20
-27.98018
 11
0.162862
 21
-27.98018
  0
LINE
  5
28B
100
AcDbEntity
  8
0
100
AcDbLine
 62
7
  6
CONTINUOUS
 10
-0.564753
 20
-27.98018
 11
-0.637935
 21
-27.98018
  0
LINE
  5
28C
100
AcDbEntity
  8
0
100
AcDbLine
 62
7
  6
CONTINUOUS
 10
-1.362664
 20
-27.98018
 11
-1.86185
 21
-27.98018
  0
LINE
  5
28D
100
AcDbEntity
  8
0
100
AcDbLine
 62
7
  6
CONTINUOUS
 10
-2.142747
 20
-27.98018
 11
-2.66454
 21
-27.98018
  0
LINE
  5
28E
100
AcDbEntity
  8
0
100
AcDbLine
 62
7
  6
CONTINUOUS
 10
-3.661694
 20
-27.98018
 11
-4.121524
 21
-27.98018
  0
LINE
  5
28F
100
AcDbEntity
  8
0
100
AcDbLine
 62
7
  6
CONTINUOUS
 10
2.125959
 20
-27.481144
 11
1.415364
 21
-27.481144
  0
LINE
  5
290
100
AcDbEntity
  8
0
100
AcDbLine
 62
7
  6
CONTINUOUS
 10
1.522099
 20
-27.094992
 11
2.021679
 21
-27.094992
  0
LINE
  5
291
100
AcDbEntity
  8
0
100
AcDbLine
 62
7
  6
CONTINUOUS
 10
3.7637687163
 20
-27.0019213614
 11
3.4839958436
 21
-27.0019213614
  0
LINE
  5
292
100
AcDbEntity
  8
0
100
AcDbLine
 62
7
  6
CONTINUOUS
 10
3.4666939769
 20
-26.5925250773
 11
3.7648934314
 21
-26.5925250773
  0
LINE
  5
293
100
AcDbEntity
  8
0
100
AcDbLine
 62
7
  6
CONTINUOUS
 10
-4.913989
 20
-25.480444
 11
-4.347161
 21
-25.480444
  0
LINE
  5
294
100
AcDbEntity
  8
0
100
AcDbLine
 62
7
  6
CONTINUOUS
 10
-3.379615
 20
-25.480444
 11
-2.858179
 21
-25.480444
  0
LINE
  5
295
100
AcDbEntity
  8
0
100
AcDbLine
 62
7
  6
CONTINUOUS
 10
-1.636138
 20
-25.480444
 11
-1.114777
 21
-25.480444
  0
LINE
  5
296
100
AcDbEntity
  8
0
100
AcDbLine
 62
7
  6
CONTINUOUS
 10
-0.076702
 20
-25.480444
 11
0.439561
 21
-25.480444
  0
LINE
  5
297
100
AcDbEntity
  8
0
100
AcDbLine
 62
7
  6
CONTINUOUS
 10
1.539326
 20
-25.480444
 11
2.044098
 21
-25.480444
  0
LINE
  5
298
100
AcDbEntity
  8
0
100
AcDbLine
 62
7
  6
CONTINUOUS
 10
-2.66454
 20
-25.480294
 11
-2.142747
 21
-25.480294
  0
LWPOLYLINE
  5
299
100
AcDbEntity
  8
0
100
AcDbPolyline
 62
7
  6
CONTINUOUS
 90
10
 70
0
 10
3.8754584185
 20
-25.891582365
 10
3.8316902806
 20
-25.8872386482
 10
3.7873709855
 20
-25.8843228155
 10
3.7425650784
 20
-25.8828716881
 10
3.6973631212
 20
-25.8829219536
 10
3.6518141927
 20
-25.884509851
 10
3.6059263169
 20
-25.8876787891
 10
3.5597561455
 20
-25.892473439
 10
3.5133587786
 20
-25.8987887918
 10
3.4666939769
 20
-25.906298925
  0
LWPOLYLINE
  5
29A
100
AcDbEntity
  8
RACCORDO
100
AcDbPolyline
 62
250
  6
CONTINUOUS
 90
16
 70
0
 10
-11.8336630094
 20
-22.3031879461
 10
-11.8037972482
 20
-22.3029391921
 10
-11.7741942255
 20
-22.3024956215
 10
-11.7451477739
 20
-22.3018616371
 10
-11.7169462012
 20
-22.3010435318
 10
-11.6898694295
 20
-22.3000494259
 10
-11.6641862163
 20
-22.2988891865
 10
-11.6401514869
 20
-22.2975743299
 10
-11.6180038041
 20
-22.2961179072
 10
-11.5979630005
 20
-22.2945343744
 10
-11.5802279962
 20
-22.2928394492
 10
-11.5649748244
 20
-22.2910499551
 10
-11.5523548845
 20
-22.2891836542
 10
-11.5424934387
 20
-22.287259071
 10
-11.5354883693
 20
-22.2852953083
 10
-11.5314092069
 20
-22.2833118579
  0
LINE
  5
29B
100
AcDbEntity
  8
RACCORDO
100
AcDbLine
 62
250
  6
CONTINUOUS
 10
11.0320717808
 20
-23.0982553328
 11
4.9200658247
 21
-23.1035005799
  0
LINE
  5
29C
100
AcDbEntity
  8
RACCORDO
100
AcDbLine
 62
250
  6
CONTINUOUS
 10
11.0291830013
 20
-22.7772803504
 11
4.9187955317
 21
-22.7809653225
  0
LINE
  5
29D
100
AcDbEntity
  8
RACCORDO
100
AcDbLine
 62
250
  6
CONTINUOUS
 10
4.9187955317
 20
-22.7809653225
 11
-1.2338319644
 21
-22.7818131845
  0
LINE
  5
29E
100
AcDbEntity
  8
RACCORDO
100
AcDbLine
 62
7
  6
CONTINUOUS
 10
-10.851902651
 20
-22.6
 11
10.851902651
 21
-22.6
  0
LINE
  5
29F
100
AcDbEntity
  8
RACCORDO
100
AcDbLine
 62
250
  6
CONTINUOUS
 10
4.9200658247
 20
-23.1035005799
 11
-1.2341479537
 21
-23.1047153778
  0
LINE
  5
2A0
100
AcDbEntity
  8
RACCORDO
100
AcDbLine
 62
250
  6
CONTINUOUS
 10
-1.2338319644
 20
-22.7818131845
 11
-9.8120854782
 21
-22.77824408
  0
LINE
  5
2A1
100
AcDbEntity
  8
RACCORDO
100
AcDbLine
 62
250
  6
CONTINUOUS
 10
-9.8120854782
 20
-22.77824408
 11
-11.0291830013
 21
-22.7772803504
  0
LINE
  5
2A2
100
AcDbEntity
  8
RACCORDO
100
AcDbLine
 62
250
  6
CONTINUOUS
 10
-1.2341479537
 20
-23.1047153778
 11
-11.0320717808
 21
-23.0982553328
  0
LWPOLYLINE
  5
2A3
100
AcDbEntity
  8
RACCORDO
100
AcDbPolyline
 62
250
  6
CONTINUOUS
 90
16
 70
0
 10
11.8336630093
 20
-22.3031879466
 10
11.803796708
 20
-22.3029391863
 10
11.7741932464
 20
-22.3024956039
 10
11.7451464668
 20
-22.3018616042
 10
11.716944684
 20
-22.3010434822
 10
11.6898678157
 20
-22.3000493601
 10
11.6641846052
 20
-22.2988891063
 10
11.6401499694
 20
-22.2975742389
 10
11.6180024546
 20
-22.29611781
 10
11.5979618651
 20
-22.2945342759
 10
11.5802271078
 20
-22.2928393555
 10
11.5649741905
 20
-22.2910498722
 10
11.5523544758
 20
-22.2891835856
 10
11.5424932116
 20
-22.2872590191
 10
11.5354882766
 20
-22.2852952759
 10
11.5314091919
 20
-22.2833118473
  0
LWPOLYLINE
  5
2A4
100
AcDbEntity
  8
RACCORDO
100
AcDbPolyline
 62
250
  6
CONTINUOUS
 90
25
 70
0
 10
-11.0291829443
 20
-22.7772802934
 10
-11.062085496
 20
-22.7763202896
 10
-11.0947175889
 20
-22.7732434758
 10
-11.1269445532
 20
-22.7680881087
 10
-11.1585917268
 20
-22.760914021
 10
-11.1895793073
 20
-22.7517681142
 10
-11.2199141375
 20
-22.7406551974
 10
-11.2495182111
 20
-22.7275964934
 10
-11.2782181481
 20
-22.7126609999
 10
-11.3058757374
 20
-22.6959143509
 10
-11.332382103
 20
-22.6774228106
 10
-11.3576220285
 20
-22.6572679488
 10
-11.3814609668
 20
-22.6355576174
 10
-11.4037895707
 20
-22.6124051023
 10
-11.424539341
 20
-22.5878969833
 10
-11.4436467561
 20
-22.5621108321
 10
-11.4609827109
 20
-22.5352404374
 10
-11.4765394115
 20
-22.5073179738
 10
-11.4903851166
 20
-22.4781510196
 10
-11.5024532169
 20
-22.4477003451
 10
-11.5125662622
 20
-22.4162017438
 10
-11.5205951818
 20
-22.3838668544
 10
-11.5264538866
 20
-22.3508601819
 10
-11.5300796846
 20
-22.3172923392
 10
-11.5314091897
 20
-22.2833118406
  0
LWPOLYLINE
  5
2A5
100
AcDbEntity
  8
RACCORDO
100
AcDbPolyline
 62
250
  6
CONTINUOUS
 90
25
 70
0
 10
-11.0320717808
 20
-23.0982553328
 10
-11.0848669056
 20
-23.0963611307
 10
-11.1368170263
 20
-23.0912221554
 10
-11.1879221426
 20
-23.0828384068
 10
-11.2383130503
 20
-23.0711538488
 10
-11.2878589537
 20
-23.0562245176
 10
-11.3361674662
 20
-23.0382185217
 10
-11.3833066727
 20
-23.0170904133
 10
-11.4292084883
 20
-22.9928856401
 10
-11.4732762718
 20
-22.965908654
 10
-11.5154897049
 20
-22.9361100754
 10
-11.555869106
 20
-22.9035392838
 10
-11.5938787894
 20
-22.8686488689
 10
-11.6294612211
 20
-22.831436069
 10
-11.6626739351
 20
-22.7919036459
 10
-11.6931538475
 20
-22.7505124744
 10
-11.7208437004
 20
-22.7074045769
 10
-11.7458007517
 20
-22.6624379311
 10
-11.7678336908
 20
-22.6156473451
 10
-11.7870483526
 20
-22.566803042
 10
-11.8033389023
 20
-22.5161347988
 10
-11.8161965243
 20
-22.4643667537
 10
-11.8254516136
 20
-22.4117402863
 10
-11.8312737753
 20
-22.3580140171
 10
-11.8336630094
 20
-22.3031879461
  0
LWPOLYLINE
  5
2A6
100
AcDbEntity
  8
0
100
AcDbPolyline
 62
7
  6
CONTINUOUS
 90
58
 70
0
 10
4.2520075265
 20
-25.5359677442
 10
4.2818728795
 20
-25.5480980961
 10
4.3120875225
 20
-25.5630761312
 10
4.3425304076
 20
-25.5808140952
 10
4.3730116912
 20
-25.6010957581
 10
4.4034360798
 20
-25.6238688944
 10
4.4337474393
 20
-25.649409292
 10
4.4638097505
 20
-25.678038444
 10
4.4931199714
 20
-25.7097754037
 10
4.521057982
 20
-25.744399394
 10
4.5475325099
 20
-25.7822224554
 10
4.5719431022
 20
-25.8228690447
 10
4.5932377465
 20
-25.864751686
 10
4.6113261833
 20
-25.9075065167
 10
4.6263021128
 20
-25.950976516
 10
4.6379715235
 20
-25.9936447496
 10
4.646610676
 20
-26.0347698315
 10
4.652752289
 20
-26.0746238171
 10
4.6567744935
 20
-26.1131897747
 10
4.6589797475
 20
-26.1502570045
 10
4.6595882786
 20
-26.1858066451
 10
4.658744888
 20
-26.2201505998
 10
4.6565562123
 20
-26.2533176243
 10
4.6531388838
 20
-26.2851636521
 10
4.6485915995
 20
-26.3157637845
 10
4.6430169508
 20
-26.3451191631
 10
4.6365230492
 20
-26.373210808
 10
4.6291969036
 20
-26.4001034739
 10
4.6211466256
 20
-26.4257690837
 10
4.6124655224
 20
-26.4502380849
 10
4.6032058634
 20
-26.4736372511
 10
4.5934632191
 20
-26.4959429994
 10
4.5833325807
 20
-26.5171307109
 10
4.5728313648
 20
-26.5373207757
 10
4.562025316
 20
-26.5565126711
 10
4.5509856266
 20
-26.5746959425
 10
4.5397096306
 20
-26.5919726066
 10
4.5282320689
 20
-26.6083679746
 10
4.5166175456
 20
-26.6238640749
 10
4.5048928828
 20
-26.6384959641
 10
4.4930946784
 20
-26.652309021
 10
4.481278651
 20
-26.6653658778
 10
4.4694954349
 20
-26.6777296535
 10
4.4577864735
 20
-26.6894625319
 10
4.446191428
 20
-26.7006179538
 10
4.4347547764
 20
-26.711235506
 10
4.4235233128
 20
-26.7213447581
 10
4.4125160212
 20
-26.7309921676
 10
4.4017307061
 20
-26.7402333687
 10
4.3912510086
 20
-26.7490436706
 10
4.3810432091
 20
-26.7574916072
 10
4.3709008954
 20
-26.7656986883
 10
4.360797461
 20
-26.773423171
 10
4.3506722665
 20
-26.7804482496
 10
4.3402035298
 20
-26.7867313694
 10
4.3292328177
 20
-26.7920560527
 10
4.317788794
 20
-26.7960901994
 10
4.3058063972
 20
-26.7985541322
  0
LWPOLYLINE
  5
2A7
100
AcDbEntity
  8
0
100
AcDbPolyline
 62
7
  6
CONTINUOUS
 90
3
 70
0
 10
4.3058063972
 20
-26.8133253901
 10
4.3309353192
 20
-26.8248055499
 10
4.3542036908
 20
-26.8382101992
  0
LWPOLYLINE
  5
2A8
100
AcDbEntity
  8
0
100
AcDbPolyline
 62
7
  6
CONTINUOUS
 90
23
 70
0
 10
4.3542036908
 20
-26.8382101992
 10
4.3757339534
 20
-26.8532299204
 10
4.3956807244
 20
-26.8696154723
 10
4.4141101727
 20
-26.8870788599
 10
4.4310208028
 20
-26.9052633475
 10
4.4464430097
 20
-26.923827851
 10
4.4605751381
 20
-26.9426596236
 10
4.4736514161
 20
-26.9617835402
 10
4.4857452778
 20
-26.9810623245
 10
4.4969205665
 20
-27.0003644551
 10
4.5073489829
 20
-27.019786071
 10
4.5170893529
 20
-27.0392700976
 10
4.5261637519
 20
-27.0586989172
 10
4.5346586843
 20
-27.0781077399
 10
4.5426004386
 20
-27.0974202851
 10
4.5500201605
 20
-27.1165785471
 10
4.5569925966
 20
-27.1356561713
 10
4.5635361206
 20
-27.1545965968
 10
4.5696675604
 20
-27.1733411391
 10
4.5754603714
 20
-27.1919922489
 10
4.5809901285
 20
-27.2106334977
 10
4.5863033064
 20
-27.2292441498
 10
4.591454287
 20
-27.2478203936
  0
LWPOLYLINE
  5
2A9
100
AcDbEntity
  8
RACCORDO
100
AcDbPolyline
 62
250
  6
CONTINUOUS
 90
4
 70
0
 10
-11.030068357
 20
22.7996720629
 10
-11.0297785892
 20
22.7890899746
 10
-11.0294824074
 20
22.7815991804
 10
-11.0291830013
 20
22.7772803504
  0
LINE
  5
2AA
100
AcDbEntity
  8
RACCORDO
100
AcDbLine
 62
250
  6
CONTINUOUS
 10
-11.0306162707
 20
22.8296222145
 11
-11.030068357
 21
22.7996720629
  0
LINE
  5
2AB
100
AcDbEntity
  8
RACCORDO
100
AcDbLine
 62
250
  6
CONTINUOUS
 10
-11.031316031
 20
22.89387636
 11
-11.0306162707
 21
22.8296222145
  0
LINE
  5
2AC
100
AcDbEntity
  8
RACCORDO
100
AcDbLine
 62
250
  6
CONTINUOUS
 10
-11.8336630094
 20
-22.3031879461
 11
-11.8466284919
 21
-19.866287451
  0
LINE
  5
2AD
100
AcDbEntity
  8
RACCORDO
100
AcDbLine
 62
250
  6
CONTINUOUS
 10
-11.5314092069
 20
-22.2833118579
 11
-11.5435977218
 21
-19.8516703139
  0
LINE
  5
2AE
100
AcDbEntity
  8
RACCORDO
100
AcDbLine
 62
250
  6
CONTINUOUS
 10
-11.0319208608
 20
23.0055055003
 11
-11.031316031
 21
22.89387636
  0
LINE
  5
2AF
100
AcDbEntity
  8
RACCORDO
100
AcDbLine
 62
250
  6
CONTINUOUS
 10
-11.8466284919
 20
-19.866287451
 11
-11.8557626598
 21
-17.4995076701
  0
LINE
  5
2B0
100
AcDbEntity
  8
RACCORDO
100
AcDbLine
 62
250
  6
CONTINUOUS
 10
-11.5435977218
 20
-19.8516703139
 11
-11.5538999275
 21
-16.8977115041
  0
LINE
  5
2B1
100
AcDbEntity
  8
RACCORDO
100
AcDbLine
 62
250
  6
CONTINUOUS
 10
-11.8557626598
 20
-17.4995076701
 11
-11.8634425508
 21
-14.5485078039
  0
LINE
  5
2B2
100
AcDbEntity
  8
RACCORDO
100
AcDbLine
 62
250
  6
CONTINUOUS
 10
-11.5538999275
 20
-16.8977115041
 11
-11.5614606562
 21
-13.364299059
  0
LINE
  5
2B3
100
AcDbEntity
  8
RACCORDO
100
AcDbLine
 62
250
  6
CONTINUOUS
 10
-11.8634425508
 20
-14.5485078039
 11
-11.8694838203
 21
-10.4311449336
  0
LINE
  5
2B4
100
AcDbEntity
  8
RACCORDO
100
AcDbLine
 62
250
  6
CONTINUOUS
 10
-11.5614606562
 20
-13.364299059
 11
-11.5674247018
 21
-8.0621545126
  0
LINE
  5
2B5
100
AcDbEntity
  8
RACCORDO
100
AcDbLine
 62
250
  6
CONTINUOUS
 10
-11.0320717808
 20
23.0982553328
 11
-11.0319208608
 21
23.0055055003
  0
LINE
  5
2B6
100
AcDbEntity
  8
RACCORDO
100
AcDbLine
 62
250
  6
CONTINUOUS
 10
-11.8694838203
 20
-10.4311449336
 11
-11.873229907
 21
-4.9755193387
  0
LINE
  5
2B7
100
AcDbEntity
  8
RACCORDO
100
AcDbLine
 62
250
  6
CONTINUOUS
 10
-11.5674247018
 20
-8.0621545126
 11
-11.5701868405
 21
-2.2505871277
  0
LINE
  5
2B8
100
AcDbEntity
  8
RACCORDO
100
AcDbLine
 62
7
  6
CONTINUOUS
 10
-11.35
 20
22.101902651
 11
-11.35
 21
-22.101902651
  0
LINE
  5
2B9
100
AcDbEntity
  8
RACCORDO
100
AcDbLine
 62
250
  6
CONTINUOUS
 10
-11.873229907
 20
-4.9755193387
 11
-11.8740134281
 21
1.3715030644
  0
LINE
  5
2BA
100
AcDbEntity
  8
RACCORDO
100
AcDbLine
 62
250
  6
CONTINUOUS
 10
-11.5701868405
 20
-2.2505871277
 11
-11.5694949061
 21
4.5634956957
  0
LINE
  5
2BB
100
AcDbEntity
  8
RACCORDO
100
AcDbLine
 62
250
  6
CONTINUOUS
 10
-11.8740134281
 20
1.3715030644
 11
-11.871501576
 21
8.1465953518
  0
LINE
  5
2BC
100
AcDbEntity
  8
RACCORDO
100
AcDbLine
 62
250
  6
CONTINUOUS
 10
-11.5694949061
 20
4.5634956957
 11
-11.5651963026
 21
10.4854888127
  0
LINE
  5
2BD
100
AcDbEntity
  8
RACCORDO
100
AcDbLine
 62
250
  6
CONTINUOUS
 10
-11.871501576
 20
8.1465953518
 11
-11.8655089901
 21
13.425760916
  0
LINE
  5
2BE
100
AcDbEntity
  8
RACCORDO
100
AcDbLine
 62
250
  6
CONTINUOUS
 10
-11.5651963026
 20
10.4854888127
 11
-11.5553449067
 21
16.3580615512
  0
LINE
  5
2BF
100
AcDbEntity
  8
RACCORDO
100
AcDbLine
 62
250
  6
CONTINUOUS
 10
-11.8655089901
 20
13.425760916
 11
-11.8591424469
 21
16.3668730194
  0
LINE
  5
2C0
100
AcDbEntity
  8
RACCORDO
100
AcDbLine
 62
250
  6
CONTINUOUS
 10
-11.5553449067
 20
16.3580615512
 11
-11.5477361989
 21
18.8075778182
  0
LINE
  5
2C1
100
AcDbEntity
  8
RACCORDO
100
AcDbLine
 62
250
  6
CONTINUOUS
 10
-11.8591424469
 20
16.3668730194
 11
-11.8510381855
 21
18.8202471339
  0
LINE
  5
2C2
100
AcDbEntity
  8
RACCORDO
100
AcDbLine
 62
250
  6
CONTINUOUS
 10
-11.0320717813
 20
-23.0982553328
 11
-11.0316719002
 21
-22.9469134813
  0
LINE
  5
2C3
100
AcDbEntity
  8
RACCORDO
100
AcDbLine
 62
250
  6
CONTINUOUS
 10
-11.8510381855
 20
18.8202471339
 11
-11.841854186
 21
20.8389901427
  0
LWPOLYLINE
  5
2C4
100
AcDbEntity
  8
RACCORDO
100
AcDbPolyline
 62
250
  6
CONTINUOUS
 90
3
 70
0
 10
-11.5477361989
 20
18.8075778182
 10
-11.5354498454
 20
21.5414232784
 10
-11.5314092069
 20
22.2833118579
  0
LINE
  5
2C5
100
AcDbEntity
  8
RACCORDO
100
AcDbLine
 62
250
  6
CONTINUOUS
 10
-11.841854186
 20
20.8389901427
 11
-11.8336630094
 21
22.3031879461
  0
LINE
  5
2C6
100
AcDbEntity
  8
RACCORDO
100
AcDbLine
 62
250
  6
CONTINUOUS
 10
-11.0316719002
 20
-22.9469134813
 11
-11.0311025966
 21
-22.8701615555
  0
LINE
  5
2C7
100
AcDbEntity
  8
RACCORDO
100
AcDbLine
 62
250
  6
CONTINUOUS
 10
-11.0311025966
 20
-22.8701615555
 11
-11.0306162581
 21
-22.8296213106
  0
LWPOLYLINE
  5
2C8
100
AcDbEntity
  8
RACCORDO
100
AcDbPolyline
 62
250
  6
CONTINUOUS
 90
5
 70
0
 10
-11.0306162581
 20
-22.8296213106
 10
-11.0300683478
 20
-22.7996716458
 10
-11.0297785815
 20
-22.7890897129
 10
-11.029482401
 20
-22.7815990361
 10
-11.0291829959
 20
-22.7772802935
  0
LWPOLYLINE
  5
2C9
100
AcDbEntity
  8
RACCORDO
100
AcDbPolyline
 62
250
  6
CONTINUOUS
 90
25
 70
0
 10
-11.5314091919
 20
22.2833118429
 10
-11.5301818803
 20
22.3158828035
 10
-11.5268300481
 20
22.3481748017
 10
-11.5213907498
 20
22.3800537419
 10
-11.5139215037
 20
22.4113440734
 10
-11.504469074
 20
22.4419675673
 10
-11.4930402371
 20
22.4719350926
 10
-11.4796541303
 20
22.5011681037
 10
-11.4643792441
 20
22.5294934838
 10
-11.4472855342
 20
22.5567780189
 10
-11.4284380424
 20
22.5829119745
 10
-11.4079173733
 20
22.6077798753
 10
-11.385836156
 20
22.6312528186
 10
-11.3623070676
 20
22.653220749
 10
-11.3374155659
 20
22.6736138891
 10
-11.3112432633
 20
22.6923731877
 10
-11.283981461
 20
22.7093708965
 10
-11.2556635915
 20
22.7245947542
 10
-11.2261078524
 20
22.738110071
 10
-11.1952772112
 20
22.7498475801
 10
-11.163406495
 20
22.7596331498
 10
-11.1307139439
 20
22.7673451705
 10
-11.0973665247
 20
22.7729000526
 10
-11.0634732199
 20
22.7762328228
 10
-11.0291829353
 20
22.7772802844
  0
LWPOLYLINE
  5
2CA
100
AcDbEntity
  8
RACCORDO
100
AcDbPolyline
 62
250
  6
CONTINUOUS
 90
25
 70
0
 10
-11.8336630094
 20
22.3031879461
 10
-11.8315113038
 20
22.355725556
 10
-11.8261147089
 20
22.4074135076
 10
-11.8174732248
 20
22.4582518008
 10
-11.8055319039
 20
22.5083699694
 10
-11.7903456937
 20
22.5576384796
 10
-11.7720794368
 20
22.6056687306
 10
-11.7506869354
 20
22.6525293441
 10
-11.7262143874
 20
22.6981516982
 10
-11.6989652292
 20
22.7419413272
 10
-11.6688898406
 20
22.783878123
 10
-11.6360378418
 20
22.8239821935
 10
-11.60086153
 20
22.8617193972
 10
-11.5633580633
 20
22.8970329552
 10
-11.5235302836
 20
22.9299796463
 10
-11.4818390138
 20
22.9601956659
 10
-11.4384211131
 20
22.9876263701
 10
-11.3931397224
 20
23.0123264029
 10
-11.3460450874
 20
23.0340958912
 10
-11.296910544
 20
23.0530354814
 10
-11.2459627562
 20
23.0690445272
 10
-11.1939319623
 20
23.0816212165
 10
-11.1410615747
 20
23.0905982785
 10
-11.0871081809
 20
23.0961429839
 10
-11.0320717808
 20
23.0982553328
  0
LINE
  5
2CB
100
AcDbEntity
  8
ASSI
100
AcDbLine
 62
250
  6
CONTINUOUS
 10
-59.8964217558
 20
-42.0966958958
 11
-59.95
 21
-42.15027414
  0
LINE
  5
2CC
100
AcDbEntity
  8
ASSI
100
AcDbLine
 62
250
  6
CONTINUOUS
 10
-59.0966784015
 20
-42.8964042615
 11
-59.15027414
 21
-42.95
  0
LINE
  5
2CD
100
AcDbEntity
  8
ASSI
100
AcDbLine
 62
250
  6
CONTINUOUS
 10
-59.8964218373
 20
42.0966959773
 11
-59.95
 21
42.15027414
  0
LINE
  5
2CE
100
AcDbEntity
  8
ASSI
100
AcDbLine
 62
250
  6
CONTINUOUS
 10
-59.0966782992
 20
42.8964041592
 11
-59.15027414
 21
42.95
  0
LINE
  5
2CF
100
AcDbEntity
  8
0
100
AcDbLine
 62
7
  6
CONTINUOUS
 10
-0.637935
 20
-27.98018
 11
-1.250061
 21
-26.3479
  0
LINE
  5
2D0
100
AcDbEntity
  8
0
100
AcDbLine
 62
7
  6
CONTINUOUS
 10
-1.114777
 20
-25.480444
 11
-0.598495
 21
-26.868305
  0
LINE
  5
2D1
100
AcDbEntity
  8
0
100
AcDbLine
 62
7
  6
CONTINUOUS
 10
-4.121524
 20
-27.98018
 11
-4.913989
 21
-25.480444
  0
LINE
  5
2D2
100
AcDbEntity
  8
0
100
AcDbLine
 62
7
  6
CONTINUOUS
 10
-4.347161
 20
-25.480444
 11
-3.870666
 21
-27.20109
  0
LINE
  5
2D3
100
AcDbEntity
  8
RACCORDO
100
AcDbLine
 62
250
  6
CONTINUOUS
 10
11.0291830013
 20
22.7772803504
 11
10.851902651
 21
22.6
  0
LINE
  5
2D4
100
AcDbEntity
  8
RACCORDO
100
AcDbLine
 62
250
  6
CONTINUOUS
 10
11.5314092069
 20
22.2833118579
 11
11.35
 21
22.101902651
  0
LINE
  5
2D5
100
AcDbEntity
  8
RACCORDO
100
AcDbLine
 62
250
  6
CONTINUOUS
 10
11.0291830013
 20
-22.7772803504
 11
10.851902651
 21
-22.6
  0
LINE
  5
2D6
100
AcDbEntity
  8
RACCORDO
100
AcDbLine
 62
250
  6
CONTINUOUS
 10
11.5314092069
 20
-22.2833118579
 11
11.35
 21
-22.101902651
  0
LWPOLYLINE
  5
2D7
100
AcDbEntity
  8
0
100
AcDbPolyline
 62
7
  6
CONTINUOUS
 90
19
 70
0
 10
4.054823388
 20
-27.2220207429
 10
4.0466468529
 20
-27.2019349661
 10
4.037355372
 20
-27.1822227552
 10
4.0270008507
 20
-27.1630114439
 10
4.0156604935
 20
-27.1444643415
 10
4.0033617053
 20
-27.1266551574
 10
3.9900592852
 20
-27.1095834617
 10
3.9757706676
 20
-27.0933647743
 10
3.960532205
 20
-27.0781378185
 10
3.9442935168
 20
-27.0639662756
 10
3.9270174531
 20
-27.0509596905
 10
3.90876765
 20
-27.0393135395
 10
3.889645124
 20
-27.0292211471
 10
3.8697588876
 20
-27.0207653282
 10
3.8492306596
 20
-27.013909199
 10
3.8282112251
 20
-27.0086238088
 10
3.8068552344
 20
-27.004881951
 10
3.7853216314
 20
-27.0026569238
 10
3.7637687163
 20
-27.0019213614
  0
LINE
  5
2D8
100
AcDbEntity
  8
0
100
AcDbLine
 62
7
  6
CONTINUOUS
 10
2.044098
 20
-25.480444
 11
2.811079
 21
-27.98018
  0
LINE
  5
2D9
100
AcDbEntity
  8
0
100
AcDbLine
 62
7
  6
CONTINUOUS
 10
2.261131
 20
-27.98018
 11
2.125959
 21
-27.481144
  0
LINE
  5
2DA
100
AcDbEntity
  8
0
100
AcDbLine
 62
7
  6
CONTINUOUS
 10
2.021679
 20
-27.094992
 11
1.781908
 21
-26.167308
  0
LINE
  5
2DB
100
AcDbEntity
  8
0
100
AcDbLine
 62
7
  6
CONTINUOUS
 10
0.439561
 20
-25.480444
 11
0.673314
 21
-27.98018
  0
LINE
  5
2DC
100
AcDbEntity
  8
0
100
AcDbLine
 62
7
  6
CONTINUOUS
 10
0.162862
 20
-27.98018
 11
0.055658
 21
-26.354704
  0
LINE
  5
2DD
100
AcDbEntity
  8
0
100
AcDbLine
 62
7
  6
CONTINUOUS
 10
-2.66454
 20
-27.98018
 11
-2.66454
 21
-25.480294
  0
LINE
  5
2DE
100
AcDbEntity
  8
0
100
AcDbLine
 62
7
  6
CONTINUOUS
 10
-2.142747
 20
-25.480294
 11
-2.142747
 21
-27.98018
  0
LINE
  5
2DF
100
AcDbEntity
  8
ASSI
100
AcDbLine
 62
250
  6
CONTINUOUS
 10
-0.0
 20
42.8926869171
 11
-0.0
 21
42.5497053884
  0
LINE
  5
2E0
100
AcDbEntity
  8
RACCORDO
100
AcDbLine
 62
250
  6
CONTINUOUS
 10
-0.0
 20
42.5497053884
 11
-0.0
 21
22.7818696883
  0
LINE
  5
2E1
100
AcDbEntity
  8
ASSI
100
AcDbLine
 62
250
  6
CONTINUOUS
 10
-0.0
 20
-42.8926869171
 11
0.0
 21
-42.5497053884
  0
LINE
  5
2E2
100
AcDbEntity
  8
0
100
AcDbLine
 62
250
  6
CONTINUOUS
 10
-0.0
 20
-42.5497053884
 11
-0.0
 21
-23.1047977713
  0
LINE
  5
2E3
100
AcDbEntity
  8
RACCORDO
100
AcDbLine
 62
250
  6
CONTINUOUS
 10
-0.0
 20
-23.1047977713
 11
-0.0
 21
-22.7818696883
  0
LINE
  5
2E4
100
AcDbEntity
  8
0
100
AcDbLine
 62
7
  6
CONTINUOUS
 10
-1.250061
 20
-26.3479
 11
-1.362664
 21
-27.98018
  0
LWPOLYLINE
  5
2E5
100
AcDbEntity
  8
0
100
AcDbPolyline
 62
7
  6
CONTINUOUS
 90
4
 70
0
 43
0.3500000006
 10
66.7714288788
 20
-2.3571432495
 10
65.9142864075
 20
-2.3571432495
 10
65.4857129059
 20
-1.9285708809
 10
65.4857129059
 20
-1.2857140274
  0
LINE
  5
2E6
100
AcDbEntity
  8
ASSI
100
AcDbLine
 62
250
  6
CONTINUOUS
 10
-59.8940407632
 20
0.0
 11
-59.5034580755
 21
0.0
  0
LINE
  5
2E7
100
AcDbEntity
  8
ASSI
100
AcDbLine
 62
250
  6
CONTINUOUS
 10
59.8940407632
 20
0.0
 11
59.5034580755
 21
0.0
  0
LINE
  5
2E8
100
AcDbEntity
  8
RACCORDO
100
AcDbLine
 62
250
  6
CONTINUOUS
 10
11.5703990998
 20
0.0
 11
59.5034580755
 21
0.0
  0
LINE
  5
2E9
100
AcDbEntity
  8
RACCORDO
100
AcDbLine
 62
250
  6
CONTINUOUS
 10
-11.5703990998
 20
0.0
 11
-59.5034580755
 21
0.0
  0
LWPOLYLINE
  5
2EA
100
AcDbEntity
  8
0
100
AcDbPolyline
 62
7
  6
CONTINUOUS
 90
8
 70
0
 10
4.1346333083
 20
-27.4668988787
 10
4.1242267681
 20
-27.431602177
 10
4.1135935434
 20
-27.3964143624
 10
4.1026795174
 20
-27.3613578038
 10
4.0914055899
 20
-27.326377405
 10
4.0797061751
 20
-27.2914685223
 10
4.0675314603
 20
-27.2566761937
 10
4.0548233605
 20
-27.2220207532
  0
LINE
  5
2EB
100
AcDbEntity
  8
0
100
AcDbLine
 62
7
  6
CONTINUOUS
 10
4.2719150134
 20
-27.9416383198
 11
4.1958762857
 21
-27.6814587228
  0
LINE
  5
2EC
100
AcDbEntity
  8
0
100
AcDbLine
 62
7
  6
CONTINUOUS
 10
4.2830496624
 20
-27.9801797807
 11
4.2719150134
 21
-27.9416383198
  0
LINE
  5
2ED
100
AcDbEntity
  8
0
100
AcDbLine
 62
7
  6
CONTINUOUS
 10
4.1550147421
 20
-27.537835113
 11
4.1346333083
 21
-27.4668988787
  0
LINE
  5
2EE
100
AcDbEntity
  8
0
100
AcDbLine
 62
7
  6
CONTINUOUS
 10
4.1958762857
 20
-27.6814587228
 11
4.1550147421
 21
-27.537835113
  0
LINE
  5
2EF
100
AcDbEntity
  8
0
100
AcDbLine
 62
7
  6
CONTINUOUS
 10
4.7657115598
 20
-27.9082502756
 11
4.7849537607
 21
-27.9801797807
  0
LINE
  5
2F0
100
AcDbEntity
  8
0
100
AcDbLine
 62
7
  6
CONTINUOUS
 10
4.591454287
 20
-27.2478203936
 11
4.6483673728
 21
-27.4593651477
  0
LINE
  5
2F1
100
AcDbEntity
  8
0
100
AcDbLine
 62
7
  6
CONTINUOUS
 10
4.6483673728
 20
-27.4593651477
 11
4.7657115598
 21
-27.9082502756
  0
LWPOLYLINE
  5
2F2
100
AcDbEntity
  8
0
100
AcDbPolyline
 62
7
  6
CONTINUOUS
 90
19
 70
0
 10
4.1702251436
 20
-26.2042730875
 10
4.1689540536
 20
-26.1808365779
 10
4.1658105657
 20
-26.1570329658
 10
4.1607615992
 20
-26.1330365186
 10
4.1537884303
 20
-26.1090710245
 10
4.144857722
 20
-26.0853050392
 10
4.1338951712
 20
-26.0618615061
 10
4.1207897757
 20
-26.0388838306
 10
4.1055510528
 20
-26.0167652736
 10
4.0883247349
 20
-25.9960049589
 10
4.0691461601
 20
-25.9768557076
 10
4.0481512264
 20
-25.9594402131
 10
4.0257598628
 20
-25.9439568176
 10
4.0022878881
 20
-25.9304462003
 10
3.9778915728
 20
-25.918851579
 10
3.9527920423
 20
-25.9091695567
 10
3.9272087144
 20
-25.9013982787
 10
3.9013597532
 20
-25.8955365276
 10
3.8754584186
 20
-25.8915823649
  0
LWPOLYLINE
  5
2F3
100
AcDbEntity
  8
0
100
AcDbPolyline
 62
7
  6
CONTINUOUS
 90
13
 70
0
 43
0.3500000006
 10
0.8571428254
 20
52.5571443329
 10
0.8571428254
 20
53.8428557739
 10
1.0714285848
 20
54.2714292755
 10
1.5000000329
 20
54.6999982452
 10
1.7142856507
 20
54.6999982452
 10
2.1428571696
 20
54.2714292755
 10
2.3571427875
 20
53.8428557739
 10
2.3571427875
 20
52.5571443329
 10
2.1428571696
 20
52.1285708313
 10
1.7142856507
 20
51.7000018616
 10
1.5000000329
 20
51.7000018616
 10
1.0714285848
 20
52.1285708313
 10
0.8571428254
 20
52.5571443329
  0
LINE
  5
2F4
100
AcDbEntity
  8
0
100
AcDbLine
 62
7
  6
CONTINUOUS
 10
2.9643025021
 20
-27.9801797807
 11
2.9643025021
 21
-25.5096494116
  0
LINE
  5
2F5
100
AcDbEntity
  8
0
100
AcDbLine
 62
7
  6
CONTINUOUS
 10
3.4666939769
 20
-25.906298925
 11
3.4666939769
 21
-26.5925250773
  0
LINE
  5
2F6
100
AcDbEntity
  8
0
100
AcDbLine
 62
7
  6
CONTINUOUS
 10
3.4839958436
 20
-27.0019213614
 11
3.4839958436
 21
-27.9801797807
  0
LINE
  5
2F7
100
AcDbEntity
  8
0
100
AcDbLine
 62
7
  6
CONTINUOUS
 10
4.3058063972
 20
-26.7985541322
 11
4.3058063972
 21
-26.8133253901
  0
LINE
  5
2F8
100
AcDbEntity
  8
0
100
AcDbLine
 62
7
  6
CONTINUOUS
 10
-1.86185
 20
-27.98018
 11
-1.636138
 21
-25.480444
  0
LINE
  5
2F9
100
AcDbEntity
  8
0
100
AcDbLine
 62
7
  6
CONTINUOUS
 10
-3.870666
 20
-27.20109
 11
-3.379615
 21
-25.480444
  0
LINE
  5
2FA
100
AcDbEntity
  8
0
100
AcDbLine
 62
7
  6
CONTINUOUS
 10
-2.858179
 20
-25.480444
 11
-3.661694
 21
-27.98018
  0
LWPOLYLINE
  5
2FB
100
AcDbEntity
  8
RACCORDO
100
AcDbPolyline
 62
250
  6
CONTINUOUS
 90
4
 70
0
 10
11.030068357
 20
-22.7996720629
 10
11.0297785892
 20
-22.7890899746
 10
11.0294824074
 20
-22.7815991804
 10
11.0291830013
 20
-22.7772803504
  0
LINE
  5
2FC
100
AcDbEntity
  8
0
100
AcDbLine
 62
7
  6
CONTINUOUS
 10
1.781908
 20
-26.167308
 11
1.522099
 21
-27.094992
  0
LINE
  5
2FD
100
AcDbEntity
  8
0
100
AcDbLine
 62
7
  6
CONTINUOUS
 10
1.415364
 20
-27.481144
 11
1.271381
 21
-27.98018
  0
LINE
  5
2FE
100
AcDbEntity
  8
0
100
AcDbLine
 62
7
  6
CONTINUOUS
 10
0.75525
 20
-27.98018
 11
1.539326
 21
-25.480444
  0
LINE
  5
2FF
100
AcDbEntity
  8
0
100
AcDbLine
 62
7
  6
CONTINUOUS
 10
-0.598495
 20
-26.868305
 11
-0.076702
 21
-25.480444
  0
LINE
  5
300
100
AcDbEntity
  8
0
100
AcDbLine
 62
7
  6
CONTINUOUS
 10
0.055658
 20
-26.354704
 11
-0.564753
 21
-27.98018
  0
LINE
  5
301
100
AcDbEntity
  8
RACCORDO
100
AcDbLine
 62
250
  6
CONTINUOUS
 10
-11.5314092069
 20
-22.2833118579
 11
-11.35
 21
-22.101902651
  0
LINE
  5
302
100
AcDbEntity
  8
RACCORDO
100
AcDbLine
 62
250
  6
CONTINUOUS
 10
-11.0291830013
 20
-22.7772803504
 11
-10.851902651
 21
-22.6
  0
LINE
  5
303
100
AcDbEntity
  8
RACCORDO
100
AcDbLine
 62
250
  6
CONTINUOUS
 10
-11.5314092069
 20
22.2833118579
 11
-11.35
 21
22.101902651
  0
LINE
  5
304
100
AcDbEntity
  8
RACCORDO
100
AcDbLine
 62
250
  6
CONTINUOUS
 10
-11.0291830013
 20
22.7772803504
 11
-10.851902651
 21
22.6
  0
LINE
  5
305
100
AcDbEntity
  8
RACCORDO
100
AcDbLine
 62
250
  6
CONTINUOUS
 10
11.0306162707
 20
-22.8296222145
 11
11.030068357
 21
-22.7996720629
  0
LINE
  5
306
100
AcDbEntity
  8
RACCORDO
100
AcDbLine
 62
250
  6
CONTINUOUS
 10
11.031316031
 20
-22.89387636
 11
11.0306162707
 21
-22.8296222145
  0
LINE
  5
307
100
AcDbEntity
  8
RACCORDO
100
AcDbLine
 62
250
  6
CONTINUOUS
 10
11.8336630094
 20
22.3031879461
 11
11.8466284919
 21
19.8662874514
  0
LINE
  5
308
100
AcDbEntity
  8
RACCORDO
100
AcDbLine
 62
250
  6
CONTINUOUS
 10
11.5314092069
 20
22.2833118579
 11
11.5435977218
 21
19.8516703142
  0
LINE
  5
309
100
AcDbEntity
  8
RACCORDO
100
AcDbLine
 62
250
  6
CONTINUOUS
 10
11.0319208608
 20
-23.0055055003
 11
11.031316031
 21
-22.89387636
  0
LINE
  5
30A
100
AcDbEntity
  8
RACCORDO
100
AcDbLine
 62
250
  6
CONTINUOUS
 10
11.8466284919
 20
19.8662874514
 11
11.8557626598
 21
17.4995076703
  0
LINE
  5
30B
100
AcDbEntity
  8
RACCORDO
100
AcDbLine
 62
250
  6
CONTINUOUS
 10
11.5435977218
 20
19.8516703142
 11
11.5538999275
 21
16.8977115042
  0
LINE
  5
30C
100
AcDbEntity
  8
RACCORDO
100
AcDbLine
 62
250
  6
CONTINUOUS
 10
11.8557626598
 20
17.4995076703
 11
11.8634425508
 21
14.5485078037
  0
LINE
  5
30D
100
AcDbEntity
  8
RACCORDO
100
AcDbLine
 62
250
  6
CONTINUOUS
 10
11.5538999275
 20
16.8977115042
 11
11.5614606562
 21
13.3642990587
  0
LINE
  5
30E
100
AcDbEntity
  8
RACCORDO
100
AcDbLine
 62
250
  6
CONTINUOUS
 10
11.8634425508
 20
14.5485078037
 11
11.8711085052
 21
8.6613324287
  0
LINE
  5
30F
100
AcDbEntity
  8
RACCORDO
100
AcDbLine
 62
250
  6
CONTINUOUS
 10
11.5614606562
 20
13.3642990587
 11
11.5682860687
 21
6.8570936141
  0
LINE
  5
310
100
AcDbEntity
  8
RACCORDO
100
AcDbLine
 62
250
  6
CONTINUOUS
 10
11.0320717808
 20
-23.0982553328
 11
11.0319208608
 21
-23.0055055003
  0
LINE
  5
311
100
AcDbEntity
  8
RACCORDO
100
AcDbLine
 62
250
  6
CONTINUOUS
 10
11.8711085052
 20
8.6613324287
 11
11.8739155904
 21
2.2512463018
  0
LINE
  5
312
100
AcDbEntity
  8
RACCORDO
100
AcDbLine
 62
7
  6
CONTINUOUS
 10
11.35
 20
-22.101902651
 11
11.35
 21
22.101902651
  0
LINE
  5
313
100
AcDbEntity
  8
RACCORDO
100
AcDbLine
 62
250
  6
CONTINUOUS
 10
11.5682860687
 20
6.8570936141
 11
11.5703773805
 21
-0.6925457986
  0
LINE
  5
314
100
AcDbEntity
  8
RACCORDO
100
AcDbLine
 62
250
  6
CONTINUOUS
 10
11.8739155904
 20
2.2512463018
 11
11.8726053
 21
-6.376187562
  0
LINE
  5
315
100
AcDbEntity
  8
RACCORDO
100
AcDbLine
 62
250
  6
CONTINUOUS
 10
11.5703773805
 20
-0.6925457986
 11
11.5682139159
 21
-6.9664716915
  0
LINE
  5
316
100
AcDbEntity
  8
RACCORDO
100
AcDbLine
 62
250
  6
CONTINUOUS
 10
11.8726053
 20
-6.376187562
 11
11.8680704651
 21
-11.6625375695
  0
LINE
  5
317
100
AcDbEntity
  8
RACCORDO
100
AcDbLine
 62
250
  6
CONTINUOUS
 10
11.5682139159
 20
-6.9664716915
 11
11.5630990493
 21
-12.2453787006
  0
LINE
  5
318
100
AcDbEntity
  8
RACCORDO
100
AcDbLine
 62
250
  6
CONTINUOUS
 10
11.5630990493
 20
-12.2453787006
 11
11.5568026636
 21
-15.7666254079
  0
LINE
  5
319
100
AcDbEntity
  8
RACCORDO
100
AcDbLine
 62
250
  6
CONTINUOUS
 10
11.8680704651
 20
-11.6625375695
 11
11.8620695612
 21
-15.1885374064
  0
LINE
  5
31A
100
AcDbEntity
  8
RACCORDO
100
AcDbLine
 62
250
  6
CONTINUOUS
 10
11.5568026636
 20
-15.7666254079
 11
11.5477361989
 21
-18.8075778182
  0
LINE
  5
31B
100
AcDbEntity
  8
RACCORDO
100
AcDbLine
 62
250
  6
CONTINUOUS
 10
11.8620695612
 20
-15.1885374064
 11
11.8534213356
 21
-18.1862600808
  0
LINE
  5
31C
100
AcDbEntity
  8
RACCORDO
100
AcDbLine
 62
250
  6
CONTINUOUS
 10
11.0320717813
 20
23.0982553328
 11
11.0316719002
 21
22.9469134813
  0
LWPOLYLINE
  5
31D
100
AcDbEntity
  8
RACCORDO
100
AcDbPolyline
 62
250
  6
CONTINUOUS
 90
3
 70
0
 10
11.5477361989
 20
-18.8075778182
 10
11.5354498454
 20
-21.5414232782
 10
11.5314092069
 20
-22.2833118579
  0
LINE
  5
31E
100
AcDbEntity
  8
RACCORDO
100
AcDbLine
 62
250
  6
CONTINUOUS
 10
11.8534213356
 20
-18.1862600808
 11
11.841854186
 21
-20.8389901423
  0
LINE
  5
31F
100
AcDbEntity
  8
RACCORDO
100
AcDbLine
 62
250
  6
CONTINUOUS
 10
11.841854186
 20
-20.8389901423
 11
11.8336630094
 21
-22.3031879461
  0
LINE
  5
320
100
AcDbEntity
  8
RACCORDO
100
AcDbLine
 62
250
  6
CONTINUOUS
 10
11.0316719002
 20
22.9469134813
 11
11.0311025966
 21
22.8701615555
  0
LINE
  5
321
100
AcDbEntity
  8
RACCORDO
100
AcDbLine
 62
250
  6
CONTINUOUS
 10
11.0311025966
 20
22.8701615555
 11
11.0306162581
 21
22.8296213106
  0
LWPOLYLINE
  5
322
100
AcDbEntity
  8
RACCORDO
100
AcDbPolyline
 62
250
  6
CONTINUOUS
 90
5
 70
0
 10
11.0306162581
 20
22.8296213106
 10
11.0300683478
 20
22.7996716458
 10
11.0297785815
 20
22.7890897129
 10
11.029482401
 20
22.7815990361
 10
11.0291829959
 20
22.7772802935
  0
LWPOLYLINE
  5
323
100
AcDbEntity
  8
RACCORDO
100
AcDbPolyline
 62
250
  6
CONTINUOUS
 90
25
 70
0
 10
11.5314091919
 20
-22.2833118429
 10
11.5301818803
 20
-22.3158828035
 10
11.5268300481
 20
-22.3481748017
 10
11.5213907498
 20
-22.3800537419
 10
11.5139215037
 20
-22.4113440734
 10
11.504469074
 20
-22.4419675673
 10
11.4930402371
 20
-22.4719350926
 10
11.4796541303
 20
-22.5011681037
 10
11.4643792441
 20
-22.5294934838
 10
11.4472855342
 20
-22.5567780189
 10
11.4284380424
 20
-22.5829119745
 10
11.4079173733
 20
-22.6077798753
 10
11.385836156
 20
-22.6312528186
 10
11.3623070676
 20
-22.653220749
 10
11.3374155659
 20
-22.6736138891
 10
11.3112432633
 20
-22.6923731877
 10
11.283981461
 20
-22.7093708965
 10
11.2556635915
 20
-22.7245947542
 10
11.2261078524
 20
-22.738110071
 10
11.1952772112
 20
-22.7498475801
 10
11.163406495
 20
-22.7596331498
 10
11.1307139439
 20
-22.7673451705
 10
11.0973665247
 20
-22.7729000526
 10
11.0634732199
 20
-22.7762328228
 10
11.0291829353
 20
-22.7772802844
  0
LWPOLYLINE
  5
324
100
AcDbEntity
  8
RACCORDO
100
AcDbPolyline
 62
250
  6
CONTINUOUS
 90
25
 70
0
 10
11.8336630094
 20
-22.3031879461
 10
11.8315113038
 20
-22.355725556
 10
11.8261147089
 20
-22.4074135076
 10
11.8174732248
 20
-22.4582518008
 10
11.8055319039
 20
-22.5083699694
 10
11.7903456937
 20
-22.5576384796
 10
11.7720794368
 20
-22.6056687306
 10
11.7506869354
 20
-22.6525293441
 10
11.7262143874
 20
-22.6981516982
 10
11.6989652292
 20
-22.7419413272
 10
11.6688898406
 20
-22.783878123
 10
11.6360378418
 20
-22.8239821935
 10
11.60086153
 20
-22.8617193972
 10
11.5633580633
 20
-22.8970329552
 10
11.5235302836
 20
-22.9299796463
 10
11.4818390138
 20
-22.9601956659
 10
11.4384211131
 20
-22.9876263701
 10
11.3931397224
 20
-23.0123264029
 10
11.3460450874
 20
-23.0340958912
 10
11.296910544
 20
-23.0530354814
 10
11.2459627562
 20
-23.0690445272
 10
11.1939319623
 20
-23.0816212165
 10
11.1410615747
 20
-23.0905982785
 10
11.0871081809
 20
-23.0961429839
 10
11.0320717808
 20
-23.0982553328
  0
LINE
  5
325
100
AcDbEntity
  8
ASSI
100
AcDbLine
 62
250
  6
CONTINUOUS
 10
59.0966784079
 20
42.8964042679
 11
59.15027414
 21
42.95
  0
LINE
  5
326
100
AcDbEntity
  8
ASSI
100
AcDbLine
 62
250
  6
CONTINUOUS
 10
59.8964217673
 20
42.0966959073
 11
59.95
 21
42.15027414
  0
LINE
  5
327
100
AcDbEntity
  8
ASSI
100
AcDbLine
 62
250
  6
CONTINUOUS
 10
59.0966780664
 20
-42.8964039264
 11
59.15027414
 21
-42.95
  0
LINE
  5
328
100
AcDbEntity
  8
ASSI
100
AcDbLine
 62
250
  6
CONTINUOUS
 10
59.8964218716
 20
-42.0966960116
 11
59.95
 21
-42.15027414
  0
LWPOLYLINE
  5
329
100
AcDbEntity
  8
RACCORDO
100
AcDbPolyline
 62
250
  6
CONTINUOUS
 90
16
 70
0
 10
11.8336630094
 20
22.3031879461
 10
11.8037972482
 20
22.3029391921
 10
11.7741942255
 20
22.3024956215
 10
11.7451477739
 20
22.3018616371
 10
11.7169462012
 20
22.3010435318
 10
11.6898694295
 20
22.3000494259
 10
11.6641862163
 20
22.2988891865
 10
11.6401514869
 20
22.2975743299
 10
11.6180038041
 20
22.2961179072
 10
11.5979630005
 20
22.2945343744
 10
11.5802279962
 20
22.2928394492
 10
11.5649748244
 20
22.2910499551
 10
11.5523548845
 20
22.2891836542
 10
11.5424934387
 20
22.287259071
 10
11.5354883693
 20
22.2852953083
 10
11.5314092069
 20
22.2833118579
  0
LINE
  5
32A
100
AcDbEntity
  8
RACCORDO
100
AcDbLine
 62
250
  6
CONTINUOUS
 10
-11.0291830013
 20
22.7772803504
 11
-3.6916371333
 21
22.7813612429
  0
LINE
  5
32B
100
AcDbEntity
  8
RACCORDO
100
AcDbLine
 62
250
  6
CONTINUOUS
 10
-11.0320717808
 20
23.0982553328
 11
-2.4634175634
 21
23.1044724057
  0
LINE
  5
32C
100
AcDbEntity
  8
RACCORDO
100
AcDbLine
 62
7
  6
CONTINUOUS
 10
10.851902651
 20
22.6
 11
-10.851902651
 21
22.6
  0
LINE
  5
32D
100
AcDbEntity
  8
RACCORDO
100
AcDbLine
 62
250
  6
CONTINUOUS
 10
-3.6916371333
 20
22.7813612429
 11
4.9227771406
 21
22.780963888
  0
LINE
  5
32E
100
AcDbEntity
  8
RACCORDO
100
AcDbLine
 62
250
  6
CONTINUOUS
 10
-2.4634175634
 20
23.1044724057
 11
3.6961721938
 21
23.1040660159
  0
LINE
  5
32F
100
AcDbEntity
  8
RACCORDO
100
AcDbLine
 62
250
  6
CONTINUOUS
 10
4.9227771406
 20
22.780963888
 11
11.0291830013
 21
22.7772803504
  0
LWPOLYLINE
  5
330
100
AcDbEntity
  8
RACCORDO
100
AcDbPolyline
 62
250
  6
CONTINUOUS
 90
3
 70
0
 10
3.6961721938
 20
23.1040660159
 10
9.8146481823
 20
23.0996237027
 10
11.0320717808
 20
23.0982553328
  0
LWPOLYLINE
  5
331
100
AcDbEntity
  8
RACCORDO
100
AcDbPolyline
 62
250
  6
CONTINUOUS
 90
16
 70
0
 10
-11.8336630093
 20
22.3031879466
 10
-11.803796708
 20
22.3029391863
 10
-11.7741932464
 20
22.3024956039
 10
-11.7451464668
 20
22.3018616042
 10
-11.716944684
 20
22.3010434822
 10
-11.6898678157
 20
22.3000493601
 10
-11.6641846052
 20
22.2988891063
 10
-11.6401499694
 20
22.2975742389
 10
-11.6180024546
 20
22.29611781
 10
-11.5979618651
 20
22.2945342759
 10
-11.5802271078
 20
22.2928393555
 10
-11.5649741905
 20
22.2910498722
 10
-11.5523544758
 20
22.2891835856
 10
-11.5424932116
 20
22.2872590191
 10
-11.5354882766
 20
22.2852952759
 10
-11.5314091919
 20
22.2833118473
  0
LWPOLYLINE
  5
332
100
AcDbEntity
  8
RACCORDO
100
AcDbPolyline
 62
250
  6
CONTINUOUS
 90
25
 70
0
 10
11.0291829443
 20
22.7772802934
 10
11.062085496
 20
22.7763202896
 10
11.0947175889
 20
22.7732434758
 10
11.1269445532
 20
22.7680881087
 10
11.1585917268
 20
22.760914021
 10
11.1895793073
 20
22.7517681142
 10
11.2199141375
 20
22.7406551974
 10
11.2495182111
 20
22.7275964934
 10
11.2782181481
 20
22.7126609999
 10
11.3058757374
 20
22.6959143509
 10
11.332382103
 20
22.6774228106
 10
11.3576220285
 20
22.6572679488
 10
11.3814609668
 20
22.6355576174
 10
11.4037895707
 20
22.6124051023
 10
11.424539341
 20
22.5878969833
 10
11.4436467561
 20
22.5621108321
 10
11.4609827109
 20
22.5352404374
 10
11.4765394115
 20
22.5073179738
 10
11.4903851166
 20
22.4781510196
 10
11.5024532169
 20
22.4477003451
 10
11.5125662622
 20
22.4162017438
 10
11.5205951818
 20
22.3838668544
 10
11.5264538866
 20
22.3508601819
 10
11.5300796846
 20
22.3172923392
 10
11.5314091897
 20
22.2833118407
  0
LWPOLYLINE
  5
333
100
AcDbEntity
  8
RACCORDO
100
AcDbPolyline
 62
250
  6
CONTINUOUS
 90
25
 70
0
 10
11.0320717808
 20
23.0982553328
 10
11.0848669056
 20
23.0963611307
 10
11.1368170263
 20
23.0912221554
 10
11.1879221426
 20
23.0828384068
 10
11.2383130503
 20
23.0711538488
 10
11.2878589537
 20
23.0562245176
 10
11.3361674662
 20
23.0382185217
 10
11.3833066727
 20
23.0170904133
 10
11.4292084883
 20
22.9928856401
 10
11.4732762718
 20
22.965908654
 10
11.5154897049
 20
22.9361100754
 10
11.555869106
 20
22.9035392838
 10
11.5938787894
 20
22.8686488689
 10
11.6294612211
 20
22.831436069
 10
11.6626739351
 20
22.7919036459
 10
11.6931538475
 20
22.7505124744
 10
11.7208437004
 20
22.7074045769
 10
11.7458007517
 20
22.6624379311
 10
11.7678336908
 20
22.6156473451
 10
11.7870483526
 20
22.566803042
 10
11.8033389023
 20
22.5161347988
 10
11.8161965243
 20
22.4643667537
 10
11.8254516136
 20
22.4117402863
 10
11.8312737753
 20
22.3580140171
 10
11.8336630094
 20
22.3031879461
  0
LINE
  5
334
100
AcDbEntity
  8
ASSI
100
AcDbLine
 62
250
  6
CONTINUOUS
 10
-59.1139005762
 20
42.4242859013
 11
-58.0797472344
 21
42.4520854373
  0
LINE
  5
335
100
AcDbEntity
  8
ASSI
100
AcDbLine
 62
250
  6
CONTINUOUS
 10
-59.7254201082
 20
42.1086485763
 11
-59.6589225002
 21
42.1102962249
  0
LINE
  5
336
100
AcDbEntity
  8
ASSI
100
AcDbLine
 62
250
  6
CONTINUOUS
 10
-58.0797472344
 20
42.4520854373
 11
-56.9712296562
 21
42.4759434077
  0
LINE
  5
337
100
AcDbEntity
  8
ASSI
100
AcDbLine
 62
250
  6
CONTINUOUS
 10
-59.6589225002
 20
42.1102962249
 11
-59.5852658639
 21
42.1115727247
  0
LINE
  5
338
100
AcDbEntity
  8
ASSI
100
AcDbLine
 62
250
  6
CONTINUOUS
 10
-56.9712296562
 20
42.4759434077
 11
-55.8001261962
 21
42.4955772106
  0
LINE
  5
339
100
AcDbEntity
  8
ASSI
100
AcDbLine
 62
250
  6
CONTINUOUS
 10
-55.8001261962
 20
42.4955772106
 11
-54.6091760086
 21
42.5099248368
  0
LINE
  5
33A
100
AcDbEntity
  8
ASSI
100
AcDbLine
 62
250
  6
CONTINUOUS
 10
-59.5852658639
 20
42.1115727247
 11
-59.5064603077
 21
42.1124432399
  0
LINE
  5
33B
100
AcDbEntity
  8
ASSI
100
AcDbLine
 62
250
  6
CONTINUOUS
 10
-54.6091760086
 20
42.5099248368
 11
-53.4180014149
 21
42.5198134504
  0
LINE
  5
33C
100
AcDbEntity
  8
ASSI
100
AcDbLine
 62
250
  6
CONTINUOUS
 10
-53.4180014149
 20
42.5198134504
 11
-52.2274955791
 21
42.5257634817
  0
LINE
  5
33D
100
AcDbEntity
  8
ASSI
100
AcDbLine
 62
250
  6
CONTINUOUS
 10
-59.5064603077
 20
42.1124432399
 11
-59.4246564555
 21
42.1128840139
  0
LINE
  5
33E
100
AcDbEntity
  8
ASSI
100
AcDbLine
 62
250
  6
CONTINUOUS
 10
-52.2274955791
 20
42.5257634817
 11
-51.0193003071
 21
42.5288798727
  0
LINE
  5
33F
100
AcDbEntity
  8
ASSI
100
AcDbLine
 62
250
  6
CONTINUOUS
 10
-31.36970102
 20
42.5410577932
 11
-27.7560428103
 21
42.5467816207
  0
LINE
  5
340
100
AcDbEntity
  8
ASSI
100
AcDbLine
 62
250
  6
CONTINUOUS
 10
-41.4643462166
 20
42.5188373441
 11
-31.36970102
 21
42.5410577932
  0
LINE
  5
341
100
AcDbEntity
  8
ASSI
100
AcDbLine
 62
250
  6
CONTINUOUS
 10
58.0570175021
 20
42.8955451987
 11
59.0966784079
 21
42.8964042679
  0
LINE
  5
342
100
AcDbEntity
  8
ASSI
100
AcDbLine
 62
250
  6
CONTINUOUS
 10
-27.7560428103
 20
42.5467816207
 11
-23.7799147844
 21
42.5502655765
  0
LINE
  5
343
100
AcDbEntity
  8
ASSI
100
AcDbLine
 62
250
  6
CONTINUOUS
 10
42.0695718989
 20
42.5185904962
 11
48.2361704389
 21
42.528363525
  0
LINE
  5
344
100
AcDbEntity
  8
ASSI
100
AcDbLine
 62
250
  6
CONTINUOUS
 10
48.2361704389
 20
42.528363525
 11
50.0992458941
 21
42.5296789635
  0
LINE
  5
345
100
AcDbEntity
  8
ASSI
100
AcDbLine
 62
7
  6
CONTINUOUS
 10
59.15027414
 20
42.95
 11
-59.15027414
 21
42.95
  0
LINE
  5
346
100
AcDbEntity
  8
ASSI
100
AcDbLine
 62
250
  6
CONTINUOUS
 10
-23.7799147844
 20
42.5502655765
 11
18.8424468659
 21
42.551524408
  0
LINE
  5
347
100
AcDbEntity
  8
ASSI
100
AcDbLine
 62
250
  6
CONTINUOUS
 10
44.9737247949
 20
42.8935351069
 11
58.0570175021
 21
42.8955451987
  0
LINE
  5
348
100
AcDbEntity
  8
ASSI
100
AcDbLine
 62
250
  6
CONTINUOUS
 10
-51.0193003071
 20
42.5288798727
 11
-49.1136620515
 21
42.5293649048
  0
LINE
  5
349
100
AcDbEntity
  8
ASSI
100
AcDbLine
 62
250
  6
CONTINUOUS
 10
18.8424468659
 20
42.551524408
 11
24.2304409091
 21
42.5500125388
  0
LWPOLYLINE
  5
34A
100
AcDbEntity
  8
ASSI
100
AcDbPolyline
 62
250
  6
CONTINUOUS
 90
3
 70
0
 10
-59.0966782992
 20
42.8964041592
 10
-58.5901895436
 20
42.8959595563
 10
44.9737247949
 20
42.8935351069
  0
LINE
  5
34B
100
AcDbEntity
  8
ASSI
100
AcDbLine
 62
250
  6
CONTINUOUS
 10
24.2304409091
 20
42.5500125388
 11
29.0098979798
 21
42.5451019483
  0
LINE
  5
34C
100
AcDbEntity
  8
ASSI
100
AcDbLine
 62
250
  6
CONTINUOUS
 10
50.0992458941
 20
42.5296789635
 11
51.3518134412
 21
42.5283363426
  0
LWPOLYLINE
  5
34D
100
AcDbEntity
  8
ASSI
100
AcDbPolyline
 62
250
  6
CONTINUOUS
 90
3
 70
0
 10
-49.1136620515
 20
42.5293649048
 10
-44.794067642
 20
42.5213503627
 10
-41.4643462166
 20
42.5188373441
  0
LINE
  5
34E
100
AcDbEntity
  8
ASSI
100
AcDbLine
 62
250
  6
CONTINUOUS
 10
29.0098979798
 20
42.5451019483
 11
33.2771760846
 21
42.5369639552
  0
LINE
  5
34F
100
AcDbEntity
  8
ASSI
100
AcDbLine
 62
250
  6
CONTINUOUS
 10
37.9780135535
 20
42.5247703477
 11
42.0695718989
 21
42.5185904962
  0
LINE
  5
350
100
AcDbEntity
  8
ASSI
100
AcDbLine
 62
250
  6
CONTINUOUS
 10
33.2771760846
 20
42.5369639552
 11
37.9780135535
 21
42.5247703477
  0
LINE
  5
351
100
AcDbEntity
  8
ASSI
100
AcDbLine
 62
250
  6
CONTINUOUS
 10
51.3518134412
 20
42.5283363426
 11
52.6186227963
 21
42.5240991434
  0
LINE
  5
352
100
AcDbEntity
  8
ASSI
100
AcDbLine
 62
250
  6
CONTINUOUS
 10
59.4246563673
 20
42.1128841064
 11
59.5064606662
 21
42.1124433287
  0
LINE
  5
353
100
AcDbEntity
  8
ASSI
100
AcDbLine
 62
250
  6
CONTINUOUS
 10
52.6186227963
 20
42.5240991434
 11
53.8932220663
 21
42.5163639819
  0
LINE
  5
354
100
AcDbEntity
  8
ASSI
100
AcDbLine
 62
250
  6
CONTINUOUS
 10
53.8932220663
 20
42.5163639819
 11
55.1520568331
 21
42.5040146598
  0
LINE
  5
355
100
AcDbEntity
  8
ASSI
100
AcDbLine
 62
250
  6
CONTINUOUS
 10
59.5064606662
 20
42.1124433287
 11
59.5852665161
 21
42.1115728066
  0
LINE
  5
356
100
AcDbEntity
  8
ASSI
100
AcDbLine
 62
250
  6
CONTINUOUS
 10
55.1520568331
 20
42.5040146598
 11
56.3662607247
 21
42.4867892383
  0
LINE
  5
357
100
AcDbEntity
  8
ASSI
100
AcDbLine
 62
250
  6
CONTINUOUS
 10
59.5852665161
 20
42.1115728066
 11
59.6589233081
 21
42.1102962981
  0
LINE
  5
358
100
AcDbEntity
  8
ASSI
100
AcDbLine
 62
250
  6
CONTINUOUS
 10
56.3662607247
 20
42.4867892383
 11
57.5218469443
 21
42.4647961502
  0
LWPOLYLINE
  5
359
100
AcDbEntity
  8
ASSI
100
AcDbPolyline
 62
250
  6
CONTINUOUS
 90
3
 70
0
 10
57.5218469443
 20
42.4647961502
 10
58.6013780386
 20
42.4388059186
 10
59.1138768562
 20
42.4242892777
  0
LWPOLYLINE
  5
35A
100
AcDbEntity
  8
ASSI
100
AcDbPolyline
 62
250
  6
CONTINUOUS
 90
12
 70
0
 10
59.6589233081
 20
42.1102962981
 10
59.7254210211
 20
42.1086486387
 10
59.7554090777
 20
42.1076993152
 10
59.7829448852
 20
42.1066747938
 10
59.8078402558
 20
42.1055820762
 10
59.8299250469
 20
42.1044286304
 10
59.8490483677
 20
42.1032223364
 10
59.8650794653
 20
42.1019714411
 10
59.8779086959
 20
42.1006845032
 10
59.8874484335
 20
42.0993703217
 10
59.8936335907
 20
42.0980378752
 10
59.896421972
 20
42.0966962701
  0
LWPOLYLINE
  5
35B
100
AcDbEntity
  8
ASSI
100
AcDbPolyline
 62
250
  6
CONTINUOUS
 90
22
 70
0
 10
-59.1139005762
 20
42.4242859013
 10
-59.1368726589
 20
42.4226978229
 10
-59.1594684873
 20
42.4194815657
 10
-59.1816878388
 20
42.4146367733
 10
-59.2036334716
 20
42.408118167
 10
-59.225202178
 20
42.3999703136
 10
-59.2460848337
 20
42.3903276873
 10
-59.2662861421
 20
42.3791631555
 10
-59.2858010802
 20
42.366503322
 10
-59.3043060576
 20
42.3525634309
 10
-59.321783385
 20
42.3373249448
 10
-59.3382506419
 20
42.3208061687
 10
-59.3534372976
 20
42.3032778237
 10
-59.3673246026
 20
42.2847226896
 10
-59.37993143
 20
42.2651580776
 10
-59.3910438385
 20
42.2449067214
 10
-59.4006369893
 20
42.2239587517
 10
-59.4087360539
 20
42.2023244147
 10
-59.4152022337
 20
42.1803567955
 10
-59.4199894367
 20
42.1581738055
 10
-59.4231442241
 20
42.1356581052
 10
-59.4246668267
 20
42.1128099759
  0
LWPOLYLINE
  5
35C
100
AcDbEntity
  8
ASSI
100
AcDbPolyline
 62
250
  6
CONTINUOUS
 90
22
 70
0
 10
-59.0966787846
 20
42.8964046445
 10
-59.1564510926
 20
42.8941639465
 10
-59.2158905496
 20
42.8874633072
 10
-59.2746650459
 20
42.8763393561
 10
-59.3324501303
 20
42.8608521317
 10
-59.3889183828
 20
42.8410880766
 10
-59.4437422891
 20
42.8171626149
 10
-59.4966125918
 20
42.7892134528
 10
-59.547238746
 20
42.7573969665
 10
-59.5953388698
 20
42.7218928153
 10
-59.64064119
 20
42.682904991
 10
-59.6828990648
 20
42.6406492263
 10
-59.7218891104
 20
42.5953488963
 10
-59.7573954761
 20
42.5472507667
 10
-59.7892142618
 20
42.4966264691
 10
-59.8171660144
 20
42.4437574225
 10
-59.8410944213
 20
42.3889336167
 10
-59.8608613654
 20
42.3324647472
 10
-59.8763510418
 20
42.274679406
 10
-59.8874770507
 20
42.2159054408
 10
-59.8941795591
 20
42.1564669882
 10
-59.8964220425
 20
42.0966961825
  0
LWPOLYLINE
  5
35D
100
AcDbEntity
  8
0
100
AcDbPolyline
 62
7
  6
CONTINUOUS
 90
10
 70
0
 43
0.3500000006
 10
64.2000014648
 20
1.0714289017
 10
64.8428549194
 20
0.4285709152
 10
65.7000019226
 20
-0.0000003204
 10
66.7714288788
 20
-0.0000003204
 10
67.1999978485
 20
0.4285709152
 10
67.1999978485
 20
1.0714289017
 10
66.7714288788
 20
1.5000001373
 10
65.9142864075
 20
1.5000001373
 10
65.4857129059
 20
1.0714289017
 10
65.4857129059
 20
0.1428575134
  0
LWPOLYLINE
  5
35E
100
AcDbEntity
  8
0
100
AcDbPolyline
 62
7
  6
CONTINUOUS
 90
13
 70
0
 43
0.3500000006
 10
65.4857129059
 20
-1.9285708809
 10
65.271428421
 20
-2.2142854156
 10
64.6285704346
 20
-2.2142854156
 10
64.2000014648
 20
-1.9285708809
 10
64.2000014648
 20
-1.2857140274
 10
64.6285704346
 20
-1.0000006256
 10
65.271428421
 20
-1.0000006256
 10
65.4857129059
 20
-1.2857140274
 10
65.9142864075
 20
-0.8571427917
 10
66.7714288788
 20
-0.8571427917
 10
67.1999978485
 20
-1.2857140274
 10
67.1999978485
 20
-1.9285708809
 10
66.7714288788
 20
-2.3571432495
  0
LWPOLYLINE
  5
35F
100
AcDbEntity
  8
0
100
AcDbPolyline
 62
7
  6
CONTINUOUS
 90
7
 70
0
 43
0.3500000006
 10
0.0
 20
51.7000018616
 10
-1.5000000329
 20
51.7000018616
 10
0.0
 20
53.8428557739
 10
0.0
 20
54.2714292755
 10
-0.4285714127
 20
54.6999982452
 10
-1.0714285848
 20
54.6999982452
 10
-1.5000000329
 20
54.0571447906
  0
LWPOLYLINE
  5
360
100
AcDbEntity
  8
ASSI
100
AcDbPolyline
 62
250
  6
CONTINUOUS
 90
3
 70
0
 10
59.1134793972
 20
42.5460224207
 10
59.1141968858
 20
42.4653831408
 10
59.1143768676
 20
42.424218121
  0
LINE
  5
361
100
AcDbEntity
  8
ASSI
100
AcDbLine
 62
250
  6
CONTINUOUS
 10
59.4719641233
 20
38.8106828577
 11
59.4745823589
 21
37.9194566879
  0
LINE
  5
362
100
AcDbEntity
  8
ASSI
100
AcDbLine
 62
250
  6
CONTINUOUS
 10
59.4914686594
 20
21.5903028439
 11
59.4991658657
 21
15.237618604
  0
LINE
  5
363
100
AcDbEntity
  8
ASSI
100
AcDbLine
 62
250
  6
CONTINUOUS
 10
59.4991658657
 20
15.237618604
 11
59.5031489223
 21
5.2030802265
  0
LINE
  5
364
100
AcDbEntity
  8
ASSI
100
AcDbLine
 62
250
  6
CONTINUOUS
 10
59.5031489223
 20
5.2030802265
 11
59.5015736373
 21
-11.1210227443
  0
LINE
  5
365
100
AcDbEntity
  8
ASSI
100
AcDbLine
 62
250
  6
CONTINUOUS
 10
59.4745823589
 20
37.9194566879
 11
59.4914686594
 21
21.5903028439
  0
LINE
  5
366
100
AcDbEntity
  8
ASSI
100
AcDbLine
 62
250
  6
CONTINUOUS
 10
59.5015736373
 20
-11.1210227443
 11
59.4971404486
 21
-17.4581573113
  0
LINE
  5
367
100
AcDbEntity
  8
ASSI
100
AcDbLine
 62
250
  6
CONTINUOUS
 10
59.4971404486
 20
-17.4581573113
 11
59.4905025406
 21
-22.1379447046
  0
LINE
  5
368
100
AcDbEntity
  8
ASSI
100
AcDbLine
 62
250
  6
CONTINUOUS
 10
59.4905025406
 20
-22.1379447046
 11
59.4773677686
 21
-28.0571319235
  0
LWPOLYLINE
  5
369
100
AcDbEntity
  8
ASSI
100
AcDbPolyline
 62
250
  6
CONTINUOUS
 90
3
 70
0
 10
59.4773677686
 20
-28.0571319235
 10
59.4730176515
 20
-38.5552826491
 10
59.4715347838
 20
-38.9155092102
  0
LWPOLYLINE
  5
36A
100
AcDbEntity
  8
ASSI
100
AcDbPolyline
 62
250
  6
CONTINUOUS
 90
3
 70
0
 10
59.1143769165
 20
-42.4242180793
 10
59.1138970917
 20
-42.5060776077
 10
59.1134794415
 20
-42.5460227473
  0
LWPOLYLINE
  5
36B
100
AcDbEntity
  8
ASSI
100
AcDbPolyline
 62
250
  6
CONTINUOUS
 90
22
 70
0
 10
59.4246840263
 20
42.1126871899
 10
59.4231537556
 20
42.1355896707
 10
59.4199933191
 20
42.1581459686
 10
59.4152024865
 20
42.180355803
 10
59.4087353883
 20
42.2023318528
 10
59.4006374269
 20
42.2239608707
 10
59.3910453276
 20
42.2449037587
 10
59.3799332181
 20
42.2651549972
 10
59.3673266378
 20
42.2847197283
 10
59.353439555
 20
42.3032750224
 10
59.3382531112
 20
42.3208035077
 10
59.3217860412
 20
42.337322465
 10
59.3043088592
 20
42.3525611588
 10
59.2858040459
 20
42.3665012702
 10
59.2662892303
 20
42.3791613504
 10
59.2460878052
 20
42.3903261826
 10
59.2252054896
 20
42.3999691016
 10
59.2036368842
 20
42.4081173014
 10
59.1816888274
 20
42.4146365188
 10
59.159463765
 20
42.4194822572
 10
59.1368597004
 20
42.4226997246
 10
59.1138768562
 20
42.4242892777
  0
LWPOLYLINE
  5
36C
100
AcDbEntity
  8
ASSI
100
AcDbPolyline
 62
250
  6
CONTINUOUS
 90
22
 70
0
 10
59.8964220425
 20
42.0966961825
 10
59.8941795989
 20
42.156466456
 10
59.8874772632
 20
42.2159040309
 10
59.8763516376
 20
42.2746767968
 10
59.8608627214
 20
42.3324603531
 10
59.8410969355
 20
42.3889272134
 10
59.8171697379
 20
42.4437496933
 10
59.789218871
 20
42.4966184879
 10
59.7574007008
 20
42.5472431054
 10
59.721894883
 20
42.595341659
 10
59.682905418
 20
42.6406423798
 10
59.6406480443
 20
42.682898631
 10
59.5953461284
 20
42.7218870261
 10
59.5472464394
 20
42.7573917204
 10
59.4966206133
 20
42.7892088207
 10
59.4437500601
 20
42.8171588716
 10
59.3889248166
 20
42.8410855507
 10
59.3324545351
 20
42.8608507726
 10
59.2746676511
 20
42.8763387614
 10
59.2158919508
 20
42.887463096
 10
59.1564516174
 20
42.8941639073
 10
59.0966787846
 20
42.8964046445
  0
LINE
  5
36D
100
AcDbEntity
  8
ASSI
100
AcDbLine
 62
250
  6
CONTINUOUS
 10
59.4246840263
 20
42.1126871899
 11
59.4427624733
 21
41.3627777697
  0
LINE
  5
36E
100
AcDbEntity
  8
ASSI
100
AcDbLine
 62
250
  6
CONTINUOUS
 10
59.110699525
 20
42.6929602347
 11
59.1123028958
 21
42.6225786536
  0
LINE
  5
36F
100
AcDbEntity
  8
ASSI
100
AcDbLine
 62
250
  6
CONTINUOUS
 10
59.4427624733
 20
41.3627777697
 11
59.4566634148
 21
40.5539839474
  0
LINE
  5
370
100
AcDbEntity
  8
ASSI
100
AcDbLine
 62
250
  6
CONTINUOUS
 10
59.1123028958
 20
42.6225786536
 11
59.1134793972
 21
42.5460224207
  0
LINE
  5
371
100
AcDbEntity
  8
ASSI
100
AcDbLine
 62
250
  6
CONTINUOUS
 10
59.4566634148
 20
40.5539839474
 11
59.466423072
 21
39.694060588
  0
LINE
  5
372
100
AcDbEntity
  8
ASSI
100
AcDbLine
 62
250
  6
CONTINUOUS
 10
59.466423072
 20
39.694060588
 11
59.4719641233
 21
38.8106828577
  0
LINE
  5
373
100
AcDbEntity
  8
ASSI
100
AcDbLine
 62
250
  6
CONTINUOUS
 10
59.8940411949
 20
-1.2386022953
 11
59.8964218716
 21
-42.0966960116
  0
LINE
  5
374
100
AcDbEntity
  8
ASSI
100
AcDbLine
 62
7
  6
CONTINUOUS
 10
59.95
 20
-42.15027414
 11
59.95
 21
42.15027414
  0
LINE
  5
375
100
AcDbEntity
  8
ASSI
100
AcDbLine
 62
250
  6
CONTINUOUS
 10
59.8964217673
 20
42.0966959073
 11
59.8940411949
 21
-1.2386022953
  0
LINE
  5
376
100
AcDbEntity
  8
ASSI
100
AcDbLine
 62
250
  6
CONTINUOUS
 10
59.4715347838
 20
-38.9155092102
 11
59.4672474034
 21
-39.595260305
  0
LINE
  5
377
100
AcDbEntity
  8
ASSI
100
AcDbLine
 62
250
  6
CONTINUOUS
 10
59.4672474034
 20
-39.595260305
 11
59.460967854
 21
-40.227191942
  0
LINE
  5
378
100
AcDbEntity
  8
ASSI
100
AcDbLine
 62
250
  6
CONTINUOUS
 10
59.460967854
 20
-40.227191942
 11
59.4527995258
 21
-40.8140300807
  0
LINE
  5
379
100
AcDbEntity
  8
ASSI
100
AcDbLine
 62
250
  6
CONTINUOUS
 10
59.1134794415
 20
-42.5460227473
 11
59.1123029351
 21
-42.622579113
  0
LINE
  5
37A
100
AcDbEntity
  8
ASSI
100
AcDbLine
 62
250
  6
CONTINUOUS
 10
59.4527995258
 20
-40.8140300807
 11
59.4428033303
 21
-41.3591010356
  0
LWPOLYLINE
  5
37B
100
AcDbEntity
  8
ASSI
100
AcDbPolyline
 62
250
  6
CONTINUOUS
 90
3
 70
0
 10
59.4428033303
 20
-41.3591010356
 10
59.4311289213
 20
-41.8704194011
 10
59.4246549512
 20
-42.1128947522
  0
LWPOLYLINE
  5
37C
100
AcDbEntity
  8
ASSI
100
AcDbPolyline
 62
250
  6
CONTINUOUS
 90
13
 70
0
 10
59.1123029351
 20
-42.622579113
 10
59.1106995578
 20
-42.6929607721
 10
59.1097510573
 20
-42.7252271149
 10
59.1087131161
 20
-42.7552448174
 10
59.1075928359
 20
-42.7828084974
 10
59.1063978819
 20
-42.8077295633
 10
59.1051364298
 20
-42.8298375044
 10
59.1038171089
 20
-42.8489810784
 10
59.1024489477
 20
-42.8650292759
 10
59.101041312
 20
-42.8778722544
 10
59.0996038351
 20
-42.8874221674
 10
59.0981463508
 20
-42.8936137279
 10
59.0966788314
 20
-42.8964046101
  0
LWPOLYLINE
  5
37D
100
AcDbEntity
  8
ASSI
100
AcDbPolyline
 62
250
  6
CONTINUOUS
 90
12
 70
0
 10
59.8964220425
 20
-42.0966961825
 10
59.8936335455
 20
-42.0980378218
 10
59.8874481559
 20
-42.099370292
 10
59.877908146
 20
-42.1006844867
 10
59.8650787147
 20
-42.1019714243
 10
59.8490475416
 20
-42.1032223097
 10
59.8299241875
 20
-42.1044285939
 10
59.8078393463
 20
-42.1055820329
 10
59.782943951
 20
-42.1066747439
 10
59.7554081429
 20
-42.1076992589
 10
59.7254201084
 20
-42.1086485763
 10
59.6931847929
 20
-42.1095162082
  0
LWPOLYLINE
  5
37E
100
AcDbEntity
  8
ASSI
100
AcDbPolyline
 62
250
  6
CONTINUOUS
 90
12
 70
0
 10
59.0966787846
 20
42.8964046445
 10
59.0981463236
 20
42.8936137022
 10
59.0996038217
 20
42.8874220197
 10
59.1010413064
 20
42.8778719616
 10
59.1024489425
 20
42.8650288705
 10
59.103817099
 20
42.8489806199
 10
59.1051364149
 20
42.8298370135
 10
59.1063978635
 20
42.8077290333
 10
59.1075928139
 20
42.782807943
 10
59.1087130904
 20
42.7552442537
 10
59.1097510279
 20
42.7252265569
 10
59.110699525
 20
42.6929602347
  0
LINE
  5
37F
100
AcDbEntity
  8
ASSI
100
AcDbLine
 62
7
  6
CONTINUOUS
 10
-79.4726186363
 20
-42.95
 11
-81.6633137326
 21
-42.89263463
  0
LWPOLYLINE
  5
380
100
AcDbEntity
  8
ASSI
100
AcDbPolyline
 62
250
  6
CONTINUOUS
 90
16
 70
0
 10
-79.4726186065
 20
-42.1528974536
 10
-79.3415684046
 20
-42.1387328796
 10
-79.209792989
 20
-42.1203991644
 10
-79.0774602839
 20
-42.0978963079
 10
-78.9451848152
 20
-42.0714663103
 10
-78.8127050596
 20
-42.0408671716
 10
-78.6789230353
 20
-42.0053728915
 10
-78.5439456223
 20
-41.9650577238
 10
-78.4081799629
 20
-41.9198474148
 10
-78.2710782862
 20
-41.8687932033
 10
-78.1313696343
 20
-41.811006606
 10
-77.9911158776
 20
-41.7473761061
 10
-77.8546027538
 20
-41.6796183929
 10
-77.7232487115
 20
-41.6083056959
 10
-77.5958769657
 20
-41.5328657855
 10
-77.4726188445
 20
-41.4532986617
  0
LINE
  5
381
100
AcDbEntity
  8
ASSI
100
AcDbLine
 62
250
  6
CONTINUOUS
 10
-81.993115491
 20
-42.1124432399
 11
-82.0045391253
 21
-42.1128840139
  0
LINE
  5
382
100
AcDbEntity
  8
ASSI
100
AcDbLine
 62
250
  6
CONTINUOUS
 10
-81.5186782855
 20
-42.0966961825
 11
-81.993115491
 21
-42.1124432399
  0
LINE
  5
383
100
AcDbEntity
  8
ASSI
100
AcDbLine
 62
250
  6
CONTINUOUS
 10
-81.5186848134
 20
-42.0966960116
 11
-79.4726186363
 21
-42.15027414
  0
LWPOLYLINE
  5
384
100
AcDbEntity
  8
0
100
AcDbPolyline
 62
7
  6
CONTINUOUS
 90
10
 70
0
 43
0.3500000006
 10
-70.6170839996
 20
51.7000018616
 10
-69.7599369965
 20
52.5571443329
 10
-69.5456525116
 20
53.4142868042
 10
-69.5456525116
 20
54.2714292755
 10
-69.9742260132
 20
54.6999982452
 10
-70.6170839996
 20
54.6999982452
 10
-71.0456529694
 20
54.2714292755
 10
-71.0456529694
 20
53.4142868042
 10
-70.6170839996
 20
52.9857133026
 10
-69.6885103455
 20
52.9857133026
  0
LINE
  5
385
100
AcDbEntity
  8
0
100
AcDbLine
 62
7
  6
CONTINUOUS
 10
-85.4136027748
 20
-27.9801797807
 11
-85.4841717802
 21
-27.9801797807
  0
LINE
  5
386
100
AcDbEntity
  8
0
100
AcDbLine
 62
250
  6
CONTINUOUS
 10
-85.4982272551
 20
-27.3036609179
 11
-85.5687307498
 21
-27.3036609179
  0
LINE
  5
387
100
AcDbEntity
  8
0
100
AcDbLine
 62
7
  6
CONTINUOUS
 10
-85.5568056732
 20
-26.8133253901
 11
-85.6272665754
 21
-26.8133253901
  0
LINE
  5
388
100
AcDbEntity
  8
0
100
AcDbLine
 62
7
  6
CONTINUOUS
 10
-85.5585128992
 20
-26.7985541322
 11
-85.6289725255
 21
-26.7985541322
  0
LINE
  5
389
100
AcDbEntity
  8
0
100
AcDbLine
 62
250
  6
CONTINUOUS
 10
-85.6960822173
 20
-25.5359677442
 11
-85.7664408106
 21
-25.5359677442
  0
LINE
  5
38A
100
AcDbEntity
  8
SUPERFICI
100
AcDbLine
 62
7
  6
CONTINUOUS
 10
-85.7061957663
 20
-25.451114715
 11
-85.7765509147
 21
-25.451114715
  0
LINE
  5
38B
100
AcDbEntity
  8
RACCORDO
100
AcDbLine
 62
250
  6
CONTINUOUS
 10
-85.8719652949
 20
-23.0982553328
 11
-85.9236415498
 21
-23.1047158509
  0
LWPOLYLINE
  5
38C
100
AcDbEntity
  8
0
100
AcDbPolyline
 62
7
  6
CONTINUOUS
 90
5
 70
0
 10
-85.7765481928
 20
-25.451114715
 10
-85.7765078743
 20
-25.4511587062
 10
-85.7763088681
 20
-25.4519537265
 10
-85.7759960348
 20
-25.4537901425
 10
-85.7755757948
 20
-25.4567224055
  0
LINE
  5
38D
100
AcDbEntity
  8
ASSI
100
AcDbLine
 62
7
  6
CONTINUOUS
 10
-83.4459612459
 20
38.1718695881
 11
-83.5434578421
 21
37.8044612511
  0
LINE
  5
38E
100
AcDbEntity
  8
ASSI
100
AcDbLine
 62
7
  6
CONTINUOUS
 10
-82.1579174991
 20
42.3376237558
 11
-82.1822660177
 21
42.2475360599
  0
LINE
  5
38F
100
AcDbEntity
  8
ASSI
100
AcDbLine
 62
7
  6
CONTINUOUS
 10
-83.3528388287
 20
38.5156112278
 11
-83.4475059103
 21
38.1661099403
  0
LINE
  5
390
100
AcDbEntity
  8
ASSI
100
AcDbLine
 62
7
  6
CONTINUOUS
 10
-82.13209848
 20
42.4314554749
 11
-82.1579174991
 21
42.3376237558
  0
LINE
  5
391
100
AcDbEntity
  8
ASSI
100
AcDbLine
 62
7
  6
CONTINUOUS
 10
-83.2592812767
 20
38.8543362943
 11
-83.3601402629
 21
38.4889025138
  0
LINE
  5
392
100
AcDbEntity
  8
ASSI
100
AcDbLine
 62
7
  6
CONTINUOUS
 10
-82.1045517512
 20
42.5297007446
 11
-82.13209848
 21
42.4314554749
  0
LINE
  5
393
100
AcDbEntity
  8
ASSI
100
AcDbLine
 62
7
  6
CONTINUOUS
 10
-83.1743366389
 20
39.1564613887
 11
-83.2752359417
 21
38.7970243853
  0
LINE
  5
394
100
AcDbEntity
  8
ASSI
100
AcDbLine
 62
7
  6
CONTINUOUS
 10
-83.0908660749
 20
39.4485917585
 11
-83.1850839504
 21
39.1185109276
  0
LINE
  5
395
100
AcDbEntity
  8
ASSI
100
AcDbLine
 62
7
  6
CONTINUOUS
 10
-82.9911302626
 20
39.7917979291
 11
-83.1113308462
 21
39.3773918488
  0
LINE
  5
396
100
AcDbEntity
  8
ASSI
100
AcDbLine
 62
7
  6
CONTINUOUS
 10
-82.8914193129
 20
40.1288944859
 11
-83.0012134321
 21
39.7573798088
  0
LINE
  5
397
100
AcDbEntity
  8
ASSI
100
AcDbLine
 62
7
  6
CONTINUOUS
 10
-82.8005875159
 20
40.4310090246
 11
-82.9081934237
 21
40.0725925677
  0
LINE
  5
398
100
AcDbEntity
  8
ASSI
100
AcDbLine
 62
7
  6
CONTINUOUS
 10
-82.7109580613
 20
40.724714931
 11
-82.8092340144
 21
40.4024471258
  0
LINE
  5
399
100
AcDbEntity
  8
ASSI
100
AcDbLine
 62
7
  6
CONTINUOUS
 10
-82.6002042135
 20
41.0818917824
 11
-82.7115662772
 21
40.7227361729
  0
LINE
  5
39A
100
AcDbEntity
  8
ASSI
100
AcDbLine
 62
7
  6
CONTINUOUS
 10
-82.4926599292
 20
41.4229395611
 11
-82.6057964699
 21
41.064004413
  0
LINE
  5
39B
100
AcDbEntity
  8
ASSI
100
AcDbLine
 62
7
  6
CONTINUOUS
 10
-82.3899923644
 20
41.7434778063
 11
-82.5041329519
 21
41.3868182238
  0
LINE
  5
39C
100
AcDbEntity
  8
ASSI
100
AcDbLine
 62
7
  6
CONTINUOUS
 10
-82.2708222926
 20
42.1096660145
 11
-82.3911449131
 21
41.7399059002
  0
LINE
  5
39D
100
AcDbEntity
  8
ASSI
100
AcDbLine
 62
7
  6
CONTINUOUS
 10
-82.1602786296
 20
42.4439780271
 11
-82.2797634621
 21
42.0824034273
  0
LINE
  5
39E
100
AcDbEntity
  8
ASSI
100
AcDbLine
 62
7
  6
CONTINUOUS
 10
-82.1243629659
 20
42.5515262596
 11
-82.1648857109
 21
42.4301448945
  0
LINE
  5
39F
100
AcDbEntity
  8
ASSI
100
AcDbLine
 62
7
  6
CONTINUOUS
 10
-82.2405014947
 20
-42.2018668761
 11
-82.1243629329
 21
-42.5515263581
  0
LINE
  5
3A0
100
AcDbEntity
  8
ASSI
100
AcDbLine
 62
7
  6
CONTINUOUS
 10
-82.3477272639
 20
-41.8740571643
 11
-82.2405014947
 21
-42.2018668761
  0
LINE
  5
3A1
100
AcDbEntity
  8
ASSI
100
AcDbLine
 62
7
  6
CONTINUOUS
 10
-82.4627798605
 20
-41.516725472
 11
-82.3477272639
 21
-41.8740571643
  0
LINE
  5
3A2
100
AcDbEntity
  8
ASSI
100
AcDbLine
 62
7
  6
CONTINUOUS
 10
-82.5690428542
 20
-41.1812839356
 11
-82.4627798605
 21
-41.516725472
  0
LINE
  5
3A3
100
AcDbEntity
  8
ASSI
100
AcDbLine
 62
7
  6
CONTINUOUS
 10
-82.6794190633
 20
-40.8270610883
 11
-82.5690428542
 21
-41.1812839356
  0
LINE
  5
3A4
100
AcDbEntity
  8
ASSI
100
AcDbLine
 62
7
  6
CONTINUOUS
 10
-82.7764965259
 20
-40.510374263
 11
-82.6794190633
 21
-40.8270610883
  0
LINE
  5
3A5
100
AcDbEntity
  8
ASSI
100
AcDbLine
 62
7
  6
CONTINUOUS
 10
-82.8751047893
 20
-40.1834992827
 11
-82.7764965259
 21
-40.510374263
  0
LINE
  5
3A6
100
AcDbEntity
  8
ASSI
100
AcDbLine
 62
7
  6
CONTINUOUS
 10
-82.9745287462
 20
-39.8483319598
 11
-82.8751047893
 21
-40.1834992827
  0
LINE
  5
3A7
100
AcDbEntity
  8
ASSI
100
AcDbLine
 62
7
  6
CONTINUOUS
 10
-83.0742162452
 20
-39.5063203994
 11
-82.9745287462
 21
-39.8483319598
  0
LINE
  5
3A8
100
AcDbEntity
  8
ASSI
100
AcDbLine
 62
7
  6
CONTINUOUS
 10
-83.1743339501
 20
-39.1564708735
 11
-83.0742162452
 21
-39.5063203994
  0
LINE
  5
3A9
100
AcDbEntity
  8
ASSI
100
AcDbLine
 62
7
  6
CONTINUOUS
 10
-83.2752333191
 20
-38.7970338212
 11
-83.1743339501
 21
-39.1564708735
  0
LINE
  5
3AA
100
AcDbEntity
  8
ASSI
100
AcDbLine
 62
7
  6
CONTINUOUS
 10
-82.1340288246
 20
-42.4244994785
 11
-82.104551822
 21
-42.5297004947
  0
LINE
  5
3AB
100
AcDbEntity
  8
ASSI
100
AcDbLine
 62
7
  6
CONTINUOUS
 10
-83.360137808
 20
-38.4889115008
 11
-83.2752333191
 21
-38.7970338212
  0
LINE
  5
3AC
100
AcDbEntity
  8
ASSI
100
AcDbLine
 62
7
  6
CONTINUOUS
 10
-82.1585419987
 20
-42.3353327543
 11
-82.1340288246
 21
-42.4244994785
  0
LINE
  5
3AD
100
AcDbEntity
  8
ASSI
100
AcDbLine
 62
7
  6
CONTINUOUS
 10
-83.4459590501
 20
-38.1718777742
 11
-83.360137808
 21
-38.4889115008
  0
LINE
  5
3AE
100
AcDbEntity
  8
ASSI
100
AcDbLine
 62
7
  6
CONTINUOUS
 10
-82.1825222601
 20
-42.2465795709
 11
-82.1585419987
 21
-42.3353327543
  0
LINE
  5
3AF
100
AcDbEntity
  8
ASSI
100
AcDbLine
 62
7
  6
CONTINUOUS
 10
-83.5328225735
 20
-37.8449293468
 11
-83.4459590501
 21
-38.1718777742
  0
LINE
  5
3B0
100
AcDbEntity
  8
ASSI
100
AcDbLine
 62
7
  6
CONTINUOUS
 10
-84.7144080879
 20
32.4868136812
 11
-84.7749025452
 21
32.1422831689
  0
LINE
  5
3B1
100
AcDbEntity
  8
ASSI
100
AcDbLine
 62
7
  6
CONTINUOUS
 10
-84.6535361824
 20
32.8237293734
 11
-84.7174753484
 21
32.4695814964
  0
LINE
  5
3B2
100
AcDbEntity
  8
RACCORDO
100
AcDbLine
 62
7
  6
CONTINUOUS
 10
-84.8142918684
 20
31.9126165792
 11
-84.8410809831
 21
31.766915784
  0
LINE
  5
3B3
100
AcDbEntity
  8
ASSI
100
AcDbLine
 62
7
  6
CONTINUOUS
 10
-84.6025355895
 20
33.0988462146
 11
-84.6631326295
 21
32.7712449315
  0
LINE
  5
3B4
100
AcDbEntity
  8
ASSI
100
AcDbLine
 62
7
  6
CONTINUOUS
 10
-84.5304306937
 20
33.4773634356
 11
-84.6029865379
 21
33.0964411595
  0
LINE
  5
3B5
100
AcDbEntity
  8
ASSI
100
AcDbLine
 62
7
  6
CONTINUOUS
 10
-84.4678044364
 20
33.7968558379
 11
-84.5370121368
 21
33.443299833
  0
LINE
  5
3B6
100
AcDbEntity
  8
ASSI
100
AcDbLine
 62
7
  6
CONTINUOUS
 10
-84.414040037
 20
34.0647377319
 11
-84.4730672505
 21
33.7703228732
  0
LINE
  5
3B7
100
AcDbEntity
  8
ASSI
100
AcDbLine
 62
7
  6
CONTINUOUS
 10
-84.3403232358
 20
34.4230772215
 11
-84.4137737103
 21
34.0660506225
  0
LINE
  5
3B8
100
AcDbEntity
  8
ASSI
100
AcDbLine
 62
7
  6
CONTINUOUS
 10
-84.28376021
 20
34.6914666629
 11
-84.3528638762
 21
34.3628174278
  0
LINE
  5
3B9
100
AcDbEntity
  8
ASSI
100
AcDbLine
 62
7
  6
CONTINUOUS
 10
-82.5203680128
 20
40.8226251653
 11
-82.6338657699
 21
40.2820607933
  0
LINE
  5
3BA
100
AcDbEntity
  8
ASSI
100
AcDbLine
 62
7
  6
CONTINUOUS
 10
-84.2262630345
 20
34.9588257102
 11
-84.290593901
 21
34.6593305661
  0
LINE
  5
3BB
100
AcDbEntity
  8
ASSI
100
AcDbLine
 62
7
  6
CONTINUOUS
 10
-82.4797511509
 20
41.0107994817
 11
-82.5203680128
 21
40.8226251653
  0
LINE
  5
3BC
100
AcDbEntity
  8
ASSI
100
AcDbLine
 62
7
  6
CONTINUOUS
 10
-84.1484419249
 20
35.3124817446
 11
-84.2271705831
 21
34.9546467653
  0
LINE
  5
3BD
100
AcDbEntity
  8
ASSI
100
AcDbLine
 62
7
  6
CONTINUOUS
 10
-82.440691068
 20
41.1877550326
 11
-82.4797511509
 21
41.0107994817
  0
LINE
  5
3BE
100
AcDbEntity
  8
ASSI
100
AcDbLine
 62
7
  6
CONTINUOUS
 10
-84.0895647966
 20
35.5741704419
 11
-84.1627949795
 21
35.2479359973
  0
LINE
  5
3BF
100
AcDbEntity
  8
ASSI
100
AcDbLine
 62
7
  6
CONTINUOUS
 10
-82.4045793971
 20
41.3475631946
 11
-82.440691068
 21
41.1877550326
  0
LINE
  5
3C0
100
AcDbEntity
  8
ASSI
100
AcDbLine
 62
7
  6
CONTINUOUS
 10
-84.0110755789
 20
35.9156870595
 11
-84.097837284
 21
35.5376950291
  0
LINE
  5
3C1
100
AcDbEntity
  8
ASSI
100
AcDbLine
 62
7
  6
CONTINUOUS
 10
-82.3725161251
 20
41.4862811123
 11
-82.4045793971
 21
41.3475631946
  0
LINE
  5
3C2
100
AcDbEntity
  8
ASSI
100
AcDbLine
 62
7
  6
CONTINUOUS
 10
-83.9464588086
 20
36.1909328746
 11
-84.0306108313
 21
35.8314419291
  0
LINE
  5
3C3
100
AcDbEntity
  8
ASSI
100
AcDbLine
 62
7
  6
CONTINUOUS
 10
-82.3397304835
 20
41.624985727
 11
-82.3725161251
 21
41.4862811123
  0
LINE
  5
3C4
100
AcDbEntity
  8
ASSI
100
AcDbLine
 62
7
  6
CONTINUOUS
 10
-83.8755410583
 20
36.4872611646
 11
-83.9524589063
 21
36.1655899685
  0
LINE
  5
3C5
100
AcDbEntity
  8
ASSI
100
AcDbLine
 62
7
  6
CONTINUOUS
 10
-82.3121413953
 20
41.739240426
 11
-82.3397304835
 21
41.624985727
  0
LINE
  5
3C6
100
AcDbEntity
  8
ASSI
100
AcDbLine
 62
7
  6
CONTINUOUS
 10
-83.799995869
 20
36.7966927014
 11
-83.8827375534
 21
36.4574552077
  0
LINE
  5
3C7
100
AcDbEntity
  8
ASSI
100
AcDbLine
 62
7
  6
CONTINUOUS
 10
-82.2845220047
 20
41.8513773499
 11
-82.3121413953
 21
41.739240426
  0
LINE
  5
3C8
100
AcDbEntity
  8
ASSI
100
AcDbLine
 62
7
  6
CONTINUOUS
 10
-83.7100482069
 20
37.1572695631
 11
-83.8006789262
 21
36.793922543
  0
LINE
  5
3C9
100
AcDbEntity
  8
ASSI
100
AcDbLine
 62
7
  6
CONTINUOUS
 10
-82.2568024551
 20
41.9616901917
 11
-82.2845220047
 21
41.8513773499
  0
LINE
  5
3CA
100
AcDbEntity
  8
ASSI
100
AcDbLine
 62
7
  6
CONTINUOUS
 10
-83.6385792464
 20
37.438066185
 11
-83.7198230596
 21
37.118480537
  0
LINE
  5
3CB
100
AcDbEntity
  8
ASSI
100
AcDbLine
 62
7
  6
CONTINUOUS
 10
-82.2287201802
 20
42.0712045929
 11
-82.2568024551
 21
41.9616901917
  0
LINE
  5
3CC
100
AcDbEntity
  8
ASSI
100
AcDbLine
 62
7
  6
CONTINUOUS
 10
-83.5434578421
 20
37.8044612511
 11
-83.6408350714
 21
37.429277223
  0
LINE
  5
3CD
100
AcDbEntity
  8
ASSI
100
AcDbLine
 62
7
  6
CONTINUOUS
 10
-83.5328244288
 20
37.8449222957
 11
-83.5503326886
 21
37.778249781
  0
LINE
  5
3CE
100
AcDbEntity
  8
ASSI
100
AcDbLine
 62
7
  6
CONTINUOUS
 10
-82.1999390356
 20
42.1811506249
 11
-82.2287201802
 21
42.0712045929
  0
LINE
  5
3CF
100
AcDbEntity
  8
ASSI
100
AcDbLine
 62
7
  6
CONTINUOUS
 10
-82.1822660177
 20
42.2475360599
 11
-82.1999390356
 21
42.1811506249
  0
LINE
  5
3D0
100
AcDbEntity
  8
ASSI
100
AcDbLine
 62
7
  6
CONTINUOUS
 10
-82.2115854603
 20
-42.1369367281
 11
-82.1825222601
 21
-42.2465795709
  0
LINE
  5
3D1
100
AcDbEntity
  8
ASSI
100
AcDbLine
 62
7
  6
CONTINUOUS
 10
-83.6208314246
 20
-37.5070493226
 11
-83.5328225735
 21
-37.8449293468
  0
LINE
  5
3D2
100
AcDbEntity
  8
ASSI
100
AcDbLine
 62
7
  6
CONTINUOUS
 10
-82.2398569492
 20
-42.0280410195
 11
-82.2115854603
 21
-42.1369367281
  0
LINE
  5
3D3
100
AcDbEntity
  8
ASSI
100
AcDbLine
 62
7
  6
CONTINUOUS
 10
-83.7100472215
 20
-37.1572734686
 11
-83.6208314246
 21
-37.5070493226
  0
LINE
  5
3D4
100
AcDbEntity
  8
ASSI
100
AcDbLine
 62
7
  6
CONTINUOUS
 10
-82.2672584052
 20
-41.9203400506
 11
-82.2398569492
 21
-42.0280410195
  0
LINE
  5
3D5
100
AcDbEntity
  8
ASSI
100
AcDbLine
 62
7
  6
CONTINUOUS
 10
-82.293646958
 20
-41.8145762237
 11
-82.2672584052
 21
-41.9203400506
  0
LINE
  5
3D6
100
AcDbEntity
  8
ASSI
100
AcDbLine
 62
7
  6
CONTINUOUS
 10
-83.800678789
 20
-36.7939230993
 11
-83.7100472215
 21
-37.1572734686
  0
LINE
  5
3D7
100
AcDbEntity
  8
ASSI
100
AcDbLine
 62
7
  6
CONTINUOUS
 10
-83.8755418722
 20
-36.487257797
 11
-83.800678789
 21
-36.7939230993
  0
LINE
  5
3D8
100
AcDbEntity
  8
ASSI
100
AcDbLine
 62
7
  6
CONTINUOUS
 10
-82.3241022087
 20
-41.6899832058
 11
-82.293646958
 21
-41.8145762237
  0
LINE
  5
3D9
100
AcDbEntity
  8
ASSI
100
AcDbLine
 62
7
  6
CONTINUOUS
 10
-83.9524601802
 20
-36.1655845832
 11
-83.8755418722
 21
-36.487257797
  0
LINE
  5
3DA
100
AcDbEntity
  8
ASSI
100
AcDbLine
 62
7
  6
CONTINUOUS
 10
-82.3533438333
 20
-41.56777894
 11
-82.3241022087
 21
-41.6899832058
  0
LINE
  5
3DB
100
AcDbEntity
  8
ASSI
100
AcDbLine
 62
7
  6
CONTINUOUS
 10
-84.0306121906
 20
-35.8314360503
 11
-83.9524601802
 21
-36.1655845832
  0
LINE
  5
3DC
100
AcDbEntity
  8
ASSI
100
AcDbLine
 62
7
  6
CONTINUOUS
 10
-82.3859793705
 20
-41.4284019981
 11
-82.3533438333
 21
-41.56777894
  0
LINE
  5
3DD
100
AcDbEntity
  8
ASSI
100
AcDbLine
 62
7
  6
CONTINUOUS
 10
-82.4170088791
 20
-41.2929804499
 11
-82.3859793705
 21
-41.4284019981
  0
LINE
  5
3DE
100
AcDbEntity
  8
ASSI
100
AcDbLine
 62
7
  6
CONTINUOUS
 10
-84.1092131861
 20
-35.4873814655
 11
-84.0306121906
 21
-35.8314360503
  0
LINE
  5
3DF
100
AcDbEntity
  8
ASSI
100
AcDbLine
 62
7
  6
CONTINUOUS
 10
-82.4504213317
 20
-41.1440627168
 11
-82.4170088791
 21
-41.2929804499
  0
LINE
  5
3E0
100
AcDbEntity
  8
ASSI
100
AcDbLine
 62
7
  6
CONTINUOUS
 10
-84.187494776
 20
-35.136148846
 11
-84.1092131861
 21
-35.4873814655
  0
LINE
  5
3E1
100
AcDbEntity
  8
ASSI
100
AcDbLine
 62
7
  6
CONTINUOUS
 10
-82.489003815
 20
-40.9682889748
 11
-82.4504213317
 21
-41.1440627168
  0
LINE
  5
3E2
100
AcDbEntity
  8
ASSI
100
AcDbLine
 62
7
  6
CONTINUOUS
 10
-84.2646940555
 20
-34.7807175671
 11
-84.187494776
 21
-35.136148846
  0
LINE
  5
3E3
100
AcDbEntity
  8
ASSI
100
AcDbLine
 62
7
  6
CONTINUOUS
 10
-82.533550566
 20
-40.7607333348
 11
-82.489003815
 21
-40.9682889748
  0
LINE
  5
3E4
100
AcDbEntity
  8
ASSI
100
AcDbLine
 62
7
  6
CONTINUOUS
 10
-82.5711983042
 20
-40.5821536674
 11
-82.533550566
 21
-40.7607333348
  0
LINE
  5
3E5
100
AcDbEntity
  8
ASSI
100
AcDbLine
 62
7
  6
CONTINUOUS
 10
-84.3403233429
 20
-34.4230767078
 11
-84.2646940555
 21
-34.7807175671
  0
LINE
  5
3E6
100
AcDbEntity
  8
ASSI
100
AcDbLine
 62
7
  6
CONTINUOUS
 10
-82.6340600178
 20
-40.2811398101
 11
-82.6270219011
 21
-40.3146537377
  0
LINE
  5
3E7
100
AcDbEntity
  8
ASSI
100
AcDbLine
 62
7
  6
CONTINUOUS
 10
-82.6270219011
 20
-40.3146537377
 11
-82.5711983042
 21
-40.5821536674
  0
LINE
  5
3E8
100
AcDbEntity
  8
ASSI
100
AcDbLine
 62
7
  6
CONTINUOUS
 10
-84.4140398459
 20
-34.064738674
 11
-84.3403233429
 21
-34.4230767078
  0
LINE
  5
3E9
100
AcDbEntity
  8
ASSI
100
AcDbLine
 62
7
  6
CONTINUOUS
 10
-84.4853867372
 20
-33.7079903923
 11
-84.4140398459
 21
-34.064738674
  0
LINE
  5
3EA
100
AcDbEntity
  8
ASSI
100
AcDbLine
 62
7
  6
CONTINUOUS
 10
-84.5537810419
 20
-33.3560757779
 11
-84.4853867372
 21
-33.7079903923
  0
LINE
  5
3EB
100
AcDbEntity
  8
ASSI
100
AcDbLine
 62
7
  6
CONTINUOUS
 10
-84.6182119303
 20
-33.0149545263
 11
-84.5537810419
 21
-33.3560757779
  0
LINE
  5
3EC
100
AcDbEntity
  8
ASSI
100
AcDbLine
 62
7
  6
CONTINUOUS
 10
-84.6773429392
 20
-32.6930983593
 11
-84.6182119303
 21
-33.0149545263
  0
LINE
  5
3ED
100
AcDbEntity
  8
ASSI
100
AcDbLine
 62
7
  6
CONTINUOUS
 10
-84.741952266
 20
-32.331168031
 11
-84.6773429392
 21
-32.6930983593
  0
LINE
  5
3EE
100
AcDbEntity
  8
ASSI
100
AcDbLine
 62
7
  6
CONTINUOUS
 10
-84.7749017138
 20
-32.142287972
 11
-84.741952266
 21
-32.331168031
  0
LWPOLYLINE
  5
3EF
100
AcDbEntity
  8
0
100
AcDbPolyline
 62
7
  6
CONTINUOUS
 90
3
 70
0
 10
-85.6335267401
 20
-26.7574916072
 10
-85.6326247014
 20
-26.7656986883
 10
-85.6309547567
 20
-26.7804482496
  0
LWPOLYLINE
  5
3F0
100
AcDbEntity
  8
0
100
AcDbPolyline
 62
7
  6
CONTINUOUS
 90
3
 70
0
 10
-85.6309547567
 20
-26.7804482496
 10
-85.6302660566
 20
-26.7867313694
 10
-85.6292853566
 20
-26.7960901994
  0
LINE
  5
3F1
100
AcDbEntity
  8
0
100
AcDbLine
 62
7
  6
CONTINUOUS
 10
-85.5585128992
 20
-26.7985541322
 11
-85.5593738609
 21
-26.7906488633
  0
LINE
  5
3F2
100
AcDbEntity
  8
0
100
AcDbLine
 62
7
  6
CONTINUOUS
 10
-85.6088932825
 20
-26.346149644
 11
-85.6960822124
 21
-25.5359678178
  0
LINE
  5
3F3
100
AcDbEntity
  8
0
100
AcDbLine
 62
7
  6
CONTINUOUS
 10
-85.7651058202
 20
-25.5480980961
 11
-85.6794278503
 21
-26.3451191631
  0
LINE
  5
3F4
100
AcDbEntity
  8
0
100
AcDbLine
 62
7
  6
CONTINUOUS
 10
-85.7101381528
 20
-25.4515121907
 11
-85.7844788082
 21
-24.699277346
  0
LINE
  5
3F5
100
AcDbEntity
  8
0
100
AcDbLine
 62
7
  6
CONTINUOUS
 10
-85.7844788082
 20
-24.699277346
 11
-85.8568236488
 21
-23.9073952697
  0
LINE
  5
3F6
100
AcDbEntity
  8
0
100
AcDbLine
 62
7
  6
CONTINUOUS
 10
-85.8568236488
 20
-23.9073952697
 11
-85.924284822
 21
-23.1047977713
  0
LINE
  5
3F7
100
AcDbEntity
  8
RACCORDO
100
AcDbLine
 62
250
  6
CONTINUOUS
 10
-85.9000600136
 20
-22.5977747672
 11
-85.8995307529
 21
-22.6056687306
  0
LINE
  5
3F8
100
AcDbEntity
  8
RACCORDO
100
AcDbLine
 62
7
  6
CONTINUOUS
 10
-85.9193306992
 20
-22.303169596
 11
-85.9000600136
 21
-22.5977747672
  0
LINE
  5
3F9
100
AcDbEntity
  8
RACCORDO
100
AcDbLine
 62
250
  6
CONTINUOUS
 10
-85.8988889149
 20
22.6156473451
 11
-85.9000732113
 21
22.5975682049
  0
LINE
  5
3FA
100
AcDbEntity
  8
RACCORDO
100
AcDbLine
 62
7
  6
CONTINUOUS
 10
-85.9000732113
 20
22.5975682049
 11
-85.9193306989
 21
22.3031696003
  0
LWPOLYLINE
  5
3FB
100
AcDbEntity
  8
RACCORDO
100
AcDbPolyline
 62
7
  6
CONTINUOUS
 90
6
 70
0
 10
-84.8410809831
 20
31.766915784
 10
-85.1079607835
 20
30.1572542201
 10
-85.3502534678
 20
28.4894464878
 10
-85.5681998309
 20
26.7527097507
 10
-85.7595688082
 20
24.9578268452
 10
-85.924284822
 20
23.1047977713
  0
LINE
  5
3FC
100
AcDbEntity
  8
ASSI
100
AcDbLine
 62
7
  6
CONTINUOUS
 10
-84.7777226348
 20
32.1259800746
 11
-84.8453960826
 21
31.7284875788
  0
LINE
  5
3FD
100
AcDbEntity
  8
ASSI
100
AcDbLine
 62
7
  6
CONTINUOUS
 10
-84.766312871
 20
32.1918073477
 11
-84.7848085093
 21
32.0849210801
  0
LWPOLYLINE
  5
3FE
100
AcDbEntity
  8
0
100
AcDbPolyline
 62
7
  6
CONTINUOUS
 90
3
 70
0
 43
0.3500000006
 10
-72.0456532745
 20
51.9857129974
 10
-72.1170799255
 20
51.7714285126
 10
-72.2599377594
 20
51.4857128448
  0
LWPOLYLINE
  5
3FF
100
AcDbEntity
  8
0
100
AcDbPolyline
 62
7
  6
CONTINUOUS
 90
4
 70
0
 10
-84.8494780446
 20
-31.7036408883
 10
-85.0061967685
 20
-30.795221496
 10
-85.2227948875
 20
-29.3955363394
 10
-85.4175417822
 20
-27.9801626612
  0
LINE
  5
400
100
AcDbEntity
  8
ASSI
100
AcDbLine
 62
7
  6
CONTINUOUS
 10
-84.84156852
 20
-31.7512642387
 11
-84.7749017138
 21
-32.142287972
  0
LINE
  5
401
100
AcDbEntity
  8
ASSI
100
AcDbLine
 62
7
  6
CONTINUOUS
 10
-84.8500663759
 20
-31.7006706657
 11
-84.84156852
 21
-31.7512642387
  0
LWPOLYLINE
  5
402
100
AcDbEntity
  8
0
100
AcDbPolyline
 62
7
  6
CONTINUOUS
 90
3
 70
0
 10
-85.7755757948
 20
-25.4567224055
 10
-85.7743565797
 20
-25.4661423038
 10
-85.7735285871
 20
-25.4729260941
  0
LINE
  5
403
100
AcDbEntity
  8
0
100
AcDbLine
 62
7
  6
CONTINUOUS
 10
-85.6292853566
 20
-26.7960901994
 11
-85.6289725255
 21
-26.7985541322
  0
LWPOLYLINE
  5
404
100
AcDbEntity
  8
0
100
AcDbPolyline
 62
7
  6
CONTINUOUS
 90
7
 70
0
 10
-85.7040027769
 20
-25.4661334714
 10
-85.7046888078
 20
-25.4606646694
 10
-85.7052235922
 20
-25.4566660681
 10
-85.7056440383
 20
-25.4537722953
 10
-85.7059563412
 20
-25.4519226132
 10
-85.7061543264
 20
-25.4511777597
 10
-85.7061929632
 20
-25.4511422581
  0
LINE
  5
405
100
AcDbEntity
  8
0
100
AcDbLine
 62
7
  6
CONTINUOUS
 10
-85.6272665754
 20
-26.8133253901
 11
-85.6258348451
 21
-26.8248055499
  0
LINE
  5
406
100
AcDbEntity
  8
0
100
AcDbLine
 62
7
  6
CONTINUOUS
 10
-85.5402408617
 20
-27.5361215268
 11
-85.4841717802
 21
-27.9801797807
  0
LINE
  5
407
100
AcDbEntity
  8
0
100
AcDbLine
 62
7
  6
CONTINUOUS
 10
-85.4136027748
 20
-27.9801797807
 11
-85.4698096286
 21
-27.5353634718
  0
LINE
  5
408
100
AcDbEntity
  8
0
100
AcDbLine
 62
7
  6
CONTINUOUS
 10
-85.4698096286
 20
-27.5353634718
 11
-85.5288789672
 21
-27.0485395808
  0
LINE
  5
409
100
AcDbEntity
  8
0
100
AcDbLine
 62
7
  6
CONTINUOUS
 10
-85.7021918618
 20
-25.4813240313
 11
-85.7040027769
 21
-25.4661334714
  0
LINE
  5
40A
100
AcDbEntity
  8
0
100
AcDbLine
 62
7
  6
CONTINUOUS
 10
-85.6258348451
 20
-26.8248055499
 11
-85.5402408617
 21
-27.5361215268
  0
LINE
  5
40B
100
AcDbEntity
  8
0
100
AcDbLine
 62
7
  6
CONTINUOUS
 10
-85.6289725255
 20
-26.7985541322
 11
-85.6272665754
 21
-26.8133253901
  0
LINE
  5
40C
100
AcDbEntity
  8
0
100
AcDbLine
 62
7
  6
CONTINUOUS
 10
-85.5288789672
 20
-27.0485395808
 11
-85.5585128992
 21
-26.7985541322
  0
LWPOLYLINE
  5
40D
100
AcDbEntity
  8
0
100
AcDbPolyline
 62
7
  6
CONTINUOUS
 90
3
 70
0
 10
-85.7735285871
 20
-25.4729260941
 10
-85.7682927166
 20
-25.5187821226
 10
-85.7664408106
 20
-25.5359677442
  0
LINE
  5
40E
100
AcDbEntity
  8
0
100
AcDbLine
 62
7
  6
CONTINUOUS
 10
-85.6794278503
 20
-26.3451191631
 11
-85.6335267401
 21
-26.7574916072
  0
LINE
  5
40F
100
AcDbEntity
  8
0
100
AcDbLine
 62
7
  6
CONTINUOUS
 10
-85.7664408106
 20
-25.5359677442
 11
-85.7651058202
 21
-25.5480980961
  0
LINE
  5
410
100
AcDbEntity
  8
0
100
AcDbLine
 62
7
  6
CONTINUOUS
 10
-85.5593738609
 20
-26.7906488633
 11
-85.6088932825
 21
-26.346149644
  0
LWPOLYLINE
  5
411
100
AcDbEntity
  8
0
100
AcDbPolyline
 62
7
  6
CONTINUOUS
 90
3
 70
0
 10
-85.6960822124
 20
-25.5359678178
 10
-85.697934511
 20
-25.5191486541
 10
-85.7021918618
 20
-25.4813240313
  0
LWPOLYLINE
  5
412
100
AcDbEntity
  8
ASSI
100
AcDbPolyline
 62
250
  6
CONTINUOUS
 90
19
 70
0
 10
-82.0051771132
 20
-42.4242180793
 10
-82.0011885832
 20
-42.4653832411
 10
-81.9938137017
 20
-42.5060776077
 10
-81.983102931
 20
-42.5460227473
 10
-81.9691295593
 20
-42.5849453505
 10
-81.9519891949
 20
-42.622579113
 10
-81.9317991086
 20
-42.6586665561
 10
-81.9086974388
 20
-42.6929607721
 10
-81.8828422496
 20
-42.7252271149
 10
-81.854410443
 20
-42.7552448174
 10
-81.8235965501
 20
-42.7828084974
 10
-81.7906114003
 20
-42.8077295633
 10
-81.755680679
 20
-42.8298375044
 10
-81.7190433386
 20
-42.8489810784
 10
-81.6809500939
 20
-42.8650292759
 10
-81.6416617229
 20
-42.8778722544
 10
-81.6014470961
 20
-42.8874221674
 10
-81.5605813215
 20
-42.8936137279
 10
-81.5193440035
 20
-42.8964046101
  0
LWPOLYLINE
  5
413
100
AcDbEntity
  8
ASSI
100
AcDbPolyline
 62
250
  6
CONTINUOUS
 90
4
 70
0
 10
-81.5193426869
 20
-42.8964046445
 10
-81.519529919
 20
-42.8941639465
 10
-81.5197240321
 20
-42.8874633072
 10
-81.5199172886
 20
-42.8763393561
  0
LINE
  5
414
100
AcDbEntity
  8
RACCORDO
100
AcDbLine
 62
7
  6
CONTINUOUS
 10
-85.9000600136
 20
-22.5977747672
 11
-85.8817133806
 21
-22.8904597787
  0
LINE
  5
415
100
AcDbEntity
  8
RACCORDO
100
AcDbLine
 62
7
  6
CONTINUOUS
 10
-85.8817133806
 20
-22.8904597787
 11
-85.8766497334
 21
-22.9776743238
  0
LINE
  5
416
100
AcDbEntity
  8
RACCORDO
100
AcDbLine
 62
7
  6
CONTINUOUS
 10
-85.8766497334
 20
-22.9776743238
 11
-85.8744466935
 21
-23.0188694796
  0
LINE
  5
417
100
AcDbEntity
  8
RACCORDO
100
AcDbLine
 62
250
  6
CONTINUOUS
 10
-85.8730207186
 20
-23.0488469063
 11
-85.8726966729
 21
-23.0530354814
  0
LINE
  5
418
100
AcDbEntity
  8
RACCORDO
100
AcDbLine
 62
7
  6
CONTINUOUS
 10
-85.8744466935
 20
-23.0188694796
 11
-85.8733487358
 21
-23.0414758194
  0
LINE
  5
419
100
AcDbEntity
  8
RACCORDO
100
AcDbLine
 62
7
  6
CONTINUOUS
 10
-85.8733487358
 20
-23.0414758194
 11
-85.872880209
 21
-23.052171198
  0
LWPOLYLINE
  5
41A
100
AcDbEntity
  8
RACCORDO
100
AcDbPolyline
 62
250
  6
CONTINUOUS
 90
6
 70
0
 10
-85.872646995
 20
-23.058042921
 10
-85.8720279198
 20
-23.0690445272
 10
-85.8716159938
 20
-23.0816212165
 10
-85.8714723995
 20
-23.0905982785
 10
-85.8715885107
 20
-23.0961429839
 10
-85.8719652949
 20
-23.0982553328
  0
LINE
  5
41B
100
AcDbEntity
  8
RACCORDO
100
AcDbLine
 62
7
  6
CONTINUOUS
 10
-85.872880209
 20
-23.052171198
 11
-85.872553202
 21
-23.0605957671
  0
LWPOLYLINE
  5
41C
100
AcDbEntity
  8
RACCORDO
100
AcDbPolyline
 62
250
  6
CONTINUOUS
 90
9
 70
0
 10
-86.1750425531
 20
-16.9642418989
 10
-86.1547186947
 20
-17.5677119737
 10
-86.1319088331
 20
-18.1862600808
 10
-86.1063129784
 20
-18.8202471339
 10
-86.077635527
 20
-19.4693122194
 10
-86.0451454693
 20
-20.1413494337
 10
-86.0082256808
 20
-20.8389901423
 10
-85.9664749036
 20
-21.5596029798
 10
-85.9193102239
 20
-22.3031879461
  0
LWPOLYLINE
  5
41D
100
AcDbEntity
  8
RACCORDO
100
AcDbPolyline
 62
7
  6
CONTINUOUS
 90
3
 70
0
 10
-85.872553202
 20
-23.0605957671
 10
-85.8724106559
 20
-23.0648667053
 10
-85.8723599072
 20
-23.0665951092
  0
LINE
  5
41E
100
AcDbEntity
  8
RACCORDO
100
AcDbLine
 62
250
  6
CONTINUOUS
 10
-86.2100021177
 20
-15.7746546153
 11
-86.1750425531
 21
-16.9642418989
  0
LINE
  5
41F
100
AcDbEntity
  8
RACCORDO
100
AcDbLine
 62
250
  6
CONTINUOUS
 10
-86.2385948014
 20
-14.6023967093
 11
-86.2100021177
 21
-15.7746546153
  0
LINE
  5
420
100
AcDbEntity
  8
RACCORDO
100
AcDbLine
 62
7
  6
CONTINUOUS
 10
-85.8723236305
 20
-23.0679698886
 11
-85.8722994504
 21
-23.0690176987
  0
LINE
  5
421
100
AcDbEntity
  8
RACCORDO
100
AcDbLine
 62
250
  6
CONTINUOUS
 10
-85.8719652949
 20
-23.0982553328
 11
-85.8722994504
 21
-23.0690176987
  0
LINE
  5
422
100
AcDbEntity
  8
RACCORDO
100
AcDbLine
 62
250
  6
CONTINUOUS
 10
-86.2623588013
 20
-13.4257609115
 11
-86.2385948014
 21
-14.6023967093
  0
LWPOLYLINE
  5
423
100
AcDbEntity
  8
RACCORDO
100
AcDbPolyline
 62
7
  6
CONTINUOUS
 90
5
 70
0
 10
-85.8722809646
 20
23.0680482525
 10
-85.8722860538
 20
23.0693766198
 10
-85.8722833613
 20
23.0699543469
 10
-85.872284515
 20
23.0698632637
 10
-85.8722935665
 20
23.0693378108
  0
LWPOLYLINE
  5
424
100
AcDbEntity
  8
RACCORDO
100
AcDbPolyline
 62
7
  6
CONTINUOUS
 90
10
 70
0
 10
-86.3656451517
 20
0.0
 10
-86.3620576425
 20
-2.7269189109
 10
-86.3506650379
 20
-5.4564834152
 10
-86.331245753
 20
-8.1080704508
 10
-86.3037332864
 20
-10.6817436211
 10
-86.2668725053
 20
-13.1776672254
 10
-86.2147646046
 20
-15.5956174386
 10
-86.1414561074
 20
-17.9351253442
 10
-86.0424110858
 20
-20.1958041266
 10
-85.919330699
 20
-22.3031695997
  0
LWPOLYLINE
  5
425
100
AcDbEntity
  8
RACCORDO
100
AcDbPolyline
 62
250
  6
CONTINUOUS
 90
3
 70
0
 10
-85.8719652949
 20
23.0982553328
 10
-85.8726465631
 20
23.0671297749
 10
-85.8724248356
 20
23.0644296694
  0
LWPOLYLINE
  5
426
100
AcDbEntity
  8
RACCORDO
100
AcDbPolyline
 62
250
  6
CONTINUOUS
 90
3
 70
0
 10
-86.2261906856
 20
15.1381479631
 10
-86.2397842385
 20
14.5485078037
 10
-86.2667505047
 20
13.1843468268
  0
LINE
  5
427
100
AcDbEntity
  8
RACCORDO
100
AcDbLine
 62
7
  6
CONTINUOUS
 10
-85.8723134206
 20
23.0684109661
 11
-85.872395483
 21
23.0653661544
  0
LINE
  5
428
100
AcDbEntity
  8
RACCORDO
100
AcDbLine
 62
7
  6
CONTINUOUS
 10
-85.872395483
 20
23.0653661544
 11
-85.8725339216
 21
23.0611380408
  0
LINE
  5
429
100
AcDbEntity
  8
RACCORDO
100
AcDbLine
 62
7
  6
CONTINUOUS
 10
-85.8725339216
 20
23.0611380408
 11
-85.872860515
 21
23.0526515507
  0
LINE
  5
42A
100
AcDbEntity
  8
RACCORDO
100
AcDbLine
 62
250
  6
CONTINUOUS
 10
-85.8725530696
 20
23.0562245176
 11
-85.872860515
 21
23.0526515507
  0
LINE
  5
42B
100
AcDbEntity
  8
RACCORDO
100
AcDbLine
 62
250
  6
CONTINUOUS
 10
-85.8733401416
 20
23.0416700907
 11
-85.8733888703
 21
23.0382185217
  0
LINE
  5
42C
100
AcDbEntity
  8
RACCORDO
100
AcDbLine
 62
7
  6
CONTINUOUS
 10
-85.872860515
 20
23.0526515507
 11
-85.8735353504
 21
23.0374596074
  0
LINE
  5
42D
100
AcDbEntity
  8
RACCORDO
100
AcDbLine
 62
7
  6
CONTINUOUS
 10
-85.8735353504
 20
23.0374596074
 11
-85.8747818968
 21
23.0123191311
  0
LINE
  5
42E
100
AcDbEntity
  8
RACCORDO
100
AcDbLine
 62
250
  6
CONTINUOUS
 10
-85.8744568907
 20
23.0170904133
 11
-85.8747818968
 21
23.0123191311
  0
LINE
  5
42F
100
AcDbEntity
  8
RACCORDO
100
AcDbLine
 62
250
  6
CONTINUOUS
 10
-85.8754105186
 20
23.0003734351
 11
-85.8757525484
 21
22.9928856401
  0
LINE
  5
430
100
AcDbEntity
  8
RACCORDO
100
AcDbLine
 62
7
  6
CONTINUOUS
 10
-85.8747818968
 20
23.0123191311
 11
-85.8773288401
 21
22.9655747181
  0
LWPOLYLINE
  5
431
100
AcDbEntity
  8
RACCORDO
100
AcDbPolyline
 62
7
  6
CONTINUOUS
 90
10
 70
0
 10
-85.919330699
 20
22.3031695998
 10
-86.0420694018
 20
20.2024858548
 10
-86.1412073958
 20
17.941816669
 10
-86.2145904695
 20
15.6023078285
 10
-86.2667505047
 20
13.1843468268
 10
-86.3036684689
 20
10.6884108078
 10
-86.3311882244
 20
8.1147196211
 10
-86.3506263609
 20
5.4631333557
 10
-86.3620397789
 20
2.7335738216
 10
-86.3656451517
 20
0.0
  0
LINE
  5
432
100
AcDbEntity
  8
RACCORDO
100
AcDbLine
 62
7
  6
CONTINUOUS
 10
-85.8773288401
 20
22.9655747181
 11
-85.8846522448
 21
22.8419735015
  0
LINE
  5
433
100
AcDbEntity
  8
RACCORDO
100
AcDbLine
 62
250
  6
CONTINUOUS
 10
-85.882995413
 20
22.8686488689
 11
-85.8846522448
 21
22.8419735015
  0
LWPOLYLINE
  5
434
100
AcDbEntity
  8
RACCORDO
100
AcDbPolyline
 62
250
  6
CONTINUOUS
 90
12
 70
0
 10
-85.9193102239
 20
22.3031879461
 10
-85.9589433965
 20
21.6829672543
 10
-85.9952688087
 20
21.0696839674
 10
-86.0285205262
 20
20.4633380855
 10
-86.0587983527
 20
19.8662874514
 10
-86.0864395177
 20
19.2761742222
 10
-86.111930289
 20
18.6859248691
 10
-86.1354895357
 20
18.0927843317
 10
-86.1571092022
 20
17.4995076703
 10
-86.176866735
 20
16.9072865375
 10
-86.194867137
 20
16.3168420714
 10
-86.2145904695
 20
15.6023078285
  0
LINE
  5
435
100
AcDbEntity
  8
RACCORDO
100
AcDbLine
 62
7
  6
CONTINUOUS
 10
-85.8846522448
 20
22.8419735015
 11
-85.9000732113
 21
22.5975682049
  0
LINE
  5
436
100
AcDbEntity
  8
RACCORDO
100
AcDbLine
 62
7
  6
CONTINUOUS
 10
-77.4726186363
 20
-3.6023718431
 11
-79.2778540259
 21
-3.5551000908
  0
LINE
  5
437
100
AcDbEntity
  8
ASSI
100
AcDbLine
 62
250
  6
CONTINUOUS
 10
-81.5331156022
 20
-41.6060408223
 11
-81.5186848134
 21
-42.0966960116
  0
LINE
  5
438
100
AcDbEntity
  8
ASSI
100
AcDbLine
 62
250
  6
CONTINUOUS
 10
-82.0033074817
 20
-42.1581926434
 11
-82.0181465154
 21
-41.619154915
  0
LINE
  5
439
100
AcDbEntity
  8
ASSI
100
AcDbLine
 62
250
  6
CONTINUOUS
 10
-81.5454261982
 20
-41.0806746999
 11
-81.5331156022
 21
-41.6060408223
  0
LINE
  5
43A
100
AcDbEntity
  8
ASSI
100
AcDbLine
 62
250
  6
CONTINUOUS
 10
-82.0295121598
 20
-41.0909598998
 11
-82.0181465154
 21
-41.619154915
  0
LINE
  5
43B
100
AcDbEntity
  8
ASSI
100
AcDbLine
 62
250
  6
CONTINUOUS
 10
-82.0024022699
 20
-42.202318136
 11
-82.0033074817
 21
-42.1581926434
  0
LINE
  5
43C
100
AcDbEntity
  8
ASSI
100
AcDbLine
 62
250
  6
CONTINUOUS
 10
-81.5556068423
 20
-40.5184876011
 11
-81.5454261982
 21
-41.0806746999
  0
LINE
  5
43D
100
AcDbEntity
  8
ASSI
100
AcDbLine
 62
250
  6
CONTINUOUS
 10
-82.0386624803
 20
-40.5262054678
 11
-82.0295121598
 21
-41.0909598998
  0
LINE
  5
43E
100
AcDbEntity
  8
ASSI
100
AcDbLine
 62
250
  6
CONTINUOUS
 10
-82.0017796747
 20
-42.2449067214
 11
-82.0024022699
 21
-42.202318136
  0
LINE
  5
43F
100
AcDbEntity
  8
ASSI
100
AcDbLine
 62
250
  6
CONTINUOUS
 10
-81.563618056
 20
-39.9118635692
 11
-81.5556068423
 21
-40.5184876011
  0
LINE
  5
440
100
AcDbEntity
  8
ASSI
100
AcDbLine
 62
250
  6
CONTINUOUS
 10
-81.5199172886
 20
-42.8763393561
 11
-81.520277025
 21
-42.8410880766
  0
LINE
  5
441
100
AcDbEntity
  8
ASSI
100
AcDbLine
 62
250
  6
CONTINUOUS
 10
-82.0485064166
 20
-39.595260305
 11
-82.0386624803
 21
-40.5262054678
  0
LINE
  5
442
100
AcDbEntity
  8
ASSI
100
AcDbLine
 62
250
  6
CONTINUOUS
 10
-82.0014215142
 20
-42.2847226896
 11
-82.0017796747
 21
-42.2449067214
  0
LINE
  5
443
100
AcDbEntity
  8
ASSI
100
AcDbLine
 62
250
  6
CONTINUOUS
 10
-81.5715307263
 20
-38.9129245371
 11
-81.563618056
 21
-39.9118635692
  0
LINE
  5
444
100
AcDbEntity
  8
ASSI
100
AcDbLine
 62
250
  6
CONTINUOUS
 10
-81.520277025
 20
-42.8410880766
 11
-81.5206339182
 21
-42.7573969665
  0
LINE
  5
445
100
AcDbEntity
  8
ASSI
100
AcDbLine
 62
250
  6
CONTINUOUS
 10
-82.0549435404
 20
-38.1797561465
 11
-82.0485064166
 21
-39.595260305
  0
LINE
  5
446
100
AcDbEntity
  8
ASSI
100
AcDbLine
 62
250
  6
CONTINUOUS
 10
-82.0013051574
 20
42.3208035077
 11
-82.0014211214
 21
42.3525611588
  0
LINE
  5
447
100
AcDbEntity
  8
ASSI
100
AcDbLine
 62
250
  6
CONTINUOUS
 10
-82.0013051573
 20
-42.3208061687
 11
-82.0014215142
 21
-42.2847226896
  0
LINE
  5
448
100
AcDbEntity
  8
ASSI
100
AcDbLine
 62
250
  6
CONTINUOUS
 10
-82.08116014
 20
-14.8679911157
 11
-82.0572723364
 21
-29.2157848717
  0
LINE
  5
449
100
AcDbEntity
  8
ASSI
100
AcDbLine
 62
250
  6
CONTINUOUS
 10
-82.0572723364
 20
-29.2157848717
 11
-82.0547386985
 21
-31.3800660257
  0
LINE
  5
44A
100
AcDbEntity
  8
ASSI
100
AcDbLine
 62
250
  6
CONTINUOUS
 10
-81.6071429276
 20
-12.0907447202
 11
-81.5749296229
 21
-30.3219117244
  0
LWPOLYLINE
  5
44B
100
AcDbEntity
  8
ASSI
100
AcDbPolyline
 62
250
  6
CONTINUOUS
 90
3
 70
0
 10
-81.5755455929
 20
-36.968139542
 10
-81.5753755004
 20
-37.3864410831
 10
-81.5715307263
 20
-38.9129245371
  0
LINE
  5
44C
100
AcDbEntity
  8
ASSI
100
AcDbLine
 62
250
  6
CONTINUOUS
 10
-81.5749296229
 20
-30.3219117244
 11
-81.5737555657
 21
-31.8910229051
  0
LINE
  5
44D
100
AcDbEntity
  8
ASSI
100
AcDbLine
 62
250
  6
CONTINUOUS
 10
-82.055911266
 20
-36.5361920068
 11
-82.0549435404
 21
-38.1797561465
  0
LINE
  5
44E
100
AcDbEntity
  8
ASSI
100
AcDbLine
 62
250
  6
CONTINUOUS
 10
-82.0547386985
 20
-31.3800660257
 11
-82.055911266
 21
-36.5361920068
  0
LINE
  5
44F
100
AcDbEntity
  8
ASSI
100
AcDbLine
 62
250
  6
CONTINUOUS
 10
-81.5739454499
 20
31.4081736371
 11
-81.5773876066
 21
28.9461382759
  0
LWPOLYLINE
  5
450
100
AcDbEntity
  8
ASSI
100
AcDbPolyline
 62
250
  6
CONTINUOUS
 90
3
 70
0
 10
-82.0551182873
 20
30.8163068182
 10
-82.0606033466
 20
27.6198144293
 10
-82.065793749
 20
25.498092675
  0
LINE
  5
451
100
AcDbEntity
  8
ASSI
100
AcDbLine
 62
250
  6
CONTINUOUS
 10
-82.065793749
 20
25.498092675
 11
-82.08116014
 21
-14.8679911157
  0
LINE
  5
452
100
AcDbEntity
  8
ASSI
100
AcDbLine
 62
250
  6
CONTINUOUS
 10
-81.5773876066
 20
28.9461382759
 11
-81.6071429276
 21
-12.0907447202
  0
LINE
  5
453
100
AcDbEntity
  8
ASSI
100
AcDbLine
 62
250
  6
CONTINUOUS
 10
-82.0530587741
 20
38.8106828577
 11
-82.0551182873
 21
30.8163068182
  0
LINE
  5
454
100
AcDbEntity
  8
ASSI
100
AcDbLine
 62
250
  6
CONTINUOUS
 10
-81.571994214
 20
38.808334911
 11
-81.5755127591
 21
37.0217386416
  0
LINE
  5
455
100
AcDbEntity
  8
ASSI
100
AcDbLine
 62
250
  6
CONTINUOUS
 10
-82.0014215336
 20
42.2847197283
 11
-82.0013051574
 21
42.3208035077
  0
LINE
  5
456
100
AcDbEntity
  8
ASSI
100
AcDbLine
 62
250
  6
CONTINUOUS
 10
-81.5206339273
 20
42.7573917204
 11
-81.5202770482
 21
42.8410855507
  0
LINE
  5
457
100
AcDbEntity
  8
ASSI
100
AcDbLine
 62
250
  6
CONTINUOUS
 10
-82.0477190131
 20
39.694060588
 11
-82.0530587741
 21
38.8106828577
  0
LINE
  5
458
100
AcDbEntity
  8
ASSI
100
AcDbLine
 62
250
  6
CONTINUOUS
 10
-81.5659120806
 20
39.6893649286
 11
-81.571994214
 21
38.808334911
  0
LINE
  5
459
100
AcDbEntity
  8
ASSI
100
AcDbLine
 62
250
  6
CONTINUOUS
 10
-82.0017797095
 20
42.2449037587
 11
-82.0014215336
 21
42.2847197283
  0
LWPOLYLINE
  5
45A
100
AcDbEntity
  8
ASSI
100
AcDbPolyline
 62
250
  6
CONTINUOUS
 90
5
 70
0
 10
-81.5202770482
 20
42.8410855507
 10
-81.5199172968
 20
42.8763387614
 10
-81.5197240333
 20
42.887463096
 10
-81.5195299166
 20
42.8941639073
 10
-81.5193426869
 20
42.8964046445
  0
LINE
  5
45B
100
AcDbEntity
  8
ASSI
100
AcDbLine
 62
250
  6
CONTINUOUS
 10
-82.0382836073
 20
40.5539839474
 11
-82.0477190131
 21
39.694060588
  0
LINE
  5
45C
100
AcDbEntity
  8
ASSI
100
AcDbLine
 62
250
  6
CONTINUOUS
 10
-81.5551275632
 20
40.5461263092
 11
-81.5659120806
 21
39.6893649286
  0
LINE
  5
45D
100
AcDbEntity
  8
ASSI
100
AcDbLine
 62
250
  6
CONTINUOUS
 10
-82.0024018763
 20
42.2023318528
 11
-82.0017797095
 21
42.2449037587
  0
LINE
  5
45E
100
AcDbEntity
  8
ASSI
100
AcDbLine
 62
250
  6
CONTINUOUS
 10
-82.0033086839
 20
42.1581459686
 11
-82.0024018763
 21
42.2023318528
  0
LWPOLYLINE
  5
45F
100
AcDbEntity
  8
ASSI
100
AcDbPolyline
 62
250
  6
CONTINUOUS
 90
3
 70
0
 10
-82.0149790706
 20
41.7447742655
 10
-82.0240360331
 20
41.3627777697
 10
-82.0382836073
 20
40.5539839474
  0
LINE
  5
460
100
AcDbEntity
  8
ASSI
100
AcDbLine
 62
250
  6
CONTINUOUS
 10
-82.0149790706
 20
41.7447742655
 11
-82.0033086839
 21
42.1581459686
  0
LWPOLYLINE
  5
461
100
AcDbEntity
  8
ASSI
100
AcDbPolyline
 62
250
  6
CONTINUOUS
 90
4
 70
0
 10
-81.5186887958
 20
42.0966959073
 10
-81.5296835128
 20
41.731024236
 10
-81.5394285621
 20
41.3511325013
 10
-81.5551275632
 20
40.5461263092
  0
LINE
  5
462
100
AcDbEntity
  8
RACCORDO
100
AcDbLine
 62
250
  6
CONTINUOUS
 10
-85.8726465797
 20
-23.0671303255
 11
-85.8724247144
 21
-23.0644284572
  0
LINE
  5
463
100
AcDbEntity
  8
RACCORDO
100
AcDbLine
 62
250
  6
CONTINUOUS
 10
-86.3656451517
 20
0.0
 11
-82.0844465749
 21
0.0
  0
LINE
  5
464
100
AcDbEntity
  8
ASSI
100
AcDbLine
 62
250
  6
CONTINUOUS
 10
-81.6096156735
 20
0.0
 11
-82.0844465749
 21
0.0
  0
LWPOLYLINE
  5
465
100
AcDbEntity
  8
ASSI
100
AcDbPolyline
 62
250
  6
CONTINUOUS
 90
10
 70
0
 10
-82.0014211214
 20
42.3525611588
 10
-82.0015680267
 20
42.3665012702
 10
-82.0017758239
 20
42.3791613504
 10
-82.0020447006
 20
42.3903261826
 10
-82.0023803475
 20
42.3999691016
 10
-82.0027866702
 20
42.4081173014
 10
-82.0032645695
 20
42.4146365188
 10
-82.0038191999
 20
42.4194822572
 10
-82.0044586528
 20
42.4226997246
 10
-82.0051895311
 20
42.4242892777
  0
LINE
  5
466
100
AcDbEntity
  8
ASSI
100
AcDbLine
 62
250
  6
CONTINUOUS
 10
-81.5186782855
 20
42.0966961825
 11
-81.5206942137
 21
42.682898631
  0
LINE
  5
467
100
AcDbEntity
  8
ASSI
100
AcDbLine
 62
7
  6
CONTINUOUS
 10
-79.4726186363
 20
-42.95
 11
-79.4726186363
 21
42.95
  0
LINE
  5
468
100
AcDbEntity
  8
ASSI
100
AcDbLine
 62
250
  6
CONTINUOUS
 10
-81.5755127591
 20
37.0217386416
 11
-81.5739454499
 21
31.4081736371
  0
LINE
  5
469
100
AcDbEntity
  8
ASSI
100
AcDbLine
 62
250
  6
CONTINUOUS
 10
-81.5737555657
 20
-31.8910229051
 11
-81.5755455929
 21
-36.968139542
  0
LINE
  5
46A
100
AcDbEntity
  8
ASSI
100
AcDbLine
 62
250
  6
CONTINUOUS
 10
-81.5206942137
 20
42.682898631
 11
-81.5206339273
 21
42.7573917204
  0
LINE
  5
46B
100
AcDbEntity
  8
ASSI
100
AcDbLine
 62
250
  6
CONTINUOUS
 10
-81.5206339182
 20
-42.7573969665
 11
-81.5204816539
 21
-42.5472507667
  0
LINE
  5
46C
100
AcDbEntity
  8
ASSI
100
AcDbLine
 62
250
  6
CONTINUOUS
 10
-81.5189329465
 20
-42.1564669882
 11
-81.5186782855
 21
-42.0966961825
  0
LINE
  5
46D
100
AcDbEntity
  8
ASSI
100
AcDbLine
 62
250
  6
CONTINUOUS
 10
-81.5204816539
 20
-42.5472507667
 11
-81.5189329465
 21
-42.1564669882
  0
LWPOLYLINE
  5
46E
100
AcDbEntity
  8
RACCORDO
100
AcDbPolyline
 62
250
  6
CONTINUOUS
 90
6
 70
0
 10
-85.8719652949
 20
23.0982553328
 10
-85.8715941566
 20
23.0963611307
 10
-85.8714678243
 20
23.0912221554
 10
-85.8715854052
 20
23.0828384068
 10
-85.8719485752
 20
23.0711538488
 10
-85.8725339216
 20
23.0611380408
  0
LINE
  5
46F
100
AcDbEntity
  8
ASSI
100
AcDbLine
 62
7
  6
CONTINUOUS
 10
-77.4726186363
 20
41.8504584445
 11
-77.4726186363
 21
41.4532998869
  0
LINE
  5
470
100
AcDbEntity
  8
0
100
AcDbLine
 62
7
  6
CONTINUOUS
 10
-77.4726186363
 20
41.4532998869
 11
-77.4726186363
 21
3.6023718431
  0
LINE
  5
471
100
AcDbEntity
  8
0
100
AcDbLine
 62
7
  6
CONTINUOUS
 10
-77.4726186363
 20
-3.6023718431
 11
-77.4726186363
 21
-41.4532960047
  0
LINE
  5
472
100
AcDbEntity
  8
ASSI
100
AcDbLine
 62
7
  6
CONTINUOUS
 10
-77.4726186363
 20
-41.4532960047
 11
-77.4726186363
 21
-41.8504595873
  0
LINE
  5
473
100
AcDbEntity
  8
RACCORDO
100
AcDbLine
 62
7
  6
CONTINUOUS
 10
-77.4726186363
 20
3.6023718431
 11
-79.2778540259
 21
3.5551000908
  0
LWPOLYLINE
  5
474
100
AcDbEntity
  8
0
100
AcDbPolyline
 62
7
  6
CONTINUOUS
 90
4
 70
0
 43
0.3500000006
 10
-75.1170808411
 20
52.1285708313
 10
-75.1170808411
 20
52.9857133026
 10
-74.6885118713
 20
53.4142868042
 10
-74.0456538849
 20
53.4142868042
  0
LWPOLYLINE
  5
475
100
AcDbEntity
  8
ASSI
100
AcDbPolyline
 62
250
  6
CONTINUOUS
 90
11
 70
0
 10
-82.005191464
 20
-42.4242992519
 10
-82.0044597531
 20
-42.4227052407
 10
-82.0038196614
 20
-42.4194845333
 10
-82.0032645925
 20
-42.4146367733
 10
-82.0027865454
 20
-42.4081171774
 10
-82.0023803068
 20
-42.3999698187
 10
-82.0020447442
 20
-42.3903276873
 10
-82.001775863
 20
-42.3791631555
 10
-82.0015680553
 20
-42.366503322
 10
-82.0014211395
 20
-42.3525634309
 10
-82.0013051573
 20
-42.3208061687
  0
LINE
  5
476
100
AcDbEntity
  8
RACCORDO
100
AcDbLine
 62
250
  6
CONTINUOUS
 10
-85.924284822
 20
23.1047977713
 11
-85.8719652949
 21
23.0982553328
  0
LWPOLYLINE
  5
477
100
AcDbEntity
  8
ASSI
100
AcDbPolyline
 62
250
  6
CONTINUOUS
 90
7
 70
0
 10
-82.1243624413
 20
42.551524408
 10
-82.1242989521
 20
42.5514157559
 10
-82.1241122472
 20
42.5511288314
 10
-82.1237727801
 20
42.5506789036
 10
-82.1232755679
 20
42.5500125388
 10
-82.1226091975
 20
42.5491112758
 10
-82.121756866
 20
42.5479936023
  0
LWPOLYLINE
  5
478
100
AcDbEntity
  8
ASSI
100
AcDbPolyline
 62
250
  6
CONTINUOUS
 90
4
 70
0
 10
-82.1234701026
 20
-42.550261117
 10
-82.1239448428
 20
-42.550887146
 10
-82.1242248963
 20
-42.551308147
 10
-82.1243504543
 20
-42.5515011173
  0
LWPOLYLINE
  5
479
100
AcDbEntity
  8
ASSI
100
AcDbPolyline
 62
250
  6
CONTINUOUS
 90
4
 70
0
 10
-82.1163253483
 20
-42.5410406751
 10
-82.1208165754
 20
-42.5467711294
 10
-82.1219144701
 20
-42.5482030015
 10
-82.1227952008
 20
-42.5493750847
  0
LWPOLYLINE
  5
47A
100
AcDbEntity
  8
ASSI
100
AcDbPolyline
 62
250
  6
CONTINUOUS
 90
5
 70
0
 10
-82.121756866
 20
42.5479936023
 10
-82.1195011361
 20
42.5451019483
 10
-82.1181274082
 20
42.5433284213
 10
-82.1165896207
 20
42.5413845084
 10
-82.1130816589
 20
42.5369639552
  0
LINE
  5
47B
100
AcDbEntity
  8
ASSI
100
AcDbLine
 62
250
  6
CONTINUOUS
 10
-82.1051843748
 20
-42.5274622943
 11
-82.1055704761
 21
-42.5279344468
  0
LWPOLYLINE
  5
47C
100
AcDbEntity
  8
ASSI
100
AcDbPolyline
 62
250
  6
CONTINUOUS
 90
5
 70
0
 10
-82.1055704761
 20
-42.5279344468
 10
-82.1102340895
 20
-42.5333903974
 10
-82.1124270943
 20
-42.5361406846
 10
-82.1144584912
 20
-42.5387066897
 10
-82.1163253483
 20
-42.5410406751
  0
LWPOLYLINE
  5
47D
100
AcDbEntity
  8
ASSI
100
AcDbPolyline
 62
250
  6
CONTINUOUS
 90
9
 70
0
 10
-82.0894535
 20
42.5107442583
 10
-82.0838570131
 20
42.5040146598
 10
-82.0770712519
 20
42.4960585929
 10
-82.0689923053
 20
42.4867892383
 10
-82.0594339963
 20
42.476310501
 10
-82.0483430288
 20
42.4647961502
 10
-82.0356704621
 20
42.4523105253
 10
-82.0213096356
 20
42.4388059186
 10
-82.0051895311
 20
42.4242892777
  0
LWPOLYLINE
  5
47E
100
AcDbEntity
  8
ASSI
100
AcDbPolyline
 62
250
  6
CONTINUOUS
 90
4
 70
0
 10
-82.1130816589
 20
42.5369639552
 10
-82.1090204651
 20
42.5320466558
 10
-82.1069226219
 20
42.5294436165
 10
-82.1051981986
 20
42.5274154823
  0
LWPOLYLINE
  5
47F
100
AcDbEntity
  8
ASSI
100
AcDbPolyline
 62
250
  6
CONTINUOUS
 90
17
 70
0
 10
-82.005191464
 20
-42.4242992519
 10
-82.0211396149
 20
-42.4386506968
 10
-82.0353683357
 20
-42.4520164795
 10
-82.0479453869
 20
-42.4643898689
 10
-82.0590179838
 20
-42.4758393062
 10
-82.0685729901
 20
-42.4862797054
 10
-82.0765702283
 20
-42.4954777905
 10
-82.0832178304
 20
-42.5032865187
 10
-82.0887031356
 20
-42.509844127
 10
-82.0930867306
 20
-42.5153513143
 10
-82.0965350956
 20
-42.5197570921
 10
-82.0992401786
 20
-42.5231043902
 10
-82.1012757742
 20
-42.5257317156
 10
-82.1027380524
 20
-42.527670054
 10
-82.1037511016
 20
-42.5288664804
 10
-82.1043434088
 20
-42.5295357055
 10
-82.1045497623
 20
-42.5297077691
  0
LWPOLYLINE
  5
480
100
AcDbEntity
  8
ASSI
100
AcDbPolyline
 62
250
  6
CONTINUOUS
 90
8
 70
0
 10
-82.1045419709
 20
42.5297301758
 10
-82.1044902035
 20
42.5296789635
 10
-82.1040925212
 20
42.5292602905
 10
-82.1032567252
 20
42.5283363426
 10
-82.1019647435
 20
42.5266086121
 10
-82.1000568159
 20
42.5240991434
 10
-82.0973789038
 20
42.5207950848
 10
-82.0894535
 20
42.5107442583
  0
LWPOLYLINE
  5
481
100
AcDbEntity
  8
0
100
AcDbPolyline
 62
7
  6
CONTINUOUS
 90
10
 70
0
 43
0.3500000006
 10
-72.1170799255
 20
52.2000020142
 10
-72.0456532745
 20
52.0571441803
 10
-72.0456532745
 20
51.9857129974
 10
-72.1885111084
 20
51.8428551636
 10
-72.2599377594
 20
51.8428551636
 10
-72.3313689423
 20
51.9142863464
 10
-72.3313689423
 20
51.9857129974
 10
-72.2599377594
 20
52.1285708313
 10
-72.1885111084
 20
52.2000020142
 10
-72.1170799255
 20
52.2000020142
  0
LWPOLYLINE
  5
482
100
AcDbEntity
  8
ASSI
100
AcDbPolyline
 62
250
  6
CONTINUOUS
 90
16
 70
0
 10
-77.4726185231
 20
41.453298463
 10
-77.5903971174
 20
41.5291190349
 10
-77.7100361765
 20
41.6004749386
 10
-77.8312889853
 20
41.6673661741
 10
-77.9533973014
 20
41.7295744405
 10
-78.0766269521
 20
41.7873180388
 10
-78.2023661851
 20
41.8412518715
 10
-78.3303659829
 20
41.8915402636
 10
-78.4605878003
 20
41.9380188902
 10
-78.5949019936
 20
41.9808496789
 10
-78.7343504428
 20
42.0204072062
 10
-78.8777331061
 20
42.0563168957
 10
-79.023571608
 20
42.0876169457
 10
-79.1712339243
 20
42.1139867555
 10
-79.3209815779
 20
42.1357469258
 10
-79.4726186271
 20
42.1528974564
  0
LWPOLYLINE
  5
483
100
AcDbEntity
  8
ASSI
100
AcDbPolyline
 62
250
  6
CONTINUOUS
 90
19
 70
0
 10
-81.5193426869
 20
42.8964046445
 10
-81.5605805512
 20
42.8936137022
 10
-81.6014467097
 20
42.8874220197
 10
-81.6416615555
 20
42.8778719616
 10
-81.6809499386
 20
42.8650288705
 10
-81.7190430473
 20
42.8489806199
 10
-81.7556802481
 20
42.8298370135
 10
-81.790610869
 20
42.8077290333
 10
-81.8235959154
 20
42.782807943
 10
-81.8544097045
 20
42.7552442537
 10
-81.8828414086
 20
42.7252265569
 10
-81.9086964988
 20
42.6929602347
 10
-81.9317980758
 20
42.6586660531
 10
-81.9519880791
 20
42.6225786536
 10
-81.9691283694
 20
42.5849449465
 10
-81.9831016741
 20
42.5460224207
 10
-81.9938123882
 20
42.506077384
 10
-82.0011872295
 20
42.4653831408
 10
-82.0051757396
 20
42.424218121
  0
LINE
  5
484
100
AcDbEntity
  8
ASSI
100
AcDbLine
 62
250
  6
CONTINUOUS
 10
-81.5186887958
 20
42.0966959073
 11
-79.4726186363
 21
42.15027414
  0
LINE
  5
485
100
AcDbEntity
  8
ASSI
100
AcDbLine
 62
7
  6
CONTINUOUS
 10
-81.6613178652
 20
42.8926868937
 11
-79.4726186363
 21
42.95
  0
LWPOLYLINE
  5
486
100
AcDbEntity
  8
ASSI
100
AcDbPolyline
 62
250
  6
CONTINUOUS
 90
3
 70
0
 10
-82.0045419704
 20
42.1128841064
 10
-82.0005213504
 20
42.1127184679
 10
-81.5186809778
 20
42.0966962701
  0
LWPOLYLINE
  5
487
100
AcDbEntity
  8
0
100
AcDbPolyline
 62
7
  6
CONTINUOUS
 90
13
 70
0
 43
0.3500000006
 10
-74.6885118713
 20
53.4142868042
 10
-74.9742230072
 20
53.6285712891
 10
-74.9742230072
 20
54.2714292755
 10
-74.6885118713
 20
54.6999982452
 10
-74.0456538849
 20
54.6999982452
 10
-73.7599382172
 20
54.2714292755
 10
-73.7599382172
 20
53.6285712891
 10
-74.0456538849
 20
53.4142868042
 10
-73.6170803833
 20
52.9857133026
 10
-73.6170803833
 20
52.1285708313
 10
-74.0456538849
 20
51.7000018616
 10
-74.6885118713
 20
51.7000018616
 10
-75.1170808411
 20
52.1285708313
  0
ARC
  5
488
100
AcDbEntity
  8
ASSI
100
AcDbCircle
 62
7
  6
CONTINUOUS
 10
-79.9026186363
 20
-38.6731796621
 40
4.0
100
AcDbArc
 50
276.1712216475
 51
307.4089399302
  0
ARC
  5
489
100
AcDbEntity
  8
ASSI
100
AcDbCircle
 62
7
  6
CONTINUOUS
 10
-79.9026186363
 20
38.6731796621
 40
4.0
100
AcDbArc
 50
52.5910594998
 51
83.8287779293
  0
ARC
  5
48A
100
AcDbEntity
  8
ASSI
100
AcDbCircle
 62
7
  6
CONTINUOUS
 10
-81.6502153138
 20
-42.3928062279
 40
0.5
100
AcDbArc
 50
198.5078994926
 51
268.3565874239
  0
ARC
  5
48B
100
AcDbEntity
  8
ASSI
100
AcDbCircle
 62
7
  6
CONTINUOUS
 10
-81.6234580987
 20
-42.3935068903
 40
0.5
100
AcDbArc
 50
195.8063987408
 51
268.3565874163
  0
ARC
  5
48C
100
AcDbEntity
  8
ASSI
100
AcDbCircle
 62
7
  6
CONTINUOUS
 10
-81.6234578202
 20
42.3935068976
 40
0.5
100
AcDbArc
 50
133.7839532521
 51
164.193622737
  0
ARC
  5
48D
100
AcDbEntity
  8
ASSI
100
AcDbCircle
 62
7
  6
CONTINUOUS
 10
-81.6502162522
 20
42.3928062034
 40
0.5
100
AcDbArc
 50
133.7839529687
 51
161.492127892
  0
ARC
  5
48E
100
AcDbEntity
  8
RACCORDO
100
AcDbCircle
 62
7
  6
CONTINUOUS
 10
-85.6252519629
 20
23.0807280977
 40
0.3
100
AcDbArc
 50
175.3980846872
 51
211.8954367399
  0
ARC
  5
48F
100
AcDbEntity
  8
RACCORDO
100
AcDbCircle
 62
7
  6
CONTINUOUS
 10
-85.6252519629
 20
-23.0807280977
 40
0.3
100
AcDbArc
 50
148.1046537525
 51
184.6019153128
  0
ARC
  5
490
100
AcDbEntity
  8
RACCORDO
100
AcDbCircle
 62
7
  6
CONTINUOUS
 10
-79.2726186363
 20
-3.3551686258
 40
0.2
100
AcDbArc
 50
180.0
 51
268.5
  0
ARC
  5
491
100
AcDbEntity
  8
RACCORDO
100
AcDbCircle
 62
7
  6
CONTINUOUS
 10
-79.2726186363
 20
3.3551686258
 40
0.2
100
AcDbArc
 50
91.5
 51
180.0
  0
ELLIPSE
  5
492
100
AcDbEntity
  8
RACCORDO
100
AcDbEllipse
 62
7
  6
CONTINUOUS
 10
-10.8480900812
 20
-22.0980900812
 30
0.0
 11
0.3562493039
 21
0.3562493039
 31
0.0
 40
0.9924325091
 41
2.3599925885
 42
3.9231927187
  0
ELLIPSE
  5
493
100
AcDbEntity
  8
RACCORDO
100
AcDbEllipse
 62
7
  6
CONTINUOUS
 10
10.8480900812
 20
-22.0980900812
 30
0.0
 11
-0.3562493039
 21
0.3562493039
 31
0.0
 40
0.9924325091
 41
2.3599925885
 42
3.9231927187
  0
ELLIPSE
  5
494
100
AcDbEntity
  8
RACCORDO
100
AcDbEllipse
 62
7
  6
CONTINUOUS
 10
10.8480900812
 20
22.0980900812
 30
0.0
 11
-0.3562493039
 21
-0.3562493039
 31
0.0
 40
0.9924325091
 41
2.3599925885
 42
3.9231927187
  0
ELLIPSE
  5
495
100
AcDbEntity
  8
RACCORDO
100
AcDbEllipse
 62
7
  6
CONTINUOUS
 10
-10.8480900812
 20
22.0980900812
 30
0.0
 11
0.3562493039
 21
-0.3562493039
 31
0.0
 40
0.9924325091
 41
2.3599925885
 42
3.9231927187
  0
ELLIPSE
  5
496
100
AcDbEntity
  8
ASSI
100
AcDbEllipse
 62
7
  6
CONTINUOUS
 10
59.149725766
 20
42.149725766
 30
0.0
 11
0.566073184
 21
0.566073184
 31
0.0
 40
0.999315002
 41
-0.7850555471
 42
0.7850555471
  0
ELLIPSE
  5
497
100
AcDbEntity
  8
ASSI
100
AcDbEllipse
 62
7
  6
CONTINUOUS
 10
59.149725766
 20
-42.149725766
 30
0.0
 11
0.566073184
 21
-0.566073184
 31
0.0
 40
0.999315002
 41
-0.7850555471
 42
0.7850555471
  0
ELLIPSE
  5
498
100
AcDbEntity
  8
ASSI
100
AcDbEllipse
 62
7
  6
CONTINUOUS
 10
-59.149725766
 20
-42.149725766
 30
0.0
 11
0.566073184
 21
0.566073184
 31
0.0
 40
0.999315002
 41
-3.9266482006
 42
-2.3565371065
  0
ELLIPSE
  5
499
100
AcDbEntity
  8
ASSI
100
AcDbEllipse
 62
7
  6
CONTINUOUS
 10
-59.149725766
 20
42.149725766
 30
0.0
 11
0.566073184
 21
-0.566073184
 31
0.0
 40
0.999315002
 41
2.3565371065
 42
3.9266482006
  0
ENDSEC
  0
SECTION
  2
OBJECTS
  0
DICTIONARY
  5
C
100
AcDbDictionary
280
0
281
1
  3
ACAD_GROUP
350
D
  3
ACAD_MLINESTYLE
350
17
  3
ACAD_LAYOUT
350
1A
  3
ACAD_PLOTSETTINGS
350
19
  3
ACAD_PLOTSTYLENAME
350
E
  0
DICTIONARY
  5
D
102
{ACAD_REACTORS
330
C
102
}
100
AcDbDictionary
280
0
281
1
  0
ACDBDICTIONARYWDFLT
  5
E
102
{ACAD_REACTORS
330
C
102
}
100
AcDbDictionary
281
1
  3
Normal
350
F
100
AcDbDictionaryWithDefault
340
F
  0
DICTIONARY
  5
17
102
{ACAD_REACTORS
330
C
102
}
100
AcDbDictionary
280
0
281
1
  3
Standard
350
18
  0
DICTIONARY
  5
19
102
{ACAD_REACTORS
330
C
102
}
100
AcDbDictionary
281
1
  0
DICTIONARY
  5
1A
102
{ACAD_REACTORS
330
C
102
}
100
AcDbDictionary
281
1
  3
Model
350
49A
  3
Layout1
350
49B
  0
ACDBPLACEHOLDER
  5
F
102
{ACAD_REACTORS
330
E
102
}
  0
MLINESTYLE
  5
18
102
{ACAD_REACTORS
330
17
102
}
100
AcDbMlineStyle
  2
STANDARD
 70
0
  3

 62
256
 51
90.0
 52
90.0
 71
2
 49
0.5
 62
256
  6
BYLAYER
 49
-0.5
 62
256
  6
BYLAYER
  0
LAYOUT
  5
49A
102
{ACAD_REACTORS
330
1A
102
}
100
AcDbPlotSettings
  1

  2
none_device
  4
ISO_A4_(297.00_x_210.00_MM)
  6

 40
0.0
 41
0.0
 42
0.0
 43
0.0
 44
297.0
 45
210.0
 46
0.0
 47
0.0
 48
0.0
 49
0.0
140
0.0
141
0.0
142
1.0
143
1.0
 70
1024
 72
1
 73
0
 74
0
  7

 75
0
147
1.0
148
0.0
149
0.0
100
AcDbLayout
  1
Model
 70
0
 71
0
 10
0.0
 20
0.0
 11
297.0
 21
210.0
 12
0.0
 22
0.0
 32
0.0
 14
0.0
 24
0.0
 34
0.0
 15
0.0
 25
0.0
 35
0.0
146
0.0
 13
0.0
 23
0.0
 33
0.0
 16
1.0
 26
0.0
 36
0.0
 17
0.0
 27
1.0
 37
0.0
 76
0
330
213
345
0
346
0
  0
LAYOUT
  5
49B
102
{ACAD_REACTORS
330
1A
102
}
100
AcDbPlotSettings
  1

  2
none_device
  4
ISO_A4_(297.00_x_210.00_MM)
  6

 40
0.0
 41
0.0
 42
0.0
 43
0.0
 44
297.0
 45
210.0
 46
0.0
 47
0.0
 48
0.0
 49
0.0
140
0.0
141
0.0
142
1.0
143
1.0
 70
0
 72
1
 73
0
 74
0
  7

 75
0
147
1.0
148
0.0
149
0.0
100
AcDbLayout
  1
Layout1
 70
0
 71
1
 10
0.0
 20
0.0
 11
297.0
 21
210.0
 12
0.0
 22
0.0
 32
0.0
 14
0.0
 24
0.0
 34
0.0
 15
0.0
 25
0.0
 35
0.0
146
0.0
 13
0.0
 23
0.0
 33
0.0
 16
1.0
 26
0.0
 36
0.0
 17
0.0
 27
1.0
 37
0.0
 76
0
330
214
345
0
346
0
  0
ENDSEC
  0
EOF
