  0
SECTION
  2
HEADER
  9
$ACADVER
  1
AC1024
  9
$DWGCODEPAGE
  3
ANSI_1252
  9
$EXTMAX
 10
297.0
 20
210.0
 30
0.0
  9
$EXTMIN
 10
0.0
 20
0.0
 30
0.0
  9
$LIMMIN
 10
0.0
 20
0.0
  9
$LIMMAX
 10
297.0
 20
210.0
  9
$VIEWCTR
 10
148.5
 20
105.0
  9
$VIEWSIZE
 40
210.0
  9
$CLAYER
  8
0
  9
$LTSCALE
 40
16.335
  9
$CELTYPE
  6
BYLAYER
  9
$DIMSCALE
 40
1.0
  9
$DIMASZ
 40
3.0
  9
$DIMEXO
 40
0.5
  9
$DIMDLI
 40
11.286
  9
$DIMEXE
 40
1.5
  9
$DIMCEN
 40
2.673
  9
$DIMLFAC
 40
1.0
  9
$DIMBLK
  1
_FILLED
  9
$DIMALT
 70
0
  9
$DIMALTF
 40
0.0393700787
  9
$DIMTXT
 40
3.0
  9
$DIMTOL
 70
1
  9
$DIMLIM
 70
0
  9
$DIMTFAC
 40
1.0
  9
$DIMTP
 40
0.01
  9
$DIMTM
 40
0.01
  9
$DIMGAP
 40
0.625
  9
$DIMDSEP
 70
44
  9
$AUNITS
 70
0
  9
$PDMODE
 70
3
  9
$PDSIZE
 40
3.0
  9
$HANDSEED
  5
4BB
  9
$TILEMODE
 70
1
  9
$MEASUREMENT
 70
1
  9
$INSUNITS
 70
4
  0
ENDSEC
  0
SECTION
  2
CLASSES
  0
CLASS
  1
ACDBDICTIONARYWDFLT
  2
AcDbDictionaryWithDefault
  3
AutoCAD 2000
 90
0
 91
1
280
0
281
0
  0
CLASS
  1
ACDBPLACEHOLDER
  2
AcDbPlaceHolder
  3
AutoCAD 2000
 90
0
 91
1
280
0
281
0
  0
CLASS
  1
LAYOUT
  2
AcDbLayout
  3
AutoCAD 2000
 90
0
 91
0
280
0
281
0
  0
ENDSEC
  0
SECTION
  2
TABLES
  0
TABLE
  2
VPORT
  5
8
100
AcDbSymbolTable
 70
2
  0
VPORT
  5
1F4
100
AcDbSymbolTableRecord
100
AcDbViewportTableRecord
  2
*ACTIVE
 70
0
 10
0.0
 20
0.0
 11
1.0
 21
1.0
 12
148.5
 22
105.0
 13
0.0
 23
0.0
 14
1.0
 24
1.0
 15
0.0
 25
0.0
 16
0.0
 26
0.0
 36
1.0
 17
0.0
 27
0.0
 37
0.0
 40
210.0
 41
1.4142857143
 42
50.0
 43
0.0
 44
0.0
 50
0.0
 51
0.0
 71
0
 72
100
 73
1
 74
1
 75
0
 76
0
 77
0
 78
0
  0
ENDTAB
  0
TABLE
  2
LTYPE
  5
5
100
AcDbSymbolTable
 70
6
  0
LTYPE
  5
14
100
AcDbSymbolTableRecord
100
AcDbLinetypeTableRecord
  2
BYBLOCK
 70
0
  3

 72
65
 73
0
 40
0.0
  0
LTYPE
  5
15
100
AcDbSymbolTableRecord
100
AcDbLinetypeTableRecord
  2
BYLAYER
 70
0
  3

 72
65
 73
0
 40
0.0
  0
LTYPE
  5
16
100
AcDbSymbolTableRecord
100
AcDbLinetypeTableRecord
  2
CONTINUOUS
 70
64
  3
Solid line
 72
65
 73
0
 40
0.0
  0
LTYPE
  5
1F5
100
AcDbSymbolTableRecord
100
AcDbLinetypeTableRecord
  2
CENTER
 70
64
  3
____ _ ____ _ ____ _ ____ _ ____ _ ____ _ ____
 72
65
 73
4
 40
0.6
 49
0.375
 74
0
 49
-0.075
 74
0
 49
0.075
 74
0
 49
-0.075
 74
0
  0
LTYPE
  5
1F6
100
AcDbSymbolTableRecord
100
AcDbLinetypeTableRecord
  2
HIDDEN
 70
64
  3
- - - - - - - - - - - - - - - - - - - -
 72
65
 73
2
 40
0.2
 49
0.1
 74
0
 49
-0.1
 74
0
  0
LTYPE
  5
1F7
100
AcDbSymbolTableRecord
100
AcDbLinetypeTableRecord
  2
PHANTOM
 70
64
  3
_____ _ _ _____ _ _ _____ _ _ _____
 72
65
 73
6
 40
0.8
 49
0.45
 74
0
 49
-0.05
 74
0
 49
0.1
 74
0
 49
-0.05
 74
0
 49
0.1
 74
0
 49
-0.05
 74
0
  0
LTYPE
  5
1F8
100
AcDbSymbolTableRecord
100
AcDbLinetypeTableRecord
  2
DOT
 70
64
  3
. . . . . . . . . . . . . . . . . . . .
 72
65
 73
2
 40
0.2
 49
0.1
 74
0
 49
-0.1
 74
0
  0
LTYPE
  5
1F9
100
AcDbSymbolTableRecord
100
AcDbLinetypeTableRecord
  2
DASHED
 70
64
  3
- - - - - - - - - - - - - - - - - - - -
 72
65
 73
2
 40
0.2
 49
0.1
 74
0
 49
-0.1
 74
0
  0
ENDTAB
  0
TABLE
  2
LAYER
  5
2
100
AcDbSymbolTable
 70
36
  0
LAYER
  5
10
100
AcDbSymbolTableRecord
100
AcDbLayerTableRecord
  2
0
 70
0
 62
7
  6
CONTINUOUS
370
-3
390
F
  0
LAYER
  5
1FA
100
AcDbSymbolTableRecord
100
AcDbLayerTableRecord
  2
DEFAULT_1
 70
0
 62
7
  6
CENTER
370
-3
390
F
  0
LAYER
  5
1FB
100
AcDbSymbolTableRecord
100
AcDbLayerTableRecord
  2
DEFAULT_2
 70
0
 62
7
  6
HIDDEN
370
-3
390
F
  0
LAYER
  5
1FC
100
AcDbSymbolTableRecord
100
AcDbLayerTableRecord
  2
DEFAULT_3
 70
0
 62
7
  6
PHANTOM
370
-3
390
F
  0
LAYER
  5
1FD
100
AcDbSymbolTableRecord
100
AcDbLayerTableRecord
  2
ASSI
 70
0
 62
7
  6
CONTINUOUS
370
-3
390
F
  0
LAYER
  5
1FE
100
AcDbSymbolTableRecord
100
AcDbLayerTableRecord
  2
COORDINATE
 70
0
 62
7
  6
CONTINUOUS
370
-3
390
F
  0
LAYER
  5
1FF
100
AcDbSymbolTableRecord
100
AcDbLayerTableRecord
  2
COPY_PUBLISH
 70
0
 62
7
  6
CONTINUOUS
370
-3
390
F
  0
LAYER
  5
200
100
AcDbSymbolTableRecord
100
AcDbLayerTableRecord
  2
COSMETICI
 70
0
 62
7
  6
CONTINUOUS
370
-3
390
F
  0
LAYER
  5
201
100
AcDbSymbolTableRecord
100
AcDbLayerTableRecord
  2
CURVE
 70
0
 62
7
  6
CONTINUOUS
370
-3
390
F
  0
LAYER
  5
202
100
AcDbSymbolTableRecord
100
AcDbLayerTableRecord
  2
DRAFT
 70
0
 62
7
  6
CONTINUOUS
370
-3
390
F
  0
LAYER
  5
203
100
AcDbSymbolTableRecord
100
AcDbLayerTableRecord
  2
IMPORT_IGES
 70
0
 62
7
  6
CONTINUOUS
370
-3
390
F
  0
LAYER
  5
204
100
AcDbSymbolTableRecord
100
AcDbLayerTableRecord
  2
INTF_1
 70
0
 62
7
  6
CONTINUOUS
370
-3
390
F
  0
LAYER
  5
205
100
AcDbSymbolTableRecord
100
AcDbLayerTableRecord
  2
INTF_11
 70
0
 62
7
  6
CONTINUOUS
370
-3
390
F
  0
LAYER
  5
206
100
AcDbSymbolTableRecord
100
AcDbLayerTableRecord
  2
NONE
 70
0
 62
7
  6
CONTINUOUS
370
-3
390
F
  0
LAYER
  5
207
100
AcDbSymbolTableRecord
100
AcDbLayerTableRecord
  2
NOTE
 70
0
 62
7
  6
CONTINUOUS
370
-3
390
F
  0
LAYER
  5
208
100
AcDbSymbolTableRecord
100
AcDbLayerTableRecord
  2
PIANI
 70
0
 62
7
  6
CONTINUOUS
370
-3
390
F
  0
LAYER
  5
209
100
AcDbSymbolTableRecord
100
AcDbLayerTableRecord
  2
PUNTI
 70
0
 62
7
  6
CONTINUOUS
370
-3
390
F
  0
LAYER
  5
20A
100
AcDbSymbolTableRecord
100
AcDbLayerTableRecord
  2
RACCORDO
 70
0
 62
7
  6
CONTINUOUS
370
-3
390
F
  0
LAYER
  5
20B
100
AcDbSymbolTableRecord
100
AcDbLayerTableRecord
  2
RGB____0____0____0__
 70
0
 62
7
  6
CONTINUOUS
370
-3
390
F
  0
LAYER
  5
20C
100
AcDbSymbolTableRecord
100
AcDbLayerTableRecord
  2
SIMBOLI
 70
0
 62
7
  6
CONTINUOUS
370
-3
390
F
  0
LAYER
  5
20D
100
AcDbSymbolTableRecord
100
AcDbLayerTableRecord
  2
SMUSSO
 70
0
 62
7
  6
CONTINUOUS
370
-3
390
F
  0
LAYER
  5
20E
100
AcDbSymbolTableRecord
100
AcDbLayerTableRecord
  2
SNAPLINE
 70
0
 62
7
  6
CONTINUOUS
370
-3
390
F
  0
LAYER
  5
20F
100
AcDbSymbolTableRecord
100
AcDbLayerTableRecord
  2
SUPERFICI
 70
0
 62
7
  6
CONTINUOUS
370
-3
390
F
  0
LAYER
  5
210
100
AcDbSymbolTableRecord
100
AcDbLayerTableRecord
  2
TRASH
 70
0
 62
7
  6
CONTINUOUS
370
-3
390
F
  0
ENDTAB
  0
TABLE
  2
STYLE
  5
3
100
AcDbSymbolTable
 70
1
  0
STYLE
  5
11
100
AcDbSymbolTableRecord
100
AcDbTextStyleTableRecord
  2
STANDARD
 70
0
 40
0.0
 41
0.8
 50
0.0
 71
0
 42
0.2
  3
txt
  4

  0
STYLE
  5
211
100
AcDbSymbolTableRecord
100
AcDbTextStyleTableRecord
  2
TEXTSTYLE_1
 70
0
 40
0.0
 41
0.8
 50
0.0
 71
0
 42
0.2
  3
gdt
  4

  0
ENDTAB
  0
TABLE
  2
VIEW
  5
6
100
AcDbSymbolTable
 70
0
  0
ENDTAB
  0
TABLE
  2
UCS
  5
7
100
AcDbSymbolTable
 70
0
  0
ENDTAB
  0
TABLE
  2
APPID
  5
9
100
AcDbSymbolTable
 70
1
  0
APPID
  5
212
100
AcDbSymbolTableRecord
100
AcDbRegAppTableRecord
  2
ACAD
 70
0
  0
ENDTAB
  0
TABLE
  2
BLOCK_RECORD
  5
1
100
AcDbSymbolTable
 70
0
  0
BLOCK_RECORD
  5
213
100
AcDbSymbolTableRecord
100
AcDbBlockTableRecord
  2
*Model_Space
  0
BLOCK_RECORD
  5
214
100
AcDbSymbolTableRecord
100
AcDbBlockTableRecord
  2
*Paper_Space
  0
BLOCK_RECORD
  5
215
100
AcDbSymbolTableRecord
100
AcDbBlockTableRecord
  2
_FILLED
  0
BLOCK_RECORD
  5
216
100
AcDbSymbolTableRecord
100
AcDbBlockTableRecord
  2
*D0
  0
BLOCK_RECORD
  5
217
100
AcDbSymbolTableRecord
100
AcDbBlockTableRecord
  2
*D1
  0
BLOCK_RECORD
  5
218
100
AcDbSymbolTableRecord
100
AcDbBlockTableRecord
  2
*D2
  0
ENDTAB
  0
TABLE
  2
DIMSTYLE
  5
A
100
AcDbSymbolTable
 70
1
100
AcDbDimStyleTable
 71
0
  0
DIMSTYLE
105
219
100
AcDbSymbolTableRecord
100
AcDbDimStyleTableRecord
  2
STANDARD
 70
0
  3

  4

 40
1.0
 41
3.0
 42
0.5
 43
0.38
 44
1.5
 45
0.0
 46
0.0
 47
0.01
 48
0.01
140
3.0
141
0.09
142
0.0
143
25.4
144
1.0
145
0.0
146
1.0
147
0.625
 71
1
 72
0
 73
0
 74
0
 75
0
 76
0
 77
1
 78
8
 79
2
170
0
171
1
172
0
173
0
174
0
175
0
176
0
177
0
178
0
270
2
179
2
271
2
272
2
273
2
274
2
275
0
280
0
281
0
282
0
283
1
284
8
285
0
286
0
287
3
288
0
340
11
278
44
341
215
342
215
343
215
344
215
  0
DIMSTYLE
105
21A
100
AcDbSymbolTableRecord
100
AcDbDimStyleTableRecord
  2
DIMSTYLE_1
 70
0
  3

  4

 40
1.0
 41
3.0
 42
0.5
 43
0.38
 44
1.5
 45
0.0
 46
0.0
 47
0.0
 48
0.0
140
3.0
141
0.09
142
0.0
143
25.4
144
1.0
145
0.0
146
1.0
147
0.75
 71
0
 72
0
 73
0
 74
0
 75
0
 76
0
 77
1
 78
8
 79
2
170
0
171
1
172
0
173
0
174
0
175
0
176
0
177
0
178
0
270
2
179
2
271
0
272
0
273
2
274
2
275
0
280
0
281
0
282
0
283
1
284
8
285
0
286
0
287
3
288
0
340
11
278
44
341
215
342
215
343
215
344
215
  0
DIMSTYLE
105
21B
100
AcDbSymbolTableRecord
100
AcDbDimStyleTableRecord
  2
DIMSTYLE_2
 70
0
  3

  4

 40
1.0
 41
3.0
 42
0.5
 43
0.38
 44
1.5
 45
0.0
 46
0.0
 47
0.0
 48
0.0
140
3.0
141
0.09
142
0.0
143
25.4
144
1.0
145
0.0
146
1.0
147
0.75
 71
0
 72
0
 73
0
 74
0
 75
0
 76
0
 77
1
 78
8
 79
2
170
0
171
1
172
0
173
0
174
0
175
0
176
0
177
0
178
0
270
2
179
2
271
1
272
1
273
2
274
2
275
0
280
0
281
0
282
0
283
1
284
8
285
0
286
0
287
3
288
0
340
11
278
44
341
215
342
215
343
215
344
215
  0
ENDTAB
  0
ENDSEC
  0
SECTION
  2
BLOCKS
  0
BLOCK
  5
20
100
AcDbEntity
  8
0
100
AcDbBlockBegin
  2
*Model_Space
 70
0
 10
0.0
 20
0.0
 30
0.0
  3
*Model_Space
  1

  0
ENDBLK
  5
21
100
AcDbEntity
  8
0
100
AcDbBlockEnd
  0
BLOCK
  5
1C
100
AcDbEntity
  8
0
100
AcDbBlockBegin
  2
*Paper_Space
 70
0
 10
0.0
 20
0.0
 30
0.0
  3
*Paper_Space
  1

  0
ENDBLK
  5
1D
100
AcDbEntity
  8
0
100
AcDbBlockEnd
  0
BLOCK
  5
21C
100
AcDbEntity
  8
0
100
AcDbBlockBegin
  2
_FILLED
 70
64
 10
0.0
 20
0.0
  3
_FILLED
  1

  0
SOLID
  5
21D
100
AcDbEntity
  8
0
  6
BYBLOCK
 62
0
100
AcDbTrace
 10
0.0
 20
0.0
 11
-1.0
 21
0.3166666667
 12
-1.0
 22
-0.3166666667
 13
-1.0
 23
-0.3166666667
  0
ENDBLK
  5
21E
100
AcDbEntity
  8
0
  6
BYBLOCK
 62
0
100
AcDbBlockEnd
  0
BLOCK
  5
21F
100
AcDbEntity
  8
0
100
AcDbBlockBegin
 62
7
  6
CONTINUOUS
  2
*D0
 70
65
 10
0.0
 20
0.0
  3
*D0
  1

  0
LINE
  5
220
100
AcDbEntity
  8
0
100
AcDbLine
 62
7
  6
CONTINUOUS
 10
-59.7389736842
 20
43.2833530874
 11
-59.7389736842
 21
53.0830789474
  0
LINE
  5
221
100
AcDbEntity
  8
0
100
AcDbLine
 62
7
  6
CONTINUOUS
 10
60.1610263158
 20
43.2833530874
 11
60.1610263158
 21
53.0830789474
  0
LINE
  5
222
100
AcDbEntity
  8
0
100
AcDbLine
 62
7
  6
CONTINUOUS
 10
-59.7389736842
 20
51.5830789474
 11
0.2110263158
 21
51.5830789474
  0
LINE
  5
223
100
AcDbEntity
  8
0
100
AcDbLine
 62
7
  6
CONTINUOUS
 10
60.1610263158
 20
51.5830789474
 11
0.2110263158
 21
51.5830789474
  0
INSERT
  5
224
100
AcDbEntity
  8
0
100
AcDbBlockReference
 62
7
  6
CONTINUOUS
  2
_FILLED
 10
-59.7389736842
 20
51.5830789474
 41
3.0
 42
3.0
 43
3.0
 50
180.0
  0
INSERT
  5
225
100
AcDbEntity
  8
0
100
AcDbBlockReference
 62
7
  6
CONTINUOUS
  2
_FILLED
 10
60.1610263158
 20
51.5830789474
 41
3.0
 42
3.0
 43
3.0
  0
ENDBLK
  5
226
100
AcDbEntity
  8
0
  6
BYBLOCK
 62
0
100
AcDbBlockEnd
  0
BLOCK
  5
227
100
AcDbEntity
  8
0
100
AcDbBlockBegin
 62
7
  6
CONTINUOUS
  2
*D1
 70
65
 10
0.0
 20
0.0
  3
*D1
  1

  0
LINE
  5
228
100
AcDbEntity
  8
0
100
AcDbLine
 62
7
  6
CONTINUOUS
 10
59.8613004558
 20
43.5830789474
 11
69.6610263158
 21
43.5830789474
  0
LINE
  5
229
100
AcDbEntity
  8
0
100
AcDbLine
 62
7
  6
CONTINUOUS
 10
59.8613004558
 20
-42.3169210526
 11
69.6610263158
 21
-42.3169210526
  0
LINE
  5
22A
100
AcDbEntity
  8
0
100
AcDbLine
 62
7
  6
CONTINUOUS
 10
68.1610263158
 20
43.5830789474
 11
68.1610263158
 21
0.6330789474
  0
LINE
  5
22B
100
AcDbEntity
  8
0
100
AcDbLine
 62
7
  6
CONTINUOUS
 10
68.1610263158
 20
-42.3169210526
 11
68.1610263158
 21
0.6330789474
  0
INSERT
  5
22C
100
AcDbEntity
  8
0
100
AcDbBlockReference
 62
7
  6
CONTINUOUS
  2
_FILLED
 10
68.1610263158
 20
43.5830789474
 41
3.0
 42
3.0
 43
3.0
 50
90.0
  0
INSERT
  5
22D
100
AcDbEntity
  8
0
100
AcDbBlockReference
 62
7
  6
CONTINUOUS
  2
_FILLED
 10
68.1610263158
 20
-42.3169210526
 41
3.0
 42
3.0
 43
3.0
 50
270.0
  0
ENDBLK
  5
22E
100
AcDbEntity
  8
0
  6
BYBLOCK
 62
0
100
AcDbBlockEnd
  0
BLOCK
  5
22F
100
AcDbEntity
  8
0
100
AcDbBlockBegin
 62
7
  6
CONTINUOUS
  2
*D2
 70
65
 10
0.0
 20
0.0
  3
*D2
  1

  0
LINE
  5
230
100
AcDbEntity
  8
0
100
AcDbLine
 62
7
  6
CONTINUOUS
 10
-79.2551090088
 20
42.5863774104
 11
-79.2551089775
 21
53.0830789161
  0
LINE
  5
231
100
AcDbEntity
  8
0
100
AcDbLine
 62
7
  6
CONTINUOUS
 10
-87.7067753077
 20
24.2378767186
 11
-87.7067752215
 21
53.0830789414
  0
LINE
  5
232
100
AcDbEntity
  8
0
100
AcDbLine
 62
7
  6
CONTINUOUS
 10
-79.2551089819
 20
51.5830789161
 11
-83.480942104
 21
51.5830789287
  0
LINE
  5
233
100
AcDbEntity
  8
0
100
AcDbLine
 62
7
  6
CONTINUOUS
 10
-87.706775226
 20
51.5830789414
 11
-83.480942104
 21
51.5830789287
  0
LINE
  5
234
100
AcDbEntity
  8
0
100
AcDbLine
 62
7
  6
CONTINUOUS
 10
-83.480942104
 20
51.5830789287
 11
-95.9260774907
 21
51.5830789474
  0
INSERT
  5
235
100
AcDbEntity
  8
0
100
AcDbBlockReference
 62
7
  6
CONTINUOUS
  2
_FILLED
 10
-79.2551089819
 20
51.5830789161
 41
3.0
 42
3.0
 43
3.0
 50
359.9999998287
  0
INSERT
  5
236
100
AcDbEntity
  8
0
100
AcDbBlockReference
 62
7
  6
CONTINUOUS
  2
_FILLED
 10
-87.706775226
 20
51.5830789414
 41
3.0
 42
3.0
 43
3.0
 50
179.9999998287
  0
ENDBLK
  5
237
100
AcDbEntity
  8
0
  6
BYBLOCK
 62
0
100
AcDbBlockEnd
  0
ENDSEC
  0
SECTION
  2
ENTITIES
  0
DIMENSION
  5
238
100
AcDbEntity
  8
0
100
AcDbDimension
 62
7
  6
CONTINUOUS
  2
*D0
 10
60.1610263158
 20
51.5830789474
 11
-3.0032593985
 21
51.5830789474
 70
160
 71
2
 72
2
 41
0.9
 42
119.9
  3
DIMSTYLE_1
100
AcDbAlignedDimension
 13
-59.7389736842
 23
42.7833530874
 14
60.1610263158
 24
42.7833530874
100
AcDbRotatedDimension
  0
DIMENSION
  5
239
100
AcDbEntity
  8
0
100
AcDbDimension
 62
7
  6
CONTINUOUS
  2
*D1
 10
68.1610263158
 20
-42.3169210526
 11
68.1610263158
 21
-1.7240639098
 70
160
 71
2
 72
2
 41
0.9
 42
85.9
  3
DIMSTYLE_1
100
AcDbAlignedDimension
 13
59.3613004558
 23
43.5830789474
 14
59.3613004558
 24
-42.3169210526
 50
270.0
100
AcDbRotatedDimension
  0
DIMENSION
  5
23A
100
AcDbEntity
  8
0
100
AcDbDimension
 62
7
  6
CONTINUOUS
  2
*D2
 10
-87.706775226
 20
51.5830789414
 11
-95.9260774929
 21
51.5830789659
 70
160
 71
3
 72
2
 41
0.9
 42
8.451666244
  3
DIMSTYLE_2
100
AcDbAlignedDimension
 13
-79.2551090103
 23
42.0863774104
 14
-87.7067753092
 24
23.7378767186
 50
179.9999998287
100
AcDbRotatedDimension
  0
LWPOLYLINE
  5
23B
100
AcDbEntity
  8
ASSI
100
AcDbPolyline
 62
250
  6
CONTINUOUS
 90
12
 70
0
 10
-58.8856524688
 20
-42.2633256972
 10
-58.8871200079
 20
-42.2605347548
 10
-58.8885775059
 20
-42.2543430723
 10
-58.8900149906
 20
-42.2447930141
 10
-58.8914226267
 20
-42.2319499228
 10
-58.8927907833
 20
-42.2159016722
 10
-58.8941100992
 20
-42.1967580657
 10
-58.8953715478
 20
-42.1746500853
 10
-58.8965664982
 20
-42.149728995
 10
-58.8976867746
 20
-42.1221653056
 10
-58.8987247121
 20
-42.0921476088
 10
-58.8996732092
 20
-42.0598812866
  0
LWPOLYLINE
  5
23C
100
AcDbEntity
  8
ASSI
100
AcDbPolyline
 62
250
  6
CONTINUOUS
 90
11
 70
0
 10
-59.6853957267
 20
42.7297751299
 10
-59.6826072298
 20
42.7311167692
 10
-59.6764218401
 20
42.7324492394
 10
-59.6668818302
 20
42.733763434
 10
-59.654052399
 20
42.7350503717
 10
-59.6380212258
 20
42.736301257
 10
-59.6188978717
 20
42.7375075412
 10
-59.5968130304
 20
42.7386609803
 10
-59.5719176351
 20
42.7397536912
 10
-59.544381827
 20
42.7407782063
 10
-59.5143937924
 20
42.7417275237
  0
LWPOLYLINE
  5
23D
100
AcDbEntity
  8
ASSI
100
AcDbPolyline
 62
250
  6
CONTINUOUS
 90
22
 70
0
 10
-59.213658096
 20
-41.4796054905
 10
-59.212127654
 20
-41.5025091945
 10
-59.208967089
 20
-41.5250664097
 10
-59.2041761707
 20
-41.5472768557
 10
-59.197709044
 20
-41.5692531093
 10
-59.1896110968
 20
-41.5908820252
 10
-59.1800190118
 20
-41.6118248113
 10
-59.1689069023
 20
-41.6320760498
 10
-59.1563003221
 20
-41.6516407809
 10
-59.1424132392
 20
-41.6701960751
 10
-59.1272267954
 20
-41.6877245603
 10
-59.1107597254
 20
-41.7042435176
 10
-59.0932825434
 20
-41.7194822115
 10
-59.0747777301
 20
-41.7334223228
 10
-59.0552629145
 20
-41.746082403
 10
-59.0350614894
 20
-41.7572472352
 10
-59.0141791576
 20
-41.7668901566
 10
-58.992610536
 20
-41.7750383586
 10
-58.9706625116
 20
-41.7815575714
 10
-58.9484375466
 20
-41.7864032959
 10
-58.9258336283
 20
-41.7896207425
 10
-58.9028509791
 20
-41.7912102679
  0
LWPOLYLINE
  5
23E
100
AcDbEntity
  8
ASSI
100
AcDbPolyline
 62
250
  6
CONTINUOUS
 90
22
 70
0
 10
-59.6853957267
 20
-41.4636172352
 10
-59.6831532831
 20
-41.5233875087
 10
-59.6764509474
 20
-41.5828250835
 10
-59.6653253218
 20
-41.6415978494
 10
-59.6498364056
 20
-41.6993814058
 10
-59.6300706197
 20
-41.755848266
 10
-59.6061434221
 20
-41.8106707459
 10
-59.5781925552
 20
-41.8635395405
 10
-59.546374385
 20
-41.914164158
 10
-59.5108685672
 20
-41.9622627117
 10
-59.4718791022
 20
-42.0075634324
 10
-59.4296217285
 20
-42.0498196836
 10
-59.3843198126
 20
-42.0888080787
 10
-59.3362201236
 20
-42.1243127731
 10
-59.2855942975
 20
-42.1561298733
 10
-59.2327237443
 20
-42.1840799242
 10
-59.1778985008
 20
-42.2080066034
 10
-59.1214282193
 20
-42.2277718252
 10
-59.0636413354
 20
-42.243259814
 10
-59.004865635
 20
-42.2543841486
 10
-58.9454253016
 20
-42.2610849599
 10
-58.8856524688
 20
-42.2633256972
  0
LINE
  5
23F
100
AcDbEntity
  8
ASSI
100
AcDbLine
 62
250
  6
CONTINUOUS
 10
-59.213658096
 20
-41.4796054905
 11
-59.2317108085
 21
-40.7309884439
  0
LINE
  5
240
100
AcDbEntity
  8
ASSI
100
AcDbLine
 62
250
  6
CONTINUOUS
 10
-58.8996732092
 20
-42.0598812866
 11
-58.9012765801
 21
-41.9894997056
  0
LINE
  5
241
100
AcDbEntity
  8
ASSI
100
AcDbLine
 62
250
  6
CONTINUOUS
 10
-59.2317108085
 20
-40.7309884439
 11
-59.2456036707
 21
-39.923248349
  0
LINE
  5
242
100
AcDbEntity
  8
ASSI
100
AcDbLine
 62
250
  6
CONTINUOUS
 10
-58.9012765801
 20
-41.9894997056
 11
-58.9024530814
 21
-41.9129434729
  0
LINE
  5
243
100
AcDbEntity
  8
ASSI
100
AcDbLine
 62
250
  6
CONTINUOUS
 10
-59.2456036707
 20
-39.923248349
 11
-59.2553699458
 21
-39.064092945
  0
LWPOLYLINE
  5
244
100
AcDbEntity
  8
ASSI
100
AcDbPolyline
 62
250
  6
CONTINUOUS
 90
3
 70
0
 10
-58.9024530814
 20
-41.9129434729
 10
-58.90317057
 20
-41.8323041932
 10
-58.9033505518
 20
-41.7911391736
  0
LINE
  5
245
100
AcDbEntity
  8
ASSI
100
AcDbLine
 62
250
  6
CONTINUOUS
 10
-59.2553699458
 20
-39.064092945
 11
-59.2609228601
 21
-38.1809709006
  0
LINE
  5
246
100
AcDbEntity
  8
ASSI
100
AcDbLine
 62
250
  6
CONTINUOUS
 10
-59.2609228601
 20
-38.1809709006
 11
-59.2635507497
 21
-37.2897408412
  0
LINE
  5
247
100
AcDbEntity
  8
ASSI
100
AcDbLine
 62
250
  6
CONTINUOUS
 10
-59.2789694498
 20
-21.7802623165
 11
-59.2854059482
 21
-17.4677656397
  0
LINE
  5
248
100
AcDbEntity
  8
ASSI
100
AcDbLine
 62
250
  6
CONTINUOUS
 10
-59.2854059482
 20
-17.4677656397
 11
-59.2900771725
 21
-11.5119786635
  0
LINE
  5
249
100
AcDbEntity
  8
ASSI
100
AcDbLine
 62
7
  6
CONTINUOUS
 10
-59.7389736842
 20
42.7833530874
 11
-59.7389736842
 21
-41.5171951927
  0
LINE
  5
24A
100
AcDbEntity
  8
ASSI
100
AcDbLine
 62
250
  6
CONTINUOUS
 10
-59.6839615219
 20
39.10436403
 11
-59.6853955215
 21
42.7297749247
  0
LINE
  5
24B
100
AcDbEntity
  8
ASSI
100
AcDbLine
 62
250
  6
CONTINUOUS
 10
-59.2900771725
 20
-11.5119786635
 11
-59.2923700914
 21
-2.0271127991
  0
LINE
  5
24C
100
AcDbEntity
  8
ASSI
100
AcDbLine
 62
250
  6
CONTINUOUS
 10
-59.2923700914
 20
-2.0271127991
 11
-59.2905950796
 21
11.6406004257
  0
LWPOLYLINE
  5
24D
100
AcDbEntity
  8
ASSI
100
AcDbPolyline
 62
250
  6
CONTINUOUS
 90
3
 70
0
 10
-59.2635507497
 20
-37.2897408412
 10
-59.2631584692
 20
-34.0284287281
 10
-59.2789694498
 20
-21.7802623165
  0
LINE
  5
24E
100
AcDbEntity
  8
ASSI
100
AcDbLine
 62
250
  6
CONTINUOUS
 10
-59.68539544
 20
-41.4636169484
 11
-59.6839615219
 21
39.10436403
  0
LINE
  5
24F
100
AcDbEntity
  8
ASSI
100
AcDbLine
 62
250
  6
CONTINUOUS
 10
-59.2905950796
 20
11.6406004257
 11
-59.2853909163
 21
18.7483066258
  0
LINE
  5
250
100
AcDbEntity
  8
ASSI
100
AcDbLine
 62
250
  6
CONTINUOUS
 10
-59.2853909163
 20
18.7483066258
 11
-59.2756490128
 21
24.6797218084
  0
LINE
  5
251
100
AcDbEntity
  8
ASSI
100
AcDbLine
 62
250
  6
CONTINUOUS
 10
-59.2756490128
 20
24.6797218084
 11
-59.2645596477
 21
29.6299873225
  0
LINE
  5
252
100
AcDbEntity
  8
ASSI
100
AcDbLine
 62
250
  6
CONTINUOUS
 10
-59.2645596477
 20
29.6299873225
 11
-59.2612178079
 21
39.394587648
  0
LINE
  5
253
100
AcDbEntity
  8
ASSI
100
AcDbLine
 62
250
  6
CONTINUOUS
 10
-59.2612178079
 20
39.394587648
 11
-59.2564152176
 21
40.2040647965
  0
LINE
  5
254
100
AcDbEntity
  8
ASSI
100
AcDbLine
 62
250
  6
CONTINUOUS
 10
-58.9033506165
 20
43.0572970136
 11
-58.902870791
 21
43.1391566123
  0
LINE
  5
255
100
AcDbEntity
  8
ASSI
100
AcDbLine
 62
250
  6
CONTINUOUS
 10
-59.2564152176
 20
40.2040647965
 11
-59.2490213598
 21
40.9371947304
  0
LINE
  5
256
100
AcDbEntity
  8
ASSI
100
AcDbLine
 62
250
  6
CONTINUOUS
 10
-58.902870791
 20
43.1391566123
 11
-58.9019205395
 21
43.2180244019
  0
LINE
  5
257
100
AcDbEntity
  8
ASSI
100
AcDbLine
 62
250
  6
CONTINUOUS
 10
-59.2490213598
 20
40.9371947304
 11
-59.2392081328
 21
41.6001137434
  0
LWPOLYLINE
  5
258
100
AcDbEntity
  8
ASSI
100
AcDbPolyline
 62
250
  6
CONTINUOUS
 90
14
 70
0
 10
-58.9019205395
 20
43.2180244019
 10
-58.900525825
 20
43.2917456327
 10
-58.8996732537
 20
43.3260398586
 10
-58.8987247521
 20
43.3583062084
 10
-58.8976868099
 20
43.3883239143
 10
-58.8965665286
 20
43.4158875941
 10
-58.8953715735
 20
43.440808656
 10
-58.8941101202
 20
43.4629165891
 10
-58.8927907977
 20
43.4820601576
 10
-58.8914226348
 20
43.498108343
 10
-58.8900149991
 20
43.5109512894
 10
-58.8885775245
 20
43.520501159
 10
-58.8871200443
 20
43.5266926824
 10
-58.8856525309
 20
43.5294835462
  0
LINE
  5
259
100
AcDbEntity
  8
ASSI
100
AcDbLine
 62
250
  6
CONTINUOUS
 10
-59.2392081328
 20
41.6001137434
 11
-59.2273262944
 21
42.1988367422
  0
LINE
  5
25A
100
AcDbEntity
  8
ASSI
100
AcDbLine
 62
250
  6
CONTINUOUS
 10
-59.2273262944
 20
42.1988367422
 11
-59.2136405109
 21
42.7458889232
  0
LWPOLYLINE
  5
25B
100
AcDbEntity
  8
ASSI
100
AcDbPolyline
 62
250
  6
CONTINUOUS
 90
22
 70
0
 10
59.3248330774
 20
-41.7912203046
 10
59.3478468564
 20
-41.7896262933
 10
59.3704739562
 20
-41.7864055859
 10
59.3927141546
 20
-41.7815578259
 10
59.414666736
 20
-41.77503823
 10
59.436231968
 20
-41.7668908713
 10
59.4571111495
 20
-41.7572487399
 10
59.4773124579
 20
-41.7460842081
 10
59.496827396
 20
-41.7334243747
 10
59.5153323733
 20
-41.7194844836
 10
59.5328097008
 20
-41.7042459974
 10
59.5492769577
 20
-41.6877272213
 10
59.5644636134
 20
-41.6701988764
 10
59.5783509184
 20
-41.6516437422
 10
59.5909577458
 20
-41.6320791302
 10
59.6020701543
 20
-41.611827774
 10
59.6116637453
 20
-41.5908766651
 10
59.6197632499
 20
-41.5692391886
 10
59.6262285495
 20
-41.5472778482
 10
59.6310131128
 20
-41.525113696
 10
59.6341639416
 20
-41.5026262543
 10
59.635681267
 20
-41.4798158048
  0
LWPOLYLINE
  5
25C
100
AcDbEntity
  8
ASSI
100
AcDbPolyline
 62
250
  6
CONTINUOUS
 90
22
 70
0
 10
59.3077051003
 20
-42.2633256972
 10
59.3674774084
 20
-42.2610849991
 10
59.4269168654
 20
-42.2543843598
 10
59.4856913617
 20
-42.2432604088
 10
59.5434764461
 20
-42.2277731844
 10
59.5999446986
 20
-42.2080091293
 10
59.6547686049
 20
-42.1840836675
 10
59.7076389076
 20
-42.1561345054
 10
59.7582650618
 20
-42.1243180192
 10
59.8063651856
 20
-42.0888138679
 10
59.8516675058
 20
-42.0498260436
 10
59.8939253806
 20
-42.0075702789
 10
59.9329154262
 20
-41.9622699489
 10
59.9684217919
 20
-41.9141718193
 10
60.0002405776
 20
-41.8635475217
 10
60.0281923302
 20
-41.8106784751
 10
60.0521207371
 20
-41.7558546693
 10
60.0718876811
 20
-41.6993857998
 10
60.0873773576
 20
-41.6416004587
 10
60.0985033665
 20
-41.5828264934
 10
60.1052058748
 20
-41.5233880409
 10
60.1074483583
 20
-41.4636172352
  0
LINE
  5
25D
100
AcDbEntity
  8
ASSI
100
AcDbLine
 62
250
  6
CONTINUOUS
 10
59.3248330774
 20
-41.7912203046
 11
58.2937945117
 21
-41.8189375322
  0
LINE
  5
25E
100
AcDbEntity
  8
ASSI
100
AcDbLine
 62
250
  6
CONTINUOUS
 10
58.2937945117
 20
-41.8189375322
 11
57.1876089624
 21
-41.8427603588
  0
LINE
  5
25F
100
AcDbEntity
  8
ASSI
100
AcDbLine
 62
250
  6
CONTINUOUS
 10
-56.7458191132
 20
-41.8431607855
 11
-57.8616648766
 21
-41.8191841228
  0
LINE
  5
260
100
AcDbEntity
  8
ASSI
100
AcDbLine
 62
250
  6
CONTINUOUS
 10
-57.8616648766
 20
-41.8191841228
 11
-58.9028509791
 21
-41.7912102679
  0
LWPOLYLINE
  5
261
100
AcDbEntity
  8
0
100
AcDbPolyline
 62
7
  6
CONTINUOUS
 90
3
 70
0
 43
0.3500000006
 10
-3.0032593231
 20
54.4759340057
 10
-2.1461165686
 20
55.3330810089
 10
-2.1461165686
 20
52.3330800934
  0
LINE
  5
262
100
AcDbEntity
  8
ASSI
100
AcDbLine
 62
250
  6
CONTINUOUS
 10
59.9042111087
 20
-41.4764372608
 11
59.8338937035
 21
-41.4779043482
  0
LINE
  5
263
100
AcDbEntity
  8
ASSI
100
AcDbLine
 62
250
  6
CONTINUOUS
 10
57.1876089624
 20
-41.8427603588
 11
56.0181072501
 21
-41.8623988432
  0
LINE
  5
264
100
AcDbEntity
  8
ASSI
100
AcDbLine
 62
250
  6
CONTINUOUS
 10
59.8338937035
 20
-41.4779043482
 11
59.7574012232
 21
-41.4789815366
  0
LINE
  5
265
100
AcDbEntity
  8
ASSI
100
AcDbLine
 62
250
  6
CONTINUOUS
 10
56.0181072501
 20
-41.8623988432
 11
54.8282365344
 21
-41.8767651796
  0
LINE
  5
266
100
AcDbEntity
  8
ASSI
100
AcDbLine
 62
250
  6
CONTINUOUS
 10
54.8282365344
 20
-41.8767651796
 11
53.6376058802
 21
-41.8866781447
  0
LWPOLYLINE
  5
267
100
AcDbEntity
  8
ASSI
100
AcDbPolyline
 62
250
  6
CONTINUOUS
 90
3
 70
0
 10
59.7574012232
 20
-41.4789815366
 10
59.6768211671
 20
-41.4796394293
 10
59.6356827712
 20
-41.4798050666
  0
LINE
  5
268
100
AcDbEntity
  8
ASSI
100
AcDbLine
 62
250
  6
CONTINUOUS
 10
53.6376058802
 20
-41.8866781447
 11
52.4471768599
 21
-41.8926527683
  0
LINE
  5
269
100
AcDbEntity
  8
ASSI
100
AcDbLine
 62
250
  6
CONTINUOUS
 10
52.4471768599
 20
-41.8926527683
 11
51.2387436207
 21
-41.895787533
  0
LINE
  5
26A
100
AcDbEntity
  8
ASSI
100
AcDbLine
 62
250
  6
CONTINUOUS
 10
31.5895108165
 20
-41.9079617277
 11
27.9755568835
 21
-41.913692182
  0
LINE
  5
26B
100
AcDbEntity
  8
ASSI
100
AcDbLine
 62
250
  6
CONTINUOUS
 10
41.6842070574
 20
-41.8857518269
 11
31.5895108165
 21
-41.9079617277
  0
LINE
  5
26C
100
AcDbEntity
  8
ASSI
100
AcDbLine
 62
250
  6
CONTINUOUS
 10
27.9755568835
 20
-41.913692182
 11
23.9991623271
 21
-41.9171821696
  0
LINE
  5
26D
100
AcDbEntity
  8
ASSI
100
AcDbLine
 62
250
  6
CONTINUOUS
 10
-41.8630130456
 20
-41.8855109049
 11
-48.6542043224
 21
-41.8960712826
  0
LINE
  5
26E
100
AcDbEntity
  8
ASSI
100
AcDbLine
 62
7
  6
CONTINUOUS
 10
-58.9392478242
 20
-42.3169210526
 11
59.3613004558
 21
-42.3169210526
  0
LINE
  5
26F
100
AcDbEntity
  8
ASSI
100
AcDbLine
 62
250
  6
CONTINUOUS
 10
-44.7672165221
 20
-42.2604559334
 11
-58.8856520857
 21
-42.2633253141
  0
LINE
  5
270
100
AcDbEntity
  8
ASSI
100
AcDbLine
 62
250
  6
CONTINUOUS
 10
23.9991623271
 20
-41.9171821696
 11
16.4943257056
 21
-41.9183170096
  0
LINE
  5
271
100
AcDbEntity
  8
ASSI
100
AcDbLine
 62
250
  6
CONTINUOUS
 10
51.2387436207
 20
-41.895787533
 11
49.333007849
 21
-41.8962927496
  0
LINE
  5
272
100
AcDbEntity
  8
ASSI
100
AcDbLine
 62
250
  6
CONTINUOUS
 10
57.7394940238
 20
-42.262104639
 11
-44.7672165221
 21
-42.2604559334
  0
LINE
  5
273
100
AcDbEntity
  8
ASSI
100
AcDbLine
 62
250
  6
CONTINUOUS
 10
16.4943257056
 20
-41.9183170096
 11
-25.2704281143
 21
-41.9160294913
  0
LINE
  5
274
100
AcDbEntity
  8
ASSI
100
AcDbLine
 62
250
  6
CONTINUOUS
 10
-48.6542043224
 20
-41.8960712826
 11
-50.5185283643
 21
-41.8961756556
  0
LWPOLYLINE
  5
275
100
AcDbEntity
  8
ASSI
100
AcDbPolyline
 62
250
  6
CONTINUOUS
 90
3
 70
0
 10
59.3077043822
 20
-42.263324979
 10
58.8028216419
 20
-42.2628816974
 10
57.7394940238
 20
-42.262104639
  0
LINE
  5
276
100
AcDbEntity
  8
ASSI
100
AcDbLine
 62
250
  6
CONTINUOUS
 10
-25.2704281143
 20
-41.9160294913
 11
-29.9148567705
 21
-41.9102428965
  0
LINE
  5
277
100
AcDbEntity
  8
ASSI
100
AcDbLine
 62
250
  6
CONTINUOUS
 10
45.0137215177
 20
-41.888288893
 11
41.6842070574
 21
-41.8857518269
  0
LINE
  5
278
100
AcDbEntity
  8
ASSI
100
AcDbLine
 62
250
  6
CONTINUOUS
 10
49.333007849
 20
-41.8962927496
 11
45.0137215177
 21
-41.888288893
  0
LINE
  5
279
100
AcDbEntity
  8
ASSI
100
AcDbLine
 62
250
  6
CONTINUOUS
 10
-29.9148567705
 20
-41.9102428965
 11
-34.0642168444
 21
-41.9014856673
  0
LINE
  5
27A
100
AcDbEntity
  8
ASSI
100
AcDbLine
 62
250
  6
CONTINUOUS
 10
-37.771329025
 20
-41.8916807427
 11
-41.8630130456
 21
-41.8855109049
  0
LINE
  5
27B
100
AcDbEntity
  8
ASSI
100
AcDbLine
 62
250
  6
CONTINUOUS
 10
-50.5185283643
 20
-41.8961756556
 11
-51.7767583531
 21
-41.8935121132
  0
LINE
  5
27C
100
AcDbEntity
  8
ASSI
100
AcDbLine
 62
250
  6
CONTINUOUS
 10
-34.0642168444
 20
-41.9014856673
 11
-37.771329025
 21
-41.8916807427
  0
LINE
  5
27D
100
AcDbEntity
  8
ASSI
100
AcDbLine
 62
250
  6
CONTINUOUS
 10
-51.7767583531
 20
-41.8935121132
 11
-53.0527435844
 21
-41.8876805342
  0
LINE
  5
27E
100
AcDbEntity
  8
ASSI
100
AcDbLine
 62
250
  6
CONTINUOUS
 10
-59.2136300522
 20
-41.4798051583
 11
-59.2954343476
 21
-41.4793643806
  0
LINE
  5
27F
100
AcDbEntity
  8
ASSI
100
AcDbLine
 62
250
  6
CONTINUOUS
 10
-53.0527435844
 20
-41.8876805342
 11
-54.3193853274
 21
-41.8776098253
  0
LINE
  5
280
100
AcDbEntity
  8
ASSI
100
AcDbLine
 62
250
  6
CONTINUOUS
 10
-59.2954343476
 20
-41.4793643806
 11
-59.3742401951
 21
-41.4784938585
  0
LINE
  5
281
100
AcDbEntity
  8
ASSI
100
AcDbLine
 62
250
  6
CONTINUOUS
 10
-54.3193853274
 20
-41.8776098253
 11
-55.5603562786
 21
-41.8629078137
  0
LINE
  5
282
100
AcDbEntity
  8
ASSI
100
AcDbLine
 62
250
  6
CONTINUOUS
 10
-55.5603562786
 20
-41.8629078137
 11
-56.7458191132
 21
-41.8431607855
  0
LWPOLYLINE
  5
283
100
AcDbEntity
  8
ASSI
100
AcDbPolyline
 62
250
  6
CONTINUOUS
 90
14
 70
0
 10
-59.3742401951
 20
-41.4784938585
 10
-59.4478969859
 20
-41.4772173502
 10
-59.48215934
 20
-41.4764373283
 10
-59.5143946981
 20
-41.4755696908
 10
-59.5443827544
 20
-41.4746203674
 10
-59.571918562
 20
-41.473595846
 10
-59.5968139327
 20
-41.4725031284
 10
-59.6188987243
 20
-41.4713496827
 10
-59.6380220453
 20
-41.4701433888
 10
-59.6540531436
 20
-41.4688924936
 10
-59.6668823758
 20
-41.4676055557
 10
-59.6764221155
 20
-41.4662913741
 10
-59.6826072745
 20
-41.4649589274
 10
-59.6853956568
 20
-41.463617322
  0
LWPOLYLINE
  5
284
100
AcDbEntity
  8
RACCORDO
100
AcDbPolyline
 62
250
  6
CONTINUOUS
 90
25
 70
0
 10
-22.8593616237
 20
22.914968073
 10
-22.8572807023
 20
22.9675967077
 10
-22.8519550077
 20
23.0193721535
 10
-22.8433845384
 20
23.0702944086
 10
-22.8315136547
 20
23.1204929015
 10
-22.816397995
 20
23.169838202
 10
-22.7982044757
 20
23.2179420212
 10
-22.7768874314
 20
23.2648727214
 10
-22.7524925295
 20
23.3105619426
 10
-22.7253236868
 20
23.3544163142
 10
-22.6953321264
 20
23.3964154264
 10
-22.6625666301
 20
23.436579695
 10
-22.627477454
 20
23.4743769884
 10
-22.5900619181
 20
23.5097510605
 10
-22.5503227092
 20
23.5427581657
 10
-22.5087181335
 20
23.5730349235
 10
-22.4653843204
 20
23.600527062
 10
-22.4201851477
 20
23.625288862
 10
-22.3731705439
 20
23.6471197724
 10
-22.3241132715
 20
23.6661206415
 10
-22.2732405758
 20
23.6821906304
 10
-22.2212841096
 20
23.6948266569
 10
-22.1684877588
 20
23.7038610289
 10
-22.1146076434
 20
23.7094614454
 10
-22.0596437661
 20
23.7116279101
  0
LWPOLYLINE
  5
285
100
AcDbEntity
  8
0
100
AcDbPolyline
 62
7
  6
CONTINUOUS
 90
25
 70
0
 10
3.1653288179
 20
-24.8765704643
 10
3.218786451
 20
-24.8688645872
 10
3.2722061899
 20
-24.8615148193
 10
3.3255801342
 20
-24.8545716036
 10
3.3788571233
 20
-24.848089694
 10
3.4320727312
 20
-24.842112081
 10
3.4853498028
 20
-24.8366741881
 10
3.5386949864
 20
-24.83182664
 10
3.5920875008
 20
-24.8276227334
 10
3.6456097555
 20
-24.8241090275
 10
3.6992626024
 20
-24.8213408846
 10
3.7530312689
 20
-24.8193751219
 10
3.8069749338
 20
-24.8182677134
 10
3.8611424648
 20
-24.8180797589
 10
3.915470653
 20
-24.8188747792
 10
3.9698504509
 20
-24.8207111952
 10
4.0242269796
 20
-24.823643458
 10
4.0786402322
 20
-24.8277303912
 10
4.1331017399
 20
-24.8330633557
 10
4.1875591513
 20
-24.8398471456
 10
4.24182678
 20
-24.8483009061
 10
4.2956471256
 20
-24.8586239692
 10
4.3488510984
 20
-24.8710184341
 10
4.4013552642
 20
-24.8857031741
 10
4.4530338423
 20
-24.9028887968
  0
LWPOLYLINE
  5
286
100
AcDbEntity
  8
0
100
AcDbPolyline
 62
7
  6
CONTINUOUS
 90
31
 70
0
 10
3.9659197472
 20
-25.9594461299
 10
3.9869625097
 20
-25.958706343
 10
4.0081139235
 20
-25.9573935138
 10
4.0292758353
 20
-25.9554647266
 10
4.0502911407
 20
-25.9528876153
 10
4.0711313769
 20
-25.9496186404
 10
4.0918939343
 20
-25.9455811957
 10
4.1124880089
 20
-25.9407176393
 10
4.1328203889
 20
-25.9349696363
 10
4.1529704111
 20
-25.928214738
 10
4.1729260919
 20
-25.9203235944
 10
4.1924645509
 20
-25.9112359254
 10
4.2113422229
 20
-25.9009247642
 10
4.2294630404
 20
-25.8893001599
 10
4.2466864933
 20
-25.8762945828
 10
4.2627474386
 20
-25.8619837348
 10
4.2775987202
 20
-25.8464747513
 10
4.2912885702
 20
-25.8298759555
 10
4.3037854331
 20
-25.8123917542
 10
4.3151033605
 20
-25.7941878617
 10
4.3252910085
 20
-25.7753709144
 10
4.3343804185
 20
-25.756060021
 10
4.3423790014
 20
-25.7364287009
 10
4.349340505
 20
-25.7165376937
 10
4.3553401535
 20
-25.6963176676
 10
4.3603774526
 20
-25.6758785544
 10
4.364459162
 20
-25.6553030453
 10
4.3676159987
 20
-25.6344670802
 10
4.369825754
 20
-25.6133959112
 10
4.3710471406
 20
-25.5922678468
 10
4.3712514377
 20
-25.5711941405
  0
LINE
  5
287
100
AcDbEntity
  8
0
100
AcDbLine
 62
7
  6
CONTINUOUS
 10
4.9859800764
 20
-27.3471008333
 11
4.4840759782
 21
-27.3471008333
  0
LINE
  5
288
100
AcDbEntity
  8
0
100
AcDbLine
 62
7
  6
CONTINUOUS
 10
3.6850221594
 20
-27.3471008333
 11
3.1653288179
 21
-27.3471008333
  0
LINE
  5
289
100
AcDbEntity
  8
0
100
AcDbLine
 62
7
  6
CONTINUOUS
 10
3.0121053158
 20
-27.3471010526
 11
2.4621573158
 21
-27.3471010526
  0
LINE
  5
28A
100
AcDbEntity
  8
0
100
AcDbLine
 62
7
  6
CONTINUOUS
 10
1.4724073158
 20
-27.3471010526
 11
0.9562763158
 21
-27.3471010526
  0
LINE
  5
28B
100
AcDbEntity
  8
0
100
AcDbLine
 62
7
  6
CONTINUOUS
 10
0.8743403158
 20
-27.3471010526
 11
0.3638883158
 21
-27.3471010526
  0
LINE
  5
28C
100
AcDbEntity
  8
0
100
AcDbLine
 62
7
  6
CONTINUOUS
 10
-0.3637266842
 20
-27.3471010526
 11
-0.4369086842
 21
-27.3471010526
  0
LINE
  5
28D
100
AcDbEntity
  8
0
100
AcDbLine
 62
7
  6
CONTINUOUS
 10
-1.1616376842
 20
-27.3471010526
 11
-1.6608236842
 21
-27.3471010526
  0
LINE
  5
28E
100
AcDbEntity
  8
0
100
AcDbLine
 62
7
  6
CONTINUOUS
 10
-1.9417206842
 20
-27.3471010526
 11
-2.4635136842
 21
-27.3471010526
  0
LINE
  5
28F
100
AcDbEntity
  8
0
100
AcDbLine
 62
7
  6
CONTINUOUS
 10
-3.4606676842
 20
-27.3471010526
 11
-3.9204976842
 21
-27.3471010526
  0
LINE
  5
290
100
AcDbEntity
  8
0
100
AcDbLine
 62
7
  6
CONTINUOUS
 10
2.3269853158
 20
-26.8480650526
 11
1.6163903158
 21
-26.8480650526
  0
LINE
  5
291
100
AcDbEntity
  8
0
100
AcDbLine
 62
7
  6
CONTINUOUS
 10
1.7231253158
 20
-26.4619130526
 11
2.2227053158
 21
-26.4619130526
  0
LINE
  5
292
100
AcDbEntity
  8
0
100
AcDbLine
 62
7
  6
CONTINUOUS
 10
3.9647950321
 20
-26.368842414
 11
3.6850221594
 21
-26.368842414
  0
LINE
  5
293
100
AcDbEntity
  8
0
100
AcDbLine
 62
7
  6
CONTINUOUS
 10
3.6677202927
 20
-25.9594461299
 11
3.9659197472
 21
-25.9594461299
  0
LINE
  5
294
100
AcDbEntity
  8
0
100
AcDbLine
 62
7
  6
CONTINUOUS
 10
-4.7129626842
 20
-24.8473650526
 11
-4.1461346842
 21
-24.8473650526
  0
LINE
  5
295
100
AcDbEntity
  8
0
100
AcDbLine
 62
7
  6
CONTINUOUS
 10
-3.1785886842
 20
-24.8473650526
 11
-2.6571526842
 21
-24.8473650526
  0
LINE
  5
296
100
AcDbEntity
  8
0
100
AcDbLine
 62
7
  6
CONTINUOUS
 10
-1.4351116842
 20
-24.8473650526
 11
-0.9137506842
 21
-24.8473650526
  0
LINE
  5
297
100
AcDbEntity
  8
0
100
AcDbLine
 62
7
  6
CONTINUOUS
 10
0.1243243158
 20
-24.8473650526
 11
0.6405873158
 21
-24.8473650526
  0
LINE
  5
298
100
AcDbEntity
  8
0
100
AcDbLine
 62
7
  6
CONTINUOUS
 10
1.7403523158
 20
-24.8473650526
 11
2.2451243158
 21
-24.8473650526
  0
LINE
  5
299
100
AcDbEntity
  8
0
100
AcDbLine
 62
7
  6
CONTINUOUS
 10
-2.4635136842
 20
-24.8472150526
 11
-1.9417206842
 21
-24.8472150526
  0
LWPOLYLINE
  5
29A
100
AcDbEntity
  8
0
100
AcDbPolyline
 62
7
  6
CONTINUOUS
 90
10
 70
0
 10
4.0764847343
 20
-25.2585034177
 10
4.0327165932
 20
-25.2541597006
 10
3.9883972956
 20
-25.2512438679
 10
3.9435913868
 20
-25.2497927406
 10
3.8983894286
 20
-25.2498430064
 10
3.8528404999
 20
-25.2514309041
 10
3.8069526248
 20
-25.2545998424
 10
3.7607824551
 20
-25.2593944923
 10
3.7143850908
 20
-25.2657098449
 10
3.6677202927
 20
-25.2732199776
  0
LWPOLYLINE
  5
29B
100
AcDbEntity
  8
RACCORDO
100
AcDbPolyline
 62
250
  6
CONTINUOUS
 90
7
 70
0
 10
-22.0571442524
 20
23.4659382422
 10
-22.0566306341
 20
23.4472654919
 10
-22.0560863878
 20
23.4311984676
 10
-22.0555172429
 20
23.4179063162
 10
-22.0549291911
 20
23.407528973
 10
-22.054328423
 20
23.4001756881
 10
-22.0537212634
 20
23.3959238756
  0
LINE
  5
29C
100
AcDbEntity
  8
RACCORDO
100
AcDbLine
 62
250
  6
CONTINUOUS
 10
-22.0580583557
 20
23.5102892434
 11
-22.0571442524
 21
23.4659382422
  0
LINE
  5
29D
100
AcDbEntity
  8
RACCORDO
100
AcDbLine
 62
250
  6
CONTINUOUS
 10
-22.0587903064
 20
23.5623887627
 11
-22.0580583557
 21
23.5102892434
  0
LINE
  5
29E
100
AcDbEntity
  8
RACCORDO
100
AcDbLine
 62
250
  6
CONTINUOUS
 10
-22.0593093637
 20
23.6200486663
 11
-22.0587903064
 21
23.5623887627
  0
LINE
  5
29F
100
AcDbEntity
  8
RACCORDO
100
AcDbLine
 62
250
  6
CONTINUOUS
 10
-22.8593616237
 20
-21.6488101782
 11
-22.8713891517
 21
-18.6325933173
  0
LINE
  5
2A0
100
AcDbEntity
  8
RACCORDO
100
AcDbLine
 62
250
  6
CONTINUOUS
 10
-22.5540533043
 20
-21.6339033237
 11
-22.5650368607
 21
-18.6222072891
  0
LINE
  5
2A1
100
AcDbEntity
  8
RACCORDO
100
AcDbLine
 62
250
  6
CONTINUOUS
 10
-22.8713891517
 20
-18.6325933173
 11
-22.8794924674
 21
-15.6843709125
  0
LINE
  5
2A2
100
AcDbEntity
  8
RACCORDO
100
AcDbLine
 62
250
  6
CONTINUOUS
 10
-22.5650368607
 20
-18.6222072891
 11
-22.5736903631
 21
-15.0901444739
  0
LINE
  5
2A3
100
AcDbEntity
  8
RACCORDO
100
AcDbLine
 62
250
  6
CONTINUOUS
 10
-22.0596437661
 20
23.7116279101
 11
-22.0593093637
 21
23.6200486663
  0
LINE
  5
2A4
100
AcDbEntity
  8
RACCORDO
100
AcDbLine
 62
250
  6
CONTINUOUS
 10
-22.8794924674
 20
-15.6843709125
 11
-22.8867164739
 21
-11.5671523966
  0
LINE
  5
2A5
100
AcDbEntity
  8
RACCORDO
100
AcDbLine
 62
250
  6
CONTINUOUS
 10
-22.5736903631
 20
-15.0901444739
 11
-22.5815876041
 21
-9.8024785681
  0
LINE
  5
2A6
100
AcDbEntity
  8
RACCORDO
100
AcDbLine
 62
250
  6
CONTINUOUS
 10
-22.8867164739
 20
-11.5671523966
 11
-22.8932889048
 21
-5.6219892332
  0
LINE
  5
2A7
100
AcDbEntity
  8
RACCORDO
100
AcDbLine
 62
250
  6
CONTINUOUS
 10
-22.5815876041
 20
-9.8024785681
 11
-22.5874105867
 21
-3.6977217325
  0
LINE
  5
2A8
100
AcDbEntity
  8
RACCORDO
100
AcDbLine
 62
250
  6
CONTINUOUS
 10
-22.8932889048
 20
-5.6219892332
 11
-22.8959880998
 21
-0.1417863673
  0
LINE
  5
2A9
100
AcDbEntity
  8
RACCORDO
100
AcDbLine
 62
7
  6
CONTINUOUS
 10
-22.3889736842
 20
22.7349815983
 11
-22.3889736842
 21
-21.4688237036
  0
LINE
  5
2AA
100
AcDbEntity
  8
RACCORDO
100
AcDbLine
 62
250
  6
CONTINUOUS
 10
-22.5874105867
 20
-3.6977217325
 11
-22.5888193844
 21
1.3278988188
  0
LINE
  5
2AB
100
AcDbEntity
  8
RACCORDO
100
AcDbLine
 62
250
  6
CONTINUOUS
 10
-22.8959880998
 20
-0.1417863673
 11
-22.8936654076
 21
6.4202985608
  0
LINE
  5
2AC
100
AcDbEntity
  8
RACCORDO
100
AcDbLine
 62
250
  6
CONTINUOUS
 10
-22.5888193844
 20
1.3278988188
 11
-22.5853115125
 21
7.6083442866
  0
LINE
  5
2AD
100
AcDbEntity
  8
RACCORDO
100
AcDbLine
 62
250
  6
CONTINUOUS
 10
-22.8936654076
 20
6.4202985608
 11
-22.8857950193
 21
13.4837739553
  0
LINE
  5
2AE
100
AcDbEntity
  8
RACCORDO
100
AcDbLine
 62
250
  6
CONTINUOUS
 10
-22.5853115125
 20
7.6083442866
 11
-22.5767049487
 21
14.6531826354
  0
LINE
  5
2AF
100
AcDbEntity
  8
RACCORDO
100
AcDbLine
 62
250
  6
CONTINUOUS
 10
-22.8857950193
 20
13.4837739553
 11
-22.8779581022
 21
17.6018163849
  0
LINE
  5
2B0
100
AcDbEntity
  8
RACCORDO
100
AcDbLine
 62
250
  6
CONTINUOUS
 10
-22.5767049487
 20
14.6531826354
 11
-22.5680899941
 21
18.8106921444
  0
LINE
  5
2B1
100
AcDbEntity
  8
RACCORDO
100
AcDbLine
 62
250
  6
CONTINUOUS
 10
-22.8779581022
 20
17.6018163849
 11
-22.8683643441
 21
20.7660628346
  0
LINE
  5
2B2
100
AcDbEntity
  8
RACCORDO
100
AcDbLine
 62
250
  6
CONTINUOUS
 10
-22.5680899941
 20
18.8106921444
 11
-22.5597991691
 21
21.4472893051
  0
LINE
  5
2B3
100
AcDbEntity
  8
RACCORDO
100
AcDbLine
 62
250
  6
CONTINUOUS
 10
-22.5597991691
 20
21.4472893051
 11
-22.5540533043
 21
22.9000612184
  0
LINE
  5
2B4
100
AcDbEntity
  8
RACCORDO
100
AcDbLine
 62
250
  6
CONTINUOUS
 10
-22.8683643441
 20
20.7660628346
 11
-22.8593616237
 21
22.914968073
  0
LINE
  5
2B5
100
AcDbEntity
  8
RACCORDO
100
AcDbLine
 62
250
  6
CONTINUOUS
 10
-22.0596437666
 20
-22.4454700153
 11
-22.059309366
 21
-22.3538893614
  0
LINE
  5
2B6
100
AcDbEntity
  8
RACCORDO
100
AcDbLine
 62
250
  6
CONTINUOUS
 10
-22.059309366
 20
-22.3538893614
 11
-22.0587903029
 21
-22.2962291072
  0
LINE
  5
2B7
100
AcDbEntity
  8
RACCORDO
100
AcDbLine
 62
250
  6
CONTINUOUS
 10
-22.0587903029
 20
-22.2962291072
 11
-22.0580583457
 21
-22.2441296774
  0
LWPOLYLINE
  5
2B8
100
AcDbEntity
  8
RACCORDO
100
AcDbPolyline
 62
250
  6
CONTINUOUS
 90
8
 70
0
 10
-22.0580583457
 20
-22.2441296774
 10
-22.0571442388
 20
-22.1997790864
 10
-22.0566306208
 20
-22.181106615
 10
-22.056086376
 20
-22.1650398774
 10
-22.0555172325
 20
-22.1517479632
 10
-22.0549291812
 20
-22.1413707991
 10
-22.0543284132
 20
-22.1340176496
 10
-22.053721253
 20
-22.1297659312
  0
LWPOLYLINE
  5
2B9
100
AcDbEntity
  8
RACCORDO
100
AcDbPolyline
 62
250
  6
CONTINUOUS
 90
25
 70
0
 10
-22.5540532767
 20
22.9000611908
 10
-22.5529022561
 20
22.9327350924
 10
-22.5496259152
 20
22.9651281633
 10
-22.5442620435
 20
22.9971061089
 10
-22.5368692061
 20
23.0284933857
 10
-22.5274946111
 20
23.0592116493
 10
-22.516144763
 20
23.0892714909
 10
-22.5028395945
 20
23.1185945551
 10
-22.4876479995
 20
23.1470078617
 10
-22.470638818
 20
23.174377848
 10
-22.4518776932
 20
23.2005948028
 10
-22.4314454138
 20
23.2255438119
 10
-22.4094524319
 20
23.2490962317
 10
-22.3860112332
 20
23.2711422204
 10
-22.3612075257
 20
23.2916120801
 10
-22.335121
 20
23.3104464652
 10
-22.3079422385
 20
23.3275176584
 10
-22.2797051447
 20
23.3428132917
 10
-22.2502277002
 20
23.356398064
 10
-22.2194726578
 20
23.3682032275
 10
-22.1876749268
 20
23.3780541188
 10
-22.1550531232
 20
23.3858273484
 10
-22.1217743704
 20
23.391439149
 10
-22.0879474642
 20
23.3948255746
 10
-22.0537212058
 20
23.395923818
  0
LWPOLYLINE
  5
2BA
100
AcDbEntity
  8
RACCORDO
100
AcDbPolyline
 62
250
  6
CONTINUOUS
 90
16
 70
0
 10
-22.8593616237
 20
-21.6488101782
 10
-22.8292841137
 20
-21.6486370326
 10
-22.7994443023
 20
-21.64831566
 10
-22.7701423838
 20
-21.6478492937
 10
-22.7416731412
 20
-21.6472426258
 10
-22.7143229807
 20
-21.6465017595
 10
-22.6883670503
 20
-21.6456341478
 10
-22.6640664718
 20
-21.644648519
 10
-22.6416657135
 20
-21.643554789
 10
-22.6213901315
 20
-21.6423639608
 10
-22.6034437019
 20
-21.6410880143
 10
-22.5880069691
 20
-21.6397397859
 10
-22.5752352295
 20
-21.6383328391
 10
-22.5652569689
 20
-21.636881328
 10
-22.5581725705
 20
-21.635399855
 10
-22.5540533043
 20
-21.6339033237
  0
LINE
  5
2BB
100
AcDbEntity
  8
RACCORDO
100
AcDbLine
 62
250
  6
CONTINUOUS
 10
22.4816963977
 20
-22.4454700153
 11
15.7553861626
 21
-22.4586989936
  0
LINE
  5
2BC
100
AcDbEntity
  8
RACCORDO
100
AcDbLine
 62
250
  6
CONTINUOUS
 10
15.7553861626
 20
-22.4586989936
 11
10.8838494791
 21
-22.4655996329
  0
LINE
  5
2BD
100
AcDbEntity
  8
RACCORDO
100
AcDbLine
 62
250
  6
CONTINUOUS
 10
22.475773895
 20
-22.1297659809
 11
15.7512714829
 21
-22.1396144453
  0
LINE
  5
2BE
100
AcDbEntity
  8
RACCORDO
100
AcDbLine
 62
250
  6
CONTINUOUS
 10
10.8838494791
 20
-22.4655996329
 11
5.7023986909
 21
-22.4700189503
  0
LINE
  5
2BF
100
AcDbEntity
  8
RACCORDO
100
AcDbLine
 62
250
  6
CONTINUOUS
 10
15.7512714829
 20
-22.1396144453
 11
8.3297531342
 21
-22.1463150996
  0
LINE
  5
2C0
100
AcDbEntity
  8
RACCORDO
100
AcDbLine
 62
250
  6
CONTINUOUS
 10
5.7023986909
 20
-22.4700189503
 11
0.2110263158
 21
-22.4717188239
  0
LINE
  5
2C1
100
AcDbEntity
  8
RACCORDO
100
AcDbLine
 62
250
  6
CONTINUOUS
 10
8.3297531342
 20
-22.1463150996
 11
0.2110263158
 21
-22.1487907409
  0
LINE
  5
2C2
100
AcDbEntity
  8
RACCORDO
100
AcDbLine
 62
7
  6
CONTINUOUS
 10
-21.8908763352
 20
-21.9669210526
 11
22.3129289667
 21
-21.9669210526
  0
LINE
  5
2C3
100
AcDbEntity
  8
RACCORDO
100
AcDbLine
 62
250
  6
CONTINUOUS
 10
0.2110263158
 20
-22.4717188239
 11
-6.1121447089
 21
-22.4695746099
  0
LINE
  5
2C4
100
AcDbEntity
  8
RACCORDO
100
AcDbLine
 62
250
  6
CONTINUOUS
 10
0.2110263158
 20
-22.1487907409
 11
-11.9284304587
 21
-22.1432212601
  0
LINE
  5
2C5
100
AcDbEntity
  8
RACCORDO
100
AcDbLine
 62
250
  6
CONTINUOUS
 10
-6.1121447089
 20
-22.4695746099
 11
-11.9316183771
 21
-22.4637882574
  0
LINE
  5
2C6
100
AcDbEntity
  8
RACCORDO
100
AcDbLine
 62
250
  6
CONTINUOUS
 10
-11.9284304587
 20
-22.1432212601
 11
-22.0537212634
 21
-22.1297659809
  0
LINE
  5
2C7
100
AcDbEntity
  8
RACCORDO
100
AcDbLine
 62
250
  6
CONTINUOUS
 10
-11.9316183771
 20
-22.4637882574
 11
-22.0596437661
 21
-22.4454700153
  0
LWPOLYLINE
  5
2C8
100
AcDbEntity
  8
RACCORDO
100
AcDbPolyline
 62
250
  6
CONTINUOUS
 90
16
 70
0
 10
23.2814142553
 20
-21.6488101788
 10
23.2513362075
 20
-21.6486370089
 10
23.2214959587
 20
-21.6483156105
 10
23.1921937131
 20
-21.6478492185
 10
23.163724261
 20
-21.6472425264
 10
23.1363740044
 20
-21.646501639
 10
23.110418077
 20
-21.6456340105
 10
23.0861175923
 20
-21.6446483706
 10
23.063717002
 20
-21.643554636
 10
23.0434416338
 20
-21.6423638099
 10
23.0254954537
 20
-21.6410878732
 10
23.0100589765
 20
-21.639739662
 10
22.9972874559
 20
-21.6383327371
 10
22.9873093664
 20
-21.6368812513
 10
22.9802250952
 20
-21.6353998074
 10
22.9761059082
 20
-21.6339033087
  0
LWPOLYLINE
  5
2C9
100
AcDbEntity
  8
RACCORDO
100
AcDbPolyline
 62
250
  6
CONTINUOUS
 90
25
 70
0
 10
-22.0537212137
 20
-22.1297659312
 10
-22.0865527691
 20
-22.128757999
 10
-22.1191103518
 20
-22.1256317844
 10
-22.1512595473
 20
-22.1204254105
 10
-22.1828254381
 20
-22.1131984189
 10
-22.213728941
 20
-22.1039977103
 10
-22.2439785487
 20
-22.0928282212
 10
-22.2734962922
 20
-22.0797106734
 10
-22.3021089608
 20
-22.0647138682
 10
-22.3296800298
 20
-22.0479037481
 10
-22.3561000073
 20
-22.029346425
 10
-22.3812541416
 20
-22.0091227797
 10
-22.4050107423
 20
-21.9873396961
 10
-22.4272599327
 20
-21.9641097775
 10
-22.4479325152
 20
-21.9395189099
 10
-22.4669667658
 20
-21.9136431118
 10
-22.4842342054
 20
-21.8866729813
 10
-22.4997235695
 20
-21.8586424006
 10
-22.5134993905
 20
-21.8293652522
 10
-22.5254940837
 20
-21.7988029823
 10
-22.5355307967
 20
-21.7671912547
 10
-22.5434810322
 20
-21.7347476876
 10
-22.5492597041
 20
-21.7016391611
 10
-22.5528046616
 20
-21.6679747711
 10
-22.5540532724
 20
-21.6339032918
  0
LWPOLYLINE
  5
2CA
100
AcDbEntity
  8
RACCORDO
100
AcDbPolyline
 62
250
  6
CONTINUOUS
 90
25
 70
0
 10
-22.0596437661
 20
-22.4454700153
 10
-22.1123534186
 20
-22.4435244603
 10
-22.1642159908
 20
-22.4383353857
 10
-22.2152314803
 20
-22.4299027886
 10
-22.2655297838
 20
-22.4181709436
 10
-22.3149809997
 20
-22.4031955703
 10
-22.3631954278
 20
-22.3851438327
 10
-22.4102413723
 20
-22.3639704405
 10
-22.4560505227
 20
-22.3397206764
 10
-22.5000282557
 20
-22.312697562
 10
-22.5421540422
 20
-22.2828526269
 10
-22.582448404
 20
-22.2502343326
 10
-22.620378293
 20
-22.2152910982
 10
-22.6558873045
 20
-22.1780205519
 10
-22.6890318364
 20
-22.1384250572
 10
-22.7194480447
 20
-22.0969601368
 10
-22.747081231
 20
-22.053762926
 10
-22.7719860887
 20
-22.0086962834
 10
-22.7939628617
 20
-21.9618043177
 10
-22.8131143175
 20
-21.9128572387
 10
-22.8293376858
 20
-21.862084833
 10
-22.8421249059
 20
-21.8102205757
 10
-22.8513066248
 20
-21.7575089593
 10
-22.857052197
 20
-21.7037054929
 10
-22.8593616237
 20
-21.6488101782
  0
LWPOLYLINE
  5
2CB
100
AcDbEntity
  8
0
100
AcDbPolyline
 62
7
  6
CONTINUOUS
 90
58
 70
0
 10
4.4530338423
 20
-24.9028887968
 10
4.4828992615
 20
-24.9150191786
 10
4.5131139687
 20
-24.9299972542
 10
4.5435569153
 20
-24.9477352678
 10
4.5740382587
 20
-24.9680169884
 10
4.6044627026
 20
-24.9907901906
 10
4.6347741083
 20
-25.0163306606
 10
4.6648364586
 20
-25.0449598944
 10
4.6941467072
 20
-25.0766969422
 10
4.7220847222
 20
-25.1113210104
 10
4.7485592313
 20
-25.1491441324
 10
4.7729697871
 20
-25.1897907644
 10
4.7942643795
 20
-25.231673421
 10
4.8123527509
 20
-25.2744282275
 10
4.827328614
 20
-25.3178981712
 10
4.8389979689
 20
-25.3605663415
 10
4.8476370776
 20
-25.4016913586
 10
4.8537786567
 20
-25.4415452745
 10
4.8578008369
 20
-25.4801111681
 10
4.8600060743
 20
-25.5171783456
 10
4.8606145934
 20
-25.5527279412
 10
4.8597711946
 20
-25.5870718535
 10
4.8575825143
 20
-25.6202388366
 10
4.854165184
 20
-25.6520848261
 10
4.8496179006
 20
-25.6826849239
 10
4.8440432548
 20
-25.7120402718
 10
4.8375493577
 20
-25.7401318895
 10
4.830223218
 20
-25.7670245314
 10
4.8221729468
 20
-25.7926901202
 10
4.8134918509
 20
-25.8171591036
 10
4.8042321996
 20
-25.8405582546
 10
4.794489563
 20
-25.8628639905
 10
4.784358932
 20
-25.8840516923
 10
4.7738577233
 20
-25.9042417494
 10
4.7630516812
 20
-25.9234336393
 10
4.7520119979
 20
-25.9416169071
 10
4.7407360073
 20
-25.9588935692
 10
4.7292584503
 20
-25.9752889367
 10
4.7176439308
 20
-25.990785038
 10
4.705919271
 20
-26.0054169293
 10
4.6941210685
 20
-26.0192299892
 10
4.682305042
 20
-26.0322868496
 10
4.6705218258
 20
-26.0446506292
 10
4.6588128631
 20
-26.0563835121
 10
4.6472178154
 20
-26.0675389389
 10
4.6357811605
 20
-26.0781564962
 10
4.6245496927
 20
-26.0882657538
 10
4.6135423959
 20
-26.0979131692
 10
4.6027570748
 20
-26.1071543765
 10
4.5922773703
 20
-26.115964685
 10
4.5820695629
 20
-26.1244126286
 10
4.5719272414
 20
-26.132619717
 10
4.561823799
 20
-26.1403442074
 10
4.5516985964
 20
-26.147369293
 10
4.5412298531
 20
-26.1536524179
 10
4.5302591366
 20
-26.158977104
 10
4.5188151104
 20
-26.1630112519
 10
4.506832713
 20
-26.1654751848
  0
LWPOLYLINE
  5
2CC
100
AcDbEntity
  8
0
100
AcDbPolyline
 62
7
  6
CONTINUOUS
 90
3
 70
0
 10
4.506832713
 20
-26.1802464427
 10
4.5319616794
 20
-26.1917266255
 10
4.5552300842
 20
-26.2051313013
  0
LWPOLYLINE
  5
2CD
100
AcDbEntity
  8
0
100
AcDbPolyline
 62
7
  6
CONTINUOUS
 90
23
 70
0
 10
4.5552300842
 20
-26.2051313013
 10
4.5767603704
 20
-26.2201510499
 10
4.5967071559
 20
-26.2365366274
 10
4.6151366115
 20
-26.2540000371
 10
4.6320472435
 20
-26.2721845426
 10
4.6474694473
 20
-26.2907490581
 10
4.6616015687
 20
-26.3095808368
 10
4.6746778384
 20
-26.3287047556
 10
4.686771691
 20
-26.347983539
 10
4.6979469697
 20
-26.3672856647
 10
4.7083753761
 20
-26.3867072731
 10
4.718115736
 20
-26.4061912897
 10
4.7271901251
 20
-26.4256200969
 10
4.7356850483
 20
-26.4450289063
 10
4.7436267943
 20
-26.4643414378
 10
4.7510465085
 20
-26.4834996855
 10
4.7580189381
 20
-26.5025772965
 10
4.7645624569
 20
-26.5215177105
 10
4.7706938924
 20
-26.5402622426
 10
4.7764866999
 20
-26.5589133433
 10
4.7820164541
 20
-26.5775545843
 10
4.7873296298
 20
-26.5961652295
 10
4.7924806084
 20
-26.6147414666
  0
LINE
  5
2CE
100
AcDbEntity
  8
ASSI
100
AcDbLine
 62
250
  6
CONTINUOUS
 10
-59.68539544
 20
-41.4636169484
 11
-59.7389736842
 21
-41.5171951927
  0
LINE
  5
2CF
100
AcDbEntity
  8
ASSI
100
AcDbLine
 62
250
  6
CONTINUOUS
 10
-58.8856520857
 20
-42.2633253141
 11
-58.9392478242
 21
-42.3169210526
  0
LINE
  5
2D0
100
AcDbEntity
  8
ASSI
100
AcDbLine
 62
250
  6
CONTINUOUS
 10
-59.6853955215
 20
42.7297749247
 11
-59.7389736842
 21
42.7833530874
  0
LINE
  5
2D1
100
AcDbEntity
  8
ASSI
100
AcDbLine
 62
250
  6
CONTINUOUS
 10
-58.8856519835
 20
43.5294831066
 11
-58.9392478242
 21
43.5830789474
  0
LINE
  5
2D2
100
AcDbEntity
  8
0
100
AcDbLine
 62
7
  6
CONTINUOUS
 10
-0.4369086842
 20
-27.3471010526
 11
-1.0490346842
 21
-25.7148210526
  0
LINE
  5
2D3
100
AcDbEntity
  8
0
100
AcDbLine
 62
7
  6
CONTINUOUS
 10
-0.9137506842
 20
-24.8473650526
 11
-0.3974686842
 21
-26.2352260526
  0
LINE
  5
2D4
100
AcDbEntity
  8
0
100
AcDbLine
 62
7
  6
CONTINUOUS
 10
-3.9204976842
 20
-27.3471010526
 11
-4.7129626842
 21
-24.8473650526
  0
LINE
  5
2D5
100
AcDbEntity
  8
0
100
AcDbLine
 62
7
  6
CONTINUOUS
 10
-4.1461346842
 20
-24.8473650526
 11
-3.6696396842
 21
-26.5680110526
  0
LWPOLYLINE
  5
2D6
100
AcDbEntity
  8
0
100
AcDbPolyline
 62
7
  6
CONTINUOUS
 90
19
 70
0
 10
4.2558497038
 20
-26.5889417955
 10
4.2476731692
 20
-26.56885602
 10
4.2383816888
 20
-26.5491438098
 10
4.2280271679
 20
-26.5299324989
 10
4.2166868107
 20
-26.5113853962
 10
4.2043880222
 20
-26.4935762116
 10
4.1910856016
 20
-26.4765045152
 10
4.1767969835
 20
-26.4602858271
 10
4.1615585201
 20
-26.4450588706
 10
4.1453198312
 20
-26.430887327
 10
4.1280437665
 20
-26.4178807414
 10
4.1097939623
 20
-26.4062345901
 10
4.0906714355
 20
-26.3961421977
 10
4.0707851985
 20
-26.387686379
 10
4.0502569702
 20
-26.3808302501
 10
4.0292375361
 20
-26.3755448604
 10
4.0078815464
 20
-26.3718030031
 10
3.986347945
 20
-26.3695779763
 10
3.9647950321
 20
-26.368842414
  0
LINE
  5
2D7
100
AcDbEntity
  8
0
100
AcDbLine
 62
7
  6
CONTINUOUS
 10
2.2451243158
 20
-24.8473650526
 11
3.0121053158
 21
-27.3471010526
  0
LINE
  5
2D8
100
AcDbEntity
  8
0
100
AcDbLine
 62
7
  6
CONTINUOUS
 10
2.4621573158
 20
-27.3471010526
 11
2.3269853158
 21
-26.8480650526
  0
LINE
  5
2D9
100
AcDbEntity
  8
0
100
AcDbLine
 62
7
  6
CONTINUOUS
 10
2.2227053158
 20
-26.4619130526
 11
1.9829343158
 21
-25.5342290526
  0
LINE
  5
2DA
100
AcDbEntity
  8
0
100
AcDbLine
 62
7
  6
CONTINUOUS
 10
0.6405873158
 20
-24.8473650526
 11
0.8743403158
 21
-27.3471010526
  0
LINE
  5
2DB
100
AcDbEntity
  8
0
100
AcDbLine
 62
7
  6
CONTINUOUS
 10
0.3638883158
 20
-27.3471010526
 11
0.2566843158
 21
-25.7216250526
  0
LINE
  5
2DC
100
AcDbEntity
  8
0
100
AcDbLine
 62
7
  6
CONTINUOUS
 10
-2.4635136842
 20
-27.3471010526
 11
-2.4635136842
 21
-24.8472150526
  0
LINE
  5
2DD
100
AcDbEntity
  8
0
100
AcDbLine
 62
7
  6
CONTINUOUS
 10
-1.9417206842
 20
-24.8472150526
 11
-1.9417206842
 21
-27.3471010526
  0
LINE
  5
2DE
100
AcDbEntity
  8
ASSI
100
AcDbLine
 62
250
  6
CONTINUOUS
 10
0.2110263158
 20
43.5257658645
 11
0.2110263158
 21
43.1827843358
  0
LINE
  5
2DF
100
AcDbEntity
  8
RACCORDO
100
AcDbLine
 62
250
  6
CONTINUOUS
 10
0.2110263158
 20
43.1827843358
 11
0.2110263158
 21
23.4149486357
  0
LINE
  5
2E0
100
AcDbEntity
  8
ASSI
100
AcDbLine
 62
250
  6
CONTINUOUS
 10
0.2110263158
 20
-42.2596079698
 11
0.2110263158
 21
-41.916626441
  0
LINE
  5
2E1
100
AcDbEntity
  8
0
100
AcDbLine
 62
250
  6
CONTINUOUS
 10
0.2110263158
 20
-41.916626441
 11
0.2110263158
 21
-22.4717188239
  0
LINE
  5
2E2
100
AcDbEntity
  8
RACCORDO
100
AcDbLine
 62
250
  6
CONTINUOUS
 10
0.2110263158
 20
-22.4717188239
 11
0.2110263158
 21
-22.1487907409
  0
LINE
  5
2E3
100
AcDbEntity
  8
0
100
AcDbLine
 62
7
  6
CONTINUOUS
 10
-1.0490346842
 20
-25.7148210526
 11
-1.1616376842
 21
-27.3471010526
  0
LINE
  5
2E4
100
AcDbEntity
  8
0
100
AcDbLine
 62
7
  6
CONTINUOUS
 10
-1.6608236842
 20
-27.3471010526
 11
-1.4351116842
 21
-24.8473650526
  0
LINE
  5
2E5
100
AcDbEntity
  8
RACCORDO
100
AcDbLine
 62
250
  6
CONTINUOUS
 10
22.475773895
 20
23.3959238756
 11
22.3129289667
 21
23.2330789474
  0
LINE
  5
2E6
100
AcDbEntity
  8
RACCORDO
100
AcDbLine
 62
250
  6
CONTINUOUS
 10
-22.5540533043
 20
-21.6339033237
 11
-22.3889736842
 21
-21.4688237036
  0
LINE
  5
2E7
100
AcDbEntity
  8
RACCORDO
100
AcDbLine
 62
250
  6
CONTINUOUS
 10
22.9761059359
 20
22.9000612184
 11
22.8110263158
 21
22.7349815983
  0
LINE
  5
2E8
100
AcDbEntity
  8
RACCORDO
100
AcDbLine
 62
250
  6
CONTINUOUS
 10
-22.0537212634
 20
-22.1297659809
 11
-21.8908763352
 21
-21.9669210526
  0
LWPOLYLINE
  5
2E9
100
AcDbEntity
  8
0
100
AcDbPolyline
 62
7
  6
CONTINUOUS
 90
4
 70
0
 43
0.3500000006
 10
66.9824549561
 20
-1.7240638847
 10
66.1253124847
 20
-1.7240638847
 10
65.6967389832
 20
-1.2954926491
 10
65.6967389832
 20
-0.6526357956
  0
LINE
  5
2EA
100
AcDbEntity
  8
ASSI
100
AcDbLine
 62
250
  6
CONTINUOUS
 10
60.105067079
 20
0.6330789474
 11
59.7144843913
 21
0.6330789474
  0
LINE
  5
2EB
100
AcDbEntity
  8
ASSI
100
AcDbLine
 62
250
  6
CONTINUOUS
 10
-59.6830144474
 20
0.6330789474
 11
-59.2924317597
 21
0.6330789474
  0
LINE
  5
2EC
100
AcDbEntity
  8
RACCORDO
100
AcDbLine
 62
250
  6
CONTINUOUS
 10
23.0109255264
 20
0.6330789474
 11
59.7144843913
 21
0.6330789474
  0
LINE
  5
2ED
100
AcDbEntity
  8
RACCORDO
100
AcDbLine
 62
250
  6
CONTINUOUS
 10
-22.5888728948
 20
0.6330789474
 11
-59.2924317597
 21
0.6330789474
  0
LINE
  5
2EE
100
AcDbEntity
  8
RACCORDO
100
AcDbLine
 62
250
  6
CONTINUOUS
 10
-22.5540533043
 20
22.9000612184
 11
-22.3889736842
 21
22.7349815983
  0
LINE
  5
2EF
100
AcDbEntity
  8
RACCORDO
100
AcDbLine
 62
250
  6
CONTINUOUS
 10
22.475773895
 20
-22.1297659809
 11
22.3129289667
 21
-21.9669210526
  0
LINE
  5
2F0
100
AcDbEntity
  8
RACCORDO
100
AcDbLine
 62
250
  6
CONTINUOUS
 10
-22.0537212634
 20
23.3959238756
 11
-21.8908763352
 21
23.2330789474
  0
LINE
  5
2F1
100
AcDbEntity
  8
RACCORDO
100
AcDbLine
 62
250
  6
CONTINUOUS
 10
22.9761059359
 20
-21.6339033237
 11
22.8110263158
 21
-21.4688237036
  0
LWPOLYLINE
  5
2F2
100
AcDbEntity
  8
0
100
AcDbPolyline
 62
7
  6
CONTINUOUS
 90
8
 70
0
 10
4.3356596262
 20
-26.8338199386
 10
4.3252530861
 20
-26.7985232368
 10
4.3146198613
 20
-26.7633354218
 10
4.3037058352
 20
-26.7282788626
 10
4.2924319074
 20
-26.6932984629
 10
4.2807324922
 20
-26.6583895789
 10
4.2685577768
 20
-26.6235972484
 10
4.2558496763
 20
-26.5889418058
  0
LINE
  5
2F3
100
AcDbEntity
  8
0
100
AcDbLine
 62
7
  6
CONTINUOUS
 10
4.4729413294
 20
-27.3085593732
 11
4.3969026029
 21
-27.0483797803
  0
LINE
  5
2F4
100
AcDbEntity
  8
0
100
AcDbLine
 62
7
  6
CONTINUOUS
 10
4.4840759782
 20
-27.3471008333
 11
4.4729413294
 21
-27.3085593732
  0
LINE
  5
2F5
100
AcDbEntity
  8
0
100
AcDbLine
 62
7
  6
CONTINUOUS
 10
4.3560410598
 20
-26.9047561724
 11
4.3356596262
 21
-26.8338199386
  0
LINE
  5
2F6
100
AcDbEntity
  8
0
100
AcDbLine
 62
7
  6
CONTINUOUS
 10
4.3969026029
 20
-27.0483797803
 11
4.3560410598
 21
-26.9047561724
  0
LINE
  5
2F7
100
AcDbEntity
  8
0
100
AcDbLine
 62
7
  6
CONTINUOUS
 10
4.966737873
 20
-27.2751713186
 11
4.9859800764
 21
-27.3471008333
  0
LINE
  5
2F8
100
AcDbEntity
  8
0
100
AcDbLine
 62
7
  6
CONTINUOUS
 10
4.7924806084
 20
-26.6147414666
 11
4.8493936843
 21
-26.826286184
  0
LINE
  5
2F9
100
AcDbEntity
  8
0
100
AcDbLine
 62
7
  6
CONTINUOUS
 10
4.8493936843
 20
-26.826286184
 11
4.966737873
 21
-27.2751713186
  0
LWPOLYLINE
  5
2FA
100
AcDbEntity
  8
0
100
AcDbPolyline
 62
7
  6
CONTINUOUS
 90
19
 70
0
 10
4.3712514594
 20
-25.5711941401
 10
4.369980369
 20
-25.547757626
 10
4.3668368801
 20
-25.5239540104
 10
4.3617879124
 20
-25.4999575609
 10
4.3548147423
 20
-25.4759920659
 10
4.3458840331
 20
-25.4522260806
 10
4.3349214814
 20
-25.428782548
 10
4.3218160851
 20
-25.4058048729
 10
4.3065773614
 20
-25.3836863167
 10
4.2893510425
 20
-25.3629260026
 10
4.2701724666
 20
-25.3437767518
 10
4.2491775317
 20
-25.3263612578
 10
4.2267861674
 20
-25.3108778632
 10
4.2033141929
 20
-25.2973672472
 10
4.1789178785
 20
-25.2857726273
 10
4.1538183496
 20
-25.2760906064
 10
4.1282350239
 20
-25.2683193296
 10
4.1023860655
 20
-25.2624575796
 10
4.0764847343
 20
-25.2585034175
  0
LWPOLYLINE
  5
2FB
100
AcDbEntity
  8
0
100
AcDbPolyline
 62
7
  6
CONTINUOUS
 90
13
 70
0
 43
0.3500000006
 10
1.0681691859
 20
53.1902225647
 10
1.0681691859
 20
54.4759340057
 10
1.2824548745
 20
54.9045075073
 10
1.7110262518
 20
55.3330810089
 10
1.9253120112
 20
55.3330810089
 10
2.3538833885
 20
54.9045075073
 10
2.5681692896
 20
54.4759340057
 10
2.5681692896
 20
53.1902225647
 10
2.3538833885
 20
52.7616490631
 10
1.9253120112
 20
52.3330800934
 10
1.7110262518
 20
52.3330800934
 10
1.2824548745
 20
52.7616490631
 10
1.0681691859
 20
53.1902225647
  0
LINE
  5
2FC
100
AcDbEntity
  8
0
100
AcDbLine
 62
7
  6
CONTINUOUS
 10
3.1653288179
 20
-27.3471008333
 11
3.1653288179
 21
-24.8765704643
  0
LINE
  5
2FD
100
AcDbEntity
  8
0
100
AcDbLine
 62
7
  6
CONTINUOUS
 10
3.6677202927
 20
-25.2732199776
 11
3.6677202927
 21
-25.9594461299
  0
LINE
  5
2FE
100
AcDbEntity
  8
0
100
AcDbLine
 62
7
  6
CONTINUOUS
 10
3.6850221594
 20
-26.368842414
 11
3.6850221594
 21
-27.3471008333
  0
LINE
  5
2FF
100
AcDbEntity
  8
0
100
AcDbLine
 62
7
  6
CONTINUOUS
 10
4.506832713
 20
-26.1654751848
 11
4.506832713
 21
-26.1802464427
  0
LINE
  5
300
100
AcDbEntity
  8
0
100
AcDbLine
 62
7
  6
CONTINUOUS
 10
-3.6696396842
 20
-26.5680110526
 11
-3.1785886842
 21
-24.8473650526
  0
LINE
  5
301
100
AcDbEntity
  8
0
100
AcDbLine
 62
7
  6
CONTINUOUS
 10
-2.6571526842
 20
-24.8473650526
 11
-3.4606676842
 21
-27.3471010526
  0
LINE
  5
302
100
AcDbEntity
  8
0
100
AcDbLine
 62
7
  6
CONTINUOUS
 10
1.9829343158
 20
-25.5342290526
 11
1.7231253158
 21
-26.4619130526
  0
LINE
  5
303
100
AcDbEntity
  8
0
100
AcDbLine
 62
7
  6
CONTINUOUS
 10
1.6163903158
 20
-26.8480650526
 11
1.4724073158
 21
-27.3471010526
  0
LINE
  5
304
100
AcDbEntity
  8
0
100
AcDbLine
 62
7
  6
CONTINUOUS
 10
0.9562763158
 20
-27.3471010526
 11
1.7403523158
 21
-24.8473650526
  0
LINE
  5
305
100
AcDbEntity
  8
0
100
AcDbLine
 62
7
  6
CONTINUOUS
 10
-0.3974686842
 20
-26.2352260526
 11
0.1243243158
 21
-24.8473650526
  0
LINE
  5
306
100
AcDbEntity
  8
0
100
AcDbLine
 62
7
  6
CONTINUOUS
 10
0.2566843158
 20
-25.7216250526
 11
-0.3637266842
 21
-27.3471010526
  0
LINE
  5
307
100
AcDbEntity
  8
ASSI
100
AcDbLine
 62
250
  6
CONTINUOUS
 10
59.3077047237
 20
43.5294832153
 11
59.3613004558
 21
43.5830789474
  0
LINE
  5
308
100
AcDbEntity
  8
ASSI
100
AcDbLine
 62
250
  6
CONTINUOUS
 10
60.1074480831
 20
42.7297748547
 11
60.1610263158
 21
42.7833530874
  0
LINE
  5
309
100
AcDbEntity
  8
ASSI
100
AcDbLine
 62
250
  6
CONTINUOUS
 10
59.3077043822
 20
-42.263324979
 11
59.3613004558
 21
-42.3169210526
  0
LINE
  5
30A
100
AcDbEntity
  8
ASSI
100
AcDbLine
 62
250
  6
CONTINUOUS
 10
60.1074481873
 20
-41.4636170642
 11
60.1610263158
 21
-41.5171951927
  0
LWPOLYLINE
  5
30B
100
AcDbEntity
  8
RACCORDO
100
AcDbPolyline
 62
250
  6
CONTINUOUS
 90
7
 70
0
 10
22.479196884
 20
-22.1997803475
 10
22.4786832657
 20
-22.1811075971
 10
22.4781390194
 20
-22.1650405728
 10
22.4775698745
 20
-22.1517484215
 10
22.4769818227
 20
-22.1413710783
 10
22.4763810546
 20
-22.1340177933
 10
22.475773895
 20
-22.1297659809
  0
LINE
  5
30C
100
AcDbEntity
  8
RACCORDO
100
AcDbLine
 62
250
  6
CONTINUOUS
 10
22.4801109872
 20
-22.2441313486
 11
22.479196884
 21
-22.1997803475
  0
LINE
  5
30D
100
AcDbEntity
  8
RACCORDO
100
AcDbLine
 62
250
  6
CONTINUOUS
 10
22.480842938
 20
-22.296230868
 11
22.4801109872
 21
-22.2441313486
  0
LINE
  5
30E
100
AcDbEntity
  8
RACCORDO
100
AcDbLine
 62
250
  6
CONTINUOUS
 10
22.4813619953
 20
-22.3538907716
 11
22.480842938
 21
-22.296230868
  0
LINE
  5
30F
100
AcDbEntity
  8
RACCORDO
100
AcDbLine
 62
250
  6
CONTINUOUS
 10
23.2814142553
 20
22.914968073
 11
23.2934417833
 21
19.8987512124
  0
LINE
  5
310
100
AcDbEntity
  8
RACCORDO
100
AcDbLine
 62
250
  6
CONTINUOUS
 10
22.9761059359
 20
22.9000612184
 11
22.9870894923
 21
19.8883651843
  0
LINE
  5
311
100
AcDbEntity
  8
RACCORDO
100
AcDbLine
 62
250
  6
CONTINUOUS
 10
23.2934417833
 20
19.8987512124
 11
23.3015450989
 21
16.9505288073
  0
LINE
  5
312
100
AcDbEntity
  8
RACCORDO
100
AcDbLine
 62
250
  6
CONTINUOUS
 10
22.9870894923
 20
19.8883651843
 11
22.9957429947
 21
16.3563023686
  0
LINE
  5
313
100
AcDbEntity
  8
RACCORDO
100
AcDbLine
 62
250
  6
CONTINUOUS
 10
22.4816963977
 20
-22.4454700153
 11
22.4813619953
 21
-22.3538907716
  0
LINE
  5
314
100
AcDbEntity
  8
RACCORDO
100
AcDbLine
 62
250
  6
CONTINUOUS
 10
23.3015450989
 20
16.9505288073
 11
23.311725435
 21
10.4847965496
  0
LINE
  5
315
100
AcDbEntity
  8
RACCORDO
100
AcDbLine
 62
250
  6
CONTINUOUS
 10
22.9957429947
 20
16.3563023686
 11
23.0068890089
 21
8.1053535518
  0
LINE
  5
316
100
AcDbEntity
  8
RACCORDO
100
AcDbLine
 62
250
  6
CONTINUOUS
 10
23.311725435
 20
10.4847965496
 11
23.31744572
 21
3.6045789983
  0
LINE
  5
317
100
AcDbEntity
  8
RACCORDO
100
AcDbLine
 62
250
  6
CONTINUOUS
 10
23.0068890089
 20
8.1053535518
 11
23.0108561335
 21
1.4075017406
  0
LINE
  5
318
100
AcDbEntity
  8
RACCORDO
100
AcDbLine
 62
7
  6
CONTINUOUS
 10
22.8110263158
 20
-21.4688237036
 11
22.8110263158
 21
22.7349815983
  0
LINE
  5
319
100
AcDbEntity
  8
RACCORDO
100
AcDbLine
 62
250
  6
CONTINUOUS
 10
23.0108561335
 20
1.4075017406
 11
23.0096966694
 21
-3.3197293129
  0
LINE
  5
31A
100
AcDbEntity
  8
RACCORDO
100
AcDbLine
 62
250
  6
CONTINUOUS
 10
23.31744572
 20
3.6045789983
 11
23.3172777007
 21
-2.695018475
  0
LINE
  5
31B
100
AcDbEntity
  8
RACCORDO
100
AcDbLine
 62
250
  6
CONTINUOUS
 10
23.0096966694
 20
-3.3197293129
 11
23.0035660291
 21
-9.8642176691
  0
LINE
  5
31C
100
AcDbEntity
  8
RACCORDO
100
AcDbLine
 62
250
  6
CONTINUOUS
 10
23.3172777007
 20
-2.695018475
 11
23.3123232481
 21
-8.6953286002
  0
LINE
  5
31D
100
AcDbEntity
  8
RACCORDO
100
AcDbLine
 62
250
  6
CONTINUOUS
 10
23.3123232481
 20
-8.6953286002
 11
23.3049825445
 21
-13.9797420958
  0
LINE
  5
31E
100
AcDbEntity
  8
RACCORDO
100
AcDbLine
 62
250
  6
CONTINUOUS
 10
23.0035660291
 20
-9.8642176691
 11
22.9956475323
 21
-15.1425934038
  0
LINE
  5
31F
100
AcDbEntity
  8
RACCORDO
100
AcDbLine
 62
250
  6
CONTINUOUS
 10
23.3049825445
 20
-13.9797420958
 11
23.2967705618
 21
-17.5536314759
  0
LINE
  5
320
100
AcDbEntity
  8
RACCORDO
100
AcDbLine
 62
250
  6
CONTINUOUS
 10
22.9956475323
 20
-15.1425934038
 11
22.9864981281
 21
-18.820589871
  0
LINE
  5
321
100
AcDbEntity
  8
RACCORDO
100
AcDbLine
 62
250
  6
CONTINUOUS
 10
23.2967705618
 20
-17.5536314759
 11
23.2877109806
 21
-20.1936927227
  0
LINE
  5
322
100
AcDbEntity
  8
RACCORDO
100
AcDbLine
 62
250
  6
CONTINUOUS
 10
22.9864981281
 20
-18.820589871
 11
22.9761059359
 21
-21.6339033237
  0
LINE
  5
323
100
AcDbEntity
  8
RACCORDO
100
AcDbLine
 62
250
  6
CONTINUOUS
 10
23.2877109806
 20
-20.1936927227
 11
23.2814142553
 21
-21.6488101782
  0
LINE
  5
324
100
AcDbEntity
  8
RACCORDO
100
AcDbLine
 62
250
  6
CONTINUOUS
 10
22.4816963982
 20
23.7116279101
 11
22.4813619976
 21
23.6200472561
  0
LINE
  5
325
100
AcDbEntity
  8
RACCORDO
100
AcDbLine
 62
250
  6
CONTINUOUS
 10
22.4813619976
 20
23.6200472561
 11
22.4808429345
 21
23.562387002
  0
LINE
  5
326
100
AcDbEntity
  8
RACCORDO
100
AcDbLine
 62
250
  6
CONTINUOUS
 10
22.4808429345
 20
23.562387002
 11
22.4801109773
 21
23.5102875722
  0
LWPOLYLINE
  5
327
100
AcDbEntity
  8
RACCORDO
100
AcDbPolyline
 62
250
  6
CONTINUOUS
 90
8
 70
0
 10
22.4801109773
 20
23.5102875722
 10
22.4791968704
 20
23.4659369812
 10
22.4786832524
 20
23.4472645098
 10
22.4781390076
 20
23.4311977721
 10
22.4775698641
 20
23.417905858
 10
22.4769818128
 20
23.4075286938
 10
22.4763810448
 20
23.4001755443
 10
22.4757738846
 20
23.3959238259
  0
LWPOLYLINE
  5
328
100
AcDbEntity
  8
RACCORDO
100
AcDbPolyline
 62
250
  6
CONTINUOUS
 90
25
 70
0
 10
22.9761059083
 20
-21.6339032961
 10
22.9749548876
 20
-21.6665771977
 10
22.9716785467
 20
-21.6989702685
 10
22.9663146751
 20
-21.7309482141
 10
22.9589218377
 20
-21.762335491
 10
22.9495472426
 20
-21.7930537546
 10
22.9381973946
 20
-21.8231135961
 10
22.9248922261
 20
-21.8524366604
 10
22.9097006311
 20
-21.8808499669
 10
22.8926914496
 20
-21.9082199533
 10
22.8739303248
 20
-21.9344369081
 10
22.8534980454
 20
-21.9593859172
 10
22.8315050635
 20
-21.9829383369
 10
22.8080638648
 20
-22.0049843257
 10
22.7832601573
 20
-22.0254541854
 10
22.7571736316
 20
-22.0442885705
 10
22.7299948701
 20
-22.0613597636
 10
22.7017577763
 20
-22.076655397
 10
22.6722803318
 20
-22.0902401693
 10
22.6415252894
 20
-22.1020453328
 10
22.6097275584
 20
-22.1118962241
 10
22.5771057548
 20
-22.1196694537
 10
22.543827002
 20
-22.1252812542
 10
22.5100000958
 20
-22.1286676799
 10
22.4757738374
 20
-22.1297659233
  0
LWPOLYLINE
  5
329
100
AcDbEntity
  8
RACCORDO
100
AcDbPolyline
 62
250
  6
CONTINUOUS
 90
25
 70
0
 10
23.2814142553
 20
-21.6488101782
 10
23.2793333339
 20
-21.701438813
 10
23.2740076393
 20
-21.7532142588
 10
23.26543717
 20
-21.8041365138
 10
23.2535662863
 20
-21.8543350068
 10
23.2384506266
 20
-21.9036803072
 10
23.2202571073
 20
-21.9517841265
 10
23.198940063
 20
-21.9987148267
 10
23.1745451611
 20
-22.0444040479
 10
23.1473763183
 20
-22.0882584194
 10
23.1173847579
 20
-22.1302575317
 10
23.0846192617
 20
-22.1704218003
 10
23.0495300856
 20
-22.2082190937
 10
23.0121145497
 20
-22.2435931658
 10
22.9723753408
 20
-22.2766002709
 10
22.9307707651
 20
-22.3068770288
 10
22.887436952
 20
-22.3343691673
 10
22.8422377793
 20
-22.3591309673
 10
22.7952231755
 20
-22.3809618776
 10
22.7461659031
 20
-22.3999627467
 10
22.6952932074
 20
-22.4160327357
 10
22.6433367412
 20
-22.4286687622
 10
22.5905403904
 20
-22.4377031341
 10
22.5366602749
 20
-22.4433035507
 10
22.4816963977
 20
-22.4454700153
  0
LWPOLYLINE
  5
32A
100
AcDbEntity
  8
RACCORDO
100
AcDbPolyline
 62
250
  6
CONTINUOUS
 90
16
 70
0
 10
23.2814142553
 20
22.914968073
 10
23.2513367453
 20
22.9147949273
 10
23.2214969339
 20
22.9144735547
 10
23.1921950154
 20
22.9140071885
 10
23.1637257728
 20
22.9134005206
 10
23.1363756122
 20
22.9126596542
 10
23.1104196819
 20
22.9117920425
 10
23.0861191034
 20
22.9108064138
 10
23.0637183451
 20
22.9097126837
 10
23.0434427631
 20
22.9085218556
 10
23.0254963335
 20
22.9072459091
 10
23.0100596007
 20
22.9058976806
 10
22.997287861
 20
22.9044907338
 10
22.9873096005
 20
22.9030392228
 10
22.980225202
 20
22.9015577497
 10
22.9761059359
 20
22.9000612184
  0
LINE
  5
32B
100
AcDbEntity
  8
RACCORDO
100
AcDbLine
 62
250
  6
CONTINUOUS
 10
-22.0596437661
 20
23.7116279101
 11
-15.333333531
 21
23.7248568883
  0
LINE
  5
32C
100
AcDbEntity
  8
RACCORDO
100
AcDbLine
 62
250
  6
CONTINUOUS
 10
-22.0537212634
 20
23.3959238756
 11
-15.3292188512
 21
23.40577234
  0
LINE
  5
32D
100
AcDbEntity
  8
RACCORDO
100
AcDbLine
 62
250
  6
CONTINUOUS
 10
-15.333333531
 20
23.7248568883
 11
-10.4617968475
 21
23.7317575277
  0
LINE
  5
32E
100
AcDbEntity
  8
RACCORDO
100
AcDbLine
 62
250
  6
CONTINUOUS
 10
-15.3292188512
 20
23.40577234
 11
-7.9077005026
 21
23.4124729943
  0
LINE
  5
32F
100
AcDbEntity
  8
RACCORDO
100
AcDbLine
 62
250
  6
CONTINUOUS
 10
-10.4617968475
 20
23.7317575277
 11
-5.2803460593
 21
23.736176845
  0
LINE
  5
330
100
AcDbEntity
  8
RACCORDO
100
AcDbLine
 62
250
  6
CONTINUOUS
 10
-5.2803460593
 20
23.736176845
 11
0.2110263158
 21
23.7378767186
  0
LINE
  5
331
100
AcDbEntity
  8
RACCORDO
100
AcDbLine
 62
7
  6
CONTINUOUS
 10
22.3129289667
 20
23.2330789474
 11
-21.8908763352
 21
23.2330789474
  0
LINE
  5
332
100
AcDbEntity
  8
RACCORDO
100
AcDbLine
 62
250
  6
CONTINUOUS
 10
-7.9077005026
 20
23.4124729943
 11
0.2110263158
 21
23.4149486357
  0
LINE
  5
333
100
AcDbEntity
  8
RACCORDO
100
AcDbLine
 62
250
  6
CONTINUOUS
 10
0.2110263158
 20
23.4149486357
 11
6.5325595777
 21
23.4134518214
  0
LINE
  5
334
100
AcDbEntity
  8
RACCORDO
100
AcDbLine
 62
250
  6
CONTINUOUS
 10
0.2110263158
 20
23.7378767186
 11
6.5341973405
 21
23.7357325046
  0
LINE
  5
335
100
AcDbEntity
  8
RACCORDO
100
AcDbLine
 62
250
  6
CONTINUOUS
 10
6.5325595777
 20
23.4134518214
 11
12.3504830903
 21
23.4093791548
  0
LINE
  5
336
100
AcDbEntity
  8
RACCORDO
100
AcDbLine
 62
250
  6
CONTINUOUS
 10
6.5341973405
 20
23.7357325046
 11
12.3536710087
 21
23.7299461521
  0
LINE
  5
337
100
AcDbEntity
  8
RACCORDO
100
AcDbLine
 62
250
  6
CONTINUOUS
 10
12.3504830903
 20
23.4093791548
 11
19.324433842
 21
23.4010170362
  0
LINE
  5
338
100
AcDbEntity
  8
RACCORDO
100
AcDbLine
 62
250
  6
CONTINUOUS
 10
19.324433842
 20
23.4010170362
 11
22.475773895
 21
23.3959238756
  0
LINE
  5
339
100
AcDbEntity
  8
RACCORDO
100
AcDbLine
 62
250
  6
CONTINUOUS
 10
12.3536710087
 20
23.7299461521
 11
19.3295232427
 21
23.7183208691
  0
LINE
  5
33A
100
AcDbEntity
  8
RACCORDO
100
AcDbLine
 62
250
  6
CONTINUOUS
 10
19.3295232427
 20
23.7183208691
 11
22.4816963977
 21
23.7116279101
  0
LWPOLYLINE
  5
33B
100
AcDbEntity
  8
RACCORDO
100
AcDbPolyline
 62
250
  6
CONTINUOUS
 90
16
 70
0
 10
-22.8593616237
 20
22.9149680735
 10
-22.8292835759
 20
22.9147949036
 10
-22.7994433271
 20
22.9144735052
 10
-22.7701410815
 20
22.9140071132
 10
-22.7416716295
 20
22.9134004212
 10
-22.7143213728
 20
22.9126595338
 10
-22.6883654454
 20
22.9117919053
 10
-22.6640649607
 20
22.9108062654
 10
-22.6416643705
 20
22.9097125308
 10
-22.6213890022
 20
22.9085217046
 10
-22.6034428221
 20
22.9072457679
 10
-22.588006345
 20
22.9058975568
 10
-22.5752348243
 20
22.9044906319
 10
-22.5652567348
 20
22.9030391461
 10
-22.5581724636
 20
22.9015577022
 10
-22.5540532767
 20
22.9000612035
  0
LWPOLYLINE
  5
33C
100
AcDbEntity
  8
RACCORDO
100
AcDbPolyline
 62
250
  6
CONTINUOUS
 90
25
 70
0
 10
22.4757738453
 20
23.3959238259
 10
22.5086054006
 20
23.3949158937
 10
22.5411629834
 20
23.3917896791
 10
22.5733121789
 20
23.3865833053
 10
22.6048780696
 20
23.3793563136
 10
22.6357815726
 20
23.370155605
 10
22.6660311803
 20
23.3589861159
 10
22.6955489237
 20
23.3458685681
 10
22.7241615924
 20
23.3308717629
 10
22.7517326614
 20
23.3140616428
 10
22.7781526388
 20
23.2955043197
 10
22.8033067732
 20
23.2752806744
 10
22.8270633739
 20
23.2534975909
 10
22.8493125643
 20
23.2302676722
 10
22.8699851468
 20
23.2056768046
 10
22.8890193974
 20
23.1798010065
 10
22.9062868369
 20
23.152830876
 10
22.9217762011
 20
23.1248002953
 10
22.9355520221
 20
23.0955231469
 10
22.9475467153
 20
23.0649608771
 10
22.9575834283
 20
23.0333491495
 10
22.9655336638
 20
23.0009055824
 10
22.9713123357
 20
22.9677970559
 10
22.9748572932
 20
22.9341326659
 10
22.976105904
 20
22.9000611865
  0
LWPOLYLINE
  5
33D
100
AcDbEntity
  8
RACCORDO
100
AcDbPolyline
 62
250
  6
CONTINUOUS
 90
25
 70
0
 10
22.4816963977
 20
23.7116279101
 10
22.5344060502
 20
23.709682355
 10
22.5862686224
 20
23.7044932804
 10
22.6372841119
 20
23.6960606833
 10
22.6875824154
 20
23.6843288384
 10
22.7370336313
 20
23.6693534651
 10
22.7852480594
 20
23.6513017274
 10
22.8322940039
 20
23.6301283353
 10
22.8781031543
 20
23.6058785711
 10
22.9220808873
 20
23.5788554568
 10
22.9642066738
 20
23.5490105216
 10
23.0045010355
 20
23.5163922273
 10
23.0424309245
 20
23.481448993
 10
23.0779399361
 20
23.4441784466
 10
23.111084468
 20
23.4045829519
 10
23.1415006763
 20
23.3631180315
 10
23.1691338626
 20
23.3199208207
 10
23.1940387202
 20
23.2748541782
 10
23.2160154933
 20
23.2279622124
 10
23.235166949
 20
23.1790151334
 10
23.2513903173
 20
23.1282427277
 10
23.2641775374
 20
23.0763784704
 10
23.2733592564
 20
23.023666854
 10
23.2791048286
 20
22.9698633876
 10
23.2814142553
 20
22.914968073
  0
LINE
  5
33E
100
AcDbEntity
  8
ASSI
100
AcDbLine
 62
250
  6
CONTINUOUS
 10
-58.9028742604
 20
43.0573648487
 11
-57.8687209187
 21
43.0851643846
  0
LINE
  5
33F
100
AcDbEntity
  8
ASSI
100
AcDbLine
 62
250
  6
CONTINUOUS
 10
-59.5143937924
 20
42.7417275237
 11
-59.4478961844
 21
42.7433751722
  0
LINE
  5
340
100
AcDbEntity
  8
ASSI
100
AcDbLine
 62
250
  6
CONTINUOUS
 10
-57.8687209187
 20
43.0851643846
 11
-56.7602033404
 21
43.1090223551
  0
LINE
  5
341
100
AcDbEntity
  8
ASSI
100
AcDbLine
 62
250
  6
CONTINUOUS
 10
-59.4478961844
 20
42.7433751722
 11
-59.3742395481
 21
42.7446516721
  0
LINE
  5
342
100
AcDbEntity
  8
ASSI
100
AcDbLine
 62
250
  6
CONTINUOUS
 10
-56.7602033404
 20
43.1090223551
 11
-55.5890998804
 21
43.128656158
  0
LINE
  5
343
100
AcDbEntity
  8
ASSI
100
AcDbLine
 62
250
  6
CONTINUOUS
 10
-55.5890998804
 20
43.128656158
 11
-54.3981496928
 21
43.1430037841
  0
LINE
  5
344
100
AcDbEntity
  8
ASSI
100
AcDbLine
 62
250
  6
CONTINUOUS
 10
-59.3742395481
 20
42.7446516721
 11
-59.2954339919
 21
42.7455221873
  0
LINE
  5
345
100
AcDbEntity
  8
ASSI
100
AcDbLine
 62
250
  6
CONTINUOUS
 10
-54.3981496928
 20
43.1430037841
 11
-53.2069750991
 21
43.1528923977
  0
LINE
  5
346
100
AcDbEntity
  8
ASSI
100
AcDbLine
 62
250
  6
CONTINUOUS
 10
-53.2069750991
 20
43.1528923977
 11
-52.0164692633
 21
43.158842429
  0
LINE
  5
347
100
AcDbEntity
  8
ASSI
100
AcDbLine
 62
250
  6
CONTINUOUS
 10
-59.2954339919
 20
42.7455221873
 11
-59.2136301397
 21
42.7459629613
  0
LINE
  5
348
100
AcDbEntity
  8
ASSI
100
AcDbLine
 62
250
  6
CONTINUOUS
 10
-52.0164692633
 20
43.158842429
 11
-50.8082739913
 21
43.1619588201
  0
LINE
  5
349
100
AcDbEntity
  8
ASSI
100
AcDbLine
 62
250
  6
CONTINUOUS
 10
-31.1586747042
 20
43.1741367406
 11
-27.5450164945
 21
43.179860568
  0
LINE
  5
34A
100
AcDbEntity
  8
ASSI
100
AcDbLine
 62
250
  6
CONTINUOUS
 10
-41.2533199008
 20
43.1519162915
 11
-31.1586747042
 21
43.1741367406
  0
LINE
  5
34B
100
AcDbEntity
  8
ASSI
100
AcDbLine
 62
250
  6
CONTINUOUS
 10
58.2680438179
 20
43.5286241461
 11
59.3077047237
 21
43.5294832153
  0
LINE
  5
34C
100
AcDbEntity
  8
ASSI
100
AcDbLine
 62
250
  6
CONTINUOUS
 10
-27.5450164945
 20
43.179860568
 11
-23.5688884686
 21
43.1833445239
  0
LINE
  5
34D
100
AcDbEntity
  8
ASSI
100
AcDbLine
 62
250
  6
CONTINUOUS
 10
42.2805982147
 20
43.1516694436
 11
48.4471967547
 21
43.1614424724
  0
LINE
  5
34E
100
AcDbEntity
  8
ASSI
100
AcDbLine
 62
250
  6
CONTINUOUS
 10
48.4471967547
 20
43.1614424724
 11
50.3102722099
 21
43.1627579109
  0
LINE
  5
34F
100
AcDbEntity
  8
ASSI
100
AcDbLine
 62
7
  6
CONTINUOUS
 10
59.3613004558
 20
43.5830789474
 11
-58.9392478242
 21
43.5830789474
  0
LINE
  5
350
100
AcDbEntity
  8
ASSI
100
AcDbLine
 62
250
  6
CONTINUOUS
 10
-23.5688884686
 20
43.1833445239
 11
19.0534731817
 21
43.1846033553
  0
LINE
  5
351
100
AcDbEntity
  8
ASSI
100
AcDbLine
 62
250
  6
CONTINUOUS
 10
45.1847511107
 20
43.5266140543
 11
58.2680438179
 21
43.5286241461
  0
LINE
  5
352
100
AcDbEntity
  8
ASSI
100
AcDbLine
 62
250
  6
CONTINUOUS
 10
-50.8082739913
 20
43.1619588201
 11
-48.9026357357
 21
43.1624438522
  0
LINE
  5
353
100
AcDbEntity
  8
ASSI
100
AcDbLine
 62
250
  6
CONTINUOUS
 10
19.0534731817
 20
43.1846033553
 11
24.4414672249
 21
43.1830914862
  0
LWPOLYLINE
  5
354
100
AcDbEntity
  8
ASSI
100
AcDbPolyline
 62
250
  6
CONTINUOUS
 90
3
 70
0
 10
-58.8856519835
 20
43.5294831066
 10
-58.3791632278
 20
43.5290385037
 10
45.1847511107
 20
43.5266140543
  0
LINE
  5
355
100
AcDbEntity
  8
ASSI
100
AcDbLine
 62
250
  6
CONTINUOUS
 10
24.4414672249
 20
43.1830914862
 11
29.2209242956
 21
43.1781808957
  0
LINE
  5
356
100
AcDbEntity
  8
ASSI
100
AcDbLine
 62
250
  6
CONTINUOUS
 10
50.3102722099
 20
43.1627579109
 11
51.562839757
 21
43.16141529
  0
LWPOLYLINE
  5
357
100
AcDbEntity
  8
ASSI
100
AcDbPolyline
 62
250
  6
CONTINUOUS
 90
3
 70
0
 10
-48.9026357357
 20
43.1624438522
 10
-44.5830413262
 20
43.1544293101
 10
-41.2533199008
 20
43.1519162915
  0
LINE
  5
358
100
AcDbEntity
  8
ASSI
100
AcDbLine
 62
250
  6
CONTINUOUS
 10
29.2209242956
 20
43.1781808957
 11
33.4882024003
 21
43.1700429025
  0
LINE
  5
359
100
AcDbEntity
  8
ASSI
100
AcDbLine
 62
250
  6
CONTINUOUS
 10
38.1890398693
 20
43.157849295
 11
42.2805982147
 21
43.1516694436
  0
LINE
  5
35A
100
AcDbEntity
  8
ASSI
100
AcDbLine
 62
250
  6
CONTINUOUS
 10
33.4882024003
 20
43.1700429025
 11
38.1890398693
 21
43.157849295
  0
LINE
  5
35B
100
AcDbEntity
  8
ASSI
100
AcDbLine
 62
250
  6
CONTINUOUS
 10
51.562839757
 20
43.16141529
 11
52.8296491121
 21
43.1571780908
  0
LINE
  5
35C
100
AcDbEntity
  8
ASSI
100
AcDbLine
 62
250
  6
CONTINUOUS
 10
59.635682683
 20
42.7459630538
 11
59.717486982
 21
42.7455222761
  0
LINE
  5
35D
100
AcDbEntity
  8
ASSI
100
AcDbLine
 62
250
  6
CONTINUOUS
 10
52.8296491121
 20
43.1571780908
 11
54.1042483821
 21
43.1494429293
  0
LINE
  5
35E
100
AcDbEntity
  8
ASSI
100
AcDbLine
 62
250
  6
CONTINUOUS
 10
54.1042483821
 20
43.1494429293
 11
55.3630831489
 21
43.1370936071
  0
LINE
  5
35F
100
AcDbEntity
  8
ASSI
100
AcDbLine
 62
250
  6
CONTINUOUS
 10
59.717486982
 20
42.7455222761
 11
59.7962928318
 21
42.7446517539
  0
LINE
  5
360
100
AcDbEntity
  8
ASSI
100
AcDbLine
 62
250
  6
CONTINUOUS
 10
55.3630831489
 20
43.1370936071
 11
56.5772870405
 21
43.1198681857
  0
LINE
  5
361
100
AcDbEntity
  8
ASSI
100
AcDbLine
 62
250
  6
CONTINUOUS
 10
59.7962928318
 20
42.7446517539
 11
59.8699496239
 21
42.7433752455
  0
LINE
  5
362
100
AcDbEntity
  8
ASSI
100
AcDbLine
 62
250
  6
CONTINUOUS
 10
56.5772870405
 20
43.1198681857
 11
57.7328732601
 21
43.0978750976
  0
LWPOLYLINE
  5
363
100
AcDbEntity
  8
ASSI
100
AcDbPolyline
 62
250
  6
CONTINUOUS
 90
3
 70
0
 10
57.7328732601
 20
43.0978750976
 10
58.8124043544
 20
43.071884866
 10
59.324903172
 20
43.0573682251
  0
LWPOLYLINE
  5
364
100
AcDbEntity
  8
ASSI
100
AcDbPolyline
 62
250
  6
CONTINUOUS
 90
12
 70
0
 10
59.8699496239
 20
42.7433752455
 10
59.9364473369
 20
42.7417275861
 10
59.9664353934
 20
42.7407782626
 10
59.993971201
 20
42.7397537411
 10
60.0188665715
 20
42.7386610235
 10
60.0409513627
 20
42.7375075778
 10
60.0600746834
 20
42.7363012838
 10
60.0761057811
 20
42.7350503885
 10
60.0889350117
 20
42.7337634505
 10
60.0984747493
 20
42.732449269
 10
60.1046599065
 20
42.7311168226
 10
60.1074482878
 20
42.7297752174
  0
LWPOLYLINE
  5
365
100
AcDbEntity
  8
ASSI
100
AcDbPolyline
 62
250
  6
CONTINUOUS
 90
22
 70
0
 10
-58.9028742604
 20
43.0573648487
 10
-58.9258463431
 20
43.0557767702
 10
-58.9484421715
 20
43.0525605131
 10
-58.970661523
 20
43.0477157206
 10
-58.9926071559
 20
43.0411971143
 10
-59.0141758622
 20
43.0330492609
 10
-59.0350585179
 20
43.0234066346
 10
-59.0552598263
 20
43.0122421028
 10
-59.0747747644
 20
42.9995822694
 10
-59.0932797418
 20
42.9856423783
 10
-59.1107570692
 20
42.9704038921
 10
-59.1272243261
 20
42.953885116
 10
-59.1424109818
 20
42.9363567711
 10
-59.1562982869
 20
42.9178016369
 10
-59.1689051142
 20
42.898237025
 10
-59.1800175227
 20
42.8779856687
 10
-59.1896106735
 20
42.8570376991
 10
-59.1977097381
 20
42.8354033621
 10
-59.204175918
 20
42.8134357429
 10
-59.2089631209
 20
42.7912527529
 10
-59.2121179083
 20
42.7687370525
 10
-59.2136405109
 20
42.7458889232
  0
LWPOLYLINE
  5
366
100
AcDbEntity
  8
ASSI
100
AcDbPolyline
 62
250
  6
CONTINUOUS
 90
22
 70
0
 10
-58.8856524688
 20
43.5294835919
 10
-58.9454247768
 20
43.5272428939
 10
-59.0048642339
 20
43.5205422545
 10
-59.0636387301
 20
43.5094183035
 10
-59.1214238145
 20
43.4939310791
 10
-59.1778920671
 20
43.474167024
 10
-59.2327159733
 20
43.4502415623
 10
-59.285586276
 20
43.4222924002
 10
-59.3362124302
 20
43.3904759139
 10
-59.384312554
 20
43.3549717626
 10
-59.4296148742
 20
43.3159839383
 10
-59.471872749
 20
43.2737281737
 10
-59.5108627946
 20
43.2284278436
 10
-59.5463691603
 20
43.180329714
 10
-59.578187946
 20
43.1297054164
 10
-59.6061396986
 20
43.0768363699
 10
-59.6300681055
 20
43.0220125641
 10
-59.6498350496
 20
42.9655436945
 10
-59.665324726
 20
42.9077583534
 10
-59.6764507349
 20
42.8489843881
 10
-59.6831532433
 20
42.7895459356
 10
-59.6853957267
 20
42.7297751299
  0
LWPOLYLINE
  5
367
100
AcDbEntity
  8
0
100
AcDbPolyline
 62
7
  6
CONTINUOUS
 90
10
 70
0
 43
0.3500000006
 10
64.4110275421
 20
1.7045071335
 10
65.0538855286
 20
1.061651413
 10
65.9110279999
 20
0.6330779114
 10
66.9824549561
 20
0.6330779114
 10
67.4110284576
 20
1.061651413
 10
67.4110284576
 20
1.7045071335
 10
66.9824549561
 20
2.1330783691
 10
66.1253124847
 20
2.1330783691
 10
65.6967389832
 20
1.7045071335
 10
65.6967389832
 20
0.7759357452
  0
LWPOLYLINE
  5
368
100
AcDbEntity
  8
0
100
AcDbPolyline
 62
7
  6
CONTINUOUS
 90
13
 70
0
 43
0.3500000006
 10
65.6967389832
 20
-1.2954926491
 10
65.4824544983
 20
-1.5812071838
 10
64.8395965118
 20
-1.5812071838
 10
64.4110275421
 20
-1.2954926491
 10
64.4110275421
 20
-0.6526357956
 10
64.8395965118
 20
-0.3669201279
 10
65.4824544983
 20
-0.3669201279
 10
65.6967389832
 20
-0.6526357956
 10
66.1253124847
 20
-0.2240645599
 10
66.9824549561
 20
-0.2240645599
 10
67.4110284576
 20
-0.6526357956
 10
67.4110284576
 20
-1.2954926491
 10
66.9824549561
 20
-1.7240638847
  0
LWPOLYLINE
  5
369
100
AcDbEntity
  8
0
100
AcDbPolyline
 62
7
  6
CONTINUOUS
 90
7
 70
0
 43
0.3500000006
 10
0.2110263074
 20
52.3330800934
 10
-1.2889736724
 20
52.3330800934
 10
0.2110263074
 20
54.4759340057
 10
0.2110263074
 20
54.9045075073
 10
-0.2175451053
 20
55.3330810089
 10
-0.8604022243
 20
55.3330810089
 10
-1.2889736724
 20
54.6902230225
  0
LWPOLYLINE
  5
36A
100
AcDbEntity
  8
ASSI
100
AcDbPolyline
 62
250
  6
CONTINUOUS
 90
3
 70
0
 10
59.324505713
 20
43.1791013681
 10
59.3252232016
 20
43.0984620881
 10
59.3254031834
 20
43.0572970684
  0
LINE
  5
36B
100
AcDbEntity
  8
ASSI
100
AcDbLine
 62
250
  6
CONTINUOUS
 10
59.6829904391
 20
39.4437618051
 11
59.6856086747
 21
38.5525356353
  0
LINE
  5
36C
100
AcDbEntity
  8
ASSI
100
AcDbLine
 62
250
  6
CONTINUOUS
 10
59.7024949752
 20
22.2233817913
 11
59.7101921815
 21
15.8706975513
  0
LINE
  5
36D
100
AcDbEntity
  8
ASSI
100
AcDbLine
 62
250
  6
CONTINUOUS
 10
59.7101921815
 20
15.8706975513
 11
59.7141752381
 21
5.8361591739
  0
LINE
  5
36E
100
AcDbEntity
  8
ASSI
100
AcDbLine
 62
250
  6
CONTINUOUS
 10
59.7141752381
 20
5.8361591739
 11
59.7125999531
 21
-10.487943797
  0
LINE
  5
36F
100
AcDbEntity
  8
ASSI
100
AcDbLine
 62
250
  6
CONTINUOUS
 10
59.6856086747
 20
38.5525356353
 11
59.7024949752
 21
22.2233817913
  0
LINE
  5
370
100
AcDbEntity
  8
ASSI
100
AcDbLine
 62
250
  6
CONTINUOUS
 10
59.7125999531
 20
-10.487943797
 11
59.7081667644
 21
-16.8250783639
  0
LINE
  5
371
100
AcDbEntity
  8
ASSI
100
AcDbLine
 62
250
  6
CONTINUOUS
 10
59.7081667644
 20
-16.8250783639
 11
59.7015288564
 21
-21.5048657573
  0
LINE
  5
372
100
AcDbEntity
  8
ASSI
100
AcDbLine
 62
250
  6
CONTINUOUS
 10
59.7015288564
 20
-21.5048657573
 11
59.6883940844
 21
-27.4240529761
  0
LWPOLYLINE
  5
373
100
AcDbEntity
  8
ASSI
100
AcDbPolyline
 62
250
  6
CONTINUOUS
 90
3
 70
0
 10
59.6883940844
 20
-27.4240529761
 10
59.6840439673
 20
-37.9222037018
 10
59.6825610996
 20
-38.2824302629
  0
LWPOLYLINE
  5
374
100
AcDbEntity
  8
ASSI
100
AcDbPolyline
 62
250
  6
CONTINUOUS
 90
3
 70
0
 10
59.3254032323
 20
-41.791139132
 10
59.3249234074
 20
-41.8729986603
 10
59.3245057573
 20
-41.9129437999
  0
LWPOLYLINE
  5
375
100
AcDbEntity
  8
ASSI
100
AcDbPolyline
 62
250
  6
CONTINUOUS
 90
22
 70
0
 10
59.6357103421
 20
42.7457661372
 10
59.6341800714
 20
42.7686686181
 10
59.6310196349
 20
42.7912249159
 10
59.6262288023
 20
42.8134347504
 10
59.6197617041
 20
42.8354108002
 10
59.6116637427
 20
42.8570398181
 10
59.6020716434
 20
42.877982706
 10
59.5909595339
 20
42.8982339446
 10
59.5783529536
 20
42.9177986756
 10
59.5644658708
 20
42.9363539698
 10
59.549279427
 20
42.9538824551
 10
59.532812357
 20
42.9704014123
 10
59.515335175
 20
42.9856401062
 10
59.4968303617
 20
42.9995802176
 10
59.4773155461
 20
43.0122402977
 10
59.457114121
 20
43.0234051299
 10
59.4362318054
 20
43.033048049
 10
59.4146632
 20
43.0411962488
 10
59.3927151432
 20
43.0477154662
 10
59.3704900807
 20
43.0525612045
 10
59.3478860162
 20
43.055778672
 10
59.324903172
 20
43.0573682251
  0
LWPOLYLINE
  5
376
100
AcDbEntity
  8
ASSI
100
AcDbPolyline
 62
250
  6
CONTINUOUS
 90
22
 70
0
 10
60.1074483583
 20
42.7297751299
 10
60.1052059147
 20
42.7895454034
 10
60.098503579
 20
42.8489829783
 10
60.0873779534
 20
42.9077557442
 10
60.0718890372
 20
42.9655393005
 10
60.0521232513
 20
43.0220061608
 10
60.0281960537
 20
43.0768286407
 10
60.0002451868
 20
43.1296974353
 10
59.9684270165
 20
43.1803220528
 10
59.9329211988
 20
43.2284206064
 10
59.8939317338
 20
43.2737213272
 10
59.8516743601
 20
43.3159775784
 10
59.8063724442
 20
43.3549659734
 10
59.7582727552
 20
43.3904706678
 10
59.7076469291
 20
43.422287768
 10
59.6547763759
 20
43.4502378189
 10
59.5999511324
 20
43.4741644981
 10
59.5434808509
 20
43.4939297199
 10
59.4856939669
 20
43.5094177087
 10
59.4269182666
 20
43.5205420434
 10
59.3674779332
 20
43.5272428546
 10
59.3077051003
 20
43.5294835919
  0
LINE
  5
377
100
AcDbEntity
  8
ASSI
100
AcDbLine
 62
250
  6
CONTINUOUS
 10
59.6357103421
 20
42.7457661372
 11
59.6537887891
 21
41.9958567171
  0
LINE
  5
378
100
AcDbEntity
  8
ASSI
100
AcDbLine
 62
250
  6
CONTINUOUS
 10
59.3217258408
 20
43.3260391821
 11
59.3233292116
 21
43.255657601
  0
LINE
  5
379
100
AcDbEntity
  8
ASSI
100
AcDbLine
 62
250
  6
CONTINUOUS
 10
59.6537887891
 20
41.9958567171
 11
59.6676897306
 21
41.1870628947
  0
LINE
  5
37A
100
AcDbEntity
  8
ASSI
100
AcDbLine
 62
250
  6
CONTINUOUS
 10
59.3233292116
 20
43.255657601
 11
59.324505713
 21
43.1791013681
  0
LINE
  5
37B
100
AcDbEntity
  8
ASSI
100
AcDbLine
 62
250
  6
CONTINUOUS
 10
59.6676897306
 20
41.1870628947
 11
59.6774493878
 21
40.3271395354
  0
LINE
  5
37C
100
AcDbEntity
  8
ASSI
100
AcDbLine
 62
250
  6
CONTINUOUS
 10
59.6774493878
 20
40.3271395354
 11
59.6829904391
 21
39.4437618051
  0
LINE
  5
37D
100
AcDbEntity
  8
ASSI
100
AcDbLine
 62
250
  6
CONTINUOUS
 10
60.1050675107
 20
-0.6055233479
 11
60.1074481873
 21
-41.4636170642
  0
LINE
  5
37E
100
AcDbEntity
  8
ASSI
100
AcDbLine
 62
7
  6
CONTINUOUS
 10
60.1610263158
 20
-41.5171951927
 11
60.1610263158
 21
42.7833530874
  0
LINE
  5
37F
100
AcDbEntity
  8
ASSI
100
AcDbLine
 62
250
  6
CONTINUOUS
 10
60.1074480831
 20
42.7297748547
 11
60.1050675107
 21
-0.6055233479
  0
LINE
  5
380
100
AcDbEntity
  8
ASSI
100
AcDbLine
 62
250
  6
CONTINUOUS
 10
59.6825610996
 20
-38.2824302629
 11
59.6782737191
 21
-38.9621813577
  0
LINE
  5
381
100
AcDbEntity
  8
ASSI
100
AcDbLine
 62
250
  6
CONTINUOUS
 10
59.6782737191
 20
-38.9621813577
 11
59.6719941698
 21
-39.5941129946
  0
LINE
  5
382
100
AcDbEntity
  8
ASSI
100
AcDbLine
 62
250
  6
CONTINUOUS
 10
59.6719941698
 20
-39.5941129946
 11
59.6638258416
 21
-40.1809511333
  0
LINE
  5
383
100
AcDbEntity
  8
ASSI
100
AcDbLine
 62
250
  6
CONTINUOUS
 10
59.3245057573
 20
-41.9129437999
 11
59.3233292509
 21
-41.9895001656
  0
LINE
  5
384
100
AcDbEntity
  8
ASSI
100
AcDbLine
 62
250
  6
CONTINUOUS
 10
59.6638258416
 20
-40.1809511333
 11
59.6538296461
 21
-40.7260220883
  0
LWPOLYLINE
  5
385
100
AcDbEntity
  8
ASSI
100
AcDbPolyline
 62
250
  6
CONTINUOUS
 90
3
 70
0
 10
59.6538296461
 20
-40.7260220883
 10
59.6421552371
 20
-41.2373404537
 10
59.635681267
 20
-41.4798158048
  0
LWPOLYLINE
  5
386
100
AcDbEntity
  8
ASSI
100
AcDbPolyline
 62
250
  6
CONTINUOUS
 90
13
 70
0
 10
59.3233292509
 20
-41.9895001656
 10
59.3217258736
 20
-42.0598818247
 10
59.3207773731
 20
-42.0921481676
 10
59.3197394319
 20
-42.12216587
 10
59.3186191517
 20
-42.14972955
 10
59.3174241977
 20
-42.174650616
 10
59.3161627456
 20
-42.1967585571
 10
59.3148434247
 20
-42.215902131
 10
59.3134752635
 20
-42.2319503286
 10
59.3120676278
 20
-42.244793307
 10
59.3106301509
 20
-42.25434322
 10
59.3091726666
 20
-42.2605347805
 10
59.3077051471
 20
-42.2633256627
  0
LWPOLYLINE
  5
387
100
AcDbEntity
  8
ASSI
100
AcDbPolyline
 62
250
  6
CONTINUOUS
 90
12
 70
0
 10
60.1074483583
 20
-41.4636172352
 10
60.1046598613
 20
-41.4649588744
 10
60.0984744717
 20
-41.4662913446
 10
60.0889344618
 20
-41.4676055393
 10
60.0761050305
 20
-41.4688924769
 10
60.0600738574
 20
-41.4701433623
 10
60.0409505033
 20
-41.4713496465
 10
60.0188656621
 20
-41.4725030855
 10
59.9939702668
 20
-41.4735957965
 10
59.9664344587
 20
-41.4746203116
 10
59.9364464242
 20
-41.475569629
 10
59.9042111087
 20
-41.4764372608
  0
LWPOLYLINE
  5
388
100
AcDbEntity
  8
ASSI
100
AcDbPolyline
 62
250
  6
CONTINUOUS
 90
12
 70
0
 10
59.3077051003
 20
43.5294835919
 10
59.3091726394
 20
43.5266926496
 10
59.3106301374
 20
43.5205009671
 10
59.3120676222
 20
43.510950909
 10
59.3134752583
 20
43.4981078178
 10
59.3148434148
 20
43.4820595673
 10
59.3161627307
 20
43.4629159609
 10
59.3174241793
 20
43.4408079806
 10
59.3186191297
 20
43.4158868904
 10
59.3197394061
 20
43.388323201
 10
59.3207773437
 20
43.3583055043
 10
59.3217258408
 20
43.3260391821
  0
LINE
  5
389
100
AcDbEntity
  8
ASSI
100
AcDbLine
 62
7
  6
CONTINUOUS
 10
-81.2551091235
 20
-42.3169210526
 11
-83.4458042199
 21
-42.2595556827
  0
LWPOLYLINE
  5
38A
100
AcDbEntity
  8
ASSI
100
AcDbPolyline
 62
250
  6
CONTINUOUS
 90
16
 70
0
 10
-81.2551090938
 20
-41.5198185063
 10
-81.1240588918
 20
-41.5056539322
 10
-80.9922834762
 20
-41.487320217
 10
-80.8599507711
 20
-41.4648173605
 10
-80.7276753024
 20
-41.438387363
 10
-80.5951955468
 20
-41.4077882242
 10
-80.4614135225
 20
-41.3722939441
 10
-80.3264361095
 20
-41.3319787764
 10
-80.1906704502
 20
-41.2867684674
 10
-80.0535687734
 20
-41.235714256
 10
-79.9138601216
 20
-41.1779276586
 10
-79.7736063649
 20
-41.1142971588
 10
-79.637093241
 20
-41.0465394455
 10
-79.5057391988
 20
-40.9752267485
 10
-79.3783674529
 20
-40.8997868382
 10
-79.2551093317
 20
-40.8202197144
  0
LINE
  5
38B
100
AcDbEntity
  8
ASSI
100
AcDbLine
 62
250
  6
CONTINUOUS
 10
-83.7756059782
 20
-41.4793642926
 11
-83.7870296125
 21
-41.4798050666
  0
LINE
  5
38C
100
AcDbEntity
  8
ASSI
100
AcDbLine
 62
250
  6
CONTINUOUS
 10
-83.3011687727
 20
-41.4636172352
 11
-83.7756059782
 21
-41.4793642926
  0
LINE
  5
38D
100
AcDbEntity
  8
ASSI
100
AcDbLine
 62
250
  6
CONTINUOUS
 10
-83.3011753006
 20
-41.4636170642
 11
-81.2551091235
 21
-41.5171951927
  0
LINE
  5
38E
100
AcDbEntity
  8
0
100
AcDbLine
 62
7
  6
CONTINUOUS
 10
-87.1961101215
 20
-27.3471008333
 11
-87.2666791686
 21
-27.3471008333
  0
LINE
  5
38F
100
AcDbEntity
  8
0
100
AcDbLine
 62
250
  6
CONTINUOUS
 10
-87.2807370261
 20
-26.6705819705
 11
-87.3512405619
 21
-26.6705819705
  0
LINE
  5
390
100
AcDbEntity
  8
0
100
AcDbLine
 62
7
  6
CONTINUOUS
 10
-87.3393163082
 20
-26.1802464427
 11
-87.409777252
 21
-26.1802464427
  0
LINE
  5
391
100
AcDbEntity
  8
0
100
AcDbLine
 62
7
  6
CONTINUOUS
 10
-87.3410235985
 20
-26.1654751848
 11
-87.4114832664
 21
-26.1654751848
  0
LINE
  5
392
100
AcDbEntity
  8
0
100
AcDbLine
 62
250
  6
CONTINUOUS
 10
-87.4785982194
 20
-24.9028887968
 11
-87.5489568567
 21
-24.9028887968
  0
LWPOLYLINE
  5
393
100
AcDbEntity
  8
0
100
AcDbPolyline
 62
7
  6
CONTINUOUS
 90
3
 70
0
 43
0.3500000006
 10
-92.8546463013
 20
52.6187912292
 10
-92.9260774841
 20
52.4045067444
 10
-93.0689307861
 20
52.1187910767
  0
LINE
  5
394
100
AcDbEntity
  8
SUPERFICI
100
AcDbLine
 62
7
  6
CONTINUOUS
 10
-87.488708417
 20
-24.8180357676
 11
-87.559063613
 21
-24.8180357676
  0
LINE
  5
395
100
AcDbEntity
  8
RACCORDO
100
AcDbLine
 62
250
  6
CONTINUOUS
 10
-87.5153910768
 20
22.914968073
 11
-87.5154617247
 21
22.91494356
  0
LINE
  5
396
100
AcDbEntity
  8
RACCORDO
100
AcDbLine
 62
250
  6
CONTINUOUS
 10
-87.7034929742
 20
-22.4711988958
 11
-87.7067753092
 21
-22.4717188239
  0
LWPOLYLINE
  5
397
100
AcDbEntity
  8
RACCORDO
100
AcDbPolyline
 62
250
  6
CONTINUOUS
 90
3
 70
0
 10
-87.6322215059
 20
-22.4623602611
 10
-87.678554896
 20
-22.4681789873
 10
-87.7034929742
 20
-22.4711988958
  0
LINE
  5
398
100
AcDbEntity
  8
RACCORDO
100
AcDbLine
 62
250
  6
CONTINUOUS
 10
-87.6021460236
 20
-22.4586989936
 11
-87.6322215059
 21
-22.4623602611
  0
LINE
  5
399
100
AcDbEntity
  8
RACCORDO
100
AcDbLine
 62
250
  6
CONTINUOUS
 10
-87.489756558
 20
-22.4454700153
 11
-87.6021460236
 21
-22.4586989936
  0
LINE
  5
39A
100
AcDbEntity
  8
RACCORDO
100
AcDbLine
 62
250
  6
CONTINUOUS
 10
-87.5153910767
 20
-21.6488101788
 11
-87.5154617249
 21
-21.6487856613
  0
LWPOLYLINE
  5
39B
100
AcDbEntity
  8
0
100
AcDbPolyline
 62
7
  6
CONTINUOUS
 90
5
 70
0
 10
-87.5590608909
 20
-24.8180357676
 10
-87.5590206723
 20
-24.8180797589
 10
-87.5588219961
 20
-24.8188747792
 10
-87.5585094886
 20
-24.8207111952
 10
-87.5580895703
 20
-24.823643458
  0
LWPOLYLINE
  5
39C
100
AcDbEntity
  8
0
100
AcDbPolyline
 62
7
  6
CONTINUOUS
 90
4
 70
0
 43
0.3500000006
 10
-95.9260783997
 20
52.7616490631
 10
-95.9260783997
 20
53.6187915344
 10
-95.4975094299
 20
54.047365036
 10
-94.8546469116
 20
54.047365036
  0
LINE
  5
39D
100
AcDbEntity
  8
ASSI
100
AcDbLine
 62
7
  6
CONTINUOUS
 10
-85.2284517144
 20
38.8049486051
 11
-85.3259483293
 21
38.4375401984
  0
LINE
  5
39E
100
AcDbEntity
  8
ASSI
100
AcDbLine
 62
7
  6
CONTINUOUS
 10
-83.9404079864
 20
42.9707027032
 11
-83.9647565049
 21
42.8806150073
  0
LINE
  5
39F
100
AcDbEntity
  8
ASSI
100
AcDbLine
 62
7
  6
CONTINUOUS
 10
-85.1353293159
 20
39.1486901751
 11
-85.2299963975
 21
38.7991888876
  0
LINE
  5
3A0
100
AcDbEntity
  8
ASSI
100
AcDbLine
 62
7
  6
CONTINUOUS
 10
-83.9145889672
 20
43.0645344223
 11
-83.9404079864
 21
42.9707027032
  0
LINE
  5
3A1
100
AcDbEntity
  8
ASSI
100
AcDbLine
 62
7
  6
CONTINUOUS
 10
-85.0417717639
 20
39.4874152417
 11
-85.1426307327
 21
39.1219815249
  0
LINE
  5
3A2
100
AcDbEntity
  8
ASSI
100
AcDbLine
 62
7
  6
CONTINUOUS
 10
-83.8870422385
 20
43.162779692
 11
-83.9145889672
 21
43.0645344223
  0
LINE
  5
3A3
100
AcDbEntity
  8
ASSI
100
AcDbLine
 62
7
  6
CONTINUOUS
 10
-84.9568271113
 20
39.7895403884
 11
-85.0577264127
 21
39.430103391
  0
LINE
  5
3A4
100
AcDbEntity
  8
ASSI
100
AcDbLine
 62
7
  6
CONTINUOUS
 10
-84.8733565484
 20
40.0816707535
 11
-84.9675744377
 21
39.751589875
  0
LINE
  5
3A5
100
AcDbEntity
  8
ASSI
100
AcDbLine
 62
7
  6
CONTINUOUS
 10
-84.7736207373
 20
40.4248769189
 11
-84.8938213334
 21
40.0104707961
  0
LINE
  5
3A6
100
AcDbEntity
  8
ASSI
100
AcDbLine
 62
7
  6
CONTINUOUS
 10
-84.6739098002
 20
40.7619734332
 11
-84.7837039193
 21
40.3904587561
  0
LINE
  5
3A7
100
AcDbEntity
  8
ASSI
100
AcDbLine
 62
7
  6
CONTINUOUS
 10
-84.5830780031
 20
41.0640879719
 11
-84.6906838995
 21
40.7056715534
  0
LINE
  5
3A8
100
AcDbEntity
  8
ASSI
100
AcDbLine
 62
7
  6
CONTINUOUS
 10
-84.4934485485
 20
41.3577938784
 11
-84.5917244916
 21
41.0355261065
  0
LINE
  5
3A9
100
AcDbEntity
  8
ASSI
100
AcDbLine
 62
7
  6
CONTINUOUS
 10
-84.3826946936
 20
41.7149707525
 11
-84.4940567557
 21
41.3558151486
  0
LINE
  5
3AA
100
AcDbEntity
  8
ASSI
100
AcDbLine
 62
7
  6
CONTINUOUS
 10
-84.2751504109
 20
42.0560185259
 11
-84.3882869571
 21
41.6970833604
  0
LINE
  5
3AB
100
AcDbEntity
  8
ASSI
100
AcDbLine
 62
7
  6
CONTINUOUS
 10
-84.1724828476
 20
42.3765567662
 11
-84.2866234391
 21
42.0198971711
  0
LINE
  5
3AC
100
AcDbEntity
  8
ASSI
100
AcDbLine
 62
7
  6
CONTINUOUS
 10
-84.0533127798
 20
42.7427449619
 11
-84.1736354003
 21
42.3729848476
  0
LINE
  5
3AD
100
AcDbEntity
  8
ASSI
100
AcDbLine
 62
7
  6
CONTINUOUS
 10
-83.9427691168
 20
43.0770569745
 11
-84.0622539469
 21
42.7154823822
  0
LINE
  5
3AE
100
AcDbEntity
  8
ASSI
100
AcDbLine
 62
7
  6
CONTINUOUS
 10
-83.9068534531
 20
43.184605207
 11
-83.9473761972
 21
43.0632238445
  0
LINE
  5
3AF
100
AcDbEntity
  8
ASSI
100
AcDbLine
 62
7
  6
CONTINUOUS
 10
-84.0229919819
 20
-41.5687879287
 11
-83.9068534201
 21
-41.9184474107
  0
LINE
  5
3B0
100
AcDbEntity
  8
ASSI
100
AcDbLine
 62
7
  6
CONTINUOUS
 10
-84.1302177511
 20
-41.2409782169
 11
-84.0229919819
 21
-41.5687879287
  0
LINE
  5
3B1
100
AcDbEntity
  8
ASSI
100
AcDbLine
 62
7
  6
CONTINUOUS
 10
-84.2452703477
 20
-40.8836465247
 11
-84.1302177511
 21
-41.2409782169
  0
LINE
  5
3B2
100
AcDbEntity
  8
ASSI
100
AcDbLine
 62
7
  6
CONTINUOUS
 10
-84.3515333414
 20
-40.5482049882
 11
-84.2452703477
 21
-40.8836465247
  0
LINE
  5
3B3
100
AcDbEntity
  8
ASSI
100
AcDbLine
 62
7
  6
CONTINUOUS
 10
-84.4619095505
 20
-40.1939821409
 11
-84.3515333414
 21
-40.5482049882
  0
LINE
  5
3B4
100
AcDbEntity
  8
ASSI
100
AcDbLine
 62
7
  6
CONTINUOUS
 10
-84.5589870131
 20
-39.8772953156
 11
-84.4619095505
 21
-40.1939821409
  0
LINE
  5
3B5
100
AcDbEntity
  8
ASSI
100
AcDbLine
 62
7
  6
CONTINUOUS
 10
-84.6575952765
 20
-39.5504203354
 11
-84.5589870131
 21
-39.8772953156
  0
LINE
  5
3B6
100
AcDbEntity
  8
ASSI
100
AcDbLine
 62
7
  6
CONTINUOUS
 10
-84.7570192334
 20
-39.2152530125
 11
-84.6575952765
 21
-39.5504203354
  0
LINE
  5
3B7
100
AcDbEntity
  8
ASSI
100
AcDbLine
 62
7
  6
CONTINUOUS
 10
-84.8567067324
 20
-38.8732414521
 11
-84.7570192334
 21
-39.2152530125
  0
LINE
  5
3B8
100
AcDbEntity
  8
ASSI
100
AcDbLine
 62
7
  6
CONTINUOUS
 10
-84.9568244374
 20
-38.5233919261
 11
-84.8567067324
 21
-38.8732414521
  0
LINE
  5
3B9
100
AcDbEntity
  8
ASSI
100
AcDbLine
 62
7
  6
CONTINUOUS
 10
-85.0577238063
 20
-38.1639548739
 11
-84.9568244374
 21
-38.5233919261
  0
LINE
  5
3BA
100
AcDbEntity
  8
ASSI
100
AcDbLine
 62
7
  6
CONTINUOUS
 10
-83.9165193118
 20
-41.7914205311
 11
-83.8870423092
 21
-41.8966215473
  0
LINE
  5
3BB
100
AcDbEntity
  8
ASSI
100
AcDbLine
 62
7
  6
CONTINUOUS
 10
-85.1426282952
 20
-37.8558325535
 11
-85.0577238063
 21
-38.1639548739
  0
LINE
  5
3BC
100
AcDbEntity
  8
ASSI
100
AcDbLine
 62
7
  6
CONTINUOUS
 10
-83.9410324859
 20
-41.7022538069
 11
-83.9165193118
 21
-41.7914205311
  0
LINE
  5
3BD
100
AcDbEntity
  8
ASSI
100
AcDbLine
 62
7
  6
CONTINUOUS
 10
-85.2284495373
 20
-37.5387988268
 11
-85.1426282952
 21
-37.8558325535
  0
LINE
  5
3BE
100
AcDbEntity
  8
ASSI
100
AcDbLine
 62
7
  6
CONTINUOUS
 10
-83.9650127473
 20
-41.6135006235
 11
-83.9410324859
 21
-41.7022538069
  0
LINE
  5
3BF
100
AcDbEntity
  8
ASSI
100
AcDbLine
 62
7
  6
CONTINUOUS
 10
-85.3153130607
 20
-37.2118503994
 11
-85.2284495373
 21
-37.5387988268
  0
LINE
  5
3C0
100
AcDbEntity
  8
ASSI
100
AcDbLine
 62
7
  6
CONTINUOUS
 10
-86.4968985751
 20
33.1198926285
 11
-86.5573930119
 21
32.775362235
  0
LINE
  5
3C1
100
AcDbEntity
  8
ASSI
100
AcDbLine
 62
7
  6
CONTINUOUS
 10
-86.4360266696
 20
33.4568083207
 11
-86.4999658108
 21
33.1026605834
  0
LINE
  5
3C2
100
AcDbEntity
  8
RACCORDO
100
AcDbLine
 62
7
  6
CONTINUOUS
 10
-86.5967823556
 20
32.5456955265
 11
-86.6235714703
 21
32.3999947313
  0
LINE
  5
3C3
100
AcDbEntity
  8
ASSI
100
AcDbLine
 62
7
  6
CONTINUOUS
 10
-86.3850260474
 20
33.7319253185
 11
-86.4456230892
 21
33.4043240294
  0
LINE
  5
3C4
100
AcDbEntity
  8
ASSI
100
AcDbLine
 62
7
  6
CONTINUOUS
 10
-86.3129211809
 20
34.110442383
 11
-86.3854770252
 21
33.7295201069
  0
LINE
  5
3C5
100
AcDbEntity
  8
ASSI
100
AcDbLine
 62
7
  6
CONTINUOUS
 10
-86.2502948925
 20
34.4299349417
 11
-86.3195025934
 21
34.0763789386
  0
LINE
  5
3C6
100
AcDbEntity
  8
ASSI
100
AcDbLine
 62
7
  6
CONTINUOUS
 10
-86.196530493
 20
34.6978168333
 11
-86.2555577377
 21
34.4034018206
  0
LINE
  5
3C7
100
AcDbEntity
  8
ASSI
100
AcDbLine
 62
7
  6
CONTINUOUS
 10
-86.1228136918
 20
35.0561563186
 11
-86.1962641975
 21
34.6991295698
  0
LINE
  5
3C8
100
AcDbEntity
  8
ASSI
100
AcDbLine
 62
7
  6
CONTINUOUS
 10
-86.0662506661
 20
35.3245457563
 11
-86.1353543634
 21
34.9958963751
  0
LINE
  5
3C9
100
AcDbEntity
  8
ASSI
100
AcDbLine
 62
7
  6
CONTINUOUS
 10
-84.3028585
 20
41.4557041127
 11
-84.4163562571
 21
40.9151397407
  0
LINE
  5
3CA
100
AcDbEntity
  8
ASSI
100
AcDbLine
 62
7
  6
CONTINUOUS
 10
-86.0087534909
 20
35.5919047996
 11
-86.0730843883
 21
35.2924095135
  0
LINE
  5
3CB
100
AcDbEntity
  8
ASSI
100
AcDbLine
 62
7
  6
CONTINUOUS
 10
-84.2622416381
 20
41.6438784291
 11
-84.3028585
 21
41.4557041127
  0
LINE
  5
3CC
100
AcDbEntity
  8
ASSI
100
AcDbLine
 62
7
  6
CONTINUOUS
 10
-85.9309323818
 20
35.945560828
 11
-86.0096610704
 21
35.5877257127
  0
LINE
  5
3CD
100
AcDbEntity
  8
ASSI
100
AcDbLine
 62
7
  6
CONTINUOUS
 10
-84.2231815552
 20
41.8208339799
 11
-84.2622416381
 21
41.6438784291
  0
LINE
  5
3CE
100
AcDbEntity
  8
ASSI
100
AcDbLine
 62
7
  6
CONTINUOUS
 10
-85.8720552541
 20
36.2072495201
 11
-85.9452854667
 21
35.8810149446
  0
LINE
  5
3CF
100
AcDbEntity
  8
ASSI
100
AcDbLine
 62
7
  6
CONTINUOUS
 10
-84.1870698843
 20
41.980642142
 11
-84.2231815552
 21
41.8208339799
  0
LINE
  5
3D0
100
AcDbEntity
  8
ASSI
100
AcDbLine
 62
7
  6
CONTINUOUS
 10
-85.7935660661
 20
36.5487660069
 11
-85.8803277712
 21
36.1707739764
  0
LINE
  5
3D1
100
AcDbEntity
  8
ASSI
100
AcDbLine
 62
7
  6
CONTINUOUS
 10
-84.1550066124
 20
42.1193600597
 11
-84.1870698843
 21
41.980642142
  0
LINE
  5
3D2
100
AcDbEntity
  8
ASSI
100
AcDbLine
 62
7
  6
CONTINUOUS
 10
-85.7289492959
 20
36.824011822
 11
-85.8131012896
 21
36.4645210016
  0
LINE
  5
3D3
100
AcDbEntity
  8
ASSI
100
AcDbLine
 62
7
  6
CONTINUOUS
 10
-84.1222209708
 20
42.2580646743
 11
-84.1550066124
 21
42.1193600597
  0
LINE
  5
3D4
100
AcDbEntity
  8
ASSI
100
AcDbLine
 62
7
  6
CONTINUOUS
 10
-85.6580315194
 20
37.1203402202
 11
-85.7349493658
 21
36.7986690329
  0
LINE
  5
3D5
100
AcDbEntity
  8
ASSI
100
AcDbLine
 62
7
  6
CONTINUOUS
 10
-84.0946318825
 20
42.3723193734
 11
-84.1222209708
 21
42.2580646743
  0
LINE
  5
3D6
100
AcDbEntity
  8
ASSI
100
AcDbLine
 62
7
  6
CONTINUOUS
 10
-85.5824863562
 20
37.4297716488
 11
-85.6652280406
 21
37.0905341551
  0
LINE
  5
3D7
100
AcDbEntity
  8
ASSI
100
AcDbLine
 62
7
  6
CONTINUOUS
 10
-84.067012492
 20
42.4844562973
 11
-84.0946318825
 21
42.3723193734
  0
LINE
  5
3D8
100
AcDbEntity
  8
ASSI
100
AcDbLine
 62
7
  6
CONTINUOUS
 10
-85.4925386714
 20
37.7903486006
 11
-85.583169389
 21
37.4270015894
  0
LINE
  5
3D9
100
AcDbEntity
  8
ASSI
100
AcDbLine
 62
7
  6
CONTINUOUS
 10
-84.0392929423
 20
42.5947691391
 11
-84.067012492
 21
42.4844562973
  0
LINE
  5
3DA
100
AcDbEntity
  8
ASSI
100
AcDbLine
 62
7
  6
CONTINUOUS
 10
-85.421069712
 20
38.0711452166
 11
-85.5023135468
 21
37.7515594843
  0
LINE
  5
3DB
100
AcDbEntity
  8
ASSI
100
AcDbLine
 62
7
  6
CONTINUOUS
 10
-84.0112106674
 20
42.7042835403
 11
-84.0392929423
 21
42.5947691391
  0
LINE
  5
3DC
100
AcDbEntity
  8
ASSI
100
AcDbLine
 62
7
  6
CONTINUOUS
 10
-85.3259483293
 20
38.4375401984
 11
-85.4233255586
 21
38.0623561704
  0
LINE
  5
3DD
100
AcDbEntity
  8
ASSI
100
AcDbLine
 62
7
  6
CONTINUOUS
 10
-85.3153148961
 20
38.478001319
 11
-85.3328231556
 21
38.4113288057
  0
LINE
  5
3DE
100
AcDbEntity
  8
ASSI
100
AcDbLine
 62
7
  6
CONTINUOUS
 10
-83.9824295228
 20
42.8142295723
 11
-84.0112106674
 21
42.7042835403
  0
LINE
  5
3DF
100
AcDbEntity
  8
ASSI
100
AcDbLine
 62
7
  6
CONTINUOUS
 10
-83.9647565049
 20
42.8806150073
 11
-83.9824295228
 21
42.8142295723
  0
LINE
  5
3E0
100
AcDbEntity
  8
ASSI
100
AcDbLine
 62
7
  6
CONTINUOUS
 10
-83.9940759475
 20
-41.5038577807
 11
-83.9650127473
 21
-41.6135006235
  0
LINE
  5
3E1
100
AcDbEntity
  8
ASSI
100
AcDbLine
 62
7
  6
CONTINUOUS
 10
-85.4033219118
 20
-36.8739703752
 11
-85.3153130607
 21
-37.2118503994
  0
LINE
  5
3E2
100
AcDbEntity
  8
ASSI
100
AcDbLine
 62
7
  6
CONTINUOUS
 10
-84.0223474364
 20
-41.3949620722
 11
-83.9940759475
 21
-41.5038577807
  0
LINE
  5
3E3
100
AcDbEntity
  8
ASSI
100
AcDbLine
 62
7
  6
CONTINUOUS
 10
-85.4925377087
 20
-36.5241945212
 11
-85.4033219118
 21
-36.8739703752
  0
LINE
  5
3E4
100
AcDbEntity
  8
ASSI
100
AcDbLine
 62
7
  6
CONTINUOUS
 10
-84.0497488924
 20
-41.2872611033
 11
-84.0223474364
 21
-41.3949620722
  0
LINE
  5
3E5
100
AcDbEntity
  8
ASSI
100
AcDbLine
 62
7
  6
CONTINUOUS
 10
-84.0761374453
 20
-41.1814972763
 11
-84.0497488924
 21
-41.2872611033
  0
LINE
  5
3E6
100
AcDbEntity
  8
ASSI
100
AcDbLine
 62
7
  6
CONTINUOUS
 10
-85.5831692762
 20
-36.1608441519
 11
-85.4925377087
 21
-36.5241945212
  0
LINE
  5
3E7
100
AcDbEntity
  8
ASSI
100
AcDbLine
 62
7
  6
CONTINUOUS
 10
-85.6580323594
 20
-35.8541788497
 11
-85.5831692762
 21
-36.1608441519
  0
LINE
  5
3E8
100
AcDbEntity
  8
ASSI
100
AcDbLine
 62
7
  6
CONTINUOUS
 10
-84.106592696
 20
-41.0569042584
 11
-84.0761374453
 21
-41.1814972763
  0
LINE
  5
3E9
100
AcDbEntity
  8
ASSI
100
AcDbLine
 62
7
  6
CONTINUOUS
 10
-85.7349506674
 20
-35.5325056358
 11
-85.6580323594
 21
-35.8541788497
  0
LINE
  5
3EA
100
AcDbEntity
  8
ASSI
100
AcDbLine
 62
7
  6
CONTINUOUS
 10
-84.1358343205
 20
-40.9346999926
 11
-84.106592696
 21
-41.0569042584
  0
LINE
  5
3EB
100
AcDbEntity
  8
ASSI
100
AcDbLine
 62
7
  6
CONTINUOUS
 10
-85.8131026778
 20
-35.198357103
 11
-85.7349506674
 21
-35.5325056358
  0
LINE
  5
3EC
100
AcDbEntity
  8
ASSI
100
AcDbLine
 62
7
  6
CONTINUOUS
 10
-84.1684698578
 20
-40.7953230507
 11
-84.1358343205
 21
-40.9346999926
  0
LINE
  5
3ED
100
AcDbEntity
  8
ASSI
100
AcDbLine
 62
7
  6
CONTINUOUS
 10
-84.1994993663
 20
-40.6599015026
 11
-84.1684698578
 21
-40.7953230507
  0
LINE
  5
3EE
100
AcDbEntity
  8
ASSI
100
AcDbLine
 62
7
  6
CONTINUOUS
 10
-85.8917036733
 20
-34.8543025181
 11
-85.8131026778
 21
-35.198357103
  0
LINE
  5
3EF
100
AcDbEntity
  8
ASSI
100
AcDbLine
 62
7
  6
CONTINUOUS
 10
-84.2329118189
 20
-40.5109837694
 11
-84.1994993663
 21
-40.6599015026
  0
LINE
  5
3F0
100
AcDbEntity
  8
ASSI
100
AcDbLine
 62
7
  6
CONTINUOUS
 10
-85.9699852632
 20
-34.5030698986
 11
-85.8917036733
 21
-34.8543025181
  0
LINE
  5
3F1
100
AcDbEntity
  8
ASSI
100
AcDbLine
 62
7
  6
CONTINUOUS
 10
-84.2714943022
 20
-40.3352100275
 11
-84.2329118189
 21
-40.5109837694
  0
LINE
  5
3F2
100
AcDbEntity
  8
ASSI
100
AcDbLine
 62
7
  6
CONTINUOUS
 10
-86.0471845427
 20
-34.1476386197
 11
-85.9699852632
 21
-34.5030698986
  0
LINE
  5
3F3
100
AcDbEntity
  8
ASSI
100
AcDbLine
 62
7
  6
CONTINUOUS
 10
-84.3160410533
 20
-40.1276543875
 11
-84.2714943022
 21
-40.3352100275
  0
LINE
  5
3F4
100
AcDbEntity
  8
ASSI
100
AcDbLine
 62
7
  6
CONTINUOUS
 10
-84.3536887914
 20
-39.94907472
 11
-84.3160410533
 21
-40.1276543875
  0
LINE
  5
3F5
100
AcDbEntity
  8
ASSI
100
AcDbLine
 62
7
  6
CONTINUOUS
 10
-86.1228138301
 20
-33.7899977605
 11
-86.0471845427
 21
-34.1476386197
  0
LINE
  5
3F6
100
AcDbEntity
  8
ASSI
100
AcDbLine
 62
7
  6
CONTINUOUS
 10
-84.416550505
 20
-39.6480608628
 11
-84.4095123883
 21
-39.6815747904
  0
LINE
  5
3F7
100
AcDbEntity
  8
ASSI
100
AcDbLine
 62
7
  6
CONTINUOUS
 10
-84.4095123883
 20
-39.6815747904
 11
-84.3536887914
 21
-39.94907472
  0
LINE
  5
3F8
100
AcDbEntity
  8
ASSI
100
AcDbLine
 62
7
  6
CONTINUOUS
 10
-86.1965303332
 20
-33.4316597266
 11
-86.1228138301
 21
-33.7899977605
  0
LINE
  5
3F9
100
AcDbEntity
  8
ASSI
100
AcDbLine
 62
7
  6
CONTINUOUS
 10
-86.2678772244
 20
-33.0749114449
 11
-86.1965303332
 21
-33.4316597266
  0
LINE
  5
3FA
100
AcDbEntity
  8
ASSI
100
AcDbLine
 62
7
  6
CONTINUOUS
 10
-86.3362715291
 20
-32.7229968305
 11
-86.2678772244
 21
-33.0749114449
  0
LINE
  5
3FB
100
AcDbEntity
  8
ASSI
100
AcDbLine
 62
7
  6
CONTINUOUS
 10
-86.4007024176
 20
-32.381875579
 11
-86.3362715291
 21
-32.7229968305
  0
LINE
  5
3FC
100
AcDbEntity
  8
ASSI
100
AcDbLine
 62
7
  6
CONTINUOUS
 10
-86.4598334264
 20
-32.060019412
 11
-86.4007024176
 21
-32.381875579
  0
LINE
  5
3FD
100
AcDbEntity
  8
ASSI
100
AcDbLine
 62
7
  6
CONTINUOUS
 10
-86.5244427532
 20
-31.6980890836
 11
-86.4598334264
 21
-32.060019412
  0
LINE
  5
3FE
100
AcDbEntity
  8
ASSI
100
AcDbLine
 62
7
  6
CONTINUOUS
 10
-86.557392201
 20
-31.5092090247
 11
-86.5244427532
 21
-31.6980890836
  0
LWPOLYLINE
  5
3FF
100
AcDbEntity
  8
0
100
AcDbPolyline
 62
7
  6
CONTINUOUS
 90
3
 70
0
 10
-87.4160380188
 20
-26.1244126286
 10
-87.4151358956
 20
-26.132619717
 10
-87.4134657884
 20
-26.147369293
  0
LWPOLYLINE
  5
400
100
AcDbEntity
  8
0
100
AcDbPolyline
 62
7
  6
CONTINUOUS
 90
3
 70
0
 10
-87.4134657884
 20
-26.147369293
 10
-87.4127770112
 20
-26.1536524179
 10
-87.4117961658
 20
-26.1630112519
  0
LINE
  5
401
100
AcDbEntity
  8
0
100
AcDbLine
 62
7
  6
CONTINUOUS
 10
-87.3410235985
 20
-26.1654751848
 11
-87.3418847143
 21
-26.1575699146
  0
LINE
  5
402
100
AcDbEntity
  8
0
100
AcDbLine
 62
7
  6
CONTINUOUS
 10
-87.3914077086
 20
-25.7130707418
 11
-87.4785982145
 21
-24.9028888704
  0
LINE
  5
403
100
AcDbEntity
  8
0
100
AcDbLine
 62
7
  6
CONTINUOUS
 10
-87.5476219896
 20
-24.9150191786
 11
-87.4619423224
 21
-25.7120402718
  0
LINE
  5
404
100
AcDbEntity
  8
0
100
AcDbLine
 62
7
  6
CONTINUOUS
 10
-87.492628863
 20
-24.8184310312
 11
-87.5669692955
 21
-24.0661983986
  0
LINE
  5
405
100
AcDbEntity
  8
0
100
AcDbLine
 62
7
  6
CONTINUOUS
 10
-87.5669692955
 20
-24.0661983986
 11
-87.639314136
 21
-23.2743163223
  0
LINE
  5
406
100
AcDbEntity
  8
0
100
AcDbLine
 62
7
  6
CONTINUOUS
 10
-87.639314136
 20
-23.2743163223
 11
-87.7067753092
 21
-22.4717188239
  0
LWPOLYLINE
  5
407
100
AcDbEntity
  8
RACCORDO
100
AcDbPolyline
 62
7
  6
CONTINUOUS
 90
6
 70
0
 10
-86.6235714703
 20
32.3999947313
 10
-86.8904512707
 20
30.7903331675
 10
-87.132743955
 20
29.1225254352
 10
-87.3506903182
 20
27.3857886981
 10
-87.5420592955
 20
25.5909057926
 10
-87.7067753092
 20
23.7378767186
  0
LINE
  5
408
100
AcDbEntity
  8
ASSI
100
AcDbLine
 62
7
  6
CONTINUOUS
 10
-86.560213122
 20
32.759059022
 11
-86.6278865699
 21
32.3615665262
  0
LINE
  5
409
100
AcDbEntity
  8
ASSI
100
AcDbLine
 62
7
  6
CONTINUOUS
 10
-86.5488033583
 20
32.824886295
 11
-86.567298977
 21
32.7180001409
  0
LWPOLYLINE
  5
40A
100
AcDbEntity
  8
0
100
AcDbPolyline
 62
7
  6
CONTINUOUS
 90
4
 70
0
 10
-86.6320104319
 20
-31.0705691793
 10
-86.7916074663
 20
-30.1442785634
 10
-87.0082675991
 20
-28.7420261001
 10
-87.1998498813
 20
-27.347058619
  0
LINE
  5
40B
100
AcDbEntity
  8
ASSI
100
AcDbLine
 62
7
  6
CONTINUOUS
 10
-86.6240590072
 20
-31.1181852914
 11
-86.557392201
 21
-31.5092090247
  0
LINE
  5
40C
100
AcDbEntity
  8
ASSI
100
AcDbLine
 62
7
  6
CONTINUOUS
 10
-86.6325568631
 20
-31.0675917184
 11
-86.6240590072
 21
-31.1181852914
  0
LWPOLYLINE
  5
40D
100
AcDbEntity
  8
0
100
AcDbPolyline
 62
7
  6
CONTINUOUS
 90
3
 70
0
 10
-87.5580895703
 20
-24.823643458
 10
-87.5568709826
 20
-24.8330633557
 10
-87.5560432939
 20
-24.8398471456
  0
LINE
  5
40E
100
AcDbEntity
  8
0
100
AcDbLine
 62
7
  6
CONTINUOUS
 10
-87.4117961658
 20
-26.1630112519
 11
-87.4114832664
 21
-26.1654751848
  0
LWPOLYLINE
  5
40F
100
AcDbEntity
  8
0
100
AcDbPolyline
 62
7
  6
CONTINUOUS
 90
7
 70
0
 10
-87.4865171333
 20
-24.8330545207
 10
-87.4872028531
 20
-24.8275857191
 10
-87.4877373193
 20
-24.8235871185
 10
-87.4881574428
 20
-24.8206933464
 10
-87.488469419
 20
-24.818843665
 10
-87.4886670735
 20
-24.8180988121
 10
-87.4887056138
 20
-24.8180633107
  0
LINE
  5
410
100
AcDbEntity
  8
0
100
AcDbLine
 62
7
  6
CONTINUOUS
 10
-87.409777252
 20
-26.1802464427
 11
-87.4083455825
 21
-26.1917266255
  0
LINE
  5
411
100
AcDbEntity
  8
0
100
AcDbLine
 62
7
  6
CONTINUOUS
 10
-87.3227498617
 20
-26.9030425583
 11
-87.2666791686
 21
-27.3471008333
  0
LINE
  5
412
100
AcDbEntity
  8
0
100
AcDbLine
 62
7
  6
CONTINUOUS
 10
-87.1961101215
 20
-27.3471008333
 11
-87.2523185866
 21
-26.9022845326
  0
LINE
  5
413
100
AcDbEntity
  8
0
100
AcDbLine
 62
7
  6
CONTINUOUS
 10
-87.2523185866
 20
-26.9022845326
 11
-87.3113895339
 21
-26.4154606521
  0
LINE
  5
414
100
AcDbEntity
  8
0
100
AcDbLine
 62
7
  6
CONTINUOUS
 10
-87.4847068203
 20
-24.8482450799
 11
-87.4865171333
 21
-24.8330545207
  0
LINE
  5
415
100
AcDbEntity
  8
0
100
AcDbLine
 62
7
  6
CONTINUOUS
 10
-87.4083455825
 20
-26.1917266255
 11
-87.3227498617
 21
-26.9030425583
  0
LINE
  5
416
100
AcDbEntity
  8
0
100
AcDbLine
 62
7
  6
CONTINUOUS
 10
-87.4114832664
 20
-26.1654751848
 11
-87.409777252
 21
-26.1802464427
  0
LINE
  5
417
100
AcDbEntity
  8
0
100
AcDbLine
 62
7
  6
CONTINUOUS
 10
-87.3113895339
 20
-26.4154606521
 11
-87.3410235985
 21
-26.1654751848
  0
LWPOLYLINE
  5
418
100
AcDbEntity
  8
0
100
AcDbPolyline
 62
7
  6
CONTINUOUS
 90
3
 70
0
 10
-87.5560432939
 20
-24.8398471456
 10
-87.5508085233
 20
-24.8857031741
 10
-87.5489568567
 20
-24.9028887968
  0
LINE
  5
419
100
AcDbEntity
  8
0
100
AcDbLine
 62
7
  6
CONTINUOUS
 10
-87.4619423224
 20
-25.7120402718
 11
-87.4160380188
 21
-26.1244126286
  0
LINE
  5
41A
100
AcDbEntity
  8
0
100
AcDbLine
 62
7
  6
CONTINUOUS
 10
-87.5489568567
 20
-24.9028887968
 11
-87.5476219896
 21
-24.9150191786
  0
LINE
  5
41B
100
AcDbEntity
  8
0
100
AcDbLine
 62
7
  6
CONTINUOUS
 10
-87.3418847143
 20
-26.1575699146
 11
-87.3914077086
 21
-25.7130707418
  0
LWPOLYLINE
  5
41C
100
AcDbEntity
  8
0
100
AcDbPolyline
 62
7
  6
CONTINUOUS
 90
3
 70
0
 10
-87.4785982145
 20
-24.9028888704
 10
-87.4804502743
 20
-24.8860697051
 10
-87.4847068203
 20
-24.8482450799
  0
LWPOLYLINE
  5
41D
100
AcDbEntity
  8
ASSI
100
AcDbPolyline
 62
250
  6
CONTINUOUS
 90
19
 70
0
 10
-83.7876676004
 20
-41.791139132
 10
-83.7836790704
 20
-41.8323042937
 10
-83.7763041889
 20
-41.8729986603
 10
-83.7655934182
 20
-41.9129437999
 10
-83.7516200465
 20
-41.9518664031
 10
-83.7344796821
 20
-41.9895001656
 10
-83.7142895958
 20
-42.0255876087
 10
-83.691187926
 20
-42.0598818247
 10
-83.6653327369
 20
-42.0921481676
 10
-83.6369009303
 20
-42.12216587
 10
-83.6060870373
 20
-42.14972955
 10
-83.5731018875
 20
-42.174650616
 10
-83.5381711662
 20
-42.1967585571
 10
-83.5015338258
 20
-42.215902131
 10
-83.4634405812
 20
-42.2319503286
 10
-83.4241522101
 20
-42.244793307
 10
-83.3839375833
 20
-42.25434322
 10
-83.3430718087
 20
-42.2605347805
 10
-83.3018344907
 20
-42.2633256627
  0
LWPOLYLINE
  5
41E
100
AcDbEntity
  8
ASSI
100
AcDbPolyline
 62
250
  6
CONTINUOUS
 90
4
 70
0
 10
-83.3018331741
 20
-42.2633256972
 10
-83.3020204063
 20
-42.2610849991
 10
-83.3022145193
 20
-42.2543843598
 10
-83.3024077758
 20
-42.2432604088
  0
LINE
  5
41F
100
AcDbEntity
  8
RACCORDO
100
AcDbLine
 62
250
  6
CONTINUOUS
 10
-87.550470013
 20
-20.9099946805
 11
-87.5153910768
 21
-21.6488101782
  0
LINE
  5
420
100
AcDbEntity
  8
RACCORDO
100
AcDbLine
 62
7
  6
CONTINUOUS
 10
-87.5154617249
 20
-21.6487856599
 11
-87.5051851241
 21
-21.8656202171
  0
LINE
  5
421
100
AcDbEntity
  8
RACCORDO
100
AcDbLine
 62
250
  6
CONTINUOUS
 10
-87.5056225309
 20
-21.8543350068
 11
-87.5051851241
 21
-21.8656202171
  0
LINE
  5
422
100
AcDbEntity
  8
RACCORDO
100
AcDbLine
 62
7
  6
CONTINUOUS
 10
-87.5051851241
 20
-21.8656202171
 11
-87.497590578
 21
-22.0429351696
  0
LWPOLYLINE
  5
423
100
AcDbEntity
  8
RACCORDO
100
AcDbPolyline
 62
250
  6
CONTINUOUS
 90
4
 70
0
 10
-87.6341407403
 20
-18.8312252565
 10
-87.6094617093
 20
-19.4999049394
 10
-87.5816669432
 20
-20.1936927227
 10
-87.550470013
 20
-20.9099946805
  0
LINE
  5
424
100
AcDbEntity
  8
RACCORDO
100
AcDbLine
 62
7
  6
CONTINUOUS
 10
-87.497590578
 20
-22.0429351696
 11
-87.4930019859
 21
-22.163418668
  0
LINE
  5
425
100
AcDbEntity
  8
RACCORDO
100
AcDbLine
 62
7
  6
CONTINUOUS
 10
-87.4930019859
 20
-22.163418668
 11
-87.4904801284
 21
-22.2392330665
  0
LINE
  5
426
100
AcDbEntity
  8
RACCORDO
100
AcDbLine
 62
250
  6
CONTINUOUS
 10
-87.7102486615
 20
-16.3356584897
 11
-87.6760325538
 21
-17.5536314759
  0
LINE
  5
427
100
AcDbEntity
  8
RACCORDO
100
AcDbLine
 62
7
  6
CONTINUOUS
 10
-87.4904801284
 20
-22.2392330665
 11
-87.4889896358
 21
-22.2921139781
  0
LINE
  5
428
100
AcDbEntity
  8
RACCORDO
100
AcDbLine
 62
250
  6
CONTINUOUS
 10
-87.7389452506
 20
-15.1493440171
 11
-87.7102486615
 21
-16.3356584897
  0
LINE
  5
429
100
AcDbEntity
  8
RACCORDO
100
AcDbLine
 62
7
  6
CONTINUOUS
 10
-87.4889896358
 20
-22.2921139781
 11
-87.4881829543
 21
-22.3274900925
  0
LINE
  5
42A
100
AcDbEntity
  8
RACCORDO
100
AcDbLine
 62
250
  6
CONTINUOUS
 10
-87.4877997986
 20
-22.3498148421
 11
-87.4873566151
 21
-22.3591309673
  0
LINE
  5
42B
100
AcDbEntity
  8
RACCORDO
100
AcDbLine
 62
7
  6
CONTINUOUS
 10
-87.4881829543
 20
-22.3274900925
 11
-87.4877997986
 21
-22.3498148421
  0
LINE
  5
42C
100
AcDbEntity
  8
RACCORDO
100
AcDbLine
 62
250
  6
CONTINUOUS
 10
-87.487595158
 20
-22.3685004535
 11
-87.4870993093
 21
-22.3809618776
  0
LINE
  5
42D
100
AcDbEntity
  8
RACCORDO
100
AcDbLine
 62
7
  6
CONTINUOUS
 10
-87.4877997986
 20
-22.3498148421
 11
-87.4876447621
 21
-22.3626812851
  0
LINE
  5
42E
100
AcDbEntity
  8
RACCORDO
100
AcDbLine
 62
7
  6
CONTINUOUS
 10
-87.4876182152
 20
23.65914826
 11
-87.4875599237
 21
23.6525741859
  0
LINE
  5
42F
100
AcDbEntity
  8
RACCORDO
100
AcDbLine
 62
7
  6
CONTINUOUS
 10
-87.4876447621
 20
-22.3626812851
 11
-87.4875630645
 21
-22.3739067497
  0
LWPOLYLINE
  5
430
100
AcDbEntity
  8
RACCORDO
100
AcDbPolyline
 62
250
  6
CONTINUOUS
 90
3
 70
0
 10
-87.489756558
 20
-22.4454700153
 10
-87.4899070895
 20
-22.4146894045
 10
-87.487595951
 20
-22.3911186682
  0
LWPOLYLINE
  5
431
100
AcDbEntity
  8
RACCORDO
100
AcDbPolyline
 62
250
  6
CONTINUOUS
 90
7
 70
0
 10
-87.4875491377
 20
-22.3833587642
 10
-87.4870319584
 20
-22.3999627467
 10
-87.4871569547
 20
-22.4160327357
 10
-87.4874891241
 20
-22.4286687622
 10
-87.4880345276
 20
-22.4377031341
 10
-87.4887899824
 20
-22.4433035507
 10
-87.489756558
 20
-22.4454700153
  0
LWPOLYLINE
  5
432
100
AcDbEntity
  8
RACCORDO
100
AcDbPolyline
 62
7
  6
CONTINUOUS
 90
10
 70
0
 10
-87.9138208329
 20
0.6330789474
 10
-87.9069662619
 20
-2.0908228141
 10
-87.8880450452
 20
-4.8174059455
 10
-87.8604864342
 20
-7.4660505915
 10
-87.8273051542
 20
-10.0369179976
 10
-87.7897248949
 20
-12.5302211477
 10
-87.7435746647
 20
-14.9457202816
 10
-87.6841916481
 20
-17.2830610536
 10
-87.6079231727
 20
-19.5421446495
 10
-87.5154617249
 20
-21.6487856607
  0
LINE
  5
433
100
AcDbEntity
  8
RACCORDO
100
AcDbLine
 62
7
  6
CONTINUOUS
 10
-87.4875630645
 20
-22.3739067497
 11
-87.4875491377
 21
-22.3833587642
  0
LINE
  5
434
100
AcDbEntity
  8
RACCORDO
100
AcDbLine
 62
7
  6
CONTINUOUS
 10
-87.4875599237
 20
23.6525741859
 11
-87.4875499818
 21
23.6440762066
  0
LWPOLYLINE
  5
435
100
AcDbEntity
  8
RACCORDO
100
AcDbPolyline
 62
250
  6
CONTINUOUS
 90
3
 70
0
 10
-87.489756558
 20
23.7116279101
 10
-87.4899070626
 20
23.6808467225
 10
-87.4875974517
 20
23.6572922292
  0
LINE
  5
436
100
AcDbEntity
  8
RACCORDO
100
AcDbLine
 62
7
  6
CONTINUOUS
 10
-87.4875499818
 20
23.6440762066
 11
-87.4876016888
 21
23.63374034
  0
LWPOLYLINE
  5
437
100
AcDbEntity
  8
RACCORDO
100
AcDbPolyline
 62
7
  6
CONTINUOUS
 90
7
 70
0
 10
-87.4875491377
 20
-22.3833587642
 10
-87.4875934773
 20
-22.3909249254
 10
-87.4876320923
 20
-22.3939492663
 10
-87.4876774621
 20
-22.3964504696
 10
-87.4877216127
 20
-22.3982755955
 10
-87.4877594977
 20
-22.399499224
 10
-87.4877632324
 20
-22.3996040279
  0
LINE
  5
438
100
AcDbEntity
  8
RACCORDO
100
AcDbLine
 62
7
  6
CONTINUOUS
 10
-87.4876016888
 20
23.63374034
 11
-87.4877236813
 21
23.6216528603
  0
LINE
  5
439
100
AcDbEntity
  8
RACCORDO
100
AcDbLine
 62
250
  6
CONTINUOUS
 10
-87.4872906248
 20
23.6301283353
 11
-87.4877236813
 21
23.6216528603
  0
LWPOLYLINE
  5
43A
100
AcDbEntity
  8
RACCORDO
100
AcDbPolyline
 62
250
  6
CONTINUOUS
 90
3
 70
0
 10
-87.4879248503
 20
23.6078157935
 10
-87.4876987936
 20
23.6058785711
 10
-87.4880573979
 20
23.6002317924
  0
LINE
  5
43B
100
AcDbEntity
  8
RACCORDO
100
AcDbLine
 62
7
  6
CONTINUOUS
 10
-87.4877236813
 20
23.6216528603
 11
-87.4880573979
 21
23.6002317924
  0
LINE
  5
43C
100
AcDbEntity
  8
RACCORDO
100
AcDbLine
 62
250
  6
CONTINUOUS
 10
-87.4883895501
 20
23.5837125434
 11
-87.488286721
 21
23.5788554568
  0
LINE
  5
43D
100
AcDbEntity
  8
RACCORDO
100
AcDbLine
 62
7
  6
CONTINUOUS
 10
-87.4880573979
 20
23.6002317924
 11
-87.4885898495
 21
23.5747702935
  0
LINE
  5
43E
100
AcDbEntity
  8
RACCORDO
100
AcDbLine
 62
250
  6
CONTINUOUS
 10
-87.488286721
 20
23.5788554568
 11
-87.4885898495
 21
23.5747702935
  0
LWPOLYLINE
  5
43F
100
AcDbEntity
  8
RACCORDO
100
AcDbPolyline
 62
250
  6
CONTINUOUS
 90
3
 70
0
 10
-87.4890591108
 20
23.5555317967
 10
-87.4890558086
 20
23.5490105216
 10
-87.4896226038
 20
23.5345432591
  0
LWPOLYLINE
  5
440
100
AcDbEntity
  8
RACCORDO
100
AcDbPolyline
 62
250
  6
CONTINUOUS
 90
3
 70
0
 10
-87.6960757386
 20
18.128914112
 10
-87.7118781095
 20
17.5389358712
 10
-87.7434279277
 20
16.2185702217
  0
LINE
  5
441
100
AcDbEntity
  8
RACCORDO
100
AcDbLine
 62
7
  6
CONTINUOUS
 10
-87.4885898495
 20
23.5747702935
 11
-87.4896226038
 21
23.5345432591
  0
LINE
  5
442
100
AcDbEntity
  8
RACCORDO
100
AcDbLine
 62
250
  6
CONTINUOUS
 10
-87.4899414938
 20
23.5233854766
 11
-87.4900012173
 21
23.5163922273
  0
LINE
  5
443
100
AcDbEntity
  8
RACCORDO
100
AcDbLine
 62
250
  6
CONTINUOUS
 10
-87.6607137134
 20
19.3106011653
 11
-87.6839977165
 21
18.555911091
  0
LINE
  5
444
100
AcDbEntity
  8
RACCORDO
100
AcDbLine
 62
7
  6
CONTINUOUS
 10
-87.4896226038
 20
23.5345432591
 11
-87.4914707947
 21
23.4743271003
  0
LINE
  5
445
100
AcDbEntity
  8
RACCORDO
100
AcDbLine
 62
250
  6
CONTINUOUS
 10
-87.4911079181
 20
23.481448993
 11
-87.4914707947
 21
23.4743271003
  0
LINE
  5
446
100
AcDbEntity
  8
RACCORDO
100
AcDbLine
 62
250
  6
CONTINUOUS
 10
-87.4919158383
 20
23.4609644928
 11
-87.492375786
 21
23.4441784466
  0
LINE
  5
447
100
AcDbEntity
  8
RACCORDO
100
AcDbLine
 62
7
  6
CONTINUOUS
 10
-87.4914707947
 20
23.4743271003
 11
-87.4945215683
 21
23.3879467969
  0
LINE
  5
448
100
AcDbEntity
  8
RACCORDO
100
AcDbLine
 62
250
  6
CONTINUOUS
 10
-87.493802064
 20
23.4045829519
 11
-87.4945215683
 21
23.3879467969
  0
LINE
  5
449
100
AcDbEntity
  8
RACCORDO
100
AcDbLine
 62
250
  6
CONTINUOUS
 10
-87.4951194684
 20
23.3721282514
 11
-87.4953687198
 21
23.3631180315
  0
LINE
  5
44A
100
AcDbEntity
  8
RACCORDO
100
AcDbLine
 62
7
  6
CONTINUOUS
 10
-87.4945215683
 20
23.3879467969
 11
-87.4999791757
 21
23.25115721
  0
LINE
  5
44B
100
AcDbEntity
  8
RACCORDO
100
AcDbLine
 62
250
  6
CONTINUOUS
 10
-87.4989069909
 20
23.2748541782
 11
-87.4999791757
 21
23.25115721
  0
LINE
  5
44C
100
AcDbEntity
  8
RACCORDO
100
AcDbLine
 62
250
  6
CONTINUOUS
 10
-87.5007682443
 20
23.232533678
 11
-87.5008845528
 21
23.2279622124
  0
LWPOLYLINE
  5
44D
100
AcDbEntity
  8
RACCORDO
100
AcDbPolyline
 62
7
  6
CONTINUOUS
 90
10
 70
0
 10
-87.5154617247
 20
22.91494356
 10
-87.6076565196
 20
20.8149883375
 10
-87.6839977165
 20
18.555911091
 10
-87.7434279277
 20
16.2185702217
 10
-87.7896083935
 20
13.803059824
 10
-87.8272310747
 20
11.3097436254
 10
-87.8604104826
 20
8.7388568038
 10
-87.8879855299
 20
6.090213471
 10
-87.9069337903
 20
3.3636363429
 10
-87.9138208329
 20
0.6330789474
  0
LINE
  5
44E
100
AcDbEntity
  8
RACCORDO
100
AcDbLine
 62
7
  6
CONTINUOUS
 10
-87.4999791757
 20
23.25115721
 11
-87.5087975243
 21
23.0530832787
  0
LINE
  5
44F
100
AcDbEntity
  8
RACCORDO
100
AcDbLine
 62
250
  6
CONTINUOUS
 10
-87.507644545
 20
23.0763784704
 11
-87.5087975243
 21
23.0530832787
  0
LINE
  5
450
100
AcDbEntity
  8
RACCORDO
100
AcDbLine
 62
250
  6
CONTINUOUS
 10
-87.509781622
 20
23.0321012971
 11
-87.5101172997
 21
23.023666854
  0
LWPOLYLINE
  5
451
100
AcDbEntity
  8
RACCORDO
100
AcDbPolyline
 62
250
  6
CONTINUOUS
 90
5
 70
0
 10
-87.5162402039
 20
22.8972118473
 10
-87.5449409839
 20
22.2970455351
 10
-87.5720988521
 20
21.6860004063
 10
-87.5970961684
 20
21.0818330622
 10
-87.6200103849
 20
20.4868529041
  0
LINE
  5
452
100
AcDbEntity
  8
RACCORDO
100
AcDbLine
 62
7
  6
CONTINUOUS
 10
-87.5087975243
 20
23.0530832787
 11
-87.515461725
 21
22.9149435537
  0
LINE
  5
453
100
AcDbEntity
  8
RACCORDO
100
AcDbLine
 62
7
  6
CONTINUOUS
 10
-79.2551091235
 20
-2.9692928958
 11
-81.0603445132
 21
-2.9220211434
  0
LWPOLYLINE
  5
454
100
AcDbEntity
  8
RACCORDO
100
AcDbPolyline
 62
7
  6
CONTINUOUS
 90
7
 70
0
 10
-87.4877309501
 20
23.6652820358
 10
-87.4877763649
 20
23.6661016914
 10
-87.4877743467
 20
23.6660509616
 10
-87.4877429447
 20
23.6651590277
 10
-87.4877022506
 20
23.6636953688
 10
-87.487659479
 20
23.6617136135
 10
-87.4876182152
 20
23.65914826
  0
LINE
  5
455
100
AcDbEntity
  8
ASSI
100
AcDbLine
 62
250
  6
CONTINUOUS
 10
-83.3156060894
 20
-40.972961875
 11
-83.3011753006
 21
-41.4636170642
  0
LINE
  5
456
100
AcDbEntity
  8
ASSI
100
AcDbLine
 62
250
  6
CONTINUOUS
 10
-83.785797969
 20
-41.525113696
 11
-83.8006370027
 21
-40.9860759677
  0
LINE
  5
457
100
AcDbEntity
  8
ASSI
100
AcDbLine
 62
250
  6
CONTINUOUS
 10
-83.3279166854
 20
-40.4475957526
 11
-83.3156060894
 21
-40.972961875
  0
LINE
  5
458
100
AcDbEntity
  8
ASSI
100
AcDbLine
 62
250
  6
CONTINUOUS
 10
-83.812002647
 20
-40.4578809524
 11
-83.8006370027
 21
-40.9860759677
  0
LINE
  5
459
100
AcDbEntity
  8
ASSI
100
AcDbLine
 62
250
  6
CONTINUOUS
 10
-83.7848927571
 20
-41.5692391886
 11
-83.785797969
 21
-41.525113696
  0
LINE
  5
45A
100
AcDbEntity
  8
ASSI
100
AcDbLine
 62
250
  6
CONTINUOUS
 10
-83.3380973295
 20
-39.8854086538
 11
-83.3279166854
 21
-40.4475957526
  0
LINE
  5
45B
100
AcDbEntity
  8
ASSI
100
AcDbLine
 62
250
  6
CONTINUOUS
 10
-83.8211529675
 20
-39.8931265205
 11
-83.812002647
 21
-40.4578809524
  0
LINE
  5
45C
100
AcDbEntity
  8
ASSI
100
AcDbLine
 62
250
  6
CONTINUOUS
 10
-83.7842701619
 20
-41.611827774
 11
-83.7848927571
 21
-41.5692391886
  0
LINE
  5
45D
100
AcDbEntity
  8
ASSI
100
AcDbLine
 62
250
  6
CONTINUOUS
 10
-83.3461085432
 20
-39.2787846218
 11
-83.3380973295
 21
-39.8854086538
  0
LINE
  5
45E
100
AcDbEntity
  8
ASSI
100
AcDbLine
 62
250
  6
CONTINUOUS
 10
-83.3024077758
 20
-42.2432604088
 11
-83.3027675122
 21
-42.2080091293
  0
LINE
  5
45F
100
AcDbEntity
  8
ASSI
100
AcDbLine
 62
250
  6
CONTINUOUS
 10
-83.8309969038
 20
-38.9621813577
 11
-83.8211529675
 21
-39.8931265205
  0
LINE
  5
460
100
AcDbEntity
  8
ASSI
100
AcDbLine
 62
250
  6
CONTINUOUS
 10
-83.7839120014
 20
-41.6516437422
 11
-83.7842701619
 21
-41.611827774
  0
LINE
  5
461
100
AcDbEntity
  8
ASSI
100
AcDbLine
 62
250
  6
CONTINUOUS
 10
-83.3540212135
 20
-38.2798455897
 11
-83.3461085432
 21
-39.2787846218
  0
LINE
  5
462
100
AcDbEntity
  8
ASSI
100
AcDbLine
 62
250
  6
CONTINUOUS
 10
-83.3027675122
 20
-42.2080091293
 11
-83.3031244054
 21
-42.1243180192
  0
LINE
  5
463
100
AcDbEntity
  8
ASSI
100
AcDbLine
 62
250
  6
CONTINUOUS
 10
-83.8374340276
 20
-37.5466771991
 11
-83.8309969038
 21
-38.9621813577
  0
LINE
  5
464
100
AcDbEntity
  8
ASSI
100
AcDbLine
 62
250
  6
CONTINUOUS
 10
-83.7837956446
 20
42.9538824551
 11
-83.7839116086
 21
42.9856401062
  0
LINE
  5
465
100
AcDbEntity
  8
ASSI
100
AcDbLine
 62
250
  6
CONTINUOUS
 10
-83.7837956445
 20
-41.6877272213
 11
-83.7839120014
 21
-41.6516437422
  0
LINE
  5
466
100
AcDbEntity
  8
ASSI
100
AcDbLine
 62
250
  6
CONTINUOUS
 10
-83.8636506272
 20
-14.2349121683
 11
-83.8397628236
 21
-28.5827059244
  0
LINE
  5
467
100
AcDbEntity
  8
ASSI
100
AcDbLine
 62
250
  6
CONTINUOUS
 10
-83.8397628236
 20
-28.5827059244
 11
-83.8372291857
 21
-30.7469870783
  0
LINE
  5
468
100
AcDbEntity
  8
ASSI
100
AcDbLine
 62
250
  6
CONTINUOUS
 10
-83.3896334148
 20
-11.4576657729
 11
-83.3574201101
 21
-29.6888327771
  0
LWPOLYLINE
  5
469
100
AcDbEntity
  8
ASSI
100
AcDbPolyline
 62
250
  6
CONTINUOUS
 90
3
 70
0
 10
-83.3580360801
 20
-36.3350605946
 10
-83.3578659876
 20
-36.7533621358
 10
-83.3540212135
 20
-38.2798455897
  0
LINE
  5
46A
100
AcDbEntity
  8
ASSI
100
AcDbLine
 62
250
  6
CONTINUOUS
 10
-83.3574201101
 20
-29.6888327771
 11
-83.356246053
 21
-31.2579439578
  0
LINE
  5
46B
100
AcDbEntity
  8
ASSI
100
AcDbLine
 62
250
  6
CONTINUOUS
 10
-83.8384017532
 20
-35.9031130594
 11
-83.8374340276
 21
-37.5466771991
  0
LINE
  5
46C
100
AcDbEntity
  8
ASSI
100
AcDbLine
 62
250
  6
CONTINUOUS
 10
-83.8372291857
 20
-30.7469870783
 11
-83.8384017532
 21
-35.9031130594
  0
LINE
  5
46D
100
AcDbEntity
  8
ASSI
100
AcDbLine
 62
250
  6
CONTINUOUS
 10
-83.3564359371
 20
32.0412525845
 11
-83.3598780938
 21
29.5792172233
  0
LWPOLYLINE
  5
46E
100
AcDbEntity
  8
ASSI
100
AcDbPolyline
 62
250
  6
CONTINUOUS
 90
3
 70
0
 10
-83.8376087745
 20
31.4493857655
 10
-83.8430938338
 20
28.2528933766
 10
-83.8482842362
 20
26.1311716223
  0
LINE
  5
46F
100
AcDbEntity
  8
ASSI
100
AcDbLine
 62
250
  6
CONTINUOUS
 10
-83.8482842362
 20
26.1311716223
 11
-83.8636506272
 21
-14.2349121683
  0
LINE
  5
470
100
AcDbEntity
  8
ASSI
100
AcDbLine
 62
250
  6
CONTINUOUS
 10
-83.3598780938
 20
29.5792172233
 11
-83.3896334148
 21
-11.4576657729
  0
LINE
  5
471
100
AcDbEntity
  8
ASSI
100
AcDbLine
 62
250
  6
CONTINUOUS
 10
-83.8355492613
 20
39.4437618051
 11
-83.8376087745
 21
31.4493857655
  0
LINE
  5
472
100
AcDbEntity
  8
ASSI
100
AcDbLine
 62
250
  6
CONTINUOUS
 10
-83.3544847012
 20
39.4414138584
 11
-83.3580032464
 21
37.654817589
  0
LINE
  5
473
100
AcDbEntity
  8
ASSI
100
AcDbLine
 62
250
  6
CONTINUOUS
 10
-83.7839120208
 20
42.9177986756
 11
-83.7837956446
 21
42.9538824551
  0
LINE
  5
474
100
AcDbEntity
  8
ASSI
100
AcDbLine
 62
250
  6
CONTINUOUS
 10
-83.3031244145
 20
43.3904706678
 11
-83.3027675354
 21
43.4741644981
  0
LINE
  5
475
100
AcDbEntity
  8
ASSI
100
AcDbLine
 62
250
  6
CONTINUOUS
 10
-83.8302095004
 20
40.3271395354
 11
-83.8355492613
 21
39.4437618051
  0
LINE
  5
476
100
AcDbEntity
  8
ASSI
100
AcDbLine
 62
250
  6
CONTINUOUS
 10
-83.3484025678
 20
40.322443876
 11
-83.3544847012
 21
39.4414138584
  0
LINE
  5
477
100
AcDbEntity
  8
ASSI
100
AcDbLine
 62
250
  6
CONTINUOUS
 10
-83.7842701967
 20
42.877982706
 11
-83.7839120208
 21
42.9177986756
  0
LWPOLYLINE
  5
478
100
AcDbEntity
  8
ASSI
100
AcDbPolyline
 62
250
  6
CONTINUOUS
 90
5
 70
0
 10
-83.3027675354
 20
43.4741644981
 10
-83.302407784
 20
43.5094177087
 10
-83.3022145205
 20
43.5205420434
 10
-83.3020204038
 20
43.5272428546
 10
-83.3018331741
 20
43.5294835919
  0
LINE
  5
479
100
AcDbEntity
  8
ASSI
100
AcDbLine
 62
250
  6
CONTINUOUS
 10
-83.8207740945
 20
41.1870628947
 11
-83.8302095004
 21
40.3271395354
  0
LINE
  5
47A
100
AcDbEntity
  8
ASSI
100
AcDbLine
 62
250
  6
CONTINUOUS
 10
-83.3376180505
 20
41.1792052565
 11
-83.3484025678
 21
40.322443876
  0
LINE
  5
47B
100
AcDbEntity
  8
ASSI
100
AcDbLine
 62
250
  6
CONTINUOUS
 10
-83.7848923635
 20
42.8354108002
 11
-83.7842701967
 21
42.877982706
  0
LINE
  5
47C
100
AcDbEntity
  8
ASSI
100
AcDbLine
 62
250
  6
CONTINUOUS
 10
-83.7857991711
 20
42.7912249159
 11
-83.7848923635
 21
42.8354108002
  0
LWPOLYLINE
  5
47D
100
AcDbEntity
  8
ASSI
100
AcDbPolyline
 62
250
  6
CONTINUOUS
 90
3
 70
0
 10
-83.7974695578
 20
42.3778532128
 10
-83.8065265203
 20
41.9958567171
 10
-83.8207740945
 20
41.1870628947
  0
LINE
  5
47E
100
AcDbEntity
  8
ASSI
100
AcDbLine
 62
250
  6
CONTINUOUS
 10
-83.7974695578
 20
42.3778532128
 11
-83.7857991711
 21
42.7912249159
  0
LWPOLYLINE
  5
47F
100
AcDbEntity
  8
ASSI
100
AcDbPolyline
 62
250
  6
CONTINUOUS
 90
4
 70
0
 10
-83.301179283
 20
42.7297748547
 10
-83.3121740001
 20
42.3641031834
 10
-83.3219190493
 20
41.9842114487
 10
-83.3376180505
 20
41.1792052565
  0
LINE
  5
480
100
AcDbEntity
  8
RACCORDO
100
AcDbLine
 62
250
  6
CONTINUOUS
 10
-87.9138208329
 20
0.6330789474
 11
-83.8669370621
 21
0.6330789474
  0
LINE
  5
481
100
AcDbEntity
  8
ASSI
100
AcDbLine
 62
250
  6
CONTINUOUS
 10
-83.3921061608
 20
0.6330789474
 11
-83.8669370621
 21
0.6330789474
  0
LWPOLYLINE
  5
482
100
AcDbEntity
  8
ASSI
100
AcDbPolyline
 62
250
  6
CONTINUOUS
 90
10
 70
0
 10
-83.7839116086
 20
42.9856401062
 10
-83.7840585139
 20
42.9995802176
 10
-83.7842663111
 20
43.0122402977
 10
-83.7845351878
 20
43.0234051299
 10
-83.7848708347
 20
43.033048049
 10
-83.7852771574
 20
43.0411962488
 10
-83.7857550567
 20
43.0477154662
 10
-83.7863096871
 20
43.0525612045
 10
-83.7869491401
 20
43.055778672
 10
-83.7876800183
 20
43.0573682251
  0
LINE
  5
483
100
AcDbEntity
  8
ASSI
100
AcDbLine
 62
250
  6
CONTINUOUS
 10
-83.3011687727
 20
42.7297751299
 11
-83.3031847009
 21
43.3159775784
  0
LINE
  5
484
100
AcDbEntity
  8
ASSI
100
AcDbLine
 62
7
  6
CONTINUOUS
 10
-81.2551091235
 20
-42.3169210526
 11
-81.2551091235
 21
43.5830789474
  0
LINE
  5
485
100
AcDbEntity
  8
ASSI
100
AcDbLine
 62
250
  6
CONTINUOUS
 10
-83.3580032464
 20
37.654817589
 11
-83.3564359371
 21
32.0412525845
  0
LINE
  5
486
100
AcDbEntity
  8
ASSI
100
AcDbLine
 62
250
  6
CONTINUOUS
 10
-83.356246053
 20
-31.2579439578
 11
-83.3580360801
 21
-36.3350605946
  0
LINE
  5
487
100
AcDbEntity
  8
ASSI
100
AcDbLine
 62
250
  6
CONTINUOUS
 10
-83.3031847009
 20
43.3159775784
 11
-83.3031244145
 21
43.3904706678
  0
LINE
  5
488
100
AcDbEntity
  8
ASSI
100
AcDbLine
 62
250
  6
CONTINUOUS
 10
-83.3031244054
 20
-42.1243180192
 11
-83.3029721411
 21
-41.9141718193
  0
LINE
  5
489
100
AcDbEntity
  8
ASSI
100
AcDbLine
 62
250
  6
CONTINUOUS
 10
-83.3014234337
 20
-41.5233880409
 11
-83.3011687727
 21
-41.4636172352
  0
LINE
  5
48A
100
AcDbEntity
  8
ASSI
100
AcDbLine
 62
250
  6
CONTINUOUS
 10
-83.3029721411
 20
-41.9141718193
 11
-83.3014234337
 21
-41.5233880409
  0
LINE
  5
48B
100
AcDbEntity
  8
ASSI
100
AcDbLine
 62
7
  6
CONTINUOUS
 10
-79.2551091235
 20
42.4835373919
 11
-79.2551091235
 21
42.0863788343
  0
LINE
  5
48C
100
AcDbEntity
  8
0
100
AcDbLine
 62
7
  6
CONTINUOUS
 10
-79.2551091235
 20
42.0863788343
 11
-79.2551091235
 21
4.2354507905
  0
LINE
  5
48D
100
AcDbEntity
  8
0
100
AcDbLine
 62
7
  6
CONTINUOUS
 10
-79.2551091235
 20
-2.9692928958
 11
-79.2551091235
 21
-40.8202170574
  0
LINE
  5
48E
100
AcDbEntity
  8
ASSI
100
AcDbLine
 62
7
  6
CONTINUOUS
 10
-79.2551091235
 20
-40.8202170574
 11
-79.2551091235
 21
-41.2173806399
  0
LINE
  5
48F
100
AcDbEntity
  8
RACCORDO
100
AcDbLine
 62
7
  6
CONTINUOUS
 10
-79.2551091235
 20
4.2354507905
 11
-81.0603445132
 21
4.1881790382
  0
LWPOLYLINE
  5
490
100
AcDbEntity
  8
RACCORDO
100
AcDbPolyline
 62
250
  6
CONTINUOUS
 90
8
 70
0
 10
-87.489756558
 20
23.7116279101
 10
-87.4888222649
 20
23.709682355
 10
-87.4880840012
 20
23.7044932804
 10
-87.4875407806
 20
23.6960606833
 10
-87.4871919302
 20
23.6843288384
 10
-87.4870355257
 20
23.6693534651
 10
-87.4870685752
 20
23.6513017274
 10
-87.4876016888
 20
23.63374034
  0
LWPOLYLINE
  5
491
100
AcDbEntity
  8
0
100
AcDbPolyline
 62
7
  6
CONTINUOUS
 90
10
 70
0
 43
0.3500000006
 10
-92.9260774841
 20
52.833080246
 10
-92.8546463013
 20
52.6902224121
 10
-92.8546463013
 20
52.6187912292
 10
-92.997508667
 20
52.4759379272
 10
-93.0689307861
 20
52.4759379272
 10
-93.140361969
 20
52.5473645782
 10
-93.140361969
 20
52.6187912292
 10
-93.0689307861
 20
52.7616490631
 10
-92.997508667
 20
52.833080246
 10
-92.9260774841
 20
52.833080246
  0
LWPOLYLINE
  5
492
100
AcDbEntity
  8
ASSI
100
AcDbPolyline
 62
250
  6
CONTINUOUS
 90
11
 70
0
 10
-83.7876819512
 20
-41.7912203046
 10
-83.7869502403
 20
-41.7896262933
 10
-83.7863101486
 20
-41.7864055859
 10
-83.7857550798
 20
-41.7815578259
 10
-83.7852770327
 20
-41.77503823
 10
-83.784870794
 20
-41.7668908713
 10
-83.7845352315
 20
-41.7572487399
 10
-83.7842663502
 20
-41.7460842081
 10
-83.7840585426
 20
-41.7334243747
 10
-83.7839116268
 20
-41.7194844836
 10
-83.7837956445
 20
-41.6877272213
  0
LINE
  5
493
100
AcDbEntity
  8
RACCORDO
100
AcDbLine
 62
250
  6
CONTINUOUS
 10
-87.5743495941
 20
23.7214561644
 11
-87.489756558
 21
23.7116279101
  0
LWPOLYLINE
  5
494
100
AcDbEntity
  8
RACCORDO
100
AcDbPolyline
 62
250
  6
CONTINUOUS
 90
3
 70
0
 10
-87.704794865
 20
23.7375666627
 10
-87.6771510747
 20
23.7341736436
 10
-87.5743495941
 20
23.7214561644
  0
LINE
  5
495
100
AcDbEntity
  8
RACCORDO
100
AcDbLine
 62
250
  6
CONTINUOUS
 10
-87.7067753092
 20
23.7378767186
 11
-87.704794865
 21
23.7375666627
  0
LWPOLYLINE
  5
496
100
AcDbEntity
  8
ASSI
100
AcDbPolyline
 62
250
  6
CONTINUOUS
 90
7
 70
0
 10
-83.9068529286
 20
43.1846033553
 10
-83.9067894393
 20
43.1844947033
 10
-83.9066027344
 20
43.1842077788
 10
-83.9062632673
 20
43.183757851
 10
-83.9057660551
 20
43.1830914862
 10
-83.9050996848
 20
43.1821902232
 10
-83.9042473533
 20
43.1810725497
  0
LWPOLYLINE
  5
497
100
AcDbEntity
  8
ASSI
100
AcDbPolyline
 62
250
  6
CONTINUOUS
 90
4
 70
0
 10
-83.9059605898
 20
-41.9171821696
 10
-83.90643533
 20
-41.9178081986
 10
-83.9067153836
 20
-41.9182291996
 10
-83.9068409415
 20
-41.9184221699
  0
LWPOLYLINE
  5
498
100
AcDbEntity
  8
ASSI
100
AcDbPolyline
 62
250
  6
CONTINUOUS
 90
4
 70
0
 10
-83.8988158356
 20
-41.9079617277
 10
-83.9033070626
 20
-41.913692182
 10
-83.9044049573
 20
-41.9151240541
 10
-83.905285688
 20
-41.9162961373
  0
LWPOLYLINE
  5
499
100
AcDbEntity
  8
ASSI
100
AcDbPolyline
 62
250
  6
CONTINUOUS
 90
5
 70
0
 10
-83.9042473533
 20
43.1810725497
 10
-83.9019916234
 20
43.1781808957
 10
-83.9006178954
 20
43.1764073686
 10
-83.8990801079
 20
43.1744634558
 10
-83.8955721462
 20
43.1700429025
  0
LINE
  5
49A
100
AcDbEntity
  8
ASSI
100
AcDbLine
 62
250
  6
CONTINUOUS
 10
-83.8876748621
 20
-41.8943833469
 11
-83.8880609633
 21
-41.8948554994
  0
LWPOLYLINE
  5
49B
100
AcDbEntity
  8
ASSI
100
AcDbPolyline
 62
250
  6
CONTINUOUS
 90
5
 70
0
 10
-83.8880609633
 20
-41.8948554994
 10
-83.8927245767
 20
-41.90031145
 10
-83.8949175815
 20
-41.9030617373
 10
-83.8969489784
 20
-41.9056277423
 10
-83.8988158356
 20
-41.9079617277
  0
LWPOLYLINE
  5
49C
100
AcDbEntity
  8
ASSI
100
AcDbPolyline
 62
250
  6
CONTINUOUS
 90
9
 70
0
 10
-83.8719439873
 20
43.1438232057
 10
-83.8663475003
 20
43.1370936071
 10
-83.8595617391
 20
43.1291375403
 10
-83.8514827925
 20
43.1198681857
 10
-83.8419244835
 20
43.1093894484
 10
-83.830833516
 20
43.0978750976
 10
-83.8181609493
 20
43.0853894727
 10
-83.8038001228
 20
43.071884866
 10
-83.7876800183
 20
43.0573682251
  0
LWPOLYLINE
  5
49D
100
AcDbEntity
  8
ASSI
100
AcDbPolyline
 62
250
  6
CONTINUOUS
 90
4
 70
0
 10
-83.8955721462
 20
43.1700429025
 10
-83.8915109523
 20
43.1651256032
 10
-83.8894131091
 20
43.1625225638
 10
-83.8876886858
 20
43.1604944297
  0
LWPOLYLINE
  5
49E
100
AcDbEntity
  8
ASSI
100
AcDbPolyline
 62
250
  6
CONTINUOUS
 90
17
 70
0
 10
-83.7876819512
 20
-41.7912203046
 10
-83.8036301021
 20
-41.8055717494
 10
-83.817858823
 20
-41.8189375322
 10
-83.8304358741
 20
-41.8313109216
 10
-83.841508471
 20
-41.8427603588
 10
-83.8510634773
 20
-41.853200758
 10
-83.8590607155
 20
-41.8623988432
 10
-83.8657083177
 20
-41.8702075714
 10
-83.8711936228
 20
-41.8767651796
 10
-83.8755772178
 20
-41.8822723669
 10
-83.8790255828
 20
-41.8866781447
 10
-83.8817306658
 20
-41.8900254429
 10
-83.8837662614
 20
-41.8926527683
 10
-83.8852285396
 20
-41.8945911066
 10
-83.8862415889
 20
-41.895787533
 10
-83.886833896
 20
-41.8964567581
 10
-83.8870402495
 20
-41.8966288217
  0
LWPOLYLINE
  5
49F
100
AcDbEntity
  8
ASSI
100
AcDbPolyline
 62
250
  6
CONTINUOUS
 90
8
 70
0
 10
-83.8870324581
 20
43.1628091231
 10
-83.8869806907
 20
43.1627579109
 10
-83.8865830085
 20
43.1623392379
 10
-83.8857472124
 20
43.16141529
 10
-83.8844552307
 20
43.1596875594
 10
-83.8825473031
 20
43.1571780908
 10
-83.8798693911
 20
43.1538740322
 10
-83.8719439873
 20
43.1438232057
  0
LWPOLYLINE
  5
4A0
100
AcDbEntity
  8
ASSI
100
AcDbPolyline
 62
250
  6
CONTINUOUS
 90
16
 70
0
 10
-79.2551090103
 20
42.0863774104
 10
-79.3728876046
 20
42.1621979822
 10
-79.4925266637
 20
42.2335538859
 10
-79.6137794725
 20
42.3004451215
 10
-79.7358877886
 20
42.3626533879
 10
-79.8591174393
 20
42.4203969861
 10
-79.9848566723
 20
42.4743308188
 10
-80.1128564701
 20
42.524619211
 10
-80.2430782875
 20
42.5710978375
 10
-80.3773924808
 20
42.6139286262
 10
-80.51684093
 20
42.6534861536
 10
-80.6602235933
 20
42.6893958431
 10
-80.8060620952
 20
42.7206958931
 10
-80.9537244115
 20
42.7470657029
 10
-81.1034720652
 20
42.7688258731
 10
-81.2551091143
 20
42.7859764038
  0
LWPOLYLINE
  5
4A1
100
AcDbEntity
  8
0
100
AcDbPolyline
 62
7
  6
CONTINUOUS
 90
13
 70
0
 43
0.3500000006
 10
-95.4975094299
 20
54.047365036
 10
-95.7832160339
 20
54.2616495209
 10
-95.7832160339
 20
54.9045075073
 10
-95.4975094299
 20
55.3330810089
 10
-94.8546469116
 20
55.3330810089
 10
-94.5689312439
 20
54.9045075073
 10
-94.5689312439
 20
54.2616495209
 10
-94.8546469116
 20
54.047365036
 10
-94.4260779419
 20
53.6187915344
 10
-94.4260779419
 20
52.7616490631
 10
-94.8546469116
 20
52.3330800934
 10
-95.4975094299
 20
52.3330800934
 10
-95.9260783997
 20
52.7616490631
  0
LWPOLYLINE
  5
4A2
100
AcDbEntity
  8
ASSI
100
AcDbPolyline
 62
250
  6
CONTINUOUS
 90
19
 70
0
 10
-83.3018331741
 20
43.5294835919
 10
-83.3430710384
 20
43.5266926496
 10
-83.3839371969
 20
43.5205009671
 10
-83.4241520427
 20
43.510950909
 10
-83.4634404258
 20
43.4981078178
 10
-83.5015335345
 20
43.4820595673
 10
-83.5381707353
 20
43.4629159609
 10
-83.5731013562
 20
43.4408079806
 10
-83.6060864027
 20
43.4158868904
 10
-83.6369001917
 20
43.388323201
 10
-83.6653318958
 20
43.3583055043
 10
-83.691186986
 20
43.3260391821
 10
-83.714288563
 20
43.2917450005
 10
-83.7344785663
 20
43.255657601
 10
-83.7516188567
 20
43.2180238938
 10
-83.7655921613
 20
43.1791013681
 10
-83.7763028754
 20
43.1391563314
 10
-83.7836777167
 20
43.0984620881
 10
-83.7876662269
 20
43.0572970684
  0
LINE
  5
4A3
100
AcDbEntity
  8
ASSI
100
AcDbLine
 62
250
  6
CONTINUOUS
 10
-83.301179283
 20
42.7297748547
 11
-81.2551091235
 21
42.7833530874
  0
LINE
  5
4A4
100
AcDbEntity
  8
ASSI
100
AcDbLine
 62
7
  6
CONTINUOUS
 10
-83.4438083524
 20
43.525765841
 11
-81.2551091235
 21
43.5830789474
  0
LWPOLYLINE
  5
4A5
100
AcDbEntity
  8
0
100
AcDbPolyline
 62
7
  6
CONTINUOUS
 90
8
 70
0
 43
0.3500000006
 10
-91.8546459961
 20
52.3330800934
 10
-90.9975080566
 20
52.3330800934
 10
-90.5689390869
 20
52.7616490631
 10
-90.5689390869
 20
53.6187915344
 10
-90.9975080566
 20
54.047365036
 10
-91.8546459961
 20
54.047365036
 10
-91.8546459961
 20
55.3330810089
 10
-90.5689390869
 20
55.3330810089
  0
LWPOLYLINE
  5
4A6
100
AcDbEntity
  8
ASSI
100
AcDbPolyline
 62
250
  6
CONTINUOUS
 90
3
 70
0
 10
-83.7870324576
 20
42.7459630538
 10
-83.7830118376
 20
42.7457974152
 10
-83.3011714651
 20
42.7297752174
  0
ARC
  5
4A7
100
AcDbEntity
  8
ASSI
100
AcDbCircle
 62
7
  6
CONTINUOUS
 10
-81.6851091235
 20
-38.0401007147
 40
4.0
100
AcDbArc
 50
276.1712216475
 51
307.4089399302
  0
ARC
  5
4A8
100
AcDbEntity
  8
ASSI
100
AcDbCircle
 62
7
  6
CONTINUOUS
 10
-81.6851091235
 20
39.3062586095
 40
4.0
100
AcDbArc
 50
52.5910594998
 51
83.8287779293
  0
ARC
  5
4A9
100
AcDbEntity
  8
ASSI
100
AcDbCircle
 62
7
  6
CONTINUOUS
 10
-83.432705801
 20
-41.7597272806
 40
0.5
100
AcDbArc
 50
198.5078994926
 51
268.3565874239
  0
ARC
  5
4AA
100
AcDbEntity
  8
ASSI
100
AcDbCircle
 62
7
  6
CONTINUOUS
 10
-83.4059485859
 20
-41.7604279429
 40
0.5
100
AcDbArc
 50
195.8063987408
 51
268.3565874163
  0
ARC
  5
4AB
100
AcDbEntity
  8
ASSI
100
AcDbCircle
 62
7
  6
CONTINUOUS
 10
-83.4059483074
 20
43.0265858449
 40
0.5
100
AcDbArc
 50
133.7839532521
 51
164.193622737
  0
ARC
  5
4AC
100
AcDbEntity
  8
ASSI
100
AcDbCircle
 62
7
  6
CONTINUOUS
 10
-83.4327067394
 20
43.0258851507
 40
0.5
100
AcDbArc
 50
133.7839529687
 51
161.492127892
  0
ARC
  5
4AD
100
AcDbEntity
  8
RACCORDO
100
AcDbCircle
 62
7
  6
CONTINUOUS
 10
-87.4077424501
 20
23.7138070451
 40
0.3
100
AcDbArc
 50
175.3980846872
 51
253.4604895907
  0
ARC
  5
4AE
100
AcDbEntity
  8
RACCORDO
100
AcDbCircle
 62
7
  6
CONTINUOUS
 10
-87.4077424501
 20
-22.4476491503
 40
0.3
100
AcDbArc
 50
106.5394540205
 51
184.6019153128
  0
ARC
  5
4AF
100
AcDbEntity
  8
RACCORDO
100
AcDbCircle
 62
7
  6
CONTINUOUS
 10
-81.0551091235
 20
-2.7220896784
 40
0.2
100
AcDbArc
 50
180.0
 51
268.5
  0
ARC
  5
4B0
100
AcDbEntity
  8
RACCORDO
100
AcDbCircle
 62
7
  6
CONTINUOUS
 10
-81.0551091235
 20
3.9882475732
 40
0.2
100
AcDbArc
 50
91.5
 51
180.0
  0
ELLIPSE
  5
4B1
100
AcDbEntity
  8
RACCORDO
100
AcDbEllipse
 62
7
  6
CONTINUOUS
 10
-21.8870637654
 20
-21.4650111339
 30
0.0
 11
0.3562493039
 21
0.3562493039
 31
0.0
 40
0.9924325091
 41
2.3599925885
 42
3.9231927187
  0
ELLIPSE
  5
4B2
100
AcDbEntity
  8
RACCORDO
100
AcDbEllipse
 62
7
  6
CONTINUOUS
 10
22.309116397
 20
-21.4650111339
 30
0.0
 11
-0.3562493039
 21
0.3562493039
 31
0.0
 40
0.9924325091
 41
2.3599925885
 42
3.9231927187
  0
ELLIPSE
  5
4B3
100
AcDbEntity
  8
RACCORDO
100
AcDbEllipse
 62
7
  6
CONTINUOUS
 10
22.309116397
 20
22.7311690286
 30
0.0
 11
-0.3562493039
 21
-0.3562493039
 31
0.0
 40
0.9924325091
 41
2.3599925885
 42
3.9231927187
  0
ELLIPSE
  5
4B4
100
AcDbEntity
  8
RACCORDO
100
AcDbEllipse
 62
7
  6
CONTINUOUS
 10
-21.8870637654
 20
22.7311690286
 30
0.0
 11
0.3562493039
 21
-0.3562493039
 31
0.0
 40
0.9924325091
 41
2.3599925885
 42
3.9231927187
  0
ELLIPSE
  5
4B5
100
AcDbEntity
  8
ASSI
100
AcDbEllipse
 62
7
  6
CONTINUOUS
 10
59.3607520818
 20
42.7828047134
 30
0.0
 11
0.566073184
 21
0.566073184
 31
0.0
 40
0.999315002
 41
-0.7850555471
 42
0.7850555471
  0
ELLIPSE
  5
4B6
100
AcDbEntity
  8
ASSI
100
AcDbEllipse
 62
7
  6
CONTINUOUS
 10
59.3607520818
 20
-41.5166468186
 30
0.0
 11
0.566073184
 21
-0.566073184
 31
0.0
 40
0.999315002
 41
-0.7850555471
 42
0.7850555471
  0
ELLIPSE
  5
4B7
100
AcDbEntity
  8
ASSI
100
AcDbEllipse
 62
7
  6
CONTINUOUS
 10
-58.9386994502
 20
-41.5166468186
 30
0.0
 11
0.566073184
 21
0.566073184
 31
0.0
 40
0.999315002
 41
-3.9266482006
 42
-2.3565371065
  0
ELLIPSE
  5
4B8
100
AcDbEntity
  8
ASSI
100
AcDbEllipse
 62
7
  6
CONTINUOUS
 10
-58.9386994502
 20
42.7828047134
 30
0.0
 11
0.566073184
 21
-0.566073184
 31
0.0
 40
0.999315002
 41
2.3565371065
 42
3.9266482006
  0
ENDSEC
  0
SECTION
  2
OBJECTS
  0
DICTIONARY
  5
C
100
AcDbDictionary
280
0
281
1
  3
ACAD_GROUP
350
D
  3
ACAD_MLINESTYLE
350
17
  3
ACAD_LAYOUT
350
1A
  3
ACAD_PLOTSETTINGS
350
19
  3
ACAD_PLOTSTYLENAME
350
E
  0
DICTIONARY
  5
D
102
{ACAD_REACTORS
330
C
102
}
100
AcDbDictionary
280
0
281
1
  0
ACDBDICTIONARYWDFLT
  5
E
102
{ACAD_REACTORS
330
C
102
}
100
AcDbDictionary
281
1
  3
Normal
350
F
100
AcDbDictionaryWithDefault
340
F
  0
DICTIONARY
  5
17
102
{ACAD_REACTORS
330
C
102
}
100
AcDbDictionary
280
0
281
1
  3
Standard
350
18
  0
DICTIONARY
  5
19
102
{ACAD_REACTORS
330
C
102
}
100
AcDbDictionary
281
1
  0
DICTIONARY
  5
1A
102
{ACAD_REACTORS
330
C
102
}
100
AcDbDictionary
281
1
  3
Model
350
4B9
  3
Layout1
350
4BA
  0
ACDBPLACEHOLDER
  5
F
102
{ACAD_REACTORS
330
E
102
}
  0
MLINESTYLE
  5
18
102
{ACAD_REACTORS
330
17
102
}
100
AcDbMlineStyle
  2
STANDARD
 70
0
  3

 62
256
 51
90.0
 52
90.0
 71
2
 49
0.5
 62
256
  6
BYLAYER
 49
-0.5
 62
256
  6
BYLAYER
  0
LAYOUT
  5
4B9
102
{ACAD_REACTORS
330
1A
102
}
100
AcDbPlotSettings
  1

  2
none_device
  4
ISO_A4_(297.00_x_210.00_MM)
  6

 40
0.0
 41
0.0
 42
0.0
 43
0.0
 44
297.0
 45
210.0
 46
0.0
 47
0.0
 48
0.0
 49
0.0
140
0.0
141
0.0
142
1.0
143
1.0
 70
1024
 72
1
 73
0
 74
0
  7

 75
0
147
1.0
148
0.0
149
0.0
100
AcDbLayout
  1
Model
 70
0
 71
0
 10
0.0
 20
0.0
 11
297.0
 21
210.0
 12
0.0
 22
0.0
 32
0.0
 14
0.0
 24
0.0
 34
0.0
 15
0.0
 25
0.0
 35
0.0
146
0.0
 13
0.0
 23
0.0
 33
0.0
 16
1.0
 26
0.0
 36
0.0
 17
0.0
 27
1.0
 37
0.0
 76
0
330
213
345
0
346
0
  0
LAYOUT
  5
4BA
102
{ACAD_REACTORS
330
1A
102
}
100
AcDbPlotSettings
  1

  2
none_device
  4
ISO_A4_(297.00_x_210.00_MM)
  6

 40
0.0
 41
0.0
 42
0.0
 43
0.0
 44
297.0
 45
210.0
 46
0.0
 47
0.0
 48
0.0
 49
0.0
140
0.0
141
0.0
142
1.0
143
1.0
 70
0
 72
1
 73
0
 74
0
  7

 75
0
147
1.0
148
0.0
149
0.0
100
AcDbLayout
  1
Layout1
 70
0
 71
1
 10
0.0
 20
0.0
 11
297.0
 21
210.0
 12
0.0
 22
0.0
 32
0.0
 14
0.0
 24
0.0
 34
0.0
 15
0.0
 25
0.0
 35
0.0
146
0.0
 13
0.0
 23
0.0
 33
0.0
 16
1.0
 26
0.0
 36
0.0
 17
0.0
 27
1.0
 37
0.0
 76
0
330
214
345
0
346
0
  0
ENDSEC
  0
EOF
