  0
SECTION
  2
HEADER
  9
$ACADVER
  1
AC1024
  9
$DWGCODEPAGE
  3
ANSI_1252
  9
$EXTMAX
 10
297.0
 20
210.0
 30
0.0
  9
$EXTMIN
 10
0.0
 20
0.0
 30
0.0
  9
$LIMMIN
 10
0.0
 20
0.0
  9
$LIMMAX
 10
297.0
 20
210.0
  9
$VIEWCTR
 10
148.5
 20
105.0
  9
$VIEWSIZE
 40
210.0
  9
$CLAYER
  8
0
  9
$LTSCALE
 40
16.335
  9
$CELTYPE
  6
BYLAYER
  9
$DIMSCALE
 40
1.0
  9
$DIMASZ
 40
3.0
  9
$DIMEXO
 40
0.5
  9
$DIMDLI
 40
11.286
  9
$DIMEXE
 40
1.5
  9
$DIMCEN
 40
2.673
  9
$DIMLFAC
 40
1.0
  9
$DIMBLK
  1
_FILLED
  9
$DIMALT
 70
0
  9
$DIMALTF
 40
0.0393700787
  9
$DIMTXT
 40
3.0
  9
$DIMTOL
 70
1
  9
$DIMLIM
 70
0
  9
$DIMTFAC
 40
1.0
  9
$DIMTP
 40
0.01
  9
$DIMTM
 40
0.01
  9
$DIMGAP
 40
0.625
  9
$DIMDSEP
 70
44
  9
$AUNITS
 70
0
  9
$PDMODE
 70
3
  9
$PDSIZE
 40
3.0
  9
$HANDSEED
  5
4D0
  9
$TILEMODE
 70
1
  9
$MEASUREMENT
 70
1
  9
$INSUNITS
 70
4
  0
ENDSEC
  0
SECTION
  2
CLASSES
  0
CLASS
  1
ACDBDICTIONARYWDFLT
  2
AcDbDictionaryWithDefault
  3
AutoCAD 2000
 90
0
 91
1
280
0
281
0
  0
CLASS
  1
ACDBPLACEHOLDER
  2
AcDbPlaceHolder
  3
AutoCAD 2000
 90
0
 91
1
280
0
281
0
  0
CLASS
  1
LAYOUT
  2
AcDbLayout
  3
AutoCAD 2000
 90
0
 91
0
280
0
281
0
  0
ENDSEC
  0
SECTION
  2
TABLES
  0
TABLE
  2
VPORT
  5
8
100
AcDbSymbolTable
 70
2
  0
VPORT
  5
1F4
100
AcDbSymbolTableRecord
100
AcDbViewportTableRecord
  2
*ACTIVE
 70
0
 10
0.0
 20
0.0
 11
1.0
 21
1.0
 12
148.5
 22
105.0
 13
0.0
 23
0.0
 14
1.0
 24
1.0
 15
0.0
 25
0.0
 16
0.0
 26
0.0
 36
1.0
 17
0.0
 27
0.0
 37
0.0
 40
210.0
 41
1.4142857143
 42
50.0
 43
0.0
 44
0.0
 50
0.0
 51
0.0
 71
0
 72
100
 73
1
 74
1
 75
0
 76
0
 77
0
 78
0
  0
ENDTAB
  0
TABLE
  2
LTYPE
  5
5
100
AcDbSymbolTable
 70
6
  0
LTYPE
  5
14
100
AcDbSymbolTableRecord
100
AcDbLinetypeTableRecord
  2
BYBLOCK
 70
0
  3

 72
65
 73
0
 40
0.0
  0
LTYPE
  5
15
100
AcDbSymbolTableRecord
100
AcDbLinetypeTableRecord
  2
BYLAYER
 70
0
  3

 72
65
 73
0
 40
0.0
  0
LTYPE
  5
16
100
AcDbSymbolTableRecord
100
AcDbLinetypeTableRecord
  2
CONTINUOUS
 70
64
  3
Solid line
 72
65
 73
0
 40
0.0
  0
LTYPE
  5
1F5
100
AcDbSymbolTableRecord
100
AcDbLinetypeTableRecord
  2
CENTER
 70
64
  3
____ _ ____ _ ____ _ ____ _ ____ _ ____ _ ____
 72
65
 73
4
 40
0.6
 49
0.375
 74
0
 49
-0.075
 74
0
 49
0.075
 74
0
 49
-0.075
 74
0
  0
LTYPE
  5
1F6
100
AcDbSymbolTableRecord
100
AcDbLinetypeTableRecord
  2
HIDDEN
 70
64
  3
- - - - - - - - - - - - - - - - - - - -
 72
65
 73
2
 40
0.2
 49
0.1
 74
0
 49
-0.1
 74
0
  0
LTYPE
  5
1F7
100
AcDbSymbolTableRecord
100
AcDbLinetypeTableRecord
  2
PHANTOM
 70
64
  3
_____ _ _ _____ _ _ _____ _ _ _____
 72
65
 73
6
 40
0.8
 49
0.45
 74
0
 49
-0.05
 74
0
 49
0.1
 74
0
 49
-0.05
 74
0
 49
0.1
 74
0
 49
-0.05
 74
0
  0
LTYPE
  5
1F8
100
AcDbSymbolTableRecord
100
AcDbLinetypeTableRecord
  2
DOT
 70
64
  3
. . . . . . . . . . . . . . . . . . . .
 72
65
 73
2
 40
0.2
 49
0.1
 74
0
 49
-0.1
 74
0
  0
LTYPE
  5
1F9
100
AcDbSymbolTableRecord
100
AcDbLinetypeTableRecord
  2
DASHED
 70
64
  3
- - - - - - - - - - - - - - - - - - - -
 72
65
 73
2
 40
0.2
 49
0.1
 74
0
 49
-0.1
 74
0
  0
ENDTAB
  0
TABLE
  2
LAYER
  5
2
100
AcDbSymbolTable
 70
36
  0
LAYER
  5
10
100
AcDbSymbolTableRecord
100
AcDbLayerTableRecord
  2
0
 70
0
 62
7
  6
CONTINUOUS
370
-3
390
F
  0
LAYER
  5
1FA
100
AcDbSymbolTableRecord
100
AcDbLayerTableRecord
  2
DEFAULT_1
 70
0
 62
7
  6
CENTER
370
-3
390
F
  0
LAYER
  5
1FB
100
AcDbSymbolTableRecord
100
AcDbLayerTableRecord
  2
DEFAULT_2
 70
0
 62
7
  6
HIDDEN
370
-3
390
F
  0
LAYER
  5
1FC
100
AcDbSymbolTableRecord
100
AcDbLayerTableRecord
  2
DEFAULT_3
 70
0
 62
7
  6
PHANTOM
370
-3
390
F
  0
LAYER
  5
1FD
100
AcDbSymbolTableRecord
100
AcDbLayerTableRecord
  2
ASSI
 70
0
 62
7
  6
CONTINUOUS
370
-3
390
F
  0
LAYER
  5
1FE
100
AcDbSymbolTableRecord
100
AcDbLayerTableRecord
  2
COORDINATE
 70
0
 62
7
  6
CONTINUOUS
370
-3
390
F
  0
LAYER
  5
1FF
100
AcDbSymbolTableRecord
100
AcDbLayerTableRecord
  2
COPY_PUBLISH
 70
0
 62
7
  6
CONTINUOUS
370
-3
390
F
  0
LAYER
  5
200
100
AcDbSymbolTableRecord
100
AcDbLayerTableRecord
  2
COSMETICI
 70
0
 62
7
  6
CONTINUOUS
370
-3
390
F
  0
LAYER
  5
201
100
AcDbSymbolTableRecord
100
AcDbLayerTableRecord
  2
CURVE
 70
0
 62
7
  6
CONTINUOUS
370
-3
390
F
  0
LAYER
  5
202
100
AcDbSymbolTableRecord
100
AcDbLayerTableRecord
  2
DRAFT
 70
0
 62
7
  6
CONTINUOUS
370
-3
390
F
  0
LAYER
  5
203
100
AcDbSymbolTableRecord
100
AcDbLayerTableRecord
  2
IMPORT_IGES
 70
0
 62
7
  6
CONTINUOUS
370
-3
390
F
  0
LAYER
  5
204
100
AcDbSymbolTableRecord
100
AcDbLayerTableRecord
  2
INTF_1
 70
0
 62
7
  6
CONTINUOUS
370
-3
390
F
  0
LAYER
  5
205
100
AcDbSymbolTableRecord
100
AcDbLayerTableRecord
  2
INTF_11
 70
0
 62
7
  6
CONTINUOUS
370
-3
390
F
  0
LAYER
  5
206
100
AcDbSymbolTableRecord
100
AcDbLayerTableRecord
  2
NONE
 70
0
 62
7
  6
CONTINUOUS
370
-3
390
F
  0
LAYER
  5
207
100
AcDbSymbolTableRecord
100
AcDbLayerTableRecord
  2
NOTE
 70
0
 62
7
  6
CONTINUOUS
370
-3
390
F
  0
LAYER
  5
208
100
AcDbSymbolTableRecord
100
AcDbLayerTableRecord
  2
PIANI
 70
0
 62
7
  6
CONTINUOUS
370
-3
390
F
  0
LAYER
  5
209
100
AcDbSymbolTableRecord
100
AcDbLayerTableRecord
  2
PUNTI
 70
0
 62
7
  6
CONTINUOUS
370
-3
390
F
  0
LAYER
  5
20A
100
AcDbSymbolTableRecord
100
AcDbLayerTableRecord
  2
RACCORDO
 70
0
 62
7
  6
CONTINUOUS
370
-3
390
F
  0
LAYER
  5
20B
100
AcDbSymbolTableRecord
100
AcDbLayerTableRecord
  2
RGB____0____0____0__
 70
0
 62
7
  6
CONTINUOUS
370
-3
390
F
  0
LAYER
  5
20C
100
AcDbSymbolTableRecord
100
AcDbLayerTableRecord
  2
SIMBOLI
 70
0
 62
7
  6
CONTINUOUS
370
-3
390
F
  0
LAYER
  5
20D
100
AcDbSymbolTableRecord
100
AcDbLayerTableRecord
  2
SMUSSO
 70
0
 62
7
  6
CONTINUOUS
370
-3
390
F
  0
LAYER
  5
20E
100
AcDbSymbolTableRecord
100
AcDbLayerTableRecord
  2
SNAPLINE
 70
0
 62
7
  6
CONTINUOUS
370
-3
390
F
  0
LAYER
  5
20F
100
AcDbSymbolTableRecord
100
AcDbLayerTableRecord
  2
SUPERFICI
 70
0
 62
7
  6
CONTINUOUS
370
-3
390
F
  0
LAYER
  5
210
100
AcDbSymbolTableRecord
100
AcDbLayerTableRecord
  2
TRASH
 70
0
 62
7
  6
CONTINUOUS
370
-3
390
F
  0
ENDTAB
  0
TABLE
  2
STYLE
  5
3
100
AcDbSymbolTable
 70
1
  0
STYLE
  5
11
100
AcDbSymbolTableRecord
100
AcDbTextStyleTableRecord
  2
STANDARD
 70
0
 40
0.0
 41
0.8
 50
0.0
 71
0
 42
0.2
  3
txt
  4

  0
STYLE
  5
211
100
AcDbSymbolTableRecord
100
AcDbTextStyleTableRecord
  2
TEXTSTYLE_1
 70
0
 40
0.0
 41
0.8
 50
0.0
 71
0
 42
0.2
  3
gdt
  4

  0
ENDTAB
  0
TABLE
  2
VIEW
  5
6
100
AcDbSymbolTable
 70
0
  0
ENDTAB
  0
TABLE
  2
UCS
  5
7
100
AcDbSymbolTable
 70
0
  0
ENDTAB
  0
TABLE
  2
APPID
  5
9
100
AcDbSymbolTable
 70
1
  0
APPID
  5
212
100
AcDbSymbolTableRecord
100
AcDbRegAppTableRecord
  2
ACAD
 70
0
  0
ENDTAB
  0
TABLE
  2
BLOCK_RECORD
  5
1
100
AcDbSymbolTable
 70
0
  0
BLOCK_RECORD
  5
213
100
AcDbSymbolTableRecord
100
AcDbBlockTableRecord
  2
*Model_Space
  0
BLOCK_RECORD
  5
214
100
AcDbSymbolTableRecord
100
AcDbBlockTableRecord
  2
*Paper_Space
  0
BLOCK_RECORD
  5
215
100
AcDbSymbolTableRecord
100
AcDbBlockTableRecord
  2
_FILLED
  0
BLOCK_RECORD
  5
216
100
AcDbSymbolTableRecord
100
AcDbBlockTableRecord
  2
*D0
  0
BLOCK_RECORD
  5
217
100
AcDbSymbolTableRecord
100
AcDbBlockTableRecord
  2
*D1
  0
BLOCK_RECORD
  5
218
100
AcDbSymbolTableRecord
100
AcDbBlockTableRecord
  2
*D2
  0
ENDTAB
  0
TABLE
  2
DIMSTYLE
  5
A
100
AcDbSymbolTable
 70
1
100
AcDbDimStyleTable
 71
0
  0
DIMSTYLE
105
219
100
AcDbSymbolTableRecord
100
AcDbDimStyleTableRecord
  2
STANDARD
 70
0
  3

  4

 40
1.0
 41
3.0
 42
0.5
 43
0.38
 44
1.5
 45
0.0
 46
0.0
 47
0.01
 48
0.01
140
3.0
141
0.09
142
0.0
143
25.4
144
1.0
145
0.0
146
1.0
147
0.625
 71
1
 72
0
 73
0
 74
0
 75
0
 76
0
 77
1
 78
8
 79
2
170
0
171
1
172
0
173
0
174
0
175
0
176
0
177
0
178
0
270
2
179
2
271
2
272
2
273
2
274
2
275
0
280
0
281
0
282
0
283
1
284
8
285
0
286
0
287
3
288
0
340
11
278
44
341
215
342
215
343
215
344
215
  0
DIMSTYLE
105
21A
100
AcDbSymbolTableRecord
100
AcDbDimStyleTableRecord
  2
DIMSTYLE_1
 70
0
  3

  4

 40
1.0
 41
3.0
 42
0.5
 43
0.38
 44
1.5
 45
0.0
 46
0.0
 47
0.0
 48
0.0
140
3.0
141
0.09
142
0.0
143
25.4
144
1.0
145
0.0
146
1.0
147
0.75
 71
0
 72
0
 73
0
 74
0
 75
0
 76
0
 77
1
 78
8
 79
2
170
0
171
1
172
0
173
0
174
0
175
0
176
0
177
0
178
0
270
2
179
2
271
2
272
2
273
2
274
2
275
0
280
0
281
0
282
0
283
1
284
8
285
0
286
0
287
3
288
0
340
11
278
44
341
215
342
215
343
215
344
215
  0
DIMSTYLE
105
21B
100
AcDbSymbolTableRecord
100
AcDbDimStyleTableRecord
  2
DIMSTYLE_2
 70
0
  3

  4

 40
1.0
 41
3.0
 42
0.5
 43
0.38
 44
1.5
 45
0.0
 46
0.0
 47
0.0
 48
0.0
140
3.0
141
0.09
142
0.0
143
25.4
144
1.0
145
0.0
146
1.0
147
0.75
 71
0
 72
0
 73
0
 74
0
 75
0
 76
0
 77
1
 78
8
 79
2
170
0
171
1
172
0
173
0
174
0
175
0
176
0
177
0
178
0
270
2
179
2
271
0
272
0
273
2
274
2
275
0
280
0
281
0
282
0
283
1
284
8
285
0
286
0
287
3
288
0
340
11
278
44
341
215
342
215
343
215
344
215
  0
DIMSTYLE
105
21C
100
AcDbSymbolTableRecord
100
AcDbDimStyleTableRecord
  2
DIMSTYLE_3
 70
0
  3

  4

 40
1.0
 41
3.0
 42
0.5
 43
0.38
 44
1.5
 45
0.0
 46
0.0
 47
0.0
 48
0.0
140
3.0
141
0.09
142
0.0
143
25.4
144
1.0
145
0.0
146
1.0
147
0.75
 71
0
 72
0
 73
0
 74
0
 75
0
 76
0
 77
1
 78
8
 79
2
170
0
171
1
172
0
173
0
174
0
175
0
176
0
177
0
178
0
270
2
179
2
271
1
272
1
273
2
274
2
275
0
280
0
281
0
282
0
283
1
284
8
285
0
286
0
287
3
288
0
340
11
278
44
341
215
342
215
343
215
344
215
  0
ENDTAB
  0
ENDSEC
  0
SECTION
  2
BLOCKS
  0
BLOCK
  5
20
100
AcDbEntity
  8
0
100
AcDbBlockBegin
  2
*Model_Space
 70
0
 10
0.0
 20
0.0
 30
0.0
  3
*Model_Space
  1

  0
ENDBLK
  5
21
100
AcDbEntity
  8
0
100
AcDbBlockEnd
  0
BLOCK
  5
1C
100
AcDbEntity
  8
0
100
AcDbBlockBegin
  2
*Paper_Space
 70
0
 10
0.0
 20
0.0
 30
0.0
  3
*Paper_Space
  1

  0
ENDBLK
  5
1D
100
AcDbEntity
  8
0
100
AcDbBlockEnd
  0
BLOCK
  5
21D
100
AcDbEntity
  8
0
100
AcDbBlockBegin
  2
_FILLED
 70
64
 10
0.0
 20
0.0
  3
_FILLED
  1

  0
SOLID
  5
21E
100
AcDbEntity
  8
0
  6
BYBLOCK
 62
0
100
AcDbTrace
 10
0.0
 20
0.0
 11
-1.0
 21
0.3166666667
 12
-1.0
 22
-0.3166666667
 13
-1.0
 23
-0.3166666667
  0
ENDBLK
  5
21F
100
AcDbEntity
  8
0
  6
BYBLOCK
 62
0
100
AcDbBlockEnd
  0
BLOCK
  5
220
100
AcDbEntity
  8
0
100
AcDbBlockBegin
 62
7
  6
CONTINUOUS
  2
*D0
 70
65
 10
0.0
 20
0.0
  3
*D0
  1

  0
LINE
  5
221
100
AcDbEntity
  8
0
100
AcDbLine
 62
7
  6
CONTINUOUS
 10
-71.2
 20
42.65027414
 11
-71.2
 21
52.45
  0
LINE
  5
222
100
AcDbEntity
  8
0
100
AcDbLine
 62
7
  6
CONTINUOUS
 10
71.2
 20
42.65027414
 11
71.2
 21
52.45
  0
LINE
  5
223
100
AcDbEntity
  8
0
100
AcDbLine
 62
7
  6
CONTINUOUS
 10
-71.2
 20
50.95
 11
-0.0
 21
50.95
  0
LINE
  5
224
100
AcDbEntity
  8
0
100
AcDbLine
 62
7
  6
CONTINUOUS
 10
71.2
 20
50.95
 11
-0.0
 21
50.95
  0
INSERT
  5
225
100
AcDbEntity
  8
0
100
AcDbBlockReference
 62
7
  6
CONTINUOUS
  2
_FILLED
 10
-71.2
 20
50.95
 41
3.0
 42
3.0
 43
3.0
 50
180.0
  0
INSERT
  5
226
100
AcDbEntity
  8
0
100
AcDbBlockReference
 62
7
  6
CONTINUOUS
  2
_FILLED
 10
71.2
 20
50.95
 41
3.0
 42
3.0
 43
3.0
 50
0.0
  0
ENDBLK
  5
227
100
AcDbEntity
  8
0
  6
BYBLOCK
 62
0
100
AcDbBlockEnd
  0
BLOCK
  5
228
100
AcDbEntity
  8
0
100
AcDbBlockBegin
 62
7
  6
CONTINUOUS
  2
*D1
 70
65
 10
0.0
 20
0.0
  3
*D1
  1

  0
LINE
  5
229
100
AcDbEntity
  8
0
100
AcDbLine
 62
7
  6
CONTINUOUS
 10
70.90027414
 20
42.95
 11
80.7
 21
42.95
  0
LINE
  5
22A
100
AcDbEntity
  8
0
100
AcDbLine
 62
7
  6
CONTINUOUS
 10
70.85926888
 20
-42.90899474
 11
80.7
 21
-42.90899474
  0
LINE
  5
22B
100
AcDbEntity
  8
0
100
AcDbLine
 62
7
  6
CONTINUOUS
 10
79.2
 20
42.95
 11
79.2
 21
0.02050263
  0
LINE
  5
22C
100
AcDbEntity
  8
0
100
AcDbLine
 62
7
  6
CONTINUOUS
 10
79.2
 20
-42.90899474
 11
79.2
 21
0.02050263
  0
INSERT
  5
22D
100
AcDbEntity
  8
0
100
AcDbBlockReference
 62
7
  6
CONTINUOUS
  2
_FILLED
 10
79.2
 20
42.95
 41
3.0
 42
3.0
 43
3.0
 50
90.0
  0
INSERT
  5
22E
100
AcDbEntity
  8
0
100
AcDbBlockReference
 62
7
  6
CONTINUOUS
  2
_FILLED
 10
79.2
 20
-42.90899474
 41
3.0
 42
3.0
 43
3.0
 50
270.0
  0
ENDBLK
  5
22F
100
AcDbEntity
  8
0
  6
BYBLOCK
 62
0
100
AcDbBlockEnd
  0
BLOCK
  5
230
100
AcDbEntity
  8
0
100
AcDbBlockBegin
 62
7
  6
CONTINUOUS
  2
*D2
 70
65
 10
0.0
 20
0.0
  3
*D2
  1

  0
LINE
  5
231
100
AcDbEntity
  8
0
100
AcDbLine
 62
7
  6
CONTINUOUS
 10
-87.3763997978
 20
41.9532984648
 11
-87.3763997682
 21
52.111798178
  0
LINE
  5
232
100
AcDbEntity
  8
0
100
AcDbLine
 62
7
  6
CONTINUOUS
 10
-95.8094854842
 20
23.612263353
 11
-95.8094854012
 21
52.1117982026
  0
LINE
  5
233
100
AcDbEntity
  8
0
100
AcDbLine
 62
7
  6
CONTINUOUS
 10
-87.3763997725
 20
50.611798178
 11
-91.592942589
 21
50.6117981903
  0
LINE
  5
234
100
AcDbEntity
  8
0
100
AcDbLine
 62
7
  6
CONTINUOUS
 10
-91.592942589
 20
50.6117981903
 11
-80.666744315
 21
50.6117981772
  0
LINE
  5
235
100
AcDbEntity
  8
0
100
AcDbLine
 62
7
  6
CONTINUOUS
 10
-95.8094854055
 20
50.6117982026
 11
-91.592942589
 21
50.6117981903
  0
INSERT
  5
236
100
AcDbEntity
  8
0
100
AcDbBlockReference
 62
7
  6
CONTINUOUS
  2
_FILLED
 10
-87.3763997725
 20
50.611798178
 41
3.0
 42
3.0
 43
3.0
 50
359.999999833
  0
INSERT
  5
237
100
AcDbEntity
  8
0
100
AcDbBlockReference
 62
7
  6
CONTINUOUS
  2
_FILLED
 10
-95.8094854055
 20
50.6117982026
 41
3.0
 42
3.0
 43
3.0
 50
179.999999833
  0
ENDBLK
  5
238
100
AcDbEntity
  8
0
  6
BYBLOCK
 62
0
100
AcDbBlockEnd
  0
ENDSEC
  0
SECTION
  2
ENTITIES
  0
DIMENSION
  5
239
100
AcDbEntity
  8
0
100
AcDbDimension
 62
7
  6
CONTINUOUS
  2
*D0
 10
71.2
 20
50.95
 11
-5.25
 21
50.95
 70
160
 71
2
 72
2
 41
0.9
 42
142.4
  3
DIMSTYLE_1
100
AcDbAlignedDimension
 13
-71.2
 23
42.15027414
 14
71.2
 24
42.15027414
100
AcDbRotatedDimension
  0
DIMENSION
  5
23A
100
AcDbEntity
  8
0
100
AcDbDimension
 62
7
  6
CONTINUOUS
  2
*D1
 10
79.2
 20
-42.90899474
 11
79.2
 21
-2.3366402272
 70
160
 71
2
 72
2
 41
0.9
 42
85.85899474
  3
DIMSTYLE_2
100
AcDbAlignedDimension
 13
70.40027414
 23
42.95
 14
70.35926888
 24
-42.90899474
 50
270.0
100
AcDbRotatedDimension
  0
DIMENSION
  5
23B
100
AcDbEntity
  8
0
100
AcDbDimension
 62
7
  6
CONTINUOUS
  2
*D2
 10
-95.8094854055
 20
50.6117982026
 11
-87.0953157458
 21
50.6117981772
 70
160
 71
1
 72
2
 41
0.9
 42
8.433085633
  3
DIMSTYLE_3
100
AcDbAlignedDimension
 13
-87.3763997992
 23
41.4532984648
 14
-95.8094854857
 24
23.112263353
 50
179.999999833
100
AcDbRotatedDimension
  0
LWPOLYLINE
  5
23C
100
AcDbEntity
  8
ASSI
100
AcDbPolyline
 62
250
  6
CONTINUOUS
 90
19
 70
0
 10
-70.35926888
 20
-42.90899474
 10
-70.3615318749
 20
-42.9063080562
 10
-70.3637800951
 20
-42.9003756218
 10
-70.3659988623
 20
-42.8912361687
 10
-70.3681736907
 20
-42.8789493667
 10
-70.3702903812
 20
-42.8635954341
 10
-70.3723351144
 20
-42.8452746139
 10
-70.3742945404
 20
-42.8241065196
 10
-70.3761558666
 20
-42.8002293538
 10
-70.3779069406
 20
-42.7737990062
 10
-70.3795363302
 20
-42.7449880359
 10
-70.3810333972
 20
-42.7139845443
 10
-70.3823883676
 20
-42.6809909479
 10
-70.383592395
 20
-42.6462226557
 10
-70.3846376185
 20
-42.6099066638
 10
-70.3855172142
 20
-42.5722800727
 10
-70.3862254391
 20
-42.5335885397
 10
-70.3867576696
 20
-42.4940846748
 10
-70.3871104307
 20
-42.4540263917
  0
LWPOLYLINE
  5
23D
100
AcDbEntity
  8
ASSI
100
AcDbPolyline
 62
250
  6
CONTINUOUS
 90
25
 70
0
 10
-70.7048983533
 20
-42.1343352435
 10
-70.7032798118
 20
-42.1545273103
 10
-70.7004007256
 20
-42.1744965398
 10
-70.6962606765
 20
-42.1942423206
 10
-70.6908307099
 20
-42.2138340827
 10
-70.6841389267
 20
-42.2332011343
 10
-70.6762705596
 20
-42.2521327879
 10
-70.667208068
 20
-42.2706350104
 10
-70.6569683158
 20
-42.288700845
 10
-70.6456883281
 20
-42.3061005202
 10
-70.6333565046
 20
-42.3228243276
 10
-70.619984079
 20
-42.3388814681
 10
-70.6057425744
 20
-42.3540709314
 10
-70.5906221749
 20
-42.3683833068
 10
-70.5746326998
 20
-42.3818280814
 10
-70.5579753898
 20
-42.3942330165
 10
-70.5406406062
 20
-42.4055875475
 10
-70.5226383626
 20
-42.4159029087
 10
-70.5041996265
 20
-42.4250399568
 10
-70.4853184662
 20
-42.4329842647
 10
-70.4660014999
 20
-42.4397514278
 10
-70.446498718
 20
-42.4452476473
 10
-70.4268937736
 20
-42.4494421918
 10
-70.4071038957
 20
-42.4523672628
 10
-70.3871295132
 20
-42.4540235733
  0
LWPOLYLINE
  5
23E
100
AcDbEntity
  8
ASSI
100
AcDbPolyline
 62
250
  6
CONTINUOUS
 90
4
 70
0
 10
-70.7048983533
 20
-42.1343352435
 10
-70.7166714811
 20
-41.8669552916
 10
-70.7274908645
 20
-41.5870009052
 10
-70.7373557437
 20
-41.2944731854
  0
LWPOLYLINE
  5
23F
100
AcDbEntity
  8
ASSI
100
AcDbPolyline
 62
250
  6
CONTINUOUS
 90
25
 70
0
 10
-71.1590246038
 20
-42.1092987438
 10
-71.1573158365
 20
-42.1616179844
 10
-71.1521888566
 20
-42.2137142691
 10
-71.143664899
 20
-42.2653647368
 10
-71.1317789392
 20
-42.3163509575
 10
-71.1165815786
 20
-42.3664518808
 10
-71.098140588
 20
-42.415445303
 10
-71.076535977
 20
-42.4631214058
 10
-71.0518608294
 20
-42.5092769846
 10
-71.0242254706
 20
-42.5537093944
 10
-70.9937535846
 20
-42.5962250952
 10
-70.9605742296
 20
-42.6366486598
 10
-70.9248232983
 20
-42.6748164028
 10
-70.8866537438
 20
-42.7105651833
 10
-70.8462285288
 20
-42.7437423102
 10
-70.8037109707
 20
-42.7742121762
 10
-70.7592763853
 20
-42.8018457297
 10
-70.7131183593
 20
-42.8265191863
 10
-70.6654393399
 20
-42.8481222388
 10
-70.6164422839
 20
-42.8665617964
 10
-70.5663372054
 20
-42.8817576564
 10
-70.5153468045
 20
-42.8936418479
 10
-70.4636923255
 20
-42.9021637533
 10
-70.411592057
 20
-42.9072884576
 10
-70.35926888
 20
-42.90899474
  0
LINE
  5
240
100
AcDbEntity
  8
ASSI
100
AcDbLine
 62
250
  6
CONTINUOUS
 10
-70.7373557437
 20
-41.2944731854
 11
-70.7543357352
 21
-40.6688775424
  0
LINE
  5
241
100
AcDbEntity
  8
ASSI
100
AcDbLine
 62
250
  6
CONTINUOUS
 10
-70.7543357352
 20
-40.6688775424
 11
-70.7668787715
 21
-40.0056184759
  0
LINE
  5
242
100
AcDbEntity
  8
ASSI
100
AcDbLine
 62
250
  6
CONTINUOUS
 10
-70.7697532587
 20
39.802677698
 11
-70.7602516313
 21
40.3911686041
  0
LINE
  5
243
100
AcDbEntity
  8
ASSI
100
AcDbLine
 62
250
  6
CONTINUOUS
 10
-70.7602516313
 20
40.3911686041
 11
-70.7477920908
 21
40.9366219626
  0
LINE
  5
244
100
AcDbEntity
  8
ASSI
100
AcDbLine
 62
250
  6
CONTINUOUS
 10
-70.7477920908
 20
40.9366219626
 11
-70.7324892716
 21
41.4420507
  0
LWPOLYLINE
  5
245
100
AcDbEntity
  8
ASSI
100
AcDbPolyline
 62
250
  6
CONTINUOUS
 90
3
 70
0
 10
-70.7324892716
 20
41.4420507
 10
-70.7146790837
 20
41.9128674513
 10
-70.7048136186
 20
42.1349233297
  0
LWPOLYLINE
  5
246
100
AcDbEntity
  8
ASSI
100
AcDbPolyline
 62
250
  6
CONTINUOUS
 90
17
 70
0
 10
-71.1590246038
 20
42.1092987438
 10
-71.1563423964
 20
42.1113576254
 10
-71.1504215665
 20
42.1134030945
 10
-71.1413006852
 20
42.1154218259
 10
-71.1290391705
 20
42.1174006689
 10
-71.1137168997
 20
42.1193267324
 10
-71.0954336892
 20
42.1211874693
 10
-71.0743086445
 20
42.1229707578
 10
-71.0504793834
 20
42.124664981
 10
-71.0241011401
 20
42.1262591019
 10
-70.995345754
 20
42.127742736
 10
-70.9644005502
 20
42.129106218
 10
-70.9314671185
 20
42.1303406659
 10
-70.8967600014
 20
42.131438038
 10
-70.8605052955
 20
42.1323911854
 10
-70.8229391786
 20
42.1331938991
 10
-70.7843063717
 20
42.1338409499
  0
LINE
  5
247
100
AcDbEntity
  8
ASSI
100
AcDbLine
 62
250
  6
CONTINUOUS
 10
-70.7668787715
 20
-40.0056184759
 11
-70.7750092826
 21
-39.3138299538
  0
LINE
  5
248
100
AcDbEntity
  8
ASSI
100
AcDbLine
 62
250
  6
CONTINUOUS
 10
-70.7750092826
 20
-39.3138299538
 11
-70.7792393853
 21
-38.612919065
  0
LINE
  5
249
100
AcDbEntity
  8
ASSI
100
AcDbLine
 62
250
  6
CONTINUOUS
 10
-70.801548645
 20
-22.7862529781
 11
-70.8078581068
 21
-19.5318943323
  0
LINE
  5
24A
100
AcDbEntity
  8
ASSI
100
AcDbLine
 62
250
  6
CONTINUOUS
 10
-70.7792393853
 20
-38.612919065
 11
-70.780818665
 21
-37.8917452368
  0
LINE
  5
24B
100
AcDbEntity
  8
ASSI
100
AcDbLine
 62
250
  6
CONTINUOUS
 10
-70.8078581068
 20
-19.5318943323
 11
-70.8124582249
 21
-14.9559567425
  0
LINE
  5
24C
100
AcDbEntity
  8
ASSI
100
AcDbLine
 62
7
  6
CONTINUOUS
 10
-71.2
 20
42.15027414
 11
-71.2
 21
-42.15027414
  0
LINE
  5
24D
100
AcDbEntity
  8
ASSI
100
AcDbLine
 62
250
  6
CONTINUOUS
 10
-71.1569466579
 20
38.4798188876
 11
-71.1590248947
 21
42.1092990348
  0
LINE
  5
24E
100
AcDbEntity
  8
ASSI
100
AcDbLine
 62
250
  6
CONTINUOUS
 10
-70.8124582249
 20
-14.9559567425
 11
-70.8142802962
 21
-6.3173516681
  0
LINE
  5
24F
100
AcDbEntity
  8
ASSI
100
AcDbLine
 62
250
  6
CONTINUOUS
 10
-70.8142802962
 20
-6.3173516681
 11
-70.8136421576
 21
12.0880625305
  0
LINE
  5
250
100
AcDbEntity
  8
ASSI
100
AcDbLine
 62
250
  6
CONTINUOUS
 10
-70.7780789439
 20
-34.196094773
 11
-70.801548645
 21
-22.7862529781
  0
LWPOLYLINE
  5
251
100
AcDbEntity
  8
ASSI
100
AcDbPolyline
 62
250
  6
CONTINUOUS
 90
3
 70
0
 10
-71.1590241638
 20
-42.1092983038
 10
-71.1586897596
 20
-41.8448498951
 10
-71.1569466579
 20
38.4798188876
  0
LINE
  5
252
100
AcDbEntity
  8
ASSI
100
AcDbLine
 62
250
  6
CONTINUOUS
 10
-70.780818665
 20
-37.8917452368
 11
-70.7780789439
 21
-34.196094773
  0
LINE
  5
253
100
AcDbEntity
  8
ASSI
100
AcDbLine
 62
250
  6
CONTINUOUS
 10
-70.8136421576
 20
12.0880625305
 11
-70.808474933
 21
19.1061944397
  0
LINE
  5
254
100
AcDbEntity
  8
ASSI
100
AcDbLine
 62
250
  6
CONTINUOUS
 10
-70.808474933
 20
19.1061944397
 11
-70.8014298129
 21
22.8366800905
  0
LINE
  5
255
100
AcDbEntity
  8
ASSI
100
AcDbLine
 62
250
  6
CONTINUOUS
 10
-70.7818397773
 20
29.5808019682
 11
-70.780832397
 21
37.7608252823
  0
LINE
  5
256
100
AcDbEntity
  8
ASSI
100
AcDbLine
 62
250
  6
CONTINUOUS
 10
-70.8014298129
 20
22.8366800905
 11
-70.7818397773
 21
29.5808019682
  0
LINE
  5
257
100
AcDbEntity
  8
ASSI
100
AcDbLine
 62
250
  6
CONTINUOUS
 10
-70.780832397
 20
37.7608252823
 11
-70.7783164078
 21
38.8290382011
  0
LWPOLYLINE
  5
258
100
AcDbEntity
  8
ASSI
100
AcDbPolyline
 62
250
  6
CONTINUOUS
 90
3
 70
0
 10
-70.7783164078
 20
38.8290382011
 10
-70.773335817
 20
39.4895792779
 10
-70.7697532587
 20
39.802677698
  0
LWPOLYLINE
  5
259
100
AcDbEntity
  8
ASSI
100
AcDbPolyline
 62
250
  6
CONTINUOUS
 90
19
 70
0
 10
-70.3871104489
 20
42.4540263789
 10
-70.3867576875
 20
42.4940846932
 10
-70.3862254565
 20
42.5335885839
 10
-70.3855172308
 20
42.572280137
 10
-70.3846376344
 20
42.6099067409
 10
-70.3835924101
 20
42.6462227401
 10
-70.3823883818
 20
42.6809910382
 10
-70.3810334104
 20
42.7139846404
 10
-70.3795363423
 20
42.7449881357
 10
-70.3779069516
 20
42.7737991078
 10
-70.3761558762
 20
42.8002294548
 10
-70.3742945488
 20
42.8241066176
 10
-70.3723351215
 20
42.8452747063
 10
-70.3702903864
 20
42.8635955228
 10
-70.3681736941
 20
42.8789494472
 10
-70.3659988655
 20
42.8912362277
 10
-70.3637801006
 20
42.9003756516
 10
-70.3615318848
 20
42.906308061
 10
-70.3592688965
 20
42.9089947323
  0
LWPOLYLINE
  5
25A
100
AcDbEntity
  8
RACCORDO
100
AcDbPolyline
 62
250
  6
CONTINUOUS
 90
6
 70
0
 10
-44.7575902044
 20
22.8034711752
 10
-44.7571527134
 20
22.7878007497
 10
-44.7566958185
 20
22.7748357362
 10
-44.7562241945
 20
22.7647087942
 10
-44.7557426672
 20
22.7575235456
 10
-44.7552561637
 20
22.7533535128
  0
LINE
  5
25B
100
AcDbEntity
  8
RACCORDO
100
AcDbLine
 62
250
  6
CONTINUOUS
 10
-44.758389314
 20
22.8422608614
 11
-44.7575902044
 21
22.8034711752
  0
LINE
  5
25C
100
AcDbEntity
  8
RACCORDO
100
AcDbLine
 62
250
  6
CONTINUOUS
 10
-44.759060526
 20
22.8896212776
 11
-44.758389314
 21
22.8422608614
  0
LINE
  5
25D
100
AcDbEntity
  8
RACCORDO
100
AcDbLine
 62
250
  6
CONTINUOUS
 10
-44.7597693057
 20
22.9724262558
 11
-44.759060526
 21
22.8896212776
  0
LINE
  5
25E
100
AcDbEntity
  8
RACCORDO
100
AcDbLine
 62
250
  6
CONTINUOUS
 10
-45.5589022978
 20
-22.2658732005
 11
-45.5753544362
 21
-16.2205416879
  0
LINE
  5
25F
100
AcDbEntity
  8
RACCORDO
100
AcDbLine
 62
250
  6
CONTINUOUS
 10
-45.2544390123
 20
-22.2563416633
 11
-45.2671848241
 21
-17.1317293626
  0
LINE
  5
260
100
AcDbEntity
  8
RACCORDO
100
AcDbLine
 62
250
  6
CONTINUOUS
 10
-45.5753544362
 20
-16.2205416879
 11
-45.5861179283
 21
-10.7488291726
  0
LINE
  5
261
100
AcDbEntity
  8
RACCORDO
100
AcDbLine
 62
250
  6
CONTINUOUS
 10
-44.7600653309
 20
23.0625283296
 11
-44.7597693057
 21
22.9724262558
  0
LINE
  5
262
100
AcDbEntity
  8
RACCORDO
100
AcDbLine
 62
250
  6
CONTINUOUS
 10
-45.2671848241
 20
-17.1317293626
 11
-45.2751081546
 21
-12.3773518003
  0
LINE
  5
263
100
AcDbEntity
  8
RACCORDO
100
AcDbLine
 62
250
  6
CONTINUOUS
 10
-45.5861179283
 20
-10.7488291726
 11
-45.5929095371
 21
-5.5716843088
  0
LINE
  5
264
100
AcDbEntity
  8
RACCORDO
100
AcDbLine
 62
250
  6
CONTINUOUS
 10
-45.2751081546
 20
-12.3773518003
 11
-45.2814304445
 21
-6.2836953481
  0
LINE
  5
265
100
AcDbEntity
  8
RACCORDO
100
AcDbLine
 62
250
  6
CONTINUOUS
 10
-45.5929095371
 20
-5.5716843088
 11
-45.5955783384
 21
-0.8583648481
  0
LINE
  5
266
100
AcDbEntity
  8
RACCORDO
100
AcDbLine
 62
250
  6
CONTINUOUS
 10
-45.2814304445
 20
-6.2836953481
 11
-45.2837711415
 21
-0.8579880326
  0
LINE
  5
267
100
AcDbEntity
  8
RACCORDO
100
AcDbLine
 62
7
  6
CONTINUOUS
 10
-45.1
 20
22.101902651
 11
-45.1
 21
-22.101902651
  0
LINE
  5
268
100
AcDbEntity
  8
RACCORDO
100
AcDbLine
 62
250
  6
CONTINUOUS
 10
-45.2837711415
 20
-0.8579880326
 11
-45.2811619689
 21
6.6399747286
  0
LINE
  5
269
100
AcDbEntity
  8
RACCORDO
100
AcDbLine
 62
250
  6
CONTINUOUS
 10
-45.5955783384
 20
-0.8583648481
 11
-45.5931611
 21
5.3016996787
  0
LINE
  5
26A
100
AcDbEntity
  8
RACCORDO
100
AcDbLine
 62
250
  6
CONTINUOUS
 10
-45.2811619689
 20
6.6399747286
 11
-45.2738681524
 21
13.2706628864
  0
LINE
  5
26B
100
AcDbEntity
  8
RACCORDO
100
AcDbLine
 62
250
  6
CONTINUOUS
 10
-45.5931611
 20
5.3016996787
 11
-45.5860896781
 21
10.7676194672
  0
LINE
  5
26C
100
AcDbEntity
  8
RACCORDO
100
AcDbLine
 62
250
  6
CONTINUOUS
 10
-45.5860896781
 20
10.7676194672
 11
-45.5756319674
 21
16.1004506773
  0
LINE
  5
26D
100
AcDbEntity
  8
RACCORDO
100
AcDbLine
 62
250
  6
CONTINUOUS
 10
-45.2738681524
 20
13.2706628864
 11
-45.2642896016
 21
18.4543441718
  0
LINE
  5
26E
100
AcDbEntity
  8
RACCORDO
100
AcDbLine
 62
250
  6
CONTINUOUS
 10
-45.2642896016
 20
18.4543441718
 11
-45.2544390123
 21
22.2563416633
  0
LINE
  5
26F
100
AcDbEntity
  8
RACCORDO
100
AcDbLine
 62
250
  6
CONTINUOUS
 10
-45.5756319674
 20
16.1004506773
 11
-45.5589022978
 21
22.2658732005
  0
LINE
  5
270
100
AcDbEntity
  8
RACCORDO
100
AcDbLine
 62
250
  6
CONTINUOUS
 10
-44.7600653313
 20
-23.0625283296
 11
-44.7597693427
 21
-22.9724250106
  0
LINE
  5
271
100
AcDbEntity
  8
RACCORDO
100
AcDbLine
 62
250
  6
CONTINUOUS
 10
-44.7597693427
 20
-22.9724250106
 11
-44.7590605747
 21
-22.8896197062
  0
LINE
  5
272
100
AcDbEntity
  8
RACCORDO
100
AcDbLine
 62
250
  6
CONTINUOUS
 10
-44.7590605747
 20
-22.8896197062
 11
-44.7583893609
 21
-22.8422595239
  0
LWPOLYLINE
  5
273
100
AcDbEntity
  8
RACCORDO
100
AcDbPolyline
 62
250
  6
CONTINUOUS
 90
7
 70
0
 10
-44.7583893609
 20
-22.8422595239
 10
-44.757590244
 20
-22.8034702903
 10
-44.7571527479
 20
-22.7878001216
 10
-44.7566958458
 20
-22.7748353178
 10
-44.7562242121
 20
-22.7647085322
 10
-44.7557426726
 20
-22.7575234035
 10
-44.7552561545
 20
-22.7533534586
  0
LWPOLYLINE
  5
274
100
AcDbEntity
  8
RACCORDO
100
AcDbPolyline
 62
250
  6
CONTINUOUS
 90
25
 70
0
 10
-45.2544389701
 20
22.2563416211
 10
-45.2533846794
 20
22.2888883374
 10
-45.2502079476
 20
22.3213273631
 10
-45.2449130349
 20
22.3535215848
 10
-45.2375076111
 20
22.3853579564
 10
-45.2280165459
 20
22.4166745115
 10
-45.2164970275
 20
22.4472655312
 10
-45.2030094692
 20
22.4769868451
 10
-45.1876103924
 20
22.5057304343
 10
-45.1703807251
 20
22.5333568393
 10
-45.1514106842
 20
22.5597398239
 10
-45.1307791646
 20
22.5847877563
 10
-45.1085598948
 20
22.608420424
 10
-45.0848330973
 20
22.6305528692
 10
-45.0597138622
 20
22.6510792665
 10
-45.0333367741
 20
22.6698990439
 10
-45.005875436
 20
22.6869062433
 10
-44.9773949377
 20
22.7020779955
 10
-44.9478612372
 20
22.7154259201
 10
-44.9173228467
 20
22.7268933052
 10
-44.885960739
 20
22.736378445
 10
-44.8539352494
 20
22.7438129007
 10
-44.8213902572
 20
22.7491456779
 10
-44.788450618
 20
22.7523368732
 10
-44.7552561076
 20
22.7533534567
  0
LWPOLYLINE
  5
275
100
AcDbEntity
  8
RACCORDO
100
AcDbPolyline
 62
250
  6
CONTINUOUS
 90
25
 70
0
 10
-45.5589022978
 20
22.2658732005
 10
-45.557020254
 20
22.3181939325
 10
-45.5517912858
 20
22.3699195993
 10
-45.543215353
 20
22.4210501144
 10
-45.531221229
 20
22.4718348126
 10
-45.5158800606
 20
22.522024188
 10
-45.4974053479
 20
22.5708698486
 10
-45.4757494703
 20
22.6183220898
 10
-45.4509599259
 20
22.6644303452
 10
-45.4233928646
 20
22.708594866
 10
-45.3930302364
 20
22.7507672615
 10
-45.35988996
 20
22.7909956263
 10
-45.3243821272
 20
22.8288249134
 10
-45.2864566346
 20
22.8642439965
 10
-45.2461634722
 20
22.8972637407
 10
-45.2040628745
 20
22.9274620893
 10
-45.1602346994
 20
22.9547690257
 10
-45.1145990142
 20
22.9792543877
 10
-45.0674763789
 20
23.0007059251
 10
-45.0187547565
 20
23.0191547607
 10
-44.9685461588
 20
23.0345697033
 10
-44.9175072358
 20
23.0466450674
 10
-44.8658568828
 20
23.0552789819
 10
-44.813376238
 20
23.0605733824
 10
-44.7600653309
 20
23.0625283296
  0
LWPOLYLINE
  5
276
100
AcDbEntity
  8
ASSI
100
AcDbPolyline
 62
250
  6
CONTINUOUS
 90
25
 70
0
 10
70.3872032115
 20
-42.4540126886
 10
70.4071446507
 20
-42.4523611902
 10
70.4269096525
 20
-42.4494398245
 10
70.4464977873
 20
-42.4452478778
 10
70.4659944508
 20
-42.4397527822
 10
70.4853133624
 20
-42.4329856313
 10
70.5041966537
 20
-42.4250413177
 10
70.5226351064
 20
-42.4159046274
 10
70.5406372527
 20
-42.4055896065
 10
70.5579720487
 20
-42.3942353521
 10
70.5746294996
 20
-42.3818305856
 10
70.5906192251
 20
-42.3683859153
 10
70.6057398525
 20
-42.3540736662
 10
70.6199814909
 20
-42.3388844222
 10
70.6333540279
 20
-42.322827523
 10
70.6456860235
 20
-42.3061038502
 10
70.6569662866
 20
-42.2887041857
 10
70.667206375
 20
-42.2706382549
 10
70.6762692191
 20
-42.2521357517
 10
70.6841411256
 20
-42.233181724
 10
70.6908364612
 20
-42.213792108
 10
70.6962604486
 20
-42.194243257
 10
70.7003818187
 20
-42.1746277762
 10
70.7032327184
 20
-42.1548543665
 10
70.7048135721
 20
-42.1349236524
  0
LINE
  5
277
100
AcDbEntity
  8
ASSI
100
AcDbLine
 62
250
  6
CONTINUOUS
 10
70.3872032115
 20
-42.4540126886
 11
69.8592874671
 21
-42.4784571744
  0
LINE
  5
278
100
AcDbEntity
  8
ASSI
100
AcDbLine
 62
250
  6
CONTINUOUS
 10
69.8592874671
 20
-42.4784571744
 11
69.3312389709
 21
-42.5001343634
  0
LINE
  5
279
100
AcDbEntity
  8
ASSI
100
AcDbLine
 62
250
  6
CONTINUOUS
 10
69.3312389709
 20
-42.5001343634
 11
68.8034738944
 21
-42.5191080769
  0
LWPOLYLINE
  5
27A
100
AcDbEntity
  8
ASSI
100
AcDbPolyline
 62
250
  6
CONTINUOUS
 90
25
 70
0
 10
70.35926888
 20
-42.90899474
 10
70.4115916042
 20
-42.907288487
 10
70.4636910555
 20
-42.9021639202
 10
70.5153443706
 20
-42.8936423317
 10
70.5663330283
 20
-42.8817587755
 10
70.6164360902
 20
-42.8665638987
 10
70.6654316498
 20
-42.8481254239
 10
70.7131099708
 20
-42.8265233231
 10
70.7592677692
 20
-42.8018507045
 10
70.8037024365
 20
-42.774217879
 10
70.8462204251
 20
-42.7437485286
 10
70.8866463125
 20
-42.7105717002
 10
70.924816456
 20
-42.6748232445
 10
70.9605677306
 20
-42.6366560697
 10
70.9937473997
 20
-42.5962331543
 10
71.024219808
 20
-42.5537178673
 10
71.0518558916
 20
-42.5092855353
 10
71.0765318691
 20
-42.4631297344
 10
71.0981374228
 20
-42.4154529434
 10
71.1165794868
 20
-42.3664580423
 10
71.1317778225
 20
-42.3163551251
 10
71.1436644137
 20
-42.2653671773
 10
71.152188688
 20
-42.213715551
 10
71.1573158064
 20
-42.161618447
 10
71.1590246038
 20
-42.1092987438
  0
LINE
  5
27B
100
AcDbEntity
  8
ASSI
100
AcDbLine
 62
250
  6
CONTINUOUS
 10
68.8034738944
 20
-42.5191080769
 11
68.2783665007
 21
-42.5353658652
  0
LINE
  5
27C
100
AcDbEntity
  8
ASSI
100
AcDbLine
 62
250
  6
CONTINUOUS
 10
68.2783665007
 20
-42.5353658652
 11
67.7516183615
 21
-42.5492403924
  0
LWPOLYLINE
  5
27D
100
AcDbEntity
  8
ASSI
100
AcDbPolyline
 62
250
  6
CONTINUOUS
 90
3
 70
0
 10
67.7516183615
 20
-42.5492403924
 10
66.9449645723
 20
-42.5661430476
 10
66.6670748766
 20
-42.5708797776
  0
LINE
  5
27E
100
AcDbEntity
  8
ASSI
100
AcDbLine
 62
250
  6
CONTINUOUS
 10
-66.6230244573
 20
-42.5715629633
 11
-67.4251150314
 21
-42.5566556422
  0
LINE
  5
27F
100
AcDbEntity
  8
ASSI
100
AcDbLine
 62
250
  6
CONTINUOUS
 10
-67.4251150314
 20
-42.5566556422
 11
-67.9630601307
 21
-42.5439482443
  0
LINE
  5
280
100
AcDbEntity
  8
ASSI
100
AcDbLine
 62
250
  6
CONTINUOUS
 10
-67.9630601307
 20
-42.5439482443
 11
-68.5012674591
 21
-42.5287710405
  0
LINE
  5
281
100
AcDbEntity
  8
ASSI
100
AcDbLine
 62
250
  6
CONTINUOUS
 10
-68.5012674591
 20
-42.5287710405
 11
-69.0365966016
 21
-42.5110627839
  0
LINE
  5
282
100
AcDbEntity
  8
ASSI
100
AcDbLine
 62
250
  6
CONTINUOUS
 10
-69.0365966016
 20
-42.5110627839
 11
-69.5707153709
 21
-42.4906445182
  0
LWPOLYLINE
  5
283
100
AcDbEntity
  8
ASSI
100
AcDbPolyline
 62
250
  6
CONTINUOUS
 90
3
 70
0
 10
-69.5707153709
 20
-42.4906445182
 10
-70.1132902677
 20
-42.4670321779
 10
-70.3871295132
 20
-42.4540235733
  0
LWPOLYLINE
  5
284
100
AcDbEntity
  8
0
100
AcDbPolyline
 62
7
  6
CONTINUOUS
 90
3
 70
0
 43
0.3500000006
 10
-5.2499999027
 20
53.8428557739
 10
-4.3928571482
 20
54.6999982452
 10
-4.3928571482
 20
51.7000018616
  0
LINE
  5
285
100
AcDbEntity
  8
ASSI
100
AcDbLine
 62
250
  6
CONTINUOUS
 10
66.6670748766
 20
-42.5708797776
 11
65.7725771446
 21
-42.582797634
  0
LINE
  5
286
100
AcDbEntity
  8
ASSI
100
AcDbLine
 62
250
  6
CONTINUOUS
 10
70.7843063715
 20
-42.1338409499
 11
70.7048526786
 21
-42.1346522436
  0
LINE
  5
287
100
AcDbEntity
  8
ASSI
100
AcDbLine
 62
250
  6
CONTINUOUS
 10
65.7725771446
 20
-42.582797634
 11
64.7700005542
 21
-42.5911148717
  0
LINE
  5
288
100
AcDbEntity
  8
ASSI
100
AcDbLine
 62
250
  6
CONTINUOUS
 10
64.7700005542
 20
-42.5911148717
 11
63.661568225
 21
-42.5956231985
  0
LINE
  5
289
100
AcDbEntity
  8
ASSI
100
AcDbLine
 62
7
  6
CONTINUOUS
 10
-70.40027414
 20
-42.95
 11
70.40027414
 21
-42.95
  0
LWPOLYLINE
  5
28A
100
AcDbEntity
  8
ASSI
100
AcDbPolyline
 62
250
  6
CONTINUOUS
 90
3
 70
0
 10
-45.0025097942
 20
-42.905193258
 10
-64.0982192223
 20
-42.9051656293
 10
-70.3592698428
 20
-42.9089957028
  0
LINE
  5
28B
100
AcDbEntity
  8
ASSI
100
AcDbLine
 62
250
  6
CONTINUOUS
 10
50.0908669729
 20
-42.5861607241
 11
40.7432231162
 21
-42.5898155135
  0
LINE
  5
28C
100
AcDbEntity
  8
ASSI
100
AcDbLine
 62
250
  6
CONTINUOUS
 10
-35.8443123747
 20
-42.5879365921
 11
-42.2611025406
 21
-42.5895941511
  0
LINE
  5
28D
100
AcDbEntity
  8
ASSI
100
AcDbLine
 62
250
  6
CONTINUOUS
 10
63.661568225
 20
-42.5956231985
 11
62.055075903
 21
-42.596552436
  0
LINE
  5
28E
100
AcDbEntity
  8
ASSI
100
AcDbLine
 62
250
  6
CONTINUOUS
 10
52.3418080227
 20
-42.5866343037
 11
50.0908669729
 21
-42.5861607241
  0
LINE
  5
28F
100
AcDbEntity
  8
ASSI
100
AcDbLine
 62
250
  6
CONTINUOUS
 10
-42.2611025406
 20
-42.5895941511
 11
-48.0702605165
 21
-42.5867196847
  0
LINE
  5
290
100
AcDbEntity
  8
ASSI
100
AcDbLine
 62
250
  6
CONTINUOUS
 10
40.7432231162
 20
-42.5898155135
 11
33.9519995929
 21
-42.5866463592
  0
LINE
  5
291
100
AcDbEntity
  8
ASSI
100
AcDbLine
 62
250
  6
CONTINUOUS
 10
68.5253861319
 20
-42.9069235212
 11
-45.0025097942
 21
-42.905193258
  0
LWPOLYLINE
  5
292
100
AcDbEntity
  8
ASSI
100
AcDbPolyline
 62
250
  6
CONTINUOUS
 90
3
 70
0
 10
33.9519995929
 20
-42.5866463592
 10
26.9624233135
 20
-42.5810180777
 10
-35.8443123747
 20
-42.5879365921
  0
LINE
  5
293
100
AcDbEntity
  8
ASSI
100
AcDbLine
 62
250
  6
CONTINUOUS
 10
69.0488140371
 20
-42.9074006355
 11
68.5253861319
 21
-42.9069235212
  0
LINE
  5
294
100
AcDbEntity
  8
ASSI
100
AcDbLine
 62
250
  6
CONTINUOUS
 10
69.5735170885
 20
-42.9079637565
 11
69.0488140371
 21
-42.9074006355
  0
LWPOLYLINE
  5
295
100
AcDbEntity
  8
ASSI
100
AcDbPolyline
 62
250
  6
CONTINUOUS
 90
3
 70
0
 10
70.359268962
 20
-42.908994822
 10
70.0974723799
 20
-42.9086267947
 10
69.5735170885
 20
-42.9079637565
  0
LINE
  5
296
100
AcDbEntity
  8
ASSI
100
AcDbLine
 62
250
  6
CONTINUOUS
 10
-48.0702605165
 20
-42.5867196847
 11
-63.4534238189
 21
-42.5960672486
  0
LINE
  5
297
100
AcDbEntity
  8
ASSI
100
AcDbLine
 62
250
  6
CONTINUOUS
 10
62.055075903
 20
-42.596552436
 11
52.3418080227
 21
-42.5866343037
  0
LINE
  5
298
100
AcDbEntity
  8
ASSI
100
AcDbLine
 62
250
  6
CONTINUOUS
 10
-63.4534238189
 20
-42.5960672486
 11
-64.4056574593
 21
-42.5930858351
  0
LINE
  5
299
100
AcDbEntity
  8
ASSI
100
AcDbLine
 62
250
  6
CONTINUOUS
 10
-64.4056574593
 20
-42.5930858351
 11
-65.2717783701
 21
-42.5875536041
  0
LINE
  5
29A
100
AcDbEntity
  8
ASSI
100
AcDbLine
 62
250
  6
CONTINUOUS
 10
-65.2717783701
 20
-42.5875536041
 11
-66.0882963282
 21
-42.5791341379
  0
LWPOLYLINE
  5
29B
100
AcDbEntity
  8
ASSI
100
AcDbPolyline
 62
250
  6
CONTINUOUS
 90
18
 70
0
 10
-70.7048526724
 20
-42.1346522499
 10
-70.7843064191
 20
-42.1338409554
 10
-70.8229392464
 20
-42.133193904
 10
-70.8605053786
 20
-42.1323911895
 10
-70.8967600952
 20
-42.1314380413
 10
-70.9314672195
 20
-42.1303406684
 10
-70.9644006553
 20
-42.1291062197
 10
-70.9953458598
 20
-42.1277427367
 10
-71.024101243
 20
-42.1262591019
 10
-71.0504794802
 20
-42.1246649802
 10
-71.0743087325
 20
-42.1229707565
 10
-71.0954337659
 20
-42.1211874676
 10
-71.1137169648
 20
-42.1193267303
 10
-71.1290392226
 20
-42.1174006666
 10
-71.1413007206
 20
-42.1154218242
 10
-71.1504215842
 20
-42.1134030942
 10
-71.1563424004
 20
-42.1113576274
 10
-71.1590246012
 20
-42.1092987489
  0
LINE
  5
29C
100
AcDbEntity
  8
ASSI
100
AcDbLine
 62
250
  6
CONTINUOUS
 10
-66.0882963282
 20
-42.5791341379
 11
-66.6230244573
 21
-42.5715629633
  0
LINE
  5
29D
100
AcDbEntity
  8
0
100
AcDbLine
 62
7
  6
CONTINUOUS
 10
4.7849537607
 20
-27.9801797807
 11
4.2830496624
 21
-27.9801797807
  0
LINE
  5
29E
100
AcDbEntity
  8
0
100
AcDbLine
 62
7
  6
CONTINUOUS
 10
3.4839958436
 20
-27.9801797807
 11
2.9643025021
 21
-27.9801797807
  0
LINE
  5
29F
100
AcDbEntity
  8
0
100
AcDbLine
 62
7
  6
CONTINUOUS
 10
2.811079
 20
-27.98018
 11
2.261131
 21
-27.98018
  0
LINE
  5
2A0
100
AcDbEntity
  8
0
100
AcDbLine
 62
7
  6
CONTINUOUS
 10
1.271381
 20
-27.98018
 11
0.75525
 21
-27.98018
  0
LINE
  5
2A1
100
AcDbEntity
  8
0
100
AcDbLine
 62
7
  6
CONTINUOUS
 10
0.673314
 20
-27.98018
 11
0.162862
 21
-27.98018
  0
LINE
  5
2A2
100
AcDbEntity
  8
0
100
AcDbLine
 62
7
  6
CONTINUOUS
 10
-0.564753
 20
-27.98018
 11
-0.637935
 21
-27.98018
  0
LINE
  5
2A3
100
AcDbEntity
  8
0
100
AcDbLine
 62
7
  6
CONTINUOUS
 10
-1.362664
 20
-27.98018
 11
-1.86185
 21
-27.98018
  0
LINE
  5
2A4
100
AcDbEntity
  8
0
100
AcDbLine
 62
7
  6
CONTINUOUS
 10
-2.142747
 20
-27.98018
 11
-2.66454
 21
-27.98018
  0
LINE
  5
2A5
100
AcDbEntity
  8
0
100
AcDbLine
 62
7
  6
CONTINUOUS
 10
-3.661694
 20
-27.98018
 11
-4.121524
 21
-27.98018
  0
LINE
  5
2A6
100
AcDbEntity
  8
0
100
AcDbLine
 62
7
  6
CONTINUOUS
 10
2.125959
 20
-27.481144
 11
1.415364
 21
-27.481144
  0
LINE
  5
2A7
100
AcDbEntity
  8
0
100
AcDbLine
 62
7
  6
CONTINUOUS
 10
1.522099
 20
-27.094992
 11
2.021679
 21
-27.094992
  0
LINE
  5
2A8
100
AcDbEntity
  8
0
100
AcDbLine
 62
7
  6
CONTINUOUS
 10
3.7637687163
 20
-27.0019213614
 11
3.4839958436
 21
-27.0019213614
  0
LWPOLYLINE
  5
2A9
100
AcDbEntity
  8
0
100
AcDbPolyline
 62
7
  6
CONTINUOUS
 90
25
 70
0
 10
2.9643025021
 20
-25.5096494116
 10
3.017748236
 20
-25.5019452126
 10
3.0711542143
 20
-25.4945972049
 10
3.1245125334
 20
-25.4876557541
 10
3.1777710826
 20
-25.4811756383
 10
3.2309663813
 20
-25.475199621
 10
3.2842241269
 20
-25.4697627374
 10
3.3375511078
 20
-25.4649155772
 10
3.3909264241
 20
-25.4607114338
 10
3.4444349649
 20
-25.4571967061
 10
3.4980777751
 20
-25.4544268485
 10
3.5518399121
 20
-25.4524588128
 10
3.6057824934
 20
-25.4513486884
 10
3.6599557788
 20
-25.451157844
 10
3.7142951741
 20
-25.4519501461
 10
3.7686894007
 20
-25.4537842609
 10
3.823083868
 20
-25.4567148932
 10
3.8775182643
 20
-25.4608011095
 10
3.9320010847
 20
-25.4661340894
 10
3.9864806991
 20
-25.4729188258
 10
4.0407705134
 20
-25.4813746725
 10
4.094607613
 20
-25.491700125
 10
4.1478211953
 20
-25.5040964652
 10
4.2003297
 20
-25.5187823508
 10
4.2520075265
 20
-25.5359677442
  0
LWPOLYLINE
  5
2AA
100
AcDbEntity
  8
0
100
AcDbPolyline
 62
7
  6
CONTINUOUS
 90
31
 70
0
 10
3.7648934314
 20
-26.5925250773
 10
3.7861056569
 20
-26.5917770934
 10
3.8074305778
 20
-26.5904462388
 10
3.82876774
 20
-26.5884882905
 10
3.8499687525
 20
-26.5858681198
 10
3.8709918434
 20
-26.5825416557
 10
3.8918994507
 20
-26.5784376394
 10
3.9125968153
 20
-26.57350157
 10
3.9329932021
 20
-26.5676775349
 10
3.9531453379
 20
-26.5608543368
 10
3.9730334519
 20
-26.5529143035
 10
3.9924510271
 20
-26.5438024499
 10
4.0111706398
 20
-26.5334962491
 10
4.0290957866
 20
-26.5219194489
 10
4.046102485
 20
-26.5090100211
 10
4.0619630368
 20
-26.4948285996
 10
4.0766339123
 20
-26.4794843726
 10
4.0901642412
 20
-26.4630826278
 10
4.1025447259
 20
-26.4457921502
 10
4.1137874594
 20
-26.4277651931
 10
4.1239324005
 20
-26.409106536
 10
4.1330150747
 20
-26.3899107185
 10
4.1410395898
 20
-26.3703334527
 10
4.14804669
 20
-26.3504423893
 10
4.1541001092
 20
-26.3301818916
 10
4.1591951448
 20
-26.3096571377
 10
4.1633322783
 20
-26.2889549155
 10
4.166533705
 20
-26.2679808232
 10
4.1687751811
 20
-26.2467714189
 10
4.1700156739
 20
-26.2254976221
 10
4.170225122
 20
-26.2042730878
  0
LINE
  5
2AB
100
AcDbEntity
  8
RACCORDO
100
AcDbLine
 62
250
  6
CONTINUOUS
 10
-45.4698815711
 20
-22.2652527047
 11
-45.4142140516
 21
-22.2643889951
  0
LWPOLYLINE
  5
2AC
100
AcDbEntity
  8
RACCORDO
100
AcDbPolyline
 62
250
  6
CONTINUOUS
 90
3
 70
0
 10
-45.5589022978
 20
-22.2658732005
 10
-45.5288846037
 20
-22.2657600705
 10
-45.4698815711
 20
-22.2652527047
  0
LINE
  5
2AD
100
AcDbEntity
  8
RACCORDO
100
AcDbLine
 62
250
  6
CONTINUOUS
 10
44.7600653309
 20
-23.0625283296
 11
31.7537862484
 21
-23.0864776333
  0
LINE
  5
2AE
100
AcDbEntity
  8
RACCORDO
100
AcDbLine
 62
250
  6
CONTINUOUS
 10
31.7537862484
 20
-23.0864776333
 11
22.8998039151
 21
-23.0988552729
  0
LINE
  5
2AF
100
AcDbEntity
  8
RACCORDO
100
AcDbLine
 62
250
  6
CONTINUOUS
 10
44.7552561637
 20
-22.7533535128
 11
34.4287086267
 21
-22.7643007377
  0
LINE
  5
2B0
100
AcDbEntity
  8
RACCORDO
100
AcDbLine
 62
250
  6
CONTINUOUS
 10
22.8998039151
 20
-23.0988552729
 11
15.1639982383
 21
-23.106474871
  0
LINE
  5
2B1
100
AcDbEntity
  8
RACCORDO
100
AcDbLine
 62
250
  6
CONTINUOUS
 10
34.4287086267
 20
-22.7643007377
 11
22.0234485112
 21
-22.7737971366
  0
LINE
  5
2B2
100
AcDbEntity
  8
RACCORDO
100
AcDbLine
 62
250
  6
CONTINUOUS
 10
15.1639982383
 20
-23.106474871
 11
6.9024905367
 21
-23.1110843121
  0
LINE
  5
2B3
100
AcDbEntity
  8
RACCORDO
100
AcDbLine
 62
250
  6
CONTINUOUS
 10
22.0234485112
 20
-22.7737971366
 11
10.6315530109
 21
-22.778842663
  0
LINE
  5
2B4
100
AcDbEntity
  8
0
100
AcDbLine
 62
7
  6
CONTINUOUS
 10
3.4666939769
 20
-26.5925250773
 11
3.7648934314
 21
-26.5925250773
  0
LINE
  5
2B5
100
AcDbEntity
  8
0
100
AcDbLine
 62
7
  6
CONTINUOUS
 10
-4.913989
 20
-25.480444
 11
-4.347161
 21
-25.480444
  0
LINE
  5
2B6
100
AcDbEntity
  8
0
100
AcDbLine
 62
7
  6
CONTINUOUS
 10
-3.379615
 20
-25.480444
 11
-2.858179
 21
-25.480444
  0
LINE
  5
2B7
100
AcDbEntity
  8
0
100
AcDbLine
 62
7
  6
CONTINUOUS
 10
-1.636138
 20
-25.480444
 11
-1.114777
 21
-25.480444
  0
LINE
  5
2B8
100
AcDbEntity
  8
0
100
AcDbLine
 62
7
  6
CONTINUOUS
 10
-0.076702
 20
-25.480444
 11
0.439561
 21
-25.480444
  0
LINE
  5
2B9
100
AcDbEntity
  8
0
100
AcDbLine
 62
7
  6
CONTINUOUS
 10
1.539326
 20
-25.480444
 11
2.044098
 21
-25.480444
  0
LINE
  5
2BA
100
AcDbEntity
  8
0
100
AcDbLine
 62
7
  6
CONTINUOUS
 10
-2.66454
 20
-25.480294
 11
-2.142747
 21
-25.480294
  0
LINE
  5
2BB
100
AcDbEntity
  8
RACCORDO
100
AcDbLine
 62
250
  6
CONTINUOUS
 10
6.9024905367
 20
-23.1110843121
 11
-1.3184095919
 21
-23.1122121706
  0
LINE
  5
2BC
100
AcDbEntity
  8
RACCORDO
100
AcDbLine
 62
250
  6
CONTINUOUS
 10
10.6315530109
 20
-22.778842663
 11
0.0
 21
-22.7803195845
  0
LINE
  5
2BD
100
AcDbEntity
  8
RACCORDO
100
AcDbLine
 62
7
  6
CONTINUOUS
 10
-44.601902651
 20
-22.6
 11
44.601902651
 21
-22.6
  0
LINE
  5
2BE
100
AcDbEntity
  8
RACCORDO
100
AcDbLine
 62
250
  6
CONTINUOUS
 10
0.0
 20
-22.7803195845
 11
-14.8443808617
 21
-22.7774098461
  0
LINE
  5
2BF
100
AcDbEntity
  8
RACCORDO
100
AcDbLine
 62
250
  6
CONTINUOUS
 10
-1.3184095919
 20
-23.1122121706
 11
-11.8202523747
 21
-23.10877407
  0
LINE
  5
2C0
100
AcDbEntity
  8
RACCORDO
100
AcDbLine
 62
250
  6
CONTINUOUS
 10
-14.8443808617
 20
-22.7774098461
 11
-26.9722508858
 21
-22.7704698976
  0
LINE
  5
2C1
100
AcDbEntity
  8
RACCORDO
100
AcDbLine
 62
250
  6
CONTINUOUS
 10
-11.8202523747
 20
-23.10877407
 11
-21.0979455169
 21
-23.1009129564
  0
LINE
  5
2C2
100
AcDbEntity
  8
RACCORDO
100
AcDbLine
 62
250
  6
CONTINUOUS
 10
-26.9722508858
 20
-22.7704698976
 11
-41.562531005
 21
-22.7573248918
  0
LINE
  5
2C3
100
AcDbEntity
  8
RACCORDO
100
AcDbLine
 62
250
  6
CONTINUOUS
 10
-41.562531005
 20
-22.7573248918
 11
-44.7552561637
 21
-22.7533535128
  0
LINE
  5
2C4
100
AcDbEntity
  8
RACCORDO
100
AcDbLine
 62
250
  6
CONTINUOUS
 10
-21.0979455169
 20
-23.1009129564
 11
-32.2171824934
 21
-23.0857306332
  0
LINE
  5
2C5
100
AcDbEntity
  8
RACCORDO
100
AcDbLine
 62
250
  6
CONTINUOUS
 10
-32.2171824934
 20
-23.0857306332
 11
-44.7600653309
 21
-23.0625283296
  0
LINE
  5
2C6
100
AcDbEntity
  8
RACCORDO
100
AcDbLine
 62
250
  6
CONTINUOUS
 10
45.5589022978
 20
-22.2658732009
 11
45.499110754
 21
-22.2655524463
  0
LWPOLYLINE
  5
2C7
100
AcDbEntity
  8
RACCORDO
100
AcDbPolyline
 62
250
  6
CONTINUOUS
 90
13
 70
0
 10
45.499110754
 20
-22.2655524463
 10
45.4414862837
 20
-22.2648633779
 10
45.4142127093
 20
-22.2643887893
 10
45.3883330764
 20
-22.2638335548
 10
45.3641067371
 20
-22.2632032394
 10
45.3417764686
 20
-22.2625041605
 10
45.3215660368
 20
-22.261743324
 10
45.3036779836
 20
-22.2609283557
 10
45.2882915499
 20
-22.2600674227
 10
45.2755608919
 20
-22.2591691509
 10
45.2656135898
 20
-22.2582425418
 10
45.2585493488
 20
-22.257296882
 10
45.2544389701
 20
-22.2563416486
  0
LWPOLYLINE
  5
2C8
100
AcDbEntity
  8
RACCORDO
100
AcDbPolyline
 62
250
  6
CONTINUOUS
 90
25
 70
0
 10
-44.7552561095
 20
-22.7533534586
 10
-44.7879480453
 20
-22.7523690467
 10
-44.8205283422
 20
-22.7492575088
 10
-44.852859206
 20
-22.7440244842
 10
-44.8848275884
 20
-22.7366794673
 10
-44.9162706836
 20
-22.7272483714
 10
-44.9469811279
 20
-22.715788695
 10
-44.9768141942
 20
-22.7023626449
 10
-45.0056627679
 20
-22.6870280039
 10
-45.0333880761
 20
-22.6698649125
 10
-45.0598652427
 20
-22.6509638165
 10
-45.0850020897
 20
-22.6304052907
 10
-45.1087165024
 20
-22.6082643617
 10
-45.1309248265
 20
-22.5846220941
 10
-45.1515220463
 20
-22.5595947767
 10
-45.1704058702
 20
-22.5333193233
 10
-45.1874699335
 20
-22.5059738689
 10
-45.202696125
 20
-22.4776209483
 10
-45.2161011552
 20
-22.4482174206
 10
-45.2276294942
 20
-22.4178101697
 10
-45.2371790222
 20
-22.3865808284
 10
-45.2446813988
 20
-22.3546828682
 10
-45.2500847871
 20
-22.3222573059
 10
-45.2533485749
 20
-22.2894304705
 10
-45.2544389686
 20
-22.2563416196
  0
LWPOLYLINE
  5
2C9
100
AcDbEntity
  8
RACCORDO
100
AcDbPolyline
 62
250
  6
CONTINUOUS
 90
25
 70
0
 10
-44.7600653309
 20
-23.0625283296
 10
-44.8125783027
 20
-23.0607000046
 10
-44.8644864671
 20
-23.0555205764
 10
-44.9157897946
 20
-23.0469899836
 10
-44.9667387359
 20
-23.0350349902
 10
-45.0170828054
 20
-23.0197287643
 10
-45.0660705847
 20
-23.0012908865
 10
-45.1136508922
 20
-22.9796747987
 10
-45.1598749335
 20
-22.9549271251
 10
-45.2041448883
 20
-22.9274072603
 10
-45.2464134475
 20
-22.8970966025
 10
-45.2867279968
 20
-22.8640139359
 10
-45.3246327699
 20
-22.8285747574
 10
-45.3601158352
 20
-22.7907287314
 10
-45.3931892372
 20
-22.7505264538
 10
-45.4234331738
 20
-22.7085348164
 10
-45.4507744826
 20
-22.6648408101
 10
-45.475286449
 20
-22.6193577215
 10
-45.4967689344
 20
-22.5723918658
 10
-45.5152569437
 20
-22.5238308059
 10
-45.5307155991
 20
-22.473787261
 10
-45.5428399194
 20
-22.422905239
 10
-45.5515282704
 20
-22.3713994649
 10
-45.5568823807
 20
-22.3190554178
 10
-45.5589022978
 20
-22.2658732005
  0
LWPOLYLINE
  5
2CA
100
AcDbEntity
  8
0
100
AcDbPolyline
 62
7
  6
CONTINUOUS
 90
10
 70
0
 10
3.8754584185
 20
-25.891582365
 10
3.8317233574
 20
-25.8872413785
 10
3.7874286771
 20
-25.8843256508
 10
3.7426387292
 20
-25.8828728456
 10
3.6974434574
 20
-25.8829205173
 10
3.6518924047
 20
-25.8845057984
 10
3.6059951364
 20
-25.887672849
 10
3.5598089214
 20
-25.8924670513
 10
3.5133885951
 20
-25.898784324
 10
3.4666939769
 20
-25.906298925
  0
LWPOLYLINE
  5
2CB
100
AcDbEntity
  8
0
100
AcDbPolyline
 62
7
  6
CONTINUOUS
 90
61
 70
0
 10
4.2520075265
 20
-25.5359677442
 10
4.2799228184
 20
-25.5472239625
 10
4.308140647
 20
-25.560968406
 10
4.3365632789
 20
-25.5771341137
 10
4.3650148372
 20
-25.5955383163
 10
4.3934564758
 20
-25.6161028143
 10
4.4219190631
 20
-25.6390761333
 10
4.4502637959
 20
-25.6646933257
 10
4.4781202806
 20
-25.6930111048
 10
4.5051146807
 20
-25.7240590577
 10
4.5311517326
 20
-25.7581711425
 10
4.5556849271
 20
-25.7950875742
 10
4.5778337789
 20
-25.8337484658
 10
4.5975031936
 20
-25.8741157136
 10
4.614466973
 20
-25.9158791502
 10
4.6282232955
 20
-25.957329624
 10
4.6389530306
 20
-25.9977834481
 10
4.6470899267
 20
-26.0374477225
 10
4.6529136038
 20
-26.0758906851
 10
4.6567372615
 20
-26.1127318182
 10
4.6588948219
 20
-26.1480929954
 10
4.6595946458
 20
-26.1823333194
 10
4.6589435355
 20
-26.2154823782
 10
4.6570491842
 20
-26.2473814038
 10
4.6540071014
 20
-26.2781305311
 10
4.6499099763
 20
-26.3077188389
 10
4.6448579132
 20
-26.3361057856
 10
4.6389329613
 20
-26.3633577701
 10
4.632228608
 20
-26.3894625487
 10
4.624832508
 20
-26.4144340133
 10
4.616798419
 20
-26.4383781279
 10
4.6082196151
 20
-26.4612691167
 10
4.5991891194
 20
-26.4830899506
 10
4.5897384414
 20
-26.5039491596
 10
4.5799415374
 20
-26.5238323174
 10
4.5698691201
 20
-26.5427309809
 10
4.5595178309
 20
-26.5607617118
 10
4.5489277716
 20
-26.577941736
 10
4.5381612476
 20
-26.5942514672
 10
4.5272285839
 20
-26.6097486673
 10
4.5161617014
 20
-26.6244513079
 10
4.5050093773
 20
-26.6383552551
 10
4.4938010367
 20
-26.6515051427
 10
4.4825715983
 20
-26.6639712318
 10
4.4713659557
 20
-26.675806558
 10
4.4602284634
 20
-26.6870568432
 10
4.4491943196
 20
-26.6977691975
 10
4.4382947807
 20
-26.7079863789
 10
4.4275656313
 20
-26.7177395009
 10
4.4170527146
 20
-26.7270444942
 10
4.4067643957
 20
-26.7359442005
 10
4.3966752104
 20
-26.7445025419
 10
4.3868534049
 20
-26.7526978945
 10
4.3772690382
 20
-26.7605798768
 10
4.367711385
 20
-26.7681992846
 10
4.3581536202
 20
-26.7753362523
 10
4.3485447029
 20
-26.7818122911
 10
4.3385896707
 20
-26.7875993992
 10
4.3281442218
 20
-26.792508422
 10
4.3172362771
 20
-26.7962439129
 10
4.3058063972
 20
-26.7985541322
  0
LWPOLYLINE
  5
2CC
100
AcDbEntity
  8
0
100
AcDbPolyline
 62
7
  6
CONTINUOUS
 90
3
 70
0
 10
4.3058063972
 20
-26.8133253901
 10
4.3305846746
 20
-26.8246246229
 10
4.3535942456
 20
-26.8378228315
  0
LINE
  5
2CD
100
AcDbEntity
  8
ASSI
100
AcDbLine
 62
250
  6
CONTINUOUS
 10
-71.1590241638
 20
-42.1092983038
 11
-71.2
 21
-42.15027414
  0
LINE
  5
2CE
100
AcDbEntity
  8
ASSI
100
AcDbLine
 62
250
  6
CONTINUOUS
 10
-70.3592698428
 20
-42.9089957028
 11
-70.40027414
 21
-42.95
  0
LINE
  5
2CF
100
AcDbEntity
  8
RACCORDO
100
AcDbLine
 62
250
  6
CONTINUOUS
 10
-45.2544390123
 20
-22.2563416633
 11
-45.1
 21
-22.101902651
  0
LWPOLYLINE
  5
2D0
100
AcDbEntity
  8
RACCORDO
100
AcDbPolyline
 62
250
  6
CONTINUOUS
 90
11
 70
0
 10
-45.4142140516
 20
-22.2643889951
 10
-45.3883344159
 20
-22.2638337815
 10
-45.364107998
 20
-22.2632034779
 10
-45.341777589
 20
-22.2625044014
 10
-45.3215669788
 20
-22.261743558
 10
-45.3036787128
 20
-22.2609285723
 10
-45.2882920627
 20
-22.260067612
 10
-45.2755612297
 20
-22.2591693059
 10
-45.2656137988
 20
-22.2582426565
 10
-45.2585494607
 20
-22.2572969499
 10
-45.2544390123
 20
-22.2563416633
  0
LWPOLYLINE
  5
2D1
100
AcDbEntity
  8
0
100
AcDbPolyline
 62
7
  6
CONTINUOUS
 90
23
 70
0
 10
4.3535942456
 20
-26.8378228315
 10
4.3749462226
 20
-26.8526331595
 10
4.3947890472
 20
-26.8688289454
 10
4.4131748905
 20
-26.8861353473
 10
4.4300824357
 20
-26.9041966399
 10
4.4455379177
 20
-26.9226828666
 10
4.4597323727
 20
-26.9414847655
 10
4.4728808347
 20
-26.960608515
 10
4.4850522683
 20
-26.9799137755
 10
4.4963116117
 20
-26.9992736248
 10
4.5068234515
 20
-27.0187728127
 10
4.5166465616
 20
-27.0383545006
 10
4.525801942
 20
-27.0578992532
 10
4.5343695068
 20
-27.0774264506
 10
4.5423759427
 20
-27.0968579157
 10
4.5498531725
 20
-27.1161347925
 10
4.5568717671
 20
-27.135316152
 10
4.5634495278
 20
-27.1543389904
 10
4.5696065526
 20
-27.1731496096
 10
4.5754181501
 20
-27.1918530037
 10
4.5809602099
 20
-27.2105305483
 10
4.5862808901
 20
-27.2291643497
 10
4.5914380822
 20
-27.2477612954
  0
LINE
  5
2D2
100
AcDbEntity
  8
ASSI
100
AcDbLine
 62
250
  6
CONTINUOUS
 10
-71.1590248947
 20
42.1092990348
 11
-71.2
 21
42.15027414
  0
LINE
  5
2D3
100
AcDbEntity
  8
ASSI
100
AcDbLine
 62
250
  6
CONTINUOUS
 10
-70.3592689474
 20
42.9089948074
 11
-70.40027414
 21
42.95
  0
LINE
  5
2D4
100
AcDbEntity
  8
RACCORDO
100
AcDbLine
 62
250
  6
CONTINUOUS
 10
-45.2544390123
 20
22.2563416633
 11
-45.1
 21
22.101902651
  0
LWPOLYLINE
  5
2D5
100
AcDbEntity
  8
0
100
AcDbPolyline
 62
7
  6
CONTINUOUS
 90
3
 70
0
 43
0.3500000006
 10
1.8928570933
 20
51.9857129974
 10
1.8214286013
 20
51.7714285126
 10
1.6785714755
 20
51.4857128448
  0
LINE
  5
2D6
100
AcDbEntity
  8
RACCORDO
100
AcDbLine
 62
250
  6
CONTINUOUS
 10
-44.7552561637
 20
-22.7533535128
 11
-44.601902651
 21
-22.6
  0
LINE
  5
2D7
100
AcDbEntity
  8
RACCORDO
100
AcDbLine
 62
250
  6
CONTINUOUS
 10
-44.7552561637
 20
22.7533535128
 11
-44.601902651
 21
22.6
  0
LINE
  5
2D8
100
AcDbEntity
  8
0
100
AcDbLine
 62
7
  6
CONTINUOUS
 10
-0.637935
 20
-27.98018
 11
-1.250061
 21
-26.3479
  0
LINE
  5
2D9
100
AcDbEntity
  8
0
100
AcDbLine
 62
7
  6
CONTINUOUS
 10
-4.121524
 20
-27.98018
 11
-4.913989
 21
-25.480444
  0
LINE
  5
2DA
100
AcDbEntity
  8
0
100
AcDbLine
 62
7
  6
CONTINUOUS
 10
-4.347161
 20
-25.480444
 11
-3.870666
 21
-27.20109
  0
LWPOLYLINE
  5
2DB
100
AcDbEntity
  8
0
100
AcDbPolyline
 62
7
  6
CONTINUOUS
 90
19
 70
0
 10
4.054823388
 20
-27.2220207429
 10
4.0466616638
 20
-27.2019687173
 10
4.0373893413
 20
-27.1822900858
 10
4.0270582888
 20
-27.1631114591
 10
4.0157469167
 20
-27.1445973652
 10
4.0034815397
 20
-27.1268186588
 10
3.9902125235
 20
-27.1097686602
 10
3.9759560429
 20
-27.0935625567
 10
3.9607477967
 20
-27.078339657
 10
3.9445322922
 20
-27.0641604746
 10
3.9272691013
 20
-27.0511348576
 10
3.9090220243
 20
-27.0394619537
 10
3.8898915748
 20
-27.0293383209
 10
3.8699826117
 20
-27.0208500441
 10
3.849418114
 20
-27.0139639399
 10
3.8283564883
 20
-27.0086547236
 10
3.8069557662
 20
-27.0048959157
 10
3.7853733902
 20
-27.0026604692
 10
3.7637687163
 20
-27.0019213614
  0
LINE
  5
2DC
100
AcDbEntity
  8
0
100
AcDbLine
 62
7
  6
CONTINUOUS
 10
-1.114777
 20
-25.480444
 11
-0.598495
 21
-26.868305
  0
LINE
  5
2DD
100
AcDbEntity
  8
0
100
AcDbLine
 62
7
  6
CONTINUOUS
 10
2.044098
 20
-25.480444
 11
2.811079
 21
-27.98018
  0
LINE
  5
2DE
100
AcDbEntity
  8
0
100
AcDbLine
 62
7
  6
CONTINUOUS
 10
2.261131
 20
-27.98018
 11
2.125959
 21
-27.481144
  0
LINE
  5
2DF
100
AcDbEntity
  8
0
100
AcDbLine
 62
7
  6
CONTINUOUS
 10
2.021679
 20
-27.094992
 11
1.781908
 21
-26.167308
  0
LINE
  5
2E0
100
AcDbEntity
  8
0
100
AcDbLine
 62
7
  6
CONTINUOUS
 10
0.439561
 20
-25.480444
 11
0.673314
 21
-27.98018
  0
LINE
  5
2E1
100
AcDbEntity
  8
0
100
AcDbLine
 62
7
  6
CONTINUOUS
 10
0.162862
 20
-27.98018
 11
0.055658
 21
-26.354704
  0
LINE
  5
2E2
100
AcDbEntity
  8
0
100
AcDbLine
 62
7
  6
CONTINUOUS
 10
-2.66454
 20
-27.98018
 11
-2.66454
 21
-25.480294
  0
LWPOLYLINE
  5
2E3
100
AcDbEntity
  8
0
100
AcDbPolyline
 62
7
  6
CONTINUOUS
 90
2
 70
0
 43
0.3500000006
 10
-2.5357143717
 20
51.7000018616
 10
-2.5357143717
 20
53.1999977875
  0
LINE
  5
2E4
100
AcDbEntity
  8
0
100
AcDbLine
 62
7
  6
CONTINUOUS
 10
-2.142747
 20
-25.480294
 11
-2.142747
 21
-27.98018
  0
LINE
  5
2E5
100
AcDbEntity
  8
ASSI
100
AcDbLine
 62
250
  6
CONTINUOUS
 10
-0.0
 20
42.9056983419
 11
-0.0
 21
42.5700727438
  0
LINE
  5
2E6
100
AcDbEntity
  8
RACCORDO
100
AcDbLine
 62
250
  6
CONTINUOUS
 10
-0.0
 20
42.5700727438
 11
0.0
 21
22.7803195845
  0
LINE
  5
2E7
100
AcDbEntity
  8
ASSI
100
AcDbLine
 62
250
  6
CONTINUOUS
 10
0.0
 20
-42.9056983419
 11
0.0
 21
-42.5700727438
  0
LINE
  5
2E8
100
AcDbEntity
  8
0
100
AcDbLine
 62
250
  6
CONTINUOUS
 10
0.0
 20
-42.5700727438
 11
-0.0
 21
-23.112263353
  0
LINE
  5
2E9
100
AcDbEntity
  8
RACCORDO
100
AcDbLine
 62
250
  6
CONTINUOUS
 10
-0.0
 20
-23.112263353
 11
-0.0
 21
-22.7803195845
  0
LINE
  5
2EA
100
AcDbEntity
  8
0
100
AcDbLine
 62
7
  6
CONTINUOUS
 10
-1.250061
 20
-26.3479
 11
-1.362664
 21
-27.98018
  0
LINE
  5
2EB
100
AcDbEntity
  8
0
100
AcDbLine
 62
7
  6
CONTINUOUS
 10
-1.86185
 20
-27.98018
 11
-1.636138
 21
-25.480444
  0
LWPOLYLINE
  5
2EC
100
AcDbEntity
  8
0
100
AcDbPolyline
 62
7
  6
CONTINUOUS
 90
4
 70
0
 43
0.3500000006
 10
78.021432312
 20
-2.3366399803
 10
77.1642853088
 20
-2.3366399803
 10
76.7357163391
 20
-1.9080687447
 10
76.7357163391
 20
-1.2652118912
  0
LINE
  5
2ED
100
AcDbEntity
  8
ASSI
100
AcDbLine
 62
250
  6
CONTINUOUS
 10
-71.1558639132
 20
-0.0
 11
-70.8141799291
 21
-0.0
  0
LINE
  5
2EE
100
AcDbEntity
  8
ASSI
100
AcDbLine
 62
250
  6
CONTINUOUS
 10
71.1558639132
 20
-0.0
 11
70.8141799291
 21
-0.0
  0
LINE
  5
2EF
100
AcDbEntity
  8
RACCORDO
100
AcDbLine
 62
250
  6
CONTINUOUS
 10
45.2838324102
 20
0.0
 11
70.8141799291
 21
-0.0
  0
LINE
  5
2F0
100
AcDbEntity
  8
RACCORDO
100
AcDbLine
 62
250
  6
CONTINUOUS
 10
-45.2838324102
 20
0.0
 11
-70.8141799291
 21
-0.0
  0
LWPOLYLINE
  5
2F1
100
AcDbEntity
  8
0
100
AcDbPolyline
 62
7
  6
CONTINUOUS
 90
8
 70
0
 10
4.1346468225
 20
-27.4669452011
 10
4.1242396146
 20
-27.4316452556
 10
4.1136054447
 20
-27.3964531976
 10
4.1026901473
 20
-27.3613913898
 10
4.0914144821
 20
-27.3264044827
 10
4.0797127608
 20
-27.2914877671
 10
4.0675351144
 20
-27.2566864013
 10
4.0548233605
 20
-27.2220207532
  0
LINE
  5
2F2
100
AcDbEntity
  8
0
100
AcDbLine
 62
7
  6
CONTINUOUS
 10
4.2719180325
 20
-27.9416487243
 11
4.1958900721
 21
-27.681506484
  0
LINE
  5
2F3
100
AcDbEntity
  8
0
100
AcDbLine
 62
7
  6
CONTINUOUS
 10
4.2830496624
 20
-27.9801797807
 11
4.2719180325
 21
-27.9416487243
  0
LINE
  5
2F4
100
AcDbEntity
  8
0
100
AcDbLine
 62
7
  6
CONTINUOUS
 10
4.1550289224
 20
-27.5378850318
 11
4.1346468225
 21
-27.4669452011
  0
LINE
  5
2F5
100
AcDbEntity
  8
0
100
AcDbLine
 62
7
  6
CONTINUOUS
 10
4.1958900721
 20
-27.681506484
 11
4.1550289224
 21
-27.5378850318
  0
LINE
  5
2F6
100
AcDbEntity
  8
0
100
AcDbLine
 62
7
  6
CONTINUOUS
 10
4.765734205
 20
-27.9083359947
 11
4.7849537607
 21
-27.9801797807
  0
LINE
  5
2F7
100
AcDbEntity
  8
0
100
AcDbLine
 62
7
  6
CONTINUOUS
 10
4.5914380822
 20
-27.2477612954
 11
4.6484076316
 21
-27.4595171803
  0
LINE
  5
2F8
100
AcDbEntity
  8
0
100
AcDbLine
 62
7
  6
CONTINUOUS
 10
4.6484076316
 20
-27.4595171803
 11
4.765734205
 21
-27.9083359947
  0
LWPOLYLINE
  5
2F9
100
AcDbEntity
  8
0
100
AcDbPolyline
 62
7
  6
CONTINUOUS
 90
19
 70
0
 10
4.1702251436
 20
-26.2042730875
 10
4.1689515228
 20
-26.1808094063
 10
4.1658019893
 20
-26.1569828217
 10
4.1607444707
 20
-26.1329680848
 10
4.1537613963
 20
-26.10898976
 10
4.144820317
 20
-26.0852160898
 10
4.133847195
 20
-26.0617687355
 10
4.120731793
 20
-26.0387913769
 10
4.1054841481
 20
-26.016676781
 10
4.0882490396
 20
-25.9959218981
 10
4.0690605039
 20
-25.976777858
 10
4.0480563078
 20
-25.9593683989
 10
4.0256599628
 20
-25.9438938145
 10
4.0021886252
 20
-25.9303942444
 10
3.9777982605
 20
-25.9188115437
 10
3.9527115898
 20
-25.9091419027
 10
3.9271485488
 20
-25.901382359
 10
3.9013265801
 20
-25.8955302459
 10
3.8754584186
 20
-25.8915823649
  0
LINE
  5
2FA
100
AcDbEntity
  8
0
100
AcDbLine
 62
7
  6
CONTINUOUS
 10
2.9643025021
 20
-27.9801797807
 11
2.9643025021
 21
-25.5096494116
  0
LINE
  5
2FB
100
AcDbEntity
  8
0
100
AcDbLine
 62
7
  6
CONTINUOUS
 10
3.4666939769
 20
-25.906298925
 11
3.4666939769
 21
-26.5925250773
  0
LINE
  5
2FC
100
AcDbEntity
  8
0
100
AcDbLine
 62
7
  6
CONTINUOUS
 10
3.4839958436
 20
-27.0019213614
 11
3.4839958436
 21
-27.9801797807
  0
LWPOLYLINE
  5
2FD
100
AcDbEntity
  8
0
100
AcDbPolyline
 62
7
  6
CONTINUOUS
 90
2
 70
0
 43
0.3500000006
 10
3.8928572788
 20
51.7000018616
 10
3.8928572788
 20
53.1999977875
  0
LINE
  5
2FE
100
AcDbEntity
  8
0
100
AcDbLine
 62
7
  6
CONTINUOUS
 10
4.3058063972
 20
-26.7985541322
 11
4.3058063972
 21
-26.8133253901
  0
LINE
  5
2FF
100
AcDbEntity
  8
0
100
AcDbLine
 62
7
  6
CONTINUOUS
 10
-3.870666
 20
-27.20109
 11
-3.379615
 21
-25.480444
  0
LINE
  5
300
100
AcDbEntity
  8
0
100
AcDbLine
 62
7
  6
CONTINUOUS
 10
-2.858179
 20
-25.480444
 11
-3.661694
 21
-27.98018
  0
LINE
  5
301
100
AcDbEntity
  8
0
100
AcDbLine
 62
7
  6
CONTINUOUS
 10
1.781908
 20
-26.167308
 11
1.522099
 21
-27.094992
  0
LINE
  5
302
100
AcDbEntity
  8
0
100
AcDbLine
 62
7
  6
CONTINUOUS
 10
1.415364
 20
-27.481144
 11
1.271381
 21
-27.98018
  0
LINE
  5
303
100
AcDbEntity
  8
0
100
AcDbLine
 62
7
  6
CONTINUOUS
 10
0.75525
 20
-27.98018
 11
1.539326
 21
-25.480444
  0
LINE
  5
304
100
AcDbEntity
  8
0
100
AcDbLine
 62
7
  6
CONTINUOUS
 10
-0.598495
 20
-26.868305
 11
-0.076702
 21
-25.480444
  0
LINE
  5
305
100
AcDbEntity
  8
0
100
AcDbLine
 62
7
  6
CONTINUOUS
 10
0.055658
 20
-26.354704
 11
-0.564753
 21
-27.98018
  0
LINE
  5
306
100
AcDbEntity
  8
RACCORDO
100
AcDbLine
 62
250
  6
CONTINUOUS
 10
44.7552561637
 20
22.7533535128
 11
44.601902651
 21
22.6
  0
LINE
  5
307
100
AcDbEntity
  8
RACCORDO
100
AcDbLine
 62
250
  6
CONTINUOUS
 10
45.2544390123
 20
22.2563416633
 11
45.1
 21
22.101902651
  0
LINE
  5
308
100
AcDbEntity
  8
RACCORDO
100
AcDbLine
 62
250
  6
CONTINUOUS
 10
44.7552561637
 20
-22.7533535128
 11
44.601902651
 21
-22.6
  0
LINE
  5
309
100
AcDbEntity
  8
RACCORDO
100
AcDbLine
 62
250
  6
CONTINUOUS
 10
45.2544390123
 20
-22.2563416633
 11
45.1
 21
-22.101902651
  0
LINE
  5
30A
100
AcDbEntity
  8
ASSI
100
AcDbLine
 62
250
  6
CONTINUOUS
 10
70.3592698811
 20
42.908995741
 11
70.40027414
 21
42.95
  0
LINE
  5
30B
100
AcDbEntity
  8
ASSI
100
AcDbLine
 62
250
  6
CONTINUOUS
 10
71.1590241637
 20
42.1092983037
 11
71.2
 21
42.15027414
  0
LWPOLYLINE
  5
30C
100
AcDbEntity
  8
RACCORDO
100
AcDbPolyline
 62
250
  6
CONTINUOUS
 90
10
 70
0
 10
45.3883344159
 20
22.2638337815
 10
45.364107998
 20
22.2632034779
 10
45.341777589
 20
22.2625044014
 10
45.3215669788
 20
22.261743558
 10
45.3036787128
 20
22.2609285723
 10
45.2882920627
 20
22.260067612
 10
45.2755612297
 20
22.2591693059
 10
45.2656137988
 20
22.2582426565
 10
45.2585494607
 20
22.2572969499
 10
45.2544390123
 20
22.2563416633
  0
LINE
  5
30D
100
AcDbEntity
  8
RACCORDO
100
AcDbLine
 62
250
  6
CONTINUOUS
 10
45.4414875461
 20
22.2648635547
 11
45.3883344159
 21
22.2638337815
  0
LINE
  5
30E
100
AcDbEntity
  8
RACCORDO
100
AcDbLine
 62
250
  6
CONTINUOUS
 10
45.4991115689
 20
22.2655525452
 11
45.4414875461
 21
22.2648635547
  0
LINE
  5
30F
100
AcDbEntity
  8
RACCORDO
100
AcDbLine
 62
250
  6
CONTINUOUS
 10
45.5589022978
 20
22.2658732005
 11
45.4991115689
 21
22.2655525452
  0
LINE
  5
310
100
AcDbEntity
  8
RACCORDO
100
AcDbLine
 62
250
  6
CONTINUOUS
 10
-44.7552561637
 20
22.7533535128
 11
-30.4034987121
 21
22.7677889805
  0
LINE
  5
311
100
AcDbEntity
  8
RACCORDO
100
AcDbLine
 62
250
  6
CONTINUOUS
 10
-30.4034987121
 20
22.7677889805
 11
-17.2555805803
 21
22.7763606359
  0
LINE
  5
312
100
AcDbEntity
  8
RACCORDO
100
AcDbLine
 62
7
  6
CONTINUOUS
 10
44.601902651
 20
22.6
 11
-44.601902651
 21
22.6
  0
LINE
  5
313
100
AcDbEntity
  8
RACCORDO
100
AcDbLine
 62
250
  6
CONTINUOUS
 10
-17.2555805803
 20
22.7763606359
 11
1.3182936556
 21
22.7802929667
  0
LINE
  5
314
100
AcDbEntity
  8
RACCORDO
100
AcDbLine
 62
250
  6
CONTINUOUS
 10
1.3182936556
 20
22.7802929667
 11
12.850906611
 21
22.7781495085
  0
LINE
  5
315
100
AcDbEntity
  8
RACCORDO
100
AcDbLine
 62
250
  6
CONTINUOUS
 10
12.850906611
 20
22.7781495085
 11
23.4352517373
 21
22.7729140319
  0
LINE
  5
316
100
AcDbEntity
  8
RACCORDO
100
AcDbLine
 62
250
  6
CONTINUOUS
 10
23.4352517373
 20
22.7729140319
 11
36.7601363216
 21
22.762163313
  0
LINE
  5
317
100
AcDbEntity
  8
RACCORDO
100
AcDbLine
 62
250
  6
CONTINUOUS
 10
36.7601363216
 20
22.762163313
 11
44.7552561637
 21
22.7533535128
  0
LINE
  5
318
100
AcDbEntity
  8
RACCORDO
100
AcDbLine
 62
250
  6
CONTINUOUS
 10
-45.5589022978
 20
22.2658732009
 11
-45.499110754
 21
22.2655524463
  0
LINE
  5
319
100
AcDbEntity
  8
RACCORDO
100
AcDbLine
 62
250
  6
CONTINUOUS
 10
-45.499110754
 20
22.2655524463
 11
-45.4414862837
 21
22.2648633779
  0
LWPOLYLINE
  5
31A
100
AcDbEntity
  8
RACCORDO
100
AcDbPolyline
 62
250
  6
CONTINUOUS
 90
11
 70
0
 10
-45.4414862837
 20
22.2648633779
 10
-45.3883330764
 20
22.2638335548
 10
-45.3641067371
 20
22.2632032394
 10
-45.3417764686
 20
22.2625041605
 10
-45.3215660368
 20
22.261743324
 10
-45.3036779836
 20
22.2609283557
 10
-45.2882915499
 20
22.2600674227
 10
-45.2755608919
 20
22.2591691509
 10
-45.2656135898
 20
22.2582425418
 10
-45.2585493488
 20
22.257296882
 10
-45.2544389701
 20
22.2563416486
  0
LINE
  5
31B
100
AcDbEntity
  8
ASSI
100
AcDbLine
 62
250
  6
CONTINUOUS
 10
70.359268962
 20
-42.908994822
 11
70.40027414
 21
-42.95
  0
LINE
  5
31C
100
AcDbEntity
  8
ASSI
100
AcDbLine
 62
250
  6
CONTINUOUS
 10
71.1590248943
 20
-42.1092990343
 11
71.2
 21
-42.15027414
  0
LINE
  5
31D
100
AcDbEntity
  8
RACCORDO
100
AcDbLine
 62
250
  6
CONTINUOUS
 10
-44.7600653309
 20
23.0625283296
 11
-33.7627977716
 21
23.0831702351
  0
LINE
  5
31E
100
AcDbEntity
  8
RACCORDO
100
AcDbLine
 62
250
  6
CONTINUOUS
 10
-33.7627977716
 20
23.0831702351
 11
-22.8998039152
 21
23.0988552729
  0
LINE
  5
31F
100
AcDbEntity
  8
RACCORDO
100
AcDbLine
 62
250
  6
CONTINUOUS
 10
-22.8998039152
 20
23.0988552729
 11
-12.9590934794
 21
23.1080588743
  0
LINE
  5
320
100
AcDbEntity
  8
RACCORDO
100
AcDbLine
 62
250
  6
CONTINUOUS
 10
-12.9590934794
 20
23.1080588743
 11
-2.8667897878
 21
23.1120535608
  0
LINE
  5
321
100
AcDbEntity
  8
RACCORDO
100
AcDbLine
 62
250
  6
CONTINUOUS
 10
-2.8667897878
 20
23.1120535608
 11
7.4380869916
 21
23.1108945222
  0
LINE
  5
322
100
AcDbEntity
  8
RACCORDO
100
AcDbLine
 62
250
  6
CONTINUOUS
 10
7.4380869916
 20
23.1108945222
 11
15.8075897238
 21
23.1059629084
  0
LINE
  5
323
100
AcDbEntity
  8
RACCORDO
100
AcDbLine
 62
250
  6
CONTINUOUS
 10
15.8075897238
 20
23.1059629084
 11
24.1774402115
 21
23.0972982252
  0
LINE
  5
324
100
AcDbEntity
  8
RACCORDO
100
AcDbLine
 62
250
  6
CONTINUOUS
 10
24.1774402115
 20
23.0972982252
 11
32.8674205107
 21
23.0846666552
  0
LINE
  5
325
100
AcDbEntity
  8
RACCORDO
100
AcDbLine
 62
250
  6
CONTINUOUS
 10
32.8674205107
 20
23.0846666552
 11
44.7600653309
 21
23.0625283296
  0
LWPOLYLINE
  5
326
100
AcDbEntity
  8
RACCORDO
100
AcDbPolyline
 62
250
  6
CONTINUOUS
 90
25
 70
0
 10
44.7552561095
 20
22.7533534586
 10
44.7879480453
 20
22.7523690467
 10
44.8205283422
 20
22.7492575088
 10
44.852859206
 20
22.7440244842
 10
44.8848275884
 20
22.7366794673
 10
44.9162706836
 20
22.7272483714
 10
44.9469811279
 20
22.715788695
 10
44.9768141942
 20
22.7023626449
 10
45.0056627679
 20
22.6870280039
 10
45.0333880761
 20
22.6698649125
 10
45.0598652427
 20
22.6509638165
 10
45.0850020897
 20
22.6304052907
 10
45.1087165024
 20
22.6082643617
 10
45.1309248265
 20
22.5846220941
 10
45.1515220463
 20
22.5595947767
 10
45.1704058702
 20
22.5333193233
 10
45.1874699335
 20
22.5059738689
 10
45.202696125
 20
22.4776209483
 10
45.2161011552
 20
22.4482174206
 10
45.2276294942
 20
22.4178101697
 10
45.2371790222
 20
22.3865808284
 10
45.2446813988
 20
22.3546828682
 10
45.2500847871
 20
22.3222573059
 10
45.2533485749
 20
22.2894304705
 10
45.2544389686
 20
22.2563416196
  0
LWPOLYLINE
  5
327
100
AcDbEntity
  8
RACCORDO
100
AcDbPolyline
 62
250
  6
CONTINUOUS
 90
25
 70
0
 10
44.7600653309
 20
23.0625283296
 10
44.8125783027
 20
23.0607000046
 10
44.8644864671
 20
23.0555205764
 10
44.9157897946
 20
23.0469899836
 10
44.9667387359
 20
23.0350349902
 10
45.0170828054
 20
23.0197287643
 10
45.0660705847
 20
23.0012908865
 10
45.1136508922
 20
22.9796747987
 10
45.1598749335
 20
22.9549271252
 10
45.2041448883
 20
22.9274072603
 10
45.2464134475
 20
22.8970966025
 10
45.2867279968
 20
22.8640139359
 10
45.3246327699
 20
22.8285747574
 10
45.3601158352
 20
22.7907287314
 10
45.3931892372
 20
22.7505264538
 10
45.4234331738
 20
22.7085348164
 10
45.4507744826
 20
22.6648408101
 10
45.475286449
 20
22.6193577215
 10
45.4967689344
 20
22.5723918658
 10
45.5152569437
 20
22.5238308059
 10
45.5307155991
 20
22.473787261
 10
45.5428399194
 20
22.422905239
 10
45.5515282704
 20
22.3713994649
 10
45.5568823807
 20
22.3190554178
 10
45.5589022978
 20
22.2658732005
  0
LWPOLYLINE
  5
328
100
AcDbEntity
  8
0
100
AcDbPolyline
 62
7
  6
CONTINUOUS
 90
10
 70
0
 43
0.3500000006
 10
1.8214286013
 20
52.2000020142
 10
1.8928570933
 20
52.0571441803
 10
1.8928570933
 20
51.9857129974
 10
1.7499999676
 20
51.8428551636
 10
1.6785714755
 20
51.8428551636
 10
1.6071428418
 20
51.9142863464
 10
1.6071428418
 20
51.9857129974
 10
1.6785714755
 20
52.1285708313
 10
1.7499999676
 20
52.2000020142
 10
1.8214286013
 20
52.2000020142
  0
LWPOLYLINE
  5
329
100
AcDbEntity
  8
RACCORDO
100
AcDbPolyline
 62
250
  6
CONTINUOUS
 90
6
 70
0
 10
44.7575902044
 20
-22.8034711752
 10
44.7571527134
 20
-22.7878007497
 10
44.7566958185
 20
-22.7748357362
 10
44.7562241945
 20
-22.7647087942
 10
44.7557426672
 20
-22.7575235456
 10
44.7552561637
 20
-22.7533535128
  0
LINE
  5
32A
100
AcDbEntity
  8
RACCORDO
100
AcDbLine
 62
250
  6
CONTINUOUS
 10
44.758389314
 20
-22.8422608614
 11
44.7575902044
 21
-22.8034711752
  0
LINE
  5
32B
100
AcDbEntity
  8
RACCORDO
100
AcDbLine
 62
250
  6
CONTINUOUS
 10
44.759060526
 20
-22.8896212776
 11
44.758389314
 21
-22.8422608614
  0
LINE
  5
32C
100
AcDbEntity
  8
RACCORDO
100
AcDbLine
 62
250
  6
CONTINUOUS
 10
44.7597693057
 20
-22.9724262558
 11
44.759060526
 21
-22.8896212776
  0
LINE
  5
32D
100
AcDbEntity
  8
RACCORDO
100
AcDbLine
 62
250
  6
CONTINUOUS
 10
44.7600653309
 20
-23.0625283296
 11
44.7597693057
 21
-22.9724262558
  0
LINE
  5
32E
100
AcDbEntity
  8
RACCORDO
100
AcDbLine
 62
250
  6
CONTINUOUS
 10
44.7600653313
 20
23.0625283296
 11
44.7597693427
 21
22.9724250106
  0
LINE
  5
32F
100
AcDbEntity
  8
RACCORDO
100
AcDbLine
 62
250
  6
CONTINUOUS
 10
44.7597693427
 20
22.9724250106
 11
44.7590605747
 21
22.8896197062
  0
LINE
  5
330
100
AcDbEntity
  8
RACCORDO
100
AcDbLine
 62
250
  6
CONTINUOUS
 10
44.7590605747
 20
22.8896197062
 11
44.7583893609
 21
22.8422595239
  0
LWPOLYLINE
  5
331
100
AcDbEntity
  8
RACCORDO
100
AcDbPolyline
 62
250
  6
CONTINUOUS
 90
7
 70
0
 10
44.7583893609
 20
22.8422595239
 10
44.757590244
 20
22.8034702903
 10
44.7571527479
 20
22.7878001216
 10
44.7566958458
 20
22.7748353178
 10
44.7562242121
 20
22.7647085322
 10
44.7557426726
 20
22.7575234035
 10
44.7552561545
 20
22.7533534586
  0
LINE
  5
332
100
AcDbEntity
  8
ASSI
100
AcDbLine
 62
250
  6
CONTINUOUS
 10
-69.3312387629
 20
42.5001344063
 11
-68.8034670817
 21
42.5191083031
  0
LINE
  5
333
100
AcDbEntity
  8
ASSI
100
AcDbLine
 62
250
  6
CONTINUOUS
 10
-68.8034670817
 20
42.5191083031
 11
-68.2783533799
 21
42.53536624
  0
LINE
  5
334
100
AcDbEntity
  8
ASSI
100
AcDbLine
 62
250
  6
CONTINUOUS
 10
-68.2783533799
 20
42.53536624
 11
-67.7515975125
 21
42.5492408883
  0
LINE
  5
335
100
AcDbEntity
  8
ASSI
100
AcDbLine
 62
250
  6
CONTINUOUS
 10
-67.7515975125
 20
42.5492408883
 11
-66.9449356083
 21
42.5661435684
  0
LINE
  5
336
100
AcDbEntity
  8
ASSI
100
AcDbLine
 62
250
  6
CONTINUOUS
 10
-66.9449356083
 20
42.5661435684
 11
-66.0808675244
 21
42.5792085138
  0
LINE
  5
337
100
AcDbEntity
  8
ASSI
100
AcDbLine
 62
250
  6
CONTINUOUS
 10
-66.0808675244
 20
42.5792085138
 11
-65.1171499557
 21
42.5887528578
  0
LINE
  5
338
100
AcDbEntity
  8
ASSI
100
AcDbLine
 62
250
  6
CONTINUOUS
 10
-70.7843063717
 20
42.1338409499
 11
-70.7048526786
 21
42.1346522436
  0
LINE
  5
339
100
AcDbEntity
  8
ASSI
100
AcDbLine
 62
250
  6
CONTINUOUS
 10
-65.1171499557
 20
42.5887528578
 11
-64.0422264085
 21
42.5945504805
  0
LINE
  5
33A
100
AcDbEntity
  8
ASSI
100
AcDbLine
 62
250
  6
CONTINUOUS
 10
69.8175464018
 20
42.908261492
 11
70.3592698811
 21
42.908995741
  0
LINE
  5
33B
100
AcDbEntity
  8
ASSI
100
AcDbLine
 62
250
  6
CONTINUOUS
 10
69.2829329298
 20
42.9076391409
 11
69.8175464018
 21
42.908261492
  0
LINE
  5
33C
100
AcDbEntity
  8
ASSI
100
AcDbLine
 62
250
  6
CONTINUOUS
 10
-64.0422264085
 20
42.5945504805
 11
-62.874147848
 21
42.5967081622
  0
LINE
  5
33D
100
AcDbEntity
  8
ASSI
100
AcDbLine
 62
250
  6
CONTINUOUS
 10
68.753108301
 20
42.9071214204
 11
69.2829329298
 21
42.9076391409
  0
LINE
  5
33E
100
AcDbEntity
  8
ASSI
100
AcDbLine
 62
250
  6
CONTINUOUS
 10
51.286243512
 20
42.5862450269
 11
62.0212419583
 21
42.5965017034
  0
LINE
  5
33F
100
AcDbEntity
  8
ASSI
100
AcDbLine
 62
250
  6
CONTINUOUS
 10
-0.0
 20
42.5700727438
 11
38.4119559917
 21
42.5893084519
  0
LWPOLYLINE
  5
340
100
AcDbEntity
  8
ASSI
100
AcDbPolyline
 62
250
  6
CONTINUOUS
 90
3
 70
0
 10
54.9017840963
 20
42.9052611721
 10
60.8437631135
 20
42.9051264868
 10
68.753108301
 20
42.9071214204
  0
LINE
  5
341
100
AcDbEntity
  8
ASSI
100
AcDbLine
 62
7
  6
CONTINUOUS
 10
70.40027414
 20
42.95
 11
-70.40027414
 21
42.95
  0
LINE
  5
342
100
AcDbEntity
  8
ASSI
100
AcDbLine
 62
250
  6
CONTINUOUS
 10
49.738582611
 20
42.5861964163
 11
51.286243512
 21
42.5862450269
  0
LINE
  5
343
100
AcDbEntity
  8
ASSI
100
AcDbLine
 62
250
  6
CONTINUOUS
 10
38.4119559917
 20
42.5893084519
 11
42.9727808354
 21
42.5893688838
  0
LINE
  5
344
100
AcDbEntity
  8
ASSI
100
AcDbLine
 62
250
  6
CONTINUOUS
 10
42.9727808354
 20
42.5893688838
 11
49.738582611
 21
42.5861964163
  0
LINE
  5
345
100
AcDbEntity
  8
ASSI
100
AcDbLine
 62
250
  6
CONTINUOUS
 10
-37.0342424673
 20
42.588659979
 11
-0.0
 21
42.5700727438
  0
LINE
  5
346
100
AcDbEntity
  8
ASSI
100
AcDbLine
 62
250
  6
CONTINUOUS
 10
-62.874147848
 20
42.5967081622
 11
-37.0342424673
 21
42.588659979
  0
LINE
  5
347
100
AcDbEntity
  8
ASSI
100
AcDbLine
 62
250
  6
CONTINUOUS
 10
62.0212419583
 20
42.5965017034
 11
63.4533645242
 21
42.5960673556
  0
LWPOLYLINE
  5
348
100
AcDbEntity
  8
ASSI
100
AcDbPolyline
 62
250
  6
CONTINUOUS
 90
3
 70
0
 10
-70.3592689474
 20
42.9089948074
 10
-70.0974744606
 20
42.9086267888
 10
54.9017840963
 20
42.9052611721
  0
LINE
  5
349
100
AcDbEntity
  8
ASSI
100
AcDbLine
 62
250
  6
CONTINUOUS
 10
63.4533645242
 20
42.5960673556
 11
64.4056011168
 21
42.5930860977
  0
LINE
  5
34A
100
AcDbEntity
  8
ASSI
100
AcDbLine
 62
250
  6
CONTINUOUS
 10
64.4056011168
 20
42.5930860977
 11
65.2717297372
 21
42.5875540041
  0
LINE
  5
34B
100
AcDbEntity
  8
ASSI
100
AcDbLine
 62
250
  6
CONTINUOUS
 10
65.2717297372
 20
42.5875540041
 11
66.0882550283
 21
42.5791346519
  0
LWPOLYLINE
  5
34C
100
AcDbEntity
  8
ASSI
100
AcDbPolyline
 62
250
  6
CONTINUOUS
 90
18
 70
0
 10
70.7048526723
 20
42.1346522499
 10
70.7843064192
 20
42.1338409554
 10
70.8229392465
 20
42.133193904
 10
70.8605053787
 20
42.1323911896
 10
70.8967600953
 20
42.1314380413
 10
70.9314672196
 20
42.1303406685
 10
70.9644006554
 20
42.1291062197
 10
70.99534586
 20
42.1277427368
 10
71.0241012431
 20
42.1262591019
 10
71.0504794803
 20
42.1246649803
 10
71.0743087326
 20
42.1229707565
 10
71.095433766
 20
42.1211874676
 10
71.1137169649
 20
42.1193267303
 10
71.1290392227
 20
42.1174006666
 10
71.1413007207
 20
42.1154218242
 10
71.1504215843
 20
42.1134030942
 10
71.1563424004
 20
42.1113576274
 10
71.1590246012
 20
42.1092987489
  0
LINE
  5
34D
100
AcDbEntity
  8
ASSI
100
AcDbLine
 62
250
  6
CONTINUOUS
 10
66.0882550283
 20
42.5791346519
 11
66.8895534075
 21
42.5671304205
  0
LINE
  5
34E
100
AcDbEntity
  8
ASSI
100
AcDbLine
 62
250
  6
CONTINUOUS
 10
66.8895534075
 20
42.5671304205
 11
67.6940224008
 21
42.5506054325
  0
LINE
  5
34F
100
AcDbEntity
  8
ASSI
100
AcDbLine
 62
250
  6
CONTINUOUS
 10
67.6940224008
 20
42.5506054325
 11
68.2320995035
 21
42.5366696564
  0
LINE
  5
350
100
AcDbEntity
  8
ASSI
100
AcDbLine
 62
250
  6
CONTINUOUS
 10
68.2320995035
 20
42.5366696564
 11
68.7697117192
 21
42.5202305641
  0
LINE
  5
351
100
AcDbEntity
  8
ASSI
100
AcDbLine
 62
250
  6
CONTINUOUS
 10
68.7697117192
 20
42.5202305641
 11
69.3027603533
 21
42.5012396751
  0
LINE
  5
352
100
AcDbEntity
  8
RACCORDO
100
AcDbLine
 62
250
  6
CONTINUOUS
 10
45.5589022978
 20
22.2658732005
 11
45.5742729937
 21
16.6793344782
  0
LINE
  5
353
100
AcDbEntity
  8
RACCORDO
100
AcDbLine
 62
250
  6
CONTINUOUS
 10
45.2544390123
 20
22.2563416633
 11
45.2671848241
 21
17.1317293625
  0
LINE
  5
354
100
AcDbEntity
  8
RACCORDO
100
AcDbLine
 62
250
  6
CONTINUOUS
 10
45.5742729937
 20
16.6793344782
 11
45.5879690137
 21
9.5694907724
  0
LINE
  5
355
100
AcDbEntity
  8
RACCORDO
100
AcDbLine
 62
250
  6
CONTINUOUS
 10
45.2671848241
 20
17.1317293625
 11
45.2771468536
 21
10.744809119
  0
LINE
  5
356
100
AcDbEntity
  8
RACCORDO
100
AcDbLine
 62
250
  6
CONTINUOUS
 10
45.5879690137
 20
9.5694907724
 11
45.5946702147
 21
3.3079444933
  0
LINE
  5
357
100
AcDbEntity
  8
RACCORDO
100
AcDbLine
 62
250
  6
CONTINUOUS
 10
45.2771468536
 20
10.744809119
 11
45.2827944731
 21
4.0808304853
  0
LINE
  5
358
100
AcDbEntity
  8
RACCORDO
100
AcDbLine
 62
7
  6
CONTINUOUS
 10
45.1
 20
-22.101902651
 11
45.1
 21
22.101902651
  0
LINE
  5
359
100
AcDbEntity
  8
RACCORDO
100
AcDbLine
 62
250
  6
CONTINUOUS
 10
45.5946702147
 20
3.3079444933
 11
45.5955863721
 21
-0.8187338527
  0
LINE
  5
35A
100
AcDbEntity
  8
RACCORDO
100
AcDbLine
 62
250
  6
CONTINUOUS
 10
45.2827944731
 20
4.0808304853
 11
45.2825219983
 21
-4.6012830162
  0
LINE
  5
35B
100
AcDbEntity
  8
RACCORDO
100
AcDbLine
 62
250
  6
CONTINUOUS
 10
45.5955863721
 20
-0.8187338527
 11
45.5931611
 21
-5.3016996786
  0
LINE
  5
35C
100
AcDbEntity
  8
RACCORDO
100
AcDbLine
 62
250
  6
CONTINUOUS
 10
45.2825219983
 20
-4.6012830162
 11
45.2771270007
 21
-10.7635888296
  0
LINE
  5
35D
100
AcDbEntity
  8
RACCORDO
100
AcDbLine
 62
250
  6
CONTINUOUS
 10
45.5931611
 20
-5.3016996786
 11
45.5869523744
 21
-10.2290712004
  0
LINE
  5
35E
100
AcDbEntity
  8
RACCORDO
100
AcDbLine
 62
250
  6
CONTINUOUS
 10
45.2771270007
 20
-10.7635888296
 11
45.2692215609
 21
-16.0940303255
  0
LINE
  5
35F
100
AcDbEntity
  8
RACCORDO
100
AcDbLine
 62
250
  6
CONTINUOUS
 10
45.5869523744
 20
-10.2290712004
 11
45.5766983214
 21
-15.6318543772
  0
LINE
  5
360
100
AcDbEntity
  8
RACCORDO
100
AcDbLine
 62
250
  6
CONTINUOUS
 10
45.2692215609
 20
-16.0940303255
 11
45.2577014842
 21
-21.0594009265
  0
LINE
  5
361
100
AcDbEntity
  8
RACCORDO
100
AcDbLine
 62
250
  6
CONTINUOUS
 10
45.2577014842
 20
-21.0594009265
 11
45.2544390123
 21
-22.2563416633
  0
LINE
  5
362
100
AcDbEntity
  8
RACCORDO
100
AcDbLine
 62
250
  6
CONTINUOUS
 10
45.5766983214
 20
-15.6318543772
 11
45.5641090678
 21
-20.5047963972
  0
LINE
  5
363
100
AcDbEntity
  8
RACCORDO
100
AcDbLine
 62
250
  6
CONTINUOUS
 10
45.5641090678
 20
-20.5047963972
 11
45.5589022978
 21
-22.2658732005
  0
LWPOLYLINE
  5
364
100
AcDbEntity
  8
RACCORDO
100
AcDbPolyline
 62
250
  6
CONTINUOUS
 90
25
 70
0
 10
45.2544389701
 20
-22.2563416211
 10
45.2533846794
 20
-22.2888883374
 10
45.2502079476
 20
-22.3213273631
 10
45.2449130349
 20
-22.3535215848
 10
45.2375076111
 20
-22.3853579564
 10
45.2280165459
 20
-22.4166745115
 10
45.2164970275
 20
-22.4472655312
 10
45.2030094692
 20
-22.4769868451
 10
45.1876103924
 20
-22.5057304343
 10
45.1703807251
 20
-22.5333568393
 10
45.1514106842
 20
-22.5597398239
 10
45.1307791646
 20
-22.5847877563
 10
45.1085598948
 20
-22.608420424
 10
45.0848330973
 20
-22.6305528692
 10
45.0597138622
 20
-22.6510792665
 10
45.0333367741
 20
-22.6698990439
 10
45.005875436
 20
-22.6869062433
 10
44.9773949377
 20
-22.7020779955
 10
44.9478612372
 20
-22.7154259201
 10
44.9173228467
 20
-22.7268933052
 10
44.885960739
 20
-22.736378445
 10
44.8539352494
 20
-22.7438129007
 10
44.8213902572
 20
-22.7491456779
 10
44.788450618
 20
-22.7523368732
 10
44.7552561076
 20
-22.7533534567
  0
LWPOLYLINE
  5
365
100
AcDbEntity
  8
RACCORDO
100
AcDbPolyline
 62
250
  6
CONTINUOUS
 90
25
 70
0
 10
45.5589022978
 20
-22.2658732005
 10
45.557020254
 20
-22.3181939325
 10
45.5517912858
 20
-22.3699195993
 10
45.543215353
 20
-22.4210501144
 10
45.531221229
 20
-22.4718348126
 10
45.5158800606
 20
-22.522024188
 10
45.4974053479
 20
-22.5708698486
 10
45.4757494703
 20
-22.6183220898
 10
45.4509599259
 20
-22.6644303452
 10
45.4233928646
 20
-22.708594866
 10
45.3930302364
 20
-22.7507672615
 10
45.35988996
 20
-22.7909956263
 10
45.3243821272
 20
-22.8288249134
 10
45.2864566346
 20
-22.8642439965
 10
45.2461634722
 20
-22.8972637407
 10
45.2040628745
 20
-22.9274620893
 10
45.1602346994
 20
-22.9547690257
 10
45.1145990142
 20
-22.9792543877
 10
45.0674763789
 20
-23.0007059251
 10
45.0187547565
 20
-23.0191547607
 10
44.9685461588
 20
-23.0345697033
 10
44.9175072358
 20
-23.0466450674
 10
44.8658568828
 20
-23.0552789819
 10
44.813376238
 20
-23.0605733824
 10
44.7600653309
 20
-23.0625283296
  0
LWPOLYLINE
  5
366
100
AcDbEntity
  8
ASSI
100
AcDbPolyline
 62
250
  6
CONTINUOUS
 90
25
 70
0
 10
-70.3872088327
 20
42.4540118583
 10
-70.4071477735
 20
42.4523607288
 10
-70.4269109015
 20
42.4494396399
 10
-70.4464977873
 20
42.4452478778
 10
-70.4659940345
 20
42.4397528438
 10
-70.4853131543
 20
42.4329856621
 10
-70.5041966537
 20
42.4250413177
 10
-70.5226351064
 20
42.4159046274
 10
-70.5406372527
 20
42.4055896065
 10
-70.5579720487
 20
42.3942353521
 10
-70.5746294996
 20
42.3818305856
 10
-70.5906192251
 20
42.3683859153
 10
-70.6057398525
 20
42.3540736662
 10
-70.6199814909
 20
42.3388844222
 10
-70.6333540279
 20
42.322827523
 10
-70.6456860235
 20
42.3061038502
 10
-70.6569662866
 20
42.2887041857
 10
-70.667206375
 20
42.2706382549
 10
-70.6762692191
 20
42.2521357517
 10
-70.6841411239
 20
42.233181736
 10
-70.6908364578
 20
42.2137921319
 10
-70.6962604486
 20
42.194243257
 10
-70.700381829
 20
42.1746277044
 10
-70.7032327442
 20
42.1548541872
 10
-70.7048136186
 20
42.1349233297
  0
LINE
  5
367
100
AcDbEntity
  8
ASSI
100
AcDbLine
 62
250
  6
CONTINUOUS
 10
-70.3872088327
 20
42.4540118583
 11
-69.859291607
 21
42.478456875
  0
LINE
  5
368
100
AcDbEntity
  8
ASSI
100
AcDbLine
 62
250
  6
CONTINUOUS
 10
-69.859291607
 20
42.478456875
 11
-69.3312387629
 21
42.5001344063
  0
LWPOLYLINE
  5
369
100
AcDbEntity
  8
ASSI
100
AcDbPolyline
 62
250
  6
CONTINUOUS
 90
25
 70
0
 10
-70.35926888
 20
42.90899474
 10
-70.4115916042
 20
42.907288487
 10
-70.4636910555
 20
42.9021639202
 10
-70.5153443706
 20
42.8936423317
 10
-70.5663330283
 20
42.8817587755
 10
-70.6164360902
 20
42.8665638987
 10
-70.6654316498
 20
42.8481254239
 10
-70.7131099708
 20
42.8265233231
 10
-70.7592677692
 20
42.8018507045
 10
-70.8037024365
 20
42.774217879
 10
-70.8462204251
 20
42.7437485286
 10
-70.8866463125
 20
42.7105717002
 10
-70.924816456
 20
42.6748232445
 10
-70.9605677306
 20
42.6366560697
 10
-70.9937473997
 20
42.5962331543
 10
-71.024219808
 20
42.5537178673
 10
-71.0518558916
 20
42.5092855353
 10
-71.0765318691
 20
42.4631297344
 10
-71.0981374228
 20
42.4154529434
 10
-71.1165794868
 20
42.3664580423
 10
-71.1317778225
 20
42.3163551251
 10
-71.1436644137
 20
42.2653671773
 10
-71.152188688
 20
42.213715551
 10
-71.1573158064
 20
42.161618447
 10
-71.1590246038
 20
42.1092987438
  0
LINE
  5
36A
100
AcDbEntity
  8
ASSI
100
AcDbLine
 62
250
  6
CONTINUOUS
 10
69.3027603533
 20
42.5012396751
 11
69.8411335266
 21
42.4792355704
  0
LINE
  5
36B
100
AcDbEntity
  8
ASSI
100
AcDbLine
 62
250
  6
CONTINUOUS
 10
69.8411335266
 20
42.4792355704
 11
70.3871309799
 21
42.4540233567
  0
LWPOLYLINE
  5
36C
100
AcDbEntity
  8
0
100
AcDbPolyline
 62
7
  6
CONTINUOUS
 90
7
 70
0
 43
0.3500000006
 10
0.3214285684
 20
51.7000018616
 10
-1.1785713937
 20
51.7000018616
 10
0.3214285684
 20
53.8428557739
 10
0.3214285684
 20
54.2714292755
 10
-0.1071428532
 20
54.6999982452
 10
-0.7500000165
 20
54.6999982452
 10
-1.1785713937
 20
54.0571447906
  0
LWPOLYLINE
  5
36D
100
AcDbEntity
  8
0
100
AcDbPolyline
 62
7
  6
CONTINUOUS
 90
3
 70
0
 43
0.3500000006
 10
4.3928571482
 20
52.3428553162
 10
2.8928572569
 20
52.3428553162
 10
3.5357143936
 20
54.6999982452
  0
LWPOLYLINE
  5
36E
100
AcDbEntity
  8
0
100
AcDbPolyline
 62
7
  6
CONTINUOUS
 90
3
 70
0
 43
0.3500000006
 10
-2.0357142191
 20
52.3428553162
 10
-3.5357143936
 20
52.3428553162
 10
-2.8928572569
 20
54.6999982452
  0
LWPOLYLINE
  5
36F
100
AcDbEntity
  8
0
100
AcDbPolyline
 62
7
  6
CONTINUOUS
 90
10
 70
0
 43
0.3500000006
 10
75.4500003662
 20
1.0919310379
 10
76.0928538208
 20
0.4490730515
 10
76.950000824
 20
0.0205018158
 10
78.021432312
 20
0.0205018158
 10
78.4500012817
 20
0.4490730515
 10
78.4500012817
 20
1.0919310379
 10
78.021432312
 20
1.5205022736
 10
77.1642853088
 20
1.5205022736
 10
76.7357163391
 20
1.0919310379
 10
76.7357163391
 20
0.1633596497
  0
LWPOLYLINE
  5
370
100
AcDbEntity
  8
0
100
AcDbPolyline
 62
7
  6
CONTINUOUS
 90
13
 70
0
 43
0.3500000006
 10
76.7357163391
 20
-1.9080687447
 10
76.5214318542
 20
-2.1937832794
 10
75.8785693359
 20
-2.1937832794
 10
75.4500003662
 20
-1.9080687447
 10
75.4500003662
 20
-1.2652118912
 10
75.8785693359
 20
-0.9794984894
 10
76.5214318542
 20
-0.9794984894
 10
76.7357163391
 20
-1.2652118912
 10
77.1642853088
 20
-0.8366406555
 10
78.021432312
 20
-0.8366406555
 10
78.4500012817
 20
-1.2652118912
 10
78.4500012817
 20
-1.9080687447
 10
78.021432312
 20
-2.3366399803
  0
LWPOLYLINE
  5
371
100
AcDbEntity
  8
ASSI
100
AcDbPolyline
 62
250
  6
CONTINUOUS
 90
4
 70
0
 10
70.704898413
 20
42.1343348292
 10
70.7166773816
 20
41.8668053641
 10
70.7275011642
 20
41.586711988
 10
70.7373690235
 20
41.2940558532
  0
LWPOLYLINE
  5
372
100
AcDbEntity
  8
ASSI
100
AcDbPolyline
 62
250
  6
CONTINUOUS
 90
25
 70
0
 10
71.1590246038
 20
42.1092987438
 10
71.1573158365
 20
42.1616179844
 10
71.1521888566
 20
42.2137142691
 10
71.143664899
 20
42.2653647368
 10
71.1317789392
 20
42.3163509575
 10
71.1165815786
 20
42.3664518808
 10
71.098140588
 20
42.415445303
 10
71.076535977
 20
42.4631214058
 10
71.0518608294
 20
42.5092769846
 10
71.0242254706
 20
42.5537093944
 10
70.9937535846
 20
42.5962250952
 10
70.9605742296
 20
42.6366486598
 10
70.9248232983
 20
42.6748164028
 10
70.8866537438
 20
42.7105651833
 10
70.8462285288
 20
42.7437423102
 10
70.8037109707
 20
42.7742121762
 10
70.7592763853
 20
42.8018457297
 10
70.7131183593
 20
42.8265191863
 10
70.6654393399
 20
42.8481222388
 10
70.6164422839
 20
42.8665617964
 10
70.5663372054
 20
42.8817576564
 10
70.5153468045
 20
42.8936418479
 10
70.4636923255
 20
42.9021637533
 10
70.411592057
 20
42.9072884576
 10
70.35926888
 20
42.90899474
  0
LINE
  5
373
100
AcDbEntity
  8
ASSI
100
AcDbLine
 62
250
  6
CONTINUOUS
 10
70.7373690235
 20
41.2940558532
 11
70.7543504594
 21
40.6682253166
  0
LINE
  5
374
100
AcDbEntity
  8
ASSI
100
AcDbLine
 62
250
  6
CONTINUOUS
 10
70.7543504594
 20
40.6682253166
 11
70.7668909143
 21
40.0048285701
  0
LINE
  5
375
100
AcDbEntity
  8
ASSI
100
AcDbLine
 62
250
  6
CONTINUOUS
 10
70.7668909143
 20
40.0048285701
 11
70.7750164375
 21
39.3130013452
  0
LINE
  5
376
100
AcDbEntity
  8
ASSI
100
AcDbLine
 62
250
  6
CONTINUOUS
 10
70.7750164375
 20
39.3130013452
 11
70.7792425825
 21
38.6121010794
  0
LINE
  5
377
100
AcDbEntity
  8
ASSI
100
AcDbLine
 62
250
  6
CONTINUOUS
 10
70.7792425825
 20
38.6121010794
 11
70.7808191685
 21
37.8909394223
  0
LINE
  5
378
100
AcDbEntity
  8
ASSI
100
AcDbLine
 62
250
  6
CONTINUOUS
 10
71.1584836898
 20
-41.6613206855
 11
71.1590248943
 21
-42.1092990343
  0
LINE
  5
379
100
AcDbEntity
  8
ASSI
100
AcDbLine
 62
250
  6
CONTINUOUS
 10
70.8078590899
 20
19.5312410734
 11
70.8140730453
 21
9.7595177197
  0
LINE
  5
37A
100
AcDbEntity
  8
ASSI
100
AcDbLine
 62
250
  6
CONTINUOUS
 10
71.1558638217
 20
-4.7637005553
 11
71.1569382603
 21
-35.8973266909
  0
LINE
  5
37B
100
AcDbEntity
  8
ASSI
100
AcDbLine
 62
250
  6
CONTINUOUS
 10
71.1569382603
 20
-35.8973266909
 11
71.1584836898
 21
-41.6613206855
  0
LINE
  5
37C
100
AcDbEntity
  8
ASSI
100
AcDbLine
 62
7
  6
CONTINUOUS
 10
71.2
 20
-42.15027414
 11
71.2
 21
42.15027414
  0
LINE
  5
37D
100
AcDbEntity
  8
ASSI
100
AcDbLine
 62
250
  6
CONTINUOUS
 10
70.8140730453
 20
9.7595177197
 11
70.8125102978
 21
-14.8785909709
  0
LINE
  5
37E
100
AcDbEntity
  8
ASSI
100
AcDbLine
 62
250
  6
CONTINUOUS
 10
70.7808191685
 20
37.8909394223
 11
70.8078590899
 21
19.5312410734
  0
LWPOLYLINE
  5
37F
100
AcDbEntity
  8
ASSI
100
AcDbPolyline
 62
250
  6
CONTINUOUS
 90
3
 70
0
 10
71.1590241637
 20
42.1092983037
 10
71.1586895975
 20
41.8447016577
 10
71.1558638217
 20
-4.7637005553
  0
LINE
  5
380
100
AcDbEntity
  8
ASSI
100
AcDbLine
 62
250
  6
CONTINUOUS
 10
70.8125102978
 20
-14.8785909709
 11
70.8084768005
 21
-19.1048600336
  0
LINE
  5
381
100
AcDbEntity
  8
ASSI
100
AcDbLine
 62
250
  6
CONTINUOUS
 10
70.8084768005
 20
-19.1048600336
 11
70.8014333996
 21
-22.8351924878
  0
LINE
  5
382
100
AcDbEntity
  8
ASSI
100
AcDbLine
 62
250
  6
CONTINUOUS
 10
70.7846603273
 20
-28.485893205
 11
70.7797330945
 21
-38.4799241041
  0
LINE
  5
383
100
AcDbEntity
  8
ASSI
100
AcDbLine
 62
250
  6
CONTINUOUS
 10
70.8014333996
 20
-22.8351924878
 11
70.7846603273
 21
-28.485893205
  0
LINE
  5
384
100
AcDbEntity
  8
ASSI
100
AcDbLine
 62
250
  6
CONTINUOUS
 10
70.7797330945
 20
-38.4799241041
 11
70.7761725872
 21
-39.1632073173
  0
LWPOLYLINE
  5
385
100
AcDbEntity
  8
ASSI
100
AcDbPolyline
 62
250
  6
CONTINUOUS
 90
19
 70
0
 10
70.3871104486
 20
-42.4540263791
 10
70.3867576873
 20
-42.4940846929
 10
70.3862254562
 20
-42.5335885831
 10
70.3855172305
 20
-42.5722801359
 10
70.3846376341
 20
-42.6099067396
 10
70.3835924098
 20
-42.6462227387
 10
70.3823883815
 20
-42.6809910367
 10
70.3810334101
 20
-42.7139846387
 10
70.3795363421
 20
-42.744988134
 10
70.3779069514
 20
-42.773799106
 10
70.3761558761
 20
-42.8002294531
 10
70.3742945487
 20
-42.8241066159
 10
70.3723351214
 20
-42.8452747047
 10
70.3702903864
 20
-42.8635955212
 10
70.368173694
 20
-42.8789494459
 10
70.3659988655
 20
-42.8912362267
 10
70.3637801005
 20
-42.9003756511
 10
70.3615318846
 20
-42.9063080609
 10
70.3592688962
 20
-42.9089947325
  0
LINE
  5
386
100
AcDbEntity
  8
ASSI
100
AcDbLine
 62
250
  6
CONTINUOUS
 10
70.7761725872
 20
-39.1632073173
 11
70.7697671158
 21
-39.8016119225
  0
LINE
  5
387
100
AcDbEntity
  8
ASSI
100
AcDbLine
 62
250
  6
CONTINUOUS
 10
70.7697671158
 20
-39.8016119225
 11
70.7602668288
 21
-40.3903833758
  0
LINE
  5
388
100
AcDbEntity
  8
ASSI
100
AcDbLine
 62
250
  6
CONTINUOUS
 10
70.7602668288
 20
-40.3903833758
 11
70.7478061603
 21
-40.9360917093
  0
LINE
  5
389
100
AcDbEntity
  8
ASSI
100
AcDbLine
 62
250
  6
CONTINUOUS
 10
70.7478061603
 20
-40.9360917093
 11
70.7324996678
 21
-41.4417461079
  0
LWPOLYLINE
  5
38A
100
AcDbEntity
  8
ASSI
100
AcDbPolyline
 62
250
  6
CONTINUOUS
 90
3
 70
0
 10
70.7324996678
 20
-41.4417461079
 10
70.7146831755
 20
-41.912770946
 10
70.7048135721
 20
-42.1349236524
  0
LWPOLYLINE
  5
38B
100
AcDbEntity
  8
ASSI
100
AcDbPolyline
 62
250
  6
CONTINUOUS
 90
25
 70
0
 10
70.704898413
 20
42.1343348292
 10
70.703279845
 20
42.1545270801
 10
70.7004007389
 20
42.1744964478
 10
70.6962606765
 20
42.1942423206
 10
70.6908307054
 20
42.2138341134
 10
70.6841389245
 20
42.2332011496
 10
70.6762705596
 20
42.2521327879
 10
70.667208068
 20
42.2706350104
 10
70.6569683158
 20
42.288700845
 10
70.6456883281
 20
42.3061005202
 10
70.6333565046
 20
42.3228243276
 10
70.619984079
 20
42.3388814681
 10
70.6057425744
 20
42.3540709315
 10
70.5906221749
 20
42.3683833068
 10
70.5746326998
 20
42.3818280814
 10
70.5579753898
 20
42.3942330165
 10
70.5406406062
 20
42.4055875475
 10
70.5226383626
 20
42.4159029087
 10
70.5041996265
 20
42.4250399568
 10
70.4853184119
 20
42.4329842728
 10
70.4660013913
 20
42.4397514439
 10
70.446498718
 20
42.4452476473
 10
70.4268940995
 20
42.4494421436
 10
70.4071047104
 20
42.4523671424
 10
70.3871309799
 20
42.4540233567
  0
LWPOLYLINE
  5
38C
100
AcDbEntity
  8
ASSI
100
AcDbPolyline
 62
250
  6
CONTINUOUS
 90
17
 70
0
 10
71.1590246038
 20
-42.1092987438
 10
71.1563423964
 20
-42.1113576254
 10
71.1504215664
 20
-42.1134030945
 10
71.1413006852
 20
-42.1154218259
 10
71.1290391704
 20
-42.1174006689
 10
71.1137168995
 20
-42.1193267324
 10
71.095433689
 20
-42.1211874693
 10
71.0743086442
 20
-42.1229707578
 10
71.0504793831
 20
-42.124664981
 10
71.0241011398
 20
-42.126259102
 10
70.9953457537
 20
-42.127742736
 10
70.9644005499
 20
-42.1291062181
 10
70.9314671182
 20
-42.1303406659
 10
70.8967600011
 20
-42.131438038
 10
70.8605052953
 20
-42.1323911854
 10
70.8229391784
 20
-42.1331938991
 10
70.7843063715
 20
-42.1338409499
  0
LWPOLYLINE
  5
38D
100
AcDbEntity
  8
ASSI
100
AcDbPolyline
 62
250
  6
CONTINUOUS
 90
19
 70
0
 10
70.35926888
 20
42.90899474
 10
70.3615318749
 20
42.9063080562
 10
70.3637800951
 20
42.9003756218
 10
70.3659988623
 20
42.8912361687
 10
70.3681736907
 20
42.8789493667
 10
70.3702903812
 20
42.8635954341
 10
70.3723351144
 20
42.8452746139
 10
70.3742945404
 20
42.8241065196
 10
70.3761558666
 20
42.8002293538
 10
70.3779069406
 20
42.7737990062
 10
70.3795363302
 20
42.7449880359
 10
70.3810333972
 20
42.7139845443
 10
70.3823883676
 20
42.6809909479
 10
70.383592395
 20
42.6462226557
 10
70.3846376185
 20
42.6099066638
 10
70.3855172142
 20
42.5722800727
 10
70.3862254391
 20
42.5335885397
 10
70.3867576696
 20
42.4940846748
 10
70.3871104307
 20
42.4540263917
  0
LINE
  5
38E
100
AcDbEntity
  8
ASSI
100
AcDbLine
 62
7
  6
CONTINUOUS
 10
-89.3763999096
 20
-42.95
 11
-91.0911160623
 21
-42.9050985773
  0
LINE
  5
38F
100
AcDbEntity
  8
ASSI
100
AcDbLine
 62
250
  6
CONTINUOUS
 10
-91.5399257928
 20
-42.5967081714
 11
-91.5400440922
 21
-42.5967268163
  0
LWPOLYLINE
  5
390
100
AcDbEntity
  8
ASSI
100
AcDbPolyline
 62
250
  6
CONTINUOUS
 90
16
 70
0
 10
-89.3763998764
 20
-42.1528974532
 10
-89.2451199164
 20
-42.138709247
 10
-89.113084658
 20
-42.120327641
 10
-88.9804634736
 20
-42.0977526353
 10
-88.8478552522
 20
-42.0712229888
 10
-88.7150180783
 20
-42.0404999425
 10
-88.5809074121
 20
-42.0048672196
 10
-88.4455722237
 20
-41.9643645784
 10
-88.3094810172
 20
-41.9189522605
 10
-88.1723076515
 20
-41.8677947137
 10
-88.0329247845
 20
-41.8100663783
 10
-87.8932203732
 20
-41.746592814
 10
-87.7572276157
 20
-41.6790151466
 10
-87.6262869297
 20
-41.6078804181
 10
-87.4993009079
 20
-41.5326415865
 10
-87.3764001019
 20
-41.4532986519
  0
LINE
  5
391
100
AcDbEntity
  8
ASSI
100
AcDbLine
 62
250
  6
CONTINUOUS
 10
-91.4115705663
 20
-42.1338409499
 11
-91.4253638678
 21
-42.1346522436
  0
LINE
  5
392
100
AcDbEntity
  8
ASSI
100
AcDbLine
 62
250
  6
CONTINUOUS
 10
-90.9411871588
 20
-42.1092987438
 11
-91.4115705663
 21
-42.1338409499
  0
LINE
  5
393
100
AcDbEntity
  8
ASSI
100
AcDbLine
 62
250
  6
CONTINUOUS
 10
-90.9411760676
 20
-42.1092990343
 11
-89.3763999096
 21
-42.15027414
  0
LINE
  5
394
100
AcDbEntity
  8
0
100
AcDbLine
 62
250
  6
CONTINUOUS
 10
-95.3102526765
 20
-27.3036609179
 11
-95.3322968085
 21
-27.3036609179
  0
LINE
  5
395
100
AcDbEntity
  8
0
100
AcDbLine
 62
7
  6
CONTINUOUS
 10
-95.3454080959
 20
-26.8133253901
 11
-95.4050927507
 21
-26.8133253901
  0
LINE
  5
396
100
AcDbEntity
  8
0
100
AcDbLine
 62
7
  6
CONTINUOUS
 10
-95.3464383304
 20
-26.7985541322
 11
-95.4072456563
 21
-26.7985541322
  0
LINE
  5
397
100
AcDbEntity
  8
0
100
AcDbLine
 62
250
  6
CONTINUOUS
 10
-95.5124675972
 20
-25.5359677442
 11
-95.583081454
 21
-25.5359677442
  0
LINE
  5
398
100
AcDbEntity
  8
SUPERFICI
100
AcDbLine
 62
7
  6
CONTINUOUS
 10
-95.5240376957
 20
-25.451114715
 11
-95.5946459335
 21
-25.451114715
  0
LINE
  5
399
100
AcDbEntity
  8
RACCORDO
100
AcDbLine
 62
250
  6
CONTINUOUS
 10
-95.8091826769
 20
-23.112201312
 11
-95.8094854857
 21
-23.112263353
  0
LINE
  5
39A
100
AcDbEntity
  8
RACCORDO
100
AcDbLine
 62
250
  6
CONTINUOUS
 10
-95.5775248653
 20
-23.0734181148
 11
-95.6276093404
 21
-23.0820250192
  0
LINE
  5
39B
100
AcDbEntity
  8
RACCORDO
100
AcDbLine
 62
250
  6
CONTINUOUS
 10
-95.6276093404
 20
-23.0820250192
 11
-95.8091826769
 21
-23.112201312
  0
LINE
  5
39C
100
AcDbEntity
  8
RACCORDO
100
AcDbLine
 62
250
  6
CONTINUOUS
 10
-95.5616999226
 20
-23.0707955386
 11
-95.5775248653
 21
-23.0734181148
  0
LINE
  5
39D
100
AcDbEntity
  8
RACCORDO
100
AcDbLine
 62
250
  6
CONTINUOUS
 10
-95.8068610186
 20
-23.1118200995
 11
-95.808295265
 21
-23.1120535608
  0
LWPOLYLINE
  5
39E
100
AcDbEntity
  8
RACCORDO
100
AcDbPolyline
 62
250
  6
CONTINUOUS
 90
7
 70
0
 10
-95.5028758533
 20
-23.0625283296
 10
-95.5145047836
 20
-23.0639520831
 10
-95.5252663343
 20
-23.0653524231
 10
-95.5352722267
 20
-23.0667335012
 10
-95.5445844819
 20
-23.0681015455
 10
-95.5533325429
 20
-23.0694570904
 10
-95.5616999226
 20
-23.0707955386
  0
LINE
  5
39F
100
AcDbEntity
  8
RACCORDO
100
AcDbLine
 62
7
  6
CONTINUOUS
 10
-95.5374621916
 20
-22.7803195845
 11
-95.5022514849
 21
-22.7772390468
  0
LINE
  5
3A0
100
AcDbEntity
  8
RACCORDO
100
AcDbLine
 62
250
  6
CONTINUOUS
 10
-95.5152953314
 20
-22.2658732009
 11
-95.5153481613
 21
-22.2658593132
  0
LINE
  5
3A1
100
AcDbEntity
  8
ASSI
100
AcDbLine
 62
7
  6
CONTINUOUS
 10
-92.1594948078
 20
40.9756332861
 11
-92.2843200765
 21
40.635048244
  0
LINE
  5
3A2
100
AcDbEntity
  8
ASSI
100
AcDbLine
 62
7
  6
CONTINUOUS
 10
-91.7616971852
 20
42.0287382115
 11
-91.791952336
 21
41.9458830906
  0
LINE
  5
3A3
100
AcDbEntity
  8
ASSI
100
AcDbLine
 62
7
  6
CONTINUOUS
 10
-92.0340077709
 20
41.3126644452
 11
-92.1610257721
 21
40.9714888074
  0
LINE
  5
3A4
100
AcDbEntity
  8
ASSI
100
AcDbLine
 62
7
  6
CONTINUOUS
 10
-91.7331621694
 20
42.1057131855
 11
-91.7616971852
 21
42.0287382115
  0
LINE
  5
3A5
100
AcDbEntity
  8
ASSI
100
AcDbLine
 62
7
  6
CONTINUOUS
 10
-91.7077673366
 20
42.1732501571
 11
-91.7331621694
 21
42.1057131855
  0
LINE
  5
3A6
100
AcDbEntity
  8
ASSI
100
AcDbLine
 62
7
  6
CONTINUOUS
 10
-91.6809242003
 20
42.2436460372
 11
-91.7077673366
 21
42.1732501571
  0
LINE
  5
3A7
100
AcDbEntity
  8
ASSI
100
AcDbLine
 62
7
  6
CONTINUOUS
 10
-91.6523439752
 20
42.3174804565
 11
-91.6809242003
 21
42.2436460372
  0
LWPOLYLINE
  5
3A8
100
AcDbEntity
  8
ASSI
100
AcDbPolyline
 62
7
  6
CONTINUOUS
 90
4
 70
0
 10
-91.7755101679
 20
41.9910662417
 10
-91.7760913444
 20
41.989574884
 10
-91.9061928913
 20
41.6506902332
 10
-92.0340077709
 20
41.3126644452
  0
LINE
  5
3A9
100
AcDbEntity
  8
ASSI
100
AcDbLine
 62
7
  6
CONTINUOUS
 10
-91.6282171474
 20
42.3789211501
 11
-91.6523439752
 21
42.3174804565
  0
LINE
  5
3AA
100
AcDbEntity
  8
ASSI
100
AcDbLine
 62
7
  6
CONTINUOUS
 10
-91.6033392567
 20
42.4414331474
 11
-91.6282171474
 21
42.3789211501
  0
LINE
  5
3AB
100
AcDbEntity
  8
ASSI
100
AcDbLine
 62
7
  6
CONTINUOUS
 10
-91.5775005839
 20
42.5054693244
 11
-91.6033392567
 21
42.4414331474
  0
LINE
  5
3AC
100
AcDbEntity
  8
ASSI
100
AcDbLine
 62
7
  6
CONTINUOUS
 10
-91.5507263284
 20
42.5708872831
 11
-91.5775002502
 21
42.5054701454
  0
LINE
  5
3AD
100
AcDbEntity
  8
ASSI
100
AcDbLine
 62
7
  6
CONTINUOUS
 10
-91.540033666
 20
42.5967520635
 11
-91.5574066379
 21
42.55465314
  0
LINE
  5
3AE
100
AcDbEntity
  8
ASSI
100
AcDbLine
 62
7
  6
CONTINUOUS
 10
-91.5626383721
 20
-42.54189863
 11
-91.54003361
 21
-42.5967521984
  0
LINE
  5
3AF
100
AcDbEntity
  8
ASSI
100
AcDbLine
 62
7
  6
CONTINUOUS
 10
-91.58948015
 20
-42.4758919659
 11
-91.5626383721
 21
-42.54189863
  0
LINE
  5
3B0
100
AcDbEntity
  8
ASSI
100
AcDbLine
 62
7
  6
CONTINUOUS
 10
-91.6159864455
 20
-42.4097598802
 11
-91.5894817052
 21
-42.4758881137
  0
LINE
  5
3B1
100
AcDbEntity
  8
ASSI
100
AcDbLine
 62
7
  6
CONTINUOUS
 10
-91.6411848236
 20
-42.3459985889
 11
-91.6159864455
 21
-42.4097598802
  0
LINE
  5
3B2
100
AcDbEntity
  8
ASSI
100
AcDbLine
 62
7
  6
CONTINUOUS
 10
-91.670483345
 20
-42.2707521435
 11
-91.6411848236
 21
-42.3459985889
  0
LINE
  5
3B3
100
AcDbEntity
  8
ASSI
100
AcDbLine
 62
7
  6
CONTINUOUS
 10
-91.6979036836
 20
-42.1992359906
 11
-91.670483345
 21
-42.2707521435
  0
LINE
  5
3B4
100
AcDbEntity
  8
ASSI
100
AcDbLine
 62
7
  6
CONTINUOUS
 10
-91.7236280994
 20
-42.1311758981
 11
-91.6979036836
 21
-42.1992359906
  0
LWPOLYLINE
  5
3B5
100
AcDbEntity
  8
ASSI
100
AcDbPolyline
 62
7
  6
CONTINUOUS
 90
4
 70
0
 10
-92.1272704095
 20
-41.0626832559
 10
-92.0066597646
 20
-41.3854277764
 10
-91.8844629147
 20
-41.7076491153
 10
-91.7771458694
 20
-41.986587122
  0
LINE
  5
3B6
100
AcDbEntity
  8
ASSI
100
AcDbLine
 62
7
  6
CONTINUOUS
 10
-91.7521547423
 20
-42.0546069618
 11
-91.7236280994
 21
-42.1311758981
  0
LINE
  5
3B7
100
AcDbEntity
  8
ASSI
100
AcDbLine
 62
7
  6
CONTINUOUS
 10
-92.2459718169
 20
-40.7402631717
 11
-92.1221519299
 21
-41.0764778466
  0
LINE
  5
3B8
100
AcDbEntity
  8
ASSI
100
AcDbLine
 62
7
  6
CONTINUOUS
 10
-91.7819809643
 20
-41.9733293269
 11
-91.7521547423
 21
-42.0546069618
  0
LINE
  5
3B9
100
AcDbEntity
  8
ASSI
100
AcDbLine
 62
7
  6
CONTINUOUS
 10
-92.3629011606
 20
-40.417790567
 11
-92.2399256406
 21
-40.7568042684
  0
LINE
  5
3BA
100
AcDbEntity
  8
ASSI
100
AcDbLine
 62
7
  6
CONTINUOUS
 10
-91.7936412437
 20
-41.9412209841
 11
-91.7819809643
 21
-41.9733293269
  0
LINE
  5
3BB
100
AcDbEntity
  8
ASSI
100
AcDbLine
 62
7
  6
CONTINUOUS
 10
-93.8856823959
 20
35.6388915671
 11
-93.9708175636
 21
35.3277788097
  0
LINE
  5
3BC
100
AcDbEntity
  8
ASSI
100
AcDbLine
 62
7
  6
CONTINUOUS
 10
-93.8032683121
 20
35.9336816178
 11
-93.8900607333
 21
35.6230609962
  0
LINE
  5
3BD
100
AcDbEntity
  8
ASSI
100
AcDbLine
 62
7
  6
CONTINUOUS
 10
-93.7193338495
 20
36.2280917028
 11
-93.807532463
 21
35.918572733
  0
LINE
  5
3BE
100
AcDbEntity
  8
ASSI
100
AcDbLine
 62
7
  6
CONTINUOUS
 10
-93.6337563009
 20
36.5227737196
 11
-93.7234842929
 21
36.2136630199
  0
LINE
  5
3BF
100
AcDbEntity
  8
ASSI
100
AcDbLine
 62
7
  6
CONTINUOUS
 10
-93.5458746122
 20
36.8201203688
 11
-93.6377907043
 21
36.5089987213
  0
LINE
  5
3C0
100
AcDbEntity
  8
ASSI
100
AcDbLine
 62
7
  6
CONTINUOUS
 10
-93.455515882
 20
37.120705122
 11
-93.5497896954
 21
36.8069811084
  0
LINE
  5
3C1
100
AcDbEntity
  8
ASSI
100
AcDbLine
 62
7
  6
CONTINUOUS
 10
-93.3628084006
 20
37.4239546164
 11
-93.4593129575
 21
37.1081751677
  0
LINE
  5
3C2
100
AcDbEntity
  8
ASSI
100
AcDbLine
 62
7
  6
CONTINUOUS
 10
-93.2674930102
 20
37.7305387448
 11
-93.3664875581
 21
37.4120164457
  0
LWPOLYLINE
  5
3C3
100
AcDbEntity
  8
ASSI
100
AcDbPolyline
 62
7
  6
CONTINUOUS
 90
3
 70
0
 10
-93.0686799674
 20
38.3540831077
 10
-93.1694493063
 20
38.0406485633
 10
-93.2710437372
 20
37.7192094434
  0
LINE
  5
3C4
100
AcDbEntity
  8
ASSI
100
AcDbLine
 62
7
  6
CONTINUOUS
 10
-93.0719326993
 20
38.3440470833
 11
-93.1728568002
 21
38.0299573878
  0
LINE
  5
3C5
100
AcDbEntity
  8
ASSI
100
AcDbLine
 62
7
  6
CONTINUOUS
 10
-92.965099326
 20
38.6709231818
 11
-93.0719326993
 21
38.3440470833
  0
LINE
  5
3C6
100
AcDbEntity
  8
ASSI
100
AcDbLine
 62
7
  6
CONTINUOUS
 10
-92.8585975592
 20
38.991317433
 11
-92.9681859885
 21
38.6615573174
  0
LINE
  5
3C7
100
AcDbEntity
  8
RACCORDO
100
AcDbLine
 62
7
  6
CONTINUOUS
 10
-91.5273918077
 20
42.5700727438
 11
-92.0157606882
 21
41.1203909844
  0
LINE
  5
3C8
100
AcDbEntity
  8
ASSI
100
AcDbLine
 62
7
  6
CONTINUOUS
 10
-92.749166649
 20
39.315107307
 11
-92.8615077331
 21
38.9826328814
  0
LINE
  5
3C9
100
AcDbEntity
  8
ASSI
100
AcDbLine
 62
7
  6
CONTINUOUS
 10
-92.6368794909
 20
39.6419124291
 11
-92.7518882429
 21
39.3071189961
  0
LINE
  5
3CA
100
AcDbEntity
  8
ASSI
100
AcDbLine
 62
7
  6
CONTINUOUS
 10
-92.5215424975
 20
39.9721356364
 11
-92.6393966844
 21
39.6346447092
  0
LINE
  5
3CB
100
AcDbEntity
  8
ASSI
100
AcDbLine
 62
7
  6
CONTINUOUS
 10
-92.4032450929
 20
40.3053652519
 11
-92.523836799
 21
39.9656189852
  0
LINE
  5
3CC
100
AcDbEntity
  8
ASSI
100
AcDbLine
 62
7
  6
CONTINUOUS
 10
-91.8250395684
 20
41.8538603005
 11
-92.0750359588
 21
41.142043612
  0
LINE
  5
3CD
100
AcDbEntity
  8
ASSI
100
AcDbLine
 62
7
  6
CONTINUOUS
 10
-92.2825199266
 20
40.639998996
 11
-92.4052995096
 21
40.299623947
  0
LWPOLYLINE
  5
3CE
100
AcDbEntity
  8
ASSI
100
AcDbPolyline
 62
7
  6
CONTINUOUS
 90
3
 70
0
 10
-91.791952336
 20
41.9458830906
 10
-91.7959748527
 20
41.9347728913
 10
-91.8250395684
 20
41.8538603005
  0
LINE
  5
3CF
100
AcDbEntity
  8
ASSI
100
AcDbLine
 62
7
  6
CONTINUOUS
 10
-92.4779187204
 20
-40.0956488718
 11
-92.3559733621
 21
-40.4370351312
  0
LINE
  5
3D0
100
AcDbEntity
  8
ASSI
100
AcDbLine
 62
7
  6
CONTINUOUS
 10
-91.8244710238
 20
-41.8554534857
 11
-91.7936412437
 21
-41.9412209841
  0
LINE
  5
3D1
100
AcDbEntity
  8
ASSI
100
AcDbLine
 62
7
  6
CONTINUOUS
 10
-92.0756721609
 20
-41.1402410659
 11
-92.0723894117
 21
-41.1495523901
  0
LINE
  5
3D2
100
AcDbEntity
  8
ASSI
100
AcDbLine
 62
7
  6
CONTINUOUS
 10
-91.8599848132
 20
-41.7552141138
 11
-91.8244710238
 21
-41.8554534857
  0
LINE
  5
3D3
100
AcDbEntity
  8
ASSI
100
AcDbLine
 62
7
  6
CONTINUOUS
 10
-92.5903346112
 20
-39.7758264013
 11
-92.4701533236
 21
-40.1175573252
  0
LINE
  5
3D4
100
AcDbEntity
  8
ASSI
100
AcDbLine
 62
7
  6
CONTINUOUS
 10
-92.0718391639
 20
-41.1511147954
 11
-91.8599848132
 21
-41.7552141138
  0
LINE
  5
3D5
100
AcDbEntity
  8
ASSI
100
AcDbLine
 62
7
  6
CONTINUOUS
 10
-92.7000410867
 20
-39.4587461949
 11
-92.581787243
 21
-39.8003214787
  0
LINE
  5
3D6
100
AcDbEntity
  8
ASSI
100
AcDbLine
 62
7
  6
CONTINUOUS
 10
-92.807223556
 20
-39.1439931724
 11
-92.6907713953
 21
-39.4857336023
  0
LWPOLYLINE
  5
3D7
100
AcDbEntity
  8
0
100
AcDbPolyline
 62
7
  6
CONTINUOUS
 90
3
 70
0
 10
-91.5273918077
 20
-42.5700727438
 10
-91.9535391053
 20
-41.3113272375
 10
-92.0146259316
 20
-41.1206806792
  0
LINE
  5
3D8
100
AcDbEntity
  8
ASSI
100
AcDbLine
 62
7
  6
CONTINUOUS
 10
-92.9116782163
 20
-38.8322982733
 11
-92.797283735
 21
-39.1733954146
  0
LINE
  5
3D9
100
AcDbEntity
  8
ASSI
100
AcDbLine
 62
7
  6
CONTINUOUS
 10
-93.013423606
 20
-38.5237627468
 11
-92.9011140378
 21
-38.8640509204
  0
LINE
  5
3DA
100
AcDbEntity
  8
ASSI
100
AcDbLine
 62
7
  6
CONTINUOUS
 10
-93.1125431635
 20
-38.2182943274
 11
-93.0022763254
 21
-38.5578102135
  0
LINE
  5
3DB
100
AcDbEntity
  8
ASSI
100
AcDbLine
 62
7
  6
CONTINUOUS
 10
-93.2089501816
 20
-37.9163331381
 11
-93.1008555898
 21
-38.2545719362
  0
LINE
  5
3DC
100
AcDbEntity
  8
ASSI
100
AcDbLine
 62
7
  6
CONTINUOUS
 10
-93.3026703206
 20
-37.6179884633
 11
-93.1967676462
 21
-37.9547624083
  0
LINE
  5
3DD
100
AcDbEntity
  8
ASSI
100
AcDbLine
 62
7
  6
CONTINUOUS
 10
-93.3937957747
 20
-37.3231596759
 11
-93.2900430396
 21
-37.6584692207
  0
LINE
  5
3DE
100
AcDbEntity
  8
ASSI
100
AcDbLine
 62
7
  6
CONTINUOUS
 10
-93.4823488193
 20
-37.0319707398
 11
-93.3807652979
 21
-37.3656132707
  0
LINE
  5
3DF
100
AcDbEntity
  8
ASSI
100
AcDbLine
 62
7
  6
CONTINUOUS
 10
-93.5681997705
 20
-36.7450643174
 11
-93.4689393917
 21
-37.0763696272
  0
LINE
  5
3E0
100
AcDbEntity
  8
ASSI
100
AcDbLine
 62
7
  6
CONTINUOUS
 10
-93.6515885197
 20
-36.4618020505
 11
-93.5544416716
 21
-36.7913560986
  0
LINE
  5
3E1
100
AcDbEntity
  8
ASSI
100
AcDbLine
 62
7
  6
CONTINUOUS
 10
-93.7330436065
 20
-36.1803809317
 11
-93.6375092864
 21
-36.5099599555
  0
LINE
  5
3E2
100
AcDbEntity
  8
ASSI
100
AcDbLine
 62
7
  6
CONTINUOUS
 10
-93.8125844642
 20
-35.9006525977
 11
-93.7186394132
 21
-36.2305045811
  0
LINE
  5
3E3
100
AcDbEntity
  8
ASSI
100
AcDbLine
 62
7
  6
CONTINUOUS
 10
-93.8901459829
 20
-35.6227525956
 11
-93.7978358761
 21
-35.9529080766
  0
LINE
  5
3E4
100
AcDbEntity
  8
ASSI
100
AcDbLine
 62
7
  6
CONTINUOUS
 10
-93.9660744399
 20
-35.345300618
 11
-93.875055868
 21
-35.6772401988
  0
LINE
  5
3E5
100
AcDbEntity
  8
ASSI
100
AcDbLine
 62
7
  6
CONTINUOUS
 10
-94.7135297566
 20
32.1363970022
 11
-94.7700007444
 21
31.8310617338
  0
LINE
  5
3E6
100
AcDbEntity
  8
ASSI
100
AcDbLine
 62
7
  6
CONTINUOUS
 10
-94.6585283406
 20
32.4201716213
 11
-94.7179644252
 21
32.1129581697
  0
LINE
  5
3E7
100
AcDbEntity
  8
ASSI
100
AcDbLine
 62
7
  6
CONTINUOUS
 10
-94.6007029849
 20
32.7061024791
 11
-94.6630650921
 21
32.3972256643
  0
LINE
  5
3E8
100
AcDbEntity
  8
ASSI
100
AcDbLine
 62
7
  6
CONTINUOUS
 10
-94.5400308867
 20
32.9943870961
 11
-94.6053248536
 21
32.6836719339
  0
LINE
  5
3E9
100
AcDbEntity
  8
ASSI
100
AcDbLine
 62
7
  6
CONTINUOUS
 10
-94.4766842018
 20
33.2843369921
 11
-94.5447180859
 21
32.972504364
  0
LINE
  5
3EA
100
AcDbEntity
  8
ASSI
100
AcDbLine
 62
7
  6
CONTINUOUS
 10
-94.4106798036
 20
33.5760473239
 11
-94.4814174862
 21
33.263027272
  0
LINE
  5
3EB
100
AcDbEntity
  8
ASSI
100
AcDbLine
 62
7
  6
CONTINUOUS
 10
-94.3420748638
 20
33.8694429633
 11
-94.415440495
 21
33.5553320779
  0
LINE
  5
3EC
100
AcDbEntity
  8
ASSI
100
AcDbLine
 62
7
  6
CONTINUOUS
 10
-94.2711434533
 20
34.1635815349
 11
-94.3468431524
 21
33.8493474384
  0
LINE
  5
3ED
100
AcDbEntity
  8
ASSI
100
AcDbLine
 62
7
  6
CONTINUOUS
 10
-94.197943357
 20
34.4584924369
 11
-94.2758978822
 21
34.1441350886
  0
LINE
  5
3EE
100
AcDbEntity
  8
ASSI
100
AcDbLine
 62
7
  6
CONTINUOUS
 10
-94.1225413616
 20
34.7541692811
 11
-94.2026602575
 21
34.4397327321
  0
LINE
  5
3EF
100
AcDbEntity
  8
ASSI
100
AcDbLine
 62
7
  6
CONTINUOUS
 10
-94.0452662475
 20
35.0496164573
 11
-94.1271989318
 21
34.7361258044
  0
LINE
  5
3F0
100
AcDbEntity
  8
ASSI
100
AcDbLine
 62
7
  6
CONTINUOUS
 10
-93.9663298074
 20
35.3443578388
 11
-94.049847775
 21
35.0322981232
  0
LWPOLYLINE
  5
3F1
100
AcDbEntity
  8
0
100
AcDbPolyline
 62
7
  6
CONTINUOUS
 90
3
 70
0
 43
0.3500000006
 10
-84.0238904114
 20
51.647513855
 10
-84.0953125305
 20
51.4332248383
 10
-84.2381748962
 20
51.1475137024
  0
LWPOLYLINE
  5
3F2
100
AcDbEntity
  8
0
100
AcDbPolyline
 62
7
  6
CONTINUOUS
 90
4
 70
0
 10
-95.5946423601
 20
-25.451114715
 10
-95.5946294891
 20
-25.451157844
 10
-95.5945033475
 20
-25.4519501461
 10
-95.5942310984
 20
-25.4537842609
  0
LINE
  5
3F3
100
AcDbEntity
  8
ASSI
100
AcDbLine
 62
7
  6
CONTINUOUS
 10
-94.0404423059
 20
-35.0678251795
 11
-93.9506701178
 21
-35.4020483497
  0
LINE
  5
3F4
100
AcDbEntity
  8
ASSI
100
AcDbLine
 62
7
  6
CONTINUOUS
 10
-94.1130688655
 20
-34.7907801768
 11
-94.0247553721
 21
-35.1268561833
  0
LINE
  5
3F5
100
AcDbEntity
  8
ASSI
100
AcDbLine
 62
7
  6
CONTINUOUS
 10
-94.1838957652
 20
-34.5141718869
 11
-94.097131296
 21
-34.8521231334
  0
LINE
  5
3F6
100
AcDbEntity
  8
ASSI
100
AcDbLine
 62
7
  6
CONTINUOUS
 10
-94.2528797951
 20
-34.2379419013
 11
-94.1677563368
 21
-34.5777987245
  0
LINE
  5
3F7
100
AcDbEntity
  8
ASSI
100
AcDbLine
 62
7
  6
CONTINUOUS
 10
-94.3199523061
 20
-33.9621294197
 11
-94.2365959149
 21
-34.3037952218
  0
LINE
  5
3F8
100
AcDbEntity
  8
ASSI
100
AcDbLine
 62
7
  6
CONTINUOUS
 10
-94.3850192544
 20
-33.6868871265
 11
-94.3035747069
 21
-34.0301816309
  0
LINE
  5
3F9
100
AcDbEntity
  8
ASSI
100
AcDbLine
 62
7
  6
CONTINUOUS
 10
-94.448018083
 20
-33.4122483463
 11
-94.3685919219
 21
-33.7571425048
  0
LINE
  5
3FA
100
AcDbEntity
  8
ASSI
100
AcDbLine
 62
7
  6
CONTINUOUS
 10
-94.5089062742
 20
-33.1381616817
 11
-94.4315783426
 21
-33.4847470796
  0
LINE
  5
3FB
100
AcDbEntity
  8
ASSI
100
AcDbLine
 62
7
  6
CONTINUOUS
 10
-94.5676242739
 20
-32.8646532988
 11
-94.4925016796
 21
-33.2129083897
  0
LINE
  5
3FC
100
AcDbEntity
  8
ASSI
100
AcDbLine
 62
7
  6
CONTINUOUS
 10
-94.624213578
 20
-32.5912609981
 11
-94.55131986
 21
-32.9415772044
  0
LINE
  5
3FD
100
AcDbEntity
  8
ASSI
100
AcDbLine
 62
7
  6
CONTINUOUS
 10
-94.6785250662
 20
-32.3184306123
 11
-94.6080719549
 21
-32.6703065576
  0
LINE
  5
3FE
100
AcDbEntity
  8
ASSI
100
AcDbLine
 62
7
  6
CONTINUOUS
 10
-94.7302517843
 20
-32.0475516649
 11
-94.6626107451
 21
-32.3995272144
  0
LINE
  5
3FF
100
AcDbEntity
  8
ASSI
100
AcDbLine
 62
7
  6
CONTINUOUS
 10
-94.7794225093
 20
-31.7785859032
 11
-94.7146455835
 21
-32.1305076922
  0
LINE
  5
400
100
AcDbEntity
  8
ASSI
100
AcDbLine
 62
7
  6
CONTINUOUS
 10
-95.1550916335
 20
-29.0828017229
 11
-95.1223896475
 21
-29.3875663765
  0
LINE
  5
401
100
AcDbEntity
  8
ASSI
100
AcDbLine
 62
7
  6
CONTINUOUS
 10
-95.1875153461
 20
-28.7598010007
 11
-95.1459259678
 21
-29.1702371649
  0
LINE
  5
402
100
AcDbEntity
  8
ASSI
100
AcDbLine
 62
7
  6
CONTINUOUS
 10
-95.2132535014
 20
-28.4868604024
 11
-95.1761609144
 21
-28.8754360322
  0
LINE
  5
403
100
AcDbEntity
  8
ASSI
100
AcDbLine
 62
7
  6
CONTINUOUS
 10
-95.2375967341
 20
-28.2138734223
 11
-95.2057664384
 21
-28.567861181
  0
LINE
  5
404
100
AcDbEntity
  8
ASSI
100
AcDbLine
 62
7
  6
CONTINUOUS
 10
-95.3944535774
 20
-26.113622617
 11
-95.3964345285
 21
-26.089417687
  0
LINE
  5
405
100
AcDbEntity
  8
ASSI
100
AcDbLine
 62
7
  6
CONTINUOUS
 10
-95.28200587
 20
-27.6751783507
 11
-95.2293745936
 21
-28.3077648209
  0
LINE
  5
406
100
AcDbEntity
  8
ASSI
100
AcDbLine
 62
7
  6
CONTINUOUS
 10
-95.2455871032
 20
28.1209266758
 11
-95.2817774249
 21
27.6780900428
  0
LINE
  5
407
100
AcDbEntity
  8
ASSI
100
AcDbLine
 62
7
  6
CONTINUOUS
 10
-95.2289795079
 20
28.3122324017
 11
-95.257479651
 21
27.9794064169
  0
LINE
  5
408
100
AcDbEntity
  8
ASSI
100
AcDbLine
 62
7
  6
CONTINUOUS
 10
-95.1952015617
 20
28.6799010995
 11
-95.230853943
 21
28.2910008984
  0
LINE
  5
409
100
AcDbEntity
  8
ASSI
100
AcDbLine
 62
7
  6
CONTINUOUS
 10
-95.1571289439
 20
29.0631439544
 11
-95.1973570572
 21
28.6572529328
  0
LINE
  5
40A
100
AcDbEntity
  8
ASSI
100
AcDbLine
 62
7
  6
CONTINUOUS
 10
-95.1342322359
 20
29.2794747198
 11
-95.1758380004
 21
28.8786838142
  0
LINE
  5
40B
100
AcDbEntity
  8
ASSI
100
AcDbLine
 62
7
  6
CONTINUOUS
 10
-95.1315972974
 20
29.3037415246
 11
-95.1546604639
 21
29.0869515156
  0
LINE
  5
40C
100
AcDbEntity
  8
ASSI
100
AcDbLine
 62
7
  6
CONTINUOUS
 10
-95.1064449163
 20
29.5292655406
 11
-95.1342322359
 21
29.2794747198
  0
LINE
  5
40D
100
AcDbEntity
  8
ASSI
100
AcDbLine
 62
7
  6
CONTINUOUS
 10
-95.0790311109
 20
29.7632930702
 11
-95.1092496918
 21
29.5046487256
  0
LINE
  5
40E
100
AcDbEntity
  8
ASSI
100
AcDbLine
 62
7
  6
CONTINUOUS
 10
-95.0493476446
 20
30.004197261
 11
-95.0820101135
 21
29.7384202768
  0
LINE
  5
40F
100
AcDbEntity
  8
ASSI
100
AcDbLine
 62
7
  6
CONTINUOUS
 10
-95.0172038147
 20
30.2519135902
 11
-95.0525041179
 21
29.9791577532
  0
LINE
  5
410
100
AcDbEntity
  8
ASSI
100
AcDbLine
 62
7
  6
CONTINUOUS
 10
-94.9823813295
 20
30.5064836418
 11
-95.0205396797
 21
30.2267989834
  0
LWPOLYLINE
  5
411
100
AcDbEntity
  8
RACCORDO
100
AcDbPolyline
 62
7
  6
CONTINUOUS
 90
3
 70
0
 10
-95.3555933758
 20
26.666791356
 10
-95.5899563732
 20
24.9520582271
 10
-95.8094854857
 20
23.112263353
  0
LINE
  5
412
100
AcDbEntity
  8
ASSI
100
AcDbLine
 62
7
  6
CONTINUOUS
 10
-94.9448696367
 20
30.7664403393
 11
-94.9858976071
 21
30.4813831334
  0
LINE
  5
413
100
AcDbEntity
  8
ASSI
100
AcDbLine
 62
7
  6
CONTINUOUS
 10
-94.90447185
 20
31.0318864326
 11
-94.948566325
 21
30.7414311233
  0
LINE
  5
414
100
AcDbEntity
  8
ASSI
100
AcDbLine
 62
7
  6
CONTINUOUS
 10
-94.8610644623
 20
31.302709576
 11
-94.9083428477
 21
31.0070430184
  0
LINE
  5
415
100
AcDbEntity
  8
ASSI
100
AcDbLine
 62
7
  6
CONTINUOUS
 10
-94.8148209651
 20
31.577124332
 11
-94.865099093
 21
31.278107913
  0
LINE
  5
416
100
AcDbEntity
  8
ASSI
100
AcDbLine
 62
7
  6
CONTINUOUS
 10
-94.7656821847
 20
31.8549609948
 11
-94.8190061093
 21
31.5528340176
  0
LINE
  5
417
100
AcDbEntity
  8
ASSI
100
AcDbLine
 62
7
  6
CONTINUOUS
 10
-94.8260765903
 20
-31.511560026
 11
-94.7641933713
 21
-31.8631781523
  0
LINE
  5
418
100
AcDbEntity
  8
ASSI
100
AcDbLine
 62
7
  6
CONTINUOUS
 10
-94.8700177432
 20
-31.2479638058
 11
-94.8112798168
 21
-31.5975965556
  0
LINE
  5
419
100
AcDbEntity
  8
ASSI
100
AcDbLine
 62
7
  6
CONTINUOUS
 10
-94.9113228927
 20
-30.9878356614
 11
-94.8557038116
 21
-31.3352257038
  0
LINE
  5
41A
100
AcDbEntity
  8
0
100
AcDbLine
 62
7
  6
CONTINUOUS
 10
-95.4050927507
 20
-26.8133253901
 11
-95.4033751332
 21
-26.8246246229
  0
LINE
  5
41B
100
AcDbEntity
  8
ASSI
100
AcDbLine
 62
7
  6
CONTINUOUS
 10
-94.950083068
 20
-30.7311328802
 11
-94.8975378332
 21
-31.0760921772
  0
LWPOLYLINE
  5
41C
100
AcDbEntity
  8
0
100
AcDbPolyline
 62
7
  6
CONTINUOUS
 90
4
 70
0
 10
-95.5236255459
 20
-25.4537665037
 10
-95.5238970559
 20
-25.4519190472
 10
-95.5240218844
 20
-25.4511770661
 10
-95.5240340335
 20
-25.4511423894
  0
LINE
  5
41D
100
AcDbEntity
  8
0
100
AcDbLine
 62
7
  6
CONTINUOUS
 10
-95.4072456563
 20
-26.7985541322
 11
-95.4050927507
 21
-26.8133253901
  0
LINE
  5
41E
100
AcDbEntity
  8
0
100
AcDbLine
 62
7
  6
CONTINUOUS
 10
-95.4116473569
 20
-26.7681992846
 11
-95.4096571653
 21
-26.7818122911
  0
LINE
  5
41F
100
AcDbEntity
  8
ASSI
100
AcDbLine
 62
7
  6
CONTINUOUS
 10
-94.9861986307
 20
-30.4792282129
 11
-94.9368648657
 21
-30.8201643185
  0
LWPOLYLINE
  5
420
100
AcDbEntity
  8
0
100
AcDbPolyline
 62
7
  6
CONTINUOUS
 90
3
 70
0
 10
-95.4033751332
 20
-26.8246246229
 10
-95.3993367461
 20
-26.8526331595
 10
-95.2885663251
 20
-27.5905301168
  0
LWPOLYLINE
  5
421
100
AcDbEntity
  8
0
100
AcDbPolyline
 62
7
  6
CONTINUOUS
 90
5
 70
0
 10
-95.4096571653
 20
-26.7818122911
 10
-95.408832847
 20
-26.7875993992
 10
-95.4081674147
 20
-26.792508422
 10
-95.4076383511
 20
-26.7962439129
 10
-95.4072456563
 20
-26.7985541322
  0
LINE
  5
422
100
AcDbEntity
  8
0
100
AcDbLine
 62
7
  6
CONTINUOUS
 10
-95.3556036889
 20
-26.666641354
 11
-95.4199800307
 21
-26.212931565
  0
LINE
  5
423
100
AcDbEntity
  8
0
100
AcDbLine
 62
7
  6
CONTINUOUS
 10
-95.5046017681
 20
-26.1127318182
 11
-95.4116473569
 21
-26.7681992846
  0
LINE
  5
424
100
AcDbEntity
  8
0
100
AcDbLine
 62
7
  6
CONTINUOUS
 10
-95.5219062882
 20
-25.4661256264
 11
-95.5236255459
 21
-25.4537665037
  0
LINE
  5
425
100
AcDbEntity
  8
ASSI
100
AcDbLine
 62
7
  6
CONTINUOUS
 10
-95.0198262587
 20
-30.2321812481
 11
-94.9735688594
 21
-30.5688213261
  0
LINE
  5
426
100
AcDbEntity
  8
0
100
AcDbLine
 62
7
  6
CONTINUOUS
 10
-95.5942310984
 20
-25.4537842609
 11
-95.5915787624
 21
-25.4729188258
  0
LINE
  5
427
100
AcDbEntity
  8
0
100
AcDbLine
 62
7
  6
CONTINUOUS
 10
-95.4199800307
 20
-26.212931565
 11
-95.4927363314
 21
-25.68266565
  0
LINE
  5
428
100
AcDbEntity
  8
0
100
AcDbLine
 62
7
  6
CONTINUOUS
 10
-95.4927363314
 20
-25.68266565
 11
-95.5219062882
 21
-25.4661256264
  0
LINE
  5
429
100
AcDbEntity
  8
0
100
AcDbLine
 62
7
  6
CONTINUOUS
 10
-95.5915787624
 20
-25.4729188258
 11
-95.5853449417
 21
-25.5187823508
  0
LINE
  5
42A
100
AcDbEntity
  8
0
100
AcDbLine
 62
7
  6
CONTINUOUS
 10
-95.5853449417
 20
-25.5187823508
 11
-95.5046017681
 21
-26.1127318182
  0
LINE
  5
42B
100
AcDbEntity
  8
ASSI
100
AcDbLine
 62
7
  6
CONTINUOUS
 10
-95.0511455901
 20
-29.9899509027
 11
-95.0077793858
 21
-30.3221596326
  0
LINE
  5
42C
100
AcDbEntity
  8
0
100
AcDbLine
 62
7
  6
CONTINUOUS
 10
-95.5248557331
 20
-25.451250135
 11
-95.6218413554
 21
-24.7004106599
  0
LINE
  5
42D
100
AcDbEntity
  8
ASSI
100
AcDbLine
 62
7
  6
CONTINUOUS
 10
-95.0801740207
 20
-29.7537660751
 11
-95.0396767089
 21
-30.0800981849
  0
LINE
  5
42E
100
AcDbEntity
  8
0
100
AcDbLine
 62
7
  6
CONTINUOUS
 10
-95.6218413554
 20
-24.7004106599
 11
-95.7179985246
 21
-23.9110171109
  0
LINE
  5
42F
100
AcDbEntity
  8
ASSI
100
AcDbLine
 62
7
  6
CONTINUOUS
 10
-95.1071268757
 20
-29.5232920546
 11
-95.0692854469
 21
-29.8437547335
  0
LINE
  5
430
100
AcDbEntity
  8
0
100
AcDbLine
 62
7
  6
CONTINUOUS
 10
-95.7179985246
 20
-23.9110171109
 11
-95.8094854857
 21
-23.112263353
  0
LINE
  5
431
100
AcDbEntity
  8
ASSI
100
AcDbLine
 62
7
  6
CONTINUOUS
 10
-95.1321259388
 20
-29.2988830037
 11
-95.0968174595
 21
-29.6127919609
  0
LINE
  5
432
100
AcDbEntity
  8
ASSI
100
AcDbLine
 62
7
  6
CONTINUOUS
 10
-95.3964345285
 20
-26.089417687
 11
-95.3921773512
 21
-26.1454783229
  0
LINE
  5
433
100
AcDbEntity
  8
ASSI
100
AcDbLine
 62
7
  6
CONTINUOUS
 10
-95.3128703685
 20
-27.2683964044
 11
-95.2765282597
 21
-27.7445884874
  0
LINE
  5
434
100
AcDbEntity
  8
ASSI
100
AcDbLine
 62
7
  6
CONTINUOUS
 10
-95.3921773512
 20
-26.1454783229
 11
-95.373623551
 21
-26.4060696186
  0
LINE
  5
435
100
AcDbEntity
  8
ASSI
100
AcDbLine
 62
7
  6
CONTINUOUS
 10
-95.373623551
 20
-26.4060696186
 11
-95.3128703685
 21
-27.2683964044
  0
LINE
  5
436
100
AcDbEntity
  8
RACCORDO
100
AcDbLine
 62
7
  6
CONTINUOUS
 10
-95.5961568417
 20
-19.6095952826
 11
-95.512520995
 21
-22.3577065578
  0
LINE
  5
437
100
AcDbEntity
  8
RACCORDO
100
AcDbLine
 62
250
  6
CONTINUOUS
 10
-95.5856594323
 20
-19.9678039285
 11
-95.5696722535
 21
-20.5047963972
  0
LINE
  5
438
100
AcDbEntity
  8
RACCORDO
100
AcDbLine
 62
7
  6
CONTINUOUS
 10
-95.5006343411
 20
23.019167282
 11
-95.5005125337
 21
23.0148629854
  0
LINE
  5
439
100
AcDbEntity
  8
RACCORDO
100
AcDbLine
 62
7
  6
CONTINUOUS
 10
-95.512520995
 20
-22.3577065578
 11
-95.507150549
 21
-22.5531357955
  0
LWPOLYLINE
  5
43A
100
AcDbEntity
  8
RACCORDO
100
AcDbPolyline
 62
250
  6
CONTINUOUS
 90
3
 70
0
 10
-95.6521414952
 20
-17.5102776745
 10
-95.6403504119
 20
-17.9845139716
 10
-95.5961568417
 20
-19.6095952826
  0
LINE
  5
43B
100
AcDbEntity
  8
RACCORDO
100
AcDbLine
 62
7
  6
CONTINUOUS
 10
-95.507150549
 20
-22.5531357955
 11
-95.5036691391
 21
-22.7040602177
  0
LINE
  5
43C
100
AcDbEntity
  8
RACCORDO
100
AcDbLine
 62
7
  6
CONTINUOUS
 10
-95.5005125337
 20
23.0148629854
 11
-95.5003901371
 21
23.0090500762
  0
LINE
  5
43D
100
AcDbEntity
  8
RACCORDO
100
AcDbLine
 62
7
  6
CONTINUOUS
 10
-95.5036691391
 20
-22.7040602177
 11
-95.5016013629
 21
-22.8157056997
  0
LWPOLYLINE
  5
43E
100
AcDbEntity
  8
RACCORDO
100
AcDbPolyline
 62
250
  6
CONTINUOUS
 90
3
 70
0
 10
-95.5028758533
 20
23.0625283296
 10
-95.5023848929
 20
23.0321861215
 10
-95.5005617441
 20
23.0167233816
  0
LINE
  5
43F
100
AcDbEntity
  8
RACCORDO
100
AcDbLine
 62
7
  6
CONTINUOUS
 10
-95.5003901371
 20
23.0090500762
 11
-95.5002806961
 21
23.0018048366
  0
LINE
  5
440
100
AcDbEntity
  8
RACCORDO
100
AcDbLine
 62
7
  6
CONTINUOUS
 10
-95.5016013629
 20
-22.8157056997
 11
-95.5006279745
 21
-22.8863189085
  0
LINE
  5
441
100
AcDbEntity
  8
RACCORDO
100
AcDbLine
 62
7
  6
CONTINUOUS
 10
-95.5002806961
 20
23.0018048366
 11
-95.50015771
 21
22.988320039
  0
LINE
  5
442
100
AcDbEntity
  8
RACCORDO
100
AcDbLine
 62
7
  6
CONTINUOUS
 10
-95.5006279745
 20
-22.8863189085
 11
-95.5001986655
 21
-22.9356326987
  0
LINE
  5
443
100
AcDbEntity
  8
RACCORDO
100
AcDbLine
 62
250
  6
CONTINUOUS
 10
-95.500105962
 20
-22.9274620893
 11
-95.5001986655
 21
-22.9356326987
  0
LINE
  5
444
100
AcDbEntity
  8
RACCORDO
100
AcDbLine
 62
250
  6
CONTINUOUS
 10
-95.5001599001
 20
-22.9428451387
 11
-95.499937854
 21
-22.9547690257
  0
LINE
  5
445
100
AcDbEntity
  8
RACCORDO
100
AcDbLine
 62
250
  6
CONTINUOUS
 10
-95.5001034326
 20
-22.9745526388
 11
-95.499886068
 21
-22.9792543877
  0
LINE
  5
446
100
AcDbEntity
  8
RACCORDO
100
AcDbLine
 62
7
  6
CONTINUOUS
 10
-95.50015771
 20
22.988320039
 11
-95.5000992495
 21
22.9719120878
  0
LINE
  5
447
100
AcDbEntity
  8
RACCORDO
100
AcDbLine
 62
7
  6
CONTINUOUS
 10
-95.5001986655
 20
-22.9356326987
 11
-95.5000992727
 21
-22.9627307897
  0
LWPOLYLINE
  5
448
100
AcDbEntity
  8
RACCORDO
100
AcDbPolyline
 62
7
  6
CONTINUOUS
 90
9
 70
0
 10
-95.85146725
 20
-0.0000000001
 10
-95.8480500127
 20
-2.1706502461
 10
-95.8372440516
 20
-4.4819361168
 10
-95.8190389554
 20
-6.8532253868
 10
-95.7934960214
 20
-9.2845292175
 10
-95.7607293483
 20
-11.7758171254
 10
-95.7193407827
 20
-14.3271571997
 10
-95.665783881
 20
-16.9384825162
 10
-95.5961568417
 20
-19.6095952826
  0
LINE
  5
449
100
AcDbEntity
  8
RACCORDO
100
AcDbLine
 62
250
  6
CONTINUOUS
 10
-95.4998878723
 20
22.9796747987
 11
-95.5000992495
 21
22.9719120878
  0
LWPOLYLINE
  5
44A
100
AcDbEntity
  8
RACCORDO
100
AcDbPolyline
 62
250
  6
CONTINUOUS
 90
3
 70
0
 10
-95.5001037871
 20
22.9594208914
 10
-95.499938654
 20
22.9549271252
 10
-95.5001466987
 20
22.9456851989
  0
LINE
  5
44B
100
AcDbEntity
  8
RACCORDO
100
AcDbLine
 62
7
  6
CONTINUOUS
 10
-95.5000992727
 20
-22.9627307897
 11
-95.5001179688
 21
-22.9800341663
  0
LINE
  5
44C
100
AcDbEntity
  8
RACCORDO
100
AcDbLine
 62
250
  6
CONTINUOUS
 10
-95.5001698097
 20
-22.9901581667
 11
-95.4999527384
 21
-23.0007059251
  0
LINE
  5
44D
100
AcDbEntity
  8
RACCORDO
100
AcDbLine
 62
7
  6
CONTINUOUS
 10
-95.5000992495
 20
22.9719120878
 11
-95.5001466987
 21
22.9456851989
  0
LINE
  5
44E
100
AcDbEntity
  8
RACCORDO
100
AcDbLine
 62
250
  6
CONTINUOUS
 10
-95.5001830973
 20
22.9383391834
 11
-95.5001063927
 21
22.9274072603
  0
LINE
  5
44F
100
AcDbEntity
  8
RACCORDO
100
AcDbLine
 62
7
  6
CONTINUOUS
 10
-95.5001179688
 20
-22.9800341663
 11
-95.5002059758
 21
-22.9947684203
  0
LINE
  5
450
100
AcDbEntity
  8
RACCORDO
100
AcDbLine
 62
7
  6
CONTINUOUS
 10
-95.5001466987
 20
22.9456851989
 11
-95.5004288478
 21
22.9057635284
  0
LINE
  5
451
100
AcDbEntity
  8
RACCORDO
100
AcDbLine
 62
250
  6
CONTINUOUS
 10
-95.5001063927
 20
22.9274072603
 11
-95.5004288478
 21
22.9057635284
  0
LWPOLYLINE
  5
452
100
AcDbEntity
  8
RACCORDO
100
AcDbPolyline
 62
250
  6
CONTINUOUS
 90
7
 70
0
 10
-95.5002969875
 20
-23.0030627376
 10
-95.5001392025
 20
-23.0191547607
 10
-95.5004451771
 20
-23.0345697033
 10
-95.500870935
 20
-23.0466450674
 10
-95.501417313
 20
-23.0552789819
 10
-95.5020853297
 20
-23.0605733824
 10
-95.5028758533
 20
-23.0625283296
  0
LINE
  5
453
100
AcDbEntity
  8
RACCORDO
100
AcDbLine
 62
7
  6
CONTINUOUS
 10
-95.5002059758
 20
-22.9947684203
 11
-95.5002969875
 21
-23.0030627376
  0
LINE
  5
454
100
AcDbEntity
  8
RACCORDO
100
AcDbLine
 62
7
  6
CONTINUOUS
 10
-95.5004288478
 20
22.9057635284
 11
-95.5011255092
 21
22.8472542611
  0
LINE
  5
455
100
AcDbEntity
  8
RACCORDO
100
AcDbLine
 62
250
  6
CONTINUOUS
 10
-95.5007947575
 20
22.8640139359
 11
-95.5011255092
 21
22.8472542611
  0
LINE
  5
456
100
AcDbEntity
  8
RACCORDO
100
AcDbLine
 62
250
  6
CONTINUOUS
 10
-95.5012838616
 20
22.8363359357
 11
-95.5013078075
 21
22.8285747574
  0
LWPOLYLINE
  5
457
100
AcDbEntity
  8
RACCORDO
100
AcDbPolyline
 62
250
  6
CONTINUOUS
 90
3
 70
0
 10
-95.5028758533
 20
-23.0625283296
 10
-95.5023849272
 20
-23.0321866302
 10
-95.5005623743
 20
-23.0167286219
  0
LINE
  5
458
100
AcDbEntity
  8
RACCORDO
100
AcDbLine
 62
7
  6
CONTINUOUS
 10
-95.5002969875
 20
-23.0030627376
 11
-95.5004090845
 21
-23.0100734784
  0
LINE
  5
459
100
AcDbEntity
  8
RACCORDO
100
AcDbLine
 62
7
  6
CONTINUOUS
 10
-95.5011255092
 20
22.8472542611
 11
-95.502746461
 21
22.750356
  0
LINE
  5
45A
100
AcDbEntity
  8
RACCORDO
100
AcDbLine
 62
7
  6
CONTINUOUS
 10
-95.502746461
 20
22.750356
 11
-95.5056290257
 21
22.6155261719
  0
LINE
  5
45B
100
AcDbEntity
  8
RACCORDO
100
AcDbLine
 62
250
  6
CONTINUOUS
 10
-95.50547957
 20
22.6193577215
 11
-95.5056290257
 21
22.6155261719
  0
LINE
  5
45C
100
AcDbEntity
  8
RACCORDO
100
AcDbLine
 62
7
  6
CONTINUOUS
 10
-95.5004090845
 20
-23.0100734784
 11
-95.5005341916
 21
-23.0157167429
  0
LWPOLYLINE
  5
45D
100
AcDbEntity
  8
RACCORDO
100
AcDbPolyline
 62
7
  6
CONTINUOUS
 90
9
 70
0
 10
-95.5938016251
 20
19.6911555868
 10
-95.6625805661
 20
17.0762571062
 10
-95.7161359764
 20
14.502392856
 10
-95.7578936156
 20
11.9697860735
 10
-95.7911811297
 20
9.4785074742
 10
-95.8174229739
 20
7.0284905476
 10
-95.8363777709
 20
4.6197438806
 10
-95.84779133
 20
2.2522588989
 10
-95.85146725
 20
-0.0000000001
  0
LWPOLYLINE
  5
45E
100
AcDbEntity
  8
RACCORDO
100
AcDbPolyline
 62
250
  6
CONTINUOUS
 90
3
 70
0
 10
-95.6137875885
 20
18.9841882081
 10
-95.6263874489
 20
18.520784992
 10
-95.6625805661
 20
17.0762571062
  0
LINE
  5
45F
100
AcDbEntity
  8
RACCORDO
100
AcDbLine
 62
7
  6
CONTINUOUS
 10
-95.5056290257
 20
22.6155261719
 11
-95.5102599313
 21
22.4362359803
  0
LINE
  5
460
100
AcDbEntity
  8
RACCORDO
100
AcDbLine
 62
7
  6
CONTINUOUS
 10
-95.5102599313
 20
22.4362359803
 11
-95.5938016251
 21
19.6911555868
  0
LWPOLYLINE
  5
461
100
AcDbEntity
  8
RACCORDO
100
AcDbPolyline
 62
7
  6
CONTINUOUS
 90
4
 70
0
 10
-95.5005341916
 20
-23.0157167429
 10
-95.500657321
 20
-23.0198475052
 10
-95.5007091329
 20
-23.0212502557
 10
-95.5007504898
 20
-23.0222303491
  0
LINE
  5
462
100
AcDbEntity
  8
ASSI
100
AcDbLine
 62
7
  6
CONTINUOUS
 10
-95.312746861
 20
27.2700759025
 11
-95.3895957663
 21
26.1805160736
  0
LINE
  5
463
100
AcDbEntity
  8
ASSI
100
AcDbLine
 62
7
  6
CONTINUOUS
 10
-95.3895957663
 20
26.1805160736
 11
-95.3958771125
 21
26.0965544963
  0
LINE
  5
464
100
AcDbEntity
  8
ASSI
100
AcDbLine
 62
7
  6
CONTINUOUS
 10
-95.2817774249
 20
27.6780900428
 11
-95.3140489262
 21
27.2523499571
  0
LINE
  5
465
100
AcDbEntity
  8
ASSI
100
AcDbLine
 62
7
  6
CONTINUOUS
 10
-95.2716076722
 20
27.8062190435
 11
-95.2832637165
 21
27.6591198568
  0
LINE
  5
466
100
AcDbEntity
  8
RACCORDO
100
AcDbLine
 62
7
  6
CONTINUOUS
 10
-87.3763999096
 20
-3.6023718431
 11
-89.1816352993
 21
-3.5551000908
  0
LWPOLYLINE
  5
467
100
AcDbEntity
  8
ASSI
100
AcDbPolyline
 62
250
  6
CONTINUOUS
 90
19
 70
0
 10
-91.4264440422
 20
-42.4540263791
 10
-91.4212081474
 20
-42.4940846929
 10
-91.4127602735
 20
-42.5335885831
 10
-91.4011555763
 20
-42.5722801359
 10
-91.3864698224
 20
-42.6099067396
 10
-91.3687988932
 20
-42.6462227387
 10
-91.3482581575
 20
-42.6809910367
 10
-91.3249817211
 20
-42.7139846387
 10
-91.2991215526
 20
-42.744988134
 10
-91.2708464884
 20
-42.773799106
 10
-91.2403411314
 20
-42.8002294531
 10
-91.2078046456
 20
-42.8241066159
 10
-91.1734494561
 20
-42.8452747047
 10
-91.137499852
 20
-42.8635955212
 10
-91.1001905511
 20
-42.8789494459
 10
-91.061765171
 20
-42.8912362267
 10
-91.0224745972
 20
-42.9003756511
 10
-90.9825753416
 20
-42.9063080609
 10
-90.9423278994
 20
-42.9089947325
  0
LWPOLYLINE
  5
468
100
AcDbEntity
  8
RACCORDO
100
AcDbPolyline
 62
7
  6
CONTINUOUS
 90
7
 70
0
 10
-95.500666424
 20
23.0211301067
 10
-95.5007482144
 20
23.0222986021
 10
-95.5007776645
 20
23.0227847489
 10
-95.5007658986
 20
23.0225571014
 10
-95.5007344785
 20
23.0218664599
 10
-95.5006900052
 20
23.0207560756
 10
-95.5006343411
 20
23.019167282
  0
LWPOLYLINE
  5
469
100
AcDbEntity
  8
ASSI
100
AcDbPolyline
 62
250
  6
CONTINUOUS
 90
4
 70
0
 10
-90.9710366411
 20
-41.4237489285
 10
-90.961843831
 20
-41.6613206855
 10
-90.9518903065
 20
-41.8898373875
 10
-90.9411760676
 20
-42.1092990343
  0
LWPOLYLINE
  5
46A
100
AcDbEntity
  8
ASSI
100
AcDbPolyline
 62
250
  6
CONTINUOUS
 90
3
 70
0
 10
-91.4230302721
 20
-42.194243257
 10
-91.4237034324
 20
-42.1746277762
 10
-91.4244754919
 20
-42.1548543665
  0
LWPOLYLINE
  5
46B
100
AcDbEntity
  8
ASSI
100
AcDbPolyline
 62
250
  6
CONTINUOUS
 90
4
 70
0
 10
-91.4521009634
 20
-41.4417461079
 10
-91.4440211488
 20
-41.681711751
 10
-91.4351047837
 20
-41.912770946
 10
-91.4244754919
 20
-42.1548543665
  0
LINE
  5
46C
100
AcDbEntity
  8
ASSI
100
AcDbLine
 62
250
  6
CONTINUOUS
 10
-90.9871554431
 20
-40.9224130886
 11
-90.9710366411
 21
-41.4237489285
  0
LINE
  5
46D
100
AcDbEntity
  8
ASSI
100
AcDbLine
 62
250
  6
CONTINUOUS
 10
-91.4219468291
 20
-42.233181724
 11
-91.4230302721
 21
-42.194243257
  0
LINE
  5
46E
100
AcDbEntity
  8
ASSI
100
AcDbLine
 62
250
  6
CONTINUOUS
 10
-91.4657388564
 20
-40.9360917093
 11
-91.4521009634
 21
-41.4417461079
  0
LWPOLYLINE
  5
46F
100
AcDbEntity
  8
ASSI
100
AcDbPolyline
 62
250
  6
CONTINUOUS
 90
3
 70
0
 10
-91.0054686269
 20
-40.0937934653
 10
-91.0001515569
 20
-40.3805055532
 10
-90.9871554431
 20
-40.9224130886
  0
LINE
  5
470
100
AcDbEntity
  8
ASSI
100
AcDbLine
 62
250
  6
CONTINUOUS
 10
-91.4211976719
 20
-42.2706382549
 11
-91.4219468291
 21
-42.233181724
  0
LINE
  5
471
100
AcDbEntity
  8
ASSI
100
AcDbLine
 62
250
  6
CONTINUOUS
 10
-91.4763314468
 20
-40.3903833758
 11
-91.4657388564
 21
-40.9360917093
  0
LINE
  5
472
100
AcDbEntity
  8
ASSI
100
AcDbLine
 62
250
  6
CONTINUOUS
 10
-91.4840869432
 20
-39.8016119225
 11
-91.4763314468
 21
-40.3903833758
  0
LWPOLYLINE
  5
473
100
AcDbEntity
  8
ASSI
100
AcDbPolyline
 62
250
  6
CONTINUOUS
 90
3
 70
0
 10
-91.4206291467
 20
-42.322827523
 10
-91.420748041
 20
-42.3061038502
 10
-91.4211976719
 20
-42.2706382549
  0
LINE
  5
474
100
AcDbEntity
  8
ASSI
100
AcDbLine
 62
250
  6
CONTINUOUS
 10
-91.489305998
 20
-39.1632073173
 11
-91.4840869432
 21
-39.8016119225
  0
LINE
  5
475
100
AcDbEntity
  8
ASSI
100
AcDbLine
 62
250
  6
CONTINUOUS
 10
-91.4855072595
 20
39.6606525553
 11
-91.4903734999
 21
38.9642704464
  0
LINE
  5
476
100
AcDbEntity
  8
ASSI
100
AcDbLine
 62
250
  6
CONTINUOUS
 10
-91.4209370068
 20
42.288700845
 11
-91.4206291655
 21
42.3228243276
  0
LINE
  5
477
100
AcDbEntity
  8
ASSI
100
AcDbLine
 62
250
  6
CONTINUOUS
 10
-91.4771136749
 20
40.3407459876
 11
-91.4855072595
 21
39.6606525553
  0
LWPOLYLINE
  5
478
100
AcDbEntity
  8
ASSI
100
AcDbPolyline
 62
250
  6
CONTINUOUS
 90
3
 70
0
 10
-91.0011505147
 20
40.3311715458
 10
-91.0070388096
 20
39.9971910583
 10
-91.0154981497
 20
39.3085972133
  0
LINE
  5
479
100
AcDbEntity
  8
ASSI
100
AcDbLine
 62
250
  6
CONTINUOUS
 10
-91.421531855
 20
42.2521327879
 11
-91.4209370068
 21
42.288700845
  0
LWPOLYLINE
  5
47A
100
AcDbEntity
  8
ASSI
100
AcDbPolyline
 62
250
  6
CONTINUOUS
 90
5
 70
0
 10
-91.4369646564
 20
41.8668053641
 10
-91.4473458408
 20
41.586711988
 10
-91.4565260547
 20
41.2940558532
 10
-91.464555
 20
40.9874192826
 10
-91.4771136749
 20
40.3407459876
  0
LWPOLYLINE
  5
47B
100
AcDbEntity
  8
ASSI
100
AcDbPolyline
 62
250
  6
CONTINUOUS
 90
6
 70
0
 10
-91.4369646564
 20
41.8668053641
 10
-91.4244881202
 20
42.1545270801
 10
-91.4237086229
 20
42.1744964478
 10
-91.4230303022
 20
42.1942423206
 10
-91.4224447187
 20
42.2138341134
 10
-91.421531855
 20
42.2521327879
  0
LWPOLYLINE
  5
47C
100
AcDbEntity
  8
ASSI
100
AcDbPolyline
 62
250
  6
CONTINUOUS
 90
6
 70
0
 10
-90.9412039656
 20
42.1092983037
 10
-90.9539805329
 20
41.8447016577
 10
-90.9656429099
 20
41.5674018862
 10
-90.9761910966
 20
41.2773989892
 10
-90.9856467252
 20
40.9732862543
 10
-91.0011505147
 20
40.3311715458
  0
LINE
  5
47D
100
AcDbEntity
  8
RACCORDO
100
AcDbLine
 62
250
  6
CONTINUOUS
 10
-95.8511863526
 20
0.0
 11
-91.5231319735
 21
-0.0
  0
LINE
  5
47E
100
AcDbEntity
  8
ASSI
100
AcDbLine
 62
250
  6
CONTINUOUS
 10
-91.0618890648
 20
-0.0
 11
-91.5231319735
 21
-0.0
  0
LWPOLYLINE
  5
47F
100
AcDbEntity
  8
ASSI
100
AcDbPolyline
 62
250
  6
CONTINUOUS
 90
4
 70
0
 10
-90.9417943432
 20
42.8936418479
 10
-90.9419325411
 20
42.9021637533
 10
-90.9421085367
 20
42.9072884576
 10
-90.942327611
 20
42.90899474
  0
LINE
  5
480
100
AcDbEntity
  8
ASSI
100
AcDbLine
 62
250
  6
CONTINUOUS
 10
-91.0137517938
 20
-39.4832329396
 11
-91.0054686269
 21
-40.0937934653
  0
LINE
  5
481
100
AcDbEntity
  8
ASSI
100
AcDbLine
 62
250
  6
CONTINUOUS
 10
-91.0190056381
 20
-38.8248821411
 11
-91.0137517938
 21
-39.4832329396
  0
LWPOLYLINE
  5
482
100
AcDbEntity
  8
ASSI
100
AcDbPolyline
 62
250
  6
CONTINUOUS
 90
13
 70
0
 10
-91.4205877557
 20
42.3540709315
 10
-91.4206654486
 20
42.3683833068
 10
-91.4208082861
 20
42.3818280814
 10
-91.421016514
 20
42.3942330165
 10
-91.4212947365
 20
42.4055875475
 10
-91.421645143
 20
42.4159029087
 10
-91.4220686132
 20
42.4250399568
 10
-91.422572673
 20
42.4329842728
 10
-91.4231619931
 20
42.4397514439
 10
-91.4238365318
 20
42.4452476473
 10
-91.4246019528
 20
42.4494421436
 10
-91.4254681848
 20
42.4523671424
 10
-91.4264428459
 20
42.4540233567
  0
LINE
  5
483
100
AcDbEntity
  8
ASSI
100
AcDbLine
 62
250
  6
CONTINUOUS
 10
-90.94161794
 20
42.8665617964
 11
-90.9417943432
 21
42.8936418479
  0
LINE
  5
484
100
AcDbEntity
  8
ASSI
100
AcDbLine
 62
250
  6
CONTINUOUS
 10
-91.4932493373
 20
-37.7591089853
 11
-91.489305998
 21
-39.1632073173
  0
LINE
  5
485
100
AcDbEntity
  8
ASSI
100
AcDbLine
 62
250
  6
CONTINUOUS
 10
-91.0587899615
 20
-16.6312753469
 11
-91.0232788719
 21
-30.6190661288
  0
LINE
  5
486
100
AcDbEntity
  8
ASSI
100
AcDbLine
 62
250
  6
CONTINUOUS
 10
-91.0232788719
 20
-30.6190661288
 11
-91.0203574485
 21
-33.008253899
  0
LINE
  5
487
100
AcDbEntity
  8
ASSI
100
AcDbLine
 62
250
  6
CONTINUOUS
 10
-91.0219887519
 20
-37.3934076297
 11
-91.0190056381
 21
-38.8248821411
  0
LINE
  5
488
100
AcDbEntity
  8
ASSI
100
AcDbLine
 62
250
  6
CONTINUOUS
 10
-91.523126358
 20
-1.2334379377
 11
-91.4935209689
 21
-31.6106565388
  0
LINE
  5
489
100
AcDbEntity
  8
ASSI
100
AcDbLine
 62
250
  6
CONTINUOUS
 10
-91.0618890648
 20
0.0000000003
 11
-91.0587899615
 21
-16.6312753469
  0
LINE
  5
48A
100
AcDbEntity
  8
ASSI
100
AcDbLine
 62
7
  6
CONTINUOUS
 10
-89.3763999096
 20
-42.95
 11
-89.3763999096
 21
42.95
  0
LINE
  5
48B
100
AcDbEntity
  8
ASSI
100
AcDbLine
 62
250
  6
CONTINUOUS
 10
-91.4935209689
 20
-31.6106565388
 11
-91.4922652155
 21
-34.7178114443
  0
LINE
  5
48C
100
AcDbEntity
  8
ASSI
100
AcDbLine
 62
250
  6
CONTINUOUS
 10
-91.0203574485
 20
-33.008253899
 11
-91.0201744487
 21
-34.3068090043
  0
LINE
  5
48D
100
AcDbEntity
  8
ASSI
100
AcDbLine
 62
250
  6
CONTINUOUS
 10
-91.4922652155
 20
-34.7178114443
 11
-91.4932493373
 21
-37.7591089853
  0
LINE
  5
48E
100
AcDbEntity
  8
ASSI
100
AcDbLine
 62
250
  6
CONTINUOUS
 10
-91.0201744487
 20
-34.3068090043
 11
-91.0219887519
 21
-37.3934076297
  0
LINE
  5
48F
100
AcDbEntity
  8
ASSI
100
AcDbLine
 62
250
  6
CONTINUOUS
 10
-90.9415148489
 20
-42.8265233231
 11
-90.9411871588
 21
-42.1092987438
  0
LINE
  5
490
100
AcDbEntity
  8
ASSI
100
AcDbLine
 62
250
  6
CONTINUOUS
 10
-91.4925910388
 20
32.7563495426
 11
-91.4958197183
 21
30.0906490576
  0
LINE
  5
491
100
AcDbEntity
  8
ASSI
100
AcDbLine
 62
250
  6
CONTINUOUS
 10
-91.0204960116
 20
32.756057593
 11
-91.0232218712
 21
30.6517432247
  0
LINE
  5
492
100
AcDbEntity
  8
ASSI
100
AcDbLine
 62
250
  6
CONTINUOUS
 10
-91.0502260334
 20
22.003421148
 11
-91.0618890648
 21
0.0000000003
  0
LINE
  5
493
100
AcDbEntity
  8
ASSI
100
AcDbLine
 62
250
  6
CONTINUOUS
 10
-90.9411871588
 20
42.1092987438
 11
-90.94161794
 21
42.8665617964
  0
LINE
  5
494
100
AcDbEntity
  8
ASSI
100
AcDbLine
 62
250
  6
CONTINUOUS
 10
-91.4958197183
 20
30.0906490576
 11
-91.523126358
 21
-1.2334379377
  0
LINE
  5
495
100
AcDbEntity
  8
ASSI
100
AcDbLine
 62
250
  6
CONTINUOUS
 10
-91.4206291655
 20
42.3228243276
 11
-91.4205877557
 21
42.3540709315
  0
LINE
  5
496
100
AcDbEntity
  8
ASSI
100
AcDbLine
 62
250
  6
CONTINUOUS
 10
-91.0200096524
 20
38.6100842051
 11
-91.0204960116
 21
32.756057593
  0
LINE
  5
497
100
AcDbEntity
  8
ASSI
100
AcDbLine
 62
250
  6
CONTINUOUS
 10
-91.0232218712
 20
30.6517432247
 11
-91.0318416824
 21
27.6835434126
  0
LWPOLYLINE
  5
498
100
AcDbEntity
  8
ASSI
100
AcDbPolyline
 62
250
  6
CONTINUOUS
 90
3
 70
0
 10
-91.0318416824
 20
27.6835434126
 10
-91.0389672074
 20
25.6994813851
 10
-91.0502260334
 20
22.003421148
  0
LWPOLYLINE
  5
499
100
AcDbEntity
  8
ASSI
100
AcDbPolyline
 62
250
  6
CONTINUOUS
 90
3
 70
0
 10
-91.4903734999
 20
38.9642704464
 10
-91.4918176072
 20
38.6121010794
 10
-91.4925910388
 20
32.7563495426
  0
LINE
  5
49A
100
AcDbEntity
  8
ASSI
100
AcDbLine
 62
250
  6
CONTINUOUS
 10
-91.0154981497
 20
39.3085972133
 11
-91.0200096524
 21
38.6100842051
  0
LINE
  5
49B
100
AcDbEntity
  8
ASSI
100
AcDbLine
 62
7
  6
CONTINUOUS
 10
-87.3763999096
 20
41.8504583897
 11
-87.3763999096
 21
41.4532998833
  0
LINE
  5
49C
100
AcDbEntity
  8
0
100
AcDbLine
 62
7
  6
CONTINUOUS
 10
-87.3763999096
 20
41.4532998833
 11
-87.3763999096
 21
3.6023718431
  0
LINE
  5
49D
100
AcDbEntity
  8
0
100
AcDbLine
 62
7
  6
CONTINUOUS
 10
-87.3763999096
 20
-3.6023718431
 11
-87.3763999096
 21
-41.45329618
  0
LINE
  5
49E
100
AcDbEntity
  8
ASSI
100
AcDbLine
 62
7
  6
CONTINUOUS
 10
-87.3763999096
 20
-41.45329618
 11
-87.3763999096
 21
-41.8504595486
  0
LWPOLYLINE
  5
49F
100
AcDbEntity
  8
0
100
AcDbPolyline
 62
7
  6
CONTINUOUS
 90
4
 70
0
 43
0.3500000006
 10
-87.095313446
 20
51.7903716888
 10
-87.095313446
 20
52.6475141602
 10
-86.6667444763
 20
53.0760831299
 10
-86.0238910217
 20
53.0760831299
  0
LINE
  5
4A0
100
AcDbEntity
  8
RACCORDO
100
AcDbLine
 62
7
  6
CONTINUOUS
 10
-87.3763999096
 20
3.6023718431
 11
-89.1816352993
 21
3.5551000908
  0
LWPOLYLINE
  5
4A1
100
AcDbEntity
  8
RACCORDO
100
AcDbPolyline
 62
250
  6
CONTINUOUS
 90
8
 70
0
 10
-95.5028758533
 20
23.0625283296
 10
-95.5020938582
 20
23.0607000046
 10
-95.5014312932
 20
23.0555205764
 10
-95.5008872333
 20
23.0469899836
 10
-95.500459096
 20
23.0350349902
 10
-95.5001474596
 20
23.0197287643
 10
-95.4999564546
 20
23.0012908865
 10
-95.50015771
 20
22.988320039
  0
LWPOLYLINE
  5
4A2
100
AcDbEntity
  8
ASSI
100
AcDbPolyline
 62
250
  6
CONTINUOUS
 90
6
 70
0
 10
-90.942327611
 20
-42.90899474
 10
-90.9421085435
 20
-42.907288487
 10
-90.941932549
 20
-42.9021639202
 10
-90.9417943494
 20
-42.8936423317
 10
-90.9416918809
 20
-42.8817587755
 10
-90.9415148489
 20
-42.8265233231
  0
LWPOLYLINE
  5
4A3
100
AcDbEntity
  8
0
100
AcDbPolyline
 62
7
  6
CONTINUOUS
 90
2
 70
0
 43
0.3500000006
 10
-82.023889801
 20
51.3617981873
 10
-82.023889801
 20
52.861798645
  0
LWPOLYLINE
  5
4A4
100
AcDbEntity
  8
ASSI
100
AcDbPolyline
 62
250
  6
CONTINUOUS
 90
14
 70
0
 10
-91.4264397636
 20
-42.4540126886
 10
-91.4254664573
 20
-42.4523611902
 10
-91.4246012673
 20
-42.4494398245
 10
-91.4238365661
 20
-42.4452478778
 10
-91.4231622885
 20
-42.4397527822
 10
-91.422572864
 20
-42.4329856313
 10
-91.4220686869
 20
-42.4250413177
 10
-91.4216452134
 20
-42.4159046274
 10
-91.4212947959
 20
-42.4055896065
 10
-91.4210165617
 20
-42.3942353521
 10
-91.4208083225
 20
-42.3818305856
 10
-91.4206654711
 20
-42.3683859153
 10
-91.420587764
 20
-42.3540736662
 10
-91.4206291467
 20
-42.322827523
  0
LINE
  5
4A5
100
AcDbEntity
  8
ASSI
100
AcDbLine
 62
250
  6
CONTINUOUS
 10
-91.5349698907
 20
-42.5887529683
 11
-91.5375642153
 21
-42.5930568265
  0
LWPOLYLINE
  5
4A6
100
AcDbEntity
  8
ASSI
100
AcDbPolyline
 62
250
  6
CONTINUOUS
 90
5
 70
0
 10
-91.5375642153
 20
-42.5930568265
 10
-91.5384919054
 20
-42.5945505221
 10
-91.5391905254
 20
-42.5956231985
 10
-91.539651835
 20
-42.5963508229
 10
-91.5399257928
 20
-42.5967081714
  0
LINE
  5
4A7
100
AcDbEntity
  8
RACCORDO
100
AcDbLine
 62
250
  6
CONTINUOUS
 10
-95.5152953314
 20
22.2658732005
 11
-95.515348161
 21
22.2658593223
  0
LINE
  5
4A8
100
AcDbEntity
  8
RACCORDO
100
AcDbLine
 62
7
  6
CONTINUOUS
 10
-95.5374621916
 20
22.7803195845
 11
-95.5022508364
 21
22.7772389901
  0
LWPOLYLINE
  5
4A9
100
AcDbEntity
  8
RACCORDO
100
AcDbPolyline
 62
250
  6
CONTINUOUS
 90
6
 70
0
 10
-95.5572515723
 20
23.0700754758
 10
-95.548123655
 20
23.0686384646
 10
-95.5382693057
 20
23.0671681807
 10
-95.5275261687
 20
23.0656642479
 10
-95.5157842044
 20
23.0641194187
 10
-95.5028758533
 20
23.0625283296
  0
LINE
  5
4AA
100
AcDbEntity
  8
RACCORDO
100
AcDbLine
 62
250
  6
CONTINUOUS
 10
-95.8085031472
 20
23.1120902058
 11
-95.8073194475
 21
23.1118974586
  0
LINE
  5
4AB
100
AcDbEntity
  8
RACCORDO
100
AcDbLine
 62
250
  6
CONTINUOUS
 10
-95.5739902877
 20
23.0728224555
 11
-95.5572515723
 21
23.0700754758
  0
LINE
  5
4AC
100
AcDbEntity
  8
RACCORDO
100
AcDbLine
 62
250
  6
CONTINUOUS
 10
-95.8073194475
 20
23.1118974586
 11
-95.6169424423
 21
23.0802130105
  0
LINE
  5
4AD
100
AcDbEntity
  8
RACCORDO
100
AcDbLine
 62
250
  6
CONTINUOUS
 10
-95.6169424423
 20
23.0802130105
 11
-95.5739902877
 21
23.0728224555
  0
LINE
  5
4AE
100
AcDbEntity
  8
RACCORDO
100
AcDbLine
 62
250
  6
CONTINUOUS
 10
-95.8094854857
 20
23.112263353
 11
-95.8092355545
 21
23.1122121706
  0
LWPOLYLINE
  5
4AF
100
AcDbEntity
  8
ASSI
100
AcDbPolyline
 62
250
  6
CONTINUOUS
 90
8
 70
0
 10
-91.5268405114
 20
42.5755630203
 10
-91.5243085361
 20
42.5715635723
 10
-91.5214339482
 20
42.5671304205
 10
-91.5181808516
 20
42.5621668717
 10
-91.5144849582
 20
42.5566564954
 10
-91.5102940149
 20
42.5506054325
 10
-91.5055745615
 20
42.5439493564
 10
-91.5002608935
 20
42.5366696564
  0
LWPOLYLINE
  5
4B0
100
AcDbEntity
  8
ASSI
100
AcDbPolyline
 62
250
  6
CONTINUOUS
 90
4
 70
0
 10
-91.537581928
 20
42.5930860977
 10
-91.532726475
 20
42.5850813549
 10
-91.5310093379
 20
42.582278922
 10
-91.5268405114
 20
42.5755630203
  0
LWPOLYLINE
  5
4B1
100
AcDbEntity
  8
ASSI
100
AcDbPolyline
 62
250
  6
CONTINUOUS
 90
9
 70
0
 10
-91.5002608935
 20
42.5366696564
 10
-91.4942773666
 20
42.5287724996
 10
-91.4875732282
 20
42.5202305641
 10
-91.4801016573
 20
42.511064217
 10
-91.471754888
 20
42.5012396751
 10
-91.4623585161
 20
42.490645467
 10
-91.4517540134
 20
42.4792355704
 10
-91.4398307633
 20
42.4670324169
 10
-91.4264428459
 20
42.4540233567
  0
LWPOLYLINE
  5
4B2
100
AcDbEntity
  8
ASSI
100
AcDbPolyline
 62
250
  6
CONTINUOUS
 90
18
 70
0
 10
-91.4264397636
 20
-42.4540126886
 10
-91.4393670432
 20
-42.4665858114
 10
-91.4509972052
 20
-42.4784571744
 10
-91.4614410094
 20
-42.4896362675
 10
-91.4708077892
 20
-42.5001343634
 10
-91.4791913465
 20
-42.5099577406
 10
-91.4866743009
 20
-42.5191080769
 10
-91.4933369134
 20
-42.5275655494
 10
-91.4992793303
 20
-42.5353658652
 10
-91.5045945912
 20
-42.5425922528
 10
-91.5093274241
 20
-42.5492403924
 10
-91.513555433
 20
-42.5553252749
 10
-91.5173728303
 20
-42.5609544975
 10
-91.5207917614
 20
-42.5661430476
 10
-91.5238518461
 20
-42.5708797776
 10
-91.5266292745
 20
-42.5752271786
 10
-91.5291225379
 20
-42.5792083198
 10
-91.5349698907
 20
-42.5887529683
  0
LWPOLYLINE
  5
4B3
100
AcDbEntity
  8
0
100
AcDbPolyline
 62
7
  6
CONTINUOUS
 90
10
 70
0
 43
0.3500000006
 10
-84.0953125305
 20
51.8617983398
 10
-84.0238904114
 20
51.718940506
 10
-84.0238904114
 20
51.647513855
 10
-84.1667437134
 20
51.5046560211
 10
-84.2381748962
 20
51.5046560211
 10
-84.3095970154
 20
51.5760826721
 10
-84.3095970154
 20
51.647513855
 10
-84.2381748962
 20
51.7903716888
 10
-84.1667437134
 20
51.8617983398
 10
-84.0953125305
 20
51.8617983398
  0
LWPOLYLINE
  5
4B4
100
AcDbEntity
  8
ASSI
100
AcDbPolyline
 62
250
  6
CONTINUOUS
 90
16
 70
0
 10
-87.3763997992
 20
41.4532984648
 10
-87.4953787821
 20
41.5298640255
 10
-87.616272743
 20
41.601882699
 10
-87.7388288453
 20
41.6693544851
 10
-87.862349766
 20
41.7320846462
 10
-87.9870309226
 20
41.7902679199
 10
-88.1140467397
 20
41.8444885201
 10
-88.2431839015
 20
41.8948943661
 10
-88.3743402433
 20
41.9413375385
 10
-88.508998754
 20
41.9839584928
 10
-88.6479831612
 20
42.0230559394
 10
-88.7902615815
 20
42.0583311678
 10
-88.9345450669
 20
42.0890285014
 10
-89.0802654915
 20
42.1148960481
 10
-89.2276150646
 20
42.1361857
 10
-89.3763999056
 20
42.1528974572
  0
LWPOLYLINE
  5
4B5
100
AcDbEntity
  8
ASSI
100
AcDbPolyline
 62
250
  6
CONTINUOUS
 90
19
 70
0
 10
-90.942327611
 20
42.90899474
 10
-90.9825751651
 20
42.9063080562
 10
-91.0224744978
 20
42.9003756218
 10
-91.0617651137
 20
42.8912361687
 10
-91.1001904913
 20
42.8789493667
 10
-91.1374997582
 20
42.8635954341
 10
-91.1734493291
 20
42.8452746139
 10
-91.2078044955
 20
42.8241065196
 10
-91.2403409588
 20
42.8002293538
 10
-91.2708462942
 20
42.7737990062
 10
-91.299121338
 20
42.7449880359
 10
-91.3249814875
 20
42.7139845443
 10
-91.3482579063
 20
42.6809909479
 10
-91.368798627
 20
42.6462226557
 10
-91.3864695428
 20
42.6099066638
 10
-91.4011552835
 20
42.5722800727
 10
-91.4127599687
 20
42.5335885397
 10
-91.4212078333
 20
42.4940846748
 10
-91.4264437228
 20
42.4540263917
  0
LINE
  5
4B6
100
AcDbEntity
  8
ASSI
100
AcDbLine
 62
250
  6
CONTINUOUS
 10
-90.9412039656
 20
42.1092983037
 11
-89.3763999096
 21
42.15027414
  0
LINE
  5
4B7
100
AcDbEntity
  8
ASSI
100
AcDbLine
 62
7
  6
CONTINUOUS
 10
-91.0877988771
 20
42.9051847329
 11
-89.3763999096
 21
42.95
  0
LWPOLYLINE
  5
4B8
100
AcDbEntity
  8
0
100
AcDbPolyline
 62
7
  6
CONTINUOUS
 90
3
 70
0
 43
0.3500000006
 10
-81.5238896484
 20
52.0046561737
 10
-83.0238901062
 20
52.0046561737
 10
-82.3810275879
 20
54.3617991028
  0
LINE
  5
4B9
100
AcDbEntity
  8
ASSI
100
AcDbLine
 62
250
  6
CONTINUOUS
 10
-91.4115706763
 20
42.1338409554
 11
-90.9411872584
 21
42.1092987489
  0
LINE
  5
4BA
100
AcDbEntity
  8
ASSI
100
AcDbLine
 62
250
  6
CONTINUOUS
 10
-91.425363992
 20
42.1346522499
 11
-91.4115706763
 21
42.1338409554
  0
LWPOLYLINE
  5
4BB
100
AcDbEntity
  8
ASSI
100
AcDbPolyline
 62
250
  6
CONTINUOUS
 90
7
 70
0
 10
-91.5400305368
 20
42.5967595817
 10
-91.5399737403
 20
42.5967451717
 10
-91.539792489
 20
42.5965159311
 10
-91.5394614726
 20
42.5960673556
 10
-91.5389860323
 20
42.5953482901
 10
-91.5383631371
 20
42.5943510637
 10
-91.537581928
 20
42.5930860977
  0
LWPOLYLINE
  5
4BC
100
AcDbEntity
  8
0
100
AcDbPolyline
 62
7
  6
CONTINUOUS
 90
13
 70
0
 43
0.3500000006
 10
-86.6667444763
 20
53.0760831299
 10
-86.952460144
 20
53.2903676147
 10
-86.952460144
 20
53.9332256012
 10
-86.6667444763
 20
54.3617991028
 10
-86.0238910217
 20
54.3617991028
 10
-85.738175354
 20
53.9332256012
 10
-85.738175354
 20
53.2903676147
 10
-86.0238910217
 20
53.0760831299
 10
-85.5953129883
 20
52.6475141602
 10
-85.5953129883
 20
51.7903716888
 10
-86.0238910217
 20
51.3617981873
 10
-86.6667444763
 20
51.3617981873
 10
-87.095313446
 20
51.7903716888
  0
ARC
  5
4BD
100
AcDbEntity
  8
ASSI
100
AcDbCircle
 62
7
  6
CONTINUOUS
 10
-89.8063999096
 20
-38.6731796621
 40
4.0
100
AcDbArc
 50
276.1712215386
 51
307.4089404218
  0
ARC
  5
4BE
100
AcDbEntity
  8
ASSI
100
AcDbCircle
 62
7
  6
CONTINUOUS
 10
-89.8063999096
 20
38.6731796621
 40
4.0
100
AcDbArc
 50
52.5910590157
 51
83.8287778497
  0
ARC
  5
4BF
100
AcDbEntity
  8
ASSI
100
AcDbCircle
 62
7
  6
CONTINUOUS
 10
-91.0781524869
 20
-42.4052666442
 40
0.5
100
AcDbArc
 50
202.5181465005
 51
268.4935212524
  0
ARC
  5
4C0
100
AcDbEntity
  8
ASSI
100
AcDbCircle
 62
7
  6
CONTINUOUS
 10
-91.0781538281
 20
42.4052666091
 40
0.5
100
AcDbArc
 50
132.7954747918
 51
157.4819354148
  0
ARC
  5
4C1
100
AcDbEntity
  8
ASSI
100
AcDbCircle
 62
7
  6
CONTINUOUS
 10
-91.0551235009
 20
-42.4058696795
 40
0.5
100
AcDbArc
 50
213.0376498281
 51
254.6344122852
  0
ARC
  5
4C2
100
AcDbEntity
  8
RACCORDO
100
AcDbCircle
 62
7
  6
CONTINUOUS
 10
-95.5113154687
 20
23.0791779939
 40
0.3
100
AcDbArc
 50
173.6682822562
 51
265.0
  0
ARC
  5
4C3
100
AcDbEntity
  8
RACCORDO
100
AcDbCircle
 62
7
  6
CONTINUOUS
 10
-95.5113154687
 20
-23.0791779939
 40
0.3
100
AcDbArc
 50
95.0
 51
186.3317177438
  0
ARC
  5
4C4
100
AcDbEntity
  8
RACCORDO
100
AcDbCircle
 62
7
  6
CONTINUOUS
 10
-89.1763999096
 20
-3.3551686258
 40
0.2
100
AcDbArc
 50
180.0
 51
268.5
  0
ARC
  5
4C5
100
AcDbEntity
  8
RACCORDO
100
AcDbCircle
 62
7
  6
CONTINUOUS
 10
-89.1763999096
 20
3.3551686258
 40
0.2
100
AcDbArc
 50
91.5
 51
180.0
  0
ELLIPSE
  5
4C6
100
AcDbEntity
  8
RACCORDO
100
AcDbEllipse
 62
7
  6
CONTINUOUS
 10
-44.5980900812
 20
-22.0980900812
 30
0.0
 11
0.3562493039
 21
0.3562493039
 31
0.0
 40
0.9924325091
 41
2.3599925885
 42
3.9231927187
  0
ELLIPSE
  5
4C7
100
AcDbEntity
  8
RACCORDO
100
AcDbEllipse
 62
7
  6
CONTINUOUS
 10
44.5980900812
 20
-22.0980900812
 30
0.0
 11
-0.3562493039
 21
0.3562493039
 31
0.0
 40
0.9924325091
 41
2.3599925885
 42
3.9231927187
  0
ELLIPSE
  5
4C8
100
AcDbEntity
  8
RACCORDO
100
AcDbEllipse
 62
7
  6
CONTINUOUS
 10
44.5980900812
 20
22.0980900812
 30
0.0
 11
-0.3562493039
 21
-0.3562493039
 31
0.0
 40
0.9924325091
 41
2.3599925885
 42
3.9231927187
  0
ELLIPSE
  5
4C9
100
AcDbEntity
  8
RACCORDO
100
AcDbEllipse
 62
7
  6
CONTINUOUS
 10
-44.5980900812
 20
22.0980900812
 30
0.0
 11
0.3562493039
 21
-0.3562493039
 31
0.0
 40
0.9924325091
 41
2.3599925885
 42
3.9231927187
  0
ELLIPSE
  5
4CA
100
AcDbEntity
  8
ASSI
100
AcDbEllipse
 62
7
  6
CONTINUOUS
 10
70.399725766
 20
42.149725766
 30
0.0
 11
0.566073184
 21
0.566073184
 31
0.0
 40
0.999315002
 41
-0.7850555471
 42
0.7850555471
  0
ELLIPSE
  5
4CB
100
AcDbEntity
  8
ASSI
100
AcDbEllipse
 62
7
  6
CONTINUOUS
 10
70.399725766
 20
-42.149725766
 30
0.0
 11
0.566073184
 21
-0.566073184
 31
0.0
 40
0.999315002
 41
-0.7850555471
 42
0.7850555471
  0
ELLIPSE
  5
4CC
100
AcDbEntity
  8
ASSI
100
AcDbEllipse
 62
7
  6
CONTINUOUS
 10
-70.399725766
 20
-42.149725766
 30
0.0
 11
0.566073184
 21
0.566073184
 31
0.0
 40
0.999315002
 41
-3.9266482006
 42
-2.3565371065
  0
ELLIPSE
  5
4CD
100
AcDbEntity
  8
ASSI
100
AcDbEllipse
 62
7
  6
CONTINUOUS
 10
-70.399725766
 20
42.149725766
 30
0.0
 11
0.566073184
 21
-0.566073184
 31
0.0
 40
0.999315002
 41
2.3565371065
 42
3.9266482006
  0
ENDSEC
  0
SECTION
  2
OBJECTS
  0
DICTIONARY
  5
C
100
AcDbDictionary
280
0
281
1
  3
ACAD_GROUP
350
D
  3
ACAD_MLINESTYLE
350
17
  3
ACAD_LAYOUT
350
1A
  3
ACAD_PLOTSETTINGS
350
19
  3
ACAD_PLOTSTYLENAME
350
E
  0
DICTIONARY
  5
D
102
{ACAD_REACTORS
330
C
102
}
100
AcDbDictionary
280
0
281
1
  0
ACDBDICTIONARYWDFLT
  5
E
102
{ACAD_REACTORS
330
C
102
}
100
AcDbDictionary
281
1
  3
Normal
350
F
100
AcDbDictionaryWithDefault
340
F
  0
DICTIONARY
  5
17
102
{ACAD_REACTORS
330
C
102
}
100
AcDbDictionary
280
0
281
1
  3
Standard
350
18
  0
DICTIONARY
  5
19
102
{ACAD_REACTORS
330
C
102
}
100
AcDbDictionary
281
1
  0
DICTIONARY
  5
1A
102
{ACAD_REACTORS
330
C
102
}
100
AcDbDictionary
281
1
  3
Model
350
4CE
  3
Layout1
350
4CF
  0
ACDBPLACEHOLDER
  5
F
102
{ACAD_REACTORS
330
E
102
}
  0
MLINESTYLE
  5
18
102
{ACAD_REACTORS
330
17
102
}
100
AcDbMlineStyle
  2
STANDARD
 70
0
  3

 62
256
 51
90.0
 52
90.0
 71
2
 49
0.5
 62
256
  6
BYLAYER
 49
-0.5
 62
256
  6
BYLAYER
  0
LAYOUT
  5
4CE
102
{ACAD_REACTORS
330
1A
102
}
100
AcDbPlotSettings
  1

  2
none_device
  4
ISO_A4_(297.00_x_210.00_MM)
  6

 40
0.0
 41
0.0
 42
0.0
 43
0.0
 44
297.0
 45
210.0
 46
0.0
 47
0.0
 48
0.0
 49
0.0
140
0.0
141
0.0
142
1.0
143
1.0
 70
1024
 72
1
 73
0
 74
0
  7

 75
0
147
1.0
148
0.0
149
0.0
100
AcDbLayout
  1
Model
 70
0
 71
0
 10
0.0
 20
0.0
 11
297.0
 21
210.0
 12
0.0
 22
0.0
 32
0.0
 14
0.0
 24
0.0
 34
0.0
 15
0.0
 25
0.0
 35
0.0
146
0.0
 13
0.0
 23
0.0
 33
0.0
 16
1.0
 26
0.0
 36
0.0
 17
0.0
 27
1.0
 37
0.0
 76
0
330
213
345
0
346
0
  0
LAYOUT
  5
4CF
102
{ACAD_REACTORS
330
1A
102
}
100
AcDbPlotSettings
  1

  2
none_device
  4
ISO_A4_(297.00_x_210.00_MM)
  6

 40
0.0
 41
0.0
 42
0.0
 43
0.0
 44
297.0
 45
210.0
 46
0.0
 47
0.0
 48
0.0
 49
0.0
140
0.0
141
0.0
142
1.0
143
1.0
 70
0
 72
1
 73
0
 74
0
  7

 75
0
147
1.0
148
0.0
149
0.0
100
AcDbLayout
  1
Layout1
 70
0
 71
1
 10
0.0
 20
0.0
 11
297.0
 21
210.0
 12
0.0
 22
0.0
 32
0.0
 14
0.0
 24
0.0
 34
0.0
 15
0.0
 25
0.0
 35
0.0
146
0.0
 13
0.0
 23
0.0
 33
0.0
 16
1.0
 26
0.0
 36
0.0
 17
0.0
 27
1.0
 37
0.0
 76
0
330
214
345
0
346
0
  0
ENDSEC
  0
EOF
