  0
SECTION
  2
HEADER
  9
$ACADVER
  1
AC1024
  9
$DWGCODEPAGE
  3
ANSI_1252
  9
$EXTMAX
 10
297.0
 20
210.0
 30
0.0
  9
$EXTMIN
 10
0.0
 20
0.0
 30
0.0
  9
$LIMMIN
 10
0.0
 20
0.0
  9
$LIMMAX
 10
297.0
 20
210.0
  9
$VIEWCTR
 10
148.5
 20
105.0
  9
$VIEWSIZE
 40
210.0
  9
$CLAYER
  8
0
  9
$LTSCALE
 40
16.335
  9
$CELTYPE
  6
BYLAYER
  9
$DIMSCALE
 40
1.0
  9
$DIMASZ
 40
3.0
  9
$DIMEXO
 40
0.5
  9
$DIMDLI
 40
11.286
  9
$DIMEXE
 40
1.5
  9
$DIMCEN
 40
2.673
  9
$DIMLFAC
 40
1.0
  9
$DIMBLK
  1
_FILLED
  9
$DIMALT
 70
0
  9
$DIMALTF
 40
0.0393700787
  9
$DIMTXT
 40
3.0
  9
$DIMTOL
 70
1
  9
$DIMLIM
 70
0
  9
$DIMTFAC
 40
1.0
  9
$DIMTP
 40
0.01
  9
$DIMTM
 40
0.01
  9
$DIMGAP
 40
0.625
  9
$DIMDSEP
 70
44
  9
$AUNITS
 70
0
  9
$PDMODE
 70
3
  9
$PDSIZE
 40
3.0
  9
$HANDSEED
  5
533
  9
$TILEMODE
 70
1
  9
$MEASUREMENT
 70
1
  9
$INSUNITS
 70
4
  0
ENDSEC
  0
SECTION
  2
CLASSES
  0
CLASS
  1
ACDBDICTIONARYWDFLT
  2
AcDbDictionaryWithDefault
  3
AutoCAD 2000
 90
0
 91
1
280
0
281
0
  0
CLASS
  1
ACDBPLACEHOLDER
  2
AcDbPlaceHolder
  3
AutoCAD 2000
 90
0
 91
1
280
0
281
0
  0
CLASS
  1
LAYOUT
  2
AcDbLayout
  3
AutoCAD 2000
 90
0
 91
0
280
0
281
0
  0
ENDSEC
  0
SECTION
  2
TABLES
  0
TABLE
  2
VPORT
  5
8
100
AcDbSymbolTable
 70
2
  0
VPORT
  5
1F4
100
AcDbSymbolTableRecord
100
AcDbViewportTableRecord
  2
*ACTIVE
 70
0
 10
0.0
 20
0.0
 11
1.0
 21
1.0
 12
148.5
 22
105.0
 13
0.0
 23
0.0
 14
1.0
 24
1.0
 15
0.0
 25
0.0
 16
0.0
 26
0.0
 36
1.0
 17
0.0
 27
0.0
 37
0.0
 40
210.0
 41
1.4142857143
 42
50.0
 43
0.0
 44
0.0
 50
0.0
 51
0.0
 71
0
 72
100
 73
1
 74
1
 75
0
 76
0
 77
0
 78
0
  0
ENDTAB
  0
TABLE
  2
LTYPE
  5
5
100
AcDbSymbolTable
 70
6
  0
LTYPE
  5
14
100
AcDbSymbolTableRecord
100
AcDbLinetypeTableRecord
  2
BYBLOCK
 70
0
  3

 72
65
 73
0
 40
0.0
  0
LTYPE
  5
15
100
AcDbSymbolTableRecord
100
AcDbLinetypeTableRecord
  2
BYLAYER
 70
0
  3

 72
65
 73
0
 40
0.0
  0
LTYPE
  5
16
100
AcDbSymbolTableRecord
100
AcDbLinetypeTableRecord
  2
CONTINUOUS
 70
64
  3
Solid line
 72
65
 73
0
 40
0.0
  0
LTYPE
  5
1F5
100
AcDbSymbolTableRecord
100
AcDbLinetypeTableRecord
  2
CENTER
 70
64
  3
____ _ ____ _ ____ _ ____ _ ____ _ ____ _ ____
 72
65
 73
4
 40
0.6
 49
0.375
 74
0
 49
-0.075
 74
0
 49
0.075
 74
0
 49
-0.075
 74
0
  0
LTYPE
  5
1F6
100
AcDbSymbolTableRecord
100
AcDbLinetypeTableRecord
  2
HIDDEN
 70
64
  3
- - - - - - - - - - - - - - - - - - - -
 72
65
 73
2
 40
0.2
 49
0.1
 74
0
 49
-0.1
 74
0
  0
LTYPE
  5
1F7
100
AcDbSymbolTableRecord
100
AcDbLinetypeTableRecord
  2
PHANTOM
 70
64
  3
_____ _ _ _____ _ _ _____ _ _ _____
 72
65
 73
6
 40
0.8
 49
0.45
 74
0
 49
-0.05
 74
0
 49
0.1
 74
0
 49
-0.05
 74
0
 49
0.1
 74
0
 49
-0.05
 74
0
  0
LTYPE
  5
1F8
100
AcDbSymbolTableRecord
100
AcDbLinetypeTableRecord
  2
DOT
 70
64
  3
. . . . . . . . . . . . . . . . . . . .
 72
65
 73
2
 40
0.2
 49
0.1
 74
0
 49
-0.1
 74
0
  0
LTYPE
  5
1F9
100
AcDbSymbolTableRecord
100
AcDbLinetypeTableRecord
  2
DASHED
 70
64
  3
- - - - - - - - - - - - - - - - - - - -
 72
65
 73
2
 40
0.2
 49
0.1
 74
0
 49
-0.1
 74
0
  0
ENDTAB
  0
TABLE
  2
LAYER
  5
2
100
AcDbSymbolTable
 70
36
  0
LAYER
  5
10
100
AcDbSymbolTableRecord
100
AcDbLayerTableRecord
  2
0
 70
0
 62
7
  6
CONTINUOUS
370
-3
390
F
  0
LAYER
  5
1FA
100
AcDbSymbolTableRecord
100
AcDbLayerTableRecord
  2
DEFAULT_1
 70
0
 62
7
  6
CENTER
370
-3
390
F
  0
LAYER
  5
1FB
100
AcDbSymbolTableRecord
100
AcDbLayerTableRecord
  2
DEFAULT_2
 70
0
 62
7
  6
HIDDEN
370
-3
390
F
  0
LAYER
  5
1FC
100
AcDbSymbolTableRecord
100
AcDbLayerTableRecord
  2
DEFAULT_3
 70
0
 62
7
  6
PHANTOM
370
-3
390
F
  0
LAYER
  5
1FD
100
AcDbSymbolTableRecord
100
AcDbLayerTableRecord
  2
ASSI
 70
0
 62
7
  6
CONTINUOUS
370
-3
390
F
  0
LAYER
  5
1FE
100
AcDbSymbolTableRecord
100
AcDbLayerTableRecord
  2
COORDINATE
 70
0
 62
7
  6
CONTINUOUS
370
-3
390
F
  0
LAYER
  5
1FF
100
AcDbSymbolTableRecord
100
AcDbLayerTableRecord
  2
COPY_PUBLISH
 70
0
 62
7
  6
CONTINUOUS
370
-3
390
F
  0
LAYER
  5
200
100
AcDbSymbolTableRecord
100
AcDbLayerTableRecord
  2
COSMETICI
 70
0
 62
7
  6
CONTINUOUS
370
-3
390
F
  0
LAYER
  5
201
100
AcDbSymbolTableRecord
100
AcDbLayerTableRecord
  2
CURVE
 70
0
 62
7
  6
CONTINUOUS
370
-3
390
F
  0
LAYER
  5
202
100
AcDbSymbolTableRecord
100
AcDbLayerTableRecord
  2
DRAFT
 70
0
 62
7
  6
CONTINUOUS
370
-3
390
F
  0
LAYER
  5
203
100
AcDbSymbolTableRecord
100
AcDbLayerTableRecord
  2
IMPORT_IGES
 70
0
 62
7
  6
CONTINUOUS
370
-3
390
F
  0
LAYER
  5
204
100
AcDbSymbolTableRecord
100
AcDbLayerTableRecord
  2
INTF_1
 70
0
 62
7
  6
CONTINUOUS
370
-3
390
F
  0
LAYER
  5
205
100
AcDbSymbolTableRecord
100
AcDbLayerTableRecord
  2
INTF_11
 70
0
 62
7
  6
CONTINUOUS
370
-3
390
F
  0
LAYER
  5
206
100
AcDbSymbolTableRecord
100
AcDbLayerTableRecord
  2
NONE
 70
0
 62
7
  6
CONTINUOUS
370
-3
390
F
  0
LAYER
  5
207
100
AcDbSymbolTableRecord
100
AcDbLayerTableRecord
  2
NOTE
 70
0
 62
7
  6
CONTINUOUS
370
-3
390
F
  0
LAYER
  5
208
100
AcDbSymbolTableRecord
100
AcDbLayerTableRecord
  2
PIANI
 70
0
 62
7
  6
CONTINUOUS
370
-3
390
F
  0
LAYER
  5
209
100
AcDbSymbolTableRecord
100
AcDbLayerTableRecord
  2
PUNTI
 70
0
 62
7
  6
CONTINUOUS
370
-3
390
F
  0
LAYER
  5
20A
100
AcDbSymbolTableRecord
100
AcDbLayerTableRecord
  2
RACCORDO
 70
0
 62
7
  6
CONTINUOUS
370
-3
390
F
  0
LAYER
  5
20B
100
AcDbSymbolTableRecord
100
AcDbLayerTableRecord
  2
RGB____0____0____0__
 70
0
 62
7
  6
CONTINUOUS
370
-3
390
F
  0
LAYER
  5
20C
100
AcDbSymbolTableRecord
100
AcDbLayerTableRecord
  2
SIMBOLI
 70
0
 62
7
  6
CONTINUOUS
370
-3
390
F
  0
LAYER
  5
20D
100
AcDbSymbolTableRecord
100
AcDbLayerTableRecord
  2
SMUSSO
 70
0
 62
7
  6
CONTINUOUS
370
-3
390
F
  0
LAYER
  5
20E
100
AcDbSymbolTableRecord
100
AcDbLayerTableRecord
  2
SNAPLINE
 70
0
 62
7
  6
CONTINUOUS
370
-3
390
F
  0
LAYER
  5
20F
100
AcDbSymbolTableRecord
100
AcDbLayerTableRecord
  2
SUPERFICI
 70
0
 62
7
  6
CONTINUOUS
370
-3
390
F
  0
LAYER
  5
210
100
AcDbSymbolTableRecord
100
AcDbLayerTableRecord
  2
TRASH
 70
0
 62
7
  6
CONTINUOUS
370
-3
390
F
  0
ENDTAB
  0
TABLE
  2
STYLE
  5
3
100
AcDbSymbolTable
 70
1
  0
STYLE
  5
11
100
AcDbSymbolTableRecord
100
AcDbTextStyleTableRecord
  2
STANDARD
 70
0
 40
0.0
 41
0.8
 50
0.0
 71
0
 42
0.2
  3
txt
  4

  0
STYLE
  5
211
100
AcDbSymbolTableRecord
100
AcDbTextStyleTableRecord
  2
TEXTSTYLE_1
 70
0
 40
0.0
 41
0.8
 50
0.0
 71
0
 42
0.2
  3
gdt
  4

  0
ENDTAB
  0
TABLE
  2
VIEW
  5
6
100
AcDbSymbolTable
 70
0
  0
ENDTAB
  0
TABLE
  2
UCS
  5
7
100
AcDbSymbolTable
 70
0
  0
ENDTAB
  0
TABLE
  2
APPID
  5
9
100
AcDbSymbolTable
 70
1
  0
APPID
  5
212
100
AcDbSymbolTableRecord
100
AcDbRegAppTableRecord
  2
ACAD
 70
0
  0
ENDTAB
  0
TABLE
  2
BLOCK_RECORD
  5
1
100
AcDbSymbolTable
 70
0
  0
BLOCK_RECORD
  5
213
100
AcDbSymbolTableRecord
100
AcDbBlockTableRecord
  2
*Model_Space
  0
BLOCK_RECORD
  5
214
100
AcDbSymbolTableRecord
100
AcDbBlockTableRecord
  2
*Paper_Space
  0
BLOCK_RECORD
  5
215
100
AcDbSymbolTableRecord
100
AcDbBlockTableRecord
  2
_FILLED
  0
BLOCK_RECORD
  5
216
100
AcDbSymbolTableRecord
100
AcDbBlockTableRecord
  2
*D0
  0
BLOCK_RECORD
  5
217
100
AcDbSymbolTableRecord
100
AcDbBlockTableRecord
  2
*D1
  0
BLOCK_RECORD
  5
218
100
AcDbSymbolTableRecord
100
AcDbBlockTableRecord
  2
*D2
  0
ENDTAB
  0
TABLE
  2
DIMSTYLE
  5
A
100
AcDbSymbolTable
 70
1
100
AcDbDimStyleTable
 71
0
  0
DIMSTYLE
105
219
100
AcDbSymbolTableRecord
100
AcDbDimStyleTableRecord
  2
STANDARD
 70
0
  3

  4

 40
1.0
 41
3.0
 42
0.5
 43
0.38
 44
1.5
 45
0.0
 46
0.0
 47
0.01
 48
0.01
140
3.0
141
0.09
142
0.0
143
25.4
144
1.0
145
0.0
146
1.0
147
0.625
 71
1
 72
0
 73
0
 74
0
 75
0
 76
0
 77
1
 78
8
 79
2
170
0
171
1
172
0
173
0
174
0
175
0
176
0
177
0
178
0
270
2
179
2
271
2
272
2
273
2
274
2
275
0
280
0
281
0
282
0
283
1
284
8
285
0
286
0
287
3
288
0
340
11
278
44
341
215
342
215
343
215
344
215
  0
DIMSTYLE
105
21A
100
AcDbSymbolTableRecord
100
AcDbDimStyleTableRecord
  2
DIMSTYLE_1
 70
0
  3

  4

 40
1.0
 41
3.0
 42
0.5
 43
0.38
 44
1.5
 45
0.0
 46
0.0
 47
0.0
 48
0.0
140
3.0
141
0.09
142
0.0
143
25.4
144
1.0
145
0.0
146
1.0
147
0.75
 71
0
 72
0
 73
0
 74
0
 75
0
 76
0
 77
1
 78
8
 79
2
170
0
171
1
172
0
173
0
174
0
175
0
176
0
177
0
178
0
270
2
179
2
271
0
272
0
273
2
274
2
275
0
280
0
281
0
282
0
283
1
284
8
285
0
286
0
287
3
288
0
340
11
278
44
341
215
342
215
343
215
344
215
  0
DIMSTYLE
105
21B
100
AcDbSymbolTableRecord
100
AcDbDimStyleTableRecord
  2
DIMSTYLE_2
 70
0
  3

  4

 40
1.0
 41
3.0
 42
0.5
 43
0.38
 44
1.5
 45
0.0
 46
0.0
 47
0.0
 48
0.0
140
3.0
141
0.09
142
0.0
143
25.4
144
1.0
145
0.0
146
1.0
147
0.75
 71
0
 72
0
 73
0
 74
0
 75
0
 76
0
 77
1
 78
8
 79
2
170
0
171
1
172
0
173
0
174
0
175
0
176
0
177
0
178
0
270
2
179
2
271
1
272
1
273
2
274
2
275
0
280
0
281
0
282
0
283
1
284
8
285
0
286
0
287
3
288
0
340
11
278
44
341
215
342
215
343
215
344
215
  0
ENDTAB
  0
ENDSEC
  0
SECTION
  2
BLOCKS
  0
BLOCK
  5
20
100
AcDbEntity
  8
0
100
AcDbBlockBegin
  2
*Model_Space
 70
0
 10
0.0
 20
0.0
 30
0.0
  3
*Model_Space
  1

  0
ENDBLK
  5
21
100
AcDbEntity
  8
0
100
AcDbBlockEnd
  0
BLOCK
  5
1C
100
AcDbEntity
  8
0
100
AcDbBlockBegin
  2
*Paper_Space
 70
0
 10
0.0
 20
0.0
 30
0.0
  3
*Paper_Space
  1

  0
ENDBLK
  5
1D
100
AcDbEntity
  8
0
100
AcDbBlockEnd
  0
BLOCK
  5
21C
100
AcDbEntity
  8
0
100
AcDbBlockBegin
  2
_FILLED
 70
64
 10
0.0
 20
0.0
  3
_FILLED
  1

  0
SOLID
  5
21D
100
AcDbEntity
  8
0
  6
BYBLOCK
 62
0
100
AcDbTrace
 10
0.0
 20
0.0
 11
-1.0
 21
0.3166666667
 12
-1.0
 22
-0.3166666667
 13
-1.0
 23
-0.3166666667
  0
ENDBLK
  5
21E
100
AcDbEntity
  8
0
  6
BYBLOCK
 62
0
100
AcDbBlockEnd
  0
BLOCK
  5
21F
100
AcDbEntity
  8
0
100
AcDbBlockBegin
 62
7
  6
CONTINUOUS
  2
*D0
 70
65
 10
0.0
 20
0.0
  3
*D0
  1

  0
LINE
  5
220
100
AcDbEntity
  8
0
100
AcDbLine
 62
7
  6
CONTINUOUS
 10
-104.95
 20
42.65027414
 11
-104.95
 21
52.45
  0
LINE
  5
221
100
AcDbEntity
  8
0
100
AcDbLine
 62
7
  6
CONTINUOUS
 10
104.95
 20
42.65027414
 11
104.95
 21
52.45
  0
LINE
  5
222
100
AcDbEntity
  8
0
100
AcDbLine
 62
7
  6
CONTINUOUS
 10
-104.95
 20
50.95
 11
0.0
 21
50.95
  0
LINE
  5
223
100
AcDbEntity
  8
0
100
AcDbLine
 62
7
  6
CONTINUOUS
 10
104.95
 20
50.95
 11
0.0
 21
50.95
  0
INSERT
  5
224
100
AcDbEntity
  8
0
100
AcDbBlockReference
 62
7
  6
CONTINUOUS
  2
_FILLED
 10
-104.95
 20
50.95
 41
3.0
 42
3.0
 43
3.0
 50
180.0
  0
INSERT
  5
225
100
AcDbEntity
  8
0
100
AcDbBlockReference
 62
7
  6
CONTINUOUS
  2
_FILLED
 10
104.95
 20
50.95
 41
3.0
 42
3.0
 43
3.0
  0
ENDBLK
  5
226
100
AcDbEntity
  8
0
  6
BYBLOCK
 62
0
100
AcDbBlockEnd
  0
BLOCK
  5
227
100
AcDbEntity
  8
0
100
AcDbBlockBegin
 62
7
  6
CONTINUOUS
  2
*D1
 70
65
 10
0.0
 20
0.0
  3
*D1
  1

  0
LINE
  5
228
100
AcDbEntity
  8
0
100
AcDbLine
 62
7
  6
CONTINUOUS
 10
104.65027414
 20
42.95
 11
114.45
 21
42.95
  0
LINE
  5
229
100
AcDbEntity
  8
0
100
AcDbLine
 62
7
  6
CONTINUOUS
 10
104.65027414
 20
-42.95
 11
114.45
 21
-42.95
  0
LINE
  5
22A
100
AcDbEntity
  8
0
100
AcDbLine
 62
7
  6
CONTINUOUS
 10
112.95
 20
42.95
 11
112.95
 21
0.0
  0
LINE
  5
22B
100
AcDbEntity
  8
0
100
AcDbLine
 62
7
  6
CONTINUOUS
 10
112.95
 20
-42.95
 11
112.95
 21
0.0
  0
INSERT
  5
22C
100
AcDbEntity
  8
0
100
AcDbBlockReference
 62
7
  6
CONTINUOUS
  2
_FILLED
 10
112.95
 20
42.95
 41
3.0
 42
3.0
 43
3.0
 50
90.0
  0
INSERT
  5
22D
100
AcDbEntity
  8
0
100
AcDbBlockReference
 62
7
  6
CONTINUOUS
  2
_FILLED
 10
112.95
 20
-42.95
 41
3.0
 42
3.0
 43
3.0
 50
270.0
  0
ENDBLK
  5
22E
100
AcDbEntity
  8
0
  6
BYBLOCK
 62
0
100
AcDbBlockEnd
  0
BLOCK
  5
22F
100
AcDbEntity
  8
0
100
AcDbBlockBegin
 62
7
  6
CONTINUOUS
  2
*D2
 70
65
 10
0.0
 20
0.0
  3
*D2
  1

  0
LINE
  5
230
100
AcDbEntity
  8
0
100
AcDbLine
 62
7
  6
CONTINUOUS
 10
-127.0842196631
 20
41.9532985842
 11
-127.0842196855
 21
52.4499999968
  0
LINE
  5
231
100
AcDbEntity
  8
0
100
AcDbLine
 62
7
  6
CONTINUOUS
 10
-135.4963580178
 20
23.6202380772
 11
-135.4963580793
 21
52.4499999788
  0
LINE
  5
232
100
AcDbEntity
  8
0
100
AcDbLine
 62
7
  6
CONTINUOUS
 10
-127.0842196823
 20
50.9499999968
 11
-131.2902888792
 21
50.9499999878
  0
LINE
  5
233
100
AcDbEntity
  8
0
100
AcDbLine
 62
7
  6
CONTINUOUS
 10
-131.2902888792
 20
50.9499999878
 11
-119.1556185537
 21
50.95
  0
LINE
  5
234
100
AcDbEntity
  8
0
100
AcDbLine
 62
7
  6
CONTINUOUS
 10
-135.4963580761
 20
50.9499999788
 11
-131.2902888792
 21
50.9499999878
  0
INSERT
  5
235
100
AcDbEntity
  8
0
100
AcDbBlockReference
 62
7
  6
CONTINUOUS
  2
_FILLED
 10
-127.0842196823
 20
50.9499999968
 41
3.0
 42
3.0
 43
3.0
 50
0.0000001223
  0
INSERT
  5
236
100
AcDbEntity
  8
0
100
AcDbBlockReference
 62
7
  6
CONTINUOUS
  2
_FILLED
 10
-135.4963580761
 20
50.9499999788
 41
3.0
 42
3.0
 43
3.0
 50
180.0000001223
  0
ENDBLK
  5
237
100
AcDbEntity
  8
0
  6
BYBLOCK
 62
0
100
AcDbBlockEnd
  0
ENDSEC
  0
SECTION
  2
ENTITIES
  0
DIMENSION
  5
238
100
AcDbEntity
  8
0
100
AcDbDimension
 62
7
  6
CONTINUOUS
  2
*D0
 10
104.95
 20
50.95
 11
8.2883650318
 21
50.95
 70
160
 71
2
 72
2
 41
0.9
 42
209.9
  3
DIMSTYLE_1
100
AcDbAlignedDimension
 13
-104.95
 23
42.15027414
 14
104.95
 24
42.15027414
100
AcDbRotatedDimension
  0
DIMENSION
  5
239
100
AcDbEntity
  8
0
100
AcDbDimension
 62
7
  6
CONTINUOUS
  2
*D1
 10
112.95
 20
-42.95
 11
112.95
 21
-2.3571428571
 70
160
 71
2
 72
2
 41
0.9
 42
85.9
  3
DIMSTYLE_1
100
AcDbAlignedDimension
 13
104.15027414
 23
42.95
 14
104.15027414
 24
-42.95
 50
270.0
100
AcDbRotatedDimension
  0
DIMENSION
  5
23A
100
AcDbEntity
  8
0
100
AcDbDimension
 62
7
  6
CONTINUOUS
  2
*D2
 10
-135.4963580761
 20
50.9499999788
 11
-125.5841899807
 21
50.95
 70
160
 71
1
 72
2
 41
0.9
 42
8.4121383938
  3
DIMSTYLE_2
100
AcDbAlignedDimension
 13
-127.084219662
 23
41.4532985842
 14
-135.4963580167
 24
23.1202380772
 50
180.0000001223
100
AcDbRotatedDimension
  0
LWPOLYLINE
  5
23B
100
AcDbEntity
  8
ASSI
100
AcDbPolyline
 62
250
  6
CONTINUOUS
 90
25
 70
0
 10
-104.4469961165
 20
-42.1304982644
 10
-104.4455774933
 20
-42.1504107119
 10
-104.4428968665
 20
-42.1701398041
 10
-104.4389539535
 20
-42.1896849203
 10
-104.4337189717
 20
-42.2091319555
 10
-104.4272211273
 20
-42.2283937316
 10
-104.4195486722
 20
-42.2472101415
 10
-104.4106865533
 20
-42.2655700151
 10
-104.4006493828
 20
-42.2834835571
 10
-104.3895700398
 20
-42.3007230387
 10
-104.3774367101
 20
-42.317278579
 10
-104.3642609723
 20
-42.3331595734
 10
-104.3502109558
 20
-42.3481675971
 10
-104.3352765195
 20
-42.3622930066
 10
-104.3194678151
 20
-42.375545543
 10
-104.3029835824
 20
-42.3877562739
 10
-104.2858138709
 20
-42.3989144411
 10
-104.2679688894
 20
-42.4090314935
 10
-104.2496777788
 20
-42.417972198
 10
-104.2309375396
 20
-42.4257216961
 10
-104.2117516391
 20
-42.4322960376
 10
-104.1923590445
 20
-42.4376066514
 10
-104.1728396284
 20
-42.4416245515
 10
-104.1531141165
 20
-42.444380214
 10
-104.1331828036
 20
-42.4458743692
  0
LWPOLYLINE
  5
23C
100
AcDbEntity
  8
ASSI
100
AcDbPolyline
 62
250
  6
CONTINUOUS
 90
25
 70
0
 10
-104.9092691466
 20
-42.1095432866
 10
-104.907555923
 20
-42.1618575633
 10
-104.9024249908
 20
-42.2139492278
 10
-104.8938976024
 20
-42.2655954281
 10
-104.8820087973
 20
-42.3165776676
 10
-104.8668091569
 20
-42.3666749911
 10
-104.8483662821
 20
-42.4156654325
 10
-104.8267601297
 20
-42.4633391682
 10
-104.802083749
 20
-42.5094929803
 10
-104.7744472184
 20
-42.5539243973
 10
-104.743973974
 20
-42.5964400157
 10
-104.7107931373
 20
-42.6368641304
 10
-104.6750408544
 20
-42.6750326252
 10
-104.6368700677
 20
-42.7107823347
 10
-104.5964437693
 20
-42.7439605562
 10
-104.5539257281
 20
-42.7744314071
 10
-104.5094915353
 20
-42.8020657668
 10
-104.46333464
 20
-42.8267400931
 10
-104.4156573455
 20
-42.8483443126
 10
-104.3666626406
 20
-42.8667853624
 10
-104.3165605309
 20
-42.8819830997
 10
-104.2655734614
 20
-42.8938697305
 10
-104.2139225758
 20
-42.902394655
 10
-104.1618262373
 20
-42.9075228858
 10
-104.1095073206
 20
-42.9092331806
  0
LINE
  5
23D
100
AcDbEntity
  8
ASSI
100
AcDbLine
 62
250
  6
CONTINUOUS
 10
-104.4469961165
 20
-42.1304982644
 11
-104.465397769
 21
-41.5960261535
  0
LINE
  5
23E
100
AcDbEntity
  8
ASSI
100
AcDbLine
 62
250
  6
CONTINUOUS
 10
-104.465397769
 20
-41.5960261535
 11
-104.4812670949
 21
-41.013766269
  0
LINE
  5
23F
100
AcDbEntity
  8
ASSI
100
AcDbLine
 62
250
  6
CONTINUOUS
 10
-104.12934175
 20
-42.6764946722
 11
-104.1310012508
 21
-42.614826559
  0
LINE
  5
240
100
AcDbEntity
  8
ASSI
100
AcDbLine
 62
250
  6
CONTINUOUS
 10
-104.4812670949
 20
-41.013766269
 11
-104.4944645673
 21
-40.3875862137
  0
LINE
  5
241
100
AcDbEntity
  8
ASSI
100
AcDbLine
 62
250
  6
CONTINUOUS
 10
-104.1310012508
 20
-42.614826559
 11
-104.1322392083
 21
-42.549129667
  0
LINE
  5
242
100
AcDbEntity
  8
ASSI
100
AcDbLine
 62
250
  6
CONTINUOUS
 10
-104.4944645673
 20
-40.3875862137
 11
-104.5044136022
 21
-39.7300309738
  0
LINE
  5
243
100
AcDbEntity
  8
ASSI
100
AcDbLine
 62
250
  6
CONTINUOUS
 10
-104.5044136022
 20
-39.7300309738
 11
-104.5114570289
 21
-39.0570738285
  0
LINE
  5
244
100
AcDbEntity
  8
ASSI
100
AcDbLine
 62
7
  6
CONTINUOUS
 10
-104.95
 20
42.15027414
 11
-104.95
 21
-42.15027414
  0
LINE
  5
245
100
AcDbEntity
  8
ASSI
100
AcDbLine
 62
250
  6
CONTINUOUS
 10
-104.9072429861
 20
37.5917435354
 11
-104.9092686594
 21
42.1095427994
  0
LINE
  5
246
100
AcDbEntity
  8
ASSI
100
AcDbLine
 62
250
  6
CONTINUOUS
 10
-104.9092693636
 20
-42.1095435037
 11
-104.9072429861
 21
37.5917435354
  0
LINE
  5
247
100
AcDbEntity
  8
ASSI
100
AcDbLine
 62
250
  6
CONTINUOUS
 10
-104.5123739521
 20
38.9388913989
 11
-104.5063141126
 21
39.5745982361
  0
LINE
  5
248
100
AcDbEntity
  8
ASSI
100
AcDbLine
 62
250
  6
CONTINUOUS
 10
-104.5063141126
 20
39.5745982361
 11
-104.4981800303
 21
40.1688102435
  0
LINE
  5
249
100
AcDbEntity
  8
ASSI
100
AcDbLine
 62
250
  6
CONTINUOUS
 10
-104.4981800303
 20
40.1688102435
 11
-104.4880012095
 21
40.7184761012
  0
LINE
  5
24A
100
AcDbEntity
  8
ASSI
100
AcDbLine
 62
250
  6
CONTINUOUS
 10
-104.1322392078
 20
42.5491296637
 11
-104.1310012503
 21
42.6148265543
  0
LINE
  5
24B
100
AcDbEntity
  8
ASSI
100
AcDbLine
 62
250
  6
CONTINUOUS
 10
-104.4880012095
 20
40.7184761012
 11
-104.4759512536
 21
41.2249671206
  0
LWPOLYLINE
  5
24C
100
AcDbEntity
  8
ASSI
100
AcDbPolyline
 62
250
  6
CONTINUOUS
 90
16
 70
0
 10
-104.1310012503
 20
42.6148265543
 10
-104.1293417496
 20
42.6764946664
 10
-104.1283637847
 20
42.7054362304
 10
-104.127293252
 20
42.7329245525
 10
-104.1261354068
 20
42.7588246903
 10
-104.1248959331
 20
42.7830094981
 10
-104.1235809155
 20
42.805360251
 10
-104.1221968096
 20
42.8257672273
 10
-104.12075041
 20
42.8441302477
 10
-104.1192488172
 20
42.8603591667
 10
-104.1176994027
 20
42.8743743151
 10
-104.1161097727
 20
42.8861068918
 10
-104.1144877306
 20
42.8954993011
 10
-104.1128412392
 20
42.9025054346
 10
-104.1111783812
 20
42.9070908981
 10
-104.1095073198
 20
42.909233181
  0
LINE
  5
24D
100
AcDbEntity
  8
ASSI
100
AcDbLine
 62
250
  6
CONTINUOUS
 10
-104.4759512536
 20
41.2249671206
 11
-104.4622658125
 21
41.6950065719
  0
LINE
  5
24E
100
AcDbEntity
  8
ASSI
100
AcDbLine
 62
250
  6
CONTINUOUS
 10
-104.4622658125
 20
41.6950065719
 11
-104.4470174888
 21
42.1303408944
  0
LWPOLYLINE
  5
24F
100
AcDbEntity
  8
ASSI
100
AcDbPolyline
 62
250
  6
CONTINUOUS
 90
15
 70
0
 10
-104.1095073206
 20
-42.9092331806
 10
-104.1111783817
 20
-42.9070908984
 10
-104.1128412394
 20
-42.9025054361
 10
-104.1144877306
 20
-42.8954993041
 10
-104.1161097727
 20
-42.8861068961
 10
-104.1176994028
 20
-42.87437432
 10
-104.1192488173
 20
-42.860359172
 10
-104.1207504101
 20
-42.8441302535
 10
-104.1221968097
 20
-42.8257672335
 10
-104.1235809157
 20
-42.8053602574
 10
-104.1248959333
 20
-42.7830095047
 10
-104.1261354071
 20
-42.7588246968
 10
-104.1272932523
 20
-42.7329245589
 10
-104.1283637851
 20
-42.7054362366
 10
-104.12934175
 20
-42.6764946722
  0
LWPOLYLINE
  5
250
100
AcDbEntity
  8
ASSI
100
AcDbPolyline
 62
250
  6
CONTINUOUS
 90
3
 70
0
 10
-104.1322392083
 20
-42.549129667
 10
-104.1330313434
 20
-42.480692457
 10
-104.1332550216
 20
-42.445864287
  0
LINE
  5
251
100
AcDbEntity
  8
ASSI
100
AcDbLine
 62
250
  6
CONTINUOUS
 10
-104.5114570289
 20
-39.0570738285
 11
-104.5175004791
 21
-38.0207593775
  0
LINE
  5
252
100
AcDbEntity
  8
ASSI
100
AcDbLine
 62
250
  6
CONTINUOUS
 10
-104.5513653182
 20
-22.3291339202
 11
-104.5586708942
 21
-18.0755879134
  0
LWPOLYLINE
  5
253
100
AcDbEntity
  8
ASSI
100
AcDbPolyline
 62
250
  6
CONTINUOUS
 90
3
 70
0
 10
-104.5175004791
 20
-38.0207593775
 10
-104.5249030904
 20
-33.9694425538
 10
-104.5513653182
 20
-22.3291339202
  0
LINE
  5
254
100
AcDbEntity
  8
ASSI
100
AcDbLine
 62
250
  6
CONTINUOUS
 10
-104.5586708942
 20
-18.0755879134
 11
-104.5625953715
 21
-13.2044336338
  0
LINE
  5
255
100
AcDbEntity
  8
ASSI
100
AcDbLine
 62
250
  6
CONTINUOUS
 10
-104.5625953715
 20
-13.2044336338
 11
-104.5642351349
 21
-1.3500436028
  0
LINE
  5
256
100
AcDbEntity
  8
ASSI
100
AcDbLine
 62
250
  6
CONTINUOUS
 10
-104.5642351349
 20
-1.3500436028
 11
-104.5628002202
 21
12.7147350282
  0
LINE
  5
257
100
AcDbEntity
  8
ASSI
100
AcDbLine
 62
250
  6
CONTINUOUS
 10
-104.5628002202
 20
12.7147350282
 11
-104.5579393078
 21
18.638165517
  0
LINE
  5
258
100
AcDbEntity
  8
ASSI
100
AcDbLine
 62
250
  6
CONTINUOUS
 10
-104.5579393078
 20
18.638165517
 11
-104.5467050529
 21
24.2934640787
  0
LINE
  5
259
100
AcDbEntity
  8
ASSI
100
AcDbLine
 62
250
  6
CONTINUOUS
 10
-104.5467050529
 20
24.2934640787
 11
-104.530676565
 21
30.4378175744
  0
LINE
  5
25A
100
AcDbEntity
  8
ASSI
100
AcDbLine
 62
250
  6
CONTINUOUS
 10
-104.530676565
 20
30.4378175744
 11
-104.5178047949
 21
37.9323870684
  0
LINE
  5
25B
100
AcDbEntity
  8
ASSI
100
AcDbLine
 62
250
  6
CONTINUOUS
 10
-104.5178047949
 20
37.9323870684
 11
-104.5123739521
 21
38.9388913989
  0
LWPOLYLINE
  5
25C
100
AcDbEntity
  8
ASSI
100
AcDbPolyline
 62
250
  6
CONTINUOUS
 90
3
 70
0
 10
-104.133255021
 20
42.445864287
 10
-104.1326921834
 20
42.5151706666
 10
-104.1322392078
 20
42.5491296637
  0
LWPOLYLINE
  5
25D
100
AcDbEntity
  8
ASSI
100
AcDbPolyline
 62
250
  6
CONTINUOUS
 90
14
 70
0
 10
-104.9092691466
 20
42.1095432866
 10
-104.9071317478
 20
42.1110061987
 10
-104.9025585787
 20
42.1124619511
 10
-104.8955720217
 20
42.113903419
 10
-104.8862062702
 20
42.1153235477
 10
-104.8745071619
 20
42.1167153869
 10
-104.8605319546
 20
42.1180721249
 10
-104.8443490454
 20
42.1193871214
 10
-104.8260376361
 20
42.1206539407
 10
-104.8056873456
 20
42.1218663829
 10
-104.7833977714
 20
42.1230185142
 10
-104.759278002
 20
42.1241046958
 10
-104.7334460829
 20
42.1251196119
 10
-104.7060284392
 20
42.1260582953
  0
LWPOLYLINE
  5
25E
100
AcDbEntity
  8
RACCORDO
100
AcDbPolyline
 62
250
  6
CONTINUOUS
 90
6
 70
0
 10
-78.5066753678
 20
22.7900394269
 10
-78.5063480196
 20
22.7786256402
 10
-78.5060108038
 20
22.769160697
 10
-78.5056661251
 20
22.7617120909
 10
-78.5053164413
 20
22.7563329376
 10
-78.504964246
 20
22.7530615951
  0
LINE
  5
25F
100
AcDbEntity
  8
RACCORDO
100
AcDbLine
 62
250
  6
CONTINUOUS
 10
-78.5072912111
 20
22.8183746503
 11
-78.5066753678
 21
22.7900394269
  0
LINE
  5
260
100
AcDbEntity
  8
RACCORDO
100
AcDbLine
 62
250
  6
CONTINUOUS
 10
-78.5078407991
 20
22.8533595825
 11
-78.5072912111
 21
22.8183746503
  0
LINE
  5
261
100
AcDbEntity
  8
RACCORDO
100
AcDbLine
 62
250
  6
CONTINUOUS
 10
-78.5085073481
 20
22.9160812792
 11
-78.5078407991
 21
22.8533595825
  0
LINE
  5
262
100
AcDbEntity
  8
RACCORDO
100
AcDbLine
 62
250
  6
CONTINUOUS
 10
-78.5090387244
 20
23.0124292831
 11
-78.5085073481
 21
22.9160812792
  0
LINE
  5
263
100
AcDbEntity
  8
RACCORDO
100
AcDbLine
 62
250
  6
CONTINUOUS
 10
-79.3080669606
 20
-22.2667631237
 11
-79.3260474433
 21
-15.7978959514
  0
LINE
  5
264
100
AcDbEntity
  8
RACCORDO
100
AcDbLine
 62
250
  6
CONTINUOUS
 10
-79.0045155608
 20
-22.2564182117
 11
-79.0165907006
 21
-17.6191612196
  0
LINE
  5
265
100
AcDbEntity
  8
RACCORDO
100
AcDbLine
 62
250
  6
CONTINUOUS
 10
-79.3260474433
 20
-15.7978959514
 11
-79.3359024331
 21
-10.7875061206
  0
LINE
  5
266
100
AcDbEntity
  8
RACCORDO
100
AcDbLine
 62
250
  6
CONTINUOUS
 10
-79.0165907006
 20
-17.6191612196
 11
-79.0244867805
 21
-12.9310247541
  0
LINE
  5
267
100
AcDbEntity
  8
RACCORDO
100
AcDbLine
 62
250
  6
CONTINUOUS
 10
-78.5091333937
 20
23.062993758
 11
-78.5090387244
 21
23.0124292831
  0
LINE
  5
268
100
AcDbEntity
  8
RACCORDO
100
AcDbLine
 62
250
  6
CONTINUOUS
 10
-79.3359024331
 20
-10.7875061206
 11
-79.3425121459
 21
-5.5946185739
  0
LINE
  5
269
100
AcDbEntity
  8
RACCORDO
100
AcDbLine
 62
250
  6
CONTINUOUS
 10
-79.0244867805
 20
-12.9310247541
 11
-79.0313844515
 21
-6.3092148014
  0
LINE
  5
26A
100
AcDbEntity
  8
RACCORDO
100
AcDbLine
 62
250
  6
CONTINUOUS
 10
-79.3425121459
 20
-5.5946185739
 11
-79.3450106608
 21
-0.862141873
  0
LINE
  5
26B
100
AcDbEntity
  8
RACCORDO
100
AcDbLine
 62
250
  6
CONTINUOUS
 10
-79.0313844515
 20
-6.3092148014
 11
-79.0338621602
 21
-0.861729786
  0
LINE
  5
26C
100
AcDbEntity
  8
RACCORDO
100
AcDbLine
 62
7
  6
CONTINUOUS
 10
-78.85
 20
22.101902651
 11
-78.85
 21
-22.101902651
  0
LINE
  5
26D
100
AcDbEntity
  8
RACCORDO
100
AcDbLine
 62
250
  6
CONTINUOUS
 10
-79.3450106608
 20
-0.862141873
 11
-79.3433033924
 21
4.6368128104
  0
LINE
  5
26E
100
AcDbEntity
  8
RACCORDO
100
AcDbLine
 62
250
  6
CONTINUOUS
 10
-79.0338621602
 20
-0.861729786
 11
-79.0316006431
 21
6.0194640694
  0
LINE
  5
26F
100
AcDbEntity
  8
RACCORDO
100
AcDbLine
 62
250
  6
CONTINUOUS
 10
-79.0316006431
 20
6.0194640694
 11
-79.0232926214
 21
13.7956386488
  0
LINE
  5
270
100
AcDbEntity
  8
RACCORDO
100
AcDbLine
 62
250
  6
CONTINUOUS
 10
-79.3433033924
 20
4.6368128104
 11
-79.3358540437
 21
10.8186914947
  0
LINE
  5
271
100
AcDbEntity
  8
RACCORDO
100
AcDbLine
 62
250
  6
CONTINUOUS
 10
-79.0232926214
 20
13.7956386488
 11
-79.0146688136
 21
18.4835031889
  0
LINE
  5
272
100
AcDbEntity
  8
RACCORDO
100
AcDbLine
 62
250
  6
CONTINUOUS
 10
-79.3358540437
 20
10.8186914947
 11
-79.324111424
 21
16.6065101088
  0
LINE
  5
273
100
AcDbEntity
  8
RACCORDO
100
AcDbLine
 62
250
  6
CONTINUOUS
 10
-79.0146688136
 20
18.4835031889
 11
-79.0045155608
 21
22.2564182117
  0
LINE
  5
274
100
AcDbEntity
  8
RACCORDO
100
AcDbLine
 62
250
  6
CONTINUOUS
 10
-79.324111424
 20
16.6065101088
 11
-79.3080669606
 21
22.2667631237
  0
LINE
  5
275
100
AcDbEntity
  8
RACCORDO
100
AcDbLine
 62
250
  6
CONTINUOUS
 10
-78.5091333939
 20
-23.062993758
 11
-78.5088280456
 21
-22.9629885471
  0
LINE
  5
276
100
AcDbEntity
  8
RACCORDO
100
AcDbLine
 62
250
  6
CONTINUOUS
 10
-78.5088280456
 20
-22.9629885471
 11
-78.5083084843
 21
-22.8939973145
  0
LINE
  5
277
100
AcDbEntity
  8
RACCORDO
100
AcDbLine
 62
250
  6
CONTINUOUS
 10
-78.5083084843
 20
-22.8939973145
 11
-78.5075753141
 21
-22.8350934071
  0
LWPOLYLINE
  5
278
100
AcDbEntity
  8
RACCORDO
100
AcDbPolyline
 62
250
  6
CONTINUOUS
 90
8
 70
0
 10
-78.5075753141
 20
-22.8350934071
 10
-78.5069905129
 20
-22.8033202347
 10
-78.5066753668
 20
-22.790039108
 10
-78.5063480191
 20
-22.7786254266
 10
-78.506010803
 20
-22.7691605502
 10
-78.5056661228
 20
-22.7617119788
 10
-78.5053164365
 20
-22.7563328517
 10
-78.5049642378
 20
-22.7530615411
  0
LWPOLYLINE
  5
279
100
AcDbEntity
  8
RACCORDO
100
AcDbPolyline
 62
250
  6
CONTINUOUS
 90
25
 70
0
 10
-79.004515522
 20
22.2564181729
 10
-79.0034812101
 20
22.2884453652
 10
-79.000383514
 20
22.3204124608
 10
-78.9952180843
 20
22.3521873386
 10
-78.9879809691
 20
22.3836707751
 10
-78.9786891908
 20
22.4146933772
 10
-78.9674021852
 20
22.4450225159
 10
-78.9541763096
 20
22.4745164543
 10
-78.9390639573
 20
22.5030698663
 10
-78.9221585902
 20
22.5305203922
 10
-78.9035558398
 20
22.5567395104
 10
-78.8833300694
 20
22.5816481832
 10
-78.8615575574
 20
22.605169015
 10
-78.8384090415
 20
22.6271426268
 10
-78.8139166346
 20
22.647560905
 10
-78.7879128387
 20
22.666532287
 10
-78.760360855
 20
22.6839984407
 10
-78.7314483594
 20
22.6997577983
 10
-78.7013257503
 20
22.7136698915
 10
-78.6700259704
 20
22.7256572226
 10
-78.6377456978
 20
22.7355857148
 10
-78.6049183724
 20
22.7433073154
 10
-78.5717960296
 20
22.7487872497
 10
-78.5384284904
 20
22.7520392817
 10
-78.5049641841
 20
22.7530615331
  0
LWPOLYLINE
  5
27A
100
AcDbEntity
  8
RACCORDO
100
AcDbPolyline
 62
250
  6
CONTINUOUS
 90
25
 70
0
 10
-79.3080669606
 20
22.2667631237
 10
-79.3062630277
 20
22.3182667632
 10
-79.3011785339
 20
22.3692632891
 10
-79.2928134655
 20
22.4197526935
 10
-79.2811026216
 20
22.4699956985
 10
-79.2661111764
 20
22.5197315735
 10
-79.2480346724
 20
22.5681780881
 10
-79.2268153046
 20
22.6152826507
 10
-79.2025108372
 20
22.6610977475
 10
-79.1754901582
 20
22.7049986902
 10
-79.1457390125
 20
22.7469217844
 10
-79.1132716125
 20
22.7869305573
 10
-79.0784995452
 20
22.8245911017
 10
-79.0415537056
 20
22.8598143085
 10
-79.0023031635
 20
22.8926890933
 10
-78.9607667687
 20
22.9230485639
 10
-78.9167656952
 20
22.9510313971
 10
-78.8704787459
 20
22.9764987423
 10
-78.8224612181
 20
22.9988673991
 10
-78.7725275093
 20
23.0180852171
 10
-78.720863216
 20
23.0342041765
 10
-78.6685804397
 20
23.0467972609
 10
-78.616049887
 20
23.0557220909
 10
-78.5629008675
 20
23.0611209341
 10
-78.5091333937
 20
23.062993758
  0
LINE
  5
27B
100
AcDbEntity
  8
ASSI
100
AcDbLine
 62
250
  6
CONTINUOUS
 10
-104.9092693636
 20
-42.1095435037
 11
-104.95
 21
-42.15027414
  0
LWPOLYLINE
  5
27C
100
AcDbEntity
  8
ASSI
100
AcDbPolyline
 62
250
  6
CONTINUOUS
 90
25
 70
0
 10
104.1330470719
 20
-42.4458933182
 10
104.1530385723
 20
-42.4443907129
 10
104.1728090565
 20
-42.4416287986
 10
104.1923582303
 20
-42.4376068465
 10
104.2117602392
 20
-42.4322951232
 10
104.2309403427
 20
-42.4257218791
 10
104.2496749647
 20
-42.4179734665
 10
104.2679657914
 20
-42.4090331087
 10
104.2858106683
 20
-42.3989163898
 10
104.3029803817
 20
-42.3877584966
 10
104.3194647392
 20
-42.3755479404
 10
104.3352736749
 20
-42.3622955191
 10
104.3502083275
 20
-42.3481702388
 10
104.3642584814
 20
-42.3331624221
 10
104.3774343416
 20
-42.317281649
 10
104.3895678498
 20
-42.3007262265
 10
104.4006474657
 20
-42.2834867449
 10
104.410684965
 20
-42.2655730995
 10
104.4195474251
 20
-42.2472129449
 10
104.4272194515
 20
-42.2284018564
 10
104.4337168801
 20
-42.2091452255
 10
104.4389537604
 20
-42.1896857417
 10
104.442901651
 20
-42.1701047707
 10
104.4455895659
 20
-42.1503222186
 10
104.4470177865
 20
-42.1303387027
  0
LINE
  5
27D
100
AcDbEntity
  8
ASSI
100
AcDbLine
 62
250
  6
CONTINUOUS
 10
104.1330470719
 20
-42.4458933182
 11
103.1763341046
 21
-42.4828491271
  0
LINE
  5
27E
100
AcDbEntity
  8
ASSI
100
AcDbLine
 62
250
  6
CONTINUOUS
 10
103.1763341046
 20
-42.4828491271
 11
102.4878793451
 21
-42.5067358529
  0
LWPOLYLINE
  5
27F
100
AcDbEntity
  8
ASSI
100
AcDbPolyline
 62
250
  6
CONTINUOUS
 90
25
 70
0
 10
104.1095073206
 20
-42.9092331806
 10
104.1618259075
 20
-42.9075229072
 10
104.2139215266
 20
-42.9023947929
 10
104.2655713205
 20
-42.8938701563
 10
104.31655669
 20
-42.8819841289
 10
104.3666568008
 20
-42.8667873449
 10
104.4156500104
 20
-42.8483473511
 10
104.463326592
 20
-42.8267440622
 10
104.509483231
 20
-42.8020705618
 10
104.5539174704
 20
-42.7744369253
 10
104.5964358939
 20
-42.7439665995
 10
104.6368628132
 20
-42.7107886966
 10
104.675034161
 20
-42.6750393181
 10
104.7107867951
 20
-42.6368713612
 10
104.7439679677
 20
-42.5964478417
 10
104.7744417447
 20
-42.5539325871
 10
104.8020789951
 20
-42.509501212
 10
104.8267561928
 20
-42.4633471494
 10
104.8483632659
 20
-42.4156727124
 10
104.8668071858
 20
-42.3666807961
 10
104.88200777
 20
-42.3165815005
 10
104.8938971743
 20
-42.2655975799
 10
104.9024248507
 20
-42.2139502933
 10
104.9075559006
 20
-42.1618579059
 10
104.9092691466
 20
-42.1095432866
  0
LINE
  5
280
100
AcDbEntity
  8
ASSI
100
AcDbLine
 62
250
  6
CONTINUOUS
 10
102.4878793451
 20
-42.5067358529
 11
101.7566414409
 21
-42.5294152772
  0
LINE
  5
281
100
AcDbEntity
  8
ASSI
100
AcDbLine
 62
250
  6
CONTINUOUS
 10
101.7566414409
 20
-42.5294152772
 11
100.9812784386
 21
-42.5505827859
  0
LWPOLYLINE
  5
282
100
AcDbEntity
  8
ASSI
100
AcDbPolyline
 62
250
  6
CONTINUOUS
 90
3
 70
0
 10
104.7060284382
 20
-42.1260582953
 10
104.6469798242
 20
-42.1276889837
 10
104.6156378456
 20
-42.1283730079
  0
LINE
  5
283
100
AcDbEntity
  8
ASSI
100
AcDbLine
 62
250
  6
CONTINUOUS
 10
100.9812784386
 20
-42.5505827859
 11
100.1598025626
 21
-42.5698179099
  0
LINE
  5
284
100
AcDbEntity
  8
ASSI
100
AcDbLine
 62
250
  6
CONTINUOUS
 10
100.1598025626
 20
-42.5698179099
 11
99.2895109416
 21
-42.5868731085
  0
LINE
  5
285
100
AcDbEntity
  8
ASSI
100
AcDbLine
 62
250
  6
CONTINUOUS
 10
-99.118547174
 20
-42.5898627062
 11
-99.8554920514
 21
-42.5761567221
  0
LINE
  5
286
100
AcDbEntity
  8
ASSI
100
AcDbLine
 62
250
  6
CONTINUOUS
 10
-99.8554920514
 20
-42.5761567221
 11
-100.8949066438
 21
-42.5527601859
  0
LWPOLYLINE
  5
287
100
AcDbEntity
  8
ASSI
100
AcDbPolyline
 62
250
  6
CONTINUOUS
 90
16
 70
0
 10
-104.615638308
 20
-42.1283730647
 10
-104.6771598008
 20
-42.1269162026
 10
-104.7060290137
 20
-42.1260583421
 10
-104.7334466777
 20
-42.1251196549
 10
-104.7592786066
 20
-42.1241047348
 10
-104.7833983748
 20
-42.123018549
 10
-104.8056879365
 20
-42.1218664136
 10
-104.8260382031
 20
-42.1206539672
 10
-104.8443495773
 20
-42.1193871437
 10
-104.8605324401
 20
-42.1180721432
 10
-104.8745076109
 20
-42.1167153993
 10
-104.8862066649
 20
-42.1153235541
 10
-104.8955723051
 20
-42.1139034266
 10
-104.9025587197
 20
-42.1124619698
 10
-104.9071317687
 20
-42.1110062361
 10
-104.909269107
 20
-42.10954335
  0
LINE
  5
288
100
AcDbEntity
  8
ASSI
100
AcDbLine
 62
250
  6
CONTINUOUS
 10
-100.8949066438
 20
-42.5527601859
 11
-101.8586673213
 21
-42.5264420509
  0
LINE
  5
289
100
AcDbEntity
  8
ASSI
100
AcDbLine
 62
250
  6
CONTINUOUS
 10
-101.8586673213
 20
-42.5264420509
 11
-102.7499279831
 21
-42.4979311054
  0
LINE
  5
28A
100
AcDbEntity
  8
ASSI
100
AcDbLine
 62
250
  6
CONTINUOUS
 10
-102.7499279831
 20
-42.4979311054
 11
-103.5876964303
 21
-42.4675067834
  0
LINE
  5
28B
100
AcDbEntity
  8
ASSI
100
AcDbLine
 62
250
  6
CONTINUOUS
 10
-103.5876964303
 20
-42.4675067834
 11
-104.1331828036
 21
-42.4458743692
  0
LINE
  5
28C
100
AcDbEntity
  8
ASSI
100
AcDbLine
 62
250
  6
CONTINUOUS
 10
-104.9092686594
 20
42.1095427994
 11
-104.95
 21
42.15027414
  0
LINE
  5
28D
100
AcDbEntity
  8
ASSI
100
AcDbLine
 62
250
  6
CONTINUOUS
 10
-104.1095072419
 20
-42.9092331018
 11
-104.15027414
 21
-42.95
  0
LINE
  5
28E
100
AcDbEntity
  8
RACCORDO
100
AcDbLine
 62
250
  6
CONTINUOUS
 10
-79.0045155608
 20
-22.2564182117
 11
-78.85
 21
-22.101902651
  0
LINE
  5
28F
100
AcDbEntity
  8
RACCORDO
100
AcDbLine
 62
250
  6
CONTINUOUS
 10
-78.504964246
 20
-22.7530615951
 11
-78.351902651
 21
-22.6
  0
LINE
  5
290
100
AcDbEntity
  8
ASSI
100
AcDbLine
 62
250
  6
CONTINUOUS
 10
99.2895109416
 20
-42.5868731085
 11
98.3685012181
 21
-42.6016263108
  0
LINE
  5
291
100
AcDbEntity
  8
ASSI
100
AcDbLine
 62
250
  6
CONTINUOUS
 10
104.6156378456
 20
-42.1283730079
 11
104.5500847529
 21
-42.1294616942
  0
LINE
  5
292
100
AcDbEntity
  8
ASSI
100
AcDbLine
 62
250
  6
CONTINUOUS
 10
98.3685012181
 20
-42.6016263108
 11
97.3936781299
 21
-42.61394441
  0
LINE
  5
293
100
AcDbEntity
  8
ASSI
100
AcDbLine
 62
250
  6
CONTINUOUS
 10
97.3936781299
 20
-42.61394441
 11
96.3617405955
 21
-42.6238351518
  0
LWPOLYLINE
  5
294
100
AcDbEntity
  8
ASSI
100
AcDbPolyline
 62
250
  6
CONTINUOUS
 90
3
 70
0
 10
104.5500847529
 20
-42.1294616942
 10
104.4817817077
 20
-42.1301609245
 10
104.4470149056
 20
-42.1303599154
  0
LINE
  5
295
100
AcDbEntity
  8
ASSI
100
AcDbLine
 62
250
  6
CONTINUOUS
 10
96.3617405955
 20
-42.6238351518
 11
95.2704371382
 21
-42.6313317526
  0
LINE
  5
296
100
AcDbEntity
  8
ASSI
100
AcDbLine
 62
250
  6
CONTINUOUS
 10
95.2704371382
 20
-42.6313317526
 11
94.1162720619
 21
-42.6365122464
  0
LINE
  5
297
100
AcDbEntity
  8
ASSI
100
AcDbLine
 62
250
  6
CONTINUOUS
 10
-83.3635075361
 20
-42.6283240681
 11
-86.8999327636
 21
-42.6364193996
  0
LINE
  5
298
100
AcDbEntity
  8
ASSI
100
AcDbLine
 62
250
  6
CONTINUOUS
 10
-67.619333999
 20
-42.583833325
 11
-83.3635075361
 21
-42.6283240681
  0
LINE
  5
299
100
AcDbEntity
  8
ASSI
100
AcDbLine
 62
250
  6
CONTINUOUS
 10
94.1162720619
 20
-42.6365122464
 11
92.2600109998
 21
-42.6403852063
  0
LINE
  5
29A
100
AcDbEntity
  8
ASSI
100
AcDbLine
 62
250
  6
CONTINUOUS
 10
-61.578461719
 20
-42.5753566226
 11
-67.619333999
 21
-42.583833325
  0
LINE
  5
29B
100
AcDbEntity
  8
ASSI
100
AcDbLine
 62
250
  6
CONTINUOUS
 10
-86.8999327636
 20
-42.6364193996
 11
-90.044938018
 21
-42.6403794094
  0
LINE
  5
29C
100
AcDbEntity
  8
ASSI
100
AcDbLine
 62
7
  6
CONTINUOUS
 10
-104.15027414
 20
-42.95
 11
104.15027414
 21
-42.95
  0
LINE
  5
29D
100
AcDbEntity
  8
ASSI
100
AcDbLine
 62
250
  6
CONTINUOUS
 10
-12.8212331134
 20
-42.5511606198
 11
-61.578461719
 21
-42.5753566226
  0
LINE
  5
29E
100
AcDbEntity
  8
ASSI
100
AcDbLine
 62
250
  6
CONTINUOUS
 10
92.8948804718
 20
-42.9040135936
 11
-67.6202103516
 21
-42.9053208193
  0
LINE
  5
29F
100
AcDbEntity
  8
ASSI
100
AcDbLine
 62
250
  6
CONTINUOUS
 10
-67.6202103516
 20
-42.9053208193
 11
-104.1095072419
 21
-42.9092331018
  0
LINE
  5
2A0
100
AcDbEntity
  8
ASSI
100
AcDbLine
 62
250
  6
CONTINUOUS
 10
99.7219006568
 20
-42.9055719182
 11
92.8948804718
 21
-42.9040135936
  0
LINE
  5
2A1
100
AcDbEntity
  8
ASSI
100
AcDbLine
 62
250
  6
CONTINUOUS
 10
92.2600109998
 20
-42.6403852063
 11
90.2452493153
 21
-42.6405059012
  0
LWPOLYLINE
  5
2A2
100
AcDbEntity
  8
ASSI
100
AcDbPolyline
 62
250
  6
CONTINUOUS
 90
3
 70
0
 10
100.9692060413
 20
-42.9062980142
 10
100.5653403237
 20
-42.9060408355
 10
99.7219006568
 20
-42.9055719182
  0
LINE
  5
2A3
100
AcDbEntity
  8
ASSI
100
AcDbLine
 62
250
  6
CONTINUOUS
 10
-90.044938018
 20
-42.6403794094
 11
-92.3075472131
 21
-42.6403686662
  0
LWPOLYLINE
  5
2A4
100
AcDbEntity
  8
ASSI
100
AcDbPolyline
 62
250
  6
CONTINUOUS
 90
3
 70
0
 10
102.112027883
 20
-42.9071586785
 10
101.7422246911
 20
-42.9068576694
 10
100.9692060413
 20
-42.9062980142
  0
LWPOLYLINE
  5
2A5
100
AcDbEntity
  8
ASSI
100
AcDbPolyline
 62
250
  6
CONTINUOUS
 90
3
 70
0
 10
103.1567362987
 20
-42.9081426922
 10
102.8189442025
 20
-42.9078022666
 10
102.112027883
 20
-42.9071586785
  0
LINE
  5
2A6
100
AcDbEntity
  8
ASSI
100
AcDbLine
 62
250
  6
CONTINUOUS
 10
62.2734239416
 20
-42.576161233
 11
-12.8212331134
 21
-42.5511606198
  0
LWPOLYLINE
  5
2A7
100
AcDbEntity
  8
ASSI
100
AcDbPolyline
 62
250
  6
CONTINUOUS
 90
3
 70
0
 10
104.1095068547
 20
-42.9092327147
 10
103.8021319871
 20
-42.9088575951
 10
103.1567362987
 20
-42.9081426922
  0
LINE
  5
2A8
100
AcDbEntity
  8
ASSI
100
AcDbLine
 62
250
  6
CONTINUOUS
 10
90.2452493153
 20
-42.6405059012
 11
87.2917310306
 21
-42.6370947549
  0
LINE
  5
2A9
100
AcDbEntity
  8
ASSI
100
AcDbLine
 62
250
  6
CONTINUOUS
 10
71.6966437461
 20
-42.59273107
 11
62.2734239416
 21
-42.576161233
  0
LINE
  5
2AA
100
AcDbEntity
  8
ASSI
100
AcDbLine
 62
250
  6
CONTINUOUS
 10
-92.3075472131
 20
-42.6403686662
 11
-93.8702819443
 21
-42.6373296582
  0
LINE
  5
2AB
100
AcDbEntity
  8
ASSI
100
AcDbLine
 62
250
  6
CONTINUOUS
 10
87.2917310306
 20
-42.6370947549
 11
83.9991205249
 21
-42.6300208751
  0
LINE
  5
2AC
100
AcDbEntity
  8
ASSI
100
AcDbLine
 62
250
  6
CONTINUOUS
 10
83.9991205249
 20
-42.6300208751
 11
81.2873527849
 21
-42.6222337928
  0
LINE
  5
2AD
100
AcDbEntity
  8
ASSI
100
AcDbLine
 62
250
  6
CONTINUOUS
 10
81.2873527849
 20
-42.6222337928
 11
79.3565750193
 21
-42.6160599958
  0
LWPOLYLINE
  5
2AE
100
AcDbEntity
  8
ASSI
100
AcDbPolyline
 62
250
  6
CONTINUOUS
 90
3
 70
0
 10
79.3565750193
 20
-42.6160599958
 10
77.3204599642
 20
-42.6093117864
 10
71.6966437461
 20
-42.59273107
  0
LINE
  5
2AF
100
AcDbEntity
  8
ASSI
100
AcDbLine
 62
250
  6
CONTINUOUS
 10
-93.8702819443
 20
-42.6373296582
 11
-95.326064425
 21
-42.6310142579
  0
LINE
  5
2B0
100
AcDbEntity
  8
ASSI
100
AcDbLine
 62
250
  6
CONTINUOUS
 10
-95.326064425
 20
-42.6310142579
 11
-96.6817693727
 21
-42.6210856961
  0
LINE
  5
2B1
100
AcDbEntity
  8
ASSI
100
AcDbLine
 62
250
  6
CONTINUOUS
 10
-104.4470148531
 20
-42.1303599828
 11
-104.5161946953
 21
-42.1298610926
  0
LINE
  5
2B2
100
AcDbEntity
  8
ASSI
100
AcDbLine
 62
250
  6
CONTINUOUS
 10
-96.6817693727
 20
-42.6210856961
 11
-97.9439789866
 21
-42.6073744128
  0
LWPOLYLINE
  5
2B3
100
AcDbEntity
  8
ASSI
100
AcDbPolyline
 62
250
  6
CONTINUOUS
 90
3
 70
0
 10
-104.5161946953
 20
-42.1298610926
 10
-104.583287124
 20
-42.1289649365
 10
-104.615638308
 20
-42.1283730647
  0
LINE
  5
2B4
100
AcDbEntity
  8
ASSI
100
AcDbLine
 62
250
  6
CONTINUOUS
 10
-97.9439789866
 20
-42.6073744128
 11
-99.118547174
 21
-42.5898627062
  0
LINE
  5
2B5
100
AcDbEntity
  8
ASSI
100
AcDbLine
 62
250
  6
CONTINUOUS
 10
-104.1095074459
 20
42.9092333059
 11
-104.15027414
 21
42.95
  0
LINE
  5
2B6
100
AcDbEntity
  8
RACCORDO
100
AcDbLine
 62
250
  6
CONTINUOUS
 10
-79.0045155608
 20
22.2564182117
 11
-78.85
 21
22.101902651
  0
LINE
  5
2B7
100
AcDbEntity
  8
RACCORDO
100
AcDbLine
 62
250
  6
CONTINUOUS
 10
-78.504964246
 20
22.7530615951
 11
-78.351902651
 21
22.6
  0
LWPOLYLINE
  5
2B8
100
AcDbEntity
  8
0
100
AcDbPolyline
 62
7
  6
CONTINUOUS
 90
3
 70
0
 43
0.3500000006
 10
10.6455076447
 20
53.8428557739
 10
11.5026512489
 20
54.6999982452
 10
11.5026512489
 20
51.7000018616
  0
LWPOLYLINE
  5
2B9
100
AcDbEntity
  8
0
100
AcDbPolyline
 62
7
  6
CONTINUOUS
 90
25
 70
0
 10
2.9643025021
 20
-25.5096494116
 10
3.0177209818
 20
-25.5019490562
 10
3.0710942722
 20
-25.494605237
 10
3.1244144565
 20
-25.4876681158
 10
3.1776269936
 20
-25.4811925213
 10
3.2307708147
 20
-25.4752206228
 10
3.2839789009
 20
-25.4697864444
 10
3.3372583234
 20
-25.46494047
 10
3.3905879503
 20
-25.4607359496
 10
3.4440592231
 20
-25.4572188279
 10
3.4976736921
 20
-25.4544447671
 10
3.5514159685
 20
-25.4524710349
 10
3.6053523083
 20
-25.4513539796
 10
3.6595363903
 20
-25.4511556296
 10
3.7139002216
 20
-25.4519407035
 10
3.7683274236
 20
-25.4537684926
 10
3.8227642472
 20
-25.4566943626
 10
3.8772495
 20
-25.4607780076
 10
3.9317842403
 20
-25.4661101458
 10
3.986317736
 20
-25.4728961209
 10
4.0406620778
 20
-25.4813559201
 10
4.0945437129
 20
-25.49168661
 10
4.1477884024
 20
-25.5040880904
 10
4.2003181291
 20
-25.5187788204
 10
4.2520075265
 20
-25.5359677442
  0
LWPOLYLINE
  5
2BA
100
AcDbEntity
  8
0
100
AcDbPolyline
 62
7
  6
CONTINUOUS
 90
31
 70
0
 10
3.7648934314
 20
-26.5925250773
 10
3.7865581403
 20
-26.5917550272
 10
3.8083389205
 20
-26.5903760083
 10
3.8301289018
 20
-26.5883409063
 10
3.8518029975
 20
-26.585607783
 10
3.8732838809
 20
-26.5821320041
 10
3.8945408062
 20
-26.5778582065
 10
3.915467638
 20
-26.5727422551
 10
3.9359831043
 20
-26.5667359503
 10
3.9560898181
 20
-26.5597588853
 10
3.9757458103
 20
-26.5517275595
 10
3.9947928787
 20
-26.5426008141
 10
4.0130604011
 20
-26.5323607844
 10
4.0304537943
 20
-26.5209634397
 10
4.0468875433
 20
-26.5083608373
 10
4.062231573
 20
-26.4945680752
 10
4.0764495997
 20
-26.4796919795
 10
4.0895890047
 20
-26.463829494
 10
4.101694463
 20
-26.4470591049
 10
4.1127719759
 20
-26.4294983508
 10
4.1228384281
 20
-26.4112463729
 10
4.1319369755
 20
-26.392336029
 10
4.1400626502
 20
-26.3728771477
 10
4.1472216666
 20
-26.3529546601
 10
4.1534464867
 20
-26.3325494319
 10
4.1587210319
 20
-26.3117527451
 10
4.16302784
 20
-26.2906641188
 10
4.1663648349
 20
-26.2692732126
 10
4.1687022535
 20
-26.2476489914
 10
4.1700001969
 20
-26.2259419991
 10
4.170225122
 20
-26.2042730878
  0
LINE
  5
2BB
100
AcDbEntity
  8
RACCORDO
100
AcDbLine
 62
250
  6
CONTINUOUS
 10
-79.3080669606
 20
-22.2667631237
 11
-79.2582649169
 21
-22.2664970191
  0
LINE
  5
2BC
100
AcDbEntity
  8
RACCORDO
100
AcDbLine
 62
250
  6
CONTINUOUS
 10
78.5091333937
 20
-23.062993758
 11
55.0976155954
 21
-23.0933664262
  0
LINE
  5
2BD
100
AcDbEntity
  8
RACCORDO
100
AcDbLine
 62
250
  6
CONTINUOUS
 10
78.504964246
 20
-22.7530615951
 11
77.6606851505
 21
-22.7540131529
  0
LINE
  5
2BE
100
AcDbEntity
  8
RACCORDO
100
AcDbLine
 62
250
  6
CONTINUOUS
 10
77.6606851505
 20
-22.7540131529
 11
76.0302339329
 21
-22.7556361329
  0
LINE
  5
2BF
100
AcDbEntity
  8
RACCORDO
100
AcDbLine
 62
250
  6
CONTINUOUS
 10
55.0976155954
 20
-23.0933664262
 11
44.31743964
 21
-23.1036668913
  0
LINE
  5
2C0
100
AcDbEntity
  8
RACCORDO
100
AcDbLine
 62
250
  6
CONTINUOUS
 10
44.31743964
 20
-23.1036668913
 11
31.4101916936
 21
-23.1122129381
  0
LINE
  5
2C1
100
AcDbEntity
  8
RACCORDO
100
AcDbLine
 62
250
  6
CONTINUOUS
 10
76.0302339329
 20
-22.7556361329
 11
72.9866199264
 21
-22.7578251446
  0
LINE
  5
2C2
100
AcDbEntity
  8
RACCORDO
100
AcDbLine
 62
250
  6
CONTINUOUS
 10
31.4101916936
 20
-23.1122129381
 11
18.3622492971
 21
-23.1175482918
  0
LINE
  5
2C3
100
AcDbEntity
  8
RACCORDO
100
AcDbLine
 62
250
  6
CONTINUOUS
 10
72.9866199264
 20
-22.7578251446
 11
39.549420098
 21
-22.7720107806
  0
LINE
  5
2C4
100
AcDbEntity
  8
RACCORDO
100
AcDbLine
 62
250
  6
CONTINUOUS
 10
39.549420098
 20
-22.7720107806
 11
18.3616993555
 21
-22.7770622395
  0
LINE
  5
2C5
100
AcDbEntity
  8
0
100
AcDbLine
 62
7
  6
CONTINUOUS
 10
4.7849537607
 20
-27.9801797807
 11
4.2830496624
 21
-27.9801797807
  0
LINE
  5
2C6
100
AcDbEntity
  8
0
100
AcDbLine
 62
7
  6
CONTINUOUS
 10
3.4839958436
 20
-27.9801797807
 11
2.9643025021
 21
-27.9801797807
  0
LINE
  5
2C7
100
AcDbEntity
  8
0
100
AcDbLine
 62
7
  6
CONTINUOUS
 10
2.811079
 20
-27.98018
 11
2.261131
 21
-27.98018
  0
LINE
  5
2C8
100
AcDbEntity
  8
0
100
AcDbLine
 62
7
  6
CONTINUOUS
 10
1.271381
 20
-27.98018
 11
0.75525
 21
-27.98018
  0
LINE
  5
2C9
100
AcDbEntity
  8
0
100
AcDbLine
 62
7
  6
CONTINUOUS
 10
0.673314
 20
-27.98018
 11
0.162862
 21
-27.98018
  0
LINE
  5
2CA
100
AcDbEntity
  8
0
100
AcDbLine
 62
7
  6
CONTINUOUS
 10
-0.564753
 20
-27.98018
 11
-0.637935
 21
-27.98018
  0
LINE
  5
2CB
100
AcDbEntity
  8
0
100
AcDbLine
 62
7
  6
CONTINUOUS
 10
-1.362664
 20
-27.98018
 11
-1.86185
 21
-27.98018
  0
LINE
  5
2CC
100
AcDbEntity
  8
0
100
AcDbLine
 62
7
  6
CONTINUOUS
 10
-2.142747
 20
-27.98018
 11
-2.66454
 21
-27.98018
  0
LINE
  5
2CD
100
AcDbEntity
  8
0
100
AcDbLine
 62
7
  6
CONTINUOUS
 10
-3.661694
 20
-27.98018
 11
-4.121524
 21
-27.98018
  0
LINE
  5
2CE
100
AcDbEntity
  8
0
100
AcDbLine
 62
7
  6
CONTINUOUS
 10
2.125959
 20
-27.481144
 11
1.415364
 21
-27.481144
  0
LINE
  5
2CF
100
AcDbEntity
  8
0
100
AcDbLine
 62
7
  6
CONTINUOUS
 10
1.522099
 20
-27.094992
 11
2.021679
 21
-27.094992
  0
LINE
  5
2D0
100
AcDbEntity
  8
0
100
AcDbLine
 62
7
  6
CONTINUOUS
 10
3.7637687163
 20
-27.0019213614
 11
3.4839958436
 21
-27.0019213614
  0
LINE
  5
2D1
100
AcDbEntity
  8
0
100
AcDbLine
 62
7
  6
CONTINUOUS
 10
3.4666939769
 20
-26.5925250773
 11
3.7648934314
 21
-26.5925250773
  0
LINE
  5
2D2
100
AcDbEntity
  8
0
100
AcDbLine
 62
7
  6
CONTINUOUS
 10
-4.913989
 20
-25.480444
 11
-4.347161
 21
-25.480444
  0
LINE
  5
2D3
100
AcDbEntity
  8
0
100
AcDbLine
 62
7
  6
CONTINUOUS
 10
-3.379615
 20
-25.480444
 11
-2.858179
 21
-25.480444
  0
LINE
  5
2D4
100
AcDbEntity
  8
0
100
AcDbLine
 62
7
  6
CONTINUOUS
 10
-1.636138
 20
-25.480444
 11
-1.114777
 21
-25.480444
  0
LINE
  5
2D5
100
AcDbEntity
  8
0
100
AcDbLine
 62
7
  6
CONTINUOUS
 10
-0.076702
 20
-25.480444
 11
0.439561
 21
-25.480444
  0
LINE
  5
2D6
100
AcDbEntity
  8
0
100
AcDbLine
 62
7
  6
CONTINUOUS
 10
1.539326
 20
-25.480444
 11
2.044098
 21
-25.480444
  0
LINE
  5
2D7
100
AcDbEntity
  8
0
100
AcDbLine
 62
7
  6
CONTINUOUS
 10
-2.66454
 20
-25.480294
 11
-2.142747
 21
-25.480294
  0
LINE
  5
2D8
100
AcDbEntity
  8
RACCORDO
100
AcDbLine
 62
250
  6
CONTINUOUS
 10
18.3622492971
 20
-23.1175482918
 11
4.455633838
 21
-23.1200761045
  0
LINE
  5
2D9
100
AcDbEntity
  8
RACCORDO
100
AcDbLine
 62
250
  6
CONTINUOUS
 10
18.3616993555
 20
-22.7770622395
 11
0.0
 21
-22.7785951313
  0
LINE
  5
2DA
100
AcDbEntity
  8
RACCORDO
100
AcDbLine
 62
7
  6
CONTINUOUS
 10
-78.351902651
 20
-22.6
 11
78.351902651
 21
-22.6
  0
LINE
  5
2DB
100
AcDbEntity
  8
RACCORDO
100
AcDbLine
 62
250
  6
CONTINUOUS
 10
4.455633838
 20
-23.1200761045
 11
-4.1495265648
 21
-23.1200975969
  0
LINE
  5
2DC
100
AcDbEntity
  8
RACCORDO
100
AcDbLine
 62
250
  6
CONTINUOUS
 10
0.0
 20
-22.7785951313
 11
-26.5990234044
 21
-22.7754986433
  0
LINE
  5
2DD
100
AcDbEntity
  8
RACCORDO
100
AcDbLine
 62
250
  6
CONTINUOUS
 10
-4.1495265648
 20
-23.1200975969
 11
-23.5931887861
 21
-23.1157661949
  0
LINE
  5
2DE
100
AcDbEntity
  8
RACCORDO
100
AcDbLine
 62
250
  6
CONTINUOUS
 10
-26.5990234044
 20
-22.7754986433
 11
-46.1013985248
 21
-22.7696313871
  0
LINE
  5
2DF
100
AcDbEntity
  8
RACCORDO
100
AcDbLine
 62
250
  6
CONTINUOUS
 10
-23.5931887861
 20
-23.1157661949
 11
-41.8939425096
 21
-23.105556761
  0
LINE
  5
2E0
100
AcDbEntity
  8
RACCORDO
100
AcDbLine
 62
250
  6
CONTINUOUS
 10
-46.1013985248
 20
-22.7696313871
 11
-74.9603144385
 21
-22.756519528
  0
LINE
  5
2E1
100
AcDbEntity
  8
RACCORDO
100
AcDbLine
 62
250
  6
CONTINUOUS
 10
-41.8939425096
 20
-23.105556761
 11
-54.1133110767
 21
-23.0944491956
  0
LINE
  5
2E2
100
AcDbEntity
  8
RACCORDO
100
AcDbLine
 62
250
  6
CONTINUOUS
 10
-74.9603144385
 20
-22.756519528
 11
-78.504964246
 21
-22.7530615951
  0
LINE
  5
2E3
100
AcDbEntity
  8
RACCORDO
100
AcDbLine
 62
250
  6
CONTINUOUS
 10
-54.1133110767
 20
-23.0944491956
 11
-78.5091333937
 21
-23.062993758
  0
LINE
  5
2E4
100
AcDbEntity
  8
RACCORDO
100
AcDbLine
 62
250
  6
CONTINUOUS
 10
79.3080669606
 20
-22.2667631239
 11
79.2582646253
 21
-22.266496947
  0
LWPOLYLINE
  5
2E5
100
AcDbEntity
  8
RACCORDO
100
AcDbPolyline
 62
250
  6
CONTINUOUS
 90
25
 70
0
 10
-78.504964192
 20
-22.753061541
 10
-78.53758564
 20
-22.7520917861
 10
-78.5699784239
 20
-22.7490218076
 10
-78.6020095005
 20
-22.7438799946
 10
-78.6335337987
 20
-22.736708192
 10
-78.6644402837
 20
-22.7275480592
 10
-78.6946494299
 20
-22.7164307109
 10
-78.7240479842
 20
-22.7034029403
 10
-78.752508542
 20
-22.6885268473
 10
-78.7799314946
 20
-22.6718554425
 10
-78.8062015841
 20
-22.6534610739
 10
-78.8312160185
 20
-22.6334187327
 10
-78.8548952315
 20
-22.6117875344
 10
-78.8770915893
 20
-22.588705194
 10
-78.8977636997
 20
-22.5642170697
 10
-78.916959818
 20
-22.5382186107
 10
-78.9346115942
 20
-22.5106971073
 10
-78.9505337396
 20
-22.4818245941
 10
-78.9645805104
 20
-22.451766133
 10
-78.976678367
 20
-22.4205640691
 10
-78.9867020961
 20
-22.3884123661
 10
-78.994508501
 20
-22.3557410092
 10
-79.0000684427
 20
-22.3228010976
 10
-79.003402621
 20
-22.2896442709
 10
-79.004515516
 20
-22.256418167
  0
LWPOLYLINE
  5
2E6
100
AcDbEntity
  8
RACCORDO
100
AcDbPolyline
 62
250
  6
CONTINUOUS
 90
25
 70
0
 10
-78.5091333937
 20
-23.062993758
 10
-78.5615066865
 20
-23.0611445254
 10
-78.6131085374
 20
-23.0560565504
 10
-78.6639389352
 20
-23.0477298616
 10
-78.7141722054
 20
-23.0360963644
 10
-78.763634008
 20
-23.0212242492
 10
-78.8118013384
 20
-23.0033179876
 10
-78.8586751143
 20
-22.9823485334
 10
-78.9042544212
 20
-22.9583450887
 10
-78.9480135119
 20
-22.9315994983
 10
-78.9899300657
 20
-22.9020907506
 10
-79.0300264239
 20
-22.8698400461
 10
-79.0678438367
 20
-22.8352025353
 10
-79.1033208761
 20
-22.7982598084
 10
-79.1365190041
 20
-22.7589304651
 10
-79.167163809
 20
-22.7173251571
 10
-79.195356405
 20
-22.6732842538
 10
-79.2209957241
 20
-22.6269675928
 10
-79.2435040819
 20
-22.5789649958
 10
-79.2628216309
 20
-22.5291014068
 10
-79.2790082679
 20
-22.477552036
 10
-79.2916659145
 20
-22.4254320117
 10
-79.300661885
 20
-22.3731130235
 10
-79.3061288952
 20
-22.3202233907
 10
-79.3080669606
 20
-22.2667631237
  0
LWPOLYLINE
  5
2E7
100
AcDbEntity
  8
0
100
AcDbPolyline
 62
7
  6
CONTINUOUS
 90
10
 70
0
 10
3.8754584185
 20
-25.891582365
 10
3.8318143192
 20
-25.8872488912
 10
3.7875879303
 20
-25.8843334904
 10
3.7428430739
 20
-25.8828760783
 10
3.6976687927
 20
-25.8829165142
 10
3.6521150928
 20
-25.8844942845
 10
3.6061933665
 20
-25.8876557587
 10
3.5599617971
 20
-25.8924485592
 10
3.5134753336
 20
-25.8987713296
 10
3.4666939769
 20
-25.906298925
  0
LWPOLYLINE
  5
2E8
100
AcDbEntity
  8
0
100
AcDbPolyline
 62
7
  6
CONTINUOUS
 90
61
 70
0
 10
4.2520075265
 20
-25.5359677442
 10
4.2793533105
 20
-25.5469708194
 10
4.3070908137
 20
-25.5604153319
 10
4.3351188323
 20
-25.5762579853
 10
4.3632609974
 20
-25.5943420257
 10
4.3914734461
 20
-25.6145950129
 10
4.4197775033
 20
-25.6372568864
 10
4.4480338287
 20
-25.6625684779
 10
4.4758698708
 20
-25.6905933681
 10
4.5029000927
 20
-25.7213592837
 10
4.5290034692
 20
-25.7551774619
 10
4.5536577239
 20
-25.79182759
 10
4.5760254005
 20
-25.8303572242
 10
4.595979773
 20
-25.8707269648
 10
4.6132716177
 20
-25.9126528013
 10
4.627402733
 20
-25.9545893962
 10
4.638536293
 20
-25.9960128514
 10
4.6470077889
 20
-26.0369848284
 10
4.6530244592
 20
-26.0767706591
 10
4.6569146071
 20
-26.1149411881
 10
4.659031311
 20
-26.1516440724
 10
4.6595825718
 20
-26.1870377275
 10
4.6587035639
 20
-26.2210496381
 10
4.6565304692
 20
-26.2536135349
 10
4.6531697252
 20
-26.2849225642
 10
4.6487216099
 20
-26.314993892
 10
4.643301161
 20
-26.3437639869
 10
4.6369983799
 20
-26.3713134214
 10
4.6299181841
 20
-26.3976271438
 10
4.6221567876
 20
-26.4227257713
 10
4.613768644
 20
-26.4467390364
 10
4.6048585535
 20
-26.4696335954
 10
4.5955252507
 20
-26.4913936743
 10
4.5857926548
 20
-26.5121521383
 10
4.5757321727
 20
-26.5319060671
 10
4.5654205815
 20
-26.5506407373
 10
4.5548579191
 20
-26.5684694049
 10
4.5440895273
 20
-26.5854071128
 10
4.5331768216
 20
-26.6014431485
 10
4.5221237645
 20
-26.616647912
 10
4.5109560149
 20
-26.6310503873
 10
4.4997301461
 20
-26.6446442996
 10
4.4884921834
 20
-26.6574802921
 10
4.4772826003
 20
-26.6696270594
 10
4.4661435858
 20
-26.6811408435
 10
4.4551227097
 20
-26.6920634584
 10
4.4442632886
 20
-26.702433176
 10
4.4335899483
 20
-26.712297722
 10
4.4231182589
 20
-26.7217040739
 10
4.4128934665
 20
-26.7306651737
 10
4.4029227732
 20
-26.7392212006
 10
4.393157638
 20
-26.7474518671
 10
4.3836535896
 20
-26.7553425467
 10
4.3743862198
 20
-26.7629147674
 10
4.3651464999
 20
-26.7701713661
 10
4.3559072823
 20
-26.7769199837
 10
4.3466286381
 20
-26.7830040227
 10
4.3370505546
 20
-26.7884007
 10
4.3270478321
 20
-26.7929496946
 10
4.316649134
 20
-26.796403047
 10
4.3058063972
 20
-26.7985541322
  0
LWPOLYLINE
  5
2E9
100
AcDbEntity
  8
0
100
AcDbPolyline
 62
7
  6
CONTINUOUS
 90
3
 70
0
 10
4.3058063972
 20
-26.8133253901
 10
4.3297146154
 20
-26.8241783005
 10
4.3520938162
 20
-26.8368777113
  0
LWPOLYLINE
  5
2EA
100
AcDbEntity
  8
RACCORDO
100
AcDbPolyline
 62
250
  6
CONTINUOUS
 90
11
 70
0
 10
-79.1216568494
 20
-22.2640921082
 10
-79.102428309
 20
-22.263485047
 10
-79.0845929789
 20
-22.2628289861
 10
-79.0682745163
 20
-22.262128474
 10
-79.0535860614
 20
-22.2613883679
 10
-79.0406294532
 20
-22.2606137988
 10
-79.0294945231
 20
-22.2598101371
 10
-79.0202584726
 20
-22.258982955
 10
-79.0129853375
 20
-22.2581379876
 10
-79.0077255445
 20
-22.2572810929
 10
-79.0045155608
 20
-22.2564182117
  0
LINE
  5
2EB
100
AcDbEntity
  8
RACCORDO
100
AcDbLine
 62
250
  6
CONTINUOUS
 10
-79.1637515599
 20
-22.2651427649
 11
-79.1216568494
 21
-22.2640921082
  0
LINE
  5
2EC
100
AcDbEntity
  8
RACCORDO
100
AcDbLine
 62
250
  6
CONTINUOUS
 10
-79.2097117182
 20
-22.2659518683
 11
-79.1637515599
 21
-22.2651427649
  0
LINE
  5
2ED
100
AcDbEntity
  8
RACCORDO
100
AcDbLine
 62
250
  6
CONTINUOUS
 10
-79.2582649169
 20
-22.2664970191
 11
-79.2097117182
 21
-22.2659518683
  0
LINE
  5
2EE
100
AcDbEntity
  8
RACCORDO
100
AcDbLine
 62
250
  6
CONTINUOUS
 10
79.2582646253
 20
-22.266496947
 11
79.2097112398
 21
-22.2659517382
  0
LINE
  5
2EF
100
AcDbEntity
  8
RACCORDO
100
AcDbLine
 62
250
  6
CONTINUOUS
 10
79.2097112398
 20
-22.2659517382
 11
79.1637510047
 21
-22.265142593
  0
LWPOLYLINE
  5
2F0
100
AcDbEntity
  8
RACCORDO
100
AcDbPolyline
 62
250
  6
CONTINUOUS
 90
12
 70
0
 10
79.1637510047
 20
-22.265142593
 10
79.1216563159
 20
-22.2640919139
 10
79.1024278152
 20
-22.2634848491
 10
79.0845925396
 20
-22.2628287898
 10
79.0682741424
 20
-22.262128285
 10
79.0535857576
 20
-22.2613881911
 10
79.0406292287
 20
-22.2606136402
 10
79.0294943728
 20
-22.2598100019
 10
79.0202583692
 20
-22.2589828462
 10
79.0129852582
 20
-22.2581379072
 10
79.0077254833
 20
-22.2572810437
 10
79.0045155219
 20
-22.2564181966
  0
LWPOLYLINE
  5
2F1
100
AcDbEntity
  8
0
100
AcDbPolyline
 62
7
  6
CONTINUOUS
 90
23
 70
0
 10
4.3520938162
 20
-26.8368777113
 10
4.373026026
 20
-26.8511939374
 10
4.3926651648
 20
-26.8669764564
 10
4.4110033308
 20
-26.8839689243
 10
4.4279098574
 20
-26.9017535969
 10
4.4433636234
 20
-26.9199612622
 10
4.4575943126
 20
-26.9385344135
 10
4.4708466216
 20
-26.9575362479
 10
4.4832061224
 20
-26.9768807208
 10
4.4946984298
 20
-26.9964061796
 10
4.505436888
 20
-27.0161174503
 10
4.515471994
 20
-27.0359398772
 10
4.5248321402
 20
-27.0557663292
 10
4.5335799238
 20
-27.0755738158
 10
4.5417387338
 20
-27.0952670412
 10
4.54934845
 20
-27.1147971604
 10
4.5564817813
 20
-27.1342210438
 10
4.5631612379
 20
-27.1534827363
 10
4.5694048142
 20
-27.1725169952
 10
4.5752802751
 20
-27.1913986283
 10
4.5808606083
 20
-27.2101879783
 10
4.586203919
 20
-27.2288904159
 10
4.5913806111
 20
-27.2475517297
  0
LINE
  5
2F2
100
AcDbEntity
  8
0
100
AcDbLine
 62
7
  6
CONTINUOUS
 10
-0.637935
 20
-27.98018
 11
-1.250061
 21
-26.3479
  0
LINE
  5
2F3
100
AcDbEntity
  8
0
100
AcDbLine
 62
7
  6
CONTINUOUS
 10
-1.114777
 20
-25.480444
 11
-0.598495
 21
-26.868305
  0
LINE
  5
2F4
100
AcDbEntity
  8
0
100
AcDbLine
 62
7
  6
CONTINUOUS
 10
-4.121524
 20
-27.98018
 11
-4.913989
 21
-25.480444
  0
LINE
  5
2F5
100
AcDbEntity
  8
0
100
AcDbLine
 62
7
  6
CONTINUOUS
 10
-4.347161
 20
-25.480444
 11
-3.870666
 21
-27.20109
  0
LINE
  5
2F6
100
AcDbEntity
  8
0
100
AcDbLine
 62
7
  6
CONTINUOUS
 10
0.439561
 20
-25.480444
 11
0.673314
 21
-27.98018
  0
LINE
  5
2F7
100
AcDbEntity
  8
0
100
AcDbLine
 62
7
  6
CONTINUOUS
 10
0.162862
 20
-27.98018
 11
0.055658
 21
-26.354704
  0
LINE
  5
2F8
100
AcDbEntity
  8
0
100
AcDbLine
 62
7
  6
CONTINUOUS
 10
-2.66454
 20
-27.98018
 11
-2.66454
 21
-25.480294
  0
LINE
  5
2F9
100
AcDbEntity
  8
0
100
AcDbLine
 62
7
  6
CONTINUOUS
 10
-2.142747
 20
-25.480294
 11
-2.142747
 21
-27.98018
  0
LINE
  5
2FA
100
AcDbEntity
  8
ASSI
100
AcDbLine
 62
250
  6
CONTINUOUS
 10
0.0
 20
42.9062594979
 11
0.0
 21
42.5504540411
  0
LINE
  5
2FB
100
AcDbEntity
  8
RACCORDO
100
AcDbLine
 62
250
  6
CONTINUOUS
 10
0.0
 20
42.5504540411
 11
0.0
 21
22.7785951313
  0
LINE
  5
2FC
100
AcDbEntity
  8
ASSI
100
AcDbLine
 62
250
  6
CONTINUOUS
 10
0.0
 20
-42.9062594979
 11
0.0
 21
-42.5504540411
  0
LINE
  5
2FD
100
AcDbEntity
  8
0
100
AcDbLine
 62
250
  6
CONTINUOUS
 10
0.0
 20
-42.5504540411
 11
0.0
 21
-23.1202380772
  0
LINE
  5
2FE
100
AcDbEntity
  8
RACCORDO
100
AcDbLine
 62
250
  6
CONTINUOUS
 10
0.0
 20
-23.1202380772
 11
0.0
 21
-22.7785951313
  0
LINE
  5
2FF
100
AcDbEntity
  8
0
100
AcDbLine
 62
7
  6
CONTINUOUS
 10
-1.250061
 20
-26.3479
 11
-1.362664
 21
-27.98018
  0
LINE
  5
300
100
AcDbEntity
  8
0
100
AcDbLine
 62
7
  6
CONTINUOUS
 10
-1.86185
 20
-27.98018
 11
-1.636138
 21
-25.480444
  0
LWPOLYLINE
  5
301
100
AcDbEntity
  8
0
100
AcDbPolyline
 62
7
  6
CONTINUOUS
 90
4
 70
0
 43
0.3500000006
 10
111.7714290161
 20
-2.3571432495
 10
110.9142820129
 20
-2.3571432495
 10
110.4857130432
 20
-1.9285708809
 10
110.4857130432
 20
-1.2857140274
  0
LINE
  5
302
100
AcDbEntity
  8
ASSI
100
AcDbLine
 62
250
  6
CONTINUOUS
 10
-104.9058595923
 20
0.0
 11
-104.5642144604
 21
0.0
  0
LINE
  5
303
100
AcDbEntity
  8
ASSI
100
AcDbLine
 62
250
  6
CONTINUOUS
 10
104.9058595923
 20
0.0
 11
104.5642144604
 21
0.0
  0
LINE
  5
304
100
AcDbEntity
  8
RACCORDO
100
AcDbLine
 62
250
  6
CONTINUOUS
 10
79.0339320002
 20
0.0
 11
104.5642144604
 21
0.0
  0
LINE
  5
305
100
AcDbEntity
  8
RACCORDO
100
AcDbLine
 62
250
  6
CONTINUOUS
 10
-79.0339320002
 20
0.0
 11
-104.5642144604
 21
0.0
  0
LWPOLYLINE
  5
306
100
AcDbEntity
  8
0
100
AcDbPolyline
 62
7
  6
CONTINUOUS
 90
19
 70
0
 10
4.054823388
 20
-27.2220207429
 10
4.0465337168
 20
-27.201677426
 10
4.0370996743
 20
-27.1817169342
 10
4.0265748052
 20
-27.162271658
 10
4.0150285911
 20
-27.1434952858
 10
4.0024977351
 20
-27.1254817998
 10
3.9889712623
 20
-27.1082757362
 10
3.9744805204
 20
-27.0919969944
 10
3.9590647392
 20
-27.0767738553
 10
3.9427010776
 20
-27.0626815152
 10
3.925375098
 20
-27.0498264953
 10
3.9071487944
 20
-27.0383779624
 10
3.8881150197
 20
-27.0285007997
 10
3.8684074463
 20
-27.0202583657
 10
3.8481380443
 20
-27.0135928971
 10
3.8273957819
 20
-27.0084516717
 10
3.8063086034
 20
-27.0048066108
 10
3.7850488223
 20
-27.0026383785
 10
3.7637687163
 20
-27.0019213614
  0
LINE
  5
307
100
AcDbEntity
  8
0
100
AcDbLine
 62
7
  6
CONTINUOUS
 10
2.044098
 20
-25.480444
 11
2.811079
 21
-27.98018
  0
LWPOLYLINE
  5
308
100
AcDbEntity
  8
0
100
AcDbPolyline
 62
7
  6
CONTINUOUS
 90
8
 70
0
 10
4.1346519949
 20
-27.466962931
 10
4.1242445067
 20
-27.4316616609
 10
4.1136099699
 20
-27.3964679646
 10
4.1026941975
 20
-27.361404187
 10
4.091417878
 20
-27.3264148238
 10
4.0797152776
 20
-27.2914951219
 10
4.0675365117
 20
-27.2566903048
 10
4.0548233605
 20
-27.2220207532
  0
LINE
  5
309
100
AcDbEntity
  8
0
100
AcDbLine
 62
7
  6
CONTINUOUS
 10
4.2719195797
 20
-27.9416540563
 11
4.1958958862
 21
-27.681526626
  0
LINE
  5
30A
100
AcDbEntity
  8
0
100
AcDbLine
 62
7
  6
CONTINUOUS
 10
4.2830496624
 20
-27.9801797807
 11
4.2719195797
 21
-27.9416540563
  0
LINE
  5
30B
100
AcDbEntity
  8
0
100
AcDbLine
 62
7
  6
CONTINUOUS
 10
4.1550344469
 20
-27.5379044796
 11
4.1346519949
 21
-27.466962931
  0
LINE
  5
30C
100
AcDbEntity
  8
0
100
AcDbLine
 62
7
  6
CONTINUOUS
 10
4.1958958862
 20
-27.681526626
 11
4.1550344469
 21
-27.5379044796
  0
LINE
  5
30D
100
AcDbEntity
  8
0
100
AcDbLine
 62
7
  6
CONTINUOUS
 10
2.261131
 20
-27.98018
 11
2.125959
 21
-27.481144
  0
LINE
  5
30E
100
AcDbEntity
  8
0
100
AcDbLine
 62
7
  6
CONTINUOUS
 10
4.7657925242
 20
-27.9085567416
 11
4.7849537607
 21
-27.9801797807
  0
LINE
  5
30F
100
AcDbEntity
  8
0
100
AcDbLine
 62
7
  6
CONTINUOUS
 10
4.5913806111
 20
-27.2475517297
 11
4.6485102581
 21
-27.4599047519
  0
LINE
  5
310
100
AcDbEntity
  8
0
100
AcDbLine
 62
7
  6
CONTINUOUS
 10
4.6485102581
 20
-27.4599047519
 11
4.7657925242
 21
-27.9085567416
  0
LINE
  5
311
100
AcDbEntity
  8
0
100
AcDbLine
 62
7
  6
CONTINUOUS
 10
2.021679
 20
-27.094992
 11
1.781908
 21
-26.167308
  0
LWPOLYLINE
  5
312
100
AcDbEntity
  8
0
100
AcDbPolyline
 62
7
  6
CONTINUOUS
 90
19
 70
0
 10
4.1702251436
 20
-26.2042730875
 10
4.1689481366
 20
-26.1807730913
 10
4.1657892077
 20
-26.1569081795
 10
4.1607158756
 20
-26.132853977
 10
4.1537062731
 20
-26.1088242765
 10
4.1447297008
 20
-26.0850009056
 10
4.1337289469
 20
-26.0615403937
 10
4.1206262571
 20
-26.0386232822
 10
4.1054209147
 20
-26.0165932065
 10
4.0881956613
 20
-25.995863365
 10
4.0689028791
 20
-25.976634759
 10
4.0477255889
 20
-25.9591186254
 10
4.0252266996
 20
-25.9436211519
 10
4.0018400289
 20
-25.9302121089
 10
3.9776425904
 20
-25.9187448238
 10
3.9527096936
 20
-25.9091412512
 10
3.9272014877
 20
-25.9013963659
 10
3.901380648
 20
-25.8955404858
 10
3.8754584186
 20
-25.8915823649
  0
LINE
  5
313
100
AcDbEntity
  8
0
100
AcDbLine
 62
7
  6
CONTINUOUS
 10
2.9643025021
 20
-27.9801797807
 11
2.9643025021
 21
-25.5096494116
  0
LINE
  5
314
100
AcDbEntity
  8
0
100
AcDbLine
 62
7
  6
CONTINUOUS
 10
3.4666939769
 20
-25.906298925
 11
3.4666939769
 21
-26.5925250773
  0
LINE
  5
315
100
AcDbEntity
  8
0
100
AcDbLine
 62
7
  6
CONTINUOUS
 10
3.4839958436
 20
-27.0019213614
 11
3.4839958436
 21
-27.9801797807
  0
LINE
  5
316
100
AcDbEntity
  8
0
100
AcDbLine
 62
7
  6
CONTINUOUS
 10
4.3058063972
 20
-26.7985541322
 11
4.3058063972
 21
-26.8133253901
  0
LINE
  5
317
100
AcDbEntity
  8
0
100
AcDbLine
 62
7
  6
CONTINUOUS
 10
-3.870666
 20
-27.20109
 11
-3.379615
 21
-25.480444
  0
LINE
  5
318
100
AcDbEntity
  8
0
100
AcDbLine
 62
7
  6
CONTINUOUS
 10
-2.858179
 20
-25.480444
 11
-3.661694
 21
-27.98018
  0
LWPOLYLINE
  5
319
100
AcDbEntity
  8
0
100
AcDbPolyline
 62
7
  6
CONTINUOUS
 90
13
 70
0
 43
0.3500000006
 10
12.3597937202
 20
52.5571443329
 10
12.3597937202
 20
53.8428557739
 10
12.5740793381
 20
54.2714292755
 10
13.0026505737
 20
54.6999982452
 10
13.2169361916
 20
54.6999982452
 10
13.6455074272
 20
54.2714292755
 10
13.859793045
 20
53.8428557739
 10
13.859793045
 20
52.5571443329
 10
13.6455074272
 20
52.1285708313
 10
13.2169361916
 20
51.7000018616
 10
13.0026505737
 20
51.7000018616
 10
12.5740793381
 20
52.1285708313
 10
12.3597937202
 20
52.5571443329
  0
LINE
  5
31A
100
AcDbEntity
  8
0
100
AcDbLine
 62
7
  6
CONTINUOUS
 10
1.781908
 20
-26.167308
 11
1.522099
 21
-27.094992
  0
LINE
  5
31B
100
AcDbEntity
  8
0
100
AcDbLine
 62
7
  6
CONTINUOUS
 10
1.415364
 20
-27.481144
 11
1.271381
 21
-27.98018
  0
LINE
  5
31C
100
AcDbEntity
  8
0
100
AcDbLine
 62
7
  6
CONTINUOUS
 10
0.75525
 20
-27.98018
 11
1.539326
 21
-25.480444
  0
LINE
  5
31D
100
AcDbEntity
  8
0
100
AcDbLine
 62
7
  6
CONTINUOUS
 10
-0.598495
 20
-26.868305
 11
-0.076702
 21
-25.480444
  0
LINE
  5
31E
100
AcDbEntity
  8
0
100
AcDbLine
 62
7
  6
CONTINUOUS
 10
0.055658
 20
-26.354704
 11
-0.564753
 21
-27.98018
  0
LWPOLYLINE
  5
31F
100
AcDbEntity
  8
RACCORDO
100
AcDbPolyline
 62
250
  6
CONTINUOUS
 90
11
 70
0
 10
79.1216568494
 20
22.2640921082
 10
79.102428309
 20
22.263485047
 10
79.0845929789
 20
22.2628289861
 10
79.0682745163
 20
22.262128474
 10
79.0535860614
 20
22.2613883679
 10
79.0406294532
 20
22.2606137988
 10
79.0294945231
 20
22.2598101371
 10
79.0202584726
 20
22.258982955
 10
79.0129853375
 20
22.2581379876
 10
79.0077255445
 20
22.2572810929
 10
79.0045155608
 20
22.2564182117
  0
LINE
  5
320
100
AcDbEntity
  8
RACCORDO
100
AcDbLine
 62
250
  6
CONTINUOUS
 10
79.1637515599
 20
22.2651427649
 11
79.1216568494
 21
22.2640921082
  0
LINE
  5
321
100
AcDbEntity
  8
RACCORDO
100
AcDbLine
 62
250
  6
CONTINUOUS
 10
79.2097117182
 20
22.2659518683
 11
79.1637515599
 21
22.2651427649
  0
LINE
  5
322
100
AcDbEntity
  8
RACCORDO
100
AcDbLine
 62
250
  6
CONTINUOUS
 10
79.2582649169
 20
22.2664970191
 11
79.2097117182
 21
22.2659518683
  0
LINE
  5
323
100
AcDbEntity
  8
RACCORDO
100
AcDbLine
 62
250
  6
CONTINUOUS
 10
79.3080669606
 20
22.2667631237
 11
79.2582649169
 21
22.2664970191
  0
LINE
  5
324
100
AcDbEntity
  8
RACCORDO
100
AcDbLine
 62
250
  6
CONTINUOUS
 10
-78.5091333937
 20
23.062993758
 11
-51.5662921975
 21
23.0971120777
  0
LINE
  5
325
100
AcDbEntity
  8
RACCORDO
100
AcDbLine
 62
250
  6
CONTINUOUS
 10
-51.5662921975
 20
23.0971120777
 11
-36.9781075489
 21
23.1089720338
  0
LINE
  5
326
100
AcDbEntity
  8
RACCORDO
100
AcDbLine
 62
250
  6
CONTINUOUS
 10
-78.504964246
 20
22.7530615951
 11
-70.7912510138
 21
22.7589220204
  0
LINE
  5
327
100
AcDbEntity
  8
RACCORDO
100
AcDbLine
 62
250
  6
CONTINUOUS
 10
-70.7912510138
 20
22.7589220204
 11
-53.3847994856
 21
22.7664141277
  0
LINE
  5
328
100
AcDbEntity
  8
RACCORDO
100
AcDbLine
 62
250
  6
CONTINUOUS
 10
-36.9781075489
 20
23.1089720338
 11
-18.362249297
 21
23.1175482918
  0
LINE
  5
329
100
AcDbEntity
  8
RACCORDO
100
AcDbLine
 62
250
  6
CONTINUOUS
 10
-53.3847994856
 20
22.7664141277
 11
-14.6459094755
 21
22.7776047991
  0
LINE
  5
32A
100
AcDbEntity
  8
RACCORDO
100
AcDbLine
 62
7
  6
CONTINUOUS
 10
78.351902651
 20
22.6
 11
-78.351902651
 21
22.6
  0
LINE
  5
32B
100
AcDbEntity
  8
RACCORDO
100
AcDbLine
 62
250
  6
CONTINUOUS
 10
-18.362249297
 20
23.1175482918
 11
2.1001879835
 21
23.1201964455
  0
LINE
  5
32C
100
AcDbEntity
  8
RACCORDO
100
AcDbLine
 62
250
  6
CONTINUOUS
 10
-14.6459094755
 20
22.7776047991
 11
20.4354872043
 21
22.7767139584
  0
LINE
  5
32D
100
AcDbEntity
  8
RACCORDO
100
AcDbLine
 62
250
  6
CONTINUOUS
 10
20.4354872043
 20
22.7767139584
 11
41.8927297249
 21
22.771214164
  0
LINE
  5
32E
100
AcDbEntity
  8
RACCORDO
100
AcDbLine
 62
250
  6
CONTINUOUS
 10
2.1001879835
 20
23.1201964455
 11
17.1226089376
 21
23.1179032186
  0
LINE
  5
32F
100
AcDbEntity
  8
RACCORDO
100
AcDbLine
 62
250
  6
CONTINUOUS
 10
41.8927297249
 20
22.771214164
 11
71.8030779969
 21
22.7584510909
  0
LINE
  5
330
100
AcDbEntity
  8
RACCORDO
100
AcDbLine
 62
250
  6
CONTINUOUS
 10
17.1226089376
 20
23.1179032186
 11
30.8455426075
 21
23.1125076258
  0
LINE
  5
331
100
AcDbEntity
  8
RACCORDO
100
AcDbLine
 62
250
  6
CONTINUOUS
 10
30.8455426075
 20
23.1125076258
 11
44.0491085248
 21
23.1038829857
  0
LINE
  5
332
100
AcDbEntity
  8
RACCORDO
100
AcDbLine
 62
250
  6
CONTINUOUS
 10
71.8030779969
 20
22.7584510909
 11
76.6790374002
 21
22.7550177551
  0
LINE
  5
333
100
AcDbEntity
  8
RACCORDO
100
AcDbLine
 62
250
  6
CONTINUOUS
 10
76.6790374002
 20
22.7550177551
 11
78.504964246
 21
22.7530615951
  0
LINE
  5
334
100
AcDbEntity
  8
RACCORDO
100
AcDbLine
 62
250
  6
CONTINUOUS
 10
44.0491085248
 20
23.1038829857
 11
54.8943496673
 21
23.0935923289
  0
LINE
  5
335
100
AcDbEntity
  8
RACCORDO
100
AcDbLine
 62
250
  6
CONTINUOUS
 10
54.8943496673
 20
23.0935923289
 11
78.5091333937
 21
23.062993758
  0
LINE
  5
336
100
AcDbEntity
  8
RACCORDO
100
AcDbLine
 62
250
  6
CONTINUOUS
 10
-79.3080669606
 20
22.2667631239
 11
-79.2582646253
 21
22.266496947
  0
LINE
  5
337
100
AcDbEntity
  8
RACCORDO
100
AcDbLine
 62
250
  6
CONTINUOUS
 10
-79.2582646253
 20
22.266496947
 11
-79.2097112398
 21
22.2659517382
  0
LINE
  5
338
100
AcDbEntity
  8
RACCORDO
100
AcDbLine
 62
250
  6
CONTINUOUS
 10
-79.2097112398
 20
22.2659517382
 11
-79.1637510047
 21
22.265142593
  0
LWPOLYLINE
  5
339
100
AcDbEntity
  8
RACCORDO
100
AcDbPolyline
 62
250
  6
CONTINUOUS
 90
12
 70
0
 10
-79.1637510047
 20
22.265142593
 10
-79.1216563159
 20
22.2640919139
 10
-79.1024278152
 20
22.2634848491
 10
-79.0845925396
 20
22.2628287898
 10
-79.0682741424
 20
22.262128285
 10
-79.0535857576
 20
22.2613881911
 10
-79.0406292287
 20
22.2606136402
 10
-79.0294943728
 20
22.2598100019
 10
-79.0202583692
 20
22.2589828462
 10
-79.0129852582
 20
22.2581379072
 10
-79.0077254833
 20
22.2572810437
 10
-79.0045155219
 20
22.2564181966
  0
LWPOLYLINE
  5
33A
100
AcDbEntity
  8
RACCORDO
100
AcDbPolyline
 62
250
  6
CONTINUOUS
 90
25
 70
0
 10
78.504964192
 20
22.753061541
 10
78.53758564
 20
22.7520917861
 10
78.5699784239
 20
22.7490218076
 10
78.6020095005
 20
22.7438799946
 10
78.6335337986
 20
22.736708192
 10
78.6644402836
 20
22.7275480592
 10
78.6946494298
 20
22.7164307109
 10
78.7240479842
 20
22.7034029403
 10
78.752508542
 20
22.6885268473
 10
78.7799314945
 20
22.6718554425
 10
78.8062015841
 20
22.6534610739
 10
78.8312160185
 20
22.6334187327
 10
78.8548952315
 20
22.6117875344
 10
78.8770915893
 20
22.588705194
 10
78.8977636997
 20
22.5642170697
 10
78.916959818
 20
22.5382186107
 10
78.9346115942
 20
22.5106971073
 10
78.9505337396
 20
22.481824594
 10
78.9645805104
 20
22.451766133
 10
78.976678367
 20
22.4205640691
 10
78.9867020961
 20
22.388412366
 10
78.994508501
 20
22.3557410092
 10
79.0000684427
 20
22.3228010976
 10
79.003402621
 20
22.2896442709
 10
79.004515516
 20
22.256418167
  0
LWPOLYLINE
  5
33B
100
AcDbEntity
  8
RACCORDO
100
AcDbPolyline
 62
250
  6
CONTINUOUS
 90
25
 70
0
 10
78.5091333937
 20
23.062993758
 10
78.5615066864
 20
23.0611445254
 10
78.6131085373
 20
23.0560565504
 10
78.6639389352
 20
23.0477298616
 10
78.7141722054
 20
23.0360963644
 10
78.763634008
 20
23.0212242493
 10
78.8118013384
 20
23.0033179876
 10
78.8586751142
 20
22.9823485335
 10
78.9042544211
 20
22.9583450887
 10
78.9480135119
 20
22.9315994983
 10
78.9899300657
 20
22.9020907506
 10
79.0300264239
 20
22.8698400461
 10
79.0678438367
 20
22.8352025353
 10
79.1033208761
 20
22.7982598084
 10
79.1365190041
 20
22.7589304651
 10
79.167163809
 20
22.7173251571
 10
79.195356405
 20
22.6732842538
 10
79.2209957241
 20
22.6269675927
 10
79.2435040819
 20
22.5789649958
 10
79.2628216309
 20
22.5291014068
 10
79.2790082679
 20
22.477552036
 10
79.2916659145
 20
22.4254320117
 10
79.300661885
 20
22.3731130235
 10
79.3061288952
 20
22.3202233907
 10
79.3080669606
 20
22.2667631237
  0
LINE
  5
33C
100
AcDbEntity
  8
RACCORDO
100
AcDbLine
 62
250
  6
CONTINUOUS
 10
78.504964246
 20
22.7530615951
 11
78.351902651
 21
22.6
  0
LINE
  5
33D
100
AcDbEntity
  8
RACCORDO
100
AcDbLine
 62
250
  6
CONTINUOUS
 10
79.0045155608
 20
22.2564182117
 11
78.85
 21
22.101902651
  0
LINE
  5
33E
100
AcDbEntity
  8
ASSI
100
AcDbLine
 62
250
  6
CONTINUOUS
 10
104.1095072481
 20
42.9092331081
 11
104.15027414
 21
42.95
  0
LINE
  5
33F
100
AcDbEntity
  8
ASSI
100
AcDbLine
 62
250
  6
CONTINUOUS
 10
104.9092693696
 20
42.1095435097
 11
104.95
 21
42.15027414
  0
LINE
  5
340
100
AcDbEntity
  8
ASSI
100
AcDbLine
 62
250
  6
CONTINUOUS
 10
-103.5075599972
 20
42.4706125593
 11
-102.489897582
 21
42.506669332
  0
LWPOLYLINE
  5
341
100
AcDbEntity
  8
ASSI
100
AcDbPolyline
 62
250
  6
CONTINUOUS
 90
25
 70
0
 10
-104.1095073206
 20
42.9092331806
 10
-104.1618259075
 20
42.9075229072
 10
-104.2139215266
 20
42.9023947929
 10
-104.2655713205
 20
42.8938701563
 10
-104.31655669
 20
42.8819841289
 10
-104.3666568008
 20
42.8667873449
 10
-104.4156500104
 20
42.8483473511
 10
-104.463326592
 20
42.8267440622
 10
-104.509483231
 20
42.8020705618
 10
-104.5539174704
 20
42.7744369253
 10
-104.5964358939
 20
42.7439665995
 10
-104.6368628132
 20
42.7107886966
 10
-104.675034161
 20
42.6750393181
 10
-104.7107867951
 20
42.6368713612
 10
-104.7439679677
 20
42.5964478417
 10
-104.7744417447
 20
42.5539325871
 10
-104.8020789951
 20
42.509501212
 10
-104.8267561928
 20
42.4633471494
 10
-104.8483632659
 20
42.4156727124
 10
-104.8668071858
 20
42.3666807961
 10
-104.88200777
 20
42.3165815005
 10
-104.8938971743
 20
42.2655975799
 10
-104.9024248507
 20
42.2139502933
 10
-104.9075559006
 20
42.1618579059
 10
-104.9092691466
 20
42.1095432866
  0
LINE
  5
342
100
AcDbEntity
  8
ASSI
100
AcDbLine
 62
250
  6
CONTINUOUS
 10
-102.489897582
 20
42.506669332
 11
-101.7584477569
 21
42.529363009
  0
LINE
  5
343
100
AcDbEntity
  8
ASSI
100
AcDbLine
 62
250
  6
CONTINUOUS
 10
-101.7584477569
 20
42.529363009
 11
-100.9834228775
 21
42.550528246
  0
LINE
  5
344
100
AcDbEntity
  8
ASSI
100
AcDbLine
 62
250
  6
CONTINUOUS
 10
-104.7060284392
 20
42.1260582953
 11
-104.6469798252
 21
42.1276889837
  0
LINE
  5
345
100
AcDbEntity
  8
ASSI
100
AcDbLine
 62
250
  6
CONTINUOUS
 10
-100.9834228775
 20
42.550528246
 11
-100.1619087102
 21
42.5697722561
  0
LINE
  5
346
100
AcDbEntity
  8
ASSI
100
AcDbLine
 62
250
  6
CONTINUOUS
 10
-100.1619087102
 20
42.5697722561
 11
-99.2916103065
 21
42.5868357307
  0
LINE
  5
347
100
AcDbEntity
  8
ASSI
100
AcDbLine
 62
250
  6
CONTINUOUS
 10
-104.6469798252
 20
42.1276889837
 11
-104.5832867125
 21
42.1289648769
  0
LINE
  5
348
100
AcDbEntity
  8
ASSI
100
AcDbLine
 62
250
  6
CONTINUOUS
 10
-99.2916103065
 20
42.5868357307
 11
-98.3706780085
 21
42.6015951822
  0
LINE
  5
349
100
AcDbEntity
  8
ASSI
100
AcDbLine
 62
250
  6
CONTINUOUS
 10
-98.3706780085
 20
42.6015951822
 11
-97.3959237588
 21
42.6139196611
  0
LINE
  5
34A
100
AcDbEntity
  8
ASSI
100
AcDbLine
 62
250
  6
CONTINUOUS
 10
-104.5832867125
 20
42.1289648769
 11
-104.5161944641
 21
42.1298610281
  0
LINE
  5
34B
100
AcDbEntity
  8
ASSI
100
AcDbLine
 62
250
  6
CONTINUOUS
 10
-97.3959237588
 20
42.6139196611
 11
-96.3640499852
 21
42.6238163333
  0
LINE
  5
34C
100
AcDbEntity
  8
ASSI
100
AcDbLine
 62
250
  6
CONTINUOUS
 10
-96.3640499852
 20
42.6238163333
 11
-95.2728108203
 21
42.6313184095
  0
LINE
  5
34D
100
AcDbEntity
  8
ASSI
100
AcDbLine
 62
250
  6
CONTINUOUS
 10
-104.5161944641
 20
42.1298610281
 11
-104.4470149056
 21
42.1303599154
  0
LINE
  5
34E
100
AcDbEntity
  8
ASSI
100
AcDbLine
 62
250
  6
CONTINUOUS
 10
-95.2728108203
 20
42.6313184095
 11
-94.118745924
 21
42.636504729
  0
LINE
  5
34F
100
AcDbEntity
  8
ASSI
100
AcDbLine
 62
250
  6
CONTINUOUS
 10
74.8881513308
 20
42.6015886183
 11
81.8274170132
 21
42.6238832568
  0
LINE
  5
350
100
AcDbEntity
  8
ASSI
100
AcDbLine
 62
250
  6
CONTINUOUS
 10
81.8274170132
 20
42.6238832568
 11
85.5350838979
 21
42.6337127899
  0
LINE
  5
351
100
AcDbEntity
  8
ASSI
100
AcDbLine
 62
250
  6
CONTINUOUS
 10
66.4725188517
 20
42.581824644
 11
74.8881513308
 21
42.6015886183
  0
LINE
  5
352
100
AcDbEntity
  8
ASSI
100
AcDbLine
 62
250
  6
CONTINUOUS
 10
85.5350838979
 20
42.6337127899
 11
88.8309507245
 21
42.639248359
  0
LINE
  5
353
100
AcDbEntity
  8
ASSI
100
AcDbLine
 62
250
  6
CONTINUOUS
 10
-94.118745924
 20
42.636504729
 11
-92.2626285732
 21
42.6403796204
  0
LINE
  5
354
100
AcDbEntity
  8
ASSI
100
AcDbLine
 62
250
  6
CONTINUOUS
 10
61.5784583351
 20
42.5753566202
 11
66.4725188517
 21
42.581824644
  0
LWPOLYLINE
  5
355
100
AcDbEntity
  8
ASSI
100
AcDbPolyline
 62
250
  6
CONTINUOUS
 90
3
 70
0
 10
103.2903284631
 20
42.9082838427
 10
103.5663995265
 20
42.9085875111
 10
104.1095072481
 20
42.9092331081
  0
LWPOLYLINE
  5
356
100
AcDbEntity
  8
ASSI
100
AcDbPolyline
 62
250
  6
CONTINUOUS
 90
4
 70
0
 10
102.1476381175
 20
42.9071890645
 10
102.4440464632
 20
42.9074493581
 10
102.7320167142
 20
42.907717253
 10
103.2903284631
 20
42.9082838427
  0
LINE
  5
357
100
AcDbEntity
  8
ASSI
100
AcDbLine
 62
250
  6
CONTINUOUS
 10
101.5319866814
 20
42.9066960828
 11
102.1476381175
 21
42.9071890645
  0
LINE
  5
358
100
AcDbEntity
  8
ASSI
100
AcDbLine
 62
250
  6
CONTINUOUS
 10
26.3804518371
 20
42.553681088
 11
61.5784583351
 21
42.5753566202
  0
LINE
  5
359
100
AcDbEntity
  8
ASSI
100
AcDbLine
 62
250
  6
CONTINUOUS
 10
0.0
 20
42.5504540411
 11
26.3804518371
 21
42.553681088
  0
LINE
  5
35A
100
AcDbEntity
  8
ASSI
100
AcDbLine
 62
7
  6
CONTINUOUS
 10
104.15027414
 20
42.95
 11
-104.15027414
 21
42.95
  0
LINE
  5
35B
100
AcDbEntity
  8
ASSI
100
AcDbLine
 62
250
  6
CONTINUOUS
 10
88.8309507245
 20
42.639248359
 11
91.7618261585
 21
42.6407240229
  0
LWPOLYLINE
  5
35C
100
AcDbEntity
  8
ASSI
100
AcDbPolyline
 62
250
  6
CONTINUOUS
 90
3
 70
0
 10
66.4733171278
 20
42.9053752709
 10
77.6481812442
 20
42.9046324962
 10
101.5319866814
 20
42.9066960828
  0
LINE
  5
35D
100
AcDbEntity
  8
ASSI
100
AcDbLine
 62
250
  6
CONTINUOUS
 10
-92.2626285732
 20
42.6403796204
 11
-90.2478138966
 21
42.6405151154
  0
LWPOLYLINE
  5
35E
100
AcDbEntity
  8
ASSI
100
AcDbPolyline
 62
250
  6
CONTINUOUS
 90
3
 70
0
 10
-104.1095074459
 20
42.9092333059
 10
-103.8033253555
 20
42.9088592041
 10
66.4733171278
 20
42.9053752709
  0
LINE
  5
35F
100
AcDbEntity
  8
ASSI
100
AcDbLine
 62
250
  6
CONTINUOUS
 10
-90.2478138966
 20
42.6405151154
 11
-87.2944885873
 21
42.6370967955
  0
LINE
  5
360
100
AcDbEntity
  8
ASSI
100
AcDbLine
 62
250
  6
CONTINUOUS
 10
91.7618261585
 20
42.6407240229
 11
93.361776008
 21
42.6386716222
  0
LINE
  5
361
100
AcDbEntity
  8
ASSI
100
AcDbLine
 62
250
  6
CONTINUOUS
 10
-71.6999247717
 20
42.5927381419
 11
0.0
 21
42.5504540411
  0
LINE
  5
362
100
AcDbEntity
  8
ASSI
100
AcDbLine
 62
250
  6
CONTINUOUS
 10
-87.2944885873
 20
42.6370967955
 11
-84.002124467
 21
42.6300271986
  0
LINE
  5
363
100
AcDbEntity
  8
ASSI
100
AcDbLine
 62
250
  6
CONTINUOUS
 10
-84.002124467
 20
42.6300271986
 11
-71.6999247717
 21
42.5927381419
  0
LINE
  5
364
100
AcDbEntity
  8
ASSI
100
AcDbLine
 62
250
  6
CONTINUOUS
 10
93.361776008
 20
42.6386716222
 11
94.8524262902
 21
42.6335011272
  0
LINE
  5
365
100
AcDbEntity
  8
ASSI
100
AcDbLine
 62
250
  6
CONTINUOUS
 10
94.8524262902
 20
42.6335011272
 11
96.2407357826
 21
42.6248070077
  0
LINE
  5
366
100
AcDbEntity
  8
ASSI
100
AcDbLine
 62
250
  6
CONTINUOUS
 10
104.4470148529
 20
42.1303599831
 11
104.5161946962
 21
42.1298610928
  0
LINE
  5
367
100
AcDbEntity
  8
ASSI
100
AcDbLine
 62
250
  6
CONTINUOUS
 10
96.2407357826
 20
42.6248070077
 11
97.5333906679
 21
42.6123702277
  0
LINE
  5
368
100
AcDbEntity
  8
ASSI
100
AcDbLine
 62
250
  6
CONTINUOUS
 10
104.5161946962
 20
42.1298610928
 11
104.5832871256
 21
42.1289649367
  0
LINE
  5
369
100
AcDbEntity
  8
ASSI
100
AcDbLine
 62
250
  6
CONTINUOUS
 10
97.5333906679
 20
42.6123702277
 11
98.7365568363
 21
42.5961216803
  0
LINE
  5
36A
100
AcDbEntity
  8
ASSI
100
AcDbLine
 62
250
  6
CONTINUOUS
 10
98.7365568363
 20
42.5961216803
 11
99.8554911908
 21
42.5761567396
  0
LINE
  5
36B
100
AcDbEntity
  8
ASSI
100
AcDbLine
 62
250
  6
CONTINUOUS
 10
104.5832871256
 20
42.1289649367
 11
104.6469803311
 21
42.1276890378
  0
LINE
  5
36C
100
AcDbEntity
  8
ASSI
100
AcDbLine
 62
250
  6
CONTINUOUS
 10
99.8554911908
 20
42.5761567396
 11
100.8949055828
 21
42.5527602139
  0
LINE
  5
36D
100
AcDbEntity
  8
ASSI
100
AcDbLine
 62
250
  6
CONTINUOUS
 10
100.8949055828
 20
42.5527602139
 11
101.8586665387
 21
42.5264420732
  0
LWPOLYLINE
  5
36E
100
AcDbEntity
  8
ASSI
100
AcDbPolyline
 62
250
  6
CONTINUOUS
 90
15
 70
0
 10
104.6469803311
 20
42.1276890378
 10
104.7060290158
 20
42.1260583423
 10
104.7334466799
 20
42.1251196551
 10
104.7592786088
 20
42.124104735
 10
104.7833983771
 20
42.1230185492
 10
104.8056879387
 20
42.1218664138
 10
104.8260382053
 20
42.1206539674
 10
104.8443495793
 20
42.1193871438
 10
104.860532442
 20
42.1180721433
 10
104.8745076127
 20
42.1167153994
 10
104.8862066665
 20
42.1153235541
 10
104.8955723062
 20
42.1139034266
 10
104.9025587202
 20
42.1124619699
 10
104.9071317688
 20
42.1110062363
 10
104.9092691068
 20
42.1095433503
  0
LINE
  5
36F
100
AcDbEntity
  8
ASSI
100
AcDbLine
 62
250
  6
CONTINUOUS
 10
101.8586665387
 20
42.5264420732
 11
102.7499310228
 21
42.4979309991
  0
LINE
  5
370
100
AcDbEntity
  8
ASSI
100
AcDbLine
 62
250
  6
CONTINUOUS
 10
102.7499310228
 20
42.4979309991
 11
103.5877010298
 21
42.4675066128
  0
LINE
  5
371
100
AcDbEntity
  8
RACCORDO
100
AcDbLine
 62
250
  6
CONTINUOUS
 10
78.504964246
 20
-22.7530615951
 11
78.351902651
 21
-22.6
  0
LINE
  5
372
100
AcDbEntity
  8
RACCORDO
100
AcDbLine
 62
250
  6
CONTINUOUS
 10
79.0045155608
 20
-22.2564182117
 11
78.85
 21
-22.101902651
  0
LINE
  5
373
100
AcDbEntity
  8
ASSI
100
AcDbLine
 62
250
  6
CONTINUOUS
 10
104.1095068547
 20
-42.9092327147
 11
104.15027414
 21
-42.95
  0
LINE
  5
374
100
AcDbEntity
  8
ASSI
100
AcDbLine
 62
250
  6
CONTINUOUS
 10
104.9092686507
 20
-42.1095427908
 11
104.95
 21
-42.15027414
  0
LWPOLYLINE
  5
375
100
AcDbEntity
  8
ASSI
100
AcDbPolyline
 62
250
  6
CONTINUOUS
 90
25
 70
0
 10
-104.1333804998
 20
42.4458467694
 10
-104.1532238054
 20
42.4443648425
 10
-104.1728831475
 20
42.4416184456
 10
-104.1923582303
 20
42.4376068465
 10
-104.2117355441
 20
42.4322985784
 10
-104.2309279957
 20
42.425723608
 10
-104.2496749647
 20
42.4179734665
 10
-104.2679657914
 20
42.4090331087
 10
-104.2858106683
 20
42.3989163898
 10
-104.3029803817
 20
42.3877584966
 10
-104.3194647392
 20
42.3755479404
 10
-104.3352736749
 20
42.3622955191
 10
-104.3502083275
 20
42.3481702388
 10
-104.3642584814
 20
42.3331624221
 10
-104.3774343416
 20
42.317281649
 10
-104.3895678498
 20
42.3007262265
 10
-104.4006474657
 20
42.2834867449
 10
-104.410684965
 20
42.2655730995
 10
-104.4195474251
 20
42.2472129449
 10
-104.4272194625
 20
42.2284017752
 10
-104.4337169021
 20
42.2091450632
 10
-104.4389537604
 20
42.1896857417
 10
-104.4429015849
 20
42.1701052576
 10
-104.4455894005
 20
42.1503234361
 10
-104.4470174888
 20
42.1303408944
  0
LINE
  5
376
100
AcDbEntity
  8
ASSI
100
AcDbLine
 62
250
  6
CONTINUOUS
 10
-104.1333804998
 20
42.4458467694
 11
-103.5075599972
 21
42.4706125593
  0
LWPOLYLINE
  5
377
100
AcDbEntity
  8
0
100
AcDbPolyline
 62
7
  6
CONTINUOUS
 90
7
 70
0
 43
0.3500000006
 10
9.7883651733
 20
51.7000018616
 10
8.2883652821
 20
51.7000018616
 10
9.7883651733
 20
53.8428557739
 10
9.7883651733
 20
54.2714292755
 10
9.3597933712
 20
54.6999982452
 10
8.7169365177
 20
54.6999982452
 10
8.2883652821
 20
54.0571447906
  0
LINE
  5
378
100
AcDbEntity
  8
ASSI
100
AcDbLine
 62
250
  6
CONTINUOUS
 10
103.5877010298
 20
42.4675066128
 11
104.1331827205
 21
42.4458743809
  0
LWPOLYLINE
  5
379
100
AcDbEntity
  8
RACCORDO
100
AcDbPolyline
 62
250
  6
CONTINUOUS
 90
6
 70
0
 10
78.5066753678
 20
-22.7900394269
 10
78.5063480196
 20
-22.7786256402
 10
78.5060108038
 20
-22.769160697
 10
78.5056661251
 20
-22.7617120909
 10
78.5053164413
 20
-22.7563329376
 10
78.504964246
 20
-22.7530615951
  0
LINE
  5
37A
100
AcDbEntity
  8
RACCORDO
100
AcDbLine
 62
250
  6
CONTINUOUS
 10
78.5072912111
 20
-22.8183746503
 11
78.5066753678
 21
-22.7900394269
  0
LINE
  5
37B
100
AcDbEntity
  8
RACCORDO
100
AcDbLine
 62
250
  6
CONTINUOUS
 10
78.5078407991
 20
-22.8533595825
 11
78.5072912111
 21
-22.8183746503
  0
LINE
  5
37C
100
AcDbEntity
  8
RACCORDO
100
AcDbLine
 62
250
  6
CONTINUOUS
 10
78.5085073481
 20
-22.9160812792
 11
78.5078407991
 21
-22.8533595825
  0
LINE
  5
37D
100
AcDbEntity
  8
RACCORDO
100
AcDbLine
 62
250
  6
CONTINUOUS
 10
78.5090387244
 20
-23.0124292831
 11
78.5085073481
 21
-22.9160812792
  0
LINE
  5
37E
100
AcDbEntity
  8
RACCORDO
100
AcDbLine
 62
250
  6
CONTINUOUS
 10
79.3080669606
 20
22.2667631237
 11
79.324965112
 21
16.2552627608
  0
LINE
  5
37F
100
AcDbEntity
  8
RACCORDO
100
AcDbLine
 62
250
  6
CONTINUOUS
 10
79.0045155608
 20
22.2564182117
 11
79.0175362275
 21
17.1625904614
  0
LINE
  5
380
100
AcDbEntity
  8
RACCORDO
100
AcDbLine
 62
250
  6
CONTINUOUS
 10
79.324965112
 20
16.2552627608
 11
79.3368244602
 21
10.2058568868
  0
LINE
  5
381
100
AcDbEntity
  8
RACCORDO
100
AcDbLine
 62
250
  6
CONTINUOUS
 10
78.5091333937
 20
-23.062993758
 11
78.5090387244
 21
-23.0124292831
  0
LINE
  5
382
100
AcDbEntity
  8
RACCORDO
100
AcDbLine
 62
250
  6
CONTINUOUS
 10
79.0175362275
 20
17.1625904614
 11
79.0264610957
 21
11.3457604347
  0
LINE
  5
383
100
AcDbEntity
  8
RACCORDO
100
AcDbLine
 62
250
  6
CONTINUOUS
 10
79.3368244602
 20
10.2058568868
 11
79.3431328541
 21
4.8572270303
  0
LINE
  5
384
100
AcDbEntity
  8
RACCORDO
100
AcDbLine
 62
250
  6
CONTINUOUS
 10
79.0264610957
 20
11.3457604347
 11
79.0331920867
 21
3.3205344525
  0
LINE
  5
385
100
AcDbEntity
  8
RACCORDO
100
AcDbLine
 62
7
  6
CONTINUOUS
 10
78.85
 20
-22.101902651
 11
78.85
 21
22.101902651
  0
LINE
  5
386
100
AcDbEntity
  8
RACCORDO
100
AcDbLine
 62
250
  6
CONTINUOUS
 10
79.3431328541
 20
4.8572270303
 11
79.3448524667
 21
-1.6299992137
  0
LINE
  5
387
100
AcDbEntity
  8
RACCORDO
100
AcDbLine
 62
250
  6
CONTINUOUS
 10
79.0331920867
 20
3.3205344525
 11
79.0329074039
 21
-3.9138674403
  0
LINE
  5
388
100
AcDbEntity
  8
RACCORDO
100
AcDbLine
 62
250
  6
CONTINUOUS
 10
79.0329074039
 20
-3.9138674403
 11
79.0276707056
 21
-10.2762143197
  0
LINE
  5
389
100
AcDbEntity
  8
RACCORDO
100
AcDbLine
 62
250
  6
CONTINUOUS
 10
79.3448524667
 20
-1.6299992137
 11
79.3421078676
 21
-6.0219782466
  0
LINE
  5
38A
100
AcDbEntity
  8
RACCORDO
100
AcDbLine
 62
250
  6
CONTINUOUS
 10
79.3421078676
 20
-6.0219782466
 11
79.3358540442
 21
-10.8186911713
  0
LINE
  5
38B
100
AcDbEntity
  8
RACCORDO
100
AcDbLine
 62
250
  6
CONTINUOUS
 10
79.0276707056
 20
-10.2762143197
 11
79.019511059
 21
-16.1339118345
  0
LINE
  5
38C
100
AcDbEntity
  8
RACCORDO
100
AcDbLine
 62
250
  6
CONTINUOUS
 10
79.3358540442
 20
-10.8186911713
 11
79.3263360996
 21
-15.6734849651
  0
LINE
  5
38D
100
AcDbEntity
  8
RACCORDO
100
AcDbLine
 62
250
  6
CONTINUOUS
 10
79.019511059
 20
-16.1339118345
 11
79.0109448449
 21
-19.9811231684
  0
LINE
  5
38E
100
AcDbEntity
  8
RACCORDO
100
AcDbLine
 62
250
  6
CONTINUOUS
 10
79.0109448449
 20
-19.9811231684
 11
79.0045155608
 21
-22.2564182117
  0
LWPOLYLINE
  5
38F
100
AcDbEntity
  8
RACCORDO
100
AcDbPolyline
 62
250
  6
CONTINUOUS
 90
3
 70
0
 10
79.3263360996
 20
-15.6734849651
 10
79.3098926231
 20
-21.6635960224
 10
79.3080669606
 20
-22.2667631237
  0
LINE
  5
390
100
AcDbEntity
  8
RACCORDO
100
AcDbLine
 62
250
  6
CONTINUOUS
 10
78.5091333939
 20
23.062993758
 11
78.5088280456
 21
22.9629885471
  0
LINE
  5
391
100
AcDbEntity
  8
RACCORDO
100
AcDbLine
 62
250
  6
CONTINUOUS
 10
78.5088280456
 20
22.9629885471
 11
78.5083084843
 21
22.8939973145
  0
LINE
  5
392
100
AcDbEntity
  8
RACCORDO
100
AcDbLine
 62
250
  6
CONTINUOUS
 10
78.5083084843
 20
22.8939973145
 11
78.5075753141
 21
22.8350934071
  0
LWPOLYLINE
  5
393
100
AcDbEntity
  8
RACCORDO
100
AcDbPolyline
 62
250
  6
CONTINUOUS
 90
8
 70
0
 10
78.5075753141
 20
22.8350934071
 10
78.5069905129
 20
22.8033202347
 10
78.5066753668
 20
22.790039108
 10
78.5063480191
 20
22.7786254266
 10
78.506010803
 20
22.7691605502
 10
78.5056661228
 20
22.7617119788
 10
78.5053164365
 20
22.7563328517
 10
78.5049642378
 20
22.7530615411
  0
LWPOLYLINE
  5
394
100
AcDbEntity
  8
RACCORDO
100
AcDbPolyline
 62
250
  6
CONTINUOUS
 90
25
 70
0
 10
79.004515522
 20
-22.2564181729
 10
79.0034812101
 20
-22.2884453652
 10
79.000383514
 20
-22.3204124608
 10
78.9952180843
 20
-22.3521873386
 10
78.9879809691
 20
-22.3836707751
 10
78.9786891908
 20
-22.4146933772
 10
78.9674021852
 20
-22.4450225159
 10
78.9541763096
 20
-22.4745164543
 10
78.9390639573
 20
-22.5030698663
 10
78.9221585902
 20
-22.5305203922
 10
78.9035558398
 20
-22.5567395104
 10
78.8833300693
 20
-22.5816481832
 10
78.8615575574
 20
-22.605169015
 10
78.8384090415
 20
-22.6271426268
 10
78.8139166346
 20
-22.647560905
 10
78.7879128387
 20
-22.666532287
 10
78.760360855
 20
-22.6839984407
 10
78.7314483594
 20
-22.6997577983
 10
78.7013257503
 20
-22.7136698915
 10
78.6700259704
 20
-22.7256572226
 10
78.6377456978
 20
-22.7355857148
 10
78.6049183724
 20
-22.7433073154
 10
78.5717960296
 20
-22.7487872497
 10
78.5384284904
 20
-22.7520392817
 10
78.5049641841
 20
-22.7530615331
  0
LWPOLYLINE
  5
395
100
AcDbEntity
  8
RACCORDO
100
AcDbPolyline
 62
250
  6
CONTINUOUS
 90
25
 70
0
 10
79.3080669606
 20
-22.2667631237
 10
79.3062630277
 20
-22.3182667632
 10
79.3011785339
 20
-22.3692632891
 10
79.2928134655
 20
-22.4197526935
 10
79.2811026216
 20
-22.4699956985
 10
79.2661111764
 20
-22.5197315735
 10
79.2480346724
 20
-22.5681780881
 10
79.2268153046
 20
-22.6152826507
 10
79.2025108372
 20
-22.6610977475
 10
79.1754901582
 20
-22.7049986902
 10
79.1457390125
 20
-22.7469217844
 10
79.1132716125
 20
-22.7869305573
 10
79.0784995452
 20
-22.8245911017
 10
79.0415537056
 20
-22.8598143085
 10
79.0023031635
 20
-22.8926890933
 10
78.9607667687
 20
-22.9230485639
 10
78.9167656951
 20
-22.9510313971
 10
78.8704787459
 20
-22.9764987423
 10
78.8224612181
 20
-22.9988673991
 10
78.7725275093
 20
-23.0180852171
 10
78.720863216
 20
-23.0342041765
 10
78.6685804397
 20
-23.0467972609
 10
78.616049887
 20
-23.0557220909
 10
78.5629008675
 20
-23.0611209341
 10
78.5091333937
 20
-23.062993758
  0
LWPOLYLINE
  5
396
100
AcDbEntity
  8
0
100
AcDbPolyline
 62
7
  6
CONTINUOUS
 90
10
 70
0
 43
0.3500000006
 10
109.1999970703
 20
1.0714289017
 10
109.8428595886
 20
0.4285709152
 10
110.6999975281
 20
-0.0000003204
 10
111.7714290161
 20
-0.0000003204
 10
112.1999979858
 20
0.4285709152
 10
112.1999979858
 20
1.0714289017
 10
111.7714290161
 20
1.5000001373
 10
110.9142820129
 20
1.5000001373
 10
110.4857130432
 20
1.0714289017
 10
110.4857130432
 20
0.1428575134
  0
LWPOLYLINE
  5
397
100
AcDbEntity
  8
0
100
AcDbPolyline
 62
7
  6
CONTINUOUS
 90
13
 70
0
 43
0.3500000006
 10
110.4857130432
 20
-1.9285708809
 10
110.2714285583
 20
-2.2142854156
 10
109.6285751038
 20
-2.2142854156
 10
109.1999970703
 20
-1.9285708809
 10
109.1999970703
 20
-1.2857140274
 10
109.6285751038
 20
-1.0000006256
 10
110.2714285583
 20
-1.0000006256
 10
110.4857130432
 20
-1.2857140274
 10
110.9142820129
 20
-0.8571427917
 10
111.7714290161
 20
-0.8571427917
 10
112.1999979858
 20
-1.2857140274
 10
112.1999979858
 20
-1.9285708809
 10
111.7714290161
 20
-2.3571432495
  0
LWPOLYLINE
  5
398
100
AcDbEntity
  8
ASSI
100
AcDbPolyline
 62
250
  6
CONTINUOUS
 90
14
 70
0
 10
104.9092691466
 20
-42.1095432866
 10
104.9071317477
 20
-42.1110061987
 10
104.9025585787
 20
-42.1124619511
 10
104.8955720215
 20
-42.113903419
 10
104.8862062699
 20
-42.1153235477
 10
104.8745071615
 20
-42.116715387
 10
104.8605319541
 20
-42.1180721249
 10
104.8443490448
 20
-42.1193871214
 10
104.8260376354
 20
-42.1206539408
 10
104.8056873447
 20
-42.121866383
 10
104.7833977705
 20
-42.1230185142
 10
104.759278001
 20
-42.1241046958
 10
104.7334460819
 20
-42.1251196119
 10
104.7060284382
 20
-42.1260582953
  0
LWPOLYLINE
  5
399
100
AcDbEntity
  8
ASSI
100
AcDbPolyline
 62
250
  6
CONTINUOUS
 90
25
 70
0
 10
104.4469956917
 20
42.1305013924
 10
104.4455772573
 20
42.1504124495
 10
104.442896772
 20
42.1701404991
 10
104.4389539535
 20
42.1896849203
 10
104.4337190032
 20
42.2091317239
 10
104.427221143
 20
42.2283936159
 10
104.4195486722
 20
42.2472101415
 10
104.4106865533
 20
42.2655700151
 10
104.4006493828
 20
42.2834835571
 10
104.3895700398
 20
42.3007230387
 10
104.3774367101
 20
42.317278579
 10
104.3642609723
 20
42.3331595734
 10
104.3502109558
 20
42.3481675971
 10
104.3352765195
 20
42.3622930066
 10
104.3194678151
 20
42.375545543
 10
104.3029835824
 20
42.3877562739
 10
104.2858138709
 20
42.3989144411
 10
104.2679688894
 20
42.4090314935
 10
104.2496777788
 20
42.417972198
 10
104.2309375427
 20
42.4257216956
 10
104.2117516452
 20
42.4322960367
 10
104.1923590445
 20
42.4376066514
 10
104.1728396099
 20
42.441624554
 10
104.1531140703
 20
42.4443802205
 10
104.1331827205
 20
42.4458743809
  0
LWPOLYLINE
  5
39A
100
AcDbEntity
  8
ASSI
100
AcDbPolyline
 62
250
  6
CONTINUOUS
 90
25
 70
0
 10
104.9092691466
 20
42.1095432866
 10
104.907555923
 20
42.1618575633
 10
104.9024249908
 20
42.2139492278
 10
104.8938976024
 20
42.2655954281
 10
104.8820087973
 20
42.3165776676
 10
104.8668091569
 20
42.3666749911
 10
104.8483662821
 20
42.4156654325
 10
104.8267601297
 20
42.4633391682
 10
104.802083749
 20
42.5094929803
 10
104.7744472184
 20
42.5539243973
 10
104.743973974
 20
42.5964400157
 10
104.7107931373
 20
42.6368641304
 10
104.6750408544
 20
42.6750326252
 10
104.6368700677
 20
42.7107823347
 10
104.5964437693
 20
42.7439605562
 10
104.5539257281
 20
42.7744314071
 10
104.5094915353
 20
42.8020657668
 10
104.46333464
 20
42.8267400931
 10
104.4156573455
 20
42.8483443126
 10
104.3666626406
 20
42.8667853624
 10
104.3165605309
 20
42.8819830997
 10
104.2655734614
 20
42.8938697305
 10
104.2139225758
 20
42.902394655
 10
104.1618262373
 20
42.9075228858
 10
104.1095073206
 20
42.9092331806
  0
LINE
  5
39B
100
AcDbEntity
  8
ASSI
100
AcDbLine
 62
250
  6
CONTINUOUS
 10
104.4469956917
 20
42.1305013924
 11
104.4654199165
 21
41.5953012099
  0
LINE
  5
39C
100
AcDbEntity
  8
ASSI
100
AcDbLine
 62
250
  6
CONTINUOUS
 10
104.4654199165
 20
41.5953012099
 11
104.4813021399
 21
41.0123092495
  0
LINE
  5
39D
100
AcDbEntity
  8
ASSI
100
AcDbLine
 62
250
  6
CONTINUOUS
 10
104.12934175
 20
42.6764946722
 11
104.1310012508
 21
42.614826559
  0
LINE
  5
39E
100
AcDbEntity
  8
ASSI
100
AcDbLine
 62
250
  6
CONTINUOUS
 10
104.4813021399
 20
41.0123092495
 11
104.4945031862
 21
40.3854381474
  0
LINE
  5
39F
100
AcDbEntity
  8
ASSI
100
AcDbLine
 62
250
  6
CONTINUOUS
 10
104.1310012508
 20
42.614826559
 11
104.1322392083
 21
42.549129667
  0
LINE
  5
3A0
100
AcDbEntity
  8
ASSI
100
AcDbLine
 62
250
  6
CONTINUOUS
 10
104.4945031862
 20
40.3854381474
 11
104.5044465915
 21
39.7274055018
  0
LWPOLYLINE
  5
3A1
100
AcDbEntity
  8
ASSI
100
AcDbPolyline
 62
250
  6
CONTINUOUS
 90
3
 70
0
 10
104.1322392083
 20
42.549129667
 10
104.1330313434
 20
42.480692457
 10
104.1332550216
 20
42.445864287
  0
LINE
  5
3A2
100
AcDbEntity
  8
ASSI
100
AcDbLine
 62
250
  6
CONTINUOUS
 10
104.5044465915
 20
39.7274055018
 11
104.5114810832
 21
39.0542083665
  0
LINE
  5
3A3
100
AcDbEntity
  8
ASSI
100
AcDbLine
 62
250
  6
CONTINUOUS
 10
104.5114810832
 20
39.0542083665
 11
104.5175116478
 21
38.0178521832
  0
LINE
  5
3A4
100
AcDbEntity
  8
ASSI
100
AcDbLine
 62
250
  6
CONTINUOUS
 10
104.5175116478
 20
38.0178521832
 11
104.5229946904
 21
35.3014716151
  0
LINE
  5
3A5
100
AcDbEntity
  8
ASSI
100
AcDbLine
 62
250
  6
CONTINUOUS
 10
104.5229946904
 20
35.3014716151
 11
104.5586737162
 21
18.0733226427
  0
LINE
  5
3A6
100
AcDbEntity
  8
ASSI
100
AcDbLine
 62
250
  6
CONTINUOUS
 10
104.5586737162
 20
18.0733226427
 11
104.5633450466
 21
11.0652819442
  0
LINE
  5
3A7
100
AcDbEntity
  8
ASSI
100
AcDbLine
 62
7
  6
CONTINUOUS
 10
104.95
 20
-42.15027414
 11
104.95
 21
42.15027414
  0
LINE
  5
3A8
100
AcDbEntity
  8
ASSI
100
AcDbLine
 62
250
  6
CONTINUOUS
 10
104.5633450466
 20
11.0652819442
 11
104.5613243052
 21
-15.3710371106
  0
LINE
  5
3A9
100
AcDbEntity
  8
ASSI
100
AcDbLine
 62
250
  6
CONTINUOUS
 10
104.9092693696
 20
42.1095435097
 11
104.9092686507
 21
-42.1095427908
  0
LINE
  5
3AA
100
AcDbEntity
  8
ASSI
100
AcDbLine
 62
250
  6
CONTINUOUS
 10
104.5613243052
 20
-15.3710371106
 11
104.5568192385
 21
-19.4037662939
  0
LINE
  5
3AB
100
AcDbEntity
  8
ASSI
100
AcDbLine
 62
250
  6
CONTINUOUS
 10
104.5568192385
 20
-19.4037662939
 11
104.5483246032
 21
-23.6429626777
  0
LWPOLYLINE
  5
3AC
100
AcDbEntity
  8
ASSI
100
AcDbPolyline
 62
250
  6
CONTINUOUS
 90
3
 70
0
 10
104.5483246032
 20
-23.6429626777
 10
104.5401317296
 20
-26.7202664115
 10
104.5196745134
 20
-37.2489638689
  0
LINE
  5
3AD
100
AcDbEntity
  8
ASSI
100
AcDbLine
 62
250
  6
CONTINUOUS
 10
104.5196745134
 20
-37.2489638689
 11
104.5163910947
 21
-38.267907977
  0
LINE
  5
3AE
100
AcDbEntity
  8
ASSI
100
AcDbLine
 62
250
  6
CONTINUOUS
 10
104.5163910947
 20
-38.267907977
 11
104.5096200709
 21
-39.2573462397
  0
LINE
  5
3AF
100
AcDbEntity
  8
ASSI
100
AcDbLine
 62
250
  6
CONTINUOUS
 10
104.1332550197
 20
-42.4458642881
 11
104.1326921822
 21
-42.5151706619
  0
LINE
  5
3B0
100
AcDbEntity
  8
ASSI
100
AcDbLine
 62
250
  6
CONTINUOUS
 10
104.5096200709
 20
-39.2573462397
 11
104.5025534982
 21
-39.8752525071
  0
LINE
  5
3B1
100
AcDbEntity
  8
ASSI
100
AcDbLine
 62
250
  6
CONTINUOUS
 10
104.1326921822
 20
-42.5151706619
 11
104.1316746385
 21
-42.582402731
  0
LINE
  5
3B2
100
AcDbEntity
  8
ASSI
100
AcDbLine
 62
250
  6
CONTINUOUS
 10
104.5025534982
 20
-39.8752525071
 11
104.4933583512
 21
-40.4470530882
  0
LINE
  5
3B3
100
AcDbEntity
  8
ASSI
100
AcDbLine
 62
250
  6
CONTINUOUS
 10
104.4933583512
 20
-40.4470530882
 11
104.4822382758
 21
-40.9757400813
  0
LWPOLYLINE
  5
3B4
100
AcDbEntity
  8
ASSI
100
AcDbPolyline
 62
250
  6
CONTINUOUS
 90
17
 70
0
 10
104.1316746385
 20
-42.582402731
 10
104.1302223448
 20
-42.6462419262
 10
104.1293417487
 20
-42.6764946551
 10
104.1283637839
 20
-42.7054362186
 10
104.1272932513
 20
-42.7329245403
 10
104.1261354062
 20
-42.7588246781
 10
104.1248959326
 20
-42.7830094862
 10
104.1235809151
 20
-42.8053602395
 10
104.1221968092
 20
-42.8257672165
 10
104.1207504097
 20
-42.8441302378
 10
104.119248817
 20
-42.8603591579
 10
104.1176994026
 20
-42.8743743073
 10
104.1161097726
 20
-42.8861068851
 10
104.1144877305
 20
-42.8954992964
 10
104.1128412389
 20
-42.9025054322
 10
104.1111783806
 20
-42.9070908977
 10
104.1095073188
 20
-42.9092331816
  0
LINE
  5
3B5
100
AcDbEntity
  8
ASSI
100
AcDbLine
 62
250
  6
CONTINUOUS
 10
104.4822382758
 20
-40.9757400813
 11
104.4693175228
 21
-41.4633841168
  0
LWPOLYLINE
  5
3B6
100
AcDbEntity
  8
ASSI
100
AcDbPolyline
 62
250
  6
CONTINUOUS
 90
3
 70
0
 10
104.4693175228
 20
-41.4633841168
 10
104.4548474514
 20
-41.9168520819
 10
104.4470177865
 20
-42.1303387027
  0
LWPOLYLINE
  5
3B7
100
AcDbEntity
  8
ASSI
100
AcDbPolyline
 62
250
  6
CONTINUOUS
 90
15
 70
0
 10
104.1095073206
 20
42.9092331806
 10
104.1111783817
 20
42.9070908984
 10
104.1128412394
 20
42.9025054361
 10
104.1144877306
 20
42.8954993041
 10
104.1161097727
 20
42.8861068961
 10
104.1176994028
 20
42.87437432
 10
104.1192488173
 20
42.860359172
 10
104.1207504101
 20
42.8441302535
 10
104.1221968097
 20
42.8257672335
 10
104.1235809157
 20
42.8053602574
 10
104.1248959333
 20
42.7830095047
 10
104.1261354071
 20
42.7588246968
 10
104.1272932523
 20
42.7329245589
 10
104.1283637851
 20
42.7054362366
 10
104.12934175
 20
42.6764946722
  0
LINE
  5
3B8
100
AcDbEntity
  8
ASSI
100
AcDbLine
 62
7
  6
CONTINUOUS
 10
-130.8421232468
 20
-42.9039676725
 11
-129.0842195812
 21
-42.95
  0
LWPOLYLINE
  5
3B9
100
AcDbEntity
  8
ASSI
100
AcDbPolyline
 62
250
  6
CONTINUOUS
 90
19
 70
0
 10
-129.0842192626
 20
-42.1528974146
 10
-128.9618094076
 20
-42.1397858263
 10
-128.8386217502
 20
-42.1230082411
 10
-128.7147949382
 20
-42.1025646591
 10
-128.5903972704
 20
-42.0785073558
 10
-128.4656607403
 20
-42.0507840558
 10
-128.3409746949
 20
-42.0192379324
 10
-128.2157604877
 20
-41.9835038953
 10
-128.0909410055
 20
-41.9439470349
 10
-127.9690732641
 20
-41.9015057966
 10
-127.8501649557
 20
-41.8558813502
 10
-127.7343533527
 20
-41.8073725259
 10
-127.6241719324
 20
-41.7578142601
 10
-127.520200811
 20
-41.7074032994
 10
-127.4216657084
 20
-41.6559428973
 10
-127.3289051671
 20
-41.6046777503
 10
-127.2419223192
 20
-41.5540227573
 10
-127.1604134169
 20
-41.5035630195
 10
-127.0842195868
 20
-41.4532985368
  0
LINE
  5
3BA
100
AcDbEntity
  8
ASSI
100
AcDbLine
 62
250
  6
CONTINUOUS
 10
-131.1146275698
 20
-42.1298610281
 11
-131.1247310582
 21
-42.1303599154
  0
LINE
  5
3BB
100
AcDbEntity
  8
ASSI
100
AcDbLine
 62
250
  6
CONTINUOUS
 10
-130.6396681188
 20
-42.1095432866
 11
-131.1146275698
 21
-42.1298610281
  0
LINE
  5
3BC
100
AcDbEntity
  8
ASSI
100
AcDbLine
 62
250
  6
CONTINUOUS
 10
-130.6396870547
 20
-42.1095427908
 11
-129.0842195812
 21
-42.15027414
  0
LWPOLYLINE
  5
3BD
100
AcDbEntity
  8
ASSI
100
AcDbPolyline
 62
250
  6
CONTINUOUS
 90
9
 70
0
 10
-131.2694756732
 20
42.6407518018
 10
-131.2693563487
 20
42.6408428783
 10
-131.2691485522
 20
42.6407240229
 10
-131.2688381079
 20
42.6403686692
 10
-131.2684390753
 20
42.6396884551
 10
-131.2679274434
 20
42.6386716222
 10
-131.2672710201
 20
42.6373296609
 10
-131.2664724393
 20
42.6356089133
 10
-131.2643719081
 20
42.6310142632
  0
LINE
  5
3BE
100
AcDbEntity
  8
0
100
AcDbLine
 62
250
  6
CONTINUOUS
 10
-135.1352556659
 20
-25.5359677442
 11
-135.1973577712
 21
-25.5359677442
  0
LINE
  5
3BF
100
AcDbEntity
  8
SUPERFICI
100
AcDbLine
 62
7
  6
CONTINUOUS
 10
-135.1403023046
 20
-25.451114715
 11
-135.2111954429
 21
-25.451114715
  0
LINE
  5
3C0
100
AcDbEntity
  8
RACCORDO
100
AcDbLine
 62
250
  6
CONTINUOUS
 10
-135.2239786537
 20
22.2667631237
 11
-135.2240158282
 21
22.2667502626
  0
LWPOLYLINE
  5
3C1
100
AcDbEntity
  8
RACCORDO
100
AcDbPolyline
 62
250
  6
CONTINUOUS
 90
6
 70
0
 10
-135.2703632993
 20
-23.072293912
 10
-135.2741313892
 20
-23.0732879861
 10
-135.2775892715
 20
-23.0742821401
 10
-135.2808144808
 20
-23.0752769111
 10
-135.2838736214
 20
-23.0762749266
 10
-135.2868215832
 20
-23.0772747545
  0
LINE
  5
3C2
100
AcDbEntity
  8
RACCORDO
100
AcDbLine
 62
250
  6
CONTINUOUS
 10
-135.3402642621
 20
-23.0915243503
 11
-135.3492775072
 21
-23.0933664262
  0
LINE
  5
3C3
100
AcDbEntity
  8
RACCORDO
100
AcDbLine
 62
250
  6
CONTINUOUS
 10
-135.3492775072
 20
-23.0933664262
 11
-135.3586910856
 21
-23.0952286774
  0
LINE
  5
3C4
100
AcDbEntity
  8
RACCORDO
100
AcDbLine
 62
250
  6
CONTINUOUS
 10
-135.3586910856
 20
-23.0952286774
 11
-135.3832288299
 21
-23.0999443464
  0
LINE
  5
3C5
100
AcDbEntity
  8
RACCORDO
100
AcDbLine
 62
250
  6
CONTINUOUS
 10
-135.3832288299
 20
-23.0999443464
 11
-135.4485378215
 21
-23.1122129381
  0
LINE
  5
3C6
100
AcDbEntity
  8
RACCORDO
100
AcDbLine
 62
250
  6
CONTINUOUS
 10
-135.4485378215
 20
-23.1122129381
 11
-135.4607469624
 21
-23.1144244765
  0
LINE
  5
3C7
100
AcDbEntity
  8
RACCORDO
100
AcDbLine
 62
250
  6
CONTINUOUS
 10
-135.4607469624
 20
-23.1144244765
 11
-135.4684317486
 21
-23.1157702221
  0
LINE
  5
3C8
100
AcDbEntity
  8
RACCORDO
100
AcDbLine
 62
250
  6
CONTINUOUS
 10
-135.4684317486
 20
-23.1157702221
 11
-135.475634598
 21
-23.1169932313
  0
LINE
  5
3C9
100
AcDbEntity
  8
RACCORDO
100
AcDbLine
 62
250
  6
CONTINUOUS
 10
-135.475634598
 20
-23.1169932313
 11
-135.485122827
 21
-23.1185372493
  0
LWPOLYLINE
  5
3CA
100
AcDbEntity
  8
RACCORDO
100
AcDbPolyline
 62
250
  6
CONTINUOUS
 90
3
 70
0
 10
-135.485122827
 20
-23.1185372493
 10
-135.4922917941
 20
-23.1196451402
 10
-135.4939905373
 20
-23.1198959388
  0
LWPOLYLINE
  5
3CB
100
AcDbEntity
  8
RACCORDO
100
AcDbPolyline
 62
250
  6
CONTINUOUS
 90
3
 70
0
 10
-135.4952701755
 20
-23.1200761045
 10
-135.4960775834
 20
-23.1201901507
 10
-135.4963580167
 20
-23.1202380772
  0
LWPOLYLINE
  5
3CC
100
AcDbEntity
  8
RACCORDO
100
AcDbPolyline
 62
7
  6
CONTINUOUS
 90
4
 70
0
 10
-135.2255712502
 20
-22.7785951293
 10
-135.2434904465
 20
-22.7807075272
 10
-135.2624140112
 20
-22.7841408616
 10
-135.2803642821
 20
-22.7885785508
  0
LWPOLYLINE
  5
3CD
100
AcDbEntity
  8
RACCORDO
100
AcDbPolyline
 62
250
  6
CONTINUOUS
 90
10
 70
0
 10
-135.2073414551
 20
-23.062993758
 10
-135.2184517248
 20
-23.0640920378
 10
-135.2282062416
 20
-23.0651718159
 10
-135.2367569849
 20
-23.0662329736
 10
-135.2442164091
 20
-23.0672729503
 10
-135.2507454116
 20
-23.0682944259
 10
-135.2565300016
 20
-23.0693055906
 10
-135.2616634282
 20
-23.0703076991
 10
-135.2662317057
 20
-23.0713014053
 10
-135.2703632993
 20
-23.072293912
  0
LINE
  5
3CE
100
AcDbEntity
  8
RACCORDO
100
AcDbLine
 62
7
  6
CONTINUOUS
 10
-135.2255712732
 20
-22.7785951313
 11
-135.2089371641
 21
-22.7771398353
  0
LINE
  5
3CF
100
AcDbEntity
  8
RACCORDO
100
AcDbLine
 62
250
  6
CONTINUOUS
 10
-135.2239786537
 20
-22.2667631239
 11
-135.2240158285
 21
-22.2667502558
  0
LINE
  5
3D0
100
AcDbEntity
  8
ASSI
100
AcDbLine
 62
7
  6
CONTINUOUS
 10
-131.6588468191
 20
41.8560355662
 11
-131.6932300104
 21
41.780746715
  0
LINE
  5
3D1
100
AcDbEntity
  8
ASSI
100
AcDbLine
 62
7
  6
CONTINUOUS
 10
-131.6257174743
 20
41.9276499559
 11
-131.6588468191
 21
41.8560355662
  0
LINE
  5
3D2
100
AcDbEntity
  8
ASSI
100
AcDbLine
 62
7
  6
CONTINUOUS
 10
-131.5931671889
 20
41.9971255316
 11
-131.6257174743
 21
41.9276499559
  0
LINE
  5
3D3
100
AcDbEntity
  8
ASSI
100
AcDbLine
 62
7
  6
CONTINUOUS
 10
-131.5645531417
 20
42.0574723776
 11
-131.5931671889
 21
41.9971255316
  0
LINE
  5
3D4
100
AcDbEntity
  8
ASSI
100
AcDbLine
 62
7
  6
CONTINUOUS
 10
-131.53406022
 20
42.1210307259
 11
-131.5645531417
 21
42.0574723776
  0
LINE
  5
3D5
100
AcDbEntity
  8
ASSI
100
AcDbLine
 62
7
  6
CONTINUOUS
 10
-131.5015876605
 20
42.1878643369
 11
-131.53406022
 21
42.1210307259
  0
LINE
  5
3D6
100
AcDbEntity
  8
ASSI
100
AcDbLine
 62
7
  6
CONTINUOUS
 10
-131.4739248906
 20
42.2441093775
 11
-131.5016552641
 21
42.1877261076
  0
LINE
  5
3D7
100
AcDbEntity
  8
ASSI
100
AcDbLine
 62
7
  6
CONTINUOUS
 10
-131.4443576992
 20
42.3035304804
 11
-131.4739248906
 21
42.2441093775
  0
LINE
  5
3D8
100
AcDbEntity
  8
ASSI
100
AcDbLine
 62
7
  6
CONTINUOUS
 10
-131.4126100656
 20
42.3665404893
 11
-131.4443576992
 21
42.3035304804
  0
LINE
  5
3D9
100
AcDbEntity
  8
ASSI
100
AcDbLine
 62
7
  6
CONTINUOUS
 10
-131.3866594257
 20
42.4174420651
 11
-131.4126100656
 21
42.3665404893
  0
LINE
  5
3DA
100
AcDbEntity
  8
ASSI
100
AcDbLine
 62
7
  6
CONTINUOUS
 10
-131.3576141185
 20
42.4737792292
 11
-131.3866594257
 21
42.4174420651
  0
LINE
  5
3DB
100
AcDbEntity
  8
ASSI
100
AcDbLine
 62
7
  6
CONTINUOUS
 10
-131.3278882261
 20
42.5307537484
 11
-131.3576141185
 21
42.4737792292
  0
LINE
  5
3DC
100
AcDbEntity
  8
ASSI
100
AcDbLine
 62
7
  6
CONTINUOUS
 10
-131.2940863883
 20
42.5947201957
 11
-131.3278882261
 21
42.5307537484
  0
LINE
  5
3DD
100
AcDbEntity
  8
ASSI
100
AcDbLine
 62
7
  6
CONTINUOUS
 10
-131.2694942396
 20
42.6407260942
 11
-131.2940863883
 21
42.5947201957
  0
LINE
  5
3DE
100
AcDbEntity
  8
ASSI
100
AcDbLine
 62
7
  6
CONTINUOUS
 10
-131.2961549391
 20
-42.59083028
 11
-131.2694942951
 21
-42.6407259909
  0
LINE
  5
3DF
100
AcDbEntity
  8
ASSI
100
AcDbLine
 62
7
  6
CONTINUOUS
 10
-131.3277389409
 20
-42.5310381578
 11
-131.2961549391
 21
-42.59083028
  0
LINE
  5
3E0
100
AcDbEntity
  8
ASSI
100
AcDbLine
 62
7
  6
CONTINUOUS
 10
-131.3577002568
 20
-42.4736131337
 11
-131.3277389409
 21
-42.5310381578
  0
LINE
  5
3E1
100
AcDbEntity
  8
ASSI
100
AcDbLine
 62
7
  6
CONTINUOUS
 10
-131.3872309799
 20
-42.4163267664
 11
-131.3577002568
 21
-42.4736131337
  0
LINE
  5
3E2
100
AcDbEntity
  8
ASSI
100
AcDbLine
 62
7
  6
CONTINUOUS
 10
-131.4142846217
 20
-42.3632373365
 11
-131.3872309799
 21
-42.4163267664
  0
LINE
  5
3E3
100
AcDbEntity
  8
ASSI
100
AcDbLine
 62
7
  6
CONTINUOUS
 10
-131.4449224352
 20
-42.3024022312
 11
-131.4142846217
 21
-42.3632373365
  0
LINE
  5
3E4
100
AcDbEntity
  8
ASSI
100
AcDbLine
 62
7
  6
CONTINUOUS
 10
-131.2694838934
 20
-42.6407453576
 11
-131.2695012591
 21
-42.6407104792
  0
LINE
  5
3E5
100
AcDbEntity
  8
ASSI
100
AcDbLine
 62
7
  6
CONTINUOUS
 10
-131.4740548566
 20
-42.2438466014
 11
-131.4449224352
 21
-42.3024022312
  0
LINE
  5
3E6
100
AcDbEntity
  8
ASSI
100
AcDbLine
 62
7
  6
CONTINUOUS
 10
-131.5019436804
 20
-42.187136339
 11
-131.4740548566
 21
-42.2438466014
  0
LINE
  5
3E7
100
AcDbEntity
  8
ASSI
100
AcDbLine
 62
7
  6
CONTINUOUS
 10
-131.5328132185
 20
-42.12361344
 11
-131.5019436804
 21
-42.187136339
  0
LINE
  5
3E8
100
AcDbEntity
  8
ASSI
100
AcDbLine
 62
7
  6
CONTINUOUS
 10
-131.5619765824
 20
-42.0628728458
 11
-131.5328132185
 21
-42.12361344
  0
LINE
  5
3E9
100
AcDbEntity
  8
ASSI
100
AcDbLine
 62
7
  6
CONTINUOUS
 10
-131.5933579539
 20
-41.9967209226
 11
-131.5619765824
 21
-42.0628728458
  0
LINE
  5
3EA
100
AcDbEntity
  8
ASSI
100
AcDbLine
 62
7
  6
CONTINUOUS
 10
-131.6232132138
 20
-41.9330262784
 11
-131.5933579539
 21
-41.9967209226
  0
LINE
  5
3EB
100
AcDbEntity
  8
ASSI
100
AcDbLine
 62
7
  6
CONTINUOUS
 10
-131.6535217369
 20
-41.8676080573
 11
-131.6232132138
 21
-41.9330262784
  0
LINE
  5
3EC
100
AcDbEntity
  8
ASSI
100
AcDbLine
 62
7
  6
CONTINUOUS
 10
-131.6844966413
 20
-41.7999632411
 11
-131.6535217369
 21
-41.8676080573
  0
LINE
  5
3ED
100
AcDbEntity
  8
ASSI
100
AcDbLine
 62
7
  6
CONTINUOUS
 10
-131.6923534959
 20
-41.7826782213
 11
-131.6844966413
 21
-41.7999632411
  0
LINE
  5
3EE
100
AcDbEntity
  8
ASSI
100
AcDbLine
 62
7
  6
CONTINUOUS
 10
-132.287850709
 20
40.3235557537
 11
-132.3343353779
 21
40.197321031
  0
LINE
  5
3EF
100
AcDbEntity
  8
ASSI
100
AcDbLine
 62
7
  6
CONTINUOUS
 10
-132.2418577188
 20
40.4467003565
 11
-132.2873912027
 21
40.3247946969
  0
LINE
  5
3F0
100
AcDbEntity
  8
ASSI
100
AcDbLine
 62
7
  6
CONTINUOUS
 10
-132.1972231834
 20
40.5645391302
 11
-132.2418577188
 21
40.4467003565
  0
LINE
  5
3F1
100
AcDbEntity
  8
ASSI
100
AcDbLine
 62
7
  6
CONTINUOUS
 10
-132.1534582199
 20
40.6784860585
 11
-132.1972231834
 21
40.5645391302
  0
LINE
  5
3F2
100
AcDbEntity
  8
ASSI
100
AcDbLine
 62
7
  6
CONTINUOUS
 10
-132.1105324432
 20
40.7887121684
 11
-132.1534582199
 21
40.6784860585
  0
LINE
  5
3F3
100
AcDbEntity
  8
ASSI
100
AcDbLine
 62
7
  6
CONTINUOUS
 10
-132.0687599669
 20
40.8945155624
 11
-132.1105324432
 21
40.7887121684
  0
LINE
  5
3F4
100
AcDbEntity
  8
ASSI
100
AcDbLine
 62
7
  6
CONTINUOUS
 10
-132.0273990134
 20
40.9978553736
 11
-132.0684158323
 21
40.8953812144
  0
LINE
  5
3F5
100
AcDbEntity
  8
ASSI
100
AcDbLine
 62
7
  6
CONTINUOUS
 10
-131.9864776786
 20
41.0987037867
 11
-132.0270756405
 21
40.9986577416
  0
LINE
  5
3F6
100
AcDbEntity
  8
ASSI
100
AcDbLine
 62
7
  6
CONTINUOUS
 10
-131.9465874062
 20
41.1956762881
 11
-131.9864776786
 21
41.0987037867
  0
LINE
  5
3F7
100
AcDbEntity
  8
ASSI
100
AcDbLine
 62
7
  6
CONTINUOUS
 10
-131.9073659417
 20
41.2897367996
 11
-131.9465874062
 21
41.1956762881
  0
LINE
  5
3F8
100
AcDbEntity
  8
ASSI
100
AcDbLine
 62
7
  6
CONTINUOUS
 10
-131.8690468227
 20
41.3804006505
 11
-131.9073659417
 21
41.2897367996
  0
LINE
  5
3F9
100
AcDbEntity
  8
ASSI
100
AcDbLine
 62
7
  6
CONTINUOUS
 10
-131.8312083338
 20
41.4687309048
 11
-131.8688005094
 21
41.3809794901
  0
LINE
  5
3FA
100
AcDbEntity
  8
ASSI
100
AcDbLine
 62
7
  6
CONTINUOUS
 10
-131.7951596619
 20
41.5517764809
 11
-131.8312083338
 21
41.4687309048
  0
LINE
  5
3FB
100
AcDbEntity
  8
ASSI
100
AcDbLine
 62
7
  6
CONTINUOUS
 10
-131.761202575
 20
41.6290156664
 11
-131.7951596619
 21
41.5517764809
  0
LINE
  5
3FC
100
AcDbEntity
  8
ASSI
100
AcDbLine
 62
7
  6
CONTINUOUS
 10
-131.7231864714
 20
41.7143501178
 11
-131.761202575
 21
41.6290156664
  0
LINE
  5
3FD
100
AcDbEntity
  8
ASSI
100
AcDbLine
 62
7
  6
CONTINUOUS
 10
-131.6932300104
 20
41.780746715
 11
-131.7231864714
 21
41.7143501178
  0
LINE
  5
3FE
100
AcDbEntity
  8
ASSI
100
AcDbLine
 62
7
  6
CONTINUOUS
 10
-131.7242565767
 20
-41.7119644964
 11
-131.6923534959
 21
-41.7826782213
  0
LINE
  5
3FF
100
AcDbEntity
  8
ASSI
100
AcDbLine
 62
7
  6
CONTINUOUS
 10
-131.7569555568
 20
-41.6386085363
 11
-131.7242565767
 21
-41.7119644964
  0
LINE
  5
400
100
AcDbEntity
  8
ASSI
100
AcDbLine
 62
7
  6
CONTINUOUS
 10
-131.7904929578
 20
-41.5624482372
 11
-131.7569555568
 21
-41.6386085363
  0
LINE
  5
401
100
AcDbEntity
  8
ASSI
100
AcDbLine
 62
7
  6
CONTINUOUS
 10
-131.8249143948
 20
-41.4833081125
 11
-131.7904929578
 21
-41.5624482372
  0
LINE
  5
402
100
AcDbEntity
  8
ASSI
100
AcDbLine
 62
7
  6
CONTINUOUS
 10
-131.8602665828
 20
-41.4010032209
 11
-131.8249143948
 21
-41.4833081125
  0
LINE
  5
403
100
AcDbEntity
  8
ASSI
100
AcDbLine
 62
7
  6
CONTINUOUS
 10
-131.896594676
 20
-41.3153449861
 11
-131.8602665828
 21
-41.4010032209
  0
LINE
  5
404
100
AcDbEntity
  8
ASSI
100
AcDbLine
 62
7
  6
CONTINUOUS
 10
-131.9339426204
 20
-41.2261402331
 11
-131.896594676
 21
-41.3153449861
  0
LINE
  5
405
100
AcDbEntity
  8
ASSI
100
AcDbLine
 62
7
  6
CONTINUOUS
 10
-131.9723547162
 20
-41.1331872058
 11
-131.9339426204
 21
-41.2261402331
  0
LINE
  5
406
100
AcDbEntity
  8
ASSI
100
AcDbLine
 62
7
  6
CONTINUOUS
 10
-132.0118758677
 20
-41.0362745074
 11
-131.9723547162
 21
-41.1331872058
  0
LINE
  5
407
100
AcDbEntity
  8
ASSI
100
AcDbLine
 62
7
  6
CONTINUOUS
 10
-132.0525531024
 20
-40.9351767796
 11
-132.0118758677
 21
-41.0362745074
  0
LINE
  5
408
100
AcDbEntity
  8
ASSI
100
AcDbLine
 62
7
  6
CONTINUOUS
 10
-132.0944366038
 20
-40.8296512565
 11
-132.0525531024
 21
-40.9351767796
  0
LINE
  5
409
100
AcDbEntity
  8
ASSI
100
AcDbLine
 62
7
  6
CONTINUOUS
 10
-132.1375779044
 20
-40.719441327
 11
-132.0944366038
 21
-40.8296512565
  0
LINE
  5
40A
100
AcDbEntity
  8
ASSI
100
AcDbLine
 62
7
  6
CONTINUOUS
 10
-132.1820294841
 20
-40.6042767278
 11
-132.1375779044
 21
-40.719441327
  0
LINE
  5
40B
100
AcDbEntity
  8
ASSI
100
AcDbLine
 62
7
  6
CONTINUOUS
 10
-132.2278461793
 20
-40.4838689447
 11
-132.1820294841
 21
-40.6042767278
  0
LINE
  5
40C
100
AcDbEntity
  8
ASSI
100
AcDbLine
 62
7
  6
CONTINUOUS
 10
-132.275084438
 20
-40.357911977
 11
-132.2278461793
 21
-40.4838689447
  0
LINE
  5
40D
100
AcDbEntity
  8
ASSI
100
AcDbLine
 62
7
  6
CONTINUOUS
 10
-132.3238225782
 20
-40.2260258847
 11
-132.275084438
 21
-40.357911977
  0
LINE
  5
40E
100
AcDbEntity
  8
ASSI
100
AcDbLine
 62
7
  6
CONTINUOUS
 10
-132.3362519508
 20
-40.1920780574
 11
-132.3238225782
 21
-40.2260258847
  0
LINE
  5
40F
100
AcDbEntity
  8
ASSI
100
AcDbLine
 62
7
  6
CONTINUOUS
 10
-133.270223611
 20
37.2734153975
 11
-133.3430525351
 21
37.0144979459
  0
LINE
  5
410
100
AcDbEntity
  8
ASSI
100
AcDbLine
 62
7
  6
CONTINUOUS
 10
-133.1995065818
 20
37.5202855413
 11
-133.2711811463
 21
37.2700421907
  0
LINE
  5
411
100
AcDbEntity
  8
ASSI
100
AcDbLine
 62
7
  6
CONTINUOUS
 10
-133.1298975063
 20
37.7589971107
 11
-133.2004269129
 21
37.5171010759
  0
LINE
  5
412
100
AcDbEntity
  8
ASSI
100
AcDbLine
 62
7
  6
CONTINUOUS
 10
-133.0613807772
 20
37.9898674247
 11
-133.1307813858
 21
37.7559924142
  0
LINE
  5
413
100
AcDbEntity
  8
ASSI
100
AcDbLine
 62
7
  6
CONTINUOUS
 10
-132.9939350967
 20
38.2132098375
 11
-133.0622290246
 21
37.9870338385
  0
LINE
  5
414
100
AcDbEntity
  8
ASSI
100
AcDbLine
 62
7
  6
CONTINUOUS
 10
-132.9275341992
 20
38.4293324348
 11
-132.9947485823
 21
38.2105390286
  0
LINE
  5
415
100
AcDbEntity
  8
ASSI
100
AcDbLine
 62
7
  6
CONTINUOUS
 10
-132.8621475128
 20
38.6385369986
 11
-132.9283138294
 21
38.4268164067
  0
LINE
  5
416
100
AcDbEntity
  8
ASSI
100
AcDbLine
 62
7
  6
CONTINUOUS
 10
-132.7977407213
 20
38.8411183125
 11
-132.8628942162
 21
38.6361680961
  0
LINE
  5
417
100
AcDbEntity
  8
ASSI
100
AcDbLine
 62
7
  6
CONTINUOUS
 10
-132.7342762136
 20
39.0373638099
 11
-132.798455438
 21
38.8388892211
  0
LINE
  5
418
100
AcDbEntity
  8
ASSI
100
AcDbLine
 62
7
  6
CONTINUOUS
 10
-132.6717134096
 20
39.2275535531
 11
-132.734959886
 21
39.0352675511
  0
LINE
  5
419
100
AcDbEntity
  8
ASSI
100
AcDbLine
 62
7
  6
CONTINUOUS
 10
-132.6100089618
 20
39.4119605054
 11
-132.6723669753
 21
39.2255834755
  0
LINE
  5
41A
100
AcDbEntity
  8
ASSI
100
AcDbLine
 62
7
  6
CONTINUOUS
 10
-132.5497111976
 20
39.5891197522
 11
-132.6106333465
 21
39.4101102774
  0
LINE
  5
41B
100
AcDbEntity
  8
ASSI
100
AcDbLine
 62
7
  6
CONTINUOUS
 10
-132.5089388334
 20
39.7072060818
 11
-132.5592100432
 21
39.5614111453
  0
LINE
  5
41C
100
AcDbEntity
  8
ASSI
100
AcDbLine
 62
7
  6
CONTINUOUS
 10
-132.4591654082
 20
39.8494941813
 11
-132.5095167991
 21
39.7055417797
  0
LINE
  5
41D
100
AcDbEntity
  8
ASSI
100
AcDbLine
 62
7
  6
CONTINUOUS
 10
-132.4107050026
 20
39.98605541
 11
-132.4597201854
 21
39.8479195531
  0
LINE
  5
41E
100
AcDbEntity
  8
ASSI
100
AcDbLine
 62
7
  6
CONTINUOUS
 10
-132.3626823663
 20
40.1194656647
 11
-132.4101774555
 21
39.9875313345
  0
LINE
  5
41F
100
AcDbEntity
  8
ASSI
100
AcDbLine
 62
7
  6
CONTINUOUS
 10
-132.3338503732
 20
40.1986473283
 11
-132.362181661
 21
40.1208466171
  0
LINE
  5
420
100
AcDbEntity
  8
ASSI
100
AcDbLine
 62
7
  6
CONTINUOUS
 10
-132.3869922006
 20
-40.0521695643
 11
-132.3362519508
 21
-40.1920780574
  0
LINE
  5
421
100
AcDbEntity
  8
ASSI
100
AcDbLine
 62
7
  6
CONTINUOUS
 10
-132.4394354979
 20
-39.9053278083
 11
-132.3869922006
 21
-40.0521695643
  0
LINE
  5
422
100
AcDbEntity
  8
ASSI
100
AcDbLine
 62
7
  6
CONTINUOUS
 10
-132.4935703406
 20
-39.7513594319
 11
-132.4394354979
 21
-39.9053278083
  0
LINE
  5
423
100
AcDbEntity
  8
ASSI
100
AcDbLine
 62
7
  6
CONTINUOUS
 10
-132.5489903196
 20
-39.5912195396
 11
-132.4935703406
 21
-39.7513594319
  0
LINE
  5
424
100
AcDbEntity
  8
ASSI
100
AcDbLine
 62
7
  6
CONTINUOUS
 10
-132.6057051366
 20
-39.4247051769
 11
-132.5489903196
 21
-39.5912195396
  0
LINE
  5
425
100
AcDbEntity
  8
ASSI
100
AcDbLine
 62
7
  6
CONTINUOUS
 10
-132.6637785569
 20
-39.2514437997
 11
-132.6057051366
 21
-39.4247051769
  0
LINE
  5
426
100
AcDbEntity
  8
ASSI
100
AcDbLine
 62
7
  6
CONTINUOUS
 10
-132.7232085628
 20
-39.0712452705
 11
-132.6637785569
 21
-39.2514437997
  0
LINE
  5
427
100
AcDbEntity
  8
ASSI
100
AcDbLine
 62
7
  6
CONTINUOUS
 10
-132.7839680991
 20
-38.8839901248
 11
-132.7232085628
 21
-39.0712452705
  0
LINE
  5
428
100
AcDbEntity
  8
ASSI
100
AcDbLine
 62
7
  6
CONTINUOUS
 10
-132.846029119
 20
-38.6895589373
 11
-132.7839680991
 21
-38.8839901248
  0
LINE
  5
429
100
AcDbEntity
  8
ASSI
100
AcDbLine
 62
7
  6
CONTINUOUS
 10
-132.9093616572
 20
-38.4878345428
 11
-132.846029119
 21
-38.6895589373
  0
LINE
  5
42A
100
AcDbEntity
  8
ASSI
100
AcDbLine
 62
7
  6
CONTINUOUS
 10
-132.9739328462
 20
-38.2787045911
 11
-132.9093616572
 21
-38.4878345428
  0
LINE
  5
42B
100
AcDbEntity
  8
ASSI
100
AcDbLine
 62
7
  6
CONTINUOUS
 10
-133.0397051618
 20
-38.0620668665
 11
-132.9739328462
 21
-38.2787045911
  0
LINE
  5
42C
100
AcDbEntity
  8
ASSI
100
AcDbLine
 62
7
  6
CONTINUOUS
 10
-133.1066535613
 20
-37.8377712775
 11
-133.0397051618
 21
-38.0620668665
  0
LINE
  5
42D
100
AcDbEntity
  8
ASSI
100
AcDbLine
 62
7
  6
CONTINUOUS
 10
-133.1747802192
 20
-37.6055640083
 11
-133.1066535613
 21
-37.8377712775
  0
LINE
  5
42E
100
AcDbEntity
  8
ASSI
100
AcDbLine
 62
7
  6
CONTINUOUS
 10
-133.2440812016
 20
-37.3651939653
 11
-133.1747802192
 21
-37.6055640083
  0
LINE
  5
42F
100
AcDbEntity
  8
ASSI
100
AcDbLine
 62
7
  6
CONTINUOUS
 10
-133.3145417276
 20
-37.1164289854
 11
-133.2440812016
 21
-37.3651939653
  0
LINE
  5
430
100
AcDbEntity
  8
ASSI
100
AcDbLine
 62
7
  6
CONTINUOUS
 10
-133.3412581144
 20
-37.0209351215
 11
-133.3145417276
 21
-37.1164289854
  0
LINE
  5
431
100
AcDbEntity
  8
ASSI
100
AcDbLine
 62
7
  6
CONTINUOUS
 10
-134.2983308278
 20
32.9904176277
 11
-134.3452362494
 21
32.7433557622
  0
LINE
  5
432
100
AcDbEntity
  8
ASSI
100
AcDbLine
 62
7
  6
CONTINUOUS
 10
-134.2533115821
 20
33.220575052
 11
-134.2999100599
 21
32.9822242996
  0
LINE
  5
433
100
AcDbEntity
  8
ASSI
100
AcDbLine
 62
7
  6
CONTINUOUS
 10
-134.2089570401
 20
33.4413005098
 11
-134.2548575474
 21
33.2127770875
  0
LINE
  5
434
100
AcDbEntity
  8
ASSI
100
AcDbLine
 62
7
  6
CONTINUOUS
 10
-134.1656449167
 20
33.6515685527
 11
-134.2104574533
 21
33.4339258057
  0
LINE
  5
435
100
AcDbEntity
  8
ASSI
100
AcDbLine
 62
7
  6
CONTINUOUS
 10
-134.1108937373
 20
33.9105779524
 11
-134.1670921137
 21
33.6446221996
  0
LINE
  5
436
100
AcDbEntity
  8
ASSI
100
AcDbLine
 62
7
  6
CONTINUOUS
 10
-134.0681712862
 20
34.1078519466
 11
-134.1234021971
 21
33.8520380115
  0
LINE
  5
437
100
AcDbEntity
  8
ASSI
100
AcDbLine
 62
7
  6
CONTINUOUS
 10
-134.0134347451
 20
34.3549370255
 11
-134.0695363346
 21
34.1016105969
  0
LINE
  5
438
100
AcDbEntity
  8
ASSI
100
AcDbLine
 62
7
  6
CONTINUOUS
 10
-133.9589803762
 20
34.5949394033
 11
-134.0147772778
 21
34.3489488493
  0
LINE
  5
439
100
AcDbEntity
  8
ASSI
100
AcDbLine
 62
7
  6
CONTINUOUS
 10
-133.9048768078
 20
34.8281244217
 11
-133.9602990382
 21
34.5891921708
  0
LINE
  5
43A
100
AcDbEntity
  8
ASSI
100
AcDbLine
 62
7
  6
CONTINUOUS
 10
-133.8511817939
 20
35.0547511536
 11
-133.9061701495
 21
34.8226082452
  0
LINE
  5
43B
100
AcDbEntity
  8
ASSI
100
AcDbLine
 62
7
  6
CONTINUOUS
 10
-133.7847038784
 20
35.3292203013
 11
-133.8524487852
 21
35.0494560025
  0
LINE
  5
43C
100
AcDbEntity
  8
ASSI
100
AcDbLine
 62
7
  6
CONTINUOUS
 10
-133.7189930153
 20
35.5943951868
 11
-133.785936979
 21
35.3241875217
  0
LINE
  5
43D
100
AcDbEntity
  8
ASSI
100
AcDbLine
 62
7
  6
CONTINUOUS
 10
-133.6540870145
 20
35.8508048717
 11
-133.7201916507
 21
35.5896097558
  0
LINE
  5
43E
100
AcDbEntity
  8
ASSI
100
AcDbLine
 62
7
  6
CONTINUOUS
 10
-133.5900095631
 20
36.0989498245
 11
-133.6552510111
 21
35.8462524256
  0
LINE
  5
43F
100
AcDbEntity
  8
ASSI
100
AcDbLine
 62
7
  6
CONTINUOUS
 10
-133.5267685658
 20
36.3393183386
 11
-133.5911390425
 21
36.0946167926
  0
LINE
  5
440
100
AcDbEntity
  8
ASSI
100
AcDbLine
 62
7
  6
CONTINUOUS
 10
-133.4519841573
 20
36.6181292801
 11
-133.5278638448
 21
36.3351920808
  0
LINE
  5
441
100
AcDbEntity
  8
ASSI
100
AcDbLine
 62
7
  6
CONTINUOUS
 10
-133.3784004085
 20
36.8870922814
 11
-133.453038964
 21
36.6142358999
  0
LINE
  5
442
100
AcDbEntity
  8
ASSI
100
AcDbLine
 62
7
  6
CONTINUOUS
 10
-133.3420571137
 20
37.0180692119
 11
-133.3794153622
 21
36.8834170762
  0
LINE
  5
443
100
AcDbEntity
  8
ASSI
100
AcDbLine
 62
7
  6
CONTINUOUS
 10
-133.4132607871
 20
-36.7603121076
 11
-133.3412581144
 21
-37.0209351215
  0
LINE
  5
444
100
AcDbEntity
  8
ASSI
100
AcDbLine
 62
7
  6
CONTINUOUS
 10
-133.4862588282
 20
-36.4910528145
 11
-133.4132607871
 21
-36.7603121076
  0
LINE
  5
445
100
AcDbEntity
  8
ASSI
100
AcDbLine
 62
7
  6
CONTINUOUS
 10
-133.5508166688
 20
-36.248427817
 11
-133.4862588282
 21
-36.4910528145
  0
LINE
  5
446
100
AcDbEntity
  8
ASSI
100
AcDbLine
 62
7
  6
CONTINUOUS
 10
-133.6158966477
 20
-35.9992747337
 11
-133.5508166688
 21
-36.248427817
  0
LINE
  5
447
100
AcDbEntity
  8
ASSI
100
AcDbLine
 62
7
  6
CONTINUOUS
 10
-133.6813847937
 20
-35.7436069717
 11
-133.6158966477
 21
-35.9992747337
  0
LINE
  5
448
100
AcDbEntity
  8
ASSI
100
AcDbLine
 62
7
  6
CONTINUOUS
 10
-133.7471617543
 20
-35.4814347235
 11
-133.6813847937
 21
-35.7436069717
  0
LINE
  5
449
100
AcDbEntity
  8
ASSI
100
AcDbLine
 62
7
  6
CONTINUOUS
 10
-133.8036755541
 20
-35.2515501527
 11
-133.7471617543
 21
-35.4814347235
  0
LINE
  5
44A
100
AcDbEntity
  8
ASSI
100
AcDbLine
 62
7
  6
CONTINUOUS
 10
-133.8602217644
 20
-35.0169160542
 11
-133.8036755541
 21
-35.2515501527
  0
LINE
  5
44B
100
AcDbEntity
  8
ASSI
100
AcDbLine
 62
7
  6
CONTINUOUS
 10
-133.916707437
 20
-34.7775622456
 11
-133.8602217644
 21
-35.0169160542
  0
LINE
  5
44C
100
AcDbEntity
  8
0
100
AcDbLine
 62
7
  6
CONTINUOUS
 10
-135.2111910226
 20
-25.451114715
 11
-135.2111814849
 21
-25.4511556296
  0
LINE
  5
44D
100
AcDbEntity
  8
ASSI
100
AcDbLine
 62
7
  6
CONTINUOUS
 10
-133.9730323008
 20
-34.5335340945
 11
-133.916707437
 21
-34.7775622456
  0
LINE
  5
44E
100
AcDbEntity
  8
ASSI
100
AcDbLine
 62
7
  6
CONTINUOUS
 10
-134.0290883192
 20
-34.2848958866
 11
-133.9730323008
 21
-34.5335340945
  0
LINE
  5
44F
100
AcDbEntity
  8
ASSI
100
AcDbLine
 62
7
  6
CONTINUOUS
 10
-134.0755129751
 20
-34.0742367686
 11
-134.0290883192
 21
-34.2848958866
  0
LINE
  5
450
100
AcDbEntity
  8
ASSI
100
AcDbLine
 62
7
  6
CONTINUOUS
 10
-134.1215936107
 20
-33.8605248261
 11
-134.0755129751
 21
-34.0742367686
  0
LINE
  5
451
100
AcDbEntity
  8
ASSI
100
AcDbLine
 62
7
  6
CONTINUOUS
 10
-134.16720802
 20
-33.6440656334
 11
-134.1215936107
 21
-33.8605248261
  0
LINE
  5
452
100
AcDbEntity
  8
ASSI
100
AcDbLine
 62
7
  6
CONTINUOUS
 10
-134.2122758901
 20
-33.4249795909
 11
-134.16720802
 21
-33.6440656334
  0
LINE
  5
453
100
AcDbEntity
  8
ASSI
100
AcDbLine
 62
7
  6
CONTINUOUS
 10
-134.2567350225
 20
-33.2032971615
 11
-134.2122758901
 21
-33.4249795909
  0
LINE
  5
454
100
AcDbEntity
  8
ASSI
100
AcDbLine
 62
7
  6
CONTINUOUS
 10
-134.3005531632
 20
-32.9788853624
 11
-134.2567350225
 21
-33.2032971615
  0
LINE
  5
455
100
AcDbEntity
  8
ASSI
100
AcDbLine
 62
7
  6
CONTINUOUS
 10
-134.3351222452
 20
-32.7972959656
 11
-134.3005531632
 21
-32.9788853624
  0
LINE
  5
456
100
AcDbEntity
  8
ASSI
100
AcDbLine
 62
7
  6
CONTINUOUS
 10
-134.8521380746
 20
-29.2256366989
 11
-134.8229801477
 21
-29.4974418402
  0
LINE
  5
457
100
AcDbEntity
  8
ASSI
100
AcDbLine
 62
7
  6
CONTINUOUS
 10
-134.8800369963
 20
-28.952049093
 11
-134.8521380746
 21
-29.2256366989
  0
LINE
  5
458
100
AcDbEntity
  8
ASSI
100
AcDbLine
 62
7
  6
CONTINUOUS
 10
-134.906669279
 20
-28.6771637483
 11
-134.8800369963
 21
-28.952049093
  0
LINE
  5
459
100
AcDbEntity
  8
ASSI
100
AcDbLine
 62
7
  6
CONTINUOUS
 10
-134.932032417
 20
-28.4015577159
 11
-134.906669279
 21
-28.6771637483
  0
LINE
  5
45A
100
AcDbEntity
  8
ASSI
100
AcDbLine
 62
7
  6
CONTINUOUS
 10
-134.8934353967
 20
28.8155229193
 11
-134.9267885347
 21
28.4597146841
  0
LINE
  5
45B
100
AcDbEntity
  8
ASSI
100
AcDbLine
 62
7
  6
CONTINUOUS
 10
-134.8599912992
 20
29.1500246126
 11
-134.8947327911
 21
28.8021159208
  0
LINE
  5
45C
100
AcDbEntity
  8
ASSI
100
AcDbLine
 62
7
  6
CONTINUOUS
 10
-134.8266153507
 20
29.4642917723
 11
-134.861331861
 21
29.1370104882
  0
LINE
  5
45D
100
AcDbEntity
  8
ASSI
100
AcDbLine
 62
7
  6
CONTINUOUS
 10
-134.8013427622
 20
29.6906764294
 11
-134.8369642474
 21
29.3687908151
  0
LINE
  5
45E
100
AcDbEntity
  8
ASSI
100
AcDbLine
 62
7
  6
CONTINUOUS
 10
-134.7768843996
 20
29.9011723169
 11
-134.8027517179
 21
29.6783002854
  0
LINE
  5
45F
100
AcDbEntity
  8
ASSI
100
AcDbLine
 62
7
  6
CONTINUOUS
 10
-134.7518746912
 20
30.1084006473
 11
-134.7783189702
 21
29.8890463948
  0
LINE
  5
460
100
AcDbEntity
  8
ASSI
100
AcDbLine
 62
7
  6
CONTINUOUS
 10
-134.7263427451
 20
30.3122772478
 11
-134.7533332073
 21
30.0965260497
  0
LINE
  5
461
100
AcDbEntity
  8
ASSI
100
AcDbLine
 62
7
  6
CONTINUOUS
 10
-134.7003219095
 20
30.5127157123
 11
-134.7278228904
 21
30.3006586691
  0
LINE
  5
462
100
AcDbEntity
  8
ASSI
100
AcDbLine
 62
7
  6
CONTINUOUS
 10
-134.6738424028
 20
30.709680855
 11
-134.7018213219
 21
30.5013564456
  0
LINE
  5
463
100
AcDbEntity
  8
ASSI
100
AcDbLine
 62
7
  6
CONTINUOUS
 10
-134.6469421164
 20
30.9031194438
 11
-134.6753587811
 21
30.6985823656
  0
LINE
  5
464
100
AcDbEntity
  8
ASSI
100
AcDbLine
 62
7
  6
CONTINUOUS
 10
-134.619639731
 20
31.093177514
 11
-134.6484733755
 21
30.8922781155
  0
LINE
  5
465
100
AcDbEntity
  8
ASSI
100
AcDbLine
 62
7
  6
CONTINUOUS
 10
-134.591961404
 20
31.2799434982
 11
-134.6211841669
 21
31.0825855121
  0
LINE
  5
466
100
AcDbEntity
  8
ASSI
100
AcDbLine
 62
7
  6
CONTINUOUS
 10
-134.5639218552
 20
31.4635677299
 11
-134.5935176476
 21
31.2695917739
  0
LINE
  5
467
100
AcDbEntity
  8
ASSI
100
AcDbLine
 62
7
  6
CONTINUOUS
 10
-134.5227983114
 20
31.7236077334
 11
-134.5654886166
 21
31.453447893
  0
LINE
  5
468
100
AcDbEntity
  8
ASSI
100
AcDbLine
 62
7
  6
CONTINUOUS
 10
-134.4923374775
 20
31.9097230914
 11
-134.5355344355
 21
31.6441908761
  0
LWPOLYLINE
  5
469
100
AcDbEntity
  8
RACCORDO
100
AcDbPolyline
 62
7
  6
CONTINUOUS
 90
3
 70
0
 10
-135.1402452445
 20
25.449964986
 10
-135.1547238298
 20
25.3642032628
 10
-135.4963580167
 20
23.1202380772
  0
LINE
  5
46A
100
AcDbEntity
  8
ASSI
100
AcDbLine
 62
7
  6
CONTINUOUS
 10
-134.4500303039
 20
32.159879342
 11
-134.4939256927
 21
31.9001477983
  0
LINE
  5
46B
100
AcDbEntity
  8
ASSI
100
AcDbLine
 62
7
  6
CONTINUOUS
 10
-134.4187870761
 20
32.3388854818
 11
-134.4631451363
 21
32.0833213501
  0
LINE
  5
46C
100
AcDbEntity
  8
ASSI
100
AcDbLine
 62
7
  6
CONTINUOUS
 10
-134.3738193097
 20
32.5888066617
 11
-134.4203911056
 21
32.3298069955
  0
LINE
  5
46D
100
AcDbEntity
  8
ASSI
100
AcDbLine
 62
7
  6
CONTINUOUS
 10
-134.3436364701
 20
32.751913065
 11
-134.3754253784
 21
32.5800269752
  0
LWPOLYLINE
  5
46E
100
AcDbEntity
  8
0
100
AcDbPolyline
 62
7
  6
CONTINUOUS
 90
3
 70
0
 43
0.3500000006
 10
-122.5127628479
 20
51.9857129974
 10
-122.5841940308
 20
51.7714285126
 10
-122.7270473328
 20
51.4857128448
  0
LINE
  5
46F
100
AcDbEntity
  8
ASSI
100
AcDbLine
 62
7
  6
CONTINUOUS
 10
-134.369235611
 20
-32.6138066548
 11
-134.3351222452
 21
-32.7972959656
  0
LINE
  5
470
100
AcDbEntity
  8
ASSI
100
AcDbLine
 62
7
  6
CONTINUOUS
 10
-134.4028679804
 20
-32.4283571954
 11
-134.369235611
 21
-32.6138066548
  0
LINE
  5
471
100
AcDbEntity
  8
0
100
AcDbLine
 62
7
  6
CONTINUOUS
 10
-135.1401202931
 20
-25.4521377757
 11
-135.1402975134
 21
-25.4511444712
  0
LINE
  5
472
100
AcDbEntity
  8
ASSI
100
AcDbLine
 62
7
  6
CONTINUOUS
 10
-134.4359902365
 20
-32.2408966805
 11
-134.4028679804
 21
-32.4283571954
  0
LINE
  5
473
100
AcDbEntity
  8
ASSI
100
AcDbLine
 62
7
  6
CONTINUOUS
 10
-134.4685741308
 20
-32.0513745516
 11
-134.4359902365
 21
-32.2408966805
  0
LINE
  5
474
100
AcDbEntity
  8
0
100
AcDbLine
 62
7
  6
CONTINUOUS
 10
-135.2110484543
 20
-25.4519407035
 11
-135.2107376576
 21
-25.4537684926
  0
LINE
  5
475
100
AcDbEntity
  8
ASSI
100
AcDbLine
 62
7
  6
CONTINUOUS
 10
-134.5006024412
 20
-31.8597419142
 11
-134.4685741308
 21
-32.0513745516
  0
LWPOLYLINE
  5
476
100
AcDbEntity
  8
0
100
AcDbPolyline
 62
7
  6
CONTINUOUS
 90
3
 70
0
 10
-135.2096027665
 20
-25.4607780076
 10
-135.2075915102
 20
-25.4728961209
 10
-135.2062365824
 20
-25.4813559201
  0
LWPOLYLINE
  5
477
100
AcDbEntity
  8
0
100
AcDbPolyline
 62
7
  6
CONTINUOUS
 90
3
 70
0
 10
-135.2062365824
 20
-25.4813559201
 10
-135.2000897527
 20
-25.5187788204
 10
-135.0996998594
 20
-26.1318072507
  0
LINE
  5
478
100
AcDbEntity
  8
0
100
AcDbLine
 62
7
  6
CONTINUOUS
 10
-135.2107376576
 20
-25.4537684926
 11
-135.2096027665
 21
-25.4607780076
  0
LINE
  5
479
100
AcDbEntity
  8
ASSI
100
AcDbLine
 62
7
  6
CONTINUOUS
 10
-134.53205946
 20
-31.6659560645
 11
-134.5006024412
 21
-31.8597419142
  0
LINE
  5
47A
100
AcDbEntity
  8
0
100
AcDbLine
 62
7
  6
CONTINUOUS
 10
-135.1406928599
 20
-25.4512076881
 11
-135.2602053596
 21
-24.6966852452
  0
LINE
  5
47B
100
AcDbEntity
  8
ASSI
100
AcDbLine
 62
7
  6
CONTINUOUS
 10
-134.5629290414
 20
-31.4699720189
 11
-134.53205946
 21
-31.6659560645
  0
LINE
  5
47C
100
AcDbEntity
  8
0
100
AcDbLine
 62
7
  6
CONTINUOUS
 10
-135.2602053596
 20
-24.6966852452
 11
-135.3803187558
 21
-23.9099499376
  0
LINE
  5
47D
100
AcDbEntity
  8
ASSI
100
AcDbLine
 62
7
  6
CONTINUOUS
 10
-134.5931946673
 20
-31.2717415794
 11
-134.5629290414
 21
-31.4699720189
  0
LINE
  5
47E
100
AcDbEntity
  8
ASSI
100
AcDbLine
 62
7
  6
CONTINUOUS
 10
-134.6228386097
 20
-31.0712184253
 11
-134.5931946673
 21
-31.2717415794
  0
LINE
  5
47F
100
AcDbEntity
  8
0
100
AcDbLine
 62
7
  6
CONTINUOUS
 10
-135.3803187558
 20
-23.9099499376
 11
-135.4963580167
 21
-23.1202380772
  0
LINE
  5
480
100
AcDbEntity
  8
0
100
AcDbLine
 62
7
  6
CONTINUOUS
 10
-135.1402975134
 20
-25.4511444712
 11
-135.1400984601
 21
-25.4525147965
  0
LINE
  5
481
100
AcDbEntity
  8
ASSI
100
AcDbLine
 62
7
  6
CONTINUOUS
 10
-134.6518421269
 20
-30.868356913
 11
-134.6228386097
 21
-31.0712184253
  0
LINE
  5
482
100
AcDbEntity
  8
ASSI
100
AcDbLine
 62
7
  6
CONTINUOUS
 10
-134.6801852568
 20
-30.6631136833
 11
-134.6518421269
 21
-30.868356913
  0
LINE
  5
483
100
AcDbEntity
  8
ASSI
100
AcDbLine
 62
7
  6
CONTINUOUS
 10
-134.7078366301
 20
-30.4555556948
 11
-134.6801852568
 21
-30.6631136833
  0
LINE
  5
484
100
AcDbEntity
  8
ASSI
100
AcDbLine
 62
7
  6
CONTINUOUS
 10
-134.7347632041
 20
-30.24585664
 11
-134.7078366301
 21
-30.4555556948
  0
LINE
  5
485
100
AcDbEntity
  8
ASSI
100
AcDbLine
 62
7
  6
CONTINUOUS
 10
-134.7609390349
 20
-30.034187745
 11
-134.7347632041
 21
-30.24585664
  0
LINE
  5
486
100
AcDbEntity
  8
ASSI
100
AcDbLine
 62
7
  6
CONTINUOUS
 10
-134.7863450309
 20
-29.8207070254
 11
-134.7609390349
 21
-30.034187745
  0
LINE
  5
487
100
AcDbEntity
  8
ASSI
100
AcDbLine
 62
7
  6
CONTINUOUS
 10
-134.8109669943
 20
-29.6055729631
 11
-134.7863450309
 21
-29.8207070254
  0
LINE
  5
488
100
AcDbEntity
  8
ASSI
100
AcDbLine
 62
7
  6
CONTINUOUS
 10
-134.8229801477
 20
-29.4974418402
 11
-134.8109669943
 21
-29.6055729631
  0
LWPOLYLINE
  5
489
100
AcDbEntity
  8
ASSI
100
AcDbPolyline
 62
250
  6
CONTINUOUS
 90
22
 70
0
 10
-131.1260562268
 20
-42.4458642881
 10
-131.1222856235
 20
-42.4806924537
 10
-131.1160883049
 20
-42.5151706619
 10
-131.1074946941
 20
-42.5491296567
 10
-131.0965469775
 20
-42.582402731
 10
-131.0832988983
 20
-42.6148265446
 10
-131.0678154923
 20
-42.6462419262
 10
-131.0501727689
 20
-42.6764946551
 10
-131.0304573373
 20
-42.7054362186
 10
-131.0087659821
 20
-42.7329245403
 10
-130.9852051878
 20
-42.7588246781
 10
-130.9598906161
 20
-42.7830094862
 10
-130.932946538
 20
-42.8053602395
 10
-130.904505224
 20
-42.8257672165
 10
-130.8747062946
 20
-42.8441302378
 10
-130.8436960351
 20
-42.8603591579
 10
-130.8116266784
 20
-42.8743743073
 10
-130.7786556541
 20
-42.8861068851
 10
-130.7449448153
 20
-42.8954992964
 10
-130.7106596495
 20
-42.9025054322
 10
-130.6759684665
 20
-42.9070908977
 10
-130.6410415677
 20
-42.9092331816
  0
LINE
  5
48A
100
AcDbEntity
  8
ASSI
100
AcDbLine
 62
7
  6
CONTINUOUS
 10
-134.9561712331
 20
-28.1254178764
 11
-134.932032417
 21
-28.4015577159
  0
LINE
  5
48B
100
AcDbEntity
  8
ASSI
100
AcDbLine
 62
7
  6
CONTINUOUS
 10
-134.9835394245
 20
-27.7942897265
 11
-134.9561712331
 21
-28.1254178764
  0
LINE
  5
48C
100
AcDbEntity
  8
ASSI
100
AcDbLine
 62
7
  6
CONTINUOUS
 10
-135.0091587
 20
-27.4651777174
 11
-134.9835394245
 21
-27.7942897265
  0
LINE
  5
48D
100
AcDbEntity
  8
ASSI
100
AcDbLine
 62
7
  6
CONTINUOUS
 10
-135.0621851351
 20
-26.71800296
 11
-135.0091587
 21
-27.4651777174
  0
LINE
  5
48E
100
AcDbEntity
  8
ASSI
100
AcDbLine
 62
7
  6
CONTINUOUS
 10
-135.2144443489
 20
-24.1958251149
 11
-135.2107551249
 21
-24.2511623504
  0
LINE
  5
48F
100
AcDbEntity
  8
ASSI
100
AcDbLine
 62
7
  6
CONTINUOUS
 10
-135.0993731193
 20
-26.1371077534
 11
-135.0621851351
 21
-26.71800296
  0
LINE
  5
490
100
AcDbEntity
  8
ASSI
100
AcDbLine
 62
7
  6
CONTINUOUS
 10
-135.2107551249
 20
-24.2511623504
 11
-135.1980512905
 21
-24.4543506167
  0
LWPOLYLINE
  5
491
100
AcDbEntity
  8
ASSI
100
AcDbPolyline
 62
7
  6
CONTINUOUS
 90
3
 70
0
 10
-135.1980512905
 20
-24.4543506167
 10
-135.1590380644
 20
-25.1233451461
 10
-135.0973558419
 20
-26.1698318526
  0
LINE
  5
492
100
AcDbEntity
  8
RACCORDO
100
AcDbLine
 62
7
  6
CONTINUOUS
 10
-135.2535577044
 20
-21.3842100074
 11
-135.2161876825
 21
-22.5087528239
  0
LINE
  5
493
100
AcDbEntity
  8
RACCORDO
100
AcDbLine
 62
7
  6
CONTINUOUS
 10
-135.2161876825
 20
-22.5087528239
 11
-135.2108694335
 21
-22.698266653
  0
LINE
  5
494
100
AcDbEntity
  8
RACCORDO
100
AcDbLine
 62
7
  6
CONTINUOUS
 10
-135.2108694335
 20
-22.698266653
 11
-135.2080311641
 21
-22.817904452
  0
LINE
  5
495
100
AcDbEntity
  8
RACCORDO
100
AcDbLine
 62
7
  6
CONTINUOUS
 10
-135.2057319704
 20
23.0245490614
 11
-135.2056550134
 21
23.0211026545
  0
LINE
  5
496
100
AcDbEntity
  8
RACCORDO
100
AcDbLine
 62
7
  6
CONTINUOUS
 10
-135.2080311641
 20
-22.817904452
 11
-135.2065277709
 21
-22.8960524685
  0
LINE
  5
497
100
AcDbEntity
  8
RACCORDO
100
AcDbLine
 62
250
  6
CONTINUOUS
 10
-135.2064953358
 20
-22.8926890933
 11
-135.2065277709
 21
-22.8960524685
  0
LINE
  5
498
100
AcDbEntity
  8
RACCORDO
100
AcDbLine
 62
250
  6
CONTINUOUS
 10
-135.2062886633
 20
-22.9110260216
 11
-135.2060064332
 21
-22.9230485639
  0
LINE
  5
499
100
AcDbEntity
  8
RACCORDO
100
AcDbLine
 62
7
  6
CONTINUOUS
 10
-135.2056550134
 20
23.0211026545
 11
-135.2055813316
 21
23.0163080848
  0
LINE
  5
49A
100
AcDbEntity
  8
RACCORDO
100
AcDbLine
 62
7
  6
CONTINUOUS
 10
-135.2065277709
 20
-22.8960524685
 11
-135.2058279522
 21
-22.9446777863
  0
LINE
  5
49B
100
AcDbEntity
  8
RACCORDO
100
AcDbLine
 62
7
  6
CONTINUOUS
 10
-135.2055813316
 20
23.0163080848
 11
-135.2055228517
 21
23.0102362367
  0
LINE
  5
49C
100
AcDbEntity
  8
RACCORDO
100
AcDbLine
 62
7
  6
CONTINUOUS
 10
-135.2058279522
 20
-22.9446777863
 11
-135.2055635879
 21
-22.9728748327
  0
LINE
  5
49D
100
AcDbEntity
  8
RACCORDO
100
AcDbLine
 62
250
  6
CONTINUOUS
 10
-135.2054823287
 20
-22.9916024068
 11
-135.2052569322
 21
-22.9988673991
  0
LWPOLYLINE
  5
49E
100
AcDbEntity
  8
RACCORDO
100
AcDbPolyline
 62
250
  6
CONTINUOUS
 90
3
 70
0
 10
-135.2073414551
 20
23.062993758
 10
-135.2072072606
 20
23.0376604572
 10
-135.2056405066
 20
23.0202524126
  0
LINE
  5
49F
100
AcDbEntity
  8
RACCORDO
100
AcDbLine
 62
7
  6
CONTINUOUS
 10
-135.2055635879
 20
-22.9728748327
 11
-135.2054823287
 21
-22.9916024068
  0
LWPOLYLINE
  5
4A0
100
AcDbEntity
  8
RACCORDO
100
AcDbPolyline
 62
7
  6
CONTINUOUS
 90
10
 70
0
 10
-135.5604252408
 20
-0.0000000002
 10
-135.5553423976
 20
-2.5501800378
 10
-135.5406551884
 20
-5.1460858616
 10
-135.518132931
 20
-7.7070909306
 10
-135.4894173195
 20
-10.233259062
 10
-135.4556025471
 20
-12.7246592368
 10
-135.414494063
 20
-15.1813150248
 10
-135.362687914
 20
-17.6030543779
 10
-135.2975321977
 20
-19.9896465459
 10
-135.2536506926
 20
-21.3841986596
  0
LINE
  5
4A1
100
AcDbEntity
  8
RACCORDO
100
AcDbLine
 62
7
  6
CONTINUOUS
 10
-135.2055228517
 20
23.0102362367
 11
-135.2054794691
 21
22.9989529322
  0
LWPOLYLINE
  5
4A2
100
AcDbEntity
  8
RACCORDO
100
AcDbPolyline
 62
250
  6
CONTINUOUS
 90
7
 70
0
 10
-135.2055014725
 20
-23.0067580788
 10
-135.205271611
 20
-23.0180852171
 10
-135.2054189973
 20
-23.0342041765
 10
-135.2056993183
 20
-23.0467972609
 10
-135.2061130007
 20
-23.0557220909
 10
-135.2066603329
 20
-23.0611209341
 10
-135.2073414551
 20
-23.062993758
  0
LINE
  5
4A3
100
AcDbEntity
  8
RACCORDO
100
AcDbLine
 62
7
  6
CONTINUOUS
 10
-135.2054823287
 20
-22.9916024068
 11
-135.2054878712
 21
-23.0033188575
  0
LINE
  5
4A4
100
AcDbEntity
  8
RACCORDO
100
AcDbLine
 62
7
  6
CONTINUOUS
 10
-135.2054794691
 20
22.9989529322
 11
-135.2054991053
 21
22.9851777158
  0
LINE
  5
4A5
100
AcDbEntity
  8
RACCORDO
100
AcDbLine
 62
250
  6
CONTINUOUS
 10
-135.2052478188
 20
23.0033179876
 11
-135.2054991053
 21
22.9851777158
  0
LWPOLYLINE
  5
4A6
100
AcDbEntity
  8
RACCORDO
100
AcDbPolyline
 62
250
  6
CONTINUOUS
 90
3
 70
0
 10
-135.2073414551
 20
-23.062993758
 10
-135.2072072712
 20
-23.0376606794
 10
-135.2056393803
 20
-23.020239796
  0
LINE
  5
4A7
100
AcDbEntity
  8
RACCORDO
100
AcDbLine
 62
250
  6
CONTINUOUS
 10
-135.5551454465
 20
2.6002390231
 11
-135.555198553
 21
2.5233007775
  0
LINE
  5
4A8
100
AcDbEntity
  8
RACCORDO
100
AcDbLine
 62
7
  6
CONTINUOUS
 10
-135.2054991053
 20
22.9851777158
 11
-135.2056381429
 21
22.9631996574
  0
LINE
  5
4A9
100
AcDbEntity
  8
RACCORDO
100
AcDbLine
 62
7
  6
CONTINUOUS
 10
-135.2054878712
 20
-23.0033188575
 11
-135.205544655
 21
-23.0129391908
  0
LINE
  5
4AA
100
AcDbEntity
  8
RACCORDO
100
AcDbLine
 62
250
  6
CONTINUOUS
 10
-135.2053369101
 20
22.9823485335
 11
-135.2056381429
 21
22.9631996574
  0
LINE
  5
4AB
100
AcDbEntity
  8
RACCORDO
100
AcDbLine
 62
7
  6
CONTINUOUS
 10
-135.2056381429
 20
22.9631996574
 11
-135.2060168904
 21
22.9298312615
  0
LINE
  5
4AC
100
AcDbEntity
  8
RACCORDO
100
AcDbLine
 62
7
  6
CONTINUOUS
 10
-135.205544655
 20
-23.0129391908
 11
-135.205605186
 21
-23.0180976287
  0
LINE
  5
4AD
100
AcDbEntity
  8
RACCORDO
100
AcDbLine
 62
250
  6
CONTINUOUS
 10
-135.2058830166
 20
22.9315994983
 11
-135.2060168904
 21
22.9298312615
  0
LINE
  5
4AE
100
AcDbEntity
  8
RACCORDO
100
AcDbLine
 62
250
  6
CONTINUOUS
 10
-135.2062335774
 20
22.9146306034
 11
-135.2063374128
 21
22.9020907506
  0
LINE
  5
4AF
100
AcDbEntity
  8
RACCORDO
100
AcDbLine
 62
7
  6
CONTINUOUS
 10
-135.2060168904
 20
22.9298312615
 11
-135.206946819
 21
22.8721049159
  0
LWPOLYLINE
  5
4B0
100
AcDbEntity
  8
RACCORDO
100
AcDbPolyline
 62
7
  6
CONTINUOUS
 90
3
 70
0
 10
-135.205605186
 20
-23.0180976287
 10
-135.2056762291
 20
-23.0221773196
 10
-135.205712492
 20
-23.0237865465
  0
LINE
  5
4B1
100
AcDbEntity
  8
RACCORDO
100
AcDbLine
 62
7
  6
CONTINUOUS
 10
-135.206946819
 20
22.8721049159
 11
-135.2088954352
 21
22.7789462854
  0
LINE
  5
4B2
100
AcDbEntity
  8
RACCORDO
100
AcDbLine
 62
250
  6
CONTINUOUS
 10
-135.2083974448
 20
22.7982598084
 11
-135.2088954352
 21
22.7789462854
  0
LINE
  5
4B3
100
AcDbEntity
  8
RACCORDO
100
AcDbLine
 62
250
  6
CONTINUOUS
 10
-135.2091667424
 20
22.7672854882
 11
-135.2093088658
 21
22.7589304651
  0
LWPOLYLINE
  5
4B4
100
AcDbEntity
  8
RACCORDO
100
AcDbPolyline
 62
7
  6
CONTINUOUS
 90
9
 70
0
 10
-135.2960242997
 20
20.0396657541
 10
-135.360686783
 20
17.6856161838
 10
-135.41252232
 20
15.2855629477
 10
-135.4538814429
 20
12.839754308
 10
-135.4879786868
 20
10.3483569485
 10
-135.517064205
 20
7.811368386
 10
-135.5400462535
 20
5.2286803385
 10
-135.5551454465
 20
2.6002390231
 10
-135.5604252408
 20
-0.0000000002
  0
LINE
  5
4B5
100
AcDbEntity
  8
RACCORDO
100
AcDbLine
 62
7
  6
CONTINUOUS
 10
-135.2088954352
 20
22.7789462854
 11
-135.2129119116
 21
22.6218062654
  0
LINE
  5
4B6
100
AcDbEntity
  8
RACCORDO
100
AcDbLine
 62
250
  6
CONTINUOUS
 10
-135.2127272435
 20
22.6269675927
 11
-135.2129119116
 21
22.6218062654
  0
LINE
  5
4B7
100
AcDbEntity
  8
RACCORDO
100
AcDbLine
 62
7
  6
CONTINUOUS
 10
-135.2129119116
 20
22.6218062654
 11
-135.2197644544
 21
22.3941017916
  0
LINE
  5
4B8
100
AcDbEntity
  8
RACCORDO
100
AcDbLine
 62
7
  6
CONTINUOUS
 10
-135.2197644544
 20
22.3941017916
 11
-135.2960242997
 21
20.0396657541
  0
LINE
  5
4B9
100
AcDbEntity
  8
ASSI
100
AcDbLine
 62
7
  6
CONTINUOUS
 10
-135.089997773
 20
26.2879687702
 11
-135.200428067
 21
24.4153638923
  0
LINE
  5
4BA
100
AcDbEntity
  8
ASSI
100
AcDbLine
 62
7
  6
CONTINUOUS
 10
-135.200428067
 20
24.4153638923
 11
-135.2116454294
 21
24.2375526425
  0
LINE
  5
4BB
100
AcDbEntity
  8
ASSI
100
AcDbLine
 62
7
  6
CONTINUOUS
 10
-135.05433209
 20
26.8346081408
 11
-135.090821061
 21
26.2748389931
  0
LINE
  5
4BC
100
AcDbEntity
  8
ASSI
100
AcDbLine
 62
7
  6
CONTINUOUS
 10
-135.2116454294
 20
24.2375526425
 11
-135.2142738594
 21
24.1982883371
  0
LINE
  5
4BD
100
AcDbEntity
  8
ASSI
100
AcDbLine
 62
7
  6
CONTINUOUS
 10
-135.0216352915
 20
27.2976683267
 11
-135.055288646
 21
26.8205182693
  0
LINE
  5
4BE
100
AcDbEntity
  8
ASSI
100
AcDbLine
 62
7
  6
CONTINUOUS
 10
-134.9948162944
 20
27.6518120822
 11
-135.0226932608
 21
27.2832371187
  0
LINE
  5
4BF
100
AcDbEntity
  8
ASSI
100
AcDbLine
 62
7
  6
CONTINUOUS
 10
-134.9661823842
 20
28.0066156328
 11
-134.9959428734
 21
27.637375154
  0
LINE
  5
4C0
100
AcDbEntity
  8
ASSI
100
AcDbLine
 62
7
  6
CONTINUOUS
 10
-134.9359396779
 20
28.3578107559
 11
-134.9673697373
 21
27.9923512179
  0
LINE
  5
4C1
100
AcDbEntity
  8
ASSI
100
AcDbLine
 62
7
  6
CONTINUOUS
 10
-134.9255359205
 20
28.4735138525
 11
-134.9371771851
 21
28.3438805472
  0
LINE
  5
4C2
100
AcDbEntity
  8
RACCORDO
100
AcDbLine
 62
7
  6
CONTINUOUS
 10
-127.0842195812
 20
-3.6023718431
 11
-128.8894549709
 21
-3.5551000908
  0
LINE
  5
4C3
100
AcDbEntity
  8
RACCORDO
100
AcDbLine
 62
7
  6
CONTINUOUS
 10
-135.2057999302
 20
23.0267439346
 11
-135.2058039669
 21
23.0268267338
  0
LWPOLYLINE
  5
4C4
100
AcDbEntity
  8
RACCORDO
100
AcDbPolyline
 62
7
  6
CONTINUOUS
 90
4
 70
0
 10
-135.2058051649
 20
23.0268464005
 10
-135.2057936669
 20
23.026550987
 10
-135.205766135
 20
23.0257346999
 10
-135.2057319704
 20
23.0245490614
  0
LINE
  5
4C5
100
AcDbEntity
  8
ASSI
100
AcDbLine
 62
250
  6
CONTINUOUS
 10
-130.6562703113
 20
-41.677255036
 11
-130.6396870547
 21
-42.1095427908
  0
LINE
  5
4C6
100
AcDbEntity
  8
ASSI
100
AcDbLine
 62
250
  6
CONTINUOUS
 10
-131.1399914757
 20
-41.6945346951
 11
-131.1239993105
 21
-42.1503222186
  0
LINE
  5
4C7
100
AcDbEntity
  8
ASSI
100
AcDbLine
 62
250
  6
CONTINUOUS
 10
-131.1227968727
 20
-42.1896857417
 11
-131.1239993105
 21
-42.1503222186
  0
LWPOLYLINE
  5
4C8
100
AcDbEntity
  8
ASSI
100
AcDbPolyline
 62
250
  6
CONTINUOUS
 90
3
 70
0
 10
-130.6776159375
 20
-40.9632486509
 10
-130.6709705788
 20
-41.2099550728
 10
-130.6562703113
 20
-41.677255036
  0
LINE
  5
4C9
100
AcDbEntity
  8
ASSI
100
AcDbLine
 62
250
  6
CONTINUOUS
 10
-131.1531349486
 20
-41.2239795255
 11
-131.1399914757
 21
-41.6945346951
  0
LINE
  5
4CA
100
AcDbEntity
  8
ASSI
100
AcDbLine
 62
250
  6
CONTINUOUS
 10
-131.1219027928
 20
-42.2284018564
 11
-131.1227968727
 21
-42.1896857417
  0
LINE
  5
4CB
100
AcDbEntity
  8
ASSI
100
AcDbLine
 62
250
  6
CONTINUOUS
 10
-131.1641422735
 20
-40.7169224229
 11
-131.1531349486
 21
-41.2239795255
  0
LINE
  5
4CC
100
AcDbEntity
  8
ASSI
100
AcDbLine
 62
250
  6
CONTINUOUS
 10
-131.1731585807
 20
-40.1666047453
 11
-131.1641422735
 21
-40.7169224229
  0
LINE
  5
4CD
100
AcDbEntity
  8
ASSI
100
AcDbLine
 62
250
  6
CONTINUOUS
 10
-131.1212924825
 20
-42.2655730995
 11
-131.1219027928
 21
-42.2284018564
  0
LINE
  5
4CE
100
AcDbEntity
  8
ASSI
100
AcDbLine
 62
250
  6
CONTINUOUS
 10
-131.1644165032
 20
40.7027303749
 11
-131.1746081962
 21
40.060267128
  0
LINE
  5
4CF
100
AcDbEntity
  8
ASSI
100
AcDbLine
 62
250
  6
CONTINUOUS
 10
-131.1219030478
 20
42.2283936159
 11
-131.1212925243
 21
42.2655700151
  0
LINE
  5
4D0
100
AcDbEntity
  8
ASSI
100
AcDbLine
 62
250
  6
CONTINUOUS
 10
-131.1509537359
 20
41.3102664754
 11
-131.1644165032
 21
40.7027303749
  0
LINE
  5
4D1
100
AcDbEntity
  8
ASSI
100
AcDbLine
 62
250
  6
CONTINUOUS
 10
-131.1227968946
 20
42.1896849203
 11
-131.1219030478
 21
42.2283936159
  0
LWPOLYLINE
  5
4D2
100
AcDbEntity
  8
RACCORDO
100
AcDbPolyline
 62
7
  6
CONTINUOUS
 90
3
 70
0
 10
-135.2057472465
 20
-23.0251050251
 10
-135.2057760829
 20
-23.0260497473
 10
-135.2057970818
 20
-23.0266505587
  0
LINE
  5
4D3
100
AcDbEntity
  8
ASSI
100
AcDbLine
 62
250
  6
CONTINUOUS
 10
-131.1342808698
 20
41.8687126014
 11
-131.1509537359
 21
41.3102664754
  0
LWPOLYLINE
  5
4D4
100
AcDbEntity
  8
ASSI
100
AcDbPolyline
 62
250
  6
CONTINUOUS
 90
3
 70
0
 10
-131.1342808698
 20
41.8687126014
 10
-131.123996413
 20
42.1504124495
 10
-131.1227968946
 20
42.1896849203
  0
LWPOLYLINE
  5
4D5
100
AcDbEntity
  8
ASSI
100
AcDbPolyline
 62
250
  6
CONTINUOUS
 90
4
 70
0
 10
-130.6396596005
 20
42.1095435097
 10
-130.6500220899
 20
41.8500056022
 10
-130.6596351486
 20
41.578719251
 10
-130.6766378942
 20
40.9995990987
  0
LINE
  5
4D6
100
AcDbEntity
  8
RACCORDO
100
AcDbLine
 62
250
  6
CONTINUOUS
 10
-135.5601729016
 20
0.0
 11
-131.2311036968
 21
0.0
  0
LINE
  5
4D7
100
AcDbEntity
  8
ASSI
100
AcDbLine
 62
250
  6
CONTINUOUS
 10
-130.7698737434
 20
0.0
 11
-131.2311036968
 21
0.0
  0
LINE
  5
4D8
100
AcDbEntity
  8
ASSI
100
AcDbLine
 62
250
  6
CONTINUOUS
 10
-130.6893878721
 20
-40.4373993856
 11
-130.6776159375
 21
-40.9632486509
  0
LINE
  5
4D9
100
AcDbEntity
  8
ASSI
100
AcDbLine
 62
250
  6
CONTINUOUS
 10
-130.6991076634
 20
-39.8681212659
 11
-130.6893878721
 21
-40.4373993856
  0
LWPOLYLINE
  5
4DA
100
AcDbEntity
  8
ASSI
100
AcDbPolyline
 62
250
  6
CONTINUOUS
 90
12
 70
0
 10
-131.1209331313
 20
42.3622930066
 10
-131.1210736116
 20
42.375545543
 10
-131.1212704752
 20
42.3877562739
 10
-131.121527517
 20
42.3989144411
 10
-131.1218465101
 20
42.4090314935
 10
-131.1222276443
 20
42.417972198
 10
-131.1226769115
 20
42.4257216956
 10
-131.1231982522
 20
42.4322960367
 10
-131.1237913645
 20
42.4376066514
 10
-131.1244607176
 20
42.441624554
 10
-131.1252145005
 20
42.4443802205
 10
-131.1260589736
 20
42.4458743809
  0
LINE
  5
4DB
100
AcDbEntity
  8
ASSI
100
AcDbLine
 62
250
  6
CONTINUOUS
 10
-130.7096595247
 20
-38.9314230482
 11
-130.6991076634
 21
-39.8681212659
  0
LINE
  5
4DC
100
AcDbEntity
  8
ASSI
100
AcDbLine
 62
250
  6
CONTINUOUS
 10
-131.1830732081
 20
-39.2573462397
 11
-131.1731585807
 21
-40.1666047453
  0
LINE
  5
4DD
100
AcDbEntity
  8
ASSI
100
AcDbLine
 62
250
  6
CONTINUOUS
 10
-131.1209377705
 20
-42.3007262265
 11
-131.1212924825
 21
-42.2655730995
  0
LWPOLYLINE
  5
4DE
100
AcDbEntity
  8
ASSI
100
AcDbPolyline
 62
250
  6
CONTINUOUS
 90
3
 70
0
 10
-130.6409373275
 20
42.902394655
 10
-130.6409763384
 20
42.9075228858
 10
-130.6410416058
 20
42.9092331806
  0
LINE
  5
4DF
100
AcDbEntity
  8
ASSI
100
AcDbLine
 62
250
  6
CONTINUOUS
 10
-130.7170567778
 20
-37.5880335696
 11
-130.7096595247
 21
-38.9314230482
  0
LINE
  5
4E0
100
AcDbEntity
  8
ASSI
100
AcDbLine
 62
250
  6
CONTINUOUS
 10
-131.1903211812
 20
-37.9286601917
 11
-131.1830732081
 21
-39.2573462397
  0
LINE
  5
4E1
100
AcDbEntity
  8
ASSI
100
AcDbLine
 62
250
  6
CONTINUOUS
 10
-131.1208223276
 20
-42.3331624221
 11
-131.1209377705
 21
-42.3007262265
  0
LINE
  5
4E2
100
AcDbEntity
  8
ASSI
100
AcDbLine
 62
250
  6
CONTINUOUS
 10
-131.1208223289
 20
42.3331595734
 11
-131.1209331313
 21
42.3622930066
  0
LINE
  5
4E3
100
AcDbEntity
  8
ASSI
100
AcDbLine
 62
250
  6
CONTINUOUS
 10
-131.203287997
 20
-30.9159756947
 11
-131.1903211812
 21
-37.9286601917
  0
LINE
  5
4E4
100
AcDbEntity
  8
ASSI
100
AcDbLine
 62
250
  6
CONTINUOUS
 10
-130.7664795315
 20
-16.2159797309
 11
-130.7170567778
 21
-37.5880335696
  0
LINE
  5
4E5
100
AcDbEntity
  8
ASSI
100
AcDbLine
 62
250
  6
CONTINUOUS
 10
-131.2298251592
 20
-14.5055182814
 11
-131.203287997
 21
-30.9159756947
  0
LINE
  5
4E6
100
AcDbEntity
  8
ASSI
100
AcDbLine
 62
250
  6
CONTINUOUS
 10
-130.7698737434
 20
-0.0000000003
 11
-130.7664795315
 21
-16.2159797309
  0
LINE
  5
4E7
100
AcDbEntity
  8
ASSI
100
AcDbLine
 62
7
  6
CONTINUOUS
 10
-129.0842195812
 20
-42.95
 11
-129.0842195812
 21
42.95
  0
LINE
  5
4E8
100
AcDbEntity
  8
ASSI
100
AcDbLine
 62
250
  6
CONTINUOUS
 10
-130.6396681188
 20
42.1095432866
 11
-130.6409373275
 21
42.902394655
  0
LINE
  5
4E9
100
AcDbEntity
  8
ASSI
100
AcDbLine
 62
250
  6
CONTINUOUS
 10
-131.2032180732
 20
30.9515892479
 11
-131.2298251592
 21
-14.5055182814
  0
LINE
  5
4EA
100
AcDbEntity
  8
ASSI
100
AcDbLine
 62
250
  6
CONTINUOUS
 10
-130.7544962028
 20
23.1085362323
 11
-130.7698737434
 21
-0.0000000003
  0
LINE
  5
4EB
100
AcDbEntity
  8
ASSI
100
AcDbLine
 62
250
  6
CONTINUOUS
 10
-130.6409373319
 20
-42.9023947929
 11
-130.6405089922
 21
-42.509501212
  0
LINE
  5
4EC
100
AcDbEntity
  8
ASSI
100
AcDbLine
 62
250
  6
CONTINUOUS
 10
-130.6405089922
 20
-42.509501212
 11
-130.6396681188
 21
-42.1095432866
  0
LINE
  5
4ED
100
AcDbEntity
  8
ASSI
100
AcDbLine
 62
250
  6
CONTINUOUS
 10
-130.7329632616
 20
30.3967904959
 11
-130.7544962028
 21
23.1085362323
  0
LINE
  5
4EE
100
AcDbEntity
  8
ASSI
100
AcDbLine
 62
250
  6
CONTINUOUS
 10
-131.1868268342
 20
38.7139068857
 11
-131.2032180732
 21
30.9515892479
  0
LINE
  5
4EF
100
AcDbEntity
  8
ASSI
100
AcDbLine
 62
250
  6
CONTINUOUS
 10
-131.1209377924
 20
42.3007230387
 11
-131.1208223289
 21
42.3331595734
  0
LINE
  5
4F0
100
AcDbEntity
  8
ASSI
100
AcDbLine
 62
250
  6
CONTINUOUS
 10
-130.7135895606
 20
38.365416317
 11
-130.7329632616
 21
30.3967904959
  0
LINE
  5
4F1
100
AcDbEntity
  8
ASSI
100
AcDbLine
 62
250
  6
CONTINUOUS
 10
-130.7052696464
 20
39.3859155858
 11
-130.7135895606
 21
38.365416317
  0
LINE
  5
4F2
100
AcDbEntity
  8
ASSI
100
AcDbLine
 62
250
  6
CONTINUOUS
 10
-131.1212925243
 20
42.2655700151
 11
-131.1209377924
 21
42.3007230387
  0
LWPOLYLINE
  5
4F3
100
AcDbEntity
  8
ASSI
100
AcDbPolyline
 62
250
  6
CONTINUOUS
 90
3
 70
0
 10
-131.1746081962
 20
40.060267128
 10
-131.1786153114
 20
39.7274055018
 10
-131.1868268342
 20
38.7139068857
  0
LINE
  5
4F4
100
AcDbEntity
  8
ASSI
100
AcDbLine
 62
250
  6
CONTINUOUS
 10
-130.6962701591
 20
40.0523826908
 11
-130.7052696464
 21
39.3859155858
  0
LWPOLYLINE
  5
4F5
100
AcDbEntity
  8
ASSI
100
AcDbPolyline
 62
250
  6
CONTINUOUS
 90
3
 70
0
 10
-130.6766378942
 20
40.9995990987
 10
-130.684027581
 20
40.6917652976
 10
-130.6962701591
 20
40.0523826908
  0
LWPOLYLINE
  5
4F6
100
AcDbEntity
  8
ASSI
100
AcDbPolyline
 62
250
  6
CONTINUOUS
 90
3
 70
0
 10
-130.6410416058
 20
-42.9092331806
 10
-130.6409763434
 20
-42.9075229072
 10
-130.6409373319
 20
-42.9023947929
  0
LINE
  5
4F7
100
AcDbEntity
  8
ASSI
100
AcDbLine
 62
7
  6
CONTINUOUS
 10
-127.0842195812
 20
41.8504585753
 11
-127.0842195812
 21
41.4532973829
  0
LINE
  5
4F8
100
AcDbEntity
  8
0
100
AcDbLine
 62
7
  6
CONTINUOUS
 10
-127.0842195812
 20
41.4532973829
 11
-127.0842195812
 21
3.6023718431
  0
LINE
  5
4F9
100
AcDbEntity
  8
0
100
AcDbLine
 62
7
  6
CONTINUOUS
 10
-127.0842195812
 20
-3.6023718431
 11
-127.0842195812
 21
-41.4532984529
  0
LINE
  5
4FA
100
AcDbEntity
  8
ASSI
100
AcDbLine
 62
7
  6
CONTINUOUS
 10
-127.0842195812
 20
-41.4532984529
 11
-127.0842195812
 21
-41.8504584938
  0
LINE
  5
4FB
100
AcDbEntity
  8
RACCORDO
100
AcDbLine
 62
7
  6
CONTINUOUS
 10
-127.0842195812
 20
3.6023718431
 11
-128.8894549709
 21
3.5551000908
  0
LWPOLYLINE
  5
4FC
100
AcDbEntity
  8
RACCORDO
100
AcDbPolyline
 62
250
  6
CONTINUOUS
 90
7
 70
0
 10
-135.2073414551
 20
23.062993758
 10
-135.2066789797
 20
23.0611445254
 10
-135.2061421075
 20
23.0560565504
 10
-135.2057307721
 20
23.0477298616
 10
-135.20544485
 20
23.0360963644
 10
-135.2052840137
 20
23.0212242493
 10
-135.2055228517
 20
23.0102362367
  0
LWPOLYLINE
  5
4FD
100
AcDbEntity
  8
0
100
AcDbPolyline
 62
7
  6
CONTINUOUS
 90
4
 70
0
 43
0.3500000006
 10
-125.5841858826
 20
52.1285708313
 10
-125.5841858826
 20
52.9857133026
 10
-125.1556169128
 20
53.4142868042
 10
-124.5127634583
 20
53.4142868042
  0
LWPOLYLINE
  5
4FE
100
AcDbEntity
  8
0
100
AcDbPolyline
 62
7
  6
CONTINUOUS
 90
2
 70
0
 43
0.3500000006
 10
-120.5127622375
 20
51.7000018616
 10
-120.5127622375
 20
53.1999977875
  0
LWPOLYLINE
  5
4FF
100
AcDbEntity
  8
ASSI
100
AcDbPolyline
 62
250
  6
CONTINUOUS
 90
3
 70
0
 10
-131.2629326342
 20
-42.6278697799
 10
-131.26583222
 20
-42.6342076764
 10
-131.2677428774
 20
-42.6383163529
  0
LWPOLYLINE
  5
500
100
AcDbEntity
  8
ASSI
100
AcDbPolyline
 62
250
  6
CONTINUOUS
 90
6
 70
0
 10
-131.2677428774
 20
-42.6383163529
 10
-131.2683902216
 20
-42.6396007527
 10
-131.2688834081
 20
-42.6403852063
 10
-131.269206552
 20
-42.6407985322
 10
-131.2694172616
 20
-42.6408366673
 10
-131.2694838934
 20
-42.6407453576
  0
LWPOLYLINE
  5
501
100
AcDbEntity
  8
ASSI
100
AcDbPolyline
 62
250
  6
CONTINUOUS
 90
18
 70
0
 10
-131.2614998388
 20
42.6248070077
 10
-131.2597346983
 20
42.6210857039
 10
-131.2577265882
 20
42.6169424418
 10
-131.2554611015
 20
42.6123702277
 10
-131.252919725
 20
42.607374424
 10
-131.2500764435
 20
42.6019608967
 10
-131.246917977
 20
42.5961216803
 10
-131.2434269844
 20
42.5898627224
 10
-131.2395700659
 20
42.5832104458
 10
-131.2353365516
 20
42.5761567396
 10
-131.2307119275
 20
42.5687079205
 10
-131.2256582697
 20
42.560912103
 10
-131.2201680841
 20
42.5527602139
 10
-131.2142330183
 20
42.544260377
 10
-131.2078191749
 20
42.5354870791
 10
-131.2009317996
 20
42.5264420732
 10
-131.1935679132
 20
42.5171246235
 10
-131.1856860653
 20
42.5076060225
  0
LINE
  5
502
100
AcDbEntity
  8
ASSI
100
AcDbLine
 62
250
  6
CONTINUOUS
 10
-131.2643719081
 20
42.6310142632
 11
-131.2614998388
 21
42.6248070077
  0
LWPOLYLINE
  5
503
100
AcDbEntity
  8
ASSI
100
AcDbPolyline
 62
250
  6
CONTINUOUS
 90
13
 70
0
 10
-131.1260640541
 20
-42.4458933182
 10
-131.1252173675
 20
-42.4443907129
 10
-131.1244618957
 20
-42.4416287986
 10
-131.1237913909
 20
-42.4376068465
 10
-131.1231978895
 20
-42.4322951232
 10
-131.1226767599
 20
-42.4257218791
 10
-131.1222277073
 20
-42.4179734665
 10
-131.1218465712
 20
-42.4090331087
 10
-131.1215275694
 20
-42.3989163898
 10
-131.1212705183
 20
-42.3877584966
 10
-131.1210736452
 20
-42.3755479404
 10
-131.1209331532
 20
-42.3622955191
 10
-131.1208223276
 20
-42.3331624221
  0
LWPOLYLINE
  5
504
100
AcDbEntity
  8
RACCORDO
100
AcDbPolyline
 62
250
  6
CONTINUOUS
 90
15
 70
0
 10
-135.2868215832
 20
-23.0772747545
 10
-135.2926219207
 20
-23.0792638003
 10
-135.2956014372
 20
-23.0802542967
 10
-135.2987044422
 20
-23.0812365767
 10
-135.3019340184
 20
-23.0822104462
 10
-135.3052840597
 20
-23.0831773835
 10
-135.3087496999
 20
-23.0841341745
 10
-135.3123162101
 20
-23.0850799094
 10
-135.3159811791
 20
-23.0860167734
 10
-135.3197604233
 20
-23.0869462654
 10
-135.3236417291
 20
-23.0878675445
 10
-135.3276210937
 20
-23.088782616
 10
-135.3317272776
 20
-23.0896970747
 10
-135.3359460244
 20
-23.0906110598
 10
-135.3402642621
 20
-23.0915243503
  0
LINE
  5
505
100
AcDbEntity
  8
RACCORDO
100
AcDbLine
 62
7
  6
CONTINUOUS
 10
-135.2255712732
 20
22.7785951313
 11
-135.2089374645
 21
22.7771398616
  0
LWPOLYLINE
  5
506
100
AcDbEntity
  8
RACCORDO
100
AcDbPolyline
 62
250
  6
CONTINUOUS
 90
3
 70
0
 10
-135.4954132382
 20
23.1200975969
 10
-135.4943005995
 20
23.1199415315
 10
-135.4928229589
 20
23.1197245591
  0
LINE
  5
507
100
AcDbEntity
  8
RACCORDO
100
AcDbLine
 62
250
  6
CONTINUOUS
 10
-135.4928229589
 20
23.1197245591
 11
-135.4865634054
 21
23.1187641252
  0
LINE
  5
508
100
AcDbEntity
  8
RACCORDO
100
AcDbLine
 62
250
  6
CONTINUOUS
 10
-135.4865634054
 20
23.1187641252
 11
-135.4782002934
 21
23.1174180281
  0
LINE
  5
509
100
AcDbEntity
  8
RACCORDO
100
AcDbLine
 62
250
  6
CONTINUOUS
 10
-135.4782002934
 20
23.1174180281
 11
-135.4684007718
 21
23.1157661949
  0
LINE
  5
50A
100
AcDbEntity
  8
RACCORDO
100
AcDbLine
 62
250
  6
CONTINUOUS
 10
-135.4963580167
 20
23.1202380772
 11
-135.4961146232
 21
23.1201964455
  0
LINE
  5
50B
100
AcDbEntity
  8
RACCORDO
100
AcDbLine
 62
250
  6
CONTINUOUS
 10
-135.4684007718
 20
23.1157661949
 11
-135.4576727082
 21
23.1138757331
  0
LWPOLYLINE
  5
50C
100
AcDbEntity
  8
RACCORDO
100
AcDbPolyline
 62
7
  6
CONTINUOUS
 90
3
 70
0
 10
-135.2624140111
 20
22.7841408616
 10
-135.2434904465
 20
22.7807075272
 10
-135.2255712502
 20
22.7785951293
  0
LINE
  5
50D
100
AcDbEntity
  8
RACCORDO
100
AcDbLine
 62
250
  6
CONTINUOUS
 10
-135.4576727082
 20
23.1138757331
 11
-135.4423228324
 21
23.1110654264
  0
LINE
  5
50E
100
AcDbEntity
  8
RACCORDO
100
AcDbLine
 62
250
  6
CONTINUOUS
 10
-135.4423228324
 20
23.1110654264
 11
-135.3679461725
 21
23.0970231861
  0
LINE
  5
50F
100
AcDbEntity
  8
RACCORDO
100
AcDbLine
 62
250
  6
CONTINUOUS
 10
-135.3679461725
 20
23.0970231861
 11
-135.3547148387
 21
23.0944491956
  0
LINE
  5
510
100
AcDbEntity
  8
RACCORDO
100
AcDbLine
 62
250
  6
CONTINUOUS
 10
-135.3547148387
 20
23.0944491956
 11
-135.346137503
 21
23.0927326099
  0
LWPOLYLINE
  5
511
100
AcDbEntity
  8
RACCORDO
100
AcDbPolyline
 62
250
  6
CONTINUOUS
 90
16
 70
0
 10
-135.346137503
 20
23.0927326099
 10
-135.3378052804
 20
23.0910065954
 10
-135.3337304619
 20
23.090134061
 10
-135.3297184969
 20
23.0892530295
 10
-135.3257863919
 20
23.0883641124
 10
-135.3219206942
 20
23.0874633842
 10
-135.3181273483
 20
23.0865486241
 10
-135.3144215277
 20
23.0856214964
 10
-135.3108049724
 20
23.0846839807
 10
-135.3072827816
 20
23.0837342918
 10
-135.3038673593
 20
23.0827729614
 10
-135.3005715317
 20
23.081805453
 10
-135.2974029446
 20
23.0808309309
 10
-135.2943692478
 20
23.0798489518
 10
-135.2914492613
 20
23.0788655643
 10
-135.2857138106
 20
23.0768953412
  0
LINE
  5
512
100
AcDbEntity
  8
RACCORDO
100
AcDbLine
 62
7
  6
CONTINUOUS
 10
-135.280364282
 20
22.7885785508
 11
-135.2624140111
 21
22.7841408616
  0
LWPOLYLINE
  5
513
100
AcDbEntity
  8
RACCORDO
100
AcDbPolyline
 62
250
  6
CONTINUOUS
 90
14
 70
0
 10
-135.2857138106
 20
23.0768953412
 10
-135.2827627106
 20
23.0759074383
 10
-135.2796843141
 20
23.0749212256
 10
-135.2764063426
 20
23.0739323341
 10
-135.2728134098
 20
23.0729304655
 10
-135.2688247392
 20
23.0719130335
 10
-135.2643610336
 20
23.07088088
 10
-135.2592750221
 20
23.0698283895
 10
-135.2534465052
 20
23.0687533272
 10
-135.246750492
 20
23.0676552181
 10
-135.238981245
 20
23.0665307357
 10
-135.2299431036
 20
23.0653787059
 10
-135.2194663146
 20
23.0641997002
 10
-135.2073414551
 20
23.062993758
  0
LWPOLYLINE
  5
514
100
AcDbEntity
  8
ASSI
100
AcDbPolyline
 62
250
  6
CONTINUOUS
 90
7
 70
0
 10
-131.1856860653
 20
42.5076060225
 10
-131.1773245959
 20
42.4979309991
 10
-131.1684639145
 20
42.4880576465
 10
-131.1589473694
 20
42.4779240398
 10
-131.14869537
 20
42.4675066128
 10
-131.1377392639
 20
42.456824047
 10
-131.1260589736
 20
42.4458743809
  0
LWPOLYLINE
  5
515
100
AcDbEntity
  8
ASSI
100
AcDbPolyline
 62
250
  6
CONTINUOUS
 90
21
 70
0
 10
-131.1260640541
 20
-42.4458933182
 10
-131.1392835815
 20
-42.4583784756
 10
-131.151813514
 20
-42.4706984566
 10
-131.1636219765
 20
-42.4828491271
 10
-131.1746639152
 20
-42.4948806894
 10
-131.184932043
 20
-42.5067358529
 10
-131.1944650944
 20
-42.5182508184
 10
-131.2032579212
 20
-42.5294152772
 10
-131.2113067861
 20
-42.5402372948
 10
-131.2186712286
 20
-42.5505827859
 10
-131.225364966
 20
-42.5604378489
 10
-131.2313996678
 20
-42.5698179099
 10
-131.2368427695
 20
-42.5786340909
 10
-131.2417203558
 20
-42.5868731085
 10
-131.2460521741
 20
-42.5945517477
 10
-131.2498982612
 20
-42.6016263108
 10
-131.2532901906
 20
-42.6080855316
 10
-131.2562510226
 20
-42.61394441
 10
-131.2588241535
 20
-42.6191978607
 10
-131.2610431532
 20
-42.6238351518
 10
-131.2629326342
 20
-42.6278697799
  0
LWPOLYLINE
  5
516
100
AcDbEntity
  8
0
100
AcDbPolyline
 62
7
  6
CONTINUOUS
 90
10
 70
0
 43
0.3500000006
 10
-122.5841940308
 20
52.2000020142
 10
-122.5127628479
 20
52.0571441803
 10
-122.5127628479
 20
51.9857129974
 10
-122.6556161499
 20
51.8428551636
 10
-122.7270473328
 20
51.8428551636
 10
-122.7984785156
 20
51.9142863464
 10
-122.7984785156
 20
51.9857129974
 10
-122.7270473328
 20
52.1285708313
 10
-122.6556161499
 20
52.2000020142
 10
-122.5841940308
 20
52.2000020142
  0
LWPOLYLINE
  5
517
100
AcDbEntity
  8
ASSI
100
AcDbPolyline
 62
250
  6
CONTINUOUS
 90
19
 70
0
 10
-127.084219662
 20
41.4532985842
 10
-127.1735758922
 20
41.5117240862
 10
-127.2667378879
 20
41.568737904
 10
-127.3637481446
 20
41.6243400374
 10
-127.4651502186
 20
41.6789382966
 10
-127.5704758464
 20
41.7321248715
 10
-127.6781542637
 20
41.7826763318
 10
-127.7877522055
 20
41.830322044
 10
-127.8995414832
 20
41.8753326416
 10
-128.0128987452
 20
41.9172965954
 10
-128.1275406993
 20
41.9561147034
 10
-128.2435336696
 20
41.9918861676
 10
-128.360753361
 20
42.0244970637
 10
-128.479060473
 20
42.0539340546
 10
-128.5983724805
 20
42.0802104775
 10
-128.7186496415
 20
42.1032524204
 10
-128.839804294
 20
42.1230352461
 10
-128.9616991049
 20
42.1395835918
 10
-129.0842195794
 20
42.1528974575
  0
LWPOLYLINE
  5
518
100
AcDbEntity
  8
ASSI
100
AcDbPolyline
 62
250
  6
CONTINUOUS
 90
22
 70
0
 10
-130.6410416058
 20
42.9092331806
 10
-130.6759684878
 20
42.9070908984
 10
-130.7106596589
 20
42.9025054361
 10
-130.7449448173
 20
42.8954993041
 10
-130.7786556547
 20
42.8861068961
 10
-130.811626682
 20
42.87437432
 10
-130.8436960419
 20
42.860359172
 10
-130.8747063036
 20
42.8441302535
 10
-130.9045052354
 20
42.8257672335
 10
-130.9329465519
 20
42.8053602574
 10
-130.9598906326
 20
42.7830095047
 10
-130.9852052071
 20
42.7588246968
 10
-131.0087660041
 20
42.7329245589
 10
-131.0304573619
 20
42.7054362366
 10
-131.050172796
 20
42.6764946722
 10
-131.0678155219
 20
42.646241942
 10
-131.08329893
 20
42.614826559
 10
-131.0965470111
 20
42.5824027437
 10
-131.1074947295
 20
42.549129667
 10
-131.1160883418
 20
42.515170669
 10
-131.1222856616
 20
42.480692457
 10
-131.1260562655
 20
42.445864287
  0
LINE
  5
519
100
AcDbEntity
  8
ASSI
100
AcDbLine
 62
250
  6
CONTINUOUS
 10
-130.6396596005
 20
42.1095435097
 11
-129.0842195812
 21
42.15027414
  0
LINE
  5
51A
100
AcDbEntity
  8
ASSI
100
AcDbLine
 62
7
  6
CONTINUOUS
 10
-130.8421313343
 20
42.9039674607
 11
-129.0842195812
 21
42.95
  0
LWPOLYLINE
  5
51B
100
AcDbEntity
  8
0
100
AcDbPolyline
 62
7
  6
CONTINUOUS
 90
3
 70
0
 43
0.3500000006
 10
-120.012762085
 20
52.3428553162
 10
-121.5127625427
 20
52.3428553162
 10
-120.8699000244
 20
54.6999982452
  0
LINE
  5
51C
100
AcDbEntity
  8
ASSI
100
AcDbLine
 62
250
  6
CONTINUOUS
 10
-131.1146291218
 20
42.1298610928
 11
-130.6396696378
 21
42.1095433503
  0
LINE
  5
51D
100
AcDbEntity
  8
ASSI
100
AcDbLine
 62
250
  6
CONTINUOUS
 10
-131.1247326733
 20
42.1303599831
 11
-131.1146291218
 21
42.1298610928
  0
LWPOLYLINE
  5
51E
100
AcDbEntity
  8
0
100
AcDbPolyline
 62
7
  6
CONTINUOUS
 90
13
 70
0
 43
0.3500000006
 10
-125.1556169128
 20
53.4142868042
 10
-125.4413325806
 20
53.6285712891
 10
-125.4413325806
 20
54.2714292755
 10
-125.1556169128
 20
54.6999982452
 10
-124.5127634583
 20
54.6999982452
 10
-124.2270477905
 20
54.2714292755
 10
-124.2270477905
 20
53.6285712891
 10
-124.5127634583
 20
53.4142868042
 10
-124.0841944885
 20
52.9857133026
 10
-124.0841944885
 20
52.1285708313
 10
-124.5127634583
 20
51.7000018616
 10
-125.1556169128
 20
51.7000018616
 10
-125.5841858826
 20
52.1285708313
  0
ARC
  5
51F
100
AcDbEntity
  8
ASSI
100
AcDbCircle
 62
7
  6
CONTINUOUS
 10
-129.5142195812
 20
-38.6731796621
 40
4.0
100
AcDbArc
 50
276.171221513
 51
307.4089527159
  0
ARC
  5
520
100
AcDbEntity
  8
ASSI
100
AcDbCircle
 62
7
  6
CONTINUOUS
 10
-129.5142195812
 20
38.6731796621
 40
4.0
100
AcDbArc
 50
52.591045898
 51
83.8287704848
  0
ARC
  5
521
100
AcDbEntity
  8
ASSI
100
AcDbCircle
 62
7
  6
CONTINUOUS
 10
-130.8290148902
 20
-42.4041395306
 40
0.5
100
AcDbArc
 50
208.2355049797
 51
268.5000000406
  0
ARC
  5
522
100
AcDbEntity
  8
ASSI
100
AcDbCircle
 62
7
  6
CONTINUOUS
 10
-130.8290055554
 20
42.4041397751
 40
0.5
100
AcDbArc
 50
91.4999999999
 51
151.7609641833
  0
ARC
  5
523
100
AcDbEntity
  8
ASSI
100
AcDbCircle
 62
7
  6
CONTINUOUS
 10
-130.7415134908
 20
42.4064308354
 40
0.5
100
AcDbArc
 50
91.5
 51
148.9071730719
  0
ARC
  5
524
100
AcDbEntity
  8
ASSI
100
AcDbCircle
 62
7
  6
CONTINUOUS
 10
-130.7415134908
 20
-42.4064308354
 40
0.5
100
AcDbArc
 50
252.2285452259
 51
258.9321378469
  0
ARC
  5
525
100
AcDbEntity
  8
RACCORDO
100
AcDbCircle
 62
7
  6
CONTINUOUS
 10
-135.1994245503
 20
23.0774535407
 40
0.3
100
AcDbArc
 50
171.8007995562
 51
265.0
  0
ARC
  5
526
100
AcDbEntity
  8
RACCORDO
100
AcDbCircle
 62
7
  6
CONTINUOUS
 10
-135.1994245503
 20
-23.0774535407
 40
0.3
100
AcDbArc
 50
95.0
 51
188.1992004438
  0
ARC
  5
527
100
AcDbEntity
  8
RACCORDO
100
AcDbCircle
 62
7
  6
CONTINUOUS
 10
-128.8842195812
 20
-3.3551686258
 40
0.2
100
AcDbArc
 50
180.0
 51
268.5
  0
ARC
  5
528
100
AcDbEntity
  8
RACCORDO
100
AcDbCircle
 62
7
  6
CONTINUOUS
 10
-128.8842195812
 20
3.3551686258
 40
0.2
100
AcDbArc
 50
91.5
 51
180.0
  0
ELLIPSE
  5
529
100
AcDbEntity
  8
RACCORDO
100
AcDbEllipse
 62
7
  6
CONTINUOUS
 10
-78.3480900812
 20
-22.0980900812
 30
0.0
 11
0.3562493039
 21
0.3562493039
 31
0.0
 40
0.9924325091
 41
2.3599925885
 42
3.9231927187
  0
ELLIPSE
  5
52A
100
AcDbEntity
  8
RACCORDO
100
AcDbEllipse
 62
7
  6
CONTINUOUS
 10
78.3480900812
 20
-22.0980900812
 30
0.0
 11
-0.3562493039
 21
0.3562493039
 31
0.0
 40
0.9924325091
 41
2.3599925885
 42
3.9231927187
  0
ELLIPSE
  5
52B
100
AcDbEntity
  8
RACCORDO
100
AcDbEllipse
 62
7
  6
CONTINUOUS
 10
78.3480900812
 20
22.0980900812
 30
0.0
 11
-0.3562493039
 21
-0.3562493039
 31
0.0
 40
0.9924325091
 41
2.3599925885
 42
3.9231927187
  0
ELLIPSE
  5
52C
100
AcDbEntity
  8
RACCORDO
100
AcDbEllipse
 62
7
  6
CONTINUOUS
 10
-78.3480900812
 20
22.0980900812
 30
0.0
 11
0.3562493039
 21
-0.3562493039
 31
0.0
 40
0.9924325091
 41
2.3599925885
 42
3.9231927187
  0
ELLIPSE
  5
52D
100
AcDbEntity
  8
ASSI
100
AcDbEllipse
 62
7
  6
CONTINUOUS
 10
104.149725766
 20
42.149725766
 30
0.0
 11
0.566073184
 21
0.566073184
 31
0.0
 40
0.999315002
 41
-0.7850555471
 42
0.7850555471
  0
ELLIPSE
  5
52E
100
AcDbEntity
  8
ASSI
100
AcDbEllipse
 62
7
  6
CONTINUOUS
 10
104.149725766
 20
-42.149725766
 30
0.0
 11
-0.566073184
 21
0.566073184
 31
0.0
 40
0.999315002
 41
-3.9266482006
 42
-2.3565371065
  0
ELLIPSE
  5
52F
100
AcDbEntity
  8
ASSI
100
AcDbEllipse
 62
7
  6
CONTINUOUS
 10
-104.149725766
 20
-42.149725766
 30
0.0
 11
0.566073184
 21
0.566073184
 31
0.0
 40
0.999315002
 41
-3.9266482006
 42
-2.3565371065
  0
ELLIPSE
  5
530
100
AcDbEntity
  8
ASSI
100
AcDbEllipse
 62
7
  6
CONTINUOUS
 10
-104.149725766
 20
42.149725766
 30
0.0
 11
-0.566073184
 21
0.566073184
 31
0.0
 40
0.999315002
 41
-0.7850555471
 42
0.7850555471
  0
ENDSEC
  0
SECTION
  2
OBJECTS
  0
DICTIONARY
  5
C
100
AcDbDictionary
280
0
281
1
  3
ACAD_GROUP
350
D
  3
ACAD_MLINESTYLE
350
17
  3
ACAD_LAYOUT
350
1A
  3
ACAD_PLOTSETTINGS
350
19
  3
ACAD_PLOTSTYLENAME
350
E
  0
DICTIONARY
  5
D
102
{ACAD_REACTORS
330
C
102
}
100
AcDbDictionary
280
0
281
1
  0
ACDBDICTIONARYWDFLT
  5
E
102
{ACAD_REACTORS
330
C
102
}
100
AcDbDictionary
281
1
  3
Normal
350
F
100
AcDbDictionaryWithDefault
340
F
  0
DICTIONARY
  5
17
102
{ACAD_REACTORS
330
C
102
}
100
AcDbDictionary
280
0
281
1
  3
Standard
350
18
  0
DICTIONARY
  5
19
102
{ACAD_REACTORS
330
C
102
}
100
AcDbDictionary
281
1
  0
DICTIONARY
  5
1A
102
{ACAD_REACTORS
330
C
102
}
100
AcDbDictionary
281
1
  3
Model
350
531
  3
Layout1
350
532
  0
ACDBPLACEHOLDER
  5
F
102
{ACAD_REACTORS
330
E
102
}
  0
MLINESTYLE
  5
18
102
{ACAD_REACTORS
330
17
102
}
100
AcDbMlineStyle
  2
STANDARD
 70
0
  3

 62
256
 51
90.0
 52
90.0
 71
2
 49
0.5
 62
256
  6
BYLAYER
 49
-0.5
 62
256
  6
BYLAYER
  0
LAYOUT
  5
531
102
{ACAD_REACTORS
330
1A
102
}
100
AcDbPlotSettings
  1

  2
none_device
  4
ISO_A4_(297.00_x_210.00_MM)
  6

 40
0.0
 41
0.0
 42
0.0
 43
0.0
 44
297.0
 45
210.0
 46
0.0
 47
0.0
 48
0.0
 49
0.0
140
0.0
141
0.0
142
1.0
143
1.0
 70
1024
 72
1
 73
0
 74
0
  7

 75
0
147
1.0
148
0.0
149
0.0
100
AcDbLayout
  1
Model
 70
0
 71
0
 10
0.0
 20
0.0
 11
297.0
 21
210.0
 12
0.0
 22
0.0
 32
0.0
 14
0.0
 24
0.0
 34
0.0
 15
0.0
 25
0.0
 35
0.0
146
0.0
 13
0.0
 23
0.0
 33
0.0
 16
1.0
 26
0.0
 36
0.0
 17
0.0
 27
1.0
 37
0.0
 76
0
330
213
345
0
346
0
  0
LAYOUT
  5
532
102
{ACAD_REACTORS
330
1A
102
}
100
AcDbPlotSettings
  1

  2
none_device
  4
ISO_A4_(297.00_x_210.00_MM)
  6

 40
0.0
 41
0.0
 42
0.0
 43
0.0
 44
297.0
 45
210.0
 46
0.0
 47
0.0
 48
0.0
 49
0.0
140
0.0
141
0.0
142
1.0
143
1.0
 70
0
 72
1
 73
0
 74
0
  7

 75
0
147
1.0
148
0.0
149
0.0
100
AcDbLayout
  1
Layout1
 70
0
 71
1
 10
0.0
 20
0.0
 11
297.0
 21
210.0
 12
0.0
 22
0.0
 32
0.0
 14
0.0
 24
0.0
 34
0.0
 15
0.0
 25
0.0
 35
0.0
146
0.0
 13
0.0
 23
0.0
 33
0.0
 16
1.0
 26
0.0
 36
0.0
 17
0.0
 27
1.0
 37
0.0
 76
0
330
214
345
0
346
0
  0
ENDSEC
  0
EOF
