  0
SECTION
  2
HEADER
  9
$ACADVER
  1
AC1024
  9
$DWGCODEPAGE
  3
ANSI_1252
  9
$EXTMAX
 10
297.0
 20
210.0
 30
0.0
  9
$EXTMIN
 10
0.0
 20
0.0
 30
0.0
  9
$LIMMIN
 10
0.0
 20
0.0
  9
$LIMMAX
 10
297.0
 20
210.0
  9
$VIEWCTR
 10
148.5
 20
105.0
  9
$VIEWSIZE
 40
210.0
  9
$CLAYER
  8
0
  9
$LTSCALE
 40
16.335
  9
$CELTYPE
  6
BYLAYER
  9
$DIMSCALE
 40
1.0
  9
$DIMASZ
 40
3.0
  9
$DIMEXO
 40
0.5
  9
$DIMDLI
 40
11.286
  9
$DIMEXE
 40
1.5
  9
$DIMCEN
 40
2.673
  9
$DIMLFAC
 40
1.0
  9
$DIMBLK
  1
_FILLED
  9
$DIMALT
 70
0
  9
$DIMALTF
 40
0.0393700787
  9
$DIMTXT
 40
3.0
  9
$DIMTOL
 70
1
  9
$DIMLIM
 70
0
  9
$DIMTFAC
 40
1.0
  9
$DIMTP
 40
0.01
  9
$DIMTM
 40
0.01
  9
$DIMGAP
 40
0.625
  9
$DIMDSEP
 70
44
  9
$AUNITS
 70
0
  9
$PDMODE
 70
3
  9
$PDSIZE
 40
3.0
  9
$HANDSEED
  5
58B
  9
$TILEMODE
 70
1
  9
$MEASUREMENT
 70
1
  9
$INSUNITS
 70
4
  0
ENDSEC
  0
SECTION
  2
CLASSES
  0
CLASS
  1
ACDBDICTIONARYWDFLT
  2
AcDbDictionaryWithDefault
  3
AutoCAD 2000
 90
0
 91
1
280
0
281
0
  0
CLASS
  1
ACDBPLACEHOLDER
  2
AcDbPlaceHolder
  3
AutoCAD 2000
 90
0
 91
1
280
0
281
0
  0
CLASS
  1
LAYOUT
  2
AcDbLayout
  3
AutoCAD 2000
 90
0
 91
0
280
0
281
0
  0
ENDSEC
  0
SECTION
  2
TABLES
  0
TABLE
  2
VPORT
  5
8
100
AcDbSymbolTable
 70
2
  0
VPORT
  5
1F4
100
AcDbSymbolTableRecord
100
AcDbViewportTableRecord
  2
*ACTIVE
 70
0
 10
0.0
 20
0.0
 11
1.0
 21
1.0
 12
148.5
 22
105.0
 13
0.0
 23
0.0
 14
1.0
 24
1.0
 15
0.0
 25
0.0
 16
0.0
 26
0.0
 36
1.0
 17
0.0
 27
0.0
 37
0.0
 40
210.0
 41
1.4142857143
 42
50.0
 43
0.0
 44
0.0
 50
0.0
 51
0.0
 71
0
 72
100
 73
1
 74
1
 75
0
 76
0
 77
0
 78
0
  0
ENDTAB
  0
TABLE
  2
LTYPE
  5
5
100
AcDbSymbolTable
 70
6
  0
LTYPE
  5
14
100
AcDbSymbolTableRecord
100
AcDbLinetypeTableRecord
  2
BYBLOCK
 70
0
  3

 72
65
 73
0
 40
0.0
  0
LTYPE
  5
15
100
AcDbSymbolTableRecord
100
AcDbLinetypeTableRecord
  2
BYLAYER
 70
0
  3

 72
65
 73
0
 40
0.0
  0
LTYPE
  5
16
100
AcDbSymbolTableRecord
100
AcDbLinetypeTableRecord
  2
CONTINUOUS
 70
64
  3
Solid line
 72
65
 73
0
 40
0.0
  0
LTYPE
  5
1F5
100
AcDbSymbolTableRecord
100
AcDbLinetypeTableRecord
  2
CENTER
 70
64
  3
____ _ ____ _ ____ _ ____ _ ____ _ ____ _ ____
 72
65
 73
4
 40
0.6
 49
0.375
 74
0
 49
-0.075
 74
0
 49
0.075
 74
0
 49
-0.075
 74
0
  0
LTYPE
  5
1F6
100
AcDbSymbolTableRecord
100
AcDbLinetypeTableRecord
  2
HIDDEN
 70
64
  3
- - - - - - - - - - - - - - - - - - - -
 72
65
 73
2
 40
0.2
 49
0.1
 74
0
 49
-0.1
 74
0
  0
LTYPE
  5
1F7
100
AcDbSymbolTableRecord
100
AcDbLinetypeTableRecord
  2
PHANTOM
 70
64
  3
_____ _ _ _____ _ _ _____ _ _ _____
 72
65
 73
6
 40
0.8
 49
0.45
 74
0
 49
-0.05
 74
0
 49
0.1
 74
0
 49
-0.05
 74
0
 49
0.1
 74
0
 49
-0.05
 74
0
  0
LTYPE
  5
1F8
100
AcDbSymbolTableRecord
100
AcDbLinetypeTableRecord
  2
DOT
 70
64
  3
. . . . . . . . . . . . . . . . . . . .
 72
65
 73
2
 40
0.2
 49
0.1
 74
0
 49
-0.1
 74
0
  0
LTYPE
  5
1F9
100
AcDbSymbolTableRecord
100
AcDbLinetypeTableRecord
  2
DASHED
 70
64
  3
- - - - - - - - - - - - - - - - - - - -
 72
65
 73
2
 40
0.2
 49
0.1
 74
0
 49
-0.1
 74
0
  0
ENDTAB
  0
TABLE
  2
LAYER
  5
2
100
AcDbSymbolTable
 70
36
  0
LAYER
  5
10
100
AcDbSymbolTableRecord
100
AcDbLayerTableRecord
  2
0
 70
0
 62
7
  6
CONTINUOUS
370
-3
390
F
  0
LAYER
  5
1FA
100
AcDbSymbolTableRecord
100
AcDbLayerTableRecord
  2
DEFAULT_1
 70
0
 62
7
  6
CENTER
370
-3
390
F
  0
LAYER
  5
1FB
100
AcDbSymbolTableRecord
100
AcDbLayerTableRecord
  2
DEFAULT_2
 70
0
 62
7
  6
HIDDEN
370
-3
390
F
  0
LAYER
  5
1FC
100
AcDbSymbolTableRecord
100
AcDbLayerTableRecord
  2
DEFAULT_3
 70
0
 62
7
  6
PHANTOM
370
-3
390
F
  0
LAYER
  5
1FD
100
AcDbSymbolTableRecord
100
AcDbLayerTableRecord
  2
ASSI
 70
0
 62
7
  6
CONTINUOUS
370
-3
390
F
  0
LAYER
  5
1FE
100
AcDbSymbolTableRecord
100
AcDbLayerTableRecord
  2
COORDINATE
 70
0
 62
7
  6
CONTINUOUS
370
-3
390
F
  0
LAYER
  5
1FF
100
AcDbSymbolTableRecord
100
AcDbLayerTableRecord
  2
COPY_PUBLISH
 70
0
 62
7
  6
CONTINUOUS
370
-3
390
F
  0
LAYER
  5
200
100
AcDbSymbolTableRecord
100
AcDbLayerTableRecord
  2
COSMETICI
 70
0
 62
7
  6
CONTINUOUS
370
-3
390
F
  0
LAYER
  5
201
100
AcDbSymbolTableRecord
100
AcDbLayerTableRecord
  2
CURVE
 70
0
 62
7
  6
CONTINUOUS
370
-3
390
F
  0
LAYER
  5
202
100
AcDbSymbolTableRecord
100
AcDbLayerTableRecord
  2
DRAFT
 70
0
 62
7
  6
CONTINUOUS
370
-3
390
F
  0
LAYER
  5
203
100
AcDbSymbolTableRecord
100
AcDbLayerTableRecord
  2
IMPORT_IGES
 70
0
 62
7
  6
CONTINUOUS
370
-3
390
F
  0
LAYER
  5
204
100
AcDbSymbolTableRecord
100
AcDbLayerTableRecord
  2
INTF_1
 70
0
 62
7
  6
CONTINUOUS
370
-3
390
F
  0
LAYER
  5
205
100
AcDbSymbolTableRecord
100
AcDbLayerTableRecord
  2
INTF_11
 70
0
 62
7
  6
CONTINUOUS
370
-3
390
F
  0
LAYER
  5
206
100
AcDbSymbolTableRecord
100
AcDbLayerTableRecord
  2
NOTE
 70
0
 62
7
  6
CONTINUOUS
370
-3
390
F
  0
LAYER
  5
207
100
AcDbSymbolTableRecord
100
AcDbLayerTableRecord
  2
PIANI
 70
0
 62
7
  6
CONTINUOUS
370
-3
390
F
  0
LAYER
  5
208
100
AcDbSymbolTableRecord
100
AcDbLayerTableRecord
  2
PUNTI
 70
0
 62
7
  6
CONTINUOUS
370
-3
390
F
  0
LAYER
  5
209
100
AcDbSymbolTableRecord
100
AcDbLayerTableRecord
  2
RACCORDO
 70
0
 62
7
  6
CONTINUOUS
370
-3
390
F
  0
LAYER
  5
20A
100
AcDbSymbolTableRecord
100
AcDbLayerTableRecord
  2
RGB____0____0____0__
 70
0
 62
7
  6
CONTINUOUS
370
-3
390
F
  0
LAYER
  5
20B
100
AcDbSymbolTableRecord
100
AcDbLayerTableRecord
  2
SIMBOLI
 70
0
 62
7
  6
CONTINUOUS
370
-3
390
F
  0
LAYER
  5
20C
100
AcDbSymbolTableRecord
100
AcDbLayerTableRecord
  2
SMUSSO
 70
0
 62
7
  6
CONTINUOUS
370
-3
390
F
  0
LAYER
  5
20D
100
AcDbSymbolTableRecord
100
AcDbLayerTableRecord
  2
SNAPLINE
 70
0
 62
7
  6
CONTINUOUS
370
-3
390
F
  0
LAYER
  5
20E
100
AcDbSymbolTableRecord
100
AcDbLayerTableRecord
  2
SUPERFICI
 70
0
 62
7
  6
CONTINUOUS
370
-3
390
F
  0
LAYER
  5
20F
100
AcDbSymbolTableRecord
100
AcDbLayerTableRecord
  2
TRASH
 70
0
 62
7
  6
CONTINUOUS
370
-3
390
F
  0
ENDTAB
  0
TABLE
  2
STYLE
  5
3
100
AcDbSymbolTable
 70
1
  0
STYLE
  5
11
100
AcDbSymbolTableRecord
100
AcDbTextStyleTableRecord
  2
STANDARD
 70
0
 40
0.0
 41
0.8
 50
0.0
 71
0
 42
0.2
  3
txt
  4

  0
STYLE
  5
210
100
AcDbSymbolTableRecord
100
AcDbTextStyleTableRecord
  2
TEXTSTYLE_1
 70
0
 40
0.0
 41
0.8
 50
0.0
 71
0
 42
0.2
  3
gdt
  4

  0
ENDTAB
  0
TABLE
  2
VIEW
  5
6
100
AcDbSymbolTable
 70
0
  0
ENDTAB
  0
TABLE
  2
UCS
  5
7
100
AcDbSymbolTable
 70
0
  0
ENDTAB
  0
TABLE
  2
APPID
  5
9
100
AcDbSymbolTable
 70
1
  0
APPID
  5
211
100
AcDbSymbolTableRecord
100
AcDbRegAppTableRecord
  2
ACAD
 70
0
  0
ENDTAB
  0
TABLE
  2
BLOCK_RECORD
  5
1
100
AcDbSymbolTable
 70
0
  0
BLOCK_RECORD
  5
212
100
AcDbSymbolTableRecord
100
AcDbBlockTableRecord
  2
*Model_Space
  0
BLOCK_RECORD
  5
213
100
AcDbSymbolTableRecord
100
AcDbBlockTableRecord
  2
*Paper_Space
  0
BLOCK_RECORD
  5
214
100
AcDbSymbolTableRecord
100
AcDbBlockTableRecord
  2
_FILLED
  0
BLOCK_RECORD
  5
215
100
AcDbSymbolTableRecord
100
AcDbBlockTableRecord
  2
*D0
  0
BLOCK_RECORD
  5
216
100
AcDbSymbolTableRecord
100
AcDbBlockTableRecord
  2
*D1
  0
BLOCK_RECORD
  5
217
100
AcDbSymbolTableRecord
100
AcDbBlockTableRecord
  2
*D2
  0
ENDTAB
  0
TABLE
  2
DIMSTYLE
  5
A
100
AcDbSymbolTable
 70
1
100
AcDbDimStyleTable
 71
0
  0
DIMSTYLE
105
218
100
AcDbSymbolTableRecord
100
AcDbDimStyleTableRecord
  2
STANDARD
 70
0
  3

  4

 40
1.0
 41
3.0
 42
0.5
 43
0.38
 44
1.5
 45
0.0
 46
0.0
 47
0.01
 48
0.01
140
3.0
141
0.09
142
0.0
143
25.4
144
1.0
145
0.0
146
1.0
147
0.625
 71
1
 72
0
 73
0
 74
0
 75
0
 76
0
 77
1
 78
8
 79
2
170
0
171
1
172
0
173
0
174
0
175
0
176
0
177
0
178
0
270
2
179
2
271
2
272
2
273
2
274
2
275
0
280
0
281
0
282
0
283
1
284
8
285
0
286
0
287
3
288
0
340
11
278
44
341
214
342
214
343
214
344
214
  0
DIMSTYLE
105
219
100
AcDbSymbolTableRecord
100
AcDbDimStyleTableRecord
  2
DIMSTYLE_1
 70
0
  3

  4

 40
1.0
 41
3.0
 42
0.5
 43
0.38
 44
1.5
 45
0.0
 46
0.0
 47
0.0
 48
0.0
140
3.0
141
0.09
142
0.0
143
25.4
144
1.0
145
0.0
146
1.0
147
0.75
 71
0
 72
0
 73
0
 74
0
 75
0
 76
0
 77
1
 78
8
 79
2
170
0
171
1
172
0
173
0
174
0
175
0
176
0
177
0
178
0
270
2
179
2
271
0
272
0
273
2
274
2
275
0
280
0
281
0
282
0
283
1
284
8
285
0
286
0
287
3
288
0
340
11
278
44
341
214
342
214
343
214
344
214
  0
ENDTAB
  0
ENDSEC
  0
SECTION
  2
BLOCKS
  0
BLOCK
  5
20
100
AcDbEntity
  8
0
100
AcDbBlockBegin
  2
*Model_Space
 70
0
 10
0.0
 20
0.0
 30
0.0
  3
*Model_Space
  1

  0
ENDBLK
  5
21
100
AcDbEntity
  8
0
100
AcDbBlockEnd
  0
BLOCK
  5
1C
100
AcDbEntity
  8
0
100
AcDbBlockBegin
  2
*Paper_Space
 70
0
 10
0.0
 20
0.0
 30
0.0
  3
*Paper_Space
  1

  0
ENDBLK
  5
1D
100
AcDbEntity
  8
0
100
AcDbBlockEnd
  0
BLOCK
  5
21A
100
AcDbEntity
  8
0
100
AcDbBlockBegin
  2
_FILLED
 70
64
 10
0.0
 20
0.0
  3
_FILLED
  1

  0
SOLID
  5
21B
100
AcDbEntity
  8
0
  6
BYBLOCK
 62
0
100
AcDbTrace
 10
0.0
 20
0.0
 11
-1.0
 21
0.3166666667
 12
-1.0
 22
-0.3166666667
 13
-1.0
 23
-0.3166666667
  0
ENDBLK
  5
21C
100
AcDbEntity
  8
0
  6
BYBLOCK
 62
0
100
AcDbBlockEnd
  0
BLOCK
  5
21D
100
AcDbEntity
  8
0
100
AcDbBlockBegin
 62
7
  6
CONTINUOUS
  2
*D0
 70
65
 10
0.0
 20
0.0
  3
*D0
  1

  0
LINE
  5
21E
100
AcDbEntity
  8
0
100
AcDbLine
 62
7
  6
CONTINUOUS
 10
-81.6198338949
 20
41.9532975918
 11
-81.6198338608
 21
53.3941602878
  0
LINE
  5
21F
100
AcDbEntity
  8
0
100
AcDbLine
 62
7
  6
CONTINUOUS
 10
-90.697855781
 20
0.5000072003
 11
-90.6978556229
 21
53.3941603149
  0
LINE
  5
220
100
AcDbEntity
  8
0
100
AcDbLine
 62
7
  6
CONTINUOUS
 10
-81.6198338652
 20
51.8941602878
 11
-77.6198338652
 21
51.8941602759
  0
LINE
  5
221
100
AcDbEntity
  8
0
100
AcDbLine
 62
7
  6
CONTINUOUS
 10
-77.6198338652
 20
51.8941602759
 11
-86.1588447463
 21
51.8941603014
  0
LINE
  5
222
100
AcDbEntity
  8
0
100
AcDbLine
 62
7
  6
CONTINUOUS
 10
-90.6978556274
 20
51.8941603149
 11
-94.6978556274
 21
51.8941603269
  0
LINE
  5
223
100
AcDbEntity
  8
0
100
AcDbLine
 62
7
  6
CONTINUOUS
 10
-94.6978556274
 20
51.8941603269
 11
-86.1588447463
 21
51.8941603014
  0
INSERT
  5
224
100
AcDbEntity
  8
0
100
AcDbBlockReference
 62
7
  6
CONTINUOUS
  2
_FILLED
 10
-81.6198338652
 20
51.8941602878
 41
3.0
 42
3.0
 43
3.0
 50
179.9999998288
  0
INSERT
  5
225
100
AcDbEntity
  8
0
100
AcDbBlockReference
 62
7
  6
CONTINUOUS
  2
_FILLED
 10
-90.6978556274
 20
51.8941603149
 41
3.0
 42
3.0
 43
3.0
 50
359.9999998288
  0
ENDBLK
  5
226
100
AcDbEntity
  8
0
  6
BYBLOCK
 62
0
100
AcDbBlockEnd
  0
BLOCK
  5
227
100
AcDbEntity
  8
0
100
AcDbBlockBegin
 62
7
  6
CONTINUOUS
  2
*D1
 70
65
 10
0.0
 20
0.0
  3
*D1
  1

  0
LINE
  5
228
100
AcDbEntity
  8
0
100
AcDbLine
 62
7
  6
CONTINUOUS
 10
59.6502732348
 20
42.9499991288
 11
70.3943540085
 21
42.9499991288
  0
LINE
  5
229
100
AcDbEntity
  8
0
100
AcDbLine
 62
7
  6
CONTINUOUS
 10
59.6502732348
 20
-42.9500008712
 11
70.3943540085
 21
-42.9500008712
  0
LINE
  5
22A
100
AcDbEntity
  8
0
100
AcDbLine
 62
7
  6
CONTINUOUS
 10
68.8943540085
 20
42.9499991288
 11
68.8943540085
 21
-0.0000008712
  0
LINE
  5
22B
100
AcDbEntity
  8
0
100
AcDbLine
 62
7
  6
CONTINUOUS
 10
68.8943540085
 20
-42.9500008712
 11
68.8943540085
 21
-0.0000008712
  0
INSERT
  5
22C
100
AcDbEntity
  8
0
100
AcDbBlockReference
 62
7
  6
CONTINUOUS
  2
_FILLED
 10
68.8943540085
 20
42.9499991288
 41
3.0
 42
3.0
 43
3.0
 50
90.0
  0
INSERT
  5
22D
100
AcDbEntity
  8
0
100
AcDbBlockReference
 62
7
  6
CONTINUOUS
  2
_FILLED
 10
68.8943540085
 20
-42.9500008712
 41
3.0
 42
3.0
 43
3.0
 50
270.0
  0
ENDBLK
  5
22E
100
AcDbEntity
  8
0
  6
BYBLOCK
 62
0
100
AcDbBlockEnd
  0
BLOCK
  5
22F
100
AcDbEntity
  8
0
100
AcDbBlockBegin
 62
7
  6
CONTINUOUS
  2
*D2
 70
65
 10
0.0
 20
0.0
  3
*D2
  1

  0
LINE
  5
230
100
AcDbEntity
  8
0
100
AcDbLine
 62
7
  6
CONTINUOUS
 10
59.9499990948
 20
42.6502732688
 11
59.9499990948
 21
53.3941603014
  0
LINE
  5
231
100
AcDbEntity
  8
0
100
AcDbLine
 62
7
  6
CONTINUOUS
 10
-59.9500009052
 20
42.6502732688
 11
-59.9500009052
 21
53.3941603014
  0
LINE
  5
232
100
AcDbEntity
  8
0
100
AcDbLine
 62
7
  6
CONTINUOUS
 10
59.9499990948
 20
51.8941603014
 11
-0.0000009052
 21
51.8941603014
  0
LINE
  5
233
100
AcDbEntity
  8
0
100
AcDbLine
 62
7
  6
CONTINUOUS
 10
-59.9500009052
 20
51.8941603014
 11
-0.0000009052
 21
51.8941603014
  0
INSERT
  5
234
100
AcDbEntity
  8
0
100
AcDbBlockReference
 62
7
  6
CONTINUOUS
  2
_FILLED
 10
59.9499990948
 20
51.8941603014
 41
3.0
 42
3.0
 43
3.0
 50
0.0
  0
INSERT
  5
235
100
AcDbEntity
  8
0
100
AcDbBlockReference
 62
7
  6
CONTINUOUS
  2
_FILLED
 10
-59.9500009052
 20
51.8941603014
 41
3.0
 42
3.0
 43
3.0
 50
180.0
  0
ENDBLK
  5
236
100
AcDbEntity
  8
0
  6
BYBLOCK
 62
0
100
AcDbBlockEnd
  0
ENDSEC
  0
SECTION
  2
ENTITIES
  0
DIMENSION
  5
237
100
AcDbEntity
  8
0
100
AcDbDimension
 62
7
  6
CONTINUOUS
  2
*D0
 10
-90.6978556274
 20
51.8941603149
 11
-87.3374161782
 21
51.8941603049
 70
160
 71
2
 72
2
 41
0.9
 42
9.0780217622
  3
DIMSTYLE_1
100
AcDbAlignedDimension
 13
-81.6198338964
 23
41.4532975918
 14
-90.6978557824
 24
0.0000072003
 50
179.9999998288
100
AcDbRotatedDimension
  0
DIMENSION
  5
238
100
AcDbEntity
  8
0
100
AcDbDimension
 62
7
  6
CONTINUOUS
  2
*D1
 10
68.8943540085
 20
-42.9500008712
 11
68.8943540085
 21
-2.3571437284
 70
160
 71
2
 72
2
 41
0.9
 42
85.9
  3
DIMSTYLE_1
100
AcDbAlignedDimension
 13
59.1502732348
 23
42.9499991288
 14
59.1502732348
 24
-42.9500008712
 50
270.0
100
AcDbRotatedDimension
  0
DIMENSION
  5
239
100
AcDbEntity
  8
0
100
AcDbDimension
 62
7
  6
CONTINUOUS
  2
*D2
 10
-59.9500009052
 20
51.8941603014
 11
-3.2142866195
 21
51.8941603014
 70
160
 71
2
 72
2
 41
0.9
 42
119.9
  3
DIMSTYLE_1
100
AcDbAlignedDimension
 13
59.9499990948
 23
42.1502732688
 14
-59.9500009052
 24
42.1502732688
 50
180.0
100
AcDbRotatedDimension
  0
LWPOLYLINE
  5
23A
100
AcDbEntity
  8
ASSI
100
AcDbPolyline
 62
250
  6
CONTINUOUS
 90
15
 70
0
 10
-59.1094917811
 20
-42.9092176071
 10
-59.1114282739
 20
-42.9064906321
 10
-59.1133518899
 20
-42.9004582261
 10
-59.1152498381
 20
-42.8911605027
 10
-59.1171094983
 20
-42.8786592879
 10
-59.1189185049
 20
-42.8630377091
 10
-59.1206648292
 20
-42.8443996425
 10
-59.122336859
 20
-42.8228690221
 10
-59.1239234766
 20
-42.798589015
 10
-59.1254141319
 20
-42.7717210694
 10
-59.126798913
 20
-42.7424438422
 10
-59.1280686122
 20
-42.7109520102
 10
-59.1292147867
 20
-42.6774549743
 10
-59.1302298152
 20
-42.6421754702
 10
-59.1311069486
 20
-42.6053480853
  0
LWPOLYLINE
  5
23B
100
AcDbEntity
  8
ASSI
100
AcDbPolyline
 62
250
  6
CONTINUOUS
 90
14
 70
0
 10
-59.9092334267
 20
42.1095057903
 10
-59.9065087856
 20
42.1113321889
 10
-59.9004824125
 20
42.1131464566
 10
-59.8911943347
 20
42.1149365431
 10
-59.8787062432
 20
42.1166905589
 10
-59.8631010838
 20
42.1183968538
 10
-59.8444825054
 20
42.1200440948
 10
-59.8229741721
 20
42.121621341
 10
-59.798718941
 20
42.1231181165
 10
-59.7718779142
 20
42.1245244797
 10
-59.7426293681
 20
42.1258310899
 10
-59.71116757
 20
42.1270292685
 10
-59.6777014866
 20
42.1281110574
 10
-59.6424533977
 20
42.1290692715
  0
LWPOLYLINE
  5
23C
100
AcDbEntity
  8
ASSI
100
AcDbPolyline
 62
250
  6
CONTINUOUS
 90
22
 70
0
 10
-59.4479463487
 20
-42.1321834947
 10
-59.44616476
 20
-42.154888621
 10
-59.4427433561
 20
-42.1773312982
 10
-59.4376816573
 20
-42.1995109281
 10
-59.4309282364
 20
-42.221561174
 10
-59.4225335493
 20
-42.2433471413
 10
-59.4126500441
 20
-42.2644655518
 10
-59.4012550421
 20
-42.2848903506
 10
-59.3883705434
 20
-42.3046467811
 10
-59.3742162699
 20
-42.3234088933
 10
-59.3587738638
 20
-42.341159693
 10
-59.3420614188
 20
-42.3579159439
 10
-59.3243536382
 20
-42.3734027751
 10
-59.3056334545
 20
-42.387602574
 10
-59.2859181293
 20
-42.4005333828
 10
-59.2655341632
 20
-42.4119742547
 10
-59.24445501
 20
-42.4219039484
 10
-59.2227078194
 20
-42.4303447351
 10
-59.200699898
 20
-42.4371413077
 10
-59.1785673543
 20
-42.4422424323
 10
-59.1561749815
 20
-42.4457007885
 10
-59.1335232226
 20
-42.4475170859
  0
LWPOLYLINE
  5
23D
100
AcDbEntity
  8
ASSI
100
AcDbPolyline
 62
250
  6
CONTINUOUS
 90
22
 70
0
 10
-59.9092334267
 20
-42.1095075328
 10
-59.9069976795
 20
-42.1692857568
 10
-59.9003011167
 20
-42.228730346
 10
-59.8891803756
 20
-42.2875091767
 10
-59.8736954237
 20
-42.34529788
 10
-59.853932774
 20
-42.4017689225
 10
-59.8300081608
 20
-42.4565945147
 10
-59.8020594567
 20
-42.5094653564
 10
-59.7702430718
 20
-42.5600910339
 10
-59.7347388753
 20
-42.6081897152
 10
-59.695751222
 20
-42.6534894715
 10
-59.6534956849
 20
-42.6957440427
 10
-59.6081949069
 20
-42.7347307741
 10
-59.5600952994
 20
-42.7702339799
 10
-59.5094686457
 20
-42.8020494292
 10
-59.4565962548
 20
-42.8299974876
 10
-59.401768072
 20
-42.8539217855
 10
-59.3452937499
 20
-42.8736840941
 10
-59.2875018031
 20
-42.8891683624
 10
-59.2287200549
 20
-42.9002880654
 10
-59.1692726645
 20
-42.9069833471
 10
-59.1094917811
 20
-42.9092176071
  0
LINE
  5
23E
100
AcDbEntity
  8
ASSI
100
AcDbLine
 62
250
  6
CONTINUOUS
 10
-59.4479463487
 20
-42.1321834947
 11
-59.4716391826
 21
-41.4835459333
  0
LINE
  5
23F
100
AcDbEntity
  8
ASSI
100
AcDbLine
 62
250
  6
CONTINUOUS
 10
-59.4716391826
 20
-41.4835459333
 11
-59.4920682168
 21
-40.7743238049
  0
LINE
  5
240
100
AcDbEntity
  8
ASSI
100
AcDbLine
 62
250
  6
CONTINUOUS
 10
-59.4920682168
 20
-40.7743238049
 11
-59.5091219776
 21
-40.0046082533
  0
LINE
  5
241
100
AcDbEntity
  8
ASSI
100
AcDbLine
 62
250
  6
CONTINUOUS
 10
-59.1311069486
 20
-42.6053480853
 11
-59.1324251562
 21
-42.5280378491
  0
LINE
  5
242
100
AcDbEntity
  8
ASSI
100
AcDbLine
 62
250
  6
CONTINUOUS
 10
-59.5091219776
 20
-40.0046082533
 11
-59.5223275104
 21
-39.171392386
  0
LINE
  5
243
100
AcDbEntity
  8
ASSI
100
AcDbLine
 62
250
  6
CONTINUOUS
 10
-59.5223275104
 20
-39.171392386
 11
-59.5320092977
 21
-38.2937297464
  0
LINE
  5
244
100
AcDbEntity
  8
ASSI
100
AcDbLine
 62
250
  6
CONTINUOUS
 10
-59.1324251562
 20
-42.5280378491
 11
-59.1331344072
 21
-42.4475771075
  0
LINE
  5
245
100
AcDbEntity
  8
ASSI
100
AcDbLine
 62
250
  6
CONTINUOUS
 10
-59.5320092977
 20
-38.2937297464
 11
-59.5413348528
 21
-36.9115869032
  0
LINE
  5
246
100
AcDbEntity
  8
ASSI
100
AcDbLine
 62
250
  6
CONTINUOUS
 10
-59.5413348528
 20
-36.9115869032
 11
-59.549065341
 21
-34.9521458762
  0
LINE
  5
247
100
AcDbEntity
  8
ASSI
100
AcDbLine
 62
250
  6
CONTINUOUS
 10
-59.549065341
 20
-34.9521458762
 11
-59.5535996781
 21
-32.8500049434
  0
LINE
  5
248
100
AcDbEntity
  8
ASSI
100
AcDbLine
 62
250
  6
CONTINUOUS
 10
-59.5535996781
 20
-32.8500049434
 11
-59.5572647549
 21
-26.497145625
  0
LINE
  5
249
100
AcDbEntity
  8
ASSI
100
AcDbLine
 62
7
  6
CONTINUOUS
 10
-59.9500009052
 20
42.1502732688
 11
-59.9500009052
 21
-42.1502750113
  0
LINE
  5
24A
100
AcDbEntity
  8
ASSI
100
AcDbLine
 62
250
  6
CONTINUOUS
 10
-59.5572647549
 20
-26.497145625
 11
-59.5722124045
 21
-17.1738290824
  0
LINE
  5
24B
100
AcDbEntity
  8
ASSI
100
AcDbLine
 62
250
  6
CONTINUOUS
 10
-59.5614786029
 20
-4.0481621959
 11
-59.5719814528
 21
18.4212247064
  0
LINE
  5
24C
100
AcDbEntity
  8
ASSI
100
AcDbLine
 62
250
  6
CONTINUOUS
 10
-59.9092338761
 20
-42.1095079821
 11
-59.9092330793
 21
42.1095054428
  0
LWPOLYLINE
  5
24D
100
AcDbEntity
  8
ASSI
100
AcDbPolyline
 62
250
  6
CONTINUOUS
 90
3
 70
0
 10
-59.5722124045
 20
-17.1738290824
 10
-59.5679864713
 20
-13.3124474852
 10
-59.5614786029
 20
-4.0481621959
  0
LWPOLYLINE
  5
24E
100
AcDbEntity
  8
ASSI
100
AcDbPolyline
 62
250
  6
CONTINUOUS
 90
3
 70
0
 10
-59.5719814528
 20
18.4212247064
 10
-59.5680679999
 20
20.8433630807
 10
-59.5651867465
 20
22.0541730721
  0
LINE
  5
24F
100
AcDbEntity
  8
ASSI
100
AcDbLine
 62
250
  6
CONTINUOUS
 10
-59.5651867465
 20
22.0541730721
 11
-59.5531511809
 21
33.1456071826
  0
LINE
  5
250
100
AcDbEntity
  8
ASSI
100
AcDbLine
 62
250
  6
CONTINUOUS
 10
-59.5531511809
 20
33.1456071826
 11
-59.5486261569
 21
35.0966101939
  0
LINE
  5
251
100
AcDbEntity
  8
ASSI
100
AcDbLine
 62
250
  6
CONTINUOUS
 10
-59.5486261569
 20
35.0966101939
 11
-59.541524135
 21
36.8548985793
  0
LINE
  5
252
100
AcDbEntity
  8
ASSI
100
AcDbLine
 62
250
  6
CONTINUOUS
 10
-59.541524135
 20
36.8548985793
 11
-59.5341172987
 21
38.0350354449
  0
LINE
  5
253
100
AcDbEntity
  8
ASSI
100
AcDbLine
 62
250
  6
CONTINUOUS
 10
-59.5341172987
 20
38.0350354449
 11
-59.5274716496
 21
38.7517000159
  0
LINE
  5
254
100
AcDbEntity
  8
ASSI
100
AcDbLine
 62
250
  6
CONTINUOUS
 10
-59.1331344549
 20
42.4475753336
 11
-59.1324252006
 21
42.5280363343
  0
LINE
  5
255
100
AcDbEntity
  8
ASSI
100
AcDbLine
 62
250
  6
CONTINUOUS
 10
-59.5274716496
 20
38.7517000159
 11
-59.5189683807
 21
39.4166910982
  0
LINE
  5
256
100
AcDbEntity
  8
ASSI
100
AcDbLine
 62
250
  6
CONTINUOUS
 10
-59.5189683807
 20
39.4166910982
 11
-59.5085128108
 21
40.0363981805
  0
LWPOLYLINE
  5
257
100
AcDbEntity
  8
ASSI
100
AcDbPolyline
 62
250
  6
CONTINUOUS
 90
16
 70
0
 10
-59.1324252006
 20
42.5280363343
 10
-59.1311069869
 20
42.6053467426
 10
-59.1302298501
 20
42.6421741787
 10
-59.1292148178
 20
42.6774537205
 10
-59.1280686393
 20
42.7109507832
 10
-59.126798936
 20
42.7424426276
 10
-59.1254141507
 20
42.7717198518
 10
-59.1239234914
 20
42.7985877795
 10
-59.1223368701
 20
42.8228677549
 10
-59.120664837
 20
42.8443983307
 10
-59.1189185083
 20
42.8630363562
 10
-59.1171094977
 20
42.8786578793
 10
-59.1152498391
 20
42.891158997
 10
-59.1133518999
 20
42.9004566028
 10
-59.1114282989
 20
42.9064889119
 10
-59.1094918268
 20
42.9092158394
  0
LINE
  5
258
100
AcDbEntity
  8
ASSI
100
AcDbLine
 62
250
  6
CONTINUOUS
 10
-59.5085128108
 20
40.0363981805
 11
-59.4960877056
 21
40.6139233812
  0
LINE
  5
259
100
AcDbEntity
  8
ASSI
100
AcDbLine
 62
250
  6
CONTINUOUS
 10
-59.4960877056
 20
40.6139233812
 11
-59.4817771761
 21
41.1522890431
  0
LINE
  5
25A
100
AcDbEntity
  8
ASSI
100
AcDbLine
 62
250
  6
CONTINUOUS
 10
-59.4817771761
 20
41.1522890431
 11
-59.4657417159
 21
41.6576212715
  0
LINE
  5
25B
100
AcDbEntity
  8
ASSI
100
AcDbLine
 62
250
  6
CONTINUOUS
 10
-59.4657417159
 20
41.6576212715
 11
-59.4480282331
 21
42.131644416
  0
LWPOLYLINE
  5
25C
100
AcDbEntity
  8
ASSI
100
AcDbPolyline
 62
250
  6
CONTINUOUS
 90
22
 70
0
 10
59.1337109057
 20
-42.4474878347
 10
59.1562781568
 20
-42.4456845237
 10
59.1786069838
 20
-42.442236021
 10
59.2006969422
 20
-42.4371416158
 10
59.2226901381
 20
-42.4303475998
 10
59.2444435575
 20
-42.4219062283
 10
59.2655291883
 20
-42.4119758864
 10
59.2859130516
 20
-42.4005353182
 10
59.3056285238
 20
-42.3876047507
 10
59.3243488907
 20
-42.3734051688
 10
59.3420568247
 20
-42.357918547
 10
59.3587694593
 20
-42.3411624812
 10
59.3742120782
 20
-42.3234118305
 10
59.3883665705
 20
-42.3046498981
 10
59.4012513111
 20
-42.2848936113
 10
59.412646616
 20
-42.2644687087
 10
59.4225275208
 20
-42.2433696372
 10
59.4309196705
 20
-42.2216027651
 10
59.4376795406
 20
-42.1995120764
 10
59.4427596409
 20
-42.1772126845
 10
59.4462084176
 20
-42.1545906781
 10
59.4480263481
 20
-42.1316466476
  0
LWPOLYLINE
  5
25D
100
AcDbEntity
  8
ASSI
100
AcDbPolyline
 62
250
  6
CONTINUOUS
 90
22
 70
0
 10
59.1094899706
 20
-42.9092176071
 10
59.169270157
 20
-42.9069833992
 10
59.228716538
 20
-42.9002883224
 10
59.2874969898
 20
-42.8891690477
 10
59.3452870891
 20
-42.8736855903
 10
59.4017593736
 20
-42.8539244892
 10
59.4565862374
 20
-42.8300014404
 10
59.5094584297
 20
-42.8020542827
 10
59.5600854837
 20
-42.7702394383
 10
59.6081855805
 20
-42.7347367684
 10
59.6534867902
 20
-42.6957506159
 10
59.6957428434
 20
-42.6534965496
 10
59.7347310835
 20
-42.6081972144
 10
59.7702358203
 20
-42.560099013
 10
59.8020528119
 20
-42.5094737282
 10
59.8300024144
 20
-42.4566026859
 10
59.85392827
 20
-42.4017757837
 10
59.87369212
 20
-42.3453027201
 10
59.8891778793
 20
-42.2875121815
 10
59.9002990482
 20
-42.2287320587
 10
59.9069958165
 20
-42.1692864595
 10
59.9092316163
 20
-42.1095075328
  0
LWPOLYLINE
  5
25E
100
AcDbEntity
  8
ASSI
100
AcDbPolyline
 62
250
  6
CONTINUOUS
 90
3
 70
0
 10
59.1337109057
 20
-42.4474878347
 10
58.3247530534
 20
-42.4789742506
 10
57.8915236841
 20
-42.4936079465
  0
LWPOLYLINE
  5
25F
100
AcDbEntity
  8
ASSI
100
AcDbPolyline
 62
250
  6
CONTINUOUS
 90
3
 70
0
 10
-57.9858598367
 20
-42.4905010634
 10
-58.7652892406
 20
-42.4625160782
 10
-59.1335232226
 20
-42.4475170859
  0
LWPOLYLINE
  5
260
100
AcDbEntity
  8
0
100
AcDbPolyline
 62
7
  6
CONTINUOUS
 90
3
 70
0
 43
0.3500000006
 10
-3.2142865334
 20
54.7870190277
 10
-2.3571437788
 20
55.644161499
 10
-2.3571437788
 20
52.6441605835
  0
LINE
  5
261
100
AcDbEntity
  8
ASSI
100
AcDbLine
 62
250
  6
CONTINUOUS
 10
57.8915236841
 20
-42.4936079465
 11
56.9668239276
 21
-42.5208167183
  0
LINE
  5
262
100
AcDbEntity
  8
ASSI
100
AcDbLine
 62
250
  6
CONTINUOUS
 10
56.9668239276
 20
-42.5208167183
 11
55.9664670442
 21
-42.5441934533
  0
LINE
  5
263
100
AcDbEntity
  8
ASSI
100
AcDbLine
 62
250
  6
CONTINUOUS
 10
59.6424515876
 20
-42.1290710139
 11
59.5675561346
 21
-42.130592123
  0
LINE
  5
264
100
AcDbEntity
  8
ASSI
100
AcDbLine
 62
250
  6
CONTINUOUS
 10
55.9664670442
 20
-42.5441934533
 11
54.9000131684
 21
-42.5634217846
  0
LINE
  5
265
100
AcDbEntity
  8
ASSI
100
AcDbLine
 62
250
  6
CONTINUOUS
 10
54.9000131684
 20
-42.5634217846
 11
53.7989337285
 21
-42.5781588129
  0
LWPOLYLINE
  5
266
100
AcDbEntity
  8
ASSI
100
AcDbPolyline
 62
250
  6
CONTINUOUS
 90
3
 70
0
 10
59.5675561346
 20
-42.130592123
 10
59.488465896
 20
-42.1315539931
 10
59.4480004428
 20
-42.1318166402
  0
LINE
  5
267
100
AcDbEntity
  8
ASSI
100
AcDbLine
 62
250
  6
CONTINUOUS
 10
53.7989337285
 20
-42.5781588129
 11
52.6702695328
 21
-42.5895758425
  0
LINE
  5
268
100
AcDbEntity
  8
ASSI
100
AcDbLine
 62
250
  6
CONTINUOUS
 10
52.6702695328
 20
-42.5895758425
 11
50.9101605972
 21
-42.6024325706
  0
LINE
  5
269
100
AcDbEntity
  8
ASSI
100
AcDbLine
 62
250
  6
CONTINUOUS
 10
50.9101605972
 20
-42.6024325706
 11
49.0172394501
 21
-42.6128167049
  0
LINE
  5
26A
100
AcDbEntity
  8
ASSI
100
AcDbLine
 62
250
  6
CONTINUOUS
 10
49.0172394501
 20
-42.6128167049
 11
46.9637713047
 21
-42.6211408808
  0
LINE
  5
26B
100
AcDbEntity
  8
ASSI
100
AcDbLine
 62
250
  6
CONTINUOUS
 10
46.9637713047
 20
-42.6211408808
 11
43.9569565758
 21
-42.6290845485
  0
LINE
  5
26C
100
AcDbEntity
  8
ASSI
100
AcDbLine
 62
250
  6
CONTINUOUS
 10
43.9569565758
 20
-42.6290845485
 11
40.6106992634
 21
-42.6341949063
  0
LINE
  5
26D
100
AcDbEntity
  8
ASSI
100
AcDbLine
 62
250
  6
CONTINUOUS
 10
-24.553189991
 20
-42.6237467146
 11
-34.8508617233
 21
-42.6361729652
  0
LINE
  5
26E
100
AcDbEntity
  8
ASSI
100
AcDbLine
 62
250
  6
CONTINUOUS
 10
40.6106992634
 20
-42.6341949063
 11
36.8993981799
 21
-42.6364341549
  0
LINE
  5
26F
100
AcDbEntity
  8
ASSI
100
AcDbLine
 62
250
  6
CONTINUOUS
 10
-0.0000009052
 20
-42.5800433822
 11
-24.553189991
 21
-42.6237467146
  0
LINE
  5
270
100
AcDbEntity
  8
ASSI
100
AcDbLine
 62
7
  6
CONTINUOUS
 10
-59.1502750453
 20
-42.9500008712
 11
59.1502732348
 21
-42.9500008712
  0
LINE
  5
271
100
AcDbEntity
  8
ASSI
100
AcDbLine
 62
250
  6
CONTINUOUS
 10
-47.9340894572
 20
-42.9045623876
 11
-59.1094918738
 21
-42.9092176998
  0
LINE
  5
272
100
AcDbEntity
  8
ASSI
100
AcDbLine
 62
250
  6
CONTINUOUS
 10
-6.8796979398
 20
-42.9052314053
 11
-47.9340894572
 21
-42.9045623876
  0
LINE
  5
273
100
AcDbEntity
  8
ASSI
100
AcDbLine
 62
250
  6
CONTINUOUS
 10
-34.8508617233
 20
-42.6361729652
 11
-38.5410755753
 21
-42.6359034147
  0
LINE
  5
274
100
AcDbEntity
  8
ASSI
100
AcDbLine
 62
250
  6
CONTINUOUS
 10
36.8993981799
 20
-42.6364341549
 11
32.7854699487
 21
-42.6349856258
  0
LINE
  5
275
100
AcDbEntity
  8
ASSI
100
AcDbLine
 62
250
  6
CONTINUOUS
 10
57.4237604953
 20
-42.9075118519
 11
-6.8796979398
 21
-42.9052314053
  0
LINE
  5
276
100
AcDbEntity
  8
ASSI
100
AcDbLine
 62
250
  6
CONTINUOUS
 10
58.3055307819
 20
-42.9083097528
 11
57.4237604953
 21
-42.9075118519
  0
LINE
  5
277
100
AcDbEntity
  8
ASSI
100
AcDbLine
 62
250
  6
CONTINUOUS
 10
59.1094907366
 20
-42.9092183731
 11
58.3055307819
 21
-42.9083097528
  0
LINE
  5
278
100
AcDbEntity
  8
ASSI
100
AcDbLine
 62
250
  6
CONTINUOUS
 10
32.7854699487
 20
-42.6349856258
 11
28.1466759871
 21
-42.6297399266
  0
LINE
  5
279
100
AcDbEntity
  8
ASSI
100
AcDbLine
 62
250
  6
CONTINUOUS
 10
-38.5410755753
 20
-42.6359034147
 11
-42.5733087404
 21
-42.6315568341
  0
LINE
  5
27A
100
AcDbEntity
  8
ASSI
100
AcDbLine
 62
250
  6
CONTINUOUS
 10
9.9487620643
 20
-42.5930993037
 11
-0.0000009052
 21
-42.5800433822
  0
LINE
  5
27B
100
AcDbEntity
  8
ASSI
100
AcDbLine
 62
250
  6
CONTINUOUS
 10
28.1466759871
 20
-42.6297399266
 11
21.7681847847
 21
-42.6181920818
  0
LINE
  5
27C
100
AcDbEntity
  8
ASSI
100
AcDbLine
 62
250
  6
CONTINUOUS
 10
21.7681847847
 20
-42.6181920818
 11
9.9487620643
 21
-42.5930993037
  0
LINE
  5
27D
100
AcDbEntity
  8
ASSI
100
AcDbLine
 62
250
  6
CONTINUOUS
 10
-42.5733087404
 20
-42.6315568341
 11
-45.404783594
 21
-42.6257868369
  0
LINE
  5
27E
100
AcDbEntity
  8
ASSI
100
AcDbLine
 62
250
  6
CONTINUOUS
 10
-45.404783594
 20
-42.6257868369
 11
-47.9360177739
 21
-42.6175489108
  0
LINE
  5
27F
100
AcDbEntity
  8
ASSI
100
AcDbLine
 62
250
  6
CONTINUOUS
 10
-47.9360177739
 20
-42.6175489108
 11
-50.2566253057
 21
-42.6063243156
  0
LINE
  5
280
100
AcDbEntity
  8
ASSI
100
AcDbLine
 62
250
  6
CONTINUOUS
 10
-50.2566253057
 20
-42.6063243156
 11
-51.9691871322
 21
-42.5951288481
  0
LINE
  5
281
100
AcDbEntity
  8
ASSI
100
AcDbLine
 62
250
  6
CONTINUOUS
 10
-51.9691871322
 20
-42.5951288481
 11
-53.1132448684
 21
-42.5854763125
  0
LINE
  5
282
100
AcDbEntity
  8
ASSI
100
AcDbLine
 62
250
  6
CONTINUOUS
 10
-59.4480022281
 20
-42.1318166769
 11
-59.5284081714
 21
-42.1311449495
  0
LINE
  5
283
100
AcDbEntity
  8
ASSI
100
AcDbLine
 62
250
  6
CONTINUOUS
 10
-53.1132448684
 20
-42.5854763125
 11
-54.220887787
 21
-42.5729877048
  0
LINE
  5
284
100
AcDbEntity
  8
ASSI
100
AcDbLine
 62
250
  6
CONTINUOUS
 10
-54.220887787
 20
-42.5729877048
 11
-55.2745385041
 21
-42.5573002035
  0
LWPOLYLINE
  5
285
100
AcDbEntity
  8
ASSI
100
AcDbPolyline
 62
250
  6
CONTINUOUS
 90
16
 70
0
 10
-59.5284081714
 20
-42.1311449495
 10
-59.6056576658
 20
-42.1298993198
 10
-59.6424536744
 20
-42.129071043
 10
-59.6777017862
 20
-42.1281128267
 10
-59.7111678877
 20
-42.1270310354
 10
-59.7426296963
 20
-42.1258328542
 10
-59.7718782444
 20
-42.1245262414
 10
-59.7987192648
 20
-42.1231198754
 10
-59.822974481
 20
-42.1216230972
 10
-59.8444827912
 20
-42.1200458485
 10
-59.8631013506
 20
-42.1183986038
 10
-59.8787064793
 20
-42.1166923053
 10
-59.8911945051
 20
-42.11493829
 10
-59.9004824983
 20
-42.1131482095
 10
-59.9065088003
 20
-42.1113339521
 10
-59.9092334062
 20
-42.1095075679
  0
LINE
  5
286
100
AcDbEntity
  8
ASSI
100
AcDbLine
 62
250
  6
CONTINUOUS
 10
-55.2745385041
 20
-42.5573002035
 11
-56.2489747061
 21
-42.5381904854
  0
LINE
  5
287
100
AcDbEntity
  8
ASSI
100
AcDbLine
 62
250
  6
CONTINUOUS
 10
-56.2489747061
 20
-42.5381904854
 11
-57.1513608959
 21
-42.5158692019
  0
LINE
  5
288
100
AcDbEntity
  8
ASSI
100
AcDbLine
 62
250
  6
CONTINUOUS
 10
-57.1513608959
 20
-42.5158692019
 11
-57.9858598367
 21
-42.4905010634
  0
LINE
  5
289
100
AcDbEntity
  8
RACCORDO
100
AcDbLine
 62
250
  6
CONTINUOUS
 10
-34.3109195868
 20
-22.2699219694
 11
-34.3220681478
 21
-18.6562161656
  0
LINE
  5
28A
100
AcDbEntity
  8
RACCORDO
100
AcDbLine
 62
250
  6
CONTINUOUS
 10
-34.3220681478
 20
-18.6562161656
 11
-34.3312852478
 21
-14.5336500781
  0
LINE
  5
28B
100
AcDbEntity
  8
RACCORDO
100
AcDbLine
 62
250
  6
CONTINUOUS
 10
-34.3312104387
 20
14.5729620741
 11
-34.3109195868
 21
22.2699202269
  0
LWPOLYLINE
  5
28C
100
AcDbEntity
  8
RACCORDO
100
AcDbPolyline
 62
250
  6
CONTINUOUS
 90
25
 70
0
 10
-34.0062764634
 20
22.2581773378
 10
-34.0051720481
 20
22.2909217535
 10
-34.0019384202
 20
22.3233823219
 10
-33.9966137182
 20
22.3554245185
 10
-33.9892571229
 20
22.3868722672
 10
-33.9799160217
 20
22.4176474529
 10
-33.9685963457
 20
22.4477615582
 10
-33.9553180239
 20
22.4771365242
 10
-33.9401501323
 20
22.5055987183
 10
-33.9231609287
 20
22.5330139574
 10
-33.9044171156
 20
22.5592711359
 10
-33.8839988362
 20
22.584256548
 10
-33.8620126749
 20
22.6078442505
 10
-33.8385695152
 20
22.6299245505
 10
-33.8137556744
 20
22.6504258303
 10
-33.7876496639
 20
22.669287586
 10
-33.7604331607
 20
22.6863861375
 10
-33.7321480859
 20
22.7017018445
 10
-33.7026394746
 20
22.7152860231
 10
-33.671879219
 20
22.727071554
 10
-33.6400977007
 20
22.7368915769
 10
-33.6075224838
 20
22.7446255148
 10
-33.5743241618
 20
22.7501957407
 10
-33.5406089606
 20
22.7535459669
 10
-33.5065247209
 20
22.7546202935
  0
LWPOLYLINE
  5
28D
100
AcDbEntity
  8
RACCORDO
100
AcDbPolyline
 62
250
  6
CONTINUOUS
 90
25
 70
0
 10
-34.3109195868
 20
22.2699202269
 10
-34.3088951807
 20
22.322619361
 10
-34.3036189815
 20
22.3744602554
 10
-34.2950909909
 20
22.4254428861
 10
-34.2832555437
 20
22.4756963019
 10
-34.2681683239
 20
22.5250914157
 10
-34.2499963655
 20
22.5732410015
 10
-34.2286940805
 20
22.6202141237
 10
-34.2043071045
 20
22.6659416947
 10
-34.1771393124
 20
22.7098292617
 10
-34.147143945
 20
22.7518549705
 10
-34.1143678301
 20
22.7920406663
 10
-34.0792552239
 20
22.8298574447
 10
-34.0418021942
 20
22.8652516146
 10
-34.0020127493
 20
22.8982768726
 10
-33.9603430485
 20
22.928565395
 10
-33.9169130546
 20
22.9560667492
 10
-33.8716028759
 20
22.9808313862
 10
-33.8245088848
 20
23.0026428088
 10
-33.7754130715
 20
23.0215889604
 10
-33.724533523
 20
23.0375819342
 10
-33.6726207422
 20
23.0501414563
 10
-33.6199249064
 20
23.059107447
 10
-33.5661958833
 20
23.0646400268
 10
-33.5114336962
 20
23.0667392205
  0
LWPOLYLINE
  5
28E
100
AcDbEntity
  8
RACCORDO
100
AcDbPolyline
 62
250
  6
CONTINUOUS
 90
6
 70
0
 10
-33.5089201835
 20
22.8052881506
 10
-33.508471591
 20
22.7894394843
 10
-33.5080028217
 20
22.776327469
 10
-33.5075187341
 20
22.7660880037
 10
-33.5070243458
 20
22.7588272141
 10
-33.506524781
 20
22.7546203535
  0
LINE
  5
28F
100
AcDbEntity
  8
RACCORDO
100
AcDbLine
 62
250
  6
CONTINUOUS
 10
-33.5097384977
 20
22.8445117214
 11
-33.5089201835
 21
22.8052881506
  0
LINE
  5
290
100
AcDbEntity
  8
RACCORDO
100
AcDbLine
 62
250
  6
CONTINUOUS
 10
-33.5104239261
 20
22.8923762619
 11
-33.5097384977
 21
22.8445117214
  0
LINE
  5
291
100
AcDbEntity
  8
RACCORDO
100
AcDbLine
 62
250
  6
CONTINUOUS
 10
-33.5111427036
 20
22.975967501
 11
-33.5104239261
 21
22.8923762619
  0
LINE
  5
292
100
AcDbEntity
  8
RACCORDO
100
AcDbLine
 62
250
  6
CONTINUOUS
 10
-34.0062764989
 20
-22.2581791159
 11
-34.0149578339
 21
-19.235685001
  0
LINE
  5
293
100
AcDbEntity
  8
RACCORDO
100
AcDbLine
 62
250
  6
CONTINUOUS
 10
-33.5114336962
 20
23.0667392205
 11
-33.5111427036
 21
22.975967501
  0
LINE
  5
294
100
AcDbEntity
  8
RACCORDO
100
AcDbLine
 62
250
  6
CONTINUOUS
 10
-34.0149578339
 20
-19.235685001
 11
-34.0226643754
 21
-15.1169634114
  0
LINE
  5
295
100
AcDbEntity
  8
RACCORDO
100
AcDbLine
 62
250
  6
CONTINUOUS
 10
-34.3312852478
 20
-14.5336500781
 11
-34.3402461032
 21
-8.6542535651
  0
LINE
  5
296
100
AcDbEntity
  8
RACCORDO
100
AcDbLine
 62
250
  6
CONTINUOUS
 10
-34.3402461032
 20
-8.6542535651
 11
-34.3449975411
 21
-3.6488393227
  0
LINE
  5
297
100
AcDbEntity
  8
RACCORDO
100
AcDbLine
 62
250
  6
CONTINUOUS
 10
-34.0226643754
 20
-15.1169634114
 11
-34.0300805274
 21
-8.0557629362
  0
LINE
  5
298
100
AcDbEntity
  8
RACCORDO
100
AcDbLine
 62
250
  6
CONTINUOUS
 10
-34.0300805274
 20
-8.0557629362
 11
-34.0333078096
 21
-2.2522511055
  0
LINE
  5
299
100
AcDbEntity
  8
RACCORDO
100
AcDbLine
 62
7
  6
CONTINUOUS
 10
-33.8500009052
 20
22.1019017797
 11
-33.8500009052
 21
-22.1019035222
  0
LINE
  5
29A
100
AcDbEntity
  8
RACCORDO
100
AcDbLine
 62
250
  6
CONTINUOUS
 10
-34.3449975411
 20
-3.6488393227
 11
-34.3461053249
 21
0.6915690273
  0
LINE
  5
29B
100
AcDbEntity
  8
RACCORDO
100
AcDbLine
 62
250
  6
CONTINUOUS
 10
-34.0333078096
 20
-2.2522511055
 11
-34.0320856538
 21
5.1611447968
  0
LINE
  5
29C
100
AcDbEntity
  8
RACCORDO
100
AcDbLine
 62
250
  6
CONTINUOUS
 10
-34.3461053249
 20
0.6915690273
 11
-34.3433725095
 21
5.7657892012
  0
LINE
  5
29D
100
AcDbEntity
  8
RACCORDO
100
AcDbLine
 62
250
  6
CONTINUOUS
 10
-34.0320856538
 20
5.1611447968
 11
-34.0255695202
 21
12.810449756
  0
LINE
  5
29E
100
AcDbEntity
  8
RACCORDO
100
AcDbLine
 62
250
  6
CONTINUOUS
 10
-34.3433725095
 20
5.7657892012
 11
-34.3342889464
 21
12.8142740447
  0
LINE
  5
29F
100
AcDbEntity
  8
RACCORDO
100
AcDbLine
 62
250
  6
CONTINUOUS
 10
-34.3342889464
 20
12.8142740447
 11
-34.3312104387
 21
14.5729620741
  0
LINE
  5
2A0
100
AcDbEntity
  8
RACCORDO
100
AcDbLine
 62
250
  6
CONTINUOUS
 10
-34.0255695202
 20
12.810449756
 11
-34.0128461775
 21
20.0742814654
  0
LINE
  5
2A1
100
AcDbEntity
  8
RACCORDO
100
AcDbLine
 62
250
  6
CONTINUOUS
 10
-34.0128461775
 20
20.0742814654
 11
-34.0062764989
 21
22.2581773734
  0
LINE
  5
2A2
100
AcDbEntity
  8
RACCORDO
100
AcDbLine
 62
250
  6
CONTINUOUS
 10
-33.5114336968
 20
-23.066740963
 11
-33.5111427199
 21
-22.9759679842
  0
LINE
  5
2A3
100
AcDbEntity
  8
RACCORDO
100
AcDbLine
 62
250
  6
CONTINUOUS
 10
-33.5111427199
 20
-22.9759679842
 11
-33.5104239436
 21
-22.8923764623
  0
LINE
  5
2A4
100
AcDbEntity
  8
RACCORDO
100
AcDbLine
 62
250
  6
CONTINUOUS
 10
-33.5104239436
 20
-22.8923764623
 11
-33.5097385127
 21
-22.8445121816
  0
LWPOLYLINE
  5
2A5
100
AcDbEntity
  8
RACCORDO
100
AcDbPolyline
 62
250
  6
CONTINUOUS
 90
7
 70
0
 10
-33.5097385127
 20
-22.8445121816
 10
-33.5089201955
 20
-22.8052890659
 10
-33.5084716017
 20
-22.7894406494
 10
-33.5080028299
 20
-22.7763288318
 10
-33.5075187381
 20
-22.7660895082
 10
-33.5070243441
 20
-22.7588288251
 10
-33.506524772
 20
-22.7546220436
  0
LWPOLYLINE
  5
2A6
100
AcDbEntity
  8
0
100
AcDbPolyline
 62
7
  6
CONTINUOUS
 90
25
 70
0
 10
2.9643015968
 20
-25.5096502829
 10
3.0177564908
 20
-25.5019447921
 10
3.0711732716
 20
-25.4945954013
 10
3.124544039
 20
-25.4876525406
 10
3.1778174595
 20
-25.4811709702
 10
3.2310292805
 20
-25.475193642
 10
3.2843028682
 20
-25.4697559116
 10
3.3376449098
 20
-25.4649084005
 10
3.3910345897
 20
-25.4607044109
 10
3.444554731
 20
-25.4571904806
 10
3.4982062173
 20
-25.4544219936
 10
3.5519742484
 20
-25.4524557964
 10
3.6059183275
 20
-25.45134789
 10
3.6600876014
 20
-25.4511594282
 10
3.7144185829
 20
-25.4519540008
 10
3.7688017122
 20
-25.453790074
 10
3.8231821453
 20
-25.4567221434
 10
3.8775998369
 20
-25.4608090761
 10
3.9320657066
 20
-25.4661422005
 10
3.9865277103
 20
-25.4729263759
 10
4.0407998098
 20
-25.4813807681
 10
4.094622926
 20
-25.491704427
 10
4.1478274826
 20
-25.5040991734
 10
4.2003306166
 20
-25.5187837779
 10
4.2520066213
 20
-25.5359686154
  0
LWPOLYLINE
  5
2A7
100
AcDbEntity
  8
0
100
AcDbPolyline
 62
7
  6
CONTINUOUS
 90
31
 70
0
 10
3.7648925262
 20
-26.5925259486
 10
3.7859629663
 20
-26.5917848253
 10
3.8071437461
 20
-26.5904689822
 10
3.8283363523
 20
-26.5885351966
 10
3.8493850067
 20
-26.5859505578
 10
3.8702591221
 20
-26.5826713122
 10
3.891050568
 20
-26.5786215252
 10
3.9116678881
 20
-26.5737438516
 10
3.9320180326
 20
-26.567980159
 10
3.9521764118
 20
-26.5612095961
 10
3.9721302007
 20
-26.5533041552
 10
3.9916582194
 20
-26.5442043544
 10
4.0105173607
 20
-26.5338847808
 10
4.0286111991
 20
-26.5222579337
 10
4.0458021457
 20
-26.5092571573
 10
4.0618303714
 20
-26.4949570375
 10
4.0766496468
 20
-26.4794664814
 10
4.0903091192
 20
-26.4628934734
 10
4.1027813297
 20
-26.4454368631
 10
4.1140802192
 20
-26.4272606458
 10
4.124253479
 20
-26.408471152
 10
4.1333343826
 20
-26.3891827847
 10
4.1413299942
 20
-26.3695661513
 10
4.1482921067
 20
-26.3496830891
 10
4.154294457
 20
-26.3294655902
 10
4.1593359163
 20
-26.3090227929
 10
4.1634223258
 20
-26.2884378236
 10
4.1665832269
 20
-26.267590159
 10
4.1687960364
 20
-26.2465063632
 10
4.1700193714
 20
-26.2253637887
 10
4.1702242167
 20
-26.2042739591
  0
LINE
  5
2A8
100
AcDbEntity
  8
0
100
AcDbLine
 62
7
  6
CONTINUOUS
 10
4.7849528554
 20
-27.9801806519
 11
4.2830487571
 21
-27.9801806519
  0
LINE
  5
2A9
100
AcDbEntity
  8
0
100
AcDbLine
 62
7
  6
CONTINUOUS
 10
3.4839949384
 20
-27.9801806519
 11
2.9643015968
 21
-27.9801806519
  0
LINE
  5
2AA
100
AcDbEntity
  8
0
100
AcDbLine
 62
7
  6
CONTINUOUS
 10
2.8110780948
 20
-27.9801808712
 11
2.2611300948
 21
-27.9801808712
  0
LINE
  5
2AB
100
AcDbEntity
  8
0
100
AcDbLine
 62
7
  6
CONTINUOUS
 10
1.2713800948
 20
-27.9801808712
 11
0.7552490948
 21
-27.9801808712
  0
LINE
  5
2AC
100
AcDbEntity
  8
0
100
AcDbLine
 62
7
  6
CONTINUOUS
 10
0.6733130948
 20
-27.9801808712
 11
0.1628610948
 21
-27.9801808712
  0
LINE
  5
2AD
100
AcDbEntity
  8
0
100
AcDbLine
 62
7
  6
CONTINUOUS
 10
-0.5647539052
 20
-27.9801808712
 11
-0.6379359052
 21
-27.9801808712
  0
LINE
  5
2AE
100
AcDbEntity
  8
0
100
AcDbLine
 62
7
  6
CONTINUOUS
 10
-1.3626649052
 20
-27.9801808712
 11
-1.8618509052
 21
-27.9801808712
  0
LINE
  5
2AF
100
AcDbEntity
  8
0
100
AcDbLine
 62
7
  6
CONTINUOUS
 10
-2.1427479052
 20
-27.9801808712
 11
-2.6645409052
 21
-27.9801808712
  0
LINE
  5
2B0
100
AcDbEntity
  8
0
100
AcDbLine
 62
7
  6
CONTINUOUS
 10
-3.6616949052
 20
-27.9801808712
 11
-4.1215249052
 21
-27.9801808712
  0
LINE
  5
2B1
100
AcDbEntity
  8
0
100
AcDbLine
 62
7
  6
CONTINUOUS
 10
2.1259580948
 20
-27.4811448712
 11
1.4153630948
 21
-27.4811448712
  0
LINE
  5
2B2
100
AcDbEntity
  8
0
100
AcDbLine
 62
7
  6
CONTINUOUS
 10
1.5220980948
 20
-27.0949928712
 11
2.0216780948
 21
-27.0949928712
  0
LINE
  5
2B3
100
AcDbEntity
  8
0
100
AcDbLine
 62
7
  6
CONTINUOUS
 10
3.7637678111
 20
-27.0019222326
 11
3.4839949384
 21
-27.0019222326
  0
LINE
  5
2B4
100
AcDbEntity
  8
0
100
AcDbLine
 62
7
  6
CONTINUOUS
 10
3.4666930716
 20
-26.5925259486
 11
3.7648925262
 21
-26.5925259486
  0
LINE
  5
2B5
100
AcDbEntity
  8
0
100
AcDbLine
 62
7
  6
CONTINUOUS
 10
-4.9139899052
 20
-25.4804448712
 11
-4.3471619052
 21
-25.4804448712
  0
LINE
  5
2B6
100
AcDbEntity
  8
0
100
AcDbLine
 62
7
  6
CONTINUOUS
 10
-3.3796159052
 20
-25.4804448712
 11
-2.8581799052
 21
-25.4804448712
  0
LINE
  5
2B7
100
AcDbEntity
  8
0
100
AcDbLine
 62
7
  6
CONTINUOUS
 10
-1.6361389052
 20
-25.4804448712
 11
-1.1147779052
 21
-25.4804448712
  0
LINE
  5
2B8
100
AcDbEntity
  8
0
100
AcDbLine
 62
7
  6
CONTINUOUS
 10
-0.0767029052
 20
-25.4804448712
 11
0.4395600948
 21
-25.4804448712
  0
LINE
  5
2B9
100
AcDbEntity
  8
0
100
AcDbLine
 62
7
  6
CONTINUOUS
 10
1.5393250948
 20
-25.4804448712
 11
2.0440970948
 21
-25.4804448712
  0
LINE
  5
2BA
100
AcDbEntity
  8
0
100
AcDbLine
 62
7
  6
CONTINUOUS
 10
-2.6645409052
 20
-25.4802948712
 11
-2.1427479052
 21
-25.4802948712
  0
LWPOLYLINE
  5
2BB
100
AcDbEntity
  8
0
100
AcDbPolyline
 62
7
  6
CONTINUOUS
 90
10
 70
0
 10
3.8754575133
 20
-25.8915832363
 10
3.8316942983
 20
-25.8872399257
 10
3.7873785541
 20
-25.8843241031
 10
3.7425747966
 20
-25.882872726
 10
3.697373346
 20
-25.8829226256
 10
3.6518235024
 20
-25.8845101927
 10
3.6059339715
 20
-25.8876789213
 10
3.5597616436
 20
-25.8924735351
 10
3.5133614216
 20
-25.8987891313
 10
3.4666930716
 20
-25.9062997962
  0
LINE
  5
2BC
100
AcDbEntity
  8
RACCORDO
100
AcDbLine
 62
250
  6
CONTINUOUS
 10
-11.4698762525
 20
22.7782211306
 11
-11.6480982543
 21
22.5999991288
  0
LINE
  5
2BD
100
AcDbEntity
  8
RACCORDO
100
AcDbLine
 62
250
  6
CONTINUOUS
 10
-10.9656266953
 20
22.2862759897
 11
-11.1500009052
 21
22.1019017797
  0
LWPOLYLINE
  5
2BE
100
AcDbEntity
  8
RACCORDO
100
AcDbPolyline
 62
250
  6
CONTINUOUS
 90
12
 70
0
 10
-34.1934459601
 20
-22.2686800091
 10
-34.1661560416
 20
-22.2680955722
 10
-34.1402600875
 20
-22.2674116678
 10
-34.1160178355
 20
-22.2666351554
 10
-34.0936724365
 20
-22.2657738237
 10
-34.0734480158
 20
-22.2648363119
 10
-34.0555474253
 20
-22.2638320231
 10
-34.0401502087
 20
-22.2627710303
 10
-34.0274108009
 20
-22.2616639758
 10
-34.0174569786
 20
-22.2605219633
 10
-34.0103885791
 20
-22.2593564467
 10
-34.0062764989
 20
-22.2581791159
  0
LINE
  5
2BF
100
AcDbEntity
  8
RACCORDO
100
AcDbLine
 62
250
  6
CONTINUOUS
 10
-34.2511015777
 20
-22.2695280902
 11
-34.1934459601
 21
-22.2686800091
  0
LWPOLYLINE
  5
2C0
100
AcDbEntity
  8
RACCORDO
100
AcDbPolyline
 62
250
  6
CONTINUOUS
 90
16
 70
0
 10
10.6688920425
 20
-22.3097760357
 10
10.6983669031
 20
-22.3094443147
 10
10.7275357422
 20
-22.3088882465
 10
10.7561160858
 20
-22.3081132162
 10
10.783831159
 20
-22.3071267292
 10
10.8104125664
 20
-22.3059383387
 10
10.8356028909
 20
-22.3045595533
 10
10.8591581871
 20
-22.3030037252
 10
10.880850343
 20
-22.3012859212
 10
10.9004692896
 20
-22.2994227768
 10
10.9178250353
 20
-22.2974323347
 10
10.932749505
 20
-22.2953338706
 10
10.9450981688
 20
-22.2931477063
 10
10.954751441
 20
-22.2908950127
 10
10.9616158381
 20
-22.2885976052
 10
10.9656248848
 20
-22.2862777321
  0
LINE
  5
2C1
100
AcDbEntity
  8
RACCORDO
100
AcDbLine
 62
250
  6
CONTINUOUS
 10
-34.3109195868
 20
-22.2699219694
 11
-34.2511015777
 21
-22.2695280902
  0
LINE
  5
2C2
100
AcDbEntity
  8
RACCORDO
100
AcDbLine
 62
250
  6
CONTINUOUS
 10
33.5114318858
 20
-23.066740963
 11
16.0017858567
 21
-23.096918952
  0
LINE
  5
2C3
100
AcDbEntity
  8
RACCORDO
100
AcDbLine
 62
250
  6
CONTINUOUS
 10
16.0017858567
 20
-23.096918952
 11
11.4718948445
 21
-23.1025444166
  0
LINE
  5
2C4
100
AcDbEntity
  8
RACCORDO
100
AcDbLine
 62
250
  6
CONTINUOUS
 10
33.5065229705
 20
-22.754622096
 11
16.6890390724
 21
-22.7742504919
  0
LINE
  5
2C5
100
AcDbEntity
  8
RACCORDO
100
AcDbLine
 62
250
  6
CONTINUOUS
 10
16.6890390724
 20
-22.7742504919
 11
11.469874442
 21
-22.7782228731
  0
LINE
  5
2C6
100
AcDbEntity
  8
RACCORDO
100
AcDbLine
 62
7
  6
CONTINUOUS
 10
-33.3519035562
 20
-22.6000008712
 11
-11.6480982543
 21
-22.6000008712
  0
LINE
  5
2C7
100
AcDbEntity
  8
RACCORDO
100
AcDbLine
 62
7
  6
CONTINUOUS
 10
11.6480964438
 20
-22.6000008712
 11
33.3519017457
 21
-22.6000008712
  0
LINE
  5
2C8
100
AcDbEntity
  8
RACCORDO
100
AcDbLine
 62
250
  6
CONTINUOUS
 10
-11.4698762525
 20
-22.7782228731
 11
-19.4546434357
 21
-22.771442699
  0
LINE
  5
2C9
100
AcDbEntity
  8
RACCORDO
100
AcDbLine
 62
250
  6
CONTINUOUS
 10
-19.4546434357
 20
-22.771442699
 11
-33.506524781
 21
-22.754622096
  0
LINE
  5
2CA
100
AcDbEntity
  8
RACCORDO
100
AcDbLine
 62
250
  6
CONTINUOUS
 10
-11.471896655
 20
-23.1025444166
 11
-17.1680010834
 21
-23.0950849684
  0
LINE
  5
2CB
100
AcDbEntity
  8
RACCORDO
100
AcDbLine
 62
250
  6
CONTINUOUS
 10
-17.1680010834
 20
-23.0950849684
 11
-33.5114336962
 21
-23.066740963
  0
LINE
  5
2CC
100
AcDbEntity
  8
RACCORDO
100
AcDbLine
 62
250
  6
CONTINUOUS
 10
34.3109177763
 20
-22.26992197
 11
34.2510987932
 21
-22.2695280023
  0
LWPOLYLINE
  5
2CD
100
AcDbEntity
  8
RACCORDO
100
AcDbPolyline
 62
250
  6
CONTINUOUS
 90
16
 70
0
 10
-10.6688938529
 20
-22.3097760363
 10
-10.6983692558
 20
-22.3094443103
 10
-10.7275385343
 20
-22.3088882306
 10
-10.7561192056
 20
-22.3081131843
 10
-10.7838344886
 20
-22.3071266794
 10
-10.8104159923
 20
-22.3059382711
 10
-10.835606314
 20
-22.3045594698
 10
-10.8591615166
 20
-22.3030036294
 10
-10.880853505
 20
-22.3012858182
 10
-10.9004722379
 20
-22.2994226718
 10
-10.9178277389
 20
-22.2974322341
 10
-10.9327519558
 20
-22.2953337811
 10
-10.9451003903
 20
-22.2931476325
 10
-10.9547534733
 20
-22.2908949584
 10
-10.961617731
 20
-22.2885975743
 10
-10.965626701
 20
-22.2862777279
  0
LWPOLYLINE
  5
2CE
100
AcDbEntity
  8
RACCORDO
100
AcDbPolyline
 62
250
  6
CONTINUOUS
 90
13
 70
0
 10
34.2510987932
 20
-22.2695280023
 10
34.1934426393
 20
-22.2686798472
 10
34.1661526245
 20
-22.2680953817
 10
34.1402566732
 20
-22.2674114559
 10
34.1160145146
 20
-22.2666349308
 10
34.0936692831
 20
-22.2657735955
 10
34.0734450758
 20
-22.2648360892
 10
34.0555447364
 20
-22.2638318162
 10
34.0401477766
 20
-22.2627708492
 10
34.0274085847
 20
-22.2616638274
 10
34.0174549279
 20
-22.2605218531
 10
34.0103866522
 20
-22.259356381
 10
34.0062746528
 20
-22.2581791007
  0
LWPOLYLINE
  5
2CF
100
AcDbEntity
  8
RACCORDO
100
AcDbPolyline
 62
250
  6
CONTINUOUS
 90
25
 70
0
 10
11.4698745108
 20
-22.7782228043
 10
11.4368185391
 20
-22.7773353021
 10
11.4040371235
 20
-22.7743241193
 10
11.3716657087
 20
-22.7692287322
 10
11.3398797071
 20
-22.7621105155
 10
11.3087592238
 20
-22.7530174301
 10
11.2782973643
 20
-22.7419546029
 10
11.2485718883
 20
-22.728944348
 10
11.2197568265
 20
-22.7140567208
 10
11.1919915638
 20
-22.6973574319
 10
11.1653853786
 20
-22.6789143435
 10
11.1400526326
 20
-22.6588096442
 10
11.1161272152
 20
-22.6371494397
 10
11.0937171981
 20
-22.6140464467
 10
11.0728920427
 20
-22.5895889498
 10
11.0537177249
 20
-22.5638561543
 10
11.0363196778
 20
-22.5370375654
 10
11.0207082927
 20
-22.5091708365
 10
11.0068233202
 20
-22.4800819068
 10
10.9947287422
 20
-22.4497400808
 10
10.9845941907
 20
-22.4183764251
 10
10.9765451129
 20
-22.3862020664
 10
10.9706626438
 20
-22.3533811369
 10
10.967003313
 20
-22.3200239945
 10
10.9656248912
 20
-22.2862777258
  0
LWPOLYLINE
  5
2D0
100
AcDbEntity
  8
RACCORDO
100
AcDbPolyline
 62
250
  6
CONTINUOUS
 90
25
 70
0
 10
-33.5065247285
 20
-22.7546220436
 10
-33.5394171287
 20
-22.7536243362
 10
-33.5720275646
 20
-22.7504986721
 10
-33.6042211392
 20
-22.7452839441
 10
-33.6358220453
 20
-22.7380405246
 10
-33.6667514459
 20
-22.7288161517
 10
-33.6970191142
 20
-22.7176163032
 10
-33.7265471434
 20
-22.7044620538
 10
-33.7551618919
 20
-22.689422955
 10
-33.7827273627
 20
-22.672565796
 10
-33.809133004
 20
-22.6539579076
 10
-33.8342651976
 20
-22.6336801478
 10
-33.8579956722
 20
-22.611837756
 10
-33.8802153185
 20
-22.5885420473
 10
-33.9008532012
 20
-22.5638800624
 10
-33.9198469572
 20
-22.537929489
 10
-33.9370723711
 20
-22.5108740696
 10
-33.952512541
 20
-22.482754602
 10
-33.9662211122
 20
-22.4534099604
 10
-33.9781321726
 20
-22.4228108152
 10
-33.9880776201
 20
-22.3911880893
 10
-33.9959343393
 20
-22.3587652555
 10
-34.0016236056
 20
-22.3257112946
 10
-34.0050897077
 20
-22.292133379
 10
-34.0062764582
 20
-22.2581790752
  0
LWPOLYLINE
  5
2D1
100
AcDbEntity
  8
RACCORDO
100
AcDbPolyline
 62
250
  6
CONTINUOUS
 90
25
 70
0
 10
11.4718948445
 20
-23.1025444166
 10
11.4189033544
 20
-23.1007546531
 10
11.3667691854
 20
-23.095709903
 10
11.3154923373
 20
-23.0874101713
 10
11.2649418261
 20
-23.0757979949
 10
11.2152486353
 20
-23.0609308491
 10
11.1668057169
 20
-23.0429811472
 10
11.1195448603
 20
-23.021903585
 10
11.0735342755
 20
-22.9977434815
 10
11.0293715453
 20
-22.9708091832
 10
10.9870782634
 20
-22.9410524655
 10
10.9466328356
 20
-22.9085215674
 10
10.9085680629
 20
-22.873669528
 10
10.8729401604
 20
-22.8364919109
 10
10.8396929127
 20
-22.7969931637
 10
10.8091904749
 20
-22.7556396483
 10
10.7814894055
 20
-22.7125640424
 10
10.7565331459
 20
-22.6676336753
 10
10.7345161754
 20
-22.6209168829
 10
10.7153417032
 20
-22.572194296
 10
10.6991065199
 20
-22.5216852907
 10
10.686295477
 20
-22.4701163177
 10
10.6770701917
 20
-22.4177295256
 10
10.6712690468
 20
-22.364282765
 10
10.6688920425
 20
-22.3097760357
  0
LWPOLYLINE
  5
2D2
100
AcDbEntity
  8
RACCORDO
100
AcDbPolyline
 62
250
  6
CONTINUOUS
 90
25
 70
0
 10
-33.5114336962
 20
-23.066740963
 10
-33.5642654957
 20
-23.0648188154
 10
-33.6162377821
 20
-23.0596429941
 10
-33.6673505361
 20
-23.0512134772
 10
-33.717733382
 20
-23.0394736194
 10
-33.7672566578
 20
-23.02448003
 10
-33.8155314074
 20
-23.0064025693
 10
-33.8626261957
 20
-22.9851959475
 10
-33.9084724039
 20
-22.9609054267
 10
-33.9524752837
 20
-22.9338366926
 10
-33.9946128663
 20
-22.9039429088
 10
-34.0349070481
 20
-22.871270892
 10
-34.0728288628
 20
-22.8362668042
 10
-34.1083240872
 20
-22.7989266058
 10
-34.1414468665
 20
-22.759254329
 10
-34.1718307788
 20
-22.7177082429
 10
-34.1994236824
 20
-22.6744119102
 10
-34.2242776505
 20
-22.6292417759
 10
-34.2461825841
 20
-22.5822854338
 10
-34.2652292296
 20
-22.5333236148
 10
-34.2813267905
 20
-22.4825756177
 10
-34.2939928568
 20
-22.4307868903
 10
-34.3030666177
 20
-22.3782059283
 10
-34.308708862
 20
-22.3245842789
 10
-34.3109195868
 20
-22.2699219694
  0
LWPOLYLINE
  5
2D3
100
AcDbEntity
  8
0
100
AcDbPolyline
 62
7
  6
CONTINUOUS
 90
58
 70
0
 10
4.2520066213
 20
-25.5359686154
 10
4.2817875063
 20
-25.5480608685
 10
4.3118990269
 20
-25.5629758106
 10
4.3422229339
 20
-25.5806235358
 10
4.3725566328
 20
-25.6007764421
 10
4.4028264344
 20
-25.6233873879
 10
4.4330250553
 20
-25.6487657257
 10
4.4630312025
 20
-25.6772521837
 10
4.4923228442
 20
-25.7088567371
 10
4.5202717564
 20
-25.7433592415
 10
4.5467773898
 20
-25.781065108
 10
4.5712452295
 20
-25.8216137718
 10
4.5926311147
 20
-25.8634532847
 10
4.6108436403
 20
-25.906252568
 10
4.6259474832
 20
-25.9498309568
 10
4.6377231864
 20
-25.9926192023
 10
4.6464446979
 20
-26.0338608902
 10
4.652650137
 20
-26.0738376022
 10
4.6567183802
 20
-26.1125126641
 10
4.6589560697
 20
-26.1496637515
 10
4.6595892624
 20
-26.1852810107
 10
4.6587649064
 20
-26.2196878262
 10
4.6565901051
 20
-26.2529164513
 10
4.6531822187
 20
-26.2848185094
 10
4.6486407134
 20
-26.3154690255
 10
4.6430690075
 20
-26.3448684508
 10
4.6365758681
 20
-26.3729983027
 10
4.629248542
 20
-26.3999250583
 10
4.6211955432
 20
-26.4256209195
 10
4.61251067
 20
-26.4501162475
 10
4.6032463079
 20
-26.4735387931
 10
4.5934984149
 20
-26.49586496
 10
4.5833623801
 20
-26.5170700613
 10
4.572855607
 20
-26.5372752098
 10
4.5620440642
 20
-26.5564799494
 10
4.5509991916
 20
-26.5746738373
 10
4.5397181805
 20
-26.5919594955
 10
4.5282358654
 20
-26.6083623575
 10
4.5166170289
 20
-26.6238644449
 10
4.5048883782
 20
-26.6385011815
 10
4.4930864995
 20
-26.6523181556
 10
4.4812672981
 20
-26.6653779862
 10
4.4694815577
 20
-26.6777438119
 10
4.4577708024
 20
-26.6894778868
 10
4.4461747559
 20
-26.7006337122
 10
4.4347380151
 20
-26.711250859
 10
4.4235073919
 20
-26.7213589557
 10
4.4125019524
 20
-26.7310044382
 10
4.4017197196
 20
-26.7402427907
 10
4.3912449184
 20
-26.7490488644
 10
4.381043337
 20
-26.7574916295
 10
4.3709071423
 20
-26.765693898
 10
4.3608106095
 20
-26.7734137379
 10
4.3506924057
 20
-26.7804354197
 10
4.3402266686
 20
-26.7867190956
 10
4.3292531644
 20
-26.7920479522
 10
4.3178013573
 20
-26.7960872757
 10
4.305805492
 20
-26.7985550034
  0
LWPOLYLINE
  5
2D4
100
AcDbEntity
  8
0
100
AcDbPolyline
 62
7
  6
CONTINUOUS
 90
3
 70
0
 10
4.305805492
 20
-26.8133262613
 10
4.3308749504
 20
-26.8247756962
 10
4.3540998266
 20
-26.8381454875
  0
LWPOLYLINE
  5
2D5
100
AcDbEntity
  8
0
100
AcDbPolyline
 62
7
  6
CONTINUOUS
 90
23
 70
0
 10
4.3540998266
 20
-26.8381454875
 10
4.3756005659
 20
-26.8531301679
 10
4.3955307437
 20
-26.8694844841
 10
4.4139540224
 20
-26.8869226825
 10
4.430865314
 20
-26.9050880119
 10
4.4462942525
 20
-26.9236411948
 10
4.4604379958
 20
-26.9424701142
 10
4.4735274908
 20
-26.9615964075
 10
4.4856354281
 20
-26.9808822746
 10
4.4968258253
 20
-27.0001969345
 10
4.5072691213
 20
-27.0196344685
 10
4.5170241929
 20
-27.0391379221
 10
4.5261128866
 20
-27.0585892404
 10
4.5346204117
 20
-27.0780204912
 10
4.54257316
 20
-27.0973550393
 10
4.5500024453
 20
-27.1165347205
 10
4.5569821837
 20
-27.1356302753
 10
4.5635306563
 20
-27.1545839005
 10
4.5696653576
 20
-27.1733379358
 10
4.5754601635
 20
-27.1919954202
 10
4.5809906914
 20
-27.2106394215
 10
4.5863037588
 20
-27.2292498544
 10
4.5914544761
 20
-27.2478252557
  0
LINE
  5
2D6
100
AcDbEntity
  8
RACCORDO
100
AcDbLine
 62
250
  6
CONTINUOUS
 10
-11.4698762525
 20
-22.7782228731
 11
-11.6480982543
 21
-22.6000008712
  0
LINE
  5
2D7
100
AcDbEntity
  8
RACCORDO
100
AcDbLine
 62
250
  6
CONTINUOUS
 10
-10.9656266953
 20
-22.2862777321
 11
-11.1500009052
 21
-22.1019035222
  0
LWPOLYLINE
  5
2D8
100
AcDbEntity
  8
RACCORDO
100
AcDbPolyline
 62
250
  6
CONTINUOUS
 90
4
 70
0
 10
-11.4704997163
 20
22.800873935
 10
-11.4702957166
 20
22.7901610059
 10
-11.4700871337
 20
22.7825824466
 10
-11.4698762463
 20
22.7782210622
  0
LINE
  5
2D9
100
AcDbEntity
  8
RACCORDO
100
AcDbLine
 62
250
  6
CONTINUOUS
 10
-11.4708851265
 20
22.8312017184
 11
-11.4704997163
 21
22.800873935
  0
LINE
  5
2DA
100
AcDbEntity
  8
RACCORDO
100
AcDbLine
 62
250
  6
CONTINUOUS
 10
-10.9656266953
 20
22.2862759897
 11
-10.951212689
 21
19.8575337021
  0
LINE
  5
2DB
100
AcDbEntity
  8
RACCORDO
100
AcDbLine
 62
250
  6
CONTINUOUS
 10
-11.4715091728
 20
22.9222135236
 11
-11.4708851265
 21
22.8312017184
  0
LINE
  5
2DC
100
AcDbEntity
  8
RACCORDO
100
AcDbLine
 62
250
  6
CONTINUOUS
 10
-10.6688938529
 20
22.3097742932
 11
-10.6552440667
 21
19.8747526185
  0
LINE
  5
2DD
100
AcDbEntity
  8
RACCORDO
100
AcDbLine
 62
250
  6
CONTINUOUS
 10
-10.951212689
 20
19.8575337021
 11
-10.9411545867
 21
17.498625526
  0
LINE
  5
2DE
100
AcDbEntity
  8
RACCORDO
100
AcDbLine
 62
250
  6
CONTINUOUS
 10
-10.6552440667
 20
19.8747526185
 11
-10.645792324
 21
17.5108139857
  0
LINE
  5
2DF
100
AcDbEntity
  8
RACCORDO
100
AcDbLine
 62
250
  6
CONTINUOUS
 10
-10.9411545867
 20
17.498625526
 11
-10.9328236331
 21
14.555952176
  0
LINE
  5
2E0
100
AcDbEntity
  8
RACCORDO
100
AcDbLine
 62
250
  6
CONTINUOUS
 10
-10.645792324
 20
17.5108139857
 11
-10.638031324
 21
14.5634175065
  0
LINE
  5
2E1
100
AcDbEntity
  8
RACCORDO
100
AcDbLine
 62
250
  6
CONTINUOUS
 10
-10.9328236331
 20
14.555952176
 11
-10.9257833498
 21
9.8590097151
  0
LINE
  5
2E2
100
AcDbEntity
  8
RACCORDO
100
AcDbLine
 62
250
  6
CONTINUOUS
 10
-10.638031324
 20
14.5634175065
 11
-10.6314343734
 21
9.8625008127
  0
LINE
  5
2E3
100
AcDbEntity
  8
RACCORDO
100
AcDbLine
 62
250
  6
CONTINUOUS
 10
-11.4718966545
 20
23.1025426741
 11
-11.4715091728
 21
22.9222135236
  0
LINE
  5
2E4
100
AcDbEntity
  8
RACCORDO
100
AcDbLine
 62
250
  6
CONTINUOUS
 10
-10.9257833498
 20
9.8590097151
 11
-10.9219470187
 21
3.6564910731
  0
LINE
  5
2E5
100
AcDbEntity
  8
RACCORDO
100
AcDbLine
 62
250
  6
CONTINUOUS
 10
-10.6314343734
 20
9.8625008127
 11
-10.6274921994
 21
3.6574345853
  0
LINE
  5
2E6
100
AcDbEntity
  8
RACCORDO
100
AcDbLine
 62
7
  6
CONTINUOUS
 10
-11.1500009052
 20
-22.1019035222
 11
-11.1500009052
 21
22.1019017797
  0
LINE
  5
2E7
100
AcDbEntity
  8
RACCORDO
100
AcDbLine
 62
250
  6
CONTINUOUS
 10
-10.9219470187
 20
3.6564910731
 11
-10.9230771432
 21
-6.3956700647
  0
LINE
  5
2E8
100
AcDbEntity
  8
RACCORDO
100
AcDbLine
 62
250
  6
CONTINUOUS
 10
-10.6274921994
 20
3.6574345853
 11
-10.6287185693
 21
-6.3975914076
  0
LINE
  5
2E9
100
AcDbEntity
  8
RACCORDO
100
AcDbLine
 62
250
  6
CONTINUOUS
 10
-10.9230771432
 20
-6.3956700647
 11
-10.9271500339
 21
-11.0868616182
  0
LINE
  5
2EA
100
AcDbEntity
  8
RACCORDO
100
AcDbLine
 62
250
  6
CONTINUOUS
 10
-10.6287185693
 20
-6.3975914076
 11
-10.6334451726
 21
-11.677242569
  0
LINE
  5
2EB
100
AcDbEntity
  8
RACCORDO
100
AcDbLine
 62
250
  6
CONTINUOUS
 10
-10.9271500339
 20
-11.0868616182
 11
-10.9329358276
 21
-14.6054063229
  0
LINE
  5
2EC
100
AcDbEntity
  8
RACCORDO
100
AcDbLine
 62
250
  6
CONTINUOUS
 10
-10.6334451726
 20
-11.677242569
 11
-10.6393930714
 21
-15.1981152509
  0
LINE
  5
2ED
100
AcDbEntity
  8
RACCORDO
100
AcDbLine
 62
250
  6
CONTINUOUS
 10
-10.6393930714
 20
-15.1981152509
 11
-10.6459792317
 21
-17.5733361087
  0
LINE
  5
2EE
100
AcDbEntity
  8
RACCORDO
100
AcDbLine
 62
250
  6
CONTINUOUS
 10
-10.9329358276
 20
-14.6054063229
 11
-10.9413554732
 21
-17.561032182
  0
LINE
  5
2EF
100
AcDbEntity
  8
RACCORDO
100
AcDbLine
 62
250
  6
CONTINUOUS
 10
-11.471896655
 20
-23.1025444166
 11
-11.4715091706
 21
-22.9222169171
  0
LINE
  5
2F0
100
AcDbEntity
  8
RACCORDO
100
AcDbLine
 62
250
  6
CONTINUOUS
 10
-10.6459792317
 20
-17.5733361087
 11
-10.6565630351
 21
-20.1454131901
  0
LINE
  5
2F1
100
AcDbEntity
  8
RACCORDO
100
AcDbLine
 62
250
  6
CONTINUOUS
 10
-10.9413554732
 20
-17.561032182
 11
-10.9526097715
 21
-20.1275491249
  0
LINE
  5
2F2
100
AcDbEntity
  8
RACCORDO
100
AcDbLine
 62
250
  6
CONTINUOUS
 10
-10.6565630351
 20
-20.1454131901
 11
-10.6688938529
 21
-22.3097760357
  0
LINE
  5
2F3
100
AcDbEntity
  8
RACCORDO
100
AcDbLine
 62
250
  6
CONTINUOUS
 10
-10.9526097715
 20
-20.1275491249
 11
-10.9656266953
 21
-22.2862777321
  0
LINE
  5
2F4
100
AcDbEntity
  8
RACCORDO
100
AcDbLine
 62
250
  6
CONTINUOUS
 10
-11.4715091706
 20
-22.9222169171
 11
-11.4708851266
 21
-22.8312043488
  0
LWPOLYLINE
  5
2F5
100
AcDbEntity
  8
RACCORDO
100
AcDbPolyline
 62
250
  6
CONTINUOUS
 90
5
 70
0
 10
-11.4708851266
 20
-22.8312043488
 10
-11.4704997168
 20
-22.8008760866
 10
-11.4702957183
 20
-22.7901630142
 10
-11.4700871373
 20
-22.7825843459
 10
-11.4698762525
 20
-22.7782228731
  0
LWPOLYLINE
  5
2F6
100
AcDbEntity
  8
RACCORDO
100
AcDbPolyline
 62
250
  6
CONTINUOUS
 90
25
 70
0
 10
-10.965626701
 20
-22.2862777264
 10
-10.9669137139
 20
-22.3187961225
 10
-10.9703304463
 20
-22.3510315408
 10
-10.9758398965
 20
-22.3828497914
 10
-10.9833847802
 20
-22.4140744139
 10
-10.9929181133
 20
-22.4446279017
 10
-11.0044327593
 20
-22.4745233822
 10
-11.0179102702
 20
-22.5036824865
 10
-11.0332820786
 20
-22.5319313804
 10
-11.0504769071
 20
-22.5591376516
 10
-11.0694289859
 20
-22.5851901196
 10
-11.090058534
 20
-22.6099742285
 10
-11.1122544143
 20
-22.6333649451
 10
-11.1359053831
 20
-22.6552522785
 10
-11.1609256604
 20
-22.6755643847
 10
-11.187232921
 20
-22.6942422796
 10
-11.2146445971
 20
-22.7111624971
 10
-11.2431193847
 20
-22.7263051028
 10
-11.2728104944
 20
-22.739722468
 10
-11.3037447755
 20
-22.7513462282
 10
-11.335692764
 20
-22.7610110935
 10
-11.3684286996
 20
-22.7686008641
 10
-11.4017827274
 20
-22.7740382871
 10
-11.4356479494
 20
-22.7772645568
 10
-11.469876331
 20
-22.7782227945
  0
LWPOLYLINE
  5
2F7
100
AcDbEntity
  8
RACCORDO
100
AcDbPolyline
 62
250
  6
CONTINUOUS
 90
25
 70
0
 10
-10.6688938529
 20
-22.3097760357
 10
-10.6710684907
 20
-22.3622854569
 10
-10.6764942324
 20
-22.4139382675
 10
-10.685171078
 20
-22.4647344683
 10
-10.6971537115
 20
-22.5148027987
 10
-10.7123874487
 20
-22.5640145207
 10
-10.7307082371
 20
-22.6119834167
 10
-10.752162607
 20
-22.6587790691
 10
-10.7767040281
 20
-22.7043318938
 10
-10.804028857
 20
-22.748046919
 10
-10.8341851092
 20
-22.7899027063
 10
-10.8671247694
 20
-22.8299206869
 10
-10.9024001484
 20
-22.8675701892
 10
-10.9400153501
 20
-22.9027968
 10
-10.9799662708
 20
-22.9356549205
 10
-11.0217929098
 20
-22.9657770969
 10
-11.0653747689
 20
-22.9931127091
 10
-11.1108323467
 20
-23.0177123629
 10
-11.1580671378
 20
-23.039360442
 10
-11.2072945931
 20
-23.0581439519
 10
-11.2582992623
 20
-23.0739758736
 10
-11.3103362885
 20
-23.0863795524
 10
-11.3631573863
 20
-23.0951960986
 10
-11.4170108418
 20
-23.1005843885
 10
-11.471896655
 20
-23.1025444166
  0
LINE
  5
2F8
100
AcDbEntity
  8
ASSI
100
AcDbLine
 62
250
  6
CONTINUOUS
 10
-59.9092338761
 20
-42.1095079821
 11
-59.9500009052
 21
-42.1502750113
  0
LINE
  5
2F9
100
AcDbEntity
  8
ASSI
100
AcDbLine
 62
250
  6
CONTINUOUS
 10
-59.1094918738
 20
-42.9092176998
 11
-59.1502750453
 21
-42.9500008712
  0
LINE
  5
2FA
100
AcDbEntity
  8
ASSI
100
AcDbLine
 62
250
  6
CONTINUOUS
 10
-59.9092330793
 20
42.1095054428
 11
-59.9500009052
 21
42.1502732688
  0
LINE
  5
2FB
100
AcDbEntity
  8
ASSI
100
AcDbLine
 62
250
  6
CONTINUOUS
 10
-59.1094925287
 20
42.9092166122
 11
-59.1502750453
 21
42.9499991288
  0
LINE
  5
2FC
100
AcDbEntity
  8
0
100
AcDbLine
 62
7
  6
CONTINUOUS
 10
-0.6379359052
 20
-27.9801808712
 11
-1.2500619052
 21
-26.3479008712
  0
LINE
  5
2FD
100
AcDbEntity
  8
0
100
AcDbLine
 62
7
  6
CONTINUOUS
 10
-1.1147779052
 20
-25.4804448712
 11
-0.5984959052
 21
-26.8683058712
  0
LINE
  5
2FE
100
AcDbEntity
  8
0
100
AcDbLine
 62
7
  6
CONTINUOUS
 10
-4.1215249052
 20
-27.9801808712
 11
-4.9139899052
 21
-25.4804448712
  0
LINE
  5
2FF
100
AcDbEntity
  8
0
100
AcDbLine
 62
7
  6
CONTINUOUS
 10
-4.3471619052
 20
-25.4804448712
 11
-3.8706669052
 21
-27.2010908712
  0
LINE
  5
300
100
AcDbEntity
  8
RACCORDO
100
AcDbLine
 62
250
  6
CONTINUOUS
 10
-34.0062764989
 20
-22.2581791159
 11
-33.8500009052
 21
-22.1019035222
  0
LINE
  5
301
100
AcDbEntity
  8
RACCORDO
100
AcDbLine
 62
250
  6
CONTINUOUS
 10
-33.506524781
 20
-22.754622096
 11
-33.3519035562
 21
-22.6000008712
  0
LINE
  5
302
100
AcDbEntity
  8
RACCORDO
100
AcDbLine
 62
250
  6
CONTINUOUS
 10
-34.0062764989
 20
22.2581773734
 11
-33.8500009052
 21
22.1019017797
  0
LINE
  5
303
100
AcDbEntity
  8
RACCORDO
100
AcDbLine
 62
250
  6
CONTINUOUS
 10
-33.506524781
 20
22.7546203535
 11
-33.3519035562
 21
22.5999991288
  0
LWPOLYLINE
  5
304
100
AcDbEntity
  8
0
100
AcDbPolyline
 62
7
  6
CONTINUOUS
 90
19
 70
0
 10
4.0548224828
 20
-27.2220216141
 10
4.0466510507
 20
-27.2019474654
 10
4.0373661879
 20
-27.1822468554
 10
4.0270197924
 20
-27.1630468664
 10
4.0156894734
 20
-27.1445111989
 10
4.0034022782
 20
-27.1267126003
 10
3.9901115384
 20
-27.1096485499
 10
3.9758343259
 20
-27.0934344944
 10
3.9606067339
 20
-27.0782092693
 10
3.9443765139
 20
-27.0640353392
 10
3.927105377
 20
-27.0510223471
 10
3.9088570135
 20
-27.0393670341
 10
3.8897321312
 20
-27.0292637791
 10
3.8698382705
 20
-27.0207965756
 10
3.8492975687
 20
-27.0139298575
 10
3.8282633031
 20
-27.0086359471
 10
3.8068912386
 20
-27.0048879453
 10
3.7853398472
 20
-27.0026591038
 10
3.7637678111
 20
-27.0019222326
  0
LINE
  5
305
100
AcDbEntity
  8
0
100
AcDbLine
 62
7
  6
CONTINUOUS
 10
2.0440970948
 20
-25.4804448712
 11
2.8110780948
 21
-27.9801808712
  0
LINE
  5
306
100
AcDbEntity
  8
0
100
AcDbLine
 62
7
  6
CONTINUOUS
 10
2.2611300948
 20
-27.9801808712
 11
2.1259580948
 21
-27.4811448712
  0
LINE
  5
307
100
AcDbEntity
  8
0
100
AcDbLine
 62
7
  6
CONTINUOUS
 10
2.0216780948
 20
-27.0949928712
 11
1.7819070948
 21
-26.1673088712
  0
LINE
  5
308
100
AcDbEntity
  8
0
100
AcDbLine
 62
7
  6
CONTINUOUS
 10
0.4395600948
 20
-25.4804448712
 11
0.6733130948
 21
-27.9801808712
  0
LINE
  5
309
100
AcDbEntity
  8
0
100
AcDbLine
 62
7
  6
CONTINUOUS
 10
0.1628610948
 20
-27.9801808712
 11
0.0556570948
 21
-26.3547048712
  0
LINE
  5
30A
100
AcDbEntity
  8
0
100
AcDbLine
 62
7
  6
CONTINUOUS
 10
-2.6645409052
 20
-27.9801808712
 11
-2.6645409052
 21
-25.4802948712
  0
LINE
  5
30B
100
AcDbEntity
  8
0
100
AcDbLine
 62
7
  6
CONTINUOUS
 10
-2.1427479052
 20
-25.4802948712
 11
-2.1427479052
 21
-27.9801808712
  0
LINE
  5
30C
100
AcDbEntity
  8
ASSI
100
AcDbLine
 62
250
  6
CONTINUOUS
 10
-0.0000009052
 20
-42.905420687
 11
-0.0000009052
 21
-42.5800433822
  0
LINE
  5
30D
100
AcDbEntity
  8
0
100
AcDbLine
 62
250
  6
CONTINUOUS
 10
-0.0000009052
 20
-0.0000008712
 11
-0.0000009052
 21
-42.5800433822
  0
LINE
  5
30E
100
AcDbEntity
  8
ASSI
100
AcDbLine
 62
250
  6
CONTINUOUS
 10
-0.0000009052
 20
-0.0000008712
 11
-0.0000009052
 21
42.9054189445
  0
LINE
  5
30F
100
AcDbEntity
  8
0
100
AcDbLine
 62
7
  6
CONTINUOUS
 10
-1.2500619052
 20
-26.3479008712
 11
-1.3626649052
 21
-27.9801808712
  0
LINE
  5
310
100
AcDbEntity
  8
0
100
AcDbLine
 62
7
  6
CONTINUOUS
 10
-1.8618509052
 20
-27.9801808712
 11
-1.6361389052
 21
-25.4804448712
  0
LWPOLYLINE
  5
311
100
AcDbEntity
  8
0
100
AcDbPolyline
 62
7
  6
CONTINUOUS
 90
4
 70
0
 43
0.3500000006
 10
67.7157824707
 20
-2.3571432495
 10
66.8586399994
 20
-2.3571432495
 10
66.4300664978
 20
-1.9285720139
 10
66.4300664978
 20
-1.2857140274
  0
LINE
  5
312
100
AcDbEntity
  8
ASSI
100
AcDbLine
 62
250
  6
CONTINUOUS
 10
-59.9059702172
 20
-0.0000008712
 11
-59.5605085348
 21
-0.0000008712
  0
LINE
  5
313
100
AcDbEntity
  8
ASSI
100
AcDbLine
 62
250
  6
CONTINUOUS
 10
59.9059684067
 20
-0.0000008712
 11
59.5605067243
 21
-0.0000008712
  0
LINE
  5
314
100
AcDbEntity
  8
RACCORDO
100
AcDbLine
 62
250
  6
CONTINUOUS
 10
-59.5605085348
 20
-0.0000008712
 11
-34.0336129388
 21
-0.0000008712
  0
LINE
  5
315
100
AcDbEntity
  8
RACCORDO
100
AcDbLine
 62
250
  6
CONTINUOUS
 10
59.5605067243
 20
-0.0000008712
 11
34.0336111283
 21
-0.0000008712
  0
LINE
  5
316
100
AcDbEntity
  8
RACCORDO
100
AcDbLine
 62
250
  6
CONTINUOUS
 10
10.9214781966
 20
-0.0000008712
 11
-10.9214800071
 21
-0.0000008712
  0
LWPOLYLINE
  5
317
100
AcDbEntity
  8
0
100
AcDbPolyline
 62
7
  6
CONTINUOUS
 90
8
 70
0
 10
4.1346399186
 20
-27.4669255107
 10
4.1242331345
 20
-27.4316274324
 10
4.113599488
 20
-27.3964375853
 10
4.1026848347
 20
-27.3613783356
 10
4.0914099672
 20
-27.3263943621
 10
4.0797092275
 20
-27.2914809585
 10
4.067532773
 20
-27.2566832606
 10
4.0548224553
 20
-27.2220216244
  0
LINE
  5
318
100
AcDbEntity
  8
0
100
AcDbLine
 62
7
  6
CONTINUOUS
 10
4.2719154348
 20
-27.9416437629
 11
4.1958821669
 21
-27.6814831049
  0
LINE
  5
319
100
AcDbEntity
  8
0
100
AcDbLine
 62
7
  6
CONTINUOUS
 10
4.2830487571
 20
-27.9801806519
 11
4.2719154348
 21
-27.9416437629
  0
LINE
  5
31A
100
AcDbEntity
  8
0
100
AcDbLine
 62
7
  6
CONTINUOUS
 10
4.1550214203
 20
-27.53786268
 11
4.1346399186
 21
-27.4669255107
  0
LINE
  5
31B
100
AcDbEntity
  8
0
100
AcDbLine
 62
7
  6
CONTINUOUS
 10
4.1958821669
 20
-27.6814831049
 11
4.1550214203
 21
-27.53786268
  0
LINE
  5
31C
100
AcDbEntity
  8
0
100
AcDbLine
 62
7
  6
CONTINUOUS
 10
4.7657156323
 20
-27.9082699892
 11
4.7849528554
 21
-27.9801806519
  0
LINE
  5
31D
100
AcDbEntity
  8
0
100
AcDbLine
 62
7
  6
CONTINUOUS
 10
4.5914544761
 20
-27.2478252557
 11
4.6483755363
 21
-27.4594002656
  0
LINE
  5
31E
100
AcDbEntity
  8
0
100
AcDbLine
 62
7
  6
CONTINUOUS
 10
4.6483755363
 20
-27.4594002656
 11
4.7657156323
 21
-27.9082699892
  0
LWPOLYLINE
  5
31F
100
AcDbEntity
  8
0
100
AcDbPolyline
 62
7
  6
CONTINUOUS
 90
19
 70
0
 10
4.1702242383
 20
-26.2042739588
 10
4.1689520114
 20
-26.1808252385
 10
4.1658058102
 20
-26.1570113197
 10
4.160753011
 20
-26.1330066862
 10
4.1537754183
 20
-26.1090354939
 10
4.1448400941
 20
-26.0852661347
 10
4.1338728289
 20
-26.0618209158
 10
4.1207629387
 20
-26.0388433447
 10
4.1055201759
 20
-26.016726494
 10
4.0882898507
 20
-25.9959685368
 10
4.0691067009
 20
-25.976821531
 10
4.0481074715
 20
-25.9594086578
 10
4.0257137598
 20
-25.9439291781
 10
4.0022420175
 20
-25.9304235308
 10
3.9778483651
 20
-25.9188342966
 10
3.9527546434
 20
-25.9091578813
 10
3.9271805029
 20
-25.9013919234
 10
3.9013437855
 20
-25.8955345462
 10
3.8754575133
 20
-25.8915832361
  0
LWPOLYLINE
  5
320
100
AcDbEntity
  8
0
100
AcDbPolyline
 62
7
  6
CONTINUOUS
 90
13
 70
0
 43
0.3500000006
 10
0.8571419756
 20
53.5013030548
 10
0.8571419756
 20
54.7870190277
 10
1.0714276643
 20
55.2155879974
 10
1.4999990416
 20
55.644161499
 10
1.714284801
 20
55.644161499
 10
2.1428561783
 20
55.2155879974
 10
2.3571419377
 20
54.7870190277
 10
2.3571419377
 20
53.5013030548
 10
2.1428561783
 20
53.0727295532
 10
1.714284801
 20
52.6441605835
 10
1.4999990416
 20
52.6441605835
 10
1.0714276643
 20
53.0727295532
 10
0.8571419756
 20
53.5013030548
  0
LINE
  5
321
100
AcDbEntity
  8
0
100
AcDbLine
 62
7
  6
CONTINUOUS
 10
2.9643015968
 20
-27.9801806519
 11
2.9643015968
 21
-25.5096502829
  0
LINE
  5
322
100
AcDbEntity
  8
0
100
AcDbLine
 62
7
  6
CONTINUOUS
 10
3.4666930716
 20
-25.9062997962
 11
3.4666930716
 21
-26.5925259486
  0
LINE
  5
323
100
AcDbEntity
  8
0
100
AcDbLine
 62
7
  6
CONTINUOUS
 10
3.4839949384
 20
-27.0019222326
 11
3.4839949384
 21
-27.9801806519
  0
LINE
  5
324
100
AcDbEntity
  8
0
100
AcDbLine
 62
7
  6
CONTINUOUS
 10
4.305805492
 20
-26.7985550034
 11
4.305805492
 21
-26.8133262613
  0
LINE
  5
325
100
AcDbEntity
  8
0
100
AcDbLine
 62
7
  6
CONTINUOUS
 10
-3.8706669052
 20
-27.2010908712
 11
-3.3796159052
 21
-25.4804448712
  0
LINE
  5
326
100
AcDbEntity
  8
0
100
AcDbLine
 62
7
  6
CONTINUOUS
 10
-2.8581799052
 20
-25.4804448712
 11
-3.6616949052
 21
-27.9801808712
  0
LINE
  5
327
100
AcDbEntity
  8
RACCORDO
100
AcDbLine
 62
250
  6
CONTINUOUS
 10
10.6688920425
 20
-22.3097760357
 11
10.6552422562
 21
-19.87475436
  0
LINE
  5
328
100
AcDbEntity
  8
RACCORDO
100
AcDbLine
 62
250
  6
CONTINUOUS
 10
10.6552422562
 20
-19.87475436
 11
10.6457905136
 21
-17.5108157276
  0
LINE
  5
329
100
AcDbEntity
  8
RACCORDO
100
AcDbLine
 62
250
  6
CONTINUOUS
 10
10.6457905136
 20
-17.5108157276
 11
10.6380295136
 21
-14.5634192497
  0
LINE
  5
32A
100
AcDbEntity
  8
RACCORDO
100
AcDbLine
 62
250
  6
CONTINUOUS
 10
10.6380295136
 20
-14.5634192497
 11
10.6320306072
 21
-10.4503032481
  0
LINE
  5
32B
100
AcDbEntity
  8
RACCORDO
100
AcDbLine
 62
250
  6
CONTINUOUS
 10
10.6320306072
 20
-10.4503032481
 11
10.6279912448
 21
-4.9895610949
  0
LINE
  5
32C
100
AcDbEntity
  8
RACCORDO
100
AcDbLine
 62
250
  6
CONTINUOUS
 10
10.6279912448
 20
-4.9895610949
 11
10.627013748
 21
1.3791114898
  0
LINE
  5
32D
100
AcDbEntity
  8
RACCORDO
100
AcDbLine
 62
250
  6
CONTINUOUS
 10
10.627013748
 20
1.3791114898
 11
10.6294888717
 21
7.5793340092
  0
LINE
  5
32E
100
AcDbEntity
  8
RACCORDO
100
AcDbLine
 62
250
  6
CONTINUOUS
 10
10.6294888717
 20
7.5793340092
 11
10.6350434034
 21
12.8508688397
  0
LINE
  5
32F
100
AcDbEntity
  8
RACCORDO
100
AcDbLine
 62
250
  6
CONTINUOUS
 10
10.6350434034
 20
12.8508688397
 11
10.6407718844
 21
15.7832341209
  0
LINE
  5
330
100
AcDbEntity
  8
RACCORDO
100
AcDbLine
 62
250
  6
CONTINUOUS
 10
10.6407718844
 20
15.7832341209
 11
10.6481731607
 21
18.1911182941
  0
LINE
  5
331
100
AcDbEntity
  8
RACCORDO
100
AcDbLine
 62
250
  6
CONTINUOUS
 10
10.6481731607
 20
18.1911182941
 11
10.6565612246
 21
20.1454114487
  0
LINE
  5
332
100
AcDbEntity
  8
RACCORDO
100
AcDbLine
 62
250
  6
CONTINUOUS
 10
10.6565612246
 20
20.1454114487
 11
10.6688920425
 21
22.3097742932
  0
LWPOLYLINE
  5
333
100
AcDbEntity
  8
RACCORDO
100
AcDbPolyline
 62
250
  6
CONTINUOUS
 90
25
 70
0
 10
10.9656248905
 20
22.286275984
 10
10.9669119034
 20
22.3187943801
 10
10.9703286358
 20
22.3510297983
 10
10.975838086
 20
22.3828480489
 10
10.9833829697
 20
22.4140726714
 10
10.9929163028
 20
22.4446261592
 10
11.0044309488
 20
22.4745216397
 10
11.0179084597
 20
22.5036807441
 10
11.0332802682
 20
22.5319296379
 10
11.0504750967
 20
22.5591359091
 10
11.0694271754
 20
22.5851883771
 10
11.0900567235
 20
22.6099724861
 10
11.1122526038
 20
22.6333632027
 10
11.1359035727
 20
22.6552505361
 10
11.1609238499
 20
22.6755626423
 10
11.1872311105
 20
22.6942405371
 10
11.2146427866
 20
22.7111607546
 10
11.2431175742
 20
22.7263033603
 10
11.272808684
 20
22.7397207256
 10
11.303742965
 20
22.7513444858
 10
11.3356909535
 20
22.761009351
 10
11.3684268892
 20
22.7685991216
 10
11.4017809169
 20
22.7740365446
 10
11.4356461389
 20
22.7772628143
 10
11.4698745206
 20
22.778221052
  0
LWPOLYLINE
  5
334
100
AcDbEntity
  8
RACCORDO
100
AcDbPolyline
 62
250
  6
CONTINUOUS
 90
25
 70
0
 10
10.6688920425
 20
22.3097742932
 10
10.6710666803
 20
22.3622837144
 10
10.676492422
 20
22.4139365251
 10
10.6851692675
 20
22.4647327258
 10
10.697151901
 20
22.5148010562
 10
10.7123856382
 20
22.5640127782
 10
10.7307064266
 20
22.6119816742
 10
10.7521607965
 20
22.6587773267
 10
10.7767022176
 20
22.7043301513
 10
10.8040270465
 20
22.7480451765
 10
10.8341832987
 20
22.7899009638
 10
10.8671229589
 20
22.8299189445
 10
10.9023983379
 20
22.8675684467
 10
10.9400135396
 20
22.9027950575
 10
10.9799644603
 20
22.935653178
 10
11.0217910994
 20
22.9657753545
 10
11.0653729584
 20
22.9931109666
 10
11.1108305362
 20
23.0177106204
 10
11.1580653273
 20
23.0393586996
 10
11.2072927827
 20
23.0581422095
 10
11.2582974518
 20
23.0739741311
 10
11.310334478
 20
23.08637781
 10
11.3631555759
 20
23.0951943561
 10
11.4170090313
 20
23.100582646
 10
11.4718948445
 20
23.1025426741
  0
LINE
  5
335
100
AcDbEntity
  8
0
100
AcDbLine
 62
7
  6
CONTINUOUS
 10
1.7819070948
 20
-26.1673088712
 11
1.5220980948
 21
-27.0949928712
  0
LINE
  5
336
100
AcDbEntity
  8
0
100
AcDbLine
 62
7
  6
CONTINUOUS
 10
1.4153630948
 20
-27.4811448712
 11
1.2713800948
 21
-27.9801808712
  0
LINE
  5
337
100
AcDbEntity
  8
0
100
AcDbLine
 62
7
  6
CONTINUOUS
 10
0.7552490948
 20
-27.9801808712
 11
1.5393250948
 21
-25.4804448712
  0
LINE
  5
338
100
AcDbEntity
  8
0
100
AcDbLine
 62
7
  6
CONTINUOUS
 10
-0.5984959052
 20
-26.8683058712
 11
-0.0767029052
 21
-25.4804448712
  0
LINE
  5
339
100
AcDbEntity
  8
0
100
AcDbLine
 62
7
  6
CONTINUOUS
 10
0.0556570948
 20
-26.3547048712
 11
-0.5647539052
 21
-27.9801808712
  0
LINE
  5
33A
100
AcDbEntity
  8
RACCORDO
100
AcDbLine
 62
250
  6
CONTINUOUS
 10
33.5065229705
 20
22.7546203535
 11
33.3519017457
 21
22.5999991288
  0
LINE
  5
33B
100
AcDbEntity
  8
RACCORDO
100
AcDbLine
 62
250
  6
CONTINUOUS
 10
34.0062746884
 20
22.2581773734
 11
33.8499990948
 21
22.1019017797
  0
LINE
  5
33C
100
AcDbEntity
  8
RACCORDO
100
AcDbLine
 62
250
  6
CONTINUOUS
 10
33.5065229705
 20
-22.754622096
 11
33.3519017457
 21
-22.6000008712
  0
LINE
  5
33D
100
AcDbEntity
  8
RACCORDO
100
AcDbLine
 62
250
  6
CONTINUOUS
 10
34.0062746884
 20
-22.2581791159
 11
33.8499990948
 21
-22.1019035222
  0
LWPOLYLINE
  5
33E
100
AcDbEntity
  8
RACCORDO
100
AcDbPolyline
 62
250
  6
CONTINUOUS
 90
4
 70
0
 10
11.4704979058
 20
-22.8008756775
 10
11.4702939061
 20
-22.7901627484
 10
11.4700853233
 20
-22.7825841891
 10
11.4698744358
 20
-22.7782228047
  0
LINE
  5
33F
100
AcDbEntity
  8
RACCORDO
100
AcDbLine
 62
250
  6
CONTINUOUS
 10
11.470883316
 20
-22.8312034609
 11
11.4704979058
 21
-22.8008756775
  0
LINE
  5
340
100
AcDbEntity
  8
RACCORDO
100
AcDbLine
 62
250
  6
CONTINUOUS
 10
10.9656248848
 20
-22.2862777321
 11
10.9512108785
 21
-19.8575354436
  0
LINE
  5
341
100
AcDbEntity
  8
RACCORDO
100
AcDbLine
 62
250
  6
CONTINUOUS
 10
11.4715073623
 20
-22.9222152661
 11
11.470883316
 21
-22.8312034609
  0
LINE
  5
342
100
AcDbEntity
  8
RACCORDO
100
AcDbLine
 62
250
  6
CONTINUOUS
 10
10.9512108785
 20
-19.8575354436
 11
10.9411527763
 21
-17.4986272679
  0
LINE
  5
343
100
AcDbEntity
  8
RACCORDO
100
AcDbLine
 62
250
  6
CONTINUOUS
 10
10.9411527763
 20
-17.4986272679
 11
10.9328218226
 21
-14.5559539192
  0
LINE
  5
344
100
AcDbEntity
  8
RACCORDO
100
AcDbLine
 62
250
  6
CONTINUOUS
 10
10.9328218226
 20
-14.5559539192
 11
10.9270739905
 21
-11.0320899988
  0
LINE
  5
345
100
AcDbEntity
  8
RACCORDO
100
AcDbLine
 62
250
  6
CONTINUOUS
 10
10.9270739905
 20
-11.0320899988
 11
10.922678795
 21
-5.6294014614
  0
LINE
  5
346
100
AcDbEntity
  8
RACCORDO
100
AcDbLine
 62
250
  6
CONTINUOUS
 10
11.471894844
 20
-23.1025444166
 11
11.4715073623
 21
-22.9222152661
  0
LINE
  5
347
100
AcDbEntity
  8
RACCORDO
100
AcDbLine
 62
7
  6
CONTINUOUS
 10
11.1499990948
 20
22.1019017797
 11
11.1499990948
 21
-22.1019035222
  0
LINE
  5
348
100
AcDbEntity
  8
RACCORDO
100
AcDbLine
 62
250
  6
CONTINUOUS
 10
10.922678795
 20
-5.6294014614
 11
10.9215373713
 21
1.3788032669
  0
LINE
  5
349
100
AcDbEntity
  8
RACCORDO
100
AcDbLine
 62
250
  6
CONTINUOUS
 10
10.9215373713
 20
1.3788032669
 11
10.9242584517
 21
8.1637551335
  0
LINE
  5
34A
100
AcDbEntity
  8
RACCORDO
100
AcDbLine
 62
250
  6
CONTINUOUS
 10
10.9242584517
 20
8.1637551335
 11
10.9357739643
 21
15.7740282478
  0
LINE
  5
34B
100
AcDbEntity
  8
RACCORDO
100
AcDbLine
 62
250
  6
CONTINUOUS
 10
10.9357739643
 20
15.7740282478
 11
10.9436967548
 21
18.1775938054
  0
LINE
  5
34C
100
AcDbEntity
  8
RACCORDO
100
AcDbLine
 62
250
  6
CONTINUOUS
 10
11.4718948445
 20
23.1025426741
 11
11.4715073601
 21
22.9222151746
  0
LINE
  5
34D
100
AcDbEntity
  8
RACCORDO
100
AcDbLine
 62
250
  6
CONTINUOUS
 10
10.9436967548
 20
18.1775938054
 11
10.952607961
 21
20.1275473835
  0
LINE
  5
34E
100
AcDbEntity
  8
RACCORDO
100
AcDbLine
 62
250
  6
CONTINUOUS
 10
10.952607961
 20
20.1275473835
 11
10.9656248848
 21
22.2862759897
  0
LINE
  5
34F
100
AcDbEntity
  8
RACCORDO
100
AcDbLine
 62
250
  6
CONTINUOUS
 10
11.4715073601
 20
22.9222151746
 11
11.4708833161
 21
22.8312026063
  0
LWPOLYLINE
  5
350
100
AcDbEntity
  8
RACCORDO
100
AcDbPolyline
 62
250
  6
CONTINUOUS
 90
5
 70
0
 10
11.4708833161
 20
22.8312026063
 10
11.4704979064
 20
22.8008743441
 10
11.4702939079
 20
22.7901612717
 10
11.4700853269
 20
22.7825826034
 10
11.469874442
 20
22.7782211306
  0
LINE
  5
351
100
AcDbEntity
  8
ASSI
100
AcDbLine
 62
250
  6
CONTINUOUS
 10
59.1094899299
 20
42.9092158239
 11
59.1502732348
 21
42.9499991288
  0
LINE
  5
352
100
AcDbEntity
  8
ASSI
100
AcDbLine
 62
250
  6
CONTINUOUS
 10
59.9092321018
 20
42.1095062758
 11
59.9499990948
 21
42.1502732688
  0
LINE
  5
353
100
AcDbEntity
  8
ASSI
100
AcDbLine
 62
250
  6
CONTINUOUS
 10
59.1094907366
 20
-42.9092183731
 11
59.1502732348
 21
-42.9500008712
  0
LINE
  5
354
100
AcDbEntity
  8
ASSI
100
AcDbLine
 62
250
  6
CONTINUOUS
 10
59.9092312734
 20
-42.1095071899
 11
59.9499990948
 21
-42.1502750113
  0
LINE
  5
355
100
AcDbEntity
  8
RACCORDO
100
AcDbLine
 62
250
  6
CONTINUOUS
 10
10.9656248848
 20
-22.2862777321
 11
11.1499990948
 21
-22.1019035222
  0
LINE
  5
356
100
AcDbEntity
  8
RACCORDO
100
AcDbLine
 62
250
  6
CONTINUOUS
 10
11.469874442
 20
-22.7782228731
 11
11.6480964438
 21
-22.6000008712
  0
LWPOLYLINE
  5
357
100
AcDbEntity
  8
RACCORDO
100
AcDbPolyline
 62
250
  6
CONTINUOUS
 90
12
 70
0
 10
34.1934441496
 20
22.2686782667
 10
34.1661542311
 20
22.2680938298
 10
34.140258277
 20
22.2674099254
 10
34.116016025
 20
22.2666334129
 10
34.093670626
 20
22.2657720812
 10
34.0734462053
 20
22.2648345694
 10
34.0555456148
 20
22.2638302806
 10
34.0401483982
 20
22.2627692878
 10
34.0274089904
 20
22.2616622333
 10
34.0174551681
 20
22.2605202208
 10
34.0103867686
 20
22.2593547042
 10
34.0062746884
 20
22.2581773734
  0
LINE
  5
358
100
AcDbEntity
  8
RACCORDO
100
AcDbLine
 62
250
  6
CONTINUOUS
 10
34.2510997673
 20
22.2695263477
 11
34.1934441496
 21
22.2686782667
  0
LWPOLYLINE
  5
359
100
AcDbEntity
  8
RACCORDO
100
AcDbPolyline
 62
250
  6
CONTINUOUS
 90
16
 70
0
 10
-10.6688938529
 20
22.3097742932
 10
-10.6983687136
 20
22.3094425722
 10
-10.7275375527
 20
22.308886504
 10
-10.7561178963
 20
22.3081114737
 10
-10.7838329695
 20
22.3071249867
 10
-10.8104143769
 20
22.3059365963
 10
-10.8356047014
 20
22.3045578108
 10
-10.8591599975
 20
22.3030019827
 10
-10.8808521534
 20
22.3012841788
 10
-10.9004711001
 20
22.2994210343
 10
-10.9178268457
 20
22.2974305922
 10
-10.9327513155
 20
22.2953321281
 10
-10.9450999793
 20
22.2931459638
 10
-10.9547532514
 20
22.2908932702
 10
-10.9616176486
 20
22.2885958627
 10
-10.9656266953
 20
22.2862759897
  0
LINE
  5
35A
100
AcDbEntity
  8
RACCORDO
100
AcDbLine
 62
250
  6
CONTINUOUS
 10
34.3109177763
 20
22.2699202269
 11
34.2510997673
 21
22.2695263477
  0
LINE
  5
35B
100
AcDbEntity
  8
RACCORDO
100
AcDbLine
 62
250
  6
CONTINUOUS
 10
-33.5114336962
 20
23.0667392205
 11
-18.0127396667
 21
23.0936754422
  0
LINE
  5
35C
100
AcDbEntity
  8
RACCORDO
100
AcDbLine
 62
250
  6
CONTINUOUS
 10
-33.506524781
 20
22.7546203535
 11
-18.0092531459
 21
22.7729588694
  0
LINE
  5
35D
100
AcDbEntity
  8
RACCORDO
100
AcDbLine
 62
250
  6
CONTINUOUS
 10
-18.0127396667
 20
23.0936754422
 11
-11.471896655
 21
23.1025426741
  0
LINE
  5
35E
100
AcDbEntity
  8
RACCORDO
100
AcDbLine
 62
250
  6
CONTINUOUS
 10
-18.0092531459
 20
22.7729588694
 11
-11.4698762525
 21
22.7782211306
  0
LINE
  5
35F
100
AcDbEntity
  8
RACCORDO
100
AcDbLine
 62
7
  6
CONTINUOUS
 10
33.3519017457
 20
22.5999991288
 11
11.6480964438
 21
22.5999991288
  0
LINE
  5
360
100
AcDbEntity
  8
RACCORDO
100
AcDbLine
 62
7
  6
CONTINUOUS
 10
-11.6480982543
 20
22.5999991288
 11
-33.3519035562
 21
22.5999991288
  0
LINE
  5
361
100
AcDbEntity
  8
RACCORDO
100
AcDbLine
 62
250
  6
CONTINUOUS
 10
11.469874442
 20
22.7782211306
 11
18.9104200794
 21
22.7720244571
  0
LINE
  5
362
100
AcDbEntity
  8
RACCORDO
100
AcDbLine
 62
250
  6
CONTINUOUS
 10
18.9104200794
 20
22.7720244571
 11
33.5065229705
 21
22.7546203535
  0
LINE
  5
363
100
AcDbEntity
  8
RACCORDO
100
AcDbLine
 62
250
  6
CONTINUOUS
 10
11.4718948445
 20
23.1025426741
 11
17.1679992393
 21
23.095083226
  0
LINE
  5
364
100
AcDbEntity
  8
RACCORDO
100
AcDbLine
 62
250
  6
CONTINUOUS
 10
17.1679992393
 20
23.095083226
 11
33.5114318858
 21
23.0667392205
  0
LINE
  5
365
100
AcDbEntity
  8
RACCORDO
100
AcDbLine
 62
250
  6
CONTINUOUS
 10
-34.3109195868
 20
22.2699202275
 11
-34.2511006037
 21
22.2695262598
  0
LWPOLYLINE
  5
366
100
AcDbEntity
  8
RACCORDO
100
AcDbPolyline
 62
250
  6
CONTINUOUS
 90
16
 70
0
 10
10.6688920425
 20
22.3097742938
 10
10.6983674453
 20
22.3094425679
 10
10.7275367239
 20
22.3088864881
 10
10.7561173952
 20
22.3081114418
 10
10.7838326781
 20
22.3071249369
 10
10.8104141818
 20
22.3059365287
 10
10.8356045035
 20
22.3045577273
 10
10.8591597061
 20
22.3030018869
 10
10.8808516945
 20
22.3012840757
 10
10.9004704274
 20
22.2994209293
 10
10.9178259284
 20
22.2974304917
 10
10.9327501453
 20
22.2953320386
 10
10.9450985798
 20
22.29314589
 10
10.9547516628
 20
22.2908932159
 10
10.9616159205
 20
22.2885958318
 10
10.9656248905
 20
22.2862759854
  0
LWPOLYLINE
  5
367
100
AcDbEntity
  8
RACCORDO
100
AcDbPolyline
 62
250
  6
CONTINUOUS
 90
13
 70
0
 10
-34.2511006037
 20
22.2695262598
 10
-34.1934444498
 20
22.2686781047
 10
-34.166154435
 20
22.2680936392
 10
-34.1402584836
 20
22.2674097135
 10
-34.116016325
 20
22.2666331883
 10
-34.0936710936
 20
22.265771853
 10
-34.0734468863
 20
22.2648343467
 10
-34.0555465468
 20
22.2638300738
 10
-34.0401495871
 20
22.2627691068
 10
-34.0274103952
 20
22.2616620849
 10
-34.0174567384
 20
22.2605201106
 10
-34.0103884627
 20
22.2593546385
 10
-34.0062764633
 20
22.2581773582
  0
LWPOLYLINE
  5
368
100
AcDbEntity
  8
RACCORDO
100
AcDbPolyline
 62
250
  6
CONTINUOUS
 90
25
 70
0
 10
-11.4698763213
 20
22.7782210618
 10
-11.4368203496
 20
22.7773335597
 10
-11.404038934
 20
22.7743223769
 10
-11.3716675192
 20
22.7692269897
 10
-11.3398815176
 20
22.762108773
 10
-11.3087610343
 20
22.7530156876
 10
-11.2782991748
 20
22.7419528604
 10
-11.2485736988
 20
22.7289426055
 10
-11.219758637
 20
22.7140549783
 10
-11.1919933743
 20
22.6973556894
 10
-11.1653871891
 20
22.6789126011
 10
-11.140054443
 20
22.6588079017
 10
-11.1161290256
 20
22.6371476972
 10
-11.0937190086
 20
22.6140447042
 10
-11.0728938532
 20
22.5895872074
 10
-11.0537195354
 20
22.5638544119
 10
-11.0363214883
 20
22.5370358229
 10
-11.0207101031
 20
22.509169094
 10
-11.0068251307
 20
22.4800801643
 10
-10.9947305527
 20
22.4497383383
 10
-10.9845960011
 20
22.4183746826
 10
-10.9765469234
 20
22.3862003239
 10
-10.9706644543
 20
22.3533793944
 10
-10.9670051235
 20
22.320022252
 10
-10.9656267016
 20
22.2862759833
  0
LWPOLYLINE
  5
369
100
AcDbEntity
  8
RACCORDO
100
AcDbPolyline
 62
250
  6
CONTINUOUS
 90
25
 70
0
 10
33.5065229181
 20
22.7546203011
 10
33.5394153183
 20
22.7536225937
 10
33.5720257541
 20
22.7504969297
 10
33.6042193287
 20
22.7452822016
 10
33.6358202348
 20
22.7380387821
 10
33.6667496354
 20
22.7288144093
 10
33.6970173037
 20
22.7176145608
 10
33.7265453329
 20
22.7044603114
 10
33.7551600814
 20
22.6894212125
 10
33.7827255522
 20
22.6725640536
 10
33.8091311935
 20
22.6539561651
 10
33.8342633871
 20
22.6336784054
 10
33.8579938617
 20
22.6118360135
 10
33.880213508
 20
22.5885403049
 10
33.9008513907
 20
22.5638783199
 10
33.9198451467
 20
22.5379277465
 10
33.9370705606
 20
22.5108723271
 10
33.9525107305
 20
22.4827528595
 10
33.9662193017
 20
22.4534082179
 10
33.9781303621
 20
22.4228090727
 10
33.9880758096
 20
22.3911863469
 10
33.9959325288
 20
22.358763513
 10
34.0016217951
 20
22.3257095521
 10
34.0050878972
 20
22.2921316365
 10
34.0062746477
 20
22.2581773327
  0
LWPOLYLINE
  5
36A
100
AcDbEntity
  8
RACCORDO
100
AcDbPolyline
 62
250
  6
CONTINUOUS
 90
25
 70
0
 10
-11.471896655
 20
23.1025426741
 10
-11.4189051648
 20
23.1007529106
 10
-11.3667709958
 20
23.0957081605
 10
-11.3154941478
 20
23.0874084289
 10
-11.2649436365
 20
23.0757962524
 10
-11.2152504458
 20
23.0609291066
 10
-11.1668075273
 20
23.0429794047
 10
-11.1195466707
 20
23.0219018426
 10
-11.073536086
 20
22.997741739
 10
-11.0293733558
 20
22.9708074407
 10
-10.9870800739
 20
22.941050723
 10
-10.9466346461
 20
22.9085198249
 10
-10.9085698733
 20
22.8736677855
 10
-10.8729419709
 20
22.8364901684
 10
-10.8396947232
 20
22.7969914213
 10
-10.8091922853
 20
22.7556379058
 10
-10.781491216
 20
22.7125622999
 10
-10.7565349564
 20
22.6676319328
 10
-10.7345179859
 20
22.6209151404
 10
-10.7153435137
 20
22.5721925535
 10
-10.6991083304
 20
22.5216835482
 10
-10.6862972875
 20
22.4701145752
 10
-10.6770720021
 20
22.4177277831
 10
-10.6712708573
 20
22.3642810225
 10
-10.6688938529
 20
22.3097742932
  0
LWPOLYLINE
  5
36B
100
AcDbEntity
  8
RACCORDO
100
AcDbPolyline
 62
250
  6
CONTINUOUS
 90
25
 70
0
 10
33.5114318858
 20
23.0667392205
 10
33.5642636852
 20
23.0648170729
 10
33.6162359716
 20
23.0596412516
 10
33.6673487257
 20
23.0512117347
 10
33.7177315716
 20
23.039471877
 10
33.7672548473
 20
23.0244782875
 10
33.8155295969
 20
23.0064008268
 10
33.8626243852
 20
22.9851942051
 10
33.9084705934
 20
22.9609036843
 10
33.9524734732
 20
22.9338349501
 10
33.9946110558
 20
22.9039411664
 10
34.0349052376
 20
22.8712691495
 10
34.0728270523
 20
22.8362650617
 10
34.1083222768
 20
22.7989248633
 10
34.141445056
 20
22.7592525866
 10
34.1718289684
 20
22.7177065004
 10
34.199421872
 20
22.6744101678
 10
34.22427584
 20
22.6292400334
 10
34.2461807736
 20
22.5822836914
 10
34.2652274192
 20
22.5333218724
 10
34.28132498
 20
22.4825738752
 10
34.2939910463
 20
22.4307851479
 10
34.3030648072
 20
22.3782041858
 10
34.3087070515
 20
22.3245825364
 10
34.3109177763
 20
22.2699202269
  0
LINE
  5
36C
100
AcDbEntity
  8
RACCORDO
100
AcDbLine
 62
250
  6
CONTINUOUS
 10
10.9656248848
 20
22.2862759897
 11
11.1499990948
 21
22.1019017797
  0
LINE
  5
36D
100
AcDbEntity
  8
RACCORDO
100
AcDbLine
 62
250
  6
CONTINUOUS
 10
11.469874442
 20
22.7782211306
 11
11.6480964438
 21
22.5999991288
  0
LWPOLYLINE
  5
36E
100
AcDbEntity
  8
RACCORDO
100
AcDbPolyline
 62
250
  6
CONTINUOUS
 90
6
 70
0
 10
33.508918373
 20
-22.8052898931
 10
33.5084697805
 20
-22.7894412267
 10
33.5080010112
 20
-22.7763292115
 10
33.5075169237
 20
-22.7660897462
 10
33.5070225354
 20
-22.7588289566
 10
33.5065229705
 20
-22.754622096
  0
LINE
  5
36F
100
AcDbEntity
  8
RACCORDO
100
AcDbLine
 62
250
  6
CONTINUOUS
 10
33.5097366872
 20
-22.8445134638
 11
33.508918373
 21
-22.8052898931
  0
LINE
  5
370
100
AcDbEntity
  8
RACCORDO
100
AcDbLine
 62
250
  6
CONTINUOUS
 10
33.5104221156
 20
-22.8923780044
 11
33.5097366872
 21
-22.8445134638
  0
LINE
  5
371
100
AcDbEntity
  8
RACCORDO
100
AcDbLine
 62
250
  6
CONTINUOUS
 10
33.5111408932
 20
-22.9759692435
 11
33.5104221156
 21
-22.8923780044
  0
LINE
  5
372
100
AcDbEntity
  8
RACCORDO
100
AcDbLine
 62
250
  6
CONTINUOUS
 10
34.3109177763
 20
22.2699202269
 11
34.3235950818
 21
18.065564683
  0
LINE
  5
373
100
AcDbEntity
  8
RACCORDO
100
AcDbLine
 62
250
  6
CONTINUOUS
 10
34.0062746884
 20
22.2581773734
 11
34.0149560235
 21
19.2356832506
  0
LINE
  5
374
100
AcDbEntity
  8
RACCORDO
100
AcDbLine
 62
250
  6
CONTINUOUS
 10
33.5114318858
 20
-23.066740963
 11
33.5111408932
 21
-22.9759692435
  0
LINE
  5
375
100
AcDbEntity
  8
RACCORDO
100
AcDbLine
 62
250
  6
CONTINUOUS
 10
34.3235950818
 20
18.065564683
 11
34.3361996546
 21
11.594254875
  0
LINE
  5
376
100
AcDbEntity
  8
RACCORDO
100
AcDbLine
 62
250
  6
CONTINUOUS
 10
34.0149560235
 20
19.2356832506
 11
34.0234778073
 21
14.5290572933
  0
LINE
  5
377
100
AcDbEntity
  8
RACCORDO
100
AcDbLine
 62
250
  6
CONTINUOUS
 10
34.3361996546
 20
11.594254875
 11
34.3440560961
 21
4.9744363872
  0
LINE
  5
378
100
AcDbEntity
  8
RACCORDO
100
AcDbLine
 62
250
  6
CONTINUOUS
 10
34.0234778073
 20
14.5290572933
 11
34.0314219145
 21
6.2372172606
  0
LINE
  5
379
100
AcDbEntity
  8
RACCORDO
100
AcDbLine
 62
7
  6
CONTINUOUS
 10
33.8499990948
 20
-22.1019035222
 11
33.8499990948
 21
22.1019017797
  0
LINE
  5
37A
100
AcDbEntity
  8
RACCORDO
100
AcDbLine
 62
250
  6
CONTINUOUS
 10
34.3440560961
 20
4.9744363872
 11
34.3451949039
 21
-3.3132998188
  0
LINE
  5
37B
100
AcDbEntity
  8
RACCORDO
100
AcDbLine
 62
250
  6
CONTINUOUS
 10
34.0314219145
 20
6.2372172606
 11
34.0317264389
 21
-5.7636531674
  0
LINE
  5
37C
100
AcDbEntity
  8
RACCORDO
100
AcDbLine
 62
250
  6
CONTINUOUS
 10
34.0317264389
 20
-5.7636531674
 11
34.0255677098
 21
-12.8104514989
  0
LINE
  5
37D
100
AcDbEntity
  8
RACCORDO
100
AcDbLine
 62
250
  6
CONTINUOUS
 10
34.3451949039
 20
-3.3132998188
 11
34.3401662594
 21
-8.7155006096
  0
LINE
  5
37E
100
AcDbEntity
  8
RACCORDO
100
AcDbLine
 62
250
  6
CONTINUOUS
 10
34.0255677098
 20
-12.8104514989
 11
34.0186709202
 21
-17.5151426067
  0
LINE
  5
37F
100
AcDbEntity
  8
RACCORDO
100
AcDbLine
 62
250
  6
CONTINUOUS
 10
34.3401662594
 20
-8.7155006096
 11
34.3312086283
 21
-14.5729638166
  0
LINE
  5
380
100
AcDbEntity
  8
RACCORDO
100
AcDbLine
 62
250
  6
CONTINUOUS
 10
34.3312086283
 20
-14.5729638166
 11
34.3217736372
 21
-18.7658185481
  0
LINE
  5
381
100
AcDbEntity
  8
RACCORDO
100
AcDbLine
 62
250
  6
CONTINUOUS
 10
34.0186709202
 20
-17.5151426067
 11
34.010874867
 21
-20.7757494918
  0
LINE
  5
382
100
AcDbEntity
  8
RACCORDO
100
AcDbLine
 62
250
  6
CONTINUOUS
 10
34.010874867
 20
-20.7757494918
 11
34.0062746884
 21
-22.2581791159
  0
LINE
  5
383
100
AcDbEntity
  8
RACCORDO
100
AcDbLine
 62
250
  6
CONTINUOUS
 10
34.3217736372
 20
-18.7658185481
 11
34.3109177763
 21
-22.2699219694
  0
LINE
  5
384
100
AcDbEntity
  8
RACCORDO
100
AcDbLine
 62
250
  6
CONTINUOUS
 10
33.5114318863
 20
23.0667392205
 11
33.5111409095
 21
22.9759662418
  0
LINE
  5
385
100
AcDbEntity
  8
RACCORDO
100
AcDbLine
 62
250
  6
CONTINUOUS
 10
33.5111409095
 20
22.9759662418
 11
33.5104221331
 21
22.8923747198
  0
LINE
  5
386
100
AcDbEntity
  8
RACCORDO
100
AcDbLine
 62
250
  6
CONTINUOUS
 10
33.5104221331
 20
22.8923747198
 11
33.5097367022
 21
22.8445104391
  0
LWPOLYLINE
  5
387
100
AcDbEntity
  8
RACCORDO
100
AcDbPolyline
 62
250
  6
CONTINUOUS
 90
7
 70
0
 10
33.5097367022
 20
22.8445104391
 10
33.508918385
 20
22.8052873234
 10
33.5084697912
 20
22.7894389069
 10
33.5080010194
 20
22.7763270893
 10
33.5075169277
 20
22.7660877657
 10
33.5070225336
 20
22.7588270827
 10
33.5065229615
 20
22.7546203012
  0
LWPOLYLINE
  5
388
100
AcDbEntity
  8
RACCORDO
100
AcDbPolyline
 62
250
  6
CONTINUOUS
 90
25
 70
0
 10
34.0062746529
 20
-22.2581790803
 10
34.0051702376
 20
-22.290923496
 10
34.0019366097
 20
-22.3233840643
 10
33.9966119077
 20
-22.3554262609
 10
33.9892553124
 20
-22.3868740097
 10
33.9799142112
 20
-22.4176491954
 10
33.9685945353
 20
-22.4477633007
 10
33.9553162134
 20
-22.4771382667
 10
33.9401483218
 20
-22.5056004608
 10
33.9231591182
 20
-22.5330156999
 10
33.9044153051
 20
-22.5592728784
 10
33.8839970257
 20
-22.5842582905
 10
33.8620108645
 20
-22.607845993
 10
33.8385677047
 20
-22.629926293
 10
33.8137538639
 20
-22.6504275728
 10
33.7876478534
 20
-22.6692893285
 10
33.7604313502
 20
-22.68638788
 10
33.7321462755
 20
-22.701703587
 10
33.7026376641
 20
-22.7152877655
 10
33.6718774086
 20
-22.7270732965
 10
33.6400958903
 20
-22.7368933193
 10
33.6075206734
 20
-22.7446272572
 10
33.5743223513
 20
-22.7501974831
 10
33.5406071501
 20
-22.7535477094
 10
33.5065229104
 20
-22.754622036
  0
LWPOLYLINE
  5
389
100
AcDbEntity
  8
RACCORDO
100
AcDbPolyline
 62
250
  6
CONTINUOUS
 90
25
 70
0
 10
34.3109177763
 20
-22.2699219694
 10
34.3088933703
 20
-22.3226211035
 10
34.303617171
 20
-22.3744619979
 10
34.2950891805
 20
-22.4254446286
 10
34.2832537332
 20
-22.4756980444
 10
34.2681665134
 20
-22.5250931581
 10
34.249994555
 20
-22.573242744
 10
34.22869227
 20
-22.6202158661
 10
34.204305294
 20
-22.6659434371
 10
34.1771375019
 20
-22.7098310042
 10
34.1471421345
 20
-22.751856713
 10
34.1143660197
 20
-22.7920424088
 10
34.0792534135
 20
-22.8298591871
 10
34.0418003838
 20
-22.865253357
 10
34.0020109388
 20
-22.8982786151
 10
33.960341238
 20
-22.9285671375
 10
33.9169112441
 20
-22.9560684916
 10
33.8716010655
 20
-22.9808331286
 10
33.8245070744
 20
-23.0026445513
 10
33.7754112611
 20
-23.0215907029
 10
33.7245317125
 20
-23.0375836767
 10
33.6726189317
 20
-23.0501431988
 10
33.619923096
 20
-23.0591091895
 10
33.5661940728
 20
-23.0646417692
 10
33.5114318858
 20
-23.066740963
  0
LWPOLYLINE
  5
38A
100
AcDbEntity
  8
ASSI
100
AcDbPolyline
 62
250
  6
CONTINUOUS
 90
22
 70
0
 10
-59.1094917811
 20
42.9092158646
 10
-59.1692719674
 20
42.9069816567
 10
-59.2287183485
 20
42.9002865799
 10
-59.2874988003
 20
42.8891673052
 10
-59.3452888995
 20
42.8736838478
 10
-59.4017611841
 20
42.8539227467
 10
-59.4565880478
 20
42.829999698
 10
-59.5094602402
 20
42.8020525402
 10
-59.5600872942
 20
42.7702376959
 10
-59.608187391
 20
42.7347350259
 10
-59.6534886007
 20
42.6957488734
 10
-59.6957446539
 20
42.6534948072
 10
-59.734732894
 20
42.6081954719
 10
-59.7702376308
 20
42.5600972706
 10
-59.8020546224
 20
42.5094719857
 10
-59.8300042249
 20
42.4566009434
 10
-59.8539300805
 20
42.4017740413
 10
-59.8736939305
 20
42.3453009776
 10
-59.8891796898
 20
42.2875104391
 10
-59.9003008587
 20
42.2287303162
 10
-59.906997627
 20
42.169284717
 10
-59.9092334267
 20
42.1095057903
  0
LINE
  5
38B
100
AcDbEntity
  8
ASSI
100
AcDbLine
 62
250
  6
CONTINUOUS
 10
-59.1336992911
 20
42.4474881646
 11
-58.3228483168
 21
42.4790420412
  0
LINE
  5
38C
100
AcDbEntity
  8
ASSI
100
AcDbLine
 62
250
  6
CONTINUOUS
 10
-58.3228483168
 20
42.4790420412
 11
-57.4345344515
 21
42.5077070637
  0
LINE
  5
38D
100
AcDbEntity
  8
ASSI
100
AcDbLine
 62
250
  6
CONTINUOUS
 10
-57.4345344515
 20
42.5077070637
 11
-56.470016398
 21
42.5331990241
  0
LINE
  5
38E
100
AcDbEntity
  8
ASSI
100
AcDbLine
 62
250
  6
CONTINUOUS
 10
-56.470016398
 20
42.5331990241
 11
-55.4285332516
 21
42.554508816
  0
LINE
  5
38F
100
AcDbEntity
  8
ASSI
100
AcDbLine
 62
250
  6
CONTINUOUS
 10
-59.6424533977
 20
42.1290692715
 11
-59.5675579448
 21
42.1305903805
  0
LINE
  5
390
100
AcDbEntity
  8
ASSI
100
AcDbLine
 62
250
  6
CONTINUOUS
 10
-55.4285332516
 20
42.554508816
 11
-54.3430208202
 21
42.5714681646
  0
LINE
  5
391
100
AcDbEntity
  8
ASSI
100
AcDbLine
 62
250
  6
CONTINUOUS
 10
-54.3430208202
 20
42.5714681646
 11
-53.2247141563
 21
42.5843712837
  0
LWPOLYLINE
  5
392
100
AcDbEntity
  8
ASSI
100
AcDbPolyline
 62
250
  6
CONTINUOUS
 90
3
 70
0
 10
-59.5675579448
 20
42.1305903805
 10
-59.4884677064
 20
42.1315522506
 10
-59.4480022533
 20
42.1318148978
  0
LINE
  5
393
100
AcDbEntity
  8
ASSI
100
AcDbLine
 62
250
  6
CONTINUOUS
 10
-53.2247141563
 20
42.5843712837
 11
-51.498763801
 21
42.5984921451
  0
LINE
  5
394
100
AcDbEntity
  8
ASSI
100
AcDbLine
 62
250
  6
CONTINUOUS
 10
-51.498763801
 20
42.5984921451
 11
-49.6538730368
 21
42.609632311
  0
LINE
  5
395
100
AcDbEntity
  8
ASSI
100
AcDbLine
 62
250
  6
CONTINUOUS
 10
-49.6538730368
 20
42.609632311
 11
-47.654272367
 21
42.6186488767
  0
LINE
  5
396
100
AcDbEntity
  8
ASSI
100
AcDbLine
 62
250
  6
CONTINUOUS
 10
-47.654272367
 20
42.6186488767
 11
-44.7258221692
 21
42.6274451168
  0
LINE
  5
397
100
AcDbEntity
  8
ASSI
100
AcDbLine
 62
250
  6
CONTINUOUS
 10
-44.7258221692
 20
42.6274451168
 11
-41.4675152622
 21
42.6331785395
  0
LINE
  5
398
100
AcDbEntity
  8
ASSI
100
AcDbLine
 62
250
  6
CONTINUOUS
 10
27.8983188774
 20
42.6293745367
 11
32.3867879143
 21
42.6346625005
  0
LINE
  5
399
100
AcDbEntity
  8
ASSI
100
AcDbLine
 62
250
  6
CONTINUOUS
 10
57.8554578897
 20
42.9078782055
 11
59.1094899299
 21
42.9092158239
  0
LINE
  5
39A
100
AcDbEntity
  8
ASSI
100
AcDbLine
 62
250
  6
CONTINUOUS
 10
56.93751776
 20
42.9071406781
 11
57.8554578897
 21
42.9078782055
  0
LINE
  5
39B
100
AcDbEntity
  8
ASSI
100
AcDbLine
 62
250
  6
CONTINUOUS
 10
-41.4675152622
 20
42.6331785395
 11
-37.8481242302
 21
42.6362148939
  0
LINE
  5
39C
100
AcDbEntity
  8
ASSI
100
AcDbLine
 62
250
  6
CONTINUOUS
 10
-0.0000009052
 20
42.5800416398
 11
27.8983188774
 21
42.6293745367
  0
LINE
  5
39D
100
AcDbEntity
  8
ASSI
100
AcDbLine
 62
250
  6
CONTINUOUS
 10
32.3867879143
 20
42.6346625005
 11
36.3129692637
 21
42.6364632084
  0
LINE
  5
39E
100
AcDbEntity
  8
ASSI
100
AcDbLine
 62
7
  6
CONTINUOUS
 10
59.1502732348
 20
42.9499991288
 11
-59.1502750453
 21
42.9499991288
  0
LWPOLYLINE
  5
39F
100
AcDbEntity
  8
ASSI
100
AcDbPolyline
 62
250
  6
CONTINUOUS
 90
3
 70
0
 10
6.7816414242
 20
42.9052341438
 10
17.5524017541
 20
42.9046626364
 10
56.93751776
 20
42.9071406781
  0
LINE
  5
3A0
100
AcDbEntity
  8
ASSI
100
AcDbLine
 62
250
  6
CONTINUOUS
 10
-37.8481242302
 20
42.6362148939
 11
-33.8429138562
 21
42.6356960304
  0
LINE
  5
3A1
100
AcDbEntity
  8
ASSI
100
AcDbLine
 62
250
  6
CONTINUOUS
 10
36.3129692637
 20
42.6364632084
 11
39.7826140445
 21
42.6350081271
  0
LINE
  5
3A2
100
AcDbEntity
  8
ASSI
100
AcDbLine
 62
250
  6
CONTINUOUS
 10
-33.8429138562
 20
42.6356960304
 11
-29.3414947029
 21
42.6313832348
  0
LINE
  5
3A3
100
AcDbEntity
  8
ASSI
100
AcDbLine
 62
250
  6
CONTINUOUS
 10
-59.1094925287
 20
42.9092166122
 11
6.7816414242
 21
42.9052341438
  0
LINE
  5
3A4
100
AcDbEntity
  8
ASSI
100
AcDbLine
 62
250
  6
CONTINUOUS
 10
39.7826140445
 20
42.6350081271
 11
43.5891651439
 21
42.6298109022
  0
LINE
  5
3A5
100
AcDbEntity
  8
ASSI
100
AcDbLine
 62
250
  6
CONTINUOUS
 10
-29.3414947029
 20
42.6313832348
 11
-24.3377319591
 21
42.6233400626
  0
LINE
  5
3A6
100
AcDbEntity
  8
ASSI
100
AcDbLine
 62
250
  6
CONTINUOUS
 10
-24.3377319591
 20
42.6233400626
 11
-0.0000009052
 21
42.5800416398
  0
LINE
  5
3A7
100
AcDbEntity
  8
ASSI
100
AcDbLine
 62
250
  6
CONTINUOUS
 10
43.5891651439
 20
42.6298109022
 11
46.2718205336
 21
42.6233626764
  0
LINE
  5
3A8
100
AcDbEntity
  8
ASSI
100
AcDbLine
 62
250
  6
CONTINUOUS
 10
46.2718205336
 20
42.6233626764
 11
48.684867236
 21
42.6143622256
  0
LINE
  5
3A9
100
AcDbEntity
  8
ASSI
100
AcDbLine
 62
250
  6
CONTINUOUS
 10
48.684867236
 20
42.6143622256
 11
50.9406605589
 21
42.6022437867
  0
LINE
  5
3AA
100
AcDbEntity
  8
ASSI
100
AcDbLine
 62
250
  6
CONTINUOUS
 10
50.9406605589
 20
42.6022437867
 11
52.638659066
 21
42.5898504363
  0
LINE
  5
3AB
100
AcDbEntity
  8
ASSI
100
AcDbLine
 62
250
  6
CONTINUOUS
 10
59.4480004083
 20
42.1318149474
 11
59.5284064007
 21
42.1311432194
  0
LINE
  5
3AC
100
AcDbEntity
  8
ASSI
100
AcDbLine
 62
250
  6
CONTINUOUS
 10
52.638659066
 20
42.5898504363
 11
53.7743140844
 21
42.5784124646
  0
LINE
  5
3AD
100
AcDbEntity
  8
ASSI
100
AcDbLine
 62
250
  6
CONTINUOUS
 10
53.7743140844
 20
42.5784124646
 11
54.8929936456
 21
42.5635289639
  0
LWPOLYLINE
  5
3AE
100
AcDbEntity
  8
ASSI
100
AcDbPolyline
 62
250
  6
CONTINUOUS
 90
16
 70
0
 10
59.5284064007
 20
42.1311432194
 10
59.6056559253
 20
42.1298975886
 10
59.6424519416
 20
42.1290693112
 10
59.6777000597
 20
42.1281110944
 10
59.711166167
 20
42.1270293023
 10
59.7426279794
 20
42.1258311203
 10
59.7718765292
 20
42.1245245067
 10
59.7987175492
 20
42.1231181398
 10
59.8229727625
 20
42.1216213607
 10
59.8444810674
 20
42.120044111
 10
59.8630996233
 20
42.1183968651
 10
59.8787047442
 20
42.1166905652
 10
59.8911927497
 20
42.1149365498
 10
59.9004807157
 20
42.1131464712
 10
59.9065069943
 20
42.1113322171
 10
59.9092315886
 20
42.1095058378
  0
LINE
  5
3AF
100
AcDbEntity
  8
ASSI
100
AcDbLine
 62
250
  6
CONTINUOUS
 10
54.8929936456
 20
42.5635289639
 11
55.9563361423
 21
42.5444117172
  0
LINE
  5
3B0
100
AcDbEntity
  8
ASSI
100
AcDbLine
 62
250
  6
CONTINUOUS
 10
55.9563361423
 20
42.5444117172
 11
56.9506597775
 21
42.5212514986
  0
LINE
  5
3B1
100
AcDbEntity
  8
ASSI
100
AcDbLine
 62
250
  6
CONTINUOUS
 10
56.9506597775
 20
42.5212514986
 11
57.8723755283
 21
42.4942297716
  0
LWPOLYLINE
  5
3B2
100
AcDbEntity
  8
ASSI
100
AcDbPolyline
 62
250
  6
CONTINUOUS
 90
3
 70
0
 10
57.8723755283
 20
42.4942297716
 10
58.7292833576
 20
42.4639713847
 10
59.1330373978
 20
42.4475900609
  0
LWPOLYLINE
  5
3B3
100
AcDbEntity
  8
ASSI
100
AcDbPolyline
 62
250
  6
CONTINUOUS
 90
22
 70
0
 10
-59.1336992911
 20
42.4474881646
 10
-59.1562725092
 20
42.4456839329
 10
-59.1786058111
 20
42.4422347393
 10
-59.2006987527
 20
42.4371398734
 10
-59.2226929428
 20
42.4303457036
 10
-59.244445865
 20
42.4219044089
 10
-59.2655309987
 20
42.411974144
 10
-59.2859148621
 20
42.4005335757
 10
-59.3056303342
 20
42.3876030082
 10
-59.3243507012
 20
42.3734034263
 10
-59.3420586352
 20
42.3579168045
 10
-59.3587712698
 20
42.3411607387
 10
-59.3742138887
 20
42.3234100881
 10
-59.388368381
 20
42.3046481557
 10
-59.4012531216
 20
42.2848918688
 10
-59.4126484265
 20
42.2644669662
 10
-59.4225293285
 20
42.2433679128
 10
-59.4309214755
 20
42.2216010589
 10
-59.4376813511
 20
42.1995103339
 10
-59.4427614679
 20
42.1772108333
 10
-59.4462102695
 20
42.1545886639
 10
-59.4480282331
 20
42.131644416
  0
LWPOLYLINE
  5
3B4
100
AcDbEntity
  8
0
100
AcDbPolyline
 62
7
  6
CONTINUOUS
 90
10
 70
0
 43
0.3500000006
 10
65.1443550568
 20
1.0714266357
 10
65.7872130432
 20
0.4285709152
 10
66.6443555145
 20
-0.0000003204
 10
67.7157824707
 20
-0.0000003204
 10
68.1443559723
 20
0.4285709152
 10
68.1443559723
 20
1.0714266357
 10
67.7157824707
 20
1.5000001373
 10
66.8586399994
 20
1.5000001373
 10
66.4300664978
 20
1.0714266357
 10
66.4300664978
 20
0.1428552475
  0
LWPOLYLINE
  5
3B5
100
AcDbEntity
  8
0
100
AcDbPolyline
 62
7
  6
CONTINUOUS
 90
13
 70
0
 43
0.3500000006
 10
66.4300664978
 20
-1.9285720139
 10
66.2157820129
 20
-2.2142865486
 10
65.5729240265
 20
-2.2142865486
 10
65.1443550568
 20
-1.9285720139
 10
65.1443550568
 20
-1.2857140274
 10
65.5729240265
 20
-1.0000006256
 10
66.2157820129
 20
-1.0000006256
 10
66.4300664978
 20
-1.2857140274
 10
66.8586399994
 20
-0.8571427917
 10
67.7157824707
 20
-0.8571427917
 10
68.1443559723
 20
-1.2857140274
 10
68.1443559723
 20
-1.9285720139
 10
67.7157824707
 20
-2.3571432495
  0
LWPOLYLINE
  5
3B6
100
AcDbEntity
  8
0
100
AcDbPolyline
 62
7
  6
CONTINUOUS
 90
7
 70
0
 43
0.3500000006
 10
-0.0000009052
 20
52.6441605835
 10
-1.5000008826
 20
52.6441605835
 10
-0.0000009052
 20
54.7870190277
 10
-0.0000009052
 20
55.2155879974
 10
-0.4285723332
 20
55.644161499
 10
-1.0714295053
 20
55.644161499
 10
-1.5000008826
 20
55.0013035126
  0
LINE
  5
3B7
100
AcDbEntity
  8
ASSI
100
AcDbLine
 62
250
  6
CONTINUOUS
 10
59.4715931676
 20
41.4848517683
 11
59.4919939917
 21
40.7771966686
  0
LINE
  5
3B8
100
AcDbEntity
  8
ASSI
100
AcDbLine
 62
250
  6
CONTINUOUS
 10
59.4919939917
 20
40.7771966686
 11
59.5090318846
 21
40.0092651832
  0
LINE
  5
3B9
100
AcDbEntity
  8
ASSI
100
AcDbLine
 62
250
  6
CONTINUOUS
 10
59.1311051348
 20
42.6053464963
 11
59.1324233446
 21
42.5280361944
  0
LINE
  5
3BA
100
AcDbEntity
  8
ASSI
100
AcDbLine
 62
250
  6
CONTINUOUS
 10
59.5090318846
 20
40.0092651832
 11
59.5222413989
 21
39.177845975
  0
LINE
  5
3BB
100
AcDbEntity
  8
ASSI
100
AcDbLine
 62
250
  6
CONTINUOUS
 10
59.5222413989
 20
39.177845975
 11
59.5319379394
 21
38.3013956072
  0
LINE
  5
3BC
100
AcDbEntity
  8
ASSI
100
AcDbLine
 62
250
  6
CONTINUOUS
 10
59.1324233446
 20
42.5280361944
 11
59.1331325967
 21
42.4475753651
  0
LINE
  5
3BD
100
AcDbEntity
  8
ASSI
100
AcDbLine
 62
250
  6
CONTINUOUS
 10
59.5319379394
 20
38.3013956072
 11
59.5412901697
 21
36.9198623738
  0
LINE
  5
3BE
100
AcDbEntity
  8
ASSI
100
AcDbLine
 62
250
  6
CONTINUOUS
 10
59.5412901697
 20
36.9198623738
 11
59.5490385153
 21
34.9605205507
  0
LINE
  5
3BF
100
AcDbEntity
  8
ASSI
100
AcDbLine
 62
250
  6
CONTINUOUS
 10
59.5490385153
 20
34.9605205507
 11
59.5535859958
 21
32.8584381212
  0
LINE
  5
3C0
100
AcDbEntity
  8
ASSI
100
AcDbLine
 62
250
  6
CONTINUOUS
 10
59.5535859958
 20
32.8584381212
 11
59.5711050198
 21
19.2581548739
  0
LINE
  5
3C1
100
AcDbEntity
  8
ASSI
100
AcDbLine
 62
250
  6
CONTINUOUS
 10
59.5711050198
 20
19.2581548739
 11
59.5722124713
 21
17.1808572482
  0
LINE
  5
3C2
100
AcDbEntity
  8
ASSI
100
AcDbLine
 62
250
  6
CONTINUOUS
 10
59.9061754401
 20
-29.2562333549
 11
59.9092312734
 21
-42.1095071899
  0
LINE
  5
3C3
100
AcDbEntity
  8
ASSI
100
AcDbLine
 62
250
  6
CONTINUOUS
 10
59.9057657957
 20
-13.7313513388
 11
59.9061754401
 21
-29.2562333549
  0
LINE
  5
3C4
100
AcDbEntity
  8
ASSI
100
AcDbLine
 62
7
  6
CONTINUOUS
 10
59.9499990948
 20
-42.1502750113
 11
59.9499990948
 21
42.1502732688
  0
LINE
  5
3C5
100
AcDbEntity
  8
ASSI
100
AcDbLine
 62
250
  6
CONTINUOUS
 10
59.5719193793
 20
-16.5231271581
 11
59.5719831285
 21
-18.4162825709
  0
LINE
  5
3C6
100
AcDbEntity
  8
ASSI
100
AcDbLine
 62
250
  6
CONTINUOUS
 10
59.9092321018
 20
42.1095062758
 11
59.9057657957
 21
-13.7313513388
  0
LINE
  5
3C7
100
AcDbEntity
  8
ASSI
100
AcDbLine
 62
250
  6
CONTINUOUS
 10
59.5722124713
 20
17.1808572482
 11
59.5719193793
 21
-16.5231271581
  0
LINE
  5
3C8
100
AcDbEntity
  8
ASSI
100
AcDbLine
 62
250
  6
CONTINUOUS
 10
59.5719831285
 20
-18.4162825709
 11
59.5680789952
 21
-20.8377193509
  0
LWPOLYLINE
  5
3C9
100
AcDbEntity
  8
ASSI
100
AcDbPolyline
 62
250
  6
CONTINUOUS
 90
3
 70
0
 10
59.5680789952
 20
-20.8377193509
 10
59.5651999057
 20
-22.0481174078
 10
59.5545147172
 20
-32.084814101
  0
LINE
  5
3CA
100
AcDbEntity
  8
ASSI
100
AcDbLine
 62
250
  6
CONTINUOUS
 10
59.5545147172
 20
-32.084814101
 11
59.5500173001
 21
-34.6195971376
  0
LINE
  5
3CB
100
AcDbEntity
  8
ASSI
100
AcDbLine
 62
250
  6
CONTINUOUS
 10
59.5500173001
 20
-34.6195971376
 11
59.543538767
 21
-36.4276658391
  0
LINE
  5
3CC
100
AcDbEntity
  8
ASSI
100
AcDbLine
 62
250
  6
CONTINUOUS
 10
59.543538767
 20
-36.4276658391
 11
59.5369381626
 21
-37.6509642894
  0
LINE
  5
3CD
100
AcDbEntity
  8
ASSI
100
AcDbLine
 62
250
  6
CONTINUOUS
 10
59.5369381626
 20
-37.6509642894
 11
59.5275126665
 21
-38.7477866281
  0
LINE
  5
3CE
100
AcDbEntity
  8
ASSI
100
AcDbLine
 62
250
  6
CONTINUOUS
 10
59.1331326561
 20
-42.447577068
 11
59.1324234013
 21
-42.5280381107
  0
LINE
  5
3CF
100
AcDbEntity
  8
ASSI
100
AcDbLine
 62
250
  6
CONTINUOUS
 10
59.5275126665
 20
-38.7477866281
 11
59.519012717
 21
-39.413562652
  0
LINE
  5
3D0
100
AcDbEntity
  8
ASSI
100
AcDbLine
 62
250
  6
CONTINUOUS
 10
59.519012717
 20
-39.413562652
 11
59.5085571058
 21
-40.0339884579
  0
LWPOLYLINE
  5
3D1
100
AcDbEntity
  8
ASSI
100
AcDbPolyline
 62
250
  6
CONTINUOUS
 90
16
 70
0
 10
59.1324234013
 20
-42.5280381107
 10
59.1311051867
 20
-42.6053485449
 10
59.1302280494
 20
-42.6421759877
 10
59.1292130165
 20
-42.677455535
 10
59.1280668373
 20
-42.7109526025
 10
59.1267971333
 20
-42.7424444503
 10
59.1254123472
 20
-42.7717216759
 10
59.1239216872
 20
-42.7985896033
 10
59.1223350651
 20
-42.8228695763
 10
59.120663031
 20
-42.8444001475
 10
59.1189167012
 20
-42.86303817
 10
59.1171076894
 20
-42.8786596864
 10
59.1152480306
 20
-42.8911607868
 10
59.1133500931
 20
-42.9004583691
 10
59.1114264952
 20
-42.9064906582
 10
59.1094900275
 20
-42.9092175758
  0
LINE
  5
3D2
100
AcDbEntity
  8
ASSI
100
AcDbLine
 62
250
  6
CONTINUOUS
 10
59.5085571058
 20
-40.0339884579
 11
59.4961278159
 21
-40.6121789459
  0
LWPOLYLINE
  5
3D3
100
AcDbEntity
  8
ASSI
100
AcDbPolyline
 62
250
  6
CONTINUOUS
 90
3
 70
0
 10
59.4961278159
 20
-40.6121789459
 10
59.4818080564
 20
-41.1511698374
 10
59.4739887625
 20
-41.4078286253
  0
LWPOLYLINE
  5
3D4
100
AcDbEntity
  8
ASSI
100
AcDbPolyline
 62
250
  6
CONTINUOUS
 90
22
 70
0
 10
59.4479392365
 20
42.1322165432
 10
59.4461600036
 20
42.1549062057
 10
59.442740367
 20
42.177337286
 10
59.4376798468
 20
42.1995091856
 10
59.430926819
 20
42.2215568552
 10
59.4225319355
 20
42.2433441108
 10
59.4126482336
 20
42.2644638093
 10
59.4012532316
 20
42.2848886081
 10
59.3883687329
 20
42.3046450387
 10
59.3742144594
 20
42.3234071508
 10
59.3587720533
 20
42.3411579506
 10
59.3420596084
 20
42.3579142015
 10
59.3243518277
 20
42.3734010327
 10
59.3056316441
 20
42.3876008316
 10
59.2859163188
 20
42.4005316403
 10
59.2655323528
 20
42.4119725123
 10
59.2444711215
 20
42.4218994332
 10
59.2227418551
 20
42.4303374502
 10
59.2006980876
 20
42.4371395652
 10
59.1784579937
 20
42.4422573032
 10
59.1559042841
 20
42.4457405662
 10
59.1330373978
 20
42.4475900609
  0
LWPOLYLINE
  5
3D5
100
AcDbEntity
  8
ASSI
100
AcDbPolyline
 62
250
  6
CONTINUOUS
 90
22
 70
0
 10
59.9092316163
 20
42.1095057903
 10
59.906995869
 20
42.1692840144
 10
59.9002993062
 20
42.2287286035
 10
59.8891785652
 20
42.2875074342
 10
59.8736936133
 20
42.3452961376
 10
59.8539309635
 20
42.40176718
 10
59.8300063503
 20
42.4565927722
 10
59.8020576462
 20
42.509463614
 10
59.7702412613
 20
42.5600892914
 10
59.7347370649
 20
42.6081879727
 10
59.6957494115
 20
42.653487729
 10
59.6534938744
 20
42.6957423002
 10
59.6081930964
 20
42.7347290316
 10
59.5600934889
 20
42.7702322375
 10
59.5094668352
 20
42.8020476867
 10
59.4565944444
 20
42.8299957452
 10
59.4017662615
 20
42.853920043
 10
59.3452919394
 20
42.8736823516
 10
59.2874999926
 20
42.88916662
 10
59.2287182444
 20
42.9002863229
 10
59.169270854
 20
42.9069816046
 10
59.1094899706
 20
42.9092158646
  0
LINE
  5
3D6
100
AcDbEntity
  8
ASSI
100
AcDbLine
 62
250
  6
CONTINUOUS
 10
59.4479392365
 20
42.1322165432
 11
59.4715931676
 21
41.4848517683
  0
LWPOLYLINE
  5
3D7
100
AcDbEntity
  8
ASSI
100
AcDbPolyline
 62
250
  6
CONTINUOUS
 90
3
 70
0
 10
59.4739887625
 20
-41.4078286253
 10
59.4571042308
 20
-41.8983572334
 10
59.4480263481
 20
-42.1316466476
  0
LWPOLYLINE
  5
3D8
100
AcDbEntity
  8
ASSI
100
AcDbPolyline
 62
250
  6
CONTINUOUS
 90
14
 70
0
 10
59.9092316163
 20
-42.1095075328
 10
59.9065069752
 20
-42.1113339313
 10
59.9004806021
 20
-42.113148199
 10
59.8911925243
 20
-42.1149382856
 10
59.8787044329
 20
-42.1166923013
 10
59.8630992735
 20
-42.1183985962
 10
59.8444806952
 20
-42.1200458372
 10
59.8229723619
 20
-42.1216230834
 10
59.7987171309
 20
-42.1231198589
 10
59.7718761041
 20
-42.1245262222
 10
59.742627558
 20
-42.1258328323
 10
59.7111657599
 20
-42.127031011
 10
59.6776996765
 20
-42.1281127999
 10
59.6424515876
 20
-42.1290710139
  0
LWPOLYLINE
  5
3D9
100
AcDbEntity
  8
ASSI
100
AcDbPolyline
 62
250
  6
CONTINUOUS
 90
15
 70
0
 10
59.1094899706
 20
42.9092158646
 10
59.1114264606
 20
42.9064888961
 10
59.113350074
 20
42.9004565051
 10
59.1152480202
 20
42.8911588031
 10
59.1171076788
 20
42.8786576142
 10
59.1189166844
 20
42.8630360637
 10
59.120663008
 20
42.8443980253
 10
59.1223350378
 20
42.8228674307
 10
59.1239216557
 20
42.7985874451
 10
59.1254123117
 20
42.7717195157
 10
59.1267970939
 20
42.7424422976
 10
59.1280667943
 20
42.7109504666
 10
59.1292129701
 20
42.6774534241
 10
59.1302280001
 20
42.6421739049
 10
59.1311051348
 20
42.6053464963
  0
LWPOLYLINE
  5
3DA
100
AcDbEntity
  8
ASSI
100
AcDbPolyline
 62
250
  6
CONTINUOUS
 90
16
 70
0
 10
-83.6198339793
 20
-42.1528983248
 10
-83.4887506622
 20
-42.1387303529
 10
-83.356937736
 20
-42.1203897271
 10
-83.2245633342
 20
-42.0978764474
 10
-83.0922397074
 20
-42.0714320445
 10
-82.9597081827
 20
-42.0408149877
 10
-82.8258785497
 20
-42.0053006853
 10
-82.6908492878
 20
-41.9649583899
 10
-82.5550364396
 20
-41.919718849
 10
-82.4179244063
 20
-41.868649712
 10
-82.2782631306
 20
-41.8108716455
 10
-82.1380891858
 20
-41.7472639831
 10
-82.0016515079
 20
-41.6795323754
 10
-81.8703571839
 20
-41.6082453727
 10
-81.7430410104
 20
-41.5328344247
 10
-81.6198342154
 20
-41.4532995315
  0
LINE
  5
3DB
100
AcDbEntity
  8
ASSI
100
AcDbLine
 62
250
  6
CONTINUOUS
 10
-85.6487422377
 20
-42.131144915
 11
-85.6616013003
 21
-42.1318166402
  0
LINE
  5
3DC
100
AcDbEntity
  8
ASSI
100
AcDbLine
 62
250
  6
CONTINUOUS
 10
-85.1766812027
 20
-42.1095075328
 11
-85.6487422377
 21
-42.131144915
  0
LINE
  5
3DD
100
AcDbEntity
  8
ASSI
100
AcDbLine
 62
7
  6
CONTINUOUS
 10
-83.6198340095
 20
-42.9500008712
 11
-85.3778055318
 21
-42.9039667668
  0
LINE
  5
3DE
100
AcDbEntity
  8
ASSI
100
AcDbLine
 62
250
  6
CONTINUOUS
 10
-85.1766942944
 20
-42.1095071899
 11
-83.6198340095
 21
-42.1502750113
  0
LINE
  5
3DF
100
AcDbEntity
  8
ASSI
100
AcDbLine
 62
7
  6
CONTINUOUS
 10
-85.4499227176
 20
-42.8968266365
 11
-85.41257596
 21
-42.9018433239
  0
LWPOLYLINE
  5
3E0
100
AcDbEntity
  8
0
100
AcDbPolyline
 62
7
  6
CONTINUOUS
 90
10
 70
0
 43
0.3500000006
 10
-86.90884552
 20
52.6441605835
 10
-86.0516985168
 20
53.5013030548
 10
-85.837414032
 20
54.3584455261
 10
-85.837414032
 20
55.2155879974
 10
-86.2659920654
 20
55.644161499
 10
-86.90884552
 20
55.644161499
 10
-87.3374144897
 20
55.2155879974
 10
-87.3374144897
 20
54.3584455261
 10
-86.90884552
 20
53.9298765564
 10
-85.9802763977
 20
53.9298765564
  0
LWPOLYLINE
  5
3E1
100
AcDbEntity
  8
ASSI
100
AcDbPolyline
 62
250
  6
CONTINUOUS
 90
16
 70
0
 10
-85.8075116979
 20
42.6363995114
 10
-85.8074267756
 20
42.6364632084
 10
-85.8071933507
 20
42.6363952638
 10
-85.8068432143
 20
42.6361179238
 10
-85.8063913074
 20
42.6356398665
 10
-85.8058350945
 20
42.6350081271
 10
-85.8051949902
 20
42.6342244639
 10
-85.8044928567
 20
42.6332857651
 10
-85.8037225361
 20
42.6322316287
 10
-85.8028911032
 20
42.6310794776
 10
-85.8020167319
 20
42.6298109022
 10
-85.8010913803
 20
42.6284093162
 10
-85.8001023898
 20
42.6268728349
 10
-85.7990418097
 20
42.6251973465
 10
-85.79790626
 20
42.6233626764
 10
-85.796694039
 20
42.6213660452
  0
LINE
  5
3E2
100
AcDbEntity
  8
0
100
AcDbLine
 62
7
  6
CONTINUOUS
 10
-89.4964913237
 20
-27.9801806519
 11
-89.5591895625
 21
-27.9801806519
  0
LINE
  5
3E3
100
AcDbEntity
  8
0
100
AcDbLine
 62
250
  6
CONTINUOUS
 10
-89.584092477
 20
-27.3036617891
 11
-89.6547582479
 21
-27.3036617891
  0
LINE
  5
3E4
100
AcDbEntity
  8
0
100
AcDbLine
 62
7
  6
CONTINUOUS
 10
-89.6501491617
 20
-26.8133262613
 11
-89.7207618821
 21
-26.8133262613
  0
LINE
  5
3E5
100
AcDbEntity
  8
0
100
AcDbLine
 62
7
  6
CONTINUOUS
 10
-89.6520896322
 20
-26.7985550034
 11
-89.7227007606
 21
-26.7985550034
  0
LINE
  5
3E6
100
AcDbEntity
  8
0
100
AcDbLine
 62
250
  6
CONTINUOUS
 10
-89.8086492149
 20
-25.5359686154
 11
-89.8791306487
 21
-25.5359686154
  0
LINE
  5
3E7
100
AcDbEntity
  8
SUPERFICI
100
AcDbLine
 62
7
  6
CONTINUOUS
 10
-89.8192168042
 20
-25.4511155862
 11
-89.889691214
 21
-25.4511155862
  0
LINE
  5
3E8
100
AcDbEntity
  8
RACCORDO
100
AcDbLine
 62
250
  6
CONTINUOUS
 10
-89.7796397646
 20
22.2699202269
 11
-89.7796962714
 21
22.269902651
  0
LWPOLYLINE
  5
3E9
100
AcDbEntity
  8
RACCORDO
100
AcDbPolyline
 62
250
  6
CONTINUOUS
 90
5
 70
0
 10
-90.1001648965
 20
-22.3097760357
 10
-90.0985243471
 20
-22.3094443147
 10
-90.0940034543
 20
-22.3088882465
 10
-90.086645999
 20
-22.3081132162
 10
-90.0765232314
 20
-22.3071267292
  0
LINE
  5
3EA
100
AcDbEntity
  8
RACCORDO
100
AcDbLine
 62
250
  6
CONTINUOUS
 10
-89.9269327063
 20
-23.0874354909
 11
-90.0296846891
 21
-23.1025444166
  0
LINE
  5
3EB
100
AcDbEntity
  8
RACCORDO
100
AcDbLine
 62
250
  6
CONTINUOUS
 10
-89.8941334439
 20
-23.08283232
 11
-89.9269327063
 21
-23.0874354909
  0
LINE
  5
3EC
100
AcDbEntity
  8
RACCORDO
100
AcDbLine
 62
250
  6
CONTINUOUS
 10
-89.8690813445
 20
-23.079449047
 11
-89.8941334439
 21
-23.08283232
  0
LINE
  5
3ED
100
AcDbEntity
  8
RACCORDO
100
AcDbLine
 62
250
  6
CONTINUOUS
 10
-89.8444722917
 20
-23.0762568248
 11
-89.8690813445
 21
-23.079449047
  0
LINE
  5
3EE
100
AcDbEntity
  8
RACCORDO
100
AcDbLine
 62
250
  6
CONTINUOUS
 10
-89.8207669755
 20
-23.0733096681
 11
-89.8444722917
 21
-23.0762568248
  0
LINE
  5
3EF
100
AcDbEntity
  8
RACCORDO
100
AcDbLine
 62
250
  6
CONTINUOUS
 10
-89.7985066901
 20
-23.0706821657
 11
-89.8207669755
 21
-23.0733096681
  0
LINE
  5
3F0
100
AcDbEntity
  8
RACCORDO
100
AcDbLine
 62
250
  6
CONTINUOUS
 10
-89.7873878202
 20
-23.0694529562
 11
-89.7985066901
 21
-23.0706821657
  0
LWPOLYLINE
  5
3F1
100
AcDbEntity
  8
RACCORDO
100
AcDbPolyline
 62
250
  6
CONTINUOUS
 90
4
 70
0
 10
-89.7606825589
 20
-23.066740963
 10
-89.7682344352
 20
-23.06745426
 10
-89.775116031
 20
-23.0681470699
 10
-89.7873878202
 20
-23.0694529562
  0
LINE
  5
3F2
100
AcDbEntity
  8
RACCORDO
100
AcDbLine
 62
250
  6
CONTINUOUS
 10
-90.0765232314
 20
-22.3071267292
 11
-90.0483997091
 21
-22.3045595533
  0
LINE
  5
3F3
100
AcDbEntity
  8
RACCORDO
100
AcDbLine
 62
250
  6
CONTINUOUS
 10
-89.8272408723
 20
-22.2862777321
 11
-89.7786358255
 21
-22.2820253415
  0
LINE
  5
3F4
100
AcDbEntity
  8
RACCORDO
100
AcDbLine
 62
250
  6
CONTINUOUS
 10
-90.0483997091
 20
-22.3045595533
 11
-89.96493912
 21
-22.2974323347
  0
LINE
  5
3F5
100
AcDbEntity
  8
RACCORDO
100
AcDbLine
 62
250
  6
CONTINUOUS
 10
-89.96493912
 20
-22.2974323347
 11
-89.8272408723
 21
-22.2862777321
  0
LINE
  5
3F6
100
AcDbEntity
  8
RACCORDO
100
AcDbLine
 62
250
  6
CONTINUOUS
 10
-89.7796397646
 20
-22.26992197
 11
-89.7796962717
 21
-22.2699043859
  0
LWPOLYLINE
  5
3F7
100
AcDbEntity
  8
ASSI
100
AcDbPolyline
 62
7
  6
CONTINUOUS
 90
13
 70
0
 10
-85.8075103604
 20
-42.6364011812
 10
-85.7896281257
 20
-42.6676947668
 10
-85.767926786
 20
-42.6998285222
 10
-85.7438550207
 20
-42.7301206612
 10
-85.7175728942
 20
-42.7584010514
 10
-85.6892541524
 20
-42.7845120667
 10
-85.6590928852
 20
-42.808304778
 10
-85.6272689782
 20
-42.8296653347
 10
-85.5939435419
 20
-42.8485041931
 10
-85.5592651943
 20
-42.8647421166
 10
-85.5234898349
 20
-42.8782638705
 10
-85.4869540701
 20
-42.8889691411
 10
-85.4499227176
 20
-42.8968266365
  0
LWPOLYLINE
  5
3F8
100
AcDbEntity
  8
ASSI
100
AcDbPolyline
 62
7
  6
CONTINUOUS
 90
15
 70
0
 10
-85.8075102403
 20
-42.6364009098
 10
-85.7924795716
 20
-42.6630408267
 10
-85.7713072321
 20
-42.6951625406
 10
-85.747727982
 20
-42.7255611354
 10
-85.721881458
 20
-42.7540566733
 10
-85.693920721
 20
-42.780480484
 10
-85.6640113667
 20
-42.8046761538
 10
-85.6323304668
 20
-42.8265005119
 10
-85.5990655142
 20
-42.8458244494
 10
-85.5644133292
 20
-42.8625336502
 10
-85.5285791728
 20
-42.8765291555
 10
-85.491775474
 20
-42.8877280684
 10
-85.4542202257
 20
-42.8960641715
 10
-85.4161356665
 20
-42.9014882478
 10
-85.3778190581
 20
-42.9039664126
  0
LINE
  5
3F9
100
AcDbEntity
  8
ASSI
100
AcDbLine
 62
7
  6
CONTINUOUS
 10
-86.2804757683
 20
41.6714838302
 11
-86.3295504832
 21
41.5635092606
  0
LINE
  5
3FA
100
AcDbEntity
  8
ASSI
100
AcDbLine
 62
7
  6
CONTINUOUS
 10
-86.2314908991
 20
41.7776953379
 11
-86.2804757683
 21
41.6714838302
  0
LINE
  5
3FB
100
AcDbEntity
  8
ASSI
100
AcDbLine
 62
7
  6
CONTINUOUS
 10
-86.1826216183
 20
41.8821309015
 11
-86.2314908991
 21
41.7776953379
  0
LINE
  5
3FC
100
AcDbEntity
  8
ASSI
100
AcDbLine
 62
7
  6
CONTINUOUS
 10
-86.1337919857
 20
41.9849922245
 11
-86.1826216183
 21
41.8821309015
  0
LINE
  5
3FD
100
AcDbEntity
  8
ASSI
100
AcDbLine
 62
7
  6
CONTINUOUS
 10
-86.0848166331
 20
42.0866964838
 11
-86.1337919857
 21
41.9849922245
  0
LINE
  5
3FE
100
AcDbEntity
  8
ASSI
100
AcDbLine
 62
7
  6
CONTINUOUS
 10
-86.0355812534
 20
42.1874941274
 11
-86.0848166331
 21
42.0866964838
  0
LINE
  5
3FF
100
AcDbEntity
  8
ASSI
100
AcDbLine
 62
7
  6
CONTINUOUS
 10
-85.985638313
 20
42.2882903673
 11
-86.0355812534
 21
42.1874941274
  0
LINE
  5
400
100
AcDbEntity
  8
ASSI
100
AcDbLine
 62
7
  6
CONTINUOUS
 10
-85.9358645688
 20
42.387324291
 11
-85.985638313
 21
42.2882903673
  0
LINE
  5
401
100
AcDbEntity
  8
ASSI
100
AcDbLine
 62
7
  6
CONTINUOUS
 10
-85.8896864859
 20
42.4779641716
 11
-85.9358645688
 21
42.387324291
  0
LINE
  5
402
100
AcDbEntity
  8
ASSI
100
AcDbLine
 62
7
  6
CONTINUOUS
 10
-85.849771782
 20
42.5553704736
 11
-85.8896864859
 21
42.4779641716
  0
LINE
  5
403
100
AcDbEntity
  8
ASSI
100
AcDbLine
 62
7
  6
CONTINUOUS
 10
-85.8075089834
 20
42.636404686
 11
-85.8497720697
 21
42.5553699187
  0
LINE
  5
404
100
AcDbEntity
  8
ASSI
100
AcDbLine
 62
7
  6
CONTINUOUS
 10
-85.8514893383
 20
-42.5520590279
 11
-85.8075088203
 21
-42.6364067396
  0
LINE
  5
405
100
AcDbEntity
  8
ASSI
100
AcDbLine
 62
7
  6
CONTINUOUS
 10
-85.8925521252
 20
-42.4723753412
 11
-85.8514893383
 21
-42.5520590279
  0
LINE
  5
406
100
AcDbEntity
  8
ASSI
100
AcDbLine
 62
7
  6
CONTINUOUS
 10
-85.9386912686
 20
-42.3817392261
 11
-85.8925521252
 21
-42.4723753412
  0
LINE
  5
407
100
AcDbEntity
  8
ASSI
100
AcDbLine
 62
7
  6
CONTINUOUS
 10
-85.9853841457
 20
-42.2888013975
 11
-85.9386912686
 21
-42.3817392261
  0
LINE
  5
408
100
AcDbEntity
  8
ASSI
100
AcDbLine
 62
7
  6
CONTINUOUS
 10
-86.0317715442
 20
-42.1952357767
 11
-85.9853841457
 21
-42.2888013975
  0
LINE
  5
409
100
AcDbEntity
  8
ASSI
100
AcDbLine
 62
7
  6
CONTINUOUS
 10
-86.0778472522
 20
-42.1010537691
 11
-86.0317715442
 21
-42.1952357767
  0
LINE
  5
40A
100
AcDbEntity
  8
ASSI
100
AcDbLine
 62
7
  6
CONTINUOUS
 10
-86.1227937569
 20
-42.0079598988
 11
-86.0778472522
 21
-42.1010537691
  0
LINE
  5
40B
100
AcDbEntity
  8
ASSI
100
AcDbLine
 62
7
  6
CONTINUOUS
 10
-86.1668383327
 20
-41.9155420085
 11
-86.1227937569
 21
-42.0079598988
  0
LINE
  5
40C
100
AcDbEntity
  8
ASSI
100
AcDbLine
 62
7
  6
CONTINUOUS
 10
-86.210455508
 20
-41.8228353859
 11
-86.1668383327
 21
-41.9155420085
  0
LINE
  5
40D
100
AcDbEntity
  8
ASSI
100
AcDbLine
 62
7
  6
CONTINUOUS
 10
-86.2538676684
 20
-41.7293705129
 11
-86.210455508
 21
-41.8228353859
  0
LINE
  5
40E
100
AcDbEntity
  8
ASSI
100
AcDbLine
 62
7
  6
CONTINUOUS
 10
-86.2972093415
 20
-41.6348463004
 11
-86.2538676684
 21
-41.7293705129
  0
LINE
  5
40F
100
AcDbEntity
  8
ASSI
100
AcDbLine
 62
7
  6
CONTINUOUS
 10
-86.3297153683
 20
-41.5631455375
 11
-86.2972093415
 21
-41.6348463004
  0
LINE
  5
410
100
AcDbEntity
  8
ASSI
100
AcDbLine
 62
7
  6
CONTINUOUS
 10
-86.9914767135
 20
39.9349415725
 11
-87.0412057385
 21
39.7980693999
  0
LINE
  5
411
100
AcDbEntity
  8
ASSI
100
AcDbLine
 62
7
  6
CONTINUOUS
 10
-86.9418854401
 20
40.06922292
 11
-86.9914767135
 21
39.9349415725
  0
LINE
  5
412
100
AcDbEntity
  8
ASSI
100
AcDbLine
 62
7
  6
CONTINUOUS
 10
-86.8924341205
 20
40.2009749346
 11
-86.9418854401
 21
40.06922292
  0
LINE
  5
413
100
AcDbEntity
  8
ASSI
100
AcDbLine
 62
7
  6
CONTINUOUS
 10
-86.8431242157
 20
40.3302596241
 11
-86.8924341205
 21
40.2009749346
  0
LINE
  5
414
100
AcDbEntity
  8
ASSI
100
AcDbLine
 62
7
  6
CONTINUOUS
 10
-86.7939545766
 20
40.4571441022
 11
-86.8431242157
 21
40.3302596241
  0
LINE
  5
415
100
AcDbEntity
  8
ASSI
100
AcDbLine
 62
7
  6
CONTINUOUS
 10
-86.7449093311
 20
40.5817305677
 11
-86.7939545766
 21
40.4571441022
  0
LINE
  5
416
100
AcDbEntity
  8
ASSI
100
AcDbLine
 62
7
  6
CONTINUOUS
 10
-86.6959551689
 20
40.704160159
 11
-86.7449093311
 21
40.5817305677
  0
LINE
  5
417
100
AcDbEntity
  8
ASSI
100
AcDbLine
 62
7
  6
CONTINUOUS
 10
-86.6470809419
 20
40.8245130913
 11
-86.6959551689
 21
40.704160159
  0
LINE
  5
418
100
AcDbEntity
  8
ASSI
100
AcDbLine
 62
7
  6
CONTINUOUS
 10
-86.598272824
 20
40.9428728882
 11
-86.6470809419
 21
40.8245130913
  0
LINE
  5
419
100
AcDbEntity
  8
ASSI
100
AcDbLine
 62
7
  6
CONTINUOUS
 10
-86.5495100882
 20
41.0593360146
 11
-86.598272824
 21
40.9428728882
  0
LINE
  5
41A
100
AcDbEntity
  8
ASSI
100
AcDbLine
 62
7
  6
CONTINUOUS
 10
-86.5007605156
 20
41.1740215091
 11
-86.5495100882
 21
41.0593360146
  0
LINE
  5
41B
100
AcDbEntity
  8
ASSI
100
AcDbLine
 62
7
  6
CONTINUOUS
 10
-86.4519820671
 20
41.2870653282
 11
-86.5007605156
 21
41.1740215091
  0
LINE
  5
41C
100
AcDbEntity
  8
ASSI
100
AcDbLine
 62
7
  6
CONTINUOUS
 10
-86.403114027
 20
41.3986390108
 11
-86.4519820671
 21
41.2870653282
  0
LINE
  5
41D
100
AcDbEntity
  8
ASSI
100
AcDbLine
 62
7
  6
CONTINUOUS
 10
-86.354094804
 20
41.5089071241
 11
-86.403114027
 21
41.3986390108
  0
LINE
  5
41E
100
AcDbEntity
  8
ASSI
100
AcDbLine
 62
7
  6
CONTINUOUS
 10
-86.3295504832
 20
41.5635092606
 11
-86.354094804
 21
41.5089071241
  0
LWPOLYLINE
  5
41F
100
AcDbEntity
  8
0
100
AcDbPolyline
 62
7
  6
CONTINUOUS
 90
5
 70
0
 10
-89.8896881034
 20
-25.4511155862
 10
-89.8896663387
 20
-25.4511594282
 10
-89.8895206468
 20
-25.4519540008
 10
-89.8892463622
 20
-25.453790074
 10
-89.8888508135
 20
-25.4567221434
  0
LINE
  5
420
100
AcDbEntity
  8
ASSI
100
AcDbLine
 62
7
  6
CONTINUOUS
 10
-86.3730789274
 20
-41.4663981985
 11
-86.3297153683
 21
-41.5631455375
  0
LINE
  5
421
100
AcDbEntity
  8
ASSI
100
AcDbLine
 62
7
  6
CONTINUOUS
 10
-86.4164703311
 20
-41.3683108219
 11
-86.3730789274
 21
-41.4663981985
  0
LINE
  5
422
100
AcDbEntity
  8
ASSI
100
AcDbLine
 62
7
  6
CONTINUOUS
 10
-86.4599227679
 20
-41.2687795176
 11
-86.4164703311
 21
-41.3683108219
  0
LINE
  5
423
100
AcDbEntity
  8
ASSI
100
AcDbLine
 62
7
  6
CONTINUOUS
 10
-86.5034767718
 20
-41.1676784213
 11
-86.4599227679
 21
-41.2687795176
  0
LINE
  5
424
100
AcDbEntity
  8
ASSI
100
AcDbLine
 62
7
  6
CONTINUOUS
 10
-86.5471413182
 20
-41.0649504394
 11
-86.5034767718
 21
-41.1676784213
  0
LINE
  5
425
100
AcDbEntity
  8
ASSI
100
AcDbLine
 62
7
  6
CONTINUOUS
 10
-86.5909182593
 20
-40.9605533936
 11
-86.5471413182
 21
-41.0649504394
  0
LINE
  5
426
100
AcDbEntity
  8
ASSI
100
AcDbLine
 62
7
  6
CONTINUOUS
 10
-86.6348035442
 20
-40.8544581443
 11
-86.5909182593
 21
-40.9605533936
  0
LINE
  5
427
100
AcDbEntity
  8
ASSI
100
AcDbLine
 62
7
  6
CONTINUOUS
 10
-86.6787876193
 20
-40.7466485675
 11
-86.6348035442
 21
-40.8544581443
  0
LINE
  5
428
100
AcDbEntity
  8
ASSI
100
AcDbLine
 62
7
  6
CONTINUOUS
 10
-86.7228572424
 20
-40.6371179788
 11
-86.6787876193
 21
-40.7466485675
  0
LINE
  5
429
100
AcDbEntity
  8
ASSI
100
AcDbLine
 62
7
  6
CONTINUOUS
 10
-86.766996352
 20
-40.5258676398
 11
-86.7228572424
 21
-40.6371179788
  0
LINE
  5
42A
100
AcDbEntity
  8
ASSI
100
AcDbLine
 62
7
  6
CONTINUOUS
 10
-86.8111936757
 20
-40.4128877709
 11
-86.766996352
 21
-40.5258676398
  0
LINE
  5
42B
100
AcDbEntity
  8
ASSI
100
AcDbLine
 62
7
  6
CONTINUOUS
 10
-86.8554552526
 20
-40.2981240458
 11
-86.8111936757
 21
-40.4128877709
  0
LINE
  5
42C
100
AcDbEntity
  8
ASSI
100
AcDbLine
 62
7
  6
CONTINUOUS
 10
-86.8997640637
 20
-40.181581358
 11
-86.8554552526
 21
-40.2981240458
  0
LINE
  5
42D
100
AcDbEntity
  8
ASSI
100
AcDbLine
 62
7
  6
CONTINUOUS
 10
-86.9440993169
 20
-40.0632764232
 11
-86.8997640637
 21
-40.181581358
  0
LINE
  5
42E
100
AcDbEntity
  8
ASSI
100
AcDbLine
 62
7
  6
CONTINUOUS
 10
-86.9884426667
 20
-39.9432217149
 11
-86.9440993169
 21
-40.0632764232
  0
LWPOLYLINE
  5
42F
100
AcDbEntity
  8
ASSI
100
AcDbPolyline
 62
7
  6
CONTINUOUS
 90
3
 70
0
 10
-87.0438717783
 20
-39.7906695479
 10
-87.0327863028
 20
-39.8214027838
 10
-86.9884426667
 20
-39.9432217149
  0
LINE
  5
430
100
AcDbEntity
  8
ASSI
100
AcDbLine
 62
7
  6
CONTINUOUS
 10
-87.8262112784
 20
37.3027137637
 11
-87.8781328359
 21
37.1128982653
  0
LINE
  5
431
100
AcDbEntity
  8
ASSI
100
AcDbLine
 62
7
  6
CONTINUOUS
 10
-87.7746317835
 20
37.4880103263
 11
-87.8262112784
 21
37.3027137637
  0
LINE
  5
432
100
AcDbEntity
  8
ASSI
100
AcDbLine
 62
7
  6
CONTINUOUS
 10
-87.7233244348
 20
37.6691323107
 11
-87.7746317835
 21
37.4880103263
  0
LINE
  5
433
100
AcDbEntity
  8
ASSI
100
AcDbLine
 62
7
  6
CONTINUOUS
 10
-87.6722179235
 20
37.8464155139
 11
-87.7233244348
 21
37.6691323107
  0
LINE
  5
434
100
AcDbEntity
  8
ASSI
100
AcDbLine
 62
7
  6
CONTINUOUS
 10
-87.6212348447
 20
38.0202022456
 11
-87.6722179235
 21
37.8464155139
  0
LINE
  5
435
100
AcDbEntity
  8
ASSI
100
AcDbLine
 62
7
  6
CONTINUOUS
 10
-87.5703273348
 20
38.1907210253
 11
-87.6212348447
 21
38.0202022456
  0
LINE
  5
436
100
AcDbEntity
  8
ASSI
100
AcDbLine
 62
7
  6
CONTINUOUS
 10
-87.5194931338
 20
38.3580427095
 11
-87.5703273348
 21
38.1907210253
  0
LINE
  5
437
100
AcDbEntity
  8
ASSI
100
AcDbLine
 62
7
  6
CONTINUOUS
 10
-87.4687351991
 20
38.5222227039
 11
-87.5194931338
 21
38.3580427095
  0
LINE
  5
438
100
AcDbEntity
  8
ASSI
100
AcDbLine
 62
7
  6
CONTINUOUS
 10
-87.4180584755
 20
38.6833120358
 11
-87.4687351991
 21
38.5222227039
  0
LINE
  5
439
100
AcDbEntity
  8
ASSI
100
AcDbLine
 62
7
  6
CONTINUOUS
 10
-87.3674688094
 20
38.8413607246
 11
-87.4180584755
 21
38.6833120358
  0
LINE
  5
43A
100
AcDbEntity
  8
ASSI
100
AcDbLine
 62
7
  6
CONTINUOUS
 10
-87.3169718899
 20
38.996420766
 11
-87.3674688094
 21
38.8413607246
  0
LINE
  5
43B
100
AcDbEntity
  8
ASSI
100
AcDbLine
 62
7
  6
CONTINUOUS
 10
-87.2665746962
 20
39.1485413272
 11
-87.3169718899
 21
38.996420766
  0
LINE
  5
43C
100
AcDbEntity
  8
ASSI
100
AcDbLine
 62
7
  6
CONTINUOUS
 10
-87.2162844619
 20
39.2977717542
 11
-87.2665746962
 21
39.1485413272
  0
LINE
  5
43D
100
AcDbEntity
  8
ASSI
100
AcDbLine
 62
7
  6
CONTINUOUS
 10
-87.1661075832
 20
39.4441644569
 11
-87.2162844619
 21
39.2977717542
  0
LINE
  5
43E
100
AcDbEntity
  8
ASSI
100
AcDbLine
 62
7
  6
CONTINUOUS
 10
-87.1160510782
 20
39.5877702664
 11
-87.1661075832
 21
39.4441644569
  0
LINE
  5
43F
100
AcDbEntity
  8
ASSI
100
AcDbLine
 62
7
  6
CONTINUOUS
 10
-87.0661214949
 20
39.728641397
 11
-87.1160510782
 21
39.5877702664
  0
LINE
  5
440
100
AcDbEntity
  8
ASSI
100
AcDbLine
 62
7
  6
CONTINUOUS
 10
-87.0412057385
 20
39.7980693999
 11
-87.0661214949
 21
39.728641397
  0
LWPOLYLINE
  5
441
100
AcDbEntity
  8
RACCORDO
100
AcDbPolyline
 62
250
  6
CONTINUOUS
 90
21
 70
0
 10
-89.7627294619
 20
-22.7715070878
 10
-89.7638128508
 20
-22.7692287322
 10
-89.7663865535
 20
-22.7621105155
 10
-89.769101161
 20
-22.7530174301
 10
-89.7719175677
 20
-22.7419546029
 10
-89.7748480573
 20
-22.728944348
 10
-89.7778942935
 20
-22.7140567208
 10
-89.7810023689
 20
-22.6973574319
 10
-89.7841740136
 20
-22.6789143435
 10
-89.7874139356
 20
-22.6588096442
 10
-89.7906698926
 20
-22.6371494397
 10
-89.7939362647
 20
-22.6140464467
 10
-89.7972166186
 20
-22.5895889498
 10
-89.8004707645
 20
-22.5638561543
 10
-89.8036885459
 20
-22.5370375654
 10
-89.8068721285
 20
-22.5091708365
 10
-89.8100060901
 20
-22.4800819068
 10
-89.813106147
 20
-22.4497400808
 10
-89.8161594912
 20
-22.4183764251
 10
-89.8191109475
 20
-22.3862020664
 10
-89.8219373616
 20
-22.3533811369
  0
LINE
  5
442
100
AcDbEntity
  8
ASSI
100
AcDbLine
 62
7
  6
CONTINUOUS
 10
-87.0882091713
 20
-39.6666137078
 11
-87.0438717783
 21
-39.7906695479
  0
LINE
  5
443
100
AcDbEntity
  8
ASSI
100
AcDbLine
 62
7
  6
CONTINUOUS
 10
-87.132535749
 20
-39.5407449393
 11
-87.0882091713
 21
-39.6666137078
  0
LINE
  5
444
100
AcDbEntity
  8
ASSI
100
AcDbLine
 62
7
  6
CONTINUOUS
 10
-87.1768455554
 20
-39.413045228
 11
-87.132535749
 21
-39.5407449393
  0
LINE
  5
445
100
AcDbEntity
  8
ASSI
100
AcDbLine
 62
7
  6
CONTINUOUS
 10
-87.2211323934
 20
-39.2834980018
 11
-87.1768455554
 21
-39.413045228
  0
LINE
  5
446
100
AcDbEntity
  8
ASSI
100
AcDbLine
 62
7
  6
CONTINUOUS
 10
-87.2653902545
 20
-39.1520870366
 11
-87.2211323934
 21
-39.2834980018
  0
LINE
  5
447
100
AcDbEntity
  8
ASSI
100
AcDbLine
 62
7
  6
CONTINUOUS
 10
-87.3096128705
 20
-39.0187979196
 11
-87.2653902545
 21
-39.1520870366
  0
LINE
  5
448
100
AcDbEntity
  8
ASSI
100
AcDbLine
 62
7
  6
CONTINUOUS
 10
-87.3537941398
 20
-38.8836169609
 11
-87.3096128705
 21
-39.0187979196
  0
LINE
  5
449
100
AcDbEntity
  8
ASSI
100
AcDbLine
 62
7
  6
CONTINUOUS
 10
-87.3979284978
 20
-38.7465301725
 11
-87.3537941398
 21
-38.8836169609
  0
LINE
  5
44A
100
AcDbEntity
  8
ASSI
100
AcDbLine
 62
7
  6
CONTINUOUS
 10
-87.4530221715
 20
-38.5724721567
 11
-87.3979284978
 21
-38.7465301725
  0
LINE
  5
44B
100
AcDbEntity
  8
ASSI
100
AcDbLine
 62
7
  6
CONTINUOUS
 10
-87.508024802
 20
-38.3953902404
 11
-87.4530221715
 21
-38.5724721567
  0
LINE
  5
44C
100
AcDbEntity
  8
ASSI
100
AcDbLine
 62
7
  6
CONTINUOUS
 10
-87.5629283333
 20
-38.2152588981
 11
-87.508024802
 21
-38.3953902404
  0
LINE
  5
44D
100
AcDbEntity
  8
ASSI
100
AcDbLine
 62
7
  6
CONTINUOUS
 10
-87.6177267345
 20
-38.0320506286
 11
-87.5629283333
 21
-38.2152588981
  0
LINE
  5
44E
100
AcDbEntity
  8
ASSI
100
AcDbLine
 62
7
  6
CONTINUOUS
 10
-87.6724160487
 20
-37.8457359566
 11
-87.6177267345
 21
-38.0320506286
  0
LINE
  5
44F
100
AcDbEntity
  8
ASSI
100
AcDbLine
 62
7
  6
CONTINUOUS
 10
-87.7269942924
 20
-37.6562839939
 11
-87.6724160487
 21
-37.8457359566
  0
LINE
  5
450
100
AcDbEntity
  8
ASSI
100
AcDbLine
 62
7
  6
CONTINUOUS
 10
-87.7814623357
 20
-37.4636596082
 11
-87.7269942924
 21
-37.6562839939
  0
LINE
  5
451
100
AcDbEntity
  8
ASSI
100
AcDbLine
 62
7
  6
CONTINUOUS
 10
-87.835823906
 20
-37.2678234953
 11
-87.7814623357
 21
-37.4636596082
  0
LINE
  5
452
100
AcDbEntity
  8
ASSI
100
AcDbLine
 62
7
  6
CONTINUOUS
 10
-87.8792406702
 20
-37.1088137788
 11
-87.835823906
 21
-37.2678234953
  0
LINE
  5
453
100
AcDbEntity
  8
ASSI
100
AcDbLine
 62
7
  6
CONTINUOUS
 10
-88.7579072978
 20
33.2398318466
 11
-88.8101289298
 21
32.9527467909
  0
LINE
  5
454
100
AcDbEntity
  8
ASSI
100
AcDbLine
 62
7
  6
CONTINUOUS
 10
-88.7043563297
 20
33.5248640875
 11
-88.7579072978
 21
33.2398318466
  0
LINE
  5
455
100
AcDbEntity
  8
ASSI
100
AcDbLine
 62
7
  6
CONTINUOUS
 10
-88.6494741663
 20
33.8079442023
 11
-88.7043563297
 21
33.5248640875
  0
LINE
  5
456
100
AcDbEntity
  8
ASSI
100
AcDbLine
 62
7
  6
CONTINUOUS
 10
-88.5935453511
 20
34.0877556395
 11
-88.6494741663
 21
33.8079442023
  0
LINE
  5
457
100
AcDbEntity
  8
ASSI
100
AcDbLine
 62
7
  6
CONTINUOUS
 10
-88.5368899003
 20
34.3629701506
 11
-88.5935453511
 21
34.0877556395
  0
LINE
  5
458
100
AcDbEntity
  8
ASSI
100
AcDbLine
 62
7
  6
CONTINUOUS
 10
-88.4798306028
 20
34.6323982582
 11
-88.5368899003
 21
34.3629701506
  0
LINE
  5
459
100
AcDbEntity
  8
ASSI
100
AcDbLine
 62
7
  6
CONTINUOUS
 10
-88.4227024642
 20
34.8949231251
 11
-88.4798306028
 21
34.6323982582
  0
LINE
  5
45A
100
AcDbEntity
  8
ASSI
100
AcDbLine
 62
7
  6
CONTINUOUS
 10
-88.3658330656
 20
35.1495723058
 11
-88.4227024642
 21
34.8949231251
  0
LINE
  5
45B
100
AcDbEntity
  8
ASSI
100
AcDbLine
 62
7
  6
CONTINUOUS
 10
-88.3095354552
 20
35.395524378
 11
-88.3658330656
 21
35.1495723058
  0
LINE
  5
45C
100
AcDbEntity
  8
ASSI
100
AcDbLine
 62
7
  6
CONTINUOUS
 10
-88.2539199102
 20
35.6328792579
 11
-88.3095354552
 21
35.395524378
  0
LINE
  5
45D
100
AcDbEntity
  8
ASSI
100
AcDbLine
 62
7
  6
CONTINUOUS
 10
-88.1989082953
 20
35.8624940082
 11
-88.2539199102
 21
35.6328792579
  0
LINE
  5
45E
100
AcDbEntity
  8
ASSI
100
AcDbLine
 62
7
  6
CONTINUOUS
 10
-88.1443894093
 20
36.0852769168
 11
-88.1989082953
 21
35.8624940082
  0
LINE
  5
45F
100
AcDbEntity
  8
ASSI
100
AcDbLine
 62
7
  6
CONTINUOUS
 10
-88.0902682849
 20
36.301990904
 11
-88.1443894093
 21
36.0852769168
  0
LINE
  5
460
100
AcDbEntity
  8
ASSI
100
AcDbLine
 62
7
  6
CONTINUOUS
 10
-88.0365519599
 20
36.5129373012
 11
-88.0902665354
 21
36.3019978404
  0
LINE
  5
461
100
AcDbEntity
  8
ASSI
100
AcDbLine
 62
7
  6
CONTINUOUS
 10
-87.9832783392
 20
36.718272228
 11
-88.0365519599
 21
36.5129373012
  0
LINE
  5
462
100
AcDbEntity
  8
ASSI
100
AcDbLine
 62
7
  6
CONTINUOUS
 10
-87.917342928
 20
36.9673478468
 11
-87.9832783392
 21
36.718272228
  0
LINE
  5
463
100
AcDbEntity
  8
ASSI
100
AcDbLine
 62
7
  6
CONTINUOUS
 10
-87.8781328359
 20
37.1128982653
 11
-87.917342928
 21
36.9673478468
  0
LWPOLYLINE
  5
464
100
AcDbEntity
  8
RACCORDO
100
AcDbPolyline
 62
250
  6
CONTINUOUS
 90
5
 70
0
 10
-90.0296846891
 20
-23.1025444166
 10
-90.0301944172
 20
-23.1007546531
 10
-90.0309741416
 20
-23.095709903
 10
-90.0320241194
 20
-23.0874101713
 10
-90.0333500315
 20
-23.0757979949
  0
LINE
  5
465
100
AcDbEntity
  8
ASSI
100
AcDbLine
 62
7
  6
CONTINUOUS
 10
-87.9334255134
 20
-36.9070983901
 11
-87.8792406702
 21
-37.1088137788
  0
LINE
  5
466
100
AcDbEntity
  8
ASSI
100
AcDbLine
 62
7
  6
CONTINUOUS
 10
-87.9874998356
 20
-36.7021390507
 11
-87.9334255134
 21
-36.9070983901
  0
LINE
  5
467
100
AcDbEntity
  8
ASSI
100
AcDbLine
 62
7
  6
CONTINUOUS
 10
-88.041419781
 20
-36.4939874649
 11
-87.9874998356
 21
-36.7021390507
  0
LINE
  5
468
100
AcDbEntity
  8
ASSI
100
AcDbLine
 62
7
  6
CONTINUOUS
 10
-88.0951290248
 20
-36.282703785
 11
-88.041419781
 21
-36.4939874649
  0
LINE
  5
469
100
AcDbEntity
  8
ASSI
100
AcDbLine
 62
7
  6
CONTINUOUS
 10
-88.1485709874
 20
-36.0683535208
 11
-88.0951290248
 21
-36.282703785
  0
LINE
  5
46A
100
AcDbEntity
  8
ASSI
100
AcDbLine
 62
7
  6
CONTINUOUS
 10
-88.2016875959
 20
-35.851013564
 11
-88.1485709874
 21
-36.0683535208
  0
LINE
  5
46B
100
AcDbEntity
  8
ASSI
100
AcDbLine
 62
7
  6
CONTINUOUS
 10
-88.2544195331
 20
-35.6307725524
 11
-88.2016875959
 21
-35.851013564
  0
LINE
  5
46C
100
AcDbEntity
  8
ASSI
100
AcDbLine
 62
7
  6
CONTINUOUS
 10
-88.3067068399
 20
-35.4077297793
 11
-88.2544195331
 21
-35.6307725524
  0
LINE
  5
46D
100
AcDbEntity
  8
ASSI
100
AcDbLine
 62
7
  6
CONTINUOUS
 10
-88.3584881434
 20
-35.1820000432
 11
-88.3067069383
 21
-35.4077293551
  0
LINE
  5
46E
100
AcDbEntity
  8
ASSI
100
AcDbLine
 62
7
  6
CONTINUOUS
 10
-88.4097004398
 20
-34.9537166787
 11
-88.3584882799
 21
-35.1819994415
  0
LINE
  5
46F
100
AcDbEntity
  8
ASSI
100
AcDbLine
 62
7
  6
CONTINUOUS
 10
-88.4602801262
 20
-34.7230292828
 11
-88.409700613
 21
-34.9537158978
  0
LINE
  5
470
100
AcDbEntity
  8
ASSI
100
AcDbLine
 62
7
  6
CONTINUOUS
 10
-88.5101609279
 20
-34.4901158081
 11
-88.4602803346
 21
-34.7230283213
  0
LINE
  5
471
100
AcDbEntity
  8
ASSI
100
AcDbLine
 62
7
  6
CONTINUOUS
 10
-88.5592734464
 20
-34.2551886287
 11
-88.5101609279
 21
-34.4901158081
  0
LINE
  5
472
100
AcDbEntity
  8
ASSI
100
AcDbLine
 62
7
  6
CONTINUOUS
 10
-88.6075452401
 20
-34.0184989121
 11
-88.5592734464
 21
-34.2551886287
  0
LINE
  5
473
100
AcDbEntity
  8
ASSI
100
AcDbLine
 62
7
  6
CONTINUOUS
 10
-88.654895902
 20
-33.7803671795
 11
-88.6075452401
 21
-34.0184989121
  0
LINE
  5
474
100
AcDbEntity
  8
ASSI
100
AcDbLine
 62
7
  6
CONTINUOUS
 10
-88.7012370223
 20
-33.5411931952
 11
-88.654895902
 21
-33.7803671795
  0
LINE
  5
475
100
AcDbEntity
  8
ASSI
100
AcDbLine
 62
7
  6
CONTINUOUS
 10
-88.7464897877
 20
-33.3013726586
 11
-88.7012370223
 21
-33.5411931952
  0
LINE
  5
476
100
AcDbEntity
  8
ASSI
100
AcDbLine
 62
7
  6
CONTINUOUS
 10
-88.7906529302
 20
-33.0609208793
 11
-88.7464897877
 21
-33.3013726586
  0
LINE
  5
477
100
AcDbEntity
  8
ASSI
100
AcDbLine
 62
7
  6
CONTINUOUS
 10
-88.8080251947
 20
-32.9644980379
 11
-88.7906529302
 21
-33.0609208793
  0
LINE
  5
478
100
AcDbEntity
  8
0
100
AcDbLine
 62
7
  6
CONTINUOUS
 10
-90.0028549551
 20
-23.7585504882
 11
-89.8208348797
 21
-25.4513174893
  0
LINE
  5
479
100
AcDbEntity
  8
RACCORDO
100
AcDbLine
 62
250
  6
CONTINUOUS
 10
-90.0333500315
 20
-23.0757979949
 11
-90.0367930136
 21
-23.0429811472
  0
LINE
  5
47A
100
AcDbEntity
  8
RACCORDO
100
AcDbLine
 62
250
  6
CONTINUOUS
 10
-90.0367930136
 20
-23.0429811472
 11
-90.0438162989
 21
-22.9708091832
  0
LINE
  5
47B
100
AcDbEntity
  8
RACCORDO
100
AcDbLine
 62
250
  6
CONTINUOUS
 10
-90.0438162989
 20
-22.9708091832
 11
-90.0561230665
 21
-22.8364919109
  0
LINE
  5
47C
100
AcDbEntity
  8
RACCORDO
100
AcDbLine
 62
250
  6
CONTINUOUS
 10
-90.0561230665
 20
-22.8364919109
 11
-90.0748164179
 21
-22.6209168829
  0
LINE
  5
47D
100
AcDbEntity
  8
RACCORDO
100
AcDbLine
 62
250
  6
CONTINUOUS
 10
-90.0748164179
 20
-22.6209168829
 11
-90.0958515353
 21
-22.364282765
  0
LWPOLYLINE
  5
47E
100
AcDbEntity
  8
RACCORDO
100
AcDbPolyline
 62
250
  6
CONTINUOUS
 90
12
 70
0
 10
-90.0958515353
 20
-22.364282765
 10
-90.147117601
 20
-21.689904601
 10
-90.1901281535
 20
-21.0770493747
 10
-90.229450742
 20
-20.4712088843
 10
-90.2651984643
 20
-19.87475436
 10
-90.2977684531
 20
-19.2853118776
 10
-90.3277343295
 20
-18.6957624458
 10
-90.3553491639
 20
-18.1033433808
 10
-90.3806016239
 20
-17.5108157276
 10
-90.4035872969
 20
-16.9193464503
 10
-90.4244320924
 20
-16.3296698184
 10
-90.443314515
 20
-15.7410515625
  0
LINE
  5
47F
100
AcDbEntity
  8
RACCORDO
100
AcDbLine
 62
250
  6
CONTINUOUS
 10
-90.1561555507
 20
21.5649748813
 11
-90.0960108919
 21
22.3622837144
  0
LINE
  5
480
100
AcDbEntity
  8
RACCORDO
100
AcDbLine
 62
250
  6
CONTINUOUS
 10
-90.0960108919
 20
22.3622837144
 11
-90.0755695423
 21
22.6119816742
  0
LWPOLYLINE
  5
481
100
AcDbEntity
  8
RACCORDO
100
AcDbPolyline
 62
250
  6
CONTINUOUS
 90
21
 70
0
 10
-89.8221389293
 20
22.3510297983
 10
-89.8194089107
 20
22.3828480489
 10
-89.8165667476
 20
22.4140726714
 10
-89.8136211294
 20
22.4446261592
 10
-89.8105883394
 20
22.4745216397
 10
-89.8074690319
 20
22.5036807441
 10
-89.8042770048
 20
22.5319296379
 10
-89.8010494277
 20
22.5591359091
 10
-89.7977853085
 20
22.5851883771
 10
-89.7944926547
 20
22.6099724861
 10
-89.791219398
 20
22.6333632027
 10
-89.7879649154
 20
22.6552505361
 10
-89.7847285011
 20
22.6755626423
 10
-89.7815563697
 20
22.6942405371
 10
-89.7784548966
 20
22.7111607546
 10
-89.775410666
 20
22.7263033603
 10
-89.7724461189
 20
22.7397207256
 10
-89.7695506124
 20
22.7513444858
 10
-89.7667375049
 20
22.761009351
 10
-89.7640677484
 20
22.7685991216
 10
-89.7627299066
 20
22.7714961454
  0
LINE
  5
482
100
AcDbEntity
  8
RACCORDO
100
AcDbLine
 62
250
  6
CONTINUOUS
 10
-90.0755695423
 20
22.6119816742
 11
-90.0567092921
 21
22.8299189445
  0
LINE
  5
483
100
AcDbEntity
  8
RACCORDO
100
AcDbLine
 62
250
  6
CONTINUOUS
 10
-90.0567092921
 20
22.8299189445
 11
-90.0442912787
 21
22.9657753545
  0
LINE
  5
484
100
AcDbEntity
  8
RACCORDO
100
AcDbLine
 62
250
  6
CONTINUOUS
 10
-90.0442912787
 20
22.9657753545
 11
-90.0371585082
 21
23.0393586996
  0
LWPOLYLINE
  5
485
100
AcDbEntity
  8
RACCORDO
100
AcDbPolyline
 62
250
  6
CONTINUOUS
 90
6
 70
0
 10
-90.0371585082
 20
23.0393586996
 10
-90.0335493838
 20
23.0739741311
 10
-90.032146339
 20
23.08637781
 10
-90.0310421234
 20
23.0951943561
 10
-90.0302216646
 20
23.100582646
 10
-90.0296846891
 20
23.1025426741
  0
LINE
  5
486
100
AcDbEntity
  8
ASSI
100
AcDbLine
 62
7
  6
CONTINUOUS
 10
-89.3358864399
 20
29.3687949982
 11
-89.5431079386
 21
27.5720772291
  0
LINE
  5
487
100
AcDbEntity
  8
ASSI
100
AcDbLine
 62
7
  6
CONTINUOUS
 10
-89.5431079386
 20
27.5720772291
 11
-89.5538687294
 21
27.4811923374
  0
LINE
  5
488
100
AcDbEntity
  8
ASSI
100
AcDbLine
 62
7
  6
CONTINUOUS
 10
-89.283060361
 20
29.7967424462
 11
-89.3358864399
 21
29.3687949982
  0
LINE
  5
489
100
AcDbEntity
  8
ASSI
100
AcDbLine
 62
7
  6
CONTINUOUS
 10
-89.2307384008
 20
30.204201835
 11
-89.283060361
 21
29.7967424462
  0
LINE
  5
48A
100
AcDbEntity
  8
ASSI
100
AcDbLine
 62
7
  6
CONTINUOUS
 10
-89.7389293862
 20
26.1338770696
 11
-89.5350156302
 21
27.6417692797
  0
LINE
  5
48B
100
AcDbEntity
  8
ASSI
100
AcDbLine
 62
7
  6
CONTINUOUS
 10
-89.1809259886
 20
30.5772546866
 11
-89.2307384008
 21
30.204201835
  0
LINE
  5
48C
100
AcDbEntity
  8
ASSI
100
AcDbLine
 62
7
  6
CONTINUOUS
 10
-89.1357732097
 20
30.9033951327
 11
-89.1809259886
 21
30.5772546866
  0
LINE
  5
48D
100
AcDbEntity
  8
ASSI
100
AcDbLine
 62
7
  6
CONTINUOUS
 10
-89.087239992
 20
31.2416200685
 11
-89.1357732097
 21
30.9033951327
  0
LINE
  5
48E
100
AcDbEntity
  8
ASSI
100
AcDbLine
 62
7
  6
CONTINUOUS
 10
-89.0460397419
 20
31.5189958178
 11
-89.087239992
 21
31.2416200685
  0
LINE
  5
48F
100
AcDbEntity
  8
ASSI
100
AcDbLine
 62
7
  6
CONTINUOUS
 10
-89.0027482085
 20
31.8011620363
 11
-89.0460397419
 21
31.5189958178
  0
LINE
  5
490
100
AcDbEntity
  8
ASSI
100
AcDbLine
 62
7
  6
CONTINUOUS
 10
-88.9574060313
 20
32.086917459
 11
-89.0027482085
 21
31.8011620363
  0
LINE
  5
491
100
AcDbEntity
  8
ASSI
100
AcDbLine
 62
7
  6
CONTINUOUS
 10
-88.9100875222
 20
32.3749855801
 11
-88.9574060313
 21
32.086917459
  0
LINE
  5
492
100
AcDbEntity
  8
ASSI
100
AcDbLine
 62
7
  6
CONTINUOUS
 10
-88.8609281153
 20
32.6640469059
 11
-88.9100875222
 21
32.3749855801
  0
LINE
  5
493
100
AcDbEntity
  8
ASSI
100
AcDbLine
 62
7
  6
CONTINUOUS
 10
-88.8101289298
 20
32.9527467909
 11
-88.8609281153
 21
32.6640469059
  0
LINE
  5
494
100
AcDbEntity
  8
ASSI
100
AcDbLine
 62
7
  6
CONTINUOUS
 10
-88.8506655683
 20
-32.7231630267
 11
-88.8080251947
 21
-32.9644980379
  0
LINE
  5
495
100
AcDbEntity
  8
ASSI
100
AcDbLine
 62
7
  6
CONTINUOUS
 10
-88.8920882171
 20
-32.4819848371
 11
-88.8506655683
 21
-32.7231630267
  0
LINE
  5
496
100
AcDbEntity
  8
ASSI
100
AcDbLine
 62
7
  6
CONTINUOUS
 10
-88.9321848143
 20
-32.2417140656
 11
-88.8920882171
 21
-32.4819848371
  0
LINE
  5
497
100
AcDbEntity
  8
ASSI
100
AcDbLine
 62
7
  6
CONTINUOUS
 10
-88.9708636168
 20
-32.0031229572
 11
-88.9321848143
 21
-32.2417140656
  0
LINE
  5
498
100
AcDbEntity
  8
ASSI
100
AcDbLine
 62
7
  6
CONTINUOUS
 10
-89.0153438026
 20
-31.7200275813
 11
-88.9708636168
 21
-32.0031229572
  0
LINE
  5
499
100
AcDbEntity
  8
ASSI
100
AcDbLine
 62
7
  6
CONTINUOUS
 10
-89.0576754915
 20
-31.441549622
 11
-89.0153438026
 21
-31.7200275813
  0
LINE
  5
49A
100
AcDbEntity
  8
ASSI
100
AcDbLine
 62
7
  6
CONTINUOUS
 10
-89.0978377559
 20
-31.1688401336
 11
-89.0576754915
 21
-31.441549622
  0
LINE
  5
49B
100
AcDbEntity
  8
0
100
AcDbLine
 62
7
  6
CONTINUOUS
 10
-89.6118570637
 20
-27.6121721386
 11
-89.5591895625
 21
-27.9801806519
  0
LINE
  5
49C
100
AcDbEntity
  8
ASSI
100
AcDbLine
 62
7
  6
CONTINUOUS
 10
-89.1419599823
 20
-30.8593694334
 11
-89.0978377559
 21
-31.1688401336
  0
LINE
  5
49D
100
AcDbEntity
  8
0
100
AcDbLine
 62
7
  6
CONTINUOUS
 10
-89.5266515984
 20
-27.7145186695
 11
-89.5733535693
 21
-27.381589233
  0
LINE
  5
49E
100
AcDbEntity
  8
0
100
AcDbLine
 62
7
  6
CONTINUOUS
 10
-89.7207618821
 20
-26.8133262613
 11
-89.7191785132
 21
-26.8247756962
  0
LWPOLYLINE
  5
49F
100
AcDbEntity
  8
0
100
AcDbPolyline
 62
7
  6
CONTINUOUS
 90
5
 70
0
 10
-89.8183785218
 20
-25.456665864
 10
-89.8187743899
 20
-25.453772244
 10
-89.8190481659
 20
-25.4519228949
 10
-89.8191928258
 20
-25.4511785167
 10
-89.8192136053
 20
-25.4511431567
  0
LINE
  5
4A0
100
AcDbEntity
  8
ASSI
100
AcDbLine
 62
7
  6
CONTINUOUS
 10
-89.1888426135
 20
-30.5189126939
 11
-89.1419599823
 21
-30.8593694334
  0
LINE
  5
4A1
100
AcDbEntity
  8
0
100
AcDbLine
 62
7
  6
CONTINUOUS
 10
-89.5733535693
 20
-27.381589233
 11
-89.6332672294
 21
-26.94021129
  0
LINE
  5
4A2
100
AcDbEntity
  8
0
100
AcDbLine
 62
7
  6
CONTINUOUS
 10
-89.7227007606
 20
-26.7985550034
 11
-89.7207618821
 21
-26.8133262613
  0
LINE
  5
4A3
100
AcDbEntity
  8
ASSI
100
AcDbLine
 62
7
  6
CONTINUOUS
 10
-89.236923278
 20
-30.1568829783
 11
-89.1888426135
 21
-30.5189126939
  0
LWPOLYLINE
  5
4A4
100
AcDbEntity
  8
0
100
AcDbPolyline
 62
7
  6
CONTINUOUS
 90
3
 70
0
 10
-89.7191785132
 20
-26.8247756962
 10
-89.7154735059
 20
-26.8531301679
 10
-89.6118570637
 20
-27.6121721386
  0
LINE
  5
4A5
100
AcDbEntity
  8
0
100
AcDbLine
 62
7
  6
CONTINUOUS
 10
-89.7269551734
 20
-26.765693898
 11
-89.7250258538
 21
-26.7804354197
  0
LINE
  5
4A6
100
AcDbEntity
  8
0
100
AcDbLine
 62
7
  6
CONTINUOUS
 10
-89.8171569027
 20
-25.466133436
 11
-89.8183785218
 21
-25.456665864
  0
LWPOLYLINE
  5
4A7
100
AcDbEntity
  8
0
100
AcDbPolyline
 62
7
  6
CONTINUOUS
 90
5
 70
0
 10
-89.7250258538
 20
-26.7804354197
 10
-89.7242265828
 20
-26.7867190956
 10
-89.7235843345
 20
-26.7920479522
 10
-89.7230757271
 20
-26.7960872757
 10
-89.7227007606
 20
-26.7985550034
  0
LINE
  5
4A8
100
AcDbEntity
  8
0
100
AcDbLine
 62
7
  6
CONTINUOUS
 10
-89.8888508135
 20
-25.4567221434
 11
-89.8867739672
 21
-25.4729263759
  0
LINE
  5
4A9
100
AcDbEntity
  8
ASSI
100
AcDbLine
 62
7
  6
CONTINUOUS
 10
-89.2847520872
 20
-29.7832976129
 11
-89.236923278
 21
-30.1568829783
  0
LINE
  5
4AA
100
AcDbEntity
  8
0
100
AcDbLine
 62
7
  6
CONTINUOUS
 10
-89.6332672294
 20
-26.94021129
 11
-89.7138270582
 21
-26.3153062012
  0
LINE
  5
4AB
100
AcDbEntity
  8
0
100
AcDbLine
 62
7
  6
CONTINUOUS
 10
-89.7921830031
 20
-26.2529164513
 11
-89.7269551734
 21
-26.765693898
  0
LINE
  5
4AC
100
AcDbEntity
  8
0
100
AcDbLine
 62
7
  6
CONTINUOUS
 10
-89.8124553547
 20
-25.5044031723
 11
-89.8171569027
 21
-25.466133436
  0
LINE
  5
4AD
100
AcDbEntity
  8
ASSI
100
AcDbLine
 62
7
  6
CONTINUOUS
 10
-89.3352018343
 20
-29.3744486124
 11
-89.2847520872
 21
-29.7832976129
  0
LWPOLYLINE
  5
4AE
100
AcDbEntity
  8
0
100
AcDbPolyline
 62
7
  6
CONTINUOUS
 90
3
 70
0
 10
-89.8867739672
 20
-25.4729263759
 10
-89.8811546422
 20
-25.5187837779
 10
-89.7921830031
 20
-26.2529164513
  0
LINE
  5
4AF
100
AcDbEntity
  8
0
100
AcDbLine
 62
7
  6
CONTINUOUS
 10
-89.7138270582
 20
-26.3153062012
 11
-89.7722626915
 21
-25.8399181232
  0
LINE
  5
4B0
100
AcDbEntity
  8
ASSI
100
AcDbLine
 62
7
  6
CONTINUOUS
 10
-89.5543518767
 20
-27.4772108327
 11
-89.5484080596
 21
-27.5269643866
  0
LINE
  5
4B1
100
AcDbEntity
  8
0
100
AcDbLine
 62
7
  6
CONTINUOUS
 10
-89.7722626915
 20
-25.8399181232
 11
-89.8124553547
 21
-25.5044031723
  0
LINE
  5
4B2
100
AcDbEntity
  8
ASSI
100
AcDbLine
 62
7
  6
CONTINUOUS
 10
-89.3926000951
 20
-28.8913007427
 11
-89.3352018343
 21
-29.3744486124
  0
LINE
  5
4B3
100
AcDbEntity
  8
ASSI
100
AcDbLine
 62
7
  6
CONTINUOUS
 10
-89.5484080976
 20
-27.5269640651
 11
-89.5157068655
 21
-27.8104771954
  0
LINE
  5
4B4
100
AcDbEntity
  8
ASSI
100
AcDbLine
 62
7
  6
CONTINUOUS
 10
-89.5157068655
 20
-27.8104771954
 11
-89.3926000951
 21
-28.8913007427
  0
LINE
  5
4B5
100
AcDbEntity
  8
RACCORDO
100
AcDbLine
 62
250
  6
CONTINUOUS
 10
-89.8219373616
 20
-22.3533811369
 11
-89.8246499171
 21
-22.3200239945
  0
LWPOLYLINE
  5
4B6
100
AcDbEntity
  8
RACCORDO
100
AcDbPolyline
 62
250
  6
CONTINUOUS
 90
11
 70
0
 10
-89.8246499171
 20
-22.3200239945
 10
-89.8736560454
 20
-21.6681065287
 10
-89.9166392594
 20
-21.0568644058
 10
-89.9561905141
 20
-20.4525513636
 10
-89.991993718
 20
-19.8575354436
 10
-90.0243649627
 20
-19.2694486043
 10
-90.0542525235
 20
-18.6811867206
 10
-90.0818472802
 20
-18.0899945164
 10
-90.1069583531
 20
-17.4986272679
 10
-90.129961378
 20
-16.9082466784
 10
-90.1508276923
 20
-16.3195846281
  0
LINE
  5
4B7
100
AcDbEntity
  8
RACCORDO
100
AcDbLine
 62
250
  6
CONTINUOUS
 10
-89.8077944872
 20
-21.5144765266
 11
-89.7796397646
 21
-22.2699219694
  0
LINE
  5
4B8
100
AcDbEntity
  8
RACCORDO
100
AcDbLine
 62
7
  6
CONTINUOUS
 10
-89.7796962717
 20
-22.2699043859
 11
-89.7712341751
 21
-22.4991041256
  0
LINE
  5
4B9
100
AcDbEntity
  8
RACCORDO
100
AcDbLine
 62
250
  6
CONTINUOUS
 10
-89.7719922137
 20
-22.4756980444
 11
-89.7712341751
 21
-22.4991041256
  0
LINE
  5
4BA
100
AcDbEntity
  8
RACCORDO
100
AcDbLine
 62
250
  6
CONTINUOUS
 10
-89.7706681585
 20
-22.51552858
 11
-89.7702810048
 21
-22.5250931581
  0
LINE
  5
4BB
100
AcDbEntity
  8
RACCORDO
100
AcDbLine
 62
250
  6
CONTINUOUS
 10
-89.8327008332
 20
-20.7856250174
 11
-89.8077944872
 21
-21.5144765266
  0
LWPOLYLINE
  5
4BC
100
AcDbEntity
  8
RACCORDO
100
AcDbPolyline
 62
250
  6
CONTINUOUS
 90
11
 70
0
 10
-90.0296846891
 20
-23.1025444166
 10
-90.0307097989
 20
-23.0712046895
 10
-90.0284581909
 20
-23.0399292535
 10
-90.0229544915
 20
-23.0090597817
 10
-90.0142588561
 20
-22.9789335102
 10
-90.0024663078
 20
-22.9498795446
 10
-89.9877056958
 20
-22.9222152661
 10
-89.9701382958
 20
-22.8962428819
 10
-89.949956041
 20
-22.8722461083
 10
-89.9273794153
 20
-22.850487066
 10
-89.908307437
 20
-22.8352532246
  0
LINE
  5
4BD
100
AcDbEntity
  8
RACCORDO
100
AcDbLine
 62
7
  6
CONTINUOUS
 10
-89.7712341751
 20
-22.4991041256
 11
-89.7652541121
 21
-22.6831582992
  0
LINE
  5
4BE
100
AcDbEntity
  8
RACCORDO
100
AcDbLine
 62
250
  6
CONTINUOUS
 10
-89.7657073521
 20
-22.6659434371
 11
-89.7652541121
 21
-22.6831582992
  0
LINE
  5
4BF
100
AcDbEntity
  8
RACCORDO
100
AcDbLine
 62
250
  6
CONTINUOUS
 10
-89.7648397755
 20
-22.697069901
 11
-89.7643893624
 21
-22.7098310042
  0
LINE
  5
4C0
100
AcDbEntity
  8
RACCORDO
100
AcDbLine
 62
250
  6
CONTINUOUS
 10
-90.1508276923
 20
-16.3195846281
 11
-90.1866978005
 21
-15.1441865674
  0
LINE
  5
4C1
100
AcDbEntity
  8
RACCORDO
100
AcDbLine
 62
250
  6
CONTINUOUS
 10
-89.8743323228
 20
-19.4113011944
 11
-89.8327008332
 21
-20.7856250174
  0
LINE
  5
4C2
100
AcDbEntity
  8
RACCORDO
100
AcDbLine
 62
250
  6
CONTINUOUS
 10
-90.443314515
 20
-15.7410515625
 11
-90.4758699519
 21
-14.5634192497
  0
LINE
  5
4C3
100
AcDbEntity
  8
RACCORDO
100
AcDbLine
 62
7
  6
CONTINUOUS
 10
-89.7652541121
 20
-22.6831582992
 11
-89.7619998199
 21
-22.7992469214
  0
LINE
  5
4C4
100
AcDbEntity
  8
RACCORDO
100
AcDbLine
 62
250
  6
CONTINUOUS
 10
-89.7620982868
 20
-22.7920424088
 11
-89.7619998199
 21
-22.7992469214
  0
LINE
  5
4C5
100
AcDbEntity
  8
RACCORDO
100
AcDbLine
 62
250
  6
CONTINUOUS
 10
-89.7617061563
 20
-22.8108345583
 11
-89.7611384908
 21
-22.8298591871
  0
LINE
  5
4C6
100
AcDbEntity
  8
RACCORDO
100
AcDbLine
 62
250
  6
CONTINUOUS
 10
-90.1866978005
 20
-15.1441865674
 11
-90.2160189538
 21
-13.967673993
  0
LINE
  5
4C7
100
AcDbEntity
  8
RACCORDO
100
AcDbLine
 62
7
  6
CONTINUOUS
 10
-89.7619998199
 20
-22.7992469214
 11
-89.7602224957
 21
-22.874477038
  0
LINE
  5
4C8
100
AcDbEntity
  8
RACCORDO
100
AcDbLine
 62
250
  6
CONTINUOUS
 10
-90.4758699519
 20
-14.5634192497
 11
-90.5023784522
 21
-13.3857682539
  0
LINE
  5
4C9
100
AcDbEntity
  8
RACCORDO
100
AcDbLine
 62
250
  6
CONTINUOUS
 10
-89.912768645
 20
-17.9057539832
 11
-89.907266827
 21
-18.1360434099
  0
LINE
  5
4CA
100
AcDbEntity
  8
RACCORDO
100
AcDbLine
 62
250
  6
CONTINUOUS
 10
-90.2160189538
 20
-13.967673993
 11
-90.2399732795
 21
-12.792153018
  0
LINE
  5
4CB
100
AcDbEntity
  8
RACCORDO
100
AcDbLine
 62
7
  6
CONTINUOUS
 10
-89.7587654959
 20
23.0225202942
 11
-89.7586763222
 21
23.0179956359
  0
LINE
  5
4CC
100
AcDbEntity
  8
RACCORDO
100
AcDbLine
 62
250
  6
CONTINUOUS
 10
-90.5023784522
 20
-13.3857682539
 11
-90.5239114924
 21
-12.2098674904
  0
LINE
  5
4CD
100
AcDbEntity
  8
RACCORDO
100
AcDbLine
 62
7
  6
CONTINUOUS
 10
-89.7602224957
 20
-22.874477038
 11
-89.7592208736
 21
-22.9277645571
  0
LINE
  5
4CE
100
AcDbEntity
  8
RACCORDO
100
AcDbLine
 62
250
  6
CONTINUOUS
 10
-90.2399732795
 20
-12.792153018
 11
-90.2593757835
 21
-11.617977336
  0
LINE
  5
4CF
100
AcDbEntity
  8
RACCORDO
100
AcDbLine
 62
250
  6
CONTINUOUS
 10
-90.5239114924
 20
-12.2098674904
 11
-90.5415785435
 21
-11.0362044579
  0
LINE
  5
4D0
100
AcDbEntity
  8
RACCORDO
100
AcDbLine
 62
250
  6
CONTINUOUS
 10
-90.2593757835
 20
-11.617977336
 11
-90.2755520189
 21
-10.4465090774
  0
LINE
  5
4D1
100
AcDbEntity
  8
RACCORDO
100
AcDbLine
 62
7
  6
CONTINUOUS
 10
-89.7592208736
 20
-22.9277645571
 11
-89.7588059104
 21
-22.9573655082
  0
LINE
  5
4D2
100
AcDbEntity
  8
RACCORDO
100
AcDbLine
 62
250
  6
CONTINUOUS
 10
-90.5415785435
 20
-11.0362044579
 11
-90.556451463
 21
-9.8625025562
  0
LINE
  5
4D3
100
AcDbEntity
  8
RACCORDO
100
AcDbLine
 62
250
  6
CONTINUOUS
 10
-89.7586254182
 20
-22.9763826909
 11
-89.7583545283
 21
-22.9808331286
  0
LINE
  5
4D4
100
AcDbEntity
  8
RACCORDO
100
AcDbLine
 62
7
  6
CONTINUOUS
 10
-89.7586763222
 20
23.0179956359
 11
-89.7586017631
 21
23.0119054528
  0
LINE
  5
4D5
100
AcDbEntity
  8
RACCORDO
100
AcDbLine
 62
250
  6
CONTINUOUS
 10
-90.556451463
 20
-9.8625025562
 11
-90.5690597696
 21
-8.6819418204
  0
LINE
  5
4D6
100
AcDbEntity
  8
RACCORDO
100
AcDbLine
 62
250
  6
CONTINUOUS
 10
-90.2755520189
 20
-10.4465090774
 11
-90.2952590579
 21
-8.6790298596
  0
LINE
  5
4D7
100
AcDbEntity
  8
RACCORDO
100
AcDbLine
 62
7
  6
CONTINUOUS
 10
-89.7588059104
 20
-22.9573655082
 11
-89.7586254182
 21
-22.9763826909
  0
LINE
  5
4D8
100
AcDbEntity
  8
RACCORDO
100
AcDbLine
 62
250
  6
CONTINUOUS
 10
-90.5690597696
 20
-8.6819418204
 11
-90.5841558353
 21
-6.8785644986
  0
LINE
  5
4D9
100
AcDbEntity
  8
RACCORDO
100
AcDbLine
 62
250
  6
CONTINUOUS
 10
-90.2952590579
 20
-8.6790298596
 11
-90.3103522123
 21
-6.8764476904
  0
LWPOLYLINE
  5
4DA
100
AcDbEntity
  8
RACCORDO
100
AcDbPolyline
 62
250
  6
CONTINUOUS
 90
3
 70
0
 10
-89.7606825589
 20
23.0667392205
 10
-89.7604783536
 20
23.0361974538
 10
-89.7587116745
 20
23.019982421
  0
LINE
  5
4DB
100
AcDbEntity
  8
RACCORDO
100
AcDbLine
 62
250
  6
CONTINUOUS
 10
-89.7585480692
 20
-22.9926885705
 11
-89.7582237333
 21
-23.0026445513
  0
LINE
  5
4DC
100
AcDbEntity
  8
RACCORDO
100
AcDbLine
 62
250
  6
CONTINUOUS
 10
-90.5841558353
 20
-6.8785644986
 11
-90.5951561353
 21
-4.9895610949
  0
LINE
  5
4DD
100
AcDbEntity
  8
RACCORDO
100
AcDbLine
 62
250
  6
CONTINUOUS
 10
-90.3103522123
 20
-6.8764476904
 11
-90.3213437194
 21
-4.9881717429
  0
LINE
  5
4DE
100
AcDbEntity
  8
RACCORDO
100
AcDbLine
 62
7
  6
CONTINUOUS
 10
-89.7586017631
 20
23.0119054528
 11
-89.7585549292
 21
23.0042952949
  0
LINE
  5
4DF
100
AcDbEntity
  8
RACCORDO
100
AcDbLine
 62
7
  6
CONTINUOUS
 10
-89.7586254182
 20
-22.9763826909
 11
-89.7585480692
 21
-22.9926885705
  0
LINE
  5
4E0
100
AcDbEntity
  8
RACCORDO
100
AcDbLine
 62
250
  6
CONTINUOUS
 10
-90.5951561353
 20
-4.9895610949
 11
-90.6022544295
 21
-2.96677646
  0
LINE
  5
4E1
100
AcDbEntity
  8
RACCORDO
100
AcDbLine
 62
250
  6
CONTINUOUS
 10
-90.3213437194
 20
-4.9881717429
 11
-90.3284332085
 21
-2.9660436074
  0
LWPOLYLINE
  5
4E2
100
AcDbEntity
  8
RACCORDO
100
AcDbPolyline
 62
7
  6
CONTINUOUS
 90
10
 70
0
 10
-90.0923824339
 20
-0.0000008711
 10
-90.0873286091
 20
-2.7220748908
 10
-90.0730453874
 20
-5.4469900824
 10
-90.0516632401
 20
-8.0941124819
 10
-90.0255817642
 20
-10.6635295731
 10
-89.9960124971
 20
-13.1554115096
 10
-89.9596644017
 20
-15.5695745779
 10
-89.912768645
 20
-17.9057539832
 10
-89.852440527
 20
-20.1638883842
 10
-89.7796962718
 20
-22.269904385
  0
LINE
  5
4E3
100
AcDbEntity
  8
RACCORDO
100
AcDbLine
 62
250
  6
CONTINUOUS
 10
-90.6022544295
 20
-2.96677646
 11
-90.6054537491
 21
-0.7720655301
  0
LINE
  5
4E4
100
AcDbEntity
  8
RACCORDO
100
AcDbLine
 62
250
  6
CONTINUOUS
 10
-90.3284332085
 20
-2.9660436074
 11
-90.3316360415
 21
-0.7718986254
  0
LWPOLYLINE
  5
4E5
100
AcDbEntity
  8
0
100
AcDbPolyline
 62
7
  6
CONTINUOUS
 90
12
 70
0
 10
-90.6978557824
 20
-0.0000008712
 10
-90.6961639985
 20
-2.5106659558
 10
-90.6892847196
 20
-4.95293348
 10
-90.6748734331
 20
-7.3268034439
 10
-90.6510208131
 20
-9.6337989163
 10
-90.6161644237
 20
-11.8723968284
 10
-90.567250518
 20
-14.0380279737
 10
-90.5001700293
 20
-16.1295370411
 10
-90.4117780731
 20
-18.1480793417
 10
-90.3000327158
 20
-20.0925516023
 10
-90.1638179735
 20
-21.9625860653
 10
-90.0028549551
 20
-23.7585504882
  0
LWPOLYLINE
  5
4E6
100
AcDbEntity
  8
ASSI
100
AcDbPolyline
 62
7
  6
CONTINUOUS
 90
12
 70
0
 10
-90.6978557824
 20
-0.0000008712
 10
-90.6956334312
 20
2.8234919393
 10
-90.6864340154
 20
5.5597023437
 10
-90.6670377068
 20
8.208630342
 10
-90.634916212
 20
10.7722442688
 10
-90.5871918298
 20
13.2485757894
 10
-90.5182000909
 20
15.6317199002
 10
-90.4231266105
 20
17.9191891866
 10
-90.2986722426
 20
20.1134710632
 10
-90.1429642281
 20
22.2161227699
 10
-89.9562359765
 20
24.2208150047
 10
-89.7389293862
 20
26.1338770696
  0
LINE
  5
4E7
100
AcDbEntity
  8
RACCORDO
100
AcDbLine
 62
250
  6
CONTINUOUS
 10
-90.6054537491
 20
-0.7720655301
 11
-90.6049776846
 21
1.3791114898
  0
LINE
  5
4E8
100
AcDbEntity
  8
RACCORDO
100
AcDbLine
 62
250
  6
CONTINUOUS
 10
-90.3316360415
 20
-0.7718986254
 11
-90.3311634583
 21
1.3788032669
  0
LWPOLYLINE
  5
4E9
100
AcDbEntity
  8
RACCORDO
100
AcDbPolyline
 62
250
  6
CONTINUOUS
 90
7
 70
0
 10
-89.7585621066
 20
-23.0061169681
 10
-89.7582421228
 20
-23.0215907029
 10
-89.7584101945
 20
-23.0375836767
 10
-89.7587368008
 20
-23.0501431988
 10
-89.7592255122
 20
-23.0591091895
 10
-89.7598740111
 20
-23.0646417692
 10
-89.7606825589
 20
-23.066740963
  0
LINE
  5
4EA
100
AcDbEntity
  8
RACCORDO
100
AcDbLine
 62
7
  6
CONTINUOUS
 10
-89.7585480692
 20
-22.9926885705
 11
-89.7585479094
 21
-23.0019742913
  0
LINE
  5
4EB
100
AcDbEntity
  8
RACCORDO
100
AcDbLine
 62
7
  6
CONTINUOUS
 10
-89.7585549292
 20
23.0042952949
 11
-89.7585540847
 21
22.9901243449
  0
LINE
  5
4EC
100
AcDbEntity
  8
RACCORDO
100
AcDbLine
 62
250
  6
CONTINUOUS
 10
-90.6049776846
 20
1.3791114898
 11
-90.6012797015
 21
3.3370564289
  0
LINE
  5
4ED
100
AcDbEntity
  8
RACCORDO
100
AcDbLine
 62
250
  6
CONTINUOUS
 10
-90.3311634583
 20
1.3788032669
 11
-90.3274640029
 21
3.3362122732
  0
LINE
  5
4EE
100
AcDbEntity
  8
RACCORDO
100
AcDbLine
 62
250
  6
CONTINUOUS
 10
-90.6012797015
 20
3.3370564289
 11
-90.5941766862
 21
5.195199405
  0
LINE
  5
4EF
100
AcDbEntity
  8
RACCORDO
100
AcDbLine
 62
250
  6
CONTINUOUS
 10
-90.3274640029
 20
3.3362122732
 11
-90.3203652936
 21
5.1937357128
  0
LINE
  5
4F0
100
AcDbEntity
  8
RACCORDO
100
AcDbLine
 62
7
  6
CONTINUOUS
 10
-89.7585479094
 20
-23.0019742913
 11
-89.7585851063
 21
-23.0099273135
  0
LINE
  5
4F1
100
AcDbEntity
  8
RACCORDO
100
AcDbLine
 62
250
  6
CONTINUOUS
 10
-90.5941766862
 20
5.195199405
 11
-90.5833610416
 21
6.9897960231
  0
LINE
  5
4F2
100
AcDbEntity
  8
RACCORDO
100
AcDbLine
 62
250
  6
CONTINUOUS
 10
-90.3203652936
 20
5.1937357128
 11
-90.3095577633
 21
6.9876325614
  0
LWPOLYLINE
  5
4F3
100
AcDbEntity
  8
RACCORDO
100
AcDbPolyline
 62
250
  6
CONTINUOUS
 90
3
 70
0
 10
-89.7606825589
 20
-23.066740963
 10
-89.7604783837
 20
-23.0361997165
 10
-89.7587120834
 20
-23.0199877895
  0
LINE
  5
4F4
100
AcDbEntity
  8
RACCORDO
100
AcDbLine
 62
7
  6
CONTINUOUS
 10
-89.7585540847
 20
22.9901243449
 11
-89.758651857
 21
22.9728588195
  0
LINE
  5
4F5
100
AcDbEntity
  8
RACCORDO
100
AcDbLine
 62
250
  6
CONTINUOUS
 10
-90.5833610416
 20
6.9897960231
 11
-90.5683854614
 21
8.7508597192
  0
LINE
  5
4F6
100
AcDbEntity
  8
RACCORDO
100
AcDbLine
 62
250
  6
CONTINUOUS
 10
-90.3095577633
 20
6.9876325614
 11
-90.2945916855
 21
8.7479134725
  0
LINE
  5
4F7
100
AcDbEntity
  8
RACCORDO
100
AcDbLine
 62
250
  6
CONTINUOUS
 10
-89.7583214942
 20
22.9851942051
 11
-89.758651857
 21
22.9728588195
  0
LINE
  5
4F8
100
AcDbEntity
  8
RACCORDO
100
AcDbLine
 62
250
  6
CONTINUOUS
 10
-90.5683854614
 20
8.7508597192
 11
-90.5557742032
 21
9.920375359
  0
LINE
  5
4F9
100
AcDbEntity
  8
RACCORDO
100
AcDbLine
 62
250
  6
CONTINUOUS
 10
-90.2945916855
 20
8.7479134725
 11
-90.27488018
 21
10.5016591967
  0
LINE
  5
4FA
100
AcDbEntity
  8
RACCORDO
100
AcDbLine
 62
7
  6
CONTINUOUS
 10
-89.7585851063
 20
-23.0099273135
 11
-89.7586536256
 21
-23.0164789851
  0
LINE
  5
4FB
100
AcDbEntity
  8
RACCORDO
100
AcDbLine
 62
7
  6
CONTINUOUS
 10
-89.758651857
 20
22.9728588195
 11
-89.7589599531
 21
22.945226325
  0
LINE
  5
4FC
100
AcDbEntity
  8
RACCORDO
100
AcDbLine
 62
250
  6
CONTINUOUS
 10
-90.5557742032
 20
9.920375359
 11
-90.5408226994
 21
11.0910072244
  0
LINE
  5
4FD
100
AcDbEntity
  8
RACCORDO
100
AcDbLine
 62
250
  6
CONTINUOUS
 10
-90.27488018
 20
10.5016591967
 11
-90.2585243751
 21
11.6726915803
  0
LINE
  5
4FE
100
AcDbEntity
  8
RACCORDO
100
AcDbLine
 62
250
  6
CONTINUOUS
 10
-89.7585730821
 20
22.9609036843
 11
-89.7589599531
 21
22.945226325
  0
LINE
  5
4FF
100
AcDbEntity
  8
RACCORDO
100
AcDbLine
 62
250
  6
CONTINUOUS
 10
-89.7590706775
 20
22.9374808502
 11
-89.7589661016
 21
22.9338349501
  0
LINE
  5
500
100
AcDbEntity
  8
RACCORDO
100
AcDbLine
 62
250
  6
CONTINUOUS
 10
-90.5408226994
 20
11.0910072244
 11
-90.5230140555
 21
12.2639323795
  0
LINE
  5
501
100
AcDbEntity
  8
RACCORDO
100
AcDbLine
 62
250
  6
CONTINUOUS
 10
-90.2585243751
 20
11.6726915803
 11
-90.2389474206
 21
12.845344103
  0
LINE
  5
502
100
AcDbEntity
  8
RACCORDO
100
AcDbLine
 62
7
  6
CONTINUOUS
 10
-89.7589599531
 20
22.945226325
 11
-89.759650325
 21
22.9031030666
  0
LINE
  5
503
100
AcDbEntity
  8
RACCORDO
100
AcDbLine
 62
250
  6
CONTINUOUS
 10
-90.5230140555
 20
12.2639323795
 11
-90.5013139513
 21
13.4380802499
  0
LWPOLYLINE
  5
504
100
AcDbEntity
  8
RACCORDO
100
AcDbPolyline
 62
7
  6
CONTINUOUS
 90
4
 70
0
 10
-89.7586536256
 20
-23.0164789851
 10
-89.7587423617
 20
-23.0215197415
 10
-89.7587875055
 20
-23.0233828727
 10
-89.7588296059
 20
-23.0248247317
  0
LINE
  5
505
100
AcDbEntity
  8
RACCORDO
100
AcDbLine
 62
250
  6
CONTINUOUS
 10
-90.2389474206
 20
12.845344103
 11
-90.2149577565
 21
14.0187444346
  0
LINE
  5
506
100
AcDbEntity
  8
RACCORDO
100
AcDbLine
 62
7
  6
CONTINUOUS
 10
-89.759650325
 20
22.9031030666
 11
-89.7609668772
 21
22.8412637909
  0
LINE
  5
507
100
AcDbEntity
  8
RACCORDO
100
AcDbLine
 62
250
  6
CONTINUOUS
 10
-90.5013139513
 20
13.4380802499
 11
-90.4746304968
 21
14.6129347147
  0
LWPOLYLINE
  5
508
100
AcDbEntity
  8
RACCORDO
100
AcDbPolyline
 62
250
  6
CONTINUOUS
 90
12
 70
0
 10
-90.2149577565
 20
14.0187444346
 10
-90.1854238975
 20
15.1897802093
 10
-90.1684384549
 20
15.7740282478
 10
-90.1492597141
 20
16.3643168153
 10
-90.1280576116
 20
16.9596533635
 10
-90.104662211
 20
17.5610304406
 10
-90.0778805454
 20
18.1775938054
 10
-90.0479242995
 20
18.8097217313
 10
-90.0145817886
 20
19.4570359447
 10
-89.9760249925
 20
20.1275473835
 10
-89.931644571
 20
20.8239263602
 10
-89.8820498643
 20
21.5435025623
  0
LINE
  5
509
100
AcDbEntity
  8
RACCORDO
100
AcDbLine
 62
7
  6
CONTINUOUS
 10
-89.7609668772
 20
22.8412637909
 11
-89.7636337098
 21
22.7387370391
  0
LWPOLYLINE
  5
50A
100
AcDbEntity
  8
RACCORDO
100
AcDbPolyline
 62
250
  6
CONTINUOUS
 90
3
 70
0
 10
-89.8623097818
 20
19.831551565
 10
-89.8789551609
 20
19.2438898705
 10
-89.912613804
 20
17.9124433811
  0
LINE
  5
50B
100
AcDbEntity
  8
RACCORDO
100
AcDbLine
 62
250
  6
CONTINUOUS
 10
-89.7629812992
 20
22.7592525866
 11
-89.7636337098
 21
22.7387370391
  0
LINE
  5
50C
100
AcDbEntity
  8
RACCORDO
100
AcDbLine
 62
250
  6
CONTINUOUS
 10
-89.7640454073
 20
22.7242965644
 11
-89.7641592463
 21
22.7177065004
  0
LWPOLYLINE
  5
50D
100
AcDbEntity
  8
RACCORDO
100
AcDbPolyline
 62
250
  6
CONTINUOUS
 90
11
 70
0
 10
-90.4746304968
 20
14.6129347147
 10
-90.4420224589
 20
15.7832341209
 10
-90.4229175575
 20
16.3744768695
 10
-90.4016706193
 20
16.9708445479
 10
-90.3780449256
 20
17.5733343673
 10
-90.3514102602
 20
18.1911182941
 10
-90.3214032014
 20
18.8245730399
 10
-90.2876695946
 20
19.4733228601
 10
-90.2493327231
 20
20.1454114487
 10
-90.2056534292
 20
20.8435215441
 10
-90.1561555507
 20
21.5649748813
  0
LINE
  5
50E
100
AcDbEntity
  8
RACCORDO
100
AcDbLine
 62
250
  6
CONTINUOUS
 10
-89.8244606224
 20
21.033452163
 11
-89.852218
 21
20.1705743483
  0
LINE
  5
50F
100
AcDbEntity
  8
RACCORDO
100
AcDbLine
 62
7
  6
CONTINUOUS
 10
-89.7636337098
 20
22.7387370391
 11
-89.768548277
 21
22.5786640769
  0
LWPOLYLINE
  5
510
100
AcDbEntity
  8
RACCORDO
100
AcDbPolyline
 62
250
  6
CONTINUOUS
 90
12
 70
0
 10
-90.0296846891
 20
23.1025426741
 10
-90.0307098097
 20
23.0712034949
 10
-90.0284583154
 20
23.0399285086
 10
-90.0229548026
 20
23.0090593754
 10
-90.0142593941
 20
22.9789333215
 10
-90.0024670821
 20
22.9498794558
 10
-89.987706691
 20
22.9222151746
 10
-89.9701394694
 20
22.8962426929
 10
-89.949957329
 20
22.872245744
 10
-89.9273807478
 20
22.8504864797
 10
-89.9026563617
 20
22.8312026063
 10
-89.898898942
 20
22.8286181361
  0
LINE
  5
511
100
AcDbEntity
  8
RACCORDO
100
AcDbLine
 62
250
  6
CONTINUOUS
 10
-89.7683658678
 20
22.5822836914
 11
-89.768548277
 21
22.5786640769
  0
LINE
  5
512
100
AcDbEntity
  8
RACCORDO
100
AcDbLine
 62
250
  6
CONTINUOUS
 10
-89.7697465069
 20
22.5426439647
 11
-89.7700024613
 21
22.5333218724
  0
LWPOLYLINE
  5
513
100
AcDbEntity
  8
RACCORDO
100
AcDbPolyline
 62
7
  6
CONTINUOUS
 90
10
 70
0
 10
-89.7796962714
 20
22.269902651
 10
-89.852218
 20
20.1705743483
 10
-89.912613804
 20
17.9124433811
 10
-89.959549596
 20
15.5762633128
 10
-89.9959208487
 20
13.1620908157
 10
-90.0255254134
 20
10.6701964868
 10
-90.0516030604
 20
8.1007627246
 10
-90.0729985856
 20
5.4536419634
 10
-90.0873046859
 20
2.7287304702
 10
-90.0923824339
 20
-0.0000008711
  0
LINE
  5
514
100
AcDbEntity
  8
RACCORDO
100
AcDbLine
 62
7
  6
CONTINUOUS
 10
-89.768548277
 20
22.5786640769
 11
-89.7760060752
 21
22.3663651654
  0
LINE
  5
515
100
AcDbEntity
  8
RACCORDO
100
AcDbLine
 62
250
  6
CONTINUOUS
 10
-89.7803341139
 20
22.2514386568
 11
-89.8244606224
 21
21.033452163
  0
LINE
  5
516
100
AcDbEntity
  8
RACCORDO
100
AcDbLine
 62
250
  6
CONTINUOUS
 10
-89.7755166847
 20
22.3782041858
 11
-89.7760060752
 21
22.3663651654
  0
LINE
  5
517
100
AcDbEntity
  8
RACCORDO
100
AcDbLine
 62
7
  6
CONTINUOUS
 10
-89.7760060752
 20
22.3663651654
 11
-89.7796962717
 21
22.2699026455
  0
LINE
  5
518
100
AcDbEntity
  8
RACCORDO
100
AcDbLine
 62
250
  6
CONTINUOUS
 10
-89.8820498643
 20
21.5435025623
 11
-89.8247523958
 21
22.3187943801
  0
LINE
  5
519
100
AcDbEntity
  8
RACCORDO
100
AcDbLine
 62
250
  6
CONTINUOUS
 10
-89.8247523958
 20
22.3187943801
 11
-89.8221389293
 21
22.3510297983
  0
LINE
  5
51A
100
AcDbEntity
  8
RACCORDO
100
AcDbLine
 62
7
  6
CONTINUOUS
 10
-81.6198340095
 20
-3.6023727144
 11
-83.4250693992
 21
-3.555100962
  0
LWPOLYLINE
  5
51B
100
AcDbEntity
  8
ASSI
100
AcDbPolyline
 62
250
  6
CONTINUOUS
 90
19
 70
0
 10
-85.6621754114
 20
-42.447577068
 10
-85.6574142623
 20
-42.4880691859
 10
-85.6493735027
 20
-42.5280381107
 10
-85.6381066026
 20
-42.5672180729
 10
-85.6236884855
 20
-42.6053485449
 10
-85.6062150258
 20
-42.6421759877
 10
-85.5858024067
 20
-42.677455535
 10
-85.5625863569
 20
-42.7109526025
 10
-85.5367212517
 20
-42.7424444503
 10
-85.5083790786
 20
-42.7717216759
 10
-85.4777482962
 20
-42.7985896033
 10
-85.445032581
 20
-42.8228695763
 10
-85.4104494733
 20
-42.8444001475
 10
-85.3742288897
 20
-42.86303817
 10
-85.3366117131
 20
-42.8786596864
 10
-85.2978482052
 20
-42.8911607868
 10
-85.2581961731
 20
-42.9004583691
 10
-85.2179192417
 20
-42.9064906582
 10
-85.1772852281
 20
-42.9092175758
  0
LWPOLYLINE
  5
51C
100
AcDbEntity
  8
RACCORDO
100
AcDbPolyline
 62
7
  6
CONTINUOUS
 90
6
 70
0
 10
-89.7588493782
 20
23.0256196346
 10
-89.7588784044
 20
23.0261560602
 10
-89.7588745775
 20
23.0260670326
 10
-89.7588462569
 20
23.0253193833
 10
-89.7588082185
 20
23.024124309
 10
-89.7587654959
 20
23.0225202942
  0
LINE
  5
51D
100
AcDbEntity
  8
ASSI
100
AcDbLine
 62
250
  6
CONTINUOUS
 10
-85.1961308298
 20
-41.6384376997
 11
-85.1766942944
 21
-42.1095071899
  0
LINE
  5
51E
100
AcDbEntity
  8
ASSI
100
AcDbLine
 62
250
  6
CONTINUOUS
 10
-85.6794245232
 20
-41.6570843264
 11
-85.660713239
 21
-42.1545906781
  0
LINE
  5
51F
100
AcDbEntity
  8
ASSI
100
AcDbLine
 62
250
  6
CONTINUOUS
 10
-85.6599406156
 20
-42.1772126845
 11
-85.660713239
 21
-42.1545906781
  0
LINE
  5
520
100
AcDbEntity
  8
ASSI
100
AcDbLine
 62
250
  6
CONTINUOUS
 10
-85.2133995158
 20
-41.1357799584
 11
-85.1961308298
 21
-41.6384376997
  0
LINE
  5
521
100
AcDbEntity
  8
ASSI
100
AcDbLine
 62
250
  6
CONTINUOUS
 10
-85.6946626883
 20
-41.1511698374
 11
-85.6794245232
 21
-41.6570843264
  0
LINE
  5
522
100
AcDbEntity
  8
ASSI
100
AcDbLine
 62
250
  6
CONTINUOUS
 10
-85.2285113399
 20
-40.5997813366
 11
-85.2133995158
 21
-41.1357799584
  0
LINE
  5
523
100
AcDbEntity
  8
ASSI
100
AcDbLine
 62
250
  6
CONTINUOUS
 10
-85.6587206138
 20
-42.2216027651
 11
-85.6599406156
 21
-42.1772126845
  0
LINE
  5
524
100
AcDbEntity
  8
ASSI
100
AcDbLine
 62
250
  6
CONTINUOUS
 10
-85.7074461943
 20
-40.6121789459
 11
-85.6946626883
 21
-41.1511698374
  0
LINE
  5
525
100
AcDbEntity
  8
ASSI
100
AcDbLine
 62
250
  6
CONTINUOUS
 10
-85.2415027898
 20
-40.0242400358
 11
-85.2285113399
 21
-40.5997813366
  0
LINE
  5
526
100
AcDbEntity
  8
ASSI
100
AcDbLine
 62
250
  6
CONTINUOUS
 10
-85.6578823771
 20
-42.2644687087
 11
-85.6587206138
 21
-42.2216027651
  0
LINE
  5
527
100
AcDbEntity
  8
ASSI
100
AcDbLine
 62
250
  6
CONTINUOUS
 10
-85.7180450857
 20
-40.0339884579
 11
-85.7074461943
 21
-40.6121789459
  0
LWPOLYLINE
  5
528
100
AcDbEntity
  8
ASSI
100
AcDbPolyline
 62
250
  6
CONTINUOUS
 90
3
 70
0
 10
-85.2570480904
 20
-39.0806573066
 10
-85.2523907877
 20
-39.4061144098
 10
-85.2415027898
 20
-40.0242400358
  0
LINE
  5
529
100
AcDbEntity
  8
ASSI
100
AcDbLine
 62
250
  6
CONTINUOUS
 10
-85.7302403785
 20
-39.0870939403
 11
-85.7180450857
 21
-40.0339884579
  0
LINE
  5
52A
100
AcDbEntity
  8
ASSI
100
AcDbLine
 62
250
  6
CONTINUOUS
 10
-85.6573934284
 20
-42.3046498981
 11
-85.6578823771
 21
-42.2644687087
  0
LINE
  5
52B
100
AcDbEntity
  8
ASSI
100
AcDbLine
 62
250
  6
CONTINUOUS
 10
-85.7408792859
 20
-37.6509642894
 11
-85.7302403785
 21
-39.0870939403
  0
LINE
  5
52C
100
AcDbEntity
  8
ASSI
100
AcDbLine
 62
250
  6
CONTINUOUS
 10
-85.7540709311
 20
-33.1373700661
 11
-85.7408792859
 21
-37.6509642894
  0
LWPOLYLINE
  5
52D
100
AcDbEntity
  8
ASSI
100
AcDbPolyline
 62
250
  6
CONTINUOUS
 90
3
 70
0
 10
-85.760457533
 20
-25.0838625729
 10
-85.7576822183
 20
-28.6698206486
 10
-85.7540709311
 20
-33.1373700661
  0
LINE
  5
52E
100
AcDbEntity
  8
ASSI
100
AcDbLine
 62
250
  6
CONTINUOUS
 10
-85.7707770065
 20
-16.5231271581
 11
-85.760457533
 21
-25.0838625729
  0
LINE
  5
52F
100
AcDbEntity
  8
ASSI
100
AcDbLine
 62
250
  6
CONTINUOUS
 10
-85.7618123997
 20
24.1229566609
 11
-85.7707426252
 21
16.4456988892
  0
LINE
  5
530
100
AcDbEntity
  8
ASSI
100
AcDbLine
 62
250
  6
CONTINUOUS
 10
-85.7421996583
 20
37.3872413257
 11
-85.7618123997
 21
24.1229566609
  0
LINE
  5
531
100
AcDbEntity
  8
ASSI
100
AcDbLine
 62
250
  6
CONTINUOUS
 10
-85.6573934566
 20
42.3046450387
 11
-85.6572203056
 21
42.3411579506
  0
LINE
  5
532
100
AcDbEntity
  8
ASSI
100
AcDbLine
 62
250
  6
CONTINUOUS
 10
-85.7334598133
 20
38.7443449041
 11
-85.7421996583
 21
37.3872413257
  0
LINE
  5
533
100
AcDbEntity
  8
ASSI
100
AcDbLine
 62
250
  6
CONTINUOUS
 10
-85.7243084416
 20
39.6010863894
 11
-85.7334598133
 21
38.7443449041
  0
LINE
  5
534
100
AcDbEntity
  8
ASSI
100
AcDbLine
 62
250
  6
CONTINUOUS
 10
-85.6578824269
 20
42.2644638093
 11
-85.6573934566
 21
42.3046450387
  0
LINE
  5
535
100
AcDbEntity
  8
ASSI
100
AcDbLine
 62
250
  6
CONTINUOUS
 10
-85.7116605534
 20
40.4007706915
 11
-85.7243084416
 21
39.6010863894
  0
LINE
  5
536
100
AcDbEntity
  8
ASSI
100
AcDbLine
 62
250
  6
CONTINUOUS
 10
-85.2419994258
 20
39.9996199021
 11
-85.2557449215
 21
39.1711292667
  0
LINE
  5
537
100
AcDbEntity
  8
ASSI
100
AcDbLine
 62
250
  6
CONTINUOUS
 10
-85.6587222088
 20
42.2215568552
 11
-85.6578824269
 21
42.2644638093
  0
LINE
  5
538
100
AcDbEntity
  8
ASSI
100
AcDbLine
 62
250
  6
CONTINUOUS
 10
-85.22418718
 20
40.7639672757
 11
-85.2419994258
 21
39.9996199021
  0
LWPOLYLINE
  5
539
100
AcDbEntity
  8
ASSI
100
AcDbPolyline
 62
250
  6
CONTINUOUS
 90
4
 70
0
 10
-85.6738661926
 20
41.8160724021
 10
-85.6850007687
 20
41.4848517683
 10
-85.6949973656
 20
41.1385564628
 10
-85.7116605534
 20
40.4007706915
  0
LWPOLYLINE
  5
53A
100
AcDbEntity
  8
ASSI
100
AcDbPolyline
 62
250
  6
CONTINUOUS
 90
4
 70
0
 10
-85.6738661926
 20
41.8160724021
 10
-85.6607025436
 20
42.1549062057
 10
-85.6599362456
 20
42.177337286
 10
-85.6587222088
 20
42.2215568552
  0
LWPOLYLINE
  5
53B
100
AcDbEntity
  8
ASSI
100
AcDbPolyline
 62
250
  6
CONTINUOUS
 90
4
 70
0
 10
-85.1766626617
 20
42.1095062758
 10
-85.1900312637
 20
41.7960214519
 10
-85.2024082092
 20
41.467271466
 10
-85.22418718
 20
40.7639672757
  0
LINE
  5
53C
100
AcDbEntity
  8
ASSI
100
AcDbLine
 62
250
  6
CONTINUOUS
 10
-85.3012981493
 20
-0.0000008712
 11
-85.7637838917
 21
-0.0000008712
  0
LINE
  5
53D
100
AcDbEntity
  8
RACCORDO
100
AcDbLine
 62
250
  6
CONTINUOUS
 10
-85.7637838917
 20
-0.0000008712
 11
-90.0920696691
 21
-0.0000008712
  0
LINE
  5
53E
100
AcDbEntity
  8
RACCORDO
100
AcDbLine
 62
250
  6
CONTINUOUS
 10
-90.3318398274
 20
-0.0000008712
 11
-90.6978557824
 21
-0.0000008712
  0
LINE
  5
53F
100
AcDbEntity
  8
ASSI
100
AcDbLine
 62
250
  6
CONTINUOUS
 10
-85.1772197179
 20
42.9069816046
 11
-85.1772840333
 21
42.9092158646
  0
LINE
  5
540
100
AcDbEntity
  8
ASSI
100
AcDbLine
 62
250
  6
CONTINUOUS
 10
-85.2682157817
 20
-38.0262078502
 11
-85.2570480904
 21
-39.0806573066
  0
LINE
  5
541
100
AcDbEntity
  8
ASSI
100
AcDbLine
 62
250
  6
CONTINUOUS
 10
-85.2822253034
 20
-35.5453993853
 11
-85.2682157817
 21
-38.0262078502
  0
LWPOLYLINE
  5
542
100
AcDbEntity
  8
ASSI
100
AcDbPolyline
 62
250
  6
CONTINUOUS
 90
12
 70
0
 10
-85.6572203056
 20
42.3411579506
 10
-85.6572472833
 20
42.3579142015
 10
-85.6573483774
 20
42.3734010327
 10
-85.6575277596
 20
42.3876008316
 10
-85.6577862357
 20
42.4005316403
 10
-85.6581246489
 20
42.4119725123
 10
-85.6585515087
 20
42.4218994332
 10
-85.6590716786
 20
42.4303374502
 10
-85.6596855896
 20
42.4371395652
 10
-85.6604004061
 20
42.4422573032
 10
-85.6612279299
 20
42.4457405662
 10
-85.6621775562
 20
42.4475900609
  0
LINE
  5
543
100
AcDbEntity
  8
ASSI
100
AcDbLine
 62
250
  6
CONTINUOUS
 10
-85.2926104103
 20
-30.4133061466
 11
-85.2822253034
 21
-35.5453993853
  0
LINE
  5
544
100
AcDbEntity
  8
ASSI
100
AcDbLine
 62
250
  6
CONTINUOUS
 10
-85.2945586974
 20
-27.485467807
 11
-85.2926104103
 21
-30.4133061466
  0
LINE
  5
545
100
AcDbEntity
  8
ASSI
100
AcDbLine
 62
250
  6
CONTINUOUS
 10
-85.7707426252
 20
16.4456988892
 11
-85.7655146512
 21
8.4858112834
  0
LINE
  5
546
100
AcDbEntity
  8
ASSI
100
AcDbLine
 62
250
  6
CONTINUOUS
 10
-85.3049250426
 20
10.0601251355
 11
-85.3013880498
 21
0.8679517305
  0
LINE
  5
547
100
AcDbEntity
  8
ASSI
100
AcDbLine
 62
250
  6
CONTINUOUS
 10
-85.1771911937
 20
42.88916662
 11
-85.1772197179
 21
42.9069816046
  0
LINE
  5
548
100
AcDbEntity
  8
ASSI
100
AcDbLine
 62
7
  6
CONTINUOUS
 10
-83.6198340095
 20
-42.9500008712
 11
-83.6198340095
 21
42.9499991288
  0
LINE
  5
549
100
AcDbEntity
  8
ASSI
100
AcDbLine
 62
250
  6
CONTINUOUS
 10
-85.7655146512
 20
8.4858112834
 11
-85.766347355
 21
-10.5737926672
  0
LINE
  5
54A
100
AcDbEntity
  8
ASSI
100
AcDbLine
 62
250
  6
CONTINUOUS
 10
-85.3122256431
 20
-16.5234037435
 11
-85.2945586974
 21
-27.485467807
  0
LINE
  5
54B
100
AcDbEntity
  8
ASSI
100
AcDbLine
 62
250
  6
CONTINUOUS
 10
-85.3119590507
 20
18.5888149846
 11
-85.3049250426
 21
10.0601251355
  0
LINE
  5
54C
100
AcDbEntity
  8
ASSI
100
AcDbLine
 62
250
  6
CONTINUOUS
 10
-85.766347355
 20
-10.5737926672
 11
-85.7707770065
 21
-16.5231271581
  0
LINE
  5
54D
100
AcDbEntity
  8
ASSI
100
AcDbLine
 62
250
  6
CONTINUOUS
 10
-85.3013880498
 20
0.8679517305
 11
-85.3080109604
 21
-12.9715140071
  0
LINE
  5
54E
100
AcDbEntity
  8
ASSI
100
AcDbLine
 62
250
  6
CONTINUOUS
 10
-85.3080109604
 20
-12.9715140071
 11
-85.3122256431
 21
-16.5234037435
  0
LINE
  5
54F
100
AcDbEntity
  8
ASSI
100
AcDbLine
 62
250
  6
CONTINUOUS
 10
-85.1771913553
 20
-42.9002883224
 11
-85.1766812027
 21
-42.1095075328
  0
LINE
  5
550
100
AcDbEntity
  8
ASSI
100
AcDbLine
 62
250
  6
CONTINUOUS
 10
-85.1766812027
 20
42.1095057903
 11
-85.1771911937
 21
42.88916662
  0
LWPOLYLINE
  5
551
100
AcDbEntity
  8
ASSI
100
AcDbPolyline
 62
250
  6
CONTINUOUS
 90
3
 70
0
 10
-85.2970412005
 20
25.3097732059
 10
-85.3054124667
 20
21.7536258889
 10
-85.3119590507
 20
18.5888149846
  0
LINE
  5
552
100
AcDbEntity
  8
ASSI
100
AcDbLine
 62
250
  6
CONTINUOUS
 10
-85.2825348774
 20
35.4632162827
 11
-85.2970412005
 21
25.3097732059
  0
LINE
  5
553
100
AcDbEntity
  8
ASSI
100
AcDbLine
 62
250
  6
CONTINUOUS
 10
-85.2696676107
 20
37.8444912734
 11
-85.2825348774
 21
35.4632162827
  0
LWPOLYLINE
  5
554
100
AcDbEntity
  8
ASSI
100
AcDbPolyline
 62
250
  6
CONTINUOUS
 90
3
 70
0
 10
-85.2557449215
 20
39.1711292667
 10
-85.2612791119
 20
38.7388328029
 10
-85.2696676107
 20
37.8444912734
  0
LWPOLYLINE
  5
555
100
AcDbEntity
  8
ASSI
100
AcDbPolyline
 62
250
  6
CONTINUOUS
 90
3
 70
0
 10
-85.1772840333
 20
-42.9092176071
 10
-85.177219723
 20
-42.9069833992
 10
-85.1771913553
 20
-42.9002883224
  0
LINE
  5
556
100
AcDbEntity
  8
ASSI
100
AcDbLine
 62
7
  6
CONTINUOUS
 10
-81.6198340095
 20
41.8504575646
 11
-81.6198340095
 21
41.4532990143
  0
LINE
  5
557
100
AcDbEntity
  8
0
100
AcDbLine
 62
7
  6
CONTINUOUS
 10
-81.6198340095
 20
41.4532990143
 11
-81.6198340095
 21
3.6023709719
  0
LINE
  5
558
100
AcDbEntity
  8
0
100
AcDbLine
 62
7
  6
CONTINUOUS
 10
-81.6198340095
 20
-3.6023727144
 11
-81.6198340095
 21
-41.4532969046
  0
LINE
  5
559
100
AcDbEntity
  8
ASSI
100
AcDbLine
 62
7
  6
CONTINUOUS
 10
-81.6198340095
 20
-41.4532969046
 11
-81.6198340095
 21
-41.8504604529
  0
LINE
  5
55A
100
AcDbEntity
  8
RACCORDO
100
AcDbLine
 62
7
  6
CONTINUOUS
 10
-81.6198340095
 20
3.6023709719
 11
-83.4250693992
 21
3.5550992196
  0
LWPOLYLINE
  5
55B
100
AcDbEntity
  8
RACCORDO
100
AcDbPolyline
 62
250
  6
CONTINUOUS
 90
8
 70
0
 10
-89.7606825589
 20
23.0667392205
 10
-89.7598981058
 20
23.0648170729
 10
-89.7592634944
 20
23.0596412516
 10
-89.7587784415
 20
23.0512117347
 10
-89.7584427673
 20
23.039471877
 10
-89.7582554807
 20
23.0244782875
 10
-89.7582150503
 20
23.0064008268
 10
-89.7585540847
 20
22.9901243449
  0
LWPOLYLINE
  5
55C
100
AcDbEntity
  8
RACCORDO
100
AcDbPolyline
 62
7
  6
CONTINUOUS
 90
7
 70
0
 10
-89.908307437
 20
-22.8352532246
 10
-89.9026550916
 20
-22.8312034609
 10
-89.8760531553
 20
-22.8146059132
 10
-89.8478641188
 20
-22.8008756775
 10
-89.8183958834
 20
-22.7901627484
 10
-89.7879703959
 20
-22.7825841891
 10
-89.7625287799
 20
-22.7790106187
  0
LWPOLYLINE
  5
55D
100
AcDbEntity
  8
RACCORDO
100
AcDbPolyline
 62
7
  6
CONTINUOUS
 90
6
 70
0
 10
-89.898898942
 20
22.8286181361
 10
-89.8760542697
 20
22.8146047876
 10
-89.8478650838
 20
22.8008743441
 10
-89.8183967538
 20
22.7901612717
 10
-89.7879712031
 20
22.7825826034
 10
-89.762528162
 20
22.7790087633
  0
LWPOLYLINE
  5
55E
100
AcDbEntity
  8
ASSI
100
AcDbPolyline
 62
250
  6
CONTINUOUS
 90
13
 70
0
 10
-85.6621535472
 20
-42.4474878347
 10
-85.6612143626
 20
-42.4456845237
 10
-85.6603948803
 20
-42.442236021
 10
-85.6596856239
 20
-42.4371416158
 10
-85.6590736735
 20
-42.4303475998
 10
-85.6585525684
 20
-42.4219062283
 10
-85.6581247072
 20
-42.4119758864
 10
-85.6577862873
 20
-42.4005353182
 10
-85.6575277966
 20
-42.3876047507
 10
-85.6573484
 20
-42.3734051688
 10
-85.6572472938
 20
-42.357918547
 10
-85.6572203037
 20
-42.3411624812
 10
-85.6573934284
 20
-42.3046498981
  0
LWPOLYLINE
  5
55F
100
AcDbEntity
  8
ASSI
100
AcDbPolyline
 62
250
  6
CONTINUOUS
 90
17
 70
0
 10
-85.7896838061
 20
-42.6095710889
 10
-85.7950376091
 20
-42.6186023763
 10
-85.7965605586
 20
-42.6211408808
 10
-85.7979632119
 20
-42.6234491166
 10
-85.7992529863
 20
-42.6255428438
 10
-85.8004439645
 20
-42.6274171146
 10
-85.8015461032
 20
-42.6290845485
 10
-85.8025626497
 20
-42.6305878171
 10
-85.8035031249
 20
-42.6319529552
 10
-85.8043771367
 20
-42.6331628652
 10
-85.8051800592
 20
-42.6341949063
 10
-85.805885312
 20
-42.6350604869
 10
-85.8064747339
 20
-42.6357505377
 10
-85.8069521168
 20
-42.6362118158
 10
-85.8072960706
 20
-42.6364341549
 10
-85.8074889968
 20
-42.6364322479
 10
-85.8075122733
 20
-42.636400157
  0
LWPOLYLINE
  5
560
100
AcDbEntity
  8
ASSI
100
AcDbPolyline
 62
250
  6
CONTINUOUS
 90
7
 70
0
 10
-85.7705024596
 20
-42.5781588129
 10
-85.7742890337
 20
-42.5842550664
 10
-85.777538122
 20
-42.5895758425
 10
-85.780434583
 20
-42.5941591752
 10
-85.7830165439
 20
-42.5984114382
 10
-85.7853779677
 20
-42.6024325706
 10
-85.7896838061
 20
-42.6095710889
  0
LINE
  5
561
100
AcDbEntity
  8
RACCORDO
100
AcDbLine
 62
250
  6
CONTINUOUS
 10
-89.9887365578
 20
22.2994209293
 11
-89.8272408071
 21
22.2862759854
  0
LINE
  5
562
100
AcDbEntity
  8
RACCORDO
100
AcDbLine
 62
250
  6
CONTINUOUS
 10
-89.8272408723
 20
22.2862759897
 11
-89.7786358259
 21
22.2820235991
  0
LINE
  5
563
100
AcDbEntity
  8
RACCORDO
100
AcDbLine
 62
250
  6
CONTINUOUS
 10
-90.0483986144
 20
22.3045577273
 11
-89.9887365578
 21
22.2994209293
  0
LWPOLYLINE
  5
564
100
AcDbEntity
  8
RACCORDO
100
AcDbPolyline
 62
250
  6
CONTINUOUS
 90
3
 70
0
 10
-89.7775267365
 20
23.0683826546
 10
-89.7696140218
 20
23.0675765487
 10
-89.7606825589
 20
23.0667392205
  0
LINE
  5
565
100
AcDbEntity
  8
RACCORDO
100
AcDbLine
 62
250
  6
CONTINUOUS
 10
-89.7973444356
 20
23.0705495614
 11
-89.7775267365
 21
23.0683826546
  0
LINE
  5
566
100
AcDbEntity
  8
RACCORDO
100
AcDbLine
 62
250
  6
CONTINUOUS
 10
-89.8150997576
 20
23.0726288884
 11
-89.7973444356
 21
23.0705495614
  0
LINE
  5
567
100
AcDbEntity
  8
RACCORDO
100
AcDbLine
 62
250
  6
CONTINUOUS
 10
-89.8331268978
 20
23.0748280514
 11
-89.8150997576
 21
23.0726288884
  0
LINE
  5
568
100
AcDbEntity
  8
RACCORDO
100
AcDbLine
 62
250
  6
CONTINUOUS
 10
-89.8578116351
 20
23.077968787
 11
-89.8331268978
 21
23.0748280514
  0
LINE
  5
569
100
AcDbEntity
  8
RACCORDO
100
AcDbLine
 62
250
  6
CONTINUOUS
 10
-89.8827258685
 20
23.0812739833
 11
-89.8578116351
 21
23.077968787
  0
LINE
  5
56A
100
AcDbEntity
  8
RACCORDO
100
AcDbLine
 62
250
  6
CONTINUOUS
 10
-89.9138918192
 20
23.0855826263
 11
-89.8827258685
 21
23.0812739833
  0
LINE
  5
56B
100
AcDbEntity
  8
RACCORDO
100
AcDbLine
 62
250
  6
CONTINUOUS
 10
-89.9525286066
 20
23.0911352773
 11
-89.9138918192
 21
23.0855826263
  0
LINE
  5
56C
100
AcDbEntity
  8
RACCORDO
100
AcDbLine
 62
250
  6
CONTINUOUS
 10
-90.0296846891
 20
23.1025426741
 11
-89.9525286066
 21
23.0911352773
  0
LWPOLYLINE
  5
56D
100
AcDbEntity
  8
RACCORDO
100
AcDbPolyline
 62
250
  6
CONTINUOUS
 90
6
 70
0
 10
-90.1001648964
 20
22.3097742938
 10
-90.0985242898
 20
22.3094425679
 10
-90.0940032519
 20
22.3088864881
 10
-90.0866455918
 20
22.3081114418
 10
-90.0765225896
 20
22.3071249369
 10
-90.0483986144
 20
22.3045577273
  0
LINE
  5
56E
100
AcDbEntity
  8
ASSI
100
AcDbLine
 62
250
  6
CONTINUOUS
 10
-85.796694039
 20
42.6213660452
 11
-85.7925177933
 21
42.6143622256
  0
LWPOLYLINE
  5
56F
100
AcDbEntity
  8
ASSI
100
AcDbPolyline
 62
250
  6
CONTINUOUS
 90
3
 70
0
 10
-85.7925177933
 20
42.6143622256
 10
-85.7891974396
 20
42.6087491568
 10
-85.7852594575
 20
42.6022437867
  0
LWPOLYLINE
  5
570
100
AcDbEntity
  8
ASSI
100
AcDbPolyline
 62
250
  6
CONTINUOUS
 90
17
 70
0
 10
-85.7852594575
 20
42.6022437867
 10
-85.7830539285
 20
42.5984711553
 10
-85.7805684295
 20
42.5943657556
 10
-85.7777053384
 20
42.5898504363
 10
-85.7744764927
 20
42.5845516635
 10
-85.7706931712
 20
42.5784124646
 10
-85.7661560183
 20
42.5714777888
 10
-85.7608928001
 20
42.5635289639
 10
-85.7548026025
 20
42.5544812829
 10
-85.7476735738
 20
42.5444117172
 10
-85.7394602241
 20
42.5333495079
 10
-85.7301283042
 20
42.5212514986
 10
-85.7195295518
 20
42.5081586224
 10
-85.7075049001
 20
42.4942297716
 10
-85.6939586524
 20
42.4795182741
 10
-85.6788627368
 20
42.4639713847
 10
-85.6621775562
 20
42.4475900609
  0
LWPOLYLINE
  5
571
100
AcDbEntity
  8
ASSI
100
AcDbPolyline
 62
250
  6
CONTINUOUS
 90
11
 70
0
 10
-85.6621535472
 20
-42.4474878347
 10
-85.678494984
 20
-42.4635998117
 10
-85.6934317169
 20
-42.4789742506
 10
-85.7069539279
 20
-42.4936079465
 10
-85.7190652662
 20
-42.5075854321
 10
-85.7297931978
 20
-42.5208167183
 10
-85.7392261386
 20
-42.5330402655
 10
-85.7475266763
 20
-42.5441934533
 10
-85.7547216816
 20
-42.5543414024
 10
-85.760819819
 20
-42.5634217846
 10
-85.7705024596
 20
-42.5781588129
  0
LWPOLYLINE
  5
572
100
AcDbEntity
  8
ASSI
100
AcDbPolyline
 62
250
  6
CONTINUOUS
 90
16
 70
0
 10
-81.6198338964
 20
41.4532975918
 10
-81.7377879158
 20
41.5292270765
 10
-81.8576103774
 20
41.6006799474
 10
-81.9790536813
 20
41.6676562047
 10
-82.1013683397
 20
41.7299409689
 10
-82.2248100482
 20
41.7877491195
 10
-82.3507363107
 20
41.8417252944
 10
-82.4789035832
 20
41.8920315591
 10
-82.6092638377
 20
41.9385058482
 10
-82.7436306761
 20
41.9813066033
 10
-82.8830150231
 20
42.0207972761
 10
-83.0262404601
 20
42.056614415
 10
-83.1718532241
 20
42.0878261066
 10
-83.319229515
 20
42.1141217134
 10
-83.4686216647
 20
42.1358118729
 10
-83.6198340013
 20
42.1528965853
  0
LWPOLYLINE
  5
573
100
AcDbEntity
  8
ASSI
100
AcDbPolyline
 62
250
  6
CONTINUOUS
 90
19
 70
0
 10
-85.1772840333
 20
42.9092158646
 10
-85.2179185132
 20
42.9064888961
 10
-85.2581957682
 20
42.9004565051
 10
-85.2978479792
 20
42.8911588031
 10
-85.3366114833
 20
42.8786576142
 10
-85.3742285268
 20
42.8630360637
 10
-85.4104489793
 20
42.8443980253
 10
-85.445031997
 20
42.8228674307
 10
-85.4777476239
 20
42.7985874451
 10
-85.5083783211
 20
42.7717195157
 10
-85.5367204132
 20
42.7424422976
 10
-85.5625854425
 20
42.7109504666
 10
-85.5858014224
 20
42.6774534241
 10
-85.6062139809
 20
42.6421739049
 10
-85.6236873868
 20
42.6053464963
 10
-85.6381054528
 20
42.5672160782
 10
-85.6493723074
 20
42.5280361944
 10
-85.657413033
 20
42.4880673672
 10
-85.6621741636
 20
42.4475753651
  0
LWPOLYLINE
  5
574
100
AcDbEntity
  8
ASSI
100
AcDbPolyline
 62
7
  6
CONTINUOUS
 90
15
 70
0
 10
-85.3778207926
 20
42.9039646247
 10
-85.4161855044
 20
42.9014814857
 10
-85.4542494754
 20
42.8960573774
 10
-85.4917875139
 20
42.8877235731
 10
-85.5285781941
 20
42.8765283089
 10
-85.5644028542
 20
42.8625371809
 10
-85.5990471127
 20
42.8458333443
 10
-85.6323049671
 20
42.8265159782
 10
-85.6639804834
 20
42.8046987363
 10
-85.6938866857
 20
42.780509982
 10
-85.721846522
 20
42.7540923108
 10
-85.7476939725
 20
42.7256019352
 10
-85.7712756687
 20
42.6952072673
 10
-85.7924516681
 20
42.6630880008
 10
-85.8075123745
 20
42.6363983618
  0
LINE
  5
575
100
AcDbEntity
  8
ASSI
100
AcDbLine
 62
250
  6
CONTINUOUS
 10
-85.1766626617
 20
42.1095062758
 11
-83.6198340095
 21
42.1502732688
  0
LINE
  5
576
100
AcDbEntity
  8
ASSI
100
AcDbLine
 62
7
  6
CONTINUOUS
 10
-85.3778142194
 20
42.9039647969
 11
-83.6198340095
 21
42.9499991288
  0
LINE
  5
577
100
AcDbEntity
  8
ASSI
100
AcDbLine
 62
250
  6
CONTINUOUS
 10
-85.6487432882
 20
42.1311432194
 11
-85.1766822593
 21
42.1095058378
  0
LINE
  5
578
100
AcDbEntity
  8
ASSI
100
AcDbLine
 62
250
  6
CONTINUOUS
 10
-85.6616024038
 20
42.1318149474
 11
-85.6487432882
 21
42.1311432194
  0
ARC
  5
579
100
AcDbEntity
  8
ASSI
100
AcDbCircle
 62
7
  6
CONTINUOUS
 10
-84.0498340095
 20
-38.6731805333
 40
4.0
100
AcDbArc
 50
276.1712216282
 51
307.4089400017
  0
ARC
  5
57A
100
AcDbEntity
  8
ASSI
100
AcDbCircle
 62
7
  6
CONTINUOUS
 10
-84.0498340095
 20
38.6731787909
 40
4.0
100
AcDbArc
 50
52.5910594295
 51
83.8287779178
  0
ARC
  5
57B
100
AcDbEntity
  8
RACCORDO
100
AcDbCircle
 62
7
  6
CONTINUOUS
 10
-83.4198340095
 20
-3.3551694971
 40
0.2
100
AcDbArc
 50
180.0
 51
268.5
  0
ARC
  5
57C
100
AcDbEntity
  8
RACCORDO
100
AcDbCircle
 62
7
  6
CONTINUOUS
 10
-83.4198340095
 20
3.3551677546
 40
0.2
100
AcDbArc
 50
91.5
 51
180.0
  0
ELLIPSE
  5
57D
100
AcDbEntity
  8
RACCORDO
100
AcDbEllipse
 62
7
  6
CONTINUOUS
 10
33.348089176
 20
-22.0980909525
 30
0.0
 11
-0.3562493039
 21
0.3562493039
 31
0.0
 40
0.9924325091
 41
2.3599925885
 42
3.9231927187
  0
ELLIPSE
  5
57E
100
AcDbEntity
  8
RACCORDO
100
AcDbEllipse
 62
7
  6
CONTINUOUS
 10
11.6519090135
 20
-22.0980909525
 30
0.0
 11
0.3562493039
 21
0.3562493039
 31
0.0
 40
0.9924325091
 41
2.3599925885
 42
3.9231927187
  0
ELLIPSE
  5
57F
100
AcDbEntity
  8
RACCORDO
100
AcDbEllipse
 62
7
  6
CONTINUOUS
 10
11.6519090135
 20
22.09808921
 30
0.0
 11
0.3562493039
 21
-0.3562493039
 31
0.0
 40
0.9924325091
 41
2.3599925885
 42
3.9231927187
  0
ELLIPSE
  5
580
100
AcDbEntity
  8
RACCORDO
100
AcDbEllipse
 62
7
  6
CONTINUOUS
 10
33.348089176
 20
22.09808921
 30
0.0
 11
-0.3562493039
 21
-0.3562493039
 31
0.0
 40
0.9924325091
 41
2.3599925885
 42
3.9231927187
  0
ELLIPSE
  5
581
100
AcDbEntity
  8
RACCORDO
100
AcDbEllipse
 62
7
  6
CONTINUOUS
 10
-33.3480909865
 20
-22.0980909525
 30
0.0
 11
0.3562493039
 21
0.3562493039
 31
0.0
 40
0.9924325091
 41
2.3599925885
 42
3.9231927187
  0
ELLIPSE
  5
582
100
AcDbEntity
  8
RACCORDO
100
AcDbEllipse
 62
7
  6
CONTINUOUS
 10
-11.651910824
 20
-22.0980909525
 30
0.0
 11
-0.3562493039
 21
0.3562493039
 31
0.0
 40
0.9924325091
 41
2.3599925885
 42
3.9231927187
  0
ELLIPSE
  5
583
100
AcDbEntity
  8
RACCORDO
100
AcDbEllipse
 62
7
  6
CONTINUOUS
 10
-11.651910824
 20
22.09808921
 30
0.0
 11
-0.3562493039
 21
-0.3562493039
 31
0.0
 40
0.9924325091
 41
2.3599925885
 42
3.9231927187
  0
ELLIPSE
  5
584
100
AcDbEntity
  8
RACCORDO
100
AcDbEllipse
 62
7
  6
CONTINUOUS
 10
-33.3480909865
 20
22.09808921
 30
0.0
 11
0.3562493039
 21
-0.3562493039
 31
0.0
 40
0.9924325091
 41
2.3599925885
 42
3.9231927187
  0
ELLIPSE
  5
585
100
AcDbEntity
  8
ASSI
100
AcDbEllipse
 62
7
  6
CONTINUOUS
 10
-59.1497266712
 20
42.1497248948
 30
0.0
 11
0.566073184
 21
-0.566073184
 31
0.0
 40
0.999315002
 41
2.3565371065
 42
3.9266482006
  0
ELLIPSE
  5
586
100
AcDbEntity
  8
ASSI
100
AcDbEllipse
 62
7
  6
CONTINUOUS
 10
59.1497248608
 20
42.1497248948
 30
0.0
 11
0.566073184
 21
0.566073184
 31
0.0
 40
0.999315002
 41
-0.7850555471
 42
0.7850555471
  0
ELLIPSE
  5
587
100
AcDbEntity
  8
ASSI
100
AcDbEllipse
 62
7
  6
CONTINUOUS
 10
59.1497248608
 20
-42.1497266372
 30
0.0
 11
0.566073184
 21
-0.566073184
 31
0.0
 40
0.999315002
 41
-0.7850555471
 42
0.7850555471
  0
ELLIPSE
  5
588
100
AcDbEntity
  8
ASSI
100
AcDbEllipse
 62
7
  6
CONTINUOUS
 10
-59.1497266712
 20
-42.1497266372
 30
0.0
 11
0.566073184
 21
0.566073184
 31
0.0
 40
0.999315002
 41
2.3565371065
 42
3.9266482006
  0
ENDSEC
  0
SECTION
  2
OBJECTS
  0
DICTIONARY
  5
C
100
AcDbDictionary
280
0
281
1
  3
ACAD_GROUP
350
D
  3
ACAD_MLINESTYLE
350
17
  3
ACAD_LAYOUT
350
1A
  3
ACAD_PLOTSETTINGS
350
19
  3
ACAD_PLOTSTYLENAME
350
E
  0
DICTIONARY
  5
D
102
{ACAD_REACTORS
330
C
102
}
100
AcDbDictionary
280
0
281
1
  0
ACDBDICTIONARYWDFLT
  5
E
102
{ACAD_REACTORS
330
C
102
}
100
AcDbDictionary
281
1
  3
Normal
350
F
100
AcDbDictionaryWithDefault
340
F
  0
DICTIONARY
  5
17
102
{ACAD_REACTORS
330
C
102
}
100
AcDbDictionary
280
0
281
1
  3
Standard
350
18
  0
DICTIONARY
  5
19
102
{ACAD_REACTORS
330
C
102
}
100
AcDbDictionary
281
1
  0
DICTIONARY
  5
1A
102
{ACAD_REACTORS
330
C
102
}
100
AcDbDictionary
281
1
  3
Model
350
589
  3
Layout1
350
58A
  0
ACDBPLACEHOLDER
  5
F
102
{ACAD_REACTORS
330
E
102
}
  0
MLINESTYLE
  5
18
102
{ACAD_REACTORS
330
17
102
}
100
AcDbMlineStyle
  2
STANDARD
 70
0
  3

 62
256
 51
90.0
 52
90.0
 71
2
 49
0.5
 62
256
  6
BYLAYER
 49
-0.5
 62
256
  6
BYLAYER
  0
LAYOUT
  5
589
102
{ACAD_REACTORS
330
1A
102
}
100
AcDbPlotSettings
  1

  2
none_device
  4
ISO_A4_(297.00_x_210.00_MM)
  6

 40
0.0
 41
0.0
 42
0.0
 43
0.0
 44
297.0
 45
210.0
 46
0.0
 47
0.0
 48
0.0
 49
0.0
140
0.0
141
0.0
142
1.0
143
1.0
 70
1024
 72
1
 73
0
 74
0
  7

 75
0
147
1.0
148
0.0
149
0.0
100
AcDbLayout
  1
Model
 70
0
 71
0
 10
0.0
 20
0.0
 11
297.0
 21
210.0
 12
0.0
 22
0.0
 32
0.0
 14
0.0
 24
0.0
 34
0.0
 15
0.0
 25
0.0
 35
0.0
146
0.0
 13
0.0
 23
0.0
 33
0.0
 16
1.0
 26
0.0
 36
0.0
 17
0.0
 27
1.0
 37
0.0
 76
0
330
212
345
0
346
0
  0
LAYOUT
  5
58A
102
{ACAD_REACTORS
330
1A
102
}
100
AcDbPlotSettings
  1

  2
none_device
  4
ISO_A4_(297.00_x_210.00_MM)
  6

 40
0.0
 41
0.0
 42
0.0
 43
0.0
 44
297.0
 45
210.0
 46
0.0
 47
0.0
 48
0.0
 49
0.0
140
0.0
141
0.0
142
1.0
143
1.0
 70
0
 72
1
 73
0
 74
0
  7

 75
0
147
1.0
148
0.0
149
0.0
100
AcDbLayout
  1
Layout1
 70
0
 71
1
 10
0.0
 20
0.0
 11
297.0
 21
210.0
 12
0.0
 22
0.0
 32
0.0
 14
0.0
 24
0.0
 34
0.0
 15
0.0
 25
0.0
 35
0.0
146
0.0
 13
0.0
 23
0.0
 33
0.0
 16
1.0
 26
0.0
 36
0.0
 17
0.0
 27
1.0
 37
0.0
 76
0
330
213
345
0
346
0
  0
ENDSEC
  0
EOF
