  0
SECTION
  2
HEADER
  9
$ACADVER
  1
AC1024
  9
$DWGCODEPAGE
  3
ANSI_1252
  9
$EXTMAX
 10
297.0
 20
210.0
 30
0.0
  9
$EXTMIN
 10
0.0
 20
0.0
 30
0.0
  9
$LIMMIN
 10
0.0
 20
0.0
  9
$LIMMAX
 10
297.0
 20
210.0
  9
$VIEWCTR
 10
148.5
 20
105.0
  9
$VIEWSIZE
 40
210.0
  9
$CLAYER
  8
0
  9
$LTSCALE
 40
16.335
  9
$CELTYPE
  6
BYLAYER
  9
$DIMSCALE
 40
1.0
  9
$DIMASZ
 40
3.0
  9
$DIMEXO
 40
0.5
  9
$DIMDLI
 40
11.286
  9
$DIMEXE
 40
1.5
  9
$DIMCEN
 40
2.673
  9
$DIMLFAC
 40
1.0
  9
$DIMBLK
  1
_FILLED
  9
$DIMALT
 70
0
  9
$DIMALTF
 40
0.0393700787
  9
$DIMTXT
 40
3.0
  9
$DIMTOL
 70
1
  9
$DIMLIM
 70
0
  9
$DIMTFAC
 40
1.0
  9
$DIMTP
 40
0.01
  9
$DIMTM
 40
0.01
  9
$DIMGAP
 40
0.625
  9
$DIMDSEP
 70
44
  9
$AUNITS
 70
0
  9
$PDMODE
 70
3
  9
$PDSIZE
 40
3.0
  9
$HANDSEED
  5
3B3
  9
$TILEMODE
 70
1
  9
$MEASUREMENT
 70
1
  9
$INSUNITS
 70
4
  0
ENDSEC
  0
SECTION
  2
CLASSES
  0
CLASS
  1
ACDBDICTIONARYWDFLT
  2
AcDbDictionaryWithDefault
  3
AutoCAD 2000
 90
0
 91
1
280
0
281
0
  0
CLASS
  1
ACDBPLACEHOLDER
  2
AcDbPlaceHolder
  3
AutoCAD 2000
 90
0
 91
1
280
0
281
0
  0
CLASS
  1
LAYOUT
  2
AcDbLayout
  3
AutoCAD 2000
 90
0
 91
0
280
0
281
0
  0
ENDSEC
  0
SECTION
  2
TABLES
  0
TABLE
  2
VPORT
  5
8
100
AcDbSymbolTable
 70
2
  0
VPORT
  5
1F4
100
AcDbSymbolTableRecord
100
AcDbViewportTableRecord
  2
*ACTIVE
 70
0
 10
0.0
 20
0.0
 11
1.0
 21
1.0
 12
148.5
 22
105.0
 13
0.0
 23
0.0
 14
1.0
 24
1.0
 15
0.0
 25
0.0
 16
0.0
 26
0.0
 36
1.0
 17
0.0
 27
0.0
 37
0.0
 40
210.0
 41
1.4142857143
 42
50.0
 43
0.0
 44
0.0
 50
0.0
 51
0.0
 71
0
 72
100
 73
1
 74
1
 75
0
 76
0
 77
0
 78
0
  0
ENDTAB
  0
TABLE
  2
LTYPE
  5
5
100
AcDbSymbolTable
 70
6
  0
LTYPE
  5
14
100
AcDbSymbolTableRecord
100
AcDbLinetypeTableRecord
  2
BYBLOCK
 70
0
  3

 72
65
 73
0
 40
0.0
  0
LTYPE
  5
15
100
AcDbSymbolTableRecord
100
AcDbLinetypeTableRecord
  2
BYLAYER
 70
0
  3

 72
65
 73
0
 40
0.0
  0
LTYPE
  5
16
100
AcDbSymbolTableRecord
100
AcDbLinetypeTableRecord
  2
CONTINUOUS
 70
64
  3
Solid line
 72
65
 73
0
 40
0.0
  0
LTYPE
  5
1F5
100
AcDbSymbolTableRecord
100
AcDbLinetypeTableRecord
  2
CENTER
 70
64
  3
____ _ ____ _ ____ _ ____ _ ____ _ ____ _ ____
 72
65
 73
4
 40
0.6
 49
0.375
 74
0
 49
-0.075
 74
0
 49
0.075
 74
0
 49
-0.075
 74
0
  0
LTYPE
  5
1F6
100
AcDbSymbolTableRecord
100
AcDbLinetypeTableRecord
  2
HIDDEN
 70
64
  3
- - - - - - - - - - - - - - - - - - - -
 72
65
 73
2
 40
0.2
 49
0.1
 74
0
 49
-0.1
 74
0
  0
LTYPE
  5
1F7
100
AcDbSymbolTableRecord
100
AcDbLinetypeTableRecord
  2
PHANTOM
 70
64
  3
_____ _ _ _____ _ _ _____ _ _ _____
 72
65
 73
6
 40
0.8
 49
0.45
 74
0
 49
-0.05
 74
0
 49
0.1
 74
0
 49
-0.05
 74
0
 49
0.1
 74
0
 49
-0.05
 74
0
  0
LTYPE
  5
1F8
100
AcDbSymbolTableRecord
100
AcDbLinetypeTableRecord
  2
DOT
 70
64
  3
. . . . . . . . . . . . . . . . . . . .
 72
65
 73
2
 40
0.2
 49
0.1
 74
0
 49
-0.1
 74
0
  0
LTYPE
  5
1F9
100
AcDbSymbolTableRecord
100
AcDbLinetypeTableRecord
  2
DASHED
 70
64
  3
- - - - - - - - - - - - - - - - - - - -
 72
65
 73
2
 40
0.2
 49
0.1
 74
0
 49
-0.1
 74
0
  0
ENDTAB
  0
TABLE
  2
LAYER
  5
2
100
AcDbSymbolTable
 70
36
  0
LAYER
  5
10
100
AcDbSymbolTableRecord
100
AcDbLayerTableRecord
  2
0
 70
0
 62
7
  6
CONTINUOUS
370
-3
390
F
  0
LAYER
  5
1FA
100
AcDbSymbolTableRecord
100
AcDbLayerTableRecord
  2
DEFAULT_1
 70
0
 62
7
  6
CENTER
370
-3
390
F
  0
LAYER
  5
1FB
100
AcDbSymbolTableRecord
100
AcDbLayerTableRecord
  2
DEFAULT_2
 70
0
 62
7
  6
HIDDEN
370
-3
390
F
  0
LAYER
  5
1FC
100
AcDbSymbolTableRecord
100
AcDbLayerTableRecord
  2
DEFAULT_3
 70
0
 62
7
  6
PHANTOM
370
-3
390
F
  0
LAYER
  5
1FD
100
AcDbSymbolTableRecord
100
AcDbLayerTableRecord
  2
ASSI
 70
0
 62
7
  6
CONTINUOUS
370
-3
390
F
  0
LAYER
  5
1FE
100
AcDbSymbolTableRecord
100
AcDbLayerTableRecord
  2
COORDINATE
 70
0
 62
7
  6
CONTINUOUS
370
-3
390
F
  0
LAYER
  5
1FF
100
AcDbSymbolTableRecord
100
AcDbLayerTableRecord
  2
COORD_ORIGINE
 70
0
 62
7
  6
CONTINUOUS
370
-3
390
F
  0
LAYER
  5
200
100
AcDbSymbolTableRecord
100
AcDbLayerTableRecord
  2
COPY_PUBLISH
 70
0
 62
7
  6
CONTINUOUS
370
-3
390
F
  0
LAYER
  5
201
100
AcDbSymbolTableRecord
100
AcDbLayerTableRecord
  2
COSMETICI
 70
0
 62
7
  6
CONTINUOUS
370
-3
390
F
  0
LAYER
  5
202
100
AcDbSymbolTableRecord
100
AcDbLayerTableRecord
  2
CURVE
 70
0
 62
7
  6
CONTINUOUS
370
-3
390
F
  0
LAYER
  5
203
100
AcDbSymbolTableRecord
100
AcDbLayerTableRecord
  2
DRAFT
 70
0
 62
7
  6
CONTINUOUS
370
-3
390
F
  0
LAYER
  5
204
100
AcDbSymbolTableRecord
100
AcDbLayerTableRecord
  2
IGES
 70
0
 62
7
  6
CONTINUOUS
370
-3
390
F
  0
LAYER
  5
205
100
AcDbSymbolTableRecord
100
AcDbLayerTableRecord
  2
IMPORT_IGES
 70
0
 62
7
  6
CONTINUOUS
370
-3
390
F
  0
LAYER
  5
206
100
AcDbSymbolTableRecord
100
AcDbLayerTableRecord
  2
INTFCLR_2
 70
0
 62
7
  6
CONTINUOUS
370
-3
390
F
  0
LAYER
  5
207
100
AcDbSymbolTableRecord
100
AcDbLayerTableRecord
  2
INTFCLR_3
 70
0
 62
7
  6
CONTINUOUS
370
-3
390
F
  0
LAYER
  5
208
100
AcDbSymbolTableRecord
100
AcDbLayerTableRecord
  2
INTFCLR_4
 70
0
 62
7
  6
CONTINUOUS
370
-3
390
F
  0
LAYER
  5
209
100
AcDbSymbolTableRecord
100
AcDbLayerTableRecord
  2
NOTE
 70
0
 62
7
  6
CONTINUOUS
370
-3
390
F
  0
LAYER
  5
20A
100
AcDbSymbolTableRecord
100
AcDbLayerTableRecord
  2
PIANI
 70
0
 62
7
  6
CONTINUOUS
370
-3
390
F
  0
LAYER
  5
20B
100
AcDbSymbolTableRecord
100
AcDbLayerTableRecord
  2
PIANI_ORIGINE
 70
0
 62
7
  6
CONTINUOUS
370
-3
390
F
  0
LAYER
  5
20C
100
AcDbSymbolTableRecord
100
AcDbLayerTableRecord
  2
PIANI_RIFERIMENTO
 70
0
 62
7
  6
CONTINUOUS
370
-3
390
F
  0
LAYER
  5
20D
100
AcDbSymbolTableRecord
100
AcDbLayerTableRecord
  2
PUNTI
 70
0
 62
7
  6
CONTINUOUS
370
-3
390
F
  0
LAYER
  5
20E
100
AcDbSymbolTableRecord
100
AcDbLayerTableRecord
  2
RACCORDO
 70
0
 62
7
  6
CONTINUOUS
370
-3
390
F
  0
LAYER
  5
20F
100
AcDbSymbolTableRecord
100
AcDbLayerTableRecord
  2
SIMBOLI
 70
0
 62
7
  6
CONTINUOUS
370
-3
390
F
  0
LAYER
  5
210
100
AcDbSymbolTableRecord
100
AcDbLayerTableRecord
  2
SMUSSO
 70
0
 62
7
  6
CONTINUOUS
370
-3
390
F
  0
LAYER
  5
211
100
AcDbSymbolTableRecord
100
AcDbLayerTableRecord
  2
SNAPLINE
 70
0
 62
7
  6
CONTINUOUS
370
-3
390
F
  0
LAYER
  5
212
100
AcDbSymbolTableRecord
100
AcDbLayerTableRecord
  2
SUPERFICI
 70
0
 62
7
  6
CONTINUOUS
370
-3
390
F
  0
LAYER
  5
213
100
AcDbSymbolTableRecord
100
AcDbLayerTableRecord
  2
TRASH
 70
0
 62
7
  6
CONTINUOUS
370
-3
390
F
  0
LAYER
  5
214
100
AcDbSymbolTableRecord
100
AcDbLayerTableRecord
  2
XSEC_DATUMS
 70
0
 62
7
  6
CONTINUOUS
370
-3
390
F
  0
ENDTAB
  0
TABLE
  2
STYLE
  5
3
100
AcDbSymbolTable
 70
1
  0
STYLE
  5
11
100
AcDbSymbolTableRecord
100
AcDbTextStyleTableRecord
  2
STANDARD
 70
0
 40
0.0
 41
0.8
 50
0.0
 71
0
 42
0.2
  3
txt
  4

  0
STYLE
  5
215
100
AcDbSymbolTableRecord
100
AcDbTextStyleTableRecord
  2
TEXTSTYLE_1
 70
0
 40
0.0
 41
0.8
 50
0.0
 71
0
 42
0.2
  3
gdt
  4

  0
ENDTAB
  0
TABLE
  2
VIEW
  5
6
100
AcDbSymbolTable
 70
0
  0
ENDTAB
  0
TABLE
  2
UCS
  5
7
100
AcDbSymbolTable
 70
0
  0
ENDTAB
  0
TABLE
  2
APPID
  5
9
100
AcDbSymbolTable
 70
1
  0
APPID
  5
216
100
AcDbSymbolTableRecord
100
AcDbRegAppTableRecord
  2
ACAD
 70
0
  0
ENDTAB
  0
TABLE
  2
BLOCK_RECORD
  5
1
100
AcDbSymbolTable
 70
0
  0
BLOCK_RECORD
  5
217
100
AcDbSymbolTableRecord
100
AcDbBlockTableRecord
  2
*Model_Space
  0
BLOCK_RECORD
  5
218
100
AcDbSymbolTableRecord
100
AcDbBlockTableRecord
  2
*Paper_Space
  0
BLOCK_RECORD
  5
219
100
AcDbSymbolTableRecord
100
AcDbBlockTableRecord
  2
_FILLED
  0
BLOCK_RECORD
  5
21A
100
AcDbSymbolTableRecord
100
AcDbBlockTableRecord
  2
*D0
  0
BLOCK_RECORD
  5
21B
100
AcDbSymbolTableRecord
100
AcDbBlockTableRecord
  2
*D1
  0
BLOCK_RECORD
  5
21C
100
AcDbSymbolTableRecord
100
AcDbBlockTableRecord
  2
*D2
  0
ENDTAB
  0
TABLE
  2
DIMSTYLE
  5
A
100
AcDbSymbolTable
 70
1
100
AcDbDimStyleTable
 71
0
  0
DIMSTYLE
105
21D
100
AcDbSymbolTableRecord
100
AcDbDimStyleTableRecord
  2
STANDARD
 70
0
  3

  4

 40
1.0
 41
3.0
 42
0.5
 43
0.38
 44
1.5
 45
0.0
 46
0.0
 47
0.01
 48
0.01
140
3.0
141
0.09
142
0.0
143
25.4
144
1.0
145
0.0
146
1.0
147
0.625
 71
1
 72
0
 73
0
 74
0
 75
0
 76
0
 77
1
 78
8
 79
2
170
0
171
1
172
0
173
0
174
0
175
0
176
0
177
0
178
0
270
2
179
2
271
2
272
2
273
2
274
2
275
0
280
0
281
0
282
0
283
1
284
8
285
0
286
0
287
3
288
0
340
11
278
44
341
219
342
219
343
219
344
219
  0
DIMSTYLE
105
21E
100
AcDbSymbolTableRecord
100
AcDbDimStyleTableRecord
  2
DIMSTYLE_1
 70
0
  3

  4

 40
1.0
 41
3.0
 42
0.5
 43
0.38
 44
1.5
 45
0.0
 46
0.0
 47
0.0
 48
0.0
140
3.0
141
0.09
142
0.0
143
25.4
144
1.0
145
0.0
146
1.0
147
0.75
 71
0
 72
0
 73
0
 74
0
 75
0
 76
0
 77
1
 78
8
 79
2
170
0
171
1
172
0
173
0
174
0
175
0
176
0
177
0
178
0
270
2
179
2
271
2
272
2
273
2
274
2
275
0
280
0
281
0
282
0
283
1
284
8
285
0
286
0
287
3
288
0
340
11
278
44
341
219
342
219
343
219
344
219
  0
DIMSTYLE
105
21F
100
AcDbSymbolTableRecord
100
AcDbDimStyleTableRecord
  2
DIMSTYLE_2
 70
0
  3

  4

 40
1.0
 41
3.0
 42
0.5
 43
0.38
 44
1.5
 45
0.0
 46
0.0
 47
0.0
 48
0.0
140
3.0
141
0.09
142
0.0
143
25.4
144
1.0
145
0.0
146
1.0
147
0.75
 71
0
 72
0
 73
0
 74
0
 75
0
 76
0
 77
1
 78
8
 79
2
170
0
171
1
172
0
173
0
174
0
175
0
176
0
177
0
178
0
270
2
179
2
271
1
272
1
273
2
274
2
275
0
280
0
281
0
282
0
283
1
284
8
285
0
286
0
287
3
288
0
340
11
278
44
341
219
342
219
343
219
344
219
  0
ENDTAB
  0
ENDSEC
  0
SECTION
  2
BLOCKS
  0
BLOCK
  5
20
100
AcDbEntity
  8
0
100
AcDbBlockBegin
  2
*Model_Space
 70
0
 10
0.0
 20
0.0
 30
0.0
  3
*Model_Space
  1

  0
ENDBLK
  5
21
100
AcDbEntity
  8
0
100
AcDbBlockEnd
  0
BLOCK
  5
1C
100
AcDbEntity
  8
0
100
AcDbBlockBegin
  2
*Paper_Space
 70
0
 10
0.0
 20
0.0
 30
0.0
  3
*Paper_Space
  1

  0
ENDBLK
  5
1D
100
AcDbEntity
  8
0
100
AcDbBlockEnd
  0
BLOCK
  5
220
100
AcDbEntity
  8
0
100
AcDbBlockBegin
  2
_FILLED
 70
64
 10
0.0
 20
0.0
  3
_FILLED
  1

  0
SOLID
  5
221
100
AcDbEntity
  8
0
  6
BYBLOCK
 62
0
100
AcDbTrace
 10
0.0
 20
0.0
 11
-1.0
 21
0.3166666667
 12
-1.0
 22
-0.3166666667
 13
-1.0
 23
-0.3166666667
  0
ENDBLK
  5
222
100
AcDbEntity
  8
0
  6
BYBLOCK
 62
0
100
AcDbBlockEnd
  0
BLOCK
  5
223
100
AcDbEntity
  8
0
100
AcDbBlockBegin
 62
7
  6
CONTINUOUS
  2
*D0
 70
65
 10
0.0
 20
0.0
  3
*D0
  1

  0
LINE
  5
224
100
AcDbEntity
  8
0
100
AcDbLine
 62
7
  6
CONTINUOUS
 10
159.9199497013
 20
116.1630230861
 11
159.9199497013
 21
134.2238849904
  0
LINE
  5
225
100
AcDbEntity
  8
0
100
AcDbLine
 62
7
  6
CONTINUOUS
 10
182.2199497013
 20
116.1630230861
 11
182.2199497013
 21
134.2238849904
  0
LINE
  5
226
100
AcDbEntity
  8
0
100
AcDbLine
 62
7
  6
CONTINUOUS
 10
159.9199497013
 20
132.7238849904
 11
171.0699497013
 21
132.7238849904
  0
LINE
  5
227
100
AcDbEntity
  8
0
100
AcDbLine
 62
7
  6
CONTINUOUS
 10
182.2199497013
 20
132.7238849904
 11
171.0699497013
 21
132.7238849904
  0
INSERT
  5
228
100
AcDbEntity
  8
0
100
AcDbBlockReference
 62
7
  6
CONTINUOUS
  2
_FILLED
 10
159.9199497013
 20
132.7238849904
 41
3.0
 42
3.0
 43
3.0
 50
180.0
  0
INSERT
  5
229
100
AcDbEntity
  8
0
100
AcDbBlockReference
 62
7
  6
CONTINUOUS
  2
_FILLED
 10
182.2199497013
 20
132.7238849904
 41
3.0
 42
3.0
 43
3.0
  0
ENDBLK
  5
22A
100
AcDbEntity
  8
0
  6
BYBLOCK
 62
0
100
AcDbBlockEnd
  0
BLOCK
  5
22B
100
AcDbEntity
  8
0
100
AcDbBlockBegin
 62
7
  6
CONTINUOUS
  2
*D1
 70
65
 10
0.0
 20
0.0
  3
*D1
  1

  0
LINE
  5
22C
100
AcDbEntity
  8
0
100
AcDbLine
 62
7
  6
CONTINUOUS
 10
182.2064956407
 20
124.7223357918
 11
191.7199497013
 21
124.7223357918
  0
LINE
  5
22D
100
AcDbEntity
  8
0
100
AcDbLine
 62
7
  6
CONTINUOUS
 10
182.2064956407
 20
80.4037103803
 11
191.7199497013
 21
80.4037103803
  0
LINE
  5
22E
100
AcDbEntity
  8
0
100
AcDbLine
 62
7
  6
CONTINUOUS
 10
190.2199497013
 20
124.7223357918
 11
190.2199497013
 21
102.5630230861
  0
LINE
  5
22F
100
AcDbEntity
  8
0
100
AcDbLine
 62
7
  6
CONTINUOUS
 10
190.2199497013
 20
80.4037103803
 11
190.2199497013
 21
102.5630230861
  0
INSERT
  5
230
100
AcDbEntity
  8
0
100
AcDbBlockReference
 62
7
  6
CONTINUOUS
  2
_FILLED
 10
190.2199497013
 20
124.7223357918
 41
3.0
 42
3.0
 43
3.0
 50
90.0
  0
INSERT
  5
231
100
AcDbEntity
  8
0
100
AcDbBlockReference
 62
7
  6
CONTINUOUS
  2
_FILLED
 10
190.2199497013
 20
80.4037103803
 41
3.0
 42
3.0
 43
3.0
 50
270.0
  0
ENDBLK
  5
232
100
AcDbEntity
  8
0
  6
BYBLOCK
 62
0
100
AcDbBlockEnd
  0
BLOCK
  5
233
100
AcDbEntity
  8
0
100
AcDbBlockBegin
 62
7
  6
CONTINUOUS
  2
*D2
 70
65
 10
0.0
 20
0.0
  3
*D2
  1

  0
LINE
  5
234
100
AcDbEntity
  8
0
100
AcDbLine
 62
7
  6
CONTINUOUS
 10
128.2380790994
 20
116.1630230861
 11
128.2380790994
 21
134.2223357918
  0
LINE
  5
235
100
AcDbEntity
  8
0
100
AcDbLine
 62
7
  6
CONTINUOUS
 10
122.5382003061
 20
103.4111666827
 11
122.5382003061
 21
134.2223357918
  0
LINE
  5
236
100
AcDbEntity
  8
0
100
AcDbLine
 62
7
  6
CONTINUOUS
 10
128.2380790994
 20
132.7223357918
 11
142.5385936979
 21
132.7223357918
  0
LINE
  5
237
100
AcDbEntity
  8
0
100
AcDbLine
 62
7
  6
CONTINUOUS
 10
142.5385936979
 20
132.7223357918
 11
125.3881397027
 21
132.7223357918
  0
LINE
  5
238
100
AcDbEntity
  8
0
100
AcDbLine
 62
7
  6
CONTINUOUS
 10
122.5382003061
 20
132.7223357918
 11
118.5382003061
 21
132.7223357918
  0
LINE
  5
239
100
AcDbEntity
  8
0
100
AcDbLine
 62
7
  6
CONTINUOUS
 10
118.5382003061
 20
132.7223357918
 11
125.3881397027
 21
132.7223357918
  0
INSERT
  5
23A
100
AcDbEntity
  8
0
100
AcDbBlockReference
 62
7
  6
CONTINUOUS
  2
_FILLED
 10
128.2380790994
 20
132.7223357918
 41
3.0
 42
3.0
 43
3.0
 50
180.0
  0
INSERT
  5
23B
100
AcDbEntity
  8
0
100
AcDbBlockReference
 62
7
  6
CONTINUOUS
  2
_FILLED
 10
122.5382003061
 20
132.7223357918
 41
3.0
 42
3.0
 43
3.0
  0
ENDBLK
  5
23C
100
AcDbEntity
  8
0
  6
BYBLOCK
 62
0
100
AcDbBlockEnd
  0
ENDSEC
  0
SECTION
  2
ENTITIES
  0
DIMENSION
  5
23D
100
AcDbEntity
  8
0
100
AcDbDimension
 62
7
  6
CONTINUOUS
  2
*D0
 10
182.2199497013
 20
132.7238849904
 11
166.7842354156
 21
132.7238849904
 70
160
 71
2
 72
2
 41
0.9
 42
22.3
  3
DIMSTYLE_1
100
AcDbAlignedDimension
 13
159.9199497013
 23
115.6630230861
 14
182.2199497013
 24
115.6630230861
100
AcDbRotatedDimension
  0
DIMENSION
  5
23E
100
AcDbEntity
  8
0
100
AcDbDimension
 62
7
  6
CONTINUOUS
  2
*D1
 10
190.2199497013
 20
80.4037103803
 11
190.2199497013
 21
98.2773088004
 70
160
 71
2
 72
2
 41
0.9
 42
44.3186254114
  3
DIMSTYLE_2
100
AcDbAlignedDimension
 13
181.7064956407
 23
124.7223357918
 14
181.7064956407
 24
80.4037103803
 50
270.0
100
AcDbRotatedDimension
  0
DIMENSION
  5
23F
100
AcDbEntity
  8
0
100
AcDbDimension
 62
7
  6
CONTINUOUS
  2
*D2
 10
122.5382003061
 20
132.7223357918
 11
136.3243079836
 21
132.7223357918
 70
160
 71
1
 72
2
 41
0.9
 42
5.6998787933
  3
DIMSTYLE_1
100
AcDbAlignedDimension
 13
128.2380790994
 23
115.6630230861
 14
122.5382003061
 24
102.9111666827
 50
180.0
100
AcDbRotatedDimension
  0
LWPOLYLINE
  5
240
100
AcDbEntity
  8
0
100
AcDbPolyline
 62
7
  6
CONTINUOUS
 90
5
 70
0
 43
0.3500000006
 10
174.0699525146
 20
135.1881719971
 10
174.4270993652
 20
135.4024564819
 10
174.4270993652
 20
136.0453099365
 10
174.0699525146
 20
136.4738789063
 10
173.2128145752
 20
136.4738789063
  0
LWPOLYLINE
  5
241
100
AcDbEntity
  8
ASSI
100
AcDbPolyline
 62
250
  6
CONTINUOUS
 90
15
 70
0
 10
160.0034923505
 20
123.1049289426
 10
160.0048208234
 20
123.1061114645
 10
160.0077991428
 20
123.1072900734
 10
160.0124174535
 20
123.1084608693
 10
160.0186604736
 20
123.1096199781
 10
160.0265075451
 20
123.1107635642
 10
160.0359327019
 20
123.1118878436
 10
160.0469047564
 20
123.1129890959
 10
160.0593874023
 20
123.1140636773
 10
160.0733393344
 20
123.1151080319
 10
160.0887143862
 20
123.116118704
 10
160.1054616816
 20
123.1170923492
 10
160.1235258041
 20
123.1180257457
 10
160.1428469796
 20
123.1189158051
 10
160.1633612747
 20
123.119759582
  0
LINE
  5
242
100
AcDbEntity
  8
ASSI
100
AcDbLine
 62
7
  6
CONTINUOUS
 10
174.4615247083
 20
80.4037103803
 11
174.8122146744
 21
80.4355435383
  0
LINE
  5
243
100
AcDbEntity
  8
ASSI
100
AcDbLine
 62
7
  6
CONTINUOUS
 10
163.2615247083
 20
80.4037103803
 11
163.6122146744
 21
80.4355435383
  0
LINE
  5
244
100
AcDbEntity
  8
ASSI
100
AcDbLine
 62
7
  6
CONTINUOUS
 10
160.4334037619
 20
80.4037103803
 11
163.2615247083
 21
80.4037103803
  0
LINE
  5
245
100
AcDbEntity
  8
ASSI
100
AcDbLine
 62
7
  6
CONTINUOUS
 10
167.6783746943
 20
80.4037103803
 11
174.4615247083
 21
80.4037103803
  0
LINE
  5
246
100
AcDbEntity
  8
ASSI
100
AcDbLine
 62
7
  6
CONTINUOUS
 10
178.8783746943
 20
80.4037103803
 11
181.7064956407
 21
80.4037103803
  0
LINE
  5
247
100
AcDbEntity
  8
ASSI
100
AcDbLine
 62
7
  6
CONTINUOUS
 10
163.7854197551
 20
80.4407843163
 11
167.1544796475
 21
80.4407843163
  0
LINE
  5
248
100
AcDbEntity
  8
ASSI
100
AcDbLine
 62
7
  6
CONTINUOUS
 10
174.9854197551
 20
80.4407843163
 11
178.3544796475
 21
80.4407843163
  0
LINE
  5
249
100
AcDbEntity
  8
ASSI
100
AcDbLine
 62
250
  6
CONTINUOUS
 10
181.6530102774
 20
80.5642969564
 11
160.4868891252
 21
80.5642969564
  0
LINE
  5
24A
100
AcDbEntity
  8
ASSI
100
AcDbLine
 62
7
  6
CONTINUOUS
 10
167.6783746943
 20
80.4037103803
 11
167.3276847282
 21
80.4355435383
  0
LINE
  5
24B
100
AcDbEntity
  8
ASSI
100
AcDbLine
 62
7
  6
CONTINUOUS
 10
178.8783746943
 20
80.4037103803
 11
178.5276847282
 21
80.4355435383
  0
LWPOLYLINE
  5
24C
100
AcDbEntity
  8
ASSI
100
AcDbPolyline
 62
250
  6
CONTINUOUS
 90
17
 70
0
 10
160.0034923505
 20
82.0211172296
 10
160.0048208049
 20
82.0199347071
 10
160.0077991073
 20
82.0187560975
 10
160.0124174026
 20
82.0175853009
 10
160.0186604088
 20
82.0164261915
 10
160.026507468
 20
82.0152826046
 10
160.0359326142
 20
82.0141583245
 10
160.0469046597
 20
82.0130570713
 10
160.0593872981
 20
82.0119824891
 10
160.0733392245
 20
82.0109381337
 10
160.0887142721
 20
82.0099274609
 10
160.1054615649
 20
82.0089538149
 10
160.1235256863
 20
82.0080204175
 10
160.1428468623
 20
82.0071303574
 10
160.1633611592
 20
82.0062865797
 10
160.1850006954
 20
82.0054918765
 10
160.2313655792
 20
82.0040600413
  0
LINE
  5
24D
100
AcDbEntity
  8
ASSI
100
AcDbLine
 62
250
  6
CONTINUOUS
 10
181.9765381279
 20
82.0062865902
 11
181.9322054288
 21
82.0047488894
  0
LINE
  5
24E
100
AcDbEntity
  8
ASSI
100
AcDbLine
 62
250
  6
CONTINUOUS
 10
181.9322054288
 20
82.0047488894
 11
181.8839618015
 21
82.0034276603
  0
LINE
  5
24F
100
AcDbEntity
  8
ASSI
100
AcDbLine
 62
250
  6
CONTINUOUS
 10
181.8839618015
 20
82.0034276603
 11
181.8324452683
 21
82.002340376
  0
LINE
  5
250
100
AcDbEntity
  8
ASSI
100
AcDbLine
 62
250
  6
CONTINUOUS
 10
181.8324452683
 20
82.002340376
 11
181.7783371356
 21
82.001501416
  0
LINE
  5
251
100
AcDbEntity
  8
ASSI
100
AcDbLine
 62
250
  6
CONTINUOUS
 10
181.7783371356
 20
82.001501416
 11
181.7223529839
 21
82.0009218755
  0
LINE
  5
252
100
AcDbEntity
  8
ASSI
100
AcDbLine
 62
250
  6
CONTINUOUS
 10
181.7223529839
 20
82.0009218755
 11
181.6652332039
 21
82.0006094188
  0
LINE
  5
253
100
AcDbEntity
  8
ASSI
100
AcDbLine
 62
250
  6
CONTINUOUS
 10
181.6652332039
 20
82.0006094188
 11
160.5034162226
 21
82.0005752552
  0
LINE
  5
254
100
AcDbEntity
  8
ASSI
100
AcDbLine
 62
250
  6
CONTINUOUS
 10
160.4460113083
 20
82.0007319033
 11
160.5034161981
 21
82.0005547613
  0
LINE
  5
255
100
AcDbEntity
  8
ASSI
100
AcDbLine
 62
250
  6
CONTINUOUS
 10
160.3893655991
 20
82.0011786417
 11
160.4460113083
 21
82.0007319033
  0
LINE
  5
256
100
AcDbEntity
  8
ASSI
100
AcDbLine
 62
250
  6
CONTINUOUS
 10
160.3342282111
 20
82.0018890683
 11
160.3893655991
 21
82.0011786417
  0
LINE
  5
257
100
AcDbEntity
  8
ASSI
100
AcDbLine
 62
250
  6
CONTINUOUS
 10
160.2813283373
 20
82.0028537876
 11
160.3342282111
 21
82.0018890683
  0
LINE
  5
258
100
AcDbEntity
  8
ASSI
100
AcDbLine
 62
250
  6
CONTINUOUS
 10
160.2313655792
 20
82.0040600413
 11
160.2813283373
 21
82.0028537876
  0
LWPOLYLINE
  5
259
100
AcDbEntity
  8
ASSI
100
AcDbPolyline
 62
250
  6
CONTINUOUS
 90
28
 70
0
 10
159.9869655799
 20
81.0636126315
 10
159.9878369233
 20
81.0345969198
 10
159.9903949387
 20
81.0056792732
 10
159.9946309807
 20
80.9769574259
 10
160.0005307329
 20
80.9485284508
 10
160.0080742556
 20
80.9204884306
 10
160.0172360538
 20
80.8929321335
 10
160.0279851629
 20
80.865952693
 10
160.0402852539
 20
80.8396412928
 10
160.0540947557
 20
80.814086859
 10
160.0693669956
 20
80.7893757592
 10
160.0860503575
 20
80.7655915109
 10
160.1040884559
 20
80.742814499
 10
160.1234203265
 20
80.7211217042
 10
160.1439806326
 20
80.7005864428
 10
160.1656998855
 20
80.681278119
 10
160.1885046796
 20
80.6632619903
 10
160.2123179405
 20
80.6465989467
 10
160.2370591851
 20
80.6313453054
 10
160.2626447944
 20
80.61755262
 10
160.2889882953
 20
80.6052675063
 10
160.3160006532
 20
80.5945314853
 10
160.3435905731
 20
80.5853808419
 10
160.371664808
 20
80.5778465032
 10
160.4001284737
 20
80.5719539335
 10
160.42888537
 20
80.5677230483
 10
160.4578383059
 20
80.5651681468
 10
160.4868894275
 20
80.5642978641
  0
LWPOLYLINE
  5
25A
100
AcDbEntity
  8
ASSI
100
AcDbPolyline
 62
250
  6
CONTINUOUS
 90
28
 70
0
 10
159.9869655799
 20
124.0624335407
 10
159.9878369238
 20
124.0914492616
 10
159.9903949407
 20
124.1203669167
 10
159.9946309852
 20
124.1490887714
 10
160.0005307405
 20
124.177517753
 10
160.0080742668
 20
124.2055577787
 10
160.0172360689
 20
124.2331140802
 10
160.0279851823
 20
124.260093524
 10
160.0402852776
 20
124.2864049263
 10
160.0540947835
 20
124.3119593613
 10
160.0693670274
 20
124.3366704612
 10
160.0860503928
 20
124.3604547086
 10
160.1040884943
 20
124.3832317189
 10
160.1234203674
 20
124.4049245113
 10
160.1439806753
 20
124.4254597697
 10
160.1656999293
 20
124.4447680899
 10
160.1885047237
 20
124.4627842147
 10
160.212317984
 20
124.4794472541
 10
160.2370592273
 20
124.4947008911
 10
160.2626448343
 20
124.5084935722
 10
160.2889883322
 20
124.5207786817
 10
160.3160006864
 20
124.531514699
 10
160.3435906019
 20
124.5406653389
 10
160.3716648317
 20
124.5481996746
 10
160.4001284919
 20
124.5540922419
 10
160.4288853825
 20
124.5583231254
 10
160.4578383122
 20
124.5608780257
 10
160.4868894275
 20
124.561748308
  0
LINE
  5
25B
100
AcDbEntity
  8
CURVE
100
AcDbLine
 62
250
  6
CONTINUOUS
 10
172.5400590417
 20
88.6032880273
 11
173.5792727804
 21
88.0034965076
  0
LWPOLYLINE
  5
25C
100
AcDbEntity
  8
ASSI
100
AcDbPolyline
 62
250
  6
CONTINUOUS
 90
9
 70
0
 10
159.9925371917
 20
123.9922188721
 10
159.9918660598
 20
124.0066963534
 10
159.9911863066
 20
124.019565894
 10
159.9904978806
 20
124.0308192085
 10
159.9898008333
 20
124.0404645824
 10
159.9890987237
 20
124.0484535493
 10
159.9883927381
 20
124.0547699535
 10
159.9876816901
 20
124.0594299506
 10
159.9869655799
 20
124.0624335407
  0
LWPOLYLINE
  5
25D
100
AcDbEntity
  8
ASSI
100
AcDbPolyline
 62
250
  6
CONTINUOUS
 90
22
 70
0
 10
160.0108662704
 20
102.9084550633
 10
160.0114275949
 20
102.8935110364
 10
160.0131038782
 20
102.878650568
 10
160.0158857473
 20
102.863956748
 10
160.0197576476
 20
102.8495117342
 10
160.0246979296
 20
102.8353962937
 10
160.03067897
 20
102.8216893512
 10
160.0376673263
 20
102.8084675467
 10
160.0456239238
 20
102.7958048074
 10
160.0545042739
 20
102.7837719351
 10
160.0642587229
 20
102.7724362092
 10
160.0748327302
 20
102.761861011
 10
160.0861671721
 20
102.7521054697
 10
160.0981986737
 20
102.7432241312
 10
160.1108599627
 20
102.7352666532
 10
160.1240802449
 20
102.728277528
 10
160.1377856013
 20
102.7222958333
 10
160.1518994006
 20
102.7173550139
 10
160.1663427279
 20
102.7134826946
 10
160.1810348258
 20
102.710700526
 10
160.1958935462
 20
102.7090240631
 10
160.2108358095
 20
102.7084626787
  0
LINE
  5
25E
100
AcDbEntity
  8
ASSI
100
AcDbLine
 62
250
  6
CONTINUOUS
 10
159.9938433066
 20
123.9586524765
 11
159.9925371917
 21
123.9922188721
  0
LINE
  5
25F
100
AcDbEntity
  8
ASSI
100
AcDbLine
 62
250
  6
CONTINUOUS
 10
160.4924611998
 20
124.456439168
 11
160.491110341
 21
124.4974409142
  0
LINE
  5
260
100
AcDbEntity
  8
ASSI
100
AcDbLine
 62
250
  6
CONTINUOUS
 10
159.9950980558
 20
123.9190360902
 11
159.9938433066
 21
123.9586524765
  0
LINE
  5
261
100
AcDbEntity
  8
ASSI
100
AcDbLine
 62
250
  6
CONTINUOUS
 10
159.9962917855
 20
123.873651041
 11
159.9950980558
 21
123.9190360902
  0
LINE
  5
262
100
AcDbEntity
  8
ASSI
100
AcDbLine
 62
250
  6
CONTINUOUS
 10
160.4937672767
 20
124.4060614956
 11
160.4924611998
 21
124.456439168
  0
LINE
  5
263
100
AcDbEntity
  8
ASSI
100
AcDbLine
 62
250
  6
CONTINUOUS
 10
159.9979502915
 20
123.795476854
 11
159.9962917855
 21
123.873651041
  0
LINE
  5
264
100
AcDbEntity
  8
ASSI
100
AcDbLine
 62
250
  6
CONTINUOUS
 10
160.4956264172
 20
124.3136757381
 11
160.4937672767
 21
124.4060614956
  0
LINE
  5
265
100
AcDbEntity
  8
ASSI
100
AcDbLine
 62
250
  6
CONTINUOUS
 10
159.9998772807
 20
123.6742643655
 11
159.9979502915
 21
123.795476854
  0
LINE
  5
266
100
AcDbEntity
  8
ASSI
100
AcDbLine
 62
250
  6
CONTINUOUS
 10
160.4978740965
 20
124.1613453338
 11
160.4956264172
 21
124.3136757381
  0
LINE
  5
267
100
AcDbEntity
  8
ASSI
100
AcDbLine
 62
250
  6
CONTINUOUS
 10
160.0017584655
 20
123.50005611
 11
159.9998772807
 21
123.6742643655
  0
LINE
  5
268
100
AcDbEntity
  8
ASSI
100
AcDbLine
 62
250
  6
CONTINUOUS
 10
160.5006282221
 20
123.8790257097
 11
160.4978740965
 21
124.1613453338
  0
LINE
  5
269
100
AcDbEntity
  8
ASSI
100
AcDbLine
 62
250
  6
CONTINUOUS
 10
160.0031408123
 20
123.2675723204
 11
160.0017584655
 21
123.50005611
  0
LINE
  5
26A
100
AcDbEntity
  8
ASSI
100
AcDbLine
 62
250
  6
CONTINUOUS
 10
160.5029040781
 20
123.4295136424
 11
160.5006282221
 21
123.8790257097
  0
LINE
  5
26B
100
AcDbEntity
  8
ASSI
100
AcDbLine
 62
7
  6
CONTINUOUS
 10
159.9199497013
 20
89.4630230861
 11
159.9330239386
 21
80.9016561081
  0
LINE
  5
26C
100
AcDbEntity
  8
ASSI
100
AcDbLine
 62
7
  6
CONTINUOUS
 10
159.9199497013
 20
102.2630459314
 11
159.9199497013
 21
89.4630230861
  0
LINE
  5
26D
100
AcDbEntity
  8
ASSI
100
AcDbLine
 62
7
  6
CONTINUOUS
 10
159.9199497013
 20
102.8630002408
 11
159.9199497013
 21
115.6630230861
  0
LINE
  5
26E
100
AcDbEntity
  8
ASSI
100
AcDbLine
 62
250
  6
CONTINUOUS
 10
160.0108659804
 20
102.9084549183
 11
160.0031408123
 21
123.2675723204
  0
LINE
  5
26F
100
AcDbEntity
  8
ASSI
100
AcDbLine
 62
250
  6
CONTINUOUS
 10
160.5107900894
 20
102.7110350327
 11
160.5029040781
 21
123.4295136424
  0
LINE
  5
270
100
AcDbEntity
  8
ASSI
100
AcDbLine
 62
7
  6
CONTINUOUS
 10
159.9199497013
 20
115.6630230861
 11
159.9330239386
 21
124.224390064
  0
LINE
  5
271
100
AcDbEntity
  8
ASSI
100
AcDbLine
 62
250
  6
CONTINUOUS
 10
160.0029803156
 20
81.818436928
 11
160.0108659804
 21
102.2175912538
  0
LINE
  5
272
100
AcDbEntity
  8
ASSI
100
AcDbLine
 62
250
  6
CONTINUOUS
 10
160.5022533248
 20
81.5206615599
 11
160.5107900894
 21
102.4150111395
  0
LINE
  5
273
100
AcDbEntity
  8
ASSI
100
AcDbLine
 62
250
  6
CONTINUOUS
 10
160.4998010307
 20
81.1465398321
 11
160.5022533248
 21
81.5206615599
  0
LINE
  5
274
100
AcDbEntity
  8
ASSI
100
AcDbLine
 62
250
  6
CONTINUOUS
 10
160.0014324603
 20
81.5894011819
 11
160.0029803156
 21
81.818436928
  0
LINE
  5
275
100
AcDbEntity
  8
ASSI
100
AcDbLine
 62
250
  6
CONTINUOUS
 10
160.4973394914
 20
80.9236768322
 11
160.4998010307
 21
81.1465398321
  0
LINE
  5
276
100
AcDbEntity
  8
ASSI
100
AcDbLine
 62
250
  6
CONTINUOUS
 10
159.9994286667
 20
81.419820483
 11
160.0014324603
 21
81.5894011819
  0
LINE
  5
277
100
AcDbEntity
  8
ASSI
100
AcDbLine
 62
250
  6
CONTINUOUS
 10
160.4950219675
 20
80.7793978482
 11
160.4973394914
 21
80.9236768322
  0
LINE
  5
278
100
AcDbEntity
  8
ASSI
100
AcDbLine
 62
250
  6
CONTINUOUS
 10
159.9974156666
 20
81.3031881258
 11
159.9994286667
 21
81.419820483
  0
LINE
  5
279
100
AcDbEntity
  8
ASSI
100
AcDbLine
 62
250
  6
CONTINUOUS
 10
160.4937672767
 20
80.7199846759
 11
160.4950219675
 21
80.7793978482
  0
LINE
  5
27A
100
AcDbEntity
  8
ASSI
100
AcDbLine
 62
250
  6
CONTINUOUS
 10
159.9957025291
 20
81.2289833273
 11
159.9974156666
 21
81.3031881258
  0
LINE
  5
27B
100
AcDbEntity
  8
ASSI
100
AcDbLine
 62
250
  6
CONTINUOUS
 10
160.4924611998
 20
80.6696070036
 11
160.4937672767
 21
80.7199846759
  0
LINE
  5
27C
100
AcDbEntity
  8
ASSI
100
AcDbLine
 62
250
  6
CONTINUOUS
 10
159.9944782897
 20
81.1864826096
 11
159.9957025291
 21
81.2289833273
  0
LWPOLYLINE
  5
27D
100
AcDbEntity
  8
ASSI
100
AcDbPolyline
 62
250
  6
CONTINUOUS
 90
22
 70
0
 10
160.0108662704
 20
102.2175911088
 10
160.0114275932
 20
102.2325351122
 10
160.0131038714
 20
102.2473955589
 10
160.0158857325
 20
102.2620893594
 10
160.0197576222
 20
102.2765343558
 10
160.0246978915
 20
102.2906497815
 10
160.0306789178
 20
102.3043567127
 10
160.0376672593
 20
102.3175785095
 10
160.0456238419
 20
102.3302412445
 10
160.0545041777
 20
102.3422741164
 10
160.0642586139
 20
102.3536098455
 10
160.0748326105
 20
102.3641850501
 10
160.0861670447
 20
102.3739406008
 10
160.098198542
 20
102.3828219511
 10
160.1108598306
 20
102.3907794427
 10
160.124080117
 20
102.3977685825
 10
160.1377854824
 20
102.4037502922
 10
160.1518992957
 20
102.4086911259
 10
160.166342642
 20
102.4125634579
 10
160.181034764
 20
102.4153456369
 10
160.1958935131
 20
102.4170221066
 10
160.2108358095
 20
102.4175834934
  0
LINE
  5
27E
100
AcDbEntity
  8
CURVE
100
AcDbLine
 62
250
  6
CONTINUOUS
 10
168.5576982884
 20
90.9025462709
 11
169.5104400733
 21
90.352364159
  0
LWPOLYLINE
  5
27F
100
AcDbEntity
  8
ASSI
100
AcDbPolyline
 62
250
  6
CONTINUOUS
 90
7
 70
0
 10
160.491110341
 20
124.4974409142
 10
160.490421976
 20
124.5143358754
 10
160.4897249999
 20
124.5287880944
 10
160.4890228893
 20
124.5407736227
 10
160.4883168031
 20
124.5502723319
 10
160.4876055823
 20
124.5572681252
 10
160.4868892271
 20
124.5617492156
  0
LWPOLYLINE
  5
280
100
AcDbEntity
  8
0
100
AcDbPolyline
 62
7
  6
CONTINUOUS
 90
3
 70
0
 43
0.3500000006
 10
172.21281427
 20
133.7596027222
 10
172.1413740234
 20
133.5453182373
 10
171.9985297852
 20
133.2595935059
  0
LINE
  5
281
100
AcDbEntity
  8
CURVE
100
AcDbLine
 62
250
  6
CONTINUOUS
 10
168.2960431136
 20
112.7293076263
 11
169.5690067352
 21
114.0022712479
  0
LINE
  5
282
100
AcDbEntity
  8
CURVE
100
AcDbLine
 62
250
  6
CONTINUOUS
 10
172.5466047274
 20
116.9778021814
 11
173.8560863852
 21
118.2872838392
  0
LWPOLYLINE
  5
283
100
AcDbEntity
  8
ASSI
100
AcDbPolyline
 62
250
  6
CONTINUOUS
 90
8
 70
0
 10
160.4868892271
 20
80.5642969565
 10
160.4876055823
 20
80.5687780469
 10
160.4883168031
 20
80.5757738401
 10
160.4890228893
 20
80.5852725492
 10
160.4897249999
 20
80.5972580775
 10
160.490421976
 20
80.6117102964
 10
160.491110341
 20
80.6286052576
 10
160.4924611998
 20
80.6696070036
  0
LWPOLYLINE
  5
284
100
AcDbEntity
  8
ASSI
100
AcDbPolyline
 62
250
  6
CONTINUOUS
 90
11
 70
0
 10
159.9869655799
 20
81.0636126315
 10
159.9876816901
 20
81.0666162214
 10
159.988392738
 20
81.0712762185
 10
159.9890987236
 20
81.0775926227
 10
159.9898008333
 20
81.0855815895
 10
159.9904978806
 20
81.0952269634
 10
159.9911863066
 20
81.1064802779
 10
159.9918660598
 20
81.1193498185
 10
159.9925371916
 20
81.1338272997
 10
159.9931962976
 20
81.1498393988
 10
159.9944782897
 20
81.1864826096
  0
LINE
  5
285
100
AcDbEntity
  8
ASSI
100
AcDbLine
 62
250
  6
CONTINUOUS
 10
159.9199497013
 20
102.8630002408
 11
160.0108659804
 21
102.9084549183
  0
LINE
  5
286
100
AcDbEntity
  8
ASSI
100
AcDbLine
 62
250
  6
CONTINUOUS
 10
160.1199497025
 20
102.6630230861
 11
160.2108358095
 21
102.7084626787
  0
LINE
  5
287
100
AcDbEntity
  8
ASSI
100
AcDbLine
 62
250
  6
CONTINUOUS
 10
160.0108659804
 20
102.2175912538
 11
159.9199497013
 21
102.2630459314
  0
LINE
  5
288
100
AcDbEntity
  8
ASSI
100
AcDbLine
 62
250
  6
CONTINUOUS
 10
160.2108358095
 20
102.4175834934
 11
160.1199497025
 21
102.4630230861
  0
LINE
  5
289
100
AcDbEntity
  8
ASSI
100
AcDbLine
 62
250
  6
CONTINUOUS
 10
159.9330239386
 20
80.9016561081
 11
159.9869655799
 21
81.0636126315
  0
LINE
  5
28A
100
AcDbEntity
  8
ASSI
100
AcDbLine
 62
250
  6
CONTINUOUS
 10
160.4334037619
 20
80.4037103803
 11
160.4868891252
 21
80.5642969564
  0
LINE
  5
28B
100
AcDbEntity
  8
ASSI
100
AcDbLine
 62
7
  6
CONTINUOUS
 10
161.2240604026
 20
102.6900763762
 11
161.1699497013
 21
102.6630230861
  0
LWPOLYLINE
  5
28C
100
AcDbEntity
  8
0
100
AcDbPolyline
 62
7
  6
CONTINUOUS
 90
2
 70
0
 43
0.3500000006
 10
189.4699572144
 20
99.2773117676
 10
187.9699476929
 20
99.2773117676
  0
LINE
  5
28D
100
AcDbEntity
  8
ASSI
100
AcDbLine
 62
7
  6
CONTINUOUS
 10
161.2240604026
 20
102.4359697959
 11
161.1699497013
 21
102.4630230861
  0
LINE
  5
28E
100
AcDbEntity
  8
ASSI
100
AcDbLine
 62
250
  6
CONTINUOUS
 10
159.9869655799
 20
124.0624335407
 11
159.9330239386
 21
124.224390064
  0
LINE
  5
28F
100
AcDbEntity
  8
ASSI
100
AcDbLine
 62
250
  6
CONTINUOUS
 10
160.4868891252
 20
124.5617492157
 11
160.4334037619
 21
124.7223357918
  0
LINE
  5
290
100
AcDbEntity
  8
ASSI
100
AcDbLine
 62
250
  6
CONTINUOUS
 10
169.4505367843
 20
102.9111666747
 11
169.4505367842
 21
102.7110350327
  0
LINE
  5
291
100
AcDbEntity
  8
ASSI
100
AcDbLine
 62
250
  6
CONTINUOUS
 10
169.4505367843
 20
102.2148794974
 11
169.4505367843
 21
102.4150111395
  0
LWPOLYLINE
  5
292
100
AcDbEntity
  8
ASSI
100
AcDbPolyline
 62
250
  6
CONTINUOUS
 90
64
 70
0
 10
169.5469134174
 20
102.9845298497
 10
169.5652399854
 20
103.0460741287
 10
169.5861131435
 20
103.1068553106
 10
169.6095328917
 20
103.1668733948
 10
169.6355421229
 20
103.2262746976
 10
169.6640979442
 20
103.2849129016
 10
169.695071677
 20
103.3423490564
 10
169.7284947443
 20
103.3985705264
 10
169.7643357232
 20
103.4535899469
 10
169.8023716664
 20
103.5070062743
 10
169.8426243111
 20
103.5587948142
 10
169.8850719201
 20
103.6089802616
 10
169.9294263346
 20
103.6572356569
 10
169.975672689
 20
103.7035166443
 10
170.023825849
 20
103.7478675812
 10
170.0736422518
 20
103.7900945777
 10
170.1251142347
 20
103.8301833536
 10
170.1782494605
 20
103.8681481912
 10
170.2328273558
 20
103.9038380445
 10
170.2888692154
 20
103.9372570384
 10
170.3463537445
 20
103.9684010501
 10
170.4049964855
 20
103.9971066629
 10
170.4648150612
 20
104.023364743
 10
170.5257918488
 20
104.0471844262
 10
170.5875895228
 20
104.0684297002
 10
170.6502062918
 20
104.0870823447
 10
170.7136439472
 20
104.1031605819
 10
170.777570538
 20
104.1165830631
 10
170.8419841219
 20
104.1273352854
 10
170.9068866412
 20
104.135431753
 10
170.9719519716
 20
104.1408346276
 10
171.0371799836
 20
104.1435312789
 10
171.1025708067
 20
104.1435343377
 10
171.1677987054
 20
104.1408438578
 10
171.2328636966
 20
104.1354472423
 10
171.2977657635
 20
104.1273570877
 10
171.3621791191
 20
104.1166112378
 10
171.4261056031
 20
104.1031952938
 10
171.4895433758
 20
104.0871236534
 10
171.5521611315
 20
104.0684773543
 10
171.6139609338
 20
104.0472381413
 10
171.6749407191
 20
104.0234242678
 10
171.7347629905
 20
103.9971715338
 10
171.7934105753
 20
103.9684704252
 10
171.8509006463
 20
103.9373304539
 10
171.9069472247
 20
103.9039159584
 10
171.9615286152
 20
103.8682310587
 10
172.0146665132
 20
103.8302716327
 10
172.0661400259
 20
103.7901896565
 10
172.1159559297
 20
103.7479717942
 10
172.1641074482
 20
103.7036313795
 10
172.2103533603
 20
103.6573603932
 10
172.2547088044
 20
103.6091149958
 10
172.2971586421
 20
103.5589390251
 10
172.337416237
 20
103.5071559777
 10
172.3754608417
 20
103.4537403106
 10
172.4113132035
 20
103.398717566
 10
172.4447489288
 20
103.3424878694
 10
172.4757368917
 20
103.2850377112
 10
172.504308218
 20
103.226380601
 10
172.5303318921
 20
103.1669571938
 10
172.553764242
 20
103.1069143749
 10
172.5746489397
 20
103.04610526
 10
172.5929859852
 20
102.9845298497
  0
LWPOLYLINE
  5
293
100
AcDbEntity
  8
ASSI
100
AcDbPolyline
 62
250
  6
CONTINUOUS
 90
7
 70
0
 10
181.9290635931
 20
102.4175834934
 10
181.9283820861
 20
102.4174475797
 10
181.9269097844
 20
102.4173128455
 10
181.9246466879
 20
102.4171792907
 10
181.9215826249
 20
102.4170465591
 10
181.9177277672
 20
102.416915007
 10
181.9131126297
 20
102.4167857033
  0
LWPOLYLINE
  5
294
100
AcDbEntity
  8
ASSI
100
AcDbPolyline
 62
250
  6
CONTINUOUS
 90
5
 70
0
 10
182.129033422
 20
102.2175912
 10
182.1279123848
 20
102.2174480495
 10
182.1254541487
 20
102.2173060708
 10
182.1216655621
 20
102.2171653119
 10
182.1165572968
 20
102.2170255063
  0
LWPOLYLINE
  5
295
100
AcDbEntity
  8
ASSI
100
AcDbPolyline
 62
250
  6
CONTINUOUS
 90
25
 70
0
 10
169.5469134174
 20
102.1415163224
 10
169.5453190438
 20
102.1467200812
 10
169.5434580254
 20
102.1518023553
 10
169.5413303621
 20
102.1567631447
 10
169.5389282331
 20
102.1616166245
 10
169.5362594593
 20
102.1663486196
 10
169.5333475034
 20
102.1709166043
 10
169.5301901763
 20
102.1753189726
 10
169.5267896672
 20
102.1795573305
 10
169.5231760063
 20
102.1835939697
 10
169.5193472546
 20
102.1874270104
 10
169.5153053512
 20
102.1910583324
 10
169.5110861431
 20
102.1944558663
 10
169.5066882394
 20
102.1976174082
 10
169.5021130309
 20
102.2005451621
 10
169.4974005376
 20
102.2032136709
 10
169.49254943
 20
102.2056206949
 10
169.4875610376
 20
102.2077684738
 10
169.4824793682
 20
102.2096382694
 10
169.4773036006
 20
102.2112276291
 10
169.4720345559
 20
102.2125390056
 10
169.4667187049
 20
102.2135610187
 10
169.4613715377
 20
102.214289875
 10
169.4559775642
 20
102.2147293679
 10
169.4505367843
 20
102.2148794974
  0
LINE
  5
296
100
AcDbEntity
  8
CURVE
100
AcDbLine
 62
250
  6
CONTINUOUS
 10
171.0691745539
 20
92.3525879173
 11
171.0691745539
 21
91.2525682302
  0
LINE
  5
297
100
AcDbEntity
  8
CURVE
100
AcDbLine
 62
250
  6
CONTINUOUS
 10
171.0691745539
 20
87.7540714299
 11
171.0691745539
 21
86.5541438523
  0
LINE
  5
298
100
AcDbEntity
  8
CURVE
100
AcDbLine
 62
250
  6
CONTINUOUS
 10
171.0727919066
 20
113.4267676674
 11
171.0727919066
 21
111.5748553285
  0
LINE
  5
299
100
AcDbEntity
  8
CURVE
100
AcDbLine
 62
250
  6
CONTINUOUS
 10
171.0741699457
 20
119.4363961964
 11
171.0741699457
 21
117.6363326456
  0
LWPOLYLINE
  5
29A
100
AcDbEntity
  8
CURVE
100
AcDbPolyline
 62
250
  6
CONTINUOUS
 90
87
 70
0
 10
170.0727919066
 20
115.5060564192
 10
170.0734326871
 20
115.5420907941
 10
170.0753433208
 20
115.5776809722
 10
170.0785062465
 20
115.6129216532
 10
170.0829039026
 20
115.6479075367
 10
170.0885230239
 20
115.6827140874
 10
170.0953675291
 20
115.717339829
 10
170.1034456329
 20
115.75176405
 10
170.1127655503
 20
115.7859660389
 10
170.1233303755
 20
115.8199164239
 10
170.1351227208
 20
115.8535511911
 10
170.1481200782
 20
115.8867976662
 10
170.1622999395
 20
115.919583175
 10
170.1776415768
 20
115.9518417436
 10
170.1941313836
 20
115.9835341998
 10
170.2117575336
 20
116.0146280718
 10
170.2305082005
 20
116.0450908878
 10
170.2532924484
 20
116.0790882708
 10
170.2774711075
 20
116.1121532099
 10
170.3029852792
 20
116.1442199094
 10
170.3297760646
 20
116.1752225741
 10
170.3577845648
 20
116.2050954083
 10
170.386951881
 20
116.2337726168
 10
170.4172191146
 20
116.2611884039
 10
170.4445605866
 20
116.2840962953
 10
170.4726696455
 20
116.3059773266
 10
170.5015168482
 20
116.3268207879
 10
170.5310727519
 20
116.3466159694
 10
170.561310668
 20
116.3653513058
 10
170.5922149255
 20
116.3830118107
 10
170.6237726076
 20
116.399581642
 10
170.6559707979
 20
116.4150449578
 10
170.6887879469
 20
116.4293832115
 10
170.7221679744
 20
116.4425670374
 10
170.7560461674
 20
116.4545643651
 10
170.7903578129
 20
116.4653431243
 10
170.8250364173
 20
116.4748752212
 10
170.8600083647
 20
116.4831484685
 10
170.8951982588
 20
116.4901546553
 10
170.930530703
 20
116.4958855711
 10
170.9659401142
 20
116.500335568
 10
171.0014001626
 20
116.5035092508
 10
171.0368943319
 20
116.5054137871
 10
171.0724061056
 20
116.5060563447
 10
171.1079192269
 20
116.5054416094
 10
171.1434184775
 20
116.503564339
 10
171.1788888988
 20
116.5004168097
 10
171.2143155321
 20
116.4959912975
 10
171.2496730259
 20
116.4902826791
 10
171.2848944563
 20
116.4832962332
 10
171.3199025068
 20
116.4750398392
 10
171.3546198606
 20
116.4655213765
 10
171.3889707862
 20
116.4547530755
 10
171.4228858921
 20
116.4427645709
 10
171.456297372
 20
116.4295898484
 10
171.4891374197
 20
116.4152628939
 10
171.5213479575
 20
116.3998145774
 10
171.5529098228
 20
116.3832633056
 10
171.5838135819
 20
116.3656243698
 10
171.6140498008
 20
116.3469130609
 10
171.6436060695
 20
116.3271432151
 10
171.6724580739
 20
116.3063228476
 10
171.7005785234
 20
116.2844585187
 10
171.7279401277
 20
116.2615567887
 10
171.7582425563
 20
116.2341317408
 10
171.7874548394
 20
116.205431457
 10
171.8155136213
 20
116.1755271061
 10
171.8423555458
 20
116.1444898565
 10
171.8679172572
 20
116.1123908768
 10
171.8921353993
 20
116.0793013357
 10
171.9149466164
 20
116.0452924016
 10
171.9337083167
 20
116.0148332143
 10
171.9513367482
 20
115.9837535114
 10
171.9678243261
 20
115.9520821992
 10
171.9831634656
 20
115.9198481839
 10
171.9973440646
 20
115.887087089
 10
172.0103459515
 20
115.8538614077
 10
172.0221464378
 20
115.8202403507
 10
172.0327228347
 20
115.7862931285
 10
172.0420573616
 20
115.7520812041
 10
172.0501518699
 20
115.7176350499
 10
172.0570131193
 20
115.6829773909
 10
172.0626478695
 20
115.6481309517
 10
172.0670587367
 20
115.6130988407
 10
172.0702317649
 20
115.5778056987
 10
172.0721488546
 20
115.5421565501
 10
172.0727919066
 20
115.5060564192
  0
LWPOLYLINE
  5
29B
100
AcDbEntity
  8
CURVE
100
AcDbPolyline
 62
250
  6
CONTINUOUS
 90
81
 70
0
 10
170.4191745539
 20
89.5030230861
 10
170.4196783325
 20
89.528816334
 10
170.421178753
 20
89.5542297148
 10
170.4236594422
 20
89.5793447193
 10
170.4271040268
 20
89.604242838
 10
170.4315002216
 20
89.6289890315
 10
170.4368520931
 20
89.6535821386
 10
170.4431677957
 20
89.6780044676
 10
170.4504554838
 20
89.7022383271
 10
170.4587184324
 20
89.7262585333
 10
170.4679403991
 20
89.7500099337
 10
170.4781002621
 20
89.7734298833
 10
170.4891768995
 20
89.7964557375
 10
170.5011507339
 20
89.8190304375
 10
170.5140083652
 20
89.8411192691
 10
170.5277379379
 20
89.8626931041
 10
170.5423275963
 20
89.8837228146
 10
170.5577614454
 20
89.9041784386
 10
170.5740074322
 20
89.92402668
 10
170.5910294643
 20
89.9432334088
 10
170.6087914493
 20
89.9617644951
 10
170.6272572948
 20
89.9795858091
 10
170.6463909084
 20
89.9966632208
 10
170.6661561976
 20
90.0129626002
 10
170.6865170702
 20
90.0284498176
 10
170.7074389999
 20
90.0430943965
 10
170.7288937255
 20
90.0568804752
 10
170.7508545519
 20
90.0697958454
 10
170.7732947842
 20
90.0818282988
 10
170.7961877274
 20
90.0929656272
 10
170.8195066864
 20
90.1031956223
 10
170.8432249663
 20
90.1125060759
 10
170.8673158719
 20
90.1208847797
 10
170.8917500076
 20
90.1283197533
 10
170.9164871741
 20
90.1347999268
 10
170.9414844716
 20
90.1403144583
 10
170.966699
 20
90.1448525058
 10
170.9920878593
 20
90.1484032272
 10
171.0176081497
 20
90.1509557807
 10
171.0432169712
 20
90.152499324
 10
171.0688714238
 20
90.1530230154
 10
171.0945284846
 20
90.1525196245
 10
171.1201446394
 20
90.1509963684
 10
171.1456762511
 20
90.1484640758
 10
171.1710796825
 20
90.1449335757
 10
171.1963112964
 20
90.1404156968
 10
171.2213274558
 20
90.1349212679
 10
171.2460845233
 20
90.1284611178
 10
171.270538862
 20
90.1210460755
 10
171.2946498081
 20
90.1126869654
 10
171.318388591
 20
90.1033945956
 10
171.3417294137
 20
90.0931797699
 10
171.3646464792
 20
90.0820532921
 10
171.3871139904
 20
90.070025966
 10
171.4091061503
 20
90.0571085955
 10
171.4305971618
 20
90.0433119842
 10
171.4515612278
 20
90.028646936
 10
171.4719703591
 20
90.0131286975
 10
171.4917877983
 20
89.996790286
 10
171.5109745955
 20
89.9796691616
 10
171.5294918011
 20
89.9618027845
 10
171.5473004654
 20
89.9432286147
 10
171.5643616387
 20
89.9239841123
 10
171.5806363712
 20
89.9041067375
 10
171.5960857134
 20
89.8836339503
 10
171.6106760455
 20
89.8626013377
 10
171.6243950673
 20
89.8410369941
 10
171.6372358088
 20
89.8189671405
 10
171.6491912997
 20
89.7964179983
 10
171.6602522421
 20
89.7734212789
 10
171.6704000257
 20
89.750030655
 10
171.6796137122
 20
89.7263052896
 10
171.6878723635
 20
89.7023043456
 10
171.6951596844
 20
89.6780804029
 10
171.7014779521
 20
89.6536597075
 10
171.7068340867
 20
89.6290619225
 10
171.7112350085
 20
89.6043067107
 10
171.7146837249
 20
89.5793968324
 10
171.7171675923
 20
89.5542674374
 10
171.7186700541
 20
89.5288367729
 10
171.7191745539
 20
89.5030230861
  0
LWPOLYLINE
  5
29C
100
AcDbEntity
  8
ASSI
100
AcDbPolyline
 62
250
  6
CONTINUOUS
 90
64
 70
0
 10
169.7396649863
 20
102.9310340813
 10
169.7556647872
 20
102.9846192534
 10
169.7739018046
 20
103.0377298502
 10
169.7943725789
 20
103.0902687756
 10
169.8170837617
 20
103.1421691274
 10
169.8420114233
 20
103.1932998697
 10
169.869088277
 20
103.2434722076
 10
169.8982828712
 20
103.292594071
 10
169.9295583151
 20
103.3405719108
 10
169.9628104452
 20
103.3872287655
 10
169.9979798895
 20
103.4324773063
 10
170.0350120614
 20
103.4762434999
 10
170.0737855415
 20
103.5183879
 10
170.1142016961
 20
103.5588183589
 10
170.1562094483
 20
103.5974981863
 10
170.1997486708
 20
103.6343809633
 10
170.2447318749
 20
103.6694003592
 10
170.2910882337
 20
103.7025087534
 10
170.3387853812
 20
103.7336849665
 10
170.387758556
 20
103.7628828954
 10
170.4379106201
 20
103.7900409462
 10
170.4891617676
 20
103.8151131968
 10
170.5414350875
 20
103.8380582801
 10
170.5946331517
 20
103.8588297561
 10
170.6486417032
 20
103.8773817858
 10
170.7033619341
 20
103.8936812963
 10
170.758706155
 20
103.9077030213
 10
170.8145736611
 20
103.9194222721
 10
170.8708648665
 20
103.9288195928
 10
170.9274870843
 20
103.9358809296
 10
170.9843488833
 20
103.940595714
 10
171.0413523788
 20
103.942956358
 10
171.0984008426
 20
103.9429593796
 10
171.1554043485
 20
103.9406047888
 10
171.2122660902
 20
103.9358960954
 10
171.2688882681
 20
103.9288409048
 10
171.3251796961
 20
103.9194497598
 10
171.3810475864
 20
103.9077367271
 10
171.4363924604
 20
103.8937212354
 10
171.4911141488
 20
103.8774277898
 10
171.5451251377
 20
103.8588815077
 10
171.5983263889
 20
103.8381154414
 10
171.6506035489
 20
103.8151753825
 10
171.7018595954
 20
103.79010748
 10
171.752017115
 20
103.7629532335
 10
171.8009949316
 20
103.733759336
 10
171.8486957307
 20
103.7025876467
 10
171.8950550572
 20
103.6694842364
 10
171.9400400585
 20
103.6344708444
 10
171.9835792164
 20
103.5975959862
 10
172.0255860885
 20
103.5589254726
 10
172.0660025218
 20
103.5185039769
 10
172.1047772616
 20
103.4763682321
 10
172.1418117453
 20
103.4326101546
 10
172.1769863677
 20
103.3873665499
 10
172.2102467222
 20
103.3407102892
 10
172.2415323628
 20
103.2927292214
 10
172.2707387121
 20
103.2435999835
 10
172.2978286325
 20
103.1934154751
 10
172.3227699187
 20
103.1422680249
 10
172.3454942389
 20
103.0903475995
 10
172.3659771559
 20
103.0377856559
 10
172.3842251757
 20
102.9846486786
 10
172.4002344951
 20
102.9310337965
  0
LWPOLYLINE
  5
29D
100
AcDbEntity
  8
ASSI
100
AcDbPolyline
 62
7
  6
CONTINUOUS
 90
25
 70
0
 10
169.7438554082
 20
102.9264772453
 10
169.739136424
 20
102.9109143212
 10
169.7336014319
 20
102.8956857009
 10
169.727250432
 20
102.8807913844
 10
169.7200500618
 20
102.8661706096
 10
169.7120336838
 20
102.8518841386
 10
169.7033013847
 20
102.838114258
 10
169.6938711918
 20
102.8249012013
 10
169.6837250778
 20
102.8122047349
 10
169.6729090472
 20
102.8000864447
 10
169.6613951279
 20
102.7885235962
 10
169.6492112921
 20
102.7775389239
 10
169.636487461
 20
102.7672622163
 10
169.6232137828
 20
102.7577064275
 10
169.6094001094
 20
102.7488586034
 10
169.5952059174
 20
102.7408096713
 10
169.5806612789
 20
102.7335807123
 10
169.5657361218
 20
102.7271506452
 10
169.5504997067
 20
102.7215471542
 10
169.5349064743
 20
102.7167629836
 10
169.5190019839
 20
102.7128053891
 10
169.5029921736
 20
102.7097238221
 10
169.4869456893
 20
102.7075347666
 10
169.4707938852
 20
102.7062217386
 10
169.4545367611
 20
102.7057847382
  0
LINE
  5
29E
100
AcDbEntity
  8
ASSI
100
AcDbLine
 62
250
  6
CONTINUOUS
 10
169.7438554082
 20
102.1995689268
 11
169.7396649075
 21
102.1950123757
  0
LINE
  5
29F
100
AcDbEntity
  8
ASSI
100
AcDbLine
 62
7
  6
CONTINUOUS
 10
168.7682171208
 20
102.6900763762
 11
168.7736079713
 21
102.6926944366
  0
LINE
  5
2A0
100
AcDbEntity
  8
ASSI
100
AcDbLine
 62
250
  6
CONTINUOUS
 10
169.7390100133
 20
102.1948146769
 11
169.7396649743
 21
102.1950083996
  0
LINE
  5
2A1
100
AcDbEntity
  8
ASSI
100
AcDbLine
 62
250
  6
CONTINUOUS
 10
172.4008893893
 20
102.9312314952
 11
172.4002344283
 21
102.9310377726
  0
LINE
  5
2A2
100
AcDbEntity
  8
ASSI
100
AcDbLine
 62
250
  6
CONTINUOUS
 10
172.4091865736
 20
102.9335637624
 11
172.4008893893
 21
102.9312314952
  0
LINE
  5
2A3
100
AcDbEntity
  8
ASSI
100
AcDbLine
 62
250
  6
CONTINUOUS
 10
169.730712829
 20
102.1924824097
 11
169.7390100133
 21
102.1948146769
  0
LINE
  5
2A4
100
AcDbEntity
  8
ASSI
100
AcDbLine
 62
250
  6
CONTINUOUS
 10
169.5469134174
 20
102.1415163224
 11
169.730712829
 21
102.1924824097
  0
LINE
  5
2A5
100
AcDbEntity
  8
ASSI
100
AcDbLine
 62
250
  6
CONTINUOUS
 10
172.5929859852
 20
102.9845298497
 11
172.4091865736
 21
102.9335637624
  0
LINE
  5
2A6
100
AcDbEntity
  8
ASSI
100
AcDbLine
 62
7
  6
CONTINUOUS
 10
172.99296386
 20
102.4333517356
 11
172.9395068977
 21
102.4202614339
  0
LWPOLYLINE
  5
2A7
100
AcDbEntity
  8
ASSI
100
AcDbPolyline
 62
250
  6
CONTINUOUS
 90
25
 70
0
 10
172.6893626183
 20
102.2148794974
 10
172.6839218384
 20
102.2147293679
 10
172.6785278649
 20
102.214289875
 10
172.6731806977
 20
102.2135610187
 10
172.6678648467
 20
102.2125390056
 10
172.662595802
 20
102.2112276291
 10
172.6574200345
 20
102.2096382694
 10
172.652338365
 20
102.2077684738
 10
172.6473499726
 20
102.2056206949
 10
172.642498865
 20
102.2032136709
 10
172.6377863717
 20
102.2005451621
 10
172.6332111632
 20
102.1976174082
 10
172.6288132595
 20
102.1944558663
 10
172.6245940514
 20
102.1910583324
 10
172.620552148
 20
102.1874270104
 10
172.6167233964
 20
102.1835939697
 10
172.6131097354
 20
102.1795573306
 10
172.6097092263
 20
102.1753189727
 10
172.6065518992
 20
102.1709166043
 10
172.6036399433
 20
102.1663486196
 10
172.6009711695
 20
102.1616166246
 10
172.5985690405
 20
102.1567631447
 10
172.5964413772
 20
102.1518023554
 10
172.5945803588
 20
102.1467200813
 10
172.5929859852
 20
102.1415163224
  0
LWPOLYLINE
  5
2A8
100
AcDbEntity
  8
ASSI
100
AcDbPolyline
 62
250
  6
CONTINUOUS
 90
25
 70
0
 10
172.6893626183
 20
102.4150111395
 10
172.6731094805
 20
102.4145699147
 10
172.6569044403
 20
102.4132488254
 10
172.6407950906
 20
102.4110518078
 10
172.6248291031
 20
102.4079854516
 10
172.6090529853
 20
102.4040587764
 10
172.5935119925
 20
102.3992830081
 10
172.5782510374
 20
102.393671746
 10
172.5633157906
 20
102.3872415769
 10
172.5487513821
 20
102.3800119123
 10
172.53460112
 20
102.3720044149
 10
172.5209059219
 20
102.3632424101
 10
172.5077054692
 20
102.3537513374
 10
172.495038507
 20
102.3435590429
 10
172.4829422735
 20
102.3326954787
 10
172.4714519537
 20
102.3211921814
 10
172.4606009634
 20
102.309082409
 10
172.4504216899
 20
102.2964020996
 10
172.4409448557
 20
102.2831895588
 10
172.4321984183
 20
102.2694840454
 10
172.4242076967
 20
102.2553255389
 10
172.416996061
 20
102.2407557194
 10
172.4105845719
 20
102.2258174436
 10
172.4049919259
 20
102.2105546152
 10
172.4002344165
 20
102.1950120908
  0
LWPOLYLINE
  5
2A9
100
AcDbEntity
  8
ASSI
100
AcDbPolyline
 62
250
  6
CONTINUOUS
 90
25
 70
0
 10
169.4505367843
 20
102.7110350327
 10
169.4667899221
 20
102.7114762574
 10
169.4829949623
 20
102.7127973468
 10
169.499104312
 20
102.7149943643
 10
169.5150702995
 20
102.7180607205
 10
169.5308464173
 20
102.7219873957
 10
169.5463874101
 20
102.7267631641
 10
169.5616483652
 20
102.7323744262
 10
169.576583612
 20
102.7388045952
 10
169.5911480205
 20
102.7460342598
 10
169.6052982826
 20
102.7540417572
 10
169.6189934807
 20
102.7628037621
 10
169.6321939334
 20
102.7722948348
 10
169.6448608956
 20
102.7824871292
 10
169.6569571291
 20
102.7933506935
 10
169.6684474489
 20
102.8048539907
 10
169.6792984392
 20
102.8169637631
 10
169.6894777127
 20
102.8296440725
 10
169.6989545469
 20
102.8428566134
 10
169.7077009843
 20
102.8565621268
 10
169.7156917059
 20
102.8707206333
 10
169.7229033416
 20
102.8852904528
 10
169.7293148307
 20
102.9002287285
 10
169.7349074767
 20
102.915491557
 10
169.7396649861
 20
102.9310340814
  0
LINE
  5
2AA
100
AcDbEntity
  8
ASSI
100
AcDbLine
 62
250
  6
CONTINUOUS
 10
181.9131126297
 20
102.4167857033
 11
181.9015889598
 21
102.416533881
  0
LINE
  5
2AB
100
AcDbEntity
  8
ASSI
100
AcDbLine
 62
250
  6
CONTINUOUS
 10
182.1165572968
 20
102.2170255063
 11
182.1024394517
 21
102.2167508317
  0
LINE
  5
2AC
100
AcDbEntity
  8
ASSI
100
AcDbLine
 62
250
  6
CONTINUOUS
 10
181.9015889598
 20
102.416533881
 11
181.878886281
 21
102.4161791263
  0
LINE
  5
2AD
100
AcDbEntity
  8
ASSI
100
AcDbLine
 62
250
  6
CONTINUOUS
 10
182.1024394517
 20
102.2167508317
 11
182.0718100663
 21
102.2163575237
  0
LINE
  5
2AE
100
AcDbEntity
  8
ASSI
100
AcDbLine
 62
250
  6
CONTINUOUS
 10
181.878886281
 20
102.4161791263
 11
181.8280320648
 21
102.4156694792
  0
LINE
  5
2AF
100
AcDbEntity
  8
ASSI
100
AcDbLine
 62
250
  6
CONTINUOUS
 10
182.0718100663
 20
102.2163575237
 11
181.9795628175
 21
102.2156720429
  0
LINE
  5
2B0
100
AcDbEntity
  8
ASSI
100
AcDbLine
 62
250
  6
CONTINUOUS
 10
181.8280320648
 20
102.4156694792
 11
181.7207922748
 21
102.4151363966
  0
LINE
  5
2B1
100
AcDbEntity
  8
ASSI
100
AcDbLine
 62
250
  6
CONTINUOUS
 10
160.323780792
 20
102.7104640829
 11
160.4340022286
 21
102.7109477883
  0
LINE
  5
2B2
100
AcDbEntity
  8
ASSI
100
AcDbLine
 62
250
  6
CONTINUOUS
 10
181.9795628175
 20
102.2156720429
 11
181.7064543648
 21
102.2149130695
  0
LINE
  5
2B3
100
AcDbEntity
  8
ASSI
100
AcDbLine
 62
250
  6
CONTINUOUS
 10
181.7207922748
 20
102.4151363966
 11
181.6291093132
 21
102.4150111395
  0
LINE
  5
2B4
100
AcDbEntity
  8
ASSI
100
AcDbLine
 62
250
  6
CONTINUOUS
 10
160.4340022286
 20
102.7109477883
 11
160.5107900894
 21
102.7110350327
  0
LWPOLYLINE
  5
2B5
100
AcDbEntity
  8
0
100
AcDbPolyline
 62
7
  6
CONTINUOUS
 90
2
 70
0
 43
0.3500000006
 10
189.4699572144
 20
101.6344501648
 10
187.9699476929
 20
101.6344501648
  0
LINE
  5
2B6
100
AcDbEntity
  8
ASSI
100
AcDbLine
 62
250
  6
CONTINUOUS
 10
181.7064543648
 20
102.2149130695
 11
172.6893626183
 21
102.2148794974
  0
LINE
  5
2B7
100
AcDbEntity
  8
ASSI
100
AcDbLine
 62
7
  6
CONTINUOUS
 10
181.6291093132
 20
102.4150111395
 11
172.6893626183
 21
102.4150111395
  0
LINE
  5
2B8
100
AcDbEntity
  8
ASSI
100
AcDbLine
 62
7
  6
CONTINUOUS
 10
169.4505367843
 20
102.4150111395
 11
160.5107900894
 21
102.4150111395
  0
LINE
  5
2B9
100
AcDbEntity
  8
ASSI
100
AcDbLine
 62
7
  6
CONTINUOUS
 10
172.9395068977
 20
102.4202614339
 11
172.6853626415
 21
102.4202614339
  0
LINE
  5
2BA
100
AcDbEntity
  8
ASSI
100
AcDbLine
 62
7
  6
CONTINUOUS
 10
169.4545367611
 20
102.4202614339
 11
169.2003925049
 21
102.4202614339
  0
LINE
  5
2BB
100
AcDbEntity
  8
ASSI
100
AcDbLine
 62
7
  6
CONTINUOUS
 10
173.3662914313
 20
102.4333517356
 11
172.99296386
 21
102.4333517356
  0
LINE
  5
2BC
100
AcDbEntity
  8
ASSI
100
AcDbLine
 62
7
  6
CONTINUOUS
 10
169.1469355426
 20
102.4333517356
 11
168.7736079713
 21
102.4333517356
  0
LINE
  5
2BD
100
AcDbEntity
  8
ASSI
100
AcDbLine
 62
7
  6
CONTINUOUS
 10
161.2240604026
 20
102.4359697959
 11
168.7682171208
 21
102.4359697959
  0
LINE
  5
2BE
100
AcDbEntity
  8
ASSI
100
AcDbLine
 62
7
  6
CONTINUOUS
 10
173.3716822818
 20
102.4359697959
 11
180.915839
 21
102.4359697959
  0
LINE
  5
2BF
100
AcDbEntity
  8
ASSI
100
AcDbLine
 62
7
  6
CONTINUOUS
 10
160.1199497025
 20
102.4630230861
 11
161.1699497013
 21
102.4630230861
  0
LINE
  5
2C0
100
AcDbEntity
  8
ASSI
100
AcDbLine
 62
7
  6
CONTINUOUS
 10
180.9699497013
 20
102.4630230861
 11
182.0199497001
 21
102.4630230861
  0
LINE
  5
2C1
100
AcDbEntity
  8
ASSI
100
AcDbLine
 62
7
  6
CONTINUOUS
 10
182.0199497001
 20
102.6630230861
 11
180.9699497013
 21
102.6630230861
  0
LINE
  5
2C2
100
AcDbEntity
  8
ASSI
100
AcDbLine
 62
7
  6
CONTINUOUS
 10
161.1699497013
 20
102.6630230861
 11
160.1199497025
 21
102.6630230861
  0
LINE
  5
2C3
100
AcDbEntity
  8
ASSI
100
AcDbLine
 62
7
  6
CONTINUOUS
 10
180.915839
 20
102.6900763762
 11
173.3716822818
 21
102.6900763762
  0
LINE
  5
2C4
100
AcDbEntity
  8
ASSI
100
AcDbLine
 62
7
  6
CONTINUOUS
 10
168.7682171208
 20
102.6900763762
 11
161.2240604026
 21
102.6900763762
  0
LINE
  5
2C5
100
AcDbEntity
  8
ASSI
100
AcDbLine
 62
7
  6
CONTINUOUS
 10
168.7736079713
 20
102.6926944366
 11
169.1469355426
 21
102.6926944366
  0
LINE
  5
2C6
100
AcDbEntity
  8
ASSI
100
AcDbLine
 62
7
  6
CONTINUOUS
 10
172.99296386
 20
102.6926944366
 11
173.3662914313
 21
102.6926944366
  0
LINE
  5
2C7
100
AcDbEntity
  8
ASSI
100
AcDbLine
 62
7
  6
CONTINUOUS
 10
169.2003925049
 20
102.7057847382
 11
169.4545367611
 21
102.7057847382
  0
LINE
  5
2C8
100
AcDbEntity
  8
ASSI
100
AcDbLine
 62
7
  6
CONTINUOUS
 10
172.6853626415
 20
102.7057847382
 11
172.9395068977
 21
102.7057847382
  0
LINE
  5
2C9
100
AcDbEntity
  8
ASSI
100
AcDbLine
 62
7
  6
CONTINUOUS
 10
160.5107900894
 20
102.7110350327
 11
169.4505367843
 21
102.7110350327
  0
LINE
  5
2CA
100
AcDbEntity
  8
ASSI
100
AcDbLine
 62
7
  6
CONTINUOUS
 10
172.6893626183
 20
102.7110350327
 11
181.6291093132
 21
102.7110350327
  0
LINE
  5
2CB
100
AcDbEntity
  8
ASSI
100
AcDbLine
 62
250
  6
CONTINUOUS
 10
169.4505367843
 20
102.2148794974
 11
160.199081995
 21
102.2154825151
  0
LINE
  5
2CC
100
AcDbEntity
  8
ASSI
100
AcDbLine
 62
250
  6
CONTINUOUS
 10
160.5107900894
 20
102.4150111395
 11
160.3760106714
 21
102.4152902267
  0
LINE
  5
2CD
100
AcDbEntity
  8
ASSI
100
AcDbLine
 62
250
  6
CONTINUOUS
 10
181.6291093132
 20
102.7110350327
 11
181.7638887312
 21
102.7107559455
  0
LINE
  5
2CE
100
AcDbEntity
  8
ASSI
100
AcDbLine
 62
250
  6
CONTINUOUS
 10
181.7638887312
 20
102.7107559455
 11
181.81611861
 21
102.7104640829
  0
LINE
  5
2CF
100
AcDbEntity
  8
ASSI
100
AcDbLine
 62
250
  6
CONTINUOUS
 10
160.199081995
 20
102.2154825151
 11
160.0807120429
 21
102.2162329311
  0
LINE
  5
2D0
100
AcDbEntity
  8
ASSI
100
AcDbLine
 62
250
  6
CONTINUOUS
 10
160.3760106714
 20
102.4152902267
 11
160.2897337475
 21
102.4158592936
  0
LINE
  5
2D1
100
AcDbEntity
  8
ASSI
100
AcDbLine
 62
250
  6
CONTINUOUS
 10
160.0807120429
 20
102.2162329311
 11
160.0464335634
 21
102.2166170029
  0
LINE
  5
2D2
100
AcDbEntity
  8
ASSI
100
AcDbLine
 62
250
  6
CONTINUOUS
 10
160.2897337475
 20
102.4158592936
 11
160.25273277
 21
102.4162941102
  0
LWPOLYLINE
  5
2D3
100
AcDbEntity
  8
ASSI
100
AcDbPolyline
 62
250
  6
CONTINUOUS
 90
7
 70
0
 10
160.0464335634
 20
102.2166170029
 10
160.0297562468
 20
102.2168870159
 10
160.0233421062
 20
102.2170255063
 10
160.0182338408
 20
102.2171653119
 10
160.0144452541
 20
102.2173060708
 10
160.0119870178
 20
102.2174480495
 10
160.0108659806
 20
102.2175912
  0
LINE
  5
2D4
100
AcDbEntity
  8
ASSI
100
AcDbLine
 62
250
  6
CONTINUOUS
 10
160.25273277
 20
102.4162941102
 11
160.2383104432
 21
102.416533881
  0
LWPOLYLINE
  5
2D5
100
AcDbEntity
  8
ASSI
100
AcDbPolyline
 62
250
  6
CONTINUOUS
 90
8
 70
0
 10
160.2383104432
 20
102.416533881
 10
160.2267867732
 20
102.4167857033
 10
160.2221716356
 20
102.416915007
 10
160.2183167779
 20
102.4170465591
 10
160.2152527149
 20
102.4171792907
 10
160.2129896183
 20
102.4173128455
 10
160.2115173165
 20
102.4174475797
 10
160.2108358095
 20
102.4175834934
  0
LWPOLYLINE
  5
2D6
100
AcDbEntity
  8
ASSI
100
AcDbPolyline
 62
7
  6
CONTINUOUS
 90
3
 70
0
 10
169.4545367611
 20
102.4202614339
 10
169.4707938852
 20
102.4198244335
 10
169.4869456893
 20
102.4185114055
  0
LWPOLYLINE
  5
2D7
100
AcDbEntity
  8
ASSI
100
AcDbPolyline
 62
7
  6
CONTINUOUS
 90
3
 70
0
 10
172.6853626415
 20
102.7057847382
 10
172.6691055174
 20
102.7062217386
 10
172.6529537133
 20
102.7075347666
  0
LWPOLYLINE
  5
2D8
100
AcDbEntity
  8
ASSI
100
AcDbPolyline
 62
7
  6
CONTINUOUS
 90
23
 70
0
 10
169.4869456893
 20
102.4185114055
 10
169.5029921736
 20
102.41632235
 10
169.5190019839
 20
102.4132407831
 10
169.5349064743
 20
102.4092831886
 10
169.5504997067
 20
102.4044990179
 10
169.5657361218
 20
102.398895527
 10
169.5806612789
 20
102.3924654599
 10
169.5952059174
 20
102.3852365008
 10
169.6094001094
 20
102.3771875687
 10
169.6232137828
 20
102.3683397447
 10
169.636487461
 20
102.3587839558
 10
169.6492112921
 20
102.3485072483
 10
169.6613951279
 20
102.3375225759
 10
169.6729090472
 20
102.3259597274
 10
169.6837250778
 20
102.3138414372
 10
169.6938711918
 20
102.3011449709
 10
169.7033013847
 20
102.2879319142
 10
169.7120336838
 20
102.2741620335
 10
169.7200500618
 20
102.2598755626
 10
169.727250432
 20
102.2452547877
 10
169.7336014319
 20
102.2303604713
 10
169.739136424
 20
102.215131851
 10
169.7438554082
 20
102.1995689268
  0
LINE
  5
2D9
100
AcDbEntity
  8
ASSI
100
AcDbLine
 62
7
  6
CONTINUOUS
 10
169.2003925049
 20
102.4202614339
 11
169.1469355426
 21
102.4333517356
  0
LWPOLYLINE
  5
2DA
100
AcDbEntity
  8
ASSI
100
AcDbPolyline
 62
250
  6
CONTINUOUS
 90
4
 70
0
 10
169.5469134174
 20
102.9845298497
 10
169.7372936944
 20
102.9317187666
 10
169.7390113594
 20
102.9312311229
 10
169.7396663264
 20
102.9310373984
  0
LWPOLYLINE
  5
2DB
100
AcDbEntity
  8
ASSI
100
AcDbPolyline
 62
250
  6
CONTINUOUS
 90
4
 70
0
 10
172.5929859852
 20
102.1415163225
 10
172.4026057082
 20
102.1943274055
 10
172.4008880432
 20
102.1948150492
 10
172.4002330762
 20
102.1950087737
  0
LINE
  5
2DC
100
AcDbEntity
  8
ASSI
100
AcDbLine
 62
7
  6
CONTINUOUS
 10
168.7736079713
 20
102.4333517356
 11
168.7682171208
 21
102.4359697959
  0
LINE
  5
2DD
100
AcDbEntity
  8
ASSI
100
AcDbLine
 62
250
  6
CONTINUOUS
 10
169.7396649863
 20
102.9310340813
 11
169.7438554082
 21
102.9264772453
  0
LWPOLYLINE
  5
2DE
100
AcDbEntity
  8
ASSI
100
AcDbPolyline
 62
250
  6
CONTINUOUS
 90
25
 70
0
 10
169.7396649073
 20
102.1950123755
 10
169.7349074244
 20
102.2105547707
 10
169.7293148065
 20
102.2258175045
 10
169.7229033417
 20
102.2407557192
 10
169.7156917162
 20
102.2553255194
 10
169.70770099
 20
102.2694840359
 10
169.6989545469
 20
102.2831895587
 10
169.6894777127
 20
102.2964020996
 10
169.6792984392
 20
102.309082409
 10
169.6684474489
 20
102.3211921814
 10
169.6569571292
 20
102.3326954786
 10
169.6448608957
 20
102.3435590429
 10
169.6321939334
 20
102.3537513373
 10
169.6189934807
 20
102.36324241
 10
169.6052982827
 20
102.3720044149
 10
169.5911480205
 20
102.3800119123
 10
169.5765836121
 20
102.3872415769
 10
169.5616483653
 20
102.393671746
 10
169.5463874101
 20
102.3992830081
 10
169.5308464173
 20
102.4040587764
 10
169.5150702997
 20
102.4079854516
 10
169.4991043121
 20
102.4110518078
 10
169.4829949624
 20
102.4132488254
 10
169.4667899222
 20
102.4145699147
 10
169.4505367843
 20
102.4150111395
  0
LINE
  5
2DF
100
AcDbEntity
  8
ASSI
100
AcDbLine
 62
250
  6
CONTINUOUS
 10
172.6893626183
 20
102.9111666747
 11
172.6893626183
 21
102.7110350327
  0
LINE
  5
2E0
100
AcDbEntity
  8
ASSI
100
AcDbLine
 62
250
  6
CONTINUOUS
 10
172.6893626183
 20
102.2148794974
 11
172.6893626184
 21
102.4150111395
  0
LWPOLYLINE
  5
2E1
100
AcDbEntity
  8
CURVE
100
AcDbPolyline
 62
250
  6
CONTINUOUS
 90
87
 70
0
 10
172.0727919066
 20
115.5060564192
 10
172.0721511453
 20
115.470022556
 10
172.0702405679
 20
115.4344328884
 10
172.0670777344
 20
115.3991927199
 10
172.0626802047
 20
115.364207354
 10
172.0570612458
 20
115.3294013334
 10
172.0502169529
 20
115.2947761578
 10
172.0421391284
 20
115.2603525663
 10
172.0328195745
 20
115.2261512981
 10
172.0222552096
 20
115.1922017403
 10
172.0104634156
 20
115.1585678724
 10
171.9974666902
 20
115.1253223219
 10
171.9832875312
 20
115.0925377164
 10
171.967946657
 20
115.0602799898
 10
171.9514576676
 20
115.0285883019
 10
171.9338323833
 20
114.997495119
 10
171.9150826246
 20
114.9670329072
 10
171.8922994554
 20
114.9330361036
 10
171.8681218926
 20
114.8999716173
 10
171.8426088049
 20
114.8679052351
 10
171.815819061
 20
114.8369027439
 10
171.7878115296
 20
114.8070299306
 10
171.7586450793
 20
114.778352582
 10
171.7283785789
 20
114.750936485
 10
171.7010376201
 20
114.7280281813
 10
171.6729289555
 20
114.7061466254
 10
171.644082034
 20
114.6853025513
 10
171.6145263043
 20
114.6655066929
 10
171.5842884558
 20
114.6467706358
 10
171.5533841406
 20
114.6291093728
 10
171.5218262513
 20
114.6125387479
 10
171.4896276806
 20
114.5970746055
 10
171.4568099621
 20
114.5827354984
 10
171.4234291946
 20
114.5695508134
 10
171.3895501176
 20
114.5575526459
 10
171.3552374709
 20
114.5467730913
 10
171.3205577699
 20
114.5372402651
 10
171.2855846325
 20
114.5289663639
 10
171.2503934523
 20
114.5219596045
 10
171.215059623
 20
114.5162282033
 10
171.1796487295
 20
114.5117778144
 10
171.1441871221
 20
114.5086038402
 10
171.1086913424
 20
114.5066991201
 10
171.0731779321
 20
114.5060564937
 10
171.0376631729
 20
114.5066712802
 10
171.0021623068
 20
114.5085487172
 10
170.9666903161
 20
114.5116965223
 10
170.9312621829
 20
114.5161224126
 10
170.8959032782
 20
114.5218315053
 10
170.8606805292
 20
114.5288185156
 10
170.8256712521
 20
114.5370755584
 10
170.790952763
 20
114.5465947487
 10
170.7566007979
 20
114.5573638468
 10
170.7226847724
 20
114.5693531948
 10
170.6892725217
 20
114.58252878
 10
170.6564318814
 20
114.59685659
 10
170.6242209488
 20
114.6123057321
 10
170.5926588694
 20
114.6288577937
 10
170.5617550505
 20
114.6464974825
 10
170.5315188996
 20
114.6652095057
 10
170.5019628056
 20
114.684980022
 10
170.4731110841
 20
114.7058009944
 10
170.4449910321
 20
114.727665837
 10
170.4176299466
 20
114.7505679639
 10
170.3873282608
 20
114.7779932979
 10
170.3581168552
 20
114.8066936937
 10
170.3300590533
 20
114.8365979949
 10
170.3032181788
 20
114.8676350447
 10
170.2776575553
 20
114.8997336868
 10
170.2534405062
 20
114.9328227646
 10
170.2306303554
 20
114.9668311215
 10
170.2118695436
 20
114.9972897192
 10
170.1942419526
 20
115.0283687577
 10
170.1777551644
 20
115.060039334
 10
170.1624167611
 20
115.092272545
 10
170.1482368411
 20
115.1250327771
 10
170.1352355667
 20
115.1582575738
 10
170.1234356167
 20
115.1918777683
 10
170.1128596695
 20
115.2258241936
 10
170.1035255002
 20
115.2600354188
 10
170.0954312687
 20
115.2944809569
 10
170.0885702315
 20
115.329138057
 10
170.082935645
 20
115.3639839681
 10
170.0785249058
 20
115.3990155598
 10
170.0753519713
 20
115.434308184
 10
170.073434939
 20
115.469956813
 10
170.0727919066
 20
115.5060564192
  0
LWPOLYLINE
  5
2E2
100
AcDbEntity
  8
CURVE
100
AcDbPolyline
 62
250
  6
CONTINUOUS
 90
81
 70
0
 10
171.7191745539
 20
89.5030230861
 10
171.7186707631
 20
89.4772295422
 10
171.7171703077
 20
89.4518158771
 10
171.714689563
 20
89.4267005984
 10
171.7112449044
 20
89.4018022139
 10
171.7068486175
 20
89.3770557593
 10
171.7014966285
 20
89.3524623828
 10
171.6951807742
 20
89.3280397607
 10
171.6878928912
 20
89.3038055691
 10
171.679629698
 20
89.2797849832
 10
171.6704074409
 20
89.2560331735
 10
171.6602472482
 20
89.2326128095
 10
171.6491702482
 20
89.2095865603
 10
171.6371960248
 20
89.187011506
 10
171.6243379851
 20
89.1649223682
 10
171.6106079921
 20
89.1433482793
 10
171.5960179085
 20
89.1223183715
 10
171.5805836368
 20
89.1018626096
 10
171.564337238
 20
89.0820142892
 10
171.5473148126
 20
89.0628075386
 10
171.5295524613
 20
89.0442764858
 10
171.5110862846
 20
89.0264552592
 10
171.4919523831
 20
89.0093779868
 10
171.4721868574
 20
88.993078797
 10
171.4518258081
 20
88.9775918178
 10
171.4309037682
 20
88.9629475227
 10
171.4094490009
 20
88.949161766
 10
171.3874882019
 20
88.9362467473
 10
171.3650480667
 20
88.9242146661
 10
171.3421552909
 20
88.9130777219
 10
171.3188365703
 20
88.9028481142
 10
171.2951186003
 20
88.8935380427
 10
171.2710280767
 20
88.8851597069
 10
171.2465943944
 20
88.8777250791
 10
171.2218577455
 20
88.8712452233
 10
171.1968610215
 20
88.8657309761
 10
171.1716471138
 20
88.8611931744
 10
171.1462589139
 20
88.8576426549
 10
171.1207393132
 20
88.8550902542
 10
171.0951312032
 20
88.8535468092
 10
171.0694774754
 20
88.8530231567
 10
171.0438211439
 20
88.8535265231
 10
171.018205713
 20
88.8550496948
 10
170.99267481
 20
88.8575818478
 10
170.9672720619
 20
88.8611121581
 10
170.9420410959
 20
88.865629802
 10
170.917025539
 20
88.8711239554
 10
170.8922690185
 20
88.8775837944
 10
170.8678151613
 20
88.8849984951
 10
170.8437046231
 20
88.8933572386
 10
170.8199661727
 20
88.902649226
 10
170.7966256077
 20
88.9128636631
 10
170.7737087252
 20
88.923989756
 10
170.7512413229
 20
88.9360167108
 10
170.7292491979
 20
88.9489337333
 10
170.7077581477
 20
88.9627300297
 10
170.6867939698
 20
88.9773948059
 10
170.666384655
 20
88.9929128236
 10
170.6465669693
 20
89.0092510673
 10
170.6273798721
 20
89.0263720768
 10
170.6088623227
 20
89.0442383924
 10
170.5910532807
 20
89.0628125541
 10
170.5739917055
 20
89.082057102
 10
170.5577165565
 20
89.1019345761
 10
170.5422667933
 20
89.1224075165
 10
170.5276760445
 20
89.1434403359
 10
170.5139566161
 20
89.1650049371
 10
170.5011154837
 20
89.1870750956
 10
170.4891596225
 20
89.2096245868
 10
170.4780983361
 20
89.2326216926
 10
170.4679502408
 20
89.2560127193
 10
170.4587362811
 20
89.2797384795
 10
170.4504774016
 20
89.3037397859
 10
170.4431899011
 20
89.3279640411
 10
170.436871496
 20
89.3523850074
 10
170.4315152567
 20
89.376983037
 10
170.4271142538
 20
89.401738482
 10
170.4236654725
 20
89.4266485952
 10
170.4211815566
 20
89.4517782306
 10
170.4196790643
 20
89.4772091427
 10
170.4191745539
 20
89.5030230861
  0
LWPOLYLINE
  5
2E3
100
AcDbEntity
  8
ASSI
100
AcDbPolyline
 62
250
  6
CONTINUOUS
 90
64
 70
0
 10
172.5929859852
 20
102.1415163224
 10
172.5746594172
 20
102.0799720435
 10
172.5537862591
 20
102.0191908616
 10
172.5303665109
 20
101.9591727773
 10
172.5043572797
 20
101.8997714746
 10
172.4758014584
 20
101.8411332705
 10
172.4448277256
 20
101.7836971158
 10
172.4114046583
 20
101.7274756458
 10
172.3755636794
 20
101.6724562252
 10
172.3375277362
 20
101.6190398979
 10
172.2972750915
 20
101.567251358
 10
172.2548274825
 20
101.5170659105
 10
172.210473068
 20
101.4688105152
 10
172.1642267136
 20
101.4225295278
 10
172.1160735536
 20
101.378178591
 10
172.0662571508
 20
101.3359515945
 10
172.0147851679
 20
101.2958628186
 10
171.9616499421
 20
101.257897981
 10
171.9070720468
 20
101.2222081276
 10
171.8510301872
 20
101.1887891338
 10
171.7935456581
 20
101.157645122
 10
171.7349029171
 20
101.1289395092
 10
171.6750843414
 20
101.1026814292
 10
171.6141075538
 20
101.078861746
 10
171.5523098798
 20
101.0576164719
 10
171.4896931108
 20
101.0389638274
 10
171.4262554554
 20
101.0228855902
 10
171.3623288646
 20
101.009463109
 10
171.2979152807
 20
100.9987108867
 10
171.2330127614
 20
100.9906144192
 10
171.167947431
 20
100.9852115445
 10
171.102719419
 20
100.9825148932
 10
171.0373285959
 20
100.9825118344
 10
170.9721006972
 20
100.9852023143
 10
170.907035706
 20
100.9905989298
 10
170.8421336391
 20
100.9986890844
 10
170.7777202835
 20
101.0094349344
 10
170.7137937995
 20
101.0228508783
 10
170.6503560268
 20
101.0389225187
 10
170.5877382711
 20
101.0575688179
 10
170.5259384688
 20
101.0788080308
 10
170.4649586835
 20
101.1026219043
 10
170.4051364121
 20
101.1288746384
 10
170.3464888273
 20
101.157575747
 10
170.2889987563
 20
101.1887157183
 10
170.232952178
 20
101.2221302137
 10
170.1783707874
 20
101.2578151134
 10
170.1252328894
 20
101.2957745394
 10
170.0737593767
 20
101.3358565157
 10
170.0239434729
 20
101.378074378
 10
169.9757919544
 20
101.4224147926
 10
169.9295460423
 20
101.4686857789
 10
169.8851905982
 20
101.5169311764
 10
169.8427407605
 20
101.5671071471
 10
169.8024831656
 20
101.6188901944
 10
169.7644385609
 20
101.6723058616
 10
169.7285861991
 20
101.7273286061
 10
169.6951504738
 20
101.7835583027
 10
169.6641625109
 20
101.841008461
 10
169.6355911846
 20
101.8996655711
 10
169.6095675105
 20
101.9590889783
 10
169.5861351606
 20
102.0191317972
 10
169.5652504629
 20
102.0799409121
 10
169.5469134174
 20
102.1415163224
  0
LWPOLYLINE
  5
2E4
100
AcDbEntity
  8
ASSI
100
AcDbPolyline
 62
250
  6
CONTINUOUS
 90
64
 70
0
 10
172.4002344163
 20
102.1950120909
 10
172.3842346154
 20
102.1414269188
 10
172.365997598
 20
102.088316322
 10
172.3455268237
 20
102.0357773965
 10
172.3228156409
 20
101.9838770447
 10
172.2978879793
 20
101.9327463024
 10
172.2708111256
 20
101.8825739646
 10
172.2416165314
 20
101.8334521011
 10
172.2103410875
 20
101.7854742614
 10
172.1770889574
 20
101.7388174067
 10
172.1419195131
 20
101.6935688658
 10
172.1048873412
 20
101.6498026722
 10
172.0661138611
 20
101.6076582722
 10
172.0256977065
 20
101.5672278132
 10
171.9836899543
 20
101.5285479859
 10
171.9401507318
 20
101.4916652088
 10
171.8951675277
 20
101.456645813
 10
171.8488111689
 20
101.4235374187
 10
171.8011140214
 20
101.3923612056
 10
171.7521408466
 20
101.3631632768
 10
171.7019887825
 20
101.3360052259
 10
171.650737635
 20
101.3109329754
 10
171.5984643151
 20
101.287987892
 10
171.5452662509
 20
101.267216416
 10
171.4912576994
 20
101.2486643864
 10
171.4365374685
 20
101.2323648758
 10
171.3811932476
 20
101.2183431508
 10
171.3253257415
 20
101.2066239
 10
171.2690345361
 20
101.1972265793
 10
171.2124123183
 20
101.1901652426
 10
171.1555505193
 20
101.1854504582
 10
171.0985470238
 20
101.1830898141
 10
171.04149856
 20
101.1830867926
 10
170.9844950541
 20
101.1854413834
 10
170.9276333124
 20
101.1901500767
 10
170.8710111345
 20
101.1972052673
 10
170.8147197065
 20
101.2065964123
 10
170.7588518162
 20
101.2183094451
 10
170.7035069422
 20
101.2323249368
 10
170.6487852538
 20
101.2486183824
 10
170.5947742649
 20
101.2671646644
 10
170.5415730137
 20
101.2879307308
 10
170.4892958537
 20
101.3108707896
 10
170.4380398072
 20
101.3359386922
 10
170.3878822876
 20
101.3630929387
 10
170.338904471
 20
101.3922868361
 10
170.2912036719
 20
101.4234585254
 10
170.2448443454
 20
101.4565619358
 10
170.1998593441
 20
101.4915753277
 10
170.1563201862
 20
101.528450186
 10
170.1143133141
 20
101.5671206995
 10
170.0738968808
 20
101.6075421952
 10
170.035122141
 20
101.64967794
 10
169.9980876573
 20
101.6934360175
 10
169.9629130349
 20
101.7386796222
 10
169.9296526804
 20
101.7853358829
 10
169.8983670398
 20
101.8333169507
 10
169.8691606905
 20
101.8824461887
 10
169.8420707701
 20
101.932630697
 10
169.8171294839
 20
101.9837781473
 10
169.7944051638
 20
102.0356985727
 10
169.7739222467
 20
102.0882605162
 10
169.7556742269
 20
102.1413974935
 10
169.7396649075
 20
102.1950123757
  0
LWPOLYLINE
  5
2E5
100
AcDbEntity
  8
ASSI
100
AcDbPolyline
 62
7
  6
CONTINUOUS
 90
25
 70
0
 10
172.3960439944
 20
102.1995689268
 10
172.4007629786
 20
102.215131851
 10
172.4062979707
 20
102.2303604713
 10
172.4126489706
 20
102.2452547877
 10
172.4198493408
 20
102.2598755626
 10
172.4278657188
 20
102.2741620335
 10
172.4365980179
 20
102.2879319142
 10
172.4460282108
 20
102.3011449709
 10
172.4561743248
 20
102.3138414372
 10
172.4669903554
 20
102.3259597274
 10
172.4785042747
 20
102.3375225759
 10
172.4906881105
 20
102.3485072483
 10
172.5034119416
 20
102.3587839558
 10
172.5166856198
 20
102.3683397447
 10
172.5304992932
 20
102.3771875687
 10
172.5446934852
 20
102.3852365008
 10
172.5592381237
 20
102.3924654599
 10
172.5741632808
 20
102.398895527
 10
172.5893996959
 20
102.4044990179
 10
172.6049929283
 20
102.4092831886
 10
172.6208974187
 20
102.4132407831
 10
172.636907229
 20
102.41632235
 10
172.6529537133
 20
102.4185114055
 10
172.6691055174
 20
102.4198244335
 10
172.6853626415
 20
102.4202614339
  0
LINE
  5
2E6
100
AcDbEntity
  8
ASSI
100
AcDbLine
 62
250
  6
CONTINUOUS
 10
172.3960439944
 20
102.9264772453
 11
172.4002344951
 21
102.9310337965
  0
LINE
  5
2E7
100
AcDbEntity
  8
ASSI
100
AcDbLine
 62
7
  6
CONTINUOUS
 10
173.3716822818
 20
102.4359697959
 11
173.3662914313
 21
102.4333517356
  0
LINE
  5
2E8
100
AcDbEntity
  8
ASSI
100
AcDbLine
 62
7
  6
CONTINUOUS
 10
169.1469355426
 20
102.6926944366
 11
169.2003925049
 21
102.7057847382
  0
LWPOLYLINE
  5
2E9
100
AcDbEntity
  8
ASSI
100
AcDbPolyline
 62
250
  6
CONTINUOUS
 90
5
 70
0
 10
160.0108659806
 20
102.9084549722
 10
160.0119870178
 20
102.9085981226
 10
160.0144452539
 20
102.9087401014
 10
160.0182338405
 20
102.9088808603
 10
160.0233421058
 20
102.9090206659
  0
LWPOLYLINE
  5
2EA
100
AcDbEntity
  8
ASSI
100
AcDbPolyline
 62
250
  6
CONTINUOUS
 90
25
 70
0
 10
169.4505367843
 20
102.9111666747
 10
169.4559775642
 20
102.9113168042
 10
169.4613715377
 20
102.9117562972
 10
169.4667187049
 20
102.9124851535
 10
169.4720345559
 20
102.9135071665
 10
169.4773036006
 20
102.914818543
 10
169.4824793681
 20
102.9164079027
 10
169.4875610376
 20
102.9182776983
 10
169.49254943
 20
102.9204254772
 10
169.4974005376
 20
102.9228325012
 10
169.5021130309
 20
102.92550101
 10
169.5066882394
 20
102.9284287639
 10
169.5110861431
 20
102.9315903058
 10
169.5153053512
 20
102.9349878398
 10
169.5193472546
 20
102.9386191617
 10
169.5231760062
 20
102.9424522024
 10
169.5267896672
 20
102.9464888416
 10
169.5301901763
 20
102.9507271995
 10
169.5333475034
 20
102.9551295679
 10
169.5362594593
 20
102.9596975525
 10
169.5389282331
 20
102.9644295476
 10
169.5413303621
 20
102.9692830274
 10
169.5434580254
 20
102.9742438168
 10
169.5453190438
 20
102.9793260909
 10
169.5469134174
 20
102.9845298497
  0
LINE
  5
2EB
100
AcDbEntity
  8
ASSI
100
AcDbLine
 62
250
  6
CONTINUOUS
 10
160.2267867729
 20
102.7092604689
 11
160.2383104428
 21
102.7095122911
  0
LINE
  5
2EC
100
AcDbEntity
  8
ASSI
100
AcDbLine
 62
250
  6
CONTINUOUS
 10
160.0233421058
 20
102.9090206659
 11
160.0374599509
 21
102.9092953404
  0
LINE
  5
2ED
100
AcDbEntity
  8
ASSI
100
AcDbLine
 62
250
  6
CONTINUOUS
 10
160.2383104428
 20
102.7095122911
 11
160.2610131216
 21
102.7098670458
  0
LINE
  5
2EE
100
AcDbEntity
  8
ASSI
100
AcDbLine
 62
250
  6
CONTINUOUS
 10
160.0374599509
 20
102.9092953404
 11
160.0680893363
 21
102.9096886484
  0
LWPOLYLINE
  5
2EF
100
AcDbEntity
  8
ASSI
100
AcDbPolyline
 62
250
  6
CONTINUOUS
 90
3
 70
0
 10
160.2610131216
 20
102.7098670458
 10
160.3118673378
 20
102.7103766929
 10
160.323780792
 20
102.7104640829
  0
LINE
  5
2F0
100
AcDbEntity
  8
ASSI
100
AcDbLine
 62
250
  6
CONTINUOUS
 10
160.0680893363
 20
102.9096886484
 11
160.1603365851
 21
102.9103741293
  0
LINE
  5
2F1
100
AcDbEntity
  8
ASSI
100
AcDbLine
 62
250
  6
CONTINUOUS
 10
160.1603365851
 20
102.9103741293
 11
160.4334450378
 21
102.9111331026
  0
LINE
  5
2F2
100
AcDbEntity
  8
ASSI
100
AcDbLine
 62
250
  6
CONTINUOUS
 10
160.4334450378
 20
102.9111331026
 11
169.4505367843
 21
102.9111666747
  0
LINE
  5
2F3
100
AcDbEntity
  8
ASSI
100
AcDbLine
 62
250
  6
CONTINUOUS
 10
172.6893626183
 20
102.9111666747
 11
181.9408174076
 21
102.910563657
  0
LINE
  5
2F4
100
AcDbEntity
  8
ASSI
100
AcDbLine
 62
250
  6
CONTINUOUS
 10
181.9408174076
 20
102.910563657
 11
182.0591873597
 21
102.9098132411
  0
LINE
  5
2F5
100
AcDbEntity
  8
ASSI
100
AcDbLine
 62
250
  6
CONTINUOUS
 10
181.81611861
 20
102.7104640829
 11
181.869961093
 21
102.7099778539
  0
LINE
  5
2F6
100
AcDbEntity
  8
ASSI
100
AcDbLine
 62
250
  6
CONTINUOUS
 10
182.0591873597
 20
102.9098132411
 11
182.0934658392
 21
102.9094291692
  0
LINE
  5
2F7
100
AcDbEntity
  8
ASSI
100
AcDbLine
 62
250
  6
CONTINUOUS
 10
181.869961093
 20
102.7099778539
 11
181.8947360531
 21
102.7096338205
  0
LWPOLYLINE
  5
2F8
100
AcDbEntity
  8
ASSI
100
AcDbPolyline
 62
250
  6
CONTINUOUS
 90
7
 70
0
 10
182.0934658392
 20
102.9094291692
 10
182.1101431558
 20
102.9091591562
 10
182.1165572964
 20
102.9090206659
 10
182.1216655618
 20
102.9088808603
 10
182.1254541485
 20
102.9087401014
 10
182.1279123848
 20
102.9085981226
 10
182.129033422
 20
102.9084549722
  0
LWPOLYLINE
  5
2F9
100
AcDbEntity
  8
ASSI
100
AcDbPolyline
 62
250
  6
CONTINUOUS
 90
9
 70
0
 10
181.8947360531
 20
102.7096338205
 10
181.9077309343
 20
102.7093875042
 10
181.9131126294
 20
102.7092604689
 10
181.917727767
 20
102.7091311652
 10
181.9215826247
 20
102.708999613
 10
181.9246466877
 20
102.7088668814
 10
181.9269097843
 20
102.7087333266
 10
181.9283820861
 20
102.7085985924
 10
181.9290635931
 20
102.7084626787
  0
LWPOLYLINE
  5
2FA
100
AcDbEntity
  8
ASSI
100
AcDbPolyline
 62
7
  6
CONTINUOUS
 90
23
 70
0
 10
172.6529537133
 20
102.7075347666
 10
172.636907229
 20
102.7097238221
 10
172.6208974187
 20
102.7128053891
 10
172.6049929283
 20
102.7167629836
 10
172.5893996959
 20
102.7215471542
 10
172.5741632808
 20
102.7271506452
 10
172.5592381237
 20
102.7335807123
 10
172.5446934852
 20
102.7408096713
 10
172.5304992932
 20
102.7488586034
 10
172.5166856198
 20
102.7577064275
 10
172.5034119416
 20
102.7672622163
 10
172.4906881105
 20
102.7775389239
 10
172.4785042747
 20
102.7885235962
 10
172.4669903554
 20
102.8000864447
 10
172.4561743248
 20
102.8122047349
 10
172.4460282108
 20
102.8249012013
 10
172.4365980179
 20
102.838114258
 10
172.4278657188
 20
102.8518841386
 10
172.4198493408
 20
102.8661706096
 10
172.4126489706
 20
102.8807913844
 10
172.4062979707
 20
102.8956857009
 10
172.4007629786
 20
102.9109143212
 10
172.3960439944
 20
102.9264772453
  0
LINE
  5
2FB
100
AcDbEntity
  8
ASSI
100
AcDbLine
 62
7
  6
CONTINUOUS
 10
172.9395068977
 20
102.7057847382
 11
172.99296386
 21
102.6926944366
  0
LINE
  5
2FC
100
AcDbEntity
  8
ASSI
100
AcDbLine
 62
7
  6
CONTINUOUS
 10
173.3662914313
 20
102.6926944366
 11
173.3716822818
 21
102.6900763762
  0
LINE
  5
2FD
100
AcDbEntity
  8
ASSI
100
AcDbLine
 62
250
  6
CONTINUOUS
 10
172.4002344163
 20
102.1950120909
 11
172.3960439944
 21
102.1995689268
  0
LWPOLYLINE
  5
2FE
100
AcDbEntity
  8
ASSI
100
AcDbPolyline
 62
250
  6
CONTINUOUS
 90
25
 70
0
 10
172.5929859852
 20
102.9845298497
 10
172.5945803588
 20
102.9793260909
 10
172.5964413772
 20
102.9742438168
 10
172.5985690405
 20
102.9692830275
 10
172.6009711695
 20
102.9644295476
 10
172.6036399433
 20
102.9596975525
 10
172.6065518992
 20
102.9551295679
 10
172.6097092263
 20
102.9507271995
 10
172.6131097354
 20
102.9464888416
 10
172.6167233963
 20
102.9424522024
 10
172.620552148
 20
102.9386191617
 10
172.6245940514
 20
102.9349878398
 10
172.6288132595
 20
102.9315903058
 10
172.6332111632
 20
102.9284287639
 10
172.6377863717
 20
102.92550101
 10
172.642498865
 20
102.9228325013
 10
172.6473499726
 20
102.9204254772
 10
172.652338365
 20
102.9182776984
 10
172.6574200344
 20
102.9164079027
 10
172.662595802
 20
102.914818543
 10
172.6678648467
 20
102.9135071665
 10
172.6731806977
 20
102.9124851535
 10
172.6785278649
 20
102.9117562972
 10
172.6839218384
 20
102.9113168042
 10
172.6893626183
 20
102.9111666747
  0
LWPOLYLINE
  5
2FF
100
AcDbEntity
  8
ASSI
100
AcDbPolyline
 62
250
  6
CONTINUOUS
 90
25
 70
0
 10
172.4002344953
 20
102.9310337966
 10
172.4049919782
 20
102.9154914015
 10
172.4105845961
 20
102.9002286677
 10
172.4169960609
 20
102.8852904529
 10
172.4242076864
 20
102.8707206528
 10
172.4321984126
 20
102.8565621362
 10
172.4409448557
 20
102.8428566134
 10
172.4504216899
 20
102.8296440726
 10
172.4606009634
 20
102.8169637632
 10
172.4714519537
 20
102.8048539908
 10
172.4829422734
 20
102.7933506935
 10
172.4950385069
 20
102.7824871293
 10
172.5077054692
 20
102.7722948348
 10
172.5209059219
 20
102.7628037621
 10
172.5346011199
 20
102.7540417573
 10
172.5487513821
 20
102.7460342598
 10
172.5633157905
 20
102.7388045952
 10
172.5782510373
 20
102.7323744262
 10
172.5935119925
 20
102.7267631641
 10
172.6090529853
 20
102.7219873957
 10
172.624829103
 20
102.7180607205
 10
172.6407950905
 20
102.7149943644
 10
172.6569044402
 20
102.7127973468
 10
172.6731094804
 20
102.7114762574
 10
172.6893626183
 20
102.7110350327
  0
LINE
  5
300
100
AcDbEntity
  8
ASSI
100
AcDbLine
 62
250
  6
CONTINUOUS
 10
181.7064956407
 20
124.7223357918
 11
181.6530102774
 21
124.5617492157
  0
LWPOLYLINE
  5
301
100
AcDbEntity
  8
ASSI
100
AcDbPolyline
 62
250
  6
CONTINUOUS
 90
7
 70
0
 10
160.2108358095
 20
102.7084626787
 10
160.2115173165
 20
102.7085985924
 10
160.2129896182
 20
102.7087333266
 10
160.2152527147
 20
102.7088668814
 10
160.2183167777
 20
102.708999613
 10
160.2221716354
 20
102.7091311652
 10
160.2267867729
 20
102.7092604689
  0
LINE
  5
302
100
AcDbEntity
  8
ASSI
100
AcDbLine
 62
250
  6
CONTINUOUS
 10
181.6530102774
 20
80.5642969564
 11
181.7064956407
 21
80.4037103803
  0
LINE
  5
303
100
AcDbEntity
  8
ASSI
100
AcDbLine
 62
250
  6
CONTINUOUS
 10
182.206875464
 20
124.224390064
 11
182.1529338227
 21
124.0624335407
  0
LINE
  5
304
100
AcDbEntity
  8
ASSI
100
AcDbLine
 62
7
  6
CONTINUOUS
 10
180.915839
 20
102.4359697959
 11
180.9699497013
 21
102.4630230861
  0
LINE
  5
305
100
AcDbEntity
  8
ASSI
100
AcDbLine
 62
250
  6
CONTINUOUS
 10
182.0199497001
 20
102.4630230861
 11
181.9290635931
 21
102.4175834934
  0
LINE
  5
306
100
AcDbEntity
  8
ASSI
100
AcDbLine
 62
7
  6
CONTINUOUS
 10
180.915839
 20
102.6900763762
 11
180.9699497013
 21
102.6630230861
  0
LINE
  5
307
100
AcDbEntity
  8
ASSI
100
AcDbLine
 62
250
  6
CONTINUOUS
 10
181.9290635931
 20
102.7084626787
 11
182.0199497001
 21
102.6630230861
  0
LINE
  5
308
100
AcDbEntity
  8
ASSI
100
AcDbLine
 62
250
  6
CONTINUOUS
 10
182.1529338227
 20
81.0636126315
 11
182.206875464
 21
80.9016561081
  0
LWPOLYLINE
  5
309
100
AcDbEntity
  8
ASSI
100
AcDbPolyline
 62
250
  6
CONTINUOUS
 90
11
 70
0
 10
182.1529338227
 20
124.0624335407
 10
182.1522177125
 20
124.0594299507
 10
182.1515066646
 20
124.0547699536
 10
182.150800679
 20
124.0484535494
 10
182.1500985693
 20
124.0404645827
 10
182.149401522
 20
124.0308192088
 10
182.148713096
 20
124.0195658942
 10
182.1480333428
 20
124.0066963537
 10
182.147362211
 20
123.9922188725
 10
182.146703105
 20
123.9762067733
 10
182.1454211129
 20
123.9395635625
  0
LINE
  5
30A
100
AcDbEntity
  8
ASSI
100
AcDbLine
 62
250
  6
CONTINUOUS
 10
182.2199497013
 20
102.2630459314
 11
182.1290334222
 21
102.2175912538
  0
LWPOLYLINE
  5
30B
100
AcDbEntity
  8
0
100
AcDbPolyline
 62
7
  6
CONTINUOUS
 90
3
 70
0
 43
0.3500000006
 10
189.1842324829
 20
103.705881958
 10
189.3985169678
 20
103.6344507751
 10
189.6842416992
 20
103.4915974731
  0
LINE
  5
30C
100
AcDbEntity
  8
ASSI
100
AcDbLine
 62
250
  6
CONTINUOUS
 10
182.1290334222
 20
102.9084549183
 11
182.2199497013
 21
102.8630002408
  0
LWPOLYLINE
  5
30D
100
AcDbEntity
  8
ASSI
100
AcDbPolyline
 62
250
  6
CONTINUOUS
 90
8
 70
0
 10
181.6530101755
 20
124.5617492156
 10
181.6522938203
 20
124.5572681253
 10
181.6515825995
 20
124.5502723321
 10
181.6508765133
 20
124.5407736229
 10
181.6501744027
 20
124.5287880947
 10
181.6494774266
 20
124.5143358757
 10
181.6487890616
 20
124.4974409146
 10
181.6474382028
 20
124.4564391685
  0
LWPOLYLINE
  5
30E
100
AcDbEntity
  8
0
100
AcDbPolyline
 62
7
  6
CONTINUOUS
 90
10
 70
0
 43
0.3500000006
 10
188.969947998
 20
103.6344507751
 10
189.1128103638
 20
103.705881958
 10
189.1842324829
 20
103.705881958
 10
189.3270948486
 20
103.5630195923
 10
189.3270948486
 20
103.4915974731
 10
189.2556727295
 20
103.4201662903
 10
189.1842324829
 20
103.4201662903
 10
189.0413701172
 20
103.4915974731
 10
188.969947998
 20
103.5630195923
 10
188.969947998
 20
103.6344507751
  0
LWPOLYLINE
  5
30F
100
AcDbEntity
  8
ASSI
100
AcDbPolyline
 62
250
  6
CONTINUOUS
 90
9
 70
0
 10
182.1473622109
 20
81.1338273
 10
182.1480333428
 20
81.1193498188
 10
182.148713096
 20
81.1064802782
 10
182.149401522
 20
81.0952269636
 10
182.1500985693
 20
81.0855815897
 10
182.1508006789
 20
81.0775926229
 10
182.1515066646
 20
81.0712762186
 10
182.1522177125
 20
81.0666162215
 10
182.1529338227
 20
81.0636126315
  0
LWPOLYLINE
  5
310
100
AcDbEntity
  8
ASSI
100
AcDbPolyline
 62
250
  6
CONTINUOUS
 90
7
 70
0
 10
181.6487890616
 20
80.628605258
 10
181.6494774266
 20
80.6117102968
 10
181.6501744027
 20
80.5972580778
 10
181.6508765133
 20
80.5852725494
 10
181.6515825995
 20
80.5757738402
 10
181.6522938203
 20
80.568778047
 10
181.6530101755
 20
80.5642969565
  0
LINE
  5
311
100
AcDbEntity
  8
ASSI
100
AcDbLine
 62
250
  6
CONTINUOUS
 10
181.6474382028
 20
80.6696070041
 11
181.6487890616
 21
80.628605258
  0
LINE
  5
312
100
AcDbEntity
  8
ASSI
100
AcDbLine
 62
250
  6
CONTINUOUS
 10
181.6461321259
 20
80.7199846765
 11
181.6474382028
 21
80.6696070041
  0
LINE
  5
313
100
AcDbEntity
  8
ASSI
100
AcDbLine
 62
250
  6
CONTINUOUS
 10
181.644877435
 20
80.7793978488
 11
181.6461321259
 21
80.7199846765
  0
LINE
  5
314
100
AcDbEntity
  8
ASSI
100
AcDbLine
 62
250
  6
CONTINUOUS
 10
181.6461321259
 20
124.4060614962
 11
181.6448774351
 21
124.346648324
  0
LINE
  5
315
100
AcDbEntity
  8
ASSI
100
AcDbLine
 62
250
  6
CONTINUOUS
 10
181.6474382028
 20
124.4564391685
 11
181.6461321259
 21
124.4060614962
  0
LINE
  5
316
100
AcDbEntity
  8
CURVE
100
AcDbLine
 62
250
  6
CONTINUOUS
 10
172.5445376688
 20
114.0351719314
 11
173.8540193266
 21
112.7256902736
  0
LINE
  5
317
100
AcDbEntity
  8
CURVE
100
AcDbLine
 62
250
  6
CONTINUOUS
 10
168.2960431136
 20
118.2855612903
 11
169.5690067352
 21
117.0127699236
  0
LWPOLYLINE
  5
318
100
AcDbEntity
  8
ASSI
100
AcDbPolyline
 62
250
  6
CONTINUOUS
 90
22
 70
0
 10
182.1290331322
 20
102.2175911088
 10
182.1284718077
 20
102.2325351358
 10
182.1267955244
 20
102.2473956042
 10
182.1240136553
 20
102.2620894242
 10
182.120141755
 20
102.276534438
 10
182.115201473
 20
102.2906498785
 10
182.1092204326
 20
102.3043568209
 10
182.1022320763
 20
102.3175786254
 10
182.0942754788
 20
102.3302413647
 10
182.0853951287
 20
102.342274237
 10
182.0756406797
 20
102.3536099629
 10
182.0650666724
 20
102.3641851611
 10
182.0537322305
 20
102.3739407024
 10
182.0417007289
 20
102.3828220409
 10
182.0290394399
 20
102.3907795189
 10
182.0158191577
 20
102.3977686441
 10
182.0021138013
 20
102.4037503388
 10
181.988000002
 20
102.4086911583
 10
181.9735566747
 20
102.4125634776
 10
181.9588645768
 20
102.4153456462
 10
181.9440058564
 20
102.4170221091
 10
181.9290635931
 20
102.4175834934
  0
LINE
  5
319
100
AcDbEntity
  8
ASSI
100
AcDbLine
 62
250
  6
CONTINUOUS
 10
182.146056096
 20
81.1673936956
 11
182.1473622109
 21
81.1338273
  0
LINE
  5
31A
100
AcDbEntity
  8
ASSI
100
AcDbLine
 62
250
  6
CONTINUOUS
 10
182.1448013468
 20
81.2070100819
 11
182.146056096
 21
81.1673936956
  0
LWPOLYLINE
  5
31B
100
AcDbEntity
  8
ASSI
100
AcDbPolyline
 62
250
  6
CONTINUOUS
 90
28
 70
0
 10
182.1529338227
 20
124.0624335407
 10
182.1520624793
 20
124.0914492523
 10
182.1495044639
 20
124.120366899
 10
182.1452684219
 20
124.1490887462
 10
182.1393686697
 20
124.1775177213
 10
182.131825147
 20
124.2055577416
 10
182.1226633488
 20
124.2331140386
 10
182.1119142397
 20
124.2600934792
 10
182.0996141487
 20
124.2864048794
 10
182.0858046469
 20
124.3119593131
 10
182.070532407
 20
124.3366704129
 10
182.0538490451
 20
124.3604546612
 10
182.0358109467
 20
124.3832316731
 10
182.0164790761
 20
124.4049244679
 10
181.99591877
 20
124.4254597293
 10
181.9741995171
 20
124.4447680531
 10
181.951394723
 20
124.4627841818
 10
181.9275814621
 20
124.4794472254
 10
181.9028402175
 20
124.4947008667
 10
181.8772546082
 20
124.5084935521
 10
181.8509111073
 20
124.5207786658
 10
181.8238987494
 20
124.5315146869
 10
181.7963088295
 20
124.5406653302
 10
181.7682345946
 20
124.5481996689
 10
181.7397709289
 20
124.5540922386
 10
181.7110140326
 20
124.5583231239
 10
181.6820610967
 20
124.5608780253
 10
181.6530099751
 20
124.561748308
  0
LINE
  5
31C
100
AcDbEntity
  8
ASSI
100
AcDbLine
 62
250
  6
CONTINUOUS
 10
182.1436076171
 20
81.2523951312
 11
182.1448013468
 21
81.2070100819
  0
LINE
  5
31D
100
AcDbEntity
  8
ASSI
100
AcDbLine
 62
250
  6
CONTINUOUS
 10
182.1419491111
 20
81.3305693182
 11
182.1436076171
 21
81.2523951312
  0
LINE
  5
31E
100
AcDbEntity
  8
ASSI
100
AcDbLine
 62
250
  6
CONTINUOUS
 10
181.6425599112
 20
80.923676833
 11
181.644877435
 21
80.7793978488
  0
LINE
  5
31F
100
AcDbEntity
  8
ASSI
100
AcDbLine
 62
250
  6
CONTINUOUS
 10
182.1400221219
 20
81.4517818066
 11
182.1419491111
 21
81.3305693182
  0
LINE
  5
320
100
AcDbEntity
  8
ASSI
100
AcDbLine
 62
250
  6
CONTINUOUS
 10
181.6400983719
 20
81.1465398331
 11
181.6425599112
 21
80.923676833
  0
LINE
  5
321
100
AcDbEntity
  8
ASSI
100
AcDbLine
 62
250
  6
CONTINUOUS
 10
182.1381409371
 20
81.6259900621
 11
182.1400221219
 21
81.4517818066
  0
LINE
  5
322
100
AcDbEntity
  8
ASSI
100
AcDbLine
 62
250
  6
CONTINUOUS
 10
181.6374009522
 20
81.5785054061
 11
181.6400983719
 21
81.1465398331
  0
LINE
  5
323
100
AcDbEntity
  8
ASSI
100
AcDbLine
 62
250
  6
CONTINUOUS
 10
182.1367585903
 20
81.8584738517
 11
182.1381409371
 21
81.6259900621
  0
LINE
  5
324
100
AcDbEntity
  8
ASSI
100
AcDbLine
 62
7
  6
CONTINUOUS
 10
182.2199497013
 20
115.6630230861
 11
182.206875464
 21
124.224390064
  0
LINE
  5
325
100
AcDbEntity
  8
ASSI
100
AcDbLine
 62
250
  6
CONTINUOUS
 10
181.6324413318
 20
88.7367073154
 11
181.6374009522
 21
81.5785054061
  0
LINE
  5
326
100
AcDbEntity
  8
ASSI
100
AcDbLine
 62
250
  6
CONTINUOUS
 10
182.131601773
 20
90.4342173505
 11
182.1367585903
 21
81.8584738517
  0
LINE
  5
327
100
AcDbEntity
  8
ASSI
100
AcDbLine
 62
250
  6
CONTINUOUS
 10
181.6324413318
 20
88.7367073154
 11
181.6291093132
 21
102.4150111395
  0
LINE
  5
328
100
AcDbEntity
  8
ASSI
100
AcDbLine
 62
250
  6
CONTINUOUS
 10
182.1290334222
 20
102.2175912538
 11
182.131601773
 21
90.4342173505
  0
LINE
  5
329
100
AcDbEntity
  8
ASSI
100
AcDbLine
 62
7
  6
CONTINUOUS
 10
182.2199497013
 20
102.2630459314
 11
182.2199497013
 21
89.4630230861
  0
LINE
  5
32A
100
AcDbEntity
  8
ASSI
100
AcDbLine
 62
7
  6
CONTINUOUS
 10
182.2199497013
 20
102.8630002408
 11
182.2199497013
 21
115.6630230861
  0
LINE
  5
32B
100
AcDbEntity
  8
ASSI
100
AcDbLine
 62
7
  6
CONTINUOUS
 10
182.2199497013
 20
89.4630230861
 11
182.206875464
 21
80.9016561081
  0
LINE
  5
32C
100
AcDbEntity
  8
ASSI
100
AcDbLine
 62
250
  6
CONTINUOUS
 10
181.6379181189
 20
123.662316013
 11
181.6291093132
 21
102.7110350327
  0
LINE
  5
32D
100
AcDbEntity
  8
ASSI
100
AcDbLine
 62
250
  6
CONTINUOUS
 10
182.137107742
 20
123.3471706033
 11
182.1290334222
 21
102.9084549183
  0
LINE
  5
32E
100
AcDbEntity
  8
ASSI
100
AcDbLine
 62
250
  6
CONTINUOUS
 10
181.6405469758
 20
124.0274769043
 11
181.6379181189
 21
123.662316013
  0
LINE
  5
32F
100
AcDbEntity
  8
ASSI
100
AcDbLine
 62
250
  6
CONTINUOUS
 10
182.1388182273
 20
123.5723786401
 11
182.137107742
 21
123.3471706033
  0
LINE
  5
330
100
AcDbEntity
  8
ASSI
100
AcDbLine
 62
250
  6
CONTINUOUS
 10
181.6431126965
 20
124.2414758021
 11
181.6405469758
 21
124.0274769043
  0
LINE
  5
331
100
AcDbEntity
  8
ASSI
100
AcDbLine
 62
250
  6
CONTINUOUS
 10
182.1404707359
 20
123.7062256892
 11
182.1388182273
 21
123.5723786401
  0
LINE
  5
332
100
AcDbEntity
  8
ASSI
100
AcDbLine
 62
250
  6
CONTINUOUS
 10
181.6448774351
 20
124.346648324
 11
181.6431126965
 21
124.2414758021
  0
LINE
  5
333
100
AcDbEntity
  8
ASSI
100
AcDbLine
 62
250
  6
CONTINUOUS
 10
182.142483736
 20
123.8228580464
 11
182.1404707359
 21
123.7062256892
  0
LINE
  5
334
100
AcDbEntity
  8
ASSI
100
AcDbLine
 62
250
  6
CONTINUOUS
 10
182.1441968735
 20
123.8970628448
 11
182.142483736
 21
123.8228580464
  0
LWPOLYLINE
  5
335
100
AcDbEntity
  8
ASSI
100
AcDbPolyline
 62
250
  6
CONTINUOUS
 90
28
 70
0
 10
182.1529338227
 20
81.0636126315
 10
182.1520624788
 20
81.0345969105
 10
182.1495044619
 20
81.0056792554
 10
182.1452684174
 20
80.9769574007
 10
182.1393686621
 20
80.9485284191
 10
182.1318251358
 20
80.9204883934
 10
182.1226633337
 20
80.892932092
 10
182.1119142203
 20
80.8659526481
 10
182.099614125
 20
80.8396412458
 10
182.0858046191
 20
80.8140868109
 10
182.0705323752
 20
80.789375711
 10
182.0538490098
 20
80.7655914635
 10
182.0358109083
 20
80.7428144532
 10
182.0164790352
 20
80.7211216608
 10
181.9959187273
 20
80.7005864025
 10
181.9741994733
 20
80.6812780823
 10
181.9513946789
 20
80.6632619575
 10
181.9275814186
 20
80.6465989181
 10
181.9028401753
 20
80.6313452811
 10
181.8772545683
 20
80.6175525999
 10
181.8509110704
 20
80.6052674904
 10
181.8238987162
 20
80.5945314732
 10
181.7963088007
 20
80.5853808333
 10
181.7682345709
 20
80.5778464976
 10
181.7397709107
 20
80.5719539303
 10
181.7110140201
 20
80.5677230468
 10
181.6820610904
 20
80.5651681464
 10
181.6530099751
 20
80.5642978641
  0
LINE
  5
336
100
AcDbEntity
  8
ASSI
100
AcDbLine
 62
250
  6
CONTINUOUS
 10
182.1454211129
 20
123.9395635625
 11
182.1441968735
 21
123.8970628448
  0
LWPOLYLINE
  5
337
100
AcDbEntity
  8
ASSI
100
AcDbPolyline
 62
250
  6
CONTINUOUS
 90
22
 70
0
 10
182.1290331322
 20
102.9084550633
 10
182.1284718094
 20
102.8935110599
 10
182.1267955312
 20
102.8786506132
 10
182.1240136701
 20
102.8639568128
 10
182.1201417804
 20
102.8495118164
 10
182.1152015111
 20
102.8353963906
 10
182.1092204848
 20
102.8216894594
 10
182.1022321433
 20
102.8084676626
 10
182.0942755607
 20
102.7958049276
 10
182.0853952249
 20
102.7837720557
 10
182.0756407887
 20
102.7724363266
 10
182.0650667921
 20
102.761861122
 10
182.0537323579
 20
102.7521055714
 10
182.0417008606
 20
102.743224221
 10
182.029039572
 20
102.7352667295
 10
182.0158192856
 20
102.7282775896
 10
182.0021139202
 20
102.72229588
 10
181.9880001069
 20
102.7173550462
 10
181.9735567606
 20
102.7134827142
 10
181.9588646386
 20
102.7107005353
 10
181.9440058895
 20
102.7090240656
 10
181.9290635931
 20
102.7084626787
  0
LINE
  5
338
100
AcDbEntity
  8
CURVE
100
AcDbLine
 62
250
  6
CONTINUOUS
 10
168.5576982884
 20
88.0024629783
 11
169.5104400733
 21
88.5526450902
  0
LINE
  5
339
100
AcDbEntity
  8
CURVE
100
AcDbLine
 62
250
  6
CONTINUOUS
 10
172.5400590417
 20
90.301721222
 11
173.5792727804
 21
90.9015127416
  0
LINE
  5
33A
100
AcDbEntity
  8
CURVE
100
AcDbLine
 62
250
  6
CONTINUOUS
 10
173.1550089915
 20
115.5060564192
 11
175.0069212913
 21
115.5060564192
  0
LINE
  5
33B
100
AcDbEntity
  8
CURVE
100
AcDbLine
 62
250
  6
CONTINUOUS
 10
167.1453804625
 20
115.5074344583
 11
168.945444041
 21
115.5074344583
  0
LWPOLYLINE
  5
33C
100
AcDbEntity
  8
0
100
AcDbPolyline
 62
7
  6
CONTINUOUS
 90
10
 70
0
 43
0.3500000006
 10
172.1413740234
 20
133.973887207
 10
172.21281427
 20
133.8310248413
 10
172.21281427
 20
133.7596027222
 10
172.0699519043
 20
133.6167403564
 10
171.9985297852
 20
133.6167403564
 10
171.9270895386
 20
133.6881624756
 10
171.9270895386
 20
133.7596027222
 10
171.9985297852
 20
133.9024650879
 10
172.0699519043
 20
133.973887207
 10
172.1413740234
 20
133.973887207
  0
LWPOLYLINE
  5
33D
100
AcDbEntity
  8
0
100
AcDbPolyline
 62
7
  6
CONTINUOUS
 90
5
 70
0
 43
0.3500000006
 10
187.755663208
 20
105.5630202026
 10
187.5413787231
 20
105.9201670532
 10
186.8985252686
 20
105.9201670532
 10
186.4699562988
 20
105.5630202026
 10
186.4699562988
 20
104.7058822632
  0
LWPOLYLINE
  5
33E
100
AcDbEntity
  8
0
100
AcDbPolyline
 62
7
  6
CONTINUOUS
 90
3
 70
0
 43
0.3500000006
 10
188.8270856323
 20
102.1344503174
 10
188.8270856323
 20
100.6344498596
 10
186.4699562988
 20
101.2773123779
  0
LWPOLYLINE
  5
33F
100
AcDbEntity
  8
0
100
AcDbPolyline
 62
7
  6
CONTINUOUS
 90
3
 70
0
 43
0.3500000006
 10
188.8270856323
 20
99.7773119202
 10
188.8270856323
 20
98.2773114624
 10
186.4699562988
 20
98.920164917
  0
LWPOLYLINE
  5
340
100
AcDbEntity
  8
0
100
AcDbPolyline
 62
7
  6
CONTINUOUS
 90
6
 70
0
 43
0.3500000006
 10
189.4699572144
 20
104.7058822632
 10
189.4699572144
 20
105.7773046875
 10
189.2556727295
 20
105.9915982361
 10
188.1842321777
 20
105.9915982361
 10
187.755663208
 20
105.5630202026
 10
187.755663208
 20
105.1344512329
  0
LINE
  5
341
100
AcDbEntity
  8
ASSI
100
AcDbLine
 62
7
  6
CONTINUOUS
 10
178.8783746943
 20
124.7223357918
 11
178.5276847282
 21
124.6905026338
  0
LINE
  5
342
100
AcDbEntity
  8
ASSI
100
AcDbLine
 62
250
  6
CONTINUOUS
 10
160.1633612747
 20
123.119759582
 11
160.2076939738
 21
123.1212972827
  0
LINE
  5
343
100
AcDbEntity
  8
ASSI
100
AcDbLine
 62
250
  6
CONTINUOUS
 10
160.2076939738
 20
123.1212972827
 11
160.2559376011
 21
123.1226185118
  0
LINE
  5
344
100
AcDbEntity
  8
ASSI
100
AcDbLine
 62
250
  6
CONTINUOUS
 10
160.2559376011
 20
123.1226185118
 11
160.3074541343
 21
123.1237057961
  0
LINE
  5
345
100
AcDbEntity
  8
ASSI
100
AcDbLine
 62
250
  6
CONTINUOUS
 10
160.3074541343
 20
123.1237057961
 11
160.361562267
 21
123.1245447561
  0
LINE
  5
346
100
AcDbEntity
  8
ASSI
100
AcDbLine
 62
250
  6
CONTINUOUS
 10
160.361562267
 20
123.1245447561
 11
160.4175464187
 21
123.1251242967
  0
LINE
  5
347
100
AcDbEntity
  8
ASSI
100
AcDbLine
 62
250
  6
CONTINUOUS
 10
160.4175464187
 20
123.1251242967
 11
160.4746661987
 21
123.1254367534
  0
LINE
  5
348
100
AcDbEntity
  8
ASSI
100
AcDbLine
 62
250
  6
CONTINUOUS
 10
160.4746661987
 20
123.1254367534
 11
181.63648318
 21
123.125470917
  0
LINE
  5
349
100
AcDbEntity
  8
ASSI
100
AcDbLine
 62
250
  6
CONTINUOUS
 10
181.6938880943
 20
123.1253142688
 11
181.6364832045
 21
123.1254914109
  0
LINE
  5
34A
100
AcDbEntity
  8
ASSI
100
AcDbLine
 62
250
  6
CONTINUOUS
 10
181.7505338035
 20
123.1248675304
 11
181.6938880943
 21
123.1253142688
  0
LINE
  5
34B
100
AcDbEntity
  8
ASSI
100
AcDbLine
 62
250
  6
CONTINUOUS
 10
181.8056711915
 20
123.1241571039
 11
181.7505338035
 21
123.1248675304
  0
LINE
  5
34C
100
AcDbEntity
  8
ASSI
100
AcDbLine
 62
250
  6
CONTINUOUS
 10
181.8585710653
 20
123.1231923845
 11
181.8056711915
 21
123.1241571039
  0
LINE
  5
34D
100
AcDbEntity
  8
ASSI
100
AcDbLine
 62
250
  6
CONTINUOUS
 10
181.9085338234
 20
123.1219861309
 11
181.8585710653
 21
123.1231923845
  0
LINE
  5
34E
100
AcDbEntity
  8
ASSI
100
AcDbLine
 62
7
  6
CONTINUOUS
 10
163.2615247083
 20
124.7223357918
 11
163.6122146744
 21
124.6905026338
  0
LWPOLYLINE
  5
34F
100
AcDbEntity
  8
ASSI
100
AcDbPolyline
 62
250
  6
CONTINUOUS
 90
15
 70
0
 10
182.1364070521
 20
82.0211172296
 10
182.1350785792
 20
82.0199347077
 10
182.1321002598
 20
82.0187560987
 10
182.1274819491
 20
82.0175853028
 10
182.121238929
 20
82.0164261941
 10
182.1133918575
 20
82.015282608
 10
182.1039667007
 20
82.0141583286
 10
182.0929946462
 20
82.0130570762
 10
182.0805120003
 20
82.0119824948
 10
182.0665600682
 20
82.0109381402
 10
182.0511850164
 20
82.0099274682
 10
182.034437721
 20
82.008953823
 10
182.0163735985
 20
82.0080204264
 10
181.997052423
 20
82.0071303671
 10
181.9765381279
 20
82.0062865902
  0
LINE
  5
350
100
AcDbEntity
  8
ASSI
100
AcDbLine
 62
7
  6
CONTINUOUS
 10
167.6783746943
 20
124.7223357918
 11
167.3276847282
 21
124.6905026338
  0
LINE
  5
351
100
AcDbEntity
  8
ASSI
100
AcDbLine
 62
250
  6
CONTINUOUS
 10
160.4868891252
 20
124.5617492157
 11
181.6530102774
 21
124.5617492157
  0
LINE
  5
352
100
AcDbEntity
  8
ASSI
100
AcDbLine
 62
7
  6
CONTINUOUS
 10
178.3544796475
 20
124.6852618559
 11
174.9854197551
 21
124.6852618559
  0
LINE
  5
353
100
AcDbEntity
  8
ASSI
100
AcDbLine
 62
7
  6
CONTINUOUS
 10
167.1544796475
 20
124.6852618559
 11
163.7854197551
 21
124.6852618559
  0
LINE
  5
354
100
AcDbEntity
  8
ASSI
100
AcDbLine
 62
7
  6
CONTINUOUS
 10
181.7064956407
 20
124.7223357918
 11
178.8783746943
 21
124.7223357918
  0
LINE
  5
355
100
AcDbEntity
  8
ASSI
100
AcDbLine
 62
7
  6
CONTINUOUS
 10
174.4615247083
 20
124.7223357918
 11
167.6783746943
 21
124.7223357918
  0
LINE
  5
356
100
AcDbEntity
  8
ASSI
100
AcDbLine
 62
7
  6
CONTINUOUS
 10
163.2615247083
 20
124.7223357918
 11
160.4334037619
 21
124.7223357918
  0
LWPOLYLINE
  5
357
100
AcDbEntity
  8
0
100
AcDbPolyline
 62
7
  6
CONTINUOUS
 90
7
 70
0
 43
0.3500000006
 10
170.6413826294
 20
133.4738779907
 10
169.1413731079
 20
133.4738779907
 10
170.6413826294
 20
135.6167409668
 10
170.6413826294
 20
136.0453099365
 10
170.2128136597
 20
136.4738789063
 10
169.5699420776
 20
136.4738789063
 10
169.1413731079
 20
135.8310254517
  0
LWPOLYLINE
  5
358
100
AcDbEntity
  8
0
100
AcDbPolyline
 62
7
  6
CONTINUOUS
 90
7
 70
0
 43
0.3500000006
 10
168.2842351685
 20
133.4738779907
 10
166.7842437744
 20
133.4738779907
 10
168.2842351685
 20
135.6167409668
 10
168.2842351685
 20
136.0453099365
 10
167.8556661987
 20
136.4738789063
 10
167.2128127441
 20
136.4738789063
 10
166.7842437744
 20
135.8310254517
  0
LWPOLYLINE
  5
359
100
AcDbEntity
  8
0
100
AcDbPolyline
 62
7
  6
CONTINUOUS
 90
6
 70
0
 43
0.3500000006
 10
173.2128145752
 20
133.4738779907
 10
174.2842369995
 20
133.4738779907
 10
174.4985214844
 20
133.6881624756
 10
174.4985214844
 20
134.7596030273
 10
174.0699525146
 20
135.1881719971
 10
173.6413835449
 20
135.1881719971
  0
LINE
  5
35A
100
AcDbEntity
  8
ASSI
100
AcDbLine
 62
7
  6
CONTINUOUS
 10
174.4615247083
 20
124.7223357918
 11
174.8122146744
 21
124.6905026338
  0
LWPOLYLINE
  5
35B
100
AcDbEntity
  8
ASSI
100
AcDbPolyline
 62
250
  6
CONTINUOUS
 90
17
 70
0
 10
182.1364070521
 20
123.1049289426
 10
182.1350785977
 20
123.1061114651
 10
182.1321002953
 20
123.1072900746
 10
182.127482
 20
123.1084608712
 10
182.1212389938
 20
123.1096199807
 10
182.1133919346
 20
123.1107635675
 10
182.1039667884
 20
123.1118878477
 10
182.0929947429
 20
123.1129891009
 10
182.0805121045
 20
123.114063683
 10
182.0665601781
 20
123.1151080384
 10
182.0511851305
 20
123.1161187113
 10
182.0344378377
 20
123.1170923573
 10
182.0163737163
 20
123.1180257546
 10
181.9970525403
 20
123.1189158148
 10
181.9765382434
 20
123.1197595924
 10
181.9548987072
 20
123.1205542956
 10
181.9085338234
 20
123.1219861309
  0
LINE
  5
35C
100
AcDbEntity
  8
ASSI
100
AcDbLine
 62
7
  6
CONTINUOUS
 10
124.3813175295
 20
80.5642969564
 11
127.4454919383
 21
80.4037103803
  0
LINE
  5
35D
100
AcDbEntity
  8
ASSI
100
AcDbLine
 62
250
  6
CONTINUOUS
 10
124.3987419854
 20
81.0636126315
 11
127.4890565445
 21
80.9016561081
  0
LINE
  5
35E
100
AcDbEntity
  8
ASSI
100
AcDbLine
 62
250
  6
CONTINUOUS
 10
122.9618992324
 20
82.0006094188
 11
122.9610735343
 21
82.000554778
  0
LINE
  5
35F
100
AcDbEntity
  8
ASSI
100
AcDbLine
 62
250
  6
CONTINUOUS
 10
122.9684935222
 20
82.0009218755
 11
122.9618992324
 21
82.0006094188
  0
LINE
  5
360
100
AcDbEntity
  8
ASSI
100
AcDbLine
 62
250
  6
CONTINUOUS
 10
123.4519239297
 20
82.0211172296
 11
122.9684935222
 21
82.0009218755
  0
LINE
  5
361
100
AcDbEntity
  8
ASSI
100
AcDbLine
 62
250
  6
CONTINUOUS
 10
127.8380790994
 20
84.6295314849
 11
127.8152033785
 21
84.629531479
  0
LWPOLYLINE
  5
362
100
AcDbEntity
  8
ASSI
100
AcDbPolyline
 62
250
  6
CONTINUOUS
 90
37
 70
0
 10
123.4519239297
 20
82.0211172296
 10
123.4544659432
 20
81.9800683356
 10
123.458667318
 20
81.9392895552
 10
123.4645280541
 20
81.8987808884
 10
123.4720635433
 20
81.8584738517
 10
123.4812583938
 20
81.8184369287
 10
123.4920664302
 20
81.7788755695
 10
123.5044959324
 20
81.7397929843
 10
123.5185386204
 20
81.701185963
 10
123.5341234793
 20
81.6632503252
 10
123.5512581356
 20
81.6259900621
 10
123.5699349626
 20
81.5894011826
 10
123.5900600664
 20
81.5536675327
 10
123.6116406966
 20
81.5187933588
 10
123.6346696035
 20
81.4847744146
 10
123.6590311434
 20
81.4517818066
 10
123.6847322217
 20
81.4198204836
 10
123.711765933
 20
81.3888854968
 10
123.7399959174
 20
81.3591331071
 10
123.7694282804
 20
81.3305693182
 10
123.8000569166
 20
81.3031881263
 10
123.8317271499
 20
81.2771277818
 10
123.8644440264
 20
81.2523951312
 10
123.8982024999
 20
81.2289833278
 10
123.9328327561
 20
81.2070100819
 10
123.9683391303
 20
81.1864826101
 10
124.0047172871
 20
81.1673936956
 10
124.0417844059
 20
81.1498393992
 10
124.0795445617
 20
81.1338273
 10
124.1179936794
 20
81.1193498188
 10
124.1569367129
 20
81.1064802782
 10
124.1963766122
 20
81.0952269636
 10
124.2363104272
 20
81.0855815897
 10
124.2765342616
 20
81.0775926229
 10
124.3169801501
 20
81.0712762186
 10
124.357716058
 20
81.0666162215
 10
124.3987419854
 20
81.0636126315
  0
LINE
  5
363
100
AcDbEntity
  8
CURVE
100
AcDbLine
 62
250
  6
CONTINUOUS
 10
122.7260785412
 20
88.8530231567
 11
122.6923137885
 21
90.1448525058
  0
LINE
  5
364
100
AcDbEntity
  8
CURVE
100
AcDbLine
 62
250
  6
CONTINUOUS
 10
122.6921109269
 20
90.1530230154
 11
122.6923137885
 21
90.1448525058
  0
LWPOLYLINE
  5
365
100
AcDbEntity
  8
ASSI
100
AcDbPolyline
 62
250
  6
CONTINUOUS
 90
8
 70
0
 10
123.0297063437
 20
102.7352667295
 10
123.0298761114
 20
102.7282775896
 10
123.0300631378
 20
102.72229588
 10
123.0302663773
 20
102.7173550462
 10
123.0304846935
 20
102.7134827142
 10
123.0307168658
 20
102.7107005353
 10
123.0309615959
 20
102.7090240656
 10
123.0312175155
 20
102.7084626787
  0
LINE
  5
366
100
AcDbEntity
  8
ASSI
100
AcDbLine
 62
250
  6
CONTINUOUS
 10
123.0294222799
 20
102.7521055714
 11
123.0297063437
 21
102.7352667295
  0
LINE
  5
367
100
AcDbEntity
  8
ASSI
100
AcDbLine
 62
250
  6
CONTINUOUS
 10
123.0292172906
 20
102.7724363266
 11
123.0294222799
 21
102.7521055714
  0
LINE
  5
368
100
AcDbEntity
  8
ASSI
100
AcDbLine
 62
250
  6
CONTINUOUS
 10
123.0294723413
 20
102.2175911088
 11
123.0291131496
 21
102.276534438
  0
LWPOLYLINE
  5
369
100
AcDbEntity
  8
ASSI
100
AcDbPolyline
 62
250
  6
CONTINUOUS
 90
13
 70
0
 10
123.02948896
 20
102.2175912538
 10
123.0334841832
 20
100.5339522014
 10
123.0431546259
 20
98.8504115681
 10
123.0585002879
 20
97.1669693541
 10
123.0795220722
 20
95.483619054
 10
123.106219076
 20
93.8003671731
 10
123.1385885901
 20
92.1172332272
 10
123.1766296765
 20
90.4342173505
 10
123.2203432733
 20
88.7513194087
 10
123.2697294864
 20
87.0685585144
 10
123.3247883511
 20
85.3859410386
 10
123.3855198323
 20
83.7034606103
 10
123.4519239297
 20
82.0211172296
  0
LINE
  5
36A
100
AcDbEntity
  8
ASSI
100
AcDbLine
 62
250
  6
CONTINUOUS
 10
123.0290675775
 20
102.8084676626
 11
123.0292172906
 21
102.7724363266
  0
LINE
  5
36B
100
AcDbEntity
  8
ASSI
100
AcDbLine
 62
250
  6
CONTINUOUS
 10
123.0291131496
 20
102.276534438
 11
123.0290675767
 21
102.3175786254
  0
LINE
  5
36C
100
AcDbEntity
  8
ASSI
100
AcDbLine
 62
250
  6
CONTINUOUS
 10
123.0291131505
 20
102.8495118164
 11
123.0290675775
 21
102.8084676626
  0
LINE
  5
36D
100
AcDbEntity
  8
ASSI
100
AcDbLine
 62
250
  6
CONTINUOUS
 10
123.0290675767
 20
102.3175786254
 11
123.0292172904
 21
102.3536099629
  0
LINE
  5
36E
100
AcDbEntity
  8
ASSI
100
AcDbLine
 62
250
  6
CONTINUOUS
 10
123.0294723413
 20
102.9084550633
 11
123.0291131505
 21
102.8495118164
  0
LINE
  5
36F
100
AcDbEntity
  8
ASSI
100
AcDbLine
 62
250
  6
CONTINUOUS
 10
123.0292172904
 20
102.3536099629
 11
123.0294222801
 21
102.3739407024
  0
LWPOLYLINE
  5
370
100
AcDbEntity
  8
ASSI
100
AcDbPolyline
 62
250
  6
CONTINUOUS
 90
9
 70
0
 10
123.0294222801
 20
102.3739407024
 10
123.0297063443
 20
102.3907795189
 10
123.0298761121
 20
102.3977686441
 10
123.0300631387
 20
102.4037503388
 10
123.0302663782
 20
102.4086911583
 10
123.0304846943
 20
102.4125634776
 10
123.0307168664
 20
102.4153456462
 10
123.0309615962
 20
102.4170221091
 10
123.0312175155
 20
102.4175834934
  0
LINE
  5
371
100
AcDbEntity
  8
CURVE
100
AcDbLine
 62
250
  6
CONTINUOUS
 10
122.7325250851
 20
116.5060563447
 11
122.6807508482
 21
114.5066991201
  0
LWPOLYLINE
  5
372
100
AcDbEntity
  8
ASSI
100
AcDbPolyline
 62
250
  6
CONTINUOUS
 90
13
 70
0
 10
123.4519239297
 20
123.1049289426
 10
123.3855198323
 20
121.4225855618
 10
123.3247883511
 20
119.7401051336
 10
123.2697294864
 20
118.0574876577
 10
123.2203432733
 20
116.3747267635
 10
123.1766296765
 20
114.6918288217
 10
123.1385885901
 20
113.0088129449
 10
123.106219076
 20
111.325678999
 10
123.0795220722
 20
109.6424271181
 10
123.0585002879
 20
107.9590768181
 10
123.0431546258
 20
106.275634604
 10
123.0334841832
 20
104.5920939708
 10
123.0294889599
 20
102.9084549183
  0
LWPOLYLINE
  5
373
100
AcDbEntity
  8
ASSI
100
AcDbPolyline
 62
250
  6
CONTINUOUS
 90
10
 70
0
 10
124.3808207637
 20
124.4794472254
 10
124.3801769688
 20
124.5084935521
 10
124.3799929608
 20
124.5207786658
 10
124.3799018123
 20
124.5315146869
 10
124.3799038313
 20
124.5406653302
 10
124.379999011
 20
124.5481996689
 10
124.3801870297
 20
124.5540922386
 10
124.380467252
 20
124.5583231239
 10
124.3808387308
 20
124.5608780253
 10
124.3813002105
 20
124.561748308
  0
LWPOLYLINE
  5
374
100
AcDbEntity
  8
ASSI
100
AcDbPolyline
 62
250
  6
CONTINUOUS
 90
9
 70
0
 10
124.380176969
 20
80.6175525999
 10
124.3799929612
 20
80.6052674904
 10
124.3799018127
 20
80.5945314732
 10
124.3799038318
 20
80.5853808333
 10
124.3799990115
 20
80.5778464976
 10
124.3801870302
 20
80.5719539303
 10
124.3804672524
 20
80.5677230468
 10
124.380838731
 20
80.5651681464
 10
124.3813002105
 20
80.5642978641
  0
LINE
  5
375
100
AcDbEntity
  8
ASSI
100
AcDbLine
 62
250
  6
CONTINUOUS
 10
124.3808207636
 20
80.6465989181
 11
124.380176969
 21
80.6175525999
  0
LINE
  5
376
100
AcDbEntity
  8
ASSI
100
AcDbLine
 62
250
  6
CONTINUOUS
 10
124.3987419854
 20
124.0624335407
 11
124.3916096168
 21
124.2055577416
  0
LINE
  5
377
100
AcDbEntity
  8
ASSI
100
AcDbLine
 62
250
  6
CONTINUOUS
 10
124.3916096168
 20
124.2055577416
 11
124.3868366373
 21
124.3119593131
  0
LINE
  5
378
100
AcDbEntity
  8
ASSI
100
AcDbLine
 62
250
  6
CONTINUOUS
 10
124.3868366373
 20
124.3119593131
 11
124.3839740544
 21
124.3832316731
  0
LINE
  5
379
100
AcDbEntity
  8
ASSI
100
AcDbLine
 62
250
  6
CONTINUOUS
 10
124.3839740544
 20
124.3832316731
 11
124.3818245009
 21
124.4447680531
  0
LINE
  5
37A
100
AcDbEntity
  8
ASSI
100
AcDbLine
 62
250
  6
CONTINUOUS
 10
124.3818245009
 20
124.4447680531
 11
124.3808207637
 21
124.4794472254
  0
LINE
  5
37B
100
AcDbEntity
  8
ASSI
100
AcDbLine
 62
250
  6
CONTINUOUS
 10
124.3818245004
 20
80.6812780823
 11
124.3808207636
 21
80.6465989181
  0
LINE
  5
37C
100
AcDbEntity
  8
ASSI
100
AcDbLine
 62
250
  6
CONTINUOUS
 10
124.3839740534
 20
80.7428144532
 11
124.3818245004
 21
80.6812780823
  0
LINE
  5
37D
100
AcDbEntity
  8
ASSI
100
AcDbLine
 62
250
  6
CONTINUOUS
 10
124.3868366359
 20
80.8140868109
 11
124.3839740534
 21
80.7428144532
  0
LINE
  5
37E
100
AcDbEntity
  8
ASSI
100
AcDbLine
 62
250
  6
CONTINUOUS
 10
124.3916096154
 20
80.9204883934
 11
124.3868366359
 21
80.8140868109
  0
LINE
  5
37F
100
AcDbEntity
  8
ASSI
100
AcDbLine
 62
250
  6
CONTINUOUS
 10
124.3987419854
 20
81.0636126315
 11
124.3916096154
 21
80.9204883934
  0
LINE
  5
380
100
AcDbEntity
  8
ASSI
100
AcDbLine
 62
7
  6
CONTINUOUS
 10
127.8380790994
 20
120.4965146873
 11
127.8380790994
 21
120.2350440072
  0
LINE
  5
381
100
AcDbEntity
  8
ASSI
100
AcDbLine
 62
7
  6
CONTINUOUS
 10
127.8380790994
 20
84.891002165
 11
127.8380790994
 21
84.6295314849
  0
LINE
  5
382
100
AcDbEntity
  8
ASSI
100
AcDbLine
 62
7
  6
CONTINUOUS
 10
128.2380790994
 20
102.4630230861
 11
122.736454949
 21
102.4150111395
  0
LINE
  5
383
100
AcDbEntity
  8
ASSI
100
AcDbLine
 62
250
  6
CONTINUOUS
 10
128.2380790994
 20
102.2630459314
 11
122.5382003061
 21
102.2148794894
  0
LINE
  5
384
100
AcDbEntity
  8
ASSI
100
AcDbLine
 62
7
  6
CONTINUOUS
 10
122.7364549478
 20
102.7110350327
 11
128.2380790994
 21
102.6630230861
  0
LINE
  5
385
100
AcDbEntity
  8
ASSI
100
AcDbLine
 62
7
  6
CONTINUOUS
 10
128.2380790994
 20
115.6630230861
 11
127.4454919383
 21
124.7223357918
  0
LINE
  5
386
100
AcDbEntity
  8
ASSI
100
AcDbLine
 62
7
  6
CONTINUOUS
 10
128.2380790994
 20
102.4630230861
 11
128.2380790994
 21
89.4630230861
  0
LINE
  5
387
100
AcDbEntity
  8
ASSI
100
AcDbLine
 62
7
  6
CONTINUOUS
 10
128.2380790994
 20
102.6630230861
 11
128.2380790994
 21
115.6630230861
  0
LINE
  5
388
100
AcDbEntity
  8
ASSI
100
AcDbLine
 62
7
  6
CONTINUOUS
 10
128.2380790994
 20
89.4630230861
 11
127.4454919383
 21
80.4037103803
  0
LWPOLYLINE
  5
389
100
AcDbEntity
  8
0
100
AcDbPolyline
 62
7
  6
CONTINUOUS
 90
3
 70
0
 43
0.3500000006
 10
139.1814527893
 20
133.7580437622
 10
139.1100216064
 20
133.5437592773
 10
138.9671683044
 20
133.2580526733
  0
LINE
  5
38A
100
AcDbEntity
  8
ASSI
100
AcDbLine
 62
250
  6
CONTINUOUS
 10
122.5382003061
 20
102.9111666827
 11
128.2380790994
 21
102.8630002408
  0
LWPOLYLINE
  5
38B
100
AcDbEntity
  8
0
100
AcDbPolyline
 62
7
  6
CONTINUOUS
 90
4
 70
0
 43
0.3500000006
 10
140.1814530945
 20
135.8294846191
 10
140.1814530945
 20
136.4723380737
 10
141.6814535522
 20
136.4723380737
 10
140.8243065491
 20
133.4723371582
  0
LINE
  5
38C
100
AcDbEntity
  8
ASSI
100
AcDbLine
 62
250
  6
CONTINUOUS
 10
127.8380790994
 20
120.4965146873
 11
127.815203379
 21
120.4965146872
  0
LWPOLYLINE
  5
38D
100
AcDbEntity
  8
ASSI
100
AcDbPolyline
 62
250
  6
CONTINUOUS
 90
37
 70
0
 10
124.3987419854
 20
124.0624335407
 10
124.3577160584
 20
124.0594299507
 10
124.3169801508
 20
124.0547699536
 10
124.2765342625
 20
124.0484535494
 10
124.2363104282
 20
124.0404645827
 10
124.1963766131
 20
124.0308192088
 10
124.1569367138
 20
124.0195658942
 10
124.1179936803
 20
124.0066963537
 10
124.0795445625
 20
123.9922188725
 10
124.0417844067
 20
123.9762067733
 10
124.0047172879
 20
123.9586524769
 10
123.9683391311
 20
123.9395635625
 10
123.9328327569
 20
123.9190360907
 10
123.8982025006
 20
123.8970628448
 10
123.8644440271
 20
123.8736510415
 10
123.8317271506
 20
123.8489183909
 10
123.8000569173
 20
123.8228580464
 10
123.769428281
 20
123.7954768545
 10
123.739995918
 20
123.7669130656
 10
123.7117659335
 20
123.737160676
 10
123.6847322222
 20
123.7062256892
 10
123.6590311439
 20
123.6742643661
 10
123.634669604
 20
123.6412717582
 10
123.611640697
 20
123.607252814
 10
123.5900600668
 20
123.5723786401
 10
123.569934963
 20
123.5366449902
 10
123.5512581359
 20
123.5000561107
 10
123.5341234796
 20
123.4627958476
 10
123.5185386207
 20
123.4248602098
 10
123.5044959326
 20
123.3862531885
 10
123.4920664304
 20
123.3471706033
 10
123.481258394
 20
123.3076092442
 10
123.4720635434
 20
123.2675723212
 10
123.4645280542
 20
123.2272652845
 10
123.4586673181
 20
123.1867566175
 10
123.4544659432
 20
123.1459778369
 10
123.4519239297
 20
123.1049289426
  0
LINE
  5
38E
100
AcDbEntity
  8
ASSI
100
AcDbLine
 62
250
  6
CONTINUOUS
 10
127.4890565445
 20
124.224390064
 11
124.3987419854
 21
124.0624335407
  0
LINE
  5
38F
100
AcDbEntity
  8
ASSI
100
AcDbLine
 62
7
  6
CONTINUOUS
 10
127.4454919383
 20
124.7223357918
 11
124.3813175303
 21
124.5617492157
  0
LWPOLYLINE
  5
390
100
AcDbEntity
  8
0
100
AcDbPolyline
 62
7
  6
CONTINUOUS
 90
8
 70
0
 43
0.3500000006
 10
136.3243051758
 20
133.4723371582
 10
137.181452179
 20
133.4723371582
 10
137.6100211487
 20
133.9009061279
 10
137.6100211487
 20
134.7580440674
 10
137.181452179
 20
135.1866130371
 10
136.3243051758
 20
135.1866130371
 10
136.3243051758
 20
136.4723380737
 10
137.6100211487
 20
136.4723380737
  0
LWPOLYLINE
  5
391
100
AcDbEntity
  8
ASSI
100
AcDbPolyline
 62
250
  6
CONTINUOUS
 90
4
 70
0
 10
123.4519239297
 20
123.1049289426
 10
122.9643748898
 20
123.1253142688
 10
122.9618988265
 20
123.1254367699
 10
122.9610731272
 20
123.1254914109
  0
LWPOLYLINE
  5
392
100
AcDbEntity
  8
0
100
AcDbPolyline
 62
7
  6
CONTINUOUS
 90
10
 70
0
 43
0.3500000006
 10
139.1100216064
 20
133.9723282471
 10
139.1814527893
 20
133.8294840088
 10
139.1814527893
 20
133.7580437622
 10
139.0385904236
 20
133.6151995239
 10
138.9671683044
 20
133.6151995239
 10
138.8957371216
 20
133.6866216431
 10
138.8957371216
 20
133.7580437622
 10
138.9671683044
 20
133.9009061279
 10
139.0385904236
 20
133.9723282471
 10
139.1100216064
 20
133.9723282471
  0
ARC
  5
393
100
AcDbEntity
  8
ASSI
100
AcDbCircle
 62
7
  6
CONTINUOUS
 10
171.0699497013
 20
102.5630230861
 40
1.375
100
AcDbArc
 50
195.3271627815
 51
344.6728372185
  0
ARC
  5
394
100
AcDbEntity
  8
ASSI
100
AcDbCircle
 62
7
  6
CONTINUOUS
 10
171.0699497013
 20
102.5630230861
 40
1.375
100
AcDbArc
 50
15.3271627815
 51
164.6728372185
  0
ARC
  5
395
100
AcDbEntity
  8
ASSI
100
AcDbCircle
 62
7
  6
CONTINUOUS
 10
124.4598041449
 20
82.0622421662
 40
1.5
100
AcDbArc
 50
182.3561664986
 51
267.000662446
  0
ARC
  5
396
100
AcDbEntity
  8
ASSI
100
AcDbCircle
 62
7
  6
CONTINUOUS
 10
127.5380790994
 20
84.6295314849
 40
0.3
100
AcDbArc
 50
335.0
 51
360.0
  0
ARC
  5
397
100
AcDbEntity
  8
ASSI
100
AcDbCircle
 62
7
  6
CONTINUOUS
 10
122.7382007667
 20
102.2150187593
 40
0.2
100
AcDbArc
 50
90.5001462858
 51
180.0398957513
  0
ARC
  5
398
100
AcDbEntity
  8
ASSI
100
AcDbCircle
 62
7
  6
CONTINUOUS
 10
124.4598041449
 20
123.0638040059
 40
1.5
100
AcDbArc
 50
92.999337554
 51
177.6438335014
  0
ARC
  5
399
100
AcDbEntity
  8
ASSI
100
AcDbCircle
 62
7
  6
CONTINUOUS
 10
127.5380790994
 20
120.4965146873
 40
0.3
100
AcDbArc
 50
0.0
 51
25.0
  0
ARC
  5
39A
100
AcDbEntity
  8
ASSI
100
AcDbCircle
 62
7
  6
CONTINUOUS
 10
122.7382007667
 20
102.9110274128
 40
0.2
100
AcDbArc
 50
179.9601042487
 51
269.4998537142
  0
ARC
  5
39B
100
AcDbEntity
  8
ASSI
100
AcDbCircle
 62
7
  6
CONTINUOUS
 10
622.5380790994
 20
102.5630230861
 40
500.0
100
AcDbArc
 50
177.6430523596
 51
179.9601056801
  0
ARC
  5
39C
100
AcDbEntity
  8
CURVE
100
AcDbCircle
 62
250
  6
CONTINUOUS
 10
622.5380790994
 20
102.5630230861
 40
500.0
100
AcDbArc
 50
178.2181683708
 51
178.2724642242
  0
ARC
  5
39D
100
AcDbEntity
  8
ASSI
100
AcDbCircle
 62
7
  6
CONTINUOUS
 10
622.5380790994
 20
102.5630230861
 40
500.0
100
AcDbArc
 50
180.0398943199
 51
182.3569476404
  0
ARC
  5
39E
100
AcDbEntity
  8
CURVE
100
AcDbCircle
 62
250
  6
CONTINUOUS
 10
622.5380790994
 20
102.5630230861
 40
500.0
100
AcDbArc
 50
181.6972290601
 51
181.8347960037
  0
ELLIPSE
  5
39F
100
AcDbEntity
  8
ASSI
100
AcDbEllipse
 62
7
  6
CONTINUOUS
 10
163.7854197551
 20
80.4303027604
 30
0.0
 11
0.2
 21
0.0
 31
0.0
 40
0.0524077793
 41
1.5707963268
 42
2.617993878
  0
ELLIPSE
  5
3A0
100
AcDbEntity
  8
ASSI
100
AcDbEllipse
 62
7
  6
CONTINUOUS
 10
167.1544796475
 20
80.4303027604
 30
0.0
 11
0.2
 21
0.0
 31
0.0
 40
0.0524077793
 41
0.5235987756
 42
1.5707963268
  0
ELLIPSE
  5
3A1
100
AcDbEntity
  8
ASSI
100
AcDbEllipse
 62
7
  6
CONTINUOUS
 10
174.9854197551
 20
80.4303027604
 30
0.0
 11
0.2
 21
0.0
 31
0.0
 40
0.0524077793
 41
1.5707963268
 42
2.617993878
  0
ELLIPSE
  5
3A2
100
AcDbEntity
  8
ASSI
100
AcDbEllipse
 62
7
  6
CONTINUOUS
 10
178.3544796475
 20
80.4303027604
 30
0.0
 11
0.2
 21
0.0
 31
0.0
 40
0.0524077793
 41
0.5235987756
 42
1.5707963268
  0
ELLIPSE
  5
3A3
100
AcDbEntity
  8
ASSI
100
AcDbEllipse
 62
7
  6
CONTINUOUS
 10
182.0199192357
 20
102.2630154704
 30
0.0
 11
0.1789222233
 21
0.0894542984
 31
0.0
 40
0.9998096356
 41
-0.4635410001
 42
1.1071030277
  0
ELLIPSE
  5
3A4
100
AcDbEntity
  8
ASSI
100
AcDbEllipse
 62
7
  6
CONTINUOUS
 10
160.1199801669
 20
102.2630154704
 30
0.0
 11
0.1789222233
 21
-0.0894542984
 31
0.0
 40
0.9998096356
 41
2.0344896259
 42
3.6051336537
  0
ELLIPSE
  5
3A5
100
AcDbEntity
  8
ASSI
100
AcDbEllipse
 62
7
  6
CONTINUOUS
 10
181.7067999951
 20
80.9021113418
 30
0.0
 11
0.498078285
 21
0.0448076117
 31
0.0
 40
0.9965957691
 41
-1.6608206152
 42
-0.0909376769
  0
ELLIPSE
  5
3A6
100
AcDbEntity
  8
ASSI
100
AcDbEllipse
 62
7
  6
CONTINUOUS
 10
160.4330994075
 20
80.9021113418
 30
0.0
 11
0.498078285
 21
-0.0448076117
 31
0.0
 40
0.9965957691
 41
-3.0506549766
 42
-1.4807720384
  0
ELLIPSE
  5
3A7
100
AcDbEntity
  8
ASSI
100
AcDbEllipse
 62
7
  6
CONTINUOUS
 10
178.3544796475
 20
124.6957434117
 30
0.0
 11
0.2
 21
0.0
 31
0.0
 40
0.0524077793
 41
-1.5707963268
 42
-0.5235987756
  0
ELLIPSE
  5
3A8
100
AcDbEntity
  8
ASSI
100
AcDbEllipse
 62
7
  6
CONTINUOUS
 10
174.9854197551
 20
124.6957434117
 30
0.0
 11
0.2
 21
-0.0
 31
0.0
 40
0.0524077793
 41
-2.617993878
 42
-1.5707963268
  0
ELLIPSE
  5
3A9
100
AcDbEntity
  8
ASSI
100
AcDbEllipse
 62
7
  6
CONTINUOUS
 10
167.1544796475
 20
124.6957434117
 30
0.0
 11
0.2
 21
-0.0
 31
0.0
 40
0.0524077793
 41
-1.5707963268
 42
-0.5235987756
  0
ELLIPSE
  5
3AA
100
AcDbEntity
  8
ASSI
100
AcDbEllipse
 62
7
  6
CONTINUOUS
 10
163.7854197551
 20
124.6957434117
 30
0.0
 11
0.2
 21
0.0
 31
0.0
 40
0.0524077793
 41
-2.617993878
 42
-1.5707963268
  0
ELLIPSE
  5
3AB
100
AcDbEntity
  8
ASSI
100
AcDbEllipse
 62
7
  6
CONTINUOUS
 10
160.1199801669
 20
102.8630307017
 30
0.0
 11
0.1789222233
 21
0.0894542984
 31
0.0
 40
0.9998096356
 41
2.6780516535
 42
4.2486956813
  0
ELLIPSE
  5
3AC
100
AcDbEntity
  8
ASSI
100
AcDbEllipse
 62
7
  6
CONTINUOUS
 10
182.0199192357
 20
102.8630307017
 30
0.0
 11
0.1789222233
 21
-0.0894542984
 31
0.0
 40
0.9998096356
 41
-1.1071030277
 42
0.4635410001
  0
ELLIPSE
  5
3AD
100
AcDbEntity
  8
ASSI
100
AcDbEllipse
 62
7
  6
CONTINUOUS
 10
160.4330994075
 20
124.2239348303
 30
0.0
 11
0.498078285
 21
0.0448076117
 31
0.0
 40
0.9965957691
 41
1.4807720384
 42
3.0506549766
  0
ELLIPSE
  5
3AE
100
AcDbEntity
  8
ASSI
100
AcDbEllipse
 62
7
  6
CONTINUOUS
 10
181.7067999951
 20
124.2239348303
 30
0.0
 11
0.498078285
 21
-0.0448076117
 31
0.0
 40
0.9965957691
 41
0.090937677
 42
1.6608206152
  0
ELLIPSE
  5
3AF
100
AcDbEntity
  8
CURVE
100
AcDbEllipse
 62
250
  6
CONTINUOUS
 10
622.5380790994
 20
102.5630230861
 30
0.0
 11
-0.0
 21
500.0
 31
0.0
 40
1.0
 41
1.5478500155
 42
1.5498698177
  0
ELLIPSE
  5
3B0
100
AcDbEntity
  8
CURVE
100
AcDbEllipse
 62
250
  6
CONTINUOUS
 10
622.5380790994
 20
102.5630230861
 30
0.0
 11
0.0
 21
500.0
 31
0.0
 40
1.0
 41
1.5393426192
 42
1.5419627735
  0
ENDSEC
  0
SECTION
  2
OBJECTS
  0
DICTIONARY
  5
C
100
AcDbDictionary
280
0
281
1
  3
ACAD_GROUP
350
D
  3
ACAD_MLINESTYLE
350
17
  3
ACAD_LAYOUT
350
1A
  3
ACAD_PLOTSETTINGS
350
19
  3
ACAD_PLOTSTYLENAME
350
E
  0
DICTIONARY
  5
D
102
{ACAD_REACTORS
330
C
102
}
100
AcDbDictionary
280
0
281
1
  0
ACDBDICTIONARYWDFLT
  5
E
102
{ACAD_REACTORS
330
C
102
}
100
AcDbDictionary
281
1
  3
Normal
350
F
100
AcDbDictionaryWithDefault
340
F
  0
DICTIONARY
  5
17
102
{ACAD_REACTORS
330
C
102
}
100
AcDbDictionary
280
0
281
1
  3
Standard
350
18
  0
DICTIONARY
  5
19
102
{ACAD_REACTORS
330
C
102
}
100
AcDbDictionary
281
1
  0
DICTIONARY
  5
1A
102
{ACAD_REACTORS
330
C
102
}
100
AcDbDictionary
281
1
  3
Model
350
3B1
  3
Layout1
350
3B2
  0
ACDBPLACEHOLDER
  5
F
102
{ACAD_REACTORS
330
E
102
}
  0
MLINESTYLE
  5
18
102
{ACAD_REACTORS
330
17
102
}
100
AcDbMlineStyle
  2
STANDARD
 70
0
  3

 62
256
 51
90.0
 52
90.0
 71
2
 49
0.5
 62
256
  6
BYLAYER
 49
-0.5
 62
256
  6
BYLAYER
  0
LAYOUT
  5
3B1
102
{ACAD_REACTORS
330
1A
102
}
100
AcDbPlotSettings
  1

  2
none_device
  4
ISO_A4_(297.00_x_210.00_MM)
  6

 40
0.0
 41
0.0
 42
0.0
 43
0.0
 44
297.0
 45
210.0
 46
0.0
 47
0.0
 48
0.0
 49
0.0
140
0.0
141
0.0
142
1.0
143
1.0
 70
1024
 72
1
 73
0
 74
0
  7

 75
0
147
1.0
148
0.0
149
0.0
100
AcDbLayout
  1
Model
 70
0
 71
0
 10
0.0
 20
0.0
 11
297.0
 21
210.0
 12
0.0
 22
0.0
 32
0.0
 14
0.0
 24
0.0
 34
0.0
 15
0.0
 25
0.0
 35
0.0
146
0.0
 13
0.0
 23
0.0
 33
0.0
 16
1.0
 26
0.0
 36
0.0
 17
0.0
 27
1.0
 37
0.0
 76
0
330
217
345
0
346
0
  0
LAYOUT
  5
3B2
102
{ACAD_REACTORS
330
1A
102
}
100
AcDbPlotSettings
  1

  2
none_device
  4
ISO_A4_(297.00_x_210.00_MM)
  6

 40
0.0
 41
0.0
 42
0.0
 43
0.0
 44
297.0
 45
210.0
 46
0.0
 47
0.0
 48
0.0
 49
0.0
140
0.0
141
0.0
142
1.0
143
1.0
 70
0
 72
1
 73
0
 74
0
  7

 75
0
147
1.0
148
0.0
149
0.0
100
AcDbLayout
  1
Layout1
 70
0
 71
1
 10
0.0
 20
0.0
 11
297.0
 21
210.0
 12
0.0
 22
0.0
 32
0.0
 14
0.0
 24
0.0
 34
0.0
 15
0.0
 25
0.0
 35
0.0
146
0.0
 13
0.0
 23
0.0
 33
0.0
 16
1.0
 26
0.0
 36
0.0
 17
0.0
 27
1.0
 37
0.0
 76
0
330
218
345
0
346
0
  0
ENDSEC
  0
EOF
