  0
SECTION
  2
HEADER
  9
$ACADVER
  1
AC1024
  9
$DWGCODEPAGE
  3
ANSI_1252
  9
$EXTMAX
 10
297.0
 20
210.0
 30
0.0
  9
$EXTMIN
 10
0.0
 20
0.0
 30
0.0
  9
$LIMMIN
 10
0.0
 20
0.0
  9
$LIMMAX
 10
297.0
 20
210.0
  9
$VIEWCTR
 10
148.5
 20
105.0
  9
$VIEWSIZE
 40
210.0
  9
$CLAYER
  8
0
  9
$LTSCALE
 40
16.335
  9
$CELTYPE
  6
BYLAYER
  9
$DIMSCALE
 40
1.0
  9
$DIMASZ
 40
3.0
  9
$DIMEXO
 40
0.5
  9
$DIMDLI
 40
11.286
  9
$DIMEXE
 40
1.5
  9
$DIMCEN
 40
2.673
  9
$DIMLFAC
 40
1.0
  9
$DIMBLK
  1
_FILLED
  9
$DIMALT
 70
0
  9
$DIMALTF
 40
0.0393700787
  9
$DIMTXT
 40
3.0
  9
$DIMTOL
 70
1
  9
$DIMLIM
 70
0
  9
$DIMTFAC
 40
1.0
  9
$DIMTP
 40
0.01
  9
$DIMTM
 40
0.01
  9
$DIMGAP
 40
0.625
  9
$DIMDSEP
 70
44
  9
$AUNITS
 70
0
  9
$PDMODE
 70
3
  9
$PDSIZE
 40
3.0
  9
$HANDSEED
  5
756
  9
$TILEMODE
 70
1
  9
$MEASUREMENT
 70
1
  9
$INSUNITS
 70
4
  0
ENDSEC
  0
SECTION
  2
CLASSES
  0
CLASS
  1
ACDBDICTIONARYWDFLT
  2
AcDbDictionaryWithDefault
  3
AutoCAD 2000
 90
0
 91
1
280
0
281
0
  0
CLASS
  1
ACDBPLACEHOLDER
  2
AcDbPlaceHolder
  3
AutoCAD 2000
 90
0
 91
1
280
0
281
0
  0
CLASS
  1
LAYOUT
  2
AcDbLayout
  3
AutoCAD 2000
 90
0
 91
0
280
0
281
0
  0
ENDSEC
  0
SECTION
  2
TABLES
  0
TABLE
  2
VPORT
  5
8
100
AcDbSymbolTable
 70
2
  0
VPORT
  5
1F4
100
AcDbSymbolTableRecord
100
AcDbViewportTableRecord
  2
*ACTIVE
 70
0
 10
0.0
 20
0.0
 11
1.0
 21
1.0
 12
148.5
 22
105.0
 13
0.0
 23
0.0
 14
1.0
 24
1.0
 15
0.0
 25
0.0
 16
0.0
 26
0.0
 36
1.0
 17
0.0
 27
0.0
 37
0.0
 40
210.0
 41
1.4142857143
 42
50.0
 43
0.0
 44
0.0
 50
0.0
 51
0.0
 71
0
 72
100
 73
1
 74
1
 75
0
 76
0
 77
0
 78
0
  0
ENDTAB
  0
TABLE
  2
LTYPE
  5
5
100
AcDbSymbolTable
 70
6
  0
LTYPE
  5
14
100
AcDbSymbolTableRecord
100
AcDbLinetypeTableRecord
  2
BYBLOCK
 70
0
  3

 72
65
 73
0
 40
0.0
  0
LTYPE
  5
15
100
AcDbSymbolTableRecord
100
AcDbLinetypeTableRecord
  2
BYLAYER
 70
0
  3

 72
65
 73
0
 40
0.0
  0
LTYPE
  5
16
100
AcDbSymbolTableRecord
100
AcDbLinetypeTableRecord
  2
CONTINUOUS
 70
64
  3
Solid line
 72
65
 73
0
 40
0.0
  0
LTYPE
  5
1F5
100
AcDbSymbolTableRecord
100
AcDbLinetypeTableRecord
  2
CENTER
 70
64
  3
____ _ ____ _ ____ _ ____ _ ____ _ ____ _ ____
 72
65
 73
4
 40
0.6
 49
0.375
 74
0
 49
-0.075
 74
0
 49
0.075
 74
0
 49
-0.075
 74
0
  0
LTYPE
  5
1F6
100
AcDbSymbolTableRecord
100
AcDbLinetypeTableRecord
  2
HIDDEN
 70
64
  3
- - - - - - - - - - - - - - - - - - - -
 72
65
 73
2
 40
0.2
 49
0.1
 74
0
 49
-0.1
 74
0
  0
LTYPE
  5
1F7
100
AcDbSymbolTableRecord
100
AcDbLinetypeTableRecord
  2
PHANTOM
 70
64
  3
_____ _ _ _____ _ _ _____ _ _ _____
 72
65
 73
6
 40
0.8
 49
0.45
 74
0
 49
-0.05
 74
0
 49
0.1
 74
0
 49
-0.05
 74
0
 49
0.1
 74
0
 49
-0.05
 74
0
  0
LTYPE
  5
1F8
100
AcDbSymbolTableRecord
100
AcDbLinetypeTableRecord
  2
DOT
 70
64
  3
. . . . . . . . . . . . . . . . . . . .
 72
65
 73
2
 40
0.2
 49
0.1
 74
0
 49
-0.1
 74
0
  0
LTYPE
  5
1F9
100
AcDbSymbolTableRecord
100
AcDbLinetypeTableRecord
  2
DASHED
 70
64
  3
- - - - - - - - - - - - - - - - - - - -
 72
65
 73
2
 40
0.2
 49
0.1
 74
0
 49
-0.1
 74
0
  0
ENDTAB
  0
TABLE
  2
LAYER
  5
2
100
AcDbSymbolTable
 70
36
  0
LAYER
  5
10
100
AcDbSymbolTableRecord
100
AcDbLayerTableRecord
  2
0
 70
0
 62
7
  6
CONTINUOUS
370
-3
390
F
  0
LAYER
  5
1FA
100
AcDbSymbolTableRecord
100
AcDbLayerTableRecord
  2
DEFAULT_1
 70
0
 62
7
  6
CENTER
370
-3
390
F
  0
LAYER
  5
1FB
100
AcDbSymbolTableRecord
100
AcDbLayerTableRecord
  2
DEFAULT_2
 70
0
 62
7
  6
HIDDEN
370
-3
390
F
  0
LAYER
  5
1FC
100
AcDbSymbolTableRecord
100
AcDbLayerTableRecord
  2
DEFAULT_3
 70
0
 62
7
  6
PHANTOM
370
-3
390
F
  0
LAYER
  5
1FD
100
AcDbSymbolTableRecord
100
AcDbLayerTableRecord
  2
ASSI
 70
0
 62
7
  6
CONTINUOUS
370
-3
390
F
  0
LAYER
  5
1FE
100
AcDbSymbolTableRecord
100
AcDbLayerTableRecord
  2
COORDINATE
 70
0
 62
7
  6
CONTINUOUS
370
-3
390
F
  0
LAYER
  5
1FF
100
AcDbSymbolTableRecord
100
AcDbLayerTableRecord
  2
COORD_ORIGINE
 70
0
 62
7
  6
CONTINUOUS
370
-3
390
F
  0
LAYER
  5
200
100
AcDbSymbolTableRecord
100
AcDbLayerTableRecord
  2
COPY_PUBLISH
 70
0
 62
7
  6
CONTINUOUS
370
-3
390
F
  0
LAYER
  5
201
100
AcDbSymbolTableRecord
100
AcDbLayerTableRecord
  2
COSMETICHE
 70
0
 62
7
  6
CONTINUOUS
370
-3
390
F
  0
LAYER
  5
202
100
AcDbSymbolTableRecord
100
AcDbLayerTableRecord
  2
COSMETICI
 70
0
 62
7
  6
CONTINUOUS
370
-3
390
F
  0
LAYER
  5
203
100
AcDbSymbolTableRecord
100
AcDbLayerTableRecord
  2
CURVE
 70
0
 62
7
  6
CONTINUOUS
370
-3
390
F
  0
LAYER
  5
204
100
AcDbSymbolTableRecord
100
AcDbLayerTableRecord
  2
DRAFT
 70
0
 62
7
  6
CONTINUOUS
370
-3
390
F
  0
LAYER
  5
205
100
AcDbSymbolTableRecord
100
AcDbLayerTableRecord
  2
IMPORT_IGES
 70
0
 62
7
  6
CONTINUOUS
370
-3
390
F
  0
LAYER
  5
206
100
AcDbSymbolTableRecord
100
AcDbLayerTableRecord
  2
INTF_11
 70
0
 62
7
  6
CONTINUOUS
370
-3
390
F
  0
LAYER
  5
207
100
AcDbSymbolTableRecord
100
AcDbLayerTableRecord
  2
INTF_2
 70
0
 62
7
  6
CONTINUOUS
370
-3
390
F
  0
LAYER
  5
208
100
AcDbSymbolTableRecord
100
AcDbLayerTableRecord
  2
INTF_8
 70
0
 62
7
  6
CONTINUOUS
370
-3
390
F
  0
LAYER
  5
209
100
AcDbSymbolTableRecord
100
AcDbLayerTableRecord
  2
NOTE
 70
0
 62
7
  6
CONTINUOUS
370
-3
390
F
  0
LAYER
  5
20A
100
AcDbSymbolTableRecord
100
AcDbLayerTableRecord
  2
PIANI
 70
0
 62
7
  6
CONTINUOUS
370
-3
390
F
  0
LAYER
  5
20B
100
AcDbSymbolTableRecord
100
AcDbLayerTableRecord
  2
PIANI_ORIGINE
 70
0
 62
7
  6
CONTINUOUS
370
-3
390
F
  0
LAYER
  5
20C
100
AcDbSymbolTableRecord
100
AcDbLayerTableRecord
  2
PUNTI
 70
0
 62
7
  6
CONTINUOUS
370
-3
390
F
  0
LAYER
  5
20D
100
AcDbSymbolTableRecord
100
AcDbLayerTableRecord
  2
RACCORDO
 70
0
 62
7
  6
CONTINUOUS
370
-3
390
F
  0
LAYER
  5
20E
100
AcDbSymbolTableRecord
100
AcDbLayerTableRecord
  2
SIMBOLI
 70
0
 62
7
  6
CONTINUOUS
370
-3
390
F
  0
LAYER
  5
20F
100
AcDbSymbolTableRecord
100
AcDbLayerTableRecord
  2
SMUSSO
 70
0
 62
7
  6
CONTINUOUS
370
-3
390
F
  0
LAYER
  5
210
100
AcDbSymbolTableRecord
100
AcDbLayerTableRecord
  2
SNAPLINE
 70
0
 62
7
  6
CONTINUOUS
370
-3
390
F
  0
LAYER
  5
211
100
AcDbSymbolTableRecord
100
AcDbLayerTableRecord
  2
SUPERFICI
 70
0
 62
7
  6
CONTINUOUS
370
-3
390
F
  0
LAYER
  5
212
100
AcDbSymbolTableRecord
100
AcDbLayerTableRecord
  2
SVILUPPO
 70
0
 62
7
  6
CONTINUOUS
370
-3
390
F
  0
LAYER
  5
213
100
AcDbSymbolTableRecord
100
AcDbLayerTableRecord
  2
TESTO
 70
0
 62
7
  6
CONTINUOUS
370
-3
390
F
  0
LAYER
  5
214
100
AcDbSymbolTableRecord
100
AcDbLayerTableRecord
  2
TRASH
 70
0
 62
7
  6
CONTINUOUS
370
-3
390
F
  0
ENDTAB
  0
TABLE
  2
STYLE
  5
3
100
AcDbSymbolTable
 70
1
  0
STYLE
  5
11
100
AcDbSymbolTableRecord
100
AcDbTextStyleTableRecord
  2
STANDARD
 70
0
 40
0.0
 41
0.8
 50
0.0
 71
0
 42
0.2
  3
txt
  4

  0
STYLE
  5
215
100
AcDbSymbolTableRecord
100
AcDbTextStyleTableRecord
  2
TEXTSTYLE_1
 70
0
 40
0.0
 41
0.8
 50
0.0
 71
0
 42
0.2
  3
gdt
  4

  0
ENDTAB
  0
TABLE
  2
VIEW
  5
6
100
AcDbSymbolTable
 70
0
  0
ENDTAB
  0
TABLE
  2
UCS
  5
7
100
AcDbSymbolTable
 70
0
  0
ENDTAB
  0
TABLE
  2
APPID
  5
9
100
AcDbSymbolTable
 70
1
  0
APPID
  5
216
100
AcDbSymbolTableRecord
100
AcDbRegAppTableRecord
  2
ACAD
 70
0
  0
ENDTAB
  0
TABLE
  2
BLOCK_RECORD
  5
1
100
AcDbSymbolTable
 70
0
  0
BLOCK_RECORD
  5
217
100
AcDbSymbolTableRecord
100
AcDbBlockTableRecord
  2
*Model_Space
  0
BLOCK_RECORD
  5
218
100
AcDbSymbolTableRecord
100
AcDbBlockTableRecord
  2
*Paper_Space
  0
BLOCK_RECORD
  5
219
100
AcDbSymbolTableRecord
100
AcDbBlockTableRecord
  2
_FILLED
  0
BLOCK_RECORD
  5
21A
100
AcDbSymbolTableRecord
100
AcDbBlockTableRecord
  2
*D0
  0
BLOCK_RECORD
  5
21B
100
AcDbSymbolTableRecord
100
AcDbBlockTableRecord
  2
*D1
  0
BLOCK_RECORD
  5
21C
100
AcDbSymbolTableRecord
100
AcDbBlockTableRecord
  2
*D2
  0
BLOCK_RECORD
  5
21D
100
AcDbSymbolTableRecord
100
AcDbBlockTableRecord
  2
*D3
  0
ENDTAB
  0
TABLE
  2
DIMSTYLE
  5
A
100
AcDbSymbolTable
 70
1
100
AcDbDimStyleTable
 71
0
  0
DIMSTYLE
105
21E
100
AcDbSymbolTableRecord
100
AcDbDimStyleTableRecord
  2
STANDARD
 70
0
  3

  4

 40
1.0
 41
3.0
 42
0.5
 43
0.38
 44
1.5
 45
0.0
 46
0.0
 47
0.01
 48
0.01
140
3.0
141
0.09
142
0.0
143
25.4
144
1.0
145
0.0
146
1.0
147
0.625
 71
1
 72
0
 73
0
 74
0
 75
0
 76
0
 77
1
 78
8
 79
2
170
0
171
1
172
0
173
0
174
0
175
0
176
0
177
0
178
0
270
2
179
2
271
2
272
2
273
2
274
2
275
0
280
0
281
0
282
0
283
1
284
8
285
0
286
0
287
3
288
0
340
11
278
44
341
219
342
219
343
219
344
219
  0
DIMSTYLE
105
21F
100
AcDbSymbolTableRecord
100
AcDbDimStyleTableRecord
  2
DIMSTYLE_1
 70
0
  3

  4

 40
1.0
 41
3.0
 42
0.5
 43
0.38
 44
1.5
 45
0.0
 46
0.0
 47
0.0
 48
0.0
140
3.0
141
0.09
142
0.0
143
25.4
144
1.0
145
0.0
146
1.0
147
0.75
 71
0
 72
0
 73
0
 74
0
 75
0
 76
0
 77
1
 78
8
 79
2
170
0
171
1
172
0
173
0
174
0
175
0
176
0
177
0
178
0
270
2
179
2
271
1
272
1
273
2
274
2
275
0
280
0
281
0
282
0
283
1
284
8
285
0
286
0
287
3
288
0
340
11
278
44
341
219
342
219
343
219
344
219
  0
ENDTAB
  0
ENDSEC
  0
SECTION
  2
BLOCKS
  0
BLOCK
  5
20
100
AcDbEntity
  8
0
100
AcDbBlockBegin
  2
*Model_Space
 70
0
 10
0.0
 20
0.0
 30
0.0
  3
*Model_Space
  1

  0
ENDBLK
  5
21
100
AcDbEntity
  8
0
100
AcDbBlockEnd
  0
BLOCK
  5
1C
100
AcDbEntity
  8
0
100
AcDbBlockBegin
  2
*Paper_Space
 70
0
 10
0.0
 20
0.0
 30
0.0
  3
*Paper_Space
  1

  0
ENDBLK
  5
1D
100
AcDbEntity
  8
0
100
AcDbBlockEnd
  0
BLOCK
  5
220
100
AcDbEntity
  8
0
100
AcDbBlockBegin
  2
_FILLED
 70
64
 10
0.0
 20
0.0
  3
_FILLED
  1

  0
SOLID
  5
221
100
AcDbEntity
  8
0
  6
BYBLOCK
 62
0
100
AcDbTrace
 10
0.0
 20
0.0
 11
-1.0
 21
0.3166666667
 12
-1.0
 22
-0.3166666667
 13
-1.0
 23
-0.3166666667
  0
ENDBLK
  5
222
100
AcDbEntity
  8
0
  6
BYBLOCK
 62
0
100
AcDbBlockEnd
  0
BLOCK
  5
223
100
AcDbEntity
  8
0
100
AcDbBlockBegin
 62
7
  6
CONTINUOUS
  2
*D0
 70
65
 10
0.0
 20
0.0
  3
*D0
  1

  0
LINE
  5
224
100
AcDbEntity
  8
0
100
AcDbLine
 62
7
  6
CONTINUOUS
 10
-104.2524557352
 20
20.5
 11
-104.2524557352
 21
52.7851493769
  0
LINE
  5
225
100
AcDbEntity
  8
0
100
AcDbLine
 62
7
  6
CONTINUOUS
 10
-83.4024557352
 20
41.909966909
 11
-83.4024557352
 21
52.7851493769
  0
LINE
  5
226
100
AcDbEntity
  8
0
100
AcDbLine
 62
7
  6
CONTINUOUS
 10
-104.2524557352
 20
51.2851493769
 11
-93.8274557352
 21
51.2851493769
  0
LINE
  5
227
100
AcDbEntity
  8
0
100
AcDbLine
 62
7
  6
CONTINUOUS
 10
-83.4024557352
 20
51.2851493769
 11
-93.8274557352
 21
51.2851493769
  0
INSERT
  5
228
100
AcDbEntity
  8
0
100
AcDbBlockReference
 62
7
  6
CONTINUOUS
  2
_FILLED
 10
-104.2524557352
 20
51.2851493769
 41
3.0
 42
3.0
 43
3.0
 50
180.0
  0
INSERT
  5
229
100
AcDbEntity
  8
0
100
AcDbBlockReference
 62
7
  6
CONTINUOUS
  2
_FILLED
 10
-83.4024557352
 20
51.2851493769
 41
3.0
 42
3.0
 43
3.0
  0
ENDBLK
  5
22A
100
AcDbEntity
  8
0
  6
BYBLOCK
 62
0
100
AcDbBlockEnd
  0
BLOCK
  5
22B
100
AcDbEntity
  8
0
100
AcDbBlockBegin
 62
7
  6
CONTINUOUS
  2
*D1
 70
65
 10
0.0
 20
0.0
  3
*D1
  1

  0
LINE
  5
22C
100
AcDbEntity
  8
0
100
AcDbLine
 62
7
  6
CONTINUOUS
 10
-104.2524557352
 20
20.5
 11
-104.2524557352
 21
62.7851493769
  0
LINE
  5
22D
100
AcDbEntity
  8
0
100
AcDbLine
 62
7
  6
CONTINUOUS
 10
-55.9024557352
 20
-0.45
 11
-55.9024557352
 21
62.7851493769
  0
LINE
  5
22E
100
AcDbEntity
  8
0
100
AcDbLine
 62
7
  6
CONTINUOUS
 10
-104.2524557352
 20
61.2851493769
 11
-80.0774557352
 21
61.2851493769
  0
LINE
  5
22F
100
AcDbEntity
  8
0
100
AcDbLine
 62
7
  6
CONTINUOUS
 10
-55.9024557352
 20
61.2851493769
 11
-80.0774557352
 21
61.2851493769
  0
INSERT
  5
230
100
AcDbEntity
  8
0
100
AcDbBlockReference
 62
7
  6
CONTINUOUS
  2
_FILLED
 10
-104.2524557352
 20
61.2851493769
 41
3.0
 42
3.0
 43
3.0
 50
180.0
  0
INSERT
  5
231
100
AcDbEntity
  8
0
100
AcDbBlockReference
 62
7
  6
CONTINUOUS
  2
_FILLED
 10
-55.9024557352
 20
61.2851493769
 41
3.0
 42
3.0
 43
3.0
  0
ENDBLK
  5
232
100
AcDbEntity
  8
0
  6
BYBLOCK
 62
0
100
AcDbBlockEnd
  0
BLOCK
  5
233
100
AcDbEntity
  8
0
100
AcDbBlockBegin
 62
7
  6
CONTINUOUS
  2
*D2
 70
65
 10
0.0
 20
0.0
  3
*D2
  1

  0
LINE
  5
234
100
AcDbEntity
  8
0
100
AcDbLine
 62
7
  6
CONTINUOUS
 10
-49.859966909
 20
35.9108807381
 11
-49.859966909
 21
62.7851493769
  0
LINE
  5
235
100
AcDbEntity
  8
0
100
AcDbLine
 62
7
  6
CONTINUOUS
 10
49.859966909
 20
35.9108807381
 11
49.859966909
 21
62.7851493769
  0
LINE
  5
236
100
AcDbEntity
  8
0
100
AcDbLine
 62
7
  6
CONTINUOUS
 10
-49.859966909
 20
61.2851493769
 11
0.0
 21
61.2851493769
  0
LINE
  5
237
100
AcDbEntity
  8
0
100
AcDbLine
 62
7
  6
CONTINUOUS
 10
49.859966909
 20
61.2851493769
 11
0.0
 21
61.2851493769
  0
INSERT
  5
238
100
AcDbEntity
  8
0
100
AcDbBlockReference
 62
7
  6
CONTINUOUS
  2
_FILLED
 10
-49.859966909
 20
61.2851493769
 41
3.0
 42
3.0
 43
3.0
 50
180.0
  0
INSERT
  5
239
100
AcDbEntity
  8
0
100
AcDbBlockReference
 62
7
  6
CONTINUOUS
  2
_FILLED
 10
49.859966909
 20
61.2851493769
 41
3.0
 42
3.0
 43
3.0
  0
ENDBLK
  5
23A
100
AcDbEntity
  8
0
  6
BYBLOCK
 62
0
100
AcDbBlockEnd
  0
BLOCK
  5
23B
100
AcDbEntity
  8
0
100
AcDbBlockBegin
 62
7
  6
CONTINUOUS
  2
*D3
 70
65
 10
0.0
 20
0.0
  3
*D3
  1

  0
LINE
  5
23C
100
AcDbEntity
  8
0
100
AcDbLine
 62
7
  6
CONTINUOUS
 10
44.3608807381
 20
41.409966909
 11
59.3688404009
 21
41.409966909
  0
LINE
  5
23D
100
AcDbEntity
  8
0
100
AcDbLine
 62
7
  6
CONTINUOUS
 10
44.3608807381
 20
-41.409966909
 11
59.3688404009
 21
-41.409966909
  0
LINE
  5
23E
100
AcDbEntity
  8
0
100
AcDbLine
 62
7
  6
CONTINUOUS
 10
57.8688404009
 20
41.409966909
 11
57.8688404009
 21
0.0
  0
LINE
  5
23F
100
AcDbEntity
  8
0
100
AcDbLine
 62
7
  6
CONTINUOUS
 10
57.8688404009
 20
-41.409966909
 11
57.8688404009
 21
0.0
  0
INSERT
  5
240
100
AcDbEntity
  8
0
100
AcDbBlockReference
 62
7
  6
CONTINUOUS
  2
_FILLED
 10
57.8688404009
 20
41.409966909
 41
3.0
 42
3.0
 43
3.0
 50
90.0
  0
INSERT
  5
241
100
AcDbEntity
  8
0
100
AcDbBlockReference
 62
7
  6
CONTINUOUS
  2
_FILLED
 10
57.8688404009
 20
-41.409966909
 41
3.0
 42
3.0
 43
3.0
 50
270.0
  0
ENDBLK
  5
242
100
AcDbEntity
  8
0
  6
BYBLOCK
 62
0
100
AcDbBlockEnd
  0
ENDSEC
  0
SECTION
  2
ENTITIES
  0
DIMENSION
  5
243
100
AcDbEntity
  8
0
100
AcDbDimension
 62
7
  6
CONTINUOUS
  2
*D0
 10
-83.4024557352
 20
51.2851493769
 11
-98.220312878
 21
51.2851493769
 70
160
 71
2
 72
2
 41
0.9
 42
20.85
  3
DIMSTYLE_1
100
AcDbAlignedDimension
 13
-104.2524557352
 23
20.0
 14
-83.4024557352
 24
41.409966909
100
AcDbRotatedDimension
  0
DIMENSION
  5
244
100
AcDbEntity
  8
0
100
AcDbDimension
 62
7
  6
CONTINUOUS
  2
*D1
 10
-55.9024557352
 20
61.2851493769
 11
-84.470312878
 21
61.2851493769
 70
160
 71
2
 72
2
 41
0.9
 42
48.35
  3
DIMSTYLE_1
100
AcDbAlignedDimension
 13
-104.2524557352
 23
20.0
 14
-55.9024557352
 24
-0.95
100
AcDbRotatedDimension
  0
DIMENSION
  5
245
100
AcDbEntity
  8
0
100
AcDbDimension
 62
7
  6
CONTINUOUS
  2
*D2
 10
49.859966909
 20
61.2851493769
 11
-4.3928571429
 21
61.2851493769
 70
160
 71
2
 72
2
 41
0.9
 42
99.7199338181
  3
DIMSTYLE_1
100
AcDbAlignedDimension
 13
-49.859966909
 23
35.4108807381
 14
49.859966909
 24
35.4108807381
100
AcDbRotatedDimension
  0
DIMENSION
  5
246
100
AcDbEntity
  8
0
100
AcDbDimension
 62
7
  6
CONTINUOUS
  2
*D3
 10
57.8688404009
 20
-41.409966909
 11
57.8688404009
 21
-4.3928571429
 70
160
 71
2
 72
2
 41
0.9
 42
82.8199338181
  3
DIMSTYLE_1
100
AcDbAlignedDimension
 13
43.8608807381
 23
41.409966909
 14
43.8608807381
 24
-41.409966909
 50
270.0
100
AcDbRotatedDimension
  0
LWPOLYLINE
  5
247
100
AcDbEntity
  8
RACCORDO
100
AcDbPolyline
 62
250
  6
CONTINUOUS
 90
16
 70
0
 10
-49.6076937033
 20
35.1586075323
 10
-49.604911923
 20
35.1623411175
 10
-49.5981445245
 20
35.1660447695
 10
-49.5874457645
 20
35.1696887959
 10
-49.5729014176
 20
35.1732439824
 10
-49.5546280888
 20
35.176681827
 10
-49.5327722806
 20
35.1799747679
 10
-49.5075092148
 20
35.1830964058
 10
-49.4790414293
 20
35.1860217143
 10
-49.4475971558
 20
35.1887272413
 10
-49.4134284873
 20
35.1911912966
 10
-49.3768093573
 20
35.1933941262
 10
-49.3380333459
 20
35.19531807
 10
-49.2974113238
 20
35.1969477041
 10
-49.2552689596
 20
35.198269964
 10
-49.2119441103
 20
35.1992742496
  0
LWPOLYLINE
  5
248
100
AcDbEntity
  8
RACCORDO
100
AcDbPolyline
 62
250
  6
CONTINUOUS
 90
16
 70
0
 10
-49.6076937033
 20
-35.1586075323
 10
-49.604911931
 20
-35.1623411237
 10
-49.598144552
 20
-35.166044781
 10
-49.5874458208
 20
-35.1696888118
 10
-49.5729015098
 20
-35.173244002
 10
-49.5546282213
 20
-35.1766818495
 10
-49.5327724533
 20
-35.1799747929
 10
-49.5075094242
 20
-35.1830964325
 10
-49.4790416689
 20
-35.1860217421
 10
-49.4475974145
 20
-35.1887272694
 10
-49.4134287507
 20
-35.191191324
 10
-49.3768096091
 20
-35.1933941516
 10
-49.3380335665
 20
-35.195318092
 10
-49.297411492
 20
-35.1969477211
 10
-49.2552690541
 20
-35.1982699738
 10
-49.2119441103
 20
-35.1992742496
  0
LWPOLYLINE
  5
249
100
AcDbEntity
  8
RACCORDO
100
AcDbPolyline
 62
250
  6
CONTINUOUS
 90
16
 70
0
 10
-43.6036414542
 20
41.1527276252
 10
-43.609816498
 20
41.1497738021
 10
-43.6159383747
 20
41.1425410204
 10
-43.6219543742
 20
41.131091558
 10
-43.6278126981
 20
41.1155239994
 10
-43.6334629059
 20
41.0959723854
 10
-43.6388563493
 20
41.0726050593
 10
-43.6439465905
 20
41.0456232183
 10
-43.6486898023
 20
41.0152591803
 10
-43.6530451458
 20
40.9817743822
 10
-43.6569751215
 20
40.9454571323
 10
-43.6604458922
 20
40.9066201257
 10
-43.6634275748
 20
40.86559775
 10
-43.6658944969
 20
40.8227432103
 10
-43.6678254186
 20
40.7784254878
 10
-43.6692037148
 20
40.7330261611
  0
LWPOLYLINE
  5
24A
100
AcDbEntity
  8
RACCORDO
100
AcDbPolyline
 62
250
  6
CONTINUOUS
 90
16
 70
0
 10
-43.6036414542
 20
-41.1527276252
 10
-43.6098165149
 20
-41.1497738013
 10
-43.6159384068
 20
-41.1425410166
 10
-43.6219544196
 20
-41.1310915483
 10
-43.6278127552
 20
-41.1155239792
 10
-43.6334629727
 20
-41.0959723499
 10
-43.6388564228
 20
-41.072605006
 10
-43.6439466677
 20
-41.0456231455
 10
-43.6486898803
 20
-41.0152590872
 10
-43.6530452212
 20
-40.9817742728
 10
-43.6569751908
 20
-40.9454570123
 10
-43.6604459526
 20
-40.9066200021
 10
-43.6634276232
 20
-40.8655976353
 10
-43.665894531
 20
-40.8227431195
 10
-43.6678254364
 20
-40.7784254353
 10
-43.6692037148
 20
-40.7330261611
  0
LWPOLYLINE
  5
24B
100
AcDbEntity
  8
RACCORDO
100
AcDbPolyline
 62
250
  6
CONTINUOUS
 90
31
 70
0
 10
-37.9640034179
 20
-40.3959032934
 10
-37.9319697789
 20
-40.4222912397
 10
-37.9022379268
 20
-40.4512533696
 10
-37.875013243
 20
-40.4825896042
 10
-37.8504837959
 20
-40.5160834538
 10
-37.8288190171
 20
-40.5515035463
 10
-37.8101685408
 20
-40.5886052319
 10
-37.7946611997
 20
-40.6271322244
 10
-37.7824041243
 20
-40.6668183682
 10
-37.7734819855
 20
-40.7073895129
 10
-37.7679564175
 20
-40.7485653939
 10
-37.7658655909
 20
-40.790061568
 10
-37.767223949
 20
-40.8315913806
 10
-37.7720221084
 20
-40.8728679442
 10
-37.7802269236
 20
-40.9136061204
 10
-37.7917817161
 20
-40.953524491
 10
-37.8066066657
 20
-40.9923473001
 10
-37.8245993621
 20
-41.0298063598
 10
-37.8456355123
 20
-41.0656429037
 10
-37.8695697993
 20
-41.0996093728
 10
-37.8962368853
 20
-41.1314711267
 10
-37.925452555
 20
-41.1610080645
 10
-37.9570149867
 20
-41.1880161447
 10
-37.9907061479
 20
-41.2123087953
 10
-38.0262933014
 20
-41.2337182028
 10
-38.063530595
 20
-41.252096463
 10
-38.1021608093
 20
-41.2673166282
 10
-38.1419171414
 20
-41.2792735707
 10
-38.1825249764
 20
-41.2878846807
 10
-38.2237037793
 20
-41.2930904518
 10
-38.2651690862
 20
-41.2948549076
  0
LWPOLYLINE
  5
24C
100
AcDbEntity
  8
RACCORDO
100
AcDbPolyline
 62
250
  6
CONTINUOUS
 90
16
 70
0
 10
-33.75
 20
-41.1310794779
 10
-33.7530755717
 20
-41.1284016701
 10
-33.7561275636
 20
-41.1219116556
 10
-33.7591325772
 20
-41.1116591928
 10
-33.7620675742
 20
-41.0977228849
 10
-33.7649100531
 20
-41.0802095786
 10
-33.7676382215
 20
-41.0592535452
 10
-33.7702311635
 20
-41.0350154493
 10
-33.7726690002
 20
-41.0076811174
 10
-33.7749330416
 20
-40.9774601152
 10
-33.7770059304
 20
-40.9445841381
 10
-33.7788717745
 20
-40.9093052357
 10
-33.7805162695
 20
-40.8718938805
 10
-33.7819268079
 20
-40.8326368931
 10
-33.7830925759
 20
-40.7918352423
 10
-33.7840046363
 20
-40.7498017391
  0
LWPOLYLINE
  5
24D
100
AcDbEntity
  8
RACCORDO
100
AcDbPolyline
 62
250
  6
CONTINUOUS
 90
16
 70
0
 10
-38.3675454326
 20
-40.2663357165
 10
-38.3421321426
 20
-40.2908664433
 10
-38.3186752819
 20
-40.3169227103
 10
-38.2972475321
 20
-40.3443390792
 10
-38.2779701686
 20
-40.3728487337
 10
-38.2608122943
 20
-40.4023766542
 10
-38.2456610001
 20
-40.4330810864
 10
-38.2325996807
 20
-40.4648334001
 10
-38.2217087404
 20
-40.4974847553
 10
-38.2129849988
 20
-40.5312110103
 10
-38.2065416406
 20
-40.5659546421
 10
-38.2025207956
 20
-40.6014775613
 10
-38.2010320899
 20
-40.6376867339
 10
-38.202192158
 20
-40.6744227496
 10
-38.2061042028
 20
-40.7114581683
 10
-38.2128553749
 20
-40.7485762442
  0
LWPOLYLINE
  5
24E
100
AcDbEntity
  8
RACCORDO
100
AcDbPolyline
 62
250
  6
CONTINUOUS
 90
16
 70
0
 10
-38.5997259921
 20
-40.5498770354
 10
-38.5894357835
 20
-40.559861069
 10
-38.5799730605
 20
-40.5703230771
 10
-38.5713378371
 20
-40.5812630738
 10
-38.5635270112
 20
-40.5927011812
 10
-38.5565437126
 20
-40.6046173047
 10
-38.5503973062
 20
-40.6169511361
 10
-38.5450639626
 20
-40.6296981761
 10
-38.540567546
 20
-40.6428629586
 10
-38.5369889701
 20
-40.6563987337
 10
-38.5343094856
 20
-40.6703485236
 10
-38.5325478858
 20
-40.6846693499
 10
-38.5318414154
 20
-40.6991854784
 10
-38.5322358492
 20
-40.7138383576
 10
-38.53368548
 20
-40.7286866064
 10
-38.5361903385
 20
-40.7437302554
  0
LINE
  5
24F
100
AcDbEntity
  8
RACCORDO
100
AcDbLine
 62
250
  6
CONTINUOUS
 10
-49.2119441103
 20
-35.1992742496
 11
-49.2231606597
 21
-30.7223674087
  0
LINE
  5
250
100
AcDbEntity
  8
RACCORDO
100
AcDbLine
 62
250
  6
CONTINUOUS
 10
-49.2231606597
 20
-30.7223674087
 11
-49.2332468449
 21
-25.6031220977
  0
LINE
  5
251
100
AcDbEntity
  8
RACCORDO
100
AcDbLine
 62
250
  6
CONTINUOUS
 10
-49.2332468449
 20
-25.6031220977
 11
-49.2386077674
 21
-21.7685781296
  0
LINE
  5
252
100
AcDbEntity
  8
RACCORDO
100
AcDbLine
 62
250
  6
CONTINUOUS
 10
-49.2386077674
 20
-21.7685781296
 11
-49.2404973764
 21
-18.6429807084
  0
LINE
  5
253
100
AcDbEntity
  8
RACCORDO
100
AcDbLine
 62
7
  6
CONTINUOUS
 10
-49.859966909
 20
-35.4108807381
 11
-49.859966909
 21
35.4108807381
  0
LINE
  5
254
100
AcDbEntity
  8
RACCORDO
100
AcDbLine
 62
250
  6
CONTINUOUS
 10
-49.2404973764
 20
-18.6429807084
 11
-49.2399280178
 21
-4.2407015054
  0
LINE
  5
255
100
AcDbEntity
  8
RACCORDO
100
AcDbLine
 62
250
  6
CONTINUOUS
 10
-49.2394157476
 20
-2.2264823691
 11
-49.2403355301
 21
19.2775001373
  0
LINE
  5
256
100
AcDbEntity
  8
RACCORDO
100
AcDbLine
 62
250
  6
CONTINUOUS
 10
-49.2399280178
 20
-4.2407015054
 11
-49.2394157476
 21
-2.2264823691
  0
LINE
  5
257
100
AcDbEntity
  8
RACCORDO
100
AcDbLine
 62
250
  6
CONTINUOUS
 10
-49.2403355301
 20
19.2775001373
 11
-49.2377566458
 21
22.5302647689
  0
LINE
  5
258
100
AcDbEntity
  8
RACCORDO
100
AcDbLine
 62
250
  6
CONTINUOUS
 10
-49.6076937033
 20
-35.1586075323
 11
-49.6076937033
 21
35.1586075323
  0
LINE
  5
259
100
AcDbEntity
  8
RACCORDO
100
AcDbLine
 62
250
  6
CONTINUOUS
 10
-49.2377566458
 20
22.5302647689
 11
-49.2285334409
 21
28.168744727
  0
LINE
  5
25A
100
AcDbEntity
  8
RACCORDO
100
AcDbLine
 62
250
  6
CONTINUOUS
 10
-49.2285334409
 20
28.168744727
 11
-49.2119441103
 21
35.1992742496
  0
LWPOLYLINE
  5
25B
100
AcDbEntity
  8
RACCORDO
100
AcDbPolyline
 62
250
  6
CONTINUOUS
 90
37
 70
0
 10
-49.6076937033
 20
35.1586075323
 10
-49.6020951968
 20
35.4255983466
 10
-49.5849542368
 20
35.6882296081
 10
-49.5568034724
 20
35.9460308759
 10
-49.5184124638
 20
36.1972701731
 10
-49.4702136224
 20
36.4428918687
 10
-49.4117568974
 20
36.6864084958
 10
-49.3427339431
 20
36.928666936
 10
-49.2635301233
 20
37.1679319154
 10
-49.1742784622
 20
37.4037522506
 10
-49.0751247211
 20
37.6356975001
 10
-48.9662256181
 20
37.8633600032
 10
-48.8477606191
 20
38.0863323154
 10
-48.7199529455
 20
38.3041659634
 10
-48.5829899938
 20
38.5165143388
 10
-48.4370059158
 20
38.7231235736
 10
-48.2823175157
 20
38.9234962549
 10
-48.119091846
 20
39.1173680181
 10
-47.9471905827
 20
39.304789178
 10
-47.7669351789
 20
39.4852573373
 10
-47.5784849768
 20
39.6584649447
 10
-47.3813482978
 20
39.8246250888
 10
-47.1755962129
 20
39.983351741
 10
-46.9615964945
 20
40.134041906
 10
-46.73922587
 20
40.276445793
 10
-46.5084462684
 20
40.4101988314
 10
-46.2698461644
 20
40.5345770932
 10
-46.0242946256
 20
40.6488177373
 10
-45.7721460912
 20
40.7524943612
 10
-45.5138744126
 20
40.8451543679
 10
-45.2506414488
 20
40.9261794837
 10
-44.9830118047
 20
40.9952561419
 10
-44.7114658413
 20
41.0521226002
 10
-44.4371181483
 20
41.0964427044
 10
-44.1607342768
 20
41.1280456061
 10
-43.8827113931
 20
41.1468403809
 10
-43.6036414542
 20
41.1527276252
  0
LWPOLYLINE
  5
25C
100
AcDbEntity
  8
RACCORDO
100
AcDbPolyline
 62
250
  6
CONTINUOUS
 90
37
 70
0
 10
-49.2119441103
 20
35.1992742496
 10
-49.2049340984
 20
35.4451691565
 10
-49.1883273637
 20
35.6863203845
 10
-49.162118414
 20
35.9227224529
 10
-49.1262394526
 20
36.153545322
 10
-49.0807472664
 20
36.3796080446
 10
-49.0258223853
 20
36.6033779268
 10
-48.9613956714
 20
36.8260650436
 10
-48.8875225579
 20
37.0464456439
 10
-48.804570317
 20
37.26333618
 10
-48.7124861974
 20
37.476708907
 10
-48.6113110925
 20
37.6865797366
 10
-48.5015546997
 20
37.8918325606
 10
-48.383201628
 20
38.0924076301
 10
-48.2562580766
 20
38.2883555212
 10
-48.1212684612
 20
38.478727941
 10
-47.978304985
 20
38.6634341195
 10
-47.8272895678
 20
38.8425589621
 10
-47.6685433193
 20
39.0154198042
 10
-47.5021783723
 20
39.1819996549
 10
-47.3280796561
 20
39.3423125735
 10
-47.1462291553
 20
39.495724147
 10
-46.9565014625
 20
39.6424159329
 10
-46.7590216839
 20
39.7822060733
 10
-46.5541498117
 20
39.9139172631
 10
-46.3415295481
 20
40.0376973009
 10
-46.1215212367
 20
40.1534024256
 10
-45.8955639577
 20
40.2594221115
 10
-45.6635062391
 20
40.3556475992
 10
-45.4255102387
 20
40.4421983114
 10
-45.1834904177
 20
40.5178109219
 10
-44.9374225063
 20
40.5823180422
 10
-44.6873464372
 20
40.635902691
 10
-44.4352767778
 20
40.6778309477
 10
-44.1818917358
 20
40.7078648434
 10
-43.926531287
 20
40.7262604925
 10
-43.6692037148
 20
40.7330261611
  0
LWPOLYLINE
  5
25D
100
AcDbEntity
  8
RACCORDO
100
AcDbPolyline
 62
250
  6
CONTINUOUS
 90
17
 70
0
 10
-28.2267170964
 20
40.8352665968
 10
-28.2274957107
 20
40.8343979353
 10
-28.2282422308
 20
40.8324669918
 10
-28.2289566597
 20
40.8294737496
 10
-28.2296435453
 20
40.8253546787
 10
-28.2302983509
 20
40.8201732469
 10
-28.2309074532
 20
40.8141199279
 10
-28.2314689501
 20
40.8071357831
 10
-28.2319847606
 20
40.7992796573
 10
-28.2324469897
 20
40.7909187218
 10
-28.2328496068
 20
40.7821892938
 10
-28.2331986539
 20
40.7729549929
 10
-28.2335043423
 20
40.7631739608
 10
-28.2337708583
 20
40.7529447441
 10
-28.2339940304
 20
40.7421687135
 10
-28.23417154
 20
40.7305082103
 10
-28.2343880842
 20
40.7043083585
  0
LINE
  5
25E
100
AcDbEntity
  8
RACCORDO
100
AcDbLine
 62
250
  6
CONTINUOUS
 10
-28.5262719942
 20
41.1307037853
 11
-28.1753022035
 21
41.2481899225
  0
LWPOLYLINE
  5
25F
100
AcDbEntity
  8
RACCORDO
100
AcDbPolyline
 62
250
  6
CONTINUOUS
 90
8
 70
0
 10
38.265169651
 20
-41.2948547465
 10
38.2628298685
 20
-41.2953667174
 10
38.2583311785
 20
-41.2958886034
 10
38.251673581
 20
-41.2964204047
 10
38.242918796
 20
-41.2969649896
 10
38.2320051035
 20
-41.2975194897
 10
38.2187473436
 20
-41.2980752997
 10
38.2031212913
 20
-41.2986322733
  0
LWPOLYLINE
  5
260
100
AcDbEntity
  8
RACCORDO
100
AcDbPolyline
 62
250
  6
CONTINUOUS
 90
16
 70
0
 10
38.5361972558
 20
-40.7437282726
 10
38.5053159806
 20
-40.7503783643
 10
38.4744342059
 20
-40.7562775452
 10
38.4438943053
 20
-40.7613605133
 10
38.4140350152
 20
-40.7655710061
 10
38.3851870194
 20
-40.7688624912
 10
38.3576693686
 20
-40.7711986098
 10
38.3317868165
 20
-40.7725535137
 10
38.3078263833
 20
-40.7729122186
 10
38.2860535686
 20
-40.7722707945
 10
38.2667095361
 20
-40.7706363819
 10
38.2500086068
 20
-40.7680271459
 10
38.23613584
 20
-40.7644720975
 10
38.2252447944
 20
-40.7600107076
 10
38.2174559027
 20
-40.7546924462
 10
38.2128552494
 20
-40.7485762864
  0
LINE
  5
261
100
AcDbEntity
  8
RACCORDO
100
AcDbLine
 62
250
  6
CONTINUOUS
 10
-37.9640032572
 20
-40.3959030796
 11
-38.0265028874
 21
-40.377010571
  0
LINE
  5
262
100
AcDbEntity
  8
RACCORDO
100
AcDbLine
 62
250
  6
CONTINUOUS
 10
-38.0265028874
 20
-40.377010571
 11
-38.0910148463
 21
-40.3570772427
  0
LINE
  5
263
100
AcDbEntity
  8
RACCORDO
100
AcDbLine
 62
250
  6
CONTINUOUS
 10
-37.3938981699
 20
-40.5901606801
 11
-37.4764686695
 21
-40.5645363631
  0
LINE
  5
264
100
AcDbEntity
  8
RACCORDO
100
AcDbLine
 62
250
  6
CONTINUOUS
 10
-38.0910148463
 20
-40.3570772427
 11
-38.1575010907
 21
-40.3360344841
  0
LINE
  5
265
100
AcDbEntity
  8
RACCORDO
100
AcDbLine
 62
250
  6
CONTINUOUS
 10
-37.4764686695
 20
-40.5645363631
 11
-37.5520208901
 21
-40.5404054099
  0
LINE
  5
266
100
AcDbEntity
  8
RACCORDO
100
AcDbLine
 62
250
  6
CONTINUOUS
 10
-38.1575010907
 20
-40.3360344841
 11
-38.2258314233
 21
-40.3138968687
  0
LINE
  5
267
100
AcDbEntity
  8
RACCORDO
100
AcDbLine
 62
250
  6
CONTINUOUS
 10
-37.5520208901
 20
-40.5404054099
 11
-37.62077371
 21
-40.5179025884
  0
LINE
  5
268
100
AcDbEntity
  8
RACCORDO
100
AcDbLine
 62
250
  6
CONTINUOUS
 10
-38.2258314233
 20
-40.3138968687
 11
-38.2958600653
 21
-40.2906832367
  0
LINE
  5
269
100
AcDbEntity
  8
RACCORDO
100
AcDbLine
 62
250
  6
CONTINUOUS
 10
-37.62077371
 20
-40.5179025884
 11
-37.6830949173
 21
-40.4970129712
  0
LWPOLYLINE
  5
26A
100
AcDbEntity
  8
RACCORDO
100
AcDbPolyline
 62
250
  6
CONTINUOUS
 90
10
 70
0
 10
-38.2651693618
 20
-41.2948547763
 10
-38.3140378318
 20
-41.2783392603
 10
-38.3624942107
 20
-41.2617141362
 10
-38.4105384986
 20
-41.2449794038
 10
-38.4581541071
 20
-41.2281349198
 10
-38.5053576246
 20
-41.2111808275
 10
-38.5521988159
 20
-41.1941175579
 10
-38.5986942694
 20
-41.1769452545
 10
-38.6448273968
 20
-41.1596637737
 10
-38.690598198
 20
-41.1422731156
  0
LINE
  5
26B
100
AcDbEntity
  8
RACCORDO
100
AcDbLine
 62
250
  6
CONTINUOUS
 10
-38.2958600653
 20
-40.2906832367
 11
-38.3675452273
 21
-40.2663354897
  0
LINE
  5
26C
100
AcDbEntity
  8
RACCORDO
100
AcDbLine
 62
250
  6
CONTINUOUS
 10
-37.6830949173
 20
-40.4970129712
 11
-37.7391118671
 21
-40.4778450614
  0
LINE
  5
26D
100
AcDbEntity
  8
RACCORDO
100
AcDbLine
 62
250
  6
CONTINUOUS
 10
-37.7391118671
 20
-40.4778450614
 11
-37.7888467806
 21
-40.4605213612
  0
LINE
  5
26E
100
AcDbEntity
  8
RACCORDO
100
AcDbLine
 62
250
  6
CONTINUOUS
 10
-37.7888467806
 20
-40.4605213612
 11
-37.8852693058
 21
-40.4262814397
  0
LWPOLYLINE
  5
26F
100
AcDbEntity
  8
RACCORDO
100
AcDbPolyline
 62
250
  6
CONTINUOUS
 90
11
 70
0
 10
-37.8852693058
 20
-40.4262814397
 10
-37.8997725825
 20
-40.421032623
 10
-37.9127447337
 20
-40.4162528466
 10
-37.9241824295
 20
-40.4119778278
 10
-37.9341481479
 20
-40.4081603462
 10
-37.9426652036
 20
-40.4048103347
 10
-37.9497333992
 20
-40.4019677141
 10
-37.9553864334
 20
-40.3996362241
 10
-37.9596442957
 20
-40.3978317225
 10
-37.9625122927
 20
-40.3965810477
 10
-37.9640029662
 20
-40.3959032992
  0
LWPOLYLINE
  5
270
100
AcDbEntity
  8
RACCORDO
100
AcDbPolyline
 62
250
  6
CONTINUOUS
 90
16
 70
0
 10
-39.3724240859
 20
-35.5
 10
-39.3694150161
 20
-35.5078335303
 10
-39.3620276991
 20
-35.5155980406
 10
-39.3503272237
 20
-35.523225119
 10
-39.3344166811
 20
-35.5306475642
 10
-39.314436257
 20
-35.5377999782
 10
-39.290561996
 20
-35.544619342
 10
-39.2630042511
 20
-35.5510455711
 10
-39.2320058297
 20
-35.557022045
 10
-39.1978398546
 20
-35.5624961058
 10
-39.1608073574
 20
-35.5674195223
 10
-39.1212346264
 20
-35.5717489149
 10
-39.0794703313
 20
-35.575446138
 10
-39.0358824516
 20
-35.5784786159
 10
-38.990855034
 20
-35.5808196298
 10
-38.9447848088
 20
-35.5824485534
  0
LWPOLYLINE
  5
271
100
AcDbEntity
  8
DRAFT
100
AcDbPolyline
 62
7
  6
CONTINUOUS
 90
17
 70
0
 10
-28.06301009
 20
38.2978072556
 10
-28.068203503
 20
38.2893336378
 10
-28.0732331711
 20
38.2745161024
 10
-28.0780990941
 20
38.253410293
 10
-28.082819184
 20
38.2260967691
 10
-28.0873755289
 20
38.1926813677
 10
-28.0917143937
 20
38.1532953112
 10
-28.0958331348
 20
38.1080921186
 10
-28.0997343958
 20
38.0572506003
 10
-28.1033723728
 20
38.0009768714
 10
-28.1067437313
 20
37.9394965344
 10
-28.1098518058
 20
37.8730531744
 10
-28.1126607957
 20
37.8019129483
 10
-28.1151671203
 20
37.7263585173
 10
-28.1173743602
 20
37.6466927606
 10
-28.1192574579
 20
37.5632397536
 10
-28.1220434211
 20
37.3863279669
  0
LINE
  5
272
100
AcDbEntity
  8
DRAFT
100
AcDbLine
 62
7
  6
CONTINUOUS
 10
-28.06301009
 20
38.2978072556
 11
-27.7806488949
 21
38.5841284665
  0
LWPOLYLINE
  5
273
100
AcDbEntity
  8
0
100
AcDbPolyline
 62
7
  6
CONTINUOUS
 90
10
 70
0
 43
0.3500000006
 10
-3.9642856293
 20
62.03514505
 10
-3.1071428747
 20
62.8922920532
 10
-2.8928572569
 20
63.7494390564
 10
-2.8928572569
 20
64.6065769958
 10
-3.3214284925
 20
65.0351459656
 10
-3.9642856293
 20
65.0351459656
 10
-4.3928571482
 20
64.6065769958
 10
-4.3928571482
 20
63.7494390564
 10
-3.9642856293
 20
63.3208610229
 10
-3.035714241
 20
63.3208610229
  0
LWPOLYLINE
  5
274
100
AcDbEntity
  8
0
100
AcDbPolyline
 62
7
  6
CONTINUOUS
 90
10
 70
0
 43
0.3500000006
 10
-1.6071428418
 20
62.03514505
 10
-0.7500000165
 20
62.8922920532
 10
-0.5357142924
 20
63.7494390564
 10
-0.5357142924
 20
64.6065769958
 10
-0.9642857051
 20
65.0351459656
 10
-1.6071428418
 20
65.0351459656
 10
-2.0357142191
 20
64.6065769958
 10
-2.0357142191
 20
63.7494390564
 10
-1.6071428418
 20
63.3208610229
 10
-0.6785714536
 20
63.3208610229
  0
LINE
  5
275
100
AcDbEntity
  8
RACCORDO
100
AcDbLine
 62
250
  6
CONTINUOUS
 10
-27.8905720095
 20
40.9478079379
 11
-28.2267170964
 21
40.8352665968
  0
LWPOLYLINE
  5
276
100
AcDbEntity
  8
RACCORDO
100
AcDbPolyline
 62
250
  6
CONTINUOUS
 90
16
 70
0
 10
-36.5205683933
 20
-40.8086513692
 10
-36.5946260639
 20
-40.79416579
 10
-36.6662100342
 20
-40.779360372
 10
-36.7353303643
 20
-40.7643522235
 10
-36.8019168961
 20
-40.7493001119
 10
-36.8660636521
 20
-40.7342657405
 10
-36.9280234108
 20
-40.7192011556
 10
-36.987830832
 20
-40.7041813299
 10
-37.0454663885
 20
-40.6892965082
 10
-37.1010937796
 20
-40.6744980819
 10
-37.1547422232
 20
-40.6598344651
 10
-37.2063901703
 20
-40.645388664
 10
-37.2561201898
 20
-40.631150865
 10
-37.3039359851
 20
-40.6171758049
 10
-37.3498373521
 20
-40.6035182804
 10
-37.3938981699
 20
-40.5901606801
  0
LWPOLYLINE
  5
277
100
AcDbEntity
  8
RACCORDO
100
AcDbPolyline
 62
250
  6
CONTINUOUS
 90
22
 70
0
 10
-40.2637526197
 20
-36.8492713473
 10
-40.2579673784
 20
-37.0527300267
 10
-40.2448763716
 20
-37.2525561937
 10
-40.2244775435
 20
-37.4487477972
 10
-40.1967446262
 20
-37.6406023808
 10
-40.1616998501
 20
-37.8288183716
 10
-40.119412878
 20
-38.0154940158
 10
-40.0697625444
 20
-38.2017546373
 10
-40.0128630956
 20
-38.3864680073
 10
-39.9491371625
 20
-38.568345894
 10
-39.8789572623
 20
-38.7466270719
 10
-39.8019463924
 20
-38.9220682905
 10
-39.7174028014
 20
-39.0956581781
 10
-39.6253570021
 20
-39.2678024728
 10
-39.5257712846
 20
-39.4380882546
 10
-39.4178402115
 20
-39.6062748154
 10
-39.3010510306
 20
-39.7730483202
 10
-39.1759081241
 20
-39.9377142514
 10
-39.043133347
 20
-40.0979624656
 10
-38.9029668935
 20
-40.2530224915
 10
-38.7551650868
 20
-40.403661325
 10
-38.5997259921
 20
-40.5498770354
  0
LWPOLYLINE
  5
278
100
AcDbEntity
  8
RACCORDO
100
AcDbPolyline
 62
250
  6
CONTINUOUS
 90
22
 70
0
 10
-39.920420586
 20
-36.8
 10
-39.915954185
 20
-36.9903615043
 10
-39.9039637514
 20
-37.1778152532
 10
-39.8847777691
 20
-37.3620804384
 10
-39.8588789026
 20
-37.5419939553
 10
-39.8265255264
 20
-37.7182448035
 10
-39.7874024389
 20
-37.8933085256
 10
-39.7412497328
 20
-38.0679593564
 10
-39.6883294039
 20
-38.2408758262
 10
-39.6288642257
 20
-38.4113489732
 10
-39.563280594
 20
-38.5783951656
 10
-39.4914555571
 20
-38.7425435302
 10
-39.4126493527
 20
-38.9052895783
 10
-39.3266654172
 20
-39.0665581467
 10
-39.2335849503
 20
-39.2257497858
 10
-39.1327936676
 20
-39.3834060004
 10
-39.0237390964
 20
-39.5396994464
 10
-38.9067172866
 20
-39.6935450358
 10
-38.7824241978
 20
-39.8435952521
 10
-38.6511924275
 20
-39.9891834537
 10
-38.512864233
 20
-40.1302267847
 10
-38.3675452273
 20
-40.2663354897
  0
LINE
  5
279
100
AcDbEntity
  8
RACCORDO
100
AcDbLine
 62
250
  6
CONTINUOUS
 10
-40.2914654159
 20
-30.6397479961
 11
-40.2637526197
 21
-36.8492713473
  0
LINE
  5
27A
100
AcDbEntity
  8
RACCORDO
100
AcDbLine
 62
250
  6
CONTINUOUS
 10
-39.9304637958
 20
-33.085312795
 11
-39.920420586
 21
-36.8
  0
LINE
  5
27B
100
AcDbEntity
  8
RACCORDO
100
AcDbLine
 62
250
  6
CONTINUOUS
 10
-40.3166662069
 20
-16.2050743215
 11
-40.2914654159
 21
-30.6397479961
  0
LINE
  5
27C
100
AcDbEntity
  8
RACCORDO
100
AcDbLine
 62
250
  6
CONTINUOUS
 10
-39.9551408114
 20
-7.1154927687
 11
-39.9304637958
 21
-33.085312795
  0
LINE
  5
27D
100
AcDbEntity
  8
RACCORDO
100
AcDbLine
 62
250
  6
CONTINUOUS
 10
-39.7551451296
 20
30.8051755906
 11
-39.7551451296
 21
-36.8
  0
LINE
  5
27E
100
AcDbEntity
  8
DRAFT
100
AcDbLine
 62
7
  6
CONTINUOUS
 10
-39.5431574806
 20
-35.5
 11
-39.5431574806
 21
25.6240705472
  0
LINE
  5
27F
100
AcDbEntity
  8
RACCORDO
100
AcDbLine
 62
250
  6
CONTINUOUS
 10
-39.4551908211
 20
30.7051908211
 11
-39.4551908211
 21
27.9666244397
  0
LINE
  5
280
100
AcDbEntity
  8
RACCORDO
100
AcDbLine
 62
250
  6
CONTINUOUS
 10
-39.4551908211
 20
-36.5054992138
 11
-39.4551908211
 21
-36.8
  0
LINE
  5
281
100
AcDbEntity
  8
RACCORDO
100
AcDbLine
 62
250
  6
CONTINUOUS
 10
-39.340175228
 20
8.7514385055
 11
-39.3593819198
 21
30.5180173846
  0
LINE
  5
282
100
AcDbEntity
  8
RACCORDO
100
AcDbLine
 62
250
  6
CONTINUOUS
 10
-39.3519931743
 20
-26.788219557
 11
-39.340175228
 21
8.7514385055
  0
LINE
  5
283
100
AcDbEntity
  8
RACCORDO
100
AcDbLine
 62
250
  6
CONTINUOUS
 10
-39.9353569359
 20
30.9853873969
 11
-39.9551408114
 21
-7.1154927687
  0
LINE
  5
284
100
AcDbEntity
  8
RACCORDO
100
AcDbLine
 62
250
  6
CONTINUOUS
 10
-40.3022765532
 20
27.2350617006
 11
-40.3166662069
 21
-16.2050743215
  0
LINE
  5
285
100
AcDbEntity
  8
RACCORDO
100
AcDbLine
 62
250
  6
CONTINUOUS
 10
-39.3724240859
 20
-35.5
 11
-39.3519931743
 21
-26.788219557
  0
LINE
  5
286
100
AcDbEntity
  8
RACCORDO
100
AcDbLine
 62
250
  6
CONTINUOUS
 10
-40.2900598515
 20
31.0222571226
 11
-40.3022765532
 21
27.2350617006
  0
LINE
  5
287
100
AcDbEntity
  8
RACCORDO
100
AcDbLine
 62
7
  6
CONTINUOUS
 10
-39.3593819198
 20
30.5180173846
 11
-39.5431574806
 21
25.6240705472
  0
LWPOLYLINE
  5
288
100
AcDbEntity
  8
RACCORDO
100
AcDbPolyline
 62
250
  6
CONTINUOUS
 90
16
 70
0
 10
-39.7551451296
 20
30.8051755906
 10
-39.7540437822
 20
30.8260736516
 10
-39.7507645084
 20
30.8467429151
 10
-39.7453431997
 20
30.8669570161
 10
-39.7378392082
 20
30.8864945681
 10
-39.7283346947
 20
30.9051415955
 10
-39.7169337267
 20
30.9226938763
 10
-39.7037611332
 20
30.9389591806
 10
-39.6889611708
 20
30.9537593383
 10
-39.6726959535
 20
30.9669322106
 10
-39.6551436203
 20
30.9783335161
 10
-39.6364963968
 20
30.987838383
 10
-39.6169585341
 20
30.9953426961
 10
-39.5967440239
 20
31.0007642648
 10
-39.5760742499
 20
31.004043715
 10
-39.5551755906
 20
31.0051451297
  0
LWPOLYLINE
  5
289
100
AcDbEntity
  8
RACCORDO
100
AcDbPolyline
 62
7
  6
CONTINUOUS
 90
19
 70
0
 10
-39.3593811293
 20
30.5180384356
 10
-39.3571113404
 20
30.5353186908
 10
-39.351918972
 20
30.5520177641
 10
-39.3438039518
 20
30.5681358031
 10
-39.3326267437
 20
30.5837817464
 10
-39.3185266098
 20
30.5988472131
 10
-39.3019216414
 20
30.6130064395
 10
-39.282833544
 20
30.6261908751
 10
-39.2612401869
 20
30.6384699411
 10
-39.237493927
 20
30.649724792
 10
-39.2115805043
 20
30.6599603761
 10
-39.1835136693
 20
30.6691727971
 10
-39.1536878507
 20
30.6772298298
 10
-39.1219485282
 20
30.6841273124
 10
-39.0884496944
 20
30.6898705088
 10
-39.0540487142
 20
30.694340991
 10
-39.019031339
 20
30.6974993668
 10
-38.9831115555
 20
30.699385592
 10
-38.9462892121
 20
30.6999999932
  0
LWPOLYLINE
  5
28A
100
AcDbEntity
  8
RACCORDO
100
AcDbPolyline
 62
250
  6
CONTINUOUS
 90
11
 70
0
 10
-28.5262719942
 20
41.1307037853
 10
-28.5272414917
 20
41.1286429774
 10
-28.528178914
 20
41.1237989045
 10
-28.5290824177
 20
41.1162235264
 10
-28.5299545277
 20
41.1059510305
 10
-28.5307891454
 20
41.0930798817
 10
-28.5315717617
 20
41.077844635
 10
-28.5322999524
 20
41.0603786465
 10
-28.5329735706
 20
41.0408808427
 10
-28.5335824413
 20
41.0198504513
 10
-28.5345898324
 20
40.9749108421
  0
LWPOLYLINE
  5
28B
100
AcDbEntity
  8
RACCORDO
100
AcDbPolyline
 62
250
  6
CONTINUOUS
 90
20
 70
0
 10
-27.5501396154
 20
32.7366783104
 10
-27.5702966992
 20
32.7214429458
 10
-27.5946315814
 20
32.7007347976
 10
-27.6174555795
 20
32.6789421642
 10
-27.6382477736
 20
32.6567163824
 10
-27.6569490951
 20
32.6344341659
 10
-27.6738009387
 20
32.6121177167
 10
-27.6888488198
 20
32.5899520492
 10
-27.7021411914
 20
32.568189255
 10
-27.7138658876
 20
32.5468659303
 10
-27.7242494538
 20
32.5258029838
 10
-27.7333729934
 20
32.5050770495
 10
-27.7413182066
 20
32.4847764779
 10
-27.748239192
 20
32.4646955499
 10
-27.7541924511
 20
32.444857182
 10
-27.7592215622
 20
32.4253387445
 10
-27.7634047031
 20
32.4059939805
 10
-27.7667788451
 20
32.3867960186
 10
-27.7693652418
 20
32.36784175
 10
-27.7711969581
 20
32.349162563
  0
LWPOLYLINE
  5
28C
100
AcDbEntity
  8
RACCORDO
100
AcDbPolyline
 62
250
  6
CONTINUOUS
 90
5
 70
0
 10
-27.5913059742
 20
33.2418066558
 10
-27.6355198836
 20
33.2202007823
 10
-27.6785307561
 20
33.1958628311
 10
-27.7206122028
 20
33.1688546145
 10
-27.7617642237
 20
33.1392164935
  0
LWPOLYLINE
  5
28D
100
AcDbEntity
  8
RACCORDO
100
AcDbPolyline
 62
250
  6
CONTINUOUS
 90
4
 70
0
 10
-27.6277291869
 20
30.7409775185
 10
-27.5931633281
 20
30.7563385373
 10
-27.5597165891
 20
30.7744130812
 10
-27.5501380597
 20
30.7805579132
  0
LINE
  5
28E
100
AcDbEntity
  8
RACCORDO
100
AcDbLine
 62
250
  6
CONTINUOUS
 10
-27.5532487152
 20
33.2577132452
 11
-27.5913059742
 21
33.2418066558
  0
LINE
  5
28F
100
AcDbEntity
  8
RACCORDO
100
AcDbLine
 62
250
  6
CONTINUOUS
 10
-21.5875768761
 20
-40.6205711903
 11
-21.633797234
 21
-40.6236889503
  0
LINE
  5
290
100
AcDbEntity
  8
RACCORDO
100
AcDbLine
 62
250
  6
CONTINUOUS
 10
-21.5394732417
 20
-40.617603793
 11
-21.5875768761
 21
-40.6205711903
  0
LINE
  5
291
100
AcDbEntity
  8
RACCORDO
100
AcDbLine
 62
250
  6
CONTINUOUS
 10
-21.4891863635
 20
-40.6147815734
 11
-21.5394732417
 21
-40.617603793
  0
LINE
  5
292
100
AcDbEntity
  8
RACCORDO
100
AcDbLine
 62
250
  6
CONTINUOUS
 10
-21.4365106933
 20
-40.6121335132
 11
-21.4891863635
 21
-40.6147815734
  0
LINE
  5
293
100
AcDbEntity
  8
RACCORDO
100
AcDbLine
 62
250
  6
CONTINUOUS
 10
-21.3813481488
 20
-40.609701492
 11
-21.4365106933
 21
-40.6121335132
  0
LINE
  5
294
100
AcDbEntity
  8
RACCORDO
100
AcDbLine
 62
250
  6
CONTINUOUS
 10
-21.3228818139
 20
-40.607479044
 11
-21.3813481488
 21
-40.609701492
  0
LINE
  5
295
100
AcDbEntity
  8
RACCORDO
100
AcDbLine
 62
250
  6
CONTINUOUS
 10
-21.2589897838
 20
-40.605421397
 11
-21.3228818139
 21
-40.607479044
  0
LINE
  5
296
100
AcDbEntity
  8
RACCORDO
100
AcDbLine
 62
250
  6
CONTINUOUS
 10
-21.088146442
 20
-41.0875921416
 11
-21.7137541479
 21
-41.1074549324
  0
LINE
  5
297
100
AcDbEntity
  8
RACCORDO
100
AcDbLine
 62
7
  6
CONTINUOUS
 10
-20.9330126969
 20
-41.0985828049
 11
-20.6241940569
 21
-41.0892892369
  0
LINE
  5
298
100
AcDbEntity
  8
RACCORDO
100
AcDbLine
 62
250
  6
CONTINUOUS
 10
38.2031212913
 20
-41.2986322733
 11
38.1647244996
 21
-41.2997419835
  0
LINE
  5
299
100
AcDbEntity
  8
RACCORDO
100
AcDbLine
 62
250
  6
CONTINUOUS
 10
-21.7137541479
 20
-41.1074549324
 11
-21.8895669426
 21
-41.1122022417
  0
LINE
  5
29A
100
AcDbEntity
  8
RACCORDO
100
AcDbLine
 62
250
  6
CONTINUOUS
 10
-20.9472040468
 20
-41.083838804
 11
-21.088146442
 21
-41.0875921416
  0
LINE
  5
29B
100
AcDbEntity
  8
RACCORDO
100
AcDbLine
 62
250
  6
CONTINUOUS
 10
-21.1861097614
 20
-40.6036306009
 11
-21.2589897838
 21
-40.605421397
  0
LINE
  5
29C
100
AcDbEntity
  8
RACCORDO
100
AcDbLine
 62
250
  6
CONTINUOUS
 10
38.1647244996
 20
-41.2997419835
 11
38.1163961042
 21
-41.3008221733
  0
LINE
  5
29D
100
AcDbEntity
  8
RACCORDO
100
AcDbLine
 62
250
  6
CONTINUOUS
 10
-21.8895669426
 20
-41.1122022417
 11
-22.0593793794
 21
-41.1160518638
  0
LINE
  5
29E
100
AcDbEntity
  8
RACCORDO
100
AcDbLine
 62
7
  6
CONTINUOUS
 10
-20.6241940569
 20
-41.0892892369
 11
-20.5819194099
 21
-41.0883419392
  0
LINE
  5
29F
100
AcDbEntity
  8
RACCORDO
100
AcDbLine
 62
250
  6
CONTINUOUS
 10
-20.8146756775
 20
-41.0809370843
 11
-20.9472040468
 21
-41.083838804
  0
LINE
  5
2A0
100
AcDbEntity
  8
RACCORDO
100
AcDbLine
 62
250
  6
CONTINUOUS
 10
-21.1034103468
 20
-40.6020686632
 11
-21.1861097614
 21
-40.6036306009
  0
LINE
  5
2A1
100
AcDbEntity
  8
RACCORDO
100
AcDbLine
 62
250
  6
CONTINUOUS
 10
-22.0593793794
 20
-41.1160518638
 11
-22.2684389168
 21
-41.1198252842
  0
LINE
  5
2A2
100
AcDbEntity
  8
RACCORDO
100
AcDbLine
 62
7
  6
CONTINUOUS
 10
-20.5819194099
 20
-41.0883419392
 11
-20.5322124005
 21
-41.08750028
  0
LINE
  5
2A3
100
AcDbEntity
  8
RACCORDO
100
AcDbLine
 62
250
  6
CONTINUOUS
 10
38.1163961042
 20
-41.3008221733
 11
38.0257089326
 21
-41.3023598788
  0
LINE
  5
2A4
100
AcDbEntity
  8
RACCORDO
100
AcDbLine
 62
250
  6
CONTINUOUS
 10
-20.6929861382
 20
-41.0788633633
 11
-20.8146756775
 21
-41.0809370843
  0
LINE
  5
2A5
100
AcDbEntity
  8
RACCORDO
100
AcDbLine
 62
250
  6
CONTINUOUS
 10
-22.2684389168
 20
-41.1198252842
 11
-22.5034109391
 21
-41.1229491342
  0
LINE
  5
2A6
100
AcDbEntity
  8
RACCORDO
100
AcDbLine
 62
250
  6
CONTINUOUS
 10
-21.013082312
 20
-40.6009862024
 11
-21.1034103468
 21
-40.6020686632
  0
LINE
  5
2A7
100
AcDbEntity
  8
RACCORDO
100
AcDbLine
 62
250
  6
CONTINUOUS
 10
38.0257089326
 20
-41.3023598788
 11
37.8722391331
 21
-41.3042042747
  0
LINE
  5
2A8
100
AcDbEntity
  8
RACCORDO
100
AcDbLine
 62
250
  6
CONTINUOUS
 10
-20.576926634
 20
-41.0774447444
 11
-20.6929861382
 21
-41.0788633633
  0
LINE
  5
2A9
100
AcDbEntity
  8
RACCORDO
100
AcDbLine
 62
7
  6
CONTINUOUS
 10
-20.5322124005
 20
-41.08750028
 11
-20.4466425884
 21
-41.0864835062
  0
LINE
  5
2AA
100
AcDbEntity
  8
RACCORDO
100
AcDbLine
 62
250
  6
CONTINUOUS
 10
-22.5034109391
 20
-41.1229491342
 11
-22.849620882
 21
-41.1257870954
  0
LINE
  5
2AB
100
AcDbEntity
  8
RACCORDO
100
AcDbLine
 62
250
  6
CONTINUOUS
 10
37.8722391331
 20
-41.3042042747
 11
37.5218487932
 21
-41.3066957157
  0
LINE
  5
2AC
100
AcDbEntity
  8
RACCORDO
100
AcDbLine
 62
250
  6
CONTINUOUS
 10
-20.4497695098
 20
-41.0765231288
 11
-20.576926634
 21
-41.0774447444
  0
LINE
  5
2AD
100
AcDbEntity
  8
RACCORDO
100
AcDbLine
 62
250
  6
CONTINUOUS
 10
-20.9184431769
 20
-40.6003456989
 11
-21.013082312
 21
-40.6009862024
  0
LINE
  5
2AE
100
AcDbEntity
  8
RACCORDO
100
AcDbLine
 62
7
  6
CONTINUOUS
 10
-20.4466425884
 20
-41.0864835062
 11
-20.3172065282
 21
-41.0856450152
  0
LINE
  5
2AF
100
AcDbEntity
  8
RACCORDO
100
AcDbLine
 62
250
  6
CONTINUOUS
 10
31.6761538533
 20
-40.7540667455
 11
24.6165638346
 21
-40.7768332097
  0
LINE
  5
2B0
100
AcDbEntity
  8
RACCORDO
100
AcDbLine
 62
250
  6
CONTINUOUS
 10
-38.690598198
 20
-41.1422731156
 11
-43.6036414542
 21
-41.1527276252
  0
LINE
  5
2B1
100
AcDbEntity
  8
RACCORDO
100
AcDbLine
 62
250
  6
CONTINUOUS
 10
24.6165638346
 20
-40.7768332097
 11
23.299952152
 21
-40.7794887529
  0
LINE
  5
2B2
100
AcDbEntity
  8
RACCORDO
100
AcDbLine
 62
250
  6
CONTINUOUS
 10
43.6692037148
 20
-40.7330261611
 11
38.5361901314
 21
-40.7437299022
  0
LINE
  5
2B3
100
AcDbEntity
  8
RACCORDO
100
AcDbLine
 62
250
  6
CONTINUOUS
 10
33.7840046363
 20
-40.7498017391
 11
31.6761538533
 21
-40.7540667455
  0
LINE
  5
2B4
100
AcDbEntity
  8
RACCORDO
100
AcDbLine
 62
250
  6
CONTINUOUS
 10
-22.849620882
 20
-41.1257870954
 11
-23.2098447203
 21
-41.126963987
  0
LINE
  5
2B5
100
AcDbEntity
  8
RACCORDO
100
AcDbLine
 62
250
  6
CONTINUOUS
 10
37.5218487932
 20
-41.3066957157
 11
36.8476483256
 21
-41.3084390875
  0
LINE
  5
2B6
100
AcDbEntity
  8
RACCORDO
100
AcDbLine
 62
7
  6
CONTINUOUS
 10
43.8608807381
 20
-41.409966909
 11
-43.8608807381
 21
-41.409966909
  0
LINE
  5
2B7
100
AcDbEntity
  8
0
100
AcDbLine
 62
7
  6
CONTINUOUS
 10
-33.75
 20
-41.2931574806
 11
-21.0
 21
-41.2931575262
  0
LINE
  5
2B8
100
AcDbEntity
  8
DRAFT
100
AcDbLine
 62
7
  6
CONTINUOUS
 10
-18.6465188536
 20
-41.2931574806
 11
-17.4534811464
 21
-41.2931574806
  0
LINE
  5
2B9
100
AcDbEntity
  8
DRAFT
100
AcDbLine
 62
7
  6
CONTINUOUS
 10
18.6465188536
 20
-41.2931574806
 11
17.4534811464
 21
-41.2931574806
  0
LINE
  5
2BA
100
AcDbEntity
  8
0
100
AcDbLine
 62
7
  6
CONTINUOUS
 10
21.0
 20
-41.2931575262
 11
33.75
 21
-41.2931574806
  0
LINE
  5
2BB
100
AcDbEntity
  8
RACCORDO
100
AcDbLine
 62
7
  6
CONTINUOUS
 10
-16.9507692721
 20
-41.1334315381
 11
16.9507692721
 21
-41.1334315381
  0
LINE
  5
2BC
100
AcDbEntity
  8
RACCORDO
100
AcDbLine
 62
250
  6
CONTINUOUS
 10
-23.2098447203
 20
-41.126963987
 11
-33.75
 21
-41.1310794779
  0
LINE
  5
2BD
100
AcDbEntity
  8
RACCORDO
100
AcDbLine
 62
7
  6
CONTINUOUS
 10
-17.6498244892
 20
-41.1125032806
 11
17.6498244892
 21
-41.1125032806
  0
LINE
  5
2BE
100
AcDbEntity
  8
RACCORDO
100
AcDbLine
 62
250
  6
CONTINUOUS
 10
-36.5205683967
 20
-40.8086513684
 11
-36.0658412033
 21
-40.8086513684
  0
LINE
  5
2BF
100
AcDbEntity
  8
RACCORDO
100
AcDbLine
 62
250
  6
CONTINUOUS
 10
36.0658412033
 20
-40.8086513684
 11
36.5205683992
 21
-40.8086513684
  0
LINE
  5
2C0
100
AcDbEntity
  8
RACCORDO
100
AcDbLine
 62
250
  6
CONTINUOUS
 10
33.75
 20
-41.1310794779
 11
23.2071417262
 21
-41.1269535374
  0
LINE
  5
2C1
100
AcDbEntity
  8
RACCORDO
100
AcDbLine
 62
250
  6
CONTINUOUS
 10
-20.4509240784
 20
-40.6004912529
 11
-20.9184431769
 21
-40.6003456989
  0
LINE
  5
2C2
100
AcDbEntity
  8
RACCORDO
100
AcDbLine
 62
250
  6
CONTINUOUS
 10
-38.5361903385
 20
-40.7437302554
 11
-43.6692037148
 21
-40.7330261611
  0
LINE
  5
2C3
100
AcDbEntity
  8
RACCORDO
100
AcDbLine
 62
250
  6
CONTINUOUS
 10
43.6036414542
 20
-41.1527276252
 11
38.6905981782
 21
-41.1422730757
  0
LWPOLYLINE
  5
2C4
100
AcDbEntity
  8
RACCORDO
100
AcDbPolyline
 62
250
  6
CONTINUOUS
 90
13
 70
0
 10
23.2999517328
 20
-40.7795103712
 10
23.2364280726
 20
-40.7793611795
 10
23.1741688138
 20
-40.7785155693
 10
23.1131868022
 20
-40.7769788147
 10
23.0538711548
 20
-40.7747887869
 10
22.9958244207
 20
-40.7719011348
 10
22.9379493848
 20
-40.768239011
 10
22.8803529021
 20
-40.7638623513
 10
22.8230570426
 20
-40.7587887062
 10
22.7649931711
 20
-40.7529688186
 10
22.7061215473
 20
-40.7464637886
 10
22.6467494636
 20
-40.7393796973
 10
22.5864470203
 20
-40.7318069553
  0
LINE
  5
2C5
100
AcDbEntity
  8
RACCORDO
100
AcDbLine
 62
250
  6
CONTINUOUS
 10
-23.2383525162
 20
-40.7794905346
 11
-25.8915910169
 21
-40.7737519856
  0
LINE
  5
2C6
100
AcDbEntity
  8
RACCORDO
100
AcDbLine
 62
250
  6
CONTINUOUS
 10
36.8476483256
 20
-41.3084390875
 11
-37.3484887471
 21
-41.3074209679
  0
LINE
  5
2C7
100
AcDbEntity
  8
RACCORDO
100
AcDbLine
 62
7
  6
CONTINUOUS
 10
-20.3172065282
 20
-41.0856450152
 11
20.3172058493
 21
-41.0856450126
  0
LINE
  5
2C8
100
AcDbEntity
  8
RACCORDO
100
AcDbLine
 62
250
  6
CONTINUOUS
 10
20.9217242199
 20
-40.6003561566
 11
-20.4509240784
 21
-40.6004912529
  0
LINE
  5
2C9
100
AcDbEntity
  8
RACCORDO
100
AcDbLine
 62
250
  6
CONTINUOUS
 10
20.4270767545
 20
-41.0764224109
 11
-20.4497695098
 21
-41.0765231288
  0
LINE
  5
2CA
100
AcDbEntity
  8
RACCORDO
100
AcDbLine
 62
250
  6
CONTINUOUS
 10
-25.8915910169
 20
-40.7737519856
 11
-28.1169819606
 21
-40.7659375696
  0
LINE
  5
2CB
100
AcDbEntity
  8
RACCORDO
100
AcDbLine
 62
250
  6
CONTINUOUS
 10
-28.1169819606
 20
-40.7659375696
 11
-33.7840046363
 21
-40.7498017391
  0
LINE
  5
2CC
100
AcDbEntity
  8
RACCORDO
100
AcDbLine
 62
250
  6
CONTINUOUS
 10
23.2071417262
 20
-41.1269535374
 11
22.8512778625
 21
-41.1258013494
  0
LINE
  5
2CD
100
AcDbEntity
  8
RACCORDO
100
AcDbLine
 62
250
  6
CONTINUOUS
 10
-37.3484887471
 20
-41.3074209679
 11
-37.7604099483
 21
-41.305196131
  0
LINE
  5
2CE
100
AcDbEntity
  8
RACCORDO
100
AcDbLine
 62
250
  6
CONTINUOUS
 10
20.5517911296
 20
-41.0772103211
 11
20.4270767545
 21
-41.0764224109
  0
LINE
  5
2CF
100
AcDbEntity
  8
RACCORDO
100
AcDbLine
 62
250
  6
CONTINUOUS
 10
21.0160486221
 20
-40.6010001442
 11
20.9217242199
 21
-40.6003561566
  0
LINE
  5
2D0
100
AcDbEntity
  8
RACCORDO
100
AcDbLine
 62
7
  6
CONTINUOUS
 10
20.3172058493
 20
-41.0856450126
 11
20.4466437007
 21
-41.0864835164
  0
LINE
  5
2D1
100
AcDbEntity
  8
RACCORDO
100
AcDbLine
 62
250
  6
CONTINUOUS
 10
22.8512778625
 20
-41.1258013494
 11
22.5095314132
 21
-41.12301645
  0
LINE
  5
2D2
100
AcDbEntity
  8
RACCORDO
100
AcDbLine
 62
250
  6
CONTINUOUS
 10
-37.7604099483
 20
-41.305196131
 11
-37.9593350564
 21
-41.3032443842
  0
LINE
  5
2D3
100
AcDbEntity
  8
RACCORDO
100
AcDbLine
 62
250
  6
CONTINUOUS
 10
20.6648293547
 20
-41.0784661527
 11
20.5517911296
 21
-41.0772103211
  0
LINE
  5
2D4
100
AcDbEntity
  8
RACCORDO
100
AcDbLine
 62
7
  6
CONTINUOUS
 10
20.4466437007
 20
-41.0864835164
 11
20.5322129
 21
-41.0875002859
  0
LINE
  5
2D5
100
AcDbEntity
  8
RACCORDO
100
AcDbLine
 62
250
  6
CONTINUOUS
 10
21.1072961859
 20
-40.6021288601
 11
21.0160486221
 21
-40.6010001442
  0
LINE
  5
2D6
100
AcDbEntity
  8
RACCORDO
100
AcDbLine
 62
250
  6
CONTINUOUS
 10
22.5095314132
 20
-41.12301645
 11
22.2596182506
 21
-41.1196861422
  0
LINE
  5
2D7
100
AcDbEntity
  8
RACCORDO
100
AcDbLine
 62
250
  6
CONTINUOUS
 10
-37.9593350564
 20
-41.3032443842
 11
-38.0846560105
 21
-41.3014166604
  0
LINE
  5
2D8
100
AcDbEntity
  8
RACCORDO
100
AcDbLine
 62
250
  6
CONTINUOUS
 10
20.7891254584
 20
-41.0804508903
 11
20.6648293547
 21
-41.0784661527
  0
LINE
  5
2D9
100
AcDbEntity
  8
RACCORDO
100
AcDbLine
 62
7
  6
CONTINUOUS
 10
20.5322129
 20
-41.0875002859
 11
20.5819190273
 21
-41.0883419318
  0
LWPOLYLINE
  5
2DA
100
AcDbEntity
  8
RACCORDO
100
AcDbPolyline
 62
250
  6
CONTINUOUS
 90
37
 70
0
 10
-43.6036414542
 20
-41.1527276252
 10
-43.8734674022
 20
-41.1472412
 10
-44.1387389519
 20
-41.1300035428
 10
-44.398973873
 20
-41.101577512
 10
-44.6524211588
 20
-41.06276565
 10
-44.9000296975
 20
-41.0140284783
 10
-45.1453373772
 20
-40.9549310493
 10
-45.3891898706
 20
-40.8851840635
 10
-45.6298463191
 20
-40.8051966799
 10
-45.8668737969
 20
-40.7151145064
 10
-46.0998475991
 20
-40.6151000259
 10
-46.3283557224
 20
-40.505330965
 10
-46.5519950674
 20
-40.3860025568
 10
-46.7703157159
 20
-40.2573596998
 10
-46.9829826955
 20
-40.1196040264
 10
-47.1897662897
 20
-39.9728707151
 10
-47.3901991743
 20
-39.8174716951
 10
-47.5839991194
 20
-39.6536041073
 10
-47.7711737882
 20
-39.4811863596
 10
-47.9512744267
 20
-39.3005182936
 10
-48.1239682715
 20
-39.1118129725
 10
-48.2893367963
 20
-38.9147737936
 10
-48.4469334774
 20
-38.7096459751
 10
-48.5963180023
 20
-38.4966954155
 10
-48.7374396569
 20
-38.2755740096
 10
-48.8699372537
 20
-38.0462771534
 10
-48.9931278517
 20
-37.8093654688
 10
-49.1064271341
 20
-37.5653426969
 10
-49.2094726788
 20
-37.3143013976
 10
-49.3016684606
 20
-37.0569254105
 10
-49.3822607135
 20
-36.7947148561
 10
-49.4509354814
 20
-36.5282981275
 10
-49.5074676433
 20
-36.2580894284
 10
-49.5515113535
 20
-35.9853662034
 10
-49.5829281645
 20
-35.7109469908
 10
-49.6016761509
 20
-35.4351668718
 10
-49.6076937033
 20
-35.1586075323
  0
LINE
  5
2DB
100
AcDbEntity
  8
RACCORDO
100
AcDbLine
 62
250
  6
CONTINUOUS
 10
22.2596182506
 20
-41.1196861422
 11
22.0198534465
 21
-41.1152209815
  0
LINE
  5
2DC
100
AcDbEntity
  8
RACCORDO
100
AcDbLine
 62
250
  6
CONTINUOUS
 10
-38.0846560105
 20
-41.3014166604
 11
-38.1350607645
 21
-41.3004346176
  0
LWPOLYLINE
  5
2DD
100
AcDbEntity
  8
RACCORDO
100
AcDbPolyline
 62
250
  6
CONTINUOUS
 90
37
 70
0
 10
-33.75
 20
-41.1310794779
 10
-33.9989805044
 20
-41.1258327719
 10
-34.2451375228
 20
-41.1097569452
 10
-34.4880144158
 20
-41.0831922954
 10
-34.726237863
 20
-41.0466596964
 10
-34.960368942
 20
-41.0004429481
 10
-35.1928246086
 20
-40.9441871204
 10
-35.4242051592
 20
-40.8776085014
 10
-35.6530035099
 20
-40.8009992249
 10
-35.8784199115
 20
-40.7145845873
 10
-36.0999332032
 20
-40.6185538888
 10
-36.3172274106
 20
-40.5130339314
 10
-36.5298389732
 20
-40.3982377047
 10
-36.7373420026
 20
-40.2743881568
 10
-36.9393761222
 20
-40.1416933796
 10
-37.13559079
 20
-40.000373077
 10
-37.3256152009
 20
-39.8506789039
 10
-37.5090873695
 20
-39.6928801247
 10
-37.6856813772
 20
-39.5272400153
 10
-37.8550489903
 20
-39.3540640994
 10
-38.0168719908
 20
-39.1736556573
 10
-38.1708794888
 20
-38.9862878276
 10
-38.3168356592
 20
-38.7921960825
 10
-38.4543679627
 20
-38.5918215473
 10
-38.5830470056
 20
-38.3857822385
 10
-38.7022281073
 20
-38.1752444688
 10
-38.812182082
 20
-37.9598721974
 10
-38.9136422074
 20
-37.737928552
 10
-39.0063984967
 20
-37.5090696249
 10
-39.0896992793
 20
-37.2742498308
 10
-39.1631731808
 20
-37.0335774425
 10
-39.2264549497
 20
-36.7870012518
 10
-39.2789463062
 20
-36.5353739472
 10
-39.3200552358
 20
-36.2802297928
 10
-39.3494711682
 20
-36.0224403174
 10
-39.3670047473
 20
-35.7621802136
 10
-39.3724240859
 20
-35.5
  0
LINE
  5
2DE
100
AcDbEntity
  8
RACCORDO
100
AcDbLine
 62
250
  6
CONTINUOUS
 10
21.195519105
 20
-40.6038216067
 11
21.1072961859
 21
-40.6021288601
  0
LINE
  5
2DF
100
AcDbEntity
  8
RACCORDO
100
AcDbLine
 62
250
  6
CONTINUOUS
 10
20.923152217
 20
-41.083265296
 11
20.7891254584
 21
-41.0804508903
  0
LINE
  5
2E0
100
AcDbEntity
  8
RACCORDO
100
AcDbLine
 62
7
  6
CONTINUOUS
 10
20.5819190273
 20
-41.0883419318
 11
20.6241937446
 21
-41.0892892315
  0
LINE
  5
2E1
100
AcDbEntity
  8
RACCORDO
100
AcDbLine
 62
250
  6
CONTINUOUS
 10
-38.1350607645
 20
-41.3004346176
 11
-38.1770268262
 21
-41.2994176598
  0
LINE
  5
2E2
100
AcDbEntity
  8
RACCORDO
100
AcDbLine
 62
250
  6
CONTINUOUS
 10
22.0198534465
 20
-41.1152209815
 11
21.8015294172
 21
-41.1099174031
  0
LWPOLYLINE
  5
2E3
100
AcDbEntity
  8
RACCORDO
100
AcDbPolyline
 62
250
  6
CONTINUOUS
 90
37
 70
0
 10
-33.7840046363
 20
-40.7498017391
 10
-34.0126130817
 20
-40.7437513929
 10
-34.2378604116
 20
-40.7284430064
 10
-34.4597452305
 20
-40.7038751871
 10
-34.6777874082
 20
-40.6700259739
 10
-34.8924635623
 20
-40.6269138226
 10
-35.1052060244
 20
-40.5745965744
 10
-35.31699285
 20
-40.5129538709
 10
-35.5268382785
 20
-40.4420983816
 10
-35.7332289541
 20
-40.3624375262
 10
-35.9360452258
 20
-40.2739238102
 10
-36.1354010757
 20
-40.1765990712
 10
-36.3301358447
 20
-40.0710069692
 10
-36.5201982232
 20
-39.9571125246
 10
-36.7056353147
 20
-39.8349465198
 10
-36.885436244
 20
-39.7051534173
 10
-37.0595756168
 20
-39.5676931817
 10
-37.2280764763
 20
-39.4226035022
 10
-37.390002882
 20
-39.2706477023
 10
-37.5453195352
 20
-39.111800097
 10
-37.6940615177
 20
-38.9460861549
 10
-37.835400809
 20
-38.7743482742
 10
-37.9693548759
 20
-38.5964558191
 10
-38.0959081311
 20
-38.412541301
 10
-38.2141855963
 20
-38.2238444572
 10
-38.3238818842
 20
-38.0310924036
 10
-38.4253075957
 20
-37.8335632272
 10
-38.5185125235
 20
-37.6303239098
 10
-38.6039105099
 20
-37.4208110472
 10
-38.6810906494
 20
-37.2055909742
 10
-38.7488662198
 20
-36.9854258871
 10
-38.8072535444
 20
-36.7598261911
 10
-38.8562418243
 20
-36.5292869939
 10
-38.8946069866
 20
-36.2960508719
 10
-38.9219450319
 20
-36.0608693671
 10
-38.9386695929
 20
-35.8230005507
 10
-38.9447848088
 20
-35.5824485534
  0
LINE
  5
2E4
100
AcDbEntity
  8
RACCORDO
100
AcDbLine
 62
250
  6
CONTINUOUS
 10
21.0671065661
 20
-41.0869939314
 11
20.923152217
 21
-41.083265296
  0
LWPOLYLINE
  5
2E5
100
AcDbEntity
  8
RACCORDO
100
AcDbPolyline
 62
250
  6
CONTINUOUS
 90
37
 70
0
 10
-43.6692037148
 20
-40.7330261611
 10
-43.9178179159
 20
-40.7259899753
 10
-44.1614875116
 20
-40.7092205325
 10
-44.4002071491
 20
-40.6827124909
 10
-44.6331423959
 20
-40.6463772487
 10
-44.8611166641
 20
-40.6002924105
 10
-45.0866103057
 20
-40.5447008842
 10
-45.3108330217
 20
-40.4795372516
 10
-45.5325613738
 20
-40.4048532225
 10
-45.7506259087
 20
-40.3210673009
 10
-45.9650012464
 20
-40.2281272778
 10
-46.1757010894
 20
-40.126073709
 10
-46.3816167753
 20
-40.015466409
 10
-46.5826810746
 20
-39.8962967412
 10
-46.7789526017
 20
-39.7685647449
 10
-46.969513969
 20
-39.6328457511
 10
-47.1542921759
 20
-39.4891956063
 10
-47.3333551889
 20
-39.3375534404
 10
-47.5059994021
 20
-39.1783218351
 10
-47.67222363
 20
-39.0115666191
 10
-47.8320274114
 20
-38.8372203205
 10
-47.9847102391
 20
-38.6554875778
 10
-48.1303511179
 20
-38.4663776048
 10
-48.2688725627
 20
-38.2698827043
 10
-48.3993414035
 20
-38.0661842164
 10
-48.5219338218
 20
-37.854984495
 10
-48.6364784823
 20
-37.6365860221
 10
-48.7415241954
 20
-37.4120735782
 10
-48.8370601638
 20
-37.181080989
 10
-48.9231074648
 20
-36.9439846873
 10
-48.9982673257
 20
-36.7029879593
 10
-49.0623131713
 20
-36.4581160668
 10
-49.1154874076
 20
-36.2093595456
 10
-49.1570985949
 20
-35.9588734466
 10
-49.1869228204
 20
-35.7073826733
 10
-49.2052019015
 20
-35.4541801894
 10
-49.2119441103
 20
-35.1992742496
  0
LINE
  5
2E6
100
AcDbEntity
  8
RACCORDO
100
AcDbLine
 62
250
  6
CONTINUOUS
 10
21.2814967783
 20
-40.6061142969
 11
21.195519105
 21
-40.6038216067
  0
LINE
  5
2E7
100
AcDbEntity
  8
RACCORDO
100
AcDbLine
 62
7
  6
CONTINUOUS
 10
20.6241937446
 20
-41.0892892315
 11
20.9330126969
 21
-41.0985828049
  0
LINE
  5
2E8
100
AcDbEntity
  8
RACCORDO
100
AcDbLine
 62
250
  6
CONTINUOUS
 10
21.8015294172
 20
-41.1099174031
 11
21.5563531201
 21
-41.1026263402
  0
LWPOLYLINE
  5
2E9
100
AcDbEntity
  8
RACCORDO
100
AcDbPolyline
 62
250
  6
CONTINUOUS
 90
9
 70
0
 10
-38.1770268262
 20
-41.2994176598
 10
-38.2105121206
 20
-41.2983769505
 10
-38.2241757678
 20
-41.2978561723
 10
-38.2357878265
 20
-41.2973379778
 10
-38.2453737224
 20
-41.2968220514
 10
-38.2530892449
 20
-41.2963150975
 10
-38.2589863239
 20
-41.2958193512
 10
-38.2630130295
 20
-41.2953325774
 10
-38.2651693618
 20
-41.2948547763
  0
LWPOLYLINE
  5
2EA
100
AcDbEntity
  8
RACCORDO
100
AcDbPolyline
 62
250
  6
CONTINUOUS
 90
3
 70
0
 10
21.5563531201
 20
-41.1026263402
 10
21.3559468872
 20
-41.0960218526
 10
21.0671065661
 20
-41.0869939314
  0
LWPOLYLINE
  5
2EB
100
AcDbEntity
  8
RACCORDO
100
AcDbPolyline
 62
250
  6
CONTINUOUS
 90
3
 70
0
 10
21.4076603933
 20
-40.6108194805
 10
21.3658168689
 20
-40.6090771219
 10
21.2814967783
 20
-40.6061142969
  0
LWPOLYLINE
  5
2EC
100
AcDbEntity
  8
RACCORDO
100
AcDbPolyline
 62
250
  6
CONTINUOUS
 90
3
 70
0
 10
21.5332408857
 20
-40.6172336519
 10
21.4911956619
 20
-40.6148887798
 10
21.4076603933
 20
-40.6108194805
  0
LINE
  5
2ED
100
AcDbEntity
  8
RACCORDO
100
AcDbLine
 62
250
  6
CONTINUOUS
 10
-38.9447848088
 20
-35.5824485534
 11
-38.946375437
 21
-29.7382097911
  0
LINE
  5
2EE
100
AcDbEntity
  8
RACCORDO
100
AcDbLine
 62
250
  6
CONTINUOUS
 10
-38.9451367309
 20
23.9890745315
 11
-38.9463698394
 21
29.7971861064
  0
LINE
  5
2EF
100
AcDbEntity
  8
RACCORDO
100
AcDbLine
 62
250
  6
CONTINUOUS
 10
-36.5205683931
 20
-40.8086513684
 11
-36.5205683931
 21
-41.308575216
  0
LINE
  5
2F0
100
AcDbEntity
  8
RACCORDO
100
AcDbLine
 62
250
  6
CONTINUOUS
 10
-38.9463698394
 20
29.7971861064
 11
-38.9462892409
 21
30.6999999939
  0
LINE
  5
2F1
100
AcDbEntity
  8
RACCORDO
100
AcDbLine
 62
250
  6
CONTINUOUS
 10
-38.946375437
 20
-29.7382097911
 11
-38.9454315488
 21
-24.6586426183
  0
LINE
  5
2F2
100
AcDbEntity
  8
RACCORDO
100
AcDbLine
 62
250
  6
CONTINUOUS
 10
-38.9454315488
 20
-24.6586426183
 11
-38.9451367309
 21
23.9890745315
  0
LWPOLYLINE
  5
2F3
100
AcDbEntity
  8
RACCORDO
100
AcDbPolyline
 62
250
  6
CONTINUOUS
 90
19
 70
0
 10
-38.3675453298
 20
-40.2663356036
 10
-38.3675952421
 20
-40.2689443831
 10
-38.369594985
 20
-40.2736963207
 10
-38.3735251092
 20
-40.2805452073
 10
-38.3793473977
 20
-40.2894244472
 10
-38.3870052339
 20
-40.3002476994
 10
-38.3964241468
 20
-40.312909712
 10
-38.4075125467
 20
-40.3272873602
 10
-38.4201626115
 20
-40.3432408408
 10
-38.4342513261
 20
-40.3606150184
 10
-38.4496416959
 20
-40.3792409508
 10
-38.466184072
 20
-40.3989375304
 10
-38.4837175954
 20
-40.4195132335
 10
-38.5020717832
 20
-40.4407679923
 10
-38.5210681738
 20
-40.4624951454
 10
-38.5405220535
 20
-40.4844834402
 10
-38.5602442729
 20
-40.5065190836
 10
-38.5800430839
 20
-40.5283878238
 10
-38.5997259921
 20
-40.5498770354
  0
LWPOLYLINE
  5
2F4
100
AcDbEntity
  8
RACCORDO
100
AcDbPolyline
 62
250
  6
CONTINUOUS
 90
22
 70
0
 10
-38.5361903309
 20
-40.743729657
 10
-38.5387652894
 20
-40.7740135113
 10
-38.541823931
 20
-40.8035896989
 10
-38.5453737896
 20
-40.8323563561
 10
-38.5494193692
 20
-40.8601162613
 10
-38.5539739334
 20
-40.8868896412
 10
-38.5590530254
 20
-40.9128824855
 10
-38.5646891647
 20
-40.938073199
 10
-38.5708569014
 20
-40.9622604177
 10
-38.5774798934
 20
-40.9853515587
 10
-38.5845521993
 20
-41.0072087535
 10
-38.5920925223
 20
-41.0277637103
 10
-38.6000603799
 20
-41.0470076906
 10
-38.6084507699
 20
-41.0647978069
 10
-38.6172827585
 20
-41.081039374
 10
-38.6265487397
 20
-41.0957309443
 10
-38.6362855505
 20
-41.1087380113
 10
-38.6464724996
 20
-41.11985706
 10
-38.6570153958
 20
-41.1289324041
 10
-38.6678921412
 20
-41.1358005386
 10
-38.6791529629
 20
-41.1402985229
 10
-38.6908151357
 20
-41.1422735361
  0
LINE
  5
2F5
100
AcDbEntity
  8
RACCORDO
100
AcDbLine
 62
250
  6
CONTINUOUS
 10
-22.292651923
 20
-40.6927029305
 11
-22.5381153569
 21
-40.7255224653
  0
LWPOLYLINE
  5
2F6
100
AcDbEntity
  8
RACCORDO
100
AcDbPolyline
 62
250
  6
CONTINUOUS
 90
13
 70
0
 10
-22.5381153569
 20
-40.7255224653
 10
-22.5929798507
 20
-40.7326446656
 10
-22.6481048997
 20
-40.7395261807
 10
-22.7040626486
 20
-40.7462566393
 10
-22.7607585255
 20
-40.7525196482
 10
-22.8181133078
 20
-40.7582572493
 10
-22.8761681754
 20
-40.7634943218
 10
-22.9349946928
 20
-40.7680322571
 10
-22.9946710215
 20
-40.7717649186
 10
-23.0550551888
 20
-40.7747579634
 10
-23.1158688495
 20
-40.7770608052
 10
-23.176966316
 20
-40.7786602267
 10
-23.2383525162
 20
-40.7794905346
  0
LINE
  5
2F7
100
AcDbEntity
  8
RACCORDO
100
AcDbLine
 62
250
  6
CONTINUOUS
 10
-22.174071606
 20
-40.6774822067
 11
-22.292651923
 21
-40.6927029305
  0
LINE
  5
2F8
100
AcDbEntity
  8
RACCORDO
100
AcDbLine
 62
250
  6
CONTINUOUS
 10
-22.1048587179
 20
-40.6690277448
 11
-22.174071606
 21
-40.6774822067
  0
LINE
  5
2F9
100
AcDbEntity
  8
RACCORDO
100
AcDbLine
 62
250
  6
CONTINUOUS
 10
-22.0419685718
 20
-40.6616965708
 11
-22.1048587179
 21
-40.6690277448
  0
LINE
  5
2FA
100
AcDbEntity
  8
RACCORDO
100
AcDbLine
 62
250
  6
CONTINUOUS
 10
-21.9844500656
 20
-40.6552729461
 11
-22.0419685718
 21
-40.6616965708
  0
LINE
  5
2FB
100
AcDbEntity
  8
RACCORDO
100
AcDbLine
 62
250
  6
CONTINUOUS
 10
-21.9312168709
 20
-40.6496221797
 11
-21.9844500656
 21
-40.6552729461
  0
LINE
  5
2FC
100
AcDbEntity
  8
RACCORDO
100
AcDbLine
 62
250
  6
CONTINUOUS
 10
-21.8813498028
 20
-40.6445963013
 11
-21.9312168709
 21
-40.6496221797
  0
LINE
  5
2FD
100
AcDbEntity
  8
RACCORDO
100
AcDbLine
 62
250
  6
CONTINUOUS
 10
-21.8341975941
 20
-40.6400765823
 11
-21.8813498028
 21
-40.6445963013
  0
LINE
  5
2FE
100
AcDbEntity
  8
RACCORDO
100
AcDbLine
 62
250
  6
CONTINUOUS
 10
-21.7889025854
 20
-40.6359685905
 11
-21.8341975941
 21
-40.6400765823
  0
LINE
  5
2FF
100
AcDbEntity
  8
RACCORDO
100
AcDbLine
 62
250
  6
CONTINUOUS
 10
-21.7446019014
 20
-40.6321789808
 11
-21.7889025854
 21
-40.6359685905
  0
LINE
  5
300
100
AcDbEntity
  8
RACCORDO
100
AcDbLine
 62
250
  6
CONTINUOUS
 10
-21.7007072108
 20
-40.6286428213
 11
-21.7446019014
 21
-40.6321789808
  0
LWPOLYLINE
  5
301
100
AcDbEntity
  8
RACCORDO
100
AcDbPolyline
 62
250
  6
CONTINUOUS
 90
3
 70
0
 10
-21.633797234
 20
-40.6236889503
 10
-21.6563572849
 20
-40.6252973528
 10
-21.7007072108
 20
-40.6286428213
  0
LWPOLYLINE
  5
302
100
AcDbEntity
  8
RACCORDO
100
AcDbPolyline
 62
250
  6
CONTINUOUS
 90
19
 70
0
 10
40.2637526197
 20
-36.8492713473
 10
40.2355871502
 20
-36.8496491478
 10
40.2072863316
 20
-36.8495850956
 10
40.1791020266
 20
-36.8490797622
 10
40.1512850606
 20
-36.8481376466
 10
40.1240829859
 20
-36.8467671345
 10
40.0977378795
 20
-36.8449804238
 10
40.0724841947
 20
-36.8427934166
 10
40.0485466691
 20
-36.840225577
 10
40.0261383227
 20
-36.8372997576
 10
40.0054585715
 20
-36.8340419973
 10
39.9866914466
 20
-36.8304812886
 10
39.9700039534
 20
-36.8266493191
 10
39.9555445957
 20
-36.8225801912
 10
39.9434420477
 20
-36.8183101174
 10
39.9338040068
 20
-36.8138770973
 10
39.9267162424
 20
-36.8093205813
 10
39.9222418297
 20
-36.8046811195
 10
39.920420586
 20
-36.7999999999
  0
LINE
  5
303
100
AcDbEntity
  8
RACCORDO
100
AcDbLine
 62
250
  6
CONTINUOUS
 10
-39.920420586
 20
-36.8
 11
-39.4551908211
 21
-36.8
  0
LINE
  5
304
100
AcDbEntity
  8
RACCORDO
100
AcDbLine
 62
250
  6
CONTINUOUS
 10
39.4551908211
 20
-36.8
 11
39.920420586
 21
-36.8
  0
LINE
  5
305
100
AcDbEntity
  8
RACCORDO
100
AcDbLine
 62
250
  6
CONTINUOUS
 10
-39.5431574806
 20
-35.5
 11
-39.3724240859
 21
-35.5
  0
LINE
  5
306
100
AcDbEntity
  8
RACCORDO
100
AcDbLine
 62
250
  6
CONTINUOUS
 10
39.5431574806
 20
-35.5
 11
39.3724240859
 21
-35.5
  0
LWPOLYLINE
  5
307
100
AcDbEntity
  8
RACCORDO
100
AcDbPolyline
 62
250
  6
CONTINUOUS
 90
3
 70
0
 10
21.6617382499
 20
-40.6256911295
 10
21.6183164959
 20
-40.6226181263
 10
21.5332408857
 20
-40.6172336519
  0
LWPOLYLINE
  5
308
100
AcDbEntity
  8
RACCORDO
100
AcDbPolyline
 62
250
  6
CONTINUOUS
 90
3
 70
0
 10
21.7966132658
 20
-40.6366468413
 10
21.7507211089
 20
-40.6326880675
 10
21.6617382499
 20
-40.6256911295
  0
LWPOLYLINE
  5
309
100
AcDbEntity
  8
RACCORDO
100
AcDbPolyline
 62
250
  6
CONTINUOUS
 90
3
 70
0
 10
21.9414844823
 20
-40.6506781841
 10
21.8917772835
 20
-40.6456223765
 10
21.7966132658
 20
-40.6366468413
  0
LWPOLYLINE
  5
30A
100
AcDbEntity
  8
RACCORDO
100
AcDbPolyline
 62
250
  6
CONTINUOUS
 90
3
 70
0
 10
22.1008539998
 20
-40.6685197515
 10
22.045730194
 20
-40.6621134014
 10
21.9414844823
 20
-40.6506781841
  0
LWPOLYLINE
  5
30B
100
AcDbEntity
  8
RACCORDO
100
AcDbPolyline
 62
250
  6
CONTINUOUS
 90
3
 70
0
 10
22.2768026543
 20
-40.6905744698
 10
22.2166216749
 20
-40.6828473264
 10
22.1008539998
 20
-40.6685197515
  0
LINE
  5
30C
100
AcDbEntity
  8
RACCORDO
100
AcDbLine
 62
250
  6
CONTINUOUS
 10
22.5864470203
 20
-40.7318069553
 11
22.2768026543
 21
-40.6905744698
  0
LINE
  5
30D
100
AcDbEntity
  8
RACCORDO
100
AcDbLine
 62
250
  6
CONTINUOUS
 10
-33.75
 20
-41.2931574806
 11
-33.75
 21
-41.1310794779
  0
LINE
  5
30E
100
AcDbEntity
  8
RACCORDO
100
AcDbLine
 62
7
  6
CONTINUOUS
 10
-27.5565329242
 20
33.1889562289
 11
-27.466172082
 21
33.65
  0
LWPOLYLINE
  5
30F
100
AcDbEntity
  8
DRAFT
100
AcDbPolyline
 62
7
  6
CONTINUOUS
 90
16
 70
0
 10
-28.0970449202
 20
35.8384724663
 10
-28.0930179425
 20
35.7549784792
 10
-28.0887554014
 20
35.6752504122
 10
-28.0843060947
 20
35.5996069923
 10
-28.0796677786
 20
35.5283534578
 10
-28.0748426969
 20
35.4617778047
 10
-28.0698863796
 20
35.4001478242
 10
-28.0647968123
 20
35.343710672
 10
-28.0595760093
 20
35.2927001649
 10
-28.0542855438
 20
35.2473312095
 10
-28.0489245856
 20
35.207788487
 10
-28.0434939648
 20
35.1742301399
 10
-28.0380577454
 20
35.1467931433
 10
-28.032637282
 20
35.1255884934
 10
-28.0272112199
 20
35.1107015528
 10
-28.0217795593
 20
35.1021927444
  0
LINE
  5
310
100
AcDbEntity
  8
RACCORDO
100
AcDbLine
 62
7
  6
CONTINUOUS
 10
-27.8304875975
 20
39.8266424915
 11
-27.8136292437
 21
39.4608923098
  0
LWPOLYLINE
  5
311
100
AcDbEntity
  8
RACCORDO
100
AcDbPolyline
 62
7
  6
CONTINUOUS
 90
19
 70
0
 10
-27.8905720095
 20
40.9478079379
 10
-27.8915434162
 20
40.9707192316
 10
-27.8945385683
 20
40.9941950772
 10
-27.8995574659
 20
41.018070675
 10
-27.9065932575
 20
41.0422718092
 10
-27.9156527946
 20
41.0664589622
 10
-27.9267566315
 20
41.0900648247
 10
-27.9400539076
 20
41.1128587426
 10
-27.9553954835
 20
41.134630442
 10
-27.9723544965
 20
41.154918818
 10
-27.9909963005
 20
41.173524011
 10
-28.0112555416
 20
41.1903351444
 10
-28.0325092947
 20
41.2051287489
 10
-28.0547117153
 20
41.217783401
 10
-28.0779086479
 20
41.2282864398
 10
-28.1016147021
 20
41.236618801
 10
-28.125668081
 20
41.2427372066
 10
-28.1502305815
 20
41.24659895
 10
-28.1753022035
 20
41.2481899225
  0
LINE
  5
312
100
AcDbEntity
  8
DRAFT
100
AcDbLine
 62
7
  6
CONTINUOUS
 10
-28.1043864814
 20
36.0153918995
 11
-28.0970449202
 21
35.8384724663
  0
LINE
  5
313
100
AcDbEntity
  8
RACCORDO
100
AcDbLine
 62
7
  6
CONTINUOUS
 10
-27.8136292437
 20
39.4608923098
 11
-27.7980855584
 21
39.0795398496
  0
LWPOLYLINE
  5
314
100
AcDbEntity
  8
RACCORDO
100
AcDbPolyline
 62
7
  6
CONTINUOUS
 90
3
 70
0
 10
-27.7980855584
 20
39.0795398496
 10
-27.7839536833
 20
38.6846931299
 10
-27.7806488949
 20
38.5841284665
  0
LINE
  5
315
100
AcDbEntity
  8
DRAFT
100
AcDbLine
 62
7
  6
CONTINUOUS
 10
-28.1106622132
 20
36.2032409067
 11
-28.1043864814
 21
36.0153918995
  0
LINE
  5
316
100
AcDbEntity
  8
DRAFT
100
AcDbLine
 62
7
  6
CONTINUOUS
 10
-27.770405221
 20
38.2461528126
 11
-27.7806488949
 21
38.5841284665
  0
LINE
  5
317
100
AcDbEntity
  8
DRAFT
100
AcDbLine
 62
7
  6
CONTINUOUS
 10
-28.1158001779
 20
36.3990403365
 11
-28.1106622132
 21
36.2032409067
  0
LINE
  5
318
100
AcDbEntity
  8
DRAFT
100
AcDbLine
 62
7
  6
CONTINUOUS
 10
-28.1197012201
 20
36.5996629268
 11
-28.1158001779
 21
36.3990403365
  0
LINE
  5
319
100
AcDbEntity
  8
RACCORDO
100
AcDbLine
 62
7
  6
CONTINUOUS
 10
-27.8895540025
 20
40.8964155199
 11
-27.8905720095
 21
40.9478079379
  0
LINE
  5
31A
100
AcDbEntity
  8
DRAFT
100
AcDbLine
 62
7
  6
CONTINUOUS
 10
-28.1223046111
 20
36.801920784
 11
-28.1197012201
 21
36.5996629268
  0
LINE
  5
31B
100
AcDbEntity
  8
RACCORDO
100
AcDbLine
 62
250
  6
CONTINUOUS
 10
-27.6130696169
 20
31.2066911469
 11
-27.6237975319
 21
32.3002525865
  0
LINE
  5
31C
100
AcDbEntity
  8
DRAFT
100
AcDbLine
 62
7
  6
CONTINUOUS
 10
-28.123578789
 20
37.0025841764
 11
-28.1223046111
 21
36.801920784
  0
LWPOLYLINE
  5
31D
100
AcDbEntity
  8
RACCORDO
100
AcDbPolyline
 62
7
  6
CONTINUOUS
 90
8
 70
0
 10
-27.4605172604
 20
41.0376470373
 10
-27.4606201277
 20
41.0602124044
 10
-27.4608270306
 20
41.0797142452
 10
-27.461135506
 20
41.0961724411
 10
-27.4615379179
 20
41.1091935699
 10
-27.4620317208
 20
41.1186464908
 10
-27.4626194601
 20
41.1246623444
 10
-27.4633011359
 20
41.1272411309
  0
LINE
  5
31E
100
AcDbEntity
  8
DRAFT
100
AcDbLine
 62
7
  6
CONTINUOUS
 10
-27.4904521453
 20
39.25
 11
-27.4732650825
 21
35.4416943714
  0
LWPOLYLINE
  5
31F
100
AcDbEntity
  8
DRAFT
100
AcDbPolyline
 62
7
  6
CONTINUOUS
 90
3
 70
0
 10
-27.4732650825
 20
35.4416943714
 10
-27.4684265803
 20
34.2389570598
 10
-27.466172082
 20
33.65
  0
LINE
  5
320
100
AcDbEntity
  8
RACCORDO
100
AcDbLine
 62
250
  6
CONTINUOUS
 10
-27.8137035824
 20
30.7051908211
 11
-27.8137035824
 21
31.0051451296
  0
LINE
  5
321
100
AcDbEntity
  8
RACCORDO
100
AcDbLine
 62
7
  6
CONTINUOUS
 10
-27.5501386097
 20
33.0290781048
 11
-27.5501383875
 21
30.7
  0
LINE
  5
322
100
AcDbEntity
  8
RACCORDO
100
AcDbLine
 62
7
  6
CONTINUOUS
 10
-27.55
 20
33.4131080123
 11
-27.55
 21
33.65
  0
LINE
  5
323
100
AcDbEntity
  8
DRAFT
100
AcDbLine
 62
7
  6
CONTINUOUS
 10
-27.55
 20
33.65
 11
-27.55
 21
35.15
  0
LINE
  5
324
100
AcDbEntity
  8
DRAFT
100
AcDbLine
 62
7
  6
CONTINUOUS
 10
-27.55
 20
38.25
 11
-27.55
 21
41.2159709216
  0
LINE
  5
325
100
AcDbEntity
  8
DRAFT
100
AcDbLine
 62
7
  6
CONTINUOUS
 10
-28.1234888384
 20
37.1984397773
 11
-28.123578789
 21
37.0025841764
  0
LINE
  5
326
100
AcDbEntity
  8
RACCORDO
100
AcDbLine
 62
250
  6
CONTINUOUS
 10
-28.2343880842
 20
40.7043083585
 11
-28.2337983964
 21
31.4138943405
  0
LINE
  5
327
100
AcDbEntity
  8
RACCORDO
100
AcDbLine
 62
7
  6
CONTINUOUS
 10
-27.4606164896
 20
40.9838384351
 11
-27.4605172604
 21
41.0376470373
  0
LINE
  5
328
100
AcDbEntity
  8
DRAFT
100
AcDbLine
 62
7
  6
CONTINUOUS
 10
-27.7320471995
 20
34.8158715335
 11
-27.7305101209
 21
35.1531508159
  0
LINE
  5
329
100
AcDbEntity
  8
RACCORDO
100
AcDbLine
 62
250
  6
CONTINUOUS
 10
-28.535970744
 20
40.8688476031
 11
-28.5541795771
 21
31.5645253646
  0
LINE
  5
32A
100
AcDbEntity
  8
RACCORDO
100
AcDbLine
 62
7
  6
CONTINUOUS
 10
-27.4611285188
 20
40.9193987499
 11
-27.4606164896
 21
40.9838384351
  0
LINE
  5
32B
100
AcDbEntity
  8
DRAFT
100
AcDbLine
 62
7
  6
CONTINUOUS
 10
-28.1220434211
 20
37.3863279669
 11
-28.1234888384
 21
37.1984397773
  0
LINE
  5
32C
100
AcDbEntity
  8
RACCORDO
100
AcDbLine
 62
7
  6
CONTINUOUS
 10
-27.7355980379
 20
34.4172642586
 11
-27.7320471995
 21
34.8158715335
  0
LINE
  5
32D
100
AcDbEntity
  8
RACCORDO
100
AcDbLine
 62
250
  6
CONTINUOUS
 10
-28.5353817648
 20
40.9248355512
 11
-28.535970744
 21
40.8688476031
  0
LINE
  5
32E
100
AcDbEntity
  8
RACCORDO
100
AcDbLine
 62
7
  6
CONTINUOUS
 10
-27.7711972724
 20
32.3491628274
 11
-27.7653704758
 21
32.9764148032
  0
LINE
  5
32F
100
AcDbEntity
  8
RACCORDO
100
AcDbLine
 62
7
  6
CONTINUOUS
 10
-27.7409194003
 20
34.0318287273
 11
-27.7355980379
 21
34.4172642586
  0
LINE
  5
330
100
AcDbEntity
  8
RACCORDO
100
AcDbLine
 62
7
  6
CONTINUOUS
 10
-27.4626066044
 20
40.8090180263
 11
-27.4611285188
 21
40.9193987499
  0
LINE
  5
331
100
AcDbEntity
  8
RACCORDO
100
AcDbLine
 62
250
  6
CONTINUOUS
 10
-28.5345898324
 20
40.9749108421
 11
-28.5353817648
 21
40.9248355512
  0
LINE
  5
332
100
AcDbEntity
  8
RACCORDO
100
AcDbLine
 62
7
  6
CONTINUOUS
 10
-27.4626066044
 20
40.8090180263
 11
-27.4904521453
 21
39.25
  0
LINE
  5
333
100
AcDbEntity
  8
RACCORDO
100
AcDbLine
 62
7
  6
CONTINUOUS
 10
-27.7653704758
 20
32.9764148032
 11
-27.7637342432
 21
33.0631247705
  0
LINE
  5
334
100
AcDbEntity
  8
RACCORDO
100
AcDbLine
 62
7
  6
CONTINUOUS
 10
-27.7479936847
 20
33.6616626997
 11
-27.7409194003
 21
34.0318287273
  0
LINE
  5
335
100
AcDbEntity
  8
RACCORDO
100
AcDbLine
 62
7
  6
CONTINUOUS
 10
-27.7637342432
 20
33.0631247705
 11
-27.7617642
 21
33.1392168304
  0
LWPOLYLINE
  5
336
100
AcDbEntity
  8
RACCORDO
100
AcDbPolyline
 62
250
  6
CONTINUOUS
 90
9
 70
0
 10
-27.6237975319
 20
32.3002525865
 10
-27.6227479636
 20
32.3378079355
 10
-27.6189078824
 20
32.3749965487
 10
-27.612339783
 20
32.4116147247
 10
-27.6031434009
 20
32.4473894684
 10
-27.5913970474
 20
32.4822157009
 10
-27.5771003493
 20
32.5161380887
 10
-27.5602630555
 20
32.5490677784
 10
-27.5501394864
 20
32.5657034738
  0
LWPOLYLINE
  5
337
100
AcDbEntity
  8
RACCORDO
100
AcDbPolyline
 62
7
  6
CONTINUOUS
 90
3
 70
0
 10
-27.7617642237
 20
33.1392164935
 10
-27.7567504821
 20
33.3086541434
 10
-27.7479936847
 20
33.6616626997
  0
LWPOLYLINE
  5
338
100
AcDbEntity
  8
RACCORDO
100
AcDbPolyline
 62
250
  6
CONTINUOUS
 90
16
 70
0
 10
-28.2330164443
 20
31.4125511709
 10
-28.2339412264
 20
31.3915244892
 10
-28.2370680174
 20
31.3707095537
 10
-28.242362182
 20
31.3503369301
 10
-28.2497650772
 20
31.3306322848
 10
-28.2591947012
 20
31.3118138854
 10
-28.2705466023
 20
31.2940901831
 10
-28.2836950355
 20
31.2776575024
 10
-28.2984943562
 20
31.2626978669
 10
-28.3147806323
 20
31.2493769839
 10
-28.3323734609
 20
31.2378424079
 10
-28.3510779672
 20
31.228221906
 10
-28.370686963
 20
31.2206220432
 10
-28.3909832408
 20
31.2151270022
 10
-28.4117419795
 20
31.2117976512
 10
-28.4327332361
 20
31.2106708687
  0
LWPOLYLINE
  5
339
100
AcDbEntity
  8
RACCORDO
100
AcDbPolyline
 62
250
  6
CONTINUOUS
 90
16
 70
0
 10
-28.2337955966
 20
31.4138876276
 10
-28.2348874195
 20
31.3931105192
 10
-28.2381860521
 20
31.3725430143
 10
-28.2436548476
 20
31.3524136269
 10
-28.2512330474
 20
31.3329460039
 10
-28.2608364567
 20
31.3143564399
 10
-28.2723583798
 20
31.2968514747
 10
-28.285670805
 20
31.2806255978
 10
-28.3006258267
 20
31.2658590882
 10
-28.3170572891
 20
31.2527160111
 10
-28.334782632
 20
31.2413423944
 10
-28.3536049192
 20
31.2318646069
 10
-28.3733150253
 20
31.2243879542
 10
-28.3936939613
 20
31.2189955078
 10
-28.4145153073
 20
31.2157471823
 10
-28.4355477274
 20
31.2146790705
  0
LWPOLYLINE
  5
33A
100
AcDbEntity
  8
RACCORDO
100
AcDbPolyline
 62
250
  6
CONTINUOUS
 90
19
 70
0
 10
-38.2128553749
 20
-40.7485762442
 10
-38.22193699
 20
-40.7837109167
 10
-38.2334074316
 20
-40.8178823466
 10
-38.2471585153
 20
-40.8509297409
 10
-38.2629910619
 20
-40.8825576531
 10
-38.2808402076
 20
-40.9127866624
 10
-38.3008772319
 20
-40.9418926872
 10
-38.3231680545
 20
-40.9698393992
 10
-38.3475394918
 20
-40.9962886551
 10
-38.3738625353
 20
-41.021019826
 10
-38.4018676069
 20
-41.0437512051
 10
-38.4315703344
 20
-41.0644690545
 10
-38.4633045754
 20
-41.0832760324
 10
-38.4971107151
 20
-41.0999873106
 10
-38.5327321993
 20
-41.1142704334
 10
-38.5700864896
 20
-41.1258937081
 10
-38.6090131273
 20
-41.1346029353
 10
-38.6492659636
 20
-41.1401425987
 10
-38.6905883433
 20
-41.142276925
  0
LINE
  5
33B
100
AcDbEntity
  8
RACCORDO
100
AcDbLine
 62
250
  6
CONTINUOUS
 10
-20.7526247759
 20
-26.207578233
 11
-22.5885265897
 21
-26.222558185
  0
LINE
  5
33C
100
AcDbEntity
  8
RACCORDO
100
AcDbLine
 62
250
  6
CONTINUOUS
 10
-22.5885265897
 20
-26.222558185
 11
-23.0860996612
 21
-26.2246890916
  0
LINE
  5
33D
100
AcDbEntity
  8
RACCORDO
100
AcDbLine
 62
250
  6
CONTINUOUS
 10
24.0032383083
 20
-26.0042725341
 11
18.3536582231
 21
-26.0067959985
  0
LINE
  5
33E
100
AcDbEntity
  8
DRAFT
100
AcDbLine
 62
7
  6
CONTINUOUS
 10
-24.0
 20
-26.0
 11
24.0
 21
-26.0
  0
LINE
  5
33F
100
AcDbEntity
  8
RACCORDO
100
AcDbLine
 62
250
  6
CONTINUOUS
 10
22.0
 20
-25.9864939613
 11
-22.0
 21
-25.9864939613
  0
LINE
  5
340
100
AcDbEntity
  8
RACCORDO
100
AcDbLine
 62
250
  6
CONTINUOUS
 10
-22.0
 20
-25.917150432
 11
22.0
 21
-25.917150432
  0
LINE
  5
341
100
AcDbEntity
  8
RACCORDO
100
AcDbLine
 62
250
  6
CONTINUOUS
 10
-20.3000296847
 20
-26.2065798525
 11
-20.7526247759
 21
-26.207578233
  0
LINE
  5
342
100
AcDbEntity
  8
RACCORDO
100
AcDbLine
 62
250
  6
CONTINUOUS
 10
18.3536582231
 20
-26.0067959985
 11
-20.2980576257
 21
-26.0064953867
  0
LINE
  5
343
100
AcDbEntity
  8
RACCORDO
100
AcDbLine
 62
250
  6
CONTINUOUS
 10
-23.0860996612
 20
-26.2246890916
 11
-24.2104596937
 21
-26.2244232792
  0
LINE
  5
344
100
AcDbEntity
  8
RACCORDO
100
AcDbLine
 62
250
  6
CONTINUOUS
 10
-20.2980576257
 20
-26.0064953867
 11
-24.0032382342
 21
-26.0042724364
  0
LINE
  5
345
100
AcDbEntity
  8
RACCORDO
100
AcDbLine
 62
250
  6
CONTINUOUS
 10
24.210459696
 20
-26.2244232792
 11
22.9174063459
 21
-26.2242291669
  0
LINE
  5
346
100
AcDbEntity
  8
RACCORDO
100
AcDbLine
 62
250
  6
CONTINUOUS
 10
20.6949379757
 20
-26.2073349761
 11
-20.3000296848
 21
-26.2065798499
  0
LINE
  5
347
100
AcDbEntity
  8
RACCORDO
100
AcDbLine
 62
250
  6
CONTINUOUS
 10
22.9174063459
 20
-26.2242291669
 11
22.3649286304
 21
-26.2209389098
  0
LWPOLYLINE
  5
348
100
AcDbEntity
  8
RACCORDO
100
AcDbPolyline
 62
250
  6
CONTINUOUS
 90
3
 70
0
 10
22.3649286304
 20
-26.2209389098
 10
21.6785392668
 20
-26.214649217
 10
20.6949379757
 20
-26.2073349761
  0
LINE
  5
349
100
AcDbEntity
  8
RACCORDO
100
AcDbLine
 62
250
  6
CONTINUOUS
 10
-39.5546522668
 20
31.0036641783
 11
-39.5551755906
 21
31.0051451296
  0
LWPOLYLINE
  5
34A
100
AcDbEntity
  8
RACCORDO
100
AcDbPolyline
 62
250
  6
CONTINUOUS
 90
3
 70
0
 10
-39.4551908211
 20
30.7051908211
 10
-39.4729616137
 20
30.7582802307
 10
-39.5546522668
 20
31.0036641783
  0
LWPOLYLINE
  5
34B
100
AcDbEntity
  8
RACCORDO
100
AcDbPolyline
 62
250
  6
CONTINUOUS
 90
6
 70
0
 10
-20.2948657491
 20
-41.076160393
 10
-20.2952712073
 20
-41.0736862791
 10
-20.2956738493
 20
-41.0677382927
 10
-20.2960708691
 20
-41.0583579522
 10
-20.2964595057
 20
-41.0456107462
 10
-20.2968370466
 20
-41.0295856754
  0
LWPOLYLINE
  5
34C
100
AcDbEntity
  8
RACCORDO
100
AcDbPolyline
 62
7
  6
CONTINUOUS
 90
7
 70
0
 10
-27.5565329242
 20
33.1889562289
 10
-27.5545785268
 20
33.1623367256
 10
-27.5529796853
 20
33.135700135
 10
-27.5517363841
 20
33.1090512213
 10
-27.5508485436
 20
33.0823947438
 10
-27.550316021
 20
33.055735456
 10
-27.5501386097
 20
33.0290781048
  0
LWPOLYLINE
  5
34D
100
AcDbEntity
  8
RACCORDO
100
AcDbPolyline
 62
250
  6
CONTINUOUS
 90
16
 70
0
 10
-28.2267170964
 20
40.8352665968
 10
-28.2288198503
 20
40.8662744789
 10
-28.2341155946
 20
40.8969011013
 10
-28.2425475075
 20
40.9268176993
 10
-28.2540251012
 20
40.9557031265
 10
-28.268425192
 20
40.9832472999
 10
-28.2855932213
 20
41.0091545291
 10
-28.3053449179
 20
41.0331466962
 10
-28.3274682702
 20
41.0549662337
 10
-28.3517257974
 20
41.0743788895
 10
-28.3778571141
 20
41.0911762562
 10
-28.4055817133
 20
41.1051779959
 10
-28.4346019666
 20
41.1162337763
 10
-28.4646063424
 20
41.1242248974
 10
-28.4952727526
 20
41.1290655607
 10
-28.5262719942
 20
41.1307037852
  0
LINE
  5
34E
100
AcDbEntity
  8
RACCORDO
100
AcDbLine
 62
7
  6
CONTINUOUS
 10
-27.8839856187
 20
40.7550662281
 11
-27.867727175
 21
40.503336215
  0
LINE
  5
34F
100
AcDbEntity
  8
RACCORDO
100
AcDbLine
 62
7
  6
CONTINUOUS
 10
-27.867727175
 20
40.503336215
 11
-27.8532515826
 21
40.2588164546
  0
LWPOLYLINE
  5
350
100
AcDbEntity
  8
RACCORDO
100
AcDbPolyline
 62
7
  6
CONTINUOUS
 90
7
 70
0
 10
-27.8839856187
 20
40.7550662281
 10
-27.8851322654
 20
40.7758296025
 10
-27.8861949893
 20
40.7979663512
 10
-27.8871825661
 20
40.82138707
 10
-27.8880862201
 20
40.8458545111
 10
-27.8888796241
 20
40.8709583987
 10
-27.8895540025
 20
40.8964155199
  0
LINE
  5
351
100
AcDbEntity
  8
RACCORDO
100
AcDbLine
 62
7
  6
CONTINUOUS
 10
-27.8532515826
 20
40.2588164546
 11
-27.839378403
 21
40.0030310017
  0
LINE
  5
352
100
AcDbEntity
  8
RACCORDO
100
AcDbLine
 62
7
  6
CONTINUOUS
 10
-27.839378403
 20
40.0030310017
 11
-27.8304875975
 21
39.8266424915
  0
LWPOLYLINE
  5
353
100
AcDbEntity
  8
RACCORDO
100
AcDbPolyline
 62
250
  6
CONTINUOUS
 90
3
 70
0
 10
-23.2989759476
 20
-41.1270021564
 10
-23.299067875
 20
-41.1245624445
 10
-23.2991591649
 20
-41.1187053049
  0
LINE
  5
354
100
AcDbEntity
  8
RACCORDO
100
AcDbLine
 62
250
  6
CONTINUOUS
 10
-22.0049551376
 20
22.0574321918
 11
-22.0044649503
 21
22.0316548831
  0
LINE
  5
355
100
AcDbEntity
  8
RACCORDO
100
AcDbLine
 62
250
  6
CONTINUOUS
 10
-22.0053571838
 20
22.0897813504
 11
-22.0049551376
 21
22.0574321918
  0
LINE
  5
356
100
AcDbEntity
  8
RACCORDO
100
AcDbLine
 62
250
  6
CONTINUOUS
 10
-23.2991591649
 20
-41.1187053049
 11
-23.2994229896
 21
-41.0811471602
  0
LINE
  5
357
100
AcDbEntity
  8
RACCORDO
100
AcDbLine
 62
250
  6
CONTINUOUS
 10
-22.0057565067
 20
22.1473614191
 11
-22.0053571838
 21
22.0897813504
  0
LINE
  5
358
100
AcDbEntity
  8
RACCORDO
100
AcDbLine
 62
250
  6
CONTINUOUS
 10
-22.0058772811
 20
22.2105496146
 11
-22.0057565067
 21
22.1473614191
  0
LINE
  5
359
100
AcDbEntity
  8
RACCORDO
100
AcDbLine
 62
250
  6
CONTINUOUS
 10
-24.0034504542
 20
-26.0049179336
 11
-24.0034751072
 21
20.0024475776
  0
LINE
  5
35A
100
AcDbEntity
  8
RACCORDO
100
AcDbLine
 62
7
  6
CONTINUOUS
 10
-24.0
 20
0.0001673535
 11
-24.0000000158
 21
20.0000936341
  0
LINE
  5
35B
100
AcDbEntity
  8
RACCORDO
100
AcDbLine
 62
250
  6
CONTINUOUS
 10
-23.9864939613
 20
-24.0
 11
-23.9864939613
 21
20.0
  0
LINE
  5
35C
100
AcDbEntity
  8
RACCORDO
100
AcDbLine
 62
250
  6
CONTINUOUS
 10
-23.917150432
 20
20.0
 11
-23.917150432
 21
-24.0
  0
LINE
  5
35D
100
AcDbEntity
  8
RACCORDO
100
AcDbLine
 62
250
  6
CONTINUOUS
 10
-23.2994229896
 20
-41.0811471602
 11
-23.3000618924
 21
-39.4079092516
  0
LINE
  5
35E
100
AcDbEntity
  8
RACCORDO
100
AcDbLine
 62
250
  6
CONTINUOUS
 10
-22.9173027369
 20
20.0
 11
-22.9173027369
 21
-24.0
  0
LINE
  5
35F
100
AcDbEntity
  8
RACCORDO
100
AcDbLine
 62
250
  6
CONTINUOUS
 10
-22.0
 20
-24.9173027369
 11
-22.0
 21
-26.0
  0
LINE
  5
360
100
AcDbEntity
  8
RACCORDO
100
AcDbLine
 62
250
  6
CONTINUOUS
 10
-22.0
 20
20.9173027369
 11
-22.0
 21
21.9999700978
  0
LINE
  5
361
100
AcDbEntity
  8
DRAFT
100
AcDbLine
 62
7
  6
CONTINUOUS
 10
-24.0
 20
-26.0
 11
-24.0000015452
 21
0.0001673535
  0
LINE
  5
362
100
AcDbEntity
  8
RACCORDO
100
AcDbLine
 62
250
  6
CONTINUOUS
 10
-24.2097747687
 20
-7.0041839653
 11
-24.2082670238
 21
16.5732681734
  0
LINE
  5
363
100
AcDbEntity
  8
RACCORDO
100
AcDbLine
 62
250
  6
CONTINUOUS
 10
-24.2082670238
 20
16.5732681734
 11
-24.2080530216
 21
20.0078943492
  0
LINE
  5
364
100
AcDbEntity
  8
RACCORDO
100
AcDbLine
 62
250
  6
CONTINUOUS
 10
-24.2104596937
 20
-26.2244232792
 11
-24.2097747687
 21
-7.0041839653
  0
LINE
  5
365
100
AcDbEntity
  8
RACCORDO
100
AcDbLine
 62
250
  6
CONTINUOUS
 10
-23.3000618924
 20
-39.4079092516
 11
-23.2999097443
 21
-26.1809762433
  0
LINE
  5
366
100
AcDbEntity
  8
RACCORDO
100
AcDbLine
 62
250
  6
CONTINUOUS
 10
-23.2999097443
 20
-26.1809762433
 11
-23.299599329
 21
-26.1382486939
  0
LWPOLYLINE
  5
367
100
AcDbEntity
  8
RACCORDO
100
AcDbPolyline
 62
250
  6
CONTINUOUS
 90
11
 70
0
 10
-23.299599329
 20
-26.1382486939
 10
-23.2990453546
 20
-26.098719688
 10
-23.2986815458
 20
-26.0807576211
 10
-23.2982659598
 20
-26.0642913042
 10
-23.2978036108
 20
-26.0495194214
 10
-23.2973000774
 20
-26.036620219
 10
-23.2967614352
 20
-26.0257493497
 10
-23.2961941834
 20
-26.0170379902
 10
-23.2956051663
 20
-26.0105912635
 10
-23.2950014914
 20
-26.0064869692
 10
-23.2943904426
 20
-26.0047746418
  0
LWPOLYLINE
  5
368
100
AcDbEntity
  8
RACCORDO
100
AcDbPolyline
 62
250
  6
CONTINUOUS
 90
31
 70
0
 10
-24.2080530216
 20
20.0078943492
 10
-24.2063728037
 20
20.104701267
 10
-24.1997908359
 20
20.2028664782
 10
-24.188306821
 20
20.3023896863
 10
-24.1723600127
 20
20.4031021173
 10
-24.1515102275
 20
20.5051716173
 10
-24.1244377492
 20
20.6091025576
 10
-24.0908736456
 20
20.7158853303
 10
-24.0510851454
 20
20.8245278431
 10
-24.0045569569
 20
20.9325609232
 10
-23.9509725004
 20
21.0399695845
 10
-23.8906470784
 20
21.1467675386
 10
-23.8240140466
 20
21.2505294813
 10
-23.7506482198
 20
21.3512037075
 10
-23.6709742229
 20
21.4488413632
 10
-23.5867012203
 20
21.5411725109
 10
-23.4975578781
 20
21.6278640345
 10
-23.4038160888
 20
21.7092496076
 10
-23.3080010201
 20
21.784060639
 10
-23.2105035667
 20
21.8517437517
 10
-23.1109344056
 20
21.912853891
 10
-23.0106490293
 20
21.9677855992
 10
-22.9108770707
 20
22.0162704876
 10
-22.8103904206
 20
22.0585784653
 10
-22.7068576105
 20
22.095911173
 10
-22.5999145223
 20
22.1289388343
 10
-22.4899256328
 20
22.1569915834
 10
-22.3756517358
 20
22.1792602986
 10
-22.2566794298
 20
22.1954749407
 10
-22.1334214261
 20
22.2059048602
 10
-22.0058772811
 20
22.2105496146
  0
LWPOLYLINE
  5
369
100
AcDbEntity
  8
RACCORDO
100
AcDbPolyline
 62
250
  6
CONTINUOUS
 90
31
 70
0
 10
-24.0034751073
 20
20.0024475776
 10
-24.0015529642
 20
20.090028356
 10
-23.9956348996
 20
20.1792646116
 10
-23.9854879728
 20
20.2699615731
 10
-23.9709665274
 20
20.3614534937
 10
-23.9518103875
 20
20.4539587333
 10
-23.9274351515
 20
20.5485355744
 10
-23.8971798705
 20
20.6456236937
 10
-23.8608438051
 20
20.7440219406
 10
-23.8185217089
 20
20.8422785959
 10
-23.7700248484
 20
20.9399839393
 10
-23.7151933216
 20
21.0366911584
 10
-23.6545282958
 20
21.1310027047
 10
-23.5880019223
 20
21.2226407005
 10
-23.5157642654
 20
21.3111000823
 10
-23.438986366
 20
21.3948927322
 10
-23.3579986147
 20
21.4738013047
 10
-23.2731151883
 20
21.5476540158
 10
-23.1858583264
 20
21.6154156756
 10
-23.097123331
 20
21.6768699864
 10
-23.0069666796
 20
21.7324287052
 10
-22.9157792325
 20
21.7822275117
 10
-22.8249199857
 20
21.825971325
 10
-22.7338370863
 20
21.8643516211
 10
-22.6398301711
 20
21.8985713515
 10
-22.542619669
 20
21.9285021397
 10
-22.4428409526
 20
21.953719306
 10
-22.3389441883
 20
21.9742788833
 10
-22.2305345401
 20
21.9897246034
 10
-22.1184514028
 20
21.9993910988
 10
-22.0030064283
 20
22.0027440999
  0
LWPOLYLINE
  5
36A
100
AcDbEntity
  8
RACCORDO
100
AcDbPolyline
 62
7
  6
CONTINUOUS
 90
28
 70
0
 10
-24.0000000002
 20
20.0000936234
 10
-23.9966164509
 20
20.1162556359
 10
-23.9864795785
 20
20.2321326141
 10
-23.9696056484
 20
20.3473307768
 10
-23.9460156011
 20
20.4615383815
 10
-23.9157807059
 20
20.5742801558
 10
-23.8790693479
 20
20.6849311959
 10
-23.8361068607
 20
20.7929454701
 10
-23.7870067327
 20
20.8981530375
 10
-23.7317901821
 20
21.0004959346
 10
-23.6704847308
 20
21.0998109537
 10
-23.6033782564
 20
21.1955308157
 10
-23.5309174163
 20
21.287017661
 10
-23.4535524137
 20
21.3737940099
 10
-23.3714161262
 20
21.4557956672
 10
-23.2845081742
 20
21.5330213957
 10
-23.1928815315
 20
21.6053466227
 10
-23.0970244474
 20
21.6723119397
 10
-22.9976103385
 20
21.733448853
 10
-22.8951828863
 20
21.7884906137
 10
-22.7899340233
 20
21.8373990684
 10
-22.6820487153
 20
21.8801114786
 10
-22.5718593849
 20
21.9164988703
 10
-22.4597690141
 20
21.946430162
 10
-22.3460604564
 20
21.9698247764
 10
-22.2310819374
 20
21.9865961191
 10
-22.1152505171
 20
21.9966696273
 10
-21.9989558343
 20
22.0
  0
LWPOLYLINE
  5
36B
100
AcDbEntity
  8
RACCORDO
100
AcDbPolyline
 62
250
  6
CONTINUOUS
 90
19
 70
0
 10
-39.920420586
 20
-36.7999999999
 10
-39.9222418347
 20
-36.8046811257
 10
-39.9267162605
 20
-36.8093205932
 10
-39.9338040451
 20
-36.8138771143
 10
-39.9434421128
 20
-36.8183101389
 10
-39.9555446929
 20
-36.8225802164
 10
-39.9700040851
 20
-36.8266493467
 10
-39.9866916134
 20
-36.8304813171
 10
-40.0054587723
 20
-36.8340420255
 10
-40.0261385526
 20
-36.837299784
 10
-40.0485469211
 20
-36.8402256003
 10
-40.0724844603
 20
-36.8427934359
 10
-40.0977381473
 20
-36.8449804385
 10
-40.1240832429
 20
-36.8467671443
 10
-40.1512852936
 20
-36.8481376518
 10
-40.1791022213
 20
-36.8490797636
 10
-40.2072864735
 20
-36.8495850943
 10
-40.2355872266
 20
-36.8496491459
 10
-40.2637526197
 20
-36.8492713473
  0
LINE
  5
36C
100
AcDbEntity
  8
RACCORDO
100
AcDbLine
 62
250
  6
CONTINUOUS
 10
27.6237975323
 20
32.3002525863
 11
27.7711969585
 21
32.3491625628
  0
LINE
  5
36D
100
AcDbEntity
  8
RACCORDO
100
AcDbLine
 62
250
  6
CONTINUOUS
 10
-22.0
 20
-24.9173027369
 11
22.0
 21
-24.9173027369
  0
LINE
  5
36E
100
AcDbEntity
  8
RACCORDO
100
AcDbLine
 62
250
  6
CONTINUOUS
 10
-22.9173027369
 20
-24.0
 11
-23.9997847516
 21
-24.0
  0
LINE
  5
36F
100
AcDbEntity
  8
RACCORDO
100
AcDbLine
 62
250
  6
CONTINUOUS
 10
22.9173027369
 20
-24.0
 11
23.9998561347
 21
-24.0
  0
LWPOLYLINE
  5
370
100
AcDbEntity
  8
RACCORDO
100
AcDbPolyline
 62
250
  6
CONTINUOUS
 90
6
 70
0
 10
-22.0044649503
 20
22.0316548831
 10
-22.0041936029
 20
22.0216081792
 10
-22.0039087931
 20
22.0136153453
 10
-22.0036137506
 20
22.0077670192
 10
-22.0033118211
 20
22.0041295209
 10
-22.0030064283
 20
22.0027440999
  0
LINE
  5
371
100
AcDbEntity
  8
RACCORDO
100
AcDbLine
 62
7
  6
CONTINUOUS
 10
-18.6465188536
 20
-41.2931574806
 11
-18.6501479305
 21
-41.0852478042
  0
LINE
  5
372
100
AcDbEntity
  8
RACCORDO
100
AcDbLine
 62
250
  6
CONTINUOUS
 10
-17.6498244892
 20
-41.1125032806
 11
-17.6503013895
 21
-41.0851816818
  0
LINE
  5
373
100
AcDbEntity
  8
RACCORDO
100
AcDbLine
 62
250
  6
CONTINUOUS
 10
-20.2968370466
 20
-41.0295856754
 11
-20.297548361
 21
-40.988171611
  0
LINE
  5
374
100
AcDbEntity
  8
RACCORDO
100
AcDbLine
 62
250
  6
CONTINUOUS
 10
-20.297548361
 20
-40.988171611
 11
-20.2984696389
 21
-40.904961722
  0
LINE
  5
375
100
AcDbEntity
  8
RACCORDO
100
AcDbLine
 62
250
  6
CONTINUOUS
 10
-20.2984696389
 20
-40.904961722
 11
-20.299482449
 21
-40.7237421142
  0
LINE
  5
376
100
AcDbEntity
  8
RACCORDO
100
AcDbLine
 62
7
  6
CONTINUOUS
 10
-21.0
 20
-41.2931574806
 11
-20.9999999992
 21
-41.1029462152
  0
LINE
  5
377
100
AcDbEntity
  8
RACCORDO
100
AcDbLine
 62
250
  6
CONTINUOUS
 10
-20.2996365103
 20
-39.0030003901
 11
-20.299482449
 21
-40.7237421142
  0
LINE
  5
378
100
AcDbEntity
  8
RACCORDO
100
AcDbLine
 62
250
  6
CONTINUOUS
 10
-20.2996365103
 20
-39.0030003901
 11
-20.3000153372
 21
-26.1859703089
  0
LINE
  5
379
100
AcDbEntity
  8
RACCORDO
100
AcDbLine
 62
250
  6
CONTINUOUS
 10
-20.3000153372
 20
-26.1859703089
 11
-20.2997515852
 21
-26.1078572206
  0
LINE
  5
37A
100
AcDbEntity
  8
RACCORDO
100
AcDbLine
 62
250
  6
CONTINUOUS
 10
-20.2997515852
 20
-26.1078572206
 11
-20.2993625793
 21
-26.0595149975
  0
LWPOLYLINE
  5
37B
100
AcDbEntity
  8
RACCORDO
100
AcDbPolyline
 62
250
  6
CONTINUOUS
 90
7
 70
0
 10
-20.2993625793
 20
-26.0595149975
 10
-20.2990314548
 20
-26.0348194682
 10
-20.2988494282
 20
-26.0251512576
 10
-20.2986589724
 20
-26.0174131407
 10
-20.2984621152
 20
-26.0116874989
 10
-20.2982609524
 20
-26.0080352873
 10
-20.2980576257
 20
-26.0064953867
  0
LWPOLYLINE
  5
37C
100
AcDbEntity
  8
0
100
AcDbPolyline
 62
7
  6
CONTINUOUS
 90
3
 70
0
 43
0.3500000006
 10
1.035714268
 20
62.3208607178
 10
0.9642857051
 20
62.1065762329
 10
0.8214285793
 20
61.8208605652
  0
LWPOLYLINE
  5
37D
100
AcDbEntity
  8
RACCORDO
100
AcDbPolyline
 62
250
  6
CONTINUOUS
 90
19
 70
0
 10
28.5547452454
 20
31.5651152255
 10
28.5251179929
 20
31.5551189858
 10
28.4963819208
 20
31.5451611113
 10
28.4685539233
 20
31.5350853473
 10
28.4417465457
 20
31.5250365925
 10
28.416156566
 20
31.5151134972
 10
28.3920071532
 20
31.5052427793
 10
28.3694010109
 20
31.4956585843
 10
28.3483598845
 20
31.4864373647
 10
28.328864044
 20
31.4772784359
 10
28.3108065059
 20
31.4683796698
 10
28.2943919873
 20
31.4599754969
 10
28.2798749786
 20
31.451804915
 10
28.2672883841
 20
31.4441767685
 10
28.2566118692
 20
31.4372603851
 10
28.2478630227
 20
31.4305329888
 10
28.2411016535
 20
31.4240455426
 10
28.2363615393
 20
31.4184096498
 10
28.2337956413
 20
31.4138872372
  0
LINE
  5
37E
100
AcDbEntity
  8
RACCORDO
100
AcDbLine
 62
250
  6
CONTINUOUS
 10
27.6130696169
 20
31.2066911469
 11
28.2330150465
 21
31.4125507068
  0
LINE
  5
37F
100
AcDbEntity
  8
RACCORDO
100
AcDbLine
 62
250
  6
CONTINUOUS
 10
27.8137035824
 20
31.0051451296
 11
28.4327459948
 21
31.2106751047
  0
LWPOLYLINE
  5
380
100
AcDbEntity
  8
RACCORDO
100
AcDbPolyline
 62
250
  6
CONTINUOUS
 90
19
 70
0
 10
-39.9353569359
 20
30.9853873969
 10
-39.9372530147
 20
30.9889895094
 10
-39.9419225438
 20
30.9925581044
 10
-39.949322073
 20
30.9960599756
 10
-39.9593827491
 20
30.9994625381
 10
-39.9720109568
 20
31.0027341306
 10
-39.9870891899
 20
31.005844311
 10
-40.0044771443
 20
31.0087641387
 10
-40.024013024
 20
31.0114664447
 10
-40.0455150465
 20
31.0139260837
 10
-40.0687831341
 20
31.0161201687
 10
-40.0936007758
 20
31.0180282837
 10
-40.1197370419
 20
31.0196326734
 10
-40.1469487329
 20
31.020918409
 10
-40.1749826423
 20
31.0218735266
 10
-40.203577913
 20
31.0224891387
 10
-40.2324684642
 20
31.0227595172
 10
-40.2613854677
 20
31.022682146
 10
-40.2900598489
 20
31.0222577452
  0
LINE
  5
381
100
AcDbEntity
  8
RACCORDO
100
AcDbLine
 62
250
  6
CONTINUOUS
 10
-28.5398804676
 20
31.5211623046
 11
-28.507374052
 21
31.4239957327
  0
LWPOLYLINE
  5
382
100
AcDbEntity
  8
RACCORDO
100
AcDbPolyline
 62
250
  6
CONTINUOUS
 90
4
 70
0
 10
-28.5544374437
 20
31.5648074108
 10
-28.5494758155
 20
31.5497502349
 10
-28.5446119503
 20
31.5352224242
 10
-28.5398804676
 20
31.5211623046
  0
LINE
  5
383
100
AcDbEntity
  8
RACCORDO
100
AcDbLine
 62
7
  6
CONTINUOUS
 10
-17.4508453898
 20
-41.1421550834
 11
-17.4534811464
 21
-41.2931574806
  0
LINE
  5
384
100
AcDbEntity
  8
0
100
AcDbLine
 62
7
  6
CONTINUOUS
 10
-5.095883
 20
30.14582
 11
-4.447705
 21
32.417039
  0
LINE
  5
385
100
AcDbEntity
  8
0
100
AcDbLine
 62
7
  6
CONTINUOUS
 10
-3.759419
 20
32.417039
 11
-4.820044
 21
29.117436
  0
LINE
  5
386
100
AcDbEntity
  8
RACCORDO
100
AcDbLine
 62
7
  6
CONTINUOUS
 10
-24.0034504542
 20
-26.0049179336
 11
-24.0032382461
 21
-26.0042724521
  0
LWPOLYLINE
  5
387
100
AcDbEntity
  8
RACCORDO
100
AcDbPolyline
 62
250
  6
CONTINUOUS
 90
7
 70
0
 10
28.2330150465
 20
31.4125507068
 10
28.2331442429
 20
31.4126227135
 10
28.2332741501
 20
31.4127558496
 10
28.233404768
 20
31.412950115
 10
28.2335360965
 20
31.4132055096
 10
28.2336681359
 20
31.4135220334
 10
28.233800886
 20
31.4138996861
  0
LWPOLYLINE
  5
388
100
AcDbEntity
  8
RACCORDO
100
AcDbPolyline
 62
250
  6
CONTINUOUS
 90
7
 70
0
 10
28.4327336702
 20
31.210671493
 10
28.4332026994
 20
31.2108901556
 10
28.4336720565
 20
31.2112886985
 10
28.4341414734
 20
31.2118669012
 10
28.4346106814
 20
31.2126245423
 10
28.4350794111
 20
31.2135613993
 10
28.4355473928
 20
31.214677249
  0
LWPOLYLINE
  5
389
100
AcDbEntity
  8
RACCORDO
100
AcDbPolyline
 62
250
  6
CONTINUOUS
 90
3
 70
0
 10
39.7513287694
 20
30.8038363538
 10
39.7540045841
 20
30.8047507107
 10
39.7551451296
 20
30.8051755906
  0
LWPOLYLINE
  5
38A
100
AcDbEntity
  8
RACCORDO
100
AcDbPolyline
 62
250
  6
CONTINUOUS
 90
3
 70
0
 10
39.4551908211
 20
30.7051908211
 10
39.5004882305
 20
30.7203544417
 10
39.7254526853
 20
30.7952841561
  0
LINE
  5
38B
100
AcDbEntity
  8
RACCORDO
100
AcDbLine
 62
250
  6
CONTINUOUS
 10
39.7254526853
 20
30.7952841561
 11
39.7513287694
 21
30.8038363538
  0
LWPOLYLINE
  5
38C
100
AcDbEntity
  8
RACCORDO
100
AcDbPolyline
 62
250
  6
CONTINUOUS
 90
46
 70
0
 10
-28.2337957485
 20
31.413888102
 10
-28.2348148586
 20
31.41618806
 10
-28.2363697995
 20
31.4187541171
 10
-28.2383982625
 20
31.4214791314
 10
-28.2408471063
 20
31.4241821472
 10
-28.2436621388
 20
31.426841052
 10
-28.2468021253
 20
31.4295956559
 10
-28.2502242545
 20
31.4323839202
 10
-28.2538928025
 20
31.4351146822
 10
-28.2577863305
 20
31.4378989259
 10
-28.261875527
 20
31.4406985041
 10
-28.2661383182
 20
31.4434469385
 10
-28.2705668539
 20
31.4462258227
 10
-28.2751405855
 20
31.4490115313
 10
-28.27984728
 20
31.4517589703
 10
-28.2846921355
 20
31.45452767
 10
-28.2896608286
 20
31.4573027448
 10
-28.2947477794
 20
31.460054944
 10
-28.2999722169
 20
31.4628305449
 10
-28.3053190078
 20
31.465618478
 10
-28.3107921599
 20
31.4684019701
 10
-28.3164425706
 20
31.4712270178
 10
-28.3222597446
 20
31.4740885852
 10
-28.3282514832
 20
31.4769767807
 10
-28.3345016703
 20
31.4799391618
 10
-28.3410173526
 20
31.4829798593
 10
-28.3477968339
 20
31.4860890844
 10
-28.3549164703
 20
31.48930038
 10
-28.3623921925
 20
31.4926192073
 10
-28.3702171958
 20
31.4960367538
 10
-28.3784366104
 20
31.4995681932
 10
-28.3870602862
 20
31.5032126513
 10
-28.3960859825
 20
31.5069641566
 10
-28.405540767
 20
31.5108305616
 10
-28.4154276579
 20
31.5148060698
 10
-28.425746769
 20
31.518884048
 10
-28.4365191874
 20
31.5230700945
 10
-28.4477406546
 20
31.5273516246
 10
-28.4594099521
 20
31.531720392
 10
-28.4715499058
 20
31.5361867572
 10
-28.4841344955
 20
31.5407234224
 10
-28.4971822069
 20
31.5453299847
 10
-28.5107725223
 20
31.5500456428
 10
-28.5248870127
 20
31.5548428837
 10
-28.5394072475
 20
31.5596897579
 10
-28.5544374437
 20
31.5648074108
  0
LWPOLYLINE
  5
38D
100
AcDbEntity
  8
RACCORDO
100
AcDbPolyline
 62
250
  6
CONTINUOUS
 90
7
 70
0
 10
-28.4355477274
 20
31.2146790705
 10
-28.4350788652
 20
31.2135607201
 10
-28.4346095627
 20
31.2126225229
 10
-28.4341400905
 20
31.2118644576
 10
-28.4336707176
 20
31.2112865004
 10
-28.4332017114
 20
31.210888625
 10
-28.4327333367
 20
31.210670789
  0
LWPOLYLINE
  5
38E
100
AcDbEntity
  8
RACCORDO
100
AcDbPolyline
 62
250
  6
CONTINUOUS
 90
3
 70
0
 10
-28.4376065771
 20
31.2201589024
 10
-28.436499936
 20
31.217178946
 10
-28.4355482807
 20
31.2146805078
  0
LINE
  5
38F
100
AcDbEntity
  8
RACCORDO
100
AcDbLine
 62
250
  6
CONTINUOUS
 10
-28.4402003548
 20
31.2273116036
 11
-28.4376065771
 21
31.2201589024
  0
LINE
  5
390
100
AcDbEntity
  8
RACCORDO
100
AcDbLine
 62
250
  6
CONTINUOUS
 10
-28.4447885763
 20
31.2402511072
 11
-28.4402003548
 21
31.2273116036
  0
LWPOLYLINE
  5
391
100
AcDbEntity
  8
RACCORDO
100
AcDbPolyline
 62
250
  6
CONTINUOUS
 90
7
 70
0
 10
-28.2337983964
 20
31.4138943405
 10
-28.2336662276
 20
31.4135184894
 10
-28.2335348339
 20
31.4132034464
 10
-28.2334042152
 20
31.4129492118
 10
-28.2332743716
 20
31.4127557855
 10
-28.2331453029
 20
31.4126231677
 10
-28.2330170093
 20
31.4125513585
  0
LINE
  5
392
100
AcDbEntity
  8
RACCORDO
100
AcDbLine
 62
250
  6
CONTINUOUS
 10
-28.4535855575
 20
31.2655206039
 11
-28.4447885763
 21
31.2402511072
  0
LINE
  5
393
100
AcDbEntity
  8
RACCORDO
100
AcDbLine
 62
250
  6
CONTINUOUS
 10
-28.4715824292
 20
31.3180469074
 11
-28.4535855575
 21
31.2655206039
  0
LINE
  5
394
100
AcDbEntity
  8
RACCORDO
100
AcDbLine
 62
250
  6
CONTINUOUS
 10
-28.507374052
 20
31.4239957327
 11
-28.4715824292
 21
31.3180469074
  0
LINE
  5
395
100
AcDbEntity
  8
0
100
AcDbLine
 62
7
  6
CONTINUOUS
 10
-0.77668
 20
30.585089
 11
-0.087923
 21
32.417039
  0
LINE
  5
396
100
AcDbEntity
  8
0
100
AcDbLine
 62
7
  6
CONTINUOUS
 10
0.08679
 20
31.263033
 11
-0.732142
 21
29.117436
  0
LWPOLYLINE
  5
397
100
AcDbEntity
  8
RACCORDO
100
AcDbPolyline
 62
7
  6
CONTINUOUS
 90
8
 70
0
 10
-24.0034499259
 20
-26.0049158745
 10
-24.0043211738
 20
-26.0067366167
 10
-24.0064308447
 20
-26.0098854036
 10
-24.0098256252
 20
-26.014352942
 10
-24.01454818
 20
-26.0201198089
 10
-24.0206245009
 20
-26.0271842639
 10
-24.0280521453
 20
-26.0355627145
 10
-24.0368233732
 20
-26.0452851796
  0
LINE
  5
398
100
AcDbEntity
  8
RACCORDO
100
AcDbLine
 62
7
  6
CONTINUOUS
 10
27.4632998452
 20
41.12723981
 11
27.55
 21
41.2159709216
  0
LINE
  5
399
100
AcDbEntity
  8
RACCORDO
100
AcDbLine
 62
250
  6
CONTINUOUS
 10
-49.6076937033
 20
-35.1586075323
 11
-49.859966909
 21
-35.4108807381
  0
LINE
  5
39A
100
AcDbEntity
  8
RACCORDO
100
AcDbLine
 62
250
  6
CONTINUOUS
 10
-49.6076937033
 20
35.1586075323
 11
-49.859966909
 21
35.4108807381
  0
LWPOLYLINE
  5
39B
100
AcDbEntity
  8
RACCORDO
100
AcDbPolyline
 62
250
  6
CONTINUOUS
 90
16
 70
0
 10
-28.2344279287
 20
40.6898813572
 10
-28.2376309307
 20
40.6981568738
 10
-28.2438929886
 20
40.7063005613
 10
-28.2531494468
 20
40.7142283582
 10
-28.2653047399
 20
40.7218584319
 10
-28.2802333826
 20
40.729112025
 10
-28.2977812679
 20
40.7359142679
 10
-28.3177672497
 20
40.7421949484
 10
-28.3399850187
 20
40.7478892389
 10
-28.3642052396
 20
40.7529383667
 10
-28.3901779005
 20
40.757290216
 10
-28.4176349038
 20
40.7608998694
 10
-28.4462928458
 20
40.7637300719
 10
-28.47585592
 20
40.7657516121
 10
-28.5060189681
 20
40.7669436243
 10
-28.5364706445
 20
40.7672938062
  0
LINE
  5
39C
100
AcDbEntity
  8
0
100
AcDbLine
 62
7
  6
CONTINUOUS
 10
-2.444284
 20
29.117436
 11
-2.146349
 21
32.417039
  0
LINE
  5
39D
100
AcDbEntity
  8
0
100
AcDbLine
 62
7
  6
CONTINUOUS
 10
2.365407
 20
31.510392
 11
2.022464
 21
30.285868
  0
LINE
  5
39E
100
AcDbEntity
  8
0
100
AcDbLine
 62
7
  6
CONTINUOUS
 10
1.881575
 20
29.776154
 11
1.691521
 21
29.117436
  0
LINE
  5
39F
100
AcDbEntity
  8
0
100
AcDbLine
 62
7
  6
CONTINUOUS
 10
1.010237
 20
29.117436
 11
2.045203
 21
32.417039
  0
LWPOLYLINE
  5
3A0
100
AcDbEntity
  8
RACCORDO
100
AcDbPolyline
 62
250
  6
CONTINUOUS
 90
16
 70
0
 10
-38.2128555784
 20
-40.7485766865
 10
-38.2174569272
 20
-40.7546935878
 10
-38.2252470532
 20
-40.7600123183
 10
-38.236139689
 20
-40.764473925
 10
-38.2500142181
 20
-40.7680289654
 10
-38.2667169022
 20
-40.7706380075
 10
-38.2860625124
 20
-40.7722720902
 10
-38.3078365666
 20
-40.7729130998
 10
-38.3317977748
 20
-40.7725539468
 10
-38.3576805555
 20
-40.7711986133
 10
-38.385197819
 20
-40.7688621353
 10
-38.414044766
 20
-40.765570407
 10
-38.4439023525
 20
-40.7613598228
 10
-38.474439925
 20
-40.7562769492
 10
-38.5053187993
 20
-40.7503780824
 10
-38.5361966914
 20
-40.7437285466
  0
LINE
  5
3A1
100
AcDbEntity
  8
DRAFT
100
AcDbLine
 62
7
  6
CONTINUOUS
 10
28.0217795578
 20
35.1021927444
 11
27.7320471986
 21
34.8158715335
  0
LINE
  5
3A2
100
AcDbEntity
  8
RACCORDO
100
AcDbLine
 62
250
  6
CONTINUOUS
 10
22.0030064284
 20
22.0027440999
 11
21.9989558343
 21
22.0
  0
LWPOLYLINE
  5
3A3
100
AcDbEntity
  8
0
100
AcDbPolyline
 62
7
  6
CONTINUOUS
 90
4
 70
0
 43
0.3500000006
 10
56.6902692719
 20
-4.3928571854
 10
55.8331268005
 20
-4.3928571854
 10
55.404553299
 20
-3.9642859497
 10
55.404553299
 20
-3.3214290962
  0
LINE
  5
3A4
100
AcDbEntity
  8
RACCORDO
100
AcDbLine
 62
250
  6
CONTINUOUS
 10
-39.9353569359
 20
30.9853873969
 11
-39.7551451296
 21
30.8051755906
  0
LINE
  5
3A5
100
AcDbEntity
  8
RACCORDO
100
AcDbLine
 62
250
  6
CONTINUOUS
 10
-39.7358592942
 20
31.1858288332
 11
-39.5551755906
 21
31.0051451296
  0
LINE
  5
3A6
100
AcDbEntity
  8
0
100
AcDbLine
 62
7
  6
CONTINUOUS
 10
-3.50382
 20
29.117436
 11
-3.50382
 21
32.417237
  0
LINE
  5
3A7
100
AcDbEntity
  8
0
100
AcDbLine
 62
7
  6
CONTINUOUS
 10
-2.815064
 20
32.417237
 11
-2.815064
 21
29.117436
  0
LINE
  5
3A8
100
AcDbEntity
  8
0
100
AcDbLine
 62
250
  6
CONTINUOUS
 10
-0.0000003373
 20
39.7000000023
 11
0.0000009568
 21
22.2152887296
  0
LINE
  5
3A9
100
AcDbEntity
  8
RACCORDO
100
AcDbLine
 62
250
  6
CONTINUOUS
 10
0.0000314702
 20
-41.0759210098
 11
-0.0000154197
 21
-26.0068116494
  0
LINE
  5
3AA
100
AcDbEntity
  8
RACCORDO
100
AcDbLine
 62
250
  6
CONTINUOUS
 10
0.0002139237
 20
41.1268148084
 11
-0.0000003373
 21
39.7000000023
  0
LWPOLYLINE
  5
3AB
100
AcDbEntity
  8
RACCORDO
100
AcDbPolyline
 62
250
  6
CONTINUOUS
 90
3
 70
0
 10
0.0001204144
 20
22.2152887351
 10
0.0000433203
 20
22.005440534
 10
0.0000284537
 20
22.0040277256
  0
LINE
  5
3AC
100
AcDbEntity
  8
0
100
AcDbLine
 62
7
  6
CONTINUOUS
 10
-1.636735
 20
31.272015
 11
-1.785368
 21
29.117436
  0
LINE
  5
3AD
100
AcDbEntity
  8
RACCORDO
100
AcDbLine
 62
7
  6
CONTINUOUS
 10
-24.0032382342
 20
-26.0042724364
 11
-24.0
 21
-26.0
  0
LWPOLYLINE
  5
3AE
100
AcDbEntity
  8
RACCORDO
100
AcDbPolyline
 62
7
  6
CONTINUOUS
 90
3
 70
0
 10
-24.0368233732
 20
-26.0452851796
 10
-24.0469246333
 20
-26.0562973955
 10
-24.0583123039
 20
-26.0684892406
  0
LINE
  5
3AF
100
AcDbEntity
  8
RACCORDO
100
AcDbLine
 62
7
  6
CONTINUOUS
 10
-24.0583123039
 20
-26.0684892406
 11
-24.0846838065
 21
-26.0963794358
  0
LINE
  5
3B0
100
AcDbEntity
  8
RACCORDO
100
AcDbLine
 62
250
  6
CONTINUOUS
 10
-43.6036414542
 20
-41.1527276252
 11
-43.8608807381
 21
-41.409966909
  0
LINE
  5
3B1
100
AcDbEntity
  8
RACCORDO
100
AcDbLine
 62
250
  6
CONTINUOUS
 10
24.0034751072
 20
20.0024475774
 11
24.0000000165
 21
20.0000936343
  0
LINE
  5
3B2
100
AcDbEntity
  8
RACCORDO
100
AcDbLine
 62
250
  6
CONTINUOUS
 10
24.003449506
 20
-0.0001618392
 11
24.0
 21
-0.000338389
  0
LINE
  5
3B3
100
AcDbEntity
  8
RACCORDO
100
AcDbLine
 62
250
  6
CONTINUOUS
 10
49.5884920053
 20
0.000146824
 11
49.5860389378
 21
0.000110266
  0
LINE
  5
3B4
100
AcDbEntity
  8
RACCORDO
100
AcDbLine
 62
250
  6
CONTINUOUS
 10
24.2094827401
 20
0.0001480453
 11
24.1469169154
 21
-0.0002458924
  0
LINE
  5
3B5
100
AcDbEntity
  8
RACCORDO
100
AcDbLine
 62
250
  6
CONTINUOUS
 10
39.9621845603
 20
0.0007388919
 11
39.9554518515
 21
0.0007124748
  0
LINE
  5
3B6
100
AcDbEntity
  8
RACCORDO
100
AcDbLine
 62
250
  6
CONTINUOUS
 10
49.5860389378
 20
0.000110266
 11
49.5423578993
 21
-0.0000198655
  0
LINE
  5
3B7
100
AcDbEntity
  8
RACCORDO
100
AcDbLine
 62
250
  6
CONTINUOUS
 10
-49.5860389103
 20
0.0001375947
 11
-49.5423575085
 21
0.0002678904
  0
LINE
  5
3B8
100
AcDbEntity
  8
RACCORDO
100
AcDbLine
 62
250
  6
CONTINUOUS
 10
49.5423578993
 20
-0.0000198655
 11
49.3865431576
 21
-0.0001452562
  0
LINE
  5
3B9
100
AcDbEntity
  8
RACCORDO
100
AcDbLine
 62
250
  6
CONTINUOUS
 10
40.0263002788
 20
0.0007912072
 11
39.9621845603
 21
0.0007388919
  0
LINE
  5
3BA
100
AcDbEntity
  8
RACCORDO
100
AcDbLine
 62
250
  6
CONTINUOUS
 10
49.3865431576
 20
-0.0001452562
 11
49.2781674531
 21
-0.000167933
  0
LINE
  5
3BB
100
AcDbEntity
  8
RACCORDO
100
AcDbLine
 62
250
  6
CONTINUOUS
 10
-49.5423575085
 20
0.0002678904
 11
-40.0462989724
 21
-0.0003977222
  0
LWPOLYLINE
  5
3BC
100
AcDbEntity
  8
RACCORDO
100
AcDbPolyline
 62
250
  6
CONTINUOUS
 90
3
 70
0
 10
49.2781674531
 20
-0.000167933
 10
48.2775184019
 20
0.0004396609
 10
40.0263002788
 20
0.0007912072
  0
LWPOLYLINE
  5
3BD
100
AcDbEntity
  8
RACCORDO
100
AcDbPolyline
 62
250
  6
CONTINUOUS
 90
3
 70
0
 10
-24.0224486215
 20
0.0002191011
 10
-24.0049308076
 20
0.0001956488
 10
-24.0034495164
 20
0.0001828535
  0
LWPOLYLINE
  5
3BE
100
AcDbEntity
  8
RACCORDO
100
AcDbPolyline
 62
250
  6
CONTINUOUS
 90
4
 70
0
 10
24.1469169154
 20
-0.0002458924
 10
24.0086224955
 20
-0.000202186
 10
24.0049307945
 20
-0.0001816982
 10
24.0034495092
 20
-0.000158754
  0
LINE
  5
3BF
100
AcDbEntity
  8
RACCORDO
100
AcDbLine
 62
250
  6
CONTINUOUS
 10
-24.0034495157
 20
0.0001797793
 11
-24.0
 21
0.0001673535
  0
LWPOLYLINE
  5
3C0
100
AcDbEntity
  8
RACCORDO
100
AcDbPolyline
 62
250
  6
CONTINUOUS
 90
3
 70
0
 10
-39.9554518515
 20
-0.0004836689
 10
-39.9573952285
 20
-0.0004701653
 10
-40.0462989724
 20
-0.0003977222
  0
LWPOLYLINE
  5
3C1
100
AcDbEntity
  8
RACCORDO
100
AcDbPolyline
 62
250
  6
CONTINUOUS
 90
3
 70
0
 10
-39.3397202837
 20
-0.0000651127
 10
-39.3368687658
 20
-0.0000855087
 10
-24.0224486215
 20
0.0002191011
  0
LWPOLYLINE
  5
3C2
100
AcDbEntity
  8
RACCORDO
100
AcDbPolyline
 62
250
  6
CONTINUOUS
 90
3
 70
0
 10
39.3397202837
 20
-0.0001899597
 10
39.3368687651
 20
-0.0001695697
 10
24.2094827327
 20
0.0000041457
  0
LINE
  5
3C3
100
AcDbEntity
  8
RACCORDO
100
AcDbLine
 62
250
  6
CONTINUOUS
 10
-43.6036414542
 20
41.1527276252
 11
-43.8608807381
 21
41.409966909
  0
LWPOLYLINE
  5
3C4
100
AcDbEntity
  8
RACCORDO
100
AcDbPolyline
 62
7
  6
CONTINUOUS
 90
3
 70
0
 10
24.1696755915
 20
-26.1837332602
 10
24.1895934052
 20
-26.203823573
 10
24.2104596963
 20
-26.2244232799
  0
LINE
  5
3C5
100
AcDbEntity
  8
RACCORDO
100
AcDbLine
 62
7
  6
CONTINUOUS
 10
24.1156131736
 20
-26.1284612224
 11
24.1696755915
 21
-26.1837332602
  0
LINE
  5
3C6
100
AcDbEntity
  8
RACCORDO
100
AcDbLine
 62
7
  6
CONTINUOUS
 10
24.0996288585
 20
-26.1119179373
 11
24.1156131736
 21
-26.1284612224
  0
LWPOLYLINE
  5
3C7
100
AcDbEntity
  8
RACCORDO
100
AcDbPolyline
 62
7
  6
CONTINUOUS
 90
3
 70
0
 10
24.058312115
 20
-26.0684898154
 10
24.0709046046
 20
-26.081864532
 10
24.0996288585
 20
-26.1119179373
  0
LINE
  5
3C8
100
AcDbEntity
  8
RACCORDO
100
AcDbLine
 62
7
  6
CONTINUOUS
 10
24.0368391326
 20
-26.0452700463
 11
24.058312115
 21
-26.0684898154
  0
LINE
  5
3C9
100
AcDbEntity
  8
0
100
AcDbLine
 62
7
  6
CONTINUOUS
 10
0.593534
 20
32.417039
 11
0.902084
 21
29.117436
  0
LINE
  5
3CA
100
AcDbEntity
  8
0
100
AcDbLine
 62
7
  6
CONTINUOUS
 10
0.228297
 20
29.117436
 11
0.08679
 21
31.263033
  0
LWPOLYLINE
  5
3CB
100
AcDbEntity
  8
0
100
AcDbPolyline
 62
7
  6
CONTINUOUS
 90
4
 70
0
 43
0.3500000006
 10
2.0357142191
 20
64.392292511
 10
2.0357142191
 20
65.0351459656
 10
3.5357143936
 20
65.0351459656
 10
2.6785713558
 20
62.03514505
  0
LINE
  5
3CC
100
AcDbEntity
  8
0
100
AcDbLine
 62
7
  6
CONTINUOUS
 10
3.9261443912
 20
29.1174362133
 11
3.9261443912
 21
32.3784889284
  0
LINE
  5
3CD
100
AcDbEntity
  8
0
100
AcDbLine
 62
7
  6
CONTINUOUS
 10
4.5892915047
 20
31.8549191765
 11
4.5892915047
 21
30.9491138137
  0
LINE
  5
3CE
100
AcDbEntity
  8
0
100
AcDbLine
 62
7
  6
CONTINUOUS
 10
4.612129637
 20
30.4087185688
 11
4.612129637
 21
29.1174362133
  0
LWPOLYLINE
  5
3CF
100
AcDbEntity
  8
RACCORDO
100
AcDbPolyline
 62
7
  6
CONTINUOUS
 90
5
 70
0
 10
-24.0846838065
 20
-26.0963794358
 10
-24.132622318
 20
-26.1459608857
 10
-24.1507142994
 20
-26.1643473231
 10
-24.1698597854
 20
-26.1835502446
 10
-24.2104596957
 20
-26.2244232851
  0
LINE
  5
3D0
100
AcDbEntity
  8
RACCORDO
100
AcDbLine
 62
250
  6
CONTINUOUS
 10
43.6036414542
 20
41.1527276252
 11
43.8608807381
 21
41.409966909
  0
LINE
  5
3D1
100
AcDbEntity
  8
RACCORDO
100
AcDbLine
 62
250
  6
CONTINUOUS
 10
-49.5884920053
 20
0.000100974
 11
-49.5860389103
 21
0.0001375947
  0
LWPOLYLINE
  5
3D2
100
AcDbEntity
  8
0
100
AcDbPolyline
 62
7
  6
CONTINUOUS
 90
4
 70
0
 43
0.3500000006
 10
56.6902692719
 20
2.0357136154
 10
55.8331268005
 20
2.0357136154
 10
55.404553299
 20
2.4642848511
 10
55.404553299
 20
3.1071428375
  0
LINE
  5
3D3
100
AcDbEntity
  8
RACCORDO
100
AcDbLine
 62
250
  6
CONTINUOUS
 10
-24.0034751072
 20
20.0024475776
 11
-24.0000000158
 21
20.0000936341
  0
LINE
  5
3D4
100
AcDbEntity
  8
RACCORDO
100
AcDbLine
 62
250
  6
CONTINUOUS
 10
43.6036414542
 20
-41.1527276252
 11
43.8608807381
 21
-41.409966909
  0
LWPOLYLINE
  5
3D5
100
AcDbEntity
  8
RACCORDO
100
AcDbPolyline
 62
250
  6
CONTINUOUS
 90
19
 70
0
 10
38.5997257601
 20
-40.5498771186
 10
38.5800426186
 20
-40.5283877366
 10
38.5602435989
 20
-40.5065188517
 10
38.5405212034
 20
-40.4844830923
 10
38.5210671901
 20
-40.462494711
 10
38.5020707109
 20
-40.4407675011
 10
38.4837164737
 20
-40.4195127183
 10
38.4661829388
 20
-40.3989370242
 10
38.4496405888
 20
-40.3792404812
 10
38.4342502736
 20
-40.360614607
 10
38.4201616379
 20
-40.3432405056
 10
38.4075116715
 20
-40.3272871122
 10
38.3964233797
 20
-40.3129095523
 10
38.387004579
 20
-40.3002476243
 10
38.379346854
 20
-40.2894244466
 10
38.373524668
 20
-40.2805452622
 10
38.3695946337
 20
-40.2736964078
 10
38.3675949652
 20
-40.2689444775
 10
38.367545108
 20
-40.2663356774
  0
LINE
  5
3D6
100
AcDbEntity
  8
RACCORDO
100
AcDbLine
 62
7
  6
CONTINUOUS
 10
24.0032383083
 20
-26.0042725341
 11
24.0
 21
-26.0
  0
LINE
  5
3D7
100
AcDbEntity
  8
0
100
AcDbLine
 62
7
  6
CONTINUOUS
 10
-5.427011
 20
29.117436
 11
-6.473049
 21
32.417039
  0
LINE
  5
3D8
100
AcDbEntity
  8
0
100
AcDbLine
 62
7
  6
CONTINUOUS
 10
-5.724847
 20
32.417039
 11
-5.095883
 21
30.14582
  0
LWPOLYLINE
  5
3D9
100
AcDbEntity
  8
0
100
AcDbPolyline
 62
7
  6
CONTINUOUS
 90
19
 70
0
 10
5.5179372205
 20
31.4617270351
 10
5.5162240944
 20
31.4929326971
 10
5.5120100425
 20
31.5245488823
 10
5.5052687482
 20
31.5563416608
 10
5.4959928303
 20
31.5880139844
 10
5.4841546097
 20
31.6193465437
 10
5.4696706989
 20
31.6501849887
 10
5.4524250497
 20
31.6803244159
 10
5.4324338249
 20
31.7092865775
 10
5.4098432105
 20
31.7364968287
 10
5.3846813784
 20
31.7616358839
 10
5.3571308546
 20
31.7845259892
 10
5.3277068707
 20
31.8049214158
 10
5.2968071159
 20
31.8227610096
 10
5.2646363395
 20
31.8381031762
 10
5.2314702968
 20
31.8509444174
 10
5.1975914708
 20
31.8612740858
 10
5.1632908492
 20
31.8690781328
 10
5.1288527297
 20
31.8743447536
  0
LINE
  5
3DA
100
AcDbEntity
  8
0
100
AcDbLine
 62
7
  6
CONTINUOUS
 10
5.6969038097
 20
30.6771594118
 11
5.6969038097
 21
30.6576616347
  0
LINE
  5
3DB
100
AcDbEntity
  8
RACCORDO
100
AcDbLine
 62
250
  6
CONTINUOUS
 10
39.5551755906
 20
31.0051451296
 11
39.7358592942
 21
31.1858288332
  0
LINE
  5
3DC
100
AcDbEntity
  8
RACCORDO
100
AcDbLine
 62
250
  6
CONTINUOUS
 10
39.7551451296
 20
30.8051755906
 11
39.9353569359
 21
30.9853873969
  0
LINE
  5
3DD
100
AcDbEntity
  8
RACCORDO
100
AcDbLine
 62
250
  6
CONTINUOUS
 10
-22.0030064283
 20
22.0027440999
 11
-21.9989558343
 21
22.0
  0
LINE
  5
3DE
100
AcDbEntity
  8
DRAFT
100
AcDbLine
 62
7
  6
CONTINUOUS
 10
-28.0217795593
 20
35.1021927444
 11
-27.7320471995
 21
34.8158715335
  0
LINE
  5
3DF
100
AcDbEntity
  8
RACCORDO
100
AcDbLine
 62
7
  6
CONTINUOUS
 10
-27.4633010648
 20
41.1272410581
 11
-27.55
 21
41.2159709216
  0
LWPOLYLINE
  5
3E0
100
AcDbEntity
  8
RACCORDO
100
AcDbPolyline
 62
250
  6
CONTINUOUS
 90
16
 70
0
 10
28.2344281517
 20
40.6898799796
 10
28.2376310698
 20
40.6981553606
 10
28.2438929559
 20
40.7062989384
 10
28.2531491808
 20
40.7142266534
 10
28.2653042073
 20
40.7218566734
 10
28.2802325758
 20
40.7291102394
 10
28.2977801986
 20
40.7359124791
 10
28.317765952
 20
40.7421931785
 10
28.3399835445
 20
40.7478875053
 10
28.3642036439
 20
40.7529366808
 10
28.3901762496
 20
40.7572885855
 10
28.4176332703
 20
40.760898297
 10
28.4462912867
 20
40.7637285539
 10
28.475854485
 20
40.7657501408
 10
28.5060177107
 20
40.7669421899
 10
28.5364696134
 20
40.7672923958
  0
LINE
  5
3E1
100
AcDbEntity
  8
RACCORDO
100
AcDbLine
 62
250
  6
CONTINUOUS
 10
49.6076937033
 20
35.1586075323
 11
49.859966909
 21
35.4108807381
  0
LINE
  5
3E2
100
AcDbEntity
  8
RACCORDO
100
AcDbLine
 62
250
  6
CONTINUOUS
 10
49.6076937033
 20
-35.1586075323
 11
49.859966909
 21
-35.4108807381
  0
LWPOLYLINE
  5
3E3
100
AcDbEntity
  8
RACCORDO
100
AcDbPolyline
 62
7
  6
CONTINUOUS
 90
8
 70
0
 10
24.0034499414
 20
-26.004915946
 10
24.0042528323
 20
-26.0068042677
 10
24.0063790858
 20
-26.0099367073
 10
24.0098256277
 20
-26.0143531992
 10
24.0145785751
 20
-26.0200899705
 10
24.020644799
 20
-26.0271643102
 10
24.0280520989
 20
-26.0355631482
 10
24.0368391326
 20
-26.0452700463
  0
LINE
  5
3E4
100
AcDbEntity
  8
0
100
AcDbLine
 62
7
  6
CONTINUOUS
 10
-0.82874
 20
29.117436
 11
-1.636735
 21
31.272015
  0
LINE
  5
3E5
100
AcDbEntity
  8
0
100
AcDbLine
 62
7
  6
CONTINUOUS
 10
-1.458162
 20
32.417039
 11
-0.77668
 21
30.585089
  0
LINE
  5
3E6
100
AcDbEntity
  8
0
100
AcDbLine
 62
7
  6
CONTINUOUS
 10
2.711492
 20
32.417039
 11
3.723892
 21
29.117436
  0
LWPOLYLINE
  5
3E7
100
AcDbEntity
  8
0
100
AcDbPolyline
 62
7
  6
CONTINUOUS
 90
8
 70
0
 10
5.4708125681
 20
29.7954577069
 10
5.4570983745
 20
29.8419632462
 10
5.4430853415
 20
29.8883255178
 10
5.4287025442
 20
29.9345147639
 10
5.4138432875
 20
29.9806120072
 10
5.3984201733
 20
30.0266261225
 10
5.3823683274
 20
30.0724949379
 10
5.3656110138
 20
30.118191592
  0
LINE
  5
3E8
100
AcDbEntity
  8
0
100
AcDbLine
 62
7
  6
CONTINUOUS
 10
5.666865356
 20
29.1174362133
 11
5.5515559661
 21
29.5125814402
  0
LINE
  5
3E9
100
AcDbEntity
  8
0
100
AcDbLine
 62
7
  6
CONTINUOUS
 10
5.4976737281
 20
29.7019844248
 11
5.4708125681
 21
29.7954577069
  0
LINE
  5
3EA
100
AcDbEntity
  8
0
100
AcDbLine
 62
7
  6
CONTINUOUS
 10
5.5515559661
 20
29.5125814402
 11
5.4976737281
 21
29.7019844248
  0
LINE
  5
3EB
100
AcDbEntity
  8
0
100
AcDbLine
 62
7
  6
CONTINUOUS
 10
2.997971
 20
29.117436
 11
2.819547
 21
29.776154
  0
LINE
  5
3EC
100
AcDbEntity
  8
0
100
AcDbLine
 62
7
  6
CONTINUOUS
 10
6.3039428112
 20
29.2124839653
 11
6.3293691418
 21
29.1174362133
  0
LINE
  5
3ED
100
AcDbEntity
  8
0
100
AcDbLine
 62
7
  6
CONTINUOUS
 10
6.0738722546
 20
30.0844330059
 11
6.1490284901
 21
29.805087483
  0
LINE
  5
3EE
100
AcDbEntity
  8
0
100
AcDbLine
 62
7
  6
CONTINUOUS
 10
6.1490284901
 20
29.805087483
 11
6.3039428112
 21
29.2124839653
  0
LINE
  5
3EF
100
AcDbEntity
  8
0
100
AcDbLine
 62
7
  6
CONTINUOUS
 10
2.681899
 20
30.285868
 11
2.365407
 21
31.510392
  0
LINE
  5
3F0
100
AcDbEntity
  8
RACCORDO
100
AcDbLine
 62
7
  6
CONTINUOUS
 10
17.4508453898
 20
-41.1421550834
 11
17.4534811464
 21
-41.2931574806
  0
LWPOLYLINE
  5
3F1
100
AcDbEntity
  8
RACCORDO
100
AcDbPolyline
 62
7
  6
CONTINUOUS
 90
10
 70
0
 10
27.4633011359
 20
41.1272411309
 10
27.4626195354
 20
41.1246624132
 10
27.4620318527
 20
41.1186465786
 10
27.4615380879
 20
41.1091936272
 10
27.461135689
 20
41.0961724127
 10
27.460827208
 20
41.0797140813
 10
27.4606203003
 20
41.0602120719
 10
27.4605174358
 20
41.0376465036
 10
27.4605161447
 20
41.0120372574
 10
27.460821803
 20
40.9529118238
  0
LINE
  5
3F2
100
AcDbEntity
  8
RACCORDO
100
AcDbLine
 62
250
  6
CONTINUOUS
 10
28.4762580608
 20
31.3317298266
 11
28.5547452454
 21
31.5651152255
  0
LINE
  5
3F3
100
AcDbEntity
  8
RACCORDO
100
AcDbLine
 62
250
  6
CONTINUOUS
 10
28.4522223749
 20
31.2615778273
 11
28.4762580608
 21
31.3317298266
  0
LWPOLYLINE
  5
3F4
100
AcDbEntity
  8
RACCORDO
100
AcDbPolyline
 62
250
  6
CONTINUOUS
 90
5
 70
0
 10
28.4355477223
 20
31.2146775209
 10
28.4375758312
 20
31.2200596262
 10
28.4403052076
 20
31.2275777627
 10
28.443695517
 20
31.2371159089
 10
28.4522223749
 20
31.2615778273
  0
LWPOLYLINE
  5
3F5
100
AcDbEntity
  8
RACCORDO
100
AcDbPolyline
 62
250
  6
CONTINUOUS
 90
3
 70
0
 10
-39.7536640357
 20
30.8046718623
 10
-39.5594469477
 20
30.7399118158
 10
-39.4818753256
 20
30.7141873597
  0
LINE
  5
3F6
100
AcDbEntity
  8
RACCORDO
100
AcDbLine
 62
250
  6
CONTINUOUS
 10
-39.4818753256
 20
30.7141873597
 11
-39.4551908211
 21
30.7051908211
  0
LINE
  5
3F7
100
AcDbEntity
  8
RACCORDO
100
AcDbLine
 62
250
  6
CONTINUOUS
 10
-39.7551451296
 20
30.8051755906
 11
-39.7536640357
 21
30.8046718623
  0
LWPOLYLINE
  5
3F8
100
AcDbEntity
  8
RACCORDO
100
AcDbPolyline
 62
250
  6
CONTINUOUS
 90
19
 70
0
 10
-39.735860026
 20
31.1858289042
 10
-39.7408186061
 20
31.187621114
 10
-39.7457339278
 20
31.1920190211
 10
-39.7505630321
 20
31.1989843191
 10
-39.7552637351
 20
31.2084563186
 10
-39.7597949195
 20
31.2203523265
 10
-39.7641169041
 20
31.2345682371
 10
-39.7681918927
 20
31.2509797075
 10
-39.7719842939
 20
31.2694433732
 10
-39.7754609617
 20
31.2897978629
 10
-39.7785915097
 20
31.3118652788
 10
-39.7813485766
 20
31.3354527516
 10
-39.7837080653
 20
31.3603541272
 10
-39.7856493533
 20
31.3863517673
 10
-39.7871554733
 20
31.4132184513
 10
-39.7882132613
 20
31.4407193636
 10
-39.788813472
 20
31.4686141445
 10
-39.7889508589
 20
31.4966589917
 10
-39.7886242209
 20
31.5246087908
  0
LWPOLYLINE
  5
3F9
100
AcDbEntity
  8
0
100
AcDbPolyline
 62
7
  6
CONTINUOUS
 90
22
 70
0
 10
5.3656110501
 20
30.1181916056
 10
5.3564261102
 20
30.1410027224
 10
5.3461669296
 20
30.1634263814
 10
5.3348832479
 20
30.1853571778
 10
5.3226507936
 20
30.2066494428
 10
5.3094938459
 20
30.2272545915
 10
5.2953637414
 20
30.2472084896
 10
5.280276948
 20
30.2664214523
 10
5.2642683636
 20
30.2847793626
 10
5.247284752
 20
30.3022587797
 10
5.2293158258
 20
30.3187654761
 10
5.2103979926
 20
30.3341576706
 10
5.1905346281
 20
30.3483227415
 10
5.1697118947
 20
30.3611513028
 10
5.1479714216
 20
30.3724967042
 10
5.1254510732
 20
30.3822570921
 10
5.1023012901
 20
30.3904427926
 10
5.0786295893
 20
30.3970875299
 10
5.0545734883
 20
30.4022131068
 10
5.0302668984
 20
30.4058435895
 10
5.0058397279
 20
30.4080039151
 10
4.9814244644
 20
30.4087185688
  0
LINE
  5
3FA
100
AcDbEntity
  8
RACCORDO
100
AcDbLine
 62
7
  6
CONTINUOUS
 10
24.0032382461
 20
-26.0042724521
 11
24.0034507214
 21
-26.0049189848
  0
LWPOLYLINE
  5
3FB
100
AcDbEntity
  8
RACCORDO
100
AcDbPolyline
 62
250
  6
CONTINUOUS
 90
5
 70
0
 10
20.2988485138
 20
-26.0251513082
 10
20.2986580583
 20
-26.017413173
 10
20.2984612013
 20
-26.0116875147
 10
20.2982600389
 20
-26.008035291
 10
20.2980567127
 20
-26.0064953853
  0
LINE
  5
3FC
100
AcDbEntity
  8
RACCORDO
100
AcDbLine
 62
250
  6
CONTINUOUS
 10
20.2992021998
 20
-26.0463149268
 11
20.2988485138
 21
-26.0251513082
  0
LINE
  5
3FD
100
AcDbEntity
  8
RACCORDO
100
AcDbLine
 62
250
  6
CONTINUOUS
 10
20.2996373684
 20
-26.0904509675
 11
20.2992021998
 21
-26.0463149268
  0
LINE
  5
3FE
100
AcDbEntity
  8
RACCORDO
100
AcDbLine
 62
250
  6
CONTINUOUS
 10
20.2999785248
 20
-26.1655787678
 11
20.2996373684
 21
-26.0904509675
  0
LINE
  5
3FF
100
AcDbEntity
  8
RACCORDO
100
AcDbLine
 62
7
  6
CONTINUOUS
 10
21.0
 20
-41.2931574806
 11
20.9999999992
 21
-41.1029462152
  0
LINE
  5
400
100
AcDbEntity
  8
RACCORDO
100
AcDbLine
 62
250
  6
CONTINUOUS
 10
22.0
 20
-24.9173027369
 11
22.0
 21
-26.0
  0
LINE
  5
401
100
AcDbEntity
  8
RACCORDO
100
AcDbLine
 62
250
  6
CONTINUOUS
 10
22.0
 20
20.9173027369
 11
22.0
 21
22.0
  0
LINE
  5
402
100
AcDbEntity
  8
RACCORDO
100
AcDbLine
 62
250
  6
CONTINUOUS
 10
22.0058772811
 20
22.2105496146
 11
22.0057564969
 21
22.1473611172
  0
LINE
  5
403
100
AcDbEntity
  8
RACCORDO
100
AcDbLine
 62
250
  6
CONTINUOUS
 10
20.2993921862
 20
-40.763114823
 11
20.2999785248
 21
-26.1655787678
  0
LINE
  5
404
100
AcDbEntity
  8
RACCORDO
100
AcDbLine
 62
250
  6
CONTINUOUS
 10
20.2985151664
 20
-40.9049593877
 11
20.2993921862
 21
-40.763114823
  0
LINE
  5
405
100
AcDbEntity
  8
RACCORDO
100
AcDbLine
 62
250
  6
CONTINUOUS
 10
22.0057564969
 20
22.1473611172
 11
22.0053571671
 21
22.0897809772
  0
LINE
  5
406
100
AcDbEntity
  8
RACCORDO
100
AcDbLine
 62
250
  6
CONTINUOUS
 10
20.2975838236
 20
-40.9881699079
 11
20.2985151664
 21
-40.9049593877
  0
LINE
  5
407
100
AcDbEntity
  8
RACCORDO
100
AcDbLine
 62
250
  6
CONTINUOUS
 10
22.0053571671
 20
22.0897809772
 11
22.0049551194
 21
22.0574318823
  0
LINE
  5
408
100
AcDbEntity
  8
RACCORDO
100
AcDbLine
 62
250
  6
CONTINUOUS
 10
17.6503013895
 20
-41.0851816818
 11
17.6498244892
 21
-41.1125032806
  0
LINE
  5
409
100
AcDbEntity
  8
RACCORDO
100
AcDbLine
 62
7
  6
CONTINUOUS
 10
18.6501479305
 20
-41.0852478042
 11
18.6465188536
 21
-41.2931574806
  0
LWPOLYLINE
  5
40A
100
AcDbEntity
  8
RACCORDO
100
AcDbPolyline
 62
250
  6
CONTINUOUS
 90
7
 70
0
 10
22.0049551194
 20
22.0574318823
 10
22.0044649336
 20
22.0316546843
 10
22.0041935882
 20
22.0216080403
 10
22.0039087811
 20
22.0136152606
 10
22.0036137419
 20
22.0077669781
 10
22.0033118164
 20
22.0041295094
 10
22.0030064284
 20
22.0027440999
  0
LWPOLYLINE
  5
40B
100
AcDbEntity
  8
RACCORDO
100
AcDbPolyline
 62
250
  6
CONTINUOUS
 90
9
 70
0
 10
24.072683934
 20
20.0065461927
 10
24.0575307303
 20
20.0061427472
 10
24.0439875659
 20
20.0056974688
 10
24.0322038784
 20
20.0052152707
 10
24.0223096911
 20
20.0047014737
 10
24.0144141781
 20
20.004161747
 10
24.0086044598
 20
20.0036020462
 10
24.0049446419
 20
20.0030285469
 10
24.0034751072
 20
20.0024475774
  0
LINE
  5
40C
100
AcDbEntity
  8
RACCORDO
100
AcDbLine
 62
250
  6
CONTINUOUS
 10
24.1071357263
 20
20.0072102889
 11
24.072683934
 21
20.0065461927
  0
LINE
  5
40D
100
AcDbEntity
  8
RACCORDO
100
AcDbLine
 62
250
  6
CONTINUOUS
 10
24.1458265492
 20
20.0076605273
 11
24.1071357263
 21
20.0072102889
  0
LWPOLYLINE
  5
40E
100
AcDbEntity
  8
RACCORDO
100
AcDbPolyline
 62
250
  6
CONTINUOUS
 90
3
 70
0
 10
24.2080530216
 20
20.0078943489
 10
24.1870534283
 20
20.0078770906
 10
24.1458265492
 20
20.0076605273
  0
LINE
  5
40F
100
AcDbEntity
  8
RACCORDO
100
AcDbLine
 62
250
  6
CONTINUOUS
 10
22.9173027369
 20
20.0
 11
24.0000000144
 21
20.0
  0
LINE
  5
410
100
AcDbEntity
  8
RACCORDO
100
AcDbLine
 62
250
  6
CONTINUOUS
 10
-22.9173027369
 20
20.0
 11
-24.0000000138
 21
20.0
  0
LINE
  5
411
100
AcDbEntity
  8
RACCORDO
100
AcDbLine
 62
250
  6
CONTINUOUS
 10
22.0
 20
20.9173027369
 11
-22.0
 21
20.9173027369
  0
LINE
  5
412
100
AcDbEntity
  8
RACCORDO
100
AcDbLine
 62
250
  6
CONTINUOUS
 10
22.0
 20
21.917150432
 11
-22.0
 21
21.917150432
  0
LINE
  5
413
100
AcDbEntity
  8
RACCORDO
100
AcDbLine
 62
250
  6
CONTINUOUS
 10
-22.0
 20
21.9864939613
 11
22.0
 21
21.9864939613
  0
LINE
  5
414
100
AcDbEntity
  8
RACCORDO
100
AcDbLine
 62
7
  6
CONTINUOUS
 10
22.0016527162
 20
22.0
 11
-22.0016527162
 21
22.0
  0
LINE
  5
415
100
AcDbEntity
  8
RACCORDO
100
AcDbLine
 62
250
  6
CONTINUOUS
 10
-22.0058772811
 20
22.2105496146
 11
-11.2623328074
 21
22.2137146334
  0
LINE
  5
416
100
AcDbEntity
  8
RACCORDO
100
AcDbLine
 62
250
  6
CONTINUOUS
 10
-11.2623328074
 20
22.2137146334
 11
1.5477986063
 21
22.2152387188
  0
LINE
  5
417
100
AcDbEntity
  8
RACCORDO
100
AcDbLine
 62
250
  6
CONTINUOUS
 10
-22.0030064283
 20
22.0027440999
 11
11.5571071159
 21
22.0036545218
  0
LINE
  5
418
100
AcDbEntity
  8
RACCORDO
100
AcDbLine
 62
250
  6
CONTINUOUS
 10
11.5571071159
 20
22.0036545218
 11
22.0030064284
 21
22.0027440999
  0
LINE
  5
419
100
AcDbEntity
  8
RACCORDO
100
AcDbLine
 62
250
  6
CONTINUOUS
 10
1.5477986063
 20
22.2152387188
 11
12.0111731409
 21
22.2135011491
  0
LINE
  5
41A
100
AcDbEntity
  8
RACCORDO
100
AcDbLine
 62
250
  6
CONTINUOUS
 10
12.0111731409
 20
22.2135011491
 11
22.0058772811
 21
22.2105496146
  0
LINE
  5
41B
100
AcDbEntity
  8
RACCORDO
100
AcDbLine
 62
250
  6
CONTINUOUS
 10
-24.2080530216
 20
20.0078943492
 11
-24.1662345089
 21
20.0077988213
  0
LINE
  5
41C
100
AcDbEntity
  8
RACCORDO
100
AcDbLine
 62
250
  6
CONTINUOUS
 10
-24.1662345089
 20
20.0077988213
 11
-24.1260538794
 21
20.0074635401
  0
LWPOLYLINE
  5
41D
100
AcDbEntity
  8
RACCORDO
100
AcDbPolyline
 62
250
  6
CONTINUOUS
 90
11
 70
0
 10
-24.1260538794
 20
20.0074635401
 10
-24.089279676
 20
20.0069032629
 10
-24.0726836584
 20
20.0065460979
 10
-24.0575304907
 20
20.0061426519
 10
-24.0439873694
 20
20.0056973766
 10
-24.032203729
 20
20.0052151856
 10
-24.0223095886
 20
20.0047013992
 10
-24.0144141165
 20
20.0041616865
 10
-24.0086044303
 20
20.0036020027
 10
-24.0049446336
 20
20.0030285237
 10
-24.0034751073
 20
20.0024475776
  0
LWPOLYLINE
  5
41E
100
AcDbEntity
  8
RACCORDO
100
AcDbPolyline
 62
250
  6
CONTINUOUS
 90
31
 70
0
 10
22.0058772811
 20
22.2105496146
 10
22.1020851642
 20
22.2088853526
 10
22.1996826692
 20
22.2023643683
 10
22.2986696274
 20
22.1909864933
 10
22.3988733564
 20
22.175193552
 10
22.5004660587
 20
22.1545432411
 10
22.6039646883
 20
22.1277089963
 10
22.71035355
 20
22.0944289434
 10
22.8186466216
 20
22.0549632427
 10
22.9264052879
 20
22.0087683032
 10
23.0336217132
 20
21.9555319028
 10
23.1403021017
 20
21.8955646353
 10
23.2440294934
 20
21.8292577275
 10
23.3447624245
 20
21.7561831211
 10
23.442541168
 20
21.676767686
 10
23.5350723195
 20
21.5926859896
 10
23.6220303584
 20
21.5036538673
 10
23.7037406957
 20
21.4099553744
 10
23.7788875356
 20
21.3141186163
 10
23.846908274
 20
21.2165378861
 10
23.908366529
 20
21.1168199028
 10
23.9636366196
 20
21.0163121907
 10
24.0124516963
 20
20.9162341909
 10
24.0550798408
 20
20.8153676921
 10
24.0926974539
 20
20.7114034251
 10
24.1259733288
 20
20.6039434814
 10
24.1542385758
 20
20.4933856732
 10
24.176662438
 20
20.3786136812
 10
24.1929678021
 20
20.2592552048
 10
24.2034314013
 20
20.1356821652
 10
24.2080530216
 20
20.0078943489
  0
LWPOLYLINE
  5
41F
100
AcDbEntity
  8
RACCORDO
100
AcDbPolyline
 62
250
  6
CONTINUOUS
 90
31
 70
0
 10
22.0030064284
 20
22.0027440999
 10
22.0900552056
 20
22.0008345864
 10
22.1787860338
 20
21.9949766223
 10
22.2690071539
 20
21.9849353933
 10
22.3600556174
 20
21.9705626054
 10
22.4521527408
 20
21.9515958309
 10
22.546360244
 20
21.9274498007
 10
22.6431137913
 20
21.8974651289
 10
22.7412227535
 20
21.861435373
 10
22.8392591252
 20
21.819439647
 10
22.9368155492
 20
21.7712806664
 10
23.0334429175
 20
21.7167911647
 10
23.1277554939
 20
21.6564512197
 10
23.219475585
 20
21.5902193537
 10
23.3080876106
 20
21.5182378184
 10
23.3920947332
 20
21.4416630829
 10
23.4712773859
 20
21.3608099225
 10
23.5454473863
 20
21.275990989
 10
23.6135408096
 20
21.1887400869
 10
23.6753277171
 20
21.099958209
 10
23.7312205512
 20
21.0096931528
 10
23.7813502247
 20
20.918329942
 10
23.8254158446
 20
20.8272191829
 10
23.8640996996
 20
20.7358170736
 10
23.898595309
 20
20.6414424556
 10
23.9287760383
 20
20.5437909024
 10
23.9542000167
 20
20.4435249957
 10
23.9748999543
 20
20.3391963138
 10
23.9904240075
 20
20.2304487997
 10
24.0001236247
 20
20.1180940452
 10
24.0034751073
 20
20.0024475774
  0
LINE
  5
420
100
AcDbEntity
  8
RACCORDO
100
AcDbLine
 62
250
  6
CONTINUOUS
 10
-27.7711969581
 20
32.349162563
 11
-27.6237975319
 21
32.3002525865
  0
LINE
  5
421
100
AcDbEntity
  8
RACCORDO
100
AcDbLine
 62
250
  6
CONTINUOUS
 10
-27.8137035824
 20
31.0051451296
 11
-28.4327443557
 21
31.2106745605
  0
LINE
  5
422
100
AcDbEntity
  8
RACCORDO
100
AcDbLine
 62
250
  6
CONTINUOUS
 10
-27.6130696169
 20
31.2066911469
 11
-28.2330170093
 21
31.4125513585
  0
LWPOLYLINE
  5
423
100
AcDbEntity
  8
0
100
AcDbPolyline
 62
7
  6
CONTINUOUS
 90
3
 70
0
 43
0.3500000006
 10
56.8331271057
 20
1.0357133102
 10
57.0474115906
 20
0.9642866592
 10
57.3331272583
 20
0.8214288254
  0
LWPOLYLINE
  5
424
100
AcDbEntity
  8
RACCORDO
100
AcDbPolyline
 62
7
  6
CONTINUOUS
 90
28
 70
0
 10
24.0000000052
 20
19.9997091676
 10
23.9966256883
 20
20.1160283311
 10
23.9864912774
 20
20.2320054402
 10
23.969620308
 20
20.3472476405
 10
23.9460446305
 20
20.4614212006
 10
23.9158413063
 20
20.5740778063
 10
23.8791663474
 20
20.684664996
 10
23.8362296227
 20
20.7926628901
 10
23.7871472719
 20
20.897873156
 10
23.7319463138
 20
21.0002256144
 10
23.6706559135
 20
21.0995515628
 10
23.6035590162
 20
21.1952880048
 10
23.5311003773
 20
21.2867999941
 10
23.453724491
 20
21.3736123073
 10
23.3715655908
 20
21.4556544924
 10
23.2846334936
 20
21.5329163887
 10
23.1929781779
 20
21.6052750338
 10
23.0970910243
 20
21.6722677764
 10
22.9976690302
 20
21.7334150786
 10
22.8952816885
 20
21.788441291
 10
22.7901008535
 20
21.8373265896
 10
22.6822641306
 20
21.8800333294
 10
22.5719870514
 20
21.916460781
 10
22.4597825856
 20
21.9464256325
 10
22.3462371094
 20
21.9697937361
 10
22.2318094463
 20
21.9865147064
 10
22.1168191412
 20
21.9965827996
 10
22.0016527162
 20
22.0
  0
LWPOLYLINE
  5
425
100
AcDbEntity
  8
RACCORDO
100
AcDbPolyline
 62
250
  6
CONTINUOUS
 90
9
 70
0
 10
23.2986890978
 20
-26.0806343515
 10
23.2982721099
 20
-26.0641933087
 10
23.297808481
 20
-26.0494449156
 10
23.2973038035
 20
-26.0365668091
 10
23.2967641543
 20
-26.0257140968
 10
23.2961960219
 20
-26.0170174926
 10
23.2956062513
 20
-26.0105817374
 10
23.2950019616
 20
-26.0064843392
 10
23.2943904426
 20
-26.0047746418
  0
LINE
  5
426
100
AcDbEntity
  8
RACCORDO
100
AcDbLine
 62
250
  6
CONTINUOUS
 10
23.2993635478
 20
-26.1177742452
 11
23.2986890978
 21
-26.0806343515
  0
LINE
  5
427
100
AcDbEntity
  8
RACCORDO
100
AcDbLine
 62
250
  6
CONTINUOUS
 10
23.2997998589
 20
-26.1591101971
 11
23.2993635478
 21
-26.1177742452
  0
LINE
  5
428
100
AcDbEntity
  8
RACCORDO
100
AcDbLine
 62
250
  6
CONTINUOUS
 10
23.2999767986
 20
-26.2027939605
 11
23.2997998589
 21
-26.1591101971
  0
LINE
  5
429
100
AcDbEntity
  8
RACCORDO
100
AcDbLine
 62
250
  6
CONTINUOUS
 10
22.9173027369
 20
-24.0
 11
22.9173027369
 21
20.0
  0
LINE
  5
42A
100
AcDbEntity
  8
RACCORDO
100
AcDbLine
 62
250
  6
CONTINUOUS
 10
23.917150432
 20
-24.0
 11
23.917150432
 21
20.0
  0
LINE
  5
42B
100
AcDbEntity
  8
RACCORDO
100
AcDbLine
 62
250
  6
CONTINUOUS
 10
23.9864939613
 20
20.0
 11
23.9864939613
 21
-24.0
  0
LINE
  5
42C
100
AcDbEntity
  8
DRAFT
100
AcDbLine
 62
7
  6
CONTINUOUS
 10
23.9998400231
 20
-24.7246192828
 11
24.0
 21
-26.0
  0
LINE
  5
42D
100
AcDbEntity
  8
RACCORDO
100
AcDbLine
 62
7
  6
CONTINUOUS
 10
24.0000000165
 20
20.0000936343
 11
24.0000008275
 21
-0.000338389
  0
LINE
  5
42E
100
AcDbEntity
  8
RACCORDO
100
AcDbLine
 62
250
  6
CONTINUOUS
 10
24.0034751072
 20
20.0024475774
 11
24.0034507214
 21
-26.0049189848
  0
LINE
  5
42F
100
AcDbEntity
  8
DRAFT
100
AcDbLine
 62
7
  6
CONTINUOUS
 10
24.0
 20
-0.000338389
 11
23.9998400231
 21
-24.7246192828
  0
LINE
  5
430
100
AcDbEntity
  8
RACCORDO
100
AcDbLine
 62
250
  6
CONTINUOUS
 10
24.2080530216
 20
20.0078943489
 11
24.2096150686
 21
10.3580456185
  0
LINE
  5
431
100
AcDbEntity
  8
RACCORDO
100
AcDbLine
 62
250
  6
CONTINUOUS
 10
24.2096150686
 20
10.3580456185
 11
24.2097379447
 21
-8.9825839603
  0
LINE
  5
432
100
AcDbEntity
  8
RACCORDO
100
AcDbLine
 62
250
  6
CONTINUOUS
 10
24.2097379447
 20
-8.9825839603
 11
24.210459696
 21
-26.2244232792
  0
LINE
  5
433
100
AcDbEntity
  8
RACCORDO
100
AcDbLine
 62
250
  6
CONTINUOUS
 10
23.2993933944
 20
-41.0811955575
 11
23.2999767986
 21
-26.2027939605
  0
LINE
  5
434
100
AcDbEntity
  8
DRAFT
100
AcDbLine
 62
7
  6
CONTINUOUS
 10
27.7704052266
 20
38.2461528125
 11
27.780648901
 21
38.5841284665
  0
LWPOLYLINE
  5
435
100
AcDbEntity
  8
RACCORDO
100
AcDbPolyline
 62
250
  6
CONTINUOUS
 90
4
 70
0
 10
23.2989759476
 20
-41.1270021564
 10
23.2990619671
 20
-41.1245647307
 10
23.2991472896
 20
-41.118713649
 10
23.2993933944
 20
-41.0811955575
  0
LINE
  5
436
100
AcDbEntity
  8
DRAFT
100
AcDbLine
 62
7
  6
CONTINUOUS
 10
28.1106622105
 20
36.2032409093
 11
28.1043864788
 21
36.0153919027
  0
LINE
  5
437
100
AcDbEntity
  8
RACCORDO
100
AcDbLine
 62
7
  6
CONTINUOUS
 10
27.780648901
 20
38.5841284665
 11
27.7944110983
 21
38.9818928173
  0
LINE
  5
438
100
AcDbEntity
  8
RACCORDO
100
AcDbLine
 62
7
  6
CONTINUOUS
 10
27.7944110983
 20
38.9818928173
 11
27.8096104931
 21
39.3667902525
  0
LWPOLYLINE
  5
439
100
AcDbEntity
  8
DRAFT
100
AcDbPolyline
 62
7
  6
CONTINUOUS
 90
17
 70
0
 10
28.1043864788
 20
36.0153919027
 10
28.0970449178
 20
35.8384724699
 10
28.0930179402
 20
35.754978483
 10
28.0887553991
 20
35.675250416
 10
28.0843060926
 20
35.5996069959
 10
28.0796677766
 20
35.5283534612
 10
28.074842695
 20
35.4617778077
 10
28.0698863778
 20
35.4001478268
 10
28.0647968106
 20
35.3437106741
 10
28.0595760077
 20
35.2927001666
 10
28.0542855422
 20
35.2473312108
 10
28.048924584
 20
35.2077884879
 10
28.0434939633
 20
35.1742301404
 10
28.0380577439
 20
35.1467931436
 10
28.0326372805
 20
35.1255884935
 10
28.0272112185
 20
35.1107015529
 10
28.0217795578
 20
35.1021927444
  0
LINE
  5
43A
100
AcDbEntity
  8
RACCORDO
100
AcDbLine
 62
7
  6
CONTINUOUS
 10
27.8096104931
 20
39.3667902525
 11
27.8261498586
 21
39.736656716
  0
LINE
  5
43B
100
AcDbEntity
  8
RACCORDO
100
AcDbLine
 62
7
  6
CONTINUOUS
 10
27.8261498586
 20
39.736656716
 11
27.8393736613
 21
40.0029395902
  0
LINE
  5
43C
100
AcDbEntity
  8
RACCORDO
100
AcDbLine
 62
7
  6
CONTINUOUS
 10
27.8393736613
 20
40.0029395902
 11
27.8532482849
 21
40.2587582197
  0
LINE
  5
43D
100
AcDbEntity
  8
RACCORDO
100
AcDbLine
 62
7
  6
CONTINUOUS
 10
27.8532482849
 20
40.2587582197
 11
27.8677254715
 21
40.5033086519
  0
LINE
  5
43E
100
AcDbEntity
  8
RACCORDO
100
AcDbLine
 62
7
  6
CONTINUOUS
 10
27.8677254715
 20
40.5033086519
 11
27.8839855251
 21
40.7550645284
  0
LWPOLYLINE
  5
43F
100
AcDbEntity
  8
RACCORDO
100
AcDbPolyline
 62
250
  6
CONTINUOUS
 90
16
 70
0
 10
28.2267175506
 20
40.8352664443
 10
28.2288203688
 20
40.8662748609
 10
28.234116269
 20
40.8969019188
 10
28.242548401
 20
40.9268188433
 10
28.2540262477
 20
40.9557044829
 10
28.2684265969
 20
40.9832487565
 10
28.2855948642
 20
41.0091559826
 10
28.3053467519
 20
41.0331480528
 10
28.3274702279
 20
41.0549674175
 10
28.3517278017
 20
41.0743798508
 10
28.3778590736
 20
41.0911769645
 10
28.4055835301
 20
41.1051784452
 10
28.4346035553
 20
41.1162339902
 10
28.4646076259
 20
41.1242249207
 10
28.4952736546
 20
41.1290654558
 10
28.5262724485
 20
41.1307036334
  0
LWPOLYLINE
  5
440
100
AcDbEntity
  8
RACCORDO
100
AcDbPolyline
 62
250
  6
CONTINUOUS
 90
7
 70
0
 10
20.2948657244
 20
-41.076160393
 10
20.2952769804
 20
-41.0736862134
 10
20.2956852392
 20
-41.0677380661
 10
20.2960876571
 20
-41.0583574904
 10
20.2964814349
 20
-41.0456099962
 10
20.2968638237
 20
-41.0295846065
 10
20.2975838236
 20
-40.9881699079
  0
LWPOLYLINE
  5
441
100
AcDbEntity
  8
0
100
AcDbPolyline
 62
7
  6
CONTINUOUS
 90
10
 70
0
 43
0.3500000006
 10
56.6188426208
 20
0.9642866592
 10
56.7616959229
 20
1.0357133102
 10
56.8331271057
 20
1.0357133102
 10
56.9759849396
 20
0.8928577423
 10
56.9759849396
 20
0.8214288254
 10
56.9045537567
 20
0.7499999084
 10
56.8331271057
 20
0.7499999084
 10
56.6902692719
 20
0.8214288254
 10
56.6188426208
 20
0.8928577423
 10
56.6188426208
 20
0.9642866592
  0
LWPOLYLINE
  5
442
100
AcDbEntity
  8
RACCORDO
100
AcDbPolyline
 62
250
  6
CONTINUOUS
 90
19
 70
0
 10
38.2128551055
 20
-40.7485758923
 10
38.2216871514
 20
-40.7828557427
 10
38.2329518576
 20
-40.8166571202
 10
38.2466394236
 20
-40.8497923825
 10
38.2627238574
 20
-40.8820704832
 10
38.2811674003
 20
-40.9133013323
 10
38.3019211093
 20
-40.9432963671
 10
38.3249198777
 20
-40.9718716885
 10
38.3500745905
 20
-40.9988309677
 10
38.377273846
 20
-41.023973239
 10
38.4063731201
 20
-41.0471057939
 10
38.4372569243
 20
-41.0680797908
 10
38.469838847
 20
-41.0867615096
 10
38.5039963395
 20
-41.1030036361
 10
38.5395173351
 20
-41.1166291267
 10
38.5761597409
 20
-41.1274762228
 10
38.6136955037
 20
-41.135425484
 10
38.6519171068
 20
-41.1403860559
 10
38.690590065
 20
-41.1422761204
  0
LWPOLYLINE
  5
443
100
AcDbEntity
  8
RACCORDO
100
AcDbPolyline
 62
250
  6
CONTINUOUS
 90
16
 70
0
 10
28.2337956413
 20
31.4138872372
 10
28.234887441
 20
31.3931097451
 10
28.2381860966
 20
31.3725419037
 10
28.2436549483
 20
31.3524122344
 10
28.2512332233
 20
31.3329443909
 10
28.2608367138
 20
31.3143546669
 10
28.2723587146
 20
31.2968495945
 10
28.285671205
 20
31.2806236585
 10
28.3006262695
 20
31.2658571348
 10
28.3170577449
 20
31.252714081
 10
28.3347830566
 20
31.241340521
 10
28.3536052721
 20
31.2318628075
 10
28.3733152934
 20
31.2243862264
 10
28.3936941442
 20
31.2189938451
 10
28.4145153981
 20
31.2157455797
 10
28.4355477223
 20
31.2146775209
  0
LWPOLYLINE
  5
444
100
AcDbEntity
  8
RACCORDO
100
AcDbPolyline
 62
250
  6
CONTINUOUS
 90
16
 70
0
 10
28.2330166769
 20
31.4125512482
 10
28.2339414553
 20
31.3915246139
 10
28.2370682345
 20
31.3707097153
 10
28.2423623821
 20
31.3503371173
 10
28.2497652587
 20
31.3306324856
 10
28.2591948656
 20
31.3118140887
 10
28.2705467524
 20
31.2940903806
 10
28.2836951773
 20
31.2776576862
 10
28.2984944969
 20
31.2626980316
 10
28.3147807762
 20
31.2493771293
 10
28.3323736114
 20
31.2378425354
 10
28.3510781288
 20
31.2282220169
 10
28.3706871389
 20
31.2206221402
 10
28.3909834334
 20
31.2151270887
 10
28.4117421913
 20
31.2117977309
 10
28.4327334687
 20
31.2106709459
  0
LWPOLYLINE
  5
445
100
AcDbEntity
  8
RACCORDO
100
AcDbPolyline
 62
250
  6
CONTINUOUS
 90
22
 70
0
 10
27.6130696485
 20
31.2066911574
 10
27.6134899938
 20
31.1914259266
 10
27.6150739413
 20
31.176277751
 10
27.617803847
 20
31.1613335084
 10
27.6216490306
 20
31.146699705
 10
27.6265826607
 20
31.1324353717
 10
27.6325982999
 20
31.1185572557
 10
27.6396943381
 20
31.1051025321
 10
27.6478171623
 20
31.0922008617
 10
27.6568704518
 20
31.0799993541
 10
27.6668076653
 20
31.0685445687
 10
27.6775493874
 20
31.057912411
 10
27.6889025846
 20
31.0482502566
 10
27.7006452074
 20
31.0396632586
 10
27.7128033301
 20
31.0320547494
 10
27.7255701695
 20
31.0252887356
 10
27.7389311755
 20
31.019402878
 10
27.7527864858
 20
31.0144707699
 10
27.7672423673
 20
31.0104984812
 10
27.7822937685
 20
31.0075588133
 10
27.7978093837
 20
31.0057492827
 10
27.8137036741
 20
31.0051451601
  0
LINE
  5
446
100
AcDbEntity
  8
RACCORDO
100
AcDbLine
 62
7
  6
CONTINUOUS
 10
27.7521602635
 20
33.4828855148
 11
27.761764194
 21
33.1392165127
  0
LINE
  5
447
100
AcDbEntity
  8
RACCORDO
100
AcDbLine
 62
7
  6
CONTINUOUS
 10
27.7617642006
 20
33.1392162833
 11
27.7636943358
 21
33.063587864
  0
LWPOLYLINE
  5
448
100
AcDbEntity
  8
RACCORDO
100
AcDbPolyline
 62
250
  6
CONTINUOUS
 90
10
 70
0
 10
28.5344374271
 20
40.9832066543
 10
28.5338009086
 20
41.0117019639
 10
28.5330851089
 20
41.0375742211
 10
28.5322965039
 20
41.0607005235
 10
28.5314348813
 20
41.0808919077
 10
28.5305046987
 20
41.0979008202
 10
28.5295195558
 20
41.1115240969
 10
28.5284858019
 20
41.1216080673
 10
28.5274024766
 20
41.128034458
 10
28.5262724484
 20
41.1307036334
  0
LINE
  5
449
100
AcDbEntity
  8
RACCORDO
100
AcDbLine
 62
7
  6
CONTINUOUS
 10
27.74424473
 20
33.8447266464
 11
27.7521602635
 21
33.4828855148
  0
LINE
  5
44A
100
AcDbEntity
  8
RACCORDO
100
AcDbLine
 62
7
  6
CONTINUOUS
 10
27.7636943358
 20
33.063587864
 11
27.76538691
 21
32.9767677906
  0
LINE
  5
44B
100
AcDbEntity
  8
RACCORDO
100
AcDbLine
 62
7
  6
CONTINUOUS
 10
27.4620211241
 20
40.847453237
 11
27.4904521453
 21
39.25
  0
LINE
  5
44C
100
AcDbEntity
  8
RACCORDO
100
AcDbLine
 62
7
  6
CONTINUOUS
 10
27.7380351904
 20
34.2227592499
 11
27.74424473
 21
33.8447266464
  0
LINE
  5
44D
100
AcDbEntity
  8
RACCORDO
100
AcDbLine
 62
250
  6
CONTINUOUS
 10
28.5354630115
 20
40.9193255806
 11
28.5344374271
 21
40.9832066543
  0
LINE
  5
44E
100
AcDbEntity
  8
DRAFT
100
AcDbLine
 62
7
  6
CONTINUOUS
 10
28.1192574594
 20
37.5632397597
 11
28.1220434215
 21
37.3863279724
  0
LINE
  5
44F
100
AcDbEntity
  8
RACCORDO
100
AcDbLine
 62
7
  6
CONTINUOUS
 10
27.460821803
 20
40.9529118238
 11
27.4620211241
 21
40.847453237
  0
LINE
  5
450
100
AcDbEntity
  8
RACCORDO
100
AcDbLine
 62
250
  6
CONTINUOUS
 10
28.5361457437
 20
40.8468267889
 11
28.5354630115
 21
40.9193255806
  0
LWPOLYLINE
  5
451
100
AcDbEntity
  8
RACCORDO
100
AcDbPolyline
 62
7
  6
CONTINUOUS
 90
3
 70
0
 10
27.7320471986
 20
34.8158715335
 10
27.7336020332
 20
34.6150609538
 10
27.7380351904
 20
34.2227592499
  0
LWPOLYLINE
  5
452
100
AcDbEntity
  8
RACCORDO
100
AcDbPolyline
 62
250
  6
CONTINUOUS
 90
15
 70
0
 10
28.2343864723
 20
40.7062459875
 10
28.2342714962
 20
40.721824056
 10
28.2340832056
 20
40.7366142835
 10
28.2338197634
 20
40.7506743553
 10
28.2334829746
 20
40.763946764
 10
28.233078283
 20
40.7762588304
 10
28.2326051011
 20
40.7876282485
 10
28.2320639836
 20
40.7980375063
 10
28.2314620838
 20
40.8072611419
 10
28.2307969697
 20
40.8152978294
 10
28.2300710436
 20
40.8221490599
 10
28.229298707
 20
40.8275936111
 10
28.2284847532
 20
40.8315577829
 10
28.2276243695
 20
40.8341153843
 10
28.2267175506
 20
40.8352664443
  0
LINE
  5
453
100
AcDbEntity
  8
RACCORDO
100
AcDbLine
 62
7
  6
CONTINUOUS
 10
27.76538691
 20
32.9767677906
 11
27.771199439
 21
32.3491644458
  0
LINE
  5
454
100
AcDbEntity
  8
DRAFT
100
AcDbLine
 62
7
  6
CONTINUOUS
 10
28.1220434215
 20
37.3863279724
 11
28.1234888378
 21
37.1984397818
  0
LINE
  5
455
100
AcDbEntity
  8
DRAFT
100
AcDbLine
 62
7
  6
CONTINUOUS
 10
27.7320471986
 20
34.8158715335
 11
27.7305101193
 21
35.1531508159
  0
LINE
  5
456
100
AcDbEntity
  8
RACCORDO
100
AcDbLine
 62
250
  6
CONTINUOUS
 10
28.5541759703
 20
31.5645242268
 11
28.5361457437
 21
40.8468267889
  0
LINE
  5
457
100
AcDbEntity
  8
DRAFT
100
AcDbLine
 62
7
  6
CONTINUOUS
 10
27.55
 20
35.15
 11
27.55
 21
33.65
  0
LINE
  5
458
100
AcDbEntity
  8
RACCORDO
100
AcDbLine
 62
7
  6
CONTINUOUS
 10
27.55
 20
33.65
 11
27.55
 21
33.4131080123
  0
LINE
  5
459
100
AcDbEntity
  8
RACCORDO
100
AcDbLine
 62
7
  6
CONTINUOUS
 10
27.5501383875
 20
30.7
 11
27.5501386097
 21
33.0290781048
  0
LINE
  5
45A
100
AcDbEntity
  8
DRAFT
100
AcDbLine
 62
7
  6
CONTINUOUS
 10
27.55
 20
41.2159709216
 11
27.55
 21
38.25
  0
LINE
  5
45B
100
AcDbEntity
  8
RACCORDO
100
AcDbLine
 62
250
  6
CONTINUOUS
 10
27.8137035824
 20
30.7051908211
 11
27.8137035826
 21
31.0051451296
  0
LINE
  5
45C
100
AcDbEntity
  8
RACCORDO
100
AcDbLine
 62
250
  6
CONTINUOUS
 10
28.233800886
 20
31.4138996861
 11
28.2343864723
 21
40.7062459875
  0
LINE
  5
45D
100
AcDbEntity
  8
DRAFT
100
AcDbLine
 62
7
  6
CONTINUOUS
 10
28.1234888378
 20
37.1984397818
 11
28.1235787876
 21
37.0025841798
  0
LINE
  5
45E
100
AcDbEntity
  8
DRAFT
100
AcDbLine
 62
7
  6
CONTINUOUS
 10
27.466172082
 20
33.65
 11
27.4813652398
 21
37.3119912598
  0
LINE
  5
45F
100
AcDbEntity
  8
DRAFT
100
AcDbLine
 62
7
  6
CONTINUOUS
 10
27.4813652398
 20
37.3119912598
 11
27.4904521453
 21
39.25
  0
LWPOLYLINE
  5
460
100
AcDbEntity
  8
RACCORDO
100
AcDbPolyline
 62
7
  6
CONTINUOUS
 90
7
 70
0
 10
27.5501386097
 20
33.0290781048
 10
27.5503160181
 20
33.0557352418
 10
27.5508485345
 20
33.0823944012
 10
27.5517363687
 20
33.1090508361
 10
27.552979667
 20
33.1356997928
 10
27.5545785125
 20
33.1623365119
 10
27.5565329242
 20
33.1889562289
  0
LINE
  5
461
100
AcDbEntity
  8
DRAFT
100
AcDbLine
 62
7
  6
CONTINUOUS
 10
28.1235787876
 20
37.0025841798
 11
28.1223046091
 21
36.8019207866
  0
LINE
  5
462
100
AcDbEntity
  8
RACCORDO
100
AcDbLine
 62
250
  6
CONTINUOUS
 10
27.6237975323
 20
32.3002525863
 11
27.6130696169
 21
31.2066911469
  0
LINE
  5
463
100
AcDbEntity
  8
DRAFT
100
AcDbLine
 62
7
  6
CONTINUOUS
 10
28.1223046091
 20
36.8019207866
 11
28.1197012176
 21
36.5996629289
  0
LWPOLYLINE
  5
464
100
AcDbEntity
  8
RACCORDO
100
AcDbPolyline
 62
7
  6
CONTINUOUS
 90
9
 70
0
 10
27.8905720099
 20
40.9478079374
 10
27.8901180658
 20
40.9220951726
 10
27.8895538846
 20
40.8964111485
 10
27.8888794663
 20
40.8709529554
 10
27.8880860304
 20
40.8458487867
 10
27.8871823573
 20
40.8213817558
 10
27.8861947886
 20
40.7979619151
 10
27.8851321047
 20
40.7758263864
 10
27.8839855251
 20
40.7550645284
  0
LINE
  5
465
100
AcDbEntity
  8
DRAFT
100
AcDbLine
 62
7
  6
CONTINUOUS
 10
28.1197012176
 20
36.5996629289
 11
28.1158001752
 21
36.3990403386
  0
LINE
  5
466
100
AcDbEntity
  8
DRAFT
100
AcDbLine
 62
7
  6
CONTINUOUS
 10
28.1158001752
 20
36.3990403386
 11
28.1106622105
 21
36.2032409093
  0
LWPOLYLINE
  5
467
100
AcDbEntity
  8
RACCORDO
100
AcDbPolyline
 62
250
  6
CONTINUOUS
 90
3
 70
0
 10
39.4777487397
 20
30.7728297567
 10
39.4628356357
 20
30.7278983472
 10
39.4551908211
 20
30.7051908211
  0
LINE
  5
468
100
AcDbEntity
  8
RACCORDO
100
AcDbLine
 62
250
  6
CONTINUOUS
 10
39.554788126
 20
31.0040043115
 11
39.4777487397
 21
30.7728297567
  0
LINE
  5
469
100
AcDbEntity
  8
RACCORDO
100
AcDbLine
 62
250
  6
CONTINUOUS
 10
39.5551755906
 20
31.0051451296
 11
39.554788126
 21
31.0040043115
  0
LWPOLYLINE
  5
46A
100
AcDbEntity
  8
0
100
AcDbPolyline
 62
7
  6
CONTINUOUS
 90
34
 70
0
 10
4.9829090667
 20
30.9491138137
 10
5.0086053967
 20
30.9500180292
 10
5.0343559422
 20
30.9516080852
 10
5.0600713797
 20
30.9539167912
 10
5.0856076691
 20
30.9569674506
 10
5.1109403768
 20
30.9607936443
 10
5.1361628237
 20
30.9654579094
 10
5.1612012196
 20
30.9710063969
 10
5.1859673258
 20
30.9774824839
 10
5.2105251378
 20
30.9849785478
 10
5.234842261
 20
30.9935800551
 10
5.2587647449
 20
31.0033357795
 10
5.2821659323
 20
31.0142985433
 10
5.304978418
 20
31.0265503851
 10
5.3270694583
 20
31.0401436593
 10
5.3482266284
 20
31.0550638302
 10
5.3683441351
 20
31.0713410043
 10
5.387365873
 20
31.088963636
 10
5.4051867891
 20
31.1077735201
 10
5.4217453552
 20
31.1276337825
 10
5.4370104654
 20
31.1484427315
 10
5.4509346828
 20
31.1700823248
 10
5.4634722965
 20
31.1924360669
 10
5.4745822915
 20
31.2153955747
 10
5.4842348905
 20
31.238860351
 10
5.4924748655
 20
31.2627322069
 10
5.4993946441
 20
31.2869449367
 10
5.5050892982
 20
31.3114641133
 10
5.5096367559
 20
31.3362058508
 10
5.5131187505
 20
31.3611086625
 10
5.51561969
 20
31.3861759362
 10
5.5172105885
 20
31.411361831
 10
5.5179592623
 20
31.4365696772
 10
5.5179372054
 20
31.4617270348
  0
LINE
  5
46B
100
AcDbEntity
  8
RACCORDO
100
AcDbLine
 62
250
  6
CONTINUOUS
 10
-32.756537265
 20
31.203807096
 11
-39.7358592942
 21
31.1858288332
  0
LINE
  5
46C
100
AcDbEntity
  8
RACCORDO
100
AcDbLine
 62
250
  6
CONTINUOUS
 10
-28.4327443557
 20
31.2106745605
 11
-32.756537265
 21
31.203807096
  0
LINE
  5
46D
100
AcDbEntity
  8
0
100
AcDbLine
 62
7
  6
CONTINUOUS
 10
6.3293691418
 20
29.1174362133
 11
5.666865356
 21
29.1174362133
  0
LINE
  5
46E
100
AcDbEntity
  8
0
100
AcDbLine
 62
7
  6
CONTINUOUS
 10
4.612129637
 20
29.1174362133
 11
3.9261443912
 21
29.1174362133
  0
LINE
  5
46F
100
AcDbEntity
  8
0
100
AcDbLine
 62
7
  6
CONTINUOUS
 10
3.723892
 20
29.117436
 11
2.997971
 21
29.117436
  0
LINE
  5
470
100
AcDbEntity
  8
0
100
AcDbLine
 62
7
  6
CONTINUOUS
 10
1.691521
 20
29.117436
 11
1.010237
 21
29.117436
  0
LINE
  5
471
100
AcDbEntity
  8
0
100
AcDbLine
 62
7
  6
CONTINUOUS
 10
0.902084
 20
29.117436
 11
0.228297
 21
29.117436
  0
LINE
  5
472
100
AcDbEntity
  8
0
100
AcDbLine
 62
7
  6
CONTINUOUS
 10
-0.732142
 20
29.117436
 11
-0.82874
 21
29.117436
  0
LINE
  5
473
100
AcDbEntity
  8
0
100
AcDbLine
 62
7
  6
CONTINUOUS
 10
-1.785368
 20
29.117436
 11
-2.444284
 21
29.117436
  0
LINE
  5
474
100
AcDbEntity
  8
0
100
AcDbLine
 62
7
  6
CONTINUOUS
 10
-2.815064
 20
29.117436
 11
-3.50382
 21
29.117436
  0
LINE
  5
475
100
AcDbEntity
  8
0
100
AcDbLine
 62
7
  6
CONTINUOUS
 10
-4.820044
 20
29.117436
 11
-5.427011
 21
29.117436
  0
LINE
  5
476
100
AcDbEntity
  8
0
100
AcDbLine
 62
7
  6
CONTINUOUS
 10
2.819547
 20
29.776154
 11
1.881575
 21
29.776154
  0
LINE
  5
477
100
AcDbEntity
  8
0
100
AcDbLine
 62
7
  6
CONTINUOUS
 10
2.022464
 20
30.285868
 11
2.681899
 21
30.285868
  0
LINE
  5
478
100
AcDbEntity
  8
0
100
AcDbLine
 62
7
  6
CONTINUOUS
 10
4.9814244644
 20
30.4087185688
 11
4.612129637
 21
30.4087185688
  0
LINE
  5
479
100
AcDbEntity
  8
RACCORDO
100
AcDbLine
 62
7
  6
CONTINUOUS
 10
38.9462892409
 20
30.6999998888
 11
27.5501383875
 21
30.7
  0
LINE
  5
47A
100
AcDbEntity
  8
RACCORDO
100
AcDbLine
 62
7
  6
CONTINUOUS
 10
-27.5501383875
 20
30.7
 11
-38.9462892409
 21
30.6999999939
  0
LINE
  5
47B
100
AcDbEntity
  8
RACCORDO
100
AcDbLine
 62
250
  6
CONTINUOUS
 10
-39.4551908211
 20
30.7051908211
 11
-27.8137035824
 21
30.7051908211
  0
LINE
  5
47C
100
AcDbEntity
  8
RACCORDO
100
AcDbLine
 62
250
  6
CONTINUOUS
 10
27.8137035824
 20
30.7051908211
 11
39.4551908211
 21
30.7051908211
  0
LINE
  5
47D
100
AcDbEntity
  8
0
100
AcDbLine
 62
7
  6
CONTINUOUS
 10
4.5892915047
 20
30.9491138137
 11
4.9829090667
 21
30.9491138137
  0
LINE
  5
47E
100
AcDbEntity
  8
RACCORDO
100
AcDbLine
 62
250
  6
CONTINUOUS
 10
-39.5551755906
 20
31.0051451296
 11
-27.8137035824
 21
31.0051451296
  0
LINE
  5
47F
100
AcDbEntity
  8
RACCORDO
100
AcDbLine
 62
250
  6
CONTINUOUS
 10
27.8137035824
 20
31.0051451296
 11
39.5551755906
 21
31.0051451296
  0
LINE
  5
480
100
AcDbEntity
  8
RACCORDO
100
AcDbLine
 62
250
  6
CONTINUOUS
 10
28.4327459948
 20
31.2106751047
 11
32.1604860234
 21
31.2049470288
  0
LINE
  5
481
100
AcDbEntity
  8
RACCORDO
100
AcDbLine
 62
250
  6
CONTINUOUS
 10
32.1604860234
 20
31.2049470288
 11
34.0056009616
 21
31.2012004202
  0
LINE
  5
482
100
AcDbEntity
  8
RACCORDO
100
AcDbLine
 62
250
  6
CONTINUOUS
 10
34.0056009616
 20
31.2012004202
 11
35.3221731674
 21
31.1981583128
  0
LINE
  5
483
100
AcDbEntity
  8
RACCORDO
100
AcDbLine
 62
250
  6
CONTINUOUS
 10
35.3221731674
 20
31.1981583128
 11
38.1838465744
 21
31.1905138668
  0
LINE
  5
484
100
AcDbEntity
  8
RACCORDO
100
AcDbLine
 62
250
  6
CONTINUOUS
 10
38.1838465744
 20
31.1905138668
 11
39.7358592942
 21
31.1858288332
  0
LWPOLYLINE
  5
485
100
AcDbEntity
  8
RACCORDO
100
AcDbPolyline
 62
7
  6
CONTINUOUS
 90
19
 70
0
 10
38.9462905949
 20
30.6999999218
 10
38.9831122949
 20
30.6993854235
 10
39.019031599
 20
30.6974991262
 10
39.0540486586
 20
30.6943407034
 10
39.0884495422
 20
30.6898702075
 10
39.1219484432
 20
30.6841270227
 10
39.1536878312
 20
30.6772295521
 10
39.1835136582
 20
30.6691725236
 10
39.2115804998
 20
30.6599601074
 10
39.2374939277
 20
30.649724529
 10
39.2612401913
 20
30.6384696847
 10
39.2828335508
 20
30.6261906263
 10
39.3019216494
 20
30.6130061997
 10
39.318526618
 20
30.5988469784
 10
39.3326267511
 20
30.5837815181
 10
39.343803958
 20
30.5681355998
 10
39.3519189766
 20
30.5520176102
 10
39.3571113429
 20
30.5353186049
 10
39.3593811293
 20
30.5180384363
  0
LINE
  5
486
100
AcDbEntity
  8
0
100
AcDbLine
 62
7
  6
CONTINUOUS
 10
5.6969038097
 20
30.6576616347
 11
5.729699939
 21
30.6427008601
  0
LWPOLYLINE
  5
487
100
AcDbEntity
  8
0
100
AcDbPolyline
 62
7
  6
CONTINUOUS
 90
24
 70
0
 10
5.729699939
 20
30.6427008601
 10
5.7601800641
 20
30.6252003791
 10
5.7884871485
 20
30.605534159
 10
5.8148373429
 20
30.5839770798
 10
5.8392704935
 20
30.5609069438
 10
5.8616928469
 20
30.5368652078
 10
5.882121745
 20
30.5123325138
 10
5.900844592
 20
30.4874331872
 10
5.9181659555
 20
30.4621428581
 10
5.9341829949
 20
30.4366450617
 10
5.9489811492
 20
30.4111140181
 10
5.9627849322
 20
30.3854294927
 10
5.9756727617
 20
30.3596684338
 10
5.9876748313
 20
30.3339867079
 10
5.9989042557
 20
30.3083430852
 10
6.0093953746
 20
30.2828423757
 10
6.0191918177
 20
30.2575579948
 10
6.0283952985
 20
30.2323867533
 10
6.0370299707
 20
30.2074048014
 10
6.0451190379
 20
30.1826877543
 10
6.0527625584
 20
30.1580902408
 10
6.0600574836
 20
30.1335100963
 10
6.0670671792
 20
30.1089671337
 10
6.0738722546
 20
30.0844330059
  0
LWPOLYLINE
  5
488
100
AcDbEntity
  8
0
100
AcDbPolyline
 62
7
  6
CONTINUOUS
 90
10
 70
0
 43
0.3500000006
 10
0.9642857051
 20
62.5351452026
 10
1.035714268
 20
62.3922919006
 10
1.035714268
 20
62.3208607178
 10
0.8928571422
 20
62.1780074158
 10
0.8214285793
 20
62.1780074158
 10
0.7500000165
 20
62.2494385986
 10
0.7500000165
 20
62.3208607178
 10
0.8214285793
 20
62.4637230835
 10
0.8928571422
 20
62.5351452026
 10
0.9642857051
 20
62.5351452026
  0
LWPOLYLINE
  5
489
100
AcDbEntity
  8
RACCORDO
100
AcDbPolyline
 62
250
  6
CONTINUOUS
 90
17
 70
0
 10
27.7711969585
 20
32.3491625628
 10
27.7678040705
 20
32.3798801428
 10
27.7625277881
 20
32.4103336149
 10
27.7554140892
 20
32.4404022077
 10
27.7465001644
 20
32.4700078853
 10
27.7358562131
 20
32.4990019832
 10
27.7236090557
 20
32.5271722295
 10
27.7098780702
 20
32.5543827862
 10
27.6947355146
 20
32.5806016559
 10
27.6782583927
 20
32.6057884008
 10
27.6605452966
 20
32.6298709277
 10
27.6416871565
 20
32.6527957772
 10
27.6217382455
 20
32.6745532973
 10
27.6007730191
 20
32.6951080053
 10
27.5788965708
 20
32.7143991789
 10
27.5562035164
 20
32.7323841998
 10
27.5501396154
 20
32.7366959361
  0
LWPOLYLINE
  5
48A
100
AcDbEntity
  8
RACCORDO
100
AcDbPolyline
 62
250
  6
CONTINUOUS
 90
19
 70
0
 10
38.5361972136
 20
-40.7437296181
 10
38.5391128469
 20
-40.7780931486
 10
38.542782025
 20
-40.8120057076
 10
38.547205302
 20
-40.8452793843
 10
38.5523985718
 20
-40.8777232868
 10
38.5583514607
 20
-40.9091455981
 10
38.5650273686
 20
-40.939354605
 10
38.5724692684
 20
-40.9681637507
 10
38.5806490794
 20
-40.9953772239
 10
38.5894264768
 20
-41.0207954774
 10
38.5988164967
 20
-41.0442237032
 10
38.6088300851
 20
-41.0655107359
 10
38.6193228646
 20
-41.0845234963
 10
38.6303427534
 20
-41.1011120805
 10
38.6418759189
 20
-41.1150966545
 10
38.6536879457
 20
-41.1263154723
 10
38.665716189
 20
-41.1346466315
 10
38.6780688811
 20
-41.1399945226
 10
38.6907706955
 20
-41.1422734486
  0
LINE
  5
48B
100
AcDbEntity
  8
RACCORDO
100
AcDbLine
 62
250
  6
CONTINUOUS
 10
33.75
 20
-41.2931574806
 11
33.75
 21
-41.1310794779
  0
LWPOLYLINE
  5
48C
100
AcDbEntity
  8
0
100
AcDbPolyline
 62
7
  6
CONTINUOUS
 90
25
 70
0
 10
3.9261443912
 20
32.3784889284
 10
3.9967247082
 20
32.3886629733
 10
4.0672521553
 20
32.398366336
 10
4.1377162834
 20
32.4075324503
 10
4.2080480057
 20
32.4160888968
 10
4.2782957979
 20
32.4239791901
 10
4.348626425
 20
32.4311570906
 10
4.4190490358
 20
32.4375557345
 10
4.4895358321
 20
32.4431046495
 10
4.5601991174
 20
32.4477424911
 10
4.631041543
 20
32.4513959919
 10
4.7020420897
 20
32.4539897515
 10
4.773277828
 20
32.4554495434
 10
4.8448141879
 20
32.4556944024
 10
4.9165667878
 20
32.4546401211
 10
4.9883878268
 20
32.4522094004
 10
5.0602106275
 20
32.4483298532
 10
5.1320821793
 20
32.4429238019
 10
5.2039960479
 20
32.4358721431
 10
5.2758789824
 20
32.4269057923
 10
5.3474898525
 20
32.4157369067
 10
5.4184795503
 20
32.4021067072
 10
5.4886228234
 20
32.3857531917
 10
5.5578144173
 20
32.366391564
 10
5.625890332
 20
32.343749234
  0
LWPOLYLINE
  5
48D
100
AcDbEntity
  8
RACCORDO
100
AcDbPolyline
 62
250
  6
CONTINUOUS
 90
22
 70
0
 10
-39.7886242209
 20
31.5246087908
 10
-39.8263243703
 20
31.5228687434
 10
-39.8631827833
 20
31.5185635504
 10
-39.899199361
 20
31.5116931131
 10
-39.9344567902
 20
31.5022012594
 10
-39.9688721443
 20
31.4901439223
 10
-40.0021969293
 20
31.4756891854
 10
-40.0345393111
 20
31.4587695231
 10
-40.065790907
 20
31.4394522447
 10
-40.0953785291
 20
31.4181078165
 10
-40.123194849
 20
31.3947966734
 10
-40.1493471636
 20
31.369458349
 10
-40.1735843624
 20
31.3422820961
 10
-40.195928017
 20
31.3133473466
 10
-40.216356579
 20
31.2825746918
 10
-40.2345543232
 20
31.2499151897
 10
-40.2506458643
 20
31.2150556072
 10
-40.2645065936
 20
31.1783091834
 10
-40.2754471314
 20
31.1405668652
 10
-40.2832378558
 20
31.1021258057
 10
-40.2881087208
 20
31.0626891832
 10
-40.2900598515
 20
31.0222571226
  0
LWPOLYLINE
  5
48E
100
AcDbEntity
  8
RACCORDO
100
AcDbPolyline
 62
250
  6
CONTINUOUS
 90
22
 70
0
 10
-39.7358593692
 20
31.1858289082
 10
-39.7507150997
 20
31.1851604368
 10
-39.7653885454
 20
31.1833977553
 10
-39.7798007683
 20
31.1805737245
 10
-39.7938389687
 20
31.1767380176
 10
-39.8074732794
 20
31.1719274358
 10
-39.8207475575
 20
31.166138057
 10
-39.8336372571
 20
31.1593707203
 10
-39.8460220798
 20
31.1516783424
 10
-39.8578016763
 20
31.1431262739
 10
-39.8688799312
 20
31.1337987943
 10
-39.8792443896
 20
31.1237215545
 10
-39.8889149148
 20
31.112868688
 10
-39.8978102266
 20
31.1013098347
 10
-39.9058900846
 20
31.089074899
 10
-39.9131873884
 20
31.0760458145
 10
-39.9196534166
 20
31.0621566609
 10
-39.9251313115
 20
31.0475631913
 10
-39.9294908682
 20
31.0324849915
 10
-39.9326703796
 20
31.0170596707
 10
-39.9346391164
 20
31.0013283127
 10
-39.9353570105
 20
30.9853874715
  0
LWPOLYLINE
  5
48F
100
AcDbEntity
  8
RACCORDO
100
AcDbPolyline
 62
250
  6
CONTINUOUS
 90
6
 70
0
 10
-27.8137035824
 20
30.7051908211
 10
-27.7750566499
 20
30.7067639148
 10
-27.7371658068
 20
30.7111176188
 10
-27.7000310531
 20
30.718251933
 10
-27.6635020753
 20
30.7282244206
 10
-27.6277291869
 20
30.7409775185
  0
LWPOLYLINE
  5
490
100
AcDbEntity
  8
RACCORDO
100
AcDbPolyline
 62
250
  6
CONTINUOUS
 90
22
 70
0
 10
-27.8137036747
 20
31.0051451603
 10
-27.7983227924
 20
31.0057100052
 10
-27.78307717
 20
31.0074380032
 10
-27.7680539649
 20
31.0103094397
 10
-27.7533597233
 20
31.0142910537
 10
-27.7390532144
 20
31.0193543618
 10
-27.7251509136
 20
31.0254925455
 10
-27.7116892473
 20
31.0327027541
 10
-27.6987978097
 20
31.0409291983
 10
-27.6866242419
 20
31.0500741382
 10
-27.6752131638
 20
31.0600905293
 10
-27.6646402995
 20
31.0708966799
 10
-27.6550547123
 20
31.0822951201
 10
-27.646559736
 20
31.0940595395
 10
-27.6390549131
 20
31.106217582
 10
-27.6324026618
 20
31.1189665123
 10
-27.6266395542
 20
31.1322891301
 10
-27.6218361103
 20
31.1460867265
 10
-27.6179966439
 20
31.1604757615
 10
-27.6151943322
 20
31.175454638
 10
-27.6135268848
 20
31.1908883786
 10
-27.6130696475
 20
31.206691157
  0
LINE
  5
491
100
AcDbEntity
  8
DRAFT
100
AcDbLine
 62
7
  6
CONTINUOUS
 10
27.55
 20
35.15
 11
28.0403891209
 21
35.1585597739
  0
LINE
  5
492
100
AcDbEntity
  8
RACCORDO
100
AcDbLine
 62
250
  6
CONTINUOUS
 10
-27.55013879
 20
32.3010035696
 11
-27.6237975319
 21
32.3002525876
  0
LINE
  5
493
100
AcDbEntity
  8
RACCORDO
100
AcDbLine
 62
250
  6
CONTINUOUS
 10
-27.5501376173
 20
31.2072838304
 11
-27.6130696169
 21
31.2066911469
  0
LINE
  5
494
100
AcDbEntity
  8
RACCORDO
100
AcDbLine
 62
250
  6
CONTINUOUS
 10
-34.7448988636
 20
31.5459213958
 11
-39.7886242209
 21
31.5246087908
  0
LINE
  5
495
100
AcDbEntity
  8
RACCORDO
100
AcDbLine
 62
250
  6
CONTINUOUS
 10
-28.5541795771
 20
31.5645253646
 11
-34.7448988636
 21
31.5459213958
  0
LINE
  5
496
100
AcDbEntity
  8
0
100
AcDbLine
 62
7
  6
CONTINUOUS
 10
-6.473049
 20
32.417039
 11
-5.724847
 21
32.417039
  0
LINE
  5
497
100
AcDbEntity
  8
0
100
AcDbLine
 62
7
  6
CONTINUOUS
 10
-4.447705
 20
32.417039
 11
-3.759419
 21
32.417039
  0
LINE
  5
498
100
AcDbEntity
  8
0
100
AcDbLine
 62
7
  6
CONTINUOUS
 10
-2.146349
 20
32.417039
 11
-1.458162
 21
32.417039
  0
LINE
  5
499
100
AcDbEntity
  8
0
100
AcDbLine
 62
7
  6
CONTINUOUS
 10
-0.087923
 20
32.417039
 11
0.593534
 21
32.417039
  0
LINE
  5
49A
100
AcDbEntity
  8
0
100
AcDbLine
 62
7
  6
CONTINUOUS
 10
2.045203
 20
32.417039
 11
2.711492
 21
32.417039
  0
LINE
  5
49B
100
AcDbEntity
  8
0
100
AcDbLine
 62
7
  6
CONTINUOUS
 10
-3.50382
 20
32.417237
 11
-2.815064
 21
32.417237
  0
LINE
  5
49C
100
AcDbEntity
  8
DRAFT
100
AcDbLine
 62
7
  6
CONTINUOUS
 10
-27.55
 20
33.65
 11
-27.466172082
 21
33.65
  0
LINE
  5
49D
100
AcDbEntity
  8
DRAFT
100
AcDbLine
 62
7
  6
CONTINUOUS
 10
27.55
 20
33.65
 11
27.466172082
 21
33.65
  0
LINE
  5
49E
100
AcDbEntity
  8
RACCORDO
100
AcDbLine
 62
250
  6
CONTINUOUS
 10
28.5541759703
 20
31.5645242268
 11
31.6899048668
 21
31.5562026946
  0
LINE
  5
49F
100
AcDbEntity
  8
RACCORDO
100
AcDbLine
 62
250
  6
CONTINUOUS
 10
31.6899048668
 20
31.5562026946
 11
35.4108319531
 21
31.5434258034
  0
LINE
  5
4A0
100
AcDbEntity
  8
RACCORDO
100
AcDbLine
 62
250
  6
CONTINUOUS
 10
35.4108319531
 20
31.5434258034
 11
36.7916831165
 21
31.537933474
  0
LINE
  5
4A1
100
AcDbEntity
  8
RACCORDO
100
AcDbLine
 62
250
  6
CONTINUOUS
 10
36.7916831165
 20
31.537933474
 11
39.7886242209
 21
31.5246087908
  0
LINE
  5
4A2
100
AcDbEntity
  8
RACCORDO
100
AcDbLine
 62
250
  6
CONTINUOUS
 10
27.5501376173
 20
31.2072838272
 11
27.6130696484
 21
31.2066911465
  0
LINE
  5
4A3
100
AcDbEntity
  8
RACCORDO
100
AcDbLine
 62
250
  6
CONTINUOUS
 10
27.55013879
 20
32.301003579
 11
27.6237975323
 21
32.3002525863
  0
LWPOLYLINE
  5
4A4
100
AcDbEntity
  8
RACCORDO
100
AcDbPolyline
 62
250
  6
CONTINUOUS
 90
19
 70
0
 10
40.2900598489
 20
31.0222577452
 10
40.2613854677
 20
31.0226821459
 10
40.2324684642
 20
31.022759517
 10
40.2035779129
 20
31.0224891385
 10
40.1749826422
 20
31.0218735263
 10
40.1469487328
 20
31.0209184087
 10
40.1197370418
 20
31.019632673
 10
40.0936007757
 20
31.0180282833
 10
40.068783134
 20
31.0161201683
 10
40.0455150464
 20
31.0139260833
 10
40.0240130239
 20
31.0114664443
 10
40.0044771442
 20
31.0087641384
 10
39.9870891898
 20
31.0058443106
 10
39.9720109568
 20
31.0027341303
 10
39.9593827491
 20
30.9994625378
 10
39.949322073
 20
30.9960599754
 10
39.9419225438
 20
30.9925581042
 10
39.9372530147
 20
30.9889895094
 10
39.9353569359
 20
30.9853873969
  0
LINE
  5
4A5
100
AcDbEntity
  8
DRAFT
100
AcDbLine
 62
7
  6
CONTINUOUS
 10
-27.55
 20
35.15
 11
-28.0403891225
 21
35.158559774
  0
LWPOLYLINE
  5
4A6
100
AcDbEntity
  8
RACCORDO
100
AcDbPolyline
 62
250
  6
CONTINUOUS
 90
22
 70
0
 10
39.7886242209
 20
31.5246087908
 10
39.8265113826
 20
31.5229045222
 10
39.8636739083
 20
31.5185286153
 10
39.9001116782
 20
31.5114809505
 10
39.93598126
 20
31.5016890043
 10
39.9711257936
 20
31.4892250085
 10
40.0050750703
 20
31.4743060293
 10
40.0378437172
 20
31.4568895742
 10
40.0694169063
 20
31.4370179352
 10
40.0992803978
 20
31.4150355069
 10
40.1273629765
 20
31.3909872129
 10
40.1537358134
 20
31.3648280854
 10
40.1780983877
 20
31.336767822
 10
40.200512389
 20
31.3066987957
 10
40.2209161397
 20
31.2747286453
 10
40.2388242247
 20
31.2413901222
 10
40.2541801567
 20
31.2065438246
 10
40.2670406157
 20
31.1703293463
 10
40.277090164
 20
31.1336981585
 10
40.2842238403
 20
31.096967602
 10
40.2885470141
 20
31.0598207432
 10
40.2900598489
 20
31.0222577452
  0
LWPOLYLINE
  5
4A7
100
AcDbEntity
  8
RACCORDO
100
AcDbPolyline
 62
250
  6
CONTINUOUS
 90
22
 70
0
 10
39.7358593734
 20
31.1858289125
 10
39.7507807118
 20
31.1851548466
 10
39.7655762172
 20
31.1833678735
 10
39.7801634578
 20
31.1804883261
 10
39.7944496501
 20
31.1765460907
 10
39.8083714011
 20
31.1715712728
 10
39.8218918496
 20
31.1655846338
 10
39.8349497049
 20
31.1586132895
 10
39.8474603211
 20
31.1507022703
 10
39.8593536393
 20
31.1418995416
 10
39.8705399656
 20
31.1322794887
 10
39.8809892285
 20
31.121876435
 10
39.8907113194
 20
31.1106694749
 10
39.8996627844
 20
31.0986706792
 10
39.9077470273
 20
31.0859674638
 10
39.9148882951
 20
31.0726486432
 10
39.9210484933
 20
31.0587488414
 10
39.9261599659
 20
31.0443758351
 10
39.9301471275
 20
31.029749865
 10
39.9329985551
 20
31.0150081738
 10
39.9347319468
 20
31.0001922136
 10
39.935357
 20
30.9853874609
  0
LWPOLYLINE
  5
4A8
100
AcDbEntity
  8
RACCORDO
100
AcDbPolyline
 62
250
  6
CONTINUOUS
 90
16
 70
0
 10
39.5551755906
 20
31.0051451296
 10
39.5760740585
 20
31.0040437339
 10
39.5967436482
 20
31.000764342
 10
39.6169579869
 20
30.9953428692
 10
39.6364956881
 20
30.9878386912
 10
39.6551427753
 20
30.9783339932
 10
39.6726950255
 20
30.9669328704
 10
39.6889602068
 20
30.9537601878
 10
39.7037601837
 20
30.938960212
 10
39.7169328674
 20
30.9226950316
 10
39.7283339911
 20
30.9051427825
 10
39.73783869
 20
30.8864956961
 10
39.7453428689
 20
30.8669579948
 10
39.7507643423
 20
30.8467436546
 10
39.7540437345
 20
30.8260740623
 10
39.7551451296
 20
30.8051755906
  0
LWPOLYLINE
  5
4A9
100
AcDbEntity
  8
0
100
AcDbPolyline
 62
7
  6
CONTINUOUS
 90
10
 70
0
 10
5.1288527297
 20
31.8743447534
 10
5.0713525302
 20
31.8800558316
 10
5.0130553275
 20
31.8839037563
 10
4.9540447254
 20
31.8858330262
 10
4.8944356025
 20
31.8857881196
 10
4.8342961222
 20
31.8837138897
 10
4.7736482668
 20
31.879546756
 10
4.7125714755
 20
31.8732217272
 10
4.6511367599
 20
31.8648696503
 10
4.5892915047
 20
31.8549191765
  0
LWPOLYLINE
  5
4AA
100
AcDbEntity
  8
0
100
AcDbPolyline
 62
7
  6
CONTINUOUS
 90
61
 70
0
 10
5.625890332
 20
32.343749234
 10
5.6622959604
 20
32.329087873
 10
5.6990962126
 20
32.3112175416
 10
5.7361664002
 20
32.2902215028
 10
5.7732807394
 20
32.2663303042
 10
5.8103937316
 20
32.2396512032
 10
5.8475520894
 20
32.2098729953
 10
5.8845510672
 20
32.1767242543
 10
5.9209536576
 20
32.1401064147
 10
5.9563674294
 20
32.0998791285
 10
5.9906619561
 20
32.0555828346
 10
6.0231117057
 20
32.0075355057
 10
6.052606935
 20
31.9569822569
 10
6.0790238401
 20
31.9038611982
 10
6.1019619011
 20
31.8486401246
 10
6.1206443522
 20
31.7936844873
 10
6.135293467
 20
31.739881983
 10
6.1464608318
 20
31.6869809145
 10
6.1544768053
 20
31.6357350194
 10
6.159766977
 20
31.5867296188
 10
6.162805533
 20
31.5397363133
 10
6.1638905547
 20
31.4942402956
 10
6.1631673887
 20
31.4501947862
 10
6.1607806799
 20
31.4078219875
 10
6.1568589008
 20
31.366977735
 10
6.1515255569
 20
31.3276740038
 10
6.14491473
 20
31.2899706944
 10
6.1371365982
 20
31.2537797204
 10
6.1283161966
 20
31.2191172598
 10
6.118571036
 20
31.1859653364
 10
6.1079737705
 20
31.1541835191
 10
6.096648483
 20
31.1238049734
 10
6.0847195744
 20
31.0948516288
 10
6.072229418
 20
31.0671776881
 10
6.059276792
 20
31.0408020639
 10
6.0459566665
 20
31.0157368077
 10
6.0322653706
 20
30.9918269557
 10
6.0182569957
 20
30.9690499834
 10
6.0040146154
 20
30.9474315393
 10
5.9895516951
 20
30.9268936594
 10
5.9749108145
 20
30.9074121763
 10
5.9601572216
 20
30.8889928042
 10
5.9453298459
 20
30.8715768883
 10
5.9304749684
 20
30.8550708349
 10
5.9156527469
 20
30.8394042369
 10
5.9009229456
 20
30.8245167511
 10
5.8863329232
 20
30.8103459454
 10
5.8719240213
 20
30.796834497
 10
5.857743424
 20
30.7839405327
 10
5.8438516292
 20
30.7716424233
 10
5.8302603226
 20
30.7598837077
 10
5.8169367697
 20
30.7485803631
 10
5.8039734247
 20
30.7377625893
 10
5.7913290034
 20
30.7273627632
 10
5.7787201354
 20
30.7173071209
 10
5.7661139146
 20
30.7078871003
 10
5.7534407117
 20
30.6993361083
 10
5.7402973101
 20
30.6916831098
 10
5.7264870795
 20
30.6851796698
 10
5.7120495088
 20
30.6802249386
 10
5.6969038097
 20
30.6771594118
  0
LINE
  5
4AB
100
AcDbEntity
  8
RACCORDO
100
AcDbLine
 62
7
  6
CONTINUOUS
 10
27.466172082
 20
33.65
 11
27.5565329242
 21
33.1889562289
  0
LWPOLYLINE
  5
4AC
100
AcDbEntity
  8
RACCORDO
100
AcDbPolyline
 62
250
  6
CONTINUOUS
 90
19
 70
0
 10
39.7886242204
 20
31.5246087908
 10
39.7889508598
 20
31.4966588255
 10
39.788813469
 20
31.468613834
 10
39.7882132504
 20
31.4407189342
 10
39.7871554512
 20
31.4132179316
 10
39.7856493184
 20
31.3863511866
 10
39.7837080169
 20
31.3603535148
 10
39.7813485154
 20
31.335452136
 10
39.7785914372
 20
31.311864686
 10
39.7754608802
 20
31.2897973141
 10
39.7719842067
 20
31.2694428863
 10
39.7681918037
 20
31.2509792957
 10
39.764116817
 20
31.2345679061
 10
39.759794837
 20
31.2203520736
 10
39.7552636614
 20
31.2084561415
 10
39.7505629749
 20
31.1989842166
 10
39.7457338962
 20
31.1920189824
 10
39.7408186077
 20
31.1876211145
 10
39.7358600679
 20
31.1858289083
  0
LINE
  5
4AD
100
AcDbEntity
  8
RACCORDO
100
AcDbLine
 62
250
  6
CONTINUOUS
 10
39.3630308062
 20
-32.05606664
 11
39.3724240859
 21
-35.5
  0
LINE
  5
4AE
100
AcDbEntity
  8
RACCORDO
100
AcDbLine
 62
250
  6
CONTINUOUS
 10
39.9353569359
 20
30.9853873969
 11
39.9446793543
 21
25.9215388044
  0
LINE
  5
4AF
100
AcDbEntity
  8
RACCORDO
100
AcDbLine
 62
250
  6
CONTINUOUS
 10
39.9446793543
 20
25.9215388044
 11
39.9502815231
 21
21.0488193241
  0
LINE
  5
4B0
100
AcDbEntity
  8
RACCORDO
100
AcDbLine
 62
250
  6
CONTINUOUS
 10
39.3442399657
 20
-20.4195842212
 11
39.3630308062
 21
-32.05606664
  0
LINE
  5
4B1
100
AcDbEntity
  8
RACCORDO
100
AcDbLine
 62
250
  6
CONTINUOUS
 10
39.9502815231
 20
21.0488193241
 11
39.9536457297
 21
14.7473125337
  0
LINE
  5
4B2
100
AcDbEntity
  8
RACCORDO
100
AcDbLine
 62
250
  6
CONTINUOUS
 10
36.5205683926
 20
-40.8086513684
 11
36.5205683926
 21
-41.308575216
  0
LINE
  5
4B3
100
AcDbEntity
  8
RACCORDO
100
AcDbLine
 62
250
  6
CONTINUOUS
 10
39.3397202837
 20
-0.0001899597
 11
39.3442399657
 21
-20.4195842212
  0
LINE
  5
4B4
100
AcDbEntity
  8
RACCORDO
100
AcDbLine
 62
250
  6
CONTINUOUS
 10
39.4551908211
 20
30.7051908211
 11
39.4551908211
 21
27.9666244401
  0
LINE
  5
4B5
100
AcDbEntity
  8
RACCORDO
100
AcDbLine
 62
250
  6
CONTINUOUS
 10
39.4551908211
 20
-36.5054992138
 11
39.4551908211
 21
-36.8
  0
LINE
  5
4B6
100
AcDbEntity
  8
DRAFT
100
AcDbLine
 62
7
  6
CONTINUOUS
 10
39.5431574806
 20
25.6240705474
 11
39.5431574806
 21
-35.5
  0
LINE
  5
4B7
100
AcDbEntity
  8
RACCORDO
100
AcDbLine
 62
250
  6
CONTINUOUS
 10
39.7551451296
 20
30.8051755906
 11
39.7551451296
 21
-36.8
  0
LINE
  5
4B8
100
AcDbEntity
  8
RACCORDO
100
AcDbLine
 62
250
  6
CONTINUOUS
 10
39.9536457297
 20
14.7473125337
 11
39.955398829
 21
-3.5825403094
  0
LINE
  5
4B9
100
AcDbEntity
  8
RACCORDO
100
AcDbLine
 62
250
  6
CONTINUOUS
 10
38.9462892409
 20
30.6999998888
 11
38.9454625915
 21
24.736905263
  0
LINE
  5
4BA
100
AcDbEntity
  8
RACCORDO
100
AcDbLine
 62
250
  6
CONTINUOUS
 10
38.9462609766
 20
-27.6345558848
 11
38.9455770933
 21
-33.7939444582
  0
LINE
  5
4BB
100
AcDbEntity
  8
RACCORDO
100
AcDbLine
 62
250
  6
CONTINUOUS
 10
39.955398829
 20
-3.5825403094
 11
39.9537597386
 21
-14.3737975309
  0
LINE
  5
4BC
100
AcDbEntity
  8
RACCORDO
100
AcDbLine
 62
250
  6
CONTINUOUS
 10
38.9455770933
 20
-33.7939444582
 11
38.9447848088
 21
-35.5824485534
  0
LINE
  5
4BD
100
AcDbEntity
  8
RACCORDO
100
AcDbLine
 62
250
  6
CONTINUOUS
 10
38.9454625915
 20
24.736905263
 11
38.9462609766
 21
-27.6345558848
  0
LINE
  5
4BE
100
AcDbEntity
  8
RACCORDO
100
AcDbLine
 62
250
  6
CONTINUOUS
 10
39.9537597386
 20
-14.3737975309
 11
39.9508346295
 21
-20.3491765615
  0
LINE
  5
4BF
100
AcDbEntity
  8
RACCORDO
100
AcDbLine
 62
250
  6
CONTINUOUS
 10
39.9508346295
 20
-20.3491765615
 11
39.9467529263
 21
-24.4195453661
  0
LINE
  5
4C0
100
AcDbEntity
  8
RACCORDO
100
AcDbLine
 62
250
  6
CONTINUOUS
 10
39.9467529263
 20
-24.4195453661
 11
39.9406557215
 21
-28.3519870875
  0
LINE
  5
4C1
100
AcDbEntity
  8
RACCORDO
100
AcDbLine
 62
250
  6
CONTINUOUS
 10
39.3593815766
 20
30.5180265248
 11
39.3397202837
 21
-0.0001899597
  0
LINE
  5
4C2
100
AcDbEntity
  8
RACCORDO
100
AcDbLine
 62
250
  6
CONTINUOUS
 10
39.9406557215
 20
-28.3519870875
 11
39.9325115264
 21
-32.234989667
  0
LINE
  5
4C3
100
AcDbEntity
  8
RACCORDO
100
AcDbLine
 62
250
  6
CONTINUOUS
 10
39.9325115264
 20
-32.234989667
 11
39.9282242167
 21
-33.9705575572
  0
LINE
  5
4C4
100
AcDbEntity
  8
RACCORDO
100
AcDbLine
 62
250
  6
CONTINUOUS
 10
39.9282242167
 20
-33.9705575572
 11
39.920420586
 21
-36.8
  0
LWPOLYLINE
  5
4C5
100
AcDbEntity
  8
RACCORDO
100
AcDbPolyline
 62
250
  6
CONTINUOUS
 90
37
 70
0
 10
39.3724240859
 20
-35.5
 10
39.3674089353
 20
-35.7528159159
 10
39.3512393257
 20
-36.0025594817
 10
39.3242950672
 20
-36.2487549327
 10
39.2871353365
 20
-36.4900309169
 10
39.2400846029
 20
-36.7269196224
 10
39.1828327063
 20
-36.9617784517
 10
39.1151482232
 20
-37.195158945
 10
39.0373562516
 20
-37.4255985812
 10
38.9496894913
 20
-37.6523798641
 10
38.8523587114
 20
-37.8750040341
 10
38.7455280848
 20
-38.093137761
 10
38.6294290471
 20
-38.3063389255
 10
38.5043043882
 20
-38.5142003238
 10
38.3703939494
 20
-38.7163593165
 10
38.2279529077
 20
-38.9124585329
 10
38.0772634248
 20
-39.1021368056
 10
37.9186153019
 20
-39.2850550593
 10
37.7522928737
 20
-39.4609045546
 10
37.5786327253
 20
-39.6293490665
 10
37.3979490359
 20
-39.790102552
 10
37.2105002147
 20
-39.9429399819
 10
37.0165154328
 20
-40.0876602089
 10
36.8164651327
 20
-40.2238986196
 10
36.6110026757
 20
-40.3512323028
 10
36.40132634
 20
-40.4690353778
 10
36.1870854807
 20
-40.5776173868
 10
35.9665068305
 20
-40.6777492894
 10
35.7392481404
 20
-40.7692468819
 10
35.5062636543
 20
-40.8513882045
 10
35.2676168953
 20
-40.9238385346
 10
35.0232215568
 20
-40.9862625195
 10
34.7739498799
 20
-41.0380773916
 10
34.5213701816
 20
-41.0787056622
 10
34.2663571414
 20
-41.1078620851
 10
34.009056014
 20
-41.1253883642
 10
33.75
 20
-41.1310794779
  0
LWPOLYLINE
  5
4C6
100
AcDbEntity
  8
RACCORDO
100
AcDbPolyline
 62
250
  6
CONTINUOUS
 90
37
 70
0
 10
38.9447848088
 20
-35.5824485534
 10
38.938856092
 20
-35.8143081313
 10
38.9234547965
 20
-36.0425784965
 10
38.8985780569
 20
-36.2672567897
 10
38.8641634412
 20
-36.4878852044
 10
38.820267171
 20
-36.7049153496
 10
38.7670633912
 20
-36.9197075216
 10
38.7044462464
 20
-37.133190388
 10
38.6325125497
 20
-37.3444262579
 10
38.5517407667
 20
-37.551976207
 10
38.4620844197
 20
-37.7557362981
 10
38.3635832553
 20
-37.9558037514
 10
38.2568473725
 20
-38.151043671
 10
38.1418382152
 20
-38.3414090231
 10
38.0185897223
 20
-38.526942234
 10
37.8878230719
 20
-38.7066449292
 10
37.749504996
 20
-38.8804804546
 10
37.6036664289
 20
-39.0484831356
 10
37.4511272132
 20
-39.2097634241
 10
37.2918763951
 20
-39.3642757346
 10
37.1259247978
 20
-39.5120655223
 10
36.954127237
 20
-39.6523821025
 10
36.7763413071
 20
-39.7852524564
 10
36.5927112255
 20
-39.910651411
 10
36.4045243008
 20
-40.0277526026
 10
36.2125334522
 20
-40.1362387083
 10
36.0159906805
 20
-40.2364319609
 10
35.8139324646
 20
-40.3284658771
 10
35.6058011717
 20
-40.4127549869
 10
35.3921560897
 20
-40.4888864117
 10
35.1737093356
 20
-40.5557528128
 10
34.9499495788
 20
-40.6133754723
 10
34.7213914383
 20
-40.6617363895
 10
34.4902891904
 20
-40.6996725293
 10
34.2573974082
 20
-40.7267993544
 10
34.0219683605
 20
-40.7435082299
 10
33.7840046363
 20
-40.7498017391
  0
LWPOLYLINE
  5
4C7
100
AcDbEntity
  8
RACCORDO
100
AcDbPolyline
 62
7
  6
CONTINUOUS
 90
19
 70
0
 10
28.1753022038
 20
41.2481899225
 10
28.1502305818
 20
41.24659895
 10
28.1256680813
 20
41.2427372066
 10
28.1016147024
 20
41.236618801
 10
28.0779086482
 20
41.2282864398
 10
28.0547117155
 20
41.217783401
 10
28.0325092949
 20
41.2051287489
 10
28.0112555418
 20
41.1903351443
 10
27.9909963007
 20
41.1735240109
 10
27.9723544967
 20
41.1549188178
 10
27.9553954837
 20
41.1346304418
 10
27.9400539077
 20
41.1128587423
 10
27.9267566317
 20
41.0900648244
 10
27.9156527947
 20
41.0664589619
 10
27.9065932577
 20
41.0422718088
 10
27.8995574661
 20
41.0180706745
 10
27.8945385686
 20
40.9941950767
 10
27.8915434165
 20
40.9707192311
 10
27.8905720099
 20
40.9478079374
  0
LINE
  5
4C8
100
AcDbEntity
  8
DRAFT
100
AcDbLine
 62
7
  6
CONTINUOUS
 10
-27.55
 20
38.25
 11
-28.0802880113
 21
38.2407437883
  0
LINE
  5
4C9
100
AcDbEntity
  8
DRAFT
100
AcDbLine
 62
7
  6
CONTINUOUS
 10
27.55
 20
39.25
 11
27.4904521453
 21
39.25
  0
LINE
  5
4CA
100
AcDbEntity
  8
DRAFT
100
AcDbLine
 62
7
  6
CONTINUOUS
 10
-27.55
 20
39.25
 11
-27.4904521453
 21
39.25
  0
LINE
  5
4CB
100
AcDbEntity
  8
DRAFT
100
AcDbLine
 62
7
  6
CONTINUOUS
 10
27.55
 20
38.25
 11
28.0802880168
 21
38.2407437882
  0
LWPOLYLINE
  5
4CC
100
AcDbEntity
  8
RACCORDO
100
AcDbPolyline
 62
250
  6
CONTINUOUS
 90
6
 70
0
 10
27.6274471601
 20
30.7410769123
 10
27.6620677797
 20
30.7285929709
 10
27.6980097276
 20
30.7187272634
 10
27.7352530175
 20
30.711596882
 10
27.7738176358
 20
30.7070847346
 10
27.8137035824
 20
30.7051908211
  0
LINE
  5
4CD
100
AcDbEntity
  8
RACCORDO
100
AcDbLine
 62
7
  6
CONTINUOUS
 10
39.3593815766
 20
30.5180265248
 11
39.5431574806
 21
25.6240705474
  0
LINE
  5
4CE
100
AcDbEntity
  8
RACCORDO
100
AcDbLine
 62
250
  6
CONTINUOUS
 10
40.2900598489
 20
31.0222577452
 11
40.3083683646
 21
24.5864205603
  0
LINE
  5
4CF
100
AcDbEntity
  8
RACCORDO
100
AcDbLine
 62
250
  6
CONTINUOUS
 10
40.3083683646
 20
24.5864205603
 11
40.3127746996
 21
21.7701348473
  0
LINE
  5
4D0
100
AcDbEntity
  8
RACCORDO
100
AcDbLine
 62
250
  6
CONTINUOUS
 10
40.3127746996
 20
21.7701348473
 11
40.3161673858
 21
17.5467079274
  0
LINE
  5
4D1
100
AcDbEntity
  8
RACCORDO
100
AcDbLine
 62
250
  6
CONTINUOUS
 10
40.3161673858
 20
17.5467079274
 11
40.3171270565
 21
9.1653215027
  0
LINE
  5
4D2
100
AcDbEntity
  8
RACCORDO
100
AcDbLine
 62
250
  6
CONTINUOUS
 10
40.3171270565
 20
9.1653215027
 11
40.3171823867
 21
-12.9175611199
  0
LINE
  5
4D3
100
AcDbEntity
  8
RACCORDO
100
AcDbLine
 62
250
  6
CONTINUOUS
 10
40.3171823867
 20
-12.9175611199
 11
40.3157309555
 21
-18.3946982411
  0
LINE
  5
4D4
100
AcDbEntity
  8
RACCORDO
100
AcDbLine
 62
250
  6
CONTINUOUS
 10
40.3157309555
 20
-18.3946982411
 11
40.3121860404
 21
-22.2368511925
  0
LINE
  5
4D5
100
AcDbEntity
  8
RACCORDO
100
AcDbLine
 62
250
  6
CONTINUOUS
 10
40.3121860404
 20
-22.2368511925
 11
40.307446706
 21
-25.0453059779
  0
LINE
  5
4D6
100
AcDbEntity
  8
RACCORDO
100
AcDbLine
 62
250
  6
CONTINUOUS
 10
40.307446706
 20
-25.0453059779
 11
40.3010670283
 21
-27.674090876
  0
LINE
  5
4D7
100
AcDbEntity
  8
RACCORDO
100
AcDbLine
 62
250
  6
CONTINUOUS
 10
40.3010670283
 20
-27.674090876
 11
40.2914510832
 21
-30.6436837642
  0
LINE
  5
4D8
100
AcDbEntity
  8
RACCORDO
100
AcDbLine
 62
250
  6
CONTINUOUS
 10
40.2914510832
 20
-30.6436837642
 11
40.2776047596
 21
-34.0139890083
  0
LINE
  5
4D9
100
AcDbEntity
  8
RACCORDO
100
AcDbLine
 62
250
  6
CONTINUOUS
 10
40.2776047596
 20
-34.0139890083
 11
40.2637526197
 21
-36.8492713473
  0
LWPOLYLINE
  5
4DA
100
AcDbEntity
  8
RACCORDO
100
AcDbPolyline
 62
250
  6
CONTINUOUS
 90
22
 70
0
 10
39.920420586
 20
-36.8
 10
39.9159809551
 20
-36.9897472795
 10
39.9040448841
 20
-37.1768487721
 10
39.8849089253
 20
-37.3610232259
 10
39.8590128509
 20
-37.5411762526
 10
39.826591813
 20
-37.7179190408
 10
39.7873538207
 20
-37.8935080053
 10
39.7410516675
 20
-38.0686540902
 10
39.6879307194
 20
-38.2420933154
 10
39.6282208348
 20
-38.4130838843
 10
39.5623421592
 20
-38.5806552458
 10
39.4901768244
 20
-38.7453175306
 10
39.4110210395
 20
-38.9084897999
 10
39.3246670737
 20
-39.0701323367
 10
39.231221022
 20
-39.2296116351
 10
39.1301870128
 20
-39.3873046731
 10
39.0210887437
 20
-39.5433337831
 10
38.9042070398
 20
-39.6967045947
 10
38.7802333673
 20
-39.846128793
 10
38.6495094887
 20
-39.9909724527
 10
38.5119058918
 20
-40.1311630343
 10
38.3675450686
 20
-40.2663356326
  0
LWPOLYLINE
  5
4DB
100
AcDbEntity
  8
RACCORDO
100
AcDbPolyline
 62
250
  6
CONTINUOUS
 90
22
 70
0
 10
40.2637526197
 20
-36.8492713473
 10
40.2580519925
 20
-37.0520796224
 10
40.245008457
 20
-37.2515299268
 10
40.2246198196
 20
-37.4476200714
 10
40.1968635148
 20
-37.639727729
 10
40.1617577519
 20
-37.8284708798
 10
40.1193605681
 20
-38.0157068661
 10
40.0695458801
 20
-38.2024944619
 10
40.012432764
 20
-38.3877679008
 10
39.9484469761
 20
-38.5701976954
 10
39.8779463433
 20
-38.74903643
 10
39.8005684819
 20
-38.9250269732
 10
39.7156588263
 20
-39.099075259
 10
39.6232089276
 20
-39.2716110409
 10
39.5232200994
 20
-39.4421974449
 10
39.4150513398
 20
-39.6104393857
 10
39.2982302666
 20
-39.7769367513
 10
39.1732214689
 20
-39.9410818768
 10
39.0407911581
 20
-40.1006701
 10
38.9011944523
 20
-40.2549662481
 10
38.7541732166
 20
-40.4047024835
 10
38.5997257601
 20
-40.5498771186
  0
LWPOLYLINE
  5
4DC
100
AcDbEntity
  8
0
100
AcDbPolyline
 62
7
  6
CONTINUOUS
 90
13
 70
0
 43
0.3500000006
 10
55.404553299
 20
2.4642848511
 10
55.1902688141
 20
2.1785714493
 10
54.5474108276
 20
2.1785714493
 10
54.1188418579
 20
2.4642848511
 10
54.1188418579
 20
3.1071428375
 10
54.5474108276
 20
3.3928562393
 10
55.1902688141
 20
3.3928562393
 10
55.404553299
 20
3.1071428375
 10
55.8331268005
 20
3.5357140732
 10
56.6902692719
 20
3.5357140732
 10
57.1188382416
 20
3.1071428375
 10
57.1188382416
 20
2.4642848511
 10
56.6902692719
 20
2.0357136154
  0
LINE
  5
4DD
100
AcDbEntity
  8
RACCORDO
100
AcDbLine
 62
250
  6
CONTINUOUS
 10
-27.4632859803
 20
40.7688497199
 11
-24.6856883328
 21
40.7766812553
  0
LINE
  5
4DE
100
AcDbEntity
  8
RACCORDO
100
AcDbLine
 62
250
  6
CONTINUOUS
 10
-43.6692037148
 20
40.7330261611
 11
-28.5364706935
 21
40.7672954452
  0
LINE
  5
4DF
100
AcDbEntity
  8
RACCORDO
100
AcDbLine
 62
250
  6
CONTINUOUS
 10
-24.6856883328
 20
40.7766812553
 11
-21.6651471435
 21
40.7820765042
  0
LINE
  5
4E0
100
AcDbEntity
  8
RACCORDO
100
AcDbLine
 62
250
  6
CONTINUOUS
 10
-21.6651471435
 20
40.7820765042
 11
-16.6373843465
 21
40.7862706652
  0
LINE
  5
4E1
100
AcDbEntity
  8
RACCORDO
100
AcDbLine
 62
250
  6
CONTINUOUS
 10
28.5262724484
 20
41.1307036334
 11
43.6036414542
 21
41.1527276252
  0
LINE
  5
4E2
100
AcDbEntity
  8
RACCORDO
100
AcDbLine
 62
250
  6
CONTINUOUS
 10
27.8827550499
 20
40.7358238333
 11
27.5500045507
 21
40.7358238333
  0
LINE
  5
4E3
100
AcDbEntity
  8
RACCORDO
100
AcDbLine
 62
250
  6
CONTINUOUS
 10
-27.55
 20
40.7358238333
 11
-27.8827550491
 21
40.7358238333
  0
LINE
  5
4E4
100
AcDbEntity
  8
RACCORDO
100
AcDbLine
 62
250
  6
CONTINUOUS
 10
-16.6373843465
 20
40.7862706652
 11
0.0002138664
 21
40.7879974453
  0
LINE
  5
4E5
100
AcDbEntity
  8
RACCORDO
100
AcDbLine
 62
250
  6
CONTINUOUS
 10
8.3654339217
 20
41.126826002
 11
27.4632998452
 21
41.12723981
  0
LINE
  5
4E6
100
AcDbEntity
  8
DRAFT
100
AcDbLine
 62
7
  6
CONTINUOUS
 10
-27.55
 20
41.2159709216
 11
27.55
 21
41.2159709216
  0
LINE
  5
4E7
100
AcDbEntity
  8
RACCORDO
100
AcDbLine
 62
250
  6
CONTINUOUS
 10
28.1753022038
 20
41.2481899225
 11
-28.1753022035
 21
41.2481899225
  0
LINE
  5
4E8
100
AcDbEntity
  8
RACCORDO
100
AcDbLine
 62
7
  6
CONTINUOUS
 10
-43.8608807381
 20
41.409966909
 11
43.8608807381
 21
41.409966909
  0
LINE
  5
4E9
100
AcDbEntity
  8
RACCORDO
100
AcDbLine
 62
250
  6
CONTINUOUS
 10
0.0002138664
 20
40.7879974005
 11
13.9602034149
 21
40.7872110382
  0
LINE
  5
4EA
100
AcDbEntity
  8
RACCORDO
100
AcDbLine
 62
250
  6
CONTINUOUS
 10
-27.4633010648
 20
41.1272410581
 11
8.3654339217
 21
41.126826002
  0
LINE
  5
4EB
100
AcDbEntity
  8
RACCORDO
100
AcDbLine
 62
250
  6
CONTINUOUS
 10
13.9602034149
 20
40.7872110382
 11
18.830005042
 21
40.7849368631
  0
LINE
  5
4EC
100
AcDbEntity
  8
RACCORDO
100
AcDbLine
 62
250
  6
CONTINUOUS
 10
18.830005042
 20
40.7849368631
 11
22.5300871787
 21
40.7808088911
  0
LINE
  5
4ED
100
AcDbEntity
  8
RACCORDO
100
AcDbLine
 62
250
  6
CONTINUOUS
 10
22.5300871787
 20
40.7808088911
 11
25.6508193915
 21
40.7743840923
  0
LINE
  5
4EE
100
AcDbEntity
  8
RACCORDO
100
AcDbLine
 62
250
  6
CONTINUOUS
 10
-43.6036414542
 20
41.1527276252
 11
-28.5262719942
 21
41.1307037853
  0
LINE
  5
4EF
100
AcDbEntity
  8
RACCORDO
100
AcDbLine
 62
250
  6
CONTINUOUS
 10
25.6508193915
 20
40.7743840923
 11
27.4632863581
 21
40.7688363319
  0
LINE
  5
4F0
100
AcDbEntity
  8
RACCORDO
100
AcDbLine
 62
250
  6
CONTINUOUS
 10
28.5364754861
 20
40.767292906
 11
43.6692037148
 21
40.7330261611
  0
LWPOLYLINE
  5
4F1
100
AcDbEntity
  8
RACCORDO
100
AcDbPolyline
 62
250
  6
CONTINUOUS
 90
37
 70
0
 10
43.6036414542
 20
41.1527276252
 10
43.8734830397
 20
41.1472405243
 10
44.1387587265
 20
41.1300018124
 10
44.3989863625
 20
41.1015758714
 10
44.6524111182
 20
41.0627674118
 10
44.8999862945
 20
41.014037976
 10
45.1452620972
 20
40.9549508684
 10
45.3890905858
 20
40.8852147442
 10
45.6297246292
 20
40.8052400012
 10
45.8667246202
 20
40.7151748403
 10
46.0996622756
 20
40.6151842701
 10
46.3281302881
 20
40.5054451851
 10
46.5517313437
 20
40.386150518
 10
46.770018462
 20
40.2575434232
 10
46.9826540968
 20
40.1198268705
 10
47.1894059625
 20
39.9731380337
 10
47.389813294
 20
39.8177841542
 10
47.5835879141
 20
39.6539669858
 10
47.7707186595
 20
39.4816238118
 10
47.9507181644
 20
39.3011006105
 10
48.1233022808
 20
39.1125726654
 10
48.2886526135
 20
38.9156253874
 10
48.4463503085
 20
38.7104398161
 10
48.5958980381
 20
38.4973225987
 10
48.737207097
 20
38.275956622
 10
48.8699433486
 20
38.0462658596
 10
48.993370635
 20
37.8088716428
 10
49.1067830571
 20
37.5645285072
 10
49.2097869107
 20
37.3134835699
 10
49.3018782026
 20
37.0562948698
 10
49.3823782917
 20
36.794298505
 10
49.4509814469
 20
36.5281013444
 10
49.5074588082
 20
36.2581373879
 10
49.5514832309
 20
35.9855700927
 10
49.5829071185
 20
35.7111770649
 10
49.6016687982
 20
35.4353291363
 10
49.6076937033
 20
35.1586075323
  0
LWPOLYLINE
  5
4F2
100
AcDbEntity
  8
RACCORDO
100
AcDbPolyline
 62
250
  6
CONTINUOUS
 90
37
 70
0
 10
43.6692037148
 20
40.7330261611
 10
43.917832
 20
40.7259870573
 10
44.1615054215
 20
40.7092170924
 10
44.4002186317
 20
40.68271093
 10
44.6331333237
 20
40.6463801335
 10
44.861076798
 20
40.6003021561
 10
45.0865410511
 20
40.5447194313
 10
45.31074153
 20
40.4795654225
 10
45.5324490518
 20
40.4048929591
 10
45.7504885731
 20
40.321123427
 10
45.9648308656
 20
40.2282061238
 10
46.1754934968
 20
40.1261801156
 10
46.3813737848
 20
40.0156036047
 10
46.5824070482
 20
39.8964667697
 10
46.778649356
 20
39.7687708374
 10
46.9691816577
 20
39.6330930823
 10
47.1539350822
 20
39.4894834233
 10
47.3329734697
 20
39.3378869209
 10
47.5055791951
 20
39.1787259157
 10
47.6717184522
 20
39.0121112889
 10
47.8314234994
 20
38.8379306147
 10
47.9840776925
 20
38.6562731519
 10
48.1298062954
 20
38.4671040296
 10
48.2684852709
 20
38.2704593429
 10
48.3991260019
 20
38.0665367742
 10
48.52191942
 20
37.8549650133
 10
48.6366792848
 20
37.6361200521
 10
48.7418547799
 20
37.4113240765
 10
48.8373706696
 20
37.1803371886
 10
48.9233129022
 20
36.9434099767
 10
48.998377107
 20
36.7026050177
 10
49.062365157
 20
36.4579361776
 10
49.1154909814
 20
36.2094053595
 10
49.1570719389
 20
35.9590608334
 10
49.1868869919
 20
35.7075918519
 10
49.2051749715
 20
35.4543269189
 10
49.2119441103
 20
35.1992742496
  0
LWPOLYLINE
  5
4F3
100
AcDbEntity
  8
RACCORDO
100
AcDbPolyline
 62
250
  6
CONTINUOUS
 90
3
 70
0
 10
27.6044099731
 20
33.2357941108
 10
27.5621778015
 20
33.2544660514
 10
27.5532435355
 20
33.2578343741
  0
LWPOLYLINE
  5
4F4
100
AcDbEntity
  8
RACCORDO
100
AcDbPolyline
 62
250
  6
CONTINUOUS
 90
4
 70
0
 10
27.5501380604
 20
30.7803765599
 10
27.562403865
 20
30.7726715254
 10
27.5942078281
 20
30.7558278108
 10
27.6274471601
 20
30.7410769123
  0
LWPOLYLINE
  5
4F5
100
AcDbEntity
  8
RACCORDO
100
AcDbPolyline
 62
250
  6
CONTINUOUS
 90
5
 70
0
 10
27.761764194
 20
33.1392165127
 10
27.7241807467
 20
33.1665864306
 10
27.6854114457
 20
33.1918280622
 10
27.6454562909
 20
33.214910667
 10
27.6044099731
 20
33.2357941108
  0
LWPOLYLINE
  5
4F6
100
AcDbEntity
  8
RACCORDO
100
AcDbPolyline
 62
250
  6
CONTINUOUS
 90
9
 70
0
 10
27.5501394866
 20
32.565970622
 10
27.5537225166
 20
32.5604191693
 10
27.5717563556
 20
32.5272575721
 10
27.5874426134
 20
32.4923236873
 10
27.6005407025
 20
32.4558803866
 10
27.6108520472
 20
32.418222631
 10
27.6182362849
 20
32.3795976936
 10
27.6225856011
 20
32.3401945299
 10
27.6237975323
 20
32.3002525863
  0
LWPOLYLINE
  5
4F7
100
AcDbEntity
  8
DRAFT
100
AcDbPolyline
 62
7
  6
CONTINUOUS
 90
16
 70
0
 10
28.0630100957
 20
38.2978072556
 10
28.0682035086
 20
38.289333638
 10
28.0732331766
 20
38.2745161028
 10
28.0780990995
 20
38.2534102938
 10
28.0828191892
 20
38.2260967704
 10
28.087375534
 20
38.1926813695
 10
28.0917143987
 20
38.1532953137
 10
28.0958331395
 20
38.1080921218
 10
28.0997344003
 20
38.0572506042
 10
28.1033723771
 20
38.000976876
 10
28.1067437353
 20
37.9394965395
 10
28.1098518094
 20
37.87305318
 10
28.112660799
 20
37.8019129542
 10
28.115167123
 20
37.7263585234
 10
28.1173743623
 20
37.6466927668
 10
28.1192574594
 20
37.5632397597
  0
LWPOLYLINE
  5
4F8
100
AcDbEntity
  8
0
100
AcDbPolyline
 62
7
  6
CONTINUOUS
 90
13
 70
0
 43
0.3500000006
 10
55.404553299
 20
-3.9642859497
 10
55.1902688141
 20
-4.2500004845
 10
54.5474108276
 20
-4.2500004845
 10
54.1188418579
 20
-3.9642859497
 10
54.1188418579
 20
-3.3214290962
 10
54.5474108276
 20
-3.0357145615
 10
55.1902688141
 20
-3.0357145615
 10
55.404553299
 20
-3.3214290962
 10
55.8331268005
 20
-2.8928567276
 10
56.6902692719
 20
-2.8928567276
 10
57.1188382416
 20
-3.3214290962
 10
57.1188382416
 20
-3.9642859497
 10
56.6902692719
 20
-4.3928571854
  0
LINE
  5
4F9
100
AcDbEntity
  8
RACCORDO
100
AcDbLine
 62
250
  6
CONTINUOUS
 10
27.8905720099
 20
40.9478079374
 11
28.2267175506
 21
40.8352664443
  0
LINE
  5
4FA
100
AcDbEntity
  8
RACCORDO
100
AcDbLine
 62
250
  6
CONTINUOUS
 10
28.1753022038
 20
41.2481899225
 11
28.5262724484
 21
41.1307036334
  0
LINE
  5
4FB
100
AcDbEntity
  8
DRAFT
100
AcDbLine
 62
7
  6
CONTINUOUS
 10
28.0630100957
 20
38.2978072556
 11
27.780648901
 21
38.5841284665
  0
LINE
  5
4FC
100
AcDbEntity
  8
RACCORDO
100
AcDbLine
 62
250
  6
CONTINUOUS
 10
49.2119441103
 20
35.1992742496
 11
49.2267253842
 21
29.0620264569
  0
LINE
  5
4FD
100
AcDbEntity
  8
RACCORDO
100
AcDbLine
 62
250
  6
CONTINUOUS
 10
49.2267253842
 20
29.0620264569
 11
49.2379849403
 21
22.3376365647
  0
LINE
  5
4FE
100
AcDbEntity
  8
RACCORDO
100
AcDbLine
 62
250
  6
CONTINUOUS
 10
49.2379849403
 20
22.3376365647
 11
49.24042529
 21
18.9773509357
  0
LINE
  5
4FF
100
AcDbEntity
  8
RACCORDO
100
AcDbLine
 62
250
  6
CONTINUOUS
 10
49.5886433489
 20
-3.7887442848
 11
49.6076937033
 21
-35.1586075323
  0
LINE
  5
500
100
AcDbEntity
  8
RACCORDO
100
AcDbLine
 62
7
  6
CONTINUOUS
 10
49.859966909
 20
35.4108807381
 11
49.859966909
 21
-35.4108807381
  0
LINE
  5
501
100
AcDbEntity
  8
RACCORDO
100
AcDbLine
 62
250
  6
CONTINUOUS
 10
49.24042529
 20
18.9773509357
 11
49.2401598323
 21
5.7138302064
  0
LINE
  5
502
100
AcDbEntity
  8
RACCORDO
100
AcDbLine
 62
250
  6
CONTINUOUS
 10
49.2401598323
 20
5.7138302064
 11
49.2405779795
 21
-17.712576231
  0
LINE
  5
503
100
AcDbEntity
  8
RACCORDO
100
AcDbLine
 62
250
  6
CONTINUOUS
 10
49.2405779795
 20
-17.712576231
 11
49.2395553762
 21
-20.6723939443
  0
LINE
  5
504
100
AcDbEntity
  8
RACCORDO
100
AcDbLine
 62
250
  6
CONTINUOUS
 10
49.6076937033
 20
35.1586075323
 11
49.5886433489
 21
-3.7887442848
  0
LINE
  5
505
100
AcDbEntity
  8
RACCORDO
100
AcDbLine
 62
250
  6
CONTINUOUS
 10
49.2395553762
 20
-20.6723939443
 11
49.2349493447
 21
-24.5616320741
  0
LINE
  5
506
100
AcDbEntity
  8
RACCORDO
100
AcDbLine
 62
250
  6
CONTINUOUS
 10
49.2349493447
 20
-24.5616320741
 11
49.224953139
 21
-29.9083902818
  0
LWPOLYLINE
  5
507
100
AcDbEntity
  8
RACCORDO
100
AcDbPolyline
 62
250
  6
CONTINUOUS
 90
3
 70
0
 10
49.224953139
 20
-29.9083902818
 10
49.2150325972
 20
-34.0747064781
 10
49.2119441103
 20
-35.1992742496
  0
LWPOLYLINE
  5
508
100
AcDbEntity
  8
RACCORDO
100
AcDbPolyline
 62
250
  6
CONTINUOUS
 90
37
 70
0
 10
49.6076937033
 20
-35.1586075323
 10
49.602086933
 20
-35.425790317
 10
49.584914962
 20
-35.688679396
 10
49.5567022335
 20
-35.9468023182
 10
49.5182070064
 20
-36.1984460384
 10
49.4698562339
 20
-36.4445298471
 10
49.4112082522
 20
-36.6884986943
 10
49.3419604578
 20
-36.9311778068
 10
49.2624949685
 20
-37.1708489962
 10
49.1729478181
 20
-37.4070531662
 10
49.073466997
 20
-37.6393564067
 10
48.9642103796
 20
-37.8673505968
 10
48.8453598638
 20
-38.0906253517
 10
48.7171463674
 20
-38.3087214723
 10
48.5797544888
 20
-38.5213004217
 10
48.4333020446
 20
-38.7281316935
 10
48.2780848377
 20
-38.9287393731
 10
48.1142873359
 20
-39.1228284709
 10
47.9418159288
 20
-39.3103973477
 10
47.7609524975
 20
-39.4909889506
 10
47.5719040518
 20
-39.6642501771
 10
47.3743826635
 20
-39.8302355015
 10
47.1685575095
 20
-39.9885340562
 10
46.9547523386
 20
-40.1386339122
 10
46.7328521683
 20
-40.2803265414
 10
46.5029504907
 20
-40.4132189651
 10
46.2655414517
 20
-40.5366974556
 10
46.0211330417
 20
-40.6502015139
 10
45.7699787819
 20
-40.753327928
 10
45.5126240325
 20
-40.8455708329
 10
45.250098332
 20
-40.9263330698
 10
44.9828546129
 20
-40.9952928011
 10
44.7114567996
 20
-41.0521242508
 10
44.4371832566
 20
-41.0964337269
 10
44.1608549353
 20
-41.1280345935
 10
43.8828105513
 20
-41.1468359371
 10
43.6036414542
 20
-41.1527276252
  0
LWPOLYLINE
  5
509
100
AcDbEntity
  8
RACCORDO
100
AcDbPolyline
 62
250
  6
CONTINUOUS
 90
37
 70
0
 10
49.2119441103
 20
-35.1992742496
 10
49.2049376013
 20
-35.4453493612
 10
49.188298849
 20
-35.6867369323
 10
49.1620223122
 20
-35.9234314332
 10
49.1260396055
 20
-36.1546250153
 10
49.0804079887
 20
-36.381114425
 10
49.0253095553
 20
-36.6053001931
 10
48.9606740403
 20
-36.8283738603
 10
48.8865579351
 20
-37.0491301411
 10
48.8033333891
 20
-37.2663742496
 10
48.7109473575
 20
-37.4800766677
 10
48.6094409798
 20
-37.6902550329
 10
48.4993296642
 20
-37.8957872705
 10
48.3806045081
 20
-38.0966060895
 10
48.2532652114
 20
-38.2927695974
 10
48.1178424121
 20
-38.4833461388
 10
47.9743884019
 20
-38.6682670055
 10
47.8228449434
 20
-38.8475949725
 10
47.663579059
 20
-39.0205977829
 10
47.4966467011
 20
-39.1872811725
 10
47.3219890566
 20
-39.3476365509
 10
47.1398030175
 20
-39.500912186
 10
46.9500207247
 20
-39.6472183832
 10
46.7527104503
 20
-39.7864452492
 10
46.5482757225
 20
-39.9175131877
 10
46.3364846306
 20
-40.0405329132
 10
46.1175737146
 20
-40.1553983308
 10
45.8926528206
 20
-40.260708264
 10
45.661508385
 20
-40.3564297721
 10
45.4243642289
 20
-40.4426060321
 10
45.1829907244
 20
-40.5179544832
 10
44.9372696168
 20
-40.5823317547
 10
44.6873343275
 20
-40.6358963525
 10
44.4353366388
 20
-40.6778224195
 10
44.1820005294
 20
-40.7078413737
 10
43.9266201403
 20
-40.7262398789
 10
43.6692037148
 20
-40.7330261611
  0
LWPOLYLINE
  5
50A
100
AcDbEntity
  8
RACCORDO
100
AcDbPolyline
 62
250
  6
CONTINUOUS
 90
16
 70
0
 10
39.3724240859
 20
-35.5
 10
39.3694150088
 20
-35.5078335434
 10
39.3620276738
 20
-35.5155980652
 10
39.3503271717
 20
-35.5232251532
 10
39.3344165956
 20
-35.5306476062
 10
39.3144361335
 20
-35.5378000258
 10
39.2905618346
 20
-35.5446193925
 10
39.263004055
 20
-35.551045622
 10
39.2320056048
 20
-35.5570220939
 10
39.1978396115
 20
-35.5624961503
 10
39.1608071099
 20
-35.5674195604
 10
39.1212343897
 20
-35.5717489455
 10
39.0794701242
 20
-35.5754461602
 10
39.0358822941
 20
-35.5784786297
 10
38.9908549457
 20
-35.5808196359
 10
38.9447848088
 20
-35.5824485534
  0
LWPOLYLINE
  5
50B
100
AcDbEntity
  8
RACCORDO
100
AcDbPolyline
 62
250
  6
CONTINUOUS
 90
16
 70
0
 10
33.75
 20
-41.1310794779
 10
33.7530755673
 20
-41.1284016769
 10
33.7561275554
 20
-41.1219116791
 10
33.7591325658
 20
-41.1116592408
 10
33.7620675602
 20
-41.0977229634
 10
33.7649100373
 20
-41.0802096912
 10
33.7676382047
 20
-41.0592536918
 10
33.7702311467
 20
-41.0350156269
 10
33.7726689842
 20
-41.0076813205
 10
33.7749330271
 20
-40.9774603343
 10
33.7770059179
 20
-40.9445843614
 10
33.7788717646
 20
-40.9093054491
 10
33.7805162624
 20
-40.8718940677
 10
33.7819268036
 20
-40.832637036
 10
33.7830925741
 20
-40.7918353227
 10
33.7840046363
 20
-40.7498017391
  0
LWPOLYLINE
  5
50C
100
AcDbEntity
  8
RACCORDO
100
AcDbPolyline
 62
250
  6
CONTINUOUS
 90
8
 70
0
 10
37.9640029651
 20
-40.3959033
 10
37.9623605954
 20
-40.3966476566
 10
37.9591404146
 20
-40.3980467425
 10
37.9543267841
 20
-40.4000766273
 10
37.9479157934
 20
-40.4027008801
 10
37.9398797052
 20
-40.4059019694
 10
37.9301689802
 20
-40.4096837252
 10
37.9187936831
 20
-40.4139890835
  0
LWPOLYLINE
  5
50D
100
AcDbEntity
  8
RACCORDO
100
AcDbPolyline
 62
250
  6
CONTINUOUS
 90
10
 70
0
 10
38.6905981782
 20
-41.1422730757
 10
38.6448317311
 20
-41.1596620798
 10
38.5987021228
 20
-41.1769422561
 10
38.5522093532
 20
-41.1941136046
 10
38.5053703373
 20
-41.2111761834
 10
38.4581681601
 20
-41.2281299345
 10
38.4105520773
 20
-41.2449746837
 10
38.3625051741
 20
-41.2617103731
 10
38.3140443654
 20
-41.2783370607
 10
38.265169651
 20
-41.2948547465
  0
LWPOLYLINE
  5
50E
100
AcDbEntity
  8
RACCORDO
100
AcDbPolyline
 62
250
  6
CONTINUOUS
 90
3
 70
0
 10
37.9187936831
 20
-40.4139890835
 10
37.8908275694
 20
-40.4242502812
 10
37.8741117177
 20
-40.4302820552
  0
LINE
  5
50F
100
AcDbEntity
  8
RACCORDO
100
AcDbLine
 62
250
  6
CONTINUOUS
 10
37.8741117177
 20
-40.4302820552
 11
37.7626461451
 21
-40.4696841022
  0
LINE
  5
510
100
AcDbEntity
  8
RACCORDO
100
AcDbLine
 62
250
  6
CONTINUOUS
 10
37.7626461451
 20
-40.4696841022
 11
37.7048989549
 21
-40.4895961966
  0
LINE
  5
511
100
AcDbEntity
  8
RACCORDO
100
AcDbLine
 62
250
  6
CONTINUOUS
 10
38.3675450686
 20
-40.2663356326
 11
38.3020419095
 21
-40.2885898878
  0
LINE
  5
512
100
AcDbEntity
  8
RACCORDO
100
AcDbLine
 62
250
  6
CONTINUOUS
 10
37.7048989549
 20
-40.4895961966
 11
37.639714671
 21
-40.5116012365
  0
LINE
  5
513
100
AcDbEntity
  8
RACCORDO
100
AcDbLine
 62
250
  6
CONTINUOUS
 10
38.3020419095
 20
-40.2885898878
 11
38.2349470686
 21
-40.3109112627
  0
LWPOLYLINE
  5
514
100
AcDbEntity
  8
RACCORDO
100
AcDbPolyline
 62
250
  6
CONTINUOUS
 90
3
 70
0
 10
37.639714671
 20
-40.5116012365
 10
37.5670582009
 20
-40.5355363346
 10
37.5278650245
 20
-40.5481996018
  0
LINE
  5
515
100
AcDbEntity
  8
RACCORDO
100
AcDbLine
 62
250
  6
CONTINUOUS
 10
38.2349470686
 20
-40.3109112627
 11
38.1665715345
 21
-40.3331259419
  0
LINE
  5
516
100
AcDbEntity
  8
RACCORDO
100
AcDbLine
 62
250
  6
CONTINUOUS
 10
38.1665715345
 20
-40.3331259419
 11
38.0979292178
 21
-40.3549141426
  0
LWPOLYLINE
  5
517
100
AcDbEntity
  8
RACCORDO
100
AcDbPolyline
 62
250
  6
CONTINUOUS
 90
17
 70
0
 10
37.5278650245
 20
-40.5481996018
 10
37.4435449771
 20
-40.5748461243
 10
37.3982378094
 20
-40.5888365216
 10
37.3508456555
 20
-40.6031992752
 10
37.3012536382
 20
-40.6179677273
 10
37.2494530586
 20
-40.6330810083
 10
37.1954497264
 20
-40.648469998
 10
37.139146887
 20
-40.6641446377
 10
37.0805624808
 20
-40.6800082547
 10
37.0196704059
 20
-40.6959996071
 10
36.9563019831
 20
-40.7121666141
 10
36.8904898341
 20
-40.7283962688
 10
36.8221842141
 20
-40.7446036901
 10
36.7510830817
 20
-40.7608504297
 10
36.6770736438
 20
-40.7770619459
 10
36.6002394914
 20
-40.7930435138
 10
36.5205683928
 20
-40.8086513693
  0
LINE
  5
518
100
AcDbEntity
  8
RACCORDO
100
AcDbLine
 62
250
  6
CONTINUOUS
 10
38.0979292178
 20
-40.3549141426
 11
38.0302843762
 21
-40.3758576499
  0
LINE
  5
519
100
AcDbEntity
  8
RACCORDO
100
AcDbLine
 62
250
  6
CONTINUOUS
 10
38.0302843762
 20
-40.3758576499
 11
37.9640033733
 21
-40.3959029919
  0
LWPOLYLINE
  5
51A
100
AcDbEntity
  8
0
100
AcDbPolyline
 62
7
  6
CONTINUOUS
 90
7
 70
0
 43
0.3500000006
 10
57.1188382416
 20
-0.5357137985
 10
57.1188382416
 20
-2.0357142563
 10
54.9759843292
 20
-0.5357137985
 10
54.5474108276
 20
-0.5357137985
 10
54.1188418579
 20
-0.9642850342
 10
54.1188418579
 20
-1.6071430206
 10
54.7616953125
 20
-2.0357142563
  0
LWPOLYLINE
  5
51B
100
AcDbEntity
  8
RACCORDO
100
AcDbPolyline
 62
250
  6
CONTINUOUS
 90
16
 70
0
 10
38.5997257601
 20
-40.5498771186
 10
38.5893631826
 20
-40.5599042705
 10
38.5798168261
 20
-40.5704807688
 10
38.571086701
 20
-40.5816066238
 10
38.5631474001
 20
-40.5933363472
 10
38.5560243496
 20
-40.6056154462
 10
38.5497938201
 20
-40.6182804355
 10
38.5444620595
 20
-40.6313238007
 10
38.540022864
 20
-40.6447531001
 10
38.5365338457
 20
-40.6584274754
 10
38.533994981
 20
-40.6723596406
 10
38.532406351
 20
-40.686536939
 10
38.5318257405
 20
-40.7007804723
 10
38.5322724375
 20
-40.7150306339
 10
38.533727224
 20
-40.7293471
 10
38.5361901314
 20
-40.7437299022
  0
LWPOLYLINE
  5
51C
100
AcDbEntity
  8
RACCORDO
100
AcDbPolyline
 62
250
  6
CONTINUOUS
 90
16
 70
0
 10
38.3675451488
 20
-40.2663357203
 10
38.3420043531
 20
-40.2909986598
 10
38.3183311335
 20
-40.3173331338
 10
38.2966275
 20
-40.3451931264
 10
38.2769964282
 20
-40.3744064128
 10
38.2595014213
 20
-40.4048355343
 10
38.2441812031
 20
-40.4363872203
 10
38.2311127334
 20
-40.4688828
 10
38.220343104
 20
-40.5021817465
 10
38.2118910627
 20
-40.5362586786
 10
38.2058175433
 20
-40.5709748122
 10
38.2021818438
 20
-40.6061406033
 10
38.201027444
 20
-40.6416566023
 10
38.2024017083
 20
-40.6773696932
 10
38.2063379405
 20
-40.7130721672
 10
38.2128551055
 20
-40.7485758923
  0
LWPOLYLINE
  5
51D
100
AcDbEntity
  8
RACCORDO
100
AcDbPolyline
 62
250
  6
CONTINUOUS
 90
31
 70
0
 10
37.9640035987
 20
-40.3959032917
 10
37.9319699197
 20
-40.4222912737
 10
37.9022380436
 20
-40.4512534349
 10
37.8750133496
 20
-40.4825896933
 10
37.8504839066
 20
-40.5160835524
 10
37.8288191399
 20
-40.5515036416
 10
37.8101686743
 20
-40.5886053234
 10
37.7946613406
 20
-40.6271323172
 10
37.7824042723
 20
-40.6668184627
 10
37.7734821408
 20
-40.707389609
 10
37.7679565802
 20
-40.7485654914
 10
37.7658657612
 20
-40.7900616668
 10
37.7672241272
 20
-40.8315914797
 10
37.7720222946
 20
-40.8728680427
 10
37.7802271179
 20
-40.9136062174
 10
37.791781918
 20
-40.9535245848
 10
37.8066068745
 20
-40.992347389
 10
37.8245995768
 20
-41.0298064425
 10
37.8456357311
 20
-41.0656429784
 10
37.86957002
 20
-41.099609438
 10
37.8962371054
 20
-41.1314711814
 10
37.9254527712
 20
-41.1610081078
 10
37.9570151954
 20
-41.1880161762
 10
37.9907063453
 20
-41.2123088154
 10
38.0262934831
 20
-41.2337182124
 10
38.0635307496
 20
-41.2520964609
 10
38.1021609321
 20
-41.2673166181
 10
38.1419172494
 20
-41.279273563
 10
38.1825250958
 20
-41.2878846824
 10
38.22370393
 20
-41.2930904627
 10
38.2651692881
 20
-41.2948549226
  0
LWPOLYLINE
  5
51E
100
AcDbEntity
  8
RACCORDO
100
AcDbPolyline
 62
250
  6
CONTINUOUS
 90
16
 70
0
 10
43.6036414542
 20
-41.1527276252
 10
43.6098165129
 20
-41.1497738084
 10
43.6159384028
 20
-41.1425410414
 10
43.6219544139
 20
-41.1310915996
 10
43.627812748
 20
-41.1155240642
 10
43.6334629645
 20
-41.0959724736
 10
43.6388564146
 20
-41.0726051687
 10
43.6439466602
 20
-41.0456233445
 10
43.6486898742
 20
-41.0152593168
 10
43.6530452172
 20
-40.9817745224
 10
43.6569751893
 20
-40.945457268
 10
43.6604459534
 20
-40.906620248
 10
43.663427626
 20
-40.8655978517
 10
43.6658945348
 20
-40.8227432848
 10
43.6678254395
 20
-40.7784255283
 10
43.6692037148
 20
-40.7330261611
  0
LWPOLYLINE
  5
51F
100
AcDbEntity
  8
RACCORDO
100
AcDbPolyline
 62
250
  6
CONTINUOUS
 90
16
 70
0
 10
43.6036414542
 20
41.1527276252
 10
43.6098165147
 20
41.1497738016
 10
43.6159384063
 20
41.1425410177
 10
43.6219544189
 20
41.1310915505
 10
43.6278127544
 20
41.1155239827
 10
43.6334629717
 20
41.0959723549
 10
43.6388564218
 20
41.0726050126
 10
43.6439466668
 20
41.0456231536
 10
43.6486898794
 20
41.0152590964
 10
43.6530452204
 20
40.9817742827
 10
43.6569751902
 20
40.9454570224
 10
43.6604459521
 20
40.9066200118
 10
43.6634276229
 20
40.8655976437
 10
43.6658945309
 20
40.8227431259
 10
43.6678254363
 20
40.7784254389
 10
43.6692037148
 20
40.7330261611
  0
LWPOLYLINE
  5
520
100
AcDbEntity
  8
RACCORDO
100
AcDbPolyline
 62
250
  6
CONTINUOUS
 90
16
 70
0
 10
49.6076937033
 20
-35.1586075323
 10
49.6049119231
 20
-35.1623411175
 10
49.5981445246
 20
-35.1660447695
 10
49.5874457648
 20
-35.1696887958
 10
49.572901418
 20
-35.1732439823
 10
49.5546280894
 20
-35.1766818268
 10
49.5327722814
 20
-35.1799747678
 10
49.5075092158
 20
-35.1830964056
 10
49.4790414304
 20
-35.1860217142
 10
49.447597157
 20
-35.1887272412
 10
49.4134284885
 20
-35.1911912965
 10
49.3768093584
 20
-35.1933941261
 10
49.3380333469
 20
-35.1953180699
 10
49.2974113245
 20
-35.196947704
 10
49.25526896
 20
-35.198269964
 10
49.2119441103
 20
-35.1992742496
  0
LWPOLYLINE
  5
521
100
AcDbEntity
  8
RACCORDO
100
AcDbPolyline
 62
250
  6
CONTINUOUS
 90
16
 70
0
 10
49.6076937033
 20
35.1586075323
 10
49.6049119317
 20
35.1623411034
 10
49.5981445544
 20
35.1660447431
 10
49.5874458255
 20
35.1696887592
 10
49.5729015172
 20
35.1732439375
 10
49.5546282315
 20
35.176681776
 10
49.5327724659
 20
35.1799747134
 10
49.5075094388
 20
35.1830963501
 10
49.4790416848
 20
35.1860216598
 10
49.4475974309
 20
35.1887271903
 10
49.4134287667
 20
35.1911912511
 10
49.3768096236
 20
35.1933940878
 10
49.3380335787
 20
35.1953180402
 10
49.297411501
 20
35.1969476839
 10
49.255269059
 20
35.1982699539
 10
49.2119441103
 20
35.1992742496
  0
LWPOLYLINE
  5
522
100
AcDbEntity
  8
0
100
AcDbPolyline
 62
7
  6
CONTINUOUS
 90
10
 70
0
 43
0.3500000006
 10
-91.363165741
 20
52.035151062
 10
-90.5060278015
 20
52.8922935333
 10
-90.2917433167
 20
53.7494360046
 10
-90.2917433167
 20
54.606578476
 10
-90.7203122864
 20
55.0351474457
 10
-91.363165741
 20
55.0351474457
 10
-91.7917437744
 20
54.606578476
 10
-91.7917437744
 20
53.7494360046
 10
-91.363165741
 20
53.3208625031
 10
-90.4345966187
 20
53.3208625031
  0
LWPOLYLINE
  5
523
100
AcDbEntity
  8
RACCORDO
100
AcDbPolyline
 62
7
  6
CONTINUOUS
 90
9
 70
0
 10
-99.6356602017
 20
41.0673076305
 10
-99.6492774636
 20
41.0602120719
 10
-99.6847608833
 20
41.0376465036
 10
-99.7184163533
 20
41.0120372574
 10
-99.7496356234
 20
40.983837414
 10
-99.778436598
 20
40.9529118238
 10
-99.8048013728
 20
40.9193956366
 10
-99.8280679848
 20
40.8841473821
 10
-99.8480157795
 20
40.847453237
  0
LWPOLYLINE
  5
524
100
AcDbEntity
  8
RACCORDO
100
AcDbPolyline
 62
7
  6
CONTINUOUS
 90
17
 70
0
 10
-102.3919914648
 20
-41.0735769307
 10
-102.3917800162
 20
-41.0735979285
 10
-102.3892255204
 20
-41.0738383344
 10
-102.3866818874
 20
-41.0740645868
 10
-102.3841512013
 20
-41.074276702
 10
-102.3816381871
 20
-41.0744745352
 10
-102.379140108
 20
-41.0746585653
 10
-102.3766598683
 20
-41.0748288397
 10
-102.374210669
 20
-41.0749848306
 10
-102.3717924156
 20
-41.0751270133
 10
-102.3694053755
 20
-41.0752558356
 10
-102.3670633093
 20
-41.0753711106
 10
-102.3647640028
 20
-41.0754735738
 10
-102.362509829
 20
-41.0755637338
 10
-102.3603214415
 20
-41.0756415196
 10
-102.3580550791
 20
-41.0757119641
 10
-102.3541722746
 20
-41.075808748
  0
LWPOLYLINE
  5
525
100
AcDbEntity
  8
RACCORDO
100
AcDbPolyline
 62
250
  6
CONTINUOUS
 90
14
 70
0
 10
-100.0508238438
 20
-40.7529688186
 10
-100.0921738968
 20
-40.7464637886
 10
-100.1394301069
 20
-40.7393796973
 10
-100.1933221255
 20
-40.7318069553
 10
-100.2546454265
 20
-40.7237560466
 10
-100.3232530955
 20
-40.7154155738
 10
-100.3983289136
 20
-40.7071149981
 10
-100.4802732326
 20
-40.6988011961
 10
-100.5686025407
 20
-40.6905744698
 10
-100.6606018229
 20
-40.6828473264
 10
-100.7555256141
 20
-40.6755257418
 10
-100.8531174658
 20
-40.6685197515
 10
-100.9509466182
 20
-40.6621134014
 10
-101.1439316347
 20
-40.6506781841
  0
LINE
  5
526
100
AcDbEntity
  8
RACCORDO
100
AcDbLine
 62
250
  6
CONTINUOUS
 10
-99.984895911
 20
-40.7638623513
 11
-100.0508238438
 21
-40.7529688186
  0
LINE
  5
527
100
AcDbEntity
  8
RACCORDO
100
AcDbLine
 62
250
  6
CONTINUOUS
 10
-99.9201940798
 20
-40.7747887869
 11
-99.984895911
 21
-40.7638623513
  0
LWPOLYLINE
  5
528
100
AcDbEntity
  8
RACCORDO
100
AcDbPolyline
 62
250
  6
CONTINUOUS
 90
7
 70
0
 10
-98.9719793139
 20
-41.0845234963
 10
-98.9360122493
 20
-41.1011120805
 10
-98.8985397076
 20
-41.1150966545
 10
-98.8598393856
 20
-41.1263154723
 10
-98.8201493104
 20
-41.1346466315
 10
-98.7796610955
 20
-41.1399945226
 10
-98.7435893698
 20
-41.142163517
  0
LINE
  5
529
100
AcDbEntity
  8
RACCORDO
100
AcDbLine
 62
250
  6
CONTINUOUS
 10
-99.0411258704
 20
-41.043324988
 11
-99.0386435784
 21
-41.0442237032
  0
LWPOLYLINE
  5
52A
100
AcDbEntity
  8
RACCORDO
100
AcDbPolyline
 62
250
  6
CONTINUOUS
 90
33
 70
0
 10
-99.8054536692
 20
-40.7549725311
 10
-99.8134161779
 20
-40.7554321975
 10
-99.820767255
 20
-40.7558988132
 10
-99.8274986592
 20
-40.7563659606
 10
-99.8336294372
 20
-40.7568370328
 10
-99.8392019737
 20
-40.7573151326
 10
-99.8442490843
 20
-40.757794047
 10
-99.8487888278
 20
-40.7582752496
 10
-99.8528626831
 20
-40.7587635624
 10
-99.8565307334
 20
-40.7592569644
 10
-99.8598096324
 20
-40.7597551202
 10
-99.8627247127
 20
-40.760262805
 10
-99.8653309324
 20
-40.7607837445
 10
-99.8676408945
 20
-40.7613173376
 10
-99.869661383
 20
-40.7618662356
 10
-99.8714203174
 20
-40.7624371074
 10
-99.8729223898
 20
-40.7630351878
 10
-99.8741662841
 20
-40.7636555989
 10
-99.875161401
 20
-40.764288835
 10
-99.8759315278
 20
-40.7649491716
 10
-99.8765322243
 20
-40.7656307236
 10
-99.8770221057
 20
-40.7662939084
 10
-99.8774410146
 20
-40.7669354483
 10
-99.8778163898
 20
-40.7675657355
 10
-99.878176843
 20
-40.7681644866
 10
-99.8785413683
 20
-40.7687257324
 10
-99.8789186039
 20
-40.7692583639
 10
-99.8793132429
 20
-40.7697635019
 10
-99.8797295305
 20
-40.7702377037
 10
-99.880165305
 20
-40.7706846322
 10
-99.8806142959
 20
-40.7711159232
 10
-99.8810716743
 20
-40.7715314637
 10
-99.8815313295
 20
-40.7719302098
  0
LINE
  5
52B
100
AcDbEntity
  8
RACCORDO
100
AcDbLine
 62
250
  6
CONTINUOUS
 10
-99.78758166
 20
-40.7540667455
 11
-99.8054536692
 21
-40.7549725311
  0
LINE
  5
52C
100
AcDbEntity
  8
RACCORDO
100
AcDbLine
 62
250
  6
CONTINUOUS
 10
-99.7671925577
 20
-40.7531805152
 11
-99.78758166
 21
-40.7540667455
  0
LINE
  5
52D
100
AcDbEntity
  8
RACCORDO
100
AcDbLine
 62
250
  6
CONTINUOUS
 10
-99.7323061064
 20
-40.7518885683
 11
-99.7671925577
 21
-40.7531805152
  0
LWPOLYLINE
  5
52E
100
AcDbEntity
  8
RACCORDO
100
AcDbPolyline
 62
250
  6
CONTINUOUS
 90
3
 70
0
 10
-99.663699474
 20
-40.7498017391
 10
-99.6785688765
 20
-40.7502201986
 10
-99.7323061064
 20
-40.7518885683
  0
LINE
  5
52F
100
AcDbEntity
  8
RACCORDO
100
AcDbLine
 62
250
  6
CONTINUOUS
 10
-98.6201064334
 20
-40.7330261611
 11
-99.2387932129
 21
-40.7437299022
  0
LWPOLYLINE
  5
530
100
AcDbEntity
  8
RACCORDO
100
AcDbPolyline
 62
250
  6
CONTINUOUS
 90
5
 70
0
 10
-102.8063043721
 20
-40.600415691
 10
-102.8184283849
 20
-40.600520405
 10
-102.8219232732
 20
-40.6005121302
 10
-102.824000009
 20
-40.6005201807
 10
-102.8248681554
 20
-40.6005709077
  0
LINE
  5
531
100
AcDbEntity
  8
RACCORDO
100
AcDbLine
 62
250
  6
CONTINUOUS
 10
-102.7116302491
 20
-40.6000660295
 11
-102.8063043721
 21
-40.600415691
  0
LINE
  5
532
100
AcDbEntity
  8
RACCORDO
100
AcDbLine
 62
250
  6
CONTINUOUS
 10
-102.6243171857
 20
-40.6003561566
 11
-102.7116302491
 21
-40.6000660295
  0
LINE
  5
533
100
AcDbEntity
  8
RACCORDO
100
AcDbLine
 62
250
  6
CONTINUOUS
 10
-102.5517707238
 20
-40.6010001442
 11
-102.6243171857
 21
-40.6003561566
  0
LINE
  5
534
100
AcDbEntity
  8
RACCORDO
100
AcDbLine
 62
250
  6
CONTINUOUS
 10
-102.4686039839
 20
-40.6021288601
 11
-102.5517707238
 21
-40.6010001442
  0
LINE
  5
535
100
AcDbEntity
  8
RACCORDO
100
AcDbLine
 62
7
  6
CONTINUOUS
 10
-98.7386251744
 20
-41.1422730757
 11
-83.4024557352
 21
-41.409966909
  0
LINE
  5
536
100
AcDbEntity
  8
RACCORDO
100
AcDbLine
 62
250
  6
CONTINUOUS
 10
-102.8248682046
 20
-40.6005708371
 11
-102.8430621323
 21
-40.6002529994
  0
LINE
  5
537
100
AcDbEntity
  8
RACCORDO
100
AcDbLine
 62
7
  6
CONTINUOUS
 10
-102.3541722746
 20
-41.075808748
 11
-98.7952185152
 21
-41.1379337289
  0
LINE
  5
538
100
AcDbEntity
  8
RACCORDO
100
AcDbLine
 62
250
  6
CONTINUOUS
 10
-102.3249715913
 20
-40.6048882721
 11
-102.4686039839
 21
-40.6021288601
  0
LINE
  5
539
100
AcDbEntity
  8
RACCORDO
100
AcDbLine
 62
7
  6
CONTINUOUS
 10
-98.7435893698
 20
-41.142163517
 11
-98.7386065659
 21
-41.1422734486
  0
LINE
  5
53A
100
AcDbEntity
  8
RACCORDO
100
AcDbLine
 62
250
  6
CONTINUOUS
 10
-102.1585556914
 20
-40.6090771219
 11
-102.3249715913
 21
-40.6048882721
  0
LINE
  5
53B
100
AcDbEntity
  8
RACCORDO
100
AcDbLine
 62
250
  6
CONTINUOUS
 10
-101.9682218638
 20
-40.6148887798
 11
-102.1585556914
 21
-40.6090771219
  0
LINE
  5
53C
100
AcDbEntity
  8
RACCORDO
100
AcDbLine
 62
250
  6
CONTINUOUS
 10
-101.7517086691
 20
-40.6226181263
 11
-101.9682218638
 21
-40.6148887798
  0
LINE
  5
53D
100
AcDbEntity
  8
RACCORDO
100
AcDbLine
 62
250
  6
CONTINUOUS
 10
-101.507604776
 20
-40.6326880675
 11
-101.7517086691
 21
-40.6226181263
  0
LINE
  5
53E
100
AcDbEntity
  8
RACCORDO
100
AcDbLine
 62
250
  6
CONTINUOUS
 10
-101.3305600177
 20
-40.6409841982
 11
-101.507604776
 21
-40.6326880675
  0
LINE
  5
53F
100
AcDbEntity
  8
RACCORDO
100
AcDbLine
 62
250
  6
CONTINUOUS
 10
-101.1439316347
 20
-40.6506781841
 11
-101.3305600177
 21
-40.6409841982
  0
LWPOLYLINE
  5
540
100
AcDbEntity
  8
RACCORDO
100
AcDbPolyline
 62
7
  6
CONTINUOUS
 90
16
 70
0
 10
-99.4214878812
 20
-41.1270021564
 10
-99.4628341524
 20
-41.1245647307
 10
-99.503836718
 20
-41.118713649
 10
-99.5442142304
 20
-41.1094890893
 10
-99.5836896258
 20
-41.0969543802
 10
-99.6219920529
 20
-41.0811955575
 10
-99.6588587275
 20
-41.0623207669
 10
-99.6940366919
 20
-41.0404595416
 10
-99.727284581
 20
-41.0157619034
 10
-99.7583742988
 20
-40.9883973126
 10
-99.7870843094
 20
-40.9585628269
 10
-99.8132273841
 20
-40.9264552449
 10
-99.8366440071
 20
-40.8922631879
 10
-99.85717139
 20
-40.856205305
 10
-99.874652722
 20
-40.8185352695
 10
-99.8889590245
 20
-40.779509059
  0
LWPOLYLINE
  5
541
100
AcDbEntity
  8
RACCORDO
100
AcDbPolyline
 62
250
  6
CONTINUOUS
 90
19
 70
0
 10
-102.3342105601
 20
-41.076160393
 10
-102.3759190536
 20
-41.0736862134
 10
-102.4172753341
 20
-41.0677380661
 10
-102.4579905877
 20
-41.0583574904
 10
-102.4977804771
 20
-41.0456099962
 10
-102.5363671273
 20
-41.0295846065
 10
-102.5734810666
 20
-41.0103932357
 10
-102.6088631077
 20
-40.9881699079
 10
-102.6422661583
 20
-40.963069821
 10
-102.6734569464
 20
-40.935268263
 10
-102.7022176497
 20
-40.9049593877
 10
-102.7283474162
 20
-40.8723548587
 10
-102.7516637674
 20
-40.8376823717
 10
-102.7720038724
 20
-40.8011840638
 10
-102.7892256852
 20
-40.763114823
 10
-102.8032089362
 20
-40.7237405079
 10
-102.8138559728
 20
-40.683336091
 10
-102.8210924409
 20
-40.6421837388
 10
-102.8248678044
 20
-40.600570841
  0
LWPOLYLINE
  5
542
100
AcDbEntity
  8
RACCORDO
100
AcDbPolyline
 62
250
  6
CONTINUOUS
 90
16
 70
0
 10
-99.1878982935
 20
-41.1310794779
 10
-99.2314875752
 20
-41.1284016769
 10
-99.2746757738
 20
-41.1219116791
 10
-99.317131782
 20
-41.1116592408
 10
-99.3585301055
 20
-41.0977229634
 10
-99.3985533591
 20
-41.0802096912
 10
-99.4368946998
 20
-41.0592536918
 10
-99.4732601789
 20
-41.0350156269
 10
-99.5073709961
 20
-41.0076813205
 10
-99.5389656368
 20
-40.9774603343
 10
-99.5678018767
 20
-40.9445843614
 10
-99.5936586395
 20
-40.9093054491
 10
-99.616337691
 20
-40.8718940677
 10
-99.6356651596
 20
-40.832637036
 10
-99.651492869
 20
-40.7918353227
 10
-99.663699474
 20
-40.7498017391
  0
LWPOLYLINE
  5
543
100
AcDbEntity
  8
RACCORDO
100
AcDbPolyline
 62
250
  6
CONTINUOUS
 90
16
 70
0
 10
-98.1396844391
 20
-41.1527276252
 10
-98.185571944
 20
-41.1497738084
 10
-98.2309892183
 20
-41.1425410414
 10
-98.2755452159
 20
-41.1310915996
 10
-98.3188563063
 20
-41.1155240642
 10
-98.3605495781
 20
-41.0959724736
 10
-98.4002660497
 20
-41.0726051687
 10
-98.4376637595
 20
-41.0456233445
 10
-98.472420711
 20
-41.0152593168
 10
-98.504237645
 20
-40.9817745224
 10
-98.5328406158
 20
-40.945457268
 10
-98.5579833501
 20
-40.906620248
 10
-98.5794493681
 20
-40.8655978517
 10
-98.5970538461
 20
-40.8227432848
 10
-98.6106452086
 20
-40.7784255283
 10
-98.6201064334
 20
-40.7330261611
  0
LWPOLYLINE
  5
544
100
AcDbEntity
  8
RACCORDO
100
AcDbPolyline
 62
250
  6
CONTINUOUS
 90
5
 70
0
 10
-99.8889631357
 20
-40.7795103712
 10
-99.89098227
 20
-40.7793611795
 10
-99.896882513
 20
-40.7785155693
 10
-99.9066603744
 20
-40.7769788147
 10
-99.9201940798
 20
-40.7747887869
  0
LWPOLYLINE
  5
545
100
AcDbEntity
  8
0
100
AcDbPolyline
 62
7
  6
CONTINUOUS
 90
5
 70
0
 10
-102.2457728921
 20
32.4557536055
 10
-102.2458313529
 20
32.4556944024
 10
-102.2461974022
 20
32.4546401211
 10
-102.2468675015
 20
32.4522094004
 10
-102.2478252856
 20
32.4483298532
  0
LWPOLYLINE
  5
546
100
AcDbEntity
  8
RACCORDO
100
AcDbPolyline
 62
7
  6
CONTINUOUS
 90
3
 70
0
 10
-99.8480157795
 20
40.847453237
 10
-99.8648654113
 20
40.8090270246
 10
-99.8786168803
 20
40.7688687449
  0
LINE
  5
547
100
AcDbEntity
  8
RACCORDO
100
AcDbLine
 62
250
  6
CONTINUOUS
 10
-99.7533385969
 20
-36.8492713473
 11
-99.7564684773
 21
-36.8496696921
  0
LINE
  5
548
100
AcDbEntity
  8
RACCORDO
100
AcDbLine
 62
250
  6
CONTINUOUS
 10
-98.1802270056
 20
-35.1860217142
 11
-98.3337853137
 21
-35.1992742496
  0
LINE
  5
549
100
AcDbEntity
  8
RACCORDO
100
AcDbLine
 62
250
  6
CONTINUOUS
 10
-97.8551780143
 20
-35.1586075323
 11
-98.1802270056
 21
-35.1860217142
  0
LINE
  5
54A
100
AcDbEntity
  8
RACCORDO
100
AcDbLine
 62
250
  6
CONTINUOUS
 10
-97.8551780143
 20
-35.1586075323
 11
-83.4024557352
 21
-35.4108807381
  0
LINE
  5
54B
100
AcDbEntity
  8
0
100
AcDbLine
 62
7
  6
CONTINUOUS
 10
-101.6056183051
 20
35.0233750724
 11
-101.7191736414
 21
34.5684950769
  0
LINE
  5
54C
100
AcDbEntity
  8
0
100
AcDbLine
 62
7
  6
CONTINUOUS
 10
-101.4997847404
 20
35.43614139
 11
-101.6056183051
 21
35.0233750724
  0
LINE
  5
54D
100
AcDbEntity
  8
RACCORDO
100
AcDbLine
 62
250
  6
CONTINUOUS
 10
-100.55372571
 20
38.2646317877
 11
-100.3966255678
 21
38.8627187745
  0
LINE
  5
54E
100
AcDbEntity
  8
0
100
AcDbLine
 62
7
  6
CONTINUOUS
 10
-101.3995884737
 20
35.8178088599
 11
-101.4997847404
 21
35.43614139
  0
LINE
  5
54F
100
AcDbEntity
  8
0
100
AcDbLine
 62
7
  6
CONTINUOUS
 10
-101.3041939047
 20
36.1735584444
 11
-101.3995884737
 21
35.8178088599
  0
LWPOLYLINE
  5
550
100
AcDbEntity
  8
RACCORDO
100
AcDbPolyline
 62
250
  6
CONTINUOUS
 90
3
 70
0
 10
-100.2310902141
 20
39.4794256946
 10
-100.0568872603
 20
40.1142966867
 10
-99.873649357
 20
40.767292906
  0
LINE
  5
551
100
AcDbEntity
  8
0
100
AcDbLine
 62
7
  6
CONTINUOUS
 10
-101.2119255536
 20
36.5110409807
 11
-101.3041939047
 21
36.1735584444
  0
LWPOLYLINE
  5
552
100
AcDbEntity
  8
RACCORDO
100
AcDbPolyline
 62
7
  6
CONTINUOUS
 90
10
 70
0
 10
-99.8736574689
 20
40.7672955065
 10
-100.1701777763
 20
39.7032278664
 10
-100.4691113208
 20
38.588839839
 10
-100.7508838665
 20
37.4955193376
 10
-101.0156883797
 20
36.4233768408
 10
-101.2636057807
 20
35.3725361888
 10
-101.4946656581
 20
34.3431596341
 10
-101.7088943993
 20
33.3354064751
 10
-101.9063686156
 20
32.3494273819
 10
-102.0558138087
 20
31.5578028402
  0
LINE
  5
553
100
AcDbEntity
  8
0
100
AcDbLine
 62
7
  6
CONTINUOUS
 10
-101.1213149549
 20
36.8365180371
 11
-101.2119255536
 21
36.5110409807
  0
LINE
  5
554
100
AcDbEntity
  8
RACCORDO
100
AcDbLine
 62
7
  6
CONTINUOUS
 10
-100.3139500446
 20
39.25
 11
-100.1706072799
 21
39.7600142367
  0
LINE
  5
555
100
AcDbEntity
  8
0
100
AcDbLine
 62
7
  6
CONTINUOUS
 10
-100.9875492893
 20
37.3069486458
 11
-101.1213149549
 21
36.8365180371
  0
LINE
  5
556
100
AcDbEntity
  8
RACCORDO
100
AcDbLine
 62
250
  6
CONTINUOUS
 10
-102.0537163455
 20
31.5651152255
 11
-102.055748278
 21
31.5580635532
  0
LINE
  5
557
100
AcDbEntity
  8
RACCORDO
100
AcDbLine
 62
7
  6
CONTINUOUS
 10
-100.1706072799
 20
39.7600142367
 11
-100.025504145
 21
40.2662600016
  0
LINE
  5
558
100
AcDbEntity
  8
0
100
AcDbLine
 62
7
  6
CONTINUOUS
 10
-100.8580284078
 20
37.7518083583
 11
-100.9875492893
 21
37.3069486458
  0
LINE
  5
559
100
AcDbEntity
  8
RACCORDO
100
AcDbLine
 62
7
  6
CONTINUOUS
 10
-100.025504145
 20
40.2662600016
 11
-99.8786168803
 21
40.7688687449
  0
LINE
  5
55A
100
AcDbEntity
  8
0
100
AcDbLine
 62
7
  6
CONTINUOUS
 10
-100.7378181518
 20
38.1559833821
 11
-100.8580284078
 21
37.7518083583
  0
LINE
  5
55B
100
AcDbEntity
  8
0
100
AcDbLine
 62
7
  6
CONTINUOUS
 10
-100.6290684577
 20
38.5148583293
 11
-100.7378181518
 21
38.1559833821
  0
LINE
  5
55C
100
AcDbEntity
  8
0
100
AcDbLine
 62
7
  6
CONTINUOUS
 10
-100.4973688969
 20
38.941374752
 11
-100.6290684577
 21
38.5148583293
  0
LINE
  5
55D
100
AcDbEntity
  8
0
100
AcDbLine
 62
7
  6
CONTINUOUS
 10
-100.2570670814
 20
39.7000000023
 11
-100.2732393959
 21
39.648160309
  0
LINE
  5
55E
100
AcDbEntity
  8
0
100
AcDbLine
 62
7
  6
CONTINUOUS
 10
-100.3774223092
 20
39.3225224066
 11
-100.4973688969
 21
38.941374752
  0
LINE
  5
55F
100
AcDbEntity
  8
0
100
AcDbLine
 62
7
  6
CONTINUOUS
 10
-100.2653428474
 20
39.6726809856
 11
-100.3774223092
 21
39.3225224066
  0
LINE
  5
560
100
AcDbEntity
  8
RACCORDO
100
AcDbLine
 62
7
  6
CONTINUOUS
 10
-100.138991709
 20
40.0633467032
 11
-100.2570670814
 21
39.7000000023
  0
LINE
  5
561
100
AcDbEntity
  8
0
100
AcDbLine
 62
7
  6
CONTINUOUS
 10
-100.1333471747
 20
40.0779765649
 11
-100.2653428474
 21
39.6726809856
  0
LWPOLYLINE
  5
562
100
AcDbEntity
  8
RACCORDO
100
AcDbPolyline
 62
7
  6
CONTINUOUS
 90
16
 70
0
 10
-99.873645867
 20
40.7672919268
 10
-99.8602577227
 20
40.807800587
 10
-99.843558425
 20
40.8468267889
 10
-99.823718496
 20
40.8841106897
 10
-99.8009883309
 20
40.9193255806
 10
-99.7755273237
 20
40.9523483532
 10
-99.7473319554
 20
40.9832066543
 10
-99.7165400975
 20
41.0117019639
 10
-99.6833853293
 20
41.0375742211
 10
-99.6479511253
 20
41.0607005235
 10
-99.6103899419
 20
41.0808919077
 10
-99.5710029963
 20
41.0979008202
 10
-99.5301125754
 20
41.1115240969
 10
-99.4880264199
 20
41.1216080673
 10
-99.4450290506
 20
41.128034458
 10
-99.4014380829
 20
41.1307036334
  0
LINE
  5
563
100
AcDbEntity
  8
RACCORDO
100
AcDbLine
 62
7
  6
CONTINUOUS
 10
-100.0189139294
 20
40.4260126948
 11
-100.138991709
 21
40.0633467032
  0
LINE
  5
564
100
AcDbEntity
  8
0
100
AcDbLine
 62
7
  6
CONTINUOUS
 10
-100.0139819685
 20
40.4381742107
 11
-100.1333471747
 21
40.0779765649
  0
LINE
  5
565
100
AcDbEntity
  8
0
100
AcDbLine
 62
7
  6
CONTINUOUS
 10
-99.896324798
 20
40.7875887976
 11
-100.0139819685
 21
40.4381742107
  0
LINE
  5
566
100
AcDbEntity
  8
RACCORDO
100
AcDbLine
 62
7
  6
CONTINUOUS
 10
-99.8968284367
 20
40.7879974005
 11
-100.0189139294
 21
40.4260126948
  0
LINE
  5
567
100
AcDbEntity
  8
RACCORDO
100
AcDbLine
 62
250
  6
CONTINUOUS
 10
-100.1540593619
 20
-35.5808196359
 11
-100.1628682091
 21
-35.5824485534
  0
LINE
  5
568
100
AcDbEntity
  8
RACCORDO
100
AcDbLine
 62
250
  6
CONTINUOUS
 10
-100.1028047669
 20
-35.5717489455
 11
-100.1540593619
 21
-35.5808196359
  0
LINE
  5
569
100
AcDbEntity
  8
RACCORDO
100
AcDbLine
 62
250
  6
CONTINUOUS
 10
-99.9657387944
 20
-35.548066084
 11
-100.1028047669
 21
-35.5717489455
  0
LINE
  5
56A
100
AcDbEntity
  8
0
100
AcDbLine
 62
250
  6
CONTINUOUS
 10
-80.9024557352
 20
-31.0
 11
-83.4024557352
 21
-31.0
  0
LWPOLYLINE
  5
56B
100
AcDbEntity
  8
RACCORDO
100
AcDbPolyline
 62
250
  6
CONTINUOUS
 90
8
 70
0
 10
-103.1384709786
 20
-26.2191542638
 10
-103.1457174187
 20
-26.2170542421
 10
-103.1495063068
 20
-26.2158919033
 10
-103.1533362852
 20
-26.214649217
 10
-103.1571377746
 20
-26.2134410157
 10
-103.1608749021
 20
-26.2122281165
 10
-103.1644586332
 20
-26.2109869266
 10
-103.1677591818
 20
-26.2098614452
  0
LWPOLYLINE
  5
56C
100
AcDbEntity
  8
RACCORDO
100
AcDbPolyline
 62
250
  6
CONTINUOUS
 90
4
 70
0
 10
-103.1756458429
 20
-26.2073349761
 10
-103.177472226
 20
-26.2068034169
 10
-103.1790027216
 20
-26.206526904
 10
-103.1803165171
 20
-26.2065798528
  0
LINE
  5
56D
100
AcDbEntity
  8
RACCORDO
100
AcDbLine
 62
250
  6
CONTINUOUS
 10
-103.1677591818
 20
-26.2098614452
 11
-103.1756458429
 21
-26.2073349761
  0
LWPOLYLINE
  5
56E
100
AcDbEntity
  8
RACCORDO
100
AcDbPolyline
 62
250
  6
CONTINUOUS
 90
9
 70
0
 10
-99.230012442
 20
-40.7780931486
 10
-99.2186486166
 20
-40.8120057076
 10
-99.2047056036
 20
-40.8452793843
 10
-99.1882024062
 20
-40.8777232868
 10
-99.1691755765
 20
-40.9091455981
 10
-99.1476794245
 20
-40.939354605
 10
-99.1237715683
 20
-40.9681637507
 10
-99.0975417125
 20
-40.9953772239
 10
-99.0691191692
 20
-41.0207954774
  0
LWPOLYLINE
  5
56F
100
AcDbEntity
  8
RACCORDO
100
AcDbPolyline
 62
250
  6
CONTINUOUS
 90
13
 70
0
 10
-99.8889610095
 20
-40.7794887529
 10
-100.3162318178
 20
-39.4079092786
 10
-100.7129538511
 20
-38.0646910783
 10
-101.0806677804
 20
-36.7499970689
 10
-101.4204014259
 20
-35.4613498311
 10
-101.7314054033
 20
-34.2012562271
 10
-102.0117020144
 20
-32.9772654418
 10
-102.2597015004
 20
-31.798761325
 10
-102.4781484658
 20
-30.6564821449
 10
-102.6712690256
 20
-29.5299772306
 10
-102.8402609958
 20
-28.4124073916
 10
-102.9843260051
 20
-27.3106540573
 10
-103.1046878522
 20
-26.2248466371
  0
LINE
  5
570
100
AcDbEntity
  8
0
100
AcDbLine
 62
7
  6
CONTINUOUS
 10
-103.0291559482
 20
27.5330423911
 11
-103.0660561612
 21
27.2268180541
  0
LINE
  5
571
100
AcDbEntity
  8
0
100
AcDbLine
 62
7
  6
CONTINUOUS
 10
-102.9866720256
 20
27.8696553631
 11
-103.0291559482
 21
27.5330423911
  0
LINE
  5
572
100
AcDbEntity
  8
0
100
AcDbLine
 62
7
  6
CONTINUOUS
 10
-102.9389875787
 20
28.2294943669
 11
-102.9866720256
 21
27.8696553631
  0
LINE
  5
573
100
AcDbEntity
  8
0
100
AcDbLine
 62
7
  6
CONTINUOUS
 10
-102.8860372169
 20
28.6096113696
 11
-102.9389875787
 21
28.2294943669
  0
LINE
  5
574
100
AcDbEntity
  8
0
100
AcDbLine
 62
7
  6
CONTINUOUS
 10
-102.8278937988
 20
29.0066774668
 11
-102.8860372169
 21
28.6096113696
  0
LINE
  5
575
100
AcDbEntity
  8
0
100
AcDbLine
 62
7
  6
CONTINUOUS
 10
-102.7641655383
 20
29.4208665543
 11
-102.8278937988
 21
29.0066774668
  0
LINE
  5
576
100
AcDbEntity
  8
RACCORDO
100
AcDbLine
 62
250
  6
CONTINUOUS
 10
-102.0583502563
 20
31.5356064166
 11
-102.0537163455
 21
31.5651152255
  0
LINE
  5
577
100
AcDbEntity
  8
0
100
AcDbLine
 62
7
  6
CONTINUOUS
 10
-102.8101966186
 20
29.4059325522
 11
-102.855831042
 21
29.1174362133
  0
LINE
  5
578
100
AcDbEntity
  8
0
100
AcDbLine
 62
7
  6
CONTINUOUS
 10
-102.6945995725
 20
29.8514216202
 11
-102.7641655383
 21
29.4208665543
  0
LINE
  5
579
100
AcDbEntity
  8
0
100
AcDbLine
 62
7
  6
CONTINUOUS
 10
-102.7616916976
 20
29.7038228631
 11
-102.8101966186
 21
29.4059325522
  0
LWPOLYLINE
  5
57A
100
AcDbEntity
  8
RACCORDO
100
AcDbPolyline
 62
7
  6
CONTINUOUS
 90
17
 70
0
 10
-102.055756183
 20
31.5580204978
 10
-102.0574714917
 20
31.5477292317
 10
-102.0604413902
 20
31.5174816064
 10
-102.0603195747
 20
31.4872619746
 10
-102.0572034057
 20
31.457783478
 10
-102.0513681982
 20
31.4295878533
 10
-102.0430138887
 20
31.4026768796
 10
-102.0322605841
 20
31.3770278956
 10
-102.0192872016
 20
31.3528147039
 10
-102.0043016027
 20
31.3302323366
 10
-101.9873939381
 20
31.3092780024
 10
-101.9687828789
 20
31.2901215923
 10
-101.94867987
 20
31.27290021
 10
-101.9271159228
 20
31.2575915676
 10
-101.9043206145
 20
31.2443259271
 10
-101.8805047662
 20
31.2332025775
 10
-101.8556535357
 20
31.2242050984
  0
LINE
  5
57B
100
AcDbEntity
  8
0
100
AcDbLine
 62
7
  6
CONTINUOUS
 10
-102.7060864468
 20
30.0352143767
 11
-102.7616916976
 21
29.7038228631
  0
LINE
  5
57C
100
AcDbEntity
  8
0
100
AcDbLine
 62
7
  6
CONTINUOUS
 10
-102.6191150134
 20
30.296678914
 11
-102.6945995725
 21
29.8514216202
  0
LWPOLYLINE
  5
57D
100
AcDbEntity
  8
0
100
AcDbPolyline
 62
7
  6
CONTINUOUS
 90
7
 70
0
 10
-102.584053695
 20
30.7273627632
 10
-102.5874649387
 20
30.7078871003
 10
-102.589011414
 20
30.6993361083
 10
-102.5903335808
 20
30.6916831098
 10
-102.5913949295
 20
30.6851796698
 10
-102.5922319697
 20
30.6802249386
 10
-102.5928447012
 20
30.6771594118
  0
LINE
  5
57E
100
AcDbEntity
  8
0
100
AcDbLine
 62
7
  6
CONTINUOUS
 10
-102.5379727832
 20
30.7533500841
 11
-102.6191150134
 21
30.296678914
  0
LINE
  5
57F
100
AcDbEntity
  8
0
100
AcDbLine
 62
7
  6
CONTINUOUS
 10
-102.5928447012
 20
30.6771594118
 11
-102.5963515414
 21
30.6576616347
  0
LINE
  5
580
100
AcDbEntity
  8
RACCORDO
100
AcDbLine
 62
7
  6
CONTINUOUS
 10
-102.2764522283
 20
30.7
 11
-102.1862250164
 21
31.2064921732
  0
LINE
  5
581
100
AcDbEntity
  8
0
100
AcDbLine
 62
7
  6
CONTINUOUS
 10
-102.5992232305
 20
30.6427008601
 11
-102.7060864468
 21
30.0352143767
  0
LINE
  5
582
100
AcDbEntity
  8
RACCORDO
100
AcDbLine
 62
7
  6
CONTINUOUS
 10
-102.055748278
 20
31.5580635532
 11
-102.055777008
 21
31.5579072034
  0
LINE
  5
583
100
AcDbEntity
  8
0
100
AcDbLine
 62
7
  6
CONTINUOUS
 10
-102.5172608993
 20
31.0948516288
 11
-102.584053695
 21
30.7273627632
  0
LINE
  5
584
100
AcDbEntity
  8
RACCORDO
100
AcDbLine
 62
7
  6
CONTINUOUS
 10
-102.1862250164
 20
31.2064921732
 11
-102.0911372746
 21
31.7191284944
  0
LINE
  5
585
100
AcDbEntity
  8
0
100
AcDbLine
 62
7
  6
CONTINUOUS
 10
-102.450881685
 20
31.2216266316
 11
-102.5379727832
 21
30.7533500841
  0
LINE
  5
586
100
AcDbEntity
  8
0
100
AcDbLine
 62
7
  6
CONTINUOUS
 10
-102.4661009595
 20
31.366977735
 11
-102.5172608993
 21
31.0948516288
  0
LINE
  5
587
100
AcDbEntity
  8
RACCORDO
100
AcDbLine
 62
250
  6
CONTINUOUS
 10
-101.9063686156
 20
32.3494273819
 11
-101.9021937118
 21
32.3674740515
  0
LINE
  5
588
100
AcDbEntity
  8
0
100
AcDbLine
 62
7
  6
CONTINUOUS
 10
-102.5963515414
 20
30.6576616347
 11
-102.5992232305
 21
30.6427008601
  0
LINE
  5
589
100
AcDbEntity
  8
RACCORDO
100
AcDbLine
 62
7
  6
CONTINUOUS
 10
-102.0911372746
 20
31.7191284944
 11
-101.9911181521
 21
32.2380340438
  0
LINE
  5
58A
100
AcDbEntity
  8
0
100
AcDbLine
 62
7
  6
CONTINUOUS
 10
-102.4142347461
 20
31.6357350194
 11
-102.4661009595
 21
31.366977735
  0
LINE
  5
58B
100
AcDbEntity
  8
0
100
AcDbLine
 62
7
  6
CONTINUOUS
 10
-102.3570880511
 20
31.7041334793
 11
-102.450881685
 21
31.2216266316
  0
LINE
  5
58C
100
AcDbEntity
  8
0
100
AcDbLine
 62
7
  6
CONTINUOUS
 10
-102.3403063408
 20
32.0075355057
 11
-102.4142347461
 21
31.6357350194
  0
LINE
  5
58D
100
AcDbEntity
  8
RACCORDO
100
AcDbLine
 62
7
  6
CONTINUOUS
 10
-101.9911181521
 20
32.2380340438
 11
-101.8860195689
 21
32.7637234517
  0
LINE
  5
58E
100
AcDbEntity
  8
RACCORDO
100
AcDbLine
 62
7
  6
CONTINUOUS
 10
-101.7363599437
 20
33.4960471747
 11
-101.7979391745
 21
33.1889562289
  0
LINE
  5
58F
100
AcDbEntity
  8
RACCORDO
100
AcDbLine
 62
7
  6
CONTINUOUS
 10
-101.7049539386
 20
33.65
 11
-101.7363599437
 21
33.4960471747
  0
LINE
  5
590
100
AcDbEntity
  8
0
100
AcDbLine
 62
7
  6
CONTINUOUS
 10
-102.2539953468
 20
32.2120014868
 11
-102.3570880511
 21
31.7041334793
  0
LINE
  5
591
100
AcDbEntity
  8
RACCORDO
100
AcDbLine
 62
250
  6
CONTINUOUS
 10
-101.7344668473
 20
33.2081478515
 11
-101.6443695965
 21
33.6423897029
  0
LINE
  5
592
100
AcDbEntity
  8
RACCORDO
100
AcDbLine
 62
7
  6
CONTINUOUS
 10
-101.8860195689
 20
32.7637234517
 11
-101.8148714693
 21
33.1090508361
  0
LINE
  5
593
100
AcDbEntity
  8
RACCORDO
100
AcDbLine
 62
7
  6
CONTINUOUS
 10
-101.8148714693
 20
33.1090508361
 11
-101.7979391745
 21
33.1889562289
  0
LWPOLYLINE
  5
594
100
AcDbEntity
  8
0
100
AcDbPolyline
 62
7
  6
CONTINUOUS
 90
3
 70
0
 10
-102.2708166107
 20
32.343749234
 10
-102.2739745725
 20
32.329087873
 10
-102.3403063408
 20
32.0075355057
  0
LINE
  5
595
100
AcDbEntity
  8
RACCORDO
100
AcDbLine
 62
250
  6
CONTINUOUS
 10
-101.5487550565
 20
34.0916181441
 11
-101.4471546397
 21
34.5571259718
  0
LWPOLYLINE
  5
596
100
AcDbEntity
  8
0
100
AcDbPolyline
 62
7
  6
CONTINUOUS
 90
3
 70
0
 10
-102.0819567992
 20
33.0153698663
 10
-102.14127385
 20
32.7440455907
 10
-102.2539953468
 20
32.2120014868
  0
LWPOLYLINE
  5
597
100
AcDbEntity
  8
DRAFT
100
AcDbPolyline
 62
7
  6
CONTINUOUS
 90
10
 70
0
 10
-101.7049539386
 20
33.65
 10
-101.5756933109
 20
34.2394202762
 10
-101.4401092391
 20
34.8372051925
 10
-101.2982017231
 20
35.4433547491
 10
-101.1499712911
 20
36.0580878174
 10
-100.995417415
 20
36.6811855258
 10
-100.8345385107
 20
37.3119912598
 10
-100.6673340502
 20
37.9502861477
 10
-100.4938045615
 20
38.5962890611
 10
-100.3139500446
 20
39.25
  0
LWPOLYLINE
  5
598
100
AcDbEntity
  8
0
100
AcDbPolyline
 62
7
  6
CONTINUOUS
 90
4
 70
0
 10
-102.2527972028
 20
32.4269057923
 10
-102.2618807176
 20
32.3857531917
 10
-102.2660677346
 20
32.366391564
 10
-102.2708166107
 20
32.343749234
  0
LINE
  5
599
100
AcDbEntity
  8
0
100
AcDbLine
 62
7
  6
CONTINUOUS
 10
-101.959580395
 20
33.5583668104
 11
-102.0819567992
 21
33.0153698663
  0
LINE
  5
59A
100
AcDbEntity
  8
RACCORDO
100
AcDbLine
 62
250
  6
CONTINUOUS
 10
-101.3396696256
 20
35.0375815487
 11
-101.2258468725
 21
35.5341844422
  0
LWPOLYLINE
  5
59B
100
AcDbEntity
  8
0
100
AcDbPolyline
 62
7
  6
CONTINUOUS
 90
3
 70
0
 10
-102.2478252856
 20
32.4483298532
 10
-102.2507512405
 20
32.4358721431
 10
-102.2527972028
 20
32.4269057923
  0
LINE
  5
59C
100
AcDbEntity
  8
0
100
AcDbLine
 62
7
  6
CONTINUOUS
 10
-101.8378239792
 20
34.0785541795
 11
-101.959580395
 21
33.5583668104
  0
LINE
  5
59D
100
AcDbEntity
  8
RACCORDO
100
AcDbLine
 62
250
  6
CONTINUOUS
 10
-101.1054841848
 20
36.0470060121
 11
-100.9784259106
 21
36.5759370583
  0
LINE
  5
59E
100
AcDbEntity
  8
0
100
AcDbLine
 62
7
  6
CONTINUOUS
 10
-101.7191736414
 20
34.5684950769
 11
-101.8378239792
 21
34.0785541795
  0
LINE
  5
59F
100
AcDbEntity
  8
RACCORDO
100
AcDbLine
 62
250
  6
CONTINUOUS
 10
-100.8442437605
 20
37.1219015538
 11
-100.7027539334
 21
37.6847718626
  0
LWPOLYLINE
  5
5A0
100
AcDbEntity
  8
0
100
AcDbPolyline
 62
7
  6
CONTINUOUS
 90
3
 70
0
 43
0.3500000006
 10
-92.7917440796
 20
52.3208621979
 10
-92.8631661987
 20
52.106577713
 10
-93.0060285645
 20
51.8208620453
  0
LINE
  5
5A1
100
AcDbEntity
  8
RACCORDO
100
AcDbLine
 62
7
  6
CONTINUOUS
 10
-103.1035864621
 20
-25.9200535878
 11
-103.2699081416
 21
-25.917150432
  0
LWPOLYLINE
  5
5A2
100
AcDbEntity
  8
RACCORDO
100
AcDbPolyline
 62
250
  6
CONTINUOUS
 90
13
 70
0
 10
-103.1066556298
 20
-26.2248836227
 10
-103.1086894411
 20
-26.2248192168
 10
-103.110794518
 20
-26.2246734903
 10
-103.1129779989
 20
-26.2244780863
 10
-103.1152561802
 20
-26.2242291669
 10
-103.1176540238
 20
-26.2238870459
 10
-103.1201811271
 20
-26.2234612277
 10
-103.1228443459
 20
-26.2229690849
 10
-103.1256615995
 20
-26.2223819872
 10
-103.1286318292
 20
-26.2216993922
 10
-103.1317536112
 20
-26.2209389098
 10
-103.1350386465
 20
-26.2200966136
 10
-103.1384709786
 20
-26.2191542638
  0
LINE
  5
5A3
100
AcDbEntity
  8
RACCORDO
100
AcDbLine
 62
250
  6
CONTINUOUS
 10
-99.2387911541
 20
-40.7437296181
 11
-99.230012442
 21
-40.7780931486
  0
LWPOLYLINE
  5
5A4
100
AcDbEntity
  8
RACCORDO
100
AcDbPolyline
 62
7
  6
CONTINUOUS
 90
19
 70
0
 10
-99.2389657522
 20
-40.7504152427
 10
-99.234568608
 20
-40.7678769956
 10
-99.2238505235
 20
-40.8022010055
 10
-99.2103718753
 20
-40.8363033447
 10
-99.1941582127
 20
-40.8697647495
 10
-99.1751915073
 20
-40.902301593
 10
-99.1534623925
 20
-40.9337475892
 10
-99.1291232703
 20
-40.9637755312
 10
-99.1022335811
 20
-40.9921874576
 10
-99.0728170617
 20
-41.0188098177
 10
-99.0411258704
 20
-41.043324988
 10
-99.0072742691
 20
-41.0655525041
 10
-98.9712823792
 20
-41.0853654507
 10
-98.9333577355
 20
-41.1025407203
 10
-98.8935642548
 20
-41.1169235759
 10
-98.852059109
 20
-41.128306865
 10
-98.8092334228
 20
-41.1364326175
 10
-98.7652584443
 20
-41.1411426977
 10
-98.7433577962
 20
-41.1421652563
  0
LWPOLYLINE
  5
5A5
100
AcDbEntity
  8
RACCORDO
100
AcDbPolyline
 62
250
  6
CONTINUOUS
 90
3
 70
0
 10
-99.2723252045
 20
-40.5498771186
 10
-99.2774083317
 20
-40.5283877366
 10
-99.2790783401
 20
-40.5152382924
  0
LWPOLYLINE
  5
5A6
100
AcDbEntity
  8
RACCORDO
100
AcDbPolyline
 62
250
  6
CONTINUOUS
 90
7
 70
0
 10
-99.2565633903
 20
-40.6584274754
 10
-99.2539297157
 20
-40.6723596406
 10
-99.2511415544
 20
-40.686536939
 10
-99.2482303745
 20
-40.7007804723
 10
-99.2452069142
 20
-40.7150306339
 10
-99.2420610941
 20
-40.7293471
 10
-99.2387932129
 20
-40.7437299022
  0
LWPOLYLINE
  5
5A7
100
AcDbEntity
  8
RACCORDO
100
AcDbPolyline
 62
250
  6
CONTINUOUS
 90
5
 70
0
 10
-99.2713673118
 20
-40.5599042705
 10
-99.2702043468
 20
-40.5704807688
 10
-99.2688364057
 20
-40.5816066238
 10
-99.2672549989
 20
-40.5933363472
 10
-99.2654687955
 20
-40.6056154462
  0
LWPOLYLINE
  5
5A8
100
AcDbEntity
  8
RACCORDO
100
AcDbPolyline
 62
250
  6
CONTINUOUS
 90
21
 70
0
 10
-99.7279141549
 20
-38.7066449292
 10
-99.6918130224
 20
-39.0484831356
 10
-99.6758438136
 20
-39.2097634241
 10
-99.6612989897
 20
-39.3642757346
 10
-99.6481672496
 20
-39.5120655223
 10
-99.6365185443
 20
-39.6523821025
 10
-99.6263712493
 20
-39.7852524564
 10
-99.6177240882
 20
-39.910651411
 10
-99.6106416741
 20
-40.0277526026
 10
-99.6051448445
 20
-40.1362387083
 10
-99.6012591926
 20
-40.2364319609
 10
-99.5990616389
 20
-40.3284658771
 10
-99.5985174769
 20
-40.4127549869
 10
-99.5996770312
 20
-40.4888864117
 10
-99.6027472007
 20
-40.5557528128
 10
-99.6077831003
 20
-40.6133754723
 10
-99.6147606474
 20
-40.6617363895
 10
-99.62379847
 20
-40.6996725293
 10
-99.6349658168
 20
-40.7267993544
 10
-99.6482580079
 20
-40.7435082299
 10
-99.663699474
 20
-40.7498017391
  0
LWPOLYLINE
  5
5A9
100
AcDbEntity
  8
RACCORDO
100
AcDbPolyline
 62
250
  6
CONTINUOUS
 90
4
 70
0
 10
-99.3489428113
 20
-39.7769367513
 10
-99.3147709321
 20
-40.1006701
 10
-99.2995089908
 20
-40.2549662481
 10
-99.2853657341
 20
-40.4047024835
  0
LINE
  5
5AA
100
AcDbEntity
  8
RACCORDO
100
AcDbLine
 62
250
  6
CONTINUOUS
 10
-103.1222085834
 20
-25.7543618931
 11
-103.0759584161
 21
-26.2244232792
  0
LWPOLYLINE
  5
5AB
100
AcDbEntity
  8
RACCORDO
100
AcDbPolyline
 62
7
  6
CONTINUOUS
 90
13
 70
0
 10
-99.2791108336
 20
-40.5148576926
 10
-99.2773871603
 20
-40.5327723937
 10
-99.2750882716
 20
-40.552759329
 10
-99.2723774616
 20
-40.573305851
 10
-99.2692845076
 20
-40.5943760435
 10
-99.2658485718
 20
-40.6158397879
 10
-99.2620922633
 20
-40.63765282
 10
-99.2580563936
 20
-40.6596475577
 10
-99.2537782374
 20
-40.6816761499
 10
-99.249283242
 20
-40.703651083
 10
-99.2446080623
 20
-40.725423347
 10
-99.2397903113
 20
-40.7468471501
 10
-99.2389669749
 20
-40.7504129175
  0
LINE
  5
5AC
100
AcDbEntity
  8
RACCORDO
100
AcDbLine
 62
250
  6
CONTINUOUS
 10
-99.2723252045
 20
-40.5498771186
 11
-99.2713673118
 21
-40.5599042705
  0
LINE
  5
5AD
100
AcDbEntity
  8
RACCORDO
100
AcDbLine
 62
250
  6
CONTINUOUS
 10
-99.2853657341
 20
-40.4047024835
 11
-99.2723252045
 21
-40.5498771186
  0
LINE
  5
5AE
100
AcDbEntity
  8
RACCORDO
100
AcDbLine
 62
250
  6
CONTINUOUS
 10
-103.1631561263
 20
-25.3021630817
 11
-103.1222085834
 21
-25.7543618931
  0
LINE
  5
5AF
100
AcDbEntity
  8
RACCORDO
100
AcDbLine
 62
250
  6
CONTINUOUS
 10
-103.1997530424
 20
-24.8620600507
 11
-103.1631561263
 21
-25.3021630817
  0
LINE
  5
5B0
100
AcDbEntity
  8
RACCORDO
100
AcDbLine
 62
250
  6
CONTINUOUS
 10
-103.233847887
 20
-24.4140165498
 11
-103.1997530424
 21
-24.8620600507
  0
LINE
  5
5B1
100
AcDbEntity
  8
RACCORDO
100
AcDbLine
 62
250
  6
CONTINUOUS
 10
-103.2663745677
 20
-23.9434122041
 11
-103.233847887
 21
-24.4140165498
  0
LINE
  5
5B2
100
AcDbEntity
  8
RACCORDO
100
AcDbLine
 62
250
  6
CONTINUOUS
 10
-103.2974460289
 20
-23.4430078226
 11
-103.2663745677
 21
-23.9434122041
  0
LINE
  5
5B3
100
AcDbEntity
  8
RACCORDO
100
AcDbLine
 62
250
  6
CONTINUOUS
 10
-103.3269904143
 20
-22.9056809018
 11
-103.2974460289
 21
-23.4430078226
  0
LINE
  5
5B4
100
AcDbEntity
  8
RACCORDO
100
AcDbLine
 62
250
  6
CONTINUOUS
 10
-103.3546406017
 20
-22.3280422249
 11
-103.3269904143
 21
-22.9056809018
  0
LWPOLYLINE
  5
5B5
100
AcDbEntity
  8
RACCORDO
100
AcDbPolyline
 62
250
  6
CONTINUOUS
 90
6
 70
0
 10
-103.1046842037
 20
-26.2248541831
 10
-103.105690856
 20
-26.2027939605
 10
-103.1042642302
 20
-26.1807903853
 10
-103.1004326385
 20
-26.1591101971
 10
-103.094257032
 20
-26.1380246968
 10
-103.0858211295
 20
-26.1177742452
  0
LINE
  5
5B6
100
AcDbEntity
  8
RACCORDO
100
AcDbLine
 62
250
  6
CONTINUOUS
 10
-103.3801987404
 20
-21.7084945309
 11
-103.3546406017
 21
-22.3280422249
  0
LINE
  5
5B7
100
AcDbEntity
  8
RACCORDO
100
AcDbLine
 62
250
  6
CONTINUOUS
 10
-103.4037562241
 20
-21.0449798026
 11
-103.3801987404
 21
-21.7084945309
  0
LWPOLYLINE
  5
5B8
100
AcDbEntity
  8
RACCORDO
100
AcDbPolyline
 62
7
  6
CONTINUOUS
 90
5
 70
0
 10
-103.4287135206
 20
-20.2326513746
 10
-103.3835276639
 20
-21.6221901591
 10
-103.3104929852
 20
-23.2157874888
 10
-103.206742043
 20
-24.7748687832
 10
-103.0767999892
 20
-26.2174244268
  0
LINE
  5
5B9
100
AcDbEntity
  8
RACCORDO
100
AcDbLine
 62
250
  6
CONTINUOUS
 10
-103.4254273598
 20
-20.3436626369
 11
-103.4037562241
 21
-21.0449798026
  0
LINE
  5
5BA
100
AcDbEntity
  8
RACCORDO
100
AcDbLine
 62
7
  6
CONTINUOUS
 10
-103.45221939
 20
-19.3583888344
 11
-103.4286274439
 21
-20.2326478821
  0
LWPOLYLINE
  5
5BB
100
AcDbEntity
  8
RACCORDO
100
AcDbPolyline
 62
250
  6
CONTINUOUS
 90
3
 70
0
 10
-103.3974758783
 20
22.1295017077
 10
-103.3970441042
 20
22.1277089963
 10
-103.3970706106
 20
22.1096000665
  0
LINE
  5
5BC
100
AcDbEntity
  8
RACCORDO
100
AcDbLine
 62
7
  6
CONTINUOUS
 10
-103.397701646
 20
22.1380195051
 11
-103.3973683202
 21
22.1248883046
  0
LINE
  5
5BD
100
AcDbEntity
  8
RACCORDO
100
AcDbLine
 62
7
  6
CONTINUOUS
 10
-103.3973683202
 20
22.1248883046
 11
-103.3970706106
 21
22.1096000665
  0
LWPOLYLINE
  5
5BE
100
AcDbEntity
  8
RACCORDO
100
AcDbPolyline
 62
250
  6
CONTINUOUS
 90
4
 70
0
 10
-103.4029852617
 20
22.2105496146
 10
-103.4026837366
 20
22.1892540299
 10
-103.4001196373
 20
22.1681112794
 10
-103.3986158824
 20
22.1616073579
  0
LINE
  5
5BF
100
AcDbEntity
  8
RACCORDO
100
AcDbLine
 62
250
  6
CONTINUOUS
 10
-103.3968955859
 20
22.0981676856
 11
-103.3965767517
 21
22.0944289434
  0
LINE
  5
5C0
100
AcDbEntity
  8
RACCORDO
100
AcDbLine
 62
7
  6
CONTINUOUS
 10
-103.3970706106
 20
22.1096000665
 11
-103.3968158301
 21
22.0920661855
  0
LINE
  5
5C1
100
AcDbEntity
  8
RACCORDO
100
AcDbLine
 62
7
  6
CONTINUOUS
 10
-103.3968158301
 20
22.0920661855
 11
-103.3965538454
 21
22.0649821422
  0
LINE
  5
5C2
100
AcDbEntity
  8
RACCORDO
100
AcDbLine
 62
250
  6
CONTINUOUS
 10
-103.3965767517
 20
22.0944289434
 11
-103.3968158301
 21
22.0920661855
  0
LWPOLYLINE
  5
5C3
100
AcDbEntity
  8
RACCORDO
100
AcDbPolyline
 62
250
  6
CONTINUOUS
 90
3
 70
0
 10
-103.3965538454
 20
22.0649821422
 10
-103.3962663989
 20
22.0549632427
 10
-103.396371
 20
22.02485944
  0
LWPOLYLINE
  5
5C4
100
AcDbEntity
  8
RACCORDO
100
AcDbPolyline
 62
250
  6
CONTINUOUS
 90
10
 70
0
 10
-103.1803165205
 20
-26.2065798501
 10
-103.1749467186
 20
-27.8064610677
 10
-103.1610440878
 20
-29.4064098654
 10
-103.1386071204
 20
-31.0063807167
 10
-103.1076322135
 20
-32.6064595554
 10
-103.0681192806
 20
-34.2064693083
 10
-103.0200787655
 20
-35.805970069
 10
-102.9635208847
 20
-37.4047850449
 10
-102.898448613
 20
-39.003000386
 10
-102.8248682046
 20
-40.6005708371
  0
LINE
  5
5C5
100
AcDbEntity
  8
RACCORDO
100
AcDbLine
 62
7
  6
CONTINUOUS
 10
-103.3965538454
 20
22.0649821422
 11
-103.396371
 21
22.02485944
  0
LWPOLYLINE
  5
5C6
100
AcDbEntity
  8
RACCORDO
100
AcDbPolyline
 62
7
  6
CONTINUOUS
 90
12
 70
0
 10
-103.6789858624
 20
0.0000939501
 10
-103.6741462808
 20
-1.9092006346
 10
-103.6655692754
 20
-3.8662233403
 10
-103.6527453904
 20
-5.7903494677
 10
-103.6358576308
 20
-7.6815013076
 10
-103.6157175726
 20
-9.5396623829
 10
-103.5930266753
 20
-11.3648287478
 10
-103.5680308551
 20
-13.1571136303
 10
-103.540812147
 20
-14.9164299724
 10
-103.5110542308
 20
-16.6425871538
 10
-103.4766807918
 20
-18.3356004088
 10
-103.4522552757
 20
-19.3583900121
  0
LINE
  5
5C7
100
AcDbEntity
  8
RACCORDO
100
AcDbLine
 62
250
  6
CONTINUOUS
 10
-103.3963556052
 20
22.0159834789
 11
-103.3961676211
 21
22.0087683032
  0
LINE
  5
5C8
100
AcDbEntity
  8
RACCORDO
100
AcDbLine
 62
7
  6
CONTINUOUS
 10
-104.2524557352
 20
-24.9173027369
 11
-104.2524557352
 21
20.9173027369
  0
LINE
  5
5C9
100
AcDbEntity
  8
RACCORDO
100
AcDbLine
 62
250
  6
CONTINUOUS
 10
-103.2699081416
 20
-25.917150432
 11
-103.2699081416
 21
-23.8256621477
  0
LINE
  5
5CA
100
AcDbEntity
  8
RACCORDO
100
AcDbLine
 62
7
  6
CONTINUOUS
 10
-103.396371
 20
22.02485944
 11
-103.396392067
 21
21.9672982761
  0
LWPOLYLINE
  5
5CB
100
AcDbEntity
  8
RACCORDO
100
AcDbPolyline
 62
7
  6
CONTINUOUS
 90
8
 70
0
 10
-103.5113568695
 20
22.2152887351
 10
-103.5114119575
 20
22.193760903
 10
-103.5091528404
 20
22.1723518632
 10
-103.504605693
 20
22.1513096666
 10
-103.4978231997
 20
22.1308781134
 10
-103.4888839444
 20
22.1112939291
 10
-103.4778914998
 20
22.0927840214
 10
-103.4649732276
 20
22.0755628507
  0
LINE
  5
5CC
100
AcDbEntity
  8
RACCORDO
100
AcDbLine
 62
7
  6
CONTINUOUS
 10
-103.396392067
 20
21.9672982761
 11
-103.3968731462
 21
21.87458231
  0
LINE
  5
5CD
100
AcDbEntity
  8
RACCORDO
100
AcDbLine
 62
250
  6
CONTINUOUS
 10
-103.3965987773
 20
21.8955646353
 11
-103.3968731462
 21
21.87458231
  0
LINE
  5
5CE
100
AcDbEntity
  8
RACCORDO
100
AcDbLine
 62
7
  6
CONTINUOUS
 10
-103.3968731462
 20
21.87458231
 11
-103.3984463588
 21
21.7170724775
  0
LINE
  5
5CF
100
AcDbEntity
  8
RACCORDO
100
AcDbLine
 62
250
  6
CONTINUOUS
 10
-103.3978951148
 20
21.7561831211
 11
-103.3984463588
 21
21.7170724775
  0
LINE
  5
5D0
100
AcDbEntity
  8
RACCORDO
100
AcDbLine
 62
7
  6
CONTINUOUS
 10
-103.3984463588
 20
21.7170724775
 11
-103.4024181799
 21
21.4452729424
  0
LWPOLYLINE
  5
5D1
100
AcDbEntity
  8
RACCORDO
100
AcDbPolyline
 62
7
  6
CONTINUOUS
 90
9
 70
0
 10
-103.4812681776
 20
18.1276788497
 10
-103.5209029585
 20
16.0970069334
 10
-103.5553785395
 20
13.9965807017
 10
-103.586852406
 20
11.8261839576
 10
-103.6151776684
 20
9.5858229909
 10
-103.6398103128
 20
7.2755859832
 10
-103.6592882712
 20
4.8954792416
 10
-103.6721967659
 20
2.445531886
 10
-103.6789854735
 20
0.0000940496
  0
LINE
  5
5D2
100
AcDbEntity
  8
RACCORDO
100
AcDbLine
 62
7
  6
CONTINUOUS
 10
-103.4024181799
 20
21.4452729424
 11
-103.4117358779
 21
20.9577866949
  0
LINE
  5
5D3
100
AcDbEntity
  8
RACCORDO
100
AcDbLine
 62
7
  6
CONTINUOUS
 10
-103.4117358779
 20
20.9577866949
 11
-103.4255520328
 21
20.3646185021
  0
LINE
  5
5D4
100
AcDbEntity
  8
RACCORDO
100
AcDbLine
 62
250
  6
CONTINUOUS
 10
-103.4251432835
 20
20.3786136812
 11
-103.4255520328
 21
20.3646185021
  0
LINE
  5
5D5
100
AcDbEntity
  8
RACCORDO
100
AcDbLine
 62
7
  6
CONTINUOUS
 10
-103.4255520328
 20
20.3646185021
 11
-103.4812681776
 21
18.1276788497
  0
LINE
  5
5D6
100
AcDbEntity
  8
RACCORDO
100
AcDbLine
 62
250
  6
CONTINUOUS
 10
-101.7021459441
 20
21.98997038
 11
-101.7390148044
 21
21.2952558742
  0
LINE
  5
5D7
100
AcDbEntity
  8
RACCORDO
100
AcDbLine
 62
250
  6
CONTINUOUS
 10
-101.661845442
 20
22.679426907
 11
-101.7021459441
 21
21.98997038
  0
LINE
  5
5D8
100
AcDbEntity
  8
RACCORDO
100
AcDbLine
 62
250
  6
CONTINUOUS
 10
-101.6178676964
 20
23.3659459769
 11
-101.661845442
 21
22.679426907
  0
LINE
  5
5D9
100
AcDbEntity
  8
RACCORDO
100
AcDbLine
 62
250
  6
CONTINUOUS
 10
-101.5700448305
 20
24.0512997976
 11
-101.6178676964
 21
23.3659459769
  0
LINE
  5
5DA
100
AcDbEntity
  8
RACCORDO
100
AcDbLine
 62
250
  6
CONTINUOUS
 10
-101.5182251871
 20
24.736905263
 11
-101.5700448305
 21
24.0512997976
  0
LWPOLYLINE
  5
5DB
100
AcDbEntity
  8
RACCORDO
100
AcDbPolyline
 62
250
  6
CONTINUOUS
 90
9
 70
0
 10
-100.6361067604
 20
31.5246087908
 10
-100.6384111451
 20
31.4966588255
 10
-100.6381366113
 20
31.468613834
 10
-100.6352855666
 20
31.4407189342
 10
-100.6298829377
 20
31.4132179316
 10
-100.6219759522
 20
31.3863511866
 10
-100.6116337255
 20
31.3603535148
 10
-100.5989466573
 20
31.335452136
 10
-100.5987981966
 20
31.3352174463
  0
LINE
  5
5DC
100
AcDbEntity
  8
RACCORDO
100
AcDbLine
 62
250
  6
CONTINUOUS
 10
-101.4620157173
 20
25.4266436186
 11
-101.5182251871
 21
24.736905263
  0
LWPOLYLINE
  5
5DD
100
AcDbEntity
  8
0
100
AcDbPolyline
 62
7
  6
CONTINUOUS
 90
3
 70
0
 10
-103.2791624538
 20
25.192962586
 10
-103.4109490931
 20
23.7088616851
 10
-103.5113568888
 20
22.2152887296
  0
LINE
  5
5DE
100
AcDbEntity
  8
RACCORDO
100
AcDbLine
 62
250
  6
CONTINUOUS
 10
-101.4010370194
 20
26.1233212769
 11
-101.4620157173
 21
25.4266436186
  0
LINE
  5
5DF
100
AcDbEntity
  8
RACCORDO
100
AcDbLine
 62
250
  6
CONTINUOUS
 10
-101.3346709026
 20
26.8318603272
 11
-101.4010370194
 21
26.1233212769
  0
LINE
  5
5E0
100
AcDbEntity
  8
0
100
AcDbLine
 62
7
  6
CONTINUOUS
 10
-103.2061703208
 20
25.9165007309
 11
-103.2470501559
 21
25.4821344189
  0
LINE
  5
5E1
100
AcDbEntity
  8
0
100
AcDbLine
 62
7
  6
CONTINUOUS
 10
-103.1708328751
 20
26.2722608086
 11
-103.2061703208
 21
25.9165007309
  0
LWPOLYLINE
  5
5E2
100
AcDbEntity
  8
RACCORDO
100
AcDbPolyline
 62
250
  6
CONTINUOUS
 90
3
 70
0
 10
-100.6006155042
 20
31.096967602
 10
-100.604505057
 20
31.0598207432
 10
-100.6089603007
 20
31.0222577452
  0
LINE
  5
5E3
100
AcDbEntity
  8
0
100
AcDbLine
 62
7
  6
CONTINUOUS
 10
-103.1377251647
 20
26.5890644107
 11
-103.1708328751
 21
26.2722608086
  0
LINE
  5
5E4
100
AcDbEntity
  8
0
100
AcDbLine
 62
7
  6
CONTINUOUS
 10
-103.2266303085
 20
25.7018034689
 11
-103.2791624538
 21
25.192962586
  0
LINE
  5
5E5
100
AcDbEntity
  8
0
100
AcDbLine
 62
7
  6
CONTINUOUS
 10
-103.0978670284
 20
26.951260802
 11
-103.1377251647
 21
26.5890644107
  0
LINE
  5
5E6
100
AcDbEntity
  8
0
100
AcDbLine
 62
7
  6
CONTINUOUS
 10
-103.229603736
 20
25.6701009887
 11
-103.2359790472
 21
25.6138444112
  0
LINE
  5
5E7
100
AcDbEntity
  8
0
100
AcDbLine
 62
7
  6
CONTINUOUS
 10
-103.0660561612
 20
27.2268180541
 11
-103.0978670284
 21
26.951260802
  0
LWPOLYLINE
  5
5E8
100
AcDbEntity
  8
RACCORDO
100
AcDbPolyline
 62
7
  6
CONTINUOUS
 90
13
 70
0
 10
-100.613973886
 20
31.02276733
 10
-100.8682002719
 20
28.8514267981
 10
-101.0979282086
 20
26.5347108762
 10
-101.2889770958
 20
24.1531718044
 10
-101.4388281682
 20
21.7077678495
 10
-101.5486028764
 20
19.1996563644
 10
-101.6246382047
 20
16.6296843712
 10
-101.6770179564
 20
13.998353238
 10
-101.7140056088
 20
11.3058380288
 10
-101.7398705017
 20
8.5524581197
 10
-101.7570524624
 20
5.7381928983
 10
-101.7660121583
 20
2.862902617
 10
-101.7675487788
 20
0.00077694
  0
LWPOLYLINE
  5
5E9
100
AcDbEntity
  8
RACCORDO
100
AcDbPolyline
 62
250
  6
CONTINUOUS
 90
27
 70
0
 10
-100.6089603007
 20
31.0222577452
 10
-100.6707082737
 20
30.5216920184
 10
-100.7319332296
 20
30.0089475177
 10
-100.7924767468
 20
29.484007491
 10
-100.8516521664
 20
28.9516849238
 10
-100.9098538466
 20
28.4071359216
 10
-100.9683508057
 20
27.8358378887
 10
-101.0274989808
 20
27.2301416104
 10
-101.0861198174
 20
26.5976093145
 10
-101.1430932852
 20
25.9465263369
 10
-101.1982209879
 20
25.275778965
 10
-101.2511305935
 20
24.5864205603
 10
-101.3007640291
 20
23.8900212105
 10
-101.3469583807
 20
23.1881090353
 10
-101.3897717378
 20
22.4791448305
 10
-101.4288288513
 20
21.7701348473
 10
-101.4642204764
 20
21.062827723
 10
-101.4962299298
 20
20.3555143763
 10
-101.5249782817
 20
19.65003642
 10
-101.5506738836
 20
18.9473656297
 10
-101.5736299631
 20
18.2465853838
 10
-101.594155424
 20
17.5467079274
 10
-101.6125024787
 20
16.8478862308
 10
-101.6289271457
 20
16.150021066
 10
-101.6437191894
 20
15.4517437532
 10
-101.6571282704
 20
14.7526514447
 10
-101.6804471099
 20
13.3532666938
  0
LWPOLYLINE
  5
5EA
100
AcDbEntity
  8
RACCORDO
100
AcDbPolyline
 62
250
  6
CONTINUOUS
 90
10
 70
0
 10
-100.8951902679
 20
30.6999998888
 10
-100.9489585152
 20
30.2814258616
 10
-101.0003114567
 20
29.8704196407
 10
-101.0493170601
 20
29.4669884132
 10
-101.0959830542
 20
29.0716453468
 10
-101.1404399436
 20
28.6838918911
 10
-101.1829245142
 20
28.3022160339
 10
-101.2234888724
 20
27.9266251573
 10
-101.2621879208
 20
27.5571231948
 10
-101.3346709026
 20
26.8318603272
  0
LINE
  5
5EB
100
AcDbEntity
  8
RACCORDO
100
AcDbLine
 62
250
  6
CONTINUOUS
 10
-76.9524557352
 20
-24.6794136676
 11
-80.9024557352
 21
-24.8178884396
  0
LINE
  5
5EC
100
AcDbEntity
  8
RACCORDO
100
AcDbLine
 62
7
  6
CONTINUOUS
 10
-80.9024557352
 20
-26.030158461
 11
-76.9524557352
 21
-25.8922214215
  0
LINE
  5
5ED
100
AcDbEntity
  8
RACCORDO
100
AcDbLine
 62
250
  6
CONTINUOUS
 10
-80.9024557352
 20
-25.5304630475
 11
-76.9524557352
 21
-25.392526008
  0
LINE
  5
5EE
100
AcDbEntity
  8
RACCORDO
100
AcDbLine
 62
7
  6
CONTINUOUS
 10
-76.9524557352
 20
-24.7922214215
 11
-80.9024557352
 21
-24.930158461
  0
LINE
  5
5EF
100
AcDbEntity
  8
RACCORDO
100
AcDbLine
 62
250
  6
CONTINUOUS
 10
-103.1803165205
 20
-26.2065798501
 11
-103.198481479
 21
-26.2069991935
  0
LINE
  5
5F0
100
AcDbEntity
  8
RACCORDO
100
AcDbLine
 62
250
  6
CONTINUOUS
 10
-103.0759584161
 20
-26.2244232792
 11
-103.1066556298
 21
-26.2248836227
  0
LINE
  5
5F1
100
AcDbEntity
  8
RACCORDO
100
AcDbLine
 62
250
  6
CONTINUOUS
 10
-103.2583066193
 20
-24.0
 11
-104.2524557352
 21
-24.0
  0
LWPOLYLINE
  5
5F2
100
AcDbEntity
  8
RACCORDO
100
AcDbPolyline
 62
7
  6
CONTINUOUS
 90
5
 70
0
 10
-99.7564684789
 20
-36.8496696825
 10
-99.6913716169
 20
-37.2480161092
 10
-99.6539618962
 20
-37.4869828282
 10
-99.6179956039
 20
-37.7241357746
 10
-99.5834863544
 20
-37.9589400755
  0
LINE
  5
5F3
100
AcDbEntity
  8
RACCORDO
100
AcDbLine
 62
250
  6
CONTINUOUS
 10
-99.9133619697
 20
-35.8745518649
 11
-99.6877977198
 21
-37.2515299268
  0
LINE
  5
5F4
100
AcDbEntity
  8
RACCORDO
100
AcDbLine
 62
250
  6
CONTINUOUS
 10
-100.1243508132
 20
-35.8143081313
 11
-100.0520126005
 21
-36.2672567897
  0
LWPOLYLINE
  5
5F5
100
AcDbEntity
  8
RACCORDO
100
AcDbPolyline
 62
250
  6
CONTINUOUS
 90
5
 70
0
 10
-99.2654687955
 20
-40.6056154462
 10
-99.2635037348
 20
-40.6182804355
 10
-99.2613609244
 20
-40.6313238007
 10
-99.2590396716
 20
-40.6447531001
 10
-99.2565633903
 20
-40.6584274754
  0
LINE
  5
5F6
100
AcDbEntity
  8
RACCORDO
100
AcDbLine
 62
250
  6
CONTINUOUS
 10
-99.6877977198
 20
-37.2515299268
 11
-99.6276466042
 21
-37.639727729
  0
LINE
  5
5F7
100
AcDbEntity
  8
RACCORDO
100
AcDbLine
 62
250
  6
CONTINUOUS
 10
-100.0520126005
 20
-36.2672567897
 11
-99.985924382
 21
-36.7049153496
  0
LINE
  5
5F8
100
AcDbEntity
  8
RACCORDO
100
AcDbLine
 62
250
  6
CONTINUOUS
 10
-99.6276466042
 20
-37.639727729
 11
-99.5723810536
 21
-38.0157068661
  0
LINE
  5
5F9
100
AcDbEntity
  8
RACCORDO
100
AcDbLine
 62
250
  6
CONTINUOUS
 10
-99.985924382
 20
-36.7049153496
 11
-99.9246895877
 21
-37.133190388
  0
LINE
  5
5FA
100
AcDbEntity
  8
RACCORDO
100
AcDbLine
 62
250
  6
CONTINUOUS
 10
-99.5723810536
 20
-38.0157068661
 11
-99.5203152627
 21
-38.3877679008
  0
LINE
  5
5FB
100
AcDbEntity
  8
RACCORDO
100
AcDbLine
 62
7
  6
CONTINUOUS
 10
-99.5834863544
 20
-37.9589400755
 11
-99.5188724511
 21
-38.4195003332
  0
LINE
  5
5FC
100
AcDbEntity
  8
RACCORDO
100
AcDbLine
 62
250
  6
CONTINUOUS
 10
-99.9246895877
 20
-37.133190388
 11
-99.8679114871
 21
-37.551976207
  0
LINE
  5
5FD
100
AcDbEntity
  8
RACCORDO
100
AcDbLine
 62
250
  6
CONTINUOUS
 10
-99.5203152627
 20
-38.3877679008
 11
-99.4721853428
 21
-38.74903643
  0
LINE
  5
5FE
100
AcDbEntity
  8
RACCORDO
100
AcDbLine
 62
7
  6
CONTINUOUS
 10
-99.5188724511
 20
-38.4195003332
 11
-99.4602476251
 21
-38.8643510291
  0
LINE
  5
5FF
100
AcDbEntity
  8
RACCORDO
100
AcDbLine
 62
250
  6
CONTINUOUS
 10
-99.8679114871
 20
-37.551976207
 11
-99.8161069721
 21
-37.9558037514
  0
LINE
  5
600
100
AcDbEntity
  8
RACCORDO
100
AcDbLine
 62
250
  6
CONTINUOUS
 10
-99.4721853428
 20
-38.74903643
 11
-99.4279031366
 21
-39.099075259
  0
LINE
  5
601
100
AcDbEntity
  8
RACCORDO
100
AcDbLine
 62
7
  6
CONTINUOUS
 10
-99.4602476251
 20
-38.8643510291
 11
-99.4077462249
 21
-39.2893133719
  0
LINE
  5
602
100
AcDbEntity
  8
RACCORDO
100
AcDbLine
 62
7
  6
CONTINUOUS
 10
-103.0767982051
 20
-26.2174796974
 11
-103.0759584229
 21
-26.2244232799
  0
LINE
  5
603
100
AcDbEntity
  8
RACCORDO
100
AcDbLine
 62
250
  6
CONTINUOUS
 10
-99.8161069721
 20
-37.9558037514
 11
-99.7694179757
 21
-38.3414090231
  0
LINE
  5
604
100
AcDbEntity
  8
RACCORDO
100
AcDbLine
 62
250
  6
CONTINUOUS
 10
-99.4279031366
 20
-39.099075259
 11
-99.3867259163
 21
-39.4421974449
  0
LWPOLYLINE
  5
605
100
AcDbEntity
  8
RACCORDO
100
AcDbPolyline
 62
7
  6
CONTINUOUS
 90
7
 70
0
 10
-99.4077462249
 20
-39.2893133719
 10
-99.3615197953
 20
-39.6904683302
 10
-99.3408179056
 20
-39.8809483597
 10
-99.3217582452
 20
-40.0641410732
 10
-99.3043696633
 20
-40.2396189845
 10
-99.2886916768
 20
-40.4069385035
 10
-99.2790783993
 20
-40.5152382959
  0
LINE
  5
606
100
AcDbEntity
  8
RACCORDO
100
AcDbLine
 62
250
  6
CONTINUOUS
 10
-99.7694179757
 20
-38.3414090231
 11
-99.7279141549
 21
-38.7066449292
  0
LINE
  5
607
100
AcDbEntity
  8
RACCORDO
100
AcDbLine
 62
250
  6
CONTINUOUS
 10
-99.3867259163
 20
-39.4421974449
 11
-99.3489428113
 21
-39.7769367513
  0
LWPOLYLINE
  5
608
100
AcDbEntity
  8
RACCORDO
100
AcDbPolyline
 62
7
  6
CONTINUOUS
 90
9
 70
0
 10
-103.3991370421
 20
22.1696480354
 10
-103.3991589166
 20
22.1698498274
 10
-103.3991657144
 20
22.1699154872
 10
-103.3991305562
 20
22.1695267528
 10
-103.3990704049
 20
22.1687967882
 10
-103.3989904533
 20
22.1677356331
 10
-103.3988930665
 20
22.1663227298
 10
-103.3987862772
 20
22.1646315273
 10
-103.3986727509
 20
22.1626738395
  0
LINE
  5
609
100
AcDbEntity
  8
RACCORDO
100
AcDbLine
 62
7
  6
CONTINUOUS
 10
-99.2790783401
 20
-40.5152382924
 11
-99.2791108336
 21
-40.5148576926
  0
LWPOLYLINE
  5
60A
100
AcDbEntity
  8
RACCORDO
100
AcDbPolyline
 62
250
  6
CONTINUOUS
 90
37
 70
0
 10
-98.4246568591
 20
-34.0747064781
 10
-98.3146234557
 20
-35.4453493612
 10
-98.2976255557
 20
-35.6867369323
 10
-98.2827393205
 20
-35.9234314332
 10
-98.2699951447
 20
-36.1546250153
 10
-98.2592576415
 20
-36.381114425
 10
-98.25021798
 20
-36.6053001931
 10
-98.2427161122
 20
-36.8283738603
 10
-98.2367821038
 20
-37.0491301411
 10
-98.2323915572
 20
-37.2663742496
 10
-98.2294994432
 20
-37.4800766677
 10
-98.2280384398
 20
-37.6902550329
 10
-98.2279694169
 20
-37.8957872705
 10
-98.2292553405
 20
-38.0966060895
 10
-98.2318463993
 20
-38.2927695974
 10
-98.2357062537
 20
-38.4833461388
 10
-98.2408030981
 20
-38.6682670055
 10
-98.2471126291
 20
-38.8475949725
 10
-98.2546303151
 20
-39.0205977829
 10
-98.2633306703
 20
-39.1872811725
 10
-98.2732121842
 20
-39.3476365509
 10
-98.2843253345
 20
-39.500912186
 10
-98.2966680733
 20
-39.6472183832
 10
-98.3102463448
 20
-39.7864452492
 10
-98.3251456364
 20
-39.9175131877
 10
-98.341408334
 20
-40.0405329132
 10
-98.359035738
 20
-40.1553983308
 10
-98.3780860668
 20
-40.260708264
 10
-98.3986444014
 20
-40.3564297721
 10
-98.4207224626
 20
-40.4426060321
 10
-98.4443104189
 20
-40.5179544832
 10
-98.4695203216
 20
-40.5823317547
 10
-98.4963832497
 20
-40.6358963525
 10
-98.5248046802
 20
-40.6778224195
 10
-98.5548165014
 20
-40.7078413737
 10
-98.586557822
 20
-40.7262398789
 10
-98.6201064334
 20
-40.7330261611
  0
LWPOLYLINE
  5
60B
100
AcDbEntity
  8
RACCORDO
100
AcDbPolyline
 62
250
  6
CONTINUOUS
 90
37
 70
0
 10
-97.8551780143
 20
-35.1586075323
 10
-97.8362973512
 20
-35.425790317
 10
-97.8194527251
 20
-35.688679396
 10
-97.8046450434
 20
-35.9468023182
 10
-97.792014339
 20
-36.1984460384
 10
-97.7814274119
 20
-36.4445298471
 10
-97.7724665888
 20
-36.6884986943
 10
-97.7650262066
 20
-36.9311778068
 10
-97.7591977295
 20
-37.1708489962
 10
-97.754849779
 20
-37.4070531662
 10
-97.7519770729
 20
-37.6393564067
 10
-97.7505755345
 20
-37.8673505968
 10
-97.750516311
 20
-38.0906253517
 10
-97.7517866914
 20
-38.3087214723
 10
-97.7543927149
 20
-38.5213004217
 10
-97.7582337287
 20
-38.7281316935
 10
-97.7632864485
 20
-38.9287393731
 10
-97.7695690855
 20
-39.1228284709
 10
-97.7770417115
 20
-39.3103973477
 10
-97.7856719245
 20
-39.4909889506
 10
-97.7954865189
 20
-39.6642501771
 10
-97.8065311873
 20
-39.8302355015
 10
-97.8187775687
 20
-39.9885340562
 10
-97.8322465206
 20
-40.1386339122
 10
-97.8470545911
 20
-40.2803265414
 10
-97.863192938
 20
-40.4132189651
 10
-97.8806630886
 20
-40.5366974556
 10
-97.8995971646
 20
-40.6502015139
 10
-97.920004273
 20
-40.753327928
 10
-97.9418733834
 20
-40.8455708329
 10
-97.9653099215
 20
-40.9263330698
 10
-97.9903380275
 20
-40.9952928011
 10
-98.0169400064
 20
-41.0521242508
 10
-98.0451636238
 20
-41.0964337269
 10
-98.0750307264
 20
-41.1280345935
 10
-98.1065348649
 20
-41.1468359371
 10
-98.1396844391
 20
-41.1527276252
  0
LINE
  5
60C
100
AcDbEntity
  8
RACCORDO
100
AcDbLine
 62
7
  6
CONTINUOUS
 10
-103.3986727509
 20
22.1626738395
 11
-103.3984314296
 21
22.1579504616
  0
LWPOLYLINE
  5
60D
100
AcDbEntity
  8
RACCORDO
100
AcDbPolyline
 62
250
  6
CONTINUOUS
 90
23
 70
0
 10
-101.4764079044
 20
-20.8020049163
 10
-101.4547102948
 20
-21.2598727848
 10
-101.4305128859
 20
-21.7379962026
 10
-101.4035338484
 20
-22.2368511925
 10
-101.3735186872
 20
-22.7559050186
 10
-101.3400946999
 20
-23.2962012169
 10
-101.3029534343
 20
-23.8580012682
 10
-101.2618141289
 20
-24.4409813858
 10
-101.2163340206
 20
-25.0453059779
 10
-101.1661634047
 20
-25.6711474565
 10
-101.1109830674
 20
-26.3182626754
 10
-101.0504902974
 20
-26.9861921048
 10
-100.9844345581
 20
-27.674090876
 10
-100.9124046366
 20
-28.3827338815
 10
-100.8338363787
 20
-29.1140890734
 10
-100.7484493761
 20
-29.8675665744
 10
-100.655838443
 20
-30.6436837642
 10
-100.5551738994
 20
-31.4460611937
 10
-100.4460591453
 20
-32.2746670502
 10
-100.3281046788
 20
-33.1294500207
 10
-100.2003742234
 20
-34.0139890083
 10
-100.0622206109
 20
-34.9294415483
 10
-99.9189015545
 20
-35.8393807878
  0
LINE
  5
60E
100
AcDbEntity
  8
RACCORDO
100
AcDbLine
 62
7
  6
CONTINUOUS
 10
-103.3984314296
 20
22.1579504616
 11
-103.3981842323
 21
22.1522510207
  0
LINE
  5
60F
100
AcDbEntity
  8
RACCORDO
100
AcDbLine
 62
250
  6
CONTINUOUS
 10
-101.5135087832
 20
-19.9406906836
 11
-101.4764079044
 21
-20.8020049163
  0
LINE
  5
610
100
AcDbEntity
  8
RACCORDO
100
AcDbLine
 62
250
  6
CONTINUOUS
 10
-101.5437249023
 20
-19.1450684926
 11
-101.5135087832
 21
-19.9406906836
  0
LWPOLYLINE
  5
611
100
AcDbEntity
  8
RACCORDO
100
AcDbPolyline
 62
250
  6
CONTINUOUS
 90
3
 70
0
 10
-102.0590721586
 20
31.4785684116
 10
-102.060084333
 20
31.5067429994
 10
-102.0583502563
 20
31.5356064166
  0
LINE
  5
612
100
AcDbEntity
  8
RACCORDO
100
AcDbLine
 62
7
  6
CONTINUOUS
 10
-103.3981842323
 20
22.1522510207
 11
-103.3979391677
 21
22.1456046745
  0
LINE
  5
613
100
AcDbEntity
  8
RACCORDO
100
AcDbLine
 62
250
  6
CONTINUOUS
 10
-101.5689884185
 20
-18.3946982411
 11
-101.5437249023
 21
-19.1450684926
  0
LINE
  5
614
100
AcDbEntity
  8
RACCORDO
100
AcDbLine
 62
7
  6
CONTINUOUS
 10
-103.3979391677
 20
22.1456046745
 11
-103.397701646
 21
22.1380195051
  0
LINE
  5
615
100
AcDbEntity
  8
RACCORDO
100
AcDbLine
 62
250
  6
CONTINUOUS
 10
-101.5907881316
 20
-17.6670145202
 11
-101.5689884185
 21
-18.3946982411
  0
LWPOLYLINE
  5
616
100
AcDbEntity
  8
RACCORDO
100
AcDbPolyline
 62
250
  6
CONTINUOUS
 90
18
 70
0
 10
-99.1890021376
 20
-19.1856862954
 10
-99.1692911983
 20
-19.9271053462
 10
-99.1479887312
 20
-20.6723939443
 10
-99.1247348931
 20
-21.4271621676
 10
-99.0993511033
 20
-22.190577587
 10
-99.0715899071
 20
-22.9634275809
 10
-99.0409376893
 20
-23.7537466029
 10
-99.0072083715
 20
-24.5616320741
 10
-98.9702208476
 20
-25.3869477459
 10
-98.9293861925
 20
-26.2373688149
 10
-98.8844097661
 20
-27.1138236277
 10
-98.8350889131
 20
-28.0153312517
 10
-98.7808701904
 20
-28.9466921265
 10
-98.7214451013
 20
-29.9083902818
 10
-98.6565724185
 20
-30.8998835578
 10
-98.5857300812
 20
-31.9244257578
 10
-98.5085098113
 20
-32.9830767115
 10
-98.4246568591
 20
-34.0747064781
  0
LINE
  5
617
100
AcDbEntity
  8
RACCORDO
100
AcDbLine
 62
250
  6
CONTINUOUS
 10
-101.6188794409
 20
-16.5857693748
 11
-101.5907881316
 21
-17.6670145202
  0
LINE
  5
618
100
AcDbEntity
  8
RACCORDO
100
AcDbLine
 62
250
  6
CONTINUOUS
 10
-99.2243755639
 20
-17.712576231
 11
-99.1890021376
 21
-19.1856862954
  0
LINE
  5
619
100
AcDbEntity
  8
RACCORDO
100
AcDbLine
 62
250
  6
CONTINUOUS
 10
-101.6430245009
 20
-15.4861940582
 11
-101.6188794409
 21
-16.5857693748
  0
LINE
  5
61A
100
AcDbEntity
  8
RACCORDO
100
AcDbLine
 62
250
  6
CONTINUOUS
 10
-99.2554635552
 20
-16.246831564
 11
-99.2243755639
 21
-17.712576231
  0
LINE
  5
61B
100
AcDbEntity
  8
RACCORDO
100
AcDbLine
 62
250
  6
CONTINUOUS
 10
-99.2967319954
 20
-14.0514661993
 11
-99.2554635552
 21
-16.246831564
  0
LINE
  5
61C
100
AcDbEntity
  8
RACCORDO
100
AcDbLine
 62
250
  6
CONTINUOUS
 10
-101.6700442323
 20
-14.010543475
 11
-101.6430245009
 21
-15.4861940582
  0
LWPOLYLINE
  5
61D
100
AcDbEntity
  8
RACCORDO
100
AcDbPolyline
 62
250
  6
CONTINUOUS
 90
30
 70
0
 10
-101.956992939
 20
-13.9576318718
 10
-101.9451648569
 20
-14.6745666497
 10
-101.9319923813
 20
-15.3925094291
 10
-101.917247796
 20
-16.1119575868
 10
-101.900648881
 20
-16.8323598234
 10
-101.8818946941
 20
-17.5533839703
 10
-101.8606882104
 20
-18.2751474755
 10
-101.8367387002
 20
-18.9974707395
 10
-101.8097627841
 20
-19.7195768817
 10
-101.7794809577
 20
-20.4412534647
 10
-101.7456413822
 20
-21.1626567395
 10
-101.7080313296
 20
-21.8835659405
 10
-101.6664590507
 20
-22.6036628887
 10
-101.6207179761
 20
-23.3232236432
 10
-101.5706528882
 20
-24.0429272272
 10
-101.5161462053
 20
-24.7633341083
 10
-101.4571661022
 20
-25.4838680201
 10
-101.3937462805
 20
-26.2035092597
 10
-101.3261599619
 20
-26.9194765269
 10
-101.2541789671
 20
-27.6345558848
 10
-101.1770069926
 20
-28.3560704387
 10
-101.094732153
 20
-29.0824022355
 10
-101.0071121902
 20
-29.8151529283
 10
-100.9125084172
 20
-30.5664383571
 10
-100.8105784458
 20
-31.3366805869
 10
-100.7011069268
 20
-32.1253985752
 10
-100.5822289833
 20
-32.9433094311
 10
-100.4529346345
 20
-33.7939444582
 10
-100.3132939362
 20
-34.6736729616
 10
-100.1243508132
 20
-35.8143081313
  0
LINE
  5
61E
100
AcDbEntity
  8
RACCORDO
100
AcDbLine
 62
250
  6
CONTINUOUS
 10
-99.3335265887
 20
-11.838872096
 11
-99.2967319954
 21
-14.0514661993
  0
LINE
  5
61F
100
AcDbEntity
  8
RACCORDO
100
AcDbLine
 62
250
  6
CONTINUOUS
 10
-99.3554250513
 20
-10.3362750908
 11
-99.3335265887
 21
-11.838872096
  0
LINE
  5
620
100
AcDbEntity
  8
RACCORDO
100
AcDbLine
 62
250
  6
CONTINUOUS
 10
-101.9771559573
 20
-12.522704643
 11
-101.956992939
 21
-13.9576318718
  0
LINE
  5
621
100
AcDbEntity
  8
RACCORDO
100
AcDbLine
 62
250
  6
CONTINUOUS
 10
-101.6966302368
 20
-12.1944641947
 11
-101.6700442323
 21
-14.010543475
  0
LWPOLYLINE
  5
622
100
AcDbEntity
  8
RACCORDO
100
AcDbPolyline
 62
250
  6
CONTINUOUS
 90
3
 70
0
 10
-99.3837005659
 20
-8.0026600781
 10
-99.3749414019
 20
-8.7939744824
 10
-99.3554250513
 20
-10.3362750908
  0
LINE
  5
623
100
AcDbEntity
  8
RACCORDO
100
AcDbLine
 62
250
  6
CONTINUOUS
 10
-101.9933482601
 20
-11.0863314938
 11
-101.9771559573
 21
-12.522704643
  0
LINE
  5
624
100
AcDbEntity
  8
RACCORDO
100
AcDbLine
 62
250
  6
CONTINUOUS
 10
-101.7216971025
 20
-9.9182344577
 11
-101.6966302368
 21
-12.1944641947
  0
LINE
  5
625
100
AcDbEntity
  8
RACCORDO
100
AcDbLine
 62
250
  6
CONTINUOUS
 10
-102.0064191473
 20
-9.6465620488
 11
-101.9933482601
 21
-11.0863314938
  0
LINE
  5
626
100
AcDbEntity
  8
RACCORDO
100
AcDbLine
 62
250
  6
CONTINUOUS
 10
-101.7399343076
 20
-7.6400948049
 11
-101.7216971025
 21
-9.9182344577
  0
LINE
  5
627
100
AcDbEntity
  8
RACCORDO
100
AcDbLine
 62
250
  6
CONTINUOUS
 10
-102.021399915
 20
-7.5008727024
 11
-102.0064191473
 21
-9.6465620488
  0
LINE
  5
628
100
AcDbEntity
  8
RACCORDO
100
AcDbLine
 62
250
  6
CONTINUOUS
 10
-101.7519011306
 20
-5.4514125454
 11
-101.7399343076
 21
-7.6400948049
  0
LINE
  5
629
100
AcDbEntity
  8
RACCORDO
100
AcDbLine
 62
250
  6
CONTINUOUS
 10
-102.0315838937
 20
-5.3677318969
 11
-102.021399915
 21
-7.5008727024
  0
LINE
  5
62A
100
AcDbEntity
  8
RACCORDO
100
AcDbLine
 62
250
  6
CONTINUOUS
 10
-101.7581369103
 20
-3.5832450344
 11
-101.7519011306
 21
-5.4514125454
  0
LINE
  5
62B
100
AcDbEntity
  8
RACCORDO
100
AcDbLine
 62
250
  6
CONTINUOUS
 10
-102.0377006003
 20
-3.1759646397
 11
-102.0315838937
 21
-5.3677318969
  0
LINE
  5
62C
100
AcDbEntity
  8
RACCORDO
100
AcDbLine
 62
250
  6
CONTINUOUS
 10
-101.7612020391
 20
-1.5059575523
 11
-101.7581369103
 21
-3.5832450344
  0
LWPOLYLINE
  5
62D
100
AcDbEntity
  8
RACCORDO
100
AcDbPolyline
 62
7
  6
CONTINUOUS
 90
16
 70
0
 10
-101.7675486846
 20
0.000809985
 10
-101.7662575559
 20
-2.716725705
 10
-101.7582433722
 20
-5.4684496889
 10
-101.7427065247
 20
-8.1736727035
 10
-101.7191823209
 20
-10.8324761586
 10
-101.6857794151
 20
-13.4449265231
 10
-101.6388133653
 20
-16.010746851
 10
-101.5714902297
 20
-18.5299459162
 10
-101.4738749057
 20
-21.0021790882
 10
-101.3382894392
 20
-23.4266362796
 10
-101.1615554137
 20
-25.8019877476
 10
-100.9446525804
 20
-28.1272911068
 10
-100.6904071245
 20
-30.4022114422
 10
-100.4027597706
 20
-32.6264943209
 10
-100.0860212587
 20
-34.7999423571
 10
-99.7564684773
 20
-36.8496696921
  0
LINE
  5
62E
100
AcDbEntity
  8
RACCORDO
100
AcDbLine
 62
250
  6
CONTINUOUS
 10
-102.0398160383
 20
-0.8253556957
 11
-102.0377006003
 21
-3.1759646397
  0
LINE
  5
62F
100
AcDbEntity
  8
RACCORDO
100
AcDbLine
 62
250
  6
CONTINUOUS
 10
-101.7601091038
 20
2.5698959561
 11
-101.7612020391
 21
-1.5059575523
  0
LINE
  5
630
100
AcDbEntity
  8
RACCORDO
100
AcDbLine
 62
250
  6
CONTINUOUS
 10
-102.0350408591
 20
4.3152837851
 11
-102.0398160383
 21
-0.8253556957
  0
LINE
  5
631
100
AcDbEntity
  8
RACCORDO
100
AcDbLine
 62
250
  6
CONTINUOUS
 10
-101.754068663
 20
4.9109088344
 11
-101.7601091038
 21
2.5698959561
  0
LINE
  5
632
100
AcDbEntity
  8
RACCORDO
100
AcDbLine
 62
250
  6
CONTINUOUS
 10
-101.7434670379
 20
7.0850306024
 11
-101.754068663
 21
4.9109088344
  0
LINE
  5
633
100
AcDbEntity
  8
RACCORDO
100
AcDbLine
 62
250
  6
CONTINUOUS
 10
-102.0176439737
 20
8.111457926
 11
-102.0350408591
 21
4.3152837851
  0
LINE
  5
634
100
AcDbEntity
  8
RACCORDO
100
AcDbLine
 62
250
  6
CONTINUOUS
 10
-101.7284057224
 20
9.1653215027
 11
-101.7434670379
 21
7.0850306024
  0
LINE
  5
635
100
AcDbEntity
  8
RACCORDO
100
AcDbLine
 62
250
  6
CONTINUOUS
 10
-101.9949674792
 20
10.9236986009
 11
-102.0176439737
 21
8.111457926
  0
LINE
  5
636
100
AcDbEntity
  8
RACCORDO
100
AcDbLine
 62
250
  6
CONTINUOUS
 10
-101.7154742703
 20
10.5540750124
 11
-101.7284057224
 21
9.1653215027
  0
LINE
  5
637
100
AcDbEntity
  8
RACCORDO
100
AcDbLine
 62
250
  6
CONTINUOUS
 10
-101.6997156252
 20
11.9504057008
 11
-101.7154742703
 21
10.5540750124
  0
LINE
  5
638
100
AcDbEntity
  8
RACCORDO
100
AcDbLine
 62
250
  6
CONTINUOUS
 10
-99.3621810311
 20
9.8297294345
 11
-99.3853594973
 21
7.8431486659
  0
LINE
  5
639
100
AcDbEntity
  8
RACCORDO
100
AcDbLine
 62
250
  6
CONTINUOUS
 10
-101.9726832658
 20
12.8692400004
 11
-101.9949674792
 21
10.9236986009
  0
LINE
  5
63A
100
AcDbEntity
  8
RACCORDO
100
AcDbLine
 62
250
  6
CONTINUOUS
 10
-101.6804471099
 20
13.3532666938
 11
-101.6997156252
 21
11.9504057008
  0
LINE
  5
63B
100
AcDbEntity
  8
RACCORDO
100
AcDbLine
 62
250
  6
CONTINUOUS
 10
-99.334914674
 20
11.7487554617
 11
-99.3621810311
 21
9.8297294345
  0
LINE
  5
63C
100
AcDbEntity
  8
RACCORDO
100
AcDbLine
 62
250
  6
CONTINUOUS
 10
-101.9537144439
 20
14.164082106
 11
-101.9726832658
 21
12.8692400004
  0
LINE
  5
63D
100
AcDbEntity
  8
RACCORDO
100
AcDbLine
 62
250
  6
CONTINUOUS
 10
-99.3033710866
 20
13.673239092
 11
-99.334914674
 21
11.7487554617
  0
LINE
  5
63E
100
AcDbEntity
  8
RACCORDO
100
AcDbLine
 62
250
  6
CONTINUOUS
 10
-99.2674532768
 20
15.6371045517
 11
-99.3033710866
 21
13.673239092
  0
LINE
  5
63F
100
AcDbEntity
  8
RACCORDO
100
AcDbLine
 62
250
  6
CONTINUOUS
 10
-101.9290357975
 20
15.543530973
 11
-101.9537144439
 21
14.164082106
  0
LINE
  5
640
100
AcDbEntity
  8
RACCORDO
100
AcDbLine
 62
250
  6
CONTINUOUS
 10
-99.2406321226
 20
16.9669723801
 11
-99.2674532768
 21
15.6371045517
  0
LINE
  5
641
100
AcDbEntity
  8
RACCORDO
100
AcDbLine
 62
250
  6
CONTINUOUS
 10
-101.9091126006
 20
16.4757318431
 11
-101.9290357975
 21
15.543530973
  0
LINE
  5
642
100
AcDbEntity
  8
RACCORDO
100
AcDbLine
 62
250
  6
CONTINUOUS
 10
-99.2106826836
 20
18.306027194
 11
-99.2406321226
 21
16.9669723801
  0
LINE
  5
643
100
AcDbEntity
  8
RACCORDO
100
AcDbLine
 62
250
  6
CONTINUOUS
 10
-101.8862548199
 20
17.3934017314
 11
-101.9091126006
 21
16.4757318431
  0
LWPOLYLINE
  5
644
100
AcDbEntity
  8
RACCORDO
100
AcDbPolyline
 62
250
  6
CONTINUOUS
 90
6
 70
0
 10
-100.5897277621
 20
31.2747286453
 10
-100.5906808834
 20
31.2413901222
 10
-100.5922829077
 20
31.2065438246
 10
-100.5945063552
 20
31.1703293463
 10
-100.5972900989
 20
31.1336981585
 10
-100.6006155042
 20
31.096967602
  0
LINE
  5
645
100
AcDbEntity
  8
RACCORDO
100
AcDbLine
 62
250
  6
CONTINUOUS
 10
-101.861015813
 20
18.2646934732
 11
-101.8862548199
 21
17.3934017314
  0
LINE
  5
646
100
AcDbEntity
  8
RACCORDO
100
AcDbLine
 62
250
  6
CONTINUOUS
 10
-101.8336515002
 20
19.0845466409
 11
-101.861015813
 21
18.2646934732
  0
LINE
  5
647
100
AcDbEntity
  8
RACCORDO
100
AcDbLine
 62
250
  6
CONTINUOUS
 10
-101.8043761898
 20
19.8541673106
 11
-101.8336515002
 21
19.0845466409
  0
LINE
  5
648
100
AcDbEntity
  8
RACCORDO
100
AcDbLine
 62
250
  6
CONTINUOUS
 10
-101.7729923228
 20
20.5858818904
 11
-101.8043761898
 21
19.8541673106
  0
LINE
  5
649
100
AcDbEntity
  8
RACCORDO
100
AcDbLine
 62
250
  6
CONTINUOUS
 10
-101.7390148044
 20
21.2952558742
 11
-101.7729923228
 21
20.5858818904
  0
LINE
  5
64A
100
AcDbEntity
  8
RACCORDO
100
AcDbLine
 62
250
  6
CONTINUOUS
 10
-103.1803165134
 20
-26.20657985
 11
-103.1792661634
 21
-26.1859703337
  0
LWPOLYLINE
  5
64B
100
AcDbEntity
  8
RACCORDO
100
AcDbPolyline
 62
250
  6
CONTINUOUS
 90
25
 70
0
 10
-98.3138154163
 20
35.4543269189
 10
-98.3918421606
 20
34.4874016207
 10
-98.4472931721
 20
33.785498658
 10
-98.5002204066
 20
33.0935740387
 10
-98.5504563279
 20
32.4149623384
 10
-98.5983202293
 20
31.7463450289
 10
-98.6445502112
 20
31.077743285
 10
-98.6893507474
 20
30.4058781225
 10
-98.7324788252
 20
29.7340244502
 10
-98.7739273057
 20
29.0620264569
 10
-98.8136840684
 20
28.3898090305
 10
-98.8517297739
 20
27.7174439563
 10
-98.8880507219
 20
27.0449962199
 10
-98.9226460969
 20
26.3724438734
 10
-98.95551643
 20
25.6998088347
 10
-98.9866604999
 20
25.0272229937
 10
-99.016082235
 20
24.3547229107
 10
-99.043802357
 20
23.6822746321
 10
-99.0698484346
 20
23.0099046572
 10
-99.0942369694
 20
22.3376365647
 10
-99.1170190228
 20
21.6654539204
 10
-99.138310729
 20
20.9933270879
 10
-99.1582240897
 20
20.3210799563
 10
-99.1768530815
 20
19.6489104175
 10
-99.2106826836
 20
18.306027194
  0
LWPOLYLINE
  5
64C
100
AcDbEntity
  8
RACCORDO
100
AcDbPolyline
 62
250
  6
CONTINUOUS
 90
25
 70
0
 10
-97.8551780143
 20
35.1586075323
 10
-97.913655356
 20
34.4480169486
 10
-97.9696659731
 20
33.747394194
 10
-98.0232098658
 20
33.0567392685
 10
-98.0740203134
 20
32.3793683345
 10
-98.1223640366
 20
31.7119652297
 10
-98.1690411971
 20
31.0445814669
 10
-98.2143303854
 20
30.3739534706
 10
-98.257953011
 20
29.7033448163
 10
-98.2998734645
 20
29.0325977444
 10
-98.3400905947
 20
28.3616414691
 10
-98.3786055527
 20
27.6905467761
 10
-98.4153861829
 20
27.0193682619
 10
-98.4504204312
 20
26.3480828902
 10
-98.4837203517
 20
25.6767136973
 10
-98.5152899512
 20
25.0053843891
 10
-98.5451081675
 20
24.3341333783
 10
-98.5731960628
 20
23.6629222523
 10
-98.5996208313
 20
22.9917594782
 10
-98.6243250111
 20
22.3206671694
 10
-98.6473660641
 20
21.6496232126
 10
-98.6689835695
 20
20.9785697352
 10
-98.6891520685
 20
20.3073040172
 10
-98.7078970199
 20
19.6360287787
 10
-98.7420662527
 20
18.2947118819
  0
LWPOLYLINE
  5
64D
100
AcDbEntity
  8
RACCORDO
100
AcDbPolyline
 62
250
  6
CONTINUOUS
 90
20
 70
0
 10
-98.7387145085
 20
-18.4357195001
 10
-98.7201982712
 20
-19.1733840709
 10
-98.7002698898
 20
-19.9138597183
 10
-98.6788636977
 20
-20.6581191917
 10
-98.6552388751
 20
-21.4117316356
 10
-98.6294508361
 20
-22.1738754893
 10
-98.6014441667
 20
-22.9453723136
 10
-98.570311805
 20
-23.7342559351
 10
-98.5360908849
 20
-24.5406586951
 10
-98.4987442726
 20
-25.3644482523
 10
-98.4572535046
 20
-26.2132614088
 10
-98.4116364821
 20
-27.0880583927
 10
-98.361875304
 20
-27.9878789761
 10
-98.3068978033
 20
-28.9174792765
 10
-98.2467231717
 20
-29.87738392
 10
-98.1813322176
 20
-30.8670682807
 10
-98.109595199
 20
-31.8897145983
 10
-98.0311355353
 20
-32.9463836194
 10
-97.946329807
 20
-34.0360145974
 10
-97.8551780143
 20
-35.1586075323
  0
LINE
  5
64E
100
AcDbEntity
  8
RACCORDO
100
AcDbLine
 62
250
  6
CONTINUOUS
 10
-98.7718573707
 20
-16.9690909405
 11
-98.7387145085
 21
-18.4357195001
  0
LINE
  5
64F
100
AcDbEntity
  8
RACCORDO
100
AcDbLine
 62
250
  6
CONTINUOUS
 10
-98.8013633604
 20
-15.5065765979
 11
-98.7718573707
 21
-16.9690909405
  0
LINE
  5
650
100
AcDbEntity
  8
RACCORDO
100
AcDbLine
 62
250
  6
CONTINUOUS
 10
-98.8412302916
 20
-13.3102464972
 11
-98.8013633604
 21
-15.5065765979
  0
LINE
  5
651
100
AcDbEntity
  8
RACCORDO
100
AcDbLine
 62
250
  6
CONTINUOUS
 10
-98.8766488761
 20
-11.0855721336
 11
-98.8412302916
 21
-13.3102464972
  0
LINE
  5
652
100
AcDbEntity
  8
RACCORDO
100
AcDbLine
 62
250
  6
CONTINUOUS
 10
-98.897496256
 20
-9.5640394875
 11
-98.8766488761
 21
-11.0855721336
  0
LINE
  5
653
100
AcDbEntity
  8
RACCORDO
100
AcDbLine
 62
250
  6
CONTINUOUS
 10
-98.9157980269
 20
-7.9976481604
 11
-98.897496256
 21
-9.5640394875
  0
LINE
  5
654
100
AcDbEntity
  8
RACCORDO
100
AcDbLine
 62
250
  6
CONTINUOUS
 10
-99.3988945067
 20
-6.3738821566
 11
-99.3837005659
 21
-8.0026600781
  0
LWPOLYLINE
  5
655
100
AcDbEntity
  8
RACCORDO
100
AcDbPolyline
 62
250
  6
CONTINUOUS
 90
3
 70
0
 10
-98.9373505008
 20
-5.5289133411
 10
-98.9310893334
 20
-6.3700439778
 10
-98.9157980269
 20
-7.9976481604
  0
LINE
  5
656
100
AcDbEntity
  8
RACCORDO
100
AcDbLine
 62
250
  6
CONTINUOUS
 10
-99.4104724719
 20
-4.6713142607
 11
-99.3988945067
 21
-6.3738821566
  0
LINE
  5
657
100
AcDbEntity
  8
RACCORDO
100
AcDbLine
 62
250
  6
CONTINUOUS
 10
-98.9465720841
 20
-3.7887442848
 11
-98.9373505008
 21
-5.5289133411
  0
LINE
  5
658
100
AcDbEntity
  8
RACCORDO
100
AcDbLine
 62
250
  6
CONTINUOUS
 10
-99.4178339923
 20
-2.8839096114
 11
-99.4104724719
 21
-4.6713142607
  0
LINE
  5
659
100
AcDbEntity
  8
RACCORDO
100
AcDbLine
 62
250
  6
CONTINUOUS
 10
-98.9524678623
 20
-1.9478967952
 11
-98.9465720841
 21
-3.7887442848
  0
LINE
  5
65A
100
AcDbEntity
  8
RACCORDO
100
AcDbLine
 62
250
  6
CONTINUOUS
 10
-99.4233261795
 20
0.0001140634
 11
-99.4178339923
 21
-2.8839096114
  0
LINE
  5
65B
100
AcDbEntity
  8
RACCORDO
100
AcDbLine
 62
250
  6
CONTINUOUS
 10
-98.9552425546
 20
0.000146824
 11
-98.9524678623
 21
-1.9478967952
  0
LINE
  5
65C
100
AcDbEntity
  8
RACCORDO
100
AcDbLine
 62
250
  6
CONTINUOUS
 10
-98.9527919149
 20
1.7467972072
 11
-98.9552425546
 21
0.000146824
  0
LINE
  5
65D
100
AcDbEntity
  8
RACCORDO
100
AcDbLine
 62
250
  6
CONTINUOUS
 10
-99.4186706312
 20
2.5865496675
 11
-99.4233259161
 21
0.0001140632
  0
LINE
  5
65E
100
AcDbEntity
  8
RACCORDO
100
AcDbLine
 62
250
  6
CONTINUOUS
 10
-98.9480968255
 20
3.3999468119
 11
-98.9527919149
 21
1.7467972072
  0
LINE
  5
65F
100
AcDbEntity
  8
RACCORDO
100
AcDbLine
 62
250
  6
CONTINUOUS
 10
-99.4128903427
 20
4.1936433558
 11
-99.4186706312
 21
2.5865496675
  0
LINE
  5
660
100
AcDbEntity
  8
RACCORDO
100
AcDbLine
 62
250
  6
CONTINUOUS
 10
-98.9409608706
 20
4.9616735624
 11
-98.9480968255
 21
3.3999468119
  0
LINE
  5
661
100
AcDbEntity
  8
RACCORDO
100
AcDbLine
 62
250
  6
CONTINUOUS
 10
-99.4039200543
 20
5.7138302064
 11
-99.4128903427
 21
4.1936433558
  0
LINE
  5
662
100
AcDbEntity
  8
RACCORDO
100
AcDbLine
 62
250
  6
CONTINUOUS
 10
-98.9304641929
 20
6.4381770775
 11
-98.9409608706
 21
4.9616735624
  0
LWPOLYLINE
  5
663
100
AcDbEntity
  8
RACCORDO
100
AcDbPolyline
 62
250
  6
CONTINUOUS
 90
3
 70
0
 10
-99.3853594973
 20
7.8431486659
 10
-99.3921194104
 20
7.1523310316
 10
-99.4039200543
 20
5.7138302064
  0
LINE
  5
664
100
AcDbEntity
  8
RACCORDO
100
AcDbLine
 62
250
  6
CONTINUOUS
 10
-98.9175068163
 20
7.8382491508
 11
-98.9304641929
 21
6.4381770775
  0
LINE
  5
665
100
AcDbEntity
  8
RACCORDO
100
AcDbLine
 62
250
  6
CONTINUOUS
 10
-98.8941846293
 20
9.8235253895
 11
-98.9175068163
 21
7.8382491508
  0
LINE
  5
666
100
AcDbEntity
  8
RACCORDO
100
AcDbLine
 62
250
  6
CONTINUOUS
 10
-98.8667522648
 20
11.7414331437
 11
-98.8941846293
 21
9.8235253895
  0
LINE
  5
667
100
AcDbEntity
  8
RACCORDO
100
AcDbLine
 62
250
  6
CONTINUOUS
 10
-98.8350835324
 20
13.6649820711
 11
-98.8667522648
 21
11.7414331437
  0
LINE
  5
668
100
AcDbEntity
  8
RACCORDO
100
AcDbLine
 62
250
  6
CONTINUOUS
 10
-98.7990059135
 20
15.6279034459
 11
-98.8350835324
 21
13.6649820711
  0
LINE
  5
669
100
AcDbEntity
  8
RACCORDO
100
AcDbLine
 62
250
  6
CONTINUOUS
 10
-98.7721168665
 20
16.9568857816
 11
-98.7990059135
 21
15.6279034459
  0
LINE
  5
66A
100
AcDbEntity
  8
RACCORDO
100
AcDbLine
 62
250
  6
CONTINUOUS
 10
-98.7420662527
 20
18.2947118819
 11
-98.7721168665
 21
16.9568857816
  0
LINE
  5
66B
100
AcDbEntity
  8
RACCORDO
100
AcDbLine
 62
250
  6
CONTINUOUS
 10
-99.2387921138
 20
-40.7437282726
 11
-99.2389665049
 21
-40.7504120014
  0
LWPOLYLINE
  5
66C
100
AcDbEntity
  8
RACCORDO
100
AcDbPolyline
 62
250
  6
CONTINUOUS
 90
4
 70
0
 10
-103.1792661634
 20
-26.1859703337
 10
-103.1760978218
 20
-26.1655787678
 10
-103.1708452198
 20
-26.145622249
 10
-103.1635642788
 20
-26.1263132423
  0
LWPOLYLINE
  5
66D
100
AcDbEntity
  8
0
100
AcDbPolyline
 62
7
  6
CONTINUOUS
 90
3
 70
0
 43
0.3500000006
 10
-79.0417444153
 20
62.3208607178
 10
-79.1131665344
 20
62.1065762329
 10
-79.2560289001
 20
61.8208605652
  0
LINE
  5
66E
100
AcDbEntity
  8
RACCORDO
100
AcDbLine
 62
250
  6
CONTINUOUS
 10
-76.9524557352
 20
-19.0052253004
 11
-80.9024557352
 21
-19.1958138089
  0
LINE
  5
66F
100
AcDbEntity
  8
RACCORDO
100
AcDbLine
 62
250
  6
CONTINUOUS
 10
-80.9024557352
 20
-18.9032232277
 11
-76.9524557352
 21
-18.7145064921
  0
LINE
  5
670
100
AcDbEntity
  8
DRAFT
100
AcDbLine
 62
7
  6
CONTINUOUS
 10
-65.9024557352
 20
-18.4222798137
 11
-76.9524557352
 21
-18.5187117027
  0
LWPOLYLINE
  5
671
100
AcDbEntity
  8
0
100
AcDbPolyline
 62
7
  6
CONTINUOUS
 90
13
 70
0
 43
0.3500000006
 10
-95.8631671143
 20
52.8922935333
 10
-95.8631671143
 20
54.1780049744
 10
-95.6488826294
 20
54.606578476
 10
-95.2203136597
 20
55.0351474457
 10
-95.0060291748
 20
55.0351474457
 10
-94.5774602051
 20
54.606578476
 10
-94.3631666565
 20
54.1780049744
 10
-94.3631666565
 20
52.8922935333
 10
-94.5774602051
 20
52.4637200317
 10
-95.0060291748
 20
52.035151062
 10
-95.2203136597
 20
52.035151062
 10
-95.6488826294
 20
52.4637200317
 10
-95.8631671143
 20
52.8922935333
  0
LWPOLYLINE
  5
672
100
AcDbEntity
  8
RACCORDO
100
AcDbPolyline
 62
250
  6
CONTINUOUS
 90
7
 70
0
 10
-99.1294726201
 20
-40.9633445274
 10
-99.1313696054
 20
-40.9862625195
 10
-99.1384647985
 20
-41.0380773916
 10
-99.1476491653
 20
-41.0787056622
 10
-99.1589763677
 20
-41.1078620851
 10
-99.1723927437
 20
-41.1253883642
 10
-99.1878982935
 20
-41.1310794779
  0
LINE
  5
673
100
AcDbEntity
  8
DRAFT
100
AcDbLine
 62
7
  6
CONTINUOUS
 10
-65.9024557352
 20
-14.3472798137
 11
-80.9024557352
 21
-14.4781828305
  0
LINE
  5
674
100
AcDbEntity
  8
DRAFT
100
AcDbLine
 62
7
  6
CONTINUOUS
 10
-65.9024557352
 20
-13.4527201863
 11
-80.9024557352
 21
-13.3218171695
  0
LINE
  5
675
100
AcDbEntity
  8
RACCORDO
100
AcDbLine
 62
250
  6
CONTINUOUS
 10
-103.6788940159
 20
0.0001480453
 11
-103.6789858624
 21
0.0000939502
  0
LINE
  5
676
100
AcDbEntity
  8
DRAFT
100
AcDbLine
 62
7
  6
CONTINUOUS
 10
-65.9024557352
 20
-10.3472798137
 11
-80.9024557352
 21
-10.4781828305
  0
LWPOLYLINE
  5
677
100
AcDbEntity
  8
RACCORDO
100
AcDbPolyline
 62
7
  6
CONTINUOUS
 90
26
 70
0
 10
-100.6018069727
 20
31.3631250104
 10
-100.6019870098
 20
31.3638167962
 10
-100.6022340099
 20
31.3648381118
 10
-100.6021087926
 20
31.3642100867
 10
-100.6016870871
 20
31.3617976159
 10
-100.6010720198
 20
31.3576657696
 10
-100.6003263302
 20
31.3517000645
 10
-100.5995224611
 20
31.3439116477
 10
-100.5987461457
 20
31.3345926186
 10
-100.5980476361
 20
31.3238103437
 10
-100.5974634188
 20
31.3115349682
 10
-100.5970316059
 20
31.297959198
 10
-100.5967731418
 20
31.2831593648
 10
-100.5967109766
 20
31.2671477028
 10
-100.5968690866
 20
31.2500207766
 10
-100.5972636878
 20
31.2318442271
 10
-100.5979045535
 20
31.212661806
 10
-100.5987996628
 20
31.192524717
 10
-100.5999638673
 20
31.1714997746
 10
-100.6014087853
 20
31.1496506532
 10
-100.6031415248
 20
31.1270220103
 10
-100.6051624636
 20
31.1036909182
 10
-100.6074797745
 20
31.0797495815
 10
-100.6101036744
 20
31.0552703595
 10
-100.6130311421
 20
31.0303633309
 10
-100.6139738946
 20
31.0227672364
  0
LWPOLYLINE
  5
678
100
AcDbEntity
  8
RACCORDO
100
AcDbPolyline
 62
250
  6
CONTINUOUS
 90
7
 70
0
 10
-103.1635642788
 20
-26.1263132423
 10
-103.1543325143
 20
-26.1078573188
 10
-103.1432482111
 20
-26.0904509675
 10
-103.1304293771
 20
-26.0742795031
 10
-103.1160124863
 20
-26.0595150937
 10
-103.1001510265
 20
-26.0463149268
 10
-103.0926654361
 20
-26.0412936879
  0
LINE
  5
679
100
AcDbEntity
  8
DRAFT
100
AcDbLine
 62
7
  6
CONTINUOUS
 10
-74.4158359289
 20
-7.9
 11
-65.9024557352
 21
-7.9
  0
LINE
  5
67A
100
AcDbEntity
  8
0
100
AcDbLine
 62
7
  6
CONTINUOUS
 10
-63.4024557352
 20
-7.75
 11
-71.7024557352
 21
-7.75
  0
LINE
  5
67B
100
AcDbEntity
  8
0
100
AcDbLine
 62
250
  6
CONTINUOUS
 10
-62.4024557352
 20
-6.75
 11
-63.4024557352
 21
-6.75
  0
LINE
  5
67C
100
AcDbEntity
  8
0
100
AcDbLine
 62
7
  6
CONTINUOUS
 10
-63.4024557352
 20
-6.75
 11
-71.7024557352
 21
-6.75
  0
LINE
  5
67D
100
AcDbEntity
  8
DRAFT
100
AcDbLine
 62
7
  6
CONTINUOUS
 10
-67.297798725
 20
-6.45
 11
-70.3888880505
 21
-6.45
  0
LINE
  5
67E
100
AcDbEntity
  8
DRAFT
100
AcDbLine
 62
7
  6
CONTINUOUS
 10
-71.7024557352
 20
-7.4521043532
 11
-72.579572468
 21
-7.4444498714
  0
LWPOLYLINE
  5
67F
100
AcDbEntity
  8
RACCORDO
100
AcDbPolyline
 62
250
  6
CONTINUOUS
 90
5
 70
0
 10
-102.0310130199
 20
31.3755170087
 10
-102.0412588501
 20
31.3994519945
 10
-102.0494837214
 20
31.4247585641
 10
-102.0554767379
 20
31.4511794108
 10
-102.0590721586
 20
31.4785684116
  0
LWPOLYLINE
  5
680
100
AcDbEntity
  8
0
100
AcDbPolyline
 62
7
  6
CONTINUOUS
 90
2
 70
0
 43
0.3500000006
 10
-83.4703146057
 20
62.03514505
 10
-83.4703146057
 20
63.5351455078
  0
LINE
  5
681
100
AcDbEntity
  8
RACCORDO
100
AcDbLine
 62
7
  6
CONTINUOUS
 10
-83.4024557352
 20
41.409966909
 11
-83.4024557352
 21
-41.409966909
  0
LINE
  5
682
100
AcDbEntity
  8
DRAFT
100
AcDbLine
 62
7
  6
CONTINUOUS
 10
-67.297798725
 20
-4.95
 11
-70.3888880505
 21
-4.95
  0
LINE
  5
683
100
AcDbEntity
  8
0
100
AcDbLine
 62
7
  6
CONTINUOUS
 10
-61.4024557352
 20
-4.25
 11
-62.3024557352
 21
-4.25
  0
LINE
  5
684
100
AcDbEntity
  8
0
100
AcDbLine
 62
7
  6
CONTINUOUS
 10
-63.4024557352
 20
-4.2360679775
 11
-62.4024557352
 21
-4.2360679775
  0
LINE
  5
685
100
AcDbEntity
  8
0
100
AcDbLine
 62
7
  6
CONTINUOUS
 10
-77.9024557352
 20
-3.75
 11
-63.4024557352
 21
-3.75
  0
LINE
  5
686
100
AcDbEntity
  8
0
100
AcDbLine
 62
7
  6
CONTINUOUS
 10
-61.4024557352
 20
-3.75
 11
-58.2705167352
 21
-3.75
  0
LINE
  5
687
100
AcDbEntity
  8
0
100
AcDbLine
 62
7
  6
CONTINUOUS
 10
-80.9024557352
 20
-3.5
 11
-77.9024557352
 21
-3.5
  0
LINE
  5
688
100
AcDbEntity
  8
0
100
AcDbLine
 62
7
  6
CONTINUOUS
 10
-57.9024557352
 20
-3.25
 11
-56.1024557352
 21
-3.25
  0
LINE
  5
689
100
AcDbEntity
  8
DRAFT
100
AcDbLine
 62
7
  6
CONTINUOUS
 10
-72.9413218305
 20
-5.1912929325
 11
-80.9024557352
 21
-5.1218171695
  0
LWPOLYLINE
  5
68A
100
AcDbEntity
  8
RACCORDO
100
AcDbPolyline
 62
250
  6
CONTINUOUS
 90
7
 70
0
 10
-103.4029852617
 20
22.2105496146
 10
-103.4016532431
 20
22.2088853526
 10
-103.4004606099
 20
22.2023643683
 10
-103.3994057697
 20
22.1909864933
 10
-103.3984719695
 20
22.175193552
 10
-103.3976714333
 20
22.1545432411
 10
-103.397701646
 20
22.1380195051
  0
LWPOLYLINE
  5
68B
100
AcDbEntity
  8
0
100
AcDbPolyline
 62
7
  6
CONTINUOUS
 90
4
 70
0
 43
0.3500000006
 10
-82.11316745
 20
62.4637230835
 10
-82.11316745
 20
63.3208610229
 10
-81.6845984802
 20
63.7494390564
 10
-81.0417450256
 20
63.7494390564
  0
LINE
  5
68C
100
AcDbEntity
  8
0
100
AcDbLine
 62
7
  6
CONTINUOUS
 10
-80.9024557352
 20
36.2
 11
-80.9024557352
 21
-36.2
  0
LINE
  5
68D
100
AcDbEntity
  8
0
100
AcDbLine
 62
250
  6
CONTINUOUS
 10
-62.4024557352
 20
-2.0
 11
-61.4024557352
 21
-2.0
  0
LINE
  5
68E
100
AcDbEntity
  8
0
100
AcDbLine
 62
7
  6
CONTINUOUS
 10
-57.9024557352
 20
-0.75
 11
-56.1024557352
 21
-0.75
  0
LINE
  5
68F
100
AcDbEntity
  8
0
100
AcDbLine
 62
7
  6
CONTINUOUS
 10
-80.9024557352
 20
-0.5
 11
-77.9024557352
 21
-0.5
  0
LINE
  5
690
100
AcDbEntity
  8
0
100
AcDbLine
 62
7
  6
CONTINUOUS
 10
-77.9024557352
 20
-0.25
 11
-63.4024557352
 21
-0.25
  0
LINE
  5
691
100
AcDbEntity
  8
0
100
AcDbLine
 62
7
  6
CONTINUOUS
 10
-61.4024557352
 20
-0.25
 11
-58.2705167352
 21
-0.25
  0
LINE
  5
692
100
AcDbEntity
  8
0
100
AcDbLine
 62
7
  6
CONTINUOUS
 10
-63.4024557352
 20
0.2360679775
 11
-62.4024557352
 21
0.2360679775
  0
LINE
  5
693
100
AcDbEntity
  8
0
100
AcDbLine
 62
7
  6
CONTINUOUS
 10
-61.4024557352
 20
0.25
 11
-62.3024557352
 21
0.25
  0
LWPOLYLINE
  5
694
100
AcDbEntity
  8
RACCORDO
100
AcDbPolyline
 62
250
  6
CONTINUOUS
 90
3
 70
0
 10
-98.9552425546
 20
0.000146824
 10
-102.1635499391
 20
-0.0000296087
 10
-103.6157186165
 20
-0.0002470159
  0
LINE
  5
695
100
AcDbEntity
  8
RACCORDO
100
AcDbLine
 62
250
  6
CONTINUOUS
 10
-103.6157186165
 20
-0.0002470159
 11
-103.6788935962
 21
0.0000041457
  0
LWPOLYLINE
  5
696
100
AcDbEntity
  8
RACCORDO
100
AcDbPolyline
 62
7
  6
CONTINUOUS
 90
6
 70
0
 10
-103.4649732276
 20
22.0755628507
 10
-103.4502788022
 20
22.0598299461
 10
-103.4339784775
 20
22.045767593
 10
-103.4162611135
 20
22.0335387215
 10
-103.3973319883
 20
22.0232850182
 10
-103.3963675841
 20
22.0228900051
  0
LINE
  5
697
100
AcDbEntity
  8
0
100
AcDbLine
 62
7
  6
CONTINUOUS
 10
-77.9024557352
 20
-3.75
 11
-77.9024557352
 21
-0.25
  0
LWPOLYLINE
  5
698
100
AcDbEntity
  8
0
100
AcDbPolyline
 62
7
  6
CONTINUOUS
 90
2
 70
0
 43
0.3500000006
 10
-77.0417438049
 20
62.03514505
 10
-77.0417438049
 20
63.5351455078
  0
LINE
  5
699
100
AcDbEntity
  8
RACCORDO
100
AcDbLine
 62
7
  6
CONTINUOUS
 10
-76.9524557352
 20
21.8922214215
 11
-76.9524557352
 21
14.5187117027
  0
LINE
  5
69A
100
AcDbEntity
  8
RACCORDO
100
AcDbLine
 62
7
  6
CONTINUOUS
 10
-76.9524557352
 20
-18.5187117027
 11
-76.9524557352
 21
-25.8922214215
  0
LINE
  5
69B
100
AcDbEntity
  8
DRAFT
100
AcDbLine
 62
7
  6
CONTINUOUS
 10
-72.9413218305
 20
1.1912929325
 11
-80.9024557352
 21
1.1218171695
  0
LINE
  5
69C
100
AcDbEntity
  8
DRAFT
100
AcDbLine
 62
7
  6
CONTINUOUS
 10
-71.7024557352
 20
3.4521043532
 11
-72.579572468
 21
3.4444498714
  0
LINE
  5
69D
100
AcDbEntity
  8
DRAFT
100
AcDbLine
 62
7
  6
CONTINUOUS
 10
-70.3888880505
 20
0.95
 11
-67.297798725
 21
0.95
  0
LINE
  5
69E
100
AcDbEntity
  8
DRAFT
100
AcDbLine
 62
7
  6
CONTINUOUS
 10
-70.3888880505
 20
2.45
 11
-67.297798725
 21
2.45
  0
LINE
  5
69F
100
AcDbEntity
  8
0
100
AcDbLine
 62
7
  6
CONTINUOUS
 10
-71.7024557352
 20
2.75
 11
-63.4024557352
 21
2.75
  0
LINE
  5
6A0
100
AcDbEntity
  8
0
100
AcDbLine
 62
250
  6
CONTINUOUS
 10
-62.4024557352
 20
2.75
 11
-63.4024557352
 21
2.75
  0
LWPOLYLINE
  5
6A1
100
AcDbEntity
  8
RACCORDO
100
AcDbPolyline
 62
7
  6
CONTINUOUS
 90
9
 70
0
 10
-99.8968284367
 20
40.7879974005
 10
-99.8967702825
 20
40.7878843843
 10
-99.896714671
 20
40.7877887678
 10
-99.8966552796
 20
40.7877098828
 10
-99.8965923445
 20
40.7876491495
 10
-99.8965279094
 20
40.7876053886
 10
-99.8964669905
 20
40.7875749441
 10
-99.8964132882
 20
40.7875601686
 10
-99.8963705084
 20
40.7875594926
  0
LINE
  5
6A2
100
AcDbEntity
  8
0
100
AcDbLine
 62
7
  6
CONTINUOUS
 10
-71.7024557352
 20
3.75
 11
-63.4024557352
 21
3.75
  0
LINE
  5
6A3
100
AcDbEntity
  8
DRAFT
100
AcDbLine
 62
7
  6
CONTINUOUS
 10
-74.4158359289
 20
3.9
 11
-65.9024557352
 21
3.9
  0
LINE
  5
6A4
100
AcDbEntity
  8
DRAFT
100
AcDbLine
 62
7
  6
CONTINUOUS
 10
-65.9024557352
 20
6.3472798137
 11
-80.9024557352
 21
6.4781828305
  0
LINE
  5
6A5
100
AcDbEntity
  8
0
100
AcDbLine
 62
7
  6
CONTINUOUS
 10
-71.7024557352
 20
-6.75
 11
-71.7024557352
 21
-7.75
  0
LINE
  5
6A6
100
AcDbEntity
  8
0
100
AcDbLine
 62
7
  6
CONTINUOUS
 10
-71.7024557352
 20
2.75
 11
-71.7024557352
 21
3.75
  0
LINE
  5
6A7
100
AcDbEntity
  8
0
100
AcDbLine
 62
250
  6
CONTINUOUS
 10
-71.2024557352
 20
3.75
 11
-71.2024557352
 21
2.75
  0
LINE
  5
6A8
100
AcDbEntity
  8
0
100
AcDbLine
 62
250
  6
CONTINUOUS
 10
-71.2024557352
 20
-7.75
 11
-71.2024557352
 21
-6.75
  0
LINE
  5
6A9
100
AcDbEntity
  8
DRAFT
100
AcDbLine
 62
7
  6
CONTINUOUS
 10
-70.3888880505
 20
-6.75
 11
-70.3888880505
 21
-6.45
  0
LINE
  5
6AA
100
AcDbEntity
  8
DRAFT
100
AcDbLine
 62
7
  6
CONTINUOUS
 10
-70.3888880505
 20
-4.95
 11
-70.3888880505
 21
-3.75
  0
LINE
  5
6AB
100
AcDbEntity
  8
DRAFT
100
AcDbLine
 62
7
  6
CONTINUOUS
 10
-70.3888880505
 20
-0.25
 11
-70.3888880505
 21
0.95
  0
LINE
  5
6AC
100
AcDbEntity
  8
DRAFT
100
AcDbLine
 62
7
  6
CONTINUOUS
 10
-70.3888880505
 20
2.45
 11
-70.3888880505
 21
2.75
  0
LINE
  5
6AD
100
AcDbEntity
  8
DRAFT
100
AcDbLine
 62
7
  6
CONTINUOUS
 10
-65.9024557352
 20
9.4527201863
 11
-80.9024557352
 21
9.3218171695
  0
LWPOLYLINE
  5
6AE
100
AcDbEntity
  8
RACCORDO
100
AcDbPolyline
 62
250
  6
CONTINUOUS
 90
5
 70
0
 10
-101.9528961742
 20
31.2765092251
 10
-101.9717526417
 20
31.2932975553
 10
-101.9891594199
 20
31.31175016
 10
-102.004950109
 20
31.3317298266
 10
-102.0189134274
 20
31.3530001198
  0
LINE
  5
6AF
100
AcDbEntity
  8
DRAFT
100
AcDbLine
 62
7
  6
CONTINUOUS
 10
-68.8756825058
 20
-4.95
 11
-68.8756825058
 21
-6.45
  0
LINE
  5
6B0
100
AcDbEntity
  8
DRAFT
100
AcDbLine
 62
7
  6
CONTINUOUS
 10
-68.8756825058
 20
0.95
 11
-68.8756825058
 21
2.45
  0
LINE
  5
6B1
100
AcDbEntity
  8
DRAFT
100
AcDbLine
 62
7
  6
CONTINUOUS
 10
-68.7848216723
 20
3.9
 11
-68.7848216723
 21
3.7921575827
  0
LINE
  5
6B2
100
AcDbEntity
  8
DRAFT
100
AcDbLine
 62
7
  6
CONTINUOUS
 10
-68.7848216723
 20
2.75
 11
-68.7848216723
 21
2.45
  0
LINE
  5
6B3
100
AcDbEntity
  8
DRAFT
100
AcDbLine
 62
7
  6
CONTINUOUS
 10
-68.7848216723
 20
0.95
 11
-68.7848216723
 21
-0.25
  0
LINE
  5
6B4
100
AcDbEntity
  8
DRAFT
100
AcDbLine
 62
7
  6
CONTINUOUS
 10
-68.7848216723
 20
-3.75
 11
-68.7848216723
 21
-4.95
  0
LINE
  5
6B5
100
AcDbEntity
  8
DRAFT
100
AcDbLine
 62
7
  6
CONTINUOUS
 10
-68.7848216723
 20
-6.45
 11
-68.7848216723
 21
-6.75
  0
LINE
  5
6B6
100
AcDbEntity
  8
DRAFT
100
AcDbLine
 62
7
  6
CONTINUOUS
 10
-68.7848216723
 20
-7.7921575827
 11
-68.7848216723
 21
-7.9
  0
LINE
  5
6B7
100
AcDbEntity
  8
DRAFT
100
AcDbLine
 62
7
  6
CONTINUOUS
 10
-67.297798725
 20
-4.95
 11
-67.297798725
 21
-6.45
  0
LINE
  5
6B8
100
AcDbEntity
  8
DRAFT
100
AcDbLine
 62
7
  6
CONTINUOUS
 10
-67.297798725
 20
0.95
 11
-67.297798725
 21
2.45
  0
LWPOLYLINE
  5
6B9
100
AcDbEntity
  8
RACCORDO
100
AcDbPolyline
 62
250
  6
CONTINUOUS
 90
4
 70
0
 10
-99.888074386
 20
-40.7784849052
 10
-99.8883720592
 20
-40.7788187278
 10
-99.888667796
 20
-40.7791533644
 10
-99.8889610095
 20
-40.7794887529
  0
LINE
  5
6BA
100
AcDbEntity
  8
RACCORDO
100
AcDbLine
 62
250
  6
CONTINUOUS
 10
-99.8874751206
 20
-40.7778194289
 11
-99.8877753012
 21
-40.7781517156
  0
LINE
  5
6BB
100
AcDbEntity
  8
RACCORDO
100
AcDbLine
 62
250
  6
CONTINUOUS
 10
-99.886872045
 20
-40.7771601534
 11
-99.8871738398
 21
-40.7774887541
  0
LWPOLYLINE
  5
6BC
100
AcDbEntity
  8
RACCORDO
100
AcDbPolyline
 62
7
  6
CONTINUOUS
 90
12
 70
0
 10
-103.0935736454
 20
-26.0312111754
 10
-103.1060423244
 20
-26.0382472083
 10
-103.1236165816
 20
-26.0508444667
 10
-103.139729747
 20
-26.0652669101
 10
-103.1541931715
 20
-26.0813467151
 10
-103.1668365562
 20
-26.09889553
 10
-103.1775116682
 20
-26.1177084663
 10
-103.1860931679
 20
-26.1375656504
 10
-103.1924799098
 20
-26.1582337577
 10
-103.1965970933
 20
-26.1794710063
 10
-103.1983964715
 20
-26.2010289605
 10
-103.1984814793
 20
-26.2069991939
  0
LINE
  5
6BD
100
AcDbEntity
  8
DRAFT
100
AcDbLine
 62
7
  6
CONTINUOUS
 10
-65.9024557352
 20
10.3472798137
 11
-80.9024557352
 21
10.4781828305
  0
LINE
  5
6BE
100
AcDbEntity
  8
RACCORDO
100
AcDbLine
 62
250
  6
CONTINUOUS
 10
-101.9328705391
 20
31.2615778273
 11
-101.9528699574
 21
31.2764896774
  0
LWPOLYLINE
  5
6BF
100
AcDbEntity
  8
RACCORDO
100
AcDbPolyline
 62
250
  6
CONTINUOUS
 90
6
 70
0
 10
-99.8873556627
 20
40.7776919853
 10
-99.8866091474
 20
40.7768765746
 10
-99.8858382425
 20
40.7760553578
 10
-99.8850396013
 20
40.7752247318
 10
-99.8842002652
 20
40.7743840923
 10
-99.883313061
 20
40.7735451186
  0
LWPOLYLINE
  5
6C0
100
AcDbEntity
  8
RACCORDO
100
AcDbPolyline
 62
250
  6
CONTINUOUS
 90
3
 70
0
 10
-99.8894741342
 20
40.7800576863
 10
-99.8887881786
 20
40.7792864651
 10
-99.8880800207
 20
40.7784985768
  0
LINE
  5
6C1
100
AcDbEntity
  8
RACCORDO
100
AcDbLine
 62
250
  6
CONTINUOUS
 10
-99.8948517293
 20
40.7861460282
 11
-99.8907597358
 21
40.7815215065
  0
LINE
  5
6C2
100
AcDbEntity
  8
RACCORDO
100
AcDbLine
 62
250
  6
CONTINUOUS
 10
-99.8945259216
 20
40.7857802813
 11
-99.8941697895
 21
40.7853765049
  0
LINE
  5
6C3
100
AcDbEntity
  8
RACCORDO
100
AcDbLine
 62
250
  6
CONTINUOUS
 10
-99.8907597358
 20
40.7815215065
 11
-99.8901314689
 21
40.7808088911
  0
LWPOLYLINE
  5
6C4
100
AcDbEntity
  8
0
100
AcDbPolyline
 62
7
  6
CONTINUOUS
 90
10
 70
0
 43
0.3500000006
 10
-92.8631661987
 20
52.5351512146
 10
-92.7917440796
 20
52.3922933807
 10
-92.7917440796
 20
52.3208621979
 10
-92.9345973816
 20
52.178004364
 10
-93.0060285645
 20
52.178004364
 10
-93.0774597473
 20
52.2494355469
 10
-93.0774597473
 20
52.3208621979
 10
-93.0060285645
 20
52.4637200317
 10
-92.9345973816
 20
52.5351512146
 10
-92.8631661987
 20
52.5351512146
  0
LINE
  5
6C5
100
AcDbEntity
  8
DRAFT
100
AcDbLine
 62
7
  6
CONTINUOUS
 10
-65.9024557352
 20
14.4222798137
 11
-65.9024557352
 21
3.9
  0
LINE
  5
6C6
100
AcDbEntity
  8
DRAFT
100
AcDbLine
 62
7
  6
CONTINUOUS
 10
-65.9024557352
 20
-7.9
 11
-65.9024557352
 21
-18.4222798137
  0
LINE
  5
6C7
100
AcDbEntity
  8
0
100
AcDbLine
 62
250
  6
CONTINUOUS
 10
-65.3024557352
 20
3.75
 11
-65.3024557352
 21
2.75
  0
LINE
  5
6C8
100
AcDbEntity
  8
0
100
AcDbLine
 62
250
  6
CONTINUOUS
 10
-65.3024557352
 20
-7.75
 11
-65.3024557352
 21
-6.75
  0
LINE
  5
6C9
100
AcDbEntity
  8
0
100
AcDbLine
 62
7
  6
CONTINUOUS
 10
-64.8024557352
 20
3.75
 11
-64.8024557352
 21
2.75
  0
LINE
  5
6CA
100
AcDbEntity
  8
0
100
AcDbLine
 62
7
  6
CONTINUOUS
 10
-64.8024557352
 20
-7.75
 11
-64.8024557352
 21
-6.75
  0
LINE
  5
6CB
100
AcDbEntity
  8
0
100
AcDbLine
 62
7
  6
CONTINUOUS
 10
-64.6024557352
 20
3.75
 11
-64.6024557352
 21
2.75
  0
LINE
  5
6CC
100
AcDbEntity
  8
0
100
AcDbLine
 62
7
  6
CONTINUOUS
 10
-64.6024557352
 20
-7.75
 11
-64.6024557352
 21
-6.75
  0
LINE
  5
6CD
100
AcDbEntity
  8
0
100
AcDbLine
 62
7
  6
CONTINUOUS
 10
-63.5024557352
 20
3.75
 11
-63.5024557352
 21
2.75
  0
LINE
  5
6CE
100
AcDbEntity
  8
0
100
AcDbLine
 62
7
  6
CONTINUOUS
 10
-63.5024557352
 20
-7.75
 11
-63.5024557352
 21
-6.75
  0
LINE
  5
6CF
100
AcDbEntity
  8
0
100
AcDbLine
 62
250
  6
CONTINUOUS
 10
-63.4024557352
 20
3.75
 11
-63.4024557352
 21
2.75
  0
LINE
  5
6D0
100
AcDbEntity
  8
0
100
AcDbLine
 62
250
  6
CONTINUOUS
 10
-63.4024557352
 20
-7.75
 11
-63.4024557352
 21
-6.75
  0
LINE
  5
6D1
100
AcDbEntity
  8
0
100
AcDbLine
 62
7
  6
CONTINUOUS
 10
-63.4024557352
 20
-6.75
 11
-63.4024557352
 21
2.75
  0
LINE
  5
6D2
100
AcDbEntity
  8
DRAFT
100
AcDbLine
 62
7
  6
CONTINUOUS
 10
-65.9024557352
 20
14.4222798137
 11
-76.9524557352
 21
14.5187117027
  0
LINE
  5
6D3
100
AcDbEntity
  8
RACCORDO
100
AcDbLine
 62
250
  6
CONTINUOUS
 10
-76.9524557352
 20
14.7145064921
 11
-80.9024557352
 21
14.9032232089
  0
LINE
  5
6D4
100
AcDbEntity
  8
RACCORDO
100
AcDbLine
 62
250
  6
CONTINUOUS
 10
-80.9024557352
 20
15.1958137956
 11
-76.9524557353
 21
15.0052253004
  0
LINE
  5
6D5
100
AcDbEntity
  8
RACCORDO
100
AcDbLine
 62
250
  6
CONTINUOUS
 10
-101.9117571914
 20
31.2484833286
 11
-101.9328705391
 21
31.2615778273
  0
LINE
  5
6D6
100
AcDbEntity
  8
0
100
AcDbLine
 62
7
  6
CONTINUOUS
 10
-57.9024557352
 20
-0.618061
 11
-58.2705167352
 21
-0.25
  0
LINE
  5
6D7
100
AcDbEntity
  8
0
100
AcDbLine
 62
7
  6
CONTINUOUS
 10
-62.4024557352
 20
-6.75
 11
-62.4024557352
 21
2.75
  0
LINE
  5
6D8
100
AcDbEntity
  8
0
100
AcDbLine
 62
250
  6
CONTINUOUS
 10
-62.3024557352
 20
-4.25
 11
-62.3024557352
 21
0.25
  0
LINE
  5
6D9
100
AcDbEntity
  8
0
100
AcDbLine
 62
7
  6
CONTINUOUS
 10
-61.4024557352
 20
-4.25
 11
-61.4024557352
 21
0.25
  0
LINE
  5
6DA
100
AcDbEntity
  8
0
100
AcDbLine
 62
7
  6
CONTINUOUS
 10
-57.9024557352
 20
-3.381939
 11
-58.2705167352
 21
-3.75
  0
LWPOLYLINE
  5
6DB
100
AcDbEntity
  8
RACCORDO
100
AcDbPolyline
 62
250
  6
CONTINUOUS
 90
14
 70
0
 10
-99.8819841099
 20
-40.7723223003
 10
-99.8824236972
 20
-40.7727107612
 10
-99.8828464476
 20
-40.7730915129
 10
-99.8832491902
 20
-40.7734642435
 10
-99.88363198
 20
-40.7738292255
 10
-99.8839979904
 20
-40.7741865277
 10
-99.8843501991
 20
-40.7745356889
 10
-99.8846891307
 20
-40.7748750437
 10
-99.8850167508
 20
-40.7752065208
 10
-99.8853373453
 20
-40.7755349596
 10
-99.8856512527
 20
-40.7758606802
 10
-99.8859591769
 20
-40.7761834727
 10
-99.8862650617
 20
-40.7765072875
 10
-99.8865695769
 20
-40.7768332097
  0
LINE
  5
6DC
100
AcDbEntity
  8
RACCORDO
100
AcDbLine
 62
250
  6
CONTINUOUS
 10
-104.2524557352
 20
20.0
 11
-103.435203121
 21
20.0
  0
LINE
  5
6DD
100
AcDbEntity
  8
RACCORDO
100
AcDbLine
 62
250
  6
CONTINUOUS
 10
-103.4349557786
 20
20.0078943489
 11
-103.4350088591
 21
20.0078958036
  0
LINE
  5
6DE
100
AcDbEntity
  8
RACCORDO
100
AcDbLine
 62
250
  6
CONTINUOUS
 10
-101.889351135
 20
31.2371159089
 11
-101.9117571914
 21
31.2484833286
  0
LWPOLYLINE
  5
6DF
100
AcDbEntity
  8
RACCORDO
100
AcDbPolyline
 62
250
  6
CONTINUOUS
 90
5
 70
0
 10
-99.883313061
 20
40.7735451186
 10
-99.8813726058
 20
40.7717959347
 10
-99.8803810056
 20
40.7708435136
 10
-99.8794577202
 20
40.7698560588
 10
-99.8786288668
 20
40.7688363319
  0
LINE
  5
6E0
100
AcDbEntity
  8
0
100
AcDbLine
 62
7
  6
CONTINUOUS
 10
-58.2705167352
 20
-0.25
 11
-58.2705167352
 21
-3.75
  0
LINE
  5
6E1
100
AcDbEntity
  8
0
100
AcDbLine
 62
7
  6
CONTINUOUS
 10
-57.9024557352
 20
-3.381939
 11
-57.9024557352
 21
-0.618061
  0
LWPOLYLINE
  5
6E2
100
AcDbEntity
  8
RACCORDO
100
AcDbPolyline
 62
250
  6
CONTINUOUS
 90
3
 70
0
 10
-103.5113568888
 20
22.2152887296
 10
-103.5105100973
 20
22.2152711795
 10
-103.5094756115
 20
22.2152387188
  0
LINE
  5
6E3
100
AcDbEntity
  8
RACCORDO
100
AcDbLine
 62
7
  6
CONTINUOUS
 10
-80.9024557352
 20
20.930158461
 11
-76.9524557352
 21
20.7922214215
  0
LINE
  5
6E4
100
AcDbEntity
  8
RACCORDO
100
AcDbLine
 62
250
  6
CONTINUOUS
 10
-80.9024557352
 20
21.5304630475
 11
-76.9524557352
 21
21.392526008
  0
LINE
  5
6E5
100
AcDbEntity
  8
RACCORDO
100
AcDbLine
 62
7
  6
CONTINUOUS
 10
-80.9024557352
 20
22.030158461
 11
-76.9524557352
 21
21.8922214215
  0
LINE
  5
6E6
100
AcDbEntity
  8
RACCORDO
100
AcDbLine
 62
250
  6
CONTINUOUS
 10
-80.9024557352
 20
20.8178885443
 11
-76.9524557352
 21
20.6794136676
  0
LWPOLYLINE
  5
6E7
100
AcDbEntity
  8
RACCORDO
100
AcDbPolyline
 62
250
  6
CONTINUOUS
 90
6
 70
0
 10
-103.4393266943
 20
22.2111092233
 10
-103.4355892097
 20
22.2109753741
 10
-103.4315329112
 20
22.2108480711
 10
-103.4271076945
 20
22.2107294258
 10
-103.4221773528
 20
22.2106502284
 10
-103.4029852617
 20
22.2105496146
  0
LINE
  5
6E8
100
AcDbEntity
  8
RACCORDO
100
AcDbLine
 62
250
  6
CONTINUOUS
 10
-103.5094756115
 20
22.2152387188
 11
-103.5056590109
 21
22.2150976705
  0
LINE
  5
6E9
100
AcDbEntity
  8
RACCORDO
100
AcDbLine
 62
250
  6
CONTINUOUS
 10
-103.5056590109
 20
22.2150976705
 11
-103.5026527403
 21
22.2149702403
  0
LINE
  5
6EA
100
AcDbEntity
  8
RACCORDO
100
AcDbLine
 62
250
  6
CONTINUOUS
 10
-103.5026527403
 20
22.2149702403
 11
-103.4993087912
 21
22.2148117169
  0
LWPOLYLINE
  5
6EB
100
AcDbEntity
  8
RACCORDO
100
AcDbPolyline
 62
250
  6
CONTINUOUS
 90
3
 70
0
 10
-103.4491897643
 20
22.2115812475
 10
-103.4460737323
 20
22.2114199897
 10
-103.4393266943
 20
22.2111092233
  0
LINE
  5
6EC
100
AcDbEntity
  8
RACCORDO
100
AcDbLine
 62
250
  6
CONTINUOUS
 10
-103.4993087912
 20
22.2148117169
 11
-103.4956660061
 21
22.214620357
  0
LINE
  5
6ED
100
AcDbEntity
  8
RACCORDO
100
AcDbLine
 62
250
  6
CONTINUOUS
 10
-103.4956660061
 20
22.214620357
 11
-103.4898031915
 21
22.2142793587
  0
LINE
  5
6EE
100
AcDbEntity
  8
RACCORDO
100
AcDbLine
 62
250
  6
CONTINUOUS
 10
-103.4550002753
 20
22.2119222032
 11
-103.4491897643
 21
22.2115812475
  0
LINE
  5
6EF
100
AcDbEntity
  8
RACCORDO
100
AcDbLine
 62
250
  6
CONTINUOUS
 10
-103.4603862503
 20
22.212268867
 11
-103.4550002753
 21
22.2119222032
  0
LINE
  5
6F0
100
AcDbEntity
  8
RACCORDO
100
AcDbLine
 62
250
  6
CONTINUOUS
 10
-103.4898031915
 20
22.2142793587
 11
-103.4818057394
 21
22.2137654831
  0
LINE
  5
6F1
100
AcDbEntity
  8
RACCORDO
100
AcDbLine
 62
250
  6
CONTINUOUS
 10
-103.4818057394
 20
22.2137654831
 11
-103.4603862503
 21
22.212268867
  0
LINE
  5
6F2
100
AcDbEntity
  8
RACCORDO
100
AcDbLine
 62
250
  6
CONTINUOUS
 10
-101.8409997021
 20
31.2200596262
 11
-101.8656555896
 21
31.2275777627
  0
LINE
  5
6F3
100
AcDbEntity
  8
RACCORDO
100
AcDbLine
 62
250
  6
CONTINUOUS
 10
-101.8656555896
 20
31.2275777627
 11
-101.889351135
 21
31.2371159089
  0
LINE
  5
6F4
100
AcDbEntity
  8
0
100
AcDbLine
 62
250
  6
CONTINUOUS
 10
-56.1024557352
 20
-3.25
 11
-56.1024557352
 21
-0.75
  0
LINE
  5
6F5
100
AcDbEntity
  8
0
100
AcDbLine
 62
7
  6
CONTINUOUS
 10
-55.9024557352
 20
-0.95
 11
-55.9024557352
 21
-3.05
  0
LINE
  5
6F6
100
AcDbEntity
  8
RACCORDO
100
AcDbLine
 62
250
  6
CONTINUOUS
 10
-101.8156124127
 20
31.2146775209
 11
-101.8409997021
 21
31.2200596262
  0
LWPOLYLINE
  5
6F7
100
AcDbEntity
  8
RACCORDO
100
AcDbPolyline
 62
250
  6
CONTINUOUS
 90
15
 70
0
 10
-100.6361067603
 20
31.5246087908
 10
-100.6294979631
 20
31.5229045222
 10
-100.6233607415
 20
31.5185286153
 10
-100.6176939658
 20
31.5114809505
 10
-100.6124774647
 20
31.5016890043
 10
-100.6077286498
 20
31.4892250085
 10
-100.6035032605
 20
31.4743060293
 10
-100.5998032588
 20
31.4568895742
 10
-100.5966247859
 20
31.4370179352
 10
-100.5940162794
 20
31.4150355069
 10
-100.5919847684
 20
31.3909872129
 10
-100.5905228062
 20
31.3648280854
 10
-100.5896584342
 20
31.336767822
 10
-100.5893942463
 20
31.3066987957
 10
-100.5897277621
 20
31.2747286453
  0
LWPOLYLINE
  5
6F8
100
AcDbEntity
  8
RACCORDO
100
AcDbPolyline
 62
7
  6
CONTINUOUS
 90
3
 70
0
 10
-101.8556535357
 20
31.2242050984
 10
-101.8299479952
 20
31.2174116871
 10
-101.8157216049
 20
31.2146851494
  0
LWPOLYLINE
  5
6F9
100
AcDbEntity
  8
RACCORDO
100
AcDbPolyline
 62
250
  6
CONTINUOUS
 90
16
 70
0
 10
-99.873649357
 20
40.767292906
 10
-99.8718820165
 20
40.7663594547
 10
-99.8694552453
 20
40.7654646196
 10
-99.8663074883
 20
40.7646018917
 10
-99.8623882637
 20
40.7637584982
 10
-99.8576233035
 20
40.7629340203
 10
-99.8518981319
 20
40.7621386564
 10
-99.8451346406
 20
40.7613617962
 10
-99.8372471498
 20
40.7605967303
 10
-99.8280734762
 20
40.7598556644
 10
-99.8175064317
 20
40.7591258707
 10
-99.8054442553
 20
40.758397982
 10
-99.7916941934
 20
40.7576851506
 10
-99.7761225379
 20
40.7569736766
 10
-99.7586188447
 20
40.7562514423
 10
-99.7171140232
 20
40.7547988878
  0
LINE
  5
6FA
100
AcDbEntity
  8
0
100
AcDbLine
 62
7
  6
CONTINUOUS
 10
-102.8110641222
 20
29.1174362133
 11
-102.855831042
 21
29.1174362133
  0
LINE
  5
6FB
100
AcDbEntity
  8
0
100
AcDbLine
 62
250
  6
CONTINUOUS
 10
-102.6679666098
 20
30.0104281401
 11
-102.7102931881
 21
30.0104281401
  0
LINE
  5
6FC
100
AcDbEntity
  8
RACCORDO
100
AcDbLine
 62
250
  6
CONTINUOUS
 10
-101.8157216049
 20
31.2146851494
 11
-101.8156124127
 21
31.2146775209
  0
LWPOLYLINE
  5
6FD
100
AcDbEntity
  8
RACCORDO
100
AcDbPolyline
 62
7
  6
CONTINUOUS
 90
13
 70
0
 10
-100.8951898613
 20
30.6999999218
 10
-100.8873392855
 20
30.6993854235
 10
-100.8769098234
 20
30.6974991262
 10
-100.8639016275
 20
30.6943407034
 10
-100.8481788182
 20
30.6898702075
 10
-100.8298775376
 20
30.6841270227
 10
-100.8094060955
 20
30.6772295521
 10
-100.7867823047
 20
30.6691725236
 10
-100.7619888661
 20
30.6599601074
 10
-100.7353815802
 20
30.649724529
 10
-100.7069727575
 20
30.6384696847
 10
-100.676750578
 20
30.6261906263
 10
-100.6611647427
 20
30.6197115278
  0
LWPOLYLINE
  5
6FE
100
AcDbEntity
  8
RACCORDO
100
AcDbPolyline
 62
250
  6
CONTINUOUS
 90
3
 70
0
 10
-100.6089603007
 20
31.0222577452
 10
-100.6128404048
 20
31.0226821459
 10
-100.613973886
 20
31.02276733
  0
LWPOLYLINE
  5
6FF
100
AcDbEntity
  8
RACCORDO
100
AcDbPolyline
 62
250
  6
CONTINUOUS
 90
9
 70
0
 10
-99.8963017415
 20
40.7875765063
 10
-99.8962438337
 20
40.7875474096
 10
-99.8961491486
 20
40.7874787128
 10
-99.8960179681
 20
40.7873647343
 10
-99.8958488983
 20
40.7872110382
 10
-99.8956470917
 20
40.787012789
 10
-99.8954141723
 20
40.7867662756
 10
-99.8951483648
 20
40.7864751932
 10
-99.8948517293
 20
40.7861460282
  0
LWPOLYLINE
  5
700
100
AcDbEntity
  8
0
100
AcDbPolyline
 62
7
  6
CONTINUOUS
 90
10
 70
0
 43
0.3500000006
 10
-79.1131665344
 20
62.5351452026
 10
-79.0417444153
 20
62.3922919006
 10
-79.0417444153
 20
62.3208607178
 10
-79.1845977173
 20
62.1780074158
 10
-79.2560289001
 20
62.1780074158
 10
-79.327460083
 20
62.2494385986
 10
-79.327460083
 20
62.3208607178
 10
-79.2560289001
 20
62.4637230835
 10
-79.1845977173
 20
62.5351452026
 10
-79.1131665344
 20
62.5351452026
  0
LINE
  5
701
100
AcDbEntity
  8
0
100
AcDbLine
 62
7
  6
CONTINUOUS
 10
-102.5551708828
 20
30.6576616347
 11
-102.5963515414
 21
30.6576616347
  0
LINE
  5
702
100
AcDbEntity
  8
0
100
AcDbLine
 62
7
  6
CONTINUOUS
 10
-102.5516665444
 20
30.6771594118
 11
-102.5928447012
 21
30.6771594118
  0
LINE
  5
703
100
AcDbEntity
  8
0
100
AcDbLine
 62
250
  6
CONTINUOUS
 10
-80.9024557352
 20
31.0
 11
-83.4024557352
 21
31.0
  0
LINE
  5
704
100
AcDbEntity
  8
0
100
AcDbLine
 62
250
  6
CONTINUOUS
 10
-102.2263805594
 20
32.343749234
 11
-102.2708166107
 21
32.343749234
  0
LINE
  5
705
100
AcDbEntity
  8
SUPERFICI
100
AcDbLine
 62
7
  6
CONTINUOUS
 10
-102.2029040524
 20
32.4557536055
 11
-102.2457653032
 21
32.4557536055
  0
LINE
  5
706
100
AcDbEntity
  8
RACCORDO
100
AcDbLine
 62
250
  6
CONTINUOUS
 10
-101.8315573972
 20
33.0290781048
 11
-101.7702465671
 21
33.0290781048
  0
LINE
  5
707
100
AcDbEntity
  8
RACCORDO
100
AcDbLine
 62
7
  6
CONTINUOUS
 10
-100.8951902679
 20
30.6999998888
 11
-102.2764522283
 21
30.7
  0
LINE
  5
708
100
AcDbEntity
  8
RACCORDO
100
AcDbLine
 62
7
  6
CONTINUOUS
 10
-101.772024401
 20
31.2106751047
 11
-100.5989284636
 21
31.190198639
  0
LWPOLYLINE
  5
709
100
AcDbEntity
  8
RACCORDO
100
AcDbPolyline
 62
7
  6
CONTINUOUS
 90
7
 70
0
 10
-101.771786124
 20
31.210671493
 10
-101.7791194552
 20
31.2108901556
 10
-101.7864478802
 20
31.2112886985
 10
-101.7937663213
 20
31.2118669012
 10
-101.8010696893
 20
31.2126245423
 10
-101.8083528836
 20
31.2135613993
 10
-101.8156107924
 20
31.214677249
  0
LINE
  5
70A
100
AcDbEntity
  8
RACCORDO
100
AcDbLine
 62
250
  6
CONTINUOUS
 10
-102.0538459935
 20
31.5645242268
 11
-100.6361067603
 21
31.5246087908
  0
LINE
  5
70B
100
AcDbEntity
  8
RACCORDO
100
AcDbLine
 62
250
  6
CONTINUOUS
 10
-98.288753695
 20
35.1953180402
 11
-98.3337853137
 21
35.1992742496
  0
LINE
  5
70C
100
AcDbEntity
  8
RACCORDO
100
AcDbLine
 62
250
  6
CONTINUOUS
 10
-97.8551780143
 20
35.1586075323
 11
-83.4024557352
 21
35.4108807381
  0
LINE
  5
70D
100
AcDbEntity
  8
DRAFT
100
AcDbLine
 62
7
  6
CONTINUOUS
 10
-101.6420179284
 20
33.65
 11
-101.7049539386
 21
33.65
  0
LINE
  5
70E
100
AcDbEntity
  8
RACCORDO
100
AcDbLine
 62
250
  6
CONTINUOUS
 10
-97.8551780143
 20
35.1586075323
 11
-98.288753695
 21
35.1953180402
  0
LWPOLYLINE
  5
70F
100
AcDbEntity
  8
RACCORDO
100
AcDbPolyline
 62
250
  6
CONTINUOUS
 90
36
 70
0
 10
-98.6201064334
 20
40.7330261611
 10
-98.5877866706
 20
40.7259870573
 10
-98.5573934783
 20
40.7092170924
 10
-98.5288763919
 20
40.68271093
 10
-98.5023113582
 20
40.6463801335
 10
-98.4775185617
 20
40.6003021561
 10
-98.4540538261
 20
40.5447194313
 10
-98.4316883785
 20
40.4795654225
 10
-98.4105213643
 20
40.4048929591
 10
-98.3905995785
 20
40.321123427
 10
-98.3718774689
 20
40.2282061238
 10
-98.3542905445
 20
40.1261801156
 10
-98.3378776493
 20
40.0156036047
 10
-98.3226071825
 20
39.8964667697
 10
-98.3084294686
 20
39.7687708374
 10
-98.2953798835
 20
39.6330930823
 10
-98.2834374613
 20
39.4894834233
 10
-98.2725756905
 20
39.3378869209
 10
-98.2628438922
 20
39.1787259157
 10
-98.2542256897
 20
39.0121112889
 10
-98.2467228518
 20
38.8379306147
 10
-98.2404296904
 20
38.6562731519
 10
-98.2353329573
 20
38.4671040296
 10
-98.2314574764
 20
38.2704593429
 10
-98.2289733409
 20
38.0665367742
 10
-98.2279051882
 20
37.8549650133
 10
-98.2282726529
 20
37.6361200521
 10
-98.2302719031
 20
37.4113240765
 10
-98.2339915203
 20
37.1803371886
 10
-98.2394440191
 20
36.9434099767
 10
-98.2467555439
 20
36.7026050177
 10
-98.2560412085
 20
36.4579361776
 10
-98.2673350247
 20
36.2094053595
 10
-98.2806758802
 20
35.9590608334
 10
-98.2961381688
 20
35.7075918519
 10
-98.3138154163
 20
35.4543269189
  0
LINE
  5
710
100
AcDbEntity
  8
DRAFT
100
AcDbLine
 62
7
  6
CONTINUOUS
 10
-100.291755727
 20
39.25
 11
-100.3139500446
 21
39.25
  0
LWPOLYLINE
  5
711
100
AcDbEntity
  8
RACCORDO
100
AcDbPolyline
 62
250
  6
CONTINUOUS
 90
37
 70
0
 10
-98.1396844391
 20
41.1527276252
 10
-98.107721528
 20
41.1472405243
 10
-98.0775603906
 20
41.1300018124
 10
-98.0492024621
 20
41.1015758714
 10
-98.0228332499
 20
41.0627674118
 10
-97.9982753583
 20
41.014037976
 10
-97.9749768595
 20
40.9549508684
 10
-97.9527635983
 20
40.8852147442
 10
-97.9317961843
 20
40.8052400012
 10
-97.9120150836
 20
40.7151748403
 10
-97.8934124814
 20
40.6151842701
 10
-97.8759875751
 20
40.5054451851
 10
-97.8596920074
 20
40.386150518
 10
-97.8445145777
 20
40.2575434232
 10
-97.8304605797
 20
40.1198268705
 10
-97.8175064923
 20
39.9731380337
 10
-97.8056345378
 20
39.8177841542
 10
-97.7948583054
 20
39.6539669858
 10
-97.7851999384
 20
39.4816238118
 10
-97.77663084
 20
39.3011006105
 10
-97.7691752388
 20
39.1125726654
 10
-97.7629308873
 20
38.9156253874
 10
-97.7578567746
 20
38.7104398161
 10
-97.7539864322
 20
38.4973225987
 10
-97.751525175
 20
38.275956622
 10
-97.7504461895
 20
38.0462658596
 10
-97.7507671255
 20
37.8088716428
 10
-97.7527601926
 20
37.5645285072
 10
-97.7564357058
 20
37.3134835699
 10
-97.7617817348
 20
37.0562948698
 10
-97.769042495
 20
36.794298505
 10
-97.7782454513
 20
36.5281013444
 10
-97.7893719759
 20
36.2581373879
 10
-97.8026027816
 20
35.9855700927
 10
-97.8180042369
 20
35.7111770649
 10
-97.8355263666
 20
35.4353291363
 10
-97.8551780143
 20
35.1586075323
  0
LWPOLYLINE
  5
712
100
AcDbEntity
  8
RACCORDO
100
AcDbPolyline
 62
250
  6
CONTINUOUS
 90
16
 70
0
 10
-98.1396844391
 20
41.1527276252
 10
-98.1855720056
 20
41.1497738016
 10
-98.2309893343
 20
41.1425410177
 10
-98.2755453779
 20
41.1310915505
 10
-98.3188565063
 20
41.1155239827
 10
-98.3605498062
 20
41.0959723549
 10
-98.4002662921
 20
41.0726050126
 10
-98.4376640032
 20
41.0456231536
 10
-98.4724209443
 20
41.0152590964
 10
-98.5042378558
 20
40.9817742827
 10
-98.5328407945
 20
40.9454570224
 10
-98.5579834907
 20
40.9066200118
 10
-98.5794494672
 20
40.8655976437
 10
-98.5970539045
 20
40.8227431259
 10
-98.6106452324
 20
40.7784254389
 10
-98.6201064334
 20
40.7330261611
  0
LINE
  5
713
100
AcDbEntity
  8
RACCORDO
100
AcDbLine
 62
7
  6
CONTINUOUS
 10
-99.4014380827
 20
41.1307036334
 11
-83.4024557352
 21
41.409966909
  0
LINE
  5
714
100
AcDbEntity
  8
RACCORDO
100
AcDbLine
 62
250
  6
CONTINUOUS
 10
-99.398275156
 20
40.7469299032
 11
-98.6201064334
 21
40.7330261611
  0
LINE
  5
715
100
AcDbEntity
  8
RACCORDO
100
AcDbLine
 62
250
  6
CONTINUOUS
 10
-99.6044881705
 20
40.7516380412
 11
-99.398275156
 21
40.7469299032
  0
LWPOLYLINE
  5
716
100
AcDbEntity
  8
RACCORDO
100
AcDbPolyline
 62
250
  6
CONTINUOUS
 90
3
 70
0
 10
-99.7171140232
 20
40.7547988878
 10
-99.6928644208
 20
40.754042293
 10
-99.6044881705
 20
40.7516380412
  0
LWPOLYLINE
  5
717
100
AcDbEntity
  8
0
100
AcDbPolyline
 62
7
  6
CONTINUOUS
 90
7
 70
0
 43
0.3500000006
 10
-96.7203141174
 20
52.035151062
 10
-98.2203145752
 20
52.035151062
 10
-96.7203141174
 20
54.1780049744
 10
-96.7203141174
 20
54.606578476
 10
-97.1488830872
 20
55.0351474457
 10
-97.7917456055
 20
55.0351474457
 10
-98.2203145752
 20
54.3922939911
  0
LWPOLYLINE
  5
718
100
AcDbEntity
  8
0
100
AcDbPolyline
 62
7
  6
CONTINUOUS
 90
3
 70
0
 43
0.3500000006
 10
-76.5417436523
 20
62.6780075684
 10
-78.0417441101
 20
62.6780075684
 10
-77.3988815918
 20
65.0351459656
  0
LWPOLYLINE
  5
719
100
AcDbEntity
  8
0
100
AcDbPolyline
 62
7
  6
CONTINUOUS
 90
3
 70
0
 43
0.3500000006
 10
-82.9703144531
 20
62.6780075684
 10
-84.4703149109
 20
62.6780075684
 10
-83.8274523926
 20
65.0351459656
  0
LWPOLYLINE
  5
71A
100
AcDbEntity
  8
0
100
AcDbPolyline
 62
7
  6
CONTINUOUS
 90
13
 70
0
 43
0.3500000006
 10
-81.6845984802
 20
63.7494390564
 10
-81.9703141479
 20
63.9637235413
 10
-81.9703141479
 20
64.6065769958
 10
-81.6845984802
 20
65.0351459656
 10
-81.0417450256
 20
65.0351459656
 10
-80.7560293579
 20
64.6065769958
 10
-80.7560293579
 20
63.9637235413
 10
-81.0417450256
 20
63.7494390564
 10
-80.6131669922
 20
63.3208610229
 10
-80.6131669922
 20
62.4637230835
 10
-81.0417450256
 20
62.03514505
 10
-81.6845984802
 20
62.03514505
 10
-82.11316745
 20
62.4637230835
  0
ARC
  5
71B
100
AcDbEntity
  8
0
100
AcDbCircle
 62
7
  6
CONTINUOUS
 10
-33.75
 20
-35.5
 40
5.7931574806
100
AcDbArc
 50
180.0
 51
270.0
  0
ARC
  5
71C
100
AcDbEntity
  8
0
100
AcDbCircle
 62
7
  6
CONTINUOUS
 10
33.75
 20
-35.5
 40
5.7931574806
100
AcDbArc
 50
270.0
 51
360.0
  0
ARC
  5
71D
100
AcDbEntity
  8
RACCORDO
100
AcDbCircle
 62
250
  6
CONTINUOUS
 10
35.25
 20
-36.8
 40
4.5051451296
100
AcDbArc
 50
307.0436352928
 51
360.0
  0
ARC
  5
71E
100
AcDbEntity
  8
RACCORDO
100
AcDbCircle
 62
250
  6
CONTINUOUS
 10
-35.25
 20
-36.8
 40
4.5051451296
100
AcDbArc
 50
180.0
 51
232.9563665575
  0
ARC
  5
71F
100
AcDbEntity
  8
RACCORDO
100
AcDbCircle
 62
250
  6
CONTINUOUS
 10
-35.25
 20
-36.8
 40
4.2051908211
100
AcDbArc
 50
180.0
 51
252.4136459658
  0
ARC
  5
720
100
AcDbEntity
  8
RACCORDO
100
AcDbCircle
 62
250
  6
CONTINUOUS
 10
35.25
 20
-36.8
 40
4.2051908211
100
AcDbArc
 50
287.5863540661
 51
360.0
  0
ARC
  5
721
100
AcDbEntity
  8
RACCORDO
100
AcDbCircle
 62
250
  6
CONTINUOUS
 10
-22.0
 20
-24.0
 40
2.2864482698
100
AcDbArc
 50
208.9601309127
 51
241.0474162179
  0
ARC
  5
722
100
AcDbEntity
  8
RACCORDO
100
AcDbCircle
 62
250
  6
CONTINUOUS
 10
22.0
 20
-24.0
 40
2.2864482698
100
AcDbArc
 50
298.9525854943
 51
331.0414992199
  0
ARC
  5
723
100
AcDbEntity
  8
RACCORDO
100
AcDbCircle
 62
250
  6
CONTINUOUS
 10
-22.0
 20
20.0
 40
1.9864939613
100
AcDbArc
 50
90.0
 51
180.0
  0
ARC
  5
724
100
AcDbEntity
  8
RACCORDO
100
AcDbCircle
 62
250
  6
CONTINUOUS
 10
-22.0
 20
-24.0
 40
1.9864939613
100
AcDbArc
 50
180.0
 51
270.0
  0
ARC
  5
725
100
AcDbEntity
  8
RACCORDO
100
AcDbCircle
 62
250
  6
CONTINUOUS
 10
22.0
 20
-24.0
 40
1.9864939613
100
AcDbArc
 50
270.0
 51
360.0
  0
ARC
  5
726
100
AcDbEntity
  8
RACCORDO
100
AcDbCircle
 62
250
  6
CONTINUOUS
 10
22.0
 20
20.0
 40
1.9864939613
100
AcDbArc
 50
0.0
 51
90.0
  0
ARC
  5
727
100
AcDbEntity
  8
RACCORDO
100
AcDbCircle
 62
250
  6
CONTINUOUS
 10
-22.0
 20
20.0
 40
1.917150432
100
AcDbArc
 50
90.0
 51
180.0
  0
ARC
  5
728
100
AcDbEntity
  8
RACCORDO
100
AcDbCircle
 62
250
  6
CONTINUOUS
 10
-22.0
 20
-24.0
 40
1.917150432
100
AcDbArc
 50
180.0
 51
270.0
  0
ARC
  5
729
100
AcDbEntity
  8
RACCORDO
100
AcDbCircle
 62
250
  6
CONTINUOUS
 10
22.0
 20
-24.0
 40
1.917150432
100
AcDbArc
 50
270.0
 51
360.0
  0
ARC
  5
72A
100
AcDbEntity
  8
RACCORDO
100
AcDbCircle
 62
250
  6
CONTINUOUS
 10
22.0
 20
20.0
 40
1.917150432
100
AcDbArc
 50
0.0
 51
90.0
  0
ARC
  5
72B
100
AcDbEntity
  8
RACCORDO
100
AcDbCircle
 62
250
  6
CONTINUOUS
 10
-22.0
 20
-24.0
 40
0.9173027369
100
AcDbArc
 50
180.0
 51
270.0
  0
ARC
  5
72C
100
AcDbEntity
  8
RACCORDO
100
AcDbCircle
 62
250
  6
CONTINUOUS
 10
22.0
 20
20.0
 40
0.9173027369
100
AcDbArc
 50
0.0
 51
90.0
  0
ARC
  5
72D
100
AcDbEntity
  8
RACCORDO
100
AcDbCircle
 62
250
  6
CONTINUOUS
 10
-22.0
 20
20.0
 40
0.9173027369
100
AcDbArc
 50
90.0
 51
180.0
  0
ARC
  5
72E
100
AcDbEntity
  8
RACCORDO
100
AcDbCircle
 62
250
  6
CONTINUOUS
 10
22.0
 20
-24.0
 40
0.9173027369
100
AcDbArc
 50
270.0
 51
360.0
  0
ARC
  5
72F
100
AcDbEntity
  8
SUPERFICI
100
AcDbCircle
 62
7
  6
CONTINUOUS
 10
196.8014530261
 20
-25.9999999992
 40
300.0000047595
100
AcDbArc
 50
180.0395339344
 51
182.7895448311
  0
ARC
  5
730
100
AcDbEntity
  8
0
100
AcDbCircle
 62
7
  6
CONTINUOUS
 10
-84.4024557352
 20
-36.2
 40
3.5
100
AcDbArc
 50
286.6073509577
 51
360.0
  0
ARC
  5
731
100
AcDbEntity
  8
0
100
AcDbCircle
 62
7
  6
CONTINUOUS
 10
-84.4024557352
 20
36.2
 40
3.5
100
AcDbArc
 50
0.0
 51
73.3926490423
  0
ARC
  5
732
100
AcDbEntity
  8
0
100
AcDbCircle
 62
7
  6
CONTINUOUS
 10
-67.9024557352
 20
0.825
 40
3.125
100
AcDbArc
 50
69.7157876869
 51
84.7666732232
  0
ARC
  5
733
100
AcDbEntity
  8
0
100
AcDbCircle
 62
7
  6
CONTINUOUS
 10
-67.9024557352
 20
0.825
 40
3.125
100
AcDbArc
 50
95.2333267768
 51
110.2842123131
  0
ARC
  5
734
100
AcDbEntity
  8
0
100
AcDbCircle
 62
7
  6
CONTINUOUS
 10
-67.9024557352
 20
-4.825
 40
3.125
100
AcDbArc
 50
275.2333267768
 51
290.2842123131
  0
ARC
  5
735
100
AcDbEntity
  8
0
100
AcDbCircle
 62
7
  6
CONTINUOUS
 10
-67.9024557352
 20
-4.825
 40
3.125
100
AcDbArc
 50
249.7157876869
 51
264.7666732232
  0
ARC
  5
736
100
AcDbEntity
  8
0
100
AcDbCircle
 62
7
  6
CONTINUOUS
 10
-63.4024557352
 20
-6.75
 40
1.0
100
AcDbArc
 50
270.0
 51
360.0
  0
ARC
  5
737
100
AcDbEntity
  8
0
100
AcDbCircle
 62
7
  6
CONTINUOUS
 10
-63.4024557352
 20
2.75
 40
1.0
100
AcDbArc
 50
0.0
 51
90.0
  0
ARC
  5
738
100
AcDbEntity
  8
RACCORDO
100
AcDbCircle
 62
7
  6
CONTINUOUS
 10
-103.2524557352
 20
-24.9173027369
 40
1.0
100
AcDbArc
 50
180.0
 51
269.0
  0
ARC
  5
739
100
AcDbEntity
  8
RACCORDO
100
AcDbCircle
 62
7
  6
CONTINUOUS
 10
-103.2524557352
 20
20.9173027369
 40
1.0
100
AcDbArc
 50
98.2915638375
 51
180.0
  0
ARC
  5
73A
100
AcDbEntity
  8
RACCORDO
100
AcDbCircle
 62
7
  6
CONTINUOUS
 10
-102.343655736
 20
-40.5759193628
 40
0.5
100
AcDbArc
 50
182.7895447368
 51
268.9573310037
  0
ARC
  5
73B
100
AcDbEntity
  8
RACCORDO
100
AcDbCircle
 62
7
  6
CONTINUOUS
 10
-102.3391981848
 20
-40.5759971696
 40
0.4999999926
100
AcDbArc
 50
264.2105311088
 51
268.9999999645
  0
ARC
  5
73C
100
AcDbEntity
  8
RACCORDO
100
AcDbCircle
 62
7
  6
CONTINUOUS
 10
-99.423494838
 20
40.6268909696
 40
0.4999999913
100
AcDbArc
 50
95.6802124812
 51
161.2031970701
  0
ARC
  5
73D
100
AcDbEntity
  8
0
100
AcDbCircle
 62
7
  6
CONTINUOUS
 10
-56.1024557352
 20
-0.95
 40
0.2
100
AcDbArc
 50
0.0
 51
90.0
  0
ARC
  5
73E
100
AcDbEntity
  8
0
100
AcDbCircle
 62
7
  6
CONTINUOUS
 10
-56.1024557352
 20
-3.05
 40
0.2
100
AcDbArc
 50
270.0
 51
360.0
  0
ARC
  5
73F
100
AcDbEntity
  8
0
100
AcDbCircle
 62
7
  6
CONTINUOUS
 10
-62.3024557352
 20
0.35
 40
0.1
100
AcDbArc
 50
180.0
 51
270.0
  0
ARC
  5
740
100
AcDbEntity
  8
0
100
AcDbCircle
 62
7
  6
CONTINUOUS
 10
-62.3024557352
 20
-4.35
 40
0.1
100
AcDbArc
 50
90.0
 51
180.0
  0
ELLIPSE
  5
741
100
AcDbEntity
  8
RACCORDO
100
AcDbEllipse
 62
7
  6
CONTINUOUS
 10
28.5698577544
 20
33.0218528511
 30
0.0
 11
-0.2643274108
 21
1.9957405007
 31
0.0
 40
0.4935551741
 41
1.3086225439
 42
1.4218706924
  0
ELLIPSE
  5
742
100
AcDbEntity
  8
RACCORDO
100
AcDbEllipse
 62
7
  6
CONTINUOUS
 10
-28.5698577544
 20
33.0218528511
 30
0.0
 11
0.2643274108
 21
1.9957405007
 31
0.0
 40
0.4935551741
 41
-1.4218706924
 42
-1.3086225439
  0
ELLIPSE
  5
743
100
AcDbEntity
  8
RACCORDO
100
AcDbEllipse
 62
7
  6
CONTINUOUS
 10
-16.9507692721
 20
-41.1421577413
 30
0.0
 11
0.5000761408
 21
-0.0
 31
0.0
 40
0.0174497492
 41
1.5707963268
 42
3.1412880671
  0
ELLIPSE
  5
744
100
AcDbEntity
  8
RACCORDO
100
AcDbEllipse
 62
7
  6
CONTINUOUS
 10
16.9507692721
 20
-41.1421577413
 30
0.0
 11
0.5000761408
 21
0.0
 31
0.0
 40
0.0174497492
 41
0.0003045865
 42
1.5707963268
  0
ELLIPSE
  5
745
100
AcDbEntity
  8
RACCORDO
100
AcDbEllipse
 62
7
  6
CONTINUOUS
 10
-20.4999238352
 20
-41.1029442686
 30
0.0
 11
0.500076164
 21
0.0000019472
 31
0.0
 40
0.0174511733
 41
2.6180346048
 42
3.1415925856
  0
ELLIPSE
  5
746
100
AcDbEntity
  8
RACCORDO
100
AcDbEllipse
 62
7
  6
CONTINUOUS
 10
20.4999238352
 20
-41.1029442686
 30
0.0
 11
0.500076164
 21
-0.0000019472
 31
0.0
 40
0.0174511733
 41
0.000000068
 42
0.5235580488
  0
ELLIPSE
  5
747
100
AcDbEntity
  8
DRAFT
100
AcDbEllipse
 62
7
  6
CONTINUOUS
 10
27.5499917568
 20
36.7
 30
0.0
 11
0.0
 21
1.5500000719
 31
0.0
 40
0.0174550657
 41
-0.0003046793
 42
3.1418973329
  0
ELLIPSE
  5
748
100
AcDbEntity
  8
DRAFT
100
AcDbEllipse
 62
7
  6
CONTINUOUS
 10
-27.5499917568
 20
36.7
 30
0.0
 11
0.0
 21
1.5500000719
 31
0.0
 40
0.0174550657
 41
-3.1418973329
 42
0.0003046793
  0
ELLIPSE
  5
749
100
AcDbEntity
  8
RACCORDO
100
AcDbEllipse
 62
7
  6
CONTINUOUS
 10
17.6492150378
 20
-41.1299663251
 30
0.0
 11
1.0001524673
 21
0.0000106445
 31
0.0
 40
0.0174603791
 41
-0.0003049579
 42
1.5701867824
  0
ELLIPSE
  5
74A
100
AcDbEntity
  8
RACCORDO
100
AcDbEllipse
 62
7
  6
CONTINUOUS
 10
-17.6492150378
 20
-41.1299663251
 30
0.0
 11
1.0001524673
 21
-0.0000106445
 31
0.0
 40
0.0174603791
 41
1.5714058712
 42
3.1418976115
  0
ELLIPSE
  5
74B
100
AcDbEntity
  8
RACCORDO
100
AcDbEllipse
 62
7
  6
CONTINUOUS
 10
-43.8590529408
 20
35.4090529408
 30
0.0
 11
4.243933135
 21
-4.243933135
 31
0.0
 40
0.9996954599
 41
2.3563467834
 42
3.9268385237
  0
ELLIPSE
  5
74C
100
AcDbEntity
  8
RACCORDO
100
AcDbEllipse
 62
7
  6
CONTINUOUS
 10
-43.8590529408
 20
-35.4090529408
 30
0.0
 11
4.243933135
 21
4.243933135
 31
0.0
 40
0.9996954599
 41
-3.9268385237
 42
-2.3563467834
  0
ELLIPSE
  5
74D
100
AcDbEntity
  8
RACCORDO
100
AcDbEllipse
 62
7
  6
CONTINUOUS
 10
43.8590529408
 20
-35.4090529408
 30
0.0
 11
4.243933135
 21
-4.243933135
 31
0.0
 40
0.9996954599
 41
-0.7852458701
 42
0.7852458701
  0
ELLIPSE
  5
74E
100
AcDbEntity
  8
RACCORDO
100
AcDbEllipse
 62
7
  6
CONTINUOUS
 10
43.8590529408
 20
35.4090529408
 30
0.0
 11
4.243933135
 21
4.243933135
 31
0.0
 40
0.9996954599
 41
-0.7852458701
 42
0.7852458701
  0
ELLIPSE
  5
74F
100
AcDbEntity
  8
RACCORDO
100
AcDbEllipse
 62
7
  6
CONTINUOUS
 10
-45.6545988841
 20
33.0218528511
 30
0.0
 11
58.4276101379
 21
0.3916965257
 31
0.0
 40
0.0335674935
 41
2.8570674241
 42
2.8608210571
  0
ELLIPSE
  5
750
100
AcDbEntity
  8
DRAFT
100
AcDbEllipse
 62
7
  6
CONTINUOUS
 10
-45.8645244291
 20
-2.0
 30
0.0
 11
27.264227181
 21
0.0
 31
0.0
 40
0.9999619202
 41
-3.0242686668
 42
-2.940541245
  0
ELLIPSE
  5
751
100
AcDbEntity
  8
DRAFT
100
AcDbEllipse
 62
7
  6
CONTINUOUS
 10
-45.8645244291
 20
-2.0
 30
0.0
 11
27.264227181
 21
0.0
 31
0.0
 40
0.9999619202
 41
2.940541245
 42
3.0242686668
  0
ELLIPSE
  5
752
100
AcDbEntity
  8
DRAFT
100
AcDbEllipse
 62
7
  6
CONTINUOUS
 10
-46.3527132586
 20
-2.0
 30
0.0
 11
28.6766717957
 21
0.0
 31
0.0
 40
0.9999619202
 41
-3.030657501
 42
-2.9343626299
  0
ELLIPSE
  5
753
100
AcDbEntity
  8
DRAFT
100
AcDbEllipse
 62
7
  6
CONTINUOUS
 10
-46.3527132586
 20
-2.0
 30
0.0
 11
28.6766717957
 21
0.0
 31
0.0
 40
0.9999619202
 41
2.9343626299
 42
3.030657501
  0
ENDSEC
  0
SECTION
  2
OBJECTS
  0
DICTIONARY
  5
C
100
AcDbDictionary
280
0
281
1
  3
ACAD_GROUP
350
D
  3
ACAD_MLINESTYLE
350
17
  3
ACAD_LAYOUT
350
1A
  3
ACAD_PLOTSETTINGS
350
19
  3
ACAD_PLOTSTYLENAME
350
E
  0
DICTIONARY
  5
D
102
{ACAD_REACTORS
330
C
102
}
100
AcDbDictionary
280
0
281
1
  0
ACDBDICTIONARYWDFLT
  5
E
102
{ACAD_REACTORS
330
C
102
}
100
AcDbDictionary
281
1
  3
Normal
350
F
100
AcDbDictionaryWithDefault
340
F
  0
DICTIONARY
  5
17
102
{ACAD_REACTORS
330
C
102
}
100
AcDbDictionary
280
0
281
1
  3
Standard
350
18
  0
DICTIONARY
  5
19
102
{ACAD_REACTORS
330
C
102
}
100
AcDbDictionary
281
1
  0
DICTIONARY
  5
1A
102
{ACAD_REACTORS
330
C
102
}
100
AcDbDictionary
281
1
  3
Model
350
754
  3
Layout1
350
755
  0
ACDBPLACEHOLDER
  5
F
102
{ACAD_REACTORS
330
E
102
}
  0
MLINESTYLE
  5
18
102
{ACAD_REACTORS
330
17
102
}
100
AcDbMlineStyle
  2
STANDARD
 70
0
  3

 62
256
 51
90.0
 52
90.0
 71
2
 49
0.5
 62
256
  6
BYLAYER
 49
-0.5
 62
256
  6
BYLAYER
  0
LAYOUT
  5
754
102
{ACAD_REACTORS
330
1A
102
}
100
AcDbPlotSettings
  1

  2
none_device
  4
ISO_A4_(297.00_x_210.00_MM)
  6

 40
0.0
 41
0.0
 42
0.0
 43
0.0
 44
297.0
 45
210.0
 46
0.0
 47
0.0
 48
0.0
 49
0.0
140
0.0
141
0.0
142
1.0
143
1.0
 70
1024
 72
1
 73
0
 74
0
  7

 75
0
147
1.0
148
0.0
149
0.0
100
AcDbLayout
  1
Model
 70
0
 71
0
 10
0.0
 20
0.0
 11
297.0
 21
210.0
 12
0.0
 22
0.0
 32
0.0
 14
0.0
 24
0.0
 34
0.0
 15
0.0
 25
0.0
 35
0.0
146
0.0
 13
0.0
 23
0.0
 33
0.0
 16
1.0
 26
0.0
 36
0.0
 17
0.0
 27
1.0
 37
0.0
 76
0
330
217
345
0
346
0
  0
LAYOUT
  5
755
102
{ACAD_REACTORS
330
1A
102
}
100
AcDbPlotSettings
  1

  2
none_device
  4
ISO_A4_(297.00_x_210.00_MM)
  6

 40
0.0
 41
0.0
 42
0.0
 43
0.0
 44
297.0
 45
210.0
 46
0.0
 47
0.0
 48
0.0
 49
0.0
140
0.0
141
0.0
142
1.0
143
1.0
 70
0
 72
1
 73
0
 74
0
  7

 75
0
147
1.0
148
0.0
149
0.0
100
AcDbLayout
  1
Layout1
 70
0
 71
1
 10
0.0
 20
0.0
 11
297.0
 21
210.0
 12
0.0
 22
0.0
 32
0.0
 14
0.0
 24
0.0
 34
0.0
 15
0.0
 25
0.0
 35
0.0
146
0.0
 13
0.0
 23
0.0
 33
0.0
 16
1.0
 26
0.0
 36
0.0
 17
0.0
 27
1.0
 37
0.0
 76
0
330
218
345
0
346
0
  0
ENDSEC
  0
EOF
