  0
SECTION
  2
HEADER
  9
$ACADVER
  1
AC1024
  9
$DWGCODEPAGE
  3
ANSI_1252
  9
$EXTMAX
 10
297.0
 20
210.0
 30
0.0
  9
$EXTMIN
 10
0.0
 20
0.0
 30
0.0
  9
$LIMMIN
 10
0.0
 20
0.0
  9
$LIMMAX
 10
297.0
 20
210.0
  9
$VIEWCTR
 10
148.5
 20
105.0
  9
$VIEWSIZE
 40
210.0
  9
$CLAYER
  8
0
  9
$LTSCALE
 40
16.335
  9
$CELTYPE
  6
BYLAYER
  9
$DIMSCALE
 40
1.0
  9
$DIMASZ
 40
3.0
  9
$DIMEXO
 40
0.5
  9
$DIMDLI
 40
11.286
  9
$DIMEXE
 40
1.5
  9
$DIMCEN
 40
2.673
  9
$DIMLFAC
 40
1.0
  9
$DIMBLK
  1
_FILLED
  9
$DIMALT
 70
0
  9
$DIMALTF
 40
0.0393700787
  9
$DIMTXT
 40
3.0
  9
$DIMTOL
 70
1
  9
$DIMLIM
 70
0
  9
$DIMTFAC
 40
1.0
  9
$DIMTP
 40
0.01
  9
$DIMTM
 40
0.01
  9
$DIMGAP
 40
0.625
  9
$DIMDSEP
 70
44
  9
$AUNITS
 70
0
  9
$PDMODE
 70
3
  9
$PDSIZE
 40
3.0
  9
$HANDSEED
  5
6AD
  9
$TILEMODE
 70
1
  9
$MEASUREMENT
 70
1
  9
$INSUNITS
 70
4
  0
ENDSEC
  0
SECTION
  2
CLASSES
  0
CLASS
  1
ACDBDICTIONARYWDFLT
  2
AcDbDictionaryWithDefault
  3
AutoCAD 2000
 90
0
 91
1
280
0
281
0
  0
CLASS
  1
ACDBPLACEHOLDER
  2
AcDbPlaceHolder
  3
AutoCAD 2000
 90
0
 91
1
280
0
281
0
  0
CLASS
  1
LAYOUT
  2
AcDbLayout
  3
AutoCAD 2000
 90
0
 91
0
280
0
281
0
  0
ENDSEC
  0
SECTION
  2
TABLES
  0
TABLE
  2
VPORT
  5
8
100
AcDbSymbolTable
 70
2
  0
VPORT
  5
1F4
100
AcDbSymbolTableRecord
100
AcDbViewportTableRecord
  2
*ACTIVE
 70
0
 10
0.0
 20
0.0
 11
1.0
 21
1.0
 12
148.5
 22
105.0
 13
0.0
 23
0.0
 14
1.0
 24
1.0
 15
0.0
 25
0.0
 16
0.0
 26
0.0
 36
1.0
 17
0.0
 27
0.0
 37
0.0
 40
210.0
 41
1.4142857143
 42
50.0
 43
0.0
 44
0.0
 50
0.0
 51
0.0
 71
0
 72
100
 73
1
 74
1
 75
0
 76
0
 77
0
 78
0
  0
ENDTAB
  0
TABLE
  2
LTYPE
  5
5
100
AcDbSymbolTable
 70
6
  0
LTYPE
  5
14
100
AcDbSymbolTableRecord
100
AcDbLinetypeTableRecord
  2
BYBLOCK
 70
0
  3

 72
65
 73
0
 40
0.0
  0
LTYPE
  5
15
100
AcDbSymbolTableRecord
100
AcDbLinetypeTableRecord
  2
BYLAYER
 70
0
  3

 72
65
 73
0
 40
0.0
  0
LTYPE
  5
16
100
AcDbSymbolTableRecord
100
AcDbLinetypeTableRecord
  2
CONTINUOUS
 70
64
  3
Solid line
 72
65
 73
0
 40
0.0
  0
LTYPE
  5
1F5
100
AcDbSymbolTableRecord
100
AcDbLinetypeTableRecord
  2
CENTER
 70
64
  3
____ _ ____ _ ____ _ ____ _ ____ _ ____ _ ____
 72
65
 73
4
 40
0.6
 49
0.375
 74
0
 49
-0.075
 74
0
 49
0.075
 74
0
 49
-0.075
 74
0
  0
LTYPE
  5
1F6
100
AcDbSymbolTableRecord
100
AcDbLinetypeTableRecord
  2
HIDDEN
 70
64
  3
- - - - - - - - - - - - - - - - - - - -
 72
65
 73
2
 40
0.2
 49
0.1
 74
0
 49
-0.1
 74
0
  0
LTYPE
  5
1F7
100
AcDbSymbolTableRecord
100
AcDbLinetypeTableRecord
  2
PHANTOM
 70
64
  3
_____ _ _ _____ _ _ _____ _ _ _____
 72
65
 73
6
 40
0.8
 49
0.45
 74
0
 49
-0.05
 74
0
 49
0.1
 74
0
 49
-0.05
 74
0
 49
0.1
 74
0
 49
-0.05
 74
0
  0
LTYPE
  5
1F8
100
AcDbSymbolTableRecord
100
AcDbLinetypeTableRecord
  2
DOT
 70
64
  3
. . . . . . . . . . . . . . . . . . . .
 72
65
 73
2
 40
0.2
 49
0.1
 74
0
 49
-0.1
 74
0
  0
LTYPE
  5
1F9
100
AcDbSymbolTableRecord
100
AcDbLinetypeTableRecord
  2
DASHED
 70
64
  3
- - - - - - - - - - - - - - - - - - - -
 72
65
 73
2
 40
0.2
 49
0.1
 74
0
 49
-0.1
 74
0
  0
ENDTAB
  0
TABLE
  2
LAYER
  5
2
100
AcDbSymbolTable
 70
36
  0
LAYER
  5
10
100
AcDbSymbolTableRecord
100
AcDbLayerTableRecord
  2
0
 70
0
 62
7
  6
CONTINUOUS
370
-3
390
F
  0
LAYER
  5
1FA
100
AcDbSymbolTableRecord
100
AcDbLayerTableRecord
  2
DEFAULT_1
 70
0
 62
7
  6
CENTER
370
-3
390
F
  0
LAYER
  5
1FB
100
AcDbSymbolTableRecord
100
AcDbLayerTableRecord
  2
DEFAULT_2
 70
0
 62
7
  6
HIDDEN
370
-3
390
F
  0
LAYER
  5
1FC
100
AcDbSymbolTableRecord
100
AcDbLayerTableRecord
  2
DEFAULT_3
 70
0
 62
7
  6
PHANTOM
370
-3
390
F
  0
LAYER
  5
1FD
100
AcDbSymbolTableRecord
100
AcDbLayerTableRecord
  2
ASSI
 70
0
 62
7
  6
CONTINUOUS
370
-3
390
F
  0
LAYER
  5
1FE
100
AcDbSymbolTableRecord
100
AcDbLayerTableRecord
  2
COLOR5
 70
0
 62
7
  6
CONTINUOUS
370
-3
390
F
  0
LAYER
  5
1FF
100
AcDbSymbolTableRecord
100
AcDbLayerTableRecord
  2
COORDINATE
 70
0
 62
7
  6
CONTINUOUS
370
-3
390
F
  0
LAYER
  5
200
100
AcDbSymbolTableRecord
100
AcDbLayerTableRecord
  2
COORD_ORIGINE
 70
0
 62
7
  6
CONTINUOUS
370
-3
390
F
  0
LAYER
  5
201
100
AcDbSymbolTableRecord
100
AcDbLayerTableRecord
  2
CURVE
 70
0
 62
7
  6
CONTINUOUS
370
-3
390
F
  0
LAYER
  5
202
100
AcDbSymbolTableRecord
100
AcDbLayerTableRecord
  2
DRAFT
 70
0
 62
7
  6
CONTINUOUS
370
-3
390
F
  0
LAYER
  5
203
100
AcDbSymbolTableRecord
100
AcDbLayerTableRecord
  2
IGS
 70
0
 62
7
  6
CONTINUOUS
370
-3
390
F
  0
LAYER
  5
204
100
AcDbSymbolTableRecord
100
AcDbLayerTableRecord
  2
NOTE
 70
0
 62
7
  6
CONTINUOUS
370
-3
390
F
  0
LAYER
  5
205
100
AcDbSymbolTableRecord
100
AcDbLayerTableRecord
  2
PIANI
 70
0
 62
7
  6
CONTINUOUS
370
-3
390
F
  0
LAYER
  5
206
100
AcDbSymbolTableRecord
100
AcDbLayerTableRecord
  2
PIANI_ORIGINE
 70
0
 62
7
  6
CONTINUOUS
370
-3
390
F
  0
LAYER
  5
207
100
AcDbSymbolTableRecord
100
AcDbLayerTableRecord
  2
PUNTI
 70
0
 62
7
  6
CONTINUOUS
370
-3
390
F
  0
LAYER
  5
208
100
AcDbSymbolTableRecord
100
AcDbLayerTableRecord
  2
RACCORDO
 70
0
 62
7
  6
CONTINUOUS
370
-3
390
F
  0
LAYER
  5
209
100
AcDbSymbolTableRecord
100
AcDbLayerTableRecord
  2
SMUSSO
 70
0
 62
7
  6
CONTINUOUS
370
-3
390
F
  0
LAYER
  5
20A
100
AcDbSymbolTableRecord
100
AcDbLayerTableRecord
  2
SNAPLINE
 70
0
 62
7
  6
CONTINUOUS
370
-3
390
F
  0
LAYER
  5
20B
100
AcDbSymbolTableRecord
100
AcDbLayerTableRecord
  2
SUPERFICI
 70
0
 62
7
  6
CONTINUOUS
370
-3
390
F
  0
LAYER
  5
20C
100
AcDbSymbolTableRecord
100
AcDbLayerTableRecord
  2
TRASH
 70
0
 62
7
  6
CONTINUOUS
370
-3
390
F
  0
LAYER
  5
20D
100
AcDbSymbolTableRecord
100
AcDbLayerTableRecord
  2
XSEC_DATUMS
 70
0
 62
7
  6
CONTINUOUS
370
-3
390
F
  0
ENDTAB
  0
TABLE
  2
STYLE
  5
3
100
AcDbSymbolTable
 70
1
  0
STYLE
  5
11
100
AcDbSymbolTableRecord
100
AcDbTextStyleTableRecord
  2
STANDARD
 70
0
 40
0.0
 41
0.8
 50
0.0
 71
0
 42
0.2
  3
txt
  4

  0
STYLE
  5
20E
100
AcDbSymbolTableRecord
100
AcDbTextStyleTableRecord
  2
TEXTSTYLE_1
 70
0
 40
0.0
 41
0.8
 50
0.0
 71
0
 42
0.2
  3
gdt
  4

  0
ENDTAB
  0
TABLE
  2
VIEW
  5
6
100
AcDbSymbolTable
 70
0
  0
ENDTAB
  0
TABLE
  2
UCS
  5
7
100
AcDbSymbolTable
 70
0
  0
ENDTAB
  0
TABLE
  2
APPID
  5
9
100
AcDbSymbolTable
 70
1
  0
APPID
  5
20F
100
AcDbSymbolTableRecord
100
AcDbRegAppTableRecord
  2
ACAD
 70
0
  0
ENDTAB
  0
TABLE
  2
BLOCK_RECORD
  5
1
100
AcDbSymbolTable
 70
0
  0
BLOCK_RECORD
  5
210
100
AcDbSymbolTableRecord
100
AcDbBlockTableRecord
  2
*Model_Space
  0
BLOCK_RECORD
  5
211
100
AcDbSymbolTableRecord
100
AcDbBlockTableRecord
  2
*Paper_Space
  0
BLOCK_RECORD
  5
212
100
AcDbSymbolTableRecord
100
AcDbBlockTableRecord
  2
_FILLED
  0
BLOCK_RECORD
  5
213
100
AcDbSymbolTableRecord
100
AcDbBlockTableRecord
  2
*D0
  0
BLOCK_RECORD
  5
214
100
AcDbSymbolTableRecord
100
AcDbBlockTableRecord
  2
*D1
  0
BLOCK_RECORD
  5
215
100
AcDbSymbolTableRecord
100
AcDbBlockTableRecord
  2
*D2
  0
BLOCK_RECORD
  5
216
100
AcDbSymbolTableRecord
100
AcDbBlockTableRecord
  2
*D3
  0
BLOCK_RECORD
  5
217
100
AcDbSymbolTableRecord
100
AcDbBlockTableRecord
  2
*D4
  0
BLOCK_RECORD
  5
218
100
AcDbSymbolTableRecord
100
AcDbBlockTableRecord
  2
*D5
  0
BLOCK_RECORD
  5
219
100
AcDbSymbolTableRecord
100
AcDbBlockTableRecord
  2
*D6
  0
ENDTAB
  0
TABLE
  2
DIMSTYLE
  5
A
100
AcDbSymbolTable
 70
1
100
AcDbDimStyleTable
 71
0
  0
DIMSTYLE
105
21A
100
AcDbSymbolTableRecord
100
AcDbDimStyleTableRecord
  2
STANDARD
 70
0
  3

  4

 40
1.0
 41
3.0
 42
0.5
 43
0.38
 44
1.5
 45
0.0
 46
0.0
 47
0.01
 48
0.01
140
3.0
141
0.09
142
0.0
143
25.4
144
1.0
145
0.0
146
1.0
147
0.625
 71
1.0
 72
0.0
 73
0
 74
0
 75
0
 76
0
 77
1
 78
8
 79
2
170
0
171
1
172
0
173
0
174
0
175
0
176
0
177
0
178
0
270
2
179
2
271
2
272
2
273
2
274
2
275
0
280
0
281
0
282
0
283
1
284
8
285
0
286
0
287
3
288
0
340
11
278
44
341
212
342
212
343
212
344
212
  0
DIMSTYLE
105
21B
100
AcDbSymbolTableRecord
100
AcDbDimStyleTableRecord
  2
DIMSTYLE_1
 70
0
  3

  4

 40
1.0
 41
3.0
 42
0.5
 43
0.38
 44
1.5
 45
0.0
 46
0.0
 47
0.0
 48
0.0
140
3.0
141
0.09
142
0.0
143
25.4
144
1.0
145
0.0
146
1.0
147
0.75
 71
0.0
 72
0.0
 73
0
 74
0
 75
0
 76
0
 77
1
 78
8
 79
2
170
0
171
1
172
0
173
0
174
0
175
0
176
0
177
0
178
0
270
2
179
2
271
1
272
1
273
2
274
2
275
0
280
0
281
0
282
0
283
1
284
8
285
0
286
0
287
3
288
0
340
11
278
44
341
212
342
212
343
212
344
212
  0
DIMSTYLE
105
21C
100
AcDbSymbolTableRecord
100
AcDbDimStyleTableRecord
  2
DIMSTYLE_2
 70
0
  3

  4

 40
1.0
 41
3.0
 42
0.5
 43
0.38
 44
1.5
 45
0.0
 46
0.0
 47
0.0
 48
0.0
140
3.0
141
0.09
142
0.0
143
25.4
144
1.0
145
0.0
146
1.0
147
0.75
 71
0.0
 72
0.0
 73
0
 74
0
 75
0
 76
0
 77
1
 78
8
 79
2
170
0
171
1
172
0
173
0
174
0
175
0
176
0
177
0
178
0
270
2
179
2
271
2
272
2
273
2
274
2
275
0
280
0
281
0
282
0
283
1
284
8
285
0
286
0
287
3
288
0
340
11
278
44
341
212
342
212
343
212
344
212
  0
ENDTAB
  0
ENDSEC
  0
SECTION
  2
BLOCKS
  0
BLOCK
  5
20
100
AcDbEntity
  8
0
100
AcDbBlockBegin
  2
*Model_Space
 70
0
 10
0.0
 20
0.0
 30
0.0
  3
*Model_Space
  1

  0
ENDBLK
  5
21
100
AcDbEntity
  8
0
100
AcDbBlockEnd
  0
BLOCK
  5
1C
100
AcDbEntity
  8
0
100
AcDbBlockBegin
  2
*Paper_Space
 70
0
 10
0.0
 20
0.0
 30
0.0
  3
*Paper_Space
  1

  0
ENDBLK
  5
1D
100
AcDbEntity
  8
0
100
AcDbBlockEnd
  0
BLOCK
  5
21D
100
AcDbEntity
  8
0
100
AcDbBlockBegin
  2
_FILLED
 70
64
 10
0.0
 20
0.0
  3
_FILLED
  1

  0
SOLID
  5
21E
100
AcDbEntity
  8
0
  6
BYBLOCK
 62
0
100
AcDbTrace
 10
0.0
 20
0.0
 11
-1.0
 21
0.3166666667
 12
-1.0
 22
-0.3166666667
 13
-1.0
 23
-0.3166666667
  0
ENDBLK
  5
21F
100
AcDbEntity
  8
0
  6
BYBLOCK
 62
0
100
AcDbBlockEnd
  0
BLOCK
  5
220
100
AcDbEntity
  8
0
100
AcDbBlockBegin
 62
7
  6
CONTINUOUS
  2
*D0
 70
65
 10
0.0
 20
0.0
  3
*D0
  1

  0
LINE
  5
221
100
AcDbEntity
  8
0
100
AcDbLine
 62
7
  6
CONTINUOUS
 10
132.1442212702
 20
140.7672560582
 11
132.1442212702
 21
168.4668296371
  0
LINE
  5
222
100
AcDbEntity
  8
0
100
AcDbLine
 62
7
  6
CONTINUOUS
 10
224.2842212702
 20
140.7672560582
 11
224.2842212702
 21
168.4668296371
  0
LINE
  5
223
100
AcDbEntity
  8
0
100
AcDbLine
 62
7
  6
CONTINUOUS
 10
132.1442212702
 20
166.9668296371
 11
178.2142212702
 21
166.9668296371
  0
LINE
  5
224
100
AcDbEntity
  8
0
100
AcDbLine
 62
7
  6
CONTINUOUS
 10
224.2842212702
 20
166.9668296371
 11
178.2142212702
 21
166.9668296371
  0
INSERT
  5
225
100
AcDbEntity
  8
0
100
AcDbBlockReference
 62
7
  6
CONTINUOUS
  2
_FILLED
 10
132.1442212702
 20
166.9668296371
 41
3.0
 42
3.0
 43
3.0
 50
180.0
  0
INSERT
  5
226
100
AcDbEntity
  8
0
100
AcDbBlockReference
 62
7
  6
CONTINUOUS
  2
_FILLED
 10
224.2842212702
 20
166.9668296371
 41
3.0
 42
3.0
 43
3.0
  0
ENDBLK
  5
227
100
AcDbEntity
  8
0
  6
BYBLOCK
 62
0
100
AcDbBlockEnd
  0
BLOCK
  5
228
100
AcDbEntity
  8
0
100
AcDbBlockBegin
 62
7
  6
CONTINUOUS
  2
*D1
 70
65
 10
0.0
 20
0.0
  3
*D1
  1

  0
LINE
  5
229
100
AcDbEntity
  8
0
100
AcDbLine
 62
7
  6
CONTINUOUS
 10
224.0846476912
 20
140.9668296371
 11
251.7842212702
 21
140.9668296371
  0
LINE
  5
22A
100
AcDbEntity
  8
0
100
AcDbLine
 62
7
  6
CONTINUOUS
 10
224.0846476912
 20
56.8268296371
 11
251.7842212702
 21
56.8268296371
  0
LINE
  5
22B
100
AcDbEntity
  8
0
100
AcDbLine
 62
7
  6
CONTINUOUS
 10
250.2842212702
 20
140.9668296371
 11
250.2842212702
 21
98.8968296371
  0
LINE
  5
22C
100
AcDbEntity
  8
0
100
AcDbLine
 62
7
  6
CONTINUOUS
 10
250.2842212702
 20
56.8268296371
 11
250.2842212702
 21
98.8968296371
  0
INSERT
  5
22D
100
AcDbEntity
  8
0
100
AcDbBlockReference
 62
7
  6
CONTINUOUS
  2
_FILLED
 10
250.2842212702
 20
140.9668296371
 41
3.0
 42
3.0
 43
3.0
 50
90.0
  0
INSERT
  5
22E
100
AcDbEntity
  8
0
100
AcDbBlockReference
 62
7
  6
CONTINUOUS
  2
_FILLED
 10
250.2842212702
 20
56.8268296371
 41
3.0
 42
3.0
 43
3.0
 50
270.0
  0
ENDBLK
  5
22F
100
AcDbEntity
  8
0
  6
BYBLOCK
 62
0
100
AcDbBlockEnd
  0
BLOCK
  5
230
100
AcDbEntity
  8
0
100
AcDbBlockBegin
 62
7
  6
CONTINUOUS
  2
*D2
 70
65
 10
0.0
 20
0.0
  3
*D2
  1

  0
LINE
  5
231
100
AcDbEntity
  8
0
100
AcDbLine
 62
7
  6
CONTINUOUS
 10
154.2142212702
 20
125.4968296371
 11
154.2142212702
 21
152.4668296371
  0
LINE
  5
232
100
AcDbEntity
  8
0
100
AcDbLine
 62
7
  6
CONTINUOUS
 10
202.2142212702
 20
125.4968296371
 11
202.2142212702
 21
152.4668296371
  0
LINE
  5
233
100
AcDbEntity
  8
0
100
AcDbLine
 62
7
  6
CONTINUOUS
 10
154.2142212702
 20
150.9668296371
 11
178.2142212702
 21
150.9668296371
  0
LINE
  5
234
100
AcDbEntity
  8
0
100
AcDbLine
 62
7
  6
CONTINUOUS
 10
202.2142212702
 20
150.9668296371
 11
178.2142212702
 21
150.9668296371
  0
INSERT
  5
235
100
AcDbEntity
  8
0
100
AcDbBlockReference
 62
7
  6
CONTINUOUS
  2
_FILLED
 10
154.2142212702
 20
150.9668296371
 41
3.0
 42
3.0
 43
3.0
 50
180.0
  0
INSERT
  5
236
100
AcDbEntity
  8
0
100
AcDbBlockReference
 62
7
  6
CONTINUOUS
  2
_FILLED
 10
202.2142212702
 20
150.9668296371
 41
3.0
 42
3.0
 43
3.0
  0
ENDBLK
  5
237
100
AcDbEntity
  8
0
  6
BYBLOCK
 62
0
100
AcDbBlockEnd
  0
BLOCK
  5
238
100
AcDbEntity
  8
0
100
AcDbBlockBegin
 62
7
  6
CONTINUOUS
  2
*D3
 70
65
 10
0.0
 20
0.0
  3
*D3
  1

  0
LINE
  5
239
100
AcDbEntity
  8
0
100
AcDbLine
 62
7
  6
CONTINUOUS
 10
203.9142212702
 20
122.8968296371
 11
235.7842212702
 21
122.8968296371
  0
LINE
  5
23A
100
AcDbEntity
  8
0
100
AcDbLine
 62
7
  6
CONTINUOUS
 10
204.8142212702
 20
74.8968296371
 11
235.7842212702
 21
74.8968296371
  0
LINE
  5
23B
100
AcDbEntity
  8
0
100
AcDbLine
 62
7
  6
CONTINUOUS
 10
234.2842212702
 20
122.8968296371
 11
234.2842212702
 21
98.8968296371
  0
LINE
  5
23C
100
AcDbEntity
  8
0
100
AcDbLine
 62
7
  6
CONTINUOUS
 10
234.2842212702
 20
74.8968296371
 11
234.2842212702
 21
98.8968296371
  0
INSERT
  5
23D
100
AcDbEntity
  8
0
100
AcDbBlockReference
 62
7
  6
CONTINUOUS
  2
_FILLED
 10
234.2842212702
 20
122.8968296371
 41
3.0
 42
3.0
 43
3.0
 50
90.0
  0
INSERT
  5
23E
100
AcDbEntity
  8
0
100
AcDbBlockReference
 62
7
  6
CONTINUOUS
  2
_FILLED
 10
234.2842212702
 20
74.8968296371
 41
3.0
 42
3.0
 43
3.0
 50
270.0
  0
ENDBLK
  5
23F
100
AcDbEntity
  8
0
  6
BYBLOCK
 62
0
100
AcDbBlockEnd
  0
BLOCK
  5
240
100
AcDbEntity
  8
0
100
AcDbBlockBegin
 62
7
  6
CONTINUOUS
  2
*D4
 70
65
 10
0.0
 20
0.0
  3
*D4
  1

  0
LINE
  5
241
100
AcDbEntity
  8
0
100
AcDbLine
 62
7
  6
CONTINUOUS
 10
178.7142212702
 20
128.8968296371
 11
243.7842212702
 21
128.8968296371
  0
LINE
  5
242
100
AcDbEntity
  8
0
100
AcDbLine
 62
7
  6
CONTINUOUS
 10
178.7142212702
 20
68.8968296371
 11
243.7842212702
 21
68.8968296371
  0
LINE
  5
243
100
AcDbEntity
  8
0
100
AcDbLine
 62
7
  6
CONTINUOUS
 10
242.2842212702
 20
128.8968296371
 11
242.2842212702
 21
98.8968296371
  0
LINE
  5
244
100
AcDbEntity
  8
0
100
AcDbLine
 62
7
  6
CONTINUOUS
 10
242.2842212702
 20
68.8968296371
 11
242.2842212702
 21
98.8968296371
  0
INSERT
  5
245
100
AcDbEntity
  8
0
100
AcDbBlockReference
 62
7
  6
CONTINUOUS
  2
_FILLED
 10
242.2842212702
 20
128.8968296371
 41
3.0
 42
3.0
 43
3.0
 50
90.0
  0
INSERT
  5
246
100
AcDbEntity
  8
0
100
AcDbBlockReference
 62
7
  6
CONTINUOUS
  2
_FILLED
 10
242.2842212702
 20
68.8968296371
 41
3.0
 42
3.0
 43
3.0
 50
270.0
  0
ENDBLK
  5
247
100
AcDbEntity
  8
0
  6
BYBLOCK
 62
0
100
AcDbBlockEnd
  0
BLOCK
  5
248
100
AcDbEntity
  8
0
100
AcDbBlockBegin
 62
7
  6
CONTINUOUS
  2
*D5
 70
65
 10
0.0
 20
0.0
  3
*D5
  1

  0
LINE
  5
249
100
AcDbEntity
  8
0
100
AcDbLine
 62
7
  6
CONTINUOUS
 10
148.2142212702
 20
99.3968296371
 11
148.2142212702
 21
160.4668296371
  0
LINE
  5
24A
100
AcDbEntity
  8
0
100
AcDbLine
 62
7
  6
CONTINUOUS
 10
208.2142212702
 20
99.3968296371
 11
208.2142212702
 21
160.4668296371
  0
LINE
  5
24B
100
AcDbEntity
  8
0
100
AcDbLine
 62
7
  6
CONTINUOUS
 10
148.2142212702
 20
158.9668296371
 11
178.2142212702
 21
158.9668296371
  0
LINE
  5
24C
100
AcDbEntity
  8
0
100
AcDbLine
 62
7
  6
CONTINUOUS
 10
208.2142212702
 20
158.9668296371
 11
178.2142212702
 21
158.9668296371
  0
INSERT
  5
24D
100
AcDbEntity
  8
0
100
AcDbBlockReference
 62
7
  6
CONTINUOUS
  2
_FILLED
 10
148.2142212702
 20
158.9668296371
 41
3.0
 42
3.0
 43
3.0
 50
180.0
  0
INSERT
  5
24E
100
AcDbEntity
  8
0
100
AcDbBlockReference
 62
7
  6
CONTINUOUS
  2
_FILLED
 10
208.2142212702
 20
158.9668296371
 41
3.0
 42
3.0
 43
3.0
  0
ENDBLK
  5
24F
100
AcDbEntity
  8
0
  6
BYBLOCK
 62
0
100
AcDbBlockEnd
  0
BLOCK
  5
250
100
AcDbEntity
  8
0
100
AcDbBlockBegin
 62
7
  6
CONTINUOUS
  2
*D6
 70
65
 10
0.0
 20
0.0
  3
*D6
  1

  0
LINE
  5
251
100
AcDbEntity
  8
0
100
AcDbLine
 62
7
  6
CONTINUOUS
 10
55.5228762619
 20
139.2194128676
 11
55.5228762619
 21
152.4668296371
  0
LINE
  5
252
100
AcDbEntity
  8
0
100
AcDbLine
 62
7
  6
CONTINUOUS
 10
100.5228762619
 20
140.7672560582
 11
100.5228762619
 21
152.4668296371
  0
LINE
  5
253
100
AcDbEntity
  8
0
100
AcDbLine
 62
7
  6
CONTINUOUS
 10
55.5228762619
 20
150.9668296371
 11
78.0228762619
 21
150.9668296371
  0
LINE
  5
254
100
AcDbEntity
  8
0
100
AcDbLine
 62
7
  6
CONTINUOUS
 10
100.5228762619
 20
150.9668296371
 11
78.0228762619
 21
150.9668296371
  0
INSERT
  5
255
100
AcDbEntity
  8
0
100
AcDbBlockReference
 62
7
  6
CONTINUOUS
  2
_FILLED
 10
55.5228762619
 20
150.9668296371
 41
3.0
 42
3.0
 43
3.0
 50
180.0
  0
INSERT
  5
256
100
AcDbEntity
  8
0
100
AcDbBlockReference
 62
7
  6
CONTINUOUS
  2
_FILLED
 10
100.5228762619
 20
150.9668296371
 41
3.0
 42
3.0
 43
3.0
  0
ENDBLK
  5
257
100
AcDbEntity
  8
0
  6
BYBLOCK
 62
0
100
AcDbBlockEnd
  0
ENDSEC
  0
SECTION
  2
ENTITIES
  0
DIMENSION
  5
258
100
AcDbEntity
  8
0
100
AcDbDimension
 62
7
  6
CONTINUOUS
  2
*D0
 10
224.2842212702
 20
166.9668296371
 11
174.1427926987
 21
166.9668296371
 70
160
 71
2
 72
2
 41
0.9
 42
92.14
  3
DIMSTYLE_1
100
AcDbAlignedDimension
 13
132.1442212702
 23
140.2672560582
 14
224.2842212702
 24
140.2672560582
100
AcDbRotatedDimension
  0
DIMENSION
  5
259
100
AcDbEntity
  8
0
100
AcDbDimension
 62
7
  6
CONTINUOUS
  2
*D1
 10
250.2842212702
 20
56.8268296371
 11
250.2842212702
 21
94.8254010657
 70
160
 71
2
 72
2
 41
0.9
 42
84.14
  3
DIMSTYLE_1
100
AcDbAlignedDimension
 13
223.5846476912
 23
140.9668296371
 14
223.5846476912
 24
56.8268296371
 50
270.0
100
AcDbRotatedDimension
  0
DIMENSION
  5
25A
100
AcDbEntity
  8
0
100
AcDbDimension
 62
7
  6
CONTINUOUS
  2
*D2
 10
202.2142212702
 20
150.9668296371
 11
175.857078413
 21
150.9668296371
 70
160
 71
2
 72
2
 41
0.9
 42
48.0
  3
DIMSTYLE_2
100
AcDbAlignedDimension
 13
154.2142212702
 23
124.9968296371
 14
202.2142212702
 24
124.9968296371
100
AcDbRotatedDimension
  0
DIMENSION
  5
25B
100
AcDbEntity
  8
0
100
AcDbDimension
 62
7
  6
CONTINUOUS
  2
*D3
 10
234.2842212702
 20
74.8968296371
 11
234.2842212702
 21
96.53968678
 70
160
 71
2
 72
2
 41
0.9
 42
48.0
  3
DIMSTYLE_2
100
AcDbAlignedDimension
 13
203.4142212702
 23
122.8968296371
 14
204.3142212702
 24
74.8968296371
 50
270.0
100
AcDbRotatedDimension
  0
DIMENSION
  5
25C
100
AcDbEntity
  8
0
100
AcDbDimension
 62
7
  6
CONTINUOUS
  2
*D4
 10
242.2842212702
 20
68.8968296371
 11
242.2842212702
 21
96.53968678
 70
160
 71
2
 72
2
 41
0.9
 42
60.0
  3
DIMSTYLE_2
100
AcDbAlignedDimension
 13
178.2142212702
 23
128.8968296371
 14
178.2142212702
 24
68.8968296371
 50
270.0
100
AcDbRotatedDimension
  0
DIMENSION
  5
25D
100
AcDbEntity
  8
0
100
AcDbDimension
 62
7
  6
CONTINUOUS
  2
*D5
 10
208.2142212702
 20
158.9668296371
 11
175.857078413
 21
158.9668296371
 70
160
 71
2
 72
2
 41
0.9
 42
60.0
  3
DIMSTYLE_2
100
AcDbAlignedDimension
 13
148.2142212702
 23
98.8968296371
 14
208.2142212702
 24
98.8968296371
100
AcDbRotatedDimension
  0
DIMENSION
  5
25E
100
AcDbEntity
  8
0
100
AcDbDimension
 62
7
  6
CONTINUOUS
  2
*D6
 10
100.5228762619
 20
150.9668296371
 11
75.7728762619
 21
150.9668296371
 70
160
 71
2
 72
2
 41
0.9
 42
45.0
  3
DIMSTYLE_2
100
AcDbAlignedDimension
 13
55.5228762619
 23
138.7194128676
 14
100.5228762619
 24
140.2672560582
100
AcDbRotatedDimension
  0
LWPOLYLINE
  5
25F
100
AcDbEntity
  8
0
100
AcDbPolyline
 62
7
  6
CONTINUOUS
 90
10
 70
0
 43
0.3500000006
 10
174.5713575439
 20
167.7168323364
 10
175.4285136108
 20
168.5739702759
 10
175.6427980957
 20
169.4311082153
 10
175.6427980957
 20
170.2882642822
 10
175.214229126
 20
170.716833252
 10
174.5713575439
 20
170.716833252
 10
174.1427885742
 20
170.2882642822
 10
174.1427885742
 20
169.4311082153
 10
174.5713575439
 20
169.0025392456
 10
175.49993573
 20
169.0025392456
  0
LINE
  5
260
100
AcDbEntity
  8
RACCORDO
100
AcDbLine
 62
7
  6
CONTINUOUS
 10
132.1442212702
 20
140.2672560582
 11
132.1442212702
 21
57.526403216
  0
LWPOLYLINE
  5
261
100
AcDbEntity
  8
RACCORDO
100
AcDbPolyline
 62
250
  6
CONTINUOUS
 90
13
 70
0
 10
133.6920644607
 20
138.7194128676
 10
133.6980005127
 20
138.8095124528
 10
133.7155828792
 20
138.8984596536
 10
133.7446530026
 20
138.9847341854
 10
133.7849151759
 20
139.0669426196
 10
133.8357740255
 20
139.1434932387
 10
133.896198938
 20
139.2127159578
 10
133.9650278981
 20
139.2733364558
 10
134.0411602941
 20
139.3244351868
 10
134.1233276148
 20
139.3651610021
 10
134.2101381859
 20
139.3948108136
 10
134.3000898517
 20
139.4128589566
 10
134.3916380397
 20
139.4189864465
  0
LWPOLYLINE
  5
262
100
AcDbEntity
  8
0
100
AcDbPolyline
 62
7
  6
CONTINUOUS
 90
3
 70
0
 43
0.3500000006
 10
180.571359375
 20
169.8596953125
 10
181.4285154419
 20
170.716833252
 10
181.4285154419
 20
167.7168323364
  0
LWPOLYLINE
  5
263
100
AcDbEntity
  8
0
100
AcDbPolyline
 62
7
  6
CONTINUOUS
 90
10
 70
0
 43
0.3500000006
 10
176.9285050049
 20
162.7168308105
 10
176.2856515503
 20
162.073977356
 10
175.8570825806
 20
161.2168212891
 10
175.8570825806
 20
160.1453988647
 10
176.2856515503
 20
159.716829895
 10
176.9285050049
 20
159.716829895
 10
177.3570739746
 20
160.1453988647
 10
177.3570739746
 20
161.0025368042
 10
176.9285050049
 20
161.4311239014
 10
175.9999268188
 20
161.4311239014
  0
LINE
  5
264
100
AcDbEntity
  8
RACCORDO
100
AcDbLine
 62
250
  6
CONTINUOUS
 10
133.6920644607
 20
138.7194128676
 11
133.6920644607
 21
59.0742464066
  0
LINE
  5
265
100
AcDbEntity
  8
RACCORDO
100
AcDbLine
 62
250
  6
CONTINUOUS
 10
134.3916380397
 20
58.3746728277
 11
134.3916380397
 21
139.4189864465
  0
LINE
  5
266
100
AcDbEntity
  8
RACCORDO
100
AcDbLine
 62
7
  6
CONTINUOUS
 10
132.8437948491
 20
56.8268296371
 11
223.5846476912
 21
56.8268296371
  0
LWPOLYLINE
  5
267
100
AcDbEntity
  8
RACCORDO
100
AcDbPolyline
 62
250
  6
CONTINUOUS
 90
13
 70
0
 10
134.3916380397
 20
58.3746728277
 10
134.3000898517
 20
58.3808003175
 10
134.2101381859
 20
58.3988484606
 10
134.1233276148
 20
58.4284982721
 10
134.0411602941
 20
58.4692240874
 10
133.9650278981
 20
58.5203228184
 10
133.896198938
 20
58.5809433164
 10
133.8357740255
 20
58.6501660355
 10
133.7849151759
 20
58.7267166545
 10
133.7446530026
 20
58.8089250888
 10
133.7155828792
 20
58.8951996206
 10
133.6980005127
 20
58.9841468214
 10
133.6920644607
 20
59.0742464066
  0
LINE
  5
268
100
AcDbEntity
  8
RACCORDO
100
AcDbLine
 62
250
  6
CONTINUOUS
 10
134.3916380397
 20
58.3746728277
 11
222.0368045007
 21
58.3746728277
  0
LINE
  5
269
100
AcDbEntity
  8
RACCORDO
100
AcDbLine
 62
250
  6
CONTINUOUS
 10
133.6920644607
 20
59.0742464066
 11
222.7363780796
 21
59.0742464066
  0
LINE
  5
26A
100
AcDbEntity
  8
RACCORDO
100
AcDbLine
 62
250
  6
CONTINUOUS
 10
143.5459360259
 20
64.2285443928
 11
143.5459360259
 21
86.6968296371
  0
LINE
  5
26B
100
AcDbEntity
  8
RACCORDO
100
AcDbLine
 62
250
  6
CONTINUOUS
 10
143.5459360259
 20
111.0968296371
 11
143.5459360259
 21
133.5651148814
  0
LINE
  5
26C
100
AcDbEntity
  8
RACCORDO
100
AcDbLine
 62
7
  6
CONTINUOUS
 10
143.8459246028
 20
64.5285329697
 11
143.8459246028
 21
86.3968296371
  0
LINE
  5
26D
100
AcDbEntity
  8
RACCORDO
100
AcDbLine
 62
7
  6
CONTINUOUS
 10
143.8459246028
 20
111.3968296371
 11
143.8459246028
 21
133.2651263045
  0
LINE
  5
26E
100
AcDbEntity
  8
DRAFT
100
AcDbLine
 62
7
  6
CONTINUOUS
 10
144.2142212702
 20
132.8968296371
 11
144.2142212702
 21
111.3968296371
  0
LINE
  5
26F
100
AcDbEntity
  8
DRAFT
100
AcDbLine
 62
7
  6
CONTINUOUS
 10
144.2142212702
 20
86.3968296371
 11
144.2142212702
 21
64.8968296371
  0
LWPOLYLINE
  5
270
100
AcDbEntity
  8
RACCORDO
100
AcDbPolyline
 62
7
  6
CONTINUOUS
 90
6
 70
0
 10
143.7904973694
 20
111.3413451488
 10
143.8081697361
 20
111.3594234308
 10
143.8232700668
 20
111.374163678
 10
143.8351334547
 20
111.3850570325
 10
143.8429302387
 20
111.3926123522
 10
143.8459246028
 20
111.3968296371
  0
LWPOLYLINE
  5
271
100
AcDbEntity
  8
RACCORDO
100
AcDbPolyline
 62
7
  6
CONTINUOUS
 90
7
 70
0
 10
143.5459360259
 20
111.0968296371
 10
143.5718179745
 20
111.123119006
 10
143.5980400487
 20
111.1492669172
 10
143.6243797596
 20
111.1752733708
 10
143.6505525118
 20
111.2013934066
 10
143.6763347569
 20
111.2273719848
 10
143.7257996615
 20
111.2766559976
  0
LWPOLYLINE
  5
272
100
AcDbEntity
  8
RACCORDO
100
AcDbPolyline
 62
7
  6
CONTINUOUS
 90
3
 70
0
 10
143.7257996615
 20
111.2766559976
 10
143.748829987
 20
111.2999614322
 10
143.7904973694
 20
111.3413451488
  0
LINE
  5
273
100
AcDbEntity
  8
0
100
AcDbLine
 62
7
  6
CONTINUOUS
 10
163.2881189467
 20
130.0015470904
 11
163.2698181395
 21
129.989174123
  0
LINE
  5
274
100
AcDbEntity
  8
0
100
AcDbLine
 62
7
  6
CONTINUOUS
 10
163.2881189467
 20
130.0015470904
 11
163.4711296063
 21
130.0959872006
  0
LINE
  5
275
100
AcDbEntity
  8
0
100
AcDbLine
 62
7
  6
CONTINUOUS
 10
165.6403235936
 20
129.2921121838
 11
165.457312934
 21
129.1976720736
  0
LINE
  5
276
100
AcDbEntity
  8
0
100
AcDbLine
 62
7
  6
CONTINUOUS
 10
163.4711296063
 20
130.0959872006
 11
163.6007886575
 21
130.1621765913
  0
LINE
  5
277
100
AcDbEntity
  8
0
100
AcDbLine
 62
7
  6
CONTINUOUS
 10
165.457312934
 20
129.1976720736
 11
165.3276538828
 21
129.1314826828
  0
LINE
  5
278
100
AcDbEntity
  8
0
100
AcDbLine
 62
7
  6
CONTINUOUS
 10
163.6007886575
 20
130.1621765913
 11
163.7038620144
 21
130.2142054132
  0
LINE
  5
279
100
AcDbEntity
  8
0
100
AcDbLine
 62
7
  6
CONTINUOUS
 10
165.3276538828
 20
129.1314826828
 11
165.2245805259
 21
129.079453861
  0
LINE
  5
27A
100
AcDbEntity
  8
0
100
AcDbLine
 62
7
  6
CONTINUOUS
 10
163.7038620144
 20
130.2142054132
 11
163.7811023443
 21
130.2527613978
  0
LINE
  5
27B
100
AcDbEntity
  8
0
100
AcDbLine
 62
7
  6
CONTINUOUS
 10
165.2245805259
 20
129.079453861
 11
165.147340196
 21
129.0408978764
  0
LINE
  5
27C
100
AcDbEntity
  8
0
100
AcDbLine
 62
7
  6
CONTINUOUS
 10
163.7811023443
 20
130.2527613978
 11
163.8327468664
 21
130.278303867
  0
LINE
  5
27D
100
AcDbEntity
  8
0
100
AcDbLine
 62
7
  6
CONTINUOUS
 10
165.147340196
 20
129.0408978764
 11
165.095695674
 21
129.0153554072
  0
LINE
  5
27E
100
AcDbEntity
  8
0
100
AcDbLine
 62
7
  6
CONTINUOUS
 10
163.921592045
 20
130.1894588406
 11
163.8642212702
 21
130.1612494813
  0
LINE
  5
27F
100
AcDbEntity
  8
0
100
AcDbLine
 62
7
  6
CONTINUOUS
 10
165.0068504954
 20
129.1042004336
 11
165.0642212702
 21
129.1324097929
  0
LINE
  5
280
100
AcDbEntity
  8
TRASH
100
AcDbLine
 62
7
  6
CONTINUOUS
 10
163.319224
 20
129.8749778552
 11
163.9444944879
 21
130.1665470721
  0
LINE
  5
281
100
AcDbEntity
  8
TRASH
100
AcDbLine
 62
7
  6
CONTINUOUS
 10
165.6092185403
 20
129.418681419
 11
164.9839480524
 21
129.1271122021
  0
LINE
  5
282
100
AcDbEntity
  8
0
100
AcDbLine
 62
7
  6
CONTINUOUS
 10
164.7030436427
 20
130.7689359241
 11
164.7111516491
 21
130.7726700223
  0
LINE
  5
283
100
AcDbEntity
  8
0
100
AcDbLine
 62
7
  6
CONTINUOUS
 10
164.2253988976
 20
128.5247233501
 11
164.2172908913
 21
128.5209892519
  0
LWPOLYLINE
  5
284
100
AcDbEntity
  8
0
100
AcDbPolyline
 62
7
  6
CONTINUOUS
 90
7
 70
0
 10
164.6923694883
 20
130.7918269072
 10
164.6931502665
 20
130.7921092201
 10
164.6939237127
 20
130.7924024298
 10
164.6946898269
 20
130.7927065363
 10
164.6954486091
 20
130.7930215397
 10
164.6962000594
 20
130.79334744
 10
164.6969441777
 20
130.7936842371
  0
LINE
  5
285
100
AcDbEntity
  8
RACCORDO
100
AcDbLine
 62
250
  6
CONTINUOUS
 10
212.8825065144
 20
64.2285443928
 11
180.7848870783
 21
64.2285443928
  0
LINE
  5
286
100
AcDbEntity
  8
RACCORDO
100
AcDbLine
 62
250
  6
CONTINUOUS
 10
175.643555462
 20
64.2285443928
 11
143.5459360259
 21
64.2285443928
  0
LINE
  5
287
100
AcDbEntity
  8
RACCORDO
100
AcDbLine
 62
7
  6
CONTINUOUS
 10
212.5825179375
 20
64.5285329697
 11
181.084877483
 21
64.5285329697
  0
LINE
  5
288
100
AcDbEntity
  8
RACCORDO
100
AcDbLine
 62
7
  6
CONTINUOUS
 10
175.3435650574
 20
64.5285329697
 11
143.8459246028
 21
64.5285329697
  0
LINE
  5
289
100
AcDbEntity
  8
DRAFT
100
AcDbLine
 62
7
  6
CONTINUOUS
 10
166.3669414565
 20
64.7441094508
 11
175.2142212702
 21
64.7441094508
  0
LINE
  5
28A
100
AcDbEntity
  8
DRAFT
100
AcDbLine
 62
7
  6
CONTINUOUS
 10
181.2142212702
 20
64.7441094508
 11
190.0615010838
 21
64.7441094508
  0
LINE
  5
28B
100
AcDbEntity
  8
DRAFT
100
AcDbLine
 62
7
  6
CONTINUOUS
 10
144.2142212702
 20
64.8968296371
 11
161.0577635734
 21
64.8968296371
  0
LINE
  5
28C
100
AcDbEntity
  8
DRAFT
100
AcDbLine
 62
7
  6
CONTINUOUS
 10
162.4036226079
 20
64.8968296371
 11
166.2142212702
 21
64.8968296371
  0
LINE
  5
28D
100
AcDbEntity
  8
DRAFT
100
AcDbLine
 62
7
  6
CONTINUOUS
 10
190.2142212702
 20
64.8968296371
 11
194.0248199324
 21
64.8968296371
  0
LINE
  5
28E
100
AcDbEntity
  8
DRAFT
100
AcDbLine
 62
7
  6
CONTINUOUS
 10
195.3706789669
 20
64.8968296371
 11
212.2142212702
 21
64.8968296371
  0
LWPOLYLINE
  5
28F
100
AcDbEntity
  8
0
100
AcDbPolyline
 62
7
  6
CONTINUOUS
 90
7
 70
0
 10
164.6925745413
 20
67.001790054
 10
164.6933691062
 20
67.0016820445
 10
164.6941527794
 20
67.0015193472
 10
164.6949255608
 20
67.0013019623
 10
164.6956874505
 20
67.0010298897
 10
164.6964384484
 20
67.0007031294
 10
164.6971785546
 20
67.0003216815
  0
LINE
  5
290
100
AcDbEntity
  8
0
100
AcDbLine
 62
7
  6
CONTINUOUS
 10
162.6883794977
 20
67.9188686589
 11
163.2700504437
 21
67.8043280783
  0
LINE
  5
291
100
AcDbEntity
  8
0
100
AcDbLine
 62
7
  6
CONTINUOUS
 10
164.711151601
 20
67.0209891593
 11
164.7030436526
 21
67.0247233434
  0
LINE
  5
292
100
AcDbEntity
  8
0
100
AcDbLine
 62
7
  6
CONTINUOUS
 10
164.2172909393
 20
69.2726701149
 11
164.2253988877
 21
69.2689359308
  0
LINE
  5
293
100
AcDbEntity
  8
TRASH
100
AcDbLine
 62
7
  6
CONTINUOUS
 10
163.9444977863
 20
67.6271061532
 11
163.3192239933
 21
67.918681409
  0
LINE
  5
294
100
AcDbEntity
  8
TRASH
100
AcDbLine
 62
7
  6
CONTINUOUS
 10
164.983944754
 20
68.666553121
 11
165.609218547
 21
68.3749778652
  0
LINE
  5
295
100
AcDbEntity
  8
0
100
AcDbLine
 62
7
  6
CONTINUOUS
 10
163.8642212702
 20
67.632409315
 11
163.9215920431
 21
67.604200409
  0
LINE
  5
296
100
AcDbEntity
  8
0
100
AcDbLine
 62
7
  6
CONTINUOUS
 10
165.0642212702
 20
68.6612499592
 11
165.0068504972
 21
68.6894588652
  0
LINE
  5
297
100
AcDbEntity
  8
0
100
AcDbLine
 62
7
  6
CONTINUOUS
 10
163.8327467514
 20
67.5153551113
 11
163.7420978437
 21
67.5603149138
  0
LINE
  5
298
100
AcDbEntity
  8
0
100
AcDbLine
 62
7
  6
CONTINUOUS
 10
165.095695789
 20
68.7783041629
 11
165.1863446967
 21
68.7333443604
  0
LINE
  5
299
100
AcDbEntity
  8
0
100
AcDbLine
 62
7
  6
CONTINUOUS
 10
163.7420978437
 20
67.5603149138
 11
163.621432498
 21
67.6210141392
  0
LINE
  5
29A
100
AcDbEntity
  8
0
100
AcDbLine
 62
7
  6
CONTINUOUS
 10
165.1863446967
 20
68.7333443604
 11
165.3070100424
 21
68.672645135
  0
LINE
  5
29B
100
AcDbEntity
  8
0
100
AcDbLine
 62
7
  6
CONTINUOUS
 10
163.621432498
 20
67.6210141392
 11
163.4703703205
 21
67.6980614093
  0
LINE
  5
29C
100
AcDbEntity
  8
0
100
AcDbLine
 62
7
  6
CONTINUOUS
 10
165.3070100424
 20
68.672645135
 11
165.4580722199
 21
68.5955978649
  0
LINE
  5
29D
100
AcDbEntity
  8
0
100
AcDbLine
 62
7
  6
CONTINUOUS
 10
163.4703703205
 20
67.6980614093
 11
163.2881188541
 21
67.7921122318
  0
LINE
  5
29E
100
AcDbEntity
  8
0
100
AcDbLine
 62
7
  6
CONTINUOUS
 10
165.4580722199
 20
68.5955978649
 11
165.6403236862
 21
68.5015470424
  0
LINE
  5
29F
100
AcDbEntity
  8
0
100
AcDbLine
 62
7
  6
CONTINUOUS
 10
163.2700504437
 20
67.8043280783
 11
163.2881188541
 21
67.7921122318
  0
LWPOLYLINE
  5
2A0
100
AcDbEntity
  8
RACCORDO
100
AcDbPolyline
 62
7
  6
CONTINUOUS
 90
7
 70
0
 10
143.5459360259
 20
86.6968296371
 10
143.5720438609
 20
86.6711323315
 10
143.5980706484
 20
86.6450317163
 10
143.6240163883
 20
86.6187492747
 10
143.650151215
 20
86.5925614772
 10
143.6762049941
 20
86.5667073443
 10
143.725684655
 20
86.5170374118
  0
LWPOLYLINE
  5
2A1
100
AcDbEntity
  8
RACCORDO
100
AcDbPolyline
 62
7
  6
CONTINUOUS
 90
9
 70
0
 10
143.725684655
 20
86.5170374118
 10
143.7491105368
 20
86.493888721
 10
143.7706951986
 20
86.4720704644
 10
143.7906291084
 20
86.4521323093
 10
143.8087217981
 20
86.4344730721
 10
143.8234520944
 20
86.4193135686
 10
143.8343129395
 20
86.407371939
 10
143.8418113912
 20
86.3996004489
 10
143.8459474494
 20
86.3968296371
  0
LINE
  5
2A2
100
AcDbEntity
  8
DRAFT
100
AcDbLine
 62
7
  6
CONTINUOUS
 10
148.3009572084
 20
96.617217132
 11
148.2842629368
 21
96.8480265316
  0
LINE
  5
2A3
100
AcDbEntity
  8
RACCORDO
100
AcDbLine
 62
7
  6
CONTINUOUS
 10
146.9142212702
 20
101.5968296371
 11
146.9142212702
 21
100.7629356906
  0
LINE
  5
2A4
100
AcDbEntity
  8
RACCORDO
100
AcDbLine
 62
7
  6
CONTINUOUS
 10
146.9142212702
 20
97.0307235836
 11
146.9142212702
 21
96.1968296371
  0
LINE
  5
2A5
100
AcDbEntity
  8
RACCORDO
100
AcDbLine
 62
250
  6
CONTINUOUS
 10
147.7142212702
 20
101.5968296371
 11
147.7142212702
 21
101.1226230454
  0
LINE
  5
2A6
100
AcDbEntity
  8
RACCORDO
100
AcDbLine
 62
250
  6
CONTINUOUS
 10
147.7142212702
 20
96.6710362288
 11
147.7142212702
 21
96.1968296371
  0
LINE
  5
2A7
100
AcDbEntity
  8
DRAFT
100
AcDbLine
 62
7
  6
CONTINUOUS
 10
148.2842629368
 20
100.9456327426
 11
148.3009572084
 21
101.1764421422
  0
LINE
  5
2A8
100
AcDbEntity
  8
0
100
AcDbLine
 62
7
  6
CONTINUOUS
 10
164.2312639857
 20
130.7933375927
 11
164.2172909393
 21
130.7726701149
  0
LINE
  5
2A9
100
AcDbEntity
  8
DRAFT
100
AcDbLine
 62
7
  6
CONTINUOUS
 10
166.3669414565
 20
133.0495498234
 11
166.2142212702
 21
132.8968296371
  0
LINE
  5
2AA
100
AcDbEntity
  8
0
100
AcDbLine
 62
7
  6
CONTINUOUS
 10
163.8327467514
 20
129.0153551113
 11
163.8642212702
 21
129.0468296307
  0
LINE
  5
2AB
100
AcDbEntity
  8
0
100
AcDbLine
 62
7
  6
CONTINUOUS
 10
163.9215920431
 20
129.104200409
 11
163.944497786
 21
129.1271061529
  0
LINE
  5
2AC
100
AcDbEntity
  8
0
100
AcDbLine
 62
7
  6
CONTINUOUS
 10
164.9839447543
 20
130.1665531213
 11
165.0068504972
 21
130.1894588652
  0
LINE
  5
2AD
100
AcDbEntity
  8
0
100
AcDbLine
 62
7
  6
CONTINUOUS
 10
165.0642212702
 20
130.2468296435
 11
165.095695789
 21
130.2783041629
  0
LINE
  5
2AE
100
AcDbEntity
  8
0
100
AcDbLine
 62
7
  6
CONTINUOUS
 10
165.6403235936
 20
129.2921121838
 11
165.6586244006
 21
129.3044851511
  0
LWPOLYLINE
  5
2AF
100
AcDbEntity
  8
0
100
AcDbPolyline
 62
7
  6
CONTINUOUS
 90
7
 70
0
 10
164.236073052
 20
128.501832367
 10
164.2352922784
 20
128.5015500474
 10
164.2345188356
 20
128.5012568326
 10
164.2337527236
 20
128.5009527228
 10
164.2329939425
 20
128.5006377177
 10
164.2322424921
 20
128.5003118176
 10
164.2314983726
 20
128.4999750223
  0
LWPOLYLINE
  5
2B0
100
AcDbEntity
  8
RACCORDO
100
AcDbPolyline
 62
7
  6
CONTINUOUS
 90
4
 70
0
 10
181.0636561151
 20
67.7363216994
 10
181.075266889
 20
67.7374725679
 10
181.0823743729
 20
67.7382568247
 10
181.084882966
 20
67.7386744697
  0
LWPOLYLINE
  5
2B1
100
AcDbEntity
  8
RACCORDO
100
AcDbPolyline
 62
7
  6
CONTINUOUS
 90
6
 70
0
 10
180.9142212702
 20
67.7275770551
 10
180.9466608163
 20
67.7283234104
 10
180.9766806219
 20
67.7293541998
 10
181.0038030164
 20
67.7306694235
 10
181.0276127631
 20
67.7324860966
 10
181.0636561151
 20
67.7363216994
  0
LINE
  5
2B2
100
AcDbEntity
  8
RACCORDO
100
AcDbLine
 62
7
  6
CONTINUOUS
 10
175.5142212702
 20
67.7314176847
 11
176.2895615648
 21
67.7314176847
  0
LINE
  5
2B3
100
AcDbEntity
  8
RACCORDO
100
AcDbLine
 62
7
  6
CONTINUOUS
 10
180.1388809755
 20
67.7314176847
 11
180.9142212702
 21
67.7314176847
  0
LINE
  5
2B4
100
AcDbEntity
  8
RACCORDO
100
AcDbLine
 62
250
  6
CONTINUOUS
 10
175.5142212702
 20
68.5314067185
 11
175.9940937759
 21
68.5314067185
  0
LINE
  5
2B5
100
AcDbEntity
  8
RACCORDO
100
AcDbLine
 62
250
  6
CONTINUOUS
 10
180.4343487644
 20
68.5314067185
 11
180.9142212702
 21
68.5314067185
  0
LINE
  5
2B6
100
AcDbEntity
  8
RACCORDO
100
AcDbLine
 62
250
  6
CONTINUOUS
 10
180.9142212702
 20
69.2622525557
 11
180.4343487644
 21
69.2622525557
  0
LINE
  5
2B7
100
AcDbEntity
  8
RACCORDO
100
AcDbLine
 62
250
  6
CONTINUOUS
 10
175.9940937759
 20
69.2622525557
 11
175.5142212702
 21
69.2622525557
  0
LINE
  5
2B8
100
AcDbEntity
  8
RACCORDO
100
AcDbLine
 62
7
  6
CONTINUOUS
 10
180.9142212702
 20
70.0622415895
 11
180.1388809755
 21
70.0622415895
  0
LINE
  5
2B9
100
AcDbEntity
  8
RACCORDO
100
AcDbLine
 62
7
  6
CONTINUOUS
 10
176.2895615648
 20
70.0622415895
 11
175.5142212702
 21
70.0622415895
  0
LINE
  5
2BA
100
AcDbEntity
  8
DRAFT
100
AcDbLine
 62
7
  6
CONTINUOUS
 10
180.9142212702
 20
70.1968296371
 11
180.8390267982
 21
70.1968296371
  0
LINE
  5
2BB
100
AcDbEntity
  8
DRAFT
100
AcDbLine
 62
7
  6
CONTINUOUS
 10
175.5894157421
 20
70.1968296371
 11
175.5142212702
 21
70.1968296371
  0
LINE
  5
2BC
100
AcDbEntity
  8
0
100
AcDbLine
 62
7
  6
CONTINUOUS
 10
165.6092291943
 20
67.9186368922
 11
166.2400374817
 21
67.9186696251
  0
LINE
  5
2BD
100
AcDbEntity
  8
0
100
AcDbLine
 62
7
  6
CONTINUOUS
 10
193.1092291943
 20
67.9186368922
 11
193.7400374817
 21
67.9186696251
  0
LINE
  5
2BE
100
AcDbEntity
  8
0
100
AcDbLine
 62
7
  6
CONTINUOUS
 10
162.6884050587
 20
68.3749896494
 11
163.319213347
 21
68.3750223771
  0
LINE
  5
2BF
100
AcDbEntity
  8
0
100
AcDbLine
 62
7
  6
CONTINUOUS
 10
190.1884050587
 20
68.3749896494
 11
190.819213347
 21
68.3750223771
  0
LINE
  5
2C0
100
AcDbEntity
  8
0
100
AcDbLine
 62
7
  6
CONTINUOUS
 10
163.3191816871
 20
67.918476366
 11
162.6883794977
 21
67.9188686589
  0
LINE
  5
2C1
100
AcDbEntity
  8
0
100
AcDbLine
 62
7
  6
CONTINUOUS
 10
190.8191816871
 20
67.918476366
 11
190.1883794977
 21
67.9188686589
  0
LINE
  5
2C2
100
AcDbEntity
  8
0
100
AcDbLine
 62
7
  6
CONTINUOUS
 10
165.6092608533
 20
68.3751829082
 11
166.2400630426
 21
68.3747906153
  0
LINE
  5
2C3
100
AcDbEntity
  8
0
100
AcDbLine
 62
7
  6
CONTINUOUS
 10
193.1092608533
 20
68.3751829082
 11
193.7400630426
 21
68.3747906153
  0
LWPOLYLINE
  5
2C4
100
AcDbEntity
  8
RACCORDO
100
AcDbPolyline
 62
7
  6
CONTINUOUS
 90
5
 70
0
 10
175.4008344499
 20
67.7324857179
 10
175.4246452836
 20
67.7306690133
 10
175.4517673175
 20
67.7293538552
 10
175.4817852724
 20
67.7283232024
 10
175.5142212702
 20
67.7275770551
  0
LWPOLYLINE
  5
2C5
100
AcDbEntity
  8
0
100
AcDbPolyline
 62
7
  6
CONTINUOUS
 90
7
 70
0
 10
192.1925745413
 20
67.001790054
 10
192.1933691062
 20
67.0016820445
 10
192.1941527794
 20
67.0015193472
 10
192.1949255608
 20
67.0013019623
 10
192.1956874505
 20
67.0010298897
 10
192.1964384484
 20
67.0007031294
 10
192.1971785546
 20
67.0003216815
  0
LWPOLYLINE
  5
2C6
100
AcDbEntity
  8
RACCORDO
100
AcDbPolyline
 62
7
  6
CONTINUOUS
 90
5
 70
0
 10
175.3435595743
 20
67.7386744697
 10
175.3460683477
 20
67.7382567707
 10
175.3531763534
 20
67.7374724542
 10
175.3647879761
 20
67.7363215203
 10
175.4008344499
 20
67.7324857179
  0
LINE
  5
2C7
100
AcDbEntity
  8
0
100
AcDbLine
 62
7
  6
CONTINUOUS
 10
166.2400630426
 20
68.3747906153
 11
165.6583920966
 21
68.4893311958
  0
LINE
  5
2C8
100
AcDbEntity
  8
0
100
AcDbLine
 62
7
  6
CONTINUOUS
 10
165.6583920966
 20
68.4893311958
 11
165.6403236862
 21
68.5015470424
  0
LINE
  5
2C9
100
AcDbEntity
  8
DRAFT
100
AcDbLine
 62
7
  6
CONTINUOUS
 10
166.3669414565
 20
64.7441094508
 11
166.2142212702
 21
64.8968296371
  0
LINE
  5
2CA
100
AcDbEntity
  8
0
100
AcDbLine
 62
7
  6
CONTINUOUS
 10
163.8642212702
 20
68.7468294953
 11
163.8327468664
 21
68.778303867
  0
LINE
  5
2CB
100
AcDbEntity
  8
0
100
AcDbLine
 62
7
  6
CONTINUOUS
 10
165.0642212702
 20
67.5468297789
 11
165.095695674
 21
67.5153554072
  0
LINE
  5
2CC
100
AcDbEntity
  8
0
100
AcDbLine
 62
7
  6
CONTINUOUS
 10
164.9839447543
 20
67.6271061529
 11
165.0068504954
 21
67.6042004336
  0
LINE
  5
2CD
100
AcDbEntity
  8
0
100
AcDbLine
 62
7
  6
CONTINUOUS
 10
163.944497786
 20
68.6665531213
 11
163.921592045
 21
68.6894588406
  0
LINE
  5
2CE
100
AcDbEntity
  8
0
100
AcDbLine
 62
7
  6
CONTINUOUS
 10
164.2172908913
 20
67.0209892519
 11
164.2314983726
 21
66.9999750223
  0
LINE
  5
2CF
100
AcDbEntity
  8
DRAFT
100
AcDbLine
 62
7
  6
CONTINUOUS
 10
150.7897207972
 20
111.0581113874
 11
150.7897207972
 21
110.8658629051
  0
LINE
  5
2D0
100
AcDbEntity
  8
DRAFT
100
AcDbLine
 62
7
  6
CONTINUOUS
 10
150.7897207972
 20
110.2877235753
 11
150.7897207972
 21
87.5059356989
  0
LINE
  5
2D1
100
AcDbEntity
  8
DRAFT
100
AcDbLine
 62
7
  6
CONTINUOUS
 10
150.7897207972
 20
86.9277963691
 11
150.7897207972
 21
86.7355478868
  0
LINE
  5
2D2
100
AcDbEntity
  8
DRAFT
100
AcDbLine
 62
7
  6
CONTINUOUS
 10
150.9424409836
 20
111.3968296371
 11
150.9424409836
 21
110.7992103513
  0
LINE
  5
2D3
100
AcDbEntity
  8
DRAFT
100
AcDbLine
 62
7
  6
CONTINUOUS
 10
150.9424409836
 20
110.6538807299
 11
150.9424409836
 21
87.1397785443
  0
LINE
  5
2D4
100
AcDbEntity
  8
DRAFT
100
AcDbLine
 62
7
  6
CONTINUOUS
 10
150.9424409836
 20
86.9944489229
 11
150.9424409836
 21
86.3968296371
  0
LINE
  5
2D5
100
AcDbEntity
  8
ASSI
100
AcDbLine
 62
7
  6
CONTINUOUS
 10
152.1142212702
 20
76.0968296371
 11
152.1142212702
 21
73.6968296371
  0
LINE
  5
2D6
100
AcDbEntity
  8
0
100
AcDbLine
 62
7
  6
CONTINUOUS
 10
163.3030394546
 20
129.3804443257
 11
163.3192239933
 21
129.418681409
  0
LINE
  5
2D7
100
AcDbEntity
  8
0
100
AcDbLine
 62
7
  6
CONTINUOUS
 10
163.2866482715
 20
129.3423265488
 11
163.3030394546
 21
129.3804443257
  0
LINE
  5
2D8
100
AcDbEntity
  8
0
100
AcDbLine
 62
7
  6
CONTINUOUS
 10
163.2700504437
 20
129.3043280783
 11
163.2866482715
 21
129.3423265488
  0
LINE
  5
2D9
100
AcDbEntity
  8
0
100
AcDbLine
 62
7
  6
CONTINUOUS
 10
163.2881188541
 20
129.2921122318
 11
163.3421149764
 21
129.4080072546
  0
LINE
  5
2DA
100
AcDbEntity
  8
0
100
AcDbLine
 62
7
  6
CONTINUOUS
 10
165.6403236862
 20
130.0015470424
 11
165.5863275639
 21
129.8856520196
  0
LINE
  5
2DB
100
AcDbEntity
  8
TRASH
100
AcDbLine
 62
7
  6
CONTINUOUS
 10
163.9445038352
 20
130.1665564193
 11
164.2360730421
 21
130.791826914
  0
LINE
  5
2DC
100
AcDbEntity
  8
TRASH
100
AcDbLine
 62
7
  6
CONTINUOUS
 10
164.9839387051
 20
129.1271028549
 11
164.6923694982
 21
128.5018323602
  0
LINE
  5
2DD
100
AcDbEntity
  8
0
100
AcDbLine
 62
7
  6
CONTINUOUS
 10
163.9624885283
 20
130.2724611671
 11
163.921592045
 21
130.1894588406
  0
LINE
  5
2DE
100
AcDbEntity
  8
0
100
AcDbLine
 62
7
  6
CONTINUOUS
 10
164.965954012
 20
129.0211981071
 11
165.0068504954
 21
129.1042004336
  0
LINE
  5
2DF
100
AcDbEntity
  8
0
100
AcDbLine
 62
7
  6
CONTINUOUS
 10
163.8327468664
 20
130.278303867
 11
163.8642212702
 21
130.3418913605
  0
LINE
  5
2E0
100
AcDbEntity
  8
0
100
AcDbLine
 62
7
  6
CONTINUOUS
 10
165.095695674
 20
129.0153554072
 11
165.0642212702
 21
128.9517679137
  0
LINE
  5
2E1
100
AcDbEntity
  8
0
100
AcDbLine
 62
7
  6
CONTINUOUS
 10
164.003642811
 20
130.354956281
 11
163.9624885283
 21
130.2724611671
  0
LINE
  5
2E2
100
AcDbEntity
  8
0
100
AcDbLine
 62
7
  6
CONTINUOUS
 10
164.9247997293
 20
128.9387029932
 11
164.965954012
 21
129.0211981071
  0
LINE
  5
2E3
100
AcDbEntity
  8
0
100
AcDbLine
 62
7
  6
CONTINUOUS
 10
164.0592816047
 20
130.4651629915
 11
164.003642811
 21
130.354956281
  0
LINE
  5
2E4
100
AcDbEntity
  8
0
100
AcDbLine
 62
7
  6
CONTINUOUS
 10
164.8691609356
 20
128.8284962826
 11
164.9247997293
 21
128.9387029932
  0
LINE
  5
2E5
100
AcDbEntity
  8
0
100
AcDbLine
 62
7
  6
CONTINUOUS
 10
164.1303553647
 20
130.6042779443
 11
164.0592816047
 21
130.4651629915
  0
LINE
  5
2E6
100
AcDbEntity
  8
0
100
AcDbLine
 62
7
  6
CONTINUOUS
 10
164.7980871756
 20
128.6893813299
 11
164.8691609356
 21
128.8284962826
  0
LINE
  5
2E7
100
AcDbEntity
  8
0
100
AcDbLine
 62
7
  6
CONTINUOUS
 10
164.2172909393
 20
130.7726701149
 11
164.1303553647
 21
130.6042779443
  0
LINE
  5
2E8
100
AcDbEntity
  8
0
100
AcDbLine
 62
7
  6
CONTINUOUS
 10
164.711151601
 20
128.5209891593
 11
164.7980871756
 21
128.6893813299
  0
LINE
  5
2E9
100
AcDbEntity
  8
0
100
AcDbLine
 62
7
  6
CONTINUOUS
 10
164.6971785546
 20
128.5003216815
 11
164.711151601
 21
128.5209891593
  0
LWPOLYLINE
  5
2EA
100
AcDbEntity
  8
RACCORDO
100
AcDbPolyline
 62
7
  6
CONTINUOUS
 90
7
 70
0
 10
175.643555462
 20
133.5651148814
 10
175.6178309416
 20
133.5389825873
 10
175.5917247734
 20
133.5129500527
 10
175.565457858
 20
133.4870172774
 10
175.5393082391
 20
133.4609203392
 10
175.5135087511
 20
133.4349231604
 10
175.4639561436
 20
133.3855570894
  0
LWPOLYLINE
  5
2EB
100
AcDbEntity
  8
RACCORDO
100
AcDbPolyline
 62
7
  6
CONTINUOUS
 90
9
 70
0
 10
175.4639561436
 20
133.3855570894
 10
175.44086241
 20
133.3621881971
 10
175.4190820547
 20
133.3406414741
 10
175.3991468286
 20
133.3207223498
 10
175.3814733744
 20
133.3026253946
 10
175.3663055439
 20
133.2878649632
 10
175.3543414686
 20
133.2769458404
 10
175.3464931749
 20
133.2693632413
 10
175.3435595743
 20
133.2651171659
  0
LINE
  5
2EC
100
AcDbEntity
  8
DRAFT
100
AcDbLine
 62
7
  6
CONTINUOUS
 10
166.3669414565
 20
126.0495498234
 11
166.2142212702
 21
125.8968296371
  0
LWPOLYLINE
  5
2ED
100
AcDbEntity
  8
0
100
AcDbPolyline
 62
7
  6
CONTINUOUS
 90
7
 70
0
 10
192.1923694883
 20
130.7918269072
 10
192.1931502665
 20
130.7921092201
 10
192.1939237127
 20
130.7924024298
 10
192.1946898269
 20
130.7927065363
 10
192.1954486091
 20
130.7930215397
 10
192.1962000594
 20
130.79334744
 10
192.1969441777
 20
130.7936842371
  0
LINE
  5
2EE
100
AcDbEntity
  8
DRAFT
100
AcDbLine
 62
7
  6
CONTINUOUS
 10
166.3669414565
 20
71.7441094508
 11
190.0615010838
 21
71.7441094508
  0
LINE
  5
2EF
100
AcDbEntity
  8
DRAFT
100
AcDbLine
 62
7
  6
CONTINUOUS
 10
166.2142212702
 20
71.8968296371
 11
190.2142212702
 21
71.8968296371
  0
LINE
  5
2F0
100
AcDbEntity
  8
0
100
AcDbLine
 62
7
  6
CONTINUOUS
 10
190.1883794977
 20
67.9188686589
 11
190.7700504437
 21
67.8043280783
  0
LINE
  5
2F1
100
AcDbEntity
  8
0
100
AcDbLine
 62
7
  6
CONTINUOUS
 10
193.7400630426
 20
68.3747906153
 11
193.1583920966
 21
68.4893311958
  0
LWPOLYLINE
  5
2F2
100
AcDbEntity
  8
RACCORDO
100
AcDbPolyline
 62
7
  6
CONTINUOUS
 90
7
 70
0
 10
175.643555462
 20
64.2285443928
 10
175.6173505174
 20
64.2543428062
 10
175.5912695102
 20
64.2804975805
 10
175.5653124405
 20
64.3067874143
 10
175.5392214263
 20
64.3329310058
 10
175.5132543495
 20
64.3587017137
 10
175.4639665981
 20
64.4081722615
  0
LWPOLYLINE
  5
2F3
100
AcDbEntity
  8
RACCORDO
100
AcDbPolyline
 62
7
  6
CONTINUOUS
 90
9
 70
0
 10
175.4639665981
 20
64.4081722615
 10
175.4406459235
 20
64.4312186071
 10
175.4191355255
 20
64.4529643293
 10
175.3992340529
 20
64.4728984993
 10
175.3811428571
 20
64.4905771836
 10
175.3663786849
 20
64.5057211699
 10
175.3554471187
 20
64.517653485
 10
175.3478425762
 20
64.5255111128
 10
175.3435650574
 20
64.5285329697
  0
LINE
  5
2F4
100
AcDbEntity
  8
DRAFT
100
AcDbLine
 62
7
  6
CONTINUOUS
 10
166.3669414565
 20
71.7441094508
 11
166.2142212702
 21
71.8968296371
  0
LWPOLYLINE
  5
2F5
100
AcDbEntity
  8
RACCORDO
100
AcDbPolyline
 62
7
  6
CONTINUOUS
 90
4
 70
0
 10
146.9142212702
 20
97.0307235836
 10
146.9161021119
 20
97.0285856447
 10
146.9216961709
 20
97.0241722927
 10
146.9436851195
 20
97.008295208
  0
LINE
  5
2F6
100
AcDbEntity
  8
0
100
AcDbLine
 62
7
  6
CONTINUOUS
 10
164.7111516491
 20
69.2726700223
 11
164.6969441777
 21
69.2936842371
  0
LINE
  5
2F7
100
AcDbEntity
  8
0
100
AcDbLine
 62
7
  6
CONTINUOUS
 10
164.1170836366
 20
67.2152431319
 11
164.2172908913
 21
67.0209892519
  0
LINE
  5
2F8
100
AcDbEntity
  8
0
100
AcDbLine
 62
7
  6
CONTINUOUS
 10
164.8113589037
 20
69.0784161423
 11
164.7111516491
 21
69.2726700223
  0
LINE
  5
2F9
100
AcDbEntity
  8
0
100
AcDbLine
 62
7
  6
CONTINUOUS
 10
164.0510679165
 20
67.3446527189
 11
164.1170836366
 21
67.2152431319
  0
LINE
  5
2FA
100
AcDbEntity
  8
0
100
AcDbLine
 62
7
  6
CONTINUOUS
 10
164.8773746239
 20
68.9490065553
 11
164.8113589037
 21
69.0784161423
  0
LINE
  5
2FB
100
AcDbEntity
  8
0
100
AcDbLine
 62
7
  6
CONTINUOUS
 10
163.985886547
 20
67.4742799669
 11
164.0510679165
 21
67.3446527189
  0
LINE
  5
2FC
100
AcDbEntity
  8
0
100
AcDbLine
 62
7
  6
CONTINUOUS
 10
164.9425559933
 20
68.8193793073
 11
164.8773746239
 21
68.9490065553
  0
LINE
  5
2FD
100
AcDbEntity
  8
0
100
AcDbLine
 62
7
  6
CONTINUOUS
 10
163.8642212702
 20
67.4517673798
 11
163.8327467514
 21
67.5153551113
  0
LINE
  5
2FE
100
AcDbEntity
  8
0
100
AcDbLine
 62
7
  6
CONTINUOUS
 10
163.9215920431
 20
67.604200409
 11
163.985886547
 21
67.4742799669
  0
LINE
  5
2FF
100
AcDbEntity
  8
0
100
AcDbLine
 62
7
  6
CONTINUOUS
 10
165.0068504972
 20
68.6894588652
 11
164.9425559933
 21
68.8193793073
  0
LINE
  5
300
100
AcDbEntity
  8
0
100
AcDbLine
 62
7
  6
CONTINUOUS
 10
165.0642212702
 20
68.8418918944
 11
165.095695789
 21
68.7783041629
  0
LINE
  5
301
100
AcDbEntity
  8
0
100
AcDbLine
 62
7
  6
CONTINUOUS
 10
163.3421149832
 20
68.3856520097
 11
163.2881189467
 21
68.5015470904
  0
LINE
  5
302
100
AcDbEntity
  8
0
100
AcDbLine
 62
7
  6
CONTINUOUS
 10
165.5863275572
 20
67.9080072645
 11
165.6403235936
 21
67.7921121838
  0
LINE
  5
303
100
AcDbEntity
  8
TRASH
100
AcDbLine
 62
7
  6
CONTINUOUS
 10
164.236073052
 20
67.001832367
 11
163.9444977863
 21
67.6271061532
  0
LINE
  5
304
100
AcDbEntity
  8
TRASH
100
AcDbLine
 62
7
  6
CONTINUOUS
 10
164.6923694883
 20
69.2918269072
 11
164.983944754
 21
68.666553121
  0
LINE
  5
305
100
AcDbEntity
  8
0
100
AcDbLine
 62
7
  6
CONTINUOUS
 10
163.2698181395
 20
68.489174123
 11
163.319224
 21
68.3749778552
  0
LINE
  5
306
100
AcDbEntity
  8
ASSI
100
AcDbLine
 62
7
  6
CONTINUOUS
 10
156.3142212702
 20
73.6968296371
 11
156.3142212702
 21
76.0968296371
  0
LWPOLYLINE
  5
307
100
AcDbEntity
  8
0
100
AcDbPolyline
 62
7
  6
CONTINUOUS
 90
3
 70
0
 43
0.3500000006
 10
179.5713590698
 20
168.0025389404
 10
179.4999369507
 20
167.7882544556
 10
179.357074585
 20
167.5025478516
  0
LINE
  5
308
100
AcDbEntity
  8
0
100
AcDbLine
 62
7
  6
CONTINUOUS
 10
165.6254030857
 20
129.9132149485
 11
165.609218547
 21
129.8749778652
  0
LINE
  5
309
100
AcDbEntity
  8
0
100
AcDbLine
 62
7
  6
CONTINUOUS
 10
165.6417942689
 20
129.9513327254
 11
165.6254030857
 21
129.9132149485
  0
LINE
  5
30A
100
AcDbEntity
  8
0
100
AcDbLine
 62
7
  6
CONTINUOUS
 10
165.6583920966
 20
129.9893311958
 11
165.6417942689
 21
129.9513327254
  0
LINE
  5
30B
100
AcDbEntity
  8
RACCORDO
100
AcDbLine
 62
7
  6
CONTINUOUS
 10
181.2142212702
 20
130.1617407012
 11
181.084882966
 21
130.0549848044
  0
LWPOLYLINE
  5
30C
100
AcDbEntity
  8
RACCORDO
100
AcDbPolyline
 62
7
  6
CONTINUOUS
 90
3
 70
0
 10
146.9216920155
 20
100.7694846083
 10
146.9161012903
 20
100.7650740122
 10
146.9142212702
 20
100.7629356906
  0
LINE
  5
30D
100
AcDbEntity
  8
0
100
AcDbLine
 62
7
  6
CONTINUOUS
 10
190.7881189467
 20
130.0015470904
 11
190.9711296063
 21
130.0959872006
  0
LINE
  5
30E
100
AcDbEntity
  8
0
100
AcDbLine
 62
7
  6
CONTINUOUS
 10
190.9711296063
 20
130.0959872006
 11
191.1007886575
 21
130.1621765913
  0
LINE
  5
30F
100
AcDbEntity
  8
0
100
AcDbLine
 62
7
  6
CONTINUOUS
 10
192.9312974745
 20
129.1843345715
 11
192.8018436381
 21
129.1183998452
  0
LINE
  5
310
100
AcDbEntity
  8
0
100
AcDbLine
 62
7
  6
CONTINUOUS
 10
191.1007886575
 20
130.1621765913
 11
191.2038620144
 21
130.2142054132
  0
LINE
  5
311
100
AcDbEntity
  8
0
100
AcDbLine
 62
7
  6
CONTINUOUS
 10
192.8018436381
 20
129.1183998452
 11
192.6988649015
 21
129.0665698795
  0
LINE
  5
312
100
AcDbEntity
  8
0
100
AcDbLine
 62
7
  6
CONTINUOUS
 10
191.2038620144
 20
130.2142054132
 11
191.2811023443
 21
130.2527613978
  0
LWPOLYLINE
  5
313
100
AcDbEntity
  8
0
100
AcDbPolyline
 62
7
  6
CONTINUOUS
 90
3
 70
0
 10
192.6988649015
 20
129.0665698795
 10
192.6215311149
 20
129.0281098548
 10
192.595695674
 20
129.0153554072
  0
LINE
  5
314
100
AcDbEntity
  8
0
100
AcDbLine
 62
7
  6
CONTINUOUS
 10
191.2811023443
 20
130.2527613978
 11
191.3327468664
 21
130.278303867
  0
LINE
  5
315
100
AcDbEntity
  8
0
100
AcDbLine
 62
7
  6
CONTINUOUS
 10
191.421592045
 20
130.1894588406
 11
191.3642212702
 21
130.1612494813
  0
LINE
  5
316
100
AcDbEntity
  8
0
100
AcDbLine
 62
7
  6
CONTINUOUS
 10
192.5068504954
 20
129.1042004336
 11
192.5642212702
 21
129.1324097929
  0
LINE
  5
317
100
AcDbEntity
  8
TRASH
100
AcDbLine
 62
7
  6
CONTINUOUS
 10
190.819224
 20
129.8749778552
 11
191.4444944879
 21
130.1665470721
  0
LINE
  5
318
100
AcDbEntity
  8
TRASH
100
AcDbLine
 62
7
  6
CONTINUOUS
 10
193.1092185403
 20
129.418681419
 11
192.4839480524
 21
129.1271122021
  0
LINE
  5
319
100
AcDbEntity
  8
0
100
AcDbLine
 62
7
  6
CONTINUOUS
 10
192.2030436427
 20
130.7689359241
 11
192.2111516491
 21
130.7726700223
  0
LINE
  5
31A
100
AcDbEntity
  8
0
100
AcDbLine
 62
7
  6
CONTINUOUS
 10
191.7253988976
 20
128.5247233501
 11
191.7172908913
 21
128.5209892519
  0
LWPOLYLINE
  5
31B
100
AcDbEntity
  8
0
100
AcDbPolyline
 62
7
  6
CONTINUOUS
 90
7
 70
0
 10
191.736073052
 20
128.501832367
 10
191.7352922784
 20
128.5015500474
 10
191.7345188356
 20
128.5012568326
 10
191.7337527236
 20
128.5009527228
 10
191.7329939425
 20
128.5006377177
 10
191.7322424921
 20
128.5003118176
 10
191.7314983726
 20
128.4999750223
  0
LINE
  5
31C
100
AcDbEntity
  8
0
100
AcDbLine
 62
7
  6
CONTINUOUS
 10
174.3448572702
 20
75.0363676371
 11
174.6489612702
 21
75.0363676371
  0
LINE
  5
31D
100
AcDbEntity
  8
0
100
AcDbLine
 62
7
  6
CONTINUOUS
 10
175.7367112702
 20
75.0363676371
 11
176.0406332702
 21
75.0363676371
  0
LINE
  5
31E
100
AcDbEntity
  8
0
100
AcDbLine
 62
7
  6
CONTINUOUS
 10
176.8899762702
 20
75.0363676371
 11
177.2033622702
 21
75.0363676371
  0
LINE
  5
31F
100
AcDbEntity
  8
0
100
AcDbLine
 62
7
  6
CONTINUOUS
 10
178.5637312702
 20
75.0363676371
 11
178.8958622702
 21
75.0363676371
  0
LINE
  5
320
100
AcDbEntity
  8
0
100
AcDbLine
 62
7
  6
CONTINUOUS
 10
179.1748512702
 20
75.0363676371
 11
180.6196632702
 21
75.0363676371
  0
LINE
  5
321
100
AcDbEntity
  8
0
100
AcDbLine
 62
7
  6
CONTINUOUS
 10
181.1024812702
 20
75.0363676371
 11
181.4064032702
 21
75.0363676371
  0
LINE
  5
322
100
AcDbEntity
  8
0
100
AcDbLine
 62
7
  6
CONTINUOUS
 10
180.6196632702
 20
75.3057116371
 11
179.4787732702
 21
75.3057116371
  0
LINE
  5
323
100
AcDbEntity
  8
0
100
AcDbLine
 62
7
  6
CONTINUOUS
 10
177.4384922702
 20
75.6915296371
 11
178.3411582702
 21
75.6915296371
  0
LINE
  5
324
100
AcDbEntity
  8
0
100
AcDbLine
 62
7
  6
CONTINUOUS
 10
178.2314192702
 20
75.9608736371
 11
177.5323982702
 21
75.9608736371
  0
LINE
  5
325
100
AcDbEntity
  8
0
100
AcDbLine
 62
7
  6
CONTINUOUS
 10
174.9750862702
 20
77.0182306371
 11
175.7367112702
 21
77.0182306371
  0
LINE
  5
326
100
AcDbEntity
  8
0
100
AcDbLine
 62
7
  6
CONTINUOUS
 10
176.0406332702
 20
77.0182306371
 11
176.8022582702
 21
77.0182306371
  0
LINE
  5
327
100
AcDbEntity
  8
0
100
AcDbLine
 62
7
  6
CONTINUOUS
 10
182.2557462702
 20
77.2875746371
 11
181.8985022702
 21
77.2875746371
  0
LINE
  5
328
100
AcDbEntity
  8
0
100
AcDbLine
 62
7
  6
CONTINUOUS
 10
180.6071062702
 20
77.2875746371
 11
180.2529552702
 21
77.2875746371
  0
LINE
  5
329
100
AcDbEntity
  8
0
100
AcDbLine
 62
7
  6
CONTINUOUS
 10
179.4787732702
 20
77.2875746371
 11
179.1748512702
 21
77.2875746371
  0
LINE
  5
32A
100
AcDbEntity
  8
0
100
AcDbLine
 62
7
  6
CONTINUOUS
 10
178.0809142702
 20
77.2875746371
 11
177.7362262702
 21
77.2875746371
  0
LINE
  5
32B
100
AcDbEntity
  8
0
100
AcDbLine
 62
7
  6
CONTINUOUS
 10
176.8022582702
 20
77.2875746371
 11
174.9750862702
 21
77.2875746371
  0
LINE
  5
32C
100
AcDbEntity
  8
0
100
AcDbLine
 62
7
  6
CONTINUOUS
 10
174.6489612702
 20
77.2875746371
 11
174.3448572702
 21
77.2875746371
  0
LINE
  5
32D
100
AcDbEntity
  8
0
100
AcDbLine
 62
7
  6
CONTINUOUS
 10
176.8978022702
 20
78.2721366371
 11
177.2019062702
 21
78.2721366371
  0
LINE
  5
32E
100
AcDbEntity
  8
0
100
AcDbLine
 62
7
  6
CONTINUOUS
 10
177.7220312702
 20
78.2721366371
 11
178.0168542702
 21
78.2721366371
  0
LINE
  5
32F
100
AcDbEntity
  8
0
100
AcDbLine
 62
7
  6
CONTINUOUS
 10
179.1670262702
 20
78.2721366371
 11
179.5086192702
 21
78.2721366371
  0
LINE
  5
330
100
AcDbEntity
  8
0
100
AcDbLine
 62
7
  6
CONTINUOUS
 10
192.211151601
 20
67.0209891593
 11
192.2030436526
 21
67.0247233434
  0
LINE
  5
331
100
AcDbEntity
  8
0
100
AcDbLine
 62
7
  6
CONTINUOUS
 10
191.7172909393
 20
69.2726701149
 11
191.7253988877
 21
69.2689359308
  0
LINE
  5
332
100
AcDbEntity
  8
TRASH
100
AcDbLine
 62
7
  6
CONTINUOUS
 10
191.4444977863
 20
67.6271061532
 11
190.8192239933
 21
67.918681409
  0
LINE
  5
333
100
AcDbEntity
  8
TRASH
100
AcDbLine
 62
7
  6
CONTINUOUS
 10
192.483944754
 20
68.666553121
 11
193.109218547
 21
68.3749778652
  0
LINE
  5
334
100
AcDbEntity
  8
0
100
AcDbLine
 62
7
  6
CONTINUOUS
 10
191.3642212702
 20
67.632409315
 11
191.4215920431
 21
67.604200409
  0
LINE
  5
335
100
AcDbEntity
  8
0
100
AcDbLine
 62
7
  6
CONTINUOUS
 10
192.5642212702
 20
68.6612499592
 11
192.5068504972
 21
68.6894588652
  0
LINE
  5
336
100
AcDbEntity
  8
0
100
AcDbLine
 62
7
  6
CONTINUOUS
 10
191.3327467514
 20
67.5153551113
 11
191.2420978437
 21
67.5603149138
  0
LINE
  5
337
100
AcDbEntity
  8
0
100
AcDbLine
 62
7
  6
CONTINUOUS
 10
192.595695789
 20
68.7783041629
 11
192.6863446967
 21
68.7333443604
  0
LINE
  5
338
100
AcDbEntity
  8
0
100
AcDbLine
 62
7
  6
CONTINUOUS
 10
191.2420978437
 20
67.5603149138
 11
191.121432498
 21
67.6210141392
  0
LINE
  5
339
100
AcDbEntity
  8
0
100
AcDbLine
 62
7
  6
CONTINUOUS
 10
192.6863446967
 20
68.7333443604
 11
192.8070100424
 21
68.672645135
  0
LINE
  5
33A
100
AcDbEntity
  8
0
100
AcDbLine
 62
7
  6
CONTINUOUS
 10
191.121432498
 20
67.6210141392
 11
190.9703703205
 21
67.6980614093
  0
LINE
  5
33B
100
AcDbEntity
  8
0
100
AcDbLine
 62
7
  6
CONTINUOUS
 10
192.8070100424
 20
68.672645135
 11
192.9580722199
 21
68.5955978649
  0
LINE
  5
33C
100
AcDbEntity
  8
0
100
AcDbLine
 62
7
  6
CONTINUOUS
 10
190.9703703205
 20
67.6980614093
 11
190.7881188541
 21
67.7921122318
  0
LINE
  5
33D
100
AcDbEntity
  8
RACCORDO
100
AcDbLine
 62
7
  6
CONTINUOUS
 10
181.2142212702
 20
67.631918573
 11
181.084882966
 21
67.7386744697
  0
LINE
  5
33E
100
AcDbEntity
  8
0
100
AcDbLine
 62
7
  6
CONTINUOUS
 10
165.6586244006
 20
67.8044851511
 11
165.6092185403
 21
67.918681419
  0
LINE
  5
33F
100
AcDbEntity
  8
0
100
AcDbLine
 62
7
  6
CONTINUOUS
 10
164.2358990702
 20
130.816875923
 11
164.2312639857
 21
130.7933375927
  0
LINE
  5
340
100
AcDbEntity
  8
0
100
AcDbLine
 62
7
  6
CONTINUOUS
 10
164.6925434701
 20
128.4767833512
 11
164.6971785546
 21
128.5003216815
  0
LINE
  5
341
100
AcDbEntity
  8
RACCORDO
100
AcDbLine
 62
7
  6
CONTINUOUS
 10
175.5894157421
 20
127.5968296371
 11
175.6667992467
 21
127.7261679413
  0
LINE
  5
342
100
AcDbEntity
  8
RACCORDO
100
AcDbLine
 62
7
  6
CONTINUOUS
 10
175.3435650574
 20
133.2651263045
 11
175.2142212702
 21
133.0495498234
  0
LINE
  5
343
100
AcDbEntity
  8
0
100
AcDbLine
 62
7
  6
CONTINUOUS
 10
190.7881189467
 20
130.0015470904
 11
190.7698181395
 21
129.989174123
  0
LINE
  5
344
100
AcDbEntity
  8
0
100
AcDbLine
 62
7
  6
CONTINUOUS
 10
193.1403235936
 20
129.2921121838
 11
193.1586244006
 21
129.3044851511
  0
LWPOLYLINE
  5
345
100
AcDbEntity
  8
0
100
AcDbPolyline
 62
7
  6
CONTINUOUS
 90
3
 70
0
 10
193.1403235936
 20
129.2921121838
 10
192.957312934
 20
129.1976720736
 10
192.9312974745
 20
129.1843345715
  0
LWPOLYLINE
  5
346
100
AcDbEntity
  8
0
100
AcDbPolyline
 62
7
  6
CONTINUOUS
 90
16
 70
0
 10
179.5195397197
 20
81.5079046371
 10
179.6360906421
 20
81.5153430173
 10
179.7452081717
 20
81.5331102896
 10
179.8468923087
 20
81.5612064541
 10
179.9411465932
 20
81.5999330234
 10
180.0279674849
 20
81.6489884848
 10
180.1073443635
 20
81.7074683001
 10
180.1793055664
 20
81.7750738792
 10
180.2438227562
 20
81.8521038122
 10
180.3008002998
 20
81.9385493314
 10
180.3509110563
 20
82.0352347138
 10
180.3934821667
 20
82.1413356824
 10
180.4263994208
 20
82.2543706389
 10
180.4489580817
 20
82.3735123837
 10
180.4618628863
 20
82.4995881165
 10
180.4651138345
 20
82.6325978371
  0
LINE
  5
347
100
AcDbEntity
  8
0
100
AcDbLine
 62
7
  6
CONTINUOUS
 10
179.5086192702
 20
80.5215226371
 11
179.2141612702
 21
80.5215226371
  0
LINE
  5
348
100
AcDbEntity
  8
0
100
AcDbLine
 62
7
  6
CONTINUOUS
 10
178.0825522702
 20
80.5215226371
 11
177.7220312702
 21
80.5215226371
  0
LINE
  5
349
100
AcDbEntity
  8
0
100
AcDbLine
 62
7
  6
CONTINUOUS
 10
177.2019062702
 20
80.5215226371
 11
176.8978022702
 21
80.5215226371
  0
LINE
  5
34A
100
AcDbEntity
  8
0
100
AcDbLine
 62
7
  6
CONTINUOUS
 10
173.8811492702
 20
81.5079046371
 11
174.1757892702
 21
81.5079046371
  0
LINE
  5
34B
100
AcDbEntity
  8
0
100
AcDbLine
 62
7
  6
CONTINUOUS
 10
174.8089302702
 20
81.5079046371
 11
175.1097582702
 21
81.5079046371
  0
LINE
  5
34C
100
AcDbEntity
  8
0
100
AcDbLine
 62
7
  6
CONTINUOUS
 10
175.7428982702
 20
81.5079046371
 11
176.0375392702
 21
81.5079046371
  0
LINE
  5
34D
100
AcDbEntity
  8
0
100
AcDbLine
 62
7
  6
CONTINUOUS
 10
176.3070652702
 20
81.5079046371
 11
176.6204502702
 21
81.5079046371
  0
LINE
  5
34E
100
AcDbEntity
  8
0
100
AcDbLine
 62
7
  6
CONTINUOUS
 10
177.9808202702
 20
81.5079046371
 11
178.3129502702
 21
81.5079046371
  0
LINE
  5
34F
100
AcDbEntity
  8
0
100
AcDbLine
 62
7
  6
CONTINUOUS
 10
178.6075912702
 20
81.5079046371
 11
179.5195397197
 21
81.5079046371
  0
LINE
  5
350
100
AcDbEntity
  8
0
100
AcDbLine
 62
7
  6
CONTINUOUS
 10
180.8860962702
 20
81.5079046371
 11
182.5472932702
 21
81.5079046371
  0
LINE
  5
351
100
AcDbEntity
  8
0
100
AcDbLine
 62
7
  6
CONTINUOUS
 10
179.4787704392
 20
81.7681486371
 11
178.9115132702
 21
81.7681486371
  0
LINE
  5
352
100
AcDbEntity
  8
0
100
AcDbLine
 62
7
  6
CONTINUOUS
 10
182.5472932702
 20
81.7772486371
 11
181.1902002702
 21
81.7772486371
  0
LINE
  5
353
100
AcDbEntity
  8
0
100
AcDbLine
 62
7
  6
CONTINUOUS
 10
176.8555812702
 20
82.1630656371
 11
177.7582472702
 21
82.1630656371
  0
LINE
  5
354
100
AcDbEntity
  8
0
100
AcDbLine
 62
7
  6
CONTINUOUS
 10
177.6485082702
 20
82.4324096371
 11
176.9496692702
 21
82.4324096371
  0
LINE
  5
355
100
AcDbEntity
  8
0
100
AcDbLine
 62
7
  6
CONTINUOUS
 10
181.1902002702
 20
82.5288636371
 11
182.4219032702
 21
82.5288636371
  0
LINE
  5
356
100
AcDbEntity
  8
0
100
AcDbLine
 62
7
  6
CONTINUOUS
 10
182.4219032702
 20
82.7982076371
 11
181.1902002702
 21
82.7982076371
  0
LINE
  5
357
100
AcDbEntity
  8
0
100
AcDbLine
 62
7
  6
CONTINUOUS
 10
192.9580722199
 20
68.5955978649
 11
193.1403236862
 21
68.5015470424
  0
LINE
  5
358
100
AcDbEntity
  8
0
100
AcDbLine
 62
7
  6
CONTINUOUS
 10
190.7700504437
 20
67.8043280783
 11
190.7881188541
 21
67.7921122318
  0
LINE
  5
359
100
AcDbEntity
  8
0
100
AcDbLine
 62
7
  6
CONTINUOUS
 10
193.1583920966
 20
68.4893311958
 11
193.1403236862
 21
68.5015470424
  0
LWPOLYLINE
  5
35A
100
AcDbEntity
  8
RACCORDO
100
AcDbPolyline
 62
7
  6
CONTINUOUS
 90
21
 70
0
 10
146.9436851195
 20
97.008295208
 10
146.9598723554
 20
96.9968314753
 10
146.9792776278
 20
96.9837647543
 10
147.001672926
 20
96.9690885151
 10
147.0269150058
 20
96.9528092876
 10
147.0549082957
 20
96.9356190855
 10
147.085485847
 20
96.9175380008
 10
147.1184704452
 20
96.8985459416
 10
147.1537921499
 20
96.8792746467
 10
147.1912653625
 20
96.8597661034
 10
147.2307355119
 20
96.8399783245
 10
147.27222053
 20
96.8204170864
 10
147.3155713296
 20
96.8011080118
 10
147.3606108668
 20
96.782025478
 10
147.4073480674
 20
96.7635983943
 10
147.4556513597
 20
96.7458446166
 10
147.5053020632
 20
96.7287462889
 10
147.5561836507
 20
96.7126787521
 10
147.6081207727
 20
96.69776712
 10
147.6608748556
 20
96.6838862789
 10
147.7142212702
 20
96.6710362288
  0
LINE
  5
35B
100
AcDbEntity
  8
RACCORDO
100
AcDbLine
 62
7
  6
CONTINUOUS
 10
175.3435650574
 20
64.5285329697
 11
175.2142212702
 21
64.7441094508
  0
LINE
  5
35C
100
AcDbEntity
  8
RACCORDO
100
AcDbLine
 62
7
  6
CONTINUOUS
 10
175.5894157421
 20
70.1968296371
 11
175.6667992467
 21
70.0674913329
  0
LINE
  5
35D
100
AcDbEntity
  8
0
100
AcDbLine
 62
7
  6
CONTINUOUS
 10
164.6923991417
 20
69.3169040779
 11
164.6924140164
 21
69.2918375615
  0
LINE
  5
35E
100
AcDbEntity
  8
0
100
AcDbLine
 62
7
  6
CONTINUOUS
 10
164.6923991417
 20
130.8169040779
 11
164.6924140164
 21
130.7918375615
  0
LINE
  5
35F
100
AcDbEntity
  8
0
100
AcDbLine
 62
7
  6
CONTINUOUS
 10
163.8642212702
 20
65.0239371189
 11
163.8642212702
 21
67.632409315
  0
LINE
  5
360
100
AcDbEntity
  8
0
100
AcDbLine
 62
7
  6
CONTINUOUS
 10
163.8642212702
 20
68.6612494813
 11
163.8642212702
 21
71.2697221553
  0
LINE
  5
361
100
AcDbEntity
  8
0
100
AcDbLine
 62
7
  6
CONTINUOUS
 10
163.8642212702
 20
126.5239371189
 11
163.8642212702
 21
129.132409315
  0
LINE
  5
362
100
AcDbEntity
  8
0
100
AcDbLine
 62
7
  6
CONTINUOUS
 10
163.8642212702
 20
130.1612494813
 11
163.8642212702
 21
132.7697221553
  0
LINE
  5
363
100
AcDbEntity
  8
ASSI
100
AcDbLine
 62
7
  6
CONTINUOUS
 10
164.3466672702
 20
115.3487926371
 11
164.3466672702
 21
116.0996096371
  0
LINE
  5
364
100
AcDbEntity
  8
ASSI
100
AcDbLine
 62
7
  6
CONTINUOUS
 10
164.3466672702
 20
119.6940496371
 11
164.3466672702
 21
120.4448666371
  0
LINE
  5
365
100
AcDbEntity
  8
0
100
AcDbLine
 62
7
  6
CONTINUOUS
 10
165.0642212702
 20
65.0239371189
 11
165.0642212702
 21
67.6324097929
  0
LINE
  5
366
100
AcDbEntity
  8
0
100
AcDbLine
 62
7
  6
CONTINUOUS
 10
165.0642212702
 20
68.6612499592
 11
165.0642212702
 21
71.2697221553
  0
LINE
  5
367
100
AcDbEntity
  8
0
100
AcDbLine
 62
7
  6
CONTINUOUS
 10
165.0642212702
 20
126.5239371189
 11
165.0642212702
 21
129.1324097929
  0
LINE
  5
368
100
AcDbEntity
  8
0
100
AcDbLine
 62
7
  6
CONTINUOUS
 10
165.0642212702
 20
130.1612499592
 11
165.0642212702
 21
132.7697221553
  0
LINE
  5
369
100
AcDbEntity
  8
DRAFT
100
AcDbLine
 62
7
  6
CONTINUOUS
 10
166.2142212702
 20
64.8968296371
 11
166.2142212702
 21
65.4637096292
  0
LINE
  5
36A
100
AcDbEntity
  8
DRAFT
100
AcDbLine
 62
7
  6
CONTINUOUS
 10
166.2142212702
 20
70.829949645
 11
166.2142212702
 21
71.8968296371
  0
LINE
  5
36B
100
AcDbEntity
  8
DRAFT
100
AcDbLine
 62
7
  6
CONTINUOUS
 10
166.2142212702
 20
125.8968296371
 11
166.2142212702
 21
126.9629659441
  0
LINE
  5
36C
100
AcDbEntity
  8
DRAFT
100
AcDbLine
 62
7
  6
CONTINUOUS
 10
166.2142212702
 20
132.3306933301
 11
166.2142212702
 21
132.8968296371
  0
LINE
  5
36D
100
AcDbEntity
  8
0
100
AcDbLine
 62
7
  6
CONTINUOUS
 10
164.6925745413
 20
67.001790054
 11
164.6925434701
 21
66.9767833512
  0
LINE
  5
36E
100
AcDbEntity
  8
ASSI
100
AcDbLine
 62
7
  6
CONTINUOUS
 10
172.7038942702
 20
122.7469036371
 11
171.8859072702
 21
120.1991386371
  0
LWPOLYLINE
  5
36F
100
AcDbEntity
  8
0
100
AcDbPolyline
 62
7
  6
CONTINUOUS
 90
32
 70
0
 10
176.0274249923
 20
116.8803790237
 10
176.082521146
 20
116.9535216375
 10
176.1445963624
 20
117.017670508
 10
176.2130905092
 20
117.0728065369
 10
176.2885637188
 20
117.1189488225
 10
176.3698073156
 20
117.1545482604
 10
176.4583610652
 20
117.1793724885
 10
176.5526852021
 20
117.193653869
 10
176.6469517542
 20
117.1965403834
 10
176.740896915
 20
117.1875653668
 10
176.834784491
 20
117.1671954841
 10
176.9235779306
 20
117.1359787115
 10
177.0064831159
 20
117.0937061049
 10
177.0842941647
 20
117.0405866083
 10
177.1543568786
 20
116.9777950297
 10
177.2163155841
 20
116.9049181076
 10
177.2705259548
 20
116.8223691035
 10
177.3154008134
 20
116.7325626096
 10
177.3494646419
 20
116.6356846439
 10
177.3741929581
 20
116.5315491883
 10
177.3924251385
 20
116.4220127807
 10
177.4046012502
 20
116.3068835568
 10
177.4102812259
 20
116.1863533809
 10
177.4109842397
 20
116.0628543842
 10
177.4078420402
 20
115.934338582
 10
177.3997228787
 20
115.8028539591
 10
177.3847506837
 20
115.6769766005
 10
177.3627006483
 20
115.5584734878
 10
177.3337975794
 20
115.4455776395
 10
177.2968398249
 20
115.3415641964
 10
177.250976989
 20
115.2469736066
 10
177.1970594676
 20
115.161265422
  0
LINE
  5
370
100
AcDbEntity
  8
0
100
AcDbLine
 62
7
  6
CONTINUOUS
 10
191.3327467514
 20
129.0153551113
 11
191.3642212702
 21
129.0468296307
  0
LINE
  5
371
100
AcDbEntity
  8
0
100
AcDbLine
 62
7
  6
CONTINUOUS
 10
191.4215920431
 20
129.104200409
 11
191.444497786
 21
129.1271061529
  0
LINE
  5
372
100
AcDbEntity
  8
0
100
AcDbLine
 62
7
  6
CONTINUOUS
 10
192.5642212702
 20
130.2468296435
 11
192.595695789
 21
130.2783041629
  0
LINE
  5
373
100
AcDbEntity
  8
0
100
AcDbLine
 62
7
  6
CONTINUOUS
 10
192.4839447543
 20
130.1665531213
 11
192.5068504972
 21
130.1894588652
  0
LINE
  5
374
100
AcDbEntity
  8
0
100
AcDbLine
 62
7
  6
CONTINUOUS
 10
181.4595072702
 20
116.3499546371
 11
182.0220072702
 21
116.6890176371
  0
LWPOLYLINE
  5
375
100
AcDbEntity
  8
0
100
AcDbPolyline
 62
7
  6
CONTINUOUS
 90
10
 70
0
 10
181.4595072702
 20
116.6218295812
 10
181.5621408645
 20
116.6746508731
 10
181.6576448725
 20
116.7304953243
 10
181.7460192942
 20
116.7893629348
 10
181.8274321711
 20
116.8515953828
 10
181.9017154617
 20
116.9168509901
 10
181.9683650413
 20
116.9841047226
 10
182.0272128682
 20
117.0530149022
 10
182.0784269841
 20
117.1239232071
 10
182.122007389
 20
117.1968296371
  0
LINE
  5
376
100
AcDbEntity
  8
0
100
AcDbLine
 62
7
  6
CONTINUOUS
 10
181.1902002702
 20
83.4879476371
 11
182.5252722702
 21
83.4879476371
  0
LINE
  5
377
100
AcDbEntity
  8
0
100
AcDbLine
 62
7
  6
CONTINUOUS
 10
178.9115132702
 20
83.4970466371
 11
179.4787730532
 21
83.4970466371
  0
LINE
  5
378
100
AcDbEntity
  8
0
100
AcDbLine
 62
7
  6
CONTINUOUS
 10
182.5252722702
 20
83.7572916371
 11
180.8860962702
 21
83.7572916371
  0
LINE
  5
379
100
AcDbEntity
  8
0
100
AcDbLine
 62
7
  6
CONTINUOUS
 10
179.519536021
 20
83.7572916371
 11
178.6075912702
 21
83.7572916371
  0
LINE
  5
37A
100
AcDbEntity
  8
0
100
AcDbLine
 62
7
  6
CONTINUOUS
 10
177.4980022702
 20
83.7572916371
 11
177.1533152702
 21
83.7572916371
  0
LINE
  5
37B
100
AcDbEntity
  8
0
100
AcDbLine
 62
7
  6
CONTINUOUS
 10
176.0375392702
 20
83.7572916371
 11
175.6049512702
 21
83.7572916371
  0
LINE
  5
37C
100
AcDbEntity
  8
0
100
AcDbLine
 62
7
  6
CONTINUOUS
 10
174.3168312702
 20
83.7572916371
 11
173.8811492702
 21
83.7572916371
  0
LINE
  5
37D
100
AcDbEntity
  8
RACCORDO
100
AcDbLine
 62
7
  6
CONTINUOUS
 10
143.8459474494
 20
86.3968296371
 11
150.9424409836
 21
86.3968296371
  0
LINE
  5
37E
100
AcDbEntity
  8
RACCORDO
100
AcDbLine
 62
7
  6
CONTINUOUS
 10
205.4860015568
 20
86.3968296371
 11
212.5824950909
 21
86.3968296371
  0
LINE
  5
37F
100
AcDbEntity
  8
RACCORDO
100
AcDbLine
 62
250
  6
CONTINUOUS
 10
143.5459360259
 20
86.6968296371
 11
150.8069229721
 21
86.6968296371
  0
LINE
  5
380
100
AcDbEntity
  8
RACCORDO
100
AcDbLine
 62
250
  6
CONTINUOUS
 10
205.6215195682
 20
86.6968296371
 11
212.8825065144
 21
86.6968296371
  0
LWPOLYLINE
  5
381
100
AcDbEntity
  8
0
100
AcDbPolyline
 62
7
  6
CONTINUOUS
 90
16
 70
0
 10
179.4787730532
 20
83.4970466371
 10
179.5624273225
 20
83.49330438
 10
179.6412090159
 20
83.4811555754
 10
179.7151181333
 20
83.4606002234
 10
179.7844784828
 20
83.43149897
 10
179.8489662565
 20
83.3939911691
 10
179.9076100301
 20
83.3484948827
 10
179.9603341804
 20
83.2947393195
 10
180.0072143307
 20
83.2329952708
 10
180.0475059278
 20
83.1644931716
 10
180.0808213363
 20
83.0889551876
 10
180.1075481916
 20
83.0066591531
 10
180.1281048456
 20
82.919669007
 10
180.1426307491
 20
82.8286727287
 10
180.1509864513
 20
82.7329823387
 10
180.1531719523
 20
82.6325978371
  0
LINE
  5
382
100
AcDbEntity
  8
0
100
AcDbLine
 62
7
  6
CONTINUOUS
 10
192.5642212702
 20
67.5468297789
 11
192.595695674
 21
67.5153554072
  0
LINE
  5
383
100
AcDbEntity
  8
0
100
AcDbLine
 62
7
  6
CONTINUOUS
 10
191.3642212702
 20
68.7468294953
 11
191.3327468664
 21
68.778303867
  0
LINE
  5
384
100
AcDbEntity
  8
0
100
AcDbLine
 62
7
  6
CONTINUOUS
 10
192.4839447543
 20
67.6271061529
 11
192.5068504954
 21
67.6042004336
  0
LINE
  5
385
100
AcDbEntity
  8
0
100
AcDbLine
 62
7
  6
CONTINUOUS
 10
191.444497786
 20
68.6665531213
 11
191.421592045
 21
68.6894588406
  0
LINE
  5
386
100
AcDbEntity
  8
DRAFT
100
AcDbLine
 62
7
  6
CONTINUOUS
 10
166.3669414565
 20
64.7441094508
 11
166.3669414565
 21
65.5702822138
  0
LINE
  5
387
100
AcDbEntity
  8
DRAFT
100
AcDbLine
 62
7
  6
CONTINUOUS
 10
166.3669414565
 20
70.7233770604
 11
166.3669414565
 21
71.7441094508
  0
LINE
  5
388
100
AcDbEntity
  8
ASSI
100
AcDbLine
 62
7
  6
CONTINUOUS
 10
168.3317772702
 20
117.5218296371
 11
168.3317772702
 21
118.2718296371
  0
LINE
  5
389
100
AcDbEntity
  8
ASSI
100
AcDbLine
 62
7
  6
CONTINUOUS
 10
168.7317772702
 20
115.3487925194
 11
168.7317772702
 21
116.0996126855
  0
LINE
  5
38A
100
AcDbEntity
  8
ASSI
100
AcDbLine
 62
7
  6
CONTINUOUS
 10
168.7317772702
 20
119.6940496371
 11
168.7317772702
 21
120.4448667548
  0
LINE
  5
38B
100
AcDbEntity
  8
0
100
AcDbLine
 62
7
  6
CONTINUOUS
 10
164.2358990702
 20
69.316875923
 11
164.2312639857
 21
69.2933375927
  0
LINE
  5
38C
100
AcDbEntity
  8
RACCORDO
100
AcDbLine
 62
7
  6
CONTINUOUS
 10
161.5642639482
 20
66.7871147699
 11
161.0242081479
 21
64.7715990843
  0
LINE
  5
38D
100
AcDbEntity
  8
ASSI
100
AcDbLine
 62
7
  6
CONTINUOUS
 10
172.2559262702
 20
119.0467366371
 11
173.4439312702
 21
122.7469036371
  0
LWPOLYLINE
  5
38E
100
AcDbEntity
  8
0
100
AcDbPolyline
 62
7
  6
CONTINUOUS
 90
26
 70
0
 10
177.129819889
 20
115.9749546371
 10
177.0777741144
 20
115.9051735565
 10
177.0194036803
 20
115.8441975959
 10
176.9547085865
 20
115.7920267554
 10
176.8826276325
 20
115.747942105
 10
176.8042220188
 20
115.7126625747
 10
176.7226753481
 20
115.6883449541
 10
176.6369829628
 20
115.6758456546
 10
176.5481495204
 20
115.6743082649
 10
176.4623725955
 20
115.683320341
 10
176.3812067677
 20
115.7027902815
 10
176.3030974573
 20
115.732809688
 10
176.2295785005
 20
115.7732409206
 10
176.1596670738
 20
115.8250802225
 10
176.0943460008
 20
115.8873313505
 10
176.0380975877
 20
115.9568679361
 10
175.992100632
 20
116.0328437006
 10
175.9551763363
 20
116.1161049227
 10
175.9282706149
 20
116.2060640703
 10
175.9115847433
 20
116.3056901609
 10
175.904917446
 20
116.4120141769
 10
175.9086108116
 20
116.515541534
 10
175.9229430453
 20
116.6146375987
 10
175.947635942
 20
116.7109370043
 10
175.9821969747
 20
116.7998490665
 10
176.0274249923
 20
116.8803790237
  0
LWPOLYLINE
  5
38F
100
AcDbEntity
  8
0
100
AcDbPolyline
 62
7
  6
CONTINUOUS
 90
26
 70
0
 10
178.909507389
 20
115.9749546371
 10
178.8574616144
 20
115.9051735565
 10
178.7990911803
 20
115.8441975959
 10
178.7343960865
 20
115.7920267554
 10
178.6623151325
 20
115.747942105
 10
178.5839095188
 20
115.7126625747
 10
178.502362848
 20
115.6883449541
 10
178.4166704628
 20
115.6758456546
 10
178.3278370204
 20
115.6743082649
 10
178.2420600955
 20
115.683320341
 10
178.1608942676
 20
115.7027902816
 10
178.0827849573
 20
115.732809688
 10
178.0092660005
 20
115.7732409206
 10
177.9393545738
 20
115.8250802225
 10
177.8740335008
 20
115.8873313505
 10
177.8177850877
 20
115.9568679361
 10
177.771788132
 20
116.0328437006
 10
177.7348638363
 20
116.1161049227
 10
177.7079581149
 20
116.2060640703
 10
177.6912722432
 20
116.3056901609
 10
177.684604946
 20
116.412014177
 10
177.6882983116
 20
116.515541534
 10
177.7026305454
 20
116.6146375987
 10
177.727323442
 20
116.7109370043
 10
177.7618844747
 20
116.7998490665
 10
177.8071124923
 20
116.8803790238
  0
LWPOLYLINE
  5
390
100
AcDbEntity
  8
0
100
AcDbPolyline
 62
7
  6
CONTINUOUS
 90
32
 70
0
 10
177.8071124923
 20
116.8803790238
 10
177.862208646
 20
116.9535216375
 10
177.9242838625
 20
117.0176705081
 10
177.9927780092
 20
117.0728065369
 10
178.0682512188
 20
117.1189488225
 10
178.1494948157
 20
117.1545482604
 10
178.2380485653
 20
117.1793724885
 10
178.3323727021
 20
117.193653869
 10
178.4266392543
 20
117.1965403834
 10
178.520584415
 20
117.1875653668
 10
178.6144719911
 20
117.1671954841
 10
178.7032654306
 20
117.1359787115
 10
178.7861706159
 20
117.0937061049
 10
178.8639816647
 20
117.0405866083
 10
178.9340443786
 20
116.9777950297
 10
178.9960030842
 20
116.9049181076
 10
179.0502134549
 20
116.8223691035
 10
179.0950883134
 20
116.7325626095
 10
179.1291521419
 20
116.6356846438
 10
179.1538804582
 20
116.5315491882
 10
179.1721126385
 20
116.4220127807
 10
179.1842887502
 20
116.3068835567
 10
179.1899687259
 20
116.1863533808
 10
179.1906717397
 20
116.0628543841
 10
179.1875295402
 20
115.934338582
 10
179.1794103787
 20
115.802853959
 10
179.1644381836
 20
115.6769766005
 10
179.1423881483
 20
115.5584734878
 10
179.1134850794
 20
115.4455776394
 10
179.0765273248
 20
115.3415641964
 10
179.030664489
 20
115.2469736065
 10
178.9767469676
 20
115.1612654219
  0
LWPOLYLINE
  5
391
100
AcDbEntity
  8
0
100
AcDbPolyline
 62
7
  6
CONTINUOUS
 90
20
 70
0
 10
177.1970594676
 20
115.161265422
 10
177.1364367959
 20
115.0860934402
 10
177.0692928394
 20
115.0220254084
 10
176.9954437326
 20
114.9684935793
 10
176.9156874147
 20
114.925448509
 10
176.8280796901
 20
114.8929089396
 10
176.7345647543
 20
114.870856129
 10
176.6417731326
 20
114.8591844069
 10
176.5500173699
 20
114.8582669414
 10
176.4589849214
 20
114.8677305643
 10
176.3743686773
 20
114.8863501014
 10
176.2977983868
 20
114.9141153997
 10
176.2276443008
 20
114.9510366121
 10
176.164710062
 20
114.9959190231
 10
176.1090161909
 20
115.0484937487
 10
176.0605421671
 20
115.1090296728
 10
176.0200300729
 20
115.1771387317
 10
175.9877272691
 20
115.2526915709
 10
175.963386395
 20
115.3358175449
 10
175.9470074505
 20
115.4265166538
  0
LWPOLYLINE
  5
392
100
AcDbEntity
  8
0
100
AcDbPolyline
 62
7
  6
CONTINUOUS
 90
20
 70
0
 10
178.9767469676
 20
115.1612654219
 10
178.9161242959
 20
115.0860934402
 10
178.8489803394
 20
115.0220254083
 10
178.7751312326
 20
114.9684935793
 10
178.6953749146
 20
114.925448509
 10
178.60776719
 20
114.8929089396
 10
178.5142522542
 20
114.870856129
 10
178.4214606325
 20
114.8591844069
 10
178.3297048699
 20
114.8582669414
 10
178.2386724214
 20
114.8677305643
 10
178.1540561773
 20
114.8863501015
 10
178.0774858868
 20
114.9141153997
 10
178.0073318007
 20
114.9510366122
 10
177.944397562
 20
114.9959190231
 10
177.8887036907
 20
115.0484937504
 10
177.8402296666
 20
115.1090296762
 10
177.7997175729
 20
115.1771387318
 10
177.7674147704
 20
115.2526915608
 10
177.7430738982
 20
115.3358175196
 10
177.7266949563
 20
115.4265166081
  0
LWPOLYLINE
  5
393
100
AcDbEntity
  8
0
100
AcDbPolyline
 62
7
  6
CONTINUOUS
 90
13
 70
0
 10
180.9657572702
 20
116.9390170106
 10
180.8614139099
 20
116.8167669667
 10
180.7610756748
 20
116.6848505255
 10
180.6647425649
 20
116.5432676871
 10
180.5716103881
 20
116.3916699583
 10
180.4824833365
 20
116.2304058323
 10
180.3997739863
 20
116.0605207879
 10
180.3224641174
 20
115.8810830427
 10
180.2515719499
 20
115.6930243792
 10
180.1925647196
 20
115.5001856242
 10
180.1472648388
 20
115.3038470533
 10
180.1138498952
 20
115.102728391
 10
180.092319889
 20
114.8968296371
  0
LWPOLYLINE
  5
394
100
AcDbEntity
  8
RACCORDO
100
AcDbPolyline
 62
7
  6
CONTINUOUS
 90
22
 70
0
 10
208.7142212702
 20
96.6710362288
 10
208.767579288
 20
96.6838887095
 10
208.8203511434
 20
96.6977749019
 10
208.8723118499
 20
96.7126948059
 10
208.9232243654
 20
96.7287743021
 10
208.9729105701
 20
96.7458875098
 10
209.0212472722
 20
96.7636567877
 10
209.0680155912
 20
96.7821005358
 10
209.1130833214
 20
96.8012003541
 10
209.1564530826
 20
96.8205234003
 10
209.1979472429
 20
96.8400945861
 10
209.2374183943
 20
96.8598889998
 10
209.2748827909
 20
96.8793990639
 10
209.3101858097
 20
96.8986653422
 10
209.3431449359
 20
96.9176472709
 10
209.3736934965
 20
96.9357155815
 10
209.4016549304
 20
96.9528897452
 10
209.4268647299
 20
96.9691502908
 10
209.4492317798
 20
96.9838095367
 10
209.468613244
 20
96.9968619142
 10
209.484781388
 20
97.008312992
 10
209.5067505248
 20
97.0241746659
  0
LINE
  5
395
100
AcDbEntity
  8
0
100
AcDbLine
 62
7
  6
CONTINUOUS
 10
180.2529552702
 20
77.2875746371
 11
181.1024812702
 21
75.9426746371
  0
LINE
  5
396
100
AcDbEntity
  8
0
100
AcDbLine
 62
7
  6
CONTINUOUS
 10
178.0168542702
 20
80.1000426371
 11
179.1670262702
 21
78.2721366371
  0
LINE
  5
397
100
AcDbEntity
  8
0
100
AcDbLine
 62
7
  6
CONTINUOUS
 10
179.2141612702
 20
78.6949896371
 11
178.0825522702
 21
80.5215226371
  0
LINE
  5
398
100
AcDbEntity
  8
0
100
AcDbLine
 62
7
  6
CONTINUOUS
 10
181.2528042702
 20
76.2065586371
 11
180.6071062702
 21
77.2875746371
  0
LINE
  5
399
100
AcDbEntity
  8
0
100
AcDbLine
 62
7
  6
CONTINUOUS
 10
174.9624452702
 20
81.8460526371
 11
174.3168312702
 21
83.7572916371
  0
LINE
  5
39A
100
AcDbEntity
  8
0
100
AcDbLine
 62
7
  6
CONTINUOUS
 10
174.1757892702
 20
83.3933126371
 11
174.8089302702
 21
81.5079046371
  0
LINE
  5
39B
100
AcDbEntity
  8
RACCORDO
100
AcDbLine
 62
7
  6
CONTINUOUS
 10
161.0242081479
 20
133.0220601899
 11
161.5642253281
 21
131.0066886366
  0
LWPOLYLINE
  5
39C
100
AcDbEntity
  8
0
100
AcDbPolyline
 62
7
  6
CONTINUOUS
 90
37
 70
0
 10
174.414194889
 20
116.0265171371
 10
174.4146581804
 20
115.9451771851
 10
174.4169208024
 20
115.8663329032
 10
174.4209827549
 20
115.7899842913
 10
174.4265788409
 20
115.716011945
 10
174.4339742574
 20
115.6445352687
 10
174.4439645957
 20
115.5759124757
 10
174.4561824843
 20
115.5098615163
 10
174.4709952948
 20
115.4466644403
 10
174.4903007334
 20
115.3875256101
 10
174.5144502964
 20
115.3326378562
 10
174.5430924875
 20
115.2818083482
 10
174.5770705249
 20
115.2356629566
 10
174.6175890519
 20
115.1932764268
 10
174.6634434252
 20
115.1555740134
 10
174.7118629321
 20
115.1259573511
 10
174.762769246
 20
115.105591936
 10
174.8162406935
 20
115.0933122721
 10
174.8697415415
 20
115.0890235057
 10
174.9232771938
 20
115.0926538082
 10
174.9768422467
 20
115.1042750083
 10
175.0278847559
 20
115.1240077376
 10
175.0764335539
 20
115.1529395275
 10
175.1224598082
 20
115.1899828466
 10
175.1633250771
 20
115.2319957334
 10
175.1979741478
 20
115.2782269724
 10
175.2274622332
 20
115.329427779
 10
175.2523165296
 20
115.3847098372
 10
175.2720542187
 20
115.4441710289
 10
175.2871581188
 20
115.5077134721
 10
175.2996038814
 20
115.5741552055
 10
175.3097755821
 20
115.6432282303
 10
175.3172891453
 20
115.7152005452
 10
175.3229679951
 20
115.7896941855
 10
175.3270866062
 20
115.8665831629
 10
175.329370504
 20
115.9459934658
 10
175.3298196884
 20
116.027925094
  0
LINE
  5
39D
100
AcDbEntity
  8
0
100
AcDbLine
 62
7
  6
CONTINUOUS
 10
173.8811492702
 20
83.7572916371
 11
173.8811492702
 21
81.5079046371
  0
LINE
  5
39E
100
AcDbEntity
  8
ASSI
100
AcDbLine
 62
7
  6
CONTINUOUS
 10
173.9372802702
 20
122.7469036371
 11
173.9372712702
 21
119.0467276371
  0
LINE
  5
39F
100
AcDbEntity
  8
0
100
AcDbLine
 62
7
  6
CONTINUOUS
 10
174.1757892702
 20
81.5079046371
 11
174.1757892702
 21
83.3933126371
  0
LINE
  5
3A0
100
AcDbEntity
  8
0
100
AcDbLine
 62
7
  6
CONTINUOUS
 10
174.3448572702
 20
77.2875746371
 11
174.3448572702
 21
75.0363676371
  0
LWPOLYLINE
  5
3A1
100
AcDbEntity
  8
0
100
AcDbPolyline
 62
7
  6
CONTINUOUS
 90
34
 70
0
 10
174.125132389
 20
116.0265171371
 10
174.1262259453
 20
116.1487337088
 10
174.1325822045
 20
116.2660315578
 10
174.1442011664
 20
116.3784106841
 10
174.1606769167
 20
116.4864831578
 10
174.1824153697
 20
116.5896369088
 10
174.2106342688
 20
116.6860357267
 10
174.2460980516
 20
116.7757709407
 10
174.2880422805
 20
116.8587512216
 10
174.3353913851
 20
116.9328663715
 10
174.3877578229
 20
116.9974902485
 10
174.4455291365
 20
117.0532489944
 10
174.508792384
 20
117.0999108367
 10
174.5778022664
 20
117.1374354884
 10
174.6523040826
 20
117.1658632365
 10
174.7316207881
 20
117.1850831695
 10
174.8185342976
 20
117.1951215472
 10
174.9102626963
 20
117.1959521097
 10
174.9977831951
 20
117.1873851659
 10
175.0785157495
 20
117.1693652625
 10
175.1550404041
 20
117.1419478527
 10
175.2260745027
 20
117.1051096052
 10
175.2913340829
 20
117.0587176411
 10
175.3511031073
 20
117.0029048393
 10
175.4049508074
 20
116.9380465052
 10
175.4528111228
 20
116.8634615247
 10
175.494750114
 20
116.779831012
 10
175.5305351945
 20
116.6895736153
 10
175.5599653551
 20
116.5930005355
 10
175.583241605
 20
116.4898005717
 10
175.6007343859
 20
116.3814587692
 10
175.6125671782
 20
116.2684701433
 10
175.6186165013
 20
116.1503396787
 10
175.6188823554
 20
116.0270673756
  0
LINE
  5
3A2
100
AcDbEntity
  8
0
100
AcDbLine
 62
7
  6
CONTINUOUS
 10
164.6925434701
 20
66.9767833512
 11
164.6971785546
 21
67.0003216815
  0
LINE
  5
3A3
100
AcDbEntity
  8
RACCORDO
100
AcDbLine
 62
7
  6
CONTINUOUS
 10
162.5804376735
 20
65.5567124455
 11
162.3700671824
 21
64.7715990843
  0
LINE
  5
3A4
100
AcDbEntity
  8
ASSI
100
AcDbLine
 62
7
  6
CONTINUOUS
 10
177.9179622702
 20
122.7469036371
 11
177.2269962702
 21
120.3372226371
  0
LINE
  5
3A5
100
AcDbEntity
  8
ASSI
100
AcDbLine
 62
7
  6
CONTINUOUS
 10
177.5969962702
 20
119.0467466371
 11
178.2966482702
 21
121.4867486371
  0
LINE
  5
3A6
100
AcDbEntity
  8
ASSI
100
AcDbLine
 62
7
  6
CONTINUOUS
 10
180.7180202702
 20
122.7469126371
 11
179.5300342702
 21
119.0467366371
  0
LINE
  5
3A7
100
AcDbEntity
  8
ASSI
100
AcDbLine
 62
7
  6
CONTINUOUS
 10
180.2700612702
 20
119.0467466371
 11
180.5036892702
 21
119.7744066371
  0
LINE
  5
3A8
100
AcDbEntity
  8
ASSI
100
AcDbLine
 62
7
  6
CONTINUOUS
 10
180.7294162702
 20
120.4774346371
 11
181.0880482702
 21
121.5945016371
  0
LINE
  5
3A9
100
AcDbEntity
  8
0
100
AcDbLine
 62
7
  6
CONTINUOUS
 10
191.7312639857
 20
130.7933375927
 11
191.7172909393
 21
130.7726701149
  0
LINE
  5
3AA
100
AcDbEntity
  8
0
100
AcDbLine
 62
7
  6
CONTINUOUS
 10
192.1971785546
 20
128.5003216815
 11
192.211151601
 21
128.5209891593
  0
LINE
  5
3AB
100
AcDbEntity
  8
ASSI
100
AcDbLine
 62
7
  6
CONTINUOUS
 10
192.7938382634
 20
119.4762126314
 11
191.4688862702
 21
118.3596676371
  0
LINE
  5
3AC
100
AcDbEntity
  8
ASSI
100
AcDbLine
 62
7
  6
CONTINUOUS
 10
191.4688862702
 20
117.7797456371
 11
192.7323626286
 21
118.8444849391
  0
LWPOLYLINE
  5
3AD
100
AcDbEntity
  8
0
100
AcDbPolyline
 62
7
  6
CONTINUOUS
 90
4
 70
0
 43
0.3500000006
 10
249.1056502075
 20
94.8254024963
 10
248.2485122681
 20
94.8254024963
 10
247.8199432983
 20
95.2539714661
 10
247.8199432983
 20
95.8968339844
  0
LINE
  5
3AE
100
AcDbEntity
  8
0
100
AcDbLine
 62
7
  6
CONTINUOUS
 10
191.7172908913
 20
67.0209892519
 11
191.7314983726
 21
66.9999750223
  0
LINE
  5
3AF
100
AcDbEntity
  8
0
100
AcDbLine
 62
7
  6
CONTINUOUS
 10
192.2111516491
 20
69.2726700223
 11
192.1969441777
 21
69.2936842371
  0
LINE
  5
3B0
100
AcDbEntity
  8
0
100
AcDbLine
 62
7
  6
CONTINUOUS
 10
178.3129502702
 20
81.5079046371
 11
177.4980022702
 21
83.7572916371
  0
LINE
  5
3B1
100
AcDbEntity
  8
0
100
AcDbLine
 62
7
  6
CONTINUOUS
 10
178.8958622702
 20
75.0363676371
 11
178.0809142702
 21
77.2875746371
  0
LINE
  5
3B2
100
AcDbEntity
  8
0
100
AcDbLine
 62
7
  6
CONTINUOUS
 10
178.3411582702
 20
75.6915296371
 11
178.5637312702
 21
75.0363676371
  0
LINE
  5
3B3
100
AcDbEntity
  8
0
100
AcDbLine
 62
7
  6
CONTINUOUS
 10
177.7582472702
 20
82.1630656371
 11
177.9808202702
 21
81.5079046371
  0
LINE
  5
3B4
100
AcDbEntity
  8
0
100
AcDbLine
 62
7
  6
CONTINUOUS
 10
177.8961392702
 20
76.9597366371
 11
178.2314192702
 21
75.9608736371
  0
LINE
  5
3B5
100
AcDbEntity
  8
0
100
AcDbLine
 62
7
  6
CONTINUOUS
 10
177.3132272702
 20
83.4312756371
 11
177.6485082702
 21
82.4324096371
  0
LINE
  5
3B6
100
AcDbEntity
  8
RACCORDO
100
AcDbLine
 62
7
  6
CONTINUOUS
 10
162.3700671824
 20
133.0220601899
 11
162.5802183004
 21
132.2377655403
  0
LWPOLYLINE
  5
3B7
100
AcDbEntity
  8
0
100
AcDbPolyline
 62
7
  6
CONTINUOUS
 90
25
 70
0
 10
177.098569889
 20
116.4374546371
 10
177.0951011396
 20
116.5143945044
 10
177.0846402298
 20
116.585944603
 10
177.0671871597
 20
116.6521049331
 10
177.0421152406
 20
116.7132344334
 10
177.0100511612
 20
116.7689741652
 10
176.9728749873
 20
116.8182473116
 10
176.9303914745
 20
116.8611395122
 10
176.8827958673
 20
116.8975651275
 10
176.8325539648
 20
116.9261904217
 10
176.7798356621
 20
116.9465526204
 10
176.7244710641
 20
116.9591144982
 10
176.668416285
 20
116.9639306424
 10
176.6113219051
 20
116.9611245632
 10
176.553537344
 20
116.9505727504
 10
176.498066975
 20
116.931959262
 10
176.4452593673
 20
116.904874614
 10
176.3947659516
 20
116.8697282902
 10
176.3485453942
 20
116.8274327998
 10
176.306163172
 20
116.7778184131
 10
176.2680538081
 20
116.7210548598
 10
176.2374795379
 20
116.6585638381
 10
176.2155277731
 20
116.5908192474
 10
176.2011111021
 20
116.5173471882
 10
176.1942295248
 20
116.4381476607
  0
LWPOLYLINE
  5
3B8
100
AcDbEntity
  8
0
100
AcDbPolyline
 62
7
  6
CONTINUOUS
 90
25
 70
0
 10
176.1942295248
 20
116.4381476607
 10
176.1959331563
 20
116.3631001851
 10
176.2053171149
 20
116.2932054699
 10
176.2223814004
 20
116.2284635151
 10
176.2476854533
 20
116.1685477825
 10
176.2806698331
 20
116.1137848104
 10
176.3196562193
 20
116.0651542128
 10
176.3648649306
 20
116.0223258255
 10
176.4160756482
 20
115.9856298129
 10
176.470949095
 20
115.9570362825
 10
176.5301011823
 20
115.9372513835
 10
176.5929159989
 20
115.9255689667
 10
176.6552065337
 20
115.9218406922
 10
176.7167798006
 20
115.9261249101
 10
176.7778287857
 20
115.9383632701
 10
176.8347454372
 20
115.9582323823
 10
176.8868328338
 20
115.9860287359
 10
176.9347878966
 20
116.0214558417
 10
176.9770933372
 20
116.0633008412
 10
177.0136389278
 20
116.111502643
 10
177.0445348962
 20
116.1661223386
 10
177.068594637
 20
116.2261303441
 10
177.0854226152
 20
116.2911834651
 10
177.0954143659
 20
116.3616248961
 10
177.098569889
 20
116.4374546371
  0
LWPOLYLINE
  5
3B9
100
AcDbEntity
  8
0
100
AcDbPolyline
 62
7
  6
CONTINUOUS
 90
25
 70
0
 10
177.9739170248
 20
116.4381476607
 10
177.9756206563
 20
116.3631001851
 10
177.9850046149
 20
116.2932054699
 10
178.0020689004
 20
116.2284635151
 10
178.0273729533
 20
116.1685477825
 10
178.0603573331
 20
116.1137848104
 10
178.0993437193
 20
116.0651542129
 10
178.1445524306
 20
116.0223258256
 10
178.1957631482
 20
115.9856298129
 10
178.250636595
 20
115.9570362825
 10
178.3097886823
 20
115.9372513835
 10
178.3726034988
 20
115.9255689667
 10
178.4348940337
 20
115.9218406922
 10
178.4964673006
 20
115.92612491
 10
178.5575162857
 20
115.9383632701
 10
178.6144329372
 20
115.9582323823
 10
178.6665203337
 20
115.9860287359
 10
178.7144753966
 20
116.0214558417
 10
178.7567808372
 20
116.0633008412
 10
178.7933264278
 20
116.111502643
 10
178.8242223962
 20
116.1661223385
 10
178.848282137
 20
116.2261303441
 10
178.8651101152
 20
116.2911834651
 10
178.8751018659
 20
116.3616248961
 10
178.878257389
 20
116.4374546371
  0
LWPOLYLINE
  5
3BA
100
AcDbEntity
  8
0
100
AcDbPolyline
 62
7
  6
CONTINUOUS
 90
37
 70
0
 10
175.3298196884
 20
116.027925094
 10
175.3293445885
 20
116.1071241895
 10
175.3271864322
 20
116.1839531575
 10
175.3233452194
 20
116.2584119981
 10
175.3180575138
 20
116.3306021496
 10
175.3110867517
 20
116.4004221737
 10
175.3017232417
 20
116.4675677551
 10
175.2902849541
 20
116.5323212893
 10
175.2764539186
 20
116.5944003809
 10
175.258566533
 20
116.6526535281
 10
175.2365501034
 20
116.7067743453
 10
175.2104773238
 20
116.7570692181
 10
175.1789026734
 20
116.8033058023
 10
175.1404320756
 20
116.8465880882
 10
175.096459607
 20
116.8858120855
 10
175.0497219771
 20
116.9174334784
 10
175.0005238103
 20
116.9402715224
 10
174.9485604821
 20
116.955506962
 10
174.8956548285
 20
116.9631377152
 10
174.840931709
 20
116.9630570317
 10
174.7852662641
 20
116.9553716618
 10
174.7331067509
 20
116.9403997746
 10
174.6858057782
 20
116.9181963213
 10
174.6420107373
 20
116.8887063507
 10
174.6021120584
 20
116.8520831781
 10
174.5660423789
 20
116.8076458028
 10
174.5338690616
 20
116.7560752255
 10
174.5061846248
 20
116.6995677638
 10
174.4836668616
 20
116.6382791578
 10
174.4656379789
 20
116.5720536673
 10
174.4506571168
 20
116.5026203898
 10
174.438529313
 20
116.4303926632
 10
174.4294495297
 20
116.3549571495
 10
174.4225617931
 20
116.2768029317
 10
174.4175807784
 20
116.1960930376
 10
174.4147918104
 20
116.1126644394
 10
174.414194889
 20
116.0265171371
  0
LINE
  5
3BB
100
AcDbEntity
  8
0
100
AcDbLine
 62
7
  6
CONTINUOUS
 10
174.6489612702
 20
75.0363676371
 11
174.6489612702
 21
77.2875746371
  0
LINE
  5
3BC
100
AcDbEntity
  8
ASSI
100
AcDbLine
 62
7
  6
CONTINUOUS
 10
174.6772982702
 20
119.0467366371
 11
174.6773082702
 21
122.7469036371
  0
LINE
  5
3BD
100
AcDbEntity
  8
0
100
AcDbLine
 62
7
  6
CONTINUOUS
 10
174.9750862702
 20
77.2875746371
 11
174.9750862702
 21
77.0182306371
  0
LINE
  5
3BE
100
AcDbEntity
  8
DRAFT
100
AcDbLine
 62
7
  6
CONTINUOUS
 10
175.2142212702
 20
133.0495498234
 11
175.2142212702
 21
130.1617407012
  0
LINE
  5
3BF
100
AcDbEntity
  8
DRAFT
100
AcDbLine
 62
7
  6
CONTINUOUS
 10
175.2142212702
 20
64.7441094508
 11
175.2142212702
 21
67.631918573
  0
LINE
  5
3C0
100
AcDbEntity
  8
RACCORDO
100
AcDbLine
 62
7
  6
CONTINUOUS
 10
175.3435595743
 20
133.2651171659
 11
175.3435595743
 21
130.0549848044
  0
LINE
  5
3C1
100
AcDbEntity
  8
RACCORDO
100
AcDbLine
 62
7
  6
CONTINUOUS
 10
175.3435595743
 20
67.7386744697
 11
175.3435595743
 21
64.5285421083
  0
LINE
  5
3C2
100
AcDbEntity
  8
ASSI
100
AcDbLine
 62
7
  6
CONTINUOUS
 10
175.4173082702
 20
122.7469036371
 11
175.4173082702
 21
119.0467366371
  0
LINE
  5
3C3
100
AcDbEntity
  8
RACCORDO
100
AcDbLine
 62
250
  6
CONTINUOUS
 10
175.5142212702
 20
70.1968296371
 11
175.5142212702
 21
69.2622525557
  0
LINE
  5
3C4
100
AcDbEntity
  8
RACCORDO
100
AcDbLine
 62
250
  6
CONTINUOUS
 10
175.5142212702
 20
68.5314067185
 11
175.5142212702
 21
67.7314176847
  0
LINE
  5
3C5
100
AcDbEntity
  8
RACCORDO
100
AcDbLine
 62
250
  6
CONTINUOUS
 10
175.5142212702
 20
127.5968296371
 11
175.5142212702
 21
128.5314067185
  0
LINE
  5
3C6
100
AcDbEntity
  8
RACCORDO
100
AcDbLine
 62
250
  6
CONTINUOUS
 10
175.5142212702
 20
129.2622525557
 11
175.5142212658
 21
130.0622415895
  0
LINE
  5
3C7
100
AcDbEntity
  8
RACCORDO
100
AcDbLine
 62
250
  6
CONTINUOUS
 10
175.643555462
 20
133.5651148814
 11
175.643555462
 21
130.065928747
  0
LINE
  5
3C8
100
AcDbEntity
  8
RACCORDO
100
AcDbLine
 62
250
  6
CONTINUOUS
 10
175.643555462
 20
67.7277305272
 11
175.643555462
 21
64.2285443928
  0
LINE
  5
3C9
100
AcDbEntity
  8
0
100
AcDbLine
 62
7
  6
CONTINUOUS
 10
175.7367112702
 20
77.0182306371
 11
175.7367112702
 21
75.0363676371
  0
LINE
  5
3CA
100
AcDbEntity
  8
0
100
AcDbLine
 62
7
  6
CONTINUOUS
 10
175.7428982702
 20
83.3969526371
 11
175.7428982702
 21
81.5079046371
  0
LINE
  5
3CB
100
AcDbEntity
  8
0
100
AcDbLine
 62
7
  6
CONTINUOUS
 10
176.0375392702
 20
81.5079046371
 11
176.0375392702
 21
83.7572916371
  0
LINE
  5
3CC
100
AcDbEntity
  8
0
100
AcDbLine
 62
7
  6
CONTINUOUS
 10
176.0406332702
 20
75.0363676371
 11
176.0406332702
 21
77.0182306371
  0
LINE
  5
3CD
100
AcDbEntity
  8
ASSI
100
AcDbLine
 62
7
  6
CONTINUOUS
 10
176.1573352702
 20
119.0467366371
 11
176.1573352702
 21
121.4867486371
  0
LINE
  5
3CE
100
AcDbEntity
  8
0
100
AcDbLine
 62
7
  6
CONTINUOUS
 10
176.8022582702
 20
77.0182306371
 11
176.8022582702
 21
77.2875746371
  0
LWPOLYLINE
  5
3CF
100
AcDbEntity
  8
0
100
AcDbPolyline
 62
7
  6
CONTINUOUS
 90
2
 70
0
 43
0.3500000006
 10
176.8570828857
 20
151.7168274536
 10
176.8570828857
 20
153.2168369751
  0
LINE
  5
3D0
100
AcDbEntity
  8
0
100
AcDbLine
 62
7
  6
CONTINUOUS
 10
176.8978022702
 20
80.5215226371
 11
176.8978022702
 21
78.2721366371
  0
LINE
  5
3D1
100
AcDbEntity
  8
0
100
AcDbLine
 62
7
  6
CONTINUOUS
 10
177.2019062702
 20
78.2721366371
 11
177.2019062702
 21
80.5215226371
  0
LINE
  5
3D2
100
AcDbEntity
  8
0
100
AcDbLine
 62
7
  6
CONTINUOUS
 10
177.7220312702
 20
80.5215226371
 11
177.7220312702
 21
78.2721366371
  0
LINE
  5
3D3
100
AcDbEntity
  8
0
100
AcDbLine
 62
7
  6
CONTINUOUS
 10
178.0168542702
 20
78.2721366371
 11
178.0168542702
 21
80.1000426371
  0
LWPOLYLINE
  5
3D4
100
AcDbEntity
  8
0
100
AcDbPolyline
 62
7
  6
CONTINUOUS
 90
4
 70
0
 43
0.3500000006
 10
178.2142300415
 20
152.1453964233
 10
178.2142300415
 20
153.0025524902
 10
178.6427990112
 20
153.43112146
 10
179.2856524658
 20
153.43112146
  0
LWPOLYLINE
  5
3D5
100
AcDbEntity
  8
0
100
AcDbPolyline
 62
7
  6
CONTINUOUS
 90
13
 70
0
 43
0.3500000006
 10
178.2142300415
 20
160.5739678345
 10
178.2142300415
 20
161.8596928711
 10
178.4285145264
 20
162.2882618408
 10
178.8570834961
 20
162.7168308105
 10
179.071367981
 20
162.7168308105
 10
179.4999369507
 20
162.2882618408
 10
179.7142214355
 20
161.8596928711
 10
179.7142214355
 20
160.5739678345
 10
179.4999369507
 20
160.1453988647
 10
179.071367981
 20
159.716829895
 10
178.8570834961
 20
159.716829895
 10
178.4285145264
 20
160.1453988647
 10
178.2142300415
 20
160.5739678345
  0
LINE
  5
3D6
100
AcDbEntity
  8
ASSI
100
AcDbLine
 62
7
  6
CONTINUOUS
 10
178.2966482702
 20
121.4867486371
 11
178.2966572702
 21
119.0467366371
  0
LINE
  5
3D7
100
AcDbEntity
  8
0
100
AcDbLine
 62
7
  6
CONTINUOUS
 10
178.6075912702
 20
83.7572916371
 11
178.6075912702
 21
81.5079046371
  0
LWPOLYLINE
  5
3D8
100
AcDbEntity
  8
0
100
AcDbPolyline
 62
7
  6
CONTINUOUS
 90
34
 70
0
 10
175.6188823554
 20
116.0270673756
 10
175.6177807827
 20
115.9063235598
 10
175.611578654
 20
115.7903945744
 10
175.6002759691
 20
115.6792804194
 10
175.5842722822
 20
115.5724027667
 10
175.5631680393
 20
115.4703399445
 10
175.5357645776
 20
115.3748269365
 10
175.5013455445
 20
115.2857732699
 10
175.4606272926
 20
115.2032694177
 10
175.4145602177
 20
115.1293217827
 10
175.3635588884
 20
115.0645078633
 10
175.3072087359
 20
115.0082501612
 10
175.2452164495
 20
114.9608225847
 10
175.1773795685
 20
114.9221952115
 10
175.1039005535
 20
114.892397964
 10
175.0250934756
 20
114.8717945175
 10
174.9380351963
 20
114.8603942815
 10
174.845648854
 20
114.8581878465
 10
174.7570179354
 20
114.8655106596
 10
174.6744988116
 20
114.8824852579
 10
174.5957351114
 20
114.9089891042
 10
174.5227412077
 20
114.9449900342
 10
174.4560430755
 20
114.9905108872
 10
174.3951147396
 20
115.045528824
 10
174.3403926478
 20
115.109943162
 10
174.2919330558
 20
115.1845746408
 10
174.2496797079
 20
115.268602521
 10
174.2139002844
 20
115.3594639013
 10
174.1850758318
 20
115.4569153241
 10
174.1627253038
 20
115.5612002471
 10
174.1456732413
 20
115.6704861427
 10
174.1335278249
 20
115.7841621683
 10
174.1266808741
 20
115.9028391664
 10
174.125132389
 20
116.0265171371
  0
LWPOLYLINE
  5
3D9
100
AcDbEntity
  8
0
100
AcDbPolyline
 62
7
  6
CONTINUOUS
 90
13
 70
0
 10
179.803257389
 20
114.8968296371
 10
179.8140229677
 20
115.0468957912
 10
179.834056364
 20
115.2009608864
 10
179.8633575778
 20
115.3590249227
 10
179.9012497767
 20
115.5214649061
 10
179.9484097932
 20
115.6879038306
 10
180.0068681245
 20
115.8572106781
 10
180.0770839673
 20
116.0306218304
 10
180.158598125
 20
116.2069009056
 10
180.2520635052
 20
116.3812077403
 10
180.3576977439
 20
116.5519289465
 10
180.4752832052
 20
116.7206779121
 10
180.604819889
 20
116.8874546371
  0
LINE
  5
3DA
100
AcDbEntity
  8
0
100
AcDbLine
 62
7
  6
CONTINUOUS
 10
190.8030394546
 20
129.3804443257
 11
190.8192239933
 21
129.418681409
  0
LINE
  5
3DB
100
AcDbEntity
  8
0
100
AcDbLine
 62
7
  6
CONTINUOUS
 10
163.3191816871
 20
67.918476366
 11
163.3030228433
 21
67.8803821898
  0
LINE
  5
3DC
100
AcDbEntity
  8
0
100
AcDbLine
 62
7
  6
CONTINUOUS
 10
165.6092608533
 20
68.3751829082
 11
165.625419697
 21
68.4132770844
  0
LINE
  5
3DD
100
AcDbEntity
  8
0
100
AcDbLine
 62
7
  6
CONTINUOUS
 10
190.7866482715
 20
129.3423265488
 11
190.8030394546
 21
129.3804443257
  0
LINE
  5
3DE
100
AcDbEntity
  8
0
100
AcDbLine
 62
7
  6
CONTINUOUS
 10
163.3030228433
 20
67.8803821898
 11
163.2866457622
 21
67.8423327606
  0
LINE
  5
3DF
100
AcDbEntity
  8
0
100
AcDbLine
 62
7
  6
CONTINUOUS
 10
165.625419697
 20
68.4132770844
 11
165.6417967781
 21
68.4513265136
  0
LINE
  5
3E0
100
AcDbEntity
  8
0
100
AcDbLine
 62
7
  6
CONTINUOUS
 10
163.2866457622
 20
67.8423327606
 11
163.2700504437
 21
67.8043280783
  0
LINE
  5
3E1
100
AcDbEntity
  8
0
100
AcDbLine
 62
7
  6
CONTINUOUS
 10
190.7700504437
 20
129.3043280783
 11
190.7866482715
 21
129.3423265488
  0
LINE
  5
3E2
100
AcDbEntity
  8
0
100
AcDbLine
 62
7
  6
CONTINUOUS
 10
190.7881188541
 20
129.2921122318
 11
190.8421149764
 21
129.4080072546
  0
LINE
  5
3E3
100
AcDbEntity
  8
0
100
AcDbLine
 62
7
  6
CONTINUOUS
 10
163.2881188541
 20
67.7921122318
 11
163.3421149764
 21
67.9080072546
  0
LINE
  5
3E4
100
AcDbEntity
  8
0
100
AcDbLine
 62
7
  6
CONTINUOUS
 10
193.1403236862
 20
130.0015470424
 11
193.0863275639
 21
129.8856520196
  0
LINE
  5
3E5
100
AcDbEntity
  8
TRASH
100
AcDbLine
 62
7
  6
CONTINUOUS
 10
191.4445038352
 20
130.1665564193
 11
191.7360730421
 21
130.791826914
  0
LINE
  5
3E6
100
AcDbEntity
  8
TRASH
100
AcDbLine
 62
7
  6
CONTINUOUS
 10
163.9445038352
 20
68.6665564193
 11
164.2360730421
 21
69.291826914
  0
LINE
  5
3E7
100
AcDbEntity
  8
TRASH
100
AcDbLine
 62
7
  6
CONTINUOUS
 10
192.4839387051
 20
129.1271028549
 11
192.1923694982
 21
128.5018323602
  0
LINE
  5
3E8
100
AcDbEntity
  8
0
100
AcDbLine
 62
7
  6
CONTINUOUS
 10
163.9488136179
 20
68.7448216652
 11
163.921592045
 21
68.6894588406
  0
LINE
  5
3E9
100
AcDbEntity
  8
0
100
AcDbLine
 62
7
  6
CONTINUOUS
 10
191.4624885283
 20
130.2724611671
 11
191.421592045
 21
130.1894588406
  0
LINE
  5
3EA
100
AcDbEntity
  8
0
100
AcDbLine
 62
7
  6
CONTINUOUS
 10
192.465954012
 20
129.0211981071
 11
192.5068504954
 21
129.1042004336
  0
LINE
  5
3EB
100
AcDbEntity
  8
0
100
AcDbLine
 62
7
  6
CONTINUOUS
 10
191.3327468664
 20
130.278303867
 11
191.3642212702
 21
130.3418913605
  0
LINE
  5
3EC
100
AcDbEntity
  8
0
100
AcDbLine
 62
7
  6
CONTINUOUS
 10
192.595695674
 20
129.0153554072
 11
192.5642212702
 21
128.9517679137
  0
LINE
  5
3ED
100
AcDbEntity
  8
0
100
AcDbLine
 62
7
  6
CONTINUOUS
 10
163.8327468664
 20
68.778303867
 11
163.8642212702
 21
68.8418913605
  0
LINE
  5
3EE
100
AcDbEntity
  8
0
100
AcDbLine
 62
7
  6
CONTINUOUS
 10
191.503642811
 20
130.354956281
 11
191.4624885283
 21
130.2724611671
  0
LINE
  5
3EF
100
AcDbEntity
  8
0
100
AcDbLine
 62
7
  6
CONTINUOUS
 10
192.4247997293
 20
128.9387029932
 11
192.465954012
 21
129.0211981071
  0
LINE
  5
3F0
100
AcDbEntity
  8
0
100
AcDbLine
 62
7
  6
CONTINUOUS
 10
191.5592816047
 20
130.4651629915
 11
191.503642811
 21
130.354956281
  0
LINE
  5
3F1
100
AcDbEntity
  8
0
100
AcDbLine
 62
7
  6
CONTINUOUS
 10
192.3691609356
 20
128.8284962826
 11
192.4247997293
 21
128.9387029932
  0
LINE
  5
3F2
100
AcDbEntity
  8
0
100
AcDbLine
 62
7
  6
CONTINUOUS
 10
191.6303553647
 20
130.6042779443
 11
191.5592816047
 21
130.4651629915
  0
LINE
  5
3F3
100
AcDbEntity
  8
0
100
AcDbLine
 62
7
  6
CONTINUOUS
 10
192.2980871756
 20
128.6893813299
 11
192.3691609356
 21
128.8284962826
  0
LINE
  5
3F4
100
AcDbEntity
  8
0
100
AcDbLine
 62
7
  6
CONTINUOUS
 10
191.7172909393
 20
130.7726701149
 11
191.6303553647
 21
130.6042779443
  0
LINE
  5
3F5
100
AcDbEntity
  8
0
100
AcDbLine
 62
7
  6
CONTINUOUS
 10
192.211151601
 20
128.5209891593
 11
192.2980871756
 21
128.6893813299
  0
LWPOLYLINE
  5
3F6
100
AcDbEntity
  8
RACCORDO
100
AcDbPolyline
 62
7
  6
CONTINUOUS
 90
7
 70
0
 10
143.5459360259
 20
64.2285443928
 10
143.5716788607
 20
64.2546931671
 10
143.5977888606
 20
64.2807296625
 10
143.624045512
 20
64.3066538789
 10
143.6501697089
 20
64.3327255918
 10
143.6759327511
 20
64.3586850259
 10
143.7254070493
 20
64.4079752674
  0
LWPOLYLINE
  5
3F7
100
AcDbEntity
  8
RACCORDO
100
AcDbPolyline
 62
7
  6
CONTINUOUS
 90
7
 70
0
 10
212.8825065144
 20
133.5651148814
 10
212.8567636796
 20
133.5389661071
 10
212.8306536797
 20
133.5129296117
 10
212.8043970283
 20
133.4870053953
 10
212.7782728314
 20
133.4609336823
 10
212.7525097892
 20
133.4349742483
 10
212.703035491
 20
133.3856840068
  0
LWPOLYLINE
  5
3F8
100
AcDbEntity
  8
RACCORDO
100
AcDbPolyline
 62
7
  6
CONTINUOUS
 90
9
 70
0
 10
143.7254070493
 20
64.4079752674
 10
143.7484640436
 20
64.4313060749
 10
143.7702190185
 20
64.4528273855
 10
143.7901522448
 20
64.4727364596
 10
143.8078350879
 20
64.4908360367
 10
143.8230080767
 20
64.5056164436
 10
143.8349862646
 20
64.5165744559
 10
143.8428844221
 20
64.5242132979
 10
143.8459246028
 20
64.5285329697
  0
LWPOLYLINE
  5
3F9
100
AcDbEntity
  8
RACCORDO
100
AcDbPolyline
 62
7
  6
CONTINUOUS
 90
9
 70
0
 10
212.703035491
 20
133.3856840068
 10
212.6799784967
 20
133.3623531993
 10
212.6582235218
 20
133.3408318887
 10
212.6382902955
 20
133.3209228146
 10
212.6206074525
 20
133.3028232375
 10
212.6054344636
 20
133.2880428306
 10
212.5934562758
 20
133.2770848183
 10
212.5855581183
 20
133.2694459763
 10
212.5825179375
 20
133.2651263045
  0
LINE
  5
3FA
100
AcDbEntity
  8
RACCORDO
100
AcDbLine
 62
250
  6
CONTINUOUS
 10
133.6920644607
 20
59.0742464066
 11
132.1442212702
 21
57.526403216
  0
LINE
  5
3FB
100
AcDbEntity
  8
RACCORDO
100
AcDbLine
 62
250
  6
CONTINUOUS
 10
134.3916380397
 20
58.3746728277
 11
132.8437948491
 21
56.8268296371
  0
LINE
  5
3FC
100
AcDbEntity
  8
RACCORDO
100
AcDbLine
 62
7
  6
CONTINUOUS
 10
212.5825179375
 20
133.2651263045
 11
212.2142212702
 21
132.8968296371
  0
LINE
  5
3FD
100
AcDbEntity
  8
RACCORDO
100
AcDbLine
 62
7
  6
CONTINUOUS
 10
143.8459246028
 20
64.5285329697
 11
144.2142212702
 21
64.8968296371
  0
LINE
  5
3FE
100
AcDbEntity
  8
0
100
AcDbLine
 62
7
  6
CONTINUOUS
 10
150.9937216421
 20
87.0168296371
 11
150.7187671004
 21
86.8968296371
  0
LINE
  5
3FF
100
AcDbEntity
  8
0
100
AcDbLine
 62
7
  6
CONTINUOUS
 10
205.4347208982
 20
110.7768296371
 11
205.7096754399
 21
110.8968296371
  0
LINE
  5
400
100
AcDbEntity
  8
0
100
AcDbLine
 62
7
  6
CONTINUOUS
 10
148.7170387776
 20
95.4318296371
 11
148.4190874393
 21
95.3968296371
  0
LINE
  5
401
100
AcDbEntity
  8
0
100
AcDbLine
 62
7
  6
CONTINUOUS
 10
207.7114037627
 20
102.3618296371
 11
208.009355101
 21
102.3968296371
  0
LINE
  5
402
100
AcDbEntity
  8
RACCORDO
100
AcDbLine
 62
250
  6
CONTINUOUS
 10
147.7142212702
 20
96.1968296371
 11
146.9142212702
 21
96.1968296371
  0
LINE
  5
403
100
AcDbEntity
  8
RACCORDO
100
AcDbLine
 62
250
  6
CONTINUOUS
 10
208.7142212702
 20
96.1968296371
 11
209.5142212702
 21
96.1968296371
  0
LWPOLYLINE
  5
404
100
AcDbEntity
  8
0
100
AcDbPolyline
 62
7
  6
CONTINUOUS
 90
2
 70
0
 43
0.3500000006
 10
233.5342142944
 20
97.5396877441
 10
232.0342229004
 20
97.5396877441
  0
LWPOLYLINE
  5
405
100
AcDbEntity
  8
0
100
AcDbPolyline
 62
7
  6
CONTINUOUS
 90
2
 70
0
 43
0.3500000006
 10
249.5342191772
 20
98.1825411987
 10
248.0342277832
 20
98.1825411987
  0
LWPOLYLINE
  5
406
100
AcDbEntity
  8
0
100
AcDbPolyline
 62
7
  6
CONTINUOUS
 90
13
 70
0
 43
0.3500000006
 10
240.6770787964
 20
98.8968258362
 10
239.3913718872
 20
98.8968258362
 10
238.96278479
 20
99.1111193848
 10
238.5342158203
 20
99.5396883545
 10
238.5342158203
 20
99.7539728394
 10
238.96278479
 20
100.1825418091
 10
239.3913718872
 20
100.3968262939
 10
240.6770787964
 20
100.3968262939
 10
241.1056477661
 20
100.1825418091
 10
241.5342167358
 20
99.7539728394
 10
241.5342167358
 20
99.5396883545
 10
241.1056477661
 20
99.1111193848
 10
240.6770787964
 20
98.8968258362
  0
LWPOLYLINE
  5
407
100
AcDbEntity
  8
0
100
AcDbPolyline
 62
7
  6
CONTINUOUS
 90
4
 70
0
 43
0.3500000006
 10
233.1056453247
 20
98.8968258362
 10
232.2485073853
 20
98.8968258362
 10
231.8199384155
 20
99.3254038696
 10
231.8199384155
 20
99.9682573242
  0
LINE
  5
408
100
AcDbEntity
  8
0
100
AcDbLine
 62
7
  6
CONTINUOUS
 10
148.7170387776
 20
102.3618296371
 11
148.4190874393
 21
102.3968296371
  0
LINE
  5
409
100
AcDbEntity
  8
0
100
AcDbLine
 62
7
  6
CONTINUOUS
 10
207.7114037627
 20
95.4318296371
 11
208.009355101
 21
95.3968296371
  0
LINE
  5
40A
100
AcDbEntity
  8
0
100
AcDbLine
 62
7
  6
CONTINUOUS
 10
150.9937216421
 20
110.7768296371
 11
150.7187671004
 21
110.8968296371
  0
LINE
  5
40B
100
AcDbEntity
  8
0
100
AcDbLine
 62
7
  6
CONTINUOUS
 10
205.4347208982
 20
87.0168296371
 11
205.7096754399
 21
86.8968296371
  0
LWPOLYLINE
  5
40C
100
AcDbEntity
  8
RACCORDO
100
AcDbPolyline
 62
7
  6
CONTINUOUS
 90
7
 70
0
 10
143.5459360259
 20
133.5651148814
 10
143.5720848002
 20
133.5393720465
 10
143.5981212955
 20
133.5132620467
 10
143.624045512
 20
133.4870053953
 10
143.6501172249
 20
133.4608811984
 10
143.6760766589
 20
133.4351181562
 10
143.7253669005
 20
133.3856438579
  0
LWPOLYLINE
  5
40D
100
AcDbEntity
  8
RACCORDO
100
AcDbPolyline
 62
7
  6
CONTINUOUS
 90
9
 70
0
 10
143.7253669005
 20
133.3856438579
 10
143.748697708
 20
133.3625868636
 10
143.7702190185
 20
133.3408318887
 10
143.7901280926
 20
133.3208986625
 10
143.8082276698
 20
133.3032158194
 10
143.8230080767
 20
133.2880428306
 10
143.833966089
 20
133.2760646427
 10
143.841604931
 20
133.2681664852
 10
143.8459246028
 20
133.2651263045
  0
LWPOLYLINE
  5
40E
100
AcDbEntity
  8
RACCORDO
100
AcDbPolyline
 62
7
  6
CONTINUOUS
 90
10
 70
0
 10
212.7525097892
 20
64.3586850259
 10
212.703035491
 20
64.4079752674
 10
212.6799784967
 20
64.4313060749
 10
212.6582235218
 20
64.4528273855
 10
212.6382902955
 20
64.4727364596
 10
212.6206074525
 20
64.4908360367
 10
212.6054344636
 20
64.5056164436
 10
212.5934562758
 20
64.5165744559
 10
212.5855581183
 20
64.5242132979
 10
212.5825179375
 20
64.5285329697
  0
LINE
  5
40F
100
AcDbEntity
  8
RACCORDO
100
AcDbLine
 62
250
  6
CONTINUOUS
 10
133.6920644607
 20
138.7194128676
 11
132.1442212702
 21
140.2672560582
  0
LINE
  5
410
100
AcDbEntity
  8
RACCORDO
100
AcDbLine
 62
250
  6
CONTINUOUS
 10
134.3916380397
 20
139.4189864465
 11
132.8437948491
 21
140.9668296371
  0
LINE
  5
411
100
AcDbEntity
  8
RACCORDO
100
AcDbLine
 62
7
  6
CONTINUOUS
 10
212.5825179375
 20
64.5285329697
 11
212.2142212702
 21
64.8968296371
  0
LINE
  5
412
100
AcDbEntity
  8
RACCORDO
100
AcDbLine
 62
7
  6
CONTINUOUS
 10
144.2142212702
 20
132.8968296371
 11
143.8459246028
 21
133.2651263045
  0
LWPOLYLINE
  5
413
100
AcDbEntity
  8
RACCORDO
100
AcDbPolyline
 62
7
  6
CONTINUOUS
 90
6
 70
0
 10
212.8825065144
 20
64.2285443928
 10
212.8567636796
 20
64.2546931671
 10
212.8306536797
 20
64.2807296625
 10
212.8043970283
 20
64.3066538789
 10
212.7782728314
 20
64.3327255918
 10
212.7525097892
 20
64.3586850259
  0
LINE
  5
414
100
AcDbEntity
  8
0
100
AcDbLine
 62
7
  6
CONTINUOUS
 10
191.6170836366
 20
67.2152431319
 11
191.7172908913
 21
67.0209892519
  0
LINE
  5
415
100
AcDbEntity
  8
0
100
AcDbLine
 62
7
  6
CONTINUOUS
 10
192.3113589037
 20
69.0784161423
 11
192.2111516491
 21
69.2726700223
  0
LINE
  5
416
100
AcDbEntity
  8
0
100
AcDbLine
 62
7
  6
CONTINUOUS
 10
191.5510679165
 20
67.3446527189
 11
191.6170836366
 21
67.2152431319
  0
LINE
  5
417
100
AcDbEntity
  8
0
100
AcDbLine
 62
7
  6
CONTINUOUS
 10
192.3773746239
 20
68.9490065553
 11
192.3113589037
 21
69.0784161423
  0
LINE
  5
418
100
AcDbEntity
  8
0
100
AcDbLine
 62
7
  6
CONTINUOUS
 10
191.485886547
 20
67.4742799669
 11
191.5510679165
 21
67.3446527189
  0
LINE
  5
419
100
AcDbEntity
  8
0
100
AcDbLine
 62
7
  6
CONTINUOUS
 10
192.4425559933
 20
68.8193793073
 11
192.3773746239
 21
68.9490065553
  0
LINE
  5
41A
100
AcDbEntity
  8
0
100
AcDbLine
 62
7
  6
CONTINUOUS
 10
191.3642212702
 20
67.4517673798
 11
191.3327467514
 21
67.5153551113
  0
LINE
  5
41B
100
AcDbEntity
  8
0
100
AcDbLine
 62
7
  6
CONTINUOUS
 10
191.4215920431
 20
67.604200409
 11
191.485886547
 21
67.4742799669
  0
LINE
  5
41C
100
AcDbEntity
  8
0
100
AcDbLine
 62
7
  6
CONTINUOUS
 10
192.5068504972
 20
68.6894588652
 11
192.4425559933
 21
68.8193793073
  0
LINE
  5
41D
100
AcDbEntity
  8
0
100
AcDbLine
 62
7
  6
CONTINUOUS
 10
192.5642212702
 20
68.8418918944
 11
192.595695789
 21
68.7783041629
  0
LINE
  5
41E
100
AcDbEntity
  8
0
100
AcDbLine
 62
7
  6
CONTINUOUS
 10
163.8642212702
 20
128.9517673798
 11
163.8327467514
 21
129.0153551113
  0
LINE
  5
41F
100
AcDbEntity
  8
0
100
AcDbLine
 62
7
  6
CONTINUOUS
 10
163.9215920431
 20
129.104200409
 11
163.9489569667
 21
129.0485461829
  0
LINE
  5
420
100
AcDbEntity
  8
0
100
AcDbLine
 62
7
  6
CONTINUOUS
 10
190.8421149832
 20
68.3856520097
 11
190.7881189467
 21
68.5015470904
  0
LINE
  5
421
100
AcDbEntity
  8
0
100
AcDbLine
 62
7
  6
CONTINUOUS
 10
163.3421149832
 20
129.8856520097
 11
163.2881189467
 21
130.0015470904
  0
LINE
  5
422
100
AcDbEntity
  8
0
100
AcDbLine
 62
7
  6
CONTINUOUS
 10
193.0863275572
 20
67.9080072645
 11
193.1403235936
 21
67.7921121838
  0
LINE
  5
423
100
AcDbEntity
  8
TRASH
100
AcDbLine
 62
7
  6
CONTINUOUS
 10
191.736073052
 20
67.001832367
 11
191.4444977863
 21
67.6271061532
  0
LINE
  5
424
100
AcDbEntity
  8
TRASH
100
AcDbLine
 62
7
  6
CONTINUOUS
 10
164.236073052
 20
128.501832367
 11
163.9444977863
 21
129.1271061532
  0
LINE
  5
425
100
AcDbEntity
  8
TRASH
100
AcDbLine
 62
7
  6
CONTINUOUS
 10
192.1923694883
 20
69.2918269072
 11
192.483944754
 21
68.666553121
  0
LINE
  5
426
100
AcDbEntity
  8
0
100
AcDbLine
 62
7
  6
CONTINUOUS
 10
163.319224
 20
129.8749778552
 11
163.2698181395
 21
129.989174123
  0
LINE
  5
427
100
AcDbEntity
  8
0
100
AcDbLine
 62
7
  6
CONTINUOUS
 10
190.7698181395
 20
68.489174123
 11
190.819224
 21
68.3749778552
  0
LINE
  5
428
100
AcDbEntity
  8
0
100
AcDbLine
 62
7
  6
CONTINUOUS
 10
165.6092185403
 20
129.418681419
 11
165.6338639979
 21
129.3615659576
  0
LINE
  5
429
100
AcDbEntity
  8
ASSI
100
AcDbLine
 62
7
  6
CONTINUOUS
 10
170.3278742702
 20
122.7469036371
 11
171.5158702702
 21
119.0467276371
  0
LINE
  5
42A
100
AcDbEntity
  8
ASSI
100
AcDbLine
 62
7
  6
CONTINUOUS
 10
171.8859072702
 20
120.1991386371
 11
171.0679112702
 21
122.7469036371
  0
LWPOLYLINE
  5
42B
100
AcDbEntity
  8
0
100
AcDbPolyline
 62
7
  6
CONTINUOUS
 90
25
 70
0
 10
178.878257389
 20
116.4374546371
 10
178.8747886396
 20
116.5143945044
 10
178.8643277298
 20
116.585944603
 10
178.8468746597
 20
116.6521049331
 10
178.8218027406
 20
116.7132344335
 10
178.7897386612
 20
116.7689741652
 10
178.7525624873
 20
116.8182473116
 10
178.7100789745
 20
116.8611395122
 10
178.6624833672
 20
116.8975651275
 10
178.6122414648
 20
116.9261904217
 10
178.5595231621
 20
116.9465526204
 10
178.5041585641
 20
116.9591144982
 10
178.448103785
 20
116.9639306424
 10
178.3910094051
 20
116.9611245632
 10
178.333224844
 20
116.9505727504
 10
178.277754475
 20
116.931959262
 10
178.2249468673
 20
116.904874614
 10
178.1744534516
 20
116.8697282902
 10
178.1282328943
 20
116.8274327998
 10
178.0858506721
 20
116.7778184131
 10
178.0477413081
 20
116.7210548598
 10
178.0171670379
 20
116.6585638381
 10
177.9952152731
 20
116.5908192474
 10
177.9807986021
 20
116.5173471882
 10
177.9739170248
 20
116.4381476607
  0
LWPOLYLINE
  5
42C
100
AcDbEntity
  8
0
100
AcDbPolyline
 62
7
  6
CONTINUOUS
 90
16
 70
0
 10
180.4651138345
 20
82.6325978371
 10
180.4618415457
 20
82.7658640059
 10
180.4488799363
 20
82.8921681323
 10
180.4262290063
 20
83.0115102163
 10
180.3931800828
 20
83.1247235441
 10
180.3504418388
 20
83.2309748295
 10
180.3001402926
 20
83.3277642142
 10
180.2429182243
 20
83.4142710671
 10
180.1781328538
 20
83.4913160193
 10
180.1059818589
 20
83.5588611059
 10
180.026503618
 20
83.6171628157
 10
179.9396597527
 20
83.66596466
 10
179.8455328061
 20
83.7044592074
 10
179.7441502924
 20
83.7323773142
 10
179.6354846974
 20
83.7499881241
 10
179.519536021
 20
83.7572916371
  0
LINE
  5
42D
100
AcDbEntity
  8
0
100
AcDbLine
 62
7
  6
CONTINUOUS
 10
178.9115132702
 20
81.7681486371
 11
178.9115132702
 21
83.4970466371
  0
LINE
  5
42E
100
AcDbEntity
  8
ASSI
100
AcDbLine
 62
7
  6
CONTINUOUS
 10
179.0366852702
 20
119.0467366371
 11
179.0366852702
 21
122.7469036371
  0
LINE
  5
42F
100
AcDbEntity
  8
0
100
AcDbLine
 62
7
  6
CONTINUOUS
 10
179.1748512702
 20
77.2875746371
 11
179.1748512702
 21
75.0363676371
  0
LINE
  5
430
100
AcDbEntity
  8
0
100
AcDbLine
 62
7
  6
CONTINUOUS
 10
179.2141612702
 20
80.5215226371
 11
179.2141612702
 21
78.6949896371
  0
LINE
  5
431
100
AcDbEntity
  8
0
100
AcDbLine
 62
7
  6
CONTINUOUS
 10
179.4787732702
 20
75.3057116371
 11
179.4787732702
 21
77.2875746371
  0
LINE
  5
432
100
AcDbEntity
  8
0
100
AcDbLine
 62
7
  6
CONTINUOUS
 10
179.4829452702
 20
117.1577676371
 11
179.4829452702
 21
116.8874546371
  0
LINE
  5
433
100
AcDbEntity
  8
0
100
AcDbLine
 62
7
  6
CONTINUOUS
 10
179.5086192702
 20
78.2721366371
 11
179.5086192702
 21
80.5215226371
  0
LINE
  5
434
100
AcDbEntity
  8
0
100
AcDbLine
 62
7
  6
CONTINUOUS
 10
180.6196632702
 20
75.0363676371
 11
180.6196632702
 21
75.3057116371
  0
LINE
  5
435
100
AcDbEntity
  8
RACCORDO
100
AcDbLine
 62
250
  6
CONTINUOUS
 10
180.7848870783
 20
64.2285443928
 11
180.7848870783
 21
67.7277305272
  0
LINE
  5
436
100
AcDbEntity
  8
RACCORDO
100
AcDbLine
 62
250
  6
CONTINUOUS
 10
180.7848870783
 20
130.065928747
 11
180.7848870783
 21
133.5651148814
  0
LINE
  5
437
100
AcDbEntity
  8
0
100
AcDbLine
 62
7
  6
CONTINUOUS
 10
180.8860962702
 20
83.7572916371
 11
180.8860962702
 21
81.5079046371
  0
LINE
  5
438
100
AcDbEntity
  8
RACCORDO
100
AcDbLine
 62
250
  6
CONTINUOUS
 10
180.9142212702
 20
68.5314067185
 11
180.9142212745
 21
67.7314176847
  0
LINE
  5
439
100
AcDbEntity
  8
RACCORDO
100
AcDbLine
 62
250
  6
CONTINUOUS
 10
180.9142212702
 20
69.2622525557
 11
180.9142212702
 21
70.1968296371
  0
LINE
  5
43A
100
AcDbEntity
  8
RACCORDO
100
AcDbLine
 62
250
  6
CONTINUOUS
 10
180.9142212702
 20
129.2622525557
 11
180.9142212702
 21
130.0622415895
  0
LINE
  5
43B
100
AcDbEntity
  8
RACCORDO
100
AcDbLine
 62
250
  6
CONTINUOUS
 10
180.9142212702
 20
128.5314067185
 11
180.9142212702
 21
127.5968296371
  0
LINE
  5
43C
100
AcDbEntity
  8
0
100
AcDbLine
 62
7
  6
CONTINUOUS
 10
180.9657572702
 20
116.9390170106
 11
180.9657572702
 21
117.1577676371
  0
LINE
  5
43D
100
AcDbEntity
  8
RACCORDO
100
AcDbLine
 62
7
  6
CONTINUOUS
 10
181.084882966
 20
64.5285421083
 11
181.084882966
 21
67.7386744697
  0
LINE
  5
43E
100
AcDbEntity
  8
RACCORDO
100
AcDbLine
 62
7
  6
CONTINUOUS
 10
181.084882966
 20
130.0549848044
 11
181.084882966
 21
133.2651171659
  0
LINE
  5
43F
100
AcDbEntity
  8
0
100
AcDbLine
 62
7
  6
CONTINUOUS
 10
181.1024812702
 20
75.9426746371
 11
181.1024812702
 21
75.0363676371
  0
LINE
  5
440
100
AcDbEntity
  8
0
100
AcDbLine
 62
7
  6
CONTINUOUS
 10
181.1902002702
 20
81.7772486371
 11
181.1902002702
 21
82.5288636371
  0
LINE
  5
441
100
AcDbEntity
  8
0
100
AcDbLine
 62
7
  6
CONTINUOUS
 10
181.1902002702
 20
82.7982076371
 11
181.1902002702
 21
83.4879476371
  0
LINE
  5
442
100
AcDbEntity
  8
DRAFT
100
AcDbLine
 62
7
  6
CONTINUOUS
 10
181.2142212702
 20
133.0495498234
 11
181.2142212702
 21
130.1617407012
  0
LINE
  5
443
100
AcDbEntity
  8
DRAFT
100
AcDbLine
 62
7
  6
CONTINUOUS
 10
181.2142212702
 20
64.7441094508
 11
181.2142212702
 21
67.631918573
  0
LINE
  5
444
100
AcDbEntity
  8
0
100
AcDbLine
 62
7
  6
CONTINUOUS
 10
181.4064032702
 20
75.0363676371
 11
181.4064032702
 21
75.9426746371
  0
LINE
  5
445
100
AcDbEntity
  8
0
100
AcDbLine
 62
7
  6
CONTINUOUS
 10
181.4595072702
 20
116.6218295812
 11
181.4595072702
 21
116.3499546371
  0
LINE
  5
446
100
AcDbEntity
  8
0
100
AcDbLine
 62
7
  6
CONTINUOUS
 10
182.0220072702
 20
116.6890176371
 11
182.0220072702
 21
114.8968296371
  0
LINE
  5
447
100
AcDbEntity
  8
0
100
AcDbLine
 62
7
  6
CONTINUOUS
 10
182.3032572702
 20
114.8968296371
 11
182.3032572702
 21
117.1968296371
  0
LINE
  5
448
100
AcDbEntity
  8
0
100
AcDbLine
 62
7
  6
CONTINUOUS
 10
182.4219032702
 20
82.5288636371
 11
182.4219032702
 21
82.7982076371
  0
LINE
  5
449
100
AcDbEntity
  8
0
100
AcDbLine
 62
7
  6
CONTINUOUS
 10
182.5252722702
 20
83.4879476371
 11
182.5252722702
 21
83.7572916371
  0
LINE
  5
44A
100
AcDbEntity
  8
0
100
AcDbLine
 62
7
  6
CONTINUOUS
 10
182.5472932702
 20
81.5079046371
 11
182.5472932702
 21
81.7772486371
  0
LWPOLYLINE
  5
44B
100
AcDbEntity
  8
0
100
AcDbPolyline
 62
7
  6
CONTINUOUS
 90
16
 70
0
 10
180.1531719523
 20
82.6325978371
 10
180.1509890612
 20
82.5319627242
 10
180.142591774
 20
82.4360394264
 10
180.1279800904
 20
82.3448279438
 10
180.1072888818
 20
82.2576286925
 10
180.0803832769
 20
82.1751412562
 10
180.0468586624
 20
82.0994643864
 10
180.0062912132
 20
82.0308718683
 10
179.9591047543
 20
81.9690899167
 10
179.9061661475
 20
81.9153959264
 10
179.8474200018
 20
81.8701225595
 10
179.7829217082
 20
81.832937154
 10
179.7137043016
 20
81.8041191182
 10
179.6401121271
 20
81.7837615881
 10
179.5618008397
 20
81.7717714278
 10
179.4787704392
 20
81.7681486371
  0
LINE
  5
44C
100
AcDbEntity
  8
0
100
AcDbLine
 62
7
  6
CONTINUOUS
 10
175.1097582702
 20
81.5079046371
 11
175.7428982702
 21
83.3969526371
  0
LINE
  5
44D
100
AcDbEntity
  8
0
100
AcDbLine
 62
7
  6
CONTINUOUS
 10
175.6049512702
 20
83.7572916371
 11
174.9624452702
 21
81.8460526371
  0
LINE
  5
44E
100
AcDbEntity
  8
0
100
AcDbLine
 62
7
  6
CONTINUOUS
 10
176.6204502702
 20
81.5079046371
 11
176.8555812702
 21
82.1630656371
  0
LINE
  5
44F
100
AcDbEntity
  8
0
100
AcDbLine
 62
7
  6
CONTINUOUS
 10
176.9496692702
 20
82.4324096371
 11
177.3132272702
 21
83.4312756371
  0
LINE
  5
450
100
AcDbEntity
  8
0
100
AcDbLine
 62
7
  6
CONTINUOUS
 10
177.1533152702
 20
83.7572916371
 11
176.3070652702
 21
81.5079046371
  0
LINE
  5
451
100
AcDbEntity
  8
0
100
AcDbLine
 62
7
  6
CONTINUOUS
 10
193.1254030857
 20
129.9132149485
 11
193.109218547
 21
129.8749778652
  0
LINE
  5
452
100
AcDbEntity
  8
0
100
AcDbLine
 62
7
  6
CONTINUOUS
 10
193.1417942689
 20
129.9513327254
 11
193.1254030857
 21
129.9132149485
  0
LINE
  5
453
100
AcDbEntity
  8
0
100
AcDbLine
 62
7
  6
CONTINUOUS
 10
165.6417967781
 20
68.4513265136
 11
165.6583920966
 21
68.4893311958
  0
LINE
  5
454
100
AcDbEntity
  8
0
100
AcDbLine
 62
7
  6
CONTINUOUS
 10
193.1583920966
 20
129.9893311958
 11
193.1417942689
 21
129.9513327254
  0
LINE
  5
455
100
AcDbEntity
  8
0
100
AcDbLine
 62
7
  6
CONTINUOUS
 10
165.6403236862
 20
68.5015470424
 11
165.5863275639
 21
68.3856520196
  0
LINE
  5
456
100
AcDbEntity
  8
TRASH
100
AcDbLine
 62
7
  6
CONTINUOUS
 10
164.9839387051
 20
67.6271028549
 11
164.6923694982
 21
67.0018323602
  0
LINE
  5
457
100
AcDbEntity
  8
0
100
AcDbLine
 62
7
  6
CONTINUOUS
 10
164.9659687085
 20
67.5212277405
 11
165.0068504954
 21
67.6042004336
  0
LINE
  5
458
100
AcDbEntity
  8
0
100
AcDbLine
 62
7
  6
CONTINUOUS
 10
165.095695674
 20
67.5153554072
 11
165.0642212702
 21
67.4517679137
  0
LINE
  5
459
100
AcDbEntity
  8
0
100
AcDbLine
 62
7
  6
CONTINUOUS
 10
163.9898800177
 20
68.8274704491
 11
163.9488136179
 21
68.7448216652
  0
LINE
  5
45A
100
AcDbEntity
  8
0
100
AcDbLine
 62
7
  6
CONTINUOUS
 10
164.9247903569
 20
67.4386843107
 11
164.9659687085
 21
67.5212277405
  0
LINE
  5
45B
100
AcDbEntity
  8
0
100
AcDbLine
 62
7
  6
CONTINUOUS
 10
164.0453039072
 20
68.9375985349
 11
163.9898800177
 21
68.8274704491
  0
LINE
  5
45C
100
AcDbEntity
  8
0
100
AcDbLine
 62
7
  6
CONTINUOUS
 10
164.8691240651
 20
67.3284236515
 11
164.9247903569
 21
67.4386843107
  0
LINE
  5
45D
100
AcDbEntity
  8
0
100
AcDbLine
 62
7
  6
CONTINUOUS
 10
164.1160277335
 20
69.0763559339
 11
164.0453039072
 21
68.9375985349
  0
LINE
  5
45E
100
AcDbEntity
  8
0
100
AcDbLine
 62
7
  6
CONTINUOUS
 10
164.7980857573
 20
67.1893785687
 11
164.8691240651
 21
67.3284236515
  0
LINE
  5
45F
100
AcDbEntity
  8
0
100
AcDbLine
 62
7
  6
CONTINUOUS
 10
164.2172909393
 20
69.2726701149
 11
164.1160277335
 21
69.0763559339
  0
LINE
  5
460
100
AcDbEntity
  8
0
100
AcDbLine
 62
7
  6
CONTINUOUS
 10
164.711151601
 20
67.0209891593
 11
164.7980857573
 21
67.1893785687
  0
LINE
  5
461
100
AcDbEntity
  8
ASSI
100
AcDbLine
 62
7
  6
CONTINUOUS
 10
190.1209223429
 20
115.9489237667
 11
190.3382914972
 21
116.3362050417
  0
LINE
  5
462
100
AcDbEntity
  8
ASSI
100
AcDbLine
 62
7
  6
CONTINUOUS
 10
192.9243442702
 20
114.2372766371
 11
193.1707622702
 21
114.5866126371
  0
LINE
  5
463
100
AcDbEntity
  8
RACCORDO
100
AcDbLine
 62
250
  6
CONTINUOUS
 10
222.0368045007
 20
139.4189864465
 11
223.5846476912
 21
140.9668296371
  0
LINE
  5
464
100
AcDbEntity
  8
RACCORDO
100
AcDbLine
 62
250
  6
CONTINUOUS
 10
222.7363780796
 20
138.7194128676
 11
224.2842212702
 21
140.2672560582
  0
LINE
  5
465
100
AcDbEntity
  8
RACCORDO
100
AcDbLine
 62
250
  6
CONTINUOUS
 10
147.7142212702
 20
101.5968296371
 11
146.9142212702
 21
101.5968296371
  0
LINE
  5
466
100
AcDbEntity
  8
RACCORDO
100
AcDbLine
 62
250
  6
CONTINUOUS
 10
208.7142212702
 20
101.5968296371
 11
209.5142212702
 21
101.5968296371
  0
LINE
  5
467
100
AcDbEntity
  8
RACCORDO
100
AcDbLine
 62
250
  6
CONTINUOUS
 10
222.0368045007
 20
58.3746728277
 11
223.5846476912
 21
56.8268296371
  0
LINE
  5
468
100
AcDbEntity
  8
RACCORDO
100
AcDbLine
 62
250
  6
CONTINUOUS
 10
222.7363780796
 20
59.0742464066
 11
224.2842212702
 21
57.526403216
  0
LINE
  5
469
100
AcDbEntity
  8
0
100
AcDbLine
 62
7
  6
CONTINUOUS
 10
164.1166633342
 20
128.716063644
 11
164.2172908913
 21
128.5209892519
  0
LINE
  5
46A
100
AcDbEntity
  8
0
100
AcDbLine
 62
7
  6
CONTINUOUS
 10
164.8117792062
 20
130.5775956302
 11
164.7111516491
 21
130.7726700223
  0
LINE
  5
46B
100
AcDbEntity
  8
0
100
AcDbLine
 62
7
  6
CONTINUOUS
 10
164.0460366948
 20
128.8546137531
 11
164.1166633342
 21
128.716063644
  0
LINE
  5
46C
100
AcDbEntity
  8
0
100
AcDbLine
 62
7
  6
CONTINUOUS
 10
164.8824058455
 20
130.4390455211
 11
164.8117792062
 21
130.5775956302
  0
LINE
  5
46D
100
AcDbEntity
  8
0
100
AcDbLine
 62
7
  6
CONTINUOUS
 10
163.9902984161
 20
128.9653532078
 11
164.0460366948
 21
128.8546137531
  0
LINE
  5
46E
100
AcDbEntity
  8
0
100
AcDbLine
 62
7
  6
CONTINUOUS
 10
164.9381441242
 20
130.3283060663
 11
164.8824058455
 21
130.4390455211
  0
LINE
  5
46F
100
AcDbEntity
  8
0
100
AcDbLine
 62
7
  6
CONTINUOUS
 10
163.9489569667
 20
129.0485461829
 11
163.9902984161
 21
128.9653532078
  0
LINE
  5
470
100
AcDbEntity
  8
0
100
AcDbLine
 62
7
  6
CONTINUOUS
 10
164.9794855737
 20
130.2451130913
 11
164.9381441242
 21
130.3283060663
  0
LINE
  5
471
100
AcDbEntity
  8
0
100
AcDbLine
 62
7
  6
CONTINUOUS
 10
165.0642212702
 20
130.3418918944
 11
165.095695789
 21
130.2783041629
  0
LINE
  5
472
100
AcDbEntity
  8
0
100
AcDbLine
 62
7
  6
CONTINUOUS
 10
165.0068504972
 20
130.1894588652
 11
164.9794855737
 21
130.2451130913
  0
LINE
  5
473
100
AcDbEntity
  8
0
100
AcDbLine
 62
7
  6
CONTINUOUS
 10
165.5863275572
 20
129.4080072645
 11
165.6403235936
 21
129.2921121838
  0
LINE
  5
474
100
AcDbEntity
  8
TRASH
100
AcDbLine
 62
7
  6
CONTINUOUS
 10
164.6923694883
 20
130.7918269072
 11
164.983944754
 21
130.166553121
  0
LINE
  5
475
100
AcDbEntity
  8
0
100
AcDbLine
 62
7
  6
CONTINUOUS
 10
165.6338639979
 20
129.3615659576
 11
165.6586244006
 21
129.3044851511
  0
LINE
  5
476
100
AcDbEntity
  8
0
100
AcDbLine
 62
7
  6
CONTINUOUS
 10
193.1586244006
 20
67.8044851511
 11
193.1092185403
 21
67.918681419
  0
LINE
  5
477
100
AcDbEntity
  8
ASSI
100
AcDbLine
 62
7
  6
CONTINUOUS
 10
176.1573352702
 20
121.4867486371
 11
176.8569872702
 21
119.0467366371
  0
LWPOLYLINE
  5
478
100
AcDbEntity
  8
0
100
AcDbPolyline
 62
7
  6
CONTINUOUS
 90
28
 70
0
 10
176.2173199839
 20
115.4515166106
 10
176.2290506573
 20
115.3937111351
 10
176.2449857102
 20
115.3404611682
 10
176.2651251427
 20
115.2917667098
 10
176.2891263233
 20
115.2473400227
 10
176.3173318836
 20
115.2074688442
 10
176.3507697178
 20
115.1730163865
 10
176.3900603528
 20
115.1438839637
 10
176.4345832617
 20
115.1201702617
 10
176.4835047588
 20
115.1030345499
 10
176.5381352873
 20
115.0925663936
 10
176.5971644039
 20
115.0886762276
 10
176.655827092
 20
115.0922546247
 10
176.7135649559
 20
115.1034957881
 10
176.7709363913
 20
115.1222055146
 10
176.824851569
 20
115.148691768
 10
176.8747074354
 20
115.1831904032
 10
176.9211070439
 20
115.2254655652
 10
176.9627697261
 20
115.2751176528
 10
176.9991059715
 20
115.3328826786
 10
177.0307052905
 20
115.3980246299
 10
177.0580555458
 20
115.4679358676
 10
177.0814705649
 20
115.5420208226
 10
177.1006365203
 20
115.6208750639
 10
177.1150997924
 20
115.7036776592
 10
177.1247091746
 20
115.7901549644
 10
177.1296158735
 20
115.8805806238
 10
177.129819889
 20
115.9749546371
  0
LWPOLYLINE
  5
479
100
AcDbEntity
  8
0
100
AcDbPolyline
 62
7
  6
CONTINUOUS
 90
28
 70
0
 10
177.9970074757
 20
115.4515166561
 10
178.0087381527
 20
115.3937111604
 10
178.0246732084
 20
115.3404611783
 10
178.0448126427
 20
115.2917667098
 10
178.0688138239
 20
115.2473400194
 10
178.0970193839
 20
115.2074688425
 10
178.1304572178
 20
115.1730163865
 10
178.1697478528
 20
115.1438839637
 10
178.2142707617
 20
115.1201702617
 10
178.2631922588
 20
115.1030345499
 10
178.3178227873
 20
115.0925663936
 10
178.3768519039
 20
115.0886762276
 10
178.435514592
 20
115.0922546247
 10
178.4932524559
 20
115.1034957881
 10
178.5506238913
 20
115.1222055146
 10
178.604539069
 20
115.148691768
 10
178.6543949354
 20
115.1831904032
 10
178.7007945439
 20
115.2254655652
 10
178.7424572261
 20
115.2751176528
 10
178.7787934715
 20
115.3328826785
 10
178.8103927905
 20
115.3980246299
 10
178.8377430458
 20
115.4679358675
 10
178.8611580649
 20
115.5420208225
 10
178.8803240203
 20
115.6208750638
 10
178.8947872924
 20
115.7036776591
 10
178.9043966746
 20
115.7901549644
 10
178.9093033735
 20
115.8805806237
 10
178.909507389
 20
115.9749546371
  0
LINE
  5
47A
100
AcDbEntity
  8
ASSI
100
AcDbLine
 62
7
  6
CONTINUOUS
 10
183.1394392702
 20
122.7469126371
 11
183.1394392702
 21
119.0467466371
  0
LINE
  5
47B
100
AcDbEntity
  8
ASSI
100
AcDbLine
 62
7
  6
CONTINUOUS
 10
183.8692732702
 20
121.1619716371
 11
183.8692642702
 21
122.0623856371
  0
LINE
  5
47C
100
AcDbEntity
  8
ASSI
100
AcDbLine
 62
7
  6
CONTINUOUS
 10
183.8794762702
 20
119.0467466371
 11
183.8795592702
 21
120.4774436371
  0
LINE
  5
47D
100
AcDbEntity
  8
0
100
AcDbLine
 62
7
  6
CONTINUOUS
 10
191.7358990702
 20
130.816875923
 11
191.7312639857
 21
130.7933375927
  0
LINE
  5
47E
100
AcDbEntity
  8
0
100
AcDbLine
 62
7
  6
CONTINUOUS
 10
192.1925434701
 20
128.4767833512
 11
192.1971785546
 21
128.5003216815
  0
LINE
  5
47F
100
AcDbEntity
  8
RACCORDO
100
AcDbLine
 62
7
  6
CONTINUOUS
 10
194.0583753579
 20
133.0220601899
 11
193.8482242399
 21
132.2377655404
  0
LINE
  5
480
100
AcDbEntity
  8
RACCORDO
100
AcDbLine
 62
7
  6
CONTINUOUS
 10
195.4042343924
 20
133.0220601899
 11
194.8642172123
 21
131.0066886366
  0
LINE
  5
481
100
AcDbEntity
  8
0
100
AcDbLine
 62
7
  6
CONTINUOUS
 10
177.2033622702
 20
75.0363676371
 11
177.4384922702
 21
75.6915296371
  0
LINE
  5
482
100
AcDbEntity
  8
0
100
AcDbLine
 62
7
  6
CONTINUOUS
 10
177.5323982702
 20
75.9608736371
 11
177.8961392702
 21
76.9597366371
  0
LINE
  5
483
100
AcDbEntity
  8
0
100
AcDbLine
 62
7
  6
CONTINUOUS
 10
177.7362262702
 20
77.2875746371
 11
176.8899762702
 21
75.0363676371
  0
LINE
  5
484
100
AcDbEntity
  8
0
100
AcDbLine
 62
7
  6
CONTINUOUS
 10
164.2312639857
 20
69.2933375927
 11
164.2172909393
 21
69.2726701149
  0
LINE
  5
485
100
AcDbEntity
  8
0
100
AcDbLine
 62
7
  6
CONTINUOUS
 10
164.6971785546
 20
67.0003216815
 11
164.711151601
 21
67.0209891593
  0
LINE
  5
486
100
AcDbEntity
  8
0
100
AcDbLine
 62
7
  6
CONTINUOUS
 10
164.2172908913
 20
128.5209892519
 11
164.2314983726
 21
128.4999750223
  0
LINE
  5
487
100
AcDbEntity
  8
0
100
AcDbLine
 62
7
  6
CONTINUOUS
 10
164.7111516491
 20
130.7726700223
 11
164.6969441777
 21
130.7936842371
  0
LINE
  5
488
100
AcDbEntity
  8
ASSI
100
AcDbLine
 62
7
  6
CONTINUOUS
 10
177.2269962702
 20
120.3372226371
 11
176.5360302702
 21
122.7469036371
  0
LINE
  5
489
100
AcDbEntity
  8
RACCORDO
100
AcDbLine
 62
7
  6
CONTINUOUS
 10
193.8480048668
 20
65.5567124455
 11
194.0583753579
 21
64.7715990843
  0
LINE
  5
48A
100
AcDbEntity
  8
RACCORDO
100
AcDbLine
 62
7
  6
CONTINUOUS
 10
194.8641785921
 20
66.7871147699
 11
195.4042343924
 21
64.7715990843
  0
LINE
  5
48B
100
AcDbEntity
  8
DRAFT
100
AcDbLine
 62
7
  6
CONTINUOUS
 10
190.0615010838
 20
64.7441094508
 11
190.0615010838
 21
65.5702822138
  0
LINE
  5
48C
100
AcDbEntity
  8
DRAFT
100
AcDbLine
 62
7
  6
CONTINUOUS
 10
190.0615010838
 20
70.7233770604
 11
190.0615010838
 21
71.7441094508
  0
LINE
  5
48D
100
AcDbEntity
  8
DRAFT
100
AcDbLine
 62
7
  6
CONTINUOUS
 10
190.2142212702
 20
132.8968296371
 11
190.2142212702
 21
132.33069333
  0
LINE
  5
48E
100
AcDbEntity
  8
DRAFT
100
AcDbLine
 62
7
  6
CONTINUOUS
 10
190.2142212702
 20
126.9629659441
 11
190.2142212702
 21
125.8968296371
  0
LINE
  5
48F
100
AcDbEntity
  8
DRAFT
100
AcDbLine
 62
7
  6
CONTINUOUS
 10
190.2142212702
 20
71.8968296371
 11
190.2142212702
 21
70.829949645
  0
LINE
  5
490
100
AcDbEntity
  8
DRAFT
100
AcDbLine
 62
7
  6
CONTINUOUS
 10
190.2142212702
 20
65.4637096292
 11
190.2142212702
 21
64.8968296371
  0
LINE
  5
491
100
AcDbEntity
  8
ASSI
100
AcDbLine
 62
7
  6
CONTINUOUS
 10
190.5473342702
 20
116.2087846371
 11
190.5473342702
 21
115.7365636371
  0
LINE
  5
492
100
AcDbEntity
  8
ASSI
100
AcDbLine
 62
7
  6
CONTINUOUS
 10
190.5627552702
 20
120.0384926371
 11
190.5627552702
 21
119.5636756371
  0
LINE
  5
493
100
AcDbEntity
  8
ASSI
100
AcDbLine
 62
7
  6
CONTINUOUS
 10
190.9658232702
 20
119.5636756371
 11
190.9658232702
 21
118.3596676371
  0
LINE
  5
494
100
AcDbEntity
  8
ASSI
100
AcDbLine
 62
7
  6
CONTINUOUS
 10
190.9658232702
 20
117.7744646371
 11
190.9658232702
 21
116.2087846371
  0
LINE
  5
495
100
AcDbEntity
  8
0
100
AcDbLine
 62
7
  6
CONTINUOUS
 10
163.9215920431
 20
67.604200409
 11
163.944497786
 21
67.6271061529
  0
LINE
  5
496
100
AcDbEntity
  8
0
100
AcDbLine
 62
7
  6
CONTINUOUS
 10
163.8327467514
 20
67.5153551113
 11
163.8642212702
 21
67.5468296307
  0
LINE
  5
497
100
AcDbEntity
  8
0
100
AcDbLine
 62
7
  6
CONTINUOUS
 10
164.9839447543
 20
68.6665531213
 11
165.0068504972
 21
68.6894588652
  0
LINE
  5
498
100
AcDbEntity
  8
0
100
AcDbLine
 62
7
  6
CONTINUOUS
 10
165.0642212702
 20
68.7468296435
 11
165.095695789
 21
68.7783041629
  0
LWPOLYLINE
  5
499
100
AcDbEntity
  8
RACCORDO
100
AcDbPolyline
 62
7
  6
CONTINUOUS
 90
22
 70
0
 10
147.7142212702
 20
101.1226230454
 10
147.6608632523
 20
101.1097705646
 10
147.6080913969
 20
101.0958843723
 10
147.5561306905
 20
101.0809644683
 10
147.5052181749
 20
101.0648849721
 10
147.4555319702
 20
101.0477717644
 10
147.4071952681
 20
101.0300024865
 10
147.3604269491
 20
101.0115587384
 10
147.3153592189
 20
100.9924589201
 10
147.2719894577
 20
100.9731358739
 10
147.2304952974
 20
100.9535646881
 10
147.191024146
 20
100.9337702744
 10
147.1535597495
 20
100.9142602103
 10
147.1182567307
 20
100.894993932
 10
147.0852976044
 20
100.8760120033
 10
147.0547490439
 20
100.8579436927
 10
147.0267876099
 20
100.840769529
 10
147.0015778104
 20
100.8245089834
 10
146.9792107605
 20
100.8098497374
 10
146.9598292963
 20
100.79679736
 10
146.9436611523
 20
100.7853462822
 10
146.9216920155
 20
100.7694846083
  0
LINE
  5
49A
100
AcDbEntity
  8
RACCORDO
100
AcDbLine
 62
250
  6
CONTINUOUS
 10
212.8825065144
 20
111.0968296371
 11
205.6215195682
 21
111.0968296371
  0
LINE
  5
49B
100
AcDbEntity
  8
RACCORDO
100
AcDbLine
 62
250
  6
CONTINUOUS
 10
150.8069229721
 20
111.0968296371
 11
143.5459360259
 21
111.0968296371
  0
LINE
  5
49C
100
AcDbEntity
  8
RACCORDO
100
AcDbLine
 62
7
  6
CONTINUOUS
 10
212.5824950909
 20
111.3968296371
 11
205.4860015568
 21
111.3968296371
  0
LINE
  5
49D
100
AcDbEntity
  8
RACCORDO
100
AcDbLine
 62
7
  6
CONTINUOUS
 10
150.9424409836
 20
111.3968296371
 11
143.8459474494
 21
111.3968296371
  0
LINE
  5
49E
100
AcDbEntity
  8
0
100
AcDbLine
 62
7
  6
CONTINUOUS
 10
164.9839447543
 20
129.1271061529
 11
165.0068504954
 21
129.1042004336
  0
LINE
  5
49F
100
AcDbEntity
  8
0
100
AcDbLine
 62
7
  6
CONTINUOUS
 10
163.944497786
 20
130.1665531213
 11
163.921592045
 21
130.1894588406
  0
LINE
  5
4A0
100
AcDbEntity
  8
0
100
AcDbLine
 62
7
  6
CONTINUOUS
 10
165.0642212702
 20
129.0468297789
 11
165.095695674
 21
129.0153554072
  0
LINE
  5
4A1
100
AcDbEntity
  8
0
100
AcDbLine
 62
7
  6
CONTINUOUS
 10
163.8642212702
 20
130.2468294953
 11
163.8327468664
 21
130.278303867
  0
LINE
  5
4A2
100
AcDbEntity
  8
ASSI
100
AcDbLine
 62
7
  6
CONTINUOUS
 10
181.6724352702
 20
119.7744066371
 11
181.9060532702
 21
119.0467466371
  0
LINE
  5
4A3
100
AcDbEntity
  8
ASSI
100
AcDbLine
 62
7
  6
CONTINUOUS
 10
181.0880482702
 20
121.5945016371
 11
181.4466982702
 21
120.4774346371
  0
LINE
  5
4A4
100
AcDbEntity
  8
ASSI
100
AcDbLine
 62
7
  6
CONTINUOUS
 10
182.6460902702
 20
119.0467366371
 11
181.4580852702
 21
122.7469126371
  0
LINE
  5
4A5
100
AcDbEntity
  8
0
100
AcDbLine
 62
7
  6
CONTINUOUS
 10
192.1923991417
 20
69.3169040779
 11
192.1924140164
 21
69.2918375615
  0
LINE
  5
4A6
100
AcDbEntity
  8
0
100
AcDbLine
 62
7
  6
CONTINUOUS
 10
192.1923991417
 20
130.8169040779
 11
192.1924140164
 21
130.7918375615
  0
LINE
  5
4A7
100
AcDbEntity
  8
0
100
AcDbLine
 62
7
  6
CONTINUOUS
 10
191.3642212702
 20
65.0239371189
 11
191.3642212702
 21
67.632409315
  0
LINE
  5
4A8
100
AcDbEntity
  8
0
100
AcDbLine
 62
7
  6
CONTINUOUS
 10
191.3642212702
 20
68.6612494813
 11
191.3642212702
 21
71.2697221553
  0
LINE
  5
4A9
100
AcDbEntity
  8
0
100
AcDbLine
 62
7
  6
CONTINUOUS
 10
191.3642212702
 20
126.5239371189
 11
191.3642212702
 21
129.132409315
  0
LINE
  5
4AA
100
AcDbEntity
  8
0
100
AcDbLine
 62
7
  6
CONTINUOUS
 10
191.3642212702
 20
130.1612494813
 11
191.3642212702
 21
132.7697221553
  0
LINE
  5
4AB
100
AcDbEntity
  8
ASSI
100
AcDbLine
 62
7
  6
CONTINUOUS
 10
191.4688862702
 20
116.2087846371
 11
191.4688862702
 21
117.7797456371
  0
LINE
  5
4AC
100
AcDbEntity
  8
ASSI
100
AcDbLine
 62
7
  6
CONTINUOUS
 10
191.4688862702
 20
118.3596676371
 11
191.4688862702
 21
119.5636756371
  0
LINE
  5
4AD
100
AcDbEntity
  8
ASSI
100
AcDbLine
 62
7
  6
CONTINUOUS
 10
191.8717912702
 20
119.5636756371
 11
191.8717912702
 21
120.0384926371
  0
LINE
  5
4AE
100
AcDbEntity
  8
ASSI
100
AcDbLine
 62
7
  6
CONTINUOUS
 10
191.8872122702
 20
115.7365636371
 11
191.8872122702
 21
116.2087846371
  0
LINE
  5
4AF
100
AcDbEntity
  8
0
100
AcDbLine
 62
7
  6
CONTINUOUS
 10
192.5642212702
 20
65.0239371189
 11
192.5642212702
 21
67.6324097929
  0
LINE
  5
4B0
100
AcDbEntity
  8
0
100
AcDbLine
 62
7
  6
CONTINUOUS
 10
192.5642212702
 20
68.6612499592
 11
192.5642212702
 21
71.2697221553
  0
LINE
  5
4B1
100
AcDbEntity
  8
0
100
AcDbLine
 62
7
  6
CONTINUOUS
 10
192.5642212702
 20
126.5239371189
 11
192.5642212702
 21
129.1324097929
  0
LINE
  5
4B2
100
AcDbEntity
  8
0
100
AcDbLine
 62
7
  6
CONTINUOUS
 10
192.5642212702
 20
130.1612499592
 11
192.5642212702
 21
132.7697221553
  0
LINE
  5
4B3
100
AcDbEntity
  8
0
100
AcDbLine
 62
7
  6
CONTINUOUS
 10
192.1925745413
 20
128.501790054
 11
192.1925434701
 21
128.4767833512
  0
LINE
  5
4B4
100
AcDbEntity
  8
0
100
AcDbLine
 62
7
  6
CONTINUOUS
 10
192.1925745413
 20
67.001790054
 11
192.1925434701
 21
66.9767833512
  0
LINE
  5
4B5
100
AcDbEntity
  8
0
100
AcDbLine
 62
7
  6
CONTINUOUS
 10
181.8985022702
 20
77.2875746371
 11
181.2528042702
 21
76.2065586371
  0
LINE
  5
4B6
100
AcDbEntity
  8
RACCORDO
100
AcDbLine
 62
7
  6
CONTINUOUS
 10
180.8390267982
 20
70.1968296371
 11
180.7616432937
 21
70.0674913329
  0
LINE
  5
4B7
100
AcDbEntity
  8
0
100
AcDbLine
 62
7
  6
CONTINUOUS
 10
181.4064032702
 20
75.9426746371
 11
182.2557462702
 21
77.2875746371
  0
LINE
  5
4B8
100
AcDbEntity
  8
0
100
AcDbLine
 62
7
  6
CONTINUOUS
 10
163.2881189467
 20
68.5015470904
 11
163.2698181395
 21
68.489174123
  0
LINE
  5
4B9
100
AcDbEntity
  8
0
100
AcDbLine
 62
7
  6
CONTINUOUS
 10
177.9970074757
 20
115.4515166561
 11
177.7266949563
 21
115.4265166081
  0
LINE
  5
4BA
100
AcDbEntity
  8
0
100
AcDbLine
 62
7
  6
CONTINUOUS
 10
176.2173199839
 20
115.4515166106
 11
175.9470074505
 21
115.4265166538
  0
LINE
  5
4BB
100
AcDbEntity
  8
0
100
AcDbLine
 62
7
  6
CONTINUOUS
 10
179.803257389
 20
114.8968296371
 11
180.092319889
 21
114.8968296371
  0
LINE
  5
4BC
100
AcDbEntity
  8
0
100
AcDbLine
 62
7
  6
CONTINUOUS
 10
182.0220072702
 20
114.8968296371
 11
182.3032572702
 21
114.8968296371
  0
LINE
  5
4BD
100
AcDbEntity
  8
ASSI
100
AcDbLine
 62
7
  6
CONTINUOUS
 10
190.5473342702
 20
115.7365636371
 11
191.8872122702
 21
115.7365636371
  0
LINE
  5
4BE
100
AcDbEntity
  8
0
100
AcDbLine
 62
7
  6
CONTINUOUS
 10
163.2700504437
 20
129.3043280783
 11
163.2881188541
 21
129.2921122318
  0
LINE
  5
4BF
100
AcDbEntity
  8
RACCORDO
100
AcDbLine
 62
7
  6
CONTINUOUS
 10
180.8390267982
 20
127.5968296371
 11
180.7616432937
 21
127.7261679413
  0
LINE
  5
4C0
100
AcDbEntity
  8
ASSI
100
AcDbLine
 62
7
  6
CONTINUOUS
 10
184.5254412702
 20
120.4774346371
 11
185.2670412702
 21
119.0467466371
  0
LINE
  5
4C1
100
AcDbEntity
  8
ASSI
100
AcDbLine
 62
7
  6
CONTINUOUS
 10
186.1005682702
 20
119.0467556371
 11
185.3128458816
 21
120.5664313159
  0
LINE
  5
4C2
100
AcDbEntity
  8
0
100
AcDbLine
 62
7
  6
CONTINUOUS
 10
191.7358990702
 20
69.316875923
 11
191.7312639857
 21
69.2933375927
  0
LINE
  5
4C3
100
AcDbEntity
  8
0
100
AcDbLine
 62
7
  6
CONTINUOUS
 10
192.1925434701
 20
66.9767833512
 11
192.1971785546
 21
67.0003216815
  0
LINE
  5
4C4
100
AcDbEntity
  8
RACCORDO
100
AcDbLine
 62
7
  6
CONTINUOUS
 10
181.084877483
 20
64.5285329697
 11
181.2142212702
 21
64.7441094508
  0
LWPOLYLINE
  5
4C5
100
AcDbEntity
  8
RACCORDO
100
AcDbPolyline
 62
7
  6
CONTINUOUS
 90
3
 70
0
 10
209.5067505248
 20
97.0241746659
 10
209.51234125
 20
97.028585262
 10
209.5142212702
 20
97.0307235836
  0
LINE
  5
4C6
100
AcDbEntity
  8
0
100
AcDbLine
 62
7
  6
CONTINUOUS
 10
165.6403235936
 20
67.7921121838
 11
165.6586244006
 21
67.8044851511
  0
LINE
  5
4C7
100
AcDbEntity
  8
0
100
AcDbLine
 62
7
  6
CONTINUOUS
 10
163.2881189467
 20
68.5015470904
 11
163.4692608988
 21
68.5950286053
  0
LINE
  5
4C8
100
AcDbEntity
  8
0
100
AcDbLine
 62
7
  6
CONTINUOUS
 10
163.4692608988
 20
68.5950286053
 11
163.590102363
 21
68.6567629873
  0
LINE
  5
4C9
100
AcDbEntity
  8
0
100
AcDbLine
 62
7
  6
CONTINUOUS
 10
163.590102363
 20
68.6567629873
 11
163.7112440033
 21
68.7178684972
  0
LINE
  5
4CA
100
AcDbEntity
  8
0
100
AcDbLine
 62
7
  6
CONTINUOUS
 10
163.7112440033
 20
68.7178684972
 11
163.8327468664
 21
68.778303867
  0
LINE
  5
4CB
100
AcDbEntity
  8
0
100
AcDbLine
 62
7
  6
CONTINUOUS
 10
163.921592045
 20
68.6894588406
 11
163.8642212702
 21
68.6612494813
  0
LINE
  5
4CC
100
AcDbEntity
  8
TRASH
100
AcDbLine
 62
7
  6
CONTINUOUS
 10
163.3421184567
 20
68.3856556549
 11
163.3932335178
 21
68.4096244759
  0
LINE
  5
4CD
100
AcDbEntity
  8
TRASH
100
AcDbLine
 62
7
  6
CONTINUOUS
 10
163.9117567245
 20
68.651199558
 11
163.9444944879
 21
68.6665470721
  0
LWPOLYLINE
  5
4CE
100
AcDbEntity
  8
TRASH
100
AcDbPolyline
 62
7
  6
CONTINUOUS
 90
5
 70
0
 10
163.5353591544
 20
68.4757408474
 10
163.5790374408
 20
68.4961784202
 10
163.6210958914
 20
68.5157418764
 10
163.6615087492
 20
68.5345338163
 10
163.7003667011
 20
68.5527207932
  0
LINE
  5
4CF
100
AcDbEntity
  8
0
100
AcDbLine
 62
7
  6
CONTINUOUS
 10
164.7030436427
 20
69.2689359241
 11
164.7111516491
 21
69.2726700223
  0
LINE
  5
4D0
100
AcDbEntity
  8
ASSI
100
AcDbLine
 62
7
  6
CONTINUOUS
 10
191.8872122702
 20
116.2087846371
 11
191.4688862702
 21
116.2087846371
  0
LINE
  5
4D1
100
AcDbEntity
  8
ASSI
100
AcDbLine
 62
7
  6
CONTINUOUS
 10
190.9658232702
 20
116.2087846371
 11
190.5473342702
 21
116.2087846371
  0
LINE
  5
4D2
100
AcDbEntity
  8
0
100
AcDbLine
 62
7
  6
CONTINUOUS
 10
179.4829452702
 20
116.8874546371
 11
180.604819889
 21
116.8874546371
  0
LINE
  5
4D3
100
AcDbEntity
  8
0
100
AcDbLine
 62
7
  6
CONTINUOUS
 10
180.9657572702
 20
117.1577676371
 11
179.4829452702
 21
117.1577676371
  0
LINE
  5
4D4
100
AcDbEntity
  8
0
100
AcDbLine
 62
7
  6
CONTINUOUS
 10
182.3032572702
 20
117.1968296371
 11
182.122007389
 21
117.1968296371
  0
LINE
  5
4D5
100
AcDbEntity
  8
ASSI
100
AcDbLine
 62
7
  6
CONTINUOUS
 10
166.8712762702
 20
117.5218296371
 11
168.3317772702
 21
117.5218296371
  0
LINE
  5
4D6
100
AcDbEntity
  8
ASSI
100
AcDbLine
 62
7
  6
CONTINUOUS
 10
168.3317772702
 20
118.2718296371
 11
166.8712731582
 21
118.2718296371
  0
LINE
  5
4D7
100
AcDbEntity
  8
ASSI
100
AcDbLine
 62
7
  6
CONTINUOUS
 10
185.2670412702
 20
119.0467466371
 11
186.1005682702
 21
119.0467556371
  0
LINE
  5
4D8
100
AcDbEntity
  8
ASSI
100
AcDbLine
 62
7
  6
CONTINUOUS
 10
179.5300342702
 20
119.0467366371
 11
180.2700612702
 21
119.0467466371
  0
LINE
  5
4D9
100
AcDbEntity
  8
ASSI
100
AcDbLine
 62
7
  6
CONTINUOUS
 10
175.4173082702
 20
119.0467366371
 11
176.1573352702
 21
119.0467366371
  0
LINE
  5
4DA
100
AcDbEntity
  8
ASSI
100
AcDbLine
 62
7
  6
CONTINUOUS
 10
178.2966572702
 20
119.0467366371
 11
179.0366852702
 21
119.0467366371
  0
LINE
  5
4DB
100
AcDbEntity
  8
ASSI
100
AcDbLine
 62
7
  6
CONTINUOUS
 10
183.1394392702
 20
119.0467466371
 11
183.8794762702
 21
119.0467466371
  0
LINE
  5
4DC
100
AcDbEntity
  8
ASSI
100
AcDbLine
 62
7
  6
CONTINUOUS
 10
176.8569872702
 20
119.0467366371
 11
177.5969962702
 21
119.0467466371
  0
LINE
  5
4DD
100
AcDbEntity
  8
ASSI
100
AcDbLine
 62
7
  6
CONTINUOUS
 10
173.9372712702
 20
119.0467276371
 11
174.6772982702
 21
119.0467366371
  0
LINE
  5
4DE
100
AcDbEntity
  8
ASSI
100
AcDbLine
 62
7
  6
CONTINUOUS
 10
181.9060532702
 20
119.0467466371
 11
182.6460902702
 21
119.0467366371
  0
LINE
  5
4DF
100
AcDbEntity
  8
ASSI
100
AcDbLine
 62
7
  6
CONTINUOUS
 10
171.5158702702
 20
119.0467276371
 11
172.2559262702
 21
119.0467366371
  0
LINE
  5
4E0
100
AcDbEntity
  8
ASSI
100
AcDbLine
 62
7
  6
CONTINUOUS
 10
190.5627552702
 20
119.5636756371
 11
190.9658232702
 21
119.5636756371
  0
LINE
  5
4E1
100
AcDbEntity
  8
ASSI
100
AcDbLine
 62
7
  6
CONTINUOUS
 10
191.4688862702
 20
119.5636756371
 11
191.8717912702
 21
119.5636756371
  0
LINE
  5
4E2
100
AcDbEntity
  8
ASSI
100
AcDbLine
 62
7
  6
CONTINUOUS
 10
180.5036892702
 20
119.7744066371
 11
181.6724352702
 21
119.7744066371
  0
LINE
  5
4E3
100
AcDbEntity
  8
ASSI
100
AcDbLine
 62
7
  6
CONTINUOUS
 10
191.8717912702
 20
120.0384926371
 11
190.5627552702
 21
120.0384926371
  0
LINE
  5
4E4
100
AcDbEntity
  8
0
100
AcDbLine
 62
7
  6
CONTINUOUS
 10
164.711151601
 20
128.5209891593
 11
164.7030436526
 21
128.5247233434
  0
LINE
  5
4E5
100
AcDbEntity
  8
TRASH
100
AcDbLine
 62
7
  6
CONTINUOUS
 10
163.9444977863
 20
129.1271061532
 11
163.9117598333
 21
129.1424438322
  0
LINE
  5
4E6
100
AcDbEntity
  8
0
100
AcDbLine
 62
7
  6
CONTINUOUS
 10
163.8642212702
 20
129.132409315
 11
163.9215920431
 21
129.104200409
  0
LINE
  5
4E7
100
AcDbEntity
  8
0
100
AcDbLine
 62
7
  6
CONTINUOUS
 10
163.8327467514
 20
129.0153551113
 11
163.7550537251
 21
129.0538522022
  0
LINE
  5
4E8
100
AcDbEntity
  8
0
100
AcDbLine
 62
7
  6
CONTINUOUS
 10
163.7550537251
 20
129.0538522022
 11
163.6516639567
 21
129.1057267563
  0
LINE
  5
4E9
100
AcDbEntity
  8
0
100
AcDbLine
 62
7
  6
CONTINUOUS
 10
163.6516639567
 20
129.1057267563
 11
163.5223117367
 21
129.1714588198
  0
LINE
  5
4EA
100
AcDbEntity
  8
0
100
AcDbLine
 62
7
  6
CONTINUOUS
 10
163.5223117367
 20
129.1714588198
 11
163.3403617249
 21
129.2650535363
  0
LINE
  5
4EB
100
AcDbEntity
  8
0
100
AcDbLine
 62
7
  6
CONTINUOUS
 10
163.3403617249
 20
129.2650535363
 11
163.2881188541
 21
129.2921122318
  0
LWPOLYLINE
  5
4EC
100
AcDbEntity
  8
0
100
AcDbPolyline
 62
7
  6
CONTINUOUS
 90
7
 70
0
 10
164.6971785546
 20
128.5003216815
 10
164.696461217
 20
128.5006984349
 10
164.6957102106
 20
128.5010251988
 10
164.6949255355
 20
128.5013019733
 10
164.6941071918
 20
128.5015287584
 10
164.6932551794
 20
128.501705554
 10
164.6923694982
 20
128.5018323602
  0
LINE
  5
4ED
100
AcDbEntity
  8
0
100
AcDbLine
 62
7
  6
CONTINUOUS
 10
165.6583920966
 20
129.9893311958
 11
165.6403236862
 21
130.0015470424
  0
LWPOLYLINE
  5
4EE
100
AcDbEntity
  8
RACCORDO
100
AcDbPolyline
 62
7
  6
CONTINUOUS
 90
21
 70
0
 10
209.4847574208
 20
100.7853640662
 10
209.468570185
 20
100.7968277988
 10
209.4491649126
 20
100.8098945199
 10
209.4267696143
 20
100.8245707591
 10
209.4015275345
 20
100.8408499866
 10
209.3735342447
 20
100.8580401886
 10
209.3429566933
 20
100.8761212734
 10
209.3099720951
 20
100.8951133326
 10
209.2746503905
 20
100.9143846275
 10
209.2371771778
 20
100.9338931708
 10
209.1977070285
 20
100.9536809497
 10
209.1562220103
 20
100.9732421878
 10
209.1128712107
 20
100.9925512624
 10
209.0678316735
 20
101.0116337962
 10
209.021094473
 20
101.0300608799
 10
208.9727911807
 20
101.0478146576
 10
208.9231404772
 20
101.0649129853
 10
208.8722588896
 20
101.0809805221
 10
208.8203217676
 20
101.0958921541
 10
208.7675676847
 20
101.1097729953
 10
208.7142212702
 20
101.1226230454
  0
LINE
  5
4EF
100
AcDbEntity
  8
RACCORDO
100
AcDbLine
 62
7
  6
CONTINUOUS
 10
181.084877483
 20
133.2651263045
 11
181.2142212702
 21
133.0495498234
  0
LINE
  5
4F0
100
AcDbEntity
  8
ASSI
100
AcDbLine
 62
7
  6
CONTINUOUS
 10
192.0901512702
 20
116.3362046371
 11
192.3075202702
 21
115.9489236371
  0
LINE
  5
4F1
100
AcDbEntity
  8
ASSI
100
AcDbLine
 62
7
  6
CONTINUOUS
 10
200.1142212702
 20
76.0968296371
 11
200.1142212702
 21
73.6968296371
  0
LINE
  5
4F2
100
AcDbEntity
  8
0
100
AcDbLine
 62
7
  6
CONTINUOUS
 10
190.8191816871
 20
67.918476366
 11
190.8030228433
 21
67.8803821898
  0
LINE
  5
4F3
100
AcDbEntity
  8
0
100
AcDbLine
 62
7
  6
CONTINUOUS
 10
190.8030228433
 20
67.8803821898
 11
190.7866457622
 21
67.8423327606
  0
LINE
  5
4F4
100
AcDbEntity
  8
0
100
AcDbLine
 62
7
  6
CONTINUOUS
 10
190.7866457622
 20
67.8423327606
 11
190.7700504437
 21
67.8043280783
  0
LINE
  5
4F5
100
AcDbEntity
  8
0
100
AcDbLine
 62
7
  6
CONTINUOUS
 10
190.7881188541
 20
67.7921122318
 11
190.8421149764
 21
67.9080072546
  0
LINE
  5
4F6
100
AcDbEntity
  8
TRASH
100
AcDbLine
 62
7
  6
CONTINUOUS
 10
191.4445038352
 20
68.6665564193
 11
191.7360730421
 21
69.291826914
  0
LINE
  5
4F7
100
AcDbEntity
  8
0
100
AcDbLine
 62
7
  6
CONTINUOUS
 10
191.4624738318
 20
68.7724315337
 11
191.421592045
 21
68.6894588406
  0
LINE
  5
4F8
100
AcDbEntity
  8
0
100
AcDbLine
 62
7
  6
CONTINUOUS
 10
191.3327468664
 20
68.778303867
 11
191.3642212702
 21
68.8418913605
  0
LINE
  5
4F9
100
AcDbEntity
  8
0
100
AcDbLine
 62
7
  6
CONTINUOUS
 10
191.5036521834
 20
68.8549749635
 11
191.4624738318
 21
68.7724315337
  0
LINE
  5
4FA
100
AcDbEntity
  8
0
100
AcDbLine
 62
7
  6
CONTINUOUS
 10
191.5593184752
 20
68.9652356227
 11
191.5036521834
 21
68.8549749635
  0
LINE
  5
4FB
100
AcDbEntity
  8
0
100
AcDbLine
 62
7
  6
CONTINUOUS
 10
191.6017528236
 20
69.0484825483
 11
191.5593184752
 21
68.9652356227
  0
LINE
  5
4FC
100
AcDbEntity
  8
RACCORDO
100
AcDbLine
 62
7
  6
CONTINUOUS
 10
175.2142212702
 20
67.631918573
 11
175.3435595743
 21
67.7386744697
  0
LINE
  5
4FD
100
AcDbEntity
  8
0
100
AcDbLine
 62
7
  6
CONTINUOUS
 10
165.6403235936
 20
67.7921121838
 11
165.4591816415
 21
67.6986306689
  0
LINE
  5
4FE
100
AcDbEntity
  8
0
100
AcDbLine
 62
7
  6
CONTINUOUS
 10
165.4591816415
 20
67.6986306689
 11
165.3383401774
 21
67.6368962869
  0
LINE
  5
4FF
100
AcDbEntity
  8
0
100
AcDbLine
 62
7
  6
CONTINUOUS
 10
165.3383401774
 20
67.6368962869
 11
165.217198537
 21
67.575790777
  0
LINE
  5
500
100
AcDbEntity
  8
0
100
AcDbLine
 62
7
  6
CONTINUOUS
 10
165.217198537
 20
67.575790777
 11
165.095695674
 21
67.5153554072
  0
LINE
  5
501
100
AcDbEntity
  8
0
100
AcDbLine
 62
7
  6
CONTINUOUS
 10
165.0068504954
 20
67.6042004336
 11
165.0642212702
 21
67.6324097929
  0
LINE
  5
502
100
AcDbEntity
  8
TRASH
100
AcDbLine
 62
7
  6
CONTINUOUS
 10
163.319224
 20
68.3749778552
 11
163.3421149832
 21
68.3856520097
  0
LWPOLYLINE
  5
503
100
AcDbEntity
  8
TRASH
100
AcDbPolyline
 62
7
  6
CONTINUOUS
 90
3
 70
0
 10
163.7003667011
 20
68.5527207932
 10
163.7745209817
 20
68.5872353456
 10
163.8099202775
 20
68.6037954789
  0
LINE
  5
504
100
AcDbEntity
  8
TRASH
100
AcDbLine
 62
7
  6
CONTINUOUS
 10
163.8099202775
 20
68.6037954789
 11
163.9117567245
 21
68.651199558
  0
LINE
  5
505
100
AcDbEntity
  8
TRASH
100
AcDbLine
 62
7
  6
CONTINUOUS
 10
163.3932335178
 20
68.4096244759
 11
163.5353591544
 21
68.4757408474
  0
LINE
  5
506
100
AcDbEntity
  8
TRASH
100
AcDbLine
 62
7
  6
CONTINUOUS
 10
165.6092185403
 20
67.918681419
 11
164.9839480524
 21
67.6271122021
  0
LINE
  5
507
100
AcDbEntity
  8
0
100
AcDbLine
 62
7
  6
CONTINUOUS
 10
164.2253988976
 20
67.0247233501
 11
164.2172908913
 21
67.0209892519
  0
LWPOLYLINE
  5
508
100
AcDbEntity
  8
0
100
AcDbPolyline
 62
7
  6
CONTINUOUS
 90
7
 70
0
 10
164.6969441777
 20
69.2936842371
 10
164.6962000711
 20
69.293347445
 10
164.6954486278
 20
69.2930215478
 10
164.6946898479
 20
69.2927065454
 10
164.6939237313
 20
69.2924024379
 10
164.6931502781
 20
69.2921092251
 10
164.6923694883
 20
69.2918269072
  0
LINE
  5
509
100
AcDbEntity
  8
ASSI
100
AcDbLine
 62
7
  6
CONTINUOUS
 10
181.4466982702
 20
120.4774346371
 11
180.7294162702
 21
120.4774346371
  0
LINE
  5
50A
100
AcDbEntity
  8
ASSI
100
AcDbLine
 62
7
  6
CONTINUOUS
 10
183.8795592702
 20
120.4774436371
 11
184.5254412702
 21
120.4774346371
  0
LINE
  5
50B
100
AcDbEntity
  8
ASSI
100
AcDbLine
 62
7
  6
CONTINUOUS
 10
153.0142212702
 20
120.7968296371
 11
155.4142212702
 21
120.7968296371
  0
LINE
  5
50C
100
AcDbEntity
  8
ASSI
100
AcDbLine
 62
7
  6
CONTINUOUS
 10
201.0142212702
 20
120.7968296371
 11
203.4142212702
 21
120.7968296371
  0
LINE
  5
50D
100
AcDbEntity
  8
ASSI
100
AcDbLine
 62
7
  6
CONTINUOUS
 10
184.7696343522
 20
121.1619716371
 11
183.8692732702
 21
121.1619716371
  0
LINE
  5
50E
100
AcDbEntity
  8
ASSI
100
AcDbLine
 62
7
  6
CONTINUOUS
 10
183.8692642702
 20
122.0623856371
 11
184.7696142428
 21
122.0623856371
  0
LINE
  5
50F
100
AcDbEntity
  8
ASSI
100
AcDbLine
 62
7
  6
CONTINUOUS
 10
179.0366852702
 20
122.7469036371
 11
177.9179622702
 21
122.7469036371
  0
LINE
  5
510
100
AcDbEntity
  8
ASSI
100
AcDbLine
 62
7
  6
CONTINUOUS
 10
176.5360302702
 20
122.7469036371
 11
175.4173082702
 21
122.7469036371
  0
LINE
  5
511
100
AcDbEntity
  8
ASSI
100
AcDbLine
 62
7
  6
CONTINUOUS
 10
174.6773082702
 20
122.7469036371
 11
173.9372802702
 21
122.7469036371
  0
LINE
  5
512
100
AcDbEntity
  8
ASSI
100
AcDbLine
 62
7
  6
CONTINUOUS
 10
173.4439312702
 20
122.7469036371
 11
172.7038942702
 21
122.7469036371
  0
LINE
  5
513
100
AcDbEntity
  8
ASSI
100
AcDbLine
 62
7
  6
CONTINUOUS
 10
171.0679112702
 20
122.7469036371
 11
170.3278742702
 21
122.7469036371
  0
LINE
  5
514
100
AcDbEntity
  8
ASSI
100
AcDbLine
 62
7
  6
CONTINUOUS
 10
184.8723535466
 20
122.7469126371
 11
183.1394392702
 21
122.7469126371
  0
LINE
  5
515
100
AcDbEntity
  8
ASSI
100
AcDbLine
 62
7
  6
CONTINUOUS
 10
181.4580852702
 20
122.7469126371
 11
180.7180202702
 21
122.7469126371
  0
LWPOLYLINE
  5
516
100
AcDbEntity
  8
0
100
AcDbPolyline
 62
7
  6
CONTINUOUS
 90
3
 70
0
 43
0.3500000006
 10
249.2485125732
 20
100.2539729919
 10
249.4627970581
 20
100.1825418091
 10
249.7485036621
 20
100.0396885071
  0
LINE
  5
517
100
AcDbEntity
  8
0
100
AcDbLine
 62
7
  6
CONTINUOUS
 10
164.2172909393
 20
130.7726701149
 11
164.2253988877
 21
130.7689359308
  0
LWPOLYLINE
  5
518
100
AcDbEntity
  8
TRASH
100
AcDbPolyline
 62
7
  6
CONTINUOUS
 90
4
 70
0
 10
163.6616317855
 20
129.2590750343
 10
163.579206011
 20
129.2973988428
 10
163.5355371786
 20
129.3178352014
 10
163.4426098891
 20
129.3610306524
  0
LWPOLYLINE
  5
519
100
AcDbEntity
  8
TRASH
100
AcDbPolyline
 62
7
  6
CONTINUOUS
 90
3
 70
0
 10
163.7745549009
 20
129.2064138251
 10
163.7004525481
 20
129.2409140998
 10
163.6616317855
 20
129.2590750343
  0
LWPOLYLINE
  5
51A
100
AcDbEntity
  8
TRASH
100
AcDbPolyline
 62
7
  6
CONTINUOUS
 90
3
 70
0
 10
163.4426098891
 20
129.3610306524
 10
163.3933063647
 20
129.3839938981
 10
163.3421146168
 20
129.4080048961
  0
LINE
  5
51B
100
AcDbEntity
  8
TRASH
100
AcDbLine
 62
7
  6
CONTINUOUS
 10
163.3421149764
 20
129.4080072546
 11
163.3192239933
 21
129.418681409
  0
LWPOLYLINE
  5
51C
100
AcDbEntity
  8
TRASH
100
AcDbPolyline
 62
7
  6
CONTINUOUS
 90
3
 70
0
 10
163.9117598333
 20
129.1424438322
 10
163.8099408383
 20
129.1898455729
 10
163.7745549009
 20
129.2064138251
  0
LINE
  5
51D
100
AcDbEntity
  8
TRASH
100
AcDbLine
 62
7
  6
CONTINUOUS
 10
164.983944754
 20
130.166553121
 11
165.609218547
 21
129.8749778652
  0
LINE
  5
51E
100
AcDbEntity
  8
0
100
AcDbLine
 62
7
  6
CONTINUOUS
 10
165.0642212702
 20
130.1612499592
 11
165.0068504972
 21
130.1894588652
  0
LINE
  5
51F
100
AcDbEntity
  8
0
100
AcDbLine
 62
7
  6
CONTINUOUS
 10
165.095695789
 20
130.2783041629
 11
165.1733888152
 21
130.239807072
  0
LINE
  5
520
100
AcDbEntity
  8
0
100
AcDbLine
 62
7
  6
CONTINUOUS
 10
165.1733888152
 20
130.239807072
 11
165.2767785837
 21
130.1879325178
  0
LINE
  5
521
100
AcDbEntity
  8
0
100
AcDbLine
 62
7
  6
CONTINUOUS
 10
165.2767785837
 20
130.1879325178
 11
165.4061308037
 21
130.1222004544
  0
LINE
  5
522
100
AcDbEntity
  8
0
100
AcDbLine
 62
7
  6
CONTINUOUS
 10
165.4061308037
 20
130.1222004544
 11
165.5880808155
 21
130.0286057379
  0
LINE
  5
523
100
AcDbEntity
  8
0
100
AcDbLine
 62
7
  6
CONTINUOUS
 10
165.5880808155
 20
130.0286057379
 11
165.6403236862
 21
130.0015470424
  0
LINE
  5
524
100
AcDbEntity
  8
RACCORDO
100
AcDbLine
 62
7
  6
CONTINUOUS
 10
175.2142212702
 20
130.1617407012
 11
175.3435595743
 21
130.0549848044
  0
LINE
  5
525
100
AcDbEntity
  8
ASSI
100
AcDbLine
 62
7
  6
CONTINUOUS
 10
189.6960802702
 20
118.8444846371
 11
190.9658232702
 21
117.7744646371
  0
LINE
  5
526
100
AcDbEntity
  8
ASSI
100
AcDbLine
 62
7
  6
CONTINUOUS
 10
190.9658232702
 20
118.3596676371
 11
189.6374732702
 21
119.4790766371
  0
LWPOLYLINE
  5
527
100
AcDbEntity
  8
RACCORDO
100
AcDbPolyline
 62
7
  6
CONTINUOUS
 90
4
 70
0
 10
209.5142212702
 20
100.7629356906
 10
209.5123404284
 20
100.7650736295
 10
209.5067463694
 20
100.7694869815
 10
209.4847574208
 20
100.7853640662
  0
LINE
  5
528
100
AcDbEntity
  8
0
100
AcDbLine
 62
7
  6
CONTINUOUS
 10
191.5320356094
 20
128.8822990049
 11
191.6024564103
 21
128.7438011876
  0
LINE
  5
529
100
AcDbEntity
  8
0
100
AcDbLine
 62
7
  6
CONTINUOUS
 10
191.4764788514
 20
128.9930450847
 11
191.5320356094
 21
128.8822990049
  0
LINE
  5
52A
100
AcDbEntity
  8
0
100
AcDbLine
 62
7
  6
CONTINUOUS
 10
191.3642212702
 20
128.9517673798
 11
191.3327467514
 21
129.0153551113
  0
LWPOLYLINE
  5
52B
100
AcDbEntity
  8
0
100
AcDbPolyline
 62
7
  6
CONTINUOUS
 90
3
 70
0
 10
191.4215920431
 20
129.104200409
 10
191.4352546467
 20
129.0763554041
 10
191.4764788514
 20
128.9930450847
  0
LINE
  5
52C
100
AcDbEntity
  8
0
100
AcDbLine
 62
7
  6
CONTINUOUS
 10
190.8421149832
 20
129.8856520097
 11
190.7881189467
 21
130.0015470904
  0
LINE
  5
52D
100
AcDbEntity
  8
TRASH
100
AcDbLine
 62
7
  6
CONTINUOUS
 10
191.736073052
 20
128.501832367
 11
191.4444977863
 21
129.1271061532
  0
LINE
  5
52E
100
AcDbEntity
  8
0
100
AcDbLine
 62
7
  6
CONTINUOUS
 10
190.819224
 20
129.8749778552
 11
190.7698181395
 21
129.989174123
  0
LINE
  5
52F
100
AcDbEntity
  8
ASSI
100
AcDbLine
 62
7
  6
CONTINUOUS
 10
204.3142212702
 20
73.6968296371
 11
204.3142212702
 21
76.0968296371
  0
LINE
  5
530
100
AcDbEntity
  8
DRAFT
100
AcDbLine
 62
7
  6
CONTINUOUS
 10
205.4860015568
 20
86.3968296371
 11
205.4860015568
 21
86.9944489229
  0
LINE
  5
531
100
AcDbEntity
  8
DRAFT
100
AcDbLine
 62
7
  6
CONTINUOUS
 10
205.4860015568
 20
87.1397785443
 11
205.4860015568
 21
110.6538807299
  0
LINE
  5
532
100
AcDbEntity
  8
DRAFT
100
AcDbLine
 62
7
  6
CONTINUOUS
 10
205.4860015568
 20
110.7992103513
 11
205.4860015568
 21
111.3968296371
  0
LINE
  5
533
100
AcDbEntity
  8
DRAFT
100
AcDbLine
 62
7
  6
CONTINUOUS
 10
205.6387217431
 20
86.7355478868
 11
205.6387217431
 21
86.9277963691
  0
LINE
  5
534
100
AcDbEntity
  8
DRAFT
100
AcDbLine
 62
7
  6
CONTINUOUS
 10
205.6387217431
 20
87.5059356989
 11
205.6387217431
 21
110.2877235753
  0
LINE
  5
535
100
AcDbEntity
  8
DRAFT
100
AcDbLine
 62
7
  6
CONTINUOUS
 10
205.6387217431
 20
110.8658629051
 11
205.6387217431
 21
111.0581113874
  0
LINE
  5
536
100
AcDbEntity
  8
0
100
AcDbLine
 62
7
  6
CONTINUOUS
 10
193.1092608533
 20
68.3751829082
 11
193.125419697
 21
68.4132770844
  0
LINE
  5
537
100
AcDbEntity
  8
0
100
AcDbLine
 62
7
  6
CONTINUOUS
 10
193.125419697
 20
68.4132770844
 11
193.1417967781
 21
68.4513265136
  0
LINE
  5
538
100
AcDbEntity
  8
0
100
AcDbLine
 62
7
  6
CONTINUOUS
 10
193.1417967781
 20
68.4513265136
 11
193.1583920966
 21
68.4893311958
  0
LINE
  5
539
100
AcDbEntity
  8
0
100
AcDbLine
 62
7
  6
CONTINUOUS
 10
193.1403236862
 20
68.5015470424
 11
193.0863275639
 21
68.3856520196
  0
LINE
  5
53A
100
AcDbEntity
  8
TRASH
100
AcDbLine
 62
7
  6
CONTINUOUS
 10
192.4839387051
 20
67.6271028549
 11
192.1923694982
 21
67.0018323602
  0
LINE
  5
53B
100
AcDbEntity
  8
0
100
AcDbLine
 62
7
  6
CONTINUOUS
 10
192.4659687085
 20
67.5212277405
 11
192.5068504954
 21
67.6042004336
  0
LINE
  5
53C
100
AcDbEntity
  8
0
100
AcDbLine
 62
7
  6
CONTINUOUS
 10
192.595695674
 20
67.5153554072
 11
192.5642212702
 21
67.4517679137
  0
LINE
  5
53D
100
AcDbEntity
  8
0
100
AcDbLine
 62
7
  6
CONTINUOUS
 10
192.4247903569
 20
67.4386843107
 11
192.4659687085
 21
67.5212277405
  0
LINE
  5
53E
100
AcDbEntity
  8
0
100
AcDbLine
 62
7
  6
CONTINUOUS
 10
192.3691240651
 20
67.3284236515
 11
192.4247903569
 21
67.4386843107
  0
LINE
  5
53F
100
AcDbEntity
  8
0
100
AcDbLine
 62
7
  6
CONTINUOUS
 10
192.2980857573
 20
67.1893785687
 11
192.3691240651
 21
67.3284236515
  0
LWPOLYLINE
  5
540
100
AcDbEntity
  8
0
100
AcDbPolyline
 62
7
  6
CONTINUOUS
 90
3
 70
0
 10
191.7172909393
 20
69.2726701149
 10
191.7027102295
 20
69.2445381187
 10
191.6017528236
 20
69.0484825483
  0
LINE
  5
541
100
AcDbEntity
  8
0
100
AcDbLine
 62
7
  6
CONTINUOUS
 10
192.211151601
 20
67.0209891593
 11
192.2980857573
 21
67.1893785687
  0
LINE
  5
542
100
AcDbEntity
  8
0
100
AcDbLine
 62
7
  6
CONTINUOUS
 10
191.7312639857
 20
69.2933375927
 11
191.7172909393
 21
69.2726701149
  0
LINE
  5
543
100
AcDbEntity
  8
0
100
AcDbLine
 62
7
  6
CONTINUOUS
 10
192.1971785546
 20
67.0003216815
 11
192.211151601
 21
67.0209891593
  0
LWPOLYLINE
  5
544
100
AcDbEntity
  8
RACCORDO
100
AcDbPolyline
 62
7
  6
CONTINUOUS
 90
7
 70
0
 10
180.7848870783
 20
64.2285443928
 10
180.8106115987
 20
64.2546766869
 10
180.8367177669
 20
64.2807092215
 10
180.8629846823
 20
64.3066419968
 10
180.8891343013
 20
64.332738935
 10
180.9149337893
 20
64.3587361138
 10
180.9644863967
 20
64.4081021848
  0
LWPOLYLINE
  5
545
100
AcDbEntity
  8
RACCORDO
100
AcDbPolyline
 62
7
  6
CONTINUOUS
 90
9
 70
0
 10
180.9644863967
 20
64.4081021848
 10
180.9875801303
 20
64.4314710771
 10
181.0093604856
 20
64.4530178001
 10
181.0292957117
 20
64.4729369244
 10
181.046969166
 20
64.4910338796
 10
181.0621369965
 20
64.505794311
 10
181.0741010717
 20
64.5167134338
 10
181.0819493654
 20
64.5242960329
 10
181.084882966
 20
64.5285421083
  0
LINE
  5
546
100
AcDbEntity
  8
DRAFT
100
AcDbLine
 62
7
  6
CONTINUOUS
 10
190.0615010838
 20
71.7441094508
 11
190.2142212702
 21
71.8968296371
  0
LINE
  5
547
100
AcDbEntity
  8
ASSI
100
AcDbLine
 62
7
  6
CONTINUOUS
 10
203.4142212702
 20
124.9968296371
 11
201.0142212702
 21
124.9968296371
  0
LINE
  5
548
100
AcDbEntity
  8
ASSI
100
AcDbLine
 62
7
  6
CONTINUOUS
 10
155.4142212702
 20
124.9968296371
 11
153.0142212702
 21
124.9968296371
  0
LINE
  5
549
100
AcDbEntity
  8
DRAFT
100
AcDbLine
 62
7
  6
CONTINUOUS
 10
190.2142212702
 20
125.8968296371
 11
166.2142212702
 21
125.8968296371
  0
LINE
  5
54A
100
AcDbEntity
  8
DRAFT
100
AcDbLine
 62
7
  6
CONTINUOUS
 10
190.0615010838
 20
126.0495498234
 11
166.3669414565
 21
126.0495498234
  0
LINE
  5
54B
100
AcDbEntity
  8
DRAFT
100
AcDbLine
 62
7
  6
CONTINUOUS
 10
175.5142212702
 20
127.5968296371
 11
175.5894157421
 21
127.5968296371
  0
LINE
  5
54C
100
AcDbEntity
  8
DRAFT
100
AcDbLine
 62
7
  6
CONTINUOUS
 10
180.8390267982
 20
127.5968296371
 11
180.9142212702
 21
127.5968296371
  0
LINE
  5
54D
100
AcDbEntity
  8
RACCORDO
100
AcDbLine
 62
7
  6
CONTINUOUS
 10
175.5142212702
 20
127.7314176847
 11
176.2895615648
 21
127.7314176847
  0
LINE
  5
54E
100
AcDbEntity
  8
RACCORDO
100
AcDbLine
 62
7
  6
CONTINUOUS
 10
180.1388809755
 20
127.7314176847
 11
180.9142212702
 21
127.7314176847
  0
LINE
  5
54F
100
AcDbEntity
  8
RACCORDO
100
AcDbLine
 62
250
  6
CONTINUOUS
 10
175.5142212702
 20
128.5314067185
 11
175.9940937759
 21
128.5314067185
  0
LINE
  5
550
100
AcDbEntity
  8
RACCORDO
100
AcDbLine
 62
250
  6
CONTINUOUS
 10
180.4343487644
 20
128.5314067185
 11
180.9142212702
 21
128.5314067185
  0
LINE
  5
551
100
AcDbEntity
  8
0
100
AcDbLine
 62
7
  6
CONTINUOUS
 10
162.6883794977
 20
129.4188686589
 11
163.2700504437
 21
129.3043280783
  0
LINE
  5
552
100
AcDbEntity
  8
0
100
AcDbLine
 62
7
  6
CONTINUOUS
 10
166.2400630426
 20
129.8747906153
 11
165.6583920966
 21
129.9893311958
  0
LWPOLYLINE
  5
553
100
AcDbEntity
  8
RACCORDO
100
AcDbPolyline
 62
7
  6
CONTINUOUS
 90
7
 70
0
 10
180.7848870783
 20
133.5651148814
 10
180.811092023
 20
133.539316468
 10
180.8371730301
 20
133.5131616937
 10
180.8631300998
 20
133.4868718599
 10
180.889221114
 20
133.4607282684
 10
180.9151881908
 20
133.4349575605
 10
180.9644759422
 20
133.3854870127
  0
LWPOLYLINE
  5
554
100
AcDbEntity
  8
RACCORDO
100
AcDbPolyline
 62
7
  6
CONTINUOUS
 90
9
 70
0
 10
180.9644759422
 20
133.3854870127
 10
180.9877966169
 20
133.3624406671
 10
181.0093070148
 20
133.3406949449
 10
181.0292084874
 20
133.3207607749
 10
181.0472996833
 20
133.3030820905
 10
181.0620638555
 20
133.2879381042
 10
181.0729954216
 20
133.2760057892
 10
181.0805999641
 20
133.2681481614
 10
181.084877483
 20
133.2651263045
  0
LINE
  5
555
100
AcDbEntity
  8
DRAFT
100
AcDbLine
 62
7
  6
CONTINUOUS
 10
190.0615010838
 20
126.0495498234
 11
190.2142212702
 21
125.8968296371
  0
LINE
  5
556
100
AcDbEntity
  8
0
100
AcDbLine
 62
7
  6
CONTINUOUS
 10
191.7172908913
 20
128.5209892519
 11
191.7314983726
 21
128.4999750223
  0
LINE
  5
557
100
AcDbEntity
  8
0
100
AcDbLine
 62
7
  6
CONTINUOUS
 10
192.2111516491
 20
130.7726700223
 11
192.1969441777
 21
130.7936842371
  0
LINE
  5
558
100
AcDbEntity
  8
0
100
AcDbLine
 62
7
  6
CONTINUOUS
 10
192.3117792062
 20
130.5775956302
 11
192.2111516491
 21
130.7726700223
  0
LWPOLYLINE
  5
559
100
AcDbEntity
  8
0
100
AcDbPolyline
 62
7
  6
CONTINUOUS
 90
3
 70
0
 10
191.6024564103
 20
128.7438011876
 10
191.6166633342
 20
128.716063644
 10
191.7172908913
 20
128.5209892519
  0
LINE
  5
55A
100
AcDbEntity
  8
0
100
AcDbLine
 62
7
  6
CONTINUOUS
 10
192.3824058455
 20
130.4390455211
 11
192.3117792062
 21
130.5775956302
  0
LINE
  5
55B
100
AcDbEntity
  8
0
100
AcDbLine
 62
7
  6
CONTINUOUS
 10
192.4381441242
 20
130.3283060663
 11
192.3824058455
 21
130.4390455211
  0
LINE
  5
55C
100
AcDbEntity
  8
0
100
AcDbLine
 62
7
  6
CONTINUOUS
 10
192.4794855737
 20
130.2451130913
 11
192.4381441242
 21
130.3283060663
  0
LINE
  5
55D
100
AcDbEntity
  8
0
100
AcDbLine
 62
7
  6
CONTINUOUS
 10
192.5642212702
 20
130.3418918944
 11
192.595695789
 21
130.2783041629
  0
LINE
  5
55E
100
AcDbEntity
  8
0
100
AcDbLine
 62
7
  6
CONTINUOUS
 10
192.5068504972
 20
130.1894588652
 11
192.4794855737
 21
130.2451130913
  0
LINE
  5
55F
100
AcDbEntity
  8
0
100
AcDbLine
 62
7
  6
CONTINUOUS
 10
193.0863275572
 20
129.4080072645
 11
193.1403235936
 21
129.2921121838
  0
LINE
  5
560
100
AcDbEntity
  8
TRASH
100
AcDbLine
 62
7
  6
CONTINUOUS
 10
192.1923694883
 20
130.7918269072
 11
192.483944754
 21
130.166553121
  0
LINE
  5
561
100
AcDbEntity
  8
0
100
AcDbLine
 62
7
  6
CONTINUOUS
 10
193.1092185403
 20
129.418681419
 11
193.1586244006
 21
129.3044851511
  0
LINE
  5
562
100
AcDbEntity
  8
DRAFT
100
AcDbLine
 62
7
  6
CONTINUOUS
 10
208.1441796035
 20
100.9456327426
 11
208.1274853319
 21
101.1764421422
  0
LINE
  5
563
100
AcDbEntity
  8
RACCORDO
100
AcDbLine
 62
250
  6
CONTINUOUS
 10
208.7142212702
 20
96.1968296371
 11
208.7142212702
 21
96.6710362288
  0
LINE
  5
564
100
AcDbEntity
  8
RACCORDO
100
AcDbLine
 62
250
  6
CONTINUOUS
 10
208.7142212702
 20
101.1226230454
 11
208.7142212702
 21
101.5968296371
  0
LINE
  5
565
100
AcDbEntity
  8
RACCORDO
100
AcDbLine
 62
7
  6
CONTINUOUS
 10
209.5142212702
 20
96.1968296371
 11
209.5142212702
 21
97.0307235836
  0
LINE
  5
566
100
AcDbEntity
  8
RACCORDO
100
AcDbLine
 62
7
  6
CONTINUOUS
 10
209.5142212702
 20
100.7629356906
 11
209.5142212702
 21
101.5968296371
  0
LINE
  5
567
100
AcDbEntity
  8
DRAFT
100
AcDbLine
 62
7
  6
CONTINUOUS
 10
208.1441796035
 20
96.8480265316
 11
208.1274853319
 21
96.617217132
  0
LWPOLYLINE
  5
568
100
AcDbEntity
  8
RACCORDO
100
AcDbPolyline
 62
7
  6
CONTINUOUS
 90
10
 70
0
 10
212.7522375463
 20
86.5667073443
 10
212.7027578853
 20
86.5170374118
 10
212.6793320035
 20
86.493888721
 10
212.6577473417
 20
86.4720704644
 10
212.637813432
 20
86.4521323093
 10
212.6197207422
 20
86.4344730721
 10
212.6049904459
 20
86.4193135686
 10
212.5941296008
 20
86.407371939
 10
212.5866311492
 20
86.3996004489
 10
212.5824950909
 20
86.3968296371
  0
LINE
  5
569
100
AcDbEntity
  8
0
100
AcDbLine
 62
7
  6
CONTINUOUS
 10
191.3327467514
 20
67.5153551113
 11
191.3642212702
 21
67.5468296307
  0
LINE
  5
56A
100
AcDbEntity
  8
0
100
AcDbLine
 62
7
  6
CONTINUOUS
 10
191.4215920431
 20
67.604200409
 11
191.444497786
 21
67.6271061529
  0
LINE
  5
56B
100
AcDbEntity
  8
0
100
AcDbLine
 62
7
  6
CONTINUOUS
 10
192.4839447543
 20
68.6665531213
 11
192.5068504972
 21
68.6894588652
  0
LINE
  5
56C
100
AcDbEntity
  8
0
100
AcDbLine
 62
7
  6
CONTINUOUS
 10
192.5642212702
 20
68.7468296435
 11
192.595695789
 21
68.7783041629
  0
LINE
  5
56D
100
AcDbEntity
  8
DRAFT
100
AcDbLine
 62
7
  6
CONTINUOUS
 10
190.0615010838
 20
64.7441094508
 11
190.2142212702
 21
64.8968296371
  0
LWPOLYLINE
  5
56E
100
AcDbEntity
  8
RACCORDO
100
AcDbPolyline
 62
7
  6
CONTINUOUS
 90
6
 70
0
 10
212.8825065144
 20
86.6968296371
 10
212.8563986794
 20
86.6711323315
 10
212.8303718919
 20
86.6450317163
 10
212.804426152
 20
86.6187492747
 10
212.7782913253
 20
86.5925614772
 10
212.7522375463
 20
86.5667073443
  0
LINE
  5
56F
100
AcDbEntity
  8
0
100
AcDbLine
 62
7
  6
CONTINUOUS
 10
190.7881189467
 20
68.5015470904
 11
190.7698181395
 21
68.489174123
  0
LINE
  5
570
100
AcDbEntity
  8
0
100
AcDbLine
 62
7
  6
CONTINUOUS
 10
190.7881189467
 20
68.5015470904
 11
190.9692608988
 21
68.5950286053
  0
LINE
  5
571
100
AcDbEntity
  8
0
100
AcDbLine
 62
7
  6
CONTINUOUS
 10
190.9692608988
 20
68.5950286053
 11
191.090102363
 21
68.6567629873
  0
LINE
  5
572
100
AcDbEntity
  8
0
100
AcDbLine
 62
7
  6
CONTINUOUS
 10
191.090102363
 20
68.6567629873
 11
191.2112440033
 21
68.7178684972
  0
LWPOLYLINE
  5
573
100
AcDbEntity
  8
0
100
AcDbPolyline
 62
7
  6
CONTINUOUS
 90
10
 70
0
 43
0.3500000006
 10
249.0342280884
 20
100.1825418091
 10
249.1770723267
 20
100.2539729919
 10
249.2485125732
 20
100.2539729919
 10
249.3913568115
 20
100.1111196899
 10
249.3913568115
 20
100.0396885071
 10
249.3199346924
 20
99.9682573242
 10
249.2485125732
 20
99.9682573242
 10
249.1056502075
 20
100.0396885071
 10
249.0342280884
 20
100.1111196899
 10
249.0342280884
 20
100.1825418091
  0
LINE
  5
574
100
AcDbEntity
  8
0
100
AcDbLine
 62
7
  6
CONTINUOUS
 10
191.2112440033
 20
68.7178684972
 11
191.3327468664
 21
68.778303867
  0
LINE
  5
575
100
AcDbEntity
  8
0
100
AcDbLine
 62
7
  6
CONTINUOUS
 10
191.421592045
 20
68.6894588406
 11
191.3642212702
 21
68.6612494813
  0
LINE
  5
576
100
AcDbEntity
  8
TRASH
100
AcDbLine
 62
7
  6
CONTINUOUS
 10
190.819224
 20
68.3749778552
 11
191.4444944879
 21
68.6665470721
  0
LINE
  5
577
100
AcDbEntity
  8
0
100
AcDbLine
 62
7
  6
CONTINUOUS
 10
192.2030436427
 20
69.2689359241
 11
192.2111516491
 21
69.2726700223
  0
LWPOLYLINE
  5
578
100
AcDbEntity
  8
0
100
AcDbPolyline
 62
7
  6
CONTINUOUS
 90
7
 70
0
 10
192.1969441777
 20
69.2936842371
 10
192.1962000711
 20
69.293347445
 10
192.1954486278
 20
69.2930215478
 10
192.1946898479
 20
69.2927065454
 10
192.1939237313
 20
69.2924024379
 10
192.1931502781
 20
69.2921092251
 10
192.1923694883
 20
69.2918269072
  0
LWPOLYLINE
  5
579
100
AcDbEntity
  8
RACCORDO
100
AcDbPolyline
 62
7
  6
CONTINUOUS
 90
4
 70
0
 10
175.3647864253
 20
130.0573375748
 10
175.3531756514
 20
130.0561867063
 10
175.3460681674
 20
130.0554024495
 10
175.3435595743
 20
130.0549848044
  0
LWPOLYLINE
  5
57A
100
AcDbEntity
  8
RACCORDO
100
AcDbPolyline
 62
7
  6
CONTINUOUS
 90
6
 70
0
 10
175.5142212702
 20
130.0660822191
 10
175.481781724
 20
130.0653358638
 10
175.4517619184
 20
130.0643050743
 10
175.4246395239
 20
130.0629898507
 10
175.4008297772
 20
130.0611731776
 10
175.3647864253
 20
130.0573375748
  0
LINE
  5
57B
100
AcDbEntity
  8
RACCORDO
100
AcDbLine
 62
250
  6
CONTINUOUS
 10
180.9142212702
 20
129.2622525557
 11
180.4343487644
 21
129.2622525557
  0
LINE
  5
57C
100
AcDbEntity
  8
RACCORDO
100
AcDbLine
 62
250
  6
CONTINUOUS
 10
175.9940937759
 20
129.2622525557
 11
175.5142212702
 21
129.2622525557
  0
LINE
  5
57D
100
AcDbEntity
  8
RACCORDO
100
AcDbLine
 62
7
  6
CONTINUOUS
 10
180.9142212702
 20
130.0622415895
 11
180.1388809755
 21
130.0622415895
  0
LINE
  5
57E
100
AcDbEntity
  8
RACCORDO
100
AcDbLine
 62
7
  6
CONTINUOUS
 10
176.2895615648
 20
130.0622415895
 11
175.5142212702
 21
130.0622415895
  0
LINE
  5
57F
100
AcDbEntity
  8
0
100
AcDbLine
 62
7
  6
CONTINUOUS
 10
165.6092291943
 20
129.4186368922
 11
166.2400374817
 21
129.4186696251
  0
LINE
  5
580
100
AcDbEntity
  8
0
100
AcDbLine
 62
7
  6
CONTINUOUS
 10
193.1092291943
 20
129.4186368922
 11
193.7400374817
 21
129.4186696251
  0
LINE
  5
581
100
AcDbEntity
  8
0
100
AcDbLine
 62
7
  6
CONTINUOUS
 10
162.6884050587
 20
129.8749896494
 11
163.319213347
 21
129.8750223771
  0
LINE
  5
582
100
AcDbEntity
  8
0
100
AcDbLine
 62
7
  6
CONTINUOUS
 10
190.1884050587
 20
129.8749896494
 11
190.819213347
 21
129.8750223771
  0
LINE
  5
583
100
AcDbEntity
  8
0
100
AcDbLine
 62
7
  6
CONTINUOUS
 10
163.3191816871
 20
129.418476366
 11
162.6883794977
 21
129.4188686589
  0
LINE
  5
584
100
AcDbEntity
  8
0
100
AcDbLine
 62
7
  6
CONTINUOUS
 10
190.8191816871
 20
129.418476366
 11
190.1883794977
 21
129.4188686589
  0
LINE
  5
585
100
AcDbEntity
  8
0
100
AcDbLine
 62
7
  6
CONTINUOUS
 10
165.6092608533
 20
129.8751829082
 11
166.2400630426
 21
129.8747906153
  0
LINE
  5
586
100
AcDbEntity
  8
0
100
AcDbLine
 62
7
  6
CONTINUOUS
 10
193.1092608533
 20
129.8751829082
 11
193.7400630426
 21
129.8747906153
  0
LWPOLYLINE
  5
587
100
AcDbEntity
  8
RACCORDO
100
AcDbPolyline
 62
7
  6
CONTINUOUS
 90
5
 70
0
 10
181.0276080904
 20
130.0611735563
 10
181.0037972567
 20
130.0629902609
 10
180.9766752228
 20
130.064305419
 10
180.946657268
 20
130.0653360718
 10
180.9142212702
 20
130.0660822191
  0
LWPOLYLINE
  5
588
100
AcDbEntity
  8
RACCORDO
100
AcDbPolyline
 62
7
  6
CONTINUOUS
 90
5
 70
0
 10
181.084882966
 20
130.0549848044
 10
181.0823741926
 20
130.0554025035
 10
181.0752661869
 20
130.0561868199
 10
181.0636545642
 20
130.0573377539
 10
181.0276080904
 20
130.0611735563
  0
LINE
  5
589
100
AcDbEntity
  8
0
100
AcDbLine
 62
7
  6
CONTINUOUS
 10
190.1883794977
 20
129.4188686589
 11
190.7700504437
 21
129.3043280783
  0
LINE
  5
58A
100
AcDbEntity
  8
0
100
AcDbLine
 62
7
  6
CONTINUOUS
 10
193.7400630426
 20
129.8747906153
 11
193.1583920966
 21
129.9893311958
  0
LINE
  5
58B
100
AcDbEntity
  8
0
100
AcDbLine
 62
7
  6
CONTINUOUS
 10
192.211151601
 20
128.5209891593
 11
192.2030436526
 21
128.5247233434
  0
LINE
  5
58C
100
AcDbEntity
  8
TRASH
100
AcDbLine
 62
7
  6
CONTINUOUS
 10
191.4444977863
 20
129.1271061532
 11
190.8192239933
 21
129.418681409
  0
LINE
  5
58D
100
AcDbEntity
  8
0
100
AcDbLine
 62
7
  6
CONTINUOUS
 10
191.3642212702
 20
129.132409315
 11
191.4215920431
 21
129.104200409
  0
LINE
  5
58E
100
AcDbEntity
  8
0
100
AcDbLine
 62
7
  6
CONTINUOUS
 10
191.3327467514
 20
129.0153551113
 11
191.2550537251
 21
129.0538522022
  0
LINE
  5
58F
100
AcDbEntity
  8
0
100
AcDbLine
 62
7
  6
CONTINUOUS
 10
191.2550537251
 20
129.0538522022
 11
191.1516639567
 21
129.1057267563
  0
LINE
  5
590
100
AcDbEntity
  8
0
100
AcDbLine
 62
7
  6
CONTINUOUS
 10
191.1516639567
 20
129.1057267563
 11
191.0223117367
 21
129.1714588198
  0
LINE
  5
591
100
AcDbEntity
  8
0
100
AcDbLine
 62
7
  6
CONTINUOUS
 10
191.0223117367
 20
129.1714588198
 11
190.8403617249
 21
129.2650535363
  0
LINE
  5
592
100
AcDbEntity
  8
0
100
AcDbLine
 62
7
  6
CONTINUOUS
 10
190.8403617249
 20
129.2650535363
 11
190.7881188541
 21
129.2921122318
  0
LWPOLYLINE
  5
593
100
AcDbEntity
  8
0
100
AcDbPolyline
 62
7
  6
CONTINUOUS
 90
7
 70
0
 10
192.1971785546
 20
128.5003216815
 10
192.196461217
 20
128.5006984349
 10
192.1957102106
 20
128.5010251988
 10
192.1949255355
 20
128.5013019733
 10
192.1941071918
 20
128.5015287584
 10
192.1932551794
 20
128.501705554
 10
192.1923694982
 20
128.5018323602
  0
LINE
  5
594
100
AcDbEntity
  8
0
100
AcDbLine
 62
7
  6
CONTINUOUS
 10
190.7700504437
 20
129.3043280783
 11
190.7881188541
 21
129.2921122318
  0
LWPOLYLINE
  5
595
100
AcDbEntity
  8
RACCORDO
100
AcDbPolyline
 62
7
  6
CONTINUOUS
 90
7
 70
0
 10
212.8825065144
 20
111.0968296371
 10
212.8563986794
 20
111.1225269426
 10
212.8303718919
 20
111.1486275579
 10
212.804426152
 20
111.1749099995
 10
212.7782913253
 20
111.201097797
 10
212.7522375463
 20
111.2269519299
 10
212.7027578853
 20
111.2766218624
  0
LWPOLYLINE
  5
596
100
AcDbEntity
  8
RACCORDO
100
AcDbPolyline
 62
7
  6
CONTINUOUS
 90
9
 70
0
 10
212.7027578853
 20
111.2766218624
 10
212.6793320035
 20
111.2997705532
 10
212.6577473417
 20
111.3215888098
 10
212.637813432
 20
111.3415269649
 10
212.6197207422
 20
111.3591862021
 10
212.6049904459
 20
111.3743457056
 10
212.5941296008
 20
111.3862873352
 10
212.5866311492
 20
111.3940588253
 10
212.5824950909
 20
111.3968296371
  0
LINE
  5
597
100
AcDbEntity
  8
0
100
AcDbLine
 62
7
  6
CONTINUOUS
 10
192.4839447543
 20
129.1271061529
 11
192.5068504954
 21
129.1042004336
  0
LINE
  5
598
100
AcDbEntity
  8
0
100
AcDbLine
 62
7
  6
CONTINUOUS
 10
191.3642212702
 20
130.2468294953
 11
191.3327468664
 21
130.278303867
  0
LINE
  5
599
100
AcDbEntity
  8
0
100
AcDbLine
 62
7
  6
CONTINUOUS
 10
191.444497786
 20
130.1665531213
 11
191.421592045
 21
130.1894588406
  0
LINE
  5
59A
100
AcDbEntity
  8
0
100
AcDbLine
 62
7
  6
CONTINUOUS
 10
192.5642212702
 20
129.0468297789
 11
192.595695674
 21
129.0153554072
  0
LINE
  5
59B
100
AcDbEntity
  8
DRAFT
100
AcDbLine
 62
7
  6
CONTINUOUS
 10
190.0615010838
 20
133.0495498234
 11
190.2142212702
 21
132.8968296371
  0
LWPOLYLINE
  5
59C
100
AcDbEntity
  8
0
100
AcDbPolyline
 62
7
  6
CONTINUOUS
 90
10
 70
0
 43
0.3500000006
 10
179.4999369507
 20
168.2168234253
 10
179.5713590698
 20
168.073979187
 10
179.5713590698
 20
168.0025389404
 10
179.4285148315
 20
167.8596947021
 10
179.357074585
 20
167.8596947021
 10
179.2856524658
 20
167.9311168213
 10
179.2856524658
 20
168.0025389404
 10
179.357074585
 20
168.1454013062
 10
179.4285148315
 20
168.2168234253
 10
179.4999369507
 20
168.2168234253
  0
LINE
  5
59D
100
AcDbEntity
  8
DRAFT
100
AcDbLine
 62
7
  6
CONTINUOUS
 10
212.2142212702
 20
64.8968296371
 11
212.2142212702
 21
86.3968296371
  0
LINE
  5
59E
100
AcDbEntity
  8
DRAFT
100
AcDbLine
 62
7
  6
CONTINUOUS
 10
212.2142212702
 20
111.3968296371
 11
212.2142212702
 21
132.8968296371
  0
LINE
  5
59F
100
AcDbEntity
  8
RACCORDO
100
AcDbLine
 62
7
  6
CONTINUOUS
 10
212.5825179375
 20
133.2651263045
 11
212.5825179375
 21
111.3968296371
  0
LINE
  5
5A0
100
AcDbEntity
  8
RACCORDO
100
AcDbLine
 62
7
  6
CONTINUOUS
 10
212.5825179375
 20
86.3968296371
 11
212.5825179375
 21
64.5285329697
  0
LINE
  5
5A1
100
AcDbEntity
  8
RACCORDO
100
AcDbLine
 62
250
  6
CONTINUOUS
 10
212.8825065144
 20
133.5651148814
 11
212.8825065144
 21
111.0968296371
  0
LINE
  5
5A2
100
AcDbEntity
  8
RACCORDO
100
AcDbLine
 62
250
  6
CONTINUOUS
 10
212.8825065144
 20
86.6968296371
 11
212.8825065144
 21
64.2285443928
  0
LINE
  5
5A3
100
AcDbEntity
  8
0
100
AcDbLine
 62
7
  6
CONTINUOUS
 10
193.1403235936
 20
67.7921121838
 11
193.1586244006
 21
67.8044851511
  0
LINE
  5
5A4
100
AcDbEntity
  8
0
100
AcDbLine
 62
7
  6
CONTINUOUS
 10
193.1403235936
 20
67.7921121838
 11
192.9591816415
 21
67.6986306689
  0
LINE
  5
5A5
100
AcDbEntity
  8
0
100
AcDbLine
 62
7
  6
CONTINUOUS
 10
192.9591816415
 20
67.6986306689
 11
192.8383401774
 21
67.6368962869
  0
LINE
  5
5A6
100
AcDbEntity
  8
0
100
AcDbLine
 62
7
  6
CONTINUOUS
 10
192.8383401774
 20
67.6368962869
 11
192.717198537
 21
67.575790777
  0
LINE
  5
5A7
100
AcDbEntity
  8
0
100
AcDbLine
 62
7
  6
CONTINUOUS
 10
192.717198537
 20
67.575790777
 11
192.595695674
 21
67.5153554072
  0
LINE
  5
5A8
100
AcDbEntity
  8
0
100
AcDbLine
 62
7
  6
CONTINUOUS
 10
192.5068504954
 20
67.6042004336
 11
192.5642212702
 21
67.6324097929
  0
LINE
  5
5A9
100
AcDbEntity
  8
TRASH
100
AcDbLine
 62
7
  6
CONTINUOUS
 10
193.1092185403
 20
67.918681419
 11
192.4839480524
 21
67.6271122021
  0
LINE
  5
5AA
100
AcDbEntity
  8
0
100
AcDbLine
 62
7
  6
CONTINUOUS
 10
191.7253988976
 20
67.0247233501
 11
191.7172908913
 21
67.0209892519
  0
LINE
  5
5AB
100
AcDbEntity
  8
DRAFT
100
AcDbLine
 62
7
  6
CONTINUOUS
 10
212.2142212702
 20
132.8968296371
 11
195.3706789669
 21
132.8968296371
  0
LINE
  5
5AC
100
AcDbEntity
  8
DRAFT
100
AcDbLine
 62
7
  6
CONTINUOUS
 10
194.0248199324
 20
132.8968296371
 11
190.2142212702
 21
132.8968296371
  0
LINE
  5
5AD
100
AcDbEntity
  8
DRAFT
100
AcDbLine
 62
7
  6
CONTINUOUS
 10
166.2142212702
 20
132.8968296371
 11
162.4036226079
 21
132.8968296371
  0
LINE
  5
5AE
100
AcDbEntity
  8
DRAFT
100
AcDbLine
 62
7
  6
CONTINUOUS
 10
161.0577635734
 20
132.8968296371
 11
144.2142212702
 21
132.8968296371
  0
LINE
  5
5AF
100
AcDbEntity
  8
DRAFT
100
AcDbLine
 62
7
  6
CONTINUOUS
 10
190.0615010838
 20
133.0495498234
 11
181.2142212702
 21
133.0495498234
  0
LINE
  5
5B0
100
AcDbEntity
  8
DRAFT
100
AcDbLine
 62
7
  6
CONTINUOUS
 10
175.2142212702
 20
133.0495498234
 11
166.3669414565
 21
133.0495498234
  0
LINE
  5
5B1
100
AcDbEntity
  8
RACCORDO
100
AcDbLine
 62
7
  6
CONTINUOUS
 10
143.8459246028
 20
133.2651263045
 11
175.3435650574
 21
133.2651263045
  0
LINE
  5
5B2
100
AcDbEntity
  8
RACCORDO
100
AcDbLine
 62
7
  6
CONTINUOUS
 10
181.084877483
 20
133.2651263045
 11
212.5825179375
 21
133.2651263045
  0
LINE
  5
5B3
100
AcDbEntity
  8
RACCORDO
100
AcDbLine
 62
250
  6
CONTINUOUS
 10
143.5459360259
 20
133.5651148814
 11
175.643555462
 21
133.5651148814
  0
LINE
  5
5B4
100
AcDbEntity
  8
RACCORDO
100
AcDbLine
 62
250
  6
CONTINUOUS
 10
180.7848870783
 20
133.5651148814
 11
212.8825065144
 21
133.5651148814
  0
LINE
  5
5B5
100
AcDbEntity
  8
0
100
AcDbLine
 62
7
  6
CONTINUOUS
 10
191.7172909393
 20
130.7726701149
 11
191.7253988877
 21
130.7689359308
  0
LINE
  5
5B6
100
AcDbEntity
  8
TRASH
100
AcDbLine
 62
7
  6
CONTINUOUS
 10
192.483944754
 20
130.166553121
 11
193.109218547
 21
129.8749778652
  0
LINE
  5
5B7
100
AcDbEntity
  8
0
100
AcDbLine
 62
7
  6
CONTINUOUS
 10
192.5642212702
 20
130.1612499592
 11
192.5068504972
 21
130.1894588652
  0
LINE
  5
5B8
100
AcDbEntity
  8
0
100
AcDbLine
 62
7
  6
CONTINUOUS
 10
192.595695789
 20
130.2783041629
 11
192.6733888152
 21
130.239807072
  0
LINE
  5
5B9
100
AcDbEntity
  8
0
100
AcDbLine
 62
7
  6
CONTINUOUS
 10
192.6733888152
 20
130.239807072
 11
192.7767785837
 21
130.1879325178
  0
LINE
  5
5BA
100
AcDbEntity
  8
0
100
AcDbLine
 62
7
  6
CONTINUOUS
 10
192.7767785837
 20
130.1879325178
 11
192.9061308037
 21
130.1222004544
  0
LINE
  5
5BB
100
AcDbEntity
  8
0
100
AcDbLine
 62
7
  6
CONTINUOUS
 10
192.9061308037
 20
130.1222004544
 11
193.0880808155
 21
130.0286057379
  0
LINE
  5
5BC
100
AcDbEntity
  8
0
100
AcDbLine
 62
7
  6
CONTINUOUS
 10
193.0880808155
 20
130.0286057379
 11
193.1403236862
 21
130.0015470424
  0
LINE
  5
5BD
100
AcDbEntity
  8
0
100
AcDbLine
 62
7
  6
CONTINUOUS
 10
193.1583920966
 20
129.9893311958
 11
193.1403236862
 21
130.0015470424
  0
LINE
  5
5BE
100
AcDbEntity
  8
RACCORDO
100
AcDbLine
 62
250
  6
CONTINUOUS
 10
133.6920644607
 20
138.7194128676
 11
222.7363780796
 21
138.7194128676
  0
LINE
  5
5BF
100
AcDbEntity
  8
RACCORDO
100
AcDbLine
 62
250
  6
CONTINUOUS
 10
222.0368045007
 20
139.4189864465
 11
134.3916380397
 21
139.4189864465
  0
LINE
  5
5C0
100
AcDbEntity
  8
RACCORDO
100
AcDbLine
 62
7
  6
CONTINUOUS
 10
223.5846476912
 20
140.9668296371
 11
132.8437948491
 21
140.9668296371
  0
LWPOLYLINE
  5
5C1
100
AcDbEntity
  8
0
100
AcDbPolyline
 62
7
  6
CONTINUOUS
 90
10
 70
0
 43
0.3500000006
 10
238.5342158203
 20
97.611118927
 10
239.1770874023
 20
96.9682564087
 10
240.0342253418
 20
96.539687439
 10
241.1056477661
 20
96.539687439
 10
241.5342167358
 20
96.9682564087
 10
241.5342167358
 20
97.611118927
 10
241.1056477661
 20
98.0396878967
 10
240.2485098267
 20
98.0396878967
 10
239.8199408569
 20
97.611118927
 10
239.8199408569
 20
96.682540741
  0
LINE
  5
5C2
100
AcDbEntity
  8
RACCORDO
100
AcDbLine
 62
250
  6
CONTINUOUS
 10
222.0368045007
 20
58.3746728277
 11
222.0368045007
 21
139.4189864465
  0
LINE
  5
5C3
100
AcDbEntity
  8
RACCORDO
100
AcDbLine
 62
250
  6
CONTINUOUS
 10
222.7363780796
 20
59.0742464066
 11
222.7363780796
 21
138.7194128676
  0
LINE
  5
5C4
100
AcDbEntity
  8
RACCORDO
100
AcDbLine
 62
7
  6
CONTINUOUS
 10
224.2842212702
 20
57.526403216
 11
224.2842212702
 21
140.2672560582
  0
LWPOLYLINE
  5
5C5
100
AcDbEntity
  8
0
100
AcDbPolyline
 62
7
  6
CONTINUOUS
 90
13
 70
0
 43
0.3500000006
 10
231.8199384155
 20
99.3254038696
 10
231.6056539307
 20
99.0396882019
 10
230.9628004761
 20
99.0396882019
 10
230.5342133789
 20
99.3254038696
 10
230.5342133789
 20
99.9682573242
 10
230.9628004761
 20
100.2539729919
 10
231.6056539307
 20
100.2539729919
 10
231.8199384155
 20
99.9682573242
 10
232.2485073853
 20
100.3968262939
 10
233.1056453247
 20
100.3968262939
 10
233.5342142944
 20
99.9682573242
 10
233.5342142944
 20
99.3254038696
 10
233.1056453247
 20
98.8968258362
  0
LWPOLYLINE
  5
5C6
100
AcDbEntity
  8
RACCORDO
100
AcDbPolyline
 62
250
  6
CONTINUOUS
 90
13
 70
0
 10
222.0368045007
 20
139.4189864465
 10
222.1269040859
 20
139.4130503946
 10
222.2158512867
 20
139.395468028
 10
222.3021258184
 20
139.3663979046
 10
222.3843342527
 20
139.3261357314
 10
222.4608848718
 20
139.2752768818
 10
222.5301075908
 20
139.2148519692
 10
222.5907280889
 20
139.1460230092
 10
222.6418268198
 20
139.0698906131
 10
222.6825526352
 20
138.9877232924
 10
222.7122024466
 20
138.9009127214
 10
222.7302505897
 20
138.8109610556
 10
222.7363780796
 20
138.7194128676
  0
LWPOLYLINE
  5
5C7
100
AcDbEntity
  8
0
100
AcDbPolyline
 62
7
  6
CONTINUOUS
 90
13
 70
0
 43
0.3500000006
 10
178.6427990112
 20
153.43112146
 10
178.3570742798
 20
153.6454059448
 10
178.3570742798
 20
154.2882593994
 10
178.6427990112
 20
154.7168283691
 10
179.2856524658
 20
154.7168283691
 10
179.5713590698
 20
154.2882593994
 10
179.5713590698
 20
153.6454059448
 10
179.2856524658
 20
153.43112146
 10
179.7142214355
 20
153.0025524902
 10
179.7142214355
 20
152.1453964233
 10
179.2856524658
 20
151.7168274536
 10
178.6427990112
 20
151.7168274536
 10
178.2142300415
 20
152.1453964233
  0
LWPOLYLINE
  5
5C8
100
AcDbEntity
  8
RACCORDO
100
AcDbPolyline
 62
250
  6
CONTINUOUS
 90
13
 70
0
 10
222.7363780796
 20
59.0742464066
 10
222.7304420276
 20
58.9841468214
 10
222.7128596611
 20
58.8951996206
 10
222.6837895377
 20
58.8089250888
 10
222.6435273644
 20
58.7267166545
 10
222.5926685148
 20
58.6501660355
 10
222.5322436023
 20
58.5809433164
 10
222.4634146422
 20
58.5203228184
 10
222.3872822462
 20
58.4692240874
 10
222.3051149255
 20
58.4284982721
 10
222.2183043545
 20
58.3988484606
 10
222.1283526886
 20
58.3808003175
 10
222.0368045007
 20
58.3746728277
  0
LWPOLYLINE
  5
5C9
100
AcDbEntity
  8
0
100
AcDbPolyline
 62
7
  6
CONTINUOUS
 90
3
 70
0
 43
0.3500000006
 10
177.3570739746
 20
152.3596809082
 10
175.8570825806
 20
152.3596809082
 10
176.4999360352
 20
154.7168283691
  0
LWPOLYLINE
  5
5CA
100
AcDbEntity
  8
0
100
AcDbPolyline
 62
7
  6
CONTINUOUS
 90
3
 70
0
 43
0.3500000006
 10
247.3913562012
 20
101.2539732971
 10
246.5342182617
 20
102.1111112366
 10
249.5342191772
 20
102.1111112366
  0
LWPOLYLINE
  5
5CB
100
AcDbEntity
  8
0
100
AcDbPolyline
 62
7
  6
CONTINUOUS
 90
3
 70
0
 43
0.3500000006
 10
232.8913608398
 20
98.0396878967
 10
232.8913608398
 20
96.539687439
 10
230.5342133789
 20
97.1825408936
  0
LWPOLYLINE
  5
5CC
100
AcDbEntity
  8
0
100
AcDbPolyline
 62
7
  6
CONTINUOUS
 90
3
 70
0
 43
0.3500000006
 10
248.8913657227
 20
98.6825413513
 10
248.8913657227
 20
97.1825408936
 10
246.5342182617
 20
97.8254034119
  0
LWPOLYLINE
  5
5CD
100
AcDbEntity
  8
0
100
AcDbPolyline
 62
7
  6
CONTINUOUS
 90
13
 70
0
 43
0.3500000006
 10
247.8199432983
 20
95.2539714661
 10
247.6056588135
 20
94.9682557983
 10
246.9627872314
 20
94.9682557983
 10
246.5342182617
 20
95.2539714661
 10
246.5342182617
 20
95.8968339844
 10
246.9627872314
 20
96.1825405884
 10
247.6056588135
 20
96.1825405884
 10
247.8199432983
 20
95.8968339844
 10
248.2485122681
 20
96.3254029541
 10
249.1056502075
 20
96.3254029541
 10
249.5342191772
 20
95.8968339844
 10
249.5342191772
 20
95.2539714661
 10
249.1056502075
 20
94.8254024963
  0
LWPOLYLINE
  5
5CE
100
AcDbEntity
  8
0
100
AcDbPolyline
 62
7
  6
CONTINUOUS
 90
7
 70
0
 43
0.3500000006
 10
177.9999274292
 20
167.7168323364
 10
176.4999360352
 20
167.7168323364
 10
177.9999274292
 20
169.8596953125
 10
177.9999274292
 20
170.2882642822
 10
177.5713584595
 20
170.716833252
 10
176.9285050049
 20
170.716833252
 10
176.4999360352
 20
170.0739797974
  0
LINE
  5
5CF
100
AcDbEntity
  8
RACCORDO
100
AcDbLine
 62
250
  6
CONTINUOUS
 10
55.5228762619
 20
59.0742464066
 11
56.1984466142
 21
59.0742464066
  0
LINE
  5
5D0
100
AcDbEntity
  8
RACCORDO
100
AcDbLine
 62
7
  6
CONTINUOUS
 10
56.1984466142
 20
58.3746728277
 11
100.5228762619
 21
56.8268296371
  0
LINE
  5
5D1
100
AcDbEntity
  8
RACCORDO
100
AcDbLine
 62
250
  6
CONTINUOUS
 10
56.1984466142
 20
59.0742464066
 11
100.5228762619
 21
57.526403216
  0
LWPOLYLINE
  5
5D2
100
AcDbEntity
  8
RACCORDO
100
AcDbPolyline
 62
250
  6
CONTINUOUS
 90
13
 70
0
 10
56.1984466142
 20
139.4189864465
 10
56.1955075589
 20
139.4130503946
 10
56.193015444
 20
139.395468028
 10
56.191017822
 20
139.3663979046
 10
56.1895530263
 20
139.3261357314
 10
56.1886558499
 20
139.2752768818
 10
56.1883486238
 20
139.2148519692
 10
56.1886352696
 20
139.1460230092
 10
56.1895094644
 20
139.0698906131
 10
56.1909566337
 20
138.9877232924
 10
56.1929527314
 20
138.9009127214
 10
56.1954636577
 20
138.8109610556
 10
56.1984466142
 20
138.7194128676
  0
LINE
  5
5D3
100
AcDbEntity
  8
RACCORDO
100
AcDbLine
 62
7
  6
CONTINUOUS
 10
55.5228762619
 20
70.065928747
 11
54.8186874909
 21
70.0622415895
  0
LINE
  5
5D4
100
AcDbEntity
  8
RACCORDO
100
AcDbLine
 62
7
  6
CONTINUOUS
 10
55.5228762619
 20
67.7277305272
 11
54.8186874909
 21
67.7314176847
  0
LINE
  5
5D5
100
AcDbEntity
  8
RACCORDO
100
AcDbLine
 62
7
  6
CONTINUOUS
 10
54.0228762619
 20
68.5314067185
 11
54.0228762619
 21
69.2622525557
  0
LINE
  5
5D6
100
AcDbEntity
  8
RACCORDO
100
AcDbLine
 62
7
  6
CONTINUOUS
 10
54.0228762619
 20
95.6969717495
 11
54.0228762619
 21
96.6710362288
  0
LINE
  5
5D7
100
AcDbEntity
  8
RACCORDO
100
AcDbLine
 62
7
  6
CONTINUOUS
 10
54.0228762619
 20
101.1226230454
 11
54.0228762619
 21
102.0967672828
  0
LINE
  5
5D8
100
AcDbEntity
  8
RACCORDO
100
AcDbLine
 62
7
  6
CONTINUOUS
 10
54.0228762619
 20
128.5314067185
 11
54.0228762619
 21
129.2622525557
  0
LINE
  5
5D9
100
AcDbEntity
  8
RACCORDO
100
AcDbLine
 62
250
  6
CONTINUOUS
 10
54.8186874909
 20
67.7314176847
 11
54.8186874909
 21
70.0622415895
  0
LINE
  5
5DA
100
AcDbEntity
  8
RACCORDO
100
AcDbLine
 62
250
  6
CONTINUOUS
 10
54.8186874909
 20
127.7314176847
 11
54.8186874909
 21
130.0622415895
  0
LINE
  5
5DB
100
AcDbEntity
  8
RACCORDO
100
AcDbLine
 62
250
  6
CONTINUOUS
 10
54.8228762619
 20
94.8968296371
 11
54.8228762619
 21
97.0307235836
  0
LINE
  5
5DC
100
AcDbEntity
  8
RACCORDO
100
AcDbLine
 62
250
  6
CONTINUOUS
 10
54.8228762619
 20
100.7629356906
 11
54.8228762619
 21
102.8968296371
  0
LWPOLYLINE
  5
5DD
100
AcDbEntity
  8
RACCORDO
100
AcDbPolyline
 62
7
  6
CONTINUOUS
 90
25
 70
0
 10
54.0228762619
 20
96.6710362288
 10
54.0246576691
 20
96.6838887095
 10
54.0299472298
 20
96.6977749019
 10
54.0386522068
 20
96.7126948059
 10
54.0506601612
 20
96.7287743021
 10
54.0658558883
 20
96.7458875098
 10
54.0841374488
 20
96.7636567877
 10
54.1053600054
 20
96.7821005358
 10
54.1294001888
 20
96.8012003541
 10
54.1562196606
 20
96.8205234003
 10
54.1856877629
 20
96.8400945861
 10
54.2176781379
 20
96.8598889998
 10
54.2522111594
 20
96.8793990639
 10
54.2891850894
 20
96.8986653422
 10
54.3284523319
 20
96.9176472709
 10
54.3700005806
 20
96.9357155815
 10
54.4136880866
 20
96.9528897452
 10
54.4593665656
 20
96.9691502908
 10
54.5070289084
 20
96.9838095367
 10
54.5566193375
 20
96.9968619142
 10
54.6078481133
 20
97.008312992
 10
54.6603369002
 20
97.0174917953
 10
54.7138011476
 20
97.0241746659
 10
54.7680629633
 20
97.028585262
 10
54.8228762619
 20
97.0307235836
  0
LINE
  5
5DE
100
AcDbEntity
  8
RACCORDO
100
AcDbLine
 62
7
  6
CONTINUOUS
 10
55.5228762619
 20
59.0742464066
 11
55.5228762619
 21
138.7194128676
  0
LINE
  5
5DF
100
AcDbEntity
  8
RACCORDO
100
AcDbLine
 62
250
  6
CONTINUOUS
 10
56.1984466142
 20
59.0742464066
 11
56.1984466142
 21
138.7194128676
  0
LWPOLYLINE
  5
5E0
100
AcDbEntity
  8
RACCORDO
100
AcDbPolyline
 62
250
  6
CONTINUOUS
 90
13
 70
0
 10
56.1984466142
 20
59.0742464066
 10
56.1955075589
 20
58.9841468214
 10
56.193015444
 20
58.8951996206
 10
56.191017822
 20
58.8089250888
 10
56.1895530263
 20
58.7267166545
 10
56.1886558499
 20
58.6501660355
 10
56.1883486238
 20
58.5809433164
 10
56.1886352696
 20
58.5203228184
 10
56.1895094644
 20
58.4692240874
 10
56.1909566337
 20
58.4284982721
 10
56.1929527314
 20
58.3988484606
 10
56.1954636577
 20
58.3808003175
 10
56.1984466142
 20
58.3746728277
  0
LINE
  5
5E1
100
AcDbEntity
  8
0
100
AcDbLine
 62
7
  6
CONTINUOUS
 10
100.6414904719
 20
129.6468296371
 11
100.5401396807
 21
129.6048487648
  0
LINE
  5
5E2
100
AcDbEntity
  8
0
100
AcDbLine
 62
7
  6
CONTINUOUS
 10
100.6414904719
 20
68.1468296371
 11
100.5401396807
 21
68.1888105094
  0
LINE
  5
5E3
100
AcDbEntity
  8
ASSI
100
AcDbLine
 62
7
  6
CONTINUOUS
 10
55.5228762619
 20
94.8968296371
 11
54.8228762619
 21
94.8968296371
  0
LWPOLYLINE
  5
5E4
100
AcDbEntity
  8
0
100
AcDbPolyline
 62
7
  6
CONTINUOUS
 90
2
 70
0
 43
0.3500000006
 10
76.772877594
 20
151.7168274536
 10
76.772877594
 20
153.2168369751
  0
LINE
  5
5E5
100
AcDbEntity
  8
RACCORDO
100
AcDbLine
 62
7
  6
CONTINUOUS
 10
54.8228762619
 20
97.0307235836
 11
55.5228762619
 21
97.0381755275
  0
LINE
  5
5E6
100
AcDbEntity
  8
RACCORDO
100
AcDbLine
 62
250
  6
CONTINUOUS
 10
54.0228762619
 20
96.1968296371
 11
55.5228762619
 21
96.1968296371
  0
LINE
  5
5E7
100
AcDbEntity
  8
RACCORDO
100
AcDbLine
 62
250
  6
CONTINUOUS
 10
54.0228762619
 20
101.5968296371
 11
55.5228762619
 21
101.5968296371
  0
LINE
  5
5E8
100
AcDbEntity
  8
RACCORDO
100
AcDbLine
 62
7
  6
CONTINUOUS
 10
55.5228762619
 20
100.7554837467
 11
54.8228762619
 21
100.7629356906
  0
LWPOLYLINE
  5
5E9
100
AcDbEntity
  8
RACCORDO
100
AcDbPolyline
 62
7
  6
CONTINUOUS
 90
25
 70
0
 10
54.8228762619
 20
100.7629356906
 10
54.7680510009
 20
100.7650736295
 10
54.7137709591
 20
100.7694869815
 10
54.6602826093
 20
100.7761757465
 10
54.6077622443
 20
100.7853640662
 10
54.5564973688
 20
100.7968277988
 10
54.5068733466
 20
100.8098945199
 10
54.4591801563
 20
100.8245707591
 10
54.4134741381
 20
100.8408499866
 10
54.3697687673
 20
100.8580401886
 10
54.3282129747
 20
100.8761212734
 10
54.2889465338
 20
100.8951133326
 10
54.2519829259
 20
100.9143846275
 10
54.2174696889
 20
100.9338931708
 10
54.1855054738
 20
100.9536809497
 10
54.1560664347
 20
100.9732421878
 10
54.1292782336
 20
100.9925512624
 10
54.1052693482
 20
101.0116337962
 10
54.0840739627
 20
101.0300608799
 10
54.065815101
 20
101.0478146576
 10
54.0506374615
 20
101.0649129853
 10
54.0386415325
 20
101.0809805221
 10
54.0299432985
 20
101.0958921541
 10
54.0246568936
 20
101.1097729953
 10
54.0228762619
 20
101.1226230454
  0
LINE
  5
5EA
100
AcDbEntity
  8
ASSI
100
AcDbLine
 62
7
  6
CONTINUOUS
 10
55.5228762619
 20
102.8968296371
 11
54.8228762619
 21
102.8968296371
  0
LINE
  5
5EB
100
AcDbEntity
  8
RACCORDO
100
AcDbLine
 62
7
  6
CONTINUOUS
 10
100.5228762619
 20
56.8268296371
 11
100.5228762619
 21
140.9668296371
  0
LINE
  5
5EC
100
AcDbEntity
  8
RACCORDO
100
AcDbLine
 62
7
  6
CONTINUOUS
 10
55.5228762619
 20
127.7277305272
 11
54.8186874909
 21
127.7314176847
  0
LINE
  5
5ED
100
AcDbEntity
  8
RACCORDO
100
AcDbLine
 62
7
  6
CONTINUOUS
 10
55.5228762619
 20
130.065928747
 11
54.8186874909
 21
130.0622415895
  0
LINE
  5
5EE
100
AcDbEntity
  8
0
100
AcDbLine
 62
7
  6
CONTINUOUS
 10
100.6414904719
 20
68.1468296371
 11
100.540354141
 21
68.1049375972
  0
LINE
  5
5EF
100
AcDbEntity
  8
0
100
AcDbLine
 62
7
  6
CONTINUOUS
 10
100.6414904719
 20
129.6468296371
 11
100.540354141
 21
129.688721677
  0
LINE
  5
5F0
100
AcDbEntity
  8
RACCORDO
100
AcDbLine
 62
250
  6
CONTINUOUS
 10
56.1984466142
 20
138.7194128676
 11
100.5228762619
 21
140.2672560582
  0
LINE
  5
5F1
100
AcDbEntity
  8
RACCORDO
100
AcDbLine
 62
7
  6
CONTINUOUS
 10
56.1984466142
 20
139.4189864465
 11
100.5228762619
 21
140.9668296371
  0
LINE
  5
5F2
100
AcDbEntity
  8
RACCORDO
100
AcDbLine
 62
250
  6
CONTINUOUS
 10
55.5228762619
 20
138.7194128676
 11
56.1984466142
 21
138.7194128676
  0
LWPOLYLINE
  5
5F3
100
AcDbEntity
  8
0
100
AcDbPolyline
 62
7
  6
CONTINUOUS
 90
8
 70
0
 43
0.3500000006
 10
78.130015686
 20
151.7168274536
 10
78.9871626892
 20
151.7168274536
 10
79.4157316589
 20
152.1453964233
 10
79.4157316589
 20
153.0025524902
 10
78.9871626892
 20
153.43112146
 10
78.130015686
 20
153.43112146
 10
78.130015686
 20
154.7168283691
 10
79.4157316589
 20
154.7168283691
  0
LWPOLYLINE
  5
5F4
100
AcDbEntity
  8
0
100
AcDbPolyline
 62
7
  6
CONTINUOUS
 90
3
 70
0
 43
0.3500000006
 10
77.2728777466
 20
152.3596809082
 10
75.7728772888
 20
152.3596809082
 10
76.4157307434
 20
154.7168283691
  0
CIRCLE
  5
5F5
100
AcDbEntity
  8
ASSI
100
AcDbCircle
 62
7
  6
CONTINUOUS
 10
154.2142212702
 20
74.8968296371
 40
6.75
  0
CIRCLE
  5
5F6
100
AcDbEntity
  8
ASSI
100
AcDbCircle
 62
7
  6
CONTINUOUS
 10
154.2142212702
 20
74.8968296371
 40
5.45
  0
ARC
  5
5F7
100
AcDbEntity
  8
ASSI
100
AcDbCircle
 62
7
  6
CONTINUOUS
 10
154.2142212702
 20
76.0968296371
 40
2.1
100
AcDbArc
 50
0.0
 51
180.0
  0
ARC
  5
5F8
100
AcDbEntity
  8
ASSI
100
AcDbCircle
 62
7
  6
CONTINUOUS
 10
154.2142212702
 20
73.6968296371
 40
2.1
100
AcDbArc
 50
180.0
 51
360.0
  0
ARC
  5
5F9
100
AcDbEntity
  8
RACCORDO
100
AcDbCircle
 62
7
  6
CONTINUOUS
 10
148.2142212702
 20
96.1968296371
 40
1.3
100
AcDbArc
 50
180.0
 51
281.7270532554
  0
ARC
  5
5FA
100
AcDbEntity
  8
RACCORDO
100
AcDbCircle
 62
250
  6
CONTINUOUS
 10
148.2142212702
 20
96.1968296371
 40
0.5
100
AcDbArc
 50
180.0
 51
289.6393067423
  0
CIRCLE
  5
5FB
100
AcDbEntity
  8
RACCORDO
100
AcDbCircle
 62
7
  6
CONTINUOUS
 10
164.4642212702
 20
68.1468296371
 40
3.2043457495
  0
CIRCLE
  5
5FC
100
AcDbEntity
  8
RACCORDO
100
AcDbCircle
 62
250
  6
CONTINUOUS
 10
164.4642212702
 20
68.1468296371
 40
3.2024430917
  0
ARC
  5
5FD
100
AcDbEntity
  8
0
100
AcDbCircle
 62
7
  6
CONTINUOUS
 10
164.4642212702
 20
68.1468296371
 40
3.1800090692
100
AcDbArc
 50
79.1243149002
 51
100.8756850998
  0
ARC
  5
5FE
100
AcDbEntity
  8
0
100
AcDbCircle
 62
7
  6
CONTINUOUS
 10
164.4642212702
 20
68.1468296371
 40
3.1800090692
100
AcDbArc
 50
259.1243149002
 51
280.8756850998
  0
ARC
  5
5FF
100
AcDbEntity
  8
0
100
AcDbCircle
 62
7
  6
CONTINUOUS
 10
164.4642212702
 20
68.1468296371
 40
3.0750226729
100
AcDbArc
 50
281.2517636832
 51
78.7482363168
  0
ARC
  5
600
100
AcDbEntity
  8
0
100
AcDbCircle
 62
7
  6
CONTINUOUS
 10
164.4642212702
 20
68.1468296371
 40
3.0750226729
100
AcDbArc
 50
101.2517636832
 51
258.7482363168
  0
ARC
  5
601
100
AcDbEntity
  8
0
100
AcDbCircle
 62
7
  6
CONTINUOUS
 10
164.4642212702
 20
68.1468296371
 40
1.7904134183
100
AcDbArc
 50
172.6786468467
 51
187.3149314696
  0
ARC
  5
602
100
AcDbEntity
  8
0
100
AcDbCircle
 62
7
  6
CONTINUOUS
 10
164.4642212702
 20
68.1468296371
 40
1.7904134183
100
AcDbArc
 50
352.678646855
 51
7.3149314696
  0
ARC
  5
603
100
AcDbEntity
  8
DRAFT
100
AcDbCircle
 62
7
  6
CONTINUOUS
 10
175.5142212702
 20
68.8968296371
 40
1.3
100
AcDbArc
 50
90.0
 51
256.6576362029
  0
ARC
  5
604
100
AcDbEntity
  8
0
100
AcDbCircle
 62
7
  6
CONTINUOUS
 10
164.4642212702
 20
68.1468296371
 40
1.1921154886
100
AcDbArc
 50
78.9651609623
 51
101.041906541
  0
ARC
  5
605
100
AcDbEntity
  8
0
100
AcDbCircle
 62
7
  6
CONTINUOUS
 10
164.4642212702
 20
68.1468296371
 40
1.1921154886
100
AcDbArc
 50
258.9651613239
 51
281.041906541
  0
ARC
  5
606
100
AcDbEntity
  8
RACCORDO
100
AcDbCircle
 62
7
  6
CONTINUOUS
 10
175.5142212702
 20
68.8968296371
 40
1.1654119511
100
AcDbArc
 50
90.0
 51
270.0
  0
ARC
  5
607
100
AcDbEntity
  8
TRASH
100
AcDbCircle
 62
7
  6
CONTINUOUS
 10
164.4642212702
 20
68.1468296371
 40
1.1472328625
100
AcDbArc
 50
167.9845776281
 51
192.0153200785
  0
ARC
  5
608
100
AcDbEntity
  8
TRASH
100
AcDbCircle
 62
7
  6
CONTINUOUS
 10
164.4642212702
 20
68.1468296371
 40
1.1472328625
100
AcDbArc
 50
347.9845776281
 51
12.0153200785
  0
ARC
  5
609
100
AcDbEntity
  8
TRASH
100
AcDbCircle
 62
7
  6
CONTINUOUS
 10
164.4642212702
 20
68.1468296371
 40
1.1472328182
100
AcDbArc
 50
77.9846799215
 51
102.0154223719
  0
ARC
  5
60A
100
AcDbEntity
  8
TRASH
100
AcDbCircle
 62
7
  6
CONTINUOUS
 10
164.4642212702
 20
68.1468296371
 40
1.1472328182
100
AcDbArc
 50
257.9846799215
 51
282.0154223719
  0
ARC
  5
60B
100
AcDbEntity
  8
RACCORDO
100
AcDbCircle
 62
250
  6
CONTINUOUS
 10
175.5142212702
 20
68.8968296371
 40
0.3654141408
100
AcDbArc
 50
90.0
 51
270.0
  0
ARC
  5
60C
100
AcDbEntity
  8
RACCORDO
100
AcDbCircle
 62
250
  6
CONTINUOUS
 10
148.2142212702
 20
98.8968296371
 40
2.5655650579
100
AcDbArc
 50
120.4449974286
 51
239.5550025714
  0
ARC
  5
60D
100
AcDbEntity
  8
RACCORDO
100
AcDbCircle
 62
7
  6
CONTINUOUS
 10
148.2142212702
 20
98.8968296371
 40
2.2812619965
100
AcDbArc
 50
257.3393052792
 51
272.1789699406
  0
ARC
  5
60E
100
AcDbEntity
  8
RACCORDO
100
AcDbCircle
 62
7
  6
CONTINUOUS
 10
148.2142212702
 20
98.8968296371
 40
2.2812619965
100
AcDbArc
 50
87.8210300594
 51
102.6606947208
  0
ARC
  5
60F
100
AcDbEntity
  8
RACCORDO
100
AcDbCircle
 62
7
  6
CONTINUOUS
 10
148.2142212702
 20
98.8968296371
 40
2.265576481
100
AcDbArc
 50
125.0160158987
 51
234.9839841013
  0
ARC
  5
610
100
AcDbEntity
  8
DRAFT
100
AcDbCircle
 62
7
  6
CONTINUOUS
 10
148.2142212702
 20
98.8968296371
 40
2.05
100
AcDbArc
 50
88.0420131276
 51
271.9579868724
  0
CIRCLE
  5
611
100
AcDbEntity
  8
SMUSSO
100
AcDbCircle
 62
7
  6
CONTINUOUS
 10
148.2142212702
 20
98.8968296371
 40
1.9301850577
  0
CIRCLE
  5
612
100
AcDbEntity
  8
SMUSSO
100
AcDbCircle
 62
7
  6
CONTINUOUS
 10
148.2142212702
 20
98.8968296371
 40
1.4345107419
  0
ARC
  5
613
100
AcDbEntity
  8
RACCORDO
100
AcDbCircle
 62
7
  6
CONTINUOUS
 10
148.2142212702
 20
101.5968296371
 40
1.3
100
AcDbArc
 50
78.2729467446
 51
180.0
  0
ARC
  5
614
100
AcDbEntity
  8
RACCORDO
100
AcDbCircle
 62
250
  6
CONTINUOUS
 10
148.2142212702
 20
101.5968296371
 40
0.5
100
AcDbArc
 50
70.3606932577
 51
180.0
  0
CIRCLE
  5
615
100
AcDbEntity
  8
ASSI
100
AcDbCircle
 62
7
  6
CONTINUOUS
 10
154.2142212702
 20
122.8968296371
 40
6.75
  0
CIRCLE
  5
616
100
AcDbEntity
  8
ASSI
100
AcDbCircle
 62
7
  6
CONTINUOUS
 10
154.2142212702
 20
122.8968296371
 40
5.45
  0
ARC
  5
617
100
AcDbEntity
  8
ASSI
100
AcDbCircle
 62
7
  6
CONTINUOUS
 10
153.0142212702
 20
122.8968296371
 40
2.1
100
AcDbArc
 50
90.0
 51
270.0
  0
ARC
  5
618
100
AcDbEntity
  8
ASSI
100
AcDbCircle
 62
7
  6
CONTINUOUS
 10
155.4142212702
 20
122.8968296371
 40
2.1
100
AcDbArc
 50
270.0
 51
90.0
  0
CIRCLE
  5
619
100
AcDbEntity
  8
RACCORDO
100
AcDbCircle
 62
7
  6
CONTINUOUS
 10
164.4642212702
 20
129.6468296371
 40
3.2043457495
  0
CIRCLE
  5
61A
100
AcDbEntity
  8
RACCORDO
100
AcDbCircle
 62
250
  6
CONTINUOUS
 10
164.4642212702
 20
129.6468296371
 40
3.2024430981
  0
ARC
  5
61B
100
AcDbEntity
  8
0
100
AcDbCircle
 62
7
  6
CONTINUOUS
 10
164.4642212702
 20
129.6468296371
 40
3.1800090692
100
AcDbArc
 50
79.1243149002
 51
100.8756850998
  0
ARC
  5
61C
100
AcDbEntity
  8
0
100
AcDbCircle
 62
7
  6
CONTINUOUS
 10
164.4642212702
 20
129.6468296371
 40
3.1800090692
100
AcDbArc
 50
259.1243149002
 51
280.8756850998
  0
ARC
  5
61D
100
AcDbEntity
  8
0
100
AcDbCircle
 62
7
  6
CONTINUOUS
 10
164.4642212702
 20
129.6468296371
 40
3.0750226729
100
AcDbArc
 50
281.2517636832
 51
78.7482363168
  0
ARC
  5
61E
100
AcDbEntity
  8
0
100
AcDbCircle
 62
7
  6
CONTINUOUS
 10
164.4642212702
 20
129.6468296371
 40
3.0750226729
100
AcDbArc
 50
101.2517636832
 51
258.7482363168
  0
ARC
  5
61F
100
AcDbEntity
  8
ASSI
100
AcDbCircle
 62
7
  6
CONTINUOUS
 10
168.6317772702
 20
117.8968296371
 40
2.5499986575
100
AcDbArc
 50
87.752529198
 51
272.247470802
  0
ARC
  5
620
100
AcDbEntity
  8
ASSI
100
AcDbCircle
 62
7
  6
CONTINUOUS
 10
164.2466672702
 20
117.8968296371
 40
2.5499985399
100
AcDbArc
 50
87.7525290943
 51
272.2474709057
  0
ARC
  5
621
100
AcDbEntity
  8
ASSI
100
AcDbCircle
 62
7
  6
CONTINUOUS
 10
168.6317772702
 20
117.8968296371
 40
1.7999999246
100
AcDbArc
 50
86.8152613297
 51
167.9753003079
  0
ARC
  5
622
100
AcDbEntity
  8
ASSI
100
AcDbCircle
 62
7
  6
CONTINUOUS
 10
164.2466672702
 20
117.8968296371
 40
1.7999999246
100
AcDbArc
 50
86.8152613297
 51
273.1847386703
  0
ARC
  5
623
100
AcDbEntity
  8
ASSI
100
AcDbCircle
 62
7
  6
CONTINUOUS
 10
168.6317772702
 20
117.8968296371
 40
1.7999968808
100
AcDbArc
 50
192.0247203293
 51
273.1847440612
  0
ARC
  5
624
100
AcDbEntity
  8
0
100
AcDbCircle
 62
7
  6
CONTINUOUS
 10
164.4642212702
 20
129.6468296371
 40
1.7904134183
100
AcDbArc
 50
352.678646855
 51
7.3149314696
  0
ARC
  5
625
100
AcDbEntity
  8
0
100
AcDbCircle
 62
7
  6
CONTINUOUS
 10
164.4642212702
 20
129.6468296371
 40
1.7904134183
100
AcDbArc
 50
172.6786468467
 51
187.3149314696
  0
ARC
  5
626
100
AcDbEntity
  8
DRAFT
100
AcDbCircle
 62
7
  6
CONTINUOUS
 10
175.5142212702
 20
128.8968296371
 40
1.3
100
AcDbArc
 50
103.3423637971
 51
270.0
  0
ARC
  5
627
100
AcDbEntity
  8
0
100
AcDbCircle
 62
7
  6
CONTINUOUS
 10
164.4642212702
 20
129.6468296371
 40
1.1921154886
100
AcDbArc
 50
78.9651609623
 51
101.041906541
  0
ARC
  5
628
100
AcDbEntity
  8
0
100
AcDbCircle
 62
7
  6
CONTINUOUS
 10
164.4642212702
 20
129.6468296371
 40
1.1921154886
100
AcDbArc
 50
258.9651613239
 51
281.041906541
  0
ARC
  5
629
100
AcDbEntity
  8
RACCORDO
100
AcDbCircle
 62
7
  6
CONTINUOUS
 10
175.5142212702
 20
128.8968296371
 40
1.1654119511
100
AcDbArc
 50
90.0
 51
270.0
  0
ARC
  5
62A
100
AcDbEntity
  8
TRASH
100
AcDbCircle
 62
7
  6
CONTINUOUS
 10
164.4642212702
 20
129.6468296371
 40
1.1472328625
100
AcDbArc
 50
347.9845776281
 51
12.0153200785
  0
ARC
  5
62B
100
AcDbEntity
  8
TRASH
100
AcDbCircle
 62
7
  6
CONTINUOUS
 10
164.4642212702
 20
129.6468296371
 40
1.1472328625
100
AcDbArc
 50
167.9845776281
 51
192.0153200785
  0
ARC
  5
62C
100
AcDbEntity
  8
TRASH
100
AcDbCircle
 62
7
  6
CONTINUOUS
 10
164.4642212702
 20
129.6468296371
 40
1.1472328182
100
AcDbArc
 50
77.9846799215
 51
102.0154223719
  0
ARC
  5
62D
100
AcDbEntity
  8
TRASH
100
AcDbCircle
 62
7
  6
CONTINUOUS
 10
164.4642212702
 20
129.6468296371
 40
1.1472328182
100
AcDbArc
 50
257.9846799215
 51
282.0154223719
  0
ARC
  5
62E
100
AcDbEntity
  8
RACCORDO
100
AcDbCircle
 62
250
  6
CONTINUOUS
 10
175.5142212702
 20
128.8968296371
 40
0.3654141408
100
AcDbArc
 50
90.0
 51
270.0
  0
ARC
  5
62F
100
AcDbEntity
  8
DRAFT
100
AcDbCircle
 62
7
  6
CONTINUOUS
 10
178.2142212702
 20
68.7441094508
 40
3.0
100
AcDbArc
 50
28.9626953388
 51
151.0373046612
  0
ARC
  5
630
100
AcDbEntity
  8
RACCORDO
100
AcDbCircle
 62
7
  6
CONTINUOUS
 10
178.2142212702
 20
68.7441094508
 40
2.8706616958
100
AcDbArc
 50
27.4518083702
 51
152.5481916298
  0
ARC
  5
631
100
AcDbEntity
  8
RACCORDO
100
AcDbCircle
 62
250
  6
CONTINUOUS
 10
178.2142212702
 20
68.7441094508
 40
2.5706658082
100
AcDbArc
 50
30.943553454
 51
149.056446546
  0
ARC
  5
632
100
AcDbEntity
  8
RACCORDO
100
AcDbCircle
 62
7
  6
CONTINUOUS
 10
178.2142212702
 20
68.8968296371
 40
2.25
100
AcDbArc
 50
328.8044303331
 51
31.1955696669
  0
ARC
  5
633
100
AcDbEntity
  8
RACCORDO
100
AcDbCircle
 62
7
  6
CONTINUOUS
 10
178.2142212702
 20
68.8968296371
 40
2.25
100
AcDbArc
 50
148.8044303331
 51
211.1955696669
  0
ARC
  5
634
100
AcDbEntity
  8
DRAFT
100
AcDbCircle
 62
7
  6
CONTINUOUS
 10
178.2142212702
 20
68.8968296371
 40
2.25
100
AcDbArc
 50
31.3053975833
 51
148.6946024167
  0
ARC
  5
635
100
AcDbEntity
  8
DRAFT
100
AcDbCircle
 62
7
  6
CONTINUOUS
 10
178.2142212702
 20
68.8968296371
 40
2.25
100
AcDbArc
 50
211.3053975833
 51
328.6946024167
  0
CIRCLE
  5
636
100
AcDbEntity
  8
DRAFT
100
AcDbCircle
 62
7
  6
CONTINUOUS
 10
178.2142212702
 20
68.8968296371
 40
1.8505402981
  0
CIRCLE
  5
637
100
AcDbEntity
  8
DRAFT
100
AcDbCircle
 62
7
  6
CONTINUOUS
 10
178.2142212702
 20
68.8968296371
 40
1.75
  0
CIRCLE
  5
638
100
AcDbEntity
  8
ASSI
100
AcDbCircle
 62
7
  6
CONTINUOUS
 10
178.2142212702
 20
68.8968296371
 40
1.45
  0
ARC
  5
639
100
AcDbEntity
  8
DRAFT
100
AcDbCircle
 62
7
  6
CONTINUOUS
 10
180.9142212702
 20
68.8968296371
 40
1.3
100
AcDbArc
 50
283.3423637971
 51
90.0
  0
ARC
  5
63A
100
AcDbEntity
  8
RACCORDO
100
AcDbCircle
 62
7
  6
CONTINUOUS
 10
180.9142212702
 20
68.8968296371
 40
1.1654119511
100
AcDbArc
 50
270.0
 51
90.0
  0
ARC
  5
63B
100
AcDbEntity
  8
RACCORDO
100
AcDbCircle
 62
250
  6
CONTINUOUS
 10
180.9142212702
 20
68.8968296371
 40
0.3654141408
100
AcDbArc
 50
270.0
 51
90.0
  0
CIRCLE
  5
63C
100
AcDbEntity
  8
RACCORDO
100
AcDbCircle
 62
7
  6
CONTINUOUS
 10
191.9642212702
 20
68.1468296371
 40
3.2043457495
  0
CIRCLE
  5
63D
100
AcDbEntity
  8
RACCORDO
100
AcDbCircle
 62
250
  6
CONTINUOUS
 10
191.9642212702
 20
68.1468296371
 40
3.2024430917
  0
ARC
  5
63E
100
AcDbEntity
  8
0
100
AcDbCircle
 62
7
  6
CONTINUOUS
 10
191.9642212702
 20
68.1468296371
 40
3.1800090692
100
AcDbArc
 50
79.1243149002
 51
100.8756850998
  0
ARC
  5
63F
100
AcDbEntity
  8
0
100
AcDbCircle
 62
7
  6
CONTINUOUS
 10
191.9642212702
 20
68.1468296371
 40
3.1800090692
100
AcDbArc
 50
259.1243149002
 51
280.8756850998
  0
ARC
  5
640
100
AcDbEntity
  8
0
100
AcDbCircle
 62
7
  6
CONTINUOUS
 10
191.9642212702
 20
68.1468296371
 40
3.0750226729
100
AcDbArc
 50
281.2517636832
 51
78.7482363168
  0
ARC
  5
641
100
AcDbEntity
  8
0
100
AcDbCircle
 62
7
  6
CONTINUOUS
 10
191.9642212702
 20
68.1468296371
 40
3.0750226729
100
AcDbArc
 50
101.2517636832
 51
258.7482363168
  0
ARC
  5
642
100
AcDbEntity
  8
0
100
AcDbCircle
 62
7
  6
CONTINUOUS
 10
191.9642212702
 20
68.1468296371
 40
1.7904134183
100
AcDbArc
 50
172.6786468467
 51
187.3149314696
  0
ARC
  5
643
100
AcDbEntity
  8
0
100
AcDbCircle
 62
7
  6
CONTINUOUS
 10
191.9642212702
 20
68.1468296371
 40
1.7904134183
100
AcDbArc
 50
352.678646855
 51
7.3149314696
  0
ARC
  5
644
100
AcDbEntity
  8
0
100
AcDbCircle
 62
7
  6
CONTINUOUS
 10
191.9642212702
 20
68.1468296371
 40
1.1921154886
100
AcDbArc
 50
78.9651609623
 51
101.041906541
  0
ARC
  5
645
100
AcDbEntity
  8
0
100
AcDbCircle
 62
7
  6
CONTINUOUS
 10
191.9642212702
 20
68.1468296371
 40
1.1921154886
100
AcDbArc
 50
258.9651613239
 51
281.041906541
  0
ARC
  5
646
100
AcDbEntity
  8
TRASH
100
AcDbCircle
 62
7
  6
CONTINUOUS
 10
191.9642212702
 20
68.1468296371
 40
1.1472328625
100
AcDbArc
 50
167.9845776281
 51
192.0153200785
  0
ARC
  5
647
100
AcDbEntity
  8
TRASH
100
AcDbCircle
 62
7
  6
CONTINUOUS
 10
191.9642212702
 20
68.1468296371
 40
1.1472328625
100
AcDbArc
 50
347.9845776281
 51
12.0153200785
  0
ARC
  5
648
100
AcDbEntity
  8
TRASH
100
AcDbCircle
 62
7
  6
CONTINUOUS
 10
191.9642212702
 20
68.1468296371
 40
1.1472328182
100
AcDbArc
 50
77.9846799215
 51
102.0154223719
  0
ARC
  5
649
100
AcDbEntity
  8
TRASH
100
AcDbCircle
 62
7
  6
CONTINUOUS
 10
191.9642212702
 20
68.1468296371
 40
1.1472328182
100
AcDbArc
 50
257.9846799215
 51
282.0154223719
  0
CIRCLE
  5
64A
100
AcDbEntity
  8
ASSI
100
AcDbCircle
 62
7
  6
CONTINUOUS
 10
202.2142212702
 20
74.8968296371
 40
6.75
  0
CIRCLE
  5
64B
100
AcDbEntity
  8
ASSI
100
AcDbCircle
 62
7
  6
CONTINUOUS
 10
202.2142212702
 20
74.8968296371
 40
5.45
  0
ARC
  5
64C
100
AcDbEntity
  8
ASSI
100
AcDbCircle
 62
7
  6
CONTINUOUS
 10
202.2142212702
 20
73.6968296371
 40
2.1
100
AcDbArc
 50
180.0
 51
360.0
  0
ARC
  5
64D
100
AcDbEntity
  8
ASSI
100
AcDbCircle
 62
7
  6
CONTINUOUS
 10
202.2142212702
 20
76.0968296371
 40
2.1
100
AcDbArc
 50
0.0
 51
180.0
  0
ARC
  5
64E
100
AcDbEntity
  8
RACCORDO
100
AcDbCircle
 62
7
  6
CONTINUOUS
 10
208.2142212702
 20
96.1968296371
 40
1.3
100
AcDbArc
 50
258.2729467446
 51
360.0
  0
ARC
  5
64F
100
AcDbEntity
  8
RACCORDO
100
AcDbCircle
 62
250
  6
CONTINUOUS
 10
208.2142212702
 20
96.1968296371
 40
0.5
100
AcDbArc
 50
250.3606932577
 51
360.0
  0
ARC
  5
650
100
AcDbEntity
  8
RACCORDO
100
AcDbCircle
 62
7
  6
CONTINUOUS
 10
178.2142212702
 20
98.8968296371
 40
30.0
100
AcDbArc
 50
184.3579398813
 51
204.6243183522
  0
ARC
  5
651
100
AcDbEntity
  8
RACCORDO
100
AcDbCircle
 62
7
  6
CONTINUOUS
 10
178.2142212702
 20
98.8968296371
 40
30.0
100
AcDbArc
 50
155.3756816478
 51
175.6420601187
  0
ARC
  5
652
100
AcDbEntity
  8
RACCORDO
100
AcDbCircle
 62
7
  6
CONTINUOUS
 10
178.2142212702
 20
98.8968296371
 40
30.0
100
AcDbArc
 50
335.3756816478
 51
355.6420601187
  0
ARC
  5
653
100
AcDbEntity
  8
RACCORDO
100
AcDbCircle
 62
7
  6
CONTINUOUS
 10
178.2142212702
 20
98.8968296371
 40
30.0
100
AcDbArc
 50
4.3579398813
 51
24.6243183522
  0
ARC
  5
654
100
AcDbEntity
  8
0
100
AcDbCircle
 62
7
  6
CONTINUOUS
 10
178.2142212702
 20
98.8968296371
 40
29.7
100
AcDbArc
 50
6.6997651778
 51
23.5781784782
  0
ARC
  5
655
100
AcDbEntity
  8
0
100
AcDbCircle
 62
7
  6
CONTINUOUS
 10
178.2142212702
 20
98.8968296371
 40
29.7
100
AcDbArc
 50
336.4218215218
 51
353.3002348222
  0
ARC
  5
656
100
AcDbEntity
  8
0
100
AcDbCircle
 62
7
  6
CONTINUOUS
 10
178.2142212702
 20
98.8968296371
 40
29.7
100
AcDbArc
 50
156.4218215218
 51
173.3002348222
  0
ARC
  5
657
100
AcDbEntity
  8
0
100
AcDbCircle
 62
7
  6
CONTINUOUS
 10
178.2142212702
 20
98.8968296371
 40
29.7
100
AcDbArc
 50
186.6997651778
 51
203.5781784782
  0
ARC
  5
658
100
AcDbEntity
  8
ASSI
100
AcDbCircle
 62
7
  6
CONTINUOUS
 10
191.1242832702
 20
112.2912576371
 40
2.6508884458
100
AcDbArc
 50
47.2312789315
 51
84.2011822197
  0
ARC
  5
659
100
AcDbEntity
  8
ASSI
100
AcDbCircle
 62
7
  6
CONTINUOUS
 10
191.3329062702
 20
112.7206426371
 40
2.6190759282
100
AcDbArc
 50
45.4348969444
 51
67.5658550007
  0
CIRCLE
  5
65A
100
AcDbEntity
  8
0
100
AcDbCircle
 62
7
  6
CONTINUOUS
 10
178.2142212702
 20
98.8968296371
 40
2.2912878475
  0
ARC
  5
65B
100
AcDbEntity
  8
ASSI
100
AcDbCircle
 62
7
  6
CONTINUOUS
 10
184.8723342702
 20
121.6121766371
 40
1.1347395105
100
AcDbArc
 50
292.8428585528
 51
89.999026683
  0
ARC
  5
65C
100
AcDbEntity
  8
ASSI
100
AcDbCircle
 62
7
  6
CONTINUOUS
 10
184.7696192702
 20
121.6121766371
 40
0.450208
100
AcDbArc
 50
270.0019194278
 51
90.0006398036
  0
ARC
  5
65D
100
AcDbEntity
  8
DRAFT
100
AcDbCircle
 62
7
  6
CONTINUOUS
 10
178.2142212702
 20
129.0495498234
 40
3.0
100
AcDbArc
 50
208.9626953388
 51
331.0373046612
  0
ARC
  5
65E
100
AcDbEntity
  8
RACCORDO
100
AcDbCircle
 62
7
  6
CONTINUOUS
 10
178.2142212702
 20
129.0495498234
 40
2.8706616958
100
AcDbArc
 50
207.4518083702
 51
332.5481916298
  0
ARC
  5
65F
100
AcDbEntity
  8
RACCORDO
100
AcDbCircle
 62
250
  6
CONTINUOUS
 10
178.2142212702
 20
129.0495498234
 40
2.5706658082
100
AcDbArc
 50
210.943553454
 51
329.056446546
  0
ARC
  5
660
100
AcDbEntity
  8
RACCORDO
100
AcDbCircle
 62
7
  6
CONTINUOUS
 10
178.2142212702
 20
128.8968296371
 40
2.25
100
AcDbArc
 50
328.8044303331
 51
31.1955696669
  0
ARC
  5
661
100
AcDbEntity
  8
RACCORDO
100
AcDbCircle
 62
7
  6
CONTINUOUS
 10
178.2142212702
 20
128.8968296371
 40
2.25
100
AcDbArc
 50
148.8044303331
 51
211.1955696669
  0
ARC
  5
662
100
AcDbEntity
  8
DRAFT
100
AcDbCircle
 62
7
  6
CONTINUOUS
 10
178.2142212702
 20
128.8968296371
 40
2.25
100
AcDbArc
 50
211.3053975833
 51
328.6946024167
  0
ARC
  5
663
100
AcDbEntity
  8
DRAFT
100
AcDbCircle
 62
7
  6
CONTINUOUS
 10
178.2142212702
 20
128.8968296371
 40
2.25
100
AcDbArc
 50
31.3053975833
 51
148.6946024167
  0
CIRCLE
  5
664
100
AcDbEntity
  8
DRAFT
100
AcDbCircle
 62
7
  6
CONTINUOUS
 10
178.2142212702
 20
128.8968296371
 40
1.8505402981
  0
CIRCLE
  5
665
100
AcDbEntity
  8
DRAFT
100
AcDbCircle
 62
7
  6
CONTINUOUS
 10
178.2142212702
 20
128.8968296371
 40
1.75
  0
CIRCLE
  5
666
100
AcDbEntity
  8
ASSI
100
AcDbCircle
 62
7
  6
CONTINUOUS
 10
178.2142212702
 20
128.8968296371
 40
1.45
  0
ARC
  5
667
100
AcDbEntity
  8
DRAFT
100
AcDbCircle
 62
7
  6
CONTINUOUS
 10
180.9142212702
 20
128.8968296371
 40
1.3
100
AcDbArc
 50
270.0
 51
76.6576362029
  0
ARC
  5
668
100
AcDbEntity
  8
RACCORDO
100
AcDbCircle
 62
7
  6
CONTINUOUS
 10
180.9142212702
 20
128.8968296371
 40
1.1654119511
100
AcDbArc
 50
270.0
 51
90.0
  0
ARC
  5
669
100
AcDbEntity
  8
RACCORDO
100
AcDbCircle
 62
250
  6
CONTINUOUS
 10
180.9142212702
 20
128.8968296371
 40
0.3654141408
100
AcDbArc
 50
270.0
 51
90.0
  0
ARC
  5
66A
100
AcDbEntity
  8
ASSI
100
AcDbCircle
 62
7
  6
CONTINUOUS
 10
191.2142212702
 20
117.8968296371
 40
2.9735749324
100
AcDbArc
 50
292.0885434728
 51
273.4298158149
  0
CIRCLE
  5
66B
100
AcDbEntity
  8
ASSI
100
AcDbCircle
 62
7
  6
CONTINUOUS
 10
191.2142212702
 20
117.8968296371
 40
2.497595
  0
ARC
  5
66C
100
AcDbEntity
  8
ASSI
100
AcDbCircle
 62
7
  6
CONTINUOUS
 10
191.2142212702
 20
117.8968296371
 40
2.2337503191
100
AcDbArc
 50
299.3041411838
 51
44.9957558874
  0
ARC
  5
66D
100
AcDbEntity
  8
ASSI
100
AcDbCircle
 62
7
  6
CONTINUOUS
 10
191.2142212702
 20
117.8968296371
 40
2.2337501706
100
AcDbArc
 50
134.9002628452
 51
240.6958588162
  0
ARC
  5
66E
100
AcDbEntity
  8
ASSI
100
AcDbCircle
 62
7
  6
CONTINUOUS
 10
191.2142212702
 20
117.8968296371
 40
1.7896378839
100
AcDbArc
 50
299.3041347443
 51
31.9732647666
  0
ARC
  5
66F
100
AcDbEntity
  8
ASSI
100
AcDbCircle
 62
7
  6
CONTINUOUS
 10
191.2142212702
 20
117.8968296371
 40
1.78963742
100
AcDbArc
 50
148.02673736
 51
240.6958652557
  0
CIRCLE
  5
670
100
AcDbEntity
  8
RACCORDO
100
AcDbCircle
 62
7
  6
CONTINUOUS
 10
191.9642212702
 20
129.6468296371
 40
3.2043457495
  0
CIRCLE
  5
671
100
AcDbEntity
  8
RACCORDO
100
AcDbCircle
 62
250
  6
CONTINUOUS
 10
191.9642212702
 20
129.6468296371
 40
3.2024430981
  0
ARC
  5
672
100
AcDbEntity
  8
0
100
AcDbCircle
 62
7
  6
CONTINUOUS
 10
191.9642212702
 20
129.6468296371
 40
3.1800090692
100
AcDbArc
 50
79.1243149002
 51
100.8756850998
  0
ARC
  5
673
100
AcDbEntity
  8
0
100
AcDbCircle
 62
7
  6
CONTINUOUS
 10
191.9642212702
 20
129.6468296371
 40
3.1800090692
100
AcDbArc
 50
259.1243149002
 51
280.8756850998
  0
ARC
  5
674
100
AcDbEntity
  8
0
100
AcDbCircle
 62
7
  6
CONTINUOUS
 10
191.9642212702
 20
129.6468296371
 40
3.0750226729
100
AcDbArc
 50
281.2517636832
 51
78.7482363168
  0
ARC
  5
675
100
AcDbEntity
  8
0
100
AcDbCircle
 62
7
  6
CONTINUOUS
 10
191.9642212702
 20
129.6468296371
 40
3.0750226729
100
AcDbArc
 50
101.2517636832
 51
258.7482363168
  0
ARC
  5
676
100
AcDbEntity
  8
0
100
AcDbCircle
 62
7
  6
CONTINUOUS
 10
191.9642212702
 20
129.6468296371
 40
1.7904134183
100
AcDbArc
 50
352.678646855
 51
7.3149314696
  0
ARC
  5
677
100
AcDbEntity
  8
0
100
AcDbCircle
 62
7
  6
CONTINUOUS
 10
191.9642212702
 20
129.6468296371
 40
1.7904134183
100
AcDbArc
 50
172.6786468467
 51
187.3149314696
  0
ARC
  5
678
100
AcDbEntity
  8
0
100
AcDbCircle
 62
7
  6
CONTINUOUS
 10
191.9642212702
 20
129.6468296371
 40
1.1921154886
100
AcDbArc
 50
78.9651609623
 51
101.041906541
  0
ARC
  5
679
100
AcDbEntity
  8
0
100
AcDbCircle
 62
7
  6
CONTINUOUS
 10
191.9642212702
 20
129.6468296371
 40
1.1921154886
100
AcDbArc
 50
258.9651613239
 51
281.041906541
  0
ARC
  5
67A
100
AcDbEntity
  8
TRASH
100
AcDbCircle
 62
7
  6
CONTINUOUS
 10
191.9642212702
 20
129.6468296371
 40
1.1472328625
100
AcDbArc
 50
347.9845776281
 51
12.0153200785
  0
ARC
  5
67B
100
AcDbEntity
  8
TRASH
100
AcDbCircle
 62
7
  6
CONTINUOUS
 10
191.9642212702
 20
129.6468296371
 40
1.1472328625
100
AcDbArc
 50
167.9845776281
 51
192.0153200785
  0
ARC
  5
67C
100
AcDbEntity
  8
TRASH
100
AcDbCircle
 62
7
  6
CONTINUOUS
 10
191.9642212702
 20
129.6468296371
 40
1.1472328182
100
AcDbArc
 50
77.9846799215
 51
102.0154223719
  0
ARC
  5
67D
100
AcDbEntity
  8
TRASH
100
AcDbCircle
 62
7
  6
CONTINUOUS
 10
191.9642212702
 20
129.6468296371
 40
1.1472328182
100
AcDbArc
 50
257.9846799215
 51
282.0154223719
  0
ARC
  5
67E
100
AcDbEntity
  8
RACCORDO
100
AcDbCircle
 62
250
  6
CONTINUOUS
 10
208.2142212702
 20
98.8968296371
 40
2.5655650579
100
AcDbArc
 50
300.4449974286
 51
59.5550025714
  0
ARC
  5
67F
100
AcDbEntity
  8
RACCORDO
100
AcDbCircle
 62
7
  6
CONTINUOUS
 10
208.2142212702
 20
98.8968296371
 40
2.2812619965
100
AcDbArc
 50
267.8210300594
 51
282.6606947208
  0
ARC
  5
680
100
AcDbEntity
  8
RACCORDO
100
AcDbCircle
 62
7
  6
CONTINUOUS
 10
208.2142212702
 20
98.8968296371
 40
2.2812619965
100
AcDbArc
 50
77.3393052792
 51
92.1789699406
  0
ARC
  5
681
100
AcDbEntity
  8
RACCORDO
100
AcDbCircle
 62
7
  6
CONTINUOUS
 10
208.2142212702
 20
98.8968296371
 40
2.265576481
100
AcDbArc
 50
305.0160158987
 51
54.9839841013
  0
ARC
  5
682
100
AcDbEntity
  8
DRAFT
100
AcDbCircle
 62
7
  6
CONTINUOUS
 10
208.2142212702
 20
98.8968296371
 40
2.05
100
AcDbArc
 50
268.0420131276
 51
91.9579868724
  0
CIRCLE
  5
683
100
AcDbEntity
  8
SMUSSO
100
AcDbCircle
 62
7
  6
CONTINUOUS
 10
208.2142212702
 20
98.8968296371
 40
1.9301850577
  0
CIRCLE
  5
684
100
AcDbEntity
  8
SMUSSO
100
AcDbCircle
 62
7
  6
CONTINUOUS
 10
208.2142212702
 20
98.8968296371
 40
1.4345107419
  0
ARC
  5
685
100
AcDbEntity
  8
RACCORDO
100
AcDbCircle
 62
7
  6
CONTINUOUS
 10
208.2142212702
 20
101.5968296371
 40
1.3
100
AcDbArc
 50
0.0
 51
101.7270532554
  0
ARC
  5
686
100
AcDbEntity
  8
RACCORDO
100
AcDbCircle
 62
250
  6
CONTINUOUS
 10
208.2142212702
 20
101.5968296371
 40
0.5
100
AcDbArc
 50
0.0
 51
109.6393067423
  0
CIRCLE
  5
687
100
AcDbEntity
  8
ASSI
100
AcDbCircle
 62
7
  6
CONTINUOUS
 10
202.2142212702
 20
122.8968296371
 40
6.75
  0
CIRCLE
  5
688
100
AcDbEntity
  8
ASSI
100
AcDbCircle
 62
7
  6
CONTINUOUS
 10
202.2142212702
 20
122.8968296371
 40
5.45
  0
ARC
  5
689
100
AcDbEntity
  8
ASSI
100
AcDbCircle
 62
7
  6
CONTINUOUS
 10
201.0142212702
 20
122.8968296371
 40
2.1
100
AcDbArc
 50
90.0
 51
270.0
  0
ARC
  5
68A
100
AcDbEntity
  8
ASSI
100
AcDbCircle
 62
7
  6
CONTINUOUS
 10
203.4142212702
 20
122.8968296371
 40
2.1
100
AcDbArc
 50
270.0
 51
90.0
  0
ARC
  5
68B
100
AcDbEntity
  8
RACCORDO
100
AcDbCircle
 62
7
  6
CONTINUOUS
 10
54.8228762619
 20
102.0968296371
 40
0.8
100
AcDbArc
 50
90.0
 51
180.0
  0
ARC
  5
68C
100
AcDbEntity
  8
RACCORDO
100
AcDbCircle
 62
7
  6
CONTINUOUS
 10
54.8228762619
 20
95.6968296371
 40
0.8
100
AcDbArc
 50
180.0
 51
270.0
  0
ARC
  5
68D
100
AcDbEntity
  8
RACCORDO
100
AcDbCircle
 62
7
  6
CONTINUOUS
 10
54.8228762619
 20
69.2622525557
 40
0.8
100
AcDbArc
 50
90.3
 51
180.0
  0
ARC
  5
68E
100
AcDbEntity
  8
RACCORDO
100
AcDbCircle
 62
7
  6
CONTINUOUS
 10
54.8228762619
 20
68.5314067185
 40
0.8
100
AcDbArc
 50
180.0
 51
269.7
  0
ARC
  5
68F
100
AcDbEntity
  8
RACCORDO
100
AcDbCircle
 62
7
  6
CONTINUOUS
 10
54.8228762619
 20
129.2622525557
 40
0.8
100
AcDbArc
 50
90.3
 51
180.0
  0
ARC
  5
690
100
AcDbEntity
  8
RACCORDO
100
AcDbCircle
 62
7
  6
CONTINUOUS
 10
54.8228762619
 20
128.5314067185
 40
0.8
100
AcDbArc
 50
180.0
 51
269.7
  0
ARC
  5
691
100
AcDbEntity
  8
RACCORDO
100
AcDbCircle
 62
7
  6
CONTINUOUS
 10
56.2228762619
 20
138.7194128676
 40
0.7
100
AcDbArc
 50
92.0
 51
180.0
  0
ARC
  5
692
100
AcDbEntity
  8
RACCORDO
100
AcDbCircle
 62
7
  6
CONTINUOUS
 10
56.2228762619
 20
59.0742464066
 40
0.7
100
AcDbArc
 50
180.0
 51
268.0
  0
ELLIPSE
  5
693
100
AcDbEntity
  8
0
100
AcDbEllipse
 62
7
  6
CONTINUOUS
 10
91.3120698504
 20
654.5401090333
 30
0.0
 11
-0.0000499385
 21
535.1140687405
 31
0.0
 40
0.9951246681
 41
-2.949147813
 42
-2.9480353123
  0
ELLIPSE
  5
694
100
AcDbEntity
  8
0
100
AcDbEllipse
 62
7
  6
CONTINUOUS
 10
-333.0479880871
 20
28.9946791649
 30
0.0
 11
535.1140688131
 21
-0.0000279813
 31
0.0
 40
0.9951246679
 41
0.1923540144
 42
0.1923984388
  0
ELLIPSE
  5
695
100
AcDbEntity
  8
0
100
AcDbEllipse
 62
7
  6
CONTINUOUS
 10
716.9764309512
 20
230.2989800721
 30
0.0
 11
-535.1140690522
 21
-0.0000119097
 31
0.0
 40
0.9951246675
 41
0.1923539394
 42
0.1923983638
  0
ELLIPSE
  5
696
100
AcDbEntity
  8
0
100
AcDbEllipse
 62
7
  6
CONTINUOUS
 10
292.6163624927
 20
-395.2464519662
 30
0.0
 11
-0.000984511
 21
-535.1140709239
 31
0.0
 40
0.995124664
 41
-2.9491458899
 42
-2.9480333892
  0
ELLIPSE
  5
697
100
AcDbEntity
  8
0
100
AcDbEllipse
 62
7
  6
CONTINUOUS
 10
63.8120698504
 20
654.5401090333
 30
0.0
 11
-0.0000499385
 21
535.1140687405
 31
0.0
 40
0.9951246681
 41
-2.949147813
 42
-2.9480353123
  0
ELLIPSE
  5
698
100
AcDbEntity
  8
0
100
AcDbEllipse
 62
7
  6
CONTINUOUS
 10
-360.5479880871
 20
28.9946791649
 30
0.0
 11
535.1140688131
 21
-0.0000279813
 31
0.0
 40
0.9951246679
 41
0.1923540144
 42
0.1923984388
  0
ELLIPSE
  5
699
100
AcDbEntity
  8
0
100
AcDbEllipse
 62
7
  6
CONTINUOUS
 10
689.4764309512
 20
230.2989800721
 30
0.0
 11
-535.1140690522
 21
-0.0000119097
 31
0.0
 40
0.9951246675
 41
0.1923539394
 42
0.1923983638
  0
ELLIPSE
  5
69A
100
AcDbEntity
  8
0
100
AcDbEllipse
 62
7
  6
CONTINUOUS
 10
265.1163624927
 20
-395.2464519662
 30
0.0
 11
-0.000984511
 21
-535.1140709239
 31
0.0
 40
0.995124664
 41
-2.9491458899
 42
-2.9480333892
  0
ELLIPSE
  5
69B
100
AcDbEntity
  8
0
100
AcDbEllipse
 62
7
  6
CONTINUOUS
 10
292.6163624927
 20
-456.7464519662
 30
0.0
 11
-0.000984511
 21
-535.1140709239
 31
0.0
 40
0.995124664
 41
-2.9491458899
 42
-2.9480333892
  0
ELLIPSE
  5
69C
100
AcDbEntity
  8
0
100
AcDbEllipse
 62
7
  6
CONTINUOUS
 10
91.3120698504
 20
593.0401090333
 30
0.0
 11
-0.0000499385
 21
535.1140687405
 31
0.0
 40
0.9951246681
 41
-2.949147813
 42
-2.9480353123
  0
ELLIPSE
  5
69D
100
AcDbEntity
  8
0
100
AcDbEllipse
 62
7
  6
CONTINUOUS
 10
-333.0479880871
 20
-32.5053208351
 30
0.0
 11
535.1140688131
 21
-0.0000279813
 31
0.0
 40
0.9951246679
 41
0.1923540144
 42
0.1923984388
  0
ELLIPSE
  5
69E
100
AcDbEntity
  8
0
100
AcDbEllipse
 62
7
  6
CONTINUOUS
 10
716.9764309512
 20
168.7989800721
 30
0.0
 11
-535.1140690522
 21
-0.0000119097
 31
0.0
 40
0.9951246675
 41
0.1923539394
 42
0.1923983638
  0
ELLIPSE
  5
69F
100
AcDbEntity
  8
0
100
AcDbEllipse
 62
7
  6
CONTINUOUS
 10
265.1163624927
 20
-456.7464519662
 30
0.0
 11
-0.000984511
 21
-535.1140709239
 31
0.0
 40
0.995124664
 41
-2.9491458899
 42
-2.9480333892
  0
ELLIPSE
  5
6A0
100
AcDbEntity
  8
0
100
AcDbEllipse
 62
7
  6
CONTINUOUS
 10
63.8120698504
 20
593.0401090333
 30
0.0
 11
-0.0000499385
 21
535.1140687405
 31
0.0
 40
0.9951246681
 41
-2.949147813
 42
-2.9480353123
  0
ELLIPSE
  5
6A1
100
AcDbEntity
  8
0
100
AcDbEllipse
 62
7
  6
CONTINUOUS
 10
-360.5479880871
 20
-32.5053208351
 30
0.0
 11
535.1140688131
 21
-0.0000279813
 31
0.0
 40
0.9951246679
 41
0.1923540144
 42
0.1923984388
  0
ELLIPSE
  5
6A2
100
AcDbEntity
  8
0
100
AcDbEllipse
 62
7
  6
CONTINUOUS
 10
689.4764309512
 20
168.7989800721
 30
0.0
 11
-535.1140690522
 21
-0.0000119097
 31
0.0
 40
0.9951246675
 41
0.1923539394
 42
0.1923983638
  0
ELLIPSE
  5
6A3
100
AcDbEntity
  8
RACCORDO
100
AcDbEllipse
 62
7
  6
CONTINUOUS
 10
132.8446479512
 20
57.5272563181
 30
0.0
 11
0.4955779812
 21
0.4955779812
 31
0.0
 40
0.998782766
 41
-3.9263818294
 42
-2.3568034778
  0
ELLIPSE
  5
6A4
100
AcDbEntity
  8
RACCORDO
100
AcDbEllipse
 62
7
  6
CONTINUOUS
 10
132.8446479512
 20
140.2664029561
 30
0.0
 11
0.4955779812
 21
-0.4955779812
 31
0.0
 40
0.998782766
 41
2.3568034778
 42
3.9263818294
  0
ELLIPSE
  5
6A5
100
AcDbEntity
  8
RACCORDO
100
AcDbEllipse
 62
7
  6
CONTINUOUS
 10
223.5837945892
 20
140.2664029561
 30
0.0
 11
0.4955779812
 21
0.4955779812
 31
0.0
 40
0.998782766
 41
-0.7847891758
 42
0.7847891758
  0
ELLIPSE
  5
6A6
100
AcDbEntity
  8
RACCORDO
100
AcDbEllipse
 62
7
  6
CONTINUOUS
 10
223.5837945892
 20
57.5272563181
 30
0.0
 11
0.4955779812
 21
-0.4955779812
 31
0.0
 40
0.998782766
 41
-0.7847891758
 42
0.7847891758
  0
ELLIPSE
  5
6A7
100
AcDbEntity
  8
RACCORDO
100
AcDbEllipse
 62
7
  6
CONTINUOUS
 10
194.7313048752
 20
133.0220601899
 30
0.0
 11
0.6729312338
 21
0.0000128132
 31
0.0
 40
0.008429464
 41
-0.0022588363
 42
3.1393338173
  0
ELLIPSE
  5
6A8
100
AcDbEntity
  8
RACCORDO
100
AcDbEllipse
 62
7
  6
CONTINUOUS
 10
161.6971376652
 20
133.0220601899
 30
0.0
 11
0.6729312338
 21
-0.0000128132
 31
0.0
 40
0.008429464
 41
0.0022588363
 42
3.1438514898
  0
ELLIPSE
  5
6A9
100
AcDbEntity
  8
RACCORDO
100
AcDbEllipse
 62
7
  6
CONTINUOUS
 10
161.6971376652
 20
64.7715990843
 30
0.0
 11
0.6729312338
 21
0.0000128132
 31
0.0
 40
0.008429464
 41
3.1393338173
 42
6.2809264709
  0
ELLIPSE
  5
6AA
100
AcDbEntity
  8
RACCORDO
100
AcDbEllipse
 62
7
  6
CONTINUOUS
 10
194.7313048752
 20
64.7715990843
 30
0.0
 11
0.6729312338
 21
-0.0000128132
 31
0.0
 40
0.008429464
 41
-3.1393338173
 42
0.0022588363
  0
ENDSEC
  0
SECTION
  2
OBJECTS
  0
DICTIONARY
  5
C
100
AcDbDictionary
280
0
281
1
  3
ACAD_GROUP
350
D
  3
ACAD_MLINESTYLE
350
17
  3
ACAD_LAYOUT
350
1A
  3
ACAD_PLOTSETTINGS
350
19
  3
ACAD_PLOTSTYLENAME
350
E
  0
DICTIONARY
  5
D
102
{ACAD_REACTORS
330
C
102
}
100
AcDbDictionary
280
0
281
1
  0
ACDBDICTIONARYWDFLT
  5
E
102
{ACAD_REACTORS
330
C
102
}
100
AcDbDictionary
281
1
  3
Normal
350
F
100
AcDbDictionaryWithDefault
340
F
  0
DICTIONARY
  5
17
102
{ACAD_REACTORS
330
C
102
}
100
AcDbDictionary
280
0
281
1
  3
Standard
350
18
  0
DICTIONARY
  5
19
102
{ACAD_REACTORS
330
C
102
}
100
AcDbDictionary
281
1
  0
DICTIONARY
  5
1A
102
{ACAD_REACTORS
330
C
102
}
100
AcDbDictionary
281
1
  3
Model
350
6AB
  3
Layout1
350
6AC
  0
ACDBPLACEHOLDER
  5
F
102
{ACAD_REACTORS
330
E
102
}
  0
MLINESTYLE
  5
18
102
{ACAD_REACTORS
330
17
102
}
100
AcDbMlineStyle
  2
STANDARD
 70
0
  3

 62
256
 51
90.0
 52
90.0
 71
2
 49
0.5
 62
256
  6
BYLAYER
 49
-0.5
 62
256
  6
BYLAYER
  0
LAYOUT
  5
6AB
102
{ACAD_REACTORS
330
1A
102
}
100
AcDbPlotSettings
  1

  2
none_device
  4
ISO_A4_(297.00_x_210.00_MM)
  6

 40
0.0
 41
0.0
 42
0.0
 43
0.0
 44
297.0
 45
210.0
 46
0.0
 47
0.0
 48
0.0
 49
0.0
140
0.0
141
0.0
142
1.0
143
1.0
 70
1024
 72
1
 73
0
 74
0
  7

 75
0
147
1.0
148
0.0
149
0.0
100
AcDbLayout
  1
Model
 70
0
 71
0
 10
0.0
 20
0.0
 11
297.0
 21
210.0
 12
0.0
 22
0.0
 32
0.0
 14
0.0
 24
0.0
 34
0.0
 15
0.0
 25
0.0
 35
0.0
146
0.0
 13
0.0
 23
0.0
 33
0.0
 16
1.0
 26
0.0
 36
0.0
 17
0.0
 27
1.0
 37
0.0
 76
0
330
210
345
0
346
0
  0
LAYOUT
  5
6AC
102
{ACAD_REACTORS
330
1A
102
}
100
AcDbPlotSettings
  1

  2
none_device
  4
ISO_A4_(297.00_x_210.00_MM)
  6

 40
0.0
 41
0.0
 42
0.0
 43
0.0
 44
297.0
 45
210.0
 46
0.0
 47
0.0
 48
0.0
 49
0.0
140
0.0
141
0.0
142
1.0
143
1.0
 70
0
 72
1
 73
0
 74
0
  7

 75
0
147
1.0
148
0.0
149
0.0
100
AcDbLayout
  1
Layout1
 70
0
 71
1
 10
0.0
 20
0.0
 11
297.0
 21
210.0
 12
0.0
 22
0.0
 32
0.0
 14
0.0
 24
0.0
 34
0.0
 15
0.0
 25
0.0
 35
0.0
146
0.0
 13
0.0
 23
0.0
 33
0.0
 16
1.0
 26
0.0
 36
0.0
 17
0.0
 27
1.0
 37
0.0
 76
0
330
211
345
0
346
0
  0
ENDSEC
  0
EOF
