  0
SECTION
  2
HEADER
  9
$ACADVER
  1
AC1024
  9
$DWGCODEPAGE
  3
ANSI_1252
  9
$EXTMAX
 10
297.0
 20
210.0
 30
0.0
  9
$EXTMIN
 10
0.0
 20
0.0
 30
0.0
  9
$LIMMIN
 10
0.0
 20
0.0
  9
$LIMMAX
 10
297.0
 20
210.0
  9
$VIEWCTR
 10
148.5
 20
105.0
  9
$VIEWSIZE
 40
210.0
  9
$CLAYER
  8
0
  9
$LTSCALE
 40
16.335
  9
$CELTYPE
  6
BYLAYER
  9
$DIMSCALE
 40
1.0
  9
$DIMASZ
 40
3.0
  9
$DIMEXO
 40
0.5
  9
$DIMDLI
 40
11.286
  9
$DIMEXE
 40
1.5
  9
$DIMCEN
 40
2.673
  9
$DIMLFAC
 40
1.0
  9
$DIMBLK
  1
_FILLED
  9
$DIMALT
 70
0
  9
$DIMALTF
 40
0.0393700787
  9
$DIMTXT
 40
3.0
  9
$DIMTOL
 70
1
  9
$DIMLIM
 70
0
  9
$DIMTFAC
 40
1.0
  9
$DIMTP
 40
0.01
  9
$DIMTM
 40
0.01
  9
$DIMGAP
 40
0.625
  9
$DIMDSEP
 70
44
  9
$AUNITS
 70
0
  9
$PDMODE
 70
3
  9
$PDSIZE
 40
3.0
  9
$HANDSEED
  5
31E
  9
$TILEMODE
 70
1
  9
$MEASUREMENT
 70
1
  9
$INSUNITS
 70
4
  0
ENDSEC
  0
SECTION
  2
CLASSES
  0
CLASS
  1
ACDBDICTIONARYWDFLT
  2
AcDbDictionaryWithDefault
  3
AutoCAD 2000
 90
0
 91
1
280
0
281
0
  0
CLASS
  1
ACDBPLACEHOLDER
  2
AcDbPlaceHolder
  3
AutoCAD 2000
 90
0
 91
1
280
0
281
0
  0
CLASS
  1
LAYOUT
  2
AcDbLayout
  3
AutoCAD 2000
 90
0
 91
0
280
0
281
0
  0
ENDSEC
  0
SECTION
  2
TABLES
  0
TABLE
  2
VPORT
  5
8
100
AcDbSymbolTable
 70
2
  0
VPORT
  5
1F4
100
AcDbSymbolTableRecord
100
AcDbViewportTableRecord
  2
*ACTIVE
 70
0
 10
0.0
 20
0.0
 11
1.0
 21
1.0
 12
148.5
 22
105.0
 13
0.0
 23
0.0
 14
1.0
 24
1.0
 15
0.0
 25
0.0
 16
0.0
 26
0.0
 36
1.0
 17
0.0
 27
0.0
 37
0.0
 40
210.0
 41
1.4142857143
 42
50.0
 43
0.0
 44
0.0
 50
0.0
 51
0.0
 71
0
 72
100
 73
1
 74
1
 75
0
 76
0
 77
0
 78
0
  0
ENDTAB
  0
TABLE
  2
LTYPE
  5
5
100
AcDbSymbolTable
 70
6
  0
LTYPE
  5
14
100
AcDbSymbolTableRecord
100
AcDbLinetypeTableRecord
  2
BYBLOCK
 70
0
  3

 72
65
 73
0
 40
0.0
  0
LTYPE
  5
15
100
AcDbSymbolTableRecord
100
AcDbLinetypeTableRecord
  2
BYLAYER
 70
0
  3

 72
65
 73
0
 40
0.0
  0
LTYPE
  5
16
100
AcDbSymbolTableRecord
100
AcDbLinetypeTableRecord
  2
CONTINUOUS
 70
64
  3
Solid line
 72
65
 73
0
 40
0.0
  0
LTYPE
  5
1F5
100
AcDbSymbolTableRecord
100
AcDbLinetypeTableRecord
  2
CENTER
 70
64
  3
____ _ ____ _ ____ _ ____ _ ____ _ ____ _ ____
 72
65
 73
4
 40
0.6
 49
0.375
 74
0
 49
-0.075
 74
0
 49
0.075
 74
0
 49
-0.075
 74
0
  0
LTYPE
  5
1F6
100
AcDbSymbolTableRecord
100
AcDbLinetypeTableRecord
  2
HIDDEN
 70
64
  3
- - - - - - - - - - - - - - - - - - - -
 72
65
 73
2
 40
0.2
 49
0.1
 74
0
 49
-0.1
 74
0
  0
LTYPE
  5
1F7
100
AcDbSymbolTableRecord
100
AcDbLinetypeTableRecord
  2
PHANTOM
 70
64
  3
_____ _ _ _____ _ _ _____ _ _ _____
 72
65
 73
6
 40
0.8
 49
0.45
 74
0
 49
-0.05
 74
0
 49
0.1
 74
0
 49
-0.05
 74
0
 49
0.1
 74
0
 49
-0.05
 74
0
  0
LTYPE
  5
1F8
100
AcDbSymbolTableRecord
100
AcDbLinetypeTableRecord
  2
DOT
 70
64
  3
. . . . . . . . . . . . . . . . . . . .
 72
65
 73
2
 40
0.2
 49
0.1
 74
0
 49
-0.1
 74
0
  0
LTYPE
  5
1F9
100
AcDbSymbolTableRecord
100
AcDbLinetypeTableRecord
  2
DASHED
 70
64
  3
- - - - - - - - - - - - - - - - - - - -
 72
65
 73
2
 40
0.2
 49
0.1
 74
0
 49
-0.1
 74
0
  0
ENDTAB
  0
TABLE
  2
LAYER
  5
2
100
AcDbSymbolTable
 70
36
  0
LAYER
  5
10
100
AcDbSymbolTableRecord
100
AcDbLayerTableRecord
  2
0
 70
0
 62
7
  6
CONTINUOUS
370
-3
390
F
  0
LAYER
  5
1FA
100
AcDbSymbolTableRecord
100
AcDbLayerTableRecord
  2
DEFAULT_1
 70
0
 62
7
  6
CENTER
370
-3
390
F
  0
LAYER
  5
1FB
100
AcDbSymbolTableRecord
100
AcDbLayerTableRecord
  2
DEFAULT_2
 70
0
 62
7
  6
HIDDEN
370
-3
390
F
  0
LAYER
  5
1FC
100
AcDbSymbolTableRecord
100
AcDbLayerTableRecord
  2
DEFAULT_3
 70
0
 62
7
  6
PHANTOM
370
-3
390
F
  0
LAYER
  5
1FD
100
AcDbSymbolTableRecord
100
AcDbLayerTableRecord
  2
ASSI
 70
0
 62
7
  6
CONTINUOUS
370
-3
390
F
  0
LAYER
  5
1FE
100
AcDbSymbolTableRecord
100
AcDbLayerTableRecord
  2
COLOR5
 70
0
 62
7
  6
CONTINUOUS
370
-3
390
F
  0
LAYER
  5
1FF
100
AcDbSymbolTableRecord
100
AcDbLayerTableRecord
  2
COORDINATE
 70
0
 62
7
  6
CONTINUOUS
370
-3
390
F
  0
LAYER
  5
200
100
AcDbSymbolTableRecord
100
AcDbLayerTableRecord
  2
COORD_ORIGINE
 70
0
 62
7
  6
CONTINUOUS
370
-3
390
F
  0
LAYER
  5
201
100
AcDbSymbolTableRecord
100
AcDbLayerTableRecord
  2
COPY_PUBLISH
 70
0
 62
7
  6
CONTINUOUS
370
-3
390
F
  0
LAYER
  5
202
100
AcDbSymbolTableRecord
100
AcDbLayerTableRecord
  2
COSMETIC
 70
0
 62
7
  6
CONTINUOUS
370
-3
390
F
  0
LAYER
  5
203
100
AcDbSymbolTableRecord
100
AcDbLayerTableRecord
  2
COSMETICI
 70
0
 62
7
  6
CONTINUOUS
370
-3
390
F
  0
LAYER
  5
204
100
AcDbSymbolTableRecord
100
AcDbLayerTableRecord
  2
CURVE
 70
0
 62
7
  6
CONTINUOUS
370
-3
390
F
  0
LAYER
  5
205
100
AcDbSymbolTableRecord
100
AcDbLayerTableRecord
  2
DRAFT
 70
0
 62
7
  6
CONTINUOUS
370
-3
390
F
  0
LAYER
  5
206
100
AcDbSymbolTableRecord
100
AcDbLayerTableRecord
  2
IMPORT_IGES
 70
0
 62
7
  6
CONTINUOUS
370
-3
390
F
  0
LAYER
  5
207
100
AcDbSymbolTableRecord
100
AcDbLayerTableRecord
  2
NOTE
 70
0
 62
7
  6
CONTINUOUS
370
-3
390
F
  0
LAYER
  5
208
100
AcDbSymbolTableRecord
100
AcDbLayerTableRecord
  2
PIANI
 70
0
 62
7
  6
CONTINUOUS
370
-3
390
F
  0
LAYER
  5
209
100
AcDbSymbolTableRecord
100
AcDbLayerTableRecord
  2
PIANI_ORIGINE
 70
0
 62
7
  6
CONTINUOUS
370
-3
390
F
  0
LAYER
  5
20A
100
AcDbSymbolTableRecord
100
AcDbLayerTableRecord
  2
PUNTI
 70
0
 62
7
  6
CONTINUOUS
370
-3
390
F
  0
LAYER
  5
20B
100
AcDbSymbolTableRecord
100
AcDbLayerTableRecord
  2
RACCORDO
 70
0
 62
7
  6
CONTINUOUS
370
-3
390
F
  0
LAYER
  5
20C
100
AcDbSymbolTableRecord
100
AcDbLayerTableRecord
  2
SIMBOLI
 70
0
 62
7
  6
CONTINUOUS
370
-3
390
F
  0
LAYER
  5
20D
100
AcDbSymbolTableRecord
100
AcDbLayerTableRecord
  2
SNAPLINE
 70
0
 62
7
  6
CONTINUOUS
370
-3
390
F
  0
LAYER
  5
20E
100
AcDbSymbolTableRecord
100
AcDbLayerTableRecord
  2
SUPERFICI
 70
0
 62
7
  6
CONTINUOUS
370
-3
390
F
  0
LAYER
  5
20F
100
AcDbSymbolTableRecord
100
AcDbLayerTableRecord
  2
TRASH
 70
0
 62
7
  6
CONTINUOUS
370
-3
390
F
  0
ENDTAB
  0
TABLE
  2
STYLE
  5
3
100
AcDbSymbolTable
 70
1
  0
STYLE
  5
11
100
AcDbSymbolTableRecord
100
AcDbTextStyleTableRecord
  2
STANDARD
 70
0
 40
0.0
 41
0.8
 50
0.0
 71
0
 42
0.2
  3
txt
  4

  0
STYLE
  5
210
100
AcDbSymbolTableRecord
100
AcDbTextStyleTableRecord
  2
TEXTSTYLE_1
 70
0
 40
0.0
 41
0.8
 50
0.0
 71
0
 42
0.2
  3
gdt
  4

  0
ENDTAB
  0
TABLE
  2
VIEW
  5
6
100
AcDbSymbolTable
 70
0
  0
ENDTAB
  0
TABLE
  2
UCS
  5
7
100
AcDbSymbolTable
 70
0
  0
ENDTAB
  0
TABLE
  2
APPID
  5
9
100
AcDbSymbolTable
 70
1
  0
APPID
  5
211
100
AcDbSymbolTableRecord
100
AcDbRegAppTableRecord
  2
ACAD
 70
0
  0
ENDTAB
  0
TABLE
  2
BLOCK_RECORD
  5
1
100
AcDbSymbolTable
 70
0
  0
BLOCK_RECORD
  5
212
100
AcDbSymbolTableRecord
100
AcDbBlockTableRecord
  2
*Model_Space
  0
BLOCK_RECORD
  5
213
100
AcDbSymbolTableRecord
100
AcDbBlockTableRecord
  2
*Paper_Space
  0
BLOCK_RECORD
  5
214
100
AcDbSymbolTableRecord
100
AcDbBlockTableRecord
  2
_FILLED
  0
BLOCK_RECORD
  5
215
100
AcDbSymbolTableRecord
100
AcDbBlockTableRecord
  2
*D0
  0
BLOCK_RECORD
  5
216
100
AcDbSymbolTableRecord
100
AcDbBlockTableRecord
  2
*D1
  0
BLOCK_RECORD
  5
217
100
AcDbSymbolTableRecord
100
AcDbBlockTableRecord
  2
*D2
  0
BLOCK_RECORD
  5
218
100
AcDbSymbolTableRecord
100
AcDbBlockTableRecord
  2
*D3
  0
BLOCK_RECORD
  5
219
100
AcDbSymbolTableRecord
100
AcDbBlockTableRecord
  2
*D4
  0
BLOCK_RECORD
  5
21A
100
AcDbSymbolTableRecord
100
AcDbBlockTableRecord
  2
*D5
  0
ENDTAB
  0
TABLE
  2
DIMSTYLE
  5
A
100
AcDbSymbolTable
 70
1
100
AcDbDimStyleTable
 71
0
  0
DIMSTYLE
105
21B
100
AcDbSymbolTableRecord
100
AcDbDimStyleTableRecord
  2
STANDARD
 70
0
  3

  4

 40
1.0
 41
3.0
 42
0.5
 43
0.38
 44
1.5
 45
0.0
 46
0.0
 47
0.01
 48
0.01
140
3.0
141
0.09
142
0.0
143
25.4
144
1.0
145
0.0
146
1.0
147
0.625
 71
1.0
 72
0.0
 73
0
 74
0
 75
0
 76
0
 77
1
 78
8
 79
2
170
0
171
1
172
0
173
0
174
0
175
0
176
0
177
0
178
0
270
2
179
2
271
2
272
2
273
2
274
2
275
0
280
0
281
0
282
0
283
1
284
8
285
0
286
0
287
3
288
0
340
11
278
44
341
214
342
214
343
214
344
214
  0
DIMSTYLE
105
21C
100
AcDbSymbolTableRecord
100
AcDbDimStyleTableRecord
  2
DIMSTYLE_1
 70
0
  3

  4

 40
1.0
 41
3.0
 42
0.5
 43
0.38
 44
1.5
 45
0.0
 46
0.0
 47
0.0
 48
0.0
140
3.0
141
0.09
142
0.0
143
25.4
144
1.0
145
0.0
146
1.0
147
0.75
 71
0.0
 72
0.0
 73
0
 74
0
 75
0
 76
0
 77
1
 78
8
 79
2
170
0
171
1
172
0
173
0
174
0
175
0
176
0
177
0
178
0
270
2
179
2
271
2
272
2
273
2
274
2
275
0
280
0
281
0
282
0
283
1
284
8
285
0
286
0
287
3
288
0
340
11
278
44
341
214
342
214
343
214
344
214
  0
ENDTAB
  0
ENDSEC
  0
SECTION
  2
BLOCKS
  0
BLOCK
  5
20
100
AcDbEntity
  8
0
100
AcDbBlockBegin
  2
*Model_Space
 70
0
 10
0.0
 20
0.0
 30
0.0
  3
*Model_Space
  1

  0
ENDBLK
  5
21
100
AcDbEntity
  8
0
100
AcDbBlockEnd
  0
BLOCK
  5
1C
100
AcDbEntity
  8
0
100
AcDbBlockBegin
  2
*Paper_Space
 70
0
 10
0.0
 20
0.0
 30
0.0
  3
*Paper_Space
  1

  0
ENDBLK
  5
1D
100
AcDbEntity
  8
0
100
AcDbBlockEnd
  0
BLOCK
  5
21D
100
AcDbEntity
  8
0
100
AcDbBlockBegin
  2
_FILLED
 70
64
 10
0.0
 20
0.0
  3
_FILLED
  1

  0
SOLID
  5
21E
100
AcDbEntity
  8
0
  6
BYBLOCK
 62
0
100
AcDbTrace
 10
0.0
 20
0.0
 11
-1.0
 21
0.3166666667
 12
-1.0
 22
-0.3166666667
 13
-1.0
 23
-0.3166666667
  0
ENDBLK
  5
21F
100
AcDbEntity
  8
0
  6
BYBLOCK
 62
0
100
AcDbBlockEnd
  0
BLOCK
  5
220
100
AcDbEntity
  8
0
100
AcDbBlockBegin
 62
7
  6
CONTINUOUS
  2
*D0
 70
65
 10
0.0
 20
0.0
  3
*D0
  1

  0
LINE
  5
221
100
AcDbEntity
  8
0
100
AcDbLine
 62
7
  6
CONTINUOUS
 10
100.3243888957
 20
41.1841766099
 11
100.3243888957
 21
69.184138533
  0
LINE
  5
222
100
AcDbEntity
  8
0
100
AcDbLine
 62
7
  6
CONTINUOUS
 10
-23.6756111043
 20
41.1841766099
 11
-23.6756111043
 21
69.184138533
  0
LINE
  5
223
100
AcDbEntity
  8
0
100
AcDbLine
 62
7
  6
CONTINUOUS
 10
100.3243888957
 20
67.684138533
 11
38.3243888957
 21
67.684138533
  0
LINE
  5
224
100
AcDbEntity
  8
0
100
AcDbLine
 62
7
  6
CONTINUOUS
 10
-23.6756111043
 20
67.684138533
 11
38.3243888957
 21
67.684138533
  0
INSERT
  5
225
100
AcDbEntity
  8
0
100
AcDbBlockReference
 62
7
  6
CONTINUOUS
  2
_FILLED
 10
100.3243888957
 20
67.684138533
 41
3.0
 42
3.0
 43
3.0
  0
INSERT
  5
226
100
AcDbEntity
  8
0
100
AcDbBlockReference
 62
7
  6
CONTINUOUS
  2
_FILLED
 10
-23.6756111043
 20
67.684138533
 41
3.0
 42
3.0
 43
3.0
 50
180.0
  0
ENDBLK
  5
227
100
AcDbEntity
  8
0
  6
BYBLOCK
 62
0
100
AcDbBlockEnd
  0
BLOCK
  5
228
100
AcDbEntity
  8
0
100
AcDbBlockBegin
 62
7
  6
CONTINUOUS
  2
*D1
 70
65
 10
0.0
 20
0.0
  3
*D1
  1

  0
LINE
  5
229
100
AcDbEntity
  8
0
100
AcDbLine
 62
7
  6
CONTINUOUS
 10
99.8244269726
 20
41.684138533
 11
119.8243888957
 21
41.684138533
  0
LINE
  5
22A
100
AcDbEntity
  8
0
100
AcDbLine
 62
7
  6
CONTINUOUS
 10
99.8244269726
 20
-38.315861467
 11
119.8243888957
 21
-38.315861467
  0
LINE
  5
22B
100
AcDbEntity
  8
0
100
AcDbLine
 62
7
  6
CONTINUOUS
 10
118.3243888957
 20
41.684138533
 11
118.3243888957
 21
1.684138533
  0
LINE
  5
22C
100
AcDbEntity
  8
0
100
AcDbLine
 62
7
  6
CONTINUOUS
 10
118.3243888957
 20
-38.315861467
 11
118.3243888957
 21
1.684138533
  0
INSERT
  5
22D
100
AcDbEntity
  8
0
100
AcDbBlockReference
 62
7
  6
CONTINUOUS
  2
_FILLED
 10
118.3243888957
 20
41.684138533
 41
3.0
 42
3.0
 43
3.0
 50
90.0
  0
INSERT
  5
22E
100
AcDbEntity
  8
0
100
AcDbBlockReference
 62
7
  6
CONTINUOUS
  2
_FILLED
 10
118.3243888957
 20
-38.315861467
 41
3.0
 42
3.0
 43
3.0
 50
270.0
  0
ENDBLK
  5
22F
100
AcDbEntity
  8
0
  6
BYBLOCK
 62
0
100
AcDbBlockEnd
  0
BLOCK
  5
230
100
AcDbEntity
  8
0
100
AcDbBlockBegin
 62
7
  6
CONTINUOUS
  2
*D2
 70
65
 10
0.0
 20
0.0
  3
*D2
  1

  0
LINE
  5
231
100
AcDbEntity
  8
0
100
AcDbLine
 62
7
  6
CONTINUOUS
 10
-3.4256111043
 20
2.184138533
 11
-3.4256111043
 21
53.184138533
  0
LINE
  5
232
100
AcDbEntity
  8
0
100
AcDbLine
 62
7
  6
CONTINUOUS
 10
80.0743888957
 20
2.184138533
 11
80.0743888957
 21
53.184138533
  0
LINE
  5
233
100
AcDbEntity
  8
0
100
AcDbLine
 62
7
  6
CONTINUOUS
 10
-3.4256111043
 20
51.684138533
 11
38.3243888957
 21
51.684138533
  0
LINE
  5
234
100
AcDbEntity
  8
0
100
AcDbLine
 62
7
  6
CONTINUOUS
 10
80.0743888957
 20
51.684138533
 11
38.3243888957
 21
51.684138533
  0
INSERT
  5
235
100
AcDbEntity
  8
0
100
AcDbBlockReference
 62
7
  6
CONTINUOUS
  2
_FILLED
 10
-3.4256111043
 20
51.684138533
 41
3.0
 42
3.0
 43
3.0
 50
180.0
  0
INSERT
  5
236
100
AcDbEntity
  8
0
100
AcDbBlockReference
 62
7
  6
CONTINUOUS
  2
_FILLED
 10
80.0743888957
 20
51.684138533
 41
3.0
 42
3.0
 43
3.0
  0
ENDBLK
  5
237
100
AcDbEntity
  8
0
  6
BYBLOCK
 62
0
100
AcDbBlockEnd
  0
BLOCK
  5
238
100
AcDbEntity
  8
0
100
AcDbBlockBegin
 62
7
  6
CONTINUOUS
  2
*D3
 70
65
 10
0.0
 20
0.0
  3
*D3
  1

  0
LINE
  5
239
100
AcDbEntity
  8
0
100
AcDbLine
 62
7
  6
CONTINUOUS
 10
-12.6756111043
 20
31.184138533
 11
-12.6756111043
 21
61.184138533
  0
LINE
  5
23A
100
AcDbEntity
  8
0
100
AcDbLine
 62
7
  6
CONTINUOUS
 10
89.3243888957
 20
31.184138533
 11
89.3243888957
 21
61.184138533
  0
LINE
  5
23B
100
AcDbEntity
  8
0
100
AcDbLine
 62
7
  6
CONTINUOUS
 10
-12.6756111043
 20
59.684138533
 11
38.3243888957
 21
59.684138533
  0
LINE
  5
23C
100
AcDbEntity
  8
0
100
AcDbLine
 62
7
  6
CONTINUOUS
 10
89.3243888957
 20
59.684138533
 11
38.3243888957
 21
59.684138533
  0
INSERT
  5
23D
100
AcDbEntity
  8
0
100
AcDbBlockReference
 62
7
  6
CONTINUOUS
  2
_FILLED
 10
-12.6756111043
 20
59.684138533
 41
3.0
 42
3.0
 43
3.0
 50
180.0
  0
INSERT
  5
23E
100
AcDbEntity
  8
0
100
AcDbBlockReference
 62
7
  6
CONTINUOUS
  2
_FILLED
 10
89.3243888957
 20
59.684138533
 41
3.0
 42
3.0
 43
3.0
  0
ENDBLK
  5
23F
100
AcDbEntity
  8
0
  6
BYBLOCK
 62
0
100
AcDbBlockEnd
  0
BLOCK
  5
240
100
AcDbEntity
  8
0
100
AcDbBlockBegin
 62
7
  6
CONTINUOUS
  2
*D4
 70
65
 10
0.0
 20
0.0
  3
*D4
  1

  0
LINE
  5
241
100
AcDbEntity
  8
0
100
AcDbLine
 62
7
  6
CONTINUOUS
 10
89.8243888957
 20
-27.315861467
 11
111.8243888957
 21
-27.315861467
  0
LINE
  5
242
100
AcDbEntity
  8
0
100
AcDbLine
 62
7
  6
CONTINUOUS
 10
92.3243888957
 20
28.684138533
 11
111.8243888957
 21
28.684138533
  0
LINE
  5
243
100
AcDbEntity
  8
0
100
AcDbLine
 62
7
  6
CONTINUOUS
 10
110.3243888957
 20
-27.315861467
 11
110.3243888957
 21
0.684138533
  0
LINE
  5
244
100
AcDbEntity
  8
0
100
AcDbLine
 62
7
  6
CONTINUOUS
 10
110.3243888957
 20
28.684138533
 11
110.3243888957
 21
0.684138533
  0
INSERT
  5
245
100
AcDbEntity
  8
0
100
AcDbBlockReference
 62
7
  6
CONTINUOUS
  2
_FILLED
 10
110.3243888957
 20
-27.315861467
 41
3.0
 42
3.0
 43
3.0
 50
270.0
  0
INSERT
  5
246
100
AcDbEntity
  8
0
100
AcDbBlockReference
 62
7
  6
CONTINUOUS
  2
_FILLED
 10
110.3243888957
 20
28.684138533
 41
3.0
 42
3.0
 43
3.0
 50
90.0
  0
ENDBLK
  5
247
100
AcDbEntity
  8
0
  6
BYBLOCK
 62
0
100
AcDbBlockEnd
  0
BLOCK
  5
248
100
AcDbEntity
  8
0
100
AcDbBlockBegin
 62
7
  6
CONTINUOUS
  2
*D5
 70
65
 10
0.0
 20
0.0
  3
*D5
  1

  0
LINE
  5
249
100
AcDbEntity
  8
0
100
AcDbLine
 62
7
  6
CONTINUOUS
 10
-55.8405997636
 20
2.184138533
 11
-55.8405997636
 21
53.184138533
  0
LINE
  5
24A
100
AcDbEntity
  8
0
100
AcDbLine
 62
7
  6
CONTINUOUS
 10
-95.8405997636
 20
2.184138533
 11
-95.8405997636
 21
53.184138533
  0
LINE
  5
24B
100
AcDbEntity
  8
0
100
AcDbLine
 62
7
  6
CONTINUOUS
 10
-55.8405997636
 20
51.684138533
 11
-75.8405997636
 21
51.684138533
  0
LINE
  5
24C
100
AcDbEntity
  8
0
100
AcDbLine
 62
7
  6
CONTINUOUS
 10
-95.8405997636
 20
51.684138533
 11
-75.8405997636
 21
51.684138533
  0
INSERT
  5
24D
100
AcDbEntity
  8
0
100
AcDbBlockReference
 62
7
  6
CONTINUOUS
  2
_FILLED
 10
-55.8405997636
 20
51.684138533
 41
3.0
 42
3.0
 43
3.0
  0
INSERT
  5
24E
100
AcDbEntity
  8
0
100
AcDbBlockReference
 62
7
  6
CONTINUOUS
  2
_FILLED
 10
-95.8405997636
 20
51.684138533
 41
3.0
 42
3.0
 43
3.0
 50
180.0
  0
ENDBLK
  5
24F
100
AcDbEntity
  8
0
  6
BYBLOCK
 62
0
100
AcDbBlockEnd
  0
ENDSEC
  0
SECTION
  2
ENTITIES
  0
DIMENSION
  5
250
100
AcDbEntity
  8
0
100
AcDbDimension
 62
7
  6
CONTINUOUS
  2
*D0
 10
-23.6756111043
 20
67.684138533
 11
35.1101031814
 21
67.684138533
 70
160
 71
2
 72
2
 41
0.9
 42
124.0
  3
DIMSTYLE_1
100
AcDbAlignedDimension
 13
100.3243888957
 23
40.6841766099
 14
-23.6756111043
 24
40.6841766099
 50
180.0
100
AcDbRotatedDimension
  0
DIMENSION
  5
251
100
AcDbEntity
  8
0
100
AcDbDimension
 62
7
  6
CONTINUOUS
  2
*D1
 10
118.3243888957
 20
-38.315861467
 11
118.3243888957
 21
-0.6730043242
 70
160
 71
2
 72
2
 41
0.9
 42
80.0
  3
DIMSTYLE_1
100
AcDbAlignedDimension
 13
99.3244269726
 23
41.684138533
 14
99.3244269726
 24
-38.315861467
 50
270.0
100
AcDbRotatedDimension
  0
DIMENSION
  5
252
100
AcDbEntity
  8
0
100
AcDbDimension
 62
7
  6
CONTINUOUS
  2
*D2
 10
80.0743888957
 20
51.684138533
 11
34.1458174671
 21
51.684138533
 70
160
 71
2
 72
2
 41
0.9
 42
83.5
  3
DIMSTYLE_1
100
AcDbAlignedDimension
 13
-3.4256111043
 23
1.684138533
 14
80.0743888957
 24
1.684138533
100
AcDbRotatedDimension
  0
DIMENSION
  5
253
100
AcDbEntity
  8
0
100
AcDbDimension
 62
7
  6
CONTINUOUS
  2
*D3
 10
89.3243888957
 20
59.684138533
 11
35.1101031814
 21
59.684138533
 70
160
 71
2
 72
2
 41
0.9
 42
102.0
  3
DIMSTYLE_1
100
AcDbAlignedDimension
 13
-12.6756111043
 23
30.684138533
 14
89.3243888957
 24
30.684138533
100
AcDbRotatedDimension
  0
DIMENSION
  5
254
100
AcDbEntity
  8
0
100
AcDbDimension
 62
7
  6
CONTINUOUS
  2
*D4
 10
110.3243888957
 20
28.684138533
 11
110.3243888957
 21
-1.565861467
 70
160
 71
2
 72
2
 41
0.9
 42
56.0
  3
DIMSTYLE_1
100
AcDbAlignedDimension
 13
89.3243888957
 23
-27.315861467
 14
91.8243888957
 24
28.684138533
 50
90.0
100
AcDbRotatedDimension
  0
DIMENSION
  5
255
100
AcDbEntity
  8
0
100
AcDbDimension
 62
7
  6
CONTINUOUS
  2
*D5
 10
-95.8405997636
 20
51.684138533
 11
-78.1977426207
 21
51.684138533
 70
160
 71
2
 72
2
 41
0.9
 42
40.0
  3
DIMSTYLE_1
100
AcDbAlignedDimension
 13
-55.8405997636
 23
1.684138533
 14
-95.8405997636
 24
1.684138533
 50
180.0
100
AcDbRotatedDimension
  0
LWPOLYLINE
  5
256
100
AcDbEntity
  8
RACCORDO
100
AcDbPolyline
 62
250
  6
CONTINUOUS
 90
25
 70
0
 10
-23.3351871051
 20
-36.9754755448
 10
-23.3330373638
 20
-37.0409335446
 10
-23.3266072289
 20
-37.1061115263
 10
-23.3159241316
 20
-37.1707298758
 10
-23.3010335558
 20
-37.2345120853
 10
-23.2819993315
 20
-37.2971837476
 10
-23.2589038317
 20
-37.3584738729
 10
-23.231847316
 20
-37.4181177811
 10
-23.2009454424
 20
-37.4758616966
 10
-23.1663288231
 20
-37.5314613433
 10
-23.1281426121
 20
-37.5846817708
 10
-23.0865526617
 20
-37.6352901876
 10
-23.0417444704
 20
-37.6830617248
 10
-22.9939171899
 20
-37.7277874569
 10
-22.9432718946
 20
-37.76928253
 10
-22.8900162129
 20
-37.8073772615
 10
-22.8343657695
 20
-37.8419146099
 10
-22.7765699803
 20
-37.8727371029
 10
-22.7169037338
 20
-37.8997004115
 10
-22.655609024
 20
-37.9226987607
 10
-22.592965276
 20
-37.9416307938
 10
-22.5293203789
 20
-37.9564046474
 10
-22.4649770144
 20
-37.9669737625
 10
-22.4001864168
 20
-37.9733202286
 10
-22.3352251821
 20
-37.9754374679
  0
LINE
  5
257
100
AcDbEntity
  8
RACCORDO
100
AcDbLine
 62
7
  6
CONTINUOUS
 10
-23.6756111043
 20
-37.315899544
 11
-23.6756111043
 21
40.6841766099
  0
LINE
  5
258
100
AcDbEntity
  8
RACCORDO
100
AcDbLine
 62
250
  6
CONTINUOUS
 10
-23.3351871051
 20
40.3437526107
 11
-23.3351871051
 21
-36.9754755448
  0
LINE
  5
259
100
AcDbEntity
  8
RACCORDO
100
AcDbLine
 62
250
  6
CONTINUOUS
 10
-22.3352251821
 20
-37.9754374679
 11
-22.3352251821
 21
41.3437145338
  0
LINE
  5
25A
100
AcDbEntity
  8
DRAFT
100
AcDbLine
 62
7
  6
CONTINUOUS
 10
-17.3619877275
 20
31.2351666796
 11
-17.3619877275
 21
26.1331103863
  0
LINE
  5
25B
100
AcDbEntity
  8
DRAFT
100
AcDbLine
 62
7
  6
CONTINUOUS
 10
-16.9256111043
 20
31.1631584766
 11
-16.9256111043
 21
26.2051185893
  0
LINE
  5
25C
100
AcDbEntity
  8
DRAFT
100
AcDbLine
 62
7
  6
CONTINUOUS
 10
-15.4356915717
 20
26.684138533
 11
-15.4356915717
 21
30.684138533
  0
LINE
  5
25D
100
AcDbEntity
  8
DRAFT
100
AcDbLine
 62
7
  6
CONTINUOUS
 10
-15.1756111043
 20
26.684138533
 11
-15.1756111043
 21
30.684138533
  0
LINE
  5
25E
100
AcDbEntity
  8
DRAFT
100
AcDbLine
 62
7
  6
CONTINUOUS
 10
-13.2266392509
 20
-22.6294848438
 11
-13.1546310501
 21
-23.065861467
  0
LINE
  5
25F
100
AcDbEntity
  8
DRAFT
100
AcDbLine
 62
250
  6
CONTINUOUS
 10
-12.6756111043
 20
-30.0759419345
 11
-12.6756111043
 21
-29.815861467
  0
LINE
  5
260
100
AcDbEntity
  8
DRAFT
100
AcDbLine
 62
250
  6
CONTINUOUS
 10
-12.6756111043
 20
-24.5557809996
 11
-12.6756111043
 21
-24.815861467
  0
LWPOLYLINE
  5
261
100
AcDbEntity
  8
0
100
AcDbPolyline
 62
7
  6
CONTINUOUS
 90
3
 70
0
 43
0.3500000006
 10
35.1101031647
 20
70.5769948425
 10
35.967245636
 20
71.4341418457
 10
35.967245636
 20
68.4341409302
  0
LINE
  5
262
100
AcDbEntity
  8
DRAFT
100
AcDbLine
 62
7
  6
CONTINUOUS
 10
-8.1245829577
 20
-32.0022380903
 11
-8.1965911585
 21
-31.565861467
  0
LINE
  5
263
100
AcDbEntity
  8
DRAFT
100
AcDbLine
 62
7
  6
CONTINUOUS
 10
-10.1756111043
 20
30.684138533
 11
-10.1756111043
 21
26.684138533
  0
LINE
  5
264
100
AcDbEntity
  8
DRAFT
100
AcDbLine
 62
7
  6
CONTINUOUS
 10
-9.9155306369
 20
30.684138533
 11
-9.9155306369
 21
26.684138533
  0
LINE
  5
265
100
AcDbEntity
  8
DRAFT
100
AcDbLine
 62
250
  6
CONTINUOUS
 10
-8.6756111043
 20
-30.0759419345
 11
-8.6756111043
 21
-29.815861467
  0
LINE
  5
266
100
AcDbEntity
  8
DRAFT
100
AcDbLine
 62
250
  6
CONTINUOUS
 10
-8.6756111043
 20
-24.5557809996
 11
-8.6756111043
 21
-24.815861467
  0
LINE
  5
267
100
AcDbEntity
  8
DRAFT
100
AcDbLine
 62
7
  6
CONTINUOUS
 10
-8.4256111043
 20
26.2051185893
 11
-8.4256111043
 21
31.1631584766
  0
LINE
  5
268
100
AcDbEntity
  8
DRAFT
100
AcDbLine
 62
7
  6
CONTINUOUS
 10
-7.9892344811
 20
26.1331103863
 11
-7.9892344811
 21
31.2351666796
  0
LINE
  5
269
100
AcDbEntity
  8
DRAFT
100
AcDbLine
 62
7
  6
CONTINUOUS
 10
-6.8256111043
 20
24.184138533
 11
-6.8256111043
 21
5.434138533
  0
LINE
  5
26A
100
AcDbEntity
  8
DRAFT
100
AcDbLine
 62
7
  6
CONTINUOUS
 10
-6.8256111043
 20
-2.065861467
 11
-6.8256111043
 21
-20.815861467
  0
LINE
  5
26B
100
AcDbEntity
  8
DRAFT
100
AcDbLine
 62
7
  6
CONTINUOUS
 10
-13.2266392509
 20
-32.0022380903
 11
-13.1546310501
 21
-31.565861467
  0
LINE
  5
26C
100
AcDbEntity
  8
DRAFT
100
AcDbLine
 62
7
  6
CONTINUOUS
 10
-2.3256111043
 20
28.684138533
 11
-6.8256111043
 21
24.184138533
  0
LWPOLYLINE
  5
26D
100
AcDbEntity
  8
0
100
AcDbPolyline
 62
7
  6
CONTINUOUS
 90
3
 70
0
 43
0.3500000006
 10
35.1101031647
 20
62.5769924011
 10
35.967245636
 20
63.4341394043
 10
35.967245636
 20
60.4341384888
  0
LWPOLYLINE
  5
26E
100
AcDbEntity
  8
0
100
AcDbPolyline
 62
7
  6
CONTINUOUS
 90
5
 70
0
 43
0.3500000006
 10
37.3601038513
 20
54.1484255219
 10
37.71724617
 20
54.3627100067
 10
37.71724617
 20
55.0055679932
 10
37.3601038513
 20
55.4341369629
 10
36.50296138
 20
55.4341369629
  0
LINE
  5
26F
100
AcDbEntity
  8
DRAFT
100
AcDbLine
 62
7
  6
CONTINUOUS
 10
-6.8256111043
 20
-20.815861467
 11
-5.2551805179
 21
-22.3862920534
  0
LINE
  5
270
100
AcDbEntity
  8
DRAFT
100
AcDbLine
 62
7
  6
CONTINUOUS
 10
-3.7460416906
 20
-23.8954308807
 11
-2.3256111043
 21
-25.315861467
  0
LINE
  5
271
100
AcDbEntity
  8
DRAFT
100
AcDbLine
 62
7
  6
CONTINUOUS
 10
-8.1245829577
 20
-22.6294848438
 11
-8.1965911585
 21
-23.065861467
  0
LWPOLYLINE
  5
272
100
AcDbEntity
  8
RACCORDO
100
AcDbPolyline
 62
250
  6
CONTINUOUS
 90
25
 70
0
 10
98.9840029735
 20
-37.9754374679
 10
99.0494609733
 20
-37.9732877266
 10
99.114638955
 20
-37.9668575917
 10
99.1792573045
 20
-37.9561744943
 10
99.2430395139
 20
-37.9412839185
 10
99.3057111762
 20
-37.9222496943
 10
99.3670013016
 20
-37.8991541944
 10
99.4266452098
 20
-37.8720976787
 10
99.4843891252
 20
-37.8411958051
 10
99.539988772
 20
-37.8065791858
 10
99.5932091995
 20
-37.7683929749
 10
99.6438176163
 20
-37.7268030244
 10
99.6915891535
 20
-37.6819948331
 10
99.7363148855
 20
-37.6341675526
 10
99.7778099587
 20
-37.5835222573
 10
99.8159046901
 20
-37.5302665757
 10
99.8504420386
 20
-37.4746161323
 10
99.8812645316
 20
-37.416820343
 10
99.9082278402
 20
-37.3571540965
 10
99.9312261894
 20
-37.2958593868
 10
99.9501582224
 20
-37.2332156388
 10
99.9649320761
 20
-37.1695707417
 10
99.9755011912
 20
-37.1052273772
 10
99.9818476573
 20
-37.0404367796
 10
99.9839648966
 20
-36.9754755448
  0
LINE
  5
273
100
AcDbEntity
  8
RACCORDO
100
AcDbLine
 62
7
  6
CONTINUOUS
 10
-22.6756491812
 20
-38.315861467
 11
99.3244269726
 21
-38.315861467
  0
LINE
  5
274
100
AcDbEntity
  8
RACCORDO
100
AcDbLine
 62
250
  6
CONTINUOUS
 10
-22.3352251821
 20
-37.9754374679
 11
98.9840029735
 21
-37.9754374679
  0
LINE
  5
275
100
AcDbEntity
  8
RACCORDO
100
AcDbLine
 62
250
  6
CONTINUOUS
 10
99.9839648966
 20
-36.9754755448
 11
-23.3351871051
 21
-36.9754755448
  0
LINE
  5
276
100
AcDbEntity
  8
DRAFT
100
AcDbLine
 62
7
  6
CONTINUOUS
 10
-13.2266392509
 20
-32.0022380903
 11
-8.1245829577
 21
-32.0022380903
  0
LINE
  5
277
100
AcDbEntity
  8
DRAFT
100
AcDbLine
 62
7
  6
CONTINUOUS
 10
84.7733607491
 20
-32.0022380903
 11
89.8754170423
 21
-32.0022380903
  0
LINE
  5
278
100
AcDbEntity
  8
DRAFT
100
AcDbLine
 62
7
  6
CONTINUOUS
 10
-13.154631048
 20
-31.565861467
 11
-8.1965911606
 21
-31.565861467
  0
LINE
  5
279
100
AcDbEntity
  8
DRAFT
100
AcDbLine
 62
7
  6
CONTINUOUS
 10
84.845368952
 20
-31.565861467
 11
89.8034088394
 21
-31.565861467
  0
LINE
  5
27A
100
AcDbEntity
  8
DRAFT
100
AcDbLine
 62
7
  6
CONTINUOUS
 10
89.3243888957
 20
-30.0759419345
 11
85.3243888957
 21
-30.0759419345
  0
LINE
  5
27B
100
AcDbEntity
  8
DRAFT
100
AcDbLine
 62
7
  6
CONTINUOUS
 10
-8.6756111043
 20
-30.0759419345
 11
-12.6756111043
 21
-30.0759419345
  0
LINE
  5
27C
100
AcDbEntity
  8
DRAFT
100
AcDbLine
 62
7
  6
CONTINUOUS
 10
89.3243888957
 20
-29.815861467
 11
85.3243888957
 21
-29.815861467
  0
LINE
  5
27D
100
AcDbEntity
  8
DRAFT
100
AcDbLine
 62
7
  6
CONTINUOUS
 10
-8.6756111043
 20
-29.815861467
 11
-12.6756111043
 21
-29.815861467
  0
LINE
  5
27E
100
AcDbEntity
  8
DRAFT
100
AcDbLine
 62
7
  6
CONTINUOUS
 10
-2.3256111043
 20
-25.315861467
 11
78.9743888957
 21
-25.315861467
  0
LINE
  5
27F
100
AcDbEntity
  8
DRAFT
100
AcDbLine
 62
7
  6
CONTINUOUS
 10
-12.6756111043
 20
-24.815861467
 11
-8.6756111043
 21
-24.815861467
  0
LINE
  5
280
100
AcDbEntity
  8
DRAFT
100
AcDbLine
 62
7
  6
CONTINUOUS
 10
85.3243888957
 20
-24.815861467
 11
89.3243888957
 21
-24.815861467
  0
LINE
  5
281
100
AcDbEntity
  8
DRAFT
100
AcDbLine
 62
7
  6
CONTINUOUS
 10
-12.6756111043
 20
-24.5557809996
 11
-8.6756111043
 21
-24.5557809996
  0
LINE
  5
282
100
AcDbEntity
  8
DRAFT
100
AcDbLine
 62
7
  6
CONTINUOUS
 10
85.3243888957
 20
-24.5557809996
 11
89.3243888957
 21
-24.5557809996
  0
LINE
  5
283
100
AcDbEntity
  8
DRAFT
100
AcDbLine
 62
7
  6
CONTINUOUS
 10
89.8034088394
 20
-23.065861467
 11
84.845368952
 21
-23.065861467
  0
LINE
  5
284
100
AcDbEntity
  8
DRAFT
100
AcDbLine
 62
7
  6
CONTINUOUS
 10
-8.1965911606
 20
-23.065861467
 11
-13.154631048
 21
-23.065861467
  0
LINE
  5
285
100
AcDbEntity
  8
DRAFT
100
AcDbLine
 62
7
  6
CONTINUOUS
 10
89.8754170423
 20
-22.6294848438
 11
84.7733607491
 21
-22.6294848438
  0
LINE
  5
286
100
AcDbEntity
  8
DRAFT
100
AcDbLine
 62
7
  6
CONTINUOUS
 10
-8.1245829577
 20
-22.6294848438
 11
-13.2266392509
 21
-22.6294848438
  0
LWPOLYLINE
  5
287
100
AcDbEntity
  8
0
100
AcDbPolyline
 62
7
  6
CONTINUOUS
 90
3
 70
0
 43
0.3500000006
 10
39.3601044617
 20
52.7198517151
 10
39.2886732788
 20
52.5055672302
 10
39.1458154449
 20
52.2198515625
  0
LINE
  5
288
100
AcDbEntity
  8
RACCORDO
100
AcDbLine
 62
250
  6
CONTINUOUS
 10
-23.3351871051
 20
-36.9754755448
 11
-23.6756111043
 21
-37.315899544
  0
LINE
  5
289
100
AcDbEntity
  8
RACCORDO
100
AcDbLine
 62
250
  6
CONTINUOUS
 10
-22.3352251821
 20
-37.9754374679
 11
-22.6756491812
 21
-38.315861467
  0
LINE
  5
28A
100
AcDbEntity
  8
RACCORDO
100
AcDbLine
 62
250
  6
CONTINUOUS
 10
-23.3351871051
 20
40.3437526107
 11
-23.6756111043
 21
40.6841766099
  0
LINE
  5
28B
100
AcDbEntity
  8
RACCORDO
100
AcDbLine
 62
250
  6
CONTINUOUS
 10
-22.3352251821
 20
41.3437145338
 11
-22.6756491812
 21
41.684138533
  0
LWPOLYLINE
  5
28C
100
AcDbEntity
  8
0
100
AcDbPolyline
 62
7
  6
CONTINUOUS
 90
4
 70
0
 43
0.3500000006
 10
34.1458184509
 20
52.862709549
 10
34.1458184509
 20
53.7198520203
 10
34.5743896866
 20
54.1484255219
 10
35.2172454071
 20
54.1484255219
  0
LWPOLYLINE
  5
28D
100
AcDbEntity
  8
0
100
AcDbPolyline
 62
7
  6
CONTINUOUS
 90
13
 70
0
 43
0.3500000006
 10
36.8243881073
 20
61.2912854919
 10
36.8243881073
 20
62.5769924011
 10
37.0386748581
 20
63.0055704346
 10
37.4672460938
 20
63.4341394043
 10
37.6815328445
 20
63.4341394043
 10
38.1101040802
 20
63.0055704346
 10
38.3243885651
 20
62.5769924011
 10
38.3243885651
 20
61.2912854919
 10
38.1101040802
 20
60.8627074585
 10
37.6815328445
 20
60.4341384888
 10
37.4672460938
 20
60.4341384888
 10
37.0386748581
 20
60.8627074585
 10
36.8243881073
 20
61.2912854919
  0
LINE
  5
28E
100
AcDbEntity
  8
DRAFT
100
AcDbLine
 62
7
  6
CONTINUOUS
 10
-6.8256111043
 20
-2.065861467
 11
-3.4256111043
 21
-2.065861467
  0
LINE
  5
28F
100
AcDbEntity
  8
DRAFT
100
AcDbLine
 62
7
  6
CONTINUOUS
 10
80.0743888957
 20
-2.065861467
 11
83.4743888957
 21
-2.065861467
  0
LWPOLYLINE
  5
290
100
AcDbEntity
  8
0
100
AcDbPolyline
 62
7
  6
CONTINUOUS
 90
4
 70
0
 43
0.3500000006
 10
117.1458165894
 20
-0.6730042419
 10
116.2886786499
 20
-0.6730042419
 10
115.8601006165
 20
-0.2444330063
 10
115.8601006165
 20
0.3984249802
  0
LWPOLYLINE
  5
291
100
AcDbEntity
  8
0
100
AcDbPolyline
 62
7
  6
CONTINUOUS
 90
13
 70
0
 43
0.3500000006
 10
116.7172476196
 20
1.6841386871
 10
115.4315316467
 20
1.6841386871
 10
115.002962677
 20
1.898423172
 10
114.5743846436
 20
2.3269966736
 10
114.5743846436
 20
2.5412811584
 10
115.002962677
 20
2.9698523941
 10
115.4315316467
 20
3.1841391449
 10
116.7172476196
 20
3.1841391449
 10
117.1458165894
 20
2.9698523941
 10
117.5743855591
 20
2.5412811584
 10
117.5743855591
 20
2.3269966736
 10
117.1458165894
 20
1.898423172
 10
116.7172476196
 20
1.6841386871
  0
LWPOLYLINE
  5
292
100
AcDbEntity
  8
0
100
AcDbPolyline
 62
7
  6
CONTINUOUS
 90
2
 70
0
 43
0.3500000006
 10
40.1815313416
 20
68.4341409302
 10
40.1815313416
 20
69.9341413879
  0
LINE
  5
293
100
AcDbEntity
  8
DRAFT
100
AcDbLine
 62
7
  6
CONTINUOUS
 10
83.4743888957
 20
5.434138533
 11
80.0743888957
 21
5.434138533
  0
LINE
  5
294
100
AcDbEntity
  8
DRAFT
100
AcDbLine
 62
7
  6
CONTINUOUS
 10
-3.4256111043
 20
5.434138533
 11
-6.8256111043
 21
5.434138533
  0
LINE
  5
295
100
AcDbEntity
  8
RACCORDO
100
AcDbLine
 62
250
  6
CONTINUOUS
 10
98.9840029735
 20
41.3437145338
 11
99.3244269726
 21
41.684138533
  0
LINE
  5
296
100
AcDbEntity
  8
RACCORDO
100
AcDbLine
 62
250
  6
CONTINUOUS
 10
98.9840029735
 20
-37.9754374679
 11
99.3244269726
 21
-38.315861467
  0
LINE
  5
297
100
AcDbEntity
  8
RACCORDO
100
AcDbLine
 62
250
  6
CONTINUOUS
 10
99.9839648966
 20
40.3437526107
 11
100.3243888957
 21
40.6841766099
  0
LINE
  5
298
100
AcDbEntity
  8
DRAFT
100
AcDbLine
 62
7
  6
CONTINUOUS
 10
84.6380122725
 20
26.1331103863
 11
85.0743888957
 21
26.2051185872
  0
LINE
  5
299
100
AcDbEntity
  8
DRAFT
100
AcDbLine
 62
7
  6
CONTINUOUS
 10
94.0107655189
 20
31.2351666796
 11
93.5743888957
 21
31.1631584787
  0
LINE
  5
29A
100
AcDbEntity
  8
DRAFT
100
AcDbLine
 62
7
  6
CONTINUOUS
 10
-7.9892344811
 20
26.1331103863
 11
-8.4256111043
 21
26.2051185872
  0
LINE
  5
29B
100
AcDbEntity
  8
DRAFT
100
AcDbLine
 62
7
  6
CONTINUOUS
 10
-17.3619877275
 20
31.2351666796
 11
-16.9256111043
 21
31.1631584787
  0
LINE
  5
29C
100
AcDbEntity
  8
RACCORDO
100
AcDbLine
 62
250
  6
CONTINUOUS
 10
99.9839648966
 20
-36.9754755448
 11
100.3243888957
 21
-37.315899544
  0
LINE
  5
29D
100
AcDbEntity
  8
DRAFT
100
AcDbLine
 62
250
  6
CONTINUOUS
 10
92.0844693631
 20
26.684138533
 11
91.8243888957
 21
26.684138533
  0
LINE
  5
29E
100
AcDbEntity
  8
DRAFT
100
AcDbLine
 62
250
  6
CONTINUOUS
 10
-15.4356915717
 20
26.684138533
 11
-15.1756111043
 21
26.684138533
  0
LINE
  5
29F
100
AcDbEntity
  8
DRAFT
100
AcDbLine
 62
250
  6
CONTINUOUS
 10
-9.9155306369
 20
26.684138533
 11
-10.1756111043
 21
26.684138533
  0
LINE
  5
2A0
100
AcDbEntity
  8
DRAFT
100
AcDbLine
 62
250
  6
CONTINUOUS
 10
86.5643084283
 20
26.684138533
 11
86.8243888957
 21
26.684138533
  0
LWPOLYLINE
  5
2A1
100
AcDbEntity
  8
0
100
AcDbPolyline
 62
7
  6
CONTINUOUS
 90
10
 70
0
 43
0.3500000006
 10
39.2886732788
 20
52.9341407318
 10
39.3601044617
 20
52.7912828979
 10
39.3601044617
 20
52.7198517151
 10
39.2172466278
 20
52.5769938812
 10
39.1458154449
 20
52.5769938812
 10
39.0743887939
 20
52.6484250641
 10
39.0743887939
 20
52.7198517151
 10
39.1458154449
 20
52.862709549
 10
39.2172466278
 20
52.9341407318
 10
39.2886732788
 20
52.9341407318
  0
LINE
  5
2A2
100
AcDbEntity
  8
DRAFT
100
AcDbLine
 62
7
  6
CONTINUOUS
 10
78.9743888957
 20
28.684138533
 11
-2.3256111043
 21
28.684138533
  0
LINE
  5
2A3
100
AcDbEntity
  8
DRAFT
100
AcDbLine
 62
250
  6
CONTINUOUS
 10
92.0844693631
 20
30.684138533
 11
91.8243888957
 21
30.684138533
  0
LINE
  5
2A4
100
AcDbEntity
  8
DRAFT
100
AcDbLine
 62
250
  6
CONTINUOUS
 10
-15.4356915717
 20
30.684138533
 11
-15.1756111043
 21
30.684138533
  0
LINE
  5
2A5
100
AcDbEntity
  8
DRAFT
100
AcDbLine
 62
250
  6
CONTINUOUS
 10
-9.9155306369
 20
30.684138533
 11
-10.1756111043
 21
30.684138533
  0
LINE
  5
2A6
100
AcDbEntity
  8
DRAFT
100
AcDbLine
 62
250
  6
CONTINUOUS
 10
86.5643084283
 20
30.684138533
 11
86.8243888957
 21
30.684138533
  0
LINE
  5
2A7
100
AcDbEntity
  8
DRAFT
100
AcDbLine
 62
7
  6
CONTINUOUS
 10
-17.3619877275
 20
26.1331103863
 11
-16.9256111043
 21
26.2051185872
  0
LINE
  5
2A8
100
AcDbEntity
  8
DRAFT
100
AcDbLine
 62
7
  6
CONTINUOUS
 10
94.0107655189
 20
26.1331103863
 11
93.5743888957
 21
26.2051185872
  0
LINE
  5
2A9
100
AcDbEntity
  8
DRAFT
100
AcDbLine
 62
7
  6
CONTINUOUS
 10
-7.9892344811
 20
31.2351666796
 11
-8.4256111043
 21
31.1631584787
  0
LINE
  5
2AA
100
AcDbEntity
  8
RACCORDO
100
AcDbLine
 62
250
  6
CONTINUOUS
 10
-23.3351871051
 20
40.3437526107
 11
99.9839648966
 21
40.3437526107
  0
LINE
  5
2AB
100
AcDbEntity
  8
RACCORDO
100
AcDbLine
 62
250
  6
CONTINUOUS
 10
98.9840029735
 20
41.3437145338
 11
-22.3352251821
 21
41.3437145338
  0
LINE
  5
2AC
100
AcDbEntity
  8
RACCORDO
100
AcDbLine
 62
7
  6
CONTINUOUS
 10
-22.6756491812
 20
41.684138533
 11
99.3244269726
 21
41.684138533
  0
LINE
  5
2AD
100
AcDbEntity
  8
DRAFT
100
AcDbLine
 62
7
  6
CONTINUOUS
 10
84.6380122725
 20
31.2351666796
 11
85.0743888957
 21
31.1631584787
  0
LWPOLYLINE
  5
2AE
100
AcDbEntity
  8
0
100
AcDbPolyline
 62
7
  6
CONTINUOUS
 90
13
 70
0
 43
0.3500000006
 10
34.5743896866
 20
54.1484255219
 10
34.2886740189
 20
54.3627100067
 10
34.2886740189
 20
55.0055679932
 10
34.5743896866
 20
55.4341369629
 10
35.2172454071
 20
55.4341369629
 10
35.5029610748
 20
55.0055679932
 10
35.5029610748
 20
54.3627100067
 10
35.2172454071
 20
54.1484255219
 10
35.6458166428
 20
53.7198520203
 10
35.6458166428
 20
52.862709549
 10
35.2172454071
 20
52.4341405792
 10
34.5743896866
 20
52.4341405792
 10
34.1458184509
 20
52.862709549
  0
LWPOLYLINE
  5
2AF
100
AcDbEntity
  8
RACCORDO
100
AcDbPolyline
 62
250
  6
CONTINUOUS
 90
25
 70
0
 10
-22.3352251821
 20
41.3437145338
 10
-22.400622655
 20
41.3415687659
 10
-22.4657401131
 20
41.3351506102
 10
-22.5302987404
 20
41.3244875475
 10
-22.5940221137
 20
41.3096252343
 10
-22.6566373863
 20
41.2906273071
 10
-22.7178764558
 20
41.26757511
 10
-22.7774771127
 20
41.2405673467
 10
-22.8351841624
 20
41.2097196571
 10
-22.8907505185
 20
41.1751641232
 10
-22.9439382605
 20
41.1370487026
 10
-22.9945196522
 20
41.0955365955
 10
-23.0422781174
 20
41.0508055461
 10
-23.0870091669
 20
41.0030470809
 10
-23.1285212739
 20
40.9524656891
 10
-23.1666366945
 20
40.8992779472
 10
-23.2011922285
 20
40.8437115911
 10
-23.232039918
 20
40.7860045413
 10
-23.2590476814
 20
40.7264038845
 10
-23.2820998784
 20
40.6651648149
 10
-23.3010978056
 20
40.6025495424
 10
-23.3159601188
 20
40.5388261691
 10
-23.3266231815
 20
40.4742675418
 10
-23.3330413372
 20
40.4091500837
 10
-23.3351871051
 20
40.3437526107
  0
LINE
  5
2B0
100
AcDbEntity
  8
DRAFT
100
AcDbLine
 62
7
  6
CONTINUOUS
 10
84.7733607491
 20
-22.6294848438
 11
84.8453689499
 21
-23.065861467
  0
LINE
  5
2B1
100
AcDbEntity
  8
DRAFT
100
AcDbLine
 62
7
  6
CONTINUOUS
 10
83.4743888957
 20
-20.815861467
 11
83.4743888957
 21
-2.065861467
  0
LINE
  5
2B2
100
AcDbEntity
  8
DRAFT
100
AcDbLine
 62
7
  6
CONTINUOUS
 10
83.4743888957
 20
5.434138533
 11
83.4743888957
 21
24.184138533
  0
LINE
  5
2B3
100
AcDbEntity
  8
DRAFT
100
AcDbLine
 62
7
  6
CONTINUOUS
 10
84.6380122725
 20
31.2351666796
 11
84.6380122725
 21
26.1331103863
  0
LINE
  5
2B4
100
AcDbEntity
  8
DRAFT
100
AcDbLine
 62
7
  6
CONTINUOUS
 10
85.0743888957
 20
31.1631584787
 11
85.0743888957
 21
26.2051185872
  0
LINE
  5
2B5
100
AcDbEntity
  8
DRAFT
100
AcDbLine
 62
250
  6
CONTINUOUS
 10
85.3243888957
 20
-30.0759419345
 11
85.3243888957
 21
-29.815861467
  0
LINE
  5
2B6
100
AcDbEntity
  8
DRAFT
100
AcDbLine
 62
250
  6
CONTINUOUS
 10
85.3243888957
 20
-24.5557809996
 11
85.3243888957
 21
-24.815861467
  0
LINE
  5
2B7
100
AcDbEntity
  8
DRAFT
100
AcDbLine
 62
7
  6
CONTINUOUS
 10
86.5643084283
 20
26.684138533
 11
86.5643084283
 21
30.684138533
  0
LINE
  5
2B8
100
AcDbEntity
  8
DRAFT
100
AcDbLine
 62
7
  6
CONTINUOUS
 10
86.8243888957
 20
26.684138533
 11
86.8243888957
 21
30.684138533
  0
LINE
  5
2B9
100
AcDbEntity
  8
DRAFT
100
AcDbLine
 62
7
  6
CONTINUOUS
 10
78.9743888957
 20
-25.315861467
 11
80.3948194821
 21
-23.8954308807
  0
LINE
  5
2BA
100
AcDbEntity
  8
DRAFT
100
AcDbLine
 62
7
  6
CONTINUOUS
 10
81.9039583094
 20
-22.3862920534
 11
83.4743888957
 21
-20.815861467
  0
LINE
  5
2BB
100
AcDbEntity
  8
DRAFT
100
AcDbLine
 62
7
  6
CONTINUOUS
 10
83.4743888957
 20
24.184138533
 11
78.9743888957
 21
28.684138533
  0
LWPOLYLINE
  5
2BC
100
AcDbEntity
  8
0
100
AcDbPolyline
 62
7
  6
CONTINUOUS
 90
10
 70
0
 43
0.3500000006
 10
106.5743912659
 20
1.6484253616
 10
107.2172447205
 20
1.0055673752
 10
108.0743917236
 20
0.5769961395
 10
109.1458141479
 20
0.5769961395
 10
109.5743921814
 20
1.0055673752
 10
109.5743921814
 20
1.6484253616
 10
109.1458141479
 20
2.0769965973
 10
108.2886762085
 20
2.0769965973
 10
107.8601072388
 20
1.6484253616
 10
107.8601072388
 20
0.7198517075
  0
LINE
  5
2BD
100
AcDbEntity
  8
DRAFT
100
AcDbLine
 62
7
  6
CONTINUOUS
 10
89.8754170423
 20
-32.0022380903
 11
89.8034088415
 21
-31.565861467
  0
LINE
  5
2BE
100
AcDbEntity
  8
DRAFT
100
AcDbLine
 62
250
  6
CONTINUOUS
 10
89.3243888957
 20
-30.0759419345
 11
89.3243888957
 21
-29.815861467
  0
LINE
  5
2BF
100
AcDbEntity
  8
DRAFT
100
AcDbLine
 62
250
  6
CONTINUOUS
 10
89.3243888957
 20
-24.5557809996
 11
89.3243888957
 21
-24.815861467
  0
LINE
  5
2C0
100
AcDbEntity
  8
DRAFT
100
AcDbLine
 62
7
  6
CONTINUOUS
 10
91.8243888957
 20
30.684138533
 11
91.8243888957
 21
26.684138533
  0
LINE
  5
2C1
100
AcDbEntity
  8
DRAFT
100
AcDbLine
 62
7
  6
CONTINUOUS
 10
92.0844693631
 20
30.684138533
 11
92.0844693631
 21
26.684138533
  0
LINE
  5
2C2
100
AcDbEntity
  8
DRAFT
100
AcDbLine
 62
7
  6
CONTINUOUS
 10
84.7733607491
 20
-32.0022380903
 11
84.8453689499
 21
-31.565861467
  0
LWPOLYLINE
  5
2C3
100
AcDbEntity
  8
0
100
AcDbPolyline
 62
7
  6
CONTINUOUS
 90
6
 70
0
 43
0.3500000006
 10
36.50296138
 20
52.4341405792
 10
37.5743883362
 20
52.4341405792
 10
37.788675087
 20
52.6484250641
 10
37.788675087
 20
53.7198520203
 10
37.3601038513
 20
54.1484255219
 10
36.9315326157
 20
54.1484255219
  0
LWPOLYLINE
  5
2C4
100
AcDbEntity
  8
0
100
AcDbPolyline
 62
7
  6
CONTINUOUS
 90
8
 70
0
 43
0.3500000006
 10
40.3601047668
 20
52.4341405792
 10
41.2172472382
 20
52.4341405792
 10
41.6458162079
 20
52.862709549
 10
41.6458162079
 20
53.7198520203
 10
41.2172472382
 20
54.1484255219
 10
40.3601047668
 20
54.1484255219
 10
40.3601047668
 20
55.4341369629
 10
41.6458162079
 20
55.4341369629
  0
LINE
  5
2C5
100
AcDbEntity
  8
DRAFT
100
AcDbLine
 62
7
  6
CONTINUOUS
 10
93.5743888957
 20
26.2051185872
 11
93.5743888957
 21
31.1631584787
  0
LINE
  5
2C6
100
AcDbEntity
  8
DRAFT
100
AcDbLine
 62
7
  6
CONTINUOUS
 10
94.0107655189
 20
26.1331103863
 11
94.0107655189
 21
31.2351666796
  0
LINE
  5
2C7
100
AcDbEntity
  8
DRAFT
100
AcDbLine
 62
7
  6
CONTINUOUS
 10
89.8754170423
 20
-22.6294848438
 11
89.8034088415
 21
-23.065861467
  0
LWPOLYLINE
  5
2C8
100
AcDbEntity
  8
0
100
AcDbPolyline
 62
7
  6
CONTINUOUS
 90
7
 70
0
 43
0.3500000006
 10
40.6815314941
 20
60.4341384888
 10
39.1815310364
 20
60.4341384888
 10
40.6815314941
 20
62.5769924011
 10
40.6815314941
 20
63.0055704346
 10
40.2529625244
 20
63.4341394043
 10
39.610104538
 20
63.4341394043
 10
39.1815310364
 20
62.791276886
  0
LWPOLYLINE
  5
2C9
100
AcDbEntity
  8
RACCORDO
100
AcDbPolyline
 62
250
  6
CONTINUOUS
 90
25
 70
0
 10
99.9839648966
 20
40.3437526107
 10
99.9818151553
 20
40.4092106105
 10
99.9753850204
 20
40.4743885922
 10
99.964701923
 20
40.5390069417
 10
99.9498113472
 20
40.6027891512
 10
99.930777123
 20
40.6654608135
 10
99.9076816231
 20
40.7267509389
 10
99.8806251074
 20
40.786394847
 10
99.8497232338
 20
40.8441387625
 10
99.8151066145
 20
40.8997384093
 10
99.7769204035
 20
40.9529588367
 10
99.7353304531
 20
41.0035672535
 10
99.6905222618
 20
41.0513387907
 10
99.6426949813
 20
41.0960645228
 10
99.592049686
 20
41.1375595959
 10
99.5387940044
 20
41.1756543274
 10
99.483143561
 20
41.2101916758
 10
99.4253477717
 20
41.2410141688
 10
99.3656815252
 20
41.2679774774
 10
99.3043868154
 20
41.2909758266
 10
99.2417430675
 20
41.3099078597
 10
99.1780981704
 20
41.3246817133
 10
99.1137548058
 20
41.3352508285
 10
99.0489642082
 20
41.3415972945
 10
98.9840029735
 20
41.3437145338
  0
LINE
  5
2CA
100
AcDbEntity
  8
RACCORDO
100
AcDbLine
 62
250
  6
CONTINUOUS
 10
98.9840029735
 20
-37.9754374679
 11
98.9840029735
 21
41.3437145338
  0
LINE
  5
2CB
100
AcDbEntity
  8
RACCORDO
100
AcDbLine
 62
250
  6
CONTINUOUS
 10
99.9839648966
 20
-36.9754755448
 11
99.9839648966
 21
40.3437526107
  0
LINE
  5
2CC
100
AcDbEntity
  8
RACCORDO
100
AcDbLine
 62
7
  6
CONTINUOUS
 10
100.3243888957
 20
-37.315899544
 11
100.3243888957
 21
40.6841766099
  0
LWPOLYLINE
  5
2CD
100
AcDbEntity
  8
0
100
AcDbPolyline
 62
7
  6
CONTINUOUS
 90
13
 70
0
 43
0.3500000006
 10
115.8601006165
 20
-0.2444330063
 10
115.6458161316
 20
-0.5301464081
 10
115.002962677
 20
-0.5301464081
 10
114.5743846436
 20
-0.2444330063
 10
114.5743846436
 20
0.3984249802
 10
115.002962677
 20
0.684138382
 10
115.6458161316
 20
0.684138382
 10
115.8601006165
 20
0.3984249802
 10
116.2886786499
 20
0.8269962158
 10
117.1458165894
 20
0.8269962158
 10
117.5743855591
 20
0.3984249802
 10
117.5743855591
 20
-0.2444330063
 10
117.1458165894
 20
-0.6730042419
  0
LWPOLYLINE
  5
2CE
100
AcDbEntity
  8
0
100
AcDbPolyline
 62
7
  6
CONTINUOUS
 90
8
 70
0
 43
0.3500000006
 10
109.5743921814
 20
-1.5658611717
 10
109.5743921814
 20
-0.7087175674
 10
109.1458141479
 20
-0.2801463318
 10
108.2886762085
 20
-0.2801463318
 10
107.8601072388
 20
-0.7087175674
 10
107.8601072388
 20
-1.5658611717
 10
106.5743912659
 20
-1.5658611717
 10
106.5743912659
 20
-0.2801463318
  0
LWPOLYLINE
  5
2CF
100
AcDbEntity
  8
0
100
AcDbPolyline
 62
7
  6
CONTINUOUS
 90
7
 70
0
 43
0.3500000006
 10
38.3243885651
 20
68.4341409302
 10
36.8243881073
 20
68.4341409302
 10
38.3243885651
 20
70.5769948425
 10
38.3243885651
 20
71.0055638123
 10
37.8958173294
 20
71.4341418457
 10
37.252959343
 20
71.4341418457
 10
36.8243881073
 20
70.7912793274
  0
LWPOLYLINE
  5
2D0
100
AcDbEntity
  8
0
100
AcDbPolyline
 62
7
  6
CONTINUOUS
 90
3
 70
0
 43
0.3500000006
 10
40.6815314941
 20
69.0769943848
 10
39.1815310364
 20
69.0769943848
 10
39.8243890228
 20
71.4341418457
  0
LINE
  5
2D1
100
AcDbEntity
  8
RACCORDO
100
AcDbLine
 62
250
  6
CONTINUOUS
 10
-94.8493262991
 20
-36.9754755448
 11
-95.8405997636
 21
-36.9754755448
  0
LINE
  5
2D2
100
AcDbEntity
  8
RACCORDO
100
AcDbLine
 62
7
  6
CONTINUOUS
 10
-94.8493262991
 20
-37.9754374679
 11
-55.8405997636
 21
-38.315861467
  0
LINE
  5
2D3
100
AcDbEntity
  8
RACCORDO
100
AcDbLine
 62
250
  6
CONTINUOUS
 10
-94.8493262991
 20
-36.9754755448
 11
-55.8405997636
 21
-37.315899544
  0
LWPOLYLINE
  5
2D4
100
AcDbEntity
  8
RACCORDO
100
AcDbPolyline
 62
250
  6
CONTINUOUS
 90
6
 70
0
 10
-94.8493262991
 20
-37.9754374679
 10
-94.8498787819
 20
-37.9732877266
 10
-94.8503914666
 20
-37.9668575917
 10
-94.8508621524
 20
-37.9561744943
 10
-94.8512888232
 20
-37.9412839185
 10
-94.8516696413
 20
-37.9222496943
  0
LINE
  5
2D5
100
AcDbEntity
  8
RACCORDO
100
AcDbLine
 62
250
  6
CONTINUOUS
 10
-94.8516696413
 20
-37.9222496943
 11
-94.8522873467
 21
-37.8720976787
  0
LINE
  5
2D6
100
AcDbEntity
  8
RACCORDO
100
AcDbLine
 62
250
  6
CONTINUOUS
 10
-94.8493262991
 20
40.3437526107
 11
-94.8522873467
 21
40.786394847
  0
LINE
  5
2D7
100
AcDbEntity
  8
RACCORDO
100
AcDbLine
 62
250
  6
CONTINUOUS
 10
-94.8522873467
 20
-37.8720976787
 11
-94.8528359113
 21
-37.7683929749
  0
LINE
  5
2D8
100
AcDbEntity
  8
RACCORDO
100
AcDbLine
 62
250
  6
CONTINUOUS
 10
-94.8522873467
 20
40.786394847
 11
-94.852940475
 21
41.0513387907
  0
LINE
  5
2D9
100
AcDbEntity
  8
RACCORDO
100
AcDbLine
 62
7
  6
CONTINUOUS
 10
-95.8405997636
 20
-36.9754755448
 11
-95.8405997636
 21
40.3437526107
  0
LINE
  5
2DA
100
AcDbEntity
  8
RACCORDO
100
AcDbLine
 62
250
  6
CONTINUOUS
 10
-94.8493262991
 20
-36.9754755448
 11
-94.8493262991
 21
40.3437526107
  0
LINE
  5
2DB
100
AcDbEntity
  8
RACCORDO
100
AcDbLine
 62
250
  6
CONTINUOUS
 10
-94.8528359113
 20
-37.7683929749
 11
-94.8528335554
 21
-37.5835222573
  0
LINE
  5
2DC
100
AcDbEntity
  8
RACCORDO
100
AcDbLine
 62
250
  6
CONTINUOUS
 10
-94.852940475
 20
41.0513387907
 11
-94.8527012478
 21
41.1756543274
  0
LINE
  5
2DD
100
AcDbEntity
  8
RACCORDO
100
AcDbLine
 62
250
  6
CONTINUOUS
 10
-94.8528335554
 20
-37.5835222573
 11
-94.8508540453
 21
-37.1695707417
  0
LINE
  5
2DE
100
AcDbEntity
  8
RACCORDO
100
AcDbLine
 62
250
  6
CONTINUOUS
 10
-94.8527012478
 20
41.1756543274
 11
-94.8522816043
 21
41.2410141688
  0
LINE
  5
2DF
100
AcDbEntity
  8
RACCORDO
100
AcDbLine
 62
250
  6
CONTINUOUS
 10
-94.8508540453
 20
-37.1695707417
 11
-94.8493262991
 21
-36.9754755448
  0
LWPOLYLINE
  5
2E0
100
AcDbEntity
  8
RACCORDO
100
AcDbPolyline
 62
250
  6
CONTINUOUS
 90
7
 70
0
 10
-94.8522816043
 20
41.2410141688
 10
-94.8516620028
 20
41.2909758266
 10
-94.8512805364
 20
41.3099078597
 10
-94.8508540453
 20
41.3246817133
 10
-94.8503847645
 20
41.3352508285
 10
-94.8498747303
 20
41.3415972945
 10
-94.8493262991
 20
41.3437145338
  0
LWPOLYLINE
  5
2E1
100
AcDbEntity
  8
0
100
AcDbPolyline
 62
7
  6
CONTINUOUS
 90
2
 70
0
 43
0.3500000006
 10
-77.197739502
 20
52.4341405792
 10
-77.197739502
 20
53.9341365051
  0
LWPOLYLINE
  5
2E2
100
AcDbEntity
  8
0
100
AcDbPolyline
 62
7
  6
CONTINUOUS
 90
13
 70
0
 43
0.3500000006
 10
-75.8406014099
 20
53.2912830505
 10
-75.8406014099
 20
54.5769944916
 10
-75.6263123932
 20
55.0055679932
 10
-75.1977434235
 20
55.4341369629
 10
-74.9834589386
 20
55.4341369629
 10
-74.554885437
 20
55.0055679932
 10
-74.3406009521
 20
54.5769944916
 10
-74.3406009521
 20
53.2912830505
 10
-74.554885437
 20
52.862709549
 10
-74.9834589386
 20
52.4341405792
 10
-75.1977434235
 20
52.4341405792
 10
-75.6263123932
 20
52.862709549
 10
-75.8406014099
 20
53.2912830505
  0
LINE
  5
2E3
100
AcDbEntity
  8
RACCORDO
100
AcDbLine
 62
7
  6
CONTINUOUS
 10
-55.8405997636
 20
-38.315861467
 11
-55.8405997636
 21
41.684138533
  0
LINE
  5
2E4
100
AcDbEntity
  8
RACCORDO
100
AcDbLine
 62
250
  6
CONTINUOUS
 10
-94.8493262991
 20
40.3437526107
 11
-55.8405997636
 21
40.6841766099
  0
LINE
  5
2E5
100
AcDbEntity
  8
RACCORDO
100
AcDbLine
 62
250
  6
CONTINUOUS
 10
-95.8405997636
 20
40.3437526107
 11
-94.8493262991
 21
40.3437526107
  0
LINE
  5
2E6
100
AcDbEntity
  8
RACCORDO
100
AcDbLine
 62
7
  6
CONTINUOUS
 10
-94.8493262991
 20
41.3437145338
 11
-55.8405997636
 21
41.684138533
  0
LWPOLYLINE
  5
2E7
100
AcDbEntity
  8
0
100
AcDbPolyline
 62
7
  6
CONTINUOUS
 90
3
 70
0
 43
0.3500000006
 10
-76.6977393494
 20
53.0769940338
 10
-78.1977398071
 20
53.0769940338
 10
-77.5548863525
 20
55.4341369629
  0
ARC
  5
2E8
100
AcDbEntity
  8
DRAFT
100
AcDbCircle
 62
7
  6
CONTINUOUS
 10
-8.6756111043
 20
-27.315861467
 40
6.0
100
AcDbArc
 50
34.7552302544
 51
55.2447697456
  0
ARC
  5
2E9
100
AcDbEntity
  8
DRAFT
100
AcDbCircle
 62
7
  6
CONTINUOUS
 10
-11.6756111043
 20
-27.315861467
 40
4.9363766232
100
AcDbArc
 50
108.3127528334
 51
251.6872471666
  0
ARC
  5
2EA
100
AcDbEntity
  8
DRAFT
100
AcDbCircle
 62
7
  6
CONTINUOUS
 10
-9.6756111043
 20
-27.315861467
 40
4.9363766232
100
AcDbArc
 50
288.3127528334
 51
71.6872471666
  0
ARC
  5
2EB
100
AcDbEntity
  8
DRAFT
100
AcDbCircle
 62
7
  6
CONTINUOUS
 10
-11.6756111043
 20
-27.315861467
 40
4.5
100
AcDbArc
 50
109.1881364286
 51
250.8118635714
  0
ARC
  5
2EC
100
AcDbEntity
  8
DRAFT
100
AcDbCircle
 62
7
  6
CONTINUOUS
 10
-9.6756111043
 20
-27.315861467
 40
4.5
100
AcDbArc
 50
289.1881364286
 51
70.8118635714
  0
ARC
  5
2ED
100
AcDbEntity
  8
DRAFT
100
AcDbCircle
 62
7
  6
CONTINUOUS
 10
-8.6756111043
 20
-27.315861467
 40
2.7600804674
100
AcDbArc
 50
270.0
 51
90.0
  0
ARC
  5
2EE
100
AcDbEntity
  8
DRAFT
100
AcDbCircle
 62
7
  6
CONTINUOUS
 10
-12.6756111043
 20
-27.315861467
 40
2.7600804674
100
AcDbArc
 50
90.0
 51
270.0
  0
ARC
  5
2EF
100
AcDbEntity
  8
DRAFT
100
AcDbCircle
 62
7
  6
CONTINUOUS
 10
-12.6756111043
 20
-27.315861467
 40
2.5
100
AcDbArc
 50
90.0
 51
270.0
  0
ARC
  5
2F0
100
AcDbEntity
  8
DRAFT
100
AcDbCircle
 62
7
  6
CONTINUOUS
 10
-8.6756111043
 20
-27.315861467
 40
2.5
100
AcDbArc
 50
270.0
 51
90.0
  0
ARC
  5
2F1
100
AcDbEntity
  8
DRAFT
100
AcDbCircle
 62
7
  6
CONTINUOUS
 10
-12.6756111043
 20
29.684138533
 40
4.9363766232
100
AcDbArc
 50
18.3127528334
 51
161.6872471666
  0
ARC
  5
2F2
100
AcDbEntity
  8
DRAFT
100
AcDbCircle
 62
7
  6
CONTINUOUS
 10
-12.6756111043
 20
27.684138533
 40
4.9363766232
100
AcDbArc
 50
198.3127528334
 51
341.6872471666
  0
ARC
  5
2F3
100
AcDbEntity
  8
DRAFT
100
AcDbCircle
 62
7
  6
CONTINUOUS
 10
-12.6756111043
 20
27.684138533
 40
4.5
100
AcDbArc
 50
199.1881364286
 51
340.8118635714
  0
ARC
  5
2F4
100
AcDbEntity
  8
DRAFT
100
AcDbCircle
 62
7
  6
CONTINUOUS
 10
-12.6756111043
 20
29.684138533
 40
4.5
100
AcDbArc
 50
19.1881364286
 51
160.8118635714
  0
ARC
  5
2F5
100
AcDbEntity
  8
DRAFT
100
AcDbCircle
 62
7
  6
CONTINUOUS
 10
-3.4256111043
 20
1.684138533
 40
3.75
100
AcDbArc
 50
270.0
 51
90.0
  0
CIRCLE
  5
2F6
100
AcDbEntity
  8
0
100
AcDbCircle
 62
7
  6
CONTINUOUS
 10
-3.4256111043
 20
1.684138533
 40
3.25
  0
ARC
  5
2F7
100
AcDbEntity
  8
DRAFT
100
AcDbCircle
 62
7
  6
CONTINUOUS
 10
-12.6756111043
 20
30.684138533
 40
2.7600804674
100
AcDbArc
 50
0.0
 51
180.0
  0
ARC
  5
2F8
100
AcDbEntity
  8
DRAFT
100
AcDbCircle
 62
7
  6
CONTINUOUS
 10
-12.6756111043
 20
26.684138533
 40
2.7600804674
100
AcDbArc
 50
180.0
 51
360.0
  0
ARC
  5
2F9
100
AcDbEntity
  8
DRAFT
100
AcDbCircle
 62
7
  6
CONTINUOUS
 10
-12.6756111043
 20
26.684138533
 40
2.5
100
AcDbArc
 50
180.0
 51
360.0
  0
ARC
  5
2FA
100
AcDbEntity
  8
DRAFT
100
AcDbCircle
 62
7
  6
CONTINUOUS
 10
-12.6756111043
 20
30.684138533
 40
2.5
100
AcDbArc
 50
0.0
 51
180.0
  0
CIRCLE
  5
2FB
100
AcDbEntity
  8
DRAFT
100
AcDbCircle
 62
7
  6
CONTINUOUS
 10
-3.4256111043
 20
1.684138533
 40
2.3121780491
  0
CIRCLE
  5
2FC
100
AcDbEntity
  8
DRAFT
100
AcDbCircle
 62
7
  6
CONTINUOUS
 10
-3.4256111043
 20
1.684138533
 40
2.25
  0
CIRCLE
  5
2FD
100
AcDbEntity
  8
DRAFT
100
AcDbCircle
 62
7
  6
CONTINUOUS
 10
-3.4256111043
 20
1.684138533
 40
1.6
  0
CIRCLE
  5
2FE
100
AcDbEntity
  8
DRAFT
100
AcDbCircle
 62
7
  6
CONTINUOUS
 10
-3.4256111043
 20
1.684138533
 40
1.469087013
  0
ARC
  5
2FF
100
AcDbEntity
  8
DRAFT
100
AcDbCircle
 62
7
  6
CONTINUOUS
 10
85.3243888957
 20
-27.315861467
 40
6.0
100
AcDbArc
 50
124.7552302544
 51
145.2447697456
  0
ARC
  5
300
100
AcDbEntity
  8
DRAFT
100
AcDbCircle
 62
7
  6
CONTINUOUS
 10
86.3243888957
 20
-27.315861467
 40
4.9363766232
100
AcDbArc
 50
108.3127528334
 51
251.6872471666
  0
ARC
  5
301
100
AcDbEntity
  8
DRAFT
100
AcDbCircle
 62
7
  6
CONTINUOUS
 10
88.3243888957
 20
-27.315861467
 40
4.9363766232
100
AcDbArc
 50
288.3127528334
 51
71.6872471666
  0
ARC
  5
302
100
AcDbEntity
  8
DRAFT
100
AcDbCircle
 62
7
  6
CONTINUOUS
 10
88.3243888957
 20
-27.315861467
 40
4.5
100
AcDbArc
 50
289.1881364286
 51
70.8118635714
  0
ARC
  5
303
100
AcDbEntity
  8
DRAFT
100
AcDbCircle
 62
7
  6
CONTINUOUS
 10
86.3243888957
 20
-27.315861467
 40
4.5
100
AcDbArc
 50
109.1881364286
 51
250.8118635714
  0
ARC
  5
304
100
AcDbEntity
  8
DRAFT
100
AcDbCircle
 62
7
  6
CONTINUOUS
 10
89.3243888957
 20
-27.315861467
 40
2.7600804674
100
AcDbArc
 50
270.0
 51
90.0
  0
ARC
  5
305
100
AcDbEntity
  8
DRAFT
100
AcDbCircle
 62
7
  6
CONTINUOUS
 10
85.3243888957
 20
-27.315861467
 40
2.7600804674
100
AcDbArc
 50
90.0
 51
270.0
  0
ARC
  5
306
100
AcDbEntity
  8
DRAFT
100
AcDbCircle
 62
7
  6
CONTINUOUS
 10
89.3243888957
 20
-27.315861467
 40
2.5
100
AcDbArc
 50
270.0
 51
90.0
  0
ARC
  5
307
100
AcDbEntity
  8
DRAFT
100
AcDbCircle
 62
7
  6
CONTINUOUS
 10
85.3243888957
 20
-27.315861467
 40
2.5
100
AcDbArc
 50
90.0
 51
270.0
  0
ARC
  5
308
100
AcDbEntity
  8
DRAFT
100
AcDbCircle
 62
7
  6
CONTINUOUS
 10
89.3243888957
 20
27.684138533
 40
4.9363766232
100
AcDbArc
 50
198.3127528334
 51
341.6872471666
  0
ARC
  5
309
100
AcDbEntity
  8
DRAFT
100
AcDbCircle
 62
7
  6
CONTINUOUS
 10
89.3243888957
 20
29.684138533
 40
4.9363766232
100
AcDbArc
 50
18.3127528334
 51
161.6872471666
  0
ARC
  5
30A
100
AcDbEntity
  8
DRAFT
100
AcDbCircle
 62
7
  6
CONTINUOUS
 10
89.3243888957
 20
27.684138533
 40
4.5
100
AcDbArc
 50
199.1881364537
 51
340.8118635463
  0
ARC
  5
30B
100
AcDbEntity
  8
DRAFT
100
AcDbCircle
 62
7
  6
CONTINUOUS
 10
89.3243888957
 20
29.684138533
 40
4.5
100
AcDbArc
 50
19.1881364537
 51
160.8118635463
  0
ARC
  5
30C
100
AcDbEntity
  8
DRAFT
100
AcDbCircle
 62
7
  6
CONTINUOUS
 10
80.0743888957
 20
1.684138533
 40
3.75
100
AcDbArc
 50
90.0
 51
270.0
  0
CIRCLE
  5
30D
100
AcDbEntity
  8
0
100
AcDbCircle
 62
7
  6
CONTINUOUS
 10
80.0743888957
 20
1.684138533
 40
3.25
  0
ARC
  5
30E
100
AcDbEntity
  8
DRAFT
100
AcDbCircle
 62
7
  6
CONTINUOUS
 10
89.3243888957
 20
26.684138533
 40
2.7600804674
100
AcDbArc
 50
180.0
 51
360.0
  0
ARC
  5
30F
100
AcDbEntity
  8
DRAFT
100
AcDbCircle
 62
7
  6
CONTINUOUS
 10
89.3243888957
 20
30.684138533
 40
2.7600804674
100
AcDbArc
 50
0.0
 51
180.0
  0
ARC
  5
310
100
AcDbEntity
  8
DRAFT
100
AcDbCircle
 62
7
  6
CONTINUOUS
 10
89.3243888957
 20
26.684138533
 40
2.5
100
AcDbArc
 50
180.0
 51
360.0
  0
ARC
  5
311
100
AcDbEntity
  8
DRAFT
100
AcDbCircle
 62
7
  6
CONTINUOUS
 10
89.3243888957
 20
30.684138533
 40
2.5
100
AcDbArc
 50
0.0
 51
180.0
  0
CIRCLE
  5
312
100
AcDbEntity
  8
DRAFT
100
AcDbCircle
 62
7
  6
CONTINUOUS
 10
80.0743888957
 20
1.684138533
 40
2.3121780491
  0
CIRCLE
  5
313
100
AcDbEntity
  8
DRAFT
100
AcDbCircle
 62
7
  6
CONTINUOUS
 10
80.0743888957
 20
1.684138533
 40
2.25
  0
CIRCLE
  5
314
100
AcDbEntity
  8
DRAFT
100
AcDbCircle
 62
7
  6
CONTINUOUS
 10
80.0743888957
 20
1.684138533
 40
1.6
  0
CIRCLE
  5
315
100
AcDbEntity
  8
DRAFT
100
AcDbCircle
 62
7
  6
CONTINUOUS
 10
80.0743888957
 20
1.684138533
 40
1.469087013
  0
ARC
  5
316
100
AcDbEntity
  8
RACCORDO
100
AcDbCircle
 62
7
  6
CONTINUOUS
 10
-94.8405997636
 20
40.3437526107
 40
1.0
100
AcDbArc
 50
90.5
 51
180.0
  0
ARC
  5
317
100
AcDbEntity
  8
RACCORDO
100
AcDbCircle
 62
7
  6
CONTINUOUS
 10
-94.8405997636
 20
-36.9754755448
 40
1.0
100
AcDbArc
 50
180.0
 51
269.5
  0
ELLIPSE
  5
318
100
AcDbEntity
  8
RACCORDO
100
AcDbEllipse
 62
7
  6
CONTINUOUS
 10
-22.6755730259
 20
40.6841004546
 30
0.0
 11
0.7071606311
 21
-0.7071606311
 31
0.0
 40
0.9999238505
 41
2.3562325664
 42
3.9269527408
  0
ELLIPSE
  5
319
100
AcDbEntity
  8
RACCORDO
100
AcDbEllipse
 62
7
  6
CONTINUOUS
 10
-22.6755730259
 20
-37.3158233887
 30
0.0
 11
0.7071606311
 21
0.7071606311
 31
0.0
 40
0.9999238505
 41
-3.9269527408
 42
-2.3562325664
  0
ELLIPSE
  5
31A
100
AcDbEntity
  8
RACCORDO
100
AcDbEllipse
 62
7
  6
CONTINUOUS
 10
99.3243508173
 20
-37.3158233887
 30
0.0
 11
0.7071606311
 21
-0.7071606311
 31
0.0
 40
0.9999238505
 41
-0.7853600872
 42
0.7853600872
  0
ELLIPSE
  5
31B
100
AcDbEntity
  8
RACCORDO
100
AcDbEllipse
 62
7
  6
CONTINUOUS
 10
99.3243508173
 20
40.6841004546
 30
0.0
 11
0.7071606311
 21
0.7071606311
 31
0.0
 40
0.9999238505
 41
-0.7853600872
 42
0.7853600872
  0
ENDSEC
  0
SECTION
  2
OBJECTS
  0
DICTIONARY
  5
C
100
AcDbDictionary
280
0
281
1
  3
ACAD_GROUP
350
D
  3
ACAD_MLINESTYLE
350
17
  3
ACAD_LAYOUT
350
1A
  3
ACAD_PLOTSETTINGS
350
19
  3
ACAD_PLOTSTYLENAME
350
E
  0
DICTIONARY
  5
D
102
{ACAD_REACTORS
330
C
102
}
100
AcDbDictionary
280
0
281
1
  0
ACDBDICTIONARYWDFLT
  5
E
102
{ACAD_REACTORS
330
C
102
}
100
AcDbDictionary
281
1
  3
Normal
350
F
100
AcDbDictionaryWithDefault
340
F
  0
DICTIONARY
  5
17
102
{ACAD_REACTORS
330
C
102
}
100
AcDbDictionary
280
0
281
1
  3
Standard
350
18
  0
DICTIONARY
  5
19
102
{ACAD_REACTORS
330
C
102
}
100
AcDbDictionary
281
1
  0
DICTIONARY
  5
1A
102
{ACAD_REACTORS
330
C
102
}
100
AcDbDictionary
281
1
  3
Model
350
31C
  3
Layout1
350
31D
  0
ACDBPLACEHOLDER
  5
F
102
{ACAD_REACTORS
330
E
102
}
  0
MLINESTYLE
  5
18
102
{ACAD_REACTORS
330
17
102
}
100
AcDbMlineStyle
  2
STANDARD
 70
0
  3

 62
256
 51
90.0
 52
90.0
 71
2
 49
0.5
 62
256
  6
BYLAYER
 49
-0.5
 62
256
  6
BYLAYER
  0
LAYOUT
  5
31C
102
{ACAD_REACTORS
330
1A
102
}
100
AcDbPlotSettings
  1

  2
none_device
  4
ISO_A4_(297.00_x_210.00_MM)
  6

 40
0.0
 41
0.0
 42
0.0
 43
0.0
 44
297.0
 45
210.0
 46
0.0
 47
0.0
 48
0.0
 49
0.0
140
0.0
141
0.0
142
1.0
143
1.0
 70
1024
 72
1
 73
0
 74
0
  7

 75
0
147
1.0
148
0.0
149
0.0
100
AcDbLayout
  1
Model
 70
0
 71
0
 10
0.0
 20
0.0
 11
297.0
 21
210.0
 12
0.0
 22
0.0
 32
0.0
 14
0.0
 24
0.0
 34
0.0
 15
0.0
 25
0.0
 35
0.0
146
0.0
 13
0.0
 23
0.0
 33
0.0
 16
1.0
 26
0.0
 36
0.0
 17
0.0
 27
1.0
 37
0.0
 76
0
330
212
345
0
346
0
  0
LAYOUT
  5
31D
102
{ACAD_REACTORS
330
1A
102
}
100
AcDbPlotSettings
  1

  2
none_device
  4
ISO_A4_(297.00_x_210.00_MM)
  6

 40
0.0
 41
0.0
 42
0.0
 43
0.0
 44
297.0
 45
210.0
 46
0.0
 47
0.0
 48
0.0
 49
0.0
140
0.0
141
0.0
142
1.0
143
1.0
 70
0
 72
1
 73
0
 74
0
  7

 75
0
147
1.0
148
0.0
149
0.0
100
AcDbLayout
  1
Layout1
 70
0
 71
1
 10
0.0
 20
0.0
 11
297.0
 21
210.0
 12
0.0
 22
0.0
 32
0.0
 14
0.0
 24
0.0
 34
0.0
 15
0.0
 25
0.0
 35
0.0
146
0.0
 13
0.0
 23
0.0
 33
0.0
 16
1.0
 26
0.0
 36
0.0
 17
0.0
 27
1.0
 37
0.0
 76
0
330
213
345
0
346
0
  0
ENDSEC
  0
EOF
