  0
SECTION
  2
HEADER
  9
$ACADVER
  1
AC1015
  9
$DWGCODEPAGE
  3
ANSI_1252
  9
$EXTMAX
 10
297.0
 20
210.0
 30
0.0
  9
$EXTMIN
 10
0.0
 20
0.0
 30
0.0
  9
$LIMMIN
 10
0.0
 20
0.0
  9
$LIMMAX
 10
297.0
 20
210.0
  9
$VIEWCTR
 10
148.5
 20
105.0
  9
$VIEWSIZE
 40
210.0
  9
$CLAYER
  8
0
  9
$LTSCALE
 40
16.335
  9
$CELTYPE
  6
BYLAYER
  9
$DIMSCALE
 40
1.0
  9
$DIMASZ
 40
3.0
  9
$DIMEXO
 40
1.85625
  9
$DIMDLI
 40
11.286
  9
$DIMEXE
 40
5.346
  9
$DIMCEN
 40
2.673
  9
$DIMLFAC
 40
1.0
  9
$DIMBLK
  1
_FILLED
  9
$DIMTXT
 40
3.0
  9
$DIMTOL
 70
1
  9
$DIMLIM
 70
0
  9
$DIMTFAC
 40
1.0
  9
$DIMTP
 40
0.01
  9
$DIMTM
 40
0.01
  9
$PDMODE
 70
3
  9
$PDSIZE
 40
3.0
  9
$HANDSEED
  5
440
  9
$TILEMODE
 70
1
  9
$MEASUREMENT
 70
1
  9
$INSUNITS
 70
4
  0
ENDSEC
  0
SECTION
  2
CLASSES
  0
CLASS
  1
ACDBDICTIONARYWDFLT
  2
AcDbDictionaryWithDefault
  3
AutoCAD 2000
 90
0
280
0
281
0
  0
CLASS
  1
ACDBPLACEHOLDER
  2
AcDbPlaceHolder
  3
AutoCAD 2000
 90
0
280
0
281
0
  0
CLASS
  1
LAYOUT
  2
AcDbLayout
  3
AutoCAD 2000
 90
0
280
0
281
0
  0
ENDSEC
  0
SECTION
  2
TABLES
  0
TABLE
  2
VPORT
  5
8
100
AcDbSymbolTable
 70
2
  0
VPORT
  5
1F4
100
AcDbSymbolTableRecord
100
AcDbViewportTableRecord
  2
*ACTIVE
 70
0
 10
0.0
 20
0.0
 11
1.0
 21
1.0
 12
148.5
 22
105.0
 13
0.0
 23
0.0
 14
1.0
 24
1.0
 15
0.0
 25
0.0
 16
0.0
 26
0.0
 36
1.0
 17
0.0
 27
0.0
 37
0.0
 40
210.0
 41
1.4142857143
 42
50.0
 43
0.0
 44
0.0
 50
0.0
 51
0.0
 71
0
 72
100
 73
1
 74
1
 75
0
 76
0
 77
0
 78
0
  0
ENDTAB
  0
TABLE
  2
LTYPE
  5
5
100
AcDbSymbolTable
 70
6
  0
LTYPE
  5
14
100
AcDbSymbolTableRecord
100
AcDbLinetypeTableRecord
  2
BYBLOCK
 70
0
  3

 72
65
 73
0
 40
0.0
  0
LTYPE
  5
15
100
AcDbSymbolTableRecord
100
AcDbLinetypeTableRecord
  2
BYLAYER
 70
0
  3

 72
65
 73
0
 40
0.0
  0
LTYPE
  5
16
100
AcDbSymbolTableRecord
100
AcDbLinetypeTableRecord
  2
CONTINUOUS
 70
64
  3
Solid line
 72
65
 73
0
 40
0.0
  0
LTYPE
  5
1F5
100
AcDbSymbolTableRecord
100
AcDbLinetypeTableRecord
  2
CENTER
 70
64
  3
____ _ ____ _ ____ _ ____ _ ____ _ ____ _ ____
 72
65
 73
4
 40
0.6
 49
0.375
 74
0
 49
-0.075
 74
0
 49
0.075
 74
0
 49
-0.075
 74
0
  0
LTYPE
  5
1F6
100
AcDbSymbolTableRecord
100
AcDbLinetypeTableRecord
  2
HIDDEN
 70
64
  3
- - - - - - - - - - - - - - - - - - - -
 72
65
 73
2
 40
0.2
 49
0.1
 74
0
 49
-0.1
 74
0
  0
LTYPE
  5
1F7
100
AcDbSymbolTableRecord
100
AcDbLinetypeTableRecord
  2
PHANTOM
 70
64
  3
_____ _ _ _____ _ _ _____ _ _ _____
 72
65
 73
6
 40
0.8
 49
0.45
 74
0
 49
-0.05
 74
0
 49
0.1
 74
0
 49
-0.05
 74
0
 49
0.1
 74
0
 49
-0.05
 74
0
  0
LTYPE
  5
1F8
100
AcDbSymbolTableRecord
100
AcDbLinetypeTableRecord
  2
DOT
 70
64
  3
. . . . . . . . . . . . . . . . . . . .
 72
65
 73
2
 40
0.2
 49
0.1
 74
0
 49
-0.1
 74
0
  0
LTYPE
  5
1F9
100
AcDbSymbolTableRecord
100
AcDbLinetypeTableRecord
  2
DASHED
 70
64
  3
- - - - - - - - - - - - - - - - - - - -
 72
65
 73
2
 40
0.2
 49
0.1
 74
0
 49
-0.1
 74
0
  0
ENDTAB
  0
TABLE
  2
LAYER
  5
2
100
AcDbSymbolTable
 70
36
  0
LAYER
  5
10
100
AcDbSymbolTableRecord
100
AcDbLayerTableRecord
  2
0
 70
0
 62
7
  6
CONTINUOUS
370
-3
390
F
  0
LAYER
  5
1FA
100
AcDbSymbolTableRecord
100
AcDbLayerTableRecord
  2
DEFAULT_1
 70
0
 62
7
  6
CENTER
370
-3
390
F
  0
LAYER
  5
1FB
100
AcDbSymbolTableRecord
100
AcDbLayerTableRecord
  2
DEFAULT_2
 70
0
 62
7
  6
HIDDEN
370
-3
390
F
  0
LAYER
  5
1FC
100
AcDbSymbolTableRecord
100
AcDbLayerTableRecord
  2
DEFAULT_3
 70
0
 62
7
  6
PHANTOM
370
-3
390
F
  0
LAYER
  5
1FD
100
AcDbSymbolTableRecord
100
AcDbLayerTableRecord
  2
ASSI
 70
0
 62
7
  6
CONTINUOUS
370
-3
390
F
  0
LAYER
  5
1FE
100
AcDbSymbolTableRecord
100
AcDbLayerTableRecord
  2
COLOR5
 70
0
 62
7
  6
CONTINUOUS
370
-3
390
F
  0
LAYER
  5
1FF
100
AcDbSymbolTableRecord
100
AcDbLayerTableRecord
  2
COORDINATE
 70
0
 62
7
  6
CONTINUOUS
370
-3
390
F
  0
LAYER
  5
200
100
AcDbSymbolTableRecord
100
AcDbLayerTableRecord
  2
COORD_ORIGINE
 70
0
 62
7
  6
CONTINUOUS
370
-3
390
F
  0
LAYER
  5
201
100
AcDbSymbolTableRecord
100
AcDbLayerTableRecord
  2
COPY_PUBLISH
 70
0
 62
7
  6
CONTINUOUS
370
-3
390
F
  0
LAYER
  5
202
100
AcDbSymbolTableRecord
100
AcDbLayerTableRecord
  2
COSMETIC
 70
0
 62
7
  6
CONTINUOUS
370
-3
390
F
  0
LAYER
  5
203
100
AcDbSymbolTableRecord
100
AcDbLayerTableRecord
  2
CURVE
 70
0
 62
7
  6
CONTINUOUS
370
-3
390
F
  0
LAYER
  5
204
100
AcDbSymbolTableRecord
100
AcDbLayerTableRecord
  2
DRAFT
 70
0
 62
7
  6
CONTINUOUS
370
-3
390
F
  0
LAYER
  5
205
100
AcDbSymbolTableRecord
100
AcDbLayerTableRecord
  2
IMPORT_IGES
 70
0
 62
7
  6
CONTINUOUS
370
-3
390
F
  0
LAYER
  5
206
100
AcDbSymbolTableRecord
100
AcDbLayerTableRecord
  2
INTF_1
 70
0
 62
7
  6
CONTINUOUS
370
-3
390
F
  0
LAYER
  5
207
100
AcDbSymbolTableRecord
100
AcDbLayerTableRecord
  2
INTF_2
 70
0
 62
7
  6
CONTINUOUS
370
-3
390
F
  0
LAYER
  5
208
100
AcDbSymbolTableRecord
100
AcDbLayerTableRecord
  2
NOTE
 70
0
 62
7
  6
CONTINUOUS
370
-3
390
F
  0
LAYER
  5
209
100
AcDbSymbolTableRecord
100
AcDbLayerTableRecord
  2
PIANI
 70
0
 62
7
  6
CONTINUOUS
370
-3
390
F
  0
LAYER
  5
20A
100
AcDbSymbolTableRecord
100
AcDbLayerTableRecord
  2
PIANI_ORIGINE
 70
0
 62
7
  6
CONTINUOUS
370
-3
390
F
  0
LAYER
  5
20B
100
AcDbSymbolTableRecord
100
AcDbLayerTableRecord
  2
PUNTI
 70
0
 62
7
  6
CONTINUOUS
370
-3
390
F
  0
LAYER
  5
20C
100
AcDbSymbolTableRecord
100
AcDbLayerTableRecord
  2
PUNZONI
 70
0
 62
7
  6
CONTINUOUS
370
-3
390
F
  0
LAYER
  5
20D
100
AcDbSymbolTableRecord
100
AcDbLayerTableRecord
  2
RACCORDO
 70
0
 62
7
  6
CONTINUOUS
370
-3
390
F
  0
LAYER
  5
20E
100
AcDbSymbolTableRecord
100
AcDbLayerTableRecord
  2
RGB__0__0__0
 70
0
 62
7
  6
CONTINUOUS
370
-3
390
F
  0
LAYER
  5
20F
100
AcDbSymbolTableRecord
100
AcDbLayerTableRecord
  2
RGB__255__255__255__
 70
0
 62
7
  6
CONTINUOUS
370
-3
390
F
  0
LAYER
  5
210
100
AcDbSymbolTableRecord
100
AcDbLayerTableRecord
  2
RGB____0____0____0__
 70
0
 62
7
  6
CONTINUOUS
370
-3
390
F
  0
LAYER
  5
211
100
AcDbSymbolTableRecord
100
AcDbLayerTableRecord
  2
SMUSSO
 70
0
 62
7
  6
CONTINUOUS
370
-3
390
F
  0
LAYER
  5
212
100
AcDbSymbolTableRecord
100
AcDbLayerTableRecord
  2
SNAPLINE
 70
0
 62
7
  6
CONTINUOUS
370
-3
390
F
  0
LAYER
  5
213
100
AcDbSymbolTableRecord
100
AcDbLayerTableRecord
  2
SUPERFICI
 70
0
 62
7
  6
CONTINUOUS
370
-3
390
F
  0
LAYER
  5
214
100
AcDbSymbolTableRecord
100
AcDbLayerTableRecord
  2
TRASH
 70
0
 62
7
  6
CONTINUOUS
370
-3
390
F
  0
LAYER
  5
215
100
AcDbSymbolTableRecord
100
AcDbLayerTableRecord
  2
XSEC_DATUMS
 70
0
 62
7
  6
CONTINUOUS
370
-3
390
F
  0
ENDTAB
  0
TABLE
  2
STYLE
  5
3
100
AcDbSymbolTable
 70
1
  0
STYLE
  5
11
100
AcDbSymbolTableRecord
100
AcDbTextStyleTableRecord
  2
STANDARD
 70
0
 40
0.0
 41
0.8
 50
0.0
 71
0
 42
0.2
  3
txt
  4

  0
STYLE
  5
216
100
AcDbSymbolTableRecord
100
AcDbTextStyleTableRecord
  2
TEXTSTYLE_1
 70
0
 40
0.0
 41
0.8
 50
0.0
 71
0
 42
0.2
  3
gdt
  4

  0
ENDTAB
  0
TABLE
  2
VIEW
  5
6
100
AcDbSymbolTable
 70
0
  0
ENDTAB
  0
TABLE
  2
UCS
  5
7
100
AcDbSymbolTable
 70
0
  0
ENDTAB
  0
TABLE
  2
APPID
  5
9
100
AcDbSymbolTable
 70
1
  0
APPID
  5
217
100
AcDbSymbolTableRecord
100
AcDbRegAppTableRecord
  2
ACAD
 70
0
  0
ENDTAB
  0
TABLE
  2
BLOCK_RECORD
  5
1
100
AcDbSymbolTable
 70
0
  0
BLOCK_RECORD
  5
218
100
AcDbSymbolTableRecord
100
AcDbBlockTableRecord
  2
*Model_Space
  0
BLOCK_RECORD
  5
219
100
AcDbSymbolTableRecord
100
AcDbBlockTableRecord
  2
*Paper_Space
  0
BLOCK_RECORD
  5
21A
100
AcDbSymbolTableRecord
100
AcDbBlockTableRecord
  2
_FILLED
  0
BLOCK_RECORD
  5
21B
100
AcDbSymbolTableRecord
100
AcDbBlockTableRecord
  2
*D0
  0
BLOCK_RECORD
  5
21C
100
AcDbSymbolTableRecord
100
AcDbBlockTableRecord
  2
*D1
  0
BLOCK_RECORD
  5
21D
100
AcDbSymbolTableRecord
100
AcDbBlockTableRecord
  2
*D2
  0
BLOCK_RECORD
  5
21E
100
AcDbSymbolTableRecord
100
AcDbBlockTableRecord
  2
*D3
  0
BLOCK_RECORD
  5
21F
100
AcDbSymbolTableRecord
100
AcDbBlockTableRecord
  2
*D4
  0
BLOCK_RECORD
  5
220
100
AcDbSymbolTableRecord
100
AcDbBlockTableRecord
  2
*D5
  0
ENDTAB
  0
TABLE
  2
DIMSTYLE
  5
A
100
AcDbSymbolTable
 70
1
100
AcDbDimStyleTable
 71
0
  0
DIMSTYLE
105
221
100
AcDbSymbolTableRecord
100
AcDbDimStyleTableRecord
  2
STANDARD
 70
0
  3

  4

 40
1.0
 41
3.0
 42
0.0625
 43
0.38
 44
0.18
 45
0.0
 46
0.0
 47
0.01
 48
0.01
140
3.0
141
0.09
142
0.0
143
25.4
144
1.0
145
0.0
146
1.0
147
0.09
 71
1.0
 72
0.0
 73
0
 74
0
 75
0
 76
0
 77
1
 78
8
170
0
171
2
172
0
173
0
174
0
175
0
176
0
177
0
178
0
270
2
271
2
272
2
273
2
274
2
275
0
280
0
281
0
282
0
283
1
284
8
285
0
286
0
287
3
288
0
340
11
341
21A
342
21A
343
21A
344
21A
  0
DIMSTYLE
105
222
100
AcDbSymbolTableRecord
100
AcDbDimStyleTableRecord
  2
DIMSTYLE_1
 70
0
  3

  4

 40
1.0
 41
3.0
 42
0.0625
 43
0.38
 44
0.18
 45
0.0
 46
0.0
 47
0.0
 48
0.0
140
3.0
141
0.09
142
0.0
143
25.4
144
1.0
145
0.0
146
1.0
147
0.09
 71
0.0
 72
0.0
 73
0
 74
0
 75
0
 76
0
 77
1
 78
8
170
0
171
2
172
0
173
0
174
0
175
0
176
0
177
0
178
0
270
2
271
2
272
2
273
2
274
2
275
0
280
0
281
0
282
0
283
1
284
8
285
0
286
0
287
3
288
0
340
11
341
21A
342
21A
343
21A
344
21A
  0
DIMSTYLE
105
223
100
AcDbSymbolTableRecord
100
AcDbDimStyleTableRecord
  2
DIMSTYLE_2
 70
0
  3

  4

 40
1.0
 41
3.0
 42
0.0625
 43
0.38
 44
0.18
 45
0.0
 46
0.0
 47
0.0
 48
0.0
140
3.0
141
0.09
142
0.0
143
25.4
144
1.0
145
0.0
146
1.0
147
0.09
 71
0.0
 72
0.0
 73
0
 74
0
 75
0
 76
0
 77
1
 78
8
170
0
171
2
172
0
173
0
174
0
175
0
176
0
177
0
178
0
270
2
271
0
272
0
273
2
274
2
275
0
280
0
281
0
282
0
283
1
284
8
285
0
286
0
287
3
288
0
340
11
341
21A
342
21A
343
21A
344
21A
  0
ENDTAB
  0
ENDSEC
  0
SECTION
  2
BLOCKS
  0
BLOCK
  5
20
100
AcDbEntity
  8
0
100
AcDbBlockBegin
  2
*Model_Space
 70
0
 10
0.0
 20
0.0
 30
0.0
  3
*Model_Space
  1

  0
ENDBLK
  5
21
100
AcDbEntity
  8
0
100
AcDbBlockEnd
  0
BLOCK
  5
1C
100
AcDbEntity
  8
0
100
AcDbBlockBegin
  2
*Paper_Space
 70
0
 10
0.0
 20
0.0
 30
0.0
  3
*Paper_Space
  1

  0
ENDBLK
  5
1D
100
AcDbEntity
  8
0
100
AcDbBlockEnd
  0
BLOCK
  5
224
100
AcDbEntity
  8
0
100
AcDbBlockBegin
  2
_FILLED
 70
64
 10
0.0
 20
0.0
  3
_FILLED
  1

  0
SOLID
  5
225
100
AcDbEntity
  8
0
  6
BYBLOCK
 62
0
100
AcDbTrace
 10
0.0
 20
0.0
 11
-1.0
 21
0.3166666667
 12
-1.0
 22
-0.3166666667
 13
-1.0
 23
-0.3166666667
  0
ENDBLK
  5
226
100
AcDbEntity
  8
0
  6
BYBLOCK
 62
0
100
AcDbBlockEnd
  0
BLOCK
  5
227
100
AcDbEntity
  8
0
100
AcDbBlockBegin
 62
7
  6
CONTINUOUS
  2
*D0
 70
65
 10
0.0
 20
0.0
  3
*D0
  1

  0
MTEXT
  5
228
100
AcDbEntity
  8
0
100
AcDbMText
 62
7
  6
CONTINUOUS
  7
STANDARD
 71
2
 72
1
 10
0.0
 20
58.2429064757
 30
0.0
 11
1.0
 21
0.0
 31
0.0
 44
0.9
  1
68
 40
3.0
 41
4.7142857143
  0
LINE
  5
229
100
AcDbEntity
  8
0
100
AcDbLine
 62
7
  6
CONTINUOUS
 10
-34.0
 20
35.5775922268
 11
-34.0
 21
55.9929064757
  0
LINE
  5
22A
100
AcDbEntity
  8
0
100
AcDbLine
 62
7
  6
CONTINUOUS
 10
34.0
 20
35.5775922268
 11
34.0
 21
55.9929064757
  0
LINE
  5
22B
100
AcDbEntity
  8
0
100
AcDbLine
 62
7
  6
CONTINUOUS
 10
-34.0
 20
54.4929064757
 11
0.0
 21
54.4929064757
  0
LINE
  5
22C
100
AcDbEntity
  8
0
100
AcDbLine
 62
7
  6
CONTINUOUS
 10
34.0
 20
54.4929064757
 11
0.0
 21
54.4929064757
  0
INSERT
  5
22D
100
AcDbEntity
  8
0
100
AcDbBlockReference
 62
7
  6
CONTINUOUS
  2
_FILLED
 10
-34.0
 20
54.4929064757
 41
3.0
 42
3.0
 43
3.0
 50
180.0
  0
INSERT
  5
22E
100
AcDbEntity
  8
0
100
AcDbBlockReference
 62
7
  6
CONTINUOUS
  2
_FILLED
 10
34.0
 20
54.4929064757
 41
3.0
 42
3.0
 43
3.0
  0
ENDBLK
  5
22F
100
AcDbEntity
  8
0
  6
BYBLOCK
 62
0
100
AcDbBlockEnd
  0
BLOCK
  5
230
100
AcDbEntity
  8
0
100
AcDbBlockBegin
 62
7
  6
CONTINUOUS
  2
*D1
 70
65
 10
0.0
 20
0.0
  3
*D1
  1

  0
MTEXT
  5
231
100
AcDbEntity
  8
0
100
AcDbMText
 62
7
  6
CONTINUOUS
  7
STANDARD
 71
2
 72
1
 10
38.25
 20
-4.9224648886
 30
0.0
 11
0.0
 21
1.0
 31
0.0
 44
0.9
  1
83
 40
3.0
 41
4.5
  0
LINE
  5
232
100
AcDbEntity
  8
0
100
AcDbLine
 62
7
  6
CONTINUOUS
 10
33.0000571154
 20
36.5775351114
 11
43.5
 21
36.5775351114
  0
LINE
  5
233
100
AcDbEntity
  8
0
100
AcDbLine
 62
7
  6
CONTINUOUS
 10
33.0000571154
 20
-46.4224648886
 11
43.5
 21
-46.4224648886
  0
LINE
  5
234
100
AcDbEntity
  8
0
100
AcDbLine
 62
7
  6
CONTINUOUS
 10
42.0
 20
36.5775351114
 11
42.0
 21
-4.9224648886
  0
LINE
  5
235
100
AcDbEntity
  8
0
100
AcDbLine
 62
7
  6
CONTINUOUS
 10
42.0
 20
-46.4224648886
 11
42.0
 21
-4.9224648886
  0
INSERT
  5
236
100
AcDbEntity
  8
0
100
AcDbBlockReference
 62
7
  6
CONTINUOUS
  2
_FILLED
 10
42.0
 20
36.5775351114
 41
3.0
 42
3.0
 43
3.0
 50
90.0
  0
INSERT
  5
237
100
AcDbEntity
  8
0
100
AcDbBlockReference
 62
7
  6
CONTINUOUS
  2
_FILLED
 10
42.0
 20
-46.4224648886
 41
3.0
 42
3.0
 43
3.0
 50
270.0
  0
ENDBLK
  5
238
100
AcDbEntity
  8
0
  6
BYBLOCK
 62
0
100
AcDbBlockEnd
  0
BLOCK
  5
239
100
AcDbEntity
  8
0
100
AcDbBlockBegin
 62
7
  6
CONTINUOUS
  2
*D2
 70
65
 10
0.0
 20
0.0
  3
*D2
  1

  0
MTEXT
  5
23A
100
AcDbEntity
  8
0
100
AcDbMText
 62
7
  6
CONTINUOUS
  7
STANDARD
 71
2
 72
1
 10
48.25
 20
0.0239598348
 30
0.0
 11
0.0
 21
1.0
 31
0.0
 44
0.9
  1
93
 40
3.0
 41
4.5
  0
LINE
  5
23B
100
AcDbEntity
  8
0
100
AcDbLine
 62
7
  6
CONTINUOUS
 10
33.0000571154
 20
-46.4224648886
 11
53.5
 21
-46.4224648886
  0
LINE
  5
23C
100
AcDbEntity
  8
0
100
AcDbLine
 62
7
  6
CONTINUOUS
 10
0.5
 20
46.4703845583
 11
53.5
 21
46.4703845583
  0
LINE
  5
23D
100
AcDbEntity
  8
0
100
AcDbLine
 62
7
  6
CONTINUOUS
 10
52.0
 20
-46.4224648886
 11
52.0
 21
0.0239598348
  0
LINE
  5
23E
100
AcDbEntity
  8
0
100
AcDbLine
 62
7
  6
CONTINUOUS
 10
52.0
 20
46.4703845583
 11
52.0
 21
0.0239598348
  0
INSERT
  5
23F
100
AcDbEntity
  8
0
100
AcDbBlockReference
 62
7
  6
CONTINUOUS
  2
_FILLED
 10
52.0
 20
-46.4224648886
 41
3.0
 42
3.0
 43
3.0
 50
270.0
  0
INSERT
  5
240
100
AcDbEntity
  8
0
100
AcDbBlockReference
 62
7
  6
CONTINUOUS
  2
_FILLED
 10
52.0
 20
46.4703845583
 41
3.0
 42
3.0
 43
3.0
 50
90.0
  0
ENDBLK
  5
241
100
AcDbEntity
  8
0
  6
BYBLOCK
 62
0
100
AcDbBlockEnd
  0
BLOCK
  5
242
100
AcDbEntity
  8
0
100
AcDbBlockBegin
 62
7
  6
CONTINUOUS
  2
*D3
 70
65
 10
0.0
 20
0.0
  3
*D3
  1

  0
MTEXT
  5
243
100
AcDbEntity
  8
0
100
AcDbMText
 62
7
  6
CONTINUOUS
  7
STANDARD
 71
2
 72
1
 10
-69.1298432694
 20
58.2429064757
 30
0.0
 11
1.0
 21
0.0
 31
0.0
 44
0.9
  1
40
 40
3.0
 41
4.7142857143
  0
LINE
  5
244
100
AcDbEntity
  8
0
100
AcDbLine
 62
7
  6
CONTINUOUS
 10
-49.1298432694
 20
35.2371682276
 11
-49.1298432694
 21
55.9929064757
  0
LINE
  5
245
100
AcDbEntity
  8
0
100
AcDbLine
 62
7
  6
CONTINUOUS
 10
-89.1298432694
 20
37.0775351114
 11
-89.1298432694
 21
55.9929064757
  0
LINE
  5
246
100
AcDbEntity
  8
0
100
AcDbLine
 62
7
  6
CONTINUOUS
 10
-49.1298432694
 20
54.4929064757
 11
-69.1298432694
 21
54.4929064757
  0
LINE
  5
247
100
AcDbEntity
  8
0
100
AcDbLine
 62
7
  6
CONTINUOUS
 10
-89.1298432694
 20
54.4929064757
 11
-69.1298432694
 21
54.4929064757
  0
INSERT
  5
248
100
AcDbEntity
  8
0
100
AcDbBlockReference
 62
7
  6
CONTINUOUS
  2
_FILLED
 10
-49.1298432694
 20
54.4929064757
 41
3.0
 42
3.0
 43
3.0
  0
INSERT
  5
249
100
AcDbEntity
  8
0
100
AcDbBlockReference
 62
7
  6
CONTINUOUS
  2
_FILLED
 10
-89.1298432694
 20
54.4929064757
 41
3.0
 42
3.0
 43
3.0
 50
180.0
  0
ENDBLK
  5
24A
100
AcDbEntity
  8
0
  6
BYBLOCK
 62
0
100
AcDbBlockEnd
  0
BLOCK
  5
24B
100
AcDbEntity
  8
0
100
AcDbBlockBegin
 62
7
  6
CONTINUOUS
  2
*D4
 70
65
 10
0.0
 20
0.0
  3
*D4
  1

  0
MTEXT
  5
24C
100
AcDbEntity
  8
0
100
AcDbMText
 62
7
  6
CONTINUOUS
  7
STANDARD
 71
2
 72
1
 10
-97.1298432694
 20
58.2429064757
 30
0.0
 11
1.0
 21
0.0
 31
0.0
 44
0.9
  1
16
 40
3.0
 41
4.0714285714
  0
LINE
  5
24D
100
AcDbEntity
  8
0
100
AcDbLine
 62
7
  6
CONTINUOUS
 10
-105.1298432694
 20
-4.4224648886
 11
-105.1298432694
 21
55.9929064757
  0
LINE
  5
24E
100
AcDbEntity
  8
0
100
AcDbLine
 62
7
  6
CONTINUOUS
 10
-89.1298432694
 20
35.5775922268
 11
-89.1298432694
 21
55.9929064757
  0
LINE
  5
24F
100
AcDbEntity
  8
0
100
AcDbLine
 62
7
  6
CONTINUOUS
 10
-105.1298432694
 20
54.4929064757
 11
-97.1298432694
 21
54.4929064757
  0
LINE
  5
250
100
AcDbEntity
  8
0
100
AcDbLine
 62
7
  6
CONTINUOUS
 10
-89.1298432694
 20
54.4929064757
 11
-97.1298432694
 21
54.4929064757
  0
INSERT
  5
251
100
AcDbEntity
  8
0
100
AcDbBlockReference
 62
7
  6
CONTINUOUS
  2
_FILLED
 10
-105.1298432694
 20
54.4929064757
 41
3.0
 42
3.0
 43
3.0
 50
180.0
  0
INSERT
  5
252
100
AcDbEntity
  8
0
100
AcDbBlockReference
 62
7
  6
CONTINUOUS
  2
_FILLED
 10
-89.1298432694
 20
54.4929064757
 41
3.0
 42
3.0
 43
3.0
  0
ENDBLK
  5
253
100
AcDbEntity
  8
0
  6
BYBLOCK
 62
0
100
AcDbBlockEnd
  0
BLOCK
  5
254
100
AcDbEntity
  8
0
100
AcDbBlockBegin
 62
7
  6
CONTINUOUS
  2
*D5
 70
65
 10
0.0
 20
0.0
  3
*D5
  1

  0
MTEXT
  5
255
100
AcDbEntity
  8
0
100
AcDbMText
 62
7
  6
CONTINUOUS
  7
STANDARD
 71
2
 72
1
 10
-77.1298432694
 20
68.2429064757
 30
0.0
 11
1.0
 21
0.0
 31
0.0
 44
0.9
  1
56
 40
3.0
 41
4.5
  0
LINE
  5
256
100
AcDbEntity
  8
0
100
AcDbLine
 62
7
  6
CONTINUOUS
 10
-49.1298432694
 20
35.2371682276
 11
-49.1298432694
 21
65.9929064757
  0
LINE
  5
257
100
AcDbEntity
  8
0
100
AcDbLine
 62
7
  6
CONTINUOUS
 10
-105.1298432694
 20
-4.4224648886
 11
-105.1298432694
 21
65.9929064757
  0
LINE
  5
258
100
AcDbEntity
  8
0
100
AcDbLine
 62
7
  6
CONTINUOUS
 10
-49.1298432694
 20
64.4929064757
 11
-77.1298432694
 21
64.4929064757
  0
LINE
  5
259
100
AcDbEntity
  8
0
100
AcDbLine
 62
7
  6
CONTINUOUS
 10
-105.1298432694
 20
64.4929064757
 11
-77.1298432694
 21
64.4929064757
  0
INSERT
  5
25A
100
AcDbEntity
  8
0
100
AcDbBlockReference
 62
7
  6
CONTINUOUS
  2
_FILLED
 10
-49.1298432694
 20
64.4929064757
 41
3.0
 42
3.0
 43
3.0
  0
INSERT
  5
25B
100
AcDbEntity
  8
0
100
AcDbBlockReference
 62
7
  6
CONTINUOUS
  2
_FILLED
 10
-105.1298432694
 20
64.4929064757
 41
3.0
 42
3.0
 43
3.0
 50
180.0
  0
ENDBLK
  5
25C
100
AcDbEntity
  8
0
  6
BYBLOCK
 62
0
100
AcDbBlockEnd
  0
ENDSEC
  0
SECTION
  2
ENTITIES
  0
DIMENSION
  5
25D
100
AcDbEntity
  8
0
100
AcDbDimension
 62
7
  6
CONTINUOUS
  2
*D0
 10
34.0
 20
54.4929064757
 11
-2.3571428571
 21
56.7429064757
 70
160
 71
2
 42
68.0
  3
DIMSTYLE_1
100
AcDbAlignedDimension
 13
-34.0
 23
35.5775922268
 14
34.0
 24
35.5775922268
100
AcDbRotatedDimension
  0
DIMENSION
  5
25E
100
AcDbEntity
  8
0
100
AcDbDimension
 62
7
  6
CONTINUOUS
  2
*D1
 10
42.0
 20
-46.4224648886
 11
40.7581656363
 21
-6.9339573817
 70
160
 71
2
 42
83.0
  3
DIMSTYLE_1
100
AcDbAlignedDimension
 13
33.0000571154
 23
36.5775351114
 14
33.0000571154
 24
-46.4224648886
 50
270.0
100
AcDbRotatedDimension
  0
DIMENSION
  5
25F
100
AcDbEntity
  8
0
100
AcDbDimension
 62
7
  6
CONTINUOUS
  2
*D2
 10
52.0
 20
46.4703845583
 11
50.7581656363
 21
-1.9875326583
 70
160
 71
2
 42
92.8928494469
  3
DIMSTYLE_2
100
AcDbAlignedDimension
 13
33.0000571154
 23
-46.4224648886
 14
0.5
 24
46.4703845583
 50
90.0
100
AcDbRotatedDimension
  0
DIMENSION
  5
260
100
AcDbEntity
  8
0
100
AcDbDimension
 62
7
  6
CONTINUOUS
  2
*D3
 10
-89.1298432694
 20
54.4929064757
 11
-71.4869861266
 21
56.7429064757
 70
160
 71
2
 42
40.0
  3
DIMSTYLE_1
100
AcDbAlignedDimension
 13
-49.1298432694
 23
35.2371682276
 14
-89.1298432694
 24
37.0775351114
 50
180.0
100
AcDbRotatedDimension
  0
DIMENSION
  5
261
100
AcDbEntity
  8
0
100
AcDbDimension
 62
7
  6
CONTINUOUS
  2
*D4
 10
-89.1298432694
 20
54.4929064757
 11
-99.1655575552
 21
56.7429064757
 70
160
 71
2
 42
16.0
  3
DIMSTYLE_1
100
AcDbAlignedDimension
 13
-105.1298432694
 23
-4.4224648886
 14
-89.1298432694
 24
35.5775922268
100
AcDbRotatedDimension
  0
DIMENSION
  5
262
100
AcDbEntity
  8
0
100
AcDbDimension
 62
7
  6
CONTINUOUS
  2
*D5
 10
-105.1298432694
 20
64.4929064757
 11
-79.3798432694
 21
66.7429064757
 70
160
 71
2
 42
56.0
  3
DIMSTYLE_1
100
AcDbAlignedDimension
 13
-49.1298432694
 23
35.2371682276
 14
-105.1298432694
 24
-4.4224648886
 50
180.0
100
AcDbRotatedDimension
  0
LINE
  5
263
100
AcDbEntity
  8
RACCORDO
100
AcDbLine
 62
7
  6
CONTINUOUS
 10
32.5000571154
 20
-46.4224648886
 11
-32.5000571154
 21
-46.4224648886
  0
LINE
  5
264
100
AcDbEntity
  8
RACCORDO
100
AcDbLine
 62
253
  6
CONTINUOUS
 10
32.4205053945
 20
-46.3429131677
 11
-32.4205053944
 21
-46.3429131676
  0
LINE
  5
265
100
AcDbEntity
  8
RACCORDO
100
AcDbLine
 62
253
  6
CONTINUOUS
 10
32.3903975079
 20
-41.870828115
 11
-32.3903975079
 21
-41.8708281065
  0
LINE
  5
266
100
AcDbEntity
  8
ASSI
100
AcDbLine
 62
7
  6
CONTINUOUS
 10
27.305315
 20
-39.4224508886
 11
27.936092
 21
-39.4224438886
  0
LINE
  5
267
100
AcDbEntity
  8
ASSI
100
AcDbLine
 62
7
  6
CONTINUOUS
 10
22.963796
 20
-39.4224578886
 11
23.523817
 21
-39.4224508886
  0
LINE
  5
268
100
AcDbEntity
  8
ASSI
100
AcDbLine
 62
7
  6
CONTINUOUS
 10
20.94095
 20
-39.4224578886
 11
21.500957
 21
-39.4224508886
  0
LINE
  5
269
100
AcDbEntity
  8
ASSI
100
AcDbLine
 62
7
  6
CONTINUOUS
 10
18.731435
 20
-39.4224648886
 11
19.291456
 21
-39.4224578886
  0
LINE
  5
26A
100
AcDbEntity
  8
ASSI
100
AcDbLine
 62
7
  6
CONTINUOUS
 10
16.899024
 20
-39.4224648886
 11
17.459066
 21
-39.4224578886
  0
LINE
  5
26B
100
AcDbEntity
  8
ASSI
100
AcDbLine
 62
7
  6
CONTINUOUS
 10
19.851463
 20
-39.4224578886
 11
20.411484
 21
-39.4224578886
  0
LINE
  5
26C
100
AcDbEntity
  8
ASSI
100
AcDbLine
 62
7
  6
CONTINUOUS
 10
22.03043
 20
-39.4224578886
 11
22.590451
 21
-39.4224578886
  0
LINE
  5
26D
100
AcDbEntity
  8
ASSI
100
AcDbLine
 62
7
  6
CONTINUOUS
 10
25.695238
 20
-39.4224508886
 11
26.255266
 21
-39.4224508886
  0
LINE
  5
26E
100
AcDbEntity
  8
ASSI
100
AcDbLine
 62
7
  6
CONTINUOUS
 10
24.761865
 20
-39.4224508886
 11
25.321893
 21
-39.4224578886
  0
LINE
  5
26F
100
AcDbEntity
  8
ASSI
100
AcDbLine
 62
7
  6
CONTINUOUS
 10
23.700616
 20
-38.8717888886
 11
24.585073
 21
-38.8717888886
  0
LINE
  5
270
100
AcDbEntity
  8
ASSI
100
AcDbLine
 62
7
  6
CONTINUOUS
 10
24.414245
 20
-38.3397678886
 11
23.871437
 21
-38.3397678886
  0
LINE
  5
271
100
AcDbEntity
  8
ASSI
100
AcDbLine
 62
7
  6
CONTINUOUS
 10
26.255329
 20
-38.3397608886
 11
26.744104
 21
-38.3397678886
  0
LINE
  5
272
100
AcDbEntity
  8
ASSI
100
AcDbLine
 62
7
  6
CONTINUOUS
 10
26.928888
 20
-37.8217398886
 11
26.247545
 21
-37.8217398886
  0
LINE
  5
273
100
AcDbEntity
  8
ASSI
100
AcDbLine
 62
7
  6
CONTINUOUS
 10
26.247538
 20
-37.1403458886
 11
26.928888
 21
-37.1403458886
  0
LINE
  5
274
100
AcDbEntity
  8
ASSI
100
AcDbLine
 62
7
  6
CONTINUOUS
 10
22.590451
 20
-36.6223318886
 11
21.74385
 21
-36.6223318886
  0
LINE
  5
275
100
AcDbEntity
  8
ASSI
100
AcDbLine
 62
7
  6
CONTINUOUS
 10
20.698064
 20
-36.6223318886
 11
19.851463
 21
-36.6223318886
  0
LINE
  5
276
100
AcDbEntity
  8
ASSI
100
AcDbLine
 62
7
  6
CONTINUOUS
 10
19.291463
 20
-36.6223318886
 11
18.731442
 21
-36.6223318886
  0
LINE
  5
277
100
AcDbEntity
  8
ASSI
100
AcDbLine
 62
7
  6
CONTINUOUS
 10
18.358097
 20
-36.6223318886
 11
17.798069
 21
-36.6223318886
  0
LINE
  5
278
100
AcDbEntity
  8
ASSI
100
AcDbLine
 62
7
  6
CONTINUOUS
 10
16.560028
 20
-36.6223318886
 11
16.0
 21
-36.6223318886
  0
LINE
  5
279
100
AcDbEntity
  8
ASSI
100
AcDbLine
 62
7
  6
CONTINUOUS
 10
27.006618
 20
-36.6223248886
 11
25.695238
 21
-36.6223248886
  0
LINE
  5
27A
100
AcDbEntity
  8
ASSI
100
AcDbLine
 62
7
  6
CONTINUOUS
 10
24.422862
 20
-36.6223248886
 11
23.862813
 21
-36.6223248886
  0
LINE
  5
27B
100
AcDbEntity
  8
0
100
AcDbLine
 62
7
  6
CONTINUOUS
 10
-26.122106287
 20
-31.683642516
 11
-26.1716048889
 21
-31.5773922147
  0
LINE
  5
27C
100
AcDbEntity
  8
0
100
AcDbLine
 62
7
  6
CONTINUOUS
 10
-23.877893713
 20
-32.1612872612
 11
-23.8283951111
 21
-32.2675375625
  0
LINE
  5
27D
100
AcDbEntity
  8
RACCORDO
100
AcDbLine
 62
7
  6
CONTINUOUS
 10
-34.0
 20
35.0775922268
 11
-34.0
 21
-44.922522004
  0
LINE
  5
27E
100
AcDbEntity
  8
0
100
AcDbLine
 62
7
  6
CONTINUOUS
 10
-25.6
 20
-34.7546202103
 11
-25.6
 21
-32.3762722552
  0
LINE
  5
27F
100
AcDbEntity
  8
0
100
AcDbLine
 62
7
  6
CONTINUOUS
 10
-25.6
 20
-31.468657522
 11
-25.6
 21
-29.0903095669
  0
LINE
  5
280
100
AcDbEntity
  8
0
100
AcDbLine
 62
7
  6
CONTINUOUS
 10
-24.4
 20
-29.0903095669
 11
-24.4
 21
-31.468657522
  0
LINE
  5
281
100
AcDbEntity
  8
0
100
AcDbLine
 62
7
  6
CONTINUOUS
 10
-24.4
 20
-32.3762722552
 11
-24.4
 21
-34.7546202103
  0
LINE
  5
282
100
AcDbEntity
  8
RACCORDO
100
AcDbLine
 62
253
  6
CONTINUOUS
 10
6.75
 20
-23.388292741
 11
-6.75
 21
-23.388292741
  0
LINE
  5
283
100
AcDbEntity
  8
RACCORDO
100
AcDbLine
 62
7
  6
CONTINUOUS
 10
6.7499443034
 20
-23.0724648886
 11
-6.7499247107
 21
-23.0724648886
  0
LINE
  5
284
100
AcDbEntity
  8
0
100
AcDbLine
 62
7
  6
CONTINUOUS
 10
-14.0
 20
37.6952514293
 11
-14.0
 21
36.5775351114
  0
LINE
  5
285
100
AcDbEntity
  8
RACCORDO
100
AcDbLine
 62
7
  6
CONTINUOUS
 10
-14.0
 20
36.5775351114
 11
-14.0
 21
37.6952514293
  0
LINE
  5
286
100
AcDbEntity
  8
0
100
AcDbLine
 62
7
  6
CONTINUOUS
 10
-11.85
 20
40.0987488219
 11
-11.85
 21
39.6721348149
  0
LINE
  5
287
100
AcDbEntity
  8
RACCORDO
100
AcDbLine
 62
7
  6
CONTINUOUS
 10
-11.85
 20
39.6721348149
 11
-11.85
 21
40.0987488219
  0
LINE
  5
288
100
AcDbEntity
  8
0
100
AcDbLine
 62
7
  6
CONTINUOUS
 10
-11.35
 20
39.6721348149
 11
-11.35
 21
39.1831872916
  0
LINE
  5
289
100
AcDbEntity
  8
0
100
AcDbLine
 62
7
  6
CONTINUOUS
 10
-10.1
 20
41.9384675524
 11
-10.1
 21
41.4716715117
  0
LINE
  5
28A
100
AcDbEntity
  8
RACCORDO
100
AcDbLine
 62
7
  6
CONTINUOUS
 10
-10.1
 20
41.4716715117
 11
-10.1
 21
41.9384675524
  0
LINE
  5
28B
100
AcDbEntity
  8
0
100
AcDbLine
 62
7
  6
CONTINUOUS
 10
-9.45
 20
41.4716715117
 11
-9.45
 21
40.9808953377
  0
LINE
  5
28C
100
AcDbEntity
  8
RACCORDO
100
AcDbLine
 62
253
  6
CONTINUOUS
 10
-8.95
 20
-21.186405409
 11
-8.95
 21
11.3414756319
  0
LINE
  5
28D
100
AcDbEntity
  8
RACCORDO
100
AcDbLine
 62
7
  6
CONTINUOUS
 10
-8.65
 20
-21.1723988108
 11
-8.65
 21
11.3274499579
  0
LINE
  5
28E
100
AcDbEntity
  8
0
100
AcDbLine
 62
7
  6
CONTINUOUS
 10
-8.35
 20
43.7112162267
 11
-8.35
 21
43.2712082085
  0
LINE
  5
28F
100
AcDbEntity
  8
RACCORDO
100
AcDbLine
 62
7
  6
CONTINUOUS
 10
-8.35
 20
43.2712082085
 11
-8.35
 21
43.7112162267
  0
LINE
  5
290
100
AcDbEntity
  8
0
100
AcDbLine
 62
7
  6
CONTINUOUS
 10
-7.85
 20
43.2712082085
 11
-7.85
 21
42.7788921182
  0
LINE
  5
291
100
AcDbEntity
  8
0
100
AcDbLine
 62
7
  6
CONTINUOUS
 10
-26.171604981
 20
-32.2675375133
 11
-26.1221062937
 21
-32.1612872711
  0
LINE
  5
292
100
AcDbEntity
  8
0
100
AcDbLine
 62
7
  6
CONTINUOUS
 10
-23.828395019
 20
-31.5773922639
 11
-23.8778937063
 21
-31.6836425061
  0
LINE
  5
293
100
AcDbEntity
  8
RACCORDO
100
AcDbLine
 62
253
  6
CONTINUOUS
 10
32.5000571154
 20
-46.4224648886
 11
32.4205053945
 21
-46.3429131677
  0
LINE
  5
294
100
AcDbEntity
  8
RACCORDO
100
AcDbLine
 62
253
  6
CONTINUOUS
 10
34.0
 20
-44.922522004
 11
33.9204472986
 21
-44.8429693026
  0
LINE
  5
295
100
AcDbEntity
  8
RACCORDO
100
AcDbLine
 62
253
  6
CONTINUOUS
 10
-6.75
 20
13.5433629639
 11
-6.75
 21
13.2275351114
  0
LINE
  5
296
100
AcDbEntity
  8
RACCORDO
100
AcDbLine
 62
253
  6
CONTINUOUS
 10
-6.75
 20
-23.388292741
 11
-6.7499999996
 21
-23.0724648886
  0
LINE
  5
297
100
AcDbEntity
  8
0
100
AcDbLine
 62
7
  6
CONTINUOUS
 10
-4.1
 20
45.4098170158
 11
-4.1
 21
45.0707449052
  0
LINE
  5
298
100
AcDbEntity
  8
RACCORDO
100
AcDbLine
 62
7
  6
CONTINUOUS
 10
-4.1
 20
45.0707449052
 11
-4.1
 21
45.4098170158
  0
LINE
  5
299
100
AcDbEntity
  8
0
100
AcDbLine
 62
7
  6
CONTINUOUS
 10
-3.6
 20
45.0707449052
 11
-3.6
 21
44.6797208318
  0
LINE
  5
29A
100
AcDbEntity
  8
RACCORDO
100
AcDbLine
 62
253
  6
CONTINUOUS
 10
32.420505358
 20
36.497983354
 11
32.5000571154
 21
36.5775351114
  0
LINE
  5
29B
100
AcDbEntity
  8
RACCORDO
100
AcDbLine
 62
253
  6
CONTINUOUS
 10
33.9204472986
 20
34.9980395254
 11
34.0
 21
35.0775922268
  0
LINE
  5
29C
100
AcDbEntity
  8
0
100
AcDbLine
 62
7
  6
CONTINUOUS
 10
3.6
 20
45.0707449052
 11
3.6
 21
44.6797208318
  0
LINE
  5
29D
100
AcDbEntity
  8
0
100
AcDbLine
 62
7
  6
CONTINUOUS
 10
4.1
 20
45.4098170158
 11
4.1
 21
45.0707449052
  0
LINE
  5
29E
100
AcDbEntity
  8
RACCORDO
100
AcDbLine
 62
7
  6
CONTINUOUS
 10
4.1
 20
45.0707449052
 11
4.1
 21
45.4098170158
  0
LINE
  5
29F
100
AcDbEntity
  8
RACCORDO
100
AcDbLine
 62
253
  6
CONTINUOUS
 10
-34.0
 20
35.0775922268
 11
-33.9204472986
 21
34.9980395254
  0
LINE
  5
2A0
100
AcDbEntity
  8
RACCORDO
100
AcDbLine
 62
253
  6
CONTINUOUS
 10
-32.5000571154
 20
36.5775351114
 11
-32.4205053581
 21
36.4979833541
  0
LINE
  5
2A1
100
AcDbEntity
  8
ASSI
100
AcDbLine
 62
7
  6
CONTINUOUS
 10
16.0
 20
-36.6223318886
 11
16.899024
 21
-39.4224648886
  0
LINE
  5
2A2
100
AcDbEntity
  8
RACCORDO
100
AcDbLine
 62
253
  6
CONTINUOUS
 10
6.75
 20
13.5433629639
 11
6.7499999996
 21
13.2275351114
  0
LINE
  5
2A3
100
AcDbEntity
  8
RACCORDO
100
AcDbLine
 62
253
  6
CONTINUOUS
 10
6.75
 20
-23.388292741
 11
6.75
 21
-23.0724648886
  0
LINE
  5
2A4
100
AcDbEntity
  8
0
100
AcDbLine
 62
7
  6
CONTINUOUS
 10
7.85
 20
43.2712082085
 11
7.85
 21
42.7788921182
  0
LINE
  5
2A5
100
AcDbEntity
  8
RACCORDO
100
AcDbLine
 62
253
  6
CONTINUOUS
 10
-33.9204472986
 20
-44.8429693026
 11
-34.0
 21
-44.922522004
  0
LINE
  5
2A6
100
AcDbEntity
  8
ASSI
100
AcDbLine
 62
7
  6
CONTINUOUS
 10
26.744104
 20
-38.3397678886
 11
27.305315
 21
-39.4224508886
  0
LINE
  5
2A7
100
AcDbEntity
  8
ASSI
100
AcDbLine
 62
7
  6
CONTINUOUS
 10
27.936092
 20
-39.4224438886
 11
27.3399777907
 21
-38.2724185555
  0
LINE
  5
2A8
100
AcDbEntity
  8
ASSI
100
AcDbLine
 62
7
  6
CONTINUOUS
 10
17.179052
 20
-38.5503698886
 11
16.560028
 21
-36.6223318886
  0
LINE
  5
2A9
100
AcDbEntity
  8
0
100
AcDbLine
 62
7
  6
CONTINUOUS
 10
8.35
 20
43.7112162267
 11
8.35
 21
43.2712082085
  0
LINE
  5
2AA
100
AcDbEntity
  8
RACCORDO
100
AcDbLine
 62
7
  6
CONTINUOUS
 10
8.35
 20
43.2712082085
 11
8.35
 21
43.7112162267
  0
LINE
  5
2AB
100
AcDbEntity
  8
RACCORDO
100
AcDbLine
 62
7
  6
CONTINUOUS
 10
8.65
 20
11.3274690336
 11
8.65
 21
-21.1723797351
  0
LINE
  5
2AC
100
AcDbEntity
  8
RACCORDO
100
AcDbLine
 62
253
  6
CONTINUOUS
 10
8.95
 20
11.3414756319
 11
8.95
 21
-21.186405409
  0
LINE
  5
2AD
100
AcDbEntity
  8
0
100
AcDbLine
 62
7
  6
CONTINUOUS
 10
9.45
 20
41.4716715117
 11
9.45
 21
40.9808953377
  0
LINE
  5
2AE
100
AcDbEntity
  8
0
100
AcDbLine
 62
7
  6
CONTINUOUS
 10
10.1
 20
41.9384675524
 11
10.1
 21
41.4716715117
  0
LINE
  5
2AF
100
AcDbEntity
  8
RACCORDO
100
AcDbLine
 62
7
  6
CONTINUOUS
 10
10.1
 20
41.4716715117
 11
10.1
 21
41.9384675524
  0
LINE
  5
2B0
100
AcDbEntity
  8
0
100
AcDbLine
 62
7
  6
CONTINUOUS
 10
11.35
 20
39.6721348149
 11
11.35
 21
39.1831872916
  0
LINE
  5
2B1
100
AcDbEntity
  8
0
100
AcDbLine
 62
7
  6
CONTINUOUS
 10
11.85
 20
40.0987488219
 11
11.85
 21
39.6721348149
  0
LINE
  5
2B2
100
AcDbEntity
  8
RACCORDO
100
AcDbLine
 62
7
  6
CONTINUOUS
 10
11.85
 20
39.6721348149
 11
11.85
 21
40.0987488219
  0
LINE
  5
2B3
100
AcDbEntity
  8
RACCORDO
100
AcDbLine
 62
253
  6
CONTINUOUS
 10
-32.4205053944
 20
-46.3429131676
 11
-32.5000571154
 21
-46.4224648886
  0
LINE
  5
2B4
100
AcDbEntity
  8
ASSI
100
AcDbLine
 62
7
  6
CONTINUOUS
 10
24.142834
 20
-37.4944198886
 11
24.414245
 21
-38.3397678886
  0
LINE
  5
2B5
100
AcDbEntity
  8
ASSI
100
AcDbLine
 62
7
  6
CONTINUOUS
 10
24.585073
 20
-38.8717888886
 11
24.761865
 21
-39.4224508886
  0
LINE
  5
2B6
100
AcDbEntity
  8
ASSI
100
AcDbLine
 62
7
  6
CONTINUOUS
 10
20.411484
 20
-37.5759628886
 11
20.94095
 21
-39.4224578886
  0
LINE
  5
2B7
100
AcDbEntity
  8
ASSI
100
AcDbLine
 62
7
  6
CONTINUOUS
 10
21.220957
 20
-38.4458738886
 11
20.698064
 21
-36.6223318886
  0
LINE
  5
2B8
100
AcDbEntity
  8
0
100
AcDbLine
 62
7
  6
CONTINUOUS
 10
14.0
 20
37.6952514293
 11
14.0
 21
36.5775351114
  0
LINE
  5
2B9
100
AcDbEntity
  8
RACCORDO
100
AcDbLine
 62
7
  6
CONTINUOUS
 10
14.0
 20
36.5775351114
 11
14.0
 21
37.6952514293
  0
LINE
  5
2BA
100
AcDbEntity
  8
0
100
AcDbLine
 62
7
  6
CONTINUOUS
 10
23.828395019
 20
21.7324624867
 11
23.8778937063
 21
21.8387127289
  0
LINE
  5
2BB
100
AcDbEntity
  8
0
100
AcDbLine
 62
7
  6
CONTINUOUS
 10
26.171604981
 20
22.4226077361
 11
26.1221062937
 21
22.3163574939
  0
LINE
  5
2BC
100
AcDbEntity
  8
RACCORDO
100
AcDbLine
 62
7
  6
CONTINUOUS
 10
-6.7499443034
 20
13.2275351114
 11
6.7499247107
 21
13.2275351114
  0
LINE
  5
2BD
100
AcDbEntity
  8
RACCORDO
100
AcDbLine
 62
253
  6
CONTINUOUS
 10
-6.75
 20
13.5433629639
 11
6.75
 21
13.5433629639
  0
LINE
  5
2BE
100
AcDbEntity
  8
ASSI
100
AcDbLine
 62
7
  6
CONTINUOUS
 10
25.321893
 20
-39.4224578886
 11
24.422862
 21
-36.6223248886
  0
LINE
  5
2BF
100
AcDbEntity
  8
ASSI
100
AcDbLine
 62
7
  6
CONTINUOUS
 10
18.731442
 20
-36.6223318886
 11
18.731435
 21
-39.4224648886
  0
LINE
  5
2C0
100
AcDbEntity
  8
ASSI
100
AcDbLine
 62
7
  6
CONTINUOUS
 10
19.291456
 20
-39.4224578886
 11
19.291463
 21
-36.6223318886
  0
LINE
  5
2C1
100
AcDbEntity
  8
ASSI
100
AcDbLine
 62
7
  6
CONTINUOUS
 10
19.851463
 20
-36.6223318886
 11
19.851463
 21
-39.4224578886
  0
LINE
  5
2C2
100
AcDbEntity
  8
ASSI
100
AcDbLine
 62
7
  6
CONTINUOUS
 10
20.411484
 20
-39.4224578886
 11
20.411484
 21
-37.5759628886
  0
LINE
  5
2C3
100
AcDbEntity
  8
ASSI
100
AcDbLine
 62
7
  6
CONTINUOUS
 10
22.030423
 20
-37.5759628886
 11
22.03043
 21
-39.4224578886
  0
LINE
  5
2C4
100
AcDbEntity
  8
ASSI
100
AcDbLine
 62
7
  6
CONTINUOUS
 10
22.590451
 20
-39.4224578886
 11
22.590451
 21
-36.6223318886
  0
LINE
  5
2C5
100
AcDbEntity
  8
0
100
AcDbLine
 62
7
  6
CONTINUOUS
 10
24.4
 20
19.2453797897
 11
24.4
 21
21.6237277448
  0
LINE
  5
2C6
100
AcDbEntity
  8
0
100
AcDbLine
 62
7
  6
CONTINUOUS
 10
24.4
 20
22.531342478
 11
24.4
 21
24.9096904331
  0
LINE
  5
2C7
100
AcDbEntity
  8
0
100
AcDbLine
 62
7
  6
CONTINUOUS
 10
25.6
 20
24.9096904331
 11
25.6
 21
22.531342478
  0
LINE
  5
2C8
100
AcDbEntity
  8
0
100
AcDbLine
 62
7
  6
CONTINUOUS
 10
25.6
 20
21.6237277448
 11
25.6
 21
19.2453797897
  0
LINE
  5
2C9
100
AcDbEntity
  8
ASSI
100
AcDbLine
 62
7
  6
CONTINUOUS
 10
25.695238
 20
-36.6223248886
 11
25.695238
 21
-39.4224508886
  0
LINE
  5
2CA
100
AcDbEntity
  8
ASSI
100
AcDbLine
 62
7
  6
CONTINUOUS
 10
26.247545
 20
-37.8217398886
 11
26.247538
 21
-37.1403458886
  0
LINE
  5
2CB
100
AcDbEntity
  8
ASSI
100
AcDbLine
 62
7
  6
CONTINUOUS
 10
26.255266
 20
-39.4224508886
 11
26.255329
 21
-38.3397608886
  0
LINE
  5
2CC
100
AcDbEntity
  8
ASSI
100
AcDbLine
 62
7
  6
CONTINUOUS
 10
21.74385
 20
-36.6223318886
 11
21.220957
 21
-38.4458738886
  0
LINE
  5
2CD
100
AcDbEntity
  8
ASSI
100
AcDbLine
 62
7
  6
CONTINUOUS
 10
17.798069
 20
-36.6223318886
 11
17.179052
 21
-38.5503698886
  0
LINE
  5
2CE
100
AcDbEntity
  8
ASSI
100
AcDbLine
 62
7
  6
CONTINUOUS
 10
17.459066
 20
-39.4224578886
 11
18.358097
 21
-36.6223318886
  0
LINE
  5
2CF
100
AcDbEntity
  8
0
100
AcDbLine
 62
7
  6
CONTINUOUS
 10
23.877893713
 20
22.316357484
 11
23.8283951111
 21
22.4226077853
  0
LINE
  5
2D0
100
AcDbEntity
  8
RACCORDO
100
AcDbLine
 62
7
  6
CONTINUOUS
 10
34.0
 20
35.0775922268
 11
34.0
 21
-44.922522004
  0
LINE
  5
2D1
100
AcDbEntity
  8
ASSI
100
AcDbLine
 62
7
  6
CONTINUOUS
 10
21.500957
 20
-39.4224508886
 11
22.030423
 21
-37.5759628886
  0
LINE
  5
2D2
100
AcDbEntity
  8
ASSI
100
AcDbLine
 62
7
  6
CONTINUOUS
 10
23.862813
 20
-36.6223248886
 11
22.963796
 21
-39.4224578886
  0
LINE
  5
2D3
100
AcDbEntity
  8
ASSI
100
AcDbLine
 62
7
  6
CONTINUOUS
 10
23.871437
 20
-38.3397678886
 11
24.142834
 21
-37.4944198886
  0
LINE
  5
2D4
100
AcDbEntity
  8
ASSI
100
AcDbLine
 62
7
  6
CONTINUOUS
 10
23.523817
 20
-39.4224508886
 11
23.700616
 21
-38.8717888886
  0
LINE
  5
2D5
100
AcDbEntity
  8
RACCORDO
100
AcDbLine
 62
253
  6
CONTINUOUS
 10
32.3903974705
 20
32.0258941103
 11
-32.3903974705
 21
32.0258941181
  0
LINE
  5
2D6
100
AcDbEntity
  8
0
100
AcDbLine
 62
7
  6
CONTINUOUS
 10
26.122106287
 20
21.8387127388
 11
26.1716048889
 21
21.7324624375
  0
LINE
  5
2D7
100
AcDbEntity
  8
RACCORDO
100
AcDbLine
 62
253
  6
CONTINUOUS
 10
32.420505358
 20
36.497983354
 11
-32.4205053581
 21
36.4979833541
  0
LINE
  5
2D8
100
AcDbEntity
  8
RACCORDO
100
AcDbLine
 62
7
  6
CONTINUOUS
 10
32.5000571154
 20
36.5775351114
 11
-32.5000571154
 21
36.5775351114
  0
LINE
  5
2D9
100
AcDbEntity
  8
RACCORDO
100
AcDbLine
 62
253
  6
CONTINUOUS
 10
-13.2111846893
 20
38.6864040115
 11
-13.2111279441
 21
38.6864191535
  0
LINE
  5
2DA
100
AcDbEntity
  8
0
100
AcDbLine
 62
7
  6
CONTINUOUS
 10
-11.309221397
 20
39.1940718257
 11
-13.2111831066
 21
38.686404434
  0
LINE
  5
2DB
100
AcDbEntity
  8
0
100
AcDbLine
 62
7
  6
CONTINUOUS
 10
-9.416047771
 20
40.9899577912
 11
-11.5858698508
 21
40.410793705
  0
LINE
  5
2DC
100
AcDbEntity
  8
RACCORDO
100
AcDbLine
 62
253
  6
CONTINUOUS
 10
13.2111039893
 20
38.6864255429
 11
13.2111845752
 21
38.686404042
  0
LINE
  5
2DD
100
AcDbEntity
  8
0
100
AcDbLine
 62
7
  6
CONTINUOUS
 10
11.309221397
 20
39.1940718257
 11
13.2111830683
 21
38.6864044442
  0
LINE
  5
2DE
100
AcDbEntity
  8
0
100
AcDbLine
 62
7
  6
CONTINUOUS
 10
9.416047771
 20
40.9899577912
 11
11.5858698257
 21
40.4107937117
  0
LINE
  5
2DF
100
AcDbEntity
  8
0
100
AcDbLine
 62
7
  6
CONTINUOUS
 10
-7.8217962966
 20
42.786420188
 11
-9.8421572115
 21
42.2471499437
  0
LINE
  5
2E0
100
AcDbEntity
  8
0
100
AcDbLine
 62
7
  6
CONTINUOUS
 10
-5.9784430292
 20
44.5824022255
 11
-8.0984447433
 21
44.0165360805
  0
LINE
  5
2E1
100
AcDbEntity
  8
0
100
AcDbLine
 62
7
  6
CONTINUOUS
 10
-0.9964071715
 20
46.4723059958
 11
-3.8637151046
 21
45.706970536
  0
LINE
  5
2E2
100
AcDbEntity
  8
RACCORDO
100
AcDbLine
 62
253
  6
CONTINUOUS
 10
-3.8637163001
 20
45.7069702169
 11
-3.863682847
 21
45.7069791408
  0
LINE
  5
2E3
100
AcDbEntity
  8
0
100
AcDbLine
 62
7
  6
CONTINUOUS
 10
7.8217962966
 20
42.786420188
 11
9.8421571977
 21
42.2471499473
  0
LINE
  5
2E4
100
AcDbEntity
  8
0
100
AcDbLine
 62
7
  6
CONTINUOUS
 10
5.9784430292
 20
44.5824022255
 11
8.0984447193
 21
44.0165360869
  0
LINE
  5
2E5
100
AcDbEntity
  8
0
100
AcDbLine
 62
7
  6
CONTINUOUS
 10
0.9964071715
 20
46.4723059958
 11
3.8637144327
 21
45.7069707153
  0
LINE
  5
2E6
100
AcDbEntity
  8
RACCORDO
100
AcDbLine
 62
7
  6
CONTINUOUS
 10
-89.1298432694
 20
-46.4224648886
 11
-50.1211167339
 21
-46.0820408894
  0
LINE
  5
2E7
100
AcDbEntity
  8
RACCORDO
100
AcDbLine
 62
253
  6
CONTINUOUS
 10
-89.1298432694
 20
-44.922522004
 11
-50.1211167339
 21
-44.5820917375
  0
LINE
  5
2E8
100
AcDbEntity
  8
RACCORDO
100
AcDbLine
 62
253
  6
CONTINUOUS
 10
-49.1298432694
 20
-44.5820980048
 11
-50.1211167339
 21
-44.5820980048
  0
LINE
  5
2E9
100
AcDbEntity
  8
RACCORDO
100
AcDbLine
 62
7
  6
CONTINUOUS
 10
-89.1298432694
 20
-46.4224648886
 11
-98.2456799372
 21
-46.3429121872
  0
LINE
  5
2EA
100
AcDbEntity
  8
RACCORDO
100
AcDbLine
 62
253
  6
CONTINUOUS
 10
-89.1298432694
 20
-44.922522004
 11
-98.2456799372
 21
-44.8429693026
  0
LINE
  5
2EB
100
AcDbEntity
  8
ASSI
100
AcDbLine
 62
7
  6
CONTINUOUS
 10
-103.5760714726
 20
-39.4224438886
 11
-103.425337712
 21
-39.4224438886
  0
LINE
  5
2EC
100
AcDbEntity
  8
RACCORDO
100
AcDbLine
 62
253
  6
CONTINUOUS
 10
-103.1741081721
 20
-41.870937899
 11
-101.6955797121
 21
-41.712587302
  0
LINE
  5
2ED
100
AcDbEntity
  8
ASSI
100
AcDbLine
 62
7
  6
CONTINUOUS
 10
-103.6880207526
 20
-38.2724185555
 11
-103.5373354254
 21
-38.2724185555
  0
LINE
  5
2EE
100
AcDbEntity
  8
ASSI
100
AcDbLine
 62
7
  6
CONTINUOUS
 10
-103.6913426867
 20
-36.6223248886
 11
-103.8419616916
 21
-36.6223248886
  0
LINE
  5
2EF
100
AcDbEntity
  8
RACCORDO
100
AcDbLine
 62
7
  6
CONTINUOUS
 10
-89.1298432694
 20
-46.4224648886
 11
-89.1298432694
 21
36.5775351114
  0
LINE
  5
2F0
100
AcDbEntity
  8
0
100
AcDbLine
 62
7
  6
CONTINUOUS
 10
-78.7655650669
 20
38.0128740995
 11
-78.7978402413
 21
36.5906326132
  0
LINE
  5
2F1
100
AcDbEntity
  8
0
100
AcDbLine
 62
7
  6
CONTINUOUS
 10
-76.5615754709
 20
40.3675937248
 11
-76.5712566971
 21
39.9409797177
  0
LINE
  5
2F2
100
AcDbEntity
  8
0
100
AcDbLine
 62
7
  6
CONTINUOUS
 10
-76.298483718
 20
36.5339142793
 11
-76.3000346424
 21
36.4655710677
  0
LINE
  5
2F3
100
AcDbEntity
  8
0
100
AcDbLine
 62
7
  6
CONTINUOUS
 10
-76.0713853924
 20
39.9296360509
 11
-76.0827290592
 21
39.4297647463
  0
LINE
  5
2F4
100
AcDbEntity
  8
0
100
AcDbLine
 62
7
  6
CONTINUOUS
 10
-74.7702768463
 20
42.1676096215
 11
-74.7808699303
 21
41.7008135808
  0
LINE
  5
2F5
100
AcDbEntity
  8
0
100
AcDbLine
 62
7
  6
CONTINUOUS
 10
-74.1310372343
 20
41.6860668139
 11
-74.142380901
 21
41.1861955093
  0
LINE
  5
2F6
100
AcDbEntity
  8
0
100
AcDbLine
 62
7
  6
CONTINUOUS
 10
-72.9804979848
 20
43.900655462
 11
-72.9904831636
 21
43.4606474438
  0
LINE
  5
2F7
100
AcDbEntity
  8
0
100
AcDbLine
 62
7
  6
CONTINUOUS
 10
-72.4906118589
 20
43.449303777
 11
-72.5019555257
 21
42.9494324723
  0
LINE
  5
2F8
100
AcDbEntity
  8
0
100
AcDbLine
 62
7
  6
CONTINUOUS
 10
-68.6930452509
 20
45.5028350859
 11
-68.7007398735
 21
45.1637629729
  0
LINE
  5
2F9
100
AcDbEntity
  8
0
100
AcDbLine
 62
7
  6
CONTINUOUS
 10
-68.2008685689
 20
45.1524193061
 11
-68.2122122356
 21
44.6525480014
  0
LINE
  5
2FA
100
AcDbEntity
  8
0
100
AcDbLine
 62
7
  6
CONTINUOUS
 10
-61.0027217817
 20
44.9890705044
 11
-61.0140654485
 21
44.4891991997
  0
LINE
  5
2FB
100
AcDbEntity
  8
0
100
AcDbLine
 62
7
  6
CONTINUOUS
 10
-60.4951558544
 20
45.3167989506
 11
-60.5028504771
 21
44.9777268376
  0
LINE
  5
2FC
100
AcDbEntity
  8
0
100
AcDbLine
 62
7
  6
CONTINUOUS
 10
-56.7946528925
 20
43.0931126399
 11
-56.8059965593
 21
42.5932413352
  0
LINE
  5
2FD
100
AcDbEntity
  8
0
100
AcDbLine
 62
7
  6
CONTINUOUS
 10
-56.2847964091
 20
43.5217769914
 11
-56.2947815879
 21
43.0817689731
  0
LINE
  5
2FE
100
AcDbEntity
  8
0
100
AcDbLine
 62
7
  6
CONTINUOUS
 10
-55.2359019181
 20
41.2572762094
 11
-55.2472455849
 21
40.7574049047
  0
LINE
  5
2FF
100
AcDbEntity
  8
0
100
AcDbLine
 62
7
  6
CONTINUOUS
 10
-54.575476138
 20
41.7093254833
 11
-54.586069222
 21
41.2425294426
  0
LINE
  5
300
100
AcDbEntity
  8
0
100
AcDbLine
 62
7
  6
CONTINUOUS
 10
-53.3772281608
 20
39.4146335788
 11
-53.3885718276
 21
38.9147622742
  0
LINE
  5
301
100
AcDbEntity
  8
0
100
AcDbLine
 62
7
  6
CONTINUOUS
 10
-52.86767563
 20
39.8299039192
 11
-52.8773568561
 21
39.4032899121
  0
LINE
  5
302
100
AcDbEntity
  8
0
100
AcDbLine
 62
7
  6
CONTINUOUS
 10
-50.7727720059
 20
37.3776287594
 11
-50.7985198188
 21
36.2430227194
  0
LINE
  5
303
100
AcDbEntity
  8
RACCORDO
100
AcDbLine
 62
253
  6
CONTINUOUS
 10
-50.1211167339
 20
34.7371608536
 11
-50.1211167339
 21
-44.5820917375
  0
LINE
  5
304
100
AcDbEntity
  8
0
100
AcDbLine
 62
7
  6
CONTINUOUS
 10
-49.1298432694
 20
-44.9224648886
 11
-49.1298432694
 21
-44.5820980048
  0
LINE
  5
305
100
AcDbEntity
  8
RACCORDO
100
AcDbLine
 62
7
  6
CONTINUOUS
 10
-49.1298432694
 20
35.2371491892
 11
-49.1298432694
 21
-45.0820789664
  0
LINE
  5
306
100
AcDbEntity
  8
RACCORDO
100
AcDbLine
 62
253
  6
CONTINUOUS
 10
-103.1741056954
 20
32.0260078588
 11
-101.6955797121
 21
31.8676575248
  0
LINE
  5
307
100
AcDbEntity
  8
RACCORDO
100
AcDbLine
 62
253
  6
CONTINUOUS
 10
-98.2456799372
 20
34.9980395254
 11
-89.1298432694
 21
35.0775922268
  0
LINE
  5
308
100
AcDbEntity
  8
RACCORDO
100
AcDbLine
 62
7
  6
CONTINUOUS
 10
-98.2455717632
 20
36.497983354
 11
-89.1298432694
 21
36.5775351114
  0
LINE
  5
309
100
AcDbEntity
  8
RACCORDO
100
AcDbLine
 62
253
  6
CONTINUOUS
 10
-49.1298432694
 20
34.7371682276
 11
-50.1211167339
 21
34.7371682276
  0
LINE
  5
30A
100
AcDbEntity
  8
RACCORDO
100
AcDbLine
 62
253
  6
CONTINUOUS
 10
-89.1298432694
 20
35.0775922268
 11
-50.1211167339
 21
34.7371608536
  0
LINE
  5
30B
100
AcDbEntity
  8
RACCORDO
100
AcDbLine
 62
7
  6
CONTINUOUS
 10
-89.1298432694
 20
36.5775351114
 11
-50.1211167339
 21
36.2371111122
  0
LINE
  5
30C
100
AcDbEntity
  8
0
100
AcDbLine
 62
7
  6
CONTINUOUS
 10
-71.404079831
 20
36.4228447174
 11
-78.7978402413
 21
36.5906326132
  0
LINE
  5
30D
100
AcDbEntity
  8
0
100
AcDbLine
 62
7
  6
CONTINUOUS
 10
-76.0827290592
 20
39.4297647463
 11
-78.0026606009
 21
38.9617358864
  0
LINE
  5
30E
100
AcDbEntity
  8
0
100
AcDbLine
 62
7
  6
CONTINUOUS
 10
-74.142380901
 20
41.1861955093
 11
-76.3327041264
 21
40.652252262
  0
LINE
  5
30F
100
AcDbEntity
  8
RACCORDO
100
AcDbLine
 62
253
  6
CONTINUOUS
 10
-78.7655650669
 20
38.0128740995
 11
-50.7727720059
 21
37.3776287594
  0
LINE
  5
310
100
AcDbEntity
  8
RACCORDO
100
AcDbLine
 62
253
  6
CONTINUOUS
 10
-78.0026606002
 20
38.9617358866
 11
-51.4918479097
 21
38.3601213858
  0
LINE
  5
311
100
AcDbEntity
  8
0
100
AcDbLine
 62
7
  6
CONTINUOUS
 10
-53.3885718276
 20
38.9147622742
 11
-76.0827290592
 21
39.4297647463
  0
LINE
  5
312
100
AcDbEntity
  8
0
100
AcDbLine
 62
7
  6
CONTINUOUS
 10
-52.8773568561
 20
39.4032899121
 11
-76.5712566971
 21
39.9409797177
  0
LINE
  5
313
100
AcDbEntity
  8
0
100
AcDbLine
 62
7
  6
CONTINUOUS
 10
-72.5019555257
 20
42.9494324723
 11
-74.5414055096
 21
42.4522681569
  0
LINE
  5
314
100
AcDbEntity
  8
0
100
AcDbLine
 62
7
  6
CONTINUOUS
 10
-70.611594498
 20
44.706997602
 11
-72.7516266463
 21
44.1853139979
  0
LINE
  5
315
100
AcDbEntity
  8
0
100
AcDbLine
 62
7
  6
CONTINUOUS
 10
-65.5697755176
 20
46.4930718919
 11
-68.4641738551
 21
45.7874936333
  0
LINE
  5
316
100
AcDbEntity
  8
RACCORDO
100
AcDbLine
 62
253
  6
CONTINUOUS
 10
-76.5615754709
 20
40.3675937248
 11
-52.86767563
 21
39.8299039192
  0
LINE
  5
317
100
AcDbEntity
  8
RACCORDO
100
AcDbLine
 62
253
  6
CONTINUOUS
 10
-76.3327041258
 20
40.6522522622
 11
-53.0833984062
 21
40.1246517085
  0
LINE
  5
318
100
AcDbEntity
  8
0
100
AcDbLine
 62
7
  6
CONTINUOUS
 10
-55.2472455849
 20
40.7574049047
 11
-74.142380901
 21
41.1861955093
  0
LINE
  5
319
100
AcDbEntity
  8
0
100
AcDbLine
 62
7
  6
CONTINUOUS
 10
-54.586069222
 20
41.2425294426
 11
-74.7808699303
 21
41.7008135808
  0
LINE
  5
31A
100
AcDbEntity
  8
RACCORDO
100
AcDbLine
 62
253
  6
CONTINUOUS
 10
-74.7702768463
 20
42.1676096214
 11
-54.575476138
 21
41.7093254832
  0
LINE
  5
31B
100
AcDbEntity
  8
RACCORDO
100
AcDbLine
 62
253
  6
CONTINUOUS
 10
-74.5414055148
 20
42.4522681556
 11
-54.7911989007
 21
42.0040732688
  0
LINE
  5
31C
100
AcDbEntity
  8
0
100
AcDbLine
 62
7
  6
CONTINUOUS
 10
-56.8059965593
 20
42.5932413352
 11
-72.5019555257
 21
42.9494324723
  0
LINE
  5
31D
100
AcDbEntity
  8
0
100
AcDbLine
 62
7
  6
CONTINUOUS
 10
-56.2948495863
 20
43.0817705162
 11
-72.9904151651
 21
43.4606459007
  0
LINE
  5
31E
100
AcDbEntity
  8
RACCORDO
100
AcDbLine
 62
253
  6
CONTINUOUS
 10
-72.9804979848
 20
43.9006554619
 11
-56.2847964091
 21
43.5217769913
  0
LINE
  5
31F
100
AcDbEntity
  8
RACCORDO
100
AcDbLine
 62
253
  6
CONTINUOUS
 10
-72.7516266523
 20
44.1853139964
 11
-56.5005191729
 21
43.8165247772
  0
LINE
  5
320
100
AcDbEntity
  8
0
100
AcDbLine
 62
7
  6
CONTINUOUS
 10
-58.6147534712
 20
44.4347511941
 11
-70.611524213
 21
44.706996007
  0
LINE
  5
321
100
AcDbEntity
  8
0
100
AcDbLine
 62
7
  6
CONTINUOUS
 10
-60.5029221209
 20
44.9777284634
 11
-68.7006682297
 21
45.1637613471
  0
LINE
  5
322
100
AcDbEntity
  8
RACCORDO
100
AcDbLine
 62
253
  6
CONTINUOUS
 10
-68.6930452509
 20
45.5028350859
 11
-60.4951558544
 21
45.3167989506
  0
LINE
  5
323
100
AcDbEntity
  8
RACCORDO
100
AcDbLine
 62
253
  6
CONTINUOUS
 10
-68.4641738551
 20
45.7874936333
 11
-60.7108786807
 21
45.6115467523
  0
LINE
  5
324
100
AcDbEntity
  8
0
100
AcDbLine
 62
7
  6
CONTINUOUS
 10
-63.5703698255
 20
46.4476990294
 11
-65.5696959911
 21
46.4930700871
  0
LINE
  5
325
100
AcDbEntity
  8
0
100
AcDbLine
 62
7
  6
CONTINUOUS
 10
-53.3885718276
 20
38.9147622742
 11
-51.491847909
 21
38.3601213857
  0
LINE
  5
326
100
AcDbEntity
  8
0
100
AcDbLine
 62
7
  6
CONTINUOUS
 10
-55.2472455849
 20
40.7574049047
 11
-53.0833984056
 21
40.1246517084
  0
LINE
  5
327
100
AcDbEntity
  8
0
100
AcDbLine
 62
7
  6
CONTINUOUS
 10
-56.8059965593
 20
42.5932413352
 11
-54.7911989058
 21
42.0040732703
  0
LINE
  5
328
100
AcDbEntity
  8
0
100
AcDbLine
 62
7
  6
CONTINUOUS
 10
-58.6146831862
 20
44.4347495991
 11
-56.5005191788
 21
43.8165247789
  0
LINE
  5
329
100
AcDbEntity
  8
0
100
AcDbLine
 62
7
  6
CONTINUOUS
 10
-63.570290299
 20
46.4476972247
 11
-60.7108786807
 21
45.6115467523
  0
ARC
  5
32A
100
AcDbEntity
  8
0
100
AcDbCircle
 62
7
  6
CONTINUOUS
 10
-38.0773750891
 20
-98.5738033903
 40
68.4863730367
100
AcDbArc
 50
77.563207778
 51
77.9759958578
  0
ARC
  5
32B
100
AcDbEntity
  8
0
100
AcDbCircle
 62
7
  6
CONTINUOUS
 10
-39.1604077293
 20
-38.5734669639
 40
16.3387675929
100
AcDbArc
 50
26.0349730838
 51
26.1979446202
  0
ARC
  5
32C
100
AcDbEntity
  8
0
100
AcDbCircle
 62
7
  6
CONTINUOUS
 10
-31.650643478
 20
-46.0821437104
 40
16.337955255
100
AcDbArc
 50
63.8020552904
 51
63.9650349025
  0
ARC
  5
32D
100
AcDbEntity
  8
0
100
AcDbCircle
 62
7
  6
CONTINUOUS
 10
-39.1259263173
 20
-25.2882950749
 40
16.3003971265
100
AcDbArc
 50
333.8016338065
 51
333.9649905686
  0
ARC
  5
32E
100
AcDbEntity
  8
0
100
AcDbCircle
 62
7
  6
CONTINUOUS
 10
-37.4355712915
 20
-26.051862006
 40
14.5897650615
100
AcDbArc
 50
333.3130487244
 51
333.5527387092
  0
ARC
  5
32F
100
AcDbEntity
  8
0
100
AcDbCircle
 62
7
  6
CONTINUOUS
 10
-37.3953036783
 20
-37.7728874625
 40
14.5447241039
100
AcDbArc
 50
26.4467334955
 51
26.6871679444
  0
ARC
  5
330
100
AcDbEntity
  8
RACCORDO
100
AcDbCircle
 62
253
  6
CONTINUOUS
 10
-25.0003234654
 20
-31.9176716847
 40
3.2969539194
100
AcDbArc
 50
89.9943787745
 51
270.0056212255
  0
ARC
  5
331
100
AcDbEntity
  8
RACCORDO
100
AcDbCircle
 62
253
  6
CONTINUOUS
 10
-24.9996765324
 20
-31.9176716588
 40
3.2969539183
100
AcDbArc
 50
269.994378736
 51
90.0056212641
  0
CIRCLE
  5
332
100
AcDbEntity
  8
DRAFT
100
AcDbCircle
 62
7
  6
CONTINUOUS
 10
-25.0
 20
-31.9224648886
 40
3.25
  0
CIRCLE
  5
333
100
AcDbEntity
  8
0
100
AcDbCircle
 62
7
  6
CONTINUOUS
 10
-25.0
 20
-31.9224648886
 40
3.0
  0
ARC
  5
334
100
AcDbEntity
  8
0
100
AcDbCircle
 62
7
  6
CONTINUOUS
 10
-25.0
 20
-31.9224648886
 40
2.8950136038
100
AcDbArc
 50
78.0385857315
 51
101.9614142685
  0
ARC
  5
335
100
AcDbEntity
  8
0
100
AcDbCircle
 62
7
  6
CONTINUOUS
 10
-25.0
 20
-31.9224648886
 40
2.8950136038
100
AcDbArc
 50
258.0385857315
 51
281.9614142685
  0
ARC
  5
336
100
AcDbEntity
  8
0
100
AcDbCircle
 62
7
  6
CONTINUOUS
 10
-25.0
 20
-31.9224648886
 40
2.8155023425
100
AcDbArc
 50
282.3044249574
 51
77.6955750426
  0
ARC
  5
337
100
AcDbEntity
  8
0
100
AcDbCircle
 62
7
  6
CONTINUOUS
 10
-25.0
 20
-31.9224648886
 40
2.8155023425
100
AcDbArc
 50
102.3044249574
 51
257.6955750426
  0
ARC
  5
338
100
AcDbEntity
  8
0
100
AcDbCircle
 62
7
  6
CONTINUOUS
 10
-25.0
 20
-31.9224648886
 40
1.6874840352
100
AcDbArc
 50
352.230101045
 51
7.7632444202
  0
ARC
  5
339
100
AcDbEntity
  8
0
100
AcDbCircle
 62
7
  6
CONTINUOUS
 10
-25.0
 20
-31.9224648886
 40
1.6874840352
100
AcDbArc
 50
172.2301010241
 51
187.7632444202
  0
ARC
  5
33A
100
AcDbEntity
  8
RACCORDO
100
AcDbCircle
 62
253
  6
CONTINUOUS
 10
-32.4203670335
 20
-44.8428319221
 40
1.5000802714
100
AcDbArc
 50
180.0052472679
 51
269.9947527321
  0
ARC
  5
33B
100
AcDbEntity
  8
TRASH
100
AcDbCircle
 62
7
  6
CONTINUOUS
 10
-25.0
 20
-31.9224648886
 40
1.1472328625
100
AcDbArc
 50
167.9845776281
 51
192.0153200785
  0
ARC
  5
33C
100
AcDbEntity
  8
TRASH
100
AcDbCircle
 62
7
  6
CONTINUOUS
 10
-25.0
 20
-31.9224648886
 40
1.1472328625
100
AcDbArc
 50
347.9845776281
 51
12.0153200785
  0
ARC
  5
33D
100
AcDbEntity
  8
0
100
AcDbCircle
 62
7
  6
CONTINUOUS
 10
-25.0
 20
-31.9224648886
 40
0.7522905861
100
AcDbArc
 50
318.3509867785
 51
322.8981211086
  0
ARC
  5
33E
100
AcDbEntity
  8
0
100
AcDbCircle
 62
7
  6
CONTINUOUS
 10
-25.0
 20
-31.9224648886
 40
0.7522905861
100
AcDbArc
 50
228.3509342563
 51
311.6490283615
  0
ARC
  5
33F
100
AcDbEntity
  8
0
100
AcDbCircle
 62
7
  6
CONTINUOUS
 10
-25.0
 20
-31.9224648886
 40
0.7522905861
100
AcDbArc
 50
217.1018788914
 51
221.6490663885
  0
ARC
  5
340
100
AcDbEntity
  8
0
100
AcDbCircle
 62
7
  6
CONTINUOUS
 10
-25.0
 20
-31.9224648886
 40
0.7522905861
100
AcDbArc
 50
138.3509867785
 51
142.8981211086
  0
ARC
  5
341
100
AcDbEntity
  8
0
100
AcDbCircle
 62
7
  6
CONTINUOUS
 10
-25.0
 20
-31.9224648886
 40
0.7522905861
100
AcDbArc
 50
48.3509342563
 51
131.6490283615
  0
ARC
  5
342
100
AcDbEntity
  8
0
100
AcDbCircle
 62
7
  6
CONTINUOUS
 10
-25.0
 20
-31.9224648886
 40
0.7522905861
100
AcDbArc
 50
37.1018788914
 51
41.6490663885
  0
ARC
  5
343
100
AcDbEntity
  8
0
100
AcDbCircle
 62
7
  6
CONTINUOUS
 10
-36.4027652134
 20
27.1761314376
 40
60.7503985824
100
AcDbArc
 50
281.9634542226
 51
282.428488463
  0
ARC
  5
344
100
AcDbEntity
  8
0
100
AcDbCircle
 62
7
  6
CONTINUOUS
 10
-31.6325359484
 20
-17.7999309496
 40
16.2966318497
100
AcDbArc
 50
296.0350829577
 51
296.1984781097
  0
ARC
  5
345
100
AcDbEntity
  8
RACCORDO
100
AcDbCircle
 62
253
  6
CONTINUOUS
 10
-32.4203670333
 20
34.9979021448
 40
1.5000802715
100
AcDbArc
 50
90.0052472736
 51
179.9947527264
  0
ARC
  5
346
100
AcDbEntity
  8
0
100
AcDbCircle
 62
7
  6
CONTINUOUS
 10
-13.5972344246
 20
-91.0210627308
 40
60.7504001412
100
AcDbArc
 50
101.9634542591
 51
102.4284884885
  0
ARC
  5
347
100
AcDbEntity
  8
0
100
AcDbCircle
 62
7
  6
CONTINUOUS
 10
-10.8395922707
 20
-25.2714628133
 40
16.3387675929
100
AcDbArc
 50
206.0349730838
 51
206.1979446202
  0
ARC
  5
348
100
AcDbEntity
  8
0
100
AcDbCircle
 62
7
  6
CONTINUOUS
 10
-10.8740736856
 20
-38.5566347009
 40
16.3003971232
100
AcDbArc
 50
153.8016338065
 51
153.9649905687
  0
ARC
  5
349
100
AcDbEntity
  8
0
100
AcDbCircle
 62
7
  6
CONTINUOUS
 10
-18.3674803525
 20
-46.0449655779
 40
16.2965948192
100
AcDbArc
 50
116.0350827721
 51
116.1984782953
  0
ARC
  5
34A
100
AcDbEntity
  8
0
100
AcDbCircle
 62
7
  6
CONTINUOUS
 10
-12.5644287076
 20
-37.7930677716
 40
14.5897650626
100
AcDbArc
 50
153.3130487244
 51
153.5527387092
  0
ARC
  5
34B
100
AcDbEntity
  8
0
100
AcDbCircle
 62
7
  6
CONTINUOUS
 10
-12.6046963227
 20
-26.0720423151
 40
14.5447241028
100
AcDbArc
 50
206.4467334955
 51
206.6871679444
  0
ARC
  5
34C
100
AcDbEntity
  8
0
100
AcDbCircle
 62
7
  6
CONTINUOUS
 10
-11.9901610462
 20
34.4173028709
 40
68.1675678912
100
AcDbArc
 50
257.5622417814
 51
257.9769603856
  0
ARC
  5
34D
100
AcDbEntity
  8
0
100
AcDbCircle
 62
7
  6
CONTINUOUS
 10
-18.3487827879
 20
-17.7616157807
 40
16.339258611
100
AcDbArc
 50
243.8020617907
 51
243.9650284022
  0
ARC
  5
34E
100
AcDbEntity
  8
0
100
AcDbCircle
 62
7
  6
CONTINUOUS
 10
-9.0949247457
 20
50.0534794671
 40
8.6721622183
100
AcDbArc
 50
267.3830511231
 51
267.6216910312
  0
ARC
  5
34F
100
AcDbEntity
  8
0
100
AcDbCircle
 62
7
  6
CONTINUOUS
 10
-11.1127690991
 20
42.7376105084
 40
3.1552894563
100
AcDbArc
 50
265.0967025247
 51
265.5811815628
  0
ARC
  5
350
100
AcDbEntity
  8
RACCORDO
100
AcDbCircle
 62
7
  6
CONTINUOUS
 10
-6.75
 20
11.3275351114
 40
1.9
100
AcDbArc
 50
89.9983204328
 51
180.0025678718
  0
ARC
  5
351
100
AcDbEntity
  8
RACCORDO
100
AcDbCircle
 62
7
  6
CONTINUOUS
 10
-6.75
 20
-21.1724648886
 40
1.9
100
AcDbArc
 50
179.9980073749
 51
270.0022703962
  0
ARC
  5
352
100
AcDbEntity
  8
0
100
AcDbCircle
 62
7
  6
CONTINUOUS
 10
0.0
 20
-567.8450420316
 40
604.4357032644
100
AcDbArc
 50
89.6235458773
 51
90.3764541227
  0
ARC
  5
353
100
AcDbEntity
  8
0
100
AcDbCircle
 62
7
  6
CONTINUOUS
 10
11.922624911
 20
-44.5738033894
 40
68.4863730359
100
AcDbArc
 50
77.563207778
 51
77.9759958578
  0
ARC
  5
354
100
AcDbEntity
  8
0
100
AcDbCircle
 62
7
  6
CONTINUOUS
 10
10.8395922686
 20
15.4265330351
 40
16.3387675952
100
AcDbArc
 50
26.0349730838
 51
26.1979446202
  0
ARC
  5
355
100
AcDbEntity
  8
0
100
AcDbCircle
 62
7
  6
CONTINUOUS
 10
18.3493565216
 20
7.9178562888
 40
16.3379552559
100
AcDbArc
 50
63.8020552904
 51
63.9650349025
  0
ARC
  5
356
100
AcDbEntity
  8
0
100
AcDbCircle
 62
7
  6
CONTINUOUS
 10
12.6046963219
 20
16.2271125376
 40
14.5447241037
100
AcDbArc
 50
26.4467334955
 51
26.6871679444
  0
ARC
  5
357
100
AcDbEntity
  8
ASSI
100
AcDbCircle
 62
7
  6
CONTINUOUS
 10
0.0
 20
-4.9224648886
 40
12.5
100
AcDbArc
 50
226.2094543663
 51
313.7905456337
  0
ARC
  5
358
100
AcDbEntity
  8
ASSI
100
AcDbCircle
 62
7
  6
CONTINUOUS
 10
0.0
 20
-4.9224648886
 40
12.5
100
AcDbArc
 50
46.2094543663
 51
133.7905456337
  0
CIRCLE
  5
359
100
AcDbEntity
  8
0
100
AcDbCircle
 62
7
  6
CONTINUOUS
 10
0.0
 20
-4.9224648886
 40
6.2449979984
  0
ARC
  5
35A
100
AcDbEntity
  8
RACCORDO
100
AcDbCircle
 62
7
  6
CONTINUOUS
 10
6.75
 20
11.3275351114
 40
1.9
100
AcDbArc
 50
359.9980073749
 51
90.0022703962
  0
ARC
  5
35B
100
AcDbEntity
  8
RACCORDO
100
AcDbCircle
 62
7
  6
CONTINUOUS
 10
6.75
 20
-21.1724648886
 40
1.9
100
AcDbArc
 50
269.9983204328
 51
0.0025678718
  0
ARC
  5
35C
100
AcDbEntity
  8
0
100
AcDbCircle
 62
7
  6
CONTINUOUS
 10
13.5972347867
 20
81.176131437
 40
60.7503985818
100
AcDbArc
 50
281.9634542226
 51
282.428488463
  0
ARC
  5
35D
100
AcDbEntity
  8
0
100
AcDbCircle
 62
7
  6
CONTINUOUS
 10
10.8740736823
 20
28.7117049253
 40
16.3003971269
100
AcDbArc
 50
333.8016338066
 51
333.9649905686
  0
ARC
  5
35E
100
AcDbEntity
  8
0
100
AcDbCircle
 62
7
  6
CONTINUOUS
 10
18.3674640508
 20
36.200069052
 40
16.2966318515
100
AcDbArc
 50
296.0350829578
 51
296.1984781096
  0
ARC
  5
35F
100
AcDbEntity
  8
0
100
AcDbCircle
 62
7
  6
CONTINUOUS
 10
12.5644287083
 20
27.9481379941
 40
14.5897650617
100
AcDbArc
 50
333.3130487244
 51
333.5527387092
  0
ARC
  5
360
100
AcDbEntity
  8
0
100
AcDbCircle
 62
7
  6
CONTINUOUS
 10
9.0949247457
 20
50.053479467
 40
8.6721622182
100
AcDbArc
 50
272.3783089688
 51
272.6169488769
  0
ARC
  5
361
100
AcDbEntity
  8
0
100
AcDbCircle
 62
7
  6
CONTINUOUS
 10
11.1127690991
 20
42.7376105075
 40
3.1552894554
100
AcDbArc
 50
274.4188184372
 51
274.9032974754
  0
ARC
  5
362
100
AcDbEntity
  8
0
100
AcDbCircle
 62
7
  6
CONTINUOUS
 10
36.4027655755
 20
-37.0210627312
 40
60.7504001416
100
AcDbArc
 50
101.9634542591
 51
102.4284884885
  0
ARC
  5
363
100
AcDbEntity
  8
0
100
AcDbCircle
 62
7
  6
CONTINUOUS
 10
39.1259263144
 20
15.4433652991
 40
16.3003971232
100
AcDbArc
 50
153.8016338065
 51
153.9649905686
  0
ARC
  5
364
100
AcDbEntity
  8
0
100
AcDbCircle
 62
7
  6
CONTINUOUS
 10
31.6325196491
 20
7.9550344188
 40
16.2965948229
100
AcDbArc
 50
116.0350827721
 51
116.1984782953
  0
ARC
  5
365
100
AcDbEntity
  8
0
100
AcDbCircle
 62
7
  6
CONTINUOUS
 10
37.4355712932
 20
16.206932228
 40
14.5897650634
100
AcDbArc
 50
153.3130487244
 51
153.5527387092
  0
ARC
  5
366
100
AcDbEntity
  8
RACCORDO
100
AcDbCircle
 62
253
  6
CONTINUOUS
 10
32.4203670333
 20
-44.8428319219
 40
1.5000802715
100
AcDbArc
 50
270.0052472738
 51
359.9947527262
  0
ARC
  5
367
100
AcDbEntity
  8
ASSI
100
AcDbCircle
 62
7
  6
CONTINUOUS
 10
27.006618
 20
-37.4810438886
 40
0.8587214994
100
AcDbArc
 50
292.8428415932
 51
90.0
  0
ARC
  5
368
100
AcDbEntity
  8
ASSI
100
AcDbCircle
 62
7
  6
CONTINUOUS
 10
26.928888
 20
-37.4810438886
 40
0.340698
100
AcDbArc
 50
270.0
 51
90.0
  0
ARC
  5
369
100
AcDbEntity
  8
0
100
AcDbCircle
 62
7
  6
CONTINUOUS
 10
38.0098389539
 20
88.417302871
 40
68.1675678913
100
AcDbArc
 50
257.5622417814
 51
257.9769603856
  0
ARC
  5
36A
100
AcDbEntity
  8
0
100
AcDbCircle
 62
7
  6
CONTINUOUS
 10
31.6512172133
 20
36.2383842218
 40
16.3392586138
100
AcDbArc
 50
243.8020617908
 51
243.9650284022
  0
ARC
  5
36B
100
AcDbEntity
  8
0
100
AcDbCircle
 62
7
  6
CONTINUOUS
 10
39.1604077314
 20
28.7285371878
 40
16.3387675952
100
AcDbArc
 50
206.0349730838
 51
206.1979446202
  0
ARC
  5
36C
100
AcDbEntity
  8
0
100
AcDbCircle
 62
7
  6
CONTINUOUS
 10
37.3953036773
 20
27.9279576849
 40
14.5447241028
100
AcDbArc
 50
206.4467334955
 51
206.6871679444
  0
ARC
  5
36D
100
AcDbEntity
  8
RACCORDO
100
AcDbCircle
 62
253
  6
CONTINUOUS
 10
25.0003234652
 20
22.0727419075
 40
3.2969539213
100
AcDbArc
 50
269.9943787781
 51
90.005621222
  0
ARC
  5
36E
100
AcDbEntity
  8
RACCORDO
100
AcDbCircle
 62
253
  6
CONTINUOUS
 10
24.9996765322
 20
22.0727418816
 40
3.2969539164
100
AcDbArc
 50
89.9943787324
 51
270.0056212676
  0
CIRCLE
  5
36F
100
AcDbEntity
  8
DRAFT
100
AcDbCircle
 62
7
  6
CONTINUOUS
 10
25.0
 20
22.0775351114
 40
3.25
  0
CIRCLE
  5
370
100
AcDbEntity
  8
0
100
AcDbCircle
 62
7
  6
CONTINUOUS
 10
25.0
 20
22.0775351114
 40
3.0
  0
ARC
  5
371
100
AcDbEntity
  8
0
100
AcDbCircle
 62
7
  6
CONTINUOUS
 10
25.0
 20
22.0775351114
 40
2.8950136038
100
AcDbArc
 50
78.0385857315
 51
101.9614142685
  0
ARC
  5
372
100
AcDbEntity
  8
0
100
AcDbCircle
 62
7
  6
CONTINUOUS
 10
25.0
 20
22.0775351114
 40
2.8950136038
100
AcDbArc
 50
258.0385857315
 51
281.9614142685
  0
ARC
  5
373
100
AcDbEntity
  8
0
100
AcDbCircle
 62
7
  6
CONTINUOUS
 10
25.0
 20
22.0775351114
 40
2.8155023425
100
AcDbArc
 50
282.3044249574
 51
77.6955750426
  0
ARC
  5
374
100
AcDbEntity
  8
0
100
AcDbCircle
 62
7
  6
CONTINUOUS
 10
25.0
 20
22.0775351114
 40
2.8155023425
100
AcDbArc
 50
102.3044249574
 51
257.6955750426
  0
ARC
  5
375
100
AcDbEntity
  8
0
100
AcDbCircle
 62
7
  6
CONTINUOUS
 10
25.0
 20
22.0775351114
 40
1.6874840352
100
AcDbArc
 50
352.230101045
 51
7.7632444202
  0
ARC
  5
376
100
AcDbEntity
  8
0
100
AcDbCircle
 62
7
  6
CONTINUOUS
 10
25.0
 20
22.0775351114
 40
1.6874840352
100
AcDbArc
 50
172.2301010241
 51
187.7632444202
  0
ARC
  5
377
100
AcDbEntity
  8
RACCORDO
100
AcDbCircle
 62
253
  6
CONTINUOUS
 10
32.4203670335
 20
34.9979021449
 40
1.5000802714
100
AcDbArc
 50
0.0052472679
 51
89.9947527321
  0
ARC
  5
378
100
AcDbEntity
  8
TRASH
100
AcDbCircle
 62
7
  6
CONTINUOUS
 10
25.0
 20
22.0775351114
 40
1.1472328625
100
AcDbArc
 50
167.9845776281
 51
192.0153200785
  0
ARC
  5
379
100
AcDbEntity
  8
TRASH
100
AcDbCircle
 62
7
  6
CONTINUOUS
 10
25.0
 20
22.0775351114
 40
1.1472328625
100
AcDbArc
 50
347.9845776281
 51
12.0153200785
  0
ARC
  5
37A
100
AcDbEntity
  8
0
100
AcDbCircle
 62
7
  6
CONTINUOUS
 10
25.0
 20
22.0775351114
 40
0.7522905861
100
AcDbArc
 50
318.3509867785
 51
322.8981211086
  0
ARC
  5
37B
100
AcDbEntity
  8
0
100
AcDbCircle
 62
7
  6
CONTINUOUS
 10
25.0
 20
22.0775351114
 40
0.7522905861
100
AcDbArc
 50
228.3509342563
 51
311.6490283615
  0
ARC
  5
37C
100
AcDbEntity
  8
0
100
AcDbCircle
 62
7
  6
CONTINUOUS
 10
25.0
 20
22.0775351114
 40
0.7522905861
100
AcDbArc
 50
217.1018788914
 51
221.6490663885
  0
ARC
  5
37D
100
AcDbEntity
  8
0
100
AcDbCircle
 62
7
  6
CONTINUOUS
 10
25.0
 20
22.0775351114
 40
0.7522905861
100
AcDbArc
 50
138.3509867785
 51
142.8981211086
  0
ARC
  5
37E
100
AcDbEntity
  8
0
100
AcDbCircle
 62
7
  6
CONTINUOUS
 10
25.0
 20
22.0775351114
 40
0.7522905861
100
AcDbArc
 50
48.3509342563
 51
131.6490283615
  0
ARC
  5
37F
100
AcDbEntity
  8
0
100
AcDbCircle
 62
7
  6
CONTINUOUS
 10
25.0
 20
22.0775351114
 40
0.7522905861
100
AcDbArc
 50
37.1018788914
 51
41.6490663885
  0
ARC
  5
380
100
AcDbEntity
  8
RACCORDO
100
AcDbCircle
 62
7
  6
CONTINUOUS
 10
-98.2020472597
 20
-41.3431025719
 40
5.0
100
AcDbArc
 50
186.0585734986
 51
269.5012875131
  0
ARC
  5
381
100
AcDbEntity
  8
RACCORDO
100
AcDbCircle
 62
253
  6
CONTINUOUS
 10
-98.2151370592
 20
-41.3431025677
 40
3.5000000042
100
AcDbArc
 50
186.0598386792
 51
269.4999999388
  0
ARC
  5
382
100
AcDbEntity
  8
RACCORDO
100
AcDbCircle
 62
7
  6
CONTINUOUS
 10
-50.1298432694
 20
-45.0820789664
 40
1.0
100
AcDbArc
 50
270.5
 51
360.0
  0
ARC
  5
383
100
AcDbEntity
  8
RACCORDO
100
AcDbCircle
 62
7
  6
CONTINUOUS
 10
-98.2020472597
 20
31.4981727947
 40
5.0
100
AcDbArc
 50
90.4987603704
 51
173.9414752159
  0
ARC
  5
384
100
AcDbEntity
  8
RACCORDO
100
AcDbCircle
 62
253
  6
CONTINUOUS
 10
-98.2151370592
 20
31.4981727905
 40
3.5000000042
100
AcDbArc
 50
90.5000000609
 51
173.9401613211
  0
ARC
  5
385
100
AcDbEntity
  8
RACCORDO
100
AcDbCircle
 62
7
  6
CONTINUOUS
 10
-77.7658224576
 20
37.9901867658
 40
1.0
100
AcDbArc
 50
103.6999998361
 51
178.7
  0
ARC
  5
386
100
AcDbEntity
  8
RACCORDO
100
AcDbCircle
 62
7
  6
CONTINUOUS
 10
-51.7725146152
 20
37.4003160929
 40
1.0
100
AcDbArc
 50
358.7
 51
73.7000001639
  0
ARC
  5
387
100
AcDbEntity
  8
RACCORDO
100
AcDbCircle
 62
7
  6
CONTINUOUS
 10
-50.1298432694
 20
35.2371491469
 40
1.0
100
AcDbArc
 50
0.0000024223
 51
89.5000000211
  0
ARC
  5
388
100
AcDbEntity
  8
RACCORDO
100
AcDbCircle
 62
7
  6
CONTINUOUS
 10
-68.3931224681
 20
45.4960288834
 40
0.3
100
AcDbArc
 50
103.6999888319
 51
178.7
  0
ARC
  5
389
100
AcDbEntity
  8
RACCORDO
100
AcDbCircle
 62
7
  6
CONTINUOUS
 10
-60.7950786373
 20
45.3236051483
 40
0.3
100
AcDbArc
 50
358.7
 51
73.7000111681
  0
ARC
  5
38A
100
AcDbEntity
  8
RACCORDO
100
AcDbCircle
 62
7
  6
CONTINUOUS
 10
-72.680575202
 20
43.893849262
 40
0.3
100
AcDbArc
 50
103.7000000949
 51
178.7
  0
ARC
  5
38B
100
AcDbEntity
  8
RACCORDO
100
AcDbCircle
 62
7
  6
CONTINUOUS
 10
-56.5847191919
 20
43.5285831915
 40
0.3
100
AcDbArc
 50
358.7
 51
73.6999999051
  0
ARC
  5
38C
100
AcDbEntity
  8
RACCORDO
100
AcDbCircle
 62
7
  6
CONTINUOUS
 10
-74.4703540635
 20
42.1608034214
 40
0.3
100
AcDbArc
 50
103.7000004607
 51
178.7
  0
ARC
  5
38D
100
AcDbEntity
  8
RACCORDO
100
AcDbCircle
 62
7
  6
CONTINUOUS
 10
-54.8753989208
 20
41.7161316834
 40
0.3
100
AcDbArc
 50
358.7
 51
73.6999995393
  0
ARC
  5
38E
100
AcDbEntity
  8
RACCORDO
100
AcDbCircle
 62
7
  6
CONTINUOUS
 10
-76.2616526881
 20
40.3607875247
 40
0.3
100
AcDbArc
 50
103.6999989109
 51
178.7
  0
ARC
  5
38F
100
AcDbEntity
  8
RACCORDO
100
AcDbCircle
 62
7
  6
CONTINUOUS
 10
-53.1675984128
 20
39.8367101192
 40
0.3
100
AcDbArc
 50
358.7
 51
73.7000010891
  0
ARC
  5
390
100
AcDbEntity
  8
ASSI
100
AcDbCircle
 62
7
  6
CONTINUOUS
 10
244.8701567306
 20
-4.9224648886
 40
350.15
100
AcDbArc
 50
185.194226157
 51
185.6544782134
  0
ARC
  5
391
100
AcDbEntity
  8
RACCORDO
100
AcDbCircle
 62
7
  6
CONTINUOUS
 10
244.8701567306
 20
-4.9224648886
 40
350.0
100
AcDbArc
 50
173.9401801511
 51
186.0598205449
  0
ARC
  5
392
100
AcDbEntity
  8
RACCORDO
100
AcDbCircle
 62
253
  6
CONTINUOUS
 10
244.8570668298
 20
-4.9224648886
 40
348.499999903
100
AcDbArc
 50
173.9401613803
 51
186.0598386197
  0
LINE
  5
393
100
AcDbEntity
  8
0
100
AcDbLine
 62
7
  6
CONTINUOUS
 10
24.4
 20
22.6775349696
 11
24.3727025934
 21
22.7048323455
  0
LINE
  5
394
100
AcDbEntity
  8
0
100
AcDbLine
 62
7
  6
CONTINUOUS
 10
24.4802765158
 20
22.5972585956
 11
24.4795953518
 21
22.5979397595
  0
LINE
  5
395
100
AcDbEntity
  8
0
100
AcDbLine
 62
7
  6
CONTINUOUS
 10
25.6272975093
 20
22.7048326277
 11
25.6
 21
22.6775351178
  0
LINE
  5
396
100
AcDbEntity
  8
0
100
AcDbLine
 62
7
  6
CONTINUOUS
 10
25.5204046482
 20
22.5979397596
 11
25.5197234842
 21
22.5972585956
  0
LINE
  5
397
100
AcDbEntity
  8
0
100
AcDbLine
 62
7
  6
CONTINUOUS
 10
25.519717435
 20
21.5578083292
 11
25.4999466442
 21
21.5154012492
  0
SPLINE
  5
398
100
AcDbEntity
  8
0
100
AcDbSpline
 62
7
  6
CONTINUOUS
 70
0
 71
3
 72
9
 73
5
 74
3
 42
0.0000001
 43
0.0000001
 44
0.0000000001
 12
-0.0452995647
 22
-0.1041126532
 32
0.0
 13
-0.0452995647
 23
-0.1041126532
 33
0.0
 40
0.0
 40
0.0
 40
0.0
 40
0.0
 40
0.4996939835
 40
1.0
 40
1.0
 40
1.0
 40
1.0
 10
26.1898066956
 20
22.4100065243
 30
0.0
 10
26.182261389
 20
22.3926650355
 30
0.0
 10
26.1669167609
 20
22.3580659548
 30
0.0
 10
26.1525518251
 20
22.3230460684
 30
0.0
 10
26.1449972769
 20
22.3056833395
 30
0.0
 11
26.1898066956
 21
22.4100065243
 31
0.0
 11
26.1671707757
 21
22.3579820579
 31
0.0
 11
26.1449972769
 21
22.3056833395
 31
0.0
  0
SPLINE
  5
399
100
AcDbEntity
  8
0
100
AcDbSpline
 62
7
  6
CONTINUOUS
 70
0
 71
3
 72
9
 73
5
 74
3
 42
0.0000001
 43
0.0000001
 44
0.0000000001
 12
0.5269772644
 22
-0.0010793166
 32
0.0
 13
0.5269783692
 23
0.0000227564
 33
0.0
 40
0.0
 40
0.0
 40
0.0
 40
0.0
 40
0.4866884719
 40
1.0
 40
1.0
 40
1.0
 40
1.0
 10
26.1450395831
 20
22.3058883825
 30
0.0
 10
26.2305308363
 20
22.3057132855
 30
0.0
 10
26.406190262
 20
22.3055291918
 30
0.0
 10
26.5818497119
 20
22.3054765173
 30
0.0
 10
26.6720177359
 20
22.305480411
 30
0.0
 11
26.1450395831
 21
22.3058883825
 31
0.0
 11
26.401513677
 21
22.3055652216
 31
0.0
 11
26.6720177359
 21
22.305480411
 31
0.0
  0
LINE
  5
39A
100
AcDbEntity
  8
TRASH
100
AcDbLine
 62
7
  6
CONTINUOUS
 10
26.1221062937
 20
22.3163574939
 11
26.1449972769
 21
22.3056833395
  0
LINE
  5
39B
100
AcDbEntity
  8
TRASH
100
AcDbLine
 62
7
  6
CONTINUOUS
 10
26.1449972701
 20
21.8493868933
 11
26.122106287
 21
21.8387127388
  0
LINE
  5
39C
100
AcDbEntity
  8
0
100
AcDbLine
 62
7
  6
CONTINUOUS
 10
24.4378660057
 20
22.577481607
 11
24.4802732178
 21
22.5972525464
  0
LINE
  5
39D
100
AcDbEntity
  8
0
100
AcDbLine
 62
7
  6
CONTINUOUS
 10
26.6719912503
 20
21.8493956193
 11
26.1450079232
 21
21.8493423714
  0
LINE
  5
39E
100
AcDbEntity
  8
0
100
AcDbLine
 62
7
  6
CONTINUOUS
 10
26.1449972701
 20
21.8493868933
 11
26.1900477491
 21
21.7452306533
  0
LINE
  5
39F
100
AcDbEntity
  8
0
100
AcDbLine
 62
7
  6
CONTINUOUS
 10
23.8778971865
 20
22.3163611292
 11
24.4
 21
22.5598243984
  0
LINE
  5
3A0
100
AcDbEntity
  8
0
100
AcDbLine
 62
7
  6
CONTINUOUS
 10
25.6
 20
21.4775352532
 11
25.6272974066
 21
21.4502378773
  0
LINE
  5
3A1
100
AcDbEntity
  8
0
100
AcDbLine
 62
7
  6
CONTINUOUS
 10
24.4
 20
21.5952453043
 11
23.8778933466
 21
21.8387103704
  0
LINE
  5
3A2
100
AcDbEntity
  8
0
100
AcDbLine
 62
7
  6
CONTINUOUS
 10
24.4802765161
 20
21.5578116275
 11
24.4378664697
 21
21.5775880942
  0
LINE
  5
3A3
100
AcDbEntity
  8
0
100
AcDbLine
 62
7
  6
CONTINUOUS
 10
26.1898066956
 20
22.4100065243
 11
26.171604981
 21
22.4226077361
  0
SPLINE
  5
3A4
100
AcDbEntity
  8
0
100
AcDbSpline
 62
7
  6
CONTINUOUS
 70
0
 71
3
 72
14
 73
10
 74
8
 42
0.0000001
 43
0.0000001
 44
0.0000000001
 12
0.5489866675
 22
-0.2730585867
 32
0.0
 13
0.540741044
 23
-0.289044073
 33
0.0
 40
0.0
 40
0.0
 40
0.0
 40
0.0
 40
0.1676248277
 40
0.3171576827
 40
0.4562893429
 40
0.5918233207
 40
0.7276155638
 40
0.864047256
 40
1.0
 40
1.0
 40
1.0
 40
1.0
 10
25.6272975093
 20
22.7048326277
 30
0.0
 10
25.6579721078
 20
22.6895754949
 30
0.0
 10
25.7159046577
 20
22.660494612
 30
0.0
 10
25.7989942188
 20
22.6181494641
 30
0.0
 10
25.8760507922
 20
22.5784133903
 30
0.0
 10
25.9504559263
 20
22.5396646913
 30
0.0
 10
26.0242360761
 20
22.5009117812
 30
0.0
 10
26.0979697374
 20
22.4618872657
 30
0.0
 10
26.1470999047
 20
22.4357065144
 30
0.0
 10
26.171604981
 20
22.4226077361
 30
0.0
 11
25.6272975093
 21
22.7048326277
 31
0.0
 11
25.7191594664
 21
22.6587372842
 31
0.0
 11
25.8008536937
 21
22.6171168068
 31
0.0
 11
25.8766776316
 21
22.5780249148
 31
0.0
 11
25.9503866032
 21
22.5396460529
 31
0.0
 11
26.0241000844
 21
22.5009340857
 31
0.0
 11
26.0980377467
 21
22.4618066242
 31
0.0
 11
26.171604981
 21
22.4226077361
 31
0.0
  0
LINE
  5
3A5
100
AcDbEntity
  8
0
100
AcDbLine
 62
7
  6
CONTINUOUS
 10
25.5197234842
 20
21.5578116272
 11
25.5204046482
 21
21.5571304633
  0
SPLINE
  5
3A6
100
AcDbEntity
  8
0
100
AcDbSpline
 62
7
  6
CONTINUOUS
 70
0
 71
3
 72
14
 73
10
 74
8
 42
0.0000001
 43
0.0000001
 44
0.0000000001
 12
-0.5407409237
 22
-0.2890440051
 32
0.0
 13
-0.5489846067
 23
-0.2730624198
 33
0.0
 40
0.0
 40
0.0
 40
0.0
 40
0.0
 40
0.1360891828
 40
0.2724205737
 40
0.4077679873
 40
0.5429185838
 40
0.6821509024
 40
0.8319710672
 40
1.0
 40
1.0
 40
1.0
 40
1.0
 10
26.1716048889
 20
21.7324624375
 30
0.0
 10
26.1470752255
 20
21.7193505167
 30
0.0
 10
26.0979384405
 20
21.6931665054
 30
0.0
 10
26.0242786827
 20
21.6541809589
 30
0.0
 10
25.9506666198
 20
21.6155161823
 30
0.0
 10
25.8763940757
 20
21.5768348569
 30
0.0
 10
25.7993373918
 20
21.5370970004
 30
0.0
 10
25.7161051984
 20
21.4946752363
 30
0.0
 10
25.6580458391
 20
21.4655320063
 30
0.0
 10
25.6272974066
 20
21.4502378773
 30
0.0
 11
26.1716048889
 21
21.7324624375
 31
0.0
 11
26.0979637521
 21
21.6932243861
 31
0.0
 11
26.0240804449
 21
21.6541257344
 31
0.0
 11
25.9506085972
 21
21.6155403116
 31
0.0
 11
25.8771087678
 21
21.5772688152
 31
0.0
 11
25.8012308721
 21
21.5381469394
 31
0.0
 11
25.7193807836
 21
21.4964443709
 31
0.0
 11
25.6272974066
 21
21.4502378773
 31
0.0
  0
LINE
  5
3A7
100
AcDbEntity
  8
0
100
AcDbLine
 62
7
  6
CONTINUOUS
 10
26.1900477491
 20
21.7452306533
 11
26.1716048889
 21
21.7324624375
  0
SPLINE
  5
3A8
100
AcDbEntity
  8
0
100
AcDbSpline
 62
7
  6
CONTINUOUS
 70
0
 71
3
 72
14
 73
10
 74
8
 42
0.0000001
 43
0.0000001
 44
0.0000000001
 12
0.5407409237
 22
0.2890440051
 32
0.0
 13
0.5489846067
 23
0.2730624198
 33
0.0
 40
0.0
 40
0.0
 40
0.0
 40
0.0
 40
0.1360891828
 40
0.2724205737
 40
0.4077679873
 40
0.5429185838
 40
0.6821509024
 40
0.8319710672
 40
1.0
 40
1.0
 40
1.0
 40
1.0
 10
23.8283951111
 20
22.4226077853
 30
0.0
 10
23.8529247745
 20
22.4357197061
 30
0.0
 10
23.9020615595
 20
22.4619037174
 30
0.0
 10
23.9757213173
 20
22.5008892639
 30
0.0
 10
24.0493333802
 20
22.5395540405
 30
0.0
 10
24.1236059243
 20
22.5782353659
 30
0.0
 10
24.2006626082
 20
22.6179732224
 30
0.0
 10
24.2838948016
 20
22.6603949866
 30
0.0
 10
24.3419541609
 20
22.6895382165
 30
0.0
 10
24.3727025934
 20
22.7048323455
 30
0.0
 11
23.8283951111
 21
22.4226077853
 31
0.0
 11
23.9020362479
 21
22.4618458367
 31
0.0
 11
23.9759195551
 21
22.5009444884
 31
0.0
 11
24.0493914028
 21
22.5395299113
 31
0.0
 11
24.1228912322
 21
22.5778014076
 31
0.0
 11
24.1987691279
 21
22.6169232834
 31
0.0
 11
24.2806192164
 21
22.6586258519
 31
0.0
 11
24.3727025934
 21
22.7048323455
 31
0.0
  0
LINE
  5
3A9
100
AcDbEntity
  8
0
100
AcDbLine
 62
7
  6
CONTINUOUS
 10
23.8283951111
 20
22.4226077853
 11
23.809952252
 21
22.4098395703
  0
LINE
  5
3AA
100
AcDbEntity
  8
0
100
AcDbLine
 62
7
  6
CONTINUOUS
 10
23.828395019
 20
21.7324624867
 11
23.8101933044
 21
21.7450636985
  0
SPLINE
  5
3AB
100
AcDbEntity
  8
0
100
AcDbSpline
 62
7
  6
CONTINUOUS
 70
0
 71
3
 72
14
 73
10
 74
8
 42
0.0000001
 43
0.0000001
 44
0.0000000001
 12
-0.5489866675
 22
0.2730585867
 32
0.0
 13
-0.540741044
 23
0.289044073
 33
0.0
 40
0.0
 40
0.0
 40
0.0
 40
0.0
 40
0.1676248277
 40
0.3171576827
 40
0.4562893429
 40
0.5918233207
 40
0.7276155638
 40
0.864047256
 40
1.0
 40
1.0
 40
1.0
 40
1.0
 10
24.3727024907
 20
21.4502375951
 30
0.0
 10
24.3420278922
 20
21.4654947279
 30
0.0
 10
24.2840953423
 20
21.4945756108
 30
0.0
 10
24.2010057812
 20
21.5369207588
 30
0.0
 10
24.1239492078
 20
21.5766568325
 30
0.0
 10
24.0495440737
 20
21.6154055316
 30
0.0
 10
23.9757639239
 20
21.6541584416
 30
0.0
 10
23.9020302626
 20
21.6931829571
 30
0.0
 10
23.8529000953
 20
21.7193637084
 30
0.0
 10
23.828395019
 20
21.7324624867
 30
0.0
 11
24.3727024907
 21
21.4502375951
 31
0.0
 11
24.2808405336
 21
21.4963329386
 31
0.0
 11
24.1991463063
 21
21.537953416
 31
0.0
 11
24.1233223684
 21
21.577045308
 31
0.0
 11
24.0496133968
 21
21.6154241699
 31
0.0
 11
23.9758999156
 21
21.6541361371
 31
0.0
 11
23.9019622533
 21
21.6932635986
 31
0.0
 11
23.828395019
 21
21.7324624867
 31
0.0
  0
LINE
  5
3AC
100
AcDbEntity
  8
0
100
AcDbLine
 62
7
  6
CONTINUOUS
 10
25.4999470109
 20
22.6396686474
 11
25.5197234839
 21
22.5972585953
  0
LINE
  5
3AD
100
AcDbEntity
  8
0
100
AcDbLine
 62
7
  6
CONTINUOUS
 10
25.5197234839
 20
22.5972585953
 11
25.5621335303
 21
22.5774821286
  0
LINE
  5
3AE
100
AcDbEntity
  8
0
100
AcDbLine
 62
7
  6
CONTINUOUS
 10
25.6
 20
22.5598249185
 11
26.1221066534
 21
22.3163598524
  0
LINE
  5
3AF
100
AcDbEntity
  8
0
100
AcDbLine
 62
7
  6
CONTINUOUS
 10
26.1221028135
 20
21.8387090936
 11
25.6
 21
21.5952458244
  0
LINE
  5
3B0
100
AcDbEntity
  8
0
100
AcDbLine
 62
7
  6
CONTINUOUS
 10
25.5621339943
 20
21.5775886158
 11
25.5197267822
 21
21.5578176764
  0
LINE
  5
3B1
100
AcDbEntity
  8
0
100
AcDbLine
 62
7
  6
CONTINUOUS
 10
24.480282565
 20
22.5972618937
 11
24.5000533558
 21
22.6396689736
  0
LINE
  5
3B2
100
AcDbEntity
  8
0
100
AcDbLine
 62
7
  6
CONTINUOUS
 10
24.5000529891
 20
21.5154015754
 11
24.4802765161
 21
21.5578116275
  0
LINE
  5
3B3
100
AcDbEntity
  8
0
100
AcDbLine
 62
7
  6
CONTINUOUS
 10
24.4
 20
21.4775351051
 11
24.3727024907
 21
21.4502375951
  0
LINE
  5
3B4
100
AcDbEntity
  8
0
100
AcDbLine
 62
7
  6
CONTINUOUS
 10
24.4802765158
 20
21.5578116272
 11
24.4795953518
 21
21.5571304632
  0
SPLINE
  5
3B5
100
AcDbEntity
  8
0
100
AcDbSpline
 62
7
  6
CONTINUOUS
 70
0
 71
3
 72
9
 73
5
 74
3
 42
0.0000001
 43
0.0000001
 44
0.0000000001
 12
0.0452995647
 22
0.1041126532
 32
0.0
 13
0.0452995647
 23
0.1041126532
 33
0.0
 40
0.0
 40
0.0
 40
0.0
 40
0.0
 40
0.4996939835
 40
1.0
 40
1.0
 40
1.0
 40
1.0
 10
23.8101933044
 20
21.7450636985
 30
0.0
 10
23.817738611
 20
21.7624051873
 30
0.0
 10
23.8330832391
 20
21.797004268
 30
0.0
 10
23.8474481749
 20
21.8320241544
 30
0.0
 10
23.8550027231
 20
21.8493868833
 30
0.0
 11
23.8101933044
 21
21.7450636985
 31
0.0
 11
23.8328292243
 21
21.7970881649
 31
0.0
 11
23.8550027231
 21
21.8493868833
 31
0.0
  0
SPLINE
  5
3B6
100
AcDbEntity
  8
0
100
AcDbSpline
 62
7
  6
CONTINUOUS
 70
0
 71
3
 72
9
 73
5
 74
3
 42
0.0000001
 43
0.0000001
 44
0.0000000001
 12
-0.5269772644
 22
0.0010793166
 32
0.0
 13
-0.5269783692
 23
-0.0000227564
 33
0.0
 40
0.0
 40
0.0
 40
0.0
 40
0.0
 40
0.4866884719
 40
1.0
 40
1.0
 40
1.0
 40
1.0
 10
23.8549604169
 20
21.8491818403
 30
0.0
 10
23.7694691637
 20
21.8493569373
 30
0.0
 10
23.593809738
 20
21.849541031
 30
0.0
 10
23.4181502881
 20
21.8495937056
 30
0.0
 10
23.3279822641
 20
21.8495898118
 30
0.0
 11
23.8549604169
 21
21.8491818403
 31
0.0
 11
23.598486323
 21
21.8495050012
 31
0.0
 11
23.3279822641
 21
21.8495898118
 31
0.0
  0
LINE
  5
3B7
100
AcDbEntity
  8
TRASH
100
AcDbLine
 62
7
  6
CONTINUOUS
 10
23.8778937063
 20
21.8387127289
 11
23.8550027231
 21
21.8493868833
  0
LINE
  5
3B8
100
AcDbEntity
  8
0
100
AcDbLine
 62
7
  6
CONTINUOUS
 10
23.8549920759
 20
22.3057278563
 11
23.3280087498
 21
22.3056746041
  0
LINE
  5
3B9
100
AcDbEntity
  8
0
100
AcDbLine
 62
7
  6
CONTINUOUS
 10
23.8550027299
 20
22.3056833295
 11
23.809952252
 21
22.4098395703
  0
LINE
  5
3BA
100
AcDbEntity
  8
TRASH
100
AcDbLine
 62
7
  6
CONTINUOUS
 10
23.877893713
 20
22.316357484
 11
23.8550027299
 21
22.3056833295
  0
LINE
  5
3BB
100
AcDbEntity
  8
0
100
AcDbLine
 62
7
  6
CONTINUOUS
 10
-25.6
 20
-31.3224650304
 11
-25.6272974066
 21
-31.2951676545
  0
LINE
  5
3BC
100
AcDbEntity
  8
0
100
AcDbLine
 62
7
  6
CONTINUOUS
 10
-25.5197234842
 20
-31.4027414044
 11
-25.5204046482
 21
-31.4020602405
  0
LINE
  5
3BD
100
AcDbEntity
  8
0
100
AcDbLine
 62
7
  6
CONTINUOUS
 10
-24.3727024907
 20
-31.2951673723
 11
-24.4
 21
-31.3224648822
  0
LINE
  5
3BE
100
AcDbEntity
  8
0
100
AcDbLine
 62
7
  6
CONTINUOUS
 10
-24.4795953518
 20
-31.4020602404
 11
-24.4802765158
 21
-31.4027414044
  0
LINE
  5
3BF
100
AcDbEntity
  8
0
100
AcDbLine
 62
7
  6
CONTINUOUS
 10
-24.480282565
 20
-32.4421916708
 11
-24.5000533558
 21
-32.4845987508
  0
SPLINE
  5
3C0
100
AcDbEntity
  8
0
100
AcDbSpline
 62
7
  6
CONTINUOUS
 70
0
 71
3
 72
9
 73
5
 74
3
 42
0.0000001
 43
0.0000001
 44
0.0000000001
 12
-0.0452995647
 22
-0.1041126532
 32
0.0
 13
-0.0452995647
 23
-0.1041126532
 33
0.0
 40
0.0
 40
0.0
 40
0.0
 40
0.0
 40
0.4996939835
 40
1.0
 40
1.0
 40
1.0
 40
1.0
 10
-23.8101933044
 20
-31.5899934757
 30
0.0
 10
-23.817738611
 20
-31.6073349645
 30
0.0
 10
-23.8330832391
 20
-31.6419340452
 30
0.0
 10
-23.8474481749
 20
-31.6769539316
 30
0.0
 10
-23.8550027231
 20
-31.6943166605
 30
0.0
 11
-23.8101933044
 21
-31.5899934757
 31
0.0
 11
-23.8328292243
 21
-31.6420179421
 31
0.0
 11
-23.8550027231
 21
-31.6943166605
 31
0.0
  0
SPLINE
  5
3C1
100
AcDbEntity
  8
0
100
AcDbSpline
 62
7
  6
CONTINUOUS
 70
0
 71
3
 72
9
 73
5
 74
3
 42
0.0000001
 43
0.0000001
 44
0.0000000001
 12
0.5269772644
 22
-0.0010793166
 32
0.0
 13
0.5269783692
 23
0.0000227564
 33
0.0
 40
0.0
 40
0.0
 40
0.0
 40
0.0
 40
0.4866884719
 40
1.0
 40
1.0
 40
1.0
 40
1.0
 10
-23.8549604169
 20
-31.6941116175
 30
0.0
 10
-23.7694691637
 20
-31.6942867145
 30
0.0
 10
-23.593809738
 20
-31.6944708082
 30
0.0
 10
-23.4181502881
 20
-31.6945234827
 30
0.0
 10
-23.3279822641
 20
-31.694519589
 30
0.0
 11
-23.8549604169
 21
-31.6941116175
 31
0.0
 11
-23.598486323
 21
-31.6944347784
 31
0.0
 11
-23.3279822641
 21
-31.694519589
 31
0.0
  0
LINE
  5
3C2
100
AcDbEntity
  8
TRASH
100
AcDbLine
 62
7
  6
CONTINUOUS
 10
-23.8778937063
 20
-31.6836425061
 11
-23.8550027231
 21
-31.6943166605
  0
LINE
  5
3C3
100
AcDbEntity
  8
TRASH
100
AcDbLine
 62
7
  6
CONTINUOUS
 10
-23.8550027299
 20
-32.1506131067
 11
-23.877893713
 21
-32.1612872612
  0
LINE
  5
3C4
100
AcDbEntity
  8
0
100
AcDbLine
 62
7
  6
CONTINUOUS
 10
-25.5621339943
 20
-31.422518393
 11
-25.5197267822
 21
-31.4027474536
  0
LINE
  5
3C5
100
AcDbEntity
  8
0
100
AcDbLine
 62
7
  6
CONTINUOUS
 10
-23.3280087497
 20
-32.1506043807
 11
-23.8549920768
 21
-32.1506576286
  0
LINE
  5
3C6
100
AcDbEntity
  8
0
100
AcDbLine
 62
7
  6
CONTINUOUS
 10
-23.8550027299
 20
-32.1506131067
 11
-23.8099522509
 21
-32.2547693467
  0
LINE
  5
3C7
100
AcDbEntity
  8
0
100
AcDbLine
 62
7
  6
CONTINUOUS
 10
-26.1221028135
 20
-31.6836388708
 11
-25.6
 21
-31.4401756016
  0
LINE
  5
3C8
100
AcDbEntity
  8
0
100
AcDbLine
 62
7
  6
CONTINUOUS
 10
-24.4
 20
-32.5224647468
 11
-24.3727025934
 21
-32.5497621227
  0
LINE
  5
3C9
100
AcDbEntity
  8
0
100
AcDbLine
 62
7
  6
CONTINUOUS
 10
-25.6
 20
-32.4047546957
 11
-26.1221066534
 21
-32.1612896296
  0
LINE
  5
3CA
100
AcDbEntity
  8
0
100
AcDbLine
 62
7
  6
CONTINUOUS
 10
-25.5197234839
 20
-32.4421883725
 11
-25.5621335303
 21
-32.4224119058
  0
LINE
  5
3CB
100
AcDbEntity
  8
0
100
AcDbLine
 62
7
  6
CONTINUOUS
 10
-23.8101933044
 20
-31.5899934757
 11
-23.828395019
 21
-31.5773922639
  0
SPLINE
  5
3CC
100
AcDbEntity
  8
0
100
AcDbSpline
 62
7
  6
CONTINUOUS
 70
0
 71
3
 72
14
 73
10
 74
8
 42
0.0000001
 43
0.0000001
 44
0.0000000001
 12
0.5489866675
 22
-0.2730585867
 32
0.0
 13
0.540741044
 23
-0.289044073
 33
0.0
 40
0.0
 40
0.0
 40
0.0
 40
0.0
 40
0.1676248277
 40
0.3171576827
 40
0.4562893429
 40
0.5918233207
 40
0.7276155638
 40
0.864047256
 40
1.0
 40
1.0
 40
1.0
 40
1.0
 10
-24.3727024907
 20
-31.2951673723
 30
0.0
 10
-24.3420278922
 20
-31.3104245051
 30
0.0
 10
-24.2840953423
 20
-31.339505388
 30
0.0
 10
-24.2010057812
 20
-31.3818505359
 30
0.0
 10
-24.1239492078
 20
-31.4215866097
 30
0.0
 10
-24.0495440737
 20
-31.4603353087
 30
0.0
 10
-23.9757639239
 20
-31.4990882188
 30
0.0
 10
-23.9020302626
 20
-31.5381127343
 30
0.0
 10
-23.8529000953
 20
-31.5642934856
 30
0.0
 10
-23.828395019
 20
-31.5773922639
 30
0.0
 11
-24.3727024907
 21
-31.2951673723
 31
0.0
 11
-24.2808405336
 21
-31.3412627158
 31
0.0
 11
-24.1991463063
 21
-31.3828831932
 31
0.0
 11
-24.1233223684
 21
-31.4219750852
 31
0.0
 11
-24.0496133968
 21
-31.4603539471
 31
0.0
 11
-23.9758999156
 21
-31.4990659143
 31
0.0
 11
-23.9019622533
 21
-31.5381933758
 31
0.0
 11
-23.828395019
 21
-31.5773922639
 31
0.0
  0
LINE
  5
3CD
100
AcDbEntity
  8
0
100
AcDbLine
 62
7
  6
CONTINUOUS
 10
-24.4802765158
 20
-32.4421883728
 11
-24.4795953518
 21
-32.4428695367
  0
SPLINE
  5
3CE
100
AcDbEntity
  8
0
100
AcDbSpline
 62
7
  6
CONTINUOUS
 70
0
 71
3
 72
14
 73
10
 74
8
 42
0.0000001
 43
0.0000001
 44
0.0000000001
 12
-0.5407409237
 22
-0.2890440051
 32
0.0
 13
-0.5489846067
 23
-0.2730624198
 33
0.0
 40
0.0
 40
0.0
 40
0.0
 40
0.0
 40
0.1360891828
 40
0.2724205737
 40
0.4077679873
 40
0.5429185838
 40
0.6821509024
 40
0.8319710672
 40
1.0
 40
1.0
 40
1.0
 40
1.0
 10
-23.8283951111
 20
-32.2675375625
 30
0.0
 10
-23.8529247745
 20
-32.2806494833
 30
0.0
 10
-23.9020615595
 20
-32.3068334946
 30
0.0
 10
-23.9757213173
 20
-32.3458190411
 30
0.0
 10
-24.0493333802
 20
-32.3844838177
 30
0.0
 10
-24.1236059243
 20
-32.4231651431
 30
0.0
 10
-24.2006626082
 20
-32.4629029996
 30
0.0
 10
-24.2838948016
 20
-32.5053247637
 30
0.0
 10
-24.3419541609
 20
-32.5344679937
 30
0.0
 10
-24.3727025934
 20
-32.5497621227
 30
0.0
 11
-23.8283951111
 21
-32.2675375625
 31
0.0
 11
-23.9020362479
 21
-32.3067756139
 31
0.0
 11
-23.9759195551
 21
-32.3458742656
 31
0.0
 11
-24.0493914028
 21
-32.3844596884
 31
0.0
 11
-24.1228912322
 21
-32.4227311848
 31
0.0
 11
-24.1987691279
 21
-32.4618530606
 31
0.0
 11
-24.2806192164
 21
-32.5035556291
 31
0.0
 11
-24.3727025934
 21
-32.5497621227
 31
0.0
  0
LINE
  5
3CF
100
AcDbEntity
  8
0
100
AcDbLine
 62
7
  6
CONTINUOUS
 10
-23.8099522509
 20
-32.2547693467
 11
-23.8283951111
 21
-32.2675375625
  0
SPLINE
  5
3D0
100
AcDbEntity
  8
0
100
AcDbSpline
 62
7
  6
CONTINUOUS
 70
0
 71
3
 72
14
 73
10
 74
8
 42
0.0000001
 43
0.0000001
 44
0.0000000001
 12
0.5407409237
 22
0.2890440051
 32
0.0
 13
0.5489846067
 23
0.2730624198
 33
0.0
 40
0.0
 40
0.0
 40
0.0
 40
0.0
 40
0.1360891828
 40
0.2724205737
 40
0.4077679873
 40
0.5429185838
 40
0.6821509024
 40
0.8319710672
 40
1.0
 40
1.0
 40
1.0
 40
1.0
 10
-26.1716048889
 20
-31.5773922147
 30
0.0
 10
-26.1470752255
 20
-31.5642802939
 30
0.0
 10
-26.0979384405
 20
-31.5380962826
 30
0.0
 10
-26.0242786827
 20
-31.4991107361
 30
0.0
 10
-25.9506666198
 20
-31.4604459595
 30
0.0
 10
-25.8763940757
 20
-31.4217646341
 30
0.0
 10
-25.7993373918
 20
-31.3820267776
 30
0.0
 10
-25.7161051984
 20
-31.3396050134
 30
0.0
 10
-25.6580458391
 20
-31.3104617835
 30
0.0
 10
-25.6272974066
 20
-31.2951676545
 30
0.0
 11
-26.1716048889
 21
-31.5773922147
 31
0.0
 11
-26.0979637521
 21
-31.5381541633
 31
0.0
 11
-26.0240804449
 21
-31.4990555116
 31
0.0
 11
-25.9506085972
 21
-31.4604700887
 31
0.0
 11
-25.8771087678
 21
-31.4221985924
 31
0.0
 11
-25.8012308721
 21
-31.3830767166
 31
0.0
 11
-25.7193807836
 21
-31.3413741481
 31
0.0
 11
-25.6272974066
 21
-31.2951676545
 31
0.0
  0
LINE
  5
3D1
100
AcDbEntity
  8
0
100
AcDbLine
 62
7
  6
CONTINUOUS
 10
-26.1716048889
 20
-31.5773922147
 11
-26.190047748
 21
-31.5901604297
  0
LINE
  5
3D2
100
AcDbEntity
  8
0
100
AcDbLine
 62
7
  6
CONTINUOUS
 10
-26.171604981
 20
-32.2675375133
 11
-26.1898066956
 21
-32.2549363015
  0
SPLINE
  5
3D3
100
AcDbEntity
  8
0
100
AcDbSpline
 62
7
  6
CONTINUOUS
 70
0
 71
3
 72
14
 73
10
 74
8
 42
0.0000001
 43
0.0000001
 44
0.0000000001
 12
-0.5489866675
 22
0.2730585867
 32
0.0
 13
-0.540741044
 23
0.289044073
 33
0.0
 40
0.0
 40
0.0
 40
0.0
 40
0.0
 40
0.1676248277
 40
0.3171576827
 40
0.4562893429
 40
0.5918233207
 40
0.7276155638
 40
0.864047256
 40
1.0
 40
1.0
 40
1.0
 40
1.0
 10
-25.6272975093
 20
-32.5497624049
 30
0.0
 10
-25.6579721078
 20
-32.5345052721
 30
0.0
 10
-25.7159046577
 20
-32.5054243892
 30
0.0
 10
-25.7989942188
 20
-32.4630792412
 30
0.0
 10
-25.8760507922
 20
-32.4233431675
 30
0.0
 10
-25.9504559263
 20
-32.3845944684
 30
0.0
 10
-26.0242360761
 20
-32.3458415584
 30
0.0
 10
-26.0979697374
 20
-32.3068170429
 30
0.0
 10
-26.1470999047
 20
-32.2806362916
 30
0.0
 10
-26.171604981
 20
-32.2675375133
 30
0.0
 11
-25.6272975093
 21
-32.5497624049
 31
0.0
 11
-25.7191594664
 21
-32.5036670614
 31
0.0
 11
-25.8008536937
 21
-32.462046584
 31
0.0
 11
-25.8766776316
 21
-32.422954692
 31
0.0
 11
-25.9503866032
 21
-32.3845758301
 31
0.0
 11
-26.0241000844
 21
-32.3458638629
 31
0.0
 11
-26.0980377467
 21
-32.3067364014
 31
0.0
 11
-26.171604981
 21
-32.2675375133
 31
0.0
  0
LINE
  5
3D4
100
AcDbEntity
  8
0
100
AcDbLine
 62
7
  6
CONTINUOUS
 10
-24.5000529891
 20
-31.3603313526
 11
-24.4802765161
 21
-31.4027414047
  0
LINE
  5
3D5
100
AcDbEntity
  8
0
100
AcDbLine
 62
7
  6
CONTINUOUS
 10
-24.4802765161
 20
-31.4027414047
 11
-24.4378664697
 21
-31.4225178714
  0
LINE
  5
3D6
100
AcDbEntity
  8
0
100
AcDbLine
 62
7
  6
CONTINUOUS
 10
-24.4
 20
-31.4401750815
 11
-23.8778933466
 21
-31.6836401476
  0
LINE
  5
3D7
100
AcDbEntity
  8
0
100
AcDbLine
 62
7
  6
CONTINUOUS
 10
-23.8778971865
 20
-32.1612909064
 11
-24.4
 21
-32.4047541756
  0
LINE
  5
3D8
100
AcDbEntity
  8
0
100
AcDbLine
 62
7
  6
CONTINUOUS
 10
-24.4378660057
 20
-32.4224113842
 11
-24.4802732178
 21
-32.4421823236
  0
LINE
  5
3D9
100
AcDbEntity
  8
0
100
AcDbLine
 62
7
  6
CONTINUOUS
 10
-25.519717435
 20
-31.4027381063
 11
-25.4999466442
 21
-31.3603310264
  0
LINE
  5
3DA
100
AcDbEntity
  8
0
100
AcDbLine
 62
7
  6
CONTINUOUS
 10
-25.4999470109
 20
-32.4845984246
 11
-25.5197234839
 21
-32.4421883725
  0
LINE
  5
3DB
100
AcDbEntity
  8
0
100
AcDbLine
 62
7
  6
CONTINUOUS
 10
-25.6
 20
-32.5224648949
 11
-25.6272975093
 21
-32.5497624049
  0
LINE
  5
3DC
100
AcDbEntity
  8
0
100
AcDbLine
 62
7
  6
CONTINUOUS
 10
-25.5197234842
 20
-32.4421883728
 11
-25.5204046482
 21
-32.4428695368
  0
SPLINE
  5
3DD
100
AcDbEntity
  8
0
100
AcDbSpline
 62
7
  6
CONTINUOUS
 70
0
 71
3
 72
9
 73
5
 74
3
 42
0.0000001
 43
0.0000001
 44
0.0000000001
 12
0.0452995647
 22
0.1041126532
 32
0.0
 13
0.0452995647
 23
0.1041126532
 33
0.0
 40
0.0
 40
0.0
 40
0.0
 40
0.0
 40
0.4996939835
 40
1.0
 40
1.0
 40
1.0
 40
1.0
 10
-26.1898066956
 20
-32.2549363015
 30
0.0
 10
-26.182261389
 20
-32.2375948127
 30
0.0
 10
-26.1669167609
 20
-32.202995732
 30
0.0
 10
-26.1525518251
 20
-32.1679758456
 30
0.0
 10
-26.1449972769
 20
-32.1506131167
 30
0.0
 11
-26.1898066956
 21
-32.2549363015
 31
0.0
 11
-26.1671707757
 21
-32.2029118351
 31
0.0
 11
-26.1449972769
 21
-32.1506131167
 31
0.0
  0
SPLINE
  5
3DE
100
AcDbEntity
  8
0
100
AcDbSpline
 62
7
  6
CONTINUOUS
 70
0
 71
3
 72
9
 73
5
 74
3
 42
0.0000001
 43
0.0000001
 44
0.0000000001
 12
-0.5269772644
 22
0.0010793166
 32
0.0
 13
-0.5269783692
 23
-0.0000227564
 33
0.0
 40
0.0
 40
0.0
 40
0.0
 40
0.0
 40
0.4866884719
 40
1.0
 40
1.0
 40
1.0
 40
1.0
 10
-26.1450395831
 20
-32.1508181597
 30
0.0
 10
-26.2305308363
 20
-32.1506430627
 30
0.0
 10
-26.406190262
 20
-32.150458969
 30
0.0
 10
-26.5818497119
 20
-32.1504062944
 30
0.0
 10
-26.6720177359
 20
-32.1504101882
 30
0.0
 11
-26.1450395831
 21
-32.1508181597
 31
0.0
 11
-26.401513677
 21
-32.1504949988
 31
0.0
 11
-26.6720177359
 21
-32.1504101882
 31
0.0
  0
LINE
  5
3DF
100
AcDbEntity
  8
TRASH
100
AcDbLine
 62
7
  6
CONTINUOUS
 10
-26.1221062937
 20
-32.1612872711
 11
-26.1449972769
 21
-32.1506131167
  0
LINE
  5
3E0
100
AcDbEntity
  8
0
100
AcDbLine
 62
7
  6
CONTINUOUS
 10
-26.1450079241
 20
-31.6942721437
 11
-26.6719912502
 21
-31.6943253959
  0
LINE
  5
3E1
100
AcDbEntity
  8
0
100
AcDbLine
 62
7
  6
CONTINUOUS
 10
-26.1449972701
 20
-31.6943166705
 11
-26.190047748
 21
-31.5901604297
  0
LINE
  5
3E2
100
AcDbEntity
  8
TRASH
100
AcDbLine
 62
7
  6
CONTINUOUS
 10
-26.122106287
 20
-31.683642516
 11
-26.1449972701
 21
-31.6943166705
  0
SPLINE
  5
3E3
100
AcDbEntity
  8
RACCORDO
100
AcDbSpline
 62
7
  6
CONTINUOUS
 70
0
 71
3
 72
13
 73
9
 74
7
 42
0.0000001
 43
0.0000001
 44
0.0000000001
 12
-0.3943406389
 22
-0.1052882039
 32
0.0
 13
-0.0
 23
-0.4080165637
 33
0.0
 40
0.0
 40
0.0
 40
0.0
 40
0.0
 40
0.0885422169
 40
0.2178906574
 40
0.379654113
 40
0.5467034627
 40
0.7399104986
 40
1.0
 40
1.0
 40
1.0
 40
1.0
 10
-3.8636806469
 20
45.7069792916
 30
0.0
 10
-3.8753192451
 20
45.703871808
 30
0.0
 10
-3.9036321196
 20
45.6949632257
 30
0.0
 10
-3.9506603279
 20
45.6731008103
 30
0.0
 10
-4.0016122378
 20
45.6363886726
 30
0.0
 10
-4.0491747355
 20
45.5828665916
 30
0.0
 10
-4.0888932129
 20
45.5074593914
 30
0.0
 10
-4.1
 20
45.445190624
 30
0.0
 10
-4.1
 20
45.4098170158
 30
0.0
 11
-3.8636806469
 21
45.7069792916
 31
0.0
 11
-3.8981113455
 21
45.6960307608
 31
0.0
 11
-3.9459173415
 21
45.6736717528
 31
0.0
 11
-3.9994250365
 21
45.6350296394
 31
0.0
 11
-4.0446933545
 21
45.5840746077
 31
0.0
 11
-4.0813561658
 21
45.5142872836
 31
0.0
 11
-4.1
 21
45.4098170158
 31
0.0
  0
SPLINE
  5
3E4
100
AcDbEntity
  8
RACCORDO
100
AcDbSpline
 62
7
  6
CONTINUOUS
 70
0
 71
3
 72
12
 73
8
 74
6
 42
0.0000001
 43
0.0000001
 44
0.0000000001
 12
-0.0
 22
0.407451285
 32
0.0
 13
-0.3938897629
 23
0.1051339305
 33
0.0
 40
0.0
 40
0.0
 40
0.0
 40
0.0
 40
0.2730954486
 40
0.5125774336
 40
0.7596490847
 40
0.9322871369
 40
1.0
 40
1.0
 40
1.0
 40
1.0
 10
4.1
 20
45.4098170158
 30
0.0
 10
4.1
 20
45.4469080463
 30
0.0
 10
4.0868320039
 20
45.5172479
 30
0.0
 10
4.033557813
 20
45.6075284067
 30
0.0
 10
3.9643694707
 20
45.6670722626
 30
0.0
 10
3.9038599791
 20
45.695135051
 30
0.0
 10
3.8725805955
 20
45.7045982644
 30
0.0
 10
3.8636901276
 20
45.7069712376
 30
0.0
 11
4.1
 21
45.4098170158
 31
0.0
 11
4.0795023321
 21
45.519185871
 31
0.0
 11
4.0299846284
 21
45.6032650913
 31
0.0
 11
3.9537669979
 21
45.6690317515
 31
0.0
 11
3.8900905304
 21
45.6989190003
 31
0.0
 11
3.8636901276
 21
45.7069712376
 31
0.0
  0
SPLINE
  5
3E5
100
AcDbEntity
  8
RACCORDO
100
AcDbSpline
 62
7
  6
CONTINUOUS
 70
0
 71
3
 72
14
 73
10
 74
8
 42
0.0000001
 43
0.0000001
 44
0.0000000001
 12
-0.4114879414
 22
-0.1098469336
 32
0.0
 13
0.0
 23
-0.4258413646
 33
0.0
 40
0.0
 40
0.0
 40
0.0
 40
0.0
 40
0.0320135605
 40
0.1130064171
 40
0.2093028682
 40
0.3475025649
 40
0.5306881126
 40
0.737659551
 40
1.0
 40
1.0
 40
1.0
 40
1.0
 10
-8.0984667464
 20
44.0165303151
 30
0.0
 10
-8.1028578111
 20
44.0153581179
 30
0.0
 10
-8.1183056445
 20
44.0110241086
 30
0.0
 10
-8.1465016175
 20
44.0015589154
 30
0.0
 10
-8.1874434343
 20
43.9831835847
 30
0.0
 10
-8.2376555383
 20
43.9510645737
 30
0.0
 10
-8.2912339668
 20
43.8974082746
 30
0.0
 10
-8.3374308411
 20
43.8157832278
 30
0.0
 10
-8.35
 20
43.7484546983
 30
0.0
 10
-8.35
 20
43.7112162267
 30
0.0
 11
-8.0984667464
 21
44.0165303151
 31
0.0
 11
-8.111592235
 21
44.0128402469
 31
0.0
 11
-8.1442571854
 21
44.0017691763
 31
0.0
 11
-8.1816276419
 21
43.9848865218
 31
0.0
 11
-8.2311296533
 21
43.9530587285
 31
0.0
 11
-8.2861895787
 21
43.8977988866
 31
0.0
 11
-8.3294929002
 21
43.8210333144
 31
0.0
 11
-8.35
 21
43.7112162267
 31
0.0
  0
SPLINE
  5
3E6
100
AcDbEntity
  8
RACCORDO
100
AcDbSpline
 62
7
  6
CONTINUOUS
 70
0
 71
3
 72
13
 73
9
 74
7
 42
0.0000001
 43
0.0000001
 44
0.0000000001
 12
0.0
 22
0.4253461948
 32
0.0
 13
-0.4110122754
 23
0.1098155501
 33
0.0
 40
0.0
 40
0.0
 40
0.0
 40
0.0
 40
0.2785903707
 40
0.5171833747
 40
0.7409422587
 40
0.8795885981
 40
0.9833477734
 40
1.0
 40
1.0
 40
1.0
 40
1.0
 10
8.35
 20
43.7112162267
 30
0.0
 10
8.35
 20
43.7507153447
 30
0.0
 10
8.3352882687
 20
43.8248932976
 30
0.0
 10
8.27855615
 20
43.9154435056
 30
0.0
 10
8.2118677421
 20
43.9707103944
 30
0.0
 10
8.152230727
 20
43.9998620468
 30
0.0
 10
8.1172880245
 20
44.0113854065
 30
0.0
 10
8.1008197589
 20
44.0159022697
 30
0.0
 10
8.0985383357
 20
44.0165118275
 30
0.0
 11
8.35
 21
43.7112162267
 31
0.0
 11
8.326928995
 21
43.8274459632
 31
0.0
 11
8.2731854621
 21
43.9135317464
 31
0.0
 11
8.2000791326
 21
43.9744722361
 31
0.0
 11
8.1472162287
 21
44.0006120888
 31
0.0
 11
8.1053703619
 21
44.0146369046
 31
0.0
 11
8.0985383357
 21
44.0165118275
 31
0.0
  0
SPLINE
  5
3E7
100
AcDbEntity
  8
RACCORDO
100
AcDbSpline
 62
7
  6
CONTINUOUS
 70
0
 71
3
 72
14
 73
10
 74
8
 42
0.0000001
 43
0.0000001
 44
0.0000000001
 12
-0.4184746987
 22
-0.1117534816
 32
0.0
 13
0.0
 23
-0.4330883973
 33
0.0
 40
0.0
 40
0.0
 40
0.0
 40
0.0
 40
0.0186628818
 40
0.1021270049
 40
0.1973205088
 40
0.3287267787
 40
0.5150921314
 40
0.7300452208
 40
1.0
 40
1.0
 40
1.0
 40
1.0
 10
-9.842212324
 20
42.2471355395
 30
0.0
 10
-9.8448156386
 20
42.2464403255
 30
0.0
 10
-9.8590355934
 20
42.2425382324
 30
0.0
 10
-9.8862058058
 20
42.2338921337
 30
0.0
 10
-9.9275091825
 20
42.2164236112
 30
0.0
 10
-9.9789339872
 20
42.1857283265
 30
0.0
 10
-10.0357548578
 20
42.1325928252
 30
0.0
 10
-10.0861860257
 20
42.0482489221
 30
0.0
 10
-10.1
 20
41.97743898
 30
0.0
 10
-10.1
 20
41.9384675524
 30
0.0
 11
-9.842212324
 21
42.2471355395
 31
0.0
 11
-9.8500075421
 21
42.2449950433
 31
0.0
 11
-9.8844157766
 21
42.2339178675
 31
0.0
 11
-9.9223380527
 21
42.2177443348
 31
0.0
 11
-9.9711193899
 21
42.1884323976
 31
0.0
 11
-10.0299766279
 21
42.1332023248
 31
0.0
 11
-10.0776097687
 21
42.0532178336
 31
0.0
 11
-10.1
 21
41.9384675524
 31
0.0
  0
SPLINE
  5
3E8
100
AcDbEntity
  8
RACCORDO
100
AcDbSpline
 62
7
  6
CONTINUOUS
 70
0
 71
3
 72
13
 73
9
 74
7
 42
0.0000001
 43
0.0000001
 44
0.0000000001
 12
0.0
 22
0.4327416406
 32
0.0
 13
-0.4181506331
 23
0.1116941077
 33
0.0
 40
0.0
 40
0.0
 40
0.0
 40
0.0
 40
0.2815972911
 40
0.5196286999
 40
0.7307022488
 40
0.8646941311
 40
0.9669919069
 40
1.0
 40
1.0
 40
1.0
 40
1.0
 10
10.1
 20
41.9384675524
 30
0.0
 10
10.1
 20
41.979087177
 30
0.0
 10
10.0845573176
 20
42.0549571687
 30
0.0
 10
10.0265216801
 20
42.1451560794
 30
0.0
 10
9.9605086875
 20
42.1992396588
 30
0.0
 10
9.9024695868
 20
42.2280375329
 30
0.0
 10
9.8656542377
 20
42.2406289863
 30
0.0
 10
9.8468558407
 20
42.2458958205
 30
0.0
 10
9.8422550556
 20
42.247124757
 30
0.0
 11
10.1
 21
41.9384675524
 31
0.0
 11
10.0756773324
 21
42.0578743904
 31
0.0
 11
10.0201180638
 21
42.1446120685
 31
0.0
 11
9.9496486263
 21
42.202724987
 31
0.0
 11
9.8978279164
 21
42.2287392688
 31
0.0
 11
9.8560097339
 21
42.2432630544
 31
0.0
 11
9.8422550556
 21
42.247124757
 31
0.0
  0
SPLINE
  5
3E9
100
AcDbEntity
  8
RACCORDO
100
AcDbSpline
 62
7
  6
CONTINUOUS
 70
0
 71
3
 72
13
 73
9
 74
7
 42
0.0000001
 43
0.0000001
 44
0.0000000001
 12
-0.4255790255
 22
-0.1135997717
 32
0.0
 13
0.0
 23
-0.4404069169
 33
0.0
 40
0.0
 40
0.0
 40
0.0
 40
0.0
 40
0.0860578033
 40
0.1824606575
 40
0.3098373178
 40
0.4976371228
 40
0.7206235656
 40
1.0
 40
1.0
 40
1.0
 40
1.0
 10
-11.5858589519
 20
40.4107965885
 30
0.0
 10
-11.5980670839
 20
40.4075378729
 30
0.0
 10
-11.6237529725
 20
40.3998679728
 30
0.0
 10
-11.6661391297
 20
40.383156548
 30
0.0
 10
-11.7192006457
 20
40.3537560536
 30
0.0
 10
-11.7795053046
 20
40.301294026
 30
0.0
 10
-11.8346845255
 20
40.2144406631
 30
0.0
 10
-11.85
 20
40.1397619266
 30
0.0
 10
-11.85
 20
40.0987488219
 30
0.0
 11
-11.5858589519
 21
40.4107965885
 31
0.0
 11
-11.6221353625
 21
40.3998198154
 31
0.0
 11
-11.6615746338
 21
40.3841004991
 31
0.0
 11
-11.7105425937
 21
40.3567312575
 31
0.0
 11
-11.7728059411
 21
40.302289142
 31
0.0
 11
-11.8252802157
 21
40.2192793371
 31
0.0
 11
-11.85
 21
40.0987488219
 31
0.0
  0
SPLINE
  5
3EA
100
AcDbEntity
  8
RACCORDO
100
AcDbSpline
 62
7
  6
CONTINUOUS
 70
0
 71
3
 72
13
 73
9
 74
7
 42
0.0000001
 43
0.0000001
 44
0.0000000001
 12
0.0
 22
0.4400897209
 32
0.0
 13
-0.4252502241
 23
0.113578451
 33
0.0
 40
0.0
 40
0.0
 40
0.0
 40
0.0
 40
0.2873875737
 40
0.5261308861
 40
0.7283386872
 40
0.8585986603
 40
0.961103964
 40
1.0
 40
1.0
 40
1.0
 40
1.0
 10
11.85
 20
40.0987488219
 30
0.0
 10
11.85
 20
40.1409075943
 30
0.0
 10
11.8335049435
 20
40.2191005504
 30
0.0
 10
11.7730950544
 20
40.3095699361
 30
0.0
 10
11.7066861547
 20
40.3624847702
 30
0.0
 10
11.6491989826
 20
40.3907146724
 30
0.0
 10
11.6114492201
 20
40.4036753235
 30
0.0
 10
11.5914772568
 20
40.4092971684
 30
0.0
 10
11.5859637408
 20
40.4107697523
 30
0.0
 11
11.85
 21
40.0987488219
 31
0.0
 11
11.8238812449
 21
40.2224988499
 31
0.0
 11
11.7657579893
 21
40.3100264008
 31
0.0
 11
11.6963657366
 21
40.3657386947
 31
0.0
 11
11.6450354287
 21
40.3912627693
 31
0.0
 11
11.6024404109
 21
40.4061192373
 31
0.0
 11
11.5859637408
 21
40.4107697523
 31
0.0
  0
SPLINE
  5
3EB
100
AcDbEntity
  8
RACCORDO
100
AcDbSpline
 62
7
  6
CONTINUOUS
 70
0
 71
3
 72
15
 73
11
 74
9
 42
0.0000001
 43
0.0000001
 44
0.0000000001
 12
-1.3172034931
 22
-0.3516169812
 32
0.0
 13
-0.0
 23
-1.3630517468
 33
0.0
 40
0.0
 40
0.0
 40
0.0
 40
0.0
 40
0.0659990605
 40
0.1553306921
 40
0.257725469
 40
0.3865852715
 40
0.5108349933
 40
0.6372994328
 40
0.7991645852
 40
1.0
 40
1.0
 40
1.0
 40
1.0
 10
-13.2111267282
 20
38.6864189545
 30
0.0
 10
-13.2401047925
 20
38.6786834911
 30
0.0
 10
-13.3077210874
 20
38.6582571248
 30
0.0
 10
-13.4165582254
 20
38.6144269865
 30
0.0
 10
-13.5444887348
 20
38.543929827
 30
0.0
 10
-13.6731997026
 20
38.4449904142
 30
0.0
 10
-13.7908111963
 20
38.3177765075
 30
0.0
 10
-13.8936249321
 20
38.1599477076
 30
0.0
 10
-13.9772760125
 20
37.952253605
 30
0.0
 10
-14.0
 20
37.786501117
 30
0.0
 10
-14.0
 20
37.6952514293
 30
0.0
 11
-13.2111267282
 21
38.6864189545
 31
0.0
 11
-13.2971995504
 21
38.6602440148
 31
0.0
 11
-13.4100740801
 21
38.6145742902
 31
0.0
 11
-13.5322502998
 21
38.5471014584
 31
0.0
 11
-13.6714442617
 21
38.439978368
 31
0.0
 11
-13.7863901394
 21
38.3156005226
 31
0.0
 11
-13.8804660906
 21
38.1711576486
 31
0.0
 11
-13.9627845208
 21
37.9664590207
 31
0.0
 11
-14.0
 21
37.6952514293
 31
0.0
  0
SPLINE
  5
3EC
100
AcDbEntity
  8
RACCORDO
100
AcDbSpline
 62
7
  6
CONTINUOUS
 70
0
 71
3
 72
13
 73
9
 74
7
 42
0.0000001
 43
0.0000001
 44
0.0000000001
 12
-0.0
 22
1.3618948107
 32
0.0
 13
-1.3162558963
 23
0.3514827628
 33
0.0
 40
0.0
 40
0.0
 40
0.0
 40
0.0
 40
0.2020404817
 40
0.404303917
 40
0.5810375972
 40
0.7729579909
 40
0.9063797348
 40
1.0
 40
1.0
 40
1.0
 40
1.0
 10
14.0
 20
37.6952514293
 30
0.0
 10
14.0
 20
37.7869707238
 30
0.0
 10
13.9746158705
 20
37.971484054
 30
0.0
 10
13.8677573549
 20
38.2162009139
 30
0.0
 10
13.7058965342
 20
38.4216477479
 30
0.0
 10
13.5231666934
 20
38.5622655766
 30
0.0
 10
13.3505975779
 20
38.6442279956
 30
0.0
 10
13.2521787786
 20
38.6754562053
 30
0.0
 10
13.2111027033
 20
38.6864248418
 30
0.0
 11
14.0
 21
37.6952514293
 31
0.0
 11
13.9624005355
 21
37.967828283
 31
0.0
 11
13.8523109317
 21
38.2203343814
 31
0.0
 11
13.7033868242
 21
38.4094231896
 31
0.0
 11
13.4964478097
 21
38.5690895225
 31
0.0
 11
13.3325110009
 21
38.6474599985
 31
0.0
 11
13.2111027033
 21
38.6864248418
 31
0.0
  0
SPLINE
  5
3ED
100
AcDbEntity
  8
0
100
AcDbSpline
 62
7
  6
CONTINUOUS
 70
0
 71
3
 72
10
 73
6
 74
4
 42
0.0000001
 43
0.0000001
 44
0.0000000001
 12
-0.0
 22
-0.4834864405
 32
0.0
 13
-0.4739814676
 23
-0.0407129642
 33
0.0
 40
0.0
 40
0.0
 40
0.0
 40
0.0
 40
0.1908576466
 40
0.728429657
 40
1.0
 40
1.0
 40
1.0
 40
1.0
 10
11.85
 20
39.6721348149
 30
0.0
 10
11.85
 20
39.6413757868
 30
0.0
 10
11.6740366835
 20
39.6410633059
 30
0.0
 10
11.5486413675
 20
39.6109806025
 30
0.0
 10
11.4253715811
 20
39.5975536947
 30
0.0
 10
11.3824651445
 20
39.5938682168
 30
0.0
 11
11.85
 21
39.6721348149
 31
0.0
 11
11.7636001581
 21
39.6397291428
 31
0.0
 11
11.5056605365
 21
39.6077960184
 31
0.0
 11
11.3824651445
 21
39.5938682168
 31
0.0
  0
LINE
  5
3EE
100
AcDbEntity
  8
0
100
AcDbLine
 62
7
  6
CONTINUOUS
 10
11.3558731071
 20
39.5917001482
 11
11.3502824996
 21
39.5912721235
  0
LINE
  5
3EF
100
AcDbEntity
  8
0
100
AcDbLine
 62
7
  6
CONTINUOUS
 10
-11.3502824996
 20
39.5912721235
 11
-11.3558731071
 21
39.5917001482
  0
SPLINE
  5
3F0
100
AcDbEntity
  8
0
100
AcDbSpline
 62
7
  6
CONTINUOUS
 70
0
 71
3
 72
10
 73
6
 74
4
 42
0.0000001
 43
0.0000001
 44
0.0000000001
 12
-0.4739814676
 22
0.0407129642
 32
0.0
 13
0.0
 23
0.4834864405
 33
0.0
 40
0.0
 40
0.0
 40
0.0
 40
0.0
 40
0.271570343
 40
0.8091423534
 40
1.0
 40
1.0
 40
1.0
 40
1.0
 10
-11.3824651445
 20
39.5938682168
 30
0.0
 10
-11.4253715811
 20
39.5975536947
 30
0.0
 10
-11.5486413675
 20
39.6109806025
 30
0.0
 10
-11.6740366835
 20
39.6410633059
 30
0.0
 10
-11.85
 20
39.6413757868
 30
0.0
 10
-11.85
 20
39.6721348149
 30
0.0
 11
-11.3824651445
 21
39.5938682168
 31
0.0
 11
-11.5056605365
 21
39.6077960184
 31
0.0
 11
-11.7636001581
 21
39.6397291428
 31
0.0
 11
-11.85
 21
39.6721348149
 31
0.0
  0
SPLINE
  5
3F1
100
AcDbEntity
  8
0
100
AcDbSpline
 62
7
  6
CONTINUOUS
 70
0
 71
3
 72
10
 73
6
 74
4
 42
0.0000001
 43
0.0000001
 44
0.0000000001
 12
-0.0
 22
-0.6225357639
 32
0.0
 13
-0.6428204572
 23
-0.0294673959
 33
0.0
 40
0.0
 40
0.0
 40
0.0
 40
0.0
 40
0.146878117
 40
0.5635824006
 40
1.0
 40
1.0
 40
1.0
 40
1.0
 10
10.1
 20
41.4716715117
 30
0.0
 10
10.1
 20
41.4411925514
 30
0.0
 10
9.9229296158
 20
41.4457785179
 30
0.0
 10
9.7625500855
 20
41.4063584836
 30
0.0
 10
9.5843953441
 20
41.394648082
 30
0.0
 10
9.4908826239
 20
41.3903613853
 30
0.0
 11
10.1
 21
41.4716715117
 31
0.0
 11
10.0135930999
 21
41.4417624699
 31
0.0
 11
9.7558508455
 21
41.4123651802
 31
0.0
 11
9.4908826239
 21
41.3903613853
 31
0.0
  0
LINE
  5
3F2
100
AcDbEntity
  8
0
100
AcDbLine
 62
7
  6
CONTINUOUS
 10
9.4547969554
 20
41.3887873471
 11
9.4500958497
 21
41.3885924842
  0
LINE
  5
3F3
100
AcDbEntity
  8
0
100
AcDbLine
 62
7
  6
CONTINUOUS
 10
-9.4500958497
 20
41.3885924842
 11
-9.4547969554
 21
41.3887873471
  0
SPLINE
  5
3F4
100
AcDbEntity
  8
0
100
AcDbSpline
 62
7
  6
CONTINUOUS
 70
0
 71
3
 72
10
 73
6
 74
4
 42
0.0000001
 43
0.0000001
 44
0.0000000001
 12
-0.6428204572
 22
0.0294673959
 32
0.0
 13
0.0
 23
0.6225357639
 33
0.0
 40
0.0
 40
0.0
 40
0.0
 40
0.0
 40
0.4364175994
 40
0.853121883
 40
1.0
 40
1.0
 40
1.0
 40
1.0
 10
-9.4908826239
 20
41.3903613853
 30
0.0
 10
-9.5843953441
 20
41.394648082
 30
0.0
 10
-9.7625500855
 20
41.4063584836
 30
0.0
 10
-9.9229296158
 20
41.4457785179
 30
0.0
 10
-10.1
 20
41.4411925514
 30
0.0
 10
-10.1
 20
41.4716715117
 30
0.0
 11
-9.4908826239
 21
41.3903613853
 31
0.0
 11
-9.7558508455
 21
41.4123651802
 31
0.0
 11
-10.0135930999
 21
41.4417624699
 31
0.0
 11
-10.1
 21
41.4716715117
 31
0.0
  0
SPLINE
  5
3F5
100
AcDbEntity
  8
0
100
AcDbSpline
 62
7
  6
CONTINUOUS
 70
0
 71
3
 72
10
 73
6
 74
4
 42
0.0000001
 43
0.0000001
 44
0.0000000001
 12
-0.0
 22
-0.5086383938
 32
0.0
 13
-0.517852854
 23
-0.0272664614
 33
0.0
 40
0.0
 40
0.0
 40
0.0
 40
0.0
 40
0.1610940388
 40
0.6196636459
 40
1.0
 40
1.0
 40
1.0
 40
1.0
 10
8.35
 20
43.2712082085
 30
0.0
 10
8.35
 20
43.2438953374
 30
0.0
 10
8.190164605
 20
43.2502607383
 30
0.0
 10
8.0595549794
 20
43.2177422912
 30
0.0
 10
7.919940457
 20
43.2068606619
 30
0.0
 10
7.8542877015
 20
43.203403853
 30
0.0
 11
8.35
 21
43.2712082085
 31
0.0
 11
8.2722276494
 21
43.2454129026
 31
0.0
 11
8.0403593494
 21
43.2200981144
 31
0.0
 11
7.8542877015
 21
43.203403853
 31
0.0
  0
LINE
  5
3F6
100
AcDbEntity
  8
0
100
AcDbLine
 62
7
  6
CONTINUOUS
 10
7.8542877015
 20
43.203403853
 11
7.8501853465
 21
43.2031899133
  0
LINE
  5
3F7
100
AcDbEntity
  8
0
100
AcDbLine
 62
7
  6
CONTINUOUS
 10
-7.8501853465
 20
43.2031899133
 11
-7.8542877015
 21
43.203403853
  0
SPLINE
  5
3F8
100
AcDbEntity
  8
0
100
AcDbSpline
 62
7
  6
CONTINUOUS
 70
0
 71
3
 72
10
 73
6
 74
4
 42
0.0000001
 43
0.0000001
 44
0.0000000001
 12
-0.517852854
 22
0.0272664614
 32
0.0
 13
-0.0
 23
0.5086383938
 33
0.0
 40
0.0
 40
0.0
 40
0.0
 40
0.0
 40
0.3803363541
 40
0.8389059612
 40
1.0
 40
1.0
 40
1.0
 40
1.0
 10
-7.8542877015
 20
43.203403853
 30
0.0
 10
-7.919940457
 20
43.2068606619
 30
0.0
 10
-8.0595549794
 20
43.2177422912
 30
0.0
 10
-8.190164605
 20
43.2502607383
 30
0.0
 10
-8.35
 20
43.2438953374
 30
0.0
 10
-8.35
 20
43.2712082085
 30
0.0
 11
-7.8542877015
 21
43.203403853
 31
0.0
 11
-8.0403593494
 21
43.2200981144
 31
0.0
 11
-8.2722276494
 21
43.2454129026
 31
0.0
 11
-8.35
 21
43.2712082085
 31
0.0
  0
SPLINE
  5
3F9
100
AcDbEntity
  8
0
100
AcDbSpline
 62
7
  6
CONTINUOUS
 70
0
 71
3
 72
10
 73
6
 74
4
 42
0.0000001
 43
0.0000001
 44
0.0000000001
 12
-0.0
 22
-0.4972450617
 32
0.0
 13
-0.5145635336
 23
-0.0114193253
 33
0.0
 40
0.0
 40
0.0
 40
0.0
 40
0.0
 40
0.1165958762
 40
0.4522380988
 40
1.0
 40
1.0
 40
1.0
 40
1.0
 10
4.1
 20
45.0707449052
 30
0.0
 10
4.1
 20
45.0514193307
 30
0.0
 10
3.983946754
 20
45.062580105
 30
0.0
 10
3.8578282901
 20
45.0293885133
 30
0.0
 10
3.6997951464
 20
45.0285582222
 30
0.0
 10
3.6058423799
 20
45.0264731984
 30
0.0
 11
4.1
 21
45.0707449052
 31
0.0
 11
4.044081344
 21
45.0554346345
 31
0.0
 11
3.877850691
 21
45.040541988
 31
0.0
 11
3.6058423799
 21
45.0264731984
 31
0.0
  0
LINE
  5
3FA
100
AcDbEntity
  8
0
100
AcDbLine
 62
7
  6
CONTINUOUS
 10
3.6058423799
 20
45.0264731984
 11
3.6017435452
 21
45.0263811873
  0
LINE
  5
3FB
100
AcDbEntity
  8
0
100
AcDbLine
 62
7
  6
CONTINUOUS
 10
-3.6017435452
 20
45.0263811873
 11
-3.6058423799
 21
45.0264731984
  0
SPLINE
  5
3FC
100
AcDbEntity
  8
0
100
AcDbSpline
 62
7
  6
CONTINUOUS
 70
0
 71
3
 72
10
 73
6
 74
4
 42
0.0000001
 43
0.0000001
 44
0.0000000001
 12
-0.5145635336
 22
0.0114193253
 32
0.0
 13
0.0
 23
0.4972450617
 33
0.0
 40
0.0
 40
0.0
 40
0.0
 40
0.0
 40
0.5477619012
 40
0.8834041238
 40
1.0
 40
1.0
 40
1.0
 40
1.0
 10
-3.6058423799
 20
45.0264731984
 30
0.0
 10
-3.6997951464
 20
45.0285582222
 30
0.0
 10
-3.8578282901
 20
45.0293885133
 30
0.0
 10
-3.983946754
 20
45.062580105
 30
0.0
 10
-4.1
 20
45.0514193307
 30
0.0
 10
-4.1
 20
45.0707449052
 30
0.0
 11
-3.6058423799
 21
45.0264731984
 31
0.0
 11
-3.877850691
 21
45.040541988
 31
0.0
 11
-4.044081344
 21
45.0554346345
 31
0.0
 11
-4.1
 21
45.0707449052
 31
0.0
  0
SPLINE
  5
3FD
100
AcDbEntity
  8
0
100
AcDbSpline
 62
7
  6
CONTINUOUS
 70
0
 71
3
 72
20
 73
16
 74
14
 42
0.0000001
 43
0.0000001
 44
0.0000000001
 12
-0.9535426023
 22
1.2117111228
 32
0.0
 13
-0.9535426023
 23
-1.2117111228
 33
0.0
 40
0.0
 40
0.0
 40
0.0
 40
0.0
 40
0.0123596862
 40
0.0553578501
 40
0.1241536295
 40
0.2147717897
 40
0.3219551275
 40
0.4394799193
 40
0.5605200807
 40
0.6780448725
 40
0.7852282103
 40
0.8758463705
 40
0.9446421499
 40
0.9876403138
 40
1.0
 40
1.0
 40
1.0
 40
1.0
 10
0.9987749934
 20
46.4743281914
 30
0.0
 10
0.9948464977
 20
46.4793203145
 30
0.0
 10
0.9380452887
 20
46.4694844918
 30
0.0
 10
0.8763054372
 20
46.4872756
 30
0.0
 10
0.7306302968
 20
46.4838356023
 30
0.0
 10
0.5582918316
 20
46.4902829939
 30
0.0
 10
0.3473479548
 20
46.4916310218
 30
0.0
 10
0.118343947
 20
46.4931819522
 30
0.0
 10
-0.118343947
 20
46.4931819522
 30
0.0
 10
-0.3473479548
 20
46.4916310218
 30
0.0
 10
-0.5582918316
 20
46.4902829939
 30
0.0
 10
-0.7306302968
 20
46.4838356023
 30
0.0
 10
-0.8763054372
 20
46.4872756
 30
0.0
 10
-0.9380452887
 20
46.4694844918
 30
0.0
 10
-0.9948464977
 20
46.4793203145
 30
0.0
 10
-0.9987749934
 20
46.4743281914
 30
0.0
 11
0.9987749934
 21
46.4743281914
 31
0.0
 11
0.9709418174
 21
46.4758139926
 31
0.0
 11
0.8854560257
 21
46.4809278879
 31
0.0
 11
0.7485107482
 21
46.4854290432
 31
0.0
 11
0.5680647467
 21
46.4890558678
 31
0.0
 11
0.354604887
 21
46.4915975837
 31
0.0
 11
0.1205366803
 21
46.4929064757
 31
0.0
 11
-0.1205366803
 21
46.4929064757
 31
0.0
 11
-0.354604887
 21
46.4915975837
 31
0.0
 11
-0.5680647467
 21
46.4890558678
 31
0.0
 11
-0.7485107482
 21
46.4854290432
 31
0.0
 11
-0.8854560257
 21
46.4809278879
 31
0.0
 11
-0.9709418174
 21
46.4758139926
 31
0.0
 11
-0.9987749934
 21
46.4743281914
 31
0.0
  0
SPLINE
  5
3FE
100
AcDbEntity
  8
0
100
AcDbSpline
 62
7
  6
CONTINUOUS
 70
0
 71
3
 72
28
 73
24
 74
22
 42
0.0000001
 43
0.0000001
 44
0.0000000001
 12
-12.825883104
 22
2.5385885011
 32
0.0
 13
-12.825883104
 23
-2.5385885011
 33
0.0
 40
0.0
 40
0.0
 40
0.0
 40
0.0
 40
0.0030499627
 40
0.0198397661
 40
0.0473163435
 40
0.0848866587
 40
0.1317188864
 40
0.1867705817
 40
0.248814227
 40
0.3164654248
 40
0.3882141522
 40
0.4624586582
 40
0.5375413418
 40
0.6117858478
 40
0.6835345752
 40
0.751185773
 40
0.8132294183
 40
0.8682811136
 40
0.9151133413
 40
0.9526836565
 40
0.9801602339
 40
0.9969500373
 40
1.0
 40
1.0
 40
1.0
 40
1.0
 10
5.9797289128
 20
44.5897161797
 30
0.0
 10
5.9666894242
 20
44.5922970465
 30
0.0
 10
5.8529737416
 20
44.5870095854
 30
0.0
 10
5.7087733428
 20
44.6238949132
 30
0.0
 10
5.3577795205
 20
44.6289980502
 30
0.0
 10
4.9236462497
 20
44.6510791444
 30
0.0
 10
4.364555202
 20
44.6644587073
 30
0.0
 10
3.7134625382
 20
44.678597228
 30
0.0
 10
2.977577779
 20
44.6895736677
 30
0.0
 10
2.1757698722
 20
44.6982839456
 30
0.0
 10
1.3251829374
 20
44.7041450512
 30
0.0
 10
0.4450475715
 20
44.7071260167
 30
0.0
 10
-0.4450475715
 20
44.7071260167
 30
0.0
 10
-1.3251829374
 20
44.7041450512
 30
0.0
 10
-2.1757698722
 20
44.6982839456
 30
0.0
 10
-2.977577779
 20
44.6895736677
 30
0.0
 10
-3.7134625382
 20
44.678597228
 30
0.0
 10
-4.364555202
 20
44.6644587073
 30
0.0
 10
-4.9236462497
 20
44.6510791444
 30
0.0
 10
-5.3577795205
 20
44.6289980502
 30
0.0
 10
-5.7087733428
 20
44.6238949132
 30
0.0
 10
-5.8529737416
 20
44.5870095854
 30
0.0
 10
-5.9666894242
 20
44.5922970465
 30
0.0
 10
-5.9797289128
 20
44.5897161797
 30
0.0
 11
5.9797289128
 21
44.5897161797
 31
0.0
 11
5.9329849574
 21
44.5911618302
 31
0.0
 11
5.7334368347
 21
44.6109968544
 31
0.0
 11
5.4058132074
 21
44.6299355913
 31
0.0
 11
4.9574326459
 21
44.647554981
 31
0.0
 11
4.398311231
 21
44.6634614353
 31
0.0
 11
3.7409388112
 21
44.6772996304
 31
0.0
 11
3.0
 21
44.6887604439
 31
0.0
 11
2.1920461462
 21
44.6975878601
 31
0.0
 11
1.3351256037
 21
44.7035846891
 31
0.0
 11
0.4483805615
 21
44.7066169717
 31
0.0
 11
-0.4483805615
 21
44.7066169717
 31
0.0
 11
-1.3351256037
 21
44.7035846891
 31
0.0
 11
-2.1920461462
 21
44.6975878601
 31
0.0
 11
-3.0
 21
44.6887604439
 31
0.0
 11
-3.7409388112
 21
44.6772996304
 31
0.0
 11
-4.398311231
 21
44.6634614353
 31
0.0
 11
-4.9574326459
 21
44.647554981
 31
0.0
 11
-5.4058132074
 21
44.6299355913
 31
0.0
 11
-5.7334368347
 21
44.6109968544
 31
0.0
 11
-5.9329849574
 21
44.5911618302
 31
0.0
 11
-5.9797289128
 21
44.5897161797
 31
0.0
  0
SPLINE
  5
3FF
100
AcDbEntity
  8
RACCORDO
100
AcDbSpline
 62
253
  6
CONTINUOUS
 70
0
 71
3
 72
30
 73
26
 74
24
 42
0.0000001
 43
0.0000001
 44
0.0000000001
 12
30.1542560907
 22
4.856544337
 32
0.0
 13
30.1598411175
 23
-4.8522942995
 33
0.0
 40
0.0
 40
0.0
 40
0.0
 40
0.0
 40
0.0022560601
 40
0.0162136558
 40
0.0391701545
 40
0.0707353403
 40
0.1102404253
 40
0.1570849504
 40
0.2102165846
 40
0.2688742038
 40
0.3316928715
 40
0.3978116479
 40
0.4656600465
 40
0.5343298657
 40
0.6021785847
 40
0.6682985214
 40
0.7311180572
 40
0.7897776737
 40
0.8429104592
 40
0.8897572319
 40
0.9292633634
 40
0.9608304953
 40
0.9837872685
 40
0.9977448102
 40
1.0
 40
1.0
 40
1.0
 40
1.0
 10
-13.2130721001
 20
38.6984904067
 30
0.0
 10
-13.190395495
 20
38.7021426254
 30
0.0
 10
-12.9884033804
 20
38.6987083107
 30
0.0
 10
-12.7227550652
 20
38.7647695629
 30
0.0
 10
-12.074798614
 20
38.7802270948
 30
0.0
 10
-11.2679624574
 20
38.8237930773
 30
0.0
 10
-10.2232060929
 20
38.8529861437
 30
0.0
 10
-8.99860203
 20
38.8833894088
 30
0.0
 10
-7.6018825673
 20
38.908414876
 30
0.0
 10
-6.0655987126
 20
38.9294773775
 30
0.0
 10
-4.414613601
 20
38.9455452429
 30
0.0
 10
-2.6827999708
 20
38.9564609768
 30
0.0
 10
-0.8994365392
 20
38.961970909
 30
0.0
 10
0.8991499177
 20
38.9619713489
 30
0.0
 10
2.682526383
 20
38.9564622686
 30
0.0
 10
4.4143606892
 20
38.9455472757
 30
0.0
 10
6.065381239
 20
38.9294799337
 30
0.0
 10
7.6017004425
 20
38.9084177861
 30
0.0
 10
8.9984674355
 20
38.8833922694
 30
0.0
 10
10.2231104874
 20
38.852988774
 30
0.0
 10
11.2679133499
 20
38.8237950516
 30
0.0
 10
12.0747769736
 20
38.7802278371
 30
0.0
 10
12.722753826
 20
38.7647698628
 30
0.0
 10
12.9883980349
 20
38.6987098035
 30
0.0
 10
13.1903736866
 20
38.7021422852
 30
0.0
 10
13.2130457422
 20
38.6984946703
 30
0.0
 11
-13.2130721001
 21
38.6984904067
 31
0.0
 11
-13.1359647267
 21
38.7017828129
 31
0.0
 11
-12.769640138
 21
38.7418833762
 31
0.0
 11
-12.16477191
 21
38.7805806088
 31
0.0
 11
-11.3321778432
 21
38.8170894394
 31
0.0
 11
-10.28969151
 21
38.8506340145
 31
0.0
 11
-9.0532528123
 21
38.8806972469
 31
0.0
 11
-7.6506936901
 21
38.9066055177
 31
0.0
 11
-6.1021440489
 21
38.9279847871
 31
0.0
 11
-4.4436661326
 21
38.9443388576
 31
0.0
 11
-2.6980123702
 21
38.9554422191
 31
0.0
 11
-0.9066659801
 21
38.9610317586
 31
0.0
 11
0.9063765392
 21
38.9610322076
 31
0.0
 11
2.6977313917
 21
38.9554435438
 31
0.0
 11
4.4434157924
 21
38.9443408758
 31
0.0
 11
6.1019166373
 21
38.9279874603
 31
0.0
 11
7.6505190194
 21
38.9066083145
 31
0.0
 11
9.0531085482
 21
38.8807003032
 31
0.0
 11
10.2896065872
 21
38.850636382
 31
0.0
 11
11.3321205593
 21
38.8170915744
 31
0.0
 11
12.1647659736
 21
38.7805809187
 31
0.0
 11
12.7696414376
 21
38.7418832595
 31
0.0
 11
13.1359646085
 21
38.7017828387
 31
0.0
 11
13.2130457422
 21
38.6984946703
 31
0.0
  0
SPLINE
  5
400
100
AcDbEntity
  8
RACCORDO
100
AcDbSpline
 62
253
  6
CONTINUOUS
 70
0
 71
3
 72
28
 73
24
 74
22
 42
0.0000001
 43
0.0000001
 44
0.0000000001
 12
-0.0000000008
 22
16.7160057485
 32
0.0
 13
0.0000000009
 23
-16.7160057485
 33
0.0
 40
0.0
 40
0.0
 40
0.0
 40
0.0
 40
0.0035862175
 40
0.0154579602
 40
0.0387116056
 40
0.0735615958
 40
0.1194557049
 40
0.175048851
 40
0.2384974127
 40
0.3086241714
 40
0.3832645591
 40
0.4610301806
 40
0.5395187491
 40
0.6172710976
 40
0.6918849796
 40
0.7619730797
 40
0.8253710816
 40
0.8809031681
 40
0.9267159951
 40
0.9614642548
 40
0.984619252
 40
0.9964307606
 40
1.0
 40
1.0
 40
1.0
 40
1.0
 10
-8.35
 20
43.7112162267
 30
0.0
 10
-8.35
 20
43.7311986374
 30
0.0
 10
-8.2227428774
 20
43.7338026246
 30
0.0
 10
-8.0543501012
 20
43.7718098419
 30
0.0
 10
-7.6344993507
 20
43.7853841741
 30
0.0
 10
-7.0704080854
 20
43.815032411
 30
0.0
 10
-6.3050629848
 20
43.8359572106
 30
0.0
 10
-5.3884118107
 20
43.8571247194
 30
0.0
 10
-4.3337904506
 20
43.8739779716
 30
0.0
 10
-3.1739042992
 20
43.8872864698
 30
0.0
 10
-1.9339154008
 20
43.8962926353
 30
0.0
 10
-0.6473955818
 20
43.9008607908
 30
0.0
 10
0.6565021971
 20
43.9008446718
 30
0.0
 10
1.9428002433
 20
43.8962447494
 30
0.0
 10
3.1823518891
 20
43.8872078929
 30
0.0
 10
4.3415928205
 20
43.8738711663
 30
0.0
 10
5.3953762002
 20
43.8569911774
 30
0.0
 10
6.3109533031
 20
43.8358069224
 30
0.0
 10
7.0749275855
 20
43.8148604671
 30
0.0
 10
7.6374951049
 20
43.7852584267
 30
0.0
 10
8.0557490465
 20
43.771620436
 30
0.0
 10
8.2234250604
 20
43.7338134577
 30
0.0
 10
8.35
 20
43.7311040353
 30
0.0
 10
8.35
 20
43.7112162267
 30
0.0
 11
-8.35
 21
43.7112162267
 31
0.0
 11
-8.29418343
 21
43.7330835797
 31
0.0
 11
-8.097239873
 21
43.7574739791
 31
0.0
 11
-7.7094367452
 21
43.7839824207
 31
0.0
 11
-7.1274611179
 21
43.8099043098
 31
0.0
 11
-6.3606717594
 21
43.8339468554
 31
0.0
 11
-5.4316171365
 21
43.8550976393
 31
0.0
 11
-4.3711554399
 21
43.872624293
 31
0.0
 11
-3.1989947688
 21
43.886201519
 31
0.0
 11
-1.9513396003
 21
43.8954099568
 31
0.0
 11
-0.6514174061
 21
43.9000781003
 31
0.0
 11
0.6605979568
 21
43.9000616861
 31
0.0
 11
1.9602981601
 21
43.8953609873
 31
0.0
 11
3.2075100158
 21
43.8861212666
 31
0.0
 11
4.3790240833
 21
43.8725144724
 31
0.0
 11
5.4386400644
 21
43.854961023
 31
0.0
 11
6.3666732087
 21
43.8337865795
 31
0.0
 11
7.1321027951
 21
43.8097315504
 31
0.0
 11
7.7123767493
 21
43.7838218837
 31
0.0
 11
8.0985300361
 21
43.7573575759
 31
0.0
 11
8.2944665789
 21
43.7330282303
 31
0.0
 11
8.35
 21
43.7112162267
 31
0.0
  0
SPLINE
  5
401
100
AcDbEntity
  8
RACCORDO
100
AcDbSpline
 62
253
  6
CONTINUOUS
 70
0
 71
3
 72
30
 73
26
 74
24
 42
0.0000001
 43
0.0000001
 44
0.0000000001
 12
-0.0000000004
 22
23.7231556647
 32
0.0
 13
0.0000000004
 23
-23.7231556647
 33
0.0
 40
0.0
 40
0.0
 40
0.0
 40
0.0
 40
0.0030675866
 40
0.0131174658
 40
0.0327655229
 40
0.0620566095
 40
0.1005472725
 40
0.147326325
 40
0.2011326894
 40
0.2611503559
 40
0.3258570163
 40
0.3942689536
 40
0.4646497486
 40
0.5359296914
 40
0.6062989859
 40
0.6746882694
 40
0.7393612454
 40
0.7993351781
 40
0.8530881344
 40
0.8998055384
 40
0.9382172957
 40
0.9674060076
 40
0.9869557018
 40
0.9969484099
 40
1.0
 40
1.0
 40
1.0
 40
1.0
 10
-11.85
 20
40.0987488219
 30
0.0
 10
-11.85
 20
40.1230064335
 30
0.0
 10
-11.6987300668
 20
40.1309976951
 30
0.0
 10
-11.4947206736
 20
40.1756814415
 30
0.0
 10
-10.9938972774
 20
40.1968907702
 30
0.0
 10
-10.3203425448
 20
40.234283993
 30
0.0
 10
-9.4080525563
 20
40.2630414977
 30
0.0
 10
-8.311101456
 20
40.2918265868
 30
0.0
 10
-7.0405040233
 20
40.3160458201
 30
0.0
 10
-5.629133583
 20
40.3363610596
 30
0.0
 10
-4.1018638176
 20
40.3519264567
 30
0.0
 10
-2.4927022692
 20
40.3625005346
 30
0.0
 10
-0.8315054106
 20
40.3678338317
 30
0.0
 10
0.8451677978
 20
40.3678119256
 30
0.0
 10
2.5060944387
 20
40.3624352013
 30
0.0
 10
4.1147192414
 20
40.3518190985
 30
0.0
 10
5.6411972385
 20
40.3362136482
 30
0.0
 10
7.051532542
 20
40.3158620731
 30
0.0
 10
8.3208730533
 20
40.2916084342
 30
0.0
 10
9.4162918403
 20
40.2628026459
 30
0.0
 10
10.3266445316
 20
40.2340189933
 30
0.0
 10
10.9980540509
 20
40.1966925898
 30
0.0
 10
11.496633823
 20
40.1754114561
 30
0.0
 10
11.699644744
 20
40.1309931429
 30
0.0
 10
11.85
 20
40.1228799375
 30
0.0
 10
11.85
 20
40.0987488219
 30
0.0
 11
-11.85
 21
40.0987488219
 31
0.0
 11
-11.7830555878
 21
40.1272853099
 31
0.0
 11
-11.5467833463
 21
40.1591768138
 31
0.0
 11
-11.0819691583
 21
40.1939612122
 31
0.0
 11
-10.3879319113
 21
40.2281131306
 31
0.0
 11
-9.4753757018
 21
40.2601955558
 31
0.0
 11
-8.3660067508
 21
40.289150074
 31
0.0
 11
-7.0897951797
 21
40.3141677792
 31
0.0
 11
-5.66613723
 21
40.3348686992
 31
0.0
 11
-4.131172972
 21
40.3507272942
 31
0.0
 11
-2.5082617017
 21
40.3615021571
 31
0.0
 11
-0.8386159351
 21
40.3669196532
 31
0.0
 11
0.8523692416
 21
40.3668973332
 31
0.0
 11
2.5217420359
 21
40.361435735
 31
0.0
 11
4.1441155894
 21
40.3506178798
 31
0.0
 11
5.6782802804
 21
40.3347185049
 31
0.0
 11
7.1009000612
 21
40.313979431
 31
0.0
 11
8.3758437035
 21
40.2889273402
 31
0.0
 11
9.4837488634
 21
40.2599423013
 31
0.0
 11
10.3944314651
 21
40.2278441295
 31
0.0
 11
11.0860383416
 21
40.1937170743
 31
0.0
 11
11.5485179972
 21
40.1590059487
 31
0.0
 11
11.7834338398
 21
40.1272048049
 31
0.0
 11
11.85
 21
40.0987488219
 31
0.0
  0
SPLINE
  5
402
100
AcDbEntity
  8
RACCORDO
100
AcDbSpline
 62
253
  6
CONTINUOUS
 70
0
 71
3
 72
28
 73
24
 74
22
 42
0.0000001
 43
0.0000001
 44
0.0000000001
 12
20.0728098576
 22
2.5021908391
 32
0.0
 13
20.0796010878
 23
-2.508982959
 33
0.0
 40
0.0
 40
0.0
 40
0.0
 40
0.0
 40
0.0012099547
 40
0.0131385526
 40
0.0365032593
 40
0.0715198254
 40
0.1176332604
 40
0.173492095
 40
0.2372438962
 40
0.3077058072
 40
0.3827029247
 40
0.4608402118
 40
0.5397039021
 40
0.6178278535
 40
0.6927983389
 40
0.7632214087
 40
0.826922409
 40
0.8827198942
 40
0.9287516615
 40
0.9636660077
 40
0.9869316052
 40
0.998799663
 40
1.0
 40
1.0
 40
1.0
 40
1.0
 10
-8.0989536191
 20
44.0204321547
 30
0.0
 10
-8.0908578889
 20
44.0214413339
 30
0.0
 10
-7.9936911525
 20
44.0251807209
 30
0.0
 10
-7.8398682942
 20
44.0598999007
 30
0.0
 10
-7.4311975302
 20
44.0731121787
 30
0.0
 10
-6.882128021
 20
44.1019713006
 30
0.0
 10
-6.1371635264
 20
44.1223386399
 30
0.0
 10
-5.2449222384
 20
44.1429425012
 30
0.0
 10
-4.2183847452
 20
44.1593469689
 30
0.0
 10
-3.0893855383
 20
44.1723010092
 30
0.0
 10
-1.88241666
 20
44.1810673774
 30
0.0
 10
-0.6301559136
 20
44.1855138513
 30
0.0
 10
0.6390200304
 20
44.1854981692
 30
0.0
 10
1.8910649151
 20
44.1810207484
 30
0.0
 10
3.0976082014
 20
44.1722245209
 30
0.0
 10
4.2259793853
 20
44.1592429821
 30
0.0
 10
5.2517012381
 20
44.1428124947
 30
0.0
 10
6.1428970863
 20
44.1221923341
 30
0.0
 10
6.8865272747
 20
44.1018038773
 30
0.0
 10
7.4341136722
 20
44.0729897867
 30
0.0
 10
7.8412300876
 20
44.0597154573
 30
0.0
 10
7.9943837388
 20
44.0251825325
 30
0.0
 10
8.0909873177
 20
44.0213790724
 30
0.0
 10
8.0990214137
 20
44.0203751974
 30
0.0
 11
-8.0989536191
 21
44.0204321547
 31
0.0
 11
-8.0733158598
 21
44.0222043363
 31
0.0
 11
-7.8816149221
 21
44.0459457029
 31
0.0
 11
-7.5041399034
 21
44.0717479449
 31
0.0
 11
-6.937661587
 21
44.0969796326
 31
0.0
 11
-6.1912915259
 21
44.1203818771
 31
0.0
 11
-5.2869770777
 21
44.1409693946
 31
0.0
 11
-4.2547547094
 21
44.1580293279
 31
0.0
 11
-3.1138078966
 21
44.1712449657
 31
0.0
 11
-1.8993768619
 21
44.1802081931
 31
0.0
 11
-0.6340706455
 21
44.1847520104
 31
0.0
 11
0.6430067247
 21
44.1847360341
 31
0.0
 11
1.9080968738
 21
44.180160516
 31
0.0
 11
3.1220964057
 21
44.1711668404
 31
0.0
 11
4.262413866
 21
44.1579224101
 31
0.0
 11
5.293813049
 21
44.1408363954
 31
0.0
 11
6.197133253
 21
44.120225841
 31
0.0
 11
6.9421797975
 21
44.0968114354
 31
0.0
 11
7.5070017053
 21
44.07159166
 31
0.0
 11
7.8828709833
 21
44.0458323356
 31
0.0
 11
8.0735914352
 21
44.0221504693
 31
0.0
 11
8.0990214137
 21
44.0203751974
 31
0.0
  0
SPLINE
  5
403
100
AcDbEntity
  8
RACCORDO
100
AcDbSpline
 62
253
  6
CONTINUOUS
 70
0
 71
3
 72
16
 73
12
 74
10
 42
0.0000001
 43
0.0000001
 44
0.0000000001
 12
-0.0000000005
 22
8.3203528672
 32
0.0
 13
8.3199764271
 23
0.0840016988
 33
0.0
 40
0.0
 40
0.0
 40
0.0
 40
0.0
 40
0.0164305289
 40
0.0631967077
 40
0.1401150213
 40
0.24587754
 40
0.378243575
 40
0.5352011877
 40
0.7132244296
 40
0.9097630812
 40
1.0
 40
1.0
 40
1.0
 40
1.0
 10
-14.0
 20
37.6952514293
 30
0.0
 10
-14.0
 20
37.7408206953
 30
0.0
 10
-13.7334277831
 20
37.730428271
 30
0.0
 10
-13.4339692882
 20
37.8048969272
 30
0.0
 10
-12.7497919678
 20
37.821218918
 30
0.0
 10
-11.8978526136
 20
37.867220054
 30
0.0
 10
-10.7946933925
 20
37.8980451489
 30
0.0
 10
-9.5016327276
 20
37.9301479634
 30
0.0
 10
-8.0268352622
 20
37.9565723782
 30
0.0
 10
-6.7380748289
 20
37.9742413396
 30
0.0
 10
-5.9427769557
 20
37.9829158088
 30
0.0
 10
-5.6925206098
 20
37.9854424936
 30
0.0
 11
-14.0
 21
37.6952514293
 31
0.0
 11
-13.8702767839
 21
37.7383896865
 31
0.0
 11
-13.4834762769
 21
37.7807314398
 31
0.0
 11
-12.8447944922
 21
37.8215920821
 31
0.0
 11
-11.9656578014
 21
37.8601417416
 31
0.0
 11
-10.8648953947
 21
37.8955615072
 31
0.0
 11
-9.5593385307
 21
37.927305312
 31
0.0
 11
-8.0783749851
 21
37.9546618776
 31
0.0
 11
-6.4432598754
 21
37.977236279
 31
0.0
 11
-5.6925206098
 21
37.9854424936
 31
0.0
  0
SPLINE
  5
404
100
AcDbEntity
  8
RACCORDO
100
AcDbSpline
 62
253
  6
CONTINUOUS
 70
0
 71
3
 72
14
 73
10
 74
8
 42
0.0000001
 43
0.0000001
 44
0.0000000001
 12
11.3868776135
 22
0.1149663189
 32
0.0
 13
11.3868754023
 23
-0.1150208947
 33
0.0
 40
0.0
 40
0.0
 40
0.0
 40
0.0
 40
0.0878577387
 40
0.2497275222
 40
0.415831708
 40
0.5839468685
 40
0.7500518388
 40
0.9119244625
 40
1.0
 40
1.0
 40
1.0
 40
1.0
 10
-5.6925206098
 20
37.9854424936
 30
0.0
 10
-5.359045504
 20
37.9888093872
 30
0.0
 10
-4.4111349511
 20
37.9973557799
 30
0.0
 10
-2.8327711166
 20
38.0073043217
 30
0.0
 10
-0.9497159216
 20
38.0131222581
 30
0.0
 10
0.9494132774
 20
38.0131227247
 30
0.0
 10
2.8324822338
 20
38.0073056846
 30
0.0
 10
4.4116865259
 20
37.9973526434
 30
0.0
 10
5.3604346021
 20
37.9887969598
 30
0.0
 10
5.6947363259
 20
37.9854201174
 30
0.0
 11
-5.6925206098
 21
37.9854424936
 31
0.0
 11
-4.6920714252
 21
37.9945045548
 31
0.0
 11
-2.8488339005
 21
38.006228611
 31
0.0
 11
-0.9573494957
 21
38.0121306097
 31
0.0
 11
0.9570438744
 21
38.0121310847
 31
0.0
 11
2.848537215
 21
38.0062300098
 31
0.0
 11
4.6918070878
 21
37.9945066877
 31
0.0
 11
5.6947363259
 21
37.9854201174
 31
0.0
  0
SPLINE
  5
405
100
AcDbEntity
  8
RACCORDO
100
AcDbSpline
 62
253
  6
CONTINUOUS
 70
0
 71
3
 72
16
 73
12
 74
10
 42
0.0000001
 43
0.0000001
 44
0.0000000001
 12
8.3177590956
 22
-0.084019194
 32
0.0
 13
0.0000000005
 23
-8.3181370507
 33
0.0
 40
0.0
 40
0.0
 40
0.0
 40
0.0
 40
0.0899657031
 40
0.2865634029
 40
0.4646379258
 40
0.6216448816
 40
0.7540496835
 40
0.8598468994
 40
0.9367866158
 40
0.983565087
 40
1.0
 40
1.0
 40
1.0
 40
1.0
 10
5.6947363259
 20
37.9854201174
 30
0.0
 10
5.9441740076
 20
37.9829005021
 30
0.0
 10
6.7386717001
 20
37.9742328905
 30
0.0
 10
8.0266429505
 20
37.9565754543
 30
0.0
 10
9.5014906002
 20
37.9301509866
 30
0.0
 10
10.7945924297
 20
37.8980479276
 30
0.0
 10
11.8978007504
 20
37.8672221482
 30
0.0
 10
12.7497690884
 20
37.8212196946
 30
0.0
 10
13.4339679825
 20
37.8048972629
 30
0.0
 10
13.7334284077
 20
37.7304282869
 30
0.0
 10
14.0
 20
37.7408207156
 30
0.0
 10
14.0
 20
37.6952514293
 30
0.0
 11
5.6947363259
 21
37.9854201174
 31
0.0
 11
6.4430197486
 21
37.9772391029
 31
0.0
 11
8.0781905425
 21
37.9546648334
 31
0.0
 11
9.5591861943
 21
37.9273085415
 31
0.0
 11
10.864805713
 21
37.8955640104
 31
0.0
 11
11.9655972967
 21
37.8601440007
 31
0.0
 11
12.8447882206
 21
37.8215924101
 31
0.0
 11
13.4834775874
 21
37.7807313311
 31
0.0
 11
13.8702767236
 21
37.7383896983
 31
0.0
 11
14.0
 21
37.6952514293
 31
0.0
  0
SPLINE
  5
406
100
AcDbEntity
  8
0
100
AcDbSpline
 62
7
  6
CONTINUOUS
 70
0
 71
3
 72
10
 73
6
 74
4
 42
0.0000001
 43
0.0000001
 44
0.0000000001
 12
0.0
 22
0.4972450617
 32
0.0
 13
-0.5145635336
 23
0.0114193253
 33
0.0
 40
0.0
 40
0.0
 40
0.0
 40
0.0
 40
0.1165958762
 40
0.4522380988
 40
1.0
 40
1.0
 40
1.0
 40
1.0
 10
4.1
 20
45.0707449052
 30
0.0
 10
4.1
 20
45.0900704798
 30
0.0
 10
3.983946754
 20
45.0789097055
 30
0.0
 10
3.8578282901
 20
45.1121012972
 30
0.0
 10
3.6997951464
 20
45.1129315883
 30
0.0
 10
3.6058423799
 20
45.115016612
 30
0.0
 11
4.1
 21
45.0707449052
 31
0.0
 11
4.044081344
 21
45.086055176
 31
0.0
 11
3.877850691
 21
45.1009478224
 31
0.0
 11
3.6058423799
 21
45.115016612
 31
0.0
  0
SPLINE
  5
407
100
AcDbEntity
  8
0
100
AcDbSpline
 62
7
  6
CONTINUOUS
 70
0
 71
3
 72
20
 73
16
 74
14
 42
0.0000001
 43
0.0000001
 44
0.0000000001
 12
-7.4639250831
 22
0.165641331
 32
0.0
 13
-7.4639250831
 23
-0.165641331
 33
0.0
 40
0.0
 40
0.0
 40
0.0
 40
0.0
 40
0.0513800355
 40
0.1149845076
 40
0.189082865
 40
0.2716566432
 40
0.3604554116
 40
0.4530585449
 40
0.5469414551
 40
0.6395445884
 40
0.7283433568
 40
0.810917135
 40
0.8850154924
 40
0.9486199645
 40
1.0
 40
1.0
 40
1.0
 40
1.0
 10
3.6058423799
 20
45.115016612
 30
0.0
 10
3.4780101347
 20
45.1178534979
 30
0.0
 10
3.208656388
 20
45.1307074204
 30
0.0
 10
2.7507669276
 20
45.1397950697
 30
0.0
 10
2.2223999492
 20
45.1495557297
 30
0.0
 10
1.6319049183
 20
45.1564846201
 30
0.0
 10
0.9973714707
 20
45.1614110955
 30
0.0
 10
0.3354905845
 20
45.1638669068
 30
0.0
 10
-0.3354905845
 20
45.1638669068
 30
0.0
 10
-0.9973714707
 20
45.1614110955
 30
0.0
 10
-1.6319049183
 20
45.1564846201
 30
0.0
 10
-2.2223999492
 20
45.1495557297
 30
0.0
 10
-2.7507669276
 20
45.1397950697
 30
0.0
 10
-3.208656388
 20
45.1307074204
 30
0.0
 10
-3.4780101347
 20
45.1178534979
 30
0.0
 10
-3.6058423799
 20
45.115016612
 30
0.0
 11
3.6058423799
 21
45.115016612
 31
0.0
 11
3.2354760885
 21
45.1278777849
 31
0.0
 11
2.7768544437
 21
45.1391805217
 31
0.0
 11
2.2424874483
 21
45.1486165133
 31
0.0
 11
1.6469512411
 21
45.1559283705
 31
0.0
 11
1.0064904973
 21
45.1609166447
 31
0.0
 11
0.3385753164
 21
45.163445269
 31
0.0
 11
-0.3385753164
 21
45.163445269
 31
0.0
 11
-1.0064904973
 21
45.1609166447
 31
0.0
 11
-1.6469512411
 21
45.1559283705
 31
0.0
 11
-2.2424874483
 21
45.1486165133
 31
0.0
 11
-2.7768544437
 21
45.1391805217
 31
0.0
 11
-3.2354760885
 21
45.1278777849
 31
0.0
 11
-3.6058423799
 21
45.115016612
 31
0.0
  0
SPLINE
  5
408
100
AcDbEntity
  8
0
100
AcDbSpline
 62
7
  6
CONTINUOUS
 70
0
 71
3
 72
10
 73
6
 74
4
 42
0.0000001
 43
0.0000001
 44
0.0000000001
 12
-0.5145635336
 22
-0.0114193253
 32
0.0
 13
-0.0
 23
-0.4972450617
 33
0.0
 40
0.0
 40
0.0
 40
0.0
 40
0.0
 40
0.5477619012
 40
0.8834041238
 40
1.0
 40
1.0
 40
1.0
 40
1.0
 10
-3.6058423799
 20
45.115016612
 30
0.0
 10
-3.6997951464
 20
45.1129315883
 30
0.0
 10
-3.8578282901
 20
45.1121012972
 30
0.0
 10
-3.983946754
 20
45.0789097055
 30
0.0
 10
-4.1
 20
45.0900704798
 30
0.0
 10
-4.1
 20
45.0707449052
 30
0.0
 11
-3.6058423799
 21
45.115016612
 31
0.0
 11
-3.877850691
 21
45.1009478224
 31
0.0
 11
-4.044081344
 21
45.086055176
 31
0.0
 11
-4.1
 21
45.0707449052
 31
0.0
  0
SPLINE
  5
409
100
AcDbEntity
  8
0
100
AcDbSpline
 62
7
  6
CONTINUOUS
 70
0
 71
3
 72
25
 73
21
 74
19
 42
0.0000001
 43
0.0000001
 44
0.0000000001
 12
0.0
 22
7.206231992
 32
0.0
 13
-0.0
 23
-7.206231992
 33
0.0
 40
0.0
 40
0.0
 40
0.0
 40
0.0
 40
0.0078405846
 40
0.0304592868
 40
0.0673045729
 40
0.117278032
 40
0.1788689969
 40
0.25021006
 40
0.3291360938
 40
0.4132508263
 40
0.5
 40
0.5867491737
 40
0.6708639062
 40
0.74978994
 40
0.8211310031
 40
0.882721968
 40
0.9326954271
 40
0.9695407132
 40
0.9921594154
 40
1.0
 40
1.0
 40
1.0
 40
1.0
 10
3.6
 20
45.0707449052
 30
0.0
 10
3.6
 20
45.0895785957
 30
0.0
 10
3.4862728453
 20
45.0770197511
 30
0.0
 10
3.3636097042
 20
45.109779092
 30
0.0
 10
3.0796435784
 20
45.1099357104
 30
0.0
 10
2.7323570828
 20
45.1259523567
 30
0.0
 10
2.2897826028
 20
45.1338081855
 30
0.0
 10
1.7820560734
 20
45.1423263004
 30
0.0
 10
1.218732739
 20
45.1479832876
 30
0.0
 10
0.6188282342
 20
45.1516303336
 30
0.0
 10
-0.0
 20
45.1528198747
 30
0.0
 10
-0.6188282342
 20
45.1516303336
 30
0.0
 10
-1.218732739
 20
45.1479832876
 30
0.0
 10
-1.7820560734
 20
45.1423263004
 30
0.0
 10
-2.2897826028
 20
45.1338081855
 30
0.0
 10
-2.7323570828
 20
45.1259523567
 30
0.0
 10
-3.0796435784
 20
45.1099357104
 30
0.0
 10
-3.3636097042
 20
45.109779092
 30
0.0
 10
-3.4862728453
 20
45.0770197511
 30
0.0
 10
-3.6
 20
45.0895785957
 30
0.0
 10
-3.6
 20
45.0707449052
 30
0.0
 11
3.6
 21
45.0707449052
 31
0.0
 11
3.5453079108
 21
45.0849275161
 31
0.0
 11
3.3828934348
 21
45.0986791955
 31
0.0
 11
3.1176914536
 21
45.1115821057
 31
0.0
 11
2.7577599952
 21
45.1232441981
 31
0.0
 11
2.3140353949
 21
45.1333111262
 31
0.0
 11
1.8
 21
45.1414770112
 31
0.0
 11
1.231272516
 21
45.147493737
 31
0.0
 11
0.6251334396
 21
45.1511784884
 31
0.0
 11
-0.0
 21
45.1524193061
 31
0.0
 11
-0.6251334396
 21
45.1511784884
 31
0.0
 11
-1.231272516
 21
45.147493737
 31
0.0
 11
-1.8
 21
45.1414770112
 31
0.0
 11
-2.3140353949
 21
45.1333111262
 31
0.0
 11
-2.7577599952
 21
45.1232441981
 31
0.0
 11
-3.1176914536
 21
45.1115821057
 31
0.0
 11
-3.3828934348
 21
45.0986791955
 31
0.0
 11
-3.5453079108
 21
45.0849275161
 31
0.0
 11
-3.6
 21
45.0707449052
 31
0.0
  0
SPLINE
  5
40A
100
AcDbEntity
  8
RACCORDO
100
AcDbSpline
 62
253
  6
CONTINUOUS
 70
0
 71
3
 72
30
 73
26
 74
24
 42
0.0000001
 43
0.0000001
 44
0.0000000001
 12
25.3740088262
 22
3.274903292
 32
0.0
 13
25.3681542503
 23
-3.2904871759
 33
0.0
 40
0.0
 40
0.0
 40
0.0
 40
0.0
 40
0.0003538573
 40
0.0082866689
 40
0.0239490472
 40
0.0491535114
 40
0.0849873981
 40
0.1316961801
 40
0.186827137
 40
0.2488301296
 40
0.3166608017
 40
0.3883941423
 40
0.4628648385
 40
0.5379283371
 40
0.6123820187
 40
0.6840795109
 40
0.7518603862
 40
0.8137948875
 40
0.8688476492
 40
0.915445211
 40
0.9511271529
 40
0.976201193
 40
0.9917688333
 40
0.9996545686
 40
1.0
 40
1.0
 40
1.0
 40
1.0
 10
-9.8423600165
 20
42.248278283
 30
0.0
 10
-9.8393670904
 20
42.2486645658
 30
0.0
 10
-9.7687094017
 20
42.2568107438
 30
0.0
 10
-9.6431413374
 20
42.2833342084
 30
0.0
 10
-9.3011262298
 20
42.3029493237
 30
0.0
 10
-8.8102725883
 20
42.3320090194
 30
0.0
 10
-8.0982166507
 20
42.357434155
 30
0.0
 10
-7.1970041537
 20
42.3829819182
 30
0.0
 10
-6.1210942818
 20
42.405054089
 30
0.0
 10
-4.9074211469
 20
42.4236181445
 30
0.0
 10
-3.5844073711
 20
42.437876474
 30
0.0
 10
-2.1796098832
 20
42.4475953989
 30
0.0
 10
-0.7272860907
 20
42.4524914741
 30
0.0
 10
0.7428915757
 20
42.4524651654
 30
0.0
 10
2.1948682193
 20
42.4475170738
 30
0.0
 10
3.5989915225
 20
42.4377478989
 30
0.0
 10
4.9209930165
 20
42.4234422764
 30
0.0
 10
6.133375898
 20
42.4048353842
 30
0.0
 10
7.2075908221
 20
42.3827262847
 30
0.0
 10
8.1065675374
 20
42.3571670969
 30
0.0
 10
8.8160120867
 20
42.3317368555
 30
0.0
 10
9.3044671867
 20
42.3027635817
 30
0.0
 10
9.6445256462
 20
42.2831259114
 30
0.0
 10
9.769351353
 20
42.2567806348
 30
0.0
 10
9.8394781226
 20
42.2486134331
 30
0.0
 10
9.8423991083
 20
42.2482345539
 30
0.0
 11
-9.8423600165
 21
42.248278283
 31
0.0
 11
-9.8333822572
 21
42.2493621624
 31
0.0
 11
-9.6789600265
 21
42.2728920285
 31
0.0
 11
-9.3716578616
 21
42.2989753176
 31
0.0
 11
-8.8761215196
 21
42.3264945783
 31
0.0
 11
-8.1710577756
 21
42.3540839146
 31
0.0
 11
-7.2516919614
 21
42.3803296343
 31
0.0
 11
-6.1663526766
 21
42.4032369918
 31
0.0
 11
-4.9456013446
 21
42.422155962
 31
0.0
 11
-3.6100307689
 21
42.4367653813
 31
0.0
 11
-2.1975676328
 21
42.4466517304
 31
0.0
 11
-0.7311772902
 21
42.4516533456
 31
0.0
 11
0.7468944242
 21
42.4516265924
 31
0.0
 11
2.2129495465
 21
42.4465717938
 31
0.0
 11
3.6247064181
 21
42.4366343388
 31
0.0
 11
4.9592958533
 21
42.4219759095
 31
0.0
 11
6.1786976768
 21
42.4030127973
 31
0.0
 11
7.2624960076
 21
42.3800641598
 31
0.0
 11
8.1796702447
 21
42.3537957345
 31
0.0
 11
8.8817407988
 21
42.3262330238
 31
0.0
 11
9.3747079647
 21
42.2987671702
 31
0.0
 11
9.6801443821
 21
42.2727598742
 31
0.0
 11
9.8336396745
 21
42.2493005909
 31
0.0
 11
9.8423991083
 21
42.2482345539
 31
0.0
  0
SPLINE
  5
40B
100
AcDbEntity
  8
RACCORDO
100
AcDbSpline
 62
253
  6
CONTINUOUS
 70
0
 71
3
 72
24
 73
20
 74
18
 42
0.0000001
 43
0.0000001
 44
0.0000000001
 12
-0.0000000318
 22
8.2070354003
 32
0.0
 13
0.0000000424
 23
-8.2070354003
 33
0.0
 40
0.0
 40
0.0
 40
0.0
 40
0.0
 40
0.0087552304
 40
0.0340587178
 40
0.075204501
 40
0.1308689209
 40
0.1991895878
 40
0.2777514
 40
0.3643768593
 40
0.4553477108
 40
0.5481833082
 40
0.6390270778
 40
0.7253929427
 40
0.8037418976
 40
0.8718547932
 40
0.9270409342
 40
0.9676482063
 40
0.9921530699
 40
1.0
 40
1.0
 40
1.0
 40
1.0
 10
-4.1
 20
45.4098170158
 30
0.0
 10
-4.1000000001
 20
45.4337685111
 30
0.0
 10
-3.9546261981
 20
45.4156354453
 30
0.0
 10
-3.7989581333
 20
45.4578292836
 30
0.0
 10
-3.4378011852
 20
45.4563163691
 30
0.0
 10
-2.9977882206
 20
45.4758895938
 30
0.0
 10
-2.4395696778
 20
45.4845887074
 30
0.0
 10
-1.8022275743
 20
45.4941416226
 30
0.0
 10
-1.1010465164
 20
45.4999050686
 30
0.0
 10
-0.3613719073
 20
45.5030112493
 30
0.0
 10
0.3900557723
 20
45.5029511621
 30
0.0
 10
1.1286700261
 20
45.499730354
 30
0.0
 10
1.8282168372
 20
45.4938477065
 30
0.0
 10
2.4636742435
 20
45.4842039325
 30
0.0
 10
3.0194900519
 20
45.4753151641
 30
0.0
 10
3.456059221
 20
45.4558644395
 30
0.0
 10
3.8121985934
 20
45.4566035181
 30
0.0
 10
3.962982713
 20
45.4163701287
 30
0.0
 10
4.0999999999
 20
45.4312836937
 30
0.0
 10
4.1
 20
45.4098170158
 30
0.0
 11
-4.1
 21
45.4098170158
 31
0.0
 11
-4.030207411
 21
45.4269068278
 31
0.0
 11
-3.8231980227
 21
45.4434155159
 31
0.0
 11
-3.4858631038
 21
45.4587857364
 31
0.0
 11
-3.0292291511
 21
45.4725005252
 31
0.0
 11
-2.4686386832
 21
45.4840840935
 31
0.0
 11
-1.8239424822
 21
45.4931238418
 31
0.0
 11
-1.1130314646
 21
45.4993419435
 31
0.0
 11
-0.3664369891
 21
45.5024628353
 31
0.0
 11
0.3954680426
 21
45.5024013667
 31
0.0
 11
1.1410190311
 21
45.4991604023
 31
0.0
 11
1.8497984714
 21
45.4928298635
 31
0.0
 11
2.4927458502
 21
45.4836684489
 31
0.0
 11
3.0516277203
 21
45.4719387825
 31
0.0
 11
3.504330938
 21
45.4581024989
 31
0.0
 11
3.8372346345
 21
45.4425814691
 31
0.0
 11
4.0376602077
 21
45.4259760572
 31
0.0
 11
4.1
 21
45.4098170158
 31
0.0
  0
SPLINE
  5
40C
100
AcDbEntity
  8
0
100
AcDbSpline
 62
7
  6
CONTINUOUS
 70
0
 71
3
 72
30
 73
26
 74
24
 42
0.0000001
 43
0.0000001
 44
0.0000000001
 12
0.0
 22
16.7154274636
 32
0.0
 13
-0.0
 23
-16.7154274636
 33
0.0
 40
0.0
 40
0.0
 40
0.0
 40
0.0
 40
0.0049019753
 40
0.0188559175
 40
0.0417342915
 40
0.0731313154
 40
0.1124693533
 40
0.1590191657
 40
0.2119157268
 40
0.270175098
 40
0.3327130773
 40
0.3983655547
 40
0.4659102854
 40
0.5340897146
 40
0.6016344453
 40
0.6672869227
 40
0.729824902
 40
0.7880842732
 40
0.8409808343
 40
0.8875306467
 40
0.9268686846
 40
0.9582657085
 40
0.9811440825
 40
0.9950980247
 40
1.0
 40
1.0
 40
1.0
 40
1.0
 10
8.35
 20
43.2712082085
 30
0.0
 10
8.35
 20
43.2985210795
 30
0.0
 10
8.190164605
 20
43.2921556786
 30
0.0
 10
8.0110312014
 20
43.336755302
 30
0.0
 10
7.6023058022
 20
43.3464294643
 30
0.0
 10
7.0937218771
 20
43.3738693173
 30
0.0
 10
6.4358167952
 20
43.3922250247
 30
0.0
 10
5.6643843649
 20
43.4113626496
 30
0.0
 10
4.785288115
 20
43.4271003068
 30
0.0
 10
3.817750789
 20
43.4403569031
 30
0.0
 10
2.7788856787
 20
43.4504606471
 30
0.0
 10
1.6883204941
 20
43.4573306429
 30
0.0
 10
0.5662875385
 20
43.4607950214
 30
0.0
 10
-0.5662875385
 20
43.4607950214
 30
0.0
 10
-1.6883204941
 20
43.4573306429
 30
0.0
 10
-2.7788856787
 20
43.4504606471
 30
0.0
 10
-3.817750789
 20
43.4403569031
 30
0.0
 10
-4.785288115
 20
43.4271003068
 30
0.0
 10
-5.6643843649
 20
43.4113626496
 30
0.0
 10
-6.4358167952
 20
43.3922250247
 30
0.0
 10
-7.0937218771
 20
43.3738693173
 30
0.0
 10
-7.6023058022
 20
43.3464294643
 30
0.0
 10
-8.0110312014
 20
43.336755302
 30
0.0
 10
-8.190164605
 20
43.2921556786
 30
0.0
 10
-8.35
 20
43.2985210795
 30
0.0
 10
-8.35
 20
43.2712082085
 30
0.0
 11
8.35
 21
43.2712082085
 31
0.0
 11
8.2722276494
 21
43.2970035143
 31
0.0
 11
8.0403593494
 21
43.3223183025
 31
0.0
 11
7.6587143676
 21
43.3466810063
 31
0.0
 11
7.134402028
 21
43.3696377946
 31
0.0
 11
6.4771892774
 21
43.3907610261
 31
0.0
 11
5.6993187459
 21
43.4096572147
 31
0.0
 11
4.8152806897
 21
43.4259743603
 31
0.0
 11
3.8415430651
 21
43.4394085053
 31
0.0
 11
2.7962447616
 21
43.449709397
 31
0.0
 11
1.698857709
 21
43.4566851493
 31
0.0
 11
0.5698241516
 21
43.4602058172
 31
0.0
 11
-0.5698241516
 21
43.4602058172
 31
0.0
 11
-1.698857709
 21
43.4566851493
 31
0.0
 11
-2.7962447616
 21
43.449709397
 31
0.0
 11
-3.8415430651
 21
43.4394085053
 31
0.0
 11
-4.8152806897
 21
43.4259743603
 31
0.0
 11
-5.6993187459
 21
43.4096572147
 31
0.0
 11
-6.4771892774
 21
43.3907610261
 31
0.0
 11
-7.134402028
 21
43.3696377946
 31
0.0
 11
-7.6587143676
 21
43.3466810063
 31
0.0
 11
-8.0403593494
 21
43.3223183025
 31
0.0
 11
-8.2722276494
 21
43.2970035143
 31
0.0
 11
-8.35
 21
43.2712082085
 31
0.0
  0
SPLINE
  5
40D
100
AcDbEntity
  8
RACCORDO
100
AcDbSpline
 62
253
  6
CONTINUOUS
 70
0
 71
3
 72
30
 73
26
 74
24
 42
0.0000001
 43
0.0000001
 44
0.0000000001
 12
-0.0000000003
 22
20.220226499
 32
0.0
 13
0.0000000003
 23
-20.220226499
 33
0.0
 40
0.0
 40
0.0
 40
0.0
 40
0.0
 40
0.0024816576
 40
0.0103806768
 40
0.0259764453
 40
0.051073688
 40
0.0867551399
 40
0.1332652449
 40
0.1881616822
 40
0.2499009226
 40
0.3174430535
 40
0.3888712481
 40
0.4630251545
 40
0.5377693409
 40
0.6119063045
 40
0.6832988032
 40
0.7507913482
 40
0.8124623881
 40
0.8672809623
 40
0.9136803183
 40
0.9492104719
 40
0.9741778466
 40
0.9896792785
 40
0.9975314272
 40
1.0
 40
1.0
 40
1.0
 40
1.0
 10
-10.1
 20
41.9384675524
 30
0.0
 10
-10.1
 20
41.9551941117
 30
0.0
 10
-10.0000759671
 20
41.9653306735
 30
0.0
 10
-9.860217019
 20
41.9948726443
 30
0.0
 10
-9.5105030968
 20
42.0149294361
 30
0.0
 10
-9.0085998447
 20
42.0446431907
 30
0.0
 10
-8.2805148374
 20
42.0706406675
 30
0.0
 10
-7.3590151584
 20
42.0967636717
 30
0.0
 10
-6.2588854893
 20
42.1193326684
 30
0.0
 10
-5.0178914835
 20
42.1383146306
 30
0.0
 10
-3.6650954955
 20
42.1528939706
 30
0.0
 10
-2.2286747822
 20
42.1628316538
 30
0.0
 10
-0.7436579292
 20
42.1678379718
 30
0.0
 10
0.7596147047
 20
42.1678110653
 30
0.0
 10
2.2442765909
 20
42.1627515776
 30
0.0
 10
3.6800079332
 20
42.1527625039
 30
0.0
 10
5.0317688416
 20
42.1381348189
 30
0.0
 10
6.2714435364
 20
42.1191090555
 30
0.0
 10
7.369840083
 20
42.0965022968
 30
0.0
 10
8.2890536352
 20
42.0703676233
 30
0.0
 10
9.0144684667
 20
42.0443649294
 30
0.0
 10
9.5139191806
 20
42.0147395214
 30
0.0
 10
9.8616324457
 20
41.9946596844
 30
0.0
 10
10.0007112172
 20
41.9653063113
 30
0.0
 10
10.1
 20
41.9551059194
 30
0.0
 10
10.1
 20
41.9384675524
 30
0.0
 11
-10.1
 21
41.9384675524
 31
0.0
 11
-10.0547399246
 21
41.960136093
 31
0.0
 11
-9.8968424438
 21
41.9841954006
 31
0.0
 11
-9.582622316
 21
42.0108659281
 31
0.0
 11
-9.0759311155
 21
42.0390046421
 31
0.0
 11
-8.3549958036
 21
42.0672150222
 31
0.0
 11
-7.4149339299
 21
42.0940516503
 31
0.0
 11
-6.3051626916
 21
42.1174746767
 31
0.0
 11
-5.0569311592
 21
42.1368195368
 31
0.0
 11
-3.6912956765
 21
42.151757855
 31
0.0
 11
-2.2470367796
 21
42.1618667511
 31
0.0
 11
-0.7476367186
 21
42.1669809706
 31
0.0
 11
0.7637076589
 21
42.1669536145
 31
0.0
 11
2.262764946
 21
42.1617850226
 31
0.0
 11
3.706301677
 21
42.151623869
 31
0.0
 11
5.0709339143
 21
42.1366354445
 31
0.0
 11
6.3177855493
 21
42.11724545
 31
0.0
 11
7.4259811356
 21
42.0937802155
 31
0.0
 11
8.3638020587
 21
42.0669203804
 31
0.0
 11
9.0816768022
 21
42.0387372234
 31
0.0
 11
9.585741021
 21
42.0106531102
 31
0.0
 11
9.8980533656
 21
41.9840602952
 31
0.0
 11
10.0550031529
 21
41.9600731314
 31
0.0
 11
10.1
 21
41.9384675524
 31
0.0
  0
SPLINE
  5
40E
100
AcDbEntity
  8
0
100
AcDbSpline
 62
7
  6
CONTINUOUS
 70
0
 71
3
 72
29
 73
25
 74
23
 42
0.0000001
 43
0.0000001
 44
0.0000000001
 12
0.0
 22
15.7143409904
 32
0.0
 13
-0.0
 23
-15.7143409904
 33
0.0
 40
0.0
 40
0.0
 40
0.0
 40
0.0
 40
0.0053343182
 40
0.0205668846
 40
0.045520658
 40
0.0797081588
 40
0.1224407337
 40
0.1728520868
 40
0.2299181545
 40
0.2924787159
 40
0.3592613351
 40
0.4289074259
 40
0.5
 40
0.5710925741
 40
0.6407386649
 40
0.7075212841
 40
0.7700818455
 40
0.8271479132
 40
0.8775592663
 40
0.9202918412
 40
0.954479342
 40
0.9794331154
 40
0.9946656818
 40
1.0
 40
1.0
 40
1.0
 40
1.0
 10
7.85
 20
43.2712082085
 30
0.0
 10
7.85
 20
43.2991499738
 30
0.0
 10
7.6853411218
 20
43.2902893366
 30
0.0
 10
7.5022442034
 20
43.3364863981
 30
0.0
 10
7.0829652728
 20
43.3445043879
 30
0.0
 10
6.562754958
 20
43.371769758
 30
0.0
 10
5.8911835467
 20
43.3891823401
 30
0.0
 10
5.1062339848
 20
43.4074536331
 30
0.0
 10
4.2151337458
 20
43.4220938884
 30
0.0
 10
3.2389385235
 20
43.4341099261
 30
0.0
 10
2.1965947212
 20
43.4428061719
 30
0.0
 10
1.1095994839
 20
43.4481211826
 30
0.0
 10
-0.0
 20
43.4499011514
 30
0.0
 10
-1.1095994839
 20
43.4481211826
 30
0.0
 10
-2.1965947212
 20
43.4428061719
 30
0.0
 10
-3.2389385235
 20
43.4341099261
 30
0.0
 10
-4.2151337458
 20
43.4220938884
 30
0.0
 10
-5.1062339848
 20
43.4074536331
 30
0.0
 10
-5.8911835467
 20
43.3891823401
 30
0.0
 10
-6.562754958
 20
43.371769758
 30
0.0
 10
-7.0829652728
 20
43.3445043879
 30
0.0
 10
-7.5022442034
 20
43.3364863981
 30
0.0
 10
-7.6853411218
 20
43.2902893366
 30
0.0
 10
-7.85
 20
43.2991499738
 30
0.0
 10
-7.85
 20
43.2712082085
 30
0.0
 11
7.85
 21
43.2712082085
 31
0.0
 11
7.7700983188
 21
43.2965538505
 31
0.0
 11
7.5320198429
 21
43.3213835283
 31
0.0
 11
7.1406111635
 21
43.3451917814
 31
0.0
 11
6.6038402327
 21
43.3674939422
 31
0.0
 11
5.9326341587
 21
43.3878360032
 31
0.0
 11
5.1406567615
 21
43.4058038586
 31
0.0
 11
4.244030417
 21
43.4210317347
 31
0.0
 11
3.2610078521
 21
43.4332096358
 31
0.0
 11
2.2116005712
 21
43.4420896551
 31
0.0
 11
1.1171714804
 21
43.4474910209
 31
0.0
 11
-0.0
 21
43.449303777
 31
0.0
 11
-1.1171714804
 21
43.4474910209
 31
0.0
 11
-2.2116005712
 21
43.4420896551
 31
0.0
 11
-3.2610078521
 21
43.4332096358
 31
0.0
 11
-4.244030417
 21
43.4210317347
 31
0.0
 11
-5.1406567615
 21
43.4058038586
 31
0.0
 11
-5.9326341587
 21
43.3878360032
 31
0.0
 11
-6.6038402327
 21
43.3674939422
 31
0.0
 11
-7.1406111635
 21
43.3451917814
 31
0.0
 11
-7.5320198429
 21
43.3213835283
 31
0.0
 11
-7.7700983188
 21
43.2965538505
 31
0.0
 11
-7.85
 21
43.2712082085
 31
0.0
  0
SPLINE
  5
40F
100
AcDbEntity
  8
0
100
AcDbSpline
 62
7
  6
CONTINUOUS
 70
0
 71
3
 72
32
 73
28
 74
26
 42
0.0000001
 43
0.0000001
 44
0.0000000001
 12
-27.0042745488
 22
3.7513999791
 32
0.0
 13
-27.0042745488
 23
-3.7513999791
 33
0.0
 40
0.0
 40
0.0
 40
0.0
 40
0.0
 40
0.0016930952
 40
0.0135901691
 40
0.0331201767
 40
0.0599954344
 40
0.0937992482
 40
0.1340019821
 40
0.1799716439
 40
0.2309846088
 40
0.2862373501
 40
0.3448592661
 40
0.4059264949
 40
0.468476536
 40
0.531523464
 40
0.5940735051
 40
0.6551407339
 40
0.7137626499
 40
0.7690153912
 40
0.8200283561
 40
0.8659980179
 40
0.9062007518
 40
0.9400045656
 40
0.9668798233
 40
0.9864098309
 40
0.9983069048
 40
1.0
 40
1.0
 40
1.0
 40
1.0
 10
11.3102926432
 20
39.2017831407
 30
0.0
 10
11.2950523738
 20
39.2039002998
 30
0.0
 10
11.1524511535
 20
39.2053445382
 30
0.0
 10
10.9589079664
 20
39.2523304644
 30
0.0
 10
10.4875474618
 20
39.2677188497
 30
0.0
 10
9.897930664
 20
39.3013402925
 30
0.0
 10
9.1327738491
 20
39.3256568819
 30
0.0
 10
8.2308360076
 20
39.3507254993
 30
0.0
 10
7.1966312646
 20
39.3721833845
 30
0.0
 10
6.049743028
 20
39.3909446102
 30
0.0
 10
4.8072011044
 20
39.4062615679
 30
0.0
 10
3.4889246934
 20
39.4180033884
 30
0.0
 10
2.1156055306
 20
39.4259346667
 30
0.0
 10
0.7089292281
 20
39.42993484
 30
0.0
 10
-0.7089292281
 20
39.42993484
 30
0.0
 10
-2.1156055306
 20
39.4259346667
 30
0.0
 10
-3.4889246934
 20
39.4180033884
 30
0.0
 10
-4.8072011044
 20
39.4062615679
 30
0.0
 10
-6.049743028
 20
39.3909446102
 30
0.0
 10
-7.1966312646
 20
39.3721833845
 30
0.0
 10
-8.2308360076
 20
39.3507254993
 30
0.0
 10
-9.1327738491
 20
39.3256568819
 30
0.0
 10
-9.897930664
 20
39.3013402925
 30
0.0
 10
-10.4875474618
 20
39.2677188497
 30
0.0
 10
-10.9589079664
 20
39.2523304644
 30
0.0
 10
-11.1524511535
 20
39.2053445382
 30
0.0
 10
-11.2950523738
 20
39.2039002998
 30
0.0
 10
-11.3102926432
 20
39.2017831407
 30
0.0
 11
11.3102926432
 21
39.2017831407
 31
0.0
 11
11.2605018599
 21
39.2045369728
 31
0.0
 11
10.9934188788
 21
39.2363014636
 31
0.0
 11
10.5529631148
 21
39.2670560376
 31
0.0
 11
9.9460808185
 21
39.2963156768
 31
0.0
 11
9.1823428862
 21
39.3236189392
 31
0.0
 11
8.2737939212
 21
39.3485352361
 31
0.0
 11
7.2347622836
 21
39.3706716226
 31
0.0
 11
6.081634123
 21
39.3896789947
 31
0.0
 11
4.8325949593
 21
39.4052575947
 31
0.0
 11
3.5073428862
 21
39.4171617387
 31
0.0
 11
2.1267779205
 21
39.4252036914
 31
0.0
 11
0.7126723967
 21
39.4292566264
 31
0.0
 11
-0.7126723967
 21
39.4292566264
 31
0.0
 11
-2.1267779205
 21
39.4252036914
 31
0.0
 11
-3.5073428862
 21
39.4171617387
 31
0.0
 11
-4.8325949593
 21
39.4052575947
 31
0.0
 11
-6.081634123
 21
39.3896789947
 31
0.0
 11
-7.2347622836
 21
39.3706716226
 31
0.0
 11
-8.2737939212
 21
39.3485352361
 31
0.0
 11
-9.1823428862
 21
39.3236189392
 31
0.0
 11
-9.9460808185
 21
39.2963156768
 31
0.0
 11
-10.5529631148
 21
39.2670560376
 31
0.0
 11
-10.9934188788
 21
39.2363014636
 31
0.0
 11
-11.2605018599
 21
39.2045369728
 31
0.0
 11
-11.3102926432
 21
39.2017831407
 31
0.0
  0
SPLINE
  5
410
100
AcDbEntity
  8
RACCORDO
100
AcDbSpline
 62
253
  6
CONTINUOUS
 70
0
 71
3
 72
24
 73
20
 74
18
 42
0.0000001
 43
0.0000001
 44
0.0000000001
 12
6.7187815296
 22
2.5191375105
 32
0.0
 13
7.1711583225
 23
-2.2399636433
 33
0.0
 40
0.0
 40
0.0
 40
0.0
 40
0.0
 40
0.0057479907
 40
0.0312059906
 40
0.072601573
 40
0.1286044132
 40
0.1973403358
 40
0.2763797099
 40
0.3635317374
 40
0.4550555909
 40
0.5484555277
 40
0.6398515299
 40
0.726742401
 40
0.8055676304
 40
0.8740945453
 40
0.9296161758
 40
0.9704701298
 40
0.9951242665
 40
1.0
 40
1.0
 40
1.0
 40
1.0
 10
-3.8665263519
 20
45.7145630412
 30
0.0
 10
-3.8536531873
 20
45.7193897009
 30
0.0
 10
-3.7342003241
 20
45.7066362369
 30
0.0
 10
-3.5929300171
 20
45.7449298668
 30
0.0
 10
-3.251358347
 20
45.7434973424
 30
0.0
 10
-2.8352094627
 20
45.7620099327
 30
0.0
 10
-2.3072646862
 20
45.770236759
 30
0.0
 10
-1.7044876478
 20
45.7792717826
 30
0.0
 10
-1.0413336511
 20
45.7847224939
 30
0.0
 10
-0.3417736998
 20
45.7876602718
 30
0.0
 10
0.3689019781
 20
45.7876033945
 30
0.0
 10
1.0674591301
 20
45.7845572564
 30
0.0
 10
1.7290675729
 20
45.7789936969
 30
0.0
 10
2.3300622602
 20
45.7698728424
 30
0.0
 10
2.8557346123
 20
45.7614664026
 30
0.0
 10
3.2686269297
 20
45.7430701263
 30
0.0
 10
3.6054523623
 20
45.7437699199
 30
0.0
 10
3.7421937826
 20
45.707282503
 30
0.0
 10
3.8541789285
 20
45.7174724793
 30
0.0
 10
3.8658338141
 20
45.7138319907
 30
0.0
 11
-3.8665263519
 21
45.7145630412
 31
0.0
 11
-3.8116405484
 21
45.7156825847
 31
0.0
 11
-3.6158525751
 21
45.7312972287
 31
0.0
 11
-3.296814725
 21
45.7458332963
 31
0.0
 11
-2.8649449792
 21
45.7588043999
 31
0.0
 11
-2.3347573406
 21
45.7697596416
 31
0.0
 11
-1.7250248622
 21
45.7783091375
 31
0.0
 11
-1.0526686712
 21
45.7841899471
 31
0.0
 11
-0.3465640923
 21
45.7871415824
 31
0.0
 11
0.3740207224
 21
45.7870834234
 31
0.0
 11
1.0791384294
 21
45.7840182253
 31
0.0
 11
1.7494787676
 21
45.7780310287
 31
0.0
 11
2.357557318
 21
45.7693664658
 31
0.0
 11
2.8861292247
 21
45.7582730026
 31
0.0
 11
3.3142812313
 21
45.7451870537
 31
0.0
 11
3.6291293706
 21
45.7305080746
 31
0.0
 11
3.8186876652
 21
45.7148026435
 31
0.0
 11
3.8658338141
 21
45.7138319907
 31
0.0
  0
SPLINE
  5
411
100
AcDbEntity
  8
0
100
AcDbSpline
 62
7
  6
CONTINUOUS
 70
0
 71
3
 72
32
 73
28
 74
26
 42
0.0000001
 43
0.0000001
 44
0.0000000001
 12
0.0
 22
22.7214050793
 32
0.0
 13
-0.0
 23
-22.7214050793
 33
0.0
 40
0.0
 40
0.0
 40
0.0
 40
0.0
 40
0.0041872119
 40
0.0160247387
 40
0.0354569951
 40
0.0621977373
 40
0.0958323568
 40
0.1358338688
 40
0.181573444
 40
0.2323310797
 40
0.287307271
 40
0.3456357737
 40
0.4063973499
 40
0.4686343167
 40
0.5313656833
 40
0.5936026501
 40
0.6543642263
 40
0.712692729
 40
0.7676689203
 40
0.818426556
 40
0.8641661312
 40
0.9041676432
 40
0.9378022627
 40
0.9645430049
 40
0.9839752613
 40
0.9958127881
 40
1.0
 40
1.0
 40
1.0
 40
1.0
 10
11.35
 20
39.6721348149
 30
0.0
 10
11.35
 20
39.7038479273
 30
0.0
 10
11.1671490195
 20
39.7016476839
 30
0.0
 10
10.9589079664
 20
39.752201769
 30
0.0
 10
10.4875474618
 20
39.7675901544
 30
0.0
 10
9.897930664
 20
39.8012115972
 30
0.0
 10
9.1327738491
 20
39.8255281865
 30
0.0
 10
8.2308360076
 20
39.850596804
 30
0.0
 10
7.1966312646
 20
39.8720546892
 30
0.0
 10
6.049743028
 20
39.8908159149
 30
0.0
 10
4.8072011044
 20
39.9061328726
 30
0.0
 10
3.4889246934
 20
39.9178746931
 30
0.0
 10
2.1156055306
 20
39.9258059713
 30
0.0
 10
0.7089292281
 20
39.9298061447
 30
0.0
 10
-0.7089292281
 20
39.9298061447
 30
0.0
 10
-2.1156055306
 20
39.9258059713
 30
0.0
 10
-3.4889246934
 20
39.9178746931
 30
0.0
 10
-4.8072011044
 20
39.9061328726
 30
0.0
 10
-6.049743028
 20
39.8908159149
 30
0.0
 10
-7.1966312646
 20
39.8720546892
 30
0.0
 10
-8.2308360076
 20
39.850596804
 30
0.0
 10
-9.1327738491
 20
39.8255281865
 30
0.0
 10
-9.897930664
 20
39.8012115972
 30
0.0
 10
-10.4875474618
 20
39.7675901544
 30
0.0
 10
-10.9589079664
 20
39.752201769
 30
0.0
 10
-11.1671490195
 20
39.7016476839
 30
0.0
 10
-11.35
 20
39.7038479273
 30
0.0
 10
-11.35
 20
39.6721348149
 30
0.0
 11
11.35
 21
39.6721348149
 31
0.0
 11
11.2605018599
 21
39.7044082775
 31
0.0
 11
10.9934188788
 21
39.7361727682
 31
0.0
 11
10.5529631148
 21
39.7669273422
 31
0.0
 11
9.9460808185
 21
39.7961869814
 31
0.0
 11
9.1823428862
 21
39.8234902439
 31
0.0
 11
8.2737939212
 21
39.8484065408
 31
0.0
 11
7.2347622836
 21
39.8705429273
 31
0.0
 11
6.081634123
 21
39.8895502993
 31
0.0
 11
4.8325949593
 21
39.9051288993
 31
0.0
 11
3.5073428862
 21
39.9170330434
 31
0.0
 11
2.1267779205
 21
39.9250749961
 31
0.0
 11
0.7126723967
 21
39.9291279311
 31
0.0
 11
-0.7126723967
 21
39.9291279311
 31
0.0
 11
-2.1267779205
 21
39.9250749961
 31
0.0
 11
-3.5073428862
 21
39.9170330434
 31
0.0
 11
-4.8325949593
 21
39.9051288993
 31
0.0
 11
-6.081634123
 21
39.8895502993
 31
0.0
 11
-7.2347622836
 21
39.8705429273
 31
0.0
 11
-8.2737939212
 21
39.8484065408
 31
0.0
 11
-9.1823428862
 21
39.8234902439
 31
0.0
 11
-9.9460808185
 21
39.7961869814
 31
0.0
 11
-10.5529631148
 21
39.7669273422
 31
0.0
 11
-10.9934188788
 21
39.7361727682
 31
0.0
 11
-11.2605018599
 21
39.7044082775
 31
0.0
 11
-11.35
 21
39.6721348149
 31
0.0
  0
SPLINE
  5
412
100
AcDbEntity
  8
0
100
AcDbSpline
 62
7
  6
CONTINUOUS
 70
0
 71
3
 72
29
 73
25
 74
23
 42
0.0000001
 43
0.0000001
 44
0.0000000001
 12
-17.3037871494
 22
3.1023878748
 32
0.0
 13
-17.3037871494
 23
-3.1023878748
 33
0.0
 40
0.0
 40
0.0
 40
0.0
 40
0.0
 40
0.0026404007
 40
0.0179559227
 40
0.0430455927
 40
0.0774192764
 40
0.1203845702
 40
0.1710704603
 40
0.2284473061
 40
0.2913485683
 40
0.3584948814
 40
0.4285202603
 40
0.5
 40
0.5714797397
 40
0.6415051186
 40
0.7086514317
 40
0.7715526939
 40
0.8289295397
 40
0.8796154298
 40
0.9225807236
 40
0.9569544073
 40
0.9820440773
 40
0.9973595993
 40
1.0
 40
1.0
 40
1.0
 40
1.0
 10
7.8232861931
 20
42.7947301908
 30
0.0
 10
7.8080565492
 20
42.7974607065
 30
0.0
 10
7.6744479011
 20
42.7931664932
 30
0.0
 10
7.5022442034
 20
42.8366150934
 30
0.0
 10
7.0829652728
 20
42.8446330832
 30
0.0
 10
6.562754958
 20
42.8718984533
 30
0.0
 10
5.8911835467
 20
42.8893110355
 30
0.0
 10
5.1062339848
 20
42.9075823285
 30
0.0
 10
4.2151337458
 20
42.9222225837
 30
0.0
 10
3.2389385235
 20
42.9342386214
 30
0.0
 10
2.1965947212
 20
42.9429348672
 30
0.0
 10
1.1095994839
 20
42.9482498779
 30
0.0
 10
-0.0
 20
42.9500298468
 30
0.0
 10
-1.1095994839
 20
42.9482498779
 30
0.0
 10
-2.1965947212
 20
42.9429348672
 30
0.0
 10
-3.2389385235
 20
42.9342386214
 30
0.0
 10
-4.2151337458
 20
42.9222225837
 30
0.0
 10
-5.1062339848
 20
42.9075823285
 30
0.0
 10
-5.8911835467
 20
42.8893110355
 30
0.0
 10
-6.562754958
 20
42.8718984533
 30
0.0
 10
-7.0829652728
 20
42.8446330832
 30
0.0
 10
-7.5022442034
 20
42.8366150934
 30
0.0
 10
-7.6744479011
 20
42.7931664932
 30
0.0
 10
-7.8080565492
 20
42.7974607065
 30
0.0
 10
-7.8232861931
 20
42.7947301908
 30
0.0
 11
7.8232861931
 21
42.7947301908
 31
0.0
 11
7.7700983188
 21
42.7966825458
 31
0.0
 11
7.5320198429
 21
42.8215122237
 31
0.0
 11
7.1406111635
 21
42.8453204767
 31
0.0
 11
6.6038402327
 21
42.8676226376
 31
0.0
 11
5.9326341587
 21
42.8879646985
 31
0.0
 11
5.1406567615
 21
42.9059325539
 31
0.0
 11
4.244030417
 21
42.92116043
 31
0.0
 11
3.2610078521
 21
42.9333383312
 31
0.0
 11
2.2116005712
 21
42.9422183504
 31
0.0
 11
1.1171714804
 21
42.9476197162
 31
0.0
 11
-0.0
 21
42.9494324723
 31
0.0
 11
-1.1171714804
 21
42.9476197162
 31
0.0
 11
-2.2116005712
 21
42.9422183504
 31
0.0
 11
-3.2610078521
 21
42.9333383312
 31
0.0
 11
-4.244030417
 21
42.92116043
 31
0.0
 11
-5.1406567615
 21
42.9059325539
 31
0.0
 11
-5.9326341587
 21
42.8879646985
 31
0.0
 11
-6.6038402327
 21
42.8676226376
 31
0.0
 11
-7.1406111635
 21
42.8453204767
 31
0.0
 11
-7.5320198429
 21
42.8215122237
 31
0.0
 11
-7.7700983188
 21
42.7966825458
 31
0.0
 11
-7.8232861931
 21
42.7947301908
 31
0.0
  0
SPLINE
  5
413
100
AcDbEntity
  8
0
100
AcDbSpline
 62
7
  6
CONTINUOUS
 70
0
 71
3
 72
33
 73
29
 74
27
 42
0.0000001
 43
0.0000001
 44
0.0000000001
 12
0.0
 22
23.7225583208
 32
0.0
 13
-0.0
 23
-23.7225583208
 33
0.0
 40
0.0
 40
0.0
 40
0.0
 40
0.0
 40
0.0038898454
 40
0.0148460321
 40
0.0328392382
 40
0.057627217
 40
0.0888555625
 40
0.1260723071
 40
0.1687367291
 40
0.2162279886
 40
0.2678544958
 40
0.3228641488
 40
0.3804553837
 40
0.4397889137
 40
0.5
 40
0.5602110863
 40
0.6195446163
 40
0.6771358512
 40
0.7321455042
 40
0.7837720114
 40
0.8312632709
 40
0.8739276929
 40
0.9111444375
 40
0.942372783
 40
0.9671607618
 40
0.9851539679
 40
0.9961101546
 40
1.0
 40
1.0
 40
1.0
 40
1.0
 10
11.85
 20
39.6721348149
 30
0.0
 10
11.85
 20
39.702893843
 30
0.0
 10
11.6740366835
 20
39.7032063239
 30
0.0
 10
11.4719900531
 20
39.7516779021
 30
0.0
 10
11.016621835
 20
39.7685624711
 30
0.0
 10
10.4456231828
 20
39.8019974145
 30
0.0
 10
9.7037186636
 20
39.8269933644
 30
0.0
 10
8.8272611487
 20
39.8526354127
 30
0.0
 10
7.8197168698
 20
39.8749328728
 30
0.0
 10
6.6989273977
 20
39.8946982707
 30
0.0
 10
5.4802147108
 20
39.9112268721
 30
0.0
 10
4.1816643654
 20
39.9243777515
 30
0.0
 10
2.8221162239
 20
39.9339113795
 30
0.0
 10
1.4214224386
 20
39.9396919768
 30
0.0
 10
0.0
 20
39.9416283147
 30
0.0
 10
-1.4214224386
 20
39.9396919768
 30
0.0
 10
-2.8221162239
 20
39.9339113795
 30
0.0
 10
-4.1816643654
 20
39.9243777515
 30
0.0
 10
-5.4802147108
 20
39.9112268721
 30
0.0
 10
-6.6989273977
 20
39.8946982707
 30
0.0
 10
-7.8197168698
 20
39.8749328728
 30
0.0
 10
-8.8272611487
 20
39.8526354127
 30
0.0
 10
-9.7037186636
 20
39.8269933644
 30
0.0
 10
-10.4456231828
 20
39.8019974145
 30
0.0
 10
-11.016621835
 20
39.7685624711
 30
0.0
 10
-11.4719900531
 20
39.7516779021
 30
0.0
 10
-11.6740366835
 20
39.7032063239
 30
0.0
 10
-11.85
 20
39.702893843
 30
0.0
 10
-11.85
 20
39.6721348149
 30
0.0
 11
11.85
 21
39.6721348149
 31
0.0
 11
11.7636001581
 21
39.704540487
 31
0.0
 11
11.5056605365
 21
39.7364736114
 31
0.0
 11
11.0799424758
 21
39.7674685313
 31
0.0
 11
10.492653904
 21
39.7970732709
 31
0.0
 11
9.7523588108
 21
39.8248561265
 31
0.0
 11
8.8698523658
 21
39.8504119615
 31
0.0
 11
7.8580035002
 21
39.8733681143
 31
0.0
 11
6.7315672488
 21
39.8933898324
 31
0.0
 11
5.5069695887
 21
39.9101851541
 31
0.0
 11
4.2020679115
 21
39.9235091658
 31
0.0
 11
2.8358906218
 21
39.9331675735
 31
0.0
 11
1.428359661
 21
39.9390195357
 31
0.0
 11
0.0
 21
39.9409797177
 31
0.0
 11
-1.428359661
 21
39.9390195357
 31
0.0
 11
-2.8358906218
 21
39.9331675735
 31
0.0
 11
-4.2020679115
 21
39.9235091658
 31
0.0
 11
-5.5069695887
 21
39.9101851541
 31
0.0
 11
-6.7315672488
 21
39.8933898324
 31
0.0
 11
-7.8580035002
 21
39.8733681143
 31
0.0
 11
-8.8698523658
 21
39.8504119615
 31
0.0
 11
-9.7523588108
 21
39.8248561265
 31
0.0
 11
-10.492653904
 21
39.7970732709
 31
0.0
 11
-11.0799424758
 21
39.7674685313
 31
0.0
 11
-11.5056605365
 21
39.7364736114
 31
0.0
 11
-11.7636001581
 21
39.704540487
 31
0.0
 11
-11.85
 21
39.6721348149
 31
0.0
  0
SPLINE
  5
414
100
AcDbEntity
  8
0
100
AcDbSpline
 62
7
  6
CONTINUOUS
 70
0
 71
3
 72
30
 73
26
 74
24
 42
0.0000001
 43
0.0000001
 44
0.0000000001
 12
-21.4482485849
 22
3.481815109
 32
0.0
 13
-21.4482485849
 23
-3.481815109
 33
0.0
 40
0.0
 40
0.0
 40
0.0
 40
0.0
 40
0.0022780621
 40
0.0163059572
 40
0.0393055816
 40
0.070869003
 40
0.1104155241
 40
0.1572120405
 40
0.210388942
 40
0.2689570753
 40
0.3318264925
 40
0.397826914
 40
0.4657296172
 40
0.5342703828
 40
0.602173086
 40
0.6681735075
 40
0.7310429247
 40
0.789611058
 40
0.8427879595
 40
0.8895844759
 40
0.929130997
 40
0.9606944184
 40
0.9836940428
 40
0.9977219379
 40
1.0
 40
1.0
 40
1.0
 40
1.0
 10
9.4174571322
 20
40.9986395645
 30
0.0
 10
9.4011703183
 20
41.0012834948
 30
0.0
 10
9.2563039765
 20
40.9986952084
 30
0.0
 10
9.0663766292
 20
41.045982247
 30
0.0
 10
8.6038071653
 20
41.0569308499
 30
0.0
 10
8.0282241603
 20
41.0879855338
 30
0.0
 10
7.2836489479
 20
41.1087593583
 30
0.0
 10
6.4105906884
 20
41.1304181075
 30
0.0
 10
5.4156853517
 20
41.148228989
 30
0.0
 10
4.3206880187
 20
41.1632319632
 30
0.0
 10
3.1449664268
 20
41.1746667394
 30
0.0
 10
1.9107339723
 20
41.1824417646
 30
0.0
 10
0.6408882921
 20
41.1863625282
 30
0.0
 10
-0.6408882921
 20
41.1863625282
 30
0.0
 10
-1.9107339723
 20
41.1824417646
 30
0.0
 10
-3.1449664268
 20
41.1746667394
 30
0.0
 10
-4.3206880187
 20
41.1632319632
 30
0.0
 10
-5.4156853517
 20
41.148228989
 30
0.0
 10
-6.4105906884
 20
41.1304181075
 30
0.0
 10
-7.2836489479
 20
41.1087593583
 30
0.0
 10
-8.0282241603
 20
41.0879855338
 30
0.0
 10
-8.6038071653
 20
41.0569308499
 30
0.0
 10
-9.0663766292
 20
41.045982247
 30
0.0
 10
-9.2563039765
 20
40.9986952084
 30
0.0
 10
-9.4011703183
 20
41.0012834948
 30
0.0
 10
-9.4174571322
 20
40.9986395645
 30
0.0
 11
9.4174571322
 21
40.9986395645
 31
0.0
 11
9.36198219
 21
41.0009936969
 31
0.0
 11
9.0995683654
 21
41.0296433673
 31
0.0
 11
8.6676467992
 21
41.0572155291
 31
0.0
 11
8.074263373
 21
41.083196565
 31
0.0
 11
7.3304716972
 21
41.1071024976
 31
0.0
 11
6.4501272034
 21
41.1284880045
 31
0.0
 11
5.449629044
 21
41.1469547142
 31
0.0
 11
4.3476146066
 21
41.1621586268
 31
0.0
 11
3.164612335
 21
41.1738165222
 31
0.0
 11
1.9226593233
 21
41.1817112359
 31
0.0
 11
0.6448908063
 21
41.1856957043
 31
0.0
 11
-0.6448908063
 21
41.1856957043
 31
0.0
 11
-1.9226593233
 21
41.1817112359
 31
0.0
 11
-3.164612335
 21
41.1738165222
 31
0.0
 11
-4.3476146066
 21
41.1621586268
 31
0.0
 11
-5.449629044
 21
41.1469547142
 31
0.0
 11
-6.4501272034
 21
41.1284880045
 31
0.0
 11
-7.3304716972
 21
41.1071024976
 31
0.0
 11
-8.074263373
 21
41.083196565
 31
0.0
 11
-8.6676467992
 21
41.0572155291
 31
0.0
 11
-9.0995683654
 21
41.0296433673
 31
0.0
 11
-9.36198219
 21
41.0009936969
 31
0.0
 11
-9.4174571322
 21
40.9986395645
 31
0.0
  0
SPLINE
  5
415
100
AcDbEntity
  8
0
100
AcDbSpline
 62
7
  6
CONTINUOUS
 70
0
 71
3
 72
31
 73
27
 74
25
 42
0.0000001
 43
0.0000001
 44
0.0000000001
 12
0.0
 22
20.2188592228
 32
0.0
 13
-0.0
 23
-20.2188592228
 33
0.0
 40
0.0
 40
0.0
 40
0.0
 40
0.0
 40
0.0045223561
 40
0.017352621
 40
0.0384030163
 40
0.0673336661
 40
0.1036567251
 40
0.1467541956
 40
0.1958907284
 40
0.2502269613
 40
0.3088341991
 40
0.3707104601
 40
0.4347977062
 40
0.5
 40
0.5652022938
 40
0.6292895399
 40
0.6911658009
 40
0.7497730387
 40
0.8041092716
 40
0.8532458044
 40
0.8963432749
 40
0.9326663339
 40
0.9615969837
 40
0.982647379
 40
0.9954776439
 40
1.0
 40
1.0
 40
1.0
 40
1.0
 10
10.1
 20
41.4716715117
 30
0.0
 10
10.1
 20
41.5021504719
 30
0.0
 10
9.9229296158
 20
41.4975645054
 30
0.0
 10
9.7228943277
 20
41.5467316149
 30
0.0
 10
9.2682427457
 20
41.5595422642
 30
0.0
 10
8.7009786612
 20
41.5910193752
 30
0.0
 10
7.9658990718
 20
41.6129615442
 30
0.0
 10
7.1015578245
 20
41.6357044035
 30
0.0
 10
6.1133234727
 20
41.6548169072
 30
0.0
 10
5.0212700305
 20
41.6712511101
 30
0.0
 10
3.8430654867
 20
41.6842710821
 30
0.0
 10
2.5991790027
 20
41.6937673526
 30
0.0
 10
1.3108005703
 20
41.699528427
 30
0.0
 10
0.0
 20
41.7014616995
 30
0.0
 10
-1.3108005703
 20
41.699528427
 30
0.0
 10
-2.5991790027
 20
41.6937673526
 30
0.0
 10
-3.8430654867
 20
41.6842710821
 30
0.0
 10
-5.0212700305
 20
41.6712511101
 30
0.0
 10
-6.1133234727
 20
41.6548169072
 30
0.0
 10
-7.1015578245
 20
41.6357044035
 30
0.0
 10
-7.9658990718
 20
41.6129615442
 30
0.0
 10
-8.7009786612
 20
41.5910193752
 30
0.0
 10
-9.2682427457
 20
41.5595422642
 30
0.0
 10
-9.7228943277
 20
41.5467316149
 30
0.0
 10
-9.9229296158
 20
41.4975645054
 30
0.0
 10
-10.1
 20
41.5021504719
 30
0.0
 10
-10.1
 20
41.4716715117
 30
0.0
 11
10.1
 21
41.4716715117
 31
0.0
 11
10.0135930999
 21
41.5015805534
 31
0.0
 11
9.7558508455
 21
41.5309778432
 31
0.0
 11
9.3311832784
 21
41.5593603852
 31
0.0
 11
8.7468565782
 21
41.5862425462
 31
0.0
 11
8.0128687369
 21
41.6111643651
 31
0.0
 11
7.14177849
 21
41.6336994226
 31
0.0
 11
6.148490433
 21
41.6534621376
 31
0.0
 11
5.05
 21
41.6701143646
 31
0.0
 11
3.8651026669
 21
41.6833711793
 31
0.0
 11
2.6140723555
 21
41.6930057541
 31
0.0
 11
1.3183145414
 21
41.6988532386
 31
0.0
 11
0.0
 21
41.7008135808
 31
0.0
 11
-1.3183145414
 21
41.6988532386
 31
0.0
 11
-2.6140723555
 21
41.6930057541
 31
0.0
 11
-3.8651026669
 21
41.6833711793
 31
0.0
 11
-5.05
 21
41.6701143646
 31
0.0
 11
-6.148490433
 21
41.6534621376
 31
0.0
 11
-7.14177849
 21
41.6336994226
 31
0.0
 11
-8.0128687369
 21
41.6111643651
 31
0.0
 11
-8.7468565782
 21
41.5862425462
 31
0.0
 11
-9.3311832784
 21
41.5593603852
 31
0.0
 11
-9.7558508455
 21
41.5309778432
 31
0.0
 11
-10.0135930999
 21
41.5015805534
 31
0.0
 11
-10.1
 21
41.4716715117
 31
0.0
  0
SPLINE
  5
416
100
AcDbEntity
  8
RACCORDO
100
AcDbSpline
 62
253
  6
CONTINUOUS
 70
0
 71
3
 72
30
 73
26
 74
24
 42
0.0000001
 43
0.0000001
 44
0.0000000001
 12
29.5071340143
 22
3.5230434752
 32
0.0
 13
29.5124404723
 23
-3.5375461803
 33
0.0
 40
0.0
 40
0.0
 40
0.0
 40
0.0
 40
0.0008038318
 40
0.0108994801
 40
0.0306368549
 40
0.0600611697
 40
0.098726882
 40
0.1457186842
 40
0.1997697618
 40
0.2600603882
 40
0.3250613371
 40
0.3937844137
 40
0.4644853034
 40
0.53608943
 40
0.6067787669
 40
0.6754790871
 40
0.7404461983
 40
0.8006928925
 40
0.8546903192
 40
0.9016201931
 40
0.9402066415
 40
0.9695281147
 40
0.9891666835
 40
0.999204894
 40
1.0
 40
1.0
 40
1.0
 40
1.0
 10
-11.5862790275
 20
40.4143113078
 30
0.0
 10
-11.5783727697
 20
40.415255286
 30
0.0
 10
-11.4653612448
 20
40.4231298809
 30
0.0
 10
-11.2790326081
 20
40.4639413368
 30
0.0
 10
-10.7876064587
 20
40.4847522783
 30
0.0
 10
-10.1266906735
 20
40.5214441506
 30
0.0
 10
-9.2315189524
 20
40.5496618643
 30
0.0
 10
-8.1551512141
 20
40.5779068614
 30
0.0
 10
-6.9083954143
 20
40.6016716431
 30
0.0
 10
-5.5235080577
 20
40.621605647
 30
0.0
 10
-4.0248961244
 20
40.6368789967
 30
0.0
 10
-2.4459290099
 20
40.6472546336
 30
0.0
 10
-0.8159029804
 20
40.6524878672
 30
0.0
 10
0.8293090064
 20
40.6524663675
 30
0.0
 10
2.459069891
 20
40.6471905275
 30
0.0
 10
4.037510334
 20
40.6367736454
 30
0.0
 10
5.5353453623
 20
40.6214609994
 30
0.0
 10
6.9192170106
 20
40.6014913345
 30
0.0
 10
8.1647394819
 20
40.5776927938
 30
0.0
 10
9.2396036696
 20
40.5494274888
 30
0.0
 10
10.1328744432
 20
40.5211840994
 30
0.0
 10
10.7916852986
 20
40.4845578256
 30
0.0
 10
11.280909894
 20
40.4636763823
 30
0.0
 10
11.466298727
 20
40.4231134859
 30
0.0
 10
11.5785576132
 20
40.4151735257
 30
0.0
 10
11.5863794523
 20
40.414235951
 30
0.0
 11
-11.5862790275
 21
40.4143113078
 31
0.0
 11
-11.5619577939
 21
40.4164529219
 31
0.0
 11
-11.3301175859
 21
40.4477463703
 31
0.0
 11
-10.874026172
 21
40.4818778245
 31
0.0
 11
-10.1930116367
 21
40.5153889861
 31
0.0
 11
-9.2975788791
 21
40.5468693684
 31
0.0
 11
-8.2090262834
 21
40.5752805631
 31
0.0
 11
-6.956761649
 21
40.5998288366
 31
0.0
 11
-5.559817387
 21
40.6201412998
 31
0.0
 11
-4.0536553127
 21
40.6357023268
 31
0.0
 11
-2.4611964909
 21
40.6462749964
 31
0.0
 11
-0.8228800822
 21
40.6515908397
 31
0.0
 11
0.8363753213
 21
40.6515689365
 31
0.0
 11
2.4744238801
 21
40.6462098194
 31
0.0
 11
4.0663550817
 21
40.6355949603
 31
0.0
 11
5.5717325932
 21
40.6199939195
 31
0.0
 11
6.9676581783
 21
40.5996440143
 31
0.0
 11
8.218678678
 21
40.5750620009
 31
0.0
 11
9.3057949588
 21
40.5466208561
 31
0.0
 11
10.199389283
 21
40.5151250185
 31
0.0
 11
10.8780190212
 21
40.4816382624
 31
0.0
 11
11.3318198056
 21
40.4475786812
 31
0.0
 11
11.5623289159
 21
40.4163739357
 31
0.0
 11
11.5863794523
 21
40.414235951
 31
0.0
  0
SPLINE
  5
417
100
AcDbEntity
  8
0
100
AcDbSpline
 62
7
  6
CONTINUOUS
 70
0
 71
3
 72
30
 73
26
 74
24
 42
0.0000001
 43
0.0000001
 44
0.0000000001
 12
0.0
 22
18.917459824
 32
0.0
 13
-0.0
 23
-18.917459824
 33
0.0
 40
0.0
 40
0.0
 40
0.0
 40
0.0
 40
0.0049019753
 40
0.0188559175
 40
0.0417342915
 40
0.0731313154
 40
0.1124693533
 40
0.1590191657
 40
0.2119157268
 40
0.270175098
 40
0.3327130773
 40
0.3983655547
 40
0.4659102854
 40
0.5340897146
 40
0.6016344453
 40
0.6672869227
 40
0.729824902
 40
0.7880842732
 40
0.8409808343
 40
0.8875306467
 40
0.9268686846
 40
0.9582657085
 40
0.9811440825
 40
0.9950980247
 40
1.0
 40
1.0
 40
1.0
 40
1.0
 10
9.45
 20
41.4716715117
 30
0.0
 10
9.45
 20
41.5025824855
 30
0.0
 10
9.2691084451
 20
41.4953785288
 30
0.0
 10
9.0663766292
 20
41.5458535516
 30
0.0
 10
8.6038071653
 20
41.5568021546
 30
0.0
 10
8.0282241603
 20
41.5878568384
 30
0.0
 10
7.2836489479
 20
41.608630663
 30
0.0
 10
6.4105906884
 20
41.6302894122
 30
0.0
 10
5.4156853517
 20
41.6481002937
 30
0.0
 10
4.3206880187
 20
41.6631032678
 30
0.0
 10
3.1449664268
 20
41.674538044
 30
0.0
 10
1.9107339723
 20
41.6823130693
 30
0.0
 10
0.6408882921
 20
41.6862338329
 30
0.0
 10
-0.6408882921
 20
41.6862338329
 30
0.0
 10
-1.9107339723
 20
41.6823130693
 30
0.0
 10
-3.1449664268
 20
41.674538044
 30
0.0
 10
-4.3206880187
 20
41.6631032678
 30
0.0
 10
-5.4156853517
 20
41.6481002937
 30
0.0
 10
-6.4105906884
 20
41.6302894122
 30
0.0
 10
-7.2836489479
 20
41.608630663
 30
0.0
 10
-8.0282241603
 20
41.5878568384
 30
0.0
 10
-8.6038071653
 20
41.5568021546
 30
0.0
 10
-9.0663766292
 20
41.5458535516
 30
0.0
 10
-9.2691084451
 20
41.4953785288
 30
0.0
 10
-9.45
 20
41.5025824855
 30
0.0
 10
-9.45
 20
41.4716715117
 30
0.0
 11
9.45
 21
41.4716715117
 31
0.0
 11
9.36198219
 21
41.5008650016
 31
0.0
 11
9.0995683654
 21
41.529514672
 31
0.0
 11
8.6676467992
 21
41.5570868338
 31
0.0
 11
8.074263373
 21
41.5830678697
 31
0.0
 11
7.3304716972
 21
41.6069738022
 31
0.0
 11
6.4501272034
 21
41.6283593091
 31
0.0
 11
5.449629044
 21
41.6468260188
 31
0.0
 11
4.3476146066
 21
41.6620299314
 31
0.0
 11
3.164612335
 21
41.6736878269
 31
0.0
 11
1.9226593233
 21
41.6815825406
 31
0.0
 11
0.6448908063
 21
41.685567009
 31
0.0
 11
-0.6448908063
 21
41.685567009
 31
0.0
 11
-1.9226593233
 21
41.6815825406
 31
0.0
 11
-3.164612335
 21
41.6736878269
 31
0.0
 11
-4.3476146066
 21
41.6620299314
 31
0.0
 11
-5.449629044
 21
41.6468260188
 31
0.0
 11
-6.4501272034
 21
41.6283593091
 31
0.0
 11
-7.3304716972
 21
41.6069738022
 31
0.0
 11
-8.074263373
 21
41.5830678697
 31
0.0
 11
-8.6676467992
 21
41.5570868338
 31
0.0
 11
-9.0995683654
 21
41.529514672
 31
0.0
 11
-9.36198219
 21
41.5008650016
 31
0.0
 11
-9.45
 21
41.4716715117
 31
0.0
  0
SPLINE
  5
418
100
AcDbEntity
  8
RACCORDO
100
AcDbSpline
 62
253
  6
CONTINUOUS
 70
0
 71
3
 72
17
 73
13
 74
11
 42
0.0000001
 43
0.0000001
 44
0.0000000001
 12
-0.0029018977
 22
-3.1308212777
 32
0.0
 13
-2.2074169347
 23
-2.2202163791
 33
0.0
 40
0.0
 40
0.0
 40
0.0
 40
0.0
 40
0.1599724356
 40
0.3141696217
 40
0.4592396095
 40
0.5920813895
 40
0.7098893377
 40
0.8101648291
 40
0.8907836564
 40
0.9500446327
 40
0.9866931558
 40
1.0
 40
1.0
 40
1.0
 40
1.0
 10
-33.8903404794
 20
-41.712587302
 30
0.0
 10
-33.8904952206
 20
-41.8795356704
 30
0.0
 10
-33.8910088527
 20
-42.2074035037
 30
0.0
 10
-33.8923849459
 20
-42.6866746847
 30
0.0
 10
-33.8943996157
 20
-43.1375989624
 30
0.0
 10
-33.8967684811
 20
-43.5506450501
 30
0.0
 10
-33.9001877894
 20
-43.9166208747
 30
0.0
 10
-33.9023015454
 20
-44.2290343177
 30
0.0
 10
-33.9093963682
 20
-44.4777466977
 30
0.0
 10
-33.9052013585
 20
-44.6663797305
 30
0.0
 10
-33.923563856
 20
-44.7721765564
 30
0.0
 10
-33.9106560475
 20
-44.8331212781
 30
0.0
 10
-33.9204472986
 20
-44.8429693026
 30
0.0
 11
-33.8903404794
 21
-41.712587302
 31
0.0
 11
-33.8911292036
 21
-42.2134320014
 31
0.0
 11
-33.892544655
 21
-42.6961939649
 31
0.0
 11
-33.8945568761
 21
-43.150377907
 31
0.0
 11
-33.8971230211
 21
-43.5662740403
 31
0.0
 11
-33.9001888792
 21
-43.9350970873
 31
0.0
 11
-33.9036894481
 21
-44.2490223478
 31
0.0
 11
-33.9075504905
 21
-44.5013960627
 31
0.0
 11
-33.9116904528
 21
-44.6868854736
 31
0.0
 11
-33.9160208412
 21
-44.8015437534
 31
0.0
 11
-33.9204472986
 21
-44.8429693026
 31
0.0
  0
SPLINE
  5
419
100
AcDbEntity
  8
RACCORDO
100
AcDbSpline
 62
253
  6
CONTINUOUS
 70
0
 71
3
 72
14
 73
10
 74
8
 42
0.0000001
 43
0.0000001
 44
0.0000000001
 12
0.0681680218
 22
-73.5802235136
 32
0.0
 13
-0.0681680204
 23
-73.5802235136
 33
0.0
 40
0.0
 40
0.0
 40
0.0
 40
0.0
 40
0.1425304104
 40
0.2853876231
 40
0.4284407859
 40
0.5715592548
 40
0.7146124174
 40
0.8574696298
 40
1.0
 40
1.0
 40
1.0
 40
1.0
 10
-33.8903404794
 20
31.8676575248
 30
0.0
 10
-33.8871018073
 20
28.3718510399
 30
0.0
 10
-33.8815514869
 20
21.372221774
 30
0.0
 10
-33.8760049752
 20
10.8639623497
 30
0.0
 10
-33.8732304441
 20
0.3412786545
 30
0.0
 10
-33.8732304445
 20
-10.1862114177
 30
0.0
 10
-33.8760049764
 20
-20.7088951018
 30
0.0
 10
-33.8815514883
 20
-31.217153529
 30
0.0
 10
-33.8871018083
 20
-38.216781803
 30
0.0
 10
-33.8903404794
 20
-41.712587302
 30
0.0
 11
-33.8903404794
 21
31.8676575248
 31
0.0
 11
-33.8820207176
 21
21.3802368694
 31
0.0
 11
-33.8764699667
 21
10.8687681842
 31
0.0
 11
-33.8736933236
 21
0.3428803417
 31
0.0
 11
-33.873693324
 21
-10.18781311
 31
0.0
 11
-33.8764699679
 21
-20.7137009369
 31
0.0
 11
-33.8820207195
 21
-31.2251696044
 31
0.0
 11
-33.8903404794
 21
-41.712587302
 31
0.0
  0
SPLINE
  5
41A
100
AcDbEntity
  8
RACCORDO
100
AcDbSpline
 62
253
  6
CONTINUOUS
 70
0
 71
3
 72
17
 73
13
 74
11
 42
0.0000001
 43
0.0000001
 44
0.0000000001
 12
2.2075974178
 22
-2.2200369128
 32
0.0
 13
0.0029019371
 23
-3.1308212712
 33
0.0
 40
0.0
 40
0.0
 40
0.0
 40
0.0
 40
0.0133085599
 40
0.0499587631
 40
0.1092215875
 40
0.1898423085
 40
0.2901196645
 40
0.4079285193
 40
0.5407708261
 40
0.6858411133
 40
0.8400382812
 40
1.0
 40
1.0
 40
1.0
 40
1.0
 10
-33.9204472986
 20
34.9980395254
 30
0.0
 10
-33.9106539844
 20
34.9881910273
 30
0.0
 10
-33.9235653129
 20
34.9272401464
 30
0.0
 10
-33.9052002188
 20
34.8214398358
 30
0.0
 10
-33.9093964313
 20
34.6328001615
 30
0.0
 10
-33.9023011356
 20
34.3840823276
 30
0.0
 10
-33.9001875736
 20
34.0716638751
 30
0.0
 10
-33.8967682546
 20
33.7056846545
 30
0.0
 10
-33.8943994515
 20
33.2926367448
 30
0.0
 10
-33.8923848278
 20
32.8417116287
 30
0.0
 10
-33.8910088091
 20
32.362451338
 30
0.0
 10
-33.8904952123
 20
32.0345947087
 30
0.0
 10
-33.8903404794
 20
31.8676575248
 30
0.0
 11
-33.9204472986
 21
34.9980395254
 31
0.0
 11
-33.9160205424
 21
34.9566086061
 31
0.0
 11
-33.911690149
 21
34.8419450628
 31
0.0
 11
-33.90755019
 21
34.6564498647
 31
0.0
 11
-33.903689157
 21
34.4040702205
 31
0.0
 11
-33.9001886081
 21
34.0901391228
 31
0.0
 11
-33.8971227988
 21
33.7213132376
 31
0.0
 11
-33.8945567044
 21
33.3054154554
 31
0.0
 11
-33.8925445332
 21
32.8512305765
 31
0.0
 11
-33.891129128
 21
32.3684686707
 31
0.0
 11
-33.8903404794
 21
31.8676575248
 31
0.0
  0
SPLINE
  5
41B
100
AcDbEntity
  8
RACCORDO
100
AcDbSpline
 62
253
  6
CONTINUOUS
 70
0
 71
3
 72
17
 73
13
 74
11
 42
0.0000001
 43
0.0000001
 44
0.0000000001
 12
0.0029019373
 22
3.1308212712
 32
0.0
 13
2.2075981421
 23
2.2200361925
 33
0.0
 40
0.0
 40
0.0
 40
0.0
 40
0.0
 40
0.1599617188
 40
0.3141588867
 40
0.4592291739
 40
0.5920714807
 40
0.7098803355
 40
0.8101576915
 40
0.8907784125
 40
0.9500412369
 40
0.9866914401
 40
1.0
 40
1.0
 40
1.0
 40
1.0
 10
33.8903404794
 20
31.8676575248
 30
0.0
 10
33.8904952123
 20
32.0345947087
 30
0.0
 10
33.8910088091
 20
32.362451338
 30
0.0
 10
33.8923848278
 20
32.8417116287
 30
0.0
 10
33.8943994515
 20
33.2926367448
 30
0.0
 10
33.8967682545
 20
33.7056846546
 30
0.0
 10
33.9001875738
 20
34.071663875
 30
0.0
 10
33.9023011352
 20
34.3840823281
 30
0.0
 10
33.9093964324
 20
34.6328001604
 30
0.0
 10
33.9052002162
 20
34.8214398383
 30
0.0
 10
33.9235653171
 20
34.9272401422
 30
0.0
 10
33.9106539812
 20
34.9881910305
 30
0.0
 10
33.9204472986
 20
34.9980395254
 30
0.0
 11
33.8903404794
 21
31.8676575248
 31
0.0
 11
33.891129128
 21
32.3684686707
 31
0.0
 11
33.8925445332
 21
32.8512305765
 31
0.0
 11
33.8945567044
 21
33.3054154554
 31
0.0
 11
33.8971227988
 21
33.7213132376
 31
0.0
 11
33.9001886081
 21
34.0901391228
 31
0.0
 11
33.903689157
 21
34.4040702205
 31
0.0
 11
33.90755019
 21
34.6564498647
 31
0.0
 11
33.911690149
 21
34.8419450628
 31
0.0
 11
33.9160205424
 21
34.9566086061
 31
0.0
 11
33.9204472986
 21
34.9980395254
 31
0.0
  0
SPLINE
  5
41C
100
AcDbEntity
  8
RACCORDO
100
AcDbSpline
 62
253
  6
CONTINUOUS
 70
0
 71
3
 72
14
 73
10
 74
8
 42
0.0000001
 43
0.0000001
 44
0.0000000001
 12
-0.0681680204
 22
73.5802235136
 32
0.0
 13
0.0681680218
 23
73.5802235136
 33
0.0
 40
0.0
 40
0.0
 40
0.0
 40
0.0
 40
0.1425303702
 40
0.2853875826
 40
0.4284407452
 40
0.5715592141
 40
0.7146123769
 40
0.8574695896
 40
1.0
 40
1.0
 40
1.0
 40
1.0
 10
33.8903404794
 20
-41.712587302
 30
0.0
 10
33.8871018083
 20
-38.216781803
 30
0.0
 10
33.8815514883
 20
-31.217153529
 30
0.0
 10
33.8760049764
 20
-20.7088951018
 30
0.0
 10
33.8732304445
 20
-10.1862114177
 30
0.0
 10
33.8732304441
 20
0.3412786545
 30
0.0
 10
33.8760049752
 20
10.8639623497
 30
0.0
 10
33.8815514869
 20
21.372221774
 30
0.0
 10
33.8871018073
 20
28.3718510399
 30
0.0
 10
33.8903404794
 20
31.8676575248
 30
0.0
 11
33.8903404794
 21
-41.712587302
 31
0.0
 11
33.8820207195
 21
-31.2251696044
 31
0.0
 11
33.8764699679
 21
-20.7137009369
 31
0.0
 11
33.873693324
 21
-10.18781311
 31
0.0
 11
33.8736933236
 21
0.3428803417
 31
0.0
 11
33.8764699667
 21
10.8687681842
 31
0.0
 11
33.8820207176
 21
21.3802368694
 31
0.0
 11
33.8903404794
 21
31.8676575248
 31
0.0
  0
SPLINE
  5
41D
100
AcDbEntity
  8
RACCORDO
100
AcDbSpline
 62
253
  6
CONTINUOUS
 70
0
 71
3
 72
17
 73
13
 74
11
 42
0.0000001
 43
0.0000001
 44
0.0000000001
 12
-2.2074162612
 22
2.2202170487
 32
0.0
 13
-0.0029018975
 23
3.1308212777
 33
0.0
 40
0.0
 40
0.0
 40
0.0
 40
0.0
 40
0.0133068442
 40
0.0499553673
 40
0.1092163436
 40
0.1898351709
 40
0.2901106623
 40
0.4079186105
 40
0.5407603905
 40
0.6858303783
 40
0.8400275644
 40
1.0
 40
1.0
 40
1.0
 40
1.0
 10
33.9204472986
 20
-44.8429693026
 30
0.0
 10
33.9106560505
 20
-44.8331212752
 30
0.0
 10
33.923563852
 20
-44.7721765603
 30
0.0
 10
33.9052013609
 20
-44.6663797282
 30
0.0
 10
33.9093963672
 20
-44.4777466987
 30
0.0
 10
33.9023015458
 20
-44.2290343173
 30
0.0
 10
33.9001877892
 20
-43.9166208749
 30
0.0
 10
33.8967684811
 20
-43.5506450501
 30
0.0
 10
33.8943996156
 20
-43.1375989624
 30
0.0
 10
33.8923849459
 20
-42.6866746846
 30
0.0
 10
33.8910088527
 20
-42.2074035037
 30
0.0
 10
33.8904952206
 20
-41.8795356704
 30
0.0
 10
33.8903404794
 20
-41.712587302
 30
0.0
 11
33.9204472986
 21
-44.8429693026
 31
0.0
 11
33.9160208412
 21
-44.8015437534
 31
0.0
 11
33.9116904528
 21
-44.6868854737
 31
0.0
 11
33.9075504905
 21
-44.5013960627
 31
0.0
 11
33.9036894481
 21
-44.2490223478
 31
0.0
 11
33.9001888792
 21
-43.9350970873
 31
0.0
 11
33.8971230211
 21
-43.5662740403
 31
0.0
 11
33.8945568761
 21
-43.150377907
 31
0.0
 11
33.892544655
 21
-42.6961939649
 31
0.0
 11
33.8911292036
 21
-42.2134320014
 31
0.0
 11
33.8903404794
 21
-41.712587302
 31
0.0
  0
SPLINE
  5
41E
100
AcDbEntity
  8
RACCORDO
100
AcDbSpline
 62
253
  6
CONTINUOUS
 70
0
 71
3
 72
16
 73
12
 74
10
 42
0.0000001
 43
0.0000001
 44
0.0000000001
 12
3.4528354516
 22
-0.000267707
 32
0.0
 13
0.0002349087
 23
-3.452835454
 33
0.0
 40
0.0
 40
0.0
 40
0.0
 40
0.0
 40
0.103728295
 40
0.2141285749
 40
0.3276355194
 40
0.4410754303
 40
0.5534104829
 40
0.6666243204
 40
0.7804540475
 40
0.8925550961
 40
1.0
 40
1.0
 40
1.0
 40
1.0
 10
6.75
 20
13.5433629639
 30
0.0
 10
6.8693855781
 20
13.5433537076
 30
0.0
 10
7.1162922013
 20
13.5232060125
 30
0.0
 10
7.4834353649
 20
13.4294629198
 30
0.0
 10
7.8389181245
 20
13.2681811781
 30
0.0
 10
8.1619491
 20
13.0451121491
 30
0.0
 10
8.4402845041
 20
12.7688191347
 30
0.0
 10
8.6658690905
 20
12.4474199414
 30
0.0
 10
8.830789224
 20
12.0913116324
 30
0.0
 10
8.9286396028
 20
11.7183293136
 30
0.0
 10
8.9499915868
 20
11.465138823
 30
0.0
 10
8.95
 20
11.3414756319
 30
0.0
 11
6.75
 21
13.5433629639
 31
0.0
 11
7.1069662128
 21
13.5141847193
 31
0.0
 11
7.4763165391
 21
13.4199021476
 31
0.0
 11
7.8332176384
 21
13.2579653663
 31
0.0
 11
8.1555328542
 21
13.0354042589
 31
0.0
 11
8.430813888
 21
12.7621517315
 31
0.0
 11
8.6553875118
 21
12.4421887013
 31
0.0
 11
8.8205744954
 21
12.0855516002
 31
0.0
 11
8.918772548
 21
11.7111486097
 31
0.0
 11
8.95
 21
11.3414756319
 31
0.0
  0
SPLINE
  5
41F
100
AcDbEntity
  8
RACCORDO
100
AcDbSpline
 62
253
  6
CONTINUOUS
 70
0
 71
3
 72
17
 73
13
 74
11
 42
0.0000001
 43
0.0000001
 44
0.0000000001
 12
-0.0029018324
 22
-4.4723928013
 32
0.0
 13
-2.5622662129
 23
-3.6656646934
 33
0.0
 40
0.0
 40
0.0
 40
0.0
 40
0.0
 40
0.160119464
 40
0.3142912276
 40
0.4593351041
 40
0.5921521205
 40
0.7099383018
 40
0.8101977431
 40
0.8908069664
 40
0.9500641706
 40
0.9867104707
 40
1.0
 40
1.0
 40
1.0
 40
1.0
 10
-32.3903974751
 20
-41.8708281064
 30
0.0
 10
-32.390552355
 20
-42.109533819
 30
0.0
 10
-32.3910670004
 20
-42.5780768314
 30
0.0
 10
-32.39244075
 20
-43.2628577219
 30
0.0
 10
-32.3944650651
 20
-43.9069069436
 30
0.0
 10
-32.3968020601
 20
-44.4968008993
 30
0.0
 10
-32.4003187452
 20
-45.0196425362
 30
0.0
 10
-32.4021455037
 20
-45.4654938282
 30
0.0
 10
-32.4100088584
 20
-45.8217629187
 30
0.0
 10
-32.4040024936
 20
-46.0888612818
 30
0.0
 10
-32.425671816
 20
-46.2443308554
 30
0.0
 10
-32.4091546602
 20
-46.3266748469
 30
0.0
 10
-32.4205050974
 20
-46.3429131663
 30
0.0
 11
-32.3903974751
 21
-41.8708281064
 31
0.0
 11
-32.3911871312
 21
-42.5869449598
 31
0.0
 11
-32.3926026817
 21
-43.2764603374
 31
0.0
 11
-32.3946148162
 21
-43.9251505425
 31
0.0
 11
-32.3971805898
 21
-44.5191549943
 31
0.0
 11
-32.4002458661
 21
-45.0459322562
 31
0.0
 11
-32.4037456955
 21
-45.4943182957
 31
0.0
 11
-32.4076058799
 21
-45.8548138147
 31
0.0
 11
-32.4117450396
 21
-46.119803039
 31
0.0
 11
-32.4160744319
 21
-46.2836425312
 31
0.0
 11
-32.4205050974
 21
-46.3429131663
 31
0.0
  0
SPLINE
  5
420
100
AcDbEntity
  8
RACCORDO
100
AcDbSpline
 62
253
  6
CONTINUOUS
 70
0
 71
3
 72
17
 73
13
 74
11
 42
0.0000001
 43
0.0000001
 44
0.0000000001
 12
-2.5622661071
 22
3.665664757
 32
0.0
 13
-0.0029018322
 23
4.4723927928
 33
0.0
 40
0.0
 40
0.0
 40
0.0
 40
0.0
 40
0.0132895293
 40
0.0499358295
 40
0.1091930338
 40
0.1898022573
 40
0.2900616988
 40
0.4078478803
 40
0.540664897
 40
0.6857087738
 40
0.8398805376
 40
1.0
 40
1.0
 40
1.0
 40
1.0
 10
32.4205050975
 20
-46.3429131664
 30
0.0
 10
32.4091546606
 20
-46.3266748467
 30
0.0
 10
32.4256718154
 20
-46.2443308558
 30
0.0
 10
32.404002494
 20
-46.0888612815
 30
0.0
 10
32.4100088582
 20
-45.8217629188
 30
0.0
 10
32.4021455038
 20
-45.4654938281
 30
0.0
 10
32.4003187452
 20
-45.0196425362
 30
0.0
 10
32.3968020601
 20
-44.4968008993
 30
0.0
 10
32.3944650651
 20
-43.9069069436
 30
0.0
 10
32.39244075
 20
-43.2628577219
 30
0.0
 10
32.3910670004
 20
-42.5780768342
 30
0.0
 10
32.390552355
 20
-42.1095338247
 30
0.0
 10
32.3903974751
 20
-41.8708281149
 30
0.0
 11
32.4205050975
 21
-46.3429131664
 31
0.0
 11
32.4160744319
 21
-46.2836425312
 31
0.0
 11
32.4117450396
 21
-46.119803039
 31
0.0
 11
32.4076058799
 21
-45.8548138147
 31
0.0
 11
32.4037456955
 21
-45.4943182957
 31
0.0
 11
32.4002458661
 21
-45.0459322562
 31
0.0
 11
32.3971805898
 21
-44.5191549943
 31
0.0
 11
32.3946148162
 21
-43.9251505425
 31
0.0
 11
32.3926026817
 21
-43.2764603374
 31
0.0
 11
32.3911871312
 21
-42.5869449598
 31
0.0
 11
32.3903974751
 21
-41.8708281149
 31
0.0
  0
SPLINE
  5
421
100
AcDbEntity
  8
RACCORDO
100
AcDbSpline
 62
253
  6
CONTINUOUS
 70
0
 71
3
 72
12
 73
8
 74
6
 42
0.0000001
 43
0.0000001
 44
0.0000000001
 12
0.3008933055
 22
0.0
 32
0.0
 13
0.0
 23
0.3008933055
 33
0.0
 40
0.0
 40
0.0
 40
0.0
 40
0.0
 40
0.3081079184
 40
0.5861264528
 40
0.806939408
 40
0.9491449558
 40
1.0
 40
1.0
 40
1.0
 40
1.0
 10
-8.95
 20
-21.186405409
 30
0.0
 10
-8.9190974633
 20
-21.186405409
 30
0.0
 10
-8.8598003512
 20
-21.1862440676
 30
0.0
 10
-8.7808476571
 20
-21.1834676697
 30
0.0
 10
-8.7115653846
 20
-21.1832154334
 30
0.0
 10
-8.6798543417
 20
-21.1752702669
 30
0.0
 10
-8.65
 20
-21.177565536
 30
0.0
 10
-8.65
 20
-21.1724648886
 30
0.0
 11
-8.95
 21
-21.186405409
 31
0.0
 11
-8.8572949008
 21
-21.1857231114
 31
0.0
 11
-8.773664423
 21
-21.1837430065
 31
0.0
 11
-8.7072949006
 21
-21.1806589209
 31
0.0
 11
-8.6646830447
 21
-21.1767727463
 31
0.0
 11
-8.65
 21
-21.1724648886
 31
0.0
  0
SPLINE
  5
422
100
AcDbEntity
  8
RACCORDO
100
AcDbSpline
 62
253
  6
CONTINUOUS
 70
0
 71
3
 72
12
 73
8
 74
6
 42
0.0000001
 43
0.0000001
 44
0.0000000001
 12
-0.300893308
 22
0.0000000007
 32
0.0
 13
-0.0
 23
0.300893308
 33
0.0
 40
0.0
 40
0.0
 40
0.0
 40
0.0
 40
0.3081114648
 40
0.5861306634
 40
0.8069421857
 40
0.9491458154
 40
1.0
 40
1.0
 40
1.0
 40
1.0
 10
8.95
 20
-21.186405409
 30
0.0
 10
8.9190971074
 20
-21.186405409
 30
0.0
 10
8.8597995637
 20
-21.1862440622
 30
0.0
 10
8.7808466054
 20
-21.1834676401
 30
0.0
 10
8.7115646234
 20
-21.1832153591
 30
0.0
 10
8.6798538822
 20
-21.1752702954
 30
0.0
 10
8.65
 20
-21.1775654493
 30
0.0
 10
8.65
 20
-21.1724648881
 30
0.0
 11
8.95
 21
-21.186405409
 31
0.0
 11
8.857293833
 21
-21.1857230951
 31
0.0
 11
8.7736631552
 21
-21.1837429634
 31
0.0
 11
8.7072940644
 21
-21.1806588669
 31
0.0
 11
8.6646827861
 21
-21.1767727088
 31
0.0
 11
8.65
 21
-21.1724648881
 31
0.0
  0
SPLINE
  5
423
100
AcDbEntity
  8
RACCORDO
100
AcDbSpline
 62
253
  6
CONTINUOUS
 70
0
 71
3
 72
12
 73
8
 74
6
 42
0.0000001
 43
0.0000001
 44
0.0000000001
 12
-0.3008933055
 22
-0.0
 32
0.0
 13
-0.0
 23
-0.3008933055
 33
0.0
 40
0.0
 40
0.0
 40
0.0
 40
0.0
 40
0.3081079184
 40
0.5861264528
 40
0.806939408
 40
0.9491449558
 40
1.0
 40
1.0
 40
1.0
 40
1.0
 10
8.95
 20
11.3414756319
 30
0.0
 10
8.9190974633
 20
11.3414756319
 30
0.0
 10
8.8598003512
 20
11.3413142904
 30
0.0
 10
8.7808476571
 20
11.3385378925
 30
0.0
 10
8.7115653846
 20
11.3382856562
 30
0.0
 10
8.6798543417
 20
11.3303404897
 30
0.0
 10
8.65
 20
11.3326357589
 30
0.0
 10
8.65
 20
11.3275351114
 30
0.0
 11
8.95
 21
11.3414756319
 31
0.0
 11
8.8572949008
 21
11.3407933342
 31
0.0
 11
8.773664423
 21
11.3388132293
 31
0.0
 11
8.7072949006
 21
11.3357291437
 31
0.0
 11
8.6646830447
 21
11.3318429691
 31
0.0
 11
8.65
 21
11.3275351114
 31
0.0
  0
SPLINE
  5
424
100
AcDbEntity
  8
RACCORDO
100
AcDbSpline
 62
253
  6
CONTINUOUS
 70
0
 71
3
 72
12
 73
8
 74
6
 42
0.0000001
 43
0.0000001
 44
0.0000000001
 12
0.300893308
 22
-0.0000000007
 32
0.0
 13
0.0
 23
-0.300893308
 33
0.0
 40
0.0
 40
0.0
 40
0.0
 40
0.0
 40
0.3081114648
 40
0.5861306634
 40
0.8069421857
 40
0.9491458154
 40
1.0
 40
1.0
 40
1.0
 40
1.0
 10
-8.95
 20
11.3414756319
 30
0.0
 10
-8.9190971074
 20
11.3414756318
 30
0.0
 10
-8.8597995637
 20
11.341314285
 30
0.0
 10
-8.7808466054
 20
11.3385378629
 30
0.0
 10
-8.7115646234
 20
11.3382855819
 30
0.0
 10
-8.6798538822
 20
11.3303405182
 30
0.0
 10
-8.65
 20
11.3326356721
 30
0.0
 10
-8.65
 20
11.3275351109
 30
0.0
 11
-8.95
 21
11.3414756319
 31
0.0
 11
-8.857293833
 21
11.3407933179
 31
0.0
 11
-8.7736631552
 21
11.3388131862
 31
0.0
 11
-8.7072940644
 21
11.3357290898
 31
0.0
 11
-8.6646827861
 21
11.3318429316
 31
0.0
 11
-8.65
 21
11.3275351109
 31
0.0
  0
SPLINE
  5
425
100
AcDbEntity
  8
RACCORDO
100
AcDbSpline
 62
253
  6
CONTINUOUS
 70
0
 71
3
 72
14
 73
10
 74
8
 42
0.0000001
 43
0.0000001
 44
0.0000000001
 12
0.0681678158
 22
-73.8967010029
 32
0.0
 13
-0.0681678145
 23
-73.8967010029
 33
0.0
 40
0.0
 40
0.0
 40
0.0
 40
0.0
 40
0.142529616
 40
0.2853871272
 40
0.4284405881
 40
0.5715593549
 40
0.7146128158
 40
0.857470327
 40
1.0
 40
1.0
 40
1.0
 40
1.0
 10
-32.3903975046
 20
32.0258941182
 30
0.0
 10
-32.3871588604
 20
28.5150713131
 30
0.0
 10
-32.3816085714
 20
21.4853480139
 30
0.0
 10
-32.3760620868
 20
10.9318961864
 30
0.0
 10
-32.3732875598
 20
0.3639311506
 30
0.0
 10
-32.3732875598
 20
-10.2088609282
 30
0.0
 10
-32.3760620868
 20
-20.7768259639
 30
0.0
 10
-32.3816085721
 20
-31.3302791949
 30
0.0
 10
-32.3871588625
 20
-38.3600038978
 30
0.0
 10
-32.3903975079
 20
-41.8708281065
 30
0.0
 11
-32.3903975046
 21
32.0258941182
 31
0.0
 11
-32.3820778176
 21
21.4934245075
 31
0.0
 11
-32.3765270767
 21
10.9367226841
 31
0.0
 11
-32.3737504385
 21
0.365539721
 31
0.0
 11
-32.3737504385
 21
-10.2104694986
 31
0.0
 11
-32.3765270768
 21
-20.7816524614
 31
0.0
 11
-32.3820778176
 21
-31.338354285
 31
0.0
 11
-32.3903975079
 21
-41.8708281065
 31
0.0
  0
SPLINE
  5
426
100
AcDbEntity
  8
RACCORDO
100
AcDbSpline
 62
253
  6
CONTINUOUS
 70
0
 71
3
 72
14
 73
10
 74
8
 42
0.0000001
 43
0.0000001
 44
0.0000000001
 12
-0.0681678145
 22
73.8967010037
 32
0.0
 13
0.0681678158
 23
73.8967010037
 33
0.0
 40
0.0
 40
0.0
 40
0.0
 40
0.0
 40
0.1425296731
 40
0.2853871843
 40
0.4284406452
 40
0.571559412
 40
0.7146128729
 40
0.8574703841
 40
1.0
 40
1.0
 40
1.0
 40
1.0
 10
32.3903975079
 20
-41.870828115
 30
0.0
 10
32.3871588625
 20
-38.3600039035
 30
0.0
 10
32.3816085721
 20
-31.3302791978
 30
0.0
 10
32.3760620868
 20
-20.7768259639
 30
0.0
 10
32.3732875598
 20
-10.2088609282
 30
0.0
 10
32.3732875598
 20
0.3639311506
 30
0.0
 10
32.3760620868
 20
10.9318961864
 30
0.0
 10
32.3816085714
 20
21.4853480113
 30
0.0
 10
32.3871588604
 20
28.5150713079
 30
0.0
 10
32.3903975046
 20
32.0258941105
 30
0.0
 11
32.3903975079
 21
-41.870828115
 31
0.0
 11
32.3820778176
 21
-31.338354285
 31
0.0
 11
32.3765270768
 21
-20.7816524614
 31
0.0
 11
32.3737504385
 21
-10.2104694986
 31
0.0
 11
32.3737504385
 21
0.365539721
 31
0.0
 11
32.3765270767
 21
10.9367226841
 31
0.0
 11
32.3820778176
 21
21.4934245075
 31
0.0
 11
32.3903975046
 21
32.0258941105
 31
0.0
  0
SPLINE
  5
427
100
AcDbEntity
  8
RACCORDO
100
AcDbSpline
 62
253
  6
CONTINUOUS
 70
0
 71
3
 72
37
 73
33
 74
31
 42
0.0000001
 43
0.0000001
 44
0.0000000001
 12
-11.1414650865
 22
0.0000181907
 32
0.0
 13
11.1414650864
 23
0.0000561587
 33
0.0
 40
0.0
 40
0.0
 40
0.0
 40
0.0
 40
0.0233519031
 40
0.0480281865
 40
0.074207914
 40
0.1020748958
 40
0.1315177098
 40
0.1617051581
 40
0.1917015279
 40
0.2212834192
 40
0.2509155671
 40
0.2821149469
 40
0.3166353225
 40
0.3559956292
 40
0.4004711876
 40
0.4492486795
 40
0.500976434
 40
0.5525794895
 40
0.6010254282
 40
0.6450546008
 40
0.6839398195
 40
0.7180227535
 40
0.7489356637
 40
0.7784219166
 40
0.807979724
 40
0.8379121085
 40
0.867970313
 40
0.8973375691
 40
0.9253277581
 40
0.9517821069
 40
0.9766821674
 40
1.0
 40
1.0
 40
1.0
 40
1.0
 10
25.0
 20
18.5425367085
 30
0.0
 10
24.9132751955
 20
18.5425368501
 30
0.0
 10
24.7348396201
 20
18.5490875477
 30
0.0
 10
24.4607144309
 20
18.5799737732
 30
0.0
 10
24.1734031246
 20
18.6358614248
 30
0.0
 10
23.8747829775
 20
18.7207852034
 30
0.0
 10
23.5710546476
 20
18.8375924464
 30
0.0
 10
23.2724742212
 20
18.9858410832
 30
0.0
 10
22.9887937199
 20
19.1618900734
 30
0.0
 10
22.7244656513
 20
19.3624250072
 30
0.0
 10
22.4766074411
 20
19.5896661794
 30
0.0
 10
22.2392258754
 20
19.8532019521
 30
0.0
 10
22.0088527751
 20
20.1691409258
 30
0.0
 10
21.7921762047
 20
20.5528658601
 30
0.0
 10
21.6077996214
 20
21.0112862615
 30
0.0
 10
21.4814220827
 20
21.5368510636
 30
0.0
 10
21.4371170042
 20
22.1025260544
 30
0.0
 10
21.4846780644
 20
22.6666831894
 30
0.0
 10
21.6129902358
 20
23.1882842308
 30
0.0
 10
21.7974288775
 20
23.6416086509
 30
0.0
 10
22.0125731852
 20
24.0203559735
 30
0.0
 10
22.2406562313
 20
24.3324188213
 30
0.0
 10
22.4758611359
 20
24.5935470674
 30
0.0
 10
22.7223069333
 20
24.8198095063
 30
0.0
 10
22.985748445
 20
25.0200723591
 30
0.0
 10
23.268546655
 20
25.1960058776
 30
0.0
 10
23.5660194612
 20
25.34422653
 30
0.0
 10
23.8692598782
 20
25.4614483133
 30
0.0
 10
24.1688947736
 20
25.5471966105
 30
0.0
 10
24.4584237162
 20
25.6038247628
 30
0.0
 10
24.7342619713
 20
25.6349723391
 30
0.0
 10
24.9134017272
 20
25.6415387812
 30
0.0
 10
25.0
 20
25.6415392177
 30
0.0
 11
25.0
 21
18.5425367085
 31
0.0
 11
24.740000817
 21
18.5520839757
 31
0.0
 11
24.4667993932
 21
18.5828647975
 31
0.0
 11
24.1804856138
 21
18.6385599121
 31
0.0
 11
23.8818481717
 21
18.7234886482
 31
0.0
 11
23.5756734352
 21
18.8412371248
 31
0.0
 11
23.2744291326
 21
18.9908076893
 31
0.0
 11
22.99046298
 21
19.1670325704
 31
0.0
 11
22.7278892447
 21
19.3662352488
 31
0.0
 11
22.4845392103
 21
19.5893424859
 31
0.0
 11
22.2518951552
 21
19.847619917
 31
0.0
 11
22.0252967408
 21
20.1583869251
 31
0.0
 11
21.8096787785
 21
20.5402491459
 31
0.0
 11
21.6247822364
 21
20.9999840638
 31
0.0
 11
21.4977337619
 21
21.5283774278
 31
0.0
 11
21.4527377656
 21
22.1029411994
 31
0.0
 11
21.5010302766
 21
22.6758430446
 31
0.0
 11
21.6299560954
 21
23.1999781657
 31
0.0
 11
21.8148174784
 21
23.6543624424
 31
0.0
 11
22.0287963512
 21
24.0310698512
 31
0.0
 11
22.2528672823
 21
24.3376477232
 31
0.0
 11
22.4833709721
 21
24.5935575052
 31
0.0
 11
22.7253681915
 21
24.8157348532
 31
0.0
 11
22.9875361548
 21
25.0150281782
 31
0.0
 11
23.2707025212
 21
25.191189469
 31
0.0
 11
23.5704473019
 21
25.3405414372
 31
0.0
 11
23.8756328428
 21
25.4585154526
 31
0.0
 11
24.1754491593
 21
25.5443156129
 31
0.0
 11
24.4647082918
 21
25.6008924787
 31
0.0
 11
24.740379645
 21
25.6320198227
 31
0.0
 11
25.0
 21
25.6415392177
 31
0.0
  0
SPLINE
  5
428
100
AcDbEntity
  8
RACCORDO
100
AcDbSpline
 62
253
  6
CONTINUOUS
 70
0
 71
3
 72
37
 73
33
 74
31
 42
0.0000001
 43
0.0000001
 44
0.0000000001
 12
11.1414648889
 22
-0.0000171995
 32
0.0
 13
-11.1414648888
 23
-0.000057491
 33
0.0
 40
0.0
 40
0.0
 40
0.0
 40
0.0
 40
0.0232148328
 40
0.0477588978
 40
0.0738172938
 40
0.1015800126
 40
0.1309400611
 40
0.1610606577
 40
0.1909901061
 40
0.2204955497
 40
0.2500366438
 40
0.2811246553
 40
0.3155163572
 40
0.3547383496
 40
0.3990925519
 40
0.4477791199
 40
0.499473113
 40
0.5511160208
 40
0.5996578472
 40
0.643809975
 40
0.6828338469
 40
0.7170440143
 40
0.7480665971
 40
0.7776427299
 40
0.8072763755
 40
0.8372767284
 40
0.8674022832
 40
0.8968517081
 40
0.9249445597
 40
0.9515180116
 40
0.9765478787
 40
1.0
 40
1.0
 40
1.0
 40
1.0
 10
25.0
 20
25.6415392177
 30
0.0
 10
25.0862157482
 20
25.6415390846
 30
0.0
 10
25.2636500502
 20
25.6350634014
 30
0.0
 10
25.5363490659
 20
25.6045143615
 30
0.0
 10
25.8224090154
 20
25.5491780933
 30
0.0
 10
26.1200409155
 20
25.4649831222
 30
0.0
 10
26.4230814923
 20
25.3490265984
 30
0.0
 10
26.7212221916
 20
25.2017096767
 30
0.0
 10
27.0046101926
 20
25.0266777467
 30
0.0
 10
27.2687122836
 20
24.8272930389
 30
0.0
 10
27.5163963526
 20
24.6014027484
 30
0.0
 10
27.7537212137
 20
24.3394809407
 30
0.0
 10
27.9843033397
 20
24.0254464711
 30
0.0
 10
28.2016911233
 20
23.6437962739
 30
0.0
 10
28.387468349
 20
23.1873611877
 30
0.0
 10
28.5159754078
 20
22.6632657185
 30
0.0
 10
28.562895022
 20
22.0981225068
 30
0.0
 10
28.5179330137
 20
21.5333667416
 30
0.0
 10
28.391713317
 20
21.0102546069
 30
0.0
 10
28.2086360746
 20
20.5549333795
 30
0.0
 10
27.994177447
 20
20.1741260266
 30
0.0
 10
27.7662935058
 20
19.8601825322
 30
0.0
 10
27.531034218
 20
19.5974640718
 30
0.0
 10
27.284420505
 20
19.3698674698
 30
0.0
 10
27.0207537339
 20
19.1684622617
 30
0.0
 10
26.7376585236
 20
18.9915165837
 30
0.0
 10
26.439741381
 20
18.8423702976
 30
0.0
 10
26.1358189629
 20
18.7243056462
 30
0.0
 10
25.8352125143
 20
18.6378347061
 30
0.0
 10
25.5444556575
 20
18.5806590958
 30
0.0
 10
25.2672187166
 20
18.5491776368
 30
0.0
 10
25.0870969955
 20
18.5425371579
 30
0.0
 10
25.0
 20
18.5425367085
 30
0.0
 11
25.0
 21
25.6415392177
 31
0.0
 11
25.2584750821
 21
25.6321036988
 31
0.0
 11
25.5302321653
 21
25.6016614535
 31
0.0
 11
25.8152763703
 21
25.5465202012
 31
0.0
 11
26.1129139879
 21
25.4623235528
 31
0.0
 11
26.4184256096
 21
25.3454210922
 31
0.0
 11
26.7192889724
 21
25.1967595532
 31
0.0
 11
27.00299572
 21
25.0215321258
 31
0.0
 11
27.2653583569
 21
24.8234619362
 31
0.0
 11
27.5085423836
 21
24.6016764852
 31
0.0
 11
27.7411108473
 21
24.3450029432
 31
0.0
 11
27.9678893356
 21
24.0361440997
 31
0.0
 11
28.1841684784
 21
23.6564284337
 31
0.0
 11
28.3704571624
 21
23.1987153214
 31
0.0
 11
28.4996268955
 21
22.6718794877
 31
0.0
 11
28.547274084
 21
22.0979069522
 31
0.0
 11
28.5016164534
 21
21.5243436915
 31
0.0
 11
28.3747719689
 21
20.9986019489
 31
0.0
 11
28.1912654673
 21
20.5421919997
 31
0.0
 11
27.9779209885
 21
20.1633510348
 31
0.0
 11
27.754022622
 21
19.8548937526
 31
0.0
 11
27.523447757
 21
19.5974055415
 31
0.0
 11
27.2812909321
 21
19.3739229799
 31
0.0
 11
27.0189165911
 21
19.1735064198
 31
0.0
 11
26.7354794131
 21
18.996348269
 31
0.0
 11
26.4353467394
 21
18.8460935685
 31
0.0
 11
26.1295037516
 21
18.7272825259
 31
0.0
 11
25.8287057268
 21
18.6407565534
 31
0.0
 11
25.538202287
 21
18.5836292649
 31
0.0
 11
25.2611134909
 21
18.5521660601
 31
0.0
 11
25.0
 21
18.5425367085
 31
0.0
  0
SPLINE
  5
429
100
AcDbEntity
  8
RACCORDO
100
AcDbSpline
 62
253
  6
CONTINUOUS
 70
0
 71
3
 72
14
 73
10
 74
8
 42
0.0000001
 43
0.0000001
 44
0.0000000001
 12
1.5226122441
 22
0.0013948985
 32
0.0
 13
0.1247357873
 23
1.5174949671
 33
0.0
 40
0.0
 40
0.0
 40
0.0
 40
0.0
 40
0.2180429709
 40
0.4254022
 40
0.6119402184
 40
0.7686095373
 40
0.8879944098
 40
0.965035456
 40
1.0
 40
1.0
 40
1.0
 40
1.0
 10
32.3903975948
 20
-41.870937899
 30
0.0
 10
32.5010625605
 20
-41.8708365164
 30
0.0
 10
32.7170320261
 20
-41.8681272223
 30
0.0
 10
33.0272091961
 20
-41.8568269073
 30
0.0
 10
33.3068182548
 20
-41.838542626
 30
0.0
 10
33.5384482944
 20
-41.8156681402
 30
0.0
 10
33.7207105778
 20
-41.7864351318
 30
0.0
 10
33.8249154349
 20
-41.7609392656
 30
0.0
 10
33.8888867027
 20
-41.7302734752
 30
0.0
 10
33.8903404794
 20
-41.712587302
 30
0.0
 11
32.3903975948
 21
-41.870937899
 31
0.0
 11
32.7223656733
 21
-41.8667071595
 31
0.0
 11
33.0378701414
 21
-41.8548330064
 31
0.0
 11
33.3212638844
 21
-41.8359043259
 31
0.0
 11
33.5584922855
 21
-41.8108598664
 31
0.0
 11
33.7377902496
 21
-41.7809416815
 31
0.0
 11
33.8502656815
 21
-41.7476335324
 31
0.0
 11
33.8903404794
 21
-41.712587302
 31
0.0
  0
SPLINE
  5
42A
100
AcDbEntity
  8
RACCORDO
100
AcDbSpline
 62
253
  6
CONTINUOUS
 70
0
 71
3
 72
14
 73
10
 74
8
 42
0.0000001
 43
0.0000001
 44
0.0000000001
 12
1.522612075
 22
-0.0013948826
 32
0.0
 13
0.1247561132
 23
-1.5174931265
 33
0.0
 40
0.0
 40
0.0
 40
0.0
 40
0.0
 40
0.2180428017
 40
0.4254018896
 40
0.6119398198
 40
0.7686091239
 40
0.8879940676
 40
0.9650352716
 40
1.0
 40
1.0
 40
1.0
 40
1.0
 10
32.3903975948
 20
32.0260078588
 30
0.0
 10
32.5010624624
 20
32.0259064774
 30
0.0
 10
32.7170317457
 20
32.0231971916
 30
0.0
 10
33.0272086827
 20
32.0118968951
 30
0.0
 10
33.3068175787
 20
31.9936126647
 30
0.0
 10
33.5384476052
 20
31.9707381715
 30
0.0
 10
33.7207099252
 20
31.941505317
 30
0.0
 10
33.8249150869
 20
31.9160092572
 30
0.0
 10
33.8888864582
 20
31.8853437698
 30
0.0
 10
33.8903404794
 20
31.8676575248
 30
0.0
 11
32.3903975948
 21
32.0260078588
 31
0.0
 11
32.7223653789
 21
32.0217771306
 31
0.0
 11
33.0378695978
 21
32.0099030033
 31
0.0
 11
33.3212631772
 21
31.9909743607
 31
0.0
 11
33.5584915337
 21
31.9659299473
 31
0.0
 11
33.7377895957
 21
31.9360118126
 31
0.0
 11
33.8502652789
 21
31.9027037126
 31
0.0
 11
33.8903404794
 21
31.8676575248
 31
0.0
  0
SPLINE
  5
42B
100
AcDbEntity
  8
RACCORDO
100
AcDbSpline
 62
253
  6
CONTINUOUS
 70
0
 71
3
 72
14
 73
10
 74
8
 42
0.0000001
 43
0.0000001
 44
0.0000000001
 12
-1.5226122442
 22
-0.0013948985
 32
0.0
 13
-0.1247357747
 23
-1.5174949682
 33
0.0
 40
0.0
 40
0.0
 40
0.0
 40
0.0
 40
0.218042971
 40
0.4254022002
 40
0.6119402186
 40
0.7686095375
 40
0.88799441
 40
0.9650354561
 40
1.0
 40
1.0
 40
1.0
 40
1.0
 10
-32.3903975948
 20
32.026008122
 30
0.0
 10
-32.5010625606
 20
32.0259067394
 30
0.0
 10
-32.7170320263
 20
32.0231974453
 30
0.0
 10
-33.0272091965
 20
32.0118971302
 30
0.0
 10
-33.3068182552
 20
31.9936128489
 30
0.0
 10
-33.5384482948
 20
31.9707383631
 30
0.0
 10
-33.7207105782
 20
31.9415053547
 30
0.0
 10
-33.8249154352
 20
31.9160094885
 30
0.0
 10
-33.8888867029
 20
31.8853436979
 30
0.0
 10
-33.8903404794
 20
31.8676575248
 30
0.0
 11
-32.3903975948
 21
32.026008122
 31
0.0
 11
-32.7223656734
 21
32.0217773824
 31
0.0
 11
-33.0378701417
 21
32.0099032293
 31
0.0
 11
-33.3212638849
 21
31.9909745489
 31
0.0
 11
-33.558492286
 21
31.9659300893
 31
0.0
 11
-33.73779025
 21
31.9360119043
 31
0.0
 11
-33.8502656817
 21
31.9027037552
 31
0.0
 11
-33.8903404794
 21
31.8676575248
 31
0.0
  0
SPLINE
  5
42C
100
AcDbEntity
  8
RACCORDO
100
AcDbSpline
 62
253
  6
CONTINUOUS
 70
0
 71
3
 72
14
 73
10
 74
8
 42
0.0000001
 43
0.0000001
 44
0.0000000001
 12
-1.5226120942
 22
0.0013948833
 32
0.0
 13
-0.1247538983
 23
1.5174933278
 33
0.0
 40
0.0
 40
0.0
 40
0.0
 40
0.0
 40
0.21804282
 40
0.4254019232
 40
0.6119398629
 40
0.7686091685
 40
0.8879941045
 40
0.9650352913
 40
1.0
 40
1.0
 40
1.0
 40
1.0
 10
-32.3903975948
 20
-41.8709376671
 30
0.0
 10
-32.501062473
 20
-41.8708362857
 30
0.0
 10
-32.7170317762
 20
-41.8681269991
 30
0.0
 10
-33.0272087386
 20
-41.8568267005
 30
0.0
 10
-33.3068176523
 20
-41.8385424643
 30
0.0
 10
-33.5384476803
 20
-41.8156679716
 30
0.0
 10
-33.7207099962
 20
-41.7864350997
 30
0.0
 10
-33.8249151252
 20
-41.7609390606
 30
0.0
 10
-33.8888864848
 20
-41.7302735394
 30
0.0
 10
-33.8903404794
 20
-41.712587302
 30
0.0
 11
-32.3903975948
 21
-41.8709376671
 31
0.0
 11
-32.7223654109
 21
-41.8667069378
 31
0.0
 11
-33.037869657
 21
-41.8548328076
 31
0.0
 11
-33.3212632542
 21
-41.8359041606
 31
0.0
 11
-33.5584916155
 21
-41.8108597419
 31
0.0
 11
-33.7377896669
 21
-41.7809416012
 31
0.0
 11
-33.8502653228
 21
-41.7476334951
 31
0.0
 11
-33.8903404794
 21
-41.712587302
 31
0.0
  0
SPLINE
  5
42D
100
AcDbEntity
  8
RACCORDO
100
AcDbSpline
 62
253
  6
CONTINUOUS
 70
0
 71
3
 72
37
 73
33
 74
31
 42
0.0000001
 43
0.0000001
 44
0.0000000001
 12
-11.1414648889
 22
0.0000171995
 32
0.0
 13
11.1414648888
 23
0.000057491
 33
0.0
 40
0.0
 40
0.0
 40
0.0
 40
0.0
 40
0.0232148328
 40
0.0477588978
 40
0.0738172938
 40
0.1015800126
 40
0.1309400611
 40
0.1610606577
 40
0.1909901061
 40
0.2204955497
 40
0.2500366438
 40
0.2811246553
 40
0.3155163572
 40
0.3547383496
 40
0.3990925519
 40
0.4477791199
 40
0.499473113
 40
0.5511160208
 40
0.5996578472
 40
0.643809975
 40
0.6828338469
 40
0.7170440143
 40
0.7480665971
 40
0.7776427299
 40
0.8072763755
 40
0.8372767284
 40
0.8674022832
 40
0.8968517081
 40
0.9249445597
 40
0.9515180116
 40
0.9765478787
 40
1.0
 40
1.0
 40
1.0
 40
1.0
 10
-25.0
 20
-35.4864689948
 30
0.0
 10
-25.0862157482
 20
-35.4864688618
 30
0.0
 10
-25.2636500502
 20
-35.4799931786
 30
0.0
 10
-25.5363490659
 20
-35.4494441387
 30
0.0
 10
-25.8224090154
 20
-35.3941078705
 30
0.0
 10
-26.1200409155
 20
-35.3099128994
 30
0.0
 10
-26.4230814923
 20
-35.1939563756
 30
0.0
 10
-26.7212221916
 20
-35.0466394539
 30
0.0
 10
-27.0046101926
 20
-34.8716075239
 30
0.0
 10
-27.2687122836
 20
-34.6722228161
 30
0.0
 10
-27.5163963526
 20
-34.4463325256
 30
0.0
 10
-27.7537212137
 20
-34.1844107178
 30
0.0
 10
-27.9843033397
 20
-33.8703762482
 30
0.0
 10
-28.2016911233
 20
-33.4887260511
 30
0.0
 10
-28.387468349
 20
-33.0322909649
 30
0.0
 10
-28.5159754078
 20
-32.5081954957
 30
0.0
 10
-28.562895022
 20
-31.943052284
 30
0.0
 10
-28.5179330137
 20
-31.3782965187
 30
0.0
 10
-28.391713317
 20
-30.855184384
 30
0.0
 10
-28.2086360746
 20
-30.3998631567
 30
0.0
 10
-27.9941774469
 20
-30.0190558038
 30
0.0
 10
-27.7662935058
 20
-29.7051123094
 30
0.0
 10
-27.531034218
 20
-29.442393849
 30
0.0
 10
-27.284420505
 20
-29.214797247
 30
0.0
 10
-27.0207537338
 20
-29.0133920388
 30
0.0
 10
-26.7376585235
 20
-28.8364463609
 30
0.0
 10
-26.439741381
 20
-28.6873000748
 30
0.0
 10
-26.1358189629
 20
-28.5692354234
 30
0.0
 10
-25.8352125143
 20
-28.4827644833
 30
0.0
 10
-25.5444556575
 20
-28.425588873
 30
0.0
 10
-25.2672187166
 20
-28.394107414
 30
0.0
 10
-25.0870969955
 20
-28.3874669351
 30
0.0
 10
-25.0
 20
-28.3874664857
 30
0.0
 11
-25.0
 21
-35.4864689948
 31
0.0
 11
-25.2584750821
 21
-35.477033476
 31
0.0
 11
-25.5302321653
 21
-35.4465912307
 31
0.0
 11
-25.8152763703
 21
-35.3914499784
 31
0.0
 11
-26.1129139879
 21
-35.30725333
 31
0.0
 11
-26.4184256096
 21
-35.1903508694
 31
0.0
 11
-26.7192889724
 21
-35.0416893304
 31
0.0
 11
-27.00299572
 21
-34.866461903
 31
0.0
 11
-27.2653583569
 21
-34.6683917134
 31
0.0
 11
-27.5085423836
 21
-34.4466062624
 31
0.0
 11
-27.7411108473
 21
-34.1899327204
 31
0.0
 11
-27.9678893356
 21
-33.8810738768
 31
0.0
 11
-28.1841684784
 21
-33.5013582109
 31
0.0
 11
-28.3704571624
 21
-33.0436450986
 31
0.0
 11
-28.4996268955
 21
-32.5168092649
 31
0.0
 11
-28.547274084
 21
-31.9428367294
 31
0.0
 11
-28.5016164534
 21
-31.3692734687
 31
0.0
 11
-28.3747719689
 21
-30.8435317261
 31
0.0
 11
-28.1912654673
 21
-30.3871217768
 31
0.0
 11
-27.9779209885
 21
-30.008280812
 31
0.0
 11
-27.754022622
 21
-29.6998235298
 31
0.0
 11
-27.523447757
 21
-29.4423353187
 31
0.0
 11
-27.2812909321
 21
-29.2188527571
 31
0.0
 11
-27.0189165911
 21
-29.018436197
 31
0.0
 11
-26.7354794131
 21
-28.8412780462
 31
0.0
 11
-26.4353467394
 21
-28.6910233457
 31
0.0
 11
-26.1295037516
 21
-28.5722123031
 31
0.0
 11
-25.8287057268
 21
-28.4856863306
 31
0.0
 11
-25.538202287
 21
-28.4285590421
 31
0.0
 11
-25.2611134909
 21
-28.3970958373
 31
0.0
 11
-25.0
 21
-28.3874664857
 31
0.0
  0
SPLINE
  5
42E
100
AcDbEntity
  8
RACCORDO
100
AcDbSpline
 62
253
  6
CONTINUOUS
 70
0
 71
3
 72
37
 73
33
 74
31
 42
0.0000001
 43
0.0000001
 44
0.0000000001
 12
11.1414650865
 22
-0.0000181907
 32
0.0
 13
-11.1414650864
 23
-0.0000561587
 33
0.0
 40
0.0
 40
0.0
 40
0.0
 40
0.0
 40
0.0233519031
 40
0.0480281865
 40
0.074207914
 40
0.1020748958
 40
0.1315177098
 40
0.1617051581
 40
0.1917015279
 40
0.2212834192
 40
0.2509155671
 40
0.2821149469
 40
0.3166353225
 40
0.3559956292
 40
0.4004711876
 40
0.4492486795
 40
0.500976434
 40
0.5525794895
 40
0.6010254282
 40
0.6450546008
 40
0.6839398195
 40
0.7180227535
 40
0.7489356637
 40
0.7784219166
 40
0.807979724
 40
0.8379121085
 40
0.867970313
 40
0.8973375691
 40
0.9253277581
 40
0.9517821069
 40
0.9766821674
 40
1.0
 40
1.0
 40
1.0
 40
1.0
 10
-25.0
 20
-28.3874664857
 30
0.0
 10
-24.9132751955
 20
-28.3874666273
 30
0.0
 10
-24.7348396201
 20
-28.3940173249
 30
0.0
 10
-24.4607144309
 20
-28.4249035504
 30
0.0
 10
-24.1734031246
 20
-28.480791202
 30
0.0
 10
-23.8747829775
 20
-28.5657149806
 30
0.0
 10
-23.5710546476
 20
-28.6825222236
 30
0.0
 10
-23.2724742212
 20
-28.8307708604
 30
0.0
 10
-22.9887937199
 20
-29.0068198506
 30
0.0
 10
-22.7244656513
 20
-29.2073547844
 30
0.0
 10
-22.4766074411
 20
-29.4345959566
 30
0.0
 10
-22.2392258754
 20
-29.6981317293
 30
0.0
 10
-22.0088527751
 20
-30.014070703
 30
0.0
 10
-21.7921762047
 20
-30.3977956373
 30
0.0
 10
-21.6077996214
 20
-30.8562160387
 30
0.0
 10
-21.4814220827
 20
-31.3817808408
 30
0.0
 10
-21.4371170042
 20
-31.9474558316
 30
0.0
 10
-21.4846780644
 20
-32.5116129666
 30
0.0
 10
-21.6129902358
 20
-33.033214008
 30
0.0
 10
-21.7974288775
 20
-33.4865384281
 30
0.0
 10
-22.0125731852
 20
-33.8652857507
 30
0.0
 10
-22.2406562313
 20
-34.1773485985
 30
0.0
 10
-22.4758611359
 20
-34.4384768445
 30
0.0
 10
-22.7223069333
 20
-34.6647392835
 30
0.0
 10
-22.985748445
 20
-34.8650021363
 30
0.0
 10
-23.268546655
 20
-35.0409356548
 30
0.0
 10
-23.5660194612
 20
-35.1891563072
 30
0.0
 10
-23.8692598782
 20
-35.3063780905
 30
0.0
 10
-24.1688947736
 20
-35.3921263876
 30
0.0
 10
-24.4584237162
 20
-35.44875454
 30
0.0
 10
-24.7342619713
 20
-35.4799021163
 30
0.0
 10
-24.9134017272
 20
-35.4864685583
 30
0.0
 10
-25.0
 20
-35.4864689948
 30
0.0
 11
-25.0
 21
-28.3874664857
 31
0.0
 11
-24.740000817
 21
-28.3970137529
 31
0.0
 11
-24.4667993932
 21
-28.4277945747
 31
0.0
 11
-24.1804856138
 21
-28.4834896893
 31
0.0
 11
-23.8818481717
 21
-28.5684184254
 31
0.0
 11
-23.5756734352
 21
-28.686166902
 31
0.0
 11
-23.2744291326
 21
-28.8357374665
 31
0.0
 11
-22.99046298
 21
-29.0119623476
 31
0.0
 11
-22.7278892447
 21
-29.211165026
 31
0.0
 11
-22.4845392103
 21
-29.4342722631
 31
0.0
 11
-22.2518951552
 21
-29.6925496942
 31
0.0
 11
-22.0252967408
 21
-30.0033167023
 31
0.0
 11
-21.8096787785
 21
-30.3851789231
 31
0.0
 11
-21.6247822364
 21
-30.844913841
 31
0.0
 11
-21.4977337619
 21
-31.373307205
 31
0.0
 11
-21.4527377656
 21
-31.9478709766
 31
0.0
 11
-21.5010302766
 21
-32.5207728217
 31
0.0
 11
-21.6299560954
 21
-33.0449079429
 31
0.0
 11
-21.8148174784
 21
-33.4992922195
 31
0.0
 11
-22.0287963513
 21
-33.8759996284
 31
0.0
 11
-22.2528672823
 21
-34.1825775004
 31
0.0
 11
-22.4833709721
 21
-34.4384872824
 31
0.0
 11
-22.7253681915
 21
-34.6606646304
 31
0.0
 11
-22.9875361548
 21
-34.8599579554
 31
0.0
 11
-23.2707025212
 21
-35.0361192462
 31
0.0
 11
-23.5704473019
 21
-35.1854712144
 31
0.0
 11
-23.8756328428
 21
-35.3034452297
 31
0.0
 11
-24.1754491593
 21
-35.3892453901
 31
0.0
 11
-24.4647082918
 21
-35.4458222559
 31
0.0
 11
-24.740379645
 21
-35.4769495999
 31
0.0
 11
-25.0
 21
-35.4864689948
 31
0.0
  0
SPLINE
  5
42F
100
AcDbEntity
  8
RACCORDO
100
AcDbSpline
 62
253
  6
CONTINUOUS
 70
0
 71
3
 72
16
 73
12
 74
10
 42
0.0000001
 43
0.0000001
 44
0.0000000001
 12
0.0003034303
 22
3.4528362583
 32
0.0
 13
3.4528362659
 23
0.0001974492
 33
0.0
 40
0.0
 40
0.0
 40
0.0
 40
0.0
 40
0.106925894
 40
0.2186959911
 40
0.3324543509
 40
0.4456998969
 40
0.557964169
 40
0.6712412597
 40
0.7847600302
 40
0.8955470484
 40
1.0
 40
1.0
 40
1.0
 40
1.0
 10
-8.95
 20
11.3414756319
 30
0.0
 10
-8.9499891851
 20
11.4645414997
 30
0.0
 10
-8.928828033
 20
11.7167464507
 30
0.0
 10
-8.8316533121
 20
12.0887932981
 30
0.0
 10
-8.6674079802
 20
12.4447383389
 30
0.0
 10
-8.4423542308
 20
12.7663555328
 30
0.0
 10
-8.1645873199
 20
13.0428856203
 30
0.0
 10
-7.842139226
 20
13.266334778
 30
0.0
 10
-7.486691492
 20
13.4283537678
 30
0.0
 10
-7.1184151548
 20
13.522956144
 30
0.0
 10
-6.8702196465
 20
13.5433560891
 30
0.0
 10
-6.75
 20
13.5433629639
 30
0.0
 11
-8.95
 21
11.3414756319
 31
0.0
 11
-8.9190744754
 21
11.7093757318
 31
0.0
 11
-8.8215699018
 21
12.0827790962
 31
0.0
 11
-8.6569818972
 21
12.4394217466
 31
0.0
 11
-8.4328012207
 21
12.7597939644
 31
0.0
 11
-8.158090787
 21
13.0332739659
 31
0.0
 11
-7.8366029393
 21
13.2560431008
 31
0.0
 11
-7.479949752
 21
13.4186238515
 31
0.0
 11
-7.1094431697
 21
13.5137744745
 31
0.0
 11
-6.75
 21
13.5433629639
 31
0.0
  0
SPLINE
  5
430
100
AcDbEntity
  8
RACCORDO
100
AcDbSpline
 62
253
  6
CONTINUOUS
 70
0
 71
3
 72
16
 73
12
 74
10
 42
0.0000001
 43
0.0000001
 44
0.0000000001
 12
-3.4528354516
 22
0.000267707
 32
0.0
 13
-0.0002349087
 23
3.452835454
 33
0.0
 40
0.0
 40
0.0
 40
0.0
 40
0.0
 40
0.103728295
 40
0.2141285749
 40
0.3276355194
 40
0.4410754303
 40
0.5534104829
 40
0.6666243204
 40
0.7804540475
 40
0.8925550961
 40
1.0
 40
1.0
 40
1.0
 40
1.0
 10
-6.75
 20
-23.388292741
 30
0.0
 10
-6.8693855781
 20
-23.3882834848
 30
0.0
 10
-7.1162922013
 20
-23.3681357897
 30
0.0
 10
-7.4834353649
 20
-23.274392697
 30
0.0
 10
-7.8389181245
 20
-23.1131109553
 30
0.0
 10
-8.1619491
 20
-22.8900419263
 30
0.0
 10
-8.4402845041
 20
-22.6137489119
 30
0.0
 10
-8.6658690905
 20
-22.2923497185
 30
0.0
 10
-8.830789224
 20
-21.9362414096
 30
0.0
 10
-8.9286396028
 20
-21.5632590908
 30
0.0
 10
-8.9499915868
 20
-21.3100686002
 30
0.0
 10
-8.95
 20
-21.186405409
 30
0.0
 11
-6.75
 21
-23.388292741
 31
0.0
 11
-7.1069662128
 21
-23.3591144965
 31
0.0
 11
-7.4763165391
 21
-23.2648319248
 31
0.0
 11
-7.8332176384
 21
-23.1028951435
 31
0.0
 11
-8.1555328542
 21
-22.8803340361
 31
0.0
 11
-8.430813888
 21
-22.6070815087
 31
0.0
 11
-8.6553875118
 21
-22.2871184785
 31
0.0
 11
-8.8205744954
 21
-21.9304813774
 31
0.0
 11
-8.918772548
 21
-21.5560783869
 31
0.0
 11
-8.95
 21
-21.186405409
 31
0.0
  0
SPLINE
  5
431
100
AcDbEntity
  8
RACCORDO
100
AcDbSpline
 62
253
  6
CONTINUOUS
 70
0
 71
3
 72
16
 73
12
 74
10
 42
0.0000001
 43
0.0000001
 44
0.0000000001
 12
-0.0003034303
 22
-3.4528362583
 32
0.0
 13
-3.4528362659
 23
-0.0001974492
 33
0.0
 40
0.0
 40
0.0
 40
0.0
 40
0.0
 40
0.106925894
 40
0.2186959911
 40
0.3324543509
 40
0.4456998969
 40
0.557964169
 40
0.6712412597
 40
0.7847600302
 40
0.8955470484
 40
1.0
 40
1.0
 40
1.0
 40
1.0
 10
8.95
 20
-21.186405409
 30
0.0
 10
8.9499891851
 20
-21.3094712769
 30
0.0
 10
8.928828033
 20
-21.5616762279
 30
0.0
 10
8.8316533121
 20
-21.9337230753
 30
0.0
 10
8.6674079802
 20
-22.2896681161
 30
0.0
 10
8.4423542308
 20
-22.61128531
 30
0.0
 10
8.1645873199
 20
-22.8878153975
 30
0.0
 10
7.842139226
 20
-23.1112645551
 30
0.0
 10
7.486691492
 20
-23.273283545
 30
0.0
 10
7.1184151548
 20
-23.3678859212
 30
0.0
 10
6.8702196465
 20
-23.3882858663
 30
0.0
 10
6.75
 20
-23.388292741
 30
0.0
 11
8.95
 21
-21.186405409
 31
0.0
 11
8.9190744754
 21
-21.554305509
 31
0.0
 11
8.8215699018
 21
-21.9277088734
 31
0.0
 11
8.6569818972
 21
-22.2843515238
 31
0.0
 11
8.4328012207
 21
-22.6047237416
 31
0.0
 11
8.158090787
 21
-22.8782037431
 31
0.0
 11
7.8366029393
 21
-23.100972878
 31
0.0
 11
7.479949752
 21
-23.2635536287
 31
0.0
 11
7.1094431697
 21
-23.3587042517
 31
0.0
 11
6.75
 21
-23.388292741
 31
0.0
  0
SPLINE
  5
432
100
AcDbEntity
  8
RACCORDO
100
AcDbSpline
 62
253
  6
CONTINUOUS
 70
0
 71
3
 72
17
 73
13
 74
11
 42
0.0000001
 43
0.0000001
 44
0.0000000001
 12
2.5623221183
 22
-3.6656307072
 32
0.0
 13
0.0029019685
 23
-4.4723969746
 33
0.0
 40
0.0
 40
0.0
 40
0.0
 40
0.0
 40
0.0132895715
 40
0.0499358891
 40
0.1091930701
 40
0.1898022648
 40
0.290061644
 40
0.4078477576
 40
0.5406646729
 40
0.68570848
 40
0.8398801387
 40
1.0
 40
1.0
 40
1.0
 40
1.0
 10
-32.4205050721
 20
36.4979833529
 30
0.0
 10
-32.4091543511
 20
36.4817451325
 30
0.0
 10
-32.4256721558
 20
36.3994005744
 30
0.0
 10
-32.4040022747
 20
36.2439311547
 30
0.0
 10
-32.4100089323
 20
35.9768324042
 30
0.0
 10
-32.4021454555
 20
35.6205632311
 30
0.0
 10
-32.4003187422
 20
35.1747117296
 30
0.0
 10
-32.3968020468
 20
34.6518699591
 30
0.0
 10
-32.394465056
 20
34.0619758049
 30
0.0
 10
-32.3924407488
 20
33.4179263937
 30
0.0
 10
-32.3910669885
 20
32.7331445315
 30
0.0
 10
-32.3905523581
 20
32.2646006459
 30
0.0
 10
-32.3903974705
 20
32.0258941181
 30
0.0
 11
-32.4205050721
 21
36.4979833529
 31
0.0
 11
-32.4160744136
 21
36.4387124723
 31
0.0
 11
-32.4117450242
 21
36.2748727488
 31
0.0
 11
-32.4076058642
 21
36.009883381
 31
0.0
 11
-32.4037456804
 21
35.6493876537
 31
0.0
 11
-32.4002458521
 21
35.2010014734
 31
0.0
 11
-32.3971805789
 21
34.6742240227
 31
0.0
 11
-32.3946148076
 21
34.0802194687
 31
0.0
 11
-32.3926026776
 21
33.4315289689
 31
0.0
 11
-32.3911871261
 21
32.7420134169
 31
0.0
 11
-32.3903974705
 21
32.0258941181
 31
0.0
  0
SPLINE
  5
433
100
AcDbEntity
  8
RACCORDO
100
AcDbSpline
 62
253
  6
CONTINUOUS
 70
0
 71
3
 72
17
 73
13
 74
11
 42
0.0000001
 43
0.0000001
 44
0.0000000001
 12
0.0029019687
 22
4.4723969823
 32
0.0
 13
2.5623222372
 23
3.6656306336
 33
0.0
 40
0.0
 40
0.0
 40
0.0
 40
0.0
 40
0.1601198628
 40
0.3142915212
 40
0.459335328
 40
0.5921522431
 40
0.7099383565
 40
0.8101977356
 40
0.8908069301
 40
0.950064111
 40
0.9867104286
 40
1.0
 40
1.0
 40
1.0
 40
1.0
 10
32.3903974705
 20
32.0258941103
 30
0.0
 10
32.3905523581
 20
32.2646006407
 30
0.0
 10
32.3910669885
 20
32.7331445289
 30
0.0
 10
32.3924407488
 20
33.4179263937
 30
0.0
 10
32.394465056
 20
34.0619758049
 30
0.0
 10
32.3968020467
 20
34.6518699591
 30
0.0
 10
32.4003187423
 20
35.1747117296
 30
0.0
 10
32.4021454554
 20
35.6205632312
 30
0.0
 10
32.4100089325
 20
35.976832404
 30
0.0
 10
32.4040022743
 20
36.243931155
 30
0.0
 10
32.4256721565
 20
36.3994005739
 30
0.0
 10
32.4091543506
 20
36.4817451328
 30
0.0
 10
32.4205050721
 20
36.4979833529
 30
0.0
 11
32.3903974705
 21
32.0258941103
 31
0.0
 11
32.3911871261
 21
32.7420134169
 31
0.0
 11
32.3926026776
 21
33.4315289689
 31
0.0
 11
32.3946148076
 21
34.0802194687
 31
0.0
 11
32.3971805789
 21
34.6742240227
 31
0.0
 11
32.4002458521
 21
35.2010014734
 31
0.0
 11
32.4037456804
 21
35.6493876537
 31
0.0
 11
32.4076058642
 21
36.009883381
 31
0.0
 11
32.4117450242
 21
36.2748727488
 31
0.0
 11
32.4160744136
 21
36.4387124723
 31
0.0
 11
32.4205050721
 21
36.4979833529
 31
0.0
  0
SPLINE
  5
434
100
AcDbEntity
  8
RACCORDO
100
AcDbSpline
 62
253
  6
CONTINUOUS
 70
0
 71
3
 72
14
 73
10
 74
8
 42
0.0000001
 43
0.0000001
 44
0.0000000001
 12
-1.5000079569
 22
0.0130903711
 32
0.0
 13
0.0130893866
 23
1.5000079655
 33
0.0
 40
0.0
 40
0.0
 40
0.0
 40
0.0
 40
0.0251436929
 40
0.0991155984
 40
0.2182485097
 40
0.3765757571
 40
0.5661614582
 40
0.7775013415
 40
1.0
 40
1.0
 40
1.0
 40
1.0
 10
-98.2456799372
 20
-46.3429121872
 30
0.0
 10
-98.2582518503
 20
-46.3428024738
 30
0.0
 10
-98.234008936
 20
-46.2634538073
 30
0.0
 10
-98.2597436106
 20
-46.1824703494
 30
0.0
 10
-98.2471590787
 20
-45.9913923951
 30
0.0
 10
-98.2525507771
 20
-45.7641877472
 30
0.0
 10
-98.2496531369
 20
-45.4823123393
 30
0.0
 10
-98.2484861086
 20
-45.1713151653
 30
0.0
 10
-98.2466507275
 20
-44.9542192226
 30
0.0
 10
-98.2456799372
 20
-44.8429693026
 30
0.0
 11
-98.2456799372
 21
-46.3429121872
 31
0.0
 11
-98.248264179
 21
-46.3052836471
 31
0.0
 11
-98.2500625327
 21
-46.1943355489
 31
0.0
 11
-98.25098483
 21
-46.0156308094
 31
0.0
 11
-98.2509848283
 21
-45.7781296351
 31
0.0
 11
-98.2500625285
 21
-45.4937402418
 31
0.0
 11
-98.2482641751
 21
-45.1767217648
 31
0.0
 11
-98.2456799372
 21
-44.8429693026
 31
0.0
  0
SPLINE
  5
435
100
AcDbEntity
  8
RACCORDO
100
AcDbSpline
 62
253
  6
CONTINUOUS
 70
0
 71
3
 72
14
 73
10
 74
8
 42
0.0000001
 43
0.0000001
 44
0.0000000001
 12
-1.5000079567
 22
-0.0130903711
 32
0.0
 13
0.0130893743
 23
-1.5000079654
 33
0.0
 40
0.0
 40
0.0
 40
0.0
 40
0.0
 40
0.025143656
 40
0.0991154662
 40
0.2182482638
 40
0.3765754315
 40
0.5661611341
 40
0.777501127
 40
1.0
 40
1.0
 40
1.0
 40
1.0
 10
-98.2456799372
 20
36.49798241
 30
0.0
 10
-98.2582518319
 20
36.4978726967
 30
0.0
 10
-98.2340089495
 20
36.4185241369
 30
0.0
 10
-98.259743596
 20
36.3375407699
 30
0.0
 10
-98.2471590737
 20
36.1464629712
 30
0.0
 10
-98.2525507733
 20
35.9192584184
 30
0.0
 10
-98.2496531342
 20
35.6373829935
 30
0.0
 10
-98.2484861084
 20
35.3263856577
 30
0.0
 10
-98.2466507276
 20
35.1092895527
 30
0.0
 10
-98.2456799372
 20
34.9980395254
 30
0.0
 11
-98.2456799372
 21
36.49798241
 31
0.0
 11
-98.2482641747
 21
36.4603539252
 31
0.0
 11
-98.2500625264
 21
36.3494059699
 31
0.0
 11
-98.2509848239
 21
36.170701401
 31
0.0
 11
-98.2509848239
 21
35.9332003463
 31
0.0
 11
-98.2500625264
 21
35.6488109508
 31
0.0
 11
-98.2482641748
 21
35.3317923093
 31
0.0
 11
-98.2456799372
 21
34.9980395254
 31
0.0
  0
SPLINE
  5
436
100
AcDbEntity
  8
RACCORDO
100
AcDbSpline
 62
253
  6
CONTINUOUS
 70
0
 71
3
 72
25
 73
21
 74
19
 42
0.0000001
 43
0.0000001
 44
0.0000000001
 12
1.4999666205
 22
-0.0136290068
 32
0.0
 13
-0.0087274898
 23
-1.5000031478
 33
0.0
 40
0.0
 40
0.0
 40
0.0
 40
0.0
 40
0.0038393826
 40
0.0152371786
 40
0.0341247618
 40
0.0603608697
 40
0.093746787
 40
0.1340289397
 40
0.1809009113
 40
0.2340061305
 40
0.2929406331
 40
0.3572559874
 40
0.4264627881
 40
0.5000345166
 40
0.5774113479
 40
0.6580042658
 40
0.7412001088
 40
0.8263660881
 40
0.9128533091
 40
1.0
 40
1.0
 40
1.0
 40
1.0
 10
-50.1211167712
 20
36.2371111126
 30
0.0
 10
-50.1191971226
 20
36.2370936702
 30
0.0
 10
-50.1221519891
 20
36.2249821252
 30
0.0
 10
-50.1183037871
 20
36.2122478939
 30
0.0
 10
-50.1196481645
 20
36.1815467818
 30
0.0
 10
-50.1183614056
 20
36.1433635073
 30
0.0
 10
-50.1182824243
 20
36.0930007063
 30
0.0
 10
-50.1178592955
 20
36.0328763663
 30
0.0
 10
-50.1176727247
 20
35.9626965271
 30
0.0
 10
-50.1175264626
 20
35.8832551556
 30
0.0
 10
-50.1174880347
 20
35.7950709482
 30
0.0
 10
-50.1175372514
 20
35.6988423123
 30
0.0
 10
-50.1176805216
 20
35.595293032
 30
0.0
 10
-50.1179149879
 20
35.4852136324
 30
0.0
 10
-50.1182395924
 20
35.3694410993
 30
0.0
 10
-50.1186517776
 20
35.2488567176
 30
0.0
 10
-50.1191485642
 20
35.1243779612
 30
0.0
 10
-50.1197261078
 20
34.996952319
 30
0.0
 10
-50.1203802405
 20
34.8675515592
 30
0.0
 10
-50.1208632538
 20
34.7807342908
 30
0.0
 10
-50.1211167778
 20
34.737160854
 30
0.0
 11
-50.1211167712
 21
36.2371111126
 31
0.0
 11
-50.120389522
 21
36.2313980308
 31
0.0
 11
-50.1197341505
 21
36.2143135771
 31
0.0
 11
-50.1191557602
 21
36.1859875679
 31
0.0
 11
-50.1186586824
 21
36.1466357966
 31
0.0
 11
-50.1182467263
 21
36.0965576624
 31
0.0
 11
-50.1179230169
 21
36.0361341508
 31
0.0
 11
-50.117690021
 21
35.965825242
 31
0.0
 11
-50.1175495105
 21
35.8861660215
 31
0.0
 11
-50.1175025544
 21
35.7977625983
 31
0.0
 11
-50.1175495102
 21
35.7012877429
 31
0.0
 11
-50.1176900207
 21
35.597475662
 31
0.0
 11
-50.117923017
 21
35.4871162158
 31
0.0
 11
-50.1182467271
 21
35.371049212
 31
0.0
 11
-50.1186586845
 21
35.2501582372
 31
0.0
 11
-50.1191557628
 21
35.1253630885
 31
0.0
 11
-50.1197341567
 21
34.9976129985
 31
0.0
 11
-50.1203895257
 21
34.8678813542
 31
0.0
 11
-50.1211167778
 21
34.737160854
 31
0.0
  0
SPLINE
  5
437
100
AcDbEntity
  8
RACCORDO
100
AcDbSpline
 62
253
  6
CONTINUOUS
 70
0
 71
3
 72
25
 73
21
 74
19
 42
0.0000001
 43
0.0000001
 44
0.0000000001
 12
0.0087287908
 22
-1.5000020357
 32
0.0
 13
-1.4999646501
 23
-0.0137239711
 33
0.0
 40
0.0
 40
0.0
 40
0.0
 40
0.0
 40
0.0871475377
 40
0.1736347939
 40
0.2588008079
 40
0.3419966758
 40
0.422589596
 40
0.4999664218
 40
0.5735381363
 40
0.642744908
 40
0.7070602198
 40
0.765994669
 40
0.8190998223
 40
0.8659717153
 40
0.9062537816
 40
0.939639604
 40
0.9658756039
 40
0.9847630719
 40
0.9961607462
 40
1.0
 40
1.0
 40
1.0
 40
1.0
 10
-50.1211167712
 20
-44.5820917378
 30
0.0
 10
-50.120863207
 20
-44.6256655658
 30
0.0
 10
-50.1203802621
 20
-44.7124832117
 30
0.0
 10
-50.1197260936
 20
-44.8418843343
 30
0.0
 10
-50.1191485646
 20
-44.9693099302
 30
0.0
 10
-50.1186517747
 20
-45.0937886259
 30
0.0
 10
-50.118239592
 20
-45.2143729296
 30
0.0
 10
-50.1179149877
 20
-45.3301453688
 30
0.0
 10
-50.1176805219
 20
-45.4402246632
 30
0.0
 10
-50.1175372518
 20
-45.5437738245
 30
0.0
 10
-50.1174880347
 20
-45.6400023272
 30
0.0
 10
-50.1175264623
 20
-45.7281863884
 30
0.0
 10
-50.1176727241
 20
-45.8076276034
 30
0.0
 10
-50.117859296
 20
-45.8778072725
 30
0.0
 10
-50.1182824232
 20
-45.9379314472
 30
0.0
 10
-50.1183614118
 20
-45.9882940409
 30
0.0
 10
-50.1196481545
 20
-46.0264771966
 30
0.0
 10
-50.11830382
 20
-46.05717795
 30
0.0
 10
-50.1221519318
 20
-46.0699123068
 30
0.0
 10
-50.1191971962
 20
-46.0820233265
 30
0.0
 10
-50.1211167778
 20
-46.0820408898
 30
0.0
 11
-50.1211167712
 21
-44.5820917378
 31
0.0
 11
-50.120389522
 21
-44.7128134121
 31
0.0
 11
-50.1197341505
 21
-44.8425450136
 31
0.0
 11
-50.1191557602
 21
-44.9702950617
 31
0.0
 11
-50.1186586824
 21
-45.0950901557
 31
0.0
 11
-50.1182467263
 21
-45.215981045
 31
0.0
 11
-50.1179230169
 21
-45.332047955
 31
0.0
 11
-50.117690021
 21
-45.4424072991
 31
0.0
 11
-50.1175495105
 21
-45.5462192601
 31
0.0
 11
-50.1175025544
 21
-45.6426939807
 31
0.0
 11
-50.1175495102
 21
-45.7310972587
 31
0.0
 11
-50.1176900207
 21
-45.8107563215
 31
0.0
 11
-50.117923017
 21
-45.8810650608
 31
0.0
 11
-50.1182467271
 21
-45.9414883982
 31
0.0
 11
-50.1186586845
 21
-45.9915663532
 31
0.0
 11
-50.1191557628
 21
-46.0309179335
 31
0.0
 11
-50.1197341567
 21
-46.059243749
 31
0.0
 11
-50.1203895257
 21
-46.0763280075
 31
0.0
 11
-50.1211167778
 21
-46.0820408898
 31
0.0
  0
ELLIPSE
  5
438
100
AcDbEntity
  8
RACCORDO
100
AcDbEllipse
 62
7
  6
CONTINUOUS
 10
32.4999428824
 20
35.0774779938
 30
0.0
 11
-1.0607409467
 21
-1.0607409467
 31
0.0
 40
0.9999238505
 41
8.6394178736
 42
10.210138048
  0
ELLIPSE
  5
439
100
AcDbEntity
  8
RACCORDO
100
AcDbEllipse
 62
7
  6
CONTINUOUS
 10
32.4999428824
 20
-44.922407771
 30
0.0
 11
-1.0607409467
 21
1.0607409467
 31
0.0
 40
0.9999238505
 41
8.6394178736
 42
10.210138048
  0
ELLIPSE
  5
43A
100
AcDbEntity
  8
RACCORDO
100
AcDbEllipse
 62
7
  6
CONTINUOUS
 10
-32.4999428824
 20
-44.922407771
 30
0.0
 11
1.0607409467
 21
1.0607409467
 31
0.0
 40
0.9999238505
 41
2.3562325664
 42
3.9269527408
  0
ELLIPSE
  5
43B
100
AcDbEntity
  8
RACCORDO
100
AcDbEllipse
 62
7
  6
CONTINUOUS
 10
32.4999428824
 20
-44.922407771
 30
0.0
 11
1.0607409467
 21
-1.0607409467
 31
0.0
 40
0.9999238505
 41
-0.7853600872
 42
0.7853600872
  0
ELLIPSE
  5
43C
100
AcDbEntity
  8
RACCORDO
100
AcDbEllipse
 62
7
  6
CONTINUOUS
 10
32.4999428824
 20
35.0774779938
 30
0.0
 11
1.0607409467
 21
1.0607409467
 31
0.0
 40
0.9999238505
 41
-0.7853600872
 42
0.7853600872
  0
ELLIPSE
  5
43D
100
AcDbEntity
  8
RACCORDO
100
AcDbEllipse
 62
7
  6
CONTINUOUS
 10
-32.4999428824
 20
35.0774779938
 30
0.0
 11
1.0607409467
 21
-1.0607409467
 31
0.0
 40
0.9999238505
 41
2.3562325664
 42
3.9269527408
  0
ENDSEC
  0
SECTION
  2
OBJECTS
  0
DICTIONARY
  5
C
100
AcDbDictionary
280
0
281
1
  3
ACAD_GROUP
350
D
  3
ACAD_MLINESTYLE
350
17
  3
ACAD_LAYOUT
350
1A
  3
ACAD_PLOTSETTINGS
350
19
  3
ACAD_PLOTSTYLENAME
350
E
  0
DICTIONARY
  5
D
102
{ACAD_REACTORS
330
C
102
}
100
AcDbDictionary
280
0
281
1
  0
ACDBDICTIONARYWDFLT
  5
E
102
{ACAD_REACTORS
330
C
102
}
100
AcDbDictionary
281
1
  3
Normal
350
F
100
AcDbDictionaryWithDefault
340
F
  0
DICTIONARY
  5
17
102
{ACAD_REACTORS
330
C
102
}
100
AcDbDictionary
280
0
281
1
  3
Standard
350
18
  0
DICTIONARY
  5
19
102
{ACAD_REACTORS
330
C
102
}
100
AcDbDictionary
281
1
  0
DICTIONARY
  5
1A
102
{ACAD_REACTORS
330
C
102
}
100
AcDbDictionary
281
1
  3
Model
350
43E
  3
Layout1
350
43F
  0
ACDBPLACEHOLDER
  5
F
102
{ACAD_REACTORS
330
E
102
}
  0
MLINESTYLE
  5
18
102
{ACAD_REACTORS
330
17
102
}
100
AcDbMlineStyle
  2
STANDARD
 70
0
  3

 62
256
 51
90.0
 52
90.0
 71
2
 49
0.5
 62
256
  6
BYLAYER
 49
-0.5
 62
256
  6
BYLAYER
  0
LAYOUT
  5
43E
102
{ACAD_REACTORS
330
1A
102
}
100
AcDbPlotSettings
  1

  2
none_device
  4
ISO_A4_(297.00_x_210.00_MM)
  6

 40
0.0
 41
0.0
 42
0.0
 43
0.0
 44
297.0
 45
210.0
 46
0.0
 47
0.0
 48
0.0
 49
0.0
140
0.0
141
0.0
142
1.0
143
1.0
 70
1024
 72
1
 73
0
 74
0
  7

 75
0
147
1.0
148
0.0
149
0.0
100
AcDbLayout
  1
Model
 70
0
 71
0
 10
0.0
 20
0.0
 11
297.0
 21
210.0
 12
0.0
 22
0.0
 32
0.0
 14
0.0
 24
0.0
 34
0.0
 15
0.0
 25
0.0
 35
0.0
146
0.0
 13
0.0
 23
0.0
 33
0.0
 16
1.0
 26
0.0
 36
0.0
 17
0.0
 27
1.0
 37
0.0
 76
0
330
218
345
0
346
0
  0
LAYOUT
  5
43F
102
{ACAD_REACTORS
330
1A
102
}
100
AcDbPlotSettings
  1

  2
none_device
  4
ISO_A4_(297.00_x_210.00_MM)
  6

 40
0.0
 41
0.0
 42
0.0
 43
0.0
 44
297.0
 45
210.0
 46
0.0
 47
0.0
 48
0.0
 49
0.0
140
0.0
141
0.0
142
1.0
143
1.0
 70
0
 72
1
 73
0
 74
0
  7

 75
0
147
1.0
148
0.0
149
0.0
100
AcDbLayout
  1
Layout1
 70
0
 71
1
 10
0.0
 20
0.0
 11
297.0
 21
210.0
 12
0.0
 22
0.0
 32
0.0
 14
0.0
 24
0.0
 34
0.0
 15
0.0
 25
0.0
 35
0.0
146
0.0
 13
0.0
 23
0.0
 33
0.0
 16
1.0
 26
0.0
 36
0.0
 17
0.0
 27
1.0
 37
0.0
 76
0
330
219
345
0
346
0
  0
ENDSEC
  0
EOF
