  0
SECTION
  2
HEADER
  9
$ACADVER
  1
AC1015
  9
$DWGCODEPAGE
  3
ANSI_1252
  9
$EXTMAX
 10
297.0
 20
210.0
 30
0.0
  9
$EXTMIN
 10
0.0
 20
0.0
 30
0.0
  9
$LIMMIN
 10
0.0
 20
0.0
  9
$LIMMAX
 10
297.0
 20
210.0
  9
$VIEWCTR
 10
148.5
 20
105.0
  9
$VIEWSIZE
 40
210.0
  9
$CLAYER
  8
0
  9
$LTSCALE
 40
16.335
  9
$CELTYPE
  6
BYLAYER
  9
$DIMSCALE
 40
1.0
  9
$DIMASZ
 40
3.0
  9
$DIMEXO
 40
1.85625
  9
$DIMDLI
 40
11.286
  9
$DIMEXE
 40
5.346
  9
$DIMCEN
 40
2.673
  9
$DIMLFAC
 40
1.0
  9
$DIMBLK
  1
_FILLED
  9
$DIMTXT
 40
3.0
  9
$DIMTOL
 70
1
  9
$DIMLIM
 70
0
  9
$DIMTFAC
 40
1.0
  9
$DIMTP
 40
0.01
  9
$DIMTM
 40
0.01
  9
$PDMODE
 70
3
  9
$PDSIZE
 40
3.0
  9
$HANDSEED
  5
41A
  9
$TILEMODE
 70
1
  9
$MEASUREMENT
 70
1
  9
$INSUNITS
 70
4
  0
ENDSEC
  0
SECTION
  2
CLASSES
  0
CLASS
  1
ACDBDICTIONARYWDFLT
  2
AcDbDictionaryWithDefault
  3
AutoCAD 2000
 90
0
280
0
281
0
  0
CLASS
  1
ACDBPLACEHOLDER
  2
AcDbPlaceHolder
  3
AutoCAD 2000
 90
0
280
0
281
0
  0
CLASS
  1
LAYOUT
  2
AcDbLayout
  3
AutoCAD 2000
 90
0
280
0
281
0
  0
ENDSEC
  0
SECTION
  2
TABLES
  0
TABLE
  2
VPORT
  5
8
100
AcDbSymbolTable
 70
2
  0
VPORT
  5
1F4
100
AcDbSymbolTableRecord
100
AcDbViewportTableRecord
  2
*ACTIVE
 70
0
 10
0.0
 20
0.0
 11
1.0
 21
1.0
 12
148.5
 22
105.0
 13
0.0
 23
0.0
 14
1.0
 24
1.0
 15
0.0
 25
0.0
 16
0.0
 26
0.0
 36
1.0
 17
0.0
 27
0.0
 37
0.0
 40
210.0
 41
1.4142857143
 42
50.0
 43
0.0
 44
0.0
 50
0.0
 51
0.0
 71
0
 72
100
 73
1
 74
1
 75
0
 76
0
 77
0
 78
0
  0
ENDTAB
  0
TABLE
  2
LTYPE
  5
5
100
AcDbSymbolTable
 70
6
  0
LTYPE
  5
14
100
AcDbSymbolTableRecord
100
AcDbLinetypeTableRecord
  2
BYBLOCK
 70
0
  3

 72
65
 73
0
 40
0.0
  0
LTYPE
  5
15
100
AcDbSymbolTableRecord
100
AcDbLinetypeTableRecord
  2
BYLAYER
 70
0
  3

 72
65
 73
0
 40
0.0
  0
LTYPE
  5
16
100
AcDbSymbolTableRecord
100
AcDbLinetypeTableRecord
  2
CONTINUOUS
 70
64
  3
Solid line
 72
65
 73
0
 40
0.0
  0
LTYPE
  5
1F5
100
AcDbSymbolTableRecord
100
AcDbLinetypeTableRecord
  2
CENTER
 70
64
  3
____ _ ____ _ ____ _ ____ _ ____ _ ____ _ ____
 72
65
 73
4
 40
0.6
 49
0.375
 74
0
 49
-0.075
 74
0
 49
0.075
 74
0
 49
-0.075
 74
0
  0
LTYPE
  5
1F6
100
AcDbSymbolTableRecord
100
AcDbLinetypeTableRecord
  2
HIDDEN
 70
64
  3
- - - - - - - - - - - - - - - - - - - -
 72
65
 73
2
 40
0.2
 49
0.1
 74
0
 49
-0.1
 74
0
  0
LTYPE
  5
1F7
100
AcDbSymbolTableRecord
100
AcDbLinetypeTableRecord
  2
PHANTOM
 70
64
  3
_____ _ _ _____ _ _ _____ _ _ _____
 72
65
 73
6
 40
0.8
 49
0.45
 74
0
 49
-0.05
 74
0
 49
0.1
 74
0
 49
-0.05
 74
0
 49
0.1
 74
0
 49
-0.05
 74
0
  0
LTYPE
  5
1F8
100
AcDbSymbolTableRecord
100
AcDbLinetypeTableRecord
  2
DOT
 70
64
  3
. . . . . . . . . . . . . . . . . . . .
 72
65
 73
2
 40
0.2
 49
0.1
 74
0
 49
-0.1
 74
0
  0
LTYPE
  5
1F9
100
AcDbSymbolTableRecord
100
AcDbLinetypeTableRecord
  2
DASHED
 70
64
  3
- - - - - - - - - - - - - - - - - - - -
 72
65
 73
2
 40
0.2
 49
0.1
 74
0
 49
-0.1
 74
0
  0
ENDTAB
  0
TABLE
  2
LAYER
  5
2
100
AcDbSymbolTable
 70
36
  0
LAYER
  5
10
100
AcDbSymbolTableRecord
100
AcDbLayerTableRecord
  2
0
 70
0
 62
7
  6
CONTINUOUS
370
-3
390
F
  0
LAYER
  5
1FA
100
AcDbSymbolTableRecord
100
AcDbLayerTableRecord
  2
DEFAULT_1
 70
0
 62
7
  6
CENTER
370
-3
390
F
  0
LAYER
  5
1FB
100
AcDbSymbolTableRecord
100
AcDbLayerTableRecord
  2
DEFAULT_2
 70
0
 62
7
  6
HIDDEN
370
-3
390
F
  0
LAYER
  5
1FC
100
AcDbSymbolTableRecord
100
AcDbLayerTableRecord
  2
DEFAULT_3
 70
0
 62
7
  6
PHANTOM
370
-3
390
F
  0
LAYER
  5
1FD
100
AcDbSymbolTableRecord
100
AcDbLayerTableRecord
  2
ASSI
 70
0
 62
7
  6
CONTINUOUS
370
-3
390
F
  0
LAYER
  5
1FE
100
AcDbSymbolTableRecord
100
AcDbLayerTableRecord
  2
COLOR5
 70
0
 62
7
  6
CONTINUOUS
370
-3
390
F
  0
LAYER
  5
1FF
100
AcDbSymbolTableRecord
100
AcDbLayerTableRecord
  2
COORDINATE
 70
0
 62
7
  6
CONTINUOUS
370
-3
390
F
  0
LAYER
  5
200
100
AcDbSymbolTableRecord
100
AcDbLayerTableRecord
  2
COORD_ORIGINE
 70
0
 62
7
  6
CONTINUOUS
370
-3
390
F
  0
LAYER
  5
201
100
AcDbSymbolTableRecord
100
AcDbLayerTableRecord
  2
COPY_PUBLISH
 70
0
 62
7
  6
CONTINUOUS
370
-3
390
F
  0
LAYER
  5
202
100
AcDbSymbolTableRecord
100
AcDbLayerTableRecord
  2
COSMETIC
 70
0
 62
7
  6
CONTINUOUS
370
-3
390
F
  0
LAYER
  5
203
100
AcDbSymbolTableRecord
100
AcDbLayerTableRecord
  2
CURVE
 70
0
 62
7
  6
CONTINUOUS
370
-3
390
F
  0
LAYER
  5
204
100
AcDbSymbolTableRecord
100
AcDbLayerTableRecord
  2
DRAFT
 70
0
 62
7
  6
CONTINUOUS
370
-3
390
F
  0
LAYER
  5
205
100
AcDbSymbolTableRecord
100
AcDbLayerTableRecord
  2
IMPORT_IGES
 70
0
 62
7
  6
CONTINUOUS
370
-3
390
F
  0
LAYER
  5
206
100
AcDbSymbolTableRecord
100
AcDbLayerTableRecord
  2
INTF_1
 70
0
 62
7
  6
CONTINUOUS
370
-3
390
F
  0
LAYER
  5
207
100
AcDbSymbolTableRecord
100
AcDbLayerTableRecord
  2
INTF_2
 70
0
 62
7
  6
CONTINUOUS
370
-3
390
F
  0
LAYER
  5
208
100
AcDbSymbolTableRecord
100
AcDbLayerTableRecord
  2
NOTE
 70
0
 62
7
  6
CONTINUOUS
370
-3
390
F
  0
LAYER
  5
209
100
AcDbSymbolTableRecord
100
AcDbLayerTableRecord
  2
PIANI
 70
0
 62
7
  6
CONTINUOUS
370
-3
390
F
  0
LAYER
  5
20A
100
AcDbSymbolTableRecord
100
AcDbLayerTableRecord
  2
PIANI_ORIGINE
 70
0
 62
7
  6
CONTINUOUS
370
-3
390
F
  0
LAYER
  5
20B
100
AcDbSymbolTableRecord
100
AcDbLayerTableRecord
  2
PUNTI
 70
0
 62
7
  6
CONTINUOUS
370
-3
390
F
  0
LAYER
  5
20C
100
AcDbSymbolTableRecord
100
AcDbLayerTableRecord
  2
RACCORDO
 70
0
 62
7
  6
CONTINUOUS
370
-3
390
F
  0
LAYER
  5
20D
100
AcDbSymbolTableRecord
100
AcDbLayerTableRecord
  2
RGB__255__255__255__
 70
0
 62
7
  6
CONTINUOUS
370
-3
390
F
  0
LAYER
  5
20E
100
AcDbSymbolTableRecord
100
AcDbLayerTableRecord
  2
RGB____0____0____0__
 70
0
 62
7
  6
CONTINUOUS
370
-3
390
F
  0
LAYER
  5
20F
100
AcDbSymbolTableRecord
100
AcDbLayerTableRecord
  2
SMUSSO
 70
0
 62
7
  6
CONTINUOUS
370
-3
390
F
  0
LAYER
  5
210
100
AcDbSymbolTableRecord
100
AcDbLayerTableRecord
  2
SNAPLINE
 70
0
 62
7
  6
CONTINUOUS
370
-3
390
F
  0
LAYER
  5
211
100
AcDbSymbolTableRecord
100
AcDbLayerTableRecord
  2
SUPERFICI
 70
0
 62
7
  6
CONTINUOUS
370
-3
390
F
  0
LAYER
  5
212
100
AcDbSymbolTableRecord
100
AcDbLayerTableRecord
  2
TRASH
 70
0
 62
7
  6
CONTINUOUS
370
-3
390
F
  0
LAYER
  5
213
100
AcDbSymbolTableRecord
100
AcDbLayerTableRecord
  2
XSEC_DATUMS
 70
0
 62
7
  6
CONTINUOUS
370
-3
390
F
  0
ENDTAB
  0
TABLE
  2
STYLE
  5
3
100
AcDbSymbolTable
 70
1
  0
STYLE
  5
11
100
AcDbSymbolTableRecord
100
AcDbTextStyleTableRecord
  2
STANDARD
 70
0
 40
0.0
 41
0.8
 50
0.0
 71
0
 42
0.2
  3
txt
  4

  0
STYLE
  5
214
100
AcDbSymbolTableRecord
100
AcDbTextStyleTableRecord
  2
TEXTSTYLE_1
 70
0
 40
0.0
 41
0.8
 50
0.0
 71
0
 42
0.2
  3
gdt
  4

  0
ENDTAB
  0
TABLE
  2
VIEW
  5
6
100
AcDbSymbolTable
 70
0
  0
ENDTAB
  0
TABLE
  2
UCS
  5
7
100
AcDbSymbolTable
 70
0
  0
ENDTAB
  0
TABLE
  2
APPID
  5
9
100
AcDbSymbolTable
 70
1
  0
APPID
  5
215
100
AcDbSymbolTableRecord
100
AcDbRegAppTableRecord
  2
ACAD
 70
0
  0
ENDTAB
  0
TABLE
  2
BLOCK_RECORD
  5
1
100
AcDbSymbolTable
 70
0
  0
BLOCK_RECORD
  5
216
100
AcDbSymbolTableRecord
100
AcDbBlockTableRecord
  2
*Model_Space
  0
BLOCK_RECORD
  5
217
100
AcDbSymbolTableRecord
100
AcDbBlockTableRecord
  2
*Paper_Space
  0
BLOCK_RECORD
  5
218
100
AcDbSymbolTableRecord
100
AcDbBlockTableRecord
  2
_FILLED
  0
BLOCK_RECORD
  5
219
100
AcDbSymbolTableRecord
100
AcDbBlockTableRecord
  2
*D0
  0
BLOCK_RECORD
  5
21A
100
AcDbSymbolTableRecord
100
AcDbBlockTableRecord
  2
*D1
  0
BLOCK_RECORD
  5
21B
100
AcDbSymbolTableRecord
100
AcDbBlockTableRecord
  2
*D2
  0
ENDTAB
  0
TABLE
  2
DIMSTYLE
  5
A
100
AcDbSymbolTable
 70
1
100
AcDbDimStyleTable
 71
0
  0
DIMSTYLE
105
21C
100
AcDbSymbolTableRecord
100
AcDbDimStyleTableRecord
  2
STANDARD
 70
0
  3

  4

 40
1.0
 41
3.0
 42
0.0625
 43
0.38
 44
0.18
 45
0.0
 46
0.0
 47
0.01
 48
0.01
140
3.0
141
0.09
142
0.0
143
25.4
144
1.0
145
0.0
146
1.0
147
0.09
 71
1.0
 72
0.0
 73
0
 74
0
 75
0
 76
0
 77
1
 78
8
170
0
171
2
172
0
173
0
174
0
175
0
176
0
177
0
178
0
270
2
271
2
272
2
273
2
274
2
275
0
280
0
281
0
282
0
283
1
284
8
285
0
286
0
287
3
288
0
340
11
341
218
342
218
343
218
344
218
  0
DIMSTYLE
105
21D
100
AcDbSymbolTableRecord
100
AcDbDimStyleTableRecord
  2
DIMSTYLE_1
 70
0
  3

  4

 40
1.0
 41
3.0
 42
0.0625
 43
0.38
 44
0.18
 45
0.0
 46
0.0
 47
0.0
 48
0.0
140
3.0
141
0.09
142
0.0
143
25.4
144
1.0
145
0.0
146
1.0
147
0.09
 71
0.0
 72
0.0
 73
0
 74
0
 75
0
 76
0
 77
1
 78
8
170
0
171
2
172
0
173
0
174
0
175
0
176
0
177
0
178
0
270
2
271
2
272
2
273
2
274
2
275
0
280
0
281
0
282
0
283
1
284
8
285
0
286
0
287
3
288
0
340
11
341
218
342
218
343
218
344
218
  0
ENDTAB
  0
ENDSEC
  0
SECTION
  2
BLOCKS
  0
BLOCK
  5
20
100
AcDbEntity
  8
0
100
AcDbBlockBegin
  2
*Model_Space
 70
0
 10
0.0
 20
0.0
 30
0.0
  3
*Model_Space
  1

  0
ENDBLK
  5
21
100
AcDbEntity
  8
0
100
AcDbBlockEnd
  0
BLOCK
  5
1C
100
AcDbEntity
  8
0
100
AcDbBlockBegin
  2
*Paper_Space
 70
0
 10
0.0
 20
0.0
 30
0.0
  3
*Paper_Space
  1

  0
ENDBLK
  5
1D
100
AcDbEntity
  8
0
100
AcDbBlockEnd
  0
BLOCK
  5
21E
100
AcDbEntity
  8
0
100
AcDbBlockBegin
  2
_FILLED
 70
64
 10
0.0
 20
0.0
  3
_FILLED
  1

  0
SOLID
  5
21F
100
AcDbEntity
  8
0
  6
BYBLOCK
 62
0
100
AcDbTrace
 10
0.0
 20
0.0
 11
-1.0
 21
0.3166666667
 12
-1.0
 22
-0.3166666667
 13
-1.0
 23
-0.3166666667
  0
ENDBLK
  5
220
100
AcDbEntity
  8
0
  6
BYBLOCK
 62
0
100
AcDbBlockEnd
  0
BLOCK
  5
221
100
AcDbEntity
  8
0
100
AcDbBlockBegin
 62
7
  6
CONTINUOUS
  2
*D0
 70
65
 10
0.0
 20
0.0
  3
*D0
  1

  0
MTEXT
  5
222
100
AcDbEntity
  8
0
100
AcDbMText
 62
7
  6
CONTINUOUS
  7
STANDARD
 71
2
 72
1
 10
-122.1007037905
 20
53.25
 30
0.0
 11
1.0
 21
0.0
 31
0.0
 44
0.9
  1
65
 40
3.0
 41
4.5
  0
LINE
  5
223
100
AcDbEntity
  8
0
100
AcDbLine
 62
7
  6
CONTINUOUS
 10
-89.6007039709
 20
40.1596331162
 11
-89.6007039709
 21
51.0
  0
LINE
  5
224
100
AcDbEntity
  8
0
100
AcDbLine
 62
7
  6
CONTINUOUS
 10
-154.6007036101
 20
0.5000000012
 11
-154.6007036101
 21
51.0
  0
LINE
  5
225
100
AcDbEntity
  8
0
100
AcDbLine
 62
7
  6
CONTINUOUS
 10
-89.6007039709
 20
49.5
 11
-122.1007037905
 21
49.5
  0
LINE
  5
226
100
AcDbEntity
  8
0
100
AcDbLine
 62
7
  6
CONTINUOUS
 10
-154.6007036101
 20
49.5
 11
-122.1007037905
 21
49.5
  0
INSERT
  5
227
100
AcDbEntity
  8
0
100
AcDbBlockReference
 62
7
  6
CONTINUOUS
  2
_FILLED
 10
-89.6007039709
 20
49.5
 41
3.0
 42
3.0
 43
3.0
  0
INSERT
  5
228
100
AcDbEntity
  8
0
100
AcDbBlockReference
 62
7
  6
CONTINUOUS
  2
_FILLED
 10
-154.6007036101
 20
49.5
 41
3.0
 42
3.0
 43
3.0
 50
180.0
  0
ENDBLK
  5
229
100
AcDbEntity
  8
0
  6
BYBLOCK
 62
0
100
AcDbBlockEnd
  0
BLOCK
  5
22A
100
AcDbEntity
  8
0
100
AcDbBlockBegin
 62
7
  6
CONTINUOUS
  2
*D1
 70
65
 10
0.0
 20
0.0
  3
*D1
  1

  0
MTEXT
  5
22B
100
AcDbEntity
  8
0
100
AcDbMText
 62
7
  6
CONTINUOUS
  7
STANDARD
 71
2
 72
1
 10
0.0
 20
53.25
 30
0.0
 11
1.0
 21
0.0
 31
0.0
 44
0.9
  1
136
 40
3.0
 41
6.2142857143
  0
LINE
  5
22C
100
AcDbEntity
  8
0
100
AcDbLine
 62
7
  6
CONTINUOUS
 10
-68.0
 20
40.5000571154
 11
-68.0
 21
51.0
  0
LINE
  5
22D
100
AcDbEntity
  8
0
100
AcDbLine
 62
7
  6
CONTINUOUS
 10
68.0
 20
40.5000571154
 11
68.0
 21
51.0
  0
LINE
  5
22E
100
AcDbEntity
  8
0
100
AcDbLine
 62
7
  6
CONTINUOUS
 10
-68.0
 20
49.5
 11
0.0
 21
49.5
  0
LINE
  5
22F
100
AcDbEntity
  8
0
100
AcDbLine
 62
7
  6
CONTINUOUS
 10
68.0
 20
49.5
 11
0.0
 21
49.5
  0
INSERT
  5
230
100
AcDbEntity
  8
0
100
AcDbBlockReference
 62
7
  6
CONTINUOUS
  2
_FILLED
 10
-68.0
 20
49.5
 41
3.0
 42
3.0
 43
3.0
 50
180.0
  0
INSERT
  5
231
100
AcDbEntity
  8
0
100
AcDbBlockReference
 62
7
  6
CONTINUOUS
  2
_FILLED
 10
68.0
 20
49.5
 41
3.0
 42
3.0
 43
3.0
  0
ENDBLK
  5
232
100
AcDbEntity
  8
0
  6
BYBLOCK
 62
0
100
AcDbBlockEnd
  0
BLOCK
  5
233
100
AcDbEntity
  8
0
100
AcDbBlockBegin
 62
7
  6
CONTINUOUS
  2
*D2
 70
65
 10
0.0
 20
0.0
  3
*D2
  1

  0
MTEXT
  5
234
100
AcDbEntity
  8
0
100
AcDbMText
 62
7
  6
CONTINUOUS
  7
STANDARD
 71
2
 72
1
 10
72.25
 20
-0.0
 30
0.0
 11
0.0
 21
1.0
 31
0.0
 44
0.9
  1
83
 40
3.0
 41
4.5
  0
LINE
  5
235
100
AcDbEntity
  8
0
100
AcDbLine
 62
7
  6
CONTINUOUS
 10
67.0000571154
 20
41.5
 11
77.5
 21
41.5
  0
LINE
  5
236
100
AcDbEntity
  8
0
100
AcDbLine
 62
7
  6
CONTINUOUS
 10
67.0000571154
 20
-41.5
 11
77.5
 21
-41.5
  0
LINE
  5
237
100
AcDbEntity
  8
0
100
AcDbLine
 62
7
  6
CONTINUOUS
 10
76.0
 20
41.5
 11
76.0
 21
0.0
  0
LINE
  5
238
100
AcDbEntity
  8
0
100
AcDbLine
 62
7
  6
CONTINUOUS
 10
76.0
 20
-41.5
 11
76.0
 21
0.0
  0
INSERT
  5
239
100
AcDbEntity
  8
0
100
AcDbBlockReference
 62
7
  6
CONTINUOUS
  2
_FILLED
 10
76.0
 20
41.5
 41
3.0
 42
3.0
 43
3.0
 50
90.0
  0
INSERT
  5
23A
100
AcDbEntity
  8
0
100
AcDbBlockReference
 62
7
  6
CONTINUOUS
  2
_FILLED
 10
76.0
 20
-41.5
 41
3.0
 42
3.0
 43
3.0
 50
270.0
  0
ENDBLK
  5
23B
100
AcDbEntity
  8
0
  6
BYBLOCK
 62
0
100
AcDbBlockEnd
  0
ENDSEC
  0
SECTION
  2
ENTITIES
  0
DIMENSION
  5
23C
100
AcDbEntity
  8
0
100
AcDbDimension
 62
7
  6
CONTINUOUS
  2
*D0
 10
-154.6007036101
 20
49.5
 11
-124.3507037905
 21
51.75
 70
160
 71
2
 42
64.9999996393
  3
DIMSTYLE_1
100
AcDbAlignedDimension
 13
-89.6007039709
 23
40.1596331162
 14
-154.6007036101
 24
0.5000000012
 50
180.0
100
AcDbRotatedDimension
  0
DIMENSION
  5
23D
100
AcDbEntity
  8
0
100
AcDbDimension
 62
7
  6
CONTINUOUS
  2
*D1
 10
68.0
 20
49.5
 11
-3.1071428571
 21
51.75
 70
160
 71
2
 42
136.0
  3
DIMSTYLE_1
100
AcDbAlignedDimension
 13
-68.0
 23
40.5000571154
 14
68.0
 24
40.5000571154
100
AcDbRotatedDimension
  0
DIMENSION
  5
23E
100
AcDbEntity
  8
0
100
AcDbDimension
 62
7
  6
CONTINUOUS
  2
*D2
 10
76.0
 20
-41.5
 11
74.7581656363
 21
-2.0114924931
 70
160
 71
2
 42
83.0
  3
DIMSTYLE_1
100
AcDbAlignedDimension
 13
67.0000571154
 23
41.5
 14
67.0000571154
 24
-41.5
 50
270.0
100
AcDbRotatedDimension
  0
LINE
  5
23F
100
AcDbEntity
  8
RACCORDO
100
AcDbLine
 62
7
  6
CONTINUOUS
 10
-65.8968134915
 20
-38.9149437634
 11
-65.840352844
 21
-39.4809734905
  0
LINE
  5
240
100
AcDbEntity
  8
RACCORDO
100
AcDbLine
 62
253
  6
CONTINUOUS
 10
-66.3205172436
 20
36.877494527
 11
-66.3150393266
 21
30.3434111476
  0
LINE
  5
241
100
AcDbEntity
  8
RACCORDO
100
AcDbLine
 62
7
  6
CONTINUOUS
 10
-68.0
 20
40.0
 11
-68.0
 21
-40.0
  0
LINE
  5
242
100
AcDbEntity
  8
RACCORDO
100
AcDbLine
 62
7
  6
CONTINUOUS
 10
-66.2916321118
 20
-40.4092495092
 11
-66.2916321118
 21
-39.541641631
  0
LINE
  5
243
100
AcDbEntity
  8
RACCORDO
100
AcDbLine
 62
7
  6
CONTINUOUS
 10
-66.2916321118
 20
39.541641631
 11
-66.2916321118
 21
40.4092495092
  0
LINE
  5
244
100
AcDbEntity
  8
RACCORDO
100
AcDbLine
 62
7
  6
CONTINUOUS
 10
-66.2
 20
39.4500095192
 11
-66.2
 21
-39.4500095192
  0
LINE
  5
245
100
AcDbEntity
  8
RACCORDO
100
AcDbLine
 62
7
  6
CONTINUOUS
 10
-65.9
 20
32.5
 11
-65.9
 21
-38.5164658842
  0
LINE
  5
246
100
AcDbEntity
  8
RACCORDO
100
AcDbLine
 62
253
  6
CONTINUOUS
 10
-66.3150393266
 20
-30.3434111476
 11
-66.3205172408
 21
-36.8774913428
  0
LINE
  5
247
100
AcDbEntity
  8
0
100
AcDbLine
 62
7
  6
CONTINUOUS
 10
-57.2125
 20
-31.8191488981
 11
-57.1083332837
 21
-31.9255318642
  0
LINE
  5
248
100
AcDbEntity
  8
0
100
AcDbLine
 62
7
  6
CONTINUOUS
 10
-56.2229165673
 20
-33.5744680986
 11
-56.0666665673
 21
-33.7872340493
  0
LINE
  5
249
100
AcDbEntity
  8
0
100
AcDbLine
 62
7
  6
CONTINUOUS
 10
-56.7958334327
 20
-31.9255318642
 11
-56.9520832837
 21
-31.7127659321
  0
LINE
  5
24A
100
AcDbEntity
  8
0
100
AcDbLine
 62
7
  6
CONTINUOUS
 10
-54.55625
 20
-32.8297872245
 11
-54.7125
 21
-32.6170212924
  0
LINE
  5
24B
100
AcDbEntity
  8
0
100
AcDbLine
 62
7
  6
CONTINUOUS
 10
-53.93125
 20
-33.5744680986
 11
-53.775
 21
-33.7872340493
  0
LINE
  5
24C
100
AcDbEntity
  8
0
100
AcDbLine
 62
7
  6
CONTINUOUS
 10
-54.86875
 20
-32.8297872245
 11
-54.7645834327
 21
-32.9893616736
  0
LINE
  5
24D
100
AcDbEntity
  8
0
100
AcDbLine
 62
7
  6
CONTINUOUS
 10
-56.3270834327
 20
-33.3617021292
 11
-56.2229165673
 21
-33.5744680986
  0
LINE
  5
24E
100
AcDbEntity
  8
0
100
AcDbLine
 62
7
  6
CONTINUOUS
 10
-55.9104165673
 20
-33.5744680986
 11
-56.0145834327
 21
-33.3617021292
  0
LINE
  5
24F
100
AcDbEntity
  8
0
100
AcDbLine
 62
7
  6
CONTINUOUS
 10
-54.0354168653
 20
-33.3617021292
 11
-53.93125
 21
-33.5744680986
  0
LINE
  5
250
100
AcDbEntity
  8
0
100
AcDbLine
 62
7
  6
CONTINUOUS
 10
-57.1083332837
 20
-31.9255318642
 11
-57.05625
 21
-32.0851063132
  0
LINE
  5
251
100
AcDbEntity
  8
0
100
AcDbLine
 62
7
  6
CONTINUOUS
 10
-56.74375
 20
-32.0851063132
 11
-56.7958334327
 21
-31.9255318642
  0
LINE
  5
252
100
AcDbEntity
  8
0
100
AcDbLine
 62
7
  6
CONTINUOUS
 10
-59.4
 20
-31.5
 11
-59.4
 21
-34.0
  0
LINE
  5
253
100
AcDbEntity
  8
0
100
AcDbLine
 62
7
  6
CONTINUOUS
 10
-59.0875
 20
-34.0
 11
-59.0875
 21
-31.5
  0
LINE
  5
254
100
AcDbEntity
  8
0
100
AcDbLine
 62
7
  6
CONTINUOUS
 10
-58.6708333582
 20
-31.5
 11
-58.6708333582
 21
-34.0
  0
LINE
  5
255
100
AcDbEntity
  8
0
100
AcDbLine
 62
7
  6
CONTINUOUS
 10
-58.3583333582
 20
-34.0
 11
-58.3583333582
 21
-32.8829787076
  0
LINE
  5
256
100
AcDbEntity
  8
0
100
AcDbLine
 62
7
  6
CONTINUOUS
 10
-58.3583333582
 20
-32.5638298094
 11
-58.3583333582
 21
-31.7659574151
  0
LINE
  5
257
100
AcDbEntity
  8
0
100
AcDbLine
 62
7
  6
CONTINUOUS
 10
-56.0666665673
 20
-33.7872340493
 11
-55.80625
 21
-33.9468085123
  0
LINE
  5
258
100
AcDbEntity
  8
0
100
AcDbLine
 62
7
  6
CONTINUOUS
 10
-55.7541665673
 20
-33.6808510646
 11
-55.9104165673
 21
-33.5744680986
  0
LINE
  5
259
100
AcDbEntity
  8
0
100
AcDbLine
 62
7
  6
CONTINUOUS
 10
-55.025
 20
-32.7234042585
 11
-54.86875
 21
-32.8297872245
  0
LINE
  5
25A
100
AcDbEntity
  8
0
100
AcDbLine
 62
7
  6
CONTINUOUS
 10
-53.4625
 20
-33.6808510646
 11
-53.61875
 21
-33.5744680986
  0
LINE
  5
25B
100
AcDbEntity
  8
0
100
AcDbLine
 62
7
  6
CONTINUOUS
 10
-56.9520832837
 20
-31.7127659321
 11
-57.1604167163
 21
-31.553191483
  0
LINE
  5
25C
100
AcDbEntity
  8
0
100
AcDbLine
 62
7
  6
CONTINUOUS
 10
-52.2645831347
 20
-32.8297872245
 11
-52.4208331347
 21
-32.6170212924
  0
LINE
  5
25D
100
AcDbEntity
  8
0
100
AcDbLine
 62
7
  6
CONTINUOUS
 10
-52.5770831347
 20
-32.8297872245
 11
-52.4729168653
 21
-32.9893616736
  0
LINE
  5
25E
100
AcDbEntity
  8
0
100
AcDbLine
 62
7
  6
CONTINUOUS
 10
-53.61875
 20
-33.5744680986
 11
-53.7229168653
 21
-33.3617021292
  0
LINE
  5
25F
100
AcDbEntity
  8
0
100
AcDbLine
 62
7
  6
CONTINUOUS
 10
-54.4520834327
 20
-33.0957447141
 11
-54.55625
 21
-32.8297872245
  0
LINE
  5
260
100
AcDbEntity
  8
0
100
AcDbLine
 62
7
  6
CONTINUOUS
 10
-52.1604168653
 20
-33.0957447141
 11
-52.2645831347
 21
-32.8297872245
  0
LINE
  5
261
100
AcDbEntity
  8
0
100
AcDbLine
 62
7
  6
CONTINUOUS
 10
-54.7645834327
 20
-32.9893616736
 11
-54.7125
 21
-33.1489361972
  0
LINE
  5
262
100
AcDbEntity
  8
0
100
AcDbLine
 62
7
  6
CONTINUOUS
 10
-52.4729168653
 20
-32.9893616736
 11
-52.4208331347
 21
-33.1489361972
  0
LINE
  5
263
100
AcDbEntity
  8
0
100
AcDbLine
 62
7
  6
CONTINUOUS
 10
-57.05625
 20
-32.0851063132
 11
-57.05625
 21
-32.2446809113
  0
LINE
  5
264
100
AcDbEntity
  8
0
100
AcDbLine
 62
7
  6
CONTINUOUS
 10
-56.74375
 20
-32.2978723943
 11
-56.74375
 21
-32.0851063132
  0
LINE
  5
265
100
AcDbEntity
  8
0
100
AcDbLine
 62
7
  6
CONTINUOUS
 10
-56.3270834327
 20
-31.5
 11
-56.3270834327
 21
-32.8829787076
  0
LINE
  5
266
100
AcDbEntity
  8
0
100
AcDbLine
 62
7
  6
CONTINUOUS
 10
-56.0666665673
 20
-32.6170212924
 11
-56.0666665673
 21
-31.7659574151
  0
LINE
  5
267
100
AcDbEntity
  8
0
100
AcDbLine
 62
7
  6
CONTINUOUS
 10
-54.7125
 20
-33.1489361972
 11
-54.7125
 21
-33.2553191632
  0
LINE
  5
268
100
AcDbEntity
  8
0
100
AcDbLine
 62
7
  6
CONTINUOUS
 10
-54.55625
 20
-31.7659574151
 11
-54.55625
 21
-31.5
  0
LINE
  5
269
100
AcDbEntity
  8
0
100
AcDbLine
 62
7
  6
CONTINUOUS
 10
-54.4520834327
 20
-33.3085106462
 11
-54.4520834327
 21
-33.0957447141
  0
LINE
  5
26A
100
AcDbEntity
  8
0
100
AcDbLine
 62
7
  6
CONTINUOUS
 10
-54.0354168653
 20
-31.5
 11
-54.0354168653
 21
-32.8829787076
  0
LINE
  5
26B
100
AcDbEntity
  8
0
100
AcDbLine
 62
7
  6
CONTINUOUS
 10
-53.775
 20
-32.6170212924
 11
-53.775
 21
-31.7659574151
  0
LINE
  5
26C
100
AcDbEntity
  8
0
100
AcDbLine
 62
7
  6
CONTINUOUS
 10
-52.4208331347
 20
-33.1489361972
 11
-52.4208331347
 21
-33.2553191632
  0
LINE
  5
26D
100
AcDbEntity
  8
0
100
AcDbLine
 62
7
  6
CONTINUOUS
 10
-53.775
 20
-33.7872340493
 11
-53.5145831347
 21
-33.9468085123
  0
LINE
  5
26E
100
AcDbEntity
  8
0
100
AcDbLine
 62
7
  6
CONTINUOUS
 10
-54.7125
 20
-32.6170212924
 11
-54.9729165673
 21
-32.4574468434
  0
LINE
  5
26F
100
AcDbEntity
  8
0
100
AcDbLine
 62
7
  6
CONTINUOUS
 10
-52.4208331347
 20
-32.6170212924
 11
-52.68125
 21
-32.4574468434
  0
LINE
  5
270
100
AcDbEntity
  8
0
100
AcDbLine
 62
7
  6
CONTINUOUS
 10
-52.7333331347
 20
-32.7234042585
 11
-52.5770831347
 21
-32.8297872245
  0
LINE
  5
271
100
AcDbEntity
  8
RACCORDO
100
AcDbLine
 62
253
  6
CONTINUOUS
 10
-51.5937693497
 20
23.3
 11
-51.8938847769
 21
27.9763141766
  0
LINE
  5
272
100
AcDbEntity
  8
RACCORDO
100
AcDbLine
 62
253
  6
CONTINUOUS
 10
-51.1224793139
 20
23.8
 11
-51.4014809083
 21
28.1473243712
  0
LINE
  5
273
100
AcDbEntity
  8
0
100
AcDbLine
 62
7
  6
CONTINUOUS
 10
-52.2645831347
 20
-31.7659574151
 11
-52.2645831347
 21
-31.5
  0
LINE
  5
274
100
AcDbEntity
  8
0
100
AcDbLine
 62
7
  6
CONTINUOUS
 10
-52.1604168653
 20
-33.3085106462
 11
-52.1604168653
 21
-33.0957447141
  0
LINE
  5
275
100
AcDbEntity
  8
RACCORDO
100
AcDbLine
 62
7
  6
CONTINUOUS
 10
-51.3
 20
-23.6986436035
 11
-51.3
 21
23.6986436035
  0
LINE
  5
276
100
AcDbEntity
  8
RACCORDO
100
AcDbLine
 62
253
  6
CONTINUOUS
 10
-50.8
 20
-23.8
 11
-50.8000000004
 21
23.8
  0
LINE
  5
277
100
AcDbEntity
  8
RACCORDO
100
AcDbLine
 62
253
  6
CONTINUOUS
 10
-51.5937693497
 20
-23.3
 11
-51.893884741
 21
-27.9763136159
  0
LINE
  5
278
100
AcDbEntity
  8
RACCORDO
100
AcDbLine
 62
253
  6
CONTINUOUS
 10
-51.1224793139
 20
-23.8
 11
-51.4014808627
 21
-28.1473236606
  0
LINE
  5
279
100
AcDbEntity
  8
0
100
AcDbLine
 62
7
  6
CONTINUOUS
 10
-57.36875
 20
-31.7659574151
 11
-57.2125
 21
-31.8191488981
  0
LINE
  5
27A
100
AcDbEntity
  8
DRAFT
100
AcDbLine
 62
7
  6
CONTINUOUS
 10
-24.9258023047
 20
-41.4541907783
 11
-25.1330642872
 21
-41.3505676793
  0
LINE
  5
27B
100
AcDbEntity
  8
0
100
AcDbLine
 62
7
  6
CONTINUOUS
 10
-57.05625
 20
-32.2446809113
 11
-57.1083332837
 21
-32.4042553604
  0
LINE
  5
27C
100
AcDbEntity
  8
0
100
AcDbLine
 62
7
  6
CONTINUOUS
 10
-56.7958334327
 20
-32.4574468434
 11
-56.74375
 21
-32.2978723943
  0
LINE
  5
27D
100
AcDbEntity
  8
0
100
AcDbLine
 62
7
  6
CONTINUOUS
 10
-55.80625
 20
-33.9468085123
 11
-55.5458334327
 21
-34.0
  0
LINE
  5
27E
100
AcDbEntity
  8
0
100
AcDbLine
 62
7
  6
CONTINUOUS
 10
-53.5145831347
 20
-33.9468085123
 11
-53.2541668653
 21
-34.0
  0
LINE
  5
27F
100
AcDbEntity
  8
0
100
AcDbLine
 62
7
  6
CONTINUOUS
 10
-54.9729165673
 20
-32.4574468434
 11
-55.2333334327
 21
-32.4042553604
  0
LINE
  5
280
100
AcDbEntity
  8
0
100
AcDbLine
 62
7
  6
CONTINUOUS
 10
-57.1604167163
 20
-31.553191483
 11
-57.4208332837
 21
-31.5
  0
LINE
  5
281
100
AcDbEntity
  8
0
100
AcDbLine
 62
7
  6
CONTINUOUS
 10
-52.68125
 20
-32.4574468434
 11
-52.9416668653
 21
-32.4042553604
  0
LINE
  5
282
100
AcDbEntity
  8
0
100
AcDbLine
 62
7
  6
CONTINUOUS
 10
-55.5458334327
 20
-33.7340425476
 11
-55.7541665673
 21
-33.6808510646
  0
LINE
  5
283
100
AcDbEntity
  8
0
100
AcDbLine
 62
7
  6
CONTINUOUS
 10
-53.2541668653
 20
-33.7340425476
 11
-53.4625
 21
-33.6808510646
  0
LINE
  5
284
100
AcDbEntity
  8
0
100
AcDbLine
 62
7
  6
CONTINUOUS
 10
-55.2333334327
 20
-32.6702127755
 11
-55.025
 21
-32.7234042585
  0
LINE
  5
285
100
AcDbEntity
  8
0
100
AcDbLine
 62
7
  6
CONTINUOUS
 10
-52.9416668653
 20
-32.6702127755
 11
-52.7333331347
 21
-32.7234042585
  0
LINE
  5
286
100
AcDbEntity
  8
0
100
AcDbLine
 62
7
  6
CONTINUOUS
 10
-54.7125
 20
-33.2553191632
 11
-54.7645834327
 21
-33.4148936123
  0
LINE
  5
287
100
AcDbEntity
  8
0
100
AcDbLine
 62
7
  6
CONTINUOUS
 10
-52.4208331347
 20
-33.2553191632
 11
-52.4729168653
 21
-33.4148936123
  0
LINE
  5
288
100
AcDbEntity
  8
0
100
AcDbLine
 62
7
  6
CONTINUOUS
 10
-54.55625
 20
-33.5744680986
 11
-54.4520834327
 21
-33.3085106462
  0
LINE
  5
289
100
AcDbEntity
  8
RACCORDO
100
AcDbLine
 62
253
  6
CONTINUOUS
 10
66.3095377557
 20
-36.8775806447
 11
66.3205172258
 21
-36.8774914495
  0
LINE
  5
28A
100
AcDbEntity
  8
RACCORDO
100
AcDbLine
 62
7
  6
CONTINUOUS
 10
-66.5
 20
-41.5
 11
-24.7
 21
-41.5
  0
LINE
  5
28B
100
AcDbEntity
  8
RACCORDO
100
AcDbLine
 62
7
  6
CONTINUOUS
 10
24.7
 20
-41.5
 11
66.5
 21
-41.5
  0
LINE
  5
28C
100
AcDbEntity
  8
ASSI
100
AcDbLine
 62
7
  6
CONTINUOUS
 10
24.7
 20
-41.5
 11
-24.7
 21
-41.5
  0
LINE
  5
28D
100
AcDbEntity
  8
DRAFT
100
AcDbLine
 62
7
  6
CONTINUOUS
 10
-24.9258023047
 20
-41.4541907783
 11
-24.7
 21
-41.4541907783
  0
LINE
  5
28E
100
AcDbEntity
  8
DRAFT
100
AcDbLine
 62
7
  6
CONTINUOUS
 10
24.7
 20
-41.4541907783
 11
24.9258023047
 21
-41.4541907783
  0
LINE
  5
28F
100
AcDbEntity
  8
0
100
AcDbLine
 62
7
  6
CONTINUOUS
 10
-33.5
 20
-41.417094756
 11
-28.5
 21
-41.417094756
  0
LINE
  5
290
100
AcDbEntity
  8
0
100
AcDbLine
 62
7
  6
CONTINUOUS
 10
28.5
 20
-41.417094756
 11
33.5
 21
-41.417094756
  0
LINE
  5
291
100
AcDbEntity
  8
0
100
AcDbLine
 62
7
  6
CONTINUOUS
 10
33.5
 20
-41.3821872848
 11
28.5
 21
-41.3821872848
  0
LINE
  5
292
100
AcDbEntity
  8
0
100
AcDbLine
 62
7
  6
CONTINUOUS
 10
-28.5
 20
-41.3821872848
 11
-33.5
 21
-41.3821872848
  0
LINE
  5
293
100
AcDbEntity
  8
RACCORDO
100
AcDbLine
 62
253
  6
CONTINUOUS
 10
-66.350625534
 20
-41.3505684186
 11
-25.1330642872
 21
-41.3505676793
  0
LINE
  5
294
100
AcDbEntity
  8
RACCORDO
100
AcDbLine
 62
253
  6
CONTINUOUS
 10
25.1330642872
 20
-41.3505676793
 11
66.350625534
 21
-41.3505684186
  0
LINE
  5
295
100
AcDbEntity
  8
RACCORDO
100
AcDbLine
 62
7
  6
CONTINUOUS
 10
23.7
 20
-40.6893597165
 11
-23.7
 21
-40.6893597165
  0
LINE
  5
296
100
AcDbEntity
  8
RACCORDO
100
AcDbLine
 62
7
  6
CONTINUOUS
 10
66.2916321118
 20
-40.4092495092
 11
26.1659754449
 21
-40.4092495092
  0
LINE
  5
297
100
AcDbEntity
  8
RACCORDO
100
AcDbLine
 62
7
  6
CONTINUOUS
 10
-26.1659754449
 20
-40.4092495092
 11
-66.2916321118
 21
-40.4092495092
  0
LINE
  5
298
100
AcDbEntity
  8
RACCORDO
100
AcDbLine
 62
7
  6
CONTINUOUS
 10
-66.041641631
 20
-39.7916321118
 11
-26.1659754449
 21
-39.7916321118
  0
LINE
  5
299
100
AcDbEntity
  8
RACCORDO
100
AcDbLine
 62
7
  6
CONTINUOUS
 10
26.1659754449
 20
-39.7916321118
 11
66.041641631
 21
-39.7916321118
  0
LINE
  5
29A
100
AcDbEntity
  8
DRAFT
100
AcDbLine
 62
7
  6
CONTINUOUS
 10
33.5
 20
-39.7349074712
 11
28.5
 21
-39.7349074712
  0
LINE
  5
29B
100
AcDbEntity
  8
DRAFT
100
AcDbLine
 62
7
  6
CONTINUOUS
 10
-28.5
 20
-39.7349074712
 11
-33.5
 21
-39.7349074712
  0
LINE
  5
29C
100
AcDbEntity
  8
RACCORDO
100
AcDbLine
 62
7
  6
CONTINUOUS
 10
-65.9500095192
 20
-39.7
 11
-33.5
 21
-39.7
  0
LINE
  5
29D
100
AcDbEntity
  8
DRAFT
100
AcDbLine
 62
7
  6
CONTINUOUS
 10
-28.5
 20
-39.7
 11
-25.0
 21
-39.7
  0
LINE
  5
29E
100
AcDbEntity
  8
DRAFT
100
AcDbLine
 62
7
  6
CONTINUOUS
 10
25.0
 20
-39.7
 11
28.5
 21
-39.7
  0
LINE
  5
29F
100
AcDbEntity
  8
RACCORDO
100
AcDbLine
 62
7
  6
CONTINUOUS
 10
33.5
 20
-39.7
 11
65.9500095192
 21
-39.7
  0
LINE
  5
2A0
100
AcDbEntity
  8
0
100
AcDbLine
 62
7
  6
CONTINUOUS
 10
33.0
 20
-39.5
 11
29.0
 21
-39.5
  0
LINE
  5
2A1
100
AcDbEntity
  8
ASSI
100
AcDbLine
 62
7
  6
CONTINUOUS
 10
65.8365487262
 20
-39.5
 11
24.7
 21
-39.5
  0
LINE
  5
2A2
100
AcDbEntity
  8
0
100
AcDbLine
 62
7
  6
CONTINUOUS
 10
-29.0
 20
-39.5
 11
-33.0
 21
-39.5
  0
LINE
  5
2A3
100
AcDbEntity
  8
ASSI
100
AcDbLine
 62
7
  6
CONTINUOUS
 10
-24.7
 20
-39.5
 11
-65.8365487262
 21
-39.5
  0
LINE
  5
2A4
100
AcDbEntity
  8
RACCORDO
100
AcDbLine
 62
7
  6
CONTINUOUS
 10
23.7
 20
-38.6893597165
 11
-23.7
 21
-38.6893597165
  0
LINE
  5
2A5
100
AcDbEntity
  8
RACCORDO
100
AcDbLine
 62
253
  6
CONTINUOUS
 10
-66.3205172257
 20
-36.8774913428
 11
-66.3095377557
 21
-36.8775806447
  0
LINE
  5
2A6
100
AcDbEntity
  8
DRAFT
100
AcDbLine
 62
7
  6
CONTINUOUS
 10
-33.5
 20
-39.7349074712
 11
-33.5
 21
-39.7
  0
LINE
  5
2A7
100
AcDbEntity
  8
0
100
AcDbLine
 62
7
  6
CONTINUOUS
 10
-33.5
 20
-41.3821872848
 11
-33.5
 21
-41.417094756
  0
LINE
  5
2A8
100
AcDbEntity
  8
DRAFT
100
AcDbLine
 62
7
  6
CONTINUOUS
 10
-33.0
 20
-39.7349074712
 11
-33.0
 21
-39.5
  0
LINE
  5
2A9
100
AcDbEntity
  8
0
100
AcDbLine
 62
7
  6
CONTINUOUS
 10
-52.2645831347
 20
-33.5744680986
 11
-52.1604168653
 21
-33.3085106462
  0
LINE
  5
2AA
100
AcDbEntity
  8
DRAFT
100
AcDbLine
 62
253
  6
CONTINUOUS
 10
65.7931342417
 20
-35.0
 11
-65.7931342417
 21
-35.0
  0
LINE
  5
2AB
100
AcDbEntity
  8
0
100
AcDbLine
 62
7
  6
CONTINUOUS
 10
-59.4
 20
-34.0
 11
-59.0875
 21
-34.0
  0
LINE
  5
2AC
100
AcDbEntity
  8
0
100
AcDbLine
 62
7
  6
CONTINUOUS
 10
-58.6708333582
 20
-34.0
 11
-58.3583333582
 21
-34.0
  0
LINE
  5
2AD
100
AcDbEntity
  8
0
100
AcDbLine
 62
7
  6
CONTINUOUS
 10
-55.5458334327
 20
-34.0
 11
-55.2333334327
 21
-34.0
  0
LINE
  5
2AE
100
AcDbEntity
  8
0
100
AcDbLine
 62
7
  6
CONTINUOUS
 10
-53.2541668653
 20
-34.0
 11
-52.9416668653
 21
-34.0
  0
LINE
  5
2AF
100
AcDbEntity
  8
0
100
AcDbLine
 62
7
  6
CONTINUOUS
 10
48.7333333582
 20
-34.0
 11
49.15
 21
-34.0
  0
LINE
  5
2B0
100
AcDbEntity
  8
0
100
AcDbLine
 62
7
  6
CONTINUOUS
 10
50.4
 20
-34.0
 11
50.7125
 21
-34.0
  0
LINE
  5
2B1
100
AcDbEntity
  8
0
100
AcDbLine
 62
7
  6
CONTINUOUS
 10
51.1291665673
 20
-34.0
 11
51.4416665673
 21
-34.0
  0
LINE
  5
2B2
100
AcDbEntity
  8
0
100
AcDbLine
 62
7
  6
CONTINUOUS
 10
52.1708334327
 20
-34.0
 11
52.5875
 21
-34.0
  0
LINE
  5
2B3
100
AcDbEntity
  8
0
100
AcDbLine
 62
7
  6
CONTINUOUS
 10
53.3166668653
 20
-34.0
 11
53.6291668653
 21
-34.0
  0
LINE
  5
2B4
100
AcDbEntity
  8
0
100
AcDbLine
 62
7
  6
CONTINUOUS
 10
54.0458331347
 20
-34.0
 11
54.3583331347
 21
-34.0
  0
LINE
  5
2B5
100
AcDbEntity
  8
0
100
AcDbLine
 62
7
  6
CONTINUOUS
 10
55.8166668653
 20
-34.0
 11
56.1291668653
 21
-34.0
  0
LINE
  5
2B6
100
AcDbEntity
  8
0
100
AcDbLine
 62
7
  6
CONTINUOUS
 10
56.5458331347
 20
-34.0
 11
56.8583331347
 21
-34.0
  0
LINE
  5
2B7
100
AcDbEntity
  8
0
100
AcDbLine
 62
7
  6
CONTINUOUS
 10
58.1604162693
 20
-34.0
 11
58.525
 21
-34.0
  0
LINE
  5
2B8
100
AcDbEntity
  8
0
100
AcDbLine
 62
7
  6
CONTINUOUS
 10
-52.9416668653
 20
-33.7340425476
 11
-53.2541668653
 21
-33.7340425476
  0
LINE
  5
2B9
100
AcDbEntity
  8
0
100
AcDbLine
 62
7
  6
CONTINUOUS
 10
-55.2333334327
 20
-33.7340425476
 11
-55.5458334327
 21
-33.7340425476
  0
LINE
  5
2BA
100
AcDbEntity
  8
0
100
AcDbLine
 62
7
  6
CONTINUOUS
 10
-53.7229168653
 20
-33.3617021292
 11
-54.0354168653
 21
-33.3617021292
  0
LINE
  5
2BB
100
AcDbEntity
  8
0
100
AcDbLine
 62
7
  6
CONTINUOUS
 10
54.5666668653
 20
-33.3617021292
 11
55.6083331347
 21
-33.3617021292
  0
LINE
  5
2BC
100
AcDbEntity
  8
0
100
AcDbLine
 62
7
  6
CONTINUOUS
 10
-56.0145834327
 20
-33.3617021292
 11
-56.3270834327
 21
-33.3617021292
  0
LINE
  5
2BD
100
AcDbEntity
  8
0
100
AcDbLine
 62
7
  6
CONTINUOUS
 10
55.55625
 20
-33.1489361972
 11
54.61875
 21
-33.1489361972
  0
LINE
  5
2BE
100
AcDbEntity
  8
0
100
AcDbLine
 62
7
  6
CONTINUOUS
 10
-58.3583333582
 20
-32.8829787076
 11
-57.4208332837
 21
-32.8829787076
  0
LINE
  5
2BF
100
AcDbEntity
  8
0
100
AcDbLine
 62
7
  6
CONTINUOUS
 10
-56.3270834327
 20
-32.8829787076
 11
-55.9625
 21
-32.8829787076
  0
LINE
  5
2C0
100
AcDbEntity
  8
0
100
AcDbLine
 62
7
  6
CONTINUOUS
 10
-54.0354168653
 20
-32.8829787076
 11
-53.6708331347
 21
-32.8829787076
  0
LINE
  5
2C1
100
AcDbEntity
  8
0
100
AcDbLine
 62
7
  6
CONTINUOUS
 10
56.8583331347
 20
-32.8829787076
 11
57.74375
 21
-32.8829787076
  0
LINE
  5
2C2
100
AcDbEntity
  8
0
100
AcDbLine
 62
7
  6
CONTINUOUS
 10
-55.5458334327
 20
-32.6702127755
 11
-55.2333334327
 21
-32.6702127755
  0
LINE
  5
2C3
100
AcDbEntity
  8
0
100
AcDbLine
 62
7
  6
CONTINUOUS
 10
-53.2541668653
 20
-32.6702127755
 11
-52.9416668653
 21
-32.6702127755
  0
LINE
  5
2C4
100
AcDbEntity
  8
0
100
AcDbLine
 62
7
  6
CONTINUOUS
 10
57.8479168653
 20
-32.5638298094
 11
56.8583331347
 21
-32.5638298094
  0
LINE
  5
2C5
100
AcDbEntity
  8
0
100
AcDbLine
 62
7
  6
CONTINUOUS
 10
-57.36875
 20
-32.5638298094
 11
-58.3583333582
 21
-32.5638298094
  0
LINE
  5
2C6
100
AcDbEntity
  8
0
100
AcDbLine
 62
7
  6
CONTINUOUS
 10
-52.9416668653
 20
-32.4042553604
 11
-53.2541668653
 21
-32.4042553604
  0
LINE
  5
2C7
100
AcDbEntity
  8
0
100
AcDbLine
 62
7
  6
CONTINUOUS
 10
-55.2333334327
 20
-32.4042553604
 11
-55.5458334327
 21
-32.4042553604
  0
LINE
  5
2C8
100
AcDbEntity
  8
0
100
AcDbLine
 62
7
  6
CONTINUOUS
 10
-58.3583333582
 20
-31.7659574151
 11
-57.36875
 21
-31.7659574151
  0
LINE
  5
2C9
100
AcDbEntity
  8
0
100
AcDbLine
 62
7
  6
CONTINUOUS
 10
-56.0666665673
 20
-31.7659574151
 11
-54.55625
 21
-31.7659574151
  0
LINE
  5
2CA
100
AcDbEntity
  8
0
100
AcDbLine
 62
7
  6
CONTINUOUS
 10
-53.775
 20
-31.7659574151
 11
-52.2645831347
 21
-31.7659574151
  0
LINE
  5
2CB
100
AcDbEntity
  8
0
100
AcDbLine
 62
7
  6
CONTINUOUS
 10
56.8583331347
 20
-31.7659574151
 11
57.8479168653
 21
-31.7659574151
  0
LINE
  5
2CC
100
AcDbEntity
  8
0
100
AcDbLine
 62
7
  6
CONTINUOUS
 10
57.7958331347
 20
-31.5
 11
56.5458331347
 21
-31.5
  0
LINE
  5
2CD
100
AcDbEntity
  8
0
100
AcDbLine
 62
7
  6
CONTINUOUS
 10
55.2958331347
 20
-31.5
 11
54.8791668653
 21
-31.5
  0
LINE
  5
2CE
100
AcDbEntity
  8
0
100
AcDbLine
 62
7
  6
CONTINUOUS
 10
53.6291668653
 20
-31.5
 11
53.1604168653
 21
-31.5
  0
LINE
  5
2CF
100
AcDbEntity
  8
0
100
AcDbLine
 62
7
  6
CONTINUOUS
 10
51.5979165673
 20
-31.5
 11
51.1291665673
 21
-31.5
  0
LINE
  5
2D0
100
AcDbEntity
  8
0
100
AcDbLine
 62
7
  6
CONTINUOUS
 10
50.7125
 20
-31.5
 11
50.4
 21
-31.5
  0
LINE
  5
2D1
100
AcDbEntity
  8
0
100
AcDbLine
 62
7
  6
CONTINUOUS
 10
49.9833332837
 20
-31.5
 11
49.6708332837
 21
-31.5
  0
LINE
  5
2D2
100
AcDbEntity
  8
0
100
AcDbLine
 62
7
  6
CONTINUOUS
 10
48.2125
 20
-31.5
 11
47.9
 21
-31.5
  0
LINE
  5
2D3
100
AcDbEntity
  8
0
100
AcDbLine
 62
7
  6
CONTINUOUS
 10
-52.2645831347
 20
-31.5
 11
-54.0354168653
 21
-31.5
  0
LINE
  5
2D4
100
AcDbEntity
  8
0
100
AcDbLine
 62
7
  6
CONTINUOUS
 10
-54.55625
 20
-31.5
 11
-56.3270834327
 21
-31.5
  0
LINE
  5
2D5
100
AcDbEntity
  8
0
100
AcDbLine
 62
7
  6
CONTINUOUS
 10
-57.4208332837
 20
-31.5
 11
-58.6708333582
 21
-31.5
  0
LINE
  5
2D6
100
AcDbEntity
  8
0
100
AcDbLine
 62
7
  6
CONTINUOUS
 10
-59.0875
 20
-31.5
 11
-59.4
 21
-31.5
  0
LINE
  5
2D7
100
AcDbEntity
  8
DRAFT
100
AcDbLine
 62
7
  6
CONTINUOUS
 10
-24.9258023047
 20
-41.4541907783
 11
-24.9848834703
 21
-39.5
  0
LINE
  5
2D8
100
AcDbEntity
  8
DRAFT
100
AcDbLine
 62
7
  6
CONTINUOUS
 10
-29.0
 20
-39.7349074712
 11
-29.0
 21
-39.5
  0
LINE
  5
2D9
100
AcDbEntity
  8
0
100
AcDbLine
 62
7
  6
CONTINUOUS
 10
-28.5
 20
-41.417094756
 11
-28.5
 21
-41.3821872848
  0
LINE
  5
2DA
100
AcDbEntity
  8
DRAFT
100
AcDbLine
 62
7
  6
CONTINUOUS
 10
-28.5
 20
-39.7349074712
 11
-28.5
 21
-39.7
  0
LINE
  5
2DB
100
AcDbEntity
  8
RACCORDO
100
AcDbLine
 62
253
  6
CONTINUOUS
 10
-26.1659754449
 20
-40.4092495092
 11
-26.1659754449
 21
-39.7916321118
  0
LINE
  5
2DC
100
AcDbEntity
  8
0
100
AcDbLine
 62
7
  6
CONTINUOUS
 10
-54.7645834327
 20
-33.4148936123
 11
-54.86875
 21
-33.5744680986
  0
LINE
  5
2DD
100
AcDbEntity
  8
0
100
AcDbLine
 62
7
  6
CONTINUOUS
 10
-56.9520832837
 20
-32.6702127755
 11
-56.7958334327
 21
-32.4574468434
  0
LINE
  5
2DE
100
AcDbEntity
  8
RACCORDO
100
AcDbLine
 62
253
  6
CONTINUOUS
 10
-52.3570779279
 20
-30.0107433108
 11
52.3570779279
 21
-30.0107433108
  0
LINE
  5
2DF
100
AcDbEntity
  8
RACCORDO
100
AcDbLine
 62
253
  6
CONTINUOUS
 10
51.942486773
 20
-29.7967792022
 11
-51.9425285817
 21
-29.7968313384
  0
LINE
  5
2E0
100
AcDbEntity
  8
RACCORDO
100
AcDbLine
 62
253
  6
CONTINUOUS
 10
-25.1661277497
 20
-40.9599648383
 11
-25.1661277497
 21
-39.7830575489
  0
LINE
  5
2E1
100
AcDbEntity
  8
DRAFT
100
AcDbLine
 62
7
  6
CONTINUOUS
 10
-25.0
 20
-39.7
 11
-25.0
 21
-39.5
  0
LINE
  5
2E2
100
AcDbEntity
  8
RACCORDO
100
AcDbLine
 62
7
  6
CONTINUOUS
 10
-24.7
 20
-41.5
 11
-24.7
 21
-39.1914180405
  0
LINE
  5
2E3
100
AcDbEntity
  8
RACCORDO
100
AcDbLine
 62
253
  6
CONTINUOUS
 10
-23.7
 20
-40.6893597165
 11
-23.7
 21
-38.6893597165
  0
LINE
  5
2E4
100
AcDbEntity
  8
0
100
AcDbLine
 62
7
  6
CONTINUOUS
 10
-52.4729168653
 20
-33.4148936123
 11
-52.5770831347
 21
-33.5744680986
  0
LINE
  5
2E5
100
AcDbEntity
  8
0
100
AcDbLine
 62
7
  6
CONTINUOUS
 10
-54.7125
 20
-33.7872340493
 11
-54.55625
 21
-33.5744680986
  0
LINE
  5
2E6
100
AcDbEntity
  8
0
100
AcDbLine
 62
7
  6
CONTINUOUS
 10
-52.4208331347
 20
-33.7872340493
 11
-52.2645831347
 21
-33.5744680986
  0
LINE
  5
2E7
100
AcDbEntity
  8
0
100
AcDbLine
 62
7
  6
CONTINUOUS
 10
-52.9416668653
 20
-34.0
 11
-52.68125
 21
-33.9468085123
  0
LINE
  5
2E8
100
AcDbEntity
  8
0
100
AcDbLine
 62
7
  6
CONTINUOUS
 10
-55.2333334327
 20
-34.0
 11
-54.9729165673
 21
-33.9468085123
  0
LINE
  5
2E9
100
AcDbEntity
  8
0
100
AcDbLine
 62
7
  6
CONTINUOUS
 10
-53.2541668653
 20
-32.4042553604
 11
-53.5145831347
 21
-32.4574468434
  0
LINE
  5
2EA
100
AcDbEntity
  8
0
100
AcDbLine
 62
7
  6
CONTINUOUS
 10
-57.4208332837
 20
-32.8829787076
 11
-57.1604167163
 21
-32.8297872245
  0
LINE
  5
2EB
100
AcDbEntity
  8
0
100
AcDbLine
 62
7
  6
CONTINUOUS
 10
-55.5458334327
 20
-32.4042553604
 11
-55.80625
 21
-32.4574468434
  0
LINE
  5
2EC
100
AcDbEntity
  8
RACCORDO
100
AcDbLine
 62
7
  6
CONTINUOUS
 10
-50.8
 20
-23.8
 11
50.8
 21
-23.8
  0
LINE
  5
2ED
100
AcDbEntity
  8
RACCORDO
100
AcDbLine
 62
253
  6
CONTINUOUS
 10
-50.8
 20
-23.3332857143
 11
50.8
 21
-23.3332857143
  0
LINE
  5
2EE
100
AcDbEntity
  8
DRAFT
100
AcDbLine
 62
7
  6
CONTINUOUS
 10
-51.7625059283
 20
-23.3
 11
-51.3
 21
-23.3
  0
LINE
  5
2EF
100
AcDbEntity
  8
DRAFT
100
AcDbLine
 62
7
  6
CONTINUOUS
 10
51.3
 20
-23.3
 11
51.7625059283
 21
-23.3
  0
LINE
  5
2F0
100
AcDbEntity
  8
RACCORDO
100
AcDbLine
 62
7
  6
CONTINUOUS
 10
25.1661277497
 20
-39.7830575489
 11
25.0
 21
-39.7
  0
LINE
  5
2F1
100
AcDbEntity
  8
0
100
AcDbLine
 62
7
  6
CONTINUOUS
 10
-57.1083332837
 20
-32.4042553604
 11
-57.2125
 21
-32.5106383264
  0
LINE
  5
2F2
100
AcDbEntity
  8
RACCORDO
100
AcDbLine
 62
253
  6
CONTINUOUS
 10
-67.8505676793
 20
-39.8506247947
 11
-68.0
 21
-40.0000571154
  0
LINE
  5
2F3
100
AcDbEntity
  8
RACCORDO
100
AcDbLine
 62
253
  6
CONTINUOUS
 10
-66.2916321118
 20
-39.541641631
 11
-66.2
 21
-39.4500095192
  0
LINE
  5
2F4
100
AcDbEntity
  8
RACCORDO
100
AcDbLine
 62
253
  6
CONTINUOUS
 10
-66.041641631
 20
-39.7916321118
 11
-65.9500095192
 21
-39.7
  0
LINE
  5
2F5
100
AcDbEntity
  8
RACCORDO
100
AcDbLine
 62
253
  6
CONTINUOUS
 10
-66.350625534
 20
-41.3505684186
 11
-66.5000571154
 21
-41.5
  0
LINE
  5
2F6
100
AcDbEntity
  8
0
100
AcDbLine
 62
7
  6
CONTINUOUS
 10
-52.7333331347
 20
-33.6808510646
 11
-52.9416668653
 21
-33.7340425476
  0
LINE
  5
2F7
100
AcDbEntity
  8
0
100
AcDbLine
 62
7
  6
CONTINUOUS
 10
-55.025
 20
-33.6808510646
 11
-55.2333334327
 21
-33.7340425476
  0
LINE
  5
2F8
100
AcDbEntity
  8
0
100
AcDbLine
 62
7
  6
CONTINUOUS
 10
-53.4625
 20
-32.7234042585
 11
-53.2541668653
 21
-32.6702127755
  0
LINE
  5
2F9
100
AcDbEntity
  8
0
100
AcDbLine
 62
7
  6
CONTINUOUS
 10
-55.7541665673
 20
-32.7234042585
 11
-55.5458334327
 21
-32.6702127755
  0
LINE
  5
2FA
100
AcDbEntity
  8
0
100
AcDbLine
 62
7
  6
CONTINUOUS
 10
58.05625
 20
-31.553191483
 11
57.7958331347
 21
-31.5
  0
LINE
  5
2FB
100
AcDbEntity
  8
RACCORDO
100
AcDbLine
 62
253
  6
CONTINUOUS
 10
-68.0
 20
40.0000571154
 11
-67.8505676793
 21
39.8506247947
  0
LINE
  5
2FC
100
AcDbEntity
  8
RACCORDO
100
AcDbLine
 62
253
  6
CONTINUOUS
 10
-66.2916321118
 20
39.541641631
 11
-66.2
 21
39.4500095192
  0
LINE
  5
2FD
100
AcDbEntity
  8
RACCORDO
100
AcDbLine
 62
253
  6
CONTINUOUS
 10
-66.041641631
 20
39.7916321118
 11
-65.9500095192
 21
39.7
  0
LINE
  5
2FE
100
AcDbEntity
  8
RACCORDO
100
AcDbLine
 62
253
  6
CONTINUOUS
 10
-66.5000571154
 20
41.5
 11
-66.3506255606
 21
41.3505684452
  0
LINE
  5
2FF
100
AcDbEntity
  8
0
100
AcDbLine
 62
7
  6
CONTINUOUS
 10
57.8479168653
 20
-31.7659574151
 11
58.0041662693
 21
-31.8191488981
  0
LINE
  5
300
100
AcDbEntity
  8
0
100
AcDbLine
 62
7
  6
CONTINUOUS
 10
-57.1604167163
 20
-32.8297872245
 11
-56.9520832837
 21
-32.6702127755
  0
LINE
  5
301
100
AcDbEntity
  8
0
100
AcDbLine
 62
7
  6
CONTINUOUS
 10
-55.9625
 20
-32.8829787076
 11
-55.7541665673
 21
-32.7234042585
  0
LINE
  5
302
100
AcDbEntity
  8
0
100
AcDbLine
 62
7
  6
CONTINUOUS
 10
-53.6708331347
 20
-32.8829787076
 11
-53.4625
 21
-32.7234042585
  0
LINE
  5
303
100
AcDbEntity
  8
0
100
AcDbLine
 62
7
  6
CONTINUOUS
 10
-54.86875
 20
-33.5744680986
 11
-55.025
 21
-33.6808510646
  0
LINE
  5
304
100
AcDbEntity
  8
0
100
AcDbLine
 62
7
  6
CONTINUOUS
 10
-52.5770831347
 20
-33.5744680986
 11
-52.7333331347
 21
-33.6808510646
  0
LINE
  5
305
100
AcDbEntity
  8
0
100
AcDbLine
 62
7
  6
CONTINUOUS
 10
-55.80625
 20
-32.4574468434
 11
-56.0666665673
 21
-32.6170212924
  0
LINE
  5
306
100
AcDbEntity
  8
0
100
AcDbLine
 62
7
  6
CONTINUOUS
 10
-53.5145831347
 20
-32.4574468434
 11
-53.775
 21
-32.6170212924
  0
LINE
  5
307
100
AcDbEntity
  8
0
100
AcDbLine
 62
7
  6
CONTINUOUS
 10
-54.9729165673
 20
-33.9468085123
 11
-54.7125
 21
-33.7872340493
  0
LINE
  5
308
100
AcDbEntity
  8
0
100
AcDbLine
 62
7
  6
CONTINUOUS
 10
-52.68125
 20
-33.9468085123
 11
-52.4208331347
 21
-33.7872340493
  0
LINE
  5
309
100
AcDbEntity
  8
0
100
AcDbLine
 62
7
  6
CONTINUOUS
 10
58.2645837307
 20
-31.7127659321
 11
58.05625
 21
-31.553191483
  0
LINE
  5
30A
100
AcDbEntity
  8
0
100
AcDbLine
 62
7
  6
CONTINUOUS
 10
-57.2125
 20
-32.5106383264
 11
-57.36875
 21
-32.5638298094
  0
LINE
  5
30B
100
AcDbEntity
  8
RACCORDO
100
AcDbLine
 62
253
  6
CONTINUOUS
 10
66.3506255605
 20
41.3505684451
 11
66.5000571154
 21
41.5
  0
LINE
  5
30C
100
AcDbEntity
  8
RACCORDO
100
AcDbLine
 62
253
  6
CONTINUOUS
 10
66.041641631
 20
39.7916321118
 11
65.9500095192
 21
39.7
  0
LINE
  5
30D
100
AcDbEntity
  8
RACCORDO
100
AcDbLine
 62
253
  6
CONTINUOUS
 10
66.2916321118
 20
39.541641631
 11
66.2
 21
39.4500095192
  0
LINE
  5
30E
100
AcDbEntity
  8
RACCORDO
100
AcDbLine
 62
253
  6
CONTINUOUS
 10
67.8505676793
 20
39.8506247947
 11
68.0
 21
40.0000571154
  0
LINE
  5
30F
100
AcDbEntity
  8
RACCORDO
100
AcDbLine
 62
253
  6
CONTINUOUS
 10
66.5000571154
 20
-41.5
 11
66.350625534
 21
-41.3505684186
  0
LINE
  5
310
100
AcDbEntity
  8
RACCORDO
100
AcDbLine
 62
253
  6
CONTINUOUS
 10
66.041641631
 20
-39.7916321118
 11
65.9500095192
 21
-39.7
  0
LINE
  5
311
100
AcDbEntity
  8
RACCORDO
100
AcDbLine
 62
253
  6
CONTINUOUS
 10
66.2916321118
 20
-39.541641631
 11
66.2
 21
-39.4500095192
  0
LINE
  5
312
100
AcDbEntity
  8
RACCORDO
100
AcDbLine
 62
253
  6
CONTINUOUS
 10
68.0
 20
-40.0000571154
 11
67.8505676793
 21
-39.8506247947
  0
LINE
  5
313
100
AcDbEntity
  8
0
100
AcDbLine
 62
7
  6
CONTINUOUS
 10
58.0041662693
 20
-31.8191488981
 11
58.1083337307
 21
-31.9255318642
  0
LINE
  5
314
100
AcDbEntity
  8
RACCORDO
100
AcDbLine
 62
253
  6
CONTINUOUS
 10
23.7
 20
-38.6893597165
 11
23.7
 21
-40.6893597165
  0
LINE
  5
315
100
AcDbEntity
  8
RACCORDO
100
AcDbLine
 62
7
  6
CONTINUOUS
 10
24.7
 20
-39.1914180405
 11
24.7
 21
-41.5
  0
LINE
  5
316
100
AcDbEntity
  8
DRAFT
100
AcDbLine
 62
7
  6
CONTINUOUS
 10
25.0
 20
-39.7
 11
25.0
 21
-39.5
  0
LINE
  5
317
100
AcDbEntity
  8
RACCORDO
100
AcDbLine
 62
253
  6
CONTINUOUS
 10
25.1661277497
 20
-39.7830575489
 11
25.1661277497
 21
-40.9599648383
  0
LINE
  5
318
100
AcDbEntity
  8
RACCORDO
100
AcDbLine
 62
253
  6
CONTINUOUS
 10
26.1659754449
 20
-39.7916321118
 11
26.1659754449
 21
-40.4092495092
  0
LINE
  5
319
100
AcDbEntity
  8
DRAFT
100
AcDbLine
 62
7
  6
CONTINUOUS
 10
24.9258023047
 20
-41.4541907783
 11
24.9848834703
 21
-39.5
  0
LINE
  5
31A
100
AcDbEntity
  8
RACCORDO
100
AcDbLine
 62
7
  6
CONTINUOUS
 10
-25.1661277497
 20
-39.7830575489
 11
-25.0
 21
-39.7
  0
LINE
  5
31B
100
AcDbEntity
  8
DRAFT
100
AcDbLine
 62
7
  6
CONTINUOUS
 10
51.7625059283
 20
23.3
 11
51.3
 21
23.3
  0
LINE
  5
31C
100
AcDbEntity
  8
DRAFT
100
AcDbLine
 62
7
  6
CONTINUOUS
 10
-51.3
 20
23.3
 11
-51.7625059283
 21
23.3
  0
LINE
  5
31D
100
AcDbEntity
  8
RACCORDO
100
AcDbLine
 62
253
  6
CONTINUOUS
 10
50.8
 20
23.3332857143
 11
-50.8
 21
23.3332857143
  0
LINE
  5
31E
100
AcDbEntity
  8
RACCORDO
100
AcDbLine
 62
7
  6
CONTINUOUS
 10
50.8
 20
23.8
 11
-50.8
 21
23.8
  0
LINE
  5
31F
100
AcDbEntity
  8
DRAFT
100
AcDbLine
 62
7
  6
CONTINUOUS
 10
28.5
 20
-39.7349074712
 11
28.5
 21
-39.7
  0
LINE
  5
320
100
AcDbEntity
  8
0
100
AcDbLine
 62
7
  6
CONTINUOUS
 10
28.5
 20
-41.3821872848
 11
28.5
 21
-41.417094756
  0
LINE
  5
321
100
AcDbEntity
  8
DRAFT
100
AcDbLine
 62
7
  6
CONTINUOUS
 10
29.0
 20
-39.7349074712
 11
29.0
 21
-39.5
  0
LINE
  5
322
100
AcDbEntity
  8
RACCORDO
100
AcDbLine
 62
253
  6
CONTINUOUS
 10
-51.9425319937
 20
29.7968358881
 11
51.9425276849
 21
29.7968313385
  0
LINE
  5
323
100
AcDbEntity
  8
RACCORDO
100
AcDbLine
 62
253
  6
CONTINUOUS
 10
52.3570779279
 20
30.0107433108
 11
-52.3570779279
 21
30.0107433108
  0
LINE
  5
324
100
AcDbEntity
  8
0
100
AcDbLine
 62
7
  6
CONTINUOUS
 10
58.4208337307
 20
-31.9255318642
 11
58.2645837307
 21
-31.7127659321
  0
LINE
  5
325
100
AcDbEntity
  8
DRAFT
100
AcDbLine
 62
7
  6
CONTINUOUS
 10
33.0
 20
-39.7349074712
 11
33.0
 21
-39.5
  0
LINE
  5
326
100
AcDbEntity
  8
0
100
AcDbLine
 62
7
  6
CONTINUOUS
 10
33.5
 20
-41.417094756
 11
33.5
 21
-41.3821872848
  0
LINE
  5
327
100
AcDbEntity
  8
DRAFT
100
AcDbLine
 62
7
  6
CONTINUOUS
 10
33.5
 20
-39.7349074712
 11
33.5
 21
-39.7
  0
LINE
  5
328
100
AcDbEntity
  8
RACCORDO
100
AcDbLine
 62
253
  6
CONTINUOUS
 10
-66.3205172436
 20
36.877494527
 11
-66.3095377557
 21
36.8775806447
  0
LINE
  5
329
100
AcDbEntity
  8
DRAFT
100
AcDbLine
 62
253
  6
CONTINUOUS
 10
65.7931176457
 20
34.9810730378
 11
-65.7931176457
 21
34.9810730378
  0
LINE
  5
32A
100
AcDbEntity
  8
RACCORDO
100
AcDbLine
 62
253
  6
CONTINUOUS
 10
66.3095377557
 20
36.8775806447
 11
66.3205172435
 21
36.8774944194
  0
LINE
  5
32B
100
AcDbEntity
  8
0
100
AcDbLine
 62
7
  6
CONTINUOUS
 10
51.4416665673
 20
-32.0319148302
 11
52.1708334327
 21
-34.0
  0
LINE
  5
32C
100
AcDbEntity
  8
0
100
AcDbLine
 62
7
  6
CONTINUOUS
 10
48.9416666418
 20
-33.6808510646
 11
48.2125
 21
-31.5
  0
LINE
  5
32D
100
AcDbEntity
  8
0
100
AcDbLine
 62
7
  6
CONTINUOUS
 10
47.9
 20
-31.5
 11
48.7333333582
 21
-34.0
  0
LINE
  5
32E
100
AcDbEntity
  8
DRAFT
100
AcDbLine
 62
253
  6
CONTINUOUS
 10
65.830587443
 20
39.4347019803
 11
-65.830587443
 21
39.4347019803
  0
LINE
  5
32F
100
AcDbEntity
  8
DRAFT
100
AcDbLine
 62
7
  6
CONTINUOUS
 10
63.6345484916
 20
39.4821200219
 11
-63.6345484916
 21
39.4821200219
  0
LINE
  5
330
100
AcDbEntity
  8
ASSI
100
AcDbLine
 62
7
  6
CONTINUOUS
 10
65.8389104387
 20
39.5
 11
63.6389125824
 21
39.5
  0
LINE
  5
331
100
AcDbEntity
  8
ASSI
100
AcDbLine
 62
7
  6
CONTINUOUS
 10
-63.6389125824
 20
39.5
 11
-65.8389104387
 21
39.5
  0
LINE
  5
332
100
AcDbEntity
  8
RACCORDO
100
AcDbLine
 62
7
  6
CONTINUOUS
 10
-65.9500095192
 20
39.7
 11
65.9500095192
 21
39.7
  0
LINE
  5
333
100
AcDbEntity
  8
RACCORDO
100
AcDbLine
 62
7
  6
CONTINUOUS
 10
66.041641631
 20
39.7916321118
 11
-66.041641631
 21
39.7916321118
  0
LINE
  5
334
100
AcDbEntity
  8
DRAFT
100
AcDbLine
 62
7
  6
CONTINUOUS
 10
-66.2916321118
 20
40.4092495092
 11
66.2916321118
 21
40.4092495092
  0
LINE
  5
335
100
AcDbEntity
  8
RACCORDO
100
AcDbLine
 62
253
  6
CONTINUOUS
 10
-66.3506255606
 20
41.3505684452
 11
66.3506255605
 21
41.3505684451
  0
LINE
  5
336
100
AcDbEntity
  8
RACCORDO
100
AcDbLine
 62
7
  6
CONTINUOUS
 10
-66.5000571154
 20
41.5
 11
66.5000571154
 21
41.5
  0
LINE
  5
337
100
AcDbEntity
  8
0
100
AcDbLine
 62
7
  6
CONTINUOUS
 10
58.525
 20
-34.0
 11
58.05625
 21
-32.7765957415
  0
LINE
  5
338
100
AcDbEntity
  8
0
100
AcDbLine
 62
7
  6
CONTINUOUS
 10
57.74375
 20
-32.8829787076
 11
58.1604162693
 21
-34.0
  0
LINE
  5
339
100
AcDbEntity
  8
0
100
AcDbLine
 62
7
  6
CONTINUOUS
 10
52.3791665673
 20
-33.7340425476
 11
51.5979165673
 21
-31.5
  0
LINE
  5
33A
100
AcDbEntity
  8
0
100
AcDbLine
 62
7
  6
CONTINUOUS
 10
56.1291668653
 20
-34.0
 11
55.2958331347
 21
-31.5
  0
LINE
  5
33B
100
AcDbEntity
  8
0
100
AcDbLine
 62
7
  6
CONTINUOUS
 10
55.6083331347
 20
-33.3617021292
 11
55.8166668653
 21
-34.0
  0
LINE
  5
33C
100
AcDbEntity
  8
0
100
AcDbLine
 62
7
  6
CONTINUOUS
 10
55.0875
 20
-31.7127659321
 11
55.55625
 21
-33.1489361972
  0
LINE
  5
33D
100
AcDbEntity
  8
DRAFT
100
AcDbLine
 62
7
  6
CONTINUOUS
 10
25.1330642872
 20
-41.3505676793
 11
24.9258023047
 21
-41.4541907783
  0
LINE
  5
33E
100
AcDbEntity
  8
0
100
AcDbLine
 62
7
  6
CONTINUOUS
 10
58.1083337307
 20
-31.9255318642
 11
58.1604162693
 21
-32.0851063132
  0
LINE
  5
33F
100
AcDbEntity
  8
0
100
AcDbLine
 62
7
  6
CONTINUOUS
 10
58.4729162693
 20
-32.0851063132
 11
58.4208337307
 21
-31.9255318642
  0
LINE
  5
340
100
AcDbEntity
  8
RACCORDO
100
AcDbLine
 62
253
  6
CONTINUOUS
 10
51.1224793139
 20
-23.8
 11
51.4014808987
 21
-28.147324222
  0
LINE
  5
341
100
AcDbEntity
  8
RACCORDO
100
AcDbLine
 62
253
  6
CONTINUOUS
 10
51.5937693497
 20
-23.3
 11
51.893884774
 21
-27.9763141314
  0
LINE
  5
342
100
AcDbEntity
  8
0
100
AcDbLine
 62
7
  6
CONTINUOUS
 10
50.4
 20
-31.5
 11
50.4
 21
-34.0
  0
LINE
  5
343
100
AcDbEntity
  8
0
100
AcDbLine
 62
7
  6
CONTINUOUS
 10
50.7125
 20
-34.0
 11
50.7125
 21
-31.5
  0
LINE
  5
344
100
AcDbEntity
  8
RACCORDO
100
AcDbLine
 62
253
  6
CONTINUOUS
 10
50.8000000004
 20
-23.8
 11
50.8
 21
23.8
  0
LINE
  5
345
100
AcDbEntity
  8
0
100
AcDbLine
 62
7
  6
CONTINUOUS
 10
51.1291665673
 20
-31.5
 11
51.1291665673
 21
-34.0
  0
LINE
  5
346
100
AcDbEntity
  8
RACCORDO
100
AcDbLine
 62
7
  6
CONTINUOUS
 10
51.3
 20
-23.6986436035
 11
51.3
 21
23.6986436035
  0
LINE
  5
347
100
AcDbEntity
  8
0
100
AcDbLine
 62
7
  6
CONTINUOUS
 10
51.4416665673
 20
-34.0
 11
51.4416665673
 21
-32.0319148302
  0
LINE
  5
348
100
AcDbEntity
  8
0
100
AcDbLine
 62
7
  6
CONTINUOUS
 10
53.3166668653
 20
-32.0319148302
 11
53.3166668653
 21
-34.0
  0
LINE
  5
349
100
AcDbEntity
  8
0
100
AcDbLine
 62
7
  6
CONTINUOUS
 10
53.6291668653
 20
-34.0
 11
53.6291668653
 21
-31.5
  0
LINE
  5
34A
100
AcDbEntity
  8
RACCORDO
100
AcDbLine
 62
253
  6
CONTINUOUS
 10
51.1224793139
 20
23.8
 11
51.4014808642
 21
28.147323684
  0
LINE
  5
34B
100
AcDbEntity
  8
RACCORDO
100
AcDbLine
 62
253
  6
CONTINUOUS
 10
51.5937693497
 20
23.3
 11
51.8938847406
 21
27.9763136111
  0
LINE
  5
34C
100
AcDbEntity
  8
0
100
AcDbLine
 62
7
  6
CONTINUOUS
 10
58.0041662693
 20
-32.5106383264
 11
57.8479168653
 21
-32.5638298094
  0
LINE
  5
34D
100
AcDbEntity
  8
0
100
AcDbLine
 62
7
  6
CONTINUOUS
 10
56.5458331347
 20
-31.5
 11
56.5458331347
 21
-34.0
  0
LINE
  5
34E
100
AcDbEntity
  8
0
100
AcDbLine
 62
7
  6
CONTINUOUS
 10
56.8583331347
 20
-34.0
 11
56.8583331347
 21
-32.8829787076
  0
LINE
  5
34F
100
AcDbEntity
  8
0
100
AcDbLine
 62
7
  6
CONTINUOUS
 10
56.8583331347
 20
-32.5638298094
 11
56.8583331347
 21
-31.7659574151
  0
LINE
  5
350
100
AcDbEntity
  8
0
100
AcDbLine
 62
7
  6
CONTINUOUS
 10
58.1604162693
 20
-32.0851063132
 11
58.1604162693
 21
-32.2446809113
  0
LINE
  5
351
100
AcDbEntity
  8
0
100
AcDbLine
 62
7
  6
CONTINUOUS
 10
58.4729162693
 20
-32.2978723943
 11
58.4729162693
 21
-32.0851063132
  0
LINE
  5
352
100
AcDbEntity
  8
0
100
AcDbLine
 62
7
  6
CONTINUOUS
 10
49.15
 20
-34.0
 11
49.9833332837
 21
-31.5
  0
LINE
  5
353
100
AcDbEntity
  8
0
100
AcDbLine
 62
7
  6
CONTINUOUS
 10
49.6708332837
 20
-31.5
 11
48.9416666418
 21
-33.6808510646
  0
LINE
  5
354
100
AcDbEntity
  8
0
100
AcDbLine
 62
7
  6
CONTINUOUS
 10
58.05625
 20
-32.7765957415
 11
58.2645837307
 21
-32.6702127755
  0
LINE
  5
355
100
AcDbEntity
  8
0
100
AcDbLine
 62
7
  6
CONTINUOUS
 10
54.61875
 20
-33.1489361972
 11
55.0875
 21
-31.7127659321
  0
LINE
  5
356
100
AcDbEntity
  8
0
100
AcDbLine
 62
7
  6
CONTINUOUS
 10
54.3583331347
 20
-34.0
 11
54.5666668653
 21
-33.3617021292
  0
LINE
  5
357
100
AcDbEntity
  8
0
100
AcDbLine
 62
7
  6
CONTINUOUS
 10
54.8791668653
 20
-31.5
 11
54.0458331347
 21
-34.0
  0
LINE
  5
358
100
AcDbEntity
  8
0
100
AcDbLine
 62
7
  6
CONTINUOUS
 10
53.1604168653
 20
-31.5
 11
52.3791665673
 21
-33.7340425476
  0
LINE
  5
359
100
AcDbEntity
  8
0
100
AcDbLine
 62
7
  6
CONTINUOUS
 10
52.5875
 20
-34.0
 11
53.3166668653
 21
-32.0319148302
  0
LINE
  5
35A
100
AcDbEntity
  8
0
100
AcDbLine
 62
7
  6
CONTINUOUS
 10
58.1083337307
 20
-32.4042553604
 11
58.0041662693
 21
-32.5106383264
  0
LINE
  5
35B
100
AcDbEntity
  8
RACCORDO
100
AcDbLine
 62
253
  6
CONTINUOUS
 10
66.3205172409
 20
-36.8774914494
 11
66.3150393266
 21
-30.3434111476
  0
LINE
  5
35C
100
AcDbEntity
  8
RACCORDO
100
AcDbLine
 62
7
  6
CONTINUOUS
 10
65.9
 20
32.5
 11
65.9
 21
-38.5164658842
  0
LINE
  5
35D
100
AcDbEntity
  8
RACCORDO
100
AcDbLine
 62
7
  6
CONTINUOUS
 10
66.2
 20
39.4500095192
 11
66.2
 21
-39.4500095192
  0
LINE
  5
35E
100
AcDbEntity
  8
RACCORDO
100
AcDbLine
 62
7
  6
CONTINUOUS
 10
66.2916321118
 20
40.4092495092
 11
66.2916321118
 21
39.541641631
  0
LINE
  5
35F
100
AcDbEntity
  8
RACCORDO
100
AcDbLine
 62
7
  6
CONTINUOUS
 10
66.2916321118
 20
-39.541641631
 11
66.2916321118
 21
-40.4092495092
  0
LINE
  5
360
100
AcDbEntity
  8
RACCORDO
100
AcDbLine
 62
7
  6
CONTINUOUS
 10
68.0
 20
-40.0
 11
68.0
 21
40.0
  0
LINE
  5
361
100
AcDbEntity
  8
RACCORDO
100
AcDbLine
 62
253
  6
CONTINUOUS
 10
66.3150393266
 20
30.3434111476
 11
66.3205172435
 21
36.8774944194
  0
LINE
  5
362
100
AcDbEntity
  8
RACCORDO
100
AcDbLine
 62
7
  6
CONTINUOUS
 10
65.8968134915
 20
-38.9149437634
 11
65.840352844
 21
-39.4809734905
  0
LINE
  5
363
100
AcDbEntity
  8
0
100
AcDbLine
 62
7
  6
CONTINUOUS
 10
58.1604162693
 20
-32.2446809113
 11
58.1083337307
 21
-32.4042553604
  0
LINE
  5
364
100
AcDbEntity
  8
0
100
AcDbLine
 62
7
  6
CONTINUOUS
 10
58.4208337307
 20
-32.4574468434
 11
58.4729162693
 21
-32.2978723943
  0
LINE
  5
365
100
AcDbEntity
  8
0
100
AcDbLine
 62
7
  6
CONTINUOUS
 10
58.2645837307
 20
-32.6702127755
 11
58.4208337307
 21
-32.4574468434
  0
LINE
  5
366
100
AcDbEntity
  8
RACCORDO
100
AcDbLine
 62
7
  6
CONTINUOUS
 10
-129.6007039709
 20
-41.5
 11
-90.5919774354
 21
-41.1595760008
  0
LINE
  5
367
100
AcDbEntity
  8
RACCORDO
100
AcDbLine
 62
253
  6
CONTINUOUS
 10
-129.6007039709
 20
-40.0000571154
 11
-90.5919774354
 21
-39.6596276269
  0
LINE
  5
368
100
AcDbEntity
  8
RACCORDO
100
AcDbLine
 62
7
  6
CONTINUOUS
 10
-130.6007039709
 20
-41.5
 11
-129.6007039709
 21
-41.5
  0
LINE
  5
369
100
AcDbEntity
  8
ASSI
100
AcDbLine
 62
7
  6
CONTINUOUS
 10
-143.1177056171
 20
-41.5
 11
-147.7713697727
 21
-41.5
  0
LINE
  5
36A
100
AcDbEntity
  8
RACCORDO
100
AcDbLine
 62
253
  6
CONTINUOUS
 10
-130.6007039709
 20
-40.0
 11
-129.6007039709
 21
-40.0
  0
LINE
  5
36B
100
AcDbEntity
  8
RACCORDO
100
AcDbLine
 62
253
  6
CONTINUOUS
 10
-89.6007039709
 20
-39.6596331162
 11
-90.5919774354
 21
-39.6596331162
  0
LINE
  5
36C
100
AcDbEntity
  8
RACCORDO
100
AcDbLine
 62
7
  6
CONTINUOUS
 10
-130.6007039709
 20
-41.5
 11
-147.723951881
 21
-41.3505676793
  0
LINE
  5
36D
100
AcDbEntity
  8
RACCORDO
100
AcDbLine
 62
253
  6
CONTINUOUS
 10
-130.6007039709
 20
-40.0000571154
 11
-147.723951881
 21
-39.8506247947
  0
LINE
  5
36E
100
AcDbEntity
  8
0
100
AcDbLine
 62
7
  6
CONTINUOUS
 10
-153.1132643751
 20
-32.7765957415
 11
-153.1232501397
 21
-32.6702127755
  0
LINE
  5
36F
100
AcDbEntity
  8
0
100
AcDbLine
 62
7
  6
CONTINUOUS
 10
-153.226124047
 20
-31.553191483
 11
-153.2309328011
 21
-31.5
  0
LINE
  5
370
100
AcDbEntity
  8
RACCORDO
100
AcDbLine
 62
7
  6
CONTINUOUS
 10
-152.6524875402
 20
36.8775806447
 11
-152.6524966762
 21
36.8774944194
  0
LINE
  5
371
100
AcDbEntity
  8
RACCORDO
100
AcDbLine
 62
253
  6
CONTINUOUS
 10
-152.6524875257
 20
-36.8775806431
 11
-151.1739268425
 21
-36.7195338705
  0
LINE
  5
372
100
AcDbEntity
  8
0
100
AcDbLine
 62
7
  6
CONTINUOUS
 10
-152.9960733806
 20
-34.0
 11
-152.9449548039
 21
-34.0
  0
LINE
  5
373
100
AcDbEntity
  8
0
100
AcDbLine
 62
7
  6
CONTINUOUS
 10
-153.1132643751
 20
-32.7765957415
 11
-153.0622788271
 21
-32.7765957415
  0
LINE
  5
374
100
AcDbEntity
  8
0
100
AcDbLine
 62
7
  6
CONTINUOUS
 10
-153.1232501397
 20
-32.6702127755
 11
-153.072367659
 21
-32.6702127755
  0
LINE
  5
375
100
AcDbEntity
  8
0
100
AcDbLine
 62
7
  6
CONTINUOUS
 10
-153.1431234273
 20
-32.4574468434
 11
-153.0924095168
 21
-32.4574468434
  0
LINE
  5
376
100
AcDbEntity
  8
0
100
AcDbLine
 62
7
  6
CONTINUOUS
 10
-153.1579424427
 20
-32.2978723943
 11
-153.1070421424
 21
-32.2978723943
  0
LINE
  5
377
100
AcDbEntity
  8
0
100
AcDbLine
 62
7
  6
CONTINUOUS
 10
-153.1775865612
 20
-32.0851063132
 11
-153.1265523235
 21
-32.0851063132
  0
LINE
  5
378
100
AcDbEntity
  8
0
100
AcDbLine
 62
7
  6
CONTINUOUS
 10
-153.1922337149
 20
-31.9255318642
 11
-153.1411849492
 21
-31.9255318642
  0
LINE
  5
379
100
AcDbEntity
  8
0
100
AcDbLine
 62
7
  6
CONTINUOUS
 10
-153.2116487044
 20
-31.7127659321
 11
-153.1606951166
 21
-31.7127659321
  0
LINE
  5
37A
100
AcDbEntity
  8
0
100
AcDbLine
 62
7
  6
CONTINUOUS
 10
-153.226124047
 20
-31.553191483
 11
-153.1753277423
 21
-31.553191483
  0
LINE
  5
37B
100
AcDbEntity
  8
0
100
AcDbLine
 62
7
  6
CONTINUOUS
 10
-153.2309328011
 20
-31.5
 11
-153.1802052841
 21
-31.5
  0
LINE
  5
37C
100
AcDbEntity
  8
RACCORDO
100
AcDbLine
 62
7
  6
CONTINUOUS
 10
-150.5007039709
 20
-40.477973422
 11
-150.5007039709
 21
-40.6893597165
  0
LINE
  5
37D
100
AcDbEntity
  8
RACCORDO
100
AcDbLine
 62
253
  6
CONTINUOUS
 10
-149.5007039709
 20
-41.0066306373
 11
-149.5007039709
 21
-41.1914180405
  0
LINE
  5
37E
100
AcDbEntity
  8
RACCORDO
100
AcDbLine
 62
253
  6
CONTINUOUS
 10
-153.282903027
 20
-30.3434109652
 11
-151.8016426351
 21
-30.2133679569
  0
LINE
  5
37F
100
AcDbEntity
  8
RACCORDO
100
AcDbLine
 62
7
  6
CONTINUOUS
 10
-130.6007039709
 20
-41.5
 11
-130.6007039709
 21
41.5
  0
LINE
  5
380
100
AcDbEntity
  8
RACCORDO
100
AcDbLine
 62
7
  6
CONTINUOUS
 10
-129.6007039709
 20
-41.5
 11
-129.6007039709
 21
41.5
  0
LINE
  5
381
100
AcDbEntity
  8
RACCORDO
100
AcDbLine
 62
7
  6
CONTINUOUS
 10
-143.0094164241
 20
-41.391710807
 11
-143.1177056171
 21
-41.5
  0
LINE
  5
382
100
AcDbEntity
  8
RACCORDO
100
AcDbLine
 62
253
  6
CONTINUOUS
 10
-153.282902433
 20
30.3434109135
 11
-151.8016426351
 21
30.2133679569
  0
LINE
  5
383
100
AcDbEntity
  8
RACCORDO
100
AcDbLine
 62
253
  6
CONTINUOUS
 10
-90.5919774354
 20
39.6596267385
 11
-90.5919774354
 21
-39.6596276269
  0
LINE
  5
384
100
AcDbEntity
  8
0
100
AcDbLine
 62
7
  6
CONTINUOUS
 10
-89.6007039709
 20
-39.8
 11
-89.6007039709
 21
-39.6596331162
  0
LINE
  5
385
100
AcDbEntity
  8
RACCORDO
100
AcDbLine
 62
7
  6
CONTINUOUS
 10
-89.6007039709
 20
40.1596140778
 11
-89.6007039709
 21
-40.1596140778
  0
LINE
  5
386
100
AcDbEntity
  8
RACCORDO
100
AcDbLine
 62
253
  6
CONTINUOUS
 10
-152.6524858169
 20
36.877580462
 11
-151.1739268425
 21
36.7195338705
  0
LINE
  5
387
100
AcDbEntity
  8
RACCORDO
100
AcDbLine
 62
253
  6
CONTINUOUS
 10
-147.723951881
 20
39.8506247947
 11
-130.6007039709
 21
40.0000571154
  0
LINE
  5
388
100
AcDbEntity
  8
RACCORDO
100
AcDbLine
 62
7
  6
CONTINUOUS
 10
-147.7238641293
 20
41.3505684451
 11
-130.6007039709
 21
41.5
  0
LINE
  5
389
100
AcDbEntity
  8
RACCORDO
100
AcDbLine
 62
253
  6
CONTINUOUS
 10
-89.6007039709
 20
39.6596331162
 11
-90.5919774354
 21
39.6596331162
  0
LINE
  5
38A
100
AcDbEntity
  8
RACCORDO
100
AcDbLine
 62
253
  6
CONTINUOUS
 10
-130.6007039709
 20
40.0
 11
-129.6007039709
 21
40.0
  0
LINE
  5
38B
100
AcDbEntity
  8
RACCORDO
100
AcDbLine
 62
7
  6
CONTINUOUS
 10
-130.6007039709
 20
41.5
 11
-129.6007039709
 21
41.5
  0
LINE
  5
38C
100
AcDbEntity
  8
RACCORDO
100
AcDbLine
 62
253
  6
CONTINUOUS
 10
-129.6007039709
 20
40.0000571154
 11
-90.5919774354
 21
39.6596267385
  0
LINE
  5
38D
100
AcDbEntity
  8
RACCORDO
100
AcDbLine
 62
7
  6
CONTINUOUS
 10
-129.6007039709
 20
41.5
 11
-90.5919774354
 21
41.1595760008
  0
ARC
  5
38E
100
AcDbEntity
  8
RACCORDO
100
AcDbCircle
 62
253
  6
CONTINUOUS
 10
1931.6513527397
 20
-0.0001690077
 40
1984.2354327519
100
AcDbArc
 50
179.133387005
 51
180.8666032357
  0
ARC
  5
38F
100
AcDbEntity
  8
RACCORDO
100
AcDbCircle
 62
253
  6
CONTINUOUS
 10
-1931.6261292424
 20
0.0001708737
 40
1984.2102129137
100
AcDbArc
 50
359.1333759351
 51
0.8666141978
  0
ARC
  5
390
100
AcDbEntity
  8
RACCORDO
100
AcDbCircle
 62
253
  6
CONTINUOUS
 10
1926.9344094959
 20
-0.0001262809
 40
1979.0260760637
100
AcDbArc
 50
179.1900130074
 51
180.8099796651
  0
ARC
  5
391
100
AcDbEntity
  8
RACCORDO
100
AcDbCircle
 62
253
  6
CONTINUOUS
 10
-1926.9340102444
 20
0.0001474887
 40
1979.0256767676
100
AcDbArc
 50
359.1900122314
 51
0.8099792144
  0
ARC
  5
392
100
AcDbEntity
  8
RACCORDO
100
AcDbCircle
 62
253
  6
CONTINUOUS
 10
-107.0271323813
 20
-3.1846446947
 40
60.897080739
100
AcDbArc
 50
333.8632330545
 51
334.3027117172
  0
ARC
  5
393
100
AcDbEntity
  8
RACCORDO
100
AcDbCircle
 62
253
  6
CONTINUOUS
 10
107.0205039549
 20
3.187864
 40
60.8897119459
100
AcDbArc
 50
153.8632050041
 51
154.3027368601
  0
ARC
  5
394
100
AcDbEntity
  8
RACCORDO
100
AcDbCircle
 62
253
  6
CONTINUOUS
 10
-106.949262427
 20
3.2224856796
 40
60.8105037737
100
AcDbArc
 50
25.696974608
 51
26.1370791658
  0
ARC
  5
395
100
AcDbEntity
  8
RACCORDO
100
AcDbCircle
 62
253
  6
CONTINUOUS
 10
106.9469204045
 20
-3.2236238827
 40
60.8078998377
100
AcDbArc
 50
205.6969651065
 51
206.13708849
  0
ARC
  5
396
100
AcDbEntity
  8
RACCORDO
100
AcDbCircle
 62
253
  6
CONTINUOUS
 10
-66.2068817764
 20
-2.6583785048
 40
30.6589152261
100
AcDbArc
 50
296.8552636687
 51
297.7271036342
  0
ARC
  5
397
100
AcDbEntity
  8
RACCORDO
100
AcDbCircle
 62
253
  6
CONTINUOUS
 10
66.2059144783
 20
2.6602517878
 40
30.6568070072
100
AcDbArc
 50
116.8552323791
 51
117.7271323763
  0
ARC
  5
398
100
AcDbEntity
  8
RACCORDO
100
AcDbCircle
 62
253
  6
CONTINUOUS
 10
66.2032672253
 20
-2.6651651385
 40
30.6512276814
100
AcDbArc
 50
242.2727596303
 51
243.1450334378
  0
ARC
  5
399
100
AcDbEntity
  8
RACCORDO
100
AcDbCircle
 62
253
  6
CONTINUOUS
 10
-66.1950922793
 20
2.6811825068
 40
30.6332448827
100
AcDbArc
 50
62.2725882872
 51
63.1451413913
  0
ARC
  5
39A
100
AcDbEntity
  8
RACCORDO
100
AcDbCircle
 62
253
  6
CONTINUOUS
 10
66.3504878357
 20
39.8504878357
 40
1.5000807793
100
AcDbArc
 50
0.0052311723
 51
89.9947688277
  0
ARC
  5
39B
100
AcDbEntity
  8
RACCORDO
100
AcDbCircle
 62
253
  6
CONTINUOUS
 10
66.3504878356
 20
-39.8504878356
 40
1.5000807794
100
AcDbArc
 50
270.0052311761
 51
359.9947688239
  0
ARC
  5
39C
100
AcDbEntity
  8
RACCORDO
100
AcDbCircle
 62
253
  6
CONTINUOUS
 10
-66.3504877773
 20
39.8504877773
 40
1.5000807794
100
AcDbArc
 50
90.0052334013
 51
179.9947665987
  0
ARC
  5
39D
100
AcDbEntity
  8
RACCORDO
100
AcDbCircle
 62
253
  6
CONTINUOUS
 10
-66.3504877774
 20
-39.8504877774
 40
1.5000807793
100
AcDbArc
 50
180.0052333974
 51
269.9947666026
  0
ARC
  5
39E
100
AcDbEntity
  8
RACCORDO
100
AcDbCircle
 62
7
  6
CONTINUOUS
 10
-66.5
 20
-40.0
 40
1.5
100
AcDbArc
 50
180.0
 51
270.0
  0
ARC
  5
39F
100
AcDbEntity
  8
RACCORDO
100
AcDbCircle
 62
7
  6
CONTINUOUS
 10
66.5
 20
-40.0
 40
1.5
100
AcDbArc
 50
270.0
 51
360.0
  0
ARC
  5
3A0
100
AcDbEntity
  8
RACCORDO
100
AcDbCircle
 62
7
  6
CONTINUOUS
 10
66.5
 20
40.0
 40
1.5
100
AcDbArc
 50
0.0
 51
90.0
  0
ARC
  5
3A1
100
AcDbEntity
  8
RACCORDO
100
AcDbCircle
 62
7
  6
CONTINUOUS
 10
-66.5
 20
40.0
 40
1.5
100
AcDbArc
 50
90.0
 51
180.0
  0
ARC
  5
3A2
100
AcDbEntity
  8
RACCORDO
100
AcDbCircle
 62
7
  6
CONTINUOUS
 10
-50.8
 20
-23.3
 40
0.5
100
AcDbArc
 50
180.0
 51
270.0
  0
ARC
  5
3A3
100
AcDbEntity
  8
RACCORDO
100
AcDbCircle
 62
7
  6
CONTINUOUS
 10
50.8
 20
-23.3
 40
0.5
100
AcDbArc
 50
270.0
 51
360.0
  0
ARC
  5
3A4
100
AcDbEntity
  8
RACCORDO
100
AcDbCircle
 62
7
  6
CONTINUOUS
 10
-50.8
 20
23.3
 40
0.5
100
AcDbArc
 50
90.0
 51
180.0
  0
ARC
  5
3A5
100
AcDbEntity
  8
RACCORDO
100
AcDbCircle
 62
7
  6
CONTINUOUS
 10
50.8
 20
23.3
 40
0.5
100
AcDbArc
 50
0.0
 51
90.0
  0
ARC
  5
3A6
100
AcDbEntity
  8
RACCORDO
100
AcDbCircle
 62
7
  6
CONTINUOUS
 10
-147.7713697727
 20
-36.5
 40
5.0
100
AcDbArc
 50
236.9160796577
 51
270.0
  0
ARC
  5
3A7
100
AcDbEntity
  8
DRAFT
100
AcDbCircle
 62
7
  6
CONTINUOUS
 10
-147.6803192035
 20
-36.350758064
 40
5.0
100
AcDbArc
 50
188.4588894229
 51
234.1750923977
  0
ARC
  5
3A8
100
AcDbEntity
  8
RACCORDO
100
AcDbCircle
 62
7
  6
CONTINUOUS
 10
-147.6803192035
 20
-36.350758064
 40
5.0
100
AcDbArc
 50
186.0471404716
 51
269.5009707477
  0
ARC
  5
3A9
100
AcDbEntity
  8
RACCORDO
100
AcDbCircle
 62
253
  6
CONTINUOUS
 10
-147.6934089899
 20
-36.3507580455
 40
3.5000000187
100
AcDbArc
 50
186.0481685664
 51
269.4999997269
  0
ARC
  5
3AA
100
AcDbEntity
  8
RACCORDO
100
AcDbCircle
 62
7
  6
CONTINUOUS
 10
-90.6007039709
 20
-40.1596140778
 40
1.0
100
AcDbArc
 50
270.5
 51
360.0
  0
CIRCLE
  5
3AB
100
AcDbEntity
  8
DRAFT
100
AcDbCircle
 62
7
  6
CONTINUOUS
 10
-105.6007039709
 20
-0.0
 40
11.5
  0
CIRCLE
  5
3AC
100
AcDbEntity
  8
0
100
AcDbCircle
 62
7
  6
CONTINUOUS
 10
-105.6007039709
 20
-0.0
 40
11.25
  0
CIRCLE
  5
3AD
100
AcDbEntity
  8
0
100
AcDbCircle
 62
7
  6
CONTINUOUS
 10
-105.6007039709
 20
-0.0
 40
10.8458548116
  0
ARC
  5
3AE
100
AcDbEntity
  8
RACCORDO
100
AcDbCircle
 62
7
  6
CONTINUOUS
 10
-147.6803192035
 20
36.350758064
 40
5.0
100
AcDbArc
 50
90.498994401
 51
173.9528253045
  0
ARC
  5
3AF
100
AcDbEntity
  8
DRAFT
100
AcDbCircle
 62
7
  6
CONTINUOUS
 10
-147.6803192035
 20
36.350758064
 40
5.0
100
AcDbArc
 50
125.7378077409
 51
125.8249049185
  0
ARC
  5
3B0
100
AcDbEntity
  8
RACCORDO
100
AcDbCircle
 62
253
  6
CONTINUOUS
 10
-147.6934089899
 20
36.3507580454
 40
3.5000000188
100
AcDbArc
 50
90.5000002738
 51
173.9518314329
  0
ARC
  5
3B1
100
AcDbEntity
  8
RACCORDO
100
AcDbCircle
 62
7
  6
CONTINUOUS
 10
-90.6007039709
 20
40.1596140412
 40
1.0
100
AcDbArc
 50
0.0000020959
 51
89.5000000183
  0
ARC
  5
3B2
100
AcDbEntity
  8
RACCORDO
100
AcDbCircle
 62
253
  6
CONTINUOUS
 10
195.4291633133
 20
-0.0041445058
 40
348.5431546581
100
AcDbArc
 50
173.9518982366
 51
175.0264059083
  0
ARC
  5
3B3
100
AcDbEntity
  8
0
100
AcDbCircle
 62
7
  6
CONTINUOUS
 10
195.4992960291
 20
-0.0
 40
350.15
100
AcDbArc
 50
185.3711667119
 51
185.5722713779
  0
ARC
  5
3B4
100
AcDbEntity
  8
0
100
AcDbCircle
 62
7
  6
CONTINUOUS
 10
195.4992960291
 20
-0.0
 40
350.15
100
AcDbArc
 50
185.1701283899
 51
185.3536825237
  0
ARC
  5
3B5
100
AcDbEntity
  8
RACCORDO
100
AcDbCircle
 62
7
  6
CONTINUOUS
 10
195.3992960291
 20
0.0
 40
350.0
100
AcDbArc
 50
173.9518459009
 51
186.0481536102
  0
ARC
  5
3B6
100
AcDbEntity
  8
RACCORDO
100
AcDbCircle
 62
253
  6
CONTINUOUS
 10
195.4224200404
 20
0.0034939139
 40
348.5363803711
100
AcDbArc
 50
184.9735836491
 51
186.048112206
  0
ARC
  5
3B7
100
AcDbEntity
  8
RACCORDO
100
AcDbCircle
 62
253
  6
CONTINUOUS
 10
195.339683205
 20
-0.0
 40
348.4536330102
100
AcDbArc
 50
175.0258092423
 51
184.9741907577
  0
SPLINE
  5
3B8
100
AcDbEntity
  8
RACCORDO
100
AcDbSpline
 62
253
  6
CONTINUOUS
 70
0
 71
3
 72
13
 73
9
 74
7
 42
0.0000001
 43
0.0000001
 44
0.0000000001
 12
0.5031850924
 22
0.0
 32
0.0
 13
0.0000000002
 23
-0.5031850924
 33
0.0
 40
0.0
 40
0.0
 40
0.0
 40
0.0
 40
0.2576020177
 40
0.4976849525
 40
0.7039223118
 40
0.8622893132
 40
0.9625264374
 40
1.0
 40
1.0
 40
1.0
 40
1.0
 10
50.8
 20
23.3332857143
 30
0.0
 10
50.843207165
 20
23.3332857143
 30
0.0
 10
50.9265172697
 20
23.3325465347
 30
0.0
 10
51.0452301744
 20
23.3295335408
 30
0.0
 10
51.1445786333
 20
23.3242441748
 30
0.0
 10
51.2272179192
 20
23.3189039834
 30
0.0
 10
51.2671913939
 20
23.3105002422
 30
0.0
 10
51.3
 20
23.3062853801
 30
0.0
 10
51.3
 20
23.3000000007
 30
0.0
 11
50.8
 21
23.3332857143
 31
0.0
 11
50.9296165006
 21
23.3321478359
 31
0.0
 11
51.0503765832
 21
23.3288117856
 31
0.0
 11
51.1540164075
 21
23.3235056902
 31
0.0
 11
51.2334043299
 21
23.3165976185
 31
0.0
 11
51.2831970626
 21
23.3085565909
 31
0.0
 11
51.3
 21
23.3000000007
 31
0.0
  0
SPLINE
  5
3B9
100
AcDbEntity
  8
RACCORDO
100
AcDbSpline
 62
253
  6
CONTINUOUS
 70
0
 71
3
 72
13
 73
9
 74
7
 42
0.0000001
 43
0.0000001
 44
0.0000000001
 12
0.5031850925
 22
0.0
 32
0.0
 13
0.0000000001
 23
0.5031850924
 33
0.0
 40
0.0
 40
0.0
 40
0.0
 40
0.0
 40
0.2576019682
 40
0.4976850231
 40
0.703922135
 40
0.8622893378
 40
0.9625264101
 40
1.0
 40
1.0
 40
1.0
 40
1.0
 10
50.8
 20
-23.3332857143
 30
0.0
 10
50.8432071567
 20
-23.3332857143
 30
0.0
 10
50.9265172732
 20
-23.3325465346
 30
0.0
 10
51.0452301484
 20
-23.3295335419
 30
0.0
 10
51.1445786208
 20
-23.3242441748
 30
0.0
 10
51.2272178941
 20
-23.3189039894
 30
0.0
 10
51.2671913956
 20
-23.3105002405
 30
0.0
 10
51.3
 20
-23.3062853839
 30
0.0
 10
51.3
 20
-23.3
 30
0.0
 11
50.8
 21
-23.3332857143
 31
0.0
 11
50.9296164757
 21
-23.3321478363
 31
0.0
 11
51.0503766187
 21
-23.3288117843
 31
0.0
 11
51.1540163187
 21
-23.3235056961
 31
0.0
 11
51.2334043422
 21
-23.3165976171
 31
0.0
 11
51.2831970492
 21
-23.3085565942
 31
0.0
 11
51.3
 21
-23.3
 31
0.0
  0
SPLINE
  5
3BA
100
AcDbEntity
  8
RACCORDO
100
AcDbSpline
 62
253
  6
CONTINUOUS
 70
0
 71
3
 72
13
 73
9
 74
7
 42
0.0000001
 43
0.0000001
 44
0.0000000001
 12
-0.5031850924
 22
0.0
 32
0.0
 13
-0.0000000002
 23
0.5031850924
 33
0.0
 40
0.0
 40
0.0
 40
0.0
 40
0.0
 40
0.2576020177
 40
0.4976849525
 40
0.7039223118
 40
0.8622893132
 40
0.9625264374
 40
1.0
 40
1.0
 40
1.0
 40
1.0
 10
-50.8
 20
-23.3332857143
 30
0.0
 10
-50.843207165
 20
-23.3332857143
 30
0.0
 10
-50.9265172697
 20
-23.3325465347
 30
0.0
 10
-51.0452301744
 20
-23.3295335408
 30
0.0
 10
-51.1445786333
 20
-23.3242441748
 30
0.0
 10
-51.2272179192
 20
-23.3189039834
 30
0.0
 10
-51.2671913939
 20
-23.3105002422
 30
0.0
 10
-51.3
 20
-23.3062853801
 30
0.0
 10
-51.3
 20
-23.3000000007
 30
0.0
 11
-50.8
 21
-23.3332857143
 31
0.0
 11
-50.9296165006
 21
-23.3321478359
 31
0.0
 11
-51.0503765832
 21
-23.3288117856
 31
0.0
 11
-51.1540164075
 21
-23.3235056902
 31
0.0
 11
-51.2334043299
 21
-23.3165976185
 31
0.0
 11
-51.2831970626
 21
-23.3085565909
 31
0.0
 11
-51.3
 21
-23.3000000007
 31
0.0
  0
SPLINE
  5
3BB
100
AcDbEntity
  8
RACCORDO
100
AcDbSpline
 62
253
  6
CONTINUOUS
 70
0
 71
3
 72
13
 73
9
 74
7
 42
0.0000001
 43
0.0000001
 44
0.0000000001
 12
-0.5031850925
 22
0.0
 32
0.0
 13
-0.0000000001
 23
-0.5031850924
 33
0.0
 40
0.0
 40
0.0
 40
0.0
 40
0.0
 40
0.2576019682
 40
0.497685023
 40
0.7039221349
 40
0.8622893378
 40
0.9625264101
 40
1.0
 40
1.0
 40
1.0
 40
1.0
 10
-50.8
 20
23.3332857143
 30
0.0
 10
-50.8432071567
 20
23.3332857143
 30
0.0
 10
-50.9265172732
 20
23.3325465346
 30
0.0
 10
-51.0452301484
 20
23.3295335419
 30
0.0
 10
-51.1445786208
 20
23.3242441748
 30
0.0
 10
-51.2272178941
 20
23.3189039894
 30
0.0
 10
-51.2671913956
 20
23.3105002405
 30
0.0
 10
-51.3
 20
23.3062853839
 30
0.0
 10
-51.3
 20
23.3
 30
0.0
 11
-50.8
 21
23.3332857143
 31
0.0
 11
-50.9296164757
 21
23.3321478363
 31
0.0
 11
-51.0503766187
 21
23.3288117843
 31
0.0
 11
-51.1540163187
 21
23.3235056961
 31
0.0
 11
-51.2334043422
 21
23.3165976171
 31
0.0
 11
-51.2831970492
 21
23.3085565942
 31
0.0
 11
-51.3
 21
23.3
 31
0.0
  0
SPLINE
  5
3BC
100
AcDbEntity
  8
RACCORDO
100
AcDbSpline
 62
7
  6
CONTINUOUS
 70
0
 71
3
 72
16
 73
12
 74
10
 42
0.0000001
 43
0.0000001
 44
0.0000000001
 12
0.0
 22
1.1896527995
 32
0.0
 13
1.1896527995
 23
0.0
 33
0.0
 40
0.0
 40
0.0
 40
0.0
 40
0.0
 40
0.0609539629
 40
0.1379985633
 40
0.2321002832
 40
0.3424148853
 40
0.4656170309
 40
0.5954107496
 40
0.7299900686
 40
0.8662373806
 40
1.0
 40
1.0
 40
1.0
 40
1.0
 10
-24.7
 20
-39.1914180405
 30
0.0
 10
-24.7
 20
-39.1672466896
 30
0.0
 10
-24.6849836113
 20
-39.1126410621
 30
0.0
 10
-24.6321723596
 20
-39.0362237169
 30
0.0
 10
-24.5509665137
 20
-38.9588218042
 30
0.0
 10
-24.444039895
 20
-38.8843344115
 30
0.0
 10
-24.3161911031
 20
-38.8171927978
 30
0.0
 10
-24.1726555309
 20
-38.761396746
 30
0.0
 10
-24.0189579159
 20
-38.7200040092
 30
0.0
 10
-23.8601984875
 20
-38.6949180801
 30
0.0
 10
-23.7530436916
 20
-38.6893597165
 30
0.0
 10
-23.7
 20
-38.6893597165
 30
0.0
 11
-24.7
 21
-39.1914180405
 31
0.0
 11
-24.6835381592
 21
-39.120797253
 31
0.0
 11
-24.6339385327
 21
-39.0437209345
 31
0.0
 11
-24.5540041244
 21
-38.9653440953
 31
0.0
 11
-24.4469159281
 21
-38.88948221
 31
0.0
 11
-24.3174041682
 21
-38.8208613862
 31
0.0
 11
-24.1735799225
 21
-38.7646753744
 31
0.0
 11
-24.0190128481
 21
-38.72293951
 31
0.0
 11
-23.858916981
 21
-38.6976115083
 31
0.0
 11
-23.7
 21
-38.6893597165
 31
0.0
  0
SPLINE
  5
3BD
100
AcDbEntity
  8
RACCORDO
100
AcDbSpline
 62
253
  6
CONTINUOUS
 70
0
 71
3
 72
13
 73
9
 74
7
 42
0.0000001
 43
0.0000001
 44
0.0000000001
 12
-0.5353579301
 22
-0.0303391159
 32
0.0
 13
-0.2280248234
 23
-0.4853176848
 33
0.0
 40
0.0
 40
0.0
 40
0.0
 40
0.0
 40
0.217267601
 40
0.4250577876
 40
0.6136358476
 40
0.7748940958
 40
0.9036111478
 40
1.0
 40
1.0
 40
1.0
 40
1.0
 10
-51.4014809083
 20
28.1473243712
 30
0.0
 10
-51.440252886
 20
28.1451271356
 30
0.0
 10
-51.5159717234
 20
28.1378426733
 30
0.0
 10
-51.6240618152
 20
28.1184473252
 30
0.0
 10
-51.7202631894
 20
28.0918055379
 30
0.0
 10
-51.7997211746
 20
28.0592176348
 30
0.0
 10
-51.8586647318
 20
28.0227944779
 30
0.0
 10
-51.8865584345
 20
27.9919073711
 30
0.0
 10
-51.8938847848
 20
27.9763142996
 30
0.0
 11
-51.4014809083
 21
28.1473243712
 31
0.0
 11
-51.5174389201
 21
28.1360733089
 31
0.0
 11
-51.6270508163
 21
28.1160786848
 31
0.0
 11
-51.724317527
 21
28.088434743
 31
0.0
 11
-51.8039155483
 21
28.0546543926
 31
0.0
 11
-51.861488334
 21
28.0165864186
 31
0.0
 11
-51.8938847848
 21
27.9763142996
 31
0.0
  0
SPLINE
  5
3BE
100
AcDbEntity
  8
RACCORDO
100
AcDbSpline
 62
253
  6
CONTINUOUS
 70
0
 71
3
 72
10
 73
6
 74
4
 42
0.0000001
 43
0.0000001
 44
0.0000000001
 12
-0.2259179315
 22
-0.1894908983
 32
0.0
 13
-0.1933078851
 23
-0.2226606698
 33
0.0
 40
0.0
 40
0.0
 40
0.0
 40
0.0
 40
0.3351131013
 40
0.6726232118
 40
1.0
 40
1.0
 40
1.0
 40
1.0
 10
-51.9425518415
 20
29.7968603064
 30
0.0
 10
-51.9677878611
 20
29.7756933455
 30
0.0
 10
-52.0173005143
 20
29.7318310643
 30
0.0
 10
-52.0875320153
 20
29.6630178079
 30
0.0
 10
-52.1318281482
 20
29.6149174358
 30
0.0
 10
-52.1529229864
 20
29.5906194575
 30
0.0
 11
-51.9425518415
 21
29.7968603064
 31
0.0
 11
-52.016559782
 21
29.731385907
 31
0.0
 11
-52.0876252985
 21
29.6617156423
 31
0.0
 11
-52.1529229864
 21
29.5906194575
 31
0.0
  0
SPLINE
  5
3BF
100
AcDbEntity
  8
RACCORDO
100
AcDbSpline
 62
7
  6
CONTINUOUS
 70
0
 71
3
 72
16
 73
12
 74
10
 42
0.0000001
 43
0.0000001
 44
0.0000000001
 12
0.0
 22
1.1896527995
 32
0.0
 13
-1.1896527995
 23
0.0
 33
0.0
 40
0.0
 40
0.0
 40
0.0
 40
0.0
 40
0.0609539629
 40
0.1379985633
 40
0.2321002832
 40
0.3424148853
 40
0.4656170309
 40
0.5954107496
 40
0.7299900686
 40
0.8662373806
 40
1.0
 40
1.0
 40
1.0
 40
1.0
 10
24.7
 20
-41.1914180405
 30
0.0
 10
24.7
 20
-41.1672466896
 30
0.0
 10
24.6849836113
 20
-41.1126410621
 30
0.0
 10
24.6321723596
 20
-41.0362237169
 30
0.0
 10
24.5509665137
 20
-40.9588218042
 30
0.0
 10
24.444039895
 20
-40.8843344115
 30
0.0
 10
24.3161911031
 20
-40.8171927978
 30
0.0
 10
24.1726555309
 20
-40.761396746
 30
0.0
 10
24.0189579159
 20
-40.7200040092
 30
0.0
 10
23.8601984875
 20
-40.6949180801
 30
0.0
 10
23.7530436916
 20
-40.6893597165
 30
0.0
 10
23.7
 20
-40.6893597165
 30
0.0
 11
24.7
 21
-41.1914180405
 31
0.0
 11
24.6835381592
 21
-41.120797253
 31
0.0
 11
24.6339385327
 21
-41.0437209345
 31
0.0
 11
24.5540041244
 21
-40.9653440953
 31
0.0
 11
24.4469159281
 21
-40.88948221
 31
0.0
 11
24.3174041682
 21
-40.8208613862
 31
0.0
 11
24.1735799225
 21
-40.7646753744
 31
0.0
 11
24.0190128481
 21
-40.72293951
 31
0.0
 11
23.858916981
 21
-40.6976115083
 31
0.0
 11
23.7
 21
-40.6893597165
 31
0.0
  0
SPLINE
  5
3C0
100
AcDbEntity
  8
RACCORDO
100
AcDbSpline
 62
253
  6
CONTINUOUS
 70
0
 71
3
 72
13
 73
9
 74
7
 42
0.0000001
 43
0.0000001
 44
0.0000000001
 12
-0.2280247526
 22
0.4853177428
 32
0.0
 13
-0.5353579616
 23
0.0303389554
 33
0.0
 40
0.0
 40
0.0
 40
0.0
 40
0.0
 40
0.0963884736
 40
0.2251050228
 40
0.386362861
 40
0.574940854
 40
0.7827314735
 40
1.0
 40
1.0
 40
1.0
 40
1.0
 10
51.8938847407
 20
27.9763136123
 30
0.0
 10
51.8865584214
 20
27.9919066245
 30
0.0
 10
51.8586648712
 20
28.0227936414
 30
0.0
 10
51.7997215552
 20
28.0592167608
 30
0.0
 10
51.720263764
 20
28.0918046836
 30
0.0
 10
51.6240624115
 20
28.1184465412
 30
0.0
 10
51.5159720936
 20
28.1378419702
 30
0.0
 10
51.4402530094
 20
28.1451264506
 30
0.0
 10
51.4014808642
 20
28.147323684
 30
0.0
 11
51.8938847407
 21
27.9763136123
 31
0.0
 11
51.8614884532
 21
28.016585605
 31
0.0
 11
51.8039159402
 21
28.0546535076
 31
0.0
 11
51.7243181555
 21
28.0884338623
 31
0.0
 11
51.6270514968
 21
28.116077871
 31
0.0
 11
51.5174393755
 21
28.1360725803
 31
0.0
 11
51.4014808642
 21
28.147323684
 31
0.0
  0
SPLINE
  5
3C1
100
AcDbEntity
  8
RACCORDO
100
AcDbSpline
 62
253
  6
CONTINUOUS
 70
0
 71
3
 72
10
 73
6
 74
4
 42
0.0000001
 43
0.0000001
 44
0.0000000001
 12
-0.1933076331
 22
0.222660385
 32
0.0
 13
-0.2259174393
 23
0.1894908934
 33
0.0
 40
0.0
 40
0.0
 40
0.0
 40
0.0
 40
0.3273768467
 40
0.6648869419
 40
1.0
 40
1.0
 40
1.0
 40
1.0
 10
52.152923288
 20
29.5906195133
 30
0.0
 10
52.1318284735
 20
29.6149174649
 30
0.0
 10
52.0875324067
 20
29.6630177883
 30
0.0
 10
52.0173010342
 20
29.7318309941
 30
0.0
 10
51.9677884884
 20
29.7756932585
 30
0.0
 10
51.942552527
 20
29.7968602161
 30
0.0
 11
52.152923288
 21
29.5906195133
 31
0.0
 11
52.0876256878
 21
29.6617156331
 31
0.0
 11
52.0165603044
 21
29.7313858438
 31
0.0
 11
51.942552527
 21
29.7968602161
 31
0.0
  0
SPLINE
  5
3C2
100
AcDbEntity
  8
RACCORDO
100
AcDbSpline
 62
253
  6
CONTINUOUS
 70
0
 71
3
 72
13
 73
9
 74
7
 42
0.0000001
 43
0.0000001
 44
0.0000000001
 12
0.2280247425
 22
-0.4853177503
 32
0.0
 13
0.5353579651
 23
-0.0303389378
 33
0.0
 40
0.0
 40
0.0
 40
0.0
 40
0.0
 40
0.0963884602
 40
0.22510499
 40
0.386362812
 40
0.5749408021
 40
0.7827314382
 40
1.0
 40
1.0
 40
1.0
 40
1.0
 10
-51.8938847392
 20
-27.976313589
 30
0.0
 10
-51.8865584213
 20
-27.9919065992
 30
0.0
 10
-51.8586648774
 20
-28.0227936136
 30
0.0
 10
-51.7997215709
 20
-28.0592167326
 30
0.0
 10
-51.7202637873
 20
-28.0918046568
 30
0.0
 10
-51.6240624355
 20
-28.1184465172
 30
0.0
 10
-51.5159721084
 20
-28.1378419484
 30
0.0
 10
-51.4402530144
 20
-28.1451264282
 30
0.0
 10
-51.4014808627
 20
-28.1473236606
 30
0.0
 11
-51.8938847392
 21
-27.976313589
 31
0.0
 11
-51.8614884583
 21
-28.0165855781
 31
0.0
 11
-51.8039159562
 21
-28.0546534789
 31
0.0
 11
-51.7243181809
 21
-28.0884338344
 31
0.0
 11
-51.627051524
 21
-28.1160778457
 31
0.0
 11
-51.5174393936
 21
-28.1360725573
 31
0.0
 11
-51.4014808627
 21
-28.1473236606
 31
0.0
  0
SPLINE
  5
3C3
100
AcDbEntity
  8
RACCORDO
100
AcDbSpline
 62
253
  6
CONTINUOUS
 70
0
 71
3
 72
10
 73
6
 74
4
 42
0.0000001
 43
0.0000001
 44
0.0000000001
 12
0.1933076104
 22
-0.2226603835
 32
0.0
 13
0.2259174118
 23
-0.1894909013
 33
0.0
 40
0.0
 40
0.0
 40
0.0
 40
0.0
 40
0.3273768495
 40
0.6648869443
 40
1.0
 40
1.0
 40
1.0
 40
1.0
 10
-52.152923309
 20
-29.5906195106
 30
0.0
 10
-52.1318284968
 20
-29.6149174622
 30
0.0
 10
-52.087532435
 20
-29.6630177858
 30
0.0
 10
-52.0173010707
 20
-29.7318309922
 30
0.0
 10
-51.9677885311
 20
-29.7756932577
 30
0.0
 10
-51.942552573
 20
-29.7968602161
 30
0.0
 11
-52.152923309
 21
-29.5906195106
 31
0.0
 11
-52.0876257159
 21
-29.6617156309
 31
0.0
 11
-52.0165603409
 21
-29.7313858423
 31
0.0
 11
-51.942552573
 21
-29.7968602161
 31
0.0
  0
SPLINE
  5
3C4
100
AcDbEntity
  8
RACCORDO
100
AcDbSpline
 62
253
  6
CONTINUOUS
 70
0
 71
3
 72
13
 73
9
 74
7
 42
0.0000001
 43
0.0000001
 44
0.0000000001
 12
0.5353579298
 22
0.0303391176
 32
0.0
 13
0.2280248234
 23
0.4853176845
 33
0.0
 40
0.0
 40
0.0
 40
0.0
 40
0.0
 40
0.2172675689
 40
0.4250577404
 40
0.6136358026
 40
0.7748940648
 40
0.9036111342
 40
1.0
 40
1.0
 40
1.0
 40
1.0
 10
51.4014808987
 20
-28.147324222
 30
0.0
 10
51.4402528707
 20
-28.1451269865
 30
0.0
 10
51.5159716996
 20
-28.1378425253
 30
0.0
 10
51.6240617837
 20
-28.1184471803
 30
0.0
 10
51.7202631587
 20
-28.0918053955
 30
0.0
 10
51.7997211506
 20
-28.0592174928
 30
0.0
 10
51.858664716
 20
-28.0227943342
 30
0.0
 10
51.8865584239
 20
-27.991907224
 30
0.0
 10
51.8938847753
 20
-27.9763141503
 30
0.0
 11
51.4014808987
 21
-28.147324222
 31
0.0
 11
51.5174388934
 21
-28.1360731617
 31
0.0
 11
51.6270507818
 21
-28.1160785409
 31
0.0
 11
51.7243174944
 21
-28.0884346015
 31
0.0
 11
51.8039155239
 21
-28.054654251
 31
0.0
 11
51.8614883188
 21
-28.0165862742
 31
0.0
 11
51.8938847753
 21
-27.9763141503
 31
0.0
  0
SPLINE
  5
3C5
100
AcDbEntity
  8
RACCORDO
100
AcDbSpline
 62
253
  6
CONTINUOUS
 70
0
 71
3
 72
10
 73
6
 74
4
 42
0.0000001
 43
0.0000001
 44
0.0000000001
 12
0.2259179229
 22
0.1894908738
 32
0.0
 13
0.1933078793
 23
0.2226606452
 33
0.0
 40
0.0
 40
0.0
 40
0.0
 40
0.0
 40
0.3351130992
 40
0.67262321
 40
1.0
 40
1.0
 40
1.0
 40
1.0
 10
51.9425518592
 20
-29.7968603064
 30
0.0
 10
51.9677878777
 20
-29.7756933484
 30
0.0
 10
52.0173005288
 20
-29.7318310725
 30
0.0
 10
52.0875320251
 20
-29.663017822
 30
0.0
 10
52.1318281564
 20
-29.6149174549
 30
0.0
 10
52.1529229941
 20
-29.5906194792
 30
0.0
 11
51.9425518592
 21
-29.7968603064
 31
0.0
 11
52.016559796
 21
-29.731385915
 31
0.0
 11
52.0876253086
 21
-29.6617156569
 31
0.0
 11
52.1529229941
 21
-29.5906194792
 31
0.0
  0
SPLINE
  5
3C6
100
AcDbEntity
  8
RACCORDO
100
AcDbSpline
 62
7
  6
CONTINUOUS
 70
0
 71
3
 72
16
 73
12
 74
10
 42
0.0000001
 43
0.0000001
 44
0.0000000001
 12
-1.1896527995
 22
0.0
 32
0.0
 13
0.0
 23
-1.1896527995
 33
0.0
 40
0.0
 40
0.0
 40
0.0
 40
0.0
 40
0.1337626194
 40
0.2700099314
 40
0.4045892504
 40
0.5343829691
 40
0.6575851147
 40
0.7678997168
 40
0.8620014367
 40
0.9390460371
 40
1.0
 40
1.0
 40
1.0
 40
1.0
 10
-23.7
 20
-40.6893597165
 30
0.0
 10
-23.7530436916
 20
-40.6893597165
 30
0.0
 10
-23.8601984875
 20
-40.6949180801
 30
0.0
 10
-24.0189579159
 20
-40.7200040092
 30
0.0
 10
-24.1726555309
 20
-40.761396746
 30
0.0
 10
-24.3161911031
 20
-40.8171927978
 30
0.0
 10
-24.444039895
 20
-40.8843344115
 30
0.0
 10
-24.5509665137
 20
-40.9588218042
 30
0.0
 10
-24.6321723596
 20
-41.0362237169
 30
0.0
 10
-24.6849836113
 20
-41.1126410621
 30
0.0
 10
-24.7
 20
-41.1672466896
 30
0.0
 10
-24.7
 20
-41.1914180405
 30
0.0
 11
-23.7
 21
-40.6893597165
 31
0.0
 11
-23.858916981
 21
-40.6976115083
 31
0.0
 11
-24.0190128481
 21
-40.72293951
 31
0.0
 11
-24.1735799225
 21
-40.7646753744
 31
0.0
 11
-24.3174041682
 21
-40.8208613862
 31
0.0
 11
-24.4469159281
 21
-40.88948221
 31
0.0
 11
-24.5540041244
 21
-40.9653440953
 31
0.0
 11
-24.6339385327
 21
-41.0437209345
 31
0.0
 11
-24.6835381592
 21
-41.120797253
 31
0.0
 11
-24.7
 21
-41.1914180405
 31
0.0
  0
SPLINE
  5
3C7
100
AcDbEntity
  8
RACCORDO
100
AcDbSpline
 62
7
  6
CONTINUOUS
 70
0
 71
3
 72
16
 73
12
 74
10
 42
0.0000001
 43
0.0000001
 44
0.0000000001
 12
1.1896527995
 22
0.0
 32
0.0
 13
0.0
 23
-1.1896527995
 33
0.0
 40
0.0
 40
0.0
 40
0.0
 40
0.0
 40
0.1337626194
 40
0.2700099314
 40
0.4045892504
 40
0.5343829691
 40
0.6575851147
 40
0.7678997168
 40
0.8620014367
 40
0.9390460371
 40
1.0
 40
1.0
 40
1.0
 40
1.0
 10
23.7
 20
-38.6893597165
 30
0.0
 10
23.7530436916
 20
-38.6893597165
 30
0.0
 10
23.8601984875
 20
-38.6949180801
 30
0.0
 10
24.0189579159
 20
-38.7200040092
 30
0.0
 10
24.1726555309
 20
-38.761396746
 30
0.0
 10
24.3161911031
 20
-38.8171927978
 30
0.0
 10
24.444039895
 20
-38.8843344115
 30
0.0
 10
24.5509665137
 20
-38.9588218042
 30
0.0
 10
24.6321723596
 20
-39.0362237169
 30
0.0
 10
24.6849836113
 20
-39.1126410621
 30
0.0
 10
24.7
 20
-39.1672466896
 30
0.0
 10
24.7
 20
-39.1914180405
 30
0.0
 11
23.7
 21
-38.6893597165
 31
0.0
 11
23.858916981
 21
-38.6976115083
 31
0.0
 11
24.0190128481
 21
-38.72293951
 31
0.0
 11
24.1735799225
 21
-38.7646753744
 31
0.0
 11
24.3174041682
 21
-38.8208613862
 31
0.0
 11
24.4469159281
 21
-38.88948221
 31
0.0
 11
24.5540041244
 21
-38.9653440953
 31
0.0
 11
24.6339385327
 21
-39.0437209345
 31
0.0
 11
24.6835381592
 21
-39.120797253
 31
0.0
 11
24.7
 21
-39.1914180405
 31
0.0
  0
SPLINE
  5
3C8
100
AcDbEntity
  8
RACCORDO
100
AcDbSpline
 62
253
  6
CONTINUOUS
 70
0
 71
3
 72
22
 73
18
 74
16
 42
0.0000001
 43
0.0000001
 44
0.0000000001
 12
0.0423033423
 22
1.643508537
 32
0.0
 13
0.7124685749
 23
1.4816539454
 33
0.0
 40
0.0
 40
0.0
 40
0.0
 40
0.0
 40
0.0982836164
 40
0.1884659171
 40
0.2720223763
 40
0.3486671199
 40
0.4175664119
 40
0.4799892823
 40
0.5385459821
 40
0.5958124104
 40
0.6531823348
 40
0.7103093755
 40
0.7668100439
 40
0.8232777018
 40
0.8805287014
 40
0.9392628947
 40
1.0
 40
1.0
 40
1.0
 40
1.0
 10
51.8938847407
 20
27.9763136123
 30
0.0
 10
51.8952706492
 20
28.0301569332
 30
0.0
 10
51.8988130493
 20
28.1333851549
 30
0.0
 10
51.9065013739
 20
28.2822666587
 30
0.0
 10
51.9159018022
 20
28.4191654946
 30
0.0
 10
51.9266094805
 20
28.5442650611
 30
0.0
 10
51.938211133
 20
28.6576476892
 30
0.0
 10
51.9504916855
 20
28.7609820394
 30
0.0
 10
51.9636163372
 20
28.8577828306
 30
0.0
 10
51.9780040535
 20
28.9516040675
 30
0.0
 10
51.9940602465
 20
29.0443605766
 30
0.0
 10
52.0120553936
 20
29.1363348474
 30
0.0
 10
52.032243673
 20
29.2273493888
 30
0.0
 10
52.055125007
 20
29.3177987271
 30
0.0
 10
52.081620432
 20
29.4085455465
 30
0.0
 10
52.1131217534
 20
29.5001651386
 30
0.0
 10
52.1384987933
 20
29.5606224009
 30
0.0
 10
52.1529232196
 20
29.5906195248
 30
0.0
 11
51.8938847407
 21
27.9763136123
 31
0.0
 11
51.8994505757
 21
28.1378011876
 31
0.0
 11
51.9071230734
 21
28.285867005
 31
0.0
 11
51.9165619684
 21
28.4229135819
 31
0.0
 11
51.9273366859
 21
28.5484600852
 31
0.0
 11
51.9388937762
 21
28.661143051
 31
0.0
 11
51.9510302121
 21
28.7630494072
 31
0.0
 11
51.9639908405
 21
28.8584433008
 31
0.0
 11
51.9782931229
 21
28.951499659
 31
0.0
 11
51.9944209351
 21
29.0444297575
 31
0.0
 11
52.0125076586
 21
29.1365916451
 31
0.0
 11
52.0326922301
 21
29.2272622098
 31
0.0
 11
52.0555585122
 21
29.3172378834
 31
0.0
 11
52.0820881503
 21
29.407545379
 31
0.0
 11
52.1137510305
 21
29.4987687586
 31
0.0
 11
52.1529232196
 21
29.5906195248
 31
0.0
  0
SPLINE
  5
3C9
100
AcDbEntity
  8
RACCORDO
100
AcDbSpline
 62
253
  6
CONTINUOUS
 70
0
 71
3
 72
14
 73
10
 74
8
 42
0.0000001
 43
0.0000001
 44
0.0000000001
 12
0.0422747836
 22
-1.6433341009
 32
0.0
 13
0.7134889793
 23
-1.4809684672
 33
0.0
 40
0.0
 40
0.0
 40
0.0
 40
0.0
 40
0.1934466402
 40
0.3688473096
 40
0.5264853873
 40
0.6679437227
 40
0.79403745
 40
0.904795218
 40
1.0
 40
1.0
 40
1.0
 40
1.0
 10
51.8938847753
 20
-27.9763141503
 30
0.0
 10
51.8966107469
 20
-28.0822799705
 30
0.0
 10
51.9052045898
 20
-28.2842607023
 30
0.0
 10
51.9278213024
 20
-28.571927621
 30
0.0
 10
51.9581849028
 20
-28.8302276852
 30
0.0
 10
51.9954380873
 20
-29.0602975833
 30
0.0
 10
52.0391901339
 20
-29.2630620915
 30
0.0
 10
52.0893510452
 20
-29.4380918529
 30
0.0
 10
52.1302803953
 20
-29.5436210655
 30
0.0
 10
52.1529229162
 20
-29.5906194922
 30
0.0
 11
51.8938847753
 21
-27.9763141503
 31
0.0
 11
51.9076195326
 21
-28.2940200366
 31
0.0
 11
51.9305273484
 21
-28.5814458675
 31
0.0
 11
51.9611830297
 21
-28.8387639453
 31
0.0
 11
51.9988811012
 21
-29.068228117
 31
0.0
 11
52.0433408077
 21
-29.2706866114
 31
0.0
 11
52.094539216
 21
-29.4454121703
 31
0.0
 11
52.1529229162
 21
-29.5906194922
 31
0.0
  0
SPLINE
  5
3CA
100
AcDbEntity
  8
RACCORDO
100
AcDbSpline
 62
253
  6
CONTINUOUS
 70
0
 71
3
 72
15
 73
11
 74
9
 42
0.0000001
 43
0.0000001
 44
0.0000000001
 12
-0.113117411
 22
-1.7621114807
 32
0.0
 13
-1.2142325427
 23
-1.2819796221
 33
0.0
 40
0.0
 40
0.0
 40
0.0
 40
0.0
 40
0.1635667878
 40
0.3143392966
 40
0.4530070882
 40
0.5805175272
 40
0.6981079338
 40
0.806768705
 40
0.9071480881
 40
1.0
 40
1.0
 40
1.0
 40
1.0
 10
-51.4014808627
 20
-28.1473236606
 30
0.0
 10
-51.4076482799
 20
-28.2433979655
 30
0.0
 10
-51.4249182977
 20
-28.42774058
 30
0.0
 10
-51.4660414688
 20
-28.6913462048
 30
0.0
 10
-51.5192330006
 20
-28.9311022731
 30
0.0
 10
-51.5831029631
 20
-29.1479599585
 30
0.0
 10
-51.6568436618
 20
-29.34291807
 30
0.0
 10
-51.7402734621
 20
-29.516434242
 30
0.0
 10
-51.8333130642
 20
-29.6682220173
 30
0.0
 10
-51.9049473106
 20
-29.7571532521
 30
0.0
 10
-51.9425285817
 20
-29.7968313384
 30
0.0
 11
-51.4014808627
 21
-28.1473236606
 31
0.0
 11
-51.4286714324
 21
-28.4348570584
 31
0.0
 11
-51.4700301157
 21
-28.6978496727
 31
0.0
 11
-51.5234633088
 21
-28.9367993202
 31
0.0
 11
-51.5875413012
 21
-29.1526385521
 31
0.0
 11
-51.661576125
 21
-29.3466248512
 31
0.0
 11
-51.745368924
 21
-29.5192270616
 31
0.0
 11
-51.8388935262
 21
-29.669787655
 31
0.0
 11
-51.9425285817
 21
-29.7968313384
 31
0.0
  0
SPLINE
  5
3CB
100
AcDbEntity
  8
RACCORDO
100
AcDbSpline
 62
253
  6
CONTINUOUS
 70
0
 71
3
 72
14
 73
10
 74
8
 42
0.0000001
 43
0.0000001
 44
0.0000000001
 12
0.1129755517
 22
-1.7618817652
 32
0.0
 13
1.2163260038
 23
-1.2796647538
 33
0.0
 40
0.0
 40
0.0
 40
0.0
 40
0.0
 40
0.1843482504
 40
0.3528655513
 40
0.5062205668
 40
0.6463864038
 40
0.7747762845
 40
0.8923773673
 40
1.0
 40
1.0
 40
1.0
 40
1.0
 10
51.4014808987
 20
-28.147324222
 30
0.0
 10
51.4084231805
 20
-28.2555908289
 30
0.0
 10
51.4285832958
 20
-28.4624685178
 30
0.0
 10
51.4780894066
 20
-28.7564790433
 30
0.0
 10
51.542824827
 20
-29.0208438553
 30
0.0
 10
51.6211365582
 20
-29.2567766643
 30
0.0
 10
51.7124867934
 20
-29.4652932507
 30
0.0
 10
51.8167266667
 20
-29.6459348955
 30
0.0
 10
51.8988520374
 20
-29.7508722389
 30
0.0
 10
51.942486773
 20
-29.7967792022
 30
0.0
 11
51.4014808987
 21
-28.147324222
 31
0.0
 11
51.4334039854
 21
-28.4712217329
 31
0.0
 11
51.4833053796
 21
-28.7645243208
 31
0.0
 11
51.5483186328
 21
-29.0273511108
 31
0.0
 11
51.6270496497
 21
-29.2619556044
 31
0.0
 11
51.7189405101
 21
-29.4691666721
 31
0.0
 11
51.8239576178
 21
-29.6482740028
 31
0.0
 11
51.942486773
 21
-29.7967792022
 31
0.0
  0
SPLINE
  5
3CC
100
AcDbEntity
  8
RACCORDO
100
AcDbSpline
 62
253
  6
CONTINUOUS
 70
0
 71
3
 72
14
 73
10
 74
8
 42
0.0000001
 43
0.0000001
 44
0.0000000001
 12
-0.112978087
 22
1.7619567435
 32
0.0
 13
-1.2156656521
 23
1.2803955
 33
0.0
 40
0.0
 40
0.0
 40
0.0
 40
0.0
 40
0.1844976704
 40
0.3531015689
 40
0.5064622041
 40
0.6466030623
 40
0.7749355077
 40
0.8924444819
 40
1.0
 40
1.0
 40
1.0
 40
1.0
 10
-51.4014809083
 20
28.1473243712
 30
0.0
 10
-51.4084289729
 20
28.2556833428
 30
0.0
 10
-51.4286099449
 20
28.4627078703
 30
0.0
 10
-51.4781660011
 20
28.7568676938
 30
0.0
 10
-51.5429478993
 20
29.0212734618
 30
0.0
 10
-51.6212799954
 20
29.2571645376
 30
0.0
 10
-51.7126366175
 20
29.4655729886
 30
0.0
 10
-51.8168144838
 20
29.6461205624
 30
0.0
 10
-51.898948144
 20
29.7509313544
 30
0.0
 10
-51.9425319937
 20
29.7968358881
 30
0.0
 11
-51.4014809083
 21
28.1473243712
 31
0.0
 11
-51.4334412806
 21
28.4714971884
 31
0.0
 11
-51.4833959457
 21
28.7649586216
 31
0.0
 11
-51.5484477103
 21
29.0277979504
 31
0.0
 11
-51.6272029273
 21
29.2623588873
 31
0.0
 11
-51.7190908332
 21
29.469470863
 31
0.0
 11
-51.8240521965
 21
29.6484325822
 31
0.0
 11
-51.9425319937
 21
29.7968358881
 31
0.0
  0
SPLINE
  5
3CD
100
AcDbEntity
  8
RACCORDO
100
AcDbSpline
 62
253
  6
CONTINUOUS
 70
0
 71
3
 72
22
 73
18
 74
16
 42
0.0000001
 43
0.0000001
 44
0.0000000001
 12
0.1131201052
 22
1.7624548785
 32
0.0
 13
1.2153119177
 23
1.2814290069
 33
0.0
 40
0.0
 40
0.0
 40
0.0
 40
0.0
 40
0.0934721783
 40
0.179500504
 40
0.2595092183
 40
0.3332286839
 40
0.3998374799
 40
0.4605294866
 40
0.517826506
 40
0.574277274
 40
0.631336079
 40
0.68878009
 40
0.7463768525
 40
0.8049519021
 40
0.8657271722
 40
0.9301341812
 40
1.0
 40
1.0
 40
1.0
 40
1.0
 10
51.4014808642
 20
28.147323684
 30
0.0
 10
51.4050053918
 20
28.2022371829
 30
0.0
 10
51.4135469593
 20
28.3075871075
 30
0.0
 10
51.4310214294
 20
28.4593824655
 30
0.0
 10
51.4517618198
 20
28.5990191078
 30
0.0
 10
51.474956714
 20
28.7266619262
 30
0.0
 10
51.4997781009
 20
28.8423883251
 30
0.0
 10
51.5258219495
 20
28.947910119
 30
0.0
 10
51.5534739019
 20
29.0468256413
 30
0.0
 10
51.5836278574
 20
29.1427696855
 30
0.0
 10
51.6171250355
 20
29.2376945089
 30
0.0
 10
51.6545139744
 20
29.3318872948
 30
0.0
 10
51.6963175338
 20
29.4251933412
 30
0.0
 10
51.7435837325
 20
29.5180745531
 30
0.0
 10
51.7982591163
 20
29.6115065222
 30
0.0
 10
51.8633208597
 20
29.7062544912
 30
0.0
 10
51.9142247642
 20
29.7669886429
 30
0.0
 10
51.9425276849
 20
29.7968313385
 30
0.0
 11
51.4014808642
 21
28.147323684
 31
0.0
 11
51.4148625609
 21
28.3118598869
 31
0.0
 11
51.4322812216
 21
28.4627911079
 31
0.0
 11
51.453087231
 21
28.6025528213
 31
0.0
 11
51.4764103638
 21
28.7306413006
 31
0.0
 11
51.5011223418
 21
28.8456529378
 31
0.0
 11
51.5268452143
 21
28.9497076897
 31
0.0
 11
51.5541281351
 21
29.0471515236
 31
0.0
 11
51.5840652817
 21
29.1422472071
 31
0.0
 11
51.6176554352
 21
29.2372545417
 31
0.0
 11
51.6551557258
 21
29.3315200835
 31
0.0
 11
51.6968341005
 21
29.4243100997
 31
0.0
 11
51.7438705311
 21
29.5164465507
 31
0.0
 11
51.798241522
 21
29.6089905849
 31
0.0
 11
51.8629069127
 21
29.7025694223
 31
0.0
 11
51.9425276849
 21
29.7968313385
 31
0.0
  0
SPLINE
  5
3CE
100
AcDbEntity
  8
RACCORDO
100
AcDbSpline
 62
253
  6
CONTINUOUS
 70
0
 71
3
 72
15
 73
11
 74
9
 42
0.0000001
 43
0.0000001
 44
0.0000000001
 12
-0.0422983503
 22
-1.6433950092
 32
0.0
 13
-0.7114591522
 23
-1.4820128817
 33
0.0
 40
0.0
 40
0.0
 40
0.0
 40
0.0
 40
0.1717684444
 40
0.3290317288
 40
0.4722334001
 40
0.6020747065
 40
0.7194818867
 40
0.8249900006
 40
0.9185611367
 40
1.0
 40
1.0
 40
1.0
 40
1.0
 10
-51.8938847392
 20
-27.976313589
 30
0.0
 10
-51.8963065798
 20
-28.070408057
 30
0.0
 10
-51.9036369843
 20
-28.2505965336
 30
0.0
 10
-51.9223203852
 20
-28.5087384116
 30
0.0
 10
-51.9471661128
 20
-28.7432725332
 30
0.0
 10
-51.9774578142
 20
-28.9551301469
 30
0.0
 10
-52.0127605764
 20
-29.145247057
 30
0.0
 10
-52.0529213728
 20
-29.3140584308
 30
0.0
 10
-52.0978047666
 20
-29.4611894663
 30
0.0
 10
-52.1336097657
 20
-29.5503883739
 30
0.0
 10
-52.1529232406
 20
-29.5906195221
 30
0.0
 11
-51.8938847392
 21
-27.976313589
 31
0.0
 11
-51.9055101107
 21
-28.2584510711
 31
0.0
 11
-51.92437279
 21
-28.516293322
 31
0.0
 11
-51.9494277444
 21
-28.7503710888
 31
0.0
 11
-51.979956329
 21
-28.9616278748
 31
0.0
 11
-52.0156098054
 21
-29.1513165548
 31
0.0
 11
-52.0562873198
 21
-29.3199281546
 31
0.0
 11
-52.101976567
 21
-29.4668114577
 31
0.0
 11
-52.1529232406
 21
-29.5906195221
 31
0.0
  0
SPLINE
  5
3CF
100
AcDbEntity
  8
RACCORDO
100
AcDbSpline
 62
253
  6
CONTINUOUS
 70
0
 71
3
 72
14
 73
10
 74
8
 42
0.0000001
 43
0.0000001
 44
0.0000000001
 12
-0.0422739264
 22
1.6433345713
 32
0.0
 13
-0.7133136587
 23
1.4810534164
 33
0.0
 40
0.0
 40
0.0
 40
0.0
 40
0.0
 40
0.1936095879
 40
0.3691031014
 40
0.5267508199
 40
0.6681853789
 40
0.7942234036
 40
0.9048953852
 40
1.0
 40
1.0
 40
1.0
 40
1.0
 10
-51.8938847848
 20
27.9763142996
 30
0.0
 10
-51.8966129973
 20
28.0823694093
 30
0.0
 10
-51.9052157131
 20
28.2844902267
 30
0.0
 10
-51.9278563146
 20
28.5723014069
 30
0.0
 10
-51.958242588
 20
28.8306422666
 30
0.0
 10
-51.9955074371
 20
29.0606719009
 30
0.0
 10
-52.0392638726
 20
29.2633421843
 30
0.0
 10
-52.0893942155
 20
29.438244166
 30
0.0
 10
-52.1303097682
 20
29.543667799
 30
0.0
 10
-52.1529229084
 20
29.5906194706
 30
0.0
 11
-51.8938847848
 21
27.9763142996
 31
0.0
 11
-51.907636015
 21
28.2942876768
 31
0.0
 11
-51.9305690611
 21
28.5818646838
 31
0.0
 11
-51.9612441767
 21
28.8391964772
 31
0.0
 11
-51.99895533
 21
29.0686189537
 31
0.0
 11
-52.0434153302
 21
29.2709836904
 31
0.0
 11
-52.0945886359
 21
29.445569704
 31
0.0
 11
-52.1529229084
 21
29.5906194706
 31
0.0
  0
SPLINE
  5
3D0
100
AcDbEntity
  8
RACCORDO
100
AcDbSpline
 62
253
  6
CONTINUOUS
 70
0
 71
3
 72
16
 73
12
 74
10
 42
0.0000001
 43
0.0000001
 44
0.0000000001
 12
1.5163212033
 22
-0.0011428965
 32
0.0
 13
0.1513206569
 23
-1.5087522516
 33
0.0
 40
0.0
 40
0.0
 40
0.0
 40
0.0
 40
0.1708434365
 40
0.3365944802
 40
0.4923156518
 40
0.633380009
 40
0.7556197184
 40
0.8554724526
 40
0.9301474702
 40
0.9779400544
 40
1.0
 40
1.0
 40
1.0
 40
1.0
 10
66.3150393266
 20
30.3434109135
 30
0.0
 10
66.4013905017
 20
30.3433458281
 30
0.0
 10
66.571523991
 20
30.3419520614
 30
0.0
 10
66.8202883386
 20
30.336114136
 30
0.0
 10
67.0539409773
 20
30.3267013597
 30
0.0
 10
67.2652310864
 20
30.3141271519
 30
0.0
 10
67.4485848214
 20
30.298536067
 30
0.0
 10
67.5964184725
 20
30.2813872632
 30
0.0
 10
67.7100719594
 20
30.2612746096
 30
0.0
 10
67.775263155
 20
30.244289719
 30
0.0
 10
67.8138695027
 20
30.2244622878
 30
0.0
 10
67.8149822112
 20
30.2133679569
 30
0.0
 11
66.3150393266
 21
30.3434109135
 31
0.0
 11
66.5740840105
 21
30.3412617759
 31
0.0
 11
66.8253444582
 21
30.3352694432
 31
0.0
 11
67.0612703435
 21
30.325613983
 31
0.0
 11
67.2747721345
 21
30.3125855388
 31
0.0
 11
67.4594341308
 21
30.2965756112
 31
0.0
 11
67.6097072535
 21
30.2780652944
 31
0.0
 11
67.7210757943
 21
30.257610819
 31
0.0
 11
67.7901931139
 21
30.235826838
 31
0.0
 11
67.8149822112
 21
30.2133679569
 31
0.0
  0
SPLINE
  5
3D1
100
AcDbEntity
  8
RACCORDO
100
AcDbSpline
 62
253
  6
CONTINUOUS
 70
0
 71
3
 72
15
 73
11
 74
9
 42
0.0000001
 43
0.0000001
 44
0.0000000001
 12
1.5230031699
 22
-0.0013925996
 32
0.0
 13
0.1250227734
 23
-1.5178635976
 33
0.0
 40
0.0
 40
0.0
 40
0.0
 40
0.0
 40
0.1911075326
 40
0.3750381794
 40
0.5448946084
 40
0.6943404593
 40
0.8178735813
 40
0.9111232244
 40
0.971354711
 40
1.0
 40
1.0
 40
1.0
 40
1.0
 10
66.3205173194
 20
36.877580462
 30
0.0
 10
66.4175364454
 20
36.8774917499
 30
0.0
 10
66.6079251451
 20
36.8753951757
 30
0.0
 10
66.8844743045
 20
36.8665064483
 30
0.0
 10
67.1394401942
 20
36.852412521
 30
0.0
 10
67.3639394893
 20
36.8332992115
 30
0.0
 10
67.5473110874
 20
36.8113470885
 30
0.0
 10
67.6888002053
 20
36.7844450195
 30
0.0
 10
67.7718762224
 20
36.7618155768
 30
0.0
 10
67.8192664328
 20
36.7340270843
 30
0.0
 10
67.820460204
 20
36.7195338705
 30
0.0
 11
66.3205173194
 21
36.877580462
 31
0.0
 11
66.6115564541
 21
36.8743108777
 31
0.0
 11
66.8915339794
 21
36.8651586319
 31
0.0
 11
67.1498087071
 21
36.8504715767
 31
0.0
 11
67.3765643139
 21
36.8308079273
 31
0.0
 11
67.5631824326
 21
36.8069150458
 31
0.0
 11
67.7025702137
 21
36.7797010361
 31
0.0
 11
67.7894299048
 21
36.7502002291
 31
0.0
 11
67.820460204
 21
36.7195338705
 31
0.0
  0
SPLINE
  5
3D2
100
AcDbEntity
  8
RACCORDO
100
AcDbSpline
 62
253
  6
CONTINUOUS
 70
0
 71
3
 72
16
 73
12
 74
10
 42
0.0000001
 43
0.0000001
 44
0.0000000001
 12
1.5163212411
 22
0.001142897
 32
0.0
 13
0.1513138365
 23
1.5087529736
 33
0.0
 40
0.0
 40
0.0
 40
0.0
 40
0.0
 40
0.1708434989
 40
0.3365945969
 40
0.4923158082
 40
0.6333801852
 40
0.7556198919
 40
0.8554726014
 40
0.9301475754
 40
0.9779401035
 40
1.0
 40
1.0
 40
1.0
 40
1.0
 10
66.3150393266
 20
-30.3434109652
 30
0.0
 10
66.4013905354
 20
-30.3433458797
 30
0.0
 10
66.571524088
 20
-30.341952112
 30
0.0
 10
66.8202885206
 20
-30.3361141824
 30
0.0
 10
67.0539412227
 20
-30.3267013992
 30
0.0
 10
67.2652313647
 20
-30.3141271848
 30
0.0
 10
67.4485851015
 20
-30.298536088
 30
0.0
 10
67.5964187154
 20
-30.2813872871
 30
0.0
 10
67.7100721491
 20
-30.2612746048
 30
0.0
 10
67.7752632564
 20
-30.2442897575
 30
0.0
 10
67.8138695554
 20
-30.2244622684
 30
0.0
 10
67.8149822112
 20
-30.2133679569
 30
0.0
 11
66.3150393266
 21
-30.3434109652
 31
0.0
 11
66.5740841115
 21
-30.3412618259
 31
0.0
 11
66.8253446479
 21
-30.3352694886
 31
0.0
 11
67.0612705989
 21
-30.3256140215
 31
0.0
 11
67.2747724247
 21
-30.3125855689
 31
0.0
 11
67.459434421
 21
-30.2965756324
 31
0.0
 11
67.6097075087
 21
-30.2780653072
 31
0.0
 11
67.7210759838
 21
-30.257610825
 31
0.0
 11
67.7901932148
 21
-30.2358268396
 31
0.0
 11
67.8149822112
 21
-30.2133679569
 31
0.0
  0
SPLINE
  5
3D3
100
AcDbEntity
  8
RACCORDO
100
AcDbSpline
 62
253
  6
CONTINUOUS
 70
0
 71
3
 72
15
 73
11
 74
9
 42
0.0000001
 43
0.0000001
 44
0.0000000001
 12
1.5230032925
 22
0.0013926097
 32
0.0
 13
0.1250087362
 23
1.5178648768
 33
0.0
 40
0.0
 40
0.0
 40
0.0
 40
0.0
 40
0.1911076345
 40
0.3750383702
 40
0.5448948632
 40
0.6943407432
 40
0.8178738516
 40
0.9111234347
 40
0.9713548175
 40
1.0
 40
1.0
 40
1.0
 40
1.0
 10
66.3205173194
 20
-36.8775806431
 30
0.0
 10
66.4175365049
 20
-36.8774919303
 30
0.0
 10
66.6079253168
 20
-36.8753953524
 30
0.0
 10
66.8844746278
 20
-36.8665066109
 30
0.0
 10
67.1394406286
 20
-36.8524126674
 30
0.0
 10
67.3639399834
 20
-36.833299325
 30
0.0
 10
67.5473115636
 20
-36.8113472026
 30
0.0
 10
67.6888006133
 20
-36.7844450484
 30
0.0
 10
67.7718764691
 20
-36.7618157067
 30
0.0
 10
67.8192665713
 20
-36.7340270426
 30
0.0
 10
67.820460204
 20
-36.7195338705
 30
0.0
 11
66.3205173194
 21
-36.8775806431
 31
0.0
 11
66.6115566326
 21
-36.8743110526
 31
0.0
 11
66.8915343154
 21
-36.8651587929
 31
0.0
 11
67.1498091606
 21
-36.850471717
 31
0.0
 11
67.3765648279
 21
-36.8308080417
 31
0.0
 11
67.5631829374
 21
-36.806915131
 31
0.0
 11
67.702570631
 21
-36.7797010908
 31
0.0
 11
67.789430153
 21
-36.7502002545
 31
0.0
 11
67.820460204
 21
-36.7195338705
 31
0.0
  0
SPLINE
  5
3D4
100
AcDbEntity
  8
RACCORDO
100
AcDbSpline
 62
253
  6
CONTINUOUS
 70
0
 71
3
 72
16
 73
12
 74
10
 42
0.0000001
 43
0.0000001
 44
0.0000000001
 12
-1.5163212412
 22
-0.001142897
 32
0.0
 13
-0.15131382
 23
-1.5087529753
 33
0.0
 40
0.0
 40
0.0
 40
0.0
 40
0.0
 40
0.170843499
 40
0.3365945972
 40
0.4923158085
 40
0.6333801856
 40
0.7556198923
 40
0.8554726018
 40
0.9301475757
 40
0.9779401036
 40
1.0
 40
1.0
 40
1.0
 40
1.0
 10
-66.3150393266
 20
30.3434109654
 30
0.0
 10
-66.4013905355
 20
30.3433458798
 30
0.0
 10
-66.5715240882
 20
30.3419521121
 30
0.0
 10
-66.8202885211
 20
30.3361141825
 30
0.0
 10
-67.0539412233
 20
30.3267013993
 30
0.0
 10
-67.2652313654
 20
30.3141271849
 30
0.0
 10
-67.4485851022
 20
30.2985360881
 30
0.0
 10
-67.596418716
 20
30.2813872871
 30
0.0
 10
-67.7100721496
 20
30.2612746048
 30
0.0
 10
-67.7752632566
 20
30.2442897576
 30
0.0
 10
-67.8138695555
 20
30.2244622684
 30
0.0
 10
-67.8149822112
 20
30.213367957
 30
0.0
 11
-66.3150393266
 21
30.3434109654
 31
0.0
 11
-66.5740841118
 21
30.341261826
 31
0.0
 11
-66.8253446484
 21
30.3352694888
 31
0.0
 11
-67.0612705995
 21
30.3256140216
 31
0.0
 11
-67.2747724254
 21
30.312585569
 31
0.0
 11
-67.4594344217
 21
30.2965756325
 31
0.0
 11
-67.6097075093
 21
30.2780653073
 31
0.0
 11
-67.7210759842
 21
30.257610825
 31
0.0
 11
-67.7901932151
 21
30.2358268396
 31
0.0
 11
-67.8149822112
 21
30.213367957
 31
0.0
  0
SPLINE
  5
3D5
100
AcDbEntity
  8
RACCORDO
100
AcDbSpline
 62
253
  6
CONTINUOUS
 70
0
 71
3
 72
15
 73
11
 74
9
 42
0.0000001
 43
0.0000001
 44
0.0000000001
 12
-1.5230032924
 22
-0.0013926097
 32
0.0
 13
-0.1250087497
 23
-1.5178648756
 33
0.0
 40
0.0
 40
0.0
 40
0.0
 40
0.0
 40
0.1911076344
 40
0.37503837
 40
0.5448948629
 40
0.6943407429
 40
0.8178738513
 40
0.9111234345
 40
0.9713548174
 40
1.0
 40
1.0
 40
1.0
 40
1.0
 10
-66.3205173194
 20
36.8775806429
 30
0.0
 10
-66.4175365048
 20
36.8774919301
 30
0.0
 10
-66.6079253166
 20
36.8753953523
 30
0.0
 10
-66.8844746275
 20
36.8665066108
 30
0.0
 10
-67.1394406282
 20
36.8524126673
 30
0.0
 10
-67.3639399829
 20
36.8332993249
 30
0.0
 10
-67.5473115631
 20
36.8113472025
 30
0.0
 10
-67.6888006129
 20
36.7844450483
 30
0.0
 10
-67.7718764689
 20
36.7618157066
 30
0.0
 10
-67.8192665712
 20
36.7340270426
 30
0.0
 10
-67.820460204
 20
36.7195338705
 30
0.0
 11
-66.3205173194
 21
36.8775806429
 31
0.0
 11
-66.6115566324
 21
36.8743110524
 31
0.0
 11
-66.8915343151
 21
36.8651587927
 31
0.0
 11
-67.1498091601
 21
36.8504717169
 31
0.0
 11
-67.3765648274
 21
36.8308080416
 31
0.0
 11
-67.5631829369
 21
36.8069151309
 31
0.0
 11
-67.7025706306
 21
36.7797010908
 31
0.0
 11
-67.7894301528
 21
36.7502002545
 31
0.0
 11
-67.820460204
 21
36.7195338705
 31
0.0
  0
SPLINE
  5
3D6
100
AcDbEntity
  8
RACCORDO
100
AcDbSpline
 62
253
  6
CONTINUOUS
 70
0
 71
3
 72
16
 73
12
 74
10
 42
0.0000001
 43
0.0000001
 44
0.0000000001
 12
-1.5163212033
 22
0.0011428965
 32
0.0
 13
-0.1513206691
 23
1.5087522503
 33
0.0
 40
0.0
 40
0.0
 40
0.0
 40
0.0
 40
0.1708434364
 40
0.33659448
 40
0.4923156515
 40
0.6333800087
 40
0.7556197181
 40
0.8554724523
 40
0.9301474701
 40
0.9779400543
 40
1.0
 40
1.0
 40
1.0
 40
1.0
 10
-66.3150393266
 20
-30.3434109135
 30
0.0
 10
-66.4013905016
 20
-30.343345828
 30
0.0
 10
-66.5715239909
 20
-30.3419520614
 30
0.0
 10
-66.8202883383
 20
-30.336114136
 30
0.0
 10
-67.0539409769
 20
-30.3267013597
 30
0.0
 10
-67.2652310859
 20
-30.3141271519
 30
0.0
 10
-67.4485848209
 20
-30.298536067
 30
0.0
 10
-67.5964184721
 20
-30.2813872632
 30
0.0
 10
-67.710071959
 20
-30.2612746096
 30
0.0
 10
-67.7752631549
 20
-30.2442897189
 30
0.0
 10
-67.8138695027
 20
-30.2244622879
 30
0.0
 10
-67.8149822112
 20
-30.213367957
 30
0.0
 11
-66.3150393266
 21
-30.3434109135
 31
0.0
 11
-66.5740840103
 21
-30.3412617758
 31
0.0
 11
-66.8253444579
 21
-30.3352694431
 31
0.0
 11
-67.0612703431
 21
-30.325613983
 31
0.0
 11
-67.274772134
 21
-30.3125855387
 31
0.0
 11
-67.4594341303
 21
-30.2965756112
 31
0.0
 11
-67.609707253
 21
-30.2780652944
 31
0.0
 11
-67.721075794
 21
-30.257610819
 31
0.0
 11
-67.7901931138
 21
-30.235826838
 31
0.0
 11
-67.8149822112
 21
-30.213367957
 31
0.0
  0
SPLINE
  5
3D7
100
AcDbEntity
  8
RACCORDO
100
AcDbSpline
 62
253
  6
CONTINUOUS
 70
0
 71
3
 72
15
 73
11
 74
9
 42
0.0000001
 43
0.0000001
 44
0.0000000001
 12
-1.5230031542
 22
0.0013925992
 32
0.0
 13
-0.1250244923
 23
1.5178634403
 33
0.0
 40
0.0
 40
0.0
 40
0.0
 40
0.0
 40
0.1911075203
 40
0.3750381563
 40
0.5448945774
 40
0.6943404249
 40
0.8178735485
 40
0.911123199
 40
0.9713546983
 40
1.0
 40
1.0
 40
1.0
 40
1.0
 10
-66.3205173194
 20
-36.8775804377
 30
0.0
 10
-66.4175364381
 20
-36.8774917257
 30
0.0
 10
-66.6079251242
 20
-36.8753951519
 30
0.0
 10
-66.884474265
 20
-36.8665064262
 30
0.0
 10
-67.139440141
 20
-36.852412501
 30
0.0
 10
-67.3639394289
 20
-36.8332991958
 30
0.0
 10
-67.5473110291
 20
-36.811347073
 30
0.0
 10
-67.6888001554
 20
-36.7844450149
 30
0.0
 10
-67.771876192
 20
-36.7618155602
 30
0.0
 10
-67.8192664159
 20
-36.7340270892
 30
0.0
 10
-67.820460204
 20
-36.7195338705
 30
0.0
 11
-66.3205173194
 21
-36.8775804377
 31
0.0
 11
-66.6115564322
 21
-36.874310854
 31
0.0
 11
-66.8915339382
 21
-36.86515861
 31
0.0
 11
-67.1498086516
 21
-36.8504715574
 31
0.0
 11
-67.376564251
 21
-36.8308079115
 31
0.0
 11
-67.5631823709
 21
-36.806915034
 31
0.0
 11
-67.7025701627
 21
-36.7797010284
 31
0.0
 11
-67.7894298744
 21
-36.7502002254
 31
0.0
 11
-67.820460204
 21
-36.7195338705
 31
0.0
  0
SPLINE
  5
3D8
100
AcDbEntity
  8
RACCORDO
100
AcDbSpline
 62
7
  6
CONTINUOUS
 70
0
 71
3
 72
13
 73
9
 74
7
 42
0.0000001
 43
0.0000001
 44
0.0000000001
 12
0.046088074
 22
60.6868104484
 32
0.0
 13
-0.046088074
 23
60.6868104484
 33
0.0
 40
0.0
 40
0.0
 40
0.0
 40
0.0
 40
0.1664329633
 40
0.3331466242
 40
0.5
 40
0.6668533758
 40
0.8335670367
 40
1.0
 40
1.0
 40
1.0
 40
1.0
 10
66.3150393266
 20
-30.3434111476
 30
0.0
 10
66.3175961849
 20
-26.9766492492
 30
0.0
 10
66.3218561172
 20
-20.2374465543
 30
0.0
 10
66.3256879444
 20
-10.1229758524
 30
0.0
 10
66.3269655759
 20
0.0000000011
 30
0.0
 10
66.3256879444
 20
10.1229758542
 30
0.0
 10
66.3218561172
 20
20.2374465554
 30
0.0
 10
66.3175961849
 20
26.9766492496
 30
0.0
 10
66.3150393266
 20
30.3434111476
 30
0.0
 11
66.3150393266
 21
-30.3434111476
 31
0.0
 11
66.3214265438
 21
-20.2431245594
 31
0.0
 11
66.3252610538
 21
-10.1258020269
 31
0.0
 11
66.3265395798
 21
0.0000000012
 31
0.0
 11
66.3252610538
 21
10.1258020289
 31
0.0
 11
66.3214265438
 21
20.2431245606
 31
0.0
 11
66.3150393266
 21
30.3434111476
 31
0.0
  0
SPLINE
  5
3D9
100
AcDbEntity
  8
RACCORDO
100
AcDbSpline
 62
253
  6
CONTINUOUS
 70
0
 71
3
 72
18
 73
14
 74
12
 42
0.0000001
 43
0.0000001
 44
0.0000000001
 12
2.5633968397
 22
-3.666088901
 32
0.0
 13
0.0028965722
 23
-4.4733882905
 33
0.0
 40
0.0
 40
0.0
 40
0.0
 40
0.0
 40
0.0111088755
 40
0.0415657047
 40
0.0908593744
 40
0.1581251231
 40
0.2421911365
 40
0.3415855502
 40
0.4545658679
 40
0.5791513657
 40
0.713170934
 40
0.8542645956
 40
1.0
 40
1.0
 40
1.0
 40
1.0
 10
-66.3506253289
 20
41.3505684444
 30
0.0
 10
-66.3411331768
 20
41.3369930693
 30
0.0
 10
-66.3541897269
 20
41.2684849409
 30
0.0
 10
-66.3362867918
 20
41.1390470224
 30
0.0
 10
-66.3407066993
 20
40.9165655399
 30
0.0
 10
-66.3338717184
 20
40.618829719
 30
0.0
 10
-66.3319232138
 20
40.2444520142
 30
0.0
 10
-66.3285645515
 20
39.8026113356
 30
0.0
 10
-66.326152688
 20
39.3001071952
 30
0.0
 10
-66.3239697594
 20
38.7460475584
 30
0.0
 10
-66.3223020391
 20
38.1500416618
 30
0.0
 10
-66.3211061325
 20
37.5225044288
 30
0.0
 10
-66.3206579401
 20
37.0948048775
 30
0.0
 10
-66.320517229
 20
36.877494527
 30
0.0
 11
-66.3506253289
 21
41.3505684444
 31
0.0
 11
-66.3465945686
 21
41.3010378599
 31
0.0
 11
-66.3426399667
 21
41.1648500124
 31
0.0
 11
-66.338829443
 21
40.944373168
 31
0.0
 11
-66.3352303299
 21
40.6434888175
 31
0.0
 11
-66.3319052597
 21
40.2674435189
 31
0.0
 11
-66.3289125641
 21
39.822823691
 31
0.0
 11
-66.3263046948
 21
39.3174254831
 31
0.0
 11
-66.3241273471
 21
38.7601103124
 31
0.0
 11
-66.3224184382
 21
38.1605910546
 31
0.0
 11
-66.3212080974
 21
37.5294253491
 31
0.0
 11
-66.320517229
 21
36.877494527
 31
0.0
  0
SPLINE
  5
3DA
100
AcDbEntity
  8
RACCORDO
100
AcDbSpline
 62
253
  6
CONTINUOUS
 70
0
 71
3
 72
18
 73
14
 74
12
 42
0.0000001
 43
0.0000001
 44
0.0000000001
 12
0.0028965724
 22
4.4733883981
 32
0.0
 13
2.5633969262
 23
3.6660889718
 33
0.0
 40
0.0
 40
0.0
 40
0.0
 40
0.0
 40
0.1457354249
 40
0.2868290831
 40
0.4208486482
 40
0.5454341431
 40
0.6584144581
 40
0.7578088694
 40
0.8418748807
 40
0.9091406278
 40
0.9584342963
 40
0.9888911248
 40
1.0
 40
1.0
 40
1.0
 40
1.0
 10
66.3205172289
 20
36.8774944195
 30
0.0
 10
66.32065794
 20
37.0948048058
 30
0.0
 10
66.3211061324
 20
37.5225043929
 30
0.0
 10
66.3223020391
 20
38.1500416618
 30
0.0
 10
66.3239697594
 20
38.7460475584
 30
0.0
 10
66.326152688
 20
39.3001071952
 30
0.0
 10
66.3285645515
 20
39.8026113356
 30
0.0
 10
66.3319232138
 20
40.2444520142
 30
0.0
 10
66.3338717184
 20
40.618829719
 30
0.0
 10
66.3407066994
 20
40.9165655399
 30
0.0
 10
66.3362867917
 20
41.1390470224
 30
0.0
 10
66.354189727
 20
41.2684849408
 30
0.0
 10
66.3411331767
 20
41.3369930694
 30
0.0
 10
66.3506253289
 20
41.3505684444
 30
0.0
 11
66.3205172289
 21
36.8774944195
 31
0.0
 11
66.3212080974
 21
37.5294253491
 31
0.0
 11
66.3224184382
 21
38.1605910546
 31
0.0
 11
66.3241273471
 21
38.7601103124
 31
0.0
 11
66.3263046948
 21
39.3174254831
 31
0.0
 11
66.3289125641
 21
39.822823691
 31
0.0
 11
66.3319052597
 21
40.2674435189
 31
0.0
 11
66.3352303299
 21
40.6434888175
 31
0.0
 11
66.338829443
 21
40.944373168
 31
0.0
 11
66.3426399667
 21
41.1648500124
 31
0.0
 11
66.3465945686
 21
41.3010378599
 31
0.0
 11
66.3506253289
 21
41.3505684444
 31
0.0
  0
SPLINE
  5
3DB
100
AcDbEntity
  8
RACCORDO
100
AcDbSpline
 62
7
  6
CONTINUOUS
 70
0
 71
3
 72
16
 73
12
 74
10
 42
0.0000001
 43
0.0000001
 44
0.0000000001
 12
-0.0505017044
 22
1.2163978908
 32
0.0
 13
-1.2174457897
 23
0.0
 33
0.0
 40
0.0
 40
0.0
 40
0.0
 40
0.0
 40
0.0678184749
 40
0.1511466223
 40
0.2496628759
 40
0.3621619295
 40
0.4850195979
 40
0.6122669967
 40
0.7424074675
 40
0.8727442382
 40
1.0
 40
1.0
 40
1.0
 40
1.0
 10
-25.1661277497
 20
-40.9599648383
 30
0.0
 10
-25.1672693992
 20
-40.932466755
 30
0.0
 10
-25.1841790752
 20
-40.8717952372
 30
0.0
 10
-25.2396007158
 20
-40.7859779453
 30
0.0
 10
-25.323354592
 20
-40.6999686378
 30
0.0
 10
-25.4319291058
 20
-40.6182022146
 30
0.0
 10
-25.5602295948
 20
-40.5453809908
 30
0.0
 10
-25.7028295025
 20
-40.4855217271
 30
0.0
 10
-25.8542660391
 20
-40.441542218
 30
0.0
 10
-26.0097059202
 20
-40.4150897101
 30
0.0
 10
-26.1143331144
 20
-40.4092495092
 30
0.0
 10
-26.1659754449
 20
-40.4092495092
 30
0.0
 11
-25.1661277497
 21
-40.9599648383
 31
0.0
 11
-25.1857945271
 21
-40.8797760024
 31
0.0
 11
-25.2386179274
 21
-40.7931660487
 31
0.0
 11
-25.321245627
 21
-40.7062302411
 31
0.0
 11
-25.4301002579
 21
-40.6231091152
 31
0.0
 11
-25.5599551942
 21
-40.5488821418
 31
0.0
 11
-25.702723206
 21
-40.4887446928
 31
0.0
 11
-25.8548601651
 21
-40.4445038478
 31
0.0
 11
-26.0112892253
 21
-40.4178835211
 31
0.0
 11
-26.1659754449
 21
-40.4092495092
 31
0.0
  0
SPLINE
  5
3DC
100
AcDbEntity
  8
RACCORDO
100
AcDbSpline
 62
253
  6
CONTINUOUS
 70
0
 71
3
 72
18
 73
14
 74
12
 42
0.0000001
 43
0.0000001
 44
0.0000000001
 12
-0.0028966798
 22
-4.4733914471
 32
0.0
 13
-2.5634334093
 23
-3.6660671824
 33
0.0
 40
0.0
 40
0.0
 40
0.0
 40
0.0
 40
0.1457358847
 40
0.2868294767
 40
0.4208489423
 40
0.5454343612
 40
0.658414632
 40
0.7578089843
 40
0.8418749319
 40
0.9091406471
 40
0.9584343017
 40
0.9888911196
 40
1.0
 40
1.0
 40
1.0
 40
1.0
 10
-66.3205172257
 20
-36.8774913428
 30
0.0
 10
-66.3206579424
 20
-37.0948025628
 30
0.0
 10
-66.3211061245
 20
-37.5225030284
 30
0.0
 10
-66.3223020405
 20
-38.1500411635
 30
0.0
 10
-66.3239697539
 20
-38.7460471063
 30
0.0
 10
-66.3261526842
 20
-39.3001067926
 30
0.0
 10
-66.3285645421
 20
-39.8026110102
 30
0.0
 10
-66.331923212
 20
-40.2444517353
 30
0.0
 10
-66.3338716919
 20
-40.618829481
 30
0.0
 10
-66.3407067396
 20
-40.9165652979
 30
0.0
 10
-66.3362866725
 20
-41.1390469512
 30
0.0
 10
-66.3541899062
 20
-41.2684847399
 30
0.0
 10
-66.3411330187
 20
-41.3369931173
 30
0.0
 10
-66.3506253104
 20
-41.3505684179
 30
0.0
 11
-66.3205172257
 21
-36.8774913428
 31
0.0
 11
-66.3212080949
 21
-37.5294247735
 31
0.0
 11
-66.3224184373
 21
-38.1605906133
 31
0.0
 11
-66.3241273429
 21
-38.7601098346
 31
0.0
 11
-66.3263046895
 21
-39.3174250454
 31
0.0
 11
-66.3289125572
 21
-39.8228234001
 31
0.0
 11
-66.3319052517
 21
-40.2674432669
 31
0.0
 11
-66.3352303213
 21
-40.6434885368
 31
0.0
 11
-66.3388294341
 21
-40.9443729499
 31
0.0
 11
-66.3426399599
 21
-41.1648498823
 31
0.0
 11
-66.3465945593
 21
-41.3010377755
 31
0.0
 11
-66.3506253104
 21
-41.3505684179
 31
0.0
  0
SPLINE
  5
3DD
100
AcDbEntity
  8
RACCORDO
100
AcDbSpline
 62
7
  6
CONTINUOUS
 70
0
 71
3
 72
16
 73
12
 74
10
 42
0.0000001
 43
0.0000001
 44
0.0000000001
 12
-1.2174457897
 22
0.0
 32
0.0
 13
-0.0505017044
 23
-1.2163978908
 33
0.0
 40
0.0
 40
0.0
 40
0.0
 40
0.0
 40
0.1272557618
 40
0.2575925325
 40
0.3877330033
 40
0.5149804021
 40
0.6378380705
 40
0.7503371241
 40
0.8488533777
 40
0.9321815251
 40
1.0
 40
1.0
 40
1.0
 40
1.0
 10
26.1659754449
 20
-40.4092495092
 30
0.0
 10
26.1143331144
 20
-40.4092495092
 30
0.0
 10
26.0097059202
 20
-40.4150897101
 30
0.0
 10
25.8542660391
 20
-40.441542218
 30
0.0
 10
25.7028295025
 20
-40.4855217271
 30
0.0
 10
25.5602295948
 20
-40.5453809908
 30
0.0
 10
25.4319291058
 20
-40.6182022146
 30
0.0
 10
25.323354592
 20
-40.6999686378
 30
0.0
 10
25.2396007158
 20
-40.7859779453
 30
0.0
 10
25.1841790752
 20
-40.8717952372
 30
0.0
 10
25.1672693992
 20
-40.932466755
 30
0.0
 10
25.1661277497
 20
-40.9599648383
 30
0.0
 11
26.1659754449
 21
-40.4092495092
 31
0.0
 11
26.0112892253
 21
-40.4178835211
 31
0.0
 11
25.8548601651
 21
-40.4445038478
 31
0.0
 11
25.702723206
 21
-40.4887446928
 31
0.0
 11
25.5599551942
 21
-40.5488821418
 31
0.0
 11
25.4301002579
 21
-40.6231091152
 31
0.0
 11
25.321245627
 21
-40.7062302411
 31
0.0
 11
25.2386179274
 21
-40.7931660487
 31
0.0
 11
25.1857945271
 21
-40.8797760024
 31
0.0
 11
25.1661277497
 21
-40.9599648383
 31
0.0
  0
SPLINE
  5
3DE
100
AcDbEntity
  8
RACCORDO
100
AcDbSpline
 62
253
  6
CONTINUOUS
 70
0
 71
3
 72
18
 73
14
 74
12
 42
0.0000001
 43
0.0000001
 44
0.0000000001
 12
-2.5634333196
 22
3.666067115
 32
0.0
 13
-0.0028966796
 23
4.4733913405
 33
0.0
 40
0.0
 40
0.0
 40
0.0
 40
0.0
 40
0.0111088806
 40
0.0415656993
 40
0.090859355
 40
0.1581250719
 40
0.2421910215
 40
0.3415853761
 40
0.4545656496
 40
0.5791510715
 40
0.7131705403
 40
0.8542641357
 40
1.0
 40
1.0
 40
1.0
 40
1.0
 10
66.3506253104
 20
-41.3505684179
 30
0.0
 10
66.3411330188
 20
-41.3369931172
 30
0.0
 10
66.3541899061
 20
-41.26848474
 30
0.0
 10
66.3362866726
 20
-41.1390469511
 30
0.0
 10
66.3407067395
 20
-40.9165652979
 30
0.0
 10
66.3338716919
 20
-40.618829481
 30
0.0
 10
66.331923212
 20
-40.2444517353
 30
0.0
 10
66.3285645421
 20
-39.8026110102
 30
0.0
 10
66.3261526842
 20
-39.3001067926
 30
0.0
 10
66.3239697539
 20
-38.7460471063
 30
0.0
 10
66.3223020405
 20
-38.1500411635
 30
0.0
 10
66.3211061246
 20
-37.522503064
 30
0.0
 10
66.3206579425
 20
-37.0948026339
 30
0.0
 10
66.3205172258
 20
-36.8774914495
 30
0.0
 11
66.3506253104
 21
-41.3505684179
 31
0.0
 11
66.3465945593
 21
-41.3010377755
 31
0.0
 11
66.3426399599
 21
-41.1648498823
 31
0.0
 11
66.3388294341
 21
-40.9443729499
 31
0.0
 11
66.3352303213
 21
-40.6434885368
 31
0.0
 11
66.3319052517
 21
-40.2674432669
 31
0.0
 11
66.3289125572
 21
-39.8228234001
 31
0.0
 11
66.3263046895
 21
-39.3174250454
 31
0.0
 11
66.3241273429
 21
-38.7601098346
 31
0.0
 11
66.3224184373
 21
-38.1605906133
 31
0.0
 11
66.3212080949
 21
-37.5294247735
 31
0.0
 11
66.3205172258
 21
-36.8774914495
 31
0.0
  0
SPLINE
  5
3DF
100
AcDbEntity
  8
RACCORDO
100
AcDbSpline
 62
7
  6
CONTINUOUS
 70
0
 71
3
 72
13
 73
9
 74
7
 42
0.0000001
 43
0.0000001
 44
0.0000000001
 12
-0.046088074
 22
-60.6868104485
 32
0.0
 13
0.046088074
 23
-60.6868104485
 33
0.0
 40
0.0
 40
0.0
 40
0.0
 40
0.0
 40
0.1664329633
 40
0.3331466242
 40
0.5
 40
0.6668533758
 40
0.8335670367
 40
1.0
 40
1.0
 40
1.0
 40
1.0
 10
-66.3150393266
 20
30.3434111476
 30
0.0
 10
-66.3175961849
 20
26.9766492497
 30
0.0
 10
-66.3218561172
 20
20.2374465556
 30
0.0
 10
-66.3256879444
 20
10.1229758545
 30
0.0
 10
-66.3269655759
 20
0.0000000013
 30
0.0
 10
-66.3256879444
 20
-10.1229758522
 30
0.0
 10
-66.3218561172
 20
-20.2374465542
 30
0.0
 10
-66.3175961849
 20
-26.9766492492
 30
0.0
 10
-66.3150393266
 20
-30.3434111476
 30
0.0
 11
-66.3150393266
 21
30.3434111476
 31
0.0
 11
-66.3214265438
 21
20.2431245609
 31
0.0
 11
-66.3252610538
 21
10.1258020291
 31
0.0
 11
-66.3265395798
 21
0.0000000014
 31
0.0
 11
-66.3252610538
 21
-10.1258020267
 31
0.0
 11
-66.3214265438
 21
-20.2431245592
 31
0.0
 11
-66.3150393266
 21
-30.3434111476
 31
0.0
  0
SPLINE
  5
3E0
100
AcDbEntity
  8
RACCORDO
100
AcDbSpline
 62
253
  6
CONTINUOUS
 70
0
 71
3
 72
18
 73
14
 74
12
 42
0.0000001
 43
0.0000001
 44
0.0000000001
 12
0.0028966289
 22
3.1315396147
 32
0.0
 13
2.2093731433
 23
2.219283457
 33
0.0
 40
0.0
 40
0.0
 40
0.0
 40
0.0
 40
0.1456125864
 40
0.2867225393
 40
0.4207593707
 40
0.5453618624
 40
0.658357986
 40
0.7577656379
 40
0.8418408686
 40
0.9091121376
 40
0.9584084803
 40
0.9888691961
 40
1.0
 40
1.0
 40
1.0
 40
1.0
 10
67.820460204
 20
36.7195338705
 30
0.0
 10
67.8206007992
 20
36.8715310647
 30
0.0
 10
67.8210489079
 20
37.1708256899
 30
0.0
 10
67.8222436164
 20
37.6100307684
 30
0.0
 10
67.8239138318
 20
38.0273107439
 30
0.0
 10
67.8260886126
 20
38.4152150567
 30
0.0
 10
67.8285277305
 20
38.7670548736
 30
0.0
 10
67.8318041196
 20
39.0763176002
 30
0.0
 10
67.8339930143
 20
39.3386340905
 30
0.0
 10
67.8401884806
 20
39.546481164
 30
0.0
 10
67.8372691803
 20
39.7035861706
 30
0.0
 10
67.8524370759
 20
39.7917006051
 30
0.0
 10
67.842370313
 20
39.8423906585
 30
0.0
 10
67.8505676793
 20
39.8506247947
 30
0.0
 11
67.820460204
 21
36.7195338705
 31
0.0
 11
67.8211503449
 21
37.1755251259
 31
0.0
 11
67.8223605833
 21
37.6174150654
 31
0.0
 11
67.8240695146
 21
38.0371534132
 31
0.0
 11
67.8262470791
 21
38.4273451429
 31
0.0
 11
67.8288553112
 21
38.7811875188
 31
0.0
 11
67.831848515
 21
39.0924722614
 31
0.0
 11
67.8351741625
 21
39.3557362852
 31
0.0
 11
67.8387739226
 21
39.5663682607
 31
0.0
 11
67.8425850363
 21
39.7206947261
 31
0.0
 11
67.8465403624
 21
39.8160016658
 31
0.0
 11
67.8505676793
 21
39.8506247947
 31
0.0
  0
SPLINE
  5
3E1
100
AcDbEntity
  8
RACCORDO
100
AcDbSpline
 62
253
  6
CONTINUOUS
 70
0
 71
3
 72
9
 73
5
 74
3
 42
0.0000001
 43
0.0000001
 44
0.0000000001
 12
0.0049410474
 22
6.506166349
 32
0.0
 13
0.0060159053
 23
6.5061654439
 33
0.0
 40
0.0
 40
0.0
 40
0.0
 40
0.0
 40
0.4960226552
 40
1.0
 40
1.0
 40
1.0
 40
1.0
 10
67.8149822112
 20
30.2133679569
 30
0.0
 10
67.8157991684
 20
31.2891032595
 30
0.0
 10
67.8175348367
 20
33.4578253094
 30
0.0
 10
67.8194495773
 20
35.6265472088
 30
0.0
 10
67.820460204
 20
36.7195338705
 30
0.0
 11
67.8149822112
 21
30.2133679569
 31
0.0
 11
67.8175650887
 21
33.4405737617
 31
0.0
 11
67.820460204
 21
36.7195338705
 31
0.0
  0
SPLINE
  5
3E2
100
AcDbEntity
  8
RACCORDO
100
AcDbSpline
 62
253
  6
CONTINUOUS
 70
0
 71
3
 72
15
 73
11
 74
9
 42
0.0000001
 43
0.0000001
 44
0.0000000001
 12
-0.0458905539
 22
60.4267241898
 32
0.0
 13
0.0458905539
 23
60.4267241898
 33
0.0
 40
0.0
 40
0.0
 40
0.0
 40
0.0
 40
0.1248134424
 40
0.2497884851
 40
0.3748676307
 40
0.5000000009
 40
0.6251323712
 40
0.7502115169
 40
0.8751865589
 40
1.0
 40
1.0
 40
1.0
 40
1.0
 10
67.8149822112
 20
-30.2133679569
 30
0.0
 10
67.8130729586
 20
-27.6993454702
 30
0.0
 10
67.809732208
 20
-22.6680451284
 30
0.0
 10
67.8061542467
 20
-15.1173694458
 30
0.0
 10
67.8040069195
 20
-7.5602692955
 30
0.0
 10
67.8032910579
 20
0.0000000574
 30
0.0
 10
67.8040069195
 20
7.5602694105
 30
0.0
 10
67.8061542467
 20
15.1173695509
 30
0.0
 10
67.809732208
 20
22.6680451948
 30
0.0
 10
67.8130729586
 20
27.6993454976
 30
0.0
 10
67.8149822112
 20
30.2133679569
 30
0.0
 11
67.8149822112
 21
-30.2133679569
 31
0.0
 11
67.8099732148
 21
-22.6712999852
 31
0.0
 11
67.8063939207
 21
-15.1194662236
 31
0.0
 11
67.8042458333
 21
-7.5613413122
 31
0.0
 11
67.8035297122
 21
0.000000056
 31
0.0
 11
67.8042458333
 21
7.5613414282
 31
0.0
 11
67.8063939208
 21
15.1194663407
 31
0.0
 11
67.8099732149
 21
22.6713000673
 31
0.0
 11
67.8149822112
 21
30.2133679569
 31
0.0
  0
SPLINE
  5
3E3
100
AcDbEntity
  8
RACCORDO
100
AcDbSpline
 62
253
  6
CONTINUOUS
 70
0
 71
3
 72
9
 73
5
 74
3
 42
0.0000001
 43
0.0000001
 44
0.0000000001
 12
-0.0060159079
 22
6.5061654439
 32
0.0
 13
-0.0049410504
 23
6.506166349
 33
0.0
 40
0.0
 40
0.0
 40
0.0
 40
0.0
 40
0.5036103858
 40
1.0
 40
1.0
 40
1.0
 40
1.0
 10
67.820460204
 20
-36.7195338705
 30
0.0
 10
67.8194503127
 20
-35.6273430408
 30
0.0
 10
67.8175355014
 20
-33.4586211415
 30
0.0
 10
67.8157997733
 20
-31.2898990917
 30
0.0
 10
67.8149822112
 20
-30.2133679569
 30
0.0
 11
67.820460204
 21
-36.7195338705
 31
0.0
 11
67.8175670947
 21
-33.442961258
 31
0.0
 11
67.8149822112
 21
-30.2133679569
 31
0.0
  0
SPLINE
  5
3E4
100
AcDbEntity
  8
RACCORDO
100
AcDbSpline
 62
253
  6
CONTINUOUS
 70
0
 71
3
 72
18
 73
14
 74
12
 42
0.0000001
 43
0.0000001
 44
0.0000000001
 12
-2.2095027498
 22
2.2191544143
 32
0.0
 13
-0.0028966572
 23
3.1315396094
 33
0.0
 40
0.0
 40
0.0
 40
0.0
 40
0.0
 40
0.0111320047
 40
0.0415938981
 40
0.0908915768
 40
0.1581642167
 40
0.2422408505
 40
0.3416495286
 40
0.4546461425
 40
0.5792488911
 40
0.713285786
 40
0.8543956507
 40
1.0
 40
1.0
 40
1.0
 40
1.0
 10
67.8505676793
 20
-39.8506247947
 30
0.0
 10
67.8423689477
 20
-39.8423902489
 30
0.0
 10
67.8524379726
 20
-39.7916960645
 30
0.0
 10
67.8372684166
 20
-39.7035789788
 30
0.0
 10
67.8401884756
 20
-39.5464693166
 30
0.0
 10
67.8339927057
 20
-39.3386181946
 30
0.0
 10
67.831803931
 20
-39.0762976505
 30
0.0
 10
67.8285275328
 20
-38.7670319047
 30
0.0
 10
67.8260884587
 20
-38.4151902283
 30
0.0
 10
67.8239137098
 20
-38.0272850722
 30
0.0
 10
67.8222435321
 20
-37.6100048541
 30
0.0
 10
67.8210488757
 20
-37.1708084005
 30
0.0
 10
67.8206007926
 20
-36.8715224662
 30
0.0
 10
67.820460204
 20
-36.7195338705
 30
0.0
 11
67.8505676793
 21
-39.8506247947
 31
0.0
 11
67.8465401329
 21
-39.8159979066
 31
0.0
 11
67.8425848013
 21
-39.7206872768
 31
0.0
 11
67.8387736858
 21
-39.5663566269
 31
0.0
 11
67.8351739292
 21
-39.3557203577
 31
0.0
 11
67.8318482914
 21
-39.09245194
 31
0.0
 11
67.8288551131
 21
-38.7811639839
 31
0.0
 11
67.8262469182
 21
-38.4273200729
 31
0.0
 11
67.8240693907
 21
-38.0371275392
 31
0.0
 11
67.8223604959
 21
-37.6173889928
 31
0.0
 11
67.8211502901
 21
-37.1754993304
 31
0.0
 11
67.820460204
 21
-36.7195338705
 31
0.0
  0
SPLINE
  5
3E5
100
AcDbEntity
  8
RACCORDO
100
AcDbSpline
 62
253
  6
CONTINUOUS
 70
0
 71
3
 72
18
 73
14
 74
12
 42
0.0000001
 43
0.0000001
 44
0.0000000001
 12
-0.0028966573
 22
-3.1315396094
 32
0.0
 13
-2.2095029391
 23
-2.2191542259
 33
0.0
 40
0.0
 40
0.0
 40
0.0
 40
0.0
 40
0.1456043493
 40
0.286714214
 40
0.4207511089
 40
0.5453538575
 40
0.6583504714
 40
0.7577591495
 40
0.8418357833
 40
0.9091084233
 40
0.9584061019
 40
0.9888679953
 40
1.0
 40
1.0
 40
1.0
 40
1.0
 10
-67.820460204
 20
-36.7195338705
 30
0.0
 10
-67.8206007926
 20
-36.8715224662
 30
0.0
 10
-67.8210488757
 20
-37.1708084005
 30
0.0
 10
-67.8222435321
 20
-37.6100048541
 30
0.0
 10
-67.8239137098
 20
-38.0272850722
 30
0.0
 10
-67.8260884587
 20
-38.4151902283
 30
0.0
 10
-67.8285275327
 20
-38.7670319047
 30
0.0
 10
-67.831803931
 20
-39.0762976505
 30
0.0
 10
-67.8339927056
 20
-39.3386181947
 30
0.0
 10
-67.8401884759
 20
-39.5464693164
 30
0.0
 10
-67.837268416
 20
-39.7035789794
 30
0.0
 10
-67.8524379736
 20
-39.7916960636
 30
0.0
 10
-67.842368947
 20
-39.8423902496
 30
0.0
 10
-67.8505676793
 20
-39.8506247947
 30
0.0
 11
-67.820460204
 21
-36.7195338705
 31
0.0
 11
-67.8211502901
 21
-37.1754993304
 31
0.0
 11
-67.8223604959
 21
-37.6173889928
 31
0.0
 11
-67.8240693907
 21
-38.0371275392
 31
0.0
 11
-67.8262469182
 21
-38.4273200729
 31
0.0
 11
-67.8288551131
 21
-38.7811639839
 31
0.0
 11
-67.8318482914
 21
-39.09245194
 31
0.0
 11
-67.8351739292
 21
-39.3557203577
 31
0.0
 11
-67.8387736858
 21
-39.5663566269
 31
0.0
 11
-67.8425848013
 21
-39.7206872768
 31
0.0
 11
-67.8465401329
 21
-39.8159979066
 31
0.0
 11
-67.8505676793
 21
-39.8506247947
 31
0.0
  0
SPLINE
  5
3E6
100
AcDbEntity
  8
RACCORDO
100
AcDbSpline
 62
253
  6
CONTINUOUS
 70
0
 71
3
 72
9
 73
5
 74
3
 42
0.0000001
 43
0.0000001
 44
0.0000000001
 12
-0.0049410473
 22
-6.506166349
 32
0.0
 13
-0.0060159055
 23
-6.5061654439
 33
0.0
 40
0.0
 40
0.0
 40
0.0
 40
0.0
 40
0.4960226648
 40
1.0
 40
1.0
 40
1.0
 40
1.0
 10
-67.8149822112
 20
-30.213367957
 30
0.0
 10
-67.8157991684
 20
-31.2891032804
 30
0.0
 10
-67.8175348366
 20
-33.4578253303
 30
0.0
 10
-67.8194495773
 20
-35.6265472296
 30
0.0
 10
-67.820460204
 20
-36.7195338705
 30
0.0
 11
-67.8149822112
 21
-30.213367957
 31
0.0
 11
-67.8175650887
 21
-33.4405738243
 31
0.0
 11
-67.820460204
 21
-36.7195338705
 31
0.0
  0
SPLINE
  5
3E7
100
AcDbEntity
  8
RACCORDO
100
AcDbSpline
 62
253
  6
CONTINUOUS
 70
0
 71
3
 72
15
 73
11
 74
9
 42
0.0000001
 43
0.0000001
 44
0.0000000001
 12
0.0458905539
 22
-60.4267241898
 32
0.0
 13
-0.0458905539
 23
-60.4267241898
 33
0.0
 40
0.0
 40
0.0
 40
0.0
 40
0.0
 40
0.1248134411
 40
0.2497884831
 40
0.3748676288
 40
0.4999999991
 40
0.6251323693
 40
0.7502115149
 40
0.8751865576
 40
1.0
 40
1.0
 40
1.0
 40
1.0
 10
-67.8149822112
 20
30.213367957
 30
0.0
 10
-67.8130729586
 20
27.6993454976
 30
0.0
 10
-67.809732208
 20
22.6680451948
 30
0.0
 10
-67.8061542467
 20
15.1173695509
 30
0.0
 10
-67.8040069195
 20
7.5602694105
 30
0.0
 10
-67.8032910579
 20
0.0000000573
 30
0.0
 10
-67.8040069195
 20
-7.5602692955
 30
0.0
 10
-67.8061542467
 20
-15.1173694458
 30
0.0
 10
-67.809732208
 20
-22.6680451284
 30
0.0
 10
-67.8130729586
 20
-27.6993454702
 30
0.0
 10
-67.8149822112
 20
-30.213367957
 30
0.0
 11
-67.8149822112
 21
30.213367957
 31
0.0
 11
-67.8099732149
 21
22.6713000673
 31
0.0
 11
-67.8063939208
 21
15.1194663407
 31
0.0
 11
-67.8042458333
 21
7.5613414282
 31
0.0
 11
-67.8035297122
 21
0.000000056
 31
0.0
 11
-67.8042458333
 21
-7.5613413122
 31
0.0
 11
-67.8063939207
 21
-15.1194662236
 31
0.0
 11
-67.8099732148
 21
-22.6712999852
 31
0.0
 11
-67.8149822112
 21
-30.213367957
 31
0.0
  0
SPLINE
  5
3E8
100
AcDbEntity
  8
RACCORDO
100
AcDbSpline
 62
253
  6
CONTINUOUS
 70
0
 71
3
 72
9
 73
5
 74
3
 42
0.0000001
 43
0.0000001
 44
0.0000000001
 12
0.0060159077
 22
-6.5061654439
 32
0.0
 13
0.0049410505
 23
-6.506166349
 33
0.0
 40
0.0
 40
0.0
 40
0.0
 40
0.0
 40
0.5036095581
 40
1.0
 40
1.0
 40
1.0
 40
1.0
 10
-67.820460204
 20
36.7195338705
 30
0.0
 10
-67.8194503144
 20
35.6273448358
 30
0.0
 10
-67.8175355029
 20
33.4586229365
 30
0.0
 10
-67.8157997747
 20
31.2899008867
 30
0.0
 10
-67.8149822112
 20
30.213367957
 30
0.0
 11
-67.820460204
 21
36.7195338705
 31
0.0
 11
-67.8175670992
 21
33.4429666431
 31
0.0
 11
-67.8149822112
 21
30.213367957
 31
0.0
  0
SPLINE
  5
3E9
100
AcDbEntity
  8
RACCORDO
100
AcDbSpline
 62
253
  6
CONTINUOUS
 70
0
 71
3
 72
18
 73
14
 74
12
 42
0.0000001
 43
0.0000001
 44
0.0000000001
 12
2.2093729686
 22
-2.2192836309
 32
0.0
 13
0.0028966289
 23
-3.1315396147
 33
0.0
 40
0.0
 40
0.0
 40
0.0
 40
0.0
 40
0.0111308039
 40
0.0415915197
 40
0.0908878625
 40
0.1581591314
 40
0.2422343621
 40
0.341642014
 40
0.4546381376
 40
0.5792406293
 40
0.7132774607
 40
0.8543874136
 40
1.0
 40
1.0
 40
1.0
 40
1.0
 10
-67.8505676793
 20
39.8506247947
 30
0.0
 10
-67.8423703136
 20
39.8423906578
 30
0.0
 10
-67.8524370751
 20
39.7917006059
 30
0.0
 10
-67.8372691808
 20
39.7035861701
 30
0.0
 10
-67.8401884804
 20
39.5464811643
 30
0.0
 10
-67.8339930144
 20
39.3386340904
 30
0.0
 10
-67.8318041196
 20
39.0763176002
 30
0.0
 10
-67.8285277305
 20
38.7670548736
 30
0.0
 10
-67.8260886126
 20
38.4152150567
 30
0.0
 10
-67.8239138318
 20
38.0273107439
 30
0.0
 10
-67.8222436164
 20
37.6100307684
 30
0.0
 10
-67.8210489079
 20
37.1708256899
 30
0.0
 10
-67.8206007992
 20
36.8715310647
 30
0.0
 10
-67.820460204
 20
36.7195338705
 30
0.0
 11
-67.8505676793
 21
39.8506247947
 31
0.0
 11
-67.8465403624
 21
39.8160016658
 31
0.0
 11
-67.8425850363
 21
39.7206947261
 31
0.0
 11
-67.8387739226
 21
39.5663682607
 31
0.0
 11
-67.8351741625
 21
39.3557362853
 31
0.0
 11
-67.831848515
 21
39.0924722614
 31
0.0
 11
-67.8288553112
 21
38.7811875188
 31
0.0
 11
-67.8262470791
 21
38.4273451429
 31
0.0
 11
-67.8240695146
 21
38.0371534132
 31
0.0
 11
-67.8223605833
 21
37.6174150654
 31
0.0
 11
-67.8211503449
 21
37.1755251259
 31
0.0
 11
-67.820460204
 21
36.7195338705
 31
0.0
  0
SPLINE
  5
3EA
100
AcDbEntity
  8
RACCORDO
100
AcDbSpline
 62
253
  6
CONTINUOUS
 70
0
 71
3
 72
15
 73
11
 74
9
 42
0.0000001
 43
0.0000001
 44
0.0000000001
 12
-1.5000156269
 22
-0.0130904381
 32
0.0
 13
0.0130894413
 23
-1.5000156356
 33
0.0
 40
0.0
 40
0.0
 40
0.0
 40
0.0
 40
0.0192871949
 40
0.0762082942
 40
0.1686174673
 40
0.2929702397
 40
0.4444906759
 40
0.6173577812
 40
0.8049298659
 40
1.0
 40
1.0
 40
1.0
 40
1.0
 10
-147.723951881
 20
41.3505676793
 30
0.0
 10
-147.7335955789
 20
41.3504835201
 30
0.0
 10
-147.7157021022
 20
41.2895420348
 30
0.0
 10
-147.7353650069
 20
41.226915614
 30
0.0
 10
-147.7261277943
 20
41.0781192077
 30
0.0
 10
-147.7306327726
 20
40.8989780219
 30
0.0
 10
-147.7286983825
 20
40.6727841757
 30
0.0
 10
-147.7281342172
 20
40.4173896081
 30
0.0
 10
-147.7262743985
 20
40.1394419271
 30
0.0
 10
-147.7248030007
 20
39.9481608785
 30
0.0
 10
-147.723951881
 20
39.8506247947
 30
0.0
 11
-147.723951881
 21
41.3505676793
 31
0.0
 11
-147.7262537656
 21
41.3217271999
 31
0.0
 11
-147.7279642135
 21
41.2363585437
 31
0.0
 11
-147.7290174995
 21
41.0977420634
 31
0.0
 11
-147.7293731502
 21
40.9112041978
 31
0.0
 11
-147.7290174995
 21
40.6839127995
 31
0.0
 11
-147.7279642136
 21
40.4246017054
 31
0.0
 11
-147.7262537657
 21
40.1432351323
 31
0.0
 11
-147.723951881
 21
39.8506247947
 31
0.0
  0
SPLINE
  5
3EB
100
AcDbEntity
  8
RACCORDO
100
AcDbSpline
 62
253
  6
CONTINUOUS
 70
0
 71
3
 72
15
 73
11
 74
9
 42
0.0000001
 43
0.0000001
 44
0.0000000001
 12
-1.5000156271
 22
0.0130904381
 32
0.0
 13
0.0130894489
 23
1.5000156357
 33
0.0
 40
0.0
 40
0.0
 40
0.0
 40
0.0
 40
0.0192872146
 40
0.0762083667
 40
0.1686176087
 40
0.2929704427
 40
0.4444909088
 40
0.6173579938
 40
0.8049299994
 40
1.0
 40
1.0
 40
1.0
 40
1.0
 10
-147.723951881
 20
-41.3505676793
 30
0.0
 10
-147.7335955888
 20
-41.35048352
 30
0.0
 10
-147.7157020951
 20
-41.2895419764
 30
0.0
 10
-147.7353650159
 20
-41.2269155032
 30
0.0
 10
-147.7261277973
 20
-41.0781189979
 30
0.0
 10
-147.730632776
 20
-40.8989777333
 30
0.0
 10
-147.7286983848
 20
-40.6727838517
 30
0.0
 10
-147.728134218
 20
-40.4173893185
 30
0.0
 10
-147.7262743986
 20
-40.1394417541
 30
0.0
 10
-147.7248030006
 20
-39.9481608117
 30
0.0
 10
-147.723951881
 20
-39.8506247947
 30
0.0
 11
-147.723951881
 21
-41.3505676793
 31
0.0
 11
-147.7262537682
 21
-41.3217271704
 31
0.0
 11
-147.7279642175
 21
-41.236358435
 31
0.0
 11
-147.7290175036
 21
-41.0977418513
 31
0.0
 11
-147.7293731536
 21
-40.9112038934
 31
0.0
 11
-147.7290175016
 21
-40.6839124501
 31
0.0
 11
-147.7279642144
 21
-40.4246013864
 31
0.0
 11
-147.7262537656
 21
-40.143234932
 31
0.0
 11
-147.723951881
 21
-39.8506247947
 31
0.0
  0
SPLINE
  5
3EC
100
AcDbEntity
  8
RACCORDO
100
AcDbSpline
 62
253
  6
CONTINUOUS
 70
0
 71
3
 72
26
 73
22
 74
20
 42
0.0000001
 43
0.0000001
 44
0.0000000001
 12
1.499942114
 22
-0.0135912619
 32
0.0
 13
-0.0087271265
 23
-1.5000034694
 33
0.0
 40
0.0
 40
0.0
 40
0.0
 40
0.0
 40
0.0034496081
 40
0.0136837986
 40
0.0306506666
 40
0.0542368342
 40
0.0842821551
 40
0.1205818057
 40
0.1628880478
 40
0.210912006
 40
0.2643258549
 40
0.3227647489
 40
0.3858296489
 40
0.4530897418
 40
0.5240857936
 40
0.5983328618
 40
0.67532379
 40
0.7545326507
 40
0.8354187403
 40
0.9174290878
 40
1.0
 40
1.0
 40
1.0
 40
1.0
 10
-90.5919774361
 20
41.1595760008
 30
0.0
 10
-90.5902526986
 20
41.1595603726
 30
0.0
 10
-90.5928203431
 20
41.1486946865
 30
0.0
 10
-90.5893891121
 20
41.1372474572
 30
0.0
 10
-90.5905290601
 20
41.1096673454
 30
0.0
 10
-90.5893488895
 20
41.0753299487
 30
0.0
 10
-90.5892345307
 20
41.0299956642
 30
0.0
 10
-90.5888161851
 20
40.9758013914
 30
0.0
 10
-90.588607605
 20
40.9124413248
 30
0.0
 10
-90.5884351008
 20
40.840582459
 30
0.0
 10
-90.5883588958
 20
40.7606380693
 30
0.0
 10
-90.5883612828
 20
40.6731789406
 30
0.0
 10
-90.5884483251
 20
40.5787947934
 30
0.0
 10
-90.5886178531
 20
40.4781325921
 30
0.0
 10
-90.5888693653
 20
40.371879196
 30
0.0
 10
-90.5892010873
 20
40.2607605332
 30
0.0
 10
-90.5896108531
 20
40.1455356078
 30
0.0
 10
-90.5900959325
 20
40.0269913759
 30
0.0
 10
-90.5906529693
 20
39.9059376745
 30
0.0
 10
-90.5912783343
 20
39.7832032274
 30
0.0
 10
-90.591737271
 20
39.7009122904
 30
0.0
 10
-90.5919774733
 20
39.6596267389
 30
0.0
 11
-90.5919774361
 21
41.1595760008
 31
0.0
 11
-90.5912867465
 21
41.1544477651
 31
0.0
 11
-90.5906602919
 21
41.1391089712
 31
0.0
 11
-90.5901024844
 21
41.1136642932
 31
0.0
 11
-90.5896170733
 21
41.0782876911
 31
0.0
 11
-90.5892073965
 21
41.0332207048
 31
0.0
 11
-90.5888762445
 21
40.9787711884
 31
0.0
 11
-90.5886258817
 21
40.9153110983
 31
0.0
 11
-90.5884580171
 21
40.8432739708
 31
0.0
 11
-90.588373797
 21
40.7631517003
 31
0.0
 11
-90.5883737968
 21
40.675491673
 31
0.0
 11
-90.5884580166
 21
40.5808925406
 31
0.0
 11
-90.5886258812
 21
40.4800006
 31
0.0
 11
-90.5888762444
 21
40.3735047679
 31
0.0
 11
-90.5892073969
 21
40.2621325155
 31
0.0
 11
-90.5896170747
 21
40.146644628
 31
0.0
 11
-90.5901024862
 21
40.0278300429
 31
0.0
 11
-90.5906602969
 21
39.9064998565
 31
0.0
 11
-90.5912867491
 21
39.7834835638
 31
0.0
 11
-90.5919774733
 21
39.6596267389
 31
0.0
  0
SPLINE
  5
3ED
100
AcDbEntity
  8
RACCORDO
100
AcDbSpline
 62
253
  6
CONTINUOUS
 70
0
 71
3
 72
26
 73
22
 74
20
 42
0.0000001
 43
0.0000001
 44
0.0000000001
 12
0.0087283382
 22
-1.5000025707
 32
0.0
 13
-1.4999364145
 23
-0.0136722071
 33
0.0
 40
0.0
 40
0.0
 40
0.0
 40
0.0
 40
0.082571579
 40
0.1645819546
 40
0.2454680752
 40
0.3246769537
 40
0.4016678881
 40
0.475914956
 40
0.5469110017
 40
0.6141710759
 40
0.6772359484
 40
0.7356748067
 40
0.7890886118
 40
0.8371125178
 40
0.8794186979
 40
0.9157182809
 40
0.9457635281
 40
0.9693496143
 40
0.986316394
 40
0.9965504924
 40
1.0
 40
1.0
 40
1.0
 40
1.0
 10
-90.591977468
 20
-39.6596276272
 30
0.0
 10
-90.5917372304
 20
-39.7009134874
 30
0.0
 10
-90.5912783538
 20
-39.7832047233
 30
0.0
 10
-90.5906529572
 20
-39.9059394602
 30
0.0
 10
-90.5900959333
 20
-40.0269931282
 30
0.0
 10
-90.5896108508
 20
-40.1455373171
 30
0.0
 10
-90.5892010873
 20
-40.2607621858
 30
0.0
 10
-90.5888693654
 20
-40.3718807825
 30
0.0
 10
-90.5886178537
 20
-40.4781341029
 30
0.0
 10
-90.5884483257
 20
-40.5787962183
 30
0.0
 10
-90.5883612831
 20
-40.6731802684
 30
0.0
 10
-90.5883588955
 20
-40.7606392916
 30
0.0
 10
-90.5884351003
 20
-40.8405835678
 30
0.0
 10
-90.5886076043
 20
-40.9124423125
 30
0.0
 10
-90.5888161853
 20
-40.9758022484
 30
0.0
 10
-90.5892345295
 20
-41.0299963938
 30
0.0
 10
-90.5893488945
 20
-41.0753305215
 30
0.0
 10
-90.5905290514
 20
-41.1096678256
 30
0.0
 10
-90.5893891391
 20
-41.1372476712
 30
0.0
 10
-90.5928202973
 20
-41.148694985
 30
0.0
 10
-90.5902527555
 20
-41.15956028
 30
0.0
 10
-90.5919774362
 20
-41.1595760008
 30
0.0
 11
-90.591977468
 21
-39.6596276272
 31
0.0
 11
-90.5912867465
 21
-39.7834853788
 31
0.0
 11
-90.5906602919
 21
-39.9065016406
 31
0.0
 11
-90.5901024844
 21
-40.0278318012
 31
0.0
 11
-90.5896170733
 21
-40.1466463425
 31
0.0
 11
-90.5892073965
 21
-40.2621341705
 31
0.0
 11
-90.5888762445
 21
-40.3735063563
 31
0.0
 11
-90.5886258817
 21
-40.4800021161
 31
0.0
 11
-90.5884580171
 21
-40.5808939687
 31
0.0
 11
-90.588373797
 21
-40.6754930035
 31
0.0
 11
-90.5883737968
 21
-40.7631529252
 31
0.0
 11
-90.5884580166
 21
-40.8432750823
 31
0.0
 11
-90.5886258812
 21
-40.9153120887
 31
0.0
 11
-90.5888762444
 21
-40.978772048
 31
0.0
 11
-90.5892073969
 21
-41.0332214308
 31
0.0
 11
-90.5896170747
 21
-41.0782882797
 31
0.0
 11
-90.5901024862
 21
-41.1136647384
 31
0.0
 11
-90.5906602969
 21
-41.1391092689
 31
0.0
 11
-90.5912867491
 21
-41.1544479155
 31
0.0
 11
-90.5919774362
 21
-41.1595760008
 31
0.0
  0
ELLIPSE
  5
3EE
100
AcDbEntity
  8
DRAFT
100
AcDbEllipse
 62
7
  6
CONTINUOUS
 10
63.6389119255
 20
32.5
 30
0.0
 11
0.0
 21
7.0
 31
0.0
 40
0.0087268678
 41
-0.0001757751
 42
0.0714894499
  0
ELLIPSE
  5
3EF
100
AcDbEntity
  8
DRAFT
100
AcDbEllipse
 62
7
  6
CONTINUOUS
 10
-63.6389119255
 20
32.5
 30
0.0
 11
0.0
 21
7.0
 31
0.0
 40
0.0087268678
 41
-0.0714894499
 42
0.0001757751
  0
ELLIPSE
  5
3F0
100
AcDbEntity
  8
RACCORDO
100
AcDbEllipse
 62
7
  6
CONTINUOUS
 10
-65.8965092529
 20
-38.5164658842
 30
0.0
 11
-0.0
 21
0.4
 31
0.0
 40
0.0087268678
 41
-4.7123889804
 42
-3.2288591162
  0
ELLIPSE
  5
3F1
100
AcDbEntity
  8
RACCORDO
100
AcDbEllipse
 62
7
  6
CONTINUOUS
 10
65.8965092529
 20
-38.5164658842
 30
0.0
 11
-0.0
 21
0.4
 31
0.0
 40
0.0087268678
 41
-3.054326191
 42
-1.5707963268
  0
ELLIPSE
  5
3F2
100
AcDbEntity
  8
DRAFT
100
AcDbEllipse
 62
7
  6
CONTINUOUS
 10
65.8365498608
 20
-34.5
 30
0.0
 11
0.0
 21
5.0
 31
0.0
 40
0.0087268678
 41
-4.6122215592
 42
-3.054326191
  0
ELLIPSE
  5
3F3
100
AcDbEntity
  8
DRAFT
100
AcDbEllipse
 62
7
  6
CONTINUOUS
 10
-65.8365498608
 20
-34.5
 30
0.0
 11
-0.0
 21
5.0
 31
0.0
 40
0.0087268678
 41
3.054326191
 42
4.6122215592
  0
ELLIPSE
  5
3F4
100
AcDbEntity
  8
DRAFT
100
AcDbEllipse
 62
7
  6
CONTINUOUS
 10
-65.8365335019
 20
34.481343423
 30
0.0
 11
0.0
 21
5.0
 31
0.0
 40
0.0087268678
 41
-1.4706832549
 42
-0.136695483
  0
ELLIPSE
  5
3F5
100
AcDbEntity
  8
DRAFT
100
AcDbEllipse
 62
7
  6
CONTINUOUS
 10
65.8365335019
 20
34.481343423
 30
0.0
 11
-0.0
 21
5.0
 31
0.0
 40
0.0087268678
 41
0.136695483
 42
1.4706832549
  0
ELLIPSE
  5
3F6
100
AcDbEntity
  8
DRAFT
100
AcDbEllipse
 62
7
  6
CONTINUOUS
 10
-68.8322275777
 20
0.0
 30
0.0
 11
0.0
 21
350.0
 31
0.0
 40
0.0087268678
 41
-1.670963748
 42
-1.4706832549
  0
ELLIPSE
  5
3F7
100
AcDbEntity
  8
DRAFT
100
AcDbEllipse
 62
7
  6
CONTINUOUS
 10
65.8389119255
 20
32.5
 30
0.0
 11
-0.0
 21
7.0
 31
0.0
 40
0.0087268678
 41
4.7123889804
 42
6.4198807902
  0
ELLIPSE
  5
3F8
100
AcDbEntity
  8
DRAFT
100
AcDbEllipse
 62
7
  6
CONTINUOUS
 10
-65.8389119255
 20
32.5
 30
0.0
 11
0.0
 21
7.0
 31
0.0
 40
0.0087268678
 41
-0.136695483
 42
1.5707963268
  0
ELLIPSE
  5
3F9
100
AcDbEntity
  8
RACCORDO
100
AcDbEllipse
 62
7
  6
CONTINUOUS
 10
-51.0396327326
 20
22.3380977999
 30
0.0
 11
0.0937991149
 21
-1.4615514256
 31
0.0
 40
0.3413998745
 41
3.1196858752
 42
3.9723492626
  0
ELLIPSE
  5
3FA
100
AcDbEntity
  8
RACCORDO
100
AcDbEllipse
 62
7
  6
CONTINUOUS
 10
51.0396327326
 20
22.3380977999
 30
0.0
 11
-0.0937991149
 21
-1.4615514256
 31
0.0
 40
0.3413998745
 41
2.3108360446
 42
3.163499432
  0
ELLIPSE
  5
3FB
100
AcDbEntity
  8
RACCORDO
100
AcDbEllipse
 62
7
  6
CONTINUOUS
 10
-51.0396327326
 20
-22.3380977999
 30
0.0
 11
0.0937991149
 21
1.4615514256
 31
-0.0
 40
0.3413998745
 41
2.3108360446
 42
3.163499432
  0
ELLIPSE
  5
3FC
100
AcDbEntity
  8
DRAFT
100
AcDbEllipse
 62
7
  6
CONTINUOUS
 10
68.8322275777
 20
0.0
 30
0.0
 11
0.0
 21
350.0
 31
0.0
 40
0.0087268678
 41
1.4706832549
 42
1.670963748
  0
ELLIPSE
  5
3FD
100
AcDbEntity
  8
RACCORDO
100
AcDbEllipse
 62
7
  6
CONTINUOUS
 10
51.0396327326
 20
-22.3380977999
 30
0.0
 11
-0.0937991149
 21
1.4615514256
 31
-0.0
 40
0.3413998745
 41
3.1196858752
 42
3.9723492626
  0
ELLIPSE
  5
3FE
100
AcDbEntity
  8
DRAFT
100
AcDbEllipse
 62
7
  6
CONTINUOUS
 10
9.5499527769
 20
0.0
 30
0.0
 11
0.0
 21
348.5
 31
0.0
 40
0.1763269807
 41
1.5038884546
 42
1.637704199
  0
ELLIPSE
  5
3FF
100
AcDbEntity
  8
DRAFT
100
AcDbEllipse
 62
7
  6
CONTINUOUS
 10
-9.5499527769
 20
0.0
 30
0.0
 11
0.0
 21
348.5
 31
0.0
 40
0.1763269807
 41
-1.637704199
 42
-1.5038884546
  0
ELLIPSE
  5
400
100
AcDbEntity
  8
RACCORDO
100
AcDbEllipse
 62
7
  6
CONTINUOUS
 10
-66.4999428824
 20
-39.9999428824
 30
0.0
 11
1.0607409467
 21
1.0607409467
 31
0.0
 40
0.9999238505
 41
-3.9269527408
 42
-2.3562325664
  0
ELLIPSE
  5
401
100
AcDbEntity
  8
RACCORDO
100
AcDbEllipse
 62
7
  6
CONTINUOUS
 10
66.4999428824
 20
-39.9999428824
 30
0.0
 11
-1.0607409467
 21
1.0607409467
 31
0.0
 40
0.9999238505
 41
-3.9269527408
 42
-2.3562325664
  0
ELLIPSE
  5
402
100
AcDbEntity
  8
RACCORDO
100
AcDbEllipse
 62
7
  6
CONTINUOUS
 10
66.4999428824
 20
39.9999428824
 30
0.0
 11
1.0607409467
 21
1.0607409467
 31
0.0
 40
0.9999238505
 41
-0.7853600872
 42
0.7853600872
  0
ELLIPSE
  5
403
100
AcDbEntity
  8
RACCORDO
100
AcDbEllipse
 62
7
  6
CONTINUOUS
 10
-66.4999428824
 20
39.9999428824
 30
0.0
 11
-1.0607409468
 21
1.0607409466
 31
0.0
 40
0.9999238505
 41
-0.7853600872
 42
0.7853600871
  0
ELLIPSE
  5
404
100
AcDbEntity
  8
RACCORDO
100
AcDbEllipse
 62
7
  6
CONTINUOUS
 10
-66.0416225922
 20
-39.5416225922
 30
0.0
 11
0.1767901578
 21
0.1767901578
 31
0.0
 40
0.9999238505
 41
2.3562325662
 42
3.9269527406
  0
ELLIPSE
  5
405
100
AcDbEntity
  8
RACCORDO
100
AcDbEllipse
 62
7
  6
CONTINUOUS
 10
66.0416225922
 20
-39.5416225922
 30
0.0
 11
-0.1767901577
 21
0.1767901578
 31
0.0
 40
0.9999238505
 41
-3.9269527405
 42
-2.3562325661
  0
ELLIPSE
  5
406
100
AcDbEntity
  8
RACCORDO
100
AcDbEllipse
 62
7
  6
CONTINUOUS
 10
66.0416225922
 20
39.5416225922
 30
0.0
 11
0.1767901578
 21
0.1767901578
 31
0.0
 40
0.9999238505
 41
-0.7853600874
 42
0.785360087
  0
ELLIPSE
  5
407
100
AcDbEntity
  8
RACCORDO
100
AcDbEllipse
 62
7
  6
CONTINUOUS
 10
-66.0416225922
 20
39.5416225922
 30
0.0
 11
0.1767901578
 21
-0.1767901578
 31
0.0
 40
0.9999238505
 41
2.3562325665
 42
3.9269527409
  0
ELLIPSE
  5
408
100
AcDbEntity
  8
DRAFT
100
AcDbEllipse
 62
7
  6
CONTINUOUS
 10
66.2661463
 20
36.350758064
 30
0.0
 11
0.0
 21
5.0
 31
0.0
 40
0.0087268678
 41
-1.4652358764
 42
-0.6237424125
  0
ELLIPSE
  5
409
100
AcDbEntity
  8
DRAFT
100
AcDbEllipse
 62
7
  6
CONTINUOUS
 10
-66.2661463
 20
36.350758064
 30
0.0
 11
0.0
 21
5.0
 31
0.0
 40
0.0087268678
 41
0.6237424125
 42
1.4652358764
  0
ELLIPSE
  5
40A
100
AcDbEntity
  8
RACCORDO
100
AcDbEllipse
 62
7
  6
CONTINUOUS
 10
-63.2721358562
 20
0.0
 30
0.0
 11
0.0
 21
350.0
 31
0.0
 40
0.0087268678
 41
-4.625584549
 42
-4.60682853
  0
ELLIPSE
  5
40B
100
AcDbEntity
  8
RACCORDO
100
AcDbEllipse
 62
7
  6
CONTINUOUS
 10
-63.2721358562
 20
0.0
 30
0.0
 11
0.0
 21
350.0
 31
0.0
 40
0.0087268678
 41
1.4652358764
 42
1.4839918954
  0
ELLIPSE
  5
40C
100
AcDbEntity
  8
RACCORDO
100
AcDbEllipse
 62
7
  6
CONTINUOUS
 10
63.2721358562
 20
0.0
 30
0.0
 11
0.0
 21
350.0
 31
0.0
 40
0.0087268678
 41
-1.6763567772
 42
-1.6576007582
  0
ELLIPSE
  5
40D
100
AcDbEntity
  8
RACCORDO
100
AcDbEllipse
 62
7
  6
CONTINUOUS
 10
63.2721358562
 20
0.0
 30
0.0
 11
0.0
 21
350.0
 31
0.0
 40
0.0087268678
 41
-1.4839918954
 42
-1.4652358764
  0
ELLIPSE
  5
40E
100
AcDbEntity
  8
RACCORDO
100
AcDbEllipse
 62
7
  6
CONTINUOUS
 10
-25.132302676
 20
-36.350758064
 30
0.0
 11
0.0
 21
5.0
 31
0.0
 40
0.0174550649
 41
-3.5395839667
 42
-3.1503192998
  0
ELLIPSE
  5
40F
100
AcDbEntity
  8
DRAFT
100
AcDbEllipse
 62
7
  6
CONTINUOUS
 10
-66.2661463
 20
-36.350758064
 30
0.0
 11
-0.0
 21
5.0
 31
0.0
 40
0.0087268678
 41
-4.60682853
 42
-3.7653350661
  0
ELLIPSE
  5
410
100
AcDbEntity
  8
DRAFT
100
AcDbEllipse
 62
7
  6
CONTINUOUS
 10
66.2661463
 20
-36.350758064
 30
0.0
 11
0.0
 21
5.0
 31
0.0
 40
0.0087268678
 41
-2.5178502411
 42
-1.6763567772
  0
ELLIPSE
  5
411
100
AcDbEntity
  8
RACCORDO
100
AcDbEllipse
 62
7
  6
CONTINUOUS
 10
25.132302676
 20
-36.350758064
 30
0.0
 11
0.0
 21
5.0
 31
0.0
 40
0.0174550649
 41
-3.1328660073
 42
-2.7436013405
  0
ELLIPSE
  5
412
100
AcDbEntity
  8
RACCORDO
100
AcDbEllipse
 62
7
  6
CONTINUOUS
 10
26.1659754449
 20
-39.782905244
 30
0.0
 11
1.0
 21
-0.0
 31
0.0
 40
0.0087268678
 41
-3.1241393611
 42
-1.5707963268
  0
ELLIPSE
  5
413
100
AcDbEntity
  8
RACCORDO
100
AcDbEllipse
 62
7
  6
CONTINUOUS
 10
-26.1659754449
 20
-39.782905244
 30
0.0
 11
1.0
 21
-0.0
 31
0.0
 40
0.0087268678
 41
-1.5707963268
 42
-0.0174532925
  0
ELLIPSE
  5
414
100
AcDbEntity
  8
RACCORDO
100
AcDbEllipse
 62
7
  6
CONTINUOUS
 10
-65.9499904804
 20
-39.4499904804
 30
0.0
 11
0.1767901578
 21
0.1767901578
 31
0.0
 40
0.9999238505
 41
2.3562325664
 42
3.9269527408
  0
ELLIPSE
  5
415
100
AcDbEntity
  8
RACCORDO
100
AcDbEllipse
 62
7
  6
CONTINUOUS
 10
65.9499904804
 20
-39.4499904804
 30
0.0
 11
-0.1767901578
 21
0.1767901578
 31
0.0
 40
0.9999238505
 41
2.3562325664
 42
3.9269527408
  0
ELLIPSE
  5
416
100
AcDbEntity
  8
RACCORDO
100
AcDbEllipse
 62
7
  6
CONTINUOUS
 10
65.9499904804
 20
39.4499904804
 30
0.0
 11
-0.1767901578
 21
-0.1767901578
 31
0.0
 40
0.9999238505
 41
2.3562325664
 42
3.9269527408
  0
ELLIPSE
  5
417
100
AcDbEntity
  8
RACCORDO
100
AcDbEllipse
 62
7
  6
CONTINUOUS
 10
-65.9499904804
 20
39.4499904804
 30
0.0
 11
0.1767901578
 21
-0.1767901578
 31
0.0
 40
0.9999238505
 41
2.3562325664
 42
3.9269527408
  0
ENDSEC
  0
SECTION
  2
OBJECTS
  0
DICTIONARY
  5
C
100
AcDbDictionary
280
0
281
1
  3
ACAD_GROUP
350
D
  3
ACAD_MLINESTYLE
350
17
  3
ACAD_LAYOUT
350
1A
  3
ACAD_PLOTSETTINGS
350
19
  3
ACAD_PLOTSTYLENAME
350
E
  0
DICTIONARY
  5
D
102
{ACAD_REACTORS
330
C
102
}
100
AcDbDictionary
280
0
281
1
  0
ACDBDICTIONARYWDFLT
  5
E
102
{ACAD_REACTORS
330
C
102
}
100
AcDbDictionary
281
1
  3
Normal
350
F
100
AcDbDictionaryWithDefault
340
F
  0
DICTIONARY
  5
17
102
{ACAD_REACTORS
330
C
102
}
100
AcDbDictionary
280
0
281
1
  3
Standard
350
18
  0
DICTIONARY
  5
19
102
{ACAD_REACTORS
330
C
102
}
100
AcDbDictionary
281
1
  0
DICTIONARY
  5
1A
102
{ACAD_REACTORS
330
C
102
}
100
AcDbDictionary
281
1
  3
Model
350
418
  3
Layout1
350
419
  0
ACDBPLACEHOLDER
  5
F
102
{ACAD_REACTORS
330
E
102
}
  0
MLINESTYLE
  5
18
102
{ACAD_REACTORS
330
17
102
}
100
AcDbMlineStyle
  2
STANDARD
 70
0
  3

 62
256
 51
90.0
 52
90.0
 71
2
 49
0.5
 62
256
  6
BYLAYER
 49
-0.5
 62
256
  6
BYLAYER
  0
LAYOUT
  5
418
102
{ACAD_REACTORS
330
1A
102
}
100
AcDbPlotSettings
  1

  2
none_device
  4
ISO_A4_(297.00_x_210.00_MM)
  6

 40
0.0
 41
0.0
 42
0.0
 43
0.0
 44
297.0
 45
210.0
 46
0.0
 47
0.0
 48
0.0
 49
0.0
140
0.0
141
0.0
142
1.0
143
1.0
 70
1024
 72
1
 73
0
 74
0
  7

 75
0
147
1.0
148
0.0
149
0.0
100
AcDbLayout
  1
Model
 70
0
 71
0
 10
0.0
 20
0.0
 11
297.0
 21
210.0
 12
0.0
 22
0.0
 32
0.0
 14
0.0
 24
0.0
 34
0.0
 15
0.0
 25
0.0
 35
0.0
146
0.0
 13
0.0
 23
0.0
 33
0.0
 16
1.0
 26
0.0
 36
0.0
 17
0.0
 27
1.0
 37
0.0
 76
0
330
216
345
0
346
0
  0
LAYOUT
  5
419
102
{ACAD_REACTORS
330
1A
102
}
100
AcDbPlotSettings
  1

  2
none_device
  4
ISO_A4_(297.00_x_210.00_MM)
  6

 40
0.0
 41
0.0
 42
0.0
 43
0.0
 44
297.0
 45
210.0
 46
0.0
 47
0.0
 48
0.0
 49
0.0
140
0.0
141
0.0
142
1.0
143
1.0
 70
0
 72
1
 73
0
 74
0
  7

 75
0
147
1.0
148
0.0
149
0.0
100
AcDbLayout
  1
Layout1
 70
0
 71
1
 10
0.0
 20
0.0
 11
297.0
 21
210.0
 12
0.0
 22
0.0
 32
0.0
 14
0.0
 24
0.0
 34
0.0
 15
0.0
 25
0.0
 35
0.0
146
0.0
 13
0.0
 23
0.0
 33
0.0
 16
1.0
 26
0.0
 36
0.0
 17
0.0
 27
1.0
 37
0.0
 76
0
330
217
345
0
346
0
  0
ENDSEC
  0
EOF
