  0
SECTION
  2
HEADER
  9
$ACADVER
  1
AC1024
  9
$DWGCODEPAGE
  3
ANSI_1252
  9
$EXTMAX
 10
297.0
 20
210.0
 30
0.0
  9
$EXTMIN
 10
0.0
 20
0.0
 30
0.0
  9
$LIMMIN
 10
0.0
 20
0.0
  9
$LIMMAX
 10
297.0
 20
210.0
  9
$VIEWCTR
 10
148.5
 20
105.0
  9
$VIEWSIZE
 40
210.0
  9
$CLAYER
  8
0
  9
$LTSCALE
 40
16.335
  9
$CELTYPE
  6
BYLAYER
  9
$DIMSCALE
 40
1.0
  9
$DIMASZ
 40
3.0
  9
$DIMEXO
 40
0.5
  9
$DIMDLI
 40
11.286
  9
$DIMEXE
 40
1.5
  9
$DIMCEN
 40
2.673
  9
$DIMLFAC
 40
1.0
  9
$DIMBLK
  1
_FILLED
  9
$DIMALT
 70
0
  9
$DIMALTF
 40
0.0393700787
  9
$DIMTXT
 40
3.0
  9
$DIMTOL
 70
1
  9
$DIMLIM
 70
0
  9
$DIMTFAC
 40
1.0
  9
$DIMTP
 40
0.01
  9
$DIMTM
 40
0.01
  9
$DIMGAP
 40
0.625
  9
$DIMDSEP
 70
44
  9
$AUNITS
 70
0
  9
$PDMODE
 70
3
  9
$PDSIZE
 40
3.0
  9
$HANDSEED
  5
412
  9
$TILEMODE
 70
1
  9
$MEASUREMENT
 70
1
  9
$INSUNITS
 70
4
  0
ENDSEC
  0
SECTION
  2
CLASSES
  0
CLASS
  1
ACDBDICTIONARYWDFLT
  2
AcDbDictionaryWithDefault
  3
AutoCAD 2000
 90
0
 91
1
280
0
281
0
  0
CLASS
  1
ACDBPLACEHOLDER
  2
AcDbPlaceHolder
  3
AutoCAD 2000
 90
0
 91
1
280
0
281
0
  0
CLASS
  1
LAYOUT
  2
AcDbLayout
  3
AutoCAD 2000
 90
0
 91
0
280
0
281
0
  0
ENDSEC
  0
SECTION
  2
TABLES
  0
TABLE
  2
VPORT
  5
8
100
AcDbSymbolTable
 70
2
  0
VPORT
  5
1F4
100
AcDbSymbolTableRecord
100
AcDbViewportTableRecord
  2
*ACTIVE
 70
0
 10
0.0
 20
0.0
 11
1.0
 21
1.0
 12
148.5
 22
105.0
 13
0.0
 23
0.0
 14
1.0
 24
1.0
 15
0.0
 25
0.0
 16
0.0
 26
0.0
 36
1.0
 17
0.0
 27
0.0
 37
0.0
 40
210.0
 41
1.4142857143
 42
50.0
 43
0.0
 44
0.0
 50
0.0
 51
0.0
 71
0
 72
100
 73
1
 74
1
 75
0
 76
0
 77
0
 78
0
  0
ENDTAB
  0
TABLE
  2
LTYPE
  5
5
100
AcDbSymbolTable
 70
6
  0
LTYPE
  5
14
100
AcDbSymbolTableRecord
100
AcDbLinetypeTableRecord
  2
BYBLOCK
 70
0
  3

 72
65
 73
0
 40
0.0
  0
LTYPE
  5
15
100
AcDbSymbolTableRecord
100
AcDbLinetypeTableRecord
  2
BYLAYER
 70
0
  3

 72
65
 73
0
 40
0.0
  0
LTYPE
  5
16
100
AcDbSymbolTableRecord
100
AcDbLinetypeTableRecord
  2
CONTINUOUS
 70
64
  3
Solid line
 72
65
 73
0
 40
0.0
  0
LTYPE
  5
1F5
100
AcDbSymbolTableRecord
100
AcDbLinetypeTableRecord
  2
CENTER
 70
64
  3
____ _ ____ _ ____ _ ____ _ ____ _ ____ _ ____
 72
65
 73
4
 40
0.6
 49
0.375
 74
0
 49
-0.075
 74
0
 49
0.075
 74
0
 49
-0.075
 74
0
  0
LTYPE
  5
1F6
100
AcDbSymbolTableRecord
100
AcDbLinetypeTableRecord
  2
HIDDEN
 70
64
  3
- - - - - - - - - - - - - - - - - - - -
 72
65
 73
2
 40
0.2
 49
0.1
 74
0
 49
-0.1
 74
0
  0
LTYPE
  5
1F7
100
AcDbSymbolTableRecord
100
AcDbLinetypeTableRecord
  2
PHANTOM
 70
64
  3
_____ _ _ _____ _ _ _____ _ _ _____
 72
65
 73
6
 40
0.8
 49
0.45
 74
0
 49
-0.05
 74
0
 49
0.1
 74
0
 49
-0.05
 74
0
 49
0.1
 74
0
 49
-0.05
 74
0
  0
LTYPE
  5
1F8
100
AcDbSymbolTableRecord
100
AcDbLinetypeTableRecord
  2
DOT
 70
64
  3
. . . . . . . . . . . . . . . . . . . .
 72
65
 73
2
 40
0.2
 49
0.1
 74
0
 49
-0.1
 74
0
  0
LTYPE
  5
1F9
100
AcDbSymbolTableRecord
100
AcDbLinetypeTableRecord
  2
DASHED
 70
64
  3
- - - - - - - - - - - - - - - - - - - -
 72
65
 73
2
 40
0.2
 49
0.1
 74
0
 49
-0.1
 74
0
  0
ENDTAB
  0
TABLE
  2
LAYER
  5
2
100
AcDbSymbolTable
 70
36
  0
LAYER
  5
10
100
AcDbSymbolTableRecord
100
AcDbLayerTableRecord
  2
0
 70
0
 62
7
  6
CONTINUOUS
370
-3
390
F
  0
LAYER
  5
1FA
100
AcDbSymbolTableRecord
100
AcDbLayerTableRecord
  2
DEFAULT_1
 70
0
 62
7
  6
CENTER
370
-3
390
F
  0
LAYER
  5
1FB
100
AcDbSymbolTableRecord
100
AcDbLayerTableRecord
  2
DEFAULT_2
 70
0
 62
7
  6
HIDDEN
370
-3
390
F
  0
LAYER
  5
1FC
100
AcDbSymbolTableRecord
100
AcDbLayerTableRecord
  2
DEFAULT_3
 70
0
 62
7
  6
PHANTOM
370
-3
390
F
  0
LAYER
  5
1FD
100
AcDbSymbolTableRecord
100
AcDbLayerTableRecord
  2
ASSI
 70
0
 62
7
  6
CONTINUOUS
370
-3
390
F
  0
LAYER
  5
1FE
100
AcDbSymbolTableRecord
100
AcDbLayerTableRecord
  2
COORDINATE
 70
0
 62
7
  6
CONTINUOUS
370
-3
390
F
  0
LAYER
  5
1FF
100
AcDbSymbolTableRecord
100
AcDbLayerTableRecord
  2
COPY_PUBLISH
 70
0
 62
7
  6
CONTINUOUS
370
-3
390
F
  0
LAYER
  5
200
100
AcDbSymbolTableRecord
100
AcDbLayerTableRecord
  2
COSMETICI
 70
0
 62
7
  6
CONTINUOUS
370
-3
390
F
  0
LAYER
  5
201
100
AcDbSymbolTableRecord
100
AcDbLayerTableRecord
  2
CURVE
 70
0
 62
7
  6
CONTINUOUS
370
-3
390
F
  0
LAYER
  5
202
100
AcDbSymbolTableRecord
100
AcDbLayerTableRecord
  2
DRAFT
 70
0
 62
7
  6
CONTINUOUS
370
-3
390
F
  0
LAYER
  5
203
100
AcDbSymbolTableRecord
100
AcDbLayerTableRecord
  2
IMPORT_IGES
 70
0
 62
7
  6
CONTINUOUS
370
-3
390
F
  0
LAYER
  5
204
100
AcDbSymbolTableRecord
100
AcDbLayerTableRecord
  2
INTF_11
 70
0
 62
7
  6
CONTINUOUS
370
-3
390
F
  0
LAYER
  5
205
100
AcDbSymbolTableRecord
100
AcDbLayerTableRecord
  2
NOTE
 70
0
 62
7
  6
CONTINUOUS
370
-3
390
F
  0
LAYER
  5
206
100
AcDbSymbolTableRecord
100
AcDbLayerTableRecord
  2
PIANI
 70
0
 62
7
  6
CONTINUOUS
370
-3
390
F
  0
LAYER
  5
207
100
AcDbSymbolTableRecord
100
AcDbLayerTableRecord
  2
PUNTI
 70
0
 62
7
  6
CONTINUOUS
370
-3
390
F
  0
LAYER
  5
208
100
AcDbSymbolTableRecord
100
AcDbLayerTableRecord
  2
RACCORDO
 70
0
 62
7
  6
CONTINUOUS
370
-3
390
F
  0
LAYER
  5
209
100
AcDbSymbolTableRecord
100
AcDbLayerTableRecord
  2
SIMBOLI
 70
0
 62
7
  6
CONTINUOUS
370
-3
390
F
  0
LAYER
  5
20A
100
AcDbSymbolTableRecord
100
AcDbLayerTableRecord
  2
SMUSSO
 70
0
 62
7
  6
CONTINUOUS
370
-3
390
F
  0
LAYER
  5
20B
100
AcDbSymbolTableRecord
100
AcDbLayerTableRecord
  2
SNAPLINE
 70
0
 62
7
  6
CONTINUOUS
370
-3
390
F
  0
LAYER
  5
20C
100
AcDbSymbolTableRecord
100
AcDbLayerTableRecord
  2
SUPERFICI
 70
0
 62
7
  6
CONTINUOUS
370
-3
390
F
  0
LAYER
  5
20D
100
AcDbSymbolTableRecord
100
AcDbLayerTableRecord
  2
TRASH
 70
0
 62
7
  6
CONTINUOUS
370
-3
390
F
  0
ENDTAB
  0
TABLE
  2
STYLE
  5
3
100
AcDbSymbolTable
 70
1
  0
STYLE
  5
11
100
AcDbSymbolTableRecord
100
AcDbTextStyleTableRecord
  2
STANDARD
 70
0
 40
0.0
 41
0.8
 50
0.0
 71
0
 42
0.2
  3
txt
  4

  0
STYLE
  5
20E
100
AcDbSymbolTableRecord
100
AcDbTextStyleTableRecord
  2
TEXTSTYLE_1
 70
0
 40
0.0
 41
0.8
 50
0.0
 71
0
 42
0.2
  3
gdt
  4

  0
ENDTAB
  0
TABLE
  2
VIEW
  5
6
100
AcDbSymbolTable
 70
0
  0
ENDTAB
  0
TABLE
  2
UCS
  5
7
100
AcDbSymbolTable
 70
0
  0
ENDTAB
  0
TABLE
  2
APPID
  5
9
100
AcDbSymbolTable
 70
1
  0
APPID
  5
20F
100
AcDbSymbolTableRecord
100
AcDbRegAppTableRecord
  2
ACAD
 70
0
  0
ENDTAB
  0
TABLE
  2
BLOCK_RECORD
  5
1
100
AcDbSymbolTable
 70
0
  0
BLOCK_RECORD
  5
210
100
AcDbSymbolTableRecord
100
AcDbBlockTableRecord
  2
*Model_Space
  0
BLOCK_RECORD
  5
211
100
AcDbSymbolTableRecord
100
AcDbBlockTableRecord
  2
*Paper_Space
  0
BLOCK_RECORD
  5
212
100
AcDbSymbolTableRecord
100
AcDbBlockTableRecord
  2
_FILLED
  0
BLOCK_RECORD
  5
213
100
AcDbSymbolTableRecord
100
AcDbBlockTableRecord
  2
*D0
  0
BLOCK_RECORD
  5
214
100
AcDbSymbolTableRecord
100
AcDbBlockTableRecord
  2
*D1
  0
BLOCK_RECORD
  5
215
100
AcDbSymbolTableRecord
100
AcDbBlockTableRecord
  2
*D2
  0
BLOCK_RECORD
  5
216
100
AcDbSymbolTableRecord
100
AcDbBlockTableRecord
  2
*D3
  0
BLOCK_RECORD
  5
217
100
AcDbSymbolTableRecord
100
AcDbBlockTableRecord
  2
*D4
  0
BLOCK_RECORD
  5
218
100
AcDbSymbolTableRecord
100
AcDbBlockTableRecord
  2
*D5
  0
ENDTAB
  0
TABLE
  2
DIMSTYLE
  5
A
100
AcDbSymbolTable
 70
1
100
AcDbDimStyleTable
 71
0
  0
DIMSTYLE
105
219
100
AcDbSymbolTableRecord
100
AcDbDimStyleTableRecord
  2
STANDARD
 70
0
  3

  4

 40
1.0
 41
3.0
 42
0.5
 43
0.38
 44
1.5
 45
0.0
 46
0.0
 47
0.01
 48
0.01
140
3.0
141
0.09
142
0.0
143
25.4
144
1.0
145
0.0
146
1.0
147
0.625
 71
1
 72
0
 73
0
 74
0
 75
0
 76
0
 77
1
 78
8
 79
2
170
0
171
1
172
0
173
0
174
0
175
0
176
0
177
0
178
0
270
2
179
2
271
2
272
2
273
2
274
2
275
0
280
0
281
0
282
0
283
1
284
8
285
0
286
0
287
3
288
0
340
11
278
44
341
212
342
212
343
212
344
212
  0
DIMSTYLE
105
21A
100
AcDbSymbolTableRecord
100
AcDbDimStyleTableRecord
  2
DIMSTYLE_1
 70
0
  3

  4

 40
1.0
 41
3.0
 42
0.5
 43
0.38
 44
1.5
 45
0.0
 46
0.0
 47
0.0
 48
0.0
140
3.0
141
0.09
142
0.0
143
25.4
144
1.0
145
0.0
146
1.0
147
0.75
 71
0
 72
0
 73
0
 74
0
 75
0
 76
0
 77
1
 78
8
 79
2
170
0
171
1
172
0
173
0
174
0
175
0
176
0
177
0
178
0
270
2
179
2
271
2
272
2
273
2
274
2
275
0
280
0
281
0
282
0
283
1
284
8
285
0
286
0
287
3
288
0
340
11
278
44
341
212
342
212
343
212
344
212
  0
ENDTAB
  0
ENDSEC
  0
SECTION
  2
BLOCKS
  0
BLOCK
  5
20
100
AcDbEntity
  8
0
100
AcDbBlockBegin
  2
*Model_Space
 70
0
 10
0.0
 20
0.0
 30
0.0
  3
*Model_Space
  1

  0
ENDBLK
  5
21
100
AcDbEntity
  8
0
100
AcDbBlockEnd
  0
BLOCK
  5
1C
100
AcDbEntity
  8
0
100
AcDbBlockBegin
  2
*Paper_Space
 70
0
 10
0.0
 20
0.0
 30
0.0
  3
*Paper_Space
  1

  0
ENDBLK
  5
1D
100
AcDbEntity
  8
0
100
AcDbBlockEnd
  0
BLOCK
  5
21B
100
AcDbEntity
  8
0
100
AcDbBlockBegin
  2
_FILLED
 70
64
 10
0.0
 20
0.0
  3
_FILLED
  1

  0
SOLID
  5
21C
100
AcDbEntity
  8
0
  6
BYBLOCK
 62
0
100
AcDbTrace
 10
0.0
 20
0.0
 11
-1.0
 21
0.3166666667
 12
-1.0
 22
-0.3166666667
 13
-1.0
 23
-0.3166666667
  0
ENDBLK
  5
21D
100
AcDbEntity
  8
0
  6
BYBLOCK
 62
0
100
AcDbBlockEnd
  0
BLOCK
  5
21E
100
AcDbEntity
  8
0
100
AcDbBlockBegin
 62
7
  6
CONTINUOUS
  2
*D0
 70
65
 10
0.0
 20
0.0
  3
*D0
  1

  0
LINE
  5
21F
100
AcDbEntity
  8
0
100
AcDbLine
 62
7
  6
CONTINUOUS
 10
-62.965971225
 20
46.0542021822
 11
-62.965971225
 21
80.5542021822
  0
LINE
  5
220
100
AcDbEntity
  8
0
100
AcDbLine
 62
7
  6
CONTINUOUS
 10
63.034028775
 20
46.0542021822
 11
63.034028775
 21
80.5542021822
  0
LINE
  5
221
100
AcDbEntity
  8
0
100
AcDbLine
 62
7
  6
CONTINUOUS
 10
-62.965971225
 20
79.0542021822
 11
0.034028775
 21
79.0542021822
  0
LINE
  5
222
100
AcDbEntity
  8
0
100
AcDbLine
 62
7
  6
CONTINUOUS
 10
63.034028775
 20
79.0542021822
 11
0.034028775
 21
79.0542021822
  0
INSERT
  5
223
100
AcDbEntity
  8
0
100
AcDbBlockReference
 62
7
  6
CONTINUOUS
  2
_FILLED
 10
-62.965971225
 20
79.0542021822
 41
3.0
 42
3.0
 43
3.0
 50
180.0
  0
INSERT
  5
224
100
AcDbEntity
  8
0
100
AcDbBlockReference
 62
7
  6
CONTINUOUS
  2
_FILLED
 10
63.034028775
 20
79.0542021822
 41
3.0
 42
3.0
 43
3.0
 50
360.0
  0
ENDBLK
  5
225
100
AcDbEntity
  8
0
  6
BYBLOCK
 62
0
100
AcDbBlockEnd
  0
BLOCK
  5
226
100
AcDbEntity
  8
0
100
AcDbBlockBegin
 62
7
  6
CONTINUOUS
  2
*D1
 70
65
 10
0.0
 20
0.0
  3
*D1
  1

  0
LINE
  5
227
100
AcDbEntity
  8
0
100
AcDbLine
 62
7
  6
CONTINUOUS
 10
-57.965971225
 20
51.0542021822
 11
-82.465971225
 21
51.0542021822
  0
LINE
  5
228
100
AcDbEntity
  8
0
100
AcDbLine
 62
7
  6
CONTINUOUS
 10
-57.965971225
 20
-50.9457978178
 11
-82.465971225
 21
-50.9457978178
  0
LINE
  5
229
100
AcDbEntity
  8
0
100
AcDbLine
 62
7
  6
CONTINUOUS
 10
-80.965971225
 20
51.0542021822
 11
-80.965971225
 21
0.0542021822
  0
LINE
  5
22A
100
AcDbEntity
  8
0
100
AcDbLine
 62
7
  6
CONTINUOUS
 10
-80.965971225
 20
-50.9457978178
 11
-80.965971225
 21
0.0542021822
  0
INSERT
  5
22B
100
AcDbEntity
  8
0
100
AcDbBlockReference
 62
7
  6
CONTINUOUS
  2
_FILLED
 10
-80.965971225
 20
51.0542021822
 41
3.0
 42
3.0
 43
3.0
 50
90.0
  0
INSERT
  5
22C
100
AcDbEntity
  8
0
100
AcDbBlockReference
 62
7
  6
CONTINUOUS
  2
_FILLED
 10
-80.965971225
 20
-50.9457978178
 41
3.0
 42
3.0
 43
3.0
 50
270.0
  0
ENDBLK
  5
22D
100
AcDbEntity
  8
0
  6
BYBLOCK
 62
0
100
AcDbBlockEnd
  0
BLOCK
  5
22E
100
AcDbEntity
  8
0
100
AcDbBlockBegin
 62
7
  6
CONTINUOUS
  2
*D2
 70
65
 10
0.0
 20
0.0
  3
*D2
  1

  0
LINE
  5
22F
100
AcDbEntity
  8
0
100
AcDbLine
 62
7
  6
CONTINUOUS
 10
-48.465971225
 20
34.5545829443
 11
-48.465971225
 21
70.5542021822
  0
LINE
  5
230
100
AcDbEntity
  8
0
100
AcDbLine
 62
7
  6
CONTINUOUS
 10
48.534028775
 20
34.5545829443
 11
48.534028775
 21
70.5542021822
  0
LINE
  5
231
100
AcDbEntity
  8
0
100
AcDbLine
 62
7
  6
CONTINUOUS
 10
-48.465971225
 20
69.0542021822
 11
0.034028775
 21
69.0542021822
  0
LINE
  5
232
100
AcDbEntity
  8
0
100
AcDbLine
 62
7
  6
CONTINUOUS
 10
48.534028775
 20
69.0542021822
 11
0.034028775
 21
69.0542021822
  0
INSERT
  5
233
100
AcDbEntity
  8
0
100
AcDbBlockReference
 62
7
  6
CONTINUOUS
  2
_FILLED
 10
-48.465971225
 20
69.0542021822
 41
3.0
 42
3.0
 43
3.0
 50
180.0
  0
INSERT
  5
234
100
AcDbEntity
  8
0
100
AcDbBlockReference
 62
7
  6
CONTINUOUS
  2
_FILLED
 10
48.534028775
 20
69.0542021822
 41
3.0
 42
3.0
 43
3.0
  0
ENDBLK
  5
235
100
AcDbEntity
  8
0
  6
BYBLOCK
 62
0
100
AcDbBlockEnd
  0
BLOCK
  5
236
100
AcDbEntity
  8
0
100
AcDbBlockBegin
 62
7
  6
CONTINUOUS
  2
*D3
 70
65
 10
0.0
 20
0.0
  3
*D3
  1

  0
LINE
  5
237
100
AcDbEntity
  8
0
100
AcDbLine
 62
7
  6
CONTINUOUS
 10
-46.4663519871
 20
36.5542021822
 11
-72.465971225
 21
36.5542021822
  0
LINE
  5
238
100
AcDbEntity
  8
0
100
AcDbLine
 62
7
  6
CONTINUOUS
 10
-46.4663519871
 20
-36.4457978178
 11
-72.465971225
 21
-36.4457978178
  0
LINE
  5
239
100
AcDbEntity
  8
0
100
AcDbLine
 62
7
  6
CONTINUOUS
 10
-70.965971225
 20
36.5542021822
 11
-70.965971225
 21
0.0542021822
  0
LINE
  5
23A
100
AcDbEntity
  8
0
100
AcDbLine
 62
7
  6
CONTINUOUS
 10
-70.965971225
 20
-36.4457978178
 11
-70.965971225
 21
0.0542021822
  0
INSERT
  5
23B
100
AcDbEntity
  8
0
100
AcDbBlockReference
 62
7
  6
CONTINUOUS
  2
_FILLED
 10
-70.965971225
 20
36.5542021822
 41
3.0
 42
3.0
 43
3.0
 50
90.0
  0
INSERT
  5
23C
100
AcDbEntity
  8
0
100
AcDbBlockReference
 62
7
  6
CONTINUOUS
  2
_FILLED
 10
-70.965971225
 20
-36.4457978178
 41
3.0
 42
3.0
 43
3.0
 50
270.0
  0
ENDBLK
  5
23D
100
AcDbEntity
  8
0
  6
BYBLOCK
 62
0
100
AcDbBlockEnd
  0
BLOCK
  5
23E
100
AcDbEntity
  8
0
100
AcDbBlockBegin
 62
7
  6
CONTINUOUS
  2
*D4
 70
65
 10
0.0
 20
0.0
  3
*D4
  1

  0
LINE
  5
23F
100
AcDbEntity
  8
0
100
AcDbLine
 62
7
  6
CONTINUOUS
 10
-41.715971225
 20
0.5542021822
 11
-41.715971225
 21
60.5542021822
  0
LINE
  5
240
100
AcDbEntity
  8
0
100
AcDbLine
 62
7
  6
CONTINUOUS
 10
41.784028775
 20
0.5542021822
 11
41.784028775
 21
60.5542021822
  0
LINE
  5
241
100
AcDbEntity
  8
0
100
AcDbLine
 62
7
  6
CONTINUOUS
 10
-41.715971225
 20
59.0542021822
 11
0.034028775
 21
59.0542021822
  0
LINE
  5
242
100
AcDbEntity
  8
0
100
AcDbLine
 62
7
  6
CONTINUOUS
 10
41.784028775
 20
59.0542021822
 11
0.034028775
 21
59.0542021822
  0
INSERT
  5
243
100
AcDbEntity
  8
0
100
AcDbBlockReference
 62
7
  6
CONTINUOUS
  2
_FILLED
 10
-41.715971225
 20
59.0542021822
 41
3.0
 42
3.0
 43
3.0
 50
180.0
  0
INSERT
  5
244
100
AcDbEntity
  8
0
100
AcDbBlockReference
 62
7
  6
CONTINUOUS
  2
_FILLED
 10
41.784028775
 20
59.0542021822
 41
3.0
 42
3.0
 43
3.0
  0
ENDBLK
  5
245
100
AcDbEntity
  8
0
  6
BYBLOCK
 62
0
100
AcDbBlockEnd
  0
BLOCK
  5
246
100
AcDbEntity
  8
0
100
AcDbBlockBegin
 62
7
  6
CONTINUOUS
  2
*D5
 70
65
 10
0.0
 20
0.0
  3
*D5
  1

  0
LINE
  5
247
100
AcDbEntity
  8
0
100
AcDbLine
 62
7
  6
CONTINUOUS
 10
139.938569886
 20
46.0542021822
 11
139.938569886
 21
60.5542021822
  0
LINE
  5
248
100
AcDbEntity
  8
0
100
AcDbLine
 62
7
  6
CONTINUOUS
 10
86.938569886
 20
35.7516499576
 11
86.938569886
 21
60.5542021822
  0
LINE
  5
249
100
AcDbEntity
  8
0
100
AcDbLine
 62
7
  6
CONTINUOUS
 10
139.938569886
 20
59.0542021822
 11
113.438569886
 21
59.0542021822
  0
LINE
  5
24A
100
AcDbEntity
  8
0
100
AcDbLine
 62
7
  6
CONTINUOUS
 10
86.938569886
 20
59.0542021822
 11
113.438569886
 21
59.0542021822
  0
INSERT
  5
24B
100
AcDbEntity
  8
0
100
AcDbBlockReference
 62
7
  6
CONTINUOUS
  2
_FILLED
 10
139.938569886
 20
59.0542021822
 41
3.0
 42
3.0
 43
3.0
  0
INSERT
  5
24C
100
AcDbEntity
  8
0
100
AcDbBlockReference
 62
7
  6
CONTINUOUS
  2
_FILLED
 10
86.938569886
 20
59.0542021822
 41
3.0
 42
3.0
 43
3.0
 50
180.0
  0
ENDBLK
  5
24D
100
AcDbEntity
  8
0
  6
BYBLOCK
 62
0
100
AcDbBlockEnd
  0
ENDSEC
  0
SECTION
  2
ENTITIES
  0
DIMENSION
  5
24E
100
AcDbEntity
  8
0
100
AcDbDimension
 62
7
  6
CONTINUOUS
  2
*D0
 10
63.034028775
 20
79.0542021822
 11
-3.1802569393
 21
79.0542021822
 70
160
 71
2
 72
2
 41
0.9
 42
126.0
  3
DIMSTYLE_1
100
AcDbAlignedDimension
 13
-62.965971225
 23
45.5542021822
 14
63.034028775
 24
45.5542021822
100
AcDbRotatedDimension
  0
DIMENSION
  5
24F
100
AcDbEntity
  8
0
100
AcDbDimension
 62
7
  6
CONTINUOUS
  2
*D1
 10
-80.965971225
 20
-50.9457978178
 11
-80.965971225
 21
-3.160083532
 70
160
 71
2
 72
2
 41
0.9
 42
102.0
  3
DIMSTYLE_1
100
AcDbAlignedDimension
 13
-57.465971225
 23
51.0542021822
 14
-57.465971225
 24
-50.9457978178
 50
270.0
100
AcDbRotatedDimension
  0
DIMENSION
  5
250
100
AcDbEntity
  8
0
100
AcDbDimension
 62
7
  6
CONTINUOUS
  2
*D2
 10
48.534028775
 20
69.0542021822
 11
-2.3231140821
 21
69.0542021822
 70
160
 71
2
 72
2
 41
0.9
 42
97.0
  3
DIMSTYLE_1
100
AcDbAlignedDimension
 13
-48.465971225
 23
34.0545829443
 14
48.534028775
 24
34.0545829443
100
AcDbRotatedDimension
  0
DIMENSION
  5
251
100
AcDbEntity
  8
0
100
AcDbDimension
 62
7
  6
CONTINUOUS
  2
*D3
 10
-70.965971225
 20
-36.4457978178
 11
-70.965971225
 21
-2.1957978178
 70
160
 71
2
 72
2
 41
0.9
 42
73.0
  3
DIMSTYLE_1
100
AcDbAlignedDimension
 13
-45.9663519871
 23
36.5542021822
 14
-45.9663519871
 24
-36.4457978178
 50
270.0
100
AcDbRotatedDimension
  0
DIMENSION
  5
252
100
AcDbEntity
  8
0
100
AcDbDimension
 62
7
  6
CONTINUOUS
  2
*D4
 10
41.784028775
 20
59.0542021822
 11
-4.1445426536
 21
59.0542021822
 70
160
 71
2
 72
2
 41
0.9
 42
83.5
  3
DIMSTYLE_1
100
AcDbAlignedDimension
 13
-41.715971225
 23
0.0542021822
 14
41.784028775
 24
0.0542021822
100
AcDbRotatedDimension
  0
DIMENSION
  5
253
100
AcDbEntity
  8
0
100
AcDbDimension
 62
7
  6
CONTINUOUS
  2
*D5
 10
86.938569886
 20
59.0542021822
 11
111.2957127431
 21
59.0542021822
 70
160
 71
2
 72
2
 41
0.9
 42
53.0
  3
DIMSTYLE_1
100
AcDbAlignedDimension
 13
139.938569886
 23
45.5542021822
 14
86.938569886
 24
35.2516499576
 50
180.0
100
AcDbRotatedDimension
  0
LWPOLYLINE
  5
254
100
AcDbEntity
  8
0
100
AcDbPolyline
 62
7
  6
CONTINUOUS
 90
7
 70
0
 43
0.3500000006
 10
-81.7159680176
 20
2.4113459244
 10
-81.7159680176
 20
0.9113454666
 10
-83.8588309937
 20
2.4113459244
 10
-84.2873999634
 20
2.4113459244
 10
-84.7159689331
 20
1.9827746887
 10
-84.7159689331
 20
1.3399167023
 10
-84.0731154785
 20
0.9113454666
  0
LWPOLYLINE
  5
255
100
AcDbEntity
  8
0
100
AcDbPolyline
 62
7
  6
CONTINUOUS
 90
6
 70
0
 43
0.3500000006
 10
-71.7159694977
 20
0.1613452377
 10
-71.7159694977
 20
1.2327744598
 10
-71.9302585144
 20
1.4470589447
 10
-73.0016854706
 20
1.4470589447
 10
-73.4302589722
 20
1.018487709
 10
-73.4302589722
 20
0.5899164734
  0
LINE
  5
256
100
AcDbEntity
  8
RACCORDO
100
AcDbLine
 62
7
  6
CONTINUOUS
 10
-62.965971225
 20
45.5542021822
 11
-62.965971225
 21
-45.4457978178
  0
LINE
  5
257
100
AcDbEntity
  8
RACCORDO
100
AcDbLine
 62
7
  6
CONTINUOUS
 10
-59.965971225
 20
45.5542021822
 11
-59.965971225
 21
-45.4457978178
  0
LWPOLYLINE
  5
258
100
AcDbEntity
  8
0
100
AcDbPolyline
 62
7
  6
CONTINUOUS
 90
3
 70
0
 43
0.3500000006
 10
-3.1802570772
 20
81.9470608521
 10
-2.3231140394
 20
82.8041987915
 10
-2.3231140394
 20
79.804197876
  0
LWPOLYLINE
  5
259
100
AcDbEntity
  8
0
100
AcDbPolyline
 62
7
  6
CONTINUOUS
 90
3
 70
0
 43
0.3500000006
 10
-83.8588309937
 20
-3.1600835381
 10
-84.7159689331
 20
-2.3029410667
 10
-81.7159680176
 20
-2.3029410667
  0
LWPOLYLINE
  5
25A
100
AcDbEntity
  8
0
100
AcDbPolyline
 62
7
  6
CONTINUOUS
 90
5
 70
0
 43
0.3500000006
 10
-73.4302589722
 20
1.018487709
 10
-73.644543457
 20
1.3756300278
 10
-74.2874014435
 20
1.3756300278
 10
-74.7159704132
 20
1.018487709
 10
-74.7159704132
 20
0.1613452377
  0
LINE
  5
25B
100
AcDbEntity
  8
0
100
AcDbLine
 62
7
  6
CONTINUOUS
 10
-57.465971225
 20
-45.4457978178
 11
-57.465971225
 21
45.5542021822
  0
LWPOLYLINE
  5
25C
100
AcDbEntity
  8
0
100
AcDbPolyline
 62
7
  6
CONTINUOUS
 90
10
 70
0
 43
0.3500000006
 10
1.9626001582
 20
82.8041987915
 10
1.3197430215
 20
82.1613453369
 10
0.8911716442
 20
81.3041983337
 10
0.8911716442
 20
80.2327759094
 10
1.3197430215
 20
79.804197876
 10
1.9626001582
 20
79.804197876
 10
2.3911715355
 20
80.2327759094
 10
2.3911715355
 20
81.0899138489
 10
1.9626001582
 20
81.5184918823
 10
1.03402877
 20
81.5184918823
  0
LINE
  5
25D
100
AcDbEntity
  8
RACCORDO
100
AcDbLine
 62
7
  6
CONTINUOUS
 10
-50.5532465496
 20
36.6417821166
 11
-50.5532465496
 21
-36.5333777521
  0
LINE
  5
25E
100
AcDbEntity
  8
RACCORDO
100
AcDbLine
 62
7
  6
CONTINUOUS
 10
-48.465971225
 20
34.0545829443
 11
-48.465971225
 21
-33.9461785799
  0
LINE
  5
25F
100
AcDbEntity
  8
DRAFT
100
AcDbLine
 62
7
  6
CONTINUOUS
 10
-48.4485161601
 20
-0.9457978178
 11
-48.4485161601
 21
1.0542021822
  0
LWPOLYLINE
  5
260
100
AcDbEntity
  8
0
100
AcDbPolyline
 62
7
  6
CONTINUOUS
 90
10
 70
0
 43
0.3500000006
 10
-1.8945426621
 20
69.8042038879
 10
-1.037399766
 20
70.6613418274
 10
-0.8231140773
 20
71.5184888306
 10
-0.8231140773
 20
72.37562677
 10
-1.2516855254
 20
72.8042048035
 10
-1.8945426621
 20
72.8042048035
 10
-2.3231140394
 20
72.37562677
 10
-2.3231140394
 20
71.5184888306
 10
-1.8945426621
 20
71.0899198608
 10
-0.9659712031
 20
71.0899198608
  0
LWPOLYLINE
  5
261
100
AcDbEntity
  8
0
100
AcDbPolyline
 62
7
  6
CONTINUOUS
 90
5
 70
0
 43
0.3500000006
 10
-0.9302569571
 20
61.5184857788
 10
-0.5731140718
 20
61.7327702637
 10
-0.5731140718
 20
62.375632782
 10
-0.9302569571
 20
62.8042017517
 10
-1.7873998532
 20
62.8042017517
  0
LINE
  5
262
100
AcDbEntity
  8
RACCORDO
100
AcDbLine
 62
7
  6
CONTINUOUS
 10
-57.465971225
 20
-50.9457978178
 11
57.534028775
 21
-50.9457978178
  0
LINE
  5
263
100
AcDbEntity
  8
RACCORDO
100
AcDbLine
 62
7
  6
CONTINUOUS
 10
-57.465971225
 20
-47.9457978178
 11
57.534028775
 21
-47.9457978178
  0
LINE
  5
264
100
AcDbEntity
  8
RACCORDO
100
AcDbLine
 62
7
  6
CONTINUOUS
 10
-47.6071820305
 20
33.1957937499
 11
-47.6071820305
 21
1.0542021822
  0
LINE
  5
265
100
AcDbEntity
  8
RACCORDO
100
AcDbLine
 62
7
  6
CONTINUOUS
 10
-47.6071820305
 20
-0.9457978178
 11
-47.6071820305
 21
-33.0873893854
  0
LINE
  5
266
100
AcDbEntity
  8
0
100
AcDbLine
 62
7
  6
CONTINUOUS
 10
57.534028775
 20
-45.4457978178
 11
-57.465971225
 21
-45.4457978178
  0
LINE
  5
267
100
AcDbEntity
  8
RACCORDO
100
AcDbLine
 62
7
  6
CONTINUOUS
 10
-48.5535511593
 20
-38.5330731424
 11
48.6216087093
 21
-38.5330731424
  0
LINE
  5
268
100
AcDbEntity
  8
ASSI
100
AcDbLine
 62
7
  6
CONTINUOUS
 10
-28.999327225
 20
-26.3007548178
 11
-28.135049225
 21
-27.0290878178
  0
LINE
  5
269
100
AcDbEntity
  8
ASSI
100
AcDbLine
 62
7
  6
CONTINUOUS
 10
-28.135049225
 20
-26.6307568178
 11
-29.039220225
 21
-25.8688058178
  0
LINE
  5
26A
100
AcDbEntity
  8
ASSI
100
AcDbLine
 62
7
  6
CONTINUOUS
 10
-27.369750225
 20
-28.0080718178
 11
-27.221793225
 21
-28.2716838178
  0
LINE
  5
26B
100
AcDbEntity
  8
0
100
AcDbLine
 62
7
  6
CONTINUOUS
 10
-30.087571225
 20
28.0313981822
 11
-30.833957225
 21
25.4160561822
  0
LINE
  5
26C
100
AcDbEntity
  8
0
100
AcDbLine
 62
7
  6
CONTINUOUS
 10
-30.516324225
 20
24.2318561822
 11
-29.294999225
 21
28.0313981822
  0
LINE
  5
26D
100
AcDbEntity
  8
0
100
AcDbLine
 62
7
  6
CONTINUOUS
 10
-25.067216225
 20
28.0313981822
 11
-25.860330225
 21
25.9218811822
  0
LINE
  5
26E
100
AcDbEntity
  8
0
100
AcDbLine
 62
7
  6
CONTINUOUS
 10
-25.809043225
 20
24.2318561822
 11
-24.866031225
 21
26.7025431822
  0
LWPOLYLINE
  5
26F
100
AcDbEntity
  8
0
100
AcDbPolyline
 62
7
  6
CONTINUOUS
 90
51
 70
0
 10
-18.2633585393
 20
26.1136978966
 10
-18.2481507861
 20
26.1266314737
 10
-18.2327447654
 20
26.1400622846
 10
-18.21712987
 20
26.1539428578
 10
-18.2013167072
 20
26.1683206648
 10
-18.1853431701
 20
26.1834011529
 10
-18.1691987015
 20
26.1991518744
 10
-18.1528938587
 20
26.2156052771
 10
-18.136498207
 20
26.2330641513
 10
-18.1199947647
 20
26.251528104
 10
-18.1034005137
 20
26.2709975283
 10
-18.0868359648
 20
26.2917763943
 10
-18.0702875085
 20
26.313934604
 10
-18.0537687543
 20
26.3374022555
 10
-18.0374410426
 20
26.3622736133
 10
-18.0212848549
 20
26.3885468293
 10
-18.0053197097
 20
26.4162237516
 10
-17.9897655027
 20
26.4454041894
 10
-17.9745890236
 20
26.476039006
 10
-17.9598234829
 20
26.508177338
 10
-17.9457884072
 20
26.5420664051
 10
-17.932454115
 20
26.5777197216
 10
-17.9198502879
 20
26.6151237732
 10
-17.9083854974
 20
26.6544852359
 10
-17.898037181
 20
26.6958427698
 10
-17.8888279013
 20
26.7391577149
 10
-17.881233917
 20
26.7845207672
 10
-17.8752373801
 20
26.8319336337
 10
-17.8708561387
 20
26.8813946074
 10
-17.868619996
 20
26.9329892627
 10
-17.8683653424
 20
26.9867305183
 10
-17.8702557876
 20
27.0426054556
 10
-17.8753119635
 20
27.1006608933
 10
-17.88351761
 20
27.1615479751
 10
-17.8948889873
 20
27.2246155573
 10
-17.9104955078
 20
27.2879570278
 10
-17.9307937032
 20
27.3517464713
 10
-17.9553270419
 20
27.4158098031
 10
-17.9837953415
 20
27.4777181567
 10
-18.0165921056
 20
27.537181146
 10
-18.0533238307
 20
27.594489157
 10
-18.0925098238
 20
27.6480844814
 10
-18.1343615665
 20
27.6976461475
 10
-18.1786675772
 20
27.7434951271
 10
-18.2233127181
 20
27.785036627
 10
-18.2678290137
 20
27.821910712
 10
-18.3126844395
 20
27.8544773174
 10
-18.3571677841
 20
27.8832214558
 10
-18.401041977
 20
27.9083047981
 10
-18.4445440888
 20
27.9295656733
 10
-18.4876741194
 20
27.9470040815
  0
LINE
  5
270
100
AcDbEntity
  8
RACCORDO
100
AcDbLine
 62
7
  6
CONTINUOUS
 10
-45.9663519871
 20
-36.4457978178
 11
46.0344095371
 21
-36.4457978178
  0
LINE
  5
271
100
AcDbEntity
  8
RACCORDO
100
AcDbLine
 62
7
  6
CONTINUOUS
 10
-45.1075627926
 20
-35.5870086233
 11
45.1756203426
 21
-35.5870086233
  0
LINE
  5
272
100
AcDbEntity
  8
0
100
AcDbLine
 62
7
  6
CONTINUOUS
 10
-29.000672225
 20
28.0316261822
 11
-29.000672225
 21
24.2318561822
  0
LINE
  5
273
100
AcDbEntity
  8
ASSI
100
AcDbLine
 62
7
  6
CONTINUOUS
 10
-28.419903225
 20
-28.0948038178
 11
-28.419903225
 21
-28.4162308178
  0
LINE
  5
274
100
AcDbEntity
  8
ASSI
100
AcDbLine
 62
7
  6
CONTINUOUS
 10
-28.409406225
 20
-25.4880268178
 11
-28.409406225
 21
-25.8112218178
  0
LINE
  5
275
100
AcDbEntity
  8
0
100
AcDbLine
 62
7
  6
CONTINUOUS
 10
-28.207559225
 20
24.2318561822
 11
-28.207559225
 21
28.0316261822
  0
LINE
  5
276
100
AcDbEntity
  8
ASSI
100
AcDbLine
 62
7
  6
CONTINUOUS
 10
-28.135049225
 20
-25.8112218178
 11
-28.135049225
 21
-26.6307568178
  0
LINE
  5
277
100
AcDbEntity
  8
ASSI
100
AcDbLine
 62
7
  6
CONTINUOUS
 10
-28.135049225
 20
-27.0290878178
 11
-28.135049225
 21
-28.0948038178
  0
LINE
  5
278
100
AcDbEntity
  8
ASSI
100
AcDbLine
 62
7
  6
CONTINUOUS
 10
-27.792628225
 20
-28.0948038178
 11
-27.792628225
 21
-27.0254938178
  0
LINE
  5
279
100
AcDbEntity
  8
ASSI
100
AcDbLine
 62
7
  6
CONTINUOUS
 10
-27.792628225
 20
-26.6307568178
 11
-27.792628225
 21
-25.8112218178
  0
LINE
  5
27A
100
AcDbEntity
  8
ASSI
100
AcDbLine
 62
7
  6
CONTINUOUS
 10
-27.518381225
 20
-25.8112218178
 11
-27.518381225
 21
-25.4880268178
  0
LINE
  5
27B
100
AcDbEntity
  8
ASSI
100
AcDbLine
 62
7
  6
CONTINUOUS
 10
-27.507884225
 20
-28.4162308178
 11
-27.507884225
 21
-28.0948038178
  0
LINE
  5
27C
100
AcDbEntity
  8
0
100
AcDbLine
 62
7
  6
CONTINUOUS
 10
-27.021849225
 20
24.2318561822
 11
-26.850696225
 21
26.7128861822
  0
LINE
  5
27D
100
AcDbEntity
  8
0
100
AcDbLine
 62
7
  6
CONTINUOUS
 10
-27.437524225
 20
28.0313981822
 11
-27.780601225
 21
24.2318561822
  0
LINE
  5
27E
100
AcDbEntity
  8
0
100
AcDbLine
 62
7
  6
CONTINUOUS
 10
-22.637074225
 20
25.5773221822
 11
-22.242170225
 21
26.9873811822
  0
LINE
  5
27F
100
AcDbEntity
  8
0
100
AcDbLine
 62
7
  6
CONTINUOUS
 10
-23.018159225
 20
24.2318561822
 11
-22.799309225
 21
24.9903801822
  0
LINE
  5
280
100
AcDbEntity
  8
0
100
AcDbLine
 62
7
  6
CONTINUOUS
 10
-22.610889225
 20
28.0313981822
 11
-23.802668225
 21
24.2318561822
  0
LWPOLYLINE
  5
281
100
AcDbEntity
  8
0
100
AcDbPolyline
 62
7
  6
CONTINUOUS
 90
31
 70
0
 10
17.2705419594
 20
-28.5207978178
 10
17.3551675224
 20
-28.518401398
 10
17.4371580851
 20
-28.5118235739
 10
17.5165136475
 20
-28.5010643453
 10
17.5935299901
 20
-28.4858480794
 10
17.6679113324
 20
-28.466450409
 10
17.7387703327
 20
-28.4436982331
 10
17.8054156409
 20
-28.4180235152
 10
17.868538607
 20
-28.3889942917
 10
17.9293259401
 20
-28.356141571
 10
17.9880703724
 20
-28.3191740947
 10
18.0444791715
 20
-28.2783831212
 10
18.0988608503
 20
-28.2341734341
 10
18.1518892979
 20
-28.1859757434
 10
18.2028906251
 20
-28.1343593392
 10
18.2501516772
 20
-28.0814368748
 10
18.2928699479
 20
-28.0283211235
 10
18.3318479436
 20
-27.973899312
 10
18.3677800284
 20
-27.9169457742
 10
18.4004344364
 20
-27.8575393939
 10
18.4300429335
 20
-27.7956012874
 10
18.4579951818
 20
-27.7296691373
 10
18.4851966482
 20
-27.6593241319
 10
18.5107418659
 20
-27.584985083
 10
18.533304096
 20
-27.5064461089
 10
18.5527879121
 20
-27.4236683695
 10
18.5692887407
 20
-27.3366907049
 10
18.5817661232
 20
-27.2454237536
 10
18.58987324
 20
-27.1498377284
 10
18.5939569107
 20
-27.0499624164
 10
18.5939749946
 20
-26.8424584786
  0
LINE
  5
282
100
AcDbEntity
  8
0
100
AcDbLine
 62
7
  6
CONTINUOUS
 10
9.377819775
 20
-28.5207978178
 11
9.790197775
 21
-28.5207978178
  0
LINE
  5
283
100
AcDbEntity
  8
0
100
AcDbLine
 62
7
  6
CONTINUOUS
 10
10.676484775
 20
-28.5207978178
 11
11.097672775
 21
-28.5207978178
  0
LINE
  5
284
100
AcDbEntity
  8
0
100
AcDbLine
 62
7
  6
CONTINUOUS
 10
11.983789775
 20
-28.5207978178
 11
12.396333775
 21
-28.5207978178
  0
LINE
  5
285
100
AcDbEntity
  8
0
100
AcDbLine
 62
7
  6
CONTINUOUS
 10
12.773646775
 20
-28.5207978178
 11
13.212327775
 21
-28.5207978178
  0
LINE
  5
286
100
AcDbEntity
  8
0
100
AcDbLine
 62
7
  6
CONTINUOUS
 10
15.116339775
 20
-28.5207978178
 11
15.581438775
 21
-28.5207978178
  0
LINE
  5
287
100
AcDbEntity
  8
0
100
AcDbLine
 62
7
  6
CONTINUOUS
 10
15.993804775
 20
-28.5207978178
 11
17.2705419594
 21
-28.5207978178
  0
LINE
  5
288
100
AcDbEntity
  8
0
100
AcDbLine
 62
7
  6
CONTINUOUS
 10
19.183418775
 20
-28.5207978178
 11
21.508788775
 21
-28.5207978178
  0
LINE
  5
289
100
AcDbEntity
  8
0
100
AcDbLine
 62
7
  6
CONTINUOUS
 10
23.351506775
 20
-28.5207978178
 11
23.777043775
 21
-28.5207978178
  0
LINE
  5
28A
100
AcDbEntity
  8
0
100
AcDbLine
 62
7
  6
CONTINUOUS
 10
24.505224775
 20
-28.5207978178
 11
24.917793775
 21
-28.5207978178
  0
LINE
  5
28B
100
AcDbEntity
  8
0
100
AcDbLine
 62
7
  6
CONTINUOUS
 10
26.527949775
 20
-28.5207978178
 11
27.006143775
 21
-28.5207978178
  0
LINE
  5
28C
100
AcDbEntity
  8
0
100
AcDbLine
 62
7
  6
CONTINUOUS
 10
28.958404775
 20
-28.5207978178
 11
29.384068775
 21
-28.5207978178
  0
LINE
  5
28D
100
AcDbEntity
  8
0
100
AcDbLine
 62
7
  6
CONTINUOUS
 10
30.906487775
 20
-28.5207978178
 11
31.331999775
 21
-28.5207978178
  0
LINE
  5
28E
100
AcDbEntity
  8
0
100
AcDbLine
 62
7
  6
CONTINUOUS
 10
32.520974775
 20
-28.5207978178
 11
32.959630775
 21
-28.5207978178
  0
LINE
  5
28F
100
AcDbEntity
  8
0
100
AcDbLine
 62
7
  6
CONTINUOUS
 10
34.863820775
 20
-28.5207978178
 11
35.328996775
 21
-28.5207978178
  0
LINE
  5
290
100
AcDbEntity
  8
0
100
AcDbLine
 62
7
  6
CONTINUOUS
 10
35.719275775
 20
-28.5207978178
 11
37.742000775
 21
-28.5207978178
  0
LINE
  5
291
100
AcDbEntity
  8
0
100
AcDbLine
 62
7
  6
CONTINUOUS
 10
39.075623775
 20
-28.5207978178
 11
39.501058775
 21
-28.5207978178
  0
LINE
  5
292
100
AcDbEntity
  8
ASSI
100
AcDbLine
 62
7
  6
CONTINUOUS
 10
-28.419903225
 20
-28.4162308178
 11
-27.507884225
 21
-28.4162308178
  0
LINE
  5
293
100
AcDbEntity
  8
0
100
AcDbLine
 62
7
  6
CONTINUOUS
 10
17.2597153266
 20
-28.1567578178
 11
16.419493775
 21
-28.1567578178
  0
LINE
  5
294
100
AcDbEntity
  8
0
100
AcDbLine
 62
7
  6
CONTINUOUS
 10
37.742000775
 20
-28.1435108178
 11
36.144964775
 21
-28.1435108178
  0
LINE
  5
295
100
AcDbEntity
  8
0
100
AcDbLine
 62
7
  6
CONTINUOUS
 10
21.508788775
 20
-28.1435108178
 11
19.609082775
 21
-28.1435108178
  0
LINE
  5
296
100
AcDbEntity
  8
ASSI
100
AcDbLine
 62
7
  6
CONTINUOUS
 10
-27.507884225
 20
-28.0948038178
 11
-27.792628225
 21
-28.0948038178
  0
LINE
  5
297
100
AcDbEntity
  8
ASSI
100
AcDbLine
 62
7
  6
CONTINUOUS
 10
-28.135049225
 20
-28.0948038178
 11
-28.419903225
 21
-28.0948038178
  0
LINE
  5
298
100
AcDbEntity
  8
0
100
AcDbLine
 62
7
  6
CONTINUOUS
 10
13.541415775
 20
-27.6039478178
 11
14.804880775
 21
-27.6039478178
  0
LINE
  5
299
100
AcDbEntity
  8
0
100
AcDbLine
 62
7
  6
CONTINUOUS
 10
33.288743775
 20
-27.6039478178
 11
34.552335775
 21
-27.6039478178
  0
LINE
  5
29A
100
AcDbEntity
  8
ASSI
100
AcDbLine
 62
7
  6
CONTINUOUS
 10
-8.394097225
 20
-27.3283098178
 11
-6.905561225
 21
-27.3283098178
  0
LINE
  5
29B
100
AcDbEntity
  8
0
100
AcDbLine
 62
7
  6
CONTINUOUS
 10
34.398746775
 20
-27.2266608178
 11
33.420373775
 21
-27.2266608178
  0
LINE
  5
29C
100
AcDbEntity
  8
0
100
AcDbLine
 62
7
  6
CONTINUOUS
 10
14.651443775
 20
-27.2266608178
 11
13.673070775
 21
-27.2266608178
  0
LINE
  5
29D
100
AcDbEntity
  8
0
100
AcDbLine
 62
7
  6
CONTINUOUS
 10
19.609082775
 20
-27.0906238178
 11
21.333264775
 21
-27.0906238178
  0
LINE
  5
29E
100
AcDbEntity
  8
0
100
AcDbLine
 62
7
  6
CONTINUOUS
 10
21.333264775
 20
-26.7133368178
 11
19.609082775
 21
-26.7133368178
  0
LINE
  5
29F
100
AcDbEntity
  8
ASSI
100
AcDbLine
 62
7
  6
CONTINUOUS
 10
-6.905561225
 20
-26.5633098178
 11
-8.3940976904
 21
-26.5633098178
  0
LINE
  5
2A0
100
AcDbEntity
  8
0
100
AcDbLine
 62
7
  6
CONTINUOUS
 10
-23.927208225
 20
24.2318561822
 11
-24.282508225
 21
28.0313981822
  0
LINE
  5
2A1
100
AcDbEntity
  8
0
100
AcDbLine
 62
7
  6
CONTINUOUS
 10
-24.866031225
 20
26.7025431822
 11
-24.703084225
 21
24.2318561822
  0
LINE
  5
2A2
100
AcDbEntity
  8
ASSI
100
AcDbLine
 62
7
  6
CONTINUOUS
 10
-28.409406225
 20
-25.8112218178
 11
-28.135049225
 21
-25.8112218178
  0
LINE
  5
2A3
100
AcDbEntity
  8
ASSI
100
AcDbLine
 62
7
  6
CONTINUOUS
 10
-27.792628225
 20
-25.8112218178
 11
-27.518381225
 21
-25.8112218178
  0
LINE
  5
2A4
100
AcDbEntity
  8
0
100
AcDbLine
 62
7
  6
CONTINUOUS
 10
19.609082775
 20
-25.7480848178
 11
21.478039775
 21
-25.7480848178
  0
LINE
  5
2A5
100
AcDbEntity
  8
0
100
AcDbLine
 62
7
  6
CONTINUOUS
 10
29.840353775
 20
-25.7480848178
 11
30.906487775
 21
-25.7480848178
  0
LINE
  5
2A6
100
AcDbEntity
  8
0
100
AcDbLine
 62
7
  6
CONTINUOUS
 10
31.331999775
 20
-25.7480848178
 11
32.398133775
 21
-25.7480848178
  0
LINE
  5
2A7
100
AcDbEntity
  8
0
100
AcDbLine
 62
7
  6
CONTINUOUS
 10
16.419493775
 20
-25.7348378178
 11
17.2597153266
 21
-25.7348378178
  0
LINE
  5
2A8
100
AcDbEntity
  8
ASSI
100
AcDbLine
 62
7
  6
CONTINUOUS
 10
-27.518381225
 20
-25.4880268178
 11
-28.409406225
 21
-25.4880268178
  0
LINE
  5
2A9
100
AcDbEntity
  8
0
100
AcDbLine
 62
7
  6
CONTINUOUS
 10
40.690237775
 20
-25.3707978178
 11
40.189906775
 21
-25.3707978178
  0
LINE
  5
2AA
100
AcDbEntity
  8
0
100
AcDbLine
 62
7
  6
CONTINUOUS
 10
38.382445775
 20
-25.3707978178
 11
37.886699775
 21
-25.3707978178
  0
LINE
  5
2AB
100
AcDbEntity
  8
0
100
AcDbLine
 62
7
  6
CONTINUOUS
 10
36.144964775
 20
-25.3707978178
 11
35.719275775
 21
-25.3707978178
  0
LINE
  5
2AC
100
AcDbEntity
  8
0
100
AcDbLine
 62
7
  6
CONTINUOUS
 10
34.188143775
 20
-25.3707978178
 11
33.705618775
 21
-25.3707978178
  0
LINE
  5
2AD
100
AcDbEntity
  8
0
100
AcDbLine
 62
7
  6
CONTINUOUS
 10
32.398133775
 20
-25.3707978178
 11
29.840353775
 21
-25.3707978178
  0
LINE
  5
2AE
100
AcDbEntity
  8
0
100
AcDbLine
 62
7
  6
CONTINUOUS
 10
29.384068775
 20
-25.3707978178
 11
28.958404775
 21
-25.3707978178
  0
LINE
  5
2AF
100
AcDbEntity
  8
0
100
AcDbLine
 62
7
  6
CONTINUOUS
 10
27.006143775
 20
-25.3707978178
 11
26.593777775
 21
-25.3707978178
  0
LINE
  5
2B0
100
AcDbEntity
  8
0
100
AcDbLine
 62
7
  6
CONTINUOUS
 10
25.009861775
 20
-25.3707978178
 11
24.505224775
 21
-25.3707978178
  0
LINE
  5
2B1
100
AcDbEntity
  8
0
100
AcDbLine
 62
7
  6
CONTINUOUS
 10
23.777043775
 20
-25.3707978178
 11
23.351506775
 21
-25.3707978178
  0
LINE
  5
2B2
100
AcDbEntity
  8
0
100
AcDbLine
 62
7
  6
CONTINUOUS
 10
21.478039775
 20
-25.3707978178
 11
19.183418775
 21
-25.3707978178
  0
LINE
  5
2B3
100
AcDbEntity
  8
0
100
AcDbLine
 62
7
  6
CONTINUOUS
 10
17.2839350465
 20
-25.3707978178
 11
15.993804775
 21
-25.3707978178
  0
LINE
  5
2B4
100
AcDbEntity
  8
0
100
AcDbLine
 62
7
  6
CONTINUOUS
 10
14.440815775
 20
-25.3707978178
 11
13.958137775
 21
-25.3707978178
  0
LINE
  5
2B5
100
AcDbEntity
  8
0
100
AcDbLine
 62
7
  6
CONTINUOUS
 10
12.396333775
 20
-25.3707978178
 11
11.790815775
 21
-25.3707978178
  0
LINE
  5
2B6
100
AcDbEntity
  8
0
100
AcDbLine
 62
7
  6
CONTINUOUS
 10
9.987665775
 20
-25.3707978178
 11
9.377819775
 21
-25.3707978178
  0
LWPOLYLINE
  5
2B7
100
AcDbEntity
  8
0
100
AcDbPolyline
 62
7
  6
CONTINUOUS
 90
28
 70
0
 10
17.2597153266
 20
-25.7348378178
 10
17.3196724488
 20
-25.7384172251
 10
17.3781338499
 20
-25.7454454485
 10
17.4350995299
 20
-25.7559224882
 10
17.4907619841
 20
-25.76996983
 10
17.5449287171
 20
-25.787465988
 10
17.597022243
 20
-25.8080465043
 10
17.6469085489
 20
-25.8316847186
 10
17.6947216476
 20
-25.8584072911
 10
17.7402860911
 20
-25.8879297452
 10
17.7835207912
 20
-25.9201039516
 10
17.8245068361
 20
-25.9550780396
 10
17.8633120412
 20
-25.9930119196
 10
17.9000099624
 20
-26.0338552748
 10
17.9345270439
 20
-26.0776584221
 10
17.9667104344
 20
-26.1247322228
 10
17.9966451471
 20
-26.1752032218
 10
18.0242461688
 20
-26.2289448743
 10
18.0491056085
 20
-26.2858884067
 10
18.0709005885
 20
-26.3459911786
 10
18.0899539865
 20
-26.4092958306
 10
18.1068265446
 20
-26.4758615104
 10
18.1219732772
 20
-26.5456359953
 10
18.1349391699
 20
-26.6186715081
 10
18.1449199217
 20
-26.6951838651
 10
18.1516474321
 20
-26.7752450051
 10
18.1553898016
 20
-26.8587829893
 10
18.1561470302
 20
-26.9457978178
  0
LINE
  5
2B8
100
AcDbEntity
  8
0
100
AcDbLine
 62
7
  6
CONTINUOUS
 10
-32.419785225
 20
28.0313981822
 11
-31.215256225
 21
24.2318561822
  0
LINE
  5
2B9
100
AcDbEntity
  8
0
100
AcDbLine
 62
7
  6
CONTINUOUS
 10
-30.833957225
 20
25.4160561822
 11
-31.558218225
 21
28.0313981822
  0
LINE
  5
2BA
100
AcDbEntity
  8
0
100
AcDbLine
 62
7
  6
CONTINUOUS
 10
-20.4449570663
 20
27.9870073606
 11
-20.4449570663
 21
24.2318562434
  0
LINE
  5
2BB
100
AcDbEntity
  8
0
100
AcDbLine
 62
7
  6
CONTINUOUS
 10
-19.681333218
 20
26.3410604754
 11
-19.681333218
 21
27.3841089377
  0
LINE
  5
2BC
100
AcDbEntity
  8
0
100
AcDbLine
 62
7
  6
CONTINUOUS
 10
-19.655034766
 20
24.2318562434
 11
-19.655034766
 21
25.718787245
  0
LINE
  5
2BD
100
AcDbEntity
  8
0
100
AcDbLine
 62
7
  6
CONTINUOUS
 10
-18.4059010346
 20
26.0054489195
 11
-18.4059010346
 21
26.0279009023
  0
LWPOLYLINE
  5
2BE
100
AcDbEntity
  8
0
100
AcDbPolyline
 62
7
  6
CONTINUOUS
 90
25
 70
0
 10
-18.6119863036
 20
26.9315077351
 10
-18.6123321646
 20
26.8851543306
 10
-18.61493396
 20
26.8407466085
 10
-18.6197916898
 20
26.7982845688
 10
-18.6269071906
 20
26.7577811187
 10
-18.6362786259
 20
26.719223351
 10
-18.6479004855
 20
26.6825725441
 10
-18.6618913973
 20
26.6478095346
 10
-18.6781327334
 20
26.6149534858
 10
-18.6962631007
 20
26.5840231657
 10
-18.7161554021
 20
26.5550593879
 10
-18.7379367347
 20
26.5280213387
 10
-18.7616269965
 20
26.5028053449
 10
-18.7870182209
 20
26.4794368866
 10
-18.8143183745
 20
26.4578904837
 10
-18.8441712546
 20
26.4379860235
 10
-18.8767431642
 20
26.4195884617
 10
-18.9118678003
 20
26.4028328425
 10
-18.9496900514
 20
26.3879441866
 10
-18.9904614194
 20
26.374894095
 10
-19.0339304024
 20
26.3637109666
 10
-19.0794873828
 20
26.3547050187
 10
-19.1269291548
 20
26.3479796571
 10
-19.1764589242
 20
26.343431476
 10
-19.228076691
 20
26.3410604754
  0
LWPOLYLINE
  5
2BF
100
AcDbEntity
  8
0
100
AcDbPolyline
 62
7
  6
CONTINUOUS
 90
3
 70
0
 43
0.3500000006
 10
1.0697430868
 20
60.0899165039
 10
0.9983145239
 20
59.875632019
 10
0.8554573274
 20
59.5899163513
  0
LINE
  5
2C0
100
AcDbEntity
  8
0
100
AcDbLine
 62
7
  6
CONTINUOUS
 10
21.7173620527
 20
26.7222872567
 11
21.3673620527
 21
26.6031383347
  0
LINE
  5
2C1
100
AcDbEntity
  8
0
100
AcDbLine
 62
7
  6
CONTINUOUS
 10
26.8506956642
 20
26.7222872567
 11
26.5006956642
 21
26.6031383347
  0
LINE
  5
2C2
100
AcDbEntity
  8
0
100
AcDbLine
 62
7
  6
CONTINUOUS
 10
-26.850696225
 20
26.7128861822
 11
-25.920277225
 21
24.2318561822
  0
LINE
  5
2C3
100
AcDbEntity
  8
ASSI
100
AcDbLine
 62
7
  6
CONTINUOUS
 10
-10.730561225
 20
-29.4830278178
 11
-10.730561225
 21
-28.7125018178
  0
LINE
  5
2C4
100
AcDbEntity
  8
ASSI
100
AcDbLine
 62
7
  6
CONTINUOUS
 10
-10.730561225
 20
-25.1791178178
 11
-10.730561225
 21
-24.4085918178
  0
LINE
  5
2C5
100
AcDbEntity
  8
ASSI
100
AcDbLine
 62
7
  6
CONTINUOUS
 10
-28.7101493221
 20
-28.2716839908
 11
-28.5621921371
 21
-28.0080716612
  0
LINE
  5
2C6
100
AcDbEntity
  8
RACCORDO
100
AcDbLine
 62
250
  6
CONTINUOUS
 10
-48.465971225
 20
-33.9461785799
 11
-47.6071820305
 21
-33.0873893854
  0
LINE
  5
2C7
100
AcDbEntity
  8
0
100
AcDbLine
 62
7
  6
CONTINUOUS
 10
20.6673620527
 20
27.3776064944
 11
20.8423620527
 21
27.4967554163
  0
LINE
  5
2C8
100
AcDbEntity
  8
0
100
AcDbLine
 62
7
  6
CONTINUOUS
 10
20.784028775
 20
27.7946277213
 11
20.5506954973
 21
27.6754787993
  0
LINE
  5
2C9
100
AcDbEntity
  8
0
100
AcDbLine
 62
7
  6
CONTINUOUS
 10
25.9173618858
 20
27.7946277213
 11
25.684028775
 21
27.6754787993
  0
LINE
  5
2CA
100
AcDbEntity
  8
0
100
AcDbLine
 62
7
  6
CONTINUOUS
 10
21.834028775
 20
25.4712234508
 11
21.7173620527
 21
25.4116489899
  0
LINE
  5
2CB
100
AcDbEntity
  8
0
100
AcDbLine
 62
7
  6
CONTINUOUS
 10
21.7173620527
 20
25.1137766484
 11
21.9506953304
 21
25.232925586
  0
LINE
  5
2CC
100
AcDbEntity
  8
0
100
AcDbLine
 62
7
  6
CONTINUOUS
 10
26.9673618858
 20
25.4712234508
 11
26.8506956642
 21
25.4116489899
  0
LINE
  5
2CD
100
AcDbEntity
  8
0
100
AcDbLine
 62
7
  6
CONTINUOUS
 10
26.8506956642
 20
25.1137766484
 11
27.084028775
 21
25.232925586
  0
LINE
  5
2CE
100
AcDbEntity
  8
RACCORDO
100
AcDbLine
 62
250
  6
CONTINUOUS
 10
-48.465971225
 20
34.0545829443
 11
-47.6071820305
 21
33.1957937499
  0
LINE
  5
2CF
100
AcDbEntity
  8
0
100
AcDbLine
 62
7
  6
CONTINUOUS
 10
-25.860330225
 20
25.9218811822
 11
-26.645066225
 21
28.0313981822
  0
LINE
  5
2D0
100
AcDbEntity
  8
0
100
AcDbLine
 62
7
  6
CONTINUOUS
 10
-20.677853225
 20
24.2318561822
 11
-21.843647225
 21
28.0313981822
  0
LINE
  5
2D1
100
AcDbEntity
  8
0
100
AcDbLine
 62
7
  6
CONTINUOUS
 10
-18.5603574253
 20
24.6422773041
 11
-18.4404907646
 21
24.2318562434
  0
LINE
  5
2D2
100
AcDbEntity
  8
0
100
AcDbLine
 62
7
  6
CONTINUOUS
 10
-21.719221225
 20
24.9903801822
 11
-21.513762225
 21
24.2318561822
  0
LINE
  5
2D3
100
AcDbEntity
  8
0
100
AcDbLine
 62
7
  6
CONTINUOUS
 10
-17.8550589507
 20
24.9090511192
 11
-17.9487410538
 21
25.2602311383
  0
LINE
  5
2D4
100
AcDbEntity
  8
0
100
AcDbLine
 62
7
  6
CONTINUOUS
 10
-17.6776077177
 20
24.2318562434
 11
-17.8550589507
 21
24.9090511192
  0
LINE
  5
2D5
100
AcDbEntity
  8
0
100
AcDbLine
 62
7
  6
CONTINUOUS
 10
-22.242170225
 20
26.9873811822
 11
-21.877724225
 21
25.5773221822
  0
LWPOLYLINE
  5
2D6
100
AcDbEntity
  8
0
100
AcDbPolyline
 62
7
  6
CONTINUOUS
 90
19
 70
0
 10
-17.9487410538
 20
25.2602311383
 10
-17.9647160824
 20
25.3229038185
 10
-17.9818995936
 20
25.3840832142
 10
-18.0002915875
 20
25.4437693256
 10
-18.019812716
 20
25.5023539792
 10
-18.0405423272
 20
25.5594453483
 10
-18.0627184651
 20
25.6138679535
 10
-18.0865594671
 20
25.6655306462
 10
-18.1118469957
 20
25.7145245749
 10
-18.1381640827
 20
25.7599477052
 10
-18.1655167787
 20
25.801540826
 10
-18.1938990331
 20
25.8395631483
 10
-18.2228757253
 20
25.8738902709
 10
-18.2523924739
 20
25.9043531748
 10
-18.2825036603
 20
25.9311208791
 10
-18.3129373073
 20
25.9545760401
 10
-18.3436027558
 20
25.9748462099
 10
-18.3745906649
 20
25.9918038363
 10
-18.4059010346
 20
26.0054489195
  0
LINE
  5
2D7
100
AcDbEntity
  8
ASSI
100
AcDbLine
 62
7
  6
CONTINUOUS
 10
-6.905561225
 20
-27.3283098178
 11
-6.905561225
 21
-26.5633098178
  0
LINE
  5
2D8
100
AcDbEntity
  8
ASSI
100
AcDbLine
 62
7
  6
CONTINUOUS
 10
-6.395561225
 20
-29.4830278178
 11
-6.395561225
 21
-28.7125013739
  0
LINE
  5
2D9
100
AcDbEntity
  8
ASSI
100
AcDbLine
 62
7
  6
CONTINUOUS
 10
-6.395561225
 20
-25.1791178178
 11
-6.395561225
 21
-24.4085918178
  0
LINE
  5
2DA
100
AcDbEntity
  8
ASSI
100
AcDbLine
 62
7
  6
CONTINUOUS
 10
-26.801938225
 20
-29.4367538178
 11
-26.634208225
 21
-29.1989708178
  0
LINE
  5
2DB
100
AcDbEntity
  8
RACCORDO
100
AcDbLine
 62
250
  6
CONTINUOUS
 10
-45.9663519871
 20
-36.4457978178
 11
-45.1075627926
 21
-35.5870086233
  0
LINE
  5
2DC
100
AcDbEntity
  8
0
100
AcDbLine
 62
7
  6
CONTINUOUS
 10
21.834028775
 20
26.4839894127
 11
22.0673622196
 21
26.6627127957
  0
LINE
  5
2DD
100
AcDbEntity
  8
0
100
AcDbLine
 62
7
  6
CONTINUOUS
 10
21.9506953304
 20
25.232925586
 11
22.1256953304
 21
25.3520745289
  0
LINE
  5
2DE
100
AcDbEntity
  8
0
100
AcDbLine
 62
7
  6
CONTINUOUS
 10
25.8006956642
 20
27.3776064944
 11
25.9756956642
 21
27.4967554163
  0
LINE
  5
2DF
100
AcDbEntity
  8
0
100
AcDbLine
 62
7
  6
CONTINUOUS
 10
27.084028775
 20
25.232925586
 11
27.259028775
 21
25.3520745289
  0
LINE
  5
2E0
100
AcDbEntity
  8
RACCORDO
100
AcDbLine
 62
250
  6
CONTINUOUS
 10
-45.9663519871
 20
36.5542021822
 11
-45.1075627926
 21
35.6954129878
  0
LWPOLYLINE
  5
2E1
100
AcDbEntity
  8
0
100
AcDbPolyline
 62
7
  6
CONTINUOUS
 90
6
 70
0
 10
-18.7872998195
 20
25.3840019676
 10
-18.7477729067
 20
25.268656371
 10
-18.7089272661
 20
25.1500007021
 10
-18.6707628976
 20
25.0280349609
 10
-18.6338573065
 20
24.9025692495
 10
-18.5603574253
 20
24.6422773041
  0
LWPOLYLINE
  5
2E2
100
AcDbEntity
  8
0
100
AcDbPolyline
 62
7
  6
CONTINUOUS
 90
4
 70
0
 43
0.3500000006
 10
-4.1445426407
 20
60.2327698059
 10
-4.1445426407
 20
61.0899168091
 10
-3.7159711218
 20
61.5184857788
 10
-3.0731139851
 20
61.5184857788
  0
LWPOLYLINE
  5
2E3
100
AcDbEntity
  8
0
100
AcDbPolyline
 62
7
  6
CONTINUOUS
 90
4
 70
0
 43
0.3500000006
 10
0.0340287746
 20
72.1613422852
 10
0.0340287746
 20
72.8042048035
 10
1.5340287809
 20
72.8042048035
 10
0.6768858848
 20
69.8042038879
  0
LINE
  5
2E4
100
AcDbEntity
  8
0
100
AcDbLine
 62
7
  6
CONTINUOUS
 10
19.384028775
 20
27.8542021822
 11
19.034028775
 21
27.4371809554
  0
LINE
  5
2E5
100
AcDbEntity
  8
0
100
AcDbLine
 62
7
  6
CONTINUOUS
 10
19.034028775
 20
26.9605851006
 11
19.384028775
 21
27.3776064944
  0
LINE
  5
2E6
100
AcDbEntity
  8
0
100
AcDbLine
 62
7
  6
CONTINUOUS
 10
20.5506954973
 20
27.6754787993
 11
20.3173621361
 21
27.4371809554
  0
LINE
  5
2E7
100
AcDbEntity
  8
0
100
AcDbLine
 62
7
  6
CONTINUOUS
 10
21.834028775
 20
26.8414361786
 11
21.7173620527
 21
26.7222872567
  0
LINE
  5
2E8
100
AcDbEntity
  8
0
100
AcDbLine
 62
7
  6
CONTINUOUS
 10
21.9506953304
 20
25.5903724145
 11
21.834028775
 21
25.4712234508
  0
LINE
  5
2E9
100
AcDbEntity
  8
0
100
AcDbLine
 62
7
  6
CONTINUOUS
 10
25.684028775
 20
27.6754787993
 11
25.4506956642
 21
27.4371809554
  0
LINE
  5
2EA
100
AcDbEntity
  8
0
100
AcDbLine
 62
7
  6
CONTINUOUS
 10
26.9673618858
 20
26.8414361786
 11
26.8506956642
 21
26.7222872567
  0
LINE
  5
2EB
100
AcDbEntity
  8
0
100
AcDbLine
 62
7
  6
CONTINUOUS
 10
26.9673618858
 20
26.4839894127
 11
27.2006956642
 21
26.6627127957
  0
LWPOLYLINE
  5
2EC
100
AcDbEntity
  8
0
100
AcDbPolyline
 62
7
  6
CONTINUOUS
 90
4
 70
0
 43
0.3500000006
 10
-74.0731124268
 20
-2.1957976913
 10
-74.7159704132
 20
-2.1957976913
 10
-74.7159704132
 20
-0.6957972336
 10
-71.7159694977
 20
-1.5529408379
  0
LWPOLYLINE
  5
2ED
100
AcDbEntity
  8
0
100
AcDbPolyline
 62
7
  6
CONTINUOUS
 90
13
 70
0
 43
0.3500000006
 10
-82.5731150208
 20
-1.4457974625
 10
-83.8588309937
 20
-1.4457974625
 10
-84.2873999634
 20
-1.2315129776
 10
-84.7159689331
 20
-0.8029417419
 10
-84.7159689331
 20
-0.5886549911
 10
-84.2873999634
 20
-0.1600837555
 10
-83.8588309937
 20
0.0542029953
 10
-82.5731150208
 20
0.0542029953
 10
-82.144546051
 20
-0.1600837555
 10
-81.7159680176
 20
-0.5886549911
 10
-81.7159680176
 20
-0.8029417419
 10
-82.144546051
 20
-1.2315129776
 10
-82.5731150208
 20
-1.4457974625
  0
LINE
  5
2EE
100
AcDbEntity
  8
DRAFT
100
AcDbLine
 62
7
  6
CONTINUOUS
 10
-48.4485161601
 20
-0.9457978178
 11
-45.48558659
 21
-0.9457978178
  0
LINE
  5
2EF
100
AcDbEntity
  8
DRAFT
100
AcDbLine
 62
7
  6
CONTINUOUS
 10
45.55364414
 20
-0.9457978178
 11
48.5165737101
 21
-0.9457978178
  0
LINE
  5
2F0
100
AcDbEntity
  8
0
100
AcDbLine
 62
7
  6
CONTINUOUS
 10
20.5506954973
 20
27.1988831114
 11
20.6673620527
 21
27.3776064944
  0
LINE
  5
2F1
100
AcDbEntity
  8
0
100
AcDbLine
 62
7
  6
CONTINUOUS
 10
22.0673622196
 20
26.6627127957
 11
22.184028775
 21
26.8414361786
  0
LINE
  5
2F2
100
AcDbEntity
  8
0
100
AcDbLine
 62
7
  6
CONTINUOUS
 10
22.1256953304
 20
25.3520745289
 11
22.2423622196
 21
25.5307979118
  0
LINE
  5
2F3
100
AcDbEntity
  8
0
100
AcDbLine
 62
7
  6
CONTINUOUS
 10
28.2506956642
 20
27.8542021822
 11
27.9006956642
 21
27.4371809554
  0
LINE
  5
2F4
100
AcDbEntity
  8
0
100
AcDbLine
 62
7
  6
CONTINUOUS
 10
27.9006956642
 20
26.9605851006
 11
28.2506956642
 21
27.3776064944
  0
LINE
  5
2F5
100
AcDbEntity
  8
0
100
AcDbLine
 62
7
  6
CONTINUOUS
 10
27.084028775
 20
25.5903724145
 11
26.9673618858
 21
25.4712234508
  0
LINE
  5
2F6
100
AcDbEntity
  8
ASSI
100
AcDbLine
 62
7
  6
CONTINUOUS
 10
-26.8907697025
 20
-25.8707553774
 11
-27.792628225
 21
-26.6307568178
  0
LINE
  5
2F7
100
AcDbEntity
  8
ASSI
100
AcDbLine
 62
7
  6
CONTINUOUS
 10
-27.792628225
 20
-27.0254938178
 11
-26.9326150843
 21
-26.3007546992
  0
LINE
  5
2F8
100
AcDbEntity
  8
DRAFT
100
AcDbLine
 62
7
  6
CONTINUOUS
 10
48.5165737101
 20
1.0542021822
 11
45.55364414
 21
1.0542021822
  0
LINE
  5
2F9
100
AcDbEntity
  8
DRAFT
100
AcDbLine
 62
7
  6
CONTINUOUS
 10
-45.48558659
 20
1.0542021822
 11
-48.4485161601
 21
1.0542021822
  0
LINE
  5
2FA
100
AcDbEntity
  8
0
100
AcDbLine
 62
7
  6
CONTINUOUS
 10
15.581438775
 20
-28.5207978178
 11
14.440815775
 21
-25.3707978178
  0
LINE
  5
2FB
100
AcDbEntity
  8
0
100
AcDbLine
 62
7
  6
CONTINUOUS
 10
14.804880775
 20
-27.6039478178
 11
15.116339775
 21
-28.5207978178
  0
LINE
  5
2FC
100
AcDbEntity
  8
0
100
AcDbLine
 62
7
  6
CONTINUOUS
 10
10.891407775
 20
-28.0467808178
 11
9.987665775
 21
-25.3707978178
  0
LINE
  5
2FD
100
AcDbEntity
  8
0
100
AcDbLine
 62
7
  6
CONTINUOUS
 10
9.790197775
 20
-25.8795358178
 11
10.676484775
 21
-28.5207978178
  0
LINE
  5
2FE
100
AcDbEntity
  8
0
100
AcDbLine
 62
7
  6
CONTINUOUS
 10
14.182141775
 20
-25.8277008178
 11
14.651443775
 21
-27.2266608178
  0
LINE
  5
2FF
100
AcDbEntity
  8
0
100
AcDbLine
 62
7
  6
CONTINUOUS
 10
9.377819775
 20
-25.3707978178
 11
9.377819775
 21
-28.5207978178
  0
LINE
  5
300
100
AcDbEntity
  8
0
100
AcDbLine
 62
7
  6
CONTINUOUS
 10
9.790197775
 20
-28.5207978178
 11
9.790197775
 21
-25.8795358178
  0
LINE
  5
301
100
AcDbEntity
  8
0
100
AcDbLine
 62
7
  6
CONTINUOUS
 10
24.5173622196
 20
27.5563298773
 11
23.3506953304
 21
25.0542021822
  0
LINE
  5
302
100
AcDbEntity
  8
0
100
AcDbLine
 62
7
  6
CONTINUOUS
 10
23.7006953304
 20
25.0542021822
 11
24.8673618858
 21
27.5563298773
  0
LINE
  5
303
100
AcDbEntity
  8
0
100
AcDbLine
 62
7
  6
CONTINUOUS
 10
21.9506953304
 20
27.0797340226
 11
21.834028775
 21
26.8414361786
  0
LINE
  5
304
100
AcDbEntity
  8
0
100
AcDbLine
 62
7
  6
CONTINUOUS
 10
22.009028775
 20
25.7095213365
 11
21.9506953304
 21
25.5903724145
  0
LINE
  5
305
100
AcDbEntity
  8
0
100
AcDbLine
 62
7
  6
CONTINUOUS
 10
25.684028775
 20
27.1988831114
 11
25.8006956642
 21
27.3776064944
  0
LINE
  5
306
100
AcDbEntity
  8
0
100
AcDbLine
 62
7
  6
CONTINUOUS
 10
27.2006956642
 20
26.6627127957
 11
27.3173618858
 21
26.8414361786
  0
LINE
  5
307
100
AcDbEntity
  8
0
100
AcDbLine
 62
7
  6
CONTINUOUS
 10
27.259028775
 20
25.3520745289
 11
27.3756956642
 21
25.5307979118
  0
LINE
  5
308
100
AcDbEntity
  8
RACCORDO
100
AcDbLine
 62
250
  6
CONTINUOUS
 10
46.0344095371
 20
36.5542021822
 11
45.1756203426
 21
35.6954129878
  0
LINE
  5
309
100
AcDbEntity
  8
RACCORDO
100
AcDbLine
 62
250
  6
CONTINUOUS
 10
48.534028775
 20
34.0545829443
 11
47.6752395805
 21
33.1957937499
  0
LINE
  5
30A
100
AcDbEntity
  8
RACCORDO
100
AcDbLine
 62
250
  6
CONTINUOUS
 10
46.0344095371
 20
-36.4457978178
 11
45.1756203426
 21
-35.5870086233
  0
LINE
  5
30B
100
AcDbEntity
  8
RACCORDO
100
AcDbLine
 62
250
  6
CONTINUOUS
 10
48.534028775
 20
-33.9461785799
 11
47.6752395805
 21
-33.0873893854
  0
LINE
  5
30C
100
AcDbEntity
  8
0
100
AcDbLine
 62
7
  6
CONTINUOUS
 10
24.917793775
 20
-25.9626208178
 11
26.527949775
 21
-28.5207978178
  0
LINE
  5
30D
100
AcDbEntity
  8
0
100
AcDbLine
 62
7
  6
CONTINUOUS
 10
26.593777775
 20
-27.9294928178
 11
25.009861775
 21
-25.3707978178
  0
LINE
  5
30E
100
AcDbEntity
  8
0
100
AcDbLine
 62
7
  6
CONTINUOUS
 10
11.983789775
 20
-25.8752058178
 11
11.983789775
 21
-28.5207978178
  0
LINE
  5
30F
100
AcDbEntity
  8
0
100
AcDbLine
 62
7
  6
CONTINUOUS
 10
12.396333775
 20
-28.5207978178
 11
12.396333775
 21
-25.3707978178
  0
LINE
  5
310
100
AcDbEntity
  8
0
100
AcDbLine
 62
7
  6
CONTINUOUS
 10
15.993804775
 20
-25.3707978178
 11
15.993804775
 21
-28.5207978178
  0
LINE
  5
311
100
AcDbEntity
  8
0
100
AcDbLine
 62
7
  6
CONTINUOUS
 10
16.419493775
 20
-28.1567578178
 11
16.419493775
 21
-25.7348378178
  0
LINE
  5
312
100
AcDbEntity
  8
0
100
AcDbLine
 62
7
  6
CONTINUOUS
 10
20.3173621361
 20
27.4371809554
 11
20.259028775
 21
27.1988831114
  0
LINE
  5
313
100
AcDbEntity
  8
0
100
AcDbLine
 62
7
  6
CONTINUOUS
 10
22.184028775
 20
26.8414361786
 11
22.2423622196
 21
27.0797340226
  0
LINE
  5
314
100
AcDbEntity
  8
0
100
AcDbLine
 62
7
  6
CONTINUOUS
 10
22.2423622196
 20
25.5307979118
 11
22.3006953304
 21
25.7095213365
  0
LINE
  5
315
100
AcDbEntity
  8
0
100
AcDbLine
 62
7
  6
CONTINUOUS
 10
27.084028775
 20
27.0797340226
 11
26.9673618858
 21
26.8414361786
  0
LINE
  5
316
100
AcDbEntity
  8
0
100
AcDbLine
 62
7
  6
CONTINUOUS
 10
27.1423618858
 20
25.7095213365
 11
27.084028775
 21
25.5903724145
  0
LWPOLYLINE
  5
317
100
AcDbEntity
  8
0
100
AcDbPolyline
 62
7
  6
CONTINUOUS
 90
30
 70
0
 10
18.5939749946
 20
-26.8424584786
 10
18.589973604
 20
-26.7433448778
 10
18.5820129636
 20
-26.6484570155
 10
18.5697597667
 20
-26.5578204162
 10
18.5535473199
 20
-26.4714095553
 10
18.5343755433
 20
-26.3891478595
 10
18.5121339565
 20
-26.3110853503
 10
18.4869330398
 20
-26.237172006
 10
18.4601041544
 20
-26.1671811885
 10
18.4325390285
 20
-26.1015067538
 10
18.4033459339
 20
-26.0397548457
 10
18.3711810469
 20
-25.9805172571
 10
18.3358813802
 20
-25.9237666754
 10
18.297609921
 20
-25.8695304132
 10
18.2555118071
 20
-25.816482201
 10
18.2087120121
 20
-25.7634641696
 10
18.1580855623
 20
-25.7116341882
 10
18.1054026748
 20
-25.6631395949
 10
18.0513006373
 20
-25.6185166164
 10
17.995142162
 20
-25.5772290262
 10
17.9367856025
 20
-25.5398154826
 10
17.8766189624
 20
-25.5066467608
 10
17.8142542382
 20
-25.4773520858
 10
17.7483857726
 20
-25.451357791
 10
17.6783209411
 20
-25.4282043156
 10
17.6047523682
 20
-25.4083512206
 10
17.5284522707
 20
-25.3926035216
 10
17.449678054
 20
-25.3812295575
 10
17.3681723126
 20
-25.3739609896
 10
17.2839350465
 20
-25.3707978178
  0
LINE
  5
318
100
AcDbEntity
  8
0
100
AcDbLine
 62
7
  6
CONTINUOUS
 10
19.034028775
 20
27.4371809554
 11
19.034028775
 21
26.9605851006
  0
LINE
  5
319
100
AcDbEntity
  8
0
100
AcDbLine
 62
7
  6
CONTINUOUS
 10
19.183418775
 20
-25.3707978178
 11
19.183418775
 21
-28.5207978178
  0
LINE
  5
31A
100
AcDbEntity
  8
0
100
AcDbLine
 62
7
  6
CONTINUOUS
 10
19.384028775
 20
27.3776064944
 11
19.384028775
 21
25.0542021822
  0
LINE
  5
31B
100
AcDbEntity
  8
0
100
AcDbLine
 62
7
  6
CONTINUOUS
 10
19.609082775
 20
-28.1435108178
 11
19.609082775
 21
-27.0906238178
  0
LINE
  5
31C
100
AcDbEntity
  8
0
100
AcDbLine
 62
7
  6
CONTINUOUS
 10
19.609082775
 20
-26.7133368178
 11
19.609082775
 21
-25.7480848178
  0
LINE
  5
31D
100
AcDbEntity
  8
0
100
AcDbLine
 62
7
  6
CONTINUOUS
 10
19.734028775
 20
25.0542021822
 11
19.734028775
 21
27.8542021822
  0
LINE
  5
31E
100
AcDbEntity
  8
0
100
AcDbLine
 62
7
  6
CONTINUOUS
 10
21.134028775
 20
26.6031383347
 11
21.134028775
 21
26.3648404908
  0
LINE
  5
31F
100
AcDbEntity
  8
0
100
AcDbLine
 62
7
  6
CONTINUOUS
 10
21.333264775
 20
-27.0906238178
 11
21.333264775
 21
-26.7133368178
  0
LINE
  5
320
100
AcDbEntity
  8
0
100
AcDbLine
 62
7
  6
CONTINUOUS
 10
21.478039775
 20
-25.7480848178
 11
21.478039775
 21
-25.3707978178
  0
LINE
  5
321
100
AcDbEntity
  8
0
100
AcDbLine
 62
7
  6
CONTINUOUS
 10
21.508788775
 20
-28.5207978178
 11
21.508788775
 21
-28.1435108178
  0
LINE
  5
322
100
AcDbEntity
  8
0
100
AcDbLine
 62
7
  6
CONTINUOUS
 10
21.9506953304
 20
27.1988831114
 11
21.9506953304
 21
27.0797340226
  0
LINE
  5
323
100
AcDbEntity
  8
0
100
AcDbLine
 62
7
  6
CONTINUOUS
 10
22.009028775
 20
25.9478191804
 11
22.009028775
 21
25.7095213365
  0
LINE
  5
324
100
AcDbEntity
  8
0
100
AcDbLine
 62
7
  6
CONTINUOUS
 10
22.2423622196
 20
27.0797340226
 11
22.2423622196
 21
27.1988831114
  0
LINE
  5
325
100
AcDbEntity
  8
0
100
AcDbLine
 62
7
  6
CONTINUOUS
 10
22.3006953304
 20
25.7095213365
 11
22.3006953304
 21
25.9478191804
  0
LWPOLYLINE
  5
326
100
AcDbEntity
  8
0
100
AcDbPolyline
 62
7
  6
CONTINUOUS
 90
28
 70
0
 10
18.1561470302
 20
-26.9457978178
 10
18.1553898016
 20
-27.0328126462
 10
18.1516474321
 20
-27.1163506304
 10
18.1449199217
 20
-27.1964117704
 10
18.1349391699
 20
-27.2729241274
 10
18.1219732772
 20
-27.3459596402
 10
18.1068265446
 20
-27.4157341251
 10
18.0899539865
 20
-27.4822998049
 10
18.0709005885
 20
-27.5456044569
 10
18.0491056085
 20
-27.6057072288
 10
18.0242461688
 20
-27.6626507613
 10
17.9966451471
 20
-27.7163924137
 10
17.9667104344
 20
-27.7668634127
 10
17.9345270439
 20
-27.8139372134
 10
17.9000099624
 20
-27.8577403607
 10
17.8633120412
 20
-27.8985837159
 10
17.8245068361
 20
-27.936517596
 10
17.7835207912
 20
-27.9714916839
 10
17.7402860911
 20
-28.0036658903
 10
17.6947216476
 20
-28.0331883444
 10
17.6469085489
 20
-28.0599109169
 10
17.597022243
 20
-28.0835491312
 10
17.5449287171
 20
-28.1041296475
 10
17.4907619841
 20
-28.1216258055
 10
17.4350995299
 20
-28.1356731473
 10
17.3781338499
 20
-28.146150187
 10
17.3196724488
 20
-28.1531784105
 10
17.2597153266
 20
-28.1567578178
  0
LINE
  5
327
100
AcDbEntity
  8
0
100
AcDbLine
 62
7
  6
CONTINUOUS
 10
25.4506956642
 20
27.4371809554
 11
25.3923618858
 21
27.1988831114
  0
LINE
  5
328
100
AcDbEntity
  8
0
100
AcDbLine
 62
7
  6
CONTINUOUS
 10
27.3173618858
 20
26.8414361786
 11
27.3756956642
 21
27.0797340226
  0
LINE
  5
329
100
AcDbEntity
  8
0
100
AcDbLine
 62
7
  6
CONTINUOUS
 10
27.3756956642
 20
25.5307979118
 11
27.434028775
 21
25.7095213365
  0
LINE
  5
32A
100
AcDbEntity
  8
0
100
AcDbLine
 62
7
  6
CONTINUOUS
 10
11.097672775
 20
-28.5207978178
 11
11.983789775
 21
-25.8752058178
  0
LINE
  5
32B
100
AcDbEntity
  8
0
100
AcDbLine
 62
7
  6
CONTINUOUS
 10
11.790815775
 20
-25.3707978178
 11
10.891407775
 21
-28.0467808178
  0
LINE
  5
32C
100
AcDbEntity
  8
0
100
AcDbLine
 62
7
  6
CONTINUOUS
 10
13.212327775
 20
-28.5207978178
 11
13.541415775
 21
-27.6039478178
  0
LINE
  5
32D
100
AcDbEntity
  8
0
100
AcDbLine
 62
7
  6
CONTINUOUS
 10
13.673070775
 20
-27.2266608178
 11
14.182141775
 21
-25.8277008178
  0
LINE
  5
32E
100
AcDbEntity
  8
0
100
AcDbLine
 62
7
  6
CONTINUOUS
 10
13.958137775
 20
-25.3707978178
 11
12.773646775
 21
-28.5207978178
  0
LINE
  5
32F
100
AcDbEntity
  8
0
100
AcDbLine
 62
7
  6
CONTINUOUS
 10
26.6173618858
 20
25.0542021822
 11
26.8506956642
 21
25.1137766484
  0
LINE
  5
330
100
AcDbEntity
  8
0
100
AcDbLine
 62
7
  6
CONTINUOUS
 10
21.484028775
 20
25.0542021822
 11
21.7173620527
 21
25.1137766484
  0
LINE
  5
331
100
AcDbEntity
  8
0
100
AcDbLine
 62
7
  6
CONTINUOUS
 10
26.8506956642
 20
25.4116489899
 11
26.559028775
 21
25.3520745289
  0
LINE
  5
332
100
AcDbEntity
  8
0
100
AcDbLine
 62
7
  6
CONTINUOUS
 10
21.7173620527
 20
25.4116489899
 11
21.4256954973
 21
25.3520745289
  0
LINE
  5
333
100
AcDbEntity
  8
0
100
AcDbLine
 62
7
  6
CONTINUOUS
 10
25.9756956642
 20
27.4967554163
 11
26.2673618858
 21
27.5563298773
  0
LWPOLYLINE
  5
334
100
AcDbEntity
  8
0
100
AcDbPolyline
 62
7
  6
CONTINUOUS
 90
16
 70
0
 10
-18.4876741194
 20
27.9470040815
 10
-18.5809777376
 20
27.9773600299
 10
-18.6798616203
 20
28.0035676999
 10
-18.7843257675
 20
28.0256270916
 10
-18.8945668074
 20
28.0433968782
 10
-19.0103881119
 20
28.0570183865
 10
-19.1311997958
 20
28.0669155964
 10
-19.2567547685
 20
28.0732865569
 10
-19.3873001208
 20
28.075933219
 10
-19.5229872395
 20
28.0746854149
 10
-19.663882615
 20
28.0694148336
 10
-19.8099197571
 20
28.0602497861
 10
-19.9610505817
 20
28.0474050385
 10
-20.1172590607
 20
28.0309521793
 10
-20.2785612223
 20
28.01081962
 10
-20.4449570663
 20
27.9870073606
  0
LINE
  5
335
100
AcDbEntity
  8
0
100
AcDbLine
 62
7
  6
CONTINUOUS
 10
37.886699775
 20
-25.3707978178
 11
39.075623775
 21
-27.2529008178
  0
LINE
  5
336
100
AcDbEntity
  8
0
100
AcDbLine
 62
7
  6
CONTINUOUS
 10
39.286303775
 20
-26.8845298178
 11
38.382445775
 21
-25.3707978178
  0
LINE
  5
337
100
AcDbEntity
  8
0
100
AcDbLine
 62
7
  6
CONTINUOUS
 10
22.7673622196
 20
27.8542021822
 11
22.7673622196
 21
27.5563298773
  0
LINE
  5
338
100
AcDbEntity
  8
0
100
AcDbLine
 62
7
  6
CONTINUOUS
 10
23.351506775
 20
-25.3707978178
 11
23.351506775
 21
-28.5207978178
  0
LINE
  5
339
100
AcDbEntity
  8
0
100
AcDbLine
 62
7
  6
CONTINUOUS
 10
23.777043775
 20
-28.5207978178
 11
23.777043775
 21
-25.3707978178
  0
LINE
  5
33A
100
AcDbEntity
  8
0
100
AcDbLine
 62
7
  6
CONTINUOUS
 10
24.505224775
 20
-25.3707978178
 11
24.505224775
 21
-28.5207978178
  0
LINE
  5
33B
100
AcDbEntity
  8
0
100
AcDbLine
 62
7
  6
CONTINUOUS
 10
24.8673618858
 20
27.5563298773
 11
24.8673618858
 21
27.8542021822
  0
LINE
  5
33C
100
AcDbEntity
  8
0
100
AcDbLine
 62
7
  6
CONTINUOUS
 10
24.917793775
 20
-28.5207978178
 11
24.917793775
 21
-25.9626208178
  0
LINE
  5
33D
100
AcDbEntity
  8
0
100
AcDbLine
 62
7
  6
CONTINUOUS
 10
26.2673618858
 20
26.6031383347
 11
26.2673618858
 21
26.3648404908
  0
LINE
  5
33E
100
AcDbEntity
  8
0
100
AcDbLine
 62
7
  6
CONTINUOUS
 10
26.593777775
 20
-25.3707978178
 11
26.593777775
 21
-27.9294928178
  0
LINE
  5
33F
100
AcDbEntity
  8
0
100
AcDbLine
 62
7
  6
CONTINUOUS
 10
27.006143775
 20
-28.5207978178
 11
27.006143775
 21
-25.3707978178
  0
LINE
  5
340
100
AcDbEntity
  8
0
100
AcDbLine
 62
7
  6
CONTINUOUS
 10
27.084028775
 20
27.1988831114
 11
27.084028775
 21
27.0797340226
  0
LINE
  5
341
100
AcDbEntity
  8
0
100
AcDbLine
 62
7
  6
CONTINUOUS
 10
27.1423618858
 20
25.9478191804
 11
27.1423618858
 21
25.7095213365
  0
LINE
  5
342
100
AcDbEntity
  8
0
100
AcDbLine
 62
7
  6
CONTINUOUS
 10
27.3756956642
 20
27.0797340226
 11
27.3756956642
 21
27.1988831114
  0
LINE
  5
343
100
AcDbEntity
  8
0
100
AcDbLine
 62
7
  6
CONTINUOUS
 10
27.434028775
 20
25.7095213365
 11
27.434028775
 21
25.9478191804
  0
LINE
  5
344
100
AcDbEntity
  8
0
100
AcDbLine
 62
7
  6
CONTINUOUS
 10
20.8423620527
 20
27.4967554163
 11
21.134028775
 21
27.5563298773
  0
LINE
  5
345
100
AcDbEntity
  8
0
100
AcDbLine
 62
7
  6
CONTINUOUS
 10
26.3256956642
 20
27.8542021822
 11
25.9173618858
 21
27.7946277213
  0
LINE
  5
346
100
AcDbEntity
  8
0
100
AcDbLine
 62
7
  6
CONTINUOUS
 10
21.1923620527
 20
27.8542021822
 11
20.784028775
 21
27.7946277213
  0
LINE
  5
347
100
AcDbEntity
  8
0
100
AcDbLine
 62
7
  6
CONTINUOUS
 10
-31.215256225
 20
24.2318561822
 11
-30.516324225
 21
24.2318561822
  0
LINE
  5
348
100
AcDbEntity
  8
0
100
AcDbLine
 62
7
  6
CONTINUOUS
 10
-29.000672225
 20
24.2318561822
 11
-28.207559225
 21
24.2318561822
  0
LINE
  5
349
100
AcDbEntity
  8
0
100
AcDbLine
 62
7
  6
CONTINUOUS
 10
-27.780601225
 20
24.2318561822
 11
-27.021849225
 21
24.2318561822
  0
LINE
  5
34A
100
AcDbEntity
  8
0
100
AcDbLine
 62
7
  6
CONTINUOUS
 10
-25.920277225
 20
24.2318561822
 11
-25.809043225
 21
24.2318561822
  0
LINE
  5
34B
100
AcDbEntity
  8
0
100
AcDbLine
 62
7
  6
CONTINUOUS
 10
-24.703084225
 20
24.2318561822
 11
-23.927208225
 21
24.2318561822
  0
LINE
  5
34C
100
AcDbEntity
  8
0
100
AcDbLine
 62
7
  6
CONTINUOUS
 10
-23.802668225
 20
24.2318561822
 11
-23.018159225
 21
24.2318561822
  0
LINE
  5
34D
100
AcDbEntity
  8
0
100
AcDbLine
 62
7
  6
CONTINUOUS
 10
-21.513762225
 20
24.2318561822
 11
-20.677853225
 21
24.2318561822
  0
LINE
  5
34E
100
AcDbEntity
  8
0
100
AcDbLine
 62
7
  6
CONTINUOUS
 10
-20.4449570663
 20
24.2318562434
 11
-19.655034766
 21
24.2318562434
  0
LINE
  5
34F
100
AcDbEntity
  8
0
100
AcDbLine
 62
7
  6
CONTINUOUS
 10
-18.4404907646
 20
24.2318562434
 11
-17.6776077177
 21
24.2318562434
  0
LINE
  5
350
100
AcDbEntity
  8
0
100
AcDbLine
 62
7
  6
CONTINUOUS
 10
-22.799309225
 20
24.9903801822
 11
-21.719221225
 21
24.9903801822
  0
LINE
  5
351
100
AcDbEntity
  8
0
100
AcDbLine
 62
7
  6
CONTINUOUS
 10
19.384028775
 20
25.0542021822
 11
19.734028775
 21
25.0542021822
  0
LINE
  5
352
100
AcDbEntity
  8
0
100
AcDbLine
 62
7
  6
CONTINUOUS
 10
21.0173620527
 20
25.0542021822
 11
21.484028775
 21
25.0542021822
  0
LINE
  5
353
100
AcDbEntity
  8
0
100
AcDbLine
 62
7
  6
CONTINUOUS
 10
23.3506953304
 20
25.0542021822
 11
23.7006953304
 21
25.0542021822
  0
LINE
  5
354
100
AcDbEntity
  8
0
100
AcDbLine
 62
7
  6
CONTINUOUS
 10
26.1506956642
 20
25.0542021822
 11
26.6173618858
 21
25.0542021822
  0
LINE
  5
355
100
AcDbEntity
  8
0
100
AcDbLine
 62
7
  6
CONTINUOUS
 10
28.2506956642
 20
25.0542021822
 11
28.6006956642
 21
25.0542021822
  0
LINE
  5
356
100
AcDbEntity
  8
0
100
AcDbLine
 62
7
  6
CONTINUOUS
 10
26.559028775
 20
25.3520745289
 11
26.209028775
 21
25.3520745289
  0
LINE
  5
357
100
AcDbEntity
  8
0
100
AcDbLine
 62
7
  6
CONTINUOUS
 10
21.4256954973
 20
25.3520745289
 11
21.0756954973
 21
25.3520745289
  0
LINE
  5
358
100
AcDbEntity
  8
0
100
AcDbLine
 62
7
  6
CONTINUOUS
 10
-21.877724225
 20
25.5773221822
 11
-22.637074225
 21
25.5773221822
  0
LINE
  5
359
100
AcDbEntity
  8
0
100
AcDbLine
 62
7
  6
CONTINUOUS
 10
25.6256956642
 20
25.7095213365
 11
25.334028775
 21
25.7095213365
  0
LINE
  5
35A
100
AcDbEntity
  8
0
100
AcDbLine
 62
7
  6
CONTINUOUS
 10
20.4923620527
 20
25.7095213365
 11
20.2006954139
 21
25.7095213365
  0
LINE
  5
35B
100
AcDbEntity
  8
0
100
AcDbLine
 62
7
  6
CONTINUOUS
 10
-19.655034766
 20
25.718787245
 11
-19.2297862329
 21
25.718787245
  0
LINE
  5
35C
100
AcDbEntity
  8
0
100
AcDbLine
 62
7
  6
CONTINUOUS
 10
-19.228076691
 20
26.3410604754
 11
-19.681333218
 21
26.3410604754
  0
LINE
  5
35D
100
AcDbEntity
  8
0
100
AcDbLine
 62
7
  6
CONTINUOUS
 10
21.134028775
 20
26.3648404908
 11
21.3673620527
 21
26.3648404908
  0
LINE
  5
35E
100
AcDbEntity
  8
0
100
AcDbLine
 62
7
  6
CONTINUOUS
 10
26.2673618858
 20
26.3648404908
 11
26.5006956642
 21
26.3648404908
  0
LINE
  5
35F
100
AcDbEntity
  8
0
100
AcDbLine
 62
7
  6
CONTINUOUS
 10
26.5006956642
 20
26.6031383347
 11
26.2673618858
 21
26.6031383347
  0
LINE
  5
360
100
AcDbEntity
  8
0
100
AcDbLine
 62
7
  6
CONTINUOUS
 10
21.3673620527
 20
26.6031383347
 11
21.134028775
 21
26.6031383347
  0
LINE
  5
361
100
AcDbEntity
  8
0
100
AcDbLine
 62
7
  6
CONTINUOUS
 10
20.259028775
 20
27.1988831114
 11
20.5506954973
 21
27.1988831114
  0
LINE
  5
362
100
AcDbEntity
  8
0
100
AcDbLine
 62
7
  6
CONTINUOUS
 10
25.3923618858
 20
27.1988831114
 11
25.684028775
 21
27.1988831114
  0
LINE
  5
363
100
AcDbEntity
  8
0
100
AcDbLine
 62
7
  6
CONTINUOUS
 10
21.134028775
 20
27.5563298773
 11
21.3673620527
 21
27.5563298773
  0
LINE
  5
364
100
AcDbEntity
  8
0
100
AcDbLine
 62
7
  6
CONTINUOUS
 10
22.7673622196
 20
27.5563298773
 11
24.5173622196
 21
27.5563298773
  0
LINE
  5
365
100
AcDbEntity
  8
0
100
AcDbLine
 62
7
  6
CONTINUOUS
 10
26.2673618858
 20
27.5563298773
 11
26.5006956642
 21
27.5563298773
  0
LWPOLYLINE
  5
366
100
AcDbEntity
  8
0
100
AcDbPolyline
 62
7
  6
CONTINUOUS
 90
16
 70
0
 10
-19.2297862329
 20
25.718787245
 10
-19.1905370145
 20
25.7169300967
 10
-19.152953642
 20
25.7123983348
 10
-19.1170361154
 20
25.7051919593
 10
-19.0829683373
 20
25.6953874413
 10
-19.0505664052
 20
25.6829083098
 10
-19.0192786106
 20
25.6675251516
 10
-18.9890519702
 20
25.6494020454
 10
-18.9599394674
 20
25.6283749126
 10
-18.9315483439
 20
25.6037221045
 10
-18.9033130593
 20
25.5749890272
 10
-18.8757991539
 20
25.5426302745
 10
-18.850310491
 20
25.507287979
 10
-18.8272816914
 20
25.4691761847
 10
-18.8062781343
 20
25.4280808476
 10
-18.7872998195
 20
25.3840019676
  0
LWPOLYLINE
  5
367
100
AcDbEntity
  8
0
100
AcDbPolyline
 62
7
  6
CONTINUOUS
 90
19
 70
0
 10
-19.0600002356
 20
27.4064754435
 10
-19.01632959
 20
27.3994073243
 10
-18.974356338
 20
27.3895101199
 10
-18.9340804795
 20
27.3767838301
 10
-18.8951770559
 20
27.3609634602
 10
-18.8579710258
 20
27.342314005
 10
-18.8234372653
 20
27.321630449
 10
-18.7920127718
 20
27.2992160042
 10
-18.7632605479
 20
27.2747674587
 10
-18.7368444769
 20
27.2481701606
 10
-18.7126127396
 20
27.2193166918
 10
-18.6907171552
 20
27.1883144705
 10
-18.6712770647
 20
27.1553711
 10
-18.6541268507
 20
27.1200318632
 10
-18.6394321305
 20
27.082751477
 10
-18.6278090965
 20
27.0451016957
 10
-18.619463146
 20
27.0076064374
 10
-18.6141888818
 20
26.9697417838
 10
-18.6119863036
 20
26.9315077351
  0
LINE
  5
368
100
AcDbEntity
  8
0
100
AcDbLine
 62
7
  6
CONTINUOUS
 10
35.328996775
 20
-28.5207978178
 11
34.188143775
 21
-25.3707978178
  0
LINE
  5
369
100
AcDbEntity
  8
0
100
AcDbLine
 62
7
  6
CONTINUOUS
 10
34.552335775
 20
-27.6039478178
 11
34.863820775
 21
-28.5207978178
  0
LINE
  5
36A
100
AcDbEntity
  8
0
100
AcDbLine
 62
7
  6
CONTINUOUS
 10
33.929418775
 20
-25.8277008178
 11
34.398746775
 21
-27.2266608178
  0
LINE
  5
36B
100
AcDbEntity
  8
0
100
AcDbLine
 62
7
  6
CONTINUOUS
 10
20.2006954139
 20
25.7095213365
 11
20.259028775
 21
25.5307979118
  0
LINE
  5
36C
100
AcDbEntity
  8
0
100
AcDbLine
 62
7
  6
CONTINUOUS
 10
27.9006956642
 20
27.4371809554
 11
27.9006956642
 21
26.9605851006
  0
LINE
  5
36D
100
AcDbEntity
  8
0
100
AcDbLine
 62
7
  6
CONTINUOUS
 10
28.2506956642
 20
27.3776064944
 11
28.2506956642
 21
25.0542021822
  0
LINE
  5
36E
100
AcDbEntity
  8
0
100
AcDbLine
 62
7
  6
CONTINUOUS
 10
28.6006956642
 20
25.0542021822
 11
28.6006956642
 21
27.8542021822
  0
LINE
  5
36F
100
AcDbEntity
  8
0
100
AcDbLine
 62
7
  6
CONTINUOUS
 10
28.958404775
 20
-25.3707978178
 11
28.958404775
 21
-28.5207978178
  0
LINE
  5
370
100
AcDbEntity
  8
0
100
AcDbLine
 62
7
  6
CONTINUOUS
 10
29.384068775
 20
-28.5207978178
 11
29.384068775
 21
-25.3707978178
  0
LINE
  5
371
100
AcDbEntity
  8
0
100
AcDbLine
 62
7
  6
CONTINUOUS
 10
29.840353775
 20
-25.3707978178
 11
29.840353775
 21
-25.7480848178
  0
LINE
  5
372
100
AcDbEntity
  8
0
100
AcDbLine
 62
7
  6
CONTINUOUS
 10
30.906487775
 20
-25.7480848178
 11
30.906487775
 21
-28.5207978178
  0
LINE
  5
373
100
AcDbEntity
  8
0
100
AcDbLine
 62
7
  6
CONTINUOUS
 10
31.331999775
 20
-28.5207978178
 11
31.331999775
 21
-25.7480848178
  0
LINE
  5
374
100
AcDbEntity
  8
0
100
AcDbLine
 62
7
  6
CONTINUOUS
 10
32.398133775
 20
-25.7480848178
 11
32.398133775
 21
-25.3707978178
  0
LWPOLYLINE
  5
375
100
AcDbEntity
  8
0
100
AcDbPolyline
 62
7
  6
CONTINUOUS
 90
10
 70
0
 10
-18.4059010346
 20
26.0279009023
 10
-18.3922836679
 20
26.030526435
 10
-18.3785291845
 20
26.0346578656
 10
-18.3646375846
 20
26.040295194
 10
-18.3506105932
 20
26.0476067353
 10
-18.3364464853
 20
26.0564241744
 10
-18.3221400849
 20
26.066242567
 10
-18.307710349
 20
26.0770825155
 10
-18.2931383208
 20
26.0889234175
 10
-18.2633585393
 20
26.1136978966
  0
LWPOLYLINE
  5
376
100
AcDbEntity
  8
0
100
AcDbPolyline
 62
7
  6
CONTINUOUS
 90
10
 70
0
 10
-19.681333218
 20
27.3841089377
 10
-19.610761154
 20
27.3958078366
 10
-19.5406553651
 20
27.4052039778
 10
-19.4710158513
 20
27.4122973614
 10
-19.401952624
 20
27.4170888876
 10
-19.3333556717
 20
27.4195776562
 10
-19.2648949602
 20
27.4197609662
 10
-19.1964604779
 20
27.4176379172
 10
-19.1281622364
 20
27.4132094097
 10
-19.0600002356
 20
27.4064754435
  0
LINE
  5
377
100
AcDbEntity
  8
0
100
AcDbLine
 62
7
  6
CONTINUOUS
 10
28.6006956642
 20
27.8542021822
 11
28.2506956642
 21
27.8542021822
  0
LINE
  5
378
100
AcDbEntity
  8
0
100
AcDbLine
 62
7
  6
CONTINUOUS
 10
26.4423618858
 20
27.8542021822
 11
26.3256956642
 21
27.8542021822
  0
LINE
  5
379
100
AcDbEntity
  8
0
100
AcDbLine
 62
7
  6
CONTINUOUS
 10
24.8673618858
 20
27.8542021822
 11
22.7673622196
 21
27.8542021822
  0
LINE
  5
37A
100
AcDbEntity
  8
0
100
AcDbLine
 62
7
  6
CONTINUOUS
 10
21.309028775
 20
27.8542021822
 11
21.1923620527
 21
27.8542021822
  0
LINE
  5
37B
100
AcDbEntity
  8
0
100
AcDbLine
 62
7
  6
CONTINUOUS
 10
19.734028775
 20
27.8542021822
 11
19.384028775
 21
27.8542021822
  0
LINE
  5
37C
100
AcDbEntity
  8
0
100
AcDbLine
 62
7
  6
CONTINUOUS
 10
-21.843647225
 20
28.0313981822
 11
-22.610889225
 21
28.0313981822
  0
LINE
  5
37D
100
AcDbEntity
  8
0
100
AcDbLine
 62
7
  6
CONTINUOUS
 10
-24.282508225
 20
28.0313981822
 11
-25.067216225
 21
28.0313981822
  0
LINE
  5
37E
100
AcDbEntity
  8
0
100
AcDbLine
 62
7
  6
CONTINUOUS
 10
-26.645066225
 20
28.0313981822
 11
-27.437524225
 21
28.0313981822
  0
LINE
  5
37F
100
AcDbEntity
  8
0
100
AcDbLine
 62
7
  6
CONTINUOUS
 10
-29.294999225
 20
28.0313981822
 11
-30.087571225
 21
28.0313981822
  0
LINE
  5
380
100
AcDbEntity
  8
0
100
AcDbLine
 62
7
  6
CONTINUOUS
 10
-31.558218225
 20
28.0313981822
 11
-32.419785225
 21
28.0313981822
  0
LINE
  5
381
100
AcDbEntity
  8
0
100
AcDbLine
 62
7
  6
CONTINUOUS
 10
-28.207559225
 20
28.0316261822
 11
-29.000672225
 21
28.0316261822
  0
LINE
  5
382
100
AcDbEntity
  8
0
100
AcDbLine
 62
7
  6
CONTINUOUS
 10
21.7173620527
 20
27.7946277213
 11
21.309028775
 21
27.8542021822
  0
LINE
  5
383
100
AcDbEntity
  8
0
100
AcDbLine
 62
7
  6
CONTINUOUS
 10
26.8506956642
 20
27.7946277213
 11
26.4423618858
 21
27.8542021822
  0
LINE
  5
384
100
AcDbEntity
  8
0
100
AcDbLine
 62
7
  6
CONTINUOUS
 10
21.3673620527
 20
26.3648404908
 11
21.7173620527
 21
26.3052660298
  0
LINE
  5
385
100
AcDbEntity
  8
0
100
AcDbLine
 62
7
  6
CONTINUOUS
 10
26.5006956642
 20
26.3648404908
 11
26.8506956642
 21
26.3052660298
  0
LINE
  5
386
100
AcDbEntity
  8
0
100
AcDbLine
 62
7
  6
CONTINUOUS
 10
21.0756954973
 20
25.3520745289
 11
20.784028775
 21
25.4116489899
  0
LINE
  5
387
100
AcDbEntity
  8
0
100
AcDbLine
 62
7
  6
CONTINUOUS
 10
26.209028775
 20
25.3520745289
 11
25.9173618858
 21
25.4116489899
  0
LINE
  5
388
100
AcDbEntity
  8
0
100
AcDbLine
 62
7
  6
CONTINUOUS
 10
21.3673620527
 20
27.5563298773
 11
21.659028775
 21
27.4967554163
  0
LINE
  5
389
100
AcDbEntity
  8
0
100
AcDbLine
 62
7
  6
CONTINUOUS
 10
26.5006956642
 20
27.5563298773
 11
26.7923618858
 21
27.4967554163
  0
LINE
  5
38A
100
AcDbEntity
  8
0
100
AcDbLine
 62
7
  6
CONTINUOUS
 10
20.784028775
 20
25.1137766484
 11
21.0173620527
 21
25.0542021822
  0
LINE
  5
38B
100
AcDbEntity
  8
0
100
AcDbLine
 62
7
  6
CONTINUOUS
 10
25.9173618858
 20
25.1137766484
 11
26.1506956642
 21
25.0542021822
  0
LINE
  5
38C
100
AcDbEntity
  8
0
100
AcDbLine
 62
7
  6
CONTINUOUS
 10
22.1256953304
 20
26.3648404908
 11
21.834028775
 21
26.4839894127
  0
LINE
  5
38D
100
AcDbEntity
  8
0
100
AcDbLine
 62
7
  6
CONTINUOUS
 10
20.5506954973
 20
25.232925586
 11
20.784028775
 21
25.1137766484
  0
LINE
  5
38E
100
AcDbEntity
  8
0
100
AcDbLine
 62
7
  6
CONTINUOUS
 10
20.784028775
 20
25.4116489899
 11
20.6673620527
 21
25.4712234508
  0
LINE
  5
38F
100
AcDbEntity
  8
0
100
AcDbLine
 62
7
  6
CONTINUOUS
 10
20.3756954139
 20
25.3520745289
 11
20.5506954973
 21
25.232925586
  0
LINE
  5
390
100
AcDbEntity
  8
0
100
AcDbLine
 62
7
  6
CONTINUOUS
 10
20.6673620527
 20
25.4712234508
 11
20.5506954973
 21
25.5903724145
  0
LINE
  5
391
100
AcDbEntity
  8
0
100
AcDbLine
 62
7
  6
CONTINUOUS
 10
20.259028775
 20
25.5307979118
 11
20.3756954139
 21
25.3520745289
  0
LINE
  5
392
100
AcDbEntity
  8
0
100
AcDbLine
 62
7
  6
CONTINUOUS
 10
22.2423622196
 20
26.1861171078
 11
22.1256953304
 21
26.3648404908
  0
LWPOLYLINE
  5
393
100
AcDbEntity
  8
0
100
AcDbPolyline
 62
7
  6
CONTINUOUS
 90
10
 70
0
 43
0.3500000006
 10
0.9983145239
 20
60.3042009888
 10
1.0697430868
 20
60.1613476868
 10
1.0697430868
 20
60.0899165039
 10
0.9268858902
 20
59.9470632019
 10
0.8554573274
 20
59.9470632019
 10
0.7840287645
 20
60.018485321
 10
0.7840287645
 20
60.0899165039
 10
0.8554573274
 20
60.2327698059
 10
0.9268858902
 20
60.3042009888
 10
0.9983145239
 20
60.3042009888
  0
LINE
  5
394
100
AcDbEntity
  8
0
100
AcDbLine
 62
7
  6
CONTINUOUS
 10
20.5506954973
 20
25.5903724145
 11
20.4923620527
 21
25.7095213365
  0
LINE
  5
395
100
AcDbEntity
  8
0
100
AcDbLine
 62
7
  6
CONTINUOUS
 10
21.8923622196
 20
26.1861171078
 11
22.009028775
 21
25.9478191804
  0
LINE
  5
396
100
AcDbEntity
  8
0
100
AcDbLine
 62
7
  6
CONTINUOUS
 10
25.334028775
 20
25.7095213365
 11
25.3923618858
 21
25.5307979118
  0
LINE
  5
397
100
AcDbEntity
  8
0
100
AcDbLine
 62
7
  6
CONTINUOUS
 10
22.3006953304
 20
25.9478191804
 11
22.2423622196
 21
26.1861171078
  0
LINE
  5
398
100
AcDbEntity
  8
0
100
AcDbLine
 62
7
  6
CONTINUOUS
 10
22.2423622196
 20
27.1988831114
 11
22.184028775
 21
27.4371809554
  0
LINE
  5
399
100
AcDbEntity
  8
0
100
AcDbLine
 62
7
  6
CONTINUOUS
 10
27.434028775
 20
25.9478191804
 11
27.3756956642
 21
26.1861171078
  0
LINE
  5
39A
100
AcDbEntity
  8
0
100
AcDbLine
 62
7
  6
CONTINUOUS
 10
27.3756956642
 20
27.1988831114
 11
27.3173618858
 21
27.4371809554
  0
LINE
  5
39B
100
AcDbEntity
  8
0
100
AcDbLine
 62
7
  6
CONTINUOUS
 10
35.719275775
 20
-25.3707978178
 11
35.719275775
 21
-28.5207978178
  0
LINE
  5
39C
100
AcDbEntity
  8
0
100
AcDbLine
 62
7
  6
CONTINUOUS
 10
36.144964775
 20
-28.1435108178
 11
36.144964775
 21
-25.3707978178
  0
LINE
  5
39D
100
AcDbEntity
  8
0
100
AcDbLine
 62
7
  6
CONTINUOUS
 10
37.742000775
 20
-28.5207978178
 11
37.742000775
 21
-28.1435108178
  0
LINE
  5
39E
100
AcDbEntity
  8
RACCORDO
100
AcDbLine
 62
7
  6
CONTINUOUS
 10
45.1756203426
 20
35.6954129878
 11
-45.1075627926
 21
35.6954129878
  0
LINE
  5
39F
100
AcDbEntity
  8
RACCORDO
100
AcDbLine
 62
7
  6
CONTINUOUS
 10
46.0344095371
 20
36.5542021822
 11
-45.9663519871
 21
36.5542021822
  0
LINE
  5
3A0
100
AcDbEntity
  8
0
100
AcDbLine
 62
7
  6
CONTINUOUS
 10
27.259028775
 20
26.3648404908
 11
26.9673618858
 21
26.4839894127
  0
LINE
  5
3A1
100
AcDbEntity
  8
0
100
AcDbLine
 62
7
  6
CONTINUOUS
 10
25.684028775
 20
25.232925586
 11
25.9173618858
 21
25.1137766484
  0
LINE
  5
3A2
100
AcDbEntity
  8
0
100
AcDbLine
 62
7
  6
CONTINUOUS
 10
25.9173618858
 20
25.4116489899
 11
25.8006956642
 21
25.4712234508
  0
LINE
  5
3A3
100
AcDbEntity
  8
0
100
AcDbLine
 62
7
  6
CONTINUOUS
 10
21.9506953304
 20
27.6754787993
 11
21.7173620527
 21
27.7946277213
  0
LINE
  5
3A4
100
AcDbEntity
  8
0
100
AcDbLine
 62
7
  6
CONTINUOUS
 10
27.084028775
 20
27.6754787993
 11
26.8506956642
 21
27.7946277213
  0
LINE
  5
3A5
100
AcDbEntity
  8
0
100
AcDbLine
 62
7
  6
CONTINUOUS
 10
21.7173620527
 20
26.3052660298
 11
21.8923622196
 21
26.1861171078
  0
LINE
  5
3A6
100
AcDbEntity
  8
0
100
AcDbLine
 62
7
  6
CONTINUOUS
 10
21.659028775
 20
27.4967554163
 11
21.834028775
 21
27.3776064944
  0
LINE
  5
3A7
100
AcDbEntity
  8
0
100
AcDbLine
 62
7
  6
CONTINUOUS
 10
25.509028775
 20
25.3520745289
 11
25.684028775
 21
25.232925586
  0
LINE
  5
3A8
100
AcDbEntity
  8
0
100
AcDbLine
 62
7
  6
CONTINUOUS
 10
26.8506956642
 20
26.3052660298
 11
27.0256956642
 21
26.1861171078
  0
LINE
  5
3A9
100
AcDbEntity
  8
0
100
AcDbLine
 62
7
  6
CONTINUOUS
 10
26.7923618858
 20
27.4967554163
 11
26.9673618858
 21
27.3776064944
  0
LINE
  5
3AA
100
AcDbEntity
  8
0
100
AcDbLine
 62
7
  6
CONTINUOUS
 10
22.184028775
 20
27.4371809554
 11
21.9506953304
 21
27.6754787993
  0
LINE
  5
3AB
100
AcDbEntity
  8
0
100
AcDbLine
 62
7
  6
CONTINUOUS
 10
25.8006956642
 20
25.4712234508
 11
25.684028775
 21
25.5903724145
  0
LINE
  5
3AC
100
AcDbEntity
  8
0
100
AcDbLine
 62
7
  6
CONTINUOUS
 10
21.834028775
 20
27.3776064944
 11
21.9506953304
 21
27.1988831114
  0
LINE
  5
3AD
100
AcDbEntity
  8
0
100
AcDbLine
 62
7
  6
CONTINUOUS
 10
25.3923618858
 20
25.5307979118
 11
25.509028775
 21
25.3520745289
  0
LINE
  5
3AE
100
AcDbEntity
  8
0
100
AcDbLine
 62
7
  6
CONTINUOUS
 10
27.3756956642
 20
26.1861171078
 11
27.259028775
 21
26.3648404908
  0
LINE
  5
3AF
100
AcDbEntity
  8
0
100
AcDbLine
 62
7
  6
CONTINUOUS
 10
26.9673618858
 20
27.3776064944
 11
27.084028775
 21
27.1988831114
  0
LINE
  5
3B0
100
AcDbEntity
  8
0
100
AcDbLine
 62
7
  6
CONTINUOUS
 10
25.684028775
 20
25.5903724145
 11
25.6256956642
 21
25.7095213365
  0
LINE
  5
3B1
100
AcDbEntity
  8
0
100
AcDbLine
 62
7
  6
CONTINUOUS
 10
27.0256956642
 20
26.1861171078
 11
27.1423618858
 21
25.9478191804
  0
LINE
  5
3B2
100
AcDbEntity
  8
0
100
AcDbLine
 62
7
  6
CONTINUOUS
 10
39.075623775
 20
-27.2529008178
 11
39.075623775
 21
-28.5207978178
  0
LINE
  5
3B3
100
AcDbEntity
  8
0
100
AcDbLine
 62
7
  6
CONTINUOUS
 10
39.501058775
 20
-28.5207978178
 11
39.501058775
 21
-27.2529008178
  0
LINE
  5
3B4
100
AcDbEntity
  8
0
100
AcDbLine
 62
7
  6
CONTINUOUS
 10
32.959630775
 20
-28.5207978178
 11
33.288743775
 21
-27.6039478178
  0
LINE
  5
3B5
100
AcDbEntity
  8
0
100
AcDbLine
 62
7
  6
CONTINUOUS
 10
33.420373775
 20
-27.2266608178
 11
33.929418775
 21
-25.8277008178
  0
LINE
  5
3B6
100
AcDbEntity
  8
0
100
AcDbLine
 62
7
  6
CONTINUOUS
 10
33.705618775
 20
-25.3707978178
 11
32.520974775
 21
-28.5207978178
  0
LINE
  5
3B7
100
AcDbEntity
  8
RACCORDO
100
AcDbLine
 62
7
  6
CONTINUOUS
 10
48.6216087093
 20
38.6414775069
 11
-48.5535511593
 21
38.6414775069
  0
LINE
  5
3B8
100
AcDbEntity
  8
0
100
AcDbLine
 62
7
  6
CONTINUOUS
 10
27.3173618858
 20
27.4371809554
 11
27.084028775
 21
27.6754787993
  0
LINE
  5
3B9
100
AcDbEntity
  8
RACCORDO
100
AcDbLine
 62
7
  6
CONTINUOUS
 10
47.6752395805
 20
-33.0873893854
 11
47.6752395805
 21
-0.9457978178
  0
LINE
  5
3BA
100
AcDbEntity
  8
RACCORDO
100
AcDbLine
 62
7
  6
CONTINUOUS
 10
47.6752395805
 20
1.0542021822
 11
47.6752395805
 21
33.1957937499
  0
LINE
  5
3BB
100
AcDbEntity
  8
DRAFT
100
AcDbLine
 62
7
  6
CONTINUOUS
 10
48.5165737101
 20
-0.9457978178
 11
48.5165737101
 21
1.0542021822
  0
LINE
  5
3BC
100
AcDbEntity
  8
RACCORDO
100
AcDbLine
 62
7
  6
CONTINUOUS
 10
48.534028775
 20
-33.9461785799
 11
48.534028775
 21
34.0545829443
  0
LINE
  5
3BD
100
AcDbEntity
  8
0
100
AcDbLine
 62
7
  6
CONTINUOUS
 10
40.189906775
 20
-25.3707978178
 11
39.286303775
 21
-26.8845298178
  0
LINE
  5
3BE
100
AcDbEntity
  8
0
100
AcDbLine
 62
7
  6
CONTINUOUS
 10
39.501058775
 20
-27.2529008178
 11
40.690237775
 21
-25.3707978178
  0
LINE
  5
3BF
100
AcDbEntity
  8
0
100
AcDbLine
 62
7
  6
CONTINUOUS
 10
-57.465971225
 20
45.5542021822
 11
57.534028775
 21
45.5542021822
  0
LINE
  5
3C0
100
AcDbEntity
  8
RACCORDO
100
AcDbLine
 62
7
  6
CONTINUOUS
 10
57.534028775
 20
48.0542021822
 11
-57.465971225
 21
48.0542021822
  0
LWPOLYLINE
  5
3C1
100
AcDbEntity
  8
0
100
AcDbPolyline
 62
7
  6
CONTINUOUS
 90
13
 70
0
 43
0.3500000006
 10
-3.7159711218
 20
61.5184857788
 10
-4.0016853733
 20
61.7327702637
 10
-4.0016853733
 20
62.375632782
 10
-3.7159711218
 20
62.8042017517
 10
-3.0731139851
 20
62.8042017517
 10
-2.7873997335
 20
62.375632782
 10
-2.7873997335
 20
61.7327702637
 10
-3.0731139851
 20
61.5184857788
 10
-2.6445427494
 20
61.0899168091
 10
-2.6445427494
 20
60.2327698059
 10
-3.0731139851
 20
59.8042008362
 10
-3.7159711218
 20
59.8042008362
 10
-4.1445426407
 20
60.2327698059
  0
LINE
  5
3C2
100
AcDbEntity
  8
RACCORDO
100
AcDbLine
 62
7
  6
CONTINUOUS
 10
50.6213040996
 20
-36.5333777521
 11
50.6213040996
 21
36.6417821166
  0
LINE
  5
3C3
100
AcDbEntity
  8
RACCORDO
100
AcDbLine
 62
7
  6
CONTINUOUS
 10
57.534028775
 20
51.0542021822
 11
-57.465971225
 21
51.0542021822
  0
LINE
  5
3C4
100
AcDbEntity
  8
0
100
AcDbLine
 62
7
  6
CONTINUOUS
 10
57.534028775
 20
45.5542021822
 11
57.534028775
 21
-45.4457978178
  0
LINE
  5
3C5
100
AcDbEntity
  8
RACCORDO
100
AcDbLine
 62
7
  6
CONTINUOUS
 10
60.034028775
 20
-45.4457978178
 11
60.034028775
 21
45.5542021822
  0
LWPOLYLINE
  5
3C6
100
AcDbEntity
  8
0
100
AcDbPolyline
 62
7
  6
CONTINUOUS
 90
6
 70
0
 43
0.3500000006
 10
-1.7873998532
 20
59.8042008362
 10
-0.7159711976
 20
59.8042008362
 10
-0.501685509
 20
60.018485321
 10
-0.501685509
 20
61.0899168091
 10
-0.9302569571
 20
61.5184857788
 10
-1.3588283343
 20
61.5184857788
  0
LWPOLYLINE
  5
3C7
100
AcDbEntity
  8
0
100
AcDbPolyline
 62
7
  6
CONTINUOUS
 90
8
 70
0
 43
0.3500000006
 10
2.0697431087
 20
59.8042008362
 10
2.9268858633
 20
59.8042008362
 10
3.3554573822
 20
60.2327698059
 10
3.3554573822
 20
61.0899168091
 10
2.9268858633
 20
61.5184857788
 10
2.0697431087
 20
61.5184857788
 10
2.0697431087
 20
62.8042017517
 10
3.3554573822
 20
62.8042017517
  0
LINE
  5
3C8
100
AcDbEntity
  8
RACCORDO
100
AcDbLine
 62
7
  6
CONTINUOUS
 10
63.034028775
 20
-45.4457978178
 11
63.034028775
 21
45.5542021822
  0
LWPOLYLINE
  5
3C9
100
AcDbEntity
  8
0
100
AcDbPolyline
 62
7
  6
CONTINUOUS
 90
7
 70
0
 43
0.3500000006
 10
0.0340287746
 20
79.804197876
 10
-1.4659712849
 20
79.804197876
 10
0.0340287746
 20
81.9470608521
 10
0.0340287746
 20
82.3756298218
 10
-0.3945426646
 20
82.8041987915
 10
-1.037399766
 20
82.8041987915
 10
-1.4659712849
 20
82.1613453369
  0
LWPOLYLINE
  5
3CA
100
AcDbEntity
  8
0
100
AcDbPolyline
 62
7
  6
CONTINUOUS
 90
5
 70
0
 43
0.3500000006
 10
114.2957114868
 20
61.5184857788
 10
114.6528583374
 20
61.7327702637
 10
114.6528583374
 20
62.375632782
 10
114.2957114868
 20
62.8042017517
 10
113.4385735474
 20
62.8042017517
  0
LINE
  5
3CB
100
AcDbEntity
  8
RACCORDO
100
AcDbLine
 62
7
  6
CONTINUOUS
 10
134.938569886
 20
-50.9457978178
 11
132.938569886
 21
-50.9457978178
  0
LINE
  5
3CC
100
AcDbEntity
  8
RACCORDO
100
AcDbLine
 62
7
  6
CONTINUOUS
 10
139.938569886
 20
-47.9457978178
 11
134.938569886
 21
-47.9457978178
  0
LINE
  5
3CD
100
AcDbEntity
  8
RACCORDO
100
AcDbLine
 62
250
  6
CONTINUOUS
 10
139.938569886
 20
-45.4457978178
 11
132.938569886
 21
-45.4457978178
  0
LINE
  5
3CE
100
AcDbEntity
  8
RACCORDO
100
AcDbLine
 62
7
  6
CONTINUOUS
 10
132.938569886
 20
-38.4457978178
 11
86.938569886
 21
-37.6428648311
  0
LINE
  5
3CF
100
AcDbEntity
  8
RACCORDO
100
AcDbLine
 62
250
  6
CONTINUOUS
 10
132.938569886
 20
-35.9461785799
 11
86.938569886
 21
-35.1432455932
  0
LWPOLYLINE
  5
3D0
100
AcDbEntity
  8
0
100
AcDbPolyline
 62
7
  6
CONTINUOUS
 90
85
 70
0
 10
102.9378715609
 20
-30.4457978178
 10
102.5069409109
 20
-30.4376623821
 10
102.0778091213
 20
-30.4135591867
 10
101.6504761922
 20
-30.3734882315
 10
101.2243500438
 20
-30.317348903
 10
100.8000227559
 20
-30.2452418148
 10
100.3792705671
 20
-30.1574688079
 10
99.9621084638
 20
-30.053964213
 10
99.5485214595
 20
-29.9347936994
 10
99.1402408341
 20
-29.8004561163
 10
98.7372888312
 20
-29.6508878854
 10
98.3396432072
 20
-29.4861525849
 10
97.9489685109
 20
-29.3069397986
 10
97.5652939637
 20
-29.113188839
 10
97.1885903443
 20
-28.9049603935
 10
96.8204345382
 20
-28.6831261089
 10
96.4608623767
 20
-28.4476289512
 10
96.1098380286
 20
-28.1985259544
 10
95.7688308855
 20
-27.9368598661
 10
95.4378829383
 20
-27.6625780239
 10
95.1169521962
 20
-27.3757330903
 10
94.8073820789
 20
-27.0775258014
 10
94.5092202084
 20
-26.7679085278
 10
94.2224189627
 20
-26.446928899
 10
93.9481788949
 20
-26.1159305391
 10
93.6865526597
 20
-25.7748714511
 10
93.4374876024
 20
-25.4237936321
 10
93.2020263121
 20
-25.0641666977
 10
92.9802258139
 20
-24.6959548112
 10
92.7720290826
 20
-24.3191938092
 10
92.5783076322
 20
-23.9354608176
 10
92.3991221409
 20
-23.5447266107
 10
92.2344119304
 20
-23.1470204141
 10
92.0848664794
 20
-22.7440070302
 10
91.9505493566
 20
-22.3356642123
 10
91.8313969933
 20
-21.9220142071
 10
91.7279081626
 20
-21.5047885583
 10
91.640148524
 20
-21.0839722771
 10
91.568052418
 20
-20.6595803522
 10
91.5119216398
 20
-20.233389293
 10
91.4718231137
 20
-19.8053915575
 10
91.4476899154
 20
-19.3755946876
 10
91.4396230666
 20
-18.9457978178
 10
91.4476899154
 20
-18.5160009479
 10
91.4718231137
 20
-18.086204078
 10
91.5119216398
 20
-17.6582063426
 10
91.568052418
 20
-17.2320152833
 10
91.640148524
 20
-16.8076233584
 10
91.7279081626
 20
-16.3868070773
 10
91.8313969933
 20
-15.9695814284
 10
91.9505493566
 20
-15.5559314233
 10
92.0848664794
 20
-15.1475886053
 10
92.2344119304
 20
-14.7445752215
 10
92.3991221409
 20
-14.3468690248
 10
92.5783076322
 20
-13.9561348179
 10
92.7720290826
 20
-13.5724018263
 10
92.9802258139
 20
-13.1956408244
 10
93.2020263121
 20
-12.8274289378
 10
93.4374876024
 20
-12.4678020034
 10
93.6865526597
 20
-12.1167241844
 10
93.9481788949
 20
-11.7756650964
 10
94.2224189627
 20
-11.4446667365
 10
94.5092202084
 20
-11.1236871077
 10
94.8073820789
 20
-10.8140698341
 10
95.1169521962
 20
-10.5158625452
 10
95.4378829383
 20
-10.2290176116
 10
95.7688308855
 20
-9.9547357694
 10
96.1098380286
 20
-9.6930696812
 10
96.4608623767
 20
-9.4439666843
 10
96.8204345382
 20
-9.2084695266
 10
97.1885903443
 20
-8.986635242
 10
97.5652939637
 20
-8.7784067965
 10
97.9489685109
 20
-8.5846558369
 10
98.3396432072
 20
-8.4054430506
 10
98.7372888312
 20
-8.2407077501
 10
99.1402408341
 20
-8.0911395192
 10
99.5485214595
 20
-7.9568019361
 10
99.9621084638
 20
-7.8376314226
 10
100.3792705671
 20
-7.7341268277
 10
100.8000227559
 20
-7.6463538208
 10
101.2243500438
 20
-7.5742467325
 10
101.6504761922
 20
-7.518107404
 10
102.0778091213
 20
-7.4780364489
 10
102.5069409109
 20
-7.4539332535
 10
102.9378715609
 20
-7.4457978178
  0
LWPOLYLINE
  5
3D1
100
AcDbEntity
  8
0
100
AcDbPolyline
 62
7
  6
CONTINUOUS
 90
82
 70
0
 10
102.9588144487
 20
-30.1957978178
 10
102.5215701784
 20
-30.1872314654
 10
102.0862880561
 20
-30.161875307
 10
101.6529680818
 20
-30.1197293424
 10
101.220965051
 20
-30.0606797874
 10
100.7909241683
 20
-29.9848404262
 10
100.3647810468
 20
-29.8925526118
 10
99.9425532569
 20
-29.7837421984
 10
99.5242232282
 20
-29.6584833317
 10
99.1116738637
 20
-29.5173398016
 10
98.704931221
 20
-29.3602400039
 10
98.3039692424
 20
-29.187255543
 10
97.9105926572
 20
-28.9991650214
 10
97.5248356583
 20
-28.7959003448
 10
97.1466640528
 20
-28.5775296076
 10
96.7777799903
 20
-28.3450356962
 10
96.4182253369
 20
-28.0983549466
 10
96.0679582265
 20
-27.8375510228
 10
95.7285552109
 20
-27.5637978029
 10
95.4000652629
 20
-27.2770369143
 10
95.0824394095
 20
-26.9773267296
 10
94.7771072844
 20
-26.6660162438
 10
94.4841243047
 20
-26.3430531654
 10
94.2034350532
 20
-26.0084897859
 10
93.9363029117
 20
-25.6638319744
 10
93.6827889925
 20
-25.3090342278
 10
93.4428321834
 20
-24.9441420492
 10
93.2175125296
 20
-24.5707978178
 10
93.0068960118
 20
-24.1889634337
 10
92.8109166493
 20
-23.7986769968
 10
92.6304565448
 20
-23.4016951857
 10
92.4655856555
 20
-22.9979878192
 10
92.3162340243
 20
-22.5875850786
 10
92.1830738826
 20
-22.1723341858
 10
92.0661782178
 20
-21.7522132865
 10
91.9654740424
 20
-21.3272442351
 10
91.8814146259
 20
-20.8993398165
 10
91.8140749989
 20
-20.4684867989
 10
91.7633801306
 20
-20.0346984141
 10
91.7295581988
 20
-19.599927143
 10
91.7126852624
 20
-19.164168555
 10
91.7126852624
 20
-18.7274270806
 10
91.7295581988
 20
-18.2916684925
 10
91.7633801306
 20
-17.8568972214
 10
91.8140749989
 20
-17.4231088366
 10
91.8814146259
 20
-16.992255819
 10
91.9654740424
 20
-16.5643514005
 10
92.0661782178
 20
-16.139382349
 10
92.1830738826
 20
-15.7192614498
 10
92.3162340243
 20
-15.3040105569
 10
92.4655856555
 20
-14.8936078163
 10
92.6304565448
 20
-14.4899004498
 10
92.8109166493
 20
-14.0929186387
 10
93.0068960118
 20
-13.7026322018
 10
93.2175125296
 20
-13.3207978178
 10
93.4428321834
 20
-12.9474535864
 10
93.6827889925
 20
-12.5825614078
 10
93.9363029117
 20
-12.2277636611
 10
94.2034350532
 20
-11.8831058497
 10
94.4841243047
 20
-11.5485424701
 10
94.7771072844
 20
-11.2255793917
 10
95.0824394095
 20
-10.9142689059
 10
95.4000652629
 20
-10.6145587212
 10
95.7285552109
 20
-10.3277978327
 10
96.0679582265
 20
-10.0540446127
 10
96.4182253369
 20
-9.7932406889
 10
96.7777799903
 20
-9.5465599394
 10
97.1466640528
 20
-9.3140660279
 10
97.5248356583
 20
-9.0956952908
 10
97.9105926572
 20
-8.8924306141
 10
98.3039692424
 20
-8.7043400926
 10
98.704931221
 20
-8.5313556316
 10
99.1116738637
 20
-8.3742558339
 10
99.5242232282
 20
-8.2331123039
 10
99.9425532569
 20
-8.1078534372
 10
100.3647810468
 20
-7.9990430237
 10
100.7909241683
 20
-7.9067552093
 10
101.220965051
 20
-7.8309158482
 10
101.6529680818
 20
-7.7718662932
 10
102.0862880561
 20
-7.7297203286
 10
102.5215701784
 20
-7.7043641701
 10
102.9588144487
 20
-7.6957978178
  0
LWPOLYLINE
  5
3D2
100
AcDbEntity
  8
0
100
AcDbPolyline
 62
7
  6
CONTINUOUS
 90
80
 70
0
 10
102.511853639
 20
-30.437041102
 10
102.0668985807
 20
-30.4111214734
 10
101.6239492736
 20
-30.3680389318
 10
101.1823461755
 20
-30.3076771645
 10
100.7427488287
 20
-30.2301524842
 10
100.3071358601
 20
-30.1358138294
 10
99.8755252304
 20
-30.0245854068
 10
99.4478989789
 20
-29.8965430097
 10
99.0261818507
 20
-29.7522629568
 10
98.6104004826
 20
-29.5916720525
 10
98.2005282379
 20
-29.4148434924
 10
97.7984099507
 20
-29.2225731815
 10
97.4040805741
 20
-29.014791512
 10
97.0175051551
 20
-28.7915680918
 10
96.640423669
 20
-28.553907649
 10
96.2728789122
 20
-28.301745105
 10
95.9148280883
 20
-28.0351455385
 10
95.5678827834
 20
-27.7553089136
 10
95.2320930587
 20
-27.4621755609
 10
94.9074088531
 20
-27.1558051499
 10
94.5952915697
 20
-26.8375766533
 10
94.295797857
 20
-26.5074366176
 10
94.0088710666
 20
-26.1654384963
 10
93.7358026553
 20
-25.8131216223
 10
93.4766550935
 20
-25.4504394813
 10
93.2313659108
 20
-25.0774385876
 10
93.0010391536
 20
-24.6957978178
 10
92.7857422687
 20
-24.3054782252
 10
92.5854078093
 20
-23.9065187563
 10
92.4009374803
 20
-23.5007151272
 10
92.2324027935
 20
-23.0880364859
 10
92.0797322371
 20
-22.6685136844
 10
91.9436129811
 20
-22.2440349939
 10
91.8241196349
 20
-21.8145780747
 10
91.721177589
 20
-21.3801652666
 10
91.6352501854
 20
-20.9427518609
 10
91.5664141222
 20
-20.5023243318
 10
91.5145927013
 20
-20.0588962051
 10
91.480019171
 20
-19.6144633502
 10
91.4627712805
 20
-19.169021238
 10
91.4627712805
 20
-18.7225743975
 10
91.480019171
 20
-18.2771322853
 10
91.5145927013
 20
-17.8326994304
 10
91.5664141222
 20
-17.3892713037
 10
91.6352501854
 20
-16.9488437746
 10
91.721177589
 20
-16.511430369
 10
91.8241196349
 20
-16.0770175608
 10
91.9436129811
 20
-15.6475606416
 10
92.0797322371
 20
-15.2230819512
 10
92.2324027935
 20
-14.8035591496
 10
92.4009374803
 20
-14.3908805083
 10
92.5854078093
 20
-13.9850768792
 10
92.7857422687
 20
-13.5861174104
 10
93.0010391536
 20
-13.1957978178
 10
93.2313659108
 20
-12.8141570479
 10
93.4766550935
 20
-12.4411561542
 10
93.7358026553
 20
-12.0784740132
 10
94.0088710666
 20
-11.7261571393
 10
94.295797857
 20
-11.384159018
 10
94.5952915697
 20
-11.0540189823
 10
94.9074088531
 20
-10.7357904856
 10
95.2320930587
 20
-10.4294200746
 10
95.5678827834
 20
-10.1362867219
 10
95.9148280883
 20
-9.856450097
 10
96.2728789122
 20
-9.5898505305
 10
96.640423669
 20
-9.3376879865
 10
97.0175051551
 20
-9.1000275437
 10
97.4040805741
 20
-8.8768041235
 10
97.7984099507
 20
-8.669022454
 10
98.2005282379
 20
-8.4767521431
 10
98.6104004826
 20
-8.299923583
 10
99.0261818507
 20
-8.1393326787
 10
99.4478989789
 20
-7.9950526258
 10
99.8755252304
 20
-7.8670102287
 10
100.3071358601
 20
-7.7557818061
 10
100.7427488287
 20
-7.6614431513
 10
101.1823461755
 20
-7.5839184711
 10
101.6239492736
 20
-7.5235567037
 10
102.0668985807
 20
-7.4804741621
 10
102.511853639
 20
-7.4545545335
  0
LINE
  5
3D3
100
AcDbEntity
  8
RACCORDO
100
AcDbLine
 62
7
  6
CONTINUOUS
 10
86.938569886
 20
-37.6428648311
 11
86.938569886
 21
37.7512691955
  0
LWPOLYLINE
  5
3D4
100
AcDbEntity
  8
0
100
AcDbPolyline
 62
7
  6
CONTINUOUS
 90
82
 70
0
 10
102.9465977642
 20
-29.7916526293
 10
102.5250610644
 20
-29.7833940148
 10
102.1054160243
 20
-29.7589487514
 10
101.687662644
 20
-29.7183168391
 10
101.2711788974
 20
-29.6613885813
 10
100.8565868105
 20
-29.5882736746
 10
100.4457524617
 20
-29.4993012092
 10
100.03869279
 20
-29.3943997029
 10
99.6353908563
 20
-29.2736406378
 10
99.237661922
 20
-29.1375675503
 10
98.8455311088
 20
-28.9861114084
 10
98.4589732951
 20
-28.8193412441
 10
98.0797283768
 20
-28.6380076896
 10
97.7078293189
 20
-28.4420450966
 10
97.3432431564
 20
-28.2315191134
 10
96.9876108912
 20
-28.0073773172
 10
96.6409728852
 20
-27.769558331
 10
96.3032887764
 20
-27.5181235318
 10
95.9760784804
 20
-27.254204627
 10
95.6593892107
 20
-26.9777453415
 10
95.3531737539
 20
-26.6888019505
 10
95.0588103851
 20
-26.3886749877
 10
94.7763525309
 20
-26.0773140404
 10
94.5057467647
 20
-25.7547695213
 10
94.2482110828
 20
-25.4224932029
 10
94.0038044019
 20
-25.0804412164
 10
93.7724678052
 20
-24.7286574305
 10
93.5552425384
 20
-24.3687252235
 10
93.3521922119
 20
-24.0006078643
 10
93.1632532153
 20
-23.6243420839
 10
92.9892759626
 20
-23.241621454
 10
92.830327898
 20
-22.8524168778
 10
92.6863415772
 20
-22.456757452
 10
92.5579650827
 20
-22.0564240392
 10
92.4452687797
 20
-21.6513955702
 10
92.3481823028
 20
-21.2416931141
 10
92.2671426382
 20
-20.829160741
 10
92.202222121
 20
-20.4137856944
 10
92.1533484161
 20
-19.9955807308
 10
92.1207415039
 20
-19.5764281902
 10
92.1044747112
 20
-19.1563238009
 10
92.1044747112
 20
-18.7352718346
 10
92.1207415039
 20
-18.3151674454
 10
92.1533484161
 20
-17.8960149047
 10
92.202222121
 20
-17.4778099411
 10
92.2671426382
 20
-17.0624348945
 10
92.3481823028
 20
-16.6499025214
 10
92.4452687797
 20
-16.2402000653
 10
92.5579650827
 20
-15.8351715963
 10
92.6863415772
 20
-15.4348381835
 10
92.830327898
 20
-15.0391787578
 10
92.9892759626
 20
-14.6499741815
 10
93.1632532153
 20
-14.2672535516
 10
93.3521922119
 20
-13.8909877712
 10
93.5552425384
 20
-13.522870412
 10
93.7724678052
 20
-13.162938205
 10
94.0038044019
 20
-12.8111544191
 10
94.2482110828
 20
-12.4691024327
 10
94.5057467647
 20
-12.1368261142
 10
94.7763525309
 20
-11.8142815951
 10
95.0588103851
 20
-11.5029206478
 10
95.3531737539
 20
-11.202793685
 10
95.6593892107
 20
-10.913850294
 10
95.9760784804
 20
-10.6373910085
 10
96.3032887764
 20
-10.3734721038
 10
96.6409728852
 20
-10.1220373045
 10
96.9876108912
 20
-9.8842183183
 10
97.3432431564
 20
-9.6600765221
 10
97.7078293189
 20
-9.4495505389
 10
98.0797283768
 20
-9.2535879459
 10
98.4589732951
 20
-9.0722543914
 10
98.8455311088
 20
-8.9054842271
 10
99.237661922
 20
-8.7540280852
 10
99.6353908563
 20
-8.6179549977
 10
100.03869279
 20
-8.4971959326
 10
100.4457524617
 20
-8.3922944263
 10
100.8565868105
 20
-8.3033219609
 10
101.2711788974
 20
-8.2302070542
 10
101.687662644
 20
-8.1732787964
 10
102.1054160243
 20
-8.1326468842
 10
102.5250610644
 20
-8.1082016207
 10
102.9465977642
 20
-8.0999430062
  0
LWPOLYLINE
  5
3D5
100
AcDbEntity
  8
0
100
AcDbPolyline
 62
7
  6
CONTINUOUS
 90
85
 70
0
 10
102.9378715609
 20
-7.4457978178
 10
103.3688022109
 20
-7.4539332535
 10
103.7979340005
 20
-7.4780364489
 10
104.2252669297
 20
-7.518107404
 10
104.651393078
 20
-7.5742467325
 10
105.075720366
 20
-7.6463538208
 10
105.4964725548
 20
-7.7341268277
 10
105.9136346581
 20
-7.8376314226
 10
106.3272216624
 20
-7.9568019361
 10
106.7355022878
 20
-8.0911395192
 10
107.1384542907
 20
-8.2407077501
 10
107.5360999147
 20
-8.4054430506
 10
107.926774611
 20
-8.5846558369
 10
108.3104491582
 20
-8.7784067965
 10
108.6871527776
 20
-8.986635242
 10
109.0553085837
 20
-9.2084695266
 10
109.4148807452
 20
-9.4439666843
 10
109.7659050933
 20
-9.6930696812
 10
110.1069122364
 20
-9.9547357694
 10
110.4378601836
 20
-10.2290176116
 10
110.7587909257
 20
-10.5158625452
 10
111.068361043
 20
-10.8140698341
 10
111.3665229135
 20
-11.1236871077
 10
111.6533241592
 20
-11.4446667365
 10
111.927564227
 20
-11.7756650964
 10
112.1891904622
 20
-12.1167241844
 10
112.4382555195
 20
-12.4678020034
 10
112.6737168098
 20
-12.8274289378
 10
112.895517308
 20
-13.1956408244
 10
113.1037140393
 20
-13.5724018263
 10
113.2974354897
 20
-13.9561348179
 10
113.476620981
 20
-14.3468690248
 10
113.6413311915
 20
-14.7445752215
 10
113.7908766425
 20
-15.1475886053
 10
113.9251937653
 20
-15.5559314233
 10
114.0443461286
 20
-15.9695814284
 10
114.1478349592
 20
-16.3868070773
 10
114.2355945979
 20
-16.8076233584
 10
114.3076907039
 20
-17.2320152833
 10
114.3638214821
 20
-17.6582063426
 10
114.4039200082
 20
-18.086204078
 10
114.4280532065
 20
-18.5160009479
 10
114.4361200552
 20
-18.9457978178
 10
114.4280532065
 20
-19.3755946876
 10
114.4039200082
 20
-19.8053915575
 10
114.3638214821
 20
-20.233389293
 10
114.3076907039
 20
-20.6595803522
 10
114.2355945979
 20
-21.0839722771
 10
114.1478349592
 20
-21.5047885583
 10
114.0443461286
 20
-21.9220142071
 10
113.9251937653
 20
-22.3356642123
 10
113.7908766425
 20
-22.7440070302
 10
113.6413311915
 20
-23.1470204141
 10
113.476620981
 20
-23.5447266107
 10
113.2974354897
 20
-23.9354608176
 10
113.1037140393
 20
-24.3191938092
 10
112.895517308
 20
-24.6959548112
 10
112.6737168098
 20
-25.0641666977
 10
112.4382555195
 20
-25.4237936321
 10
112.1891904622
 20
-25.7748714511
 10
111.927564227
 20
-26.1159305391
 10
111.6533241592
 20
-26.446928899
 10
111.3665229135
 20
-26.7679085278
 10
111.068361043
 20
-27.0775258014
 10
110.7587909257
 20
-27.3757330903
 10
110.4378601836
 20
-27.6625780239
 10
110.1069122364
 20
-27.9368598661
 10
109.7659050933
 20
-28.1985259544
 10
109.4148807452
 20
-28.4476289512
 10
109.0553085837
 20
-28.6831261089
 10
108.6871527776
 20
-28.9049603935
 10
108.3104491582
 20
-29.113188839
 10
107.926774611
 20
-29.3069397986
 10
107.5360999147
 20
-29.4861525849
 10
107.1384542907
 20
-29.6508878854
 10
106.7355022878
 20
-29.8004561163
 10
106.3272216624
 20
-29.9347936994
 10
105.9136346581
 20
-30.053964213
 10
105.4964725548
 20
-30.1574688079
 10
105.075720366
 20
-30.2452418148
 10
104.651393078
 20
-30.317348903
 10
104.2252669297
 20
-30.3734882315
 10
103.7979340005
 20
-30.4135591867
 10
103.3688022109
 20
-30.4376623821
 10
102.9378715609
 20
-30.4457978178
  0
LWPOLYLINE
  5
3D6
100
AcDbEntity
  8
0
100
AcDbPolyline
 62
7
  6
CONTINUOUS
 90
82
 70
0
 10
102.9465977642
 20
-8.0999430062
 10
103.368134464
 20
-8.1082016207
 10
103.787779504
 20
-8.1326468842
 10
104.2055328843
 20
-8.1732787964
 10
104.6220166309
 20
-8.2302070542
 10
105.0366087178
 20
-8.3033219609
 10
105.4474430666
 20
-8.3922944263
 10
105.8545027384
 20
-8.4971959326
 10
106.2578046721
 20
-8.6179549977
 10
106.6555336064
 20
-8.7540280852
 10
107.0476644195
 20
-8.9054842271
 10
107.4342222332
 20
-9.0722543914
 10
107.8134671515
 20
-9.2535879459
 10
108.1853662094
 20
-9.4495505389
 10
108.5499523719
 20
-9.6600765221
 10
108.9055846372
 20
-9.8842183183
 10
109.2522226432
 20
-10.1220373045
 10
109.589906752
 20
-10.3734721038
 10
109.9171170479
 20
-10.6373910085
 10
110.2338063176
 20
-10.913850294
 10
110.5400217745
 20
-11.202793685
 10
110.8343851432
 20
-11.5029206478
 10
111.1168429975
 20
-11.8142815951
 10
111.3874487636
 20
-12.1368261142
 10
111.6449844455
 20
-12.4691024327
 10
111.8893911264
 20
-12.8111544191
 10
112.1207277231
 20
-13.162938205
 10
112.33795299
 20
-13.522870412
 10
112.5410033164
 20
-13.8909877712
 10
112.729942313
 20
-14.2672535516
 10
112.9039195657
 20
-14.6499741815
 10
113.0628676304
 20
-15.0391787578
 10
113.2068539511
 20
-15.4348381835
 10
113.3352304456
 20
-15.8351715963
 10
113.4479267487
 20
-16.2402000653
 10
113.5450132255
 20
-16.6499025214
 10
113.6260528901
 20
-17.0624348945
 10
113.6909734073
 20
-17.4778099411
 10
113.7398471122
 20
-17.8960149047
 10
113.7724540245
 20
-18.3151674454
 10
113.7887208172
 20
-18.7352718346
 10
113.7887208172
 20
-19.1563238009
 10
113.7724540245
 20
-19.5764281902
 10
113.7398471122
 20
-19.9955807308
 10
113.6909734073
 20
-20.4137856944
 10
113.6260528901
 20
-20.829160741
 10
113.5450132255
 20
-21.2416931141
 10
113.4479267487
 20
-21.6513955702
 10
113.3352304456
 20
-22.0564240392
 10
113.2068539511
 20
-22.456757452
 10
113.0628676304
 20
-22.8524168778
 10
112.9039195657
 20
-23.241621454
 10
112.729942313
 20
-23.6243420839
 10
112.5410033164
 20
-24.0006078643
 10
112.33795299
 20
-24.3687252235
 10
112.1207277231
 20
-24.7286574305
 10
111.8893911264
 20
-25.0804412164
 10
111.6449844455
 20
-25.4224932029
 10
111.3874487636
 20
-25.7547695213
 10
111.1168429975
 20
-26.0773140404
 10
110.8343851432
 20
-26.3886749877
 10
110.5400217745
 20
-26.6888019505
 10
110.2338063176
 20
-26.9777453415
 10
109.9171170479
 20
-27.254204627
 10
109.589906752
 20
-27.5181235318
 10
109.2522226432
 20
-27.769558331
 10
108.9055846372
 20
-28.0073773172
 10
108.5499523719
 20
-28.2315191134
 10
108.1853662094
 20
-28.4420450966
 10
107.8134671515
 20
-28.6380076896
 10
107.4342222332
 20
-28.8193412441
 10
107.0476644195
 20
-28.9861114084
 10
106.6555336064
 20
-29.1375675503
 10
106.2578046721
 20
-29.2736406378
 10
105.8545027384
 20
-29.3943997029
 10
105.4474430666
 20
-29.4993012092
 10
105.0366087178
 20
-29.5882736746
 10
104.6220166309
 20
-29.6613885813
 10
104.2055328843
 20
-29.7183168391
 10
103.787779504
 20
-29.7589487514
 10
103.368134464
 20
-29.7833940148
 10
102.9465977642
 20
-29.7916526293
  0
LWPOLYLINE
  5
3D7
100
AcDbEntity
  8
0
100
AcDbPolyline
 62
7
  6
CONTINUOUS
 90
82
 70
0
 10
102.9588144487
 20
-7.6957978178
 10
103.396058719
 20
-7.7043641701
 10
103.8313408413
 20
-7.7297203286
 10
104.2646608156
 20
-7.7718662932
 10
104.6966638463
 20
-7.8309158482
 10
105.126704729
 20
-7.9067552093
 10
105.5528478505
 20
-7.9990430237
 10
105.9750756404
 20
-8.1078534372
 10
106.3934056691
 20
-8.2331123039
 10
106.8059550337
 20
-8.3742558339
 10
107.2126976763
 20
-8.5313556316
 10
107.6136596549
 20
-8.7043400926
 10
108.0070362402
 20
-8.8924306141
 10
108.392793239
 20
-9.0956952908
 10
108.7709648446
 20
-9.3140660279
 10
109.1398489071
 20
-9.5465599394
 10
109.4994035605
 20
-9.7932406889
 10
109.8496706708
 20
-10.0540446127
 10
110.1890736864
 20
-10.3277978327
 10
110.5175636345
 20
-10.6145587212
 10
110.8351894878
 20
-10.9142689059
 10
111.1405216129
 20
-11.2255793917
 10
111.4335045926
 20
-11.5485424701
 10
111.7141938442
 20
-11.8831058497
 10
111.9813259856
 20
-12.2277636611
 10
112.2348399048
 20
-12.5825614078
 10
112.4747967139
 20
-12.9474535864
 10
112.7001163678
 20
-13.3207978178
 10
112.9107328856
 20
-13.7026322018
 10
113.1067122481
 20
-14.0929186387
 10
113.2871723525
 20
-14.4899004498
 10
113.4520432418
 20
-14.8936078163
 10
113.601394873
 20
-15.3040105569
 10
113.7345550147
 20
-15.7192614498
 10
113.8514506796
 20
-16.139382349
 10
113.9521548549
 20
-16.5643514005
 10
114.0362142714
 20
-16.992255819
 10
114.1035538985
 20
-17.4231088366
 10
114.1542487667
 20
-17.8568972214
 10
114.1880706986
 20
-18.2916684925
 10
114.2049436349
 20
-18.7274270806
 10
114.2049436349
 20
-19.164168555
 10
114.1880706986
 20
-19.599927143
 10
114.1542487667
 20
-20.0346984141
 10
114.1035538985
 20
-20.4684867989
 10
114.0362142714
 20
-20.8993398165
 10
113.9521548549
 20
-21.3272442351
 10
113.8514506796
 20
-21.7522132865
 10
113.7345550147
 20
-22.1723341858
 10
113.601394873
 20
-22.5875850786
 10
113.4520432418
 20
-22.9979878192
 10
113.2871723525
 20
-23.4016951857
 10
113.1067122481
 20
-23.7986769968
 10
112.9107328856
 20
-24.1889634337
 10
112.7001163678
 20
-24.5707978178
 10
112.4747967139
 20
-24.9441420492
 10
112.2348399048
 20
-25.3090342278
 10
111.9813259856
 20
-25.6638319744
 10
111.7141938442
 20
-26.0084897859
 10
111.4335045926
 20
-26.3430531654
 10
111.1405216129
 20
-26.6660162438
 10
110.8351894878
 20
-26.9773267296
 10
110.5175636345
 20
-27.2770369143
 10
110.1890736864
 20
-27.5637978029
 10
109.8496706708
 20
-27.8375510228
 10
109.4994035605
 20
-28.0983549466
 10
109.1398489071
 20
-28.3450356962
 10
108.7709648446
 20
-28.5775296076
 10
108.392793239
 20
-28.7959003448
 10
108.0070362402
 20
-28.9991650214
 10
107.6136596549
 20
-29.187255543
 10
107.2126976763
 20
-29.3602400039
 10
106.8059550337
 20
-29.5173398016
 10
106.3934056691
 20
-29.6584833317
 10
105.9750756404
 20
-29.7837421984
 10
105.5528478505
 20
-29.8925526118
 10
105.126704729
 20
-29.9848404262
 10
104.6966638463
 20
-30.0606797874
 10
104.2646608156
 20
-30.1197293424
 10
103.8313408413
 20
-30.161875307
 10
103.396058719
 20
-30.1872314654
 10
102.9588144487
 20
-30.1957978178
  0
LWPOLYLINE
  5
3D8
100
AcDbEntity
  8
0
100
AcDbPolyline
 62
7
  6
CONTINUOUS
 90
82
 70
0
 10
102.9588144487
 20
7.8042021822
 10
103.396058719
 20
7.8127685346
 10
103.8313408413
 20
7.838124693
 10
104.2646608156
 20
7.8802706576
 10
104.6966638463
 20
7.9393202126
 10
105.126704729
 20
8.0151595738
 10
105.5528478505
 20
8.1074473882
 10
105.9750756404
 20
8.2162578016
 10
106.3934056691
 20
8.3415166683
 10
106.8059550337
 20
8.4826601984
 10
107.2126976763
 20
8.6397599961
 10
107.6136596549
 20
8.812744457
 10
108.0070362402
 20
9.0008349786
 10
108.392793239
 20
9.2040996552
 10
108.7709648446
 20
9.4224703924
 10
109.1398489071
 20
9.6549643038
 10
109.4994035605
 20
9.9016450534
 10
109.8496706708
 20
10.1624489772
 10
110.1890736864
 20
10.4362021971
 10
110.5175636345
 20
10.7229630857
 10
110.8351894878
 20
11.0226732704
 10
111.1405216129
 20
11.3339837562
 10
111.4335045926
 20
11.6569468346
 10
111.7141938442
 20
11.9915102141
 10
111.9813259856
 20
12.3361680256
 10
112.2348399048
 20
12.6909657722
 10
112.4747967139
 20
13.0558579508
 10
112.7001163678
 20
13.4292021822
 10
112.9107328856
 20
13.8110365663
 10
113.1067122481
 20
14.2013230032
 10
113.2871723525
 20
14.5983048143
 10
113.4520432418
 20
15.0020121808
 10
113.601394873
 20
15.4124149214
 10
113.7345550147
 20
15.8276658142
 10
113.8514506796
 20
16.2477867135
 10
113.9521548549
 20
16.6727557649
 10
114.0362142714
 20
17.1006601835
 10
114.1035538985
 20
17.5315132011
 10
114.1542487667
 20
17.9653015859
 10
114.1880706986
 20
18.400072857
 10
114.2049436349
 20
18.835831445
 10
114.2049436349
 20
19.2725729194
 10
114.1880706986
 20
19.7083315075
 10
114.1542487667
 20
20.1431027786
 10
114.1035538985
 20
20.5768911634
 10
114.0362142714
 20
21.007744181
 10
113.9521548549
 20
21.4356485995
 10
113.8514506796
 20
21.860617651
 10
113.7345550147
 20
22.2807385502
 10
113.601394873
 20
22.6959894431
 10
113.4520432418
 20
23.1063921837
 10
113.2871723525
 20
23.5100995502
 10
113.1067122481
 20
23.9070813613
 10
112.9107328856
 20
24.2973677982
 10
112.7001163678
 20
24.6792021822
 10
112.4747967139
 20
25.0525464136
 10
112.2348399048
 20
25.4174385922
 10
111.9813259856
 20
25.7722363389
 10
111.7141938442
 20
26.1168941503
 10
111.4335045926
 20
26.4514575299
 10
111.1405216129
 20
26.7744206083
 10
110.8351894878
 20
27.0857310941
 10
110.5175636345
 20
27.3854412788
 10
110.1890736864
 20
27.6722021673
 10
109.8496706708
 20
27.9459553873
 10
109.4994035605
 20
28.2067593111
 10
109.1398489071
 20
28.4534400606
 10
108.7709648446
 20
28.6859339721
 10
108.392793239
 20
28.9043047092
 10
108.0070362402
 20
29.1075693859
 10
107.6136596549
 20
29.2956599074
 10
107.2126976763
 20
29.4686443684
 10
106.8059550337
 20
29.6257441661
 10
106.3934056691
 20
29.7668876961
 10
105.9750756404
 20
29.8921465628
 10
105.5528478505
 20
30.0009569763
 10
105.126704729
 20
30.0932447907
 10
104.6966638463
 20
30.1690841518
 10
104.2646608156
 20
30.2281337068
 10
103.8313408413
 20
30.2702796714
 10
103.396058719
 20
30.2956358299
 10
102.9588144487
 20
30.3042021822
  0
LWPOLYLINE
  5
3D9
100
AcDbEntity
  8
0
100
AcDbPolyline
 62
7
  6
CONTINUOUS
 90
85
 70
0
 10
102.9378715609
 20
7.5542021822
 10
103.3688022109
 20
7.5623376179
 10
103.7979340005
 20
7.5864408133
 10
104.2252669297
 20
7.6265117685
 10
104.651393078
 20
7.682651097
 10
105.075720366
 20
7.7547581852
 10
105.4964725548
 20
7.8425311921
 10
105.9136346581
 20
7.946035787
 10
106.3272216624
 20
8.0652063006
 10
106.7355022878
 20
8.1995438837
 10
107.1384542907
 20
8.3491121146
 10
107.5360999147
 20
8.5138474151
 10
107.926774611
 20
8.6930602014
 10
108.3104491582
 20
8.886811161
 10
108.6871527776
 20
9.0950396065
 10
109.0553085837
 20
9.3168738911
 10
109.4148807452
 20
9.5523710488
 10
109.7659050933
 20
9.8014740456
 10
110.1069122364
 20
10.0631401339
 10
110.4378601836
 20
10.3374219761
 10
110.7587909257
 20
10.6242669097
 10
111.068361043
 20
10.9224741986
 10
111.3665229135
 20
11.2320914722
 10
111.6533241592
 20
11.553071101
 10
111.927564227
 20
11.8840694609
 10
112.1891904622
 20
12.2251285489
 10
112.4382555195
 20
12.5762063679
 10
112.6737168098
 20
12.9358333023
 10
112.895517308
 20
13.3040451888
 10
113.1037140393
 20
13.6808061908
 10
113.2974354897
 20
14.0645391824
 10
113.476620981
 20
14.4552733893
 10
113.6413311915
 20
14.8529795859
 10
113.7908766425
 20
15.2559929698
 10
113.9251937653
 20
15.6643357877
 10
114.0443461286
 20
16.0779857929
 10
114.1478349592
 20
16.4952114417
 10
114.2355945979
 20
16.9160277229
 10
114.3076907039
 20
17.3404196478
 10
114.3638214821
 20
17.766610707
 10
114.4039200082
 20
18.1946084425
 10
114.4280532065
 20
18.6244053124
 10
114.4361200552
 20
19.0542021822
 10
114.4280532065
 20
19.4839990521
 10
114.4039200082
 20
19.913795922
 10
114.3638214821
 20
20.3417936574
 10
114.3076907039
 20
20.7679847167
 10
114.2355945979
 20
21.1923766416
 10
114.1478349592
 20
21.6131929227
 10
114.0443461286
 20
22.0304185716
 10
113.9251937653
 20
22.4440685767
 10
113.7908766425
 20
22.8524113947
 10
113.6413311915
 20
23.2554247785
 10
113.476620981
 20
23.6531309752
 10
113.2974354897
 20
24.0438651821
 10
113.1037140393
 20
24.4275981737
 10
112.895517308
 20
24.8043591756
 10
112.6737168098
 20
25.1725710622
 10
112.4382555195
 20
25.5321979966
 10
112.1891904622
 20
25.8832758156
 10
111.927564227
 20
26.2243349036
 10
111.6533241592
 20
26.5553332635
 10
111.3665229135
 20
26.8763128923
 10
111.068361043
 20
27.1859301659
 10
110.7587909257
 20
27.4841374548
 10
110.4378601836
 20
27.7709823884
 10
110.1069122364
 20
28.0452642306
 10
109.7659050933
 20
28.3069303188
 10
109.4148807452
 20
28.5560333157
 10
109.0553085837
 20
28.7915304734
 10
108.6871527776
 20
29.013364758
 10
108.3104491582
 20
29.2215932035
 10
107.926774611
 20
29.4153441631
 10
107.5360999147
 20
29.5945569494
 10
107.1384542907
 20
29.7592922499
 10
106.7355022878
 20
29.9088604808
 10
106.3272216624
 20
30.0431980639
 10
105.9136346581
 20
30.1623685774
 10
105.4964725548
 20
30.2658731723
 10
105.075720366
 20
30.3536461792
 10
104.651393078
 20
30.4257532675
 10
104.2252669297
 20
30.481892596
 10
103.7979340005
 20
30.5219635511
 10
103.3688022109
 20
30.5460667465
 10
102.9378715609
 20
30.5542021822
  0
LWPOLYLINE
  5
3DA
100
AcDbEntity
  8
0
100
AcDbPolyline
 62
7
  6
CONTINUOUS
 90
82
 70
0
 10
102.9465977642
 20
8.2083473707
 10
103.368134464
 20
8.2166059852
 10
103.787779504
 20
8.2410512486
 10
104.2055328843
 20
8.2816831609
 10
104.6220166309
 20
8.3386114187
 10
105.0366087178
 20
8.4117263254
 10
105.4474430666
 20
8.5006987908
 10
105.8545027384
 20
8.6056002971
 10
106.2578046721
 20
8.7263593622
 10
106.6555336064
 20
8.8624324497
 10
107.0476644195
 20
9.0138885916
 10
107.4342222332
 20
9.1806587559
 10
107.8134671515
 20
9.3619923104
 10
108.1853662094
 20
9.5579549034
 10
108.5499523719
 20
9.7684808866
 10
108.9055846372
 20
9.9926226828
 10
109.2522226432
 20
10.230441669
 10
109.589906752
 20
10.4818764682
 10
109.9171170479
 20
10.745795373
 10
110.2338063176
 20
11.0222546585
 10
110.5400217745
 20
11.3111980495
 10
110.8343851432
 20
11.6113250123
 10
111.1168429975
 20
11.9226859596
 10
111.3874487636
 20
12.2452304787
 10
111.6449844455
 20
12.5775067971
 10
111.8893911264
 20
12.9195587836
 10
112.1207277231
 20
13.2713425695
 10
112.33795299
 20
13.6312747765
 10
112.5410033164
 20
13.9993921357
 10
112.729942313
 20
14.3756579161
 10
112.9039195657
 20
14.758378546
 10
113.0628676304
 20
15.1475831222
 10
113.2068539511
 20
15.543242548
 10
113.3352304456
 20
15.9435759608
 10
113.4479267487
 20
16.3486044298
 10
113.5450132255
 20
16.7583068859
 10
113.6260528901
 20
17.170839259
 10
113.6909734073
 20
17.5862143056
 10
113.7398471122
 20
18.0044192692
 10
113.7724540245
 20
18.4235718098
 10
113.7887208172
 20
18.8436761991
 10
113.7887208172
 20
19.2647281654
 10
113.7724540245
 20
19.6848325546
 10
113.7398471122
 20
20.1039850953
 10
113.6909734073
 20
20.5221900589
 10
113.6260528901
 20
20.9375651055
 10
113.5450132255
 20
21.3500974786
 10
113.4479267487
 20
21.7597999347
 10
113.3352304456
 20
22.1648284037
 10
113.2068539511
 20
22.5651618165
 10
113.0628676304
 20
22.9608212422
 10
112.9039195657
 20
23.3500258185
 10
112.729942313
 20
23.7327464484
 10
112.5410033164
 20
24.1090122288
 10
112.33795299
 20
24.477129588
 10
112.1207277231
 20
24.837061795
 10
111.8893911264
 20
25.1888455809
 10
111.6449844455
 20
25.5308975673
 10
111.3874487636
 20
25.8631738858
 10
111.1168429975
 20
26.1857184049
 10
110.8343851432
 20
26.4970793522
 10
110.5400217745
 20
26.797206315
 10
110.2338063176
 20
27.086149706
 10
109.9171170479
 20
27.3626089915
 10
109.589906752
 20
27.6265278962
 10
109.2522226432
 20
27.8779626955
 10
108.9055846372
 20
28.1157816817
 10
108.5499523719
 20
28.3399234779
 10
108.1853662094
 20
28.5504494611
 10
107.8134671515
 20
28.7464120541
 10
107.4342222332
 20
28.9277456086
 10
107.0476644195
 20
29.0945157729
 10
106.6555336064
 20
29.2459719148
 10
106.2578046721
 20
29.3820450023
 10
105.8545027384
 20
29.5028040674
 10
105.4474430666
 20
29.6077055737
 10
105.0366087178
 20
29.6966780391
 10
104.6220166309
 20
29.7697929458
 10
104.2055328843
 20
29.8267212036
 10
103.787779504
 20
29.8673531158
 10
103.368134464
 20
29.8917983793
 10
102.9465977642
 20
29.9000569938
  0
LINE
  5
3DB
100
AcDbEntity
  8
RACCORDO
100
AcDbLine
 62
7
  6
CONTINUOUS
 10
132.938569886
 20
-50.9457978178
 11
132.938569886
 21
51.0542021822
  0
LINE
  5
3DC
100
AcDbEntity
  8
RACCORDO
100
AcDbLine
 62
7
  6
CONTINUOUS
 10
134.938569886
 20
51.0542021822
 11
134.938569886
 21
-50.9457978178
  0
LINE
  5
3DD
100
AcDbEntity
  8
RACCORDO
100
AcDbLine
 62
7
  6
CONTINUOUS
 10
139.938569886
 20
48.0542021822
 11
139.938569886
 21
-47.9457978178
  0
LWPOLYLINE
  5
3DE
100
AcDbEntity
  8
0
100
AcDbPolyline
 62
7
  6
CONTINUOUS
 90
80
 70
0
 10
102.511853639
 20
30.5454454665
 10
102.0668985807
 20
30.5195258379
 10
101.6239492736
 20
30.4764432963
 10
101.1823461755
 20
30.4160815289
 10
100.7427488287
 20
30.3385568487
 10
100.3071358601
 20
30.2442181939
 10
99.8755252304
 20
30.1329897713
 10
99.4478989789
 20
30.0049473742
 10
99.0261818507
 20
29.8606673213
 10
98.6104004826
 20
29.700076417
 10
98.2005282379
 20
29.5232478569
 10
97.7984099507
 20
29.330977546
 10
97.4040805741
 20
29.1231958765
 10
97.0175051551
 20
28.8999724563
 10
96.640423669
 20
28.6623120135
 10
96.2728789122
 20
28.4101494695
 10
95.9148280883
 20
28.143549903
 10
95.5678827834
 20
27.8637132781
 10
95.2320930587
 20
27.5705799254
 10
94.9074088531
 20
27.2642095144
 10
94.5952915697
 20
26.9459810177
 10
94.295797857
 20
26.615840982
 10
94.0088710666
 20
26.2738428607
 10
93.7358026553
 20
25.9215259868
 10
93.4766550935
 20
25.5588438458
 10
93.2313659108
 20
25.1858429521
 10
93.0010391536
 20
24.8042021822
 10
92.7857422687
 20
24.4138825896
 10
92.5854078093
 20
24.0149231208
 10
92.4009374803
 20
23.6091194917
 10
92.2324027935
 20
23.1964408504
 10
92.0797322371
 20
22.7769180488
 10
91.9436129811
 20
22.3524393584
 10
91.8241196349
 20
21.9229824392
 10
91.721177589
 20
21.488569631
 10
91.6352501854
 20
21.0511562254
 10
91.5664141222
 20
20.6107286963
 10
91.5145927013
 20
20.1673005696
 10
91.480019171
 20
19.7228677147
 10
91.4627712805
 20
19.2774256025
 10
91.4627712805
 20
18.830978762
 10
91.480019171
 20
18.3855366498
 10
91.5145927013
 20
17.9411037949
 10
91.5664141222
 20
17.4976756682
 10
91.6352501854
 20
17.0572481391
 10
91.721177589
 20
16.6198347334
 10
91.8241196349
 20
16.1854219253
 10
91.9436129811
 20
15.7559650061
 10
92.0797322371
 20
15.3314863156
 10
92.2324027935
 20
14.9119635141
 10
92.4009374803
 20
14.4992848728
 10
92.5854078093
 20
14.0934812437
 10
92.7857422687
 20
13.6945217748
 10
93.0010391536
 20
13.3042021822
 10
93.2313659108
 20
12.9225614124
 10
93.4766550935
 20
12.5495605187
 10
93.7358026553
 20
12.1868783777
 10
94.0088710666
 20
11.8345615037
 10
94.295797857
 20
11.4925633824
 10
94.5952915697
 20
11.1624233467
 10
94.9074088531
 20
10.8441948501
 10
95.2320930587
 20
10.5378244391
 10
95.5678827834
 20
10.2446910864
 10
95.9148280883
 20
9.9648544615
 10
96.2728789122
 20
9.698254895
 10
96.640423669
 20
9.446092351
 10
97.0175051551
 20
9.2084319082
 10
97.4040805741
 20
8.985208488
 10
97.7984099507
 20
8.7774268185
 10
98.2005282379
 20
8.5851565076
 10
98.6104004826
 20
8.4083279475
 10
99.0261818507
 20
8.2477370432
 10
99.4478989789
 20
8.1034569903
 10
99.8755252304
 20
7.9754145932
 10
100.3071358601
 20
7.8641861706
 10
100.7427488287
 20
7.7698475158
 10
101.1823461755
 20
7.6923228355
 10
101.6239492736
 20
7.6319610682
 10
102.0668985807
 20
7.5888785266
 10
102.511853639
 20
7.562958898
  0
LWPOLYLINE
  5
3DF
100
AcDbEntity
  8
0
100
AcDbPolyline
 62
7
  6
CONTINUOUS
 90
82
 70
0
 10
102.9465977642
 20
29.9000569938
 10
102.5250610644
 20
29.8917983793
 10
102.1054160243
 20
29.8673531158
 10
101.687662644
 20
29.8267212036
 10
101.2711788974
 20
29.7697929458
 10
100.8565868105
 20
29.6966780391
 10
100.4457524617
 20
29.6077055737
 10
100.03869279
 20
29.5028040674
 10
99.6353908563
 20
29.3820450023
 10
99.237661922
 20
29.2459719148
 10
98.8455311088
 20
29.0945157729
 10
98.4589732951
 20
28.9277456086
 10
98.0797283768
 20
28.7464120541
 10
97.7078293189
 20
28.5504494611
 10
97.3432431564
 20
28.3399234779
 10
96.9876108912
 20
28.1157816817
 10
96.6409728852
 20
27.8779626955
 10
96.3032887764
 20
27.6265278962
 10
95.9760784804
 20
27.3626089915
 10
95.6593892107
 20
27.086149706
 10
95.3531737539
 20
26.797206315
 10
95.0588103851
 20
26.4970793522
 10
94.7763525309
 20
26.1857184049
 10
94.5057467647
 20
25.8631738858
 10
94.2482110828
 20
25.5308975673
 10
94.0038044019
 20
25.1888455809
 10
93.7724678052
 20
24.837061795
 10
93.5552425384
 20
24.477129588
 10
93.3521922119
 20
24.1090122288
 10
93.1632532153
 20
23.7327464484
 10
92.9892759626
 20
23.3500258185
 10
92.830327898
 20
22.9608212422
 10
92.6863415772
 20
22.5651618165
 10
92.5579650827
 20
22.1648284037
 10
92.4452687797
 20
21.7597999347
 10
92.3481823028
 20
21.3500974786
 10
92.2671426382
 20
20.9375651055
 10
92.202222121
 20
20.5221900589
 10
92.1533484161
 20
20.1039850953
 10
92.1207415039
 20
19.6848325546
 10
92.1044747112
 20
19.2647281654
 10
92.1044747112
 20
18.8436761991
 10
92.1207415039
 20
18.4235718098
 10
92.1533484161
 20
18.0044192692
 10
92.202222121
 20
17.5862143056
 10
92.2671426382
 20
17.170839259
 10
92.3481823028
 20
16.7583068859
 10
92.4452687797
 20
16.3486044298
 10
92.5579650827
 20
15.9435759608
 10
92.6863415772
 20
15.543242548
 10
92.830327898
 20
15.1475831222
 10
92.9892759626
 20
14.758378546
 10
93.1632532153
 20
14.3756579161
 10
93.3521922119
 20
13.9993921357
 10
93.5552425384
 20
13.6312747765
 10
93.7724678052
 20
13.2713425695
 10
94.0038044019
 20
12.9195587836
 10
94.2482110828
 20
12.5775067971
 10
94.5057467647
 20
12.2452304787
 10
94.7763525309
 20
11.9226859596
 10
95.0588103851
 20
11.6113250123
 10
95.3531737539
 20
11.3111980495
 10
95.6593892107
 20
11.0222546585
 10
95.9760784804
 20
10.745795373
 10
96.3032887764
 20
10.4818764682
 10
96.6409728852
 20
10.230441669
 10
96.9876108912
 20
9.9926226828
 10
97.3432431564
 20
9.7684808866
 10
97.7078293189
 20
9.5579549034
 10
98.0797283768
 20
9.3619923104
 10
98.4589732951
 20
9.1806587559
 10
98.8455311088
 20
9.0138885916
 10
99.237661922
 20
8.8624324497
 10
99.6353908563
 20
8.7263593622
 10
100.03869279
 20
8.6056002971
 10
100.4457524617
 20
8.5006987908
 10
100.8565868105
 20
8.4117263254
 10
101.2711788974
 20
8.3386114187
 10
101.687662644
 20
8.2816831609
 10
102.1054160243
 20
8.2410512486
 10
102.5250610644
 20
8.2166059852
 10
102.9465977642
 20
8.2083473707
  0
LWPOLYLINE
  5
3E0
100
AcDbEntity
  8
0
100
AcDbPolyline
 62
7
  6
CONTINUOUS
 90
82
 70
0
 10
102.9588144487
 20
30.3042021822
 10
102.5215701784
 20
30.2956358299
 10
102.0862880561
 20
30.2702796714
 10
101.6529680818
 20
30.2281337068
 10
101.220965051
 20
30.1690841518
 10
100.7909241683
 20
30.0932447907
 10
100.3647810468
 20
30.0009569763
 10
99.9425532569
 20
29.8921465628
 10
99.5242232282
 20
29.7668876961
 10
99.1116738637
 20
29.6257441661
 10
98.704931221
 20
29.4686443684
 10
98.3039692424
 20
29.2956599074
 10
97.9105926572
 20
29.1075693859
 10
97.5248356583
 20
28.9043047092
 10
97.1466640528
 20
28.6859339721
 10
96.7777799903
 20
28.4534400606
 10
96.4182253369
 20
28.2067593111
 10
96.0679582265
 20
27.9459553873
 10
95.7285552109
 20
27.6722021673
 10
95.4000652629
 20
27.3854412788
 10
95.0824394095
 20
27.0857310941
 10
94.7771072844
 20
26.7744206083
 10
94.4841243047
 20
26.4514575299
 10
94.2034350532
 20
26.1168941503
 10
93.9363029117
 20
25.7722363389
 10
93.6827889925
 20
25.4174385922
 10
93.4428321834
 20
25.0525464136
 10
93.2175125296
 20
24.6792021822
 10
93.0068960118
 20
24.2973677982
 10
92.8109166493
 20
23.9070813613
 10
92.6304565448
 20
23.5100995502
 10
92.4655856555
 20
23.1063921837
 10
92.3162340243
 20
22.6959894431
 10
92.1830738826
 20
22.2807385502
 10
92.0661782178
 20
21.860617651
 10
91.9654740424
 20
21.4356485995
 10
91.8814146259
 20
21.007744181
 10
91.8140749989
 20
20.5768911634
 10
91.7633801306
 20
20.1431027786
 10
91.7295581988
 20
19.7083315075
 10
91.7126852624
 20
19.2725729194
 10
91.7126852624
 20
18.835831445
 10
91.7295581988
 20
18.400072857
 10
91.7633801306
 20
17.9653015859
 10
91.8140749989
 20
17.5315132011
 10
91.8814146259
 20
17.1006601835
 10
91.9654740424
 20
16.6727557649
 10
92.0661782178
 20
16.2477867135
 10
92.1830738826
 20
15.8276658142
 10
92.3162340243
 20
15.4124149214
 10
92.4655856555
 20
15.0020121808
 10
92.6304565448
 20
14.5983048143
 10
92.8109166493
 20
14.2013230032
 10
93.0068960118
 20
13.8110365663
 10
93.2175125296
 20
13.4292021822
 10
93.4428321834
 20
13.0558579508
 10
93.6827889925
 20
12.6909657722
 10
93.9363029117
 20
12.3361680256
 10
94.2034350532
 20
11.9915102141
 10
94.4841243047
 20
11.6569468346
 10
94.7771072844
 20
11.3339837562
 10
95.0824394095
 20
11.0226732704
 10
95.4000652629
 20
10.7229630857
 10
95.7285552109
 20
10.4362021971
 10
96.0679582265
 20
10.1624489772
 10
96.4182253369
 20
9.9016450534
 10
96.7777799903
 20
9.6549643038
 10
97.1466640528
 20
9.4224703924
 10
97.5248356583
 20
9.2040996552
 10
97.9105926572
 20
9.0008349786
 10
98.3039692424
 20
8.812744457
 10
98.704931221
 20
8.6397599961
 10
99.1116738637
 20
8.4826601984
 10
99.5242232282
 20
8.3415166683
 10
99.9425532569
 20
8.2162578016
 10
100.3647810468
 20
8.1074473882
 10
100.7909241683
 20
8.0151595738
 10
101.220965051
 20
7.9393202126
 10
101.6529680818
 20
7.8802706576
 10
102.0862880561
 20
7.838124693
 10
102.5215701784
 20
7.8127685346
 10
102.9588144487
 20
7.8042021822
  0
LWPOLYLINE
  5
3E1
100
AcDbEntity
  8
0
100
AcDbPolyline
 62
7
  6
CONTINUOUS
 90
85
 70
0
 10
102.9378795965
 20
30.5537920332
 10
102.5069409109
 20
30.5460667465
 10
102.0778091213
 20
30.5219635511
 10
101.6504761922
 20
30.481892596
 10
101.2243500438
 20
30.4257532675
 10
100.8000227559
 20
30.3536461792
 10
100.3792705671
 20
30.2658731723
 10
99.9621084638
 20
30.1623685774
 10
99.5485214595
 20
30.0431980639
 10
99.1402408341
 20
29.9088604808
 10
98.7372888312
 20
29.7592922499
 10
98.3396432072
 20
29.5945569494
 10
97.9489685109
 20
29.4153441631
 10
97.5652939637
 20
29.2215932035
 10
97.1885903443
 20
29.013364758
 10
96.8204345382
 20
28.7915304734
 10
96.4608623767
 20
28.5560333157
 10
96.1098380286
 20
28.3069303188
 10
95.7688308855
 20
28.0452642306
 10
95.4378829383
 20
27.7709823884
 10
95.1169521962
 20
27.4841374548
 10
94.8073820789
 20
27.1859301659
 10
94.5092202084
 20
26.8763128923
 10
94.2224189627
 20
26.5553332635
 10
93.9481788949
 20
26.2243349036
 10
93.6865526597
 20
25.8832758156
 10
93.4374876024
 20
25.5321979966
 10
93.2020263121
 20
25.1725710622
 10
92.9802258139
 20
24.8043591756
 10
92.7720290826
 20
24.4275981737
 10
92.5783076322
 20
24.0438651821
 10
92.3991221409
 20
23.6531309752
 10
92.2344119304
 20
23.2554247785
 10
92.0848664794
 20
22.8524113947
 10
91.9505493566
 20
22.4440685767
 10
91.8313969933
 20
22.0304185716
 10
91.7279081626
 20
21.6131929227
 10
91.640148524
 20
21.1923766416
 10
91.568052418
 20
20.7679847167
 10
91.5119216398
 20
20.3417936574
 10
91.4718231137
 20
19.913795922
 10
91.4476899154
 20
19.4839990521
 10
91.4396230666
 20
19.0542021822
 10
91.4476899154
 20
18.6244053124
 10
91.4718231137
 20
18.1946084425
 10
91.5119216398
 20
17.766610707
 10
91.568052418
 20
17.3404196478
 10
91.640148524
 20
16.9160277229
 10
91.7279081626
 20
16.4952114417
 10
91.8313969933
 20
16.0779857929
 10
91.9505493566
 20
15.6643357877
 10
92.0848664794
 20
15.2559929698
 10
92.2344119304
 20
14.8529795859
 10
92.3991221409
 20
14.4552733893
 10
92.5783076322
 20
14.0645391824
 10
92.7720290826
 20
13.6808061908
 10
92.9802258139
 20
13.3040451888
 10
93.2020263121
 20
12.9358333023
 10
93.4374876024
 20
12.5762063679
 10
93.6865526597
 20
12.2251285489
 10
93.9481788949
 20
11.8840694609
 10
94.2224189627
 20
11.553071101
 10
94.5092202084
 20
11.2320914722
 10
94.8073820789
 20
10.9224741986
 10
95.1169521962
 20
10.6242669097
 10
95.4378829383
 20
10.3374219761
 10
95.7688308855
 20
10.0631401339
 10
96.1098380286
 20
9.8014740456
 10
96.4608623767
 20
9.5523710488
 10
96.8204345382
 20
9.3168738911
 10
97.1885903443
 20
9.0950396065
 10
97.5652939637
 20
8.886811161
 10
97.9489685109
 20
8.6930602014
 10
98.3396432072
 20
8.5138474151
 10
98.7372888312
 20
8.3491121146
 10
99.1402408341
 20
8.1995438837
 10
99.5485214595
 20
8.0652063006
 10
99.9621084638
 20
7.946035787
 10
100.3792705671
 20
7.8425311921
 10
100.8000227559
 20
7.7547581852
 10
101.2243500438
 20
7.682651097
 10
101.6504761922
 20
7.6265117685
 10
102.0778091213
 20
7.5864408133
 10
102.5069409109
 20
7.5623376179
 10
102.9378715609
 20
7.5542021822
  0
LINE
  5
3E2
100
AcDbEntity
  8
RACCORDO
100
AcDbLine
 62
250
  6
CONTINUOUS
 10
132.938569886
 20
36.0545829443
 11
86.938569886
 21
35.2516499576
  0
LINE
  5
3E3
100
AcDbEntity
  8
RACCORDO
100
AcDbLine
 62
7
  6
CONTINUOUS
 10
132.938569886
 20
38.5542021822
 11
86.938569886
 21
37.7512691955
  0
LINE
  5
3E4
100
AcDbEntity
  8
RACCORDO
100
AcDbLine
 62
250
  6
CONTINUOUS
 10
139.938569886
 20
45.5542021822
 11
132.938569886
 21
45.5542021822
  0
LINE
  5
3E5
100
AcDbEntity
  8
RACCORDO
100
AcDbLine
 62
7
  6
CONTINUOUS
 10
139.938569886
 20
48.0542021822
 11
134.938569886
 21
48.0542021822
  0
LINE
  5
3E6
100
AcDbEntity
  8
RACCORDO
100
AcDbLine
 62
7
  6
CONTINUOUS
 10
134.938569886
 20
51.0542021822
 11
132.938569886
 21
51.0542021822
  0
LWPOLYLINE
  5
3E7
100
AcDbEntity
  8
0
100
AcDbPolyline
 62
7
  6
CONTINUOUS
 90
8
 70
0
 43
0.3500000006
 10
111.2957105713
 20
59.8042008362
 10
112.1528575745
 20
59.8042008362
 10
112.5814265442
 20
60.2327698059
 10
112.5814265442
 20
61.0899168091
 10
112.1528575745
 20
61.5184857788
 10
111.2957105713
 20
61.5184857788
 10
111.2957105713
 20
62.8042017517
 10
112.5814265442
 20
62.8042017517
  0
LWPOLYLINE
  5
3E8
100
AcDbEntity
  8
0
100
AcDbPolyline
 62
7
  6
CONTINUOUS
 90
6
 70
0
 43
0.3500000006
 10
113.4385735474
 20
59.8042008362
 10
114.5099959717
 20
59.8042008362
 10
114.7242804565
 20
60.018485321
 10
114.7242804565
 20
61.0899168091
 10
114.2957114868
 20
61.5184857788
 10
113.8671425171
 20
61.5184857788
  0
ARC
  5
3E9
100
AcDbEntity
  8
RACCORDO
100
AcDbCircle
 62
7
  6
CONTINUOUS
 10
57.534028775
 20
45.5542021822
 40
5.5
100
AcDbArc
 50
0.0
 51
90.0
  0
ARC
  5
3EA
100
AcDbEntity
  8
RACCORDO
100
AcDbCircle
 62
7
  6
CONTINUOUS
 10
57.534028775
 20
-45.4457978178
 40
5.5
100
AcDbArc
 50
270.0
 51
360.0
  0
ARC
  5
3EB
100
AcDbEntity
  8
RACCORDO
100
AcDbCircle
 62
7
  6
CONTINUOUS
 10
-57.465971225
 20
-45.4457978178
 40
5.5
100
AcDbArc
 50
180.0
 51
270.0
  0
ARC
  5
3EC
100
AcDbEntity
  8
RACCORDO
100
AcDbCircle
 62
7
  6
CONTINUOUS
 10
-57.465971225
 20
45.5542021822
 40
5.5
100
AcDbArc
 50
90.0
 51
180.0
  0
ARC
  5
3ED
100
AcDbEntity
  8
0
100
AcDbCircle
 62
7
  6
CONTINUOUS
 10
41.784028775
 20
0.0542021822
 40
3.9
100
AcDbArc
 50
14.8571655449
 51
345.1428344551
  0
ARC
  5
3EE
100
AcDbEntity
  8
0
100
AcDbCircle
 62
7
  6
CONTINUOUS
 10
-41.715971225
 20
0.0542021822
 40
3.9
100
AcDbArc
 50
194.8571655449
 51
165.1428344551
  0
ARC
  5
3EF
100
AcDbEntity
  8
ASSI
100
AcDbCircle
 62
7
  6
CONTINUOUS
 10
-6.650561225
 20
-26.9458098178
 40
2.5500000352
100
AcDbArc
 50
84.2608296022
 51
275.7391703978
  0
ARC
  5
3F0
100
AcDbEntity
  8
ASSI
100
AcDbCircle
 62
7
  6
CONTINUOUS
 10
-10.985561225
 20
-26.9458098178
 40
2.5500000352
100
AcDbArc
 50
84.2608296022
 51
275.7391703978
  0
ARC
  5
3F1
100
AcDbEntity
  8
RACCORDO
100
AcDbCircle
 62
7
  6
CONTINUOUS
 10
57.534028775
 20
45.5542021822
 40
2.5
100
AcDbArc
 50
0.0
 51
90.0
  0
ARC
  5
3F2
100
AcDbEntity
  8
RACCORDO
100
AcDbCircle
 62
7
  6
CONTINUOUS
 10
57.534028775
 20
-45.4457978178
 40
2.5
100
AcDbArc
 50
270.0
 51
360.0
  0
ARC
  5
3F3
100
AcDbEntity
  8
RACCORDO
100
AcDbCircle
 62
7
  6
CONTINUOUS
 10
-57.465971225
 20
-45.4457978178
 40
2.5
100
AcDbArc
 50
180.0
 51
270.0
  0
ARC
  5
3F4
100
AcDbEntity
  8
RACCORDO
100
AcDbCircle
 62
7
  6
CONTINUOUS
 10
-57.465971225
 20
45.5542021822
 40
2.5
100
AcDbArc
 50
90.0
 51
180.0
  0
ARC
  5
3F5
100
AcDbEntity
  8
ASSI
100
AcDbCircle
 62
7
  6
CONTINUOUS
 10
-27.965971225
 20
-26.9457978178
 40
2.0240299518
100
AcDbArc
 50
292.0885295559
 51
273.4298972006
  0
CIRCLE
  5
3F6
100
AcDbEntity
  8
0
100
AcDbCircle
 62
7
  6
CONTINUOUS
 10
41.784028775
 20
0.0542021822
 40
1.9
  0
CIRCLE
  5
3F7
100
AcDbEntity
  8
0
100
AcDbCircle
 62
7
  6
CONTINUOUS
 10
-41.715971225
 20
0.0542021822
 40
1.9
  0
ARC
  5
3F8
100
AcDbEntity
  8
ASSI
100
AcDbCircle
 62
7
  6
CONTINUOUS
 10
-28.027190225
 20
-30.7613548178
 40
1.8043863978
100
AcDbArc
 50
47.231266101
 51
84.201067325
  0
ARC
  5
3F9
100
AcDbEntity
  8
ASSI
100
AcDbCircle
 62
7
  6
CONTINUOUS
 10
-6.650561225
 20
-26.9458098178
 40
1.7850001745
100
AcDbArc
 50
81.7867901066
 51
167.6263761784
  0
ARC
  5
3FA
100
AcDbEntity
  8
ASSI
100
AcDbCircle
 62
7
  6
CONTINUOUS
 10
-10.985561225
 20
-26.9458098178
 40
1.7850001745
100
AcDbArc
 50
81.7867901066
 51
278.2132098934
  0
ARC
  5
3FB
100
AcDbEntity
  8
ASSI
100
AcDbCircle
 62
7
  6
CONTINUOUS
 10
-6.650561225
 20
-26.9458098178
 40
1.7849997292
100
AcDbArc
 50
192.373627023
 51
278.2132119287
  0
ARC
  5
3FC
100
AcDbEntity
  8
ASSI
100
AcDbCircle
 62
7
  6
CONTINUOUS
 10
-27.885185225
 20
-30.4690848178
 40
1.7827319001
100
AcDbArc
 50
45.4349102329
 51
67.565879533
  0
CIRCLE
  5
3FD
100
AcDbEntity
  8
ASSI
100
AcDbCircle
 62
7
  6
CONTINUOUS
 10
-27.965971225
 20
-26.9457978178
 40
1.700044
  0
CIRCLE
  5
3FE
100
AcDbEntity
  8
0
100
AcDbCircle
 62
7
  6
CONTINUOUS
 10
41.784028775
 20
0.0542021822
 40
1.55
  0
CIRCLE
  5
3FF
100
AcDbEntity
  8
0
100
AcDbCircle
 62
7
  6
CONTINUOUS
 10
-41.715971225
 20
0.0542021822
 40
1.55
  0
ARC
  5
400
100
AcDbEntity
  8
ASSI
100
AcDbCircle
 62
7
  6
CONTINUOUS
 10
-27.965971225
 20
-26.9457978178
 40
1.5204522959
100
AcDbArc
 50
134.9002633258
 51
240.6958764731
  0
ARC
  5
401
100
AcDbEntity
  8
ASSI
100
AcDbCircle
 62
7
  6
CONTINUOUS
 10
-27.965971225
 20
-26.9457978178
 40
1.5204520975
100
AcDbArc
 50
299.3041235269
 51
44.995761068
  0
ARC
  5
402
100
AcDbEntity
  8
ASSI
100
AcDbCircle
 62
7
  6
CONTINUOUS
 10
-27.965971225
 20
-26.9457978178
 40
1.2181566122
100
AcDbArc
 50
299.3041277351
 51
31.9732965843
  0
ARC
  5
403
100
AcDbEntity
  8
ASSI
100
AcDbCircle
 62
7
  6
CONTINUOUS
 10
-27.965971225
 20
-26.9457978178
 40
1.2181564327
100
AcDbArc
 50
148.0267046423
 51
240.6958722649
  0
ELLIPSE
  5
404
100
AcDbEntity
  8
RACCORDO
100
AcDbEllipse
 62
7
  6
CONTINUOUS
 10
48.6209994436
 20
36.6411728508
 30
0.0
 11
-1.4146443783
 21
-1.4146443783
 31
0.0
 40
0.9996954599
 41
2.3563467834
 42
3.9268385237
  0
ELLIPSE
  5
405
100
AcDbEntity
  8
RACCORDO
100
AcDbEllipse
 62
7
  6
CONTINUOUS
 10
48.6209994436
 20
-36.5327684863
 30
0.0
 11
-1.4146443783
 21
1.4146443783
 31
0.0
 40
0.9996954599
 41
2.3563467834
 42
3.9268385237
  0
ELLIPSE
  5
406
100
AcDbEntity
  8
RACCORDO
100
AcDbEllipse
 62
7
  6
CONTINUOUS
 10
-48.5529418936
 20
-36.5327684863
 30
0.0
 11
1.4146443783
 21
1.4146443783
 31
0.0
 40
0.9996954599
 41
2.3563467834
 42
3.9268385237
  0
ELLIPSE
  5
407
100
AcDbEntity
  8
RACCORDO
100
AcDbEllipse
 62
7
  6
CONTINUOUS
 10
-48.5529418936
 20
36.6411728508
 30
0.0
 11
1.4146443783
 21
-1.4146443783
 31
0.0
 40
0.9996954599
 41
2.3563467834
 42
3.9268385237
  0
ELLIPSE
  5
408
100
AcDbEntity
  8
RACCORDO
100
AcDbEllipse
 62
7
  6
CONTINUOUS
 10
-45.9655904049
 20
-33.9454169977
 30
0.0
 11
1.7683054729
 21
1.7683054729
 31
0.0
 40
0.9996954599
 41
-3.9268385237
 42
-2.3563467834
  0
ELLIPSE
  5
409
100
AcDbEntity
  8
RACCORDO
100
AcDbEllipse
 62
7
  6
CONTINUOUS
 10
46.0336479549
 20
-33.9454169977
 30
0.0
 11
1.7683054729
 21
-1.7683054729
 31
0.0
 40
0.9996954599
 41
-0.7852458701
 42
0.7852458701
  0
ELLIPSE
  5
40A
100
AcDbEntity
  8
RACCORDO
100
AcDbEllipse
 62
7
  6
CONTINUOUS
 10
46.0336479549
 20
34.0538213621
 30
0.0
 11
1.7683054729
 21
1.7683054729
 31
0.0
 40
0.9996954599
 41
-0.7852458701
 42
0.7852458701
  0
ELLIPSE
  5
40B
100
AcDbEntity
  8
RACCORDO
100
AcDbEllipse
 62
7
  6
CONTINUOUS
 10
-45.9655904049
 20
34.0538213621
 30
0.0
 11
1.7683054729
 21
-1.7683054729
 31
0.0
 40
0.9996954599
 41
2.3563467834
 42
3.9268385237
  0
ELLIPSE
  5
40C
100
AcDbEntity
  8
RACCORDO
100
AcDbEllipse
 62
7
  6
CONTINUOUS
 10
-45.1068012104
 20
-33.0866278032
 30
0.0
 11
1.7683054729
 21
1.7683054729
 31
0.0
 40
0.9996954599
 41
2.3563467834
 42
3.9268385237
  0
ELLIPSE
  5
40D
100
AcDbEntity
  8
RACCORDO
100
AcDbEllipse
 62
7
  6
CONTINUOUS
 10
45.1748587604
 20
-33.0866278032
 30
0.0
 11
-1.7683054729
 21
1.7683054729
 31
0.0
 40
0.9996954599
 41
2.3563467834
 42
3.9268385237
  0
ELLIPSE
  5
40E
100
AcDbEntity
  8
RACCORDO
100
AcDbEllipse
 62
7
  6
CONTINUOUS
 10
-45.1068012104
 20
33.1950321677
 30
0.0
 11
1.7683054729
 21
-1.7683054729
 31
0.0
 40
0.9996954599
 41
2.3563467834
 42
3.9268385237
  0
ELLIPSE
  5
40F
100
AcDbEntity
  8
RACCORDO
100
AcDbEllipse
 62
7
  6
CONTINUOUS
 10
45.1748587604
 20
33.1950321677
 30
0.0
 11
-1.7683054729
 21
-1.7683054729
 31
0.0
 40
0.9996954599
 41
2.3563467834
 42
3.9268385237
  0
ENDSEC
  0
SECTION
  2
OBJECTS
  0
DICTIONARY
  5
C
100
AcDbDictionary
280
0
281
1
  3
ACAD_GROUP
350
D
  3
ACAD_MLINESTYLE
350
17
  3
ACAD_LAYOUT
350
1A
  3
ACAD_PLOTSETTINGS
350
19
  3
ACAD_PLOTSTYLENAME
350
E
  0
DICTIONARY
  5
D
102
{ACAD_REACTORS
330
C
102
}
100
AcDbDictionary
280
0
281
1
  0
ACDBDICTIONARYWDFLT
  5
E
102
{ACAD_REACTORS
330
C
102
}
100
AcDbDictionary
281
1
  3
Normal
350
F
100
AcDbDictionaryWithDefault
340
F
  0
DICTIONARY
  5
17
102
{ACAD_REACTORS
330
C
102
}
100
AcDbDictionary
280
0
281
1
  3
Standard
350
18
  0
DICTIONARY
  5
19
102
{ACAD_REACTORS
330
C
102
}
100
AcDbDictionary
281
1
  0
DICTIONARY
  5
1A
102
{ACAD_REACTORS
330
C
102
}
100
AcDbDictionary
281
1
  3
Model
350
410
  3
Layout1
350
411
  0
ACDBPLACEHOLDER
  5
F
102
{ACAD_REACTORS
330
E
102
}
  0
MLINESTYLE
  5
18
102
{ACAD_REACTORS
330
17
102
}
100
AcDbMlineStyle
  2
STANDARD
 70
0
  3

 62
256
 51
90.0
 52
90.0
 71
2
 49
0.5
 62
256
  6
BYLAYER
 49
-0.5
 62
256
  6
BYLAYER
  0
LAYOUT
  5
410
102
{ACAD_REACTORS
330
1A
102
}
100
AcDbPlotSettings
  1

  2
none_device
  4
ISO_A4_(297.00_x_210.00_MM)
  6

 40
0.0
 41
0.0
 42
0.0
 43
0.0
 44
297.0
 45
210.0
 46
0.0
 47
0.0
 48
0.0
 49
0.0
140
0.0
141
0.0
142
1.0
143
1.0
 70
1024
 72
1
 73
0
 74
0
  7

 75
0
147
1.0
148
0.0
149
0.0
100
AcDbLayout
  1
Model
 70
0
 71
0
 10
0.0
 20
0.0
 11
297.0
 21
210.0
 12
0.0
 22
0.0
 32
0.0
 14
0.0
 24
0.0
 34
0.0
 15
0.0
 25
0.0
 35
0.0
146
0.0
 13
0.0
 23
0.0
 33
0.0
 16
1.0
 26
0.0
 36
0.0
 17
0.0
 27
1.0
 37
0.0
 76
0
330
210
345
0
346
0
  0
LAYOUT
  5
411
102
{ACAD_REACTORS
330
1A
102
}
100
AcDbPlotSettings
  1

  2
none_device
  4
ISO_A4_(297.00_x_210.00_MM)
  6

 40
0.0
 41
0.0
 42
0.0
 43
0.0
 44
297.0
 45
210.0
 46
0.0
 47
0.0
 48
0.0
 49
0.0
140
0.0
141
0.0
142
1.0
143
1.0
 70
0
 72
1
 73
0
 74
0
  7

 75
0
147
1.0
148
0.0
149
0.0
100
AcDbLayout
  1
Layout1
 70
0
 71
1
 10
0.0
 20
0.0
 11
297.0
 21
210.0
 12
0.0
 22
0.0
 32
0.0
 14
0.0
 24
0.0
 34
0.0
 15
0.0
 25
0.0
 35
0.0
146
0.0
 13
0.0
 23
0.0
 33
0.0
 16
1.0
 26
0.0
 36
0.0
 17
0.0
 27
1.0
 37
0.0
 76
0
330
211
345
0
346
0
  0
ENDSEC
  0
EOF
