  0
SECTION
  2
HEADER
  9
$ACADVER
  1
AC1021
  9
$DWGCODEPAGE
  3
ANSI_1252
  9
$EXTMAX
 10
210.0
 20
297.0
 30
0.0
  9
$EXTMIN
 10
0.0
 20
0.0
 30
0.0
  9
$LIMMIN
 10
0.0
 20
0.0
  9
$LIMMAX
 10
210.0
 20
297.0
  9
$VIEWCTR
 10
105.0
 20
148.5
  9
$VIEWSIZE
 40
297.0
  9
$CLAYER
  8
0
  9
$LTSCALE
 40
19.36
  9
$CELTYPE
  6
BYLAYER
  9
$DIMSCALE
 40
1.0
  9
$DIMASZ
 40
3.0
  9
$DIMEXO
 40
0.5
  9
$DIMDLI
 40
13.376
  9
$DIMEXE
 40
1.5
  9
$DIMCEN
 40
3.168
  9
$DIMLFAC
 40
1.0
  9
$DIMBLK
  1
_FILLED
  9
$DIMALT
 70
0
  9
$DIMALTF
 40
0.0393700787
  9
$DIMTXT
 40
3.0
  9
$DIMTOL
 70
1
  9
$DIMLIM
 70
0
  9
$DIMTFAC
 40
1.0
  9
$DIMTP
 40
0.01
  9
$DIMTM
 40
0.01
  9
$DIMGAP
 40
0.625
  9
$DIMDSEP
 70
44
  9
$AUNITS
 70
0
  9
$PDMODE
 70
3
  9
$PDSIZE
 40
3.0
  9
$HANDSEED
  5
5D0
  9
$TILEMODE
 70
1
  9
$MEASUREMENT
 70
1
  9
$INSUNITS
 70
4
  0
ENDSEC
  0
SECTION
  2
CLASSES
  0
CLASS
  1
ACDBDICTIONARYWDFLT
  2
AcDbDictionaryWithDefault
  3
AutoCAD 2000
 90
0
 91
1
280
0
281
0
  0
CLASS
  1
ACDBPLACEHOLDER
  2
AcDbPlaceHolder
  3
AutoCAD 2000
 90
0
 91
1
280
0
281
0
  0
CLASS
  1
LAYOUT
  2
AcDbLayout
  3
AutoCAD 2000
 90
0
 91
0
280
0
281
0
  0
ENDSEC
  0
SECTION
  2
TABLES
  0
TABLE
  2
VPORT
  5
8
100
AcDbSymbolTable
 70
2
  0
VPORT
  5
1F4
100
AcDbSymbolTableRecord
100
AcDbViewportTableRecord
  2
*ACTIVE
 70
0
 10
0.0
 20
0.0
 11
1.0
 21
1.0
 12
105.0
 22
148.5
 13
0.0
 23
0.0
 14
1.0
 24
1.0
 15
0.0
 25
0.0
 16
0.0
 26
0.0
 36
1.0
 17
0.0
 27
0.0
 37
0.0
 40
297.0
 41
0.7070707071
 42
50.0
 43
0.0
 44
0.0
 50
0.0
 51
0.0
 71
0
 72
100
 73
1
 74
1
 75
0
 76
0
 77
0
 78
0
  0
ENDTAB
  0
TABLE
  2
LTYPE
  5
5
100
AcDbSymbolTable
 70
6
  0
LTYPE
  5
14
100
AcDbSymbolTableRecord
100
AcDbLinetypeTableRecord
  2
BYBLOCK
 70
0
  3

 72
65
 73
0
 40
0.0
  0
LTYPE
  5
15
100
AcDbSymbolTableRecord
100
AcDbLinetypeTableRecord
  2
BYLAYER
 70
0
  3

 72
65
 73
0
 40
0.0
  0
LTYPE
  5
16
100
AcDbSymbolTableRecord
100
AcDbLinetypeTableRecord
  2
CONTINUOUS
 70
64
  3
Solid line
 72
65
 73
0
 40
0.0
  0
LTYPE
  5
1F5
100
AcDbSymbolTableRecord
100
AcDbLinetypeTableRecord
  2
CENTER
 70
64
  3
____ _ ____ _ ____ _ ____ _ ____ _ ____ _ ____
 72
65
 73
4
 40
0.6
 49
0.375
 74
0
 49
-0.075
 74
0
 49
0.075
 74
0
 49
-0.075
 74
0
  0
LTYPE
  5
1F6
100
AcDbSymbolTableRecord
100
AcDbLinetypeTableRecord
  2
HIDDEN
 70
64
  3
- - - - - - - - - - - - - - - - - - - -
 72
65
 73
2
 40
0.2
 49
0.1
 74
0
 49
-0.1
 74
0
  0
LTYPE
  5
1F7
100
AcDbSymbolTableRecord
100
AcDbLinetypeTableRecord
  2
PHANTOM
 70
64
  3
_____ _ _ _____ _ _ _____ _ _ _____
 72
65
 73
6
 40
0.8
 49
0.45
 74
0
 49
-0.05
 74
0
 49
0.1
 74
0
 49
-0.05
 74
0
 49
0.1
 74
0
 49
-0.05
 74
0
  0
LTYPE
  5
1F8
100
AcDbSymbolTableRecord
100
AcDbLinetypeTableRecord
  2
DOT
 70
64
  3
. . . . . . . . . . . . . . . . . . . .
 72
65
 73
2
 40
0.2
 49
0.1
 74
0
 49
-0.1
 74
0
  0
LTYPE
  5
1F9
100
AcDbSymbolTableRecord
100
AcDbLinetypeTableRecord
  2
DASHED
 70
64
  3
- - - - - - - - - - - - - - - - - - - -
 72
65
 73
2
 40
0.2
 49
0.1
 74
0
 49
-0.1
 74
0
  0
ENDTAB
  0
TABLE
  2
LAYER
  5
2
100
AcDbSymbolTable
 70
36
  0
LAYER
  5
10
100
AcDbSymbolTableRecord
100
AcDbLayerTableRecord
  2
0
 70
0
 62
7
  6
CONTINUOUS
370
-3
390
F
  0
LAYER
  5
1FA
100
AcDbSymbolTableRecord
100
AcDbLayerTableRecord
  2
DEFAULT_1
 70
0
 62
7
  6
CENTER
370
-3
390
F
  0
LAYER
  5
1FB
100
AcDbSymbolTableRecord
100
AcDbLayerTableRecord
  2
DEFAULT_2
 70
0
 62
7
  6
HIDDEN
370
-3
390
F
  0
LAYER
  5
1FC
100
AcDbSymbolTableRecord
100
AcDbLayerTableRecord
  2
DEFAULT_3
 70
0
 62
7
  6
PHANTOM
370
-3
390
F
  0
LAYER
  5
1FD
100
AcDbSymbolTableRecord
100
AcDbLayerTableRecord
  2
ANNOTATION
 70
0
 62
7
  6
CONTINUOUS
370
-3
390
F
  0
LAYER
  5
1FE
100
AcDbSymbolTableRecord
100
AcDbLayerTableRecord
  2
ASSI
 70
0
 62
7
  6
CONTINUOUS
370
-3
390
F
  0
LAYER
  5
1FF
100
AcDbSymbolTableRecord
100
AcDbLayerTableRecord
  2
COLOR1
 70
0
 62
7
  6
CONTINUOUS
370
-3
390
F
  0
LAYER
  5
200
100
AcDbSymbolTableRecord
100
AcDbLayerTableRecord
  2
COLOR15
 70
0
 62
7
  6
CONTINUOUS
370
-3
390
F
  0
LAYER
  5
201
100
AcDbSymbolTableRecord
100
AcDbLayerTableRecord
  2
COLOR16
 70
0
 62
7
  6
CONTINUOUS
370
-3
390
F
  0
LAYER
  5
202
100
AcDbSymbolTableRecord
100
AcDbLayerTableRecord
  2
COLOR5
 70
0
 62
7
  6
CONTINUOUS
370
-3
390
F
  0
LAYER
  5
203
100
AcDbSymbolTableRecord
100
AcDbLayerTableRecord
  2
COLOR7
 70
0
 62
7
  6
CONTINUOUS
370
-3
390
F
  0
LAYER
  5
204
100
AcDbSymbolTableRecord
100
AcDbLayerTableRecord
  2
COORDINATE
 70
0
 62
7
  6
CONTINUOUS
370
-3
390
F
  0
LAYER
  5
205
100
AcDbSymbolTableRecord
100
AcDbLayerTableRecord
  2
COORD_ORIGINE
 70
0
 62
7
  6
CONTINUOUS
370
-3
390
F
  0
LAYER
  5
206
100
AcDbSymbolTableRecord
100
AcDbLayerTableRecord
  2
COPY_PUBLISH
 70
0
 62
7
  6
CONTINUOUS
370
-3
390
F
  0
LAYER
  5
207
100
AcDbSymbolTableRecord
100
AcDbLayerTableRecord
  2
COSMETICI
 70
0
 62
7
  6
CONTINUOUS
370
-3
390
F
  0
LAYER
  5
208
100
AcDbSymbolTableRecord
100
AcDbLayerTableRecord
  2
CURVE
 70
0
 62
7
  6
CONTINUOUS
370
-3
390
F
  0
LAYER
  5
209
100
AcDbSymbolTableRecord
100
AcDbLayerTableRecord
  2
DRAFT
 70
0
 62
7
  6
CONTINUOUS
370
-3
390
F
  0
LAYER
  5
20A
100
AcDbSymbolTableRecord
100
AcDbLayerTableRecord
  2
IMPORT_IGES
 70
0
 62
7
  6
CONTINUOUS
370
-3
390
F
  0
LAYER
  5
20B
100
AcDbSymbolTableRecord
100
AcDbLayerTableRecord
  2
INTF_YELLOW
 70
0
 62
7
  6
CONTINUOUS
370
-3
390
F
  0
LAYER
  5
20C
100
AcDbSymbolTableRecord
100
AcDbLayerTableRecord
  2
NOTE
 70
0
 62
7
  6
CONTINUOUS
370
-3
390
F
  0
LAYER
  5
20D
100
AcDbSymbolTableRecord
100
AcDbLayerTableRecord
  2
PIANI
 70
0
 62
7
  6
CONTINUOUS
370
-3
390
F
  0
LAYER
  5
20E
100
AcDbSymbolTableRecord
100
AcDbLayerTableRecord
  2
PIANI_ORIGINE
 70
0
 62
7
  6
CONTINUOUS
370
-3
390
F
  0
LAYER
  5
20F
100
AcDbSymbolTableRecord
100
AcDbLayerTableRecord
  2
PUNTI
 70
0
 62
7
  6
CONTINUOUS
370
-3
390
F
  0
LAYER
  5
210
100
AcDbSymbolTableRecord
100
AcDbLayerTableRecord
  2
RACCORDO
 70
0
 62
7
  6
CONTINUOUS
370
-3
390
F
  0
LAYER
  5
211
100
AcDbSymbolTableRecord
100
AcDbLayerTableRecord
  2
SIMBOLI
 70
0
 62
7
  6
CONTINUOUS
370
-3
390
F
  0
LAYER
  5
212
100
AcDbSymbolTableRecord
100
AcDbLayerTableRecord
  2
SMUSSO
 70
0
 62
7
  6
CONTINUOUS
370
-3
390
F
  0
LAYER
  5
213
100
AcDbSymbolTableRecord
100
AcDbLayerTableRecord
  2
SNAPLINE
 70
0
 62
7
  6
CONTINUOUS
370
-3
390
F
  0
LAYER
  5
214
100
AcDbSymbolTableRecord
100
AcDbLayerTableRecord
  2
SUPERFICI
 70
0
 62
7
  6
CONTINUOUS
370
-3
390
F
  0
LAYER
  5
215
100
AcDbSymbolTableRecord
100
AcDbLayerTableRecord
  2
TRASH
 70
0
 62
7
  6
CONTINUOUS
370
-3
390
F
  0
ENDTAB
  0
TABLE
  2
STYLE
  5
3
100
AcDbSymbolTable
 70
1
  0
STYLE
  5
11
100
AcDbSymbolTableRecord
100
AcDbTextStyleTableRecord
  2
STANDARD
 70
0
 40
0.0
 41
0.8
 50
0.0
 71
0
 42
0.2
  3
txt
  4

  0
STYLE
  5
216
100
AcDbSymbolTableRecord
100
AcDbTextStyleTableRecord
  2
TEXTSTYLE_1
 70
0
 40
0.0
 41
0.8
 50
0.0
 71
0
 42
0.2
  3
gdt
  4

  0
ENDTAB
  0
TABLE
  2
VIEW
  5
6
100
AcDbSymbolTable
 70
0
  0
ENDTAB
  0
TABLE
  2
UCS
  5
7
100
AcDbSymbolTable
 70
0
  0
ENDTAB
  0
TABLE
  2
APPID
  5
9
100
AcDbSymbolTable
 70
1
  0
APPID
  5
217
100
AcDbSymbolTableRecord
100
AcDbRegAppTableRecord
  2
ACAD
 70
0
  0
ENDTAB
  0
TABLE
  2
BLOCK_RECORD
  5
1
100
AcDbSymbolTable
 70
0
  0
BLOCK_RECORD
  5
218
100
AcDbSymbolTableRecord
100
AcDbBlockTableRecord
  2
*Model_Space
  0
BLOCK_RECORD
  5
219
100
AcDbSymbolTableRecord
100
AcDbBlockTableRecord
  2
*Paper_Space
  0
BLOCK_RECORD
  5
21A
100
AcDbSymbolTableRecord
100
AcDbBlockTableRecord
  2
_FILLED
  0
BLOCK_RECORD
  5
21B
100
AcDbSymbolTableRecord
100
AcDbBlockTableRecord
  2
*D0
  0
BLOCK_RECORD
  5
21C
100
AcDbSymbolTableRecord
100
AcDbBlockTableRecord
  2
*D1
  0
BLOCK_RECORD
  5
21D
100
AcDbSymbolTableRecord
100
AcDbBlockTableRecord
  2
*D2
  0
BLOCK_RECORD
  5
21E
100
AcDbSymbolTableRecord
100
AcDbBlockTableRecord
  2
*D3
  0
ENDTAB
  0
TABLE
  2
DIMSTYLE
  5
A
100
AcDbSymbolTable
 70
1
100
AcDbDimStyleTable
 71
0
  0
DIMSTYLE
105
21F
100
AcDbSymbolTableRecord
100
AcDbDimStyleTableRecord
  2
STANDARD
 70
0
  3

  4

 40
1.0
 41
3.0
 42
0.5
 43
0.38
 44
1.5
 45
0.0
 46
0.0
 47
0.01
 48
0.01
140
3.0
141
0.09
142
0.0
143
25.4
144
1.0
145
0.0
146
1.0
147
0.625
 71
1.0
 72
0.0
 73
0
 74
0
 75
0
 76
0
 77
1
 78
8
170
0
171
2
172
0
173
0
174
0
175
0
176
0
177
0
178
0
270
2
271
2
272
2
273
2
274
2
275
0
280
0
281
0
282
0
283
1
284
8
285
0
286
0
287
3
288
0
340
11
278
44
341
21A
342
21A
343
21A
344
21A
  0
DIMSTYLE
105
220
100
AcDbSymbolTableRecord
100
AcDbDimStyleTableRecord
  2
DIMSTYLE_1
 70
0
  3

  4

 40
1.0
 41
3.0
 42
0.5
 43
0.38
 44
1.5
 45
0.0
 46
0.0
 47
0.0
 48
0.0
140
3.0
141
0.09
142
0.0
143
25.4
144
1.0
145
0.0
146
1.0
147
0.75
 71
0.0
 72
0.0
 73
0
 74
0
 75
0
 76
0
 77
1
 78
8
170
0
171
2
172
0
173
0
174
0
175
0
176
0
177
0
178
0
270
2
271
2
272
2
273
2
274
2
275
0
280
0
281
0
282
0
283
1
284
8
285
0
286
0
287
3
288
0
340
11
278
44
341
21A
342
21A
343
21A
344
21A
  0
ENDTAB
  0
ENDSEC
  0
SECTION
  2
BLOCKS
  0
BLOCK
  5
20
100
AcDbEntity
  8
0
100
AcDbBlockBegin
  2
*Model_Space
 70
0
 10
0.0
 20
0.0
 30
0.0
  3
*Model_Space
  1

  0
ENDBLK
  5
21
100
AcDbEntity
  8
0
100
AcDbBlockEnd
  0
BLOCK
  5
1C
100
AcDbEntity
  8
0
100
AcDbBlockBegin
  2
*Paper_Space
 70
0
 10
0.0
 20
0.0
 30
0.0
  3
*Paper_Space
  1

  0
ENDBLK
  5
1D
100
AcDbEntity
  8
0
100
AcDbBlockEnd
  0
BLOCK
  5
221
100
AcDbEntity
  8
0
100
AcDbBlockBegin
  2
_FILLED
 70
64
 10
0.0
 20
0.0
  3
_FILLED
  1

  0
SOLID
  5
222
100
AcDbEntity
  8
0
  6
BYBLOCK
 62
0
100
AcDbTrace
 10
0.0
 20
0.0
 11
-1.0
 21
0.3166666667
 12
-1.0
 22
-0.3166666667
 13
-1.0
 23
-0.3166666667
  0
ENDBLK
  5
223
100
AcDbEntity
  8
0
  6
BYBLOCK
 62
0
100
AcDbBlockEnd
  0
BLOCK
  5
224
100
AcDbEntity
  8
0
100
AcDbBlockBegin
 62
7
  6
CONTINUOUS
  2
*D0
 70
65
 10
0.0
 20
0.0
  3
*D0
  1

  0
MTEXT
  5
225
100
AcDbEntity
  8
0
100
AcDbMText
 62
7
  6
CONTINUOUS
  7
STANDARD
 71
2
 72
1
 10
0.0
 20
172.75
 30
0.0
 11
1.0
 21
0.0
 31
0.0
 44
0.9
  1
120
 40
3.0
 41
9.6428571429
  0
LINE
  5
226
100
AcDbEntity
  8
0
100
AcDbLine
 62
7
  6
CONTINUOUS
 10
60.0
 20
139.5
 11
60.0
 21
170.5
  0
LINE
  5
227
100
AcDbEntity
  8
0
100
AcDbLine
 62
7
  6
CONTINUOUS
 10
-60.0
 20
139.5
 11
-60.0
 21
170.5
  0
LINE
  5
228
100
AcDbEntity
  8
0
100
AcDbLine
 62
7
  6
CONTINUOUS
 10
60.0
 20
169.0
 11
0.0
 21
169.0
  0
LINE
  5
229
100
AcDbEntity
  8
0
100
AcDbLine
 62
7
  6
CONTINUOUS
 10
-60.0
 20
169.0
 11
0.0
 21
169.0
  0
INSERT
  5
22A
100
AcDbEntity
  8
0
100
AcDbBlockReference
 62
7
  6
CONTINUOUS
  2
_FILLED
 10
60.0
 20
169.0
 41
3.0
 42
3.0
 43
3.0
  0
INSERT
  5
22B
100
AcDbEntity
  8
0
100
AcDbBlockReference
 62
7
  6
CONTINUOUS
  2
_FILLED
 10
-60.0
 20
169.0
 41
3.0
 42
3.0
 43
3.0
 50
180.0
  0
ENDBLK
  5
22C
100
AcDbEntity
  8
0
  6
BYBLOCK
 62
0
100
AcDbBlockEnd
  0
BLOCK
  5
22D
100
AcDbEntity
  8
0
100
AcDbBlockBegin
 62
7
  6
CONTINUOUS
  2
*D1
 70
65
 10
0.0
 20
0.0
  3
*D1
  1

  0
MTEXT
  5
22E
100
AcDbEntity
  8
0
100
AcDbMText
 62
7
  6
CONTINUOUS
  7
STANDARD
 71
2
 72
1
 10
-75.5268325857
 20
6.5
 30
0.0
 11
0.0
 21
1.0
 31
0.0
 44
0.9
  1
309
 40
3.0
 41
10.2857142857
  0
LINE
  5
22F
100
AcDbEntity
  8
0
100
AcDbLine
 62
7
  6
CONTINUOUS
 10
-0.5
 20
161.0
 11
-73.2768325857
 21
161.0
  0
LINE
  5
230
100
AcDbEntity
  8
0
100
AcDbLine
 62
7
  6
CONTINUOUS
 10
-0.5
 20
-148.0
 11
-73.2768325857
 21
-148.0
  0
LINE
  5
231
100
AcDbEntity
  8
0
100
AcDbLine
 62
7
  6
CONTINUOUS
 10
-71.7768325857
 20
161.0
 11
-71.7768325857
 21
6.5
  0
LINE
  5
232
100
AcDbEntity
  8
0
100
AcDbLine
 62
7
  6
CONTINUOUS
 10
-71.7768325857
 20
-148.0
 11
-71.7768325857
 21
6.5
  0
INSERT
  5
233
100
AcDbEntity
  8
0
100
AcDbBlockReference
 62
7
  6
CONTINUOUS
  2
_FILLED
 10
-71.7768325857
 20
161.0
 41
3.0
 42
3.0
 43
3.0
 50
90.0
  0
INSERT
  5
234
100
AcDbEntity
  8
0
100
AcDbBlockReference
 62
7
  6
CONTINUOUS
  2
_FILLED
 10
-71.7768325857
 20
-148.0
 41
3.0
 42
3.0
 43
3.0
 50
270.0
  0
ENDBLK
  5
235
100
AcDbEntity
  8
0
  6
BYBLOCK
 62
0
100
AcDbBlockEnd
  0
BLOCK
  5
236
100
AcDbEntity
  8
0
100
AcDbBlockBegin
 62
7
  6
CONTINUOUS
  2
*D2
 70
65
 10
0.0
 20
0.0
  3
*D2
  1

  0
MTEXT
  5
237
100
AcDbEntity
  8
0
100
AcDbMText
 62
7
  6
CONTINUOUS
  7
STANDARD
 71
2
 72
1
 10
143.2047227823
 20
182.75
 30
0.0
 11
1.0
 21
0.0
 31
0.0
 44
0.9
  1
62,1
 40
3.0
 41
12.2142857143
  0
LINE
  5
238
100
AcDbEntity
  8
0
100
AcDbLine
 62
7
  6
CONTINUOUS
 10
112.1547227823
 20
136.0
 11
112.1547227823
 21
180.5
  0
LINE
  5
239
100
AcDbEntity
  8
0
100
AcDbLine
 62
7
  6
CONTINUOUS
 10
174.2547227823
 20
-35.8
 11
174.2547227823
 21
180.5
  0
LINE
  5
23A
100
AcDbEntity
  8
0
100
AcDbLine
 62
7
  6
CONTINUOUS
 10
112.1547227823
 20
179.0
 11
143.2047227823
 21
179.0
  0
LINE
  5
23B
100
AcDbEntity
  8
0
100
AcDbLine
 62
7
  6
CONTINUOUS
 10
174.2547227823
 20
179.0
 11
143.2047227823
 21
179.0
  0
INSERT
  5
23C
100
AcDbEntity
  8
0
100
AcDbBlockReference
 62
7
  6
CONTINUOUS
  2
_FILLED
 10
112.1547227823
 20
179.0
 41
3.0
 42
3.0
 43
3.0
 50
180.0
  0
INSERT
  5
23D
100
AcDbEntity
  8
0
100
AcDbBlockReference
 62
7
  6
CONTINUOUS
  2
_FILLED
 10
174.2547227823
 20
179.0
 41
3.0
 42
3.0
 43
3.0
  0
ENDBLK
  5
23E
100
AcDbEntity
  8
0
  6
BYBLOCK
 62
0
100
AcDbBlockEnd
  0
BLOCK
  5
23F
100
AcDbEntity
  8
0
100
AcDbBlockBegin
 62
7
  6
CONTINUOUS
  2
*D3
 70
65
 10
0.0
 20
0.0
  3
*D3
  1

  0
MTEXT
  5
240
100
AcDbEntity
  8
0
100
AcDbMText
 62
7
  6
CONTINUOUS
  7
STANDARD
 71
2
 72
1
 10
139.9547227823
 20
172.75
 30
0.0
 11
1.0
 21
0.0
 31
0.0
 44
0.9
  1
55,6
 40
3.0
 41
12.5357142857
  0
LINE
  5
241
100
AcDbEntity
  8
0
100
AcDbLine
 62
7
  6
CONTINUOUS
 10
112.1547227823
 20
136.0
 11
112.1547227823
 21
170.5
  0
LINE
  5
242
100
AcDbEntity
  8
0
100
AcDbLine
 62
7
  6
CONTINUOUS
 10
167.7547227823
 20
161.5
 11
167.7547227823
 21
170.5
  0
LINE
  5
243
100
AcDbEntity
  8
0
100
AcDbLine
 62
7
  6
CONTINUOUS
 10
112.1547227823
 20
169.0
 11
139.9547227823
 21
169.0
  0
LINE
  5
244
100
AcDbEntity
  8
0
100
AcDbLine
 62
7
  6
CONTINUOUS
 10
167.7547227823
 20
169.0
 11
139.9547227823
 21
169.0
  0
INSERT
  5
245
100
AcDbEntity
  8
0
100
AcDbBlockReference
 62
7
  6
CONTINUOUS
  2
_FILLED
 10
112.1547227823
 20
169.0
 41
3.0
 42
3.0
 43
3.0
 50
180.0
  0
INSERT
  5
246
100
AcDbEntity
  8
0
100
AcDbBlockReference
 62
7
  6
CONTINUOUS
  2
_FILLED
 10
167.7547227823
 20
169.0
 41
3.0
 42
3.0
 43
3.0
  0
ENDBLK
  5
247
100
AcDbEntity
  8
0
  6
BYBLOCK
 62
0
100
AcDbBlockEnd
  0
ENDSEC
  0
SECTION
  2
ENTITIES
  0
DIMENSION
  5
248
100
AcDbEntity
  8
0
100
AcDbDimension
 62
7
  6
CONTINUOUS
  2
*D0
 10
-60.0
 20
169.0
 11
-0.4285708008
 21
169.0
 70
160
 71
2
 42
120.0
  3
DIMSTYLE_1
100
AcDbAlignedDimension
 13
60.0
 23
139.0
 14
-60.0
 24
139.0
 50
180.0
100
AcDbRotatedDimension
  0
DIMENSION
  5
249
100
AcDbEntity
  8
0
100
AcDbDimension
 62
7
  6
CONTINUOUS
  2
*D1
 10
-71.7768325857
 20
-148.0
 11
-71.7768325857
 21
6.0714285536
 70
160
 71
2
 42
309.0
  3
DIMSTYLE_1
100
AcDbAlignedDimension
 13
0.0
 23
161.0
 14
0.0
 24
-148.0
 50
270.0
100
AcDbRotatedDimension
  0
DIMENSION
  5
24A
100
AcDbEntity
  8
0
100
AcDbDimension
 62
7
  6
CONTINUOUS
  2
*D2
 10
174.2547227823
 20
179.0
 11
142.7761591797
 21
179.0
 70
160
 71
2
 42
62.1
  3
DIMSTYLE_1
100
AcDbAlignedDimension
 13
112.1547227823
 23
135.5
 14
174.2547227823
 24
-36.3
100
AcDbRotatedDimension
  0
DIMENSION
  5
24B
100
AcDbEntity
  8
0
100
AcDbDimension
 62
7
  6
CONTINUOUS
  2
*D3
 10
167.7547227823
 20
169.0
 11
139.5261533203
 21
169.0
 70
160
 71
2
 42
55.6
  3
DIMSTYLE_1
100
AcDbAlignedDimension
 13
112.1547227823
 23
135.5
 14
167.7547227823
 24
161.0
100
AcDbRotatedDimension
  0
LINE
  5
24C
100
AcDbEntity
  8
SMUSSO
100
AcDbLine
 62
7
  6
CONTINUOUS
 10
-55.0
 20
-131.0
 11
-46.8508271005
 21
-131.0
  0
LINE
  5
24D
100
AcDbEntity
  8
SMUSSO
100
AcDbLine
 62
7
  6
CONTINUOUS
 10
46.8508271005
 20
-131.0
 11
55.0
 21
-131.0
  0
LINE
  5
24E
100
AcDbEntity
  8
SMUSSO
100
AcDbLine
 62
7
  6
CONTINUOUS
 10
-55.0
 20
-129.2679491924
 11
-46.8508271005
 21
-129.2679491924
  0
LINE
  5
24F
100
AcDbEntity
  8
SMUSSO
100
AcDbLine
 62
7
  6
CONTINUOUS
 10
46.8508271005
 20
-129.2679491924
 11
55.0
 21
-129.2679491924
  0
LINE
  5
250
100
AcDbEntity
  8
SMUSSO
100
AcDbLine
 62
253
  6
CONTINUOUS
 10
-58.2679491924
 20
-126.0
 11
-60.0
 21
-126.0
  0
LINE
  5
251
100
AcDbEntity
  8
SMUSSO
100
AcDbLine
 62
253
  6
CONTINUOUS
 10
58.2679491924
 20
-126.0
 11
60.0
 21
-126.0
  0
LINE
  5
252
100
AcDbEntity
  8
RACCORDO
100
AcDbLine
 62
7
  6
CONTINUOUS
 10
38.8
 20
-119.5
 11
41.0
 21
-119.5
  0
LINE
  5
253
100
AcDbEntity
  8
DRAFT
100
AcDbLine
 62
7
  6
CONTINUOUS
 10
38.3648739865
 20
-119.4
 11
41.4351260135
 21
-119.4
  0
LINE
  5
254
100
AcDbEntity
  8
DRAFT
100
AcDbLine
 62
7
  6
CONTINUOUS
 10
38.2455601045
 20
-119.3319252468
 11
41.5544398955
 21
-119.3319252468
  0
LINE
  5
255
100
AcDbEntity
  8
DRAFT
100
AcDbLine
 62
7
  6
CONTINUOUS
 10
38.3358723834
 20
-118.8444068695
 11
41.6641276166
 21
-118.8444068695
  0
LINE
  5
256
100
AcDbEntity
  8
DRAFT
100
AcDbLine
 62
7
  6
CONTINUOUS
 10
38.5
 20
-118.1
 11
41.5
 21
-118.1
  0
LINE
  5
257
100
AcDbEntity
  8
DRAFT
100
AcDbLine
 62
7
  6
CONTINUOUS
 10
41.5
 20
-117.5
 11
38.5
 21
-117.5
  0
LINE
  5
258
100
AcDbEntity
  8
COSMETICI
100
AcDbLine
 62
7
  6
CONTINUOUS
 10
-29.24313908
 20
-117.5
 11
-34.210203126
 21
-117.5
  0
LINE
  5
259
100
AcDbEntity
  8
COSMETICI
100
AcDbLine
 62
7
  6
CONTINUOUS
 10
-37.76498731
 20
-117.5
 11
-42.089376862
 21
-117.5
  0
LINE
  5
25A
100
AcDbEntity
  8
COSMETICI
100
AcDbLine
 62
7
  6
CONTINUOUS
 10
-42.619268154
 20
-117.5
 11
-48.0
 21
-117.5
  0
LINE
  5
25B
100
AcDbEntity
  8
COSMETICI
100
AcDbLine
 62
7
  6
CONTINUOUS
 10
-23.471297074
 20
-117.487383382
 11
-25.145463806
 21
-117.487383382
  0
LINE
  5
25C
100
AcDbEntity
  8
COSMETICI
100
AcDbLine
 62
7
  6
CONTINUOUS
 10
-27.101397786
 20
-117.487383382
 11
-28.775947698
 21
-117.487383382
  0
LINE
  5
25D
100
AcDbEntity
  8
DRAFT
100
AcDbLine
 62
7
  6
CONTINUOUS
 10
41.6641276166
 20
-116.7555931305
 11
38.3358723834
 21
-116.7555931305
  0
LINE
  5
25E
100
AcDbEntity
  8
DRAFT
100
AcDbLine
 62
7
  6
CONTINUOUS
 10
38.3358723834
 20
-116.5444068695
 11
41.6641276166
 21
-116.5444068695
  0
LINE
  5
25F
100
AcDbEntity
  8
COSMETICI
100
AcDbLine
 62
7
  6
CONTINUOUS
 10
-32.617215576
 20
-116.504383406
 11
-30.83612663
 21
-116.504383406
  0
LINE
  5
260
100
AcDbEntity
  8
COSMETICI
100
AcDbLine
 62
7
  6
CONTINUOUS
 10
-46.460026236
 20
-116.251352992
 11
-42.619268154
 21
-116.251352992
  0
LINE
  5
261
100
AcDbEntity
  8
COSMETICI
100
AcDbLine
 62
7
  6
CONTINUOUS
 10
-40.581900094
 20
-116.251352992
 11
-37.76498731
 21
-116.251352992
  0
LINE
  5
262
100
AcDbEntity
  8
DRAFT
100
AcDbLine
 62
7
  6
CONTINUOUS
 10
38.5
 20
-115.8
 11
41.5
 21
-115.8
  0
LINE
  5
263
100
AcDbEntity
  8
COSMETICI
100
AcDbLine
 62
7
  6
CONTINUOUS
 10
-44.587437238
 20
-115.627029488
 11
-46.460026236
 21
-115.627029488
  0
LINE
  5
264
100
AcDbEntity
  8
COSMETICI
100
AcDbLine
 62
7
  6
CONTINUOUS
 10
-30.83612663
 20
-115.373999074
 11
-32.617215576
 21
-115.373999074
  0
LINE
  5
265
100
AcDbEntity
  8
DRAFT
100
AcDbLine
 62
7
  6
CONTINUOUS
 10
41.5
 20
-115.2
 11
38.5
 21
-115.2
  0
LINE
  5
266
100
AcDbEntity
  8
DRAFT
100
AcDbLine
 62
7
  6
CONTINUOUS
 10
41.6641276166
 20
-114.4555931305
 11
38.3358723834
 21
-114.4555931305
  0
LINE
  5
267
100
AcDbEntity
  8
COSMETICI
100
AcDbLine
 62
7
  6
CONTINUOUS
 10
-46.460026236
 20
-114.378380814
 11
-44.587437238
 21
-114.378380814
  0
LINE
  5
268
100
AcDbEntity
  8
COSMETICI
100
AcDbLine
 62
7
  6
CONTINUOUS
 10
-42.089376862
 20
-114.378380814
 11
-40.581900094
 21
-114.378380814
  0
LINE
  5
269
100
AcDbEntity
  8
COSMETICI
100
AcDbLine
 62
7
  6
CONTINUOUS
 10
-34.210203126
 20
-114.378380814
 11
-29.24313908
 21
-114.378380814
  0
LINE
  5
26A
100
AcDbEntity
  8
DRAFT
100
AcDbLine
 62
7
  6
CONTINUOUS
 10
38.3358723834
 20
-114.2444068695
 11
41.6641276166
 21
-114.2444068695
  0
LINE
  5
26B
100
AcDbEntity
  8
COSMETICI
100
AcDbLine
 62
7
  6
CONTINUOUS
 10
-28.554203098
 20
-113.75405731
 11
-34.338661722
 21
-113.75405731
  0
LINE
  5
26C
100
AcDbEntity
  8
COSMETICI
100
AcDbLine
 62
7
  6
CONTINUOUS
 10
-38.646228006
 20
-113.75405731
 11
-42.656353314
 21
-113.75405731
  0
LINE
  5
26D
100
AcDbEntity
  8
COSMETICI
100
AcDbLine
 62
7
  6
CONTINUOUS
 10
-43.182039622
 20
-113.75405731
 11
-46.460026236
 21
-113.75405731
  0
LINE
  5
26E
100
AcDbEntity
  8
DRAFT
100
AcDbLine
 62
7
  6
CONTINUOUS
 10
38.5
 20
-113.5
 11
41.5
 21
-113.5
  0
LINE
  5
26F
100
AcDbEntity
  8
DRAFT
100
AcDbLine
 62
7
  6
CONTINUOUS
 10
41.5
 20
-112.9
 11
38.5
 21
-112.9
  0
LINE
  5
270
100
AcDbEntity
  8
COSMETICI
100
AcDbLine
 62
7
  6
CONTINUOUS
 10
-48.0
 20
-112.505410302
 11
-43.182039622
 21
-112.505410302
  0
LINE
  5
271
100
AcDbEntity
  8
COSMETICI
100
AcDbLine
 62
7
  6
CONTINUOUS
 10
-42.656353314
 20
-112.505410302
 11
-37.865920254
 21
-112.505410302
  0
LINE
  5
272
100
AcDbEntity
  8
COSMETICI
100
AcDbLine
 62
7
  6
CONTINUOUS
 10
-35.11897114
 20
-112.505410302
 11
-29.461824904
 21
-112.505410302
  0
LINE
  5
273
100
AcDbEntity
  8
COSMETICI
100
AcDbLine
 62
7
  6
CONTINUOUS
 10
-28.775947698
 20
-112.500438958
 11
-27.101397786
 21
-112.500438958
  0
LINE
  5
274
100
AcDbEntity
  8
COSMETICI
100
AcDbLine
 62
7
  6
CONTINUOUS
 10
-25.145463806
 20
-112.500438958
 11
-23.471297074
 21
-112.500438958
  0
LINE
  5
275
100
AcDbEntity
  8
DRAFT
100
AcDbLine
 62
7
  6
CONTINUOUS
 10
41.6641276166
 20
-112.1555931305
 11
38.3358723834
 21
-112.1555931305
  0
LINE
  5
276
100
AcDbEntity
  8
DRAFT
100
AcDbLine
 62
7
  6
CONTINUOUS
 10
38.3358723834
 20
-111.9444068695
 11
41.6641276166
 21
-111.9444068695
  0
LINE
  5
277
100
AcDbEntity
  8
DRAFT
100
AcDbLine
 62
7
  6
CONTINUOUS
 10
38.5
 20
-111.2
 11
41.5
 21
-111.2
  0
LINE
  5
278
100
AcDbEntity
  8
DRAFT
100
AcDbLine
 62
7
  6
CONTINUOUS
 10
41.5
 20
-110.6
 11
38.5
 21
-110.6
  0
LINE
  5
279
100
AcDbEntity
  8
DRAFT
100
AcDbLine
 62
7
  6
CONTINUOUS
 10
41.6641276166
 20
-109.8555931305
 11
38.3358723834
 21
-109.8555931305
  0
LINE
  5
27A
100
AcDbEntity
  8
DRAFT
100
AcDbLine
 62
7
  6
CONTINUOUS
 10
41.3623312405
 20
-109.4680747532
 11
38.4376687595
 21
-109.4680747532
  0
LINE
  5
27B
100
AcDbEntity
  8
RACCORDO
100
AcDbLine
 62
7
  6
CONTINUOUS
 10
41.0
 20
-109.4
 11
38.8
 21
-109.4
  0
LINE
  5
27C
100
AcDbEntity
  8
0
100
AcDbLine
 62
7
  6
CONTINUOUS
 10
-27.71
 20
-95.743375673
 11
6.09
 21
-95.743375673
  0
LINE
  5
27D
100
AcDbEntity
  8
SUPERFICI
100
AcDbLine
 62
7
  6
CONTINUOUS
 10
-27.71
 20
-94.3
 11
6.09
 21
-94.3
  0
LINE
  5
27E
100
AcDbEntity
  8
DRAFT
100
AcDbLine
 62
7
  6
CONTINUOUS
 10
-27.71
 20
-94.1447634805
 11
6.09
 21
-94.1447634805
  0
LINE
  5
27F
100
AcDbEntity
  8
RACCORDO
100
AcDbLine
 62
253
  6
CONTINUOUS
 10
-27.71
 20
-94.1202654631
 11
6.09
 21
-94.1202654631
  0
LINE
  5
280
100
AcDbEntity
  8
RACCORDO
100
AcDbLine
 62
253
  6
CONTINUOUS
 10
-27.71
 20
-93.920295924
 11
6.09
 21
-93.920295924
  0
LINE
  5
281
100
AcDbEntity
  8
COSMETICI
100
AcDbLine
 62
7
  6
CONTINUOUS
 10
-27.101397786
 20
-112.500438958
 11
-26.123430796
 21
-113.843519844
  0
LINE
  5
282
100
AcDbEntity
  8
COSMETICI
100
AcDbLine
 62
7
  6
CONTINUOUS
 10
-26.960705752
 20
-114.99391117
 11
-28.775947698
 21
-112.500438958
  0
LINE
  5
283
100
AcDbEntity
  8
COSMETICI
100
AcDbLine
 62
7
  6
CONTINUOUS
 10
-25.145463806
 20
-117.487383382
 11
-26.123430796
 21
-116.143920982
  0
LINE
  5
284
100
AcDbEntity
  8
COSMETICI
100
AcDbLine
 62
7
  6
CONTINUOUS
 10
-25.28615584
 20
-114.99391117
 11
-23.471297074
 21
-117.487383382
  0
LINE
  5
285
100
AcDbEntity
  8
COSMETICI
100
AcDbLine
 62
7
  6
CONTINUOUS
 10
-29.461824904
 20
-112.505410302
 11
-28.554203098
 21
-113.75405731
  0
LINE
  5
286
100
AcDbEntity
  8
COSMETICI
100
AcDbLine
 62
7
  6
CONTINUOUS
 10
-36.492253274
 20
-117.5
 11
-38.646228006
 21
-113.75405731
  0
LINE
  5
287
100
AcDbEntity
  8
COSMETICI
100
AcDbLine
 62
7
  6
CONTINUOUS
 10
-37.865920254
 20
-112.505410302
 11
-36.492253274
 21
-114.894127766
  0
LINE
  5
288
100
AcDbEntity
  8
RACCORDO
100
AcDbLine
 62
253
  6
CONTINUOUS
 10
6.09
 20
-78.679704076
 11
-27.71
 21
-78.679704076
  0
LINE
  5
289
100
AcDbEntity
  8
RACCORDO
100
AcDbLine
 62
253
  6
CONTINUOUS
 10
6.09
 20
-78.479734537
 11
-27.71
 21
-78.479734537
  0
LINE
  5
28A
100
AcDbEntity
  8
DRAFT
100
AcDbLine
 62
7
  6
CONTINUOUS
 10
6.09
 20
-78.4552365195
 11
-27.71
 21
-78.4552365195
  0
LINE
  5
28B
100
AcDbEntity
  8
SUPERFICI
100
AcDbLine
 62
7
  6
CONTINUOUS
 10
6.09
 20
-78.3
 11
-27.71
 21
-78.3
  0
LINE
  5
28C
100
AcDbEntity
  8
0
100
AcDbLine
 62
7
  6
CONTINUOUS
 10
6.09
 20
-76.856624327
 11
-27.71
 21
-76.856624327
  0
LINE
  5
28D
100
AcDbEntity
  8
0
100
AcDbLine
 62
7
  6
CONTINUOUS
 10
-27.71
 20
-70.743375673
 11
6.09
 21
-70.743375673
  0
LINE
  5
28E
100
AcDbEntity
  8
SMUSSO
100
AcDbLine
 62
7
  6
CONTINUOUS
 10
-60.0
 20
139.0
 11
-60.0
 21
-126.0
  0
LINE
  5
28F
100
AcDbEntity
  8
SMUSSO
100
AcDbLine
 62
7
  6
CONTINUOUS
 10
-58.2679491924
 20
139.0
 11
-58.2679491924
 21
-126.0
  0
LINE
  5
290
100
AcDbEntity
  8
SMUSSO
100
AcDbLine
 62
253
  6
CONTINUOUS
 10
42.5337284507
 20
143.8344247829
 11
43.6444500446
 21
145.1634460547
  0
LINE
  5
291
100
AcDbEntity
  8
SUPERFICI
100
AcDbLine
 62
7
  6
CONTINUOUS
 10
-27.71
 20
-69.3
 11
6.09
 21
-69.3
  0
LINE
  5
292
100
AcDbEntity
  8
DRAFT
100
AcDbLine
 62
7
  6
CONTINUOUS
 10
-27.71
 20
-69.1447634805
 11
6.09
 21
-69.1447634805
  0
LINE
  5
293
100
AcDbEntity
  8
RACCORDO
100
AcDbLine
 62
253
  6
CONTINUOUS
 10
-27.71
 20
-69.1202654631
 11
6.09
 21
-69.1202654631
  0
LINE
  5
294
100
AcDbEntity
  8
RACCORDO
100
AcDbLine
 62
253
  6
CONTINUOUS
 10
-27.71
 20
-68.920295924
 11
6.09
 21
-68.920295924
  0
LINE
  5
295
100
AcDbEntity
  8
SMUSSO
100
AcDbLine
 62
253
  6
CONTINUOUS
 10
-55.0
 20
-129.2679491924
 11
-55.0
 21
-131.0
  0
LINE
  5
296
100
AcDbEntity
  8
SMUSSO
100
AcDbLine
 62
253
  6
CONTINUOUS
 10
-55.0
 20
142.2679491924
 11
-55.0
 21
144.0
  0
LINE
  5
297
100
AcDbEntity
  8
COSMETICI
100
AcDbLine
 62
7
  6
CONTINUOUS
 10
-48.0
 20
-117.5
 11
-48.0
 21
-112.505410302
  0
LINE
  5
298
100
AcDbEntity
  8
SMUSSO
100
AcDbLine
 62
253
  6
CONTINUOUS
 10
-46.8508271005
 20
-129.2679491924
 11
-46.8508271005
 21
-131.0
  0
LINE
  5
299
100
AcDbEntity
  8
SMUSSO
100
AcDbLine
 62
253
  6
CONTINUOUS
 10
-46.8508271005
 20
142.2679491924
 11
-46.8508271005
 21
144.0
  0
LINE
  5
29A
100
AcDbEntity
  8
COSMETICI
100
AcDbLine
 62
7
  6
CONTINUOUS
 10
-46.460026236
 20
-113.75405731
 11
-46.460026236
 21
-114.378380814
  0
LINE
  5
29B
100
AcDbEntity
  8
COSMETICI
100
AcDbLine
 62
7
  6
CONTINUOUS
 10
-46.460026236
 20
-115.627029488
 11
-46.460026236
 21
-116.251352992
  0
LINE
  5
29C
100
AcDbEntity
  8
ASSI
100
AcDbLine
 62
7
  6
CONTINUOUS
 10
2.0331620976
 20
77.5226898562
 11
2.0191991091
 21
77.5087268678
  0
LINE
  5
29D
100
AcDbEntity
  8
RACCORDO
100
AcDbLine
 62
253
  6
CONTINUOUS
 10
6.09
 20
-53.679704076
 11
-27.71
 21
-53.679704076
  0
LINE
  5
29E
100
AcDbEntity
  8
RACCORDO
100
AcDbLine
 62
253
  6
CONTINUOUS
 10
6.09
 20
-53.479734537
 11
-27.71
 21
-53.479734537
  0
LINE
  5
29F
100
AcDbEntity
  8
DRAFT
100
AcDbLine
 62
7
  6
CONTINUOUS
 10
6.09
 20
-53.4552365195
 11
-27.71
 21
-53.4552365195
  0
LINE
  5
2A0
100
AcDbEntity
  8
SUPERFICI
100
AcDbLine
 62
7
  6
CONTINUOUS
 10
6.09
 20
-53.3
 11
-27.71
 21
-53.3
  0
LINE
  5
2A1
100
AcDbEntity
  8
0
100
AcDbLine
 62
7
  6
CONTINUOUS
 10
6.09
 20
-51.856624327
 11
-27.71
 21
-51.856624327
  0
LINE
  5
2A2
100
AcDbEntity
  8
SMUSSO
100
AcDbLine
 62
253
  6
CONTINUOUS
 10
42.53372845
 20
-130.8344247835
 11
43.644450044
 21
-132.1634460552
  0
LINE
  5
2A3
100
AcDbEntity
  8
COSMETICI
100
AcDbLine
 62
7
  6
CONTINUOUS
 10
-44.587437238
 20
-114.378380814
 11
-44.587437238
 21
-115.627029488
  0
LINE
  5
2A4
100
AcDbEntity
  8
COSMETICI
100
AcDbLine
 62
7
  6
CONTINUOUS
 10
-43.182039622
 20
-112.505410302
 11
-43.182039622
 21
-113.75405731
  0
LINE
  5
2A5
100
AcDbEntity
  8
COSMETICI
100
AcDbLine
 62
7
  6
CONTINUOUS
 10
-42.656353314
 20
-113.75405731
 11
-42.656353314
 21
-112.505410302
  0
LINE
  5
2A6
100
AcDbEntity
  8
COSMETICI
100
AcDbLine
 62
7
  6
CONTINUOUS
 10
-42.619268154
 20
-116.251352992
 11
-42.619268154
 21
-117.5
  0
LINE
  5
2A7
100
AcDbEntity
  8
COSMETICI
100
AcDbLine
 62
7
  6
CONTINUOUS
 10
-42.089376862
 20
-117.5
 11
-42.089376862
 21
-114.378380814
  0
LINE
  5
2A8
100
AcDbEntity
  8
COSMETICI
100
AcDbLine
 62
7
  6
CONTINUOUS
 10
-40.581900094
 20
-114.378380814
 11
-40.581900094
 21
-116.251352992
  0
LINE
  5
2A9
100
AcDbEntity
  8
COSMETICI
100
AcDbLine
 62
7
  6
CONTINUOUS
 10
-37.76498731
 20
-116.251352992
 11
-37.76498731
 21
-117.5
  0
LINE
  5
2AA
100
AcDbEntity
  8
COSMETICI
100
AcDbLine
 62
7
  6
CONTINUOUS
 10
-34.210203126
 20
-117.5
 11
-34.210203126
 21
-114.378380814
  0
LINE
  5
2AB
100
AcDbEntity
  8
0
100
AcDbLine
 62
7
  6
CONTINUOUS
 10
-27.71
 20
-45.743375673
 11
6.09
 21
-45.743375673
  0
LINE
  5
2AC
100
AcDbEntity
  8
SUPERFICI
100
AcDbLine
 62
7
  6
CONTINUOUS
 10
-27.71
 20
-44.3
 11
6.09
 21
-44.3
  0
LINE
  5
2AD
100
AcDbEntity
  8
DRAFT
100
AcDbLine
 62
7
  6
CONTINUOUS
 10
-27.71
 20
-44.1447634805
 11
6.09
 21
-44.1447634805
  0
LINE
  5
2AE
100
AcDbEntity
  8
RACCORDO
100
AcDbLine
 62
253
  6
CONTINUOUS
 10
-27.71
 20
-44.1202654631
 11
6.09
 21
-44.1202654631
  0
LINE
  5
2AF
100
AcDbEntity
  8
RACCORDO
100
AcDbLine
 62
253
  6
CONTINUOUS
 10
-27.71
 20
-43.920295924
 11
6.09
 21
-43.920295924
  0
LINE
  5
2B0
100
AcDbEntity
  8
ASSI
100
AcDbLine
 62
7
  6
CONTINUOUS
 10
-30.6808008909
 20
46.7238564442
 11
-30.6668379024
 21
45.4737994418
  0
LINE
  5
2B1
100
AcDbEntity
  8
ASSI
100
AcDbLine
 62
7
  6
CONTINUOUS
 10
-30.6808008909
 20
53.2738564442
 11
-30.6668379024
 21
52.0237994418
  0
LINE
  5
2B2
100
AcDbEntity
  8
ASSI
100
AcDbLine
 62
7
  6
CONTINUOUS
 10
-30.6808008909
 20
59.8238564442
 11
-30.6668379024
 21
58.5737994418
  0
LINE
  5
2B3
100
AcDbEntity
  8
ASSI
100
AcDbLine
 62
7
  6
CONTINUOUS
 10
-30.6808008909
 20
66.3738564442
 11
-30.6668379024
 21
65.1237994418
  0
LINE
  5
2B4
100
AcDbEntity
  8
ASSI
100
AcDbLine
 62
7
  6
CONTINUOUS
 10
-30.6803542523
 20
72.8838704708
 11
-30.6668379024
 21
71.6737994418
  0
LINE
  5
2B5
100
AcDbEntity
  8
ASSI
100
AcDbLine
 62
7
  6
CONTINUOUS
 10
-30.6798039691
 20
79.3846055631
 11
-30.6668379024
 21
78.2237994418
  0
LINE
  5
2B6
100
AcDbEntity
  8
COSMETICI
100
AcDbLine
 62
7
  6
CONTINUOUS
 10
-32.617215576
 20
-115.373999074
 11
-32.617215576
 21
-116.504383406
  0
LINE
  5
2B7
100
AcDbEntity
  8
ASSI
100
AcDbLine
 62
7
  6
CONTINUOUS
 10
-30.95
 20
78.575
 11
-30.95
 21
78.425
  0
LINE
  5
2B8
100
AcDbEntity
  8
ASSI
100
AcDbLine
 62
7
  6
CONTINUOUS
 10
-30.95
 20
72.075
 11
-30.95
 21
71.925
  0
LINE
  5
2B9
100
AcDbEntity
  8
ASSI
100
AcDbLine
 62
7
  6
CONTINUOUS
 10
-30.95
 20
65.575
 11
-30.95
 21
65.425
  0
LINE
  5
2BA
100
AcDbEntity
  8
ASSI
100
AcDbLine
 62
7
  6
CONTINUOUS
 10
-30.95
 20
59.075
 11
-30.95
 21
58.925
  0
LINE
  5
2BB
100
AcDbEntity
  8
ASSI
100
AcDbLine
 62
7
  6
CONTINUOUS
 10
-30.95
 20
52.575
 11
-30.95
 21
52.425
  0
LINE
  5
2BC
100
AcDbEntity
  8
ASSI
100
AcDbLine
 62
7
  6
CONTINUOUS
 10
-30.95
 20
46.075
 11
-30.95
 21
45.925
  0
LINE
  5
2BD
100
AcDbEntity
  8
ASSI
100
AcDbLine
 62
7
  6
CONTINUOUS
 10
-30.95
 20
39.575
 11
-30.95
 21
39.425
  0
LINE
  5
2BE
100
AcDbEntity
  8
ASSI
100
AcDbLine
 62
7
  6
CONTINUOUS
 10
-30.95
 20
33.075
 11
-30.95
 21
32.925
  0
LINE
  5
2BF
100
AcDbEntity
  8
ASSI
100
AcDbLine
 62
7
  6
CONTINUOUS
 10
-30.95
 20
26.575
 11
-30.95
 21
26.425
  0
LINE
  5
2C0
100
AcDbEntity
  8
COSMETICI
100
AcDbLine
 62
7
  6
CONTINUOUS
 10
-30.83612663
 20
-116.504383406
 11
-30.83612663
 21
-115.373999074
  0
LINE
  5
2C1
100
AcDbEntity
  8
ASSI
100
AcDbLine
 62
7
  6
CONTINUOUS
 10
-30.7191991091
 20
46.7238564442
 11
-30.7191991091
 21
46.8292261923
  0
LINE
  5
2C2
100
AcDbEntity
  8
ASSI
100
AcDbLine
 62
7
  6
CONTINUOUS
 10
-30.7191991091
 20
53.2738564442
 11
-30.7191991091
 21
53.3292261923
  0
LINE
  5
2C3
100
AcDbEntity
  8
ASSI
100
AcDbLine
 62
7
  6
CONTINUOUS
 10
-30.7
 20
25.0895277586
 11
-30.7
 21
27.357584081
  0
LINE
  5
2C4
100
AcDbEntity
  8
ASSI
100
AcDbLine
 62
7
  6
CONTINUOUS
 10
-30.7
 20
31.6395277586
 11
-30.7
 21
33.857584081
  0
LINE
  5
2C5
100
AcDbEntity
  8
ASSI
100
AcDbLine
 62
7
  6
CONTINUOUS
 10
-30.7
 20
38.1895277586
 11
-30.7
 21
40.357584081
  0
LINE
  5
2C6
100
AcDbEntity
  8
ASSI
100
AcDbLine
 62
7
  6
CONTINUOUS
 10
-30.6808008909
 20
79.3832738315
 11
-30.6808008909
 21
77.6167261685
  0
LINE
  5
2C7
100
AcDbEntity
  8
ASSI
100
AcDbLine
 62
7
  6
CONTINUOUS
 10
-30.6808008909
 20
72.8832738315
 11
-30.6808008909
 21
71.1167261685
  0
LINE
  5
2C8
100
AcDbEntity
  8
ASSI
100
AcDbLine
 62
7
  6
CONTINUOUS
 10
-30.6808008909
 20
66.3738564442
 11
-30.6808008909
 21
64.6167261685
  0
LINE
  5
2C9
100
AcDbEntity
  8
ASSI
100
AcDbLine
 62
7
  6
CONTINUOUS
 10
-30.6808008909
 20
59.8238564442
 11
-30.6808008909
 21
58.1167261685
  0
LINE
  5
2CA
100
AcDbEntity
  8
ASSI
100
AcDbLine
 62
7
  6
CONTINUOUS
 10
-30.6808008909
 20
53.2738564442
 11
-30.6808008909
 21
51.6167261685
  0
LINE
  5
2CB
100
AcDbEntity
  8
ASSI
100
AcDbLine
 62
7
  6
CONTINUOUS
 10
-30.6808008909
 20
46.7238564442
 11
-30.6808008909
 21
45.1167261685
  0
LINE
  5
2CC
100
AcDbEntity
  8
ASSI
100
AcDbLine
 62
7
  6
CONTINUOUS
 10
-30.6668379024
 20
78.2237994418
 11
-30.6668379024
 21
77.5226898562
  0
LINE
  5
2CD
100
AcDbEntity
  8
ASSI
100
AcDbLine
 62
7
  6
CONTINUOUS
 10
-30.6668379024
 20
71.6737994418
 11
-30.6668379024
 21
70.9726898562
  0
LINE
  5
2CE
100
AcDbEntity
  8
ASSI
100
AcDbLine
 62
7
  6
CONTINUOUS
 10
-30.6668379024
 20
65.1237994418
 11
-30.6668379024
 21
64.4226898562
  0
LINE
  5
2CF
100
AcDbEntity
  8
ASSI
100
AcDbLine
 62
7
  6
CONTINUOUS
 10
-30.6668379024
 20
58.5737994418
 11
-30.6668379024
 21
58.0980737996
  0
LINE
  5
2D0
100
AcDbEntity
  8
ASSI
100
AcDbLine
 62
7
  6
CONTINUOUS
 10
-30.6668379024
 20
52.0237994418
 11
-30.6668379024
 21
51.5980737996
  0
LINE
  5
2D1
100
AcDbEntity
  8
ASSI
100
AcDbLine
 62
7
  6
CONTINUOUS
 10
-30.6668379024
 20
45.4737994418
 11
-30.6668379024
 21
45.0980737996
  0
LINE
  5
2D2
100
AcDbEntity
  8
COSMETICI
100
AcDbLine
 62
7
  6
CONTINUOUS
 10
-29.24313908
 20
-114.378380814
 11
-29.24313908
 21
-117.5
  0
LINE
  5
2D3
100
AcDbEntity
  8
0
100
AcDbLine
 62
253
  6
CONTINUOUS
 10
-27.71
 20
-95.743375673
 11
-27.71
 21
-94.3
  0
LINE
  5
2D4
100
AcDbEntity
  8
RACCORDO
100
AcDbLine
 62
253
  6
CONTINUOUS
 10
-27.71
 20
-78.679704076
 11
-27.71
 21
-78.4552365195
  0
LINE
  5
2D5
100
AcDbEntity
  8
0
100
AcDbLine
 62
253
  6
CONTINUOUS
 10
-27.71
 20
-70.743375673
 11
-27.71
 21
-69.3
  0
LINE
  5
2D6
100
AcDbEntity
  8
RACCORDO
100
AcDbLine
 62
253
  6
CONTINUOUS
 10
-27.71
 20
-53.679704076
 11
-27.71
 21
-53.4552365195
  0
LINE
  5
2D7
100
AcDbEntity
  8
0
100
AcDbLine
 62
253
  6
CONTINUOUS
 10
-27.71
 20
-45.743375673
 11
-27.71
 21
-44.3
  0
LINE
  5
2D8
100
AcDbEntity
  8
RACCORDO
100
AcDbLine
 62
253
  6
CONTINUOUS
 10
-27.71
 20
-28.679704076
 11
-27.71
 21
-28.4552365195
  0
LINE
  5
2D9
100
AcDbEntity
  8
0
100
AcDbLine
 62
253
  6
CONTINUOUS
 10
-27.71
 20
-26.856624327
 11
-27.71
 21
-28.3
  0
LINE
  5
2DA
100
AcDbEntity
  8
RACCORDO
100
AcDbLine
 62
253
  6
CONTINUOUS
 10
-27.71
 20
-43.920295924
 11
-27.71
 21
-44.1447634805
  0
LINE
  5
2DB
100
AcDbEntity
  8
0
100
AcDbLine
 62
253
  6
CONTINUOUS
 10
-27.71
 20
-51.856624327
 11
-27.71
 21
-53.3
  0
LINE
  5
2DC
100
AcDbEntity
  8
RACCORDO
100
AcDbLine
 62
253
  6
CONTINUOUS
 10
-27.71
 20
-68.920295924
 11
-27.71
 21
-69.1447634805
  0
LINE
  5
2DD
100
AcDbEntity
  8
0
100
AcDbLine
 62
253
  6
CONTINUOUS
 10
-27.71
 20
-76.856624327
 11
-27.71
 21
-78.3
  0
LINE
  5
2DE
100
AcDbEntity
  8
RACCORDO
100
AcDbLine
 62
253
  6
CONTINUOUS
 10
-27.71
 20
-93.920295924
 11
-27.71
 21
-94.1447634805
  0
LINE
  5
2DF
100
AcDbEntity
  8
RACCORDO
100
AcDbLine
 62
253
  6
CONTINUOUS
 10
6.09
 20
-28.679704076
 11
-27.71
 21
-28.679704076
  0
LINE
  5
2E0
100
AcDbEntity
  8
RACCORDO
100
AcDbLine
 62
253
  6
CONTINUOUS
 10
6.09
 20
-28.479734537
 11
-27.71
 21
-28.479734537
  0
LINE
  5
2E1
100
AcDbEntity
  8
DRAFT
100
AcDbLine
 62
7
  6
CONTINUOUS
 10
6.09
 20
-28.4552365195
 11
-27.71
 21
-28.4552365195
  0
LINE
  5
2E2
100
AcDbEntity
  8
SUPERFICI
100
AcDbLine
 62
7
  6
CONTINUOUS
 10
6.09
 20
-28.3
 11
-27.71
 21
-28.3
  0
LINE
  5
2E3
100
AcDbEntity
  8
0
100
AcDbLine
 62
7
  6
CONTINUOUS
 10
6.09
 20
-26.856624327
 11
-27.71
 21
-26.856624327
  0
LINE
  5
2E4
100
AcDbEntity
  8
ASSI
100
AcDbLine
 62
7
  6
CONTINUOUS
 10
-16.9903080634
 20
27.925
 11
-16.9808008909
 21
27.0738564442
  0
LINE
  5
2E5
100
AcDbEntity
  8
ASSI
100
AcDbLine
 62
7
  6
CONTINUOUS
 10
-16.9897495694
 20
34.425
 11
-16.9808008909
 21
33.6238564442
  0
LINE
  5
2E6
100
AcDbEntity
  8
ASSI
100
AcDbLine
 62
7
  6
CONTINUOUS
 10
-16.9891910753
 20
40.925
 11
-16.9808008909
 21
40.1738564442
  0
LINE
  5
2E7
100
AcDbEntity
  8
ASSI
100
AcDbLine
 62
7
  6
CONTINUOUS
 10
-16.9703286495
 20
78.5363136924
 11
-16.9858401109
 21
79.925
  0
LINE
  5
2E8
100
AcDbEntity
  8
RACCORDO
100
AcDbLine
 62
253
  6
CONTINUOUS
 10
-17.0
 20
-3.679704076
 11
-17.0
 21
-3.4552365195
  0
LINE
  5
2E9
100
AcDbEntity
  8
RACCORDO
100
AcDbLine
 62
253
  6
CONTINUOUS
 10
-17.0
 20
-18.920295924
 11
-17.0
 21
-19.1447634805
  0
LINE
  5
2EA
100
AcDbEntity
  8
ASSI
100
AcDbLine
 62
7
  6
CONTINUOUS
 10
-16.9808008909
 20
27.0738564442
 11
-16.9808008909
 21
27.925
  0
LINE
  5
2EB
100
AcDbEntity
  8
ASSI
100
AcDbLine
 62
7
  6
CONTINUOUS
 10
-16.9808008909
 20
33.6238564442
 11
-16.9808008909
 21
34.425
  0
LINE
  5
2EC
100
AcDbEntity
  8
ASSI
100
AcDbLine
 62
7
  6
CONTINUOUS
 10
-16.9808008909
 20
40.1738564442
 11
-16.9808008909
 21
40.925
  0
LINE
  5
2ED
100
AcDbEntity
  8
ASSI
100
AcDbLine
 62
7
  6
CONTINUOUS
 10
-16.9808008909
 20
46.7238564442
 11
-16.9808008909
 21
47.425
  0
LINE
  5
2EE
100
AcDbEntity
  8
ASSI
100
AcDbLine
 62
7
  6
CONTINUOUS
 10
-16.9808008909
 20
53.2738564442
 11
-16.9808008909
 21
53.925
  0
LINE
  5
2EF
100
AcDbEntity
  8
ASSI
100
AcDbLine
 62
7
  6
CONTINUOUS
 10
-16.9808008909
 20
59.8238564442
 11
-16.9808008909
 21
60.425
  0
LINE
  5
2F0
100
AcDbEntity
  8
ASSI
100
AcDbLine
 62
7
  6
CONTINUOUS
 10
-16.9808008909
 20
66.3738564442
 11
-16.9808008909
 21
66.925
  0
LINE
  5
2F1
100
AcDbEntity
  8
ASSI
100
AcDbLine
 62
7
  6
CONTINUOUS
 10
-16.9808008909
 20
72.9238564442
 11
-16.9808008909
 21
73.425
  0
LINE
  5
2F2
100
AcDbEntity
  8
ASSI
100
AcDbLine
 62
7
  6
CONTINUOUS
 10
-16.9703286495
 20
79.925
 11
-16.9703286495
 21
78.5363136924
  0
LINE
  5
2F3
100
AcDbEntity
  8
DRAFT
100
AcDbLine
 62
253
  6
CONTINUOUS
 10
-16.9
 20
-3.3
 11
-16.9
 21
-1.856624327
  0
LINE
  5
2F4
100
AcDbEntity
  8
DRAFT
100
AcDbLine
 62
253
  6
CONTINUOUS
 10
-16.9
 20
-19.3
 11
-16.9
 21
-20.743375673
  0
LINE
  5
2F5
100
AcDbEntity
  8
ASSI
100
AcDbLine
 62
7
  6
CONTINUOUS
 10
-15.7296713505
 20
78.5363136924
 11
-15.7296713505
 21
79.925
  0
LINE
  5
2F6
100
AcDbEntity
  8
ASSI
100
AcDbLine
 62
7
  6
CONTINUOUS
 10
-15.7191991091
 20
73.425
 11
-15.7191991091
 21
72.9238564442
  0
LINE
  5
2F7
100
AcDbEntity
  8
ASSI
100
AcDbLine
 62
7
  6
CONTINUOUS
 10
-15.7191991091
 20
66.925
 11
-15.7191991091
 21
66.3738564442
  0
LINE
  5
2F8
100
AcDbEntity
  8
ASSI
100
AcDbLine
 62
7
  6
CONTINUOUS
 10
-15.7191991091
 20
60.425
 11
-15.7191991091
 21
59.8238564442
  0
LINE
  5
2F9
100
AcDbEntity
  8
ASSI
100
AcDbLine
 62
7
  6
CONTINUOUS
 10
-15.7191991091
 20
53.925
 11
-15.7191991091
 21
53.2738564442
  0
LINE
  5
2FA
100
AcDbEntity
  8
ASSI
100
AcDbLine
 62
7
  6
CONTINUOUS
 10
-15.7191991091
 20
47.425
 11
-15.7191991091
 21
46.7238564442
  0
LINE
  5
2FB
100
AcDbEntity
  8
ASSI
100
AcDbLine
 62
7
  6
CONTINUOUS
 10
-15.7191991091
 20
40.925
 11
-15.7191991091
 21
40.1738564442
  0
LINE
  5
2FC
100
AcDbEntity
  8
ASSI
100
AcDbLine
 62
7
  6
CONTINUOUS
 10
-15.7191991091
 20
34.425
 11
-15.7191991091
 21
33.6238564442
  0
LINE
  5
2FD
100
AcDbEntity
  8
ASSI
100
AcDbLine
 62
7
  6
CONTINUOUS
 10
-15.7191991091
 20
27.925
 11
-15.7191991091
 21
27.0738564442
  0
LINE
  5
2FE
100
AcDbEntity
  8
ASSI
100
AcDbLine
 62
7
  6
CONTINUOUS
 10
-15.7141598891
 20
79.925
 11
-15.7296713505
 21
78.5363136924
  0
LINE
  5
2FF
100
AcDbEntity
  8
ASSI
100
AcDbLine
 62
7
  6
CONTINUOUS
 10
-15.7136013951
 20
73.425
 11
-15.7191991091
 21
72.9238564442
  0
LINE
  5
300
100
AcDbEntity
  8
ASSI
100
AcDbLine
 62
7
  6
CONTINUOUS
 10
-15.713042901
 20
66.925
 11
-15.7191991091
 21
66.3738564442
  0
LINE
  5
301
100
AcDbEntity
  8
ASSI
100
AcDbLine
 62
7
  6
CONTINUOUS
 10
-15.7124844069
 20
60.425
 11
-15.7191991091
 21
59.8238564442
  0
LINE
  5
302
100
AcDbEntity
  8
ASSI
100
AcDbLine
 62
7
  6
CONTINUOUS
 10
-15.7119259128
 20
53.925
 11
-15.7191991091
 21
53.2738564442
  0
LINE
  5
303
100
AcDbEntity
  8
ASSI
100
AcDbLine
 62
7
  6
CONTINUOUS
 10
-15.7113674188
 20
47.425
 11
-15.7191991091
 21
46.7238564442
  0
LINE
  5
304
100
AcDbEntity
  8
ASSI
100
AcDbLine
 62
7
  6
CONTINUOUS
 10
-15.7108089247
 20
40.925
 11
-15.7191991091
 21
40.1738564442
  0
LINE
  5
305
100
AcDbEntity
  8
ASSI
100
AcDbLine
 62
7
  6
CONTINUOUS
 10
-15.7102504306
 20
34.425
 11
-15.7191991091
 21
33.6238564442
  0
LINE
  5
306
100
AcDbEntity
  8
ASSI
100
AcDbLine
 62
7
  6
CONTINUOUS
 10
-15.7096919366
 20
27.925
 11
-15.7191991091
 21
27.0738564442
  0
LINE
  5
307
100
AcDbEntity
  8
DRAFT
100
AcDbLine
 62
7
  6
CONTINUOUS
 10
-16.9
 20
-20.743375673
 11
16.9
 21
-20.743375673
  0
LINE
  5
308
100
AcDbEntity
  8
DRAFT
100
AcDbLine
 62
7
  6
CONTINUOUS
 10
-16.9
 20
-19.3
 11
16.9
 21
-19.3
  0
LINE
  5
309
100
AcDbEntity
  8
DRAFT
100
AcDbLine
 62
7
  6
CONTINUOUS
 10
-17.0
 20
-19.1447634805
 11
16.8
 21
-19.1447634805
  0
LINE
  5
30A
100
AcDbEntity
  8
RACCORDO
100
AcDbLine
 62
253
  6
CONTINUOUS
 10
-17.0
 20
-19.1202654631
 11
16.8
 21
-19.1202654631
  0
LINE
  5
30B
100
AcDbEntity
  8
RACCORDO
100
AcDbLine
 62
253
  6
CONTINUOUS
 10
-17.0
 20
-18.920295924
 11
16.8
 21
-18.920295924
  0
LINE
  5
30C
100
AcDbEntity
  8
ASSI
100
AcDbLine
 62
7
  6
CONTINUOUS
 10
-1.9808008909
 20
46.7238564442
 11
-1.9834740001
 21
46.9631704623
  0
LINE
  5
30D
100
AcDbEntity
  8
ASSI
100
AcDbLine
 62
7
  6
CONTINUOUS
 10
-2.0331620976
 20
78.2237994418
 11
-2.0331620976
 21
77.5226898562
  0
LINE
  5
30E
100
AcDbEntity
  8
ASSI
100
AcDbLine
 62
7
  6
CONTINUOUS
 10
-2.0331620976
 20
71.6737994418
 11
-2.0331620976
 21
70.9726898562
  0
LINE
  5
30F
100
AcDbEntity
  8
ASSI
100
AcDbLine
 62
7
  6
CONTINUOUS
 10
-2.0331620976
 20
65.1237994418
 11
-2.0331620976
 21
64.4226898562
  0
LINE
  5
310
100
AcDbEntity
  8
ASSI
100
AcDbLine
 62
7
  6
CONTINUOUS
 10
-2.0331620976
 20
58.5737994418
 11
-2.0331620976
 21
57.8726898562
  0
LINE
  5
311
100
AcDbEntity
  8
ASSI
100
AcDbLine
 62
7
  6
CONTINUOUS
 10
-2.0331620976
 20
52.0237994418
 11
-2.0331620976
 21
51.3226898562
  0
LINE
  5
312
100
AcDbEntity
  8
ASSI
100
AcDbLine
 62
7
  6
CONTINUOUS
 10
-2.0331620976
 20
45.4737994418
 11
-2.0331620976
 21
44.9832065925
  0
LINE
  5
313
100
AcDbEntity
  8
ASSI
100
AcDbLine
 62
7
  6
CONTINUOUS
 10
-2.0191991091
 20
44.9975419252
 11
-2.0191991091
 21
46.7238564442
  0
LINE
  5
314
100
AcDbEntity
  8
ASSI
100
AcDbLine
 62
7
  6
CONTINUOUS
 10
-2.0191991091
 20
51.4975419252
 11
-2.0191991091
 21
53.2738564442
  0
LINE
  5
315
100
AcDbEntity
  8
ASSI
100
AcDbLine
 62
7
  6
CONTINUOUS
 10
-2.0191991091
 20
57.9975419252
 11
-2.0191991091
 21
59.8238564442
  0
LINE
  5
316
100
AcDbEntity
  8
ASSI
100
AcDbLine
 62
7
  6
CONTINUOUS
 10
-2.0191991091
 20
64.4975419252
 11
-2.0191991091
 21
66.3738564442
  0
LINE
  5
317
100
AcDbEntity
  8
ASSI
100
AcDbLine
 62
7
  6
CONTINUOUS
 10
-2.0191991091
 20
70.9975419252
 11
-2.0191991091
 21
72.9238564442
  0
LINE
  5
318
100
AcDbEntity
  8
ASSI
100
AcDbLine
 62
7
  6
CONTINUOUS
 10
-2.0191991091
 20
77.5087268678
 11
-2.0191991091
 21
79.4738564442
  0
LINE
  5
319
100
AcDbEntity
  8
ASSI
100
AcDbLine
 62
7
  6
CONTINUOUS
 10
-2.0
 20
40.4813444329
 11
-2.0
 21
38.1895277586
  0
LINE
  5
31A
100
AcDbEntity
  8
ASSI
100
AcDbLine
 62
7
  6
CONTINUOUS
 10
-2.0
 20
33.9813444329
 11
-2.0
 21
31.6395277586
  0
LINE
  5
31B
100
AcDbEntity
  8
ASSI
100
AcDbLine
 62
7
  6
CONTINUOUS
 10
-2.0
 20
27.4813444329
 11
-2.0
 21
25.0895277586
  0
LINE
  5
31C
100
AcDbEntity
  8
ASSI
100
AcDbLine
 62
7
  6
CONTINUOUS
 10
-1.9808008909
 20
72.960230791
 11
-1.9808008909
 21
72.9238564442
  0
LINE
  5
31D
100
AcDbEntity
  8
ASSI
100
AcDbLine
 62
7
  6
CONTINUOUS
 10
-1.9808008909
 20
66.460230791
 11
-1.9808008909
 21
66.3738564442
  0
LINE
  5
31E
100
AcDbEntity
  8
ASSI
100
AcDbLine
 62
7
  6
CONTINUOUS
 10
-1.9808008909
 20
59.960230791
 11
-1.9808008909
 21
59.8238564442
  0
LINE
  5
31F
100
AcDbEntity
  8
ASSI
100
AcDbLine
 62
7
  6
CONTINUOUS
 10
-1.9808008909
 20
53.460230791
 11
-1.9808008909
 21
53.2738564442
  0
LINE
  5
320
100
AcDbEntity
  8
ASSI
100
AcDbLine
 62
7
  6
CONTINUOUS
 10
-1.9808008909
 20
46.960230791
 11
-1.9808008909
 21
46.7238564442
  0
LINE
  5
321
100
AcDbEntity
  8
ASSI
100
AcDbLine
 62
7
  6
CONTINUOUS
 10
-1.65
 20
26.425
 11
-1.65
 21
26.575
  0
LINE
  5
322
100
AcDbEntity
  8
ASSI
100
AcDbLine
 62
7
  6
CONTINUOUS
 10
-1.65
 20
32.925
 11
-1.65
 21
33.075
  0
LINE
  5
323
100
AcDbEntity
  8
ASSI
100
AcDbLine
 62
7
  6
CONTINUOUS
 10
-1.65
 20
39.425
 11
-1.65
 21
39.575
  0
LINE
  5
324
100
AcDbEntity
  8
ASSI
100
AcDbLine
 62
7
  6
CONTINUOUS
 10
-1.65
 20
45.925
 11
-1.65
 21
46.075
  0
LINE
  5
325
100
AcDbEntity
  8
ASSI
100
AcDbLine
 62
7
  6
CONTINUOUS
 10
-1.65
 20
52.425
 11
-1.65
 21
52.575
  0
LINE
  5
326
100
AcDbEntity
  8
ASSI
100
AcDbLine
 62
7
  6
CONTINUOUS
 10
-1.65
 20
58.925
 11
-1.65
 21
59.075
  0
LINE
  5
327
100
AcDbEntity
  8
ASSI
100
AcDbLine
 62
7
  6
CONTINUOUS
 10
-1.65
 20
65.425
 11
-1.65
 21
65.575
  0
LINE
  5
328
100
AcDbEntity
  8
ASSI
100
AcDbLine
 62
7
  6
CONTINUOUS
 10
-1.65
 20
71.925
 11
-1.65
 21
72.075
  0
LINE
  5
329
100
AcDbEntity
  8
ASSI
100
AcDbLine
 62
7
  6
CONTINUOUS
 10
-1.65
 20
78.425
 11
-1.65
 21
78.575
  0
LINE
  5
32A
100
AcDbEntity
  8
ASSI
100
AcDbLine
 62
7
  6
CONTINUOUS
 10
-2.0191991091
 20
79.4738564442
 11
-2.0331620976
 21
78.2237994418
  0
LINE
  5
32B
100
AcDbEntity
  8
ASSI
100
AcDbLine
 62
7
  6
CONTINUOUS
 10
-2.0191991091
 20
72.9238564442
 11
-2.0331620976
 21
71.6737994418
  0
LINE
  5
32C
100
AcDbEntity
  8
ASSI
100
AcDbLine
 62
7
  6
CONTINUOUS
 10
-2.0191991091
 20
66.3738564442
 11
-2.0331620976
 21
65.1237994418
  0
LINE
  5
32D
100
AcDbEntity
  8
ASSI
100
AcDbLine
 62
7
  6
CONTINUOUS
 10
-2.0191991091
 20
59.8238564442
 11
-2.0331620976
 21
58.5737994418
  0
LINE
  5
32E
100
AcDbEntity
  8
ASSI
100
AcDbLine
 62
7
  6
CONTINUOUS
 10
-2.0191991091
 20
53.2738564442
 11
-2.0331620976
 21
52.0237994418
  0
LINE
  5
32F
100
AcDbEntity
  8
ASSI
100
AcDbLine
 62
7
  6
CONTINUOUS
 10
-2.0191991091
 20
46.7238564442
 11
-2.0331620976
 21
45.4737994418
  0
LINE
  5
330
100
AcDbEntity
  8
RACCORDO
100
AcDbLine
 62
253
  6
CONTINUOUS
 10
16.8
 20
-3.679704076
 11
-17.0
 21
-3.679704076
  0
LINE
  5
331
100
AcDbEntity
  8
RACCORDO
100
AcDbLine
 62
253
  6
CONTINUOUS
 10
16.8
 20
-3.479734537
 11
-17.0
 21
-3.479734537
  0
LINE
  5
332
100
AcDbEntity
  8
DRAFT
100
AcDbLine
 62
7
  6
CONTINUOUS
 10
16.8
 20
-3.4552365195
 11
-17.0
 21
-3.4552365195
  0
LINE
  5
333
100
AcDbEntity
  8
DRAFT
100
AcDbLine
 62
7
  6
CONTINUOUS
 10
16.9
 20
-3.3
 11
-16.9
 21
-3.3
  0
LINE
  5
334
100
AcDbEntity
  8
DRAFT
100
AcDbLine
 62
7
  6
CONTINUOUS
 10
16.9
 20
-1.856624327
 11
-16.9
 21
-1.856624327
  0
LINE
  5
335
100
AcDbEntity
  8
ASSI
100
AcDbLine
 62
7
  6
CONTINUOUS
 10
2.0191991091
 20
46.7238564442
 11
2.0331620976
 21
45.4737994418
  0
LINE
  5
336
100
AcDbEntity
  8
ASSI
100
AcDbLine
 62
7
  6
CONTINUOUS
 10
2.0191991091
 20
53.2738564442
 11
2.0331620976
 21
52.0237994418
  0
LINE
  5
337
100
AcDbEntity
  8
ASSI
100
AcDbLine
 62
7
  6
CONTINUOUS
 10
2.0191991091
 20
59.8238564442
 11
2.0331620976
 21
58.5737994418
  0
LINE
  5
338
100
AcDbEntity
  8
ASSI
100
AcDbLine
 62
7
  6
CONTINUOUS
 10
2.0191991091
 20
66.3738564442
 11
2.0331620976
 21
65.1237994418
  0
LINE
  5
339
100
AcDbEntity
  8
ASSI
100
AcDbLine
 62
7
  6
CONTINUOUS
 10
2.0191991091
 20
72.9238564442
 11
2.0331620976
 21
71.6737994418
  0
LINE
  5
33A
100
AcDbEntity
  8
ASSI
100
AcDbLine
 62
7
  6
CONTINUOUS
 10
2.0191991091
 20
79.4738564442
 11
2.0331620976
 21
78.2237994418
  0
LINE
  5
33B
100
AcDbEntity
  8
ASSI
100
AcDbLine
 62
7
  6
CONTINUOUS
 10
1.65
 20
78.575
 11
1.65
 21
78.425
  0
LINE
  5
33C
100
AcDbEntity
  8
ASSI
100
AcDbLine
 62
7
  6
CONTINUOUS
 10
1.65
 20
72.075
 11
1.65
 21
71.925
  0
LINE
  5
33D
100
AcDbEntity
  8
ASSI
100
AcDbLine
 62
7
  6
CONTINUOUS
 10
1.65
 20
65.575
 11
1.65
 21
65.425
  0
LINE
  5
33E
100
AcDbEntity
  8
ASSI
100
AcDbLine
 62
7
  6
CONTINUOUS
 10
1.65
 20
59.075
 11
1.65
 21
58.925
  0
LINE
  5
33F
100
AcDbEntity
  8
ASSI
100
AcDbLine
 62
7
  6
CONTINUOUS
 10
1.65
 20
52.575
 11
1.65
 21
52.425
  0
LINE
  5
340
100
AcDbEntity
  8
ASSI
100
AcDbLine
 62
7
  6
CONTINUOUS
 10
1.65
 20
46.075
 11
1.65
 21
45.925
  0
LINE
  5
341
100
AcDbEntity
  8
ASSI
100
AcDbLine
 62
7
  6
CONTINUOUS
 10
1.65
 20
39.575
 11
1.65
 21
39.425
  0
LINE
  5
342
100
AcDbEntity
  8
ASSI
100
AcDbLine
 62
7
  6
CONTINUOUS
 10
1.65
 20
33.075
 11
1.65
 21
32.925
  0
LINE
  5
343
100
AcDbEntity
  8
ASSI
100
AcDbLine
 62
7
  6
CONTINUOUS
 10
1.65
 20
26.575
 11
1.65
 21
26.425
  0
LINE
  5
344
100
AcDbEntity
  8
ASSI
100
AcDbLine
 62
7
  6
CONTINUOUS
 10
1.9886550719
 20
27.0738564442
 11
1.9886550719
 21
27.4688681899
  0
LINE
  5
345
100
AcDbEntity
  8
ASSI
100
AcDbLine
 62
7
  6
CONTINUOUS
 10
1.9886550719
 20
33.6238564442
 11
1.9886550719
 21
33.9688681899
  0
LINE
  5
346
100
AcDbEntity
  8
ASSI
100
AcDbLine
 62
7
  6
CONTINUOUS
 10
1.9886550719
 20
40.1738564442
 11
1.9886550719
 21
40.4688681899
  0
LINE
  5
347
100
AcDbEntity
  8
ASSI
100
AcDbLine
 62
7
  6
CONTINUOUS
 10
1.9886550719
 20
46.7238564442
 11
1.9886550719
 21
46.9688681899
  0
LINE
  5
348
100
AcDbEntity
  8
ASSI
100
AcDbLine
 62
7
  6
CONTINUOUS
 10
1.9886550719
 20
53.2738564442
 11
1.9886550719
 21
53.4688681899
  0
LINE
  5
349
100
AcDbEntity
  8
ASSI
100
AcDbLine
 62
7
  6
CONTINUOUS
 10
1.9886550719
 20
59.8238564442
 11
1.9886550719
 21
59.9688681899
  0
LINE
  5
34A
100
AcDbEntity
  8
ASSI
100
AcDbLine
 62
7
  6
CONTINUOUS
 10
1.9886550719
 20
66.3738564442
 11
1.9886550719
 21
66.4688681899
  0
LINE
  5
34B
100
AcDbEntity
  8
ASSI
100
AcDbLine
 62
7
  6
CONTINUOUS
 10
1.9886550719
 20
72.9238564442
 11
1.9886550719
 21
72.9688681899
  0
LINE
  5
34C
100
AcDbEntity
  8
ASSI
100
AcDbLine
 62
7
  6
CONTINUOUS
 10
2.0
 20
40.1738564442
 11
2.0
 21
38.1895277586
  0
LINE
  5
34D
100
AcDbEntity
  8
ASSI
100
AcDbLine
 62
7
  6
CONTINUOUS
 10
2.0
 20
33.6238564442
 11
2.0
 21
31.6395277586
  0
LINE
  5
34E
100
AcDbEntity
  8
ASSI
100
AcDbLine
 62
7
  6
CONTINUOUS
 10
2.0
 20
27.0738564442
 11
2.0
 21
25.0895277586
  0
LINE
  5
34F
100
AcDbEntity
  8
ASSI
100
AcDbLine
 62
7
  6
CONTINUOUS
 10
2.0191991091
 20
79.4738564442
 11
2.0191991091
 21
77.5087268678
  0
LINE
  5
350
100
AcDbEntity
  8
ASSI
100
AcDbLine
 62
7
  6
CONTINUOUS
 10
2.0191991091
 20
72.9238564442
 11
2.0191991091
 21
70.9975419252
  0
LINE
  5
351
100
AcDbEntity
  8
ASSI
100
AcDbLine
 62
7
  6
CONTINUOUS
 10
2.0191991091
 20
66.3738564442
 11
2.0191991091
 21
64.4975419252
  0
LINE
  5
352
100
AcDbEntity
  8
ASSI
100
AcDbLine
 62
7
  6
CONTINUOUS
 10
2.0191991091
 20
59.8238564442
 11
2.0191991091
 21
57.9975419252
  0
LINE
  5
353
100
AcDbEntity
  8
ASSI
100
AcDbLine
 62
7
  6
CONTINUOUS
 10
2.0191991091
 20
53.2738564442
 11
2.0191991091
 21
51.4975419252
  0
LINE
  5
354
100
AcDbEntity
  8
ASSI
100
AcDbLine
 62
7
  6
CONTINUOUS
 10
2.0191991091
 20
46.7238564442
 11
2.0191991091
 21
44.9975419252
  0
LINE
  5
355
100
AcDbEntity
  8
ASSI
100
AcDbLine
 62
7
  6
CONTINUOUS
 10
2.0331620976
 20
78.2237994418
 11
2.0331620976
 21
77.5226898562
  0
LINE
  5
356
100
AcDbEntity
  8
ASSI
100
AcDbLine
 62
7
  6
CONTINUOUS
 10
2.0331620976
 20
71.6737994418
 11
2.0331620976
 21
70.9726898562
  0
LINE
  5
357
100
AcDbEntity
  8
ASSI
100
AcDbLine
 62
7
  6
CONTINUOUS
 10
2.0331620976
 20
65.1237994418
 11
2.0331620976
 21
64.4226898562
  0
LINE
  5
358
100
AcDbEntity
  8
ASSI
100
AcDbLine
 62
7
  6
CONTINUOUS
 10
2.0331620976
 20
58.5737994418
 11
2.0331620976
 21
57.8726898562
  0
LINE
  5
359
100
AcDbEntity
  8
ASSI
100
AcDbLine
 62
7
  6
CONTINUOUS
 10
2.0331620976
 20
52.0237994418
 11
2.0331620976
 21
51.3226898562
  0
LINE
  5
35A
100
AcDbEntity
  8
ASSI
100
AcDbLine
 62
7
  6
CONTINUOUS
 10
2.0331620976
 20
45.4737994418
 11
2.0331620976
 21
44.9832065925
  0
LINE
  5
35B
100
AcDbEntity
  8
0
100
AcDbLine
 62
253
  6
CONTINUOUS
 10
6.09
 20
-95.743375673
 11
6.09
 21
-94.3
  0
LINE
  5
35C
100
AcDbEntity
  8
RACCORDO
100
AcDbLine
 62
253
  6
CONTINUOUS
 10
6.09
 20
-78.679704076
 11
6.09
 21
-78.4552365195
  0
LINE
  5
35D
100
AcDbEntity
  8
0
100
AcDbLine
 62
253
  6
CONTINUOUS
 10
6.09
 20
-70.743375673
 11
6.09
 21
-69.3
  0
LINE
  5
35E
100
AcDbEntity
  8
RACCORDO
100
AcDbLine
 62
253
  6
CONTINUOUS
 10
6.09
 20
-53.679704076
 11
6.09
 21
-53.4552365195
  0
LINE
  5
35F
100
AcDbEntity
  8
0
100
AcDbLine
 62
253
  6
CONTINUOUS
 10
6.09
 20
-45.743375673
 11
6.09
 21
-44.3
  0
LINE
  5
360
100
AcDbEntity
  8
RACCORDO
100
AcDbLine
 62
253
  6
CONTINUOUS
 10
6.09
 20
-28.679704076
 11
6.09
 21
-28.4552365195
  0
LINE
  5
361
100
AcDbEntity
  8
0
100
AcDbLine
 62
253
  6
CONTINUOUS
 10
6.09
 20
-26.856624327
 11
6.09
 21
-28.3
  0
LINE
  5
362
100
AcDbEntity
  8
RACCORDO
100
AcDbLine
 62
253
  6
CONTINUOUS
 10
6.09
 20
-43.920295924
 11
6.09
 21
-44.1447634805
  0
LINE
  5
363
100
AcDbEntity
  8
0
100
AcDbLine
 62
253
  6
CONTINUOUS
 10
6.09
 20
-51.856624327
 11
6.09
 21
-53.3
  0
LINE
  5
364
100
AcDbEntity
  8
RACCORDO
100
AcDbLine
 62
253
  6
CONTINUOUS
 10
6.09
 20
-68.920295924
 11
6.09
 21
-69.1447634805
  0
LINE
  5
365
100
AcDbEntity
  8
0
100
AcDbLine
 62
253
  6
CONTINUOUS
 10
6.09
 20
-76.856624327
 11
6.09
 21
-78.3
  0
LINE
  5
366
100
AcDbEntity
  8
RACCORDO
100
AcDbLine
 62
253
  6
CONTINUOUS
 10
6.09
 20
-93.920295924
 11
6.09
 21
-94.1447634805
  0
LINE
  5
367
100
AcDbEntity
  8
ASSI
100
AcDbLine
 62
7
  6
CONTINUOUS
 10
1.9886550719
 20
27.0738564442
 11
1.9930185058
 21
27.4644992574
  0
LINE
  5
368
100
AcDbEntity
  8
DRAFT
100
AcDbLine
 62
7
  6
CONTINUOUS
 10
38.5
 20
-117.5
 11
38.3358723834
 21
-116.7555931305
  0
LINE
  5
369
100
AcDbEntity
  8
DRAFT
100
AcDbLine
 62
7
  6
CONTINUOUS
 10
38.5
 20
-115.2
 11
38.3358723834
 21
-114.4555931305
  0
LINE
  5
36A
100
AcDbEntity
  8
DRAFT
100
AcDbLine
 62
7
  6
CONTINUOUS
 10
38.5
 20
-112.9
 11
38.3358723834
 21
-112.1555931305
  0
LINE
  5
36B
100
AcDbEntity
  8
ASSI
100
AcDbLine
 62
7
  6
CONTINUOUS
 10
15.7029547437
 20
40.925
 11
15.7113449281
 21
40.1738564442
  0
LINE
  5
36C
100
AcDbEntity
  8
ASSI
100
AcDbLine
 62
7
  6
CONTINUOUS
 10
15.7218171695
 20
78.5363136924
 11
15.7063057081
 21
79.925
  0
LINE
  5
36D
100
AcDbEntity
  8
DRAFT
100
AcDbLine
 62
7
  6
CONTINUOUS
 10
13.9847634805
 20
-35.0077294206
 11
13.9847634805
 21
-37.5922705794
  0
LINE
  5
36E
100
AcDbEntity
  8
DRAFT
100
AcDbLine
 62
7
  6
CONTINUOUS
 10
13.9847634805
 20
-60.0077294206
 11
13.9847634805
 21
-62.5922705794
  0
LINE
  5
36F
100
AcDbEntity
  8
DRAFT
100
AcDbLine
 62
7
  6
CONTINUOUS
 10
13.9847634805
 20
-85.0077294206
 11
13.9847634805
 21
-87.5922705794
  0
LINE
  5
370
100
AcDbEntity
  8
DRAFT
100
AcDbLine
 62
7
  6
CONTINUOUS
 10
13.99
 20
-35.0430316474
 11
13.99
 21
-37.5569683527
  0
LINE
  5
371
100
AcDbEntity
  8
DRAFT
100
AcDbLine
 62
7
  6
CONTINUOUS
 10
13.99
 20
-60.0430316474
 11
13.99
 21
-62.5569683527
  0
LINE
  5
372
100
AcDbEntity
  8
DRAFT
100
AcDbLine
 62
7
  6
CONTINUOUS
 10
13.99
 20
-85.0430316474
 11
13.99
 21
-87.5569683527
  0
LINE
  5
373
100
AcDbEntity
  8
ASSI
100
AcDbLine
 62
7
  6
CONTINUOUS
 10
15.7113449281
 20
27.0738564442
 11
15.7113449281
 21
27.925
  0
LINE
  5
374
100
AcDbEntity
  8
ASSI
100
AcDbLine
 62
7
  6
CONTINUOUS
 10
15.7113449281
 20
33.6238564442
 11
15.7113449281
 21
34.425
  0
LINE
  5
375
100
AcDbEntity
  8
ASSI
100
AcDbLine
 62
7
  6
CONTINUOUS
 10
15.7113449281
 20
40.1738564442
 11
15.7113449281
 21
40.925
  0
LINE
  5
376
100
AcDbEntity
  8
ASSI
100
AcDbLine
 62
7
  6
CONTINUOUS
 10
15.7113449281
 20
46.7238564442
 11
15.7113449281
 21
47.425
  0
LINE
  5
377
100
AcDbEntity
  8
ASSI
100
AcDbLine
 62
7
  6
CONTINUOUS
 10
15.7113449281
 20
53.2738564442
 11
15.7113449281
 21
53.925
  0
LINE
  5
378
100
AcDbEntity
  8
ASSI
100
AcDbLine
 62
7
  6
CONTINUOUS
 10
15.7113449281
 20
59.8238564442
 11
15.7113449281
 21
60.425
  0
LINE
  5
379
100
AcDbEntity
  8
ASSI
100
AcDbLine
 62
7
  6
CONTINUOUS
 10
15.7113449281
 20
66.3738564442
 11
15.7113449281
 21
66.925
  0
LINE
  5
37A
100
AcDbEntity
  8
ASSI
100
AcDbLine
 62
7
  6
CONTINUOUS
 10
15.7113449281
 20
72.9238564442
 11
15.7113449281
 21
73.425
  0
LINE
  5
37B
100
AcDbEntity
  8
ASSI
100
AcDbLine
 62
7
  6
CONTINUOUS
 10
15.7218171695
 20
79.925
 11
15.7218171695
 21
78.5363136924
  0
LINE
  5
37C
100
AcDbEntity
  8
RACCORDO
100
AcDbLine
 62
253
  6
CONTINUOUS
 10
16.8
 20
-3.679704076
 11
16.8
 21
-3.4552365195
  0
LINE
  5
37D
100
AcDbEntity
  8
RACCORDO
100
AcDbLine
 62
253
  6
CONTINUOUS
 10
16.8
 20
-18.920295924
 11
16.8
 21
-19.1447634805
  0
LINE
  5
37E
100
AcDbEntity
  8
DRAFT
100
AcDbLine
 62
253
  6
CONTINUOUS
 10
16.9
 20
-3.3
 11
16.9
 21
-1.856624327
  0
LINE
  5
37F
100
AcDbEntity
  8
DRAFT
100
AcDbLine
 62
253
  6
CONTINUOUS
 10
16.9
 20
-19.3
 11
16.9
 21
-20.743375673
  0
LINE
  5
380
100
AcDbEntity
  8
ASSI
100
AcDbLine
 62
7
  6
CONTINUOUS
 10
16.9781828305
 20
78.5363136924
 11
16.9781828305
 21
79.925
  0
LINE
  5
381
100
AcDbEntity
  8
ASSI
100
AcDbLine
 62
7
  6
CONTINUOUS
 10
16.9886550719
 20
73.425
 11
16.9886550719
 21
72.9238564442
  0
LINE
  5
382
100
AcDbEntity
  8
ASSI
100
AcDbLine
 62
7
  6
CONTINUOUS
 10
16.9886550719
 20
66.925
 11
16.9886550719
 21
66.3738564442
  0
LINE
  5
383
100
AcDbEntity
  8
ASSI
100
AcDbLine
 62
7
  6
CONTINUOUS
 10
16.9886550719
 20
60.425
 11
16.9886550719
 21
59.8238564442
  0
LINE
  5
384
100
AcDbEntity
  8
ASSI
100
AcDbLine
 62
7
  6
CONTINUOUS
 10
16.9886550719
 20
53.925
 11
16.9886550719
 21
53.2738564442
  0
LINE
  5
385
100
AcDbEntity
  8
ASSI
100
AcDbLine
 62
7
  6
CONTINUOUS
 10
16.9886550719
 20
47.425
 11
16.9886550719
 21
46.7238564442
  0
LINE
  5
386
100
AcDbEntity
  8
ASSI
100
AcDbLine
 62
7
  6
CONTINUOUS
 10
16.9886550719
 20
40.925
 11
16.9886550719
 21
40.1738564442
  0
LINE
  5
387
100
AcDbEntity
  8
ASSI
100
AcDbLine
 62
7
  6
CONTINUOUS
 10
16.9886550719
 20
34.425
 11
16.9886550719
 21
33.6238564442
  0
LINE
  5
388
100
AcDbEntity
  8
ASSI
100
AcDbLine
 62
7
  6
CONTINUOUS
 10
16.9886550719
 20
27.925
 11
16.9886550719
 21
27.0738564442
  0
LINE
  5
389
100
AcDbEntity
  8
ASSI
100
AcDbLine
 62
7
  6
CONTINUOUS
 10
16.9930185058
 20
34.425
 11
16.9930185058
 21
34.0144992574
  0
LINE
  5
38A
100
AcDbEntity
  8
ASSI
100
AcDbLine
 62
7
  6
CONTINUOUS
 10
16.9930185058
 20
27.925
 11
16.9930185058
 21
27.4644992574
  0
LINE
  5
38B
100
AcDbEntity
  8
DRAFT
100
AcDbLine
 62
7
  6
CONTINUOUS
 10
24.6947634805
 20
-9.5007420804
 11
24.6947634805
 21
-13.0992579197
  0
LINE
  5
38C
100
AcDbEntity
  8
DRAFT
100
AcDbLine
 62
7
  6
CONTINUOUS
 10
24.7
 20
-9.5249882602
 11
24.7
 21
-13.0750117399
  0
LINE
  5
38D
100
AcDbEntity
  8
ASSI
100
AcDbLine
 62
7
  6
CONTINUOUS
 10
16.9936942919
 20
79.925
 11
16.9781828305
 21
78.5363136924
  0
LINE
  5
38E
100
AcDbEntity
  8
ASSI
100
AcDbLine
 62
7
  6
CONTINUOUS
 10
16.994252786
 20
73.425
 11
16.9886550719
 21
72.9238564442
  0
LINE
  5
38F
100
AcDbEntity
  8
ASSI
100
AcDbLine
 62
7
  6
CONTINUOUS
 10
16.99481128
 20
66.925
 11
16.9886550719
 21
66.3738564442
  0
LINE
  5
390
100
AcDbEntity
  8
ASSI
100
AcDbLine
 62
7
  6
CONTINUOUS
 10
16.9953697741
 20
60.425
 11
16.9886550719
 21
59.8238564442
  0
LINE
  5
391
100
AcDbEntity
  8
ASSI
100
AcDbLine
 62
7
  6
CONTINUOUS
 10
16.9959282682
 20
53.925
 11
16.9886550719
 21
53.2738564442
  0
LINE
  5
392
100
AcDbEntity
  8
ASSI
100
AcDbLine
 62
7
  6
CONTINUOUS
 10
16.9964867622
 20
47.425
 11
16.9886550719
 21
46.7238564442
  0
LINE
  5
393
100
AcDbEntity
  8
ASSI
100
AcDbLine
 62
7
  6
CONTINUOUS
 10
16.9970452563
 20
40.925
 11
16.9886550719
 21
40.1738564442
  0
LINE
  5
394
100
AcDbEntity
  8
ASSI
100
AcDbLine
 62
7
  6
CONTINUOUS
 10
16.9930185058
 20
34.0144992574
 11
16.9886550719
 21
33.6238564442
  0
LINE
  5
395
100
AcDbEntity
  8
ASSI
100
AcDbLine
 62
7
  6
CONTINUOUS
 10
16.9930185058
 20
27.4644992574
 11
16.9886550719
 21
27.0738564442
  0
LINE
  5
396
100
AcDbEntity
  8
ASSI
100
AcDbLine
 62
7
  6
CONTINUOUS
 10
-29.6
 20
25.075
 11
-3.0
 21
25.075
  0
LINE
  5
397
100
AcDbEntity
  8
ASSI
100
AcDbLine
 62
7
  6
CONTINUOUS
 10
3.0
 20
25.075
 11
29.6
 21
25.075
  0
LINE
  5
398
100
AcDbEntity
  8
ASSI
100
AcDbLine
 62
7
  6
CONTINUOUS
 10
30.7
 20
25.0895277586
 11
2.0
 21
25.0895277586
  0
LINE
  5
399
100
AcDbEntity
  8
ASSI
100
AcDbLine
 62
7
  6
CONTINUOUS
 10
-2.0
 20
25.0895277586
 11
-30.7
 21
25.0895277586
  0
LINE
  5
39A
100
AcDbEntity
  8
DRAFT
100
AcDbLine
 62
7
  6
CONTINUOUS
 10
38.5
 20
-110.6
 11
38.3358723834
 21
-109.8555931305
  0
LINE
  5
39B
100
AcDbEntity
  8
DRAFT
100
AcDbLine
 62
7
  6
CONTINUOUS
 10
41.5
 20
-118.1
 11
41.6641276166
 21
-118.8444068695
  0
LINE
  5
39C
100
AcDbEntity
  8
DRAFT
100
AcDbLine
 62
7
  6
CONTINUOUS
 10
41.5
 20
-115.8
 11
41.6641276166
 21
-116.5444068695
  0
LINE
  5
39D
100
AcDbEntity
  8
DRAFT
100
AcDbLine
 62
7
  6
CONTINUOUS
 10
41.5
 20
-113.5
 11
41.6641276166
 21
-114.2444068695
  0
LINE
  5
39E
100
AcDbEntity
  8
DRAFT
100
AcDbLine
 62
7
  6
CONTINUOUS
 10
41.5
 20
-111.2
 11
41.6641276166
 21
-111.9444068695
  0
LINE
  5
39F
100
AcDbEntity
  8
ASSI
100
AcDbLine
 62
7
  6
CONTINUOUS
 10
30.7113449281
 20
27.0738564442
 11
30.708312873
 21
27.3453056191
  0
LINE
  5
3A0
100
AcDbEntity
  8
ASSI
100
AcDbLine
 62
7
  6
CONTINUOUS
 10
30.7088807359
 20
33.8444668619
 11
30.7113449281
 21
33.6238564442
  0
LINE
  5
3A1
100
AcDbEntity
  8
ASSI
100
AcDbLine
 62
7
  6
CONTINUOUS
 10
30.7113449281
 20
59.8238564442
 11
30.7111521875
 21
59.8411118327
  0
LINE
  5
3A2
100
AcDbEntity
  8
ASSI
100
AcDbLine
 62
7
  6
CONTINUOUS
 10
30.6668379024
 20
78.2237994418
 11
30.6668379024
 21
77.5226898562
  0
LINE
  5
3A3
100
AcDbEntity
  8
ASSI
100
AcDbLine
 62
7
  6
CONTINUOUS
 10
30.6668379024
 20
71.6737994418
 11
30.6668379024
 21
70.9726898562
  0
LINE
  5
3A4
100
AcDbEntity
  8
ASSI
100
AcDbLine
 62
7
  6
CONTINUOUS
 10
30.6668379024
 20
65.1237994418
 11
30.6668379024
 21
64.4226898562
  0
LINE
  5
3A5
100
AcDbEntity
  8
ASSI
100
AcDbLine
 62
7
  6
CONTINUOUS
 10
30.6668379024
 20
58.5737994418
 11
30.6668379024
 21
58.0980737996
  0
LINE
  5
3A6
100
AcDbEntity
  8
ASSI
100
AcDbLine
 62
7
  6
CONTINUOUS
 10
30.6668379024
 20
52.0237994418
 11
30.6668379024
 21
51.5980737996
  0
LINE
  5
3A7
100
AcDbEntity
  8
ASSI
100
AcDbLine
 62
7
  6
CONTINUOUS
 10
30.6668379024
 20
45.4737994418
 11
30.6668379024
 21
45.0980737996
  0
LINE
  5
3A8
100
AcDbEntity
  8
ASSI
100
AcDbLine
 62
7
  6
CONTINUOUS
 10
30.6808008909
 20
45.1167261685
 11
30.6808008909
 21
46.7238564442
  0
LINE
  5
3A9
100
AcDbEntity
  8
ASSI
100
AcDbLine
 62
7
  6
CONTINUOUS
 10
30.6808008909
 20
51.6167261685
 11
30.6808008909
 21
53.2738564442
  0
LINE
  5
3AA
100
AcDbEntity
  8
ASSI
100
AcDbLine
 62
7
  6
CONTINUOUS
 10
30.6808008909
 20
58.1167261685
 11
30.6808008909
 21
59.8238564442
  0
LINE
  5
3AB
100
AcDbEntity
  8
ASSI
100
AcDbLine
 62
7
  6
CONTINUOUS
 10
30.6808008909
 20
64.6167261685
 11
30.6808008909
 21
66.3738564442
  0
LINE
  5
3AC
100
AcDbEntity
  8
ASSI
100
AcDbLine
 62
7
  6
CONTINUOUS
 10
30.6808008909
 20
71.1167261685
 11
30.6808008909
 21
72.8832738315
  0
LINE
  5
3AD
100
AcDbEntity
  8
ASSI
100
AcDbLine
 62
7
  6
CONTINUOUS
 10
30.6808008909
 20
77.6167261685
 11
30.6808008909
 21
79.3832738315
  0
LINE
  5
3AE
100
AcDbEntity
  8
ASSI
100
AcDbLine
 62
7
  6
CONTINUOUS
 10
30.7
 20
40.1738564442
 11
30.7
 21
38.1895277586
  0
LINE
  5
3AF
100
AcDbEntity
  8
ASSI
100
AcDbLine
 62
7
  6
CONTINUOUS
 10
30.7
 20
33.6238564442
 11
30.7
 21
31.6395277586
  0
LINE
  5
3B0
100
AcDbEntity
  8
ASSI
100
AcDbLine
 62
7
  6
CONTINUOUS
 10
30.7
 20
27.0738564442
 11
30.7
 21
25.0895277586
  0
LINE
  5
3B1
100
AcDbEntity
  8
ASSI
100
AcDbLine
 62
7
  6
CONTINUOUS
 10
30.7113449281
 20
59.8408271467
 11
30.7113449281
 21
59.8238564442
  0
LINE
  5
3B2
100
AcDbEntity
  8
ASSI
100
AcDbLine
 62
7
  6
CONTINUOUS
 10
30.7113449281
 20
53.3408271467
 11
30.7113449281
 21
53.2738564442
  0
LINE
  5
3B3
100
AcDbEntity
  8
ASSI
100
AcDbLine
 62
7
  6
CONTINUOUS
 10
30.7113449281
 20
46.8408271467
 11
30.7113449281
 21
46.7238564442
  0
LINE
  5
3B4
100
AcDbEntity
  8
ASSI
100
AcDbLine
 62
7
  6
CONTINUOUS
 10
30.7113449281
 20
40.3408271467
 11
30.7113449281
 21
40.1738564442
  0
LINE
  5
3B5
100
AcDbEntity
  8
ASSI
100
AcDbLine
 62
7
  6
CONTINUOUS
 10
30.7113449281
 20
33.8408271467
 11
30.7113449281
 21
33.6238564442
  0
LINE
  5
3B6
100
AcDbEntity
  8
ASSI
100
AcDbLine
 62
7
  6
CONTINUOUS
 10
30.7113449281
 20
27.3408271467
 11
30.7113449281
 21
27.0738564442
  0
LINE
  5
3B7
100
AcDbEntity
  8
ASSI
100
AcDbLine
 62
7
  6
CONTINUOUS
 10
30.95
 20
26.425
 11
30.95
 21
26.575
  0
LINE
  5
3B8
100
AcDbEntity
  8
ASSI
100
AcDbLine
 62
7
  6
CONTINUOUS
 10
30.95
 20
32.925
 11
30.95
 21
33.075
  0
LINE
  5
3B9
100
AcDbEntity
  8
ASSI
100
AcDbLine
 62
7
  6
CONTINUOUS
 10
30.95
 20
39.425
 11
30.95
 21
39.575
  0
LINE
  5
3BA
100
AcDbEntity
  8
ASSI
100
AcDbLine
 62
7
  6
CONTINUOUS
 10
30.95
 20
45.925
 11
30.95
 21
46.075
  0
LINE
  5
3BB
100
AcDbEntity
  8
ASSI
100
AcDbLine
 62
7
  6
CONTINUOUS
 10
30.95
 20
52.425
 11
30.95
 21
52.575
  0
LINE
  5
3BC
100
AcDbEntity
  8
ASSI
100
AcDbLine
 62
7
  6
CONTINUOUS
 10
30.95
 20
58.925
 11
30.95
 21
59.075
  0
LINE
  5
3BD
100
AcDbEntity
  8
ASSI
100
AcDbLine
 62
7
  6
CONTINUOUS
 10
30.95
 20
65.425
 11
30.95
 21
65.575
  0
LINE
  5
3BE
100
AcDbEntity
  8
ASSI
100
AcDbLine
 62
7
  6
CONTINUOUS
 10
30.95
 20
71.925
 11
30.95
 21
72.075
  0
LINE
  5
3BF
100
AcDbEntity
  8
ASSI
100
AcDbLine
 62
7
  6
CONTINUOUS
 10
30.95
 20
78.425
 11
30.95
 21
78.575
  0
LINE
  5
3C0
100
AcDbEntity
  8
ASSI
100
AcDbLine
 62
7
  6
CONTINUOUS
 10
30.6798039691
 20
79.3846055631
 11
30.6668379024
 21
78.2237994418
  0
LINE
  5
3C1
100
AcDbEntity
  8
ASSI
100
AcDbLine
 62
7
  6
CONTINUOUS
 10
30.6803542523
 20
72.8838704708
 11
30.6668379024
 21
71.6737994418
  0
LINE
  5
3C2
100
AcDbEntity
  8
ASSI
100
AcDbLine
 62
7
  6
CONTINUOUS
 10
30.6808008909
 20
66.3738564442
 11
30.6668379024
 21
65.1237994418
  0
LINE
  5
3C3
100
AcDbEntity
  8
ASSI
100
AcDbLine
 62
7
  6
CONTINUOUS
 10
30.6808008909
 20
59.8238564442
 11
30.6668379024
 21
58.5737994418
  0
LINE
  5
3C4
100
AcDbEntity
  8
ASSI
100
AcDbLine
 62
7
  6
CONTINUOUS
 10
30.6808008909
 20
53.2738564442
 11
30.6668379024
 21
52.0237994418
  0
LINE
  5
3C5
100
AcDbEntity
  8
ASSI
100
AcDbLine
 62
7
  6
CONTINUOUS
 10
30.6808008909
 20
46.7238564442
 11
30.6668379024
 21
45.4737994418
  0
LINE
  5
3C6
100
AcDbEntity
  8
COSMETICI
100
AcDbLine
 62
7
  6
CONTINUOUS
 10
-36.492253274
 20
-114.894127766
 11
-35.11897114
 21
-112.505410302
  0
LINE
  5
3C7
100
AcDbEntity
  8
COSMETICI
100
AcDbLine
 62
7
  6
CONTINUOUS
 10
-34.338661722
 20
-113.75405731
 11
-36.492253274
 21
-117.5
  0
LINE
  5
3C8
100
AcDbEntity
  8
ASSI
100
AcDbLine
 62
7
  6
CONTINUOUS
 10
-30.7
 20
25.8237994418
 11
-2.0
 21
25.8237994418
  0
LINE
  5
3C9
100
AcDbEntity
  8
ASSI
100
AcDbLine
 62
7
  6
CONTINUOUS
 10
2.0
 20
25.8237994418
 11
30.7
 21
25.8237994418
  0
LINE
  5
3CA
100
AcDbEntity
  8
ASSI
100
AcDbLine
 62
7
  6
CONTINUOUS
 10
30.7113449281
 20
27.0738564442
 11
30.7
 21
27.0738564442
  0
LINE
  5
3CB
100
AcDbEntity
  8
ASSI
100
AcDbLine
 62
7
  6
CONTINUOUS
 10
16.9886550719
 20
27.0738564442
 11
15.7113449281
 21
27.0738564442
  0
LINE
  5
3CC
100
AcDbEntity
  8
ASSI
100
AcDbLine
 62
7
  6
CONTINUOUS
 10
-15.7191991091
 20
27.0738564442
 11
-16.9808008909
 21
27.0738564442
  0
LINE
  5
3CD
100
AcDbEntity
  8
ASSI
100
AcDbLine
 62
7
  6
CONTINUOUS
 10
1.9886550719
 20
27.0738564442
 11
2.0
 21
27.0738564442
  0
LINE
  5
3CE
100
AcDbEntity
  8
ASSI
100
AcDbLine
 62
7
  6
CONTINUOUS
 10
1.9930185058
 20
27.4644992574
 11
15.7069814942
 21
27.4644992574
  0
LINE
  5
3CF
100
AcDbEntity
  8
ASSI
100
AcDbLine
 62
7
  6
CONTINUOUS
 10
16.9930185058
 20
27.4644992574
 11
30.6153176966
 21
27.4644992574
  0
LINE
  5
3D0
100
AcDbEntity
  8
ASSI
100
AcDbLine
 62
7
  6
CONTINUOUS
 10
29.6
 20
27.925
 11
3.0
 21
27.925
  0
LINE
  5
3D1
100
AcDbEntity
  8
ASSI
100
AcDbLine
 62
7
  6
CONTINUOUS
 10
-3.0
 20
27.925
 11
-29.6
 21
27.925
  0
LINE
  5
3D2
100
AcDbEntity
  8
ASSI
100
AcDbLine
 62
7
  6
CONTINUOUS
 10
-29.6
 20
31.575
 11
-3.0
 21
31.575
  0
LINE
  5
3D3
100
AcDbEntity
  8
ASSI
100
AcDbLine
 62
7
  6
CONTINUOUS
 10
3.0
 20
31.575
 11
29.6
 21
31.575
  0
LINE
  5
3D4
100
AcDbEntity
  8
ASSI
100
AcDbLine
 62
7
  6
CONTINUOUS
 10
30.7
 20
31.6395277586
 11
2.0
 21
31.6395277586
  0
LINE
  5
3D5
100
AcDbEntity
  8
ASSI
100
AcDbLine
 62
7
  6
CONTINUOUS
 10
-2.0
 20
31.6395277586
 11
-30.7
 21
31.6395277586
  0
LINE
  5
3D6
100
AcDbEntity
  8
ASSI
100
AcDbLine
 62
7
  6
CONTINUOUS
 10
-30.7
 20
32.3737994418
 11
-2.0
 21
32.3737994418
  0
LINE
  5
3D7
100
AcDbEntity
  8
ASSI
100
AcDbLine
 62
7
  6
CONTINUOUS
 10
2.0
 20
32.3737994418
 11
30.7
 21
32.3737994418
  0
LINE
  5
3D8
100
AcDbEntity
  8
ASSI
100
AcDbLine
 62
7
  6
CONTINUOUS
 10
30.7113449281
 20
33.6238564442
 11
30.7
 21
33.6238564442
  0
LINE
  5
3D9
100
AcDbEntity
  8
ASSI
100
AcDbLine
 62
7
  6
CONTINUOUS
 10
16.9886550719
 20
33.6238564442
 11
15.7113449281
 21
33.6238564442
  0
LINE
  5
3DA
100
AcDbEntity
  8
ASSI
100
AcDbLine
 62
7
  6
CONTINUOUS
 10
-15.7191991091
 20
33.6238564442
 11
-16.9808008909
 21
33.6238564442
  0
LINE
  5
3DB
100
AcDbEntity
  8
ASSI
100
AcDbLine
 62
7
  6
CONTINUOUS
 10
1.9886550719
 20
33.6238564442
 11
2.0
 21
33.6238564442
  0
LINE
  5
3DC
100
AcDbEntity
  8
ASSI
100
AcDbLine
 62
7
  6
CONTINUOUS
 10
2.0308679475
 20
34.0144992574
 11
15.7069814942
 21
34.0144992574
  0
LINE
  5
3DD
100
AcDbEntity
  8
ASSI
100
AcDbLine
 62
7
  6
CONTINUOUS
 10
16.9930185058
 20
34.0144992574
 11
30.5691320525
 21
34.0144992574
  0
LINE
  5
3DE
100
AcDbEntity
  8
ASSI
100
AcDbLine
 62
7
  6
CONTINUOUS
 10
29.6
 20
34.425
 11
3.0
 21
34.425
  0
LINE
  5
3DF
100
AcDbEntity
  8
ASSI
100
AcDbLine
 62
7
  6
CONTINUOUS
 10
-3.0
 20
34.425
 11
-29.6
 21
34.425
  0
LINE
  5
3E0
100
AcDbEntity
  8
RACCORDO
100
AcDbLine
 62
7
  6
CONTINUOUS
 10
37.8
 20
-110.4
 11
37.8
 21
-118.5
  0
LINE
  5
3E1
100
AcDbEntity
  8
DRAFT
100
AcDbLine
 62
7
  6
CONTINUOUS
 10
38.0
 20
-109.8004682181
 11
38.0
 21
-119.0995317819
  0
LINE
  5
3E2
100
AcDbEntity
  8
DRAFT
100
AcDbLine
 62
7
  6
CONTINUOUS
 10
38.0680747532
 20
-109.7190564311
 11
38.0680747532
 21
-119.1809435689
  0
LINE
  5
3E3
100
AcDbEntity
  8
DRAFT
100
AcDbLine
 62
7
  6
CONTINUOUS
 10
38.3358723834
 20
-109.8555931305
 11
38.3358723834
 21
-111.9444068695
  0
LINE
  5
3E4
100
AcDbEntity
  8
DRAFT
100
AcDbLine
 62
7
  6
CONTINUOUS
 10
38.3358723834
 20
-112.1555931305
 11
38.3358723834
 21
-114.2444068695
  0
LINE
  5
3E5
100
AcDbEntity
  8
DRAFT
100
AcDbLine
 62
7
  6
CONTINUOUS
 10
38.3358723834
 20
-114.4555931305
 11
38.3358723834
 21
-116.5444068695
  0
LINE
  5
3E6
100
AcDbEntity
  8
DRAFT
100
AcDbLine
 62
7
  6
CONTINUOUS
 10
38.3358723834
 20
-116.7555931305
 11
38.3358723834
 21
-118.8444068695
  0
LINE
  5
3E7
100
AcDbEntity
  8
DRAFT
100
AcDbLine
 62
7
  6
CONTINUOUS
 10
38.5
 20
-110.6
 11
38.5
 21
-111.2
  0
LINE
  5
3E8
100
AcDbEntity
  8
DRAFT
100
AcDbLine
 62
7
  6
CONTINUOUS
 10
38.5
 20
-112.9
 11
38.5
 21
-113.5
  0
LINE
  5
3E9
100
AcDbEntity
  8
DRAFT
100
AcDbLine
 62
7
  6
CONTINUOUS
 10
38.5
 20
-115.2
 11
38.5
 21
-115.8
  0
LINE
  5
3EA
100
AcDbEntity
  8
DRAFT
100
AcDbLine
 62
7
  6
CONTINUOUS
 10
38.5
 20
-117.5
 11
38.5
 21
-118.1
  0
LINE
  5
3EB
100
AcDbEntity
  8
DRAFT
100
AcDbLine
 62
7
  6
CONTINUOUS
 10
41.5
 20
-118.1
 11
41.5
 21
-117.5
  0
LINE
  5
3EC
100
AcDbEntity
  8
DRAFT
100
AcDbLine
 62
7
  6
CONTINUOUS
 10
41.5
 20
-115.8
 11
41.5
 21
-115.2
  0
LINE
  5
3ED
100
AcDbEntity
  8
DRAFT
100
AcDbLine
 62
7
  6
CONTINUOUS
 10
41.5
 20
-113.5
 11
41.5
 21
-112.9
  0
LINE
  5
3EE
100
AcDbEntity
  8
DRAFT
100
AcDbLine
 62
7
  6
CONTINUOUS
 10
41.5
 20
-111.2
 11
41.5
 21
-110.6
  0
LINE
  5
3EF
100
AcDbEntity
  8
DRAFT
100
AcDbLine
 62
7
  6
CONTINUOUS
 10
41.6641276166
 20
-118.8444068695
 11
41.6641276166
 21
-116.7555931305
  0
LINE
  5
3F0
100
AcDbEntity
  8
DRAFT
100
AcDbLine
 62
7
  6
CONTINUOUS
 10
41.6641276166
 20
-116.5444068695
 11
41.6641276166
 21
-114.4555931305
  0
LINE
  5
3F1
100
AcDbEntity
  8
DRAFT
100
AcDbLine
 62
7
  6
CONTINUOUS
 10
41.6641276166
 20
-114.2444068695
 11
41.6641276166
 21
-112.1555931305
  0
LINE
  5
3F2
100
AcDbEntity
  8
DRAFT
100
AcDbLine
 62
7
  6
CONTINUOUS
 10
41.6641276166
 20
-111.9444068695
 11
41.6641276166
 21
-109.8555931305
  0
LINE
  5
3F3
100
AcDbEntity
  8
DRAFT
100
AcDbLine
 62
7
  6
CONTINUOUS
 10
41.9319252468
 20
-118.8623312405
 11
41.9319252468
 21
-110.0376687595
  0
LINE
  5
3F4
100
AcDbEntity
  8
RACCORDO
100
AcDbLine
 62
7
  6
CONTINUOUS
 10
42.0
 20
-118.5
 11
42.0
 21
-110.4
  0
LINE
  5
3F5
100
AcDbEntity
  8
SMUSSO
100
AcDbLine
 62
253
  6
CONTINUOUS
 10
46.8508271005
 20
-129.2679491924
 11
46.8508271005
 21
-131.0
  0
LINE
  5
3F6
100
AcDbEntity
  8
SMUSSO
100
AcDbLine
 62
253
  6
CONTINUOUS
 10
46.8508271005
 20
142.2679491924
 11
46.8508271005
 21
144.0
  0
LINE
  5
3F7
100
AcDbEntity
  8
COSMETICI
100
AcDbLine
 62
7
  6
CONTINUOUS
 10
-23.471297074
 20
-112.500438958
 11
-25.28615584
 21
-114.99391117
  0
LINE
  5
3F8
100
AcDbEntity
  8
COSMETICI
100
AcDbLine
 62
7
  6
CONTINUOUS
 10
-26.123430796
 20
-116.143920982
 11
-27.101397786
 21
-117.487383382
  0
LINE
  5
3F9
100
AcDbEntity
  8
COSMETICI
100
AcDbLine
 62
7
  6
CONTINUOUS
 10
-28.775947698
 20
-117.487383382
 11
-26.960705752
 21
-114.99391117
  0
LINE
  5
3FA
100
AcDbEntity
  8
COSMETICI
100
AcDbLine
 62
7
  6
CONTINUOUS
 10
-26.123430796
 20
-113.843519844
 11
-25.145463806
 21
-112.500438958
  0
LINE
  5
3FB
100
AcDbEntity
  8
ASSI
100
AcDbLine
 62
7
  6
CONTINUOUS
 10
-29.6
 20
38.075
 11
-3.0
 21
38.075
  0
LINE
  5
3FC
100
AcDbEntity
  8
ASSI
100
AcDbLine
 62
7
  6
CONTINUOUS
 10
3.0
 20
38.075
 11
29.6
 21
38.075
  0
LINE
  5
3FD
100
AcDbEntity
  8
ASSI
100
AcDbLine
 62
7
  6
CONTINUOUS
 10
30.7
 20
38.1895277586
 11
2.0
 21
38.1895277586
  0
LINE
  5
3FE
100
AcDbEntity
  8
ASSI
100
AcDbLine
 62
7
  6
CONTINUOUS
 10
-2.0
 20
38.1895277586
 11
-30.7
 21
38.1895277586
  0
LINE
  5
3FF
100
AcDbEntity
  8
ASSI
100
AcDbLine
 62
7
  6
CONTINUOUS
 10
-30.7
 20
38.9237994418
 11
-2.0
 21
38.9237994418
  0
LINE
  5
400
100
AcDbEntity
  8
ASSI
100
AcDbLine
 62
7
  6
CONTINUOUS
 10
2.0
 20
38.9237994418
 11
30.7
 21
38.9237994418
  0
LINE
  5
401
100
AcDbEntity
  8
ASSI
100
AcDbLine
 62
7
  6
CONTINUOUS
 10
16.9886550719
 20
40.1738564442
 11
15.7113449281
 21
40.1738564442
  0
LINE
  5
402
100
AcDbEntity
  8
ASSI
100
AcDbLine
 62
7
  6
CONTINUOUS
 10
2.0
 20
40.1738564442
 11
1.9886550719
 21
40.1738564442
  0
LINE
  5
403
100
AcDbEntity
  8
ASSI
100
AcDbLine
 62
7
  6
CONTINUOUS
 10
-15.7191991091
 20
40.1738564442
 11
-16.9808008909
 21
40.1738564442
  0
LINE
  5
404
100
AcDbEntity
  8
ASSI
100
AcDbLine
 62
7
  6
CONTINUOUS
 10
30.7
 20
40.1738564442
 11
30.7113449281
 21
40.1738564442
  0
LINE
  5
405
100
AcDbEntity
  8
ASSI
100
AcDbLine
 62
7
  6
CONTINUOUS
 10
29.6
 20
40.925
 11
3.0
 21
40.925
  0
LINE
  5
406
100
AcDbEntity
  8
ASSI
100
AcDbLine
 62
7
  6
CONTINUOUS
 10
-3.0
 20
40.925
 11
-29.6
 21
40.925
  0
LINE
  5
407
100
AcDbEntity
  8
ASSI
100
AcDbLine
 62
7
  6
CONTINUOUS
 10
-29.6
 20
44.575
 11
-3.0
 21
44.575
  0
LINE
  5
408
100
AcDbEntity
  8
ASSI
100
AcDbLine
 62
7
  6
CONTINUOUS
 10
3.0
 20
44.575
 11
29.6
 21
44.575
  0
LINE
  5
409
100
AcDbEntity
  8
ASSI
100
AcDbLine
 62
7
  6
CONTINUOUS
 10
-30.2796778237
 20
44.7587268678
 11
-2.3203221763
 21
44.7587268678
  0
LINE
  5
40A
100
AcDbEntity
  8
ASSI
100
AcDbLine
 62
7
  6
CONTINUOUS
 10
2.3203221763
 20
44.7587268678
 11
30.2796778237
 21
44.7587268678
  0
LINE
  5
40B
100
AcDbEntity
  8
ASSI
100
AcDbLine
 62
7
  6
CONTINUOUS
 10
30.3025929524
 20
44.7726898562
 11
2.2974070476
 21
44.7726898562
  0
LINE
  5
40C
100
AcDbEntity
  8
ASSI
100
AcDbLine
 62
7
  6
CONTINUOUS
 10
-2.2974070476
 20
44.7726898562
 11
-30.3025929524
 21
44.7726898562
  0
LINE
  5
40D
100
AcDbEntity
  8
ASSI
100
AcDbLine
 62
7
  6
CONTINUOUS
 10
-30.6668379024
 20
45.4737994418
 11
-2.0331620976
 21
45.4737994418
  0
LINE
  5
40E
100
AcDbEntity
  8
ASSI
100
AcDbLine
 62
7
  6
CONTINUOUS
 10
2.0331620976
 20
45.4737994418
 11
30.6668379024
 21
45.4737994418
  0
LINE
  5
40F
100
AcDbEntity
  8
ASSI
100
AcDbLine
 62
7
  6
CONTINUOUS
 10
16.9886550719
 20
46.7238564442
 11
15.7113449281
 21
46.7238564442
  0
LINE
  5
410
100
AcDbEntity
  8
ASSI
100
AcDbLine
 62
7
  6
CONTINUOUS
 10
2.0191991091
 20
46.7238564442
 11
1.9886550719
 21
46.7238564442
  0
LINE
  5
411
100
AcDbEntity
  8
ASSI
100
AcDbLine
 62
7
  6
CONTINUOUS
 10
-15.7191991091
 20
46.7238564442
 11
-16.9808008909
 21
46.7238564442
  0
LINE
  5
412
100
AcDbEntity
  8
ASSI
100
AcDbLine
 62
7
  6
CONTINUOUS
 10
-30.6808008909
 20
46.7238564442
 11
-30.7191991091
 21
46.7238564442
  0
LINE
  5
413
100
AcDbEntity
  8
ASSI
100
AcDbLine
 62
7
  6
CONTINUOUS
 10
-2.0191991091
 20
46.7238564442
 11
-1.9808008909
 21
46.7238564442
  0
LINE
  5
414
100
AcDbEntity
  8
ASSI
100
AcDbLine
 62
7
  6
CONTINUOUS
 10
30.6808008909
 20
46.7238564442
 11
30.7113449281
 21
46.7238564442
  0
LINE
  5
415
100
AcDbEntity
  8
ASSI
100
AcDbLine
 62
7
  6
CONTINUOUS
 10
29.6
 20
47.425
 11
3.0
 21
47.425
  0
LINE
  5
416
100
AcDbEntity
  8
ASSI
100
AcDbLine
 62
7
  6
CONTINUOUS
 10
-3.0
 20
47.425
 11
-29.6
 21
47.425
  0
LINE
  5
417
100
AcDbEntity
  8
SMUSSO
100
AcDbLine
 62
253
  6
CONTINUOUS
 10
55.0
 20
-129.2679491924
 11
55.0
 21
-131.0
  0
LINE
  5
418
100
AcDbEntity
  8
SMUSSO
100
AcDbLine
 62
253
  6
CONTINUOUS
 10
55.0
 20
142.2679491924
 11
55.0
 21
144.0
  0
LINE
  5
419
100
AcDbEntity
  8
SMUSSO
100
AcDbLine
 62
7
  6
CONTINUOUS
 10
58.2679491924
 20
-126.0
 11
58.2679491924
 21
139.0
  0
LINE
  5
41A
100
AcDbEntity
  8
SMUSSO
100
AcDbLine
 62
7
  6
CONTINUOUS
 10
60.0
 20
-126.0
 11
60.0
 21
139.0
  0
LINE
  5
41B
100
AcDbEntity
  8
SMUSSO
100
AcDbLine
 62
253
  6
CONTINUOUS
 10
-42.5337284507
 20
-130.8344247829
 11
-43.6444500446
 21
-132.1634460547
  0
LINE
  5
41C
100
AcDbEntity
  8
ASSI
100
AcDbLine
 62
7
  6
CONTINUOUS
 10
-29.6
 20
51.075
 11
-3.0
 21
51.075
  0
LINE
  5
41D
100
AcDbEntity
  8
ASSI
100
AcDbLine
 62
7
  6
CONTINUOUS
 10
3.0
 20
51.075
 11
29.6
 21
51.075
  0
LINE
  5
41E
100
AcDbEntity
  8
ASSI
100
AcDbLine
 62
7
  6
CONTINUOUS
 10
-30.3585479828
 20
51.3087268678
 11
-2.2414520172
 21
51.3087268678
  0
LINE
  5
41F
100
AcDbEntity
  8
ASSI
100
AcDbLine
 62
7
  6
CONTINUOUS
 10
2.2414520172
 20
51.3087268678
 11
30.3585479828
 21
51.3087268678
  0
LINE
  5
420
100
AcDbEntity
  8
ASSI
100
AcDbLine
 62
7
  6
CONTINUOUS
 10
30.3791719019
 20
51.3226898562
 11
2.0331620976
 21
51.3226898562
  0
LINE
  5
421
100
AcDbEntity
  8
ASSI
100
AcDbLine
 62
7
  6
CONTINUOUS
 10
-2.0331620976
 20
51.3226898562
 11
-30.3791719019
 21
51.3226898562
  0
LINE
  5
422
100
AcDbEntity
  8
ASSI
100
AcDbLine
 62
7
  6
CONTINUOUS
 10
-30.6668379024
 20
52.0237994418
 11
-2.0331620976
 21
52.0237994418
  0
LINE
  5
423
100
AcDbEntity
  8
ASSI
100
AcDbLine
 62
7
  6
CONTINUOUS
 10
2.0331620976
 20
52.0237994418
 11
30.6668379024
 21
52.0237994418
  0
LINE
  5
424
100
AcDbEntity
  8
ASSI
100
AcDbLine
 62
7
  6
CONTINUOUS
 10
16.9886550719
 20
53.2738564442
 11
15.7113449281
 21
53.2738564442
  0
LINE
  5
425
100
AcDbEntity
  8
ASSI
100
AcDbLine
 62
7
  6
CONTINUOUS
 10
2.0191991091
 20
53.2738564442
 11
1.9886550719
 21
53.2738564442
  0
LINE
  5
426
100
AcDbEntity
  8
ASSI
100
AcDbLine
 62
7
  6
CONTINUOUS
 10
-15.7191991091
 20
53.2738564442
 11
-16.9808008909
 21
53.2738564442
  0
LINE
  5
427
100
AcDbEntity
  8
ASSI
100
AcDbLine
 62
7
  6
CONTINUOUS
 10
-30.6808008909
 20
53.2738564442
 11
-30.7191991091
 21
53.2738564442
  0
LINE
  5
428
100
AcDbEntity
  8
ASSI
100
AcDbLine
 62
7
  6
CONTINUOUS
 10
-2.0191991091
 20
53.2738564442
 11
-1.9808008909
 21
53.2738564442
  0
LINE
  5
429
100
AcDbEntity
  8
ASSI
100
AcDbLine
 62
7
  6
CONTINUOUS
 10
30.6808008909
 20
53.2738564442
 11
30.7113449281
 21
53.2738564442
  0
LINE
  5
42A
100
AcDbEntity
  8
ASSI
100
AcDbLine
 62
7
  6
CONTINUOUS
 10
29.6
 20
53.925
 11
3.0
 21
53.925
  0
LINE
  5
42B
100
AcDbEntity
  8
ASSI
100
AcDbLine
 62
7
  6
CONTINUOUS
 10
-3.0
 20
53.925
 11
-29.6
 21
53.925
  0
LINE
  5
42C
100
AcDbEntity
  8
ASSI
100
AcDbLine
 62
7
  6
CONTINUOUS
 10
-29.6
 20
57.575
 11
-3.0
 21
57.575
  0
LINE
  5
42D
100
AcDbEntity
  8
ASSI
100
AcDbLine
 62
7
  6
CONTINUOUS
 10
3.0
 20
57.575
 11
29.6
 21
57.575
  0
LINE
  5
42E
100
AcDbEntity
  8
ASSI
100
AcDbLine
 62
7
  6
CONTINUOUS
 10
-30.4276806451
 20
57.8587268678
 11
-2.1723193549
 21
57.8587268678
  0
LINE
  5
42F
100
AcDbEntity
  8
ASSI
100
AcDbLine
 62
7
  6
CONTINUOUS
 10
2.1723193549
 20
57.8587268678
 11
30.4276806451
 21
57.8587268678
  0
LINE
  5
430
100
AcDbEntity
  8
ASSI
100
AcDbLine
 62
7
  6
CONTINUOUS
 10
30.4452358217
 20
57.8726898562
 11
2.0331620976
 21
57.8726898562
  0
LINE
  5
431
100
AcDbEntity
  8
ASSI
100
AcDbLine
 62
7
  6
CONTINUOUS
 10
-2.0331620976
 20
57.8726898562
 11
-30.4452358217
 21
57.8726898562
  0
LINE
  5
432
100
AcDbEntity
  8
ASSI
100
AcDbLine
 62
7
  6
CONTINUOUS
 10
-30.6668379024
 20
58.5737994418
 11
-2.0331620976
 21
58.5737994418
  0
LINE
  5
433
100
AcDbEntity
  8
ASSI
100
AcDbLine
 62
7
  6
CONTINUOUS
 10
2.0331620976
 20
58.5737994418
 11
30.6668379024
 21
58.5737994418
  0
LINE
  5
434
100
AcDbEntity
  8
ASSI
100
AcDbLine
 62
7
  6
CONTINUOUS
 10
16.9886550719
 20
59.8238564442
 11
15.7113449281
 21
59.8238564442
  0
LINE
  5
435
100
AcDbEntity
  8
ASSI
100
AcDbLine
 62
7
  6
CONTINUOUS
 10
2.0191991091
 20
59.8238564442
 11
1.9886550719
 21
59.8238564442
  0
LINE
  5
436
100
AcDbEntity
  8
ASSI
100
AcDbLine
 62
7
  6
CONTINUOUS
 10
-15.7191991091
 20
59.8238564442
 11
-16.9808008909
 21
59.8238564442
  0
LINE
  5
437
100
AcDbEntity
  8
ASSI
100
AcDbLine
 62
7
  6
CONTINUOUS
 10
-30.6808008909
 20
59.8238564442
 11
-30.7191991091
 21
59.8238564442
  0
LINE
  5
438
100
AcDbEntity
  8
ASSI
100
AcDbLine
 62
7
  6
CONTINUOUS
 10
-2.0191991091
 20
59.8238564442
 11
-1.9808008909
 21
59.8238564442
  0
LINE
  5
439
100
AcDbEntity
  8
ASSI
100
AcDbLine
 62
7
  6
CONTINUOUS
 10
30.6808008909
 20
59.8238564442
 11
30.7113449281
 21
59.8238564442
  0
LINE
  5
43A
100
AcDbEntity
  8
ASSI
100
AcDbLine
 62
7
  6
CONTINUOUS
 10
29.6
 20
60.425
 11
3.0
 21
60.425
  0
LINE
  5
43B
100
AcDbEntity
  8
ASSI
100
AcDbLine
 62
7
  6
CONTINUOUS
 10
-3.0
 20
60.425
 11
-29.6
 21
60.425
  0
LINE
  5
43C
100
AcDbEntity
  8
ASSI
100
AcDbLine
 62
7
  6
CONTINUOUS
 10
-2.0331620976
 20
77.5226898562
 11
-2.0191991091
 21
77.5087268678
  0
LINE
  5
43D
100
AcDbEntity
  8
SMUSSO
100
AcDbLine
 62
253
  6
CONTINUOUS
 10
-42.53372845
 20
143.8344247835
 11
-43.644450044
 21
145.1634460552
  0
LINE
  5
43E
100
AcDbEntity
  8
DRAFT
100
AcDbLine
 62
7
  6
CONTINUOUS
 10
38.5
 20
-111.2
 11
38.3358723834
 21
-111.9444068695
  0
LINE
  5
43F
100
AcDbEntity
  8
DRAFT
100
AcDbLine
 62
7
  6
CONTINUOUS
 10
38.5
 20
-113.5
 11
38.3358723834
 21
-114.2444068695
  0
LINE
  5
440
100
AcDbEntity
  8
DRAFT
100
AcDbLine
 62
7
  6
CONTINUOUS
 10
38.5
 20
-115.8
 11
38.3358723834
 21
-116.5444068695
  0
LINE
  5
441
100
AcDbEntity
  8
DRAFT
100
AcDbLine
 62
7
  6
CONTINUOUS
 10
38.5
 20
-118.1
 11
38.3358723834
 21
-118.8444068695
  0
LINE
  5
442
100
AcDbEntity
  8
DRAFT
100
AcDbLine
 62
7
  6
CONTINUOUS
 10
41.5
 20
-110.6
 11
41.6641276166
 21
-109.8555931305
  0
LINE
  5
443
100
AcDbEntity
  8
DRAFT
100
AcDbLine
 62
7
  6
CONTINUOUS
 10
41.5
 20
-112.9
 11
41.6641276166
 21
-112.1555931305
  0
LINE
  5
444
100
AcDbEntity
  8
DRAFT
100
AcDbLine
 62
7
  6
CONTINUOUS
 10
41.5
 20
-115.2
 11
41.6641276166
 21
-114.4555931305
  0
LINE
  5
445
100
AcDbEntity
  8
DRAFT
100
AcDbLine
 62
7
  6
CONTINUOUS
 10
41.5
 20
-117.5
 11
41.6641276166
 21
-116.7555931305
  0
LINE
  5
446
100
AcDbEntity
  8
ASSI
100
AcDbLine
 62
7
  6
CONTINUOUS
 10
-29.6
 20
64.075
 11
-3.0
 21
64.075
  0
LINE
  5
447
100
AcDbEntity
  8
ASSI
100
AcDbLine
 62
7
  6
CONTINUOUS
 10
3.0
 20
64.075
 11
29.6
 21
64.075
  0
LINE
  5
448
100
AcDbEntity
  8
ASSI
100
AcDbLine
 62
7
  6
CONTINUOUS
 10
-30.488448546
 20
64.4087268678
 11
-2.111551454
 21
64.4087268678
  0
LINE
  5
449
100
AcDbEntity
  8
ASSI
100
AcDbLine
 62
7
  6
CONTINUOUS
 10
2.111551454
 20
64.4087268678
 11
30.488448546
 21
64.4087268678
  0
LINE
  5
44A
100
AcDbEntity
  8
ASSI
100
AcDbLine
 62
7
  6
CONTINUOUS
 10
30.6668379024
 20
64.4226898562
 11
2.0331620976
 21
64.4226898562
  0
LINE
  5
44B
100
AcDbEntity
  8
ASSI
100
AcDbLine
 62
7
  6
CONTINUOUS
 10
-2.0331620976
 20
64.4226898562
 11
-30.6668379024
 21
64.4226898562
  0
LINE
  5
44C
100
AcDbEntity
  8
ASSI
100
AcDbLine
 62
7
  6
CONTINUOUS
 10
-30.6668379024
 20
65.1237994418
 11
-2.0331620976
 21
65.1237994418
  0
LINE
  5
44D
100
AcDbEntity
  8
ASSI
100
AcDbLine
 62
7
  6
CONTINUOUS
 10
2.0331620976
 20
65.1237994418
 11
30.6668379024
 21
65.1237994418
  0
LINE
  5
44E
100
AcDbEntity
  8
ASSI
100
AcDbLine
 62
7
  6
CONTINUOUS
 10
16.9886550719
 20
66.3738564442
 11
15.7113449281
 21
66.3738564442
  0
LINE
  5
44F
100
AcDbEntity
  8
ASSI
100
AcDbLine
 62
7
  6
CONTINUOUS
 10
2.0191991091
 20
66.3738564442
 11
1.9886550719
 21
66.3738564442
  0
LINE
  5
450
100
AcDbEntity
  8
ASSI
100
AcDbLine
 62
7
  6
CONTINUOUS
 10
-15.7191991091
 20
66.3738564442
 11
-16.9808008909
 21
66.3738564442
  0
LINE
  5
451
100
AcDbEntity
  8
ASSI
100
AcDbLine
 62
7
  6
CONTINUOUS
 10
-2.0191991091
 20
66.3738564442
 11
-1.9808008909
 21
66.3738564442
  0
LINE
  5
452
100
AcDbEntity
  8
ASSI
100
AcDbLine
 62
7
  6
CONTINUOUS
 10
29.6
 20
66.925
 11
3.0
 21
66.925
  0
LINE
  5
453
100
AcDbEntity
  8
ASSI
100
AcDbLine
 62
7
  6
CONTINUOUS
 10
-3.0
 20
66.925
 11
-29.6
 21
66.925
  0
LINE
  5
454
100
AcDbEntity
  8
ASSI
100
AcDbLine
 62
7
  6
CONTINUOUS
 10
-29.6
 20
70.575
 11
-3.0
 21
70.575
  0
LINE
  5
455
100
AcDbEntity
  8
ASSI
100
AcDbLine
 62
7
  6
CONTINUOUS
 10
3.0
 20
70.575
 11
29.6
 21
70.575
  0
LINE
  5
456
100
AcDbEntity
  8
ASSI
100
AcDbLine
 62
7
  6
CONTINUOUS
 10
-30.5423581777
 20
70.9587268678
 11
-2.0576418223
 21
70.9587268678
  0
LINE
  5
457
100
AcDbEntity
  8
ASSI
100
AcDbLine
 62
7
  6
CONTINUOUS
 10
2.0576418223
 20
70.9587268678
 11
30.5423581777
 21
70.9587268678
  0
LINE
  5
458
100
AcDbEntity
  8
ASSI
100
AcDbLine
 62
7
  6
CONTINUOUS
 10
30.6668379024
 20
70.9726898562
 11
2.0331620976
 21
70.9726898562
  0
LINE
  5
459
100
AcDbEntity
  8
ASSI
100
AcDbLine
 62
7
  6
CONTINUOUS
 10
-2.0331620976
 20
70.9726898562
 11
-30.6668379024
 21
70.9726898562
  0
LINE
  5
45A
100
AcDbEntity
  8
ASSI
100
AcDbLine
 62
7
  6
CONTINUOUS
 10
-30.6668379024
 20
71.6737994418
 11
-2.0331620976
 21
71.6737994418
  0
LINE
  5
45B
100
AcDbEntity
  8
ASSI
100
AcDbLine
 62
7
  6
CONTINUOUS
 10
2.0331620976
 20
71.6737994418
 11
30.6668379024
 21
71.6737994418
  0
LINE
  5
45C
100
AcDbEntity
  8
ASSI
100
AcDbLine
 62
7
  6
CONTINUOUS
 10
16.9886550719
 20
72.9238564442
 11
15.7113449281
 21
72.9238564442
  0
LINE
  5
45D
100
AcDbEntity
  8
ASSI
100
AcDbLine
 62
7
  6
CONTINUOUS
 10
2.0191991091
 20
72.9238564442
 11
1.9886550719
 21
72.9238564442
  0
LINE
  5
45E
100
AcDbEntity
  8
ASSI
100
AcDbLine
 62
7
  6
CONTINUOUS
 10
-15.7191991091
 20
72.9238564442
 11
-16.9808008909
 21
72.9238564442
  0
LINE
  5
45F
100
AcDbEntity
  8
ASSI
100
AcDbLine
 62
7
  6
CONTINUOUS
 10
-2.0191991091
 20
72.9238564442
 11
-1.9808008909
 21
72.9238564442
  0
LINE
  5
460
100
AcDbEntity
  8
ASSI
100
AcDbLine
 62
7
  6
CONTINUOUS
 10
29.6
 20
73.425
 11
3.0
 21
73.425
  0
LINE
  5
461
100
AcDbEntity
  8
ASSI
100
AcDbLine
 62
7
  6
CONTINUOUS
 10
-3.0
 20
73.425
 11
-29.6
 21
73.425
  0
LINE
  5
462
100
AcDbEntity
  8
ASSI
100
AcDbLine
 62
7
  6
CONTINUOUS
 10
-29.6
 20
77.075
 11
-3.0
 21
77.075
  0
LINE
  5
463
100
AcDbEntity
  8
ASSI
100
AcDbLine
 62
7
  6
CONTINUOUS
 10
3.0
 20
77.075
 11
29.6
 21
77.075
  0
LINE
  5
464
100
AcDbEntity
  8
ASSI
100
AcDbLine
 62
7
  6
CONTINUOUS
 10
-30.5909716106
 20
77.5087268678
 11
-2.0191991091
 21
77.5087268678
  0
LINE
  5
465
100
AcDbEntity
  8
ASSI
100
AcDbLine
 62
7
  6
CONTINUOUS
 10
2.0191991091
 20
77.5087268678
 11
30.5909716106
 21
77.5087268678
  0
LINE
  5
466
100
AcDbEntity
  8
ASSI
100
AcDbLine
 62
7
  6
CONTINUOUS
 10
30.6668379024
 20
77.5226898562
 11
2.0331620976
 21
77.5226898562
  0
LINE
  5
467
100
AcDbEntity
  8
ASSI
100
AcDbLine
 62
7
  6
CONTINUOUS
 10
-2.0331620976
 20
77.5226898562
 11
-30.6668379024
 21
77.5226898562
  0
LINE
  5
468
100
AcDbEntity
  8
ASSI
100
AcDbLine
 62
7
  6
CONTINUOUS
 10
-30.6668379024
 20
78.2237994418
 11
-2.0331620976
 21
78.2237994418
  0
LINE
  5
469
100
AcDbEntity
  8
ASSI
100
AcDbLine
 62
7
  6
CONTINUOUS
 10
2.0331620976
 20
78.2237994418
 11
30.6668379024
 21
78.2237994418
  0
LINE
  5
46A
100
AcDbEntity
  8
ASSI
100
AcDbLine
 62
7
  6
CONTINUOUS
 10
-15.7296713505
 20
78.5363136924
 11
-16.9703286495
 21
78.5363136924
  0
LINE
  5
46B
100
AcDbEntity
  8
ASSI
100
AcDbLine
 62
7
  6
CONTINUOUS
 10
15.7218171695
 20
78.5363136924
 11
16.9781828305
 21
78.5363136924
  0
LINE
  5
46C
100
AcDbEntity
  8
ASSI
100
AcDbLine
 62
7
  6
CONTINUOUS
 10
2.0191991091
 20
79.4738564442
 11
1.9886550719
 21
79.4738564442
  0
LINE
  5
46D
100
AcDbEntity
  8
ASSI
100
AcDbLine
 62
7
  6
CONTINUOUS
 10
-2.0191991091
 20
79.4738564442
 11
-1.9931910036
 21
79.4738564442
  0
LINE
  5
46E
100
AcDbEntity
  8
ASSI
100
AcDbLine
 62
7
  6
CONTINUOUS
 10
29.6
 20
79.925
 11
3.0
 21
79.925
  0
LINE
  5
46F
100
AcDbEntity
  8
ASSI
100
AcDbLine
 62
7
  6
CONTINUOUS
 10
-3.0
 20
79.925
 11
-29.6
 21
79.925
  0
LINE
  5
470
100
AcDbEntity
  8
SMUSSO
100
AcDbLine
 62
253
  6
CONTINUOUS
 10
-58.2679491924
 20
139.0
 11
-60.0
 21
139.0
  0
LINE
  5
471
100
AcDbEntity
  8
SMUSSO
100
AcDbLine
 62
253
  6
CONTINUOUS
 10
58.2679491924
 20
139.0
 11
60.0
 21
139.0
  0
LINE
  5
472
100
AcDbEntity
  8
SMUSSO
100
AcDbLine
 62
7
  6
CONTINUOUS
 10
55.0
 20
142.2679491924
 11
46.8508271005
 21
142.2679491924
  0
LINE
  5
473
100
AcDbEntity
  8
SMUSSO
100
AcDbLine
 62
7
  6
CONTINUOUS
 10
-46.8508271005
 20
142.2679491924
 11
-55.0
 21
142.2679491924
  0
LINE
  5
474
100
AcDbEntity
  8
SMUSSO
100
AcDbLine
 62
7
  6
CONTINUOUS
 10
55.0
 20
144.0
 11
46.8508271005
 21
144.0
  0
LINE
  5
475
100
AcDbEntity
  8
SMUSSO
100
AcDbLine
 62
7
  6
CONTINUOUS
 10
-46.8508271005
 20
144.0
 11
-55.0
 21
144.0
  0
LINE
  5
476
100
AcDbEntity
  8
SUPERFICI
100
AcDbLine
 62
7
  6
CONTINUOUS
 10
167.7547227823
 20
-148.0
 11
168.7547227823
 21
-148.0
  0
LINE
  5
477
100
AcDbEntity
  8
SMUSSO
100
AcDbLine
 62
253
  6
CONTINUOUS
 10
167.7547227823
 20
-132.1634460548
 11
168.7547227823
 21
-132.1634460548
  0
LINE
  5
478
100
AcDbEntity
  8
SMUSSO
100
AcDbLine
 62
7
  6
CONTINUOUS
 10
167.7547227823
 20
-131.0
 11
168.7547227823
 21
-131.0
  0
LINE
  5
479
100
AcDbEntity
  8
0
100
AcDbLine
 62
7
  6
CONTINUOUS
 10
165.9547227823
 20
-126.0
 11
167.7547227823
 21
-126.0
  0
LINE
  5
47A
100
AcDbEntity
  8
SMUSSO
100
AcDbLine
 62
253
  6
CONTINUOUS
 10
167.7547227823
 20
-126.0
 11
171.7547227823
 21
-126.0
  0
LINE
  5
47B
100
AcDbEntity
  8
0
100
AcDbLine
 62
7
  6
CONTINUOUS
 10
113.6547227823
 20
-124.0
 11
165.9547227823
 21
-124.0
  0
LINE
  5
47C
100
AcDbEntity
  8
0
100
AcDbLine
 62
7
  6
CONTINUOUS
 10
113.6547227823
 20
-123.2
 11
112.9547227823
 21
-123.2
  0
LINE
  5
47D
100
AcDbEntity
  8
0
100
AcDbLine
 62
253
  6
CONTINUOUS
 10
112.1547227823
 20
-122.5
 11
112.9547227823
 21
-122.5
  0
LINE
  5
47E
100
AcDbEntity
  8
0
100
AcDbLine
 62
253
  6
CONTINUOUS
 10
113.6547227823
 20
-122.5
 11
165.9547227823
 21
-122.5
  0
LINE
  5
47F
100
AcDbEntity
  8
0
100
AcDbLine
 62
7
  6
CONTINUOUS
 10
112.1547227823
 20
-110.2
 11
112.9547227823
 21
-110.2
  0
LINE
  5
480
100
AcDbEntity
  8
0
100
AcDbLine
 62
7
  6
CONTINUOUS
 10
165.9547227823
 20
-107.1
 11
113.6547227823
 21
-107.1
  0
LWPOLYLINE
  5
481
100
AcDbEntity
  8
ASSI
100
AcDbPolyline
 62
7
  6
CONTINUOUS
 90
31
 70
0
 10
172.3042798523
 20
-113.4
 10
172.3123774407
 20
-113.4017491538
 10
172.3232119239
 20
-113.4095432795
 10
172.3335620941
 20
-113.4229963308
 10
172.3433868169
 20
-113.4414491448
 10
172.3527272266
 20
-113.4642760631
 10
172.3614989281
 20
-113.4907922305
 10
172.3696646648
 20
-113.5203192053
 10
172.3772616933
 20
-113.5522992598
 10
172.3843173884
 20
-113.5862683275
 10
172.3908062354
 20
-113.621628141
 10
172.396753749
 20
-113.657995025
 10
172.4022638491
 20
-113.6953875852
 10
172.4073359788
 20
-113.7334358423
 10
172.4119706949
 20
-113.7718778722
 10
172.4162735875
 20
-113.8110929747
 10
172.420253304
 20
-113.8508472234
 10
172.4239011969
 20
-113.8910082509
 10
172.4272969138
 20
-113.9322834257
 10
172.430466463
 20
-113.9747682467
 10
172.4333838361
 20
-114.0181964388
 10
172.4360506558
 20
-114.0628329495
 10
172.4384773769
 20
-114.1087725293
 10
172.4406535445
 20
-114.1557744752
 10
172.4425494165
 20
-114.2036102996
 10
172.4441600556
 20
-114.2522243203
 10
172.445490399
 20
-114.3014828233
 10
172.4465255162
 20
-114.3510217953
 10
172.4472604302
 20
-114.4006465823
 10
172.447700118
 20
-114.4503403634
 10
172.4478445795
 20
-114.5
  0
LWPOLYLINE
  5
482
100
AcDbEntity
  8
ASSI
100
AcDbPolyline
 62
7
  6
CONTINUOUS
 90
19
 70
0
 10
172.3042974671
 20
-115.6
 10
172.2928299688
 20
-115.5964946982
 10
172.2816986998
 20
-115.5864054889
 10
172.2705736403
 20
-115.569408214
 10
172.2594418418
 20
-115.5452386999
 10
172.2483162528
 20
-115.5136701156
 10
172.2375068261
 20
-115.4747002092
 10
172.2270199569
 20
-115.4283780815
 10
172.2168492499
 20
-115.3747008623
 10
172.2072854726
 20
-115.3137624144
 10
172.1983239449
 20
-115.2457233657
 10
172.1899693467
 20
-115.1708867117
 10
172.1825264855
 20
-115.0896919072
 10
172.1760095556
 20
-115.0026853954
 10
172.1704043626
 20
-114.910352163
 10
172.1659731301
 20
-114.8131668221
 10
172.162803266
 20
-114.7117920174
 10
172.1608073625
 20
-114.6070997945
 10
172.1599854196
 20
-114.5
  0
LINE
  5
483
100
AcDbEntity
  8
0
100
AcDbLine
 62
7
  6
CONTINUOUS
 10
112.9547227823
 20
-97.1
 11
111.7547227823
 21
-97.1
  0
LINE
  5
484
100
AcDbEntity
  8
0
100
AcDbLine
 62
7
  6
CONTINUOUS
 10
172.2547227823
 20
-95.3
 11
171.7547227823
 21
-95.3
  0
LINE
  5
485
100
AcDbEntity
  8
0
100
AcDbLine
 62
7
  6
CONTINUOUS
 10
112.9547227823
 20
-93.1
 11
111.7547227823
 21
-93.1
  0
LINE
  5
486
100
AcDbEntity
  8
0
100
AcDbLine
 62
7
  6
CONTINUOUS
 10
173.3976031072
 20
-92.05
 11
172.8547227823
 21
-92.05
  0
LINE
  5
487
100
AcDbEntity
  8
0
100
AcDbLine
 62
7
  6
CONTINUOUS
 10
173.3976031072
 20
-80.55
 11
172.8547227823
 21
-80.55
  0
LINE
  5
488
100
AcDbEntity
  8
0
100
AcDbLine
 62
7
  6
CONTINUOUS
 10
172.2547227823
 20
-77.3
 11
171.7547227823
 21
-77.3
  0
LINE
  5
489
100
AcDbEntity
  8
DRAFT
100
AcDbLine
 62
7
  6
CONTINUOUS
 10
153.8547227823
 20
-77.9381317129
 11
154.2902400799
 21
-77.9396519612
  0
LINE
  5
48A
100
AcDbEntity
  8
DRAFT
100
AcDbLine
 62
7
  6
CONTINUOUS
 10
154.3912511285
 20
-76.8000179164
 11
153.8911322308
 21
-76.7912883085
  0
LINE
  5
48B
100
AcDbEntity
  8
0
100
AcDbLine
 62
7
  6
CONTINUOUS
 10
172.2547227823
 20
-70.3
 11
171.7547227823
 21
-70.3
  0
LINE
  5
48C
100
AcDbEntity
  8
0
100
AcDbLine
 62
7
  6
CONTINUOUS
 10
173.3976031072
 20
-67.05
 11
172.8547227823
 21
-67.05
  0
LINE
  5
48D
100
AcDbEntity
  8
ASSI
100
AcDbLine
 62
7
  6
CONTINUOUS
 10
129.1047227823
 20
-65.2
 11
129.6047227823
 21
-65.2
  0
LINE
  5
48E
100
AcDbEntity
  8
ASSI
100
AcDbLine
 62
7
  6
CONTINUOUS
 10
153.9047227823
 20
-65.2
 11
154.4047227823
 21
-65.2
  0
LINE
  5
48F
100
AcDbEntity
  8
0
100
AcDbLine
 62
7
  6
CONTINUOUS
 10
111.7547227823
 20
-97.1
 11
111.7547227823
 21
-93.1
  0
LINE
  5
490
100
AcDbEntity
  8
0
100
AcDbLine
 62
7
  6
CONTINUOUS
 10
111.7547227823
 20
106.1
 11
111.7547227823
 21
110.1
  0
LINE
  5
491
100
AcDbEntity
  8
0
100
AcDbLine
 62
7
  6
CONTINUOUS
 10
112.1547227823
 20
-122.5
 11
112.1547227823
 21
-110.2
  0
LINE
  5
492
100
AcDbEntity
  8
0
100
AcDbLine
 62
7
  6
CONTINUOUS
 10
112.1547227823
 20
123.2
 11
112.1547227823
 21
135.5
  0
LINE
  5
493
100
AcDbEntity
  8
0
100
AcDbLine
 62
7
  6
CONTINUOUS
 10
112.9547227823
 20
136.2
 11
112.9547227823
 21
-123.2
  0
LINE
  5
494
100
AcDbEntity
  8
0
100
AcDbLine
 62
7
  6
CONTINUOUS
 10
113.6547227823
 20
-107.1
 11
113.6547227823
 21
-124.0
  0
LINE
  5
495
100
AcDbEntity
  8
0
100
AcDbLine
 62
7
  6
CONTINUOUS
 10
113.6547227823
 20
120.1
 11
113.6547227823
 21
137.0
  0
LINE
  5
496
100
AcDbEntity
  8
0
100
AcDbLine
 62
253
  6
CONTINUOUS
 10
115.2547227823
 20
120.1
 11
115.2547227823
 21
-107.1
  0
LINE
  5
497
100
AcDbEntity
  8
ASSI
100
AcDbLine
 62
7
  6
CONTINUOUS
 10
154.4047227823
 20
-61.2
 11
153.9047227823
 21
-61.2
  0
LINE
  5
498
100
AcDbEntity
  8
ASSI
100
AcDbLine
 62
7
  6
CONTINUOUS
 10
129.6047227823
 20
-61.2
 11
129.1047227823
 21
-61.2
  0
LINE
  5
499
100
AcDbEntity
  8
0
100
AcDbLine
 62
7
  6
CONTINUOUS
 10
173.3976031072
 20
-55.55
 11
172.8547227823
 21
-55.55
  0
LINE
  5
49A
100
AcDbEntity
  8
0
100
AcDbLine
 62
7
  6
CONTINUOUS
 10
172.2547227823
 20
-52.3
 11
171.7547227823
 21
-52.3
  0
LINE
  5
49B
100
AcDbEntity
  8
DRAFT
100
AcDbLine
 62
7
  6
CONTINUOUS
 10
153.9047227823
 20
-52.9383062465
 11
154.4047227823
 21
-52.9400515829
  0
LINE
  5
49C
100
AcDbEntity
  8
DRAFT
100
AcDbLine
 62
7
  6
CONTINUOUS
 10
154.4047227823
 20
-51.800253065
 11
153.9047227823
 21
-51.7915255325
  0
LINE
  5
49D
100
AcDbEntity
  8
ASSI
100
AcDbLine
 62
7
  6
CONTINUOUS
 10
129.1047227823
 20
-76.25
 11
129.1047227823
 21
-65.2
  0
LINE
  5
49E
100
AcDbEntity
  8
ASSI
100
AcDbLine
 62
7
  6
CONTINUOUS
 10
129.1047227823
 20
-61.2
 11
129.1047227823
 21
-50.15
  0
LINE
  5
49F
100
AcDbEntity
  8
ASSI
100
AcDbLine
 62
7
  6
CONTINUOUS
 10
129.1047227823
 20
63.15
 11
129.1047227823
 21
74.2
  0
LINE
  5
4A0
100
AcDbEntity
  8
ASSI
100
AcDbLine
 62
7
  6
CONTINUOUS
 10
129.1047227823
 20
78.2
 11
129.1047227823
 21
89.25
  0
LINE
  5
4A1
100
AcDbEntity
  8
ASSI
100
AcDbLine
 62
7
  6
CONTINUOUS
 10
129.6047227823
 20
89.25
 11
129.6047227823
 21
78.2
  0
LINE
  5
4A2
100
AcDbEntity
  8
ASSI
100
AcDbLine
 62
7
  6
CONTINUOUS
 10
129.6047227823
 20
74.2
 11
129.6047227823
 21
63.15
  0
LINE
  5
4A3
100
AcDbEntity
  8
ASSI
100
AcDbLine
 62
7
  6
CONTINUOUS
 10
129.6047227823
 20
-50.15
 11
129.6047227823
 21
-61.2
  0
LINE
  5
4A4
100
AcDbEntity
  8
ASSI
100
AcDbLine
 62
7
  6
CONTINUOUS
 10
129.6047227823
 20
-65.2
 11
129.6047227823
 21
-76.25
  0
LINE
  5
4A5
100
AcDbEntity
  8
0
100
AcDbLine
 62
7
  6
CONTINUOUS
 10
172.2547227823
 20
-45.3
 11
171.7547227823
 21
-45.3
  0
LINE
  5
4A6
100
AcDbEntity
  8
0
100
AcDbLine
 62
7
  6
CONTINUOUS
 10
173.3976031072
 20
-42.05
 11
172.8547227823
 21
-42.05
  0
LINE
  5
4A7
100
AcDbEntity
  8
0
100
AcDbLine
 62
7
  6
CONTINUOUS
 10
140.3547227823
 20
-88.8222359491
 11
140.3547227823
 21
-88.3174304688
  0
LINE
  5
4A8
100
AcDbEntity
  8
0
100
AcDbLine
 62
7
  6
CONTINUOUS
 10
140.3547227823
 20
-38.0825695313
 11
140.3547227823
 21
-37.577764051
  0
LINE
  5
4A9
100
AcDbEntity
  8
0
100
AcDbLine
 62
7
  6
CONTINUOUS
 10
140.3547227823
 20
50.5777640509
 11
140.3547227823
 21
51.0825695312
  0
LINE
  5
4AA
100
AcDbEntity
  8
0
100
AcDbLine
 62
7
  6
CONTINUOUS
 10
140.3547227823
 20
101.3174304687
 11
140.3547227823
 21
101.822235949
  0
LINE
  5
4AB
100
AcDbEntity
  8
0
100
AcDbLine
 62
7
  6
CONTINUOUS
 10
173.3976031072
 20
-30.55
 11
172.8547227823
 21
-30.55
  0
LINE
  5
4AC
100
AcDbEntity
  8
0
100
AcDbLine
 62
7
  6
CONTINUOUS
 10
172.2547227823
 20
-27.3
 11
171.7547227823
 21
-27.3
  0
LINE
  5
4AD
100
AcDbEntity
  8
SMUSSO
100
AcDbLine
 62
7
  6
CONTINUOUS
 10
172.8547227823
 20
-78.3
 11
172.2547227823
 21
-77.3
  0
LINE
  5
4AE
100
AcDbEntity
  8
DRAFT
100
AcDbLine
 62
7
  6
CONTINUOUS
 10
153.8547227823
 20
-77.9381317129
 11
153.8547227823
 21
-77.3371609789
  0
LINE
  5
4AF
100
AcDbEntity
  8
ASSI
100
AcDbLine
 62
7
  6
CONTINUOUS
 10
153.9047227823
 20
-76.25
 11
153.9047227823
 21
-65.2
  0
LINE
  5
4B0
100
AcDbEntity
  8
ASSI
100
AcDbLine
 62
7
  6
CONTINUOUS
 10
153.9047227823
 20
-61.2
 11
153.9047227823
 21
-50.15
  0
LINE
  5
4B1
100
AcDbEntity
  8
ASSI
100
AcDbLine
 62
7
  6
CONTINUOUS
 10
153.9047227823
 20
63.15
 11
153.9047227823
 21
74.2
  0
LINE
  5
4B2
100
AcDbEntity
  8
ASSI
100
AcDbLine
 62
7
  6
CONTINUOUS
 10
153.9047227823
 20
78.2
 11
153.9047227823
 21
89.25
  0
LINE
  5
4B3
100
AcDbEntity
  8
ASSI
100
AcDbLine
 62
7
  6
CONTINUOUS
 10
154.4047227823
 20
89.25
 11
154.4047227823
 21
78.2
  0
LINE
  5
4B4
100
AcDbEntity
  8
ASSI
100
AcDbLine
 62
7
  6
CONTINUOUS
 10
154.4047227823
 20
74.2
 11
154.4047227823
 21
63.15
  0
LINE
  5
4B5
100
AcDbEntity
  8
ASSI
100
AcDbLine
 62
7
  6
CONTINUOUS
 10
154.4047227823
 20
-50.15
 11
154.4047227823
 21
-61.2
  0
LINE
  5
4B6
100
AcDbEntity
  8
ASSI
100
AcDbLine
 62
7
  6
CONTINUOUS
 10
154.4047227823
 20
-65.2
 11
154.4047227823
 21
-76.25
  0
LINE
  5
4B7
100
AcDbEntity
  8
SMUSSO
100
AcDbLine
 62
7
  6
CONTINUOUS
 10
172.8547227823
 20
-53.3
 11
172.2547227823
 21
-52.3
  0
LINE
  5
4B8
100
AcDbEntity
  8
0
100
AcDbLine
 62
7
  6
CONTINUOUS
 10
165.9547227823
 20
-126.0
 11
165.9547227823
 21
161.0000022397
  0
LINE
  5
4B9
100
AcDbEntity
  8
0
100
AcDbLine
 62
7
  6
CONTINUOUS
 10
167.7547227823
 20
-126.0
 11
167.7547227823
 21
144.0
  0
LINE
  5
4BA
100
AcDbEntity
  8
RACCORDO
100
AcDbLine
 62
7
  6
CONTINUOUS
 10
167.7547227823
 20
-147.999984527
 11
167.7547227823
 21
160.9995207769
  0
LINE
  5
4BB
100
AcDbEntity
  8
0
100
AcDbLine
 62
7
  6
CONTINUOUS
 10
167.7547227823
 20
145.1634460547
 11
167.7547227823
 21
161.0000022397
  0
LINE
  5
4BC
100
AcDbEntity
  8
SMUSSO
100
AcDbLine
 62
7
  6
CONTINUOUS
 10
168.7547227823
 20
161.0
 11
168.7547227823
 21
-148.0
  0
LINE
  5
4BD
100
AcDbEntity
  8
SMUSSO
100
AcDbLine
 62
7
  6
CONTINUOUS
 10
172.8547227823
 20
-28.3
 11
172.2547227823
 21
-27.3
  0
LINE
  5
4BE
100
AcDbEntity
  8
SMUSSO
100
AcDbLine
 62
7
  6
CONTINUOUS
 10
171.7547227823
 20
159.2679491924
 11
171.7547227823
 21
-146.2679491924
  0
LINE
  5
4BF
100
AcDbEntity
  8
0
100
AcDbLine
 62
7
  6
CONTINUOUS
 10
171.760638145
 20
134.0
 11
171.760638145
 21
121.0
  0
LINE
  5
4C0
100
AcDbEntity
  8
0
100
AcDbLine
 62
7
  6
CONTINUOUS
 10
171.760638145
 20
-108.0
 11
171.760638145
 21
-121.0
  0
LINE
  5
4C1
100
AcDbEntity
  8
ASSI
100
AcDbLine
 62
7
  6
CONTINUOUS
 10
171.8547227823
 20
78.2237994418
 11
171.8547227823
 21
77.5226898562
  0
LINE
  5
4C2
100
AcDbEntity
  8
ASSI
100
AcDbLine
 62
7
  6
CONTINUOUS
 10
171.8547227823
 20
71.6737994418
 11
171.8547227823
 21
70.9726898562
  0
LINE
  5
4C3
100
AcDbEntity
  8
ASSI
100
AcDbLine
 62
7
  6
CONTINUOUS
 10
171.8547227823
 20
65.1237994418
 11
171.8547227823
 21
64.4226898562
  0
LINE
  5
4C4
100
AcDbEntity
  8
ASSI
100
AcDbLine
 62
7
  6
CONTINUOUS
 10
171.8547227823
 20
58.5737994418
 11
171.8547227823
 21
57.8726898562
  0
LINE
  5
4C5
100
AcDbEntity
  8
ASSI
100
AcDbLine
 62
7
  6
CONTINUOUS
 10
171.8547227823
 20
52.0237994418
 11
171.8547227823
 21
51.3226898562
  0
LINE
  5
4C6
100
AcDbEntity
  8
ASSI
100
AcDbLine
 62
7
  6
CONTINUOUS
 10
171.8547227823
 20
45.4737994418
 11
171.8547227823
 21
44.7726898562
  0
LINE
  5
4C7
100
AcDbEntity
  8
ASSI
100
AcDbLine
 62
7
  6
CONTINUOUS
 10
171.8547227823
 20
38.9237994418
 11
171.8547227823
 21
38.1895277586
  0
LINE
  5
4C8
100
AcDbEntity
  8
ASSI
100
AcDbLine
 62
7
  6
CONTINUOUS
 10
171.8547227823
 20
32.3737994418
 11
171.8547227823
 21
31.6395277586
  0
LINE
  5
4C9
100
AcDbEntity
  8
ASSI
100
AcDbLine
 62
7
  6
CONTINUOUS
 10
171.8547227823
 20
25.8237994418
 11
171.8547227823
 21
25.0895277586
  0
LINE
  5
4CA
100
AcDbEntity
  8
SMUSSO
100
AcDbLine
 62
7
  6
CONTINUOUS
 10
172.2547227823
 20
-27.3
 11
172.2547227823
 21
-45.3
  0
LINE
  5
4CB
100
AcDbEntity
  8
SMUSSO
100
AcDbLine
 62
7
  6
CONTINUOUS
 10
172.2547227823
 20
-52.3
 11
172.2547227823
 21
-70.3
  0
LINE
  5
4CC
100
AcDbEntity
  8
SMUSSO
100
AcDbLine
 62
7
  6
CONTINUOUS
 10
172.2547227823
 20
-77.3
 11
172.2547227823
 21
-95.3
  0
LINE
  5
4CD
100
AcDbEntity
  8
SMUSSO
100
AcDbLine
 62
7
  6
CONTINUOUS
 10
172.8547227823
 20
-28.3002180663
 11
172.8547227823
 21
-44.2997819337
  0
LINE
  5
4CE
100
AcDbEntity
  8
SMUSSO
100
AcDbLine
 62
7
  6
CONTINUOUS
 10
172.8547227823
 20
-53.3002180663
 11
172.8547227823
 21
-69.2997819337
  0
LINE
  5
4CF
100
AcDbEntity
  8
SMUSSO
100
AcDbLine
 62
7
  6
CONTINUOUS
 10
172.8547227823
 20
-78.3002180663
 11
172.8547227823
 21
-94.2997819337
  0
LINE
  5
4D0
100
AcDbEntity
  8
RACCORDO
100
AcDbLine
 62
253
  6
CONTINUOUS
 10
173.3976031072
 20
-30.55
 11
173.3976031072
 21
-42.05
  0
LINE
  5
4D1
100
AcDbEntity
  8
RACCORDO
100
AcDbLine
 62
253
  6
CONTINUOUS
 10
173.3976031072
 20
-55.55
 11
173.3976031072
 21
-67.05
  0
LINE
  5
4D2
100
AcDbEntity
  8
RACCORDO
100
AcDbLine
 62
253
  6
CONTINUOUS
 10
173.3976031072
 20
-80.55
 11
173.3976031072
 21
-92.05
  0
LINE
  5
4D3
100
AcDbEntity
  8
RACCORDO
100
AcDbLine
 62
253
  6
CONTINUOUS
 10
173.5920732099
 20
-30.703294763
 11
173.5920732099
 21
-41.8967052371
  0
LINE
  5
4D4
100
AcDbEntity
  8
RACCORDO
100
AcDbLine
 62
253
  6
CONTINUOUS
 10
173.5920732099
 20
-55.703294763
 11
173.5920732099
 21
-66.8967052371
  0
LINE
  5
4D5
100
AcDbEntity
  8
RACCORDO
100
AcDbLine
 62
253
  6
CONTINUOUS
 10
173.5920732099
 20
-80.703294763
 11
173.5920732099
 21
-91.8967052371
  0
LWPOLYLINE
  5
4D6
100
AcDbEntity
  8
ASSI
100
AcDbPolyline
 62
7
  6
CONTINUOUS
 90
34
 70
0
 10
172.4478445795
 20
127.5
 10
172.4477464538
 20
127.4594719937
 10
172.4474550223
 20
127.418992528
 10
172.446970285
 20
127.3786166281
 10
172.4462891975
 20
127.3383531779
 10
172.4454148041
 20
127.2983035462
 10
172.4443562376
 20
127.2586586752
 10
172.4431165262
 20
127.2195782904
 10
172.4416926418
 20
127.1810003745
 10
172.4400846322
 20
127.142784415
 10
172.4383063518
 20
127.1051340746
 10
172.4363439463
 20
127.0679474048
 10
172.4341559011
 20
127.0306593528
 10
172.4317530765
 20
126.9933561276
 10
172.4291246122
 20
126.9561282614
 10
172.4261964123
 20
126.9184913792
 10
172.4229747545
 20
126.8805601167
 10
172.4194533612
 20
126.8425296408
 10
172.415539303
 20
126.8041361969
 10
172.4112096017
 20
126.7654221198
 10
172.4064872354
 20
126.7268625988
 10
172.4013482097
 20
126.6888970575
 10
172.395797114
 20
126.6518944233
 10
172.3898293589
 20
126.6160632179
 10
172.3834071812
 20
126.5816301339
 10
172.3765483916
 20
126.5490652658
 10
172.3692351796
 20
126.5186241664
 10
172.3613763502
 20
126.4903856585
 10
172.3529002714
 20
126.4647525901
 10
172.3438785754
 20
126.4425169513
 10
172.334434964
 20
126.4244054242
 10
172.3245583322
 20
126.4109562817
 10
172.314259785
 20
126.4026528625
 10
172.3042974671
 20
126.4
  0
LWPOLYLINE
  5
4D7
100
AcDbEntity
  8
ASSI
100
AcDbPolyline
 62
7
  6
CONTINUOUS
 90
34
 70
0
 10
172.4478445795
 20
-114.5
 10
172.4477464538
 20
-114.5405280063
 10
172.4474550223
 20
-114.581007472
 10
172.446970285
 20
-114.6213833719
 10
172.4462891975
 20
-114.6616468221
 10
172.4454148041
 20
-114.7016964538
 10
172.4443562376
 20
-114.7413413248
 10
172.4431165262
 20
-114.7804217096
 10
172.4416926418
 20
-114.8189996255
 10
172.4400846322
 20
-114.857215585
 10
172.4383063518
 20
-114.8948659254
 10
172.4363439463
 20
-114.9320525952
 10
172.4341559011
 20
-114.9693406472
 10
172.4317530765
 20
-115.0066438724
 10
172.4291246122
 20
-115.0438717386
 10
172.4261964123
 20
-115.0815086208
 10
172.4229747545
 20
-115.1194398833
 10
172.4194533612
 20
-115.1574703592
 10
172.415539303
 20
-115.1958638031
 10
172.4112096017
 20
-115.2345778802
 10
172.4064872354
 20
-115.2731374012
 10
172.4013482097
 20
-115.3111029425
 10
172.395797114
 20
-115.3481055767
 10
172.3898293589
 20
-115.3839367821
 10
172.3834071812
 20
-115.4183698661
 10
172.3765483916
 20
-115.4509347342
 10
172.3692351796
 20
-115.4813758336
 10
172.3613763502
 20
-115.5096143415
 10
172.3529002714
 20
-115.5352474099
 10
172.3438785754
 20
-115.5574830487
 10
172.334434964
 20
-115.5755945758
 10
172.3245583322
 20
-115.5890437183
 10
172.314259785
 20
-115.5973471375
 10
172.3042974671
 20
-115.6
  0
LWPOLYLINE
  5
4D8
100
AcDbEntity
  8
ASSI
100
AcDbPolyline
 62
7
  6
CONTINUOUS
 90
20
 70
0
 10
172.1599854196
 20
127.5
 10
172.1605378219
 20
127.5953182434
 10
172.1621791781
 20
127.6904055774
 10
172.1649094881
 20
127.784522489
 10
172.1687709088
 20
127.8771067309
 10
172.1737212833
 20
127.9672001714
 10
172.1796341416
 20
128.0535233762
 10
172.1865512013
 20
128.1353902055
 10
172.1944307448
 20
128.2121991673
 10
172.2030211488
 20
128.2830009754
 10
172.2123313627
 20
128.3472792678
 10
172.2223524372
 20
128.4047672677
 10
172.2328059007
 20
128.4550991849
 10
172.243702021
 20
128.4980947482
 10
172.2550305303
 20
128.5335804724
 10
172.2664821545
 20
128.5613994896
 10
172.2780870123
 20
128.5816678207
 10
172.2898149849
 20
128.5944030729
 10
172.3012664424
 20
128.5997553115
 10
172.3042798523
 20
128.6
  0
LWPOLYLINE
  5
4D9
100
AcDbEntity
  8
ASSI
100
AcDbPolyline
 62
7
  6
CONTINUOUS
 90
20
 70
0
 10
172.1599854196
 20
-114.5
 10
172.1605378219
 20
-114.4046817566
 10
172.1621791781
 20
-114.3095944226
 10
172.1649094881
 20
-114.215477511
 10
172.1687709088
 20
-114.1228932691
 10
172.1737212833
 20
-114.0327998286
 10
172.1796341416
 20
-113.9464766238
 10
172.1865512013
 20
-113.8646097945
 10
172.1944307448
 20
-113.7878008327
 10
172.2030211488
 20
-113.7169990246
 10
172.2123313627
 20
-113.6527207322
 10
172.2223524372
 20
-113.5952327323
 10
172.2328059007
 20
-113.5449008151
 10
172.243702021
 20
-113.5019052518
 10
172.2550305303
 20
-113.4664195276
 10
172.2664821545
 20
-113.4386005104
 10
172.2780870123
 20
-113.4183321793
 10
172.2898149849
 20
-113.4055969271
 10
172.3012664424
 20
-113.4002446885
 10
172.3042798523
 20
-113.4
  0
LINE
  5
4DA
100
AcDbEntity
  8
SMUSSO
100
AcDbLine
 62
7
  6
CONTINUOUS
 10
172.8547227823
 20
-44.3
 11
172.2547227823
 21
-45.3
  0
LINE
  5
4DB
100
AcDbEntity
  8
ASSI
100
AcDbLine
 62
7
  6
CONTINUOUS
 10
171.8547227823
 20
25.0895277586
 11
171.7547227823
 21
25.0895277586
  0
LINE
  5
4DC
100
AcDbEntity
  8
ASSI
100
AcDbLine
 62
7
  6
CONTINUOUS
 10
171.7547227823
 20
25.9019280044
 11
171.8547227823
 21
25.8237994418
  0
LINE
  5
4DD
100
AcDbEntity
  8
SMUSSO
100
AcDbLine
 62
7
  6
CONTINUOUS
 10
172.8547227823
 20
-69.3
 11
172.2547227823
 21
-70.3
  0
LINE
  5
4DE
100
AcDbEntity
  8
ASSI
100
AcDbLine
 62
7
  6
CONTINUOUS
 10
171.8547227823
 20
31.6395277586
 11
171.7547227823
 21
31.6395277586
  0
LINE
  5
4DF
100
AcDbEntity
  8
ASSI
100
AcDbLine
 62
7
  6
CONTINUOUS
 10
171.8547227823
 20
38.1895277586
 11
171.7547227823
 21
38.1895277586
  0
LINE
  5
4E0
100
AcDbEntity
  8
ASSI
100
AcDbLine
 62
7
  6
CONTINUOUS
 10
171.7547227823
 20
32.4519280044
 11
171.8547227823
 21
32.3737994418
  0
LINE
  5
4E1
100
AcDbEntity
  8
ASSI
100
AcDbLine
 62
7
  6
CONTINUOUS
 10
171.7547227823
 20
39.0019280044
 11
171.8547227823
 21
38.9237994418
  0
LINE
  5
4E2
100
AcDbEntity
  8
ASSI
100
AcDbLine
 62
7
  6
CONTINUOUS
 10
171.7547227823
 20
45.5519280044
 11
171.8547227823
 21
45.4737994418
  0
LINE
  5
4E3
100
AcDbEntity
  8
SMUSSO
100
AcDbLine
 62
7
  6
CONTINUOUS
 10
172.8547227823
 20
-94.3
 11
172.2547227823
 21
-95.3
  0
LINE
  5
4E4
100
AcDbEntity
  8
ASSI
100
AcDbLine
 62
7
  6
CONTINUOUS
 10
171.8547227823
 20
44.7726898562
 11
171.7547227823
 21
44.7718171695
  0
LINE
  5
4E5
100
AcDbEntity
  8
ASSI
100
AcDbLine
 62
7
  6
CONTINUOUS
 10
171.8547227823
 20
51.3226898562
 11
171.7547227823
 21
51.3218171695
  0
LINE
  5
4E6
100
AcDbEntity
  8
ASSI
100
AcDbLine
 62
7
  6
CONTINUOUS
 10
171.7547227823
 20
52.1019280044
 11
171.8547227823
 21
52.0237994418
  0
LINE
  5
4E7
100
AcDbEntity
  8
ASSI
100
AcDbLine
 62
7
  6
CONTINUOUS
 10
171.7547227823
 20
58.6519280044
 11
171.8547227823
 21
58.5737994418
  0
LINE
  5
4E8
100
AcDbEntity
  8
ASSI
100
AcDbLine
 62
7
  6
CONTINUOUS
 10
171.8547227823
 20
57.8726898562
 11
171.7547227823
 21
57.8718171695
  0
LINE
  5
4E9
100
AcDbEntity
  8
ASSI
100
AcDbLine
 62
7
  6
CONTINUOUS
 10
171.8547227823
 20
64.4226898562
 11
171.7547227823
 21
64.4218171695
  0
LINE
  5
4EA
100
AcDbEntity
  8
ASSI
100
AcDbLine
 62
7
  6
CONTINUOUS
 10
171.7547227823
 20
65.2019280044
 11
171.8547227823
 21
65.1237994418
  0
LINE
  5
4EB
100
AcDbEntity
  8
ASSI
100
AcDbLine
 62
7
  6
CONTINUOUS
 10
171.7547227823
 20
71.7519280044
 11
171.8547227823
 21
71.6737994418
  0
LINE
  5
4EC
100
AcDbEntity
  8
ASSI
100
AcDbLine
 62
7
  6
CONTINUOUS
 10
171.7547227823
 20
78.3019280044
 11
171.8547227823
 21
78.2237994418
  0
LINE
  5
4ED
100
AcDbEntity
  8
ASSI
100
AcDbLine
 62
7
  6
CONTINUOUS
 10
171.8547227823
 20
70.9726898562
 11
171.7547227823
 21
70.9718171695
  0
LINE
  5
4EE
100
AcDbEntity
  8
ASSI
100
AcDbLine
 62
7
  6
CONTINUOUS
 10
171.8547227823
 20
77.5226898562
 11
171.7547227823
 21
77.5218171695
  0
LINE
  5
4EF
100
AcDbEntity
  8
ASSI
100
AcDbLine
 62
7
  6
CONTINUOUS
 10
129.1047227823
 20
74.2
 11
129.6047227823
 21
74.2
  0
LINE
  5
4F0
100
AcDbEntity
  8
ASSI
100
AcDbLine
 62
7
  6
CONTINUOUS
 10
153.9047227823
 20
74.2
 11
154.4047227823
 21
74.2
  0
LINE
  5
4F1
100
AcDbEntity
  8
ASSI
100
AcDbLine
 62
7
  6
CONTINUOUS
 10
154.4047227823
 20
78.2
 11
153.9047227823
 21
78.2
  0
LINE
  5
4F2
100
AcDbEntity
  8
ASSI
100
AcDbLine
 62
7
  6
CONTINUOUS
 10
129.6047227823
 20
78.2
 11
129.1047227823
 21
78.2
  0
LINE
  5
4F3
100
AcDbEntity
  8
SMUSSO
100
AcDbLine
 62
7
  6
CONTINUOUS
 10
171.7547227823
 20
-129.2679491924
 11
168.7547227823
 21
-131.0
  0
LINE
  5
4F4
100
AcDbEntity
  8
0
100
AcDbLine
 62
7
  6
CONTINUOUS
 10
112.9547227823
 20
106.1
 11
111.7547227823
 21
106.1
  0
LINE
  5
4F5
100
AcDbEntity
  8
0
100
AcDbLine
 62
7
  6
CONTINUOUS
 10
112.9547227823
 20
110.1
 11
111.7547227823
 21
110.1
  0
LINE
  5
4F6
100
AcDbEntity
  8
SMUSSO
100
AcDbLine
 62
7
  6
CONTINUOUS
 10
171.7547227823
 20
-146.2679491924
 11
168.7547227823
 21
-148.0
  0
LINE
  5
4F7
100
AcDbEntity
  8
SMUSSO
100
AcDbLine
 62
253
  6
CONTINUOUS
 10
171.7547227823
 20
-130.8344247829
 11
168.7547227823
 21
-132.1634460547
  0
LINE
  5
4F8
100
AcDbEntity
  8
0
100
AcDbLine
 62
7
  6
CONTINUOUS
 10
113.6547227823
 20
120.1
 11
165.9547227823
 21
120.1
  0
LINE
  5
4F9
100
AcDbEntity
  8
0
100
AcDbLine
 62
7
  6
CONTINUOUS
 10
112.1547227823
 20
123.2
 11
112.9547227823
 21
123.2
  0
LWPOLYLINE
  5
4FA
100
AcDbEntity
  8
ASSI
100
AcDbPolyline
 62
7
  6
CONTINUOUS
 90
31
 70
0
 10
172.3042798523
 20
128.6
 10
172.3123774407
 20
128.5982508462
 10
172.3232119239
 20
128.5904567205
 10
172.3335620941
 20
128.5770036692
 10
172.3433868169
 20
128.5585508552
 10
172.3527272266
 20
128.5357239369
 10
172.3614989281
 20
128.5092077695
 10
172.3696646648
 20
128.4796807947
 10
172.3772616933
 20
128.4477007402
 10
172.3843173884
 20
128.4137316725
 10
172.3908062354
 20
128.378371859
 10
172.396753749
 20
128.342004975
 10
172.4022638491
 20
128.3046124148
 10
172.4073359788
 20
128.2665641577
 10
172.4119706949
 20
128.2281221278
 10
172.4162735875
 20
128.1889070253
 10
172.420253304
 20
128.1491527766
 10
172.4239011969
 20
128.1089917491
 10
172.4272969138
 20
128.0677165743
 10
172.430466463
 20
128.0252317533
 10
172.4333838361
 20
127.9818035612
 10
172.4360506558
 20
127.9371670505
 10
172.4384773769
 20
127.8912274707
 10
172.4406535445
 20
127.8442255248
 10
172.4425494165
 20
127.7963897004
 10
172.4441600556
 20
127.7477756797
 10
172.445490399
 20
127.6985171767
 10
172.4465255162
 20
127.6489782047
 10
172.4472604302
 20
127.5993534177
 10
172.447700118
 20
127.5496596366
 10
172.4478445795
 20
127.5
  0
LWPOLYLINE
  5
4FB
100
AcDbEntity
  8
ASSI
100
AcDbPolyline
 62
7
  6
CONTINUOUS
 90
19
 70
0
 10
172.3042974671
 20
126.4
 10
172.2928299688
 20
126.4035053018
 10
172.2816986998
 20
126.4135945111
 10
172.2705736403
 20
126.430591786
 10
172.2594418418
 20
126.4547613001
 10
172.2483162528
 20
126.4863298844
 10
172.2375068261
 20
126.5252997908
 10
172.2270199569
 20
126.5716219185
 10
172.2168492499
 20
126.6252991377
 10
172.2072854726
 20
126.6862375856
 10
172.1983239449
 20
126.7542766343
 10
172.1899693467
 20
126.8291132883
 10
172.1825264855
 20
126.9103080928
 10
172.1760095556
 20
126.9973146046
 10
172.1704043626
 20
127.089647837
 10
172.1659731301
 20
127.1868331779
 10
172.162803266
 20
127.2882079826
 10
172.1608073625
 20
127.3929002055
 10
172.1599854196
 20
127.5
  0
LINE
  5
4FC
100
AcDbEntity
  8
SMUSSO
100
AcDbLine
 62
7
  6
CONTINUOUS
 10
171.7547227823
 20
142.2679491924
 11
168.7547227823
 21
144.0
  0
LINE
  5
4FD
100
AcDbEntity
  8
0
100
AcDbLine
 62
253
  6
CONTINUOUS
 10
165.9547227823
 20
135.5
 11
113.6547227823
 21
135.5
  0
LINE
  5
4FE
100
AcDbEntity
  8
0
100
AcDbLine
 62
253
  6
CONTINUOUS
 10
112.1547227823
 20
135.5
 11
112.9547227823
 21
135.5
  0
LINE
  5
4FF
100
AcDbEntity
  8
0
100
AcDbLine
 62
7
  6
CONTINUOUS
 10
113.6547227823
 20
136.2
 11
112.9547227823
 21
136.2
  0
LINE
  5
500
100
AcDbEntity
  8
0
100
AcDbLine
 62
7
  6
CONTINUOUS
 10
165.9547227823
 20
137.0
 11
113.6547227823
 21
137.0
  0
LINE
  5
501
100
AcDbEntity
  8
SMUSSO
100
AcDbLine
 62
253
  6
CONTINUOUS
 10
171.7547227823
 20
139.0
 11
167.7547227823
 21
139.0
  0
LINE
  5
502
100
AcDbEntity
  8
0
100
AcDbLine
 62
253
  6
CONTINUOUS
 10
165.9547227823
 20
139.0
 11
167.7547227823
 21
139.0
  0
LINE
  5
503
100
AcDbEntity
  8
SMUSSO
100
AcDbLine
 62
253
  6
CONTINUOUS
 10
171.7547227822
 20
143.8344247835
 11
168.7547227822
 21
145.1634460552
  0
LINE
  5
504
100
AcDbEntity
  8
SMUSSO
100
AcDbLine
 62
7
  6
CONTINUOUS
 10
171.7547227823
 20
159.2679491924
 11
168.7547227823
 21
161.0
  0
LINE
  5
505
100
AcDbEntity
  8
SMUSSO
100
AcDbLine
 62
7
  6
CONTINUOUS
 10
168.7547227823
 20
144.0
 11
167.7547227823
 21
144.0
  0
LINE
  5
506
100
AcDbEntity
  8
0
100
AcDbLine
 62
7
  6
CONTINUOUS
 10
165.9547227823
 20
144.0
 11
167.7547227823
 21
144.0
  0
LINE
  5
507
100
AcDbEntity
  8
SMUSSO
100
AcDbLine
 62
253
  6
CONTINUOUS
 10
167.7547227823
 20
145.1634460547
 11
168.7547227823
 21
145.1634460547
  0
LINE
  5
508
100
AcDbEntity
  8
0
100
AcDbLine
 62
7
  6
CONTINUOUS
 10
167.7547227823
 20
161.0
 11
165.9547227823
 21
161.0
  0
LINE
  5
509
100
AcDbEntity
  8
SUPERFICI
100
AcDbLine
 62
7
  6
CONTINUOUS
 10
167.7547227823
 20
161.0
 11
168.7547227823
 21
161.0
  0
ARC
  5
50A
100
AcDbEntity
  8
0
100
AcDbCircle
 62
7
  6
CONTINUOUS
 10
-27.71
 20
-86.3
 40
9.443375673
100
AcDbArc
 50
90.0
 51
270.0
  0
ARC
  5
50B
100
AcDbEntity
  8
0
100
AcDbCircle
 62
7
  6
CONTINUOUS
 10
-27.71
 20
-61.3
 40
9.443375673
100
AcDbArc
 50
90.0
 51
270.0
  0
ARC
  5
50C
100
AcDbEntity
  8
0
100
AcDbCircle
 62
7
  6
CONTINUOUS
 10
-27.71
 20
-36.3
 40
9.443375673
100
AcDbArc
 50
90.0
 51
270.0
  0
ARC
  5
50D
100
AcDbEntity
  8
DRAFT
100
AcDbCircle
 62
7
  6
CONTINUOUS
 10
-16.9
 20
-11.3
 40
9.443375673
100
AcDbArc
 50
90.0
 51
270.0
  0
ARC
  5
50E
100
AcDbEntity
  8
SUPERFICI
100
AcDbCircle
 62
7
  6
CONTINUOUS
 10
-27.71
 20
-36.3
 40
8.0
100
AcDbArc
 50
90.0
 51
270.0
  0
ARC
  5
50F
100
AcDbEntity
  8
SUPERFICI
100
AcDbCircle
 62
7
  6
CONTINUOUS
 10
-27.71
 20
-61.3
 40
8.0
100
AcDbArc
 50
90.0
 51
270.0
  0
ARC
  5
510
100
AcDbEntity
  8
DRAFT
100
AcDbCircle
 62
7
  6
CONTINUOUS
 10
-16.9
 20
-11.3
 40
8.0
100
AcDbArc
 50
90.0
 51
270.0
  0
ARC
  5
511
100
AcDbEntity
  8
SUPERFICI
100
AcDbCircle
 62
7
  6
CONTINUOUS
 10
-27.71
 20
-86.3
 40
8.0
100
AcDbArc
 50
90.0
 51
270.0
  0
ARC
  5
512
100
AcDbEntity
  8
DRAFT
100
AcDbCircle
 62
7
  6
CONTINUOUS
 10
-17.0
 20
-11.3
 40
7.8447634805
100
AcDbArc
 50
90.0
 51
270.0
  0
ARC
  5
513
100
AcDbEntity
  8
DRAFT
100
AcDbCircle
 62
7
  6
CONTINUOUS
 10
-27.71
 20
-61.3
 40
7.8447634805
100
AcDbArc
 50
90.0
 51
270.0
  0
ARC
  5
514
100
AcDbEntity
  8
DRAFT
100
AcDbCircle
 62
7
  6
CONTINUOUS
 10
-27.71
 20
-36.3
 40
7.8447634805
100
AcDbArc
 50
90.0
 51
270.0
  0
ARC
  5
515
100
AcDbEntity
  8
DRAFT
100
AcDbCircle
 62
7
  6
CONTINUOUS
 10
-27.71
 20
-86.3
 40
7.8447634805
100
AcDbArc
 50
90.0
 51
270.0
  0
ARC
  5
516
100
AcDbEntity
  8
RACCORDO
100
AcDbCircle
 62
253
  6
CONTINUOUS
 10
-17.0
 20
-11.3
 40
7.820265463
100
AcDbArc
 50
90.0
 51
270.0
  0
ARC
  5
517
100
AcDbEntity
  8
RACCORDO
100
AcDbCircle
 62
253
  6
CONTINUOUS
 10
-27.71
 20
-61.3
 40
7.820265463
100
AcDbArc
 50
90.0
 51
270.0
  0
ARC
  5
518
100
AcDbEntity
  8
RACCORDO
100
AcDbCircle
 62
253
  6
CONTINUOUS
 10
-27.71
 20
-36.3
 40
7.820265463
100
AcDbArc
 50
90.0
 51
270.0
  0
ARC
  5
519
100
AcDbEntity
  8
RACCORDO
100
AcDbCircle
 62
253
  6
CONTINUOUS
 10
-27.71
 20
-86.3
 40
7.820265463
100
AcDbArc
 50
90.0
 51
270.0
  0
ARC
  5
51A
100
AcDbEntity
  8
RACCORDO
100
AcDbCircle
 62
253
  6
CONTINUOUS
 10
-17.0
 20
-11.3
 40
7.620295924
100
AcDbArc
 50
90.0
 51
270.0
  0
ARC
  5
51B
100
AcDbEntity
  8
RACCORDO
100
AcDbCircle
 62
253
  6
CONTINUOUS
 10
-27.71
 20
-61.3
 40
7.620295924
100
AcDbArc
 50
90.0
 51
270.0
  0
ARC
  5
51C
100
AcDbEntity
  8
RACCORDO
100
AcDbCircle
 62
253
  6
CONTINUOUS
 10
-27.71
 20
-36.3
 40
7.620295924
100
AcDbArc
 50
90.0
 51
270.0
  0
ARC
  5
51D
100
AcDbEntity
  8
RACCORDO
100
AcDbCircle
 62
253
  6
CONTINUOUS
 10
-27.71
 20
-86.3
 40
7.620295924
100
AcDbArc
 50
90.0
 51
270.0
  0
ARC
  5
51E
100
AcDbEntity
  8
SMUSSO
100
AcDbCircle
 62
7
  6
CONTINUOUS
 10
-46.8508271005
 20
-136.0
 40
6.7320508076
100
AcDbArc
 50
50.1130104248
 51
90.0
  0
ARC
  5
51F
100
AcDbEntity
  8
SMUSSO
100
AcDbCircle
 62
7
  6
CONTINUOUS
 10
-46.8508271005
 20
-136.0
 40
5.0
100
AcDbArc
 50
50.1130104248
 51
90.0
  0
ARC
  5
520
100
AcDbEntity
  8
SMUSSO
100
AcDbCircle
 62
7
  6
CONTINUOUS
 10
-55.0
 20
-126.0
 40
5.0
100
AcDbArc
 50
180.0
 51
270.0
  0
ARC
  5
521
100
AcDbEntity
  8
SMUSSO
100
AcDbCircle
 62
7
  6
CONTINUOUS
 10
-55.0
 20
-126.0
 40
3.2679491924
100
AcDbArc
 50
180.0
 51
270.0
  0
CIRCLE
  5
522
100
AcDbEntity
  8
ASSI
100
AcDbCircle
 62
7
  6
CONTINUOUS
 10
-3.5
 20
-114.5
 40
1.1
  0
CIRCLE
  5
523
100
AcDbEntity
  8
SMUSSO
100
AcDbCircle
 62
7
  6
CONTINUOUS
 10
-3.5
 20
-114.5
 40
0.5
  0
ARC
  5
524
100
AcDbEntity
  8
ASSI
100
AcDbCircle
 62
7
  6
CONTINUOUS
 10
-29.6
 20
26.575
 40
1.35
100
AcDbArc
 50
90.0
 51
180.0
  0
ARC
  5
525
100
AcDbEntity
  8
ASSI
100
AcDbCircle
 62
7
  6
CONTINUOUS
 10
-29.6
 20
26.425
 40
1.35
100
AcDbArc
 50
180.0
 51
215.4295199945
  0
ARC
  5
526
100
AcDbEntity
  8
ASSI
100
AcDbCircle
 62
7
  6
CONTINUOUS
 10
-29.6
 20
26.425
 40
1.35
100
AcDbArc
 50
261.6174720683
 51
270.0
  0
ARC
  5
527
100
AcDbEntity
  8
ASSI
100
AcDbCircle
 62
7
  6
CONTINUOUS
 10
-29.6
 20
33.075
 40
1.35
100
AcDbArc
 50
90.0
 51
180.0
  0
ARC
  5
528
100
AcDbEntity
  8
ASSI
100
AcDbCircle
 62
7
  6
CONTINUOUS
 10
-29.6
 20
32.925
 40
1.35
100
AcDbArc
 50
180.0
 51
215.4295199945
  0
ARC
  5
529
100
AcDbEntity
  8
ASSI
100
AcDbCircle
 62
7
  6
CONTINUOUS
 10
-29.6
 20
32.925
 40
1.35
100
AcDbArc
 50
252.2663682917
 51
270.0
  0
ARC
  5
52A
100
AcDbEntity
  8
ASSI
100
AcDbCircle
 62
7
  6
CONTINUOUS
 10
-29.6
 20
39.575
 40
1.35
100
AcDbArc
 50
90.0
 51
180.0
  0
ARC
  5
52B
100
AcDbEntity
  8
ASSI
100
AcDbCircle
 62
7
  6
CONTINUOUS
 10
-29.6
 20
39.425
 40
1.35
100
AcDbArc
 50
180.0
 51
215.4295199945
  0
ARC
  5
52C
100
AcDbEntity
  8
ASSI
100
AcDbCircle
 62
7
  6
CONTINUOUS
 10
-29.6
 20
39.425
 40
1.35
100
AcDbArc
 50
246.2587949181
 51
270.0
  0
ARC
  5
52D
100
AcDbEntity
  8
ASSI
100
AcDbCircle
 62
7
  6
CONTINUOUS
 10
-29.6
 20
46.075
 40
1.35
100
AcDbArc
 50
90.0
 51
180.0
  0
ARC
  5
52E
100
AcDbEntity
  8
ASSI
100
AcDbCircle
 62
7
  6
CONTINUOUS
 10
-29.6
 20
45.925
 40
1.35
100
AcDbArc
 50
180.0
 51
270.0
  0
ARC
  5
52F
100
AcDbEntity
  8
ASSI
100
AcDbCircle
 62
7
  6
CONTINUOUS
 10
-29.6
 20
52.575
 40
1.35
100
AcDbArc
 50
90.0
 51
180.0
  0
ARC
  5
530
100
AcDbEntity
  8
ASSI
100
AcDbCircle
 62
7
  6
CONTINUOUS
 10
-29.6
 20
52.425
 40
1.35
100
AcDbArc
 50
180.0
 51
270.0
  0
ARC
  5
531
100
AcDbEntity
  8
ASSI
100
AcDbCircle
 62
7
  6
CONTINUOUS
 10
-29.6
 20
59.075
 40
1.35
100
AcDbArc
 50
90.0
 51
180.0
  0
ARC
  5
532
100
AcDbEntity
  8
ASSI
100
AcDbCircle
 62
7
  6
CONTINUOUS
 10
-29.6
 20
58.925
 40
1.35
100
AcDbArc
 50
180.0
 51
270.0
  0
ARC
  5
533
100
AcDbEntity
  8
ASSI
100
AcDbCircle
 62
7
  6
CONTINUOUS
 10
-29.6
 20
65.425
 40
1.35
100
AcDbArc
 50
180.0
 51
270.0
  0
ARC
  5
534
100
AcDbEntity
  8
ASSI
100
AcDbCircle
 62
7
  6
CONTINUOUS
 10
-29.6
 20
65.575
 40
1.35
100
AcDbArc
 50
90.0
 51
180.0
  0
ARC
  5
535
100
AcDbEntity
  8
ASSI
100
AcDbCircle
 62
7
  6
CONTINUOUS
 10
-29.6
 20
71.925
 40
1.35
100
AcDbArc
 50
180.0
 51
270.0
  0
ARC
  5
536
100
AcDbEntity
  8
ASSI
100
AcDbCircle
 62
7
  6
CONTINUOUS
 10
-29.6
 20
72.075
 40
1.35
100
AcDbArc
 50
90.0
 51
180.0
  0
ARC
  5
537
100
AcDbEntity
  8
ASSI
100
AcDbCircle
 62
7
  6
CONTINUOUS
 10
-29.6
 20
78.425
 40
1.35
100
AcDbArc
 50
180.0
 51
270.0
  0
ARC
  5
538
100
AcDbEntity
  8
ASSI
100
AcDbCircle
 62
7
  6
CONTINUOUS
 10
-29.6
 20
78.575
 40
1.35
100
AcDbArc
 50
90.0
 51
180.0
  0
ARC
  5
539
100
AcDbEntity
  8
SMUSSO
100
AcDbCircle
 62
7
  6
CONTINUOUS
 10
-46.8508271005
 20
149.0
 40
6.7320508076
100
AcDbArc
 50
270.0
 51
309.8869895752
  0
ARC
  5
53A
100
AcDbEntity
  8
SMUSSO
100
AcDbCircle
 62
7
  6
CONTINUOUS
 10
-46.8508271005
 20
149.0
 40
5.0
100
AcDbArc
 50
270.0
 51
309.8869895752
  0
ARC
  5
53B
100
AcDbEntity
  8
SMUSSO
100
AcDbCircle
 62
7
  6
CONTINUOUS
 10
-55.0
 20
139.0
 40
5.0
100
AcDbArc
 50
90.0
 51
180.0
  0
ARC
  5
53C
100
AcDbEntity
  8
SMUSSO
100
AcDbCircle
 62
7
  6
CONTINUOUS
 10
-55.0
 20
139.0
 40
3.2679491924
100
AcDbArc
 50
90.0
 51
180.0
  0
ARC
  5
53D
100
AcDbEntity
  8
ASSI
100
AcDbCircle
 62
7
  6
CONTINUOUS
 10
-3.0
 20
26.425
 40
1.35
100
AcDbArc
 50
270.0
 51
278.3825279317
  0
ARC
  5
53E
100
AcDbEntity
  8
ASSI
100
AcDbCircle
 62
7
  6
CONTINUOUS
 10
-3.0
 20
26.425
 40
1.35
100
AcDbArc
 50
317.814119657
 51
360.0
  0
ARC
  5
53F
100
AcDbEntity
  8
ASSI
100
AcDbCircle
 62
7
  6
CONTINUOUS
 10
-3.0
 20
26.575
 40
1.35
100
AcDbArc
 50
0.0
 51
90.0
  0
ARC
  5
540
100
AcDbEntity
  8
ASSI
100
AcDbCircle
 62
7
  6
CONTINUOUS
 10
-3.0
 20
32.925
 40
1.35
100
AcDbArc
 50
270.0
 51
287.7336317083
  0
ARC
  5
541
100
AcDbEntity
  8
ASSI
100
AcDbCircle
 62
7
  6
CONTINUOUS
 10
-3.0
 20
32.925
 40
1.35
100
AcDbArc
 50
317.814119657
 51
360.0
  0
ARC
  5
542
100
AcDbEntity
  8
ASSI
100
AcDbCircle
 62
7
  6
CONTINUOUS
 10
-3.0
 20
33.075
 40
1.35
100
AcDbArc
 50
0.0
 51
90.0
  0
ARC
  5
543
100
AcDbEntity
  8
ASSI
100
AcDbCircle
 62
7
  6
CONTINUOUS
 10
-3.0
 20
39.425
 40
1.35
100
AcDbArc
 50
270.0
 51
293.7412050819
  0
ARC
  5
544
100
AcDbEntity
  8
ASSI
100
AcDbCircle
 62
7
  6
CONTINUOUS
 10
-3.0
 20
39.425
 40
1.35
100
AcDbArc
 50
317.814119657
 51
360.0
  0
ARC
  5
545
100
AcDbEntity
  8
ASSI
100
AcDbCircle
 62
7
  6
CONTINUOUS
 10
-3.0
 20
39.575
 40
1.35
100
AcDbArc
 50
0.0
 51
90.0
  0
ARC
  5
546
100
AcDbEntity
  8
ASSI
100
AcDbCircle
 62
7
  6
CONTINUOUS
 10
-3.0
 20
45.925
 40
1.35
100
AcDbArc
 50
270.0
 51
360.0
  0
ARC
  5
547
100
AcDbEntity
  8
ASSI
100
AcDbCircle
 62
7
  6
CONTINUOUS
 10
-3.0
 20
46.075
 40
1.35
100
AcDbArc
 50
0.0
 51
90.0
  0
ARC
  5
548
100
AcDbEntity
  8
ASSI
100
AcDbCircle
 62
7
  6
CONTINUOUS
 10
-3.0
 20
52.425
 40
1.35
100
AcDbArc
 50
270.0
 51
360.0
  0
ARC
  5
549
100
AcDbEntity
  8
ASSI
100
AcDbCircle
 62
7
  6
CONTINUOUS
 10
-3.0
 20
52.575
 40
1.35
100
AcDbArc
 50
0.0
 51
90.0
  0
ARC
  5
54A
100
AcDbEntity
  8
ASSI
100
AcDbCircle
 62
7
  6
CONTINUOUS
 10
-3.0
 20
58.925
 40
1.35
100
AcDbArc
 50
270.0
 51
360.0
  0
ARC
  5
54B
100
AcDbEntity
  8
ASSI
100
AcDbCircle
 62
7
  6
CONTINUOUS
 10
-3.0
 20
59.075
 40
1.35
100
AcDbArc
 50
0.0
 51
90.0
  0
ARC
  5
54C
100
AcDbEntity
  8
ASSI
100
AcDbCircle
 62
7
  6
CONTINUOUS
 10
-3.0
 20
65.425
 40
1.35
100
AcDbArc
 50
270.0
 51
360.0
  0
ARC
  5
54D
100
AcDbEntity
  8
ASSI
100
AcDbCircle
 62
7
  6
CONTINUOUS
 10
-3.0
 20
65.575
 40
1.35
100
AcDbArc
 50
0.0
 51
90.0
  0
ARC
  5
54E
100
AcDbEntity
  8
ASSI
100
AcDbCircle
 62
7
  6
CONTINUOUS
 10
-3.0
 20
71.925
 40
1.35
100
AcDbArc
 50
270.0
 51
360.0
  0
ARC
  5
54F
100
AcDbEntity
  8
ASSI
100
AcDbCircle
 62
7
  6
CONTINUOUS
 10
-3.0
 20
72.075
 40
1.35
100
AcDbArc
 50
0.0
 51
90.0
  0
ARC
  5
550
100
AcDbEntity
  8
ASSI
100
AcDbCircle
 62
7
  6
CONTINUOUS
 10
-3.0
 20
78.425
 40
1.35
100
AcDbArc
 50
270.0
 51
360.0
  0
ARC
  5
551
100
AcDbEntity
  8
ASSI
100
AcDbCircle
 62
7
  6
CONTINUOUS
 10
-3.0
 20
78.575
 40
1.35
100
AcDbArc
 50
0.0
 51
90.0
  0
CIRCLE
  5
552
100
AcDbEntity
  8
ASSI
100
AcDbCircle
 62
7
  6
CONTINUOUS
 10
-3.5
 20
127.5
 40
1.1
  0
CIRCLE
  5
553
100
AcDbEntity
  8
SMUSSO
100
AcDbCircle
 62
7
  6
CONTINUOUS
 10
-3.5
 20
127.5
 40
0.5
  0
ARC
  5
554
100
AcDbEntity
  8
SMUSSO
100
AcDbCircle
 62
7
  6
CONTINUOUS
 10
0.0
 20
-79.9411764706
 40
68.0588235294
100
AcDbArc
 50
230.1130104248
 51
309.8869895752
  0
ARC
  5
555
100
AcDbEntity
  8
SMUSSO
100
AcDbCircle
 62
7
  6
CONTINUOUS
 10
0.0
 20
-79.9411764706
 40
66.3267727218
100
AcDbArc
 50
230.1130104248
 51
309.8869895752
  0
ARC
  5
556
100
AcDbEntity
  8
0
100
AcDbCircle
 62
7
  6
CONTINUOUS
 10
6.09
 20
-86.3
 40
9.443375673
100
AcDbArc
 50
270.0
 51
90.0
  0
ARC
  5
557
100
AcDbEntity
  8
SUPERFICI
100
AcDbCircle
 62
7
  6
CONTINUOUS
 10
6.09
 20
-86.3
 40
8.0
100
AcDbArc
 50
270.0
 51
90.0
  0
ARC
  5
558
100
AcDbEntity
  8
DRAFT
100
AcDbCircle
 62
7
  6
CONTINUOUS
 10
6.09
 20
-86.3
 40
7.8447634805
100
AcDbArc
 50
270.0
 51
90.0
  0
ARC
  5
559
100
AcDbEntity
  8
RACCORDO
100
AcDbCircle
 62
253
  6
CONTINUOUS
 10
6.09
 20
-86.3
 40
7.820265463
100
AcDbArc
 50
270.0
 51
90.0
  0
ARC
  5
55A
100
AcDbEntity
  8
RACCORDO
100
AcDbCircle
 62
253
  6
CONTINUOUS
 10
6.09
 20
-86.3
 40
7.620295924
100
AcDbArc
 50
270.0
 51
90.0
  0
CIRCLE
  5
55B
100
AcDbEntity
  8
ASSI
100
AcDbCircle
 62
7
  6
CONTINUOUS
 10
0.0
 20
-114.5
 40
6.75
  0
CIRCLE
  5
55C
100
AcDbEntity
  8
0
100
AcDbCircle
 62
7
  6
CONTINUOUS
 10
0.0
 20
-114.5
 40
6.5
  0
CIRCLE
  5
55D
100
AcDbEntity
  8
ASSI
100
AcDbCircle
 62
7
  6
CONTINUOUS
 10
3.5
 20
-114.5
 40
1.1
  0
CIRCLE
  5
55E
100
AcDbEntity
  8
SMUSSO
100
AcDbCircle
 62
7
  6
CONTINUOUS
 10
3.5
 20
-114.5
 40
0.5
  0
ARC
  5
55F
100
AcDbEntity
  8
0
100
AcDbCircle
 62
7
  6
CONTINUOUS
 10
6.09
 20
-61.3
 40
9.443375673
100
AcDbArc
 50
270.0
 51
90.0
  0
ARC
  5
560
100
AcDbEntity
  8
0
100
AcDbCircle
 62
7
  6
CONTINUOUS
 10
6.09
 20
-36.3
 40
9.443375673
100
AcDbArc
 50
270.0
 51
90.0
  0
ARC
  5
561
100
AcDbEntity
  8
DRAFT
100
AcDbCircle
 62
7
  6
CONTINUOUS
 10
16.9
 20
-11.3
 40
9.443375673
100
AcDbArc
 50
270.0
 51
90.0
  0
ARC
  5
562
100
AcDbEntity
  8
SUPERFICI
100
AcDbCircle
 62
7
  6
CONTINUOUS
 10
6.09
 20
-36.3
 40
8.0
100
AcDbArc
 50
270.0
 51
90.0
  0
ARC
  5
563
100
AcDbEntity
  8
SUPERFICI
100
AcDbCircle
 62
7
  6
CONTINUOUS
 10
6.09
 20
-61.3
 40
8.0
100
AcDbArc
 50
270.0
 51
90.0
  0
ARC
  5
564
100
AcDbEntity
  8
DRAFT
100
AcDbCircle
 62
7
  6
CONTINUOUS
 10
16.9
 20
-11.3
 40
8.0
100
AcDbArc
 50
270.0
 51
90.0
  0
ARC
  5
565
100
AcDbEntity
  8
DRAFT
100
AcDbCircle
 62
7
  6
CONTINUOUS
 10
16.8
 20
-11.3
 40
7.8447634805
100
AcDbArc
 50
270.0
 51
90.0
  0
ARC
  5
566
100
AcDbEntity
  8
DRAFT
100
AcDbCircle
 62
7
  6
CONTINUOUS
 10
6.09
 20
-61.3
 40
7.8447634805
100
AcDbArc
 50
270.0
 51
90.0
  0
ARC
  5
567
100
AcDbEntity
  8
DRAFT
100
AcDbCircle
 62
7
  6
CONTINUOUS
 10
6.09
 20
-36.3
 40
7.8447634805
100
AcDbArc
 50
270.0
 51
90.0
  0
ARC
  5
568
100
AcDbEntity
  8
RACCORDO
100
AcDbCircle
 62
253
  6
CONTINUOUS
 10
16.8
 20
-11.3
 40
7.820265463
100
AcDbArc
 50
270.0
 51
90.0
  0
ARC
  5
569
100
AcDbEntity
  8
RACCORDO
100
AcDbCircle
 62
253
  6
CONTINUOUS
 10
6.09
 20
-61.3
 40
7.820265463
100
AcDbArc
 50
270.0
 51
90.0
  0
ARC
  5
56A
100
AcDbEntity
  8
RACCORDO
100
AcDbCircle
 62
253
  6
CONTINUOUS
 10
6.09
 20
-36.3
 40
7.820265463
100
AcDbArc
 50
270.0
 51
90.0
  0
ARC
  5
56B
100
AcDbEntity
  8
RACCORDO
100
AcDbCircle
 62
253
  6
CONTINUOUS
 10
16.8
 20
-11.3
 40
7.620295924
100
AcDbArc
 50
270.0
 51
90.0
  0
ARC
  5
56C
100
AcDbEntity
  8
RACCORDO
100
AcDbCircle
 62
253
  6
CONTINUOUS
 10
6.09
 20
-61.3
 40
7.620295924
100
AcDbArc
 50
270.0
 51
90.0
  0
ARC
  5
56D
100
AcDbEntity
  8
RACCORDO
100
AcDbCircle
 62
253
  6
CONTINUOUS
 10
6.09
 20
-36.3
 40
7.620295924
100
AcDbArc
 50
270.0
 51
90.0
  0
CIRCLE
  5
56E
100
AcDbEntity
  8
SMUSSO
100
AcDbCircle
 62
7
  6
CONTINUOUS
 10
28.29
 20
-86.3
 40
9.0
  0
CIRCLE
  5
56F
100
AcDbEntity
  8
SMUSSO
100
AcDbCircle
 62
7
  6
CONTINUOUS
 10
28.29
 20
-86.3
 40
8.0
  0
ARC
  5
570
100
AcDbEntity
  8
SMUSSO
100
AcDbCircle
 62
7
  6
CONTINUOUS
 10
46.8508271005
 20
-136.0
 40
6.7320508076
100
AcDbArc
 50
90.0
 51
129.8869895752
  0
CIRCLE
  5
571
100
AcDbEntity
  8
0
100
AcDbCircle
 62
7
  6
CONTINUOUS
 10
28.29
 20
-86.3
 40
5.9
  0
CIRCLE
  5
572
100
AcDbEntity
  8
RACCORDO
100
AcDbCircle
 62
7
  6
CONTINUOUS
 10
28.29
 20
-86.3
 40
5.75
  0
CIRCLE
  5
573
100
AcDbEntity
  8
RACCORDO
100
AcDbCircle
 62
253
  6
CONTINUOUS
 10
28.29
 20
-86.3
 40
5.5967052371
  0
ARC
  5
574
100
AcDbEntity
  8
SMUSSO
100
AcDbCircle
 62
7
  6
CONTINUOUS
 10
46.8508271005
 20
-136.0
 40
5.0
100
AcDbArc
 50
90.0
 51
129.8869895752
  0
ARC
  5
575
100
AcDbEntity
  8
SMUSSO
100
AcDbCircle
 62
7
  6
CONTINUOUS
 10
55.0
 20
-126.0
 40
5.0
100
AcDbArc
 50
270.0
 51
360.0
  0
ARC
  5
576
100
AcDbEntity
  8
SMUSSO
100
AcDbCircle
 62
7
  6
CONTINUOUS
 10
55.0
 20
-126.0
 40
3.2679491924
100
AcDbArc
 50
270.0
 51
360.0
  0
ARC
  5
577
100
AcDbEntity
  8
RACCORDO
100
AcDbCircle
 62
7
  6
CONTINUOUS
 10
38.8
 20
-118.5
 40
1.0
100
AcDbArc
 50
180.0
 51
270.0
  0
ARC
  5
578
100
AcDbEntity
  8
RACCORDO
100
AcDbCircle
 62
7
  6
CONTINUOUS
 10
41.0
 20
-118.5
 40
1.0
100
AcDbArc
 50
270.0
 51
360.0
  0
ARC
  5
579
100
AcDbEntity
  8
RACCORDO
100
AcDbCircle
 62
7
  6
CONTINUOUS
 10
41.0
 20
-110.4
 40
1.0
100
AcDbArc
 50
0.0
 51
90.0
  0
ARC
  5
57A
100
AcDbEntity
  8
RACCORDO
100
AcDbCircle
 62
7
  6
CONTINUOUS
 10
38.8
 20
-110.4
 40
1.0
100
AcDbArc
 50
90.0
 51
180.0
  0
CIRCLE
  5
57B
100
AcDbEntity
  8
SMUSSO
100
AcDbCircle
 62
7
  6
CONTINUOUS
 10
28.29
 20
-61.3
 40
9.0
  0
CIRCLE
  5
57C
100
AcDbEntity
  8
SMUSSO
100
AcDbCircle
 62
7
  6
CONTINUOUS
 10
28.29
 20
-36.3
 40
9.0
  0
CIRCLE
  5
57D
100
AcDbEntity
  8
SMUSSO
100
AcDbCircle
 62
7
  6
CONTINUOUS
 10
28.29
 20
-61.3
 40
8.0
  0
CIRCLE
  5
57E
100
AcDbEntity
  8
SMUSSO
100
AcDbCircle
 62
7
  6
CONTINUOUS
 10
28.29
 20
-36.3
 40
8.0
  0
CIRCLE
  5
57F
100
AcDbEntity
  8
0
100
AcDbCircle
 62
7
  6
CONTINUOUS
 10
28.29
 20
-61.3
 40
5.9
  0
CIRCLE
  5
580
100
AcDbEntity
  8
0
100
AcDbCircle
 62
7
  6
CONTINUOUS
 10
28.29
 20
-36.3
 40
5.9
  0
CIRCLE
  5
581
100
AcDbEntity
  8
RACCORDO
100
AcDbCircle
 62
7
  6
CONTINUOUS
 10
28.29
 20
-36.3
 40
5.75
  0
CIRCLE
  5
582
100
AcDbEntity
  8
RACCORDO
100
AcDbCircle
 62
7
  6
CONTINUOUS
 10
28.29
 20
-61.3
 40
5.75
  0
CIRCLE
  5
583
100
AcDbEntity
  8
RACCORDO
100
AcDbCircle
 62
253
  6
CONTINUOUS
 10
28.29
 20
-36.3
 40
5.5967052371
  0
CIRCLE
  5
584
100
AcDbEntity
  8
RACCORDO
100
AcDbCircle
 62
253
  6
CONTINUOUS
 10
28.29
 20
-61.3
 40
5.5967052371
  0
ARC
  5
585
100
AcDbEntity
  8
ASSI
100
AcDbCircle
 62
7
  6
CONTINUOUS
 10
3.0
 20
26.575
 40
1.35
100
AcDbArc
 50
90.0
 51
180.0
  0
ARC
  5
586
100
AcDbEntity
  8
ASSI
100
AcDbCircle
 62
7
  6
CONTINUOUS
 10
3.0
 20
26.425
 40
1.35
100
AcDbArc
 50
180.0
 51
222.185880343
  0
ARC
  5
587
100
AcDbEntity
  8
ASSI
100
AcDbCircle
 62
7
  6
CONTINUOUS
 10
3.0
 20
26.425
 40
1.35
100
AcDbArc
 50
261.6174720683
 51
270.0
  0
ARC
  5
588
100
AcDbEntity
  8
ASSI
100
AcDbCircle
 62
7
  6
CONTINUOUS
 10
3.0
 20
33.075
 40
1.35
100
AcDbArc
 50
90.0
 51
180.0
  0
ARC
  5
589
100
AcDbEntity
  8
ASSI
100
AcDbCircle
 62
7
  6
CONTINUOUS
 10
3.0
 20
32.925
 40
1.35
100
AcDbArc
 50
180.0
 51
222.185880343
  0
ARC
  5
58A
100
AcDbEntity
  8
ASSI
100
AcDbCircle
 62
7
  6
CONTINUOUS
 10
3.0
 20
32.925
 40
1.35
100
AcDbArc
 50
252.2663682917
 51
270.0
  0
ARC
  5
58B
100
AcDbEntity
  8
ASSI
100
AcDbCircle
 62
7
  6
CONTINUOUS
 10
3.0
 20
39.575
 40
1.35
100
AcDbArc
 50
90.0
 51
180.0
  0
ARC
  5
58C
100
AcDbEntity
  8
ASSI
100
AcDbCircle
 62
7
  6
CONTINUOUS
 10
3.0
 20
39.425
 40
1.35
100
AcDbArc
 50
180.0
 51
222.185880343
  0
ARC
  5
58D
100
AcDbEntity
  8
ASSI
100
AcDbCircle
 62
7
  6
CONTINUOUS
 10
3.0
 20
39.425
 40
1.35
100
AcDbArc
 50
246.2587949181
 51
270.0
  0
ARC
  5
58E
100
AcDbEntity
  8
ASSI
100
AcDbCircle
 62
7
  6
CONTINUOUS
 10
3.0
 20
46.075
 40
1.35
100
AcDbArc
 50
90.0
 51
180.0
  0
ARC
  5
58F
100
AcDbEntity
  8
ASSI
100
AcDbCircle
 62
7
  6
CONTINUOUS
 10
3.0
 20
45.925
 40
1.35
100
AcDbArc
 50
180.0
 51
270.0
  0
ARC
  5
590
100
AcDbEntity
  8
ASSI
100
AcDbCircle
 62
7
  6
CONTINUOUS
 10
3.0
 20
52.575
 40
1.35
100
AcDbArc
 50
90.0
 51
180.0
  0
ARC
  5
591
100
AcDbEntity
  8
ASSI
100
AcDbCircle
 62
7
  6
CONTINUOUS
 10
3.0
 20
52.425
 40
1.35
100
AcDbArc
 50
180.0
 51
270.0
  0
ARC
  5
592
100
AcDbEntity
  8
ASSI
100
AcDbCircle
 62
7
  6
CONTINUOUS
 10
3.0
 20
59.075
 40
1.35
100
AcDbArc
 50
90.0
 51
180.0
  0
ARC
  5
593
100
AcDbEntity
  8
ASSI
100
AcDbCircle
 62
7
  6
CONTINUOUS
 10
3.0
 20
58.925
 40
1.35
100
AcDbArc
 50
180.0
 51
270.0
  0
ARC
  5
594
100
AcDbEntity
  8
ASSI
100
AcDbCircle
 62
7
  6
CONTINUOUS
 10
3.0
 20
65.425
 40
1.35
100
AcDbArc
 50
180.0
 51
270.0
  0
ARC
  5
595
100
AcDbEntity
  8
ASSI
100
AcDbCircle
 62
7
  6
CONTINUOUS
 10
3.0
 20
65.575
 40
1.35
100
AcDbArc
 50
90.0
 51
180.0
  0
ARC
  5
596
100
AcDbEntity
  8
ASSI
100
AcDbCircle
 62
7
  6
CONTINUOUS
 10
3.0
 20
71.925
 40
1.35
100
AcDbArc
 50
180.0
 51
270.0
  0
ARC
  5
597
100
AcDbEntity
  8
ASSI
100
AcDbCircle
 62
7
  6
CONTINUOUS
 10
3.0
 20
72.075
 40
1.35
100
AcDbArc
 50
90.0
 51
180.0
  0
ARC
  5
598
100
AcDbEntity
  8
ASSI
100
AcDbCircle
 62
7
  6
CONTINUOUS
 10
3.0
 20
78.425
 40
1.35
100
AcDbArc
 50
180.0
 51
270.0
  0
ARC
  5
599
100
AcDbEntity
  8
ASSI
100
AcDbCircle
 62
7
  6
CONTINUOUS
 10
3.0
 20
78.575
 40
1.35
100
AcDbArc
 50
90.0
 51
180.0
  0
ARC
  5
59A
100
AcDbEntity
  8
SMUSSO
100
AcDbCircle
 62
7
  6
CONTINUOUS
 10
0.0
 20
92.9411764706
 40
68.0588235294
100
AcDbArc
 50
50.1130104248
 51
129.8869895752
  0
ARC
  5
59B
100
AcDbEntity
  8
SMUSSO
100
AcDbCircle
 62
7
  6
CONTINUOUS
 10
-0.0
 20
92.9411764706
 40
66.3267727218
100
AcDbArc
 50
50.1130104248
 51
129.8869895752
  0
CIRCLE
  5
59C
100
AcDbEntity
  8
ASSI
100
AcDbCircle
 62
7
  6
CONTINUOUS
 10
0.0
 20
127.5
 40
6.75
  0
CIRCLE
  5
59D
100
AcDbEntity
  8
0
100
AcDbCircle
 62
7
  6
CONTINUOUS
 10
0.0
 20
127.5
 40
6.5
  0
CIRCLE
  5
59E
100
AcDbEntity
  8
ASSI
100
AcDbCircle
 62
7
  6
CONTINUOUS
 10
3.5
 20
127.5
 40
1.1
  0
CIRCLE
  5
59F
100
AcDbEntity
  8
SMUSSO
100
AcDbCircle
 62
7
  6
CONTINUOUS
 10
3.5
 20
127.5
 40
0.5
  0
ARC
  5
5A0
100
AcDbEntity
  8
ASSI
100
AcDbCircle
 62
7
  6
CONTINUOUS
 10
29.6
 20
26.425
 40
1.35
100
AcDbArc
 50
270.0
 51
278.3825279317
  0
ARC
  5
5A1
100
AcDbEntity
  8
ASSI
100
AcDbCircle
 62
7
  6
CONTINUOUS
 10
29.6
 20
26.425
 40
1.35
100
AcDbArc
 50
324.5704800055
 51
360.0
  0
ARC
  5
5A2
100
AcDbEntity
  8
ASSI
100
AcDbCircle
 62
7
  6
CONTINUOUS
 10
29.6
 20
26.575
 40
1.35
100
AcDbArc
 50
0.0
 51
90.0
  0
ARC
  5
5A3
100
AcDbEntity
  8
ASSI
100
AcDbCircle
 62
7
  6
CONTINUOUS
 10
29.6
 20
32.925
 40
1.35
100
AcDbArc
 50
270.0
 51
287.7336317083
  0
ARC
  5
5A4
100
AcDbEntity
  8
ASSI
100
AcDbCircle
 62
7
  6
CONTINUOUS
 10
29.6
 20
32.925
 40
1.35
100
AcDbArc
 50
324.5704800055
 51
360.0
  0
ARC
  5
5A5
100
AcDbEntity
  8
ASSI
100
AcDbCircle
 62
7
  6
CONTINUOUS
 10
29.6
 20
33.075
 40
1.35
100
AcDbArc
 50
0.0
 51
90.0
  0
ARC
  5
5A6
100
AcDbEntity
  8
ASSI
100
AcDbCircle
 62
7
  6
CONTINUOUS
 10
29.6
 20
39.425
 40
1.35
100
AcDbArc
 50
270.0
 51
293.7412050819
  0
ARC
  5
5A7
100
AcDbEntity
  8
ASSI
100
AcDbCircle
 62
7
  6
CONTINUOUS
 10
29.6
 20
39.425
 40
1.35
100
AcDbArc
 50
324.5704800055
 51
360.0
  0
ARC
  5
5A8
100
AcDbEntity
  8
ASSI
100
AcDbCircle
 62
7
  6
CONTINUOUS
 10
29.6
 20
39.575
 40
1.35
100
AcDbArc
 50
0.0
 51
90.0
  0
ARC
  5
5A9
100
AcDbEntity
  8
ASSI
100
AcDbCircle
 62
7
  6
CONTINUOUS
 10
29.6
 20
45.925
 40
1.35
100
AcDbArc
 50
270.0
 51
360.0
  0
ARC
  5
5AA
100
AcDbEntity
  8
ASSI
100
AcDbCircle
 62
7
  6
CONTINUOUS
 10
29.6
 20
46.075
 40
1.35
100
AcDbArc
 50
0.0
 51
90.0
  0
ARC
  5
5AB
100
AcDbEntity
  8
ASSI
100
AcDbCircle
 62
7
  6
CONTINUOUS
 10
29.6
 20
52.425
 40
1.35
100
AcDbArc
 50
270.0
 51
360.0
  0
ARC
  5
5AC
100
AcDbEntity
  8
ASSI
100
AcDbCircle
 62
7
  6
CONTINUOUS
 10
29.6
 20
52.575
 40
1.35
100
AcDbArc
 50
0.0
 51
90.0
  0
ARC
  5
5AD
100
AcDbEntity
  8
ASSI
100
AcDbCircle
 62
7
  6
CONTINUOUS
 10
29.6
 20
58.925
 40
1.35
100
AcDbArc
 50
270.0
 51
360.0
  0
ARC
  5
5AE
100
AcDbEntity
  8
ASSI
100
AcDbCircle
 62
7
  6
CONTINUOUS
 10
29.6
 20
59.075
 40
1.35
100
AcDbArc
 50
0.0
 51
90.0
  0
ARC
  5
5AF
100
AcDbEntity
  8
ASSI
100
AcDbCircle
 62
7
  6
CONTINUOUS
 10
29.6
 20
65.425
 40
1.35
100
AcDbArc
 50
270.0
 51
360.0
  0
ARC
  5
5B0
100
AcDbEntity
  8
ASSI
100
AcDbCircle
 62
7
  6
CONTINUOUS
 10
29.6
 20
65.575
 40
1.35
100
AcDbArc
 50
0.0
 51
90.0
  0
ARC
  5
5B1
100
AcDbEntity
  8
ASSI
100
AcDbCircle
 62
7
  6
CONTINUOUS
 10
29.6
 20
71.925
 40
1.35
100
AcDbArc
 50
270.0
 51
360.0
  0
ARC
  5
5B2
100
AcDbEntity
  8
ASSI
100
AcDbCircle
 62
7
  6
CONTINUOUS
 10
29.6
 20
72.075
 40
1.35
100
AcDbArc
 50
0.0
 51
90.0
  0
ARC
  5
5B3
100
AcDbEntity
  8
ASSI
100
AcDbCircle
 62
7
  6
CONTINUOUS
 10
29.6
 20
78.425
 40
1.35
100
AcDbArc
 50
270.0
 51
360.0
  0
ARC
  5
5B4
100
AcDbEntity
  8
ASSI
100
AcDbCircle
 62
7
  6
CONTINUOUS
 10
29.6
 20
78.575
 40
1.35
100
AcDbArc
 50
0.0
 51
90.0
  0
ARC
  5
5B5
100
AcDbEntity
  8
SMUSSO
100
AcDbCircle
 62
7
  6
CONTINUOUS
 10
46.8508271005
 20
149.0
 40
6.7320508076
100
AcDbArc
 50
230.1130104248
 51
270.0
  0
ARC
  5
5B6
100
AcDbEntity
  8
SMUSSO
100
AcDbCircle
 62
7
  6
CONTINUOUS
 10
46.8508271005
 20
149.0
 40
5.0
100
AcDbArc
 50
230.1130104248
 51
270.0
  0
ARC
  5
5B7
100
AcDbEntity
  8
SMUSSO
100
AcDbCircle
 62
7
  6
CONTINUOUS
 10
55.0
 20
139.0
 40
5.0
100
AcDbArc
 50
0.0
 51
90.0
  0
ARC
  5
5B8
100
AcDbEntity
  8
SMUSSO
100
AcDbCircle
 62
7
  6
CONTINUOUS
 10
55.0
 20
139.0
 40
3.2679491924
100
AcDbArc
 50
0.0
 51
90.0
  0
ARC
  5
5B9
100
AcDbEntity
  8
0
100
AcDbCircle
 62
7
  6
CONTINUOUS
 10
145.5547227823
 20
-114.5
 40
27.0
100
AcDbArc
 50
346.0697364075
 51
13.9302635925
  0
ARC
  5
5BA
100
AcDbEntity
  8
0
100
AcDbCircle
 62
7
  6
CONTINUOUS
 10
145.5547227823
 20
127.5
 40
27.0
100
AcDbArc
 50
346.0697364075
 51
13.9302635925
  0
ARC
  5
5BB
100
AcDbEntity
  8
0
100
AcDbCircle
 62
7
  6
CONTINUOUS
 10
150.2886513537
 20
-61.3
 40
23.9660714286
100
AcDbArc
 50
346.4952376425
 51
13.5047623575
  0
ARC
  5
5BC
100
AcDbEntity
  8
0
100
AcDbCircle
 62
7
  6
CONTINUOUS
 10
150.2886513537
 20
-36.3
 40
23.9660714286
100
AcDbArc
 50
346.4952376425
 51
13.5047623575
  0
ARC
  5
5BD
100
AcDbEntity
  8
0
100
AcDbCircle
 62
7
  6
CONTINUOUS
 10
150.2886513537
 20
-86.3
 40
23.9660714286
100
AcDbArc
 50
346.4952376425
 51
13.5047623575
  0
ARC
  5
5BE
100
AcDbEntity
  8
ASSI
100
AcDbCircle
 62
7
  6
CONTINUOUS
 10
141.7547227823
 20
89.25
 40
12.65
100
AcDbArc
 50
0.0
 51
180.0
  0
ARC
  5
5BF
100
AcDbEntity
  8
ASSI
100
AcDbCircle
 62
7
  6
CONTINUOUS
 10
141.7547227823
 20
63.15
 40
12.65
100
AcDbArc
 50
180.0
 51
360.0
  0
ARC
  5
5C0
100
AcDbEntity
  8
ASSI
100
AcDbCircle
 62
7
  6
CONTINUOUS
 10
141.7547227823
 20
-76.25
 40
12.65
100
AcDbArc
 50
180.0
 51
360.0
  0
ARC
  5
5C1
100
AcDbEntity
  8
ASSI
100
AcDbCircle
 62
7
  6
CONTINUOUS
 10
141.7547227823
 20
-50.15
 40
12.65
100
AcDbArc
 50
0.0
 51
180.0
  0
ARC
  5
5C2
100
AcDbEntity
  8
ASSI
100
AcDbCircle
 62
7
  6
CONTINUOUS
 10
141.7547227823
 20
89.25
 40
12.15
100
AcDbArc
 50
0.0
 51
180.0
  0
ARC
  5
5C3
100
AcDbEntity
  8
ASSI
100
AcDbCircle
 62
7
  6
CONTINUOUS
 10
141.7547227823
 20
63.15
 40
12.15
100
AcDbArc
 50
180.0
 51
360.0
  0
ARC
  5
5C4
100
AcDbEntity
  8
ASSI
100
AcDbCircle
 62
7
  6
CONTINUOUS
 10
141.7547227823
 20
-76.25
 40
12.15
100
AcDbArc
 50
180.0
 51
360.0
  0
ARC
  5
5C5
100
AcDbEntity
  8
ASSI
100
AcDbCircle
 62
7
  6
CONTINUOUS
 10
141.7547227823
 20
-50.15
 40
12.15
100
AcDbArc
 50
0.0
 51
180.0
  0
ARC
  5
5C6
100
AcDbEntity
  8
0
100
AcDbCircle
 62
7
  6
CONTINUOUS
 10
113.6547227823
 20
-122.5
 40
1.5
100
AcDbArc
 50
180.0
 51
270.0
  0
ARC
  5
5C7
100
AcDbEntity
  8
0
100
AcDbCircle
 62
7
  6
CONTINUOUS
 10
113.6547227823
 20
135.5
 40
1.5
100
AcDbArc
 50
90.0
 51
180.0
  0
ARC
  5
5C8
100
AcDbEntity
  8
RACCORDO
100
AcDbCircle
 62
7
  6
CONTINUOUS
 10
173.3976031072
 20
-66.85
 40
0.2
100
AcDbArc
 50
270.0
 51
346.4952376425
  0
ARC
  5
5C9
100
AcDbEntity
  8
RACCORDO
100
AcDbCircle
 62
7
  6
CONTINUOUS
 10
173.3976031072
 20
-55.75
 40
0.2
100
AcDbArc
 50
13.5047623575
 51
90.0
  0
ARC
  5
5CA
100
AcDbEntity
  8
RACCORDO
100
AcDbCircle
 62
7
  6
CONTINUOUS
 10
173.3976031072
 20
-41.85
 40
0.2
100
AcDbArc
 50
270.0
 51
346.4952376425
  0
ARC
  5
5CB
100
AcDbEntity
  8
RACCORDO
100
AcDbCircle
 62
7
  6
CONTINUOUS
 10
173.3976031072
 20
-30.75
 40
0.2
100
AcDbArc
 50
13.5047623575
 51
90.0
  0
ARC
  5
5CC
100
AcDbEntity
  8
RACCORDO
100
AcDbCircle
 62
7
  6
CONTINUOUS
 10
173.3976031072
 20
-91.85
 40
0.2
100
AcDbArc
 50
270.0
 51
346.4952376425
  0
ARC
  5
5CD
100
AcDbEntity
  8
RACCORDO
100
AcDbCircle
 62
7
  6
CONTINUOUS
 10
173.3976031072
 20
-80.75
 40
0.2
100
AcDbArc
 50
13.5047623575
 51
90.0
  0
ENDSEC
  0
SECTION
  2
OBJECTS
  0
DICTIONARY
  5
C
100
AcDbDictionary
280
0
281
1
  3
ACAD_GROUP
350
D
  3
ACAD_MLINESTYLE
350
17
  3
ACAD_LAYOUT
350
1A
  3
ACAD_PLOTSETTINGS
350
19
  3
ACAD_PLOTSTYLENAME
350
E
  0
DICTIONARY
  5
D
102
{ACAD_REACTORS
330
C
102
}
100
AcDbDictionary
280
0
281
1
  0
ACDBDICTIONARYWDFLT
  5
E
102
{ACAD_REACTORS
330
C
102
}
100
AcDbDictionary
281
1
  3
Normal
350
F
100
AcDbDictionaryWithDefault
340
F
  0
DICTIONARY
  5
17
102
{ACAD_REACTORS
330
C
102
}
100
AcDbDictionary
280
0
281
1
  3
Standard
350
18
  0
DICTIONARY
  5
19
102
{ACAD_REACTORS
330
C
102
}
100
AcDbDictionary
281
1
  0
DICTIONARY
  5
1A
102
{ACAD_REACTORS
330
C
102
}
100
AcDbDictionary
281
1
  3
Model
350
5CE
  3
Layout1
350
5CF
  0
ACDBPLACEHOLDER
  5
F
102
{ACAD_REACTORS
330
E
102
}
  0
MLINESTYLE
  5
18
102
{ACAD_REACTORS
330
17
102
}
100
AcDbMlineStyle
  2
STANDARD
 70
0
  3

 62
256
 51
90.0
 52
90.0
 71
2
 49
0.5
 62
256
  6
BYLAYER
 49
-0.5
 62
256
  6
BYLAYER
  0
LAYOUT
  5
5CE
102
{ACAD_REACTORS
330
1A
102
}
100
AcDbPlotSettings
  1

  2
none_device
  4

  6

 40
0.0
 41
0.0
 42
0.0
 43
0.0
 44
210.0
 45
297.0
 46
0.0
 47
0.0
 48
0.0
 49
0.0
140
0.0
141
0.0
142
1.0
143
1.0
 70
1024
 72
1
 73
0
 74
0
  7

 75
0
147
1.0
148
0.0
149
0.0
100
AcDbLayout
  1
Model
 70
0
 71
0
 10
0.0
 20
0.0
 11
210.0
 21
297.0
 12
0.0
 22
0.0
 32
0.0
 14
0.0
 24
0.0
 34
0.0
 15
0.0
 25
0.0
 35
0.0
146
0.0
 13
0.0
 23
0.0
 33
0.0
 16
1.0
 26
0.0
 36
0.0
 17
0.0
 27
1.0
 37
0.0
 76
0
330
218
345
0
346
0
  0
LAYOUT
  5
5CF
102
{ACAD_REACTORS
330
1A
102
}
100
AcDbPlotSettings
  1

  2
none_device
  4

  6

 40
0.0
 41
0.0
 42
0.0
 43
0.0
 44
210.0
 45
297.0
 46
0.0
 47
0.0
 48
0.0
 49
0.0
140
0.0
141
0.0
142
1.0
143
1.0
 70
0
 72
1
 73
0
 74
0
  7

 75
0
147
1.0
148
0.0
149
0.0
100
AcDbLayout
  1
Layout1
 70
0
 71
1
 10
0.0
 20
0.0
 11
210.0
 21
297.0
 12
0.0
 22
0.0
 32
0.0
 14
0.0
 24
0.0
 34
0.0
 15
0.0
 25
0.0
 35
0.0
146
0.0
 13
0.0
 23
0.0
 33
0.0
 16
1.0
 26
0.0
 36
0.0
 17
0.0
 27
1.0
 37
0.0
 76
0
330
219
345
0
346
0
  0
ENDSEC
  0
EOF
