  0
SECTION
  2
HEADER
  9
$ACADVER
  1
AC1021
  9
$DWGCODEPAGE
  3
ANSI_1252
  9
$EXTMAX
 10
297.0
 20
420.0
 30
0.0
  9
$EXTMIN
 10
0.0
 20
0.0
 30
0.0
  9
$LIMMIN
 10
0.0
 20
0.0
  9
$LIMMAX
 10
297.0
 20
420.0
  9
$VIEWCTR
 10
148.5
 20
210.0
  9
$VIEWSIZE
 40
420.0
  9
$CLAYER
  8
0
  9
$LTSCALE
 40
27.3777777778
  9
$CELTYPE
  6
BYLAYER
  9
$DIMSCALE
 40
1.0
  9
$DIMASZ
 40
3.0
  9
$DIMEXO
 40
0.5
  9
$DIMDLI
 40
18.9155555556
  9
$DIMEXE
 40
1.5
  9
$DIMCEN
 40
4.48
  9
$DIMLFAC
 40
1.0
  9
$DIMBLK
  1
_FILLED
  9
$DIMALT
 70
0
  9
$DIMALTF
 40
0.0393700787
  9
$DIMTXT
 40
3.0
  9
$DIMTOL
 70
1
  9
$DIMLIM
 70
0
  9
$DIMTFAC
 40
1.0
  9
$DIMTP
 40
0.01
  9
$DIMTM
 40
0.01
  9
$DIMGAP
 40
0.625
  9
$DIMDSEP
 70
44
  9
$AUNITS
 70
0
  9
$PDMODE
 70
3
  9
$PDSIZE
 40
3.0
  9
$HANDSEED
  5
558
  9
$TILEMODE
 70
1
  9
$MEASUREMENT
 70
1
  9
$INSUNITS
 70
4
  0
ENDSEC
  0
SECTION
  2
CLASSES
  0
CLASS
  1
ACDBDICTIONARYWDFLT
  2
AcDbDictionaryWithDefault
  3
AutoCAD 2000
 90
0
 91
1
280
0
281
0
  0
CLASS
  1
ACDBPLACEHOLDER
  2
AcDbPlaceHolder
  3
AutoCAD 2000
 90
0
 91
1
280
0
281
0
  0
CLASS
  1
LAYOUT
  2
AcDbLayout
  3
AutoCAD 2000
 90
0
 91
0
280
0
281
0
  0
ENDSEC
  0
SECTION
  2
TABLES
  0
TABLE
  2
VPORT
  5
8
100
AcDbSymbolTable
 70
2
  0
VPORT
  5
1F4
100
AcDbSymbolTableRecord
100
AcDbViewportTableRecord
  2
*ACTIVE
 70
0
 10
0.0
 20
0.0
 11
1.0
 21
1.0
 12
148.5
 22
210.0
 13
0.0
 23
0.0
 14
1.0
 24
1.0
 15
0.0
 25
0.0
 16
0.0
 26
0.0
 36
1.0
 17
0.0
 27
0.0
 37
0.0
 40
420.0
 41
0.7071428571
 42
50.0
 43
0.0
 44
0.0
 50
0.0
 51
0.0
 71
0
 72
100
 73
1
 74
1
 75
0
 76
0
 77
0
 78
0
  0
ENDTAB
  0
TABLE
  2
LTYPE
  5
5
100
AcDbSymbolTable
 70
6
  0
LTYPE
  5
14
100
AcDbSymbolTableRecord
100
AcDbLinetypeTableRecord
  2
BYBLOCK
 70
0
  3

 72
65
 73
0
 40
0.0
  0
LTYPE
  5
15
100
AcDbSymbolTableRecord
100
AcDbLinetypeTableRecord
  2
BYLAYER
 70
0
  3

 72
65
 73
0
 40
0.0
  0
LTYPE
  5
16
100
AcDbSymbolTableRecord
100
AcDbLinetypeTableRecord
  2
CONTINUOUS
 70
64
  3
Solid line
 72
65
 73
0
 40
0.0
  0
LTYPE
  5
1F5
100
AcDbSymbolTableRecord
100
AcDbLinetypeTableRecord
  2
CENTER
 70
64
  3
____ _ ____ _ ____ _ ____ _ ____ _ ____ _ ____
 72
65
 73
4
 40
0.6
 49
0.375
 74
0
 49
-0.075
 74
0
 49
0.075
 74
0
 49
-0.075
 74
0
  0
LTYPE
  5
1F6
100
AcDbSymbolTableRecord
100
AcDbLinetypeTableRecord
  2
HIDDEN
 70
64
  3
- - - - - - - - - - - - - - - - - - - -
 72
65
 73
2
 40
0.2
 49
0.1
 74
0
 49
-0.1
 74
0
  0
LTYPE
  5
1F7
100
AcDbSymbolTableRecord
100
AcDbLinetypeTableRecord
  2
PHANTOM
 70
64
  3
_____ _ _ _____ _ _ _____ _ _ _____
 72
65
 73
6
 40
0.8
 49
0.45
 74
0
 49
-0.05
 74
0
 49
0.1
 74
0
 49
-0.05
 74
0
 49
0.1
 74
0
 49
-0.05
 74
0
  0
LTYPE
  5
1F8
100
AcDbSymbolTableRecord
100
AcDbLinetypeTableRecord
  2
DOT
 70
64
  3
. . . . . . . . . . . . . . . . . . . .
 72
65
 73
2
 40
0.2
 49
0.1
 74
0
 49
-0.1
 74
0
  0
LTYPE
  5
1F9
100
AcDbSymbolTableRecord
100
AcDbLinetypeTableRecord
  2
DASHED
 70
64
  3
- - - - - - - - - - - - - - - - - - - -
 72
65
 73
2
 40
0.2
 49
0.1
 74
0
 49
-0.1
 74
0
  0
ENDTAB
  0
TABLE
  2
LAYER
  5
2
100
AcDbSymbolTable
 70
36
  0
LAYER
  5
10
100
AcDbSymbolTableRecord
100
AcDbLayerTableRecord
  2
0
 70
0
 62
7
  6
CONTINUOUS
370
-3
390
F
  0
LAYER
  5
1FA
100
AcDbSymbolTableRecord
100
AcDbLayerTableRecord
  2
DEFAULT_1
 70
0
 62
7
  6
CENTER
370
-3
390
F
  0
LAYER
  5
1FB
100
AcDbSymbolTableRecord
100
AcDbLayerTableRecord
  2
DEFAULT_2
 70
0
 62
7
  6
HIDDEN
370
-3
390
F
  0
LAYER
  5
1FC
100
AcDbSymbolTableRecord
100
AcDbLayerTableRecord
  2
DEFAULT_3
 70
0
 62
7
  6
PHANTOM
370
-3
390
F
  0
LAYER
  5
1FD
100
AcDbSymbolTableRecord
100
AcDbLayerTableRecord
  2
ANNOTATION
 70
0
 62
7
  6
CONTINUOUS
370
-3
390
F
  0
LAYER
  5
1FE
100
AcDbSymbolTableRecord
100
AcDbLayerTableRecord
  2
ASSI
 70
0
 62
7
  6
CONTINUOUS
370
-3
390
F
  0
LAYER
  5
1FF
100
AcDbSymbolTableRecord
100
AcDbLayerTableRecord
  2
COLOR1
 70
0
 62
7
  6
CONTINUOUS
370
-3
390
F
  0
LAYER
  5
200
100
AcDbSymbolTableRecord
100
AcDbLayerTableRecord
  2
COLOR15
 70
0
 62
7
  6
CONTINUOUS
370
-3
390
F
  0
LAYER
  5
201
100
AcDbSymbolTableRecord
100
AcDbLayerTableRecord
  2
COLOR16
 70
0
 62
7
  6
CONTINUOUS
370
-3
390
F
  0
LAYER
  5
202
100
AcDbSymbolTableRecord
100
AcDbLayerTableRecord
  2
COLOR5
 70
0
 62
7
  6
CONTINUOUS
370
-3
390
F
  0
LAYER
  5
203
100
AcDbSymbolTableRecord
100
AcDbLayerTableRecord
  2
COLOR7
 70
0
 62
7
  6
CONTINUOUS
370
-3
390
F
  0
LAYER
  5
204
100
AcDbSymbolTableRecord
100
AcDbLayerTableRecord
  2
COORDINATE
 70
0
 62
7
  6
CONTINUOUS
370
-3
390
F
  0
LAYER
  5
205
100
AcDbSymbolTableRecord
100
AcDbLayerTableRecord
  2
COORD_ORIGINE
 70
0
 62
7
  6
CONTINUOUS
370
-3
390
F
  0
LAYER
  5
206
100
AcDbSymbolTableRecord
100
AcDbLayerTableRecord
  2
COPY_PUBLISH
 70
0
 62
7
  6
CONTINUOUS
370
-3
390
F
  0
LAYER
  5
207
100
AcDbSymbolTableRecord
100
AcDbLayerTableRecord
  2
COSMETICI
 70
0
 62
7
  6
CONTINUOUS
370
-3
390
F
  0
LAYER
  5
208
100
AcDbSymbolTableRecord
100
AcDbLayerTableRecord
  2
CURVE
 70
0
 62
7
  6
CONTINUOUS
370
-3
390
F
  0
LAYER
  5
209
100
AcDbSymbolTableRecord
100
AcDbLayerTableRecord
  2
DRAFT
 70
0
 62
7
  6
CONTINUOUS
370
-3
390
F
  0
LAYER
  5
20A
100
AcDbSymbolTableRecord
100
AcDbLayerTableRecord
  2
IMPORT_IGES
 70
0
 62
7
  6
CONTINUOUS
370
-3
390
F
  0
LAYER
  5
20B
100
AcDbSymbolTableRecord
100
AcDbLayerTableRecord
  2
INTF_YELLOW
 70
0
 62
7
  6
CONTINUOUS
370
-3
390
F
  0
LAYER
  5
20C
100
AcDbSymbolTableRecord
100
AcDbLayerTableRecord
  2
NOTE
 70
0
 62
7
  6
CONTINUOUS
370
-3
390
F
  0
LAYER
  5
20D
100
AcDbSymbolTableRecord
100
AcDbLayerTableRecord
  2
PIANI
 70
0
 62
7
  6
CONTINUOUS
370
-3
390
F
  0
LAYER
  5
20E
100
AcDbSymbolTableRecord
100
AcDbLayerTableRecord
  2
PIANI_ORIGINE
 70
0
 62
7
  6
CONTINUOUS
370
-3
390
F
  0
LAYER
  5
20F
100
AcDbSymbolTableRecord
100
AcDbLayerTableRecord
  2
PUNTI
 70
0
 62
7
  6
CONTINUOUS
370
-3
390
F
  0
LAYER
  5
210
100
AcDbSymbolTableRecord
100
AcDbLayerTableRecord
  2
RACCORDO
 70
0
 62
7
  6
CONTINUOUS
370
-3
390
F
  0
LAYER
  5
211
100
AcDbSymbolTableRecord
100
AcDbLayerTableRecord
  2
SIMBOLI
 70
0
 62
7
  6
CONTINUOUS
370
-3
390
F
  0
LAYER
  5
212
100
AcDbSymbolTableRecord
100
AcDbLayerTableRecord
  2
SMUSSO
 70
0
 62
7
  6
CONTINUOUS
370
-3
390
F
  0
LAYER
  5
213
100
AcDbSymbolTableRecord
100
AcDbLayerTableRecord
  2
SNAPLINE
 70
0
 62
7
  6
CONTINUOUS
370
-3
390
F
  0
LAYER
  5
214
100
AcDbSymbolTableRecord
100
AcDbLayerTableRecord
  2
SUPERFICI
 70
0
 62
7
  6
CONTINUOUS
370
-3
390
F
  0
LAYER
  5
215
100
AcDbSymbolTableRecord
100
AcDbLayerTableRecord
  2
TRASH
 70
0
 62
7
  6
CONTINUOUS
370
-3
390
F
  0
ENDTAB
  0
TABLE
  2
STYLE
  5
3
100
AcDbSymbolTable
 70
1
  0
STYLE
  5
11
100
AcDbSymbolTableRecord
100
AcDbTextStyleTableRecord
  2
STANDARD
 70
0
 40
0.0
 41
0.8
 50
0.0
 71
0
 42
0.2
  3
txt
  4

  0
STYLE
  5
216
100
AcDbSymbolTableRecord
100
AcDbTextStyleTableRecord
  2
TEXTSTYLE_1
 70
0
 40
0.0
 41
0.8
 50
0.0
 71
0
 42
0.2
  3
gdt
  4

  0
ENDTAB
  0
TABLE
  2
VIEW
  5
6
100
AcDbSymbolTable
 70
0
  0
ENDTAB
  0
TABLE
  2
UCS
  5
7
100
AcDbSymbolTable
 70
0
  0
ENDTAB
  0
TABLE
  2
APPID
  5
9
100
AcDbSymbolTable
 70
1
  0
APPID
  5
217
100
AcDbSymbolTableRecord
100
AcDbRegAppTableRecord
  2
ACAD
 70
0
  0
ENDTAB
  0
TABLE
  2
BLOCK_RECORD
  5
1
100
AcDbSymbolTable
 70
0
  0
BLOCK_RECORD
  5
218
100
AcDbSymbolTableRecord
100
AcDbBlockTableRecord
  2
*Model_Space
  0
BLOCK_RECORD
  5
219
100
AcDbSymbolTableRecord
100
AcDbBlockTableRecord
  2
*Paper_Space
  0
BLOCK_RECORD
  5
21A
100
AcDbSymbolTableRecord
100
AcDbBlockTableRecord
  2
_FILLED
  0
BLOCK_RECORD
  5
21B
100
AcDbSymbolTableRecord
100
AcDbBlockTableRecord
  2
*D0
  0
BLOCK_RECORD
  5
21C
100
AcDbSymbolTableRecord
100
AcDbBlockTableRecord
  2
*D1
  0
BLOCK_RECORD
  5
21D
100
AcDbSymbolTableRecord
100
AcDbBlockTableRecord
  2
*D2
  0
BLOCK_RECORD
  5
21E
100
AcDbSymbolTableRecord
100
AcDbBlockTableRecord
  2
*D3
  0
ENDTAB
  0
TABLE
  2
DIMSTYLE
  5
A
100
AcDbSymbolTable
 70
1
100
AcDbDimStyleTable
 71
0
  0
DIMSTYLE
105
21F
100
AcDbSymbolTableRecord
100
AcDbDimStyleTableRecord
  2
STANDARD
 70
0
  3

  4

 40
1.0
 41
3.0
 42
0.5
 43
0.38
 44
1.5
 45
0.0
 46
0.0
 47
0.01
 48
0.01
140
3.0
141
0.09
142
0.0
143
25.4
144
1.0
145
0.0
146
1.0
147
0.625
 71
1.0
 72
0.0
 73
0
 74
0
 75
0
 76
0
 77
1
 78
8
170
0
171
2
172
0
173
0
174
0
175
0
176
0
177
0
178
0
270
2
271
2
272
2
273
2
274
2
275
0
280
0
281
0
282
0
283
1
284
8
285
0
286
0
287
3
288
0
340
11
278
44
341
21A
342
21A
343
21A
344
21A
  0
DIMSTYLE
105
220
100
AcDbSymbolTableRecord
100
AcDbDimStyleTableRecord
  2
DIMSTYLE_1
 70
0
  3

  4

 40
1.0
 41
3.0
 42
0.5
 43
0.38
 44
1.5
 45
0.0
 46
0.0
 47
0.0
 48
0.0
140
3.0
141
0.09
142
0.0
143
25.4
144
1.0
145
0.0
146
1.0
147
0.75
 71
0.0
 72
0.0
 73
0
 74
0
 75
0
 76
0
 77
1
 78
8
170
0
171
2
172
0
173
0
174
0
175
0
176
0
177
0
178
0
270
2
271
2
272
2
273
2
274
2
275
0
280
0
281
0
282
0
283
1
284
8
285
0
286
0
287
3
288
0
340
11
278
44
341
21A
342
21A
343
21A
344
21A
  0
ENDTAB
  0
ENDSEC
  0
SECTION
  2
BLOCKS
  0
BLOCK
  5
20
100
AcDbEntity
  8
0
100
AcDbBlockBegin
  2
*Model_Space
 70
0
 10
0.0
 20
0.0
 30
0.0
  3
*Model_Space
  1

  0
ENDBLK
  5
21
100
AcDbEntity
  8
0
100
AcDbBlockEnd
  0
BLOCK
  5
1C
100
AcDbEntity
  8
0
100
AcDbBlockBegin
  2
*Paper_Space
 70
0
 10
0.0
 20
0.0
 30
0.0
  3
*Paper_Space
  1

  0
ENDBLK
  5
1D
100
AcDbEntity
  8
0
100
AcDbBlockEnd
  0
BLOCK
  5
221
100
AcDbEntity
  8
0
100
AcDbBlockBegin
  2
_FILLED
 70
64
 10
0.0
 20
0.0
  3
_FILLED
  1

  0
SOLID
  5
222
100
AcDbEntity
  8
0
  6
BYBLOCK
 62
0
100
AcDbTrace
 10
0.0
 20
0.0
 11
-1.0
 21
0.3166666667
 12
-1.0
 22
-0.3166666667
 13
-1.0
 23
-0.3166666667
  0
ENDBLK
  5
223
100
AcDbEntity
  8
0
  6
BYBLOCK
 62
0
100
AcDbBlockEnd
  0
BLOCK
  5
224
100
AcDbEntity
  8
0
100
AcDbBlockBegin
 62
7
  6
CONTINUOUS
  2
*D0
 70
65
 10
0.0
 20
0.0
  3
*D0
  1

  0
MTEXT
  5
225
100
AcDbEntity
  8
0
100
AcDbMText
 62
7
  6
CONTINUOUS
  7
STANDARD
 71
2
 72
1
 10
-0.0
 20
172.75
 30
0.0
 11
1.0
 21
0.0
 31
0.0
 44
0.9
  1
120
 40
3.0
 41
9.6428571429
  0
LINE
  5
226
100
AcDbEntity
  8
0
100
AcDbLine
 62
7
  6
CONTINUOUS
 10
60.0
 20
142.0647995288
 11
60.0
 21
170.5
  0
LINE
  5
227
100
AcDbEntity
  8
0
100
AcDbLine
 62
7
  6
CONTINUOUS
 10
-60.0
 20
141.4728614643
 11
-60.0
 21
170.5
  0
LINE
  5
228
100
AcDbEntity
  8
0
100
AcDbLine
 62
7
  6
CONTINUOUS
 10
60.0
 20
169.0
 11
-0.0
 21
169.0
  0
LINE
  5
229
100
AcDbEntity
  8
0
100
AcDbLine
 62
7
  6
CONTINUOUS
 10
-60.0
 20
169.0
 11
-0.0
 21
169.0
  0
INSERT
  5
22A
100
AcDbEntity
  8
0
100
AcDbBlockReference
 62
7
  6
CONTINUOUS
  2
_FILLED
 10
60.0
 20
169.0
 41
3.0
 42
3.0
 43
3.0
  0
INSERT
  5
22B
100
AcDbEntity
  8
0
100
AcDbBlockReference
 62
7
  6
CONTINUOUS
  2
_FILLED
 10
-60.0
 20
169.0
 41
3.0
 42
3.0
 43
3.0
 50
180.0
  0
ENDBLK
  5
22C
100
AcDbEntity
  8
0
  6
BYBLOCK
 62
0
100
AcDbBlockEnd
  0
BLOCK
  5
22D
100
AcDbEntity
  8
0
100
AcDbBlockBegin
 62
7
  6
CONTINUOUS
  2
*D1
 70
65
 10
0.0
 20
0.0
  3
*D1
  1

  0
MTEXT
  5
22E
100
AcDbEntity
  8
0
100
AcDbMText
 62
7
  6
CONTINUOUS
  7
STANDARD
 71
2
 72
1
 10
-79.0456137742
 20
6.5
 30
0.0
 11
0.0
 21
1.0
 31
0.0
 44
0.9
  1
309
 40
3.0
 41
10.2857142857
  0
LINE
  5
22F
100
AcDbEntity
  8
0
100
AcDbLine
 62
7
  6
CONTINUOUS
 10
-1.6466266958
 20
161.0
 11
-76.7956137742
 21
161.0
  0
LINE
  5
230
100
AcDbEntity
  8
0
100
AcDbLine
 62
7
  6
CONTINUOUS
 10
-2.5286086313
 20
-148.0
 11
-76.7956137742
 21
-148.0
  0
LINE
  5
231
100
AcDbEntity
  8
0
100
AcDbLine
 62
7
  6
CONTINUOUS
 10
-75.2956137742
 20
161.0
 11
-75.2956137742
 21
6.5
  0
LINE
  5
232
100
AcDbEntity
  8
0
100
AcDbLine
 62
7
  6
CONTINUOUS
 10
-75.2956137742
 20
-148.0
 11
-75.2956137742
 21
6.5
  0
INSERT
  5
233
100
AcDbEntity
  8
0
100
AcDbBlockReference
 62
7
  6
CONTINUOUS
  2
_FILLED
 10
-75.2956137742
 20
161.0
 41
3.0
 42
3.0
 43
3.0
 50
90.0
  0
INSERT
  5
234
100
AcDbEntity
  8
0
100
AcDbBlockReference
 62
7
  6
CONTINUOUS
  2
_FILLED
 10
-75.2956137742
 20
-148.0
 41
3.0
 42
3.0
 43
3.0
 50
270.0
  0
ENDBLK
  5
235
100
AcDbEntity
  8
0
  6
BYBLOCK
 62
0
100
AcDbBlockEnd
  0
BLOCK
  5
236
100
AcDbEntity
  8
0
100
AcDbBlockBegin
 62
7
  6
CONTINUOUS
  2
*D2
 70
65
 10
0.0
 20
0.0
  3
*D2
  1

  0
MTEXT
  5
237
100
AcDbEntity
  8
0
100
AcDbMText
 62
7
  6
CONTINUOUS
  7
STANDARD
 71
2
 72
1
 10
129.4190020161
 20
182.75
 30
0.0
 11
1.0
 21
0.0
 31
0.0
 44
0.9
  1
63,6
 40
3.0
 41
12.8571428571
  0
LINE
  5
238
100
AcDbEntity
  8
0
100
AcDbLine
 62
7
  6
CONTINUOUS
 10
97.6190020161
 20
137.1665120449
 11
97.6190020161
 21
180.5
  0
LINE
  5
239
100
AcDbEntity
  8
0
100
AcDbLine
 62
7
  6
CONTINUOUS
 10
161.2190020161
 20
91.2913120449
 11
161.2190020161
 21
180.5
  0
LINE
  5
23A
100
AcDbEntity
  8
0
100
AcDbLine
 62
7
  6
CONTINUOUS
 10
97.6190020161
 20
179.0
 11
129.4190020161
 21
179.0
  0
LINE
  5
23B
100
AcDbEntity
  8
0
100
AcDbLine
 62
7
  6
CONTINUOUS
 10
161.2190020161
 20
179.0
 11
129.4190020161
 21
179.0
  0
INSERT
  5
23C
100
AcDbEntity
  8
0
100
AcDbBlockReference
 62
7
  6
CONTINUOUS
  2
_FILLED
 10
97.6190020161
 20
179.0
 41
3.0
 42
3.0
 43
3.0
 50
180.0
  0
INSERT
  5
23D
100
AcDbEntity
  8
0
100
AcDbBlockReference
 62
7
  6
CONTINUOUS
  2
_FILLED
 10
161.2190020161
 20
179.0
 41
3.0
 42
3.0
 43
3.0
  0
ENDBLK
  5
23E
100
AcDbEntity
  8
0
  6
BYBLOCK
 62
0
100
AcDbBlockEnd
  0
BLOCK
  5
23F
100
AcDbEntity
  8
0
100
AcDbBlockBegin
 62
7
  6
CONTINUOUS
  2
*D3
 70
65
 10
0.0
 20
0.0
  3
*D3
  1

  0
MTEXT
  5
240
100
AcDbEntity
  8
0
100
AcDbMText
 62
7
  6
CONTINUOUS
  7
STANDARD
 71
2
 72
1
 10
125.4190020161
 20
172.75
 30
0.0
 11
1.0
 21
0.0
 31
0.0
 44
0.9
  1
55,6
 40
3.0
 41
12.5357142857
  0
LINE
  5
241
100
AcDbEntity
  8
0
100
AcDbLine
 62
7
  6
CONTINUOUS
 10
97.6190020161
 20
136.0
 11
97.6190020161
 21
170.5
  0
LINE
  5
242
100
AcDbEntity
  8
0
100
AcDbLine
 62
7
  6
CONTINUOUS
 10
153.2190020161
 20
161.5
 11
153.2190020161
 21
170.5
  0
LINE
  5
243
100
AcDbEntity
  8
0
100
AcDbLine
 62
7
  6
CONTINUOUS
 10
97.6190020161
 20
169.0
 11
125.4190020161
 21
169.0
  0
LINE
  5
244
100
AcDbEntity
  8
0
100
AcDbLine
 62
7
  6
CONTINUOUS
 10
153.2190020161
 20
169.0
 11
125.4190020161
 21
169.0
  0
INSERT
  5
245
100
AcDbEntity
  8
0
100
AcDbBlockReference
 62
7
  6
CONTINUOUS
  2
_FILLED
 10
97.6190020161
 20
169.0
 41
3.0
 42
3.0
 43
3.0
 50
180.0
  0
INSERT
  5
246
100
AcDbEntity
  8
0
100
AcDbBlockReference
 62
7
  6
CONTINUOUS
  2
_FILLED
 10
153.2190020161
 20
169.0
 41
3.0
 42
3.0
 43
3.0
  0
ENDBLK
  5
247
100
AcDbEntity
  8
0
  6
BYBLOCK
 62
0
100
AcDbBlockEnd
  0
ENDSEC
  0
SECTION
  2
ENTITIES
  0
DIMENSION
  5
248
100
AcDbEntity
  8
0
100
AcDbDimension
 62
7
  6
CONTINUOUS
  2
*D0
 10
-60.0
 20
169.0
 11
-0.4285698785
 21
169.0
 70
160
 71
2
 42
120.0
  3
DIMSTYLE_1
100
AcDbAlignedDimension
 13
60.0
 23
141.5647995288
 14
-60.0
 24
140.9728614643
 50
180.0
100
AcDbRotatedDimension
  0
DIMENSION
  5
249
100
AcDbEntity
  8
0
100
AcDbDimension
 62
7
  6
CONTINUOUS
  2
*D1
 10
-75.2956137742
 20
-148.0
 11
-75.2956137742
 21
6.0714287388
 70
160
 71
2
 42
309.0
  3
DIMSTYLE_1
100
AcDbAlignedDimension
 13
-1.1466266958
 23
161.0
 14
-2.0286086313
 24
-148.0
 50
270.0
100
AcDbRotatedDimension
  0
DIMENSION
  5
24A
100
AcDbEntity
  8
0
100
AcDbDimension
 62
7
  6
CONTINUOUS
  2
*D2
 10
161.2190020161
 20
179.0
 11
128.9904318576
 21
179.0
 70
160
 71
2
 42
63.6
  3
DIMSTYLE_1
100
AcDbAlignedDimension
 13
97.6190020161
 23
136.6665120449
 14
161.2190020161
 24
90.7913120449
100
AcDbRotatedDimension
  0
DIMENSION
  5
24B
100
AcDbEntity
  8
0
100
AcDbDimension
 62
7
  6
CONTINUOUS
  2
*D3
 10
153.2190020161
 20
169.0
 11
124.9904286024
 21
169.0
 70
160
 71
2
 42
55.6
  3
DIMSTYLE_1
100
AcDbAlignedDimension
 13
97.6190020161
 23
135.5
 14
153.2190020161
 24
161.0
100
AcDbRotatedDimension
  0
LINE
  5
24C
100
AcDbEntity
  8
SMUSSO
100
AcDbLine
 62
7
  6
CONTINUOUS
 10
-55.0
 20
-131.0
 11
-46.8508271005
 21
-131.0
  0
LINE
  5
24D
100
AcDbEntity
  8
SMUSSO
100
AcDbLine
 62
7
  6
CONTINUOUS
 10
46.8508271005
 20
-131.0
 11
55.0
 21
-131.0
  0
LINE
  5
24E
100
AcDbEntity
  8
SMUSSO
100
AcDbLine
 62
7
  6
CONTINUOUS
 10
-55.0
 20
-129.2679491924
 11
-46.8508271005
 21
-129.2679491924
  0
LINE
  5
24F
100
AcDbEntity
  8
SMUSSO
100
AcDbLine
 62
7
  6
CONTINUOUS
 10
46.8508271005
 20
-129.2679491924
 11
55.0
 21
-129.2679491924
  0
LINE
  5
250
100
AcDbEntity
  8
SMUSSO
100
AcDbLine
 62
253
  6
CONTINUOUS
 10
-58.2679491924
 20
-126.0
 11
-60.0
 21
-126.0
  0
LINE
  5
251
100
AcDbEntity
  8
SMUSSO
100
AcDbLine
 62
253
  6
CONTINUOUS
 10
58.2679491924
 20
-126.0
 11
60.0
 21
-126.0
  0
LINE
  5
252
100
AcDbEntity
  8
0
100
AcDbLine
 62
7
  6
CONTINUOUS
 10
38.8
 20
-119.5
 11
41.0
 21
-119.5
  0
LINE
  5
253
100
AcDbEntity
  8
DRAFT
100
AcDbLine
 62
7
  6
CONTINUOUS
 10
38.3648739865
 20
-119.4
 11
41.4351260135
 21
-119.4
  0
LINE
  5
254
100
AcDbEntity
  8
DRAFT
100
AcDbLine
 62
7
  6
CONTINUOUS
 10
38.2455601045
 20
-119.3319252468
 11
41.5544398955
 21
-119.3319252468
  0
LINE
  5
255
100
AcDbEntity
  8
DRAFT
100
AcDbLine
 62
7
  6
CONTINUOUS
 10
38.3358723834
 20
-118.8444068695
 11
41.6641276166
 21
-118.8444068695
  0
LINE
  5
256
100
AcDbEntity
  8
DRAFT
100
AcDbLine
 62
7
  6
CONTINUOUS
 10
38.5
 20
-118.1
 11
41.5
 21
-118.1
  0
LINE
  5
257
100
AcDbEntity
  8
DRAFT
100
AcDbLine
 62
7
  6
CONTINUOUS
 10
41.5
 20
-117.5
 11
38.5
 21
-117.5
  0
LINE
  5
258
100
AcDbEntity
  8
COSMETICI
100
AcDbLine
 62
7
  6
CONTINUOUS
 10
-29.24313908
 20
-117.5
 11
-34.210203126
 21
-117.5
  0
LINE
  5
259
100
AcDbEntity
  8
COSMETICI
100
AcDbLine
 62
7
  6
CONTINUOUS
 10
-37.76498731
 20
-117.5
 11
-42.089376862
 21
-117.5
  0
LINE
  5
25A
100
AcDbEntity
  8
COSMETICI
100
AcDbLine
 62
7
  6
CONTINUOUS
 10
-42.619268154
 20
-117.5
 11
-48.0
 21
-117.5
  0
LINE
  5
25B
100
AcDbEntity
  8
COSMETICI
100
AcDbLine
 62
7
  6
CONTINUOUS
 10
-23.471297074
 20
-117.487383382
 11
-25.145463806
 21
-117.487383382
  0
LINE
  5
25C
100
AcDbEntity
  8
COSMETICI
100
AcDbLine
 62
7
  6
CONTINUOUS
 10
-27.101397786
 20
-117.487383382
 11
-28.775947698
 21
-117.487383382
  0
LINE
  5
25D
100
AcDbEntity
  8
DRAFT
100
AcDbLine
 62
7
  6
CONTINUOUS
 10
41.6641276166
 20
-116.7555931305
 11
38.3358723834
 21
-116.7555931305
  0
LINE
  5
25E
100
AcDbEntity
  8
DRAFT
100
AcDbLine
 62
7
  6
CONTINUOUS
 10
38.3358723834
 20
-116.5444068695
 11
41.6641276166
 21
-116.5444068695
  0
LINE
  5
25F
100
AcDbEntity
  8
COSMETICI
100
AcDbLine
 62
7
  6
CONTINUOUS
 10
-32.617215576
 20
-116.504383406
 11
-30.83612663
 21
-116.504383406
  0
LINE
  5
260
100
AcDbEntity
  8
COSMETICI
100
AcDbLine
 62
7
  6
CONTINUOUS
 10
-46.460026236
 20
-116.251352992
 11
-42.619268154
 21
-116.251352992
  0
LINE
  5
261
100
AcDbEntity
  8
COSMETICI
100
AcDbLine
 62
7
  6
CONTINUOUS
 10
-40.581900094
 20
-116.251352992
 11
-37.76498731
 21
-116.251352992
  0
LINE
  5
262
100
AcDbEntity
  8
DRAFT
100
AcDbLine
 62
7
  6
CONTINUOUS
 10
38.5
 20
-115.8
 11
41.5
 21
-115.8
  0
LINE
  5
263
100
AcDbEntity
  8
COSMETICI
100
AcDbLine
 62
7
  6
CONTINUOUS
 10
-44.587437238
 20
-115.627029488
 11
-46.460026236
 21
-115.627029488
  0
LINE
  5
264
100
AcDbEntity
  8
COSMETICI
100
AcDbLine
 62
7
  6
CONTINUOUS
 10
-30.83612663
 20
-115.373999074
 11
-32.617215576
 21
-115.373999074
  0
LINE
  5
265
100
AcDbEntity
  8
DRAFT
100
AcDbLine
 62
7
  6
CONTINUOUS
 10
41.5
 20
-115.2
 11
38.5
 21
-115.2
  0
LINE
  5
266
100
AcDbEntity
  8
DRAFT
100
AcDbLine
 62
7
  6
CONTINUOUS
 10
41.6641276166
 20
-114.4555931305
 11
38.3358723834
 21
-114.4555931305
  0
LINE
  5
267
100
AcDbEntity
  8
COSMETICI
100
AcDbLine
 62
7
  6
CONTINUOUS
 10
-46.460026236
 20
-114.378380814
 11
-44.587437238
 21
-114.378380814
  0
LINE
  5
268
100
AcDbEntity
  8
COSMETICI
100
AcDbLine
 62
7
  6
CONTINUOUS
 10
-42.089376862
 20
-114.378380814
 11
-40.581900094
 21
-114.378380814
  0
LINE
  5
269
100
AcDbEntity
  8
COSMETICI
100
AcDbLine
 62
7
  6
CONTINUOUS
 10
-34.210203126
 20
-114.378380814
 11
-29.24313908
 21
-114.378380814
  0
LINE
  5
26A
100
AcDbEntity
  8
DRAFT
100
AcDbLine
 62
7
  6
CONTINUOUS
 10
38.3358723834
 20
-114.2444068695
 11
41.6641276166
 21
-114.2444068695
  0
LINE
  5
26B
100
AcDbEntity
  8
COSMETICI
100
AcDbLine
 62
7
  6
CONTINUOUS
 10
-28.554203098
 20
-113.75405731
 11
-34.338661722
 21
-113.75405731
  0
LINE
  5
26C
100
AcDbEntity
  8
COSMETICI
100
AcDbLine
 62
7
  6
CONTINUOUS
 10
-38.646228006
 20
-113.75405731
 11
-42.656353314
 21
-113.75405731
  0
LINE
  5
26D
100
AcDbEntity
  8
COSMETICI
100
AcDbLine
 62
7
  6
CONTINUOUS
 10
-43.182039622
 20
-113.75405731
 11
-46.460026236
 21
-113.75405731
  0
LINE
  5
26E
100
AcDbEntity
  8
DRAFT
100
AcDbLine
 62
7
  6
CONTINUOUS
 10
38.5
 20
-113.5
 11
41.5
 21
-113.5
  0
LINE
  5
26F
100
AcDbEntity
  8
DRAFT
100
AcDbLine
 62
7
  6
CONTINUOUS
 10
41.5
 20
-112.9
 11
38.5
 21
-112.9
  0
LINE
  5
270
100
AcDbEntity
  8
COSMETICI
100
AcDbLine
 62
7
  6
CONTINUOUS
 10
-48.0
 20
-112.505410302
 11
-43.182039622
 21
-112.505410302
  0
LINE
  5
271
100
AcDbEntity
  8
COSMETICI
100
AcDbLine
 62
7
  6
CONTINUOUS
 10
-42.656353314
 20
-112.505410302
 11
-37.865920254
 21
-112.505410302
  0
LINE
  5
272
100
AcDbEntity
  8
COSMETICI
100
AcDbLine
 62
7
  6
CONTINUOUS
 10
-35.11897114
 20
-112.505410302
 11
-29.461824904
 21
-112.505410302
  0
LINE
  5
273
100
AcDbEntity
  8
COSMETICI
100
AcDbLine
 62
7
  6
CONTINUOUS
 10
-28.775947698
 20
-112.500438958
 11
-27.101397786
 21
-112.500438958
  0
LINE
  5
274
100
AcDbEntity
  8
COSMETICI
100
AcDbLine
 62
7
  6
CONTINUOUS
 10
-25.145463806
 20
-112.500438958
 11
-23.471297074
 21
-112.500438958
  0
LINE
  5
275
100
AcDbEntity
  8
DRAFT
100
AcDbLine
 62
7
  6
CONTINUOUS
 10
41.6641276166
 20
-112.1555931305
 11
38.3358723834
 21
-112.1555931305
  0
LINE
  5
276
100
AcDbEntity
  8
DRAFT
100
AcDbLine
 62
7
  6
CONTINUOUS
 10
38.3358723834
 20
-111.9444068695
 11
41.6641276166
 21
-111.9444068695
  0
LINE
  5
277
100
AcDbEntity
  8
DRAFT
100
AcDbLine
 62
7
  6
CONTINUOUS
 10
38.5
 20
-111.2
 11
41.5
 21
-111.2
  0
LINE
  5
278
100
AcDbEntity
  8
DRAFT
100
AcDbLine
 62
7
  6
CONTINUOUS
 10
41.5
 20
-110.6
 11
38.5
 21
-110.6
  0
LINE
  5
279
100
AcDbEntity
  8
DRAFT
100
AcDbLine
 62
7
  6
CONTINUOUS
 10
41.6641276166
 20
-109.8555931305
 11
38.3358723834
 21
-109.8555931305
  0
LINE
  5
27A
100
AcDbEntity
  8
DRAFT
100
AcDbLine
 62
7
  6
CONTINUOUS
 10
41.3623312405
 20
-109.4680747532
 11
38.4376687595
 21
-109.4680747532
  0
LINE
  5
27B
100
AcDbEntity
  8
0
100
AcDbLine
 62
7
  6
CONTINUOUS
 10
41.0
 20
-109.4
 11
38.8
 21
-109.4
  0
LINE
  5
27C
100
AcDbEntity
  8
COSMETICI
100
AcDbLine
 62
7
  6
CONTINUOUS
 10
-27.101397786
 20
-112.500438958
 11
-26.123430796
 21
-113.843519844
  0
LINE
  5
27D
100
AcDbEntity
  8
COSMETICI
100
AcDbLine
 62
7
  6
CONTINUOUS
 10
-26.960705752
 20
-114.99391117
 11
-28.775947698
 21
-112.500438958
  0
LINE
  5
27E
100
AcDbEntity
  8
COSMETICI
100
AcDbLine
 62
7
  6
CONTINUOUS
 10
-25.145463806
 20
-117.487383382
 11
-26.123430796
 21
-116.143920982
  0
LINE
  5
27F
100
AcDbEntity
  8
COSMETICI
100
AcDbLine
 62
7
  6
CONTINUOUS
 10
-25.28615584
 20
-114.99391117
 11
-23.471297074
 21
-117.487383382
  0
LINE
  5
280
100
AcDbEntity
  8
COSMETICI
100
AcDbLine
 62
7
  6
CONTINUOUS
 10
-29.461824904
 20
-112.505410302
 11
-28.554203098
 21
-113.75405731
  0
LINE
  5
281
100
AcDbEntity
  8
COSMETICI
100
AcDbLine
 62
7
  6
CONTINUOUS
 10
-36.492253274
 20
-117.5
 11
-38.646228006
 21
-113.75405731
  0
LINE
  5
282
100
AcDbEntity
  8
COSMETICI
100
AcDbLine
 62
7
  6
CONTINUOUS
 10
-37.865920254
 20
-112.505410302
 11
-36.492253274
 21
-114.894127766
  0
LWPOLYLINE
  5
283
100
AcDbEntity
  8
ASSI
100
AcDbPolyline
 62
253
  6
CONTINUOUS
 90
13
 70
0
 10
-26.2275397447
 20
103.4385577018
 10
-26.8677445986
 20
102.3929405173
 10
-27.4731199464
 20
101.3534615905
 10
-28.04474996
 20
100.3207636155
 10
-28.5807788815
 20
99.3024527235
 10
-29.0857361061
 20
98.2923022672
 10
-29.5694009439
 20
97.2699516546
 10
-30.0342743132
 20
96.2340757426
 10
-30.4789107011
 20
95.1869600019
 10
-30.9057644071
 20
94.1133721132
 10
-31.3157646836
 20
93.0086287481
 10
-31.7090652756
 20
91.8787396945
 10
-32.0867781353
 20
90.7246033476
  0
LWPOLYLINE
  5
284
100
AcDbEntity
  8
ASSI
100
AcDbPolyline
 62
253
  6
CONTINUOUS
 90
12
 70
0
 10
26.4644434994
 20
103.593191689
 10
26.5183066851
 20
103.6291531924
 10
26.5693871403
 20
103.6636132456
 10
26.6173920791
 20
103.6963743282
 10
26.6620463435
 20
103.7272486583
 10
26.7030939816
 20
103.7560592685
 10
26.740299714
 20
103.7826410203
 10
26.7734502825
 20
103.8068415507
 10
26.8023556726
 20
103.8285221458
 10
26.8268502027
 20
103.8475585352
 10
26.8467934735
 20
103.8638416051
 10
26.8478349455
 20
103.864757558
  0
LINE
  5
285
100
AcDbEntity
  8
ASSI
100
AcDbLine
 62
253
  6
CONTINUOUS
 10
26.3496180627
 20
103.5175962615
 11
26.4644434994
 21
103.593191689
  0
LINE
  5
286
100
AcDbEntity
  8
ASSI
100
AcDbLine
 62
253
  6
CONTINUOUS
 10
26.227539712
 20
103.4385576899
 11
26.3496180627
 21
103.5175962615
  0
LINE
  5
287
100
AcDbEntity
  8
SMUSSO
100
AcDbLine
 62
7
  6
CONTINUOUS
 10
-60.0
 20
139.0
 11
-60.0
 21
-126.0
  0
LINE
  5
288
100
AcDbEntity
  8
SMUSSO
100
AcDbLine
 62
7
  6
CONTINUOUS
 10
-58.2679491924
 20
139.0
 11
-58.2679491924
 21
-126.0
  0
LINE
  5
289
100
AcDbEntity
  8
ASSI
100
AcDbLine
 62
253
  6
CONTINUOUS
 10
-32.6528810639
 20
91.4727148458
 11
-33.0513330768
 21
90.1589132911
  0
LWPOLYLINE
  5
28A
100
AcDbEntity
  8
ASSI
100
AcDbPolyline
 62
253
  6
CONTINUOUS
 90
6
 70
0
 10
-21.0620161847
 20
107.0617282094
 10
-21.0501094575
 20
107.0909323305
 10
-21.0378732568
 20
107.1139116566
 10
-21.0253880365
 20
107.130515097
 10
-21.0127358879
 20
107.1406334827
 10
-20.9999999999
 20
107.1442002846
  0
LWPOLYLINE
  5
28B
100
AcDbEntity
  8
ASSI
100
AcDbPolyline
 62
7
  6
CONTINUOUS
 90
7
 70
0
 10
-30.3041696268
 20
97.5529762719
 10
-30.7179050097
 20
96.6265921128
 10
-31.1646972005
 20
95.5661139417
 10
-31.5956419111
 20
94.478460796
 10
-32.0112279009
 20
93.3585147586
 10
-32.4079840414
 20
92.2114654242
 10
-32.7844877992
 20
91.037470158
  0
LWPOLYLINE
  5
28C
100
AcDbEntity
  8
ASSI
100
AcDbPolyline
 62
253
  6
CONTINUOUS
 90
6
 70
0
 10
-30.6902966317
 20
96.6998545436
 10
-30.7272839378
 20
96.6174362921
 10
-31.257833729
 20
95.3496971896
 10
-31.7558710614
 20
94.0689598208
 10
-32.2209773083
 20
92.7763491424
 10
-32.6528810639
 20
91.4727148458
  0
LINE
  5
28D
100
AcDbEntity
  8
SMUSSO
100
AcDbLine
 62
253
  6
CONTINUOUS
 10
42.5337284507
 20
143.8344247829
 11
43.6444500446
 21
145.1634460547
  0
LINE
  5
28E
100
AcDbEntity
  8
SMUSSO
100
AcDbLine
 62
253
  6
CONTINUOUS
 10
-55.0
 20
-129.2679491924
 11
-55.0
 21
-131.0
  0
LINE
  5
28F
100
AcDbEntity
  8
SMUSSO
100
AcDbLine
 62
253
  6
CONTINUOUS
 10
-55.0
 20
142.2679491924
 11
-55.0
 21
144.0
  0
LINE
  5
290
100
AcDbEntity
  8
COSMETICI
100
AcDbLine
 62
7
  6
CONTINUOUS
 10
-48.0
 20
-117.5
 11
-48.0
 21
-112.505410302
  0
LINE
  5
291
100
AcDbEntity
  8
SMUSSO
100
AcDbLine
 62
253
  6
CONTINUOUS
 10
-46.8508271005
 20
-129.2679491924
 11
-46.8508271005
 21
-131.0
  0
LINE
  5
292
100
AcDbEntity
  8
SMUSSO
100
AcDbLine
 62
253
  6
CONTINUOUS
 10
-46.8508271005
 20
142.2679491924
 11
-46.8508271005
 21
144.0
  0
LINE
  5
293
100
AcDbEntity
  8
COSMETICI
100
AcDbLine
 62
7
  6
CONTINUOUS
 10
-46.460026236
 20
-113.75405731
 11
-46.460026236
 21
-114.378380814
  0
LINE
  5
294
100
AcDbEntity
  8
COSMETICI
100
AcDbLine
 62
7
  6
CONTINUOUS
 10
-46.460026236
 20
-115.627029488
 11
-46.460026236
 21
-116.251352992
  0
LWPOLYLINE
  5
295
100
AcDbEntity
  8
ASSI
100
AcDbPolyline
 62
253
  6
CONTINUOUS
 90
8
 70
0
 10
-33.9548142794
 20
86.5674451968
 10
-34.0434278754
 20
86.1669333548
 10
-34.3057767827
 20
84.8226656247
 10
-34.5337347035
 20
83.4732315191
 10
-34.7272360477
 20
82.11951236
 10
-34.8862016252
 20
80.7627207597
 10
-35.0106264383
 20
79.4038507578
 10
-35.1005517784
 20
78.0436731801
  0
LWPOLYLINE
  5
296
100
AcDbEntity
  8
ASSI
100
AcDbPolyline
 62
253
  6
CONTINUOUS
 90
4
 70
0
 10
-33.0513330768
 20
90.1589132911
 10
-33.4160252976
 20
88.8361040024
 10
-33.7467775771
 20
87.5051493049
 10
-33.829099114
 20
87.1334105085
  0
LWPOLYLINE
  5
297
100
AcDbEntity
  8
ASSI
100
AcDbPolyline
 62
7
  6
CONTINUOUS
 90
24
 70
0
 10
-32.9564663112
 20
90.4682735145
 10
-33.1055885123
 20
89.9553925059
 10
-33.26006813
 20
89.4029790072
 10
-33.4109539351
 20
88.8402201781
 10
-33.5572481487
 20
88.2698876175
 10
-33.6967362356
 20
87.7003665881
 10
-33.829099114
 20
87.1334105085
 10
-33.9548142794
 20
86.5674451968
 10
-34.0732446195
 20
86.0059564045
 10
-34.1840745607
 20
85.4515506118
 10
-34.2880139257
 20
84.9018325203
 10
-34.3859443924
 20
84.3527791263
 10
-34.4773599554
 20
83.8078383597
 10
-34.5629217644
 20
83.2637088914
 10
-34.644696254
 20
82.7061490295
 10
-34.7223781046
 20
82.1344199143
 10
-34.7954410987
 20
81.5492721336
 10
-34.8647687052
 20
80.9385904903
 10
-34.9297840115
 20
80.299462042
 10
-34.9892470062
 20
79.6347770791
 10
-35.0424663781
 20
78.9410894524
 10
-35.0884023062
 20
78.2172749524
 10
-35.1258096599
 20
77.4645468068
 10
-35.1534930698
 20
76.682993628
  0
LINE
  5
298
100
AcDbEntity
  8
ASSI
100
AcDbLine
 62
253
  6
CONTINUOUS
 10
-32.7844877992
 20
91.037470158
 11
-32.9564663112
 21
90.4682735145
  0
LWPOLYLINE
  5
299
100
AcDbEntity
  8
ASSI
100
AcDbPolyline
 62
253
  6
CONTINUOUS
 90
25
 70
0
 10
-32.0840635005
 20
90.7245904758
 10
-32.2456200661
 20
90.196406652
 10
-32.402604594
 20
89.6609503334
 10
-32.5551175412
 20
89.1182284488
 10
-32.7042301663
 20
88.5654931483
 10
-32.8491168858
 20
88.0055056416
 10
-32.9871146636
 20
87.4465231065
 10
-33.1178594814
 20
86.8900723665
 10
-33.2421557536
 20
86.3346074853
 10
-33.3591604458
 20
85.7837593518
 10
-33.4686001234
 20
85.2399745237
 10
-33.5711889756
 20
84.7007763222
 10
-33.6675681927
 20
84.1624105704
 10
-33.757808346
 20
83.6282458005
 10
-33.8422500135
 20
83.0948915764
 10
-33.9220011793
 20
82.548473005
 10
-33.9982862903
 20
81.9883300764
 10
-34.0705166884
 20
81.4151256296
 10
-34.1372946107
 20
80.8169914118
 10
-34.2002966331
 20
80.191094904
 10
-34.2590661502
 20
79.5402796202
 10
-34.3092847049
 20
78.8612021066
 10
-34.3501734024
 20
78.1527481154
 10
-34.3844491273
 20
77.4160267545
 10
-34.4132668642
 20
76.6510270217
  0
LINE
  5
29A
100
AcDbEntity
  8
SMUSSO
100
AcDbLine
 62
253
  6
CONTINUOUS
 10
42.53372845
 20
-130.8344247835
 11
43.644450044
 21
-132.1634460552
  0
LWPOLYLINE
  5
29B
100
AcDbEntity
  8
ASSI
100
AcDbPolyline
 62
253
  6
CONTINUOUS
 90
31
 70
0
 10
-34.4132668642
 20
76.6510270217
 10
-34.413090612
 20
76.547879421
 10
-34.4074805006
 20
76.4453658874
 10
-34.3964330811
 20
76.3434868231
 10
-34.3798912678
 20
76.2419735314
 10
-34.357904934
 20
76.1410955442
 10
-34.330627811
 20
76.0416605507
 10
-34.2980012564
 20
75.9436608028
 10
-34.2600688244
 20
75.8471047665
 10
-34.2171317617
 20
75.7528243048
 10
-34.16913348
 20
75.6608397462
 10
-34.1161092512
 20
75.5711312879
 10
-34.0584932969
 20
75.4844704007
 10
-33.996230951
 20
75.4008792964
 10
-33.9293518158
 20
75.3203360271
 10
-33.8584132405
 20
75.243545597
 10
-33.7833617792
 20
75.1705342279
 10
-33.7042249973
 20
75.101275641
 10
-33.6216801948
 20
75.0363958439
 10
-33.5356820309
 20
74.9759300137
 10
-33.4462523118
 20
74.9198425605
 10
-33.3541692245
 20
74.8686530976
 10
-33.2593926843
 20
74.8224030987
 10
-33.1619445955
 20
74.7810503307
 10
-33.0626978251
 20
74.7449886312
 10
-32.9616372354
 20
74.7142685773
 10
-32.8587675133
 20
74.6888385434
 10
-32.75499402
 20
74.6689389053
 10
-32.6506183158
 20
74.6546493598
 10
-32.5453375169
 20
74.645888983
 10
-32.4391528701
 20
74.642657159
  0
LINE
  5
29C
100
AcDbEntity
  8
COSMETICI
100
AcDbLine
 62
7
  6
CONTINUOUS
 10
-44.587437238
 20
-114.378380814
 11
-44.587437238
 21
-115.627029488
  0
LINE
  5
29D
100
AcDbEntity
  8
COSMETICI
100
AcDbLine
 62
7
  6
CONTINUOUS
 10
-43.182039622
 20
-112.505410302
 11
-43.182039622
 21
-113.75405731
  0
LINE
  5
29E
100
AcDbEntity
  8
COSMETICI
100
AcDbLine
 62
7
  6
CONTINUOUS
 10
-42.656353314
 20
-113.75405731
 11
-42.656353314
 21
-112.505410302
  0
LINE
  5
29F
100
AcDbEntity
  8
COSMETICI
100
AcDbLine
 62
7
  6
CONTINUOUS
 10
-42.619268154
 20
-116.251352992
 11
-42.619268154
 21
-117.5
  0
LINE
  5
2A0
100
AcDbEntity
  8
COSMETICI
100
AcDbLine
 62
7
  6
CONTINUOUS
 10
-42.089376862
 20
-117.5
 11
-42.089376862
 21
-114.378380814
  0
LINE
  5
2A1
100
AcDbEntity
  8
COSMETICI
100
AcDbLine
 62
7
  6
CONTINUOUS
 10
-40.581900094
 20
-114.378380814
 11
-40.581900094
 21
-116.251352992
  0
LINE
  5
2A2
100
AcDbEntity
  8
COSMETICI
100
AcDbLine
 62
7
  6
CONTINUOUS
 10
-37.76498731
 20
-116.251352992
 11
-37.76498731
 21
-117.5
  0
LINE
  5
2A3
100
AcDbEntity
  8
COSMETICI
100
AcDbLine
 62
7
  6
CONTINUOUS
 10
-34.210203126
 20
-117.5
 11
-34.210203126
 21
-114.378380814
  0
LWPOLYLINE
  5
2A4
100
AcDbEntity
  8
ASSI
100
AcDbPolyline
 62
7
  6
CONTINUOUS
 90
31
 70
0
 10
-35.1534930698
 20
76.682993628
 10
-35.1537666432
 20
76.5273277014
 10
-35.1458258485
 20
76.3717711893
 10
-35.1296781545
 20
76.2167582907
 10
-35.1053568844
 20
76.0627387996
 10
-35.0729143298
 20
75.9101290632
 10
-35.0324133783
 20
75.7593124873
 10
-34.9839391882
 20
75.6106982888
 10
-34.9276114043
 20
75.4647299952
 10
-34.8635732309
 20
75.3218367694
 10
-34.7919894239
 20
75.1824347677
 10
-34.7130414501
 20
75.0469206137
 10
-34.6269314292
 20
74.9156815996
 10
-34.5338853938
 20
74.7891010935
 10
-34.4341496602
 20
74.6675500731
 10
-34.327985817
 20
74.5513810149
 10
-34.2156747236
 20
74.4409354634
 10
-34.0975244103
 20
74.3365486372
 10
-33.9738654148
 20
74.2385407652
 10
-33.8450354031
 20
74.1472066354
 10
-33.7113936218
 20
74.0628269958
 10
-33.5733299183
 20
73.9856701302
 10
-33.4312235872
 20
73.9159693256
 10
-33.2854834423
 20
73.8539458068
 10
-33.1365675632
 20
73.79980897
 10
-32.9849052977
 20
73.7537254332
 10
-32.8309275089
 20
73.7158364642
 10
-32.675111885
 20
73.6862663738
 10
-32.5179193781
 20
73.665105887
 10
-32.3597915044
 20
73.6524181478
 10
-32.2320199944
 20
73.6483876824
  0
LWPOLYLINE
  5
2A5
100
AcDbEntity
  8
ASSI
100
AcDbPolyline
 62
253
  6
CONTINUOUS
 90
45
 70
0
 10
-35.1560266394
 20
76.6830648503
 10
-35.1571409228
 20
76.5822011927
 10
-35.1548934823
 20
76.4834284494
 10
-35.1494944422
 20
76.3868525247
 10
-35.1411852868
 20
76.2928794393
 10
-35.1301596776
 20
76.201272583
 10
-35.1164649205
 20
76.1111651309
 10
-35.1001776694
 20
76.0224297374
 10
-35.081441624
 20
75.9353302433
 10
-35.060286761
 20
75.849593881
 10
-35.0368155338
 20
75.7653324082
 10
-35.0111033626
 20
75.6825483575
 10
-34.983067931
 20
75.6008180772
 10
-34.9527420072
 20
75.5201666854
 10
-34.9201866039
 20
75.4406919077
 10
-34.8852904865
 20
75.3621018259
 10
-34.8479814849
 20
75.2842791041
 10
-34.8083654418
 20
75.2074870332
 10
-34.7665892511
 20
75.1320069621
 10
-34.7227057543
 20
75.0579082259
 10
-34.676756746
 20
74.985236516
 10
-34.6289089104
 20
74.9142158099
 10
-34.5795353398
 20
74.8453061526
 10
-34.5284172755
 20
74.7781129548
 10
-34.4747574368
 20
74.7116351157
 10
-34.4186283512
 20
74.6460911004
 10
-34.3599221387
 20
74.5814807725
 10
-34.2973676887
 20
74.516656852
 10
-34.2308333483
 20
74.4518503493
 10
-34.1602080887
 20
74.3873205358
 10
-34.0840312221
 20
74.322217924
 10
-34.0017764131
 20
74.2567274243
 10
-33.9135436386
 20
74.1915741466
 10
-33.8186820964
 20
74.1269462475
 10
-33.7166412557
 20
74.0632186182
 10
-33.607602693
 20
74.00126847
 10
-33.4920656453
 20
73.9420745591
 10
-33.3699537754
 20
73.8862537571
 10
-33.2413040684
 20
73.8344864079
 10
-33.1069375221
 20
73.7877091598
 10
-32.9669947752
 20
73.7465220026
 10
-32.8216678301
 20
73.7115373361
 10
-32.6720002123
 20
73.6835037821
 10
-32.518578618
 20
73.6629487732
 10
-32.3615028761
 20
73.650307524
  0
LINE
  5
2A6
100
AcDbEntity
  8
ASSI
100
AcDbLine
 62
253
  6
CONTINUOUS
 10
-35.1005517784
 20
78.0436731801
 11
-35.1560266394
 21
76.6830648503
  0
LWPOLYLINE
  5
2A7
100
AcDbEntity
  8
ASSI
100
AcDbPolyline
 62
253
  6
CONTINUOUS
 90
13
 70
0
 10
-32.1321877077
 20
73.4
 10
-32.1355016898
 20
73.4323034953
 10
-32.1397681619
 20
73.4668712227
 10
-32.1445000038
 20
73.4990081077
 10
-32.1496613612
 20
73.5284706403
 10
-32.1552131248
 20
73.5550355747
 10
-32.1611132276
 20
73.5785016209
 10
-32.1673169628
 20
73.5986909704
 10
-32.173777323
 20
73.6154506428
 10
-32.1804453563
 20
73.6286536455
 10
-32.187270537
 20
73.6381999356
 10
-32.1942011491
 20
73.6440171783
 10
-32.2011846771
 20
73.6460612947
  0
LWPOLYLINE
  5
2A8
100
AcDbEntity
  8
ASSI
100
AcDbPolyline
 62
253
  6
CONTINUOUS
 90
19
 70
0
 10
-32.7844881176
 20
91.0374702555
 10
-32.7837861128
 20
91.0296555311
 10
-32.7778905273
 20
91.0203236514
 10
-32.7668357191
 20
91.0095235073
 10
-32.7506815995
 20
90.9973196974
 10
-32.7295203386
 20
90.9837694435
 10
-32.7034758846
 20
90.9689222895
 10
-32.6726937869
 20
90.952850302
 10
-32.6373406277
 20
90.9356468157
 10
-32.5976101797
 20
90.9174032377
 10
-32.553719886
 20
90.8982162823
 10
-32.5059088917
 20
90.8781900019
 10
-32.4544370016
 20
90.8574344593
 10
-32.3995479136
 20
90.8360416034
 10
-32.341572529
 20
90.8141451658
 10
-32.2809463345
 20
90.7919256597
 10
-32.2180549193
 20
90.7695253455
 10
-32.1532121687
 20
90.7470445041
 10
-32.0867769117
 20
90.7246034158
  0
LINE
  5
2A9
100
AcDbEntity
  8
ASSI
100
AcDbLine
 62
7
  6
CONTINUOUS
 10
-30.6808008909
 20
27.062511516
 11
-30.6668379024
 21
25.8124545136
  0
LINE
  5
2AA
100
AcDbEntity
  8
ASSI
100
AcDbLine
 62
7
  6
CONTINUOUS
 10
-30.6808008909
 20
33.562511516
 11
-30.6668379024
 21
32.3124545136
  0
LINE
  5
2AB
100
AcDbEntity
  8
ASSI
100
AcDbLine
 62
7
  6
CONTINUOUS
 10
-30.6808008909
 20
40.062511516
 11
-30.6668379024
 21
38.8124545136
  0
LINE
  5
2AC
100
AcDbEntity
  8
ASSI
100
AcDbLine
 62
7
  6
CONTINUOUS
 10
-30.6808008909
 20
46.562511516
 11
-30.6668379024
 21
45.3124545136
  0
LINE
  5
2AD
100
AcDbEntity
  8
ASSI
100
AcDbLine
 62
7
  6
CONTINUOUS
 10
-30.6808008909
 20
53.062511516
 11
-30.6668379024
 21
51.8124545136
  0
LINE
  5
2AE
100
AcDbEntity
  8
ASSI
100
AcDbLine
 62
7
  6
CONTINUOUS
 10
-30.6808008909
 20
59.562511516
 11
-30.6668379024
 21
58.3124545136
  0
LWPOLYLINE
  5
2AF
100
AcDbEntity
  8
ASSI
100
AcDbPolyline
 62
253
  6
CONTINUOUS
 90
16
 70
0
 10
-32.4391528492
 20
74.6426571595
 10
-32.4383363787
 20
74.5683696996
 10
-32.4362087591
 20
74.494523811
 10
-32.4327817535
 20
74.4215277682
 10
-32.4280743089
 20
74.3497851471
 10
-32.4221124515
 20
74.2796925938
 10
-32.4149291429
 20
74.2116376314
 10
-32.4065640975
 20
74.1459965181
 10
-32.3970635636
 20
74.0831321661
 10
-32.386480067
 20
74.023392136
 10
-32.3748721212
 20
73.9671067147
 10
-32.3623039033
 20
73.9145870894
 10
-32.3488448997
 20
73.8661236272
 10
-32.3345695218
 20
73.82198427
 10
-32.3195566942
 20
73.7824130525
 10
-32.3038894189
 20
73.7476287537
  0
LINE
  5
2B0
100
AcDbEntity
  8
COSMETICI
100
AcDbLine
 62
7
  6
CONTINUOUS
 10
-32.617215576
 20
-115.373999074
 11
-32.617215576
 21
-116.504383406
  0
LINE
  5
2B1
100
AcDbEntity
  8
ASSI
100
AcDbLine
 62
253
  6
CONTINUOUS
 10
-32.2011846771
 20
73.6460612948
 11
-32.2011846771
 21
73.6482441888
  0
LINE
  5
2B2
100
AcDbEntity
  8
ASSI
100
AcDbLine
 62
7
  6
CONTINUOUS
 10
-30.95
 20
59.075
 11
-30.95
 21
58.925
  0
LINE
  5
2B3
100
AcDbEntity
  8
ASSI
100
AcDbLine
 62
7
  6
CONTINUOUS
 10
-30.95
 20
52.575
 11
-30.95
 21
52.425
  0
LINE
  5
2B4
100
AcDbEntity
  8
ASSI
100
AcDbLine
 62
7
  6
CONTINUOUS
 10
-30.95
 20
46.075
 11
-30.95
 21
45.925
  0
LINE
  5
2B5
100
AcDbEntity
  8
ASSI
100
AcDbLine
 62
7
  6
CONTINUOUS
 10
-30.95
 20
39.575
 11
-30.95
 21
39.425
  0
LINE
  5
2B6
100
AcDbEntity
  8
ASSI
100
AcDbLine
 62
7
  6
CONTINUOUS
 10
-30.95
 20
33.075
 11
-30.95
 21
32.925
  0
LINE
  5
2B7
100
AcDbEntity
  8
ASSI
100
AcDbLine
 62
7
  6
CONTINUOUS
 10
-30.95
 20
26.575
 11
-30.95
 21
26.425
  0
LINE
  5
2B8
100
AcDbEntity
  8
COSMETICI
100
AcDbLine
 62
7
  6
CONTINUOUS
 10
-30.83612663
 20
-116.504383406
 11
-30.83612663
 21
-115.373999074
  0
LINE
  5
2B9
100
AcDbEntity
  8
ASSI
100
AcDbLine
 62
7
  6
CONTINUOUS
 10
-30.7191991091
 20
27.062511516
 11
-30.7191991091
 21
27.3292261923
  0
LINE
  5
2BA
100
AcDbEntity
  8
ASSI
100
AcDbLine
 62
7
  6
CONTINUOUS
 10
-30.7191991091
 20
33.562511516
 11
-30.7191991091
 21
33.8292261923
  0
LINE
  5
2BB
100
AcDbEntity
  8
ASSI
100
AcDbLine
 62
7
  6
CONTINUOUS
 10
-30.7191991091
 20
40.062511516
 11
-30.7191991091
 21
40.3292261923
  0
LINE
  5
2BC
100
AcDbEntity
  8
ASSI
100
AcDbLine
 62
7
  6
CONTINUOUS
 10
-30.7191991091
 20
46.562511516
 11
-30.7191991091
 21
46.8292261923
  0
LINE
  5
2BD
100
AcDbEntity
  8
ASSI
100
AcDbLine
 62
7
  6
CONTINUOUS
 10
-30.7191991091
 20
53.062511516
 11
-30.7191991091
 21
53.3292261923
  0
LINE
  5
2BE
100
AcDbEntity
  8
ASSI
100
AcDbLine
 62
7
  6
CONTINUOUS
 10
-30.7191991091
 20
59.562511516
 11
-30.7191991091
 21
59.8292261923
  0
LINE
  5
2BF
100
AcDbEntity
  8
ASSI
100
AcDbLine
 62
7
  6
CONTINUOUS
 10
-30.6808008909
 20
59.562511516
 11
-30.6808008909
 21
58.1167261685
  0
LINE
  5
2C0
100
AcDbEntity
  8
ASSI
100
AcDbLine
 62
7
  6
CONTINUOUS
 10
-30.6808008909
 20
53.062511516
 11
-30.6808008909
 21
51.6167261685
  0
LINE
  5
2C1
100
AcDbEntity
  8
ASSI
100
AcDbLine
 62
7
  6
CONTINUOUS
 10
-30.6808008909
 20
46.562511516
 11
-30.6808008909
 21
45.1167261685
  0
LINE
  5
2C2
100
AcDbEntity
  8
ASSI
100
AcDbLine
 62
7
  6
CONTINUOUS
 10
-30.6808008909
 20
40.062511516
 11
-30.6808008909
 21
38.6167261685
  0
LINE
  5
2C3
100
AcDbEntity
  8
ASSI
100
AcDbLine
 62
7
  6
CONTINUOUS
 10
-30.6808008909
 20
33.562511516
 11
-30.6808008909
 21
32.1167261685
  0
LINE
  5
2C4
100
AcDbEntity
  8
ASSI
100
AcDbLine
 62
7
  6
CONTINUOUS
 10
-30.6808008909
 20
27.062511516
 11
-30.6808008909
 21
25.6167261685
  0
LINE
  5
2C5
100
AcDbEntity
  8
ASSI
100
AcDbLine
 62
7
  6
CONTINUOUS
 10
-30.6668379024
 20
58.3124545136
 11
-30.6668379024
 21
58.0980737996
  0
LINE
  5
2C6
100
AcDbEntity
  8
ASSI
100
AcDbLine
 62
7
  6
CONTINUOUS
 10
-30.6668379024
 20
51.8124545136
 11
-30.6668379024
 21
51.5980737996
  0
LINE
  5
2C7
100
AcDbEntity
  8
ASSI
100
AcDbLine
 62
7
  6
CONTINUOUS
 10
-30.6668379024
 20
45.3124545136
 11
-30.6668379024
 21
45.0980737996
  0
LINE
  5
2C8
100
AcDbEntity
  8
ASSI
100
AcDbLine
 62
7
  6
CONTINUOUS
 10
-30.6668379024
 20
38.8124545136
 11
-30.6668379024
 21
38.5980737996
  0
LINE
  5
2C9
100
AcDbEntity
  8
ASSI
100
AcDbLine
 62
7
  6
CONTINUOUS
 10
-30.6668379024
 20
32.3124545136
 11
-30.6668379024
 21
32.0980737996
  0
LINE
  5
2CA
100
AcDbEntity
  8
ASSI
100
AcDbLine
 62
7
  6
CONTINUOUS
 10
-30.6668379024
 20
25.8124545136
 11
-30.6668379024
 21
25.5980737996
  0
LINE
  5
2CB
100
AcDbEntity
  8
COSMETICI
100
AcDbLine
 62
7
  6
CONTINUOUS
 10
-29.24313908
 20
-114.378380814
 11
-29.24313908
 21
-117.5
  0
LINE
  5
2CC
100
AcDbEntity
  8
ASSI
100
AcDbLine
 62
7
  6
CONTINUOUS
 10
-30.7191991091
 20
59.562511516
 11
-30.7161699618
 21
59.8337003698
  0
LINE
  5
2CD
100
AcDbEntity
  8
ASSI
100
AcDbLine
 62
7
  6
CONTINUOUS
 10
-30.7191991091
 20
53.062511516
 11
-30.7161699618
 21
53.3337003698
  0
LINE
  5
2CE
100
AcDbEntity
  8
ASSI
100
AcDbLine
 62
7
  6
CONTINUOUS
 10
-30.7191991091
 20
46.562511516
 11
-30.7161699618
 21
46.8337003698
  0
LINE
  5
2CF
100
AcDbEntity
  8
ASSI
100
AcDbLine
 62
7
  6
CONTINUOUS
 10
-30.7191991091
 20
40.062511516
 11
-30.7161699618
 21
40.3337003698
  0
LINE
  5
2D0
100
AcDbEntity
  8
ASSI
100
AcDbLine
 62
7
  6
CONTINUOUS
 10
-30.7191991091
 20
33.562511516
 11
-30.7161699618
 21
33.8337003698
  0
LINE
  5
2D1
100
AcDbEntity
  8
ASSI
100
AcDbLine
 62
7
  6
CONTINUOUS
 10
-30.7191991091
 20
27.062511516
 11
-30.7161699618
 21
27.3337003698
  0
LWPOLYLINE
  5
2D2
100
AcDbEntity
  8
ASSI
100
AcDbPolyline
 62
253
  6
CONTINUOUS
 90
14
 70
0
 10
-21.1562295462
 20
106.2513860223
 10
-21.1543072668
 20
106.3315871179
 10
-21.1513704054
 20
106.4105561712
 10
-21.1474382722
 20
106.4877739548
 10
-21.1425367211
 20
106.5627327558
 10
-21.1366979803
 20
106.6349397144
 10
-21.12996044
 20
106.7039200643
 10
-21.1223683999
 20
106.7692202545
 10
-21.1139717783
 20
106.8304109312
 10
-21.1048257836
 20
106.8870897611
 10
-21.0949905514
 20
106.9388840765
 10
-21.0845307492
 20
106.9854533259
 10
-21.0735151508
 20
107.0264913128
 10
-21.0620161847
 20
107.0617282094
  0
LWPOLYLINE
  5
2D3
100
AcDbEntity
  8
ASSI
100
AcDbPolyline
 62
253
  6
CONTINUOUS
 90
13
 70
0
 10
-20.9548754328
 20
107.3966892607
 10
-20.9571652572
 20
107.3624639258
 10
-20.9599476439
 20
107.3278963434
 10
-20.9630335098
 20
107.2957594949
 10
-20.966399473
 20
107.2662968833
 10
-20.9700200295
 20
107.2397317486
 10
-20.9738677459
 20
107.2162653766
 10
-20.977913468
 20
107.1960755735
 10
-20.9821265411
 20
107.1793153187
 10
-20.9864750424
 20
107.1661116058
 10
-20.990926023
 20
107.15656448
 10
-20.9954457576
 20
107.1507462805
 10
-20.9999999999
 20
107.1487010923
  0
LINE
  5
2D4
100
AcDbEntity
  8
ASSI
100
AcDbLine
 62
7
  6
CONTINUOUS
 10
-16.9904347849
 20
27.925
 11
-16.9808008909
 21
27.062511516
  0
LINE
  5
2D5
100
AcDbEntity
  8
ASSI
100
AcDbLine
 62
7
  6
CONTINUOUS
 10
-16.9904347849
 20
34.425
 11
-16.9808008909
 21
33.562511516
  0
LINE
  5
2D6
100
AcDbEntity
  8
ASSI
100
AcDbLine
 62
7
  6
CONTINUOUS
 10
-16.9904347849
 20
40.925
 11
-16.9808008909
 21
40.062511516
  0
LINE
  5
2D7
100
AcDbEntity
  8
ASSI
100
AcDbLine
 62
7
  6
CONTINUOUS
 10
-16.9904347849
 20
47.425
 11
-16.9808008909
 21
46.562511516
  0
LINE
  5
2D8
100
AcDbEntity
  8
ASSI
100
AcDbLine
 62
7
  6
CONTINUOUS
 10
-16.9904347849
 20
53.925
 11
-16.9808008909
 21
53.062511516
  0
LINE
  5
2D9
100
AcDbEntity
  8
ASSI
100
AcDbLine
 62
7
  6
CONTINUOUS
 10
-16.9703286495
 20
58.6249687642
 11
-16.9904347849
 21
60.425
  0
LINE
  5
2DA
100
AcDbEntity
  8
ASSI
100
AcDbLine
 62
253
  6
CONTINUOUS
 10
-21.0
 20
107.1487029198
 11
-21.0
 21
107.1442020762
  0
LINE
  5
2DB
100
AcDbEntity
  8
RACCORDO
100
AcDbLine
 62
253
  6
CONTINUOUS
 10
-17.0
 20
-3.679704076
 11
-17.0
 21
-3.4552365195
  0
LINE
  5
2DC
100
AcDbEntity
  8
RACCORDO
100
AcDbLine
 62
253
  6
CONTINUOUS
 10
-17.0
 20
-18.920295924
 11
-17.0
 21
-19.1447634805
  0
LINE
  5
2DD
100
AcDbEntity
  8
ASSI
100
AcDbLine
 62
7
  6
CONTINUOUS
 10
-16.9808008909
 20
27.062511516
 11
-16.9808008909
 21
27.925
  0
LINE
  5
2DE
100
AcDbEntity
  8
ASSI
100
AcDbLine
 62
7
  6
CONTINUOUS
 10
-16.9808008909
 20
33.562511516
 11
-16.9808008909
 21
34.425
  0
LINE
  5
2DF
100
AcDbEntity
  8
ASSI
100
AcDbLine
 62
7
  6
CONTINUOUS
 10
-16.9808008909
 20
40.062511516
 11
-16.9808008909
 21
40.925
  0
LINE
  5
2E0
100
AcDbEntity
  8
ASSI
100
AcDbLine
 62
7
  6
CONTINUOUS
 10
-16.9808008909
 20
46.562511516
 11
-16.9808008909
 21
47.425
  0
LINE
  5
2E1
100
AcDbEntity
  8
ASSI
100
AcDbLine
 62
7
  6
CONTINUOUS
 10
-16.9808008909
 20
53.062511516
 11
-16.9808008909
 21
53.925
  0
LINE
  5
2E2
100
AcDbEntity
  8
ASSI
100
AcDbLine
 62
7
  6
CONTINUOUS
 10
-16.9703286495
 20
60.425
 11
-16.9703286495
 21
58.6249687642
  0
LINE
  5
2E3
100
AcDbEntity
  8
DRAFT
100
AcDbLine
 62
253
  6
CONTINUOUS
 10
-16.9
 20
-3.3
 11
-16.9
 21
-1.856624327
  0
LINE
  5
2E4
100
AcDbEntity
  8
DRAFT
100
AcDbLine
 62
253
  6
CONTINUOUS
 10
-16.9
 20
-19.3
 11
-16.9
 21
-20.743375673
  0
LINE
  5
2E5
100
AcDbEntity
  8
ASSI
100
AcDbLine
 62
7
  6
CONTINUOUS
 10
-15.7296713505
 20
58.6249687642
 11
-15.7296713505
 21
60.425
  0
LINE
  5
2E6
100
AcDbEntity
  8
ASSI
100
AcDbLine
 62
7
  6
CONTINUOUS
 10
-15.7191991091
 20
53.925
 11
-15.7191991091
 21
53.062511516
  0
LINE
  5
2E7
100
AcDbEntity
  8
ASSI
100
AcDbLine
 62
7
  6
CONTINUOUS
 10
-15.7191991091
 20
47.425
 11
-15.7191991091
 21
46.562511516
  0
LINE
  5
2E8
100
AcDbEntity
  8
ASSI
100
AcDbLine
 62
7
  6
CONTINUOUS
 10
-15.7191991091
 20
40.925
 11
-15.7191991091
 21
40.062511516
  0
LINE
  5
2E9
100
AcDbEntity
  8
ASSI
100
AcDbLine
 62
7
  6
CONTINUOUS
 10
-15.7191991091
 20
34.425
 11
-15.7191991091
 21
33.562511516
  0
LINE
  5
2EA
100
AcDbEntity
  8
ASSI
100
AcDbLine
 62
7
  6
CONTINUOUS
 10
-15.7191991091
 20
27.925
 11
-15.7191991091
 21
27.062511516
  0
LINE
  5
2EB
100
AcDbEntity
  8
ASSI
100
AcDbLine
 62
7
  6
CONTINUOUS
 10
-15.7095652151
 20
60.425
 11
-15.7296713505
 21
58.6249687642
  0
LINE
  5
2EC
100
AcDbEntity
  8
ASSI
100
AcDbLine
 62
7
  6
CONTINUOUS
 10
-15.7095652151
 20
53.925
 11
-15.7191991091
 21
53.062511516
  0
LINE
  5
2ED
100
AcDbEntity
  8
ASSI
100
AcDbLine
 62
7
  6
CONTINUOUS
 10
-15.7095652151
 20
47.425
 11
-15.7191991091
 21
46.562511516
  0
LINE
  5
2EE
100
AcDbEntity
  8
ASSI
100
AcDbLine
 62
7
  6
CONTINUOUS
 10
-15.7095652151
 20
40.925
 11
-15.7191991091
 21
40.062511516
  0
LINE
  5
2EF
100
AcDbEntity
  8
ASSI
100
AcDbLine
 62
7
  6
CONTINUOUS
 10
-15.7095652151
 20
34.425
 11
-15.7191991091
 21
33.562511516
  0
LINE
  5
2F0
100
AcDbEntity
  8
ASSI
100
AcDbLine
 62
7
  6
CONTINUOUS
 10
-15.7095652151
 20
27.925
 11
-15.7191991091
 21
27.062511516
  0
LINE
  5
2F1
100
AcDbEntity
  8
DRAFT
100
AcDbLine
 62
7
  6
CONTINUOUS
 10
-16.9
 20
-20.743375673
 11
16.9
 21
-20.743375673
  0
LINE
  5
2F2
100
AcDbEntity
  8
DRAFT
100
AcDbLine
 62
7
  6
CONTINUOUS
 10
-16.9
 20
-19.3
 11
16.9
 21
-19.3
  0
LINE
  5
2F3
100
AcDbEntity
  8
DRAFT
100
AcDbLine
 62
7
  6
CONTINUOUS
 10
-17.0
 20
-19.1447634805
 11
16.8
 21
-19.1447634805
  0
LINE
  5
2F4
100
AcDbEntity
  8
RACCORDO
100
AcDbLine
 62
253
  6
CONTINUOUS
 10
-17.0
 20
-19.1202654631
 11
16.8
 21
-19.1202654631
  0
LINE
  5
2F5
100
AcDbEntity
  8
RACCORDO
100
AcDbLine
 62
253
  6
CONTINUOUS
 10
-17.0
 20
-18.920295924
 11
16.8
 21
-18.920295924
  0
LINE
  5
2F6
100
AcDbEntity
  8
ASSI
100
AcDbLine
 62
7
  6
CONTINUOUS
 10
-1.9808008909
 20
27.062511516
 11
-1.9852986169
 21
27.4651770297
  0
LINE
  5
2F7
100
AcDbEntity
  8
ASSI
100
AcDbLine
 62
7
  6
CONTINUOUS
 10
-1.9808008909
 20
33.562511516
 11
-1.9852986169
 21
33.9651770297
  0
LINE
  5
2F8
100
AcDbEntity
  8
ASSI
100
AcDbLine
 62
7
  6
CONTINUOUS
 10
-1.9808008909
 20
40.062511516
 11
-1.9852986169
 21
40.4651770297
  0
LINE
  5
2F9
100
AcDbEntity
  8
ASSI
100
AcDbLine
 62
7
  6
CONTINUOUS
 10
-1.9808008909
 20
46.562511516
 11
-1.9852986169
 21
46.9651770297
  0
LINE
  5
2FA
100
AcDbEntity
  8
ASSI
100
AcDbLine
 62
7
  6
CONTINUOUS
 10
-1.9808008909
 20
53.062511516
 11
-1.9852986169
 21
53.4651770297
  0
LINE
  5
2FB
100
AcDbEntity
  8
ASSI
100
AcDbLine
 62
7
  6
CONTINUOUS
 10
-1.9808008909
 20
59.562511516
 11
-1.9852986169
 21
59.9651770297
  0
LINE
  5
2FC
100
AcDbEntity
  8
ASSI
100
AcDbLine
 62
253
  6
CONTINUOUS
 10
-0.0002941863
 20
73.6905697631
 11
-0.0000993934
 21
73.6651190746
  0
LINE
  5
2FD
100
AcDbEntity
  8
ASSI
100
AcDbLine
 62
7
  6
CONTINUOUS
 10
-2.0331620976
 20
58.3124545136
 11
-2.0331620976
 21
57.9832065925
  0
LINE
  5
2FE
100
AcDbEntity
  8
ASSI
100
AcDbLine
 62
7
  6
CONTINUOUS
 10
-2.0331620976
 20
51.8124545136
 11
-2.0331620976
 21
51.4832065925
  0
LINE
  5
2FF
100
AcDbEntity
  8
ASSI
100
AcDbLine
 62
7
  6
CONTINUOUS
 10
-2.0331620976
 20
45.3124545136
 11
-2.0331620976
 21
44.9832065925
  0
LINE
  5
300
100
AcDbEntity
  8
ASSI
100
AcDbLine
 62
7
  6
CONTINUOUS
 10
-2.0331620976
 20
38.8124545136
 11
-2.0331620976
 21
38.4832065925
  0
LINE
  5
301
100
AcDbEntity
  8
ASSI
100
AcDbLine
 62
7
  6
CONTINUOUS
 10
-2.0331620976
 20
32.3124545136
 11
-2.0331620976
 21
31.9832065925
  0
LINE
  5
302
100
AcDbEntity
  8
ASSI
100
AcDbLine
 62
7
  6
CONTINUOUS
 10
-2.0331620976
 20
25.8124545136
 11
-2.0331620976
 21
25.4832065925
  0
LINE
  5
303
100
AcDbEntity
  8
ASSI
100
AcDbLine
 62
7
  6
CONTINUOUS
 10
-2.0191991091
 20
25.4975419252
 11
-2.0191991091
 21
27.062511516
  0
LINE
  5
304
100
AcDbEntity
  8
ASSI
100
AcDbLine
 62
7
  6
CONTINUOUS
 10
-2.0191991091
 20
31.9975419252
 11
-2.0191991091
 21
33.562511516
  0
LINE
  5
305
100
AcDbEntity
  8
ASSI
100
AcDbLine
 62
7
  6
CONTINUOUS
 10
-2.0191991091
 20
38.4975419252
 11
-2.0191991091
 21
40.062511516
  0
LINE
  5
306
100
AcDbEntity
  8
ASSI
100
AcDbLine
 62
7
  6
CONTINUOUS
 10
-2.0191991091
 20
44.9975419252
 11
-2.0191991091
 21
46.562511516
  0
LINE
  5
307
100
AcDbEntity
  8
ASSI
100
AcDbLine
 62
7
  6
CONTINUOUS
 10
-2.0191991091
 20
51.4975419252
 11
-2.0191991091
 21
53.062511516
  0
LINE
  5
308
100
AcDbEntity
  8
ASSI
100
AcDbLine
 62
7
  6
CONTINUOUS
 10
-2.0191991091
 20
57.9975419252
 11
-2.0191991091
 21
59.562511516
  0
LINE
  5
309
100
AcDbEntity
  8
ASSI
100
AcDbLine
 62
7
  6
CONTINUOUS
 10
-1.9808008909
 20
59.960230791
 11
-1.9808008909
 21
59.562511516
  0
LINE
  5
30A
100
AcDbEntity
  8
ASSI
100
AcDbLine
 62
7
  6
CONTINUOUS
 10
-1.9808008909
 20
53.460230791
 11
-1.9808008909
 21
53.062511516
  0
LINE
  5
30B
100
AcDbEntity
  8
ASSI
100
AcDbLine
 62
7
  6
CONTINUOUS
 10
-1.9808008909
 20
46.960230791
 11
-1.9808008909
 21
46.562511516
  0
LINE
  5
30C
100
AcDbEntity
  8
ASSI
100
AcDbLine
 62
7
  6
CONTINUOUS
 10
-1.9808008909
 20
40.460230791
 11
-1.9808008909
 21
40.062511516
  0
LINE
  5
30D
100
AcDbEntity
  8
ASSI
100
AcDbLine
 62
7
  6
CONTINUOUS
 10
-1.9808008909
 20
33.960230791
 11
-1.9808008909
 21
33.562511516
  0
LINE
  5
30E
100
AcDbEntity
  8
ASSI
100
AcDbLine
 62
7
  6
CONTINUOUS
 10
-1.9808008909
 20
27.460230791
 11
-1.9808008909
 21
27.062511516
  0
LINE
  5
30F
100
AcDbEntity
  8
ASSI
100
AcDbLine
 62
7
  6
CONTINUOUS
 10
-1.65
 20
26.425
 11
-1.65
 21
26.575
  0
LINE
  5
310
100
AcDbEntity
  8
ASSI
100
AcDbLine
 62
7
  6
CONTINUOUS
 10
-1.65
 20
32.925
 11
-1.65
 21
33.075
  0
LINE
  5
311
100
AcDbEntity
  8
ASSI
100
AcDbLine
 62
7
  6
CONTINUOUS
 10
-1.65
 20
39.425
 11
-1.65
 21
39.575
  0
LINE
  5
312
100
AcDbEntity
  8
ASSI
100
AcDbLine
 62
7
  6
CONTINUOUS
 10
-1.65
 20
45.925
 11
-1.65
 21
46.075
  0
LINE
  5
313
100
AcDbEntity
  8
ASSI
100
AcDbLine
 62
7
  6
CONTINUOUS
 10
-1.65
 20
52.425
 11
-1.65
 21
52.575
  0
LINE
  5
314
100
AcDbEntity
  8
ASSI
100
AcDbLine
 62
7
  6
CONTINUOUS
 10
-1.65
 20
58.925
 11
-1.65
 21
59.075
  0
LINE
  5
315
100
AcDbEntity
  8
ASSI
100
AcDbLine
 62
253
  6
CONTINUOUS
 10
-0.0
 20
107.1382829741
 11
-0.0000000003
 21
106.2815556697
  0
LINE
  5
316
100
AcDbEntity
  8
ASSI
100
AcDbLine
 62
7
  6
CONTINUOUS
 10
0.0000018029
 20
106.2815556794
 11
-0.0
 21
74.9645179588
  0
LINE
  5
317
100
AcDbEntity
  8
ASSI
100
AcDbLine
 62
253
  6
CONTINUOUS
 10
-0.0
 20
74.5189425474
 11
-0.0
 21
74.9645179588
  0
LINE
  5
318
100
AcDbEntity
  8
ASSI
100
AcDbLine
 62
253
  6
CONTINUOUS
 10
-0.0009876294
 20
74.2902311491
 11
-0.0002941863
 21
73.6905697631
  0
LINE
  5
319
100
AcDbEntity
  8
ASSI
100
AcDbLine
 62
253
  6
CONTINUOUS
 10
-0.0009468887
 20
74.5189386031
 11
-0.0009876294
 21
74.2902311491
  0
LINE
  5
31A
100
AcDbEntity
  8
ASSI
100
AcDbLine
 62
7
  6
CONTINUOUS
 10
-2.0191991091
 20
59.562511516
 11
-2.0331620976
 21
58.3124545136
  0
LINE
  5
31B
100
AcDbEntity
  8
ASSI
100
AcDbLine
 62
7
  6
CONTINUOUS
 10
-2.0191991091
 20
53.062511516
 11
-2.0331620976
 21
51.8124545136
  0
LINE
  5
31C
100
AcDbEntity
  8
ASSI
100
AcDbLine
 62
7
  6
CONTINUOUS
 10
-2.0191991091
 20
46.562511516
 11
-2.0331620976
 21
45.3124545136
  0
LINE
  5
31D
100
AcDbEntity
  8
ASSI
100
AcDbLine
 62
7
  6
CONTINUOUS
 10
-2.0191991091
 20
40.062511516
 11
-2.0331620976
 21
38.8124545136
  0
LINE
  5
31E
100
AcDbEntity
  8
ASSI
100
AcDbLine
 62
7
  6
CONTINUOUS
 10
-2.0191991091
 20
33.562511516
 11
-2.0331620976
 21
32.3124545136
  0
LINE
  5
31F
100
AcDbEntity
  8
ASSI
100
AcDbLine
 62
7
  6
CONTINUOUS
 10
-2.0191991091
 20
27.062511516
 11
-2.0331620976
 21
25.8124545136
  0
LWPOLYLINE
  5
320
100
AcDbEntity
  8
ASSI
100
AcDbPolyline
 62
253
  6
CONTINUOUS
 90
7
 70
0
 10
32.3038892538
 20
73.7476315994
 10
32.287654174
 20
73.7178266491
 10
32.2709410288
 20
73.6931656956
 10
32.2538422203
 20
73.6737850824
 10
32.2364522832
 20
73.6597919593
 10
32.2188673614
 20
73.6512636905
 10
32.201184677
 20
73.6482474261
  0
LINE
  5
321
100
AcDbEntity
  8
RACCORDO
100
AcDbLine
 62
253
  6
CONTINUOUS
 10
16.8
 20
-3.679704076
 11
-17.0
 21
-3.679704076
  0
LINE
  5
322
100
AcDbEntity
  8
RACCORDO
100
AcDbLine
 62
253
  6
CONTINUOUS
 10
16.8
 20
-3.479734537
 11
-17.0
 21
-3.479734537
  0
LINE
  5
323
100
AcDbEntity
  8
DRAFT
100
AcDbLine
 62
7
  6
CONTINUOUS
 10
16.8
 20
-3.4552365195
 11
-17.0
 21
-3.4552365195
  0
LINE
  5
324
100
AcDbEntity
  8
DRAFT
100
AcDbLine
 62
7
  6
CONTINUOUS
 10
16.9
 20
-3.3
 11
-16.9
 21
-3.3
  0
LINE
  5
325
100
AcDbEntity
  8
DRAFT
100
AcDbLine
 62
7
  6
CONTINUOUS
 10
16.9
 20
-1.856624327
 11
-16.9
 21
-1.856624327
  0
LINE
  5
326
100
AcDbEntity
  8
ASSI
100
AcDbLine
 62
253
  6
CONTINUOUS
 10
-0.0000993934
 20
73.6651190746
 11
-0.0
 21
73.6617150954
  0
LINE
  5
327
100
AcDbEntity
  8
ASSI
100
AcDbLine
 62
7
  6
CONTINUOUS
 10
2.0191991091
 20
27.062511516
 11
2.0331620976
 21
25.8124545136
  0
LINE
  5
328
100
AcDbEntity
  8
ASSI
100
AcDbLine
 62
7
  6
CONTINUOUS
 10
2.0191991091
 20
33.562511516
 11
2.0331620976
 21
32.3124545136
  0
LINE
  5
329
100
AcDbEntity
  8
ASSI
100
AcDbLine
 62
7
  6
CONTINUOUS
 10
2.0191991091
 20
40.062511516
 11
2.0331620976
 21
38.8124545136
  0
LINE
  5
32A
100
AcDbEntity
  8
ASSI
100
AcDbLine
 62
7
  6
CONTINUOUS
 10
2.0191991091
 20
46.562511516
 11
2.0331620976
 21
45.3124545136
  0
LINE
  5
32B
100
AcDbEntity
  8
ASSI
100
AcDbLine
 62
7
  6
CONTINUOUS
 10
2.0191991091
 20
53.062511516
 11
2.0331620976
 21
51.8124545136
  0
LINE
  5
32C
100
AcDbEntity
  8
ASSI
100
AcDbLine
 62
7
  6
CONTINUOUS
 10
2.0191991091
 20
59.562511516
 11
2.0331620976
 21
58.3124545136
  0
LINE
  5
32D
100
AcDbEntity
  8
ASSI
100
AcDbLine
 62
7
  6
CONTINUOUS
 10
1.65
 20
59.075
 11
1.65
 21
58.925
  0
LINE
  5
32E
100
AcDbEntity
  8
ASSI
100
AcDbLine
 62
7
  6
CONTINUOUS
 10
1.65
 20
52.575
 11
1.65
 21
52.425
  0
LINE
  5
32F
100
AcDbEntity
  8
ASSI
100
AcDbLine
 62
7
  6
CONTINUOUS
 10
1.65
 20
46.075
 11
1.65
 21
45.925
  0
LINE
  5
330
100
AcDbEntity
  8
ASSI
100
AcDbLine
 62
7
  6
CONTINUOUS
 10
1.65
 20
39.575
 11
1.65
 21
39.425
  0
LINE
  5
331
100
AcDbEntity
  8
ASSI
100
AcDbLine
 62
7
  6
CONTINUOUS
 10
1.65
 20
33.075
 11
1.65
 21
32.925
  0
LINE
  5
332
100
AcDbEntity
  8
ASSI
100
AcDbLine
 62
7
  6
CONTINUOUS
 10
1.65
 20
26.575
 11
1.65
 21
26.425
  0
LINE
  5
333
100
AcDbEntity
  8
ASSI
100
AcDbLine
 62
7
  6
CONTINUOUS
 10
1.9886550719
 20
27.062511516
 11
1.9886550719
 21
27.4688681899
  0
LINE
  5
334
100
AcDbEntity
  8
ASSI
100
AcDbLine
 62
7
  6
CONTINUOUS
 10
1.9886550719
 20
33.562511516
 11
1.9886550719
 21
33.9688681899
  0
LINE
  5
335
100
AcDbEntity
  8
ASSI
100
AcDbLine
 62
7
  6
CONTINUOUS
 10
1.9886550719
 20
40.062511516
 11
1.9886550719
 21
40.4688681899
  0
LINE
  5
336
100
AcDbEntity
  8
ASSI
100
AcDbLine
 62
7
  6
CONTINUOUS
 10
1.9886550719
 20
46.562511516
 11
1.9886550719
 21
46.9688681899
  0
LINE
  5
337
100
AcDbEntity
  8
ASSI
100
AcDbLine
 62
7
  6
CONTINUOUS
 10
1.9886550719
 20
53.062511516
 11
1.9886550719
 21
53.4688681899
  0
LINE
  5
338
100
AcDbEntity
  8
ASSI
100
AcDbLine
 62
7
  6
CONTINUOUS
 10
1.9886550719
 20
59.562511516
 11
1.9886550719
 21
59.9688681899
  0
LINE
  5
339
100
AcDbEntity
  8
ASSI
100
AcDbLine
 62
7
  6
CONTINUOUS
 10
2.0191991091
 20
59.562511516
 11
2.0191991091
 21
57.9975419252
  0
LINE
  5
33A
100
AcDbEntity
  8
ASSI
100
AcDbLine
 62
7
  6
CONTINUOUS
 10
2.0191991091
 20
53.062511516
 11
2.0191991091
 21
51.4975419252
  0
LINE
  5
33B
100
AcDbEntity
  8
ASSI
100
AcDbLine
 62
7
  6
CONTINUOUS
 10
2.0191991091
 20
46.562511516
 11
2.0191991091
 21
44.9975419252
  0
LINE
  5
33C
100
AcDbEntity
  8
ASSI
100
AcDbLine
 62
7
  6
CONTINUOUS
 10
2.0191991091
 20
40.062511516
 11
2.0191991091
 21
38.4975419252
  0
LINE
  5
33D
100
AcDbEntity
  8
ASSI
100
AcDbLine
 62
7
  6
CONTINUOUS
 10
2.0191991091
 20
33.562511516
 11
2.0191991091
 21
31.9975419252
  0
LINE
  5
33E
100
AcDbEntity
  8
ASSI
100
AcDbLine
 62
7
  6
CONTINUOUS
 10
2.0191991091
 20
27.062511516
 11
2.0191991091
 21
25.4975419252
  0
LINE
  5
33F
100
AcDbEntity
  8
ASSI
100
AcDbLine
 62
7
  6
CONTINUOUS
 10
2.0331620976
 20
58.3124545136
 11
2.0331620976
 21
57.9832065925
  0
LINE
  5
340
100
AcDbEntity
  8
ASSI
100
AcDbLine
 62
7
  6
CONTINUOUS
 10
2.0331620976
 20
51.8124545136
 11
2.0331620976
 21
51.4832065925
  0
LINE
  5
341
100
AcDbEntity
  8
ASSI
100
AcDbLine
 62
7
  6
CONTINUOUS
 10
2.0331620976
 20
45.3124545136
 11
2.0331620976
 21
44.9832065925
  0
LINE
  5
342
100
AcDbEntity
  8
ASSI
100
AcDbLine
 62
7
  6
CONTINUOUS
 10
2.0331620976
 20
38.8124545136
 11
2.0331620976
 21
38.4832065925
  0
LINE
  5
343
100
AcDbEntity
  8
ASSI
100
AcDbLine
 62
7
  6
CONTINUOUS
 10
2.0331620976
 20
32.3124545136
 11
2.0331620976
 21
31.9832065925
  0
LINE
  5
344
100
AcDbEntity
  8
ASSI
100
AcDbLine
 62
7
  6
CONTINUOUS
 10
2.0331620976
 20
25.8124545136
 11
2.0331620976
 21
25.4832065925
  0
LWPOLYLINE
  5
345
100
AcDbEntity
  8
ASSI
100
AcDbPolyline
 62
253
  6
CONTINUOUS
 90
7
 70
0
 10
-32.3038894189
 20
73.7476287537
 10
-32.2876543161
 20
73.7178236868
 10
-32.2709411455
 20
73.693162636
 10
-32.2538423097
 20
73.673781946
 10
-32.2364523437
 20
73.6597887673
 10
-32.218867392
 20
73.6512604647
 10
-32.2011846771
 20
73.6482441888
  0
LINE
  5
346
100
AcDbEntity
  8
DRAFT
100
AcDbLine
 62
7
  6
CONTINUOUS
 10
38.5
 20
-117.5
 11
38.3358723834
 21
-116.7555931305
  0
LINE
  5
347
100
AcDbEntity
  8
DRAFT
100
AcDbLine
 62
7
  6
CONTINUOUS
 10
38.5
 20
-115.2
 11
38.3358723834
 21
-114.4555931305
  0
LINE
  5
348
100
AcDbEntity
  8
DRAFT
100
AcDbLine
 62
7
  6
CONTINUOUS
 10
38.5
 20
-112.9
 11
38.3358723834
 21
-112.1555931305
  0
LWPOLYLINE
  5
349
100
AcDbEntity
  8
ASSI
100
AcDbPolyline
 62
253
  6
CONTINUOUS
 90
14
 70
0
 10
21.1562295515
 20
106.251386026
 10
21.1543072886
 20
106.3315872317
 10
21.1513704416
 20
106.4105564032
 10
21.1474383204
 20
106.4877743112
 10
21.1425367791
 20
106.562733241
 10
21.1366980457
 20
106.6349403307
 10
21.1299605105
 20
106.7039208123
 10
21.1223684733
 20
106.769221133
 10
21.1139718524
 20
106.8304119371
 10
21.1048258565
 20
106.8870908897
 10
21.0949906212
 20
106.9388853214
 10
21.0845308141
 20
106.9854546792
 10
21.0735152093
 20
107.0264927653
 10
21.0620162355
 20
107.0617297505
  0
LINE
  5
34A
100
AcDbEntity
  8
ASSI
100
AcDbLine
 62
7
  6
CONTINUOUS
 10
15.7069814942
 20
27.4531543293
 11
15.7113449281
 21
27.062511516
  0
LINE
  5
34B
100
AcDbEntity
  8
ASSI
100
AcDbLine
 62
7
  6
CONTINUOUS
 10
15.7069814942
 20
33.9531543293
 11
15.7113449281
 21
33.562511516
  0
LINE
  5
34C
100
AcDbEntity
  8
ASSI
100
AcDbLine
 62
7
  6
CONTINUOUS
 10
15.7017110341
 20
40.925
 11
15.7113449281
 21
40.062511516
  0
LINE
  5
34D
100
AcDbEntity
  8
ASSI
100
AcDbLine
 62
7
  6
CONTINUOUS
 10
15.7017110341
 20
47.425
 11
15.7113449281
 21
46.562511516
  0
LINE
  5
34E
100
AcDbEntity
  8
ASSI
100
AcDbLine
 62
7
  6
CONTINUOUS
 10
15.7017110341
 20
53.925
 11
15.7113449281
 21
53.062511516
  0
LINE
  5
34F
100
AcDbEntity
  8
ASSI
100
AcDbLine
 62
7
  6
CONTINUOUS
 10
15.7218171695
 20
58.6249687642
 11
15.7017110341
 21
60.425
  0
LINE
  5
350
100
AcDbEntity
  8
ASSI
100
AcDbLine
 62
7
  6
CONTINUOUS
 10
15.7113449281
 20
27.062511516
 11
15.7113449281
 21
27.925
  0
LINE
  5
351
100
AcDbEntity
  8
ASSI
100
AcDbLine
 62
7
  6
CONTINUOUS
 10
15.7113449281
 20
33.562511516
 11
15.7113449281
 21
34.425
  0
LINE
  5
352
100
AcDbEntity
  8
ASSI
100
AcDbLine
 62
7
  6
CONTINUOUS
 10
15.7113449281
 20
40.062511516
 11
15.7113449281
 21
40.925
  0
LINE
  5
353
100
AcDbEntity
  8
ASSI
100
AcDbLine
 62
7
  6
CONTINUOUS
 10
15.7113449281
 20
46.562511516
 11
15.7113449281
 21
47.425
  0
LINE
  5
354
100
AcDbEntity
  8
ASSI
100
AcDbLine
 62
7
  6
CONTINUOUS
 10
15.7113449281
 20
53.062511516
 11
15.7113449281
 21
53.925
  0
LINE
  5
355
100
AcDbEntity
  8
ASSI
100
AcDbLine
 62
7
  6
CONTINUOUS
 10
15.7218171695
 20
60.425
 11
15.7218171695
 21
58.6249687642
  0
LINE
  5
356
100
AcDbEntity
  8
RACCORDO
100
AcDbLine
 62
253
  6
CONTINUOUS
 10
16.8
 20
-3.679704076
 11
16.8
 21
-3.4552365195
  0
LINE
  5
357
100
AcDbEntity
  8
RACCORDO
100
AcDbLine
 62
253
  6
CONTINUOUS
 10
16.8
 20
-18.920295924
 11
16.8
 21
-19.1447634805
  0
LINE
  5
358
100
AcDbEntity
  8
DRAFT
100
AcDbLine
 62
253
  6
CONTINUOUS
 10
16.9
 20
-3.3
 11
16.9
 21
-1.856624327
  0
LINE
  5
359
100
AcDbEntity
  8
DRAFT
100
AcDbLine
 62
253
  6
CONTINUOUS
 10
16.9
 20
-19.3
 11
16.9
 21
-20.743375673
  0
LINE
  5
35A
100
AcDbEntity
  8
ASSI
100
AcDbLine
 62
7
  6
CONTINUOUS
 10
16.9781828305
 20
58.6249687642
 11
16.9781828305
 21
60.425
  0
LINE
  5
35B
100
AcDbEntity
  8
ASSI
100
AcDbLine
 62
7
  6
CONTINUOUS
 10
16.9886550719
 20
53.925
 11
16.9886550719
 21
53.062511516
  0
LINE
  5
35C
100
AcDbEntity
  8
ASSI
100
AcDbLine
 62
7
  6
CONTINUOUS
 10
16.9886550719
 20
47.425
 11
16.9886550719
 21
46.562511516
  0
LINE
  5
35D
100
AcDbEntity
  8
ASSI
100
AcDbLine
 62
7
  6
CONTINUOUS
 10
16.9886550719
 20
40.925
 11
16.9886550719
 21
40.062511516
  0
LINE
  5
35E
100
AcDbEntity
  8
ASSI
100
AcDbLine
 62
7
  6
CONTINUOUS
 10
16.9886550719
 20
34.425
 11
16.9886550719
 21
33.562511516
  0
LINE
  5
35F
100
AcDbEntity
  8
ASSI
100
AcDbLine
 62
7
  6
CONTINUOUS
 10
16.9886550719
 20
27.925
 11
16.9886550719
 21
27.062511516
  0
LINE
  5
360
100
AcDbEntity
  8
ASSI
100
AcDbLine
 62
7
  6
CONTINUOUS
 10
16.9930185058
 20
34.425
 11
16.9930185058
 21
33.9531543293
  0
LINE
  5
361
100
AcDbEntity
  8
ASSI
100
AcDbLine
 62
7
  6
CONTINUOUS
 10
16.9930185058
 20
27.925
 11
16.9930185058
 21
27.4531543293
  0
LINE
  5
362
100
AcDbEntity
  8
ASSI
100
AcDbLine
 62
253
  6
CONTINUOUS
 10
21.0
 20
107.1487029198
 11
21.0
 21
107.1442020762
  0
LINE
  5
363
100
AcDbEntity
  8
DRAFT
100
AcDbLine
 62
7
  6
CONTINUOUS
 10
24.6947634805
 20
-9.5007420804
 11
24.6947634805
 21
-13.0992579197
  0
LINE
  5
364
100
AcDbEntity
  8
DRAFT
100
AcDbLine
 62
7
  6
CONTINUOUS
 10
24.7
 20
-9.5249882602
 11
24.7
 21
-13.0750117399
  0
LINE
  5
365
100
AcDbEntity
  8
ASSI
100
AcDbLine
 62
7
  6
CONTINUOUS
 10
16.9982889659
 20
60.425
 11
16.9781828305
 21
58.6249687642
  0
LINE
  5
366
100
AcDbEntity
  8
ASSI
100
AcDbLine
 62
7
  6
CONTINUOUS
 10
16.9982889659
 20
53.925
 11
16.9886550719
 21
53.062511516
  0
LINE
  5
367
100
AcDbEntity
  8
ASSI
100
AcDbLine
 62
7
  6
CONTINUOUS
 10
16.9982889659
 20
47.425
 11
16.9886550719
 21
46.562511516
  0
LINE
  5
368
100
AcDbEntity
  8
ASSI
100
AcDbLine
 62
7
  6
CONTINUOUS
 10
16.9982889659
 20
40.925
 11
16.9886550719
 21
40.062511516
  0
LINE
  5
369
100
AcDbEntity
  8
ASSI
100
AcDbLine
 62
7
  6
CONTINUOUS
 10
16.9930185058
 20
33.9531543293
 11
16.9886550719
 21
33.562511516
  0
LINE
  5
36A
100
AcDbEntity
  8
ASSI
100
AcDbLine
 62
7
  6
CONTINUOUS
 10
16.9930185058
 20
27.4531543293
 11
16.9886550719
 21
27.062511516
  0
LWPOLYLINE
  5
36B
100
AcDbEntity
  8
ASSI
100
AcDbPolyline
 62
253
  6
CONTINUOUS
 90
19
 70
0
 10
32.7844877859
 20
91.0374701534
 10
32.7837505931
 20
91.0297703933
 10
32.7778280937
 20
91.0205259156
 10
32.7667537699
 20
91.0097887151
 10
32.7505874148
 20
90.9976241154
 10
32.7294195936
 20
90.9840947651
 10
32.7033711185
 20
90.9692602939
 10
32.6725854742
 20
90.9531994431
 10
32.637229576
 20
90.9360046222
 10
32.5974976365
 20
90.9177657856
 10
32.553606076
 20
90.898582987
 10
32.5057934994
 20
90.8785620829
 10
32.4543209108
 20
90.8578092207
 10
32.3995123234
 20
90.8364316078
 10
32.3416248956
 20
90.8145532687
 10
32.2808287659
 20
90.7923075572
 10
32.2173891837
 20
90.7698188036
 10
32.1516847089
 20
90.7472048252
 10
32.0840634602
 20
90.7245904794
  0
LWPOLYLINE
  5
36C
100
AcDbEntity
  8
ASSI
100
AcDbPolyline
 62
253
  6
CONTINUOUS
 90
13
 70
0
 10
32.1321873558
 20
73.4
 10
32.1355015166
 20
73.4323057245
 10
32.1397679758
 20
73.466873796
 10
32.1444998125
 20
73.4990110118
 10
32.1496611716
 20
73.5284738562
 10
32.1552129438
 20
73.555039078
 10
32.161113061
 20
73.5785053823
 10
32.1673168158
 20
73.5986949561
 10
32.1737772001
 20
73.6154548152
 10
32.1804452609
 20
73.6286579638
 10
32.187270472
 20
73.6382043566
 10
32.194201116
 20
73.6440216571
 10
32.2011846768
 20
73.6460657852
  0
LINE
  5
36D
100
AcDbEntity
  8
ASSI
100
AcDbLine
 62
7
  6
CONTINUOUS
 10
-29.6
 20
25.075
 11
-3.0
 21
25.075
  0
LINE
  5
36E
100
AcDbEntity
  8
ASSI
100
AcDbLine
 62
7
  6
CONTINUOUS
 10
3.0
 20
25.075
 11
29.6
 21
25.075
  0
LINE
  5
36F
100
AcDbEntity
  8
ASSI
100
AcDbLine
 62
7
  6
CONTINUOUS
 10
-29.8434654008
 20
25.0973819396
 11
-2.7565345992
 21
25.0973819396
  0
LINE
  5
370
100
AcDbEntity
  8
ASSI
100
AcDbLine
 62
7
  6
CONTINUOUS
 10
2.7565345992
 20
25.0973819396
 11
29.8434654008
 21
25.0973819396
  0
LINE
  5
371
100
AcDbEntity
  8
ASSI
100
AcDbLine
 62
7
  6
CONTINUOUS
 10
29.9103620808
 20
25.1113449281
 11
2.6896379192
 21
25.1113449281
  0
LINE
  5
372
100
AcDbEntity
  8
ASSI
100
AcDbLine
 62
7
  6
CONTINUOUS
 10
-2.6896379192
 20
25.1113449281
 11
-29.9103620808
 21
25.1113449281
  0
LINE
  5
373
100
AcDbEntity
  8
DRAFT
100
AcDbLine
 62
7
  6
CONTINUOUS
 10
38.5
 20
-110.6
 11
38.3358723834
 21
-109.8555931305
  0
LINE
  5
374
100
AcDbEntity
  8
DRAFT
100
AcDbLine
 62
7
  6
CONTINUOUS
 10
41.5
 20
-118.1
 11
41.6641276166
 21
-118.8444068695
  0
LINE
  5
375
100
AcDbEntity
  8
DRAFT
100
AcDbLine
 62
7
  6
CONTINUOUS
 10
41.5
 20
-115.8
 11
41.6641276166
 21
-116.5444068695
  0
LINE
  5
376
100
AcDbEntity
  8
DRAFT
100
AcDbLine
 62
7
  6
CONTINUOUS
 10
41.5
 20
-113.5
 11
41.6641276166
 21
-114.2444068695
  0
LINE
  5
377
100
AcDbEntity
  8
DRAFT
100
AcDbLine
 62
7
  6
CONTINUOUS
 10
41.5
 20
-111.2
 11
41.6641276166
 21
-111.9444068695
  0
LWPOLYLINE
  5
378
100
AcDbEntity
  8
ASSI
100
AcDbPolyline
 62
253
  6
CONTINUOUS
 90
13
 70
0
 10
20.9548755478
 20
107.3966892587
 10
20.9571653221
 20
107.3624648571
 10
20.9599477105
 20
107.3278974144
 10
20.9630335759
 20
107.2957606996
 10
20.9663995369
 20
107.2662982134
 10
20.9700200893
 20
107.2397331938
 10
20.9738678002
 20
107.2162669246
 10
20.9779135153
 20
107.1960772102
 10
20.9821265803
 20
107.1793170286
 10
20.9864750726
 20
107.1661133721
 10
20.9909260435
 20
107.1565662852
 10
20.995445768
 20
107.1507481062
 10
21.0
 20
107.1487029198
  0
LWPOLYLINE
  5
379
100
AcDbEntity
  8
ASSI
100
AcDbPolyline
 62
253
  6
CONTINUOUS
 90
28
 70
0
 10
34.4132668642
 20
76.6510270217
 10
34.3908141733
 20
77.2875383957
 10
34.364322291
 20
77.9024843974
 10
34.3330773798
 20
78.4958708952
 10
34.295564181
 20
79.06530389
 10
34.2520570345
 20
79.6131796977
 10
34.2047210799
 20
80.1466908389
 10
34.1539014171
 20
80.6648370114
 10
34.0985259809
 20
81.1686193834
 10
34.0388749193
 20
81.6682426613
 10
33.9750765489
 20
82.1648375798
 10
33.906602068
 20
82.6572835371
 10
33.8328911949
 20
83.1524202352
 10
33.7536824781
 20
83.6521766605
 10
33.6689249466
 20
84.1546445384
 10
33.5784100861
 20
84.6609144962
 10
33.481524837
 20
85.1729870702
 10
33.3785371779
 20
85.688885772
 10
33.2705563547
 20
86.2037316119
 10
33.1573026103
 20
86.7172702361
 10
33.0387088756
 20
87.2297667573
 10
32.9162271206
 20
87.7371104706
 10
32.7906811573
 20
88.2357118028
 10
32.6609973848
 20
88.7291546904
 10
32.5257759364
 20
89.2240915998
 10
32.3844330894
 20
89.7227479997
 10
32.237244728
 20
90.2229124591
 10
32.0840635005
 20
90.7245904758
  0
LINE
  5
37A
100
AcDbEntity
  8
ASSI
100
AcDbLine
 62
7
  6
CONTINUOUS
 10
30.7113449281
 20
27.062511516
 11
30.7081840258
 21
27.345495932
  0
LINE
  5
37B
100
AcDbEntity
  8
ASSI
100
AcDbLine
 62
7
  6
CONTINUOUS
 10
30.7081840258
 20
33.845495932
 11
30.7113449281
 21
33.562511516
  0
LINE
  5
37C
100
AcDbEntity
  8
ASSI
100
AcDbLine
 62
7
  6
CONTINUOUS
 10
30.7113449281
 20
40.062511516
 11
30.7081840258
 21
40.345495932
  0
LINE
  5
37D
100
AcDbEntity
  8
ASSI
100
AcDbLine
 62
7
  6
CONTINUOUS
 10
30.7113449281
 20
46.562511516
 11
30.7081840258
 21
46.845495932
  0
LINE
  5
37E
100
AcDbEntity
  8
ASSI
100
AcDbLine
 62
7
  6
CONTINUOUS
 10
30.7113449281
 20
53.062511516
 11
30.7081840258
 21
53.345495932
  0
LINE
  5
37F
100
AcDbEntity
  8
ASSI
100
AcDbLine
 62
7
  6
CONTINUOUS
 10
30.7113449281
 20
59.562511516
 11
30.7081840258
 21
59.845495932
  0
LINE
  5
380
100
AcDbEntity
  8
ASSI
100
AcDbLine
 62
7
  6
CONTINUOUS
 10
30.6668379024
 20
58.3124545136
 11
30.6668379024
 21
58.0980737996
  0
LINE
  5
381
100
AcDbEntity
  8
ASSI
100
AcDbLine
 62
7
  6
CONTINUOUS
 10
30.6668379024
 20
51.8124545136
 11
30.6668379024
 21
51.5980737996
  0
LINE
  5
382
100
AcDbEntity
  8
ASSI
100
AcDbLine
 62
7
  6
CONTINUOUS
 10
30.6668379024
 20
45.3124545136
 11
30.6668379024
 21
45.0980737996
  0
LINE
  5
383
100
AcDbEntity
  8
ASSI
100
AcDbLine
 62
7
  6
CONTINUOUS
 10
30.6668379024
 20
38.8124545136
 11
30.6668379024
 21
38.5980737996
  0
LINE
  5
384
100
AcDbEntity
  8
ASSI
100
AcDbLine
 62
7
  6
CONTINUOUS
 10
30.6668379024
 20
32.3124545136
 11
30.6668379024
 21
32.0980737996
  0
LINE
  5
385
100
AcDbEntity
  8
ASSI
100
AcDbLine
 62
7
  6
CONTINUOUS
 10
30.6668379024
 20
25.8124545136
 11
30.6668379024
 21
25.5980737996
  0
LINE
  5
386
100
AcDbEntity
  8
ASSI
100
AcDbLine
 62
7
  6
CONTINUOUS
 10
30.6808008909
 20
25.6167261685
 11
30.6808008909
 21
27.062511516
  0
LINE
  5
387
100
AcDbEntity
  8
ASSI
100
AcDbLine
 62
7
  6
CONTINUOUS
 10
30.6808008909
 20
32.1167261685
 11
30.6808008909
 21
33.562511516
  0
LINE
  5
388
100
AcDbEntity
  8
ASSI
100
AcDbLine
 62
7
  6
CONTINUOUS
 10
30.6808008909
 20
38.6167261685
 11
30.6808008909
 21
40.062511516
  0
LINE
  5
389
100
AcDbEntity
  8
ASSI
100
AcDbLine
 62
7
  6
CONTINUOUS
 10
30.6808008909
 20
45.1167261685
 11
30.6808008909
 21
46.562511516
  0
LINE
  5
38A
100
AcDbEntity
  8
ASSI
100
AcDbLine
 62
7
  6
CONTINUOUS
 10
30.6808008909
 20
51.6167261685
 11
30.6808008909
 21
53.062511516
  0
LINE
  5
38B
100
AcDbEntity
  8
ASSI
100
AcDbLine
 62
7
  6
CONTINUOUS
 10
30.6808008909
 20
58.1167261685
 11
30.6808008909
 21
59.562511516
  0
LINE
  5
38C
100
AcDbEntity
  8
ASSI
100
AcDbLine
 62
7
  6
CONTINUOUS
 10
30.7113449281
 20
59.8408271467
 11
30.7113449281
 21
59.562511516
  0
LINE
  5
38D
100
AcDbEntity
  8
ASSI
100
AcDbLine
 62
7
  6
CONTINUOUS
 10
30.7113449281
 20
53.3408271467
 11
30.7113449281
 21
53.062511516
  0
LINE
  5
38E
100
AcDbEntity
  8
ASSI
100
AcDbLine
 62
7
  6
CONTINUOUS
 10
30.7113449281
 20
46.8408271467
 11
30.7113449281
 21
46.562511516
  0
LINE
  5
38F
100
AcDbEntity
  8
ASSI
100
AcDbLine
 62
7
  6
CONTINUOUS
 10
30.7113449281
 20
40.3408271467
 11
30.7113449281
 21
40.062511516
  0
LINE
  5
390
100
AcDbEntity
  8
ASSI
100
AcDbLine
 62
7
  6
CONTINUOUS
 10
30.7113449281
 20
33.8408271467
 11
30.7113449281
 21
33.562511516
  0
LINE
  5
391
100
AcDbEntity
  8
ASSI
100
AcDbLine
 62
7
  6
CONTINUOUS
 10
30.7113449281
 20
27.3408271467
 11
30.7113449281
 21
27.062511516
  0
LINE
  5
392
100
AcDbEntity
  8
ASSI
100
AcDbLine
 62
7
  6
CONTINUOUS
 10
30.95
 20
26.425
 11
30.95
 21
26.575
  0
LINE
  5
393
100
AcDbEntity
  8
ASSI
100
AcDbLine
 62
7
  6
CONTINUOUS
 10
30.95
 20
32.925
 11
30.95
 21
33.075
  0
LINE
  5
394
100
AcDbEntity
  8
ASSI
100
AcDbLine
 62
7
  6
CONTINUOUS
 10
30.95
 20
39.425
 11
30.95
 21
39.575
  0
LINE
  5
395
100
AcDbEntity
  8
ASSI
100
AcDbLine
 62
7
  6
CONTINUOUS
 10
30.95
 20
45.925
 11
30.95
 21
46.075
  0
LINE
  5
396
100
AcDbEntity
  8
ASSI
100
AcDbLine
 62
7
  6
CONTINUOUS
 10
30.95
 20
52.425
 11
30.95
 21
52.575
  0
LINE
  5
397
100
AcDbEntity
  8
ASSI
100
AcDbLine
 62
7
  6
CONTINUOUS
 10
30.95
 20
58.925
 11
30.95
 21
59.075
  0
LINE
  5
398
100
AcDbEntity
  8
ASSI
100
AcDbLine
 62
253
  6
CONTINUOUS
 10
32.2011846771
 20
73.6460612948
 11
32.2011846771
 21
73.6482441888
  0
LWPOLYLINE
  5
399
100
AcDbEntity
  8
ASSI
100
AcDbPolyline
 62
253
  6
CONTINUOUS
 90
16
 70
0
 10
32.4391528417
 20
74.6426571597
 10
32.4383363268
 20
74.5683698735
 10
32.4362086675
 20
74.4945241717
 10
32.4327816271
 20
74.4215283263
 10
32.4280741526
 20
74.3497859106
 10
32.4221122705
 20
74.2796935681
 10
32.4149289422
 20
74.2116388195
 10
32.4065638823
 20
74.1459979203
 10
32.397063339
 20
74.0831337802
 10
32.3864798379
 20
74.0233939574
 10
32.3748718923
 20
73.9671087364
 10
32.3623036792
 20
73.9145893023
 10
32.3488446848
 20
73.86612602
 10
32.3345693199
 20
73.8219868293
 10
32.3195565091
 20
73.7824157634
 10
32.3038892538
 20
73.7476315994
  0
LINE
  5
39A
100
AcDbEntity
  8
ASSI
100
AcDbLine
 62
7
  6
CONTINUOUS
 10
30.6808008909
 20
59.562511516
 11
30.6668379024
 21
58.3124545136
  0
LINE
  5
39B
100
AcDbEntity
  8
ASSI
100
AcDbLine
 62
7
  6
CONTINUOUS
 10
30.6808008909
 20
53.062511516
 11
30.6668379024
 21
51.8124545136
  0
LINE
  5
39C
100
AcDbEntity
  8
ASSI
100
AcDbLine
 62
7
  6
CONTINUOUS
 10
30.6808008909
 20
46.562511516
 11
30.6668379024
 21
45.3124545136
  0
LINE
  5
39D
100
AcDbEntity
  8
ASSI
100
AcDbLine
 62
7
  6
CONTINUOUS
 10
30.6808008909
 20
40.062511516
 11
30.6668379024
 21
38.8124545136
  0
LINE
  5
39E
100
AcDbEntity
  8
ASSI
100
AcDbLine
 62
7
  6
CONTINUOUS
 10
30.6808008909
 20
33.562511516
 11
30.6668379024
 21
32.3124545136
  0
LINE
  5
39F
100
AcDbEntity
  8
ASSI
100
AcDbLine
 62
7
  6
CONTINUOUS
 10
30.6808008909
 20
27.062511516
 11
30.6668379024
 21
25.8124545136
  0
LINE
  5
3A0
100
AcDbEntity
  8
COSMETICI
100
AcDbLine
 62
7
  6
CONTINUOUS
 10
-36.492253274
 20
-114.894127766
 11
-35.11897114
 21
-112.505410302
  0
LINE
  5
3A1
100
AcDbEntity
  8
COSMETICI
100
AcDbLine
 62
7
  6
CONTINUOUS
 10
-34.338661722
 20
-113.75405731
 11
-36.492253274
 21
-117.5
  0
LINE
  5
3A2
100
AcDbEntity
  8
ASSI
100
AcDbLine
 62
7
  6
CONTINUOUS
 10
-30.6668379024
 20
25.8124545136
 11
-2.0331620976
 21
25.8124545136
  0
LINE
  5
3A3
100
AcDbEntity
  8
ASSI
100
AcDbLine
 62
7
  6
CONTINUOUS
 10
2.0331620976
 20
25.8124545136
 11
30.6668379024
 21
25.8124545136
  0
LINE
  5
3A4
100
AcDbEntity
  8
ASSI
100
AcDbLine
 62
7
  6
CONTINUOUS
 10
30.7113449281
 20
27.062511516
 11
30.6808008909
 21
27.062511516
  0
LINE
  5
3A5
100
AcDbEntity
  8
ASSI
100
AcDbLine
 62
7
  6
CONTINUOUS
 10
16.9886550719
 20
27.062511516
 11
15.7113449281
 21
27.062511516
  0
LINE
  5
3A6
100
AcDbEntity
  8
ASSI
100
AcDbLine
 62
7
  6
CONTINUOUS
 10
2.0191991091
 20
27.062511516
 11
1.9886550719
 21
27.062511516
  0
LINE
  5
3A7
100
AcDbEntity
  8
ASSI
100
AcDbLine
 62
7
  6
CONTINUOUS
 10
-15.7191991091
 20
27.062511516
 11
-16.9808008909
 21
27.062511516
  0
LINE
  5
3A8
100
AcDbEntity
  8
ASSI
100
AcDbLine
 62
7
  6
CONTINUOUS
 10
-30.6808008909
 20
27.062511516
 11
-30.7191991091
 21
27.062511516
  0
LINE
  5
3A9
100
AcDbEntity
  8
ASSI
100
AcDbLine
 62
7
  6
CONTINUOUS
 10
-2.0191991091
 20
27.062511516
 11
-1.9808008909
 21
27.062511516
  0
LINE
  5
3AA
100
AcDbEntity
  8
ASSI
100
AcDbLine
 62
7
  6
CONTINUOUS
 10
1.9930185058
 20
27.4531543293
 11
15.7069814942
 21
27.4531543293
  0
LINE
  5
3AB
100
AcDbEntity
  8
ASSI
100
AcDbLine
 62
7
  6
CONTINUOUS
 10
16.9930185058
 20
27.4531543293
 11
30.6251382763
 21
27.4531543293
  0
LINE
  5
3AC
100
AcDbEntity
  8
ASSI
100
AcDbLine
 62
7
  6
CONTINUOUS
 10
29.6
 20
27.925
 11
3.0
 21
27.925
  0
LINE
  5
3AD
100
AcDbEntity
  8
ASSI
100
AcDbLine
 62
7
  6
CONTINUOUS
 10
-3.0
 20
27.925
 11
-29.6
 21
27.925
  0
LINE
  5
3AE
100
AcDbEntity
  8
ASSI
100
AcDbLine
 62
7
  6
CONTINUOUS
 10
-29.6
 20
31.575
 11
-3.0
 21
31.575
  0
LINE
  5
3AF
100
AcDbEntity
  8
ASSI
100
AcDbLine
 62
7
  6
CONTINUOUS
 10
3.0
 20
31.575
 11
29.6
 21
31.575
  0
LINE
  5
3B0
100
AcDbEntity
  8
ASSI
100
AcDbLine
 62
7
  6
CONTINUOUS
 10
-29.8434654008
 20
31.5973819396
 11
-2.7565345992
 21
31.5973819396
  0
LINE
  5
3B1
100
AcDbEntity
  8
ASSI
100
AcDbLine
 62
7
  6
CONTINUOUS
 10
2.7565345992
 20
31.5973819396
 11
29.8434654008
 21
31.5973819396
  0
LINE
  5
3B2
100
AcDbEntity
  8
ASSI
100
AcDbLine
 62
7
  6
CONTINUOUS
 10
29.9103620808
 20
31.6113449281
 11
2.6896379192
 21
31.6113449281
  0
LINE
  5
3B3
100
AcDbEntity
  8
ASSI
100
AcDbLine
 62
7
  6
CONTINUOUS
 10
-2.6896379192
 20
31.6113449281
 11
-29.9103620808
 21
31.6113449281
  0
LINE
  5
3B4
100
AcDbEntity
  8
ASSI
100
AcDbLine
 62
7
  6
CONTINUOUS
 10
-30.6668379024
 20
32.3124545136
 11
-2.0331620976
 21
32.3124545136
  0
LINE
  5
3B5
100
AcDbEntity
  8
ASSI
100
AcDbLine
 62
7
  6
CONTINUOUS
 10
2.0331620976
 20
32.3124545136
 11
30.6668379024
 21
32.3124545136
  0
LINE
  5
3B6
100
AcDbEntity
  8
ASSI
100
AcDbLine
 62
7
  6
CONTINUOUS
 10
30.7113449281
 20
33.562511516
 11
30.6808008909
 21
33.562511516
  0
LINE
  5
3B7
100
AcDbEntity
  8
ASSI
100
AcDbLine
 62
7
  6
CONTINUOUS
 10
16.9886550719
 20
33.562511516
 11
15.7113449281
 21
33.562511516
  0
LINE
  5
3B8
100
AcDbEntity
  8
ASSI
100
AcDbLine
 62
7
  6
CONTINUOUS
 10
-15.7191991091
 20
33.562511516
 11
-16.9808008909
 21
33.562511516
  0
LINE
  5
3B9
100
AcDbEntity
  8
ASSI
100
AcDbLine
 62
7
  6
CONTINUOUS
 10
-30.6808008909
 20
33.562511516
 11
-30.7191991091
 21
33.562511516
  0
LINE
  5
3BA
100
AcDbEntity
  8
ASSI
100
AcDbLine
 62
7
  6
CONTINUOUS
 10
-2.0191991091
 20
33.562511516
 11
-1.9808008909
 21
33.562511516
  0
LINE
  5
3BB
100
AcDbEntity
  8
ASSI
100
AcDbLine
 62
7
  6
CONTINUOUS
 10
1.9886550719
 20
33.562511516
 11
2.0191991091
 21
33.562511516
  0
LINE
  5
3BC
100
AcDbEntity
  8
ASSI
100
AcDbLine
 62
7
  6
CONTINUOUS
 10
1.9930185058
 20
33.9531543293
 11
15.7069814942
 21
33.9531543293
  0
LINE
  5
3BD
100
AcDbEntity
  8
ASSI
100
AcDbLine
 62
7
  6
CONTINUOUS
 10
16.9930185058
 20
33.9531543293
 11
30.6251382763
 21
33.9531543293
  0
LINE
  5
3BE
100
AcDbEntity
  8
ASSI
100
AcDbLine
 62
7
  6
CONTINUOUS
 10
29.6
 20
34.425
 11
3.0
 21
34.425
  0
LINE
  5
3BF
100
AcDbEntity
  8
ASSI
100
AcDbLine
 62
7
  6
CONTINUOUS
 10
-3.0
 20
34.425
 11
-29.6
 21
34.425
  0
LWPOLYLINE
  5
3C0
100
AcDbEntity
  8
ASSI
100
AcDbPolyline
 62
253
  6
CONTINUOUS
 90
10
 70
0
 10
35.1560266394
 20
76.6830648503
 10
35.1005532709
 20
78.0436452485
 10
35.0106306146
 20
79.403797775
 10
34.886209463
 20
80.7626456405
 10
34.7272483453
 20
82.1194177797
 10
34.5337520226
 20
83.473120431
 10
34.3057993258
 20
84.8225417673
 10
34.0434554803
 20
86.1668008788
 10
33.746809876
 20
87.5050118901
 10
33.416061784
 20
88.8359647683
  0
LWPOLYLINE
  5
3C1
100
AcDbEntity
  8
ASSI
100
AcDbPolyline
 62
7
  6
CONTINUOUS
 90
27
 70
0
 10
35.1534930698
 20
76.682993628
 10
35.1312530006
 20
77.3333003374
 10
35.1022931382
 20
77.9616057765
 10
35.0673760264
 20
78.5678590928
 10
35.0274201289
 20
79.1495572266
 10
34.9830049043
 20
79.7091515086
 10
34.9341133812
 20
80.2540258754
 10
34.8812925432
 20
80.7831285436
 10
34.8248796773
 20
81.2974862164
 10
34.7639918123
 20
81.8075604974
 10
34.6985932343
 20
82.3144232815
 10
34.628921892
 20
82.816934311
 10
34.554000245
 20
83.3221787988
 10
34.4734251172
 20
83.8320187764
 10
34.3873823806
 20
84.3444644157
 10
34.2955379164
 20
84.8607858289
 10
34.1973704944
 20
85.3829386511
 10
34.0931022174
 20
85.9088093313
 10
33.9836162883
 20
86.433581514
 10
33.8689708363
 20
86.9569964048
 10
33.74913612
 20
87.4792103909
 10
33.6251276949
 20
87.9960862369
 10
33.4980146418
 20
88.5039431751
 10
33.3670654244
 20
89.0064406579
 10
33.2305155306
 20
89.5104311696
 10
33.0876428317
 20
90.0181285809
 10
32.9564798792
 20
90.4682261895
  0
LINE
  5
3C2
100
AcDbEntity
  8
0
100
AcDbLine
 62
7
  6
CONTINUOUS
 10
37.8
 20
-110.4
 11
37.8
 21
-118.5
  0
LINE
  5
3C3
100
AcDbEntity
  8
DRAFT
100
AcDbLine
 62
7
  6
CONTINUOUS
 10
38.0
 20
-109.8004682181
 11
38.0
 21
-119.0995317819
  0
LINE
  5
3C4
100
AcDbEntity
  8
DRAFT
100
AcDbLine
 62
7
  6
CONTINUOUS
 10
38.0680747532
 20
-109.7190564311
 11
38.0680747532
 21
-119.1809435689
  0
LINE
  5
3C5
100
AcDbEntity
  8
DRAFT
100
AcDbLine
 62
7
  6
CONTINUOUS
 10
38.3358723834
 20
-109.8555931305
 11
38.3358723834
 21
-111.9444068695
  0
LINE
  5
3C6
100
AcDbEntity
  8
DRAFT
100
AcDbLine
 62
7
  6
CONTINUOUS
 10
38.3358723834
 20
-112.1555931305
 11
38.3358723834
 21
-114.2444068695
  0
LINE
  5
3C7
100
AcDbEntity
  8
DRAFT
100
AcDbLine
 62
7
  6
CONTINUOUS
 10
38.3358723834
 20
-114.4555931305
 11
38.3358723834
 21
-116.5444068695
  0
LINE
  5
3C8
100
AcDbEntity
  8
DRAFT
100
AcDbLine
 62
7
  6
CONTINUOUS
 10
38.3358723834
 20
-116.7555931305
 11
38.3358723834
 21
-118.8444068695
  0
LINE
  5
3C9
100
AcDbEntity
  8
DRAFT
100
AcDbLine
 62
7
  6
CONTINUOUS
 10
38.5
 20
-110.6
 11
38.5
 21
-111.2
  0
LINE
  5
3CA
100
AcDbEntity
  8
DRAFT
100
AcDbLine
 62
7
  6
CONTINUOUS
 10
38.5
 20
-112.9
 11
38.5
 21
-113.5
  0
LINE
  5
3CB
100
AcDbEntity
  8
DRAFT
100
AcDbLine
 62
7
  6
CONTINUOUS
 10
38.5
 20
-115.2
 11
38.5
 21
-115.8
  0
LINE
  5
3CC
100
AcDbEntity
  8
DRAFT
100
AcDbLine
 62
7
  6
CONTINUOUS
 10
38.5
 20
-117.5
 11
38.5
 21
-118.1
  0
LINE
  5
3CD
100
AcDbEntity
  8
DRAFT
100
AcDbLine
 62
7
  6
CONTINUOUS
 10
41.5
 20
-118.1
 11
41.5
 21
-117.5
  0
LINE
  5
3CE
100
AcDbEntity
  8
DRAFT
100
AcDbLine
 62
7
  6
CONTINUOUS
 10
41.5
 20
-115.8
 11
41.5
 21
-115.2
  0
LINE
  5
3CF
100
AcDbEntity
  8
DRAFT
100
AcDbLine
 62
7
  6
CONTINUOUS
 10
41.5
 20
-113.5
 11
41.5
 21
-112.9
  0
LINE
  5
3D0
100
AcDbEntity
  8
DRAFT
100
AcDbLine
 62
7
  6
CONTINUOUS
 10
41.5
 20
-111.2
 11
41.5
 21
-110.6
  0
LINE
  5
3D1
100
AcDbEntity
  8
DRAFT
100
AcDbLine
 62
7
  6
CONTINUOUS
 10
41.6641276166
 20
-118.8444068695
 11
41.6641276166
 21
-116.7555931305
  0
LINE
  5
3D2
100
AcDbEntity
  8
DRAFT
100
AcDbLine
 62
7
  6
CONTINUOUS
 10
41.6641276166
 20
-116.5444068695
 11
41.6641276166
 21
-114.4555931305
  0
LINE
  5
3D3
100
AcDbEntity
  8
DRAFT
100
AcDbLine
 62
7
  6
CONTINUOUS
 10
41.6641276166
 20
-114.2444068695
 11
41.6641276166
 21
-112.1555931305
  0
LINE
  5
3D4
100
AcDbEntity
  8
DRAFT
100
AcDbLine
 62
7
  6
CONTINUOUS
 10
41.6641276166
 20
-111.9444068695
 11
41.6641276166
 21
-109.8555931305
  0
LINE
  5
3D5
100
AcDbEntity
  8
DRAFT
100
AcDbLine
 62
7
  6
CONTINUOUS
 10
41.9319252468
 20
-118.8623312405
 11
41.9319252468
 21
-110.0376687595
  0
LINE
  5
3D6
100
AcDbEntity
  8
0
100
AcDbLine
 62
7
  6
CONTINUOUS
 10
42.0
 20
-118.5
 11
42.0
 21
-110.4
  0
LINE
  5
3D7
100
AcDbEntity
  8
SMUSSO
100
AcDbLine
 62
253
  6
CONTINUOUS
 10
46.8508271005
 20
-129.2679491924
 11
46.8508271005
 21
-131.0
  0
LINE
  5
3D8
100
AcDbEntity
  8
SMUSSO
100
AcDbLine
 62
253
  6
CONTINUOUS
 10
46.8508271005
 20
142.2679491924
 11
46.8508271005
 21
144.0
  0
LINE
  5
3D9
100
AcDbEntity
  8
COSMETICI
100
AcDbLine
 62
7
  6
CONTINUOUS
 10
-23.471297074
 20
-112.500438958
 11
-25.28615584
 21
-114.99391117
  0
LINE
  5
3DA
100
AcDbEntity
  8
COSMETICI
100
AcDbLine
 62
7
  6
CONTINUOUS
 10
-26.123430796
 20
-116.143920982
 11
-27.101397786
 21
-117.487383382
  0
LINE
  5
3DB
100
AcDbEntity
  8
COSMETICI
100
AcDbLine
 62
7
  6
CONTINUOUS
 10
-28.775947698
 20
-117.487383382
 11
-26.960705752
 21
-114.99391117
  0
LINE
  5
3DC
100
AcDbEntity
  8
COSMETICI
100
AcDbLine
 62
7
  6
CONTINUOUS
 10
-26.123430796
 20
-113.843519844
 11
-25.145463806
 21
-112.500438958
  0
LINE
  5
3DD
100
AcDbEntity
  8
ASSI
100
AcDbLine
 62
7
  6
CONTINUOUS
 10
-29.6
 20
38.075
 11
-3.0
 21
38.075
  0
LINE
  5
3DE
100
AcDbEntity
  8
ASSI
100
AcDbLine
 62
7
  6
CONTINUOUS
 10
3.0
 20
38.075
 11
29.6
 21
38.075
  0
LINE
  5
3DF
100
AcDbEntity
  8
ASSI
100
AcDbLine
 62
7
  6
CONTINUOUS
 10
-29.8434654008
 20
38.0973819396
 11
-2.7565345992
 21
38.0973819396
  0
LINE
  5
3E0
100
AcDbEntity
  8
ASSI
100
AcDbLine
 62
7
  6
CONTINUOUS
 10
2.7565345992
 20
38.0973819396
 11
29.8434654008
 21
38.0973819396
  0
LINE
  5
3E1
100
AcDbEntity
  8
ASSI
100
AcDbLine
 62
7
  6
CONTINUOUS
 10
29.9103620808
 20
38.1113449281
 11
2.6896379192
 21
38.1113449281
  0
LINE
  5
3E2
100
AcDbEntity
  8
ASSI
100
AcDbLine
 62
7
  6
CONTINUOUS
 10
-2.6896379192
 20
38.1113449281
 11
-29.9103620808
 21
38.1113449281
  0
LINE
  5
3E3
100
AcDbEntity
  8
ASSI
100
AcDbLine
 62
7
  6
CONTINUOUS
 10
-30.6668379024
 20
38.8124545136
 11
-2.0331620976
 21
38.8124545136
  0
LINE
  5
3E4
100
AcDbEntity
  8
ASSI
100
AcDbLine
 62
7
  6
CONTINUOUS
 10
2.0331620976
 20
38.8124545136
 11
30.6668379024
 21
38.8124545136
  0
LINE
  5
3E5
100
AcDbEntity
  8
ASSI
100
AcDbLine
 62
7
  6
CONTINUOUS
 10
16.9886550719
 20
40.062511516
 11
15.7113449281
 21
40.062511516
  0
LINE
  5
3E6
100
AcDbEntity
  8
ASSI
100
AcDbLine
 62
7
  6
CONTINUOUS
 10
2.0191991091
 20
40.062511516
 11
1.9886550719
 21
40.062511516
  0
LINE
  5
3E7
100
AcDbEntity
  8
ASSI
100
AcDbLine
 62
7
  6
CONTINUOUS
 10
-15.7191991091
 20
40.062511516
 11
-16.9808008909
 21
40.062511516
  0
LINE
  5
3E8
100
AcDbEntity
  8
ASSI
100
AcDbLine
 62
7
  6
CONTINUOUS
 10
-30.6808008909
 20
40.062511516
 11
-30.7191991091
 21
40.062511516
  0
LINE
  5
3E9
100
AcDbEntity
  8
ASSI
100
AcDbLine
 62
7
  6
CONTINUOUS
 10
-2.0191991091
 20
40.062511516
 11
-1.9808008909
 21
40.062511516
  0
LINE
  5
3EA
100
AcDbEntity
  8
ASSI
100
AcDbLine
 62
7
  6
CONTINUOUS
 10
30.6808008909
 20
40.062511516
 11
30.7113449281
 21
40.062511516
  0
LINE
  5
3EB
100
AcDbEntity
  8
ASSI
100
AcDbLine
 62
7
  6
CONTINUOUS
 10
29.6
 20
40.925
 11
3.0
 21
40.925
  0
LINE
  5
3EC
100
AcDbEntity
  8
ASSI
100
AcDbLine
 62
7
  6
CONTINUOUS
 10
-3.0
 20
40.925
 11
-29.6
 21
40.925
  0
LINE
  5
3ED
100
AcDbEntity
  8
ASSI
100
AcDbLine
 62
7
  6
CONTINUOUS
 10
-29.6
 20
44.575
 11
-3.0
 21
44.575
  0
LINE
  5
3EE
100
AcDbEntity
  8
ASSI
100
AcDbLine
 62
7
  6
CONTINUOUS
 10
3.0
 20
44.575
 11
29.6
 21
44.575
  0
LINE
  5
3EF
100
AcDbEntity
  8
ASSI
100
AcDbLine
 62
7
  6
CONTINUOUS
 10
-29.8434654008
 20
44.5973819396
 11
-2.7565345992
 21
44.5973819396
  0
LINE
  5
3F0
100
AcDbEntity
  8
ASSI
100
AcDbLine
 62
7
  6
CONTINUOUS
 10
2.7565345992
 20
44.5973819396
 11
29.8434654008
 21
44.5973819396
  0
LINE
  5
3F1
100
AcDbEntity
  8
ASSI
100
AcDbLine
 62
7
  6
CONTINUOUS
 10
29.9103620808
 20
44.6113449281
 11
2.6896379192
 21
44.6113449281
  0
LINE
  5
3F2
100
AcDbEntity
  8
ASSI
100
AcDbLine
 62
7
  6
CONTINUOUS
 10
-2.6896379192
 20
44.6113449281
 11
-29.9103620808
 21
44.6113449281
  0
LINE
  5
3F3
100
AcDbEntity
  8
ASSI
100
AcDbLine
 62
7
  6
CONTINUOUS
 10
-30.6668379024
 20
45.3124545136
 11
-2.0331620976
 21
45.3124545136
  0
LINE
  5
3F4
100
AcDbEntity
  8
ASSI
100
AcDbLine
 62
7
  6
CONTINUOUS
 10
2.0331620976
 20
45.3124545136
 11
30.6668379024
 21
45.3124545136
  0
LINE
  5
3F5
100
AcDbEntity
  8
ASSI
100
AcDbLine
 62
7
  6
CONTINUOUS
 10
16.9886550719
 20
46.562511516
 11
15.7113449281
 21
46.562511516
  0
LINE
  5
3F6
100
AcDbEntity
  8
ASSI
100
AcDbLine
 62
7
  6
CONTINUOUS
 10
2.0191991091
 20
46.562511516
 11
1.9886550719
 21
46.562511516
  0
LINE
  5
3F7
100
AcDbEntity
  8
ASSI
100
AcDbLine
 62
7
  6
CONTINUOUS
 10
-15.7191991091
 20
46.562511516
 11
-16.9808008909
 21
46.562511516
  0
LINE
  5
3F8
100
AcDbEntity
  8
ASSI
100
AcDbLine
 62
7
  6
CONTINUOUS
 10
-30.6808008909
 20
46.562511516
 11
-30.7191991091
 21
46.562511516
  0
LINE
  5
3F9
100
AcDbEntity
  8
ASSI
100
AcDbLine
 62
7
  6
CONTINUOUS
 10
-2.0191991091
 20
46.562511516
 11
-1.9808008909
 21
46.562511516
  0
LINE
  5
3FA
100
AcDbEntity
  8
ASSI
100
AcDbLine
 62
7
  6
CONTINUOUS
 10
30.6808008909
 20
46.562511516
 11
30.7113449281
 21
46.562511516
  0
LINE
  5
3FB
100
AcDbEntity
  8
ASSI
100
AcDbLine
 62
7
  6
CONTINUOUS
 10
29.6
 20
47.425
 11
3.0
 21
47.425
  0
LINE
  5
3FC
100
AcDbEntity
  8
ASSI
100
AcDbLine
 62
7
  6
CONTINUOUS
 10
-3.0
 20
47.425
 11
-29.6
 21
47.425
  0
LINE
  5
3FD
100
AcDbEntity
  8
SMUSSO
100
AcDbLine
 62
253
  6
CONTINUOUS
 10
55.0
 20
-129.2679491924
 11
55.0
 21
-131.0
  0
LINE
  5
3FE
100
AcDbEntity
  8
SMUSSO
100
AcDbLine
 62
253
  6
CONTINUOUS
 10
55.0
 20
142.2679491924
 11
55.0
 21
144.0
  0
LINE
  5
3FF
100
AcDbEntity
  8
SMUSSO
100
AcDbLine
 62
7
  6
CONTINUOUS
 10
58.2679491924
 20
-126.0
 11
58.2679491924
 21
139.0
  0
LINE
  5
400
100
AcDbEntity
  8
SMUSSO
100
AcDbLine
 62
7
  6
CONTINUOUS
 10
60.0
 20
-126.0
 11
60.0
 21
139.0
  0
LINE
  5
401
100
AcDbEntity
  8
SMUSSO
100
AcDbLine
 62
253
  6
CONTINUOUS
 10
-42.5337284507
 20
-130.8344247829
 11
-43.6444500446
 21
-132.1634460547
  0
LINE
  5
402
100
AcDbEntity
  8
ASSI
100
AcDbLine
 62
7
  6
CONTINUOUS
 10
-29.6
 20
51.075
 11
-3.0
 21
51.075
  0
LINE
  5
403
100
AcDbEntity
  8
ASSI
100
AcDbLine
 62
7
  6
CONTINUOUS
 10
3.0
 20
51.075
 11
29.6
 21
51.075
  0
LINE
  5
404
100
AcDbEntity
  8
ASSI
100
AcDbLine
 62
7
  6
CONTINUOUS
 10
-29.8434654008
 20
51.0973819396
 11
-2.7565345992
 21
51.0973819396
  0
LINE
  5
405
100
AcDbEntity
  8
ASSI
100
AcDbLine
 62
7
  6
CONTINUOUS
 10
2.7565345992
 20
51.0973819396
 11
29.8434654008
 21
51.0973819396
  0
LINE
  5
406
100
AcDbEntity
  8
ASSI
100
AcDbLine
 62
7
  6
CONTINUOUS
 10
29.9103620808
 20
51.1113449281
 11
2.6896379192
 21
51.1113449281
  0
LINE
  5
407
100
AcDbEntity
  8
ASSI
100
AcDbLine
 62
7
  6
CONTINUOUS
 10
-2.6896379192
 20
51.1113449281
 11
-29.9103620808
 21
51.1113449281
  0
LINE
  5
408
100
AcDbEntity
  8
ASSI
100
AcDbLine
 62
7
  6
CONTINUOUS
 10
-30.6668379024
 20
51.8124545136
 11
-2.0331620976
 21
51.8124545136
  0
LINE
  5
409
100
AcDbEntity
  8
ASSI
100
AcDbLine
 62
7
  6
CONTINUOUS
 10
2.0331620976
 20
51.8124545136
 11
30.6668379024
 21
51.8124545136
  0
LINE
  5
40A
100
AcDbEntity
  8
ASSI
100
AcDbLine
 62
7
  6
CONTINUOUS
 10
16.9886550719
 20
53.062511516
 11
15.7113449281
 21
53.062511516
  0
LINE
  5
40B
100
AcDbEntity
  8
ASSI
100
AcDbLine
 62
7
  6
CONTINUOUS
 10
2.0191991091
 20
53.062511516
 11
1.9886550719
 21
53.062511516
  0
LINE
  5
40C
100
AcDbEntity
  8
ASSI
100
AcDbLine
 62
7
  6
CONTINUOUS
 10
-15.7191991091
 20
53.062511516
 11
-16.9808008909
 21
53.062511516
  0
LINE
  5
40D
100
AcDbEntity
  8
ASSI
100
AcDbLine
 62
7
  6
CONTINUOUS
 10
-30.6808008909
 20
53.062511516
 11
-30.7191991091
 21
53.062511516
  0
LINE
  5
40E
100
AcDbEntity
  8
ASSI
100
AcDbLine
 62
7
  6
CONTINUOUS
 10
-2.0191991091
 20
53.062511516
 11
-1.9808008909
 21
53.062511516
  0
LINE
  5
40F
100
AcDbEntity
  8
ASSI
100
AcDbLine
 62
7
  6
CONTINUOUS
 10
30.6808008909
 20
53.062511516
 11
30.7113449281
 21
53.062511516
  0
LINE
  5
410
100
AcDbEntity
  8
ASSI
100
AcDbLine
 62
7
  6
CONTINUOUS
 10
29.6
 20
53.925
 11
3.0
 21
53.925
  0
LINE
  5
411
100
AcDbEntity
  8
ASSI
100
AcDbLine
 62
7
  6
CONTINUOUS
 10
-3.0
 20
53.925
 11
-29.6
 21
53.925
  0
LINE
  5
412
100
AcDbEntity
  8
ASSI
100
AcDbLine
 62
7
  6
CONTINUOUS
 10
-29.6
 20
57.575
 11
-3.0
 21
57.575
  0
LINE
  5
413
100
AcDbEntity
  8
ASSI
100
AcDbLine
 62
7
  6
CONTINUOUS
 10
3.0
 20
57.575
 11
29.6
 21
57.575
  0
LINE
  5
414
100
AcDbEntity
  8
ASSI
100
AcDbLine
 62
7
  6
CONTINUOUS
 10
-29.8434654008
 20
57.5973819396
 11
-2.7565345992
 21
57.5973819396
  0
LINE
  5
415
100
AcDbEntity
  8
ASSI
100
AcDbLine
 62
7
  6
CONTINUOUS
 10
2.7565345992
 20
57.5973819396
 11
29.8434654008
 21
57.5973819396
  0
LINE
  5
416
100
AcDbEntity
  8
ASSI
100
AcDbLine
 62
7
  6
CONTINUOUS
 10
29.9103620808
 20
57.6113449281
 11
2.6896379192
 21
57.6113449281
  0
LINE
  5
417
100
AcDbEntity
  8
ASSI
100
AcDbLine
 62
7
  6
CONTINUOUS
 10
-2.6896379192
 20
57.6113449281
 11
-29.9103620808
 21
57.6113449281
  0
LINE
  5
418
100
AcDbEntity
  8
ASSI
100
AcDbLine
 62
7
  6
CONTINUOUS
 10
-30.6668379024
 20
58.3124545136
 11
-2.0331620976
 21
58.3124545136
  0
LINE
  5
419
100
AcDbEntity
  8
ASSI
100
AcDbLine
 62
7
  6
CONTINUOUS
 10
2.0331620976
 20
58.3124545136
 11
30.6668379024
 21
58.3124545136
  0
LINE
  5
41A
100
AcDbEntity
  8
ASSI
100
AcDbLine
 62
7
  6
CONTINUOUS
 10
-15.7296713505
 20
58.6249687642
 11
-16.9703286495
 21
58.6249687642
  0
LINE
  5
41B
100
AcDbEntity
  8
ASSI
100
AcDbLine
 62
7
  6
CONTINUOUS
 10
15.7218171695
 20
58.6249687642
 11
16.9781828305
 21
58.6249687642
  0
LINE
  5
41C
100
AcDbEntity
  8
ASSI
100
AcDbLine
 62
7
  6
CONTINUOUS
 10
2.0191991091
 20
59.562511516
 11
1.9886550719
 21
59.562511516
  0
LINE
  5
41D
100
AcDbEntity
  8
ASSI
100
AcDbLine
 62
7
  6
CONTINUOUS
 10
-30.6808008909
 20
59.562511516
 11
-30.7191991091
 21
59.562511516
  0
LINE
  5
41E
100
AcDbEntity
  8
ASSI
100
AcDbLine
 62
7
  6
CONTINUOUS
 10
-2.0191991091
 20
59.562511516
 11
-1.9808008909
 21
59.562511516
  0
LINE
  5
41F
100
AcDbEntity
  8
ASSI
100
AcDbLine
 62
7
  6
CONTINUOUS
 10
30.6808008909
 20
59.562511516
 11
30.7113449281
 21
59.562511516
  0
LINE
  5
420
100
AcDbEntity
  8
ASSI
100
AcDbLine
 62
7
  6
CONTINUOUS
 10
29.6
 20
60.425
 11
3.0
 21
60.425
  0
LINE
  5
421
100
AcDbEntity
  8
ASSI
100
AcDbLine
 62
7
  6
CONTINUOUS
 10
-3.0
 20
60.425
 11
-29.6
 21
60.425
  0
LINE
  5
422
100
AcDbEntity
  8
SMUSSO
100
AcDbLine
 62
253
  6
CONTINUOUS
 10
-42.53372845
 20
143.8344247835
 11
-43.644450044
 21
145.1634460552
  0
LWPOLYLINE
  5
423
100
AcDbEntity
  8
ASSI
100
AcDbPolyline
 62
253
  6
CONTINUOUS
 90
6
 70
0
 10
21.0620162355
 20
107.0617297505
 10
21.0501094994
 20
107.0909339484
 10
21.037873289
 20
107.1139133387
 10
21.0253880583
 20
107.1305168299
 10
21.0127358989
 20
107.1406352522
 10
20.9999999999
 20
107.1442020762
  0
LWPOLYLINE
  5
424
100
AcDbEntity
  8
ASSI
100
AcDbPolyline
 62
253
  6
CONTINUOUS
 90
13
 70
0
 10
32.0867781353
 20
90.7246033476
 10
31.74158734
 20
91.7858459647
 10
31.3782576088
 20
92.8376971025
 10
30.9955529371
 20
93.8794072381
 10
30.5941685657
 20
94.9036562721
 10
30.171639921
 20
95.9165009699
 10
29.7214939164
 20
96.9372196478
 10
29.2441345292
 20
97.9636928527
 10
28.7364393167
 20
98.9966990818
 10
28.1848206894
 20
100.0594258162
 10
27.5825270234
 20
101.1587355215
 10
26.9309546095
 20
102.285508425
 10
26.2275397447
 20
103.4385577018
  0
LWPOLYLINE
  5
425
100
AcDbEntity
  8
ASSI
100
AcDbPolyline
 62
7
  6
CONTINUOUS
 90
7
 70
0
 10
32.7844877993
 20
91.0374701579
 10
32.4396188305
 20
92.1162733779
 10
32.0734280233
 20
93.1840931308
 10
31.6862964006
 20
94.240537952
 10
31.2813128989
 20
95.2784992426
 10
30.8564440706
 20
96.3044542653
 10
30.4455356385
 20
97.2412609209
  0
LWPOLYLINE
  5
426
100
AcDbEntity
  8
ASSI
100
AcDbPolyline
 62
253
  6
CONTINUOUS
 90
7
 70
0
 10
33.0513730114
 20
90.1587753154
 10
32.6529234822
 20
91.472581133
 10
32.2210212035
 20
92.776222093
 10
31.7559152588
 20
94.0688417311
 10
31.2578768668
 20
95.3495903084
 10
30.7273246623
 20
96.61734236
 10
30.6901251003
 20
96.7002339676
  0
LWPOLYLINE
  5
427
100
AcDbEntity
  8
ASSI
100
AcDbPolyline
 62
253
  6
CONTINUOUS
 90
3
 70
0
 10
32.9564798792
 20
90.4682261895
 10
32.9389893125
 20
90.5271659533
 10
32.7844877993
 20
91.0374701579
  0
LINE
  5
428
100
AcDbEntity
  8
ASSI
100
AcDbLine
 62
253
  6
CONTINUOUS
 10
33.416061784
 20
88.8359647683
 11
33.0513730114
 21
90.1587753154
  0
LINE
  5
429
100
AcDbEntity
  8
DRAFT
100
AcDbLine
 62
7
  6
CONTINUOUS
 10
38.5
 20
-111.2
 11
38.3358723834
 21
-111.9444068695
  0
LINE
  5
42A
100
AcDbEntity
  8
DRAFT
100
AcDbLine
 62
7
  6
CONTINUOUS
 10
38.5
 20
-113.5
 11
38.3358723834
 21
-114.2444068695
  0
LINE
  5
42B
100
AcDbEntity
  8
DRAFT
100
AcDbLine
 62
7
  6
CONTINUOUS
 10
38.5
 20
-115.8
 11
38.3358723834
 21
-116.5444068695
  0
LINE
  5
42C
100
AcDbEntity
  8
DRAFT
100
AcDbLine
 62
7
  6
CONTINUOUS
 10
38.5
 20
-118.1
 11
38.3358723834
 21
-118.8444068695
  0
LINE
  5
42D
100
AcDbEntity
  8
DRAFT
100
AcDbLine
 62
7
  6
CONTINUOUS
 10
41.5
 20
-110.6
 11
41.6641276166
 21
-109.8555931305
  0
LINE
  5
42E
100
AcDbEntity
  8
DRAFT
100
AcDbLine
 62
7
  6
CONTINUOUS
 10
41.5
 20
-112.9
 11
41.6641276166
 21
-112.1555931305
  0
LINE
  5
42F
100
AcDbEntity
  8
DRAFT
100
AcDbLine
 62
7
  6
CONTINUOUS
 10
41.5
 20
-115.2
 11
41.6641276166
 21
-114.4555931305
  0
LINE
  5
430
100
AcDbEntity
  8
DRAFT
100
AcDbLine
 62
7
  6
CONTINUOUS
 10
41.5
 20
-117.5
 11
41.6641276166
 21
-116.7555931305
  0
LWPOLYLINE
  5
431
100
AcDbEntity
  8
ASSI
100
AcDbPolyline
 62
7
  6
CONTINUOUS
 90
31
 70
0
 10
32.2320039905
 20
73.6483875241
 10
32.3597962547
 20
73.6524183995
 10
32.5179269831
 20
73.6651067012
 10
32.6751204481
 20
73.6862677591
 10
32.8309344105
 20
73.7158379648
 10
32.9849087553
 20
73.7537263818
 10
33.1365680919
 20
73.7998091452
 10
33.2854824502
 20
73.8539454142
 10
33.4312215499
 20
73.9159683908
 10
33.5733268049
 20
73.9856684948
 10
33.7113894077
 20
74.0628244865
 10
33.8450300925
 20
74.1472030758
 10
33.97385862
 20
74.2385356649
 10
34.097515657
 20
74.3365413051
 10
34.2156637876
 20
74.4409252626
 10
34.3279726308
 20
74.5513673304
 10
34.4341341151
 20
74.6675321183
 10
34.5338676009
 20
74.7890781851
 10
34.6269119627
 20
74.9156535789
 10
34.7130207322
 20
75.0468871241
 10
34.7919680568
 20
75.1823957378
 10
34.8635524782
 20
75.3217935665
 10
34.9275924228
 20
75.4646844376
 10
34.9839227328
 20
75.6106520333
 10
35.0324001074
 20
75.7592678272
 10
35.0729047389
 20
75.9100891705
 10
35.1053508365
 20
76.0627061331
 10
35.1296749044
 20
76.2167334741
 10
35.1458245283
 20
76.3717541696
 10
35.1537664281
 20
76.527318976
 10
35.1534930698
 20
76.682993628
  0
LWPOLYLINE
  5
432
100
AcDbEntity
  8
ASSI
100
AcDbPolyline
 62
253
  6
CONTINUOUS
 90
46
 70
0
 10
32.2011846771
 20
73.6460612948
 10
32.3615572712
 20
73.6503104426
 10
32.5187434615
 20
73.6629664784
 10
32.6723299374
 20
73.6835568033
 10
32.8222079891
 20
73.7116530467
 10
32.9677943247
 20
73.7467361363
 10
33.1080605167
 20
73.7880702792
 10
33.2428126776
 20
73.8350531592
 10
33.3719011775
 20
73.8870918295
 10
33.4945077237
 20
73.9432601051
 10
33.6106090521
 20
74.0028953553
 10
33.7202535444
 20
74.0653771141
 10
33.8228859163
 20
74.1296973154
 10
33.9183324875
 20
74.1949819784
 10
34.0071322568
 20
74.260847863
 10
34.0898617003
 20
74.3270446776
 10
34.1664176003
 20
74.39282786
 10
34.2373418216
 20
74.458012091
 10
34.3040578837
 20
74.5234031474
 10
34.3666736828
 20
74.588718488
 10
34.4253427473
 20
74.6537302741
 10
34.481338715
 20
74.7195796679
 10
34.5347655025
 20
74.7862437833
 10
34.5855731054
 20
74.8535120939
 10
34.6345967812
 20
74.9224293827
 10
34.6820522369
 20
74.9933771242
 10
34.727580985
 20
75.0659014898
 10
34.7710700349
 20
75.1398586668
 10
34.8124943242
 20
75.2152387882
 10
34.8517794998
 20
75.2919410235
 10
34.888769334
 20
75.3696668642
 10
34.9233631662
 20
75.4481646248
 10
34.9556271666
 20
75.5275417147
 10
34.9856525469
 20
75.6080378851
 10
35.0133777705
 20
75.6895383525
 10
35.0387807158
 20
75.7720328584
 10
35.0619458182
 20
75.8559388656
 10
35.0827997929
 20
75.9412388816
 10
35.1012501636
 20
76.0278351453
 10
35.117278501
 20
76.1160384544
 10
35.130751778
 20
76.2056432368
 10
35.1415843454
 20
76.2967210943
 10
35.1497208287
 20
76.3900050816
 10
35.1549818447
 20
76.4856872347
 10
35.1571479699
 20
76.583408126
 10
35.1560266394
 20
76.6830648503
  0
LINE
  5
433
100
AcDbEntity
  8
ASSI
100
AcDbLine
 62
253
  6
CONTINUOUS
 10
-32.3615028761
 20
73.650307524
 11
-32.2011846771
 21
73.6460612948
  0
LINE
  5
434
100
AcDbEntity
  8
ASSI
100
AcDbLine
 62
253
  6
CONTINUOUS
 10
-26.2275397002
 20
103.4385576855
 11
-26.3496182248
 21
103.5175963572
  0
LWPOLYLINE
  5
435
100
AcDbEntity
  8
ASSI
100
AcDbPolyline
 62
253
  6
CONTINUOUS
 90
13
 70
0
 10
-26.3496182248
 20
103.5175963572
 10
-26.4644438488
 20
103.5931918956
 10
-26.5183071304
 20
103.6291534569
 10
-26.5693876816
 20
103.6636135686
 10
-26.6173927152
 20
103.6963747097
 10
-26.6620470725
 20
103.7272490976
 10
-26.7030948005
 20
103.7560597642
 10
-26.7403006187
 20
103.7826415705
 10
-26.7734512683
 20
103.806842153
 10
-26.8023567339
 20
103.8285227971
 10
-26.8268513331
 20
103.8475592319
 10
-26.846794666
 20
103.8638423433
 10
-26.8478350721
 20
103.8647573579
  0
LWPOLYLINE
  5
436
100
AcDbEntity
  8
ASSI
100
AcDbPolyline
 62
253
  6
CONTINUOUS
 90
7
 70
0
 10
35.0590455476
 20
76.6754651109
 10
35.0873951782
 20
76.6770345402
 10
35.1108391021
 20
76.6784876144
 10
35.1292541176
 20
76.6798166973
 10
35.1425434505
 20
76.6810148044
 10
35.1506372632
 20
76.6820756393
 10
35.1534930213
 20
76.6829936274
  0
LWPOLYLINE
  5
437
100
AcDbEntity
  8
ASSI
100
AcDbPolyline
 62
253
  6
CONTINUOUS
 90
4
 70
0
 10
35.1756357131
 20
76.6843129181
 10
35.1648762571
 20
76.68378152
 10
35.1583210998
 20
76.6833643041
 10
35.156026377
 20
76.6830648429
  0
LINE
  5
438
100
AcDbEntity
  8
ASSI
100
AcDbLine
 62
253
  6
CONTINUOUS
 10
34.9882500921
 20
76.6720107456
 11
35.0590455476
 21
76.6754651109
  0
LINE
  5
439
100
AcDbEntity
  8
ASSI
100
AcDbLine
 62
253
  6
CONTINUOUS
 10
34.8497809961
 20
76.6661801967
 11
34.9882500921
 21
76.6720107456
  0
LINE
  5
43A
100
AcDbEntity
  8
ASSI
100
AcDbLine
 62
253
  6
CONTINUOUS
 10
35.2093637474
 20
76.6856991185
 11
35.1756357131
 21
76.6843129181
  0
LINE
  5
43B
100
AcDbEntity
  8
ASSI
100
AcDbLine
 62
253
  6
CONTINUOUS
 10
34.6154942935
 20
76.657630021
 11
34.8497809961
 21
76.6661801967
  0
LWPOLYLINE
  5
43C
100
AcDbEntity
  8
ASSI
100
AcDbPolyline
 62
253
  6
CONTINUOUS
 90
3
 70
0
 10
35.3542468132
 20
76.690657928
 10
35.3209270131
 20
76.6895814139
 10
35.2093637474
 20
76.6856991185
  0
LINE
  5
43D
100
AcDbEntity
  8
ASSI
100
AcDbLine
 62
253
  6
CONTINUOUS
 10
34.4132668799
 20
76.6510270215
 11
34.6154942935
 21
76.657630021
  0
LWPOLYLINE
  5
43E
100
AcDbEntity
  8
ASSI
100
AcDbPolyline
 62
253
  6
CONTINUOUS
 90
31
 70
0
 10
32.4391528701
 20
74.642657159
 10
32.545336639
 20
74.645889051
 10
32.6506165984
 20
74.6546493043
 10
32.7549915017
 20
74.6689385346
 10
32.8587642988
 20
74.6888376056
 10
32.9616333629
 20
74.7142668807
 10
33.0626931343
 20
74.7449861649
 10
33.1619387657
 20
74.7810471987
 10
33.2593855554
 20
74.82239929
 10
33.3541609189
 20
74.8686484362
 10
33.446243175
 20
74.9198369051
 10
33.5356721841
 20
74.9759231882
 10
33.6216693714
 20
75.0363874032
 10
33.7042126841
 20
75.1012650464
 10
33.7833477074
 20
75.170521034
 10
33.8583974882
 20
75.243529369
 10
33.9293344434
 20
75.3203162115
 10
33.996212033
 20
75.4008554585
 10
34.058473302
 20
75.484442471
 10
34.1160886999
 20
75.5710988837
 10
34.1691128383
 20
75.6608027983
 10
34.2171117354
 20
75.7527840504
 10
34.2600503435
 20
75.8470629099
 10
34.2979850344
 20
75.9436185817
 10
34.3306141452
 20
76.0416191099
 10
34.3578942588
 20
76.1410555201
 10
34.3798838873
 20
76.2419360693
 10
34.3964284868
 20
76.3434545008
 10
34.4074779224
 20
76.445341761
 10
34.413089562
 20
76.5478660687
 10
34.4132668642
 20
76.6510270217
  0
LINE
  5
43F
100
AcDbEntity
  8
ASSI
100
AcDbLine
 62
253
  6
CONTINUOUS
 10
35.1560266394
 20
76.6830648503
 11
35.1534930698
 21
76.682993628
  0
LINE
  5
440
100
AcDbEntity
  8
ASSI
100
AcDbLine
 62
253
  6
CONTINUOUS
 10
32.2011846771
 20
73.6482441888
 11
32.2320039905
 21
73.6483875241
  0
LINE
  5
441
100
AcDbEntity
  8
ASSI
100
AcDbLine
 62
253
  6
CONTINUOUS
 10
-0.0
 20
74.5189425474
 11
6.5390861041
 21
74.546273052
  0
LINE
  5
442
100
AcDbEntity
  8
ASSI
100
AcDbLine
 62
253
  6
CONTINUOUS
 10
6.5390861041
 20
74.546273052
 11
13.0690421455
 21
74.5725827531
  0
LWPOLYLINE
  5
443
100
AcDbEntity
  8
ASSI
100
AcDbPolyline
 62
253
  6
CONTINUOUS
 90
3
 70
0
 10
13.0690421455
 20
74.5725827531
 10
19.5730411851
 20
74.597590052
 10
21.732479845
 20
74.6055866684
  0
LINE
  5
444
100
AcDbEntity
  8
ASSI
100
AcDbLine
 62
253
  6
CONTINUOUS
 10
21.732479845
 20
74.6055866684
 11
26.0350221656
 21
74.6210298468
  0
LWPOLYLINE
  5
445
100
AcDbEntity
  8
ASSI
100
AcDbPolyline
 62
253
  6
CONTINUOUS
 90
3
 70
0
 10
26.0350221656
 20
74.6210298468
 10
30.3117939498
 20
74.6356502461
 10
32.4391528701
 20
74.642657159
  0
LINE
  5
446
100
AcDbEntity
  8
ASSI
100
AcDbLine
 62
253
  6
CONTINUOUS
 10
-32.2011846771
 20
73.6482441888
 11
-23.7119928374
 21
73.6544993889
  0
LINE
  5
447
100
AcDbEntity
  8
ASSI
100
AcDbLine
 62
253
  6
CONTINUOUS
 10
-32.2011846771
 20
73.6460612948
 11
-24.2004116344
 21
73.6500297091
  0
LINE
  5
448
100
AcDbEntity
  8
ASSI
100
AcDbLine
 62
253
  6
CONTINUOUS
 10
-23.7119928374
 20
73.6544993889
 11
-17.2820773631
 21
73.6579268413
  0
LINE
  5
449
100
AcDbEntity
  8
ASSI
100
AcDbLine
 62
253
  6
CONTINUOUS
 10
-24.2004116344
 20
73.6500297091
 11
-8.0833122526
 21
73.6545775258
  0
LINE
  5
44A
100
AcDbEntity
  8
ASSI
100
AcDbLine
 62
253
  6
CONTINUOUS
 10
-17.2820773631
 20
73.6579268413
 11
-4.329184352
 21
73.6614996913
  0
LINE
  5
44B
100
AcDbEntity
  8
RACCORDO
100
AcDbLine
 62
7
  6
CONTINUOUS
 10
-32.3647338258
 20
73.4
 11
32.3647338258
 21
73.4
  0
LINE
  5
44C
100
AcDbEntity
  8
ASSI
100
AcDbLine
 62
253
  6
CONTINUOUS
 10
-8.0833122526
 20
73.6545775258
 11
8.0833268951
 21
73.6545775238
  0
LINE
  5
44D
100
AcDbEntity
  8
ASSI
100
AcDbLine
 62
253
  6
CONTINUOUS
 10
-4.329184352
 20
73.6614996913
 11
4.3291897686
 21
73.6614996907
  0
LINE
  5
44E
100
AcDbEntity
  8
ASSI
100
AcDbLine
 62
253
  6
CONTINUOUS
 10
8.0833268951
 20
73.6545775238
 11
16.1554771088
 21
73.6528708571
  0
LINE
  5
44F
100
AcDbEntity
  8
ASSI
100
AcDbLine
 62
253
  6
CONTINUOUS
 10
4.3291897686
 20
73.6614996907
 11
10.815692723
 21
73.6602614257
  0
LINE
  5
450
100
AcDbEntity
  8
ASSI
100
AcDbLine
 62
253
  6
CONTINUOUS
 10
16.1554771088
 20
73.6528708571
 11
24.2004348814
 21
73.6500296993
  0
LWPOLYLINE
  5
451
100
AcDbEntity
  8
ASSI
100
AcDbPolyline
 62
253
  6
CONTINUOUS
 90
3
 70
0
 10
24.2004348814
 20
73.6500296993
 10
29.539180076
 20
73.6475093459
 10
32.2011846771
 20
73.6460612948
  0
LINE
  5
452
100
AcDbEntity
  8
ASSI
100
AcDbLine
 62
253
  6
CONTINUOUS
 10
10.815692723
 20
73.6602614257
 11
17.2821013449
 21
73.6579268307
  0
LWPOLYLINE
  5
453
100
AcDbEntity
  8
ASSI
100
AcDbPolyline
 62
253
  6
CONTINUOUS
 90
3
 70
0
 10
17.2821013449
 20
73.6579268307
 10
23.7120274725
 20
73.6544993668
 10
25.8443191847
 20
73.6531154713
  0
LWPOLYLINE
  5
454
100
AcDbEntity
  8
ASSI
100
AcDbPolyline
 62
253
  6
CONTINUOUS
 90
3
 70
0
 10
25.8443191847
 20
73.6531154713
 10
30.0886076542
 20
73.6499880663
 10
32.2011846771
 20
73.6482441888
  0
LINE
  5
455
100
AcDbEntity
  8
ASSI
100
AcDbLine
 62
253
  6
CONTINUOUS
 10
-32.4391528701
 20
74.642657159
 11
-28.1768974293
 21
74.6284409763
  0
LINE
  5
456
100
AcDbEntity
  8
ASSI
100
AcDbLine
 62
253
  6
CONTINUOUS
 10
-28.1768974293
 20
74.6284409763
 11
-23.8866853619
 21
74.6134086928
  0
LINE
  5
457
100
AcDbEntity
  8
ASSI
100
AcDbLine
 62
253
  6
CONTINUOUS
 10
-23.8866853619
 20
74.6134086928
 11
-17.4089268166
 21
74.5894184441
  0
LINE
  5
458
100
AcDbEntity
  8
ASSI
100
AcDbLine
 62
253
  6
CONTINUOUS
 10
-17.4089268166
 20
74.5894184441
 11
-13.0690402962
 21
74.5725827455
  0
LWPOLYLINE
  5
459
100
AcDbEntity
  8
ASSI
100
AcDbPolyline
 62
253
  6
CONTINUOUS
 90
3
 70
0
 10
-13.0690402962
 20
74.5725827455
 10
-6.5390859246
 20
74.5462730522
 10
-0.0
 20
74.5189425474
  0
LINE
  5
45A
100
AcDbEntity
  8
ASSI
100
AcDbLine
 62
253
  6
CONTINUOUS
 10
-32.2320199944
 20
73.6483876824
 11
-32.2011846771
 21
73.6482441888
  0
LINE
  5
45B
100
AcDbEntity
  8
ASSI
100
AcDbLine
 62
253
  6
CONTINUOUS
 10
-35.1560266394
 20
76.6830648503
 11
-35.1534930698
 21
76.682993628
  0
LINE
  5
45C
100
AcDbEntity
  8
ASSI
100
AcDbLine
 62
253
  6
CONTINUOUS
 10
-34.4132668891
 20
76.6510270214
 11
-34.678512904
 21
76.6598176729
  0
LINE
  5
45D
100
AcDbEntity
  8
ASSI
100
AcDbLine
 62
253
  6
CONTINUOUS
 10
-35.3542468131
 20
76.6906579298
 11
-35.2320426748
 21
76.6865420278
  0
LWPOLYLINE
  5
45E
100
AcDbEntity
  8
ASSI
100
AcDbPolyline
 62
253
  6
CONTINUOUS
 90
6
 70
0
 10
-35.2320426748
 20
76.6865420278
 10
-35.1905063469
 20
76.6849539204
 10
-35.1756346645
 20
76.6843128891
 10
-35.1648751522
 20
76.6837814894
 10
-35.1583199505
 20
76.683364272
 10
-35.1560251958
 20
76.6830648098
  0
LINE
  5
45F
100
AcDbEntity
  8
ASSI
100
AcDbLine
 62
253
  6
CONTINUOUS
 10
-34.678512904
 20
76.6598176729
 11
-34.8999365659
 21
76.6681969874
  0
LINE
  5
460
100
AcDbEntity
  8
ASSI
100
AcDbLine
 62
253
  6
CONTINUOUS
 10
-34.8999365659
 20
76.6681969874
 11
-34.9882471401
 21
76.6720106808
  0
LWPOLYLINE
  5
461
100
AcDbEntity
  8
ASSI
100
AcDbPolyline
 62
253
  6
CONTINUOUS
 90
8
 70
0
 10
-34.9882471401
 20
76.6720106808
 10
-35.0590420766
 20
76.6754650296
 10
-35.0873914715
 20
76.6770344506
 10
-35.1108351779
 20
76.6784875165
 10
-35.1292499955
 20
76.6798165913
 10
-35.1425391517
 20
76.6810146904
 10
-35.15063281
 20
76.6820755176
 10
-35.1534884369
 20
76.6829934982
  0
LWPOLYLINE
  5
462
100
AcDbEntity
  8
ASSI
100
AcDbPolyline
 62
253
  6
CONTINUOUS
 90
25
 70
0
 10
26.2275397447
 20
103.4385577018
 10
26.0823303654
 20
103.6583277262
 10
25.9301675178
 20
103.8690364383
 10
25.771205092
 20
104.0707232645
 10
25.6054624573
 20
104.2633509381
 10
25.4332099321
 20
104.447033636
 10
25.2549633339
 20
104.6220355334
 10
25.070915614
 20
104.7884553927
 10
24.8811085293
 20
104.9462618176
 10
24.6858138773
 20
105.0955203576
 10
24.4851802601
 20
105.2363312473
 10
24.2792405951
 20
105.3686515133
 10
24.0680796157
 20
105.4923293991
 10
23.8517342189
 20
105.6074953836
 10
23.6302927086
 20
105.7140648191
 10
23.4039037447
 20
105.8115611859
 10
23.1725507451
 20
105.9000916597
 10
22.9363111213
 20
105.9795815448
 10
22.6954573338
 20
106.0492789183
 10
22.4499467188
 20
106.1092792427
 10
22.1998047506
 20
106.1595026928
 10
21.9453810675
 20
106.1989301994
 10
21.6867526173
 20
106.2272201138
 10
21.4237284512
 20
106.2447082355
 10
21.1562295533
 20
106.2513860272
  0
LINE
  5
463
100
AcDbEntity
  8
ASSI
100
AcDbLine
 62
7
  6
CONTINUOUS
 10
32.0867781353
 20
90.7246033476
 11
-0.0
 21
90.5750405664
  0
LINE
  5
464
100
AcDbEntity
  8
ASSI
100
AcDbLine
 62
7
  6
CONTINUOUS
 10
-32.0867781353
 20
90.7246033476
 11
-0.0
 21
90.5750405664
  0
LWPOLYLINE
  5
465
100
AcDbEntity
  8
ASSI
100
AcDbPolyline
 62
7
  6
CONTINUOUS
 90
21
 70
0
 10
26.152356899
 20
104.8584622368
 10
25.9590864974
 20
105.0638634834
 10
25.752439103
 20
105.2658769919
 10
25.5389613504
 20
105.457911977
 10
25.3191936028
 20
105.6397919694
 10
25.0927333539
 20
105.8120590456
 10
24.8600160786
 20
105.9744951387
 10
24.6214815715
 20
106.1269027409
 10
24.37657723
 20
106.2696588139
 10
24.1256383001
 20
106.4025063301
 10
23.8691070412
 20
106.5251507805
 10
23.6064837385
 20
106.6377089777
 10
23.338129323
 20
106.7398387686
 10
23.064457848
 20
106.8311973157
 10
22.7849913441
 20
106.9117010538
 10
22.5001862136
 20
106.9809191559
 10
22.2104359852
 20
107.0384576506
 10
21.9151483122
 20
107.0840635923
 10
21.6144489378
 20
107.1172526347
 10
21.3092116619
 20
107.1374604736
 10
21.107492163
 20
107.143421154
  0
LWPOLYLINE
  5
466
100
AcDbEntity
  8
ASSI
100
AcDbPolyline
 62
253
  6
CONTINUOUS
 90
20
 70
0
 10
26.1087051333
 20
104.9113449956
 10
25.9917095085
 20
105.0371666718
 10
25.7842336785
 20
105.2423238994
 10
25.5679070042
 20
105.4389575864
 10
25.3430690534
 20
105.626664119
 10
25.11045215
 20
105.804780429
 10
24.8704991898
 20
105.9729569374
 10
24.6235966858
 20
106.1309126689
 10
24.3704735949
 20
106.2781946038
 10
24.1117395009
 20
106.4144964134
 10
23.8477297991
 20
106.5396885968
 10
23.5787894324
 20
106.6536333112
 10
23.3054619134
 20
106.7561191598
 10
23.028172911
 20
106.8470050515
 10
22.7470794169
 20
106.9262312099
 10
22.4628377183
 20
106.9935921214
 10
22.1757783755
 20
107.0489890834
 10
21.885547279
 20
107.0924044549
 10
21.5923544718
 20
107.1236469405
 10
21.2969964746
 20
107.1424714794
  0
LWPOLYLINE
  5
467
100
AcDbEntity
  8
ASSI
100
AcDbPolyline
 62
7
  6
CONTINUOUS
 90
21
 70
0
 10
-21.10749434
 20
107.1434211214
 10
-21.3091022158
 20
107.1374652999
 10
-21.6142381749
 20
107.1172712565
 10
-21.9148448689
 20
107.0841037869
 10
-22.2100498539
 20
107.0385258132
 10
-22.4997266914
 20
106.9810205987
 10
-22.7844650848
 20
106.91184076
 10
-23.0638684959
 20
106.8313805095
 10
-23.3374839584
 20
106.7400691836
 10
-23.605796198
 20
106.6379870065
 10
-23.8683923201
 20
106.5254746221
 10
-24.1249094764
 20
106.4028732389
 10
-24.3758489787
 20
106.270063571
 10
-24.62076936
 20
106.1273375518
 10
-24.8593328475
 20
105.9749514958
 10
-25.0920885847
 20
105.8125289212
 10
-25.3185952454
 20
105.6402667483
 10
-25.5384170463
 20
105.4583815647
 10
-25.7519549981
 20
105.2663308843
 10
-25.9586644313
 20
105.0642935856
 10
-26.1522546581
 20
104.8585860985
  0
LWPOLYLINE
  5
468
100
AcDbEntity
  8
ASSI
100
AcDbPolyline
 62
253
  6
CONTINUOUS
 90
25
 70
0
 10
-21.1562295533
 20
106.2513860272
 10
-21.4236262367
 20
106.244714751
 10
-21.6865581792
 20
106.2272388426
 10
-21.9451043323
 20
106.1989668345
 10
-22.1994571335
 20
106.1595635979
 10
-22.4495380831
 20
106.1093701159
 10
-22.6949929539
 20
106.0494034545
 10
-22.9357926584
 20
105.9797444044
 10
-23.1719835213
 20
105.9002965622
 10
-23.4032994364
 20
105.811806986
 10
-23.6296651687
 20
105.7143503573
 10
-23.8510952503
 20
105.6078195426
 10
-24.0674410352
 20
105.4926862696
 10
-24.2786156968
 20
105.3690342593
 10
-24.4845809372
 20
105.2367339586
 10
-24.6852476642
 20
105.0959350902
 10
-24.8805825812
 20
104.9466803393
 10
-25.0704374178
 20
104.7888697232
 10
-25.254537011
 20
104.6224364489
 10
-25.4328367957
 20
104.4474159652
 10
-25.6051464688
 20
104.2637053961
 10
-25.7709548438
 20
104.0710270129
 10
-25.9299928733
 20
103.8692620298
 10
-26.0822392585
 20
103.6584521059
 10
-26.2275397447
 20
103.4385577018
  0
LWPOLYLINE
  5
469
100
AcDbEntity
  8
ASSI
100
AcDbPolyline
 62
253
  6
CONTINUOUS
 90
21
 70
0
 10
-21.0
 20
107.1487029198
 10
-21.2968089557
 20
107.1424794221
 10
-21.5920476253
 20
107.1236730597
 10
-21.8851893968
 20
107.092450278
 10
-22.175466304
 20
107.0490425184
 10
-22.4626372999
 20
106.9936351872
 10
-22.746968308
 20
106.9262600192
 10
-23.0280997402
 20
106.8470273438
 10
-23.3054056681
 20
106.7561389118
 10
-23.5787323402
 20
106.6536560968
 10
-23.8476499926
 20
106.5397244052
 10
-24.1116212566
 20
106.4145555592
 10
-24.3703189385
 20
106.2782802795
 10
-24.6234098466
 20
106.1310267155
 10
-24.8702824773
 20
105.9731021042
 10
-25.1102175972
 20
105.8049522998
 10
-25.3428305637
 20
105.6268548312
 10
-25.5676748174
 20
105.4391598739
 10
-25.7840183377
 20
105.2425280633
 10
-25.9915223824
 20
105.0373596351
 10
-26.1086997173
 20
104.9113515569
  0
LINE
  5
46A
100
AcDbEntity
  8
ASSI
100
AcDbLine
 62
253
  6
CONTINUOUS
 10
-21.0
 20
107.1442020762
 11
-21.10749434
 21
107.1434211214
  0
LWPOLYLINE
  5
46B
100
AcDbEntity
  8
ASSI
100
AcDbPolyline
 62
253
  6
CONTINUOUS
 90
10
 70
0
 10
0.0000018031
 20
106.281555688
 10
-2.3003001464
 20
106.2754701404
 10
-4.6147585566
 20
106.2700571887
 10
-6.9426550153
 20
106.2653110408
 10
-9.2829619433
 20
106.2611927303
 10
-11.6351958032
 20
106.2577297611
 10
-13.9994049132
 20
106.2550149176
 10
-16.3750347917
 20
106.2530739383
 10
-18.7609395592
 20
106.2518666996
 10
-21.1562295533
 20
106.2513860272
  0
LINE
  5
46C
100
AcDbEntity
  8
ASSI
100
AcDbLine
 62
253
  6
CONTINUOUS
 10
21.0
 20
107.1442020762
 11
13.9540322737
 21
107.1409413705
  0
LINE
  5
46D
100
AcDbEntity
  8
ASSI
100
AcDbLine
 62
253
  6
CONTINUOUS
 10
13.9540322737
 20
107.1409413705
 11
7.0109379643
 21
107.1389922866
  0
LINE
  5
46E
100
AcDbEntity
  8
ASSI
100
AcDbLine
 62
253
  6
CONTINUOUS
 10
21.0
 20
107.1487029198
 11
12.6224787638
 21
107.1462417692
  0
LINE
  5
46F
100
AcDbEntity
  8
ASSI
100
AcDbLine
 62
253
  6
CONTINUOUS
 10
7.0109379643
 20
107.1389922866
 11
-0.0
 21
107.1382829741
  0
LINE
  5
470
100
AcDbEntity
  8
ASSI
100
AcDbLine
 62
253
  6
CONTINUOUS
 10
12.6224787638
 20
107.1462417692
 11
4.21123433
 21
107.1450078584
  0
LINE
  5
471
100
AcDbEntity
  8
RACCORDO
100
AcDbLine
 62
7
  6
CONTINUOUS
 10
20.7571258322
 20
107.4
 11
-20.7571258322
 21
107.4
  0
LWPOLYLINE
  5
472
100
AcDbEntity
  8
ASSI
100
AcDbPolyline
 62
253
  6
CONTINUOUS
 90
10
 70
0
 10
21.1562295533
 20
106.2513860272
 10
18.779949884
 20
106.2518596212
 10
16.413501252
 20
106.2530476134
 10
14.0577557576
 20
106.2549569675
 10
11.7206993923
 20
106.2576094811
 10
9.3960258566
 20
106.2609968915
 10
7.0630493921
 20
106.2650818166
 10
4.7153231293
 20
106.269857322
 10
2.3607268284
 20
106.2753459895
 10
0.0000018029
 20
106.2815556794
  0
LINE
  5
473
100
AcDbEntity
  8
ASSI
100
AcDbLine
 62
253
  6
CONTINUOUS
 10
-0.0
 20
107.1382829741
 11
-4.581724387
 21
107.1386003306
  0
LINE
  5
474
100
AcDbEntity
  8
ASSI
100
AcDbLine
 62
253
  6
CONTINUOUS
 10
4.21123433
 20
107.1450078584
 11
-4.2112586712
 21
107.1450078602
  0
LINE
  5
475
100
AcDbEntity
  8
ASSI
100
AcDbLine
 62
253
  6
CONTINUOUS
 10
-4.581724387
 20
107.1386003306
 11
-13.8961567408
 21
107.1409199672
  0
LINE
  5
476
100
AcDbEntity
  8
ASSI
100
AcDbLine
 62
253
  6
CONTINUOUS
 10
-4.2112586712
 20
107.1450078602
 11
-21.0
 21
107.1487029198
  0
LINE
  5
477
100
AcDbEntity
  8
ASSI
100
AcDbLine
 62
253
  6
CONTINUOUS
 10
-13.8961567408
 20
107.1409199672
 11
-21.0
 21
107.1442020762
  0
LINE
  5
478
100
AcDbEntity
  8
ASSI
100
AcDbLine
 62
253
  6
CONTINUOUS
 10
21.107492163
 20
107.143421154
 11
21.0
 21
107.1442020762
  0
LINE
  5
479
100
AcDbEntity
  8
ASSI
100
AcDbLine
 62
253
  6
CONTINUOUS
 10
21.2969964746
 20
107.1424714794
 11
21.0
 21
107.1487029198
  0
LINE
  5
47A
100
AcDbEntity
  8
SMUSSO
100
AcDbLine
 62
253
  6
CONTINUOUS
 10
-58.2679491924
 20
139.0
 11
-60.0
 21
139.0
  0
LINE
  5
47B
100
AcDbEntity
  8
SMUSSO
100
AcDbLine
 62
253
  6
CONTINUOUS
 10
58.2679491924
 20
139.0
 11
60.0
 21
139.0
  0
LINE
  5
47C
100
AcDbEntity
  8
SMUSSO
100
AcDbLine
 62
7
  6
CONTINUOUS
 10
55.0
 20
142.2679491924
 11
46.8508271005
 21
142.2679491924
  0
LINE
  5
47D
100
AcDbEntity
  8
SMUSSO
100
AcDbLine
 62
7
  6
CONTINUOUS
 10
-46.8508271005
 20
142.2679491924
 11
-55.0
 21
142.2679491924
  0
LINE
  5
47E
100
AcDbEntity
  8
SMUSSO
100
AcDbLine
 62
7
  6
CONTINUOUS
 10
55.0
 20
144.0
 11
46.8508271005
 21
144.0
  0
LINE
  5
47F
100
AcDbEntity
  8
SMUSSO
100
AcDbLine
 62
7
  6
CONTINUOUS
 10
-46.8508271005
 20
144.0
 11
-55.0
 21
144.0
  0
LINE
  5
480
100
AcDbEntity
  8
SUPERFICI
100
AcDbLine
 62
7
  6
CONTINUOUS
 10
153.2190020161
 20
-148.0
 11
154.2190020161
 21
-148.0
  0
LINE
  5
481
100
AcDbEntity
  8
SMUSSO
100
AcDbLine
 62
253
  6
CONTINUOUS
 10
153.2190020161
 20
-132.1634460548
 11
154.2190020161
 21
-132.1634460548
  0
LINE
  5
482
100
AcDbEntity
  8
SMUSSO
100
AcDbLine
 62
7
  6
CONTINUOUS
 10
153.2190020161
 20
-131.0
 11
154.2190020161
 21
-131.0
  0
LINE
  5
483
100
AcDbEntity
  8
0
100
AcDbLine
 62
7
  6
CONTINUOUS
 10
151.4190020161
 20
-126.0
 11
153.2190020161
 21
-126.0
  0
LINE
  5
484
100
AcDbEntity
  8
SMUSSO
100
AcDbLine
 62
253
  6
CONTINUOUS
 10
153.2190020161
 20
-126.0
 11
157.2190020161
 21
-126.0
  0
LINE
  5
485
100
AcDbEntity
  8
0
100
AcDbLine
 62
7
  6
CONTINUOUS
 10
99.1190020161
 20
-124.0
 11
151.4190020161
 21
-124.0
  0
LINE
  5
486
100
AcDbEntity
  8
0
100
AcDbLine
 62
7
  6
CONTINUOUS
 10
99.1190020161
 20
-123.2
 11
98.4190020161
 21
-123.2
  0
LINE
  5
487
100
AcDbEntity
  8
0
100
AcDbLine
 62
253
  6
CONTINUOUS
 10
97.6190020161
 20
-122.5
 11
98.4190020161
 21
-122.5
  0
LINE
  5
488
100
AcDbEntity
  8
0
100
AcDbLine
 62
253
  6
CONTINUOUS
 10
99.1190020161
 20
-122.5
 11
151.4190020161
 21
-122.5
  0
LINE
  5
489
100
AcDbEntity
  8
0
100
AcDbLine
 62
7
  6
CONTINUOUS
 10
97.6190020161
 20
-110.2
 11
98.4190020161
 21
-110.2
  0
LINE
  5
48A
100
AcDbEntity
  8
0
100
AcDbLine
 62
7
  6
CONTINUOUS
 10
151.4190020161
 20
-107.1
 11
99.1190020161
 21
-107.1
  0
LWPOLYLINE
  5
48B
100
AcDbEntity
  8
ASSI
100
AcDbPolyline
 62
7
  6
CONTINUOUS
 90
31
 70
0
 10
157.7685590861
 20
-113.4
 10
157.7766566746
 20
-113.4017491538
 10
157.7874911578
 20
-113.4095432795
 10
157.7978413279
 20
-113.4229963308
 10
157.8076660507
 20
-113.4414491448
 10
157.8170064604
 20
-113.4642760631
 10
157.825778162
 20
-113.4907922305
 10
157.8339438986
 20
-113.5203192053
 10
157.8415409271
 20
-113.5522992598
 10
157.8485966223
 20
-113.5862683275
 10
157.8550854693
 20
-113.621628141
 10
157.8610329829
 20
-113.657995025
 10
157.866543083
 20
-113.6953875852
 10
157.8716152127
 20
-113.7334358423
 10
157.8762499288
 20
-113.7718778722
 10
157.8805528213
 20
-113.8110929747
 10
157.8845325378
 20
-113.8508472234
 10
157.8881804308
 20
-113.8910082509
 10
157.8915761477
 20
-113.9322834257
 10
157.8947456969
 20
-113.9747682467
 10
157.89766307
 20
-114.0181964388
 10
157.9003298897
 20
-114.0628329495
 10
157.9027566108
 20
-114.1087725293
 10
157.9049327784
 20
-114.1557744752
 10
157.9068286503
 20
-114.2036102996
 10
157.9084392894
 20
-114.2522243203
 10
157.9097696329
 20
-114.3014828233
 10
157.9108047501
 20
-114.3510217953
 10
157.9115396641
 20
-114.4006465823
 10
157.9119793519
 20
-114.4503403634
 10
157.9121238133
 20
-114.5
  0
LWPOLYLINE
  5
48C
100
AcDbEntity
  8
ASSI
100
AcDbPolyline
 62
7
  6
CONTINUOUS
 90
19
 70
0
 10
157.768576701
 20
-115.6
 10
157.7571092027
 20
-115.5964946982
 10
157.7459779337
 20
-115.5864054889
 10
157.7348528742
 20
-115.569408214
 10
157.7237210757
 20
-115.5452386999
 10
157.7125954867
 20
-115.5136701156
 10
157.70178606
 20
-115.4747002092
 10
157.6912991907
 20
-115.4283780815
 10
157.6811284838
 20
-115.3747008623
 10
157.6715647065
 20
-115.3137624144
 10
157.6626031787
 20
-115.2457233657
 10
157.6542485806
 20
-115.1708867117
 10
157.6468057193
 20
-115.0896919072
 10
157.6402887894
 20
-115.0026853954
 10
157.6346835964
 20
-114.910352163
 10
157.630252364
 20
-114.8131668221
 10
157.6270824999
 20
-114.7117920174
 10
157.6250865964
 20
-114.6070997945
 10
157.6242646534
 20
-114.5
  0
LINE
  5
48D
100
AcDbEntity
  8
0
100
AcDbLine
 62
7
  6
CONTINUOUS
 10
98.4190020161
 20
-97.1
 11
97.2190020161
 21
-97.1
  0
LINE
  5
48E
100
AcDbEntity
  8
0
100
AcDbLine
 62
7
  6
CONTINUOUS
 10
98.4190020161
 20
-93.1
 11
97.2190020161
 21
-93.1
  0
LINE
  5
48F
100
AcDbEntity
  8
ASSI
100
AcDbLine
 62
7
  6
CONTINUOUS
 10
114.5690020161
 20
-65.2
 11
115.0690020161
 21
-65.2
  0
LINE
  5
490
100
AcDbEntity
  8
ASSI
100
AcDbLine
 62
7
  6
CONTINUOUS
 10
139.3690020161
 20
-65.2
 11
139.8690020161
 21
-65.2
  0
LINE
  5
491
100
AcDbEntity
  8
0
100
AcDbLine
 62
7
  6
CONTINUOUS
 10
97.2190020161
 20
-97.1
 11
97.2190020161
 21
-93.1
  0
LINE
  5
492
100
AcDbEntity
  8
0
100
AcDbLine
 62
7
  6
CONTINUOUS
 10
97.2190020161
 20
106.1
 11
97.2190020161
 21
110.1
  0
LINE
  5
493
100
AcDbEntity
  8
0
100
AcDbLine
 62
7
  6
CONTINUOUS
 10
97.6190020161
 20
-122.5
 11
97.6190020161
 21
-110.2
  0
LINE
  5
494
100
AcDbEntity
  8
0
100
AcDbLine
 62
7
  6
CONTINUOUS
 10
97.6190020161
 20
123.2
 11
97.6190020161
 21
135.5
  0
LINE
  5
495
100
AcDbEntity
  8
0
100
AcDbLine
 62
7
  6
CONTINUOUS
 10
98.4190020161
 20
136.2
 11
98.4190020161
 21
-123.2
  0
LINE
  5
496
100
AcDbEntity
  8
0
100
AcDbLine
 62
7
  6
CONTINUOUS
 10
99.1190020161
 20
-107.1
 11
99.1190020161
 21
-124.0
  0
LINE
  5
497
100
AcDbEntity
  8
0
100
AcDbLine
 62
7
  6
CONTINUOUS
 10
99.1190020161
 20
120.1
 11
99.1190020161
 21
137.0
  0
LINE
  5
498
100
AcDbEntity
  8
0
100
AcDbLine
 62
253
  6
CONTINUOUS
 10
100.7190020161
 20
120.1
 11
100.7190020161
 21
-107.1
  0
LINE
  5
499
100
AcDbEntity
  8
ASSI
100
AcDbLine
 62
7
  6
CONTINUOUS
 10
139.8690020161
 20
-61.2
 11
139.3690020161
 21
-61.2
  0
LINE
  5
49A
100
AcDbEntity
  8
ASSI
100
AcDbLine
 62
7
  6
CONTINUOUS
 10
115.0690020161
 20
-61.2
 11
114.5690020161
 21
-61.2
  0
LINE
  5
49B
100
AcDbEntity
  8
ASSI
100
AcDbLine
 62
7
  6
CONTINUOUS
 10
114.5690020161
 20
-76.25
 11
114.5690020161
 21
-65.2
  0
LINE
  5
49C
100
AcDbEntity
  8
ASSI
100
AcDbLine
 62
7
  6
CONTINUOUS
 10
114.5690020161
 20
-61.2
 11
114.5690020161
 21
-50.15
  0
LINE
  5
49D
100
AcDbEntity
  8
ASSI
100
AcDbLine
 62
7
  6
CONTINUOUS
 10
114.5690020161
 20
63.15
 11
114.5690020161
 21
74.2
  0
LINE
  5
49E
100
AcDbEntity
  8
ASSI
100
AcDbLine
 62
7
  6
CONTINUOUS
 10
114.5690020161
 20
78.2
 11
114.5690020161
 21
89.25
  0
LINE
  5
49F
100
AcDbEntity
  8
ASSI
100
AcDbLine
 62
7
  6
CONTINUOUS
 10
115.0690020161
 20
89.25
 11
115.0690020161
 21
78.2
  0
LINE
  5
4A0
100
AcDbEntity
  8
ASSI
100
AcDbLine
 62
7
  6
CONTINUOUS
 10
115.0690020161
 20
74.2
 11
115.0690020161
 21
63.15
  0
LINE
  5
4A1
100
AcDbEntity
  8
ASSI
100
AcDbLine
 62
7
  6
CONTINUOUS
 10
115.0690020161
 20
-50.15
 11
115.0690020161
 21
-61.2
  0
LINE
  5
4A2
100
AcDbEntity
  8
ASSI
100
AcDbLine
 62
7
  6
CONTINUOUS
 10
115.0690020161
 20
-65.2
 11
115.0690020161
 21
-76.25
  0
LINE
  5
4A3
100
AcDbEntity
  8
0
100
AcDbLine
 62
7
  6
CONTINUOUS
 10
125.8190020161
 20
-88.8222359491
 11
125.8190020161
 21
-88.3174304688
  0
LINE
  5
4A4
100
AcDbEntity
  8
0
100
AcDbLine
 62
7
  6
CONTINUOUS
 10
125.8190020161
 20
-38.0825695313
 11
125.8190020161
 21
-37.577764051
  0
LINE
  5
4A5
100
AcDbEntity
  8
0
100
AcDbLine
 62
7
  6
CONTINUOUS
 10
125.8190020161
 20
50.5777640509
 11
125.8190020161
 21
51.0825695312
  0
LINE
  5
4A6
100
AcDbEntity
  8
0
100
AcDbLine
 62
7
  6
CONTINUOUS
 10
125.8190020161
 20
101.3174304687
 11
125.8190020161
 21
101.822235949
  0
LINE
  5
4A7
100
AcDbEntity
  8
ASSI
100
AcDbLine
 62
7
  6
CONTINUOUS
 10
139.3690020161
 20
-76.25
 11
139.3690020161
 21
-65.2
  0
LINE
  5
4A8
100
AcDbEntity
  8
ASSI
100
AcDbLine
 62
7
  6
CONTINUOUS
 10
139.3690020161
 20
-61.2
 11
139.3690020161
 21
-50.15
  0
LINE
  5
4A9
100
AcDbEntity
  8
ASSI
100
AcDbLine
 62
7
  6
CONTINUOUS
 10
139.3690020161
 20
63.15
 11
139.3690020161
 21
74.2
  0
LINE
  5
4AA
100
AcDbEntity
  8
ASSI
100
AcDbLine
 62
7
  6
CONTINUOUS
 10
139.3690020161
 20
78.2
 11
139.3690020161
 21
89.25
  0
LINE
  5
4AB
100
AcDbEntity
  8
ASSI
100
AcDbLine
 62
7
  6
CONTINUOUS
 10
139.8690020161
 20
89.25
 11
139.8690020161
 21
78.2
  0
LINE
  5
4AC
100
AcDbEntity
  8
ASSI
100
AcDbLine
 62
7
  6
CONTINUOUS
 10
139.8690020161
 20
74.2
 11
139.8690020161
 21
63.15
  0
LINE
  5
4AD
100
AcDbEntity
  8
ASSI
100
AcDbLine
 62
7
  6
CONTINUOUS
 10
139.8690020161
 20
-50.15
 11
139.8690020161
 21
-61.2
  0
LINE
  5
4AE
100
AcDbEntity
  8
ASSI
100
AcDbLine
 62
7
  6
CONTINUOUS
 10
139.8690020161
 20
-65.2
 11
139.8690020161
 21
-76.25
  0
LINE
  5
4AF
100
AcDbEntity
  8
ASSI
100
AcDbLine
 62
7
  6
CONTINUOUS
 10
159.8856708708
 20
74.520039104
 11
159.8852666057
 21
74.5189425474
  0
LINE
  5
4B0
100
AcDbEntity
  8
0
100
AcDbLine
 62
7
  6
CONTINUOUS
 10
151.4190020161
 20
-126.0
 11
151.4190020161
 21
161.0000022397
  0
LINE
  5
4B1
100
AcDbEntity
  8
0
100
AcDbLine
 62
7
  6
CONTINUOUS
 10
153.2190020161
 20
-126.0
 11
153.2190020161
 21
144.0
  0
LINE
  5
4B2
100
AcDbEntity
  8
RACCORDO
100
AcDbLine
 62
7
  6
CONTINUOUS
 10
153.2190020161
 20
-147.999984527
 11
153.2190020161
 21
160.9995207769
  0
LINE
  5
4B3
100
AcDbEntity
  8
0
100
AcDbLine
 62
7
  6
CONTINUOUS
 10
153.2190020161
 20
145.1634460547
 11
153.2190020161
 21
161.0000022397
  0
LINE
  5
4B4
100
AcDbEntity
  8
SMUSSO
100
AcDbLine
 62
7
  6
CONTINUOUS
 10
154.2190020161
 20
161.0
 11
154.2190020161
 21
-148.0
  0
LWPOLYLINE
  5
4B5
100
AcDbEntity
  8
ASSI
100
AcDbPolyline
 62
253
  6
CONTINUOUS
 90
5
 70
0
 10
157.4713536543
 20
102.3929405173
 10
157.4033016267
 20
101.3534615905
 10
157.3276387424
 20
100.3207636155
 10
157.2459694145
 20
99.3024527235
 10
157.2190020161
 20
98.9890718242
  0
LINE
  5
4B6
100
AcDbEntity
  8
ASSI
100
AcDbLine
 62
7
  6
CONTINUOUS
 10
159.8856688904
 20
74.5200252678
 11
159.9487765774
 21
74.964518353
  0
LINE
  5
4B7
100
AcDbEntity
  8
SMUSSO
100
AcDbLine
 62
7
  6
CONTINUOUS
 10
157.2190020161
 20
159.2679491924
 11
157.2190020161
 21
-146.2679491924
  0
LINE
  5
4B8
100
AcDbEntity
  8
0
100
AcDbLine
 62
7
  6
CONTINUOUS
 10
157.2249173789
 20
134.0
 11
157.2249173789
 21
121.0
  0
LINE
  5
4B9
100
AcDbEntity
  8
0
100
AcDbLine
 62
7
  6
CONTINUOUS
 10
157.2249173789
 20
-108.0
 11
157.2249173789
 21
-121.0
  0
LWPOLYLINE
  5
4BA
100
AcDbEntity
  8
ASSI
100
AcDbPolyline
 62
7
  6
CONTINUOUS
 90
34
 70
0
 10
157.9121238133
 20
127.5
 10
157.9120256877
 20
127.4594719937
 10
157.9117342562
 20
127.418992528
 10
157.9112495188
 20
127.3786166281
 10
157.9105684313
 20
127.3383531779
 10
157.909694038
 20
127.2983035462
 10
157.9086354715
 20
127.2586586752
 10
157.9073957601
 20
127.2195782904
 10
157.9059718757
 20
127.1810003745
 10
157.9043638661
 20
127.142784415
 10
157.9025855857
 20
127.1051340746
 10
157.9006231802
 20
127.0679474048
 10
157.898435135
 20
127.0306593528
 10
157.8960323104
 20
126.9933561276
 10
157.8934038461
 20
126.9561282614
 10
157.8904756461
 20
126.9184913792
 10
157.8872539884
 20
126.8805601167
 10
157.8837325951
 20
126.8425296408
 10
157.8798185369
 20
126.8041361969
 10
157.8754888355
 20
126.7654221198
 10
157.8707664693
 20
126.7268625988
 10
157.8656274436
 20
126.6888970575
 10
157.8600763479
 20
126.6518944233
 10
157.8541085927
 20
126.6160632179
 10
157.8476864151
 20
126.5816301339
 10
157.8408276255
 20
126.5490652658
 10
157.8335144134
 20
126.5186241664
 10
157.8256555841
 20
126.4903856585
 10
157.8171795053
 20
126.4647525901
 10
157.8081578092
 20
126.4425169513
 10
157.7987141979
 20
126.4244054242
 10
157.788837566
 20
126.4109562817
 10
157.7785390189
 20
126.4026528625
 10
157.768576701
 20
126.4
  0
LWPOLYLINE
  5
4BB
100
AcDbEntity
  8
ASSI
100
AcDbPolyline
 62
7
  6
CONTINUOUS
 90
34
 70
0
 10
157.9121238133
 20
-114.5
 10
157.9120256877
 20
-114.5405280063
 10
157.9117342562
 20
-114.581007472
 10
157.9112495188
 20
-114.6213833719
 10
157.9105684313
 20
-114.6616468221
 10
157.909694038
 20
-114.7016964538
 10
157.9086354715
 20
-114.7413413248
 10
157.9073957601
 20
-114.7804217096
 10
157.9059718757
 20
-114.8189996255
 10
157.9043638661
 20
-114.857215585
 10
157.9025855857
 20
-114.8948659254
 10
157.9006231802
 20
-114.9320525952
 10
157.898435135
 20
-114.9693406472
 10
157.8960323104
 20
-115.0066438724
 10
157.8934038461
 20
-115.0438717386
 10
157.8904756461
 20
-115.0815086208
 10
157.8872539884
 20
-115.1194398833
 10
157.8837325951
 20
-115.1574703592
 10
157.8798185369
 20
-115.1958638031
 10
157.8754888355
 20
-115.2345778802
 10
157.8707664693
 20
-115.2731374012
 10
157.8656274436
 20
-115.3111029425
 10
157.8600763479
 20
-115.3481055767
 10
157.8541085927
 20
-115.3839367821
 10
157.8476864151
 20
-115.4183698661
 10
157.8408276255
 20
-115.4509347342
 10
157.8335144134
 20
-115.4813758336
 10
157.8256555841
 20
-115.5096143415
 10
157.8171795053
 20
-115.5352474099
 10
157.8081578092
 20
-115.5574830487
 10
157.7987141979
 20
-115.5755945758
 10
157.788837566
 20
-115.5890437183
 10
157.7785390189
 20
-115.5973471375
 10
157.768576701
 20
-115.6
  0
LWPOLYLINE
  5
4BC
100
AcDbEntity
  8
ASSI
100
AcDbPolyline
 62
7
  6
CONTINUOUS
 90
20
 70
0
 10
157.6242646534
 20
127.5
 10
157.6248170558
 20
127.5953182434
 10
157.6264584119
 20
127.6904055774
 10
157.629188722
 20
127.784522489
 10
157.6330501426
 20
127.8771067309
 10
157.6380005172
 20
127.9672001714
 10
157.6439133754
 20
128.0535233762
 10
157.6508304352
 20
128.1353902055
 10
157.6587099787
 20
128.2121991673
 10
157.6673003827
 20
128.2830009754
 10
157.6766105966
 20
128.3472792678
 10
157.6866316711
 20
128.4047672677
 10
157.6970851346
 20
128.4550991849
 10
157.7079812548
 20
128.4980947482
 10
157.7193097642
 20
128.5335804724
 10
157.7307613884
 20
128.5613994896
 10
157.7423662461
 20
128.5816678207
 10
157.7540942187
 20
128.5944030729
 10
157.7655456762
 20
128.5997553115
 10
157.7685590861
 20
128.6
  0
LWPOLYLINE
  5
4BD
100
AcDbEntity
  8
ASSI
100
AcDbPolyline
 62
7
  6
CONTINUOUS
 90
20
 70
0
 10
157.6242646534
 20
-114.5
 10
157.6248170558
 20
-114.4046817566
 10
157.6264584119
 20
-114.3095944226
 10
157.629188722
 20
-114.215477511
 10
157.6330501426
 20
-114.1228932691
 10
157.6380005172
 20
-114.0327998286
 10
157.6439133754
 20
-113.9464766238
 10
157.6508304352
 20
-113.8646097945
 10
157.6587099787
 20
-113.7878008327
 10
157.6673003827
 20
-113.7169990246
 10
157.6766105966
 20
-113.6527207322
 10
157.6866316711
 20
-113.5952327323
 10
157.6970851346
 20
-113.5449008151
 10
157.7079812548
 20
-113.5019052518
 10
157.7193097642
 20
-113.4664195276
 10
157.7307613884
 20
-113.4386005104
 10
157.7423662461
 20
-113.4183321793
 10
157.7540942187
 20
-113.4055969271
 10
157.7655456762
 20
-113.4002446885
 10
157.7685590861
 20
-113.4
  0
LWPOLYLINE
  5
4BE
100
AcDbEntity
  8
ASSI
100
AcDbPolyline
 62
7
  6
CONTINUOUS
 90
10
 70
0
 10
161.2190020161
 20
90.5750405664
 10
161.1685257029
 20
88.8351934136
 10
161.0953331345
 20
87.095873401
 10
160.9994391007
 20
85.3573759976
 10
160.8808465022
 20
83.6198377182
 10
160.7395779354
 20
81.8837141801
 10
160.5756964522
 20
80.149778414
 10
160.3892537164
 20
78.4184837561
 10
160.1802692442
 20
76.6899655377
 10
159.9487765774
 20
74.964518353
  0
LWPOLYLINE
  5
4BF
100
AcDbEntity
  8
ASSI
100
AcDbPolyline
 62
253
  6
CONTINUOUS
 90
19
 70
0
 10
158.1822626954
 20
106.2513860223
 10
158.1704658962
 20
106.3315871179
 10
158.1522906705
 20
106.4105561712
 10
158.1278565218
 20
106.4877739548
 10
158.0973241066
 20
106.5627327558
 10
158.0608941778
 20
106.6349397144
 10
158.0188062649
 20
106.7039200643
 10
157.9713370993
 20
106.7692202545
 10
157.9187987943
 20
106.8304109312
 10
157.8615367932
 20
106.8870897611
 10
157.7999275981
 20
106.9388840765
 10
157.7343762942
 20
106.9854533259
 10
157.6653138862
 20
107.0264913128
 10
157.5931944649
 20
107.0617282094
 10
157.5184922208
 20
107.0909323305
 10
157.4416983269
 20
107.1139116566
 10
157.363317709
 20
107.130515097
 10
157.2838657256
 20
107.1406334827
 10
157.2190020161
 20
107.1435253986
  0
LWPOLYLINE
  5
4C0
100
AcDbEntity
  8
ASSI
100
AcDbPolyline
 62
7
  6
CONTINUOUS
 90
10
 70
0
 10
159.8857542194
 20
106.2815556794
 10
160.1253658581
 20
104.5460129597
 10
160.3421969999
 20
102.807235964
 10
160.5362114736
 20
101.0655242731
 10
160.7073886384
 20
99.3210077173
 10
160.8556722575
 20
97.5741559853
 10
160.9809928293
 20
95.8257805194
 10
161.0833253801
 20
94.0763536263
 10
161.1626671334
 20
92.3260065819
 10
161.2190020161
 20
90.5750405664
  0
LWPOLYLINE
  5
4C1
100
AcDbEntity
  8
ASSI
100
AcDbPolyline
 62
253
  6
CONTINUOUS
 90
10
 70
0
 10
157.530626176
 20
103.4385576855
 10
157.5124951061
 20
103.478395684
 10
157.4888606948
 20
103.5175963572
 10
157.4598584114
 20
103.5559350118
 10
157.4256544932
 20
103.5931918956
 10
157.3864449928
 20
103.6291534569
 10
157.3424546539
 20
103.6636135686
 10
157.2939356235
 20
103.6963747097
 10
157.2411660066
 20
103.7272490976
 10
157.2190020161
 20
103.7385076456
  0
LINE
  5
4C2
100
AcDbEntity
  8
ASSI
100
AcDbLine
 62
7
  6
CONTINUOUS
 10
158.9779455557
 20
73.6651157737
 11
158.8990026943
 21
73.6617150954
  0
LINE
  5
4C3
100
AcDbEntity
  8
ASSI
100
AcDbLine
 62
7
  6
CONTINUOUS
 10
158.8992424532
 20
73.6617159323
 11
157.2190020161
 21
73.6558507629
  0
LINE
  5
4C4
100
AcDbEntity
  8
ASSI
100
AcDbLine
 62
7
  6
CONTINUOUS
 10
114.5690020161
 20
74.2
 11
115.0690020161
 21
74.2
  0
LINE
  5
4C5
100
AcDbEntity
  8
ASSI
100
AcDbLine
 62
7
  6
CONTINUOUS
 10
139.3690020161
 20
74.2
 11
139.8690020161
 21
74.2
  0
LINE
  5
4C6
100
AcDbEntity
  8
ASSI
100
AcDbLine
 62
7
  6
CONTINUOUS
 10
139.8690020161
 20
78.2
 11
139.3690020161
 21
78.2
  0
LINE
  5
4C7
100
AcDbEntity
  8
ASSI
100
AcDbLine
 62
7
  6
CONTINUOUS
 10
115.0690020161
 20
78.2
 11
114.5690020161
 21
78.2
  0
LWPOLYLINE
  5
4C8
100
AcDbEntity
  8
ASSI
100
AcDbPolyline
 62
253
  6
CONTINUOUS
 90
13
 70
0
 10
157.2190020161
 20
74.6243441768
 10
157.812165277
 20
74.6134086928
 10
158.176422983
 20
74.6055866555
 10
158.5056743175
 20
74.597590038
 10
158.7998265606
 20
74.5894184441
 10
159.0588389634
 20
74.581073126
 10
159.2826708993
 20
74.5725827455
 10
159.471295017
 20
74.5639469697
 10
159.6246788141
 20
74.5551668638
 10
159.7427880446
 20
74.5462730522
 10
159.8256016151
 20
74.5372759103
 10
159.87310139
 20
74.5281656424
 10
159.885670948
 20
74.5200396434
  0
LWPOLYLINE
  5
4C9
100
AcDbEntity
  8
ASSI
100
AcDbPolyline
 62
7
  6
CONTINUOUS
 90
12
 70
0
 10
157.2190020161
 20
90.7095951154
 10
157.7145655059
 20
90.6997032944
 10
158.2894431881
 20
90.6872436027
 10
158.8151071391
 20
90.6747755642
 10
159.2911853986
 20
90.6623010823
 10
159.7172720209
 20
90.6498258669
 10
160.0933063648
 20
90.6373492297
 10
160.4191882177
 20
90.6248718591
 10
160.6946861352
 20
90.61240153
 10
160.9197772153
 20
90.599940834
 10
161.09454282
 20
90.5874871794
 10
161.2190020161
 20
90.5750405664
  0
LWPOLYLINE
  5
4CA
100
AcDbEntity
  8
ASSI
100
AcDbPolyline
 62
253
  6
CONTINUOUS
 90
10
 70
0
 10
159.8857542296
 20
106.281555688
 10
159.8600060633
 20
106.2754701404
 10
159.7949863421
 20
106.2700571887
 10
159.6900228102
 20
106.2653110408
 10
159.544465418
 20
106.2611927303
 10
159.3576230232
 20
106.2577297611
 10
159.1287169627
 20
106.2550149176
 10
158.8569869714
 20
106.2530739383
 10
158.541737715
 20
106.2518666996
 10
158.1822627397
 20
106.2513860272
  0
LWPOLYLINE
  5
4CB
100
AcDbEntity
  8
ASSI
100
AcDbPolyline
 62
253
  6
CONTINUOUS
 90
25
 70
0
 10
158.1822627397
 20
106.2513860272
 10
158.1401743294
 20
106.244714751
 10
158.0994470481
 20
106.2272388426
 10
158.0600831701
 20
106.1989668345
 10
158.0220980281
 20
106.1595635979
 10
157.9854734839
 20
106.1093701159
 10
157.9501636046
 20
106.0494034545
 10
157.9161664902
 20
105.9797444044
 10
157.8834819486
 20
105.9002965622
 10
157.8520732102
 20
105.811806986
 10
157.8219394114
 20
105.7143503573
 10
157.7930790338
 20
105.6078195426
 10
157.7654587593
 20
105.4926862696
 10
157.7390720761
 20
105.3690342593
 10
157.7139217752
 20
105.2367339586
 10
157.6899902863
 20
105.0959350902
 10
157.6672580865
 20
104.9466803393
 10
157.6457379808
 20
104.7888697232
 10
157.6254615737
 20
104.6224364489
 10
157.6064060209
 20
104.4474159652
 10
157.5885864352
 20
104.2637053961
 10
157.5720926185
 20
104.0710270129
 10
157.5569525903
 20
103.8692620298
 10
157.5431316569
 20
103.6584521059
 10
157.4713536543
 20
102.3929405173
  0
LINE
  5
4CC
100
AcDbEntity
  8
SMUSSO
100
AcDbLine
 62
7
  6
CONTINUOUS
 10
157.2190020161
 20
-129.2679491924
 11
154.2190020161
 21
-131.0
  0
LINE
  5
4CD
100
AcDbEntity
  8
0
100
AcDbLine
 62
7
  6
CONTINUOUS
 10
98.4190020161
 20
106.1
 11
97.2190020161
 21
106.1
  0
LINE
  5
4CE
100
AcDbEntity
  8
0
100
AcDbLine
 62
7
  6
CONTINUOUS
 10
98.4190020161
 20
110.1
 11
97.2190020161
 21
110.1
  0
LINE
  5
4CF
100
AcDbEntity
  8
ASSI
100
AcDbLine
 62
7
  6
CONTINUOUS
 10
158.8995557415
 20
107.1382829741
 11
157.2190020161
 21
107.1441492371
  0
LWPOLYLINE
  5
4D0
100
AcDbEntity
  8
ASSI
100
AcDbPolyline
 62
7
  6
CONTINUOUS
 90
22
 70
0
 10
158.8995557415
 20
107.1382829741
 10
158.9672837588
 20
107.1357498097
 10
159.0346845991
 20
107.1286348588
 10
159.1014486637
 20
107.1169708101
 10
159.1672692792
 20
107.1008112496
 10
159.2318441077
 20
107.0802304113
 10
159.2948765349
 20
107.0553228329
 10
159.3560770298
 20
107.026202929
 10
159.4151644765
 20
106.9930044639
 10
159.4718674659
 20
106.9558799302
 10
159.5259255413
 20
106.9149998576
 10
159.5770903936
 20
106.8705520279
 10
159.625127002
 20
106.8227406062
 10
159.6698147171
 20
106.7717852099
 10
159.7109482713
 20
106.7179199003
 10
159.7483387179
 20
106.6613921039
 10
159.7818143086
 20
106.6024614755
 10
159.8112212783
 20
106.5413987103
 10
159.8364245471
 20
106.4784843007
 10
159.8573083477
 20
106.4140072415
 10
159.873776756
 20
106.3482637018
 10
159.8857541282
 20
106.2815556697
  0
LINE
  5
4D1
100
AcDbEntity
  8
SMUSSO
100
AcDbLine
 62
7
  6
CONTINUOUS
 10
157.2190020161
 20
-146.2679491924
 11
154.2190020161
 21
-148.0
  0
LINE
  5
4D2
100
AcDbEntity
  8
SMUSSO
100
AcDbLine
 62
253
  6
CONTINUOUS
 10
157.2190020161
 20
-130.8344247829
 11
154.2190020161
 21
-132.1634460547
  0
LINE
  5
4D3
100
AcDbEntity
  8
0
100
AcDbLine
 62
7
  6
CONTINUOUS
 10
99.1190020161
 20
120.1
 11
151.4190020161
 21
120.1
  0
LINE
  5
4D4
100
AcDbEntity
  8
0
100
AcDbLine
 62
7
  6
CONTINUOUS
 10
97.6190020161
 20
123.2
 11
98.4190020161
 21
123.2
  0
LWPOLYLINE
  5
4D5
100
AcDbEntity
  8
ASSI
100
AcDbPolyline
 62
7
  6
CONTINUOUS
 90
31
 70
0
 10
157.7685590861
 20
128.6
 10
157.7766566746
 20
128.5982508462
 10
157.7874911578
 20
128.5904567205
 10
157.7978413279
 20
128.5770036692
 10
157.8076660507
 20
128.5585508552
 10
157.8170064604
 20
128.5357239369
 10
157.825778162
 20
128.5092077695
 10
157.8339438986
 20
128.4796807947
 10
157.8415409271
 20
128.4477007402
 10
157.8485966223
 20
128.4137316725
 10
157.8550854693
 20
128.378371859
 10
157.8610329829
 20
128.342004975
 10
157.866543083
 20
128.3046124148
 10
157.8716152127
 20
128.2665641577
 10
157.8762499288
 20
128.2281221278
 10
157.8805528213
 20
128.1889070253
 10
157.8845325378
 20
128.1491527766
 10
157.8881804308
 20
128.1089917491
 10
157.8915761477
 20
128.0677165743
 10
157.8947456969
 20
128.0252317533
 10
157.89766307
 20
127.9818035612
 10
157.9003298897
 20
127.9371670505
 10
157.9027566108
 20
127.8912274707
 10
157.9049327784
 20
127.8442255248
 10
157.9068286503
 20
127.7963897004
 10
157.9084392894
 20
127.7477756797
 10
157.9097696329
 20
127.6985171767
 10
157.9108047501
 20
127.6489782047
 10
157.9115396641
 20
127.5993534177
 10
157.9119793519
 20
127.5496596366
 10
157.9121238133
 20
127.5
  0
LWPOLYLINE
  5
4D6
100
AcDbEntity
  8
ASSI
100
AcDbPolyline
 62
7
  6
CONTINUOUS
 90
19
 70
0
 10
157.768576701
 20
126.4
 10
157.7571092027
 20
126.4035053018
 10
157.7459779337
 20
126.4135945111
 10
157.7348528742
 20
126.430591786
 10
157.7237210757
 20
126.4547613001
 10
157.7125954867
 20
126.4863298844
 10
157.70178606
 20
126.5252997908
 10
157.6912991907
 20
126.5716219185
 10
157.6811284838
 20
126.6252991377
 10
157.6715647065
 20
126.6862375856
 10
157.6626031787
 20
126.7542766343
 10
157.6542485806
 20
126.8291132883
 10
157.6468057193
 20
126.9103080928
 10
157.6402887894
 20
126.9973146046
 10
157.6346835964
 20
127.089647837
 10
157.630252364
 20
127.1868331779
 10
157.6270824999
 20
127.2882079826
 10
157.6250865964
 20
127.3929002055
 10
157.6242646534
 20
127.5
  0
LINE
  5
4D7
100
AcDbEntity
  8
SMUSSO
100
AcDbLine
 62
7
  6
CONTINUOUS
 10
157.2190020161
 20
142.2679491924
 11
154.2190020161
 21
144.0
  0
LINE
  5
4D8
100
AcDbEntity
  8
0
100
AcDbLine
 62
253
  6
CONTINUOUS
 10
151.4190020161
 20
135.5
 11
99.1190020161
 21
135.5
  0
LINE
  5
4D9
100
AcDbEntity
  8
0
100
AcDbLine
 62
253
  6
CONTINUOUS
 10
97.6190020161
 20
135.5
 11
98.4190020161
 21
135.5
  0
LINE
  5
4DA
100
AcDbEntity
  8
0
100
AcDbLine
 62
7
  6
CONTINUOUS
 10
99.1190020161
 20
136.2
 11
98.4190020161
 21
136.2
  0
LINE
  5
4DB
100
AcDbEntity
  8
0
100
AcDbLine
 62
7
  6
CONTINUOUS
 10
151.4190020161
 20
137.0
 11
99.1190020161
 21
137.0
  0
LINE
  5
4DC
100
AcDbEntity
  8
SMUSSO
100
AcDbLine
 62
253
  6
CONTINUOUS
 10
157.2190020161
 20
139.0
 11
153.2190020161
 21
139.0
  0
LINE
  5
4DD
100
AcDbEntity
  8
0
100
AcDbLine
 62
253
  6
CONTINUOUS
 10
151.4190020161
 20
139.0
 11
153.2190020161
 21
139.0
  0
LINE
  5
4DE
100
AcDbEntity
  8
SMUSSO
100
AcDbLine
 62
253
  6
CONTINUOUS
 10
157.2190020161
 20
143.8344247835
 11
154.2190020161
 21
145.1634460552
  0
LINE
  5
4DF
100
AcDbEntity
  8
SMUSSO
100
AcDbLine
 62
7
  6
CONTINUOUS
 10
157.2190020161
 20
159.2679491924
 11
154.2190020161
 21
161.0
  0
LINE
  5
4E0
100
AcDbEntity
  8
SMUSSO
100
AcDbLine
 62
7
  6
CONTINUOUS
 10
154.2190020161
 20
144.0
 11
153.2190020161
 21
144.0
  0
LINE
  5
4E1
100
AcDbEntity
  8
0
100
AcDbLine
 62
7
  6
CONTINUOUS
 10
151.4190020161
 20
144.0
 11
153.2190020161
 21
144.0
  0
LINE
  5
4E2
100
AcDbEntity
  8
SMUSSO
100
AcDbLine
 62
253
  6
CONTINUOUS
 10
153.2190020161
 20
145.1634460547
 11
154.2190020161
 21
145.1634460547
  0
LINE
  5
4E3
100
AcDbEntity
  8
0
100
AcDbLine
 62
7
  6
CONTINUOUS
 10
153.2190020161
 20
161.0
 11
151.4190020161
 21
161.0
  0
LINE
  5
4E4
100
AcDbEntity
  8
SUPERFICI
100
AcDbLine
 62
7
  6
CONTINUOUS
 10
153.2190020161
 20
161.0
 11
154.2190020161
 21
161.0
  0
ARC
  5
4E5
100
AcDbEntity
  8
DRAFT
100
AcDbCircle
 62
7
  6
CONTINUOUS
 10
-16.9
 20
-11.3
 40
9.443375673
100
AcDbArc
 50
90.0
 51
270.0
  0
ARC
  5
4E6
100
AcDbEntity
  8
DRAFT
100
AcDbCircle
 62
7
  6
CONTINUOUS
 10
-16.9
 20
-11.3
 40
8.0
100
AcDbArc
 50
90.0
 51
270.0
  0
ARC
  5
4E7
100
AcDbEntity
  8
DRAFT
100
AcDbCircle
 62
7
  6
CONTINUOUS
 10
-17.0
 20
-11.3
 40
7.8447634805
100
AcDbArc
 50
90.0
 51
270.0
  0
ARC
  5
4E8
100
AcDbEntity
  8
RACCORDO
100
AcDbCircle
 62
253
  6
CONTINUOUS
 10
-17.0
 20
-11.3
 40
7.820265463
100
AcDbArc
 50
90.0
 51
270.0
  0
ARC
  5
4E9
100
AcDbEntity
  8
RACCORDO
100
AcDbCircle
 62
253
  6
CONTINUOUS
 10
-17.0
 20
-11.3
 40
7.620295924
100
AcDbArc
 50
90.0
 51
270.0
  0
ARC
  5
4EA
100
AcDbEntity
  8
SMUSSO
100
AcDbCircle
 62
7
  6
CONTINUOUS
 10
-46.8508271005
 20
-136.0
 40
6.7320508076
100
AcDbArc
 50
50.1130104248
 51
90.0
  0
ARC
  5
4EB
100
AcDbEntity
  8
SMUSSO
100
AcDbCircle
 62
7
  6
CONTINUOUS
 10
-55.0
 20
-126.0
 40
5.0
100
AcDbArc
 50
180.0
 51
270.0
  0
ARC
  5
4EC
100
AcDbEntity
  8
SMUSSO
100
AcDbCircle
 62
7
  6
CONTINUOUS
 10
-46.8508271005
 20
-136.0
 40
5.0
100
AcDbArc
 50
50.1130104248
 51
90.0
  0
ARC
  5
4ED
100
AcDbEntity
  8
SMUSSO
100
AcDbCircle
 62
7
  6
CONTINUOUS
 10
-55.0
 20
-126.0
 40
3.2679491924
100
AcDbArc
 50
180.0
 51
270.0
  0
CIRCLE
  5
4EE
100
AcDbEntity
  8
ASSI
100
AcDbCircle
 62
7
  6
CONTINUOUS
 10
-3.5
 20
-114.5
 40
1.1
  0
CIRCLE
  5
4EF
100
AcDbEntity
  8
SMUSSO
100
AcDbCircle
 62
7
  6
CONTINUOUS
 10
-3.5
 20
-114.5
 40
0.5
  0
ARC
  5
4F0
100
AcDbEntity
  8
RACCORDO
100
AcDbCircle
 62
7
  6
CONTINUOUS
 10
-19.34
 20
74.49
 40
54.74
100
AcDbArc
 50
2.1155742057
 51
32.8697756007
  0
ARC
  5
4F1
100
AcDbEntity
  8
RACCORDO
100
AcDbCircle
 62
7
  6
CONTINUOUS
 10
-20.7571258322
 20
100.4
 40
7.0
100
AcDbArc
 50
90.0
 51
147.1302243993
  0
ARC
  5
4F2
100
AcDbEntity
  8
SMUSSO
100
AcDbCircle
 62
7
  6
CONTINUOUS
 10
-46.8508271005
 20
149.0
 40
6.7320508076
100
AcDbArc
 50
270.0
 51
309.8869895752
  0
ARC
  5
4F3
100
AcDbEntity
  8
SMUSSO
100
AcDbCircle
 62
7
  6
CONTINUOUS
 10
-46.8508271005
 20
149.0
 40
5.0
100
AcDbArc
 50
270.0
 51
309.8869895752
  0
ARC
  5
4F4
100
AcDbEntity
  8
SMUSSO
100
AcDbCircle
 62
7
  6
CONTINUOUS
 10
-55.0
 20
139.0
 40
5.0
100
AcDbArc
 50
90.0
 51
180.0
  0
ARC
  5
4F5
100
AcDbEntity
  8
SMUSSO
100
AcDbCircle
 62
7
  6
CONTINUOUS
 10
-55.0
 20
139.0
 40
3.2679491924
100
AcDbArc
 50
90.0
 51
180.0
  0
ARC
  5
4F6
100
AcDbEntity
  8
RACCORDO
100
AcDbCircle
 62
7
  6
CONTINUOUS
 10
-32.3647338258
 20
76.4
 40
3.0
100
AcDbArc
 50
177.8844257943
 51
270.0
  0
ARC
  5
4F7
100
AcDbEntity
  8
ASSI
100
AcDbCircle
 62
7
  6
CONTINUOUS
 10
-29.6
 20
26.575
 40
1.35
100
AcDbArc
 50
90.0
 51
180.0
  0
ARC
  5
4F8
100
AcDbEntity
  8
ASSI
100
AcDbCircle
 62
7
  6
CONTINUOUS
 10
-29.6
 20
26.425
 40
1.35
100
AcDbArc
 50
180.0
 51
270.0
  0
ARC
  5
4F9
100
AcDbEntity
  8
ASSI
100
AcDbCircle
 62
7
  6
CONTINUOUS
 10
-3.0
 20
26.425
 40
1.35
100
AcDbArc
 50
270.0
 51
360.0
  0
ARC
  5
4FA
100
AcDbEntity
  8
ASSI
100
AcDbCircle
 62
7
  6
CONTINUOUS
 10
-3.0
 20
26.575
 40
1.35
100
AcDbArc
 50
0.0
 51
90.0
  0
ARC
  5
4FB
100
AcDbEntity
  8
ASSI
100
AcDbCircle
 62
7
  6
CONTINUOUS
 10
-29.6
 20
33.075
 40
1.35
100
AcDbArc
 50
90.0
 51
180.0
  0
ARC
  5
4FC
100
AcDbEntity
  8
ASSI
100
AcDbCircle
 62
7
  6
CONTINUOUS
 10
-29.6
 20
32.925
 40
1.35
100
AcDbArc
 50
180.0
 51
270.0
  0
ARC
  5
4FD
100
AcDbEntity
  8
ASSI
100
AcDbCircle
 62
7
  6
CONTINUOUS
 10
-3.0
 20
32.925
 40
1.35
100
AcDbArc
 50
270.0
 51
360.0
  0
ARC
  5
4FE
100
AcDbEntity
  8
ASSI
100
AcDbCircle
 62
7
  6
CONTINUOUS
 10
-3.0
 20
33.075
 40
1.35
100
AcDbArc
 50
0.0
 51
90.0
  0
ARC
  5
4FF
100
AcDbEntity
  8
ASSI
100
AcDbCircle
 62
7
  6
CONTINUOUS
 10
-29.6
 20
39.575
 40
1.35
100
AcDbArc
 50
90.0
 51
180.0
  0
ARC
  5
500
100
AcDbEntity
  8
ASSI
100
AcDbCircle
 62
7
  6
CONTINUOUS
 10
-29.6
 20
39.425
 40
1.35
100
AcDbArc
 50
180.0
 51
270.0
  0
ARC
  5
501
100
AcDbEntity
  8
ASSI
100
AcDbCircle
 62
7
  6
CONTINUOUS
 10
-3.0
 20
39.425
 40
1.35
100
AcDbArc
 50
270.0
 51
360.0
  0
ARC
  5
502
100
AcDbEntity
  8
ASSI
100
AcDbCircle
 62
7
  6
CONTINUOUS
 10
-3.0
 20
39.575
 40
1.35
100
AcDbArc
 50
0.0
 51
90.0
  0
ARC
  5
503
100
AcDbEntity
  8
ASSI
100
AcDbCircle
 62
7
  6
CONTINUOUS
 10
-29.6
 20
46.075
 40
1.35
100
AcDbArc
 50
90.0
 51
180.0
  0
ARC
  5
504
100
AcDbEntity
  8
ASSI
100
AcDbCircle
 62
7
  6
CONTINUOUS
 10
-29.6
 20
45.925
 40
1.35
100
AcDbArc
 50
180.0
 51
270.0
  0
ARC
  5
505
100
AcDbEntity
  8
ASSI
100
AcDbCircle
 62
7
  6
CONTINUOUS
 10
-3.0
 20
45.925
 40
1.35
100
AcDbArc
 50
270.0
 51
360.0
  0
ARC
  5
506
100
AcDbEntity
  8
ASSI
100
AcDbCircle
 62
7
  6
CONTINUOUS
 10
-3.0
 20
46.075
 40
1.35
100
AcDbArc
 50
0.0
 51
90.0
  0
ARC
  5
507
100
AcDbEntity
  8
ASSI
100
AcDbCircle
 62
7
  6
CONTINUOUS
 10
-29.6
 20
52.575
 40
1.35
100
AcDbArc
 50
90.0
 51
180.0
  0
ARC
  5
508
100
AcDbEntity
  8
ASSI
100
AcDbCircle
 62
7
  6
CONTINUOUS
 10
-29.6
 20
52.425
 40
1.35
100
AcDbArc
 50
180.0
 51
270.0
  0
ARC
  5
509
100
AcDbEntity
  8
ASSI
100
AcDbCircle
 62
7
  6
CONTINUOUS
 10
-3.0
 20
52.425
 40
1.35
100
AcDbArc
 50
270.0
 51
360.0
  0
ARC
  5
50A
100
AcDbEntity
  8
ASSI
100
AcDbCircle
 62
7
  6
CONTINUOUS
 10
-3.0
 20
52.575
 40
1.35
100
AcDbArc
 50
0.0
 51
90.0
  0
ARC
  5
50B
100
AcDbEntity
  8
ASSI
100
AcDbCircle
 62
7
  6
CONTINUOUS
 10
-29.6
 20
59.075
 40
1.35
100
AcDbArc
 50
90.0
 51
180.0
  0
ARC
  5
50C
100
AcDbEntity
  8
ASSI
100
AcDbCircle
 62
7
  6
CONTINUOUS
 10
-29.6
 20
58.925
 40
1.35
100
AcDbArc
 50
180.0
 51
270.0
  0
ARC
  5
50D
100
AcDbEntity
  8
ASSI
100
AcDbCircle
 62
7
  6
CONTINUOUS
 10
-3.0
 20
58.925
 40
1.35
100
AcDbArc
 50
270.0
 51
360.0
  0
ARC
  5
50E
100
AcDbEntity
  8
ASSI
100
AcDbCircle
 62
7
  6
CONTINUOUS
 10
-3.0
 20
59.075
 40
1.35
100
AcDbArc
 50
0.0
 51
90.0
  0
CIRCLE
  5
50F
100
AcDbEntity
  8
ASSI
100
AcDbCircle
 62
7
  6
CONTINUOUS
 10
-3.5
 20
127.5
 40
1.1
  0
CIRCLE
  5
510
100
AcDbEntity
  8
SMUSSO
100
AcDbCircle
 62
7
  6
CONTINUOUS
 10
-3.5
 20
127.5
 40
0.5
  0
ARC
  5
511
100
AcDbEntity
  8
SMUSSO
100
AcDbCircle
 62
7
  6
CONTINUOUS
 10
-0.0
 20
-79.9411764706
 40
68.0588235294
100
AcDbArc
 50
230.1130104248
 51
309.8869895752
  0
ARC
  5
512
100
AcDbEntity
  8
SMUSSO
100
AcDbCircle
 62
7
  6
CONTINUOUS
 10
0.0
 20
-79.9411764706
 40
66.3267727218
100
AcDbArc
 50
230.1130104248
 51
309.8869895752
  0
ARC
  5
513
100
AcDbEntity
  8
DRAFT
100
AcDbCircle
 62
7
  6
CONTINUOUS
 10
16.9
 20
-11.3
 40
9.443375673
100
AcDbArc
 50
270.0
 51
90.0
  0
ARC
  5
514
100
AcDbEntity
  8
DRAFT
100
AcDbCircle
 62
7
  6
CONTINUOUS
 10
16.9
 20
-11.3
 40
8.0
100
AcDbArc
 50
270.0
 51
90.0
  0
ARC
  5
515
100
AcDbEntity
  8
DRAFT
100
AcDbCircle
 62
7
  6
CONTINUOUS
 10
16.8
 20
-11.3
 40
7.8447634805
100
AcDbArc
 50
270.0
 51
90.0
  0
ARC
  5
516
100
AcDbEntity
  8
RACCORDO
100
AcDbCircle
 62
253
  6
CONTINUOUS
 10
16.8
 20
-11.3
 40
7.820265463
100
AcDbArc
 50
270.0
 51
90.0
  0
ARC
  5
517
100
AcDbEntity
  8
RACCORDO
100
AcDbCircle
 62
253
  6
CONTINUOUS
 10
16.8
 20
-11.3
 40
7.620295924
100
AcDbArc
 50
270.0
 51
90.0
  0
CIRCLE
  5
518
100
AcDbEntity
  8
ASSI
100
AcDbCircle
 62
7
  6
CONTINUOUS
 10
0.0
 20
-114.5
 40
6.75
  0
ARC
  5
519
100
AcDbEntity
  8
SMUSSO
100
AcDbCircle
 62
7
  6
CONTINUOUS
 10
46.8508271005
 20
-136.0
 40
6.7320508076
100
AcDbArc
 50
90.0
 51
129.8869895752
  0
CIRCLE
  5
51A
100
AcDbEntity
  8
0
100
AcDbCircle
 62
7
  6
CONTINUOUS
 10
0.0
 20
-114.5
 40
6.5
  0
ARC
  5
51B
100
AcDbEntity
  8
SMUSSO
100
AcDbCircle
 62
7
  6
CONTINUOUS
 10
46.8508271005
 20
-136.0
 40
5.0
100
AcDbArc
 50
90.0
 51
129.8869895752
  0
ARC
  5
51C
100
AcDbEntity
  8
SMUSSO
100
AcDbCircle
 62
7
  6
CONTINUOUS
 10
55.0
 20
-126.0
 40
5.0
100
AcDbArc
 50
270.0
 51
360.0
  0
ARC
  5
51D
100
AcDbEntity
  8
SMUSSO
100
AcDbCircle
 62
7
  6
CONTINUOUS
 10
55.0
 20
-126.0
 40
3.2679491924
100
AcDbArc
 50
270.0
 51
360.0
  0
CIRCLE
  5
51E
100
AcDbEntity
  8
ASSI
100
AcDbCircle
 62
7
  6
CONTINUOUS
 10
3.5
 20
-114.5
 40
1.1
  0
ARC
  5
51F
100
AcDbEntity
  8
0
100
AcDbCircle
 62
7
  6
CONTINUOUS
 10
38.8
 20
-118.5
 40
1.0
100
AcDbArc
 50
180.0
 51
270.0
  0
ARC
  5
520
100
AcDbEntity
  8
0
100
AcDbCircle
 62
7
  6
CONTINUOUS
 10
41.0
 20
-118.5
 40
1.0
100
AcDbArc
 50
270.0
 51
360.0
  0
ARC
  5
521
100
AcDbEntity
  8
0
100
AcDbCircle
 62
7
  6
CONTINUOUS
 10
41.0
 20
-110.4
 40
1.0
100
AcDbArc
 50
0.0
 51
90.0
  0
ARC
  5
522
100
AcDbEntity
  8
0
100
AcDbCircle
 62
7
  6
CONTINUOUS
 10
38.8
 20
-110.4
 40
1.0
100
AcDbArc
 50
90.0
 51
180.0
  0
CIRCLE
  5
523
100
AcDbEntity
  8
SMUSSO
100
AcDbCircle
 62
7
  6
CONTINUOUS
 10
3.5
 20
-114.5
 40
0.5
  0
ARC
  5
524
100
AcDbEntity
  8
RACCORDO
100
AcDbCircle
 62
7
  6
CONTINUOUS
 10
19.34
 20
74.49
 40
54.74
100
AcDbArc
 50
147.1302243993
 51
177.8844257943
  0
ARC
  5
525
100
AcDbEntity
  8
ASSI
100
AcDbCircle
 62
7
  6
CONTINUOUS
 10
3.0
 20
26.575
 40
1.35
100
AcDbArc
 50
90.0
 51
180.0
  0
ARC
  5
526
100
AcDbEntity
  8
ASSI
100
AcDbCircle
 62
7
  6
CONTINUOUS
 10
3.0
 20
26.425
 40
1.35
100
AcDbArc
 50
180.0
 51
270.0
  0
ARC
  5
527
100
AcDbEntity
  8
ASSI
100
AcDbCircle
 62
7
  6
CONTINUOUS
 10
3.0
 20
33.075
 40
1.35
100
AcDbArc
 50
90.0
 51
180.0
  0
ARC
  5
528
100
AcDbEntity
  8
ASSI
100
AcDbCircle
 62
7
  6
CONTINUOUS
 10
3.0
 20
32.925
 40
1.35
100
AcDbArc
 50
180.0
 51
270.0
  0
ARC
  5
529
100
AcDbEntity
  8
ASSI
100
AcDbCircle
 62
7
  6
CONTINUOUS
 10
3.0
 20
39.575
 40
1.35
100
AcDbArc
 50
90.0
 51
180.0
  0
ARC
  5
52A
100
AcDbEntity
  8
ASSI
100
AcDbCircle
 62
7
  6
CONTINUOUS
 10
3.0
 20
39.425
 40
1.35
100
AcDbArc
 50
180.0
 51
270.0
  0
ARC
  5
52B
100
AcDbEntity
  8
ASSI
100
AcDbCircle
 62
7
  6
CONTINUOUS
 10
3.0
 20
46.075
 40
1.35
100
AcDbArc
 50
90.0
 51
180.0
  0
ARC
  5
52C
100
AcDbEntity
  8
ASSI
100
AcDbCircle
 62
7
  6
CONTINUOUS
 10
3.0
 20
45.925
 40
1.35
100
AcDbArc
 50
180.0
 51
270.0
  0
ARC
  5
52D
100
AcDbEntity
  8
ASSI
100
AcDbCircle
 62
7
  6
CONTINUOUS
 10
3.0
 20
52.575
 40
1.35
100
AcDbArc
 50
90.0
 51
180.0
  0
ARC
  5
52E
100
AcDbEntity
  8
ASSI
100
AcDbCircle
 62
7
  6
CONTINUOUS
 10
3.0
 20
52.425
 40
1.35
100
AcDbArc
 50
180.0
 51
270.0
  0
ARC
  5
52F
100
AcDbEntity
  8
ASSI
100
AcDbCircle
 62
7
  6
CONTINUOUS
 10
3.0
 20
58.925
 40
1.35
100
AcDbArc
 50
180.0
 51
270.0
  0
ARC
  5
530
100
AcDbEntity
  8
ASSI
100
AcDbCircle
 62
7
  6
CONTINUOUS
 10
3.0
 20
59.075
 40
1.35
100
AcDbArc
 50
90.0
 51
180.0
  0
ARC
  5
531
100
AcDbEntity
  8
SMUSSO
100
AcDbCircle
 62
7
  6
CONTINUOUS
 10
-0.0
 20
92.9411764706
 40
68.0588235294
100
AcDbArc
 50
50.1130104248
 51
129.8869895752
  0
ARC
  5
532
100
AcDbEntity
  8
SMUSSO
100
AcDbCircle
 62
7
  6
CONTINUOUS
 10
-0.0
 20
92.9411764706
 40
66.3267727218
100
AcDbArc
 50
50.1130104248
 51
129.8869895752
  0
ARC
  5
533
100
AcDbEntity
  8
RACCORDO
100
AcDbCircle
 62
7
  6
CONTINUOUS
 10
20.7571258322
 20
100.4
 40
7.0
100
AcDbArc
 50
32.8697756007
 51
90.0
  0
CIRCLE
  5
534
100
AcDbEntity
  8
ASSI
100
AcDbCircle
 62
7
  6
CONTINUOUS
 10
-0.0
 20
127.5
 40
6.75
  0
CIRCLE
  5
535
100
AcDbEntity
  8
0
100
AcDbCircle
 62
7
  6
CONTINUOUS
 10
-0.0
 20
127.5
 40
6.5
  0
CIRCLE
  5
536
100
AcDbEntity
  8
ASSI
100
AcDbCircle
 62
7
  6
CONTINUOUS
 10
3.5
 20
127.5
 40
1.1
  0
CIRCLE
  5
537
100
AcDbEntity
  8
SMUSSO
100
AcDbCircle
 62
7
  6
CONTINUOUS
 10
3.5
 20
127.5
 40
0.5
  0
ARC
  5
538
100
AcDbEntity
  8
RACCORDO
100
AcDbCircle
 62
7
  6
CONTINUOUS
 10
32.3647338258
 20
76.4
 40
3.0
100
AcDbArc
 50
270.0
 51
2.1155742057
  0
ARC
  5
539
100
AcDbEntity
  8
ASSI
100
AcDbCircle
 62
7
  6
CONTINUOUS
 10
29.6
 20
26.425
 40
1.35
100
AcDbArc
 50
270.0
 51
360.0
  0
ARC
  5
53A
100
AcDbEntity
  8
ASSI
100
AcDbCircle
 62
7
  6
CONTINUOUS
 10
29.6
 20
26.575
 40
1.35
100
AcDbArc
 50
0.0
 51
90.0
  0
ARC
  5
53B
100
AcDbEntity
  8
ASSI
100
AcDbCircle
 62
7
  6
CONTINUOUS
 10
29.6
 20
32.925
 40
1.35
100
AcDbArc
 50
270.0
 51
360.0
  0
ARC
  5
53C
100
AcDbEntity
  8
ASSI
100
AcDbCircle
 62
7
  6
CONTINUOUS
 10
29.6
 20
33.075
 40
1.35
100
AcDbArc
 50
0.0
 51
90.0
  0
ARC
  5
53D
100
AcDbEntity
  8
ASSI
100
AcDbCircle
 62
7
  6
CONTINUOUS
 10
29.6
 20
39.425
 40
1.35
100
AcDbArc
 50
270.0
 51
360.0
  0
ARC
  5
53E
100
AcDbEntity
  8
ASSI
100
AcDbCircle
 62
7
  6
CONTINUOUS
 10
29.6
 20
39.575
 40
1.35
100
AcDbArc
 50
0.0
 51
90.0
  0
ARC
  5
53F
100
AcDbEntity
  8
ASSI
100
AcDbCircle
 62
7
  6
CONTINUOUS
 10
29.6
 20
45.925
 40
1.35
100
AcDbArc
 50
270.0
 51
360.0
  0
ARC
  5
540
100
AcDbEntity
  8
ASSI
100
AcDbCircle
 62
7
  6
CONTINUOUS
 10
29.6
 20
46.075
 40
1.35
100
AcDbArc
 50
0.0
 51
90.0
  0
ARC
  5
541
100
AcDbEntity
  8
ASSI
100
AcDbCircle
 62
7
  6
CONTINUOUS
 10
29.6
 20
52.425
 40
1.35
100
AcDbArc
 50
270.0
 51
360.0
  0
ARC
  5
542
100
AcDbEntity
  8
ASSI
100
AcDbCircle
 62
7
  6
CONTINUOUS
 10
29.6
 20
52.575
 40
1.35
100
AcDbArc
 50
0.0
 51
90.0
  0
ARC
  5
543
100
AcDbEntity
  8
ASSI
100
AcDbCircle
 62
7
  6
CONTINUOUS
 10
29.6
 20
58.925
 40
1.35
100
AcDbArc
 50
270.0
 51
360.0
  0
ARC
  5
544
100
AcDbEntity
  8
ASSI
100
AcDbCircle
 62
7
  6
CONTINUOUS
 10
29.6
 20
59.075
 40
1.35
100
AcDbArc
 50
0.0
 51
90.0
  0
ARC
  5
545
100
AcDbEntity
  8
SMUSSO
100
AcDbCircle
 62
7
  6
CONTINUOUS
 10
46.8508271005
 20
149.0
 40
6.7320508076
100
AcDbArc
 50
230.1130104248
 51
270.0
  0
ARC
  5
546
100
AcDbEntity
  8
SMUSSO
100
AcDbCircle
 62
7
  6
CONTINUOUS
 10
46.8508271005
 20
149.0
 40
5.0
100
AcDbArc
 50
230.1130104248
 51
270.0
  0
ARC
  5
547
100
AcDbEntity
  8
SMUSSO
100
AcDbCircle
 62
7
  6
CONTINUOUS
 10
55.0
 20
139.0
 40
5.0
100
AcDbArc
 50
0.0
 51
90.0
  0
ARC
  5
548
100
AcDbEntity
  8
SMUSSO
100
AcDbCircle
 62
7
  6
CONTINUOUS
 10
55.0
 20
139.0
 40
3.2679491924
100
AcDbArc
 50
0.0
 51
90.0
  0
ARC
  5
549
100
AcDbEntity
  8
0
100
AcDbCircle
 62
7
  6
CONTINUOUS
 10
131.0190020161
 20
-114.5
 40
27.0
100
AcDbArc
 50
346.0697364075
 51
13.9302635925
  0
ARC
  5
54A
100
AcDbEntity
  8
0
100
AcDbCircle
 62
7
  6
CONTINUOUS
 10
131.0190020161
 20
127.5
 40
27.0
100
AcDbArc
 50
346.0697364075
 51
13.9302635925
  0
ARC
  5
54B
100
AcDbEntity
  8
ASSI
100
AcDbCircle
 62
7
  6
CONTINUOUS
 10
127.2190020161
 20
89.25
 40
12.65
100
AcDbArc
 50
0.0
 51
180.0
  0
ARC
  5
54C
100
AcDbEntity
  8
ASSI
100
AcDbCircle
 62
7
  6
CONTINUOUS
 10
127.2190020161
 20
63.15
 40
12.65
100
AcDbArc
 50
180.0
 51
360.0
  0
ARC
  5
54D
100
AcDbEntity
  8
ASSI
100
AcDbCircle
 62
7
  6
CONTINUOUS
 10
127.2190020161
 20
-76.25
 40
12.65
100
AcDbArc
 50
180.0
 51
360.0
  0
ARC
  5
54E
100
AcDbEntity
  8
ASSI
100
AcDbCircle
 62
7
  6
CONTINUOUS
 10
127.2190020161
 20
-50.15
 40
12.65
100
AcDbArc
 50
0.0
 51
180.0
  0
ARC
  5
54F
100
AcDbEntity
  8
ASSI
100
AcDbCircle
 62
7
  6
CONTINUOUS
 10
127.2190020161
 20
89.25
 40
12.15
100
AcDbArc
 50
0.0
 51
180.0
  0
ARC
  5
550
100
AcDbEntity
  8
ASSI
100
AcDbCircle
 62
7
  6
CONTINUOUS
 10
127.2190020161
 20
63.15
 40
12.15
100
AcDbArc
 50
180.0
 51
360.0
  0
ARC
  5
551
100
AcDbEntity
  8
ASSI
100
AcDbCircle
 62
7
  6
CONTINUOUS
 10
127.2190020161
 20
-76.25
 40
12.15
100
AcDbArc
 50
180.0
 51
360.0
  0
ARC
  5
552
100
AcDbEntity
  8
ASSI
100
AcDbCircle
 62
7
  6
CONTINUOUS
 10
127.2190020161
 20
-50.15
 40
12.15
100
AcDbArc
 50
0.0
 51
180.0
  0
ARC
  5
553
100
AcDbEntity
  8
0
100
AcDbCircle
 62
7
  6
CONTINUOUS
 10
99.1190020161
 20
-122.5
 40
1.5
100
AcDbArc
 50
180.0
 51
270.0
  0
ARC
  5
554
100
AcDbEntity
  8
0
100
AcDbCircle
 62
7
  6
CONTINUOUS
 10
99.1190020161
 20
135.5
 40
1.5
100
AcDbArc
 50
90.0
 51
180.0
  0
ARC
  5
555
100
AcDbEntity
  8
ASSI
100
AcDbCircle
 62
7
  6
CONTINUOUS
 10
158.8957567781
 20
74.6617098573
 40
1.0
100
AcDbArc
 50
270.2000000001
 51
351.8546019022
  0
ENDSEC
  0
SECTION
  2
OBJECTS
  0
DICTIONARY
  5
C
100
AcDbDictionary
280
0
281
1
  3
ACAD_GROUP
350
D
  3
ACAD_MLINESTYLE
350
17
  3
ACAD_LAYOUT
350
1A
  3
ACAD_PLOTSETTINGS
350
19
  3
ACAD_PLOTSTYLENAME
350
E
  0
DICTIONARY
  5
D
102
{ACAD_REACTORS
330
C
102
}
100
AcDbDictionary
280
0
281
1
  0
ACDBDICTIONARYWDFLT
  5
E
102
{ACAD_REACTORS
330
C
102
}
100
AcDbDictionary
281
1
  3
Normal
350
F
100
AcDbDictionaryWithDefault
340
F
  0
DICTIONARY
  5
17
102
{ACAD_REACTORS
330
C
102
}
100
AcDbDictionary
280
0
281
1
  3
Standard
350
18
  0
DICTIONARY
  5
19
102
{ACAD_REACTORS
330
C
102
}
100
AcDbDictionary
281
1
  0
DICTIONARY
  5
1A
102
{ACAD_REACTORS
330
C
102
}
100
AcDbDictionary
281
1
  3
Model
350
556
  3
Layout1
350
557
  0
ACDBPLACEHOLDER
  5
F
102
{ACAD_REACTORS
330
E
102
}
  0
MLINESTYLE
  5
18
102
{ACAD_REACTORS
330
17
102
}
100
AcDbMlineStyle
  2
STANDARD
 70
0
  3

 62
256
 51
90.0
 52
90.0
 71
2
 49
0.5
 62
256
  6
BYLAYER
 49
-0.5
 62
256
  6
BYLAYER
  0
LAYOUT
  5
556
102
{ACAD_REACTORS
330
1A
102
}
100
AcDbPlotSettings
  1

  2
none_device
  4

  6

 40
0.0
 41
0.0
 42
0.0
 43
0.0
 44
297.0
 45
420.0
 46
0.0
 47
0.0
 48
0.0
 49
0.0
140
0.0
141
0.0
142
1.0
143
1.0
 70
1024
 72
1
 73
0
 74
0
  7

 75
0
147
1.0
148
0.0
149
0.0
100
AcDbLayout
  1
Model
 70
0
 71
0
 10
0.0
 20
0.0
 11
297.0
 21
420.0
 12
0.0
 22
0.0
 32
0.0
 14
0.0
 24
0.0
 34
0.0
 15
0.0
 25
0.0
 35
0.0
146
0.0
 13
0.0
 23
0.0
 33
0.0
 16
1.0
 26
0.0
 36
0.0
 17
0.0
 27
1.0
 37
0.0
 76
0
330
218
345
0
346
0
  0
LAYOUT
  5
557
102
{ACAD_REACTORS
330
1A
102
}
100
AcDbPlotSettings
  1

  2
none_device
  4

  6

 40
0.0
 41
0.0
 42
0.0
 43
0.0
 44
297.0
 45
420.0
 46
0.0
 47
0.0
 48
0.0
 49
0.0
140
0.0
141
0.0
142
1.0
143
1.0
 70
0
 72
1
 73
0
 74
0
  7

 75
0
147
1.0
148
0.0
149
0.0
100
AcDbLayout
  1
Layout1
 70
0
 71
1
 10
0.0
 20
0.0
 11
297.0
 21
420.0
 12
0.0
 22
0.0
 32
0.0
 14
0.0
 24
0.0
 34
0.0
 15
0.0
 25
0.0
 35
0.0
146
0.0
 13
0.0
 23
0.0
 33
0.0
 16
1.0
 26
0.0
 36
0.0
 17
0.0
 27
1.0
 37
0.0
 76
0
330
219
345
0
346
0
  0
ENDSEC
  0
EOF
