  0
SECTION
  2
HEADER
  9
$ACADVER
  1
AC1024
  9
$DWGCODEPAGE
  3
ANSI_1252
  9
$EXTMAX
 10
297.0
 20
210.0
 30
0.0
  9
$EXTMIN
 10
0.0
 20
0.0
 30
0.0
  9
$LIMMIN
 10
0.0
 20
0.0
  9
$LIMMAX
 10
297.0
 20
210.0
  9
$VIEWCTR
 10
148.5
 20
105.0
  9
$VIEWSIZE
 40
210.0
  9
$CLAYER
  8
0
  9
$LTSCALE
 40
16.335
  9
$CELTYPE
  6
BYLAYER
  9
$DIMSCALE
 40
1.0
  9
$DIMASZ
 40
3.0
  9
$DIMEXO
 40
0.5
  9
$DIMDLI
 40
11.286
  9
$DIMEXE
 40
1.5
  9
$DIMCEN
 40
2.673
  9
$DIMLFAC
 40
1.0
  9
$DIMBLK
  1
_FILLED
  9
$DIMALT
 70
0
  9
$DIMALTF
 40
0.0393700787
  9
$DIMTXT
 40
3.0
  9
$DIMTOL
 70
1
  9
$DIMLIM
 70
0
  9
$DIMTFAC
 40
1.0
  9
$DIMTP
 40
0.01
  9
$DIMTM
 40
0.01
  9
$DIMGAP
 40
0.625
  9
$DIMDSEP
 70
44
  9
$AUNITS
 70
0
  9
$PDMODE
 70
3
  9
$PDSIZE
 40
3.0
  9
$HANDSEED
  5
84D
  9
$TILEMODE
 70
1
  9
$MEASUREMENT
 70
1
  9
$INSUNITS
 70
4
  0
ENDSEC
  0
SECTION
  2
CLASSES
  0
CLASS
  1
ACDBDICTIONARYWDFLT
  2
AcDbDictionaryWithDefault
  3
AutoCAD 2000
 90
0
 91
1
280
0
281
0
  0
CLASS
  1
ACDBPLACEHOLDER
  2
AcDbPlaceHolder
  3
AutoCAD 2000
 90
0
 91
1
280
0
281
0
  0
CLASS
  1
LAYOUT
  2
AcDbLayout
  3
AutoCAD 2000
 90
0
 91
0
280
0
281
0
  0
ENDSEC
  0
SECTION
  2
TABLES
  0
TABLE
  2
VPORT
  5
8
100
AcDbSymbolTable
 70
2
  0
VPORT
  5
1F4
100
AcDbSymbolTableRecord
100
AcDbViewportTableRecord
  2
*ACTIVE
 70
0
 10
0.0
 20
0.0
 11
1.0
 21
1.0
 12
148.5
 22
105.0
 13
0.0
 23
0.0
 14
1.0
 24
1.0
 15
0.0
 25
0.0
 16
0.0
 26
0.0
 36
1.0
 17
0.0
 27
0.0
 37
0.0
 40
210.0
 41
1.4142857143
 42
50.0
 43
0.0
 44
0.0
 50
0.0
 51
0.0
 71
0
 72
100
 73
1
 74
1
 75
0
 76
0
 77
0
 78
0
  0
ENDTAB
  0
TABLE
  2
LTYPE
  5
5
100
AcDbSymbolTable
 70
6
  0
LTYPE
  5
14
100
AcDbSymbolTableRecord
100
AcDbLinetypeTableRecord
  2
BYBLOCK
 70
0
  3

 72
65
 73
0
 40
0.0
  0
LTYPE
  5
15
100
AcDbSymbolTableRecord
100
AcDbLinetypeTableRecord
  2
BYLAYER
 70
0
  3

 72
65
 73
0
 40
0.0
  0
LTYPE
  5
16
100
AcDbSymbolTableRecord
100
AcDbLinetypeTableRecord
  2
CONTINUOUS
 70
64
  3
Solid line
 72
65
 73
0
 40
0.0
  0
LTYPE
  5
1F5
100
AcDbSymbolTableRecord
100
AcDbLinetypeTableRecord
  2
CENTER
 70
64
  3
____ _ ____ _ ____ _ ____ _ ____ _ ____ _ ____
 72
65
 73
4
 40
0.6
 49
0.375
 74
0
 49
-0.075
 74
0
 49
0.075
 74
0
 49
-0.075
 74
0
  0
LTYPE
  5
1F6
100
AcDbSymbolTableRecord
100
AcDbLinetypeTableRecord
  2
HIDDEN
 70
64
  3
- - - - - - - - - - - - - - - - - - - -
 72
65
 73
2
 40
0.2
 49
0.1
 74
0
 49
-0.1
 74
0
  0
LTYPE
  5
1F7
100
AcDbSymbolTableRecord
100
AcDbLinetypeTableRecord
  2
PHANTOM
 70
64
  3
_____ _ _ _____ _ _ _____ _ _ _____
 72
65
 73
6
 40
0.8
 49
0.45
 74
0
 49
-0.05
 74
0
 49
0.1
 74
0
 49
-0.05
 74
0
 49
0.1
 74
0
 49
-0.05
 74
0
  0
LTYPE
  5
1F8
100
AcDbSymbolTableRecord
100
AcDbLinetypeTableRecord
  2
DOT
 70
64
  3
. . . . . . . . . . . . . . . . . . . .
 72
65
 73
2
 40
0.2
 49
0.1
 74
0
 49
-0.1
 74
0
  0
LTYPE
  5
1F9
100
AcDbSymbolTableRecord
100
AcDbLinetypeTableRecord
  2
DASHED
 70
64
  3
- - - - - - - - - - - - - - - - - - - -
 72
65
 73
2
 40
0.2
 49
0.1
 74
0
 49
-0.1
 74
0
  0
ENDTAB
  0
TABLE
  2
LAYER
  5
2
100
AcDbSymbolTable
 70
36
  0
LAYER
  5
10
100
AcDbSymbolTableRecord
100
AcDbLayerTableRecord
  2
0
 70
0
 62
7
  6
CONTINUOUS
370
-3
390
F
  0
LAYER
  5
1FA
100
AcDbSymbolTableRecord
100
AcDbLayerTableRecord
  2
DEFAULT_1
 70
0
 62
7
  6
CENTER
370
-3
390
F
  0
LAYER
  5
1FB
100
AcDbSymbolTableRecord
100
AcDbLayerTableRecord
  2
DEFAULT_2
 70
0
 62
7
  6
HIDDEN
370
-3
390
F
  0
LAYER
  5
1FC
100
AcDbSymbolTableRecord
100
AcDbLayerTableRecord
  2
DEFAULT_3
 70
0
 62
7
  6
PHANTOM
370
-3
390
F
  0
LAYER
  5
1FD
100
AcDbSymbolTableRecord
100
AcDbLayerTableRecord
  2
21814000
 70
0
 62
7
  6
CONTINUOUS
370
-3
390
F
  0
LAYER
  5
1FE
100
AcDbSymbolTableRecord
100
AcDbLayerTableRecord
  2
260140000
 70
0
 62
7
  6
CONTINUOUS
370
-3
390
F
  0
LAYER
  5
1FF
100
AcDbSymbolTableRecord
100
AcDbLayerTableRecord
  2
26814000
 70
0
 62
7
  6
CONTINUOUS
370
-3
390
F
  0
LAYER
  5
200
100
AcDbSymbolTableRecord
100
AcDbLayerTableRecord
  2
28414000
 70
0
 62
7
  6
CONTINUOUS
370
-3
390
F
  0
LAYER
  5
201
100
AcDbSymbolTableRecord
100
AcDbLayerTableRecord
  2
290140000
 70
0
 62
7
  6
CONTINUOUS
370
-3
390
F
  0
LAYER
  5
202
100
AcDbSymbolTableRecord
100
AcDbLayerTableRecord
  2
340000230
 70
0
 62
7
  6
CONTINUOUS
370
-3
390
F
  0
LAYER
  5
203
100
AcDbSymbolTableRecord
100
AcDbLayerTableRecord
  2
712140000
 70
0
 62
7
  6
CONTINUOUS
370
-3
390
F
  0
LAYER
  5
204
100
AcDbSymbolTableRecord
100
AcDbLayerTableRecord
  2
715140000
 70
0
 62
7
  6
CONTINUOUS
370
-3
390
F
  0
LAYER
  5
205
100
AcDbSymbolTableRecord
100
AcDbLayerTableRecord
  2
ASSI
 70
0
 62
7
  6
CONTINUOUS
370
-3
390
F
  0
LAYER
  5
206
100
AcDbSymbolTableRecord
100
AcDbLayerTableRecord
  2
COLORE_TOP
 70
0
 62
7
  6
CONTINUOUS
370
-3
390
F
  0
LAYER
  5
207
100
AcDbSymbolTableRecord
100
AcDbLayerTableRecord
  2
COORDINATE
 70
0
 62
7
  6
CONTINUOUS
370
-3
390
F
  0
LAYER
  5
208
100
AcDbSymbolTableRecord
100
AcDbLayerTableRecord
  2
COORD_ORIGINE
 70
0
 62
7
  6
CONTINUOUS
370
-3
390
F
  0
LAYER
  5
209
100
AcDbSymbolTableRecord
100
AcDbLayerTableRecord
  2
COPY_PUBLISH
 70
0
 62
7
  6
CONTINUOUS
370
-3
390
F
  0
LAYER
  5
20A
100
AcDbSymbolTableRecord
100
AcDbLayerTableRecord
  2
COSMETICHE
 70
0
 62
7
  6
CONTINUOUS
370
-3
390
F
  0
LAYER
  5
20B
100
AcDbSymbolTableRecord
100
AcDbLayerTableRecord
  2
COSMETICI
 70
0
 62
7
  6
CONTINUOUS
370
-3
390
F
  0
LAYER
  5
20C
100
AcDbSymbolTableRecord
100
AcDbLayerTableRecord
  2
CURVE
 70
0
 62
7
  6
CONTINUOUS
370
-3
390
F
  0
LAYER
  5
20D
100
AcDbSymbolTableRecord
100
AcDbLayerTableRecord
  2
DRAFT
 70
0
 62
7
  6
CONTINUOUS
370
-3
390
F
  0
LAYER
  5
20E
100
AcDbSymbolTableRecord
100
AcDbLayerTableRecord
  2
IMPORT
 70
0
 62
7
  6
CONTINUOUS
370
-3
390
F
  0
LAYER
  5
20F
100
AcDbSymbolTableRecord
100
AcDbLayerTableRecord
  2
IMPORTED
 70
0
 62
7
  6
CONTINUOUS
370
-3
390
F
  0
LAYER
  5
210
100
AcDbSymbolTableRecord
100
AcDbLayerTableRecord
  2
IMPORT_IGES
 70
0
 62
7
  6
CONTINUOUS
370
-3
390
F
  0
LAYER
  5
211
100
AcDbSymbolTableRecord
100
AcDbLayerTableRecord
  2
INCISIONI_LASER
 70
0
 62
7
  6
CONTINUOUS
370
-3
390
F
  0
LAYER
  5
212
100
AcDbSymbolTableRecord
100
AcDbLayerTableRecord
  2
INTF_1
 70
0
 62
7
  6
CONTINUOUS
370
-3
390
F
  0
LAYER
  5
213
100
AcDbSymbolTableRecord
100
AcDbLayerTableRecord
  2
INTF_11
 70
0
 62
7
  6
CONTINUOUS
370
-3
390
F
  0
LAYER
  5
214
100
AcDbSymbolTableRecord
100
AcDbLayerTableRecord
  2
INTF_12
 70
0
 62
7
  6
CONTINUOUS
370
-3
390
F
  0
LAYER
  5
215
100
AcDbSymbolTableRecord
100
AcDbLayerTableRecord
  2
INTF_13
 70
0
 62
7
  6
CONTINUOUS
370
-3
390
F
  0
LAYER
  5
216
100
AcDbSymbolTableRecord
100
AcDbLayerTableRecord
  2
INTF_2
 70
0
 62
7
  6
CONTINUOUS
370
-3
390
F
  0
LAYER
  5
217
100
AcDbSymbolTableRecord
100
AcDbLayerTableRecord
  2
INTF_6
 70
0
 62
7
  6
CONTINUOUS
370
-3
390
F
  0
LAYER
  5
218
100
AcDbSymbolTableRecord
100
AcDbLayerTableRecord
  2
NOTE
 70
0
 62
7
  6
CONTINUOUS
370
-3
390
F
  0
LAYER
  5
219
100
AcDbSymbolTableRecord
100
AcDbLayerTableRecord
  2
PIANI
 70
0
 62
7
  6
CONTINUOUS
370
-3
390
F
  0
LAYER
  5
21A
100
AcDbSymbolTableRecord
100
AcDbLayerTableRecord
  2
PIANI_DI_RIFERIMENTO
 70
0
 62
7
  6
CONTINUOUS
370
-3
390
F
  0
LAYER
  5
21B
100
AcDbSymbolTableRecord
100
AcDbLayerTableRecord
  2
PIANI_ORIGINE
 70
0
 62
7
  6
CONTINUOUS
370
-3
390
F
  0
LAYER
  5
21C
100
AcDbSymbolTableRecord
100
AcDbLayerTableRecord
  2
PIANI_RIFERIMENTO
 70
0
 62
7
  6
CONTINUOUS
370
-3
390
F
  0
LAYER
  5
21D
100
AcDbSymbolTableRecord
100
AcDbLayerTableRecord
  2
PIANI_SFORMO
 70
0
 62
7
  6
CONTINUOUS
370
-3
390
F
  0
LAYER
  5
21E
100
AcDbSymbolTableRecord
100
AcDbLayerTableRecord
  2
PUNTI
 70
0
 62
7
  6
CONTINUOUS
370
-3
390
F
  0
LAYER
  5
21F
100
AcDbSymbolTableRecord
100
AcDbLayerTableRecord
  2
RACCORDO
 70
0
 62
7
  6
CONTINUOUS
370
-3
390
F
  0
LAYER
  5
220
100
AcDbSymbolTableRecord
100
AcDbLayerTableRecord
  2
RGB__255__255__255__
 70
0
 62
7
  6
CONTINUOUS
370
-3
390
F
  0
LAYER
  5
221
100
AcDbSymbolTableRecord
100
AcDbLayerTableRecord
  2
RINTRACCIABILITA
 70
0
 62
7
  6
CONTINUOUS
370
-3
390
F
  0
LAYER
  5
222
100
AcDbSymbolTableRecord
100
AcDbLayerTableRecord
  2
SIMBOLI
 70
0
 62
7
  6
CONTINUOUS
370
-3
390
F
  0
LAYER
  5
223
100
AcDbSymbolTableRecord
100
AcDbLayerTableRecord
  2
SMUSSO
 70
0
 62
7
  6
CONTINUOUS
370
-3
390
F
  0
LAYER
  5
224
100
AcDbSymbolTableRecord
100
AcDbLayerTableRecord
  2
SNAPLINE
 70
0
 62
7
  6
CONTINUOUS
370
-3
390
F
  0
LAYER
  5
225
100
AcDbSymbolTableRecord
100
AcDbLayerTableRecord
  2
SUPERFICI
 70
0
 62
7
  6
CONTINUOUS
370
-3
390
F
  0
LAYER
  5
226
100
AcDbSymbolTableRecord
100
AcDbLayerTableRecord
  2
TRASH
 70
0
 62
7
  6
CONTINUOUS
370
-3
390
F
  0
LAYER
  5
227
100
AcDbSymbolTableRecord
100
AcDbLayerTableRecord
  2
WHITE
 70
0
 62
7
  6
CONTINUOUS
370
-3
390
F
  0
LAYER
  5
228
100
AcDbSymbolTableRecord
100
AcDbLayerTableRecord
  2
XSEC_DATUMS
 70
0
 62
7
  6
CONTINUOUS
370
-3
390
F
  0
ENDTAB
  0
TABLE
  2
STYLE
  5
3
100
AcDbSymbolTable
 70
1
  0
STYLE
  5
11
100
AcDbSymbolTableRecord
100
AcDbTextStyleTableRecord
  2
STANDARD
 70
0
 40
0.0
 41
0.8
 50
0.0
 71
0
 42
0.2
  3
txt
  4

  0
STYLE
  5
229
100
AcDbSymbolTableRecord
100
AcDbTextStyleTableRecord
  2
TEXTSTYLE_1
 70
0
 40
0.0
 41
0.8
 50
0.0
 71
0
 42
0.2
  3
gdt
  4

  0
ENDTAB
  0
TABLE
  2
VIEW
  5
6
100
AcDbSymbolTable
 70
0
  0
ENDTAB
  0
TABLE
  2
UCS
  5
7
100
AcDbSymbolTable
 70
0
  0
ENDTAB
  0
TABLE
  2
APPID
  5
9
100
AcDbSymbolTable
 70
1
  0
APPID
  5
22A
100
AcDbSymbolTableRecord
100
AcDbRegAppTableRecord
  2
ACAD
 70
0
  0
ENDTAB
  0
TABLE
  2
BLOCK_RECORD
  5
1
100
AcDbSymbolTable
 70
0
  0
BLOCK_RECORD
  5
22B
100
AcDbSymbolTableRecord
100
AcDbBlockTableRecord
  2
*Model_Space
  0
BLOCK_RECORD
  5
22C
100
AcDbSymbolTableRecord
100
AcDbBlockTableRecord
  2
*Paper_Space
  0
BLOCK_RECORD
  5
22D
100
AcDbSymbolTableRecord
100
AcDbBlockTableRecord
  2
_FILLED
  0
BLOCK_RECORD
  5
22E
100
AcDbSymbolTableRecord
100
AcDbBlockTableRecord
  2
*D0
  0
BLOCK_RECORD
  5
22F
100
AcDbSymbolTableRecord
100
AcDbBlockTableRecord
  2
*D1
  0
BLOCK_RECORD
  5
230
100
AcDbSymbolTableRecord
100
AcDbBlockTableRecord
  2
*D2
  0
BLOCK_RECORD
  5
231
100
AcDbSymbolTableRecord
100
AcDbBlockTableRecord
  2
*D3
  0
ENDTAB
  0
TABLE
  2
DIMSTYLE
  5
A
100
AcDbSymbolTable
 70
1
100
AcDbDimStyleTable
 71
0
  0
DIMSTYLE
105
232
100
AcDbSymbolTableRecord
100
AcDbDimStyleTableRecord
  2
STANDARD
 70
0
  3

  4

 40
1.0
 41
3.0
 42
0.5
 43
0.38
 44
1.5
 45
0.0
 46
0.0
 47
0.01
 48
0.01
140
3.0
141
0.09
142
0.0
143
25.4
144
1.0
145
0.0
146
1.0
147
0.625
 71
1
 72
0
 73
0
 74
0
 75
0
 76
0
 77
1
 78
8
 79
2
170
0
171
1
172
0
173
0
174
0
175
0
176
0
177
0
178
0
270
2
179
2
271
2
272
2
273
2
274
2
275
0
280
0
281
0
282
0
283
1
284
8
285
0
286
0
287
3
288
0
340
11
278
44
341
22D
342
22D
343
22D
344
22D
  0
DIMSTYLE
105
233
100
AcDbSymbolTableRecord
100
AcDbDimStyleTableRecord
  2
DIMSTYLE_1
 70
0
  3

  4

 40
1.0
 41
3.0
 42
0.5
 43
0.38
 44
1.5
 45
0.0
 46
0.0
 47
0.0
 48
0.0
140
3.0
141
0.09
142
0.0
143
25.4
144
1.0
145
0.0
146
1.0
147
0.75
 71
0
 72
0
 73
0
 74
0
 75
0
 76
0
 77
1
 78
8
 79
2
170
0
171
1
172
0
173
0
174
0
175
0
176
0
177
0
178
0
270
2
179
2
271
2
272
2
273
2
274
2
275
0
280
0
281
0
282
0
283
1
284
8
285
0
286
0
287
3
288
0
340
11
278
44
341
22D
342
22D
343
22D
344
22D
  0
DIMSTYLE
105
234
100
AcDbSymbolTableRecord
100
AcDbDimStyleTableRecord
  2
DIMSTYLE_2
 70
0
  3

  4

 40
1.0
 41
3.0
 42
0.5
 43
0.38
 44
1.5
 45
0.0
 46
0.0
 47
0.0
 48
0.0
140
3.0
141
0.09
142
0.0
143
25.4
144
1.0
145
0.0
146
1.0
147
0.75
 71
0
 72
0
 73
0
 74
0
 75
0
 76
0
 77
1
 78
8
 79
2
170
0
171
1
172
0
173
0
174
0
175
0
176
0
177
0
178
0
270
2
179
2
271
1
272
1
273
2
274
2
275
0
280
0
281
0
282
0
283
1
284
8
285
0
286
0
287
3
288
0
340
11
278
44
341
22D
342
22D
343
22D
344
22D
  0
ENDTAB
  0
ENDSEC
  0
SECTION
  2
BLOCKS
  0
BLOCK
  5
20
100
AcDbEntity
  8
0
100
AcDbBlockBegin
  2
*Model_Space
 70
0
 10
0.0
 20
0.0
 30
0.0
  3
*Model_Space
  1

  0
ENDBLK
  5
21
100
AcDbEntity
  8
0
100
AcDbBlockEnd
  0
BLOCK
  5
1C
100
AcDbEntity
  8
0
100
AcDbBlockBegin
  2
*Paper_Space
 70
0
 10
0.0
 20
0.0
 30
0.0
  3
*Paper_Space
  1

  0
ENDBLK
  5
1D
100
AcDbEntity
  8
0
100
AcDbBlockEnd
  0
BLOCK
  5
235
100
AcDbEntity
  8
0
100
AcDbBlockBegin
  2
_FILLED
 70
64
 10
0.0
 20
0.0
  3
_FILLED
  1

  0
SOLID
  5
236
100
AcDbEntity
  8
0
  6
BYBLOCK
 62
0
100
AcDbTrace
 10
0.0
 20
0.0
 11
-1.0
 21
0.3166666667
 12
-1.0
 22
-0.3166666667
 13
-1.0
 23
-0.3166666667
  0
ENDBLK
  5
237
100
AcDbEntity
  8
0
  6
BYBLOCK
 62
0
100
AcDbBlockEnd
  0
BLOCK
  5
238
100
AcDbEntity
  8
0
100
AcDbBlockBegin
 62
7
  6
CONTINUOUS
  2
*D0
 70
65
 10
0.0
 20
0.0
  3
*D0
  1

  0
MTEXT
  5
239
100
AcDbEntity
  8
0
100
AcDbMText
 62
7
  6
CONTINUOUS
  7
STANDARD
 71
2
 72
1
 10
6.7063947016
 20
36.25
 30
0.0
 11
1.0
 21
0.0
 31
0.0
 73
2
 44
0.9
  1
{\ftxt;\W0.0001;\H0.0001;\~}{\ftxt;\W1.5;\H3.0; }{\ftxt;\W0.0001;\H0.0001;\~}
 40
3.0
 41
6.75
  0
LINE
  5
23A
100
AcDbEntity
  8
0
100
AcDbLine
 62
7
  6
CONTINUOUS
 10
19.2063947016
 20
15.2238767217
 11
19.2063947016
 21
34.0
  0
LINE
  5
23B
100
AcDbEntity
  8
0
100
AcDbLine
 62
7
  6
CONTINUOUS
 10
-5.7936052984
 20
23.4783121635
 11
-5.7936052984
 21
34.0
  0
LINE
  5
23C
100
AcDbEntity
  8
0
100
AcDbLine
 62
7
  6
CONTINUOUS
 10
19.2063947016
 20
32.5
 11
6.7063947016
 21
32.5
  0
LINE
  5
23D
100
AcDbEntity
  8
0
100
AcDbLine
 62
7
  6
CONTINUOUS
 10
-5.7936052984
 20
32.5
 11
6.7063947016
 21
32.5
  0
INSERT
  5
23E
100
AcDbEntity
  8
0
100
AcDbBlockReference
 62
7
  6
CONTINUOUS
  2
_FILLED
 10
19.2063947016
 20
32.5
 41
3.0
 42
3.0
 43
3.0
  0
INSERT
  5
23F
100
AcDbEntity
  8
0
100
AcDbBlockReference
 62
7
  6
CONTINUOUS
  2
_FILLED
 10
-5.7936052984
 20
32.5
 41
3.0
 42
3.0
 43
3.0
 50
180.0
  0
ENDBLK
  5
240
100
AcDbEntity
  8
0
  6
BYBLOCK
 62
0
100
AcDbBlockEnd
  0
BLOCK
  5
241
100
AcDbEntity
  8
0
100
AcDbBlockBegin
 62
7
  6
CONTINUOUS
  2
*D1
 70
65
 10
0.0
 20
0.0
  3
*D1
  1

  0
MTEXT
  5
242
100
AcDbEntity
  8
0
100
AcDbMText
 62
7
  6
CONTINUOUS
  7
STANDARD
 71
2
 72
1
 10
0.0257712978
 20
46.25
 30
0.0
 11
1.0
 21
0.0
 31
0.0
 73
2
 44
0.9
  1
{\ftxt;\W0.0001;\H0.0001;\~}{\ftxt;\W2.8571428571;\H3.0; }{\ftxt;\W0.0001;\H0.0001;\~}
 40
3.0
 41
12.8571428571
  0
LINE
  5
243
100
AcDbEntity
  8
0
100
AcDbLine
 62
7
  6
CONTINUOUS
 10
19.2063947016
 20
15.2238767217
 11
19.2063947016
 21
44.0
  0
LINE
  5
244
100
AcDbEntity
  8
0
100
AcDbLine
 62
7
  6
CONTINUOUS
 10
-19.154852106
 20
-19.2637997637
 11
-19.154852106
 21
44.0
  0
LINE
  5
245
100
AcDbEntity
  8
0
100
AcDbLine
 62
7
  6
CONTINUOUS
 10
19.2063947016
 20
42.5
 11
0.0257712978
 21
42.5
  0
LINE
  5
246
100
AcDbEntity
  8
0
100
AcDbLine
 62
7
  6
CONTINUOUS
 10
-19.154852106
 20
42.5
 11
0.0257712978
 21
42.5
  0
INSERT
  5
247
100
AcDbEntity
  8
0
100
AcDbBlockReference
 62
7
  6
CONTINUOUS
  2
_FILLED
 10
19.2063947016
 20
42.5
 41
3.0
 42
3.0
 43
3.0
  0
INSERT
  5
248
100
AcDbEntity
  8
0
100
AcDbBlockReference
 62
7
  6
CONTINUOUS
  2
_FILLED
 10
-19.154852106
 20
42.5
 41
3.0
 42
3.0
 43
3.0
 50
180.0
  0
ENDBLK
  5
249
100
AcDbEntity
  8
0
  6
BYBLOCK
 62
0
100
AcDbBlockEnd
  0
BLOCK
  5
24A
100
AcDbEntity
  8
0
100
AcDbBlockBegin
 62
7
  6
CONTINUOUS
  2
*D2
 70
65
 10
0.0
 20
0.0
  3
*D2
  1

  0
MTEXT
  5
24B
100
AcDbEntity
  8
0
100
AcDbMText
 62
7
  6
CONTINUOUS
  7
STANDARD
 71
2
 72
1
 10
55.0
 20
36.25
 30
0.0
 11
1.0
 21
0.0
 31
0.0
 73
2
 44
0.9
  1
{\ftxt;\W0.0001;\H0.0001;\~}{\ftxt;\W2.9285714286;\H3.0; }{\ftxt;\W0.0001;\H0.0001;\~}
 40
3.0
 41
13.1785714286
  0
LINE
  5
24C
100
AcDbEntity
  8
0
100
AcDbLine
 62
7
  6
CONTINUOUS
 10
32.6
 20
20.4536487485
 11
32.6
 21
34.0
  0
LINE
  5
24D
100
AcDbEntity
  8
0
100
AcDbLine
 62
7
  6
CONTINUOUS
 10
77.4
 20
22.3823164546
 11
77.4
 21
34.0
  0
LINE
  5
24E
100
AcDbEntity
  8
0
100
AcDbLine
 62
7
  6
CONTINUOUS
 10
32.6
 20
32.5
 11
55.0
 21
32.5
  0
LINE
  5
24F
100
AcDbEntity
  8
0
100
AcDbLine
 62
7
  6
CONTINUOUS
 10
77.4
 20
32.5
 11
55.0
 21
32.5
  0
INSERT
  5
250
100
AcDbEntity
  8
0
100
AcDbBlockReference
 62
7
  6
CONTINUOUS
  2
_FILLED
 10
32.6
 20
32.5
 41
3.0
 42
3.0
 43
3.0
 50
180.0
  0
INSERT
  5
251
100
AcDbEntity
  8
0
100
AcDbBlockReference
 62
7
  6
CONTINUOUS
  2
_FILLED
 10
77.4
 20
32.5
 41
3.0
 42
3.0
 43
3.0
  0
ENDBLK
  5
252
100
AcDbEntity
  8
0
  6
BYBLOCK
 62
0
100
AcDbBlockEnd
  0
BLOCK
  5
253
100
AcDbEntity
  8
0
100
AcDbBlockBegin
 62
7
  6
CONTINUOUS
  2
*D3
 70
65
 10
0.0
 20
0.0
  3
*D3
  1

  0
MTEXT
  5
254
100
AcDbEntity
  8
0
100
AcDbMText
 62
7
  6
CONTINUOUS
  7
STANDARD
 71
2
 72
1
 10
81.65
 20
0.0
 30
0.0
 11
0.0
 21
1.0
 31
0.0
 73
2
 44
0.9
  1
{\ftxt;\W0.0001;\H0.0001;\~}{\ftxt;\W1.5714285714;\H3.0; }{\ftxt;\W0.0001;\H0.0001;\~}
 40
3.0
 41
7.0714285714
  0
LINE
  5
255
100
AcDbEntity
  8
0
100
AcDbLine
 62
7
  6
CONTINUOUS
 10
77.15
 20
24.5
 11
86.9
 21
24.5
  0
LINE
  5
256
100
AcDbEntity
  8
0
100
AcDbLine
 62
7
  6
CONTINUOUS
 10
77.15
 20
-24.5
 11
86.9
 21
-24.5
  0
LINE
  5
257
100
AcDbEntity
  8
0
100
AcDbLine
 62
7
  6
CONTINUOUS
 10
85.4
 20
24.5
 11
85.4
 21
0.0
  0
LINE
  5
258
100
AcDbEntity
  8
0
100
AcDbLine
 62
7
  6
CONTINUOUS
 10
85.4
 20
-24.5
 11
85.4
 21
0.0
  0
INSERT
  5
259
100
AcDbEntity
  8
0
100
AcDbBlockReference
 62
7
  6
CONTINUOUS
  2
_FILLED
 10
85.4
 20
24.5
 41
3.0
 42
3.0
 43
3.0
 50
90.0
  0
INSERT
  5
25A
100
AcDbEntity
  8
0
100
AcDbBlockReference
 62
7
  6
CONTINUOUS
  2
_FILLED
 10
85.4
 20
-24.5
 41
3.0
 42
3.0
 43
3.0
 50
270.0
  0
ENDBLK
  5
25B
100
AcDbEntity
  8
0
  6
BYBLOCK
 62
0
100
AcDbBlockEnd
  0
ENDSEC
  0
SECTION
  2
ENTITIES
  0
DIMENSION
  5
25C
100
AcDbEntity
  8
0
100
AcDbDimension
 62
7
  6
CONTINUOUS
  2
*D0
 10
-5.7936052984
 20
32.5
 11
6.2778232813
 21
32.5
 70
160
 71
2
 72
2
 41
0.9
 42
25.0
  1
{\ftxt;\W0.0001;\H0.0001;\~}{\ftxt;\W1.5;\H3.0; }{\ftxt;\W0.0001;\H0.0001;\~}
  3
DIMSTYLE_1
100
AcDbAlignedDimension
 13
19.2063947016
 23
14.7238767217
 14
-5.7936052984
 24
22.9783121635
 50
180.0
100
AcDbRotatedDimension
  0
DIMENSION
  5
25D
100
AcDbEntity
  8
0
100
AcDbDimension
 62
7
  6
CONTINUOUS
  2
*D1
 10
-19.154852106
 20
42.5
 11
-0.4028001037
 21
42.5
 70
160
 71
2
 72
2
 41
0.9
 42
38.3612468076
  1
{\ftxt;\W0.0001;\H0.0001;\~}{\ftxt;\W2.8571428571;\H3.0; }{\ftxt;\W0.0001;\H0.0001;\~}
  3
DIMSTYLE_2
100
AcDbAlignedDimension
 13
19.2063947016
 23
14.7238767217
 14
-19.154852106
 24
-19.7637997637
 50
180.0
100
AcDbRotatedDimension
  0
DIMENSION
  5
25E
100
AcDbEntity
  8
0
100
AcDbDimension
 62
7
  6
CONTINUOUS
  2
*D2
 10
77.4
 20
32.5
 11
54.5714296875
 21
32.5
 70
160
 71
2
 72
2
 41
0.9
 42
44.8
  1
{\ftxt;\W0.0001;\H0.0001;\~}{\ftxt;\W2.9285714286;\H3.0; }{\ftxt;\W0.0001;\H0.0001;\~}
  3
DIMSTYLE_1
100
AcDbAlignedDimension
 13
32.6
 23
19.9536487485
 14
77.4
 24
21.8823164546
100
AcDbRotatedDimension
  0
DIMENSION
  5
25F
100
AcDbEntity
  8
0
100
AcDbDimension
 62
7
  6
CONTINUOUS
  2
*D3
 10
85.4
 20
-24.5
 11
85.4
 21
-0.4285702558
 70
160
 71
2
 72
2
 41
0.9
 42
49.0
  1
{\ftxt;\W0.0001;\H0.0001;\~}{\ftxt;\W1.5714285714;\H3.0; }{\ftxt;\W0.0001;\H0.0001;\~}
  3
DIMSTYLE_1
100
AcDbAlignedDimension
 13
76.65
 23
24.5
 14
76.65
 24
-24.5
 50
270.0
100
AcDbRotatedDimension
  0
LINE
  5
260
100
AcDbEntity
  8
26814000
100
AcDbLine
 62
7
  6
CONTINUOUS
 10
35.4369014213
 20
24.3869014213
 11
35.45
 21
24.4
  0
LINE
  5
261
100
AcDbEntity
  8
26814000
100
AcDbLine
 62
7
  6
CONTINUOUS
 10
35.4369014213
 20
-24.3869014213
 11
35.45
 21
-24.4
  0
LINE
  5
262
100
AcDbEntity
  8
26814000
100
AcDbLine
 62
7
  6
CONTINUOUS
 10
35.45
 20
22.4
 11
35.4412732553
 21
22.3869096983
  0
LINE
  5
263
100
AcDbEntity
  8
26814000
100
AcDbLine
 62
7
  6
CONTINUOUS
 10
35.4412732553
 20
-22.3869096983
 11
35.45
 21
-22.4
  0
LWPOLYLINE
  5
264
100
AcDbEntity
  8
RACCORDO
100
AcDbPolyline
 62
250
  6
CONTINUOUS
 90
18
 70
0
 10
32.9501660718
 20
21.1580269694
 10
32.9511776437
 20
21.1606509904
 10
32.95216948
 20
21.1585846713
 10
32.9531415808
 20
21.1518280121
 10
32.9541009147
 20
21.1402751284
 10
32.9550405131
 20
21.1240319046
 10
32.95593947
 20
21.1034159936
 10
32.9567963562
 20
21.0783348531
 10
32.957612601
 20
21.0488810255
 10
32.9583715863
 20
21.0156497904
 10
32.9590721363
 20
20.9785612852
 10
32.9597154269
 20
20.9376953725
 10
32.9602883681
 20
20.8938869206
 10
32.9607895325
 20
20.8470435942
 10
32.9612203475
 20
20.7972577285
 10
32.9615720051
 20
20.745641197
 10
32.9618415694
 20
20.6925646243
 10
32.9620319763
 20
20.6376573859
  0
LWPOLYLINE
  5
265
100
AcDbEntity
  8
RACCORDO
100
AcDbPolyline
 62
250
  6
CONTINUOUS
 90
3
 70
0
 10
32.965616459
 20
21.3136442052
 10
32.9545715106
 20
21.2413060642
 10
32.9501660718
 20
21.1580269694
  0
LINE
  5
266
100
AcDbEntity
  8
RACCORDO
100
AcDbLine
 62
250
  6
CONTINUOUS
 10
32.85
 20
20.6578066462
 11
32.9501660718
 21
21.1580269694
  0
LINE
  5
267
100
AcDbEntity
  8
RACCORDO
100
AcDbLine
 62
7
  6
CONTINUOUS
 10
32.9657447018
 20
21.3142832759
 11
32.8654075501
 21
20.8132099576
  0
LINE
  5
268
100
AcDbEntity
  8
RACCORDO
100
AcDbLine
 62
7
  6
CONTINUOUS
 10
76.65
 20
-24.5
 11
74.75
 21
-24.5
  0
LINE
  5
269
100
AcDbEntity
  8
RACCORDO
100
AcDbLine
 62
7
  6
CONTINUOUS
 10
57.75
 20
-24.5
 11
55.85
 21
-24.5
  0
LINE
  5
26A
100
AcDbEntity
  8
26814000
100
AcDbLine
 62
7
  6
CONTINUOUS
 10
54.35
 20
-24.4
 11
52.05
 21
-24.4
  0
LINE
  5
26B
100
AcDbEntity
  8
26814000
100
AcDbLine
 62
7
  6
CONTINUOUS
 10
35.45
 20
-24.4
 11
33.15
 21
-24.4
  0
LINE
  5
26C
100
AcDbEntity
  8
26814000
100
AcDbLine
 62
250
  6
CONTINUOUS
 10
33.1630985787
 20
-24.3869014213
 11
35.4369014213
 21
-24.3869014213
  0
LINE
  5
26D
100
AcDbEntity
  8
26814000
100
AcDbLine
 62
250
  6
CONTINUOUS
 10
52.0630985787
 20
-24.3869014213
 11
54.3369014213
 21
-24.3869014213
  0
LINE
  5
26E
100
AcDbEntity
  8
RACCORDO
100
AcDbLine
 62
250
  6
CONTINUOUS
 10
55.6
 20
-24.25
 11
58.0
 21
-24.25
  0
LINE
  5
26F
100
AcDbEntity
  8
RACCORDO
100
AcDbLine
 62
250
  6
CONTINUOUS
 10
74.5
 20
-24.25
 11
76.9
 21
-24.25
  0
LINE
  5
270
100
AcDbEntity
  8
26814000
100
AcDbLine
 62
250
  6
CONTINUOUS
 10
33.1645445745
 20
-24.1369056521
 11
35.4354554255
 21
-24.1369056521
  0
LINE
  5
271
100
AcDbEntity
  8
26814000
100
AcDbLine
 62
250
  6
CONTINUOUS
 10
52.0645445745
 20
-24.1369056521
 11
54.3354554255
 21
-24.1369056521
  0
LWPOLYLINE
  5
272
100
AcDbEntity
  8
26814000
100
AcDbPolyline
 62
7
  6
CONTINUOUS
 90
31
 70
0
 10
32.6
 20
-22.0499866726
 10
32.600479639
 20
-22.0683045068
 10
32.6019172444
 20
-22.0865721551
 10
32.6043088801
 20
-22.1047395529
 10
32.6076479951
 20
-22.1227569124
 10
32.6119254418
 20
-22.1405748519
 10
32.6171295019
 20
-22.158144531
 10
32.6232459167
 20
-22.1754177965
 10
32.6302579267
 20
-22.1923473068
 10
32.6381463184
 20
-22.2088866539
 10
32.646889476
 20
-22.224990507
 10
32.65646344
 20
-22.2406147282
 10
32.6668419743
 20
-22.2557164847
 10
32.6779966372
 20
-22.2702543843
 10
32.6898968589
 20
-22.2841885798
 10
32.7025100257
 20
-22.2974808689
 10
32.71580157
 20
-22.3100948174
 10
32.729735064
 20
-22.3219958502
 10
32.7442723191
 20
-22.3331513373
 10
32.7593734926
 20
-22.3435307
 10
32.7749971955
 20
-22.3531054869
 10
32.7911006049
 20
-22.3618494448
 10
32.8076395838
 20
-22.3697386035
 10
32.8245688011
 20
-22.3767513366
 10
32.8418418549
 20
-22.3828684145
 10
32.8594114004
 20
-22.3880730663
 10
32.877229281
 20
-22.3923510231
 10
32.895246659
 20
-22.3956905527
 10
32.9134141491
 20
-22.3980824962
 10
32.9316819536
 20
-22.3995202939
 10
32.95
 20
-22.4
  0
LINE
  5
273
100
AcDbEntity
  8
26814000
100
AcDbLine
 62
7
  6
CONTINUOUS
 10
33.1638173458
 20
-23.6278312164
 11
33.1587267447
 21
-23.1226497308
  0
LWPOLYLINE
  5
274
100
AcDbEntity
  8
RACCORDO
100
AcDbPolyline
 62
250
  6
CONTINUOUS
 90
12
 70
0
 10
32.9620319763
 20
20.6376573859
 10
32.9658190084
 20
17.2417873203
 10
32.968826574
 20
13.8973542911
 10
32.9711659227
 20
10.5476203943
 10
32.9728371854
 20
7.1921533166
 10
32.9738402311
 20
3.8313853711
 10
32.9741746673
 20
0.4666134975
 10
32.9738402323
 20
-2.9021636988
 10
32.9728371877
 20
-6.2749448233
 10
32.9711659255
 20
-9.6504287531
 10
32.9688265765
 20
-13.0281817805
 10
32.9658190099
 20
-16.4086376132
  0
LINE
  5
275
100
AcDbEntity
  8
26814000
100
AcDbLine
 62
7
  6
CONTINUOUS
 10
32.6
 20
22.0281695031
 11
32.6
 21
-22.0281695031
  0
LINE
  5
276
100
AcDbEntity
  8
RACCORDO
100
AcDbLine
 62
7
  6
CONTINUOUS
 10
32.85
 20
20.6578066462
 11
32.85
 21
-21.2118075016
  0
LINE
  5
277
100
AcDbEntity
  8
26814000
100
AcDbLine
 62
250
  6
CONTINUOUS
 10
32.95
 20
-22.4
 11
32.95
 21
-22.3781828305
  0
LINE
  5
278
100
AcDbEntity
  8
26814000
100
AcDbLine
 62
250
  6
CONTINUOUS
 10
32.95
 20
22.3781828305
 11
32.95
 21
22.4
  0
LINE
  5
279
100
AcDbEntity
  8
26814000
100
AcDbLine
 62
7
  6
CONTINUOUS
 10
33.15
 20
-22.4
 11
33.15
 21
-24.4
  0
LINE
  5
27A
100
AcDbEntity
  8
26814000
100
AcDbLine
 62
7
  6
CONTINUOUS
 10
33.15
 20
22.4
 11
33.15
 21
24.4
  0
LINE
  5
27B
100
AcDbEntity
  8
26814000
100
AcDbLine
 62
7
  6
CONTINUOUS
 10
33.1587267447
 20
-23.1226497308
 11
33.1587267447
 21
-22.3869096983
  0
LINE
  5
27C
100
AcDbEntity
  8
26814000
100
AcDbLine
 62
7
  6
CONTINUOUS
 10
33.1587267447
 20
22.3869096983
 11
33.1587267447
 21
23.1226497308
  0
LINE
  5
27D
100
AcDbEntity
  8
26814000
100
AcDbLine
 62
7
  6
CONTINUOUS
 10
33.1645445745
 20
-24.1369056521
 11
33.1645445745
 21
-23.8443375673
  0
LINE
  5
27E
100
AcDbEntity
  8
26814000
100
AcDbLine
 62
7
  6
CONTINUOUS
 10
33.1645445745
 20
23.8443375673
 11
33.1645445745
 21
24.1369056521
  0
LWPOLYLINE
  5
27F
100
AcDbEntity
  8
RACCORDO
100
AcDbPolyline
 62
250
  6
CONTINUOUS
 90
19
 70
0
 10
32.9658190099
 20
-16.4086376132
 10
32.9620319763
 20
-19.8498665762
 10
32.9618415694
 20
-19.9070542922
 10
32.9615720051
 20
-19.9633593994
 10
32.9612203475
 20
-20.019187686
 10
32.9607895325
 20
-20.0741333638
 10
32.9602883681
 20
-20.1269790676
 10
32.9597154269
 20
-20.1776495578
 10
32.9590721363
 20
-20.226220074
 10
32.9583715863
 20
-20.2716989707
 10
32.957612601
 20
-20.3140204696
 10
32.9567963562
 20
-20.3532503491
 10
32.95593947
 20
-20.3885942982
 10
32.9550405131
 20
-20.4199768935
 10
32.9541009147
 20
-20.4474735585
 10
32.9531415808
 20
-20.4705162532
 10
32.95216948
 20
-20.4889156309
 10
32.9511776437
 20
-20.5028610382
 10
32.9501660718
 20
-20.5123524752
  0
LINE
  5
280
100
AcDbEntity
  8
26814000
100
AcDbLine
 62
7
  6
CONTINUOUS
 10
33.1587267447
 20
23.1226497308
 11
33.1638173458
 21
23.6278312164
  0
LWPOLYLINE
  5
281
100
AcDbEntity
  8
26814000
100
AcDbPolyline
 62
7
  6
CONTINUOUS
 90
31
 70
0
 10
32.6
 20
22.0499866726
 10
32.600479639
 20
22.0683045068
 10
32.6019172444
 20
22.0865721551
 10
32.6043088801
 20
22.1047395529
 10
32.6076479951
 20
22.1227569124
 10
32.6119254418
 20
22.1405748519
 10
32.6171295019
 20
22.158144531
 10
32.6232459167
 20
22.1754177965
 10
32.6302579267
 20
22.1923473068
 10
32.6381463184
 20
22.2088866539
 10
32.646889476
 20
22.224990507
 10
32.65646344
 20
22.2406147282
 10
32.6668419743
 20
22.2557164847
 10
32.6779966372
 20
22.2702543843
 10
32.6898968589
 20
22.2841885798
 10
32.7025100257
 20
22.2974808689
 10
32.71580157
 20
22.3100948174
 10
32.729735064
 20
22.3219958502
 10
32.7442723191
 20
22.3331513373
 10
32.7593734926
 20
22.3435307
 10
32.7749971955
 20
22.3531054869
 10
32.7911006049
 20
22.3618494448
 10
32.8076395838
 20
22.3697386035
 10
32.8245688011
 20
22.3767513366
 10
32.8418418549
 20
22.3828684145
 10
32.8594114004
 20
22.3880730663
 10
32.877229281
 20
22.3923510231
 10
32.895246659
 20
22.3956905527
 10
32.9134141491
 20
22.3980824962
 10
32.9316819536
 20
22.3995202939
 10
32.95
 20
22.4
  0
LWPOLYLINE
  5
282
100
AcDbEntity
  8
RACCORDO
100
AcDbPolyline
 62
250
  6
CONTINUOUS
 90
16
 70
0
 10
76.249955772
 20
-21.3078488151
 10
76.3335507113
 20
-21.3033227734
 10
76.416229985
 20
-21.290149842
 10
76.4970880778
 20
-21.2684743292
 10
76.5752394418
 20
-21.2385336573
 10
76.649828148
 20
-21.2006557783
 10
76.7200372682
 20
-21.1552555966
 10
76.7850978905
 20
-21.1028303856
 10
76.8442975059
 20
-21.0439543452
 10
76.8969877777
 20
-20.9792723484
 10
76.9425916904
 20
-20.9094928332
 10
76.9806098514
 20
-20.8353800457
 10
77.0106259435
 20
-20.757745698
 10
77.0323112981
 20
-20.6774400523
 10
77.0454284894
 20
-20.5953426066
 10
77.0498339282
 20
-20.5123524752
  0
LINE
  5
283
100
AcDbEntity
  8
RACCORDO
100
AcDbLine
 62
250
  6
CONTINUOUS
 10
55.587855656
 20
-22.4306686755
 11
55.5460243415
 21
-22.4329524976
  0
LWPOLYLINE
  5
284
100
AcDbEntity
  8
RACCORDO
100
AcDbPolyline
 62
250
  6
CONTINUOUS
 90
3
 70
0
 10
55.5460243415
 20
-22.4329524976
 10
55.5252607848
 20
-22.4339334239
 10
55.5158996412
 20
-22.434313232
  0
LWPOLYLINE
  5
285
100
AcDbEntity
  8
RACCORDO
100
AcDbPolyline
 62
250
  6
CONTINUOUS
 90
9
 70
0
 10
76.85185282
 20
-22.626484384
 10
76.8354552141
 20
-22.6271147961
 10
76.8171030826
 20
-22.6276935557
 10
76.7969305335
 20
-22.6282046544
 10
76.7751366792
 20
-22.6286469887
 10
76.7519623914
 20
-22.6290216622
 10
76.7276037577
 20
-22.6293159774
 10
76.7022995983
 20
-22.6295257018
 10
76.6763373565
 20
-22.629655068
  0
LWPOLYLINE
  5
286
100
AcDbEntity
  8
RACCORDO
100
AcDbPolyline
 62
250
  6
CONTINUOUS
 90
9
 70
0
 10
57.95185282
 20
-22.626484384
 10
57.9354552141
 20
-22.6271147961
 10
57.9171030826
 20
-22.6276935557
 10
57.8969305335
 20
-22.6282046544
 10
57.8751366792
 20
-22.6286469887
 10
57.8519623914
 20
-22.6290216622
 10
57.8276037577
 20
-22.6293159774
 10
57.8022995983
 20
-22.6295257018
 10
57.7763373565
 20
-22.629655068
  0
LWPOLYLINE
  5
287
100
AcDbEntity
  8
RACCORDO
100
AcDbPolyline
 62
250
  6
CONTINUOUS
 90
11
 70
0
 10
55.5158996412
 20
-22.434313232
 10
55.5073732578
 20
-22.434614128
 10
55.4996883386
 20
-22.4348337163
 10
55.4928846702
 20
-22.4349728998
 10
55.4869765099
 20
-22.435040542
 10
55.4819167283
 20
-22.4350457667
 10
55.4777054305
 20
-22.4349940383
 10
55.4743266182
 20
-22.4348871592
 10
55.4717346496
 20
-22.4347252171
 10
55.4699094356
 20
-22.4345103445
 10
55.4688688665
 20
-22.4342668879
  0
LINE
  5
288
100
AcDbEntity
  8
26814000
100
AcDbLine
 62
250
  6
CONTINUOUS
 10
54.3354554255
 20
-23.8443375673
 11
52.0645445745
 21
-23.8443375673
  0
LINE
  5
289
100
AcDbEntity
  8
26814000
100
AcDbLine
 62
250
  6
CONTINUOUS
 10
35.4354554255
 20
-23.8443375673
 11
33.1645445745
 21
-23.8443375673
  0
LINE
  5
28A
100
AcDbEntity
  8
RACCORDO
100
AcDbLine
 62
250
  6
CONTINUOUS
 10
55.6
 20
-23.8443375673
 11
58.0
 21
-23.8443375673
  0
LINE
  5
28B
100
AcDbEntity
  8
RACCORDO
100
AcDbLine
 62
250
  6
CONTINUOUS
 10
74.5
 20
-23.8443375673
 11
76.9
 21
-23.8443375673
  0
LINE
  5
28C
100
AcDbEntity
  8
RACCORDO
100
AcDbLine
 62
7
  6
CONTINUOUS
 10
70.6528664467
 20
-23.8
 11
61.8471335533
 21
-23.8
  0
LINE
  5
28D
100
AcDbEntity
  8
26814000
100
AcDbLine
 62
7
  6
CONTINUOUS
 10
48.15
 20
-23.8
 11
39.35
 21
-23.8
  0
LINE
  5
28E
100
AcDbEntity
  8
26814000
100
AcDbLine
 62
7
  6
CONTINUOUS
 10
47.8459224421
 20
-23.7941821702
 11
39.6540775579
 21
-23.7941821702
  0
LINE
  5
28F
100
AcDbEntity
  8
RACCORDO
100
AcDbLine
 62
250
  6
CONTINUOUS
 10
76.65
 20
-23.6278312164
 11
74.75
 21
-23.6278312164
  0
LINE
  5
290
100
AcDbEntity
  8
RACCORDO
100
AcDbLine
 62
250
  6
CONTINUOUS
 10
57.75
 20
-23.6278312164
 11
55.85
 21
-23.6278312164
  0
LINE
  5
291
100
AcDbEntity
  8
26814000
100
AcDbLine
 62
250
  6
CONTINUOUS
 10
54.3361826542
 20
-23.6278312164
 11
52.0638173458
 21
-23.6278312164
  0
LINE
  5
292
100
AcDbEntity
  8
26814000
100
AcDbLine
 62
250
  6
CONTINUOUS
 10
35.4361826542
 20
-23.6278312164
 11
33.1638173458
 21
-23.6278312164
  0
LINE
  5
293
100
AcDbEntity
  8
RACCORDO
100
AcDbLine
 62
250
  6
CONTINUOUS
 10
55.85
 20
-23.1948185145
 11
57.75
 21
-23.1948185145
  0
LINE
  5
294
100
AcDbEntity
  8
RACCORDO
100
AcDbLine
 62
250
  6
CONTINUOUS
 10
74.75
 20
-23.1948185145
 11
76.65
 21
-23.1948185145
  0
LINE
  5
295
100
AcDbEntity
  8
26814000
100
AcDbLine
 62
7
  6
CONTINUOUS
 10
54.3412732553
 20
-23.1226497308
 11
52.0587267447
 21
-23.1226497308
  0
LINE
  5
296
100
AcDbEntity
  8
26814000
100
AcDbLine
 62
7
  6
CONTINUOUS
 10
35.4412732553
 20
-23.1226497308
 11
33.1587267447
 21
-23.1226497308
  0
LINE
  5
297
100
AcDbEntity
  8
RACCORDO
100
AcDbLine
 62
250
  6
CONTINUOUS
 10
55.6
 20
-22.9783121635
 11
58.0
 21
-22.9783121635
  0
LINE
  5
298
100
AcDbEntity
  8
RACCORDO
100
AcDbLine
 62
250
  6
CONTINUOUS
 10
74.5
 20
-22.9783121635
 11
76.9
 21
-22.9783121635
  0
LINE
  5
299
100
AcDbEntity
  8
RACCORDO
100
AcDbLine
 62
250
  6
CONTINUOUS
 10
76.6763373565
 20
-22.629655068
 11
74.75
 21
-22.629704076
  0
LINE
  5
29A
100
AcDbEntity
  8
RACCORDO
100
AcDbLine
 62
250
  6
CONTINUOUS
 10
57.7763373565
 20
-22.629655068
 11
55.85
 21
-22.629704076
  0
LINE
  5
29B
100
AcDbEntity
  8
RACCORDO
100
AcDbLine
 62
7
  6
CONTINUOUS
 10
55.6525936753
 20
-22.4349101299
 11
76.8474063247
 21
-22.4349101299
  0
LINE
  5
29C
100
AcDbEntity
  8
26814000
100
AcDbLine
 62
7
  6
CONTINUOUS
 10
32.95
 20
-22.4
 11
33.15
 21
-22.4
  0
LINE
  5
29D
100
AcDbEntity
  8
26814000
100
AcDbLine
 62
7
  6
CONTINUOUS
 10
35.45
 20
-22.4
 11
39.35
 21
-22.4
  0
LINE
  5
29E
100
AcDbEntity
  8
26814000
100
AcDbLine
 62
7
  6
CONTINUOUS
 10
48.15
 20
-22.4
 11
52.05
 21
-22.4
  0
LINE
  5
29F
100
AcDbEntity
  8
26814000
100
AcDbLine
 62
7
  6
CONTINUOUS
 10
54.35
 20
-22.4
 11
54.55
 21
-22.4
  0
LINE
  5
2A0
100
AcDbEntity
  8
26814000
100
AcDbLine
 62
7
  6
CONTINUOUS
 10
39.6540775579
 20
-22.3912731322
 11
47.8459224421
 21
-22.3912731322
  0
LINE
  5
2A1
100
AcDbEntity
  8
26814000
100
AcDbLine
 62
7
  6
CONTINUOUS
 10
54.3412732553
 20
-22.3869096983
 11
52.0587267447
 21
-22.3869096983
  0
LINE
  5
2A2
100
AcDbEntity
  8
26814000
100
AcDbLine
 62
7
  6
CONTINUOUS
 10
35.4412732553
 20
-22.3869096983
 11
33.1587267447
 21
-22.3869096983
  0
LINE
  5
2A3
100
AcDbEntity
  8
26814000
100
AcDbLine
 62
7
  6
CONTINUOUS
 10
32.95
 20
-22.3781828305
 11
54.55
 21
-22.3781828305
  0
LINE
  5
2A4
100
AcDbEntity
  8
RACCORDO
100
AcDbLine
 62
7
  6
CONTINUOUS
 10
33.6498781561
 20
-22.0073038415
 11
76.3501218439
 21
-22.0073038415
  0
LINE
  5
2A5
100
AcDbEntity
  8
26814000
100
AcDbLine
 62
7
  6
CONTINUOUS
 10
32.6
 20
-22.0
 11
33.5424534415
 21
-22.0
  0
LINE
  5
2A6
100
AcDbEntity
  8
DRAFT
100
AcDbLine
 62
7
  6
CONTINUOUS
 10
76.7423630962
 20
-21.9048099646
 11
77.3476348052
 21
-21.9048099646
  0
LINE
  5
2A7
100
AcDbEntity
  8
26814000
100
AcDbLine
 62
7
  6
CONTINUOUS
 10
32.6
 20
-21.858797755
 11
33.1852100737
 21
-21.858797755
  0
LWPOLYLINE
  5
2A8
100
AcDbEntity
  8
RACCORDO
100
AcDbPolyline
 62
250
  6
CONTINUOUS
 90
16
 70
0
 10
55.85
 20
-22.629704076
 10
55.8236626435
 20
-22.6296550681
 10
55.7977004017
 20
-22.6295257019
 10
55.7723962423
 20
-22.6293159775
 10
55.7480376086
 20
-22.6290216622
 10
55.7248633208
 20
-22.6286469887
 10
55.7030694665
 20
-22.6282046544
 10
55.6828969174
 20
-22.6276935558
 10
55.6645447859
 20
-22.6271147964
 10
55.64814718
 20
-22.6264843843
 10
55.6338855003
 20
-22.625800245
 10
55.6219469403
 20
-22.6250644531
 10
55.6124713629
 20
-22.6242992392
 10
55.6055882367
 20
-22.6235120136
 10
55.6014058954
 20
-22.6226953662
 10
55.6000000177
 20
-22.6218523475
  0
LWPOLYLINE
  5
2A9
100
AcDbEntity
  8
RACCORDO
100
AcDbPolyline
 62
250
  6
CONTINUOUS
 90
16
 70
0
 10
74.75
 20
-22.629704076
 10
74.7236626435
 20
-22.6296550681
 10
74.6977004017
 20
-22.6295257019
 10
74.6723962423
 20
-22.6293159775
 10
74.6480376086
 20
-22.6290216622
 10
74.6248633208
 20
-22.6286469887
 10
74.6030694665
 20
-22.6282046544
 10
74.5828969174
 20
-22.6276935558
 10
74.5645447859
 20
-22.6271147964
 10
74.54814718
 20
-22.6264843843
 10
74.5338855003
 20
-22.625800245
 10
74.5219469403
 20
-22.6250644531
 10
74.5124713629
 20
-22.6242992392
 10
74.5055882367
 20
-22.6235120136
 10
74.5014058954
 20
-22.6226953662
 10
74.5000000177
 20
-22.6218523475
  0
LWPOLYLINE
  5
2AA
100
AcDbEntity
  8
RACCORDO
100
AcDbPolyline
 62
250
  6
CONTINUOUS
 90
9
 70
0
 10
77.0003868392
 20
-22.4348287482
 10
77.007147321
 20
-22.4349826679
 10
77.0131088068
 20
-22.4350501346
 10
77.0182121953
 20
-22.4350504227
 10
77.0224197457
 20
-22.4350001996
 10
77.025781289
 20
-22.4348897213
 10
77.0283677938
 20
-22.4347096702
 10
77.0302035158
 20
-22.4344755384
 10
77.0312164527
 20
-22.4342358574
  0
LWPOLYLINE
  5
2AB
100
AcDbEntity
  8
RACCORDO
100
AcDbPolyline
 62
250
  6
CONTINUOUS
 90
16
 70
0
 10
33.750044228
 20
-21.3078488151
 10
33.6664503427
 20
-21.3033228862
 10
33.5837719748
 20
-21.2901502607
 10
33.5029146147
 20
-21.268475205
 10
33.4247638094
 20
-21.2385351032
 10
33.3501754637
 20
-21.2006578585
 10
33.2799664666
 20
-21.155258301
 10
33.2149057446
 20
-21.1028336453
 10
33.1557058402
 20
-21.0439580441
 10
33.1030151089
 20
-20.9792763011
 10
33.0574106176
 20
-20.9094968084
 10
33.0193918251
 20
-20.8353837885
 10
32.9893751118
 20
-20.7577489247
 10
32.9676892197
 20
-20.677442471
 10
32.954571652
 20
-20.5953439412
 10
32.9501660718
 20
-20.5123524752
  0
LWPOLYLINE
  5
2AC
100
AcDbEntity
  8
RACCORDO
100
AcDbPolyline
 62
250
  6
CONTINUOUS
 90
12
 70
0
 10
33.7656971746
 20
17.3695041919
 10
33.7687047463
 20
14.0159755313
 10
33.771044097
 20
10.6567077905
 10
33.7727153551
 20
7.2921311116
 10
33.7737183922
 20
3.9226762326
 10
33.7740528234
 20
0.5487744314
 10
33.7737183922
 20
-2.8291423189
 10
33.7727153551
 20
-6.2106415313
 10
33.771044097
 20
-9.5952903864
 10
33.7687047463
 20
-12.9826555777
 10
33.7656971746
 20
-16.3723033664
 10
33.7619084902
 20
-19.8875603764
  0
LWPOLYLINE
  5
2AD
100
AcDbEntity
  8
RACCORDO
100
AcDbPolyline
 62
250
  6
CONTINUOUS
 90
18
 70
0
 10
33.7619084902
 20
-19.8875603764
 10
33.7617169158
 20
-20.0108529971
 10
33.7614466588
 20
-20.1328383565
 10
33.7610948537
 20
-20.2526876283
 10
33.7606643659
 20
-20.3695835133
 10
33.7601637922
 20
-20.4827262138
 10
33.759591662
 20
-20.5913430885
 10
33.7589494459
 20
-20.6946991266
 10
33.7582501514
 20
-20.7920967251
 10
33.7574925718
 20
-20.882873057
 10
33.7566779139
 20
-20.9664104196
 10
33.7558228059
 20
-21.0421441068
 10
33.7549265583
 20
-21.1095593008
 10
33.7539898604
 20
-21.1681933252
 10
33.7530314089
 20
-21.2176438768
 10
33.7520574357
 20
-21.257573403
 10
33.7510617087
 20
-21.2877102716
 10
33.750044228
 20
-21.3078488151
  0
LINE
  5
2AE
100
AcDbEntity
  8
26814000
100
AcDbLine
 62
7
  6
CONTINUOUS
 10
48.1459173652
 20
23.7959173652
 11
48.15
 21
23.8
  0
LINE
  5
2AF
100
AcDbEntity
  8
RACCORDO
100
AcDbLine
 62
7
  6
CONTINUOUS
 10
55.4215822584
 20
22.4141499712
 11
55.4684429794
 21
22.4339535759
  0
LWPOLYLINE
  5
2B0
100
AcDbEntity
  8
RACCORDO
100
AcDbPolyline
 62
7
  6
CONTINUOUS
 90
3
 70
0
 10
55.4688574112
 20
22.4342644365
 10
55.457809302
 20
22.4300988096
 10
55.413664238
 20
22.4103465305
  0
LWPOLYLINE
  5
2B1
100
AcDbEntity
  8
RACCORDO
100
AcDbPolyline
 62
250
  6
CONTINUOUS
 90
15
 70
0
 10
33.6793231442
 20
-19.7638604978
 10
33.5975109869
 20
-19.7642354096
 10
33.5174614987
 20
-19.7649212679
 10
33.4400323819
 20
-19.765910724
 10
33.3660532626
 20
-19.7671931762
 10
33.296316801
 20
-19.7687548829
 10
33.231570199
 20
-19.7705791108
 10
33.172507194
 20
-19.772646314
 10
33.1197606253
 20
-19.7749343432
 10
33.073895654
 20
-19.7774186829
 10
33.0354037074
 20
-19.7800727142
 10
33.004697213
 20
-19.7828680001
 10
32.9821051804
 20
-19.7857745901
 10
32.9678696752
 20
-19.7887613411
 10
32.9621432259
 20
-19.7917962512
  0
LINE
  5
2B2
100
AcDbEntity
  8
DRAFT
100
AcDbLine
 62
7
  6
CONTINUOUS
 10
76.8590025078
 20
-21.825
 11
77.3589805974
 21
-21.825
  0
LINE
  5
2B3
100
AcDbEntity
  8
RACCORDO
100
AcDbLine
 62
250
  6
CONTINUOUS
 10
76.249955772
 20
-21.3078488151
 11
33.750044228
 21
-21.3078488151
  0
LINE
  5
2B4
100
AcDbEntity
  8
26814000
100
AcDbLine
 62
7
  6
CONTINUOUS
 10
32.6
 20
-19.9536487485
 11
32.85
 21
-19.9536487485
  0
LINE
  5
2B5
100
AcDbEntity
  8
DRAFT
100
AcDbLine
 62
7
  6
CONTINUOUS
 10
77.15
 20
-19.9536487485
 11
77.3589805974
 21
-19.9536487485
  0
LINE
  5
2B6
100
AcDbEntity
  8
RACCORDO
100
AcDbLine
 62
250
  6
CONTINUOUS
 10
76.237978618
 20
-19.7637997637
 11
33.6793231442
 21
-19.7638604978
  0
LWPOLYLINE
  5
2B7
100
AcDbEntity
  8
RACCORDO
100
AcDbPolyline
 62
250
  6
CONTINUOUS
 90
16
 70
0
 10
76.237978618
 20
-19.7637997649
 10
76.3206776622
 20
-19.7638597106
 10
76.4024905977
 20
-19.7642346303
 10
76.4825408102
 20
-19.7649205068
 10
76.5599705729
 20
-19.7659099911
 10
76.6339502367
 20
-19.767192481
 10
76.7036871197
 20
-19.7687542343
 10
76.7684340011
 20
-19.7705785169
 10
76.8274971269
 20
-19.7726457821
 10
76.8802436442
 20
-19.7749338793
 10
76.9261083811
 20
-19.777418292
 10
76.9645999036
 20
-19.7800723999
 10
76.9953057802
 20
-19.7828677646
 10
77.0178970019
 20
-19.7857744343
 10
77.0321315068
 20
-19.7887612643
 10
77.0378567742
 20
-19.7917962512
  0
LINE
  5
2B8
100
AcDbEntity
  8
RACCORDO
100
AcDbLine
 62
250
  6
CONTINUOUS
 10
76.9843174944
 20
-22.4343505691
 11
77.0003868392
 21
-22.4348287482
  0
LINE
  5
2B9
100
AcDbEntity
  8
RACCORDO
100
AcDbLine
 62
250
  6
CONTINUOUS
 10
76.9753149876
 20
-22.4339734016
 11
76.9843174944
 21
-22.4343505691
  0
LINE
  5
2BA
100
AcDbEntity
  8
RACCORDO
100
AcDbLine
 62
250
  6
CONTINUOUS
 10
76.955573539
 20
-22.4330335969
 11
76.9753149876
 21
-22.4339734016
  0
LINE
  5
2BB
100
AcDbEntity
  8
RACCORDO
100
AcDbLine
 62
250
  6
CONTINUOUS
 10
76.9121422063
 20
-22.4306688853
 11
76.955573539
 21
-22.4330335969
  0
LWPOLYLINE
  5
2BC
100
AcDbEntity
  8
RACCORDO
100
AcDbPolyline
 62
7
  6
CONTINUOUS
 90
5
 70
0
 10
55.4698825516
 20
-22.4346387023
 10
55.4802545597
 20
-22.4388132837
 10
55.4908690267
 20
-22.4438178561
 10
55.5016376935
 20
-22.4497157707
 10
55.512469121
 20
-22.4565693461
  0
LINE
  5
2BD
100
AcDbEntity
  8
RACCORDO
100
AcDbLine
 62
7
  6
CONTINUOUS
 10
55.4684429794
 20
-22.4339535759
 11
55.4215822584
 21
-22.4141499712
  0
LWPOLYLINE
  5
2BE
100
AcDbEntity
  8
RACCORDO
100
AcDbPolyline
 62
7
  6
CONTINUOUS
 90
3
 70
0
 10
55.4187356438
 20
-22.4128785312
 10
55.4637368539
 20
-22.4323690199
 10
55.4698825516
 20
-22.4346387023
  0
LINE
  5
2BF
100
AcDbEntity
  8
26814000
100
AcDbLine
 62
7
  6
CONTINUOUS
 10
48.1459173652
 20
-23.7959173652
 11
48.15
 21
-23.8
  0
LINE
  5
2C0
100
AcDbEntity
  8
26814000
100
AcDbLine
 62
7
  6
CONTINUOUS
 10
35.4412732553
 20
23.1226497308
 11
35.4361826542
 21
23.6278312164
  0
LINE
  5
2C1
100
AcDbEntity
  8
26814000
100
AcDbLine
 62
7
  6
CONTINUOUS
 10
35.4354554255
 20
24.1369056521
 11
35.4354554255
 21
23.8443375673
  0
LINE
  5
2C2
100
AcDbEntity
  8
26814000
100
AcDbLine
 62
7
  6
CONTINUOUS
 10
35.4354554255
 20
-23.8443375673
 11
35.4354554255
 21
-24.1369056521
  0
LINE
  5
2C3
100
AcDbEntity
  8
26814000
100
AcDbLine
 62
7
  6
CONTINUOUS
 10
35.4412732553
 20
-23.1226497308
 11
35.4412732553
 21
-22.3869096983
  0
LINE
  5
2C4
100
AcDbEntity
  8
26814000
100
AcDbLine
 62
7
  6
CONTINUOUS
 10
35.4412732553
 20
22.3869096983
 11
35.4412732553
 21
23.1226497308
  0
LINE
  5
2C5
100
AcDbEntity
  8
26814000
100
AcDbLine
 62
7
  6
CONTINUOUS
 10
35.45
 20
-22.4
 11
35.45
 21
-24.4
  0
LINE
  5
2C6
100
AcDbEntity
  8
26814000
100
AcDbLine
 62
7
  6
CONTINUOUS
 10
35.45
 20
22.4
 11
35.45
 21
24.4
  0
LINE
  5
2C7
100
AcDbEntity
  8
26814000
100
AcDbLine
 62
7
  6
CONTINUOUS
 10
35.4361826542
 20
-23.6278312164
 11
35.4412732553
 21
-23.1226497308
  0
LINE
  5
2C8
100
AcDbEntity
  8
RACCORDO
100
AcDbLine
 62
250
  6
CONTINUOUS
 10
32.9501660718
 20
-20.5123524752
 11
32.85
 21
-21.2118075016
  0
LINE
  5
2C9
100
AcDbEntity
  8
RACCORDO
100
AcDbLine
 62
250
  6
CONTINUOUS
 10
33.750044228
 20
-21.3078488151
 11
33.6498781561
 21
-22.0073038415
  0
LINE
  5
2CA
100
AcDbEntity
  8
26814000
100
AcDbLine
 62
7
  6
CONTINUOUS
 10
48.1459173652
 20
22.3938759614
 11
48.15
 21
22.4
  0
LINE
  5
2CB
100
AcDbEntity
  8
26814000
100
AcDbLine
 62
7
  6
CONTINUOUS
 10
54.3369014213
 20
24.3869014213
 11
54.35
 21
24.4
  0
LWPOLYLINE
  5
2CC
100
AcDbEntity
  8
RACCORDO
100
AcDbPolyline
 62
7
  6
CONTINUOUS
 90
6
 70
0
 10
55.5208872858
 20
22.4626091871
 10
55.5100117297
 20
22.4549282717
 10
55.4988840782
 20
22.4481253036
 10
55.4876844304
 20
22.4422361506
 10
55.4768533112
 20
22.4373699936
 10
55.4688808802
 20
22.4342727212
  0
LWPOLYLINE
  5
2CD
100
AcDbEntity
  8
RACCORDO
100
AcDbPolyline
 62
7
  6
CONTINUOUS
 90
5
 70
0
 10
55.413664238
 20
22.4103465305
 10
55.3716948591
 20
22.386463203
 10
55.3322795788
 20
22.3586887068
 10
55.2957685877
 20
22.3272947971
 10
55.262494468
 20
22.2925958511
  0
LWPOLYLINE
  5
2CE
100
AcDbEntity
  8
RACCORDO
100
AcDbPolyline
 62
7
  6
CONTINUOUS
 90
5
 70
0
 10
55.4215822584
 20
-22.4141499712
 10
55.3769794896
 20
-22.3896854416
 10
55.3350967172
 20
-22.3608134172
 10
55.2963678086
 20
-22.3278329861
 10
55.2611939601
 20
-22.2910857954
  0
LINE
  5
2CF
100
AcDbEntity
  8
RACCORDO
100
AcDbLine
 62
7
  6
CONTINUOUS
 10
55.512469121
 20
-22.4565693461
 11
55.52298043
 21
-22.4642164863
  0
LINE
  5
2D0
100
AcDbEntity
  8
26814000
100
AcDbLine
 62
7
  6
CONTINUOUS
 10
54.3369014213
 20
-24.3869014213
 11
54.35
 21
-24.4
  0
LINE
  5
2D1
100
AcDbEntity
  8
26814000
100
AcDbLine
 62
7
  6
CONTINUOUS
 10
48.1459173652
 20
-22.3938759614
 11
48.15
 21
-22.4
  0
LINE
  5
2D2
100
AcDbEntity
  8
26814000
100
AcDbLine
 62
7
  6
CONTINUOUS
 10
39.35
 20
-23.8
 11
39.35
 21
-22.4
  0
LINE
  5
2D3
100
AcDbEntity
  8
26814000
100
AcDbLine
 62
7
  6
CONTINUOUS
 10
39.35
 20
22.4
 11
39.35
 21
23.8
  0
LINE
  5
2D4
100
AcDbEntity
  8
26814000
100
AcDbLine
 62
250
  6
CONTINUOUS
 10
39.3540826348
 20
23.7959173652
 11
39.3540826348
 21
22.3938759614
  0
LINE
  5
2D5
100
AcDbEntity
  8
26814000
100
AcDbLine
 62
250
  6
CONTINUOUS
 10
39.3540826348
 20
-22.3938759614
 11
39.3540826348
 21
-23.7959173652
  0
LINE
  5
2D6
100
AcDbEntity
  8
26814000
100
AcDbLine
 62
250
  6
CONTINUOUS
 10
39.6540775579
 20
23.7941821702
 11
39.6540775579
 21
22.3912731322
  0
LINE
  5
2D7
100
AcDbEntity
  8
26814000
100
AcDbLine
 62
250
  6
CONTINUOUS
 10
39.6540775579
 20
-22.3912731322
 11
39.6540775579
 21
-23.7941821702
  0
LINE
  5
2D8
100
AcDbEntity
  8
RACCORDO
100
AcDbLine
 62
7
  6
CONTINUOUS
 10
55.2611939601
 20
22.2910857954
 11
55.2963678086
 21
22.3278329861
  0
LWPOLYLINE
  5
2D9
100
AcDbEntity
  8
RACCORDO
100
AcDbPolyline
 62
7
  6
CONTINUOUS
 90
4
 70
0
 10
55.2963678086
 20
22.3278329861
 10
55.3350967172
 20
22.3608134172
 10
55.3769794896
 20
22.3896854416
 10
55.4215822584
 20
22.4141499712
  0
LWPOLYLINE
  5
2DA
100
AcDbEntity
  8
RACCORDO
100
AcDbPolyline
 62
7
  6
CONTINUOUS
 90
13
 70
0
 10
55.52298043
 20
-22.4642164863
 10
55.5330249154
 20
-22.4725799811
 10
55.5426246409
 20
-22.4817093938
 10
55.5516918726
 20
-22.4915648285
 10
55.5601464468
 20
-22.5020970219
 10
55.5679477705
 20
-22.5132966939
 10
55.5750634318
 20
-22.5251787212
 10
55.5814258399
 20
-22.5377123017
 10
55.586962727
 20
-22.5508495303
 10
55.5916182504
 20
-22.5645794045
 10
55.5953181633
 20
-22.5788459881
 10
55.5979908966
 20
-22.5935852782
 10
55.5995709452
 20
-22.6087662238
  0
LWPOLYLINE
  5
2DB
100
AcDbEntity
  8
RACCORDO
100
AcDbPolyline
 62
7
  6
CONTINUOUS
 90
4
 70
0
 10
55.2984433116
 20
-22.3298055514
 10
55.3357070521
 20
-22.3613328444
 10
55.3759268994
 20
-22.3891175297
 10
55.4187356438
 20
-22.4128785312
  0
LINE
  5
2DC
100
AcDbEntity
  8
RACCORDO
100
AcDbLine
 62
7
  6
CONTINUOUS
 10
55.2644842293
 20
-22.2948618356
 11
55.2984433116
 21
-22.3298055514
  0
LWPOLYLINE
  5
2DD
100
AcDbEntity
  8
RACCORDO
100
AcDbPolyline
 62
250
  6
CONTINUOUS
 90
18
 70
0
 10
33.7511204737
 20
21.9592312562
 10
33.7520574356
 20
21.9546937646
 10
33.7530314088
 20
21.9399924865
 10
33.7539898604
 20
21.9152108529
 10
33.7549265583
 20
21.8805181927
 10
33.7558228059
 20
21.8361530208
 10
33.756677914
 20
21.782420633
 10
33.7574925718
 20
21.7196870119
 10
33.7582501514
 20
21.6483764979
 10
33.7589494458
 20
21.5689743494
 10
33.759591662
 20
21.4820209412
 10
33.7601637922
 20
21.3881029841
 10
33.7606643659
 20
21.2878555532
 10
33.7610948537
 20
21.1819627797
 10
33.7614466588
 20
21.0711489709
 10
33.7617169158
 20
20.9561697724
 10
33.7619084902
 20
20.8378063714
 10
33.7656971746
 20
17.3695041919
  0
LINE
  5
2DE
100
AcDbEntity
  8
RACCORDO
100
AcDbLine
 62
7
  6
CONTINUOUS
 10
55.2357407736
 20
22.2590681146
 11
55.2226200751
 21
22.2413617607
  0
LINE
  5
2DF
100
AcDbEntity
  8
RACCORDO
100
AcDbLine
 62
7
  6
CONTINUOUS
 10
55.2362834262
 20
22.2598081257
 11
55.2401416033
 21
22.2650008331
  0
LINE
  5
2E0
100
AcDbEntity
  8
RACCORDO
100
AcDbLine
 62
7
  6
CONTINUOUS
 10
55.2226200751
 20
22.2413617607
 11
55.2202685336
 21
22.2382089476
  0
LINE
  5
2E1
100
AcDbEntity
  8
RACCORDO
100
AcDbLine
 62
7
  6
CONTINUOUS
 10
55.262494468
 20
22.2925958511
 11
55.2401387484
 21
22.265003001
  0
LWPOLYLINE
  5
2E2
100
AcDbEntity
  8
RACCORDO
100
AcDbPolyline
 62
7
  6
CONTINUOUS
 90
18
 70
0
 10
74.3705569304
 20
-22.4349101299
 10
74.3802545597
 20
-22.4388132837
 10
74.3908690267
 20
-22.4438178561
 10
74.4016376935
 20
-22.4497157707
 10
74.412469121
 20
-22.4565693461
 10
74.42298043
 20
-22.4642164863
 10
74.4330249154
 20
-22.4725799811
 10
74.4426246409
 20
-22.4817093938
 10
74.4516918726
 20
-22.4915648285
 10
74.4601464468
 20
-22.5020970219
 10
74.4679477705
 20
-22.5132966939
 10
74.4750634318
 20
-22.5251787212
 10
74.4814258399
 20
-22.5377123017
 10
74.486962727
 20
-22.5508495303
 10
74.4916182504
 20
-22.5645794045
 10
74.4953181633
 20
-22.5788459881
 10
74.4979908966
 20
-22.5935852782
 10
74.4995709452
 20
-22.6087662238
  0
LINE
  5
2E3
100
AcDbEntity
  8
RACCORDO
100
AcDbLine
 62
7
  6
CONTINUOUS
 10
55.2280238602
 20
-22.247895532
 11
55.221958467
 21
-22.2404790742
  0
LINE
  5
2E4
100
AcDbEntity
  8
RACCORDO
100
AcDbLine
 62
7
  6
CONTINUOUS
 10
55.2407724398
 20
-22.2658364642
 11
55.2644842293
 21
-22.2948618356
  0
LINE
  5
2E5
100
AcDbEntity
  8
RACCORDO
100
AcDbLine
 62
7
  6
CONTINUOUS
 10
55.2611939601
 20
-22.2910857954
 11
55.2407723414
 21
-22.265836535
  0
LINE
  5
2E6
100
AcDbEntity
  8
RACCORDO
100
AcDbLine
 62
7
  6
CONTINUOUS
 10
55.2407723414
 20
-22.265836535
 11
55.2362834265
 21
-22.2598081261
  0
LINE
  5
2E7
100
AcDbEntity
  8
RACCORDO
100
AcDbLine
 62
7
  6
CONTINUOUS
 10
55.2202939314
 20
-22.2382445812
 11
55.2282468872
 21
-22.2489115284
  0
LWPOLYLINE
  5
2E8
100
AcDbEntity
  8
RACCORDO
100
AcDbPolyline
 62
7
  6
CONTINUOUS
 90
3
 70
0
 10
55.2282468872
 20
-22.2489115284
 10
55.2357407715
 20
-22.2590681118
 10
55.2362834265
 20
-22.2598081261
  0
LINE
  5
2E9
100
AcDbEntity
  8
RACCORDO
100
AcDbLine
 62
7
  6
CONTINUOUS
 10
55.1984210433
 20
22.2061850331
 11
55.1853988594
 21
22.1841887992
  0
LINE
  5
2EA
100
AcDbEntity
  8
RACCORDO
100
AcDbLine
 62
7
  6
CONTINUOUS
 10
55.2128452172
 20
22.2279139076
 11
55.1984210433
 21
22.2061850331
  0
LINE
  5
2EB
100
AcDbEntity
  8
26814000
100
AcDbLine
 62
7
  6
CONTINUOUS
 10
54.35
 20
22.4
 11
54.3412732553
 21
22.3869096983
  0
LINE
  5
2EC
100
AcDbEntity
  8
RACCORDO
100
AcDbLine
 62
7
  6
CONTINUOUS
 10
55.2202685336
 20
22.2382089476
 11
55.2128452172
 21
22.2279139076
  0
LWPOLYLINE
  5
2ED
100
AcDbEntity
  8
RACCORDO
100
AcDbPolyline
 62
250
  6
CONTINUOUS
 90
8
 70
0
 10
77.3533544073
 20
-21.9289665558
 10
77.3538483281
 20
-21.9291504935
 10
77.3543199039
 20
-21.9298393458
 10
77.3547691347
 20
-21.9310331126
 10
77.3551949979
 20
-21.9328454153
 10
77.3555985161
 20
-21.9351626325
 10
77.3559827571
 20
-21.9376439004
 10
77.3563481682
 20
-21.9402532614
  0
LWPOLYLINE
  5
2EE
100
AcDbEntity
  8
RACCORDO
100
AcDbPolyline
 62
7
  6
CONTINUOUS
 90
3
 70
0
 10
55.2202939314
 20
-22.2382445812
 10
55.2163091003
 20
-22.2327872527
 10
55.1881833059
 20
-22.1890898516
  0
LINE
  5
2EF
100
AcDbEntity
  8
RACCORDO
100
AcDbLine
 62
7
  6
CONTINUOUS
 10
55.2362834265
 20
-22.2598081261
 11
55.2299395409
 21
-22.2509525128
  0
LINE
  5
2F0
100
AcDbEntity
  8
26814000
100
AcDbLine
 62
7
  6
CONTINUOUS
 10
54.3412732553
 20
-22.3869096983
 11
54.35
 21
-22.4
  0
LWPOLYLINE
  5
2F1
100
AcDbEntity
  8
RACCORDO
100
AcDbPolyline
 62
7
  6
CONTINUOUS
 90
7
 70
0
 10
55.2299395409
 20
-22.2509525128
 10
55.2029283182
 20
-22.2078488826
 10
55.1804401039
 20
-22.1622214191
 10
55.1627078555
 20
-22.1145427816
 10
55.1499152628
 20
-22.0653068773
 10
55.1421948456
 20
-22.0150237454
 10
55.1418046277
 20
-22.0073038415
  0
LWPOLYLINE
  5
2F2
100
AcDbEntity
  8
0
100
AcDbPolyline
 62
7
  6
CONTINUOUS
 90
3
 70
0
 43
0.3500000006
 10
56.0357145538
 20
33.5357164307
 10
55.9642879028
 20
33.3214274139
 10
55.821430069
 20
33.0357162781
  0
LWPOLYLINE
  5
2F3
100
AcDbEntity
  8
RACCORDO
100
AcDbPolyline
 62
7
  6
CONTINUOUS
 90
4
 70
0
 10
55.164747529
 20
22.1427036329
 10
55.1881821806
 20
22.189086887
 10
55.2163079707
 20
22.2327843734
 10
55.2202685336
 20
22.2382089476
  0
LWPOLYLINE
  5
2F4
100
AcDbEntity
  8
RACCORDO
100
AcDbPolyline
 62
7
  6
CONTINUOUS
 90
3
 70
0
 10
55.1853988594
 20
22.1841887992
 10
55.1738033803
 20
22.1621447007
 10
55.1637385079
 20
22.1405259469
  0
LWPOLYLINE
  5
2F5
100
AcDbEntity
  8
RACCORDO
100
AcDbPolyline
 62
250
  6
CONTINUOUS
 90
7
 70
0
 10
74.5000000186
 20
22.6218524218
 10
74.5014058954
 20
22.6226953667
 10
74.5055882367
 20
22.6235120145
 10
74.5124713628
 20
22.6242992401
 10
74.5219469403
 20
22.6250644537
 10
74.5338855003
 20
22.6258002451
 10
74.54814718
 20
22.626484384
  0
LINE
  5
2F6
100
AcDbEntity
  8
RACCORDO
100
AcDbLine
 62
7
  6
CONTINUOUS
 10
55.1881833059
 20
-22.1890898516
 11
55.1647486977
 21
-22.142706679
  0
LWPOLYLINE
  5
2F7
100
AcDbEntity
  8
RACCORDO
100
AcDbPolyline
 62
7
  6
CONTINUOUS
 90
6
 70
0
 10
55.1626327169
 20
-22.1379764118
 10
55.1713499682
 20
-22.1571157463
 10
55.1810717178
 20
-22.1762696032
 10
55.1918806764
 20
-22.1954577793
 10
55.2037335813
 20
-22.214477295
 10
55.2166210315
 20
-22.2332203408
  0
LINE
  5
2F8
100
AcDbEntity
  8
26814000
100
AcDbLine
 62
250
  6
CONTINUOUS
 10
47.8459224421
 20
-23.7941821702
 11
47.8459224421
 21
-22.3912731322
  0
LINE
  5
2F9
100
AcDbEntity
  8
26814000
100
AcDbLine
 62
250
  6
CONTINUOUS
 10
47.8459224421
 20
22.3912731322
 11
47.8459224421
 21
23.7941821702
  0
LINE
  5
2FA
100
AcDbEntity
  8
26814000
100
AcDbLine
 62
250
  6
CONTINUOUS
 10
48.1459173652
 20
-23.7959173652
 11
48.1459173652
 21
-22.3938759614
  0
LINE
  5
2FB
100
AcDbEntity
  8
26814000
100
AcDbLine
 62
250
  6
CONTINUOUS
 10
48.1459173652
 20
22.3938759614
 11
48.1459173652
 21
23.7959173652
  0
LINE
  5
2FC
100
AcDbEntity
  8
26814000
100
AcDbLine
 62
7
  6
CONTINUOUS
 10
48.15
 20
23.8
 11
48.15
 21
22.4
  0
LINE
  5
2FD
100
AcDbEntity
  8
26814000
100
AcDbLine
 62
7
  6
CONTINUOUS
 10
48.15
 20
-22.4
 11
48.15
 21
-23.8
  0
LWPOLYLINE
  5
2FE
100
AcDbEntity
  8
RACCORDO
100
AcDbPolyline
 62
7
  6
CONTINUOUS
 90
10
 70
0
 10
55.1477336233
 20
22.09899859
 10
55.1416503515
 20
22.0795927257
 10
55.1366503478
 20
22.0611772254
 10
55.1326146817
 20
22.0438933594
 10
55.1295179633
 20
22.0284143261
 10
55.127183957
 20
22.0148336882
 10
55.1254141342
 20
22.0029378584
 10
55.1241076665
 20
21.9929534887
 10
55.1231854521
 20
21.9851567862
 10
55.1215809229
 20
21.9704243595
  0
LINE
  5
2FF
100
AcDbEntity
  8
RACCORDO
100
AcDbLine
 62
7
  6
CONTINUOUS
 10
55.1462573722
 20
22.0941360695
 11
55.164747529
 21
22.1427036329
  0
LWPOLYLINE
  5
300
100
AcDbEntity
  8
RACCORDO
100
AcDbPolyline
 62
7
  6
CONTINUOUS
 90
9
 70
0
 10
55.589384385
 20
22.5575841549
 10
55.5836419986
 20
22.5426632573
 10
55.5768737901
 20
22.5285301498
 10
55.5691920967
 20
22.5152451751
 10
55.5607060405
 20
22.5028486008
 10
55.5515247421
 20
22.4913709771
 10
55.5417617939
 20
22.4808380598
 10
55.5315138987
 20
22.4712494557
 10
55.5208872858
 20
22.4626091871
  0
LWPOLYLINE
  5
301
100
AcDbEntity
  8
RACCORDO
100
AcDbPolyline
 62
7
  6
CONTINUOUS
 90
3
 70
0
 10
55.1637385079
 20
22.1405259469
 10
55.1550901544
 20
22.1194504383
 10
55.1477336233
 20
22.09899859
  0
LINE
  5
302
100
AcDbEntity
  8
RACCORDO
100
AcDbLine
 62
7
  6
CONTINUOUS
 10
55.1549136629
 20
-22.1189899632
 11
55.1626327169
 21
-22.1379764118
  0
LINE
  5
303
100
AcDbEntity
  8
RACCORDO
100
AcDbLine
 62
7
  6
CONTINUOUS
 10
55.1647486977
 20
-22.142706679
 11
55.1462586334
 21
-22.0941391958
  0
LINE
  5
304
100
AcDbEntity
  8
RACCORDO
100
AcDbLine
 62
7
  6
CONTINUOUS
 10
55.1482778436
 20
-22.1006104891
 11
55.1549136629
 21
-22.1189899632
  0
LINE
  5
305
100
AcDbEntity
  8
26814000
100
AcDbLine
 62
7
  6
CONTINUOUS
 10
33.1587267447
 20
-22.3869096983
 11
33.15
 21
-22.4
  0
LINE
  5
306
100
AcDbEntity
  8
26814000
100
AcDbLine
 62
7
  6
CONTINUOUS
 10
33.15
 20
22.4
 11
33.1587267447
 21
22.3869096983
  0
LWPOLYLINE
  5
307
100
AcDbEntity
  8
RACCORDO
100
AcDbPolyline
 62
7
  6
CONTINUOUS
 90
3
 70
0
 10
55.1462586334
 20
-22.0941391958
 10
55.1329130139
 20
-22.0439124778
 10
55.127168274
 20
-22.0073038415
  0
LINE
  5
308
100
AcDbEntity
  8
26814000
100
AcDbLine
 62
7
  6
CONTINUOUS
 10
52.0638173458
 20
-23.6278312164
 11
52.0587267447
 21
-23.1226497308
  0
LWPOLYLINE
  5
309
100
AcDbEntity
  8
0
100
AcDbPolyline
 62
7
  6
CONTINUOUS
 90
2
 70
0
 43
0.3500000006
 10
51.6071443634
 20
33.2500007629
 10
51.6071443634
 20
34.7500012207
  0
LINE
  5
30A
100
AcDbEntity
  8
26814000
100
AcDbLine
 62
7
  6
CONTINUOUS
 10
52.05
 20
-22.4
 11
52.05
 21
-24.4
  0
LINE
  5
30B
100
AcDbEntity
  8
26814000
100
AcDbLine
 62
7
  6
CONTINUOUS
 10
52.05
 20
22.4
 11
52.05
 21
24.4
  0
LINE
  5
30C
100
AcDbEntity
  8
26814000
100
AcDbLine
 62
7
  6
CONTINUOUS
 10
52.0587267447
 20
-23.1226497308
 11
52.0587267447
 21
-22.3869096983
  0
LINE
  5
30D
100
AcDbEntity
  8
26814000
100
AcDbLine
 62
7
  6
CONTINUOUS
 10
52.0587267447
 20
22.3869096983
 11
52.0587267447
 21
23.1226497308
  0
LINE
  5
30E
100
AcDbEntity
  8
26814000
100
AcDbLine
 62
7
  6
CONTINUOUS
 10
52.0645445745
 20
-24.1369056521
 11
52.0645445745
 21
-23.8443375673
  0
LINE
  5
30F
100
AcDbEntity
  8
26814000
100
AcDbLine
 62
7
  6
CONTINUOUS
 10
52.0645445745
 20
23.8443375673
 11
52.0645445745
 21
24.1369056521
  0
LINE
  5
310
100
AcDbEntity
  8
26814000
100
AcDbLine
 62
7
  6
CONTINUOUS
 10
52.0587267447
 20
23.1226497308
 11
52.0638173458
 21
23.6278312164
  0
LINE
  5
311
100
AcDbEntity
  8
RACCORDO
100
AcDbLine
 62
250
  6
CONTINUOUS
 10
55.1196547456
 20
21.9592312622
 11
55.1248201221
 21
21.9919002024
  0
LWPOLYLINE
  5
312
100
AcDbEntity
  8
RACCORDO
100
AcDbPolyline
 62
7
  6
CONTINUOUS
 90
8
 70
0
 10
55.126054204
 20
-22.0073038415
 10
55.126569194
 20
-22.0108844517
 10
55.1284426578
 20
-22.0224090133
 10
55.1308879652
 20
-22.0355611691
 10
55.1339677163
 20
-22.0499928247
 10
55.1378303171
 20
-22.0657758383
 10
55.142610068
 20
-22.0828421494
 10
55.1482778436
 20
-22.1006104891
  0
LINE
  5
313
100
AcDbEntity
  8
RACCORDO
100
AcDbLine
 62
7
  6
CONTINUOUS
 10
55.5995709452
 20
-22.6087662238
 11
55.599999721
 21
-22.6218538841
  0
LINE
  5
314
100
AcDbEntity
  8
26814000
100
AcDbLine
 62
7
  6
CONTINUOUS
 10
54.3412732553
 20
23.1226497308
 11
54.3361826542
 21
23.6278312164
  0
LWPOLYLINE
  5
315
100
AcDbEntity
  8
0
100
AcDbPolyline
 62
7
  6
CONTINUOUS
 90
2
 70
0
 43
0.3500000006
 10
53.9642872925
 20
33.2500007629
 10
53.9642872925
 20
34.7500012207
  0
LINE
  5
316
100
AcDbEntity
  8
26814000
100
AcDbLine
 62
7
  6
CONTINUOUS
 10
54.3354554255
 20
24.1369056521
 11
54.3354554255
 21
23.8443375673
  0
LINE
  5
317
100
AcDbEntity
  8
26814000
100
AcDbLine
 62
7
  6
CONTINUOUS
 10
54.3354554255
 20
-23.8443375673
 11
54.3354554255
 21
-24.1369056521
  0
LINE
  5
318
100
AcDbEntity
  8
26814000
100
AcDbLine
 62
7
  6
CONTINUOUS
 10
54.3412732553
 20
-23.1226497308
 11
54.3412732553
 21
-22.3869096983
  0
LINE
  5
319
100
AcDbEntity
  8
26814000
100
AcDbLine
 62
7
  6
CONTINUOUS
 10
54.3412732553
 20
22.3869096983
 11
54.3412732553
 21
23.1226497308
  0
LINE
  5
31A
100
AcDbEntity
  8
26814000
100
AcDbLine
 62
7
  6
CONTINUOUS
 10
54.35
 20
-22.4
 11
54.35
 21
-24.4
  0
LINE
  5
31B
100
AcDbEntity
  8
26814000
100
AcDbLine
 62
7
  6
CONTINUOUS
 10
54.35
 20
22.4
 11
54.35
 21
24.4
  0
LINE
  5
31C
100
AcDbEntity
  8
26814000
100
AcDbLine
 62
250
  6
CONTINUOUS
 10
54.55
 20
22.4
 11
54.55
 21
22.3781828305
  0
LINE
  5
31D
100
AcDbEntity
  8
26814000
100
AcDbLine
 62
250
  6
CONTINUOUS
 10
54.55
 20
-22.3781828305
 11
54.55
 21
-22.4
  0
LINE
  5
31E
100
AcDbEntity
  8
26814000
100
AcDbLine
 62
7
  6
CONTINUOUS
 10
54.9
 20
22.0281695031
 11
54.9
 21
21.9592312622
  0
LINE
  5
31F
100
AcDbEntity
  8
26814000
100
AcDbLine
 62
7
  6
CONTINUOUS
 10
54.9
 20
-22.0073038415
 11
54.9
 21
-22.0281695031
  0
LINE
  5
320
100
AcDbEntity
  8
26814000
100
AcDbLine
 62
7
  6
CONTINUOUS
 10
54.3361826542
 20
-23.6278312164
 11
54.3412732553
 21
-23.1226497308
  0
LWPOLYLINE
  5
321
100
AcDbEntity
  8
RACCORDO
100
AcDbPolyline
 62
7
  6
CONTINUOUS
 90
5
 70
0
 10
55.5999983723
 20
22.6218493627
 10
55.5993935898
 20
22.6063127598
 10
55.597363192
 20
22.5895009525
 10
55.5939930934
 20
22.573224087
 10
55.589384385
 20
22.5575841549
  0
LWPOLYLINE
  5
322
100
AcDbEntity
  8
RACCORDO
100
AcDbPolyline
 62
7
  6
CONTINUOUS
 90
8
 70
0
 10
55.1396265803
 20
21.9642142737
 10
55.1421948456
 20
22.0150237455
 10
55.1499152628
 20
22.0653068773
 10
55.1627078555
 20
22.1145427816
 10
55.180440104
 20
22.1622214192
 10
55.2029283182
 20
22.2078488826
 10
55.2299395409
 20
22.2509525128
 10
55.2362834262
 20
22.2598081257
  0
LWPOLYLINE
  5
323
100
AcDbEntity
  8
RACCORDO
100
AcDbPolyline
 62
7
  6
CONTINUOUS
 90
4
 70
0
 10
55.1231324907
 20
21.9592312622
 10
55.124854529
 20
21.992566246
 10
55.132911611
 20
22.04390927
 10
55.1462573722
 20
22.0941360695
  0
LINE
  5
324
100
AcDbEntity
  8
26814000
100
AcDbLine
 62
7
  6
CONTINUOUS
 10
39.3540826348
 20
-22.3938759614
 11
39.35
 21
-22.4
  0
LWPOLYLINE
  5
325
100
AcDbEntity
  8
0
100
AcDbPolyline
 62
7
  6
CONTINUOUS
 90
2
 70
0
 43
0.3500000006
 10
84.6500031738
 20
-1.3571429443
 10
83.1500027161
 20
-1.3571429443
  0
LINE
  5
326
100
AcDbEntity
  8
26814000
100
AcDbLine
 62
7
  6
CONTINUOUS
 10
32.6
 20
0.0
 11
32.85
 21
0.0
  0
LINE
  5
327
100
AcDbEntity
  8
DRAFT
100
AcDbLine
 62
7
  6
CONTINUOUS
 10
77.15
 20
0.0
 11
77.3162156883
 21
0.0
  0
LINE
  5
328
100
AcDbEntity
  8
26814000
100
AcDbLine
 62
7
  6
CONTINUOUS
 10
39.3540826348
 20
22.3938759614
 11
39.35
 21
22.4
  0
LWPOLYLINE
  5
329
100
AcDbEntity
  8
RACCORDO
100
AcDbPolyline
 62
250
  6
CONTINUOUS
 90
13
 70
0
 10
58.0
 20
-23.4113248654
 10
57.9978612153
 20
-23.3830651158
 10
57.9914814566
 20
-23.3552888984
 10
57.9809698831
 20
-23.3284714719
 10
57.9665063509
 20
-23.3030716899
 10
57.9483383351
 20
-23.2795241498
 10
57.9267766953
 20
-23.2582317565
 10
57.9021903573
 20
-23.2395588287
 10
57.875
 20
-23.2238248654
 10
57.8456708581
 20
-23.2112990791
 10
57.8147047613
 20
-23.2021957895
 10
57.7826315481
 20
-23.1966707563
 10
57.75
 20
-23.1948185145
  0
LWPOLYLINE
  5
32A
100
AcDbEntity
  8
RACCORDO
100
AcDbPolyline
 62
250
  6
CONTINUOUS
 90
13
 70
0
 10
55.6
 20
23.4113248654
 10
55.6021387847
 20
23.3830651158
 10
55.6085185434
 20
23.3552888984
 10
55.6190301169
 20
23.3284714719
 10
55.6334936491
 20
23.3030716899
 10
55.6516616649
 20
23.2795241498
 10
55.6732233047
 20
23.2582317565
 10
55.6978096427
 20
23.2395588287
 10
55.725
 20
23.2238248654
 10
55.7543291419
 20
23.2112990791
 10
55.7852952387
 20
23.2021957895
 10
55.8173684519
 20
23.1966707563
 10
55.85
 20
23.1948185145
  0
LWPOLYLINE
  5
32B
100
AcDbEntity
  8
RACCORDO
100
AcDbPolyline
 62
250
  6
CONTINUOUS
 90
13
 70
0
 10
58.0
 20
-23.8443375673
 10
57.9978919019
 20
-23.8162804162
 10
57.9915843969
 20
-23.7886353736
 10
57.9811565439
 20
-23.7618755205
 10
57.9667467456
 20
-23.7364457872
 10
57.9485823711
 20
-23.7128127353
 10
57.9270036094
 20
-23.6914412243
 10
57.9024005042
 20
-23.6727113317
 10
57.8751809483
 20
-23.6569281288
 10
57.8458134558
 20
-23.6443629782
 10
57.8148028317
 20
-23.6352312672
 10
57.782681199
 20
-23.6296891235
 10
57.75
 20
-23.6278312164
  0
LWPOLYLINE
  5
32C
100
AcDbEntity
  8
RACCORDO
100
AcDbPolyline
 62
250
  6
CONTINUOUS
 90
13
 70
0
 10
55.6
 20
23.8443375673
 10
55.6021080981
 20
23.8162804162
 10
55.6084156031
 20
23.7886353736
 10
55.6188434561
 20
23.7618755205
 10
55.6332532544
 20
23.7364457872
 10
55.6514176289
 20
23.7128127353
 10
55.6729963906
 20
23.6914412243
 10
55.6975994958
 20
23.6727113317
 10
55.7248190517
 20
23.6569281288
 10
55.7541865442
 20
23.6443629782
 10
55.7851971683
 20
23.6352312672
 10
55.817318801
 20
23.6296891235
 10
55.85
 20
23.6278312164
  0
LWPOLYLINE
  5
32D
100
AcDbEntity
  8
26814000
100
AcDbPolyline
 62
7
  6
CONTINUOUS
 90
31
 70
0
 10
54.9
 20
22.0499866726
 10
54.899520361
 20
22.0683045068
 10
54.8980827556
 20
22.0865721551
 10
54.8956911199
 20
22.1047395529
 10
54.8923520049
 20
22.1227569124
 10
54.8880745582
 20
22.1405748519
 10
54.8828704981
 20
22.158144531
 10
54.8767540833
 20
22.1754177965
 10
54.8697420733
 20
22.1923473068
 10
54.8618536816
 20
22.2088866539
 10
54.853110524
 20
22.224990507
 10
54.84353656
 20
22.2406147282
 10
54.8331580257
 20
22.2557164847
 10
54.8220033628
 20
22.2702543843
 10
54.8101031411
 20
22.2841885798
 10
54.7974899743
 20
22.2974808689
 10
54.78419843
 20
22.3100948174
 10
54.770264936
 20
22.3219958502
 10
54.7557276809
 20
22.3331513373
 10
54.7406265074
 20
22.3435307
 10
54.7250028045
 20
22.3531054869
 10
54.7088993951
 20
22.3618494448
 10
54.6923604162
 20
22.3697386035
 10
54.6754311989
 20
22.3767513366
 10
54.6581581451
 20
22.3828684145
 10
54.6405885996
 20
22.3880730663
 10
54.622770719
 20
22.3923510231
 10
54.604753341
 20
22.3956905527
 10
54.5865858509
 20
22.3980824962
 10
54.5683180464
 20
22.3995202939
 10
54.55
 20
22.4
  0
LINE
  5
32E
100
AcDbEntity
  8
RACCORDO
100
AcDbLine
 62
7
  6
CONTINUOUS
 10
55.6
 20
-22.6218492968
 11
55.6
 21
-24.25
  0
LINE
  5
32F
100
AcDbEntity
  8
RACCORDO
100
AcDbLine
 62
7
  6
CONTINUOUS
 10
55.6
 20
22.6218492968
 11
55.6
 21
24.25
  0
LINE
  5
330
100
AcDbEntity
  8
RACCORDO
100
AcDbLine
 62
250
  6
CONTINUOUS
 10
55.85
 20
24.5
 11
55.8500000003
 21
22.4349101299
  0
LINE
  5
331
100
AcDbEntity
  8
RACCORDO
100
AcDbLine
 62
250
  6
CONTINUOUS
 10
55.8500000016
 20
-22.4349101299
 11
55.85
 21
-24.5
  0
LWPOLYLINE
  5
332
100
AcDbEntity
  8
0
100
AcDbPolyline
 62
7
  6
CONTINUOUS
 90
4
 70
0
 43
0.3500000006
 10
57.035714859
 20
33.6785697327
 10
57.035714859
 20
34.535712204
 10
57.4642838287
 20
34.9642857056
 10
58.1071418152
 20
34.9642857056
  0
LWPOLYLINE
  5
333
100
AcDbEntity
  8
26814000
100
AcDbPolyline
 62
7
  6
CONTINUOUS
 90
31
 70
0
 10
54.9
 20
-22.0499866726
 10
54.899520361
 20
-22.0683045068
 10
54.8980827556
 20
-22.0865721551
 10
54.8956911199
 20
-22.1047395529
 10
54.8923520049
 20
-22.1227569124
 10
54.8880745582
 20
-22.1405748519
 10
54.8828704981
 20
-22.158144531
 10
54.8767540833
 20
-22.1754177965
 10
54.8697420733
 20
-22.1923473068
 10
54.8618536816
 20
-22.2088866539
 10
54.853110524
 20
-22.224990507
 10
54.84353656
 20
-22.2406147282
 10
54.8331580257
 20
-22.2557164847
 10
54.8220033628
 20
-22.2702543843
 10
54.8101031411
 20
-22.2841885798
 10
54.7974899743
 20
-22.2974808689
 10
54.78419843
 20
-22.3100948174
 10
54.770264936
 20
-22.3219958502
 10
54.7557276809
 20
-22.3331513373
 10
54.7406265074
 20
-22.3435307
 10
54.7250028045
 20
-22.3531054869
 10
54.7088993951
 20
-22.3618494448
 10
54.6923604162
 20
-22.3697386035
 10
54.6754311989
 20
-22.3767513366
 10
54.6581581451
 20
-22.3828684145
 10
54.6405885996
 20
-22.3880730663
 10
54.622770719
 20
-22.3923510231
 10
54.604753341
 20
-22.3956905527
 10
54.5865858509
 20
-22.3980824962
 10
54.5683180464
 20
-22.3995202939
 10
54.55
 20
-22.4
  0
LWPOLYLINE
  5
334
100
AcDbEntity
  8
RACCORDO
100
AcDbPolyline
 62
250
  6
CONTINUOUS
 90
13
 70
0
 10
58.0
 20
23.8443375673
 10
57.9978919019
 20
23.8162804162
 10
57.9915843969
 20
23.7886353736
 10
57.9811565439
 20
23.7618755205
 10
57.9667467456
 20
23.7364457872
 10
57.9485823711
 20
23.7128127353
 10
57.9270036094
 20
23.6914412243
 10
57.9024005042
 20
23.6727113317
 10
57.8751809483
 20
23.6569281288
 10
57.8458134558
 20
23.6443629782
 10
57.8148028317
 20
23.6352312672
 10
57.782681199
 20
23.6296891235
 10
57.75
 20
23.6278312164
  0
LWPOLYLINE
  5
335
100
AcDbEntity
  8
RACCORDO
100
AcDbPolyline
 62
250
  6
CONTINUOUS
 90
13
 70
0
 10
58.0
 20
23.4113248654
 10
57.9978612153
 20
23.3830651158
 10
57.9914814566
 20
23.3552888984
 10
57.9809698831
 20
23.3284714719
 10
57.9665063509
 20
23.3030716899
 10
57.9483383351
 20
23.2795241498
 10
57.9267766953
 20
23.2582317565
 10
57.9021903573
 20
23.2395588287
 10
57.875
 20
23.2238248654
 10
57.8456708581
 20
23.2112990791
 10
57.8147047613
 20
23.2021957895
 10
57.7826315481
 20
23.1966707563
 10
57.75
 20
23.1948185145
  0
LWPOLYLINE
  5
336
100
AcDbEntity
  8
RACCORDO
100
AcDbPolyline
 62
250
  6
CONTINUOUS
 90
13
 70
0
 10
55.6
 20
-23.4113248654
 10
55.6021387847
 20
-23.3830651158
 10
55.6085185434
 20
-23.3552888984
 10
55.6190301169
 20
-23.3284714719
 10
55.6334936491
 20
-23.3030716899
 10
55.6516616649
 20
-23.2795241498
 10
55.6732233047
 20
-23.2582317565
 10
55.6978096427
 20
-23.2395588287
 10
55.725
 20
-23.2238248654
 10
55.7543291419
 20
-23.2112990791
 10
55.7852952387
 20
-23.2021957895
 10
55.8173684519
 20
-23.1966707563
 10
55.85
 20
-23.1948185145
  0
LWPOLYLINE
  5
337
100
AcDbEntity
  8
RACCORDO
100
AcDbPolyline
 62
250
  6
CONTINUOUS
 90
13
 70
0
 10
55.6
 20
-23.8443375673
 10
55.6021387847
 20
-23.8160778177
 10
55.6085185434
 20
-23.7883016003
 10
55.6190301169
 20
-23.7614841738
 10
55.6334936491
 20
-23.7360843918
 10
55.6516616649
 20
-23.7125368517
 10
55.6732233047
 20
-23.6912444584
 10
55.6978096427
 20
-23.6725715306
 10
55.725
 20
-23.6568375673
 10
55.7543291419
 20
-23.644311781
 10
55.7852952387
 20
-23.6352084914
 10
55.8173684519
 20
-23.6296834582
 10
55.85
 20
-23.6278312164
  0
LINE
  5
338
100
AcDbEntity
  8
26814000
100
AcDbLine
 62
7
  6
CONTINUOUS
 10
33.1630985787
 20
-24.3869014213
 11
33.15
 21
-24.4
  0
LINE
  5
339
100
AcDbEntity
  8
26814000
100
AcDbLine
 62
7
  6
CONTINUOUS
 10
33.1630985787
 20
24.3869014213
 11
33.15
 21
24.4
  0
LINE
  5
33A
100
AcDbEntity
  8
RACCORDO
100
AcDbLine
 62
7
  6
CONTINUOUS
 10
58.0004134362
 20
22.6090257268
 11
58.0000016243
 21
22.6218493537
  0
LINE
  5
33B
100
AcDbEntity
  8
RACCORDO
100
AcDbLine
 62
250
  6
CONTINUOUS
 10
57.7499999999
 20
-22.4349101299
 11
57.75
 21
-24.5
  0
LINE
  5
33C
100
AcDbEntity
  8
RACCORDO
100
AcDbLine
 62
250
  6
CONTINUOUS
 10
57.75
 20
22.4349101299
 11
57.75
 21
24.5
  0
LINE
  5
33D
100
AcDbEntity
  8
RACCORDO
100
AcDbLine
 62
7
  6
CONTINUOUS
 10
58.0
 20
-22.6218492968
 11
58.0
 21
-24.25
  0
LINE
  5
33E
100
AcDbEntity
  8
RACCORDO
100
AcDbLine
 62
7
  6
CONTINUOUS
 10
58.0
 20
22.6218492968
 11
58.0
 21
24.25
  0
LWPOLYLINE
  5
33F
100
AcDbEntity
  8
RACCORDO
100
AcDbPolyline
 62
7
  6
CONTINUOUS
 90
5
 70
0
 10
58.0000002786
 20
-22.6218539423
 10
58.0001763364
 20
-22.6134638007
 10
58.001697868
 20
-22.5958568612
 10
58.004697298
 20
-22.5787758727
 10
58.0090674445
 20
-22.5623349788
  0
LINE
  5
340
100
AcDbEntity
  8
RACCORDO
100
AcDbLine
 62
7
  6
CONTINUOUS
 10
61.8471284682
 20
-23.8
 11
61.8471284682
 21
-22.4349101299
  0
LINE
  5
341
100
AcDbEntity
  8
RACCORDO
100
AcDbLine
 62
7
  6
CONTINUOUS
 10
61.8471284682
 20
22.4349101299
 11
61.8471284682
 21
23.8
  0
LINE
  5
342
100
AcDbEntity
  8
26814000
100
AcDbLine
 62
7
  6
CONTINUOUS
 10
39.3540826348
 20
-23.7959173652
 11
39.35
 21
-23.8
  0
LINE
  5
343
100
AcDbEntity
  8
26814000
100
AcDbLine
 62
7
  6
CONTINUOUS
 10
39.3540826348
 20
23.7959173652
 11
39.35
 21
23.8
  0
LINE
  5
344
100
AcDbEntity
  8
RACCORDO
100
AcDbLine
 62
250
  6
CONTINUOUS
 10
62.3471284682
 20
-23.8
 11
62.3471284682
 21
-22.4349101299
  0
LINE
  5
345
100
AcDbEntity
  8
RACCORDO
100
AcDbLine
 62
250
  6
CONTINUOUS
 10
62.3471284682
 20
22.4349101299
 11
62.3471284682
 21
23.8
  0
LWPOLYLINE
  5
346
100
AcDbEntity
  8
RACCORDO
100
AcDbPolyline
 62
7
  6
CONTINUOUS
 90
14
 70
0
 10
58.0090674445
 20
-22.5623349788
 10
58.0146936076
 20
-22.5466357511
 10
58.0214579776
 20
-22.5317591533
 10
58.0292404138
 20
-22.5177714424
 10
58.0379172707
 20
-22.5047282197
 10
58.0473715685
 20
-22.4926619377
 10
58.0574829065
 20
-22.4816001773
 10
58.0681210667
 20
-22.4715682402
 10
58.0791921974
 20
-22.4625486983
 10
58.0905722239
 20
-22.4545454407
 10
58.1020765471
 20
-22.447583299
 10
58.1137629751
 20
-22.4415393029
 10
58.1253779298
 20
-22.4364616314
 10
58.1296182877
 20
-22.4349101299
  0
LWPOLYLINE
  5
347
100
AcDbEntity
  8
RACCORDO
100
AcDbPolyline
 62
7
  6
CONTINUOUS
 90
14
 70
0
 10
74.4909325555
 20
22.5623349788
 10
74.4853063924
 20
22.5466357511
 10
74.4785420224
 20
22.5317591533
 10
74.4707595862
 20
22.5177714424
 10
74.4620827293
 20
22.5047282197
 10
74.4526284315
 20
22.4926619377
 10
74.4425170935
 20
22.4816001773
 10
74.4318789333
 20
22.4715682402
 10
74.4208078026
 20
22.4625486983
 10
74.4094277761
 20
22.4545454407
 10
74.3979234529
 20
22.447583299
 10
74.3862370249
 20
22.4415393029
 10
74.3746220702
 20
22.4364616314
 10
74.3703817123
 20
22.4349101299
  0
LINE
  5
348
100
AcDbEntity
  8
26814000
100
AcDbLine
 62
7
  6
CONTINUOUS
 10
52.0587267447
 20
-22.3869096983
 11
52.05
 21
-22.4
  0
LINE
  5
349
100
AcDbEntity
  8
26814000
100
AcDbLine
 62
7
  6
CONTINUOUS
 10
52.05
 20
22.4
 11
52.0587267447
 21
22.3869096983
  0
LINE
  5
34A
100
AcDbEntity
  8
RACCORDO
100
AcDbLine
 62
250
  6
CONTINUOUS
 10
70.1528715318
 20
23.8
 11
70.1528715318
 21
22.4349101299
  0
LINE
  5
34B
100
AcDbEntity
  8
RACCORDO
100
AcDbLine
 62
250
  6
CONTINUOUS
 10
70.1528715318
 20
-22.4349101299
 11
70.1528715318
 21
-23.8
  0
LINE
  5
34C
100
AcDbEntity
  8
RACCORDO
100
AcDbLine
 62
7
  6
CONTINUOUS
 10
70.6528715318
 20
23.8
 11
70.6528715318
 21
22.4349101299
  0
LINE
  5
34D
100
AcDbEntity
  8
RACCORDO
100
AcDbLine
 62
7
  6
CONTINUOUS
 10
70.6528715318
 20
-22.4349101299
 11
70.6528715318
 21
-23.8
  0
LINE
  5
34E
100
AcDbEntity
  8
26814000
100
AcDbLine
 62
7
  6
CONTINUOUS
 10
52.0630985787
 20
-24.3869014213
 11
52.05
 21
-24.4
  0
LINE
  5
34F
100
AcDbEntity
  8
26814000
100
AcDbLine
 62
7
  6
CONTINUOUS
 10
52.0630985787
 20
24.3869014213
 11
52.05
 21
24.4
  0
LWPOLYLINE
  5
350
100
AcDbEntity
  8
0
100
AcDbPolyline
 62
7
  6
CONTINUOUS
 90
10
 70
0
 43
0.3500000006
 10
55.9642879028
 20
33.7500009155
 10
56.0357145538
 20
33.6071430817
 10
56.0357145538
 20
33.5357164307
 10
55.89285672
 20
33.3928585968
 10
55.821430069
 20
33.3928585968
 10
55.7499988861
 20
33.4642852478
 10
55.7499988861
 20
33.5357164307
 10
55.821430069
 20
33.6785697327
 10
55.89285672
 20
33.7500009155
 10
55.9642879028
 20
33.7500009155
  0
LWPOLYLINE
  5
351
100
AcDbEntity
  8
RACCORDO
100
AcDbPolyline
 62
250
  6
CONTINUOUS
 90
18
 70
0
 10
77.0498339282
 20
-20.5123524752
 10
77.0488223563
 20
-20.5028610381
 10
77.04783052
 20
-20.4889156308
 10
77.0468584192
 20
-20.4705162531
 10
77.0458990853
 20
-20.4474735585
 10
77.0449594869
 20
-20.4199768935
 10
77.04406053
 20
-20.3885942982
 10
77.0432036438
 20
-20.3532503491
 10
77.042387399
 20
-20.3140204696
 10
77.0416284137
 20
-20.2716989707
 10
77.0409278637
 20
-20.226220074
 10
77.0402845731
 20
-20.1776495577
 10
77.0397116319
 20
-20.1269790676
 10
77.0392104675
 20
-20.0741333638
 10
77.0387796525
 20
-20.019187686
 10
77.0384279949
 20
-19.9633593994
 10
77.0381584306
 20
-19.9070542922
 10
77.0379680237
 20
-19.8498665762
  0
LWPOLYLINE
  5
352
100
AcDbEntity
  8
RACCORDO
100
AcDbPolyline
 62
250
  6
CONTINUOUS
 90
13
 70
0
 10
76.9
 20
-23.8443375673
 10
76.8978612153
 20
-23.8160778177
 10
76.8914814566
 20
-23.7883016003
 10
76.8809698831
 20
-23.7614841738
 10
76.8665063509
 20
-23.7360843918
 10
76.8483383351
 20
-23.7125368517
 10
76.8267766953
 20
-23.6912444584
 10
76.8021903573
 20
-23.6725715306
 10
76.775
 20
-23.6568375673
 10
76.7456708581
 20
-23.644311781
 10
76.7147047613
 20
-23.6352084914
 10
76.6826315481
 20
-23.6296834582
 10
76.65
 20
-23.6278312164
  0
LWPOLYLINE
  5
353
100
AcDbEntity
  8
RACCORDO
100
AcDbPolyline
 62
250
  6
CONTINUOUS
 90
13
 70
0
 10
76.9
 20
-23.4113248654
 10
76.8978612153
 20
-23.3830651158
 10
76.8914814566
 20
-23.3552888984
 10
76.8809698831
 20
-23.3284714719
 10
76.8665063509
 20
-23.3030716899
 10
76.8483383351
 20
-23.2795241498
 10
76.8267766953
 20
-23.2582317565
 10
76.8021903573
 20
-23.2395588287
 10
76.775
 20
-23.2238248654
 10
76.7456708581
 20
-23.2112990791
 10
76.7147047613
 20
-23.2021957895
 10
76.6826315481
 20
-23.1966707563
 10
76.65
 20
-23.1948185145
  0
LWPOLYLINE
  5
354
100
AcDbEntity
  8
RACCORDO
100
AcDbPolyline
 62
250
  6
CONTINUOUS
 90
19
 70
0
 10
76.249955772
 20
-21.3078488151
 10
76.2489382913
 20
-21.2877102716
 10
76.2479425644
 20
-21.257573403
 10
76.2469685912
 20
-21.2176438768
 10
76.2460101396
 20
-21.1681933252
 10
76.2450734417
 20
-21.1095593008
 10
76.2441771941
 20
-21.0421441068
 10
76.243322086
 20
-20.9664104196
 10
76.2425074282
 20
-20.882873057
 10
76.2417498486
 20
-20.7920967251
 10
76.2410505542
 20
-20.6946991266
 10
76.240408338
 20
-20.5913430885
 10
76.2398362078
 20
-20.4827262138
 10
76.2393356341
 20
-20.3695835133
 10
76.2389051463
 20
-20.2526876283
 10
76.2385533412
 20
-20.1328383565
 10
76.2382830842
 20
-20.0108529971
 10
76.2380915098
 20
-19.8875603764
 10
76.2343028254
 20
-16.3723033664
  0
LINE
  5
355
100
AcDbEntity
  8
RACCORDO
100
AcDbLine
 62
7
  6
CONTINUOUS
 10
74.4995709452
 20
-22.6087662238
 11
74.499999721
 21
-22.6218538841
  0
LINE
  5
356
100
AcDbEntity
  8
RACCORDO
100
AcDbLine
 62
7
  6
CONTINUOUS
 10
74.5
 20
-24.25
 11
74.5
 21
-22.6218492968
  0
LINE
  5
357
100
AcDbEntity
  8
RACCORDO
100
AcDbLine
 62
7
  6
CONTINUOUS
 10
74.5
 20
22.6218492968
 11
74.5
 21
24.25
  0
LINE
  5
358
100
AcDbEntity
  8
RACCORDO
100
AcDbLine
 62
250
  6
CONTINUOUS
 10
74.7500000016
 20
-22.4349101299
 11
74.75
 21
-24.5
  0
LINE
  5
359
100
AcDbEntity
  8
RACCORDO
100
AcDbLine
 62
250
  6
CONTINUOUS
 10
74.7500000001
 20
22.4349101299
 11
74.75
 21
24.5
  0
LWPOLYLINE
  5
35A
100
AcDbEntity
  8
RACCORDO
100
AcDbPolyline
 62
7
  6
CONTINUOUS
 90
5
 70
0
 10
74.4999997214
 20
22.6218539423
 10
74.4998236636
 20
22.6134638007
 10
74.498302132
 20
22.5958568612
 10
74.495302702
 20
22.5787758727
 10
74.4909325555
 20
22.5623349788
  0
LWPOLYLINE
  5
35B
100
AcDbEntity
  8
RACCORDO
100
AcDbPolyline
 62
250
  6
CONTINUOUS
 90
13
 70
0
 10
76.9
 20
23.8443375673
 10
76.8978919019
 20
23.8162804162
 10
76.8915843969
 20
23.7886353736
 10
76.8811565439
 20
23.7618755205
 10
76.8667467456
 20
23.7364457872
 10
76.8485823711
 20
23.7128127353
 10
76.8270036094
 20
23.6914412243
 10
76.8024005042
 20
23.6727113317
 10
76.7751809483
 20
23.6569281288
 10
76.7458134558
 20
23.6443629782
 10
76.7148028317
 20
23.6352312672
 10
76.682681199
 20
23.6296891235
 10
76.65
 20
23.6278312164
  0
LWPOLYLINE
  5
35C
100
AcDbEntity
  8
RACCORDO
100
AcDbPolyline
 62
250
  6
CONTINUOUS
 90
13
 70
0
 10
76.9
 20
23.4113248654
 10
76.8978612153
 20
23.3830651158
 10
76.8914814566
 20
23.3552888984
 10
76.8809698831
 20
23.3284714719
 10
76.8665063509
 20
23.3030716899
 10
76.8483383351
 20
23.2795241498
 10
76.8267766953
 20
23.2582317565
 10
76.8021903573
 20
23.2395588287
 10
76.775
 20
23.2238248654
 10
76.7456708581
 20
23.2112990791
 10
76.7147047613
 20
23.2021957895
 10
76.6826315481
 20
23.1966707563
 10
76.65
 20
23.1948185145
  0
LWPOLYLINE
  5
35D
100
AcDbEntity
  8
RACCORDO
100
AcDbPolyline
 62
250
  6
CONTINUOUS
 90
14
 70
0
 10
77.357286774
 20
21.9479205229
 10
77.3578896779
 20
21.9530697012
 10
77.3581606601
 20
21.9552430069
 10
77.3584121837
 20
21.9571817362
 10
77.3586506052
 20
21.9588765315
 10
77.3588766443
 20
21.9603145312
 10
77.3590895812
 20
21.9615085969
 10
77.3592936129
 20
21.9624879559
 10
77.3594888065
 20
21.9632513068
 10
77.3596750949
 20
21.963799951
 10
77.3598564743
 20
21.9641670208
 10
77.3600342767
 20
21.9643635603
 10
77.36020717
 20
21.9643785254
 10
77.3603751542
 20
21.964211916
  0
LINE
  5
35E
100
AcDbEntity
  8
26814000
100
AcDbLine
 62
7
  6
CONTINUOUS
 10
32.6
 20
19.9536487485
 11
32.85
 21
19.9536487485
  0
LINE
  5
35F
100
AcDbEntity
  8
DRAFT
100
AcDbLine
 62
7
  6
CONTINUOUS
 10
77.15
 20
19.9536487485
 11
77.3589805974
 21
19.9536487485
  0
LINE
  5
360
100
AcDbEntity
  8
RACCORDO
100
AcDbLine
 62
250
  6
CONTINUOUS
 10
76.3501218439
 20
-22.0073038415
 11
76.249955772
 21
-21.3078488151
  0
LINE
  5
361
100
AcDbEntity
  8
RACCORDO
100
AcDbLine
 62
250
  6
CONTINUOUS
 10
77.15
 20
-21.2118075016
 11
77.0498339282
 21
-20.5123524752
  0
LWPOLYLINE
  5
362
100
AcDbEntity
  8
RACCORDO
100
AcDbPolyline
 62
250
  6
CONTINUOUS
 90
13
 70
0
 10
77.3579050383
 20
-21.9531979184
 10
77.3581682225
 20
-21.9553048977
 10
77.3584165411
 20
-21.9572151371
 10
77.3586534032
 20
-21.958894034
 10
77.3588790205
 20
-21.9603248074
 10
77.3590931813
 20
-21.9615242382
 10
77.3592986593
 20
-21.9625080672
 10
77.3594956226
 20
-21.9632705401
 10
77.3596839031
 20
-21.9638174113
 10
77.3598657695
 20
-21.9641816843
 10
77.3600419779
 20
-21.9643743606
 10
77.3602117721
 20
-21.9643844387
 10
77.3603751521
 20
-21.9642119188
  0
LINE
  5
363
100
AcDbEntity
  8
RACCORDO
100
AcDbLine
 62
250
  6
CONTINUOUS
 10
77.3563481682
 20
-21.9402532614
 11
77.3570228835
 21
-21.9457311438
  0
LINE
  5
364
100
AcDbEntity
  8
RACCORDO
100
AcDbLine
 62
250
  6
CONTINUOUS
 10
77.3570228835
 20
-21.9457311438
 11
77.3579050383
 21
-21.9531979184
  0
LWPOLYLINE
  5
365
100
AcDbEntity
  8
RACCORDO
100
AcDbPolyline
 62
250
  6
CONTINUOUS
 90
13
 70
0
 10
74.5
 20
23.4113248654
 10
74.5021387847
 20
23.3830651158
 10
74.5085185434
 20
23.3552888984
 10
74.5190301169
 20
23.3284714719
 10
74.5334936491
 20
23.3030716899
 10
74.5516616649
 20
23.2795241498
 10
74.5732233047
 20
23.2582317565
 10
74.5978096427
 20
23.2395588287
 10
74.625
 20
23.2238248654
 10
74.6543291419
 20
23.2112990791
 10
74.6852952387
 20
23.2021957895
 10
74.7173684519
 20
23.1966707563
 10
74.75
 20
23.1948185145
  0
LWPOLYLINE
  5
366
100
AcDbEntity
  8
RACCORDO
100
AcDbPolyline
 62
250
  6
CONTINUOUS
 90
13
 70
0
 10
74.5
 20
23.8443375673
 10
74.5021080981
 20
23.8162804162
 10
74.5084156031
 20
23.7886353736
 10
74.5188434561
 20
23.7618755205
 10
74.5332532544
 20
23.7364457872
 10
74.5514176289
 20
23.7128127353
 10
74.5729963906
 20
23.6914412243
 10
74.5975994958
 20
23.6727113317
 10
74.6248190517
 20
23.6569281288
 10
74.6541865442
 20
23.6443629782
 10
74.6851971683
 20
23.6352312672
 10
74.717318801
 20
23.6296891235
 10
74.75
 20
23.6278312164
  0
LINE
  5
367
100
AcDbEntity
  8
DRAFT
100
AcDbLine
 62
7
  6
CONTINUOUS
 10
77.3162156883
 20
0.0
 11
77.3589805974
 21
-19.9536487485
  0
LWPOLYLINE
  5
368
100
AcDbEntity
  8
RACCORDO
100
AcDbPolyline
 62
250
  6
CONTINUOUS
 90
12
 70
0
 10
77.0379680237
 20
-19.8498665762
 10
77.0341809901
 20
-16.4086376132
 10
77.0311734235
 20
-13.0281817805
 10
77.0288340745
 20
-9.6504287531
 10
77.0271628123
 20
-6.2749448233
 10
77.0261597677
 20
-2.9021636988
 10
77.0258253327
 20
0.4666134975
 10
77.0261597689
 20
3.8313853711
 10
77.0271628146
 20
7.1921533166
 10
77.0288340773
 20
10.5476203943
 10
77.031173426
 20
13.8973542911
 10
77.0341809916
 20
17.2417873203
  0
LWPOLYLINE
  5
369
100
AcDbEntity
  8
RACCORDO
100
AcDbPolyline
 62
250
  6
CONTINUOUS
 90
12
 70
0
 10
76.2343028254
 20
-16.3723033664
 10
76.2312952537
 20
-12.9826555777
 10
76.228955903
 20
-9.5952903864
 10
76.2272846449
 20
-6.2106415313
 10
76.2262816078
 20
-2.8291423189
 10
76.2259471766
 20
0.5487744314
 10
76.2262816078
 20
3.9226762326
 10
76.2272846449
 20
7.2921311116
 10
76.228955903
 20
10.6567077905
 10
76.2312952537
 20
14.0159755313
 10
76.2343028254
 20
17.3695041919
 10
76.2380915098
 20
20.8378063714
  0
LINE
  5
36A
100
AcDbEntity
  8
RACCORDO
100
AcDbLine
 62
250
  6
CONTINUOUS
 10
76.6499999999
 20
-22.4349101299
 11
76.65
 21
-24.5
  0
LINE
  5
36B
100
AcDbEntity
  8
RACCORDO
100
AcDbLine
 62
250
  6
CONTINUOUS
 10
76.6499999984
 20
22.4349101299
 11
76.65
 21
24.5
  0
LINE
  5
36C
100
AcDbEntity
  8
RACCORDO
100
AcDbLine
 62
7
  6
CONTINUOUS
 10
76.9
 20
-22.6218492968
 11
76.9
 21
-24.25
  0
LINE
  5
36D
100
AcDbEntity
  8
RACCORDO
100
AcDbLine
 62
7
  6
CONTINUOUS
 10
76.9
 20
22.6218492968
 11
76.9
 21
24.25
  0
LINE
  5
36E
100
AcDbEntity
  8
RACCORDO
100
AcDbLine
 62
7
  6
CONTINUOUS
 10
77.15
 20
20.6578066462
 11
77.15
 21
-21.2118075016
  0
LINE
  5
36F
100
AcDbEntity
  8
RACCORDO
100
AcDbLine
 62
7
  6
CONTINUOUS
 10
77.3476348052
 20
21.9346816494
 11
77.3476348052
 21
21.9048099646
  0
LINE
  5
370
100
AcDbEntity
  8
RACCORDO
100
AcDbLine
 62
7
  6
CONTINUOUS
 10
77.3476348052
 20
-21.9346816494
 11
77.3476348052
 21
-21.9048099646
  0
LINE
  5
371
100
AcDbEntity
  8
DRAFT
100
AcDbLine
 62
7
  6
CONTINUOUS
 10
77.3589805974
 20
21.825
 11
77.3589805974
 21
19.9536487485
  0
LINE
  5
372
100
AcDbEntity
  8
DRAFT
100
AcDbLine
 62
7
  6
CONTINUOUS
 10
77.3589805974
 20
-19.9536487485
 11
77.3589805974
 21
-21.825
  0
LINE
  5
373
100
AcDbEntity
  8
RACCORDO
100
AcDbLine
 62
7
  6
CONTINUOUS
 10
77.4
 20
-21.8823164546
 11
77.4
 21
21.8823164546
  0
LWPOLYLINE
  5
374
100
AcDbEntity
  8
RACCORDO
100
AcDbPolyline
 62
250
  6
CONTINUOUS
 90
17
 70
0
 10
76.2380915098
 20
20.8378063714
 10
76.2382830842
 20
20.9561697724
 10
76.2385533412
 20
21.0711489709
 10
76.2389051463
 20
21.1819627797
 10
76.2393356341
 20
21.2878555532
 10
76.2398362078
 20
21.3881029841
 10
76.240408338
 20
21.4820209412
 10
76.2410505541
 20
21.5689743494
 10
76.2417498486
 20
21.6483764979
 10
76.2425074282
 20
21.7196870119
 10
76.2433220861
 20
21.782420633
 10
76.2441771941
 20
21.8361530208
 10
76.2450734417
 20
21.8805181927
 10
76.2460101396
 20
21.9152108529
 10
76.2469685911
 20
21.9399924865
 10
76.2479425643
 20
21.9546937646
 10
76.2488795485
 20
21.9592312564
  0
LWPOLYLINE
  5
375
100
AcDbEntity
  8
RACCORDO
100
AcDbPolyline
 62
250
  6
CONTINUOUS
 90
19
 70
0
 10
77.0341809916
 20
17.2417873203
 10
77.0379680237
 20
20.6376573859
 10
77.0381584306
 20
20.6925646243
 10
77.0384279949
 20
20.745641197
 10
77.0387796525
 20
20.7972577285
 10
77.0392104675
 20
20.8470435942
 10
77.0397116319
 20
20.8938869206
 10
77.0402845731
 20
20.9376953725
 10
77.0409278637
 20
20.9785612852
 10
77.0416284137
 20
21.0156497904
 10
77.042387399
 20
21.0488810255
 10
77.0432036438
 20
21.0783348531
 10
77.04406053
 20
21.1034159935
 10
77.0449594869
 20
21.1240319046
 10
77.0458990853
 20
21.1402751284
 10
77.0468584192
 20
21.1518280121
 10
77.04783052
 20
21.1585846714
 10
77.0488223563
 20
21.1606509905
 10
77.0498339282
 20
21.1580269694
  0
LINE
  5
376
100
AcDbEntity
  8
DRAFT
100
AcDbLine
 62
7
  6
CONTINUOUS
 10
77.3589805974
 20
19.9536487485
 11
77.3162156883
 21
0.0
  0
LWPOLYLINE
  5
377
100
AcDbEntity
  8
RACCORDO
100
AcDbPolyline
 62
7
  6
CONTINUOUS
 90
5
 70
0
 10
76.9000002786
 20
-22.6218539423
 10
76.9001763364
 20
-22.6134638007
 10
76.901697868
 20
-22.5958568612
 10
76.904697298
 20
-22.5787758727
 10
76.9090674445
 20
-22.5623349788
  0
LWPOLYLINE
  5
378
100
AcDbEntity
  8
RACCORDO
100
AcDbPolyline
 62
250
  6
CONTINUOUS
 90
13
 70
0
 10
74.5
 20
-23.8443375673
 10
74.5021080981
 20
-23.8162804162
 10
74.5084156031
 20
-23.7886353736
 10
74.5188434561
 20
-23.7618755205
 10
74.5332532544
 20
-23.7364457872
 10
74.5514176289
 20
-23.7128127353
 10
74.5729963906
 20
-23.6914412243
 10
74.5975994958
 20
-23.6727113317
 10
74.6248190517
 20
-23.6569281288
 10
74.6541865442
 20
-23.6443629782
 10
74.6851971683
 20
-23.6352312672
 10
74.717318801
 20
-23.6296891235
 10
74.75
 20
-23.6278312164
  0
LWPOLYLINE
  5
379
100
AcDbEntity
  8
RACCORDO
100
AcDbPolyline
 62
250
  6
CONTINUOUS
 90
13
 70
0
 10
74.5
 20
-23.4113248654
 10
74.5021387847
 20
-23.3830651158
 10
74.5085185434
 20
-23.3552888984
 10
74.5190301169
 20
-23.3284714719
 10
74.5334936491
 20
-23.3030716899
 10
74.5516616649
 20
-23.2795241498
 10
74.5732233047
 20
-23.2582317565
 10
74.5978096427
 20
-23.2395588287
 10
74.625
 20
-23.2238248654
 10
74.6543291419
 20
-23.2112990791
 10
74.6852952387
 20
-23.2021957895
 10
74.7173684519
 20
-23.1966707563
 10
74.75
 20
-23.1948185145
  0
LWPOLYLINE
  5
37A
100
AcDbEntity
  8
RACCORDO
100
AcDbPolyline
 62
250
  6
CONTINUOUS
 90
7
 70
0
 10
57.9999999814
 20
-22.6218524218
 10
57.9985941046
 20
-22.6226953667
 10
57.9944117633
 20
-22.6235120145
 10
57.9875286372
 20
-22.6242992401
 10
57.9780530597
 20
-22.6250644537
 10
57.9661144997
 20
-22.6258002451
 10
57.95185282
 20
-22.626484384
  0
LINE
  5
37B
100
AcDbEntity
  8
RACCORDO
100
AcDbLine
 62
250
  6
CONTINUOUS
 10
76.912144344
 20
22.4306686755
 11
76.9539756585
 21
22.4329524976
  0
LWPOLYLINE
  5
37C
100
AcDbEntity
  8
RACCORDO
100
AcDbPolyline
 62
250
  6
CONTINUOUS
 90
3
 70
0
 10
76.9539756585
 20
22.4329524976
 10
76.9747392152
 20
22.4339334239
 10
76.9841003588
 20
22.434313232
  0
LWPOLYLINE
  5
37D
100
AcDbEntity
  8
RACCORDO
100
AcDbPolyline
 62
250
  6
CONTINUOUS
 90
9
 70
0
 10
74.54814718
 20
22.626484384
 10
74.5645447859
 20
22.6271147961
 10
74.5828969174
 20
22.6276935557
 10
74.6030694665
 20
22.6282046544
 10
74.6248633208
 20
22.6286469887
 10
74.6480376086
 20
22.6290216622
 10
74.6723962423
 20
22.6293159774
 10
74.6977004017
 20
22.6295257018
 10
74.7236626435
 20
22.629655068
  0
LWPOLYLINE
  5
37E
100
AcDbEntity
  8
RACCORDO
100
AcDbPolyline
 62
250
  6
CONTINUOUS
 90
11
 70
0
 10
76.9841003588
 20
22.434313232
 10
76.9926267422
 20
22.434614128
 10
77.0003116614
 20
22.4348337163
 10
77.0071153298
 20
22.4349728998
 10
77.0130234901
 20
22.435040542
 10
77.0180832717
 20
22.4350457667
 10
77.0222945695
 20
22.4349940383
 10
77.0256733818
 20
22.4348871592
 10
77.0282653504
 20
22.4347252171
 10
77.0300905644
 20
22.4345103445
 10
77.0311311335
 20
22.4342668879
  0
LWPOLYLINE
  5
37F
100
AcDbEntity
  8
RACCORDO
100
AcDbPolyline
 62
7
  6
CONTINUOUS
 90
34
 70
0
 10
33.7511114241
 20
21.959189942
 10
33.7319155118
 20
21.9589597009
 10
33.6915162224
 20
21.9569678446
 10
33.651687073
 20
21.9529896143
 10
33.6125191687
 20
21.9470974035
 10
33.5740992508
 20
21.9393671143
 10
33.5365073398
 20
21.9298775812
 10
33.499814553
 20
21.9187093379
 10
33.4640879555
 20
21.9059453836
 10
33.4293877252
 20
21.8916701129
 10
33.3957651713
 20
21.8759677371
 10
33.3632675412
 20
21.8589237311
 10
33.3319374753
 20
21.8406246153
 10
33.3018104808
 20
21.8211562066
 10
33.2729168935
 20
21.8006042072
 10
33.2452815932
 20
21.7790536615
 10
33.2189237072
 20
21.7565882276
 10
33.1938579063
 20
21.7332907662
 10
33.1700937631
 20
21.7092424109
 10
33.1476355595
 20
21.6845217416
 10
33.126483135
 20
21.6592049889
 10
33.1066342754
 20
21.6333686502
 10
33.0880835493
 20
21.6070883921
 10
33.0708072926
 20
21.5804148659
 10
33.0548048568
 20
21.5534352262
 10
33.0400918814
 20
21.526279603
 10
33.0266324681
 20
21.4989979236
 10
33.0144038548
 20
21.4716671186
 10
33.0034155338
 20
21.4444584057
 10
32.993598294
 20
21.4173694853
 10
32.9849249145
 20
21.3905068981
 10
32.9774171858
 20
21.3641946324
 10
32.970895393
 20
21.3380579369
 10
32.9657477602
 20
21.3142827106
  0
LWPOLYLINE
  5
380
100
AcDbEntity
  8
RACCORDO
100
AcDbPolyline
 62
250
  6
CONTINUOUS
 90
16
 70
0
 10
33.762021382
 20
20.7168644005
 10
33.679322338
 20
20.7160317929
 10
33.5975094027
 20
20.7137358385
 10
33.5174591904
 20
20.7100011382
 10
33.4400294279
 20
20.704867709
 10
33.3660497643
 20
20.6983905547
 10
33.2963128813
 20
20.6906390766
 10
33.231566
 20
20.6816963307
 10
33.1725028742
 20
20.6716581373
 10
33.119756357
 20
20.6606320544
 10
33.0738916199
 20
20.6487362247
 10
33.0354000974
 20
20.6360981106
 10
33.0046942206
 20
20.6228531275
 10
32.9821029987
 20
20.6091431936
 10
32.9678684935
 20
20.5951152091
 10
32.9621432258
 20
20.5809194817
  0
LINE
  5
381
100
AcDbEntity
  8
RACCORDO
100
AcDbLine
 62
250
  6
CONTINUOUS
 10
33.762021382
 20
20.716864407
 11
76.237978618
 21
20.716864407
  0
LINE
  5
382
100
AcDbEntity
  8
DRAFT
100
AcDbLine
 62
7
  6
CONTINUOUS
 10
76.6922769437
 20
21.825
 11
77.3589805974
 21
21.825
  0
LINE
  5
383
100
AcDbEntity
  8
26814000
100
AcDbLine
 62
7
  6
CONTINUOUS
 10
32.6
 20
21.858797755
 11
33.3630518566
 21
21.858797755
  0
LINE
  5
384
100
AcDbEntity
  8
DRAFT
100
AcDbLine
 62
7
  6
CONTINUOUS
 10
76.5388145493
 20
21.9048099646
 11
77.3476348052
 21
21.9048099646
  0
LINE
  5
385
100
AcDbEntity
  8
RACCORDO
100
AcDbLine
 62
7
  6
CONTINUOUS
 10
33.7510970595
 20
21.9592312622
 11
76.2489029404
 21
21.9592312622
  0
LINE
  5
386
100
AcDbEntity
  8
26814000
100
AcDbLine
 62
7
  6
CONTINUOUS
 10
32.6
 20
22.0
 11
54.9
 21
22.0
  0
LINE
  5
387
100
AcDbEntity
  8
26814000
100
AcDbLine
 62
7
  6
CONTINUOUS
 10
54.55
 20
22.3781828305
 11
32.95
 21
22.3781828305
  0
LINE
  5
388
100
AcDbEntity
  8
26814000
100
AcDbLine
 62
7
  6
CONTINUOUS
 10
54.3412732553
 20
22.3869096983
 11
52.0587267447
 21
22.3869096983
  0
LINE
  5
389
100
AcDbEntity
  8
26814000
100
AcDbLine
 62
7
  6
CONTINUOUS
 10
35.4412732553
 20
22.3869096983
 11
33.1587267447
 21
22.3869096983
  0
LINE
  5
38A
100
AcDbEntity
  8
26814000
100
AcDbLine
 62
7
  6
CONTINUOUS
 10
39.6540775579
 20
22.3912731322
 11
47.8459224421
 21
22.3912731322
  0
LINE
  5
38B
100
AcDbEntity
  8
26814000
100
AcDbLine
 62
7
  6
CONTINUOUS
 10
32.95
 20
22.4
 11
33.15
 21
22.4
  0
LINE
  5
38C
100
AcDbEntity
  8
26814000
100
AcDbLine
 62
7
  6
CONTINUOUS
 10
35.45
 20
22.4
 11
39.35
 21
22.4
  0
LINE
  5
38D
100
AcDbEntity
  8
26814000
100
AcDbLine
 62
7
  6
CONTINUOUS
 10
48.15
 20
22.4
 11
52.05
 21
22.4
  0
LINE
  5
38E
100
AcDbEntity
  8
26814000
100
AcDbLine
 62
7
  6
CONTINUOUS
 10
54.35
 20
22.4
 11
54.55
 21
22.4
  0
LWPOLYLINE
  5
38F
100
AcDbEntity
  8
RACCORDO
100
AcDbPolyline
 62
250
  6
CONTINUOUS
 90
16
 70
0
 10
76.2379786181
 20
20.716860704
 10
76.3206768558
 20
20.7160281376
 10
76.4024890131
 20
20.7137322685
 10
76.4825385013
 20
20.7099976961
 10
76.5599676181
 20
20.704864435
 10
76.6339467374
 20
20.6983874862
 10
76.703683199
 20
20.6906362475
 10
76.768429801
 20
20.6816937705
 10
76.827492806
 20
20.6716558709
 10
76.8802393747
 20
20.6606301011
 10
76.926104346
 20
20.6487345985
 10
76.9645962926
 20
20.6360968192
 10
76.995302787
 20
20.6228521726
 10
77.0178948196
 20
20.6091425703
 10
77.0321303248
 20
20.5951149062
 10
77.0378567741
 20
20.5809194817
  0
LWPOLYLINE
  5
390
100
AcDbEntity
  8
RACCORDO
100
AcDbPolyline
 62
7
  6
CONTINUOUS
 90
17
 70
0
 10
58.1294207361
 20
22.4349101299
 10
58.1189507964
 20
22.4391627198
 10
58.1079130392
 20
22.4444428632
 10
58.0966654787
 20
22.4507263616
 10
58.0855352126
 20
22.4579421365
 10
58.0746382333
 20
22.4661001821
 10
58.064047606
 20
22.475237197
 10
58.0539822704
 20
22.4852437325
 10
58.0445653186
 20
22.496048593
 10
58.0358309232
 20
22.5076683918
 10
58.0278465686
 20
22.5200920362
 10
58.0207012942
 20
22.533274432
 10
58.0144781817
 20
22.5471699018
 10
58.0092483499
 20
22.56176065
 10
58.005103327
 20
22.5769798629
 10
58.0021313393
 20
22.5927498978
 10
58.0004134362
 20
22.6090257268
  0
LWPOLYLINE
  5
391
100
AcDbEntity
  8
RACCORDO
100
AcDbPolyline
 62
250
  6
CONTINUOUS
 90
7
 70
0
 10
58.0
 20
22.6218493198
 10
57.9986032299
 20
22.6226922116
 10
57.9944464654
 20
22.6235062073
 10
57.9876024488
 20
22.6242912837
 10
57.9781781671
 20
22.6250547632
 10
57.9662988756
 20
22.6257893235
 10
57.9520933902
 20
22.6264729979
  0
LWPOLYLINE
  5
392
100
AcDbEntity
  8
0
100
AcDbPolyline
 62
7
  6
CONTINUOUS
 90
10
 70
0
 43
0.3500000006
 10
84.6500031738
 20
0.4285709152
 10
83.7928561707
 20
1.2857133865
 10
82.9357182312
 20
1.5000001373
 10
82.078571228
 20
1.5000001373
 10
81.6500022583
 20
1.0714289017
 10
81.6500022583
 20
0.4285709152
 10
82.078571228
 20
-0.0000003204
 10
82.9357182312
 20
-0.0000003204
 10
83.3642872009
 20
0.4285709152
 10
83.3642872009
 20
1.3571423035
  0
LINE
  5
393
100
AcDbEntity
  8
RACCORDO
100
AcDbLine
 62
7
  6
CONTINUOUS
 10
77.3783870193
 20
21.9707097024
 11
77.3773544131
 21
21.9803105491
  0
LWPOLYLINE
  5
394
100
AcDbEntity
  8
RACCORDO
100
AcDbPolyline
 62
250
  6
CONTINUOUS
 90
3
 70
0
 10
77.3801182389
 20
21.9270762299
 10
77.3811062972
 20
21.917870309
 10
77.3813846075
 20
21.915353543
  0
LINE
  5
395
100
AcDbEntity
  8
RACCORDO
100
AcDbLine
 62
7
  6
CONTINUOUS
 10
76.9004290548
 20
22.6087662238
 11
76.900000279
 21
22.6218538841
  0
LWPOLYLINE
  5
396
100
AcDbEntity
  8
RACCORDO
100
AcDbPolyline
 62
250
  6
CONTINUOUS
 90
8
 70
0
 10
77.3603734198
 20
-21.9642142736
 10
77.3578051545
 20
-22.0150237454
 10
77.3500847372
 20
-22.0653068773
 10
77.3372921445
 20
-22.1145427816
 10
77.3195598961
 20
-22.1622214191
 10
77.2970716818
 20
-22.2078488826
 10
77.2700604592
 20
-22.2509525128
 10
77.2637165729
 20
-22.2598081269
  0
LWPOLYLINE
  5
397
100
AcDbEntity
  8
RACCORDO
100
AcDbPolyline
 62
7
  6
CONTINUOUS
 90
8
 70
0
 10
77.3778249329
 20
-21.9406654676
 10
77.3751438011
 20
-21.9925697917
 10
77.3670868561
 20
-22.0439129594
 10
77.3537412039
 20
-22.0941398858
 10
77.3352511281
 20
-22.1427075545
 10
77.3118165299
 20
-22.1890908874
 10
77.283690767
 20
-22.2327884221
 10
77.2805007738
 20
-22.2371695243
  0
LINE
  5
398
100
AcDbEntity
  8
RACCORDO
100
AcDbLine
 62
250
  6
CONTINUOUS
 10
77.3845185694
 20
-21.897797805
 11
77.3817948095
 21
-21.9500640865
  0
LINE
  5
399
100
AcDbEntity
  8
RACCORDO
100
AcDbLine
 62
250
  6
CONTINUOUS
 10
77.3802788193
 20
-21.9256124398
 11
77.3811191151
 21
-21.91777282
  0
LWPOLYLINE
  5
39A
100
AcDbEntity
  8
RACCORDO
100
AcDbPolyline
 62
250
  6
CONTINUOUS
 90
15
 70
0
 10
55.823591695
 20
22.6296549402
 10
55.7975630276
 20
22.6295249696
 10
55.7721990828
 20
22.6293141643
 10
55.747783935
 20
22.6290180354
 10
55.7245637624
 20
22.6286410718
 10
55.7027500325
 20
22.6281967396
 10
55.682585366
 20
22.6276840334
 10
55.6642607587
 20
22.6271039587
 10
55.6479066098
 20
22.626472998
 10
55.6337011244
 20
22.6257893234
 10
55.6218218329
 20
22.6250547628
 10
55.6123975512
 20
22.6242912832
 10
55.6055535346
 20
22.6235062068
 10
55.6013967701
 20
22.6226922113
 10
55.6
 20
22.6218493279
  0
LINE
  5
39B
100
AcDbEntity
  8
RACCORDO
100
AcDbLine
 62
7
  6
CONTINUOUS
 10
76.8474063247
 20
22.4349101299
 11
55.6525936753
 21
22.4349101299
  0
LINE
  5
39C
100
AcDbEntity
  8
RACCORDO
100
AcDbLine
 62
250
  6
CONTINUOUS
 10
57.75
 20
22.629704076
 11
55.823591695
 21
22.6296549402
  0
LINE
  5
39D
100
AcDbEntity
  8
RACCORDO
100
AcDbLine
 62
250
  6
CONTINUOUS
 10
74.7236626435
 20
22.629655068
 11
76.65
 21
22.629704076
  0
LINE
  5
39E
100
AcDbEntity
  8
RACCORDO
100
AcDbLine
 62
250
  6
CONTINUOUS
 10
55.6
 20
22.9783121635
 11
58.0
 21
22.9783121635
  0
LINE
  5
39F
100
AcDbEntity
  8
RACCORDO
100
AcDbLine
 62
250
  6
CONTINUOUS
 10
74.5
 20
22.9783121635
 11
76.9
 21
22.9783121635
  0
LINE
  5
3A0
100
AcDbEntity
  8
26814000
100
AcDbLine
 62
7
  6
CONTINUOUS
 10
54.3412732553
 20
23.1226497308
 11
52.0587267447
 21
23.1226497308
  0
LINE
  5
3A1
100
AcDbEntity
  8
26814000
100
AcDbLine
 62
7
  6
CONTINUOUS
 10
35.4412732553
 20
23.1226497308
 11
33.1587267447
 21
23.1226497308
  0
LINE
  5
3A2
100
AcDbEntity
  8
RACCORDO
100
AcDbLine
 62
250
  6
CONTINUOUS
 10
55.85
 20
23.1948185145
 11
57.75
 21
23.1948185145
  0
LINE
  5
3A3
100
AcDbEntity
  8
RACCORDO
100
AcDbLine
 62
250
  6
CONTINUOUS
 10
74.75
 20
23.1948185145
 11
76.65
 21
23.1948185145
  0
LINE
  5
3A4
100
AcDbEntity
  8
RACCORDO
100
AcDbLine
 62
250
  6
CONTINUOUS
 10
76.65
 20
23.6278312164
 11
74.75
 21
23.6278312164
  0
LINE
  5
3A5
100
AcDbEntity
  8
RACCORDO
100
AcDbLine
 62
250
  6
CONTINUOUS
 10
57.75
 20
23.6278312164
 11
55.85
 21
23.6278312164
  0
LINE
  5
3A6
100
AcDbEntity
  8
26814000
100
AcDbLine
 62
250
  6
CONTINUOUS
 10
33.1638173458
 20
23.6278312164
 11
35.4361826542
 21
23.6278312164
  0
LINE
  5
3A7
100
AcDbEntity
  8
26814000
100
AcDbLine
 62
250
  6
CONTINUOUS
 10
52.0638173458
 20
23.6278312164
 11
54.3361826542
 21
23.6278312164
  0
LINE
  5
3A8
100
AcDbEntity
  8
26814000
100
AcDbLine
 62
7
  6
CONTINUOUS
 10
39.6540775579
 20
23.7941821702
 11
47.8459224421
 21
23.7941821702
  0
LINE
  5
3A9
100
AcDbEntity
  8
26814000
100
AcDbLine
 62
7
  6
CONTINUOUS
 10
39.35
 20
23.8
 11
48.15
 21
23.8
  0
LINE
  5
3AA
100
AcDbEntity
  8
RACCORDO
100
AcDbLine
 62
7
  6
CONTINUOUS
 10
61.8471335533
 20
23.8
 11
70.6528664467
 21
23.8
  0
LINE
  5
3AB
100
AcDbEntity
  8
26814000
100
AcDbLine
 62
250
  6
CONTINUOUS
 10
33.1645445745
 20
23.8443375673
 11
35.4354554255
 21
23.8443375673
  0
LINE
  5
3AC
100
AcDbEntity
  8
26814000
100
AcDbLine
 62
250
  6
CONTINUOUS
 10
52.0645445745
 20
23.8443375673
 11
54.3354554255
 21
23.8443375673
  0
LINE
  5
3AD
100
AcDbEntity
  8
RACCORDO
100
AcDbLine
 62
250
  6
CONTINUOUS
 10
55.6
 20
23.8443375673
 11
58.0
 21
23.8443375673
  0
LINE
  5
3AE
100
AcDbEntity
  8
RACCORDO
100
AcDbLine
 62
250
  6
CONTINUOUS
 10
74.5
 20
23.8443375673
 11
76.9
 21
23.8443375673
  0
LINE
  5
3AF
100
AcDbEntity
  8
26814000
100
AcDbLine
 62
250
  6
CONTINUOUS
 10
54.3354554255
 20
24.1369056521
 11
52.0645445745
 21
24.1369056521
  0
LINE
  5
3B0
100
AcDbEntity
  8
26814000
100
AcDbLine
 62
250
  6
CONTINUOUS
 10
35.4354554255
 20
24.1369056521
 11
33.1645445745
 21
24.1369056521
  0
LINE
  5
3B1
100
AcDbEntity
  8
RACCORDO
100
AcDbLine
 62
250
  6
CONTINUOUS
 10
55.6
 20
24.25
 11
58.0
 21
24.25
  0
LINE
  5
3B2
100
AcDbEntity
  8
RACCORDO
100
AcDbLine
 62
250
  6
CONTINUOUS
 10
74.5
 20
24.25
 11
76.9
 21
24.25
  0
LINE
  5
3B3
100
AcDbEntity
  8
26814000
100
AcDbLine
 62
250
  6
CONTINUOUS
 10
54.3369014213
 20
24.3869014213
 11
52.0630985787
 21
24.3869014213
  0
LINE
  5
3B4
100
AcDbEntity
  8
26814000
100
AcDbLine
 62
250
  6
CONTINUOUS
 10
35.4369014213
 20
24.3869014213
 11
33.1630985787
 21
24.3869014213
  0
LINE
  5
3B5
100
AcDbEntity
  8
26814000
100
AcDbLine
 62
7
  6
CONTINUOUS
 10
33.15
 20
24.4
 11
35.45
 21
24.4
  0
LINE
  5
3B6
100
AcDbEntity
  8
26814000
100
AcDbLine
 62
7
  6
CONTINUOUS
 10
52.05
 20
24.4
 11
54.35
 21
24.4
  0
LINE
  5
3B7
100
AcDbEntity
  8
RACCORDO
100
AcDbLine
 62
7
  6
CONTINUOUS
 10
55.85
 20
24.5
 11
57.75
 21
24.5
  0
LINE
  5
3B8
100
AcDbEntity
  8
RACCORDO
100
AcDbLine
 62
7
  6
CONTINUOUS
 10
74.75
 20
24.5
 11
76.65
 21
24.5
  0
LWPOLYLINE
  5
3B9
100
AcDbEntity
  8
RACCORDO
100
AcDbPolyline
 62
250
  6
CONTINUOUS
 90
16
 70
0
 10
76.65
 20
22.629704076
 10
76.6763373565
 20
22.6296550681
 10
76.7022995983
 20
22.6295257019
 10
76.7276037577
 20
22.6293159775
 10
76.7519623914
 20
22.6290216622
 10
76.7751366792
 20
22.6286469887
 10
76.7969305335
 20
22.6282046544
 10
76.8171030826
 20
22.6276935558
 10
76.8354552141
 20
22.6271147964
 10
76.85185282
 20
22.6264843843
 10
76.8661144997
 20
22.625800245
 10
76.8780530597
 20
22.6250644531
 10
76.8875286371
 20
22.6242992392
 10
76.8944117633
 20
22.6235120136
 10
76.8985941046
 20
22.6226953662
 10
76.8999999823
 20
22.6218523475
  0
LWPOLYLINE
  5
3BA
100
AcDbEntity
  8
RACCORDO
100
AcDbPolyline
 62
250
  6
CONTINUOUS
 90
11
 70
0
 10
55.516733249
 20
22.4342858718
 10
55.5081489159
 20
22.4345880731
 10
55.5003129872
 20
22.434811919
 10
55.4933137278
 20
22.4349623824
 10
55.4872219893
 20
22.4350422172
 10
55.4820397195
 20
22.4350535638
 10
55.4777446172
 20
22.4349991543
 10
55.4743116057
 20
22.4348847231
 10
55.4717026472
 20
22.4347169745
 10
55.4698812635
 20
22.434502461
 10
55.4688657026
 20
22.4342673925
  0
LWPOLYLINE
  5
3BB
100
AcDbEntity
  8
RACCORDO
100
AcDbPolyline
 62
250
  6
CONTINUOUS
 90
10
 70
0
 10
57.9520933902
 20
22.6264729979
 10
57.9357392413
 20
22.6271039585
 10
57.917414634
 20
22.6276840333
 10
57.8972499675
 20
22.6281967395
 10
57.8754362376
 20
22.6286410718
 10
57.852216065
 20
22.6290180356
 10
57.8278009172
 20
22.6293141645
 10
57.8024369724
 20
22.6295249698
 10
57.776408305
 20
22.6296549403
 10
57.75
 20
22.629704076
  0
LINE
  5
3BC
100
AcDbEntity
  8
RACCORDO
100
AcDbLine
 62
250
  6
CONTINUOUS
 10
55.5260147128
 20
22.4339033479
 11
55.516733249
 21
22.4342858718
  0
LINE
  5
3BD
100
AcDbEntity
  8
RACCORDO
100
AcDbLine
 62
250
  6
CONTINUOUS
 10
55.5463607402
 20
22.4329280326
 11
55.5260147128
 21
22.4339033479
  0
LINE
  5
3BE
100
AcDbEntity
  8
RACCORDO
100
AcDbLine
 62
250
  6
CONTINUOUS
 10
55.5878487024
 20
22.4306679897
 11
55.5463607402
 21
22.4329280326
  0
LWPOLYLINE
  5
3BF
100
AcDbEntity
  8
RACCORDO
100
AcDbPolyline
 62
250
  6
CONTINUOUS
 90
10
 70
0
 10
77.3533544073
 20
21.9289665538
 10
77.3537667964
 20
21.9289258064
 10
77.3541785925
 20
21.9294063209
 10
77.3545897956
 20
21.9304080974
 10
77.3550037738
 20
21.9320131201
 10
77.3554171589
 20
21.9341394047
 10
77.3558198469
 20
21.9365409986
 10
77.3562122269
 20
21.9392533414
 10
77.3565939098
 20
21.9422409935
 10
77.357286774
 20
21.9479205229
  0
LINE
  5
3C0
100
AcDbEntity
  8
RACCORDO
100
AcDbLine
 62
7
  6
CONTINUOUS
 10
77.3782763269
 20
-21.9717205011
 11
77.3784157722
 21
-21.9704512019
  0
LWPOLYLINE
  5
3C1
100
AcDbEntity
  8
RACCORDO
100
AcDbPolyline
 62
250
  6
CONTINUOUS
 90
9
 70
0
 10
77.3811191151
 20
-21.91777282
 10
77.3817547979
 20
-21.9120788969
 10
77.3820967516
 20
-21.9093112017
 10
77.3824547979
 20
-21.9066317637
 10
77.3828293266
 20
-21.9040661476
 10
77.3832227289
 20
-21.9018739809
 10
77.383635802
 20
-21.9001418061
 10
77.3840677489
 20
-21.8987830808
 10
77.3845185694
 20
-21.897797805
  0
LINE
  5
3C2
100
AcDbEntity
  8
DRAFT
100
AcDbLine
 62
7
  6
CONTINUOUS
 10
77.3589805974
 20
-21.825
 11
77.3476348052
 21
-21.9048099646
  0
LINE
  5
3C3
100
AcDbEntity
  8
RACCORDO
100
AcDbLine
 62
250
  6
CONTINUOUS
 10
77.3817948095
 20
-21.9500640865
 11
77.3751775712
 21
-21.9919160338
  0
LWPOLYLINE
  5
3C4
100
AcDbEntity
  8
RACCORDO
100
AcDbPolyline
 62
7
  6
CONTINUOUS
 90
37
 70
0
 10
77.0343125753
 20
21.3139824144
 10
77.0292125715
 20
21.3375921272
 10
77.0232243067
 20
21.3617787113
 10
77.0163727546
 20
21.386190731
 10
77.0085162178
 20
21.411108618
 10
76.9996534459
 20
21.4363091509
 10
76.9897345607
 20
21.4617516816
 10
76.9787114805
 20
21.4873886355
 10
76.9666306289
 20
21.5129790775
 10
76.9534761832
 20
21.5384594662
 10
76.9392186956
 20
21.5637951832
 10
76.9239238866
 20
21.5887982727
 10
76.9076273092
 20
21.6133668467
 10
76.8902944528
 20
21.6375113
 10
76.8719010766
 20
21.6612152613
 10
76.8524425233
 20
21.6844320917
 10
76.8319265395
 20
21.707101832
 10
76.8103463386
 20
21.7291821312
 10
76.7877091659
 20
21.7506158199
 10
76.7640250164
 20
21.7713450775
 10
76.7392929096
 20
21.7913222227
 10
76.7135277658
 20
21.8104863949
 10
76.6867483336
 20
21.8287758569
 10
76.6589619984
 20
21.8461374184
 10
76.6301938905
 20
21.8625068163
 10
76.6004722152
 20
21.8778201364
 10
76.569812592
 20
21.8920207116
 10
76.5382510662
 20
21.9050424479
 10
76.5058275736
 20
21.9168198737
 10
76.4725682029
 20
21.9272934751
 10
76.4385213285
 20
21.9363968588
 10
76.4037403812
 20
21.9440646892
 10
76.3682648444
 20
21.9502359365
 10
76.3321574872
 20
21.9548459625
 10
76.2954862659
 20
21.9578321598
 10
76.2583054411
 20
21.9591345457
 10
76.2488886
 20
21.9591899417
  0
LINE
  5
3C5
100
AcDbEntity
  8
RACCORDO
100
AcDbLine
 62
250
  6
CONTINUOUS
 10
77.0498339282
 20
21.1580269694
 11
77.15
 21
20.6578066462
  0
LINE
  5
3C6
100
AcDbEntity
  8
RACCORDO
100
AcDbLine
 62
7
  6
CONTINUOUS
 10
77.0343156274
 20
21.313982977
 11
77.1345924498
 21
20.8132099577
  0
LWPOLYLINE
  5
3C7
100
AcDbEntity
  8
RACCORDO
100
AcDbPolyline
 62
7
  6
CONTINUOUS
 90
7
 70
0
 10
77.373430806
 20
22.0108844517
 10
77.3715573422
 20
22.0224090133
 10
77.3691120348
 20
22.0355611691
 10
77.3660322837
 20
22.0499928247
 10
77.3621696829
 20
22.0657758383
 10
77.357389932
 20
22.0828421494
 10
77.3517221564
 20
22.1006104891
  0
LWPOLYLINE
  5
3C8
100
AcDbEntity
  8
RACCORDO
100
AcDbPolyline
 62
250
  6
CONTINUOUS
 90
3
 70
0
 10
77.3751776649
 20
21.9919154413
 10
77.3817948096
 20
21.9500640856
 10
77.3845185694
 20
21.8977978048
  0
LWPOLYLINE
  5
3C9
100
AcDbEntity
  8
RACCORDO
100
AcDbPolyline
 62
250
  6
CONTINUOUS
 90
3
 70
0
 10
77.0343834973
 20
21.3136444232
 10
77.045428348
 20
21.2413074016
 10
77.0498339282
 20
21.1580269694
  0
LWPOLYLINE
  5
3CA
100
AcDbEntity
  8
RACCORDO
100
AcDbPolyline
 62
7
  6
CONTINUOUS
 90
5
 70
0
 10
77.3771060782
 20
21.9800271797
 10
77.3775722535
 20
21.9768604412
 10
77.3781876695
 20
21.9723132424
 10
77.37843106
 20
21.9703217533
 10
77.3783870193
 20
21.9707097024
  0
LINE
  5
3CB
100
AcDbEntity
  8
DRAFT
100
AcDbLine
 62
7
  6
CONTINUOUS
 10
77.3476348052
 20
21.9048099646
 11
77.3589805974
 21
21.825
  0
LWPOLYLINE
  5
3CC
100
AcDbEntity
  8
RACCORDO
100
AcDbPolyline
 62
250
  6
CONTINUOUS
 90
7
 70
0
 10
77.3823026299
 20
21.9077292714
 10
77.3826355758
 20
21.9053805523
 10
77.3829821911
 20
21.9031617111
 10
77.3833436779
 20
21.9012739004
 10
77.3837204369
 20
21.8997841713
 10
77.3841120674
 20
21.8986254727
 10
77.3845185694
 20
21.8977978048
  0
LWPOLYLINE
  5
3CD
100
AcDbEntity
  8
RACCORDO
100
AcDbPolyline
 62
7
  6
CONTINUOUS
 90
3
 70
0
 10
77.3758839595
 20
21.9930173339
 10
77.3748269232
 20
22.0011775615
 10
77.373430806
 20
22.0108844517
  0
LINE
  5
3CE
100
AcDbEntity
  8
RACCORDO
100
AcDbLine
 62
250
  6
CONTINUOUS
 10
77.3813846075
 20
21.915353543
 11
77.3823026299
 21
21.9077292714
  0
LWPOLYLINE
  5
3CF
100
AcDbEntity
  8
RACCORDO
100
AcDbPolyline
 62
7
  6
CONTINUOUS
 90
3
 70
0
 10
77.3773544131
 20
21.9803105491
 10
77.3767083621
 20
21.9860910183
 10
77.3758839595
 20
21.9930173339
  0
LWPOLYLINE
  5
3D0
100
AcDbEntity
  8
0
100
AcDbPolyline
 62
7
  6
CONTINUOUS
 90
3
 70
0
 43
0.3500000006
 10
84.0071406555
 20
-0.8571427917
 10
84.0071406555
 20
-2.3571432495
 10
81.6500022583
 20
-1.7142852631
  0
LWPOLYLINE
  5
3D1
100
AcDbEntity
  8
RACCORDO
100
AcDbPolyline
 62
7
  6
CONTINUOUS
 90
9
 70
0
 10
76.9090674445
 20
-22.5623349788
 10
76.9146936076
 20
-22.5466357511
 10
76.9214579776
 20
-22.5317591533
 10
76.9292404138
 20
-22.5177714424
 10
76.9379172707
 20
-22.5047282197
 10
76.9473715685
 20
-22.4926619377
 10
76.9574829065
 20
-22.4816001773
 10
76.9681210667
 20
-22.4715682402
 10
76.9791921974
 20
-22.4625486983
  0
LWPOLYLINE
  5
3D2
100
AcDbEntity
  8
RACCORDO
100
AcDbPolyline
 62
7
  6
CONTINUOUS
 90
3
 70
0
 10
77.0253779298
 20
-22.4364616314
 10
77.0420763911
 20
-22.4301417697
 10
77.0634422632
 20
-22.4212275712
  0
LWPOLYLINE
  5
3D3
100
AcDbEntity
  8
RACCORDO
100
AcDbPolyline
 62
7
  6
CONTINUOUS
 90
5
 70
0
 10
77.0301174484
 20
22.4346387023
 10
77.0197454403
 20
22.4388132837
 10
77.0091309733
 20
22.4438178561
 10
76.9983623065
 20
22.4497157707
 10
76.987530879
 20
22.4565693461
  0
LINE
  5
3D4
100
AcDbEntity
  8
RACCORDO
100
AcDbLine
 62
7
  6
CONTINUOUS
 10
77.3450863371
 20
22.1189899632
 11
77.3373672831
 21
22.1379764118
  0
LINE
  5
3D5
100
AcDbEntity
  8
RACCORDO
100
AcDbLine
 62
7
  6
CONTINUOUS
 10
77.3352513023
 20
22.142706679
 11
77.3537413666
 21
22.0941391958
  0
LINE
  5
3D6
100
AcDbEntity
  8
RACCORDO
100
AcDbLine
 62
7
  6
CONTINUOUS
 10
77.3517221564
 20
22.1006104891
 11
77.3450863371
 21
22.1189899632
  0
LWPOLYLINE
  5
3D7
100
AcDbEntity
  8
RACCORDO
100
AcDbPolyline
 62
7
  6
CONTINUOUS
 90
4
 70
0
 10
77.3537413666
 20
22.0941391958
 10
77.3670869861
 20
22.0439124778
 10
77.375143878
 20
21.9925695393
 10
77.3778249375
 20
21.9406654621
  0
LWPOLYLINE
  5
3D8
100
AcDbEntity
  8
RACCORDO
100
AcDbPolyline
 62
250
  6
CONTINUOUS
 90
5
 70
0
 10
77.3413434851
 20
-22.1011719378
 10
77.317592502
 20
-22.1478033212
 10
77.2890956826
 20
-22.1916945408
 10
77.2561653639
 20
-22.2323645306
 10
77.2530670764
 20
-22.2356334166
  0
LWPOLYLINE
  5
3D9
100
AcDbEntity
  8
RACCORDO
100
AcDbPolyline
 62
7
  6
CONTINUOUS
 90
16
 70
0
 10
77.3026617761
 20
-22.2044515377
 10
77.3156231188
 20
-22.182349388
 10
77.3271343098
 20
-22.1602393888
 10
77.3371101633
 20
-22.1385720909
 10
77.345671518
 20
-22.1174537935
 10
77.3529399599
 20
-22.0969754117
 10
77.3589354347
 20
-22.0775664885
 10
77.3638591838
 20
-22.0591338669
 10
77.367821684
 20
-22.0418515468
 10
77.3708313087
 20
-22.0265074569
 10
77.3730540668
 20
-22.0133256763
 10
77.3747182363
 20
-22.0019736442
 10
77.375956955
 20
-21.992424098
 10
77.3768503446
 20
-21.9848458973
 10
77.3774888899
 20
-21.9790733146
 10
77.3782763269
 20
-21.9717205011
  0
LWPOLYLINE
  5
3DA
100
AcDbEntity
  8
RACCORDO
100
AcDbPolyline
 62
250
  6
CONTINUOUS
 90
12
 70
0
 10
77.3778247568
 20
-21.9406659172
 10
77.377991445
 20
-21.9403938981
 10
77.3781639302
 20
-21.9399536551
 10
77.3783422126
 20
-21.939345188
 10
77.3785256503
 20
-21.9385763925
 10
77.3787148851
 20
-21.937639373
 10
77.3789118421
 20
-21.9365104426
 10
77.3791164513
 20
-21.9351834434
 10
77.3793287827
 20
-21.9336645333
 10
77.3795509716
 20
-21.9319484992
 10
77.3797828511
 20
-21.9300235829
 10
77.3802788193
 20
-21.9256124398
  0
LWPOLYLINE
  5
3DB
100
AcDbEntity
  8
RACCORDO
100
AcDbPolyline
 62
7
  6
CONTINUOUS
 90
3
 70
0
 10
77.2805007738
 20
-22.2371695243
 10
77.288263323
 20
-22.2263302669
 10
77.3026617761
 20
-22.2044515377
  0
LINE
  5
3DC
100
AcDbEntity
  8
RACCORDO
100
AcDbLine
 62
7
  6
CONTINUOUS
 10
77.2661316897
 20
-22.2565193798
 11
77.2621511112
 21
-22.2619320384
  0
LINE
  5
3DD
100
AcDbEntity
  8
RACCORDO
100
AcDbLine
 62
250
  6
CONTINUOUS
 10
77.3603751521
 20
-21.9642119188
 11
77.3681303187
 21
-21.9536834334
  0
LINE
  5
3DE
100
AcDbEntity
  8
RACCORDO
100
AcDbLine
 62
7
  6
CONTINUOUS
 10
77.2805007738
 20
-22.2371695243
 11
77.2661316897
 21
-22.2565193798
  0
LINE
  5
3DF
100
AcDbEntity
  8
RACCORDO
100
AcDbLine
 62
250
  6
CONTINUOUS
 10
77.3681303187
 20
-21.9536834334
 11
77.3758863337
 21
-21.9432560917
  0
LINE
  5
3E0
100
AcDbEntity
  8
RACCORDO
100
AcDbLine
 62
250
  6
CONTINUOUS
 10
77.3758863337
 20
-21.9432560917
 11
77.3778247568
 21
-21.9406659172
  0
LINE
  5
3E1
100
AcDbEntity
  8
RACCORDO
100
AcDbLine
 62
7
  6
CONTINUOUS
 10
77.2510375381
 20
-22.2763723293
 11
77.2621519636
 21
-22.2619326745
  0
LINE
  5
3E2
100
AcDbEntity
  8
RACCORDO
100
AcDbLine
 62
250
  6
CONTINUOUS
 10
77.3845185694
 20
-21.897797805
 11
77.4
 21
-21.8823164546
  0
LINE
  5
3E3
100
AcDbEntity
  8
RACCORDO
100
AcDbLine
 62
250
  6
CONTINUOUS
 10
77.3476348052
 20
-21.9346816494
 11
77.3533544073
 21
-21.9289665558
  0
LINE
  5
3E4
100
AcDbEntity
  8
RACCORDO
100
AcDbLine
 62
7
  6
CONTINUOUS
 10
77.214629477
 20
-22.3102705394
 11
77.1744405894
 21
-22.3432174427
  0
LWPOLYLINE
  5
3E5
100
AcDbEntity
  8
RACCORDO
100
AcDbPolyline
 62
7
  6
CONTINUOUS
 90
5
 70
0
 10
76.9791921974
 20
-22.4625486983
 10
76.9905722239
 20
-22.4545454407
 10
77.0020765471
 20
-22.447583299
 10
77.0137629751
 20
-22.4415393029
 10
77.0253779298
 20
-22.4364616314
  0
LWPOLYLINE
  5
3E6
100
AcDbEntity
  8
RACCORDO
100
AcDbPolyline
 62
250
  6
CONTINUOUS
 90
7
 70
0
 10
76.8999999814
 20
-22.6218524218
 10
76.8985941046
 20
-22.6226953667
 10
76.8944117633
 20
-22.6235120145
 10
76.8875286372
 20
-22.6242992401
 10
76.8780530597
 20
-22.6250644537
 10
76.8661144997
 20
-22.6258002451
 10
76.85185282
 20
-22.626484384
  0
LWPOLYLINE
  5
3E7
100
AcDbEntity
  8
RACCORDO
100
AcDbPolyline
 62
7
  6
CONTINUOUS
 90
12
 70
0
 10
77.0634422632
 20
-22.4212275712
 10
77.0841593378
 20
-22.4114413
 10
77.104197653
 20
-22.400833448
 10
77.1235366756
 20
-22.3894512397
 10
77.1421543119
 20
-22.377344001
 10
77.160029911
 20
-22.3645621153
 10
77.1771493622
 20
-22.3511531903
 10
77.1934985478
 20
-22.3371664166
 10
77.20906696
 20
-22.322649874
 10
77.2238497015
 20
-22.3076478708
 10
77.2378409621
 20
-22.2922068634
 10
77.2510375381
 20
-22.2763723293
  0
LWPOLYLINE
  5
3E8
100
AcDbEntity
  8
0
100
AcDbPolyline
 62
7
  6
CONTINUOUS
 90
3
 70
0
 43
0.3500000006
 10
54.4642874451
 20
33.8928587494
 10
52.9642869873
 20
33.8928587494
 10
53.6071449738
 20
36.2500016785
  0
LWPOLYLINE
  5
3E9
100
AcDbEntity
  8
0
100
AcDbPolyline
 62
7
  6
CONTINUOUS
 90
3
 70
0
 43
0.3500000006
 10
52.107144516
 20
33.8928587494
 10
50.6071440582
 20
33.8928587494
 10
51.2500020447
 20
36.2500016785
  0
LINE
  5
3EA
100
AcDbEntity
  8
RACCORDO
100
AcDbLine
 62
7
  6
CONTINUOUS
 10
77.0315570206
 20
22.4339535759
 11
77.0784177416
 21
22.4141499712
  0
LWPOLYLINE
  5
3EB
100
AcDbEntity
  8
RACCORDO
100
AcDbPolyline
 62
7
  6
CONTINUOUS
 90
3
 70
0
 10
77.0812643562
 20
22.4128785313
 10
77.0362631461
 20
22.4323690199
 10
77.0301174484
 20
22.4346387023
  0
LWPOLYLINE
  5
3EC
100
AcDbEntity
  8
RACCORDO
100
AcDbPolyline
 62
7
  6
CONTINUOUS
 90
5
 70
0
 10
77.0784177416
 20
22.4141499712
 10
77.1230205104
 20
22.3896854416
 10
77.1649032828
 20
22.3608134172
 10
77.2036321914
 20
22.3278329861
 10
77.2388060399
 20
22.2910857954
  0
LINE
  5
3ED
100
AcDbEntity
  8
RACCORDO
100
AcDbLine
 62
7
  6
CONTINUOUS
 10
76.987530879
 20
22.4565693461
 11
76.97701957
 21
22.4642164863
  0
LWPOLYLINE
  5
3EE
100
AcDbEntity
  8
0
100
AcDbPolyline
 62
7
  6
CONTINUOUS
 90
13
 70
0
 43
0.3500000006
 10
57.4642838287
 20
34.9642857056
 10
57.1785726929
 20
35.1785701904
 10
57.1785726929
 20
35.8214281769
 10
57.4642838287
 20
36.2500016785
 10
58.1071418152
 20
36.2500016785
 10
58.3928574829
 20
35.8214281769
 10
58.3928574829
 20
35.1785701904
 10
58.1071418152
 20
34.9642857056
 10
58.5357153168
 20
34.535712204
 10
58.5357153168
 20
33.6785697327
 10
58.1071418152
 20
33.2500007629
 10
57.4642838287
 20
33.2500007629
 10
57.035714859
 20
33.6785697327
  0
LWPOLYLINE
  5
3EF
100
AcDbEntity
  8
RACCORDO
100
AcDbPolyline
 62
7
  6
CONTINUOUS
 90
13
 70
0
 10
76.97701957
 20
22.4642164863
 10
76.9669750846
 20
22.4725799811
 10
76.9573753591
 20
22.4817093938
 10
76.9483081274
 20
22.4915648285
 10
76.9398535532
 20
22.5020970219
 10
76.9320522295
 20
22.5132966939
 10
76.9249365682
 20
22.5251787212
 10
76.9185741601
 20
22.5377123017
 10
76.913037273
 20
22.5508495303
 10
76.9083817496
 20
22.5645794045
 10
76.9046818367
 20
22.5788459881
 10
76.9020091034
 20
22.5935852782
 10
76.9004290548
 20
22.6087662238
  0
LWPOLYLINE
  5
3F0
100
AcDbEntity
  8
RACCORDO
100
AcDbPolyline
 62
7
  6
CONTINUOUS
 90
4
 70
0
 10
77.2015566884
 20
22.3298055514
 10
77.1642929479
 20
22.3613328444
 10
77.1240731006
 20
22.3891175297
 10
77.0812643562
 20
22.4128785313
  0
LINE
  5
3F1
100
AcDbEntity
  8
RACCORDO
100
AcDbLine
 62
250
  6
CONTINUOUS
 10
77.3476348052
 20
21.9346816494
 11
77.3533544073
 21
21.9289665538
  0
LINE
  5
3F2
100
AcDbEntity
  8
RACCORDO
100
AcDbLine
 62
250
  6
CONTINUOUS
 10
77.3845185694
 20
21.8977978048
 11
77.4
 21
21.8823164546
  0
LINE
  5
3F3
100
AcDbEntity
  8
RACCORDO
100
AcDbLine
 62
7
  6
CONTINUOUS
 10
77.2355157707
 20
22.2948618356
 11
77.2015566884
 21
22.3298055514
  0
LINE
  5
3F4
100
AcDbEntity
  8
RACCORDO
100
AcDbLine
 62
7
  6
CONTINUOUS
 10
77.2719761398
 20
22.247895532
 11
77.278041533
 21
22.2404790742
  0
LINE
  5
3F5
100
AcDbEntity
  8
RACCORDO
100
AcDbLine
 62
7
  6
CONTINUOUS
 10
77.2592275602
 20
22.2658364642
 11
77.2355157707
 21
22.2948618356
  0
LINE
  5
3F6
100
AcDbEntity
  8
RACCORDO
100
AcDbLine
 62
7
  6
CONTINUOUS
 10
77.2388060399
 20
22.2910857954
 11
77.2592276586
 21
22.265836535
  0
LINE
  5
3F7
100
AcDbEntity
  8
RACCORDO
100
AcDbLine
 62
7
  6
CONTINUOUS
 10
77.2592276586
 20
22.265836535
 11
77.2637165735
 21
22.2598081261
  0
LINE
  5
3F8
100
AcDbEntity
  8
RACCORDO
100
AcDbLine
 62
7
  6
CONTINUOUS
 10
77.2797060686
 20
22.2382445812
 11
77.2717531128
 21
22.2489115284
  0
LINE
  5
3F9
100
AcDbEntity
  8
RACCORDO
100
AcDbLine
 62
250
  6
CONTINUOUS
 10
77.3700696991
 20
21.9510665671
 11
77.3778247332
 21
21.9406659488
  0
LWPOLYLINE
  5
3FA
100
AcDbEntity
  8
RACCORDO
100
AcDbPolyline
 62
7
  6
CONTINUOUS
 90
3
 70
0
 10
77.2717531128
 20
22.2489115284
 10
77.2642592285
 20
22.2590681118
 10
77.2637165735
 20
22.2598081261
  0
LWPOLYLINE
  5
3FB
100
AcDbEntity
  8
RACCORDO
100
AcDbPolyline
 62
250
  6
CONTINUOUS
 90
3
 70
0
 10
77.3603751542
 20
21.964211916
 10
77.3623136193
 20
21.9615706094
 10
77.3700696991
 20
21.9510665671
  0
LWPOLYLINE
  5
3FC
100
AcDbEntity
  8
RACCORDO
100
AcDbPolyline
 62
7
  6
CONTINUOUS
 90
3
 70
0
 10
77.2797060686
 20
22.2382445812
 10
77.2836908997
 20
22.2327872527
 10
77.3118166941
 20
22.1890898516
  0
LINE
  5
3FD
100
AcDbEntity
  8
RACCORDO
100
AcDbLine
 62
7
  6
CONTINUOUS
 10
77.2637165735
 20
22.2598081261
 11
77.2700604591
 21
22.2509525128
  0
LWPOLYLINE
  5
3FE
100
AcDbEntity
  8
RACCORDO
100
AcDbPolyline
 62
250
  6
CONTINUOUS
 90
14
 70
0
 10
77.3778247332
 20
21.9406659488
 10
77.3779685341
 20
21.9404367126
 10
77.3781167296
 20
21.9400836216
 10
77.3782693197
 20
21.9396066759
 10
77.3784257492
 20
21.9390133933
 10
77.3785865734
 20
21.9382962559
 10
77.3787534574
 20
21.9374327105
 10
77.3789264764
 20
21.9364188375
 10
77.3791055552
 20
21.9352585566
 10
77.3792921338
 20
21.9339410728
 10
77.3794860792
 20
21.9324621821
 10
77.3796875245
 20
21.9308260886
 10
77.379898309
 20
21.9290346096
 10
77.3801182389
 20
21.9270762299
  0
LWPOLYLINE
  5
3FF
100
AcDbEntity
  8
RACCORDO
100
AcDbPolyline
 62
7
  6
CONTINUOUS
 90
7
 70
0
 10
77.2700604591
 20
22.2509525128
 10
77.2970716818
 20
22.2078488826
 10
77.3195598961
 20
22.1622214191
 10
77.3372921445
 20
22.1145427816
 10
77.3500847372
 20
22.0653068773
 10
77.3578051544
 20
22.0150237454
 10
77.3603734197
 20
21.9642142736
  0
LINE
  5
400
100
AcDbEntity
  8
RACCORDO
100
AcDbLine
 62
7
  6
CONTINUOUS
 10
77.3118166941
 20
22.1890898516
 11
77.3352513023
 21
22.142706679
  0
LWPOLYLINE
  5
401
100
AcDbEntity
  8
RACCORDO
100
AcDbPolyline
 62
7
  6
CONTINUOUS
 90
6
 70
0
 10
77.3373672831
 20
22.1379764118
 10
77.3286500318
 20
22.1571157463
 10
77.3189282822
 20
22.1762696032
 10
77.3081193236
 20
22.1954577793
 10
77.2962664187
 20
22.214477295
 10
77.2833789685
 20
22.2332203408
  0
LWPOLYLINE
  5
402
100
AcDbEntity
  8
0
100
AcDbPolyline
 62
7
  6
CONTINUOUS
 90
5
 70
0
 43
0.3500000006
 10
-3.4028000278
 20
44.9642842255
 10
-3.0456571426
 20
45.1785732422
 10
-3.0456571426
 20
45.8214266968
 10
-3.4028000278
 20
46.2500001984
 10
-4.2599430656
 20
46.2500001984
  0
LINE
  5
403
100
AcDbEntity
  8
RACCORDO
100
AcDbLine
 62
250
  6
CONTINUOUS
 10
-5.7936052984
 20
23.4113248654
 11
-5.0436052984
 21
23.8443375673
  0
LINE
  5
404
100
AcDbEntity
  8
RACCORDO
100
AcDbLine
 62
7
  6
CONTINUOUS
 10
-5.6686052984
 20
23.1948185145
 11
-4.9186052984
 21
23.6278312164
  0
LINE
  5
405
100
AcDbEntity
  8
26814000
100
AcDbLine
 62
7
  6
CONTINUOUS
 10
2.2063947016
 20
-23.7534573615
 11
1.9126712019
 21
-23.7551661948
  0
LINE
  5
406
100
AcDbEntity
  8
RACCORDO
100
AcDbLine
 62
7
  6
CONTINUOUS
 10
-8.0436052984
 20
-24.5
 11
-5.0436052984
 21
-24.5
  0
LINE
  5
407
100
AcDbEntity
  8
RACCORDO
100
AcDbLine
 62
250
  6
CONTINUOUS
 10
-4.7936052984
 20
-24.25
 11
-8.2936052984
 21
-24.25
  0
LINE
  5
408
100
AcDbEntity
  8
RACCORDO
100
AcDbLine
 62
250
  6
CONTINUOUS
 10
-4.7936052984
 20
-23.8443375673
 11
-5.0436052984
 21
-23.8443375673
  0
LINE
  5
409
100
AcDbEntity
  8
RACCORDO
100
AcDbLine
 62
250
  6
CONTINUOUS
 10
-8.0436052984
 20
-23.8443375673
 11
-8.2936052984
 21
-23.8443375673
  0
LINE
  5
40A
100
AcDbEntity
  8
RACCORDO
100
AcDbLine
 62
7
  6
CONTINUOUS
 10
1.7063947016
 20
-23.8
 11
-4.7936052984
 21
-23.8
  0
LINE
  5
40B
100
AcDbEntity
  8
RACCORDO
100
AcDbLine
 62
250
  6
CONTINUOUS
 10
-6.0436052984
 20
-22.9783121635
 11
-5.7936052984
 21
-22.9783121635
  0
LINE
  5
40C
100
AcDbEntity
  8
RACCORDO
100
AcDbLine
 62
250
  6
CONTINUOUS
 10
-7.0436052984
 20
-22.9783121635
 11
-7.2936052984
 21
-22.9783121635
  0
LWPOLYLINE
  5
40D
100
AcDbEntity
  8
RACCORDO
100
AcDbPolyline
 62
250
  6
CONTINUOUS
 90
4
 70
0
 10
-7.2678625896
 20
-22.4339734016
 10
-7.2495751642
 20
-22.4343505691
 10
-7.2309591031
 20
-22.4346189498
 10
-7.1930740741
 20
-22.4349826679
  0
LINE
  5
40E
100
AcDbEntity
  8
RACCORDO
100
AcDbLine
 62
250
  6
CONTINUOUS
 10
-7.3031244349
 20
-22.4330335969
 11
-7.2678625896
 21
-22.4339734016
  0
LINE
  5
40F
100
AcDbEntity
  8
RACCORDO
100
AcDbLine
 62
250
  6
CONTINUOUS
 10
-7.3362950692
 20
-22.4318931723
 11
-7.3031244349
 21
-22.4330335969
  0
LINE
  5
410
100
AcDbEntity
  8
RACCORDO
100
AcDbLine
 62
250
  6
CONTINUOUS
 10
-7.3958580546
 20
-22.4296220664
 11
-7.3362950692
 21
-22.4318931723
  0
LINE
  5
411
100
AcDbEntity
  8
28414000
100
AcDbLine
 62
7
  6
CONTINUOUS
 10
-11.0952830711
 20
-21.614571357
 11
-10.5980221234
 21
-21.6668355887
  0
LINE
  5
412
100
AcDbEntity
  8
RACCORDO
100
AcDbLine
 62
7
  6
CONTINUOUS
 10
-12.1420691981
 20
-22.0073038415
 11
-17.8386732438
 21
-21.3078488151
  0
LWPOLYLINE
  5
413
100
AcDbEntity
  8
RACCORDO
100
AcDbPolyline
 62
250
  6
CONTINUOUS
 90
16
 70
0
 10
-7.2745870705
 20
-21.9430266731
 10
-7.2379621806
 20
-21.9483316092
 10
-7.2211672859
 20
-21.9508631338
 10
-7.2052240377
 20
-21.9531979184
 10
-7.1901462267
 20
-21.9553048977
 10
-7.1759200623
 20
-21.9572151371
 10
-7.1623502423
 20
-21.958894034
 10
-7.1494246337
 20
-21.9603248074
 10
-7.1371553695
 20
-21.9615242382
 10
-7.1253835469
 20
-21.9625080672
 10
-7.1140995229
 20
-21.9632705401
 10
-7.1033129405
 20
-21.9638174113
 10
-7.0928938258
 20
-21.9641816843
 10
-7.0827988541
 20
-21.9643743606
 10
-7.07307135
 20
-21.9643844387
 10
-7.0637113135
 20
-21.9642119188
  0
LWPOLYLINE
  5
414
100
AcDbEntity
  8
RACCORDO
100
AcDbPolyline
 62
250
  6
CONTINUOUS
 90
19
 70
0
 10
-17.7550632093
 20
-20.5123524752
 10
-17.8123377538
 20
-20.5028610381
 10
-17.8680072911
 20
-20.4889156308
 10
-17.9220718212
 20
-20.4705162531
 10
-17.9749128748
 20
-20.4474735585
 10
-18.0261489212
 20
-20.4199768935
 10
-18.0746353686
 20
-20.3885942982
 10
-18.1202819534
 20
-20.3532503491
 10
-18.1631789391
 20
-20.3140204696
 10
-18.2024525248
 20
-20.2716989707
 10
-18.2380280542
 20
-20.226220074
 10
-18.2699801836
 20
-20.1776495577
 10
-18.2976590811
 20
-20.1269790676
 10
-18.3209746147
 20
-20.0741333638
 10
-18.3400169166
 20
-20.019187686
 10
-18.3544065508
 20
-19.9633593994
 10
-18.3640170387
 20
-19.9070542922
 10
-18.368974859
 20
-19.8498665762
 10
-18.3692800117
 20
-19.7917962512
  0
LINE
  5
415
100
AcDbEntity
  8
RACCORDO
100
AcDbLine
 62
250
  6
CONTINUOUS
 10
-5.0436052984
 20
-23.8443375673
 11
-5.7936052984
 21
-23.4113248654
  0
LINE
  5
416
100
AcDbEntity
  8
RACCORDO
100
AcDbLine
 62
7
  6
CONTINUOUS
 10
-4.9186052984
 20
-23.6278312164
 11
-5.6686052984
 21
-23.1948185145
  0
LWPOLYLINE
  5
417
100
AcDbEntity
  8
RACCORDO
100
AcDbPolyline
 62
250
  6
CONTINUOUS
 90
16
 70
0
 10
-13.2917198101
 20
21.9535233093
 10
-13.2935549821
 20
21.9492863463
 10
-13.2961336771
 20
21.9363675552
 10
-13.2994276533
 20
21.914908422
 10
-13.3034008353
 20
21.8851439664
 10
-13.3080097089
 20
21.8474001678
 10
-13.3132037973
 20
21.8020903949
 10
-13.318926215
 20
21.7497108785
 10
-13.3251142904
 20
21.6908352775
 10
-13.3317002519
 20
21.6261083952
 10
-13.3386119703
 20
21.5562391182
 10
-13.3457737486
 20
21.4819926523
 10
-13.3531071513
 20
21.4041821423
 10
-13.3605318632
 20
21.323659766
 10
-13.3679665692
 20
21.2413074016
 10
-13.3753298446
 20
21.1580269694
  0
LINE
  5
418
100
AcDbEntity
  8
RACCORDO
100
AcDbLine
 62
250
  6
CONTINUOUS
 10
-5.9234309828
 20
-21.9256124398
 11
-5.8921587407
 21
-21.920487788
  0
LWPOLYLINE
  5
419
100
AcDbEntity
  8
RACCORDO
100
AcDbPolyline
 62
250
  6
CONTINUOUS
 90
10
 70
0
 10
-5.8921587407
 20
-21.920487788
 10
-5.8575184761
 20
-21.9149604139
 10
-5.8388722294
 20
-21.9120788969
 10
-5.8192817122
 20
-21.9093112017
 10
-5.7987692516
 20
-21.9066317637
 10
-5.7773125204
 20
-21.9040661476
 10
-5.7547745163
 20
-21.9018739809
 10
-5.7311095719
 20
-21.9001418061
 10
-5.7063633546
 20
-21.8987830808
 10
-5.6805358643
 20
-21.897797805
  0
LINE
  5
41A
100
AcDbEntity
  8
26814000
100
AcDbLine
 62
7
  6
CONTINUOUS
 10
-7.7931303973
 20
-21.938549409
 11
-8.2936052984
 21
-22.0
  0
LINE
  5
41B
100
AcDbEntity
  8
DRAFT
100
AcDbLine
 62
7
  6
CONTINUOUS
 10
-7.1436052984
 20
-21.825
 11
-7.7936052984
 21
-21.9048099646
  0
LINE
  5
41C
100
AcDbEntity
  8
RACCORDO
100
AcDbLine
 62
250
  6
CONTINUOUS
 10
-5.8056892239
 20
-22.4056519921
 11
-5.7293341772
 21
-22.4008164828
  0
LWPOLYLINE
  5
41D
100
AcDbEntity
  8
RACCORDO
100
AcDbPolyline
 62
250
  6
CONTINUOUS
 90
5
 70
0
 10
-5.7293341772
 20
-22.4008164828
 10
-5.7017701519
 20
-22.3991979917
 10
-5.6885299237
 20
-22.3985402528
 10
-5.6756488158
 20
-22.3980384434
 10
-5.663084327
 20
-22.3977212693
  0
LWPOLYLINE
  5
41E
100
AcDbEntity
  8
RACCORDO
100
AcDbPolyline
 62
250
  6
CONTINUOUS
 90
3
 70
0
 10
-5.8564901595
 20
-22.4084441173
 10
-5.839228552
 20
-22.4075477466
 10
-5.8056892239
 20
-22.4056519921
  0
LINE
  5
41F
100
AcDbEntity
  8
RACCORDO
100
AcDbLine
 62
250
  6
CONTINUOUS
 10
-5.8916289374
 20
-22.4100514803
 11
-5.8564901595
 21
-22.4084441173
  0
LINE
  5
420
100
AcDbEntity
  8
RACCORDO
100
AcDbLine
 62
250
  6
CONTINUOUS
 10
-5.9271365487
 20
-22.4114743614
 11
-5.8916289374
 21
-22.4100514803
  0
LINE
  5
421
100
AcDbEntity
  8
RACCORDO
100
AcDbLine
 62
250
  6
CONTINUOUS
 10
-5.9624922321
 20
-22.4126808405
 11
-5.9271365487
 21
-22.4114743614
  0
LINE
  5
422
100
AcDbEntity
  8
RACCORDO
100
AcDbLine
 62
250
  6
CONTINUOUS
 10
-5.7936052984
 20
-22.5965394526
 11
-6.0436052984
 21
-22.6043942318
  0
LINE
  5
423
100
AcDbEntity
  8
RACCORDO
100
AcDbLine
 62
250
  6
CONTINUOUS
 10
-7.0436052984
 20
-22.6218492968
 11
-7.2936052984
 21
-22.629704076
  0
LWPOLYLINE
  5
424
100
AcDbEntity
  8
RACCORDO
100
AcDbPolyline
 62
250
  6
CONTINUOUS
 90
12
 70
0
 10
-6.0640241289
 20
-21.9406659172
 10
-6.0544745715
 20
-21.9403938981
 10
-6.0445928987
 20
-21.9399536551
 10
-6.0343791104
 20
-21.939345188
 10
-6.0238699701
 20
-21.9385763925
 10
-6.0130287143
 20
-21.937639373
 10
-6.0017450532
 20
-21.9365104426
 10
-5.9900230019
 20
-21.9351834434
 10
-5.9778585452
 20
-21.9336645333
 10
-5.9651293485
 20
-21.9319484992
 10
-5.9518449846
 20
-21.9300235829
 10
-5.9234309828
 20
-21.9256124398
  0
LINE
  5
425
100
AcDbEntity
  8
RACCORDO
100
AcDbLine
 62
250
  6
CONTINUOUS
 10
-5.9972134849
 20
-22.4136555109
 11
-5.9624922321
 21
-22.4126808405
  0
LINE
  5
426
100
AcDbEntity
  8
RACCORDO
100
AcDbLine
 62
250
  6
CONTINUOUS
 10
-7.0637113135
 20
-21.9642119188
 11
-6.3972160223
 21
-21.9484563376
  0
LINE
  5
427
100
AcDbEntity
  8
RACCORDO
100
AcDbLine
 62
250
  6
CONTINUOUS
 10
-6.3972160223
 20
-21.9484563376
 11
-6.0640241289
 21
-21.9406659172
  0
LINE
  5
428
100
AcDbEntity
  8
RACCORDO
100
AcDbLine
 62
250
  6
CONTINUOUS
 10
-6.0469153868
 20
-22.4147593617
 11
-5.9972134849
 21
-22.4136555109
  0
LINE
  5
429
100
AcDbEntity
  8
RACCORDO
100
AcDbLine
 62
250
  6
CONTINUOUS
 10
-6.0436052984
 20
-22.6043942318
 11
-7.0436052984
 21
-22.6218492968
  0
LINE
  5
42A
100
AcDbEntity
  8
RACCORDO
100
AcDbLine
 62
7
  6
CONTINUOUS
 10
-7.7936052984
 20
-22.4349101299
 11
-7.448444136
 21
-22.4288853194
  0
LINE
  5
42B
100
AcDbEntity
  8
RACCORDO
100
AcDbLine
 62
7
  6
CONTINUOUS
 10
-5.6630859933
 20
-22.3977217771
 11
4.223847108
 21
-22.2251447178
  0
LINE
  5
42C
100
AcDbEntity
  8
RACCORDO
100
AcDbLine
 62
250
  6
CONTINUOUS
 10
-7.7936052984
 20
-21.9346816494
 11
-7.4659295121
 21
-21.9289665558
  0
LINE
  5
42D
100
AcDbEntity
  8
RACCORDO
100
AcDbLine
 62
250
  6
CONTINUOUS
 10
-5.6805358643
 20
-21.897797805
 11
-4.7936052984
 21
-21.8823164546
  0
LINE
  5
42E
100
AcDbEntity
  8
RACCORDO
100
AcDbLine
 62
250
  6
CONTINUOUS
 10
-7.063862483
 20
-22.4342168996
 11
-6.0469154312
 21
-22.4147568546
  0
LWPOLYLINE
  5
42F
100
AcDbEntity
  8
RACCORDO
100
AcDbPolyline
 62
250
  6
CONTINUOUS
 90
3
 70
0
 10
-7.1176743598
 20
-22.4348897213
 10
-7.0993425053
 20
-22.4347096702
 10
-7.063862483
 20
-22.4342168996
  0
LINE
  5
430
100
AcDbEntity
  8
26814000
100
AcDbLine
 62
7
  6
CONTINUOUS
 10
2.2063947016
 20
-22.3301850577
 11
4.2151212371
 21
-22.3126551668
  0
LINE
  5
431
100
AcDbEntity
  8
26814000
100
AcDbLine
 62
250
  6
CONTINUOUS
 10
4.2354275921
 20
-22.2245985667
 11
4.6242532628
 21
-22.2212053365
  0
LWPOLYLINE
  5
432
100
AcDbEntity
  8
RACCORDO
100
AcDbPolyline
 62
250
  6
CONTINUOUS
 90
5
 70
0
 10
-7.4484205664
 20
-22.4288943601
 10
-7.4357380676
 20
-22.4287906269
 10
-7.4227899018
 20
-22.4289045846
 10
-7.4095002105
 20
-22.4291982698
 10
-7.3958580546
 20
-22.4296220664
  0
LINE
  5
433
100
AcDbEntity
  8
DRAFT
100
AcDbLine
 62
7
  6
CONTINUOUS
 10
-4.7936052984
 20
-20.9
 11
5.2063947016
 21
-20.9
  0
LWPOLYLINE
  5
434
100
AcDbEntity
  8
RACCORDO
100
AcDbPolyline
 62
250
  6
CONTINUOUS
 90
4
 70
0
 10
-7.1930740741
 20
-22.4349826679
 10
-7.1740481016
 20
-22.4350501346
 10
-7.1550833103
 20
-22.4350504227
 10
-7.1176743598
 20
-22.4348897213
  0
LWPOLYLINE
  5
435
100
AcDbEntity
  8
RACCORDO
100
AcDbPolyline
 62
250
  6
CONTINUOUS
 90
9
 70
0
 10
-7.4659295121
 20
-21.9289665558
 10
-7.4376328106
 20
-21.9291504935
 10
-7.4106162527
 20
-21.9298393458
 10
-7.3848798384
 20
-21.9310331126
 10
-7.3604821501
 20
-21.9328454153
 10
-7.3373646054
 20
-21.9351626325
 10
-7.3153514579
 20
-21.9376439004
 10
-7.2944170656
 20
-21.9402532614
 10
-7.2745870705
 20
-21.9430266731
  0
LINE
  5
436
100
AcDbEntity
  8
26814000
100
AcDbLine
 62
7
  6
CONTINUOUS
 10
-8.2936052984
 20
-22.3781828305
 11
-7.7936052984
 21
-22.3825462644
  0
LINE
  5
437
100
AcDbEntity
  8
26814000
100
AcDbLine
 62
250
  6
CONTINUOUS
 10
-8.2936052984
 20
-22.0281695031
 11
-7.7936052984
 21
-22.032532937
  0
LINE
  5
438
100
AcDbEntity
  8
26814000
100
AcDbLine
 62
250
  6
CONTINUOUS
 10
5.1055570202
 20
-21.6607041851
 11
5.1222283767
 21
-21.6609951847
  0
LINE
  5
439
100
AcDbEntity
  8
RACCORDO
100
AcDbLine
 62
7
  6
CONTINUOUS
 10
-4.7936052984
 20
-21.4
 11
5.1438292541
 21
-21.5734585653
  0
LINE
  5
43A
100
AcDbEntity
  8
28414000
100
AcDbLine
 62
7
  6
CONTINUOUS
 10
-11.9748236569
 20
-20.4160688089
 11
-11.3784757655
 21
-20.4787474979
  0
LINE
  5
43B
100
AcDbEntity
  8
RACCORDO
100
AcDbLine
 62
250
  6
CONTINUOUS
 10
-12.0584591636
 20
-21.2118075016
 11
-17.7550632093
 21
-20.5123524752
  0
LINE
  5
43C
100
AcDbEntity
  8
28414000
100
AcDbLine
 62
7
  6
CONTINUOUS
 10
-11.2309943413
 20
-19.371106077
 11
-11.8493895009
 21
-19.2226425344
  0
LWPOLYLINE
  5
43D
100
AcDbEntity
  8
RACCORDO
100
AcDbPolyline
 62
250
  6
CONTINUOUS
 90
16
 70
0
 10
-17.8386732438
 20
-21.3078488151
 10
-17.8395874082
 20
-21.3033227734
 10
-17.8394237677
 20
-21.290149842
 10
-17.8381841191
 20
-21.2684743292
 10
-17.8358820436
 20
-21.2385336573
 10
-17.8325427579
 20
-21.2006557783
 10
-17.8282028402
 20
-21.1552555966
 10
-17.8229098272
 20
-21.1028303856
 10
-17.8167216941
 20
-21.0439543452
 10
-17.8097062211
 20
-20.9792723484
 10
-17.8019402476
 20
-20.9094928332
 10
-17.79350883
 20
-20.8353800457
 10
-17.784504314
 20
-20.757745698
 10
-17.7750253195
 20
-20.6774400523
 10
-17.7651756604
 20
-20.5953426066
 10
-17.7550632093
 20
-20.5123524752
  0
LINE
  5
43E
100
AcDbEntity
  8
RACCORDO
100
AcDbLine
 62
250
  6
CONTINUOUS
 10
-8.0436052984
 20
23.8443375673
 11
-8.1686052984
 21
23.6278312164
  0
LINE
  5
43F
100
AcDbEntity
  8
21814000
100
AcDbLine
 62
7
  6
CONTINUOUS
 10
16.0221018674
 20
-19.422190298
 11
5.2063947016
 21
-19.6109791689
  0
LINE
  5
440
100
AcDbEntity
  8
21814000
100
AcDbLine
 62
250
  6
CONTINUOUS
 10
16.0221018674
 20
-18.8288665991
 11
5.2058778738
 21
-18.9623668689
  0
LINE
  5
441
100
AcDbEntity
  8
RACCORDO
100
AcDbLine
 62
250
  6
CONTINUOUS
 10
-19.1548520717
 20
-19.7637997649
 11
-19.150565428
 21
-19.7638597106
  0
LINE
  5
442
100
AcDbEntity
  8
RACCORDO
100
AcDbLine
 62
7
  6
CONTINUOUS
 10
-11.4988410204
 20
-18.3239790777
 11
-7.3347791039
 21
-18.3966630488
  0
LINE
  5
443
100
AcDbEntity
  8
26814000
100
AcDbLine
 62
7
  6
CONTINUOUS
 10
-11.5897919136
 20
-18.3075547188
 11
-11.7529106381
 21
-18.3047074708
  0
LINE
  5
444
100
AcDbEntity
  8
RACCORDO
100
AcDbLine
 62
250
  6
CONTINUOUS
 10
-19.150565428
 20
-19.7638597106
 11
-19.1165689277
 21
-19.7649205068
  0
LINE
  5
445
100
AcDbEntity
  8
RACCORDO
100
AcDbLine
 62
250
  6
CONTINUOUS
 10
-19.1165689277
 20
-19.7649205068
 11
-19.0054062844
 21
-19.7687542343
  0
LINE
  5
446
100
AcDbEntity
  8
RACCORDO
100
AcDbLine
 62
250
  6
CONTINUOUS
 10
-19.0054062844
 20
-19.7687542343
 11
-18.8320075342
 21
-19.7749338793
  0
LWPOLYLINE
  5
447
100
AcDbEntity
  8
RACCORDO
100
AcDbPolyline
 62
250
  6
CONTINUOUS
 90
3
 70
0
 10
-18.8320075342
 20
-19.7749338793
 10
-18.4518361803
 20
-19.7887612643
 10
-18.3692800117
 20
-19.7917962512
  0
LINE
  5
448
100
AcDbEntity
  8
RACCORDO
100
AcDbLine
 62
250
  6
CONTINUOUS
 10
-8.0436052984
 20
-23.8443375673
 11
-8.1686052984
 21
-23.6278312164
  0
LWPOLYLINE
  5
449
100
AcDbEntity
  8
RACCORDO
100
AcDbPolyline
 62
250
  6
CONTINUOUS
 90
13
 70
0
 10
-18.3692800117
 20
-19.7917962512
 10
-18.2254412044
 20
-16.4086376132
 10
-18.0433934472
 20
-13.0281817805
 10
-17.82313674
 20
-9.6504287531
 10
-17.5646330267
 20
-6.2749448233
 10
-17.2679203633
 20
-2.9021636988
 10
-16.933112919
 20
0.4666134975
 10
-16.5601957719
 20
3.8313853711
 10
-16.1491838437
 20
7.1921533166
 10
-15.7002360689
 20
10.5476203943
 10
-15.2134054256
 20
13.8973542911
 10
-14.6886389356
 20
17.2417873203
 10
-14.125936599
 20
20.5809194817
  0
LWPOLYLINE
  5
44A
100
AcDbEntity
  8
RACCORDO
100
AcDbPolyline
 62
250
  6
CONTINUOUS
 90
19
 70
0
 10
-14.125936599
 20
20.5809194817
 10
-14.1135646152
 20
20.6376573859
 10
-14.0968251404
 20
20.6925646243
 10
-14.0757181746
 20
20.745641197
 10
-14.050035635
 20
20.7972577285
 10
-14.0199856044
 20
20.8470435942
 10
-13.9861923315
 20
20.8938869206
 10
-13.948583297
 20
20.9376953725
 10
-13.9072310202
 20
20.9785612852
 10
-13.8629773072
 20
21.0156497904
 10
-13.8157628091
 20
21.0488810255
 10
-13.7656468749
 20
21.0783348531
 10
-13.7136493573
 20
21.1034159935
 10
-13.6596976466
 20
21.1240319046
 10
-13.6038643526
 20
21.1402751284
 10
-13.5473871572
 20
21.1518280121
 10
-13.4906786211
 20
21.1585846714
 10
-13.4333261835
 20
21.1606509905
 10
-13.3753298446
 20
21.1580269694
  0
LINE
  5
44B
100
AcDbEntity
  8
RACCORDO
100
AcDbLine
 62
250
  6
CONTINUOUS
 10
-7.2936052984
 20
23.4113248654
 11
-7.4186052984
 21
23.1948185145
  0
LINE
  5
44C
100
AcDbEntity
  8
RACCORDO
100
AcDbLine
 62
250
  6
CONTINUOUS
 10
-11.7023920519
 20
-17.8240552303
 11
-11.4988410204
 21
-17.8240552301
  0
LINE
  5
44D
100
AcDbEntity
  8
21814000
100
AcDbLine
 62
250
  6
CONTINUOUS
 10
16.9063947016
 20
-17.7794947835
 11
16.9014953278
 21
-17.7794947838
  0
LINE
  5
44E
100
AcDbEntity
  8
21814000
100
AcDbLine
 62
250
  6
CONTINUOUS
 10
2.9303098827
 20
-17.6715728753
 11
16.9022427329
 21
-17.6715728753
  0
LINE
  5
44F
100
AcDbEntity
  8
21814000
100
AcDbLine
 62
250
  6
CONTINUOUS
 10
16.90087409
 20
-17.7809533423
 11
16.9014769755
 21
-17.7809593241
  0
LINE
  5
450
100
AcDbEntity
  8
RACCORDO
100
AcDbLine
 62
250
  6
CONTINUOUS
 10
-11.4988410204
 20
-17.8240552301
 11
-7.3962938732
 21
-17.8956654569
  0
LINE
  5
451
100
AcDbEntity
  8
RACCORDO
100
AcDbLine
 62
250
  6
CONTINUOUS
 10
-7.2936052984
 20
-23.4113248654
 11
-7.4186052984
 21
-23.1948185145
  0
LWPOLYLINE
  5
452
100
AcDbEntity
  8
RACCORDO
100
AcDbPolyline
 62
250
  6
CONTINUOUS
 90
5
 70
0
 10
-7.4484489736
 20
22.4288854008
 10
-7.4493964567
 20
22.4261539209
 10
-7.450432843
 20
22.4179708881
 10
-7.4515466435
 20
22.4044279089
 10
-7.4527266321
 20
22.3856761382
  0
LINE
  5
453
100
AcDbEntity
  8
RACCORDO
100
AcDbLine
 62
7
  6
CONTINUOUS
 10
-4.7936052984
 20
14.8602976573
 11
5.2063947016
 21
18.5
  0
LINE
  5
454
100
AcDbEntity
  8
RACCORDO
100
AcDbLine
 62
250
  6
CONTINUOUS
 10
5.2063947016
 20
19.0042403804
 11
-4.7936052984
 21
15.457133768
  0
LINE
  5
455
100
AcDbEntity
  8
21814000
100
AcDbLine
 62
250
  6
CONTINUOUS
 10
0.7063947016
 20
16.0
 11
-2.1927229973
 21
14.991935
  0
LINE
  5
456
100
AcDbEntity
  8
21814000
100
AcDbLine
 62
250
  6
CONTINUOUS
 10
0.0919429123
 20
15.164584
 11
0.7063947016
 21
15.373574
  0
LINE
  5
457
100
AcDbEntity
  8
21814000
100
AcDbLine
 62
250
  6
CONTINUOUS
 10
-1.6385678369
 20
14.606449
 11
-0.3898432974
 21
15.007869
  0
LINE
  5
458
100
AcDbEntity
  8
21814000
100
AcDbLine
 62
250
  6
CONTINUOUS
 10
1.906790664
 20
-15.82
 11
3.2063947016
 21
-15.82
  0
LINE
  5
459
100
AcDbEntity
  8
21814000
100
AcDbLine
 62
250
  6
CONTINUOUS
 10
3.2063947016
 20
-14.574264
 11
1.906790664
 21
-14.574264
  0
LINE
  5
45A
100
AcDbEntity
  8
RACCORDO
100
AcDbLine
 62
250
  6
CONTINUOUS
 10
-4.7936052984
 20
-15.457133768
 11
5.2063947016
 21
-19.0042403804
  0
LINE
  5
45B
100
AcDbEntity
  8
RACCORDO
100
AcDbLine
 62
7
  6
CONTINUOUS
 10
5.2063947016
 20
-18.5
 11
-4.7936052984
 21
-14.8602976573
  0
LINE
  5
45C
100
AcDbEntity
  8
RACCORDO
100
AcDbLine
 62
250
  6
CONTINUOUS
 10
-7.449380183
 20
-22.4261536371
 11
-7.4484197691
 21
-22.428884891
  0
LINE
  5
45D
100
AcDbEntity
  8
28414000
100
AcDbLine
 62
7
  6
CONTINUOUS
 10
-11.3784757655
 20
-20.4787474979
 11
-11.0952830711
 21
-21.614571357
  0
LWPOLYLINE
  5
45E
100
AcDbEntity
  8
RACCORDO
100
AcDbPolyline
 62
250
  6
CONTINUOUS
 90
10
 70
0
 10
-11.4988410204
 20
-18.3239790777
 10
-11.4993547165
 20
-18.3212301531
 10
-11.4998111646
 20
-18.3130334227
 10
-11.500202082
 20
-18.2994803605
 10
-11.5005187414
 20
-18.280721473
 10
-11.5007571257
 20
-18.2569635261
 10
-11.5009179657
 20
-18.2284663385
 10
-11.5010000452
 20
-18.1955432324
 10
-11.5010002067
 20
-18.1585546599
 10
-11.5009183765
 20
-18.1179009912
  0
LWPOLYLINE
  5
45F
100
AcDbEntity
  8
0
100
AcDbPolyline
 62
7
  6
CONTINUOUS
 90
3
 70
0
 43
0.3500000006
 10
0.9543427327
 20
43.5357149506
 10
0.8829141698
 20
43.3214304657
 10
0.740057044
 20
43.035714798
  0
LWPOLYLINE
  5
460
100
AcDbEntity
  8
RACCORDO
100
AcDbPolyline
 62
250
  6
CONTINUOUS
 90
16
 70
0
 10
-5.6630843113
 20
22.3977217477
 10
-5.6640441133
 20
22.3949978286
 10
-5.6650890374
 20
22.3868243912
 10
-5.6662076302
 20
22.3732910195
 10
-5.6673876309
 20
22.354546045
 10
-5.6686161055
 20
22.3307949205
 10
-5.6698795889
 20
22.3022979682
 10
-5.6711642321
 20
22.2693675264
 10
-5.6724559543
 20
22.2323645266
 10
-5.6737405971
 20
22.1916945371
 10
-5.6750040797
 20
22.1478033179
 10
-5.6762325531
 20
22.1011719349
 10
-5.6774125522
 20
22.0523114877
 10
-5.678531143
 20
22.001757507
 10
-5.6795760648
 20
21.9500640856
 10
-5.6805358642
 20
21.8977978048
  0
LINE
  5
461
100
AcDbEntity
  8
21814000
100
AcDbLine
 62
250
  6
CONTINUOUS
 10
2.5780712961
 20
15.833377543
 11
2.8494585115
 21
15.9660025312
  0
LINE
  5
462
100
AcDbEntity
  8
21814000
100
AcDbLine
 62
250
  6
CONTINUOUS
 10
-2.1928599556
 20
-13.171006
 11
0.7063947016
 21
-13.171014
  0
LINE
  5
463
100
AcDbEntity
  8
21814000
100
AcDbLine
 62
250
  6
CONTINUOUS
 10
1.906790664
 20
-13.089593
 11
3.2063947016
 21
-13.089593
  0
LINE
  5
464
100
AcDbEntity
  8
21814000
100
AcDbLine
 62
250
  6
CONTINUOUS
 10
0.7063877037
 20
-12.590992
 11
-2.1928599556
 21
-12.590985
  0
LINE
  5
465
100
AcDbEntity
  8
21814000
100
AcDbLine
 62
250
  6
CONTINUOUS
 10
-2.1928599556
 20
-14.137714
 11
-0.1965711834
 21
-14.778839
  0
LINE
  5
466
100
AcDbEntity
  8
21814000
100
AcDbLine
 62
250
  6
CONTINUOUS
 10
0.7063877037
 20
-14.488824
 11
-2.1928599556
 21
-13.557685
  0
LINE
  5
467
100
AcDbEntity
  8
21814000
100
AcDbLine
 62
250
  6
CONTINUOUS
 10
1.906790664
 20
-14.574264
 11
3.2063947016
 21
-15.197131
  0
LINE
  5
468
100
AcDbEntity
  8
RACCORDO
100
AcDbLine
 62
250
  6
CONTINUOUS
 10
-11.4988410204
 20
-17.8240552301
 11
-11.4988410204
 21
-15.8873965312
  0
LINE
  5
469
100
AcDbEntity
  8
RACCORDO
100
AcDbLine
 62
250
  6
CONTINUOUS
 10
-11.5009183765
 20
-18.1179009912
 11
-11.5005192657
 21
-18.0274072022
  0
LINE
  5
46A
100
AcDbEntity
  8
RACCORDO
100
AcDbLine
 62
250
  6
CONTINUOUS
 10
-11.5005192657
 20
-18.0274072022
 11
-11.4998115169
 21
-17.9280121014
  0
LINE
  5
46B
100
AcDbEntity
  8
RACCORDO
100
AcDbLine
 62
250
  6
CONTINUOUS
 10
-11.4998115169
 20
-17.9280121014
 11
-11.4988410204
 21
-17.8240552301
  0
LWPOLYLINE
  5
46C
100
AcDbEntity
  8
26814000
100
AcDbPolyline
 62
7
  6
CONTINUOUS
 90
6
 70
0
 10
5.1248662992
 20
21.6637626605
 10
5.1274543186
 20
21.6665474971
 10
5.1299924349
 20
21.6693496943
 10
5.1324806481
 20
21.6721692523
 10
5.1349189583
 20
21.675006171
 10
5.1373073654
 20
21.6778604504
  0
LINE
  5
46D
100
AcDbEntity
  8
26814000
100
AcDbLine
 62
7
  6
CONTINUOUS
 10
5.1248662992
 20
21.6637626605
 11
5.111022103
 21
21.6492938722
  0
LINE
  5
46E
100
AcDbEntity
  8
21814000
100
AcDbLine
 62
250
  6
CONTINUOUS
 10
3.9350074579
 20
15.1702521594
 11
3.6636202142
 21
15.0376271713
  0
LINE
  5
46F
100
AcDbEntity
  8
21814000
100
AcDbLine
 62
250
  6
CONTINUOUS
 10
2.5780712961
 20
14.3745017877
 11
2.8494585115
 21
14.5071267759
  0
LINE
  5
470
100
AcDbEntity
  8
21814000
100
AcDbLine
 62
250
  6
CONTINUOUS
 10
3.9350074579
 20
13.7113764042
 11
3.6636202142
 21
13.578751416
  0
LINE
  5
471
100
AcDbEntity
  8
21814000
100
AcDbLine
 62
250
  6
CONTINUOUS
 10
2.5780712961
 20
12.9156262538
 11
2.8494585115
 21
13.0482512419
  0
LINE
  5
472
100
AcDbEntity
  8
21814000
100
AcDbLine
 62
250
  6
CONTINUOUS
 10
-2.1927229973
 20
11.216139
 11
0.1046910282
 21
12.328754
  0
LINE
  5
473
100
AcDbEntity
  8
21814000
100
AcDbLine
 62
250
  6
CONTINUOUS
 10
0.7063947016
 20
12.027546
 11
-1.7199700353
 21
10.87477
  0
LINE
  5
474
100
AcDbEntity
  8
21814000
100
AcDbLine
 62
250
  6
CONTINUOUS
 10
-2.1928599556
 20
-12.010985
 11
0.7063877037
 21
-12.010985
  0
LINE
  5
475
100
AcDbEntity
  8
21814000
100
AcDbLine
 62
250
  6
CONTINUOUS
 10
1.906790664
 20
-11.773245
 11
3.2063947016
 21
-11.773245
  0
LINE
  5
476
100
AcDbEntity
  8
21814000
100
AcDbLine
 62
250
  6
CONTINUOUS
 10
0.7063877037
 20
-11.430963
 11
-1.2054717923
 21
-11.430963
  0
LINE
  5
477
100
AcDbEntity
  8
21814000
100
AcDbLine
 62
250
  6
CONTINUOUS
 10
-2.1928599556
 20
-10.051012
 11
-0.3047662186
 21
-10.59258
  0
LINE
  5
478
100
AcDbEntity
  8
21814000
100
AcDbLine
 62
250
  6
CONTINUOUS
 10
1.906790664
 20
-13.83011
 11
3.2063947016
 21
-14.400443
  0
LWPOLYLINE
  5
479
100
AcDbEntity
  8
26814000
100
AcDbPolyline
 62
7
  6
CONTINUOUS
 90
7
 70
0
 10
5.111022103
 20
-21.6492938722
 10
5.1248662992
 20
-21.6637626605
 10
5.1274543186
 20
-21.6665474971
 10
5.1299924349
 20
-21.6693496943
 10
5.1324806481
 20
-21.6721692523
 10
5.1349189583
 20
-21.675006171
 10
5.1373073654
 20
-21.6778604504
  0
LINE
  5
47A
100
AcDbEntity
  8
RACCORDO
100
AcDbLine
 62
7
  6
CONTINUOUS
 10
-8.2936052984
 20
24.25
 11
-8.2936052984
 21
23.8443375673
  0
LINE
  5
47B
100
AcDbEntity
  8
26814000
100
AcDbLine
 62
7
  6
CONTINUOUS
 10
-8.2936052984
 20
-22.0
 11
-8.2936052984
 21
-22.3781828305
  0
LINE
  5
47C
100
AcDbEntity
  8
RACCORDO
100
AcDbLine
 62
7
  6
CONTINUOUS
 10
-8.2936052984
 20
-23.8443375673
 11
-8.2936052984
 21
-24.25
  0
LINE
  5
47D
100
AcDbEntity
  8
26814000
100
AcDbLine
 62
7
  6
CONTINUOUS
 10
-8.2936052984
 20
22.0
 11
-8.2936052984
 21
22.3781828305
  0
LINE
  5
47E
100
AcDbEntity
  8
RACCORDO
100
AcDbLine
 62
250
  6
CONTINUOUS
 10
-8.0436052984
 20
24.5
 11
-8.0436052984
 21
23.8443375673
  0
LINE
  5
47F
100
AcDbEntity
  8
RACCORDO
100
AcDbLine
 62
250
  6
CONTINUOUS
 10
-8.0436052984
 20
-23.8443375673
 11
-8.0436052984
 21
-24.5
  0
LWPOLYLINE
  5
480
100
AcDbEntity
  8
RACCORDO
100
AcDbPolyline
 62
250
  6
CONTINUOUS
 90
12
 70
0
 10
-7.4527266321
 20
22.3856761382
 10
-7.4539587902
 20
22.3619224079
 10
-7.4552264651
 20
22.333424999
 10
-7.4565148026
 20
22.3004947395
 10
-7.4578107424
 20
22.2634934796
 10
-7.4590999922
 20
22.222826619
 10
-7.4603684905
 20
22.1789397389
 10
-7.4616023812
 20
22.1323137101
 10
-7.462788026
 20
22.0834594027
 10
-7.4639124364
 20
22.0329121166
 10
-7.4649634163
 20
21.9812257178
 10
-7.4659295167
 20
21.9289665538
  0
LWPOLYLINE
  5
481
100
AcDbEntity
  8
RACCORDO
100
AcDbPolyline
 62
250
  6
CONTINUOUS
 90
13
 70
0
 10
-7.0468850304
 20
22.4339535759
 10
-7.0481745756
 20
22.4141499712
 10
-7.0495356999
 20
22.3896854416
 10
-7.0509543033
 20
22.3608134172
 10
-7.0524156903
 20
22.3278329861
 10
-7.0539047223
 20
22.2910857954
 10
-7.0554059743
 20
22.2509525128
 10
-7.0569038947
 20
22.2078488826
 10
-7.0583829664
 20
22.1622214191
 10
-7.0598278674
 20
22.1145427816
 10
-7.0612236301
 20
22.0653068773
 10
-7.0625557955
 20
22.0150237454
 10
-7.0638105637
 20
21.9642142736
  0
LINE
  5
482
100
AcDbEntity
  8
RACCORDO
100
AcDbLine
 62
7
  6
CONTINUOUS
 10
-7.5741753533
 20
21.4533029861
 11
-12.1420691981
 21
-22.0073038415
  0
LINE
  5
483
100
AcDbEntity
  8
28414000
100
AcDbLine
 62
7
  6
CONTINUOUS
 10
-10.5980221234
 20
-21.6668355887
 11
-10.4699178098
 21
-20.4480044606
  0
LINE
  5
484
100
AcDbEntity
  8
DRAFT
100
AcDbLine
 62
7
  6
CONTINUOUS
 10
-7.1436052984
 20
19.9536487485
 11
-9.5936052984
 21
0.0
  0
LINE
  5
485
100
AcDbEntity
  8
21814000
100
AcDbLine
 62
250
  6
CONTINUOUS
 10
2.3066840808
 20
15.568127124
 11
2.5780712961
 21
15.833377543
  0
LINE
  5
486
100
AcDbEntity
  8
21814000
100
AcDbLine
 62
250
  6
CONTINUOUS
 10
2.3066840808
 20
14.1092518114
 11
2.5780712961
 21
14.3745017877
  0
LINE
  5
487
100
AcDbEntity
  8
21814000
100
AcDbLine
 62
250
  6
CONTINUOUS
 10
4.2063947016
 20
15.4355021358
 11
3.9350074579
 21
15.1702521594
  0
LINE
  5
488
100
AcDbEntity
  8
21814000
100
AcDbLine
 62
250
  6
CONTINUOUS
 10
3.9350074579
 20
12.2525010915
 11
3.6636202142
 21
12.119875882
  0
LINE
  5
489
100
AcDbEntity
  8
21814000
100
AcDbLine
 62
250
  6
CONTINUOUS
 10
0.7063947016
 20
9.975074
 11
-2.1927229973
 21
8.9669
  0
LINE
  5
48A
100
AcDbEntity
  8
21814000
100
AcDbLine
 62
250
  6
CONTINUOUS
 10
0.0919429123
 20
9.139549
 11
0.7063947016
 21
9.348431
  0
LINE
  5
48B
100
AcDbEntity
  8
21814000
100
AcDbLine
 62
250
  6
CONTINUOUS
 10
-1.6387317869
 20
8.581471
 11
-0.3898432974
 21
8.982943
  0
LINE
  5
48C
100
AcDbEntity
  8
21814000
100
AcDbLine
 62
250
  6
CONTINUOUS
 10
1.906790664
 20
-9.965272
 11
3.2063947016
 21
-9.965272
  0
LINE
  5
48D
100
AcDbEntity
  8
21814000
100
AcDbLine
 62
250
  6
CONTINUOUS
 10
-1.2054717923
 20
-9.754205
 11
0.7063877037
 21
-9.754197
  0
LINE
  5
48E
100
AcDbEntity
  8
21814000
100
AcDbLine
 62
250
  6
CONTINUOUS
 10
1.906790664
 20
-9.576944
 11
3.2063947016
 21
-9.576944
  0
LINE
  5
48F
100
AcDbEntity
  8
21814000
100
AcDbLine
 62
250
  6
CONTINUOUS
 10
0.7063877037
 20
-9.174176
 11
-2.1928599556
 21
-9.174176
  0
LINE
  5
490
100
AcDbEntity
  8
21814000
100
AcDbLine
 62
250
  6
CONTINUOUS
 10
1.906790664
 20
-8.544819
 11
3.2063947016
 21
-8.544819
  0
LWPOLYLINE
  5
491
100
AcDbEntity
  8
21814000
100
AcDbPolyline
 62
250
  6
CONTINUOUS
 90
22
 70
0
 10
17.0058187304
 20
-11.8126704839
 10
17.1546285191
 20
-11.8387936962
 10
17.3001638511
 20
-11.8745828411
 10
17.4424247264
 20
-11.9200379185
 10
17.5820993351
 20
-11.975469343
 10
17.7184994871
 20
-12.0405667001
 10
17.8495606123
 20
-12.1143987458
 10
17.9751446356
 20
-12.1970735842
 10
18.095389632
 20
-12.2884831113
 10
18.2086452568
 20
-12.3873717717
 10
18.3148208858
 20
-12.4938474246
 10
18.4140071432
 20
-12.6078022108
 10
18.5048255572
 20
-12.7276569973
 10
18.5871583769
 20
-12.8534931572
 10
18.6611233533
 20
-12.9852293175
 10
18.7256952671
 20
-13.1210422261
 10
18.7807434689
 20
-13.2609865495
 10
18.8263986081
 20
-13.4050076212
 10
18.862027414
 20
-13.5511181901
 10
18.8874187961
 20
-13.6986558393
 10
18.9027838449
 20
-13.8482829858
 10
18.9081225603
 20
-13.9999996295
  0
LINE
  5
492
100
AcDbEntity
  8
21814000
100
AcDbLine
 62
250
  6
CONTINUOUS
 10
0.7063797061
 20
-10.30258
 11
-1.2054717923
 21
-9.754205
  0
LINE
  5
493
100
AcDbEntity
  8
21814000
100
AcDbLine
 62
250
  6
CONTINUOUS
 10
0.7063877037
 20
-8.787497
 11
-2.1928669534
 21
-7.856372
  0
LINE
  5
494
100
AcDbEntity
  8
DRAFT
100
AcDbLine
 62
7
  6
CONTINUOUS
 10
-9.5936052984
 20
0.0
 11
-7.1436052984
 21
-19.9536487485
  0
LWPOLYLINE
  5
495
100
AcDbEntity
  8
RACCORDO
100
AcDbPolyline
 62
250
  6
CONTINUOUS
 90
13
 70
0
 10
-7.0638105636
 20
-21.9642142736
 10
-7.0625557954
 20
-22.0150237454
 10
-7.06122363
 20
-22.0653068773
 10
-7.0598278674
 20
-22.1145427816
 10
-7.0583829663
 20
-22.1622214191
 10
-7.0569038947
 20
-22.2078488826
 10
-7.0554059743
 20
-22.2509525128
 10
-7.0539047224
 20
-22.2910857954
 10
-7.0524156904
 20
-22.327832986
 10
-7.0509543034
 20
-22.3608134172
 10
-7.0495357
 20
-22.3896854416
 10
-7.0481745756
 20
-22.4141499712
 10
-7.0468850303
 20
-22.4339535759
  0
LWPOLYLINE
  5
496
100
AcDbEntity
  8
RACCORDO
100
AcDbPolyline
 62
250
  6
CONTINUOUS
 90
13
 70
0
 10
-6.0640140391
 20
-21.9406654676
 10
-6.0627500814
 20
-21.9925697917
 10
-6.0614050783
 20
-22.0439129594
 10
-6.0599935514
 20
-22.0941398858
 10
-6.0585307452
 20
-22.1427075545
 10
-6.057032462
 20
-22.1890908874
 10
-6.0555148914
 20
-22.2327884221
 10
-6.0539944345
 20
-22.2733277331
 10
-6.0524875266
 20
-22.3102705394
 10
-6.0510104596
 20
-22.3432174427
 10
-6.0495792051
 20
-22.3718122457
 10
-6.0482092415
 20
-22.3957458026
 10
-6.0469153868
 20
-22.4147593617
  0
LWPOLYLINE
  5
497
100
AcDbEntity
  8
RACCORDO
100
AcDbPolyline
 62
250
  6
CONTINUOUS
 90
15
 70
0
 10
-7.4659295121
 20
-21.9289665558
 10
-7.4649633725
 20
-21.9812257475
 10
-7.4639123583
 20
-22.0329121691
 10
-7.4627879186
 20
-22.0834594726
 10
-7.4616022495
 20
-22.1323137916
 10
-7.4603683395
 20
-22.1789398264
 10
-7.4590998278
 20
-22.2228267064
 10
-7.4578105705
 20
-22.2634935613
 10
-7.456514629
 20
-22.3004948112
 10
-7.4552262956
 20
-22.3334250573
 10
-7.4539597115
 20
-22.3619224696
 10
-7.4527286501
 20
-22.3856762031
 10
-7.4515465215
 20
-22.4044279228
 10
-7.4504262635
 20
-22.4179707792
 10
-7.449380183
 20
-22.4261536371
  0
LWPOLYLINE
  5
498
100
AcDbEntity
  8
RACCORDO
100
AcDbPolyline
 62
250
  6
CONTINUOUS
 90
16
 70
0
 10
-5.6805358643
 20
-21.897797805
 10
-5.6795760645
 20
-21.9500640865
 10
-5.6785311422
 20
-22.0017575086
 10
-5.6774125509
 20
-22.05231149
 10
-5.6762325514
 20
-22.1011719378
 10
-5.6750040775
 20
-22.1478033212
 10
-5.6737405945
 20
-22.1916945408
 10
-5.6724559512
 20
-22.2323645306
 10
-5.6711642286
 20
-22.2693675305
 10
-5.6698795849
 20
-22.3022979722
 10
-5.6686161011
 20
-22.3307949243
 10
-5.667387626
 20
-22.3545460484
 10
-5.6662076249
 20
-22.3732910222
 10
-5.6650890316
 20
-22.3868243931
 10
-5.6640441071
 20
-22.3949978297
 10
-5.6630843046
 20
-22.3977217476
  0
LINE
  5
499
100
AcDbEntity
  8
RACCORDO
100
AcDbLine
 62
250
  6
CONTINUOUS
 10
-7.0468850303
 20
-22.4339535759
 11
-7.0436052984
 21
-22.6218492968
  0
LINE
  5
49A
100
AcDbEntity
  8
RACCORDO
100
AcDbLine
 62
250
  6
CONTINUOUS
 10
-6.0469154312
 20
-22.4147568546
 11
-6.0436052984
 21
-22.6043942318
  0
LINE
  5
49B
100
AcDbEntity
  8
RACCORDO
100
AcDbLine
 62
7
  6
CONTINUOUS
 10
-7.7936052984
 20
-22.4349101299
 11
-7.7936052984
 21
-21.9048099646
  0
LINE
  5
49C
100
AcDbEntity
  8
RACCORDO
100
AcDbLine
 62
7
  6
CONTINUOUS
 10
-7.7936052984
 20
21.9048099646
 11
-7.7936052984
 21
22.4349101299
  0
LINE
  5
49D
100
AcDbEntity
  8
RACCORDO
100
AcDbLine
 62
7
  6
CONTINUOUS
 10
-7.2936052984
 20
22.9783121635
 11
-7.2936052984
 21
22.629704076
  0
LINE
  5
49E
100
AcDbEntity
  8
RACCORDO
100
AcDbLine
 62
7
  6
CONTINUOUS
 10
-7.2936052984
 20
-22.629704076
 11
-7.2936052984
 21
-22.9783121635
  0
LINE
  5
49F
100
AcDbEntity
  8
DRAFT
100
AcDbLine
 62
7
  6
CONTINUOUS
 10
-7.1436052984
 20
21.825
 11
-7.1436052984
 21
19.9536487485
  0
LINE
  5
4A0
100
AcDbEntity
  8
DRAFT
100
AcDbLine
 62
7
  6
CONTINUOUS
 10
-7.1436052984
 20
-19.9536487485
 11
-7.1436052984
 21
-21.825
  0
LINE
  5
4A1
100
AcDbEntity
  8
RACCORDO
100
AcDbLine
 62
250
  6
CONTINUOUS
 10
-7.0436052984
 20
22.9783121635
 11
-7.0436052984
 21
22.6218492968
  0
LINE
  5
4A2
100
AcDbEntity
  8
RACCORDO
100
AcDbLine
 62
250
  6
CONTINUOUS
 10
-7.0436052984
 20
-22.6218492968
 11
-7.0436052984
 21
-22.9783121635
  0
LINE
  5
4A3
100
AcDbEntity
  8
RACCORDO
100
AcDbLine
 62
250
  6
CONTINUOUS
 10
-6.0436052984
 20
-22.9783121635
 11
-6.0436052984
 21
-22.6043942318
  0
LINE
  5
4A4
100
AcDbEntity
  8
RACCORDO
100
AcDbLine
 62
250
  6
CONTINUOUS
 10
-6.0436052984
 20
22.6043942318
 11
-6.0436052984
 21
22.9783121635
  0
LINE
  5
4A5
100
AcDbEntity
  8
RACCORDO
100
AcDbLine
 62
250
  6
CONTINUOUS
 10
-7.0468850304
 20
22.4339535759
 11
-7.0436052984
 21
22.6218492968
  0
LINE
  5
4A6
100
AcDbEntity
  8
RACCORDO
100
AcDbLine
 62
250
  6
CONTINUOUS
 10
-6.0469154313
 20
22.4147568546
 11
-6.0436052984
 21
22.6043942318
  0
LWPOLYLINE
  5
4A7
100
AcDbEntity
  8
RACCORDO
100
AcDbPolyline
 62
250
  6
CONTINUOUS
 90
13
 70
0
 10
-6.0469154112
 20
22.4147579936
 10
-6.0482037769
 20
22.3957443957
 10
-6.0495691521
 20
22.3718108282
 10
-6.0509967823
 20
22.3432160435
 10
-6.0524712379
 20
22.3102691877
 10
-6.0539765808
 20
22.2733264581
 10
-6.0554965365
 20
22.2327872527
 10
-6.0570146696
 20
22.1890898516
 10
-6.0585145614
 20
22.142706679
 10
-6.0599799871
 20
22.0941391958
 10
-6.0613950912
 20
22.0439124778
 10
-6.0627445584
 20
21.9925695393
 10
-6.0640137794
 20
21.9406654621
  0
LINE
  5
4A8
100
AcDbEntity
  8
21814000
100
AcDbLine
 62
250
  6
CONTINUOUS
 10
2.3066840808
 20
12.6503762774
 11
2.5780712961
 21
12.9156262538
  0
LINE
  5
4A9
100
AcDbEntity
  8
21814000
100
AcDbLine
 62
250
  6
CONTINUOUS
 10
4.2063947016
 20
13.9766268232
 11
3.9350074579
 21
13.7113764042
  0
LINE
  5
4AA
100
AcDbEntity
  8
21814000
100
AcDbLine
 62
250
  6
CONTINUOUS
 10
4.2063947016
 20
12.5177510679
 11
3.9350074579
 21
12.2525010915
  0
LINE
  5
4AB
100
AcDbEntity
  8
21814000
100
AcDbLine
 62
250
  6
CONTINUOUS
 10
1.906790664
 20
-7.651288
 11
3.2063947016
 21
-7.651288
  0
LINE
  5
4AC
100
AcDbEntity
  8
21814000
100
AcDbLine
 62
250
  6
CONTINUOUS
 10
3.2063947016
 20
-6.847348
 11
1.906790664
 21
-6.847348
  0
LINE
  5
4AD
100
AcDbEntity
  8
21814000
100
AcDbLine
 62
250
  6
CONTINUOUS
 10
0.7063797061
 20
-5.958503
 11
-2.1928669534
 21
-5.958503
  0
LINE
  5
4AE
100
AcDbEntity
  8
21814000
100
AcDbLine
 62
250
  6
CONTINUOUS
 10
-1.2899010684
 20
-7.56635
 11
-0.4146287458
 21
-7.84744
  0
LINE
  5
4AF
100
AcDbEntity
  8
21814000
100
AcDbLine
 62
250
  6
CONTINUOUS
 10
0.1362254204
 20
-8.024362
 11
0.7063797061
 21
-8.207475
  0
LINE
  5
4B0
100
AcDbEntity
  8
RACCORDO
100
AcDbLine
 62
7
  6
CONTINUOUS
 10
-5.7936052984
 20
-22.9783121635
 11
-5.7936052984
 21
-22.5965394526
  0
LINE
  5
4B1
100
AcDbEntity
  8
RACCORDO
100
AcDbLine
 62
7
  6
CONTINUOUS
 10
-5.7936052984
 20
22.5965394526
 11
-5.7936052984
 21
22.9783121635
  0
LINE
  5
4B2
100
AcDbEntity
  8
RACCORDO
100
AcDbLine
 62
250
  6
CONTINUOUS
 10
-5.0436052984
 20
24.5
 11
-5.0436052984
 21
23.8443375673
  0
LINE
  5
4B3
100
AcDbEntity
  8
RACCORDO
100
AcDbLine
 62
250
  6
CONTINUOUS
 10
-5.0436052984
 20
-23.8443375673
 11
-5.0436052984
 21
-24.5
  0
LINE
  5
4B4
100
AcDbEntity
  8
RACCORDO
100
AcDbLine
 62
7
  6
CONTINUOUS
 10
-4.7936052984
 20
24.25
 11
-4.7936052984
 21
23.8443375673
  0
LINE
  5
4B5
100
AcDbEntity
  8
RACCORDO
100
AcDbLine
 62
7
  6
CONTINUOUS
 10
-4.7936052984
 20
-23.8443375673
 11
-4.7936052984
 21
-24.25
  0
LINE
  5
4B6
100
AcDbEntity
  8
RACCORDO
100
AcDbLine
 62
7
  6
CONTINUOUS
 10
-4.7936052984
 20
-22.3825449351
 11
-4.7936052984
 21
22.3825449351
  0
LINE
  5
4B7
100
AcDbEntity
  8
ASSI
100
AcDbLine
 62
7
  6
CONTINUOUS
 10
-4.5936052984
 20
14.828613
 11
-4.5936052984
 21
12.723169
  0
LINE
  5
4B8
100
AcDbEntity
  8
ASSI
100
AcDbLine
 62
7
  6
CONTINUOUS
 10
-4.5936052984
 20
12.389831
 11
-4.5936052984
 21
11.889813
  0
LINE
  5
4B9
100
AcDbEntity
  8
ASSI
100
AcDbLine
 62
7
  6
CONTINUOUS
 10
-4.5936052984
 20
11.389806
 11
-4.5936052984
 21
8.944281
  0
LINE
  5
4BA
100
AcDbEntity
  8
ASSI
100
AcDbLine
 62
7
  6
CONTINUOUS
 10
-4.5936052984
 20
8.610937
 11
-4.5936052984
 21
6.505494
  0
LINE
  5
4BB
100
AcDbEntity
  8
ASSI
100
AcDbLine
 62
7
  6
CONTINUOUS
 10
-4.5936052984
 20
6.17215
 11
-4.5936052984
 21
4.171387
  0
LINE
  5
4BC
100
AcDbEntity
  8
21814000
100
AcDbLine
 62
250
  6
CONTINUOUS
 10
-1.6565083708
 20
-5.386478
 11
-0.9509943263
 21
-5.386471
  0
LINE
  5
4BD
100
AcDbEntity
  8
21814000
100
AcDbLine
 62
250
  6
CONTINUOUS
 10
1.906790664
 20
-4.861082
 11
3.2063947016
 21
-4.861082
  0
LINE
  5
4BE
100
AcDbEntity
  8
21814000
100
AcDbLine
 62
250
  6
CONTINUOUS
 10
-0.4146357437
 20
-5.378409
 11
0.7063797061
 21
-5.378474
  0
LINE
  5
4BF
100
AcDbEntity
  8
21814000
100
AcDbLine
 62
250
  6
CONTINUOUS
 10
1.906790664
 20
-5.680387
 11
3.2063947016
 21
-6.250721
  0
LINE
  5
4C0
100
AcDbEntity
  8
21814000
100
AcDbLine
 62
250
  6
CONTINUOUS
 10
-2.1928669534
 20
-7.856372
 11
-2.1928669534
 21
-7.276321
  0
LINE
  5
4C1
100
AcDbEntity
  8
21814000
100
AcDbLine
 62
250
  6
CONTINUOUS
 10
-2.1928669534
 20
-5.958503
 11
-2.1928669534
 21
-4.600288
  0
LINE
  5
4C2
100
AcDbEntity
  8
21814000
100
AcDbLine
 62
250
  6
CONTINUOUS
 10
-2.1928599556
 20
-9.174176
 11
-2.1928599556
 21
-10.051012
  0
LINE
  5
4C3
100
AcDbEntity
  8
21814000
100
AcDbLine
 62
250
  6
CONTINUOUS
 10
-2.1928599556
 20
-11.134148
 11
-2.1928599556
 21
-12.010985
  0
LINE
  5
4C4
100
AcDbEntity
  8
21814000
100
AcDbLine
 62
250
  6
CONTINUOUS
 10
-2.1928599556
 20
-12.590985
 11
-2.1928599556
 21
-13.171006
  0
LINE
  5
4C5
100
AcDbEntity
  8
21814000
100
AcDbLine
 62
250
  6
CONTINUOUS
 10
-2.1928599556
 20
-13.557685
 11
-2.1928599556
 21
-14.137714
  0
LINE
  5
4C6
100
AcDbEntity
  8
21814000
100
AcDbLine
 62
250
  6
CONTINUOUS
 10
-2.1928599556
 20
-15.419971
 11
-2.1928599556
 21
-15.806891549
  0
LINE
  5
4C7
100
AcDbEntity
  8
21814000
100
AcDbLine
 62
250
  6
CONTINUOUS
 10
-2.1927229973
 20
14.991935
 11
-2.1927229973
 21
14.252884
  0
LINE
  5
4C8
100
AcDbEntity
  8
21814000
100
AcDbLine
 62
250
  6
CONTINUOUS
 10
-2.1927229973
 20
8.9669
 11
-2.1927229973
 21
8.227849
  0
LINE
  5
4C9
100
AcDbEntity
  8
21814000
100
AcDbLine
 62
250
  6
CONTINUOUS
 10
-2.1927229973
 20
3.58822
 11
-2.1927229973
 21
2.70079
  0
LINE
  5
4CA
100
AcDbEntity
  8
21814000
100
AcDbLine
 62
250
  6
CONTINUOUS
 10
-2.1927229973
 20
5.171133
 11
-2.1927229973
 21
5.793739
  0
LINE
  5
4CB
100
AcDbEntity
  8
21814000
100
AcDbLine
 62
250
  6
CONTINUOUS
 10
-2.1927229973
 20
10.292325
 11
-2.1927229973
 21
11.216139
  0
LINE
  5
4CC
100
AcDbEntity
  8
21814000
100
AcDbLine
 62
250
  6
CONTINUOUS
 10
-2.1927229973
 20
12.328754
 11
-2.1927229973
 21
12.911198
  0
LWPOLYLINE
  5
4CD
100
AcDbEntity
  8
0
100
AcDbPolyline
 62
7
  6
CONTINUOUS
 90
4
 70
0
 43
0.3500000006
 10
-2.117085896
 20
43.6785727844
 10
-2.117085896
 20
44.5357152557
 10
-1.6885143771
 20
44.9642842255
 10
-1.0456572404
 20
44.9642842255
  0
LWPOLYLINE
  5
4CE
100
AcDbEntity
  8
21814000
100
AcDbPolyline
 62
250
  6
CONTINUOUS
 90
54
 70
0
 10
-1.7109367152
 20
3.6866121309
 10
-1.7074659319
 20
3.714921713
 10
-1.7040649871
 20
3.7432399548
 10
-1.7005671482
 20
3.7715537031
 10
-1.6983527202
 20
3.7885212298
 10
-1.6959991515
 20
3.805470407
 10
-1.6934620775
 20
3.822389229
 10
-1.6906971339
 20
3.8392656904
 10
-1.6876599562
 20
3.8560877855
 10
-1.6848722262
 20
3.8701183226
 10
-1.6818125229
 20
3.8840998519
 10
-1.6784306788
 20
3.8980298647
 10
-1.676223819
 20
3.9063385316
 10
-1.6738294716
 20
3.9145946618
 10
-1.6711935966
 20
3.9227650827
 10
-1.668262154
 20
3.9308166218
 10
-1.6649811039
 20
3.9387161066
 10
-1.661333157
 20
3.9463909352
 10
-1.6573140272
 20
3.9538861248
 10
-1.6529513758
 20
3.9612050591
 10
-1.6482728639
 20
3.9683511216
 10
-1.6433061528
 20
3.975327696
 10
-1.6380789034
 20
3.9821381657
 10
-1.6326187771
 20
3.9887859143
 10
-1.6269534349
 20
3.9952743255
 10
-1.621110538
 20
4.0016067828
 10
-1.6151177476
 20
4.0077866698
 10
-1.6063089111
 20
4.0163817618
 10
-1.5972504473
 20
4.0246617425
 10
-1.5879438286
 20
4.0326179721
 10
-1.5783905276
 20
4.040241811
 10
-1.5685920166
 20
4.0475246196
 10
-1.5585497682
 20
4.0544577583
 10
-1.5482652548
 20
4.0610325873
 10
-1.5377424519
 20
4.0672414867
 10
-1.5269967889
 20
4.0730800757
 10
-1.516046209
 20
4.0785450099
 10
-1.5049086555
 20
4.0836329449
 10
-1.4936020716
 20
4.0883405362
 10
-1.4821444007
 20
4.0926644395
 10
-1.470553586
 20
4.0966013103
 10
-1.4579637456
 20
4.100402356
 10
-1.4452541605
 20
4.1037740527
 10
-1.4324382197
 20
4.1067381983
 10
-1.4195293125
 20
4.1093165908
 10
-1.4065408279
 20
4.111531028
 10
-1.3934861549
 20
4.1134033078
 10
-1.3803786827
 20
4.1149552282
 10
-1.3672318004
 20
4.1162085871
 10
-1.354058897
 20
4.1171851824
 10
-1.3408733617
 20
4.1179068121
 10
-1.3276885835
 20
4.1183952739
 10
-1.3145179515
 20
4.1186723659
 10
-1.3013748549
 20
4.1187598859
  0
LINE
  5
4CF
100
AcDbEntity
  8
21814000
100
AcDbLine
 62
7
  6
CONTINUOUS
 10
17.1802479788
 20
-1.3760409428
 11
18.9325414244
 21
-1.2227351311
  0
LINE
  5
4D0
100
AcDbEntity
  8
21814000
100
AcDbLine
 62
250
  6
CONTINUOUS
 10
3.2063947016
 20
-3.476396
 11
2.7035129192
 21
-3.476396
  0
LINE
  5
4D1
100
AcDbEntity
  8
21814000
100
AcDbLine
 62
7
  6
CONTINUOUS
 10
16.9063947016
 20
-3.3
 11
17.1063947016
 21
-3.3
  0
LWPOLYLINE
  5
4D2
100
AcDbEntity
  8
21814000
100
AcDbPolyline
 62
250
  6
CONTINUOUS
 90
73
 70
0
 10
-0.4843614997
 20
-4.255024
 10
-0.4980650642
 20
-4.2241548489
 10
-0.5129594935
 20
-4.1937892977
 10
-0.5290155042
 20
-4.1639775825
 10
-0.5462038129
 20
-4.1347699389
 10
-0.5644951361
 20
-4.1062166031
 10
-0.5838601904
 20
-4.0783678107
 10
-0.6042696925
 20
-4.0512737977
 10
-0.6256943589
 20
-4.0249847999
 10
-0.64810373
 20
-3.9995477091
 10
-0.671462641
 20
-3.9749960407
 10
-0.6957347512
 20
-3.9513599659
 10
-0.7208837194
 20
-3.928669656
 10
-0.7468732049
 20
-3.9069552821
 10
-0.7736668666
 20
-3.8862470156
 10
-0.8012283637
 20
-3.8665750277
 10
-0.8295213552
 20
-3.8479694895
 10
-0.8585079734
 20
-3.8304589222
 10
-0.888144243
 20
-3.8140652455
 10
-0.918384662
 20
-3.7988087291
 10
-0.9491837284
 20
-3.7847096425
 10
-0.9804959401
 20
-3.7717882553
 10
-1.0122757952
 20
-3.7600648371
 10
-1.0444777915
 20
-3.7495596575
 10
-1.077056427
 20
-3.740292986
 10
-1.1099656154
 20
-3.7322825556
 10
-1.1431569328
 20
-3.7255359525
 10
-1.1765813708
 20
-3.7200582261
 10
-1.2101899214
 20
-3.7158544259
 10
-1.2439335761
 20
-3.7129296015
 10
-1.2777633269
 20
-3.7112888022
 10
-1.3116301655
 20
-3.7109370777
 10
-1.3454850835
 20
-3.7118794774
 10
-1.379279176
 20
-3.7141185793
 10
-1.4129639508
 20
-3.7176470763
 10
-1.4464910188
 20
-3.7224551894
 10
-1.479811991
 20
-3.7285331401
 10
-1.5128784783
 20
-3.7358711495
 10
-1.5456420918
 20
-3.7444594389
 10
-1.5780544424
 20
-3.7542882296
 10
-1.6100671411
 20
-3.7653477429
 10
-1.6416326629
 20
-3.7776258824
 10
-1.6727069386
 20
-3.7911012812
 10
-1.7032467634
 20
-3.8057502548
 10
-1.733208932
 20
-3.8215491189
 10
-1.7625502395
 20
-3.8384741888
 10
-1.7912274808
 20
-3.8565017801
 10
-1.8191974509
 20
-3.8756082083
 10
-1.8464169447
 20
-3.895769789
 10
-1.8728442801
 20
-3.9169607268
 10
-1.8984438671
 20
-3.9391467832
 10
-1.9231816385
 20
-3.9622916087
 10
-1.9470235272
 20
-3.9863588541
 10
-1.9699354661
 20
-4.0113121699
 10
-1.9918833881
 20
-4.0371152067
 10
-2.012833226
 20
-4.0637316152
 10
-2.0327509127
 20
-4.0911250461
 10
-2.0516044287
 20
-4.1192582219
 10
-2.0693699446
 20
-4.1480901536
 10
-2.0860256787
 20
-4.1775789241
 10
-2.1015498491
 20
-4.2076826166
 10
-2.115920674
 20
-4.2383593139
 10
-2.1291163717
 20
-4.269567099
 10
-2.1411151604
 20
-4.3012640549
 10
-2.1518952582
 20
-4.3334082647
 10
-2.1614372652
 20
-4.3659551861
 10
-2.1697313086
 20
-4.3988497768
 10
-2.1767698975
 20
-4.4320343695
 10
-2.1825455409
 20
-4.4654512965
 10
-2.1870507478
 20
-4.4990428906
 10
-2.1902780272
 20
-4.5327514841
 10
-2.1922198883
 20
-4.5665194097
 10
-2.19286884
 20
-4.600289
  0
LWPOLYLINE
  5
4D3
100
AcDbEntity
  8
21814000
100
AcDbPolyline
 62
250
  6
CONTINUOUS
 90
56
 70
0
 10
-0.4100268531
 20
3.5882200575
 10
-0.4127786556
 20
3.6593420228
 10
-0.4158852014
 20
3.7304495107
 10
-0.4195289361
 20
3.8015261757
 10
-0.4227302222
 20
3.8548326767
 10
-0.4264404708
 20
3.9081159546
 10
-0.4285437244
 20
3.9347707495
 10
-0.4309505149
 20
3.9613978441
 10
-0.4338109165
 20
3.987974519
 10
-0.4372750034
 20
4.0144780549
 10
-0.4414556567
 20
4.0408209991
 10
-0.4463799441
 20
4.0670418425
 10
-0.4520413992
 20
4.0931138777
 10
-0.4584335556
 20
4.1190103969
 10
-0.4655460243
 20
4.1447609633
 10
-0.4732721737
 20
4.170334622
 10
-0.4814987605
 20
4.1957574398
 10
-0.4901125415
 20
4.2210554833
 10
-0.5020625146
 20
4.2545923094
 10
-0.5146335162
 20
4.2878922111
 10
-0.5279602567
 20
4.3208934898
 10
-0.5385428664
 20
4.3454137162
 10
-0.5497246211
 20
4.3696688761
 10
-0.5616034439
 20
4.3935967234
 10
-0.5742772577
 20
4.4171350117
 10
-0.587777692
 20
4.4401459783
 10
-0.6021500752
 20
4.4626584852
 10
-0.6173794912
 20
4.4846228171
 10
-0.6334510241
 20
4.5059892586
 10
-0.6503497577
 20
4.5267080946
 10
-0.6680607762
 20
4.5467296097
 10
-0.6865691634
 20
4.5660040886
 10
-0.7058600034
 20
4.5844818161
 10
-0.7259827125
 20
4.6021794235
 10
-0.746829424
 20
4.6190196024
 10
-0.7683513406
 20
4.6349971955
 10
-0.7904996647
 20
4.6501070453
 10
-0.8132255992
 20
4.6643439943
 10
-0.8364803465
 20
4.6777028851
 10
-0.8602151094
 20
4.6901785604
 10
-0.8843810905
 20
4.7017658625
 10
-0.9089381123
 20
4.7124666784
 10
-0.9338439058
 20
4.7222954066
 10
-0.9590646323
 20
4.7312739325
 10
-0.9845664535
 20
4.7394241416
 10
-1.0103155307
 20
4.7467679191
 10
-1.0362780253
 20
4.7533271503
 10
-1.062420099
 20
4.7591237208
 10
-1.0887079131
 20
4.7641795157
 10
-1.1188520561
 20
4.7690756766
 10
-1.1491169221
 20
4.7730842284
 10
-1.1794774472
 20
4.776254141
 10
-1.2099085671
 20
4.7786343845
 10
-1.2403852178
 20
4.7802739289
 10
-1.2708823351
 20
4.7812217441
 10
-1.3013748549
 20
4.7815268003
  0
LINE
  5
4D4
100
AcDbEntity
  8
21814000
100
AcDbLine
 62
250
  6
CONTINUOUS
 10
-1.7109367876
 20
3.323396
 11
-1.7109367876
 21
3.686612
  0
LINE
  5
4D5
100
AcDbEntity
  8
21814000
100
AcDbLine
 62
250
  6
CONTINUOUS
 10
-1.6565083708
 20
-4.680792
 11
-1.6565083708
 21
-5.386478
  0
LINE
  5
4D6
100
AcDbEntity
  8
21814000
100
AcDbLine
 62
250
  6
CONTINUOUS
 10
-0.9509943263
 20
-5.386471
 11
-0.9509943263
 21
-4.680792
  0
LINE
  5
4D7
100
AcDbEntity
  8
21814000
100
AcDbLine
 62
250
  6
CONTINUOUS
 10
-0.8918133575
 20
3.323396
 11
-0.8918133575
 21
3.686612
  0
LINE
  5
4D8
100
AcDbEntity
  8
21814000
100
AcDbLine
 62
250
  6
CONTINUOUS
 10
-0.4146287458
 20
-7.84744
 11
-0.4146287458
 21
-7.285246
  0
LINE
  5
4D9
100
AcDbEntity
  8
21814000
100
AcDbLine
 62
250
  6
CONTINUOUS
 10
-0.4146287458
 20
-4.872178
 11
-0.4146357437
 21
-5.378409
  0
LINE
  5
4DA
100
AcDbEntity
  8
21814000
100
AcDbLine
 62
250
  6
CONTINUOUS
 10
-0.4100271478
 20
3.58822
 11
-0.4100271478
 21
3.323396
  0
LINE
  5
4DB
100
AcDbEntity
  8
21814000
100
AcDbLine
 62
250
  6
CONTINUOUS
 10
-0.3898432974
 20
15.007869
 11
-0.3898432974
 21
14.176491
  0
LINE
  5
4DC
100
AcDbEntity
  8
21814000
100
AcDbLine
 62
250
  6
CONTINUOUS
 10
-0.3898432974
 20
8.982943
 11
-0.3898432974
 21
8.151456
  0
LINE
  5
4DD
100
AcDbEntity
  8
21814000
100
AcDbLine
 62
250
  6
CONTINUOUS
 10
0.0919429123
 20
7.990812
 11
0.0919429123
 21
9.139549
  0
LINE
  5
4DE
100
AcDbEntity
  8
21814000
100
AcDbLine
 62
250
  6
CONTINUOUS
 10
0.0919429123
 20
14.015846
 11
0.0919429123
 21
15.164584
  0
LINE
  5
4DF
100
AcDbEntity
  8
21814000
100
AcDbLine
 62
250
  6
CONTINUOUS
 10
0.1362254204
 20
-7.108317
 11
0.1362254204
 21
-8.024362
  0
LINE
  5
4E0
100
AcDbEntity
  8
21814000
100
AcDbLine
 62
250
  6
CONTINUOUS
 10
0.2246084919
 20
5.793739
 11
0.2246084919
 21
6.866738
  0
LINE
  5
4E1
100
AcDbEntity
  8
21814000
100
AcDbLine
 62
7
  6
CONTINUOUS
 10
16.9159897337
 20
-1.6
 11
17.1063947016
 21
-1.6
  0
LINE
  5
4E2
100
AcDbEntity
  8
21814000
100
AcDbLine
 62
250
  6
CONTINUOUS
 10
2.7035129192
 20
-3.476396
 11
1.906790664
 21
-3.000657
  0
LINE
  5
4E3
100
AcDbEntity
  8
21814000
100
AcDbLine
 62
250
  6
CONTINUOUS
 10
0.7063947016
 20
-15.068868
 11
0.7063877037
 21
-14.488824
  0
LINE
  5
4E4
100
AcDbEntity
  8
21814000
100
AcDbLine
 62
250
  6
CONTINUOUS
 10
0.7063947016
 20
-13.171014
 11
0.7063877037
 21
-12.590992
  0
LINE
  5
4E5
100
AcDbEntity
  8
21814000
100
AcDbLine
 62
250
  6
CONTINUOUS
 10
0.7063877037
 20
-10.882587
 11
0.7063797061
 21
-10.30258
  0
LINE
  5
4E6
100
AcDbEntity
  8
21814000
100
AcDbLine
 62
250
  6
CONTINUOUS
 10
0.7063797061
 20
-8.207475
 11
0.7063877037
 21
-8.787497
  0
LINE
  5
4E7
100
AcDbEntity
  8
21814000
100
AcDbLine
 62
250
  6
CONTINUOUS
 10
0.7063727083
 20
-3.637619
 11
0.7063797061
 21
-4.290924
  0
LINE
  5
4E8
100
AcDbEntity
  8
21814000
100
AcDbLine
 62
250
  6
CONTINUOUS
 10
0.7063797061
 20
-5.378474
 11
0.7063797061
 21
-5.958503
  0
LINE
  5
4E9
100
AcDbEntity
  8
21814000
100
AcDbLine
 62
250
  6
CONTINUOUS
 10
0.7063877037
 20
-12.010985
 11
0.7063877037
 21
-11.430963
  0
LINE
  5
4EA
100
AcDbEntity
  8
21814000
100
AcDbLine
 62
250
  6
CONTINUOUS
 10
0.7063877037
 20
-9.754197
 11
0.7063877037
 21
-9.174176
  0
LINE
  5
4EB
100
AcDbEntity
  8
21814000
100
AcDbLine
 62
250
  6
CONTINUOUS
 10
0.7063947016
 20
12.911198
 11
0.7063947016
 21
12.027546
  0
LINE
  5
4EC
100
AcDbEntity
  8
21814000
100
AcDbLine
 62
250
  6
CONTINUOUS
 10
0.7063947016
 20
10.87477
 11
0.7063947016
 21
10.292325
  0
LINE
  5
4ED
100
AcDbEntity
  8
21814000
100
AcDbLine
 62
250
  6
CONTINUOUS
 10
0.7063947016
 20
6.866738
 11
0.7063947016
 21
5.171133
  0
LINE
  5
4EE
100
AcDbEntity
  8
21814000
100
AcDbLine
 62
250
  6
CONTINUOUS
 10
0.7063947016
 20
2.70079
 11
0.7063947016
 21
3.323396
  0
LINE
  5
4EF
100
AcDbEntity
  8
21814000
100
AcDbLine
 62
250
  6
CONTINUOUS
 10
0.7063947016
 20
7.179514
 11
0.7063947016
 21
7.773964
  0
LINE
  5
4F0
100
AcDbEntity
  8
21814000
100
AcDbLine
 62
250
  6
CONTINUOUS
 10
0.7063947016
 20
9.348431
 11
0.7063947016
 21
9.975074
  0
LINE
  5
4F1
100
AcDbEntity
  8
21814000
100
AcDbLine
 62
250
  6
CONTINUOUS
 10
0.7063947016
 20
13.20444
 11
0.7063947016
 21
13.798889
  0
LINE
  5
4F2
100
AcDbEntity
  8
21814000
100
AcDbLine
 62
250
  6
CONTINUOUS
 10
0.7063947016
 20
15.373574
 11
0.7063947016
 21
16.0
  0
LINE
  5
4F3
100
AcDbEntity
  8
21814000
100
AcDbLine
 62
250
  6
CONTINUOUS
 10
0.7063877037
 20
-6.345182
 11
0.7063797061
 21
-6.925211
  0
LINE
  5
4F4
100
AcDbEntity
  8
21814000
100
AcDbLine
 62
250
  6
CONTINUOUS
 10
1.906790664
 20
-10.826258
 11
1.906790664
 21
-11.773245
  0
LINE
  5
4F5
100
AcDbEntity
  8
21814000
100
AcDbLine
 62
250
  6
CONTINUOUS
 10
1.906790664
 20
-12.659757
 11
1.906790664
 21
-13.089593
  0
LINE
  5
4F6
100
AcDbEntity
  8
21814000
100
AcDbLine
 62
250
  6
CONTINUOUS
 10
1.906790664
 20
-7.375145
 11
1.906790664
 21
-6.319553
  0
LINE
  5
4F7
100
AcDbEntity
  8
26814000
100
AcDbLine
 62
7
  6
CONTINUOUS
 10
2.2063947016
 20
23.7534573615
 11
2.2063947016
 21
23.3
  0
LINE
  5
4F8
100
AcDbEntity
  8
RACCORDO
100
AcDbLine
 62
7
  6
CONTINUOUS
 10
2.2063947016
 20
23.3
 11
2.2063947016
 21
22.2603594806
  0
LINE
  5
4F9
100
AcDbEntity
  8
RACCORDO
100
AcDbLine
 62
7
  6
CONTINUOUS
 10
2.2063947016
 20
-22.2603594806
 11
2.2063947016
 21
-23.3
  0
LINE
  5
4FA
100
AcDbEntity
  8
26814000
100
AcDbLine
 62
7
  6
CONTINUOUS
 10
2.2063947016
 20
-23.3
 11
2.2063947016
 21
-23.7534573615
  0
LINE
  5
4FB
100
AcDbEntity
  8
21814000
100
AcDbLine
 62
250
  6
CONTINUOUS
 10
2.3066840808
 20
12.5177510679
 11
2.3066840808
 21
12.6503762774
  0
LINE
  5
4FC
100
AcDbEntity
  8
21814000
100
AcDbLine
 62
250
  6
CONTINUOUS
 10
2.3066840808
 20
13.9766268232
 11
2.3066840808
 21
14.1092518114
  0
LINE
  5
4FD
100
AcDbEntity
  8
21814000
100
AcDbLine
 62
250
  6
CONTINUOUS
 10
2.3066840808
 20
15.4355021358
 11
2.3066840808
 21
15.568127124
  0
LWPOLYLINE
  5
4FE
100
AcDbEntity
  8
21814000
100
AcDbPolyline
 62
7
  6
CONTINUOUS
 90
7
 70
0
 10
16.0221018674
 20
11.1182374088
 10
16.0436892143
 20
11.1373114667
 10
16.0669721578
 20
11.1543997423
 10
16.0919506979
 20
11.1695022354
 10
16.1186248347
 20
11.1826189461
 10
16.1469945681
 20
11.1937498744
 10
16.1770598981
 20
11.2028950204
  0
LINE
  5
4FF
100
AcDbEntity
  8
21814000
100
AcDbLine
 62
7
  6
CONTINUOUS
 10
-2.1270071162
 20
2.70079
 11
-2.1927229973
 21
2.7665158915
  0
LINE
  5
500
100
AcDbEntity
  8
21814000
100
AcDbLine
 62
7
  6
CONTINUOUS
 10
-2.0589490616
 20
2.70079
 11
-2.1927229973
 21
2.8345843132
  0
LINE
  5
501
100
AcDbEntity
  8
21814000
100
AcDbLine
 62
7
  6
CONTINUOUS
 10
-1.9908910071
 20
2.70079
 11
-2.1927229973
 21
2.9026527349
  0
LINE
  5
502
100
AcDbEntity
  8
21814000
100
AcDbLine
 62
7
  6
CONTINUOUS
 10
-1.9228329526
 20
2.70079
 11
-2.1927229973
 21
2.9707211566
  0
LINE
  5
503
100
AcDbEntity
  8
21814000
100
AcDbLine
 62
7
  6
CONTINUOUS
 10
-1.854774898
 20
2.70079
 11
-2.1927229973
 21
3.0387895782
  0
LINE
  5
504
100
AcDbEntity
  8
21814000
100
AcDbLine
 62
7
  6
CONTINUOUS
 10
-1.7867168435
 20
2.70079
 11
-2.1927229973
 21
3.1068579999
  0
LINE
  5
505
100
AcDbEntity
  8
21814000
100
AcDbLine
 62
7
  6
CONTINUOUS
 10
-1.7186587889
 20
2.70079
 11
-2.1927229973
 21
3.1749264216
  0
LINE
  5
506
100
AcDbEntity
  8
21814000
100
AcDbLine
 62
7
  6
CONTINUOUS
 10
-1.6506007344
 20
2.70079
 11
-2.1927229973
 21
3.2429948433
  0
LINE
  5
507
100
AcDbEntity
  8
21814000
100
AcDbLine
 62
7
  6
CONTINUOUS
 10
-1.5825426799
 20
2.70079
 11
-2.1927229973
 21
3.311063265
  0
LINE
  5
508
100
AcDbEntity
  8
21814000
100
AcDbLine
 62
7
  6
CONTINUOUS
 10
-1.5144846253
 20
2.70079
 11
-2.1927229973
 21
3.3791316867
  0
LINE
  5
509
100
AcDbEntity
  8
21814000
100
AcDbLine
 62
7
  6
CONTINUOUS
 10
-1.4464265708
 20
2.70079
 11
-2.1927229973
 21
3.4472001084
  0
LINE
  5
50A
100
AcDbEntity
  8
21814000
100
AcDbLine
 62
7
  6
CONTINUOUS
 10
-1.3783685163
 20
2.70079
 11
-2.1927229973
 21
3.5152685301
  0
LINE
  5
50B
100
AcDbEntity
  8
21814000
100
AcDbLine
 62
7
  6
CONTINUOUS
 10
-1.3103104617
 20
2.70079
 11
-2.1927229973
 21
3.5833369517
  0
LINE
  5
50C
100
AcDbEntity
  8
21814000
100
AcDbLine
 62
7
  6
CONTINUOUS
 10
-1.2422524072
 20
2.70079
 11
-2.1900282212
 21
3.6487101868
  0
LINE
  5
50D
100
AcDbEntity
  8
21814000
100
AcDbLine
 62
7
  6
CONTINUOUS
 10
-1.1741943527
 20
2.70079
 11
-2.1871253317
 21
3.7138752768
  0
LINE
  5
50E
100
AcDbEntity
  8
21814000
100
AcDbLine
 62
7
  6
CONTINUOUS
 10
-1.1061362981
 20
2.70079
 11
-2.1842224422
 21
3.7790403668
  0
LINE
  5
50F
100
AcDbEntity
  8
21814000
100
AcDbLine
 62
7
  6
CONTINUOUS
 10
-1.0380782436
 20
2.70079
 11
-1.6605894177
 21
3.323396
  0
LINE
  5
510
100
AcDbEntity
  8
21814000
100
AcDbLine
 62
7
  6
CONTINUOUS
 10
-1.7109367876
 20
3.3737510392
 11
-2.1805061017
 21
3.843391882
  0
LINE
  5
511
100
AcDbEntity
  8
21814000
100
AcDbLine
 62
7
  6
CONTINUOUS
 10
-0.9700201891
 20
2.70079
 11
-1.5925313631
 21
3.323396
  0
LINE
  5
512
100
AcDbEntity
  8
21814000
100
AcDbLine
 62
7
  6
CONTINUOUS
 10
-1.7109367876
 20
3.4418194609
 11
-2.1763611903
 21
3.9073147608
  0
LINE
  5
513
100
AcDbEntity
  8
21814000
100
AcDbLine
 62
7
  6
CONTINUOUS
 10
-0.9019621345
 20
2.70079
 11
-1.5244733086
 21
3.323396
  0
LINE
  5
514
100
AcDbEntity
  8
21814000
100
AcDbLine
 62
7
  6
CONTINUOUS
 10
-1.7109367876
 20
3.5098878826
 11
-2.1707960341
 21
3.9698171786
  0
LINE
  5
515
100
AcDbEntity
  8
21814000
100
AcDbLine
 62
7
  6
CONTINUOUS
 10
-0.83390408
 20
2.70079
 11
-1.4564152541
 21
3.323396
  0
LINE
  5
516
100
AcDbEntity
  8
21814000
100
AcDbLine
 62
7
  6
CONTINUOUS
 10
-1.7109367876
 20
3.5779563043
 11
-2.1628045872
 21
4.029892936
  0
LINE
  5
517
100
AcDbEntity
  8
21814000
100
AcDbLine
 62
7
  6
CONTINUOUS
 10
-0.7658460254
 20
2.70079
 11
-1.3883571995
 21
3.323396
  0
LINE
  5
518
100
AcDbEntity
  8
21814000
100
AcDbLine
 62
7
  6
CONTINUOUS
 10
-1.7109367876
 20
3.646024726
 11
-2.1517602886
 21
4.0869153767
  0
LINE
  5
519
100
AcDbEntity
  8
21814000
100
AcDbLine
 62
7
  6
CONTINUOUS
 10
-0.6977879709
 20
2.70079
 11
-1.320299145
 21
3.323396
  0
LINE
  5
51A
100
AcDbEntity
  8
21814000
100
AcDbLine
 62
7
  6
CONTINUOUS
 10
-1.7079469202
 20
3.7111028248
 11
-2.1379182488
 21
4.1411396501
  0
LINE
  5
51B
100
AcDbEntity
  8
21814000
100
AcDbLine
 62
7
  6
CONTINUOUS
 10
-0.6297299164
 20
2.70079
 11
-1.2522410905
 21
3.323396
  0
LINE
  5
51C
100
AcDbEntity
  8
21814000
100
AcDbLine
 62
7
  6
CONTINUOUS
 10
-1.7005386144
 20
3.7717618122
 11
-2.1218924554
 21
4.1931798372
  0
LINE
  5
51D
100
AcDbEntity
  8
21814000
100
AcDbLine
 62
7
  6
CONTINUOUS
 10
-0.5616718618
 20
2.70079
 11
-1.1841830359
 21
3.323396
  0
LINE
  5
51E
100
AcDbEntity
  8
21814000
100
AcDbLine
 62
7
  6
CONTINUOUS
 10
-1.6918583635
 20
3.8311486607
 11
-2.1041336659
 21
4.2434867642
  0
LINE
  5
51F
100
AcDbEntity
  8
21814000
100
AcDbLine
 62
7
  6
CONTINUOUS
 10
-0.4936138073
 20
2.70079
 11
-1.1161249814
 21
3.323396
  0
LINE
  5
520
100
AcDbEntity
  8
21814000
100
AcDbLine
 62
7
  6
CONTINUOUS
 10
-1.6806386804
 20
3.8879956903
 11
-2.0854234733
 21
4.2928421432
  0
LINE
  5
521
100
AcDbEntity
  8
21814000
100
AcDbLine
 62
7
  6
CONTINUOUS
 10
-0.4255557528
 20
2.70079
 11
-1.0480669269
 21
3.323396
  0
LINE
  5
522
100
AcDbEntity
  8
21814000
100
AcDbLine
 62
7
  6
CONTINUOUS
 10
-1.6644034705
 20
3.939826429
 11
-2.0657245188
 21
4.3412086097
  0
LINE
  5
523
100
AcDbEntity
  8
21814000
100
AcDbLine
 62
7
  6
CONTINUOUS
 10
-0.3574976982
 20
2.70079
 11
-0.9800088723
 21
3.323396
  0
LINE
  5
524
100
AcDbEntity
  8
21814000
100
AcDbLine
 62
7
  6
CONTINUOUS
 10
-1.6381852599
 20
3.9816726463
 11
-2.0438525031
 21
4.387401684
  0
LINE
  5
525
100
AcDbEntity
  8
21814000
100
AcDbLine
 62
7
  6
CONTINUOUS
 10
-0.2894396437
 20
2.70079
 11
-0.9119508178
 21
3.323396
  0
LINE
  5
526
100
AcDbEntity
  8
21814000
100
AcDbLine
 62
7
  6
CONTINUOUS
 10
-1.6053555172
 20
4.0169063244
 11
-2.0196036442
 21
4.431217553
  0
LINE
  5
527
100
AcDbEntity
  8
21814000
100
AcDbLine
 62
7
  6
CONTINUOUS
 10
-0.2213815892
 20
2.70079
 11
-0.8918133575
 21
3.3713238939
  0
LINE
  5
528
100
AcDbEntity
  8
21814000
100
AcDbLine
 62
7
  6
CONTINUOUS
 10
-1.5680818047
 20
4.0476953558
 11
-1.9933023485
 21
4.4729806726
  0
LINE
  5
529
100
AcDbEntity
  8
21814000
100
AcDbLine
 62
7
  6
CONTINUOUS
 10
-0.1533235346
 20
2.70079
 11
-0.8918133575
 21
3.4393923156
  0
LINE
  5
52A
100
AcDbEntity
  8
21814000
100
AcDbLine
 62
7
  6
CONTINUOUS
 10
-1.5258701031
 20
4.0735456458
 11
-1.963778255
 21
4.5115205035
  0
LINE
  5
52B
100
AcDbEntity
  8
21814000
100
AcDbLine
 62
7
  6
CONTINUOUS
 10
-0.0852654801
 20
2.70079
 11
-0.8918133575
 21
3.5074607373
  0
LINE
  5
52C
100
AcDbEntity
  8
21814000
100
AcDbLine
 62
7
  6
CONTINUOUS
 10
-1.4781089592
 20
4.0938456483
 11
-1.9323110273
 21
4.548116904
  0
LINE
  5
52D
100
AcDbEntity
  8
21814000
100
AcDbLine
 62
7
  6
CONTINUOUS
 10
-0.0172074255
 20
2.70079
 11
-0.8918133575
 21
3.575529159
  0
LINE
  5
52E
100
AcDbEntity
  8
21814000
100
AcDbLine
 62
7
  6
CONTINUOUS
 10
-1.4243017364
 20
4.1080986508
 11
-1.898726702
 21
4.5825958846
  0
LINE
  5
52F
100
AcDbEntity
  8
21814000
100
AcDbLine
 62
7
  6
CONTINUOUS
 10
0.050850629
 20
2.70079
 11
-0.8918133575
 21
3.6435975807
  0
LINE
  5
530
100
AcDbEntity
  8
21814000
100
AcDbLine
 62
7
  6
CONTINUOUS
 10
-1.3644631145
 20
4.1163193355
 11
-1.8615326965
 21
4.6134646351
  0
LINE
  5
531
100
AcDbEntity
  8
21814000
100
AcDbLine
 62
7
  6
CONTINUOUS
 10
0.1189086835
 20
2.70079
 11
-0.8952968695
 21
3.715150045
  0
LINE
  5
532
100
AcDbEntity
  8
21814000
100
AcDbLine
 62
7
  6
CONTINUOUS
 10
-1.2987977356
 20
4.1187123756
 11
-1.8223767032
 21
4.6423710989
  0
LINE
  5
533
100
AcDbEntity
  8
21814000
100
AcDbLine
 62
7
  6
CONTINUOUS
 10
0.1869667381
 20
2.70079
 11
-0.9051304039
 21
3.793053499
  0
LINE
  5
534
100
AcDbEntity
  8
21814000
100
AcDbLine
 62
7
  6
CONTINUOUS
 10
-1.2273508416
 20
4.1153230199
 11
-1.7811762695
 21
4.6692328109
  0
LINE
  5
535
100
AcDbEntity
  8
21814000
100
AcDbLine
 62
7
  6
CONTINUOUS
 10
0.2550247926
 20
2.70079
 11
-0.3674863815
 21
3.323396
  0
LINE
  5
536
100
AcDbEntity
  8
21814000
100
AcDbLine
 62
7
  6
CONTINUOUS
 10
-0.4100271478
 20
3.3659432465
 11
-0.919320482
 21
3.8753141604
  0
LINE
  5
537
100
AcDbEntity
  8
21814000
100
AcDbLine
 62
7
  6
CONTINUOUS
 10
-1.1437173448
 20
4.0997452051
 11
-1.7363392946
 21
4.6924574278
  0
LINE
  5
538
100
AcDbEntity
  8
21814000
100
AcDbLine
 62
7
  6
CONTINUOUS
 10
0.3230828471
 20
2.70079
 11
-0.299428327
 21
3.323396
  0
LINE
  5
539
100
AcDbEntity
  8
21814000
100
AcDbLine
 62
7
  6
CONTINUOUS
 10
-0.4100271478
 20
3.4340116681
 11
-1.689273295
 21
4.7134526804
  0
LINE
  5
53A
100
AcDbEntity
  8
21814000
100
AcDbLine
 62
7
  6
CONTINUOUS
 10
-2.1468839077
 20
5.171133
 11
-2.1927229973
 21
5.2169790722
  0
LINE
  5
53B
100
AcDbEntity
  8
21814000
100
AcDbLine
 62
7
  6
CONTINUOUS
 10
0.3911409017
 20
2.70079
 11
-0.2313702724
 21
3.323396
  0
LINE
  5
53C
100
AcDbEntity
  8
21814000
100
AcDbLine
 62
7
  6
CONTINUOUS
 10
-0.4100271478
 20
3.5020800898
 11
-1.639847561
 21
4.7320878392
  0
LINE
  5
53D
100
AcDbEntity
  8
21814000
100
AcDbLine
 62
7
  6
CONTINUOUS
 10
-2.0788258531
 20
5.171133
 11
-2.1927229973
 21
5.2850474939
  0
LINE
  5
53E
100
AcDbEntity
  8
21814000
100
AcDbLine
 62
7
  6
CONTINUOUS
 10
0.4591989562
 20
2.70079
 11
-0.1633122179
 21
3.323396
  0
LINE
  5
53F
100
AcDbEntity
  8
21814000
100
AcDbLine
 62
7
  6
CONTINUOUS
 10
-0.4100271478
 20
3.5701485115
 11
-1.5875930001
 21
4.7478937401
  0
LINE
  5
540
100
AcDbEntity
  8
21814000
100
AcDbLine
 62
7
  6
CONTINUOUS
 10
-2.0107677986
 20
5.171133
 11
-2.1927229973
 21
5.3531159156
  0
LINE
  5
541
100
AcDbEntity
  8
21814000
100
AcDbLine
 62
7
  6
CONTINUOUS
 10
0.5272570107
 20
2.70079
 11
-0.0952541633
 21
3.323396
  0
LINE
  5
542
100
AcDbEntity
  8
21814000
100
AcDbLine
 62
7
  6
CONTINUOUS
 10
-0.4123578916
 20
3.640548032
 11
-1.5319355917
 21
4.7602962752
  0
LINE
  5
543
100
AcDbEntity
  8
21814000
100
AcDbLine
 62
7
  6
CONTINUOUS
 10
-1.9427097441
 20
5.171133
 11
-2.1927229973
 21
5.4211843373
  0
LINE
  5
544
100
AcDbEntity
  8
21814000
100
AcDbLine
 62
7
  6
CONTINUOUS
 10
0.5953150653
 20
2.70079
 11
-0.0271961088
 21
3.323396
  0
LINE
  5
545
100
AcDbEntity
  8
21814000
100
AcDbLine
 62
7
  6
CONTINUOUS
 10
-0.4155315107
 20
3.7117905562
 11
-1.4729408979
 21
4.7693610165
  0
LINE
  5
546
100
AcDbEntity
  8
21814000
100
AcDbLine
 62
7
  6
CONTINUOUS
 10
-1.8746516895
 20
5.171133
 11
-2.1927229973
 21
5.489252759
  0
LINE
  5
547
100
AcDbEntity
  8
21814000
100
AcDbLine
 62
250
  6
CONTINUOUS
 10
2.5565926828
 20
-11.773245
 11
2.5565926828
 21
-10.892654
  0
LINE
  5
548
100
AcDbEntity
  8
21814000
100
AcDbLine
 62
250
  6
CONTINUOUS
 10
2.734697418
 20
-6.043716
 11
2.734697418
 21
-5.317059
  0
LINE
  5
549
100
AcDbEntity
  8
21814000
100
AcDbLine
 62
250
  6
CONTINUOUS
 10
2.7421361515
 20
-14.196702
 11
2.7421361515
 21
-13.463517
  0
LWPOLYLINE
  5
54A
100
AcDbEntity
  8
0
100
AcDbPolyline
 62
7
  6
CONTINUOUS
 90
2
 70
0
 43
0.3500000006
 10
2.9543427057
 20
43.2499992828
 10
2.9543427057
 20
44.7499997406
  0
LINE
  5
54B
100
AcDbEntity
  8
21814000
100
AcDbLine
 62
250
  6
CONTINUOUS
 10
3.2063947016
 20
-13.089593
 11
3.2063947016
 21
-12.659757
  0
LINE
  5
54C
100
AcDbEntity
  8
21814000
100
AcDbLine
 62
250
  6
CONTINUOUS
 10
3.2063947016
 20
-11.773245
 11
3.2063947016
 21
-10.813568
  0
LINE
  5
54D
100
AcDbEntity
  8
21814000
100
AcDbLine
 62
250
  6
CONTINUOUS
 10
3.2063947016
 20
-4.861082
 11
3.2063947016
 21
-4.114148
  0
LINE
  5
54E
100
AcDbEntity
  8
21814000
100
AcDbLine
 62
250
  6
CONTINUOUS
 10
3.7993138502
 20
11.589375708
 11
3.7993138502
 21
10.6610004588
  0
LINE
  5
54F
100
AcDbEntity
  8
21814000
100
AcDbLine
 62
250
  6
CONTINUOUS
 10
4.2063947016
 20
15.568127124
 11
4.2063947016
 21
15.4355021358
  0
LINE
  5
550
100
AcDbEntity
  8
21814000
100
AcDbLine
 62
250
  6
CONTINUOUS
 10
4.2063947016
 20
14.1092518114
 11
4.2063947016
 21
13.9766268232
  0
LINE
  5
551
100
AcDbEntity
  8
21814000
100
AcDbLine
 62
250
  6
CONTINUOUS
 10
4.2063947016
 20
12.6503762774
 11
4.2063947016
 21
12.5177510679
  0
LINE
  5
552
100
AcDbEntity
  8
21814000
100
AcDbLine
 62
250
  6
CONTINUOUS
 10
1.906790664
 20
-3.952134
 11
2.7035129192
 21
-3.476396
  0
LINE
  5
553
100
AcDbEntity
  8
21814000
100
AcDbLine
 62
250
  6
CONTINUOUS
 10
-0.4843595003
 20
-4.255022
 11
0.7063727083
 21
-3.637619
  0
LINE
  5
554
100
AcDbEntity
  8
21814000
100
AcDbLine
 62
250
  6
CONTINUOUS
 10
0.7063797061
 20
-4.290924
 11
-0.4146287458
 21
-4.872178
  0
LWPOLYLINE
  5
555
100
AcDbEntity
  8
21814000
100
AcDbPolyline
 62
250
  6
CONTINUOUS
 90
38
 70
0
 10
17.1721083599
 20
0.8041755087
 10
17.1650205116
 20
0.8020728418
 10
17.1578073779
 20
0.799459295
 10
17.150468959
 20
0.7963348684
 10
17.1429863943
 20
0.7927066126
 10
17.1353785444
 20
0.7885674771
 10
17.1277019901
 20
0.7838963099
 10
17.1199498894
 20
0.7786719937
 10
17.1121290843
 20
0.772915646
 10
17.1043166827
 20
0.7666694674
 10
17.0965222214
 20
0.7599261306
 10
17.0887361635
 20
0.7526929629
 10
17.0810070063
 20
0.7450341468
 10
17.0733524131
 20
0.7369636015
 10
17.0657547205
 20
0.7284674078
 10
17.0582094354
 20
0.7195679907
 10
17.0507171156
 20
0.7102691753
 10
17.0432772032
 20
0.7005671366
 10
17.035883532
 20
0.6904728237
 10
17.0285351797
 20
0.6799884404
 10
17.0212330685
 20
0.6691117829
 10
17.0139737987
 20
0.6578471891
 10
17.0067607106
 20
0.6462050692
 10
16.9995904639
 20
0.6341750131
 10
16.9924496374
 20
0.6217301287
 10
16.9853369505
 20
0.6088753605
 10
16.9782536838
 20
0.5956057641
 10
16.9711902587
 20
0.5818796136
 10
16.9641431875
 20
0.567697518
 10
16.9571159578
 20
0.5530588684
 10
16.9501094541
 20
0.5379201125
 10
16.9431199244
 20
0.522280566
 10
16.9361511206
 20
0.5061409132
 10
16.9292151826
 20
0.4894596544
 10
16.9223087681
 20
0.4722372229
 10
16.9154352195
 20
0.4544731855
 10
16.9086167031
 20
0.4361247424
 10
16.9022427329
 20
0.4182948078
  0
LINE
  5
556
100
AcDbEntity
  8
21814000
100
AcDbLine
 62
250
  6
CONTINUOUS
 10
-2.1927229973
 20
2.70079
 11
0.7063947016
 21
2.70079
  0
LINE
  5
557
100
AcDbEntity
  8
21814000
100
AcDbLine
 62
250
  6
CONTINUOUS
 10
0.7063947016
 20
3.323396
 11
-0.4100271478
 21
3.323396
  0
LINE
  5
558
100
AcDbEntity
  8
21814000
100
AcDbLine
 62
250
  6
CONTINUOUS
 10
-0.8918133575
 20
3.323396
 11
-1.7109367876
 21
3.323396
  0
LINE
  5
559
100
AcDbEntity
  8
ASSI
100
AcDbLine
 62
7
  6
CONTINUOUS
 10
-4.7936052984
 20
4.171387
 11
-4.5936052984
 21
4.171387
  0
LWPOLYLINE
  5
55A
100
AcDbEntity
  8
21814000
100
AcDbPolyline
 62
250
  6
CONTINUOUS
 90
54
 70
0
 10
-1.3013748549
 20
4.1187598859
 10
-1.2882317582
 20
4.1186723659
 10
-1.2750611263
 20
4.1183952739
 10
-1.2618763481
 20
4.1179068121
 10
-1.2486908128
 20
4.1171851824
 10
-1.2355179094
 20
4.1162085871
 10
-1.2223710271
 20
4.1149552282
 10
-1.2092635549
 20
4.1134033078
 10
-1.1962088819
 20
4.111531028
 10
-1.1832203973
 20
4.1093165908
 10
-1.17031149
 20
4.1067381983
 10
-1.1574955493
 20
4.1037740527
 10
-1.1447859642
 20
4.100402356
 10
-1.1321961238
 20
4.0966013103
 10
-1.1206053091
 20
4.0926644395
 10
-1.1091476381
 20
4.0883405362
 10
-1.0978410543
 20
4.0836329449
 10
-1.0867035008
 20
4.0785450099
 10
-1.0757529209
 20
4.0730800757
 10
-1.0650072578
 20
4.0672414867
 10
-1.054484455
 20
4.0610325873
 10
-1.0441999416
 20
4.0544577583
 10
-1.0341576932
 20
4.0475246196
 10
-1.0243591822
 20
4.040241811
 10
-1.0148058811
 20
4.0326179721
 10
-1.0054992625
 20
4.0246617425
 10
-0.9964407987
 20
4.0163817618
 10
-0.9876319622
 20
4.0077866698
 10
-0.9816391718
 20
4.0016067828
 10
-0.9757962749
 20
3.9952743255
 10
-0.9701309327
 20
3.9887859143
 10
-0.9646708064
 20
3.9821381657
 10
-0.959443557
 20
3.975327696
 10
-0.9544768458
 20
3.9683511216
 10
-0.949798334
 20
3.9612050591
 10
-0.9454356826
 20
3.9538861248
 10
-0.9414165528
 20
3.9463909352
 10
-0.9377686059
 20
3.9387161066
 10
-0.9344875558
 20
3.9308166218
 10
-0.9315561132
 20
3.9227650827
 10
-0.9289202382
 20
3.9145946618
 10
-0.9265258908
 20
3.9063385316
 10
-0.924319031
 20
3.8980298647
 10
-0.9209371869
 20
3.8840998519
 10
-0.9178774836
 20
3.8701183226
 10
-0.9150897536
 20
3.8560877855
 10
-0.9120525759
 20
3.8392656904
 10
-0.9092876323
 20
3.822389229
 10
-0.9067505583
 20
3.805470407
 10
-0.9043969895
 20
3.7885212298
 10
-0.9021825615
 20
3.7715537031
 10
-0.8986847227
 20
3.7432399548
 10
-0.8952837779
 20
3.714921713
 10
-0.8918129946
 20
3.6866121309
  0
LINE
  5
55B
100
AcDbEntity
  8
21814000
100
AcDbLine
 62
7
  6
CONTINUOUS
 10
0.6633731198
 20
2.70079
 11
0.0408619457
 21
3.323396
  0
LINE
  5
55C
100
AcDbEntity
  8
21814000
100
AcDbLine
 62
7
  6
CONTINUOUS
 10
-0.4187051298
 20
3.7830330805
 11
-1.4125011858
 21
4.7769805195
  0
LINE
  5
55D
100
AcDbEntity
  8
21814000
100
AcDbLine
 62
7
  6
CONTINUOUS
 10
-1.806593635
 20
5.171133
 11
-2.1927229973
 21
5.5573211806
  0
LINE
  5
55E
100
AcDbEntity
  8
21814000
100
AcDbLine
 62
7
  6
CONTINUOUS
 10
0.7063947016
 20
2.7258302865
 11
0.1089200003
 21
3.323396
  0
LINE
  5
55F
100
AcDbEntity
  8
21814000
100
AcDbLine
 62
7
  6
CONTINUOUS
 10
-0.4230235794
 20
3.8554206095
 11
-1.3472737737
 21
4.7798115932
  0
LINE
  5
560
100
AcDbEntity
  8
21814000
100
AcDbLine
 62
7
  6
CONTINUOUS
 10
-1.7385355804
 20
5.171133
 11
-2.1927229973
 21
5.6253896023
  0
LINE
  5
561
100
AcDbEntity
  8
21814000
100
AcDbLine
 62
7
  6
CONTINUOUS
 10
0.7063947016
 20
2.7938987082
 11
0.1769780548
 21
3.323396
  0
LINE
  5
562
100
AcDbEntity
  8
21814000
100
AcDbLine
 62
7
  6
CONTINUOUS
 10
-0.4281780948
 20
3.9286443318
 11
-1.2801371494
 21
4.7807331637
  0
LINE
  5
563
100
AcDbEntity
  8
21814000
100
AcDbLine
 62
7
  6
CONTINUOUS
 10
-1.6704775259
 20
5.171133
 11
-2.1927229973
 21
5.693458024
  0
LINE
  5
564
100
AcDbEntity
  8
21814000
100
AcDbLine
 62
7
  6
CONTINUOUS
 10
0.7063947016
 20
2.8619671299
 11
0.2450361093
 21
3.323396
  0
LINE
  5
565
100
AcDbEntity
  8
21814000
100
AcDbLine
 62
7
  6
CONTINUOUS
 10
-0.4361026225
 20
4.0046384884
 11
-1.2094375061
 21
4.7780911725
  0
LINE
  5
566
100
AcDbEntity
  8
21814000
100
AcDbLine
 62
7
  6
CONTINUOUS
 10
-1.6024194714
 20
5.171133
 11
-2.1927229973
 21
5.7615264457
  0
LINE
  5
567
100
AcDbEntity
  8
21814000
100
AcDbLine
 62
7
  6
CONTINUOUS
 10
0.7063947016
 20
2.9300355516
 11
0.3130941639
 21
3.323396
  0
LINE
  5
568
100
AcDbEntity
  8
21814000
100
AcDbLine
 62
7
  6
CONTINUOUS
 10
-0.4511949598
 20
4.0878015464
 11
-1.1330604954
 21
4.7697709492
  0
LINE
  5
569
100
AcDbEntity
  8
21814000
100
AcDbLine
 62
7
  6
CONTINUOUS
 10
-1.5343614168
 20
5.171133
 11
-2.1568725909
 21
5.793739
  0
LINE
  5
56A
100
AcDbEntity
  8
21814000
100
AcDbLine
 62
7
  6
CONTINUOUS
 10
0.7063947016
 20
2.9981039733
 11
0.3811522184
 21
3.323396
  0
LINE
  5
56B
100
AcDbEntity
  8
21814000
100
AcDbLine
 62
7
  6
CONTINUOUS
 10
-0.4770579702
 20
4.1817369181
 11
-1.0512935867
 21
4.7560600068
  0
LINE
  5
56C
100
AcDbEntity
  8
21814000
100
AcDbLine
 62
7
  6
CONTINUOUS
 10
-1.4663033623
 20
5.171133
 11
-2.0888145364
 21
5.793739
  0
LINE
  5
56D
100
AcDbEntity
  8
21814000
100
AcDbLine
 62
7
  6
CONTINUOUS
 10
0.7063947016
 20
3.066172395
 11
0.4492102729
 21
3.323396
  0
LINE
  5
56E
100
AcDbEntity
  8
21814000
100
AcDbLine
 62
7
  6
CONTINUOUS
 10
-0.5156395148
 20
4.2883927614
 11
-0.9576909904
 21
4.7305115739
  0
LINE
  5
56F
100
AcDbEntity
  8
21814000
100
AcDbLine
 62
7
  6
CONTINUOUS
 10
-1.3982453078
 20
5.171133
 11
-2.0207564819
 21
5.793739
  0
LINE
  5
570
100
AcDbEntity
  8
21814000
100
AcDbLine
 62
7
  6
CONTINUOUS
 10
0.7063947016
 20
3.1342408166
 11
0.5172683275
 21
3.323396
  0
LINE
  5
571
100
AcDbEntity
  8
21814000
100
AcDbLine
 62
7
  6
CONTINUOUS
 10
-0.5721047353
 20
4.4129350049
 11
-0.8356577982
 21
4.6765282142
  0
LINE
  5
572
100
AcDbEntity
  8
21814000
100
AcDbLine
 62
7
  6
CONTINUOUS
 10
-1.3301872532
 20
5.171133
 11
-1.9526984273
 21
5.793739
  0
LINE
  5
573
100
AcDbEntity
  8
21814000
100
AcDbLine
 62
7
  6
CONTINUOUS
 10
0.7063947016
 20
3.2023092383
 11
0.585326382
 21
3.323396
  0
LINE
  5
574
100
AcDbEntity
  8
21814000
100
AcDbLine
 62
7
  6
CONTINUOUS
 10
-1.2621291987
 20
5.171133
 11
-1.8846403728
 21
5.793739
  0
LINE
  5
575
100
AcDbEntity
  8
21814000
100
AcDbLine
 62
7
  6
CONTINUOUS
 10
0.7063947016
 20
3.27037766
 11
0.6533844365
 21
3.323396
  0
LINE
  5
576
100
AcDbEntity
  8
21814000
100
AcDbLine
 62
7
  6
CONTINUOUS
 10
-1.1940711442
 20
5.171133
 11
-1.8165823182
 21
5.793739
  0
LINE
  5
577
100
AcDbEntity
  8
21814000
100
AcDbLine
 62
7
  6
CONTINUOUS
 10
-1.1260130896
 20
5.171133
 11
-1.7485242637
 21
5.793739
  0
LINE
  5
578
100
AcDbEntity
  8
21814000
100
AcDbLine
 62
7
  6
CONTINUOUS
 10
-1.0579550351
 20
5.171133
 11
-1.6804662092
 21
5.793739
  0
LINE
  5
579
100
AcDbEntity
  8
21814000
100
AcDbLine
 62
7
  6
CONTINUOUS
 10
-0.9898969805
 20
5.171133
 11
-1.6124081546
 21
5.793739
  0
LINE
  5
57A
100
AcDbEntity
  8
21814000
100
AcDbLine
 62
7
  6
CONTINUOUS
 10
-0.921838926
 20
5.171133
 11
-1.5443501001
 21
5.793739
  0
LINE
  5
57B
100
AcDbEntity
  8
21814000
100
AcDbLine
 62
7
  6
CONTINUOUS
 10
-0.8537808715
 20
5.171133
 11
-1.4762920456
 21
5.793739
  0
LINE
  5
57C
100
AcDbEntity
  8
21814000
100
AcDbLine
 62
7
  6
CONTINUOUS
 10
-0.7857228169
 20
5.171133
 11
-1.408233991
 21
5.793739
  0
LINE
  5
57D
100
AcDbEntity
  8
21814000
100
AcDbLine
 62
7
  6
CONTINUOUS
 10
-0.7176647624
 20
5.171133
 11
-1.3401759365
 21
5.793739
  0
LINE
  5
57E
100
AcDbEntity
  8
21814000
100
AcDbLine
 62
7
  6
CONTINUOUS
 10
-0.6496067079
 20
5.171133
 11
-1.272117882
 21
5.793739
  0
LINE
  5
57F
100
AcDbEntity
  8
21814000
100
AcDbLine
 62
7
  6
CONTINUOUS
 10
-0.5815486533
 20
5.171133
 11
-1.2040598274
 21
5.793739
  0
LINE
  5
580
100
AcDbEntity
  8
21814000
100
AcDbLine
 62
7
  6
CONTINUOUS
 10
-0.5134905988
 20
5.171133
 11
-1.1360017729
 21
5.793739
  0
LINE
  5
581
100
AcDbEntity
  8
21814000
100
AcDbLine
 62
7
  6
CONTINUOUS
 10
-0.4454325443
 20
5.171133
 11
-1.0679437184
 21
5.793739
  0
LINE
  5
582
100
AcDbEntity
  8
21814000
100
AcDbLine
 62
7
  6
CONTINUOUS
 10
-0.3773744897
 20
5.171133
 11
-0.9998856638
 21
5.793739
  0
LINE
  5
583
100
AcDbEntity
  8
21814000
100
AcDbLine
 62
7
  6
CONTINUOUS
 10
-0.3093164352
 20
5.171133
 11
-0.9318276093
 21
5.793739
  0
LINE
  5
584
100
AcDbEntity
  8
21814000
100
AcDbLine
 62
7
  6
CONTINUOUS
 10
-0.2412583807
 20
5.171133
 11
-0.8637695547
 21
5.793739
  0
LINE
  5
585
100
AcDbEntity
  8
21814000
100
AcDbLine
 62
7
  6
CONTINUOUS
 10
-0.1732003261
 20
5.171133
 11
-0.7957115002
 21
5.793739
  0
LINE
  5
586
100
AcDbEntity
  8
21814000
100
AcDbLine
 62
7
  6
CONTINUOUS
 10
-0.1051422716
 20
5.171133
 11
-0.7276534457
 21
5.793739
  0
LINE
  5
587
100
AcDbEntity
  8
21814000
100
AcDbLine
 62
7
  6
CONTINUOUS
 10
-0.037084217
 20
5.171133
 11
-0.6595953911
 21
5.793739
  0
LINE
  5
588
100
AcDbEntity
  8
21814000
100
AcDbLine
 62
7
  6
CONTINUOUS
 10
0.0309738375
 20
5.171133
 11
-0.5915373366
 21
5.793739
  0
LINE
  5
589
100
AcDbEntity
  8
21814000
100
AcDbLine
 62
7
  6
CONTINUOUS
 10
0.099031892
 20
5.171133
 11
-0.5234792821
 21
5.793739
  0
LINE
  5
58A
100
AcDbEntity
  8
21814000
100
AcDbLine
 62
7
  6
CONTINUOUS
 10
0.1670899466
 20
5.171133
 11
-0.4554212275
 21
5.793739
  0
LINE
  5
58B
100
AcDbEntity
  8
21814000
100
AcDbLine
 62
7
  6
CONTINUOUS
 10
0.2351480011
 20
5.171133
 11
-0.387363173
 21
5.793739
  0
LINE
  5
58C
100
AcDbEntity
  8
21814000
100
AcDbLine
 62
7
  6
CONTINUOUS
 10
0.3032060556
 20
5.171133
 11
-0.3193051185
 21
5.793739
  0
LINE
  5
58D
100
AcDbEntity
  8
21814000
100
AcDbLine
 62
7
  6
CONTINUOUS
 10
0.3712641102
 20
5.171133
 11
-0.2512470639
 21
5.793739
  0
LINE
  5
58E
100
AcDbEntity
  8
21814000
100
AcDbLine
 62
7
  6
CONTINUOUS
 10
0.4393221647
 20
5.171133
 11
-0.1831890094
 21
5.793739
  0
LINE
  5
58F
100
AcDbEntity
  8
21814000
100
AcDbLine
 62
7
  6
CONTINUOUS
 10
0.5073802192
 20
5.171133
 11
-0.1151309548
 21
5.793739
  0
LINE
  5
590
100
AcDbEntity
  8
21814000
100
AcDbLine
 62
7
  6
CONTINUOUS
 10
0.5754382738
 20
5.171133
 11
-0.0470729003
 21
5.793739
  0
LINE
  5
591
100
AcDbEntity
  8
21814000
100
AcDbLine
 62
7
  6
CONTINUOUS
 10
0.6434963283
 20
5.171133
 11
0.0209851542
 21
5.793739
  0
LINE
  5
592
100
AcDbEntity
  8
21814000
100
AcDbLine
 62
7
  6
CONTINUOUS
 10
0.7063947016
 20
5.1762934672
 11
0.0890432088
 21
5.793739
  0
LINE
  5
593
100
AcDbEntity
  8
21814000
100
AcDbLine
 62
7
  6
CONTINUOUS
 10
0.7063947016
 20
5.2443618889
 11
0.1571012633
 21
5.793739
  0
LINE
  5
594
100
AcDbEntity
  8
21814000
100
AcDbLine
 62
7
  6
CONTINUOUS
 10
0.7063947016
 20
5.3124303106
 11
0.2246084919
 21
5.7942899099
  0
LINE
  5
595
100
AcDbEntity
  8
21814000
100
AcDbLine
 62
7
  6
CONTINUOUS
 10
0.7063947016
 20
5.3804987323
 11
0.2246084919
 21
5.8623583316
  0
LINE
  5
596
100
AcDbEntity
  8
21814000
100
AcDbLine
 62
7
  6
CONTINUOUS
 10
-2.1109607959
 20
8.198283392
 11
-2.1927229973
 21
8.2800580481
  0
LINE
  5
597
100
AcDbEntity
  8
21814000
100
AcDbLine
 62
7
  6
CONTINUOUS
 10
0.7063947016
 20
5.448567154
 11
0.2246084919
 21
5.9304267533
  0
LINE
  5
598
100
AcDbEntity
  8
21814000
100
AcDbLine
 62
7
  6
CONTINUOUS
 10
-2.0043619551
 20
8.1597367349
 11
-2.1927229973
 21
8.3481264698
  0
LINE
  5
599
100
AcDbEntity
  8
21814000
100
AcDbLine
 62
7
  6
CONTINUOUS
 10
0.7063947016
 20
5.5166355757
 11
0.2246084919
 21
5.9984951749
  0
LINE
  5
59A
100
AcDbEntity
  8
21814000
100
AcDbLine
 62
7
  6
CONTINUOUS
 10
-1.8977631144
 20
8.1211900779
 11
-2.1927229973
 21
8.4161948915
  0
LINE
  5
59B
100
AcDbEntity
  8
RACCORDO
100
AcDbLine
 62
7
  6
CONTINUOUS
 10
5.2063947016
 20
21.2252970227
 11
5.2063947016
 21
18.5002938467
  0
LINE
  5
59C
100
AcDbEntity
  8
RACCORDO
100
AcDbLine
 62
7
  6
CONTINUOUS
 10
5.2063947016
 20
-18.5002938467
 11
5.2063947016
 21
-21.2252970227
  0
LINE
  5
59D
100
AcDbEntity
  8
21814000
100
AcDbLine
 62
250
  6
CONTINUOUS
 10
3.2063947016
 20
-5.110054
 11
1.906790664
 21
-5.680387
  0
LWPOLYLINE
  5
59E
100
AcDbEntity
  8
21814000
100
AcDbPolyline
 62
250
  6
CONTINUOUS
 90
58
 70
0
 10
17.1802479788
 20
0.7741926714
 10
17.174936072
 20
0.7720724566
 10
17.1695249425
 20
0.7694426054
 10
17.1640170572
 20
0.7663012083
 10
17.1584038823
 20
0.7626509481
 10
17.1526996624
 20
0.7584849796
 10
17.1469410582
 20
0.7537876139
 10
17.1411259184
 20
0.7485369613
 10
17.1352626973
 20
0.7427516785
 10
17.1294032065
 20
0.7364783878
 10
17.1235567333
 20
0.7297100058
 10
17.1177194922
 20
0.7224522262
 10
17.111922558
 20
0.7147723254
 10
17.1061810407
 20
0.7066840941
 10
17.1004842433
 20
0.6981735454
 10
17.0948242049
 20
0.6892666115
 10
17.0892042324
 20
0.6799663192
 10
17.083625951
 20
0.6702688265
 10
17.0780794363
 20
0.6601892128
 10
17.0725673905
 20
0.6497284944
 10
17.0670927984
 20
0.6388842577
 10
17.0616469042
 20
0.6276658213
 10
17.0562364446
 20
0.6160818215
 10
17.0508612734
 20
0.6041217205
 10
17.0455035677
 20
0.5917651873
 10
17.0401682635
 20
0.5790144718
 10
17.0348592004
 20
0.5658642501
 10
17.0295588816
 20
0.5522815841
 10
17.024272426
 20
0.5382636097
 10
17.019006475
 20
0.5238087825
 10
17.0137481353
 20
0.5088848365
 10
17.0085043792
 20
0.493486974
 10
17.0032835375
 20
0.4776143167
 10
16.998077291
 20
0.461239212
 10
16.9928954138
 20
0.4443573477
 10
16.9877475965
 20
0.4269662026
 10
16.9826283217
 20
0.4090395117
 10
16.9775525
 20
0.3905810007
 10
16.9725297405
 20
0.3715790502
 10
16.9675508402
 20
0.3519826407
 10
16.9626332778
 20
0.3317887265
 10
16.9577922108
 20
0.3109907707
 10
16.9530213228
 20
0.2895301556
 10
16.9483433648
 20
0.267400575
 10
16.9437793129
 20
0.2445971111
 10
16.939328848
 20
0.2210604399
 10
16.9350196243
 20
0.196767568
 10
16.9308830356
 20
0.1717290401
 10
16.9269344688
 20
0.1459332534
 10
16.9232129882
 20
0.1193765595
 10
16.9197545138
 20
0.0920517009
 10
16.9165826334
 20
0.0639392531
 10
16.9137506426
 20
0.0350662489
 10
16.911302156
 20
0.0053988232
 10
16.9092710447
 20
-0.0251774527
 10
16.9077233172
 20
-0.0567026995
 10
16.9067395602
 20
-0.0891375752
 10
16.9063947016
 20
-0.1224761222
  0
LINE
  5
59F
100
AcDbEntity
  8
21814000
100
AcDbLine
 62
250
  6
CONTINUOUS
 10
-2.1928669534
 20
-7.276321
 11
0.7063877037
 21
-6.345182
  0
LWPOLYLINE
  5
5A0
100
AcDbEntity
  8
21814000
100
AcDbPolyline
 62
250
  6
CONTINUOUS
 90
43
 70
0
 10
16.0221018674
 20
11.1182374088
 10
16.0458513546
 20
11.1249481858
 10
16.0699335597
 20
11.1285877631
 10
16.0943295164
 20
11.1291561408
 10
16.1190685088
 20
11.1266850385
 10
16.1440781718
 20
11.1211427365
 10
16.1691864123
 20
11.1124340762
 10
16.194413929
 20
11.100340075
 10
16.219692354
 20
11.0850797155
 10
16.2447218592
 20
11.0672147868
 10
16.2693879654
 20
11.0467221127
 10
16.2937693063
 20
11.0236248694
 10
16.3178615904
 20
10.9985543744
 10
16.3415848299
 20
10.9716256427
 10
16.3649855202
 20
10.9427236594
 10
16.388242382
 20
10.9121346974
 10
16.4113269342
 20
10.8799247435
 10
16.4342190439
 20
10.8460278109
 10
16.4570930268
 20
10.8105322118
 10
16.4799331306
 20
10.7734364332
 10
16.5026809969
 20
10.734741988
 10
16.525427648
 20
10.6945417276
 10
16.548123423
 20
10.6528426341
 10
16.5707162096
 20
10.6096377254
 10
16.5932722605
 20
10.5649989067
 10
16.615692406
 20
10.5189832625
 10
16.6379377434
 20
10.4715337083
 10
16.6601294976
 20
10.4225508956
 10
16.6821310068
 20
10.372082801
 10
16.7038706217
 20
10.320081448
 10
16.7254991474
 20
10.2663035578
 10
16.746837498
 20
10.2107128098
 10
16.7677251848
 20
10.1533455246
 10
16.7882305951
 20
10.094067386
 10
16.8080736601
 20
10.0328022755
 10
16.8269931158
 20
9.9696263115
 10
16.8449182692
 20
9.9046335339
 10
16.8614864138
 20
9.8374478287
 10
16.8761815018
 20
9.7684453098
 10
16.8885543223
 20
9.6988483584
 10
16.8980872729
 20
9.6290644351
 10
16.9042222591
 20
9.5586860793
 10
16.9063947016
 20
9.4877132911
  0
LWPOLYLINE
  5
5A1
100
AcDbEntity
  8
21814000
100
AcDbPolyline
 62
250
  6
CONTINUOUS
 90
56
 70
0
 10
-1.3013748549
 20
4.7815268003
 10
-1.3318673747
 20
4.7812217441
 10
-1.362364492
 20
4.7802739289
 10
-1.3928411427
 20
4.7786343845
 10
-1.4232722626
 20
4.776254141
 10
-1.4536327877
 20
4.7730842284
 10
-1.4838976537
 20
4.7690756766
 10
-1.5140417967
 20
4.7641795157
 10
-1.5403296108
 20
4.7591237208
 10
-1.5664716844
 20
4.7533271503
 10
-1.5924341791
 20
4.7467679191
 10
-1.6181832563
 20
4.7394241416
 10
-1.6436850775
 20
4.7312739325
 10
-1.668905804
 20
4.7222954066
 10
-1.6938115975
 20
4.7124666784
 10
-1.7183686193
 20
4.7017658625
 10
-1.7425346004
 20
4.6901785604
 10
-1.7662693633
 20
4.6777028851
 10
-1.7895241106
 20
4.6643439943
 10
-1.8122500451
 20
4.6501070453
 10
-1.8343983692
 20
4.6349971955
 10
-1.8559202858
 20
4.6190196024
 10
-1.8767669973
 20
4.6021794235
 10
-1.8968897064
 20
4.5844818161
 10
-1.9161805464
 20
4.5660040886
 10
-1.9346889336
 20
4.5467296097
 10
-1.9523999521
 20
4.5267080946
 10
-1.9692986857
 20
4.5059892586
 10
-1.9853702186
 20
4.4846228171
 10
-2.0005996346
 20
4.4626584852
 10
-2.0149720178
 20
4.4401459783
 10
-2.0284724521
 20
4.4171350117
 10
-2.0411462659
 20
4.3935967234
 10
-2.0530250887
 20
4.3696688761
 10
-2.0642068434
 20
4.3454137162
 10
-2.0747894531
 20
4.3208934898
 10
-2.0881161936
 20
4.2878922111
 10
-2.1006871952
 20
4.2545923094
 10
-2.1126371683
 20
4.2210554833
 10
-2.1212509493
 20
4.1957574398
 10
-2.1294775361
 20
4.170334622
 10
-2.1372036854
 20
4.1447609633
 10
-2.1443161541
 20
4.1190103969
 10
-2.1507083106
 20
4.0931138777
 10
-2.1563697657
 20
4.0670418425
 10
-2.1612940531
 20
4.0408209991
 10
-2.1654747064
 20
4.0144780549
 10
-2.1689387933
 20
3.987974519
 10
-2.1717991949
 20
3.9613978441
 10
-2.1742059853
 20
3.9347707495
 10
-2.176309239
 20
3.9081159546
 10
-2.1800194876
 20
3.8548326767
 10
-2.1832207737
 20
3.8015261757
 10
-2.1868645084
 20
3.7304495107
 10
-2.1899710541
 20
3.6593420228
 10
-2.1927228567
 20
3.5882200575
  0
LINE
  5
5A2
100
AcDbEntity
  8
ASSI
100
AcDbLine
 62
7
  6
CONTINUOUS
 10
-4.7936052984
 20
4.734581
 11
-4.5936052984
 21
4.734581
  0
LINE
  5
5A3
100
AcDbEntity
  8
21814000
100
AcDbLine
 62
250
  6
CONTINUOUS
 10
0.7063947016
 20
5.171133
 11
-2.1927229973
 21
5.171133
  0
LINE
  5
5A4
100
AcDbEntity
  8
ASSI
100
AcDbLine
 62
7
  6
CONTINUOUS
 10
-4.7936052984
 20
5.235662
 11
-4.5936052984
 21
5.235662
  0
LINE
  5
5A5
100
AcDbEntity
  8
21814000
100
AcDbLine
 62
7
  6
CONTINUOUS
 10
16.9063947016
 20
5.5
 11
17.1063947016
 21
5.5
  0
LINE
  5
5A6
100
AcDbEntity
  8
ASSI
100
AcDbLine
 62
7
  6
CONTINUOUS
 10
-4.7936052984
 20
5.672125
 11
-4.5936052984
 21
5.672125
  0
LINE
  5
5A7
100
AcDbEntity
  8
21814000
100
AcDbLine
 62
250
  6
CONTINUOUS
 10
-2.1927229973
 20
5.793739
 11
0.2246084919
 21
5.793739
  0
LINE
  5
5A8
100
AcDbEntity
  8
ASSI
100
AcDbLine
 62
7
  6
CONTINUOUS
 10
-4.7936052984
 20
6.17215
 11
-4.5936052984
 21
6.17215
  0
LINE
  5
5A9
100
AcDbEntity
  8
21814000
100
AcDbLine
 62
250
  6
CONTINUOUS
 10
16.9017237368
 20
5.5982886363
 11
16.9022427329
 21
5.5982885643
  0
LINE
  5
5AA
100
AcDbEntity
  8
21814000
100
AcDbLine
 62
7
  6
CONTINUOUS
 10
17.1802479788
 20
4.7760409428
 11
18.9325414244
 21
4.6227351311
  0
LINE
  5
5AB
100
AcDbEntity
  8
21814000
100
AcDbLine
 62
7
  6
CONTINUOUS
 10
0.7063947016
 20
5.5847039974
 11
0.2246084919
 21
6.0665635966
  0
LINE
  5
5AC
100
AcDbEntity
  8
21814000
100
AcDbLine
 62
7
  6
CONTINUOUS
 10
-1.7911642736
 20
8.0826434208
 11
-2.1927229973
 21
8.4842633132
  0
LINE
  5
5AD
100
AcDbEntity
  8
21814000
100
AcDbLine
 62
7
  6
CONTINUOUS
 10
0.7063947016
 20
5.652772419
 11
0.2246084919
 21
6.1346320183
  0
LINE
  5
5AE
100
AcDbEntity
  8
21814000
100
AcDbLine
 62
7
  6
CONTINUOUS
 10
-1.6845654328
 20
8.0440967637
 11
-2.1927229973
 21
8.5523317348
  0
LINE
  5
5AF
100
AcDbEntity
  8
21814000
100
AcDbLine
 62
7
  6
CONTINUOUS
 10
0.7063947016
 20
5.7208408407
 11
0.2246084919
 21
6.20270044
  0
LINE
  5
5B0
100
AcDbEntity
  8
21814000
100
AcDbLine
 62
7
  6
CONTINUOUS
 10
-1.5779665921
 20
8.0055501067
 11
-2.1927229973
 21
8.6204001565
  0
LINE
  5
5B1
100
AcDbEntity
  8
21814000
100
AcDbLine
 62
7
  6
CONTINUOUS
 10
0.7063947016
 20
5.7889092624
 11
0.2246084919
 21
6.2707688617
  0
LINE
  5
5B2
100
AcDbEntity
  8
21814000
100
AcDbLine
 62
7
  6
CONTINUOUS
 10
-1.4713677513
 20
7.9670034496
 11
-2.1927229973
 21
8.6884685782
  0
LINE
  5
5B3
100
AcDbEntity
  8
21814000
100
AcDbLine
 62
7
  6
CONTINUOUS
 10
0.7063947016
 20
5.8569776841
 11
0.2246084919
 21
6.3388372834
  0
LINE
  5
5B4
100
AcDbEntity
  8
21814000
100
AcDbLine
 62
7
  6
CONTINUOUS
 10
-1.3647689106
 20
7.9284567926
 11
-2.1927229973
 21
8.7565369999
  0
LINE
  5
5B5
100
AcDbEntity
  8
21814000
100
AcDbLine
 62
7
  6
CONTINUOUS
 10
0.7063947016
 20
5.9250461058
 11
0.2246084919
 21
6.4069057051
  0
LINE
  5
5B6
100
AcDbEntity
  8
21814000
100
AcDbLine
 62
7
  6
CONTINUOUS
 10
-1.2581700698
 20
7.8899101355
 11
-2.1927229973
 21
8.8246054216
  0
LINE
  5
5B7
100
AcDbEntity
  8
21814000
100
AcDbLine
 62
7
  6
CONTINUOUS
 10
0.7063947016
 20
5.9931145275
 11
0.2246084919
 21
6.4749741267
  0
LINE
  5
5B8
100
AcDbEntity
  8
21814000
100
AcDbLine
 62
7
  6
CONTINUOUS
 10
-1.1515712291
 20
7.8513634784
 11
-2.1927229973
 21
8.8926738433
  0
LINE
  5
5B9
100
AcDbEntity
  8
21814000
100
AcDbLine
 62
7
  6
CONTINUOUS
 10
0.7063947016
 20
6.0611829492
 11
0.2246084919
 21
6.5430425484
  0
LINE
  5
5BA
100
AcDbEntity
  8
21814000
100
AcDbLine
 62
7
  6
CONTINUOUS
 10
-1.0449723883
 20
7.8128168214
 11
-2.1927229973
 21
8.960742265
  0
LINE
  5
5BB
100
AcDbEntity
  8
21814000
100
AcDbLine
 62
7
  6
CONTINUOUS
 10
0.7063947016
 20
6.1292513709
 11
0.2246084919
 21
6.6111109701
  0
LINE
  5
5BC
100
AcDbEntity
  8
21814000
100
AcDbLine
 62
7
  6
CONTINUOUS
 10
-0.9383735475
 20
7.7742701643
 11
-2.1467919286
 21
8.9828726214
  0
LINE
  5
5BD
100
AcDbEntity
  8
21814000
100
AcDbLine
 62
7
  6
CONTINUOUS
 10
0.7063947016
 20
6.1973197925
 11
0.2246084919
 21
6.6791793918
  0
LINE
  5
5BE
100
AcDbEntity
  8
21814000
100
AcDbLine
 62
7
  6
CONTINUOUS
 10
-0.8317747068
 20
7.7357235072
 11
-2.096292483
 21
9.0004339049
  0
LINE
  5
5BF
100
AcDbEntity
  8
21814000
100
AcDbLine
 62
7
  6
CONTINUOUS
 10
0.7063947016
 20
6.2653882142
 11
0.2246084919
 21
6.7472478135
  0
LINE
  5
5C0
100
AcDbEntity
  8
21814000
100
AcDbLine
 62
7
  6
CONTINUOUS
 10
-0.725175866
 20
7.6971768502
 11
-1.5939019608
 21
8.5660352763
  0
LINE
  5
5C1
100
AcDbEntity
  8
21814000
100
AcDbLine
 62
7
  6
CONTINUOUS
 10
-1.6164855851
 20
8.5886223407
 11
-2.0457930374
 21
9.0179951885
  0
LINE
  5
5C2
100
AcDbEntity
  8
21814000
100
AcDbLine
 62
7
  6
CONTINUOUS
 10
0.7063947016
 20
6.3334566359
 11
0.2246084919
 21
6.8153162352
  0
LINE
  5
5C3
100
AcDbEntity
  8
21814000
100
AcDbLine
 62
7
  6
CONTINUOUS
 10
-0.6185770253
 20
7.6586301931
 11
-1.490112884
 21
8.5302988112
  0
LINE
  5
5C4
100
AcDbEntity
  8
21814000
100
AcDbLine
 62
7
  6
CONTINUOUS
 10
-1.5649816436
 20
8.6051789754
 11
-1.9952935918
 21
9.0355564721
  0
LINE
  5
5C5
100
AcDbEntity
  8
21814000
100
AcDbLine
 62
7
  6
CONTINUOUS
 10
0.7063947016
 20
6.4015250576
 11
0.2412526134
 21
6.866738
  0
LINE
  5
5C6
100
AcDbEntity
  8
21814000
100
AcDbLine
 62
7
  6
CONTINUOUS
 10
-0.5119781845
 20
7.620083536
 11
-1.3863238073
 21
8.4945623462
  0
LINE
  5
5C7
100
AcDbEntity
  8
21814000
100
AcDbLine
 62
7
  6
CONTINUOUS
 10
-1.513477702
 20
8.62173561
 11
-1.9447941461
 21
9.0531177557
  0
LINE
  5
5C8
100
AcDbEntity
  8
21814000
100
AcDbLine
 62
7
  6
CONTINUOUS
 10
0.7063947016
 20
6.4695934793
 11
0.3093106679
 21
6.866738
  0
LINE
  5
5C9
100
AcDbEntity
  8
21814000
100
AcDbLine
 62
7
  6
CONTINUOUS
 10
-0.4053793438
 20
7.581536879
 11
-1.2825347306
 21
8.4588258812
  0
LINE
  5
5CA
100
AcDbEntity
  8
21814000
100
AcDbLine
 62
7
  6
CONTINUOUS
 10
-1.4619737605
 20
8.6382922447
 11
-1.8942947005
 21
9.0706790393
  0
LINE
  5
5CB
100
AcDbEntity
  8
21814000
100
AcDbLine
 62
7
  6
CONTINUOUS
 10
0.7063947016
 20
6.537661901
 11
0.3773687224
 21
6.866738
  0
LINE
  5
5CC
100
AcDbEntity
  8
21814000
100
AcDbLine
 62
7
  6
CONTINUOUS
 10
-0.298780503
 20
7.5429902219
 11
-1.1787456539
 21
8.4230894162
  0
LINE
  5
5CD
100
AcDbEntity
  8
21814000
100
AcDbLine
 62
7
  6
CONTINUOUS
 10
-1.4104698189
 20
8.6548488793
 11
-1.8437952549
 21
9.0882403229
  0
LINE
  5
5CE
100
AcDbEntity
  8
21814000
100
AcDbLine
 62
7
  6
CONTINUOUS
 10
0.7063947016
 20
6.6057303227
 11
0.445426777
 21
6.866738
  0
LINE
  5
5CF
100
AcDbEntity
  8
21814000
100
AcDbLine
 62
7
  6
CONTINUOUS
 10
-0.1921816622
 20
7.5044435649
 11
-1.0749565771
 21
8.3873529511
  0
LINE
  5
5D0
100
AcDbEntity
  8
21814000
100
AcDbLine
 62
7
  6
CONTINUOUS
 10
-1.3589658774
 20
8.6714055139
 11
-1.7932958093
 21
9.1058016065
  0
LINE
  5
5D1
100
AcDbEntity
  8
21814000
100
AcDbLine
 62
7
  6
CONTINUOUS
 10
0.7063947016
 20
6.6737987443
 11
0.5134848315
 21
6.866738
  0
LINE
  5
5D2
100
AcDbEntity
  8
21814000
100
AcDbLine
 62
7
  6
CONTINUOUS
 10
-0.0855828215
 20
7.4658969078
 11
-0.9711675004
 21
8.3516164861
  0
LINE
  5
5D3
100
AcDbEntity
  8
21814000
100
AcDbLine
 62
7
  6
CONTINUOUS
 10
-1.3074619358
 20
8.6879621486
 11
-1.7427963637
 21
9.1233628901
  0
LINE
  5
5D4
100
AcDbEntity
  8
21814000
100
AcDbLine
 62
7
  6
CONTINUOUS
 10
0.7063947016
 20
6.741867166
 11
0.581542886
 21
6.866738
  0
LINE
  5
5D5
100
AcDbEntity
  8
21814000
100
AcDbLine
 62
7
  6
CONTINUOUS
 10
0.0210160193
 20
7.4273502507
 11
-0.8673784237
 21
8.3158800211
  0
LINE
  5
5D6
100
AcDbEntity
  8
21814000
100
AcDbLine
 62
7
  6
CONTINUOUS
 10
-1.2559579942
 20
8.7045187832
 11
-1.6922969181
 21
9.1409241737
  0
LINE
  5
5D7
100
AcDbEntity
  8
21814000
100
AcDbLine
 62
7
  6
CONTINUOUS
 10
0.7063947016
 20
6.8099355877
 11
0.6496009406
 21
6.866738
  0
LINE
  5
5D8
100
AcDbEntity
  8
21814000
100
AcDbLine
 62
7
  6
CONTINUOUS
 10
0.12761486
 20
7.3888035937
 11
-0.763589347
 21
8.2801435561
  0
LINE
  5
5D9
100
AcDbEntity
  8
21814000
100
AcDbLine
 62
7
  6
CONTINUOUS
 10
-1.2044540527
 20
8.7210754178
 11
-1.6417974725
 21
9.1584854573
  0
LINE
  5
5DA
100
AcDbEntity
  8
21814000
100
AcDbLine
 62
7
  6
CONTINUOUS
 10
0.2342137008
 20
7.3502569366
 11
-0.6598002702
 21
8.244407091
  0
LINE
  5
5DB
100
AcDbEntity
  8
21814000
100
AcDbLine
 62
7
  6
CONTINUOUS
 10
-1.1529501111
 20
8.7376320525
 11
-1.5912980269
 21
9.1760467409
  0
LINE
  5
5DC
100
AcDbEntity
  8
21814000
100
AcDbLine
 62
7
  6
CONTINUOUS
 10
0.3408125415
 20
7.3117102795
 11
-0.5560111935
 21
8.208670626
  0
LINE
  5
5DD
100
AcDbEntity
  8
21814000
100
AcDbLine
 62
7
  6
CONTINUOUS
 10
-1.1014461696
 20
8.7541886871
 11
-1.5407985813
 21
9.1936080245
  0
LINE
  5
5DE
100
AcDbEntity
  8
21814000
100
AcDbLine
 62
7
  6
CONTINUOUS
 10
0.4474113823
 20
7.2731636225
 11
-0.4522221168
 21
8.172934161
  0
LINE
  5
5DF
100
AcDbEntity
  8
21814000
100
AcDbLine
 62
7
  6
CONTINUOUS
 10
-1.049942228
 20
8.7707453217
 11
-1.4902991356
 21
9.2111693081
  0
LINE
  5
5E0
100
AcDbEntity
  8
21814000
100
AcDbLine
 62
7
  6
CONTINUOUS
 10
0.5540102231
 20
7.2346169654
 11
-0.3898432974
 21
8.1786142612
  0
LINE
  5
5E1
100
AcDbEntity
  8
21814000
100
AcDbLine
 62
7
  6
CONTINUOUS
 10
-0.9984382865
 20
8.7873019564
 11
-1.43979969
 21
9.2287305917
  0
LINE
  5
5E2
100
AcDbEntity
  8
21814000
100
AcDbLine
 62
7
  6
CONTINUOUS
 10
0.6606090638
 20
7.1960703084
 11
-0.3898432974
 21
8.2466826829
  0
LINE
  5
5E3
100
AcDbEntity
  8
21814000
100
AcDbLine
 62
7
  6
CONTINUOUS
 10
-0.9469343449
 20
8.803858591
 11
-1.3893002444
 21
9.2462918753
  0
LINE
  5
5E4
100
AcDbEntity
  8
21814000
100
AcDbLine
 62
7
  6
CONTINUOUS
 10
0.7063947016
 20
7.2183461178
 11
-0.3898432974
 21
8.3147511046
  0
LINE
  5
5E5
100
AcDbEntity
  8
21814000
100
AcDbLine
 62
7
  6
CONTINUOUS
 10
-0.8954304034
 20
8.8204152257
 11
-1.3388007988
 21
9.2638531588
  0
LINE
  5
5E6
100
AcDbEntity
  8
21814000
100
AcDbLine
 62
7
  6
CONTINUOUS
 10
0.7063947016
 20
7.2864145395
 11
-0.3898432974
 21
8.3828195263
  0
LINE
  5
5E7
100
AcDbEntity
  8
21814000
100
AcDbLine
 62
7
  6
CONTINUOUS
 10
-0.8439264618
 20
8.8369718603
 11
-1.2883013532
 21
9.2814144424
  0
LINE
  5
5E8
100
AcDbEntity
  8
21814000
100
AcDbLine
 62
7
  6
CONTINUOUS
 10
0.7063947016
 20
7.3544829612
 11
-0.3898432974
 21
8.450887948
  0
LINE
  5
5E9
100
AcDbEntity
  8
21814000
100
AcDbLine
 62
7
  6
CONTINUOUS
 10
-0.7924225203
 20
8.8535284949
 11
-1.2378019076
 21
9.298975726
  0
LINE
  5
5EA
100
AcDbEntity
  8
21814000
100
AcDbLine
 62
7
  6
CONTINUOUS
 10
0.7063947016
 20
7.4225513829
 11
0.1634539679
 21
7.9655748217
  0
LINE
  5
5EB
100
AcDbEntity
  8
21814000
100
AcDbLine
 62
7
  6
CONTINUOUS
 10
0.0919429123
 20
8.0370967704
 11
-0.3898432974
 21
8.5189563697
  0
LINE
  5
5EC
100
AcDbEntity
  8
21814000
100
AcDbLine
 62
7
  6
CONTINUOUS
 10
-0.7409185787
 20
8.8700851296
 11
-1.187302462
 21
9.3165370096
  0
LINE
  5
5ED
100
AcDbEntity
  8
21814000
100
AcDbLine
 62
7
  6
CONTINUOUS
 10
-2.1629418351
 20
10.292325
 11
-2.1927229973
 21
10.3221106987
  0
LINE
  5
5EE
100
AcDbEntity
  8
21814000
100
AcDbLine
 62
7
  6
CONTINUOUS
 10
0.7063947016
 20
7.4906198046
 11
0.2686212755
 21
7.9284599158
  0
LINE
  5
5EF
100
AcDbEntity
  8
21814000
100
AcDbLine
 62
7
  6
CONTINUOUS
 10
0.0919429123
 20
8.1051651921
 11
-0.3898432974
 21
8.5870247914
  0
LINE
  5
5F0
100
AcDbEntity
  8
21814000
100
AcDbLine
 62
7
  6
CONTINUOUS
 10
-0.6894146371
 20
8.8866417642
 11
-1.1368030164
 21
9.3340982932
  0
LINE
  5
5F1
100
AcDbEntity
  8
21814000
100
AcDbLine
 62
7
  6
CONTINUOUS
 10
-2.0948837806
 20
10.292325
 11
-2.1927229973
 21
10.3901791204
  0
LINE
  5
5F2
100
AcDbEntity
  8
21814000
100
AcDbLine
 62
7
  6
CONTINUOUS
 10
0.7063947016
 20
7.5586882263
 11
0.3737885832
 21
7.8913450099
  0
LINE
  5
5F3
100
AcDbEntity
  8
21814000
100
AcDbLine
 62
7
  6
CONTINUOUS
 10
0.0919429123
 20
8.1732336138
 11
-0.3898432974
 21
8.655093213
  0
LINE
  5
5F4
100
AcDbEntity
  8
21814000
100
AcDbLine
 62
7
  6
CONTINUOUS
 10
-0.6379106956
 20
8.9031983988
 11
-1.0863035707
 21
9.3516595768
  0
LINE
  5
5F5
100
AcDbEntity
  8
21814000
100
AcDbLine
 62
7
  6
CONTINUOUS
 10
-2.026825726
 20
10.292325
 11
-2.1927229973
 21
10.4582475421
  0
LINE
  5
5F6
100
AcDbEntity
  8
21814000
100
AcDbLine
 62
7
  6
CONTINUOUS
 10
0.7063947016
 20
7.626756648
 11
0.4789558908
 21
7.854230104
  0
LINE
  5
5F7
100
AcDbEntity
  8
21814000
100
AcDbLine
 62
7
  6
CONTINUOUS
 10
0.0919429123
 20
8.2413020355
 11
-0.3898432974
 21
8.7231616347
  0
LINE
  5
5F8
100
AcDbEntity
  8
21814000
100
AcDbLine
 62
7
  6
CONTINUOUS
 10
-0.586406754
 20
8.9197550335
 11
-1.0358041251
 21
9.3692208604
  0
LINE
  5
5F9
100
AcDbEntity
  8
21814000
100
AcDbLine
 62
7
  6
CONTINUOUS
 10
-1.9587676715
 20
10.292325
 11
-2.1927229973
 21
10.5263159638
  0
LINE
  5
5FA
100
AcDbEntity
  8
21814000
100
AcDbLine
 62
7
  6
CONTINUOUS
 10
0.7063947016
 20
7.6948250696
 11
0.5841231984
 21
7.8171151981
  0
LINE
  5
5FB
100
AcDbEntity
  8
21814000
100
AcDbLine
 62
7
  6
CONTINUOUS
 10
0.0919429123
 20
8.3093704571
 11
-0.3898432974
 21
8.7912300564
  0
LINE
  5
5FC
100
AcDbEntity
  8
21814000
100
AcDbLine
 62
7
  6
CONTINUOUS
 10
-0.5349028125
 20
8.9363116681
 11
-0.9853046795
 21
9.386782144
  0
LINE
  5
5FD
100
AcDbEntity
  8
21814000
100
AcDbLine
 62
7
  6
CONTINUOUS
 10
-1.890709617
 20
10.292325
 11
-2.1927229973
 21
10.5943843854
  0
LINE
  5
5FE
100
AcDbEntity
  8
21814000
100
AcDbLine
 62
7
  6
CONTINUOUS
 10
0.7063947016
 20
7.7628934913
 11
0.6892905061
 21
7.7800002923
  0
LINE
  5
5FF
100
AcDbEntity
  8
21814000
100
AcDbLine
 62
7
  6
CONTINUOUS
 10
0.0919429123
 20
8.3774388788
 11
-0.3898432974
 21
8.8592984781
  0
LINE
  5
600
100
AcDbEntity
  8
21814000
100
AcDbLine
 62
7
  6
CONTINUOUS
 10
-0.4833988709
 20
8.9528683028
 11
-0.9348052339
 21
9.4043434276
  0
LINE
  5
601
100
AcDbEntity
  8
21814000
100
AcDbLine
 62
7
  6
CONTINUOUS
 10
-1.8226515624
 20
10.292325
 11
-2.1927229973
 21
10.6624528071
  0
LINE
  5
602
100
AcDbEntity
  8
21814000
100
AcDbLine
 62
7
  6
CONTINUOUS
 10
0.0919429123
 20
8.4455073005
 11
-0.3898432974
 21
8.9273668998
  0
LINE
  5
603
100
AcDbEntity
  8
21814000
100
AcDbLine
 62
7
  6
CONTINUOUS
 10
-0.4318949294
 20
8.9694249374
 11
-0.8843057883
 21
9.4219047112
  0
LINE
  5
604
100
AcDbEntity
  8
21814000
100
AcDbLine
 62
7
  6
CONTINUOUS
 10
-1.7545935079
 20
10.292325
 11
-2.1927229973
 21
10.7305212288
  0
LINE
  5
605
100
AcDbEntity
  8
21814000
100
AcDbLine
 62
7
  6
CONTINUOUS
 10
0.0919429123
 20
8.5135757222
 11
-0.8338063427
 21
9.4394659948
  0
LINE
  5
606
100
AcDbEntity
  8
21814000
100
AcDbLine
 62
7
  6
CONTINUOUS
 10
-1.6865354534
 20
10.292325
 11
-2.1927229973
 21
10.7985896505
  0
LINE
  5
607
100
AcDbEntity
  8
21814000
100
AcDbLine
 62
7
  6
CONTINUOUS
 10
0.0919429123
 20
8.5816441439
 11
-0.7833068971
 21
9.4570272784
  0
LINE
  5
608
100
AcDbEntity
  8
21814000
100
AcDbLine
 62
7
  6
CONTINUOUS
 10
-1.6184773988
 20
10.292325
 11
-2.1927229973
 21
10.8666580722
  0
LINE
  5
609
100
AcDbEntity
  8
21814000
100
AcDbLine
 62
7
  6
CONTINUOUS
 10
0.0919429123
 20
8.6497125656
 11
-0.7328074515
 21
9.474588562
  0
LINE
  5
60A
100
AcDbEntity
  8
21814000
100
AcDbLine
 62
7
  6
CONTINUOUS
 10
-1.5504193443
 20
10.292325
 11
-2.1927229973
 21
10.9347264939
  0
LINE
  5
60B
100
AcDbEntity
  8
21814000
100
AcDbLine
 62
7
  6
CONTINUOUS
 10
0.0919429123
 20
8.7177809873
 11
-0.6823080059
 21
9.4921498456
  0
LINE
  5
60C
100
AcDbEntity
  8
21814000
100
AcDbLine
 62
7
  6
CONTINUOUS
 10
-1.4823612897
 20
10.292325
 11
-2.1927229973
 21
11.0027949156
  0
LINE
  5
60D
100
AcDbEntity
  8
21814000
100
AcDbLine
 62
7
  6
CONTINUOUS
 10
0.0919429123
 20
8.7858494089
 11
-0.6318085602
 21
9.5097111291
  0
LINE
  5
60E
100
AcDbEntity
  8
21814000
100
AcDbLine
 62
7
  6
CONTINUOUS
 10
-1.4143032352
 20
10.292325
 11
-2.1927229973
 21
11.0708633372
  0
LINE
  5
60F
100
AcDbEntity
  8
21814000
100
AcDbLine
 62
7
  6
CONTINUOUS
 10
0.0919429123
 20
8.8539178306
 11
-0.5813091146
 21
9.5272724127
  0
LINE
  5
610
100
AcDbEntity
  8
21814000
100
AcDbLine
 62
7
  6
CONTINUOUS
 10
-1.3462451807
 20
10.292325
 11
-2.1927229973
 21
11.1389317589
  0
LINE
  5
611
100
AcDbEntity
  8
21814000
100
AcDbLine
 62
7
  6
CONTINUOUS
 10
0.0919429123
 20
8.9219862523
 11
-0.530809669
 21
9.5448336963
  0
LINE
  5
612
100
AcDbEntity
  8
21814000
100
AcDbLine
 62
7
  6
CONTINUOUS
 10
-1.2781871261
 20
10.292325
 11
-2.1927229973
 21
11.2070001806
  0
LINE
  5
613
100
AcDbEntity
  8
21814000
100
AcDbLine
 62
7
  6
CONTINUOUS
 10
0.0919429123
 20
8.990054674
 11
-0.4803102234
 21
9.5623949799
  0
LINE
  5
614
100
AcDbEntity
  8
21814000
100
AcDbLine
 62
7
  6
CONTINUOUS
 10
-1.2101290716
 20
10.292325
 11
-2.1530248595
 21
11.2353644174
  0
LINE
  5
615
100
AcDbEntity
  8
21814000
100
AcDbLine
 62
7
  6
CONTINUOUS
 10
0.0919429123
 20
9.0581230957
 11
-0.4298107778
 21
9.5799562635
  0
LINE
  5
616
100
AcDbEntity
  8
21814000
100
AcDbLine
 62
7
  6
CONTINUOUS
 10
-1.1420710171
 20
10.292325
 11
-2.1071703233
 21
11.2575713179
  0
LWPOLYLINE
  5
617
100
AcDbEntity
  8
21814000
100
AcDbPolyline
 62
250
  6
CONTINUOUS
 90
7
 70
0
 10
16.9022427329
 20
-11.6992440817
 10
16.9045985921
 20
-11.7023272115
 10
16.9230702124
 20
-11.7244220824
 10
16.9424675614
 20
-11.7464731915
 10
16.9626588891
 20
-11.7685827174
 10
16.9837759454
 20
-11.7906484815
 10
17.0058187304
 20
-11.8126704839
  0
LINE
  5
618
100
AcDbEntity
  8
RACCORDO
100
AcDbLine
 62
250
  6
CONTINUOUS
 10
-5.7936052984
 20
-23.4113248654
 11
-5.6686052984
 21
-23.1948185145
  0
LINE
  5
619
100
AcDbEntity
  8
RACCORDO
100
AcDbLine
 62
250
  6
CONTINUOUS
 10
-5.0436052984
 20
-23.8443375673
 11
-4.9186052984
 21
-23.6278312164
  0
LINE
  5
61A
100
AcDbEntity
  8
21814000
100
AcDbLine
 62
250
  6
CONTINUOUS
 10
-0.4146287458
 20
-7.285246
 11
-1.2899010684
 21
-7.56635
  0
LINE
  5
61B
100
AcDbEntity
  8
21814000
100
AcDbLine
 62
250
  6
CONTINUOUS
 10
0.7063797061
 20
-6.925211
 11
0.1362254204
 21
-7.108317
  0
LWPOLYLINE
  5
61C
100
AcDbEntity
  8
21814000
100
AcDbPolyline
 62
7
  6
CONTINUOUS
 90
76
 70
0
 10
16.1770598981
 20
11.2028950204
 10
16.2663181378
 20
11.2254230122
 10
16.3531244157
 20
11.247829144
 10
16.4374787316
 20
11.2701134158
 10
16.5193246157
 20
11.2922635442
 10
16.5987185379
 20
11.3142918126
 10
16.6758299081
 20
11.336235071
 10
16.7506685723
 20
11.358092629
 10
16.8232246846
 20
11.3798651769
 10
16.8936381163
 20
11.4015916369
 10
16.9619158679
 20
11.4232697142
 10
17.0280509389
 20
11.4449017036
 10
17.0921621993
 20
11.4665334103
 10
17.1542579293
 20
11.4881614482
 10
17.2143298487
 20
11.5097892036
 10
17.2724719875
 20
11.5314726408
 10
17.328695123
 20
11.5532067302
 10
17.3829884778
 20
11.5749965015
 10
17.435413749
 20
11.5969130085
 10
17.4859863397
 20
11.6189486026
 10
17.5346908469
 20
11.6411109324
 10
17.5815427586
 20
11.6634939972
 10
17.6265682204
 20
11.6860871682
 10
17.6697410868
 20
11.7089010741
 10
17.7109984092
 20
11.7320616006
 10
17.7503844501
 20
11.7555533475
 10
17.787854947
 20
11.779391715
 10
17.8232141633
 20
11.8037487887
 10
17.8565613814
 20
11.8286355275
 10
17.8877973188
 20
11.8540409725
 10
17.9164283925
 20
11.8801043331
 10
17.942564201
 20
11.9069152612
 10
17.9660951457
 20
11.9343841049
 10
17.9861988469
 20
11.9623811173
 10
18.0028080025
 20
11.9909497184
 10
18.0159899147
 20
12.0200464882
 10
18.0251241104
 20
12.0494114199
 10
18.030053345
 20
12.0790632164
 10
18.0309348631
 20
12.1089831747
 10
18.0276199259
 20
12.1388551798
 10
18.019870352
 20
12.1687345934
 10
18.0079243228
 20
12.1985660538
 10
17.9923476438
 20
12.2278673598
 10
17.9730306195
 20
12.2565351293
 10
17.9500829454
 20
12.2846727445
 10
17.9243995141
 20
12.3121081509
 10
17.8960957047
 20
12.3387351299
 10
17.8650561381
 20
12.3646599002
 10
17.8318295698
 20
12.3900290628
 10
17.7965229455
 20
12.4148310199
 10
17.7590293195
 20
12.4390773693
 10
17.7195766114
 20
12.4629495061
 10
17.6782156638
 20
12.4864628193
 10
17.6348956341
 20
12.5096019199
 10
17.5896919128
 20
12.5325020355
 10
17.542632396
 20
12.5551751133
 10
17.4936891876
 20
12.5776092061
 10
17.4428539901
 20
12.5999036995
 10
17.3901443918
 20
12.6220664864
 10
17.3355428044
 20
12.6440896739
 10
17.2789881656
 20
12.6660489692
 10
17.2204884665
 20
12.6879509695
 10
17.160035716
 20
12.7097890776
 10
17.0975448788
 20
12.7316192085
 10
17.0330219106
 20
12.7534454917
 10
16.9664608556
 20
12.7752637976
 10
16.8977588116
 20
12.7971176526
 10
16.8269310493
 20
12.8190069651
 10
16.7539622981
 20
12.8409318265
 10
16.6787038436
 20
12.8629360374
 10
16.6011656082
 20
12.8850212997
 10
16.5213376695
 20
12.9071859114
 10
16.4390415459
 20
12.9294685671
 10
16.3542177435
 20
12.9518821651
 10
16.2669257561
 20
12.9744138071
 10
16.1771655838
 20
12.9970634931
  0
LINE
  5
61D
100
AcDbEntity
  8
21814000
100
AcDbLine
 62
7
  6
CONTINUOUS
 10
17.1802479788
 20
9.0239590572
 11
18.9325414244
 21
9.1772648689
  0
LINE
  5
61E
100
AcDbEntity
  8
ASSI
100
AcDbLine
 62
7
  6
CONTINUOUS
 10
-4.7936052984
 20
6.505494
 11
-4.5936052984
 21
6.505494
  0
LINE
  5
61F
100
AcDbEntity
  8
21814000
100
AcDbLine
 62
250
  6
CONTINUOUS
 10
0.2246084919
 20
6.866738
 11
0.7063947016
 21
6.866738
  0
LINE
  5
620
100
AcDbEntity
  8
ASSI
100
AcDbLine
 62
7
  6
CONTINUOUS
 10
-4.7936052984
 20
7.005519
 11
-4.5936052984
 21
7.005519
  0
LINE
  5
621
100
AcDbEntity
  8
21814000
100
AcDbLine
 62
7
  6
CONTINUOUS
 10
16.9063947016
 20
7.1574468091
 11
17.1063947016
 21
7.1574468091
  0
LINE
  5
622
100
AcDbEntity
  8
ASSI
100
AcDbLine
 62
7
  6
CONTINUOUS
 10
-4.7936052984
 20
7.163369
 11
-4.5936052984
 21
7.163369
  0
LINE
  5
623
100
AcDbEntity
  8
21814000
100
AcDbLine
 62
7
  6
CONTINUOUS
 10
16.9063947016
 20
7.4
 11
17.1063947016
 21
7.4
  0
LINE
  5
624
100
AcDbEntity
  8
ASSI
100
AcDbLine
 62
7
  6
CONTINUOUS
 10
-4.7936052984
 20
7.953062
 11
-4.5936052984
 21
7.953062
  0
LINE
  5
625
100
AcDbEntity
  8
ASSI
100
AcDbLine
 62
7
  6
CONTINUOUS
 10
-4.7936052984
 20
8.110919
 11
-4.5936052984
 21
8.110919
  0
LWPOLYLINE
  5
626
100
AcDbEntity
  8
21814000
100
AcDbPolyline
 62
250
  6
CONTINUOUS
 90
73
 70
0
 10
17.1721083599
 20
2.5958244913
 10
17.2579730174
 20
2.572137859
 10
17.3412364315
 20
2.5486162404
 10
17.4218986022
 20
2.5252596354
 10
17.499881836
 20
2.502084921
 10
17.5752638264
 20
2.4790752202
 10
17.6482776537
 20
2.4561799021
 10
17.7189276071
 20
2.433403591
 10
17.7872093973
 20
2.4107416626
 10
17.8533432371
 20
2.3881296122
 10
17.9173390225
 20
2.3655724591
 10
17.9791868574
 20
2.3430651841
 10
18.0390772671
 20
2.3205282246
 10
18.0970361689
 20
2.2979626536
 10
18.1530376455
 20
2.2753673982
 10
18.2071944705
 20
2.2526596771
 10
18.2595146914
 20
2.2298524984
 10
18.3099902607
 20
2.2069328539
 10
18.3587098092
 20
2.1837789386
 10
18.4057032788
 20
2.1604043457
 10
18.4509407276
 20
2.136795482
 10
18.4944209602
 20
2.1127897621
 10
18.5362311327
 20
2.0883747619
 10
18.5762840891
 20
2.0635629057
 10
18.6143171658
 20
2.0382288806
 10
18.650377237
 20
2.0123990139
 10
18.6844174285
 20
1.9860469783
 10
18.716034454
 20
1.9589684798
 10
18.745377918
 20
1.931071942
 10
18.772298216
 20
1.9024489413
 10
18.7959432485
 20
1.8731699117
 10
18.8162804323
 20
1.8430074491
 10
18.8333423506
 20
1.8121889577
 10
18.8463746531
 20
1.7814670841
 10
18.8551241693
 20
1.751169935
 10
18.8598440698
 20
1.7209694038
 10
18.8605395157
 20
1.6906338167
 10
18.8572057503
 20
1.6600191721
 10
18.8498475303
 20
1.6292694718
 10
18.8384842875
 20
1.5985850475
 10
18.8228530455
 20
1.5678361853
 10
18.8032167806
 20
1.5371525992
 10
18.7803838545
 20
1.5071237626
 10
18.7543577847
 20
1.4779356346
 10
18.7251350535
 20
1.4494022562
 10
18.69351347
 20
1.4215552227
 10
18.6596221161
 20
1.3944615517
 10
18.6233319098
 20
1.3680542258
 10
18.5850534135
 20
1.3421637878
 10
18.5448117623
 20
1.3167621228
 10
18.5025818211
 20
1.2918773459
 10
18.4586987471
 20
1.267424345
 10
18.4131903431
 20
1.2433966941
 10
18.3660288063
 20
1.2198008193
 10
18.3174658853
 20
1.1965708871
 10
18.2675399218
 20
1.1737093885
 10
18.2162125741
 20
1.1512138325
 10
18.1636205651
 20
1.1290109125
 10
18.1099579371
 20
1.1071564148
 10
18.0550306478
 20
1.085594553
 10
17.9983932932
 20
1.0640846622
 10
17.9399266674
 20
1.04256318
 10
17.8797499762
 20
1.0210936686
 10
17.8177754338
 20
0.9996261498
 10
17.7540174315
 20
0.9781601247
 10
17.6884615779
 20
0.956696092
 10
17.6209769125
 20
0.9351855702
 10
17.5516380629
 20
0.9136447579
 10
17.4803704015
 20
0.8920574565
 10
17.4068190848
 20
0.8703265887
 10
17.3308658318
 20
0.8484197952
 10
17.2526289235
 20
0.8263694352
 10
17.1721083599
 20
0.8041755087
  0
LWPOLYLINE
  5
627
100
AcDbEntity
  8
21814000
100
AcDbPolyline
 62
250
  6
CONTINUOUS
 90
73
 70
0
 10
17.1802479788
 20
2.6258073286
 10
17.2661117113
 20
2.6013961657
 10
17.3493744539
 20
2.5771566844
 10
17.4300362064
 20
2.5530855632
 10
17.5080193595
 20
2.5291935035
 10
17.5834015226
 20
2.5054629728
 10
17.656415524
 20
2.4818487058
 10
17.7270655682
 20
2.4583530678
 10
17.7953474507
 20
2.4349677055
 10
17.8614813866
 20
2.4116321177
 10
17.925477275
 20
2.3883493845
 10
17.9873252168
 20
2.365111163
 10
18.0472157299
 20
2.3418405946
 10
18.1051747251
 20
2.3185368968
 10
18.1611762916
 20
2.2951962497
 10
18.2153332154
 20
2.2717378259
 10
18.2676535451
 20
2.2481732431
 10
18.318129232
 20
2.2244866324
 10
18.366848916
 20
2.2005563494
 10
18.4138425486
 20
2.1763946737
 10
18.4590801783
 20
2.151985447
 10
18.5025605904
 20
2.1271645797
 10
18.5443709369
 20
2.1019170794
 10
18.5844240658
 20
2.0762542041
 10
18.6224573072
 20
2.0500507045
 10
18.6585175169
 20
2.0233302935
 10
18.692557839
 20
1.9960644036
 10
18.7241750353
 20
1.9680478724
 10
18.7535189057
 20
1.9391807531
 10
18.7804396503
 20
1.9095565557
 10
18.8040846317
 20
1.8792571508
 10
18.8244207241
 20
1.8480382739
 10
18.8414810533
 20
1.8161330487
 10
18.8545123591
 20
1.7843350028
 10
18.8632621956
 20
1.7529743356
 10
18.8679830087
 20
1.721704925
 10
18.8686788752
 20
1.6903036376
 10
18.865344179
 20
1.6586138495
 10
18.8579845363
 20
1.6267767344
 10
18.8466208729
 20
1.595015931
 10
18.8309913679
 20
1.5631906915
 10
18.8113578423
 20
1.5314259943
 10
18.7885266849
 20
1.5003464711
 10
18.7625003374
 20
1.4701428506
 10
18.7332763582
 20
1.4406137817
 10
18.7016538109
 20
1.4118001817
 10
18.6677623182
 20
1.3837698608
 10
18.6314722574
 20
1.3564486856
 10
18.5931938237
 20
1.3296676779
 10
18.5529519843
 20
1.3033967949
 10
18.510721772
 20
1.2776613764
 10
18.466838481
 20
1.2523771953
 10
18.4213299845
 20
1.2275366243
 10
18.3741684094
 20
1.2031439629
 10
18.3256054299
 20
1.1791341039
 10
18.2756793694
 20
1.1555089669
 10
18.2243519046
 20
1.1322642523
 10
18.1717597391
 20
1.1093262759
 10
18.1180968678
 20
1.086751254
 10
18.0631692958
 20
1.064481223
 10
18.0065317425
 20
1.0422705984
 10
17.948065083
 20
1.0200510964
 10
17.8878884423
 20
0.9978871176
 10
17.8259139134
 20
0.9757310843
 10
17.762155838
 20
0.9535802202
 10
17.6965998744
 20
0.9314333444
 10
17.6291150917
 20
0.909244885
 10
17.5597760441
 20
0.8870288043
 10
17.4885081772
 20
0.8647668765
 10
17.4149568967
 20
0.8423643845
 10
17.3390040044
 20
0.8197876252
 10
17.2607676984
 20
0.7970646306
 10
17.1802479788
 20
0.7741926714
  0
LINE
  5
628
100
AcDbEntity
  8
21814000
100
AcDbLine
 62
250
  6
CONTINUOUS
 10
-0.3898432974
 20
8.151456
 11
-1.6387317869
 21
8.581471
  0
LINE
  5
629
100
AcDbEntity
  8
21814000
100
AcDbLine
 62
250
  6
CONTINUOUS
 10
0.7063947016
 20
7.773964
 11
0.0919429123
 21
7.990812
  0
LINE
  5
62A
100
AcDbEntity
  8
21814000
100
AcDbLine
 62
250
  6
CONTINUOUS
 10
-2.1927229973
 20
8.227849
 11
0.7063947016
 21
7.179514
  0
LINE
  5
62B
100
AcDbEntity
  8
21814000
100
AcDbLine
 62
7
  6
CONTINUOUS
 10
0.0919429123
 20
9.1261915174
 11
-0.3793113322
 21
9.5975175471
  0
LINE
  5
62C
100
AcDbEntity
  8
21814000
100
AcDbLine
 62
7
  6
CONTINUOUS
 10
-1.0740129625
 20
10.292325
 11
-1.6563692533
 21
10.87477
  0
LINE
  5
62D
100
AcDbEntity
  8
21814000
100
AcDbLine
 62
7
  6
CONTINUOUS
 10
-1.6768517909
 20
10.8952556576
 11
-2.0613157871
 21
11.2797782185
  0
LINE
  5
62E
100
AcDbEntity
  8
21814000
100
AcDbLine
 62
7
  6
CONTINUOUS
 10
0.1327688976
 20
9.1534277348
 11
-0.3288118866
 21
9.6150788307
  0
LINE
  5
62F
100
AcDbEntity
  8
21814000
100
AcDbLine
 62
7
  6
CONTINUOUS
 10
-1.005954908
 20
10.292325
 11
-1.5883111988
 21
10.87477
  0
LINE
  5
630
100
AcDbEntity
  8
21814000
100
AcDbLine
 62
7
  6
CONTINUOUS
 10
-1.630711732
 20
10.917176992
 11
-2.0154612509
 21
11.3019851191
  0
LINE
  5
631
100
AcDbEntity
  8
21814000
100
AcDbLine
 62
7
  6
CONTINUOUS
 10
0.183562403
 20
9.1706949138
 11
-0.278312441
 21
9.6326401143
  0
LINE
  5
632
100
AcDbEntity
  8
21814000
100
AcDbLine
 62
7
  6
CONTINUOUS
 10
-0.9378968535
 20
10.292325
 11
-1.5202531443
 21
10.87477
  0
LINE
  5
633
100
AcDbEntity
  8
21814000
100
AcDbLine
 62
7
  6
CONTINUOUS
 10
-1.584571673
 20
10.9390983263
 11
-1.9696067147
 21
11.3241920196
  0
LINE
  5
634
100
AcDbEntity
  8
21814000
100
AcDbLine
 62
7
  6
CONTINUOUS
 10
0.2343559085
 20
9.1879620928
 11
-0.2278129954
 21
9.6502013979
  0
LINE
  5
635
100
AcDbEntity
  8
21814000
100
AcDbLine
 62
7
  6
CONTINUOUS
 10
-0.8698387989
 20
10.292325
 11
-1.4521950897
 21
10.87477
  0
LINE
  5
636
100
AcDbEntity
  8
21814000
100
AcDbLine
 62
7
  6
CONTINUOUS
 10
-1.5384316141
 20
10.9610196606
 11
-1.9237521785
 21
11.3463989202
  0
LINE
  5
637
100
AcDbEntity
  8
21814000
100
AcDbLine
 62
7
  6
CONTINUOUS
 10
0.285149414
 20
9.2052292717
 11
-0.1773135497
 21
9.6677626815
  0
LINE
  5
638
100
AcDbEntity
  8
21814000
100
AcDbLine
 62
7
  6
CONTINUOUS
 10
-0.8017807444
 20
10.292325
 11
-1.3841370352
 21
10.87477
  0
LINE
  5
639
100
AcDbEntity
  8
21814000
100
AcDbLine
 62
7
  6
CONTINUOUS
 10
-1.4922915552
 20
10.9829409949
 11
-1.8778976423
 21
11.3686058207
  0
LINE
  5
63A
100
AcDbEntity
  8
21814000
100
AcDbLine
 62
7
  6
CONTINUOUS
 10
0.3359429194
 20
9.2224964507
 11
-0.1268141041
 21
9.6853239651
  0
LINE
  5
63B
100
AcDbEntity
  8
21814000
100
AcDbLine
 62
7
  6
CONTINUOUS
 10
-0.7337226899
 20
10.292325
 11
-1.3160789807
 21
10.87477
  0
LINE
  5
63C
100
AcDbEntity
  8
21814000
100
AcDbLine
 62
7
  6
CONTINUOUS
 10
-1.4461514962
 20
11.0048623293
 11
-1.8320431061
 21
11.3908127213
  0
LINE
  5
63D
100
AcDbEntity
  8
21814000
100
AcDbLine
 62
7
  6
CONTINUOUS
 10
0.3867364249
 20
9.2397636296
 11
-0.0763146585
 21
9.7028852487
  0
LINE
  5
63E
100
AcDbEntity
  8
21814000
100
AcDbLine
 62
7
  6
CONTINUOUS
 10
-0.6656646353
 20
10.292325
 11
-1.2480209261
 21
10.87477
  0
LINE
  5
63F
100
AcDbEntity
  8
21814000
100
AcDbLine
 62
7
  6
CONTINUOUS
 10
-1.4000114373
 20
11.0267836636
 11
-1.7861885699
 21
11.4130196218
  0
LINE
  5
640
100
AcDbEntity
  8
21814000
100
AcDbLine
 62
7
  6
CONTINUOUS
 10
0.4375299303
 20
9.2570308086
 11
-0.0258152129
 21
9.7204465323
  0
LINE
  5
641
100
AcDbEntity
  8
21814000
100
AcDbLine
 62
7
  6
CONTINUOUS
 10
-0.5976065808
 20
10.292325
 11
-1.1799628716
 21
10.87477
  0
LINE
  5
642
100
AcDbEntity
  8
21814000
100
AcDbLine
 62
7
  6
CONTINUOUS
 10
-1.3538713783
 20
11.0487049979
 11
-1.7403340337
 21
11.4352265224
  0
LINE
  5
643
100
AcDbEntity
  8
21814000
100
AcDbLine
 62
7
  6
CONTINUOUS
 10
0.4883234358
 20
9.2742979875
 11
0.0246842327
 21
9.7380078159
  0
LINE
  5
644
100
AcDbEntity
  8
21814000
100
AcDbLine
 62
7
  6
CONTINUOUS
 10
-0.5295485262
 20
10.292325
 11
-1.111904817
 21
10.87477
  0
LINE
  5
645
100
AcDbEntity
  8
21814000
100
AcDbLine
 62
7
  6
CONTINUOUS
 10
-1.3077313194
 20
11.0706263322
 11
-1.6944794975
 21
11.4574334229
  0
LINE
  5
646
100
AcDbEntity
  8
21814000
100
AcDbLine
 62
7
  6
CONTINUOUS
 10
0.5391169412
 20
9.2915651665
 11
0.0751836783
 21
9.7555690995
  0
LINE
  5
647
100
AcDbEntity
  8
21814000
100
AcDbLine
 62
7
  6
CONTINUOUS
 10
-0.4614904717
 20
10.292325
 11
-1.0438467625
 21
10.87477
  0
LINE
  5
648
100
AcDbEntity
  8
21814000
100
AcDbLine
 62
7
  6
CONTINUOUS
 10
-1.2615912605
 20
11.0925476665
 11
-1.6486249613
 21
11.4796403235
  0
LINE
  5
649
100
AcDbEntity
  8
21814000
100
AcDbLine
 62
7
  6
CONTINUOUS
 10
0.5899104467
 20
9.3088323455
 11
0.1256831239
 21
9.773130383
  0
LINE
  5
64A
100
AcDbEntity
  8
21814000
100
AcDbLine
 62
7
  6
CONTINUOUS
 10
-0.3934324172
 20
10.292325
 11
-0.975788708
 21
10.87477
  0
LINE
  5
64B
100
AcDbEntity
  8
21814000
100
AcDbLine
 62
7
  6
CONTINUOUS
 10
-1.2154512015
 20
11.1144690009
 11
-1.6027704251
 21
11.501847224
  0
LINE
  5
64C
100
AcDbEntity
  8
21814000
100
AcDbLine
 62
7
  6
CONTINUOUS
 10
0.6407039521
 20
9.3260995244
 11
0.1761825695
 21
9.7906916666
  0
LINE
  5
64D
100
AcDbEntity
  8
21814000
100
AcDbLine
 62
7
  6
CONTINUOUS
 10
-0.3253743626
 20
10.292325
 11
-0.9077306534
 21
10.87477
  0
LINE
  5
64E
100
AcDbEntity
  8
21814000
100
AcDbLine
 62
7
  6
CONTINUOUS
 10
-1.1693111426
 20
11.1363903352
 11
-1.5569158889
 21
11.5240541246
  0
LINE
  5
64F
100
AcDbEntity
  8
21814000
100
AcDbLine
 62
7
  6
CONTINUOUS
 10
0.6914974576
 20
9.3433667034
 11
0.2266820152
 21
9.8082529502
  0
LINE
  5
650
100
AcDbEntity
  8
21814000
100
AcDbLine
 62
7
  6
CONTINUOUS
 10
-0.2573163081
 20
10.292325
 11
-0.8396725989
 21
10.87477
  0
LINE
  5
651
100
AcDbEntity
  8
21814000
100
AcDbLine
 62
7
  6
CONTINUOUS
 10
-1.1231710836
 20
11.1583116695
 11
-1.5110613527
 21
11.5462610251
  0
LINE
  5
652
100
AcDbEntity
  8
21814000
100
AcDbLine
 62
7
  6
CONTINUOUS
 10
0.7063947016
 20
9.3965356118
 11
0.2771814608
 21
9.8258142338
  0
LINE
  5
653
100
AcDbEntity
  8
21814000
100
AcDbLine
 62
7
  6
CONTINUOUS
 10
-0.1892582536
 20
10.292325
 11
-0.7716145444
 21
10.87477
  0
LINE
  5
654
100
AcDbEntity
  8
21814000
100
AcDbLine
 62
7
  6
CONTINUOUS
 10
-1.0770310247
 20
11.1802330038
 11
-1.4652068165
 21
11.5684679257
  0
LINE
  5
655
100
AcDbEntity
  8
21814000
100
AcDbLine
 62
7
  6
CONTINUOUS
 10
0.7063947016
 20
9.4646040335
 11
0.3276809064
 21
9.8433755174
  0
LINE
  5
656
100
AcDbEntity
  8
21814000
100
AcDbLine
 62
7
  6
CONTINUOUS
 10
-0.121200199
 20
10.292325
 11
-0.7035564898
 21
10.87477
  0
LINE
  5
657
100
AcDbEntity
  8
21814000
100
AcDbLine
 62
7
  6
CONTINUOUS
 10
-1.0308909658
 20
11.2021543382
 11
-1.4193522803
 21
11.5906748262
  0
LINE
  5
658
100
AcDbEntity
  8
21814000
100
AcDbLine
 62
7
  6
CONTINUOUS
 10
-2.157319041
 20
12.328754
 11
-2.1927229973
 21
12.3641633493
  0
LINE
  5
659
100
AcDbEntity
  8
21814000
100
AcDbLine
 62
7
  6
CONTINUOUS
 10
0.7063947016
 20
9.5326724552
 11
0.378180352
 21
9.860936801
  0
LINE
  5
65A
100
AcDbEntity
  8
21814000
100
AcDbLine
 62
7
  6
CONTINUOUS
 10
-0.0531421445
 20
10.292325
 11
-0.6354984353
 21
10.87477
  0
LINE
  5
65B
100
AcDbEntity
  8
21814000
100
AcDbLine
 62
7
  6
CONTINUOUS
 10
-0.9847509068
 20
11.2240756725
 11
-1.3734977441
 21
11.6128817268
  0
LINE
  5
65C
100
AcDbEntity
  8
21814000
100
AcDbLine
 62
7
  6
CONTINUOUS
 10
-2.0892609865
 20
12.328754
 11
-2.1927229973
 21
12.432231771
  0
LINE
  5
65D
100
AcDbEntity
  8
21814000
100
AcDbLine
 62
7
  6
CONTINUOUS
 10
0.7063947016
 20
9.6007408769
 11
0.4286797976
 21
9.8784980846
  0
LINE
  5
65E
100
AcDbEntity
  8
21814000
100
AcDbLine
 62
7
  6
CONTINUOUS
 10
0.01491591
 20
10.292325
 11
-0.5674403808
 21
10.87477
  0
LINE
  5
65F
100
AcDbEntity
  8
21814000
100
AcDbLine
 62
7
  6
CONTINUOUS
 10
-0.9386108479
 20
11.2459970068
 11
-1.3276432079
 21
11.6350886274
  0
LINE
  5
660
100
AcDbEntity
  8
21814000
100
AcDbLine
 62
7
  6
CONTINUOUS
 10
-2.021202932
 20
12.328754
 11
-2.1927229973
 21
12.5003001927
  0
LINE
  5
661
100
AcDbEntity
  8
21814000
100
AcDbLine
 62
7
  6
CONTINUOUS
 10
0.7063947016
 20
9.6688092985
 11
0.4791792432
 21
9.8960593682
  0
LINE
  5
662
100
AcDbEntity
  8
21814000
100
AcDbLine
 62
7
  6
CONTINUOUS
 10
0.0829739646
 20
10.292325
 11
-0.4993823262
 21
10.87477
  0
LINE
  5
663
100
AcDbEntity
  8
21814000
100
AcDbLine
 62
7
  6
CONTINUOUS
 10
-0.8924707889
 20
11.2679183411
 11
-1.2817886717
 21
11.6572955279
  0
LINE
  5
664
100
AcDbEntity
  8
21814000
100
AcDbLine
 62
7
  6
CONTINUOUS
 10
-1.9531448774
 20
12.328754
 11
-2.1927229973
 21
12.5683686143
  0
LINE
  5
665
100
AcDbEntity
  8
21814000
100
AcDbLine
 62
7
  6
CONTINUOUS
 10
0.7063947016
 20
9.7368777202
 11
0.5296786888
 21
9.9136206518
  0
LINE
  5
666
100
AcDbEntity
  8
21814000
100
AcDbLine
 62
7
  6
CONTINUOUS
 10
0.1510320191
 20
10.292325
 11
-0.4313242717
 21
10.87477
  0
LINE
  5
667
100
AcDbEntity
  8
21814000
100
AcDbLine
 62
7
  6
CONTINUOUS
 10
-0.84633073
 20
11.2898396754
 11
-1.2359341355
 21
11.6795024285
  0
LINE
  5
668
100
AcDbEntity
  8
21814000
100
AcDbLine
 62
7
  6
CONTINUOUS
 10
-1.8850868229
 20
12.328754
 11
-2.1927229973
 21
12.636437036
  0
LINE
  5
669
100
AcDbEntity
  8
21814000
100
AcDbLine
 62
7
  6
CONTINUOUS
 10
0.7063947016
 20
9.8049461419
 11
0.5801781344
 21
9.9311819354
  0
LINE
  5
66A
100
AcDbEntity
  8
21814000
100
AcDbLine
 62
7
  6
CONTINUOUS
 10
0.2190900737
 20
10.292325
 11
-0.3632662172
 21
10.87477
  0
LINE
  5
66B
100
AcDbEntity
  8
21814000
100
AcDbLine
 62
7
  6
CONTINUOUS
 10
-0.8001906711
 20
11.3117610098
 11
-1.1900795993
 21
11.701709329
  0
LINE
  5
66C
100
AcDbEntity
  8
21814000
100
AcDbLine
 62
7
  6
CONTINUOUS
 10
-1.8170287683
 20
12.328754
 11
-2.1927229973
 21
12.7045054577
  0
LINE
  5
66D
100
AcDbEntity
  8
21814000
100
AcDbLine
 62
7
  6
CONTINUOUS
 10
0.7063947016
 20
9.8730145636
 11
0.63067758
 21
9.948743219
  0
LINE
  5
66E
100
AcDbEntity
  8
21814000
100
AcDbLine
 62
7
  6
CONTINUOUS
 10
0.2871481282
 20
10.292325
 11
-0.2952081626
 21
10.87477
  0
LINE
  5
66F
100
AcDbEntity
  8
21814000
100
AcDbLine
 62
7
  6
CONTINUOUS
 10
-0.7540506121
 20
11.3336823441
 11
-1.1442250631
 21
11.7239162296
  0
LINE
  5
670
100
AcDbEntity
  8
21814000
100
AcDbLine
 62
7
  6
CONTINUOUS
 10
-1.7489707138
 20
12.328754
 11
-2.1927229973
 21
12.7725738794
  0
LINE
  5
671
100
AcDbEntity
  8
21814000
100
AcDbLine
 62
7
  6
CONTINUOUS
 10
0.7063947016
 20
9.9410829853
 11
0.6811770257
 21
9.9663045026
  0
LINE
  5
672
100
AcDbEntity
  8
21814000
100
AcDbLine
 62
7
  6
CONTINUOUS
 10
0.3552061827
 20
10.292325
 11
-0.2271501081
 21
10.87477
  0
LINE
  5
673
100
AcDbEntity
  8
21814000
100
AcDbLine
 62
7
  6
CONTINUOUS
 10
-0.7079105532
 20
11.3556036784
 11
-1.0983705269
 21
11.7461231301
  0
LINE
  5
674
100
AcDbEntity
  8
21814000
100
AcDbLine
 62
7
  6
CONTINUOUS
 10
-1.6809126593
 20
12.328754
 11
-2.1927229973
 21
12.8406423011
  0
LINE
  5
675
100
AcDbEntity
  8
21814000
100
AcDbLine
 62
7
  6
CONTINUOUS
 10
0.4232642373
 20
10.292325
 11
-0.1590920535
 21
10.87477
  0
LINE
  5
676
100
AcDbEntity
  8
21814000
100
AcDbLine
 62
7
  6
CONTINUOUS
 10
-0.6617704942
 20
11.3775250127
 11
-1.0525159907
 21
11.7683300307
  0
LINE
  5
677
100
AcDbEntity
  8
21814000
100
AcDbLine
 62
7
  6
CONTINUOUS
 10
-1.6128546047
 20
12.328754
 11
-2.1927229973
 21
12.9087107228
  0
LINE
  5
678
100
AcDbEntity
  8
21814000
100
AcDbLine
 62
7
  6
CONTINUOUS
 10
0.4913222918
 20
10.292325
 11
-0.091033999
 21
10.87477
  0
LINE
  5
679
100
AcDbEntity
  8
21814000
100
AcDbLine
 62
7
  6
CONTINUOUS
 10
-0.6156304353
 20
11.399446347
 11
-1.0066614545
 21
11.7905369312
  0
LINE
  5
67A
100
AcDbEntity
  8
21814000
100
AcDbLine
 62
7
  6
CONTINUOUS
 10
-1.5447965502
 20
12.328754
 11
-2.1271518412
 21
12.911198
  0
LINE
  5
67B
100
AcDbEntity
  8
21814000
100
AcDbLine
 62
7
  6
CONTINUOUS
 10
0.5593803463
 20
10.292325
 11
-0.0229759445
 21
10.87477
  0
LINE
  5
67C
100
AcDbEntity
  8
21814000
100
AcDbLine
 62
7
  6
CONTINUOUS
 10
-0.5694903764
 20
11.4213676814
 11
-0.9608069183
 21
11.8127438318
  0
LINE
  5
67D
100
AcDbEntity
  8
21814000
100
AcDbLine
 62
7
  6
CONTINUOUS
 10
-1.4767384957
 20
12.328754
 11
-2.0590937866
 21
12.911198
  0
LINE
  5
67E
100
AcDbEntity
  8
21814000
100
AcDbLine
 62
7
  6
CONTINUOUS
 10
0.6274384009
 20
10.292325
 11
0.0450821101
 21
10.87477
  0
LINE
  5
67F
100
AcDbEntity
  8
21814000
100
AcDbLine
 62
7
  6
CONTINUOUS
 10
-0.5233503174
 20
11.4432890157
 11
-0.9149523821
 21
11.8349507323
  0
LINE
  5
680
100
AcDbEntity
  8
21814000
100
AcDbLine
 62
7
  6
CONTINUOUS
 10
-1.4086804411
 20
12.328754
 11
-1.9910357321
 21
12.911198
  0
LINE
  5
681
100
AcDbEntity
  8
21814000
100
AcDbLine
 62
7
  6
CONTINUOUS
 10
0.6954964554
 20
10.292325
 11
0.1131401646
 21
10.87477
  0
LINE
  5
682
100
AcDbEntity
  8
21814000
100
AcDbLine
 62
7
  6
CONTINUOUS
 10
-0.4772102585
 20
11.46521035
 11
-0.8690978459
 21
11.8571576329
  0
LINE
  5
683
100
AcDbEntity
  8
21814000
100
AcDbLine
 62
7
  6
CONTINUOUS
 10
-1.3406223866
 20
12.328754
 11
-1.9229776776
 21
12.911198
  0
LINE
  5
684
100
AcDbEntity
  8
21814000
100
AcDbLine
 62
7
  6
CONTINUOUS
 10
0.7063947016
 20
10.3494935154
 11
0.1811982191
 21
10.87477
  0
LINE
  5
685
100
AcDbEntity
  8
21814000
100
AcDbLine
 62
7
  6
CONTINUOUS
 10
-0.4310701995
 20
11.4871316843
 11
-0.8232433097
 21
11.8793645334
  0
LINE
  5
686
100
AcDbEntity
  8
21814000
100
AcDbLine
 62
7
  6
CONTINUOUS
 10
-1.2725643321
 20
12.328754
 11
-1.854919623
 21
12.911198
  0
LINE
  5
687
100
AcDbEntity
  8
21814000
100
AcDbLine
 62
7
  6
CONTINUOUS
 10
0.7063947016
 20
10.4175619371
 11
0.2492562737
 21
10.87477
  0
LINE
  5
688
100
AcDbEntity
  8
21814000
100
AcDbLine
 62
7
  6
CONTINUOUS
 10
-0.3849301406
 20
11.5090530187
 11
-0.7773887735
 21
11.901571434
  0
LINE
  5
689
100
AcDbEntity
  8
21814000
100
AcDbLine
 62
7
  6
CONTINUOUS
 10
-1.2045062775
 20
12.328754
 11
-1.7868615685
 21
12.911198
  0
LINE
  5
68A
100
AcDbEntity
  8
21814000
100
AcDbLine
 62
7
  6
CONTINUOUS
 10
0.7063947016
 20
10.4856303588
 11
0.3173143282
 21
10.87477
  0
LINE
  5
68B
100
AcDbEntity
  8
21814000
100
AcDbLine
 62
7
  6
CONTINUOUS
 10
-0.3387900817
 20
11.530974353
 11
-0.7315342373
 21
11.9237783346
  0
LINE
  5
68C
100
AcDbEntity
  8
21814000
100
AcDbLine
 62
7
  6
CONTINUOUS
 10
-1.136448223
 20
12.328754
 11
-1.7188035139
 21
12.911198
  0
LINE
  5
68D
100
AcDbEntity
  8
21814000
100
AcDbLine
 62
7
  6
CONTINUOUS
 10
0.7063947016
 20
10.5536987805
 11
0.3853723827
 21
10.87477
  0
LINE
  5
68E
100
AcDbEntity
  8
21814000
100
AcDbLine
 62
7
  6
CONTINUOUS
 10
-0.2926500227
 20
11.5528956873
 11
-0.6856797011
 21
11.9459852351
  0
LINE
  5
68F
100
AcDbEntity
  8
21814000
100
AcDbLine
 62
7
  6
CONTINUOUS
 10
-1.0683901684
 20
12.328754
 11
-1.6507454594
 21
12.911198
  0
LINE
  5
690
100
AcDbEntity
  8
21814000
100
AcDbLine
 62
7
  6
CONTINUOUS
 10
0.7063947016
 20
10.6217672022
 11
0.4534304373
 21
10.87477
  0
LINE
  5
691
100
AcDbEntity
  8
21814000
100
AcDbLine
 62
7
  6
CONTINUOUS
 10
-0.2465099638
 20
11.5748170216
 11
-0.6398251649
 21
11.9681921357
  0
LINE
  5
692
100
AcDbEntity
  8
21814000
100
AcDbLine
 62
7
  6
CONTINUOUS
 10
-1.0003321139
 20
12.328754
 11
-1.5826874049
 21
12.911198
  0
LINE
  5
693
100
AcDbEntity
  8
21814000
100
AcDbLine
 62
7
  6
CONTINUOUS
 10
0.7063947016
 20
10.6898356238
 11
0.5214884918
 21
10.87477
  0
LINE
  5
694
100
AcDbEntity
  8
21814000
100
AcDbLine
 62
7
  6
CONTINUOUS
 10
-0.2003699048
 20
11.5967383559
 11
-0.5939706287
 21
11.9903990362
  0
LINE
  5
695
100
AcDbEntity
  8
21814000
100
AcDbLine
 62
7
  6
CONTINUOUS
 10
-0.9322740594
 20
12.328754
 11
-1.5146293503
 21
12.911198
  0
LINE
  5
696
100
AcDbEntity
  8
21814000
100
AcDbLine
 62
7
  6
CONTINUOUS
 10
0.7063947016
 20
10.7579040455
 11
0.5895465464
 21
10.87477
  0
LINE
  5
697
100
AcDbEntity
  8
21814000
100
AcDbLine
 62
7
  6
CONTINUOUS
 10
-0.1542298459
 20
11.6186596903
 11
-0.5481160925
 21
12.0126059368
  0
LINE
  5
698
100
AcDbEntity
  8
21814000
100
AcDbLine
 62
7
  6
CONTINUOUS
 10
-0.8642160048
 20
12.328754
 11
-1.4465712958
 21
12.911198
  0
LINE
  5
699
100
AcDbEntity
  8
21814000
100
AcDbLine
 62
7
  6
CONTINUOUS
 10
0.7063947016
 20
10.8259724672
 11
0.6576046009
 21
10.87477
  0
LINE
  5
69A
100
AcDbEntity
  8
21814000
100
AcDbLine
 62
7
  6
CONTINUOUS
 10
-0.108089787
 20
11.6405810246
 11
-0.5022615563
 21
12.0348128373
  0
LINE
  5
69B
100
AcDbEntity
  8
21814000
100
AcDbLine
 62
7
  6
CONTINUOUS
 10
-0.7961579503
 20
12.328754
 11
-1.3785132413
 21
12.911198
  0
LINE
  5
69C
100
AcDbEntity
  8
21814000
100
AcDbLine
 62
7
  6
CONTINUOUS
 10
-0.061949728
 20
11.6625023589
 11
-0.4564070201
 21
12.0570197379
  0
LINE
  5
69D
100
AcDbEntity
  8
21814000
100
AcDbLine
 62
7
  6
CONTINUOUS
 10
-0.7280998958
 20
12.328754
 11
-1.3104551867
 21
12.911198
  0
LINE
  5
69E
100
AcDbEntity
  8
21814000
100
AcDbLine
 62
7
  6
CONTINUOUS
 10
-0.0158096691
 20
11.6844236932
 11
-0.4105524839
 21
12.0792266384
  0
LINE
  5
69F
100
AcDbEntity
  8
21814000
100
AcDbLine
 62
7
  6
CONTINUOUS
 10
-0.6600418412
 20
12.328754
 11
-1.2423971322
 21
12.911198
  0
LINE
  5
6A0
100
AcDbEntity
  8
21814000
100
AcDbLine
 62
7
  6
CONTINUOUS
 10
0.0303303899
 20
11.7063450276
 11
-0.3646979477
 21
12.101433539
  0
LINE
  5
6A1
100
AcDbEntity
  8
21814000
100
AcDbLine
 62
7
  6
CONTINUOUS
 10
-0.5919837867
 20
12.328754
 11
-1.1743390777
 21
12.911198
  0
LINE
  5
6A2
100
AcDbEntity
  8
21814000
100
AcDbLine
 62
7
  6
CONTINUOUS
 10
0.0764704488
 20
11.7282663619
 11
-0.3188434115
 21
12.1236404395
  0
LINE
  5
6A3
100
AcDbEntity
  8
21814000
100
AcDbLine
 62
7
  6
CONTINUOUS
 10
-0.5239257322
 20
12.328754
 11
-1.1062810231
 21
12.911198
  0
LINE
  5
6A4
100
AcDbEntity
  8
21814000
100
AcDbLine
 62
7
  6
CONTINUOUS
 10
0.1226105077
 20
11.7501876962
 11
-0.2729888753
 21
12.1458473401
  0
LINE
  5
6A5
100
AcDbEntity
  8
21814000
100
AcDbLine
 62
7
  6
CONTINUOUS
 10
-0.4558676776
 20
12.328754
 11
-1.0382229686
 21
12.911198
  0
LINE
  5
6A6
100
AcDbEntity
  8
21814000
100
AcDbLine
 62
7
  6
CONTINUOUS
 10
0.1687505667
 20
11.7721090305
 11
-0.2271343391
 21
12.1680542406
  0
LINE
  5
6A7
100
AcDbEntity
  8
21814000
100
AcDbLine
 62
7
  6
CONTINUOUS
 10
-0.3878096231
 20
12.328754
 11
-0.970164914
 21
12.911198
  0
LINE
  5
6A8
100
AcDbEntity
  8
21814000
100
AcDbLine
 62
7
  6
CONTINUOUS
 10
0.2148906256
 20
11.7940303648
 11
-0.1812798029
 21
12.1902611412
  0
LINE
  5
6A9
100
AcDbEntity
  8
21814000
100
AcDbLine
 62
7
  6
CONTINUOUS
 10
-0.3197515686
 20
12.328754
 11
-0.9021068595
 21
12.911198
  0
LINE
  5
6AA
100
AcDbEntity
  8
21814000
100
AcDbLine
 62
7
  6
CONTINUOUS
 10
0.2610306846
 20
11.8159516992
 11
-0.1354252667
 21
12.2124680417
  0
LINE
  5
6AB
100
AcDbEntity
  8
21814000
100
AcDbLine
 62
7
  6
CONTINUOUS
 10
-0.251693514
 20
12.328754
 11
-0.834048805
 21
12.911198
  0
LINE
  5
6AC
100
AcDbEntity
  8
21814000
100
AcDbLine
 62
7
  6
CONTINUOUS
 10
-2.1657928638
 20
14.2431449208
 11
-2.1927229973
 21
14.2700791565
  0
LINE
  5
6AD
100
AcDbEntity
  8
RACCORDO
100
AcDbLine
 62
250
  6
CONTINUOUS
 10
-5.7936052984
 20
23.4113248654
 11
-5.6686052984
 21
23.1948185145
  0
LINE
  5
6AE
100
AcDbEntity
  8
RACCORDO
100
AcDbLine
 62
250
  6
CONTINUOUS
 10
-5.0436052984
 20
23.8443375673
 11
-4.9186052984
 21
23.6278312164
  0
LINE
  5
6AF
100
AcDbEntity
  8
21814000
100
AcDbLine
 62
250
  6
CONTINUOUS
 10
3.2063947016
 20
-8.544819
 11
1.906790664
 21
-9.576944
  0
LINE
  5
6B0
100
AcDbEntity
  8
21814000
100
AcDbLine
 62
250
  6
CONTINUOUS
 10
-0.3047662186
 20
-10.59258
 11
-2.1928599556
 21
-11.134148
  0
LINE
  5
6B1
100
AcDbEntity
  8
ASSI
100
AcDbLine
 62
7
  6
CONTINUOUS
 10
-4.7936052984
 20
8.610937
 11
-4.5936052984
 21
8.610937
  0
LINE
  5
6B2
100
AcDbEntity
  8
ASSI
100
AcDbLine
 62
7
  6
CONTINUOUS
 10
-4.7936052984
 20
8.944281
 11
-4.5936052984
 21
8.944281
  0
LINE
  5
6B3
100
AcDbEntity
  8
ASSI
100
AcDbLine
 62
7
  6
CONTINUOUS
 10
-4.7936052984
 20
9.4443
 11
-4.5936052984
 21
9.4443
  0
LINE
  5
6B4
100
AcDbEntity
  8
ASSI
100
AcDbLine
 62
7
  6
CONTINUOUS
 10
-4.7936052984
 20
9.917044
 11
-4.5936052984
 21
9.917044
  0
LINE
  5
6B5
100
AcDbEntity
  8
21814000
100
AcDbLine
 62
250
  6
CONTINUOUS
 10
2.3066840808
 20
10.1305002294
 11
4.2063947016
 21
10.1305002294
  0
LINE
  5
6B6
100
AcDbEntity
  8
21814000
100
AcDbLine
 62
250
  6
CONTINUOUS
 10
0.7063947016
 20
10.292325
 11
-2.1927229973
 21
10.292325
  0
LINE
  5
6B7
100
AcDbEntity
  8
ASSI
100
AcDbLine
 62
7
  6
CONTINUOUS
 10
-4.7936052984
 20
10.41705
 11
-4.5936052984
 21
10.41705
  0
LINE
  5
6B8
100
AcDbEntity
  8
21814000
100
AcDbLine
 62
250
  6
CONTINUOUS
 10
2.8494585115
 20
9.6
 11
2.3066840808
 21
10.1305002294
  0
LINE
  5
6B9
100
AcDbEntity
  8
21814000
100
AcDbLine
 62
250
  6
CONTINUOUS
 10
2.5780712961
 20
12.2525010915
 11
2.3066840808
 21
12.5177510679
  0
LINE
  5
6BA
100
AcDbEntity
  8
21814000
100
AcDbLine
 62
7
  6
CONTINUOUS
 10
0.3071707435
 20
11.8378730335
 11
-0.0895707305
 21
12.2346749423
  0
LINE
  5
6BB
100
AcDbEntity
  8
21814000
100
AcDbLine
 62
7
  6
CONTINUOUS
 10
-0.1836354595
 20
12.328754
 11
-0.7659907504
 21
12.911198
  0
LINE
  5
6BC
100
AcDbEntity
  8
21814000
100
AcDbLine
 62
7
  6
CONTINUOUS
 10
-2.0591877461
 20
14.2045919859
 11
-2.1927229973
 21
14.3381475782
  0
LINE
  5
6BD
100
AcDbEntity
  8
21814000
100
AcDbLine
 62
7
  6
CONTINUOUS
 10
0.3533108024
 20
11.8597943678
 11
-0.0437161943
 21
12.2568818429
  0
LINE
  5
6BE
100
AcDbEntity
  8
21814000
100
AcDbLine
 62
7
  6
CONTINUOUS
 10
-0.1155774049
 20
12.328754
 11
-0.6979326959
 21
12.911198
  0
LINE
  5
6BF
100
AcDbEntity
  8
21814000
100
AcDbLine
 62
7
  6
CONTINUOUS
 10
-1.9525826285
 20
14.166039051
 11
-2.1927229973
 21
14.4062159999
  0
LINE
  5
6C0
100
AcDbEntity
  8
21814000
100
AcDbLine
 62
7
  6
CONTINUOUS
 10
0.3994508614
 20
11.8817157021
 11
0.0021383419
 21
12.2790887434
  0
LINE
  5
6C1
100
AcDbEntity
  8
21814000
100
AcDbLine
 62
7
  6
CONTINUOUS
 10
-0.0475193504
 20
12.328754
 11
-0.6298746414
 21
12.911198
  0
LINE
  5
6C2
100
AcDbEntity
  8
21814000
100
AcDbLine
 62
7
  6
CONTINUOUS
 10
-1.8459775108
 20
14.127486116
 11
-2.1927229973
 21
14.4742844216
  0
LINE
  5
6C3
100
AcDbEntity
  8
21814000
100
AcDbLine
 62
7
  6
CONTINUOUS
 10
0.4455909203
 20
11.9036370364
 11
0.0479928781
 21
12.301295644
  0
LINE
  5
6C4
100
AcDbEntity
  8
21814000
100
AcDbLine
 62
7
  6
CONTINUOUS
 10
0.0205387041
 20
12.328754
 11
-0.5618165868
 21
12.911198
  0
LINE
  5
6C5
100
AcDbEntity
  8
21814000
100
AcDbLine
 62
7
  6
CONTINUOUS
 10
-1.7393723932
 20
14.0889331811
 11
-2.1927229973
 21
14.5423528432
  0
LINE
  5
6C6
100
AcDbEntity
  8
21814000
100
AcDbLine
 62
7
  6
CONTINUOUS
 10
0.4917309792
 20
11.9255583708
 11
0.0938474143
 21
12.3235025445
  0
LINE
  5
6C7
100
AcDbEntity
  8
21814000
100
AcDbLine
 62
7
  6
CONTINUOUS
 10
0.0885967587
 20
12.328754
 11
-0.4937585323
 21
12.911198
  0
LINE
  5
6C8
100
AcDbEntity
  8
21814000
100
AcDbLine
 62
7
  6
CONTINUOUS
 10
-1.6327672755
 20
14.0503802462
 11
-2.1927229973
 21
14.6104212649
  0
LINE
  5
6C9
100
AcDbEntity
  8
21814000
100
AcDbLine
 62
7
  6
CONTINUOUS
 10
0.5378710382
 20
11.9474797051
 11
-0.4257004778
 21
12.911198
  0
LINE
  5
6CA
100
AcDbEntity
  8
21814000
100
AcDbLine
 62
7
  6
CONTINUOUS
 10
-1.5261621578
 20
14.0118273113
 11
-2.1927229973
 21
14.6784896866
  0
LINE
  5
6CB
100
AcDbEntity
  8
21814000
100
AcDbLine
 62
7
  6
CONTINUOUS
 10
0.5840110971
 20
11.9694010394
 11
-0.3576424232
 21
12.911198
  0
LINE
  5
6CC
100
AcDbEntity
  8
21814000
100
AcDbLine
 62
7
  6
CONTINUOUS
 10
-1.4195570402
 20
13.9732743763
 11
-2.1927229973
 21
14.7465581083
  0
LINE
  5
6CD
100
AcDbEntity
  8
21814000
100
AcDbLine
 62
7
  6
CONTINUOUS
 10
0.6301511561
 20
11.9913223737
 11
-0.2895843687
 21
12.911198
  0
LINE
  5
6CE
100
AcDbEntity
  8
21814000
100
AcDbLine
 62
7
  6
CONTINUOUS
 10
-1.3129519225
 20
13.9347214414
 11
-2.1927229973
 21
14.81462653
  0
LINE
  5
6CF
100
AcDbEntity
  8
21814000
100
AcDbLine
 62
7
  6
CONTINUOUS
 10
0.676291215
 20
12.0132437081
 11
-0.2215263141
 21
12.911198
  0
LINE
  5
6D0
100
AcDbEntity
  8
21814000
100
AcDbLine
 62
7
  6
CONTINUOUS
 10
-1.2063468049
 20
13.8961685065
 11
-2.1927229973
 21
14.8826949517
  0
LINE
  5
6D1
100
AcDbEntity
  8
21814000
100
AcDbLine
 62
7
  6
CONTINUOUS
 10
0.7063947016
 20
12.0512040576
 11
-0.1534682596
 21
12.911198
  0
LINE
  5
6D2
100
AcDbEntity
  8
21814000
100
AcDbLine
 62
7
  6
CONTINUOUS
 10
-1.0997416872
 20
13.8576155716
 11
-2.1927229973
 21
14.9507633734
  0
LINE
  5
6D3
100
AcDbEntity
  8
21814000
100
AcDbLine
 62
7
  6
CONTINUOUS
 10
0.7063947016
 20
12.1192724793
 11
-0.0854102051
 21
12.911198
  0
LINE
  5
6D4
100
AcDbEntity
  8
21814000
100
AcDbLine
 62
7
  6
CONTINUOUS
 10
-0.9931365695
 20
13.8190626366
 11
-2.1727679125
 21
14.9988736705
  0
LINE
  5
6D5
100
AcDbEntity
  8
21814000
100
AcDbLine
 62
7
  6
CONTINUOUS
 10
0.7063947016
 20
12.1873409009
 11
-0.0173521505
 21
12.911198
  0
LINE
  5
6D6
100
AcDbEntity
  8
21814000
100
AcDbLine
 62
7
  6
CONTINUOUS
 10
-0.8865314519
 20
13.7805097017
 11
-2.1222670582
 21
15.0164335453
  0
LINE
  5
6D7
100
AcDbEntity
  8
21814000
100
AcDbLine
 62
7
  6
CONTINUOUS
 10
0.7063947016
 20
12.2554093226
 11
0.050705904
 21
12.911198
  0
LINE
  5
6D8
100
AcDbEntity
  8
21814000
100
AcDbLine
 62
7
  6
CONTINUOUS
 10
-0.7799263342
 20
13.7419567668
 11
-2.071766204
 21
15.03399342
  0
LINE
  5
6D9
100
AcDbEntity
  8
21814000
100
AcDbLine
 62
7
  6
CONTINUOUS
 10
0.7063947016
 20
12.3234777443
 11
0.1187639585
 21
12.911198
  0
LINE
  5
6DA
100
AcDbEntity
  8
21814000
100
AcDbLine
 62
7
  6
CONTINUOUS
 10
-0.6733212166
 20
13.7034038319
 11
-1.5435004424
 21
14.5737156105
  0
LINE
  5
6DB
100
AcDbEntity
  8
21814000
100
AcDbLine
 62
7
  6
CONTINUOUS
 10
-1.591391902
 20
14.6216143653
 11
-2.0212653497
 21
15.0515532947
  0
LINE
  5
6DC
100
AcDbEntity
  8
21814000
100
AcDbLine
 62
7
  6
CONTINUOUS
 10
0.7063947016
 20
12.391546166
 11
0.1868220131
 21
12.911198
  0
LINE
  5
6DD
100
AcDbEntity
  8
21814000
100
AcDbLine
 62
7
  6
CONTINUOUS
 10
-0.5667160989
 20
13.6648508969
 11
-1.4397114353
 21
14.537979215
  0
LINE
  5
6DE
100
AcDbEntity
  8
21814000
100
AcDbLine
 62
7
  6
CONTINUOUS
 10
-1.5398879825
 20
14.6381710219
 11
-1.9707644955
 21
15.0691131695
  0
LINE
  5
6DF
100
AcDbEntity
  8
21814000
100
AcDbLine
 62
7
  6
CONTINUOUS
 10
0.7063947016
 20
12.4596145877
 11
0.2548800676
 21
12.911198
  0
LINE
  5
6E0
100
AcDbEntity
  8
21814000
100
AcDbLine
 62
7
  6
CONTINUOUS
 10
-0.4601109812
 20
13.626297962
 11
-1.3359224281
 21
14.5022428196
  0
LINE
  5
6E1
100
AcDbEntity
  8
21814000
100
AcDbLine
 62
7
  6
CONTINUOUS
 10
-1.4883840629
 20
14.6547276785
 11
-1.9202636412
 21
15.0866730442
  0
LINE
  5
6E2
100
AcDbEntity
  8
21814000
100
AcDbLine
 62
7
  6
CONTINUOUS
 10
0.7063947016
 20
12.5276830094
 11
0.3229381221
 21
12.911198
  0
LINE
  5
6E3
100
AcDbEntity
  8
21814000
100
AcDbLine
 62
7
  6
CONTINUOUS
 10
-0.3535058636
 20
13.5877450271
 11
-1.232133421
 21
14.4665064241
  0
LINE
  5
6E4
100
AcDbEntity
  8
21814000
100
AcDbLine
 62
7
  6
CONTINUOUS
 10
-1.4368801433
 20
14.6712843351
 11
-1.869762787
 21
15.104232919
  0
LINE
  5
6E5
100
AcDbEntity
  8
21814000
100
AcDbLine
 62
7
  6
CONTINUOUS
 10
0.7063947016
 20
12.5957514311
 11
0.3909961767
 21
12.911198
  0
LINE
  5
6E6
100
AcDbEntity
  8
21814000
100
AcDbLine
 62
7
  6
CONTINUOUS
 10
-0.2469007459
 20
13.5491920922
 11
-1.1283444139
 21
14.4307700287
  0
LINE
  5
6E7
100
AcDbEntity
  8
21814000
100
AcDbLine
 62
7
  6
CONTINUOUS
 10
-1.3853762237
 20
14.6878409917
 11
-1.8192619327
 21
15.1217927937
  0
LINE
  5
6E8
100
AcDbEntity
  8
21814000
100
AcDbLine
 62
7
  6
CONTINUOUS
 10
0.7063947016
 20
12.6638198527
 11
0.4590542312
 21
12.911198
  0
LINE
  5
6E9
100
AcDbEntity
  8
21814000
100
AcDbLine
 62
7
  6
CONTINUOUS
 10
-0.1402956282
 20
13.5106391572
 11
-1.0245554067
 21
14.3950336333
  0
LINE
  5
6EA
100
AcDbEntity
  8
21814000
100
AcDbLine
 62
7
  6
CONTINUOUS
 10
-1.3338723041
 20
14.7043976483
 11
-1.7687610785
 21
15.1393526684
  0
LINE
  5
6EB
100
AcDbEntity
  8
21814000
100
AcDbLine
 62
7
  6
CONTINUOUS
 10
0.7063947016
 20
12.7318882744
 11
0.5271122857
 21
12.911198
  0
LINE
  5
6EC
100
AcDbEntity
  8
21814000
100
AcDbLine
 62
7
  6
CONTINUOUS
 10
-0.0336905106
 20
13.4720862223
 11
-0.9207663996
 21
14.3592972378
  0
LINE
  5
6ED
100
AcDbEntity
  8
21814000
100
AcDbLine
 62
7
  6
CONTINUOUS
 10
-1.2823683845
 20
14.7209543049
 11
-1.7182602242
 21
15.1569125432
  0
LINE
  5
6EE
100
AcDbEntity
  8
21814000
100
AcDbLine
 62
7
  6
CONTINUOUS
 10
0.7063947016
 20
12.7999566961
 11
0.5951703403
 21
12.911198
  0
LINE
  5
6EF
100
AcDbEntity
  8
21814000
100
AcDbLine
 62
7
  6
CONTINUOUS
 10
0.0729146071
 20
13.4335332874
 11
-0.8169773924
 21
14.3235608424
  0
LINE
  5
6F0
100
AcDbEntity
  8
21814000
100
AcDbLine
 62
7
  6
CONTINUOUS
 10
-1.2308644649
 20
14.7375109615
 11
-1.66775937
 21
15.1744724179
  0
LINE
  5
6F1
100
AcDbEntity
  8
21814000
100
AcDbLine
 62
7
  6
CONTINUOUS
 10
0.7063947016
 20
12.8680251178
 11
0.6632283948
 21
12.911198
  0
LINE
  5
6F2
100
AcDbEntity
  8
21814000
100
AcDbLine
 62
7
  6
CONTINUOUS
 10
0.1795197247
 20
13.3949803525
 11
-0.7131883853
 21
14.287824447
  0
LINE
  5
6F3
100
AcDbEntity
  8
21814000
100
AcDbLine
 62
7
  6
CONTINUOUS
 10
-1.1793605454
 20
14.7540676181
 11
-1.6172585157
 21
15.1920322927
  0
LINE
  5
6F4
100
AcDbEntity
  8
21814000
100
AcDbLine
 62
7
  6
CONTINUOUS
 10
0.2861248424
 20
13.3564274176
 11
-0.6093993781
 21
14.2520880515
  0
LINE
  5
6F5
100
AcDbEntity
  8
21814000
100
AcDbLine
 62
7
  6
CONTINUOUS
 10
-1.1278566258
 20
14.7706242748
 11
-1.5667576615
 21
15.2095921674
  0
LINE
  5
6F6
100
AcDbEntity
  8
21814000
100
AcDbLine
 62
7
  6
CONTINUOUS
 10
0.3927299601
 20
13.3178744826
 11
-0.505610371
 21
14.2163516561
  0
LINE
  5
6F7
100
AcDbEntity
  8
21814000
100
AcDbLine
 62
7
  6
CONTINUOUS
 10
-1.0763527062
 20
14.7871809314
 11
-1.5162568072
 21
15.2271520421
  0
LINE
  5
6F8
100
AcDbEntity
  8
21814000
100
AcDbLine
 62
7
  6
CONTINUOUS
 10
0.4993350777
 20
13.2793215477
 11
-0.4018213638
 21
14.1806152607
  0
LINE
  5
6F9
100
AcDbEntity
  8
21814000
100
AcDbLine
 62
7
  6
CONTINUOUS
 10
-1.0248487866
 20
14.803737588
 11
-1.465755953
 21
15.2447119169
  0
LINE
  5
6FA
100
AcDbEntity
  8
21814000
100
AcDbLine
 62
7
  6
CONTINUOUS
 10
0.6059401954
 20
13.2407686128
 11
-0.3898432974
 21
14.2367037913
  0
LINE
  5
6FB
100
AcDbEntity
  8
21814000
100
AcDbLine
 62
7
  6
CONTINUOUS
 10
-0.973344867
 20
14.8202942446
 11
-1.4152550987
 21
15.2622717916
  0
LINE
  5
6FC
100
AcDbEntity
  8
21814000
100
AcDbLine
 62
7
  6
CONTINUOUS
 10
0.7063947016
 20
13.2083672262
 11
-0.3898432974
 21
14.304772213
  0
LINE
  5
6FD
100
AcDbEntity
  8
21814000
100
AcDbLine
 62
7
  6
CONTINUOUS
 10
-0.9218409474
 20
14.8368509012
 11
-1.3647542445
 21
15.2798316663
  0
LINE
  5
6FE
100
AcDbEntity
  8
21814000
100
AcDbLine
 62
7
  6
CONTINUOUS
 10
0.7063947016
 20
13.2764356479
 11
-0.3898432974
 21
14.3728406347
  0
LINE
  5
6FF
100
AcDbEntity
  8
21814000
100
AcDbLine
 62
7
  6
CONTINUOUS
 10
-0.8703370278
 20
14.8534075578
 11
-1.3142533902
 21
15.2973915411
  0
LINE
  5
700
100
AcDbEntity
  8
21814000
100
AcDbLine
 62
7
  6
CONTINUOUS
 10
0.7063947016
 20
13.3445040696
 11
-0.3898432974
 21
14.4409090564
  0
LINE
  5
701
100
AcDbEntity
  8
21814000
100
AcDbLine
 62
7
  6
CONTINUOUS
 10
-0.8188331083
 20
14.8699642144
 11
-1.263752536
 21
15.3149514158
  0
LINE
  5
702
100
AcDbEntity
  8
21814000
100
AcDbLine
 62
7
  6
CONTINUOUS
 10
0.7063947016
 20
13.4125724913
 11
0.1093630038
 21
14.0096951337
  0
LINE
  5
703
100
AcDbEntity
  8
21814000
100
AcDbLine
 62
7
  6
CONTINUOUS
 10
0.0919429123
 20
14.0271178788
 11
-0.3898432974
 21
14.5089774781
  0
LINE
  5
704
100
AcDbEntity
  8
21814000
100
AcDbLine
 62
7
  6
CONTINUOUS
 10
-0.7673291887
 20
14.886520871
 11
-1.2132516817
 21
15.3325112906
  0
LINE
  5
705
100
AcDbEntity
  8
21814000
100
AcDbLine
 62
7
  6
CONTINUOUS
 10
0.7063947016
 20
13.480640913
 11
0.2145591434
 21
13.9725513915
  0
LINE
  5
706
100
AcDbEntity
  8
21814000
100
AcDbLine
 62
7
  6
CONTINUOUS
 10
0.0919429123
 20
14.0951863005
 11
-0.3898432974
 21
14.5770458998
  0
LINE
  5
707
100
AcDbEntity
  8
21814000
100
AcDbLine
 62
7
  6
CONTINUOUS
 10
-0.7158252691
 20
14.9030775276
 11
-1.1627508274
 21
15.3500711653
  0
LINE
  5
708
100
AcDbEntity
  8
21814000
100
AcDbLine
 62
7
  6
CONTINUOUS
 10
0.7063947016
 20
13.5487093347
 11
0.3197552829
 21
13.9354076493
  0
LINE
  5
709
100
AcDbEntity
  8
21814000
100
AcDbLine
 62
7
  6
CONTINUOUS
 10
0.0919429123
 20
14.1632547222
 11
-0.3898432974
 21
14.6451143214
  0
LINE
  5
70A
100
AcDbEntity
  8
21814000
100
AcDbLine
 62
7
  6
CONTINUOUS
 10
-0.6643213495
 20
14.9196341842
 11
-1.1122499732
 21
15.36763104
  0
LINE
  5
70B
100
AcDbEntity
  8
21814000
100
AcDbLine
 62
7
  6
CONTINUOUS
 10
0.7063947016
 20
13.6167777564
 11
0.4249514225
 21
13.8982639071
  0
LINE
  5
70C
100
AcDbEntity
  8
21814000
100
AcDbLine
 62
7
  6
CONTINUOUS
 10
0.0919429123
 20
14.2313231439
 11
-0.3898432974
 21
14.7131827431
  0
LINE
  5
70D
100
AcDbEntity
  8
21814000
100
AcDbLine
 62
7
  6
CONTINUOUS
 10
-0.6128174299
 20
14.9361908409
 11
-1.0617491189
 21
15.3851909148
  0
LINE
  5
70E
100
AcDbEntity
  8
21814000
100
AcDbLine
 62
7
  6
CONTINUOUS
 10
0.7063947016
 20
13.684846178
 11
0.5301475621
 21
13.8611201649
  0
LINE
  5
70F
100
AcDbEntity
  8
21814000
100
AcDbLine
 62
7
  6
CONTINUOUS
 10
0.0919429123
 20
14.2993915655
 11
-0.3898432974
 21
14.7812511648
  0
LINE
  5
710
100
AcDbEntity
  8
21814000
100
AcDbLine
 62
7
  6
CONTINUOUS
 10
-0.5613135103
 20
14.9527474975
 11
-1.0112482647
 21
15.4027507895
  0
LINE
  5
711
100
AcDbEntity
  8
21814000
100
AcDbLine
 62
7
  6
CONTINUOUS
 10
0.7063947016
 20
13.7529145997
 11
0.6353437016
 21
13.8239764228
  0
LINE
  5
712
100
AcDbEntity
  8
21814000
100
AcDbLine
 62
7
  6
CONTINUOUS
 10
0.0919429123
 20
14.3674599872
 11
-0.3898432974
 21
14.8493195865
  0
LINE
  5
713
100
AcDbEntity
  8
21814000
100
AcDbLine
 62
7
  6
CONTINUOUS
 10
-0.5098095907
 20
14.9693041541
 11
-0.9607474104
 21
15.4203106642
  0
LINE
  5
714
100
AcDbEntity
  8
21814000
100
AcDbLine
 62
7
  6
CONTINUOUS
 10
0.0919429123
 20
14.4355284089
 11
-0.3898432974
 21
14.9173880082
  0
LINE
  5
715
100
AcDbEntity
  8
21814000
100
AcDbLine
 62
7
  6
CONTINUOUS
 10
-0.4583056712
 20
14.9858608107
 11
-0.9102465562
 21
15.437870539
  0
LINE
  5
716
100
AcDbEntity
  8
21814000
100
AcDbLine
 62
7
  6
CONTINUOUS
 10
0.0919429123
 20
14.5035968306
 11
-0.3898432974
 21
14.9854564299
  0
LINE
  5
717
100
AcDbEntity
  8
21814000
100
AcDbLine
 62
7
  6
CONTINUOUS
 10
-0.4068017516
 20
15.0024174673
 11
-0.8597457019
 21
15.4554304137
  0
LINE
  5
718
100
AcDbEntity
  8
21814000
100
AcDbLine
 62
7
  6
CONTINUOUS
 10
0.0919429123
 20
14.5716652523
 11
-0.8092448477
 21
15.4729902885
  0
LINE
  5
719
100
AcDbEntity
  8
21814000
100
AcDbLine
 62
7
  6
CONTINUOUS
 10
0.0919429123
 20
14.639733674
 11
-0.7587439934
 21
15.4905501632
  0
LINE
  5
71A
100
AcDbEntity
  8
21814000
100
AcDbLine
 62
7
  6
CONTINUOUS
 10
0.0919429123
 20
14.7078020957
 11
-0.7082431392
 21
15.5081100379
  0
LINE
  5
71B
100
AcDbEntity
  8
21814000
100
AcDbLine
 62
7
  6
CONTINUOUS
 10
0.0919429123
 20
14.7758705173
 11
-0.6577422849
 21
15.5256699127
  0
LINE
  5
71C
100
AcDbEntity
  8
21814000
100
AcDbLine
 62
7
  6
CONTINUOUS
 10
0.0919429123
 20
14.843938939
 11
-0.6072414307
 21
15.5432297874
  0
LINE
  5
71D
100
AcDbEntity
  8
21814000
100
AcDbLine
 62
7
  6
CONTINUOUS
 10
0.0919429123
 20
14.9120073607
 11
-0.5567405764
 21
15.5607896621
  0
LINE
  5
71E
100
AcDbEntity
  8
21814000
100
AcDbLine
 62
250
  6
CONTINUOUS
 10
-1.2054717923
 20
-11.430963
 11
0.7063877037
 21
-10.882587
  0
LINE
  5
71F
100
AcDbEntity
  8
21814000
100
AcDbLine
 62
250
  6
CONTINUOUS
 10
-1.7199700353
 20
10.87477
 11
0.7063947016
 21
10.87477
  0
LINE
  5
720
100
AcDbEntity
  8
ASSI
100
AcDbLine
 62
7
  6
CONTINUOUS
 10
-4.7936052984
 20
10.889788
 11
-4.5936052984
 21
10.889788
  0
LINE
  5
721
100
AcDbEntity
  8
21814000
100
AcDbLine
 62
250
  6
CONTINUOUS
 10
4.2063947016
 20
11.2799173285
 11
3.2565393912
 21
11.2799173285
  0
LINE
  5
722
100
AcDbEntity
  8
ASSI
100
AcDbLine
 62
7
  6
CONTINUOUS
 10
-4.7936052984
 20
11.389806
 11
-4.5936052984
 21
11.389806
  0
LINE
  5
723
100
AcDbEntity
  8
ASSI
100
AcDbLine
 62
7
  6
CONTINUOUS
 10
-4.7936052984
 20
11.889813
 11
-4.5936052984
 21
11.889813
  0
LINE
  5
724
100
AcDbEntity
  8
21814000
100
AcDbLine
 62
250
  6
CONTINUOUS
 10
3.6636202142
 20
12.119875882
 11
2.8494585115
 21
12.119875882
  0
LINE
  5
725
100
AcDbEntity
  8
21814000
100
AcDbLine
 62
250
  6
CONTINUOUS
 10
0.1046910282
 20
12.328754
 11
-2.1927229973
 21
12.328754
  0
LINE
  5
726
100
AcDbEntity
  8
ASSI
100
AcDbLine
 62
7
  6
CONTINUOUS
 10
-4.7936052984
 20
12.389831
 11
-4.5936052984
 21
12.389831
  0
LINE
  5
727
100
AcDbEntity
  8
ASSI
100
AcDbLine
 62
7
  6
CONTINUOUS
 10
-4.7936052984
 20
12.723169
 11
-4.5936052984
 21
12.723169
  0
LINE
  5
728
100
AcDbEntity
  8
21814000
100
AcDbLine
 62
250
  6
CONTINUOUS
 10
3.7993138502
 20
10.6610004588
 11
2.3066840808
 21
11.0588755339
  0
LINE
  5
729
100
AcDbEntity
  8
21814000
100
AcDbLine
 62
250
  6
CONTINUOUS
 10
-2.1927229973
 20
14.252884
 11
0.7063947016
 21
13.20444
  0
LINE
  5
72A
100
AcDbEntity
  8
21814000
100
AcDbLine
 62
250
  6
CONTINUOUS
 10
2.8494585115
 20
12.119875882
 11
2.5780712961
 21
12.2525010915
  0
LINE
  5
72B
100
AcDbEntity
  8
21814000
100
AcDbLine
 62
250
  6
CONTINUOUS
 10
2.5780712961
 20
13.7113764042
 11
2.3066840808
 21
13.9766268232
  0
LINE
  5
72C
100
AcDbEntity
  8
21814000
100
AcDbLine
 62
250
  6
CONTINUOUS
 10
3.9350074579
 20
12.9156262538
 11
4.2063947016
 21
12.6503762774
  0
LINE
  5
72D
100
AcDbEntity
  8
21814000
100
AcDbLine
 62
250
  6
CONTINUOUS
 10
2.5780712961
 20
15.1702521594
 11
2.3066840808
 21
15.4355021358
  0
LINE
  5
72E
100
AcDbEntity
  8
21814000
100
AcDbLine
 62
7
  6
CONTINUOUS
 10
0.0919429123
 20
14.9800757824
 11
-0.5062397222
 21
15.5783495369
  0
LINE
  5
72F
100
AcDbEntity
  8
21814000
100
AcDbLine
 62
7
  6
CONTINUOUS
 10
0.0919429123
 20
15.0481442041
 11
-0.4557388679
 21
15.5959094116
  0
LINE
  5
730
100
AcDbEntity
  8
21814000
100
AcDbLine
 62
7
  6
CONTINUOUS
 10
0.0919429123
 20
15.1162126258
 11
-0.4052380137
 21
15.6134692864
  0
LINE
  5
731
100
AcDbEntity
  8
21814000
100
AcDbLine
 62
7
  6
CONTINUOUS
 10
0.1066391673
 20
15.1695825538
 11
-0.3547371594
 21
15.6310291611
  0
LINE
  5
732
100
AcDbEntity
  8
21814000
100
AcDbLine
 62
7
  6
CONTINUOUS
 10
0.1574260116
 20
15.1868563949
 11
-0.3042363052
 21
15.6485890358
  0
LINE
  5
733
100
AcDbEntity
  8
21814000
100
AcDbLine
 62
7
  6
CONTINUOUS
 10
0.2082128559
 20
15.2041302361
 11
-0.2537354509
 21
15.6661489106
  0
LINE
  5
734
100
AcDbEntity
  8
21814000
100
AcDbLine
 62
7
  6
CONTINUOUS
 10
0.2589997002
 20
15.2214040772
 11
-0.2032345967
 21
15.6837087853
  0
LINE
  5
735
100
AcDbEntity
  8
21814000
100
AcDbLine
 62
7
  6
CONTINUOUS
 10
0.3097865445
 20
15.2386779183
 11
-0.1527337424
 21
15.70126866
  0
LINE
  5
736
100
AcDbEntity
  8
21814000
100
AcDbLine
 62
7
  6
CONTINUOUS
 10
0.3605733888
 20
15.2559517595
 11
-0.1022328881
 21
15.7188285348
  0
LINE
  5
737
100
AcDbEntity
  8
21814000
100
AcDbLine
 62
7
  6
CONTINUOUS
 10
0.4113602331
 20
15.2732256006
 11
-0.0517320339
 21
15.7363884095
  0
LINE
  5
738
100
AcDbEntity
  8
21814000
100
AcDbLine
 62
7
  6
CONTINUOUS
 10
0.4621470774
 20
15.2904994417
 11
-0.0012311796
 21
15.7539482843
  0
LINE
  5
739
100
AcDbEntity
  8
21814000
100
AcDbLine
 62
7
  6
CONTINUOUS
 10
0.5129339217
 20
15.3077732828
 11
0.0492696746
 21
15.771508159
  0
LINE
  5
73A
100
AcDbEntity
  8
21814000
100
AcDbLine
 62
7
  6
CONTINUOUS
 10
0.563720766
 20
15.325047124
 11
0.0997705289
 21
15.7890680337
  0
LINE
  5
73B
100
AcDbEntity
  8
21814000
100
AcDbLine
 62
7
  6
CONTINUOUS
 10
0.6145076103
 20
15.3423209651
 11
0.1502713831
 21
15.8066279085
  0
LINE
  5
73C
100
AcDbEntity
  8
21814000
100
AcDbLine
 62
7
  6
CONTINUOUS
 10
0.6652944546
 20
15.3595948062
 11
0.2007722374
 21
15.8241877832
  0
LINE
  5
73D
100
AcDbEntity
  8
21814000
100
AcDbLine
 62
7
  6
CONTINUOUS
 10
0.7063947016
 20
15.3865567202
 11
0.2512730916
 21
15.8417476579
  0
LINE
  5
73E
100
AcDbEntity
  8
21814000
100
AcDbLine
 62
7
  6
CONTINUOUS
 10
0.7063947016
 20
15.4546251419
 11
0.3017739459
 21
15.8593075327
  0
LINE
  5
73F
100
AcDbEntity
  8
21814000
100
AcDbLine
 62
7
  6
CONTINUOUS
 10
0.7063947016
 20
15.5226935636
 11
0.3522748001
 21
15.8768674074
  0
LINE
  5
740
100
AcDbEntity
  8
21814000
100
AcDbLine
 62
7
  6
CONTINUOUS
 10
0.7063947016
 20
15.5907619853
 11
0.4027756544
 21
15.8944272822
  0
LINE
  5
741
100
AcDbEntity
  8
21814000
100
AcDbLine
 62
7
  6
CONTINUOUS
 10
0.7063947016
 20
15.6588304069
 11
0.4532765086
 21
15.9119871569
  0
LINE
  5
742
100
AcDbEntity
  8
21814000
100
AcDbLine
 62
7
  6
CONTINUOUS
 10
0.7063947016
 20
15.7268988286
 11
0.5037773629
 21
15.9295470316
  0
LINE
  5
743
100
AcDbEntity
  8
21814000
100
AcDbLine
 62
7
  6
CONTINUOUS
 10
0.7063947016
 20
15.7949672503
 11
0.5542782171
 21
15.9471069064
  0
LINE
  5
744
100
AcDbEntity
  8
21814000
100
AcDbLine
 62
7
  6
CONTINUOUS
 10
0.7063947016
 20
15.863035672
 11
0.6047790714
 21
15.9646667811
  0
LINE
  5
745
100
AcDbEntity
  8
21814000
100
AcDbLine
 62
7
  6
CONTINUOUS
 10
0.7063947016
 20
15.9311040937
 11
0.6552799256
 21
15.9822266558
  0
LINE
  5
746
100
AcDbEntity
  8
21814000
100
AcDbLine
 62
7
  6
CONTINUOUS
 10
0.7063947016
 20
15.9991725154
 11
0.7057807799
 21
15.9997865306
  0
LWPOLYLINE
  5
747
100
AcDbEntity
  8
21814000
100
AcDbPolyline
 62
250
  6
CONTINUOUS
 90
3
 70
0
 10
16.9792177156
 20
-11.7321051327
 10
16.9922957656
 20
-11.7710055665
 10
17.0058190073
 20
-11.81267127
  0
LINE
  5
748
100
AcDbEntity
  8
21814000
100
AcDbLine
 62
250
  6
CONTINUOUS
 10
3.2063947016
 20
-13.259776
 11
1.906790664
 21
-13.83011
  0
LINE
  5
749
100
AcDbEntity
  8
21814000
100
AcDbLine
 62
250
  6
CONTINUOUS
 10
-0.1965711834
 20
-14.778839
 11
-2.1928599556
 21
-15.419971
  0
LINE
  5
74A
100
AcDbEntity
  8
21814000
100
AcDbLine
 62
250
  6
CONTINUOUS
 10
-1.911004442
 20
-15.9094785664
 11
0.7063947016
 21
-15.068868
  0
LINE
  5
74B
100
AcDbEntity
  8
21814000
100
AcDbLine
 62
250
  6
CONTINUOUS
 10
-2.1927229973
 20
12.911198
 11
0.7063947016
 21
12.911198
  0
LINE
  5
74C
100
AcDbEntity
  8
21814000
100
AcDbLine
 62
250
  6
CONTINUOUS
 10
2.8494585115
 20
13.0482512419
 11
3.6636202142
 21
13.0482512419
  0
LINE
  5
74D
100
AcDbEntity
  8
ASSI
100
AcDbLine
 62
7
  6
CONTINUOUS
 10
-4.7936052984
 20
13.525875
 11
-4.5936052984
 21
13.525875
  0
LINE
  5
74E
100
AcDbEntity
  8
21814000
100
AcDbLine
 62
250
  6
CONTINUOUS
 10
3.6636202142
 20
13.578751416
 11
2.8494585115
 21
13.578751416
  0
LINE
  5
74F
100
AcDbEntity
  8
ASSI
100
AcDbLine
 62
7
  6
CONTINUOUS
 10
-4.7936052984
 20
14.025913
 11
-4.5936052984
 21
14.025913
  0
LINE
  5
750
100
AcDbEntity
  8
21814000
100
AcDbLine
 62
250
  6
CONTINUOUS
 10
2.8494585115
 20
14.5071267759
 11
3.6636202142
 21
14.5071267759
  0
LINE
  5
751
100
AcDbEntity
  8
21814000
100
AcDbLine
 62
250
  6
CONTINUOUS
 10
-0.3898432974
 20
14.176491
 11
-1.6385678369
 21
14.606449
  0
LINE
  5
752
100
AcDbEntity
  8
21814000
100
AcDbLine
 62
250
  6
CONTINUOUS
 10
0.7063947016
 20
13.798889
 11
0.0919429123
 21
14.015846
  0
LINE
  5
753
100
AcDbEntity
  8
21814000
100
AcDbLine
 62
250
  6
CONTINUOUS
 10
3.6636202142
 20
13.0482512419
 11
3.9350074579
 21
12.9156262538
  0
LINE
  5
754
100
AcDbEntity
  8
21814000
100
AcDbLine
 62
250
  6
CONTINUOUS
 10
2.8494585115
 20
13.578751416
 11
2.5780712961
 21
13.7113764042
  0
LINE
  5
755
100
AcDbEntity
  8
21814000
100
AcDbLine
 62
250
  6
CONTINUOUS
 10
3.6636202142
 20
14.5071267759
 11
3.9350074579
 21
14.3745017877
  0
LINE
  5
756
100
AcDbEntity
  8
21814000
100
AcDbLine
 62
250
  6
CONTINUOUS
 10
2.8494585115
 20
15.0376271713
 11
2.5780712961
 21
15.1702521594
  0
LINE
  5
757
100
AcDbEntity
  8
21814000
100
AcDbLine
 62
250
  6
CONTINUOUS
 10
3.9350074579
 20
14.3745017877
 11
4.2063947016
 21
14.1092518114
  0
LINE
  5
758
100
AcDbEntity
  8
21814000
100
AcDbLine
 62
250
  6
CONTINUOUS
 10
3.9350074579
 20
15.833377543
 11
4.2063947016
 21
15.568127124
  0
LWPOLYLINE
  5
759
100
AcDbEntity
  8
21814000
100
AcDbPolyline
 62
250
  6
CONTINUOUS
 90
4
 70
0
 10
16.9040248605
 20
-18.3279119434
 10
16.9028161999
 20
-18.3093609676
 10
16.9017136079
 20
-18.2877589853
 10
16.9008479124
 20
-18.2631133422
  0
LWPOLYLINE
  5
75A
100
AcDbEntity
  8
21814000
100
AcDbPolyline
 62
7
  6
CONTINUOUS
 90
4
 70
0
 10
16.9052176152
 20
-18.335125166
 10
16.9033083215
 20
-18.3022140502
 10
16.9023610493
 20
-18.2817787859
 10
16.9015704055
 20
-18.2578996437
  0
LINE
  5
75B
100
AcDbEntity
  8
21814000
100
AcDbLine
 62
7
  6
CONTINUOUS
 10
16.9059751696
 20
-18.3494386169
 11
16.9052176152
 21
-18.335125166
  0
LWPOLYLINE
  5
75C
100
AcDbEntity
  8
21814000
100
AcDbPolyline
 62
250
  6
CONTINUOUS
 90
10
 70
0
 10
16.9064004276
 20
-11.4641665401
 10
16.9072418957
 20
-11.4833199097
 10
16.9097439918
 20
-11.5039907564
 10
16.9138584542
 20
-11.5261440235
 10
16.9195296357
 20
-11.5496798513
 10
16.9266602772
 20
-11.5747081848
 10
16.9350965304
 20
-11.6016274417
 10
16.9446561452
 20
-11.6307405105
 10
16.9552366006
 20
-11.6621200975
 10
16.9792177156
 20
-11.7321051327
  0
LINE
  5
75D
100
AcDbEntity
  8
21814000
100
AcDbLine
 62
250
  6
CONTINUOUS
 10
17.0058186291
 20
-11.8126704697
 11
17.0043142342
 21
-11.7794017736
  0
LWPOLYLINE
  5
75E
100
AcDbEntity
  8
21814000
100
AcDbPolyline
 62
250
  6
CONTINUOUS
 90
3
 70
0
 10
16.9063806796
 20
-18.3636727256
 10
16.9060423556
 20
-18.3558376367
 10
16.9040248605
 20
-18.3279119434
  0
LINE
  5
75F
100
AcDbEntity
  8
21814000
100
AcDbLine
 62
250
  6
CONTINUOUS
 10
17.0043142342
 20
-11.7794017736
 11
17.0013342393
 21
-11.7073349914
  0
LINE
  5
760
100
AcDbEntity
  8
21814000
100
AcDbLine
 62
250
  6
CONTINUOUS
 10
17.0013342393
 20
-11.7073349914
 11
16.9991579042
 21
-11.6506085069
  0
LINE
  5
761
100
AcDbEntity
  8
21814000
100
AcDbLine
 62
250
  6
CONTINUOUS
 10
16.9991579042
 20
-11.6506085069
 11
16.9972161752
 21
-11.5961022116
  0
LINE
  5
762
100
AcDbEntity
  8
21814000
100
AcDbLine
 62
250
  6
CONTINUOUS
 10
16.9972161752
 20
-11.5961022116
 11
16.9953392139
 21
-11.5384929869
  0
LINE
  5
763
100
AcDbEntity
  8
21814000
100
AcDbLine
 62
7
  6
CONTINUOUS
 10
16.9063745442
 20
-18.3636054105
 11
16.9059751696
 21
-18.3494386169
  0
LINE
  5
764
100
AcDbEntity
  8
21814000
100
AcDbLine
 62
250
  6
CONTINUOUS
 10
16.9953392139
 20
-11.5384929869
 11
16.9947963147
 21
-11.5200983441
  0
LINE
  5
765
100
AcDbEntity
  8
21814000
100
AcDbLine
 62
250
  6
CONTINUOUS
 10
16.9008479124
 20
-18.2631133422
 11
16.9001305563
 21
-18.2335157491
  0
LINE
  5
766
100
AcDbEntity
  8
21814000
100
AcDbLine
 62
7
  6
CONTINUOUS
 10
16.9015704055
 20
-18.2578996437
 11
16.9010352763
 21
-18.2351778749
  0
LINE
  5
767
100
AcDbEntity
  8
21814000
100
AcDbLine
 62
250
  6
CONTINUOUS
 10
16.9947963147
 20
-11.5200983441
 11
16.9945563119
 21
-11.5089401544
  0
LWPOLYLINE
  5
768
100
AcDbEntity
  8
21814000
100
AcDbPolyline
 62
250
  6
CONTINUOUS
 90
3
 70
0
 10
16.9001305563
 20
-18.2335157491
 10
16.899513472
 20
-18.2010239393
 10
16.8990162952
 20
-18.1658770239
  0
LINE
  5
769
100
AcDbEntity
  8
21814000
100
AcDbLine
 62
7
  6
CONTINUOUS
 10
16.9010352763
 20
-18.2351778749
 11
16.9003096256
 21
-18.1947416039
  0
LWPOLYLINE
  5
76A
100
AcDbEntity
  8
21814000
100
AcDbPolyline
 62
7
  6
CONTINUOUS
 90
9
 70
0
 10
16.9003096256
 20
-18.1947416039
 10
16.8997559353
 20
-18.150053911
 10
16.8993994778
 20
-18.1015519539
 10
16.8992651549
 20
-18.0496929883
 10
16.8993619957
 20
-17.9949433827
 10
16.8996871194
 20
-17.9378481161
 10
16.9002263193
 20
-17.879010787
 10
16.9009457143
 20
-17.8190174252
 10
16.9018197038
 20
-17.7536075464
  0
LWPOLYLINE
  5
76B
100
AcDbEntity
  8
21814000
100
AcDbPolyline
 62
250
  6
CONTINUOUS
 90
10
 70
0
 10
16.8990162952
 20
-18.1658770239
 10
16.898653668
 20
-18.1283579658
 10
16.8984368333
 20
-18.0887158128
 10
16.898373717
 20
-18.047157251
 10
16.8984728334
 20
-18.0037166235
 10
16.8987246022
 20
-17.9589581879
 10
16.8991039479
 20
-17.9139123666
 10
16.8995951235
 20
-17.8691423343
 10
16.9001907368
 20
-17.8247236526
 10
16.9008738179
 20
-17.7809533384
  0
LINE
  5
76C
100
AcDbEntity
  8
21814000
100
AcDbLine
 62
250
  6
CONTINUOUS
 10
16.9063947016
 20
-18.3652111598
 11
16.9063806796
 21
-18.3636727256
  0
LINE
  5
76D
100
AcDbEntity
  8
21814000
100
AcDbLine
 62
250
  6
CONTINUOUS
 10
16.0221018674
 20
19.422190298
 11
16.0221018674
 21
13.0817625912
  0
LINE
  5
76E
100
AcDbEntity
  8
21814000
100
AcDbLine
 62
250
  6
CONTINUOUS
 10
16.0221018674
 20
-19.422190298
 11
16.0221018674
 21
11.1182374088
  0
LWPOLYLINE
  5
76F
100
AcDbEntity
  8
21814000
100
AcDbPolyline
 62
7
  6
CONTINUOUS
 90
6
 70
0
 10
16.9022558735
 20
5.6096513065
 10
16.9025864602
 20
5.6616466618
 10
16.9033400075
 20
5.7144023825
 10
16.9043755627
 20
5.7674412531
 10
16.905473678
 20
5.8201787236
 10
16.9062560706
 20
5.8722572169
  0
LINE
  5
770
100
AcDbEntity
  8
21814000
100
AcDbLine
 62
7
  6
CONTINUOUS
 10
16.9061897952
 20
5.8686604334
 11
16.906371571
 21
5.8900965987
  0
LINE
  5
771
100
AcDbEntity
  8
21814000
100
AcDbLine
 62
7
  6
CONTINUOUS
 10
16.9033853831
 20
5.7360908775
 11
16.9056680906
 21
5.8364858163
  0
LWPOLYLINE
  5
772
100
AcDbEntity
  8
21814000
100
AcDbPolyline
 62
250
  6
CONTINUOUS
 90
46
 70
0
 10
16.9063947016
 20
14.7122867089
 10
16.9044172973
 20
14.6446325732
 10
16.8988783294
 20
14.5781550724
 10
16.8903532043
 20
14.5128542066
 10
16.8794505024
 20
14.4486265379
 10
16.8666587444
 20
14.3855755042
 10
16.8522218795
 20
14.3240114193
 10
16.8364709956
 20
14.2640029118
 10
16.8197624886
 20
14.2054813531
 10
16.8021742046
 20
14.1485511709
 10
16.7839396514
 20
14.093309801
 10
16.7652820698
 20
14.0396598075
 10
16.7461283196
 20
13.9874133108
 10
16.7265999204
 20
13.9365671041
 10
16.7068588303
 20
13.8871243941
 10
16.6867988005
 20
13.8389069218
 10
16.6664781662
 20
13.7918611189
 10
16.6460200176
 20
13.7460405536
 10
16.6253626907
 20
13.7014276709
 10
16.6045536755
 20
13.6579937123
 10
16.5836748457
 20
13.6157674362
 10
16.5626892446
 20
13.5748175639
 10
16.5416497566
 20
13.535150146
 10
16.5206016964
 20
13.4967591317
 10
16.4994788642
 20
13.4596950903
 10
16.4783278096
 20
13.4239615143
 10
16.4571744451
 20
13.3895549112
 10
16.4359053326
 20
13.3565153725
 10
16.4145417771
 20
13.3248072268
 10
16.3931128339
 20
13.2944661454
 10
16.3715030042
 20
13.2656392336
 10
16.3497181106
 20
13.2382733552
 10
16.3277886598
 20
13.2124216463
 10
16.3056272321
 20
13.1883906198
 10
16.2832417017
 20
13.1661395976
 10
16.2606541332
 20
13.1457092578
 10
16.2377933433
 20
13.1275281478
 10
16.214648383
 20
13.1115785064
 10
16.1912579165
 20
13.0978780946
 10
16.1676236371
 20
13.0869087434
 10
16.1437364359
 20
13.078743877
 10
16.1196361129
 20
13.0733100711
 10
16.0953990154
 20
13.0708688838
 10
16.0710625028
 20
13.071507501
 10
16.0466241793
 20
13.0751387368
 10
16.0221018674
 20
13.0817625912
  0
LWPOLYLINE
  5
773
100
AcDbEntity
  8
21814000
100
AcDbPolyline
 62
250
  6
CONTINUOUS
 90
40
 70
0
 10
17.1802479788
 20
14.4809601509
 10
17.1762812576
 20
14.4189108797
 10
17.1689685256
 20
14.3574143689
 10
17.1583097829
 20
14.2967704768
 10
17.1437843253
 20
14.2373912948
 10
17.125912857
 20
14.1794025786
 10
17.1062574901
 20
14.1226272842
 10
17.0850403022
 20
14.0672682842
 10
17.0620392158
 20
14.0135163648
 10
17.038150111
 20
13.9611203189
 10
17.0135376659
 20
13.9102599586
 10
16.9880372024
 20
13.86103708
 10
16.9620505664
 20
13.8130287933
 10
16.935653782
 20
13.7662782754
 10
16.908770825
 20
13.7209263554
 10
16.881575469
 20
13.6766521171
 10
16.8540808678
 20
13.633442044
 10
16.8262738675
 20
13.5914347909
 10
16.7982887795
 20
13.5505138545
 10
16.7701355732
 20
13.5106908158
 10
16.7418042793
 20
13.4720497295
 10
16.7133993014
 20
13.4345727196
 10
16.6849504737
 20
13.3982986632
 10
16.6564279621
 20
13.3632657677
 10
16.6278466684
 20
13.329449138
 10
16.599239509
 20
13.2968731285
 10
16.5705735676
 20
13.2655741086
 10
16.5417649963
 20
13.2355400574
 10
16.5128176906
 20
13.2067493124
 10
16.4837277552
 20
13.1792707619
 10
16.4543996563
 20
13.1532258409
 10
16.4248251233
 20
13.1285834701
 10
16.3950124268
 20
13.105414554
 10
16.3648908457
 20
13.0839948766
 10
16.3344551938
 20
13.0643047868
 10
16.3037106573
 20
13.046399973
 10
16.2726020725
 20
13.0306725809
 10
16.2411110516
 20
13.0172654824
 10
16.2092559824
 20
13.0060689772
 10
16.177036865
 20
12.9970968487
  0
LWPOLYLINE
  5
774
100
AcDbEntity
  8
21814000
100
AcDbPolyline
 62
250
  6
CONTINUOUS
 90
13
 70
0
 10
16.9063947016
 20
9.4877132911
 10
16.9086844183
 20
9.5163482296
 10
16.9155185871
 20
9.5445459723
 10
16.9267928432
 20
9.571876096
 10
16.9423350444
 20
9.5979214234
 10
16.9619079089
 20
9.6222844058
 10
16.9852126457
 20
9.6445931875
 10
17.0118934918
 20
9.6645072555
 10
17.0415431633
 20
9.681722661
 10
17.0737090965
 20
9.6959766616
 10
17.1079003091
 20
9.7070517012
 10
17.1435948858
 20
9.7147787402
 10
17.1802479787
 20
9.7190398496
  0
LINE
  5
775
100
AcDbEntity
  8
21814000
100
AcDbLine
 62
250
  6
CONTINUOUS
 10
17.1802479988
 20
2.6258073976
 11
17.1721083599
 21
2.5958244913
  0
LINE
  5
776
100
AcDbEntity
  8
RACCORDO
100
AcDbLine
 62
7
  6
CONTINUOUS
 10
-7.4186052984
 20
-23.1948185145
 11
-8.1686052984
 21
-23.6278312164
  0
LINE
  5
777
100
AcDbEntity
  8
RACCORDO
100
AcDbLine
 62
250
  6
CONTINUOUS
 10
-7.2936052984
 20
-23.4113248654
 11
-8.0436052984
 21
-23.8443375673
  0
LINE
  5
778
100
AcDbEntity
  8
21814000
100
AcDbLine
 62
250
  6
CONTINUOUS
 10
3.2063947016
 20
-15.197131
 11
1.906790664
 21
-15.82
  0
LINE
  5
779
100
AcDbEntity
  8
ASSI
100
AcDbLine
 62
7
  6
CONTINUOUS
 10
-4.7936052984
 20
14.828613
 11
-4.5936052984
 21
14.828613
  0
LINE
  5
77A
100
AcDbEntity
  8
21814000
100
AcDbLine
 62
250
  6
CONTINUOUS
 10
3.6636202142
 20
15.0376271713
 11
2.8494585115
 21
15.0376271713
  0
LINE
  5
77B
100
AcDbEntity
  8
21814000
100
AcDbLine
 62
7
  6
CONTINUOUS
 10
16.9063947016
 20
15.6
 11
17.1063947016
 21
15.6
  0
LINE
  5
77C
100
AcDbEntity
  8
21814000
100
AcDbLine
 62
250
  6
CONTINUOUS
 10
2.8494585115
 20
15.9660025312
 11
3.6636202142
 21
15.9660025312
  0
LINE
  5
77D
100
AcDbEntity
  8
21814000
100
AcDbLine
 62
7
  6
CONTINUOUS
 10
17.1802479788
 20
15.1760409428
 11
18.9325414244
 21
15.0227351311
  0
LWPOLYLINE
  5
77E
100
AcDbEntity
  8
21814000
100
AcDbPolyline
 62
250
  6
CONTINUOUS
 90
37
 70
0
 10
16.1770598981
 20
11.2028950204
 10
16.2114841719
 20
11.1932539642
 10
16.2456346256
 20
11.1809714016
 10
16.2795112592
 20
11.1660653173
 10
16.3131703227
 20
11.1483557265
 10
16.3465555661
 20
11.128067155
 10
16.379498239
 20
11.1058221068
 10
16.4118872269
 20
11.0817537657
 10
16.4438336444
 20
11.0557728492
 10
16.4755020849
 20
11.0281623343
 10
16.5068850591
 20
10.9990310357
 10
16.5379900564
 20
10.9683206013
 10
16.5690041387
 20
10.9360640993
 10
16.5999815123
 20
10.9023046239
 10
16.6308679709
 20
10.8670648497
 10
16.6616879579
 20
10.8303521621
 10
16.6924756706
 20
10.7922170576
 10
16.7231969117
 20
10.7526928687
 10
16.7537735323
 20
10.7117675653
 10
16.784205509
 20
10.6695619706
 10
16.8144928653
 20
10.6260606089
 10
16.844557523
 20
10.5810609091
 10
16.8744268007
 20
10.5347210964
 10
16.9040733798
 20
10.4870294195
 10
16.9333372265
 20
10.4375611282
 10
16.9623344768
 20
10.3864450879
 10
16.9909489947
 20
10.3337782633
 10
17.0186723382
 20
10.2791410415
 10
17.0456874227
 20
10.2227075539
 10
17.0718113328
 20
10.1646434403
 10
17.0959868818
 20
10.1045852272
 10
17.1185195344
 20
10.0424540243
 10
17.1391038257
 20
9.9788444766
 10
17.155766174
 20
9.9144088166
 10
17.1678487186
 20
9.8495127196
 10
17.1760093202
 20
9.784294288
 10
17.1802479788
 20
9.7190398491
  0
LINE
  5
77F
100
AcDbEntity
  8
21814000
100
AcDbLine
 62
250
  6
CONTINUOUS
 10
3.6636202142
 20
15.9660025312
 11
3.9350074579
 21
15.833377543
  0
LINE
  5
780
100
AcDbEntity
  8
RACCORDO
100
AcDbLine
 62
7
  6
CONTINUOUS
 10
-8.1686052984
 20
23.6278312164
 11
-7.4186052984
 21
23.1948185145
  0
LINE
  5
781
100
AcDbEntity
  8
RACCORDO
100
AcDbLine
 62
250
  6
CONTINUOUS
 10
-8.0436052984
 20
23.8443375673
 11
-7.2936052984
 21
23.4113248654
  0
LINE
  5
782
100
AcDbEntity
  8
21814000
100
AcDbLine
 62
250
  6
CONTINUOUS
 10
17.1802480029
 20
0.7741925883
 11
17.1721083584
 21
0.8041755087
  0
LWPOLYLINE
  5
783
100
AcDbEntity
  8
21814000
100
AcDbPolyline
 62
250
  6
CONTINUOUS
 90
13
 70
0
 10
16.9063947016
 20
14.7122867089
 10
16.9086844496
 20
14.683651295
 10
16.9155186941
 20
14.6554531921
 10
16.9267930424
 20
14.6281228242
 10
16.9423353177
 20
14.6020773717
 10
16.9619082166
 20
14.5777143649
 10
16.985212957
 20
14.5554056281
 10
17.01189377
 20
14.5354916688
 10
17.0415433676
 20
14.5182764232
 10
17.0737092247
 20
14.5040226075
 10
17.1079003808
 20
14.4929477759
 10
17.1435949134
 20
14.4852209788
 10
17.1802479787
 20
14.4809601505
  0
LWPOLYLINE
  5
784
100
AcDbEntity
  8
21814000
100
AcDbPolyline
 62
250
  6
CONTINUOUS
 90
6
 70
0
 10
16.9063947016
 20
18.1925674222
 10
16.9030455661
 20
18.2474182523
 10
16.8930230858
 20
18.3018608538
 10
16.8764018531
 20
18.3554900363
 10
16.8533055719
 20
18.4079066635
 10
16.8239061369
 20
18.4587206235
  0
LWPOLYLINE
  5
785
100
AcDbEntity
  8
21814000
100
AcDbPolyline
 62
250
  6
CONTINUOUS
 90
58
 70
0
 10
16.9063947016
 20
3.5224761222
 10
16.9067543261
 20
3.4884132793
 10
16.9077747141
 20
3.4554134721
 10
16.9093699845
 20
3.4234819082
 10
16.9114485776
 20
3.3926600153
 10
16.9139356743
 20
3.3629025346
 10
16.9167923551
 20
3.3340832572
 10
16.9199675221
 20
3.3061807869
 10
16.9234029489
 20
3.2792061706
 10
16.9270784641
 20
3.2530864527
 10
16.9309554375
 20
3.2278175618
 10
16.9349927662
 20
3.2033904901
 10
16.939184394
 20
3.179728712
 10
16.9435018147
 20
3.1568301124
 10
16.9479153766
 20
3.1346840365
 10
16.9524301595
 20
3.1132047044
 10
16.9570279316
 20
3.0923790189
 10
16.9616851022
 20
3.0722091446
 10
16.966407708
 20
3.0526351247
 10
16.9711849306
 20
3.0336363537
 10
16.9759964508
 20
3.0152241637
 10
16.9808390058
 20
2.9973882142
 10
16.9857005185
 20
2.9801243165
 10
16.9905674702
 20
2.9634279084
 10
16.9954370028
 20
2.94728896
 10
17.000295498
 20
2.9317151795
 10
17.0051353956
 20
2.9166907379
 10
17.0099654393
 20
2.9021713223
 10
17.014770769
 20
2.8881725832
 10
17.0195498285
 20
2.8746721025
 10
17.0243349374
 20
2.8615702875
 10
17.0291185785
 20
2.8488670273
 10
17.0338976649
 20
2.8365582117
 10
17.0387154026
 20
2.8245406857
 10
17.0435663514
 20
2.8128121408
 10
17.0484500606
 20
2.8013731766
 10
17.053421359
 20
2.7901276748
 10
17.0584812287
 20
2.7790606496
 10
17.0636269424
 20
2.7681881556
 10
17.0689114507
 20
2.7574633383
 10
17.0743550747
 20
2.7468402725
 10
17.0799387741
 20
2.736368688
 10
17.0856577682
 20
2.7261464553
 10
17.0915676483
 20
2.716098797
 10
17.0976131837
 20
2.7063046042
 10
17.1036183949
 20
2.6970881442
 10
17.1095009599
 20
2.6885781176
 10
17.1153324947
 20
2.6806399961
 10
17.121164933
 20
2.6732004663
 10
17.1269349949
 20
2.6662907899
 10
17.1326991873
 20
2.6598768647
 10
17.1386941427
 20
2.6537932842
 10
17.1449912388
 20
2.6479282029
 10
17.1515202128
 20
2.6424021159
 10
17.1583086841
 20
2.6374036449
 10
17.1653652726
 20
2.6329991629
 10
17.172679124
 20
2.6291320588
 10
17.1802479788
 20
2.6258073286
  0
LWPOLYLINE
  5
786
100
AcDbEntity
  8
21814000
100
AcDbPolyline
 62
250
  6
CONTINUOUS
 90
3
 70
0
 10
16.9945558004
 20
-16.4910569559
 10
16.994553668
 20
-16.489904967
 10
16.9946255191
 20
-16.4864557844
  0
LINE
  5
787
100
AcDbEntity
  8
21814000
100
AcDbLine
 62
7
  6
CONTINUOUS
 10
16.9063947016
 20
18.5223273724
 11
16.9063947016
 21
14.7122867089
  0
LINE
  5
788
100
AcDbEntity
  8
21814000
100
AcDbLine
 62
7
  6
CONTINUOUS
 10
16.9063947016
 20
-17.6715728752
 11
16.9063947016
 21
-18.5223273724
  0
LINE
  5
789
100
AcDbEntity
  8
21814000
100
AcDbLine
 62
7
  6
CONTINUOUS
 10
17.1063947016
 20
17.5
 11
17.1063947016
 21
15.6
  0
LINE
  5
78A
100
AcDbEntity
  8
21814000
100
AcDbLine
 62
7
  6
CONTINUOUS
 10
17.1063947016
 20
7.4
 11
17.1063947016
 21
5.5
  0
LINE
  5
78B
100
AcDbEntity
  8
21814000
100
AcDbLine
 62
7
  6
CONTINUOUS
 10
17.1063947016
 20
-1.6
 11
17.1063947016
 21
-3.3
  0
LINE
  5
78C
100
AcDbEntity
  8
21814000
100
AcDbLine
 62
250
  6
CONTINUOUS
 10
17.1802479788
 20
15.1760409428
 11
17.1802479788
 21
14.4809601509
  0
LINE
  5
78D
100
AcDbEntity
  8
21814000
100
AcDbLine
 62
250
  6
CONTINUOUS
 10
17.1802479788
 20
9.7190398491
 11
17.1802479788
 21
9.0239590572
  0
LINE
  5
78E
100
AcDbEntity
  8
21814000
100
AcDbLine
 62
250
  6
CONTINUOUS
 10
17.1802479788
 20
4.7760409428
 11
17.1802479788
 21
2.6258073286
  0
LINE
  5
78F
100
AcDbEntity
  8
21814000
100
AcDbLine
 62
250
  6
CONTINUOUS
 10
17.1802479788
 20
0.7741926714
 11
17.1802479788
 21
-1.3760409428
  0
LINE
  5
790
100
AcDbEntity
  8
21814000
100
AcDbLine
 62
250
  6
CONTINUOUS
 10
18.9325414244
 20
15.0227351311
 11
18.9325414244
 21
9.1772648689
  0
LINE
  5
791
100
AcDbEntity
  8
21814000
100
AcDbLine
 62
250
  6
CONTINUOUS
 10
18.9325414244
 20
4.6227351311
 11
18.9325414244
 21
-1.2227351311
  0
LINE
  5
792
100
AcDbEntity
  8
21814000
100
AcDbLine
 62
7
  6
CONTINUOUS
 10
16.9063947016
 20
5.5982885643
 11
16.9063947016
 21
9.4877132911
  0
LWPOLYLINE
  5
793
100
AcDbEntity
  8
21814000
100
AcDbPolyline
 62
7
  6
CONTINUOUS
 90
5
 70
0
 10
16.9017237368
 20
5.5982886363
 10
16.9018351233
 20
5.6329714558
 10
16.9021689885
 20
5.6674760862
 10
16.9026997025
 20
5.7018025275
 10
16.9033853831
 20
5.7360908775
  0
LINE
  5
794
100
AcDbEntity
  8
21814000
100
AcDbLine
 62
250
  6
CONTINUOUS
 10
16.9016412537
 20
-17.7068190732
 11
16.9017237368
 21
5.5982886363
  0
LWPOLYLINE
  5
795
100
AcDbEntity
  8
21814000
100
AcDbPolyline
 62
7
  6
CONTINUOUS
 90
4
 70
0
 10
16.9018197038
 20
-17.7536075464
 10
16.902070821
 20
-17.724197382
 10
16.9022121937
 20
-17.6938787964
 10
16.9022558735
 20
5.6096513065
  0
LINE
  5
796
100
AcDbEntity
  8
21814000
100
AcDbLine
 62
250
  6
CONTINUOUS
 10
16.9013634343
 20
-17.7432216751
 11
16.9016412537
 21
-17.7068190732
  0
LINE
  5
797
100
AcDbEntity
  8
21814000
100
AcDbLine
 62
250
  6
CONTINUOUS
 10
16.9008738179
 20
-17.7809533384
 11
16.9013634343
 21
-17.7432216751
  0
LINE
  5
798
100
AcDbEntity
  8
21814000
100
AcDbLine
 62
250
  6
CONTINUOUS
 10
16.9946255191
 20
-16.4864557844
 11
16.995297305
 21
-16.4627949636
  0
LINE
  5
799
100
AcDbEntity
  8
21814000
100
AcDbLine
 62
250
  6
CONTINUOUS
 10
16.995297305
 20
-16.4627949636
 11
16.9966568362
 21
-16.4205024812
  0
LINE
  5
79A
100
AcDbEntity
  8
21814000
100
AcDbLine
 62
250
  6
CONTINUOUS
 10
16.9966568362
 20
-16.4205024812
 11
16.9986955975
 21
-16.3621726416
  0
LINE
  5
79B
100
AcDbEntity
  8
21814000
100
AcDbLine
 62
250
  6
CONTINUOUS
 10
16.9986955975
 20
-16.3621726416
 11
17.0004102503
 21
-16.3162628678
  0
LWPOLYLINE
  5
79C
100
AcDbEntity
  8
21814000
100
AcDbPolyline
 62
250
  6
CONTINUOUS
 90
4
 70
0
 10
17.0004102503
 20
-16.3162628678
 10
17.0034593987
 20
-16.2403660685
 10
17.0045927074
 20
-16.2139609458
 10
17.0058148169
 20
-16.1873272559
  0
LINE
  5
79D
100
AcDbEntity
  8
21814000
100
AcDbLine
 62
250
  6
CONTINUOUS
 10
16.9008421077
 20
-18.2631128839
 11
16.9014328981
 21
-18.2529115455
  0
LINE
  5
79E
100
AcDbEntity
  8
28414000
100
AcDbLine
 62
7
  6
CONTINUOUS
 10
-7.8668550504
 20
18.6686416791
 11
-7.299560346
 21
18.6834968137
  0
LINE
  5
79F
100
AcDbEntity
  8
RACCORDO
100
AcDbLine
 62
250
  6
CONTINUOUS
 10
-7.9491123266
 20
17.8860159749
 11
-7.3962938732
 21
17.8956654569
  0
LINE
  5
7A0
100
AcDbEntity
  8
RACCORDO
100
AcDbLine
 62
7
  6
CONTINUOUS
 10
-7.8964716382
 20
18.3868586692
 11
-7.3347791039
 21
18.3966630488
  0
LINE
  5
7A1
100
AcDbEntity
  8
21814000
100
AcDbLine
 62
7
  6
CONTINUOUS
 10
16.9063947016
 20
17.5
 11
17.1063947016
 21
17.5
  0
LINE
  5
7A2
100
AcDbEntity
  8
21814000
100
AcDbLine
 62
250
  6
CONTINUOUS
 10
16.9063947016
 20
17.6715728753
 11
2.9303098827
 21
17.6715728753
  0
LINE
  5
7A3
100
AcDbEntity
  8
28414000
100
AcDbLine
 62
7
  6
CONTINUOUS
 10
-7.1623233625
 20
19.8012023503
 11
-7.7414208945
 21
19.8620679535
  0
LINE
  5
7A4
100
AcDbEntity
  8
RACCORDO
100
AcDbLine
 62
250
  6
CONTINUOUS
 10
-14.7020911615
 20
20.6816937705
 11
-14.125936599
 21
20.5809194817
  0
LWPOLYLINE
  5
7A5
100
AcDbEntity
  8
RACCORDO
100
AcDbPolyline
 62
250
  6
CONTINUOUS
 90
4
 70
0
 10
-14.900141654
 20
20.716860704
 10
-14.8959364025
 20
20.7160281376
 10
-14.8833319616
 20
20.7137322685
 10
-14.7020911615
 20
20.6816937705
  0
LWPOLYLINE
  5
7A6
100
AcDbEntity
  8
21814000
100
AcDbPolyline
 62
7
  6
CONTINUOUS
 90
7
 70
0
 10
16.1771655838
 20
12.9970634931
 10
16.1469798797
 20
13.0062650833
 10
16.1185308762
 20
13.0174326439
 10
16.0918185732
 20
13.0305661751
 10
16.0668429708
 20
13.0456656766
 10
16.0436040688
 20
13.0627311487
 10
16.0221018674
 20
13.0817625912
  0
LWPOLYLINE
  5
7A7
100
AcDbEntity
  8
21814000
100
AcDbPolyline
 62
250
  6
CONTINUOUS
 90
38
 70
0
 10
16.9022427329
 20
2.9817686384
 10
16.9062305057
 20
2.9704617034
 10
16.9127054422
 20
2.9527804086
 10
16.9192050709
 20
2.9357148094
 10
16.9256943884
 20
2.9192374653
 10
16.9321661381
 20
2.9033591322
 10
16.9386275766
 20
2.8880690542
 10
16.9450654704
 20
2.8733075238
 10
16.9514670154
 20
2.859091928
 10
16.9578450157
 20
2.8454048798
 10
16.9642246497
 20
2.8321345101
 10
16.970598779
 20
2.8192805038
 10
16.9769745421
 20
2.806843176
 10
16.9833985336
 20
2.7947116031
 10
16.9898636427
 20
2.7828820016
 10
16.9963769802
 20
2.7713581551
 10
17.003006473
 20
2.7600404905
 10
17.0097514596
 20
2.7489112947
 10
17.0166126016
 20
2.7379882809
 10
17.023659811
 20
2.7272250161
 10
17.0309184196
 20
2.716572875
 10
17.0383630956
 20
2.7060804828
 10
17.0459877559
 20
2.695847282
 10
17.0538708645
 20
2.6857995119
 10
17.0619339574
 20
2.6760109331
 10
17.0699355597
 20
2.6668022709
 10
17.0777757311
 20
2.6583069001
 10
17.085554412
 20
2.6503914459
 10
17.0933299485
 20
2.642976509
 10
17.1010175786
 20
2.6360907109
 10
17.1087020643
 20
2.6297054301
 10
17.1166960372
 20
2.6236554037
 10
17.1250917082
 20
2.6178203798
 10
17.1337968665
 20
2.6123206101
 10
17.1428475109
 20
2.6073515872
 10
17.1522556411
 20
2.6029784752
 10
17.1620092574
 20
2.5991361099
 10
17.1721083599
 20
2.5958244913
  0
LINE
  5
7A8
100
AcDbEntity
  8
21814000
100
AcDbLine
 62
7
  6
CONTINUOUS
 10
19.2063947016
 20
14.7238418372
 11
19.2063947016
 21
9.4761582568
  0
LINE
  5
7A9
100
AcDbEntity
  8
21814000
100
AcDbLine
 62
7
  6
CONTINUOUS
 10
19.2063947016
 20
4.3238418345
 11
19.2063947016
 21
-0.9238417399
  0
LWPOLYLINE
  5
7AA
100
AcDbEntity
  8
21814000
100
AcDbPolyline
 62
250
  6
CONTINUOUS
 90
22
 70
0
 10
18.9081225603
 20
-13.9999996295
 10
18.9027879879
 20
-14.151656533
 10
18.887434957
 20
-14.3012258688
 10
18.8620634673
 20
-14.4487076366
 10
18.8264630425
 20
-14.5947629
 10
18.7808441591
 20
-14.7387305956
 10
18.7258382464
 20
-14.8786275332
 10
18.661313121
 20
-15.0144014926
 10
18.5874009664
 20
-15.1461046941
 10
18.505129762
 20
-15.271910608
 10
18.4143890495
 20
-15.3917315749
 10
18.3152892871
 20
-15.5056552544
 10
18.2091898294
 20
-15.6121180959
 10
18.0959764141
 20
-15.7110271042
 10
17.9757633036
 20
-15.8024752745
 10
17.8502526384
 20
-15.8851780427
 10
17.7194016315
 20
-15.9589977903
 10
17.5832530701
 20
-16.0240721357
 10
17.4436374559
 20
-16.07952937
 10
17.3011649563
 20
-16.1250789237
 10
17.1552254039
 20
-16.1610113664
 10
17.0058187987
 20
-16.187326698
  0
LINE
  5
7AB
100
AcDbEntity
  8
21814000
100
AcDbLine
 62
250
  6
CONTINUOUS
 10
16.9008479124
 20
-18.2631133422
 11
16.8899944051
 21
-18.3135045213
  0
LINE
  5
7AC
100
AcDbEntity
  8
DRAFT
100
AcDbLine
 62
7
  6
CONTINUOUS
 10
-4.7936052984
 20
20.9
 11
5.2063947016
 21
20.9
  0
LINE
  5
7AD
100
AcDbEntity
  8
21814000
100
AcDbLine
 62
250
  6
CONTINUOUS
 10
16.0221018674
 20
18.8288665991
 11
5.2058778738
 21
18.9623668689
  0
LINE
  5
7AE
100
AcDbEntity
  8
21814000
100
AcDbLine
 62
7
  6
CONTINUOUS
 10
16.0221018674
 20
19.422190298
 11
5.2063947016
 21
19.6109791689
  0
LINE
  5
7AF
100
AcDbEntity
  8
RACCORDO
100
AcDbLine
 62
250
  6
CONTINUOUS
 10
-13.3753298446
 20
21.1580269694
 11
-7.6577853878
 21
20.6578066462
  0
LINE
  5
7B0
100
AcDbEntity
  8
RACCORDO
100
AcDbLine
 62
7
  6
CONTINUOUS
 10
-13.2917198101
 20
21.9535233093
 11
-7.5741753533
 21
21.4533029861
  0
LINE
  5
7B1
100
AcDbEntity
  8
DRAFT
100
AcDbLine
 62
7
  6
CONTINUOUS
 10
-7.7936052984
 20
21.9048099646
 11
-7.1436052984
 21
21.825
  0
LINE
  5
7B2
100
AcDbEntity
  8
26814000
100
AcDbLine
 62
7
  6
CONTINUOUS
 10
-8.2936052984
 20
22.0
 11
-7.7931303973
 21
21.938549409
  0
LWPOLYLINE
  5
7B3
100
AcDbEntity
  8
RACCORDO
100
AcDbPolyline
 62
250
  6
CONTINUOUS
 90
13
 70
0
 10
-5.9326306286
 20
21.9270762299
 10
-5.8911929019
 20
21.9203595042
 10
-5.876024809
 20
21.917870309
 10
-5.8600804225
 20
21.915353543
 10
-5.8433278359
 20
21.9127872071
 10
-5.8257989556
 20
21.9101933003
 10
-5.8074869501
 20
21.9077292714
 10
-5.7884124959
 20
21.9053805523
 10
-5.7685549164
 20
21.9031617111
 10
-5.7478453497
 20
21.9012739004
 10
-5.7262608418
 20
21.8997841713
 10
-5.7038243466
 20
21.8986254727
 10
-5.6805358642
 20
21.8977978048
  0
LWPOLYLINE
  5
7B4
100
AcDbEntity
  8
0
100
AcDbPolyline
 62
7
  6
CONTINUOUS
 90
10
 70
0
 43
0.3500000006
 10
0.8829141698
 20
43.7499994354
 10
0.9543427327
 20
43.6071416016
 10
0.9543427327
 20
43.5357149506
 10
0.8114856069
 20
43.3928571167
 10
0.740057044
 20
43.3928571167
 10
0.6686284103
 20
43.4642837677
 10
0.6686284103
 20
43.5357149506
 10
0.740057044
 20
43.6785727844
 10
0.8114856069
 20
43.7499994354
 10
0.8829141698
 20
43.7499994354
  0
LWPOLYLINE
  5
7B5
100
AcDbEntity
  8
21814000
100
AcDbPolyline
 62
250
  6
CONTINUOUS
 90
4
 70
0
 10
17.0058178485
 20
-16.1873293235
 10
16.9922181397
 20
-16.2292291782
 10
16.9790799172
 20
-16.2683095157
 10
16.9550296235
 20
-16.3384918248
  0
LWPOLYLINE
  5
7B6
100
AcDbEntity
  8
21814000
100
AcDbPolyline
 62
250
  6
CONTINUOUS
 90
4
 70
0
 10
16.8899944051
 20
-18.3135045213
 10
16.8734717704
 20
-18.3631214559
 10
16.8513854649
 20
-18.41164573
 10
16.823876335
 20
-18.4587663882
  0
LWPOLYLINE
  5
7B7
100
AcDbEntity
  8
21814000
100
AcDbPolyline
 62
250
  6
CONTINUOUS
 90
9
 70
0
 10
16.9550296235
 20
-16.3384918248
 10
16.9444395063
 20
-16.3698983999
 10
16.9348915502
 20
-16.399000946
 10
16.9264920584
 20
-16.4258555755
 10
16.9194089935
 20
-16.4507796806
 10
16.913782474
 20
-16.4742072836
 10
16.909703874
 20
-16.4962560375
 10
16.9072289777
 20
-16.5168077745
 10
16.9063992018
 20
-16.5358298034
  0
LWPOLYLINE
  5
7B8
100
AcDbEntity
  8
RACCORDO
100
AcDbPolyline
 62
250
  6
CONTINUOUS
 90
14
 70
0
 10
-7.2406443793
 20
21.9479205229
 10
-7.2061040377
 20
21.9530697012
 10
-7.1905794774
 20
21.9552430069
 10
-7.1761696965
 20
21.9571817362
 10
-7.1625105391
 20
21.9588765315
 10
-7.1495607691
 20
21.9603145312
 10
-7.1373616226
 20
21.9615085969
 10
-7.1256726518
 20
21.9624879559
 10
-7.1144900195
 20
21.9632513068
 10
-7.1038175629
 20
21.963799951
 10
-7.0934263456
 20
21.9641670208
 10
-7.0832400556
 20
21.9643635603
 10
-7.0733350049
 20
21.9643785254
 10
-7.0637111936
 20
21.964211916
  0
LWPOLYLINE
  5
7B9
100
AcDbEntity
  8
RACCORDO
100
AcDbPolyline
 62
250
  6
CONTINUOUS
 90
8
 70
0
 10
-7.3409181666
 20
22.4317298905
 10
-7.3058127559
 20
22.4329524976
 10
-7.2876219282
 20
22.4334781661
 10
-7.2690058981
 20
22.4339334239
 10
-7.2501736558
 20
22.434313232
 10
-7.2312679324
 20
22.434614128
 10
-7.2122711093
 20
22.4348337163
 10
-7.1932983382
 20
22.4349728998
  0
LINE
  5
7BA
100
AcDbEntity
  8
RACCORDO
100
AcDbLine
 62
7
  6
CONTINUOUS
 10
-4.7936052984
 20
21.4
 11
5.1438292541
 21
21.5734585653
  0
LINE
  5
7BB
100
AcDbEntity
  8
26814000
100
AcDbLine
 62
250
  6
CONTINUOUS
 10
5.1055570202
 20
21.6607041851
 11
5.1222283767
 21
21.6609951847
  0
LINE
  5
7BC
100
AcDbEntity
  8
26814000
100
AcDbLine
 62
250
  6
CONTINUOUS
 10
-7.7936052984
 20
22.032532937
 11
-8.2936052984
 21
22.0281695031
  0
LINE
  5
7BD
100
AcDbEntity
  8
26814000
100
AcDbLine
 62
7
  6
CONTINUOUS
 10
-7.7936052984
 20
22.3825462644
 11
-8.2936052984
 21
22.3781828305
  0
LINE
  5
7BE
100
AcDbEntity
  8
RACCORDO
100
AcDbLine
 62
250
  6
CONTINUOUS
 10
-7.1932983382
 20
22.4349728998
 11
-7.1556359338
 21
22.4350457667
  0
LINE
  5
7BF
100
AcDbEntity
  8
RACCORDO
100
AcDbLine
 62
250
  6
CONTINUOUS
 10
-6.0436052984
 20
22.9783121635
 11
-5.7936052984
 21
22.9783121635
  0
LINE
  5
7C0
100
AcDbEntity
  8
RACCORDO
100
AcDbLine
 62
250
  6
CONTINUOUS
 10
-7.0436052984
 20
22.9783121635
 11
-7.2936052984
 21
22.9783121635
  0
LWPOLYLINE
  5
7C1
100
AcDbEntity
  8
RACCORDO
100
AcDbPolyline
 62
250
  6
CONTINUOUS
 90
11
 70
0
 10
-7.4659295167
 20
21.9289665538
 10
-7.4423037591
 20
21.9289258064
 10
-7.4187119751
 20
21.9294063209
 10
-7.3951541648
 20
21.9304080974
 10
-7.3714373726
 20
21.9320131201
 10
-7.347754554
 20
21.9341394047
 10
-7.324684576
 20
21.9365409986
 10
-7.3022051369
 20
21.9392533414
 10
-7.2803385384
 20
21.9422409935
 10
-7.259730552
 20
21.9451516827
 10
-7.2406443793
 20
21.9479205229
  0
LINE
  5
7C2
100
AcDbEntity
  8
RACCORDO
100
AcDbLine
 62
250
  6
CONTINUOUS
 10
-7.1556359338
 20
22.4350457667
 11
-7.1184706512
 21
22.4348871592
  0
LINE
  5
7C3
100
AcDbEntity
  8
26814000
100
AcDbLine
 62
250
  6
CONTINUOUS
 10
4.2354275921
 20
22.2245985667
 11
4.6242532628
 21
22.2212053365
  0
LINE
  5
7C4
100
AcDbEntity
  8
26814000
100
AcDbLine
 62
7
  6
CONTINUOUS
 10
2.2063947016
 20
22.3301850577
 11
4.2151212371
 21
22.3126551668
  0
LWPOLYLINE
  5
7C5
100
AcDbEntity
  8
RACCORDO
100
AcDbPolyline
 62
250
  6
CONTINUOUS
 90
7
 70
0
 10
-7.448420613
 20
22.4288932441
 10
-7.4378930591
 20
22.428792384
 10
-7.4267466451
 20
22.4288536156
 10
-7.4148836568
 20
22.4290679978
 10
-7.4020832078
 20
22.4294212364
 10
-7.3882565646
 20
22.4298935239
 10
-7.3409181666
 20
22.4317298905
  0
LINE
  5
7C6
100
AcDbEntity
  8
RACCORDO
100
AcDbLine
 62
250
  6
CONTINUOUS
 10
-7.1184706512
 20
22.4348871592
 11
-7.0820843299
 21
22.4345103445
  0
LINE
  5
7C7
100
AcDbEntity
  8
RACCORDO
100
AcDbLine
 62
250
  6
CONTINUOUS
 10
-7.0820843299
 20
22.4345103445
 11
-7.0468850553
 21
22.4339531029
  0
LINE
  5
7C8
100
AcDbEntity
  8
RACCORDO
100
AcDbLine
 62
250
  6
CONTINUOUS
 10
-5.6805358642
 20
21.8977978048
 11
-4.7936052984
 21
21.8823164546
  0
LINE
  5
7C9
100
AcDbEntity
  8
RACCORDO
100
AcDbLine
 62
250
  6
CONTINUOUS
 10
-7.7936052984
 20
21.9346816494
 11
-7.4659295167
 21
21.9289665538
  0
LINE
  5
7CA
100
AcDbEntity
  8
RACCORDO
100
AcDbLine
 62
7
  6
CONTINUOUS
 10
-7.7936052984
 20
22.4349101299
 11
-7.4484443825
 21
22.4288853237
  0
LINE
  5
7CB
100
AcDbEntity
  8
RACCORDO
100
AcDbLine
 62
7
  6
CONTINUOUS
 10
-5.6630841701
 20
22.3977217452
 11
4.223847108
 21
22.2251447178
  0
LINE
  5
7CC
100
AcDbEntity
  8
RACCORDO
100
AcDbLine
 62
250
  6
CONTINUOUS
 10
-7.0436052984
 20
22.6218492968
 11
-6.0436052984
 21
22.6043942318
  0
LINE
  5
7CD
100
AcDbEntity
  8
RACCORDO
100
AcDbLine
 62
250
  6
CONTINUOUS
 10
-7.0468850304
 20
22.4339535759
 11
-6.0188855981
 21
22.4141717018
  0
LWPOLYLINE
  5
7CE
100
AcDbEntity
  8
RACCORDO
100
AcDbPolyline
 62
250
  6
CONTINUOUS
 90
4
 70
0
 10
-7.0637111936
 20
21.964211916
 10
-6.9526566007
 20
21.9615706094
 10
-6.8415908335
 20
21.9589354536
 10
-6.0640254825
 20
21.9406659488
  0
LINE
  5
7CF
100
AcDbEntity
  8
RACCORDO
100
AcDbLine
 62
250
  6
CONTINUOUS
 10
-6.0188855981
 20
22.4141717018
 11
-5.9894844026
 21
22.4134604517
  0
LWPOLYLINE
  5
7D0
100
AcDbEntity
  8
RACCORDO
100
AcDbPolyline
 62
250
  6
CONTINUOUS
 90
14
 70
0
 10
-6.0640254825
 20
21.9406659488
 10
-6.0557871341
 20
21.9404367126
 10
-6.0472970201
 20
21.9400836216
 10
-6.0385551405
 20
21.9396066759
 10
-6.0295932964
 20
21.9390133933
 10
-6.0203796868
 20
21.9382962559
 10
-6.0108189083
 20
21.9374327105
 10
-6.0009066594
 20
21.9364188375
 10
-5.9906472418
 20
21.9352585566
 10
-5.979958157
 20
21.9339410728
 10
-5.9688470313
 20
21.9324621821
 10
-5.9573062384
 20
21.9308260886
 10
-5.9452304017
 20
21.9290346096
 10
-5.9326306286
 20
21.9270762299
  0
LINE
  5
7D1
100
AcDbEntity
  8
RACCORDO
100
AcDbLine
 62
250
  6
CONTINUOUS
 10
-5.9894844026
 20
22.4134604517
 11
-5.9590713321
 21
22.4125687951
  0
LINE
  5
7D2
100
AcDbEntity
  8
RACCORDO
100
AcDbLine
 62
250
  6
CONTINUOUS
 10
-7.2936052984
 20
22.629704076
 11
-7.0436052984
 21
22.6218492968
  0
LINE
  5
7D3
100
AcDbEntity
  8
RACCORDO
100
AcDbLine
 62
250
  6
CONTINUOUS
 10
-6.0436052984
 20
22.6043942318
 11
-5.7936052984
 21
22.5965394526
  0
LINE
  5
7D4
100
AcDbEntity
  8
RACCORDO
100
AcDbLine
 62
250
  6
CONTINUOUS
 10
-5.9590713321
 20
22.4125687951
 11
-5.9281133617
 21
22.4115085702
  0
LINE
  5
7D5
100
AcDbEntity
  8
RACCORDO
100
AcDbLine
 62
250
  6
CONTINUOUS
 10
-5.9281133617
 20
22.4115085702
 11
-5.896827935
 21
22.4102755062
  0
LINE
  5
7D6
100
AcDbEntity
  8
RACCORDO
100
AcDbLine
 62
250
  6
CONTINUOUS
 10
-5.896827935
 20
22.4102755062
 11
-5.865546578
 21
22.4088722246
  0
LINE
  5
7D7
100
AcDbEntity
  8
RACCORDO
100
AcDbLine
 62
250
  6
CONTINUOUS
 10
-5.865546578
 20
22.4088722246
 11
-5.8346708185
 21
22.407312328
  0
LWPOLYLINE
  5
7D8
100
AcDbEntity
  8
RACCORDO
100
AcDbPolyline
 62
250
  6
CONTINUOUS
 90
5
 70
0
 10
-5.7099847604
 20
22.3996513002
 10
-5.697826165
 20
22.3989909799
 10
-5.6859652873
 20
22.3984306341
 10
-5.6743939859
 20
22.3979996869
 10
-5.6630843382
 20
22.3977210232
  0
LINE
  5
7D9
100
AcDbEntity
  8
RACCORDO
100
AcDbLine
 62
250
  6
CONTINUOUS
 10
-5.8346708185
 20
22.407312328
 11
-5.804717703
 21
22.4055871916
  0
LWPOLYLINE
  5
7DA
100
AcDbEntity
  8
RACCORDO
100
AcDbPolyline
 62
250
  6
CONTINUOUS
 90
3
 70
0
 10
-5.804717703
 20
22.4055871916
 10
-5.7760738122
 20
22.4038186414
 10
-5.7621749183
 20
22.4029242969
  0
LWPOLYLINE
  5
7DB
100
AcDbEntity
  8
RACCORDO
100
AcDbPolyline
 62
250
  6
CONTINUOUS
 90
3
 70
0
 10
-5.7621749183
 20
22.4029242969
 10
-5.7353282283
 20
22.4011972176
 10
-5.7099847604
 20
22.3996513002
  0
LWPOLYLINE
  5
7DC
100
AcDbEntity
  8
21814000
100
AcDbPolyline
 62
250
  6
CONTINUOUS
 90
15
 70
0
 10
16.823876335
 20
-18.4587663882
 10
16.7911205865
 20
-18.5041803918
 10
16.7533292204
 20
-18.5475947624
 10
16.7107452315
 20
-18.5887304764
 10
16.6636414948
 20
-18.6273240511
 10
16.6123202703
 20
-18.6631278355
 10
16.5571108813
 20
-18.6959120802
 10
16.4983676009
 20
-18.7254664119
 10
16.436467379
 20
-18.7516011834
 10
16.3718074231
 20
-18.7741486904
 10
16.3048026499
 20
-18.7929642478
 10
16.2358830224
 20
-18.8079271181
 10
16.1654907909
 20
-18.818941286
 10
16.0940776556
 20
-18.8259360746
 10
16.0221018674
 20
-18.8288665991
  0
LWPOLYLINE
  5
7DD
100
AcDbEntity
  8
21814000
100
AcDbPolyline
 62
250
  6
CONTINUOUS
 90
6
 70
0
 10
17.0058187987
 20
-16.187326698
 10
16.9780534933
 20
-16.2148598079
 10
16.951929965
 20
-16.2425596935
 10
16.927448214
 20
-16.2704263547
 10
16.9043628022
 20
-16.2983198398
 10
16.9022427329
 20
-16.3010940755
  0
LINE
  5
7DE
100
AcDbEntity
  8
RACCORDO
100
AcDbLine
 62
7
  6
CONTINUOUS
 10
-4.7936052984
 20
23.8
 11
1.7063947016
 21
23.8
  0
LINE
  5
7DF
100
AcDbEntity
  8
RACCORDO
100
AcDbLine
 62
250
  6
CONTINUOUS
 10
-4.7936052984
 20
23.8443375673
 11
-5.0436052984
 21
23.8443375673
  0
LINE
  5
7E0
100
AcDbEntity
  8
RACCORDO
100
AcDbLine
 62
250
  6
CONTINUOUS
 10
-8.0436052984
 20
23.8443375673
 11
-8.2936052984
 21
23.8443375673
  0
LINE
  5
7E1
100
AcDbEntity
  8
RACCORDO
100
AcDbLine
 62
250
  6
CONTINUOUS
 10
-4.7936052984
 20
24.25
 11
-8.2936052984
 21
24.25
  0
LINE
  5
7E2
100
AcDbEntity
  8
RACCORDO
100
AcDbLine
 62
7
  6
CONTINUOUS
 10
-8.0436052984
 20
24.5
 11
-5.0436052984
 21
24.5
  0
LINE
  5
7E3
100
AcDbEntity
  8
26814000
100
AcDbLine
 62
7
  6
CONTINUOUS
 10
1.9126712086
 20
23.7551661948
 11
2.2063947016
 21
23.7534573615
  0
LWPOLYLINE
  5
7E4
100
AcDbEntity
  8
21814000
100
AcDbPolyline
 62
250
  6
CONTINUOUS
 90
14
 70
0
 10
16.8239061369
 20
18.4587206235
 10
16.7884223541
 20
18.507553732
 10
16.7471183123
 20
18.5540425476
 10
16.7003014178
 20
18.5978410762
 10
16.6483201063
 20
18.6386233463
 10
16.5915612501
 20
18.6760858347
 10
16.5304472783
 20
18.7099497262
 10
16.4654330329
 20
18.7399629878
 10
16.397002384
 20
18.7659022451
 10
16.3256646284
 20
18.7875744447
 10
16.2519506988
 20
18.8048182908
 10
16.1764092131
 20
18.8175054458
 10
16.0996023904
 20
18.8255414852
 10
16.0221018674
 20
18.8288666005
  0
LWPOLYLINE
  5
7E5
100
AcDbEntity
  8
0
100
AcDbPolyline
 62
7
  6
CONTINUOUS
 90
7
 70
0
 43
0.3500000006
 10
5.9563945713
 20
33.2500007629
 10
4.45639468
 20
33.2500007629
 10
5.9563945713
 20
35.3928592072
 10
5.9563945713
 20
35.8214281769
 10
5.5278233356
 20
36.2500016785
 10
4.8849659157
 20
36.2500016785
 10
4.45639468
 20
35.607143692
  0
LWPOLYLINE
  5
7E6
100
AcDbEntity
  8
0
100
AcDbPolyline
 62
7
  6
CONTINUOUS
 90
8
 70
0
 43
0.3500000006
 10
6.8135376091
 20
33.2500007629
 10
7.6706806469
 20
33.2500007629
 10
8.0992518826
 20
33.6785697327
 10
8.0992518826
 20
34.535712204
 10
7.6706806469
 20
34.9642857056
 10
6.8135376091
 20
34.9642857056
 10
6.8135376091
 20
36.2500016785
 10
8.0992518826
 20
36.2500016785
  0
LWPOLYLINE
  5
7E7
100
AcDbEntity
  8
0
100
AcDbPolyline
 62
7
  6
CONTINUOUS
 90
6
 70
0
 43
0.3500000006
 10
-4.2599430656
 20
43.2499992828
 10
-3.18851441
 20
43.2499992828
 10
-2.9742287922
 20
43.4642837677
 10
-2.9742287922
 20
44.5357152557
 10
-3.4028000278
 20
44.9642842255
 10
-3.8313715467
 20
44.9642842255
  0
LWPOLYLINE
  5
7E8
100
AcDbEntity
  8
0
100
AcDbPolyline
 62
7
  6
CONTINUOUS
 90
3
 70
0
 43
0.3500000006
 10
3.4543428583
 20
43.8928572693
 10
1.9543426838
 20
43.8928572693
 10
2.5971998205
 20
46.2500001984
  0
LWPOLYLINE
  5
7E9
100
AcDbEntity
  8
0
100
AcDbPolyline
 62
7
  6
CONTINUOUS
 90
13
 70
0
 43
0.3500000006
 10
-1.6885143771
 20
44.9642842255
 10
-1.9742287703
 20
45.1785732422
 10
-1.9742287703
 20
45.8214266968
 10
-1.6885143771
 20
46.2500001984
 10
-1.0456572404
 20
46.2500001984
 10
-0.7599429889
 20
45.8214266968
 10
-0.7599429889
 20
45.1785732422
 10
-1.0456572404
 20
44.9642842255
 10
-0.6170858631
 20
44.5357152557
 10
-0.6170858631
 20
43.6785727844
 10
-1.0456572404
 20
43.2499992828
 10
-1.6885143771
 20
43.2499992828
 10
-2.117085896
 20
43.6785727844
  0
ARC
  5
7EA
100
AcDbEntity
  8
RACCORDO
100
AcDbCircle
 62
7
  6
CONTINUOUS
 10
55.85
 20
24.25
 40
0.25
100
AcDbArc
 50
90.0
 51
180.0
  0
ARC
  5
7EB
100
AcDbEntity
  8
RACCORDO
100
AcDbCircle
 62
7
  6
CONTINUOUS
 10
57.75
 20
24.25
 40
0.25
100
AcDbArc
 50
0.0
 51
90.0
  0
ARC
  5
7EC
100
AcDbEntity
  8
RACCORDO
100
AcDbCircle
 62
7
  6
CONTINUOUS
 10
76.65
 20
24.25
 40
0.25
100
AcDbArc
 50
0.0
 51
90.0
  0
ARC
  5
7ED
100
AcDbEntity
  8
RACCORDO
100
AcDbCircle
 62
7
  6
CONTINUOUS
 10
74.75
 20
24.25
 40
0.25
100
AcDbArc
 50
90.0
 51
180.0
  0
ARC
  5
7EE
100
AcDbEntity
  8
RACCORDO
100
AcDbCircle
 62
7
  6
CONTINUOUS
 10
57.75
 20
-24.25
 40
0.25
100
AcDbArc
 50
270.0
 51
360.0
  0
ARC
  5
7EF
100
AcDbEntity
  8
RACCORDO
100
AcDbCircle
 62
7
  6
CONTINUOUS
 10
55.85
 20
-24.25
 40
0.25
100
AcDbArc
 50
180.0
 51
270.0
  0
ARC
  5
7F0
100
AcDbEntity
  8
RACCORDO
100
AcDbCircle
 62
7
  6
CONTINUOUS
 10
74.75
 20
-24.25
 40
0.25
100
AcDbArc
 50
180.0
 51
270.0
  0
ARC
  5
7F1
100
AcDbEntity
  8
RACCORDO
100
AcDbCircle
 62
7
  6
CONTINUOUS
 10
76.65
 20
-24.25
 40
0.25
100
AcDbArc
 50
270.0
 51
360.0
  0
ARC
  5
7F2
100
AcDbEntity
  8
RACCORDO
100
AcDbCircle
 62
7
  6
CONTINUOUS
 10
-17.6558692287
 20
-19.8190295876
 40
1.5
100
AcDbArc
 50
177.8898991621
 51
263.0
  0
ARC
  5
7F3
100
AcDbEntity
  8
28414000
100
AcDbCircle
 62
7
  6
CONTINUOUS
 10
-11.4644397051
 20
-20.3434759974
 40
1.0
100
AcDbArc
 50
354.0
 51
76.5
  0
ARC
  5
7F4
100
AcDbEntity
  8
RACCORDO
100
AcDbCircle
 62
7
  6
CONTINUOUS
 10
-11.4936052984
 20
-18.0240247691
 40
0.3
100
AcDbArc
 50
214.2402507219
 51
269.0
  0
ARC
  5
7F5
100
AcDbEntity
  8
RACCORDO
100
AcDbCircle
 62
250
  6
CONTINUOUS
 10
-7.5436052984
 20
-22.9783121635
 40
0.5
100
AcDbArc
 50
300.0
 51
360.0
  0
ARC
  5
7F6
100
AcDbEntity
  8
RACCORDO
100
AcDbCircle
 62
250
  6
CONTINUOUS
 10
-5.5436052984
 20
-22.9783121635
 40
0.5
100
AcDbArc
 50
180.0
 51
240.0
  0
ARC
  5
7F7
100
AcDbEntity
  8
26814000
100
AcDbCircle
 62
7
  6
CONTINUOUS
 10
-8.0436052984
 20
-23.8443375673
 40
0.25
100
AcDbArc
 50
126.345781153
 51
173.5402060087
  0
ARC
  5
7F8
100
AcDbEntity
  8
RACCORDO
100
AcDbCircle
 62
7
  6
CONTINUOUS
 10
-7.5436052984
 20
-22.9783121635
 40
0.25
100
AcDbArc
 50
300.0
 51
360.0
  0
ARC
  5
7F9
100
AcDbEntity
  8
RACCORDO
100
AcDbCircle
 62
7
  6
CONTINUOUS
 10
-8.0436052984
 20
-24.25
 40
0.25
100
AcDbArc
 50
180.0
 51
270.0
  0
ARC
  5
7FA
100
AcDbEntity
  8
RACCORDO
100
AcDbCircle
 62
7
  6
CONTINUOUS
 10
-8.0436052984
 20
-23.8443375673
 40
0.25
100
AcDbArc
 50
120.0
 51
180.0
  0
ARC
  5
7FB
100
AcDbEntity
  8
RACCORDO
100
AcDbCircle
 62
7
  6
CONTINUOUS
 10
-5.0436052984
 20
-24.25
 40
0.25
100
AcDbArc
 50
270.0
 51
360.0
  0
ARC
  5
7FC
100
AcDbEntity
  8
RACCORDO
100
AcDbCircle
 62
7
  6
CONTINUOUS
 10
-5.5436052984
 20
-22.9783121635
 40
0.25
100
AcDbArc
 50
180.0
 51
240.0
  0
ARC
  5
7FD
100
AcDbEntity
  8
RACCORDO
100
AcDbCircle
 62
7
  6
CONTINUOUS
 10
-5.0436052984
 20
-23.8443375673
 40
0.25
100
AcDbArc
 50
0.0
 51
60.0
  0
ARC
  5
7FE
100
AcDbEntity
  8
RACCORDO
100
AcDbCircle
 62
7
  6
CONTINUOUS
 10
-5.593608094
 20
-22.5965395014
 40
0.1999987575
100
AcDbArc
 50
90.9991990116
 51
179.9999860206
  0
ARC
  5
7FF
100
AcDbEntity
  8
RACCORDO
100
AcDbCircle
 62
7
  6
CONTINUOUS
 10
-7.4936025029
 20
-22.6297040272
 40
0.1999987575
100
AcDbArc
 50
359.9999860207
 51
91.0
  0
ARC
  5
800
100
AcDbEntity
  8
26814000
100
AcDbCircle
 62
7
  6
CONTINUOUS
 10
4.2063947016
 20
-21.3126932437
 40
1.0
100
AcDbArc
 50
270.5
 51
360.0
  0
ARC
  5
801
100
AcDbEntity
  8
RACCORDO
100
AcDbCircle
 62
7
  6
CONTINUOUS
 10
4.2063947016
 20
-21.2252970227
 40
1.0
100
AcDbArc
 50
271.0
 51
360.0
  0
ARC
  5
802
100
AcDbEntity
  8
21814000
100
AcDbCircle
 62
7
  6
CONTINUOUS
 10
16.0063947016
 20
-18.5223273724
 40
0.9
100
AcDbArc
 50
271.0
 51
360.0
  0
ARC
  5
803
100
AcDbEntity
  8
RACCORDO
100
AcDbCircle
 62
7
  6
CONTINUOUS
 10
1.7063947016
 20
-23.3
 40
0.5
100
AcDbArc
 50
270.0
 51
360.0
  0
ARC
  5
804
100
AcDbEntity
  8
21814000
100
AcDbCircle
 62
7
  6
CONTINUOUS
 10
16.6976990494
 20
-14.0
 40
2.5086956522
100
AcDbArc
 50
276.7959242607
 51
83.2040757388
  0
ARC
  5
805
100
AcDbEntity
  8
21814000
100
AcDbCircle
 62
7
  6
CONTINUOUS
 10
17.0063947016
 20
-11.4096332306
 40
0.1
100
AcDbArc
 50
189.2305827762
 51
263.2040757504
  0
ARC
  5
806
100
AcDbEntity
  8
21814000
100
AcDbCircle
 62
7
  6
CONTINUOUS
 10
17.0063947016
 20
-16.5903465945
 40
0.0999982373
100
AcDbArc
 50
96.7981887064
 51
179.0542651601
  0
ARC
  5
807
100
AcDbEntity
  8
RACCORDO
100
AcDbCircle
 62
7
  6
CONTINUOUS
 10
-13.4224534242
 20
20.4592312622
 40
1.5
100
AcDbArc
 50
85.0
 51
170.1101008379
  0
ARC
  5
808
100
AcDbEntity
  8
RACCORDO
100
AcDbCircle
 62
7
  6
CONTINUOUS
 10
1.7063947016
 20
23.3
 40
0.5
100
AcDbArc
 50
0.0
 51
90.0
  0
ARC
  5
809
100
AcDbEntity
  8
RACCORDO
100
AcDbCircle
 62
250
  6
CONTINUOUS
 10
-5.5436052984
 20
22.9783121635
 40
0.5
100
AcDbArc
 50
120.0
 51
180.0
  0
ARC
  5
80A
100
AcDbEntity
  8
RACCORDO
100
AcDbCircle
 62
250
  6
CONTINUOUS
 10
-7.5436052984
 20
22.9783121635
 40
0.5
100
AcDbArc
 50
0.0
 51
60.0
  0
ARC
  5
80B
100
AcDbEntity
  8
26814000
100
AcDbCircle
 62
7
  6
CONTINUOUS
 10
-5.0436052984
 20
23.8443375673
 40
0.25
100
AcDbArc
 50
353.6542216326
 51
357.1340324624
  0
ARC
  5
80C
100
AcDbEntity
  8
RACCORDO
100
AcDbCircle
 62
7
  6
CONTINUOUS
 10
-7.5436052984
 20
22.9783121635
 40
0.25
100
AcDbArc
 50
0.0
 51
60.0
  0
ARC
  5
80D
100
AcDbEntity
  8
RACCORDO
100
AcDbCircle
 62
7
  6
CONTINUOUS
 10
-8.0436052984
 20
23.8443375673
 40
0.25
100
AcDbArc
 50
180.0
 51
240.0
  0
ARC
  5
80E
100
AcDbEntity
  8
RACCORDO
100
AcDbCircle
 62
7
  6
CONTINUOUS
 10
-5.0436052984
 20
23.8443375673
 40
0.25
100
AcDbArc
 50
300.0
 51
360.0
  0
ARC
  5
80F
100
AcDbEntity
  8
RACCORDO
100
AcDbCircle
 62
7
  6
CONTINUOUS
 10
-5.5436052984
 20
22.9783121635
 40
0.25
100
AcDbArc
 50
120.0
 51
180.0
  0
ARC
  5
810
100
AcDbEntity
  8
RACCORDO
100
AcDbCircle
 62
7
  6
CONTINUOUS
 10
-8.0436052984
 20
24.25
 40
0.25
100
AcDbArc
 50
90.0
 51
180.0
  0
ARC
  5
811
100
AcDbEntity
  8
RACCORDO
100
AcDbCircle
 62
7
  6
CONTINUOUS
 10
-5.0436052984
 20
24.25
 40
0.25
100
AcDbArc
 50
0.0
 51
90.0
  0
ARC
  5
812
100
AcDbEntity
  8
RACCORDO
100
AcDbCircle
 62
7
  6
CONTINUOUS
 10
-7.4936025029
 20
22.6297040272
 40
0.1999987575
100
AcDbArc
 50
268.9991990114
 51
0.0000139793
  0
ARC
  5
813
100
AcDbEntity
  8
RACCORDO
100
AcDbCircle
 62
7
  6
CONTINUOUS
 10
-5.593608094
 20
22.5965395014
 40
0.1999987575
100
AcDbArc
 50
180.0000139794
 51
269.0
  0
ARC
  5
814
100
AcDbEntity
  8
21814000
100
AcDbCircle
 62
7
  6
CONTINUOUS
 10
18.9063947016
 20
4.3238767217
 40
0.3
100
AcDbArc
 50
0.0
 51
85.0
  0
ARC
  5
815
100
AcDbEntity
  8
21814000
100
AcDbCircle
 62
7
  6
CONTINUOUS
 10
18.9063947016
 20
-0.9238767217
 40
0.3
100
AcDbArc
 50
275.0
 51
360.0
  0
ARC
  5
816
100
AcDbEntity
  8
21814000
100
AcDbCircle
 62
7
  6
CONTINUOUS
 10
18.9063947016
 20
9.4761232783
 40
0.3
100
AcDbArc
 50
275.0
 51
360.0
  0
ARC
  5
817
100
AcDbEntity
  8
21814000
100
AcDbCircle
 62
7
  6
CONTINUOUS
 10
17.2063947016
 20
8.7251006478
 40
0.3
100
AcDbArc
 50
95.0
 51
180.0
  0
ARC
  5
818
100
AcDbEntity
  8
21814000
100
AcDbCircle
 62
7
  6
CONTINUOUS
 10
17.2063947016
 20
5.0748993522
 40
0.3
100
AcDbArc
 50
180.0
 51
265.0
  0
ARC
  5
819
100
AcDbEntity
  8
21814000
100
AcDbCircle
 62
7
  6
CONTINUOUS
 10
17.2063947016
 20
-1.6748993522
 40
0.3
100
AcDbArc
 50
95.0
 51
180.0
  0
ARC
  5
81A
100
AcDbEntity
  8
26814000
100
AcDbCircle
 62
7
  6
CONTINUOUS
 10
4.2063947016
 20
21.3126932437
 40
1.0
100
AcDbArc
 50
0.0
 51
89.5
  0
ARC
  5
81B
100
AcDbEntity
  8
RACCORDO
100
AcDbCircle
 62
7
  6
CONTINUOUS
 10
4.2063947016
 20
21.2252970227
 40
1.0
100
AcDbArc
 50
0.0
 51
89.0
  0
ARC
  5
81C
100
AcDbEntity
  8
21814000
100
AcDbCircle
 62
7
  6
CONTINUOUS
 10
16.0063947016
 20
18.5223273724
 40
0.9
100
AcDbArc
 50
0.0
 51
89.0
  0
ARC
  5
81D
100
AcDbEntity
  8
21814000
100
AcDbCircle
 62
7
  6
CONTINUOUS
 10
18.9063947016
 20
14.7238767217
 40
0.3
100
AcDbArc
 50
0.0
 51
85.0
  0
ARC
  5
81E
100
AcDbEntity
  8
21814000
100
AcDbCircle
 62
7
  6
CONTINUOUS
 10
17.2063947016
 20
15.4748993522
 40
0.3
100
AcDbArc
 50
180.0
 51
265.0
  0
ARC
  5
81F
100
AcDbEntity
  8
RACCORDO
100
AcDbCircle
 62
7
  6
CONTINUOUS
 10
280.6417233614
 20
-30.8097645481
 40
300.0
100
AcDbArc
 50
170.1101008379
 51
177.8898991621
  0
ELLIPSE
  5
820
100
AcDbEntity
  8
26814000
100
AcDbEllipse
 62
7
  6
CONTINUOUS
 10
32.95
 20
-22.0281695031
 30
0.0
 11
0.0
 21
0.3500133274
 31
0.0
 40
0.9999619231
 41
7.853981634
 42
9.4247779608
  0
ELLIPSE
  5
821
100
AcDbEntity
  8
26814000
100
AcDbEllipse
 62
7
  6
CONTINUOUS
 10
54.55
 20
22.0281695031
 30
0.0
 11
-0.0
 21
-0.3500133274
 31
0.0
 40
0.9999619231
 41
7.853981634
 42
9.4247779608
  0
ELLIPSE
  5
822
100
AcDbEntity
  8
26814000
100
AcDbEllipse
 62
7
  6
CONTINUOUS
 10
32.95
 20
22.0281695031
 30
0.0
 11
0.0
 21
0.3500133274
 31
0.0
 40
0.9999619231
 41
-0.0
 42
1.5707963268
  0
ELLIPSE
  5
823
100
AcDbEntity
  8
26814000
100
AcDbEllipse
 62
7
  6
CONTINUOUS
 10
54.55
 20
-22.0281695031
 30
0.0
 11
-0.0
 21
-0.3500133274
 31
0.0
 40
0.9999619231
 41
-0.0
 42
1.5707963268
  0
ELLIPSE
  5
824
100
AcDbEntity
  8
26814000
100
AcDbEllipse
 62
7
  6
CONTINUOUS
 10
54.3369098829
 20
-23.8443375673
 30
0.0
 11
0.0
 21
0.25
 31
0.0
 40
0.0058178298
 41
0.5235987756
 42
1.5707963268
  0
ELLIPSE
  5
825
100
AcDbEntity
  8
26814000
100
AcDbEllipse
 62
7
  6
CONTINUOUS
 10
52.0630901171
 20
-23.8443375673
 30
0.0
 11
0.0
 21
0.25
 31
0.0
 40
0.0058178298
 41
-1.5707963268
 42
-0.5235987756
  0
ELLIPSE
  5
826
100
AcDbEntity
  8
26814000
100
AcDbEllipse
 62
7
  6
CONTINUOUS
 10
52.0630901171
 20
-24.1369056521
 30
0.0
 11
-0.0
 21
0.25
 31
0.0
 40
0.0058178298
 41
-3.1357748894
 42
-1.5707963268
  0
ELLIPSE
  5
827
100
AcDbEntity
  8
26814000
100
AcDbEllipse
 62
7
  6
CONTINUOUS
 10
54.3369098829
 20
-24.1369056521
 30
0.0
 11
0.0
 21
0.25
 31
0.0
 40
0.0058178298
 41
-4.7123889804
 42
-3.1474104178
  0
ELLIPSE
  5
828
100
AcDbEntity
  8
26814000
100
AcDbEllipse
 62
7
  6
CONTINUOUS
 10
35.4369098829
 20
-23.8443375673
 30
0.0
 11
0.0
 21
0.25
 31
0.0
 40
0.0058178298
 41
0.5235987756
 42
1.5707963268
  0
ELLIPSE
  5
829
100
AcDbEntity
  8
26814000
100
AcDbEllipse
 62
7
  6
CONTINUOUS
 10
33.1630901171
 20
-23.8443375673
 30
0.0
 11
0.0
 21
0.25
 31
0.0
 40
0.0058178298
 41
-1.5707963268
 42
-0.5235987756
  0
ELLIPSE
  5
82A
100
AcDbEntity
  8
26814000
100
AcDbEllipse
 62
7
  6
CONTINUOUS
 10
33.1630901171
 20
-24.1369056521
 30
0.0
 11
-0.0
 21
0.25
 31
0.0
 40
0.0058178298
 41
-3.1357748894
 42
-1.5707963268
  0
ELLIPSE
  5
82B
100
AcDbEntity
  8
26814000
100
AcDbEllipse
 62
7
  6
CONTINUOUS
 10
35.4369098829
 20
-24.1369056521
 30
0.0
 11
0.0
 21
0.25
 31
0.0
 40
0.0058178298
 41
-4.7123889804
 42
-3.1474104178
  0
ELLIPSE
  5
82C
100
AcDbEntity
  8
26814000
100
AcDbEllipse
 62
7
  6
CONTINUOUS
 10
33.1630901171
 20
23.8443375673
 30
0.0
 11
-0.0
 21
0.25
 31
0.0
 40
0.0058178298
 41
-2.617993878
 42
-1.5707963268
  0
ELLIPSE
  5
82D
100
AcDbEntity
  8
26814000
100
AcDbEllipse
 62
7
  6
CONTINUOUS
 10
35.4369098829
 20
23.8443375673
 30
0.0
 11
0.0
 21
0.25
 31
0.0
 40
0.0058178298
 41
-4.7123889804
 42
-3.6651914292
  0
ELLIPSE
  5
82E
100
AcDbEntity
  8
26814000
100
AcDbEllipse
 62
7
  6
CONTINUOUS
 10
35.4369098829
 20
24.1369056521
 30
0.0
 11
0.0
 21
0.25
 31
0.0
 40
0.0058178298
 41
0.0058177642
 42
1.5707963268
  0
ELLIPSE
  5
82F
100
AcDbEntity
  8
26814000
100
AcDbEllipse
 62
7
  6
CONTINUOUS
 10
33.1630901171
 20
24.1369056521
 30
0.0
 11
0.0
 21
0.25
 31
0.0
 40
0.0058178298
 41
-1.5707963268
 42
-0.0058177642
  0
ELLIPSE
  5
830
100
AcDbEntity
  8
26814000
100
AcDbEllipse
 62
7
  6
CONTINUOUS
 10
52.0630901171
 20
23.8443375673
 30
0.0
 11
0.0
 21
0.25
 31
0.0
 40
0.0058178298
 41
-2.617993878
 42
-1.5707963268
  0
ELLIPSE
  5
831
100
AcDbEntity
  8
26814000
100
AcDbEllipse
 62
7
  6
CONTINUOUS
 10
54.3369098829
 20
23.8443375673
 30
0.0
 11
-0.0
 21
0.25
 31
0.0
 40
0.0058178298
 41
-4.7123889804
 42
-3.6651914292
  0
ELLIPSE
  5
832
100
AcDbEntity
  8
26814000
100
AcDbEllipse
 62
7
  6
CONTINUOUS
 10
54.3369098829
 20
24.1369056521
 30
0.0
 11
0.0
 21
0.25
 31
0.0
 40
0.0058178298
 41
0.0058177642
 42
1.5707963268
  0
ELLIPSE
  5
833
100
AcDbEntity
  8
26814000
100
AcDbEllipse
 62
7
  6
CONTINUOUS
 10
52.0630901171
 20
24.1369056521
 30
0.0
 11
0.0
 21
0.25
 31
0.0
 40
0.0058178298
 41
-1.5707963268
 42
-0.0058177642
  0
ELLIPSE
  5
834
100
AcDbEntity
  8
26814000
100
AcDbEllipse
 62
7
  6
CONTINUOUS
 10
39.6540775579
 20
-22.3938911925
 30
0.0
 11
0.3
 21
0.0
 31
0.0
 40
0.0087268678
 41
1.5707963268
 42
3.1357748894
  0
ELLIPSE
  5
835
100
AcDbEntity
  8
26814000
100
AcDbEllipse
 62
7
  6
CONTINUOUS
 10
39.6540775579
 20
-23.7959275191
 30
0.0
 11
0.3
 21
0.0
 31
0.0
 40
0.0058178298
 41
1.5707963268
 42
3.1357748894
  0
ELLIPSE
  5
836
100
AcDbEntity
  8
26814000
100
AcDbEllipse
 62
7
  6
CONTINUOUS
 10
47.8459224421
 20
-23.7959275191
 30
0.0
 11
0.3
 21
0.0
 31
0.0
 40
0.0058178298
 41
0.0058177642
 42
1.5707963268
  0
ELLIPSE
  5
837
100
AcDbEntity
  8
26814000
100
AcDbEllipse
 62
7
  6
CONTINUOUS
 10
47.8459224421
 20
-22.3938911925
 30
0.0
 11
0.3
 21
-0.0
 31
0.0
 40
0.0087268678
 41
0.0058177642
 42
1.5707963268
  0
ELLIPSE
  5
838
100
AcDbEntity
  8
26814000
100
AcDbEllipse
 62
7
  6
CONTINUOUS
 10
39.6540775579
 20
23.7959275191
 30
0.0
 11
0.3
 21
-0.0
 31
0.0
 40
0.0058178298
 41
-3.1357748894
 42
-1.5707963268
  0
ELLIPSE
  5
839
100
AcDbEntity
  8
26814000
100
AcDbEllipse
 62
7
  6
CONTINUOUS
 10
39.6540775579
 20
22.3938911925
 30
0.0
 11
0.3
 21
0.0
 31
0.0
 40
0.0087268678
 41
-3.1357748894
 42
-1.5707963268
  0
ELLIPSE
  5
83A
100
AcDbEntity
  8
26814000
100
AcDbEllipse
 62
7
  6
CONTINUOUS
 10
47.8459224421
 20
22.3938911925
 30
0.0
 11
0.3
 21
-0.0
 31
0.0
 40
0.0087268678
 41
-1.5707963268
 42
-0.0058177642
  0
ELLIPSE
  5
83B
100
AcDbEntity
  8
26814000
100
AcDbEllipse
 62
7
  6
CONTINUOUS
 10
47.8459224421
 20
23.7959275191
 30
0.0
 11
0.3
 21
0.0
 31
0.0
 40
0.0058178298
 41
-1.5707963268
 42
-0.0058177642
  0
ELLIPSE
  5
83C
100
AcDbEntity
  8
RACCORDO
100
AcDbEllipse
 62
7
  6
CONTINUOUS
 10
55.600076164
 20
-21.882468771
 30
0.0
 11
0.3536610946
 21
-0.3536610946
 31
0.0
 40
0.9996954599
 41
-2.1036697272
 42
-1.9313551895
  0
ELLIPSE
  5
83D
100
AcDbEntity
  8
RACCORDO
100
AcDbEllipse
 62
7
  6
CONTINUOUS
 10
76.899923836
 20
21.882468771
 30
0.0
 11
-0.3536610946
 21
0.3536610946
 31
0.0
 40
0.9996954599
 41
-2.3563467834
 42
-1.9313551895
  0
ELLIPSE
  5
83E
100
AcDbEntity
  8
RACCORDO
100
AcDbEllipse
 62
7
  6
CONTINUOUS
 10
55.600076164
 20
21.882468771
 30
0.0
 11
0.3536610946
 21
0.3536610946
 31
0.0
 40
0.9996954599
 41
-4.3467785717
 42
-4.0813315148
  0
ELLIPSE
  5
83F
100
AcDbEntity
  8
RACCORDO
100
AcDbEllipse
 62
7
  6
CONTINUOUS
 10
76.899923836
 20
-21.882468771
 30
0.0
 11
0.3536610946
 21
0.3536610946
 31
0.0
 40
0.9996954599
 41
-1.2053429231
 42
-0.7852458701
  0
ELLIPSE
  5
840
100
AcDbEntity
  8
RACCORDO
100
AcDbEllipse
 62
7
  6
CONTINUOUS
 10
76.899923836
 20
-21.882468771
 30
0.0
 11
0.3536610946
 21
0.3536610946
 31
0.0
 40
0.9996954599
 41
-1.535543542
 42
-1.2434048153
  0
ELLIPSE
  5
841
100
AcDbEntity
  8
RACCORDO
100
AcDbEllipse
 62
7
  6
CONTINUOUS
 10
76.8475586412
 20
-21.9348339658
 30
0.0
 11
-0.3536610946
 21
-0.3536610946
 31
0.0
 40
0.9996954599
 41
7.0684311773
 42
8.6395320906
  0
ELLIPSE
  5
842
100
AcDbEntity
  8
RACCORDO
100
AcDbEllipse
 62
7
  6
CONTINUOUS
 10
55.6524413588
 20
21.9348339658
 30
0.0
 11
0.3536610946
 21
0.3536610946
 31
0.0
 40
0.9996954599
 41
7.0684311773
 42
8.5903989905
  0
ELLIPSE
  5
843
100
AcDbEntity
  8
RACCORDO
100
AcDbEllipse
 62
7
  6
CONTINUOUS
 10
55.6524413588
 20
-21.9348339658
 30
0.0
 11
0.3536610946
 21
-0.3536610946
 31
0.0
 40
0.9996954599
 41
-2.2105565043
 42
-0.7852458701
  0
ELLIPSE
  5
844
100
AcDbEntity
  8
RACCORDO
100
AcDbEllipse
 62
7
  6
CONTINUOUS
 10
76.8475586412
 20
21.9348339658
 30
0.0
 11
-0.3536610946
 21
0.3536610946
 31
0.0
 40
0.9996954599
 41
-2.3563467834
 42
-0.7852458701
  0
ELLIPSE
  5
845
100
AcDbEntity
  8
RACCORDO
100
AcDbEllipse
 62
7
  6
CONTINUOUS
 10
76.3498781376
 20
20.657564275
 30
0.0
 11
0.7998183719
 21
0.0221571454
 31
0.0
 40
0.9945135036
 41
-0.0275437628
 42
0.1690180924
  0
ELLIPSE
  5
846
100
AcDbEntity
  8
RACCORDO
100
AcDbEllipse
 62
7
  6
CONTINUOUS
 10
76.3498781376
 20
-21.2115651303
 30
0.0
 11
0.7998183719
 21
-0.0221571454
 31
0.0
 40
0.9945135036
 41
-1.5429479775
 42
0.0275437628
  0
ELLIPSE
  5
847
100
AcDbEntity
  8
RACCORDO
100
AcDbEllipse
 62
7
  6
CONTINUOUS
 10
33.6501218624
 20
20.657564275
 30
0.0
 11
0.7998183719
 21
-0.0221571454
 31
0.0
 40
0.9945135036
 41
2.9725745606
 42
3.1691364164
  0
ELLIPSE
  5
848
100
AcDbEntity
  8
RACCORDO
100
AcDbEllipse
 62
7
  6
CONTINUOUS
 10
33.6501218624
 20
-21.2115651303
 30
0.0
 11
0.7998183719
 21
0.0221571454
 31
0.0
 40
0.9945135036
 41
3.1140488908
 42
4.6845406311
  0
ELLIPSE
  5
849
100
AcDbEntity
  8
21814000
100
AcDbEllipse
 62
250
  6
CONTINUOUS
 10
2.5565926828
 20
-12.659757
 30
0.0
 11
0.0
 21
0.65
 31
0.0
 40
0.9996954135
 41
-1.5707963268
 42
1.5707963268
  0
ELLIPSE
  5
84A
100
AcDbEntity
  8
21814000
100
AcDbEllipse
 62
250
  6
CONTINUOUS
 10
-1.303749849
 20
-4.680795
 30
0.0
 11
0.0
 21
0.352865
 31
0.0
 40
0.9996954135
 41
-1.5707963268
 42
1.5707963268
  0
ENDSEC
  0
SECTION
  2
OBJECTS
  0
DICTIONARY
  5
C
100
AcDbDictionary
280
0
281
1
  3
ACAD_GROUP
350
D
  3
ACAD_MLINESTYLE
350
17
  3
ACAD_LAYOUT
350
1A
  3
ACAD_PLOTSETTINGS
350
19
  3
ACAD_PLOTSTYLENAME
350
E
  0
DICTIONARY
  5
D
102
{ACAD_REACTORS
330
C
102
}
100
AcDbDictionary
280
0
281
1
  0
ACDBDICTIONARYWDFLT
  5
E
102
{ACAD_REACTORS
330
C
102
}
100
AcDbDictionary
281
1
  3
Normal
350
F
100
AcDbDictionaryWithDefault
340
F
  0
DICTIONARY
  5
17
102
{ACAD_REACTORS
330
C
102
}
100
AcDbDictionary
280
0
281
1
  3
Standard
350
18
  0
DICTIONARY
  5
19
102
{ACAD_REACTORS
330
C
102
}
100
AcDbDictionary
281
1
  0
DICTIONARY
  5
1A
102
{ACAD_REACTORS
330
C
102
}
100
AcDbDictionary
281
1
  3
Model
350
84B
  3
Layout1
350
84C
  0
ACDBPLACEHOLDER
  5
F
102
{ACAD_REACTORS
330
E
102
}
  0
MLINESTYLE
  5
18
102
{ACAD_REACTORS
330
17
102
}
100
AcDbMlineStyle
  2
STANDARD
 70
0
  3

 62
256
 51
90.0
 52
90.0
 71
2
 49
0.5
 62
256
  6
BYLAYER
 49
-0.5
 62
256
  6
BYLAYER
  0
LAYOUT
  5
84B
102
{ACAD_REACTORS
330
1A
102
}
100
AcDbPlotSettings
  1

  2
none_device
  4
ISO_A4_(297.00_x_210.00_MM)
  6

 40
0.0
 41
0.0
 42
0.0
 43
0.0
 44
297.0
 45
210.0
 46
0.0
 47
0.0
 48
0.0
 49
0.0
140
0.0
141
0.0
142
1.0
143
1.0
 70
1024
 72
1
 73
0
 74
0
  7

 75
0
147
1.0
148
0.0
149
0.0
100
AcDbLayout
  1
Model
 70
0
 71
0
 10
0.0
 20
0.0
 11
297.0
 21
210.0
 12
0.0
 22
0.0
 32
0.0
 14
0.0
 24
0.0
 34
0.0
 15
0.0
 25
0.0
 35
0.0
146
0.0
 13
0.0
 23
0.0
 33
0.0
 16
1.0
 26
0.0
 36
0.0
 17
0.0
 27
1.0
 37
0.0
 76
0
330
22B
345
0
346
0
  0
LAYOUT
  5
84C
102
{ACAD_REACTORS
330
1A
102
}
100
AcDbPlotSettings
  1

  2
none_device
  4
ISO_A4_(297.00_x_210.00_MM)
  6

 40
0.0
 41
0.0
 42
0.0
 43
0.0
 44
297.0
 45
210.0
 46
0.0
 47
0.0
 48
0.0
 49
0.0
140
0.0
141
0.0
142
1.0
143
1.0
 70
0
 72
1
 73
0
 74
0
  7

 75
0
147
1.0
148
0.0
149
0.0
100
AcDbLayout
  1
Layout1
 70
0
 71
1
 10
0.0
 20
0.0
 11
297.0
 21
210.0
 12
0.0
 22
0.0
 32
0.0
 14
0.0
 24
0.0
 34
0.0
 15
0.0
 25
0.0
 35
0.0
146
0.0
 13
0.0
 23
0.0
 33
0.0
 16
1.0
 26
0.0
 36
0.0
 17
0.0
 27
1.0
 37
0.0
 76
0
330
22C
345
0
346
0
  0
ENDSEC
  0
EOF
