  0
SECTION
  2
HEADER
  9
$ACADVER
  1
AC1015
  9
$DWGCODEPAGE
  3
ANSI_1252
  9
$EXTMAX
 10
297.0
 20
210.0
 30
0.0
  9
$EXTMIN
 10
0.0
 20
0.0
 30
0.0
  9
$LIMMIN
 10
0.0
 20
0.0
  9
$LIMMAX
 10
297.0
 20
210.0
  9
$VIEWCTR
 10
148.5
 20
105.0
  9
$VIEWSIZE
 40
210.0
  9
$CLAYER
  8
0
  9
$LTSCALE
 40
16.335
  9
$CELTYPE
  6
BYLAYER
  9
$DIMSCALE
 40
1.0
  9
$DIMASZ
 40
3.0
  9
$DIMEXO
 40
0.5
  9
$DIMDLI
 40
11.286
  9
$DIMEXE
 40
1.5
  9
$DIMCEN
 40
2.673
  9
$DIMLFAC
 40
1.0
  9
$DIMBLK
  1
_FILLED
  9
$DIMTXT
 40
3.0
  9
$DIMTOL
 70
1
  9
$DIMLIM
 70
0
  9
$DIMTFAC
 40
1.0
  9
$DIMTP
 40
0.01
  9
$DIMTM
 40
0.01
  9
$DIMGAP
 40
0.625
  9
$DIMDSEP
 70
44
  9
$PDMODE
 70
3
  9
$PDSIZE
 40
3.0
  9
$HANDSEED
  5
6E7
  9
$TILEMODE
 70
1
  9
$MEASUREMENT
 70
1
  9
$INSUNITS
 70
4
  0
ENDSEC
  0
SECTION
  2
CLASSES
  0
CLASS
  1
ACDBDICTIONARYWDFLT
  2
AcDbDictionaryWithDefault
  3
AutoCAD 2000
 90
0
280
0
281
0
  0
CLASS
  1
ACDBPLACEHOLDER
  2
AcDbPlaceHolder
  3
AutoCAD 2000
 90
0
280
0
281
0
  0
CLASS
  1
LAYOUT
  2
AcDbLayout
  3
AutoCAD 2000
 90
0
280
0
281
0
  0
ENDSEC
  0
SECTION
  2
TABLES
  0
TABLE
  2
VPORT
  5
8
100
AcDbSymbolTable
 70
2
  0
VPORT
  5
1F4
100
AcDbSymbolTableRecord
100
AcDbViewportTableRecord
  2
*ACTIVE
 70
0
 10
0.0
 20
0.0
 11
1.0
 21
1.0
 12
148.5
 22
105.0
 13
0.0
 23
0.0
 14
1.0
 24
1.0
 15
0.0
 25
0.0
 16
0.0
 26
0.0
 36
1.0
 17
0.0
 27
0.0
 37
0.0
 40
210.0
 41
1.4142857143
 42
50.0
 43
0.0
 44
0.0
 50
0.0
 51
0.0
 71
0
 72
100
 73
1
 74
1
 75
0
 76
0
 77
0
 78
0
  0
ENDTAB
  0
TABLE
  2
LTYPE
  5
5
100
AcDbSymbolTable
 70
6
  0
LTYPE
  5
14
100
AcDbSymbolTableRecord
100
AcDbLinetypeTableRecord
  2
BYBLOCK
 70
0
  3

 72
65
 73
0
 40
0.0
  0
LTYPE
  5
15
100
AcDbSymbolTableRecord
100
AcDbLinetypeTableRecord
  2
BYLAYER
 70
0
  3

 72
65
 73
0
 40
0.0
  0
LTYPE
  5
16
100
AcDbSymbolTableRecord
100
AcDbLinetypeTableRecord
  2
CONTINUOUS
 70
64
  3
Solid line
 72
65
 73
0
 40
0.0
  0
LTYPE
  5
1F5
100
AcDbSymbolTableRecord
100
AcDbLinetypeTableRecord
  2
CENTER
 70
64
  3
____ _ ____ _ ____ _ ____ _ ____ _ ____ _ ____
 72
65
 73
4
 40
0.6
 49
0.375
 74
0
 49
-0.075
 74
0
 49
0.075
 74
0
 49
-0.075
 74
0
  0
LTYPE
  5
1F6
100
AcDbSymbolTableRecord
100
AcDbLinetypeTableRecord
  2
HIDDEN
 70
64
  3
- - - - - - - - - - - - - - - - - - - -
 72
65
 73
2
 40
0.2
 49
0.1
 74
0
 49
-0.1
 74
0
  0
LTYPE
  5
1F7
100
AcDbSymbolTableRecord
100
AcDbLinetypeTableRecord
  2
PHANTOM
 70
64
  3
_____ _ _ _____ _ _ _____ _ _ _____
 72
65
 73
6
 40
0.8
 49
0.45
 74
0
 49
-0.05
 74
0
 49
0.1
 74
0
 49
-0.05
 74
0
 49
0.1
 74
0
 49
-0.05
 74
0
  0
LTYPE
  5
1F8
100
AcDbSymbolTableRecord
100
AcDbLinetypeTableRecord
  2
DOT
 70
64
  3
. . . . . . . . . . . . . . . . . . . .
 72
65
 73
2
 40
0.2
 49
0.1
 74
0
 49
-0.1
 74
0
  0
LTYPE
  5
1F9
100
AcDbSymbolTableRecord
100
AcDbLinetypeTableRecord
  2
DASHED
 70
64
  3
- - - - - - - - - - - - - - - - - - - -
 72
65
 73
2
 40
0.2
 49
0.1
 74
0
 49
-0.1
 74
0
  0
ENDTAB
  0
TABLE
  2
LAYER
  5
2
100
AcDbSymbolTable
 70
36
  0
LAYER
  5
10
100
AcDbSymbolTableRecord
100
AcDbLayerTableRecord
  2
0
 70
0
 62
7
  6
CONTINUOUS
370
-3
390
F
  0
LAYER
  5
1FA
100
AcDbSymbolTableRecord
100
AcDbLayerTableRecord
  2
DEFAULT_1
 70
0
 62
7
  6
CENTER
370
-3
390
F
  0
LAYER
  5
1FB
100
AcDbSymbolTableRecord
100
AcDbLayerTableRecord
  2
DEFAULT_2
 70
0
 62
7
  6
HIDDEN
370
-3
390
F
  0
LAYER
  5
1FC
100
AcDbSymbolTableRecord
100
AcDbLayerTableRecord
  2
DEFAULT_3
 70
0
 62
7
  6
PHANTOM
370
-3
390
F
  0
LAYER
  5
1FD
100
AcDbSymbolTableRecord
100
AcDbLayerTableRecord
  2
21814000
 70
0
 62
7
  6
CONTINUOUS
370
-3
390
F
  0
LAYER
  5
1FE
100
AcDbSymbolTableRecord
100
AcDbLayerTableRecord
  2
260140000
 70
0
 62
7
  6
CONTINUOUS
370
-3
390
F
  0
LAYER
  5
1FF
100
AcDbSymbolTableRecord
100
AcDbLayerTableRecord
  2
26814000
 70
0
 62
7
  6
CONTINUOUS
370
-3
390
F
  0
LAYER
  5
200
100
AcDbSymbolTableRecord
100
AcDbLayerTableRecord
  2
28414000
 70
0
 62
7
  6
CONTINUOUS
370
-3
390
F
  0
LAYER
  5
201
100
AcDbSymbolTableRecord
100
AcDbLayerTableRecord
  2
290140000
 70
0
 62
7
  6
CONTINUOUS
370
-3
390
F
  0
LAYER
  5
202
100
AcDbSymbolTableRecord
100
AcDbLayerTableRecord
  2
340000230
 70
0
 62
7
  6
CONTINUOUS
370
-3
390
F
  0
LAYER
  5
203
100
AcDbSymbolTableRecord
100
AcDbLayerTableRecord
  2
712140000
 70
0
 62
7
  6
CONTINUOUS
370
-3
390
F
  0
LAYER
  5
204
100
AcDbSymbolTableRecord
100
AcDbLayerTableRecord
  2
715140000
 70
0
 62
7
  6
CONTINUOUS
370
-3
390
F
  0
LAYER
  5
205
100
AcDbSymbolTableRecord
100
AcDbLayerTableRecord
  2
ASSI
 70
0
 62
7
  6
CONTINUOUS
370
-3
390
F
  0
LAYER
  5
206
100
AcDbSymbolTableRecord
100
AcDbLayerTableRecord
  2
COLORE_TOP
 70
0
 62
7
  6
CONTINUOUS
370
-3
390
F
  0
LAYER
  5
207
100
AcDbSymbolTableRecord
100
AcDbLayerTableRecord
  2
COORDINATE
 70
0
 62
7
  6
CONTINUOUS
370
-3
390
F
  0
LAYER
  5
208
100
AcDbSymbolTableRecord
100
AcDbLayerTableRecord
  2
COORD_ORIGINE
 70
0
 62
7
  6
CONTINUOUS
370
-3
390
F
  0
LAYER
  5
209
100
AcDbSymbolTableRecord
100
AcDbLayerTableRecord
  2
COPY_PUBLISH
 70
0
 62
7
  6
CONTINUOUS
370
-3
390
F
  0
LAYER
  5
20A
100
AcDbSymbolTableRecord
100
AcDbLayerTableRecord
  2
COSMETICHE
 70
0
 62
7
  6
CONTINUOUS
370
-3
390
F
  0
LAYER
  5
20B
100
AcDbSymbolTableRecord
100
AcDbLayerTableRecord
  2
COSMETICI
 70
0
 62
7
  6
CONTINUOUS
370
-3
390
F
  0
LAYER
  5
20C
100
AcDbSymbolTableRecord
100
AcDbLayerTableRecord
  2
CURVE
 70
0
 62
7
  6
CONTINUOUS
370
-3
390
F
  0
LAYER
  5
20D
100
AcDbSymbolTableRecord
100
AcDbLayerTableRecord
  2
DRAFT
 70
0
 62
7
  6
CONTINUOUS
370
-3
390
F
  0
LAYER
  5
20E
100
AcDbSymbolTableRecord
100
AcDbLayerTableRecord
  2
IMPORT
 70
0
 62
7
  6
CONTINUOUS
370
-3
390
F
  0
LAYER
  5
20F
100
AcDbSymbolTableRecord
100
AcDbLayerTableRecord
  2
IMPORTED
 70
0
 62
7
  6
CONTINUOUS
370
-3
390
F
  0
LAYER
  5
210
100
AcDbSymbolTableRecord
100
AcDbLayerTableRecord
  2
IMPORT_IGES
 70
0
 62
7
  6
CONTINUOUS
370
-3
390
F
  0
LAYER
  5
211
100
AcDbSymbolTableRecord
100
AcDbLayerTableRecord
  2
INCISIONI_LASER
 70
0
 62
7
  6
CONTINUOUS
370
-3
390
F
  0
LAYER
  5
212
100
AcDbSymbolTableRecord
100
AcDbLayerTableRecord
  2
INTF_11
 70
0
 62
7
  6
CONTINUOUS
370
-3
390
F
  0
LAYER
  5
213
100
AcDbSymbolTableRecord
100
AcDbLayerTableRecord
  2
NOTE
 70
0
 62
7
  6
CONTINUOUS
370
-3
390
F
  0
LAYER
  5
214
100
AcDbSymbolTableRecord
100
AcDbLayerTableRecord
  2
PIANI
 70
0
 62
7
  6
CONTINUOUS
370
-3
390
F
  0
LAYER
  5
215
100
AcDbSymbolTableRecord
100
AcDbLayerTableRecord
  2
PIANI_DI_RIFERIMENTO
 70
0
 62
7
  6
CONTINUOUS
370
-3
390
F
  0
LAYER
  5
216
100
AcDbSymbolTableRecord
100
AcDbLayerTableRecord
  2
PIANI_ORIGINE
 70
0
 62
7
  6
CONTINUOUS
370
-3
390
F
  0
LAYER
  5
217
100
AcDbSymbolTableRecord
100
AcDbLayerTableRecord
  2
PIANI_RIFERIMENTO
 70
0
 62
7
  6
CONTINUOUS
370
-3
390
F
  0
LAYER
  5
218
100
AcDbSymbolTableRecord
100
AcDbLayerTableRecord
  2
PIANI_SFORMO
 70
0
 62
7
  6
CONTINUOUS
370
-3
390
F
  0
LAYER
  5
219
100
AcDbSymbolTableRecord
100
AcDbLayerTableRecord
  2
PUNTI
 70
0
 62
7
  6
CONTINUOUS
370
-3
390
F
  0
LAYER
  5
21A
100
AcDbSymbolTableRecord
100
AcDbLayerTableRecord
  2
RACCORDO
 70
0
 62
7
  6
CONTINUOUS
370
-3
390
F
  0
LAYER
  5
21B
100
AcDbSymbolTableRecord
100
AcDbLayerTableRecord
  2
RINTRACCIABILITA
 70
0
 62
7
  6
CONTINUOUS
370
-3
390
F
  0
LAYER
  5
21C
100
AcDbSymbolTableRecord
100
AcDbLayerTableRecord
  2
SIMBOLI
 70
0
 62
7
  6
CONTINUOUS
370
-3
390
F
  0
LAYER
  5
21D
100
AcDbSymbolTableRecord
100
AcDbLayerTableRecord
  2
SMUSSO
 70
0
 62
7
  6
CONTINUOUS
370
-3
390
F
  0
LAYER
  5
21E
100
AcDbSymbolTableRecord
100
AcDbLayerTableRecord
  2
SNAPLINE
 70
0
 62
7
  6
CONTINUOUS
370
-3
390
F
  0
LAYER
  5
21F
100
AcDbSymbolTableRecord
100
AcDbLayerTableRecord
  2
SUPERFICI
 70
0
 62
7
  6
CONTINUOUS
370
-3
390
F
  0
LAYER
  5
220
100
AcDbSymbolTableRecord
100
AcDbLayerTableRecord
  2
TRASH
 70
0
 62
7
  6
CONTINUOUS
370
-3
390
F
  0
LAYER
  5
221
100
AcDbSymbolTableRecord
100
AcDbLayerTableRecord
  2
XSEC_DATUMS
 70
0
 62
7
  6
CONTINUOUS
370
-3
390
F
  0
ENDTAB
  0
TABLE
  2
STYLE
  5
3
100
AcDbSymbolTable
 70
1
  0
STYLE
  5
11
100
AcDbSymbolTableRecord
100
AcDbTextStyleTableRecord
  2
STANDARD
 70
0
 40
0.0
 41
0.8
 50
0.0
 71
0
 42
0.2
  3
txt
  4

  0
STYLE
  5
222
100
AcDbSymbolTableRecord
100
AcDbTextStyleTableRecord
  2
TEXTSTYLE_1
 70
0
 40
0.0
 41
0.8
 50
0.0
 71
0
 42
0.2
  3
gdt
  4

  0
ENDTAB
  0
TABLE
  2
VIEW
  5
6
100
AcDbSymbolTable
 70
0
  0
ENDTAB
  0
TABLE
  2
UCS
  5
7
100
AcDbSymbolTable
 70
0
  0
ENDTAB
  0
TABLE
  2
APPID
  5
9
100
AcDbSymbolTable
 70
1
  0
APPID
  5
223
100
AcDbSymbolTableRecord
100
AcDbRegAppTableRecord
  2
ACAD
 70
0
  0
ENDTAB
  0
TABLE
  2
BLOCK_RECORD
  5
1
100
AcDbSymbolTable
 70
0
  0
BLOCK_RECORD
  5
224
100
AcDbSymbolTableRecord
100
AcDbBlockTableRecord
  2
*Model_Space
  0
BLOCK_RECORD
  5
225
100
AcDbSymbolTableRecord
100
AcDbBlockTableRecord
  2
*Paper_Space
  0
BLOCK_RECORD
  5
226
100
AcDbSymbolTableRecord
100
AcDbBlockTableRecord
  2
_FILLED
  0
BLOCK_RECORD
  5
227
100
AcDbSymbolTableRecord
100
AcDbBlockTableRecord
  2
*D0
  0
BLOCK_RECORD
  5
228
100
AcDbSymbolTableRecord
100
AcDbBlockTableRecord
  2
*D1
  0
BLOCK_RECORD
  5
229
100
AcDbSymbolTableRecord
100
AcDbBlockTableRecord
  2
*D2
  0
BLOCK_RECORD
  5
22A
100
AcDbSymbolTableRecord
100
AcDbBlockTableRecord
  2
*D3
  0
ENDTAB
  0
TABLE
  2
DIMSTYLE
  5
A
100
AcDbSymbolTable
 70
1
100
AcDbDimStyleTable
 71
0
  0
DIMSTYLE
105
22B
100
AcDbSymbolTableRecord
100
AcDbDimStyleTableRecord
  2
STANDARD
 70
0
  3

  4

 40
1.0
 41
3.0
 42
0.5
 43
0.38
 44
1.5
 45
0.0
 46
0.0
 47
0.01
 48
0.01
140
3.0
141
0.09
142
0.0
143
25.4
144
1.0
145
0.0
146
1.0
147
0.625
 71
1.0
 72
0.0
 73
0
 74
0
 75
0
 76
0
 77
1
 78
8
170
0
171
2
172
0
173
0
174
0
175
0
176
0
177
0
178
0
270
2
271
2
272
2
273
2
274
2
275
0
280
0
281
0
282
0
283
1
284
8
285
0
286
0
287
3
288
0
340
11
278
44
341
226
342
226
343
226
344
226
  0
DIMSTYLE
105
22C
100
AcDbSymbolTableRecord
100
AcDbDimStyleTableRecord
  2
DIMSTYLE_1
 70
0
  3

  4

 40
1.0
 41
3.0
 42
0.5
 43
0.38
 44
1.5
 45
0.0
 46
0.0
 47
0.0
 48
0.0
140
3.0
141
0.09
142
0.0
143
25.4
144
1.0
145
0.0
146
1.0
147
0.75
 71
0.0
 72
0.0
 73
0
 74
0
 75
0
 76
0
 77
1
 78
8
170
0
171
2
172
0
173
0
174
0
175
0
176
0
177
0
178
0
270
2
271
2
272
2
273
2
274
2
275
0
280
0
281
0
282
0
283
1
284
8
285
0
286
0
287
3
288
0
340
11
278
44
341
226
342
226
343
226
344
226
  0
DIMSTYLE
105
22D
100
AcDbSymbolTableRecord
100
AcDbDimStyleTableRecord
  2
DIMSTYLE_2
 70
0
  3

  4

 40
1.0
 41
3.0
 42
0.5
 43
0.38
 44
1.5
 45
0.0
 46
0.0
 47
0.0
 48
0.0
140
3.0
141
0.09
142
0.0
143
25.4
144
1.0
145
0.0
146
1.0
147
0.75
 71
0.0
 72
0.0
 73
0
 74
0
 75
0
 76
0
 77
1
 78
8
170
0
171
2
172
0
173
0
174
0
175
0
176
0
177
0
178
0
270
2
271
1
272
1
273
2
274
2
275
0
280
0
281
0
282
0
283
1
284
8
285
0
286
0
287
3
288
0
340
11
278
44
341
226
342
226
343
226
344
226
  0
ENDTAB
  0
ENDSEC
  0
SECTION
  2
BLOCKS
  0
BLOCK
  5
20
100
AcDbEntity
  8
0
100
AcDbBlockBegin
  2
*Model_Space
 70
0
 10
0.0
 20
0.0
 30
0.0
  3
*Model_Space
  1

  0
ENDBLK
  5
21
100
AcDbEntity
  8
0
100
AcDbBlockEnd
  0
BLOCK
  5
1C
100
AcDbEntity
  8
0
100
AcDbBlockBegin
  2
*Paper_Space
 70
0
 10
0.0
 20
0.0
 30
0.0
  3
*Paper_Space
  1

  0
ENDBLK
  5
1D
100
AcDbEntity
  8
0
100
AcDbBlockEnd
  0
BLOCK
  5
22E
100
AcDbEntity
  8
0
100
AcDbBlockBegin
  2
_FILLED
 70
64
 10
0.0
 20
0.0
  3
_FILLED
  1

  0
SOLID
  5
22F
100
AcDbEntity
  8
0
  6
BYBLOCK
 62
0
100
AcDbTrace
 10
0.0
 20
0.0
 11
-1.0
 21
0.3166666667
 12
-1.0
 22
-0.3166666667
 13
-1.0
 23
-0.3166666667
  0
ENDBLK
  5
230
100
AcDbEntity
  8
0
  6
BYBLOCK
 62
0
100
AcDbBlockEnd
  0
BLOCK
  5
231
100
AcDbEntity
  8
0
100
AcDbBlockBegin
 62
7
  6
CONTINUOUS
  2
*D0
 70
65
 10
0.0
 20
0.0
  3
*D0
  1

  0
MTEXT
  5
232
100
AcDbEntity
  8
0
100
AcDbMText
 62
7
  6
CONTINUOUS
  7
STANDARD
 71
2
 72
1
 10
125.9921923738
 20
139.671259375
 30
0.0
 11
1.0
 21
0.0
 31
0.0
 44
0.9
  1
25
 40
3.0
 41
6.75
  0
LINE
  5
233
100
AcDbEntity
  8
0
100
AcDbLine
 62
7
  6
CONTINUOUS
 10
138.4921923738
 20
118.6451360967
 11
138.4921923738
 21
137.421259375
  0
LINE
  5
234
100
AcDbEntity
  8
0
100
AcDbLine
 62
7
  6
CONTINUOUS
 10
113.4921923738
 20
126.8995715385
 11
113.4921923738
 21
137.421259375
  0
LINE
  5
235
100
AcDbEntity
  8
0
100
AcDbLine
 62
7
  6
CONTINUOUS
 10
138.4921923738
 20
135.921259375
 11
125.9921923738
 21
135.921259375
  0
LINE
  5
236
100
AcDbEntity
  8
0
100
AcDbLine
 62
7
  6
CONTINUOUS
 10
113.4921923738
 20
135.921259375
 11
125.9921923738
 21
135.921259375
  0
INSERT
  5
237
100
AcDbEntity
  8
0
100
AcDbBlockReference
 62
7
  6
CONTINUOUS
  2
_FILLED
 10
138.4921923738
 20
135.921259375
 41
3.0
 42
3.0
 43
3.0
  0
INSERT
  5
238
100
AcDbEntity
  8
0
100
AcDbBlockReference
 62
7
  6
CONTINUOUS
  2
_FILLED
 10
113.4921923738
 20
135.921259375
 41
3.0
 42
3.0
 43
3.0
 50
180.0
  0
ENDBLK
  5
239
100
AcDbEntity
  8
0
  6
BYBLOCK
 62
0
100
AcDbBlockEnd
  0
BLOCK
  5
23A
100
AcDbEntity
  8
0
100
AcDbBlockBegin
 62
7
  6
CONTINUOUS
  2
*D1
 70
65
 10
0.0
 20
0.0
  3
*D1
  1

  0
MTEXT
  5
23B
100
AcDbEntity
  8
0
100
AcDbMText
 62
7
  6
CONTINUOUS
  7
STANDARD
 71
2
 72
1
 10
119.31156897
 20
149.671259375
 30
0.0
 11
1.0
 21
0.0
 31
0.0
 44
0.9
  1
38,4
 40
3.0
 41
12.8571428571
  0
LINE
  5
23C
100
AcDbEntity
  8
0
100
AcDbLine
 62
7
  6
CONTINUOUS
 10
138.4921923738
 20
118.6451360967
 11
138.4921923738
 21
147.421259375
  0
LINE
  5
23D
100
AcDbEntity
  8
0
100
AcDbLine
 62
7
  6
CONTINUOUS
 10
100.1309455662
 20
84.1574596113
 11
100.1309455662
 21
147.421259375
  0
LINE
  5
23E
100
AcDbEntity
  8
0
100
AcDbLine
 62
7
  6
CONTINUOUS
 10
138.4921923738
 20
145.921259375
 11
119.31156897
 21
145.921259375
  0
LINE
  5
23F
100
AcDbEntity
  8
0
100
AcDbLine
 62
7
  6
CONTINUOUS
 10
100.1309455662
 20
145.921259375
 11
119.31156897
 21
145.921259375
  0
INSERT
  5
240
100
AcDbEntity
  8
0
100
AcDbBlockReference
 62
7
  6
CONTINUOUS
  2
_FILLED
 10
138.4921923738
 20
145.921259375
 41
3.0
 42
3.0
 43
3.0
  0
INSERT
  5
241
100
AcDbEntity
  8
0
100
AcDbBlockReference
 62
7
  6
CONTINUOUS
  2
_FILLED
 10
100.1309455662
 20
145.921259375
 41
3.0
 42
3.0
 43
3.0
 50
180.0
  0
ENDBLK
  5
242
100
AcDbEntity
  8
0
  6
BYBLOCK
 62
0
100
AcDbBlockEnd
  0
BLOCK
  5
243
100
AcDbEntity
  8
0
100
AcDbBlockBegin
 62
7
  6
CONTINUOUS
  2
*D2
 70
65
 10
0.0
 20
0.0
  3
*D2
  1

  0
MTEXT
  5
244
100
AcDbEntity
  8
0
100
AcDbMText
 62
7
  6
CONTINUOUS
  7
STANDARD
 71
2
 72
1
 10
169.8307275191
 20
139.671259375
 30
0.0
 11
1.0
 21
0.0
 31
0.0
 44
0.9
  1
44,8
 40
3.0
 41
13.1785714286
  0
LINE
  5
245
100
AcDbEntity
  8
0
100
AcDbLine
 62
7
  6
CONTINUOUS
 10
147.4307275191
 20
123.8749081235
 11
147.4307275191
 21
137.421259375
  0
LINE
  5
246
100
AcDbEntity
  8
0
100
AcDbLine
 62
7
  6
CONTINUOUS
 10
192.2307275191
 20
125.8035758296
 11
192.2307275191
 21
137.421259375
  0
LINE
  5
247
100
AcDbEntity
  8
0
100
AcDbLine
 62
7
  6
CONTINUOUS
 10
147.4307275191
 20
135.921259375
 11
169.8307275191
 21
135.921259375
  0
LINE
  5
248
100
AcDbEntity
  8
0
100
AcDbLine
 62
7
  6
CONTINUOUS
 10
192.2307275191
 20
135.921259375
 11
169.8307275191
 21
135.921259375
  0
INSERT
  5
249
100
AcDbEntity
  8
0
100
AcDbBlockReference
 62
7
  6
CONTINUOUS
  2
_FILLED
 10
147.4307275191
 20
135.921259375
 41
3.0
 42
3.0
 43
3.0
 50
180.0
  0
INSERT
  5
24A
100
AcDbEntity
  8
0
100
AcDbBlockReference
 62
7
  6
CONTINUOUS
  2
_FILLED
 10
192.2307275191
 20
135.921259375
 41
3.0
 42
3.0
 43
3.0
  0
ENDBLK
  5
24B
100
AcDbEntity
  8
0
  6
BYBLOCK
 62
0
100
AcDbBlockEnd
  0
BLOCK
  5
24C
100
AcDbEntity
  8
0
100
AcDbBlockBegin
 62
7
  6
CONTINUOUS
  2
*D3
 70
65
 10
0.0
 20
0.0
  3
*D3
  1

  0
MTEXT
  5
24D
100
AcDbEntity
  8
0
100
AcDbMText
 62
7
  6
CONTINUOUS
  7
STANDARD
 71
2
 72
1
 10
196.4807275191
 20
103.421259375
 30
0.0
 11
0.0
 21
1.0
 31
0.0
 44
0.9
  1
49
 40
3.0
 41
7.0714285714
  0
LINE
  5
24E
100
AcDbEntity
  8
0
100
AcDbLine
 62
7
  6
CONTINUOUS
 10
191.9807275191
 20
127.921259375
 11
201.7307275191
 21
127.921259375
  0
LINE
  5
24F
100
AcDbEntity
  8
0
100
AcDbLine
 62
7
  6
CONTINUOUS
 10
191.9807275191
 20
78.921259375
 11
201.7307275191
 21
78.921259375
  0
LINE
  5
250
100
AcDbEntity
  8
0
100
AcDbLine
 62
7
  6
CONTINUOUS
 10
200.2307275191
 20
127.921259375
 11
200.2307275191
 21
103.421259375
  0
LINE
  5
251
100
AcDbEntity
  8
0
100
AcDbLine
 62
7
  6
CONTINUOUS
 10
200.2307275191
 20
78.921259375
 11
200.2307275191
 21
103.421259375
  0
INSERT
  5
252
100
AcDbEntity
  8
0
100
AcDbBlockReference
 62
7
  6
CONTINUOUS
  2
_FILLED
 10
200.2307275191
 20
127.921259375
 41
3.0
 42
3.0
 43
3.0
 50
90.0
  0
INSERT
  5
253
100
AcDbEntity
  8
0
100
AcDbBlockReference
 62
7
  6
CONTINUOUS
  2
_FILLED
 10
200.2307275191
 20
78.921259375
 41
3.0
 42
3.0
 43
3.0
 50
270.0
  0
ENDBLK
  5
254
100
AcDbEntity
  8
0
  6
BYBLOCK
 62
0
100
AcDbBlockEnd
  0
ENDSEC
  0
SECTION
  2
ENTITIES
  0
DIMENSION
  5
255
100
AcDbEntity
  8
0
100
AcDbDimension
 62
7
  6
CONTINUOUS
  2
*D0
 10
113.4921923738
 20
135.921259375
 11
125.9921923738
 21
135.921259375
 70
160
 71
2
 42
25.0
  3
DIMSTYLE_1
100
AcDbAlignedDimension
 13
138.4921923738
 23
118.1451360967
 14
113.4921923738
 24
126.3995715385
 50
180.0
100
AcDbRotatedDimension
  0
DIMENSION
  5
256
100
AcDbEntity
  8
0
100
AcDbDimension
 62
7
  6
CONTINUOUS
  2
*D1
 10
100.1309455662
 20
145.921259375
 11
119.31156897
 21
145.921259375
 70
160
 71
2
 42
38.3612468076
  3
DIMSTYLE_2
100
AcDbAlignedDimension
 13
138.4921923738
 23
118.1451360967
 14
100.1309455662
 24
83.6574596113
 50
180.0
100
AcDbRotatedDimension
  0
DIMENSION
  5
257
100
AcDbEntity
  8
0
100
AcDbDimension
 62
7
  6
CONTINUOUS
  2
*D2
 10
192.2307275191
 20
135.921259375
 11
169.8307275191
 21
135.921259375
 70
160
 71
2
 42
44.8
  3
DIMSTYLE_1
100
AcDbAlignedDimension
 13
147.4307275191
 23
123.3749081235
 14
192.2307275191
 24
125.3035758296
100
AcDbRotatedDimension
  0
DIMENSION
  5
258
100
AcDbEntity
  8
0
100
AcDbDimension
 62
7
  6
CONTINUOUS
  2
*D3
 10
200.2307275191
 20
78.921259375
 11
200.2307275191
 21
103.421259375
 70
160
 71
2
 42
49.0
  3
DIMSTYLE_1
100
AcDbAlignedDimension
 13
191.4807275191
 23
127.921259375
 14
191.4807275191
 24
78.921259375
 50
270.0
100
AcDbRotatedDimension
  0
LINE
  5
259
100
AcDbEntity
  8
26814000
100
AcDbLine
 62
7
  6
CONTINUOUS
 10
150.2676289404
 20
127.8081607963
 11
150.2807275191
 21
127.821259375
  0
LINE
  5
25A
100
AcDbEntity
  8
26814000
100
AcDbLine
 62
7
  6
CONTINUOUS
 10
150.2676289404
 20
79.0343579537
 11
150.2807275191
 21
79.021259375
  0
LINE
  5
25B
100
AcDbEntity
  8
26814000
100
AcDbLine
 62
7
  6
CONTINUOUS
 10
150.2807275191
 20
125.821259375
 11
150.2720007744
 21
125.8081690733
  0
LINE
  5
25C
100
AcDbEntity
  8
26814000
100
AcDbLine
 62
7
  6
CONTINUOUS
 10
150.2720007744
 20
81.0343496767
 11
150.2807275191
 21
81.021259375
  0
LWPOLYLINE
  5
25D
100
AcDbEntity
  8
RACCORDO
100
AcDbPolyline
 62
253
  6
CONTINUOUS
 90
18
 70
0
 10
147.780893591
 20
124.5792863444
 10
147.7819051628
 20
124.5819103654
 10
147.7828969992
 20
124.5798440463
 10
147.7838691
 20
124.5730873871
 10
147.7848284339
 20
124.5615345034
 10
147.7857680322
 20
124.5452912796
 10
147.7866669892
 20
124.5246753686
 10
147.7875238754
 20
124.4995942281
 10
147.7883401201
 20
124.4701404005
 10
147.7890991055
 20
124.4369091654
 10
147.7897996555
 20
124.3998206602
 10
147.7904429461
 20
124.3589547475
 10
147.7910158872
 20
124.3151462956
 10
147.7915170516
 20
124.2683029692
 10
147.7919478666
 20
124.2185171035
 10
147.7922995242
 20
124.166900572
 10
147.7925690885
 20
124.1138239993
 10
147.7927594954
 20
124.0589167609
  0
LWPOLYLINE
  5
25E
100
AcDbEntity
  8
RACCORDO
100
AcDbPolyline
 62
253
  6
CONTINUOUS
 90
3
 70
0
 10
147.7963439782
 20
124.7349035802
 10
147.7852990297
 20
124.6625654392
 10
147.780893591
 20
124.5792863444
  0
LINE
  5
25F
100
AcDbEntity
  8
RACCORDO
100
AcDbLine
 62
253
  6
CONTINUOUS
 10
147.6807275191
 20
124.0790660212
 11
147.780893591
 21
124.5792863444
  0
LINE
  5
260
100
AcDbEntity
  8
RACCORDO
100
AcDbLine
 62
7
  6
CONTINUOUS
 10
147.7964722209
 20
124.7355426509
 11
147.6961350693
 21
124.2344693326
  0
LINE
  5
261
100
AcDbEntity
  8
RACCORDO
100
AcDbLine
 62
7
  6
CONTINUOUS
 10
191.4807275191
 20
78.921259375
 11
189.5807275191
 21
78.921259375
  0
LINE
  5
262
100
AcDbEntity
  8
RACCORDO
100
AcDbLine
 62
7
  6
CONTINUOUS
 10
172.5807275191
 20
78.921259375
 11
170.6807275191
 21
78.921259375
  0
LINE
  5
263
100
AcDbEntity
  8
26814000
100
AcDbLine
 62
7
  6
CONTINUOUS
 10
169.1807275191
 20
79.021259375
 11
166.8807275191
 21
79.021259375
  0
LINE
  5
264
100
AcDbEntity
  8
26814000
100
AcDbLine
 62
7
  6
CONTINUOUS
 10
150.2807275191
 20
79.021259375
 11
147.9807275191
 21
79.021259375
  0
LINE
  5
265
100
AcDbEntity
  8
26814000
100
AcDbLine
 62
253
  6
CONTINUOUS
 10
147.9938260978
 20
79.0343579537
 11
150.2676289404
 21
79.0343579537
  0
LINE
  5
266
100
AcDbEntity
  8
26814000
100
AcDbLine
 62
253
  6
CONTINUOUS
 10
166.8938260978
 20
79.0343579537
 11
169.1676289404
 21
79.0343579537
  0
LINE
  5
267
100
AcDbEntity
  8
RACCORDO
100
AcDbLine
 62
253
  6
CONTINUOUS
 10
170.4307275191
 20
79.171259375
 11
172.8307275191
 21
79.171259375
  0
LINE
  5
268
100
AcDbEntity
  8
RACCORDO
100
AcDbLine
 62
253
  6
CONTINUOUS
 10
189.3307275191
 20
79.171259375
 11
191.7307275191
 21
79.171259375
  0
LINE
  5
269
100
AcDbEntity
  8
26814000
100
AcDbLine
 62
253
  6
CONTINUOUS
 10
147.9952720937
 20
79.2843537229
 11
150.2661829446
 21
79.2843537229
  0
LINE
  5
26A
100
AcDbEntity
  8
26814000
100
AcDbLine
 62
253
  6
CONTINUOUS
 10
166.8952720937
 20
79.2843537229
 11
169.1661829446
 21
79.2843537229
  0
LWPOLYLINE
  5
26B
100
AcDbEntity
  8
26814000
100
AcDbPolyline
 62
7
  6
CONTINUOUS
 90
31
 70
0
 10
147.4307275191
 20
81.3712727024
 10
147.4312071582
 20
81.3529548682
 10
147.4326447635
 20
81.3346872199
 10
147.4350363992
 20
81.3165198221
 10
147.4383755142
 20
81.2985024626
 10
147.4426529609
 20
81.2806845231
 10
147.447857021
 20
81.263114844
 10
147.4539734359
 20
81.2458415785
 10
147.4609854458
 20
81.2289120682
 10
147.4688738376
 20
81.2123727211
 10
147.4776169952
 20
81.196268868
 10
147.4871909591
 20
81.1806446468
 10
147.4975694934
 20
81.1655428903
 10
147.5087241563
 20
81.1510049907
 10
147.520624378
 20
81.1370707952
 10
147.5332375448
 20
81.1237785061
 10
147.5465290891
 20
81.1111645576
 10
147.5604625831
 20
81.0992635248
 10
147.5749998382
 20
81.0881080377
 10
147.5901010117
 20
81.077728675
 10
147.6057247147
 20
81.0681538881
 10
147.6218281241
 20
81.0594099302
 10
147.6383671029
 20
81.0515207715
 10
147.6552963203
 20
81.0445080384
 10
147.672569374
 20
81.0383909605
 10
147.6901389195
 20
81.0331863087
 10
147.7079568001
 20
81.0289083519
 10
147.7259741781
 20
81.0255688223
 10
147.7441416682
 20
81.0231768788
 10
147.7624094728
 20
81.0217390811
 10
147.7807275191
 20
81.021259375
  0
LINE
  5
26C
100
AcDbEntity
  8
26814000
100
AcDbLine
 62
7
  6
CONTINUOUS
 10
147.9945448649
 20
79.7934281586
 11
147.9894542638
 21
80.2986096442
  0
LWPOLYLINE
  5
26D
100
AcDbEntity
  8
RACCORDO
100
AcDbPolyline
 62
253
  6
CONTINUOUS
 90
12
 70
0
 10
147.7927594954
 20
124.0589167609
 10
147.7965465275
 20
120.6630466953
 10
147.7995540931
 20
117.3186136661
 10
147.8018934418
 20
113.9688797693
 10
147.8035647045
 20
110.6134126916
 10
147.8045677503
 20
107.2526447461
 10
147.8049021864
 20
103.8878728725
 10
147.8045677514
 20
100.5190956762
 10
147.8035647068
 20
97.1463145517
 10
147.8018934446
 20
93.7708306219
 10
147.7995540956
 20
90.3930775945
 10
147.7965465291
 20
87.0126217618
  0
LINE
  5
26E
100
AcDbEntity
  8
26814000
100
AcDbLine
 62
7
  6
CONTINUOUS
 10
147.4307275191
 20
125.4494288781
 11
147.4307275191
 21
81.3930898719
  0
LINE
  5
26F
100
AcDbEntity
  8
RACCORDO
100
AcDbLine
 62
7
  6
CONTINUOUS
 10
147.6807275191
 20
124.0790660212
 11
147.6807275191
 21
82.2094518734
  0
LINE
  5
270
100
AcDbEntity
  8
26814000
100
AcDbLine
 62
253
  6
CONTINUOUS
 10
147.7807275191
 20
81.021259375
 11
147.7807275191
 21
81.0430765445
  0
LINE
  5
271
100
AcDbEntity
  8
26814000
100
AcDbLine
 62
253
  6
CONTINUOUS
 10
147.7807275191
 20
125.7994422055
 11
147.7807275191
 21
125.821259375
  0
LINE
  5
272
100
AcDbEntity
  8
26814000
100
AcDbLine
 62
7
  6
CONTINUOUS
 10
147.9807275191
 20
79.021259375
 11
147.9807275191
 21
81.021259375
  0
LINE
  5
273
100
AcDbEntity
  8
26814000
100
AcDbLine
 62
7
  6
CONTINUOUS
 10
147.9807275191
 20
125.821259375
 11
147.9807275191
 21
127.821259375
  0
LINE
  5
274
100
AcDbEntity
  8
26814000
100
AcDbLine
 62
7
  6
CONTINUOUS
 10
147.9894542638
 20
80.2986096442
 11
147.9894542638
 21
81.0343496767
  0
LINE
  5
275
100
AcDbEntity
  8
26814000
100
AcDbLine
 62
7
  6
CONTINUOUS
 10
147.9894542638
 20
125.8081690733
 11
147.9894542638
 21
126.5439091058
  0
LINE
  5
276
100
AcDbEntity
  8
26814000
100
AcDbLine
 62
7
  6
CONTINUOUS
 10
147.9952720937
 20
79.2843537229
 11
147.9952720937
 21
79.5769218077
  0
LINE
  5
277
100
AcDbEntity
  8
26814000
100
AcDbLine
 62
7
  6
CONTINUOUS
 10
147.9952720937
 20
127.2655969423
 11
147.9952720937
 21
127.5581650271
  0
LWPOLYLINE
  5
278
100
AcDbEntity
  8
RACCORDO
100
AcDbPolyline
 62
253
  6
CONTINUOUS
 90
19
 70
0
 10
147.7965465291
 20
87.0126217618
 10
147.7927594954
 20
83.5713927988
 10
147.7925690885
 20
83.5142050828
 10
147.7922995242
 20
83.4578999756
 10
147.7919478666
 20
83.402071689
 10
147.7915170516
 20
83.3471260112
 10
147.7910158872
 20
83.2942803074
 10
147.7904429461
 20
83.2436098172
 10
147.7897996555
 20
83.195039301
 10
147.7890991055
 20
83.1495604043
 10
147.7883401201
 20
83.1072389054
 10
147.7875238754
 20
83.0680090259
 10
147.7866669892
 20
83.0326650768
 10
147.7857680322
 20
83.0012824815
 10
147.7848284339
 20
82.9737858165
 10
147.7838691
 20
82.9507431218
 10
147.7828969992
 20
82.9323437441
 10
147.7819051628
 20
82.9183983368
 10
147.780893591
 20
82.9089068998
  0
LINE
  5
279
100
AcDbEntity
  8
26814000
100
AcDbLine
 62
7
  6
CONTINUOUS
 10
147.9894542638
 20
126.5439091058
 11
147.9945448649
 21
127.0490905914
  0
LWPOLYLINE
  5
27A
100
AcDbEntity
  8
26814000
100
AcDbPolyline
 62
7
  6
CONTINUOUS
 90
31
 70
0
 10
147.4307275191
 20
125.4712460476
 10
147.4312071582
 20
125.4895638818
 10
147.4326447635
 20
125.5078315301
 10
147.4350363992
 20
125.5259989279
 10
147.4383755142
 20
125.5440162874
 10
147.4426529609
 20
125.5618342269
 10
147.447857021
 20
125.579403906
 10
147.4539734359
 20
125.5966771715
 10
147.4609854458
 20
125.6136066818
 10
147.4688738376
 20
125.6301460289
 10
147.4776169952
 20
125.646249882
 10
147.4871909591
 20
125.6618741032
 10
147.4975694934
 20
125.6769758597
 10
147.5087241563
 20
125.6915137593
 10
147.520624378
 20
125.7054479548
 10
147.5332375448
 20
125.7187402439
 10
147.5465290891
 20
125.7313541924
 10
147.5604625831
 20
125.7432552252
 10
147.5749998382
 20
125.7544107123
 10
147.5901010117
 20
125.764790075
 10
147.6057247147
 20
125.7743648619
 10
147.6218281241
 20
125.7831088198
 10
147.6383671029
 20
125.7909979785
 10
147.6552963203
 20
125.7980107116
 10
147.672569374
 20
125.8041277895
 10
147.6901389195
 20
125.8093324413
 10
147.7079568001
 20
125.8136103981
 10
147.7259741781
 20
125.8169499277
 10
147.7441416682
 20
125.8193418712
 10
147.7624094728
 20
125.8207796689
 10
147.7807275191
 20
125.821259375
  0
LWPOLYLINE
  5
27B
100
AcDbEntity
  8
RACCORDO
100
AcDbPolyline
 62
253
  6
CONTINUOUS
 90
16
 70
0
 10
191.0806832912
 20
82.1134105599
 10
191.1642782305
 20
82.1179366016
 10
191.2469575041
 20
82.131109533
 10
191.3278155969
 20
82.1527850458
 10
191.4059669609
 20
82.1827257177
 10
191.4805556672
 20
82.2206035967
 10
191.5507647873
 20
82.2660037784
 10
191.6158254096
 20
82.3184289894
 10
191.675025025
 20
82.3773050298
 10
191.7277152969
 20
82.4419870266
 10
191.7733192095
 20
82.5117665418
 10
191.8113373705
 20
82.5858793293
 10
191.8413534626
 20
82.663513677
 10
191.8630388172
 20
82.7438193227
 10
191.8761560085
 20
82.8259167684
 10
191.8805614473
 20
82.9089068998
  0
LINE
  5
27C
100
AcDbEntity
  8
RACCORDO
100
AcDbLine
 62
253
  6
CONTINUOUS
 10
170.4185831751
 20
80.9905906995
 11
170.3767518607
 21
80.9883068774
  0
LWPOLYLINE
  5
27D
100
AcDbEntity
  8
RACCORDO
100
AcDbPolyline
 62
253
  6
CONTINUOUS
 90
3
 70
0
 10
170.3767518607
 20
80.9883068774
 10
170.355988304
 20
80.9873259511
 10
170.3466271604
 20
80.986946143
  0
LWPOLYLINE
  5
27E
100
AcDbEntity
  8
RACCORDO
100
AcDbPolyline
 62
253
  6
CONTINUOUS
 90
9
 70
0
 10
191.6825803392
 20
80.794774991
 10
191.6661827332
 20
80.7941445789
 10
191.6478306017
 20
80.7935658193
 10
191.6276580526
 20
80.7930547206
 10
191.6058641983
 20
80.7926123863
 10
191.5826899106
 20
80.7922377128
 10
191.5583312768
 20
80.7919433976
 10
191.5330271174
 20
80.7917336732
 10
191.5070648757
 20
80.791604307
  0
LWPOLYLINE
  5
27F
100
AcDbEntity
  8
RACCORDO
100
AcDbPolyline
 62
253
  6
CONTINUOUS
 90
9
 70
0
 10
172.7825803392
 20
80.794774991
 10
172.7661827332
 20
80.7941445789
 10
172.7478306017
 20
80.7935658193
 10
172.7276580526
 20
80.7930547206
 10
172.7058641983
 20
80.7926123863
 10
172.6826899106
 20
80.7922377128
 10
172.6583312768
 20
80.7919433976
 10
172.6330271174
 20
80.7917336732
 10
172.6070648757
 20
80.791604307
  0
LWPOLYLINE
  5
280
100
AcDbEntity
  8
RACCORDO
100
AcDbPolyline
 62
253
  6
CONTINUOUS
 90
11
 70
0
 10
170.3466271604
 20
80.986946143
 10
170.3381007769
 20
80.986645247
 10
170.3304158577
 20
80.9864256587
 10
170.3236121893
 20
80.9862864752
 10
170.317704029
 20
80.986218833
 10
170.3126442475
 20
80.9862136083
 10
170.3084329496
 20
80.9862653367
 10
170.3050541373
 20
80.9863722158
 10
170.3024621687
 20
80.9865341579
 10
170.3006369548
 20
80.9867490305
 10
170.2995963856
 20
80.9869924871
  0
LINE
  5
281
100
AcDbEntity
  8
26814000
100
AcDbLine
 62
253
  6
CONTINUOUS
 10
169.1661829446
 20
79.5769218077
 11
166.8952720937
 21
79.5769218077
  0
LINE
  5
282
100
AcDbEntity
  8
26814000
100
AcDbLine
 62
253
  6
CONTINUOUS
 10
150.2661829446
 20
79.5769218077
 11
147.9952720937
 21
79.5769218077
  0
LINE
  5
283
100
AcDbEntity
  8
RACCORDO
100
AcDbLine
 62
253
  6
CONTINUOUS
 10
170.4307275191
 20
79.5769218077
 11
172.8307275191
 21
79.5769218077
  0
LINE
  5
284
100
AcDbEntity
  8
RACCORDO
100
AcDbLine
 62
253
  6
CONTINUOUS
 10
189.3307275191
 20
79.5769218077
 11
191.7307275191
 21
79.5769218077
  0
LINE
  5
285
100
AcDbEntity
  8
RACCORDO
100
AcDbLine
 62
7
  6
CONTINUOUS
 10
185.4835939658
 20
79.621259375
 11
176.6778610724
 21
79.621259375
  0
LINE
  5
286
100
AcDbEntity
  8
26814000
100
AcDbLine
 62
7
  6
CONTINUOUS
 10
162.9807275191
 20
79.621259375
 11
154.1807275191
 21
79.621259375
  0
LINE
  5
287
100
AcDbEntity
  8
26814000
100
AcDbLine
 62
7
  6
CONTINUOUS
 10
162.6766499612
 20
79.6270772048
 11
154.484805077
 21
79.6270772048
  0
LINE
  5
288
100
AcDbEntity
  8
RACCORDO
100
AcDbLine
 62
253
  6
CONTINUOUS
 10
191.4807275191
 20
79.7934281586
 11
189.5807275191
 21
79.7934281586
  0
LINE
  5
289
100
AcDbEntity
  8
RACCORDO
100
AcDbLine
 62
253
  6
CONTINUOUS
 10
172.5807275191
 20
79.7934281586
 11
170.6807275191
 21
79.7934281586
  0
LINE
  5
28A
100
AcDbEntity
  8
26814000
100
AcDbLine
 62
253
  6
CONTINUOUS
 10
169.1669101733
 20
79.7934281586
 11
166.8945448649
 21
79.7934281586
  0
LINE
  5
28B
100
AcDbEntity
  8
26814000
100
AcDbLine
 62
253
  6
CONTINUOUS
 10
150.2669101733
 20
79.7934281586
 11
147.9945448649
 21
79.7934281586
  0
LINE
  5
28C
100
AcDbEntity
  8
RACCORDO
100
AcDbLine
 62
253
  6
CONTINUOUS
 10
170.6807275191
 20
80.2264408605
 11
172.5807275191
 21
80.2264408605
  0
LINE
  5
28D
100
AcDbEntity
  8
RACCORDO
100
AcDbLine
 62
253
  6
CONTINUOUS
 10
189.5807275191
 20
80.2264408605
 11
191.4807275191
 21
80.2264408605
  0
LINE
  5
28E
100
AcDbEntity
  8
26814000
100
AcDbLine
 62
7
  6
CONTINUOUS
 10
169.1720007744
 20
80.2986096442
 11
166.8894542638
 21
80.2986096442
  0
LINE
  5
28F
100
AcDbEntity
  8
26814000
100
AcDbLine
 62
7
  6
CONTINUOUS
 10
150.2720007744
 20
80.2986096442
 11
147.9894542638
 21
80.2986096442
  0
LINE
  5
290
100
AcDbEntity
  8
RACCORDO
100
AcDbLine
 62
253
  6
CONTINUOUS
 10
170.4307275191
 20
80.4429472115
 11
172.8307275191
 21
80.4429472115
  0
LINE
  5
291
100
AcDbEntity
  8
RACCORDO
100
AcDbLine
 62
253
  6
CONTINUOUS
 10
189.3307275191
 20
80.4429472115
 11
191.7307275191
 21
80.4429472115
  0
LINE
  5
292
100
AcDbEntity
  8
RACCORDO
100
AcDbLine
 62
253
  6
CONTINUOUS
 10
191.5070648757
 20
80.791604307
 11
189.5807275191
 21
80.791555299
  0
LINE
  5
293
100
AcDbEntity
  8
RACCORDO
100
AcDbLine
 62
253
  6
CONTINUOUS
 10
172.6070648757
 20
80.791604307
 11
170.6807275191
 21
80.791555299
  0
LINE
  5
294
100
AcDbEntity
  8
RACCORDO
100
AcDbLine
 62
7
  6
CONTINUOUS
 10
170.4833211944
 20
80.9863492451
 11
191.6781338439
 21
80.9863492451
  0
LINE
  5
295
100
AcDbEntity
  8
26814000
100
AcDbLine
 62
7
  6
CONTINUOUS
 10
147.7807275191
 20
81.021259375
 11
147.9807275191
 21
81.021259375
  0
LINE
  5
296
100
AcDbEntity
  8
26814000
100
AcDbLine
 62
7
  6
CONTINUOUS
 10
150.2807275191
 20
81.021259375
 11
154.1807275191
 21
81.021259375
  0
LINE
  5
297
100
AcDbEntity
  8
26814000
100
AcDbLine
 62
7
  6
CONTINUOUS
 10
162.9807275191
 20
81.021259375
 11
166.8807275191
 21
81.021259375
  0
LINE
  5
298
100
AcDbEntity
  8
26814000
100
AcDbLine
 62
7
  6
CONTINUOUS
 10
169.1807275191
 20
81.021259375
 11
169.3807275191
 21
81.021259375
  0
LINE
  5
299
100
AcDbEntity
  8
26814000
100
AcDbLine
 62
7
  6
CONTINUOUS
 10
154.484805077
 20
81.0299862428
 11
162.6766499612
 21
81.0299862428
  0
LINE
  5
29A
100
AcDbEntity
  8
26814000
100
AcDbLine
 62
7
  6
CONTINUOUS
 10
169.1720007744
 20
81.0343496767
 11
166.8894542638
 21
81.0343496767
  0
LINE
  5
29B
100
AcDbEntity
  8
26814000
100
AcDbLine
 62
7
  6
CONTINUOUS
 10
150.2720007744
 20
81.0343496767
 11
147.9894542638
 21
81.0343496767
  0
LINE
  5
29C
100
AcDbEntity
  8
26814000
100
AcDbLine
 62
7
  6
CONTINUOUS
 10
147.7807275191
 20
81.0430765445
 11
169.3807275191
 21
81.0430765445
  0
LINE
  5
29D
100
AcDbEntity
  8
RACCORDO
100
AcDbLine
 62
7
  6
CONTINUOUS
 10
148.4806056753
 20
81.4139555335
 11
191.180849363
 21
81.4139555335
  0
LINE
  5
29E
100
AcDbEntity
  8
26814000
100
AcDbLine
 62
7
  6
CONTINUOUS
 10
147.4307275191
 20
81.421259375
 11
148.3731809607
 21
81.421259375
  0
LINE
  5
29F
100
AcDbEntity
  8
DRAFT
100
AcDbLine
 62
7
  6
CONTINUOUS
 10
191.5730906154
 20
81.5164494104
 11
192.1783623243
 21
81.5164494104
  0
LINE
  5
2A0
100
AcDbEntity
  8
26814000
100
AcDbLine
 62
7
  6
CONTINUOUS
 10
147.4307275191
 20
81.56246162
 11
148.0159375928
 21
81.56246162
  0
LWPOLYLINE
  5
2A1
100
AcDbEntity
  8
RACCORDO
100
AcDbPolyline
 62
253
  6
CONTINUOUS
 90
16
 70
0
 10
170.6807275191
 20
80.791555299
 10
170.6543901626
 20
80.7916043069
 10
170.6284279209
 20
80.7917336731
 10
170.6031237614
 20
80.7919433975
 10
170.5787651277
 20
80.7922377128
 10
170.55559084
 20
80.7926123863
 10
170.5337969857
 20
80.7930547206
 10
170.5136244365
 20
80.7935658192
 10
170.4952723051
 20
80.7941445786
 10
170.4788746991
 20
80.7947749907
 10
170.4646130194
 20
80.79545913
 10
170.4526744594
 20
80.7961949219
 10
170.443198882
 20
80.7969601358
 10
170.4363157558
 20
80.7977473614
 10
170.4321334145
 20
80.7985640088
 10
170.4307275369
 20
80.7994070275
  0
LWPOLYLINE
  5
2A2
100
AcDbEntity
  8
RACCORDO
100
AcDbPolyline
 62
253
  6
CONTINUOUS
 90
16
 70
0
 10
189.5807275191
 20
80.791555299
 10
189.5543901626
 20
80.7916043069
 10
189.5284279209
 20
80.7917336731
 10
189.5031237614
 20
80.7919433975
 10
189.4787651277
 20
80.7922377128
 10
189.45559084
 20
80.7926123863
 10
189.4337969857
 20
80.7930547206
 10
189.4136244365
 20
80.7935658192
 10
189.3952723051
 20
80.7941445786
 10
189.3788746991
 20
80.7947749907
 10
189.3646130194
 20
80.79545913
 10
189.3526744594
 20
80.7961949219
 10
189.343198882
 20
80.7969601358
 10
189.3363157558
 20
80.7977473614
 10
189.3321334145
 20
80.7985640088
 10
189.3307275369
 20
80.7994070275
  0
LWPOLYLINE
  5
2A3
100
AcDbEntity
  8
RACCORDO
100
AcDbPolyline
 62
253
  6
CONTINUOUS
 90
9
 70
0
 10
191.8311143583
 20
80.9864306268
 10
191.8378748401
 20
80.9862767071
 10
191.8438363259
 20
80.9862092404
 10
191.8489397144
 20
80.9862089523
 10
191.8531472649
 20
80.9862591754
 10
191.8565088081
 20
80.9863696537
 10
191.859095313
 20
80.9865497048
 10
191.8609310349
 20
80.9867838366
 10
191.8619439718
 20
80.9870235176
  0
LWPOLYLINE
  5
2A4
100
AcDbEntity
  8
RACCORDO
100
AcDbPolyline
 62
253
  6
CONTINUOUS
 90
16
 70
0
 10
148.5807717471
 20
82.1134105599
 10
148.4971778618
 20
82.1179364888
 10
148.4144994939
 20
82.1311091143
 10
148.3336421338
 20
82.15278417
 10
148.2554913285
 20
82.1827242718
 10
148.1809029828
 20
82.2206015165
 10
148.1106939858
 20
82.266001074
 10
148.0456332637
 20
82.3184257297
 10
147.9864333594
 20
82.3773013309
 10
147.933742628
 20
82.4419830739
 10
147.8881381367
 20
82.5117625666
 10
147.8501193442
 20
82.5858755865
 10
147.8201026309
 20
82.6635104503
 10
147.7984167388
 20
82.743816904
 10
147.7852991712
 20
82.8259154338
 10
147.780893591
 20
82.9089068998
  0
LWPOLYLINE
  5
2A5
100
AcDbEntity
  8
RACCORDO
100
AcDbPolyline
 62
253
  6
CONTINUOUS
 90
12
 70
0
 10
148.5964246937
 20
120.7907635669
 10
148.5994322654
 20
117.4372349063
 10
148.6017716162
 20
114.0779671655
 10
148.6034428742
 20
110.7133904866
 10
148.6044459113
 20
107.3439356076
 10
148.6047803426
 20
103.9700338064
 10
148.6044459113
 20
100.5921170561
 10
148.6034428742
 20
97.2106178437
 10
148.6017716161
 20
93.8259689886
 10
148.5994322654
 20
90.4386037973
 10
148.5964246937
 20
87.0489560086
 10
148.5926360093
 20
83.5336989986
  0
LWPOLYLINE
  5
2A6
100
AcDbEntity
  8
RACCORDO
100
AcDbPolyline
 62
253
  6
CONTINUOUS
 90
18
 70
0
 10
148.5926360093
 20
83.5336989986
 10
148.5924444349
 20
83.4104063779
 10
148.5921741779
 20
83.2884210185
 10
148.5918223728
 20
83.1685717467
 10
148.5913918851
 20
83.0516758617
 10
148.5908913113
 20
82.9385331612
 10
148.5903191811
 20
82.8299162865
 10
148.589676965
 20
82.7265602484
 10
148.5889776705
 20
82.6291626499
 10
148.5882200909
 20
82.538386318
 10
148.5874054331
 20
82.4548489554
 10
148.586550325
 20
82.3791152682
 10
148.5856540774
 20
82.3117000742
 10
148.5847173796
 20
82.2530660498
 10
148.583758928
 20
82.2036154982
 10
148.5827849548
 20
82.163685972
 10
148.5817892278
 20
82.1335491034
 10
148.5807717471
 20
82.1134105599
  0
LINE
  5
2A7
100
AcDbEntity
  8
26814000
100
AcDbLine
 62
7
  6
CONTINUOUS
 10
162.9766448843
 20
127.2171767402
 11
162.9807275191
 21
127.221259375
  0
LINE
  5
2A8
100
AcDbEntity
  8
RACCORDO
100
AcDbLine
 62
7
  6
CONTINUOUS
 10
170.2523097776
 20
125.8354093462
 11
170.2991704985
 21
125.8552129509
  0
LWPOLYLINE
  5
2A9
100
AcDbEntity
  8
RACCORDO
100
AcDbPolyline
 62
7
  6
CONTINUOUS
 90
3
 70
0
 10
170.2995849303
 20
125.8555238115
 10
170.2885368212
 20
125.8513581846
 10
170.2443917571
 20
125.8316059055
  0
LWPOLYLINE
  5
2AA
100
AcDbEntity
  8
RACCORDO
100
AcDbPolyline
 62
253
  6
CONTINUOUS
 90
15
 70
0
 10
148.5100506634
 20
83.6573988772
 10
148.4282385061
 20
83.6570239654
 10
148.3481890179
 20
83.6563381071
 10
148.2707599011
 20
83.655348651
 10
148.1967807817
 20
83.6540661988
 10
148.1270443201
 20
83.6525044921
 10
148.0622977182
 20
83.6506802642
 10
148.0032347131
 20
83.648613061
 10
147.9504881444
 20
83.6463250318
 10
147.9046231732
 20
83.6438406921
 10
147.8661312265
 20
83.6411866608
 10
147.8354247321
 20
83.6383913749
 10
147.8128326995
 20
83.6354847849
 10
147.7985971943
 20
83.6324980339
 10
147.7928707451
 20
83.6294631238
  0
LINE
  5
2AB
100
AcDbEntity
  8
DRAFT
100
AcDbLine
 62
7
  6
CONTINUOUS
 10
191.6897300269
 20
81.596259375
 11
192.1897081166
 21
81.596259375
  0
LINE
  5
2AC
100
AcDbEntity
  8
RACCORDO
100
AcDbLine
 62
253
  6
CONTINUOUS
 10
191.0806832912
 20
82.1134105599
 11
148.5807717471
 21
82.1134105599
  0
LINE
  5
2AD
100
AcDbEntity
  8
26814000
100
AcDbLine
 62
7
  6
CONTINUOUS
 10
147.4307275191
 20
83.4676106265
 11
147.6807275191
 21
83.4676106265
  0
LINE
  5
2AE
100
AcDbEntity
  8
DRAFT
100
AcDbLine
 62
7
  6
CONTINUOUS
 10
191.9807275191
 20
83.4676106265
 11
192.1897081166
 21
83.4676106265
  0
LINE
  5
2AF
100
AcDbEntity
  8
RACCORDO
100
AcDbLine
 62
253
  6
CONTINUOUS
 10
191.0687061372
 20
83.6574596113
 11
148.5100506634
 21
83.6573988772
  0
LWPOLYLINE
  5
2B0
100
AcDbEntity
  8
RACCORDO
100
AcDbPolyline
 62
253
  6
CONTINUOUS
 90
16
 70
0
 10
191.0687061372
 20
83.6574596101
 10
191.1514051814
 20
83.6573996644
 10
191.2332181168
 20
83.6570247447
 10
191.3132683293
 20
83.6563388682
 10
191.390698092
 20
83.6553493839
 10
191.4646777558
 20
83.654066894
 10
191.5344146389
 20
83.6525051407
 10
191.5991615202
 20
83.6506808581
 10
191.6582246461
 20
83.6486135929
 10
191.7109711633
 20
83.6463254957
 10
191.7568359002
 20
83.643841083
 10
191.7953274227
 20
83.6411869751
 10
191.8260332994
 20
83.6383916104
 10
191.848624521
 20
83.6354849407
 10
191.8628590259
 20
83.6324981107
 10
191.8685842933
 20
83.6294631238
  0
LINE
  5
2B1
100
AcDbEntity
  8
RACCORDO
100
AcDbLine
 62
253
  6
CONTINUOUS
 10
191.8150450136
 20
80.9869088059
 11
191.8311143583
 21
80.9864306268
  0
LINE
  5
2B2
100
AcDbEntity
  8
RACCORDO
100
AcDbLine
 62
253
  6
CONTINUOUS
 10
191.8060425067
 20
80.9872859734
 11
191.8150450136
 21
80.9869088059
  0
LINE
  5
2B3
100
AcDbEntity
  8
RACCORDO
100
AcDbLine
 62
253
  6
CONTINUOUS
 10
191.7863010582
 20
80.9882257781
 11
191.8060425067
 21
80.9872859734
  0
LINE
  5
2B4
100
AcDbEntity
  8
RACCORDO
100
AcDbLine
 62
253
  6
CONTINUOUS
 10
191.7428697254
 20
80.9905904897
 11
191.7863010582
 21
80.9882257781
  0
LWPOLYLINE
  5
2B5
100
AcDbEntity
  8
RACCORDO
100
AcDbPolyline
 62
7
  6
CONTINUOUS
 90
5
 70
0
 10
170.3006100707
 20
80.9866206727
 10
170.3109820789
 20
80.9824460913
 10
170.3215965459
 20
80.9774415189
 10
170.3323652126
 20
80.9715436043
 10
170.3431966402
 20
80.9646900289
  0
LINE
  5
2B6
100
AcDbEntity
  8
RACCORDO
100
AcDbLine
 62
7
  6
CONTINUOUS
 10
170.2991704985
 20
80.9873057991
 11
170.2523097776
 21
81.0071094038
  0
LWPOLYLINE
  5
2B7
100
AcDbEntity
  8
RACCORDO
100
AcDbPolyline
 62
7
  6
CONTINUOUS
 90
3
 70
0
 10
170.2494631629
 20
81.0083808438
 10
170.294464373
 20
80.9888903551
 10
170.3006100707
 20
80.9866206727
  0
LINE
  5
2B8
100
AcDbEntity
  8
26814000
100
AcDbLine
 62
7
  6
CONTINUOUS
 10
162.9766448843
 20
79.6253420098
 11
162.9807275191
 21
79.621259375
  0
LINE
  5
2B9
100
AcDbEntity
  8
26814000
100
AcDbLine
 62
7
  6
CONTINUOUS
 10
150.2720007744
 20
126.5439091058
 11
150.2669101733
 21
127.0490905914
  0
LINE
  5
2BA
100
AcDbEntity
  8
26814000
100
AcDbLine
 62
7
  6
CONTINUOUS
 10
150.2661829446
 20
127.5581650271
 11
150.2661829446
 21
127.2655969423
  0
LINE
  5
2BB
100
AcDbEntity
  8
26814000
100
AcDbLine
 62
7
  6
CONTINUOUS
 10
150.2661829446
 20
79.5769218077
 11
150.2661829446
 21
79.2843537229
  0
LINE
  5
2BC
100
AcDbEntity
  8
26814000
100
AcDbLine
 62
7
  6
CONTINUOUS
 10
150.2720007744
 20
80.2986096442
 11
150.2720007744
 21
81.0343496767
  0
LINE
  5
2BD
100
AcDbEntity
  8
26814000
100
AcDbLine
 62
7
  6
CONTINUOUS
 10
150.2720007744
 20
125.8081690733
 11
150.2720007744
 21
126.5439091058
  0
LINE
  5
2BE
100
AcDbEntity
  8
26814000
100
AcDbLine
 62
7
  6
CONTINUOUS
 10
150.2807275191
 20
79.021259375
 11
150.2807275191
 21
81.021259375
  0
LINE
  5
2BF
100
AcDbEntity
  8
26814000
100
AcDbLine
 62
7
  6
CONTINUOUS
 10
150.2807275191
 20
125.821259375
 11
150.2807275191
 21
127.821259375
  0
LINE
  5
2C0
100
AcDbEntity
  8
26814000
100
AcDbLine
 62
7
  6
CONTINUOUS
 10
150.2669101733
 20
79.7934281586
 11
150.2720007744
 21
80.2986096442
  0
LINE
  5
2C1
100
AcDbEntity
  8
RACCORDO
100
AcDbLine
 62
253
  6
CONTINUOUS
 10
147.780893591
 20
82.9089068998
 11
147.6807275191
 21
82.2094518734
  0
LINE
  5
2C2
100
AcDbEntity
  8
RACCORDO
100
AcDbLine
 62
253
  6
CONTINUOUS
 10
148.5807717471
 20
82.1134105599
 11
148.4806056753
 21
81.4139555335
  0
LINE
  5
2C3
100
AcDbEntity
  8
26814000
100
AcDbLine
 62
7
  6
CONTINUOUS
 10
162.9766448843
 20
125.8151353364
 11
162.9807275191
 21
125.821259375
  0
LINE
  5
2C4
100
AcDbEntity
  8
26814000
100
AcDbLine
 62
7
  6
CONTINUOUS
 10
169.1676289404
 20
127.8081607963
 11
169.1807275191
 21
127.821259375
  0
LWPOLYLINE
  5
2C5
100
AcDbEntity
  8
RACCORDO
100
AcDbPolyline
 62
7
  6
CONTINUOUS
 90
6
 70
0
 10
170.351614805
 20
125.8838685621
 10
170.3407392489
 20
125.8761876467
 10
170.3296115973
 20
125.8693846786
 10
170.3184119496
 20
125.8634955256
 10
170.3075808304
 20
125.8586293686
 10
170.2996083993
 20
125.8555320962
  0
LWPOLYLINE
  5
2C6
100
AcDbEntity
  8
RACCORDO
100
AcDbPolyline
 62
7
  6
CONTINUOUS
 90
5
 70
0
 10
170.2443917571
 20
125.8316059055
 10
170.2024223783
 20
125.807722578
 10
170.163007098
 20
125.7799480818
 10
170.1264961069
 20
125.7485541721
 10
170.0932219872
 20
125.7138552261
  0
LWPOLYLINE
  5
2C7
100
AcDbEntity
  8
RACCORDO
100
AcDbPolyline
 62
7
  6
CONTINUOUS
 90
5
 70
0
 10
170.2523097776
 20
81.0071094038
 10
170.2077070088
 20
81.0315739334
 10
170.1658242363
 20
81.0604459578
 10
170.1270953277
 20
81.0934263889
 10
170.0919214792
 20
81.1301735796
  0
LINE
  5
2C8
100
AcDbEntity
  8
RACCORDO
100
AcDbLine
 62
7
  6
CONTINUOUS
 10
170.3431966402
 20
80.9646900289
 11
170.3537079491
 21
80.9570428887
  0
LINE
  5
2C9
100
AcDbEntity
  8
26814000
100
AcDbLine
 62
7
  6
CONTINUOUS
 10
169.1676289404
 20
79.0343579537
 11
169.1807275191
 21
79.021259375
  0
LINE
  5
2CA
100
AcDbEntity
  8
26814000
100
AcDbLine
 62
7
  6
CONTINUOUS
 10
162.9766448843
 20
81.0273834136
 11
162.9807275191
 21
81.021259375
  0
LINE
  5
2CB
100
AcDbEntity
  8
26814000
100
AcDbLine
 62
7
  6
CONTINUOUS
 10
154.1807275191
 20
79.621259375
 11
154.1807275191
 21
81.021259375
  0
LINE
  5
2CC
100
AcDbEntity
  8
26814000
100
AcDbLine
 62
7
  6
CONTINUOUS
 10
154.1807275191
 20
125.821259375
 11
154.1807275191
 21
127.221259375
  0
LINE
  5
2CD
100
AcDbEntity
  8
26814000
100
AcDbLine
 62
253
  6
CONTINUOUS
 10
154.184810154
 20
127.2171767402
 11
154.184810154
 21
125.8151353364
  0
LINE
  5
2CE
100
AcDbEntity
  8
26814000
100
AcDbLine
 62
253
  6
CONTINUOUS
 10
154.184810154
 20
81.0273834136
 11
154.184810154
 21
79.6253420098
  0
LINE
  5
2CF
100
AcDbEntity
  8
26814000
100
AcDbLine
 62
253
  6
CONTINUOUS
 10
154.484805077
 20
127.2154415452
 11
154.484805077
 21
125.8125325072
  0
LINE
  5
2D0
100
AcDbEntity
  8
26814000
100
AcDbLine
 62
253
  6
CONTINUOUS
 10
154.484805077
 20
81.0299862428
 11
154.484805077
 21
79.6270772048
  0
LINE
  5
2D1
100
AcDbEntity
  8
RACCORDO
100
AcDbLine
 62
7
  6
CONTINUOUS
 10
170.0919214792
 20
125.7123451704
 11
170.1270953277
 21
125.7490923611
  0
LWPOLYLINE
  5
2D2
100
AcDbEntity
  8
RACCORDO
100
AcDbPolyline
 62
7
  6
CONTINUOUS
 90
4
 70
0
 10
170.1270953277
 20
125.7490923611
 10
170.1658242363
 20
125.7820727922
 10
170.2077070088
 20
125.8109448166
 10
170.2523097776
 20
125.8354093462
  0
LWPOLYLINE
  5
2D3
100
AcDbEntity
  8
RACCORDO
100
AcDbPolyline
 62
7
  6
CONTINUOUS
 90
13
 70
0
 10
170.3537079491
 20
80.9570428887
 10
170.3637524346
 20
80.9486793939
 10
170.37335216
 20
80.9395499812
 10
170.3824193918
 20
80.9296945465
 10
170.3908739659
 20
80.9191623531
 10
170.3986752897
 20
80.9079626811
 10
170.4057909509
 20
80.8960806538
 10
170.412153359
 20
80.8835470733
 10
170.4176902461
 20
80.8704098447
 10
170.4223457696
 20
80.8566799705
 10
170.4260456825
 20
80.8424133869
 10
170.4287184157
 20
80.8276740968
 10
170.4302984643
 20
80.8124931512
  0
LWPOLYLINE
  5
2D4
100
AcDbEntity
  8
RACCORDO
100
AcDbPolyline
 62
7
  6
CONTINUOUS
 90
4
 70
0
 10
170.1291708307
 20
81.0914538236
 10
170.1664345712
 20
81.0599265306
 10
170.2066544185
 20
81.0321418453
 10
170.2494631629
 20
81.0083808438
  0
LINE
  5
2D5
100
AcDbEntity
  8
RACCORDO
100
AcDbLine
 62
7
  6
CONTINUOUS
 10
170.0952117484
 20
81.1263975394
 11
170.1291708307
 21
81.0914538236
  0
LWPOLYLINE
  5
2D6
100
AcDbEntity
  8
RACCORDO
100
AcDbPolyline
 62
253
  6
CONTINUOUS
 90
18
 70
0
 10
148.5818479928
 20
125.3804906312
 10
148.5827849548
 20
125.3759531396
 10
148.583758928
 20
125.3612518615
 10
148.5847173796
 20
125.3364702279
 10
148.5856540774
 20
125.3017775677
 10
148.586550325
 20
125.2574123958
 10
148.5874054331
 20
125.203680008
 10
148.588220091
 20
125.1409463869
 10
148.5889776705
 20
125.0696358729
 10
148.589676965
 20
124.9902337244
 10
148.5903191811
 20
124.9032803162
 10
148.5908913113
 20
124.8093623591
 10
148.5913918851
 20
124.7091149282
 10
148.5918223728
 20
124.6032221547
 10
148.5921741779
 20
124.4924083459
 10
148.5924444349
 20
124.3774291474
 10
148.5926360093
 20
124.2590657464
 10
148.5964246937
 20
120.7907635669
  0
LINE
  5
2D7
100
AcDbEntity
  8
RACCORDO
100
AcDbLine
 62
7
  6
CONTINUOUS
 10
170.0664682927
 20
125.6803274896
 11
170.0533475942
 21
125.6626211357
  0
LINE
  5
2D8
100
AcDbEntity
  8
RACCORDO
100
AcDbLine
 62
7
  6
CONTINUOUS
 10
170.0670109454
 20
125.6810675007
 11
170.0708691224
 21
125.6862602081
  0
LINE
  5
2D9
100
AcDbEntity
  8
RACCORDO
100
AcDbLine
 62
7
  6
CONTINUOUS
 10
170.0533475942
 20
125.6626211357
 11
170.0509960527
 21
125.6594683226
  0
LINE
  5
2DA
100
AcDbEntity
  8
RACCORDO
100
AcDbLine
 62
7
  6
CONTINUOUS
 10
170.0932219872
 20
125.7138552261
 11
170.0708662676
 21
125.686262376
  0
LWPOLYLINE
  5
2DB
100
AcDbEntity
  8
RACCORDO
100
AcDbPolyline
 62
7
  6
CONTINUOUS
 90
18
 70
0
 10
189.2012844495
 20
80.9863492451
 10
189.2109820789
 20
80.9824460913
 10
189.2215965459
 20
80.9774415189
 10
189.2323652126
 20
80.9715436043
 10
189.2431966402
 20
80.9646900289
 10
189.2537079491
 20
80.9570428887
 10
189.2637524346
 20
80.9486793939
 10
189.27335216
 20
80.9395499812
 10
189.2824193918
 20
80.9296945465
 10
189.2908739659
 20
80.9191623531
 10
189.2986752897
 20
80.9079626811
 10
189.3057909509
 20
80.8960806538
 10
189.312153359
 20
80.8835470733
 10
189.3176902461
 20
80.8704098447
 10
189.3223457696
 20
80.8566799705
 10
189.3260456825
 20
80.8424133869
 10
189.3287184157
 20
80.8276740968
 10
189.3302984643
 20
80.8124931512
  0
LINE
  5
2DC
100
AcDbEntity
  8
RACCORDO
100
AcDbLine
 62
7
  6
CONTINUOUS
 10
170.0587513793
 20
81.173363843
 11
170.0526859861
 21
81.1807803008
  0
LINE
  5
2DD
100
AcDbEntity
  8
RACCORDO
100
AcDbLine
 62
7
  6
CONTINUOUS
 10
170.0714999589
 20
81.1554229108
 11
170.0952117484
 21
81.1263975394
  0
LINE
  5
2DE
100
AcDbEntity
  8
RACCORDO
100
AcDbLine
 62
7
  6
CONTINUOUS
 10
170.0919214792
 20
81.1301735796
 11
170.0714998606
 21
81.15542284
  0
LINE
  5
2DF
100
AcDbEntity
  8
RACCORDO
100
AcDbLine
 62
7
  6
CONTINUOUS
 10
170.0714998606
 20
81.15542284
 11
170.0670109456
 21
81.1614512489
  0
LINE
  5
2E0
100
AcDbEntity
  8
RACCORDO
100
AcDbLine
 62
7
  6
CONTINUOUS
 10
170.0510214505
 20
81.1830147938
 11
170.0589744063
 21
81.1723478466
  0
LWPOLYLINE
  5
2E1
100
AcDbEntity
  8
RACCORDO
100
AcDbPolyline
 62
7
  6
CONTINUOUS
 90
3
 70
0
 10
170.0589744063
 20
81.1723478466
 10
170.0664682907
 20
81.1621912632
 10
170.0670109456
 20
81.1614512489
  0
LINE
  5
2E2
100
AcDbEntity
  8
RACCORDO
100
AcDbLine
 62
7
  6
CONTINUOUS
 10
170.0291485624
 20
125.6274444081
 11
170.0161263785
 21
125.6054481742
  0
LINE
  5
2E3
100
AcDbEntity
  8
RACCORDO
100
AcDbLine
 62
7
  6
CONTINUOUS
 10
170.0435727363
 20
125.6491732826
 11
170.0291485624
 21
125.6274444081
  0
LINE
  5
2E4
100
AcDbEntity
  8
26814000
100
AcDbLine
 62
7
  6
CONTINUOUS
 10
169.1807275191
 20
125.821259375
 11
169.1720007744
 21
125.8081690733
  0
LINE
  5
2E5
100
AcDbEntity
  8
RACCORDO
100
AcDbLine
 62
7
  6
CONTINUOUS
 10
170.0509960527
 20
125.6594683226
 11
170.0435727363
 21
125.6491732826
  0
LWPOLYLINE
  5
2E6
100
AcDbEntity
  8
RACCORDO
100
AcDbPolyline
 62
253
  6
CONTINUOUS
 90
8
 70
0
 10
192.1840819265
 20
81.4922928192
 10
192.1845758472
 20
81.4921088815
 10
192.185047423
 20
81.4914200292
 10
192.1854966538
 20
81.4902262624
 10
192.185922517
 20
81.4884139597
 10
192.1863260353
 20
81.4860967425
 10
192.1867102762
 20
81.4836154746
 10
192.1870756874
 20
81.4810061136
  0
LWPOLYLINE
  5
2E7
100
AcDbEntity
  8
RACCORDO
100
AcDbPolyline
 62
7
  6
CONTINUOUS
 90
3
 70
0
 10
170.0510214505
 20
81.1830147938
 10
170.0470366194
 20
81.1884721223
 10
170.018910825
 20
81.2321695234
  0
LINE
  5
2E8
100
AcDbEntity
  8
RACCORDO
100
AcDbLine
 62
7
  6
CONTINUOUS
 10
170.0670109456
 20
81.1614512489
 11
170.06066706
 21
81.1703068622
  0
LINE
  5
2E9
100
AcDbEntity
  8
26814000
100
AcDbLine
 62
7
  6
CONTINUOUS
 10
169.1720007744
 20
81.0343496767
 11
169.1807275191
 21
81.021259375
  0
LWPOLYLINE
  5
2EA
100
AcDbEntity
  8
RACCORDO
100
AcDbPolyline
 62
7
  6
CONTINUOUS
 90
7
 70
0
 10
170.06066706
 20
81.1703068622
 10
170.0336558374
 20
81.2134104924
 10
170.0111676231
 20
81.2590379559
 10
169.9934353746
 20
81.3067165934
 10
169.9806427819
 20
81.3559524977
 10
169.9729223647
 20
81.4062356296
 10
169.9725321469
 20
81.4139555335
  0
LWPOLYLINE
  5
2EB
100
AcDbEntity
  8
RACCORDO
100
AcDbPolyline
 62
7
  6
CONTINUOUS
 90
4
 70
0
 10
169.9954750481
 20
125.5639630079
 10
170.0189096998
 20
125.610346262
 10
170.0470354899
 20
125.6540437484
 10
170.0509960527
 20
125.6594683226
  0
LWPOLYLINE
  5
2EC
100
AcDbEntity
  8
RACCORDO
100
AcDbPolyline
 62
7
  6
CONTINUOUS
 90
3
 70
0
 10
170.0161263785
 20
125.6054481742
 10
170.0045308994
 20
125.5834040757
 10
169.994466027
 20
125.5617853219
  0
LWPOLYLINE
  5
2ED
100
AcDbEntity
  8
RACCORDO
100
AcDbPolyline
 62
253
  6
CONTINUOUS
 90
7
 70
0
 10
189.3307275377
 20
126.0431117968
 10
189.3321334145
 20
126.0439547417
 10
189.3363157558
 20
126.0447713895
 10
189.343198882
 20
126.0455586151
 10
189.3526744594
 20
126.0463238287
 10
189.3646130194
 20
126.0470596201
 10
189.3788746991
 20
126.047743759
  0
LINE
  5
2EE
100
AcDbEntity
  8
RACCORDO
100
AcDbLine
 62
7
  6
CONTINUOUS
 10
170.018910825
 20
81.2321695234
 11
169.9954762168
 21
81.278552696
  0
LWPOLYLINE
  5
2EF
100
AcDbEntity
  8
RACCORDO
100
AcDbPolyline
 62
7
  6
CONTINUOUS
 90
6
 70
0
 10
169.9933602361
 20
81.2832829632
 10
170.0020774874
 20
81.2641436287
 10
170.0117992369
 20
81.2449897718
 10
170.0226081955
 20
81.2258015957
 10
170.0344611005
 20
81.20678208
 10
170.0473485507
 20
81.1880390342
  0
LINE
  5
2F0
100
AcDbEntity
  8
26814000
100
AcDbLine
 62
253
  6
CONTINUOUS
 10
162.6766499612
 20
79.6270772048
 11
162.6766499612
 21
81.0299862428
  0
LINE
  5
2F1
100
AcDbEntity
  8
26814000
100
AcDbLine
 62
253
  6
CONTINUOUS
 10
162.6766499612
 20
125.8125325072
 11
162.6766499612
 21
127.2154415452
  0
LINE
  5
2F2
100
AcDbEntity
  8
26814000
100
AcDbLine
 62
253
  6
CONTINUOUS
 10
162.9766448843
 20
79.6253420098
 11
162.9766448843
 21
81.0273834136
  0
LINE
  5
2F3
100
AcDbEntity
  8
26814000
100
AcDbLine
 62
253
  6
CONTINUOUS
 10
162.9766448843
 20
125.8151353364
 11
162.9766448843
 21
127.2171767402
  0
LINE
  5
2F4
100
AcDbEntity
  8
26814000
100
AcDbLine
 62
7
  6
CONTINUOUS
 10
162.9807275191
 20
127.221259375
 11
162.9807275191
 21
125.821259375
  0
LINE
  5
2F5
100
AcDbEntity
  8
26814000
100
AcDbLine
 62
7
  6
CONTINUOUS
 10
162.9807275191
 20
81.021259375
 11
162.9807275191
 21
79.621259375
  0
LWPOLYLINE
  5
2F6
100
AcDbEntity
  8
RACCORDO
100
AcDbPolyline
 62
7
  6
CONTINUOUS
 90
10
 70
0
 10
169.9784611424
 20
125.520257965
 10
169.9723778706
 20
125.5008521007
 10
169.9673778669
 20
125.4824366004
 10
169.9633422008
 20
125.4651527344
 10
169.9602454825
 20
125.4496737011
 10
169.9579114762
 20
125.4360930632
 10
169.9561416533
 20
125.4241972334
 10
169.9548351856
 20
125.4142128637
 10
169.9539129712
 20
125.4064161612
 10
169.9523084421
 20
125.3916837345
  0
LINE
  5
2F7
100
AcDbEntity
  8
RACCORDO
100
AcDbLine
 62
7
  6
CONTINUOUS
 10
169.9769848913
 20
125.5153954445
 11
169.9954750481
 21
125.5639630079
  0
LWPOLYLINE
  5
2F8
100
AcDbEntity
  8
RACCORDO
100
AcDbPolyline
 62
7
  6
CONTINUOUS
 90
9
 70
0
 10
170.4201119041
 20
125.9788435299
 10
170.4143695177
 20
125.9639226323
 10
170.4076013092
 20
125.9497895248
 10
170.3999196159
 20
125.9365045501
 10
170.3914335596
 20
125.9241079758
 10
170.3822522613
 20
125.9126303521
 10
170.372489313
 20
125.9020974348
 10
170.3622414178
 20
125.8925088307
 10
170.351614805
 20
125.8838685621
  0
LWPOLYLINE
  5
2F9
100
AcDbEntity
  8
RACCORDO
100
AcDbPolyline
 62
7
  6
CONTINUOUS
 90
3
 70
0
 10
169.994466027
 20
125.5617853219
 10
169.9858176736
 20
125.5407098133
 10
169.9784611424
 20
125.520257965
  0
LINE
  5
2FA
100
AcDbEntity
  8
RACCORDO
100
AcDbLine
 62
7
  6
CONTINUOUS
 10
169.9856411821
 20
81.3022694118
 11
169.9933602361
 21
81.2832829632
  0
LINE
  5
2FB
100
AcDbEntity
  8
RACCORDO
100
AcDbLine
 62
7
  6
CONTINUOUS
 10
169.9954762168
 20
81.278552696
 11
169.9769861525
 21
81.3271201792
  0
LINE
  5
2FC
100
AcDbEntity
  8
RACCORDO
100
AcDbLine
 62
7
  6
CONTINUOUS
 10
169.9790053627
 20
81.3206488859
 11
169.9856411821
 21
81.3022694118
  0
LINE
  5
2FD
100
AcDbEntity
  8
26814000
100
AcDbLine
 62
7
  6
CONTINUOUS
 10
147.9894542638
 20
81.0343496767
 11
147.9807275191
 21
81.021259375
  0
LINE
  5
2FE
100
AcDbEntity
  8
26814000
100
AcDbLine
 62
7
  6
CONTINUOUS
 10
147.9807275191
 20
125.821259375
 11
147.9894542638
 21
125.8081690733
  0
LWPOLYLINE
  5
2FF
100
AcDbEntity
  8
RACCORDO
100
AcDbPolyline
 62
7
  6
CONTINUOUS
 90
3
 70
0
 10
169.9769861525
 20
81.3271201792
 10
169.963640533
 20
81.3773468972
 10
169.9578957931
 20
81.4139555335
  0
LINE
  5
300
100
AcDbEntity
  8
26814000
100
AcDbLine
 62
7
  6
CONTINUOUS
 10
166.8945448649
 20
79.7934281586
 11
166.8894542638
 21
80.2986096442
  0
LINE
  5
301
100
AcDbEntity
  8
26814000
100
AcDbLine
 62
7
  6
CONTINUOUS
 10
166.8807275191
 20
79.021259375
 11
166.8807275191
 21
81.021259375
  0
LINE
  5
302
100
AcDbEntity
  8
26814000
100
AcDbLine
 62
7
  6
CONTINUOUS
 10
166.8807275191
 20
125.821259375
 11
166.8807275191
 21
127.821259375
  0
LINE
  5
303
100
AcDbEntity
  8
26814000
100
AcDbLine
 62
7
  6
CONTINUOUS
 10
166.8894542638
 20
80.2986096442
 11
166.8894542638
 21
81.0343496767
  0
LINE
  5
304
100
AcDbEntity
  8
26814000
100
AcDbLine
 62
7
  6
CONTINUOUS
 10
166.8894542638
 20
125.8081690733
 11
166.8894542638
 21
126.5439091058
  0
LINE
  5
305
100
AcDbEntity
  8
26814000
100
AcDbLine
 62
7
  6
CONTINUOUS
 10
166.8952720937
 20
79.2843537229
 11
166.8952720937
 21
79.5769218077
  0
LINE
  5
306
100
AcDbEntity
  8
26814000
100
AcDbLine
 62
7
  6
CONTINUOUS
 10
166.8952720937
 20
127.2655969423
 11
166.8952720937
 21
127.5581650271
  0
LINE
  5
307
100
AcDbEntity
  8
26814000
100
AcDbLine
 62
7
  6
CONTINUOUS
 10
166.8894542638
 20
126.5439091058
 11
166.8945448649
 21
127.0490905914
  0
LINE
  5
308
100
AcDbEntity
  8
RACCORDO
100
AcDbLine
 62
253
  6
CONTINUOUS
 10
169.9503822648
 20
125.3804906372
 11
169.9555476413
 21
125.4131595774
  0
LWPOLYLINE
  5
309
100
AcDbEntity
  8
RACCORDO
100
AcDbPolyline
 62
7
  6
CONTINUOUS
 90
8
 70
0
 10
169.9567817231
 20
81.4139555335
 10
169.9572967131
 20
81.4103749233
 10
169.9591701769
 20
81.3988503617
 10
169.9616154843
 20
81.3856982059
 10
169.9646952354
 20
81.3712665503
 10
169.9685578363
 20
81.3554835367
 10
169.9733375871
 20
81.3384172256
 10
169.9790053627
 20
81.3206488859
  0
LINE
  5
30A
100
AcDbEntity
  8
RACCORDO
100
AcDbLine
 62
7
  6
CONTINUOUS
 10
170.4302984643
 20
80.8124931512
 11
170.4307272402
 21
80.7994054909
  0
LINE
  5
30B
100
AcDbEntity
  8
26814000
100
AcDbLine
 62
7
  6
CONTINUOUS
 10
169.1720007744
 20
126.5439091058
 11
169.1669101733
 21
127.0490905914
  0
LINE
  5
30C
100
AcDbEntity
  8
26814000
100
AcDbLine
 62
7
  6
CONTINUOUS
 10
169.1661829446
 20
127.5581650271
 11
169.1661829446
 21
127.2655969423
  0
LINE
  5
30D
100
AcDbEntity
  8
26814000
100
AcDbLine
 62
7
  6
CONTINUOUS
 10
169.1661829446
 20
79.5769218077
 11
169.1661829446
 21
79.2843537229
  0
LINE
  5
30E
100
AcDbEntity
  8
26814000
100
AcDbLine
 62
7
  6
CONTINUOUS
 10
169.1720007744
 20
80.2986096442
 11
169.1720007744
 21
81.0343496767
  0
LINE
  5
30F
100
AcDbEntity
  8
26814000
100
AcDbLine
 62
7
  6
CONTINUOUS
 10
169.1720007744
 20
125.8081690733
 11
169.1720007744
 21
126.5439091058
  0
LINE
  5
310
100
AcDbEntity
  8
26814000
100
AcDbLine
 62
7
  6
CONTINUOUS
 10
169.1807275191
 20
79.021259375
 11
169.1807275191
 21
81.021259375
  0
LINE
  5
311
100
AcDbEntity
  8
26814000
100
AcDbLine
 62
7
  6
CONTINUOUS
 10
169.1807275191
 20
125.821259375
 11
169.1807275191
 21
127.821259375
  0
LINE
  5
312
100
AcDbEntity
  8
26814000
100
AcDbLine
 62
253
  6
CONTINUOUS
 10
169.3807275191
 20
125.821259375
 11
169.3807275191
 21
125.7994422055
  0
LINE
  5
313
100
AcDbEntity
  8
26814000
100
AcDbLine
 62
253
  6
CONTINUOUS
 10
169.3807275191
 20
81.0430765445
 11
169.3807275191
 21
81.021259375
  0
LINE
  5
314
100
AcDbEntity
  8
26814000
100
AcDbLine
 62
7
  6
CONTINUOUS
 10
169.7307275191
 20
125.4494288781
 11
169.7307275191
 21
125.3804906372
  0
LINE
  5
315
100
AcDbEntity
  8
26814000
100
AcDbLine
 62
7
  6
CONTINUOUS
 10
169.7307275191
 20
81.4139555335
 11
169.7307275191
 21
81.3930898719
  0
LINE
  5
316
100
AcDbEntity
  8
26814000
100
AcDbLine
 62
7
  6
CONTINUOUS
 10
169.1669101733
 20
79.7934281586
 11
169.1720007744
 21
80.2986096442
  0
LWPOLYLINE
  5
317
100
AcDbEntity
  8
RACCORDO
100
AcDbPolyline
 62
7
  6
CONTINUOUS
 90
5
 70
0
 10
170.4307258914
 20
126.0431087377
 10
170.430121109
 20
126.0275721348
 10
170.4280907111
 20
126.0107603275
 10
170.4247206126
 20
125.994483462
 10
170.4201119041
 20
125.9788435299
  0
LWPOLYLINE
  5
318
100
AcDbEntity
  8
RACCORDO
100
AcDbPolyline
 62
7
  6
CONTINUOUS
 90
8
 70
0
 10
169.9703540994
 20
125.3854736487
 10
169.9729223647
 20
125.4362831205
 10
169.9806427819
 20
125.4865662523
 10
169.9934353746
 20
125.5358021566
 10
170.0111676231
 20
125.5834807942
 10
170.0336558374
 20
125.6291082576
 10
170.06066706
 20
125.6722118878
 10
170.0670109454
 20
125.6810675007
  0
LWPOLYLINE
  5
319
100
AcDbEntity
  8
RACCORDO
100
AcDbPolyline
 62
7
  6
CONTINUOUS
 90
4
 70
0
 10
169.9538600099
 20
125.3804906372
 10
169.9555820481
 20
125.413825621
 10
169.9636391301
 20
125.465168645
 10
169.9769848913
 20
125.5153954445
  0
LINE
  5
31A
100
AcDbEntity
  8
26814000
100
AcDbLine
 62
7
  6
CONTINUOUS
 10
154.184810154
 20
81.0273834136
 11
154.1807275191
 21
81.021259375
  0
LINE
  5
31B
100
AcDbEntity
  8
26814000
100
AcDbLine
 62
7
  6
CONTINUOUS
 10
147.4307275191
 20
103.421259375
 11
147.6807275191
 21
103.421259375
  0
LINE
  5
31C
100
AcDbEntity
  8
DRAFT
100
AcDbLine
 62
7
  6
CONTINUOUS
 10
191.9807275191
 20
103.421259375
 11
192.1469432075
 21
103.421259375
  0
LINE
  5
31D
100
AcDbEntity
  8
26814000
100
AcDbLine
 62
7
  6
CONTINUOUS
 10
154.184810154
 20
125.8151353364
 11
154.1807275191
 21
125.821259375
  0
LWPOLYLINE
  5
31E
100
AcDbEntity
  8
RACCORDO
100
AcDbPolyline
 62
253
  6
CONTINUOUS
 90
13
 70
0
 10
172.8307275191
 20
80.0099345096
 10
172.8285887345
 20
80.0381942592
 10
172.8222089757
 20
80.0659704766
 10
172.8116974023
 20
80.0927879031
 10
172.7972338701
 20
80.1181876851
 10
172.7790658542
 20
80.1417352252
 10
172.7575042144
 20
80.1630276185
 10
172.7329178764
 20
80.1817005463
 10
172.7057275191
 20
80.1974345096
 10
172.6763983772
 20
80.2099602959
 10
172.6454322804
 20
80.2190635855
 10
172.6133590672
 20
80.2245886187
 10
172.5807275191
 20
80.2264408605
  0
LWPOLYLINE
  5
31F
100
AcDbEntity
  8
RACCORDO
100
AcDbPolyline
 62
253
  6
CONTINUOUS
 90
13
 70
0
 10
170.4307275191
 20
126.8325842404
 10
170.4328663038
 20
126.8043244908
 10
170.4392460626
 20
126.7765482734
 10
170.449757636
 20
126.7497308469
 10
170.4642211682
 20
126.7243310649
 10
170.4823891841
 20
126.7007835248
 10
170.5039508238
 20
126.6794911315
 10
170.5285371619
 20
126.6608182037
 10
170.5557275191
 20
126.6450842404
 10
170.585056661
 20
126.6325584541
 10
170.6160227579
 20
126.6234551645
 10
170.6480959711
 20
126.6179301313
 10
170.6807275191
 20
126.6160778895
  0
LWPOLYLINE
  5
320
100
AcDbEntity
  8
RACCORDO
100
AcDbPolyline
 62
253
  6
CONTINUOUS
 90
13
 70
0
 10
172.8307275191
 20
79.5769218077
 10
172.828619421
 20
79.6049789588
 10
172.822311916
 20
79.6326240014
 10
172.811884063
 20
79.6593838545
 10
172.7974742647
 20
79.6848135878
 10
172.7793098902
 20
79.7084466397
 10
172.7577311285
 20
79.7298181507
 10
172.7331280233
 20
79.7485480433
 10
172.7059084675
 20
79.7643312462
 10
172.6765409749
 20
79.7768963968
 10
172.6455303509
 20
79.7860281078
 10
172.6134087182
 20
79.7915702515
 10
172.5807275191
 20
79.7934281586
  0
LWPOLYLINE
  5
321
100
AcDbEntity
  8
RACCORDO
100
AcDbPolyline
 62
253
  6
CONTINUOUS
 90
13
 70
0
 10
170.4307275191
 20
127.2655969423
 10
170.4328356172
 20
127.2375397912
 10
170.4391431222
 20
127.2098947486
 10
170.4495709752
 20
127.1831348955
 10
170.4639807736
 20
127.1577051622
 10
170.4821451481
 20
127.1340721103
 10
170.5037239098
 20
127.1127005993
 10
170.528327015
 20
127.0939707067
 10
170.5555465708
 20
127.0781875038
 10
170.5849140633
 20
127.0656223532
 10
170.6159246874
 20
127.0564906422
 10
170.6480463201
 20
127.0509484985
 10
170.6807275191
 20
127.0490905914
  0
LWPOLYLINE
  5
322
100
AcDbEntity
  8
26814000
100
AcDbPolyline
 62
7
  6
CONTINUOUS
 90
31
 70
0
 10
169.7307275191
 20
125.4712460476
 10
169.7302478801
 20
125.4895638818
 10
169.7288102748
 20
125.5078315301
 10
169.726418639
 20
125.5259989279
 10
169.723079524
 20
125.5440162874
 10
169.7188020773
 20
125.5618342269
 10
169.7135980172
 20
125.579403906
 10
169.7074816024
 20
125.5966771715
 10
169.7004695925
 20
125.6136066818
 10
169.6925812007
 20
125.6301460289
 10
169.6838380431
 20
125.646249882
 10
169.6742640791
 20
125.6618741032
 10
169.6638855448
 20
125.6769758597
 10
169.6527308819
 20
125.6915137593
 10
169.6408306603
 20
125.7054479548
 10
169.6282174934
 20
125.7187402439
 10
169.6149259492
 20
125.7313541924
 10
169.6009924552
 20
125.7432552252
 10
169.5864552
 20
125.7544107123
 10
169.5713540265
 20
125.764790075
 10
169.5557303236
 20
125.7743648619
 10
169.5396269142
 20
125.7831088198
 10
169.5230879353
 20
125.7909979785
 10
169.506158718
 20
125.7980107116
 10
169.4888856643
 20
125.8041277895
 10
169.4713161188
 20
125.8093324413
 10
169.4534982381
 20
125.8136103981
 10
169.4354808601
 20
125.8169499277
 10
169.4173133701
 20
125.8193418712
 10
169.3990455655
 20
125.8207796689
 10
169.3807275191
 20
125.821259375
  0
LINE
  5
323
100
AcDbEntity
  8
RACCORDO
100
AcDbLine
 62
7
  6
CONTINUOUS
 10
170.4307275191
 20
79.171259375
 11
170.4307275191
 21
80.7994100782
  0
LINE
  5
324
100
AcDbEntity
  8
RACCORDO
100
AcDbLine
 62
7
  6
CONTINUOUS
 10
170.4307275191
 20
126.0431086718
 11
170.4307275191
 21
127.671259375
  0
LINE
  5
325
100
AcDbEntity
  8
RACCORDO
100
AcDbLine
 62
253
  6
CONTINUOUS
 10
170.6807275191
 20
127.921259375
 11
170.6807275194
 21
125.8561695049
  0
LINE
  5
326
100
AcDbEntity
  8
RACCORDO
100
AcDbLine
 62
253
  6
CONTINUOUS
 10
170.6807275207
 20
80.9863492451
 11
170.6807275191
 21
78.921259375
  0
LWPOLYLINE
  5
327
100
AcDbEntity
  8
26814000
100
AcDbPolyline
 62
7
  6
CONTINUOUS
 90
31
 70
0
 10
169.7307275191
 20
81.3712727024
 10
169.7302478801
 20
81.3529548682
 10
169.7288102748
 20
81.3346872199
 10
169.726418639
 20
81.3165198221
 10
169.723079524
 20
81.2985024626
 10
169.7188020773
 20
81.2806845231
 10
169.7135980172
 20
81.263114844
 10
169.7074816024
 20
81.2458415785
 10
169.7004695925
 20
81.2289120682
 10
169.6925812007
 20
81.2123727211
 10
169.6838380431
 20
81.196268868
 10
169.6742640791
 20
81.1806446468
 10
169.6638855448
 20
81.1655428903
 10
169.6527308819
 20
81.1510049907
 10
169.6408306603
 20
81.1370707952
 10
169.6282174934
 20
81.1237785061
 10
169.6149259492
 20
81.1111645576
 10
169.6009924552
 20
81.0992635248
 10
169.5864552
 20
81.0881080377
 10
169.5713540265
 20
81.077728675
 10
169.5557303236
 20
81.0681538881
 10
169.5396269142
 20
81.0594099302
 10
169.5230879353
 20
81.0515207715
 10
169.506158718
 20
81.0445080384
 10
169.4888856643
 20
81.0383909605
 10
169.4713161188
 20
81.0331863087
 10
169.4534982381
 20
81.0289083519
 10
169.4354808601
 20
81.0255688223
 10
169.4173133701
 20
81.0231768788
 10
169.3990455655
 20
81.0217390811
 10
169.3807275191
 20
81.021259375
  0
LWPOLYLINE
  5
328
100
AcDbEntity
  8
RACCORDO
100
AcDbPolyline
 62
253
  6
CONTINUOUS
 90
13
 70
0
 10
172.8307275191
 20
127.2655969423
 10
172.828619421
 20
127.2375397912
 10
172.822311916
 20
127.2098947486
 10
172.811884063
 20
127.1831348955
 10
172.7974742647
 20
127.1577051622
 10
172.7793098902
 20
127.1340721103
 10
172.7577311285
 20
127.1127005993
 10
172.7331280233
 20
127.0939707067
 10
172.7059084675
 20
127.0781875038
 10
172.6765409749
 20
127.0656223532
 10
172.6455303509
 20
127.0564906422
 10
172.6134087182
 20
127.0509484985
 10
172.5807275191
 20
127.0490905914
  0
LWPOLYLINE
  5
329
100
AcDbEntity
  8
RACCORDO
100
AcDbPolyline
 62
253
  6
CONTINUOUS
 90
13
 70
0
 10
172.8307275191
 20
126.8325842404
 10
172.8285887345
 20
126.8043244908
 10
172.8222089757
 20
126.7765482734
 10
172.8116974023
 20
126.7497308469
 10
172.7972338701
 20
126.7243310649
 10
172.7790658542
 20
126.7007835248
 10
172.7575042144
 20
126.6794911315
 10
172.7329178764
 20
126.6608182037
 10
172.7057275191
 20
126.6450842404
 10
172.6763983772
 20
126.6325584541
 10
172.6454322804
 20
126.6234551645
 10
172.6133590672
 20
126.6179301313
 10
172.5807275191
 20
126.6160778895
  0
LWPOLYLINE
  5
32A
100
AcDbEntity
  8
RACCORDO
100
AcDbPolyline
 62
253
  6
CONTINUOUS
 90
13
 70
0
 10
170.4307275191
 20
80.0099345096
 10
170.4328663038
 20
80.0381942592
 10
170.4392460626
 20
80.0659704766
 10
170.449757636
 20
80.0927879031
 10
170.4642211682
 20
80.1181876851
 10
170.4823891841
 20
80.1417352252
 10
170.5039508238
 20
80.1630276185
 10
170.5285371619
 20
80.1817005463
 10
170.5557275191
 20
80.1974345096
 10
170.585056661
 20
80.2099602959
 10
170.6160227579
 20
80.2190635855
 10
170.6480959711
 20
80.2245886187
 10
170.6807275191
 20
80.2264408605
  0
LWPOLYLINE
  5
32B
100
AcDbEntity
  8
RACCORDO
100
AcDbPolyline
 62
253
  6
CONTINUOUS
 90
13
 70
0
 10
170.4307275191
 20
79.5769218077
 10
170.4328663038
 20
79.6051815573
 10
170.4392460626
 20
79.6329577747
 10
170.449757636
 20
79.6597752012
 10
170.4642211682
 20
79.6851749832
 10
170.4823891841
 20
79.7087225233
 10
170.5039508238
 20
79.7300149166
 10
170.5285371619
 20
79.7486878444
 10
170.5557275191
 20
79.7644218077
 10
170.585056661
 20
79.776947594
 10
170.6160227579
 20
79.7860508836
 10
170.6480959711
 20
79.7915759168
 10
170.6807275191
 20
79.7934281586
  0
LINE
  5
32C
100
AcDbEntity
  8
26814000
100
AcDbLine
 62
7
  6
CONTINUOUS
 10
147.9938260978
 20
79.0343579537
 11
147.9807275191
 21
79.021259375
  0
LINE
  5
32D
100
AcDbEntity
  8
26814000
100
AcDbLine
 62
7
  6
CONTINUOUS
 10
147.9938260978
 20
127.8081607963
 11
147.9807275191
 21
127.821259375
  0
LINE
  5
32E
100
AcDbEntity
  8
RACCORDO
100
AcDbLine
 62
7
  6
CONTINUOUS
 10
172.8311409554
 20
126.0302851018
 11
172.8307291435
 21
126.0431087287
  0
LINE
  5
32F
100
AcDbEntity
  8
RACCORDO
100
AcDbLine
 62
253
  6
CONTINUOUS
 10
172.5807275191
 20
78.921259375
 11
172.5807275191
 21
80.9863492451
  0
LINE
  5
330
100
AcDbEntity
  8
RACCORDO
100
AcDbLine
 62
253
  6
CONTINUOUS
 10
172.5807275191
 20
125.8561695049
 11
172.5807275191
 21
127.921259375
  0
LINE
  5
331
100
AcDbEntity
  8
RACCORDO
100
AcDbLine
 62
7
  6
CONTINUOUS
 10
172.8307275191
 20
79.171259375
 11
172.8307275191
 21
80.7994100782
  0
LINE
  5
332
100
AcDbEntity
  8
RACCORDO
100
AcDbLine
 62
7
  6
CONTINUOUS
 10
172.8307275191
 20
126.0431086718
 11
172.8307275191
 21
127.671259375
  0
LWPOLYLINE
  5
333
100
AcDbEntity
  8
RACCORDO
100
AcDbPolyline
 62
7
  6
CONTINUOUS
 90
5
 70
0
 10
172.8307277978
 20
80.7994054327
 10
172.8309038555
 20
80.8077955743
 10
172.8324253871
 20
80.8254025138
 10
172.8354248171
 20
80.8424835023
 10
172.8397949637
 20
80.8589243962
  0
LINE
  5
334
100
AcDbEntity
  8
RACCORDO
100
AcDbLine
 62
7
  6
CONTINUOUS
 10
176.6778559873
 20
79.621259375
 11
176.6778559873
 21
80.9863492451
  0
LINE
  5
335
100
AcDbEntity
  8
RACCORDO
100
AcDbLine
 62
7
  6
CONTINUOUS
 10
176.6778559873
 20
125.8561695049
 11
176.6778559873
 21
127.221259375
  0
LINE
  5
336
100
AcDbEntity
  8
26814000
100
AcDbLine
 62
7
  6
CONTINUOUS
 10
154.184810154
 20
79.6253420098
 11
154.1807275191
 21
79.621259375
  0
LINE
  5
337
100
AcDbEntity
  8
26814000
100
AcDbLine
 62
7
  6
CONTINUOUS
 10
154.184810154
 20
127.2171767402
 11
154.1807275191
 21
127.221259375
  0
LINE
  5
338
100
AcDbEntity
  8
RACCORDO
100
AcDbLine
 62
253
  6
CONTINUOUS
 10
177.1778559873
 20
79.621259375
 11
177.1778559873
 21
80.9863492451
  0
LINE
  5
339
100
AcDbEntity
  8
RACCORDO
100
AcDbLine
 62
253
  6
CONTINUOUS
 10
177.1778559873
 20
125.8561695049
 11
177.1778559873
 21
127.221259375
  0
LWPOLYLINE
  5
33A
100
AcDbEntity
  8
RACCORDO
100
AcDbPolyline
 62
7
  6
CONTINUOUS
 90
14
 70
0
 10
172.8397949637
 20
80.8589243962
 10
172.8454211268
 20
80.8746236239
 10
172.8521854967
 20
80.8895002217
 10
172.8599679329
 20
80.9034879326
 10
172.8686447899
 20
80.9165311553
 10
172.8780990876
 20
80.9285974373
 10
172.8882104256
 20
80.9396591977
 10
172.8988485858
 20
80.9496911348
 10
172.9099197165
 20
80.9587106767
 10
172.921299743
 20
80.9667139343
 10
172.9328040663
 20
80.973676076
 10
172.9444904942
 20
80.9797200721
 10
172.9561054489
 20
80.9847977436
 10
172.9603458068
 20
80.9863492451
  0
LWPOLYLINE
  5
33B
100
AcDbEntity
  8
RACCORDO
100
AcDbPolyline
 62
7
  6
CONTINUOUS
 90
14
 70
0
 10
189.3216600746
 20
125.9835943538
 10
189.3160339115
 20
125.9678951261
 10
189.3092695416
 20
125.9530185283
 10
189.3014871053
 20
125.9390308174
 10
189.2928102484
 20
125.9259875947
 10
189.2833559507
 20
125.9139213127
 10
189.2732446126
 20
125.9028595523
 10
189.2626064524
 20
125.8928276152
 10
189.2515353218
 20
125.8838080733
 10
189.2401552952
 20
125.8758048157
 10
189.228650972
 20
125.868842674
 10
189.216964544
 20
125.8627986779
 10
189.2053495893
 20
125.8577210064
 10
189.2011092314
 20
125.8561695049
  0
LINE
  5
33C
100
AcDbEntity
  8
26814000
100
AcDbLine
 62
7
  6
CONTINUOUS
 10
166.8894542638
 20
81.0343496767
 11
166.8807275191
 21
81.021259375
  0
LINE
  5
33D
100
AcDbEntity
  8
26814000
100
AcDbLine
 62
7
  6
CONTINUOUS
 10
166.8807275191
 20
125.821259375
 11
166.8894542638
 21
125.8081690733
  0
LINE
  5
33E
100
AcDbEntity
  8
RACCORDO
100
AcDbLine
 62
253
  6
CONTINUOUS
 10
184.9835990509
 20
127.221259375
 11
184.9835990509
 21
125.8561695049
  0
LINE
  5
33F
100
AcDbEntity
  8
RACCORDO
100
AcDbLine
 62
253
  6
CONTINUOUS
 10
184.9835990509
 20
80.9863492451
 11
184.9835990509
 21
79.621259375
  0
LINE
  5
340
100
AcDbEntity
  8
RACCORDO
100
AcDbLine
 62
7
  6
CONTINUOUS
 10
185.4835990509
 20
127.221259375
 11
185.4835990509
 21
125.8561695049
  0
LINE
  5
341
100
AcDbEntity
  8
RACCORDO
100
AcDbLine
 62
7
  6
CONTINUOUS
 10
185.4835990509
 20
80.9863492451
 11
185.4835990509
 21
79.621259375
  0
LINE
  5
342
100
AcDbEntity
  8
26814000
100
AcDbLine
 62
7
  6
CONTINUOUS
 10
166.8938260978
 20
79.0343579537
 11
166.8807275191
 21
79.021259375
  0
LINE
  5
343
100
AcDbEntity
  8
26814000
100
AcDbLine
 62
7
  6
CONTINUOUS
 10
166.8938260978
 20
127.8081607963
 11
166.8807275191
 21
127.821259375
  0
LWPOLYLINE
  5
344
100
AcDbEntity
  8
RACCORDO
100
AcDbPolyline
 62
253
  6
CONTINUOUS
 90
18
 70
0
 10
191.8805614473
 20
82.9089068998
 10
191.8795498754
 20
82.9183983369
 10
191.8785580391
 20
82.9323437442
 10
191.8775859383
 20
82.9507431219
 10
191.8766266044
 20
82.9737858165
 10
191.875687006
 20
83.0012824815
 10
191.8747880491
 20
83.0326650768
 10
191.8739311629
 20
83.0680090259
 10
191.8731149182
 20
83.1072389054
 10
191.8723559328
 20
83.1495604043
 10
191.8716553828
 20
83.195039301
 10
191.8710120922
 20
83.2436098173
 10
191.870439151
 20
83.2942803074
 10
191.8699379866
 20
83.3471260112
 10
191.8695071717
 20
83.402071689
 10
191.8691555141
 20
83.4578999756
 10
191.8688859498
 20
83.5142050828
 10
191.8686955429
 20
83.5713927988
  0
LWPOLYLINE
  5
345
100
AcDbEntity
  8
RACCORDO
100
AcDbPolyline
 62
253
  6
CONTINUOUS
 90
13
 70
0
 10
191.7307275191
 20
79.5769218077
 10
191.7285887345
 20
79.6051815573
 10
191.7222089757
 20
79.6329577747
 10
191.7116974023
 20
79.6597752012
 10
191.6972338701
 20
79.6851749832
 10
191.6790658542
 20
79.7087225233
 10
191.6575042144
 20
79.7300149166
 10
191.6329178764
 20
79.7486878444
 10
191.6057275191
 20
79.7644218077
 10
191.5763983772
 20
79.776947594
 10
191.5454322804
 20
79.7860508836
 10
191.5133590672
 20
79.7915759168
 10
191.4807275191
 20
79.7934281586
  0
LWPOLYLINE
  5
346
100
AcDbEntity
  8
RACCORDO
100
AcDbPolyline
 62
253
  6
CONTINUOUS
 90
13
 70
0
 10
191.7307275191
 20
80.0099345096
 10
191.7285887345
 20
80.0381942592
 10
191.7222089757
 20
80.0659704766
 10
191.7116974023
 20
80.0927879031
 10
191.6972338701
 20
80.1181876851
 10
191.6790658542
 20
80.1417352252
 10
191.6575042144
 20
80.1630276185
 10
191.6329178764
 20
80.1817005463
 10
191.6057275191
 20
80.1974345096
 10
191.5763983772
 20
80.2099602959
 10
191.5454322804
 20
80.2190635855
 10
191.5133590672
 20
80.2245886187
 10
191.4807275191
 20
80.2264408605
  0
LWPOLYLINE
  5
347
100
AcDbEntity
  8
RACCORDO
100
AcDbPolyline
 62
253
  6
CONTINUOUS
 90
19
 70
0
 10
191.0806832912
 20
82.1134105599
 10
191.0796658105
 20
82.1335491034
 10
191.0786700835
 20
82.163685972
 10
191.0776961103
 20
82.2036154982
 10
191.0767376587
 20
82.2530660498
 10
191.0758009609
 20
82.3117000742
 10
191.0749047132
 20
82.3791152682
 10
191.0740496052
 20
82.4548489554
 10
191.0732349473
 20
82.538386318
 10
191.0724773677
 20
82.6291626499
 10
191.0717780733
 20
82.7265602484
 10
191.0711358571
 20
82.8299162865
 10
191.070563727
 20
82.9385331612
 10
191.0700631532
 20
83.0516758617
 10
191.0696326655
 20
83.1685717467
 10
191.0692808603
 20
83.2884210185
 10
191.0690106033
 20
83.4104063779
 10
191.068819029
 20
83.5336989986
 10
191.0650303445
 20
87.0489560086
  0
LINE
  5
348
100
AcDbEntity
  8
RACCORDO
100
AcDbLine
 62
7
  6
CONTINUOUS
 10
189.3302984643
 20
80.8124931512
 11
189.3307272402
 21
80.7994054909
  0
LINE
  5
349
100
AcDbEntity
  8
RACCORDO
100
AcDbLine
 62
7
  6
CONTINUOUS
 10
189.3307275191
 20
79.171259375
 11
189.3307275191
 21
80.7994100782
  0
LINE
  5
34A
100
AcDbEntity
  8
RACCORDO
100
AcDbLine
 62
7
  6
CONTINUOUS
 10
189.3307275191
 20
126.0431086718
 11
189.3307275191
 21
127.671259375
  0
LINE
  5
34B
100
AcDbEntity
  8
RACCORDO
100
AcDbLine
 62
253
  6
CONTINUOUS
 10
189.5807275191
 20
78.921259375
 11
189.5807275207
 21
80.9863492451
  0
LINE
  5
34C
100
AcDbEntity
  8
RACCORDO
100
AcDbLine
 62
253
  6
CONTINUOUS
 10
189.5807275192
 20
125.8561695049
 11
189.5807275191
 21
127.921259375
  0
LWPOLYLINE
  5
34D
100
AcDbEntity
  8
RACCORDO
100
AcDbPolyline
 62
7
  6
CONTINUOUS
 90
5
 70
0
 10
189.3307272405
 20
126.0431133173
 10
189.3305511828
 20
126.0347231757
 10
189.3290296512
 20
126.0171162362
 10
189.3260302211
 20
126.0000352477
 10
189.3216600746
 20
125.9835943538
  0
LWPOLYLINE
  5
34E
100
AcDbEntity
  8
RACCORDO
100
AcDbPolyline
 62
253
  6
CONTINUOUS
 90
13
 70
0
 10
191.7307275191
 20
127.2655969423
 10
191.728619421
 20
127.2375397912
 10
191.722311916
 20
127.2098947486
 10
191.711884063
 20
127.1831348955
 10
191.6974742647
 20
127.1577051622
 10
191.6793098902
 20
127.1340721103
 10
191.6577311285
 20
127.1127005993
 10
191.6331280233
 20
127.0939707067
 10
191.6059084675
 20
127.0781875038
 10
191.5765409749
 20
127.0656223532
 10
191.5455303509
 20
127.0564906422
 10
191.5134087182
 20
127.0509484985
 10
191.4807275191
 20
127.0490905914
  0
LWPOLYLINE
  5
34F
100
AcDbEntity
  8
RACCORDO
100
AcDbPolyline
 62
253
  6
CONTINUOUS
 90
13
 70
0
 10
191.7307275191
 20
126.8325842404
 10
191.7285887345
 20
126.8043244908
 10
191.7222089757
 20
126.7765482734
 10
191.7116974023
 20
126.7497308469
 10
191.6972338701
 20
126.7243310649
 10
191.6790658542
 20
126.7007835248
 10
191.6575042144
 20
126.6794911315
 10
191.6329178764
 20
126.6608182037
 10
191.6057275191
 20
126.6450842404
 10
191.5763983772
 20
126.6325584541
 10
191.5454322804
 20
126.6234551645
 10
191.5133590672
 20
126.6179301313
 10
191.4807275191
 20
126.6160778895
  0
LWPOLYLINE
  5
350
100
AcDbEntity
  8
RACCORDO
100
AcDbPolyline
 62
253
  6
CONTINUOUS
 90
14
 70
0
 10
192.1880142931
 20
125.3691798979
 10
192.188617197
 20
125.3743290762
 10
192.1888881792
 20
125.3765023819
 10
192.1891397029
 20
125.3784411112
 10
192.1893781243
 20
125.3801359065
 10
192.1896041634
 20
125.3815739062
 10
192.1898171003
 20
125.3827679719
 10
192.1900211321
 20
125.3837473309
 10
192.1902163256
 20
125.3845106818
 10
192.1904026141
 20
125.385059326
 10
192.1905839934
 20
125.3854263958
 10
192.1907617958
 20
125.3856229353
 10
192.1909346891
 20
125.3856379004
 10
192.1911026733
 20
125.385471291
  0
LINE
  5
351
100
AcDbEntity
  8
26814000
100
AcDbLine
 62
7
  6
CONTINUOUS
 10
147.4307275191
 20
123.3749081235
 11
147.6807275191
 21
123.3749081235
  0
LINE
  5
352
100
AcDbEntity
  8
DRAFT
100
AcDbLine
 62
7
  6
CONTINUOUS
 10
191.9807275191
 20
123.3749081235
 11
192.1897081166
 21
123.3749081235
  0
LINE
  5
353
100
AcDbEntity
  8
RACCORDO
100
AcDbLine
 62
253
  6
CONTINUOUS
 10
191.180849363
 20
81.4139555335
 11
191.0806832912
 21
82.1134105599
  0
LINE
  5
354
100
AcDbEntity
  8
RACCORDO
100
AcDbLine
 62
253
  6
CONTINUOUS
 10
191.9807275191
 20
82.2094518734
 11
191.8805614473
 21
82.9089068998
  0
LWPOLYLINE
  5
355
100
AcDbEntity
  8
RACCORDO
100
AcDbPolyline
 62
253
  6
CONTINUOUS
 90
13
 70
0
 10
192.1886325575
 20
81.4680614566
 10
192.1888957416
 20
81.4659544773
 10
192.1891440602
 20
81.4640442379
 10
192.1893809223
 20
81.462365341
 10
192.1896065397
 20
81.4609345676
 10
192.1898207005
 20
81.4597351368
 10
192.1900261784
 20
81.4587513078
 10
192.1902231418
 20
81.4579888349
 10
192.1904114223
 20
81.4574419637
 10
192.1905932886
 20
81.4570776907
 10
192.190769497
 20
81.4568850144
 10
192.1909392912
 20
81.4568749363
 10
192.1911026712
 20
81.4570474562
  0
LINE
  5
356
100
AcDbEntity
  8
RACCORDO
100
AcDbLine
 62
253
  6
CONTINUOUS
 10
192.1870756874
 20
81.4810061136
 11
192.1877504027
 21
81.4755282312
  0
LINE
  5
357
100
AcDbEntity
  8
RACCORDO
100
AcDbLine
 62
253
  6
CONTINUOUS
 10
192.1877504027
 20
81.4755282312
 11
192.1886325575
 21
81.4680614566
  0
LWPOLYLINE
  5
358
100
AcDbEntity
  8
RACCORDO
100
AcDbPolyline
 62
253
  6
CONTINUOUS
 90
13
 70
0
 10
189.3307275191
 20
126.8325842404
 10
189.3328663038
 20
126.8043244908
 10
189.3392460626
 20
126.7765482734
 10
189.349757636
 20
126.7497308469
 10
189.3642211682
 20
126.7243310649
 10
189.3823891841
 20
126.7007835248
 10
189.4039508238
 20
126.6794911315
 10
189.4285371619
 20
126.6608182037
 10
189.4557275191
 20
126.6450842404
 10
189.485056661
 20
126.6325584541
 10
189.5160227579
 20
126.6234551645
 10
189.5480959711
 20
126.6179301313
 10
189.5807275191
 20
126.6160778895
  0
LWPOLYLINE
  5
359
100
AcDbEntity
  8
RACCORDO
100
AcDbPolyline
 62
253
  6
CONTINUOUS
 90
13
 70
0
 10
189.3307275191
 20
127.2655969423
 10
189.3328356172
 20
127.2375397912
 10
189.3391431222
 20
127.2098947486
 10
189.3495709752
 20
127.1831348955
 10
189.3639807736
 20
127.1577051622
 10
189.3821451481
 20
127.1340721103
 10
189.4037239098
 20
127.1127005993
 10
189.428327015
 20
127.0939707067
 10
189.4555465708
 20
127.0781875038
 10
189.4849140633
 20
127.0656223532
 10
189.5159246874
 20
127.0564906422
 10
189.5480463201
 20
127.0509484985
 10
189.5807275191
 20
127.0490905914
  0
LINE
  5
35A
100
AcDbEntity
  8
DRAFT
100
AcDbLine
 62
7
  6
CONTINUOUS
 10
192.1469432075
 20
103.421259375
 11
192.1897081166
 21
83.4676106265
  0
LWPOLYLINE
  5
35B
100
AcDbEntity
  8
RACCORDO
100
AcDbPolyline
 62
253
  6
CONTINUOUS
 90
12
 70
0
 10
191.8686955429
 20
83.5713927988
 10
191.8649085092
 20
87.0126217618
 10
191.8619009426
 20
90.3930775945
 10
191.8595615936
 20
93.7708306219
 10
191.8578903315
 20
97.1463145517
 10
191.8568872868
 20
100.5190956762
 10
191.8565528518
 20
103.8878728725
 10
191.856887288
 20
107.2526447461
 10
191.8578903338
 20
110.6134126916
 10
191.8595615964
 20
113.9688797693
 10
191.8619009451
 20
117.3186136661
 10
191.8649085108
 20
120.6630466953
  0
LWPOLYLINE
  5
35C
100
AcDbEntity
  8
RACCORDO
100
AcDbPolyline
 62
253
  6
CONTINUOUS
 90
12
 70
0
 10
191.0650303445
 20
87.0489560086
 10
191.0620227729
 20
90.4386037973
 10
191.0596834221
 20
93.8259689886
 10
191.0580121641
 20
97.2106178437
 10
191.057009127
 20
100.5921170561
 10
191.0566746957
 20
103.9700338064
 10
191.0570091269
 20
107.3439356076
 10
191.058012164
 20
110.7133904866
 10
191.0596834221
 20
114.0779671655
 10
191.0620227728
 20
117.4372349063
 10
191.0650303445
 20
120.7907635669
 10
191.068819029
 20
124.2590657464
  0
LINE
  5
35D
100
AcDbEntity
  8
RACCORDO
100
AcDbLine
 62
253
  6
CONTINUOUS
 10
191.4807275191
 20
78.921259375
 11
191.4807275191
 21
80.9863492451
  0
LINE
  5
35E
100
AcDbEntity
  8
RACCORDO
100
AcDbLine
 62
253
  6
CONTINUOUS
 10
191.4807275175
 20
125.8561695049
 11
191.4807275191
 21
127.921259375
  0
LINE
  5
35F
100
AcDbEntity
  8
RACCORDO
100
AcDbLine
 62
7
  6
CONTINUOUS
 10
191.7307275191
 20
79.171259375
 11
191.7307275191
 21
80.7994100782
  0
LINE
  5
360
100
AcDbEntity
  8
RACCORDO
100
AcDbLine
 62
7
  6
CONTINUOUS
 10
191.7307275191
 20
126.0431086718
 11
191.7307275191
 21
127.671259375
  0
LINE
  5
361
100
AcDbEntity
  8
RACCORDO
100
AcDbLine
 62
7
  6
CONTINUOUS
 10
191.9807275191
 20
124.0790660212
 11
191.9807275191
 21
82.2094518734
  0
LINE
  5
362
100
AcDbEntity
  8
RACCORDO
100
AcDbLine
 62
7
  6
CONTINUOUS
 10
192.1783623243
 20
125.3559410244
 11
192.1783623243
 21
125.3260693396
  0
LINE
  5
363
100
AcDbEntity
  8
RACCORDO
100
AcDbLine
 62
7
  6
CONTINUOUS
 10
192.1783623243
 20
81.4865777256
 11
192.1783623243
 21
81.5164494104
  0
LINE
  5
364
100
AcDbEntity
  8
DRAFT
100
AcDbLine
 62
7
  6
CONTINUOUS
 10
192.1897081166
 20
125.246259375
 11
192.1897081166
 21
123.3749081235
  0
LINE
  5
365
100
AcDbEntity
  8
DRAFT
100
AcDbLine
 62
7
  6
CONTINUOUS
 10
192.1897081166
 20
83.4676106265
 11
192.1897081166
 21
81.596259375
  0
LINE
  5
366
100
AcDbEntity
  8
RACCORDO
100
AcDbLine
 62
7
  6
CONTINUOUS
 10
192.2307275191
 20
81.5389429204
 11
192.2307275191
 21
125.3035758296
  0
LWPOLYLINE
  5
367
100
AcDbEntity
  8
RACCORDO
100
AcDbPolyline
 62
253
  6
CONTINUOUS
 90
17
 70
0
 10
191.068819029
 20
124.2590657464
 10
191.0690106033
 20
124.3774291474
 10
191.0692808603
 20
124.4924083459
 10
191.0696326655
 20
124.6032221547
 10
191.0700631532
 20
124.7091149282
 10
191.070563727
 20
124.8093623591
 10
191.0711358571
 20
124.9032803162
 10
191.0717780733
 20
124.9902337244
 10
191.0724773677
 20
125.0696358729
 10
191.0732349473
 20
125.1409463869
 10
191.0740496052
 20
125.203680008
 10
191.0749047132
 20
125.2574123958
 10
191.0758009609
 20
125.3017775677
 10
191.0767376587
 20
125.3364702279
 10
191.0776961103
 20
125.3612518615
 10
191.0786700835
 20
125.3759531396
 10
191.0796070676
 20
125.3804906314
  0
LWPOLYLINE
  5
368
100
AcDbEntity
  8
RACCORDO
100
AcDbPolyline
 62
253
  6
CONTINUOUS
 90
19
 70
0
 10
191.8649085108
 20
120.6630466953
 10
191.8686955429
 20
124.0589167609
 10
191.8688859498
 20
124.1138239993
 10
191.8691555141
 20
124.166900572
 10
191.8695071717
 20
124.2185171035
 10
191.8699379866
 20
124.2683029692
 10
191.870439151
 20
124.3151462956
 10
191.8710120922
 20
124.3589547475
 10
191.8716553828
 20
124.3998206602
 10
191.8723559328
 20
124.4369091654
 10
191.8731149182
 20
124.4701404005
 10
191.8739311629
 20
124.4995942281
 10
191.8747880491
 20
124.5246753685
 10
191.875687006
 20
124.5452912796
 10
191.8766266044
 20
124.5615345034
 10
191.8775859383
 20
124.5730873871
 10
191.8785580391
 20
124.5798440464
 10
191.8795498754
 20
124.5819103655
 10
191.8805614473
 20
124.5792863444
  0
LINE
  5
369
100
AcDbEntity
  8
DRAFT
100
AcDbLine
 62
7
  6
CONTINUOUS
 10
192.1897081166
 20
123.3749081235
 11
192.1469432075
 21
103.421259375
  0
LWPOLYLINE
  5
36A
100
AcDbEntity
  8
RACCORDO
100
AcDbPolyline
 62
7
  6
CONTINUOUS
 90
5
 70
0
 10
191.7307277978
 20
80.7994054327
 10
191.7309038555
 20
80.8077955743
 10
191.7324253871
 20
80.8254025138
 10
191.7354248171
 20
80.8424835023
 10
191.7397949637
 20
80.8589243962
  0
LWPOLYLINE
  5
36B
100
AcDbEntity
  8
RACCORDO
100
AcDbPolyline
 62
253
  6
CONTINUOUS
 90
13
 70
0
 10
189.3307275191
 20
79.5769218077
 10
189.3328356172
 20
79.6049789588
 10
189.3391431222
 20
79.6326240014
 10
189.3495709752
 20
79.6593838545
 10
189.3639807736
 20
79.6848135878
 10
189.3821451481
 20
79.7084466397
 10
189.4037239098
 20
79.7298181507
 10
189.428327015
 20
79.7485480433
 10
189.4555465708
 20
79.7643312462
 10
189.4849140633
 20
79.7768963968
 10
189.5159246874
 20
79.7860281078
 10
189.5480463201
 20
79.7915702515
 10
189.5807275191
 20
79.7934281586
  0
LWPOLYLINE
  5
36C
100
AcDbEntity
  8
RACCORDO
100
AcDbPolyline
 62
253
  6
CONTINUOUS
 90
13
 70
0
 10
189.3307275191
 20
80.0099345096
 10
189.3328663038
 20
80.0381942592
 10
189.3392460626
 20
80.0659704766
 10
189.349757636
 20
80.0927879031
 10
189.3642211682
 20
80.1181876851
 10
189.3823891841
 20
80.1417352252
 10
189.4039508238
 20
80.1630276185
 10
189.4285371619
 20
80.1817005463
 10
189.4557275191
 20
80.1974345096
 10
189.485056661
 20
80.2099602959
 10
189.5160227579
 20
80.2190635855
 10
189.5480959711
 20
80.2245886187
 10
189.5807275191
 20
80.2264408605
  0
LWPOLYLINE
  5
36D
100
AcDbEntity
  8
RACCORDO
100
AcDbPolyline
 62
253
  6
CONTINUOUS
 90
7
 70
0
 10
172.8307275005
 20
80.7994069532
 10
172.8293216237
 20
80.7985640083
 10
172.8251392824
 20
80.7977473605
 10
172.8182561563
 20
80.7969601349
 10
172.8087805788
 20
80.7961949213
 10
172.7968420188
 20
80.7954591299
 10
172.7825803392
 20
80.794774991
  0
LINE
  5
36E
100
AcDbEntity
  8
RACCORDO
100
AcDbLine
 62
253
  6
CONTINUOUS
 10
191.7428718631
 20
125.8519280505
 11
191.7847031776
 21
125.8542118726
  0
LWPOLYLINE
  5
36F
100
AcDbEntity
  8
RACCORDO
100
AcDbPolyline
 62
253
  6
CONTINUOUS
 90
3
 70
0
 10
191.7847031776
 20
125.8542118726
 10
191.8054667343
 20
125.8551927989
 10
191.8148278779
 20
125.855572607
  0
LWPOLYLINE
  5
370
100
AcDbEntity
  8
RACCORDO
100
AcDbPolyline
 62
253
  6
CONTINUOUS
 90
9
 70
0
 10
189.3788746991
 20
126.047743759
 10
189.3952723051
 20
126.0483741711
 10
189.4136244365
 20
126.0489529307
 10
189.4337969856
 20
126.0494640294
 10
189.45559084
 20
126.0499063637
 10
189.4787651277
 20
126.0502810372
 10
189.5031237614
 20
126.0505753524
 10
189.5284279209
 20
126.0507850768
 10
189.5543901626
 20
126.050914443
  0
LWPOLYLINE
  5
371
100
AcDbEntity
  8
RACCORDO
100
AcDbPolyline
 62
253
  6
CONTINUOUS
 90
11
 70
0
 10
191.8148278779
 20
125.855572607
 10
191.8233542613
 20
125.855873503
 10
191.8310391805
 20
125.8560930913
 10
191.8378428489
 20
125.8562322748
 10
191.8437510093
 20
125.856299917
 10
191.8488107908
 20
125.8563051417
 10
191.8530220886
 20
125.8562534133
 10
191.856400901
 20
125.8561465342
 10
191.8589928695
 20
125.8559845921
 10
191.8608180835
 20
125.8557697195
 10
191.8618586527
 20
125.8555262629
  0
LWPOLYLINE
  5
372
100
AcDbEntity
  8
RACCORDO
100
AcDbPolyline
 62
7
  6
CONTINUOUS
 90
34
 70
0
 10
148.5818389432
 20
125.380449317
 10
148.562643031
 20
125.3802190759
 10
148.5222437416
 20
125.3782272196
 10
148.4824145922
 20
125.3742489893
 10
148.4432466878
 20
125.3683567785
 10
148.4048267699
 20
125.3606264893
 10
148.367234859
 20
125.3511369562
 10
148.3305420721
 20
125.3399687129
 10
148.2948154746
 20
125.3272047586
 10
148.2601152443
 20
125.3129294879
 10
148.2264926904
 20
125.2972271121
 10
148.1939950604
 20
125.2801831061
 10
148.1626649944
 20
125.2618839903
 10
148.1325379999
 20
125.2424155816
 10
148.1036444127
 20
125.2218635822
 10
148.0760091124
 20
125.2003130365
 10
148.0496512263
 20
125.1778476026
 10
148.0245854254
 20
125.1545501412
 10
148.0008212823
 20
125.1305017859
 10
147.9783630786
 20
125.1057811166
 10
147.9572106541
 20
125.0804643639
 10
147.9373617945
 20
125.0546280252
 10
147.9188110685
 20
125.028347767
 10
147.9015348117
 20
125.0016742409
 10
147.885532376
 20
124.9746946012
 10
147.8708194005
 20
124.947538978
 10
147.8573599872
 20
124.9202572986
 10
147.8451313739
 20
124.8929264936
 10
147.834143053
 20
124.8657177807
 10
147.8243258132
 20
124.8386288603
 10
147.8156524337
 20
124.8117662731
 10
147.8081447049
 20
124.7854540074
 10
147.8016229122
 20
124.7593173119
 10
147.7964752793
 20
124.7355420856
  0
LWPOLYLINE
  5
373
100
AcDbEntity
  8
RACCORDO
100
AcDbPolyline
 62
253
  6
CONTINUOUS
 90
16
 70
0
 10
148.5927489011
 20
124.1381237755
 10
148.5100498571
 20
124.1372911679
 10
148.4282369219
 20
124.1349952135
 10
148.3481867096
 20
124.1312605132
 10
148.270756947
 20
124.126127084
 10
148.1967772834
 20
124.1196499297
 10
148.1270404004
 20
124.1118984516
 10
148.0622935192
 20
124.1029557057
 10
148.0032303933
 20
124.0929175123
 10
147.9504838761
 20
124.0818914294
 10
147.9046191391
 20
124.0699955997
 10
147.8661276165
 20
124.0573574856
 10
147.8354217397
 20
124.0441125025
 10
147.8128305178
 20
124.0304025686
 10
147.7985960126
 20
124.0163745841
 10
147.792870745
 20
124.0021788567
  0
LINE
  5
374
100
AcDbEntity
  8
RACCORDO
100
AcDbLine
 62
253
  6
CONTINUOUS
 10
148.5927489011
 20
124.138123782
 11
191.0687061372
 21
124.138123782
  0
LINE
  5
375
100
AcDbEntity
  8
DRAFT
100
AcDbLine
 62
7
  6
CONTINUOUS
 10
191.5230044628
 20
125.246259375
 11
192.1897081166
 21
125.246259375
  0
LINE
  5
376
100
AcDbEntity
  8
26814000
100
AcDbLine
 62
7
  6
CONTINUOUS
 10
147.4307275191
 20
125.28005713
 11
148.1937793757
 21
125.28005713
  0
LINE
  5
377
100
AcDbEntity
  8
DRAFT
100
AcDbLine
 62
7
  6
CONTINUOUS
 10
191.3695420685
 20
125.3260693396
 11
192.1783623243
 21
125.3260693396
  0
LINE
  5
378
100
AcDbEntity
  8
RACCORDO
100
AcDbLine
 62
7
  6
CONTINUOUS
 10
148.5818245787
 20
125.3804906372
 11
191.0796304596
 21
125.3804906372
  0
LINE
  5
379
100
AcDbEntity
  8
26814000
100
AcDbLine
 62
7
  6
CONTINUOUS
 10
147.4307275191
 20
125.421259375
 11
169.7307275191
 21
125.421259375
  0
LINE
  5
37A
100
AcDbEntity
  8
26814000
100
AcDbLine
 62
7
  6
CONTINUOUS
 10
169.3807275191
 20
125.7994422055
 11
147.7807275191
 21
125.7994422055
  0
LINE
  5
37B
100
AcDbEntity
  8
26814000
100
AcDbLine
 62
7
  6
CONTINUOUS
 10
169.1720007744
 20
125.8081690733
 11
166.8894542638
 21
125.8081690733
  0
LINE
  5
37C
100
AcDbEntity
  8
26814000
100
AcDbLine
 62
7
  6
CONTINUOUS
 10
150.2720007744
 20
125.8081690733
 11
147.9894542638
 21
125.8081690733
  0
LINE
  5
37D
100
AcDbEntity
  8
26814000
100
AcDbLine
 62
7
  6
CONTINUOUS
 10
154.484805077
 20
125.8125325072
 11
162.6766499612
 21
125.8125325072
  0
LINE
  5
37E
100
AcDbEntity
  8
26814000
100
AcDbLine
 62
7
  6
CONTINUOUS
 10
147.7807275191
 20
125.821259375
 11
147.9807275191
 21
125.821259375
  0
LINE
  5
37F
100
AcDbEntity
  8
26814000
100
AcDbLine
 62
7
  6
CONTINUOUS
 10
150.2807275191
 20
125.821259375
 11
154.1807275191
 21
125.821259375
  0
LINE
  5
380
100
AcDbEntity
  8
26814000
100
AcDbLine
 62
7
  6
CONTINUOUS
 10
162.9807275191
 20
125.821259375
 11
166.8807275191
 21
125.821259375
  0
LINE
  5
381
100
AcDbEntity
  8
26814000
100
AcDbLine
 62
7
  6
CONTINUOUS
 10
169.1807275191
 20
125.821259375
 11
169.3807275191
 21
125.821259375
  0
LWPOLYLINE
  5
382
100
AcDbEntity
  8
RACCORDO
100
AcDbPolyline
 62
253
  6
CONTINUOUS
 90
16
 70
0
 10
191.0687061372
 20
124.138120079
 10
191.1514043749
 20
124.1372875126
 10
191.2332165322
 20
124.1349916435
 10
191.3132660204
 20
124.1312570711
 10
191.3906951372
 20
124.12612381
 10
191.4646742566
 20
124.1196468612
 10
191.5344107182
 20
124.1118956225
 10
191.5991573201
 20
124.1029531455
 10
191.6582203251
 20
124.0929152459
 10
191.7109668938
 20
124.0818894761
 10
191.7568318651
 20
124.0699939735
 10
191.7953238118
 20
124.0573561942
 10
191.8260303061
 20
124.0441115476
 10
191.8486223388
 20
124.0304019453
 10
191.8628578439
 20
124.0163742812
 10
191.8685842932
 20
124.0021788567
  0
LWPOLYLINE
  5
383
100
AcDbEntity
  8
RACCORDO
100
AcDbPolyline
 62
7
  6
CONTINUOUS
 90
17
 70
0
 10
172.9601482552
 20
125.8561695049
 10
172.9496783155
 20
125.8604220948
 10
172.9386405583
 20
125.8657022382
 10
172.9273929978
 20
125.8719857366
 10
172.9162627318
 20
125.8792015115
 10
172.9053657524
 20
125.8873595571
 10
172.8947751252
 20
125.896496572
 10
172.8847097895
 20
125.9065031075
 10
172.8752928377
 20
125.917307968
 10
172.8665584423
 20
125.9289277668
 10
172.8585740878
 20
125.9413514112
 10
172.8514288134
 20
125.954533807
 10
172.8452057008
 20
125.9684292768
 10
172.839975869
 20
125.983020025
 10
172.8358308462
 20
125.9982392379
 10
172.8328588585
 20
126.0140092728
 10
172.8311409554
 20
126.0302851018
  0
LWPOLYLINE
  5
384
100
AcDbEntity
  8
RACCORDO
100
AcDbPolyline
 62
253
  6
CONTINUOUS
 90
7
 70
0
 10
172.8307275191
 20
126.0431086948
 10
172.829330749
 20
126.0439515866
 10
172.8251739846
 20
126.0447655823
 10
172.8183299679
 20
126.0455506587
 10
172.8089056862
 20
126.0463141382
 10
172.7970263947
 20
126.0470486985
 10
172.7828209093
 20
126.0477323729
  0
LINE
  5
385
100
AcDbEntity
  8
RACCORDO
100
AcDbLine
 62
7
  6
CONTINUOUS
 10
192.2091145384
 20
125.3919690774
 11
192.2080819322
 21
125.4015699241
  0
LWPOLYLINE
  5
386
100
AcDbEntity
  8
RACCORDO
100
AcDbPolyline
 62
253
  6
CONTINUOUS
 90
3
 70
0
 10
192.210845758
 20
125.3483356049
 10
192.2118338163
 20
125.339129684
 10
192.2121121266
 20
125.336612918
  0
LINE
  5
387
100
AcDbEntity
  8
RACCORDO
100
AcDbLine
 62
7
  6
CONTINUOUS
 10
191.731156574
 20
126.0300255988
 11
191.7307277981
 21
126.0431132591
  0
LWPOLYLINE
  5
388
100
AcDbEntity
  8
RACCORDO
100
AcDbPolyline
 62
253
  6
CONTINUOUS
 90
8
 70
0
 10
192.1911009389
 20
81.4570451014
 10
192.1885326736
 20
81.4062356296
 10
192.1808122564
 20
81.3559524977
 10
192.1680196637
 20
81.3067165934
 10
192.1502874152
 20
81.2590379559
 10
192.1277992009
 20
81.2134104924
 10
192.1007879783
 20
81.1703068622
 10
192.094444092
 20
81.1614512481
  0
LWPOLYLINE
  5
389
100
AcDbEntity
  8
RACCORDO
100
AcDbPolyline
 62
7
  6
CONTINUOUS
 90
8
 70
0
 10
192.2085524521
 20
81.4805939074
 10
192.2058713203
 20
81.4286895833
 10
192.1978143752
 20
81.3773464156
 10
192.184468723
 20
81.3271194892
 10
192.1659786472
 20
81.2785518205
 10
192.142544049
 20
81.2321684876
 10
192.1144182862
 20
81.1884709529
 10
192.1112282929
 20
81.1840898507
  0
LINE
  5
38A
100
AcDbEntity
  8
RACCORDO
100
AcDbLine
 62
253
  6
CONTINUOUS
 10
192.2152460885
 20
81.52346157
 11
192.2125223286
 21
81.4711952885
  0
LINE
  5
38B
100
AcDbEntity
  8
RACCORDO
100
AcDbLine
 62
253
  6
CONTINUOUS
 10
192.2110063385
 20
81.4956469352
 11
192.2118466342
 21
81.503486555
  0
LWPOLYLINE
  5
38C
100
AcDbEntity
  8
RACCORDO
100
AcDbPolyline
 62
253
  6
CONTINUOUS
 90
15
 70
0
 10
170.6543192141
 20
126.0509143152
 10
170.6282905468
 20
126.0507843446
 10
170.6029266019
 20
126.0505735393
 10
170.5785114541
 20
126.0502774104
 10
170.5552912815
 20
126.0499004468
 10
170.5334775516
 20
126.0494561146
 10
170.5133128852
 20
126.0489434084
 10
170.4949882778
 20
126.0483633337
 10
170.478634129
 20
126.047732373
 10
170.4644286436
 20
126.0470486984
 10
170.4525493521
 20
126.0463141378
 10
170.4431250704
 20
126.0455506582
 10
170.4362810537
 20
126.0447655818
 10
170.4321242892
 20
126.0439515863
 10
170.4307275191
 20
126.0431087029
  0
LINE
  5
38D
100
AcDbEntity
  8
RACCORDO
100
AcDbLine
 62
7
  6
CONTINUOUS
 10
191.6781338439
 20
125.8561695049
 11
170.4833211944
 21
125.8561695049
  0
LINE
  5
38E
100
AcDbEntity
  8
RACCORDO
100
AcDbLine
 62
253
  6
CONTINUOUS
 10
172.5807275191
 20
126.050963451
 11
170.6543192141
 21
126.0509143152
  0
LINE
  5
38F
100
AcDbEntity
  8
RACCORDO
100
AcDbLine
 62
253
  6
CONTINUOUS
 10
189.5543901626
 20
126.050914443
 11
191.4807275191
 21
126.050963451
  0
LINE
  5
390
100
AcDbEntity
  8
RACCORDO
100
AcDbLine
 62
253
  6
CONTINUOUS
 10
170.4307275191
 20
126.3995715385
 11
172.8307275191
 21
126.3995715385
  0
LINE
  5
391
100
AcDbEntity
  8
RACCORDO
100
AcDbLine
 62
253
  6
CONTINUOUS
 10
189.3307275191
 20
126.3995715385
 11
191.7307275191
 21
126.3995715385
  0
LINE
  5
392
100
AcDbEntity
  8
26814000
100
AcDbLine
 62
7
  6
CONTINUOUS
 10
169.1720007744
 20
126.5439091058
 11
166.8894542638
 21
126.5439091058
  0
LINE
  5
393
100
AcDbEntity
  8
26814000
100
AcDbLine
 62
7
  6
CONTINUOUS
 10
150.2720007744
 20
126.5439091058
 11
147.9894542638
 21
126.5439091058
  0
LINE
  5
394
100
AcDbEntity
  8
RACCORDO
100
AcDbLine
 62
253
  6
CONTINUOUS
 10
170.6807275191
 20
126.6160778895
 11
172.5807275191
 21
126.6160778895
  0
LINE
  5
395
100
AcDbEntity
  8
RACCORDO
100
AcDbLine
 62
253
  6
CONTINUOUS
 10
189.5807275191
 20
126.6160778895
 11
191.4807275191
 21
126.6160778895
  0
LINE
  5
396
100
AcDbEntity
  8
RACCORDO
100
AcDbLine
 62
253
  6
CONTINUOUS
 10
191.4807275191
 20
127.0490905914
 11
189.5807275191
 21
127.0490905914
  0
LINE
  5
397
100
AcDbEntity
  8
RACCORDO
100
AcDbLine
 62
253
  6
CONTINUOUS
 10
172.5807275191
 20
127.0490905914
 11
170.6807275191
 21
127.0490905914
  0
LINE
  5
398
100
AcDbEntity
  8
26814000
100
AcDbLine
 62
253
  6
CONTINUOUS
 10
147.9945448649
 20
127.0490905914
 11
150.2669101733
 21
127.0490905914
  0
LINE
  5
399
100
AcDbEntity
  8
26814000
100
AcDbLine
 62
253
  6
CONTINUOUS
 10
166.8945448649
 20
127.0490905914
 11
169.1669101733
 21
127.0490905914
  0
LINE
  5
39A
100
AcDbEntity
  8
26814000
100
AcDbLine
 62
7
  6
CONTINUOUS
 10
154.484805077
 20
127.2154415452
 11
162.6766499612
 21
127.2154415452
  0
LINE
  5
39B
100
AcDbEntity
  8
26814000
100
AcDbLine
 62
7
  6
CONTINUOUS
 10
154.1807275191
 20
127.221259375
 11
162.9807275191
 21
127.221259375
  0
LINE
  5
39C
100
AcDbEntity
  8
RACCORDO
100
AcDbLine
 62
7
  6
CONTINUOUS
 10
176.6778610724
 20
127.221259375
 11
185.4835939658
 21
127.221259375
  0
LINE
  5
39D
100
AcDbEntity
  8
26814000
100
AcDbLine
 62
253
  6
CONTINUOUS
 10
147.9952720937
 20
127.2655969423
 11
150.2661829446
 21
127.2655969423
  0
LINE
  5
39E
100
AcDbEntity
  8
26814000
100
AcDbLine
 62
253
  6
CONTINUOUS
 10
166.8952720937
 20
127.2655969423
 11
169.1661829446
 21
127.2655969423
  0
LINE
  5
39F
100
AcDbEntity
  8
RACCORDO
100
AcDbLine
 62
253
  6
CONTINUOUS
 10
170.4307275191
 20
127.2655969423
 11
172.8307275191
 21
127.2655969423
  0
LINE
  5
3A0
100
AcDbEntity
  8
RACCORDO
100
AcDbLine
 62
253
  6
CONTINUOUS
 10
189.3307275191
 20
127.2655969423
 11
191.7307275191
 21
127.2655969423
  0
LINE
  5
3A1
100
AcDbEntity
  8
26814000
100
AcDbLine
 62
253
  6
CONTINUOUS
 10
169.1661829446
 20
127.5581650271
 11
166.8952720937
 21
127.5581650271
  0
LINE
  5
3A2
100
AcDbEntity
  8
26814000
100
AcDbLine
 62
253
  6
CONTINUOUS
 10
150.2661829446
 20
127.5581650271
 11
147.9952720937
 21
127.5581650271
  0
LINE
  5
3A3
100
AcDbEntity
  8
RACCORDO
100
AcDbLine
 62
253
  6
CONTINUOUS
 10
170.4307275191
 20
127.671259375
 11
172.8307275191
 21
127.671259375
  0
LINE
  5
3A4
100
AcDbEntity
  8
RACCORDO
100
AcDbLine
 62
253
  6
CONTINUOUS
 10
189.3307275191
 20
127.671259375
 11
191.7307275191
 21
127.671259375
  0
LINE
  5
3A5
100
AcDbEntity
  8
26814000
100
AcDbLine
 62
253
  6
CONTINUOUS
 10
169.1676289404
 20
127.8081607963
 11
166.8938260978
 21
127.8081607963
  0
LINE
  5
3A6
100
AcDbEntity
  8
26814000
100
AcDbLine
 62
253
  6
CONTINUOUS
 10
150.2676289404
 20
127.8081607963
 11
147.9938260978
 21
127.8081607963
  0
LINE
  5
3A7
100
AcDbEntity
  8
26814000
100
AcDbLine
 62
7
  6
CONTINUOUS
 10
147.9807275191
 20
127.821259375
 11
150.2807275191
 21
127.821259375
  0
LINE
  5
3A8
100
AcDbEntity
  8
26814000
100
AcDbLine
 62
7
  6
CONTINUOUS
 10
166.8807275191
 20
127.821259375
 11
169.1807275191
 21
127.821259375
  0
LINE
  5
3A9
100
AcDbEntity
  8
RACCORDO
100
AcDbLine
 62
7
  6
CONTINUOUS
 10
170.6807275191
 20
127.921259375
 11
172.5807275191
 21
127.921259375
  0
LINE
  5
3AA
100
AcDbEntity
  8
RACCORDO
100
AcDbLine
 62
7
  6
CONTINUOUS
 10
189.5807275191
 20
127.921259375
 11
191.4807275191
 21
127.921259375
  0
LWPOLYLINE
  5
3AB
100
AcDbEntity
  8
RACCORDO
100
AcDbPolyline
 62
253
  6
CONTINUOUS
 90
16
 70
0
 10
191.4807275191
 20
126.050963451
 10
191.5070648757
 20
126.0509144431
 10
191.5330271174
 20
126.0507850769
 10
191.5583312769
 20
126.0505753525
 10
191.5826899106
 20
126.0502810372
 10
191.6058641983
 20
126.0499063637
 10
191.6276580526
 20
126.0494640294
 10
191.6478306017
 20
126.0489529308
 10
191.6661827332
 20
126.0483741714
 10
191.6825803392
 20
126.0477437593
 10
191.6968420188
 20
126.04705962
 10
191.7087805788
 20
126.0463238281
 10
191.7182561563
 20
126.0455586142
 10
191.7251392824
 20
126.0447713886
 10
191.7293216237
 20
126.0439547412
 10
191.7307275014
 20
126.0431117225
  0
LWPOLYLINE
  5
3AC
100
AcDbEntity
  8
RACCORDO
100
AcDbPolyline
 62
253
  6
CONTINUOUS
 90
11
 70
0
 10
170.3474607682
 20
125.8555452468
 10
170.338876435
 20
125.8558474481
 10
170.3310405063
 20
125.856071294
 10
170.3240412469
 20
125.8562217574
 10
170.3179495085
 20
125.8563015922
 10
170.3127672387
 20
125.8563129388
 10
170.3084721363
 20
125.8562585293
 10
170.3050391248
 20
125.8561440981
 10
170.3024301664
 20
125.8559763495
 10
170.3006087826
 20
125.855761836
 10
170.2995932217
 20
125.8555267675
  0
LWPOLYLINE
  5
3AD
100
AcDbEntity
  8
RACCORDO
100
AcDbPolyline
 62
253
  6
CONTINUOUS
 90
10
 70
0
 10
172.7828209093
 20
126.0477323729
 10
172.7664667605
 20
126.0483633335
 10
172.7481421531
 20
126.0489434083
 10
172.7279774866
 20
126.0494561145
 10
172.7061637567
 20
126.0499004468
 10
172.6829435841
 20
126.0502774106
 10
172.6585284363
 20
126.0505735395
 10
172.6331644915
 20
126.0507843448
 10
172.6071358241
 20
126.0509143153
 10
172.5807275191
 20
126.050963451
  0
LINE
  5
3AE
100
AcDbEntity
  8
RACCORDO
100
AcDbLine
 62
253
  6
CONTINUOUS
 10
170.3567422319
 20
125.8551627229
 11
170.3474607682
 21
125.8555452468
  0
LINE
  5
3AF
100
AcDbEntity
  8
RACCORDO
100
AcDbLine
 62
253
  6
CONTINUOUS
 10
170.3770882593
 20
125.8541874076
 11
170.3567422319
 21
125.8551627229
  0
LINE
  5
3B0
100
AcDbEntity
  8
RACCORDO
100
AcDbLine
 62
253
  6
CONTINUOUS
 10
170.4185762216
 20
125.8519273647
 11
170.3770882593
 21
125.8541874076
  0
LWPOLYLINE
  5
3B1
100
AcDbEntity
  8
RACCORDO
100
AcDbPolyline
 62
253
  6
CONTINUOUS
 90
10
 70
0
 10
192.1840819264
 20
125.3502259288
 10
192.1844943155
 20
125.3501851814
 10
192.1849061116
 20
125.3506656959
 10
192.1853173148
 20
125.3516674724
 10
192.1857312929
 20
125.3532724951
 10
192.186144678
 20
125.3553987797
 10
192.186547366
 20
125.3578003736
 10
192.1869397461
 20
125.3605127164
 10
192.187321429
 20
125.3635003685
 10
192.1880142931
 20
125.3691798979
  0
LINE
  5
3B2
100
AcDbEntity
  8
RACCORDO
100
AcDbLine
 62
7
  6
CONTINUOUS
 10
192.209003846
 20
81.4495388739
 11
192.2091432914
 21
81.4508081731
  0
LWPOLYLINE
  5
3B3
100
AcDbEntity
  8
RACCORDO
100
AcDbPolyline
 62
253
  6
CONTINUOUS
 90
9
 70
0
 10
192.2118466342
 20
81.503486555
 10
192.212482317
 20
81.5091804781
 10
192.2128242707
 20
81.5119481733
 10
192.2131823171
 20
81.5146276113
 10
192.2135568457
 20
81.5171932274
 10
192.213950248
 20
81.5193853941
 10
192.2143633212
 20
81.5211175689
 10
192.214795268
 20
81.5224762942
 10
192.2152460885
 20
81.52346157
  0
LINE
  5
3B4
100
AcDbEntity
  8
DRAFT
100
AcDbLine
 62
7
  6
CONTINUOUS
 10
192.1897081166
 20
81.596259375
 11
192.1783623243
 21
81.5164494104
  0
LINE
  5
3B5
100
AcDbEntity
  8
RACCORDO
100
AcDbLine
 62
253
  6
CONTINUOUS
 10
192.2125223286
 20
81.4711952885
 11
192.2059050903
 21
81.4293433412
  0
LWPOLYLINE
  5
3B6
100
AcDbEntity
  8
RACCORDO
100
AcDbPolyline
 62
7
  6
CONTINUOUS
 90
37
 70
0
 10
191.8650400944
 20
124.7352417894
 10
191.8599400907
 20
124.7588515022
 10
191.8539518259
 20
124.7830380863
 10
191.8471002737
 20
124.807450106
 10
191.8392437369
 20
124.832367993
 10
191.830380965
 20
124.8575685259
 10
191.8204620799
 20
124.8830110566
 10
191.8094389997
 20
124.9086480105
 10
191.797358148
 20
124.9342384525
 10
191.7842037023
 20
124.9597188412
 10
191.7699462148
 20
124.9850545582
 10
191.7546514057
 20
125.0100576477
 10
191.7383548283
 20
125.0346262217
 10
191.721021972
 20
125.058770675
 10
191.7026285957
 20
125.0824746363
 10
191.6831700424
 20
125.1056914667
 10
191.6626540587
 20
125.128361207
 10
191.6410738577
 20
125.1504415062
 10
191.6184366851
 20
125.1718751949
 10
191.5947525356
 20
125.1926044525
 10
191.5700204287
 20
125.2125815977
 10
191.5442552849
 20
125.2317457699
 10
191.5174758528
 20
125.2500352319
 10
191.4896895175
 20
125.2673967934
 10
191.4609214096
 20
125.2837661913
 10
191.4311997343
 20
125.2990795114
 10
191.4005401111
 20
125.3132800866
 10
191.3689785853
 20
125.3263018229
 10
191.3365550928
 20
125.3380792487
 10
191.3032957221
 20
125.3485528501
 10
191.2692488477
 20
125.3576562338
 10
191.2344679003
 20
125.3653240642
 10
191.1989923635
 20
125.3714953115
 10
191.1628850064
 20
125.3761053375
 10
191.126213785
 20
125.3790915348
 10
191.0890329603
 20
125.3803939207
 10
191.0796161192
 20
125.3804493167
  0
LINE
  5
3B7
100
AcDbEntity
  8
RACCORDO
100
AcDbLine
 62
253
  6
CONTINUOUS
 10
191.8805614473
 20
124.5792863444
 11
191.9807275191
 21
124.0790660212
  0
LINE
  5
3B8
100
AcDbEntity
  8
RACCORDO
100
AcDbLine
 62
7
  6
CONTINUOUS
 10
191.8650431465
 20
124.735242352
 11
191.965319969
 21
124.2344693327
  0
LWPOLYLINE
  5
3B9
100
AcDbEntity
  8
RACCORDO
100
AcDbPolyline
 62
7
  6
CONTINUOUS
 90
7
 70
0
 10
192.2041583251
 20
125.4321438267
 10
192.2022848613
 20
125.4436683883
 10
192.199839554
 20
125.4568205441
 10
192.1967598028
 20
125.4712521997
 10
192.192897202
 20
125.4870352133
 10
192.1881174511
 20
125.5041015244
 10
192.1824496755
 20
125.5218698641
  0
LWPOLYLINE
  5
3BA
100
AcDbEntity
  8
RACCORDO
100
AcDbPolyline
 62
253
  6
CONTINUOUS
 90
3
 70
0
 10
192.205905184
 20
125.4131748163
 10
192.2125223287
 20
125.3713234606
 10
192.2152460885
 20
125.3190571798
  0
LWPOLYLINE
  5
3BB
100
AcDbEntity
  8
RACCORDO
100
AcDbPolyline
 62
253
  6
CONTINUOUS
 90
3
 70
0
 10
191.8651110164
 20
124.7349037982
 10
191.8761558671
 20
124.6625667766
 10
191.8805614473
 20
124.5792863444
  0
LWPOLYLINE
  5
3BC
100
AcDbEntity
  8
RACCORDO
100
AcDbPolyline
 62
7
  6
CONTINUOUS
 90
5
 70
0
 10
192.2078335973
 20
125.4012865547
 10
192.2082997727
 20
125.3981198162
 10
192.2089151887
 20
125.3935726174
 10
192.2091585791
 20
125.3915811283
 10
192.2091145384
 20
125.3919690774
  0
LINE
  5
3BD
100
AcDbEntity
  8
DRAFT
100
AcDbLine
 62
7
  6
CONTINUOUS
 10
192.1783623243
 20
125.3260693396
 11
192.1897081166
 21
125.246259375
  0
LWPOLYLINE
  5
3BE
100
AcDbEntity
  8
RACCORDO
100
AcDbPolyline
 62
253
  6
CONTINUOUS
 90
7
 70
0
 10
192.2130301491
 20
125.3289886464
 10
192.2133630949
 20
125.3266399273
 10
192.2137097102
 20
125.3244210861
 10
192.2140711971
 20
125.3225332754
 10
192.2144479561
 20
125.3210435463
 10
192.2148395865
 20
125.3198848477
 10
192.2152460885
 20
125.3190571798
  0
LWPOLYLINE
  5
3BF
100
AcDbEntity
  8
RACCORDO
100
AcDbPolyline
 62
7
  6
CONTINUOUS
 90
3
 70
0
 10
192.2066114786
 20
125.4142767089
 10
192.2055544424
 20
125.4224369365
 10
192.2041583251
 20
125.4321438267
  0
LINE
  5
3C0
100
AcDbEntity
  8
RACCORDO
100
AcDbLine
 62
253
  6
CONTINUOUS
 10
192.2121121266
 20
125.336612918
 11
192.2130301491
 21
125.3289886464
  0
LWPOLYLINE
  5
3C1
100
AcDbEntity
  8
RACCORDO
100
AcDbPolyline
 62
7
  6
CONTINUOUS
 90
3
 70
0
 10
192.2080819322
 20
125.4015699241
 10
192.2074358812
 20
125.4073503933
 10
192.2066114786
 20
125.4142767089
  0
LWPOLYLINE
  5
3C2
100
AcDbEntity
  8
RACCORDO
100
AcDbPolyline
 62
7
  6
CONTINUOUS
 90
9
 70
0
 10
191.7397949637
 20
80.8589243962
 10
191.7454211268
 20
80.8746236239
 10
191.7521854967
 20
80.8895002217
 10
191.7599679329
 20
80.9034879326
 10
191.7686447899
 20
80.9165311553
 10
191.7780990876
 20
80.9285974373
 10
191.7882104256
 20
80.9396591977
 10
191.7988485858
 20
80.9496911348
 10
191.8099197165
 20
80.9587106767
  0
LWPOLYLINE
  5
3C3
100
AcDbEntity
  8
RACCORDO
100
AcDbPolyline
 62
7
  6
CONTINUOUS
 90
3
 70
0
 10
191.8561054489
 20
80.9847977436
 10
191.8728039102
 20
80.9911176053
 10
191.8941697824
 20
81.0000318038
  0
LWPOLYLINE
  5
3C4
100
AcDbEntity
  8
RACCORDO
100
AcDbPolyline
 62
7
  6
CONTINUOUS
 90
5
 70
0
 10
191.8608449676
 20
125.8558980773
 10
191.8504729594
 20
125.8600726587
 10
191.8398584924
 20
125.8650772311
 10
191.8290898257
 20
125.8709751457
 10
191.8182583981
 20
125.8778287211
  0
LINE
  5
3C5
100
AcDbEntity
  8
RACCORDO
100
AcDbLine
 62
7
  6
CONTINUOUS
 10
192.1758138562
 20
125.5402493382
 11
192.1680948022
 21
125.5592357868
  0
LINE
  5
3C6
100
AcDbEntity
  8
RACCORDO
100
AcDbLine
 62
7
  6
CONTINUOUS
 10
192.1659788215
 20
125.563966054
 11
192.1844688857
 21
125.5153985708
  0
LINE
  5
3C7
100
AcDbEntity
  8
RACCORDO
100
AcDbLine
 62
7
  6
CONTINUOUS
 10
192.1824496755
 20
125.5218698641
 11
192.1758138562
 21
125.5402493382
  0
LWPOLYLINE
  5
3C8
100
AcDbEntity
  8
RACCORDO
100
AcDbPolyline
 62
7
  6
CONTINUOUS
 90
4
 70
0
 10
192.1844688857
 20
125.5153985708
 10
192.1978145053
 20
125.4651718528
 10
192.2058713972
 20
125.4138289143
 10
192.2085524566
 20
125.3619248371
  0
LWPOLYLINE
  5
3C9
100
AcDbEntity
  8
RACCORDO
100
AcDbPolyline
 62
253
  6
CONTINUOUS
 90
5
 70
0
 10
192.1720710042
 20
81.3200874372
 10
192.1483200212
 20
81.2734560538
 10
192.1198232018
 20
81.2295648342
 10
192.0868928831
 20
81.1888948444
 10
192.0837945955
 20
81.1856259584
  0
LWPOLYLINE
  5
3CA
100
AcDbEntity
  8
RACCORDO
100
AcDbPolyline
 62
7
  6
CONTINUOUS
 90
16
 70
0
 10
192.1333892952
 20
81.2168078373
 10
192.1463506379
 20
81.238909987
 10
192.1578618289
 20
81.2610199862
 10
192.1678376825
 20
81.2826872841
 10
192.1763990371
 20
81.3038055815
 10
192.1836674791
 20
81.3242839633
 10
192.1896629539
 20
81.3436928865
 10
192.194586703
 20
81.3621255081
 10
192.1985492031
 20
81.3794078282
 10
192.2015588278
 20
81.3947519181
 10
192.2037815859
 20
81.4079336987
 10
192.2054457554
 20
81.4192857308
 10
192.2066844741
 20
81.428835277
 10
192.2075778637
 20
81.4364134777
 10
192.208216409
 20
81.4421860604
 10
192.209003846
 20
81.4495388739
  0
LWPOLYLINE
  5
3CB
100
AcDbEntity
  8
RACCORDO
100
AcDbPolyline
 62
253
  6
CONTINUOUS
 90
12
 70
0
 10
192.208552276
 20
81.4805934578
 10
192.2087189641
 20
81.4808654769
 10
192.2088914493
 20
81.4813057199
 10
192.2090697317
 20
81.481914187
 10
192.2092531694
 20
81.4826829825
 10
192.2094424042
 20
81.483620002
 10
192.2096393613
 20
81.4847489324
 10
192.2098439704
 20
81.4860759316
 10
192.2100563018
 20
81.4875948417
 10
192.2102784908
 20
81.4893108758
 10
192.2105103702
 20
81.4912357921
 10
192.2110063385
 20
81.4956469352
  0
LWPOLYLINE
  5
3CC
100
AcDbEntity
  8
RACCORDO
100
AcDbPolyline
 62
7
  6
CONTINUOUS
 90
3
 70
0
 10
192.1112282929
 20
81.1840898507
 10
192.1189908421
 20
81.1949291081
 10
192.1333892952
 20
81.2168078373
  0
LINE
  5
3CD
100
AcDbEntity
  8
RACCORDO
100
AcDbLine
 62
7
  6
CONTINUOUS
 10
192.0968592089
 20
81.1647399952
 11
192.0928786303
 21
81.1593273366
  0
LINE
  5
3CE
100
AcDbEntity
  8
RACCORDO
100
AcDbLine
 62
253
  6
CONTINUOUS
 10
192.1911026712
 20
81.4570474562
 11
192.1988578378
 21
81.4675759416
  0
LINE
  5
3CF
100
AcDbEntity
  8
RACCORDO
100
AcDbLine
 62
7
  6
CONTINUOUS
 10
192.1112282929
 20
81.1840898507
 11
192.0968592089
 21
81.1647399952
  0
LINE
  5
3D0
100
AcDbEntity
  8
RACCORDO
100
AcDbLine
 62
253
  6
CONTINUOUS
 10
192.1988578378
 20
81.4675759416
 11
192.2066138528
 21
81.4780032833
  0
LINE
  5
3D1
100
AcDbEntity
  8
RACCORDO
100
AcDbLine
 62
253
  6
CONTINUOUS
 10
192.2066138528
 20
81.4780032833
 11
192.208552276
 21
81.4805934578
  0
LINE
  5
3D2
100
AcDbEntity
  8
RACCORDO
100
AcDbLine
 62
7
  6
CONTINUOUS
 10
192.0817650573
 20
81.1448870457
 11
192.0928794827
 21
81.1593267005
  0
LINE
  5
3D3
100
AcDbEntity
  8
RACCORDO
100
AcDbLine
 62
253
  6
CONTINUOUS
 10
192.2152460885
 20
81.52346157
 11
192.2307275191
 21
81.5389429204
  0
LINE
  5
3D4
100
AcDbEntity
  8
RACCORDO
100
AcDbLine
 62
253
  6
CONTINUOUS
 10
192.1783623243
 20
81.4865777256
 11
192.1840819265
 21
81.4922928192
  0
LINE
  5
3D5
100
AcDbEntity
  8
RACCORDO
100
AcDbLine
 62
7
  6
CONTINUOUS
 10
192.0453569962
 20
81.1109888356
 11
192.0051681086
 21
81.0780419323
  0
LWPOLYLINE
  5
3D6
100
AcDbEntity
  8
RACCORDO
100
AcDbPolyline
 62
7
  6
CONTINUOUS
 90
5
 70
0
 10
191.8099197165
 20
80.9587106767
 10
191.821299743
 20
80.9667139343
 10
191.8328040663
 20
80.973676076
 10
191.8444904942
 20
80.9797200721
 10
191.8561054489
 20
80.9847977436
  0
LWPOLYLINE
  5
3D7
100
AcDbEntity
  8
RACCORDO
100
AcDbPolyline
 62
253
  6
CONTINUOUS
 90
7
 70
0
 10
191.7307275005
 20
80.7994069532
 10
191.7293216237
 20
80.7985640083
 10
191.7251392824
 20
80.7977473605
 10
191.7182561563
 20
80.7969601349
 10
191.7087805788
 20
80.7961949213
 10
191.6968420188
 20
80.7954591299
 10
191.6825803392
 20
80.794774991
  0
LWPOLYLINE
  5
3D8
100
AcDbEntity
  8
RACCORDO
100
AcDbPolyline
 62
7
  6
CONTINUOUS
 90
12
 70
0
 10
191.8941697824
 20
81.0000318038
 10
191.9148868569
 20
81.009818075
 10
191.9349251721
 20
81.020425927
 10
191.9542641948
 20
81.0318081353
 10
191.972881831
 20
81.043915374
 10
191.9907574301
 20
81.0566972597
 10
192.0078768813
 20
81.0701061847
 10
192.024226067
 20
81.0840929584
 10
192.0397944791
 20
81.098609501
 10
192.0545772207
 20
81.1136115042
 10
192.0685684813
 20
81.1290525116
 10
192.0817650573
 20
81.1448870457
  0
LINE
  5
3D9
100
AcDbEntity
  8
RACCORDO
100
AcDbLine
 62
7
  6
CONTINUOUS
 10
191.8622845397
 20
125.8552129509
 11
191.9091452607
 21
125.8354093462
  0
LWPOLYLINE
  5
3DA
100
AcDbEntity
  8
RACCORDO
100
AcDbPolyline
 62
7
  6
CONTINUOUS
 90
3
 70
0
 10
191.9119918753
 20
125.8341379063
 10
191.8669906652
 20
125.8536283949
 10
191.8608449676
 20
125.8558980773
  0
LWPOLYLINE
  5
3DB
100
AcDbEntity
  8
RACCORDO
100
AcDbPolyline
 62
7
  6
CONTINUOUS
 90
5
 70
0
 10
191.9091452607
 20
125.8354093462
 10
191.9537480295
 20
125.8109448166
 10
191.9956308019
 20
125.7820727922
 10
192.0343597105
 20
125.7490923611
 10
192.069533559
 20
125.7123451704
  0
LINE
  5
3DC
100
AcDbEntity
  8
RACCORDO
100
AcDbLine
 62
7
  6
CONTINUOUS
 10
191.8182583981
 20
125.8778287211
 11
191.8077470892
 21
125.8854758613
  0
LWPOLYLINE
  5
3DD
100
AcDbEntity
  8
RACCORDO
100
AcDbPolyline
 62
7
  6
CONTINUOUS
 90
13
 70
0
 10
191.8077470892
 20
125.8854758613
 10
191.7977026037
 20
125.8938393561
 10
191.7881028783
 20
125.9029687688
 10
191.7790356465
 20
125.9128242035
 10
191.7705810724
 20
125.9233563969
 10
191.7627797486
 20
125.9345560689
 10
191.7556640874
 20
125.9464380962
 10
191.7493016793
 20
125.9589716767
 10
191.7437647922
 20
125.9721089053
 10
191.7391092687
 20
125.9858387795
 10
191.7354093558
 20
126.0001053631
 10
191.7327366226
 20
126.0148446532
 10
191.731156574
 20
126.0300255988
  0
LWPOLYLINE
  5
3DE
100
AcDbEntity
  8
RACCORDO
100
AcDbPolyline
 62
7
  6
CONTINUOUS
 90
4
 70
0
 10
192.0322842075
 20
125.7510649264
 10
191.995020467
 20
125.7825922194
 10
191.9548006198
 20
125.8103769047
 10
191.9119918753
 20
125.8341379063
  0
LINE
  5
3DF
100
AcDbEntity
  8
RACCORDO
100
AcDbLine
 62
253
  6
CONTINUOUS
 10
192.1783623243
 20
125.3559410244
 11
192.1840819264
 21
125.3502259288
  0
LINE
  5
3E0
100
AcDbEntity
  8
RACCORDO
100
AcDbLine
 62
253
  6
CONTINUOUS
 10
192.2152460885
 20
125.3190571798
 11
192.2307275191
 21
125.3035758296
  0
LINE
  5
3E1
100
AcDbEntity
  8
RACCORDO
100
AcDbLine
 62
7
  6
CONTINUOUS
 10
192.0662432899
 20
125.7161212106
 11
192.0322842075
 21
125.7510649264
  0
LINE
  5
3E2
100
AcDbEntity
  8
RACCORDO
100
AcDbLine
 62
7
  6
CONTINUOUS
 10
192.1027036589
 20
125.669154907
 11
192.1087690521
 21
125.6617384492
  0
LINE
  5
3E3
100
AcDbEntity
  8
RACCORDO
100
AcDbLine
 62
7
  6
CONTINUOUS
 10
192.0899550794
 20
125.6870958392
 11
192.0662432899
 21
125.7161212106
  0
LINE
  5
3E4
100
AcDbEntity
  8
RACCORDO
100
AcDbLine
 62
7
  6
CONTINUOUS
 10
192.069533559
 20
125.7123451704
 11
192.0899551777
 21
125.68709591
  0
LINE
  5
3E5
100
AcDbEntity
  8
RACCORDO
100
AcDbLine
 62
7
  6
CONTINUOUS
 10
192.0899551777
 20
125.68709591
 11
192.0944440926
 21
125.6810675011
  0
LINE
  5
3E6
100
AcDbEntity
  8
RACCORDO
100
AcDbLine
 62
7
  6
CONTINUOUS
 10
192.1104335878
 20
125.6595039562
 11
192.1024806319
 21
125.6701709034
  0
LINE
  5
3E7
100
AcDbEntity
  8
RACCORDO
100
AcDbLine
 62
253
  6
CONTINUOUS
 10
192.2007972183
 20
125.3723259421
 11
192.2085522523
 21
125.3619253238
  0
LWPOLYLINE
  5
3E8
100
AcDbEntity
  8
RACCORDO
100
AcDbPolyline
 62
7
  6
CONTINUOUS
 90
3
 70
0
 10
192.1024806319
 20
125.6701709034
 10
192.0949867476
 20
125.6803274868
 10
192.0944440926
 20
125.6810675011
  0
LWPOLYLINE
  5
3E9
100
AcDbEntity
  8
RACCORDO
100
AcDbPolyline
 62
253
  6
CONTINUOUS
 90
3
 70
0
 10
192.1911026733
 20
125.385471291
 10
192.1930411385
 20
125.3828299844
 10
192.2007972183
 20
125.3723259421
  0
LWPOLYLINE
  5
3EA
100
AcDbEntity
  8
RACCORDO
100
AcDbPolyline
 62
7
  6
CONTINUOUS
 90
3
 70
0
 10
192.1104335878
 20
125.6595039562
 10
192.1144184188
 20
125.6540466277
 10
192.1425442132
 20
125.6103492266
  0
LINE
  5
3EB
100
AcDbEntity
  8
RACCORDO
100
AcDbLine
 62
7
  6
CONTINUOUS
 10
192.0944440926
 20
125.6810675011
 11
192.1007879783
 21
125.6722118878
  0
LWPOLYLINE
  5
3EC
100
AcDbEntity
  8
RACCORDO
100
AcDbPolyline
 62
253
  6
CONTINUOUS
 90
14
 70
0
 10
192.2085522523
 20
125.3619253238
 10
192.2086960532
 20
125.3616960876
 10
192.2088442487
 20
125.3613429966
 10
192.2089968388
 20
125.3608660509
 10
192.2091532684
 20
125.3602727683
 10
192.2093140925
 20
125.3595556309
 10
192.2094809765
 20
125.3586920855
 10
192.2096539955
 20
125.3576782125
 10
192.2098330743
 20
125.3565179316
 10
192.210019653
 20
125.3552004478
 10
192.2102135984
 20
125.3537215571
 10
192.2104150437
 20
125.3520854636
 10
192.2106258282
 20
125.3502939846
 10
192.210845758
 20
125.3483356049
  0
LWPOLYLINE
  5
3ED
100
AcDbEntity
  8
RACCORDO
100
AcDbPolyline
 62
7
  6
CONTINUOUS
 90
7
 70
0
 10
192.1007879783
 20
125.6722118878
 10
192.1277992009
 20
125.6291082576
 10
192.1502874152
 20
125.5834807941
 10
192.1680196637
 20
125.5358021566
 10
192.1808122563
 20
125.4865662523
 10
192.1885326736
 20
125.4362831204
 10
192.1911009389
 20
125.3854736486
  0
LINE
  5
3EE
100
AcDbEntity
  8
RACCORDO
100
AcDbLine
 62
7
  6
CONTINUOUS
 10
192.1425442132
 20
125.6103492266
 11
192.1659788215
 21
125.563966054
  0
LWPOLYLINE
  5
3EF
100
AcDbEntity
  8
RACCORDO
100
AcDbPolyline
 62
7
  6
CONTINUOUS
 90
6
 70
0
 10
192.1680948022
 20
125.5592357868
 10
192.1593775509
 20
125.5783751213
 10
192.1496558013
 20
125.5975289782
 10
192.1388468428
 20
125.6167171543
 10
192.1269939378
 20
125.63573667
 10
192.1141064876
 20
125.6544797158
  0
LINE
  5
3F0
100
AcDbEntity
  8
RACCORDO
100
AcDbLine
 62
253
  6
CONTINUOUS
 10
113.4921923738
 20
126.8325842404
 11
114.2421923738
 21
127.2655969423
  0
LINE
  5
3F1
100
AcDbEntity
  8
RACCORDO
100
AcDbLine
 62
7
  6
CONTINUOUS
 10
113.6171923738
 20
126.6160778895
 11
114.3671923738
 21
127.0490905914
  0
LINE
  5
3F2
100
AcDbEntity
  8
26814000
100
AcDbLine
 62
7
  6
CONTINUOUS
 10
121.4921923738
 20
79.6678020135
 11
121.1984688741
 21
79.6660931802
  0
LINE
  5
3F3
100
AcDbEntity
  8
RACCORDO
100
AcDbLine
 62
7
  6
CONTINUOUS
 10
111.2421923738
 20
78.921259375
 11
114.2421923738
 21
78.921259375
  0
LINE
  5
3F4
100
AcDbEntity
  8
RACCORDO
100
AcDbLine
 62
253
  6
CONTINUOUS
 10
110.9921923738
 20
79.171259375
 11
114.4921923738
 21
79.171259375
  0
LINE
  5
3F5
100
AcDbEntity
  8
RACCORDO
100
AcDbLine
 62
253
  6
CONTINUOUS
 10
114.4921923738
 20
79.5769218077
 11
114.2421923738
 21
79.5769218077
  0
LINE
  5
3F6
100
AcDbEntity
  8
RACCORDO
100
AcDbLine
 62
253
  6
CONTINUOUS
 10
111.2421923738
 20
79.5769218077
 11
110.9921923738
 21
79.5769218077
  0
LINE
  5
3F7
100
AcDbEntity
  8
RACCORDO
100
AcDbLine
 62
7
  6
CONTINUOUS
 10
120.9921923738
 20
79.621259375
 11
114.4921923738
 21
79.621259375
  0
LINE
  5
3F8
100
AcDbEntity
  8
RACCORDO
100
AcDbLine
 62
253
  6
CONTINUOUS
 10
112.2421923738
 20
80.4429472115
 11
111.9921923738
 21
80.4429472115
  0
LINE
  5
3F9
100
AcDbEntity
  8
RACCORDO
100
AcDbLine
 62
253
  6
CONTINUOUS
 10
113.2421923738
 20
80.4429472115
 11
113.4921923738
 21
80.4429472115
  0
LWPOLYLINE
  5
3FA
100
AcDbEntity
  8
RACCORDO
100
AcDbPolyline
 62
253
  6
CONTINUOUS
 90
4
 70
0
 10
112.0179350826
 20
80.9872859734
 10
112.036222508
 20
80.9869088059
 10
112.0548385691
 20
80.9866404252
 10
112.0927235981
 20
80.9862767071
  0
LINE
  5
3FB
100
AcDbEntity
  8
RACCORDO
100
AcDbLine
 62
253
  6
CONTINUOUS
 10
111.9826732373
 20
80.9882257781
 11
112.0179350826
 21
80.9872859734
  0
LINE
  5
3FC
100
AcDbEntity
  8
RACCORDO
100
AcDbLine
 62
253
  6
CONTINUOUS
 10
111.949502603
 20
80.9893662027
 11
111.9826732373
 21
80.9882257781
  0
LINE
  5
3FD
100
AcDbEntity
  8
RACCORDO
100
AcDbLine
 62
253
  6
CONTINUOUS
 10
111.8899396176
 20
80.9916373086
 11
111.949502603
 21
80.9893662027
  0
LINE
  5
3FE
100
AcDbEntity
  8
28414000
100
AcDbLine
 62
7
  6
CONTINUOUS
 10
108.1905146011
 20
81.806688018
 11
108.6877755488
 21
81.7544237863
  0
LINE
  5
3FF
100
AcDbEntity
  8
RACCORDO
100
AcDbLine
 62
7
  6
CONTINUOUS
 10
107.1437284741
 20
81.4139555335
 11
101.4471244284
 21
82.1134105599
  0
LWPOLYLINE
  5
400
100
AcDbEntity
  8
RACCORDO
100
AcDbPolyline
 62
253
  6
CONTINUOUS
 90
16
 70
0
 10
112.0112106017
 20
81.4782327019
 10
112.0478354916
 20
81.4729277658
 10
112.0646303863
 20
81.4703962412
 10
112.0805736345
 20
81.4680614566
 10
112.0956514454
 20
81.4659544773
 10
112.1098776099
 20
81.4640442379
 10
112.1234474299
 20
81.462365341
 10
112.1363730385
 20
81.4609345676
 10
112.1486423027
 20
81.4597351368
 10
112.1604141253
 20
81.4587513078
 10
112.1716981493
 20
81.4579888349
 10
112.1824847316
 20
81.4574419637
 10
112.1929038464
 20
81.4570776907
 10
112.2029988181
 20
81.4568850144
 10
112.2127263222
 20
81.4568749363
 10
112.2220863587
 20
81.4570474562
  0
LWPOLYLINE
  5
401
100
AcDbEntity
  8
RACCORDO
100
AcDbPolyline
 62
253
  6
CONTINUOUS
 90
19
 70
0
 10
101.5307344629
 20
82.9089068998
 10
101.4734599184
 20
82.9183983369
 10
101.4177903811
 20
82.9323437442
 10
101.363725851
 20
82.9507431219
 10
101.3108847974
 20
82.9737858165
 10
101.259648751
 20
83.0012824815
 10
101.2111623036
 20
83.0326650768
 10
101.1655157188
 20
83.0680090259
 10
101.1226187331
 20
83.1072389054
 10
101.0833451474
 20
83.1495604043
 10
101.047769618
 20
83.195039301
 10
101.0158174886
 20
83.2436098173
 10
100.9881385911
 20
83.2942803074
 10
100.9648230575
 20
83.3471260112
 10
100.9457807556
 20
83.402071689
 10
100.9313911214
 20
83.4578999756
 10
100.9217806335
 20
83.5142050828
 10
100.9168228132
 20
83.5713927988
 10
100.9165176605
 20
83.6294631238
  0
LINE
  5
402
100
AcDbEntity
  8
RACCORDO
100
AcDbLine
 62
253
  6
CONTINUOUS
 10
114.2421923738
 20
79.5769218077
 11
113.4921923738
 21
80.0099345096
  0
LINE
  5
403
100
AcDbEntity
  8
RACCORDO
100
AcDbLine
 62
7
  6
CONTINUOUS
 10
114.3671923738
 20
79.7934281586
 11
113.6171923738
 21
80.2264408605
  0
LWPOLYLINE
  5
404
100
AcDbEntity
  8
RACCORDO
100
AcDbPolyline
 62
253
  6
CONTINUOUS
 90
16
 70
0
 10
105.9940778621
 20
125.3747826843
 10
105.9922426901
 20
125.3705457213
 10
105.9896639951
 20
125.3576269302
 10
105.9863700189
 20
125.336167797
 10
105.9823968369
 20
125.3064033414
 10
105.9777879633
 20
125.2686595428
 10
105.9725938749
 20
125.2233497699
 10
105.9668714572
 20
125.1709702535
 10
105.9606833817
 20
125.1120946525
 10
105.9540974203
 20
125.0473677702
 10
105.9471857019
 20
124.9774984932
 10
105.9400239236
 20
124.9032520273
 10
105.9326905209
 20
124.8254415173
 10
105.925265809
 20
124.744919141
 10
105.917831103
 20
124.6625667766
 10
105.9104678276
 20
124.5792863444
  0
LINE
  5
405
100
AcDbEntity
  8
RACCORDO
100
AcDbLine
 62
253
  6
CONTINUOUS
 10
113.3623666894
 20
81.4956469352
 11
113.3936389315
 21
81.500771587
  0
LWPOLYLINE
  5
406
100
AcDbEntity
  8
RACCORDO
100
AcDbPolyline
 62
253
  6
CONTINUOUS
 90
10
 70
0
 10
113.3936389315
 20
81.500771587
 10
113.4282791961
 20
81.5062989611
 10
113.4469254428
 20
81.5091804781
 10
113.46651596
 20
81.5119481733
 10
113.4870284206
 20
81.5146276113
 10
113.5084851518
 20
81.5171932274
 10
113.5310231559
 20
81.5193853941
 10
113.5546881003
 20
81.5211175689
 10
113.5794343176
 20
81.5224762942
 10
113.6052618079
 20
81.52346157
  0
LINE
  5
407
100
AcDbEntity
  8
26814000
100
AcDbLine
 62
7
  6
CONTINUOUS
 10
111.4926672749
 20
81.482709966
 11
110.9921923738
 21
81.421259375
  0
LINE
  5
408
100
AcDbEntity
  8
DRAFT
100
AcDbLine
 62
7
  6
CONTINUOUS
 10
112.1421923738
 20
81.596259375
 11
111.4921923738
 21
81.5164494104
  0
LINE
  5
409
100
AcDbEntity
  8
RACCORDO
100
AcDbLine
 62
253
  6
CONTINUOUS
 10
113.4801084483
 20
81.0156073829
 11
113.556463495
 21
81.0204428922
  0
LWPOLYLINE
  5
40A
100
AcDbEntity
  8
RACCORDO
100
AcDbPolyline
 62
253
  6
CONTINUOUS
 90
5
 70
0
 10
113.556463495
 20
81.0204428922
 10
113.5840275203
 20
81.0220613833
 10
113.5972677484
 20
81.0227191222
 10
113.6101488564
 20
81.0232209316
 10
113.6227133452
 20
81.0235381057
  0
LWPOLYLINE
  5
40B
100
AcDbEntity
  8
RACCORDO
100
AcDbPolyline
 62
253
  6
CONTINUOUS
 90
3
 70
0
 10
113.4293075127
 20
81.0128152577
 10
113.4465691202
 20
81.0137116284
 10
113.4801084483
 20
81.0156073829
  0
LINE
  5
40C
100
AcDbEntity
  8
RACCORDO
100
AcDbLine
 62
253
  6
CONTINUOUS
 10
113.3941687348
 20
81.0112078947
 11
113.4293075127
 21
81.0128152577
  0
LINE
  5
40D
100
AcDbEntity
  8
RACCORDO
100
AcDbLine
 62
253
  6
CONTINUOUS
 10
113.3586611235
 20
81.0097850136
 11
113.3941687348
 21
81.0112078947
  0
LINE
  5
40E
100
AcDbEntity
  8
RACCORDO
100
AcDbLine
 62
253
  6
CONTINUOUS
 10
113.3233054401
 20
81.0085785345
 11
113.3586611235
 21
81.0097850136
  0
LINE
  5
40F
100
AcDbEntity
  8
RACCORDO
100
AcDbLine
 62
253
  6
CONTINUOUS
 10
113.4921923738
 20
80.8247199224
 11
113.2421923738
 21
80.8168651432
  0
LINE
  5
410
100
AcDbEntity
  8
RACCORDO
100
AcDbLine
 62
253
  6
CONTINUOUS
 10
112.2421923738
 20
80.7994100782
 11
111.9921923738
 21
80.791555299
  0
LWPOLYLINE
  5
411
100
AcDbEntity
  8
RACCORDO
100
AcDbPolyline
 62
253
  6
CONTINUOUS
 90
12
 70
0
 10
113.2217735433
 20
81.4805934578
 10
113.2313231007
 20
81.4808654769
 10
113.2412047735
 20
81.4813057199
 10
113.2514185618
 20
81.481914187
 10
113.2619277021
 20
81.4826829825
 10
113.2727689579
 20
81.483620002
 10
113.284052619
 20
81.4847489324
 10
113.2957746703
 20
81.4860759316
 10
113.307939127
 20
81.4875948417
 10
113.3206683237
 20
81.4893108758
 10
113.3339526876
 20
81.4912357921
 10
113.3623666894
 20
81.4956469352
  0
LINE
  5
412
100
AcDbEntity
  8
RACCORDO
100
AcDbLine
 62
253
  6
CONTINUOUS
 10
113.2885841873
 20
81.0076038641
 11
113.3233054401
 21
81.0085785345
  0
LINE
  5
413
100
AcDbEntity
  8
RACCORDO
100
AcDbLine
 62
253
  6
CONTINUOUS
 10
112.2220863587
 20
81.4570474562
 11
112.8885816499
 21
81.4728030374
  0
LINE
  5
414
100
AcDbEntity
  8
RACCORDO
100
AcDbLine
 62
253
  6
CONTINUOUS
 10
112.8885816499
 20
81.4728030374
 11
113.2217735433
 21
81.4805934578
  0
LINE
  5
415
100
AcDbEntity
  8
RACCORDO
100
AcDbLine
 62
253
  6
CONTINUOUS
 10
113.2388822854
 20
81.0065000133
 11
113.2885841873
 21
81.0076038641
  0
LINE
  5
416
100
AcDbEntity
  8
RACCORDO
100
AcDbLine
 62
253
  6
CONTINUOUS
 10
113.2421923738
 20
80.8168651432
 11
112.2421923738
 21
80.7994100782
  0
LINE
  5
417
100
AcDbEntity
  8
RACCORDO
100
AcDbLine
 62
7
  6
CONTINUOUS
 10
111.4921923738
 20
80.9863492451
 11
111.8373535362
 21
80.9923740556
  0
LINE
  5
418
100
AcDbEntity
  8
RACCORDO
100
AcDbLine
 62
7
  6
CONTINUOUS
 10
113.6227116789
 20
81.0235375979
 11
123.5096447802
 21
81.1961146572
  0
LINE
  5
419
100
AcDbEntity
  8
RACCORDO
100
AcDbLine
 62
253
  6
CONTINUOUS
 10
111.4921923738
 20
81.4865777256
 11
111.8198681601
 21
81.4922928192
  0
LINE
  5
41A
100
AcDbEntity
  8
RACCORDO
100
AcDbLine
 62
253
  6
CONTINUOUS
 10
113.6052618079
 20
81.52346157
 11
114.4921923738
 21
81.5389429204
  0
LINE
  5
41B
100
AcDbEntity
  8
RACCORDO
100
AcDbLine
 62
253
  6
CONTINUOUS
 10
112.2219351892
 20
80.9870424754
 11
113.238882241
 21
81.0065025204
  0
LWPOLYLINE
  5
41C
100
AcDbEntity
  8
RACCORDO
100
AcDbPolyline
 62
253
  6
CONTINUOUS
 90
3
 70
0
 10
112.1681233124
 20
80.9863696537
 10
112.1864551669
 20
80.9865497048
 10
112.2219351892
 20
80.9870424754
  0
LINE
  5
41D
100
AcDbEntity
  8
26814000
100
AcDbLine
 62
7
  6
CONTINUOUS
 10
121.4921923738
 20
81.0910743173
 11
123.5009189093
 21
81.1086042082
  0
LINE
  5
41E
100
AcDbEntity
  8
26814000
100
AcDbLine
 62
253
  6
CONTINUOUS
 10
123.5212252643
 20
81.1966608083
 11
123.910050935
 21
81.2000540385
  0
LWPOLYLINE
  5
41F
100
AcDbEntity
  8
RACCORDO
100
AcDbPolyline
 62
253
  6
CONTINUOUS
 90
5
 70
0
 10
111.8373771058
 20
80.9923650149
 10
111.8500596046
 20
80.9924687481
 10
111.8630077703
 20
80.9923547904
 10
111.8762974617
 20
80.9920611052
 10
111.8899396176
 20
80.9916373086
  0
LINE
  5
420
100
AcDbEntity
  8
DRAFT
100
AcDbLine
 62
7
  6
CONTINUOUS
 10
114.4921923738
 20
82.521259375
 11
124.4921923738
 21
82.521259375
  0
LWPOLYLINE
  5
421
100
AcDbEntity
  8
RACCORDO
100
AcDbPolyline
 62
253
  6
CONTINUOUS
 90
4
 70
0
 10
112.0927235981
 20
80.9862767071
 10
112.1117495706
 20
80.9862092404
 10
112.1307143619
 20
80.9862089523
 10
112.1681233124
 20
80.9863696537
  0
LWPOLYLINE
  5
422
100
AcDbEntity
  8
RACCORDO
100
AcDbPolyline
 62
253
  6
CONTINUOUS
 90
9
 70
0
 10
111.8198681601
 20
81.4922928192
 10
111.8481648616
 20
81.4921088815
 10
111.8751814195
 20
81.4914200292
 10
111.9009178337
 20
81.4902262624
 10
111.9253155221
 20
81.4884139597
 10
111.9484330668
 20
81.4860967425
 10
111.9704462143
 20
81.4836154746
 10
111.9913806066
 20
81.4810061136
 10
112.0112106017
 20
81.4782327019
  0
LINE
  5
423
100
AcDbEntity
  8
26814000
100
AcDbLine
 62
7
  6
CONTINUOUS
 10
110.9921923738
 20
81.0430765445
 11
111.4921923738
 21
81.0387131106
  0
LINE
  5
424
100
AcDbEntity
  8
26814000
100
AcDbLine
 62
253
  6
CONTINUOUS
 10
110.9921923738
 20
81.3930898719
 11
111.4921923738
 21
81.388726438
  0
LINE
  5
425
100
AcDbEntity
  8
26814000
100
AcDbLine
 62
253
  6
CONTINUOUS
 10
124.3913546924
 20
81.7605551899
 11
124.4080260489
 21
81.7602641903
  0
LINE
  5
426
100
AcDbEntity
  8
RACCORDO
100
AcDbLine
 62
7
  6
CONTINUOUS
 10
114.4921923738
 20
82.021259375
 11
124.4296269263
 21
81.8478008097
  0
LINE
  5
427
100
AcDbEntity
  8
28414000
100
AcDbLine
 62
7
  6
CONTINUOUS
 10
107.3109740153
 20
83.0051905661
 11
107.9073219067
 21
82.9425118771
  0
LINE
  5
428
100
AcDbEntity
  8
RACCORDO
100
AcDbLine
 62
253
  6
CONTINUOUS
 10
107.2273385086
 20
82.2094518734
 11
101.5307344629
 21
82.9089068998
  0
LINE
  5
429
100
AcDbEntity
  8
28414000
100
AcDbLine
 62
7
  6
CONTINUOUS
 10
108.0548033309
 20
84.050153298
 11
107.4364081712
 21
84.1986168406
  0
LWPOLYLINE
  5
42A
100
AcDbEntity
  8
RACCORDO
100
AcDbPolyline
 62
253
  6
CONTINUOUS
 90
16
 70
0
 10
101.4471244284
 20
82.1134105599
 10
101.446210264
 20
82.1179366016
 10
101.4463739044
 20
82.131109533
 10
101.4476135531
 20
82.1527850458
 10
101.4499156286
 20
82.1827257177
 10
101.4532549143
 20
82.2206035967
 10
101.457594832
 20
82.2660037784
 10
101.462887845
 20
82.3184289894
 10
101.4690759781
 20
82.3773050298
 10
101.4760914511
 20
82.4419870266
 10
101.4838574246
 20
82.5117665418
 10
101.4922888422
 20
82.5858793293
 10
101.5012933582
 20
82.663513677
 10
101.5107723527
 20
82.7438193227
 10
101.5206220118
 20
82.8259167684
 10
101.5307344629
 20
82.9089068998
  0
LINE
  5
42B
100
AcDbEntity
  8
RACCORDO
100
AcDbLine
 62
253
  6
CONTINUOUS
 10
111.2421923738
 20
127.2655969423
 11
111.1171923738
 21
127.0490905914
  0
LINE
  5
42C
100
AcDbEntity
  8
21814000
100
AcDbLine
 62
7
  6
CONTINUOUS
 10
135.3078995396
 20
83.999069077
 11
124.4921923738
 21
83.8102802061
  0
LINE
  5
42D
100
AcDbEntity
  8
21814000
100
AcDbLine
 62
253
  6
CONTINUOUS
 10
135.3078995396
 20
84.5923927759
 11
124.491675546
 21
84.4588925061
  0
LINE
  5
42E
100
AcDbEntity
  8
RACCORDO
100
AcDbLine
 62
253
  6
CONTINUOUS
 10
100.1309456005
 20
83.6574596101
 11
100.1352322442
 21
83.6573996644
  0
LINE
  5
42F
100
AcDbEntity
  8
RACCORDO
100
AcDbLine
 62
7
  6
CONTINUOUS
 10
107.7869566518
 20
85.0972802973
 11
111.9510185683
 21
85.0245963262
  0
LINE
  5
430
100
AcDbEntity
  8
26814000
100
AcDbLine
 62
7
  6
CONTINUOUS
 10
107.6960057586
 20
85.1137046562
 11
107.5328870341
 21
85.1165519042
  0
LINE
  5
431
100
AcDbEntity
  8
RACCORDO
100
AcDbLine
 62
253
  6
CONTINUOUS
 10
100.1352322442
 20
83.6573996644
 11
100.1692287445
 21
83.6563388682
  0
LINE
  5
432
100
AcDbEntity
  8
RACCORDO
100
AcDbLine
 62
253
  6
CONTINUOUS
 10
100.1692287445
 20
83.6563388682
 11
100.2803913878
 21
83.6525051407
  0
LINE
  5
433
100
AcDbEntity
  8
RACCORDO
100
AcDbLine
 62
253
  6
CONTINUOUS
 10
100.2803913878
 20
83.6525051407
 11
100.453790138
 21
83.6463254957
  0
LWPOLYLINE
  5
434
100
AcDbEntity
  8
RACCORDO
100
AcDbPolyline
 62
253
  6
CONTINUOUS
 90
3
 70
0
 10
100.453790138
 20
83.6463254957
 10
100.8339614919
 20
83.6324981107
 10
100.9165176605
 20
83.6294631238
  0
LINE
  5
435
100
AcDbEntity
  8
RACCORDO
100
AcDbLine
 62
253
  6
CONTINUOUS
 10
111.2421923738
 20
79.5769218077
 11
111.1171923738
 21
79.7934281586
  0
LWPOLYLINE
  5
436
100
AcDbEntity
  8
RACCORDO
100
AcDbPolyline
 62
253
  6
CONTINUOUS
 90
13
 70
0
 10
100.9165176605
 20
83.6294631238
 10
101.0603564678
 20
87.0126217618
 10
101.242404225
 20
90.3930775945
 10
101.4626609321
 20
93.7708306219
 10
101.7211646455
 20
97.1463145517
 10
102.0178773089
 20
100.5190956762
 10
102.3526847532
 20
103.8878728725
 10
102.7256019003
 20
107.2526447461
 10
103.1366138285
 20
110.6134126916
 10
103.5855616033
 20
113.9688797693
 10
104.0723922466
 20
117.3186136661
 10
104.5971587366
 20
120.6630466953
 10
105.1598610732
 20
124.0021788567
  0
LWPOLYLINE
  5
437
100
AcDbEntity
  8
RACCORDO
100
AcDbPolyline
 62
253
  6
CONTINUOUS
 90
19
 70
0
 10
105.1598610732
 20
124.0021788567
 10
105.172233057
 20
124.0589167609
 10
105.1889725318
 20
124.1138239993
 10
105.2100794976
 20
124.166900572
 10
105.2357620372
 20
124.2185171035
 10
105.2658120678
 20
124.2683029692
 10
105.2996053407
 20
124.3151462956
 10
105.3372143752
 20
124.3589547475
 10
105.378566652
 20
124.3998206602
 10
105.422820365
 20
124.4369091654
 10
105.4700348631
 20
124.4701404005
 10
105.5201507973
 20
124.4995942281
 10
105.5721483149
 20
124.5246753685
 10
105.6261000256
 20
124.5452912796
 10
105.6819333196
 20
124.5615345034
 10
105.7384105149
 20
124.5730873871
 10
105.7951190511
 20
124.5798440464
 10
105.8524714887
 20
124.5819103655
 10
105.9104678276
 20
124.5792863444
  0
LINE
  5
438
100
AcDbEntity
  8
RACCORDO
100
AcDbLine
 62
253
  6
CONTINUOUS
 10
111.9921923738
 20
126.8325842404
 11
111.8671923738
 21
126.6160778895
  0
LINE
  5
439
100
AcDbEntity
  8
21814000
100
AcDbLine
 62
253
  6
CONTINUOUS
 10
133.1893442732
 20
89.4641164736
 11
134.4891462769
 21
89.7426879243
  0
LWPOLYLINE
  5
43A
100
AcDbEntity
  8
21814000
100
AcDbPolyline
 62
253
  6
CONTINUOUS
 90
17
 70
0
 10
128.4921923738
 20
87.371680049
 10
128.9290714057
 20
87.4145229378
 10
129.3493098511
 20
87.5414197319
 10
129.7369009581
 20
87.7475369717
 10
130.0826428998
 20
88.0305665788
 10
130.3612731426
 20
88.3698282592
 10
130.5687106798
 20
88.7567565621
 10
130.6970542798
 20
89.1766135085
 10
130.7414290779
 20
89.621259375
 10
130.6985927143
 20
90.0582049559
 10
130.5717152473
 20
90.4785074154
 10
130.3656294
 20
90.8661575634
 10
130.0826428998
 20
91.2119521712
 10
129.7434328905
 20
91.4906248573
 10
129.3565635187
 20
91.698093993
 10
128.9367705186
 20
91.8264571433
 10
128.4921921771
 20
91.870838701
  0
LINE
  5
43B
100
AcDbEntity
  8
RACCORDO
100
AcDbLine
 62
253
  6
CONTINUOUS
 10
107.5834056203
 20
85.5972041447
 11
107.7869566518
 21
85.5972041449
  0
LINE
  5
43C
100
AcDbEntity
  8
21814000
100
AcDbLine
 62
253
  6
CONTINUOUS
 10
136.1921923738
 20
85.6417645915
 11
136.1872929999
 21
85.6417645912
  0
LINE
  5
43D
100
AcDbEntity
  8
21814000
100
AcDbLine
 62
253
  6
CONTINUOUS
 10
122.2161075549
 20
85.7496864997
 11
136.1880404051
 21
85.7496864997
  0
LINE
  5
43E
100
AcDbEntity
  8
21814000
100
AcDbLine
 62
253
  6
CONTINUOUS
 10
136.1866717622
 20
85.6403060327
 11
136.1872746476
 21
85.6403000509
  0
LINE
  5
43F
100
AcDbEntity
  8
RACCORDO
100
AcDbLine
 62
253
  6
CONTINUOUS
 10
107.7869566518
 20
85.5972041449
 11
111.889503799
 21
85.5255939181
  0
LINE
  5
440
100
AcDbEntity
  8
RACCORDO
100
AcDbLine
 62
253
  6
CONTINUOUS
 10
111.9921923738
 20
80.0099345096
 11
111.8671923738
 21
80.2264408605
  0
LWPOLYLINE
  5
441
100
AcDbEntity
  8
RACCORDO
100
AcDbPolyline
 62
253
  6
CONTINUOUS
 90
5
 70
0
 10
111.8373486986
 20
125.8501447758
 10
111.8364012155
 20
125.8474132959
 10
111.8353648292
 20
125.8392302631
 10
111.8342510287
 20
125.8256872839
 10
111.8330710401
 20
125.8069355132
  0
LINE
  5
442
100
AcDbEntity
  8
RACCORDO
100
AcDbLine
 62
7
  6
CONTINUOUS
 10
114.4921923738
 20
118.2815570323
 11
124.4921923738
 21
121.921259375
  0
LINE
  5
443
100
AcDbEntity
  8
RACCORDO
100
AcDbLine
 62
253
  6
CONTINUOUS
 10
124.4921923738
 20
122.4254997554
 11
114.4921923738
 21
118.878393143
  0
LINE
  5
444
100
AcDbEntity
  8
21814000
100
AcDbLine
 62
253
  6
CONTINUOUS
 10
119.9921923738
 20
119.421259375
 11
117.0930746749
 21
118.413194375
  0
LINE
  5
445
100
AcDbEntity
  8
21814000
100
AcDbLine
 62
253
  6
CONTINUOUS
 10
119.3777405845
 20
118.585843375
 11
119.9921923738
 21
118.794833375
  0
LINE
  5
446
100
AcDbEntity
  8
21814000
100
AcDbLine
 62
253
  6
CONTINUOUS
 10
117.6472298353
 20
118.027708375
 11
118.8959543748
 21
118.429128375
  0
LINE
  5
447
100
AcDbEntity
  8
21814000
100
AcDbLine
 62
253
  6
CONTINUOUS
 10
134.4891462769
 20
87.421259375
 11
133.1893442732
 21
87.421259375
  0
LINE
  5
448
100
AcDbEntity
  8
21814000
100
AcDbLine
 62
253
  6
CONTINUOUS
 10
134.4891462769
 20
88.071259375
 11
133.1893442732
 21
88.071259375
  0
LINE
  5
449
100
AcDbEntity
  8
21814000
100
AcDbLine
 62
253
  6
CONTINUOUS
 10
133.5607162521
 20
88.4426879243
 11
133.3750302627
 21
88.4426879243
  0
LINE
  5
44A
100
AcDbEntity
  8
21814000
100
AcDbLine
 62
253
  6
CONTINUOUS
 10
134.3034602681
 20
89.0926879243
 11
134.1177742592
 21
89.0926879243
  0
LINE
  5
44B
100
AcDbEntity
  8
RACCORDO
100
AcDbLine
 62
253
  6
CONTINUOUS
 10
114.4921923738
 20
87.964125607
 11
124.4921923738
 21
84.4170189946
  0
LINE
  5
44C
100
AcDbEntity
  8
RACCORDO
100
AcDbLine
 62
7
  6
CONTINUOUS
 10
124.4921923738
 20
84.921259375
 11
114.4921923738
 21
88.5609617177
  0
LINE
  5
44D
100
AcDbEntity
  8
RACCORDO
100
AcDbLine
 62
253
  6
CONTINUOUS
 10
111.8364174892
 20
80.9951057379
 11
111.8373779031
 21
80.992374484
  0
LINE
  5
44E
100
AcDbEntity
  8
28414000
100
AcDbLine
 62
7
  6
CONTINUOUS
 10
107.9073219067
 20
82.9425118771
 11
108.1905146011
 21
81.806688018
  0
LWPOLYLINE
  5
44F
100
AcDbEntity
  8
RACCORDO
100
AcDbPolyline
 62
253
  6
CONTINUOUS
 90
10
 70
0
 10
107.7869566518
 20
85.0972802973
 10
107.7864429557
 20
85.1000292219
 10
107.7859865076
 20
85.1082259523
 10
107.7855955902
 20
85.1217790145
 10
107.7852789307
 20
85.140537902
 10
107.7850405465
 20
85.1642958489
 10
107.7848797064
 20
85.1927930365
 10
107.784797627
 20
85.2257161426
 10
107.7847974655
 20
85.2627047151
 10
107.7848792957
 20
85.3033583838
  0
LWPOLYLINE
  5
450
100
AcDbEntity
  8
RACCORDO
100
AcDbPolyline
 62
253
  6
CONTINUOUS
 90
16
 70
0
 10
113.6227133609
 20
125.8189811227
 10
113.6217535589
 20
125.8162572036
 10
113.6207086348
 20
125.8080837662
 10
113.619590042
 20
125.7945503945
 10
113.6184100413
 20
125.77580542
 10
113.6171815667
 20
125.7520542955
 10
113.6159180833
 20
125.7235573432
 10
113.6146334401
 20
125.6906269014
 10
113.6133417179
 20
125.6536239016
 10
113.6120570751
 20
125.6129539121
 10
113.6107935925
 20
125.5690626929
 10
113.6095651191
 20
125.5224313099
 10
113.60838512
 20
125.4735708627
 10
113.6072665292
 20
125.423016882
 10
113.6062216074
 20
125.3713234606
 10
113.605261808
 20
125.3190571798
  0
LWPOLYLINE
  5
451
100
AcDbEntity
  8
21814000
100
AcDbPolyline
 62
253
  6
CONTINUOUS
 90
17
 70
0
 10
128.4921923738
 20
91.870838701
 10
128.0553133418
 20
91.8279958122
 10
127.6350748964
 20
91.7010990181
 10
127.2474837894
 20
91.4949817783
 10
126.9017418478
 20
91.2119521712
 10
126.6231116049
 20
90.8726904908
 10
126.4156740678
 20
90.4857621879
 10
126.2873304678
 20
90.0659052415
 10
126.2429556696
 20
89.621259375
 10
126.2857920332
 20
89.1843137941
 10
126.4126695003
 20
88.7640113346
 10
126.6187553475
 20
88.3763611866
 10
126.9017418478
 20
88.0305665788
 10
127.240951857
 20
87.7518938927
 10
127.6278212288
 20
87.544424757
 10
128.0476142289
 20
87.4160616067
 10
128.4921925704
 20
87.371680049
  0
LINE
  5
452
100
AcDbEntity
  8
21814000
100
AcDbLine
 62
253
  6
CONTINUOUS
 10
126.8572844963
 20
89.621259375
 11
130.1271002512
 21
89.621259375
  0
LINE
  5
453
100
AcDbEntity
  8
21814000
100
AcDbLine
 62
253
  6
CONTINUOUS
 10
117.0929377166
 20
90.250253375
 11
119.9921923738
 21
90.250245375
  0
LINE
  5
454
100
AcDbEntity
  8
21814000
100
AcDbLine
 62
253
  6
CONTINUOUS
 10
119.9921853759
 20
90.830267375
 11
117.0929377166
 21
90.830274375
  0
LINE
  5
455
100
AcDbEntity
  8
21814000
100
AcDbLine
 62
253
  6
CONTINUOUS
 10
117.0929377166
 20
89.283545375
 11
119.0892264888
 21
88.642420375
  0
LINE
  5
456
100
AcDbEntity
  8
21814000
100
AcDbLine
 62
253
  6
CONTINUOUS
 10
119.9921853759
 20
88.932435375
 11
117.0929377166
 21
89.863574375
  0
LINE
  5
457
100
AcDbEntity
  8
RACCORDO
100
AcDbLine
 62
253
  6
CONTINUOUS
 10
107.7869566518
 20
85.5972041449
 11
107.7869566518
 21
87.5338628438
  0
LINE
  5
458
100
AcDbEntity
  8
RACCORDO
100
AcDbLine
 62
253
  6
CONTINUOUS
 10
107.7848792957
 20
85.3033583838
 11
107.7852784065
 21
85.3938521728
  0
LINE
  5
459
100
AcDbEntity
  8
RACCORDO
100
AcDbLine
 62
253
  6
CONTINUOUS
 10
107.7852784065
 20
85.3938521728
 11
107.7859861553
 21
85.4932472736
  0
LINE
  5
45A
100
AcDbEntity
  8
RACCORDO
100
AcDbLine
 62
253
  6
CONTINUOUS
 10
107.7859861553
 20
85.4932472736
 11
107.7869566518
 21
85.5972041449
  0
LWPOLYLINE
  5
45B
100
AcDbEntity
  8
26814000
100
AcDbPolyline
 62
7
  6
CONTINUOUS
 90
6
 70
0
 10
124.4106639714
 20
125.0850220355
 10
124.4132519908
 20
125.0878068721
 10
124.4157901071
 20
125.0906090693
 10
124.4182783203
 20
125.0934286273
 10
124.4207166305
 20
125.096265546
 10
124.4231050376
 20
125.0991198254
  0
LINE
  5
45C
100
AcDbEntity
  8
26814000
100
AcDbLine
 62
7
  6
CONTINUOUS
 10
124.4106639714
 20
125.0850220355
 11
124.3968197752
 21
125.0705532472
  0
LINE
  5
45D
100
AcDbEntity
  8
21814000
100
AcDbLine
 62
253
  6
CONTINUOUS
 10
121.7638689683
 20
117.806973596
 11
122.0352561837
 21
117.942687817
  0
LINE
  5
45E
100
AcDbEntity
  8
21814000
100
AcDbLine
 62
253
  6
CONTINUOUS
 10
123.1208051301
 20
117.128402038
 11
122.8494178864
 21
116.992687817
  0
LINE
  5
45F
100
AcDbEntity
  8
21814000
100
AcDbLine
 62
253
  6
CONTINUOUS
 10
121.7638689683
 20
116.3141164855
 11
122.0352561837
 21
116.4498307065
  0
LINE
  5
460
100
AcDbEntity
  8
21814000
100
AcDbLine
 62
253
  6
CONTINUOUS
 10
117.0930746749
 20
114.637398375
 11
119.3904887004
 21
115.750013375
  0
LINE
  5
461
100
AcDbEntity
  8
21814000
100
AcDbLine
 62
253
  6
CONTINUOUS
 10
119.9921923738
 20
115.448805375
 11
117.5658276369
 21
114.296029375
  0
LINE
  5
462
100
AcDbEntity
  8
21814000
100
AcDbLine
 62
253
  6
CONTINUOUS
 10
117.0929377166
 20
91.410274375
 11
119.9921853759
 21
91.410274375
  0
LINE
  5
463
100
AcDbEntity
  8
21814000
100
AcDbLine
 62
253
  6
CONTINUOUS
 10
133.5607162521
 20
91.8784022764
 11
133.3750302627
 21
91.8784022764
  0
LINE
  5
464
100
AcDbEntity
  8
21814000
100
AcDbLine
 62
253
  6
CONTINUOUS
 10
119.9921853759
 20
91.990296375
 11
118.0803258799
 21
91.990296375
  0
LINE
  5
465
100
AcDbEntity
  8
21814000
100
AcDbLine
 62
253
  6
CONTINUOUS
 10
133.5607162521
 20
92.8998309807
 11
133.3750302627
 21
92.8998309807
  0
LINE
  5
466
100
AcDbEntity
  8
21814000
100
AcDbLine
 62
253
  6
CONTINUOUS
 10
117.0929377166
 20
93.370247375
 11
118.9810314536
 21
92.828679375
  0
LWPOLYLINE
  5
467
100
AcDbEntity
  8
26814000
100
AcDbPolyline
 62
7
  6
CONTINUOUS
 90
7
 70
0
 10
124.3968197752
 20
81.7719655028
 10
124.4106639714
 20
81.7574967145
 10
124.4132519908
 20
81.7547118779
 10
124.4157901071
 20
81.7519096807
 10
124.4182783203
 20
81.7490901227
 10
124.4207166305
 20
81.746253204
 10
124.4231050376
 20
81.7433989246
  0
LINE
  5
468
100
AcDbEntity
  8
RACCORDO
100
AcDbLine
 62
7
  6
CONTINUOUS
 10
110.9921923738
 20
127.671259375
 11
110.9921923738
 21
127.2655969423
  0
LINE
  5
469
100
AcDbEntity
  8
RACCORDO
100
AcDbLine
 62
7
  6
CONTINUOUS
 10
110.9921923738
 20
79.5769218077
 11
110.9921923738
 21
79.171259375
  0
LINE
  5
46A
100
AcDbEntity
  8
26814000
100
AcDbLine
 62
7
  6
CONTINUOUS
 10
110.9921923738
 20
81.0430765445
 11
110.9921923738
 21
81.421259375
  0
LINE
  5
46B
100
AcDbEntity
  8
26814000
100
AcDbLine
 62
7
  6
CONTINUOUS
 10
110.9921923738
 20
125.421259375
 11
110.9921923738
 21
125.7994422055
  0
LINE
  5
46C
100
AcDbEntity
  8
RACCORDO
100
AcDbLine
 62
253
  6
CONTINUOUS
 10
111.2421923738
 20
127.921259375
 11
111.2421923738
 21
127.2655969423
  0
LINE
  5
46D
100
AcDbEntity
  8
RACCORDO
100
AcDbLine
 62
253
  6
CONTINUOUS
 10
111.2421923738
 20
79.5769218077
 11
111.2421923738
 21
78.921259375
  0
LWPOLYLINE
  5
46E
100
AcDbEntity
  8
RACCORDO
100
AcDbPolyline
 62
253
  6
CONTINUOUS
 90
12
 70
0
 10
111.8330710401
 20
125.8069355132
 10
111.831838882
 20
125.7831817829
 10
111.8305712071
 20
125.754684374
 10
111.8292828696
 20
125.7217541145
 10
111.8279869298
 20
125.6847528546
 10
111.82669768
 20
125.644085994
 10
111.8254291817
 20
125.6001991139
 10
111.824195291
 20
125.5535730851
 10
111.8230096462
 20
125.5047187777
 10
111.8218852358
 20
125.4541714916
 10
111.8208342559
 20
125.4024850928
 10
111.8198681555
 20
125.3502259288
  0
LWPOLYLINE
  5
46F
100
AcDbEntity
  8
RACCORDO
100
AcDbPolyline
 62
253
  6
CONTINUOUS
 90
13
 70
0
 10
112.2389126418
 20
125.8552129509
 10
112.2376230966
 20
125.8354093462
 10
112.2362619723
 20
125.8109448166
 10
112.2348433689
 20
125.7820727922
 10
112.2333819819
 20
125.7490923611
 10
112.2318929499
 20
125.7123451704
 10
112.2303916979
 20
125.6722118878
 10
112.2288937775
 20
125.6291082576
 10
112.2274147058
 20
125.5834807941
 10
112.2259698047
 20
125.5358021566
 10
112.2245740421
 20
125.4865662523
 10
112.2232418767
 20
125.4362831204
 10
112.2219871085
 20
125.3854736486
  0
LINE
  5
470
100
AcDbEntity
  8
RACCORDO
100
AcDbLine
 62
7
  6
CONTINUOUS
 10
111.7116223189
 20
124.8745623611
 11
107.1437284741
 21
81.4139555335
  0
LINE
  5
471
100
AcDbEntity
  8
28414000
100
AcDbLine
 62
7
  6
CONTINUOUS
 10
108.6877755488
 20
81.7544237863
 11
108.8158798624
 21
82.9732549144
  0
LINE
  5
472
100
AcDbEntity
  8
DRAFT
100
AcDbLine
 62
7
  6
CONTINUOUS
 10
112.1421923738
 20
123.3749081235
 11
109.6921923738
 21
103.421259375
  0
LINE
  5
473
100
AcDbEntity
  8
21814000
100
AcDbLine
 62
7
  6
CONTINUOUS
 10
117.1794472015
 20
113.713584375
 11
117.7618922015
 21
114.296029375
  0
LINE
  5
474
100
AcDbEntity
  8
21814000
100
AcDbLine
 62
7
  6
CONTINUOUS
 10
117.9393580647
 20
114.4734952382
 11
119.0519019904
 21
115.5860391639
  0
LINE
  5
475
100
AcDbEntity
  8
21814000
100
AcDbLine
 62
7
  6
CONTINUOUS
 10
119.2158762015
 20
115.750013375
 11
119.7983202015
 21
116.332457375
  0
LINE
  5
476
100
AcDbEntity
  8
21814000
100
AcDbLine
 62
253
  6
CONTINUOUS
 10
121.492481753
 20
117.535545154
 11
121.7638689683
 21
117.806973596
  0
LINE
  5
477
100
AcDbEntity
  8
21814000
100
AcDbLine
 62
253
  6
CONTINUOUS
 10
123.1208051301
 20
115.635545154
 11
122.8494178864
 21
115.4998307065
  0
LINE
  5
478
100
AcDbEntity
  8
21814000
100
AcDbLine
 62
253
  6
CONTINUOUS
 10
119.9921923738
 20
113.396333375
 11
117.0930746749
 21
112.388159375
  0
LINE
  5
479
100
AcDbEntity
  8
21814000
100
AcDbLine
 62
253
  6
CONTINUOUS
 10
119.3777405845
 20
112.560808375
 11
119.9921923738
 21
112.769690375
  0
LINE
  5
47A
100
AcDbEntity
  8
21814000
100
AcDbLine
 62
253
  6
CONTINUOUS
 10
117.6470658852
 20
112.002730375
 11
118.8959543748
 21
112.404202375
  0
LINE
  5
47B
100
AcDbEntity
  8
21814000
100
AcDbLine
 62
253
  6
CONTINUOUS
 10
129.4344342922
 20
93.438500375
 11
130.2387862228
 21
93.438500375
  0
LINE
  5
47C
100
AcDbEntity
  8
21814000
100
AcDbLine
 62
253
  6
CONTINUOUS
 10
118.0803258799
 20
93.667054375
 11
119.9921853759
 21
93.667062375
  0
LINE
  5
47D
100
AcDbEntity
  8
21814000
100
AcDbLine
 62
253
  6
CONTINUOUS
 10
133.5607162521
 20
93.921259375
 11
133.3750302627
 21
93.921259375
  0
LINE
  5
47E
100
AcDbEntity
  8
21814000
100
AcDbLine
 62
253
  6
CONTINUOUS
 10
119.9921853759
 20
94.247083375
 11
117.0929377166
 21
94.247083375
  0
LINE
  5
47F
100
AcDbEntity
  8
21814000
100
AcDbLine
 62
253
  6
CONTINUOUS
 10
133.839245275
 20
94.2926877693
 11
134.3034602681
 21
94.2926877693
  0
LINE
  5
480
100
AcDbEntity
  8
21814000
100
AcDbLine
 62
253
  6
CONTINUOUS
 10
128.9230950866
 20
94.369535375
 11
128.0612896609
 21
94.369535375
  0
LINE
  5
481
100
AcDbEntity
  8
21814000
100
AcDbLine
 62
253
  6
CONTINUOUS
 10
128.2623773936
 20
94.927006375
 11
128.7220073539
 21
94.927006375
  0
LINE
  5
482
100
AcDbEntity
  8
21814000
100
AcDbLine
 62
253
  6
CONTINUOUS
 10
134.3034602681
 20
94.9426877693
 11
133.9320882698
 21
94.9426877693
  0
LWPOLYLINE
  5
483
100
AcDbEntity
  8
21814000
100
AcDbPolyline
 62
253
  6
CONTINUOUS
 90
22
 70
0
 10
136.2916164026
 20
91.6085888911
 10
136.4404261913
 20
91.5824656788
 10
136.5859615233
 20
91.5466765339
 10
136.7282223986
 20
91.5012214565
 10
136.8678970073
 20
91.445790032
 10
137.0042971593
 20
91.3806926749
 10
137.1353582845
 20
91.3068606292
 10
137.2609423078
 20
91.2241857908
 10
137.3811873042
 20
91.1327762637
 10
137.494442929
 20
91.0338876033
 10
137.600618558
 20
90.9274119504
 10
137.6998048154
 20
90.8134571642
 10
137.7906232294
 20
90.6936023777
 10
137.8729560491
 20
90.5677662178
 10
137.9469210255
 20
90.4360300575
 10
138.0114929393
 20
90.3002171489
 10
138.0665411411
 20
90.1602728255
 10
138.1121962803
 20
90.0162517538
 10
138.1478250862
 20
89.8701411849
 10
138.1732164683
 20
89.7226035357
 10
138.1885815171
 20
89.5729763892
 10
138.1939202325
 20
89.4212597455
  0
LINE
  5
484
100
AcDbEntity
  8
21814000
100
AcDbLine
 62
253
  6
CONTINUOUS
 10
134.4891462769
 20
90.2998306707
 11
133.1893442732
 21
90.5784022764
  0
LINE
  5
485
100
AcDbEntity
  8
21814000
100
AcDbLine
 62
253
  6
CONTINUOUS
 10
119.9921773783
 20
93.118679375
 11
118.0803258799
 21
93.667054375
  0
LINE
  5
486
100
AcDbEntity
  8
21814000
100
AcDbLine
 62
253
  6
CONTINUOUS
 10
134.4891462769
 20
89.7426879243
 11
133.5607162521
 21
90.021259375
  0
LINE
  5
487
100
AcDbEntity
  8
21814000
100
AcDbLine
 62
253
  6
CONTINUOUS
 10
119.9921853759
 20
94.633762375
 11
117.0929307188
 21
95.564887375
  0
LINE
  5
488
100
AcDbEntity
  8
DRAFT
100
AcDbLine
 62
7
  6
CONTINUOUS
 10
109.6921923738
 20
103.421259375
 11
112.1421923738
 21
83.4676106265
  0
LWPOLYLINE
  5
489
100
AcDbEntity
  8
RACCORDO
100
AcDbPolyline
 62
253
  6
CONTINUOUS
 90
13
 70
0
 10
112.2219871086
 20
81.4570451014
 10
112.2232418768
 20
81.4062356296
 10
112.2245740422
 20
81.3559524977
 10
112.2259698048
 20
81.3067165934
 10
112.2274147059
 20
81.2590379559
 10
112.2288937775
 20
81.2134104924
 10
112.2303916979
 20
81.1703068622
 10
112.2318929498
 20
81.1301735796
 10
112.2333819818
 20
81.093426389
 10
112.2348433688
 20
81.0604459578
 10
112.2362619722
 20
81.0315739334
 10
112.2376230966
 20
81.0071094038
 10
112.2389126419
 20
80.9873057991
  0
LWPOLYLINE
  5
48A
100
AcDbEntity
  8
RACCORDO
100
AcDbPolyline
 62
253
  6
CONTINUOUS
 90
13
 70
0
 10
113.2217836331
 20
81.4805939074
 10
113.2230475908
 20
81.4286895833
 10
113.2243925939
 20
81.3773464156
 10
113.2258041208
 20
81.3271194892
 10
113.227266927
 20
81.2785518205
 10
113.2287652101
 20
81.2321684876
 10
113.2302827808
 20
81.1884709529
 10
113.2318032377
 20
81.1479316419
 10
113.2333101456
 20
81.1109888356
 10
113.2347872126
 20
81.0780419323
 10
113.2362184671
 20
81.0494471293
 10
113.2375884307
 20
81.0255135724
 10
113.2388822854
 20
81.0065000133
  0
LWPOLYLINE
  5
48B
100
AcDbEntity
  8
RACCORDO
100
AcDbPolyline
 62
253
  6
CONTINUOUS
 90
15
 70
0
 10
111.8198681601
 20
81.4922928192
 10
111.8208342997
 20
81.4400336275
 10
111.8218853139
 20
81.3883472059
 10
111.8230097536
 20
81.3377999024
 10
111.8241954227
 20
81.2889455834
 10
111.8254293327
 20
81.2423195486
 10
111.8266978444
 20
81.1984326686
 10
111.8279871017
 20
81.1577658137
 10
111.8292830432
 20
81.1207645638
 10
111.8305713766
 20
81.0878343177
 10
111.8318379607
 20
81.0593369054
 10
111.8330690221
 20
81.0355831719
 10
111.8342511507
 20
81.0168314522
 10
111.8353714087
 20
81.0032885958
 10
111.8364174892
 20
80.9951057379
  0
LWPOLYLINE
  5
48C
100
AcDbEntity
  8
RACCORDO
100
AcDbPolyline
 62
253
  6
CONTINUOUS
 90
16
 70
0
 10
113.6052618079
 20
81.52346157
 10
113.6062216077
 20
81.4711952885
 10
113.60726653
 20
81.4195018664
 10
113.6083851213
 20
81.368947885
 10
113.6095651208
 20
81.3200874372
 10
113.6107935947
 20
81.2734560538
 10
113.6120570777
 20
81.2295648342
 10
113.6133417209
 20
81.1888948444
 10
113.6146334436
 20
81.1518918445
 10
113.6159180873
 20
81.1189614028
 10
113.6171815711
 20
81.0904644507
 10
113.6184100462
 20
81.0667133266
 10
113.6195900473
 20
81.0479683528
 10
113.6207086406
 20
81.0344349819
 10
113.6217535651
 20
81.0262615453
 10
113.6227133676
 20
81.0235376274
  0
LINE
  5
48D
100
AcDbEntity
  8
RACCORDO
100
AcDbLine
 62
253
  6
CONTINUOUS
 10
112.2389126419
 20
80.9873057991
 11
112.2421923738
 21
80.7994100782
  0
LINE
  5
48E
100
AcDbEntity
  8
RACCORDO
100
AcDbLine
 62
253
  6
CONTINUOUS
 10
113.238882241
 20
81.0065025204
 11
113.2421923738
 21
80.8168651432
  0
LINE
  5
48F
100
AcDbEntity
  8
RACCORDO
100
AcDbLine
 62
7
  6
CONTINUOUS
 10
111.4921923738
 20
80.9863492451
 11
111.4921923738
 21
81.5164494104
  0
LINE
  5
490
100
AcDbEntity
  8
RACCORDO
100
AcDbLine
 62
7
  6
CONTINUOUS
 10
111.4921923738
 20
125.3260693396
 11
111.4921923738
 21
125.8561695049
  0
LINE
  5
491
100
AcDbEntity
  8
RACCORDO
100
AcDbLine
 62
7
  6
CONTINUOUS
 10
111.9921923738
 20
126.3995715385
 11
111.9921923738
 21
126.050963451
  0
LINE
  5
492
100
AcDbEntity
  8
RACCORDO
100
AcDbLine
 62
7
  6
CONTINUOUS
 10
111.9921923738
 20
80.791555299
 11
111.9921923738
 21
80.4429472115
  0
LINE
  5
493
100
AcDbEntity
  8
DRAFT
100
AcDbLine
 62
7
  6
CONTINUOUS
 10
112.1421923738
 20
125.246259375
 11
112.1421923738
 21
123.3749081235
  0
LINE
  5
494
100
AcDbEntity
  8
DRAFT
100
AcDbLine
 62
7
  6
CONTINUOUS
 10
112.1421923738
 20
83.4676106265
 11
112.1421923738
 21
81.596259375
  0
LINE
  5
495
100
AcDbEntity
  8
RACCORDO
100
AcDbLine
 62
253
  6
CONTINUOUS
 10
112.2421923738
 20
126.3995715385
 11
112.2421923738
 21
126.0431086718
  0
LINE
  5
496
100
AcDbEntity
  8
RACCORDO
100
AcDbLine
 62
253
  6
CONTINUOUS
 10
112.2421923738
 20
80.7994100782
 11
112.2421923738
 21
80.4429472115
  0
LINE
  5
497
100
AcDbEntity
  8
RACCORDO
100
AcDbLine
 62
253
  6
CONTINUOUS
 10
113.2421923738
 20
80.4429472115
 11
113.2421923738
 21
80.8168651432
  0
LINE
  5
498
100
AcDbEntity
  8
RACCORDO
100
AcDbLine
 62
253
  6
CONTINUOUS
 10
113.2421923738
 20
126.0256536068
 11
113.2421923738
 21
126.3995715385
  0
LINE
  5
499
100
AcDbEntity
  8
RACCORDO
100
AcDbLine
 62
253
  6
CONTINUOUS
 10
112.2389126418
 20
125.8552129509
 11
112.2421923738
 21
126.0431086718
  0
LINE
  5
49A
100
AcDbEntity
  8
RACCORDO
100
AcDbLine
 62
253
  6
CONTINUOUS
 10
113.2388822409
 20
125.8360162296
 11
113.2421923738
 21
126.0256536068
  0
LWPOLYLINE
  5
49B
100
AcDbEntity
  8
RACCORDO
100
AcDbPolyline
 62
253
  6
CONTINUOUS
 90
13
 70
0
 10
113.238882261
 20
125.8360173686
 10
113.2375938953
 20
125.8170037707
 10
113.23622852
 20
125.7930702032
 10
113.2348008899
 20
125.7644754185
 10
113.2333264343
 20
125.7315285627
 10
113.2318210914
 20
125.6945858331
 10
113.2303011357
 20
125.6540466277
 10
113.2287830026
 20
125.6103492266
 10
113.2272831108
 20
125.563966054
 10
113.2258176851
 20
125.5153985708
 10
113.224402581
 20
125.4651718528
 10
113.2230531138
 20
125.4138289143
 10
113.2217838927
 20
125.3619248371
  0
LINE
  5
49C
100
AcDbEntity
  8
21814000
100
AcDbLine
 62
253
  6
CONTINUOUS
 10
121.492481753
 20
116.0426880435
 11
121.7638689683
 21
116.3141164855
  0
LINE
  5
49D
100
AcDbEntity
  8
21814000
100
AcDbLine
 62
253
  6
CONTINUOUS
 10
123.3921923738
 20
117.399830933
 11
123.1208051301
 21
117.128402038
  0
LINE
  5
49E
100
AcDbEntity
  8
21814000
100
AcDbLine
 62
253
  6
CONTINUOUS
 10
134.4921923738
 20
117.311205375
 11
133.1925883362
 21
116.740872375
  0
LINE
  5
49F
100
AcDbEntity
  8
21814000
100
AcDbLine
 62
253
  6
CONTINUOUS
 10
128.9230950866
 20
95.875282375
 11
128.0612896609
 21
95.875282375
  0
LINE
  5
4A0
100
AcDbEntity
  8
21814000
100
AcDbLine
 62
253
  6
CONTINUOUS
 10
133.5607162521
 20
95.9641167835
 11
133.3750302627
 21
95.9641167835
  0
LINE
  5
4A1
100
AcDbEntity
  8
21814000
100
AcDbLine
 62
253
  6
CONTINUOUS
 10
130.2387862228
 20
97.404018375
 11
129.4344342922
 21
97.404018375
  0
LINE
  5
4A2
100
AcDbEntity
  8
21814000
100
AcDbLine
 62
253
  6
CONTINUOUS
 10
119.9921773783
 20
97.462756375
 11
117.0929307188
 21
97.462756375
  0
LINE
  5
4A3
100
AcDbEntity
  8
21814000
100
AcDbLine
 62
253
  6
CONTINUOUS
 10
117.9958966038
 20
95.854909375
 11
118.8711689264
 21
95.573819375
  0
LINE
  5
4A4
100
AcDbEntity
  8
21814000
100
AcDbLine
 62
253
  6
CONTINUOUS
 10
119.4220230925
 20
95.396897375
 11
119.9921773783
 21
95.213784375
  0
LINE
  5
4A5
100
AcDbEntity
  8
RACCORDO
100
AcDbLine
 62
7
  6
CONTINUOUS
 10
113.4921923738
 20
80.4429472115
 11
113.4921923738
 21
80.8247199224
  0
LINE
  5
4A6
100
AcDbEntity
  8
RACCORDO
100
AcDbLine
 62
7
  6
CONTINUOUS
 10
113.4921923738
 20
126.0177988276
 11
113.4921923738
 21
126.3995715385
  0
LINE
  5
4A7
100
AcDbEntity
  8
RACCORDO
100
AcDbLine
 62
253
  6
CONTINUOUS
 10
114.2421923738
 20
127.921259375
 11
114.2421923738
 21
127.2655969423
  0
LINE
  5
4A8
100
AcDbEntity
  8
RACCORDO
100
AcDbLine
 62
253
  6
CONTINUOUS
 10
114.2421923738
 20
79.5769218077
 11
114.2421923738
 21
78.921259375
  0
LINE
  5
4A9
100
AcDbEntity
  8
RACCORDO
100
AcDbLine
 62
7
  6
CONTINUOUS
 10
114.4921923738
 20
127.671259375
 11
114.4921923738
 21
127.2655969423
  0
LINE
  5
4AA
100
AcDbEntity
  8
RACCORDO
100
AcDbLine
 62
7
  6
CONTINUOUS
 10
114.4921923738
 20
79.5769218077
 11
114.4921923738
 21
79.171259375
  0
LINE
  5
4AB
100
AcDbEntity
  8
RACCORDO
100
AcDbLine
 62
7
  6
CONTINUOUS
 10
114.4921923738
 20
81.0387144399
 11
114.4921923738
 21
125.8038043101
  0
LINE
  5
4AC
100
AcDbEntity
  8
ASSI
100
AcDbLine
 62
7
  6
CONTINUOUS
 10
114.6921923738
 20
118.249872375
 11
114.6921923738
 21
116.144428375
  0
LINE
  5
4AD
100
AcDbEntity
  8
ASSI
100
AcDbLine
 62
7
  6
CONTINUOUS
 10
114.6921923738
 20
115.811090375
 11
114.6921923738
 21
115.311072375
  0
LINE
  5
4AE
100
AcDbEntity
  8
ASSI
100
AcDbLine
 62
7
  6
CONTINUOUS
 10
114.6921923738
 20
114.811065375
 11
114.6921923738
 21
112.365540375
  0
LINE
  5
4AF
100
AcDbEntity
  8
ASSI
100
AcDbLine
 62
7
  6
CONTINUOUS
 10
114.6921923738
 20
112.032196375
 11
114.6921923738
 21
109.926753375
  0
LINE
  5
4B0
100
AcDbEntity
  8
ASSI
100
AcDbLine
 62
7
  6
CONTINUOUS
 10
114.6921923738
 20
109.593409375
 11
114.6921923738
 21
107.592646375
  0
LINE
  5
4B1
100
AcDbEntity
  8
21814000
100
AcDbLine
 62
253
  6
CONTINUOUS
 10
123.3921923738
 20
115.906973596
 11
123.1208051301
 21
115.635545154
  0
LINE
  5
4B2
100
AcDbEntity
  8
21814000
100
AcDbLine
 62
253
  6
CONTINUOUS
 10
133.1925883362
 20
118.469125375
 11
133.9893105914
 21
118.944863375
  0
LINE
  5
4B3
100
AcDbEntity
  8
21814000
100
AcDbLine
 62
253
  6
CONTINUOUS
 10
129.4781799638
 20
100.196761375
 11
127.5614459529
 21
99.980522375
  0
LINE
  5
4B4
100
AcDbEntity
  8
21814000
100
AcDbLine
 62
253
  6
CONTINUOUS
 10
117.6292893014
 20
98.034781375
 11
118.3348033459
 21
98.034788375
  0
LINE
  5
4B5
100
AcDbEntity
  8
21814000
100
AcDbLine
 62
253
  6
CONTINUOUS
 10
118.8711619285
 20
98.042850375
 11
119.9921773783
 21
98.042785375
  0
LWPOLYLINE
  5
4B6
100
AcDbEntity
  8
21814000
100
AcDbPolyline
 62
253
  6
CONTINUOUS
 90
51
 70
0
 10
128.4921914962
 20
98.8032239483
 10
128.4419700418
 20
98.8044425385
 10
128.3917612023
 20
98.8080550739
 10
128.3416747567
 20
98.8139967015
 10
128.2918204838
 20
98.8222025684
 10
128.2423081627
 20
98.8326078216
 10
128.1932475724
 20
98.845147608
 10
128.1447484917
 20
98.8597570749
 10
128.0969206997
 20
98.8763713691
 10
128.0498739752
 20
98.8949256377
 10
127.9978666324
 20
98.9180918007
 10
127.9470077556
 20
98.9435175161
 10
127.897312763
 20
98.9710774121
 10
127.8487970729
 20
99.0006461165
 10
127.8014761038
 20
99.0320982574
 10
127.755365274
 20
99.0653084625
 10
127.7104800016
 20
99.1001513599
 10
127.6668357052
 20
99.1365015776
 10
127.6184040814
 20
99.1798197441
 10
127.5715928213
 20
99.2248374847
 10
127.5263755098
 20
99.2714430291
 10
127.4827257321
 20
99.3195246069
 10
127.4406170731
 20
99.3689704478
 10
127.4000231179
 20
99.4196687814
 10
127.3609174514
 20
99.4715078373
 10
127.3171040885
 20
99.5333437753
 10
127.2752352302
 20
99.5964865111
 10
127.2352623712
 20
99.6608400459
 10
127.1971370061
 20
99.7263083809
 10
127.1608106294
 20
99.7927955172
 10
127.1262347358
 20
99.8602054561
 10
127.0933519998
 20
99.9284728878
 10
127.0621387781
 20
99.9975105058
 10
127.0325614062
 20
100.0672611094
 10
127.0045862196
 20
100.1376674977
 10
126.9781795539
 20
100.2086724699
 10
126.9533077448
 20
100.2802188251
 10
126.9254379436
 20
100.3667310031
 10
126.8996854149
 20
100.4538907416
 10
126.8760050022
 20
100.5416481487
 10
126.8543515493
 20
100.6299533329
 10
126.8346798999
 20
100.7187564024
 10
126.8151220002
 20
100.8178261871
 10
126.7979313994
 20
100.9173750999
 10
126.7830903756
 20
101.0173305557
 10
126.7705812072
 20
101.1176199694
 10
126.7603861726
 20
101.2181707559
 10
126.7524875501
 20
101.31891033
 10
126.7468676179
 20
101.4197661068
 10
126.7435086546
 20
101.520665501
 10
126.7423929382
 20
101.6215359275
  0
LINE
  5
4B7
100
AcDbEntity
  8
21814000
100
AcDbLine
 62
253
  6
CONTINUOUS
 10
117.0929307188
 20
95.564887375
 11
117.0929307188
 21
96.144938375
  0
LINE
  5
4B8
100
AcDbEntity
  8
21814000
100
AcDbLine
 62
253
  6
CONTINUOUS
 10
117.0929307188
 20
97.462756375
 11
117.0929307188
 21
98.820971375
  0
LINE
  5
4B9
100
AcDbEntity
  8
21814000
100
AcDbLine
 62
253
  6
CONTINUOUS
 10
117.0929377166
 20
94.247083375
 11
117.0929377166
 21
93.370247375
  0
LINE
  5
4BA
100
AcDbEntity
  8
21814000
100
AcDbLine
 62
253
  6
CONTINUOUS
 10
117.0929377166
 20
92.287111375
 11
117.0929377166
 21
91.410274375
  0
LINE
  5
4BB
100
AcDbEntity
  8
21814000
100
AcDbLine
 62
253
  6
CONTINUOUS
 10
117.0929377166
 20
90.830274375
 11
117.0929377166
 21
90.250253375
  0
LINE
  5
4BC
100
AcDbEntity
  8
21814000
100
AcDbLine
 62
253
  6
CONTINUOUS
 10
117.0929377166
 20
89.863574375
 11
117.0929377166
 21
89.283545375
  0
LINE
  5
4BD
100
AcDbEntity
  8
21814000
100
AcDbLine
 62
253
  6
CONTINUOUS
 10
117.0929377166
 20
88.001288375
 11
117.0929377166
 21
87.614367826
  0
LINE
  5
4BE
100
AcDbEntity
  8
21814000
100
AcDbLine
 62
253
  6
CONTINUOUS
 10
117.0930746749
 20
118.413194375
 11
117.0930746749
 21
117.674143375
  0
LINE
  5
4BF
100
AcDbEntity
  8
21814000
100
AcDbLine
 62
253
  6
CONTINUOUS
 10
117.0930746749
 20
112.388159375
 11
117.0930746749
 21
111.649108375
  0
LINE
  5
4C0
100
AcDbEntity
  8
21814000
100
AcDbLine
 62
253
  6
CONTINUOUS
 10
117.0930746749
 20
107.009479375
 11
117.0930746749
 21
106.122049375
  0
LINE
  5
4C1
100
AcDbEntity
  8
21814000
100
AcDbLine
 62
253
  6
CONTINUOUS
 10
117.0930746749
 20
108.592392375
 11
117.0930746749
 21
109.214998375
  0
LINE
  5
4C2
100
AcDbEntity
  8
21814000
100
AcDbLine
 62
253
  6
CONTINUOUS
 10
117.0930746749
 20
113.713584375
 11
117.0930746749
 21
114.637398375
  0
LINE
  5
4C3
100
AcDbEntity
  8
21814000
100
AcDbLine
 62
253
  6
CONTINUOUS
 10
117.0930746749
 20
115.750013375
 11
117.0930746749
 21
116.332457375
  0
LWPOLYLINE
  5
4C4
100
AcDbEntity
  8
21814000
100
AcDbPolyline
 62
253
  6
CONTINUOUS
 90
54
 70
0
 10
117.574860957
 20
107.1078715059
 10
117.5783317403
 20
107.136181088
 10
117.5817326851
 20
107.1644993298
 10
117.585230524
 20
107.1928130781
 10
117.5874449519
 20
107.2097806048
 10
117.5897985207
 20
107.226729782
 10
117.5923355947
 20
107.243648604
 10
117.5951005383
 20
107.2605250654
 10
117.598137716
 20
107.2773471605
 10
117.600925446
 20
107.2913776976
 10
117.6039851493
 20
107.3053592269
 10
117.6073669934
 20
107.3192892397
 10
117.6095738532
 20
107.3275979066
 10
117.6119682006
 20
107.3358540368
 10
117.6146040756
 20
107.3440244577
 10
117.6175355182
 20
107.3520759968
 10
117.6208165683
 20
107.3599754816
 10
117.6244645152
 20
107.3676503102
 10
117.628483645
 20
107.3751454998
 10
117.6328462964
 20
107.3824644341
 10
117.6375248082
 20
107.3896104966
 10
117.6424915194
 20
107.396587071
 10
117.6477187688
 20
107.4033975407
 10
117.6531788951
 20
107.4100452893
 10
117.6588442373
 20
107.4165337005
 10
117.6646871342
 20
107.4228661578
 10
117.6706799246
 20
107.4290460448
 10
117.6794887611
 20
107.4376411368
 10
117.6885472249
 20
107.4459211175
 10
117.6978538435
 20
107.4538773471
 10
117.7074071446
 20
107.461501186
 10
117.7172056556
 20
107.4687839946
 10
117.727247904
 20
107.4757171333
 10
117.7375324174
 20
107.4822919623
 10
117.7480552202
 20
107.4885008617
 10
117.7588008833
 20
107.4943394507
 10
117.7697514632
 20
107.4998043849
 10
117.7808890167
 20
107.5048923199
 10
117.7921956005
 20
107.5095999112
 10
117.8036532715
 20
107.5139238145
 10
117.8152440862
 20
107.5178606853
 10
117.8278339266
 20
107.521661731
 10
117.8405435117
 20
107.5250334277
 10
117.8533594524
 20
107.5279975733
 10
117.8662683597
 20
107.5305759658
 10
117.8792568443
 20
107.532790403
 10
117.8923115173
 20
107.5346626828
 10
117.9054189895
 20
107.5362146032
 10
117.9185658718
 20
107.5374679621
 10
117.9317387752
 20
107.5384445574
 10
117.9449243105
 20
107.5391661871
 10
117.9581090887
 20
107.5396546489
 10
117.9712797207
 20
107.5399317409
 10
117.9844228173
 20
107.5400192609
  0
LINE
  5
4C5
100
AcDbEntity
  8
21814000
100
AcDbLine
 62
7
  6
CONTINUOUS
 10
117.988340762
 20
106.122049375
 11
118.8757705244
 21
107.0094791374
  0
LINE
  5
4C6
100
AcDbEntity
  8
21814000
100
AcDbLine
 62
253
  6
CONTINUOUS
 10
129.3604868224
 20
101.578288375
 11
127.3632883275
 21
101.338022375
  0
LINE
  5
4C7
100
AcDbEntity
  8
21814000
100
AcDbLine
 62
7
  6
CONTINUOUS
 10
136.4660456509
 20
102.0452184322
 11
138.2183390966
 21
102.1985242439
  0
LINE
  5
4C8
100
AcDbEntity
  8
21814000
100
AcDbLine
 62
7
  6
CONTINUOUS
 10
136.1921923738
 20
100.121259375
 11
136.3921923738
 21
100.121259375
  0
LINE
  5
4C9
100
AcDbEntity
  8
21814000
100
AcDbLine
 62
253
  6
CONTINUOUS
 10
127.2994527768
 20
95.841718375
 11
128.1612592023
 21
95.421259375
  0
LINE
  5
4CA
100
AcDbEntity
  8
21814000
100
AcDbLine
 62
253
  6
CONTINUOUS
 10
133.1893442732
 20
91.4141164736
 11
133.4678732961
 21
91.2284022764
  0
LWPOLYLINE
  5
4CB
100
AcDbEntity
  8
21814000
100
AcDbPolyline
 62
253
  6
CONTINUOUS
 90
73
 70
0
 10
118.8014361725
 20
99.166235375
 10
118.787732608
 20
99.1971045261
 10
118.7728381787
 20
99.2274700773
 10
118.756782168
 20
99.2572817925
 10
118.7395938593
 20
99.2864894361
 10
118.7213025361
 20
99.3150427719
 10
118.7019374818
 20
99.3428915643
 10
118.6815279797
 20
99.3699855773
 10
118.6601033133
 20
99.3962745751
 10
118.6376939422
 20
99.4217116659
 10
118.6143350312
 20
99.4462633343
 10
118.590062921
 20
99.4698994091
 10
118.5649139528
 20
99.492589719
 10
118.5389244673
 20
99.5143040929
 10
118.5121308056
 20
99.5350123594
 10
118.4845693085
 20
99.5546843473
 10
118.456276317
 20
99.5732898855
 10
118.4272896988
 20
99.5908004528
 10
118.3976534292
 20
99.6071941295
 10
118.3674130102
 20
99.6224506459
 10
118.3366139438
 20
99.6365497325
 10
118.3053017321
 20
99.6494711197
 10
118.273521877
 20
99.6611945379
 10
118.2413198807
 20
99.6716997175
 10
118.2087412452
 20
99.680966389
 10
118.1758320568
 20
99.6889768194
 10
118.1426407394
 20
99.6957234225
 10
118.1092163014
 20
99.7012011489
 10
118.0756077508
 20
99.7054049491
 10
118.041864096
 20
99.7083297735
 10
118.0080343453
 20
99.7099705728
 10
117.9741675067
 20
99.7103222973
 10
117.9403125887
 20
99.7093798976
 10
117.9065184962
 20
99.7071407957
 10
117.8728337214
 20
99.7036122987
 10
117.8393066534
 20
99.6988041856
 10
117.8059856812
 20
99.6927262349
 10
117.7729191939
 20
99.6853882255
 10
117.7401555804
 20
99.6767999361
 10
117.7077432298
 20
99.6669711454
 10
117.6757305311
 20
99.6559116321
 10
117.6441650093
 20
99.6436334926
 10
117.6130907336
 20
99.6301580938
 10
117.5825509088
 20
99.6155091202
 10
117.5525887402
 20
99.5997102561
 10
117.5232474327
 20
99.5827851862
 10
117.4945701914
 20
99.5647575949
 10
117.4666002213
 20
99.5456511667
 10
117.4393807275
 20
99.525489586
 10
117.4129533921
 20
99.5042986482
 10
117.3873538051
 20
99.4821125918
 10
117.3626160337
 20
99.4589677663
 10
117.338774145
 20
99.4349005209
 10
117.3158622061
 20
99.4099472051
 10
117.2939142841
 20
99.3841441683
 10
117.2729644462
 20
99.3575277598
 10
117.2530467595
 20
99.3301343289
 10
117.2341932435
 20
99.3020011531
 10
117.2164277276
 20
99.2731692214
 10
117.1997719935
 20
99.2436804509
 10
117.1842478231
 20
99.2135767584
 10
117.1698769982
 20
99.1829000611
 10
117.1566813005
 20
99.151692276
 10
117.1446825118
 20
99.1199953201
 10
117.133902414
 20
99.0878511103
 10
117.124360407
 20
99.0553041889
 10
117.1160663636
 20
99.0224095982
 10
117.1090277747
 20
98.9892250055
 10
117.1032521313
 20
98.9558080785
 10
117.0987469244
 20
98.9222164844
 10
117.095519645
 20
98.8885078909
 10
117.0935777839
 20
98.8547399653
 10
117.0929288322
 20
98.820970375
  0
LWPOLYLINE
  5
4CC
100
AcDbEntity
  8
21814000
100
AcDbPolyline
 62
253
  6
CONTINUOUS
 90
56
 70
0
 10
118.8757708191
 20
107.0094794325
 10
118.8730190165
 20
107.0806013978
 10
118.8699124708
 20
107.1517088857
 10
118.8662687361
 20
107.2227855507
 10
118.86306745
 20
107.2760920517
 10
118.8593572014
 20
107.3293753296
 10
118.8572539477
 20
107.3560301245
 10
118.8548471573
 20
107.3826572191
 10
118.8519867557
 20
107.409233894
 10
118.8485226688
 20
107.4357374299
 10
118.8443420155
 20
107.4620803741
 10
118.8394177281
 20
107.4883012175
 10
118.833756273
 20
107.5143732527
 10
118.8273641165
 20
107.5402697719
 10
118.8202516478
 20
107.5660203383
 10
118.8125254985
 20
107.591593997
 10
118.8042989117
 20
107.6170168148
 10
118.7956851307
 20
107.6423148583
 10
118.7837351576
 20
107.6758516844
 10
118.771164156
 20
107.7091515861
 10
118.7578374155
 20
107.7421528648
 10
118.7472548058
 20
107.7666730912
 10
118.7360730511
 20
107.7909282511
 10
118.7241942283
 20
107.8148560984
 10
118.7115204145
 20
107.8383943867
 10
118.6980199802
 20
107.8614053533
 10
118.683647597
 20
107.8839178602
 10
118.668418181
 20
107.9058821921
 10
118.6523466481
 20
107.9272486336
 10
118.6354479145
 20
107.9479674696
 10
118.617736896
 20
107.9679889847
 10
118.5992285088
 20
107.9872634636
 10
118.5799376688
 20
108.0057411911
 10
118.5598149597
 20
108.0234387985
 10
118.5389682482
 20
108.0402789774
 10
118.5174463316
 20
108.0562565705
 10
118.4952980075
 20
108.0713664203
 10
118.472572073
 20
108.0856033693
 10
118.4493173257
 20
108.0989622601
 10
118.4255825628
 20
108.1114379354
 10
118.4014165817
 20
108.1230252375
 10
118.3768595599
 20
108.1337260534
 10
118.3519537664
 20
108.1435547816
 10
118.3267330399
 20
108.1525333075
 10
118.3012312187
 20
108.1606835166
 10
118.2754821415
 20
108.1680272941
 10
118.2495196468
 20
108.1745865253
 10
118.2233775732
 20
108.1803830958
 10
118.1970897591
 20
108.1854388907
 10
118.1669456161
 20
108.1903350516
 10
118.1366807501
 20
108.1943436034
 10
118.106320225
 20
108.197513516
 10
118.0758891051
 20
108.1998937595
 10
118.0454124544
 20
108.2015333039
 10
118.0149153371
 20
108.2024811191
 10
117.9844228173
 20
108.2027861753
  0
LINE
  5
4CD
100
AcDbEntity
  8
21814000
100
AcDbLine
 62
253
  6
CONTINUOUS
 10
117.5748608846
 20
106.744655375
 11
117.5748608846
 21
107.107871375
  0
LINE
  5
4CE
100
AcDbEntity
  8
21814000
100
AcDbLine
 62
253
  6
CONTINUOUS
 10
117.6292893014
 20
98.740467375
 11
117.6292893014
 21
98.034781375
  0
LINE
  5
4CF
100
AcDbEntity
  8
21814000
100
AcDbLine
 62
253
  6
CONTINUOUS
 10
118.3348033459
 20
98.034788375
 11
118.3348033459
 21
98.740467375
  0
LINE
  5
4D0
100
AcDbEntity
  8
21814000
100
AcDbLine
 62
253
  6
CONTINUOUS
 10
118.3939843147
 20
106.744655375
 11
118.3939843147
 21
107.107871375
  0
LINE
  5
4D1
100
AcDbEntity
  8
21814000
100
AcDbLine
 62
253
  6
CONTINUOUS
 10
118.8711689264
 20
95.573819375
 11
118.8711689264
 21
96.136013375
  0
LINE
  5
4D2
100
AcDbEntity
  8
21814000
100
AcDbLine
 62
253
  6
CONTINUOUS
 10
118.8711689264
 20
98.549081375
 11
118.8711619285
 21
98.042850375
  0
LINE
  5
4D3
100
AcDbEntity
  8
21814000
100
AcDbLine
 62
253
  6
CONTINUOUS
 10
118.8757705244
 20
107.009479375
 11
118.8757705244
 21
106.744655375
  0
LINE
  5
4D4
100
AcDbEntity
  8
21814000
100
AcDbLine
 62
253
  6
CONTINUOUS
 10
118.8959543748
 20
118.429128375
 11
118.8959543748
 21
117.597750375
  0
LINE
  5
4D5
100
AcDbEntity
  8
21814000
100
AcDbLine
 62
253
  6
CONTINUOUS
 10
118.8959543748
 20
112.404202375
 11
118.8959543748
 21
111.572715375
  0
LINE
  5
4D6
100
AcDbEntity
  8
21814000
100
AcDbLine
 62
253
  6
CONTINUOUS
 10
119.3777405845
 20
111.412071375
 11
119.3777405845
 21
112.560808375
  0
LINE
  5
4D7
100
AcDbEntity
  8
21814000
100
AcDbLine
 62
253
  6
CONTINUOUS
 10
119.3777405845
 20
117.437105375
 11
119.3777405845
 21
118.585843375
  0
LINE
  5
4D8
100
AcDbEntity
  8
21814000
100
AcDbLine
 62
253
  6
CONTINUOUS
 10
119.4220230925
 20
96.312942375
 11
119.4220230925
 21
95.396897375
  0
LINE
  5
4D9
100
AcDbEntity
  8
21814000
100
AcDbLine
 62
253
  6
CONTINUOUS
 10
119.5104061641
 20
109.214998375
 11
119.5104061641
 21
110.287997375
  0
LINE
  5
4DA
100
AcDbEntity
  8
21814000
100
AcDbLine
 62
253
  6
CONTINUOUS
 10
130.4923446786
 20
110.6926881508
 11
130.6351800551
 21
110.7879258827
  0
LINE
  5
4DB
100
AcDbEntity
  8
21814000
100
AcDbLine
 62
7
  6
CONTINUOUS
 10
136.2017874058
 20
101.821259375
 11
136.3921923738
 21
101.821259375
  0
LINE
  5
4DC
100
AcDbEntity
  8
21814000
100
AcDbLine
 62
253
  6
CONTINUOUS
 10
133.4678732961
 20
94.4784019665
 11
133.839245275
 21
94.2926877693
  0
LINE
  5
4DD
100
AcDbEntity
  8
21814000
100
AcDbLine
 62
253
  6
CONTINUOUS
 10
133.1893442732
 20
92.4355451778
 11
133.4678732961
 21
92.2498306707
  0
LINE
  5
4DE
100
AcDbEntity
  8
21814000
100
AcDbLine
 62
253
  6
CONTINUOUS
 10
133.1893442732
 20
93.4569735722
 11
133.4678732961
 21
93.271259375
  0
LINE
  5
4DF
100
AcDbEntity
  8
21814000
100
AcDbLine
 62
253
  6
CONTINUOUS
 10
134.4891462769
 20
91.2284022764
 11
133.5607162521
 21
91.8784022764
  0
LINE
  5
4E0
100
AcDbEntity
  8
21814000
100
AcDbLine
 62
253
  6
CONTINUOUS
 10
134.4891462769
 20
92.2498306707
 11
133.5607162521
 21
92.8998309807
  0
LINE
  5
4E1
100
AcDbEntity
  8
21814000
100
AcDbLine
 62
253
  6
CONTINUOUS
 10
126.3868358323
 20
95.094559375
 11
128.7079676315
 21
93.034214375
  0
LWPOLYLINE
  5
4E2
100
AcDbEntity
  8
21814000
100
AcDbPolyline
 62
253
  6
CONTINUOUS
 90
53
 70
0
 10
126.3868358323
 20
95.094559375
 10
126.3764469328
 20
95.104093189
 10
126.3663590305
 20
95.113981332
 10
126.3565831139
 20
95.1242099022
 10
126.3471301714
 20
95.1347649974
 10
126.3380111918
 20
95.1456327157
 10
126.3292371634
 20
95.1567991552
 10
126.320819075
 20
95.1682504138
 10
126.3127679148
 20
95.1799725896
 10
126.3050946717
 20
95.1919517806
 10
126.297810334
 20
95.2041740848
 10
126.2909258903
 20
95.2166256002
 10
126.2844523292
 20
95.2292924249
 10
126.2784006392
 20
95.2421606568
 10
126.2727803914
 20
95.2552163071
 10
126.2675954875
 20
95.2684450392
 10
126.2628484117
 20
95.2818324297
 10
126.2585416482
 20
95.2953640549
 10
126.2546776812
 20
95.3090254915
 10
126.2512589949
 20
95.322802316
 10
126.2482880735
 20
95.3366801049
 10
126.2457674013
 20
95.3506444346
 10
126.2436994625
 20
95.3646808818
 10
126.2420867412
 20
95.3787750229
 10
126.2409317218
 20
95.3929124345
 10
126.2402368884
 20
95.407078693
 10
126.2400047252
 20
95.421259375
 10
126.2402368884
 20
95.435440057
 10
126.2409317218
 20
95.4496063155
 10
126.2420867412
 20
95.4637437271
 10
126.2436994625
 20
95.4778378682
 10
126.2457674013
 20
95.4918743154
 10
126.2482880735
 20
95.5058386451
 10
126.2512589949
 20
95.519716434
 10
126.2546776812
 20
95.5334932585
 10
126.2585416482
 20
95.5471546951
 10
126.2628484117
 20
95.5606863203
 10
126.2675954875
 20
95.5740737108
 10
126.2727803914
 20
95.5873024429
 10
126.2784006392
 20
95.6003580932
 10
126.2844523292
 20
95.6132263251
 10
126.2909258903
 20
95.6258931498
 10
126.297810334
 20
95.6383446652
 10
126.3050946717
 20
95.6505669694
 10
126.3127679148
 20
95.6625461604
 10
126.320819075
 20
95.6742683362
 10
126.3292371634
 20
95.6857195948
 10
126.3380111918
 20
95.6968860343
 10
126.3471301714
 20
95.7077537526
 10
126.3565831139
 20
95.7183088478
 10
126.3663590305
 20
95.728537418
 10
126.3764469328
 20
95.738425561
 10
126.3868358323
 20
95.747959375
  0
LINE
  5
4E3
100
AcDbEntity
  8
21814000
100
AcDbLine
 62
253
  6
CONTINUOUS
 10
133.3750302627
 20
88.4426879243
 11
133.1893442732
 21
88.6284021989
  0
LINE
  5
4E4
100
AcDbEntity
  8
21814000
100
AcDbLine
 62
253
  6
CONTINUOUS
 10
128.4921923738
 20
89.621259375
 11
127.4593160698
 21
90.952281375
  0
LINE
  5
4E5
100
AcDbEntity
  8
21814000
100
AcDbLine
 62
253
  6
CONTINUOUS
 10
119.9921923738
 20
88.352391375
 11
119.9921853759
 21
88.932435375
  0
LINE
  5
4E6
100
AcDbEntity
  8
21814000
100
AcDbLine
 62
253
  6
CONTINUOUS
 10
119.9921923738
 20
90.250245375
 11
119.9921853759
 21
90.830267375
  0
LINE
  5
4E7
100
AcDbEntity
  8
21814000
100
AcDbLine
 62
253
  6
CONTINUOUS
 10
119.9921853759
 20
92.538672375
 11
119.9921773783
 21
93.118679375
  0
LINE
  5
4E8
100
AcDbEntity
  8
21814000
100
AcDbLine
 62
253
  6
CONTINUOUS
 10
119.9921773783
 20
95.213784375
 11
119.9921853759
 21
94.633762375
  0
LINE
  5
4E9
100
AcDbEntity
  8
21814000
100
AcDbLine
 62
253
  6
CONTINUOUS
 10
119.9921703805
 20
99.783640375
 11
119.9921773783
 21
99.130335375
  0
LINE
  5
4EA
100
AcDbEntity
  8
21814000
100
AcDbLine
 62
253
  6
CONTINUOUS
 10
119.9921773783
 20
98.042785375
 11
119.9921773783
 21
97.462756375
  0
LINE
  5
4EB
100
AcDbEntity
  8
21814000
100
AcDbLine
 62
253
  6
CONTINUOUS
 10
119.9921853759
 20
91.410274375
 11
119.9921853759
 21
91.990296375
  0
LINE
  5
4EC
100
AcDbEntity
  8
21814000
100
AcDbLine
 62
253
  6
CONTINUOUS
 10
119.9921853759
 20
93.667062375
 11
119.9921853759
 21
94.247083375
  0
LINE
  5
4ED
100
AcDbEntity
  8
21814000
100
AcDbLine
 62
253
  6
CONTINUOUS
 10
119.9921923738
 20
116.332457375
 11
119.9921923738
 21
115.448805375
  0
LINE
  5
4EE
100
AcDbEntity
  8
21814000
100
AcDbLine
 62
253
  6
CONTINUOUS
 10
119.9921923738
 20
114.296029375
 11
119.9921923738
 21
113.713584375
  0
LINE
  5
4EF
100
AcDbEntity
  8
21814000
100
AcDbLine
 62
253
  6
CONTINUOUS
 10
119.9921923738
 20
110.287997375
 11
119.9921923738
 21
108.592392375
  0
LINE
  5
4F0
100
AcDbEntity
  8
21814000
100
AcDbLine
 62
253
  6
CONTINUOUS
 10
119.9921923738
 20
106.122049375
 11
119.9921923738
 21
106.744655375
  0
LINE
  5
4F1
100
AcDbEntity
  8
21814000
100
AcDbLine
 62
253
  6
CONTINUOUS
 10
119.9921923738
 20
110.600773375
 11
119.9921923738
 21
111.195223375
  0
LINE
  5
4F2
100
AcDbEntity
  8
21814000
100
AcDbLine
 62
253
  6
CONTINUOUS
 10
119.9921923738
 20
112.769690375
 11
119.9921923738
 21
113.396333375
  0
LINE
  5
4F3
100
AcDbEntity
  8
21814000
100
AcDbLine
 62
253
  6
CONTINUOUS
 10
119.9921923738
 20
116.625699375
 11
119.9921923738
 21
117.220148375
  0
LINE
  5
4F4
100
AcDbEntity
  8
21814000
100
AcDbLine
 62
253
  6
CONTINUOUS
 10
119.9921923738
 20
118.794833375
 11
119.9921923738
 21
119.421259375
  0
LINE
  5
4F5
100
AcDbEntity
  8
21814000
100
AcDbLine
 62
253
  6
CONTINUOUS
 10
119.9921853759
 20
97.076077375
 11
119.9921773783
 21
96.496048375
  0
LINE
  5
4F6
100
AcDbEntity
  8
26814000
100
AcDbLine
 62
7
  6
CONTINUOUS
 10
121.4921923738
 20
127.1747167365
 11
121.4921923738
 21
126.721259375
  0
LINE
  5
4F7
100
AcDbEntity
  8
RACCORDO
100
AcDbLine
 62
7
  6
CONTINUOUS
 10
121.4921923738
 20
126.721259375
 11
121.4921923738
 21
125.6816188556
  0
LINE
  5
4F8
100
AcDbEntity
  8
RACCORDO
100
AcDbLine
 62
7
  6
CONTINUOUS
 10
121.4921923738
 20
81.1608998944
 11
121.4921923738
 21
80.121259375
  0
LINE
  5
4F9
100
AcDbEntity
  8
26814000
100
AcDbLine
 62
7
  6
CONTINUOUS
 10
121.4921923738
 20
80.121259375
 11
121.4921923738
 21
79.6678020135
  0
LINE
  5
4FA
100
AcDbEntity
  8
21814000
100
AcDbLine
 62
253
  6
CONTINUOUS
 10
121.492481753
 20
115.906973596
 11
121.492481753
 21
116.0426880435
  0
LINE
  5
4FB
100
AcDbEntity
  8
21814000
100
AcDbLine
 62
253
  6
CONTINUOUS
 10
121.492481753
 20
117.399830933
 11
121.492481753
 21
117.535545154
  0
LWPOLYLINE
  5
4FC
100
AcDbEntity
  8
21814000
100
AcDbPolyline
 62
7
  6
CONTINUOUS
 90
7
 70
0
 10
135.3078995396
 20
114.5394967838
 10
135.3294868865
 20
114.5585708417
 10
135.35276983
 20
114.5756591173
 10
135.3777483701
 20
114.5907616104
 10
135.4044225069
 20
114.6038783211
 10
135.4327922403
 20
114.6150092494
 10
135.4628575703
 20
114.6241543954
  0
LINE
  5
4FD
100
AcDbEntity
  8
21814000
100
AcDbLine
 62
253
  6
CONTINUOUS
 10
134.4921923738
 20
113.876440375
 11
133.1925883362
 21
112.844315375
  0
LINE
  5
4FE
100
AcDbEntity
  8
21814000
100
AcDbLine
 62
253
  6
CONTINUOUS
 10
130.6351800551
 20
107.6926879124
 11
130.7780154316
 21
107.7641164497
  0
LINE
  5
4FF
100
AcDbEntity
  8
21814000
100
AcDbLine
 62
253
  6
CONTINUOUS
 10
131.3493569824
 20
107.3355451063
 11
131.206521591
 21
107.2641165689
  0
LINE
  5
500
100
AcDbEntity
  8
21814000
100
AcDbLine
 62
253
  6
CONTINUOUS
 10
130.6351800551
 20
106.9069736437
 11
130.7780154316
 21
106.9784021811
  0
LINE
  5
501
100
AcDbEntity
  8
21814000
100
AcDbLine
 62
253
  6
CONTINUOUS
 10
134.4921923738
 20
109.161483375
 11
133.1925883362
 21
108.591149375
  0
LINE
  5
502
100
AcDbEntity
  8
21814000
100
AcDbLine
 62
253
  6
CONTINUOUS
 10
130.4923446786
 20
105.9069736735
 11
131.4921923738
 21
106.192687972
  0
LWPOLYLINE
  5
503
100
AcDbEntity
  8
21814000
100
AcDbPolyline
 62
253
  6
CONTINUOUS
 90
81
 70
0
 10
127.9921923738
 20
105.8247456894
 10
128.0675908025
 20
105.8266642364
 10
128.1429163642
 20
105.8323603435
 10
128.2179697994
 20
105.8417447106
 10
128.2925518483
 20
105.8547280371
 10
128.3664632515
 20
105.8712210228
 10
128.4395047492
 20
105.8911343673
 10
128.5115476315
 20
105.9143940678
 10
128.582419745
 20
105.9408793409
 10
128.6520211024
 20
105.9704796648
 10
128.7202517163
 20
106.0030845177
 10
128.7870115994
 20
106.038583378
 10
128.8522007644
 20
106.0768657238
 10
128.9156718367
 20
106.1177781071
 10
128.9774359802
 20
106.1612232887
 10
129.0374539086
 20
106.2070660036
 10
129.0956863356
 20
106.2551709868
 10
129.1520939748
 20
106.3054029735
 10
129.2066375398
 20
106.3576266987
 10
129.2696407692
 20
106.4228026954
 10
129.3299093169
 20
106.4904883268
 10
129.3874541235
 20
106.5605152404
 10
129.4422861294
 20
106.6327150834
 10
129.4944162753
 20
106.7069195034
 10
129.5489790977
 20
106.791195758
 10
129.6002658918
 20
106.8775598834
 10
129.6482971631
 20
106.9658502677
 10
129.693093417
 20
107.0559052995
 10
129.734675159
 20
107.1475633672
 10
129.7730628946
 20
107.2406628591
 10
129.8082771292
 20
107.3350421635
 10
129.8403383684
 20
107.430539669
 10
129.8692671176
 20
107.5269937639
 10
129.898118481
 20
107.6365717196
 10
129.9230469667
 20
107.7470317736
 10
129.9440760083
 20
107.8582479118
 10
129.9612290396
 20
107.9700941202
 10
129.9745294941
 20
108.0824443847
 10
129.9840008057
 20
108.1951726914
 10
129.9896664079
 20
108.3081530262
 10
129.9915497345
 20
108.421259375
 10
129.9896664079
 20
108.5343657238
 10
129.9840008057
 20
108.6473460586
 10
129.9745294941
 20
108.7600743653
 10
129.9612290396
 20
108.8724246298
 10
129.9440760083
 20
108.9842708382
 10
129.9230469667
 20
109.0954869764
 10
129.898118481
 20
109.2059470304
 10
129.8692671176
 20
109.3155249861
 10
129.8403383684
 20
109.411979081
 10
129.8082771292
 20
109.5074765865
 10
129.7730628946
 20
109.6018558909
 10
129.734675159
 20
109.6949553828
 10
129.693093417
 20
109.7866134505
 10
129.6482971631
 20
109.8766684823
 10
129.6002658918
 20
109.9649588666
 10
129.5489790977
 20
110.051322992
 10
129.4944162753
 20
110.1355992466
 10
129.4422861294
 20
110.2098036666
 10
129.3874541235
 20
110.2820035096
 10
129.3299093169
 20
110.3520304232
 10
129.2696407692
 20
110.4197160546
 10
129.2066375398
 20
110.4848920513
 10
129.1520939748
 20
110.5371157765
 10
129.0956863356
 20
110.5873477632
 10
129.0374539086
 20
110.6354527464
 10
128.9774359802
 20
110.6812954613
 10
128.9156718367
 20
110.7247406429
 10
128.8522007644
 20
110.7656530262
 10
128.7870115994
 20
110.803935372
 10
128.7202517163
 20
110.8394342323
 10
128.6520211024
 20
110.8720390852
 10
128.582419745
 20
110.9016394091
 10
128.5115476315
 20
110.9281246822
 10
128.4395047492
 20
110.9513843827
 10
128.3664632515
 20
110.9712977272
 10
128.2925518483
 20
110.9877907129
 10
128.2179697994
 20
111.0007740394
 10
128.1429163642
 20
111.0101584065
 10
128.0675908025
 20
111.0158545136
 10
127.9921923738
 20
111.0177730606
  0
LWPOLYLINE
  5
504
100
AcDbEntity
  8
21814000
100
AcDbPolyline
 62
253
  6
CONTINUOUS
 90
51
 70
0
 10
128.4921915921
 20
104.4398479068
 10
128.5424130521
 20
104.4386293163
 10
128.5926218972
 20
104.43501678
 10
128.6427083484
 20
104.4290751511
 10
128.6925626268
 20
104.4208692824
 10
128.7420749532
 20
104.4104640269
 10
128.7911355488
 20
104.3979242377
 10
128.8396346346
 20
104.3833147678
 10
128.8874624314
 20
104.36670047
 10
128.9345091605
 20
104.3481461975
 10
128.9865165082
 20
104.3249800299
 10
129.0373753897
 20
104.2995543093
 10
129.0870703867
 20
104.2719944081
 10
129.1355860808
 20
104.2424256982
 10
129.182907054
 20
104.2109735518
 10
129.2290178878
 20
104.1777633412
 10
129.273903164
 20
104.1429204383
 10
129.3175474644
 20
104.1065702154
 10
129.3659790929
 20
104.0632520431
 10
129.4127903581
 20
104.0182342971
 10
129.458007675
 20
103.9716287478
 10
129.5016574588
 20
103.9235471657
 10
129.5437661247
 20
103.8741013211
 10
129.5843600878
 20
103.8234029845
 10
129.6234657633
 20
103.7715639263
 10
129.6672791386
 20
103.7097279867
 10
129.7091480114
 20
103.6465852505
 10
129.7491208874
 20
103.5822317164
 10
129.7872462724
 20
103.5167633831
 10
129.8235726721
 20
103.4502762496
 10
129.8581485922
 20
103.3828663147
 10
129.8910313584
 20
103.3145988879
 10
129.9222446143
 20
103.2455612757
 10
129.9518220243
 20
103.1758106788
 10
129.9797972528
 20
103.1054042981
 10
130.0062039644
 20
103.0343993342
 10
130.0310758235
 20
102.9628529878
 10
130.05894569
 20
102.8763408212
 10
130.0846982904
 20
102.7891810944
 10
130.1083787815
 20
102.7014236983
 10
130.1300323201
 20
102.6131185242
 10
130.149704063
 20
102.5243154632
 10
130.1692620747
 20
102.4252456867
 10
130.186452793
 20
102.3256967795
 10
130.2012939345
 20
102.2257413267
 10
130.213803216
 20
102.1254519137
 10
130.2239983542
 20
102.0249011255
 10
130.2318970659
 20
101.9241615476
 10
130.2375170679
 20
101.8233057651
 10
130.2408760767
 20
101.7224063634
 10
130.2419918093
 20
101.6215359275
  0
LINE
  5
505
100
AcDbEntity
  8
21814000
100
AcDbLine
 62
253
  6
CONTINUOUS
 10
129.346073214
 20
101.770500375
 11
127.4053215208
 21
102.306290375
  0
LINE
  5
506
100
AcDbEntity
  8
21814000
100
AcDbLine
 62
253
  6
CONTINUOUS
 10
133.1893442732
 20
95.4998309807
 11
133.4678732961
 21
95.3141167835
  0
LINE
  5
507
100
AcDbEntity
  8
21814000
100
AcDbLine
 62
253
  6
CONTINUOUS
 10
134.4891462769
 20
93.271259375
 11
133.5607162521
 21
93.921259375
  0
LINE
  5
508
100
AcDbEntity
  8
21814000
100
AcDbLine
 62
253
  6
CONTINUOUS
 10
134.4891462769
 20
95.3141167835
 11
133.5607162521
 21
95.9641167835
  0
LINE
  5
509
100
AcDbEntity
  8
21814000
100
AcDbLine
 62
253
  6
CONTINUOUS
 10
134.4891462769
 20
88.9069737271
 11
134.3034602681
 21
89.0926879243
  0
LINE
  5
50A
100
AcDbEntity
  8
21814000
100
AcDbLine
 62
253
  6
CONTINUOUS
 10
122.9851115224
 20
114.956973596
 11
122.9851115224
 21
114.0069737092
  0
LINE
  5
50B
100
AcDbEntity
  8
21814000
100
AcDbLine
 62
253
  6
CONTINUOUS
 10
123.3921923738
 20
117.535545154
 11
123.3921923738
 21
117.399830933
  0
LINE
  5
50C
100
AcDbEntity
  8
21814000
100
AcDbLine
 62
253
  6
CONTINUOUS
 10
123.3921923738
 20
116.0426880435
 11
123.3921923738
 21
115.906973596
  0
LINE
  5
50D
100
AcDbEntity
  8
21814000
100
AcDbLine
 62
253
  6
CONTINUOUS
 10
130.9208508081
 20
110.6926881508
 11
131.0636862144
 21
110.8355452255
  0
LINE
  5
50E
100
AcDbEntity
  8
21814000
100
AcDbLine
 62
253
  6
CONTINUOUS
 10
131.4921923738
 20
110.4784023003
 11
131.3493569824
 21
110.3355452255
  0
LINE
  5
50F
100
AcDbEntity
  8
21814000
100
AcDbLine
 62
253
  6
CONTINUOUS
 10
130.6351800551
 20
109.2641164497
 11
130.4923446786
 21
109.121259375
  0
LINE
  5
510
100
AcDbEntity
  8
21814000
100
AcDbLine
 62
253
  6
CONTINUOUS
 10
118.8014381719
 20
99.166237375
 11
119.9921703805
 21
99.783640375
  0
LINE
  5
511
100
AcDbEntity
  8
21814000
100
AcDbLine
 62
253
  6
CONTINUOUS
 10
119.9921773783
 20
99.130335375
 11
118.8711689264
 21
98.549081375
  0
LINE
  5
512
100
AcDbEntity
  8
21814000
100
AcDbLine
 62
253
  6
CONTINUOUS
 10
131.3493569824
 20
106.549830778
 11
131.206521591
 21
106.4784022407
  0
LINE
  5
513
100
AcDbEntity
  8
21814000
100
AcDbLine
 62
253
  6
CONTINUOUS
 10
134.4921923738
 20
107.224128375
 11
133.1925883362
 21
106.601259375
  0
LWPOLYLINE
  5
514
100
AcDbEntity
  8
21814000
100
AcDbPolyline
 62
253
  6
CONTINUOUS
 90
38
 70
0
 10
136.4579060321
 20
104.2254348837
 10
136.4508181838
 20
104.2233322168
 10
136.4436050501
 20
104.22071867
 10
136.4362666312
 20
104.2175942434
 10
136.4287840665
 20
104.2139659876
 10
136.4211762166
 20
104.2098268521
 10
136.4134996623
 20
104.2051556849
 10
136.4057475615
 20
104.1999313687
 10
136.3979267565
 20
104.194175021
 10
136.3901143549
 20
104.1879288424
 10
136.3823198936
 20
104.1811855056
 10
136.3745338357
 20
104.1739523379
 10
136.3668046785
 20
104.1662935218
 10
136.3591500853
 20
104.1582229765
 10
136.3515523927
 20
104.1497267828
 10
136.3440071076
 20
104.1408273657
 10
136.3365147878
 20
104.1315285503
 10
136.3290748754
 20
104.1218265116
 10
136.3216812042
 20
104.1117321987
 10
136.3143328519
 20
104.1012478154
 10
136.3070307407
 20
104.0903711579
 10
136.2997714709
 20
104.0791065641
 10
136.2925583828
 20
104.0674644442
 10
136.2853881361
 20
104.0554343881
 10
136.2782473096
 20
104.0429895037
 10
136.2711346227
 20
104.0301347355
 10
136.264051356
 20
104.0168651391
 10
136.2569879309
 20
104.0031389886
 10
136.2499408596
 20
103.988956893
 10
136.24291363
 20
103.9743182434
 10
136.2359071263
 20
103.9591794875
 10
136.2289175966
 20
103.943539941
 10
136.2219487928
 20
103.9274002882
 10
136.2150128548
 20
103.9107190294
 10
136.2081064403
 20
103.8934965979
 10
136.2012328917
 20
103.8757325605
 10
136.1944143753
 20
103.8573841174
 10
136.1880404051
 20
103.8395541828
  0
LWPOLYLINE
  5
515
100
AcDbEntity
  8
21814000
100
AcDbPolyline
 62
253
  6
CONTINUOUS
 90
28
 70
0
 10
127.7810384123
 20
109.7240863297
 10
127.7900959429
 20
109.7260979135
 10
127.7990593633
 20
109.7285144484
 10
127.8079113946
 20
109.7313419902
 10
127.8193161285
 20
109.7356748248
 10
127.8304498965
 20
109.7406991935
 10
127.8412628445
 20
109.7463899216
 10
127.8517051183
 20
109.7527218342
 10
127.861726864
 20
109.7596697566
 10
127.8712782273
 20
109.7672085139
 10
127.8803093543
 20
109.7753129314
 10
127.8887703907
 20
109.7839578343
 10
127.8966363533
 20
109.7931238324
 10
127.903927031
 20
109.802749336
 10
127.9106885443
 20
109.8127773262
 10
127.9169670132
 20
109.823150784
 10
127.9228085582
 20
109.8338126903
 10
127.9282592994
 20
109.8447060263
 10
127.9333653571
 20
109.8557737728
 10
127.9381728516
 20
109.866958911
 10
127.945366664
 20
109.8850467181
 10
127.9520222044
 20
109.9032677735
 10
127.9582513501
 20
109.9215998399
 10
127.9641659785
 20
109.9400206803
 10
127.9698779671
 20
109.9585080572
 10
127.9836896254
 20
110.0049136984
 10
127.9968026111
 20
110.0515559346
 10
128.0091935267
 20
110.0983849251
  0
LINE
  5
516
100
AcDbEntity
  8
21814000
100
AcDbLine
 62
253
  6
CONTINUOUS
 10
117.0930746749
 20
106.122049375
 11
119.9921923738
 21
106.122049375
  0
LINE
  5
517
100
AcDbEntity
  8
21814000
100
AcDbLine
 62
253
  6
CONTINUOUS
 10
131.206521591
 20
106.4784022407
 11
130.7780154316
 21
106.4784022407
  0
LINE
  5
518
100
AcDbEntity
  8
21814000
100
AcDbLine
 62
253
  6
CONTINUOUS
 10
133.1925883362
 20
106.601259375
 11
134.4921923738
 21
106.601259375
  0
LINE
  5
519
100
AcDbEntity
  8
21814000
100
AcDbLine
 62
253
  6
CONTINUOUS
 10
119.9921923738
 20
106.744655375
 11
118.8757705244
 21
106.744655375
  0
LINE
  5
51A
100
AcDbEntity
  8
21814000
100
AcDbLine
 62
253
  6
CONTINUOUS
 10
118.3939843147
 20
106.744655375
 11
117.5748608846
 21
106.744655375
  0
LINE
  5
51B
100
AcDbEntity
  8
21814000
100
AcDbLine
 62
253
  6
CONTINUOUS
 10
130.7780154316
 20
106.9784021811
 11
131.206521591
 21
106.9784021811
  0
LINE
  5
51C
100
AcDbEntity
  8
21814000
100
AcDbLine
 62
253
  6
CONTINUOUS
 10
131.206521591
 20
107.2641165689
 11
130.7780154316
 21
107.2641165689
  0
LINE
  5
51D
100
AcDbEntity
  8
ASSI
100
AcDbLine
 62
7
  6
CONTINUOUS
 10
114.4921923738
 20
107.592646375
 11
114.6921923738
 21
107.592646375
  0
LINE
  5
51E
100
AcDbEntity
  8
21814000
100
AcDbLine
 62
253
  6
CONTINUOUS
 10
130.7780154316
 20
107.7641164497
 11
131.206521591
 21
107.7641164497
  0
LINE
  5
51F
100
AcDbEntity
  8
21814000
100
AcDbLine
 62
253
  6
CONTINUOUS
 10
134.4921923738
 20
107.846995375
 11
133.1925883362
 21
107.846995375
  0
LWPOLYLINE
  5
520
100
AcDbEntity
  8
21814000
100
AcDbPolyline
 62
253
  6
CONTINUOUS
 90
54
 70
0
 10
117.9844228173
 20
107.5400192609
 10
117.9975659139
 20
107.5399317409
 10
118.0107365459
 20
107.5396546489
 10
118.0239213241
 20
107.5391661871
 10
118.0371068594
 20
107.5384445574
 10
118.0502797628
 20
107.5374679621
 10
118.0634266451
 20
107.5362146032
 10
118.0765341173
 20
107.5346626828
 10
118.0895887903
 20
107.532790403
 10
118.1025772749
 20
107.5305759658
 10
118.1154861821
 20
107.5279975733
 10
118.1283021229
 20
107.5250334277
 10
118.141011708
 20
107.521661731
 10
118.1536015484
 20
107.5178606853
 10
118.1651923631
 20
107.5139238145
 10
118.176650034
 20
107.5095999112
 10
118.1879566179
 20
107.5048923199
 10
118.1990941714
 20
107.4998043849
 10
118.2100447513
 20
107.4943394507
 10
118.2207904143
 20
107.4885008617
 10
118.2313132172
 20
107.4822919623
 10
118.2415977306
 20
107.4757171333
 10
118.251639979
 20
107.4687839946
 10
118.26143849
 20
107.461501186
 10
118.2709917911
 20
107.4538773471
 10
118.2802984097
 20
107.4459211175
 10
118.2893568735
 20
107.4376411368
 10
118.29816571
 20
107.4290460448
 10
118.3041585004
 20
107.4228661578
 10
118.3100013973
 20
107.4165337005
 10
118.3156667395
 20
107.4100452893
 10
118.3211268658
 20
107.4033975407
 10
118.3263541152
 20
107.396587071
 10
118.3313208263
 20
107.3896104966
 10
118.3359993382
 20
107.3824644341
 10
118.3403619896
 20
107.3751454998
 10
118.3443811194
 20
107.3676503102
 10
118.3480290663
 20
107.3599754816
 10
118.3513101164
 20
107.3520759968
 10
118.354241559
 20
107.3440244577
 10
118.356877434
 20
107.3358540368
 10
118.3592717814
 20
107.3275979066
 10
118.3614786412
 20
107.3192892397
 10
118.3648604853
 20
107.3053592269
 10
118.3679201886
 20
107.2913776976
 10
118.3707079186
 20
107.2773471605
 10
118.3737450963
 20
107.2605250654
 10
118.3765100399
 20
107.243648604
 10
118.3790471139
 20
107.226729782
 10
118.3814006826
 20
107.2097806048
 10
118.3836151106
 20
107.1928130781
 10
118.3871129495
 20
107.1644993298
 10
118.3905138943
 20
107.136181088
 10
118.3939846776
 20
107.1078715059
  0
LINE
  5
521
100
AcDbEntity
  8
21814000
100
AcDbLine
 62
253
  6
CONTINUOUS
 10
133.1893442732
 20
94.7569735722
 11
133.4678732961
 21
94.4784019665
  0
LINE
  5
522
100
AcDbEntity
  8
RACCORDO
100
AcDbLine
 62
7
  6
CONTINUOUS
 10
124.4921923738
 20
124.6465563977
 11
124.4921923738
 21
121.9215532217
  0
LINE
  5
523
100
AcDbEntity
  8
RACCORDO
100
AcDbLine
 62
7
  6
CONTINUOUS
 10
124.4921923738
 20
84.9209655283
 11
124.4921923738
 21
82.1959623523
  0
LINE
  5
524
100
AcDbEntity
  8
21814000
100
AcDbLine
 62
253
  6
CONTINUOUS
 10
130.9208508081
 20
110.4784023003
 11
130.8494331497
 21
110.3831640915
  0
LINE
  5
525
100
AcDbEntity
  8
21814000
100
AcDbLine
 62
253
  6
CONTINUOUS
 10
131.0636862144
 20
108.4784023003
 11
130.9208508081
 21
108.3355449871
  0
LINE
  5
526
100
AcDbEntity
  8
21814000
100
AcDbLine
 62
253
  6
CONTINUOUS
 10
130.4923446786
 20
107.5498308376
 11
130.6351800551
 21
107.6926879124
  0
LINE
  5
527
100
AcDbEntity
  8
21814000
100
AcDbLine
 62
253
  6
CONTINUOUS
 10
130.4923446786
 20
106.7641165689
 11
130.6351800551
 21
106.9069736437
  0
LINE
  5
528
100
AcDbEntity
  8
21814000
100
AcDbLine
 62
253
  6
CONTINUOUS
 10
131.4921923738
 20
107.4784021811
 11
131.3493569824
 21
107.3355451063
  0
LINE
  5
529
100
AcDbEntity
  8
21814000
100
AcDbLine
 62
253
  6
CONTINUOUS
 10
131.4921923738
 20
106.6926879124
 11
131.3493569824
 21
106.549830778
  0
LWPOLYLINE
  5
52A
100
AcDbEntity
  8
21814000
100
AcDbPolyline
 62
253
  6
CONTINUOUS
 90
58
 70
0
 10
136.4660456509
 20
104.1954520464
 10
136.4607337442
 20
104.1933318316
 10
136.4553226147
 20
104.1907019804
 10
136.4498147294
 20
104.1875605833
 10
136.4442015545
 20
104.1839103231
 10
136.4384973345
 20
104.1797443546
 10
136.4327387304
 20
104.1750469889
 10
136.4269235906
 20
104.1697963363
 10
136.4210603695
 20
104.1640110535
 10
136.4152008787
 20
104.1577377628
 10
136.4093544055
 20
104.1509693808
 10
136.4035171644
 20
104.1437116012
 10
136.3977202302
 20
104.1360317004
 10
136.3919787129
 20
104.1279434691
 10
136.3862819155
 20
104.1194329204
 10
136.3806218771
 20
104.1105259865
 10
136.3750019046
 20
104.1012256942
 10
136.3694236232
 20
104.0915282015
 10
136.3638771084
 20
104.0814485878
 10
136.3583650627
 20
104.0709878694
 10
136.3528904706
 20
104.0601436327
 10
136.3474445764
 20
104.0489251963
 10
136.3420341168
 20
104.0373411965
 10
136.3366589456
 20
104.0253810955
 10
136.3313012399
 20
104.0130245623
 10
136.3259659357
 20
104.0002738468
 10
136.3206568726
 20
103.9871236251
 10
136.3153565538
 20
103.9735409591
 10
136.3100700982
 20
103.9595229847
 10
136.3048041472
 20
103.9450681575
 10
136.2995458075
 20
103.9301442115
 10
136.2943020514
 20
103.914746349
 10
136.2890812097
 20
103.8988736917
 10
136.2838749632
 20
103.882498587
 10
136.2786930859
 20
103.8656167227
 10
136.2735452687
 20
103.8482255776
 10
136.2684259939
 20
103.8302988867
 10
136.2633501722
 20
103.8118403757
 10
136.2583274127
 20
103.7928384252
 10
136.2533485124
 20
103.7732420157
 10
136.24843095
 20
103.7530481015
 10
136.243589883
 20
103.7322501457
 10
136.238818995
 20
103.7107895306
 10
136.234141037
 20
103.68865995
 10
136.2295769851
 20
103.6658564861
 10
136.2251265202
 20
103.6423198149
 10
136.2208172965
 20
103.618026943
 10
136.2166807078
 20
103.5929884151
 10
136.212732141
 20
103.5671926284
 10
136.2090106604
 20
103.5406359345
 10
136.205552186
 20
103.5133110759
 10
136.2023803056
 20
103.4851986281
 10
136.1995483147
 20
103.4563256239
 10
136.1970998282
 20
103.4266581982
 10
136.1950687168
 20
103.3960819223
 10
136.1935209894
 20
103.3645566755
 10
136.1925372323
 20
103.3321217998
 10
136.1921923738
 20
103.2987832528
  0
LINE
  5
52B
100
AcDbEntity
  8
21814000
100
AcDbLine
 62
253
  6
CONTINUOUS
 10
117.0929307188
 20
96.144938375
 11
119.9921853759
 21
97.076077375
  0
LWPOLYLINE
  5
52C
100
AcDbEntity
  8
21814000
100
AcDbPolyline
 62
253
  6
CONTINUOUS
 90
43
 70
0
 10
135.3078995396
 20
114.5394967838
 10
135.3316490268
 20
114.5462075608
 10
135.3557312319
 20
114.5498471381
 10
135.3801271886
 20
114.5504155158
 10
135.404866181
 20
114.5479444135
 10
135.429875844
 20
114.5424021115
 10
135.4549840845
 20
114.5336934512
 10
135.4802116012
 20
114.52159945
 10
135.5054900262
 20
114.5063390905
 10
135.5305195314
 20
114.4884741618
 10
135.5551856376
 20
114.4679814877
 10
135.5795669785
 20
114.4448842444
 10
135.6036592626
 20
114.4198137494
 10
135.6273825021
 20
114.3928850177
 10
135.6507831924
 20
114.3639830344
 10
135.6740400542
 20
114.3333940724
 10
135.6971246064
 20
114.3011841185
 10
135.7200167161
 20
114.2672871859
 10
135.742890699
 20
114.2317915868
 10
135.7657308028
 20
114.1946958082
 10
135.7884786691
 20
114.156001363
 10
135.8112253202
 20
114.1158011026
 10
135.8339210952
 20
114.0741020091
 10
135.8565138818
 20
114.0308971004
 10
135.8790699327
 20
113.9862582817
 10
135.9014900782
 20
113.9402426375
 10
135.9237354156
 20
113.8927930833
 10
135.9459271698
 20
113.8438102706
 10
135.967928679
 20
113.793342176
 10
135.9896682939
 20
113.741340823
 10
136.0112968196
 20
113.6875629328
 10
136.0326351702
 20
113.6319721848
 10
136.053522857
 20
113.5746048996
 10
136.0740282673
 20
113.515326761
 10
136.0938713323
 20
113.4540616505
 10
136.112790788
 20
113.3908856865
 10
136.1307159414
 20
113.3258929089
 10
136.147284086
 20
113.2587072037
 10
136.161979174
 20
113.1897046848
 10
136.1743519945
 20
113.1201077334
 10
136.1838849451
 20
113.0503238101
 10
136.1900199313
 20
112.9799454543
 10
136.1921923738
 20
112.9089726661
  0
LWPOLYLINE
  5
52D
100
AcDbEntity
  8
21814000
100
AcDbPolyline
 62
253
  6
CONTINUOUS
 90
88
 70
0
 10
127.7452660638
 20
110.4496489557
 10
127.729395891
 20
110.446780644
 10
127.7136164158
 20
110.4434014542
 10
127.6979492215
 20
110.4395018153
 10
127.6824158912
 20
110.4350721564
 10
127.6670380085
 20
110.4301029065
 10
127.6518371566
 20
110.4245844946
 10
127.6427905071
 20
110.420985423
 10
127.6338599242
 20
110.4171247553
 10
127.6250895484
 20
110.412943234
 10
127.6165235204
 20
110.408381602
 10
127.6082059809
 20
110.4033806019
 10
127.6002202124
 20
110.3979258772
 10
127.5925535636
 20
110.3920064551
 10
127.585235602
 20
110.385651021
 10
127.578295895
 20
110.37888826
 10
127.5717640101
 20
110.3717468577
 10
127.5656294196
 20
110.3642229632
 10
127.5598909596
 20
110.3563954005
 10
127.5545032544
 20
110.3483137512
 10
127.5494209283
 20
110.3400275971
 10
127.5445986058
 20
110.3315865198
 10
127.5388837827
 20
110.3208843118
 10
127.5334959177
 20
110.3100266485
 10
127.5284269926
 20
110.2990224846
 10
127.5236689894
 20
110.2878807746
 10
127.5178010255
 20
110.2728288664
 10
127.5124849548
 20
110.2575695136
 10
127.5077343318
 20
110.2421238119
 10
127.5035548837
 20
110.2265084073
 10
127.4999298679
 20
110.2107560633
 10
127.4968342955
 20
110.1948952132
 10
127.4942394829
 20
110.1789658193
 10
127.4920886889
 20
110.1629693007
 10
127.4903223693
 20
110.1469184645
 10
127.4888809798
 20
110.1308261173
 10
127.487704976
 20
110.1147050662
 10
127.4867348136
 20
110.098568118
 10
127.48612434
 20
110.0864532908
 10
127.4856810097
 20
110.0743386607
 10
127.4854895539
 20
110.0622261656
 10
127.4856347039
 20
110.0501177434
 10
127.4861774241
 20
110.0380272939
 10
127.4870869646
 20
110.0259513701
 10
127.4883095648
 20
110.0138984976
 10
127.489791464
 20
110.001877202
 10
127.4921005765
 20
109.9859221214
 10
127.4947959362
 20
109.9700384562
 10
127.4978989749
 20
109.9542264429
 10
127.5014311245
 20
109.938486318
 10
127.5054138166
 20
109.9228183178
 10
127.509868483
 20
109.9072226789
 10
127.5131089578
 20
109.8968906251
 10
127.5165983609
 20
109.8866260137
 10
127.5203671277
 20
109.8764641388
 10
127.5244456939
 20
109.8664402948
 10
127.5288644948
 20
109.8565897757
 10
127.5336539661
 20
109.8469478759
 10
127.5388445431
 20
109.8375498896
 10
127.5444666614
 20
109.828431111
 10
127.5505507564
 20
109.8196268343
 10
127.5564665446
 20
109.8119531905
 10
127.5627341026
 20
109.8045419194
 10
127.5693021183
 20
109.7973690553
 10
127.5761192793
 20
109.7904106326
 10
127.5831342736
 20
109.7836426855
 10
127.5903175224
 20
109.7770443562
 10
127.5976724586
 20
109.7706564568
 10
127.6052238826
 20
109.7645224908
 10
127.6129965944
 20
109.7586859617
 10
127.6210153944
 20
109.7531903734
 10
127.629247806
 20
109.7481032395
 10
127.6377237162
 20
109.7434112401
 10
127.6464188854
 20
109.7391295365
 10
127.6553090741
 20
109.7352732897
 10
127.6643700428
 20
109.7318576608
 10
127.6736408613
 20
109.728874743
 10
127.6830422921
 20
109.7263404276
 10
127.6925564353
 20
109.7242414061
 10
127.7021653913
 20
109.7225643699
 10
127.7118512602
 20
109.7212960103
 10
127.7217234568
 20
109.7204177096
 10
127.731634968
 20
109.7199526342
 10
127.7415645414
 20
109.7199082324
 10
127.7514909249
 20
109.7202919528
 10
127.7613928661
 20
109.7211112435
 10
127.7712491126
 20
109.722373553
 10
127.7810384123
 20
109.7240863297
  0
LWPOLYLINE
  5
52E
100
AcDbEntity
  8
21814000
100
AcDbPolyline
 62
253
  6
CONTINUOUS
 90
56
 70
0
 10
117.9844228173
 20
108.2027861753
 10
117.9539302975
 20
108.2024811191
 10
117.9234331802
 20
108.2015333039
 10
117.8929565295
 20
108.1998937595
 10
117.8625254096
 20
108.197513516
 10
117.8321648845
 20
108.1943436034
 10
117.8019000185
 20
108.1903350516
 10
117.7717558755
 20
108.1854388907
 10
117.7454680614
 20
108.1803830958
 10
117.7193259877
 20
108.1745865253
 10
117.6933634931
 20
108.1680272941
 10
117.6676144159
 20
108.1606835166
 10
117.6421125947
 20
108.1525333075
 10
117.6168918682
 20
108.1435547816
 10
117.5919860747
 20
108.1337260534
 10
117.5674290529
 20
108.1230252375
 10
117.5432630718
 20
108.1114379354
 10
117.5195283089
 20
108.0989622601
 10
117.4962735616
 20
108.0856033693
 10
117.4735476271
 20
108.0713664203
 10
117.451399303
 20
108.0562565705
 10
117.4298773864
 20
108.0402789774
 10
117.4090306749
 20
108.0234387985
 10
117.3889079658
 20
108.0057411911
 10
117.3696171258
 20
107.9872634636
 10
117.3511087386
 20
107.9679889847
 10
117.3333977201
 20
107.9479674696
 10
117.3164989865
 20
107.9272486336
 10
117.3004274536
 20
107.9058821921
 10
117.2851980376
 20
107.8839178602
 10
117.2708256544
 20
107.8614053533
 10
117.2573252201
 20
107.8383943867
 10
117.2446514063
 20
107.8148560984
 10
117.2327725835
 20
107.7909282511
 10
117.2215908288
 20
107.7666730912
 10
117.2110082191
 20
107.7421528648
 10
117.1976814786
 20
107.7091515861
 10
117.185110477
 20
107.6758516844
 10
117.1731605039
 20
107.6423148583
 10
117.1645467229
 20
107.6170168148
 10
117.1563201361
 20
107.591593997
 10
117.1485939867
 20
107.5660203383
 10
117.141481518
 20
107.5402697719
 10
117.1350893616
 20
107.5143732527
 10
117.1294279065
 20
107.4883012175
 10
117.1245036191
 20
107.4620803741
 10
117.1203229658
 20
107.4357374299
 10
117.1168588789
 20
107.409233894
 10
117.1139984773
 20
107.3826572191
 10
117.1115916868
 20
107.3560301245
 10
117.1094884332
 20
107.3293753296
 10
117.1057781846
 20
107.2760920517
 10
117.1025768985
 20
107.2227855507
 10
117.0989331638
 20
107.1517088857
 10
117.095826618
 20
107.0806013978
 10
117.0930748155
 20
107.0094794325
  0
LINE
  5
52F
100
AcDbEntity
  8
21814000
100
AcDbLine
 62
253
  6
CONTINUOUS
 10
130.9208508081
 20
108.0498308376
 11
130.4923446786
 21
108.0498308376
  0
LINE
  5
530
100
AcDbEntity
  8
ASSI
100
AcDbLine
 62
7
  6
CONTINUOUS
 10
114.4921923738
 20
108.155840375
 11
114.6921923738
 21
108.155840375
  0
LINE
  5
531
100
AcDbEntity
  8
21814000
100
AcDbLine
 62
253
  6
CONTINUOUS
 10
131.3493569824
 20
108.4784023003
 11
131.0636862144
 21
108.4784023003
  0
LINE
  5
532
100
AcDbEntity
  8
21814000
100
AcDbLine
 62
253
  6
CONTINUOUS
 10
119.9921923738
 20
108.592392375
 11
117.0930746749
 21
108.592392375
  0
LINE
  5
533
100
AcDbEntity
  8
ASSI
100
AcDbLine
 62
7
  6
CONTINUOUS
 10
114.4921923738
 20
108.656921375
 11
114.6921923738
 21
108.656921375
  0
LINE
  5
534
100
AcDbEntity
  8
21814000
100
AcDbLine
 62
7
  6
CONTINUOUS
 10
136.1921923738
 20
108.921259375
 11
136.3921923738
 21
108.921259375
  0
LINE
  5
535
100
AcDbEntity
  8
ASSI
100
AcDbLine
 62
7
  6
CONTINUOUS
 10
114.4921923738
 20
109.093384375
 11
114.6921923738
 21
109.093384375
  0
LINE
  5
536
100
AcDbEntity
  8
21814000
100
AcDbLine
 62
253
  6
CONTINUOUS
 10
117.0930746749
 20
109.214998375
 11
119.5104061641
 21
109.214998375
  0
LINE
  5
537
100
AcDbEntity
  8
21814000
100
AcDbLine
 62
253
  6
CONTINUOUS
 10
130.7780154316
 20
109.2641164497
 11
130.6351800551
 21
109.2641164497
  0
LINE
  5
538
100
AcDbEntity
  8
21814000
100
AcDbLine
 62
253
  6
CONTINUOUS
 10
133.1925883362
 20
109.331666375
 11
134.4921923738
 21
109.331666375
  0
LINE
  5
539
100
AcDbEntity
  8
ASSI
100
AcDbLine
 62
7
  6
CONTINUOUS
 10
114.4921923738
 20
109.593409375
 11
114.6921923738
 21
109.593409375
  0
LINE
  5
53A
100
AcDbEntity
  8
21814000
100
AcDbLine
 62
253
  6
CONTINUOUS
 10
131.4921923738
 20
109.8831640915
 11
130.9922685262
 21
109.8831640915
  0
LINE
  5
53B
100
AcDbEntity
  8
21814000
100
AcDbLine
 62
253
  6
CONTINUOUS
 10
136.187521409
 20
109.0195480113
 11
136.1880404051
 21
109.0195479393
  0
LINE
  5
53C
100
AcDbEntity
  8
21814000
100
AcDbLine
 62
7
  6
CONTINUOUS
 10
136.4660456509
 20
108.1973003178
 11
138.2183390966
 21
108.0439945061
  0
LINE
  5
53D
100
AcDbEntity
  8
21814000
100
AcDbLine
 62
253
  6
CONTINUOUS
 10
131.4921923738
 20
105.621259375
 11
130.4923446786
 21
105.9069736735
  0
LINE
  5
53E
100
AcDbEntity
  8
21814000
100
AcDbLine
 62
253
  6
CONTINUOUS
 10
134.4891462769
 20
94.7569735722
 11
134.3034602681
 21
94.9426877693
  0
LWPOLYLINE
  5
53F
100
AcDbEntity
  8
21814000
100
AcDbPolyline
 62
253
  6
CONTINUOUS
 90
7
 70
0
 10
136.1880404051
 20
91.7220152933
 10
136.1903962643
 20
91.7189321635
 10
136.2088678846
 20
91.6968372926
 10
136.2282652336
 20
91.6747861835
 10
136.2484565613
 20
91.6526766576
 10
136.2695736176
 20
91.6306108935
 10
136.2916164026
 20
91.6085888911
  0
LWPOLYLINE
  5
540
100
AcDbEntity
  8
21814000
100
AcDbPolyline
 62
253
  6
CONTINUOUS
 90
12
 70
0
 10
127.1461986547
 20
114.8862768107
 10
127.1458691886
 20
114.8999165316
 10
127.1456428796
 20
114.9135560445
 10
127.1455197746
 20
114.9271944226
 10
127.1454999201
 20
114.940830739
 10
127.145583363
 20
114.9544640669
 10
127.14577015
 20
114.9680934796
 10
127.1460603277
 20
114.9817180501
 10
127.146453943
 20
114.9953368518
 10
127.1469510425
 20
115.0089489577
 10
127.147551673
 20
115.022553441
 10
127.1482558813
 20
115.036149375
  0
LINE
  5
541
100
AcDbEntity
  8
21814000
100
AcDbLine
 62
253
  6
CONTINUOUS
 10
126.8572844963
 20
89.373470375
 11
126.8572844963
 21
89.869048375
  0
LWPOLYLINE
  5
542
100
AcDbEntity
  8
21814000
100
AcDbPolyline
 62
253
  6
CONTINUOUS
 90
51
 70
0
 10
126.7423929382
 20
101.6215359275
 10
126.7435086591
 20
101.7224063497
 10
126.7468676352
 20
101.823305739
 10
126.7524875869
 20
101.9241615105
 10
126.7603862348
 20
102.0249010787
 10
126.7705812992
 20
102.1254518586
 10
126.7830905005
 20
102.2257412649
 10
126.7979315592
 20
102.3256967124
 10
126.8151221956
 20
102.4252456158
 10
126.8346801302
 20
102.52431539
 10
126.8543518098
 20
102.6131184498
 10
126.8760052906
 20
102.7014236238
 10
126.8996857279
 20
102.7891810208
 10
126.9254382773
 20
102.8763407495
 10
126.9533080942
 20
102.9628529188
 10
126.9781799122
 20
103.0343992681
 10
127.0045865829
 20
103.1054042354
 10
127.0325617708
 20
103.1758106201
 10
127.0621391406
 20
103.2455612216
 10
127.0933523568
 20
103.3145988391
 10
127.1262350841
 20
103.3828662719
 10
127.1608109662
 20
103.4502762136
 10
127.1971373288
 20
103.5167633545
 10
127.2352626778
 20
103.5822316957
 10
127.2752355191
 20
103.6465852382
 10
127.3171043587
 20
103.7097279831
 10
127.3609177023
 20
103.7715639316
 10
127.400023352
 20
103.8234029974
 10
127.4406172907
 20
103.8741013415
 10
127.4827259337
 20
103.9235471931
 10
127.5263756962
 20
103.9716287817
 10
127.5715929935
 20
104.0182343366
 10
127.6184042409
 20
104.0632520871
 10
127.6668358536
 20
104.1065702626
 10
127.7104801416
 20
104.1429204869
 10
127.7553654069
 20
104.1777633901
 10
127.8014762309
 20
104.2109736001
 10
127.8487971951
 20
104.2424257448
 10
127.8973128811
 20
104.2719944521
 10
127.9470078704
 20
104.2995543501
 10
127.9978667445
 20
104.3249800666
 10
128.0498740848
 20
104.3481462296
 10
128.0969208075
 20
104.3667004976
 10
128.144748598
 20
104.3833147906
 10
128.1932476772
 20
104.3979242557
 10
128.2423082661
 20
104.4104640403
 10
128.2918205858
 20
104.4208692915
 10
128.3416748573
 20
104.4290751565
 10
128.3917613014
 20
104.4350167826
 10
128.4419701394
 20
104.438629317
 10
128.4921915921
 20
104.4398479068
  0
LWPOLYLINE
  5
543
100
AcDbEntity
  8
21814000
100
AcDbPolyline
 62
253
  6
CONTINUOUS
 90
83
 70
0
 10
126.39766757
 20
119.421262375
 10
126.3957194592
 20
119.323694205
 10
126.3975163313
 20
119.2260247059
 10
126.4030483141
 20
119.1284234902
 10
126.4123055354
 20
119.0310601701
 10
126.4252781231
 20
118.9341043579
 10
126.4419562049
 20
118.8377256659
 10
126.4623242877
 20
118.7420871542
 10
126.4863443945
 20
118.6473256737
 10
126.5139729271
 20
118.5535715235
 10
126.5451662877
 20
118.4609550022
 10
126.5798808779
 20
118.3696064087
 10
126.6180731
 20
118.2796560418
 10
126.6596943891
 20
118.1912334271
 10
126.7046763138
 20
118.1044649967
 10
126.7529454763
 20
118.0194764095
 10
126.8044284784
 20
117.9363933245
 10
126.8590519223
 20
117.8553414006
 10
126.9167424098
 20
117.7764462966
 10
126.9774221479
 20
117.6998299401
 10
127.0409957629
 20
117.6255993335
 10
127.1073634858
 20
117.5538577478
 10
127.176425548
 20
117.484708454
 10
127.2480821804
 20
117.4182547231
 10
127.3222336144
 20
117.3545998261
 10
127.3987765811
 20
117.2938428934
 10
127.4775938125
 20
117.236066492
 10
127.5585645405
 20
117.1813490485
 10
127.6415679972
 20
117.1297689894
 10
127.7264834146
 20
117.0814047409
 10
127.8131900247
 20
117.0363347297
 10
127.9015646144
 20
116.9946324196
 10
127.9914741911
 20
116.9563514242
 10
128.082783317
 20
116.9215403946
 10
128.1753565542
 20
116.890247982
 10
128.2690584651
 20
116.8625228373
 10
128.3637536118
 20
116.8384136118
 10
128.4593053019
 20
116.8179636031
 10
128.5555718242
 20
116.8011946962
 10
128.6524102126
 20
116.7881234227
 10
128.7496775012
 20
116.778766314
 10
128.847230724
 20
116.7731399017
 10
128.9449269151
 20
116.7712607175
 10
129.0426231085
 20
116.7731397823
 10
129.1401763382
 20
116.7787660754
 10
129.2374436383
 20
116.7881230652
 10
129.3342820427
 20
116.8011942204
 10
129.4305485854
 20
116.8179630097
 10
129.5261003005
 20
116.8384129015
 10
129.6207954766
 20
116.8625220114
 10
129.7144974214
 20
116.8902470415
 10
129.8070706968
 20
116.921539341
 10
129.8983798652
 20
116.956350259
 10
129.9882894886
 20
116.9946311445
 10
130.0766641293
 20
117.0363333466
 10
130.1633707944
 20
117.0814032519
 10
130.2482862709
 20
117.1297673966
 10
130.3312897906
 20
117.1813473543
 10
130.4122605855
 20
117.2360646988
 10
130.4910778874
 20
117.2938410038
 10
130.5676209284
 20
117.3545978431
 10
130.6417724401
 20
117.4182526494
 10
130.7134291537
 20
117.4847062927
 10
130.7824913003
 20
117.5538555021
 10
130.8488591108
 20
117.6255970067
 10
130.9124328164
 20
117.6998275357
 10
130.9731126481
 20
117.776443818
 10
131.030803232
 20
117.8553388515
 10
131.0854267748
 20
117.9363907087
 10
131.1369098785
 20
118.0194737308
 10
131.1851791447
 20
118.1044622589
 10
131.2301611755
 20
118.1912306344
 10
131.2717825725
 20
118.2796531982
 10
131.3099749044
 20
118.3696035184
 10
131.3446896063
 20
118.4609520695
 10
131.3758830799
 20
118.5535685527
 10
131.4035117271
 20
118.6473226692
 10
131.4275319496
 20
118.7420841202
 10
131.4479001492
 20
118.8377226071
 10
131.4645783487
 20
118.9341012787
 10
131.4775510548
 20
119.031057075
 10
131.486808395
 20
119.1284203838
 10
131.492340497
 20
119.2260215928
  0
LWPOLYLINE
  5
544
100
AcDbEntity
  8
21814000
100
AcDbPolyline
 62
253
  6
CONTINUOUS
 90
83
 70
0
 10
126.39766757
 20
115.036149375
 10
126.395719574
 20
114.9385812427
 10
126.3975165581
 20
114.8409117858
 10
126.4030486499
 20
114.7433106166
 10
126.4123059771
 20
114.645947347
 10
126.4252786672
 20
114.5489915891
 10
126.441956848
 20
114.4526129551
 10
126.4623250262
 20
114.3569745048
 10
126.4863452245
 20
114.2622130891
 10
126.5139738448
 20
114.1684590066
 10
126.545167289
 20
114.0758425559
 10
126.579881959
 20
113.9844940357
 10
126.6180742566
 20
113.8945437446
 10
126.659695617
 20
113.8061212078
 10
126.7046776088
 20
113.7193528575
 10
126.7529468341
 20
113.6343643523
 10
126.8044298947
 20
113.5512813508
 10
126.8590533926
 20
113.4702295118
 10
126.9167439299
 20
113.3913344939
 10
126.9774237132
 20
113.3147182246
 10
127.040997369
 20
113.2404877059
 10
127.1073651284
 20
113.1687462087
 10
127.1764272226
 20
113.0995970037
 10
127.2480838828
 20
113.0331433618
 10
127.3222353401
 20
112.9694885539
 10
127.3987783259
 20
112.9087317099
 10
127.4775955722
 20
112.8509553968
 10
127.558566311
 20
112.796238041
 10
127.6415697743
 20
112.7446580687
 10
127.7264851944
 20
112.6962939061
 10
127.8131918031
 20
112.6512239796
 10
127.9015663878
 20
112.6095217528
 10
127.9914759556
 20
112.5712408392
 10
128.082785069
 20
112.5364298898
 10
128.1753582903
 20
112.5051375554
 10
128.2690601818
 20
112.4774124871
 10
128.363755306
 20
112.4533033358
 10
128.4593069704
 20
112.4328533991
 10
128.555573464
 20
112.4160845618
 10
128.6524118209
 20
112.4030133552
 10
128.7496790753
 20
112.393656311
 10
128.8472322615
 20
112.3880299605
 10
128.9449284135
 20
112.3861508351
 10
129.0426245657
 20
112.388029956
 10
129.1401777521
 20
112.393656302
 10
129.2374450069
 20
112.4030133417
 10
129.3342833645
 20
112.4160845438
 10
129.4305498588
 20
112.4328533767
 10
129.5261015242
 20
112.453303309
 10
129.6207966494
 20
112.4774124559
 10
129.7144985423
 20
112.5051375199
 10
129.807071765
 20
112.53642985
 10
129.89838088
 20
112.5712407952
 10
129.9882904496
 20
112.6095217046
 10
130.0766650362
 20
112.6512239274
 10
130.163371647
 20
112.6962938499
 10
130.2482870693
 20
112.7446580085
 10
130.331290535
 20
112.796237977
 10
130.4122612763
 20
112.8509553291
 10
130.4910785252
 20
112.9087316385
 10
130.5676215139
 20
112.969488479
 10
130.6417729741
 20
113.0331432835
 10
130.7134296374
 20
113.0995969221
 10
130.7824917348
 20
113.1687461239
 10
130.8488594975
 20
113.240487618
 10
130.9124331567
 20
113.3147181338
 10
130.9731129436
 20
113.3913344003
 10
131.0308034844
 20
113.4702294155
 10
131.0854269861
 20
113.551281252
 10
131.1369100505
 20
113.6343642511
 10
131.1851792797
 20
113.7193527541
 10
131.2301612756
 20
113.8061211024
 10
131.27178264
 20
113.8945436372
 10
131.3099749418
 20
113.9844939266
 10
131.344689616
 20
114.0758424452
 10
131.3758830644
 20
114.1684588944
 10
131.4035116891
 20
114.2622129757
 10
131.4275318918
 20
114.3569743903
 10
131.4479000743
 20
114.4526128396
 10
131.4645782596
 20
114.5489914728
 10
131.4775509542
 20
114.6459472301
 10
131.4868082859
 20
114.7433104993
 10
131.4923403822
 20
114.8409116683
  0
LWPOLYLINE
  5
545
100
AcDbEntity
  8
21814000
100
AcDbPolyline
 62
253
  6
CONTINUOUS
 90
74
 70
0
 10
128.0091935267
 20
110.0983849251
 10
128.0273506529
 20
110.1687421044
 10
128.0335769346
 20
110.192159908
 10
128.0400489888
 20
110.2154932987
 10
128.0469455738
 20
110.2386999532
 10
128.054339159
 20
110.2617497564
 10
128.0618342873
 20
110.2847731769
 10
128.0655057398
 20
110.2963405235
 10
128.0692384416
 20
110.3078865622
 10
128.073196971
 20
110.3193542655
 10
128.077545906
 20
110.3306866057
 10
128.0824050173
 20
110.3417831681
 10
128.0878281529
 20
110.3526235401
 10
128.093828564
 20
110.3631424623
 10
128.100419502
 20
110.373274675
 10
128.1076323881
 20
110.3830104764
 10
128.1153934837
 20
110.3923279621
 10
128.1236423028
 20
110.4012644659
 10
128.1323183597
 20
110.4098573217
 10
128.1412920242
 20
110.4180589928
 10
128.1506162036
 20
110.4258970951
 10
128.1602807943
 20
110.4333092513
 10
128.1702756925
 20
110.4402330844
 10
128.1805907943
 20
110.4466062171
 10
128.1912159962
 20
110.4523662722
 10
128.2021411942
 20
110.4574508726
 10
128.2133562847
 20
110.461797641
 10
128.2248504569
 20
110.4653617811
 10
128.2365780269
 20
110.4681593165
 10
128.2484923449
 20
110.4702245922
 10
128.2605467611
 20
110.4715919532
 10
128.2726946256
 20
110.4722957446
 10
128.2848892885
 20
110.4723703114
 10
128.2970841001
 20
110.4718499987
 10
128.3092324104
 20
110.4707691515
 10
128.323114376
 20
110.4688662923
 10
128.3368448633
 20
110.4662702683
 10
128.350395984
 20
110.4629860479
 10
128.3637398502
 20
110.4590185995
 10
128.3768485735
 20
110.4543728917
 10
128.389694266
 20
110.4490538928
 10
128.4022490393
 20
110.4430665713
 10
128.4144355494
 20
110.4364475244
 10
128.4262728257
 20
110.4291966595
 10
128.4377278818
 20
110.4213401861
 10
128.4487677312
 20
110.4129043136
 10
128.4593593873
 20
110.4039152514
 10
128.4694698637
 20
110.394399209
 10
128.4790661739
 20
110.3843823959
 10
128.4881541527
 20
110.3738547997
 10
128.4967019231
 20
110.3628892422
 10
128.504720364
 20
110.3515257361
 10
128.5122203539
 20
110.3398042938
 10
128.5192127717
 20
110.3277649279
 10
128.5257084961
 20
110.3154476508
 10
128.5317184058
 20
110.3028924749
 10
128.5386439177
 20
110.2867175413
 10
128.5448296118
 20
110.2702547371
 10
128.5502961905
 20
110.2535330692
 10
128.5550643559
 20
110.2365815443
 10
128.5591548103
 20
110.2194291691
 10
128.5625882561
 20
110.2021049504
 10
128.5653853954
 20
110.184637895
 10
128.5675669306
 20
110.1670570097
 10
128.569153564
 20
110.1493913011
 10
128.5701659978
 20
110.1316697762
 10
128.5706249343
 20
110.1139214415
 10
128.5705072952
 20
110.0943897893
 10
128.5697259361
 20
110.0748913379
 10
128.5682625322
 20
110.0554566264
 10
128.5660987585
 20
110.0361161942
 10
128.5632162902
 20
110.0169005805
 10
128.5595968022
 20
109.9978403247
 10
128.5552219696
 20
109.978965966
  0
LWPOLYLINE
  5
546
100
AcDbEntity
  8
21814000
100
AcDbPolyline
 62
253
  6
CONTINUOUS
 90
45
 70
0
 10
128.5552219696
 20
109.978965966
 10
128.5522268815
 20
109.9677432857
 10
128.5489493142
 20
109.956605119
 10
128.5453853095
 20
109.9455580624
 10
128.5415309093
 20
109.9346087124
 10
128.5373821552
 20
109.9237636654
 10
128.5336774185
 20
109.9147651535
 10
128.52976082
 20
109.9058538241
 10
128.5256298177
 20
109.8970390436
 10
128.5212818697
 20
109.8883301783
 10
128.5167144342
 20
109.8797365945
 10
128.5119249691
 20
109.8712676587
 10
128.5069109326
 20
109.8629327372
 10
128.5016697829
 20
109.8547411964
 10
128.4961989779
 20
109.8467024025
 10
128.4904959758
 20
109.8388257221
 10
128.4845624293
 20
109.8311237141
 10
128.4783998892
 20
109.8236000217
 10
128.47201388
 20
109.8162616423
 10
128.465409926
 20
109.8091155731
 10
128.4585935519
 20
109.8021688114
 10
128.451570282
 20
109.7954283546
 10
128.4443456408
 20
109.7889011999
 10
128.4369251528
 20
109.7825943446
 10
128.4293143425
 20
109.776514786
 10
128.4215187342
 20
109.7706695215
 10
128.413077172
 20
109.7647465591
 10
128.4044460249
 20
109.7590908853
 10
128.395636357
 20
109.7536997269
 10
128.3866592325
 20
109.7485703106
 10
128.3775257155
 20
109.7436998634
 10
128.3682468702
 20
109.7390856122
 10
128.3588337607
 20
109.7347247837
 10
128.3492974512
 20
109.7306146048
 10
128.3396490058
 20
109.7267523024
 10
128.3298994886
 20
109.7231351033
 10
128.3200599639
 20
109.7197602344
 10
128.3101414957
 20
109.7166249225
 10
128.3001551482
 20
109.7137263946
 10
128.2901119855
 20
109.7110618773
 10
128.2800230719
 20
109.7086285976
 10
128.2698994713
 20
109.7064237824
 10
128.2597522481
 20
109.7044446585
 10
128.2495924662
 20
109.7026884527
 10
128.2394311899
 20
109.7011523919
  0
LINE
  5
547
100
AcDbEntity
  8
21814000
100
AcDbLine
 62
253
  6
CONTINUOUS
 10
127.4053215208
 20
102.306290375
 11
127.784824894
 21
103.598918375
  0
LINE
  5
548
100
AcDbEntity
  8
RACCORDO
100
AcDbLine
 62
253
  6
CONTINUOUS
 10
113.4921923738
 20
80.0099345096
 11
113.6171923738
 21
80.2264408605
  0
LINE
  5
549
100
AcDbEntity
  8
RACCORDO
100
AcDbLine
 62
253
  6
CONTINUOUS
 10
114.2421923738
 20
79.5769218077
 11
114.3671923738
 21
79.7934281586
  0
LINE
  5
54A
100
AcDbEntity
  8
21814000
100
AcDbLine
 62
253
  6
CONTINUOUS
 10
127.5614459529
 20
99.980522375
 11
129.3604868224
 21
101.578288375
  0
LINE
  5
54B
100
AcDbEntity
  8
21814000
100
AcDbLine
 62
253
  6
CONTINUOUS
 10
118.8711689264
 20
96.136013375
 11
117.9958966038
 21
95.854909375
  0
LINE
  5
54C
100
AcDbEntity
  8
21814000
100
AcDbLine
 62
253
  6
CONTINUOUS
 10
119.9921773783
 20
96.496048375
 11
119.4220230925
 21
96.312942375
  0
LWPOLYLINE
  5
54D
100
AcDbEntity
  8
21814000
100
AcDbPolyline
 62
7
  6
CONTINUOUS
 90
76
 70
0
 10
135.4628575703
 20
114.6241543954
 10
135.55211581
 20
114.6466823872
 10
135.6389220879
 20
114.669088519
 10
135.7232764038
 20
114.6913727908
 10
135.8051222879
 20
114.7135229192
 10
135.8845162101
 20
114.7355511876
 10
135.9616275802
 20
114.757494446
 10
136.0364662445
 20
114.779352004
 10
136.1090223568
 20
114.8011245519
 10
136.1794357885
 20
114.8228510119
 10
136.2477135401
 20
114.8445290892
 10
136.3138486111
 20
114.8661610786
 10
136.3779598715
 20
114.8877927853
 10
136.4400556015
 20
114.9094208232
 10
136.5001275209
 20
114.9310485786
 10
136.5582696597
 20
114.9527320158
 10
136.6144927952
 20
114.9744661052
 10
136.66878615
 20
114.9962558765
 10
136.7212114212
 20
115.0181723835
 10
136.7717840119
 20
115.0402079776
 10
136.8204885191
 20
115.0623703074
 10
136.8673404308
 20
115.0847533722
 10
136.9123658926
 20
115.1073465432
 10
136.955538759
 20
115.1301604491
 10
136.9967960813
 20
115.1533209756
 10
137.0361821223
 20
115.1768127225
 10
137.0736526192
 20
115.20065109
 10
137.1090118355
 20
115.2250081637
 10
137.1423590536
 20
115.2498949025
 10
137.173594991
 20
115.2753003475
 10
137.2022260647
 20
115.3013637081
 10
137.2283618732
 20
115.3281746362
 10
137.2518928179
 20
115.3556434799
 10
137.2719965191
 20
115.3836404923
 10
137.2886056747
 20
115.4122090934
 10
137.3017875869
 20
115.4413058632
 10
137.3109217826
 20
115.4706707949
 10
137.3158510172
 20
115.5003225914
 10
137.3167325353
 20
115.5302425497
 10
137.3134175981
 20
115.5601145548
 10
137.3056680242
 20
115.5899939684
 10
137.293721995
 20
115.6198254288
 10
137.278145316
 20
115.6491267348
 10
137.2588282917
 20
115.6777945043
 10
137.2358806176
 20
115.7059321195
 10
137.2101971863
 20
115.7333675259
 10
137.1818933769
 20
115.7599945049
 10
137.1508538102
 20
115.7859192752
 10
137.117627242
 20
115.8112884378
 10
137.0823206177
 20
115.8360903949
 10
137.0448269917
 20
115.8603367443
 10
137.0053742836
 20
115.8842088811
 10
136.964013336
 20
115.9077221943
 10
136.9206933063
 20
115.9308612949
 10
136.875489585
 20
115.9537614105
 10
136.8284300681
 20
115.9764344883
 10
136.7794868598
 20
115.9988685811
 10
136.7286516623
 20
116.0211630745
 10
136.675942064
 20
116.0433258614
 10
136.6213404766
 20
116.0653490489
 10
136.5647858378
 20
116.0873083442
 10
136.5062861387
 20
116.1092103445
 10
136.4458333882
 20
116.1310484526
 10
136.383342551
 20
116.1528785835
 10
136.3188195828
 20
116.1747048667
 10
136.2522585278
 20
116.1965231726
 10
136.1835564838
 20
116.2183770276
 10
136.1127287215
 20
116.2402663401
 10
136.0397599703
 20
116.2621912015
 10
135.9645015158
 20
116.2841954124
 10
135.8869632804
 20
116.3062806747
 10
135.8071353417
 20
116.3284452864
 10
135.7248392181
 20
116.3507279421
 10
135.6400154157
 20
116.3731415401
 10
135.5527234283
 20
116.3956731821
 10
135.462963256
 20
116.4183228681
  0
LINE
  5
54E
100
AcDbEntity
  8
21814000
100
AcDbLine
 62
7
  6
CONTINUOUS
 10
136.4660456509
 20
112.4452184322
 11
138.2183390966
 21
112.5985242439
  0
LWPOLYLINE
  5
54F
100
AcDbEntity
  8
21814000
100
AcDbPolyline
 62
253
  6
CONTINUOUS
 90
81
 70
0
 10
127.9921923738
 20
111.0177730606
 10
127.9167939451
 20
111.0158545136
 10
127.8414683833
 20
111.0101584065
 10
127.7664149482
 20
111.0007740394
 10
127.6918328992
 20
110.9877907129
 10
127.617921496
 20
110.9712977272
 10
127.5448799984
 20
110.9513843827
 10
127.4728371161
 20
110.9281246822
 10
127.4019650025
 20
110.9016394091
 10
127.3323636452
 20
110.8720390852
 10
127.2641330313
 20
110.8394342323
 10
127.1973731481
 20
110.803935372
 10
127.1321839832
 20
110.7656530262
 10
127.0687129109
 20
110.7247406429
 10
127.0069487673
 20
110.6812954613
 10
126.9469308389
 20
110.6354527464
 10
126.8886984119
 20
110.5873477632
 10
126.8322907728
 20
110.5371157765
 10
126.7777472078
 20
110.4848920513
 10
126.7147439783
 20
110.4197160546
 10
126.6544754306
 20
110.3520304232
 10
126.5969306241
 20
110.2820035096
 10
126.5420986181
 20
110.2098036666
 10
126.4899684722
 20
110.1355992466
 10
126.4354056498
 20
110.051322992
 10
126.3841188557
 20
109.9649588666
 10
126.3360875844
 20
109.8766684823
 10
126.2912913305
 20
109.7866134505
 10
126.2497095886
 20
109.6949553828
 10
126.211321853
 20
109.6018558909
 10
126.1761076183
 20
109.5074765865
 10
126.1440463792
 20
109.411979081
 10
126.1151176299
 20
109.3155249861
 10
126.0862662665
 20
109.2059470304
 10
126.0613377809
 20
109.0954869764
 10
126.0403087392
 20
108.9842708382
 10
126.023155708
 20
108.8724246298
 10
126.0098552534
 20
108.7600743653
 10
126.0003839419
 20
108.6473460586
 10
125.9947183396
 20
108.5343657238
 10
125.992835013
 20
108.421259375
 10
125.9947183396
 20
108.3081530262
 10
126.0003839419
 20
108.1951726914
 10
126.0098552534
 20
108.0824443847
 10
126.023155708
 20
107.9700941202
 10
126.0403087392
 20
107.8582479118
 10
126.0613377809
 20
107.7470317736
 10
126.0862662665
 20
107.6365717196
 10
126.1151176299
 20
107.5269937639
 10
126.1440463792
 20
107.430539669
 10
126.1761076183
 20
107.3350421635
 10
126.211321853
 20
107.2406628591
 10
126.2497095886
 20
107.1475633672
 10
126.2912913305
 20
107.0559052995
 10
126.3360875844
 20
106.9658502677
 10
126.3841188557
 20
106.8775598834
 10
126.4354056498
 20
106.791195758
 10
126.4899684722
 20
106.7069195034
 10
126.5420986181
 20
106.6327150834
 10
126.5969306241
 20
106.5605152404
 10
126.6544754306
 20
106.4904883268
 10
126.7147439783
 20
106.4228026954
 10
126.7777472078
 20
106.3576266987
 10
126.8322907728
 20
106.3054029735
 10
126.8886984119
 20
106.2551709868
 10
126.9469308389
 20
106.2070660036
 10
127.0069487673
 20
106.1612232887
 10
127.0687129109
 20
106.1177781071
 10
127.1321839832
 20
106.0768657238
 10
127.1973731481
 20
106.038583378
 10
127.2641330313
 20
106.0030845177
 10
127.3323636452
 20
105.9704796648
 10
127.4019650025
 20
105.9408793409
 10
127.4728371161
 20
105.9143940678
 10
127.5448799984
 20
105.8911343673
 10
127.617921496
 20
105.8712210228
 10
127.6918328992
 20
105.8547280371
 10
127.7664149482
 20
105.8417447106
 10
127.8414683833
 20
105.8323603435
 10
127.9167939451
 20
105.8266642364
 10
127.9921923738
 20
105.8247456894
  0
LINE
  5
550
100
AcDbEntity
  8
ASSI
100
AcDbLine
 62
7
  6
CONTINUOUS
 10
114.4921923738
 20
109.926753375
 11
114.6921923738
 21
109.926753375
  0
LINE
  5
551
100
AcDbEntity
  8
21814000
100
AcDbLine
 62
253
  6
CONTINUOUS
 10
119.5104061641
 20
110.287997375
 11
119.9921923738
 21
110.287997375
  0
LINE
  5
552
100
AcDbEntity
  8
21814000
100
AcDbLine
 62
253
  6
CONTINUOUS
 10
131.3493569824
 20
110.3355452255
 11
131.0636862144
 21
110.3355452255
  0
LINE
  5
553
100
AcDbEntity
  8
21814000
100
AcDbLine
 62
253
  6
CONTINUOUS
 10
130.8494331497
 20
110.3831640915
 11
130.6351800551
 21
110.3831640915
  0
LINE
  5
554
100
AcDbEntity
  8
ASSI
100
AcDbLine
 62
7
  6
CONTINUOUS
 10
114.4921923738
 20
110.426778375
 11
114.6921923738
 21
110.426778375
  0
LINE
  5
555
100
AcDbEntity
  8
21814000
100
AcDbLine
 62
7
  6
CONTINUOUS
 10
136.1921923738
 20
110.5787061841
 11
136.3921923738
 21
110.5787061841
  0
LINE
  5
556
100
AcDbEntity
  8
ASSI
100
AcDbLine
 62
7
  6
CONTINUOUS
 10
114.4921923738
 20
110.584628375
 11
114.6921923738
 21
110.584628375
  0
LINE
  5
557
100
AcDbEntity
  8
21814000
100
AcDbLine
 62
253
  6
CONTINUOUS
 10
133.1925883362
 20
110.648014375
 11
134.4921923738
 21
110.648014375
  0
LINE
  5
558
100
AcDbEntity
  8
21814000
100
AcDbLine
 62
253
  6
CONTINUOUS
 10
130.6351800551
 20
110.7879258827
 11
130.8494331497
 21
110.7879258827
  0
LINE
  5
559
100
AcDbEntity
  8
21814000
100
AcDbLine
 62
7
  6
CONTINUOUS
 10
136.1921923738
 20
110.821259375
 11
136.3921923738
 21
110.821259375
  0
LINE
  5
55A
100
AcDbEntity
  8
21814000
100
AcDbLine
 62
253
  6
CONTINUOUS
 10
131.0636862144
 20
110.8355452255
 11
131.3493569824
 21
110.8355452255
  0
LINE
  5
55B
100
AcDbEntity
  8
ASSI
100
AcDbLine
 62
7
  6
CONTINUOUS
 10
114.4921923738
 20
111.374321375
 11
114.6921923738
 21
111.374321375
  0
LINE
  5
55C
100
AcDbEntity
  8
ASSI
100
AcDbLine
 62
7
  6
CONTINUOUS
 10
114.4921923738
 20
111.532178375
 11
114.6921923738
 21
111.532178375
  0
LWPOLYLINE
  5
55D
100
AcDbEntity
  8
21814000
100
AcDbPolyline
 62
253
  6
CONTINUOUS
 90
73
 70
0
 10
136.4579060321
 20
106.0170838663
 10
136.5437706896
 20
105.993397234
 10
136.6270341037
 20
105.9698756154
 10
136.7076962744
 20
105.9465190104
 10
136.7856795082
 20
105.923344296
 10
136.8610614986
 20
105.9003345952
 10
136.9340753259
 20
105.8774392771
 10
137.0047252793
 20
105.854662966
 10
137.0730070695
 20
105.8320010376
 10
137.1391409093
 20
105.8093889872
 10
137.2031366946
 20
105.7868318341
 10
137.2649845296
 20
105.7643245591
 10
137.3248749393
 20
105.7417875996
 10
137.3828338411
 20
105.7192220286
 10
137.4388353177
 20
105.6966267732
 10
137.4929921427
 20
105.6739190521
 10
137.5453123636
 20
105.6511118734
 10
137.5957879329
 20
105.6281922289
 10
137.6445074814
 20
105.6050383136
 10
137.691500951
 20
105.5816637207
 10
137.7367383998
 20
105.558054857
 10
137.7802186323
 20
105.5340491371
 10
137.8220288049
 20
105.5096341369
 10
137.8620817613
 20
105.4848222807
 10
137.900114838
 20
105.4594882556
 10
137.9361749092
 20
105.4336583889
 10
137.9702151007
 20
105.4073063533
 10
138.0018321262
 20
105.3802278548
 10
138.0311755902
 20
105.352331317
 10
138.0580958882
 20
105.3237083163
 10
138.0817409207
 20
105.2944292867
 10
138.1020781045
 20
105.2642668241
 10
138.1191400228
 20
105.2334483327
 10
138.1321723253
 20
105.2027264591
 10
138.1409218415
 20
105.17242931
 10
138.145641742
 20
105.1422287788
 10
138.1463371879
 20
105.1118931917
 10
138.1430034225
 20
105.0812785471
 10
138.1356452025
 20
105.0505288468
 10
138.1242819597
 20
105.0198444225
 10
138.1086507176
 20
104.9890955603
 10
138.0890144528
 20
104.9584119742
 10
138.0661815267
 20
104.9283831376
 10
138.0401554568
 20
104.8991950096
 10
138.0109327257
 20
104.8706616312
 10
137.9793111422
 20
104.8428145977
 10
137.9454197883
 20
104.8157209267
 10
137.909129582
 20
104.7893136008
 10
137.8708510857
 20
104.7634231628
 10
137.8306094345
 20
104.7380214978
 10
137.7883794933
 20
104.7131367209
 10
137.7444964193
 20
104.68868372
 10
137.6989880153
 20
104.6646560691
 10
137.6518264785
 20
104.6410601943
 10
137.6032635575
 20
104.6178302621
 10
137.553337594
 20
104.5949687635
 10
137.5020102463
 20
104.5724732075
 10
137.4494182373
 20
104.5502702875
 10
137.3957556093
 20
104.5284157898
 10
137.34082832
 20
104.506853928
 10
137.2841909654
 20
104.4853440372
 10
137.2257243396
 20
104.463822555
 10
137.1655476484
 20
104.4423530436
 10
137.1035731059
 20
104.4208855248
 10
137.0398151037
 20
104.3994194997
 10
136.9742592501
 20
104.377955467
 10
136.9067745847
 20
104.3564449452
 10
136.8374357351
 20
104.3349041329
 10
136.7661680737
 20
104.3133168315
 10
136.692616757
 20
104.2915859637
 10
136.616663504
 20
104.2696791702
 10
136.5384265957
 20
104.2476288102
 10
136.4579060321
 20
104.2254348837
  0
LWPOLYLINE
  5
55E
100
AcDbEntity
  8
21814000
100
AcDbPolyline
 62
253
  6
CONTINUOUS
 90
73
 70
0
 10
136.4660456509
 20
106.0470667036
 10
136.5519093835
 20
106.0226555407
 10
136.6351721261
 20
105.9984160594
 10
136.7158338786
 20
105.9743449382
 10
136.7938170317
 20
105.9504528785
 10
136.8691991948
 20
105.9267223478
 10
136.9422131962
 20
105.9031080808
 10
137.0128632404
 20
105.8796124428
 10
137.0811451229
 20
105.8562270805
 10
137.1472790588
 20
105.8328914927
 10
137.2112749472
 20
105.8096087595
 10
137.2731228889
 20
105.786370538
 10
137.3330134021
 20
105.7630999696
 10
137.3909723973
 20
105.7397962718
 10
137.4469739638
 20
105.7164556247
 10
137.5011308876
 20
105.6929972009
 10
137.5534512173
 20
105.6694326181
 10
137.6039269042
 20
105.6457460074
 10
137.6526465882
 20
105.6218157244
 10
137.6996402208
 20
105.5976540487
 10
137.7448778505
 20
105.573244822
 10
137.7883582626
 20
105.5484239547
 10
137.8301686091
 20
105.5231764544
 10
137.870221738
 20
105.4975135791
 10
137.9082549794
 20
105.4713100795
 10
137.9443151891
 20
105.4445896685
 10
137.9783555112
 20
105.4173237786
 10
138.0099727075
 20
105.3893072474
 10
138.0393165779
 20
105.3604401281
 10
138.0662373225
 20
105.3308159307
 10
138.0898823039
 20
105.3005165258
 10
138.1102183963
 20
105.2692976489
 10
138.1272787255
 20
105.2373924237
 10
138.1403100313
 20
105.2055943778
 10
138.1490598678
 20
105.1742337106
 10
138.1537806808
 20
105.1429643
 10
138.1544765474
 20
105.1115630126
 10
138.1511418512
 20
105.0798732245
 10
138.1437822085
 20
105.0480361094
 10
138.1324185451
 20
105.016275306
 10
138.1167890401
 20
104.9844500665
 10
138.0971555145
 20
104.9526853693
 10
138.074324357
 20
104.9216058461
 10
138.0482980096
 20
104.8914022256
 10
138.0190740304
 20
104.8618731567
 10
137.9874514831
 20
104.8330595567
 10
137.9535599904
 20
104.8050292358
 10
137.9172699296
 20
104.7777080606
 10
137.8789914959
 20
104.7509270529
 10
137.8387496565
 20
104.7246561699
 10
137.7965194442
 20
104.6989207514
 10
137.7526361532
 20
104.6736365703
 10
137.7071276567
 20
104.6487959993
 10
137.6599660816
 20
104.6244033379
 10
137.6114031021
 20
104.6003934789
 10
137.5614770416
 20
104.5767683419
 10
137.5101495768
 20
104.5535236273
 10
137.4575574113
 20
104.5305856509
 10
137.40389454
 20
104.508010629
 10
137.348966968
 20
104.485740598
 10
137.2923294146
 20
104.4635299734
 10
137.2338627552
 20
104.4413104714
 10
137.1736861144
 20
104.4191464926
 10
137.1117115856
 20
104.3969904593
 10
137.0479535101
 20
104.3748395952
 10
136.9823975466
 20
104.3526927194
 10
136.9149127639
 20
104.33050426
 10
136.8455737163
 20
104.3082881793
 10
136.7743058494
 20
104.2860262515
 10
136.7007545689
 20
104.2636237595
 10
136.6248016766
 20
104.2410470002
 10
136.5465653706
 20
104.2183240056
 10
136.4660456509
 20
104.1954520464
  0
LINE
  5
55F
100
AcDbEntity
  8
21814000
100
AcDbLine
 62
253
  6
CONTINUOUS
 10
118.8959543748
 20
111.572715375
 11
117.6470658852
 21
112.002730375
  0
LINE
  5
560
100
AcDbEntity
  8
21814000
100
AcDbLine
 62
253
  6
CONTINUOUS
 10
119.9921923738
 20
111.195223375
 11
119.3777405845
 21
111.412071375
  0
LINE
  5
561
100
AcDbEntity
  8
21814000
100
AcDbLine
 62
253
  6
CONTINUOUS
 10
117.0930746749
 20
111.649108375
 11
119.9921923738
 21
110.600773375
  0
LINE
  5
562
100
AcDbEntity
  8
21814000
100
AcDbLine
 62
253
  6
CONTINUOUS
 10
130.7780154316
 20
106.4784022407
 11
130.6351800551
 21
106.549830778
  0
LINE
  5
563
100
AcDbEntity
  8
21814000
100
AcDbLine
 62
253
  6
CONTINUOUS
 10
131.206521591
 20
106.9784021811
 11
131.3493569824
 21
106.9069736437
  0
LINE
  5
564
100
AcDbEntity
  8
21814000
100
AcDbLine
 62
253
  6
CONTINUOUS
 10
130.7780154316
 20
107.2641165689
 11
130.6351800551
 21
107.3355451063
  0
LINE
  5
565
100
AcDbEntity
  8
RACCORDO
100
AcDbLine
 62
253
  6
CONTINUOUS
 10
113.4921923738
 20
126.8325842404
 11
113.6171923738
 21
126.6160778895
  0
LINE
  5
566
100
AcDbEntity
  8
RACCORDO
100
AcDbLine
 62
253
  6
CONTINUOUS
 10
114.2421923738
 20
127.2655969423
 11
114.3671923738
 21
127.0490905914
  0
LINE
  5
567
100
AcDbEntity
  8
21814000
100
AcDbLine
 62
253
  6
CONTINUOUS
 10
128.0612896609
 20
94.369535375
 11
128.0612896609
 21
94.725857375
  0
LINE
  5
568
100
AcDbEntity
  8
21814000
100
AcDbLine
 62
253
  6
CONTINUOUS
 10
128.0612896609
 20
95.875282375
 11
128.0612896609
 21
96.432753375
  0
LINE
  5
569
100
AcDbEntity
  8
21814000
100
AcDbLine
 62
253
  6
CONTINUOUS
 10
128.4921923738
 20
96.266087375
 11
128.4921923738
 21
95.875282375
  0
LINE
  5
56A
100
AcDbEntity
  8
21814000
100
AcDbLine
 62
253
  6
CONTINUOUS
 10
128.5700426923
 20
117.560759375
 11
128.5700426923
 21
119.021259375
  0
LINE
  5
56B
100
AcDbEntity
  8
21814000
100
AcDbLine
 62
253
  6
CONTINUOUS
 10
128.9230950866
 20
96.432753375
 11
128.9230950866
 21
95.875282375
  0
LINE
  5
56C
100
AcDbEntity
  8
21814000
100
AcDbLine
 62
253
  6
CONTINUOUS
 10
128.9230950866
 20
94.725857375
 11
128.9230950866
 21
94.369535375
  0
LINE
  5
56D
100
AcDbEntity
  8
21814000
100
AcDbLine
 62
253
  6
CONTINUOUS
 10
129.3198142524
 20
119.021259375
 11
129.3198142524
 21
117.560759375
  0
LINE
  5
56E
100
AcDbEntity
  8
21814000
100
AcDbLine
 62
253
  6
CONTINUOUS
 10
129.4344342922
 20
93.360914375
 11
129.4344342922
 21
97.481604375
  0
LWPOLYLINE
  5
56F
100
AcDbEntity
  8
21814000
100
AcDbPolyline
 62
253
  6
CONTINUOUS
 90
61
 70
0
 10
129.4344341357
 20
93.360914375
 10
129.4341111354
 20
93.3442852049
 10
129.4331452547
 20
93.3276500151
 10
129.431541174
 20
93.3110373899
 10
129.4293035738
 20
93.2944759134
 10
129.4264371346
 20
93.2779941699
 10
129.4229465368
 20
93.2616207435
 10
129.4188364608
 20
93.2453842185
 10
129.4141115872
 20
93.2293131789
 10
129.4087765963
 20
93.2134362091
 10
129.4028361687
 20
93.1977818933
 10
129.3962964376
 20
93.1823773018
 10
129.3891693477
 20
93.1672434502
 10
129.3814682967
 20
93.1523998402
 10
129.373206682
 20
93.1378659737
 10
129.3643979014
 20
93.1236613522
 10
129.3550553523
 20
93.1098054776
 10
129.3451924324
 20
93.0963178517
 10
129.3348225392
 20
93.0832179761
 10
129.3239590704
 20
93.0705253527
 10
129.3126154234
 20
93.0582594831
 10
129.3008061088
 20
93.0464390467
 10
129.2885500885
 20
93.0350794327
 10
129.2758674372
 20
93.024195208
 10
129.2627782299
 20
93.0138009392
 10
129.2493025413
 20
93.0039111933
 10
129.2354604462
 20
92.994540537
 10
129.2212720194
 20
92.9857035371
 10
129.2067573358
 20
92.9774147605
 10
129.1919364701
 20
92.9696887738
 10
129.1768294972
 20
92.9625401439
 10
129.1614571821
 20
92.9559819018
 10
129.1458430511
 20
92.9500209347
 10
129.1300113206
 20
92.9446625943
 10
129.1139862073
 20
92.9399122319
 10
129.0977919275
 20
92.9357751991
 10
129.0814526978
 20
92.9322568474
 10
129.0649927347
 20
92.9293625283
 10
129.0484362548
 20
92.9270975932
 10
129.0318074744
 20
92.9254673937
 10
129.0151306102
 20
92.9244772813
 10
128.9984297549
 20
92.9241312289
 10
128.981728507
 20
92.9244276952
 10
128.9650503411
 20
92.9253637602
 10
128.9484187319
 20
92.9269365042
 10
128.9318571541
 20
92.9291430072
 10
128.9153890825
 20
92.9319803493
 10
128.8990379916
 20
92.9354456108
 10
128.8828273562
 20
92.9395358716
 10
128.8667806509
 20
92.9442482119
 10
128.8509213506
 20
92.9495797119
 10
128.8352730974
 20
92.9555253598
 10
128.819860204
 20
92.9620717772
 10
128.8047071506
 20
92.9692034937
 10
128.7898384173
 20
92.9769050389
 10
128.7752784843
 20
92.9851609425
 10
128.7610518319
 20
92.9939557342
 10
128.7471829402
 20
93.0032739436
 10
128.7336962895
 20
93.0131001004
 10
128.7206163598
 20
93.0234187344
 10
128.7079676315
 20
93.034214375
  0
LINE
  5
570
100
AcDbEntity
  8
21814000
100
AcDbLine
 62
253
  6
CONTINUOUS
 10
128.6999570722
 20
103.148422375
 11
128.3693587986
 21
102.040145375
  0
LINE
  5
571
100
AcDbEntity
  8
21814000
100
AcDbLine
 62
253
  6
CONTINUOUS
 10
128.7079676315
 20
97.808304375
 11
126.3868358323
 21
95.747959375
  0
LINE
  5
572
100
AcDbEntity
  8
21814000
100
AcDbLine
 62
253
  6
CONTINUOUS
 10
118.9810314536
 20
92.828679375
 11
117.0929377166
 21
92.287111375
  0
LINE
  5
573
100
AcDbEntity
  8
ASSI
100
AcDbLine
 62
7
  6
CONTINUOUS
 10
114.4921923738
 20
112.032196375
 11
114.6921923738
 21
112.032196375
  0
LINE
  5
574
100
AcDbEntity
  8
ASSI
100
AcDbLine
 62
7
  6
CONTINUOUS
 10
114.4921923738
 20
112.365540375
 11
114.6921923738
 21
112.365540375
  0
LINE
  5
575
100
AcDbEntity
  8
21814000
100
AcDbLine
 62
253
  6
CONTINUOUS
 10
133.1925883362
 20
112.455987375
 11
134.4921923738
 21
112.455987375
  0
LINE
  5
576
100
AcDbEntity
  8
21814000
100
AcDbLine
 62
253
  6
CONTINUOUS
 10
133.1925883362
 20
112.844315375
 11
134.4921923738
 21
112.844315375
  0
LINE
  5
577
100
AcDbEntity
  8
ASSI
100
AcDbLine
 62
7
  6
CONTINUOUS
 10
114.4921923738
 20
112.865559375
 11
114.6921923738
 21
112.865559375
  0
LINE
  5
578
100
AcDbEntity
  8
ASSI
100
AcDbLine
 62
7
  6
CONTINUOUS
 10
114.4921923738
 20
113.338303375
 11
114.6921923738
 21
113.338303375
  0
LINE
  5
579
100
AcDbEntity
  8
21814000
100
AcDbLine
 62
253
  6
CONTINUOUS
 10
121.492481753
 20
113.4641165421
 11
123.3921923738
 21
113.4641165421
  0
LINE
  5
57A
100
AcDbEntity
  8
21814000
100
AcDbLine
 62
253
  6
CONTINUOUS
 10
119.9921923738
 20
113.713584375
 11
117.0930746749
 21
113.713584375
  0
LINE
  5
57B
100
AcDbEntity
  8
ASSI
100
AcDbLine
 62
7
  6
CONTINUOUS
 10
114.4921923738
 20
113.838309375
 11
114.6921923738
 21
113.838309375
  0
LINE
  5
57C
100
AcDbEntity
  8
21814000
100
AcDbLine
 62
253
  6
CONTINUOUS
 10
133.1925883362
 20
113.876440375
 11
134.4921923738
 21
113.876440375
  0
LINE
  5
57D
100
AcDbEntity
  8
21814000
100
AcDbLine
 62
253
  6
CONTINUOUS
 10
131.2779392941
 20
109.5498308376
 11
130.4923446786
 21
109.7641164497
  0
LINE
  5
57E
100
AcDbEntity
  8
21814000
100
AcDbLine
 62
253
  6
CONTINUOUS
 10
133.1925883362
 20
108.591149375
 11
134.4921923738
 21
108.020816375
  0
LINE
  5
57F
100
AcDbEntity
  8
21814000
100
AcDbLine
 62
253
  6
CONTINUOUS
 10
133.1925883362
 20
107.846995375
 11
134.4921923738
 21
107.224128375
  0
LINE
  5
580
100
AcDbEntity
  8
21814000
100
AcDbLine
 62
253
  6
CONTINUOUS
 10
131.206521591
 20
107.7641164497
 11
131.3493569824
 21
107.6926879124
  0
LINE
  5
581
100
AcDbEntity
  8
21814000
100
AcDbLine
 62
253
  6
CONTINUOUS
 10
122.0352561837
 20
112.921259375
 11
121.492481753
 21
113.4641165421
  0
LINE
  5
582
100
AcDbEntity
  8
21814000
100
AcDbLine
 62
253
  6
CONTINUOUS
 10
130.6351800551
 20
106.549830778
 11
130.4923446786
 21
106.6926879124
  0
LINE
  5
583
100
AcDbEntity
  8
21814000
100
AcDbLine
 62
253
  6
CONTINUOUS
 10
121.7638689683
 20
115.635545154
 11
121.492481753
 21
115.906973596
  0
LWPOLYLINE
  5
584
100
AcDbEntity
  8
21814000
100
AcDbPolyline
 62
253
  6
CONTINUOUS
 90
46
 70
0
 10
130.741597862
 20
119.4212621412
 10
130.7438408086
 20
119.3648034718
 10
130.7442997074
 20
119.3082393213
 10
130.7429789002
 20
119.2516359634
 10
130.7398827286
 20
119.1950596721
 10
130.7350155341
 20
119.1385767209
 10
130.7283816583
 20
119.0822533838
 10
130.7199854429
 20
119.0261559344
 10
130.7098312294
 20
118.9703506465
 10
130.6979233594
 20
118.9149037939
 10
130.6842688321
 20
118.8598789003
 10
130.6688852769
 20
118.805328489
 10
130.6517929809
 20
118.751302333
 10
130.6330122311
 20
118.6978502056
 10
130.6125633145
 20
118.6450218799
 10
130.5904665181
 20
118.592867129
 10
130.5667421289
 20
118.5414357261
 10
130.541410434
 20
118.4907774444
 10
130.5144917204
 20
118.4409420571
 10
130.486008706
 20
118.3919786472
 10
130.4559938329
 20
118.3439335384
 10
130.4244819737
 20
118.2968523643
 10
130.3915080014
 20
118.2507807583
 10
130.3571067888
 20
118.2057643542
 10
130.3213132088
 20
118.1618487854
 10
130.2841621342
 20
118.1190796856
 10
130.2456884378
 20
118.0775026882
 10
130.2059269926
 20
118.037163427
 10
130.1649139747
 20
117.99810537
 10
130.1226907736
 20
117.960363323
 10
130.0793000821
 20
117.9239699264
 10
130.034784593
 20
117.8889578206
 10
129.9891869991
 20
117.8553596461
 10
129.9425499933
 20
117.8232080431
 10
129.8949162682
 20
117.792535652
 10
129.8463285169
 20
117.7633751133
 10
129.7968294319
 20
117.7357590673
 10
129.7464650564
 20
117.7097183106
 10
129.6952948341
 20
117.6852762647
 10
129.6433815588
 20
117.6624545073
 10
129.5907880244
 20
117.6412746162
 10
129.5375770248
 20
117.6217581691
 10
129.483811354
 20
117.6039267437
 10
129.4295538057
 20
117.5878019177
 10
129.3748671739
 20
117.5734052689
 10
129.3198142524
 20
117.560758375
  0
LWPOLYLINE
  5
585
100
AcDbEntity
  8
21814000
100
AcDbPolyline
 62
253
  6
CONTINUOUS
 90
77
 70
0
 10
130.7416010696
 20
115.0361492641
 10
130.7441931107
 20
114.9612792095
 10
130.7436582869
 20
114.8862766996
 10
130.7400043726
 20
114.8112959337
 10
130.7332391422
 20
114.7364911106
 10
130.7233703699
 20
114.6620164297
 10
130.7104058303
 20
114.5880260899
 10
130.6943589147
 20
114.5146682431
 10
130.6752654836
 20
114.4420668514
 10
130.6531670144
 20
114.3703398297
 10
130.6281049846
 20
114.2996050931
 10
130.6001208717
 20
114.2299805562
 10
130.5692561532
 20
114.1615841341
 10
130.5355571445
 20
114.0945327374
 10
130.4990895135
 20
114.0289392596
 10
130.4599237659
 20
113.9649155901
 10
130.4181304074
 20
113.9025736181
 10
130.3737799438
 20
113.8420252331
 10
130.3269428808
 20
113.7833823244
 10
130.2776939239
 20
113.7267529363
 10
130.2261245767
 20
113.6722297337
 10
130.1723305427
 20
113.6199015367
 10
130.1164075253
 20
113.5698571651
 10
130.0584512277
 20
113.5221854389
 10
129.9985573535
 20
113.4769751782
 10
129.936824787
 20
113.4343108858
 10
129.8733651376
 20
113.3942597963
 10
129.8082931954
 20
113.3568848275
 10
129.741723751
 20
113.3222488969
 10
129.6737715945
 20
113.2904149221
 10
129.6045515163
 20
113.2614458208
 10
129.5341803031
 20
113.2353994205
 10
129.4627827271
 20
113.2123131883
 10
129.3904855568
 20
113.1922195013
 10
129.3174155609
 20
113.1751507367
 10
129.2436995078
 20
113.1611392714
 10
129.1694641661
 20
113.1502174826
 10
129.094836983
 20
113.1424123511
 10
129.0199481199
 20
113.1377292731
 10
128.9449284168
 20
113.1361682487
 10
128.8699087138
 20
113.1377292778
 10
128.795019851
 20
113.1424123604
 10
128.7203926683
 20
113.1502174964
 10
128.6461573273
 20
113.1611392899
 10
128.5724412751
 20
113.1751507597
 10
128.4993712802
 20
113.1922195289
 10
128.4270741112
 20
113.2123132203
 10
128.3556765366
 20
113.2353994569
 10
128.2853053251
 20
113.2614458615
 10
128.2160852487
 20
113.2904149671
 10
128.1481330941
 20
113.3222489461
 10
128.0815636518
 20
113.3568848808
 10
128.0164917119
 20
113.3942598537
 10
127.953032065
 20
113.434310947
 10
127.8912995012
 20
113.4769752432
 10
127.8314056297
 20
113.5221855077
 10
127.7734493351
 20
113.5698572374
 10
127.7175263207
 20
113.6199016125
 10
127.66373229
 20
113.6722298128
 10
127.6121629462
 20
113.7267530186
 10
127.5629139927
 20
113.7833824097
 10
127.5160769334
 20
113.8420253214
 10
127.4717264735
 20
113.9025737091
 10
127.4299331188
 20
113.9649156836
 10
127.3907673752
 20
114.0289393556
 10
127.3542997482
 20
114.0945328356
 10
127.3206007437
 20
114.1615842344
 10
127.2897360294
 20
114.2299806584
 10
127.2617519207
 20
114.299605197
 10
127.2366898953
 20
114.3703399352
 10
127.2145914305
 20
114.4420669582
 10
127.1954980039
 20
114.5146683511
 10
127.1794510929
 20
114.5880261989
 10
127.1664865578
 20
114.6620165395
 10
127.1566177902
 20
114.7364912211
 10
127.1498525644
 20
114.8112960445
 10
127.1461986547
 20
114.8862768107
  0
LINE
  5
586
100
AcDbEntity
  8
21814000
100
AcDbLine
 62
253
  6
CONTINUOUS
 10
130.1271002512
 20
89.373470375
 11
130.1271002512
 21
89.869048375
  0
LINE
  5
587
100
AcDbEntity
  8
21814000
100
AcDbLine
 62
253
  6
CONTINUOUS
 10
130.2387862228
 20
93.438500375
 11
130.2387862228
 21
97.404018375
  0
LINE
  5
588
100
AcDbEntity
  8
21814000
100
AcDbLine
 62
253
  6
CONTINUOUS
 10
130.4923446786
 20
109.121259375
 11
130.4923446786
 21
108.9069737629
  0
LINE
  5
589
100
AcDbEntity
  8
21814000
100
AcDbLine
 62
253
  6
CONTINUOUS
 10
130.4923446786
 20
106.6926879124
 11
130.4923446786
 21
106.7641165689
  0
LINE
  5
58A
100
AcDbEntity
  8
21814000
100
AcDbLine
 62
253
  6
CONTINUOUS
 10
130.4923446786
 20
107.4784021811
 11
130.4923446786
 21
107.5498308376
  0
LINE
  5
58B
100
AcDbEntity
  8
21814000
100
AcDbLine
 62
253
  6
CONTINUOUS
 10
130.4923446786
 20
108.0498308376
 11
130.4923446786
 21
108.4784023003
  0
LINE
  5
58C
100
AcDbEntity
  8
21814000
100
AcDbLine
 62
253
  6
CONTINUOUS
 10
130.4923446786
 20
110.4784023003
 11
130.4923446786
 21
110.6926881508
  0
LINE
  5
58D
100
AcDbEntity
  8
21814000
100
AcDbLine
 62
253
  6
CONTINUOUS
 10
130.7414290779
 20
90.156483375
 11
130.7414290779
 21
89.621259375
  0
LINE
  5
58E
100
AcDbEntity
  8
21814000
100
AcDbLine
 62
253
  6
CONTINUOUS
 10
130.9208508081
 20
108.3355449871
 11
130.9208508081
 21
108.0498308376
  0
LINE
  5
58F
100
AcDbEntity
  8
21814000
100
AcDbLine
 62
253
  6
CONTINUOUS
 10
130.9208508081
 20
110.4784023003
 11
130.9208508081
 21
110.6926881508
  0
LINE
  5
590
100
AcDbEntity
  8
21814000
100
AcDbLine
 62
253
  6
CONTINUOUS
 10
131.206521591
 20
105.716497472
 11
131.206521591
 21
106.0974498526
  0
LINE
  5
591
100
AcDbEntity
  8
21814000
100
AcDbLine
 62
253
  6
CONTINUOUS
 10
131.2779392941
 20
110.0498305992
 11
131.2779392941
 21
109.5498308376
  0
LINE
  5
592
100
AcDbEntity
  8
21814000
100
AcDbLine
 62
253
  6
CONTINUOUS
 10
131.4921923738
 20
110.6926881508
 11
131.4921923738
 21
110.4784023003
  0
LINE
  5
593
100
AcDbEntity
  8
21814000
100
AcDbLine
 62
253
  6
CONTINUOUS
 10
131.4921923738
 20
109.2641164497
 11
131.4921923738
 21
108.7641164497
  0
LINE
  5
594
100
AcDbEntity
  8
21814000
100
AcDbLine
 62
253
  6
CONTINUOUS
 10
131.4921923738
 20
107.5498308376
 11
131.4921923738
 21
107.4784021811
  0
LINE
  5
595
100
AcDbEntity
  8
21814000
100
AcDbLine
 62
253
  6
CONTINUOUS
 10
131.4921923738
 20
106.7641165689
 11
131.4921923738
 21
106.6926879124
  0
LINE
  5
596
100
AcDbEntity
  8
21814000
100
AcDbLine
 62
253
  6
CONTINUOUS
 10
131.4921923738
 20
108.0498308376
 11
131.4921923738
 21
108.3355449871
  0
LWPOLYLINE
  5
597
100
AcDbEntity
  8
21814000
100
AcDbPolyline
 62
253
  6
CONTINUOUS
 90
51
 70
0
 10
130.2419918093
 20
101.6215359275
 10
130.2408760722
 20
101.5206654962
 10
130.2375170506
 20
101.4197660993
 10
130.2318970291
 20
101.3189103221
 10
130.223998292
 20
101.2181707501
 10
130.213803124
 20
101.1176199685
 10
130.2012938096
 20
101.0173305629
 10
130.1864526332
 20
100.9173751184
 10
130.1692618794
 20
100.8178262205
 10
130.1497038326
 20
100.7187564546
 10
130.1300320596
 20
100.6299534032
 10
130.1083784931
 20
100.5416482393
 10
130.0846979773
 20
100.4538908535
 10
130.0589453563
 20
100.3667311363
 10
130.0310754741
 20
100.2802189784
 10
130.0062036061
 20
100.2086726381
 10
129.9797968895
 20
100.137667679
 10
129.9518216596
 20
100.0672613018
 10
129.9222442518
 20
99.9975107071
 10
129.8910310014
 20
99.9284730954
 10
129.8581482438
 20
99.8602056675
 10
129.8235723353
 20
99.7927957297
 10
129.7872459497
 20
99.7263085916
 10
129.7491205808
 20
99.6608402522
 10
129.7091477224
 20
99.5964867104
 10
129.6672788684
 20
99.533343965
 10
129.6234655124
 20
99.4715080149
 10
129.5843598536
 20
99.4196689469
 10
129.543765907
 20
99.3689705998
 10
129.5016572572
 20
99.3195247445
 10
129.4580074886
 20
99.2714431515
 10
129.4127901858
 20
99.2248375917
 10
129.3659789335
 20
99.1798198358
 10
129.3175473161
 20
99.1365016546
 10
129.2739030241
 20
99.100151425
 10
129.2290177549
 20
99.0653085164
 10
129.1829069269
 20
99.0320983009
 10
129.1355859586
 20
99.0006461507
 10
129.0870702685
 20
98.9710774379
 10
129.0373752748
 20
98.9435175346
 10
128.9865163962
 20
98.9180918131
 10
128.9345090509
 20
98.8949256453
 10
128.8874623236
 20
98.8763713735
 10
128.8396345283
 20
98.859757077
 10
128.791135444
 20
98.8451476087
 10
128.7420748498
 20
98.8326078214
 10
128.6925625248
 20
98.8222025679
 10
128.6427082478
 20
98.813996701
 10
128.5926217981
 20
98.8080550736
 10
128.5424129545
 20
98.8044425384
 10
128.4921914962
 20
98.8032239483
  0
LWPOLYLINE
  5
598
100
AcDbEntity
  8
21814000
100
AcDbPolyline
 62
253
  6
CONTINUOUS
 90
11
 70
0
 10
131.492340497
 20
119.2260215928
 10
131.49299902
 20
119.2455554567
 10
131.4935080597
 20
119.2650906953
 10
131.4938675369
 20
119.2846259515
 10
131.4940773728
 20
119.3041598686
 10
131.4941374884
 20
119.3236910896
 10
131.4940478046
 20
119.3432182577
 10
131.4938082426
 20
119.3627400158
 10
131.4934187232
 20
119.3822550072
 10
131.4928791676
 20
119.4017618749
 10
131.4921894968
 20
119.4212592621
  0
LWPOLYLINE
  5
599
100
AcDbEntity
  8
21814000
100
AcDbPolyline
 62
253
  6
CONTINUOUS
 90
11
 70
0
 10
131.4923403822
 20
114.8409116683
 10
131.4929989044
 20
114.8604455242
 10
131.4935079434
 20
114.8799807547
 10
131.4938674201
 20
114.899516003
 10
131.4940772555
 20
114.919049912
 10
131.4941373708
 20
114.938581125
 10
131.4940476868
 20
114.9581082851
 10
131.4938081246
 20
114.9776300352
 10
131.4934186053
 20
114.9971450186
 10
131.4928790499
 20
115.0166518783
 10
131.4921893793
 20
115.0361492574
  0
LINE
  5
59A
100
AcDbEntity
  8
21814000
100
AcDbLine
 62
253
  6
CONTINUOUS
 10
128.1612592023
 20
95.421259375
 11
127.2994527768
 21
95.000800375
  0
LINE
  5
59B
100
AcDbEntity
  8
21814000
100
AcDbLine
 62
253
  6
CONTINUOUS
 10
118.0803258799
 20
91.990296375
 11
119.9921853759
 21
92.538672375
  0
LINE
  5
59C
100
AcDbEntity
  8
21814000
100
AcDbLine
 62
253
  6
CONTINUOUS
 10
117.5658276369
 20
114.296029375
 11
119.9921923738
 21
114.296029375
  0
LINE
  5
59D
100
AcDbEntity
  8
ASSI
100
AcDbLine
 62
7
  6
CONTINUOUS
 10
114.4921923738
 20
114.311047375
 11
114.6921923738
 21
114.311047375
  0
LINE
  5
59E
100
AcDbEntity
  8
21814000
100
AcDbLine
 62
253
  6
CONTINUOUS
 10
123.3921923738
 20
114.6403070048
 11
122.4423370634
 21
114.6403070048
  0
LINE
  5
59F
100
AcDbEntity
  8
21814000
100
AcDbLine
 62
253
  6
CONTINUOUS
 10
133.1925883362
 20
114.769971375
 11
134.4921923738
 21
114.769971375
  0
LINE
  5
5A0
100
AcDbEntity
  8
ASSI
100
AcDbLine
 62
7
  6
CONTINUOUS
 10
114.4921923738
 20
114.811065375
 11
114.6921923738
 21
114.811065375
  0
LINE
  5
5A1
100
AcDbEntity
  8
21814000
100
AcDbLine
 62
253
  6
CONTINUOUS
 10
126.3976645709
 20
115.036149375
 11
127.1482558813
 21
115.036149375
  0
LINE
  5
5A2
100
AcDbEntity
  8
21814000
100
AcDbLine
 62
253
  6
CONTINUOUS
 10
130.7416010634
 20
115.036149375
 11
131.4921923738
 21
115.036149375
  0
LINE
  5
5A3
100
AcDbEntity
  8
ASSI
100
AcDbLine
 62
7
  6
CONTINUOUS
 10
114.4921923738
 20
115.311072375
 11
114.6921923738
 21
115.311072375
  0
LINE
  5
5A4
100
AcDbEntity
  8
21814000
100
AcDbLine
 62
253
  6
CONTINUOUS
 10
122.8494178864
 20
115.4998307065
 11
122.0352561837
 21
115.4998307065
  0
LINE
  5
5A5
100
AcDbEntity
  8
21814000
100
AcDbLine
 62
253
  6
CONTINUOUS
 10
134.4921923738
 20
115.573911375
 11
133.1925883362
 21
115.573911375
  0
LINE
  5
5A6
100
AcDbEntity
  8
21814000
100
AcDbLine
 62
253
  6
CONTINUOUS
 10
119.3904887004
 20
115.750013375
 11
117.0930746749
 21
115.750013375
  0
LINE
  5
5A7
100
AcDbEntity
  8
ASSI
100
AcDbLine
 62
7
  6
CONTINUOUS
 10
114.4921923738
 20
115.811090375
 11
114.6921923738
 21
115.811090375
  0
LINE
  5
5A8
100
AcDbEntity
  8
ASSI
100
AcDbLine
 62
7
  6
CONTINUOUS
 10
114.4921923738
 20
116.144428375
 11
114.6921923738
 21
116.144428375
  0
LINE
  5
5A9
100
AcDbEntity
  8
21814000
100
AcDbLine
 62
253
  6
CONTINUOUS
 10
122.9851115224
 20
114.0069737092
 11
121.492481753
 21
114.4141164855
  0
LINE
  5
5AA
100
AcDbEntity
  8
21814000
100
AcDbLine
 62
253
  6
CONTINUOUS
 10
117.0930746749
 20
117.674143375
 11
119.9921923738
 21
116.625699375
  0
LINE
  5
5AB
100
AcDbEntity
  8
21814000
100
AcDbLine
 62
253
  6
CONTINUOUS
 10
122.0352561837
 20
115.4998307065
 11
121.7638689683
 21
115.635545154
  0
LINE
  5
5AC
100
AcDbEntity
  8
21814000
100
AcDbLine
 62
253
  6
CONTINUOUS
 10
130.4923446786
 20
108.9069737629
 11
130.7065977732
 21
108.7641164497
  0
LINE
  5
5AD
100
AcDbEntity
  8
21814000
100
AcDbLine
 62
253
  6
CONTINUOUS
 10
130.6351800551
 20
110.3831640915
 11
130.4923446786
 21
110.4784023003
  0
LINE
  5
5AE
100
AcDbEntity
  8
21814000
100
AcDbLine
 62
253
  6
CONTINUOUS
 10
131.4921923738
 20
108.7641164497
 11
130.7780154316
 21
109.2641164497
  0
LINE
  5
5AF
100
AcDbEntity
  8
21814000
100
AcDbLine
 62
253
  6
CONTINUOUS
 10
130.6351800551
 20
107.3355451063
 11
130.4923446786
 21
107.4784021811
  0
LINE
  5
5B0
100
AcDbEntity
  8
21814000
100
AcDbLine
 62
253
  6
CONTINUOUS
 10
131.3493569824
 20
106.9069736437
 11
131.4921923738
 21
106.7641165689
  0
LINE
  5
5B1
100
AcDbEntity
  8
21814000
100
AcDbLine
 62
253
  6
CONTINUOUS
 10
121.7638689683
 20
117.128402038
 11
121.492481753
 21
117.399830933
  0
LINE
  5
5B2
100
AcDbEntity
  8
21814000
100
AcDbLine
 62
253
  6
CONTINUOUS
 10
131.3493569824
 20
107.6926879124
 11
131.4921923738
 21
107.5498308376
  0
LINE
  5
5B3
100
AcDbEntity
  8
21814000
100
AcDbLine
 62
253
  6
CONTINUOUS
 10
123.1208051301
 20
116.3141164855
 11
123.3921923738
 21
116.0426880435
  0
LINE
  5
5B4
100
AcDbEntity
  8
21814000
100
AcDbLine
 62
253
  6
CONTINUOUS
 10
131.4921923738
 20
108.3355449871
 11
131.3493569824
 21
108.4784023003
  0
LINE
  5
5B5
100
AcDbEntity
  8
21814000
100
AcDbLine
 62
253
  6
CONTINUOUS
 10
122.0352561837
 20
118.485545154
 11
121.492481753
 21
119.028402038
  0
LWPOLYLINE
  5
5B6
100
AcDbEntity
  8
21814000
100
AcDbPolyline
 62
253
  6
CONTINUOUS
 90
3
 70
0
 10
136.2650153878
 20
91.6891542423
 10
136.2780934378
 20
91.6502538085
 10
136.2916166795
 20
91.608588105
  0
LINE
  5
5B7
100
AcDbEntity
  8
21814000
100
AcDbLine
 62
253
  6
CONTINUOUS
 10
133.1893442732
 20
95.7784019665
 11
133.1893442732
 21
95.4998309807
  0
LINE
  5
5B8
100
AcDbEntity
  8
21814000
100
AcDbLine
 62
253
  6
CONTINUOUS
 10
133.1893442732
 20
93.7355451778
 11
133.1893442732
 21
93.4569735722
  0
LINE
  5
5B9
100
AcDbEntity
  8
21814000
100
AcDbLine
 62
253
  6
CONTINUOUS
 10
133.1893442732
 20
92.7141167835
 11
133.1893442732
 21
92.4355451778
  0
LINE
  5
5BA
100
AcDbEntity
  8
21814000
100
AcDbLine
 62
253
  6
CONTINUOUS
 10
133.1893442732
 20
91.6926880793
 11
133.1893442732
 21
91.4141164736
  0
LINE
  5
5BB
100
AcDbEntity
  8
21814000
100
AcDbLine
 62
253
  6
CONTINUOUS
 10
133.1893442732
 20
88.6284021989
 11
133.1893442732
 21
88.9998308257
  0
LINE
  5
5BC
100
AcDbEntity
  8
21814000
100
AcDbLine
 62
253
  6
CONTINUOUS
 10
133.1925883362
 20
111.595001375
 11
133.1925883362
 21
110.648014375
  0
LINE
  5
5BD
100
AcDbEntity
  8
21814000
100
AcDbLine
 62
253
  6
CONTINUOUS
 10
133.1925883362
 20
109.761502375
 11
133.1925883362
 21
109.331666375
  0
LINE
  5
5BE
100
AcDbEntity
  8
21814000
100
AcDbLine
 62
253
  6
CONTINUOUS
 10
133.1925883362
 20
115.046114375
 11
133.1925883362
 21
116.101706375
  0
LINE
  5
5BF
100
AcDbEntity
  8
21814000
100
AcDbLine
 62
253
  6
CONTINUOUS
 10
133.7464022416
 20
94.7569735722
 11
133.7464022416
 21
94.354592915
  0
LINE
  5
5C0
100
AcDbEntity
  8
21814000
100
AcDbLine
 62
253
  6
CONTINUOUS
 10
133.842390355
 20
110.648014375
 11
133.842390355
 21
111.528605375
  0
LINE
  5
5C1
100
AcDbEntity
  8
21814000
100
AcDbLine
 62
253
  6
CONTINUOUS
 10
134.0204950902
 20
116.377543375
 11
134.0204950902
 21
117.104200375
  0
LINE
  5
5C2
100
AcDbEntity
  8
21814000
100
AcDbLine
 62
253
  6
CONTINUOUS
 10
134.0279338237
 20
108.224557375
 11
134.0279338237
 21
108.957742375
  0
LINE
  5
5C3
100
AcDbEntity
  8
21814000
100
AcDbLine
 62
253
  6
CONTINUOUS
 10
119.0892264888
 20
88.642420375
 11
117.0929377166
 21
88.001288375
  0
LINE
  5
5C4
100
AcDbEntity
  8
21814000
100
AcDbLine
 62
253
  6
CONTINUOUS
 10
117.3747932302
 20
87.5117808086
 11
119.9921923738
 21
88.352391375
  0
LINE
  5
5C5
100
AcDbEntity
  8
21814000
100
AcDbLine
 62
253
  6
CONTINUOUS
 10
117.0930746749
 20
116.332457375
 11
119.9921923738
 21
116.332457375
  0
LINE
  5
5C6
100
AcDbEntity
  8
21814000
100
AcDbLine
 62
253
  6
CONTINUOUS
 10
122.0352561837
 20
116.4498307065
 11
122.8494178864
 21
116.4498307065
  0
LINE
  5
5C7
100
AcDbEntity
  8
ASSI
100
AcDbLine
 62
7
  6
CONTINUOUS
 10
114.4921923738
 20
116.947134375
 11
114.6921923738
 21
116.947134375
  0
LINE
  5
5C8
100
AcDbEntity
  8
21814000
100
AcDbLine
 62
253
  6
CONTINUOUS
 10
122.8494178864
 20
116.992687817
 11
122.0352561837
 21
116.992687817
  0
LINE
  5
5C9
100
AcDbEntity
  8
ASSI
100
AcDbLine
 62
7
  6
CONTINUOUS
 10
114.4921923738
 20
117.447172375
 11
114.6921923738
 21
117.447172375
  0
LINE
  5
5CA
100
AcDbEntity
  8
21814000
100
AcDbLine
 62
253
  6
CONTINUOUS
 10
133.1925883362
 20
117.560177375
 11
134.4921923738
 21
117.560177375
  0
LINE
  5
5CB
100
AcDbEntity
  8
21814000
100
AcDbLine
 62
253
  6
CONTINUOUS
 10
122.0352561837
 20
117.942687817
 11
122.8494178864
 21
117.942687817
  0
LINE
  5
5CC
100
AcDbEntity
  8
21814000
100
AcDbLine
 62
253
  6
CONTINUOUS
 10
118.8959543748
 20
117.597750375
 11
117.6472298353
 21
118.027708375
  0
LINE
  5
5CD
100
AcDbEntity
  8
21814000
100
AcDbLine
 62
253
  6
CONTINUOUS
 10
119.9921923738
 20
117.220148375
 11
119.3777405845
 21
117.437105375
  0
LINE
  5
5CE
100
AcDbEntity
  8
21814000
100
AcDbLine
 62
253
  6
CONTINUOUS
 10
122.8494178864
 20
116.4498307065
 11
123.1208051301
 21
116.3141164855
  0
LINE
  5
5CF
100
AcDbEntity
  8
21814000
100
AcDbLine
 62
253
  6
CONTINUOUS
 10
122.0352561837
 20
116.992687817
 11
121.7638689683
 21
117.128402038
  0
LINE
  5
5D0
100
AcDbEntity
  8
21814000
100
AcDbLine
 62
253
  6
CONTINUOUS
 10
122.8494178864
 20
117.942687817
 11
123.1208051301
 21
117.806973596
  0
LINE
  5
5D1
100
AcDbEntity
  8
21814000
100
AcDbLine
 62
253
  6
CONTINUOUS
 10
123.1208051301
 20
117.806973596
 11
123.3921923738
 21
117.535545154
  0
LINE
  5
5D2
100
AcDbEntity
  8
21814000
100
AcDbLine
 62
253
  6
CONTINUOUS
 10
131.0636862144
 20
110.3355452255
 11
130.9208508081
 21
110.4784023003
  0
LINE
  5
5D3
100
AcDbEntity
  8
21814000
100
AcDbLine
 62
253
  6
CONTINUOUS
 10
131.3493569824
 20
110.8355452255
 11
131.4921923738
 21
110.6926881508
  0
LINE
  5
5D4
100
AcDbEntity
  8
21814000
100
AcDbLine
 62
253
  6
CONTINUOUS
 10
130.8494331497
 20
110.7879258827
 11
130.9208508081
 21
110.6926881508
  0
LWPOLYLINE
  5
5D5
100
AcDbEntity
  8
21814000
100
AcDbPolyline
 62
253
  6
CONTINUOUS
 90
4
 70
0
 10
136.1898225327
 20
85.0933474316
 10
136.1886138721
 20
85.1118984074
 10
136.1875112801
 20
85.1335003897
 10
136.1866455846
 20
85.1581460328
  0
LWPOLYLINE
  5
5D6
100
AcDbEntity
  8
21814000
100
AcDbPolyline
 62
7
  6
CONTINUOUS
 90
4
 70
0
 10
136.1910152874
 20
85.086134209
 10
136.1891059937
 20
85.1190453248
 10
136.1881587215
 20
85.1394805891
 10
136.1873680777
 20
85.1633597313
  0
LINE
  5
5D7
100
AcDbEntity
  8
21814000
100
AcDbLine
 62
7
  6
CONTINUOUS
 10
136.1917728418
 20
85.0718207581
 11
136.1910152874
 21
85.086134209
  0
LWPOLYLINE
  5
5D8
100
AcDbEntity
  8
21814000
100
AcDbPolyline
 62
253
  6
CONTINUOUS
 90
10
 70
0
 10
136.1921980998
 20
91.9570928349
 10
136.1930395679
 20
91.9379394653
 10
136.195541664
 20
91.9172686186
 10
136.1996561264
 20
91.8951153515
 10
136.2053273079
 20
91.8715795237
 10
136.2124579494
 20
91.8465511902
 10
136.2208942026
 20
91.8196319333
 10
136.2304538174
 20
91.7905188645
 10
136.2410342728
 20
91.7591392775
 10
136.2650153878
 20
91.6891542423
  0
LINE
  5
5D9
100
AcDbEntity
  8
21814000
100
AcDbLine
 62
253
  6
CONTINUOUS
 10
136.2916163013
 20
91.6085889053
 11
136.2901119064
 21
91.6418576014
  0
LWPOLYLINE
  5
5DA
100
AcDbEntity
  8
21814000
100
AcDbPolyline
 62
253
  6
CONTINUOUS
 90
3
 70
0
 10
136.1921783518
 20
85.0575866494
 10
136.1918400278
 20
85.0654217383
 10
136.1898225327
 20
85.0933474316
  0
LINE
  5
5DB
100
AcDbEntity
  8
21814000
100
AcDbLine
 62
253
  6
CONTINUOUS
 10
136.2901119064
 20
91.6418576014
 11
136.2871319115
 21
91.7139243836
  0
LINE
  5
5DC
100
AcDbEntity
  8
21814000
100
AcDbLine
 62
253
  6
CONTINUOUS
 10
136.2871319115
 20
91.7139243836
 11
136.2849555764
 21
91.7706508681
  0
LINE
  5
5DD
100
AcDbEntity
  8
21814000
100
AcDbLine
 62
253
  6
CONTINUOUS
 10
136.2849555764
 20
91.7706508681
 11
136.2830138474
 21
91.8251571634
  0
LINE
  5
5DE
100
AcDbEntity
  8
21814000
100
AcDbLine
 62
253
  6
CONTINUOUS
 10
136.2830138474
 20
91.8251571634
 11
136.2811368861
 21
91.8827663881
  0
LINE
  5
5DF
100
AcDbEntity
  8
21814000
100
AcDbLine
 62
7
  6
CONTINUOUS
 10
136.1921722164
 20
85.0576539645
 11
136.1917728418
 21
85.0718207581
  0
LINE
  5
5E0
100
AcDbEntity
  8
21814000
100
AcDbLine
 62
253
  6
CONTINUOUS
 10
136.2811368861
 20
91.8827663881
 11
136.2805939869
 21
91.9011610309
  0
LINE
  5
5E1
100
AcDbEntity
  8
21814000
100
AcDbLine
 62
253
  6
CONTINUOUS
 10
136.1866455846
 20
85.1581460328
 11
136.1859282285
 21
85.1877436259
  0
LINE
  5
5E2
100
AcDbEntity
  8
21814000
100
AcDbLine
 62
7
  6
CONTINUOUS
 10
136.1873680777
 20
85.1633597313
 11
136.1868329485
 21
85.1860815001
  0
LINE
  5
5E3
100
AcDbEntity
  8
21814000
100
AcDbLine
 62
253
  6
CONTINUOUS
 10
136.2805939869
 20
91.9011610309
 11
136.2803539841
 21
91.9123192206
  0
LWPOLYLINE
  5
5E4
100
AcDbEntity
  8
21814000
100
AcDbPolyline
 62
253
  6
CONTINUOUS
 90
3
 70
0
 10
136.1859282285
 20
85.1877436259
 10
136.1853111442
 20
85.2202354357
 10
136.1848139674
 20
85.2553823511
  0
LINE
  5
5E5
100
AcDbEntity
  8
21814000
100
AcDbLine
 62
7
  6
CONTINUOUS
 10
136.1868329485
 20
85.1860815001
 11
136.1861072978
 21
85.2265177711
  0
LWPOLYLINE
  5
5E6
100
AcDbEntity
  8
21814000
100
AcDbPolyline
 62
7
  6
CONTINUOUS
 90
9
 70
0
 10
136.1861072978
 20
85.2265177711
 10
136.1855536075
 20
85.271205464
 10
136.18519715
 20
85.3197074211
 10
136.1850628271
 20
85.3715663867
 10
136.1851596679
 20
85.4263159923
 10
136.1854847916
 20
85.4834112589
 10
136.1860239915
 20
85.542248588
 10
136.1867433865
 20
85.6022419498
 10
136.187617376
 20
85.6676518286
  0
LWPOLYLINE
  5
5E7
100
AcDbEntity
  8
21814000
100
AcDbPolyline
 62
253
  6
CONTINUOUS
 90
10
 70
0
 10
136.1848139674
 20
85.2553823511
 10
136.1844513402
 20
85.2929014092
 10
136.1842345055
 20
85.3325435622
 10
136.1841713892
 20
85.374102124
 10
136.1842705055
 20
85.4175427515
 10
136.1845222744
 20
85.4623011871
 10
136.1849016201
 20
85.5073470084
 10
136.1853927957
 20
85.5521170407
 10
136.1859884089
 20
85.5965357224
 10
136.1866714901
 20
85.6403060366
  0
LINE
  5
5E8
100
AcDbEntity
  8
21814000
100
AcDbLine
 62
253
  6
CONTINUOUS
 10
136.1921923738
 20
85.0560482152
 11
136.1921783518
 21
85.0575866494
  0
LINE
  5
5E9
100
AcDbEntity
  8
21814000
100
AcDbLine
 62
253
  6
CONTINUOUS
 10
134.4891462769
 20
95.9641167835
 11
134.4891462769
 21
95.3141167835
  0
LINE
  5
5EA
100
AcDbEntity
  8
21814000
100
AcDbLine
 62
253
  6
CONTINUOUS
 10
134.4891462769
 20
93.921259375
 11
134.4891462769
 21
93.271259375
  0
LINE
  5
5EB
100
AcDbEntity
  8
21814000
100
AcDbLine
 62
253
  6
CONTINUOUS
 10
134.4891462769
 20
92.8998309807
 11
134.4891462769
 21
92.2498306707
  0
LINE
  5
5EC
100
AcDbEntity
  8
21814000
100
AcDbLine
 62
253
  6
CONTINUOUS
 10
134.4891462769
 20
91.8784022764
 11
134.4891462769
 21
91.2284022764
  0
LINE
  5
5ED
100
AcDbEntity
  8
21814000
100
AcDbLine
 62
253
  6
CONTINUOUS
 10
134.4891462769
 20
88.5355451004
 11
134.4891462769
 21
88.9069737271
  0
LINE
  5
5EE
100
AcDbEntity
  8
21814000
100
AcDbLine
 62
253
  6
CONTINUOUS
 10
134.4891462769
 20
94.4784019665
 11
134.4891462769
 21
94.7569735722
  0
LINE
  5
5EF
100
AcDbEntity
  8
21814000
100
AcDbLine
 62
253
  6
CONTINUOUS
 10
134.4921923738
 20
109.331666375
 11
134.4921923738
 21
109.761502375
  0
LINE
  5
5F0
100
AcDbEntity
  8
21814000
100
AcDbLine
 62
253
  6
CONTINUOUS
 10
134.4921923738
 20
110.648014375
 11
134.4921923738
 21
111.607691375
  0
LINE
  5
5F1
100
AcDbEntity
  8
21814000
100
AcDbLine
 62
253
  6
CONTINUOUS
 10
134.4921923738
 20
117.560177375
 11
134.4921923738
 21
118.307111375
  0
LINE
  5
5F2
100
AcDbEntity
  8
21814000
100
AcDbLine
 62
253
  6
CONTINUOUS
 10
135.3078995396
 20
122.843449673
 11
135.3078995396
 21
116.5030219662
  0
LINE
  5
5F3
100
AcDbEntity
  8
21814000
100
AcDbLine
 62
253
  6
CONTINUOUS
 10
135.3078995396
 20
83.999069077
 11
135.3078995396
 21
114.5394967838
  0
LWPOLYLINE
  5
5F4
100
AcDbEntity
  8
21814000
100
AcDbPolyline
 62
7
  6
CONTINUOUS
 90
6
 70
0
 10
136.1880535457
 20
109.0309106815
 10
136.1883841324
 20
109.0829060368
 10
136.1891376797
 20
109.1356617575
 10
136.1901732349
 20
109.1887006281
 10
136.1912713502
 20
109.2414380986
 10
136.1920537428
 20
109.2935165919
  0
LINE
  5
5F5
100
AcDbEntity
  8
21814000
100
AcDbLine
 62
7
  6
CONTINUOUS
 10
136.1919874674
 20
109.2899198084
 11
136.1921692432
 21
109.3113559737
  0
LINE
  5
5F6
100
AcDbEntity
  8
21814000
100
AcDbLine
 62
7
  6
CONTINUOUS
 10
136.1891830553
 20
109.1573502525
 11
136.1914657628
 21
109.2577451913
  0
LWPOLYLINE
  5
5F7
100
AcDbEntity
  8
21814000
100
AcDbPolyline
 62
253
  6
CONTINUOUS
 90
46
 70
0
 10
136.1921923738
 20
118.1335460839
 10
136.1902149695
 20
118.0658919482
 10
136.1846760016
 20
117.9994144474
 10
136.1761508765
 20
117.9341135816
 10
136.1652481746
 20
117.8698859129
 10
136.1524564166
 20
117.8068348792
 10
136.1380195517
 20
117.7452707943
 10
136.1222686678
 20
117.6852622868
 10
136.1055601608
 20
117.6267407281
 10
136.0879718767
 20
117.5698105459
 10
136.0697373236
 20
117.514569176
 10
136.051079742
 20
117.4609191825
 10
136.0319259918
 20
117.4086726858
 10
136.0123975926
 20
117.3578264791
 10
135.9926565025
 20
117.3083837691
 10
135.9725964727
 20
117.2601662968
 10
135.9522758384
 20
117.2131204939
 10
135.9318176898
 20
117.1672999286
 10
135.9111603629
 20
117.1226870459
 10
135.8903513477
 20
117.0792530873
 10
135.8694725179
 20
117.0370268112
 10
135.8484869168
 20
116.9960769389
 10
135.8274474288
 20
116.956409521
 10
135.8063993686
 20
116.9180185067
 10
135.7852765364
 20
116.8809544653
 10
135.7641254818
 20
116.8452208893
 10
135.7429721173
 20
116.8108142862
 10
135.7217030048
 20
116.7777747475
 10
135.7003394493
 20
116.7460666018
 10
135.678910506
 20
116.7157255204
 10
135.6573006764
 20
116.6868986086
 10
135.6355157828
 20
116.6595327302
 10
135.613586332
 20
116.6336810213
 10
135.5914249043
 20
116.6096499948
 10
135.5690393739
 20
116.5873989726
 10
135.5464518054
 20
116.5669686328
 10
135.5235910155
 20
116.5487875228
 10
135.5004460552
 20
116.5328378814
 10
135.4770555886
 20
116.5191374696
 10
135.4534213093
 20
116.5081681184
 10
135.4295341081
 20
116.500003252
 10
135.4054337851
 20
116.4945694461
 10
135.3811966876
 20
116.4921282588
 10
135.356860175
 20
116.492766876
 10
135.3324218515
 20
116.4963981118
 10
135.3078995396
 20
116.5030219662
  0
LWPOLYLINE
  5
5F8
100
AcDbEntity
  8
21814000
100
AcDbPolyline
 62
253
  6
CONTINUOUS
 90
40
 70
0
 10
136.4660456509
 20
117.9022195259
 10
136.4620789297
 20
117.8401702547
 10
136.4547661978
 20
117.7786737439
 10
136.4441074551
 20
117.7180298518
 10
136.4295819975
 20
117.6586506698
 10
136.4117105292
 20
117.6006619536
 10
136.3920551623
 20
117.5438866592
 10
136.3708379744
 20
117.4885276592
 10
136.347836888
 20
117.4347757398
 10
136.3239477832
 20
117.3823796939
 10
136.2993353381
 20
117.3315193336
 10
136.2738348746
 20
117.282296455
 10
136.2478482386
 20
117.2342881683
 10
136.2214514542
 20
117.1875376504
 10
136.1945684972
 20
117.1421857304
 10
136.1673731412
 20
117.0979114921
 10
136.13987854
 20
117.054701419
 10
136.1120715397
 20
117.0126941659
 10
136.0840864517
 20
116.9717732295
 10
136.0559332454
 20
116.9319501908
 10
136.0276019515
 20
116.8933091045
 10
135.9991969736
 20
116.8558320946
 10
135.9707481459
 20
116.8195580382
 10
135.9422256343
 20
116.7845251427
 10
135.9136443406
 20
116.750708513
 10
135.8850371812
 20
116.7181325035
 10
135.8563712398
 20
116.6868334836
 10
135.8275626685
 20
116.6567994324
 10
135.7986153628
 20
116.6280086874
 10
135.7695254274
 20
116.6005301369
 10
135.7401973285
 20
116.5744852159
 10
135.7106227955
 20
116.5498428451
 10
135.680810099
 20
116.526673929
 10
135.6506885179
 20
116.5052542516
 10
135.620252866
 20
116.4855641618
 10
135.5895083295
 20
116.467659348
 10
135.5583997447
 20
116.4519319559
 10
135.5269087238
 20
116.4385248574
 10
135.4950536546
 20
116.4273283522
 10
135.4628345372
 20
116.4183562237
  0
LWPOLYLINE
  5
5F9
100
AcDbEntity
  8
21814000
100
AcDbPolyline
 62
253
  6
CONTINUOUS
 90
13
 70
0
 10
136.1921923738
 20
112.9089726661
 10
136.1944820905
 20
112.9376076046
 10
136.2013162593
 20
112.9658053473
 10
136.2125905154
 20
112.993135471
 10
136.2281327166
 20
113.0191807984
 10
136.2477055811
 20
113.0435437808
 10
136.2710103179
 20
113.0658525625
 10
136.297691164
 20
113.0857666305
 10
136.3273408355
 20
113.102982036
 10
136.3595067686
 20
113.1172360366
 10
136.3936979813
 20
113.1283110762
 10
136.429392558
 20
113.1360381152
 10
136.4660456509
 20
113.1402992246
  0
LINE
  5
5FA
100
AcDbEntity
  8
21814000
100
AcDbLine
 62
253
  6
CONTINUOUS
 10
136.466045671
 20
106.0470667726
 11
136.4579060321
 21
106.0170838663
  0
LINE
  5
5FB
100
AcDbEntity
  8
21814000
100
AcDbLine
 62
253
  6
CONTINUOUS
 10
127.4593160698
 20
88.290237375
 11
128.4921923738
 21
89.621259375
  0
LINE
  5
5FC
100
AcDbEntity
  8
21814000
100
AcDbLine
 62
253
  6
CONTINUOUS
 10
133.3750302627
 20
95.9641167835
 11
133.1893442732
 21
95.7784019665
  0
LINE
  5
5FD
100
AcDbEntity
  8
21814000
100
AcDbLine
 62
253
  6
CONTINUOUS
 10
133.9320882698
 20
94.9426877693
 11
133.7464022416
 21
94.7569735722
  0
LINE
  5
5FE
100
AcDbEntity
  8
21814000
100
AcDbLine
 62
253
  6
CONTINUOUS
 10
133.3750302627
 20
93.921259375
 11
133.1893442732
 21
93.7355451778
  0
LWPOLYLINE
  5
5FF
100
AcDbEntity
  8
21814000
100
AcDbPolyline
 62
253
  6
CONTINUOUS
 90
51
 70
0
 10
127.4593159559
 20
90.9522815218
 10
127.5003038571
 20
90.9831063634
 10
127.5422679299
 20
91.0126929057
 10
127.5851591817
 20
91.0410124604
 10
127.6289286202
 20
91.0680363391
 10
127.6735272528
 20
91.0937358536
 10
127.7189060872
 20
91.1180823157
 10
127.765016131
 20
91.141047037
 10
127.8118083917
 20
91.1626013292
 10
127.8592338769
 20
91.182716504
 10
127.9072435941
 20
91.2013638733
 10
127.9557891731
 20
91.2185181346
 10
128.0048247325
 20
91.2341675297
 10
128.0543050131
 20
91.2483036864
 10
128.1041847555
 20
91.2609182325
 10
128.1544187005
 20
91.2720027956
 10
128.2049615889
 20
91.2815490036
 10
128.2557681614
 20
91.2895484841
 10
128.3067931588
 20
91.295992865
 10
128.3579913218
 20
91.3008737739
 10
128.4093173912
 20
91.3041828387
 10
128.4607255144
 20
91.3059139278
 10
128.5121674654
 20
91.3060698728
 10
128.563594425
 20
91.3046557458
 10
128.6149575739
 20
91.3016766193
 10
128.6662080929
 20
91.2971375654
 10
128.7172971627
 20
91.2910436564
 10
128.768175964
 20
91.2833999645
 10
128.8187956775
 20
91.2742115621
 10
128.869107484
 20
91.2634835214
 10
128.9190625642
 20
91.2512209146
 10
128.9686131398
 20
91.2374308851
 10
129.0177155969
 20
91.2221288596
 10
129.0663273624
 20
91.2053323363
 10
129.1144058634
 20
91.1870588129
 10
129.1619085267
 20
91.1673257874
 10
129.2087927794
 20
91.1461507577
 10
129.2550160486
 20
91.1235512218
 10
129.3005357611
 20
91.0995446775
 10
129.345309344
 20
91.0741486228
 10
129.3892942243
 20
91.0473805556
 10
129.4324479157
 20
91.0192614154
 10
129.474728279
 20
90.9898259083
 10
129.5160932617
 20
90.9591121822
 10
129.5565008113
 20
90.9271583847
 10
129.5959088754
 20
90.8940026636
 10
129.6342754015
 20
90.8596831666
 10
129.6715583372
 20
90.8242380415
 10
129.7077156298
 20
90.7877054361
 10
129.7427052271
 20
90.750123498
 10
129.7764850764
 20
90.711530375
  0
LINE
  5
600
100
AcDbEntity
  8
RACCORDO
100
AcDbLine
 62
7
  6
CONTINUOUS
 10
111.8671923738
 20
80.2264408605
 11
111.1171923738
 21
79.7934281586
  0
LINE
  5
601
100
AcDbEntity
  8
RACCORDO
100
AcDbLine
 62
253
  6
CONTINUOUS
 10
111.9921923738
 20
80.0099345096
 11
111.2421923738
 21
79.5769218077
  0
LINE
  5
602
100
AcDbEntity
  8
ASSI
100
AcDbLine
 62
7
  6
CONTINUOUS
 10
114.4921923738
 20
118.249872375
 11
114.6921923738
 21
118.249872375
  0
LINE
  5
603
100
AcDbEntity
  8
21814000
100
AcDbLine
 62
253
  6
CONTINUOUS
 10
134.4921923738
 20
118.944863375
 11
133.9893105914
 21
118.944863375
  0
LINE
  5
604
100
AcDbEntity
  8
21814000
100
AcDbLine
 62
253
  6
CONTINUOUS
 10
128.5700426923
 20
119.021259375
 11
129.3198142524
 21
119.021259375
  0
LINE
  5
605
100
AcDbEntity
  8
21814000
100
AcDbLine
 62
7
  6
CONTINUOUS
 10
136.1921923738
 20
119.021259375
 11
136.3921923738
 21
119.021259375
  0
LINE
  5
606
100
AcDbEntity
  8
21814000
100
AcDbLine
 62
253
  6
CONTINUOUS
 10
121.492481753
 20
119.028402038
 11
123.3921923738
 21
119.028402038
  0
LINE
  5
607
100
AcDbEntity
  8
21814000
100
AcDbLine
 62
253
  6
CONTINUOUS
 10
126.3976645709
 20
119.421259375
 11
127.1482558813
 21
119.421259375
  0
LINE
  5
608
100
AcDbEntity
  8
21814000
100
AcDbLine
 62
253
  6
CONTINUOUS
 10
130.7416010634
 20
119.421259375
 11
131.4921923738
 21
119.421259375
  0
LINE
  5
609
100
AcDbEntity
  8
21814000
100
AcDbLine
 62
7
  6
CONTINUOUS
 10
136.4660456509
 20
118.5973003178
 11
138.2183390966
 21
118.4439945061
  0
LWPOLYLINE
  5
60A
100
AcDbEntity
  8
21814000
100
AcDbPolyline
 62
253
  6
CONTINUOUS
 90
46
 70
0
 10
128.5700430147
 20
117.5607551943
 10
128.5149900352
 20
117.5734020693
 10
128.4603033445
 20
117.5877986997
 10
128.4060457364
 20
117.6039235077
 10
128.3522800048
 20
117.6217549158
 10
128.2990689435
 20
117.6412713461
 10
128.2464753464
 20
117.6624512212
 10
128.1945620074
 20
117.6852729632
 10
128.1433917203
 20
117.7097149945
 10
128.0930272789
 20
117.7357557375
 10
128.0435281271
 20
117.7633717707
 10
127.9949403077
 20
117.7925322975
 10
127.9473065136
 20
117.8232046776
 10
127.9006694375
 20
117.8553562707
 10
127.8550717724
 20
117.8889544366
 10
127.8105562109
 20
117.9239665348
 10
127.767165446
 20
117.960359925
 10
127.7249421704
 20
117.998101967
 10
127.6839290769
 20
118.0371600204
 10
127.644167555
 20
118.0774992793
 10
127.605693781
 20
118.1190762759
 10
127.5685426277
 20
118.1618453764
 10
127.5327489679
 20
118.2057609476
 10
127.4983476746
 20
118.2507773558
 10
127.4653736207
 20
118.2968489675
 10
127.433861679
 20
118.3439301492
 10
127.4038467225
 20
118.3919752675
 10
127.3753636239
 20
118.4409386887
 10
127.3484448252
 20
118.4907740895
 10
127.3231130445
 20
118.5414323866
 10
127.2993885688
 20
118.592863807
 10
127.2772916852
 20
118.6450185777
 10
127.2568426807
 20
118.6978469254
 10
127.2380618425
 20
118.7512990771
 10
127.2209694576
 20
118.8053252596
 10
127.205585813
 20
118.8598757
 10
127.191931196
 20
118.9149006251
 10
127.1800232359
 20
118.9703475117
 10
127.169868932
 20
119.0261528361
 10
127.161472626
 20
119.0822503247
 10
127.1548386596
 20
119.1385737038
 10
127.1499713745
 20
119.1950566995
 10
127.1468751125
 20
119.2516330382
 10
127.1455542151
 20
119.3082364462
 10
127.1460130241
 20
119.3648006497
 10
127.1482558813
 20
119.421259375
  0
LWPOLYLINE
  5
60B
100
AcDbEntity
  8
21814000
100
AcDbPolyline
 62
253
  6
CONTINUOUS
 90
37
 70
0
 10
135.4628575703
 20
114.6241543954
 10
135.4972818441
 20
114.6145133392
 10
135.5314322978
 20
114.6022307766
 10
135.5653089314
 20
114.5873246923
 10
135.5989679949
 20
114.5696151015
 10
135.6323532382
 20
114.54932653
 10
135.6652959112
 20
114.5270814818
 10
135.6976848991
 20
114.5030131407
 10
135.7296313166
 20
114.4770322242
 10
135.7612997571
 20
114.4494217093
 10
135.7926827313
 20
114.4202904107
 10
135.8237877286
 20
114.3895799763
 10
135.8548018109
 20
114.3573234743
 10
135.8857791845
 20
114.3235639989
 10
135.9166656431
 20
114.2883242247
 10
135.9474856301
 20
114.2516115371
 10
135.9782733428
 20
114.2134764326
 10
136.0089945839
 20
114.1739522437
 10
136.0395712045
 20
114.1330269403
 10
136.0700031812
 20
114.0908213456
 10
136.1002905375
 20
114.0473199839
 10
136.1303551952
 20
114.0023202841
 10
136.1602244729
 20
113.9559804714
 10
136.189871052
 20
113.9082887945
 10
136.2191348987
 20
113.8588205032
 10
136.248132149
 20
113.8077044629
 10
136.2767466668
 20
113.7550376383
 10
136.3044700104
 20
113.7004004165
 10
136.3314850949
 20
113.6439669289
 10
136.357609005
 20
113.5859028153
 10
136.381784554
 20
113.5258446022
 10
136.4043172065
 20
113.4637133993
 10
136.4249014979
 20
113.4001038516
 10
136.4415638462
 20
113.3356681916
 10
136.4536463908
 20
113.2707720946
 10
136.4618069924
 20
113.205553663
 10
136.4660456509
 20
113.1402992241
  0
LINE
  5
60C
100
AcDbEntity
  8
RACCORDO
100
AcDbLine
 62
7
  6
CONTINUOUS
 10
111.1171923738
 20
127.0490905914
 11
111.8671923738
 21
126.6160778895
  0
LINE
  5
60D
100
AcDbEntity
  8
RACCORDO
100
AcDbLine
 62
253
  6
CONTINUOUS
 10
111.2421923738
 20
127.2655969423
 11
111.9921923738
 21
126.8325842404
  0
LINE
  5
60E
100
AcDbEntity
  8
21814000
100
AcDbLine
 62
253
  6
CONTINUOUS
 10
136.4660456751
 20
104.1954519633
 11
136.4579060306
 21
104.2254348837
  0
LWPOLYLINE
  5
60F
100
AcDbEntity
  8
21814000
100
AcDbPolyline
 62
253
  6
CONTINUOUS
 90
13
 70
0
 10
136.1921923738
 20
118.1335460839
 10
136.1944821218
 20
118.10491067
 10
136.2013163663
 20
118.0767125671
 10
136.2125907146
 20
118.0493821992
 10
136.2281329899
 20
118.0233367467
 10
136.2477058888
 20
117.9989737399
 10
136.2710106292
 20
117.9766650031
 10
136.2976914422
 20
117.9567510438
 10
136.3273410398
 20
117.9395357982
 10
136.3595068969
 20
117.9252819825
 10
136.393698053
 20
117.9142071509
 10
136.4293925856
 20
117.9064803538
 10
136.4660456509
 20
117.9022195255
  0
LWPOLYLINE
  5
610
100
AcDbEntity
  8
21814000
100
AcDbPolyline
 62
253
  6
CONTINUOUS
 90
6
 70
0
 10
136.1921923738
 20
121.6138267972
 10
136.1888432383
 20
121.6686776273
 10
136.178820758
 20
121.7231202288
 10
136.1621995253
 20
121.7767494113
 10
136.1391032441
 20
121.8291660385
 10
136.1097038091
 20
121.8799799985
  0
LWPOLYLINE
  5
611
100
AcDbEntity
  8
21814000
100
AcDbPolyline
 62
253
  6
CONTINUOUS
 90
58
 70
0
 10
136.1921923738
 20
106.9437354972
 10
136.1925519983
 20
106.9096726543
 10
136.1935723863
 20
106.8766728471
 10
136.1951676567
 20
106.8447412832
 10
136.1972462498
 20
106.8139193903
 10
136.1997333465
 20
106.7841619096
 10
136.2025900273
 20
106.7553426322
 10
136.2057651943
 20
106.7274401619
 10
136.2092006211
 20
106.7004655456
 10
136.2128761363
 20
106.6743458277
 10
136.2167531097
 20
106.6490769368
 10
136.2207904384
 20
106.6246498651
 10
136.2249820662
 20
106.600988087
 10
136.2292994868
 20
106.5780894874
 10
136.2337130488
 20
106.5559434115
 10
136.2382278317
 20
106.5344640794
 10
136.2428256038
 20
106.5136383939
 10
136.2474827744
 20
106.4934685196
 10
136.2522053802
 20
106.4738944997
 10
136.2569826028
 20
106.4548957287
 10
136.261794123
 20
106.4364835387
 10
136.266636678
 20
106.4186475892
 10
136.2714981907
 20
106.4013836915
 10
136.2763651424
 20
106.3846872834
 10
136.281234675
 20
106.368548335
 10
136.2860931702
 20
106.3529745545
 10
136.2909330678
 20
106.3379501129
 10
136.2957631115
 20
106.3234306973
 10
136.3005684412
 20
106.3094319582
 10
136.3053475007
 20
106.2959314775
 10
136.3101326096
 20
106.2828296625
 10
136.3149162507
 20
106.2701264023
 10
136.3196953371
 20
106.2578175867
 10
136.3245130747
 20
106.2458000607
 10
136.3293640236
 20
106.2340715158
 10
136.3342477328
 20
106.2226325516
 10
136.3392190312
 20
106.2113870498
 10
136.3442789009
 20
106.2003200246
 10
136.3494246146
 20
106.1894475306
 10
136.3547091229
 20
106.1787227133
 10
136.3601527469
 20
106.1680996475
 10
136.3657364463
 20
106.157628063
 10
136.3714554404
 20
106.1474058303
 10
136.3773653205
 20
106.137358172
 10
136.3834108559
 20
106.1275639792
 10
136.3894160671
 20
106.1183475192
 10
136.3952986321
 20
106.1098374926
 10
136.4011301669
 20
106.1018993711
 10
136.4069626052
 20
106.0944598413
 10
136.4127326671
 20
106.0875501649
 10
136.4184968595
 20
106.0811362397
 10
136.4244918149
 20
106.0750526592
 10
136.4307889109
 20
106.0691875779
 10
136.437317885
 20
106.0636614909
 10
136.4441063563
 20
106.0586630199
 10
136.4511629448
 20
106.0542585379
 10
136.4584767962
 20
106.0503914338
 10
136.4660456509
 20
106.0470667036
  0
LWPOLYLINE
  5
612
100
AcDbEntity
  8
21814000
100
AcDbPolyline
 62
253
  6
CONTINUOUS
 90
3
 70
0
 10
136.2803534726
 20
86.9302024191
 10
136.2803513402
 20
86.931354408
 10
136.2804231913
 20
86.9348035906
  0
LINE
  5
613
100
AcDbEntity
  8
21814000
100
AcDbLine
 62
7
  6
CONTINUOUS
 10
136.1921923738
 20
121.9435867474
 11
136.1921923738
 21
118.1335460839
  0
LINE
  5
614
100
AcDbEntity
  8
21814000
100
AcDbLine
 62
7
  6
CONTINUOUS
 10
136.1921923738
 20
85.7496864998
 11
136.1921923738
 21
84.8989320026
  0
LINE
  5
615
100
AcDbEntity
  8
21814000
100
AcDbLine
 62
7
  6
CONTINUOUS
 10
136.3921923738
 20
120.921259375
 11
136.3921923738
 21
119.021259375
  0
LINE
  5
616
100
AcDbEntity
  8
21814000
100
AcDbLine
 62
7
  6
CONTINUOUS
 10
136.3921923738
 20
110.821259375
 11
136.3921923738
 21
108.921259375
  0
LINE
  5
617
100
AcDbEntity
  8
21814000
100
AcDbLine
 62
7
  6
CONTINUOUS
 10
136.3921923738
 20
101.821259375
 11
136.3921923738
 21
100.121259375
  0
LINE
  5
618
100
AcDbEntity
  8
21814000
100
AcDbLine
 62
253
  6
CONTINUOUS
 10
136.4660456509
 20
118.5973003178
 11
136.4660456509
 21
117.9022195259
  0
LINE
  5
619
100
AcDbEntity
  8
21814000
100
AcDbLine
 62
253
  6
CONTINUOUS
 10
136.4660456509
 20
113.1402992241
 11
136.4660456509
 21
112.4452184322
  0
LINE
  5
61A
100
AcDbEntity
  8
21814000
100
AcDbLine
 62
253
  6
CONTINUOUS
 10
136.4660456509
 20
108.1973003178
 11
136.4660456509
 21
106.0470667036
  0
LINE
  5
61B
100
AcDbEntity
  8
21814000
100
AcDbLine
 62
253
  6
CONTINUOUS
 10
136.4660456509
 20
104.1954520464
 11
136.4660456509
 21
102.0452184322
  0
LINE
  5
61C
100
AcDbEntity
  8
21814000
100
AcDbLine
 62
253
  6
CONTINUOUS
 10
138.2183390966
 20
118.4439945061
 11
138.2183390966
 21
112.5985242439
  0
LINE
  5
61D
100
AcDbEntity
  8
21814000
100
AcDbLine
 62
253
  6
CONTINUOUS
 10
138.2183390966
 20
108.0439945061
 11
138.2183390966
 21
102.1985242439
  0
LINE
  5
61E
100
AcDbEntity
  8
21814000
100
AcDbLine
 62
7
  6
CONTINUOUS
 10
136.1921923738
 20
109.0195479393
 11
136.1921923738
 21
112.9089726661
  0
LWPOLYLINE
  5
61F
100
AcDbEntity
  8
21814000
100
AcDbPolyline
 62
7
  6
CONTINUOUS
 90
5
 70
0
 10
136.187521409
 20
109.0195480113
 10
136.1876327955
 20
109.0542308308
 10
136.1879666607
 20
109.0887354612
 10
136.1884973747
 20
109.1230619025
 10
136.1891830553
 20
109.1573502525
  0
LINE
  5
620
100
AcDbEntity
  8
21814000
100
AcDbLine
 62
253
  6
CONTINUOUS
 10
136.1874389259
 20
85.7144403018
 11
136.187521409
 21
109.0195480113
  0
LWPOLYLINE
  5
621
100
AcDbEntity
  8
21814000
100
AcDbPolyline
 62
7
  6
CONTINUOUS
 90
4
 70
0
 10
136.187617376
 20
85.6676518286
 10
136.1878684932
 20
85.697061993
 10
136.1880098659
 20
85.7273805786
 10
136.1880535457
 20
109.0309106815
  0
LINE
  5
622
100
AcDbEntity
  8
21814000
100
AcDbLine
 62
253
  6
CONTINUOUS
 10
136.1871611065
 20
85.6780376999
 11
136.1874389259
 21
85.7144403018
  0
LINE
  5
623
100
AcDbEntity
  8
21814000
100
AcDbLine
 62
253
  6
CONTINUOUS
 10
136.1866714901
 20
85.6403060366
 11
136.1871611065
 21
85.6780376999
  0
LINE
  5
624
100
AcDbEntity
  8
21814000
100
AcDbLine
 62
253
  6
CONTINUOUS
 10
136.2804231913
 20
86.9348035906
 11
136.2810949772
 21
86.9584644114
  0
LINE
  5
625
100
AcDbEntity
  8
21814000
100
AcDbLine
 62
253
  6
CONTINUOUS
 10
136.2810949772
 20
86.9584644114
 11
136.2824545084
 21
87.0007568938
  0
LINE
  5
626
100
AcDbEntity
  8
21814000
100
AcDbLine
 62
253
  6
CONTINUOUS
 10
136.2824545084
 20
87.0007568938
 11
136.2844932697
 21
87.0590867334
  0
LINE
  5
627
100
AcDbEntity
  8
21814000
100
AcDbLine
 62
253
  6
CONTINUOUS
 10
136.2844932697
 20
87.0590867334
 11
136.2862079225
 21
87.1049965072
  0
LWPOLYLINE
  5
628
100
AcDbEntity
  8
21814000
100
AcDbPolyline
 62
253
  6
CONTINUOUS
 90
4
 70
0
 10
136.2862079225
 20
87.1049965072
 10
136.2892570709
 20
87.1808933065
 10
136.2903903796
 20
87.2072984292
 10
136.2916124891
 20
87.2339321191
  0
LINE
  5
629
100
AcDbEntity
  8
21814000
100
AcDbLine
 62
253
  6
CONTINUOUS
 10
136.1866397798
 20
85.1581464911
 11
136.1872305703
 21
85.1683478295
  0
LWPOLYLINE
  5
62A
100
AcDbEntity
  8
21814000
100
AcDbPolyline
 62
253
  6
CONTINUOUS
 90
51
 70
0
 10
129.7764849347
 20
88.5309884953
 10
129.7427050891
 20
88.4923953765
 10
129.7077154957
 20
88.4548134426
 10
129.6715582071
 20
88.4182808412
 10
129.6342752756
 20
88.38283572
 10
129.5959087537
 20
88.3485162268
 10
129.5565006939
 20
88.3153605093
 10
129.5160931487
 20
88.2834067154
 10
129.4747281706
 20
88.2526929926
 10
129.432447812
 20
88.2232574888
 10
129.3892941253
 20
88.1951383517
 10
129.3453092499
 20
88.1683702875
 10
129.3005356719
 20
88.1429742355
 10
129.2550159644
 20
88.1189676939
 10
129.2087927004
 20
88.0963681605
 10
129.1619084528
 20
88.0751931331
 10
129.1144057947
 20
88.0554601098
 10
129.0663272991
 20
88.0371865885
 10
129.017715539
 20
88.0203900669
 10
128.9686130873
 20
88.0050880432
 10
128.9190625171
 20
87.9912980151
 10
128.8691074424
 20
87.9790354097
 10
128.8187956415
 20
87.9683073702
 10
128.7681759335
 20
87.9591189688
 10
128.7172971379
 20
87.9514752778
 10
128.6662080737
 20
87.9453813695
 10
128.6149575604
 20
87.9408423161
 10
128.5635944171
 20
87.9378631898
 10
128.5121674632
 20
87.9364490631
 10
128.4607255178
 20
87.936605008
 10
128.4093174003
 20
87.9383360969
 10
128.3579913366
 20
87.9416451613
 10
128.3067931792
 20
87.9465260698
 10
128.2557681875
 20
87.9529704499
 10
128.2049616206
 20
87.9609699296
 10
128.1544187377
 20
87.9705161365
 10
128.1041847983
 20
87.9816006984
 10
128.0543050614
 20
87.994215243
 10
128.0048247863
 20
88.0083513982
 10
127.9557892323
 20
88.0240007916
 10
127.9072436586
 20
88.041155051
 10
127.8592339467
 20
88.0598024182
 10
127.8118084668
 20
88.0799175908
 10
127.7650162112
 20
88.1014718807
 10
127.7189061725
 20
88.1244365994
 10
127.6735273431
 20
88.1487830588
 10
127.6289287154
 20
88.1744825705
 10
127.5851592817
 20
88.2015064463
 10
127.5422680347
 20
88.2298259978
 10
127.5003039665
 20
88.2594125368
 10
127.4593160698
 20
88.290237375
  0
LINE
  5
62B
100
AcDbEntity
  8
21814000
100
AcDbLine
 62
253
  6
CONTINUOUS
 10
134.3034602681
 20
94.2926877693
 11
134.4891462769
 21
94.4784019665
  0
LINE
  5
62C
100
AcDbEntity
  8
21814000
100
AcDbLine
 62
253
  6
CONTINUOUS
 10
133.3750302627
 20
92.8998309807
 11
133.1893442732
 21
92.7141167835
  0
LINE
  5
62D
100
AcDbEntity
  8
21814000
100
AcDbLine
 62
253
  6
CONTINUOUS
 10
133.3750302627
 20
91.8784022764
 11
133.1893442732
 21
91.6926880793
  0
LWPOLYLINE
  5
62E
100
AcDbEntity
  8
21814000
100
AcDbPolyline
 62
253
  6
CONTINUOUS
 90
34
 70
0
 10
131.0485934913
 20
90.873890375
 10
131.0312585025
 20
90.8569458157
 10
131.0143316616
 20
90.8395639334
 10
130.9978240414
 20
90.8217582525
 10
130.9817467147
 20
90.803542297
 10
130.9661107543
 20
90.7849295915
 10
130.9509272331
 20
90.7659336601
 10
130.9362072238
 20
90.7465680272
 10
130.9219617992
 20
90.726846217
 10
130.9082020321
 20
90.7067817539
 10
130.8949389954
 20
90.6863881621
 10
130.8821837618
 20
90.6656789658
 10
130.8699464335
 20
90.6446674784
 10
130.8582332293
 20
90.6233661685
 10
130.8470493975
 20
90.6017872938
 10
130.8364001862
 20
90.5799431118
 10
130.8262908438
 20
90.5578458801
 10
130.8167266184
 20
90.5355078565
 10
130.8077127581
 20
90.5129412984
 10
130.7992545113
 20
90.4901584636
 10
130.7913571261
 20
90.4671716097
 10
130.7840258508
 20
90.4439929941
 10
130.7772659335
 20
90.4206348747
 10
130.7710821054
 20
90.3971103575
 10
130.7654770293
 20
90.3734359427
 10
130.760452851
 20
90.3496289793
 10
130.7560117164
 20
90.325706816
 10
130.7521557712
 20
90.3016868016
 10
130.7488871611
 20
90.2775862848
 10
130.7462080321
 20
90.2534226146
 10
130.7441205297
 20
90.2292131397
 10
130.7426268
 20
90.204975209
 10
130.7417289885
 20
90.1807261711
 10
130.7414292412
 20
90.156483375
  0
LINE
  5
62F
100
AcDbEntity
  8
21814000
100
AcDbLine
 62
253
  6
CONTINUOUS
 10
133.5607162521
 20
90.021259375
 11
134.4891462769
 21
90.2998306707
  0
LINE
  5
630
100
AcDbEntity
  8
28414000
100
AcDbLine
 62
7
  6
CONTINUOUS
 10
111.4189426217
 20
122.0899010541
 11
111.9862373262
 21
122.1047561887
  0
LINE
  5
631
100
AcDbEntity
  8
RACCORDO
100
AcDbLine
 62
253
  6
CONTINUOUS
 10
111.3366853456
 20
121.3072753499
 11
111.889503799
 21
121.3169248319
  0
LINE
  5
632
100
AcDbEntity
  8
RACCORDO
100
AcDbLine
 62
7
  6
CONTINUOUS
 10
111.389326034
 20
121.8081180442
 11
111.9510185683
 21
121.8179224238
  0
LINE
  5
633
100
AcDbEntity
  8
21814000
100
AcDbLine
 62
7
  6
CONTINUOUS
 10
136.1921923738
 20
120.921259375
 11
136.3921923738
 21
120.921259375
  0
LINE
  5
634
100
AcDbEntity
  8
21814000
100
AcDbLine
 62
253
  6
CONTINUOUS
 10
136.1921923738
 20
121.0928322503
 11
122.2161075549
 21
121.0928322503
  0
LINE
  5
635
100
AcDbEntity
  8
28414000
100
AcDbLine
 62
7
  6
CONTINUOUS
 10
112.1234743097
 20
123.2224617253
 11
111.5443767777
 21
123.2833273285
  0
LINE
  5
636
100
AcDbEntity
  8
RACCORDO
100
AcDbLine
 62
253
  6
CONTINUOUS
 10
104.5837065107
 20
124.1029531455
 11
105.1598610732
 21
124.0021788567
  0
LWPOLYLINE
  5
637
100
AcDbEntity
  8
RACCORDO
100
AcDbPolyline
 62
253
  6
CONTINUOUS
 90
4
 70
0
 10
104.3856560182
 20
124.138120079
 10
104.3898612697
 20
124.1372875126
 10
104.4024657106
 20
124.1349916435
 10
104.5837065107
 20
124.1029531455
  0
LWPOLYLINE
  5
638
100
AcDbEntity
  8
21814000
100
AcDbPolyline
 62
7
  6
CONTINUOUS
 90
7
 70
0
 10
135.462963256
 20
116.4183228681
 10
135.4327775519
 20
116.4275244583
 10
135.4043285484
 20
116.4386920189
 10
135.3776162454
 20
116.4518255501
 10
135.352640643
 20
116.4669250516
 10
135.329401741
 20
116.4839905237
 10
135.3078995396
 20
116.5030219662
  0
LINE
  5
639
100
AcDbEntity
  8
21814000
100
AcDbLine
 62
253
  6
CONTINUOUS
 10
133.1925883362
 20
116.740872375
 11
134.4921923738
 21
116.170538375
  0
LWPOLYLINE
  5
63A
100
AcDbEntity
  8
21814000
100
AcDbPolyline
 62
253
  6
CONTINUOUS
 90
38
 70
0
 10
136.1880404051
 20
106.4030280134
 10
136.1920281778
 20
106.3917210784
 10
136.1985031144
 20
106.3740397836
 10
136.2050027431
 20
106.3569741844
 10
136.2114920606
 20
106.3404968403
 10
136.2179638103
 20
106.3246185072
 10
136.2244252488
 20
106.3093284292
 10
136.2308631426
 20
106.2945668988
 10
136.2372646876
 20
106.280351303
 10
136.2436426879
 20
106.2666642548
 10
136.2500223219
 20
106.2533938851
 10
136.2563964512
 20
106.2405398788
 10
136.2627722143
 20
106.228102551
 10
136.2691962058
 20
106.2159709781
 10
136.2756613149
 20
106.2041413766
 10
136.2821746524
 20
106.1926175301
 10
136.2888041452
 20
106.1812998655
 10
136.2955491318
 20
106.1701706697
 10
136.3024102738
 20
106.1592476559
 10
136.3094574832
 20
106.1484843911
 10
136.3167160918
 20
106.13783225
 10
136.3241607678
 20
106.1273398578
 10
136.3317854281
 20
106.117106657
 10
136.3396685367
 20
106.1070588869
 10
136.3477316296
 20
106.0972703081
 10
136.3557332319
 20
106.0880616459
 10
136.3635734033
 20
106.0795662751
 10
136.3713520842
 20
106.0716508209
 10
136.3791276206
 20
106.064235884
 10
136.3868152508
 20
106.0573500859
 10
136.3944997365
 20
106.0509648051
 10
136.4024937094
 20
106.0449147787
 10
136.4108893804
 20
106.0390797548
 10
136.4195945387
 20
106.0335799851
 10
136.4286451831
 20
106.0286109622
 10
136.4380533133
 20
106.0242378502
 10
136.4478069296
 20
106.0203954849
 10
136.4579060321
 20
106.0170838663
  0
LINE
  5
63B
100
AcDbEntity
  8
21814000
100
AcDbLine
 62
7
  6
CONTINUOUS
 10
138.4921923738
 20
118.1451012122
 11
138.4921923738
 21
112.8974176318
  0
LINE
  5
63C
100
AcDbEntity
  8
21814000
100
AcDbLine
 62
7
  6
CONTINUOUS
 10
138.4921923738
 20
107.7451012095
 11
138.4921923738
 21
102.4974176351
  0
LWPOLYLINE
  5
63D
100
AcDbEntity
  8
21814000
100
AcDbPolyline
 62
253
  6
CONTINUOUS
 90
22
 70
0
 10
138.1939202325
 20
89.4212597455
 10
138.1885856601
 20
89.269602842
 10
138.1732326292
 20
89.1200335062
 10
138.1478611395
 20
88.9725517384
 10
138.1122607147
 20
88.826496475
 10
138.0666418313
 20
88.6825287794
 10
138.0116359186
 20
88.5426318418
 10
137.9471107932
 20
88.4068578824
 10
137.8731986386
 20
88.2751546809
 10
137.7909274342
 20
88.149348767
 10
137.7001867217
 20
88.0295278001
 10
137.6010869593
 20
87.9156041206
 10
137.4949875016
 20
87.8091412791
 10
137.3817740863
 20
87.7102322708
 10
137.2615609757
 20
87.6187841005
 10
137.1360503106
 20
87.5360813323
 10
137.0051993037
 20
87.4622615847
 10
136.8690507423
 20
87.3971872393
 10
136.7294351281
 20
87.341730005
 10
136.5869626285
 20
87.2961804513
 10
136.441023076
 20
87.2602480086
 10
136.2916164709
 20
87.233932677
  0
LINE
  5
63E
100
AcDbEntity
  8
21814000
100
AcDbLine
 62
253
  6
CONTINUOUS
 10
136.1866455846
 20
85.1581460328
 11
136.1757920773
 21
85.1077548537
  0
LINE
  5
63F
100
AcDbEntity
  8
21814000
100
AcDbLine
 62
253
  6
CONTINUOUS
 10
134.1177742592
 20
89.0926879243
 11
133.5607162521
 21
88.4426879243
  0
LINE
  5
640
100
AcDbEntity
  8
21814000
100
AcDbLine
 62
253
  6
CONTINUOUS
 10
133.1893442732
 20
88.9998308257
 11
133.2821873067
 21
89.0926879243
  0
LINE
  5
641
100
AcDbEntity
  8
21814000
100
AcDbLine
 62
253
  6
CONTINUOUS
 10
133.1893442732
 20
87.421259375
 11
134.4891462769
 21
88.071259375
  0
LINE
  5
642
100
AcDbEntity
  8
DRAFT
100
AcDbLine
 62
7
  6
CONTINUOUS
 10
114.4921923738
 20
124.321259375
 11
124.4921923738
 21
124.321259375
  0
LINE
  5
643
100
AcDbEntity
  8
21814000
100
AcDbLine
 62
253
  6
CONTINUOUS
 10
135.3078995396
 20
122.2501259741
 11
124.491675546
 21
122.3836262439
  0
LINE
  5
644
100
AcDbEntity
  8
21814000
100
AcDbLine
 62
7
  6
CONTINUOUS
 10
135.3078995396
 20
122.843449673
 11
124.4921923738
 21
123.0322385439
  0
LINE
  5
645
100
AcDbEntity
  8
RACCORDO
100
AcDbLine
 62
253
  6
CONTINUOUS
 10
105.9104678276
 20
124.5792863444
 11
111.6280122844
 21
124.0790660212
  0
LINE
  5
646
100
AcDbEntity
  8
RACCORDO
100
AcDbLine
 62
7
  6
CONTINUOUS
 10
105.9940778621
 20
125.3747826843
 11
111.7116223189
 21
124.8745623611
  0
LINE
  5
647
100
AcDbEntity
  8
DRAFT
100
AcDbLine
 62
7
  6
CONTINUOUS
 10
111.4921923738
 20
125.3260693396
 11
112.1421923738
 21
125.246259375
  0
LINE
  5
648
100
AcDbEntity
  8
26814000
100
AcDbLine
 62
7
  6
CONTINUOUS
 10
110.9921923738
 20
125.421259375
 11
111.4926672749
 21
125.359808784
  0
LWPOLYLINE
  5
649
100
AcDbEntity
  8
RACCORDO
100
AcDbPolyline
 62
253
  6
CONTINUOUS
 90
13
 70
0
 10
113.3531670436
 20
125.3483356049
 10
113.3946047703
 20
125.3416188792
 10
113.4097728632
 20
125.339129684
 10
113.4257172497
 20
125.336612918
 10
113.4424698363
 20
125.3340465821
 10
113.4599987166
 20
125.3314526753
 10
113.4783107221
 20
125.3289886464
 10
113.4973851763
 20
125.3266399273
 10
113.5172427558
 20
125.3244210861
 10
113.5379523225
 20
125.3225332754
 10
113.5595368304
 20
125.3210435463
 10
113.5819733256
 20
125.3198848477
 10
113.605261808
 20
125.3190571798
  0
LINE
  5
64A
100
AcDbEntity
  8
21814000
100
AcDbLine
 62
253
  6
CONTINUOUS
 10
133.9893105914
 20
118.944863375
 11
133.1925883362
 21
119.420602375
  0
LWPOLYLINE
  5
64B
100
AcDbEntity
  8
21814000
100
AcDbPolyline
 62
253
  6
CONTINUOUS
 90
4
 70
0
 10
136.2916155206
 20
87.2339300515
 10
136.2780158119
 20
87.1920301968
 10
136.2648775894
 20
87.1529498593
 10
136.2408272957
 20
87.0827675502
  0
LWPOLYLINE
  5
64C
100
AcDbEntity
  8
21814000
100
AcDbPolyline
 62
253
  6
CONTINUOUS
 90
4
 70
0
 10
136.1757920773
 20
85.1077548537
 10
136.1592694426
 20
85.0581379191
 10
136.1371831371
 20
85.009613645
 10
136.1096740072
 20
84.9624929868
  0
LWPOLYLINE
  5
64D
100
AcDbEntity
  8
21814000
100
AcDbPolyline
 62
253
  6
CONTINUOUS
 90
9
 70
0
 10
136.2408272957
 20
87.0827675502
 10
136.2302371785
 20
87.0513609751
 10
136.2206892224
 20
87.022258429
 10
136.2122897306
 20
86.9954037995
 10
136.2052066656
 20
86.9704796944
 10
136.1995801462
 20
86.9470520914
 10
136.1955015462
 20
86.9250033375
 10
136.1930266499
 20
86.9044516005
 10
136.192196874
 20
86.8854295716
  0
LINE
  5
64E
100
AcDbEntity
  8
21814000
100
AcDbLine
 62
253
  6
CONTINUOUS
 10
134.3963032725
 20
88.4426879243
 11
134.4891462769
 21
88.5355451004
  0
LWPOLYLINE
  5
64F
100
AcDbEntity
  8
RACCORDO
100
AcDbPolyline
 62
253
  6
CONTINUOUS
 90
14
 70
0
 10
112.0451532929
 20
125.3691798979
 10
112.0796936345
 20
125.3743290762
 10
112.0952181948
 20
125.3765023819
 10
112.1096279757
 20
125.3784411112
 10
112.1232871331
 20
125.3801359065
 10
112.1362369031
 20
125.3815739062
 10
112.1484360496
 20
125.3827679719
 10
112.1601250204
 20
125.3837473309
 10
112.1713076527
 20
125.3845106818
 10
112.1819801093
 20
125.385059326
 10
112.1923713266
 20
125.3854263958
 10
112.2025576166
 20
125.3856229353
 10
112.2124626673
 20
125.3856379004
 10
112.2220864786
 20
125.385471291
  0
LWPOLYLINE
  5
650
100
AcDbEntity
  8
RACCORDO
100
AcDbPolyline
 62
253
  6
CONTINUOUS
 90
8
 70
0
 10
111.9448795056
 20
125.8529892655
 10
111.9799849163
 20
125.8542118726
 10
111.998175744
 20
125.8547375411
 10
112.0167917741
 20
125.8551927989
 10
112.0356240164
 20
125.855572607
 10
112.0545297398
 20
125.855873503
 10
112.0735265629
 20
125.8560930913
 10
112.092499334
 20
125.8562322748
  0
LINE
  5
651
100
AcDbEntity
  8
RACCORDO
100
AcDbLine
 62
7
  6
CONTINUOUS
 10
114.4921923738
 20
124.821259375
 11
124.4296269263
 21
124.9947179403
  0
LINE
  5
652
100
AcDbEntity
  8
26814000
100
AcDbLine
 62
253
  6
CONTINUOUS
 10
124.3913546924
 20
125.0819635601
 11
124.4080260489
 21
125.0822545597
  0
LINE
  5
653
100
AcDbEntity
  8
26814000
100
AcDbLine
 62
253
  6
CONTINUOUS
 10
111.4921923738
 20
125.453792312
 11
110.9921923738
 21
125.4494288781
  0
LINE
  5
654
100
AcDbEntity
  8
26814000
100
AcDbLine
 62
7
  6
CONTINUOUS
 10
111.4921923738
 20
125.8038056394
 11
110.9921923738
 21
125.7994422055
  0
LINE
  5
655
100
AcDbEntity
  8
RACCORDO
100
AcDbLine
 62
253
  6
CONTINUOUS
 10
112.092499334
 20
125.8562322748
 11
112.1301617384
 21
125.8563051417
  0
LINE
  5
656
100
AcDbEntity
  8
RACCORDO
100
AcDbLine
 62
253
  6
CONTINUOUS
 10
112.2421923738
 20
126.3995715385
 11
111.9921923738
 21
126.3995715385
  0
LINE
  5
657
100
AcDbEntity
  8
RACCORDO
100
AcDbLine
 62
253
  6
CONTINUOUS
 10
113.2421923738
 20
126.3995715385
 11
113.4921923738
 21
126.3995715385
  0
LWPOLYLINE
  5
658
100
AcDbEntity
  8
RACCORDO
100
AcDbPolyline
 62
253
  6
CONTINUOUS
 90
11
 70
0
 10
111.8198681555
 20
125.3502259288
 10
111.8434939131
 20
125.3501851814
 10
111.8670856971
 20
125.3506656959
 10
111.8906435074
 20
125.3516674724
 10
111.9143602996
 20
125.3532724951
 10
111.9380431182
 20
125.3553987797
 10
111.9611130962
 20
125.3578003736
 10
111.9835925353
 20
125.3605127164
 10
112.0054591338
 20
125.3635003685
 10
112.0260671202
 20
125.3664110577
 10
112.0451532929
 20
125.3691798979
  0
LINE
  5
659
100
AcDbEntity
  8
RACCORDO
100
AcDbLine
 62
253
  6
CONTINUOUS
 10
112.1301617384
 20
125.8563051417
 11
112.167327021
 21
125.8561465342
  0
LINE
  5
65A
100
AcDbEntity
  8
26814000
100
AcDbLine
 62
253
  6
CONTINUOUS
 10
123.5212252643
 20
125.6458579417
 11
123.910050935
 21
125.6424647115
  0
LINE
  5
65B
100
AcDbEntity
  8
26814000
100
AcDbLine
 62
7
  6
CONTINUOUS
 10
121.4921923738
 20
125.7514444327
 11
123.5009189093
 21
125.7339145418
  0
LWPOLYLINE
  5
65C
100
AcDbEntity
  8
RACCORDO
100
AcDbPolyline
 62
253
  6
CONTINUOUS
 90
7
 70
0
 10
111.8373770592
 20
125.8501526191
 10
111.8479046131
 20
125.850051759
 10
111.8590510271
 20
125.8501129906
 10
111.8709140153
 20
125.8503273728
 10
111.8837144644
 20
125.8506806114
 10
111.8975411076
 20
125.8511528989
 10
111.9448795056
 20
125.8529892655
  0
LINE
  5
65D
100
AcDbEntity
  8
RACCORDO
100
AcDbLine
 62
253
  6
CONTINUOUS
 10
112.167327021
 20
125.8561465342
 11
112.2037133423
 21
125.8557697195
  0
LINE
  5
65E
100
AcDbEntity
  8
RACCORDO
100
AcDbLine
 62
253
  6
CONTINUOUS
 10
112.2037133423
 20
125.8557697195
 11
112.2389126169
 21
125.8552124779
  0
LINE
  5
65F
100
AcDbEntity
  8
RACCORDO
100
AcDbLine
 62
253
  6
CONTINUOUS
 10
113.605261808
 20
125.3190571798
 11
114.4921923738
 21
125.3035758296
  0
LINE
  5
660
100
AcDbEntity
  8
RACCORDO
100
AcDbLine
 62
253
  6
CONTINUOUS
 10
111.4921923738
 20
125.3559410244
 11
111.8198681555
 21
125.3502259288
  0
LINE
  5
661
100
AcDbEntity
  8
RACCORDO
100
AcDbLine
 62
7
  6
CONTINUOUS
 10
111.4921923738
 20
125.8561695049
 11
111.8373532897
 21
125.8501446987
  0
LINE
  5
662
100
AcDbEntity
  8
RACCORDO
100
AcDbLine
 62
7
  6
CONTINUOUS
 10
113.6227135021
 20
125.8189811202
 11
123.5096447802
 21
125.6464040928
  0
LINE
  5
663
100
AcDbEntity
  8
RACCORDO
100
AcDbLine
 62
253
  6
CONTINUOUS
 10
112.2421923738
 20
126.0431086718
 11
113.2421923738
 21
126.0256536068
  0
LINE
  5
664
100
AcDbEntity
  8
RACCORDO
100
AcDbLine
 62
253
  6
CONTINUOUS
 10
112.2389126418
 20
125.8552129509
 11
113.2669120741
 21
125.8354310768
  0
LWPOLYLINE
  5
665
100
AcDbEntity
  8
RACCORDO
100
AcDbPolyline
 62
253
  6
CONTINUOUS
 90
4
 70
0
 10
112.2220864786
 20
125.385471291
 10
112.3331410715
 20
125.3828299844
 10
112.4442068387
 20
125.3801948286
 10
113.2217721897
 20
125.3619253238
  0
LINE
  5
666
100
AcDbEntity
  8
RACCORDO
100
AcDbLine
 62
253
  6
CONTINUOUS
 10
113.2669120741
 20
125.8354310768
 11
113.2963132696
 21
125.8347198267
  0
LWPOLYLINE
  5
667
100
AcDbEntity
  8
RACCORDO
100
AcDbPolyline
 62
253
  6
CONTINUOUS
 90
14
 70
0
 10
113.2217721897
 20
125.3619253238
 10
113.2300105381
 20
125.3616960876
 10
113.2385006521
 20
125.3613429966
 10
113.2472425317
 20
125.3608660509
 10
113.2562043758
 20
125.3602727683
 10
113.2654179854
 20
125.3595556309
 10
113.2749787639
 20
125.3586920855
 10
113.2848910128
 20
125.3576782125
 10
113.2951504304
 20
125.3565179316
 10
113.3058395152
 20
125.3552004478
 10
113.3169506409
 20
125.3537215571
 10
113.3284914338
 20
125.3520854636
 10
113.3405672705
 20
125.3502939846
 10
113.3531670436
 20
125.3483356049
  0
LINE
  5
668
100
AcDbEntity
  8
RACCORDO
100
AcDbLine
 62
253
  6
CONTINUOUS
 10
113.2963132696
 20
125.8347198267
 11
113.3267263401
 21
125.8338281701
  0
LINE
  5
669
100
AcDbEntity
  8
RACCORDO
100
AcDbLine
 62
253
  6
CONTINUOUS
 10
111.9921923738
 20
126.050963451
 11
112.2421923738
 21
126.0431086718
  0
LINE
  5
66A
100
AcDbEntity
  8
RACCORDO
100
AcDbLine
 62
253
  6
CONTINUOUS
 10
113.2421923738
 20
126.0256536068
 11
113.4921923738
 21
126.0177988276
  0
LINE
  5
66B
100
AcDbEntity
  8
RACCORDO
100
AcDbLine
 62
253
  6
CONTINUOUS
 10
113.3267263401
 20
125.8338281701
 11
113.3576843105
 21
125.8327679452
  0
LINE
  5
66C
100
AcDbEntity
  8
RACCORDO
100
AcDbLine
 62
253
  6
CONTINUOUS
 10
113.3576843105
 20
125.8327679452
 11
113.3889697372
 21
125.8315348812
  0
LINE
  5
66D
100
AcDbEntity
  8
RACCORDO
100
AcDbLine
 62
253
  6
CONTINUOUS
 10
113.3889697372
 20
125.8315348812
 11
113.4202510942
 21
125.8301315996
  0
LINE
  5
66E
100
AcDbEntity
  8
RACCORDO
100
AcDbLine
 62
253
  6
CONTINUOUS
 10
113.4202510942
 20
125.8301315996
 11
113.4511268537
 21
125.828571703
  0
LWPOLYLINE
  5
66F
100
AcDbEntity
  8
RACCORDO
100
AcDbPolyline
 62
253
  6
CONTINUOUS
 90
5
 70
0
 10
113.5758129118
 20
125.8209106752
 10
113.5879715072
 20
125.8202503549
 10
113.5998323849
 20
125.8196900091
 10
113.6114036863
 20
125.8192590619
 10
113.622713334
 20
125.8189803982
  0
LINE
  5
670
100
AcDbEntity
  8
RACCORDO
100
AcDbLine
 62
253
  6
CONTINUOUS
 10
113.4511268537
 20
125.828571703
 11
113.4810799692
 21
125.8268465666
  0
LWPOLYLINE
  5
671
100
AcDbEntity
  8
RACCORDO
100
AcDbPolyline
 62
253
  6
CONTINUOUS
 90
3
 70
0
 10
113.4810799692
 20
125.8268465666
 10
113.50972386
 20
125.8250780164
 10
113.5236227539
 20
125.8241836719
  0
LWPOLYLINE
  5
672
100
AcDbEntity
  8
RACCORDO
100
AcDbPolyline
 62
253
  6
CONTINUOUS
 90
3
 70
0
 10
113.5236227539
 20
125.8241836719
 10
113.5504694439
 20
125.8224565926
 10
113.5758129118
 20
125.8209106752
  0
LWPOLYLINE
  5
673
100
AcDbEntity
  8
21814000
100
AcDbPolyline
 62
253
  6
CONTINUOUS
 90
15
 70
0
 10
136.1096740072
 20
84.9624929868
 10
136.0769182586
 20
84.9170789832
 10
136.0391268926
 20
84.8736646126
 10
135.9965429037
 20
84.8325288986
 10
135.949439167
 20
84.7939353239
 10
135.8981179425
 20
84.7581315395
 10
135.8429085535
 20
84.7253472948
 10
135.7841652731
 20
84.6957929631
 10
135.7222650511
 20
84.6696581916
 10
135.6576050953
 20
84.6471106846
 10
135.5906003221
 20
84.6282951272
 10
135.5216806946
 20
84.6133322569
 10
135.4512884631
 20
84.602318089
 10
135.3798753278
 20
84.5953233004
 10
135.3078995396
 20
84.5923927759
  0
LWPOLYLINE
  5
674
100
AcDbEntity
  8
21814000
100
AcDbPolyline
 62
253
  6
CONTINUOUS
 90
6
 70
0
 10
136.2916164709
 20
87.233932677
 10
136.2638511655
 20
87.2063995671
 10
136.2377276372
 20
87.1786996815
 10
136.2132458862
 20
87.1508330203
 10
136.1901604744
 20
87.1229395352
 10
136.1880404051
 20
87.1201652995
  0
LINE
  5
675
100
AcDbEntity
  8
RACCORDO
100
AcDbLine
 62
7
  6
CONTINUOUS
 10
114.4921923738
 20
127.221259375
 11
120.9921923738
 21
127.221259375
  0
LINE
  5
676
100
AcDbEntity
  8
RACCORDO
100
AcDbLine
 62
253
  6
CONTINUOUS
 10
114.4921923738
 20
127.2655969423
 11
114.2421923738
 21
127.2655969423
  0
LINE
  5
677
100
AcDbEntity
  8
RACCORDO
100
AcDbLine
 62
253
  6
CONTINUOUS
 10
111.2421923738
 20
127.2655969423
 11
110.9921923738
 21
127.2655969423
  0
LINE
  5
678
100
AcDbEntity
  8
RACCORDO
100
AcDbLine
 62
253
  6
CONTINUOUS
 10
110.9921923738
 20
127.671259375
 11
114.4921923738
 21
127.671259375
  0
LINE
  5
679
100
AcDbEntity
  8
RACCORDO
100
AcDbLine
 62
7
  6
CONTINUOUS
 10
111.2421923738
 20
127.921259375
 11
114.2421923738
 21
127.921259375
  0
LINE
  5
67A
100
AcDbEntity
  8
26814000
100
AcDbLine
 62
7
  6
CONTINUOUS
 10
121.1984688807
 20
127.1764255698
 11
121.4921923738
 21
127.1747167365
  0
LWPOLYLINE
  5
67B
100
AcDbEntity
  8
21814000
100
AcDbPolyline
 62
253
  6
CONTINUOUS
 90
14
 70
0
 10
136.1097038091
 20
121.8799799985
 10
136.0742200263
 20
121.928813107
 10
136.0329159845
 20
121.9753019226
 10
135.9860990899
 20
122.0191004512
 10
135.9341177785
 20
122.0598827213
 10
135.8773589223
 20
122.0973452097
 10
135.8162449505
 20
122.1312091012
 10
135.7512307051
 20
122.1612223628
 10
135.6828000562
 20
122.1871616201
 10
135.6114623006
 20
122.2088338197
 10
135.537748371
 20
122.2260776658
 10
135.4622068853
 20
122.2387648208
 10
135.3854000626
 20
122.2468008602
 10
135.3078995396
 20
122.2501259755
  0
ARC
  5
67C
100
AcDbEntity
  8
RACCORDO
100
AcDbCircle
 62
7
  6
CONTINUOUS
 10
170.6807275191
 20
127.671259375
 40
0.25
100
AcDbArc
 50
90.0
 51
180.0
  0
ARC
  5
67D
100
AcDbEntity
  8
RACCORDO
100
AcDbCircle
 62
7
  6
CONTINUOUS
 10
172.5807275191
 20
127.671259375
 40
0.25
100
AcDbArc
 50
0.0
 51
90.0
  0
ARC
  5
67E
100
AcDbEntity
  8
RACCORDO
100
AcDbCircle
 62
7
  6
CONTINUOUS
 10
191.4807275191
 20
127.671259375
 40
0.25
100
AcDbArc
 50
0.0
 51
90.0
  0
ARC
  5
67F
100
AcDbEntity
  8
RACCORDO
100
AcDbCircle
 62
7
  6
CONTINUOUS
 10
189.5807275191
 20
127.671259375
 40
0.25
100
AcDbArc
 50
90.0
 51
180.0
  0
ARC
  5
680
100
AcDbEntity
  8
RACCORDO
100
AcDbCircle
 62
7
  6
CONTINUOUS
 10
172.5807275191
 20
79.171259375
 40
0.25
100
AcDbArc
 50
270.0
 51
360.0
  0
ARC
  5
681
100
AcDbEntity
  8
RACCORDO
100
AcDbCircle
 62
7
  6
CONTINUOUS
 10
170.6807275191
 20
79.171259375
 40
0.25
100
AcDbArc
 50
180.0
 51
270.0
  0
ARC
  5
682
100
AcDbEntity
  8
RACCORDO
100
AcDbCircle
 62
7
  6
CONTINUOUS
 10
189.5807275191
 20
79.171259375
 40
0.25
100
AcDbArc
 50
180.0
 51
270.0
  0
ARC
  5
683
100
AcDbEntity
  8
RACCORDO
100
AcDbCircle
 62
7
  6
CONTINUOUS
 10
191.4807275191
 20
79.171259375
 40
0.25
100
AcDbArc
 50
270.0
 51
360.0
  0
ARC
  5
684
100
AcDbEntity
  8
RACCORDO
100
AcDbCircle
 62
7
  6
CONTINUOUS
 10
101.6299284435
 20
83.6022297874
 40
1.5
100
AcDbArc
 50
177.8898991621
 51
263.0
  0
ARC
  5
685
100
AcDbEntity
  8
28414000
100
AcDbCircle
 62
7
  6
CONTINUOUS
 10
107.821357967
 20
83.0777833776
 40
1.0
100
AcDbArc
 50
354.0
 51
76.5
  0
ARC
  5
686
100
AcDbEntity
  8
RACCORDO
100
AcDbCircle
 62
7
  6
CONTINUOUS
 10
107.7921923738
 20
85.3972346059
 40
0.3
100
AcDbArc
 50
214.2402507219
 51
269.0
  0
ARC
  5
687
100
AcDbEntity
  8
RACCORDO
100
AcDbCircle
 62
253
  6
CONTINUOUS
 10
111.7421923738
 20
80.4429472115
 40
0.5
100
AcDbArc
 50
300.0
 51
360.0
  0
ARC
  5
688
100
AcDbEntity
  8
RACCORDO
100
AcDbCircle
 62
253
  6
CONTINUOUS
 10
113.7421923738
 20
80.4429472115
 40
0.5
100
AcDbArc
 50
180.0
 51
240.0
  0
ARC
  5
689
100
AcDbEntity
  8
26814000
100
AcDbCircle
 62
7
  6
CONTINUOUS
 10
111.2421923738
 20
79.5769218077
 40
0.25
100
AcDbArc
 50
126.3457811529
 51
173.5402060087
  0
ARC
  5
68A
100
AcDbEntity
  8
26814000
100
AcDbCircle
 62
7
  6
CONTINUOUS
 10
114.2421923738
 20
79.5769218077
 40
0.25
100
AcDbArc
 50
6.3457783674
 51
10.2164646089
  0
ARC
  5
68B
100
AcDbEntity
  8
RACCORDO
100
AcDbCircle
 62
7
  6
CONTINUOUS
 10
111.7421923738
 20
80.4429472115
 40
0.25
100
AcDbArc
 50
300.0
 51
360.0
  0
ARC
  5
68C
100
AcDbEntity
  8
RACCORDO
100
AcDbCircle
 62
7
  6
CONTINUOUS
 10
111.2421923738
 20
79.171259375
 40
0.25
100
AcDbArc
 50
180.0
 51
270.0
  0
ARC
  5
68D
100
AcDbEntity
  8
RACCORDO
100
AcDbCircle
 62
7
  6
CONTINUOUS
 10
111.2421923738
 20
79.5769218077
 40
0.25
100
AcDbArc
 50
120.0
 51
180.0
  0
ARC
  5
68E
100
AcDbEntity
  8
RACCORDO
100
AcDbCircle
 62
7
  6
CONTINUOUS
 10
114.2421923738
 20
79.171259375
 40
0.25
100
AcDbArc
 50
270.0
 51
360.0
  0
ARC
  5
68F
100
AcDbEntity
  8
RACCORDO
100
AcDbCircle
 62
7
  6
CONTINUOUS
 10
113.7421923738
 20
80.4429472115
 40
0.25
100
AcDbArc
 50
180.0
 51
240.0
  0
ARC
  5
690
100
AcDbEntity
  8
RACCORDO
100
AcDbCircle
 62
7
  6
CONTINUOUS
 10
114.2421923738
 20
79.5769218077
 40
0.25
100
AcDbArc
 50
0.0
 51
60.0
  0
ARC
  5
691
100
AcDbEntity
  8
RACCORDO
100
AcDbCircle
 62
7
  6
CONTINUOUS
 10
113.6921895782
 20
80.8247198736
 40
0.1999987575
100
AcDbArc
 50
90.9991990116
 51
179.9999860206
  0
ARC
  5
692
100
AcDbEntity
  8
RACCORDO
100
AcDbCircle
 62
7
  6
CONTINUOUS
 10
111.7921951693
 20
80.7915553478
 40
0.1999987575
100
AcDbArc
 50
359.9999860207
 51
91.0
  0
ARC
  5
693
100
AcDbEntity
  8
26814000
100
AcDbCircle
 62
7
  6
CONTINUOUS
 10
123.4921923738
 20
82.1085661313
 40
1.0
100
AcDbArc
 50
270.5
 51
360.0
  0
ARC
  5
694
100
AcDbEntity
  8
RACCORDO
100
AcDbCircle
 62
7
  6
CONTINUOUS
 10
123.4921923738
 20
82.1959623523
 40
1.0
100
AcDbArc
 50
271.0
 51
360.0
  0
ARC
  5
695
100
AcDbEntity
  8
21814000
100
AcDbCircle
 62
7
  6
CONTINUOUS
 10
135.2921923738
 20
84.8989320026
 40
0.9
100
AcDbArc
 50
271.0
 51
360.0
  0
ARC
  5
696
100
AcDbEntity
  8
RACCORDO
100
AcDbCircle
 62
7
  6
CONTINUOUS
 10
120.9921923738
 20
80.121259375
 40
0.5
100
AcDbArc
 50
270.0
 51
360.0
  0
ARC
  5
697
100
AcDbEntity
  8
21814000
100
AcDbCircle
 62
7
  6
CONTINUOUS
 10
135.9834967216
 20
89.421259375
 40
2.5086956522
100
AcDbArc
 50
276.7959242607
 51
83.2040757388
  0
ARC
  5
698
100
AcDbEntity
  8
21814000
100
AcDbCircle
 62
7
  6
CONTINUOUS
 10
136.2921923738
 20
92.0116261444
 40
0.1
100
AcDbArc
 50
189.2473775885
 51
263.2031754299
  0
ARC
  5
699
100
AcDbEntity
  8
21814000
100
AcDbCircle
 62
7
  6
CONTINUOUS
 10
136.2921923738
 20
86.8309127805
 40
0.0999982373
100
AcDbArc
 50
96.7981887064
 51
179.0542651601
  0
ARC
  5
69A
100
AcDbEntity
  8
RACCORDO
100
AcDbCircle
 62
7
  6
CONTINUOUS
 10
105.863344248
 20
123.8804906372
 40
1.5
100
AcDbArc
 50
85.0
 51
170.1101008379
  0
ARC
  5
69B
100
AcDbEntity
  8
RACCORDO
100
AcDbCircle
 62
7
  6
CONTINUOUS
 10
120.9921923738
 20
126.721259375
 40
0.5
100
AcDbArc
 50
0.0
 51
90.0
  0
ARC
  5
69C
100
AcDbEntity
  8
RACCORDO
100
AcDbCircle
 62
253
  6
CONTINUOUS
 10
113.7421923738
 20
126.3995715385
 40
0.5
100
AcDbArc
 50
120.0
 51
180.0
  0
ARC
  5
69D
100
AcDbEntity
  8
RACCORDO
100
AcDbCircle
 62
253
  6
CONTINUOUS
 10
111.7421923738
 20
126.3995715385
 40
0.5
100
AcDbArc
 50
0.0
 51
60.0
  0
ARC
  5
69E
100
AcDbEntity
  8
26814000
100
AcDbCircle
 62
7
  6
CONTINUOUS
 10
111.2421923738
 20
127.2655969423
 40
0.25
100
AcDbArc
 50
186.3457783674
 51
233.5402055509
  0
ARC
  5
69F
100
AcDbEntity
  8
26814000
100
AcDbCircle
 62
7
  6
CONTINUOUS
 10
114.2421923738
 20
127.2655969423
 40
0.25
100
AcDbArc
 50
349.7835353911
 51
357.1340324624
  0
ARC
  5
6A0
100
AcDbEntity
  8
RACCORDO
100
AcDbCircle
 62
7
  6
CONTINUOUS
 10
111.7421923738
 20
126.3995715385
 40
0.25
100
AcDbArc
 50
0.0
 51
60.0
  0
ARC
  5
6A1
100
AcDbEntity
  8
RACCORDO
100
AcDbCircle
 62
7
  6
CONTINUOUS
 10
111.2421923738
 20
127.2655969423
 40
0.25
100
AcDbArc
 50
180.0
 51
240.0
  0
ARC
  5
6A2
100
AcDbEntity
  8
RACCORDO
100
AcDbCircle
 62
7
  6
CONTINUOUS
 10
114.2421923738
 20
127.2655969423
 40
0.25
100
AcDbArc
 50
300.0
 51
360.0
  0
ARC
  5
6A3
100
AcDbEntity
  8
RACCORDO
100
AcDbCircle
 62
7
  6
CONTINUOUS
 10
113.7421923738
 20
126.3995715385
 40
0.25
100
AcDbArc
 50
120.0
 51
180.0
  0
ARC
  5
6A4
100
AcDbEntity
  8
RACCORDO
100
AcDbCircle
 62
7
  6
CONTINUOUS
 10
111.2421923738
 20
127.671259375
 40
0.25
100
AcDbArc
 50
90.0
 51
180.0
  0
ARC
  5
6A5
100
AcDbEntity
  8
RACCORDO
100
AcDbCircle
 62
7
  6
CONTINUOUS
 10
114.2421923738
 20
127.671259375
 40
0.25
100
AcDbArc
 50
0.0
 51
90.0
  0
ARC
  5
6A6
100
AcDbEntity
  8
RACCORDO
100
AcDbCircle
 62
7
  6
CONTINUOUS
 10
111.7921951693
 20
126.0509634022
 40
0.1999987575
100
AcDbArc
 50
268.9991990114
 51
0.0000139793
  0
ARC
  5
6A7
100
AcDbEntity
  8
RACCORDO
100
AcDbCircle
 62
7
  6
CONTINUOUS
 10
113.6921895782
 20
126.0177988764
 40
0.1999987575
100
AcDbArc
 50
180.0000139794
 51
269.0
  0
ARC
  5
6A8
100
AcDbEntity
  8
21814000
100
AcDbCircle
 62
7
  6
CONTINUOUS
 10
138.1921923738
 20
107.7451360967
 40
0.3
100
AcDbArc
 50
0.0
 51
85.0
  0
ARC
  5
6A9
100
AcDbEntity
  8
21814000
100
AcDbCircle
 62
7
  6
CONTINUOUS
 10
138.1921923738
 20
102.4973826533
 40
0.3
100
AcDbArc
 50
275.0
 51
360.0
  0
ARC
  5
6AA
100
AcDbEntity
  8
21814000
100
AcDbCircle
 62
7
  6
CONTINUOUS
 10
138.1921923738
 20
112.8973826533
 40
0.3
100
AcDbArc
 50
275.0
 51
360.0
  0
ARC
  5
6AB
100
AcDbEntity
  8
21814000
100
AcDbCircle
 62
7
  6
CONTINUOUS
 10
136.4921923738
 20
112.1463600228
 40
0.3
100
AcDbArc
 50
95.0
 51
180.0
  0
ARC
  5
6AC
100
AcDbEntity
  8
21814000
100
AcDbCircle
 62
7
  6
CONTINUOUS
 10
136.4921923738
 20
108.4961587272
 40
0.3
100
AcDbArc
 50
180.0
 51
265.0
  0
ARC
  5
6AD
100
AcDbEntity
  8
21814000
100
AcDbCircle
 62
7
  6
CONTINUOUS
 10
136.4921923738
 20
101.7463600228
 40
0.3
100
AcDbArc
 50
95.0
 51
180.0
  0
ARC
  5
6AE
100
AcDbEntity
  8
26814000
100
AcDbCircle
 62
7
  6
CONTINUOUS
 10
123.4921923738
 20
124.7339526187
 40
1.0
100
AcDbArc
 50
0.0
 51
89.5
  0
ARC
  5
6AF
100
AcDbEntity
  8
RACCORDO
100
AcDbCircle
 62
7
  6
CONTINUOUS
 10
123.4921923738
 20
124.6465563977
 40
1.0
100
AcDbArc
 50
0.0
 51
89.0
  0
ARC
  5
6B0
100
AcDbEntity
  8
21814000
100
AcDbCircle
 62
7
  6
CONTINUOUS
 10
135.2921923738
 20
121.9435867474
 40
0.9
100
AcDbArc
 50
0.0
 51
89.0
  0
ARC
  5
6B1
100
AcDbEntity
  8
21814000
100
AcDbCircle
 62
7
  6
CONTINUOUS
 10
138.1921923738
 20
118.1451360967
 40
0.3
100
AcDbArc
 50
0.0
 51
85.0
  0
ARC
  5
6B2
100
AcDbEntity
  8
21814000
100
AcDbCircle
 62
7
  6
CONTINUOUS
 10
136.4921923738
 20
118.8961587272
 40
0.3
100
AcDbArc
 50
180.0
 51
265.0
  0
ARC
  5
6B3
100
AcDbEntity
  8
RACCORDO
100
AcDbCircle
 62
7
  6
CONTINUOUS
 10
399.9275210336
 20
72.6114948269
 40
300.0
100
AcDbArc
 50
170.1101008379
 51
177.8898991621
  0
ELLIPSE
  5
6B4
100
AcDbEntity
  8
26814000
100
AcDbEllipse
 62
7
  6
CONTINUOUS
 10
147.7807275191
 20
81.3930898719
 30
0.0
 11
0.0
 21
0.3500133274
 31
0.0
 40
0.9999619231
 41
7.853981634
 42
9.4247779608
  0
ELLIPSE
  5
6B5
100
AcDbEntity
  8
26814000
100
AcDbEllipse
 62
7
  6
CONTINUOUS
 10
169.3807275191
 20
125.4494288781
 30
0.0
 11
-0.0
 21
-0.3500133274
 31
0.0
 40
0.9999619231
 41
7.853981634
 42
9.4247779608
  0
ELLIPSE
  5
6B6
100
AcDbEntity
  8
26814000
100
AcDbEllipse
 62
7
  6
CONTINUOUS
 10
147.7807275191
 20
125.4494288781
 30
0.0
 11
0.0
 21
0.3500133274
 31
0.0
 40
0.9999619231
 41
-0.0
 42
1.5707963268
  0
ELLIPSE
  5
6B7
100
AcDbEntity
  8
26814000
100
AcDbEllipse
 62
7
  6
CONTINUOUS
 10
169.3807275191
 20
81.3930898719
 30
0.0
 11
-0.0
 21
-0.3500133274
 31
0.0
 40
0.9999619231
 41
-0.0
 42
1.5707963268
  0
ELLIPSE
  5
6B8
100
AcDbEntity
  8
26814000
100
AcDbEllipse
 62
7
  6
CONTINUOUS
 10
169.1676374021
 20
79.5769218077
 30
0.0
 11
0.0
 21
0.25
 31
0.0
 40
0.0058178298
 41
0.5235987756
 42
1.5707963268
  0
ELLIPSE
  5
6B9
100
AcDbEntity
  8
26814000
100
AcDbEllipse
 62
7
  6
CONTINUOUS
 10
166.8938176362
 20
79.5769218077
 30
0.0
 11
0.0
 21
0.25
 31
0.0
 40
0.0058178298
 41
-1.5707963268
 42
-0.5235987756
  0
ELLIPSE
  5
6BA
100
AcDbEntity
  8
26814000
100
AcDbEllipse
 62
7
  6
CONTINUOUS
 10
166.8938176362
 20
79.2843537229
 30
0.0
 11
0.0
 21
0.25
 31
0.0
 40
0.0058178298
 41
-3.1357748894
 42
-1.5707963268
  0
ELLIPSE
  5
6BB
100
AcDbEntity
  8
26814000
100
AcDbEllipse
 62
7
  6
CONTINUOUS
 10
169.1676374021
 20
79.2843537229
 30
0.0
 11
0.0
 21
0.25
 31
0.0
 40
0.0058178298
 41
-4.7123889804
 42
-3.1474104178
  0
ELLIPSE
  5
6BC
100
AcDbEntity
  8
26814000
100
AcDbEllipse
 62
7
  6
CONTINUOUS
 10
150.2676374021
 20
79.5769218077
 30
0.0
 11
0.0
 21
0.25
 31
0.0
 40
0.0058178298
 41
0.5235987756
 42
1.5707963268
  0
ELLIPSE
  5
6BD
100
AcDbEntity
  8
26814000
100
AcDbEllipse
 62
7
  6
CONTINUOUS
 10
147.9938176362
 20
79.5769218077
 30
0.0
 11
0.0
 21
0.25
 31
0.0
 40
0.0058178298
 41
-1.5707963268
 42
-0.5235987756
  0
ELLIPSE
  5
6BE
100
AcDbEntity
  8
26814000
100
AcDbEllipse
 62
7
  6
CONTINUOUS
 10
147.9938176362
 20
79.2843537229
 30
0.0
 11
0.0
 21
0.25
 31
0.0
 40
0.0058178298
 41
-3.1357748894
 42
-1.5707963268
  0
ELLIPSE
  5
6BF
100
AcDbEntity
  8
26814000
100
AcDbEllipse
 62
7
  6
CONTINUOUS
 10
150.2676374021
 20
79.2843537229
 30
0.0
 11
0.0
 21
0.25
 31
0.0
 40
0.0058178298
 41
-4.7123889804
 42
-3.1474104178
  0
ELLIPSE
  5
6C0
100
AcDbEntity
  8
26814000
100
AcDbEllipse
 62
7
  6
CONTINUOUS
 10
147.9938176362
 20
127.2655969423
 30
0.0
 11
-0.0
 21
0.25
 31
0.0
 40
0.0058178298
 41
-2.617993878
 42
-1.5707963268
  0
ELLIPSE
  5
6C1
100
AcDbEntity
  8
26814000
100
AcDbEllipse
 62
7
  6
CONTINUOUS
 10
150.2676374021
 20
127.2655969423
 30
0.0
 11
0.0
 21
0.25
 31
0.0
 40
0.0058178298
 41
-4.7123889804
 42
-3.6651914292
  0
ELLIPSE
  5
6C2
100
AcDbEntity
  8
26814000
100
AcDbEllipse
 62
7
  6
CONTINUOUS
 10
150.2676374021
 20
127.5581650271
 30
0.0
 11
-0.0
 21
0.25
 31
0.0
 40
0.0058178298
 41
0.0058177642
 42
1.5707963268
  0
ELLIPSE
  5
6C3
100
AcDbEntity
  8
26814000
100
AcDbEllipse
 62
7
  6
CONTINUOUS
 10
147.9938176362
 20
127.5581650271
 30
0.0
 11
-0.0
 21
0.25
 31
0.0
 40
0.0058178298
 41
-1.5707963268
 42
-0.0058177642
  0
ELLIPSE
  5
6C4
100
AcDbEntity
  8
26814000
100
AcDbEllipse
 62
7
  6
CONTINUOUS
 10
166.8938176362
 20
127.2655969423
 30
0.0
 11
0.0
 21
0.25
 31
0.0
 40
0.0058178298
 41
-2.617993878
 42
-1.5707963268
  0
ELLIPSE
  5
6C5
100
AcDbEntity
  8
26814000
100
AcDbEllipse
 62
7
  6
CONTINUOUS
 10
169.1676374021
 20
127.2655969423
 30
0.0
 11
-0.0
 21
0.25
 31
0.0
 40
0.0058178298
 41
-4.7123889804
 42
-3.6651914292
  0
ELLIPSE
  5
6C6
100
AcDbEntity
  8
26814000
100
AcDbEllipse
 62
7
  6
CONTINUOUS
 10
169.1676374021
 20
127.5581650271
 30
0.0
 11
-0.0
 21
0.25
 31
0.0
 40
0.0058178298
 41
0.0058177642
 42
1.5707963268
  0
ELLIPSE
  5
6C7
100
AcDbEntity
  8
26814000
100
AcDbEllipse
 62
7
  6
CONTINUOUS
 10
166.8938176362
 20
127.5581650271
 30
0.0
 11
-0.0
 21
0.25
 31
0.0
 40
0.0058178298
 41
-1.5707963268
 42
-0.0058177642
  0
ELLIPSE
  5
6C8
100
AcDbEntity
  8
26814000
100
AcDbEllipse
 62
7
  6
CONTINUOUS
 10
154.484805077
 20
81.0273681825
 30
0.0
 11
0.3
 21
0.0
 31
0.0
 40
0.0087268678
 41
1.5707963268
 42
3.1357748894
  0
ELLIPSE
  5
6C9
100
AcDbEntity
  8
26814000
100
AcDbEllipse
 62
7
  6
CONTINUOUS
 10
154.484805077
 20
79.6253318559
 30
0.0
 11
0.3
 21
0.0
 31
0.0
 40
0.0058178298
 41
1.5707963268
 42
3.1357748894
  0
ELLIPSE
  5
6CA
100
AcDbEntity
  8
26814000
100
AcDbEllipse
 62
7
  6
CONTINUOUS
 10
162.6766499612
 20
79.6253318559
 30
0.0
 11
0.3
 21
0.0
 31
0.0
 40
0.0058178298
 41
0.0058177642
 42
1.5707963268
  0
ELLIPSE
  5
6CB
100
AcDbEntity
  8
26814000
100
AcDbEllipse
 62
7
  6
CONTINUOUS
 10
162.6766499612
 20
81.0273681825
 30
0.0
 11
0.3
 21
0.0
 31
0.0
 40
0.0087268678
 41
0.0058177642
 42
1.5707963268
  0
ELLIPSE
  5
6CC
100
AcDbEntity
  8
26814000
100
AcDbEllipse
 62
7
  6
CONTINUOUS
 10
154.484805077
 20
127.2171868941
 30
0.0
 11
0.3
 21
0.0
 31
0.0
 40
0.0058178298
 41
-3.1357748894
 42
-1.5707963268
  0
ELLIPSE
  5
6CD
100
AcDbEntity
  8
26814000
100
AcDbEllipse
 62
7
  6
CONTINUOUS
 10
154.484805077
 20
125.8151505675
 30
0.0
 11
0.3
 21
0.0
 31
0.0
 40
0.0087268678
 41
-3.1357748894
 42
-1.5707963268
  0
ELLIPSE
  5
6CE
100
AcDbEntity
  8
26814000
100
AcDbEllipse
 62
7
  6
CONTINUOUS
 10
162.6766499612
 20
125.8151505675
 30
0.0
 11
0.3
 21
0.0
 31
0.0
 40
0.0087268678
 41
-1.5707963268
 42
-0.0058177642
  0
ELLIPSE
  5
6CF
100
AcDbEntity
  8
26814000
100
AcDbEllipse
 62
7
  6
CONTINUOUS
 10
162.6766499612
 20
127.2171868941
 30
0.0
 11
0.3
 21
0.0
 31
0.0
 40
0.0058178298
 41
-1.5707963268
 42
-0.0058177642
  0
ELLIPSE
  5
6D0
100
AcDbEntity
  8
RACCORDO
100
AcDbEllipse
 62
7
  6
CONTINUOUS
 10
170.4308036832
 20
81.538790604
 30
0.0
 11
-0.3536610946
 21
0.3536610946
 31
0.0
 40
0.9996954599
 41
1.0379229264
 42
1.2102374641
  0
ELLIPSE
  5
6D1
100
AcDbEntity
  8
RACCORDO
100
AcDbEllipse
 62
7
  6
CONTINUOUS
 10
191.7306513551
 20
125.303728146
 30
0.0
 11
0.3536610946
 21
-0.3536610946
 31
0.0
 40
0.9996954599
 41
0.7852458701
 42
1.2102374641
  0
ELLIPSE
  5
6D2
100
AcDbEntity
  8
RACCORDO
100
AcDbEllipse
 62
7
  6
CONTINUOUS
 10
170.4308036832
 20
125.303728146
 30
0.0
 11
0.3536610946
 21
0.3536610946
 31
0.0
 40
0.9996954599
 41
1.9364067355
 42
2.2018537923
  0
ELLIPSE
  5
6D3
100
AcDbEntity
  8
RACCORDO
100
AcDbEllipse
 62
7
  6
CONTINUOUS
 10
191.7306513551
 20
81.538790604
 30
0.0
 11
0.3536610946
 21
0.3536610946
 31
0.0
 40
0.9996954599
 41
-1.2053429231
 42
-0.7852458701
  0
ELLIPSE
  5
6D4
100
AcDbEntity
  8
RACCORDO
100
AcDbEllipse
 62
7
  6
CONTINUOUS
 10
191.7306513551
 20
81.538790604
 30
0.0
 11
0.3536610946
 21
0.3536610946
 31
0.0
 40
0.9996954599
 41
-1.535543542
 42
-1.2434048153
  0
ELLIPSE
  5
6D5
100
AcDbEntity
  8
RACCORDO
100
AcDbEllipse
 62
7
  6
CONTINUOUS
 10
191.6782861603
 20
81.4864254092
 30
0.0
 11
-0.3536610946
 21
-0.3536610946
 31
0.0
 40
0.9996954599
 41
7.0684311773
 42
8.6395320906
  0
ELLIPSE
  5
6D6
100
AcDbEntity
  8
RACCORDO
100
AcDbEllipse
 62
7
  6
CONTINUOUS
 10
170.4831688779
 20
125.3560933408
 30
0.0
 11
0.3536610946
 21
0.3536610946
 31
0.0
 40
0.9996954599
 41
7.0684311773
 42
8.5903989905
  0
ELLIPSE
  5
6D7
100
AcDbEntity
  8
RACCORDO
100
AcDbEllipse
 62
7
  6
CONTINUOUS
 10
170.4831688779
 20
81.4864254092
 30
0.0
 11
0.3536610946
 21
-0.3536610946
 31
0.0
 40
0.9996954599
 41
-2.2105565043
 42
-0.7852458701
  0
ELLIPSE
  5
6D8
100
AcDbEntity
  8
RACCORDO
100
AcDbEllipse
 62
7
  6
CONTINUOUS
 10
191.6782861603
 20
125.3560933408
 30
0.0
 11
-0.3536610946
 21
0.3536610946
 31
0.0
 40
0.9996954599
 41
-2.3563467834
 42
-0.7852458701
  0
ELLIPSE
  5
6D9
100
AcDbEntity
  8
RACCORDO
100
AcDbEllipse
 62
7
  6
CONTINUOUS
 10
191.1806056567
 20
124.07882365
 30
0.0
 11
0.7998183719
 21
0.0221571454
 31
0.0
 40
0.9945135036
 41
-0.0275437628
 42
0.1690180924
  0
ELLIPSE
  5
6DA
100
AcDbEntity
  8
RACCORDO
100
AcDbEllipse
 62
7
  6
CONTINUOUS
 10
191.1806056567
 20
82.2096942447
 30
0.0
 11
0.7998183719
 21
-0.0221571454
 31
0.0
 40
0.9945135036
 41
-1.5429479775
 42
0.0275437628
  0
ELLIPSE
  5
6DB
100
AcDbEntity
  8
RACCORDO
100
AcDbEllipse
 62
7
  6
CONTINUOUS
 10
148.4808493816
 20
124.07882365
 30
0.0
 11
0.7998183719
 21
-0.0221571454
 31
0.0
 40
0.9945135036
 41
2.9725745606
 42
3.1691364164
  0
ELLIPSE
  5
6DC
100
AcDbEntity
  8
RACCORDO
100
AcDbEllipse
 62
7
  6
CONTINUOUS
 10
148.4808493816
 20
82.2096942447
 30
0.0
 11
0.7998183719
 21
0.0221571454
 31
0.0
 40
0.9945135036
 41
3.1140488908
 42
4.6845406311
  0
ELLIPSE
  5
6DD
100
AcDbEntity
  8
21814000
100
AcDbEllipse
 62
253
  6
CONTINUOUS
 10
127.9921923738
 20
107.893176375
 30
0.0
 11
-0.0
 21
0.983755
 31
0.0
 40
0.9996954135
 41
-4.7123889804
 42
-1.5707963268
  0
ELLIPSE
  5
6DE
100
AcDbEntity
  8
21814000
100
AcDbEllipse
 62
253
  6
CONTINUOUS
 10
127.9921923738
 20
108.734197375
 30
0.0
 11
-0.0
 21
0.983755
 31
0.0
 40
0.9996954135
 41
-4.7123889804
 42
-1.5707963268
  0
ELLIPSE
  5
6DF
100
AcDbEntity
  8
21814000
100
AcDbEllipse
 62
253
  6
CONTINUOUS
 10
127.9921923738
 20
109.575217375
 30
0.0
 11
-0.0
 21
0.983755
 31
0.0
 40
0.9996954135
 41
-4.7123889804
 42
-1.5707963268
  0
ELLIPSE
  5
6E0
100
AcDbEntity
  8
21814000
100
AcDbEllipse
 62
253
  6
CONTINUOUS
 10
128.7220073539
 20
94.725857375
 30
0.0
 11
0.0
 21
0.201149
 31
0.0
 40
0.9996954135
 41
-1.5707963268
 42
0.0
  0
ELLIPSE
  5
6E1
100
AcDbEntity
  8
21814000
100
AcDbEllipse
 62
253
  6
CONTINUOUS
 10
128.2623773936
 20
94.725857375
 30
0.0
 11
0.0
 21
0.201149
 31
0.0
 40
0.9996954135
 41
0.0
 42
1.5707963268
  0
ELLIPSE
  5
6E2
100
AcDbEntity
  8
21814000
100
AcDbEllipse
 62
253
  6
CONTINUOUS
 10
128.9977853301
 20
97.481604375
 30
0.0
 11
0.0
 21
0.436782
 31
0.0
 40
0.9996954135
 41
-1.5707963268
 42
0.7257970211
  0
ELLIPSE
  5
6E3
100
AcDbEntity
  8
21814000
100
AcDbEllipse
 62
253
  6
CONTINUOUS
 10
133.842390355
 20
109.761502375
 30
0.0
 11
0.0
 21
0.65
 31
0.0
 40
0.9996954135
 41
-1.5707963268
 42
1.5707963268
  0
ELLIPSE
  5
6E4
100
AcDbEntity
  8
21814000
100
AcDbEllipse
 62
253
  6
CONTINUOUS
 10
117.9820478232
 20
98.740464375
 30
0.0
 11
0.0
 21
0.352865
 31
0.0
 40
0.9996954135
 41
-1.5707963268
 42
1.5707963268
  0
ENDSEC
  0
SECTION
  2
OBJECTS
  0
DICTIONARY
  5
C
100
AcDbDictionary
280
0
281
1
  3
ACAD_GROUP
350
D
  3
ACAD_MLINESTYLE
350
17
  3
ACAD_LAYOUT
350
1A
  3
ACAD_PLOTSETTINGS
350
19
  3
ACAD_PLOTSTYLENAME
350
E
  0
DICTIONARY
  5
D
102
{ACAD_REACTORS
330
C
102
}
100
AcDbDictionary
280
0
281
1
  0
ACDBDICTIONARYWDFLT
  5
E
102
{ACAD_REACTORS
330
C
102
}
100
AcDbDictionary
281
1
  3
Normal
350
F
100
AcDbDictionaryWithDefault
340
F
  0
DICTIONARY
  5
17
102
{ACAD_REACTORS
330
C
102
}
100
AcDbDictionary
280
0
281
1
  3
Standard
350
18
  0
DICTIONARY
  5
19
102
{ACAD_REACTORS
330
C
102
}
100
AcDbDictionary
281
1
  0
DICTIONARY
  5
1A
102
{ACAD_REACTORS
330
C
102
}
100
AcDbDictionary
281
1
  3
Model
350
6E5
  3
Layout1
350
6E6
  0
ACDBPLACEHOLDER
  5
F
102
{ACAD_REACTORS
330
E
102
}
  0
MLINESTYLE
  5
18
102
{ACAD_REACTORS
330
17
102
}
100
AcDbMlineStyle
  2
STANDARD
 70
0
  3

 62
256
 51
90.0
 52
90.0
 71
2
 49
0.5
 62
256
  6
BYLAYER
 49
-0.5
 62
256
  6
BYLAYER
  0
LAYOUT
  5
6E5
102
{ACAD_REACTORS
330
1A
102
}
100
AcDbPlotSettings
  1

  2
none_device
  4
ISO_A4_(297.00_x_210.00_MM)
  6

 40
0.0
 41
0.0
 42
0.0
 43
0.0
 44
297.0
 45
210.0
 46
0.0
 47
0.0
 48
0.0
 49
0.0
140
0.0
141
0.0
142
1.0
143
1.0
 70
1024
 72
1
 73
0
 74
0
  7

 75
0
147
1.0
148
0.0
149
0.0
100
AcDbLayout
  1
Model
 70
0
 71
0
 10
0.0
 20
0.0
 11
297.0
 21
210.0
 12
0.0
 22
0.0
 32
0.0
 14
0.0
 24
0.0
 34
0.0
 15
0.0
 25
0.0
 35
0.0
146
0.0
 13
0.0
 23
0.0
 33
0.0
 16
1.0
 26
0.0
 36
0.0
 17
0.0
 27
1.0
 37
0.0
 76
0
330
224
345
0
346
0
  0
LAYOUT
  5
6E6
102
{ACAD_REACTORS
330
1A
102
}
100
AcDbPlotSettings
  1

  2
none_device
  4
ISO_A4_(297.00_x_210.00_MM)
  6

 40
0.0
 41
0.0
 42
0.0
 43
0.0
 44
297.0
 45
210.0
 46
0.0
 47
0.0
 48
0.0
 49
0.0
140
0.0
141
0.0
142
1.0
143
1.0
 70
0
 72
1
 73
0
 74
0
  7

 75
0
147
1.0
148
0.0
149
0.0
100
AcDbLayout
  1
Layout1
 70
0
 71
1
 10
0.0
 20
0.0
 11
297.0
 21
210.0
 12
0.0
 22
0.0
 32
0.0
 14
0.0
 24
0.0
 34
0.0
 15
0.0
 25
0.0
 35
0.0
146
0.0
 13
0.0
 23
0.0
 33
0.0
 16
1.0
 26
0.0
 36
0.0
 17
0.0
 27
1.0
 37
0.0
 76
0
330
225
345
0
346
0
  0
ENDSEC
  0
EOF
