  0
SECTION
  2
HEADER
  9
$ACADVER
  1
AC1015
  9
$DWGCODEPAGE
  3
ANSI_1252
  9
$EXTMAX
 10
297.0
 20
210.0
 30
0.0
  9
$EXTMIN
 10
0.0
 20
0.0
 30
0.0
  9
$LIMMIN
 10
0.0
 20
0.0
  9
$LIMMAX
 10
297.0
 20
210.0
  9
$VIEWCTR
 10
148.5
 20
105.0
  9
$VIEWSIZE
 40
210.0
  9
$CLAYER
  8
0
  9
$LTSCALE
 40
16.335
  9
$CELTYPE
  6
BYLAYER
  9
$DIMSCALE
 40
1.0
  9
$DIMASZ
 40
3.0
  9
$DIMEXO
 40
0.5
  9
$DIMDLI
 40
11.286
  9
$DIMEXE
 40
1.5
  9
$DIMCEN
 40
2.673
  9
$DIMLFAC
 40
1.0
  9
$DIMBLK
  1
_FILLED
  9
$DIMTXT
 40
3.0
  9
$DIMTOL
 70
1
  9
$DIMLIM
 70
0
  9
$DIMTFAC
 40
1.0
  9
$DIMTP
 40
0.01
  9
$DIMTM
 40
0.01
  9
$DIMGAP
 40
0.625
  9
$DIMDSEP
 70
44
  9
$PDMODE
 70
3
  9
$PDSIZE
 40
3.0
  9
$HANDSEED
  5
72F
  9
$TILEMODE
 70
1
  9
$MEASUREMENT
 70
1
  9
$INSUNITS
 70
4
  0
ENDSEC
  0
SECTION
  2
CLASSES
  0
CLASS
  1
ACDBDICTIONARYWDFLT
  2
AcDbDictionaryWithDefault
  3
AutoCAD 2000
 90
0
280
0
281
0
  0
CLASS
  1
ACDBPLACEHOLDER
  2
AcDbPlaceHolder
  3
AutoCAD 2000
 90
0
280
0
281
0
  0
CLASS
  1
LAYOUT
  2
AcDbLayout
  3
AutoCAD 2000
 90
0
280
0
281
0
  0
ENDSEC
  0
SECTION
  2
TABLES
  0
TABLE
  2
VPORT
  5
8
100
AcDbSymbolTable
 70
2
  0
VPORT
  5
1F4
100
AcDbSymbolTableRecord
100
AcDbViewportTableRecord
  2
*ACTIVE
 70
0
 10
0.0
 20
0.0
 11
1.0
 21
1.0
 12
148.5
 22
105.0
 13
0.0
 23
0.0
 14
1.0
 24
1.0
 15
0.0
 25
0.0
 16
0.0
 26
0.0
 36
1.0
 17
0.0
 27
0.0
 37
0.0
 40
210.0
 41
1.4142857143
 42
50.0
 43
0.0
 44
0.0
 50
0.0
 51
0.0
 71
0
 72
100
 73
1
 74
1
 75
0
 76
0
 77
0
 78
0
  0
ENDTAB
  0
TABLE
  2
LTYPE
  5
5
100
AcDbSymbolTable
 70
6
  0
LTYPE
  5
14
100
AcDbSymbolTableRecord
100
AcDbLinetypeTableRecord
  2
BYBLOCK
 70
0
  3

 72
65
 73
0
 40
0.0
  0
LTYPE
  5
15
100
AcDbSymbolTableRecord
100
AcDbLinetypeTableRecord
  2
BYLAYER
 70
0
  3

 72
65
 73
0
 40
0.0
  0
LTYPE
  5
16
100
AcDbSymbolTableRecord
100
AcDbLinetypeTableRecord
  2
CONTINUOUS
 70
64
  3
Solid line
 72
65
 73
0
 40
0.0
  0
LTYPE
  5
1F5
100
AcDbSymbolTableRecord
100
AcDbLinetypeTableRecord
  2
CENTER
 70
64
  3
____ _ ____ _ ____ _ ____ _ ____ _ ____ _ ____
 72
65
 73
4
 40
0.6
 49
0.375
 74
0
 49
-0.075
 74
0
 49
0.075
 74
0
 49
-0.075
 74
0
  0
LTYPE
  5
1F6
100
AcDbSymbolTableRecord
100
AcDbLinetypeTableRecord
  2
HIDDEN
 70
64
  3
- - - - - - - - - - - - - - - - - - - -
 72
65
 73
2
 40
0.2
 49
0.1
 74
0
 49
-0.1
 74
0
  0
LTYPE
  5
1F7
100
AcDbSymbolTableRecord
100
AcDbLinetypeTableRecord
  2
PHANTOM
 70
64
  3
_____ _ _ _____ _ _ _____ _ _ _____
 72
65
 73
6
 40
0.8
 49
0.45
 74
0
 49
-0.05
 74
0
 49
0.1
 74
0
 49
-0.05
 74
0
 49
0.1
 74
0
 49
-0.05
 74
0
  0
LTYPE
  5
1F8
100
AcDbSymbolTableRecord
100
AcDbLinetypeTableRecord
  2
DOT
 70
64
  3
. . . . . . . . . . . . . . . . . . . .
 72
65
 73
2
 40
0.2
 49
0.1
 74
0
 49
-0.1
 74
0
  0
LTYPE
  5
1F9
100
AcDbSymbolTableRecord
100
AcDbLinetypeTableRecord
  2
DASHED
 70
64
  3
- - - - - - - - - - - - - - - - - - - -
 72
65
 73
2
 40
0.2
 49
0.1
 74
0
 49
-0.1
 74
0
  0
ENDTAB
  0
TABLE
  2
LAYER
  5
2
100
AcDbSymbolTable
 70
36
  0
LAYER
  5
10
100
AcDbSymbolTableRecord
100
AcDbLayerTableRecord
  2
0
 70
0
 62
7
  6
CONTINUOUS
370
-3
390
F
  0
LAYER
  5
1FA
100
AcDbSymbolTableRecord
100
AcDbLayerTableRecord
  2
DEFAULT_1
 70
0
 62
7
  6
CENTER
370
-3
390
F
  0
LAYER
  5
1FB
100
AcDbSymbolTableRecord
100
AcDbLayerTableRecord
  2
DEFAULT_2
 70
0
 62
7
  6
HIDDEN
370
-3
390
F
  0
LAYER
  5
1FC
100
AcDbSymbolTableRecord
100
AcDbLayerTableRecord
  2
DEFAULT_3
 70
0
 62
7
  6
PHANTOM
370
-3
390
F
  0
LAYER
  5
1FD
100
AcDbSymbolTableRecord
100
AcDbLayerTableRecord
  2
21814000
 70
0
 62
7
  6
CONTINUOUS
370
-3
390
F
  0
LAYER
  5
1FE
100
AcDbSymbolTableRecord
100
AcDbLayerTableRecord
  2
260140000
 70
0
 62
7
  6
CONTINUOUS
370
-3
390
F
  0
LAYER
  5
1FF
100
AcDbSymbolTableRecord
100
AcDbLayerTableRecord
  2
26814000
 70
0
 62
7
  6
CONTINUOUS
370
-3
390
F
  0
LAYER
  5
200
100
AcDbSymbolTableRecord
100
AcDbLayerTableRecord
  2
28414000
 70
0
 62
7
  6
CONTINUOUS
370
-3
390
F
  0
LAYER
  5
201
100
AcDbSymbolTableRecord
100
AcDbLayerTableRecord
  2
290140000
 70
0
 62
7
  6
CONTINUOUS
370
-3
390
F
  0
LAYER
  5
202
100
AcDbSymbolTableRecord
100
AcDbLayerTableRecord
  2
340000230
 70
0
 62
7
  6
CONTINUOUS
370
-3
390
F
  0
LAYER
  5
203
100
AcDbSymbolTableRecord
100
AcDbLayerTableRecord
  2
712140000
 70
0
 62
7
  6
CONTINUOUS
370
-3
390
F
  0
LAYER
  5
204
100
AcDbSymbolTableRecord
100
AcDbLayerTableRecord
  2
715140000
 70
0
 62
7
  6
CONTINUOUS
370
-3
390
F
  0
LAYER
  5
205
100
AcDbSymbolTableRecord
100
AcDbLayerTableRecord
  2
ASSI
 70
0
 62
7
  6
CONTINUOUS
370
-3
390
F
  0
LAYER
  5
206
100
AcDbSymbolTableRecord
100
AcDbLayerTableRecord
  2
COLORE_TOP
 70
0
 62
7
  6
CONTINUOUS
370
-3
390
F
  0
LAYER
  5
207
100
AcDbSymbolTableRecord
100
AcDbLayerTableRecord
  2
COORDINATE
 70
0
 62
7
  6
CONTINUOUS
370
-3
390
F
  0
LAYER
  5
208
100
AcDbSymbolTableRecord
100
AcDbLayerTableRecord
  2
COORD_ORIGINE
 70
0
 62
7
  6
CONTINUOUS
370
-3
390
F
  0
LAYER
  5
209
100
AcDbSymbolTableRecord
100
AcDbLayerTableRecord
  2
COPY_PUBLISH
 70
0
 62
7
  6
CONTINUOUS
370
-3
390
F
  0
LAYER
  5
20A
100
AcDbSymbolTableRecord
100
AcDbLayerTableRecord
  2
COSMETICHE
 70
0
 62
7
  6
CONTINUOUS
370
-3
390
F
  0
LAYER
  5
20B
100
AcDbSymbolTableRecord
100
AcDbLayerTableRecord
  2
COSMETICI
 70
0
 62
7
  6
CONTINUOUS
370
-3
390
F
  0
LAYER
  5
20C
100
AcDbSymbolTableRecord
100
AcDbLayerTableRecord
  2
CURVE
 70
0
 62
7
  6
CONTINUOUS
370
-3
390
F
  0
LAYER
  5
20D
100
AcDbSymbolTableRecord
100
AcDbLayerTableRecord
  2
DRAFT
 70
0
 62
7
  6
CONTINUOUS
370
-3
390
F
  0
LAYER
  5
20E
100
AcDbSymbolTableRecord
100
AcDbLayerTableRecord
  2
IMPORT
 70
0
 62
7
  6
CONTINUOUS
370
-3
390
F
  0
LAYER
  5
20F
100
AcDbSymbolTableRecord
100
AcDbLayerTableRecord
  2
IMPORTED
 70
0
 62
7
  6
CONTINUOUS
370
-3
390
F
  0
LAYER
  5
210
100
AcDbSymbolTableRecord
100
AcDbLayerTableRecord
  2
IMPORT_IGES
 70
0
 62
7
  6
CONTINUOUS
370
-3
390
F
  0
LAYER
  5
211
100
AcDbSymbolTableRecord
100
AcDbLayerTableRecord
  2
INCISIONI_LASER
 70
0
 62
7
  6
CONTINUOUS
370
-3
390
F
  0
LAYER
  5
212
100
AcDbSymbolTableRecord
100
AcDbLayerTableRecord
  2
INTF_11
 70
0
 62
7
  6
CONTINUOUS
370
-3
390
F
  0
LAYER
  5
213
100
AcDbSymbolTableRecord
100
AcDbLayerTableRecord
  2
NOTE
 70
0
 62
7
  6
CONTINUOUS
370
-3
390
F
  0
LAYER
  5
214
100
AcDbSymbolTableRecord
100
AcDbLayerTableRecord
  2
PIANI
 70
0
 62
7
  6
CONTINUOUS
370
-3
390
F
  0
LAYER
  5
215
100
AcDbSymbolTableRecord
100
AcDbLayerTableRecord
  2
PIANI_DI_RIFERIMENTO
 70
0
 62
7
  6
CONTINUOUS
370
-3
390
F
  0
LAYER
  5
216
100
AcDbSymbolTableRecord
100
AcDbLayerTableRecord
  2
PIANI_ORIGINE
 70
0
 62
7
  6
CONTINUOUS
370
-3
390
F
  0
LAYER
  5
217
100
AcDbSymbolTableRecord
100
AcDbLayerTableRecord
  2
PIANI_RIFERIMENTO
 70
0
 62
7
  6
CONTINUOUS
370
-3
390
F
  0
LAYER
  5
218
100
AcDbSymbolTableRecord
100
AcDbLayerTableRecord
  2
PIANI_SFORMO
 70
0
 62
7
  6
CONTINUOUS
370
-3
390
F
  0
LAYER
  5
219
100
AcDbSymbolTableRecord
100
AcDbLayerTableRecord
  2
PUNTI
 70
0
 62
7
  6
CONTINUOUS
370
-3
390
F
  0
LAYER
  5
21A
100
AcDbSymbolTableRecord
100
AcDbLayerTableRecord
  2
RACCORDO
 70
0
 62
7
  6
CONTINUOUS
370
-3
390
F
  0
LAYER
  5
21B
100
AcDbSymbolTableRecord
100
AcDbLayerTableRecord
  2
RINTRACCIABILITA
 70
0
 62
7
  6
CONTINUOUS
370
-3
390
F
  0
LAYER
  5
21C
100
AcDbSymbolTableRecord
100
AcDbLayerTableRecord
  2
SIMBOLI
 70
0
 62
7
  6
CONTINUOUS
370
-3
390
F
  0
LAYER
  5
21D
100
AcDbSymbolTableRecord
100
AcDbLayerTableRecord
  2
SMUSSO
 70
0
 62
7
  6
CONTINUOUS
370
-3
390
F
  0
LAYER
  5
21E
100
AcDbSymbolTableRecord
100
AcDbLayerTableRecord
  2
SNAPLINE
 70
0
 62
7
  6
CONTINUOUS
370
-3
390
F
  0
LAYER
  5
21F
100
AcDbSymbolTableRecord
100
AcDbLayerTableRecord
  2
SUPERFICI
 70
0
 62
7
  6
CONTINUOUS
370
-3
390
F
  0
LAYER
  5
220
100
AcDbSymbolTableRecord
100
AcDbLayerTableRecord
  2
TRASH
 70
0
 62
7
  6
CONTINUOUS
370
-3
390
F
  0
LAYER
  5
221
100
AcDbSymbolTableRecord
100
AcDbLayerTableRecord
  2
XSEC_DATUMS
 70
0
 62
7
  6
CONTINUOUS
370
-3
390
F
  0
ENDTAB
  0
TABLE
  2
STYLE
  5
3
100
AcDbSymbolTable
 70
1
  0
STYLE
  5
11
100
AcDbSymbolTableRecord
100
AcDbTextStyleTableRecord
  2
STANDARD
 70
0
 40
0.0
 41
0.8
 50
0.0
 71
0
 42
0.2
  3
txt
  4

  0
STYLE
  5
222
100
AcDbSymbolTableRecord
100
AcDbTextStyleTableRecord
  2
TEXTSTYLE_1
 70
0
 40
0.0
 41
0.8
 50
0.0
 71
0
 42
0.2
  3
gdt
  4

  0
ENDTAB
  0
TABLE
  2
VIEW
  5
6
100
AcDbSymbolTable
 70
0
  0
ENDTAB
  0
TABLE
  2
UCS
  5
7
100
AcDbSymbolTable
 70
0
  0
ENDTAB
  0
TABLE
  2
APPID
  5
9
100
AcDbSymbolTable
 70
1
  0
APPID
  5
223
100
AcDbSymbolTableRecord
100
AcDbRegAppTableRecord
  2
ACAD
 70
0
  0
ENDTAB
  0
TABLE
  2
BLOCK_RECORD
  5
1
100
AcDbSymbolTable
 70
0
  0
BLOCK_RECORD
  5
224
100
AcDbSymbolTableRecord
100
AcDbBlockTableRecord
  2
*Model_Space
  0
BLOCK_RECORD
  5
225
100
AcDbSymbolTableRecord
100
AcDbBlockTableRecord
  2
*Paper_Space
  0
BLOCK_RECORD
  5
226
100
AcDbSymbolTableRecord
100
AcDbBlockTableRecord
  2
_FILLED
  0
BLOCK_RECORD
  5
227
100
AcDbSymbolTableRecord
100
AcDbBlockTableRecord
  2
*D0
  0
BLOCK_RECORD
  5
228
100
AcDbSymbolTableRecord
100
AcDbBlockTableRecord
  2
*D1
  0
BLOCK_RECORD
  5
229
100
AcDbSymbolTableRecord
100
AcDbBlockTableRecord
  2
*D2
  0
BLOCK_RECORD
  5
22A
100
AcDbSymbolTableRecord
100
AcDbBlockTableRecord
  2
*D3
  0
ENDTAB
  0
TABLE
  2
DIMSTYLE
  5
A
100
AcDbSymbolTable
 70
1
100
AcDbDimStyleTable
 71
0
  0
DIMSTYLE
105
22B
100
AcDbSymbolTableRecord
100
AcDbDimStyleTableRecord
  2
STANDARD
 70
0
  3

  4

 40
1.0
 41
3.0
 42
0.5
 43
0.38
 44
1.5
 45
0.0
 46
0.0
 47
0.01
 48
0.01
140
3.0
141
0.09
142
0.0
143
25.4
144
1.0
145
0.0
146
1.0
147
0.625
 71
1.0
 72
0.0
 73
0
 74
0
 75
0
 76
0
 77
1
 78
8
170
0
171
2
172
0
173
0
174
0
175
0
176
0
177
0
178
0
270
2
271
2
272
2
273
2
274
2
275
0
280
0
281
0
282
0
283
1
284
8
285
0
286
0
287
3
288
0
340
11
278
44
341
226
342
226
343
226
344
226
  0
DIMSTYLE
105
22C
100
AcDbSymbolTableRecord
100
AcDbDimStyleTableRecord
  2
DIMSTYLE_1
 70
0
  3

  4

 40
1.0
 41
3.0
 42
0.5
 43
0.38
 44
1.5
 45
0.0
 46
0.0
 47
0.0
 48
0.0
140
3.0
141
0.09
142
0.0
143
25.4
144
1.0
145
0.0
146
1.0
147
0.75
 71
0.0
 72
0.0
 73
0
 74
0
 75
0
 76
0
 77
1
 78
8
170
0
171
2
172
0
173
0
174
0
175
0
176
0
177
0
178
0
270
2
271
2
272
2
273
2
274
2
275
0
280
0
281
0
282
0
283
1
284
8
285
0
286
0
287
3
288
0
340
11
278
44
341
226
342
226
343
226
344
226
  0
DIMSTYLE
105
22D
100
AcDbSymbolTableRecord
100
AcDbDimStyleTableRecord
  2
DIMSTYLE_2
 70
0
  3

  4

 40
1.0
 41
3.0
 42
0.5
 43
0.38
 44
1.5
 45
0.0
 46
0.0
 47
0.0
 48
0.0
140
3.0
141
0.09
142
0.0
143
25.4
144
1.0
145
0.0
146
1.0
147
0.75
 71
0.0
 72
0.0
 73
0
 74
0
 75
0
 76
0
 77
1
 78
8
170
0
171
2
172
0
173
0
174
0
175
0
176
0
177
0
178
0
270
2
271
1
272
1
273
2
274
2
275
0
280
0
281
0
282
0
283
1
284
8
285
0
286
0
287
3
288
0
340
11
278
44
341
226
342
226
343
226
344
226
  0
ENDTAB
  0
ENDSEC
  0
SECTION
  2
BLOCKS
  0
BLOCK
  5
20
100
AcDbEntity
  8
0
100
AcDbBlockBegin
  2
*Model_Space
 70
0
 10
0.0
 20
0.0
 30
0.0
  3
*Model_Space
  1

  0
ENDBLK
  5
21
100
AcDbEntity
  8
0
100
AcDbBlockEnd
  0
BLOCK
  5
1C
100
AcDbEntity
  8
0
100
AcDbBlockBegin
  2
*Paper_Space
 70
0
 10
0.0
 20
0.0
 30
0.0
  3
*Paper_Space
  1

  0
ENDBLK
  5
1D
100
AcDbEntity
  8
0
100
AcDbBlockEnd
  0
BLOCK
  5
22E
100
AcDbEntity
  8
0
100
AcDbBlockBegin
  2
_FILLED
 70
64
 10
0.0
 20
0.0
  3
_FILLED
  1

  0
SOLID
  5
22F
100
AcDbEntity
  8
0
  6
BYBLOCK
 62
0
100
AcDbTrace
 10
0.0
 20
0.0
 11
-1.0
 21
0.3166666667
 12
-1.0
 22
-0.3166666667
 13
-1.0
 23
-0.3166666667
  0
ENDBLK
  5
230
100
AcDbEntity
  8
0
  6
BYBLOCK
 62
0
100
AcDbBlockEnd
  0
BLOCK
  5
231
100
AcDbEntity
  8
0
100
AcDbBlockBegin
 62
7
  6
CONTINUOUS
  2
*D0
 70
65
 10
0.0
 20
0.0
  3
*D0
  1

  0
MTEXT
  5
232
100
AcDbEntity
  8
0
100
AcDbMText
 62
7
  6
CONTINUOUS
  7
STANDARD
 71
2
 72
1
 10
119.9175782603
 20
142.1875956633
 30
0.0
 11
1.0
 21
0.0
 31
0.0
 44
0.9
  1
25
 40
3.0
 41
6.75
  0
LINE
  5
233
100
AcDbEntity
  8
0
100
AcDbLine
 62
7
  6
CONTINUOUS
 10
132.4175782603
 20
121.161472385
 11
132.4175782603
 21
139.9375956633
  0
LINE
  5
234
100
AcDbEntity
  8
0
100
AcDbLine
 62
7
  6
CONTINUOUS
 10
107.4175782603
 20
129.4159078268
 11
107.4175782603
 21
139.9375956633
  0
LINE
  5
235
100
AcDbEntity
  8
0
100
AcDbLine
 62
7
  6
CONTINUOUS
 10
132.4175782603
 20
138.4375956633
 11
119.9175782603
 21
138.4375956633
  0
LINE
  5
236
100
AcDbEntity
  8
0
100
AcDbLine
 62
7
  6
CONTINUOUS
 10
107.4175782603
 20
138.4375956633
 11
119.9175782603
 21
138.4375956633
  0
INSERT
  5
237
100
AcDbEntity
  8
0
100
AcDbBlockReference
 62
7
  6
CONTINUOUS
  2
_FILLED
 10
132.4175782603
 20
138.4375956633
 41
3.0
 42
3.0
 43
3.0
  0
INSERT
  5
238
100
AcDbEntity
  8
0
100
AcDbBlockReference
 62
7
  6
CONTINUOUS
  2
_FILLED
 10
107.4175782603
 20
138.4375956633
 41
3.0
 42
3.0
 43
3.0
 50
180.0
  0
ENDBLK
  5
239
100
AcDbEntity
  8
0
  6
BYBLOCK
 62
0
100
AcDbBlockEnd
  0
BLOCK
  5
23A
100
AcDbEntity
  8
0
100
AcDbBlockBegin
 62
7
  6
CONTINUOUS
  2
*D1
 70
65
 10
0.0
 20
0.0
  3
*D1
  1

  0
MTEXT
  5
23B
100
AcDbEntity
  8
0
100
AcDbMText
 62
7
  6
CONTINUOUS
  7
STANDARD
 71
2
 72
1
 10
114.6627382545
 20
152.1875956633
 30
0.0
 11
1.0
 21
0.0
 31
0.0
 44
0.9
  1
38,4
 40
3.0
 41
12.8571428571
  0
LINE
  5
23C
100
AcDbEntity
  8
0
100
AcDbLine
 62
7
  6
CONTINUOUS
 10
132.4175782603
 20
121.161472385
 11
132.4175782603
 21
149.9375956633
  0
LINE
  5
23D
100
AcDbEntity
  8
0
100
AcDbLine
 62
7
  6
CONTINUOUS
 10
94.05531433
 20
86.6185660757
 11
94.05531433
 21
149.9375956633
  0
LINE
  5
23E
100
AcDbEntity
  8
0
100
AcDbLine
 62
7
  6
CONTINUOUS
 10
132.4175782603
 20
148.4375956633
 11
113.2364462951
 21
148.4375956633
  0
LINE
  5
23F
100
AcDbEntity
  8
0
100
AcDbLine
 62
7
  6
CONTINUOUS
 10
94.05531433
 20
148.4375956633
 11
113.2364462951
 21
148.4375956633
  0
INSERT
  5
240
100
AcDbEntity
  8
0
100
AcDbBlockReference
 62
7
  6
CONTINUOUS
  2
_FILLED
 10
132.4175782603
 20
148.4375956633
 41
3.0
 42
3.0
 43
3.0
  0
INSERT
  5
241
100
AcDbEntity
  8
0
100
AcDbBlockReference
 62
7
  6
CONTINUOUS
  2
_FILLED
 10
94.05531433
 20
148.4375956633
 41
3.0
 42
3.0
 43
3.0
 50
180.0
  0
ENDBLK
  5
242
100
AcDbEntity
  8
0
  6
BYBLOCK
 62
0
100
AcDbBlockEnd
  0
BLOCK
  5
243
100
AcDbEntity
  8
0
100
AcDbBlockBegin
 62
7
  6
CONTINUOUS
  2
*D2
 70
65
 10
0.0
 20
0.0
  3
*D2
  1

  0
MTEXT
  5
244
100
AcDbEntity
  8
0
100
AcDbMText
 62
7
  6
CONTINUOUS
  7
STANDARD
 71
2
 72
1
 10
166.4847895408
 20
142.1875956633
 30
0.0
 11
1.0
 21
0.0
 31
0.0
 44
0.9
  1
44,8
 40
3.0
 41
13.1785714286
  0
LINE
  5
245
100
AcDbEntity
  8
0
100
AcDbLine
 62
7
  6
CONTINUOUS
 10
144.0847895408
 20
126.3912444118
 11
144.0847895408
 21
139.9375956633
  0
LINE
  5
246
100
AcDbEntity
  8
0
100
AcDbLine
 62
7
  6
CONTINUOUS
 10
188.8847895408
 20
128.3199121179
 11
188.8847895408
 21
139.9375956633
  0
LINE
  5
247
100
AcDbEntity
  8
0
100
AcDbLine
 62
7
  6
CONTINUOUS
 10
144.0847895408
 20
138.4375956633
 11
166.4847895408
 21
138.4375956633
  0
LINE
  5
248
100
AcDbEntity
  8
0
100
AcDbLine
 62
7
  6
CONTINUOUS
 10
188.8847895408
 20
138.4375956633
 11
166.4847895408
 21
138.4375956633
  0
INSERT
  5
249
100
AcDbEntity
  8
0
100
AcDbBlockReference
 62
7
  6
CONTINUOUS
  2
_FILLED
 10
144.0847895408
 20
138.4375956633
 41
3.0
 42
3.0
 43
3.0
 50
180.0
  0
INSERT
  5
24A
100
AcDbEntity
  8
0
100
AcDbBlockReference
 62
7
  6
CONTINUOUS
  2
_FILLED
 10
188.8847895408
 20
138.4375956633
 41
3.0
 42
3.0
 43
3.0
  0
ENDBLK
  5
24B
100
AcDbEntity
  8
0
  6
BYBLOCK
 62
0
100
AcDbBlockEnd
  0
BLOCK
  5
24C
100
AcDbEntity
  8
0
100
AcDbBlockBegin
 62
7
  6
CONTINUOUS
  2
*D3
 70
65
 10
0.0
 20
0.0
  3
*D3
  1

  0
MTEXT
  5
24D
100
AcDbEntity
  8
0
100
AcDbMText
 62
7
  6
CONTINUOUS
  7
STANDARD
 71
2
 72
1
 10
193.1347895408
 20
105.9375956633
 30
0.0
 11
0.0
 21
1.0
 31
0.0
 44
0.9
  1
49
 40
3.0
 41
7.0714285714
  0
LINE
  5
24E
100
AcDbEntity
  8
0
100
AcDbLine
 62
7
  6
CONTINUOUS
 10
188.6347895408
 20
130.4375956633
 11
198.3847895408
 21
130.4375956633
  0
LINE
  5
24F
100
AcDbEntity
  8
0
100
AcDbLine
 62
7
  6
CONTINUOUS
 10
188.6347895408
 20
81.4375956633
 11
198.3847895408
 21
81.4375956633
  0
LINE
  5
250
100
AcDbEntity
  8
0
100
AcDbLine
 62
7
  6
CONTINUOUS
 10
196.8847895408
 20
130.4375956633
 11
196.8847895408
 21
105.9375956633
  0
LINE
  5
251
100
AcDbEntity
  8
0
100
AcDbLine
 62
7
  6
CONTINUOUS
 10
196.8847895408
 20
81.4375956633
 11
196.8847895408
 21
105.9375956633
  0
INSERT
  5
252
100
AcDbEntity
  8
0
100
AcDbBlockReference
 62
7
  6
CONTINUOUS
  2
_FILLED
 10
196.8847895408
 20
130.4375956633
 41
3.0
 42
3.0
 43
3.0
 50
90.0
  0
INSERT
  5
253
100
AcDbEntity
  8
0
100
AcDbBlockReference
 62
7
  6
CONTINUOUS
  2
_FILLED
 10
196.8847895408
 20
81.4375956633
 41
3.0
 42
3.0
 43
3.0
 50
270.0
  0
ENDBLK
  5
254
100
AcDbEntity
  8
0
  6
BYBLOCK
 62
0
100
AcDbBlockEnd
  0
ENDSEC
  0
SECTION
  2
ENTITIES
  0
DIMENSION
  5
255
100
AcDbEntity
  8
0
100
AcDbDimension
 62
7
  6
CONTINUOUS
  2
*D0
 10
107.4175782603
 20
138.4375956633
 11
119.9175782603
 21
138.4375956633
 70
160
 71
2
 42
25.0
  3
DIMSTYLE_1
100
AcDbAlignedDimension
 13
132.4175782603
 23
120.661472385
 14
107.4175782603
 24
128.9159078268
 50
180.0
100
AcDbRotatedDimension
  0
DIMENSION
  5
256
100
AcDbEntity
  8
0
100
AcDbDimension
 62
7
  6
CONTINUOUS
  2
*D1
 10
94.05531433
 20
148.4375956633
 11
114.6627382545
 21
148.4375956633
 70
160
 71
2
 42
38.3622639303
  3
DIMSTYLE_2
100
AcDbAlignedDimension
 13
132.4175782603
 23
120.661472385
 14
94.05531433
 24
86.1185660757
 50
180.0
100
AcDbRotatedDimension
  0
DIMENSION
  5
257
100
AcDbEntity
  8
0
100
AcDbDimension
 62
7
  6
CONTINUOUS
  2
*D2
 10
188.8847895408
 20
138.4375956633
 11
166.4847895408
 21
138.4375956633
 70
160
 71
2
 42
44.8
  3
DIMSTYLE_1
100
AcDbAlignedDimension
 13
144.0847895408
 23
125.8912444118
 14
188.8847895408
 24
127.8199121179
100
AcDbRotatedDimension
  0
DIMENSION
  5
258
100
AcDbEntity
  8
0
100
AcDbDimension
 62
7
  6
CONTINUOUS
  2
*D3
 10
196.8847895408
 20
81.4375956633
 11
196.8847895408
 21
105.9375956633
 70
160
 71
2
 42
49.0
  3
DIMSTYLE_1
100
AcDbAlignedDimension
 13
188.1347895408
 23
130.4375956633
 14
188.1347895408
 24
81.4375956633
 50
270.0
100
AcDbRotatedDimension
  0
LINE
  5
259
100
AcDbEntity
  8
26814000
100
AcDbLine
 62
7
  6
CONTINUOUS
 10
146.9216909621
 20
130.3244970845
 11
146.9347895408
 21
130.3375956633
  0
LINE
  5
25A
100
AcDbEntity
  8
26814000
100
AcDbLine
 62
7
  6
CONTINUOUS
 10
146.9216909621
 20
81.550694242
 11
146.9347895408
 21
81.5375956633
  0
LINE
  5
25B
100
AcDbEntity
  8
26814000
100
AcDbLine
 62
7
  6
CONTINUOUS
 10
146.9347895408
 20
128.3375956633
 11
146.9260627961
 21
128.3245053616
  0
LINE
  5
25C
100
AcDbEntity
  8
26814000
100
AcDbLine
 62
7
  6
CONTINUOUS
 10
146.9260627961
 20
83.550685965
 11
146.9347895408
 21
83.5375956633
  0
LWPOLYLINE
  5
25D
100
AcDbEntity
  8
290140000
100
AcDbPolyline
 62
253
  6
CONTINUOUS
 90
18
 70
0
 10
144.4349556126
 20
127.0956226327
 10
144.4359671845
 20
127.0982466537
 10
144.4369590209
 20
127.0961803346
 10
144.4379311217
 20
127.0894236753
 10
144.4388904556
 20
127.0778707916
 10
144.4398300539
 20
127.0616275678
 10
144.4407290108
 20
127.0410116568
 10
144.441585897
 20
127.0159305164
 10
144.4424021418
 20
126.9864766887
 10
144.4431611271
 20
126.9532454537
 10
144.4438616771
 20
126.9161569484
 10
144.4445049677
 20
126.8752910358
 10
144.4450779089
 20
126.8314825838
 10
144.4455790733
 20
126.7846392574
 10
144.4460098883
 20
126.7348533918
 10
144.4463615459
 20
126.6832368603
 10
144.4466311102
 20
126.6301602876
 10
144.4468215171
 20
126.5752530491
  0
LWPOLYLINE
  5
25E
100
AcDbEntity
  8
290140000
100
AcDbPolyline
 62
253
  6
CONTINUOUS
 90
3
 70
0
 10
144.4504059998
 20
127.2512398685
 10
144.4393610514
 20
127.1789017274
 10
144.4349556126
 20
127.0956226327
  0
LINE
  5
25F
100
AcDbEntity
  8
290140000
100
AcDbLine
 62
253
  6
CONTINUOUS
 10
144.3347895408
 20
126.5954023095
 11
144.4349556126
 21
127.0956226327
  0
LINE
  5
260
100
AcDbEntity
  8
290140000
100
AcDbLine
 62
7
  6
CONTINUOUS
 10
144.4505342426
 20
127.2518789391
 11
144.350197091
 21
126.7508056209
  0
LINE
  5
261
100
AcDbEntity
  8
RACCORDO
100
AcDbLine
 62
7
  6
CONTINUOUS
 10
188.1347895408
 20
81.4375956633
 11
186.2347895408
 21
81.4375956633
  0
LINE
  5
262
100
AcDbEntity
  8
RACCORDO
100
AcDbLine
 62
7
  6
CONTINUOUS
 10
169.2347895408
 20
81.4375956633
 11
167.3347895408
 21
81.4375956633
  0
LINE
  5
263
100
AcDbEntity
  8
26814000
100
AcDbLine
 62
7
  6
CONTINUOUS
 10
165.8347895408
 20
81.5375956633
 11
163.5347895408
 21
81.5375956633
  0
LINE
  5
264
100
AcDbEntity
  8
26814000
100
AcDbLine
 62
7
  6
CONTINUOUS
 10
146.9347895408
 20
81.5375956633
 11
144.6347895408
 21
81.5375956633
  0
LINE
  5
265
100
AcDbEntity
  8
26814000
100
AcDbLine
 62
253
  6
CONTINUOUS
 10
144.6478881195
 20
81.550694242
 11
146.9216909621
 21
81.550694242
  0
LINE
  5
266
100
AcDbEntity
  8
26814000
100
AcDbLine
 62
253
  6
CONTINUOUS
 10
163.5478881195
 20
81.550694242
 11
165.8216909621
 21
81.550694242
  0
LINE
  5
267
100
AcDbEntity
  8
RACCORDO
100
AcDbLine
 62
253
  6
CONTINUOUS
 10
167.0847895408
 20
81.6875956633
 11
169.4847895408
 21
81.6875956633
  0
LINE
  5
268
100
AcDbEntity
  8
RACCORDO
100
AcDbLine
 62
253
  6
CONTINUOUS
 10
185.9847895408
 20
81.6875956633
 11
188.3847895408
 21
81.6875956633
  0
LINE
  5
269
100
AcDbEntity
  8
26814000
100
AcDbLine
 62
253
  6
CONTINUOUS
 10
144.6493341153
 20
81.8006900112
 11
146.9202449663
 21
81.8006900112
  0
LINE
  5
26A
100
AcDbEntity
  8
26814000
100
AcDbLine
 62
253
  6
CONTINUOUS
 10
163.5493341153
 20
81.8006900112
 11
165.8202449663
 21
81.8006900112
  0
LWPOLYLINE
  5
26B
100
AcDbEntity
  8
26814000
100
AcDbPolyline
 62
7
  6
CONTINUOUS
 90
31
 70
0
 10
144.0847895408
 20
83.8876089907
 10
144.0852691798
 20
83.8692911564
 10
144.0867067852
 20
83.8510235081
 10
144.0890984209
 20
83.8328561103
 10
144.0924375359
 20
83.8148387508
 10
144.0967149826
 20
83.7970208113
 10
144.1019190427
 20
83.7794511323
 10
144.1080354576
 20
83.7621778668
 10
144.1150474675
 20
83.7452483565
 10
144.1229358592
 20
83.7287090093
 10
144.1316790168
 20
83.7126051562
 10
144.1412529808
 20
83.6969809351
 10
144.1516315151
 20
83.6818791785
 10
144.162786178
 20
83.6673412789
 10
144.1746863997
 20
83.6534070835
 10
144.1872995665
 20
83.6401147944
 10
144.2005911108
 20
83.6275008459
 10
144.2145246048
 20
83.6155998131
 10
144.2290618599
 20
83.6044443259
 10
144.2441630334
 20
83.5940649633
 10
144.2597867363
 20
83.5844901763
 10
144.2758901458
 20
83.5757462185
 10
144.2924291246
 20
83.5678570598
 10
144.309358342
 20
83.5608443267
 10
144.3266313957
 20
83.5547272488
 10
144.3442009412
 20
83.549522597
 10
144.3620188218
 20
83.5452446402
 10
144.3800361998
 20
83.5419051106
 10
144.3982036899
 20
83.539513167
 10
144.4164714945
 20
83.5380753694
 10
144.4347895408
 20
83.5375956633
  0
LINE
  5
26C
100
AcDbEntity
  8
26814000
100
AcDbLine
 62
7
  6
CONTINUOUS
 10
144.6486068866
 20
82.3097644469
 11
144.6435162855
 21
82.8149459325
  0
LWPOLYLINE
  5
26D
100
AcDbEntity
  8
290140000
100
AcDbPolyline
 62
253
  6
CONTINUOUS
 90
12
 70
0
 10
144.4468215171
 20
126.5752530491
 10
144.4506085492
 20
123.1793829835
 10
144.4536161148
 20
119.8349499544
 10
144.4559554635
 20
116.4852160576
 10
144.4576267262
 20
113.1297489798
 10
144.458629772
 20
109.7689810344
 10
144.4589642081
 20
106.4042091608
 10
144.4586297731
 20
103.0354319645
 10
144.4576267285
 20
99.6626508399
 10
144.4559554663
 20
96.2871669101
 10
144.4536161173
 20
92.9094138827
 10
144.4506085507
 20
89.52895805
  0
LINE
  5
26E
100
AcDbEntity
  8
26814000
100
AcDbLine
 62
7
  6
CONTINUOUS
 10
144.0847895408
 20
127.9657651664
 11
144.0847895408
 21
83.9094261602
  0
LINE
  5
26F
100
AcDbEntity
  8
290140000
100
AcDbLine
 62
7
  6
CONTINUOUS
 10
144.3347895408
 20
126.5954023095
 11
144.3347895408
 21
84.7257881617
  0
LINE
  5
270
100
AcDbEntity
  8
26814000
100
AcDbLine
 62
253
  6
CONTINUOUS
 10
144.4347895408
 20
83.5375956633
 11
144.4347895408
 21
83.5594128327
  0
LINE
  5
271
100
AcDbEntity
  8
26814000
100
AcDbLine
 62
253
  6
CONTINUOUS
 10
144.4347895408
 20
128.3157784938
 11
144.4347895408
 21
128.3375956633
  0
LINE
  5
272
100
AcDbEntity
  8
26814000
100
AcDbLine
 62
7
  6
CONTINUOUS
 10
144.6347895408
 20
81.5375956633
 11
144.6347895408
 21
83.5375956633
  0
LINE
  5
273
100
AcDbEntity
  8
26814000
100
AcDbLine
 62
7
  6
CONTINUOUS
 10
144.6347895408
 20
128.3375956633
 11
144.6347895408
 21
130.3375956633
  0
LINE
  5
274
100
AcDbEntity
  8
26814000
100
AcDbLine
 62
7
  6
CONTINUOUS
 10
144.6435162855
 20
82.8149459325
 11
144.6435162855
 21
83.550685965
  0
LINE
  5
275
100
AcDbEntity
  8
26814000
100
AcDbLine
 62
7
  6
CONTINUOUS
 10
144.6435162855
 20
128.3245053616
 11
144.6435162855
 21
129.0602453941
  0
LINE
  5
276
100
AcDbEntity
  8
26814000
100
AcDbLine
 62
7
  6
CONTINUOUS
 10
144.6493341153
 20
81.8006900112
 11
144.6493341153
 21
82.093258096
  0
LINE
  5
277
100
AcDbEntity
  8
26814000
100
AcDbLine
 62
7
  6
CONTINUOUS
 10
144.6493341153
 20
129.7819332306
 11
144.6493341153
 21
130.0745013153
  0
LWPOLYLINE
  5
278
100
AcDbEntity
  8
290140000
100
AcDbPolyline
 62
253
  6
CONTINUOUS
 90
19
 70
0
 10
144.4506085507
 20
89.52895805
 10
144.4468215171
 20
86.0877290871
 10
144.4466311102
 20
86.030541371
 10
144.4463615459
 20
85.9742362639
 10
144.4460098883
 20
85.9184079772
 10
144.4455790733
 20
85.8634622995
 10
144.4450779089
 20
85.8106165956
 10
144.4445049677
 20
85.7599461055
 10
144.4438616771
 20
85.7113755893
 10
144.4431611271
 20
85.6658966926
 10
144.4424021418
 20
85.6235751936
 10
144.441585897
 20
85.5843453142
 10
144.4407290108
 20
85.549001365
 10
144.4398300539
 20
85.5176187698
 10
144.4388904556
 20
85.4901221047
 10
144.4379311217
 20
85.4670794101
 10
144.4369590209
 20
85.4486800324
 10
144.4359671845
 20
85.4347346251
 10
144.4349556126
 20
85.4252431881
  0
LINE
  5
279
100
AcDbEntity
  8
26814000
100
AcDbLine
 62
7
  6
CONTINUOUS
 10
144.6435162855
 20
129.0602453941
 11
144.6486068866
 21
129.5654268796
  0
LWPOLYLINE
  5
27A
100
AcDbEntity
  8
26814000
100
AcDbPolyline
 62
7
  6
CONTINUOUS
 90
31
 70
0
 10
144.0847895408
 20
127.9875823358
 10
144.0852691798
 20
128.0059001701
 10
144.0867067852
 20
128.0241678184
 10
144.0890984209
 20
128.0423352162
 10
144.0924375359
 20
128.0603525757
 10
144.0967149826
 20
128.0781705152
 10
144.1019190427
 20
128.0957401942
 10
144.1080354576
 20
128.1130134598
 10
144.1150474675
 20
128.1299429701
 10
144.1229358592
 20
128.1464823172
 10
144.1316790168
 20
128.1625861703
 10
144.1412529808
 20
128.1782103915
 10
144.1516315151
 20
128.193312148
 10
144.162786178
 20
128.2078500476
 10
144.1746863997
 20
128.221784243
 10
144.1872995665
 20
128.2350765321
 10
144.2005911108
 20
128.2476904807
 10
144.2145246048
 20
128.2595915134
 10
144.2290618599
 20
128.2707470006
 10
144.2441630334
 20
128.2811263632
 10
144.2597867363
 20
128.2907011502
 10
144.2758901458
 20
128.2994451081
 10
144.2924291246
 20
128.3073342667
 10
144.309358342
 20
128.3143469999
 10
144.3266313957
 20
128.3204640778
 10
144.3442009412
 20
128.3256687295
 10
144.3620188218
 20
128.3299466864
 10
144.3800361998
 20
128.3332862159
 10
144.3982036899
 20
128.3356781595
 10
144.4164714945
 20
128.3371159571
 10
144.4347895408
 20
128.3375956633
  0
LWPOLYLINE
  5
27B
100
AcDbEntity
  8
290140000
100
AcDbPolyline
 62
253
  6
CONTINUOUS
 90
16
 70
0
 10
187.7347453129
 20
84.6297468482
 10
187.8183402521
 20
84.6342728899
 10
187.9010195258
 20
84.6474458213
 10
187.9818776186
 20
84.669121334
 10
188.0600289826
 20
84.6990620059
 10
188.1346176889
 20
84.736939885
 10
188.204826809
 20
84.7823400666
 10
188.2698874313
 20
84.8347652777
 10
188.3290870467
 20
84.8936413181
 10
188.3817773185
 20
84.9583233148
 10
188.4273812312
 20
85.02810283
 10
188.4653993922
 20
85.1022156175
 10
188.4954154843
 20
85.1798499653
 10
188.5171008389
 20
85.260155611
 10
188.5302180302
 20
85.3422530567
 10
188.534623469
 20
85.4252431881
  0
LINE
  5
27C
100
AcDbEntity
  8
RACCORDO
100
AcDbLine
 62
253
  6
CONTINUOUS
 10
167.0726451968
 20
83.5069269878
 11
167.0308138824
 21
83.5046431657
  0
LWPOLYLINE
  5
27D
100
AcDbEntity
  8
RACCORDO
100
AcDbPolyline
 62
253
  6
CONTINUOUS
 90
3
 70
0
 10
167.0308138824
 20
83.5046431657
 10
167.0100503257
 20
83.5036622394
 10
167.0006891821
 20
83.5032824313
  0
LWPOLYLINE
  5
27E
100
AcDbEntity
  8
RACCORDO
100
AcDbPolyline
 62
253
  6
CONTINUOUS
 90
9
 70
0
 10
188.3366423609
 20
83.3111112793
 10
188.3202447549
 20
83.3104808671
 10
188.3018926234
 20
83.3099021076
 10
188.2817200743
 20
83.3093910088
 10
188.25992622
 20
83.3089486746
 10
188.2367519323
 20
83.3085740011
 10
188.2123932985
 20
83.3082796859
 10
188.1870891391
 20
83.3080699614
 10
188.1611268974
 20
83.3079405952
  0
LWPOLYLINE
  5
27F
100
AcDbEntity
  8
RACCORDO
100
AcDbPolyline
 62
253
  6
CONTINUOUS
 90
9
 70
0
 10
169.4366423609
 20
83.3111112793
 10
169.4202447549
 20
83.3104808671
 10
169.4018926234
 20
83.3099021076
 10
169.3817200743
 20
83.3093910088
 10
169.35992622
 20
83.3089486746
 10
169.3367519323
 20
83.3085740011
 10
169.3123932985
 20
83.3082796859
 10
169.2870891391
 20
83.3080699614
 10
169.2611268974
 20
83.3079405952
  0
LWPOLYLINE
  5
280
100
AcDbEntity
  8
RACCORDO
100
AcDbPolyline
 62
253
  6
CONTINUOUS
 90
11
 70
0
 10
167.0006891821
 20
83.5032824313
 10
166.9921627986
 20
83.5029815353
 10
166.9844778794
 20
83.502761947
 10
166.977674211
 20
83.5026227635
 10
166.9717660507
 20
83.5025551213
 10
166.9667062691
 20
83.5025498965
 10
166.9624949713
 20
83.502601625
 10
166.959116159
 20
83.5027085041
 10
166.9565241904
 20
83.5028704462
 10
166.9546989764
 20
83.5030853187
 10
166.9536584073
 20
83.5033287754
  0
LINE
  5
281
100
AcDbEntity
  8
26814000
100
AcDbLine
 62
253
  6
CONTINUOUS
 10
165.8202449663
 20
82.093258096
 11
163.5493341153
 21
82.093258096
  0
LINE
  5
282
100
AcDbEntity
  8
26814000
100
AcDbLine
 62
253
  6
CONTINUOUS
 10
146.9202449663
 20
82.093258096
 11
144.6493341153
 21
82.093258096
  0
LINE
  5
283
100
AcDbEntity
  8
RACCORDO
100
AcDbLine
 62
253
  6
CONTINUOUS
 10
167.0847895408
 20
82.093258096
 11
169.4847895408
 21
82.093258096
  0
LINE
  5
284
100
AcDbEntity
  8
RACCORDO
100
AcDbLine
 62
253
  6
CONTINUOUS
 10
185.9847895408
 20
82.093258096
 11
188.3847895408
 21
82.093258096
  0
LINE
  5
285
100
AcDbEntity
  8
RACCORDO
100
AcDbLine
 62
7
  6
CONTINUOUS
 10
182.1376559875
 20
82.1375956633
 11
173.3319230941
 21
82.1375956633
  0
LINE
  5
286
100
AcDbEntity
  8
26814000
100
AcDbLine
 62
7
  6
CONTINUOUS
 10
159.6347895408
 20
82.1375956633
 11
150.8347895408
 21
82.1375956633
  0
LINE
  5
287
100
AcDbEntity
  8
26814000
100
AcDbLine
 62
7
  6
CONTINUOUS
 10
159.3307119829
 20
82.1434134931
 11
151.1388670987
 21
82.1434134931
  0
LINE
  5
288
100
AcDbEntity
  8
RACCORDO
100
AcDbLine
 62
253
  6
CONTINUOUS
 10
188.1347895408
 20
82.3097644469
 11
186.2347895408
 21
82.3097644469
  0
LINE
  5
289
100
AcDbEntity
  8
RACCORDO
100
AcDbLine
 62
253
  6
CONTINUOUS
 10
169.2347895408
 20
82.3097644469
 11
167.3347895408
 21
82.3097644469
  0
LINE
  5
28A
100
AcDbEntity
  8
26814000
100
AcDbLine
 62
253
  6
CONTINUOUS
 10
165.820972195
 20
82.3097644469
 11
163.5486068866
 21
82.3097644469
  0
LINE
  5
28B
100
AcDbEntity
  8
26814000
100
AcDbLine
 62
253
  6
CONTINUOUS
 10
146.920972195
 20
82.3097644469
 11
144.6486068866
 21
82.3097644469
  0
LINE
  5
28C
100
AcDbEntity
  8
RACCORDO
100
AcDbLine
 62
253
  6
CONTINUOUS
 10
167.3347895408
 20
82.7427771488
 11
169.2347895408
 21
82.7427771488
  0
LINE
  5
28D
100
AcDbEntity
  8
RACCORDO
100
AcDbLine
 62
253
  6
CONTINUOUS
 10
186.2347895408
 20
82.7427771488
 11
188.1347895408
 21
82.7427771488
  0
LINE
  5
28E
100
AcDbEntity
  8
26814000
100
AcDbLine
 62
7
  6
CONTINUOUS
 10
165.8260627961
 20
82.8149459325
 11
163.5435162855
 21
82.8149459325
  0
LINE
  5
28F
100
AcDbEntity
  8
26814000
100
AcDbLine
 62
7
  6
CONTINUOUS
 10
146.9260627961
 20
82.8149459325
 11
144.6435162855
 21
82.8149459325
  0
LINE
  5
290
100
AcDbEntity
  8
RACCORDO
100
AcDbLine
 62
253
  6
CONTINUOUS
 10
167.0847895408
 20
82.9592834998
 11
169.4847895408
 21
82.9592834998
  0
LINE
  5
291
100
AcDbEntity
  8
RACCORDO
100
AcDbLine
 62
253
  6
CONTINUOUS
 10
185.9847895408
 20
82.9592834998
 11
188.3847895408
 21
82.9592834998
  0
LINE
  5
292
100
AcDbEntity
  8
RACCORDO
100
AcDbLine
 62
253
  6
CONTINUOUS
 10
188.1611268974
 20
83.3079405952
 11
186.2347895408
 21
83.3078915873
  0
LINE
  5
293
100
AcDbEntity
  8
RACCORDO
100
AcDbLine
 62
253
  6
CONTINUOUS
 10
169.2611268974
 20
83.3079405952
 11
167.3347895408
 21
83.3078915873
  0
LINE
  5
294
100
AcDbEntity
  8
RACCORDO
100
AcDbLine
 62
7
  6
CONTINUOUS
 10
167.1373832161
 20
83.5026855334
 11
188.3321958656
 21
83.5026855334
  0
LINE
  5
295
100
AcDbEntity
  8
26814000
100
AcDbLine
 62
7
  6
CONTINUOUS
 10
144.4347895408
 20
83.5375956633
 11
144.6347895408
 21
83.5375956633
  0
LINE
  5
296
100
AcDbEntity
  8
26814000
100
AcDbLine
 62
7
  6
CONTINUOUS
 10
146.9347895408
 20
83.5375956633
 11
150.8347895408
 21
83.5375956633
  0
LINE
  5
297
100
AcDbEntity
  8
26814000
100
AcDbLine
 62
7
  6
CONTINUOUS
 10
159.6347895408
 20
83.5375956633
 11
163.5347895408
 21
83.5375956633
  0
LINE
  5
298
100
AcDbEntity
  8
26814000
100
AcDbLine
 62
7
  6
CONTINUOUS
 10
165.8347895408
 20
83.5375956633
 11
166.0347895408
 21
83.5375956633
  0
LINE
  5
299
100
AcDbEntity
  8
26814000
100
AcDbLine
 62
7
  6
CONTINUOUS
 10
151.1388670987
 20
83.5463225311
 11
159.3307119829
 21
83.5463225311
  0
LINE
  5
29A
100
AcDbEntity
  8
26814000
100
AcDbLine
 62
7
  6
CONTINUOUS
 10
165.8260627961
 20
83.550685965
 11
163.5435162855
 21
83.550685965
  0
LINE
  5
29B
100
AcDbEntity
  8
26814000
100
AcDbLine
 62
7
  6
CONTINUOUS
 10
146.9260627961
 20
83.550685965
 11
144.6435162855
 21
83.550685965
  0
LINE
  5
29C
100
AcDbEntity
  8
26814000
100
AcDbLine
 62
7
  6
CONTINUOUS
 10
144.4347895408
 20
83.5594128327
 11
166.0347895408
 21
83.5594128327
  0
LINE
  5
29D
100
AcDbEntity
  8
290140000
100
AcDbLine
 62
7
  6
CONTINUOUS
 10
145.1346676969
 20
83.9302918218
 11
187.8349113847
 21
83.9302918218
  0
LINE
  5
29E
100
AcDbEntity
  8
26814000
100
AcDbLine
 62
7
  6
CONTINUOUS
 10
144.0847895408
 20
83.9375956633
 11
145.0272429824
 21
83.9375956633
  0
LINE
  5
29F
100
AcDbEntity
  8
DRAFT
100
AcDbLine
 62
7
  6
CONTINUOUS
 10
188.2271526371
 20
84.0327856987
 11
188.832424346
 21
84.0327856987
  0
LINE
  5
2A0
100
AcDbEntity
  8
26814000
100
AcDbLine
 62
7
  6
CONTINUOUS
 10
144.0847895408
 20
84.0787979083
 11
144.6699996145
 21
84.0787979083
  0
LWPOLYLINE
  5
2A1
100
AcDbEntity
  8
RACCORDO
100
AcDbPolyline
 62
253
  6
CONTINUOUS
 90
16
 70
0
 10
167.3347895408
 20
83.3078915873
 10
167.3084521843
 20
83.3079405952
 10
167.2824899425
 20
83.3080699613
 10
167.2571857831
 20
83.3082796858
 10
167.2328271494
 20
83.308574001
 10
167.2096528617
 20
83.3089486746
 10
167.1878590073
 20
83.3093910089
 10
167.1676864582
 20
83.3099021075
 10
167.1493343268
 20
83.3104808669
 10
167.1329367208
 20
83.311111279
 10
167.1186750411
 20
83.3117954182
 10
167.1067364811
 20
83.3125312102
 10
167.0972609037
 20
83.3132964241
 10
167.0903777775
 20
83.3140836496
 10
167.0861954362
 20
83.3149002971
 10
167.0847895586
 20
83.3157433157
  0
LWPOLYLINE
  5
2A2
100
AcDbEntity
  8
RACCORDO
100
AcDbPolyline
 62
253
  6
CONTINUOUS
 90
16
 70
0
 10
186.2347895408
 20
83.3078915873
 10
186.2084521843
 20
83.3079405952
 10
186.1824899425
 20
83.3080699613
 10
186.1571857831
 20
83.3082796858
 10
186.1328271494
 20
83.308574001
 10
186.1096528617
 20
83.3089486746
 10
186.0878590073
 20
83.3093910089
 10
186.0676864582
 20
83.3099021075
 10
186.0493343268
 20
83.3104808669
 10
186.0329367208
 20
83.311111279
 10
186.0186750411
 20
83.3117954182
 10
186.0067364811
 20
83.3125312102
 10
185.9972609037
 20
83.3132964241
 10
185.9903777775
 20
83.3140836496
 10
185.9861954362
 20
83.3149002971
 10
185.9847895586
 20
83.3157433157
  0
LWPOLYLINE
  5
2A3
100
AcDbEntity
  8
RACCORDO
100
AcDbPolyline
 62
253
  6
CONTINUOUS
 90
9
 70
0
 10
188.48517638
 20
83.5027669151
 10
188.4919368618
 20
83.5026129954
 10
188.4978983476
 20
83.5025455287
 10
188.5030017361
 20
83.5025452406
 10
188.5072092865
 20
83.5025954637
 10
188.5105708298
 20
83.502705942
 10
188.5131573347
 20
83.5028859931
 10
188.5149930566
 20
83.5031201249
 10
188.5160059935
 20
83.5033598059
  0
LWPOLYLINE
  5
2A4
100
AcDbEntity
  8
290140000
100
AcDbPolyline
 62
253
  6
CONTINUOUS
 90
16
 70
0
 10
145.2348337688
 20
84.6297468482
 10
145.1512398835
 20
84.6342727771
 10
145.0685615156
 20
84.6474454025
 10
144.9877041555
 20
84.6691204583
 10
144.9095533502
 20
84.6990605601
 10
144.8349650045
 20
84.7369378048
 10
144.7647560075
 20
84.7823373622
 10
144.6996952854
 20
84.834762018
 10
144.6404953811
 20
84.8936376192
 10
144.5878046497
 20
84.9583193622
 10
144.5422001584
 20
85.0280988549
 10
144.5041813659
 20
85.1022118747
 10
144.4741646526
 20
85.1798467386
 10
144.4524787605
 20
85.2601531922
 10
144.4393611928
 20
85.3422517221
 10
144.4349556126
 20
85.4252431881
  0
LWPOLYLINE
  5
2A5
100
AcDbEntity
  8
290140000
100
AcDbPolyline
 62
253
  6
CONTINUOUS
 90
12
 70
0
 10
145.2504867154
 20
123.3070998551
 10
145.2534942871
 20
119.9535711945
 10
145.2558336379
 20
116.5943034538
 10
145.2575048959
 20
113.2297267749
 10
145.258507933
 20
109.8602718959
 10
145.2588423642
 20
106.4863700947
 10
145.258507933
 20
103.1084533443
 10
145.2575048959
 20
99.726954132
 10
145.2558336378
 20
96.3423052769
 10
145.2534942871
 20
92.9549400856
 10
145.2504867154
 20
89.5652922968
 10
145.246698031
 20
86.0500352869
  0
LWPOLYLINE
  5
2A6
100
AcDbEntity
  8
290140000
100
AcDbPolyline
 62
253
  6
CONTINUOUS
 90
18
 70
0
 10
145.246698031
 20
86.0500352869
 10
145.2465064566
 20
85.9267426662
 10
145.2462361996
 20
85.8047573067
 10
145.2458843945
 20
85.6849080349
 10
145.2454539067
 20
85.5680121499
 10
145.244953333
 20
85.4548694495
 10
145.2443812028
 20
85.3462525747
 10
145.2437389867
 20
85.2428965367
 10
145.2430396922
 20
85.1454989381
 10
145.2422821126
 20
85.0547226062
 10
145.2414674548
 20
84.9711852437
 10
145.2406123467
 20
84.8954515565
 10
145.2397160991
 20
84.8280363625
 10
145.2387794013
 20
84.769402338
 10
145.2378209497
 20
84.7199517865
 10
145.2368469765
 20
84.6800222603
 10
145.2358512495
 20
84.6498853916
 10
145.2348337688
 20
84.6297468482
  0
LINE
  5
2A7
100
AcDbEntity
  8
26814000
100
AcDbLine
 62
7
  6
CONTINUOUS
 10
159.630706906
 20
129.7335130284
 11
159.6347895408
 21
129.7375956633
  0
LINE
  5
2A8
100
AcDbEntity
  8
RACCORDO
100
AcDbLine
 62
7
  6
CONTINUOUS
 10
166.9063717992
 20
128.3517456345
 11
166.9532325202
 21
128.3715492391
  0
LWPOLYLINE
  5
2A9
100
AcDbEntity
  8
RACCORDO
100
AcDbPolyline
 62
7
  6
CONTINUOUS
 90
3
 70
0
 10
166.953646952
 20
128.3718600998
 10
166.9425988429
 20
128.3676944729
 10
166.8984537788
 20
128.3479421938
  0
LWPOLYLINE
  5
2AA
100
AcDbEntity
  8
290140000
100
AcDbPolyline
 62
253
  6
CONTINUOUS
 90
15
 70
0
 10
145.164112685
 20
86.1737351655
 10
145.0823005277
 20
86.1733602537
 10
145.0022510395
 20
86.1726743954
 10
144.9248219228
 20
86.1716849392
 10
144.8508428034
 20
86.1704024871
 10
144.7811063418
 20
86.1688407804
 10
144.7163597399
 20
86.1670165525
 10
144.6572967348
 20
86.1649493492
 10
144.6045501661
 20
86.16266132
 10
144.5586851949
 20
86.1601769804
 10
144.5201932482
 20
86.1575229491
 10
144.4894867538
 20
86.1547276632
 10
144.4668947212
 20
86.1518210732
 10
144.452659216
 20
86.1488343222
 10
144.4469327667
 20
86.1457994121
  0
LINE
  5
2AB
100
AcDbEntity
  8
DRAFT
100
AcDbLine
 62
7
  6
CONTINUOUS
 10
188.3437920486
 20
84.1125956633
 11
188.8437701382
 21
84.1125956633
  0
LINE
  5
2AC
100
AcDbEntity
  8
290140000
100
AcDbLine
 62
253
  6
CONTINUOUS
 10
187.7347453129
 20
84.6297468482
 11
145.2348337688
 21
84.6297468482
  0
LINE
  5
2AD
100
AcDbEntity
  8
26814000
100
AcDbLine
 62
7
  6
CONTINUOUS
 10
144.0847895408
 20
85.9839469147
 11
144.3347895408
 21
85.9839469147
  0
LINE
  5
2AE
100
AcDbEntity
  8
DRAFT
100
AcDbLine
 62
7
  6
CONTINUOUS
 10
188.6347895408
 20
85.9839469147
 11
188.8437701382
 21
85.9839469147
  0
LINE
  5
2AF
100
AcDbEntity
  8
290140000
100
AcDbLine
 62
253
  6
CONTINUOUS
 10
187.7227681589
 20
86.1737958996
 11
145.164112685
 21
86.1737351655
  0
LWPOLYLINE
  5
2B0
100
AcDbEntity
  8
290140000
100
AcDbPolyline
 62
253
  6
CONTINUOUS
 90
16
 70
0
 10
187.7227681589
 20
86.1737958983
 10
187.805467203
 20
86.1737359527
 10
187.8872801385
 20
86.173361033
 10
187.967330351
 20
86.1726751565
 10
188.0447601137
 20
86.1716856722
 10
188.1187397775
 20
86.1704031823
 10
188.1884766605
 20
86.168841429
 10
188.2532235419
 20
86.1670171463
 10
188.3122866678
 20
86.1649498812
 10
188.365033185
 20
86.1626617839
 10
188.4108979219
 20
86.1601773713
 10
188.4493894444
 20
86.1575232634
 10
188.4800953211
 20
86.1547278986
 10
188.5026865427
 20
86.151821229
 10
188.5169210476
 20
86.148834399
 10
188.522646315
 20
86.1457994121
  0
LINE
  5
2B1
100
AcDbEntity
  8
RACCORDO
100
AcDbLine
 62
253
  6
CONTINUOUS
 10
188.4691070352
 20
83.5032450941
 11
188.48517638
 21
83.5027669151
  0
LINE
  5
2B2
100
AcDbEntity
  8
RACCORDO
100
AcDbLine
 62
253
  6
CONTINUOUS
 10
188.4601045284
 20
83.5036222617
 11
188.4691070352
 21
83.5032450941
  0
LINE
  5
2B3
100
AcDbEntity
  8
RACCORDO
100
AcDbLine
 62
253
  6
CONTINUOUS
 10
188.4403630799
 20
83.5045620664
 11
188.4601045284
 21
83.5036222617
  0
LINE
  5
2B4
100
AcDbEntity
  8
RACCORDO
100
AcDbLine
 62
253
  6
CONTINUOUS
 10
188.3969317471
 20
83.506926778
 11
188.4403630799
 21
83.5045620664
  0
LWPOLYLINE
  5
2B5
100
AcDbEntity
  8
RACCORDO
100
AcDbPolyline
 62
7
  6
CONTINUOUS
 90
5
 70
0
 10
166.9546720924
 20
83.502956961
 10
166.9650441006
 20
83.4987823795
 10
166.9756585675
 20
83.4937778071
 10
166.9864272343
 20
83.4878798926
 10
166.9972586618
 20
83.4810263172
  0
LINE
  5
2B6
100
AcDbEntity
  8
RACCORDO
100
AcDbLine
 62
7
  6
CONTINUOUS
 10
166.9532325202
 20
83.5036420874
 11
166.9063717992
 21
83.523445692
  0
LWPOLYLINE
  5
2B7
100
AcDbEntity
  8
RACCORDO
100
AcDbPolyline
 62
7
  6
CONTINUOUS
 90
3
 70
0
 10
166.9035251846
 20
83.524717132
 10
166.9485263947
 20
83.5052266434
 10
166.9546720924
 20
83.502956961
  0
LINE
  5
2B8
100
AcDbEntity
  8
26814000
100
AcDbLine
 62
7
  6
CONTINUOUS
 10
159.630706906
 20
82.1416782981
 11
159.6347895408
 21
82.1375956633
  0
LINE
  5
2B9
100
AcDbEntity
  8
26814000
100
AcDbLine
 62
7
  6
CONTINUOUS
 10
146.9260627961
 20
129.0602453941
 11
146.920972195
 21
129.5654268796
  0
LINE
  5
2BA
100
AcDbEntity
  8
26814000
100
AcDbLine
 62
7
  6
CONTINUOUS
 10
146.9202449663
 20
130.0745013153
 11
146.9202449663
 21
129.7819332306
  0
LINE
  5
2BB
100
AcDbEntity
  8
26814000
100
AcDbLine
 62
7
  6
CONTINUOUS
 10
146.9202449663
 20
82.093258096
 11
146.9202449663
 21
81.8006900112
  0
LINE
  5
2BC
100
AcDbEntity
  8
26814000
100
AcDbLine
 62
7
  6
CONTINUOUS
 10
146.9260627961
 20
82.8149459325
 11
146.9260627961
 21
83.550685965
  0
LINE
  5
2BD
100
AcDbEntity
  8
26814000
100
AcDbLine
 62
7
  6
CONTINUOUS
 10
146.9260627961
 20
128.3245053616
 11
146.9260627961
 21
129.0602453941
  0
LINE
  5
2BE
100
AcDbEntity
  8
26814000
100
AcDbLine
 62
7
  6
CONTINUOUS
 10
146.9347895408
 20
81.5375956633
 11
146.9347895408
 21
83.5375956633
  0
LINE
  5
2BF
100
AcDbEntity
  8
26814000
100
AcDbLine
 62
7
  6
CONTINUOUS
 10
146.9347895408
 20
128.3375956633
 11
146.9347895408
 21
130.3375956633
  0
LINE
  5
2C0
100
AcDbEntity
  8
26814000
100
AcDbLine
 62
7
  6
CONTINUOUS
 10
146.920972195
 20
82.3097644469
 11
146.9260627961
 21
82.8149459325
  0
LINE
  5
2C1
100
AcDbEntity
  8
290140000
100
AcDbLine
 62
253
  6
CONTINUOUS
 10
144.4349556126
 20
85.4252431881
 11
144.3347895408
 21
84.7257881617
  0
LINE
  5
2C2
100
AcDbEntity
  8
290140000
100
AcDbLine
 62
253
  6
CONTINUOUS
 10
145.2348337688
 20
84.6297468482
 11
145.1346676969
 21
83.9302918218
  0
LINE
  5
2C3
100
AcDbEntity
  8
26814000
100
AcDbLine
 62
7
  6
CONTINUOUS
 10
159.630706906
 20
128.3314716246
 11
159.6347895408
 21
128.3375956633
  0
LINE
  5
2C4
100
AcDbEntity
  8
26814000
100
AcDbLine
 62
7
  6
CONTINUOUS
 10
165.8216909621
 20
130.3244970845
 11
165.8347895408
 21
130.3375956633
  0
LWPOLYLINE
  5
2C5
100
AcDbEntity
  8
RACCORDO
100
AcDbPolyline
 62
7
  6
CONTINUOUS
 90
6
 70
0
 10
167.0056768267
 20
128.4002048504
 10
166.9948012705
 20
128.392523935
 10
166.983673619
 20
128.3857209669
 10
166.9724739713
 20
128.3798318139
 10
166.961642852
 20
128.3749656569
 10
166.953670421
 20
128.3718683845
  0
LWPOLYLINE
  5
2C6
100
AcDbEntity
  8
RACCORDO
100
AcDbPolyline
 62
7
  6
CONTINUOUS
 90
5
 70
0
 10
166.8984537788
 20
128.3479421938
 10
166.8564843999
 20
128.3240588663
 10
166.8170691196
 20
128.2962843701
 10
166.7805581286
 20
128.2648904604
 10
166.7472840088
 20
128.2301915144
  0
LWPOLYLINE
  5
2C7
100
AcDbEntity
  8
RACCORDO
100
AcDbPolyline
 62
7
  6
CONTINUOUS
 90
5
 70
0
 10
166.9063717992
 20
83.523445692
 10
166.8617690305
 20
83.5479102217
 10
166.819886258
 20
83.5767822461
 10
166.7811573494
 20
83.6097626772
 10
166.7459835009
 20
83.6465098678
  0
LINE
  5
2C8
100
AcDbEntity
  8
RACCORDO
100
AcDbLine
 62
7
  6
CONTINUOUS
 10
166.9972586618
 20
83.4810263172
 11
167.0077699708
 21
83.473379177
  0
LINE
  5
2C9
100
AcDbEntity
  8
26814000
100
AcDbLine
 62
7
  6
CONTINUOUS
 10
165.8216909621
 20
81.550694242
 11
165.8347895408
 21
81.5375956633
  0
LINE
  5
2CA
100
AcDbEntity
  8
26814000
100
AcDbLine
 62
7
  6
CONTINUOUS
 10
159.630706906
 20
83.5437197019
 11
159.6347895408
 21
83.5375956633
  0
LINE
  5
2CB
100
AcDbEntity
  8
26814000
100
AcDbLine
 62
7
  6
CONTINUOUS
 10
150.8347895408
 20
82.1375956633
 11
150.8347895408
 21
83.5375956633
  0
LINE
  5
2CC
100
AcDbEntity
  8
26814000
100
AcDbLine
 62
7
  6
CONTINUOUS
 10
150.8347895408
 20
128.3375956633
 11
150.8347895408
 21
129.7375956633
  0
LINE
  5
2CD
100
AcDbEntity
  8
26814000
100
AcDbLine
 62
253
  6
CONTINUOUS
 10
150.8388721757
 20
129.7335130284
 11
150.8388721757
 21
128.3314716246
  0
LINE
  5
2CE
100
AcDbEntity
  8
26814000
100
AcDbLine
 62
253
  6
CONTINUOUS
 10
150.8388721757
 20
83.5437197019
 11
150.8388721757
 21
82.1416782981
  0
LINE
  5
2CF
100
AcDbEntity
  8
26814000
100
AcDbLine
 62
253
  6
CONTINUOUS
 10
151.1388670987
 20
129.7317778335
 11
151.1388670987
 21
128.3288687955
  0
LINE
  5
2D0
100
AcDbEntity
  8
26814000
100
AcDbLine
 62
253
  6
CONTINUOUS
 10
151.1388670987
 20
83.5463225311
 11
151.1388670987
 21
82.1434134931
  0
LINE
  5
2D1
100
AcDbEntity
  8
RACCORDO
100
AcDbLine
 62
7
  6
CONTINUOUS
 10
166.7459835009
 20
128.2286814587
 11
166.7811573494
 21
128.2654286493
  0
LWPOLYLINE
  5
2D2
100
AcDbEntity
  8
RACCORDO
100
AcDbPolyline
 62
7
  6
CONTINUOUS
 90
4
 70
0
 10
166.7811573494
 20
128.2654286493
 10
166.819886258
 20
128.2984090805
 10
166.8617690305
 20
128.3272811049
 10
166.9063717992
 20
128.3517456345
  0
LWPOLYLINE
  5
2D3
100
AcDbEntity
  8
RACCORDO
100
AcDbPolyline
 62
7
  6
CONTINUOUS
 90
13
 70
0
 10
167.0077699708
 20
83.473379177
 10
167.0178144562
 20
83.4650156822
 10
167.0274141817
 20
83.4558862695
 10
167.0364814134
 20
83.4460308348
 10
167.0449359876
 20
83.4354986413
 10
167.0527373114
 20
83.4242989694
 10
167.0598529726
 20
83.4124169421
 10
167.0662153807
 20
83.3998833616
 10
167.0717522678
 20
83.386746133
 10
167.0764077912
 20
83.3730162588
 10
167.0801077042
 20
83.3587496752
 10
167.0827804374
 20
83.3440103851
 10
167.084360486
 20
83.3288294395
  0
LWPOLYLINE
  5
2D4
100
AcDbEntity
  8
RACCORDO
100
AcDbPolyline
 62
7
  6
CONTINUOUS
 90
4
 70
0
 10
166.7832328524
 20
83.6077901118
 10
166.8204965929
 20
83.5762628189
 10
166.8607164402
 20
83.5484781336
 10
166.9035251846
 20
83.524717132
  0
LINE
  5
2D5
100
AcDbEntity
  8
RACCORDO
100
AcDbLine
 62
7
  6
CONTINUOUS
 10
166.7492737701
 20
83.6427338276
 11
166.7832328524
 21
83.6077901118
  0
LWPOLYLINE
  5
2D6
100
AcDbEntity
  8
290140000
100
AcDbPolyline
 62
253
  6
CONTINUOUS
 90
18
 70
0
 10
145.2359100145
 20
127.8968269194
 10
145.2368469765
 20
127.8922894278
 10
145.2378209497
 20
127.8775881498
 10
145.2387794013
 20
127.8528065161
 10
145.2397160991
 20
127.8181138559
 10
145.2406123467
 20
127.7737486841
 10
145.2414674548
 20
127.7200162962
 10
145.2422821126
 20
127.6572826752
 10
145.2430396922
 20
127.5859721611
 10
145.2437389867
 20
127.5065700127
 10
145.2443812028
 20
127.4196166045
 10
145.244953333
 20
127.3256986474
 10
145.2454539067
 20
127.2254512165
 10
145.2458843945
 20
127.119558443
 10
145.2462361996
 20
127.0087446341
 10
145.2465064566
 20
126.8937654357
 10
145.246698031
 20
126.7754020347
 10
145.2504867154
 20
123.3070998551
  0
LINE
  5
2D7
100
AcDbEntity
  8
RACCORDO
100
AcDbLine
 62
7
  6
CONTINUOUS
 10
166.7205303144
 20
128.1966637778
 11
166.7074096159
 21
128.178957424
  0
LINE
  5
2D8
100
AcDbEntity
  8
RACCORDO
100
AcDbLine
 62
7
  6
CONTINUOUS
 10
166.721072967
 20
128.197403789
 11
166.7249311441
 21
128.2025964964
  0
LINE
  5
2D9
100
AcDbEntity
  8
RACCORDO
100
AcDbLine
 62
7
  6
CONTINUOUS
 10
166.7074096159
 20
128.178957424
 11
166.7050580744
 21
128.1758046108
  0
LINE
  5
2DA
100
AcDbEntity
  8
RACCORDO
100
AcDbLine
 62
7
  6
CONTINUOUS
 10
166.7472840088
 20
128.2301915144
 11
166.7249282893
 21
128.2025986642
  0
LWPOLYLINE
  5
2DB
100
AcDbEntity
  8
RACCORDO
100
AcDbPolyline
 62
7
  6
CONTINUOUS
 90
18
 70
0
 10
185.8553464712
 20
83.5026855334
 10
185.8650441006
 20
83.4987823795
 10
185.8756585675
 20
83.4937778071
 10
185.8864272343
 20
83.4878798926
 10
185.8972586618
 20
83.4810263172
 10
185.9077699708
 20
83.473379177
 10
185.9178144562
 20
83.4650156822
 10
185.9274141817
 20
83.4558862695
 10
185.9364814134
 20
83.4460308348
 10
185.9449359876
 20
83.4354986413
 10
185.9527373114
 20
83.4242989694
 10
185.9598529726
 20
83.4124169421
 10
185.9662153807
 20
83.3998833616
 10
185.9717522678
 20
83.386746133
 10
185.9764077912
 20
83.3730162588
 10
185.9801077042
 20
83.3587496752
 10
185.9827804374
 20
83.3440103851
 10
185.984360486
 20
83.3288294395
  0
LINE
  5
2DC
100
AcDbEntity
  8
RACCORDO
100
AcDbLine
 62
7
  6
CONTINUOUS
 10
166.712813401
 20
83.6897001313
 11
166.7067480078
 21
83.6971165891
  0
LINE
  5
2DD
100
AcDbEntity
  8
RACCORDO
100
AcDbLine
 62
7
  6
CONTINUOUS
 10
166.7255619806
 20
83.6717591991
 11
166.7492737701
 21
83.6427338276
  0
LINE
  5
2DE
100
AcDbEntity
  8
RACCORDO
100
AcDbLine
 62
7
  6
CONTINUOUS
 10
166.7459835009
 20
83.6465098678
 11
166.7255618822
 21
83.6717591283
  0
LINE
  5
2DF
100
AcDbEntity
  8
RACCORDO
100
AcDbLine
 62
7
  6
CONTINUOUS
 10
166.7255618822
 20
83.6717591283
 11
166.7210729673
 21
83.6777875372
  0
LINE
  5
2E0
100
AcDbEntity
  8
RACCORDO
100
AcDbLine
 62
7
  6
CONTINUOUS
 10
166.7050834722
 20
83.6993510821
 11
166.713036428
 21
83.6886841349
  0
LWPOLYLINE
  5
2E1
100
AcDbEntity
  8
RACCORDO
100
AcDbPolyline
 62
7
  6
CONTINUOUS
 90
3
 70
0
 10
166.713036428
 20
83.6886841349
 10
166.7205303124
 20
83.6785275515
 10
166.7210729673
 20
83.6777875372
  0
LINE
  5
2E2
100
AcDbEntity
  8
RACCORDO
100
AcDbLine
 62
7
  6
CONTINUOUS
 10
166.6832105841
 20
128.1437806963
 11
166.6701884002
 21
128.1217844625
  0
LINE
  5
2E3
100
AcDbEntity
  8
RACCORDO
100
AcDbLine
 62
7
  6
CONTINUOUS
 10
166.697634758
 20
128.1655095709
 11
166.6832105841
 21
128.1437806963
  0
LINE
  5
2E4
100
AcDbEntity
  8
26814000
100
AcDbLine
 62
7
  6
CONTINUOUS
 10
165.8347895408
 20
128.3375956633
 11
165.8260627961
 21
128.3245053616
  0
LINE
  5
2E5
100
AcDbEntity
  8
RACCORDO
100
AcDbLine
 62
7
  6
CONTINUOUS
 10
166.7050580744
 20
128.1758046108
 11
166.697634758
 21
128.1655095709
  0
LWPOLYLINE
  5
2E6
100
AcDbEntity
  8
RACCORDO
100
AcDbPolyline
 62
253
  6
CONTINUOUS
 90
8
 70
0
 10
188.8381439482
 20
84.0086291075
 10
188.8386378689
 20
84.0084451697
 10
188.8391094447
 20
84.0077563175
 10
188.8395586755
 20
84.0065625507
 10
188.8399845387
 20
84.004750248
 10
188.840388057
 20
84.0024330307
 10
188.8407722979
 20
83.9999517629
 10
188.841137709
 20
83.9973424018
  0
LWPOLYLINE
  5
2E7
100
AcDbEntity
  8
RACCORDO
100
AcDbPolyline
 62
7
  6
CONTINUOUS
 90
3
 70
0
 10
166.7050834722
 20
83.6993510821
 10
166.7010986411
 20
83.7048084106
 10
166.6729728467
 20
83.7485058117
  0
LINE
  5
2E8
100
AcDbEntity
  8
RACCORDO
100
AcDbLine
 62
7
  6
CONTINUOUS
 10
166.7210729673
 20
83.6777875372
 11
166.7147290817
 21
83.6866431505
  0
LINE
  5
2E9
100
AcDbEntity
  8
26814000
100
AcDbLine
 62
7
  6
CONTINUOUS
 10
165.8260627961
 20
83.550685965
 11
165.8347895408
 21
83.5375956633
  0
LWPOLYLINE
  5
2EA
100
AcDbEntity
  8
RACCORDO
100
AcDbPolyline
 62
7
  6
CONTINUOUS
 90
7
 70
0
 10
166.7147290817
 20
83.6866431505
 10
166.687717859
 20
83.7297467807
 10
166.6652296448
 20
83.7753742441
 10
166.6474973963
 20
83.8230528817
 10
166.6347048036
 20
83.872288786
 10
166.6269843864
 20
83.9225719178
 10
166.6265941686
 20
83.9302918218
  0
LWPOLYLINE
  5
2EB
100
AcDbEntity
  8
RACCORDO
100
AcDbPolyline
 62
7
  6
CONTINUOUS
 90
4
 70
0
 10
166.6495370698
 20
128.0802992962
 10
166.6729717215
 20
128.1266825503
 10
166.7010975116
 20
128.1703800367
 10
166.7050580744
 20
128.1758046108
  0
LWPOLYLINE
  5
2EC
100
AcDbEntity
  8
RACCORDO
100
AcDbPolyline
 62
7
  6
CONTINUOUS
 90
3
 70
0
 10
166.6701884002
 20
128.1217844625
 10
166.6585929211
 20
128.099740364
 10
166.6485280487
 20
128.0781216102
  0
LWPOLYLINE
  5
2ED
100
AcDbEntity
  8
RACCORDO
100
AcDbPolyline
 62
253
  6
CONTINUOUS
 90
7
 70
0
 10
185.9847895594
 20
128.5594480851
 10
185.9861954362
 20
128.56029103
 10
185.9903777775
 20
128.5611076778
 10
185.9972609037
 20
128.5618949034
 10
186.0067364811
 20
128.562660117
 10
186.0186750411
 20
128.5633959084
 10
186.0329367208
 20
128.5640800472
  0
LINE
  5
2EE
100
AcDbEntity
  8
RACCORDO
100
AcDbLine
 62
7
  6
CONTINUOUS
 10
166.6729728467
 20
83.7485058117
 11
166.6495382385
 21
83.7948889843
  0
LWPOLYLINE
  5
2EF
100
AcDbEntity
  8
RACCORDO
100
AcDbPolyline
 62
7
  6
CONTINUOUS
 90
6
 70
0
 10
166.6474222577
 20
83.7996192515
 10
166.6561395091
 20
83.780479917
 10
166.6658612586
 20
83.7613260601
 10
166.6766702172
 20
83.742137884
 10
166.6885231221
 20
83.7231183683
 10
166.7014105723
 20
83.7043753225
  0
LINE
  5
2F0
100
AcDbEntity
  8
26814000
100
AcDbLine
 62
253
  6
CONTINUOUS
 10
159.3307119829
 20
82.1434134931
 11
159.3307119829
 21
83.5463225311
  0
LINE
  5
2F1
100
AcDbEntity
  8
26814000
100
AcDbLine
 62
253
  6
CONTINUOUS
 10
159.3307119829
 20
128.3288687955
 11
159.3307119829
 21
129.7317778335
  0
LINE
  5
2F2
100
AcDbEntity
  8
26814000
100
AcDbLine
 62
253
  6
CONTINUOUS
 10
159.630706906
 20
82.1416782981
 11
159.630706906
 21
83.5437197019
  0
LINE
  5
2F3
100
AcDbEntity
  8
26814000
100
AcDbLine
 62
253
  6
CONTINUOUS
 10
159.630706906
 20
128.3314716246
 11
159.630706906
 21
129.7335130284
  0
LINE
  5
2F4
100
AcDbEntity
  8
26814000
100
AcDbLine
 62
7
  6
CONTINUOUS
 10
159.6347895408
 20
129.7375956633
 11
159.6347895408
 21
128.3375956633
  0
LINE
  5
2F5
100
AcDbEntity
  8
26814000
100
AcDbLine
 62
7
  6
CONTINUOUS
 10
159.6347895408
 20
83.5375956633
 11
159.6347895408
 21
82.1375956633
  0
LWPOLYLINE
  5
2F6
100
AcDbEntity
  8
RACCORDO
100
AcDbPolyline
 62
7
  6
CONTINUOUS
 90
10
 70
0
 10
166.6325231641
 20
128.0365942532
 10
166.6264398923
 20
128.0171883889
 10
166.6214398886
 20
127.9987728887
 10
166.6174042225
 20
127.9814890227
 10
166.6143075041
 20
127.9660099894
 10
166.6119734978
 20
127.9524293515
 10
166.610203675
 20
127.9405335216
 10
166.6088972073
 20
127.930549152
 10
166.6079749929
 20
127.9227524495
 10
166.6063704638
 20
127.9080200228
  0
LINE
  5
2F7
100
AcDbEntity
  8
RACCORDO
100
AcDbLine
 62
7
  6
CONTINUOUS
 10
166.631046913
 20
128.0317317327
 11
166.6495370698
 21
128.0802992962
  0
LWPOLYLINE
  5
2F8
100
AcDbEntity
  8
RACCORDO
100
AcDbPolyline
 62
7
  6
CONTINUOUS
 90
9
 70
0
 10
167.0741739258
 20
128.4951798182
 10
167.0684315394
 20
128.4802589206
 10
167.0616633309
 20
128.4661258131
 10
167.0539816375
 20
128.4528408384
 10
167.0454955813
 20
128.4404442641
 10
167.036314283
 20
128.4289666404
 10
167.0265513347
 20
128.418433723
 10
167.0163034395
 20
128.408845119
 10
167.0056768267
 20
128.4002048504
  0
LWPOLYLINE
  5
2F9
100
AcDbEntity
  8
RACCORDO
100
AcDbPolyline
 62
7
  6
CONTINUOUS
 90
3
 70
0
 10
166.6485280487
 20
128.0781216102
 10
166.6398796952
 20
128.0570461016
 10
166.6325231641
 20
128.0365942532
  0
LINE
  5
2FA
100
AcDbEntity
  8
RACCORDO
100
AcDbLine
 62
7
  6
CONTINUOUS
 10
166.6397032037
 20
83.8186057001
 11
166.6474222577
 21
83.7996192515
  0
LINE
  5
2FB
100
AcDbEntity
  8
RACCORDO
100
AcDbLine
 62
7
  6
CONTINUOUS
 10
166.6495382385
 20
83.7948889843
 11
166.6310481742
 21
83.8434564675
  0
LINE
  5
2FC
100
AcDbEntity
  8
RACCORDO
100
AcDbLine
 62
7
  6
CONTINUOUS
 10
166.6330673844
 20
83.8369851741
 11
166.6397032037
 21
83.8186057001
  0
LINE
  5
2FD
100
AcDbEntity
  8
26814000
100
AcDbLine
 62
7
  6
CONTINUOUS
 10
144.6435162855
 20
83.550685965
 11
144.6347895408
 21
83.5375956633
  0
LINE
  5
2FE
100
AcDbEntity
  8
26814000
100
AcDbLine
 62
7
  6
CONTINUOUS
 10
144.6347895408
 20
128.3375956633
 11
144.6435162855
 21
128.3245053616
  0
LWPOLYLINE
  5
2FF
100
AcDbEntity
  8
RACCORDO
100
AcDbPolyline
 62
7
  6
CONTINUOUS
 90
3
 70
0
 10
166.6310481742
 20
83.8434564675
 10
166.6177025547
 20
83.8936831855
 10
166.6119578148
 20
83.9302918218
  0
LINE
  5
300
100
AcDbEntity
  8
26814000
100
AcDbLine
 62
7
  6
CONTINUOUS
 10
163.5486068866
 20
82.3097644469
 11
163.5435162855
 21
82.8149459325
  0
LINE
  5
301
100
AcDbEntity
  8
26814000
100
AcDbLine
 62
7
  6
CONTINUOUS
 10
163.5347895408
 20
81.5375956633
 11
163.5347895408
 21
83.5375956633
  0
LINE
  5
302
100
AcDbEntity
  8
26814000
100
AcDbLine
 62
7
  6
CONTINUOUS
 10
163.5347895408
 20
128.3375956633
 11
163.5347895408
 21
130.3375956633
  0
LINE
  5
303
100
AcDbEntity
  8
26814000
100
AcDbLine
 62
7
  6
CONTINUOUS
 10
163.5435162855
 20
82.8149459325
 11
163.5435162855
 21
83.550685965
  0
LINE
  5
304
100
AcDbEntity
  8
26814000
100
AcDbLine
 62
7
  6
CONTINUOUS
 10
163.5435162855
 20
128.3245053616
 11
163.5435162855
 21
129.0602453941
  0
LINE
  5
305
100
AcDbEntity
  8
26814000
100
AcDbLine
 62
7
  6
CONTINUOUS
 10
163.5493341153
 20
81.8006900112
 11
163.5493341153
 21
82.093258096
  0
LINE
  5
306
100
AcDbEntity
  8
26814000
100
AcDbLine
 62
7
  6
CONTINUOUS
 10
163.5493341153
 20
129.7819332306
 11
163.5493341153
 21
130.0745013153
  0
LINE
  5
307
100
AcDbEntity
  8
26814000
100
AcDbLine
 62
7
  6
CONTINUOUS
 10
163.5435162855
 20
129.0602453941
 11
163.5486068866
 21
129.5654268796
  0
LINE
  5
308
100
AcDbEntity
  8
RACCORDO
100
AcDbLine
 62
253
  6
CONTINUOUS
 10
166.6044442865
 20
127.8968269254
 11
166.609609663
 21
127.9294958657
  0
LWPOLYLINE
  5
309
100
AcDbEntity
  8
RACCORDO
100
AcDbPolyline
 62
7
  6
CONTINUOUS
 90
8
 70
0
 10
166.6108437448
 20
83.9302918218
 10
166.6113587348
 20
83.9267112116
 10
166.6132321986
 20
83.9151866499
 10
166.615677506
 20
83.9020344942
 10
166.6187572571
 20
83.8876028385
 10
166.622619858
 20
83.871819825
 10
166.6273996088
 20
83.8547535139
 10
166.6330673844
 20
83.8369851741
  0
LINE
  5
30A
100
AcDbEntity
  8
RACCORDO
100
AcDbLine
 62
7
  6
CONTINUOUS
 10
167.084360486
 20
83.3288294395
 11
167.0847892619
 21
83.3157417792
  0
LINE
  5
30B
100
AcDbEntity
  8
26814000
100
AcDbLine
 62
7
  6
CONTINUOUS
 10
165.8260627961
 20
129.0602453941
 11
165.820972195
 21
129.5654268796
  0
LINE
  5
30C
100
AcDbEntity
  8
26814000
100
AcDbLine
 62
7
  6
CONTINUOUS
 10
165.8202449663
 20
130.0745013153
 11
165.8202449663
 21
129.7819332306
  0
LINE
  5
30D
100
AcDbEntity
  8
26814000
100
AcDbLine
 62
7
  6
CONTINUOUS
 10
165.8202449663
 20
82.093258096
 11
165.8202449663
 21
81.8006900112
  0
LINE
  5
30E
100
AcDbEntity
  8
26814000
100
AcDbLine
 62
7
  6
CONTINUOUS
 10
165.8260627961
 20
82.8149459325
 11
165.8260627961
 21
83.550685965
  0
LINE
  5
30F
100
AcDbEntity
  8
26814000
100
AcDbLine
 62
7
  6
CONTINUOUS
 10
165.8260627961
 20
128.3245053616
 11
165.8260627961
 21
129.0602453941
  0
LINE
  5
310
100
AcDbEntity
  8
26814000
100
AcDbLine
 62
7
  6
CONTINUOUS
 10
165.8347895408
 20
81.5375956633
 11
165.8347895408
 21
83.5375956633
  0
LINE
  5
311
100
AcDbEntity
  8
26814000
100
AcDbLine
 62
7
  6
CONTINUOUS
 10
165.8347895408
 20
128.3375956633
 11
165.8347895408
 21
130.3375956633
  0
LINE
  5
312
100
AcDbEntity
  8
26814000
100
AcDbLine
 62
253
  6
CONTINUOUS
 10
166.0347895408
 20
128.3375956633
 11
166.0347895408
 21
128.3157784938
  0
LINE
  5
313
100
AcDbEntity
  8
26814000
100
AcDbLine
 62
253
  6
CONTINUOUS
 10
166.0347895408
 20
83.5594128327
 11
166.0347895408
 21
83.5375956633
  0
LINE
  5
314
100
AcDbEntity
  8
26814000
100
AcDbLine
 62
7
  6
CONTINUOUS
 10
166.3847895408
 20
127.9657651664
 11
166.3847895408
 21
127.8968269254
  0
LINE
  5
315
100
AcDbEntity
  8
26814000
100
AcDbLine
 62
7
  6
CONTINUOUS
 10
166.3847895408
 20
83.9302918218
 11
166.3847895408
 21
83.9094261602
  0
LINE
  5
316
100
AcDbEntity
  8
26814000
100
AcDbLine
 62
7
  6
CONTINUOUS
 10
165.820972195
 20
82.3097644469
 11
165.8260627961
 21
82.8149459325
  0
LWPOLYLINE
  5
317
100
AcDbEntity
  8
RACCORDO
100
AcDbPolyline
 62
7
  6
CONTINUOUS
 90
5
 70
0
 10
167.0847879131
 20
128.559445026
 10
167.0841831307
 20
128.543908423
 10
167.0821527328
 20
128.5270966158
 10
167.0787826343
 20
128.5108197502
 10
167.0741739258
 20
128.4951798182
  0
LWPOLYLINE
  5
318
100
AcDbEntity
  8
RACCORDO
100
AcDbPolyline
 62
7
  6
CONTINUOUS
 90
8
 70
0
 10
166.6244161211
 20
127.9018099369
 10
166.6269843864
 20
127.9526194087
 10
166.6347048036
 20
128.0029025406
 10
166.6474973963
 20
128.0521384449
 10
166.6652296448
 20
128.0998170824
 10
166.6877178591
 20
128.1454445458
 10
166.7147290817
 20
128.1885481761
 10
166.721072967
 20
128.197403789
  0
LWPOLYLINE
  5
319
100
AcDbEntity
  8
RACCORDO
100
AcDbPolyline
 62
7
  6
CONTINUOUS
 90
4
 70
0
 10
166.6079220316
 20
127.8968269254
 10
166.6096440698
 20
127.9301619093
 10
166.6177011518
 20
127.9815049332
 10
166.631046913
 20
128.0317317327
  0
LINE
  5
31A
100
AcDbEntity
  8
26814000
100
AcDbLine
 62
7
  6
CONTINUOUS
 10
150.8388721757
 20
83.5437197019
 11
150.8347895408
 21
83.5375956633
  0
LINE
  5
31B
100
AcDbEntity
  8
26814000
100
AcDbLine
 62
7
  6
CONTINUOUS
 10
144.0847895408
 20
105.9375956633
 11
144.3347895408
 21
105.9375956633
  0
LINE
  5
31C
100
AcDbEntity
  8
DRAFT
100
AcDbLine
 62
7
  6
CONTINUOUS
 10
188.6347895408
 20
105.9375956633
 11
188.8010052292
 21
105.9375956633
  0
LINE
  5
31D
100
AcDbEntity
  8
26814000
100
AcDbLine
 62
7
  6
CONTINUOUS
 10
150.8388721757
 20
128.3314716246
 11
150.8347895408
 21
128.3375956633
  0
LWPOLYLINE
  5
31E
100
AcDbEntity
  8
RACCORDO
100
AcDbPolyline
 62
253
  6
CONTINUOUS
 90
13
 70
0
 10
169.4847895408
 20
82.5262707979
 10
169.4826507562
 20
82.5545305474
 10
169.4762709974
 20
82.5823067649
 10
169.4657594239
 20
82.6091241914
 10
169.4512958918
 20
82.6345239733
 10
169.4331278759
 20
82.6580715135
 10
169.4115662361
 20
82.6793639068
 10
169.3869798981
 20
82.6980368346
 10
169.3597895408
 20
82.7137707979
 10
169.3304603989
 20
82.7262965842
 10
169.2994943021
 20
82.7353998738
 10
169.2674210889
 20
82.740924907
 10
169.2347895408
 20
82.7427771488
  0
LWPOLYLINE
  5
31F
100
AcDbEntity
  8
RACCORDO
100
AcDbPolyline
 62
253
  6
CONTINUOUS
 90
13
 70
0
 10
167.0847895408
 20
129.3489205287
 10
167.0869283255
 20
129.3206607791
 10
167.0933080842
 20
129.2928845617
 10
167.1038196577
 20
129.2660671352
 10
167.1182831899
 20
129.2406673532
 10
167.1364512057
 20
129.2171198131
 10
167.1580128455
 20
129.1958274197
 10
167.1825991836
 20
129.177154492
 10
167.2097895408
 20
129.1614205287
 10
167.2391186827
 20
129.1488947424
 10
167.2700847795
 20
129.1397914527
 10
167.3021579928
 20
129.1342664196
 10
167.3347895408
 20
129.1324141777
  0
LWPOLYLINE
  5
320
100
AcDbEntity
  8
RACCORDO
100
AcDbPolyline
 62
253
  6
CONTINUOUS
 90
13
 70
0
 10
169.4847895408
 20
82.093258096
 10
169.4826814427
 20
82.1213152471
 10
169.4763739377
 20
82.1489602897
 10
169.4659460847
 20
82.1757201428
 10
169.4515362864
 20
82.2011498761
 10
169.4333719119
 20
82.2247829279
 10
169.4117931502
 20
82.246154439
 10
169.387190045
 20
82.2648843316
 10
169.3599704892
 20
82.2806675344
 10
169.3306029966
 20
82.293232685
 10
169.2995923726
 20
82.3023643961
 10
169.2674707399
 20
82.3079065398
 10
169.2347895408
 20
82.3097644469
  0
LWPOLYLINE
  5
321
100
AcDbEntity
  8
RACCORDO
100
AcDbPolyline
 62
253
  6
CONTINUOUS
 90
13
 70
0
 10
167.0847895408
 20
129.7819332306
 10
167.0868976389
 20
129.7538760795
 10
167.0932051439
 20
129.7262310369
 10
167.1036329969
 20
129.6994711838
 10
167.1180427953
 20
129.6740414504
 10
167.1362071697
 20
129.6504083986
 10
167.1577859314
 20
129.6290368876
 10
167.1823890367
 20
129.610306995
 10
167.2096085925
 20
129.5945237921
 10
167.238976085
 20
129.5819586415
 10
167.2699867091
 20
129.5728269304
 10
167.3021083418
 20
129.5672847868
 10
167.3347895408
 20
129.5654268796
  0
LWPOLYLINE
  5
322
100
AcDbEntity
  8
26814000
100
AcDbPolyline
 62
7
  6
CONTINUOUS
 90
31
 70
0
 10
166.3847895408
 20
127.9875823358
 10
166.3843099018
 20
128.0059001701
 10
166.3828722964
 20
128.0241678184
 10
166.3804806607
 20
128.0423352162
 10
166.3771415457
 20
128.0603525757
 10
166.372864099
 20
128.0781705152
 10
166.3676600389
 20
128.0957401942
 10
166.3615436241
 20
128.1130134598
 10
166.3545316142
 20
128.1299429701
 10
166.3466432224
 20
128.1464823172
 10
166.3379000648
 20
128.1625861703
 10
166.3283261008
 20
128.1782103915
 10
166.3179475665
 20
128.193312148
 10
166.3067929036
 20
128.2078500476
 10
166.2948926819
 20
128.221784243
 10
166.2822795151
 20
128.2350765321
 10
166.2689879708
 20
128.2476904807
 10
166.2550544769
 20
128.2595915134
 10
166.2405172217
 20
128.2707470006
 10
166.2254160482
 20
128.2811263632
 10
166.2097923453
 20
128.2907011502
 10
166.1936889359
 20
128.2994451081
 10
166.177149957
 20
128.3073342667
 10
166.1602207397
 20
128.3143469999
 10
166.142947686
 20
128.3204640778
 10
166.1253781404
 20
128.3256687295
 10
166.1075602598
 20
128.3299466864
 10
166.0895428818
 20
128.3332862159
 10
166.0713753918
 20
128.3356781595
 10
166.0531075872
 20
128.3371159571
 10
166.0347895408
 20
128.3375956633
  0
LINE
  5
323
100
AcDbEntity
  8
RACCORDO
100
AcDbLine
 62
7
  6
CONTINUOUS
 10
167.0847895408
 20
81.6875956633
 11
167.0847895408
 21
83.3157463665
  0
LINE
  5
324
100
AcDbEntity
  8
RACCORDO
100
AcDbLine
 62
7
  6
CONTINUOUS
 10
167.0847895408
 20
128.55944496
 11
167.0847895408
 21
130.1875956633
  0
LINE
  5
325
100
AcDbEntity
  8
RACCORDO
100
AcDbLine
 62
253
  6
CONTINUOUS
 10
167.3347895408
 20
130.4375956633
 11
167.3347895411
 21
128.3725057931
  0
LINE
  5
326
100
AcDbEntity
  8
RACCORDO
100
AcDbLine
 62
253
  6
CONTINUOUS
 10
167.3347895424
 20
83.5026855334
 11
167.3347895408
 21
81.4375956633
  0
LWPOLYLINE
  5
327
100
AcDbEntity
  8
26814000
100
AcDbPolyline
 62
7
  6
CONTINUOUS
 90
31
 70
0
 10
166.3847895408
 20
83.8876089907
 10
166.3843099018
 20
83.8692911564
 10
166.3828722964
 20
83.8510235081
 10
166.3804806607
 20
83.8328561103
 10
166.3771415457
 20
83.8148387508
 10
166.372864099
 20
83.7970208113
 10
166.3676600389
 20
83.7794511323
 10
166.3615436241
 20
83.7621778668
 10
166.3545316142
 20
83.7452483565
 10
166.3466432224
 20
83.7287090093
 10
166.3379000648
 20
83.7126051562
 10
166.3283261008
 20
83.6969809351
 10
166.3179475665
 20
83.6818791785
 10
166.3067929036
 20
83.6673412789
 10
166.2948926819
 20
83.6534070835
 10
166.2822795151
 20
83.6401147944
 10
166.2689879708
 20
83.6275008459
 10
166.2550544769
 20
83.6155998131
 10
166.2405172217
 20
83.6044443259
 10
166.2254160482
 20
83.5940649633
 10
166.2097923453
 20
83.5844901763
 10
166.1936889359
 20
83.5757462185
 10
166.177149957
 20
83.5678570598
 10
166.1602207397
 20
83.5608443267
 10
166.142947686
 20
83.5547272488
 10
166.1253781404
 20
83.549522597
 10
166.1075602598
 20
83.5452446402
 10
166.0895428818
 20
83.5419051106
 10
166.0713753918
 20
83.539513167
 10
166.0531075872
 20
83.5380753694
 10
166.0347895408
 20
83.5375956633
  0
LWPOLYLINE
  5
328
100
AcDbEntity
  8
RACCORDO
100
AcDbPolyline
 62
253
  6
CONTINUOUS
 90
13
 70
0
 10
169.4847895408
 20
129.7819332306
 10
169.4826814427
 20
129.7538760795
 10
169.4763739377
 20
129.7262310369
 10
169.4659460847
 20
129.6994711838
 10
169.4515362864
 20
129.6740414504
 10
169.4333719119
 20
129.6504083986
 10
169.4117931502
 20
129.6290368876
 10
169.387190045
 20
129.610306995
 10
169.3599704892
 20
129.5945237921
 10
169.3306029966
 20
129.5819586415
 10
169.2995923726
 20
129.5728269304
 10
169.2674707399
 20
129.5672847868
 10
169.2347895408
 20
129.5654268796
  0
LWPOLYLINE
  5
329
100
AcDbEntity
  8
RACCORDO
100
AcDbPolyline
 62
253
  6
CONTINUOUS
 90
13
 70
0
 10
169.4847895408
 20
129.3489205287
 10
169.4826507562
 20
129.3206607791
 10
169.4762709974
 20
129.2928845617
 10
169.4657594239
 20
129.2660671352
 10
169.4512958918
 20
129.2406673532
 10
169.4331278759
 20
129.2171198131
 10
169.4115662361
 20
129.1958274197
 10
169.3869798981
 20
129.177154492
 10
169.3597895408
 20
129.1614205287
 10
169.3304603989
 20
129.1488947424
 10
169.2994943021
 20
129.1397914527
 10
169.2674210889
 20
129.1342664196
 10
169.2347895408
 20
129.1324141777
  0
LWPOLYLINE
  5
32A
100
AcDbEntity
  8
RACCORDO
100
AcDbPolyline
 62
253
  6
CONTINUOUS
 90
13
 70
0
 10
167.0847895408
 20
82.5262707979
 10
167.0869283255
 20
82.5545305474
 10
167.0933080842
 20
82.5823067649
 10
167.1038196577
 20
82.6091241914
 10
167.1182831899
 20
82.6345239733
 10
167.1364512057
 20
82.6580715135
 10
167.1580128455
 20
82.6793639068
 10
167.1825991836
 20
82.6980368346
 10
167.2097895408
 20
82.7137707979
 10
167.2391186827
 20
82.7262965842
 10
167.2700847795
 20
82.7353998738
 10
167.3021579928
 20
82.740924907
 10
167.3347895408
 20
82.7427771488
  0
LWPOLYLINE
  5
32B
100
AcDbEntity
  8
RACCORDO
100
AcDbPolyline
 62
253
  6
CONTINUOUS
 90
13
 70
0
 10
167.0847895408
 20
82.093258096
 10
167.0869283255
 20
82.1215178455
 10
167.0933080842
 20
82.149294063
 10
167.1038196577
 20
82.1761114895
 10
167.1182831899
 20
82.2015112714
 10
167.1364512057
 20
82.2250588116
 10
167.1580128455
 20
82.2463512049
 10
167.1825991836
 20
82.2650241327
 10
167.2097895408
 20
82.280758096
 10
167.2391186827
 20
82.2932838823
 10
167.2700847795
 20
82.3023871719
 10
167.3021579928
 20
82.3079122051
 10
167.3347895408
 20
82.3097644469
  0
LINE
  5
32C
100
AcDbEntity
  8
26814000
100
AcDbLine
 62
7
  6
CONTINUOUS
 10
144.6478881195
 20
81.550694242
 11
144.6347895408
 21
81.5375956633
  0
LINE
  5
32D
100
AcDbEntity
  8
26814000
100
AcDbLine
 62
7
  6
CONTINUOUS
 10
144.6478881195
 20
130.3244970845
 11
144.6347895408
 21
130.3375956633
  0
LINE
  5
32E
100
AcDbEntity
  8
RACCORDO
100
AcDbLine
 62
7
  6
CONTINUOUS
 10
169.4852029771
 20
128.5466213901
 11
169.4847911652
 21
128.559445017
  0
LINE
  5
32F
100
AcDbEntity
  8
RACCORDO
100
AcDbLine
 62
253
  6
CONTINUOUS
 10
169.2347895408
 20
81.4375956633
 11
169.2347895408
 21
83.5026855334
  0
LINE
  5
330
100
AcDbEntity
  8
RACCORDO
100
AcDbLine
 62
253
  6
CONTINUOUS
 10
169.2347895408
 20
128.3725057931
 11
169.2347895408
 21
130.4375956633
  0
LINE
  5
331
100
AcDbEntity
  8
RACCORDO
100
AcDbLine
 62
7
  6
CONTINUOUS
 10
169.4847895408
 20
81.6875956633
 11
169.4847895408
 21
83.3157463665
  0
LINE
  5
332
100
AcDbEntity
  8
RACCORDO
100
AcDbLine
 62
7
  6
CONTINUOUS
 10
169.4847895408
 20
128.55944496
 11
169.4847895408
 21
130.1875956633
  0
LWPOLYLINE
  5
333
100
AcDbEntity
  8
RACCORDO
100
AcDbPolyline
 62
7
  6
CONTINUOUS
 90
5
 70
0
 10
169.4847898194
 20
83.315741721
 10
169.4849658772
 20
83.3241318626
 10
169.4864874088
 20
83.3417388021
 10
169.4894868388
 20
83.3588197906
 10
169.4938569854
 20
83.3752606845
  0
LINE
  5
334
100
AcDbEntity
  8
RACCORDO
100
AcDbLine
 62
7
  6
CONTINUOUS
 10
173.331918009
 20
82.1375956633
 11
173.331918009
 21
83.5026855334
  0
LINE
  5
335
100
AcDbEntity
  8
RACCORDO
100
AcDbLine
 62
7
  6
CONTINUOUS
 10
173.331918009
 20
128.3725057931
 11
173.331918009
 21
129.7375956633
  0
LINE
  5
336
100
AcDbEntity
  8
26814000
100
AcDbLine
 62
7
  6
CONTINUOUS
 10
150.8388721757
 20
82.1416782981
 11
150.8347895408
 21
82.1375956633
  0
LINE
  5
337
100
AcDbEntity
  8
26814000
100
AcDbLine
 62
7
  6
CONTINUOUS
 10
150.8388721757
 20
129.7335130284
 11
150.8347895408
 21
129.7375956633
  0
LINE
  5
338
100
AcDbEntity
  8
RACCORDO
100
AcDbLine
 62
253
  6
CONTINUOUS
 10
173.831918009
 20
82.1375956633
 11
173.831918009
 21
83.5026855334
  0
LINE
  5
339
100
AcDbEntity
  8
RACCORDO
100
AcDbLine
 62
253
  6
CONTINUOUS
 10
173.831918009
 20
128.3725057931
 11
173.831918009
 21
129.7375956633
  0
LWPOLYLINE
  5
33A
100
AcDbEntity
  8
RACCORDO
100
AcDbPolyline
 62
7
  6
CONTINUOUS
 90
14
 70
0
 10
169.4938569854
 20
83.3752606845
 10
169.4994831484
 20
83.3909599122
 10
169.5062475184
 20
83.40583651
 10
169.5140299546
 20
83.4198242208
 10
169.5227068115
 20
83.4328674436
 10
169.5321611093
 20
83.4449337256
 10
169.5422724473
 20
83.4559954859
 10
169.5529106075
 20
83.466027423
 10
169.5639817382
 20
83.4750469649
 10
169.5753617647
 20
83.4830502226
 10
169.5868660879
 20
83.4900123642
 10
169.5985525159
 20
83.4960563603
 10
169.6101674706
 20
83.5011340319
 10
169.6144078285
 20
83.5026855334
  0
LWPOLYLINE
  5
33B
100
AcDbEntity
  8
RACCORDO
100
AcDbPolyline
 62
7
  6
CONTINUOUS
 90
14
 70
0
 10
185.9757220963
 20
128.499930642
 10
185.9700959332
 20
128.4842314144
 10
185.9633315632
 20
128.4693548166
 10
185.955549127
 20
128.4553671057
 10
185.9468722701
 20
128.442323883
 10
185.9374179724
 20
128.4302576009
 10
185.9273066343
 20
128.4191958406
 10
185.9166684741
 20
128.4091639035
 10
185.9055973434
 20
128.4001443616
 10
185.8942173169
 20
128.3921411039
 10
185.8827129937
 20
128.3851789623
 10
185.8710265657
 20
128.3791349662
 10
185.859411611
 20
128.3740572947
 10
185.8551712531
 20
128.3725057931
  0
LINE
  5
33C
100
AcDbEntity
  8
26814000
100
AcDbLine
 62
7
  6
CONTINUOUS
 10
163.5435162855
 20
83.550685965
 11
163.5347895408
 21
83.5375956633
  0
LINE
  5
33D
100
AcDbEntity
  8
26814000
100
AcDbLine
 62
7
  6
CONTINUOUS
 10
163.5347895408
 20
128.3375956633
 11
163.5435162855
 21
128.3245053616
  0
LINE
  5
33E
100
AcDbEntity
  8
RACCORDO
100
AcDbLine
 62
253
  6
CONTINUOUS
 10
181.6376610726
 20
129.7375956633
 11
181.6376610726
 21
128.3725057931
  0
LINE
  5
33F
100
AcDbEntity
  8
RACCORDO
100
AcDbLine
 62
253
  6
CONTINUOUS
 10
181.6376610726
 20
83.5026855334
 11
181.6376610726
 21
82.1375956633
  0
LINE
  5
340
100
AcDbEntity
  8
RACCORDO
100
AcDbLine
 62
7
  6
CONTINUOUS
 10
182.1376610726
 20
129.7375956633
 11
182.1376610726
 21
128.3725057931
  0
LINE
  5
341
100
AcDbEntity
  8
RACCORDO
100
AcDbLine
 62
7
  6
CONTINUOUS
 10
182.1376610726
 20
83.5026855334
 11
182.1376610726
 21
82.1375956633
  0
LINE
  5
342
100
AcDbEntity
  8
26814000
100
AcDbLine
 62
7
  6
CONTINUOUS
 10
163.5478881195
 20
81.550694242
 11
163.5347895408
 21
81.5375956633
  0
LINE
  5
343
100
AcDbEntity
  8
26814000
100
AcDbLine
 62
7
  6
CONTINUOUS
 10
163.5478881195
 20
130.3244970845
 11
163.5347895408
 21
130.3375956633
  0
LWPOLYLINE
  5
344
100
AcDbEntity
  8
290140000
100
AcDbPolyline
 62
253
  6
CONTINUOUS
 90
18
 70
0
 10
188.534623469
 20
85.4252431881
 10
188.5336118971
 20
85.4347346251
 10
188.5326200608
 20
85.4486800325
 10
188.53164796
 20
85.4670794101
 10
188.5306886261
 20
85.4901221048
 10
188.5297490277
 20
85.5176187698
 10
188.5288500708
 20
85.549001365
 10
188.5279931846
 20
85.5843453142
 10
188.5271769398
 20
85.6235751936
 10
188.5264179545
 20
85.6658966926
 10
188.5257174045
 20
85.7113755893
 10
188.5250741139
 20
85.7599461055
 10
188.5245011727
 20
85.8106165956
 10
188.5240000083
 20
85.8634622995
 10
188.5235691934
 20
85.9184079772
 10
188.5232175357
 20
85.9742362639
 10
188.5229479715
 20
86.030541371
 10
188.5227575645
 20
86.0877290871
  0
LWPOLYLINE
  5
345
100
AcDbEntity
  8
RACCORDO
100
AcDbPolyline
 62
253
  6
CONTINUOUS
 90
13
 70
0
 10
188.3847895408
 20
82.093258096
 10
188.3826507562
 20
82.1215178455
 10
188.3762709974
 20
82.149294063
 10
188.3657594239
 20
82.1761114895
 10
188.3512958918
 20
82.2015112714
 10
188.3331278759
 20
82.2250588116
 10
188.3115662361
 20
82.2463512049
 10
188.2869798981
 20
82.2650241327
 10
188.2597895408
 20
82.280758096
 10
188.2304603989
 20
82.2932838823
 10
188.1994943021
 20
82.3023871719
 10
188.1674210889
 20
82.3079122051
 10
188.1347895408
 20
82.3097644469
  0
LWPOLYLINE
  5
346
100
AcDbEntity
  8
RACCORDO
100
AcDbPolyline
 62
253
  6
CONTINUOUS
 90
13
 70
0
 10
188.3847895408
 20
82.5262707979
 10
188.3826507562
 20
82.5545305474
 10
188.3762709974
 20
82.5823067649
 10
188.3657594239
 20
82.6091241914
 10
188.3512958918
 20
82.6345239733
 10
188.3331278759
 20
82.6580715135
 10
188.3115662361
 20
82.6793639068
 10
188.2869798981
 20
82.6980368346
 10
188.2597895408
 20
82.7137707979
 10
188.2304603989
 20
82.7262965842
 10
188.1994943021
 20
82.7353998738
 10
188.1674210889
 20
82.740924907
 10
188.1347895408
 20
82.7427771488
  0
LWPOLYLINE
  5
347
100
AcDbEntity
  8
290140000
100
AcDbPolyline
 62
253
  6
CONTINUOUS
 90
19
 70
0
 10
187.7347453129
 20
84.6297468482
 10
187.7337278321
 20
84.6498853916
 10
187.7327321052
 20
84.6800222603
 10
187.731758132
 20
84.7199517865
 10
187.7307996804
 20
84.769402338
 10
187.7298629826
 20
84.8280363625
 10
187.7289667349
 20
84.8954515565
 10
187.7281116269
 20
84.9711852437
 10
187.727296969
 20
85.0547226062
 10
187.7265393894
 20
85.1454989381
 10
187.725840095
 20
85.2428965367
 10
187.7251978788
 20
85.3462525747
 10
187.7246257486
 20
85.4548694495
 10
187.7241251749
 20
85.5680121499
 10
187.7236946872
 20
85.6849080349
 10
187.723342882
 20
85.8047573067
 10
187.723072625
 20
85.9267426662
 10
187.7228810506
 20
86.0500352869
 10
187.7190923662
 20
89.5652922968
  0
LINE
  5
348
100
AcDbEntity
  8
RACCORDO
100
AcDbLine
 62
7
  6
CONTINUOUS
 10
185.984360486
 20
83.3288294395
 11
185.9847892619
 21
83.3157417792
  0
LINE
  5
349
100
AcDbEntity
  8
RACCORDO
100
AcDbLine
 62
7
  6
CONTINUOUS
 10
185.9847895408
 20
81.6875956633
 11
185.9847895408
 21
83.3157463665
  0
LINE
  5
34A
100
AcDbEntity
  8
RACCORDO
100
AcDbLine
 62
7
  6
CONTINUOUS
 10
185.9847895408
 20
128.55944496
 11
185.9847895408
 21
130.1875956633
  0
LINE
  5
34B
100
AcDbEntity
  8
RACCORDO
100
AcDbLine
 62
253
  6
CONTINUOUS
 10
186.2347895408
 20
81.4375956633
 11
186.2347895424
 21
83.5026855334
  0
LINE
  5
34C
100
AcDbEntity
  8
RACCORDO
100
AcDbLine
 62
253
  6
CONTINUOUS
 10
186.2347895409
 20
128.3725057931
 11
186.2347895408
 21
130.4375956633
  0
LWPOLYLINE
  5
34D
100
AcDbEntity
  8
RACCORDO
100
AcDbPolyline
 62
7
  6
CONTINUOUS
 90
5
 70
0
 10
185.9847892622
 20
128.5594496055
 10
185.9846132045
 20
128.551059464
 10
185.9830916728
 20
128.5334525245
 10
185.9800922428
 20
128.5163715359
 10
185.9757220963
 20
128.499930642
  0
LWPOLYLINE
  5
34E
100
AcDbEntity
  8
RACCORDO
100
AcDbPolyline
 62
253
  6
CONTINUOUS
 90
13
 70
0
 10
188.3847895408
 20
129.7819332306
 10
188.3826814427
 20
129.7538760795
 10
188.3763739377
 20
129.7262310369
 10
188.3659460847
 20
129.6994711838
 10
188.3515362864
 20
129.6740414504
 10
188.3333719119
 20
129.6504083986
 10
188.3117931502
 20
129.6290368876
 10
188.287190045
 20
129.610306995
 10
188.2599704892
 20
129.5945237921
 10
188.2306029966
 20
129.5819586415
 10
188.1995923726
 20
129.5728269304
 10
188.1674707399
 20
129.5672847868
 10
188.1347895408
 20
129.5654268796
  0
LWPOLYLINE
  5
34F
100
AcDbEntity
  8
RACCORDO
100
AcDbPolyline
 62
253
  6
CONTINUOUS
 90
13
 70
0
 10
188.3847895408
 20
129.3489205287
 10
188.3826507562
 20
129.3206607791
 10
188.3762709974
 20
129.2928845617
 10
188.3657594239
 20
129.2660671352
 10
188.3512958918
 20
129.2406673532
 10
188.3331278759
 20
129.2171198131
 10
188.3115662361
 20
129.1958274197
 10
188.2869798981
 20
129.177154492
 10
188.2597895408
 20
129.1614205287
 10
188.2304603989
 20
129.1488947424
 10
188.1994943021
 20
129.1397914527
 10
188.1674210889
 20
129.1342664196
 10
188.1347895408
 20
129.1324141777
  0
LWPOLYLINE
  5
350
100
AcDbEntity
  8
RACCORDO
100
AcDbPolyline
 62
253
  6
CONTINUOUS
 90
14
 70
0
 10
188.8420763148
 20
127.8855161862
 10
188.8426792187
 20
127.8906653644
 10
188.8429502009
 20
127.8928386702
 10
188.8432017246
 20
127.8947773995
 10
188.843440146
 20
127.8964721948
 10
188.8436661851
 20
127.8979101945
 10
188.843879122
 20
127.8991042601
 10
188.8440831537
 20
127.9000836192
 10
188.8442783473
 20
127.90084697
 10
188.8444646357
 20
127.9013956143
 10
188.8446460151
 20
127.9017626841
 10
188.8448238175
 20
127.9019592236
 10
188.8449967108
 20
127.9019741886
 10
188.845164695
 20
127.9018075793
  0
LINE
  5
351
100
AcDbEntity
  8
26814000
100
AcDbLine
 62
7
  6
CONTINUOUS
 10
144.0847895408
 20
125.8912444118
 11
144.3347895408
 21
125.8912444118
  0
LINE
  5
352
100
AcDbEntity
  8
DRAFT
100
AcDbLine
 62
7
  6
CONTINUOUS
 10
188.6347895408
 20
125.8912444118
 11
188.8437701382
 21
125.8912444118
  0
LINE
  5
353
100
AcDbEntity
  8
290140000
100
AcDbLine
 62
253
  6
CONTINUOUS
 10
187.8349113847
 20
83.9302918218
 11
187.7347453129
 21
84.6297468482
  0
LINE
  5
354
100
AcDbEntity
  8
290140000
100
AcDbLine
 62
253
  6
CONTINUOUS
 10
188.6347895408
 20
84.7257881617
 11
188.534623469
 21
85.4252431881
  0
LWPOLYLINE
  5
355
100
AcDbEntity
  8
RACCORDO
100
AcDbPolyline
 62
253
  6
CONTINUOUS
 90
13
 70
0
 10
188.8426945791
 20
83.9843977449
 10
188.8429577633
 20
83.9822907656
 10
188.8432060819
 20
83.9803805262
 10
188.843442944
 20
83.9787016292
 10
188.8436685614
 20
83.9772708559
 10
188.8438827222
 20
83.9760714251
 10
188.8440882001
 20
83.975087596
 10
188.8442851635
 20
83.9743251231
 10
188.844473444
 20
83.973778252
 10
188.8446553103
 20
83.9734139789
 10
188.8448315187
 20
83.9732213027
 10
188.8450013129
 20
83.9732112245
 10
188.8451646929
 20
83.9733837444
  0
LINE
  5
356
100
AcDbEntity
  8
RACCORDO
100
AcDbLine
 62
253
  6
CONTINUOUS
 10
188.841137709
 20
83.9973424018
 11
188.8418124243
 21
83.9918645195
  0
LINE
  5
357
100
AcDbEntity
  8
RACCORDO
100
AcDbLine
 62
253
  6
CONTINUOUS
 10
188.8418124243
 20
83.9918645195
 11
188.8426945791
 21
83.9843977449
  0
LWPOLYLINE
  5
358
100
AcDbEntity
  8
RACCORDO
100
AcDbPolyline
 62
253
  6
CONTINUOUS
 90
13
 70
0
 10
185.9847895408
 20
129.3489205287
 10
185.9869283255
 20
129.3206607791
 10
185.9933080842
 20
129.2928845617
 10
186.0038196577
 20
129.2660671352
 10
186.0182831899
 20
129.2406673532
 10
186.0364512057
 20
129.2171198131
 10
186.0580128455
 20
129.1958274197
 10
186.0825991836
 20
129.177154492
 10
186.1097895408
 20
129.1614205287
 10
186.1391186827
 20
129.1488947424
 10
186.1700847795
 20
129.1397914527
 10
186.2021579928
 20
129.1342664196
 10
186.2347895408
 20
129.1324141777
  0
LWPOLYLINE
  5
359
100
AcDbEntity
  8
RACCORDO
100
AcDbPolyline
 62
253
  6
CONTINUOUS
 90
13
 70
0
 10
185.9847895408
 20
129.7819332306
 10
185.9868976389
 20
129.7538760795
 10
185.9932051439
 20
129.7262310369
 10
186.0036329969
 20
129.6994711838
 10
186.0180427953
 20
129.6740414504
 10
186.0362071697
 20
129.6504083986
 10
186.0577859314
 20
129.6290368876
 10
186.0823890367
 20
129.610306995
 10
186.1096085925
 20
129.5945237921
 10
186.138976085
 20
129.5819586415
 10
186.1699867091
 20
129.5728269304
 10
186.2021083418
 20
129.5672847868
 10
186.2347895408
 20
129.5654268796
  0
LINE
  5
35A
100
AcDbEntity
  8
DRAFT
100
AcDbLine
 62
7
  6
CONTINUOUS
 10
188.8010052292
 20
105.9375956633
 11
188.8437701382
 21
85.9839469147
  0
LWPOLYLINE
  5
35B
100
AcDbEntity
  8
290140000
100
AcDbPolyline
 62
253
  6
CONTINUOUS
 90
12
 70
0
 10
188.5227575645
 20
86.0877290871
 10
188.5189705309
 20
89.52895805
 10
188.5159629643
 20
92.9094138827
 10
188.5136236153
 20
96.2871669101
 10
188.5119523531
 20
99.6626508399
 10
188.5109493085
 20
103.0354319645
 10
188.5106148735
 20
106.4042091608
 10
188.5109493097
 20
109.7689810344
 10
188.5119523554
 20
113.1297489798
 10
188.5136236181
 20
116.4852160576
 10
188.5159629668
 20
119.8349499544
 10
188.5189705324
 20
123.1793829835
  0
LWPOLYLINE
  5
35C
100
AcDbEntity
  8
290140000
100
AcDbPolyline
 62
253
  6
CONTINUOUS
 90
12
 70
0
 10
187.7190923662
 20
89.5652922968
 10
187.7160847945
 20
92.9549400856
 10
187.7137454438
 20
96.3423052769
 10
187.7120741858
 20
99.726954132
 10
187.7110711486
 20
103.1084533443
 10
187.7107367174
 20
106.4863700947
 10
187.7110711486
 20
109.8602718959
 10
187.7120741857
 20
113.2297267749
 10
187.7137454438
 20
116.5943034538
 10
187.7160847945
 20
119.9535711945
 10
187.7190923662
 20
123.3070998551
 10
187.7228810506
 20
126.7754020347
  0
LINE
  5
35D
100
AcDbEntity
  8
RACCORDO
100
AcDbLine
 62
253
  6
CONTINUOUS
 10
188.1347895408
 20
81.4375956633
 11
188.1347895408
 21
83.5026855334
  0
LINE
  5
35E
100
AcDbEntity
  8
RACCORDO
100
AcDbLine
 62
253
  6
CONTINUOUS
 10
188.1347895392
 20
128.3725057931
 11
188.1347895408
 21
130.4375956633
  0
LINE
  5
35F
100
AcDbEntity
  8
RACCORDO
100
AcDbLine
 62
7
  6
CONTINUOUS
 10
188.3847895408
 20
81.6875956633
 11
188.3847895408
 21
83.3157463665
  0
LINE
  5
360
100
AcDbEntity
  8
RACCORDO
100
AcDbLine
 62
7
  6
CONTINUOUS
 10
188.3847895408
 20
128.55944496
 11
188.3847895408
 21
130.1875956633
  0
LINE
  5
361
100
AcDbEntity
  8
290140000
100
AcDbLine
 62
7
  6
CONTINUOUS
 10
188.6347895408
 20
126.5954023095
 11
188.6347895408
 21
84.7257881617
  0
LINE
  5
362
100
AcDbEntity
  8
RACCORDO
100
AcDbLine
 62
7
  6
CONTINUOUS
 10
188.832424346
 20
127.8722773127
 11
188.832424346
 21
127.8424056279
  0
LINE
  5
363
100
AcDbEntity
  8
RACCORDO
100
AcDbLine
 62
7
  6
CONTINUOUS
 10
188.832424346
 20
84.0029140139
 11
188.832424346
 21
84.0327856987
  0
LINE
  5
364
100
AcDbEntity
  8
DRAFT
100
AcDbLine
 62
7
  6
CONTINUOUS
 10
188.8437701382
 20
127.7625956633
 11
188.8437701382
 21
125.8912444118
  0
LINE
  5
365
100
AcDbEntity
  8
DRAFT
100
AcDbLine
 62
7
  6
CONTINUOUS
 10
188.8437701382
 20
85.9839469147
 11
188.8437701382
 21
84.1125956633
  0
LINE
  5
366
100
AcDbEntity
  8
RACCORDO
100
AcDbLine
 62
7
  6
CONTINUOUS
 10
188.8847895408
 20
84.0552792087
 11
188.8847895408
 21
127.8199121179
  0
LWPOLYLINE
  5
367
100
AcDbEntity
  8
290140000
100
AcDbPolyline
 62
253
  6
CONTINUOUS
 90
17
 70
0
 10
187.7228810506
 20
126.7754020347
 10
187.723072625
 20
126.8937654357
 10
187.723342882
 20
127.0087446341
 10
187.7236946872
 20
127.119558443
 10
187.7241251749
 20
127.2254512165
 10
187.7246257487
 20
127.3256986474
 10
187.7251978788
 20
127.4196166045
 10
187.725840095
 20
127.5065700127
 10
187.7265393894
 20
127.5859721611
 10
187.727296969
 20
127.6572826752
 10
187.7281116269
 20
127.7200162962
 10
187.7289667349
 20
127.7737486841
 10
187.7298629826
 20
127.8181138559
 10
187.7307996804
 20
127.8528065161
 10
187.731758132
 20
127.8775881498
 10
187.7327321052
 20
127.8922894278
 10
187.7336690893
 20
127.8968269197
  0
LWPOLYLINE
  5
368
100
AcDbEntity
  8
290140000
100
AcDbPolyline
 62
253
  6
CONTINUOUS
 90
19
 70
0
 10
188.5189705324
 20
123.1793829835
 10
188.5227575645
 20
126.5752530491
 10
188.5229479715
 20
126.6301602876
 10
188.5232175357
 20
126.6832368603
 10
188.5235691934
 20
126.7348533917
 10
188.5240000083
 20
126.7846392574
 10
188.5245011727
 20
126.8314825838
 10
188.5250741139
 20
126.8752910358
 10
188.5257174045
 20
126.9161569485
 10
188.5264179545
 20
126.9532454537
 10
188.5271769398
 20
126.9864766887
 10
188.5279931846
 20
127.0159305163
 10
188.5288500708
 20
127.0410116568
 10
188.5297490277
 20
127.0616275678
 10
188.5306886261
 20
127.0778707917
 10
188.53164796
 20
127.0894236754
 10
188.5326200608
 20
127.0961803347
 10
188.5336118971
 20
127.0982466537
 10
188.534623469
 20
127.0956226327
  0
LINE
  5
369
100
AcDbEntity
  8
DRAFT
100
AcDbLine
 62
7
  6
CONTINUOUS
 10
188.8437701382
 20
125.8912444118
 11
188.8010052292
 21
105.9375956633
  0
LWPOLYLINE
  5
36A
100
AcDbEntity
  8
RACCORDO
100
AcDbPolyline
 62
7
  6
CONTINUOUS
 90
5
 70
0
 10
188.3847898194
 20
83.315741721
 10
188.3849658772
 20
83.3241318626
 10
188.3864874088
 20
83.3417388021
 10
188.3894868388
 20
83.3588197906
 10
188.3938569854
 20
83.3752606845
  0
LWPOLYLINE
  5
36B
100
AcDbEntity
  8
RACCORDO
100
AcDbPolyline
 62
253
  6
CONTINUOUS
 90
13
 70
0
 10
185.9847895408
 20
82.093258096
 10
185.9868976389
 20
82.1213152471
 10
185.9932051439
 20
82.1489602897
 10
186.0036329969
 20
82.1757201428
 10
186.0180427953
 20
82.2011498761
 10
186.0362071697
 20
82.2247829279
 10
186.0577859314
 20
82.246154439
 10
186.0823890367
 20
82.2648843316
 10
186.1096085925
 20
82.2806675344
 10
186.138976085
 20
82.293232685
 10
186.1699867091
 20
82.3023643961
 10
186.2021083418
 20
82.3079065398
 10
186.2347895408
 20
82.3097644469
  0
LWPOLYLINE
  5
36C
100
AcDbEntity
  8
RACCORDO
100
AcDbPolyline
 62
253
  6
CONTINUOUS
 90
13
 70
0
 10
185.9847895408
 20
82.5262707979
 10
185.9869283255
 20
82.5545305474
 10
185.9933080842
 20
82.5823067649
 10
186.0038196577
 20
82.6091241914
 10
186.0182831899
 20
82.6345239733
 10
186.0364512057
 20
82.6580715135
 10
186.0580128455
 20
82.6793639068
 10
186.0825991836
 20
82.6980368346
 10
186.1097895408
 20
82.7137707979
 10
186.1391186827
 20
82.7262965842
 10
186.1700847795
 20
82.7353998738
 10
186.2021579928
 20
82.740924907
 10
186.2347895408
 20
82.7427771488
  0
LWPOLYLINE
  5
36D
100
AcDbEntity
  8
RACCORDO
100
AcDbPolyline
 62
253
  6
CONTINUOUS
 90
7
 70
0
 10
169.4847895222
 20
83.3157432414
 10
169.4833836454
 20
83.3149002966
 10
169.4792013041
 20
83.3140836488
 10
169.472318178
 20
83.3132964232
 10
169.4628426005
 20
83.3125312096
 10
169.4509040405
 20
83.3117954181
 10
169.4366423609
 20
83.3111112793
  0
LINE
  5
36E
100
AcDbEntity
  8
RACCORDO
100
AcDbLine
 62
253
  6
CONTINUOUS
 10
188.3969338848
 20
128.3682643387
 11
188.4387651993
 21
128.3705481608
  0
LWPOLYLINE
  5
36F
100
AcDbEntity
  8
RACCORDO
100
AcDbPolyline
 62
253
  6
CONTINUOUS
 90
3
 70
0
 10
188.4387651993
 20
128.3705481608
 10
188.459528756
 20
128.3715290872
 10
188.4688898996
 20
128.3719088953
  0
LWPOLYLINE
  5
370
100
AcDbEntity
  8
RACCORDO
100
AcDbPolyline
 62
253
  6
CONTINUOUS
 90
9
 70
0
 10
186.0329367208
 20
128.5640800472
 10
186.0493343268
 20
128.5647104594
 10
186.0676864582
 20
128.565289219
 10
186.0878590073
 20
128.5658003177
 10
186.1096528617
 20
128.566242652
 10
186.1328271494
 20
128.5666173254
 10
186.1571857831
 20
128.5669116406
 10
186.1824899425
 20
128.5671213651
 10
186.2084521843
 20
128.5672507313
  0
LWPOLYLINE
  5
371
100
AcDbEntity
  8
RACCORDO
100
AcDbPolyline
 62
253
  6
CONTINUOUS
 90
11
 70
0
 10
188.4688898996
 20
128.3719088953
 10
188.477416283
 20
128.3722097912
 10
188.4851012022
 20
128.3724293796
 10
188.4919048706
 20
128.372568563
 10
188.497813031
 20
128.3726362052
 10
188.5028728125
 20
128.37264143
 10
188.5070841103
 20
128.3725897016
 10
188.5104629226
 20
128.3724828224
 10
188.5130548912
 20
128.3723208803
 10
188.5148801052
 20
128.3721060078
 10
188.5159206744
 20
128.3718625512
  0
LWPOLYLINE
  5
372
100
AcDbEntity
  8
290140000
100
AcDbPolyline
 62
7
  6
CONTINUOUS
 90
34
 70
0
 10
145.2359009649
 20
127.8967856053
 10
145.2167050526
 20
127.8965553641
 10
145.1763057632
 20
127.8945635079
 10
145.1364766139
 20
127.8905852776
 10
145.0973087095
 20
127.8846930668
 10
145.0588887916
 20
127.8769627775
 10
145.0212968807
 20
127.8674732444
 10
144.9846040938
 20
127.8563050012
 10
144.9488774963
 20
127.8435410469
 10
144.914177266
 20
127.8292657762
 10
144.8805547121
 20
127.8135634004
 10
144.8480570821
 20
127.7965193943
 10
144.8167270161
 20
127.7782202785
 10
144.7866000216
 20
127.7587518699
 10
144.7577064343
 20
127.7381998704
 10
144.7300711341
 20
127.7166493248
 10
144.703713248
 20
127.6941838909
 10
144.6786474471
 20
127.6708864294
 10
144.6548833039
 20
127.6468380741
 10
144.6324251003
 20
127.6221174049
 10
144.6112726758
 20
127.5968006521
 10
144.5914238162
 20
127.5709643135
 10
144.5728730901
 20
127.5446840553
 10
144.5555968334
 20
127.5180105291
 10
144.5395943977
 20
127.4910308895
 10
144.5248814222
 20
127.4638752663
 10
144.5114220089
 20
127.4365935869
 10
144.4991933956
 20
127.4092627818
 10
144.4882050747
 20
127.382054069
 10
144.4783878349
 20
127.3549651485
 10
144.4697144553
 20
127.3281025614
 10
144.4622067266
 20
127.3017902957
 10
144.4556849338
 20
127.2756536002
 10
144.450537301
 20
127.2518783738
  0
LWPOLYLINE
  5
373
100
AcDbEntity
  8
290140000
100
AcDbPolyline
 62
253
  6
CONTINUOUS
 90
16
 70
0
 10
145.2468109228
 20
126.6544600638
 10
145.1641118788
 20
126.6536274561
 10
145.0822989436
 20
126.6513315018
 10
145.0022487312
 20
126.6475968015
 10
144.9248189687
 20
126.6424633723
 10
144.8508393051
 20
126.6359862179
 10
144.7811024221
 20
126.6282347398
 10
144.7163555408
 20
126.6192919939
 10
144.657292415
 20
126.6092538006
 10
144.6045458978
 20
126.5982277176
 10
144.5586811608
 20
126.586331888
 10
144.5201896382
 20
126.5736937738
 10
144.4894837614
 20
126.5604487907
 10
144.4668925395
 20
126.5467388569
 10
144.4526580343
 20
126.5327108723
 10
144.4469327666
 20
126.5185151449
  0
LINE
  5
374
100
AcDbEntity
  8
290140000
100
AcDbLine
 62
253
  6
CONTINUOUS
 10
145.2468109228
 20
126.6544600702
 11
187.7227681589
 21
126.6544600702
  0
LINE
  5
375
100
AcDbEntity
  8
DRAFT
100
AcDbLine
 62
7
  6
CONTINUOUS
 10
188.1770664845
 20
127.7625956633
 11
188.8437701382
 21
127.7625956633
  0
LINE
  5
376
100
AcDbEntity
  8
26814000
100
AcDbLine
 62
7
  6
CONTINUOUS
 10
144.0847895408
 20
127.7963934182
 11
144.8478413974
 21
127.7963934182
  0
LINE
  5
377
100
AcDbEntity
  8
DRAFT
100
AcDbLine
 62
7
  6
CONTINUOUS
 10
188.0236040901
 20
127.8424056279
 11
188.832424346
 21
127.8424056279
  0
LINE
  5
378
100
AcDbEntity
  8
290140000
100
AcDbLine
 62
7
  6
CONTINUOUS
 10
145.2358866004
 20
127.8968269254
 11
187.7336924813
 21
127.8968269254
  0
LINE
  5
379
100
AcDbEntity
  8
26814000
100
AcDbLine
 62
7
  6
CONTINUOUS
 10
144.0847895408
 20
127.9375956633
 11
166.3847895408
 21
127.9375956633
  0
LINE
  5
37A
100
AcDbEntity
  8
26814000
100
AcDbLine
 62
7
  6
CONTINUOUS
 10
166.0347895408
 20
128.3157784938
 11
144.4347895408
 21
128.3157784938
  0
LINE
  5
37B
100
AcDbEntity
  8
26814000
100
AcDbLine
 62
7
  6
CONTINUOUS
 10
165.8260627961
 20
128.3245053616
 11
163.5435162855
 21
128.3245053616
  0
LINE
  5
37C
100
AcDbEntity
  8
26814000
100
AcDbLine
 62
7
  6
CONTINUOUS
 10
146.9260627961
 20
128.3245053616
 11
144.6435162855
 21
128.3245053616
  0
LINE
  5
37D
100
AcDbEntity
  8
26814000
100
AcDbLine
 62
7
  6
CONTINUOUS
 10
151.1388670987
 20
128.3288687955
 11
159.3307119829
 21
128.3288687955
  0
LINE
  5
37E
100
AcDbEntity
  8
26814000
100
AcDbLine
 62
7
  6
CONTINUOUS
 10
144.4347895408
 20
128.3375956633
 11
144.6347895408
 21
128.3375956633
  0
LINE
  5
37F
100
AcDbEntity
  8
26814000
100
AcDbLine
 62
7
  6
CONTINUOUS
 10
146.9347895408
 20
128.3375956633
 11
150.8347895408
 21
128.3375956633
  0
LINE
  5
380
100
AcDbEntity
  8
26814000
100
AcDbLine
 62
7
  6
CONTINUOUS
 10
159.6347895408
 20
128.3375956633
 11
163.5347895408
 21
128.3375956633
  0
LINE
  5
381
100
AcDbEntity
  8
26814000
100
AcDbLine
 62
7
  6
CONTINUOUS
 10
165.8347895408
 20
128.3375956633
 11
166.0347895408
 21
128.3375956633
  0
LWPOLYLINE
  5
382
100
AcDbEntity
  8
290140000
100
AcDbPolyline
 62
253
  6
CONTINUOUS
 90
16
 70
0
 10
187.7227681589
 20
126.6544563673
 10
187.8054663966
 20
126.6536238009
 10
187.8872785539
 20
126.6513279318
 10
187.9673280421
 20
126.6475933593
 10
188.0447571589
 20
126.6424600983
 10
188.1187362783
 20
126.6359831494
 10
188.1884727398
 20
126.6282319107
 10
188.2532193418
 20
126.6192894337
 10
188.3122823468
 20
126.6092515341
 10
188.3650289155
 20
126.5982257644
 10
188.4108938868
 20
126.5863302618
 10
188.4493858335
 20
126.5736924825
 10
188.4800923278
 20
126.5604478358
 10
188.5026843604
 20
126.5467382336
 10
188.5169198656
 20
126.5327105694
 10
188.5226463149
 20
126.5185151449
  0
LWPOLYLINE
  5
383
100
AcDbEntity
  8
RACCORDO
100
AcDbPolyline
 62
7
  6
CONTINUOUS
 90
17
 70
0
 10
169.6142102769
 20
128.3725057931
 10
169.6037403372
 20
128.3767583831
 10
169.59270258
 20
128.3820385265
 10
169.5814550195
 20
128.3883220248
 10
169.5703247535
 20
128.3955377997
 10
169.5594277741
 20
128.4036958454
 10
169.5488371468
 20
128.4128328603
 10
169.5387718112
 20
128.4228393957
 10
169.5293548594
 20
128.4336442562
 10
169.520620464
 20
128.445264055
 10
169.5126361095
 20
128.4576876995
 10
169.5054908351
 20
128.4708700953
 10
169.4992677225
 20
128.4847655651
 10
169.4940378907
 20
128.4993563133
 10
169.4898928678
 20
128.5145755262
 10
169.4869208801
 20
128.530345561
 10
169.4852029771
 20
128.5466213901
  0
LWPOLYLINE
  5
384
100
AcDbEntity
  8
RACCORDO
100
AcDbPolyline
 62
253
  6
CONTINUOUS
 90
7
 70
0
 10
169.4847895408
 20
128.5594449831
 10
169.4833927707
 20
128.5602878749
 10
169.4792360062
 20
128.5611018705
 10
169.4723919896
 20
128.561886947
 10
169.4629677079
 20
128.5626504265
 10
169.4510884164
 20
128.5633849868
 10
169.436882931
 20
128.5640686612
  0
LINE
  5
385
100
AcDbEntity
  8
RACCORDO
100
AcDbLine
 62
7
  6
CONTINUOUS
 10
188.8631765601
 20
127.9083053656
 11
188.8621439539
 21
127.9179062124
  0
LWPOLYLINE
  5
386
100
AcDbEntity
  8
RACCORDO
100
AcDbPolyline
 62
253
  6
CONTINUOUS
 90
3
 70
0
 10
188.8649077797
 20
127.8646718931
 10
188.865895838
 20
127.8554659722
 10
188.8661741483
 20
127.8529492062
  0
LINE
  5
387
100
AcDbEntity
  8
RACCORDO
100
AcDbLine
 62
7
  6
CONTINUOUS
 10
188.3852185957
 20
128.5463618871
 11
188.3847898198
 21
128.5594495474
  0
LWPOLYLINE
  5
388
100
AcDbEntity
  8
RACCORDO
100
AcDbPolyline
 62
253
  6
CONTINUOUS
 90
8
 70
0
 10
188.8451629606
 20
83.9733813896
 10
188.8425946953
 20
83.9225719178
 10
188.834874278
 20
83.872288786
 10
188.8220816854
 20
83.8230528817
 10
188.8043494369
 20
83.7753742441
 10
188.7818612226
 20
83.7297467807
 10
188.75485
 20
83.6866431505
 10
188.7485061137
 20
83.6777875363
  0
LWPOLYLINE
  5
389
100
AcDbEntity
  8
RACCORDO
100
AcDbPolyline
 62
7
  6
CONTINUOUS
 90
8
 70
0
 10
188.8626144738
 20
83.9969301956
 10
188.8599333419
 20
83.9450258716
 10
188.8518763969
 20
83.8936827039
 10
188.8385307447
 20
83.8434557774
 10
188.8200406689
 20
83.7948881088
 10
188.7966060707
 20
83.7485047759
 10
188.7684803078
 20
83.7048072412
 10
188.7652903146
 20
83.7004261389
  0
LINE
  5
38A
100
AcDbEntity
  8
RACCORDO
100
AcDbLine
 62
253
  6
CONTINUOUS
 10
188.8693081102
 20
84.0397978583
 11
188.8665843503
 21
83.9875315768
  0
LINE
  5
38B
100
AcDbEntity
  8
RACCORDO
100
AcDbLine
 62
253
  6
CONTINUOUS
 10
188.8650683601
 20
84.0119832234
 11
188.8659086559
 21
84.0198228433
  0
LWPOLYLINE
  5
38C
100
AcDbEntity
  8
RACCORDO
100
AcDbPolyline
 62
253
  6
CONTINUOUS
 90
15
 70
0
 10
167.3083812358
 20
128.5672506035
 10
167.2823525685
 20
128.5671206329
 10
167.2569886236
 20
128.5669098276
 10
167.2325734758
 20
128.5666136987
 10
167.2093533032
 20
128.5662367351
 10
167.1875395733
 20
128.5657924029
 10
167.1673749068
 20
128.5652796967
 10
167.1490502995
 20
128.564699622
 10
167.1326961507
 20
128.5640686613
 10
167.1184906653
 20
128.5633849867
 10
167.1066113737
 20
128.5626504261
 10
167.0971870921
 20
128.5618869465
 10
167.0903430754
 20
128.5611018701
 10
167.0861863109
 20
128.5602878746
 10
167.0847895408
 20
128.5594449911
  0
LINE
  5
38D
100
AcDbEntity
  8
RACCORDO
100
AcDbLine
 62
7
  6
CONTINUOUS
 10
188.3321958656
 20
128.3725057931
 11
167.1373832161
 21
128.3725057931
  0
LINE
  5
38E
100
AcDbEntity
  8
RACCORDO
100
AcDbLine
 62
253
  6
CONTINUOUS
 10
169.2347895408
 20
128.5672997393
 11
167.3083812358
 21
128.5672506035
  0
LINE
  5
38F
100
AcDbEntity
  8
RACCORDO
100
AcDbLine
 62
253
  6
CONTINUOUS
 10
186.2084521843
 20
128.5672507313
 11
188.1347895408
 21
128.5672997393
  0
LINE
  5
390
100
AcDbEntity
  8
RACCORDO
100
AcDbLine
 62
253
  6
CONTINUOUS
 10
167.0847895408
 20
128.9159078268
 11
169.4847895408
 21
128.9159078268
  0
LINE
  5
391
100
AcDbEntity
  8
RACCORDO
100
AcDbLine
 62
253
  6
CONTINUOUS
 10
185.9847895408
 20
128.9159078268
 11
188.3847895408
 21
128.9159078268
  0
LINE
  5
392
100
AcDbEntity
  8
26814000
100
AcDbLine
 62
7
  6
CONTINUOUS
 10
165.8260627961
 20
129.0602453941
 11
163.5435162855
 21
129.0602453941
  0
LINE
  5
393
100
AcDbEntity
  8
26814000
100
AcDbLine
 62
7
  6
CONTINUOUS
 10
146.9260627961
 20
129.0602453941
 11
144.6435162855
 21
129.0602453941
  0
LINE
  5
394
100
AcDbEntity
  8
RACCORDO
100
AcDbLine
 62
253
  6
CONTINUOUS
 10
167.3347895408
 20
129.1324141777
 11
169.2347895408
 21
129.1324141777
  0
LINE
  5
395
100
AcDbEntity
  8
RACCORDO
100
AcDbLine
 62
253
  6
CONTINUOUS
 10
186.2347895408
 20
129.1324141777
 11
188.1347895408
 21
129.1324141777
  0
LINE
  5
396
100
AcDbEntity
  8
RACCORDO
100
AcDbLine
 62
253
  6
CONTINUOUS
 10
188.1347895408
 20
129.5654268796
 11
186.2347895408
 21
129.5654268796
  0
LINE
  5
397
100
AcDbEntity
  8
RACCORDO
100
AcDbLine
 62
253
  6
CONTINUOUS
 10
169.2347895408
 20
129.5654268796
 11
167.3347895408
 21
129.5654268796
  0
LINE
  5
398
100
AcDbEntity
  8
26814000
100
AcDbLine
 62
253
  6
CONTINUOUS
 10
144.6486068866
 20
129.5654268796
 11
146.920972195
 21
129.5654268796
  0
LINE
  5
399
100
AcDbEntity
  8
26814000
100
AcDbLine
 62
253
  6
CONTINUOUS
 10
163.5486068866
 20
129.5654268796
 11
165.820972195
 21
129.5654268796
  0
LINE
  5
39A
100
AcDbEntity
  8
26814000
100
AcDbLine
 62
7
  6
CONTINUOUS
 10
151.1388670987
 20
129.7317778335
 11
159.3307119829
 21
129.7317778335
  0
LINE
  5
39B
100
AcDbEntity
  8
26814000
100
AcDbLine
 62
7
  6
CONTINUOUS
 10
150.8347895408
 20
129.7375956633
 11
159.6347895408
 21
129.7375956633
  0
LINE
  5
39C
100
AcDbEntity
  8
RACCORDO
100
AcDbLine
 62
7
  6
CONTINUOUS
 10
173.3319230941
 20
129.7375956633
 11
182.1376559875
 21
129.7375956633
  0
LINE
  5
39D
100
AcDbEntity
  8
26814000
100
AcDbLine
 62
253
  6
CONTINUOUS
 10
144.6493341153
 20
129.7819332306
 11
146.9202449663
 21
129.7819332306
  0
LINE
  5
39E
100
AcDbEntity
  8
26814000
100
AcDbLine
 62
253
  6
CONTINUOUS
 10
163.5493341153
 20
129.7819332306
 11
165.8202449663
 21
129.7819332306
  0
LINE
  5
39F
100
AcDbEntity
  8
RACCORDO
100
AcDbLine
 62
253
  6
CONTINUOUS
 10
167.0847895408
 20
129.7819332306
 11
169.4847895408
 21
129.7819332306
  0
LINE
  5
3A0
100
AcDbEntity
  8
RACCORDO
100
AcDbLine
 62
253
  6
CONTINUOUS
 10
185.9847895408
 20
129.7819332306
 11
188.3847895408
 21
129.7819332306
  0
LINE
  5
3A1
100
AcDbEntity
  8
26814000
100
AcDbLine
 62
253
  6
CONTINUOUS
 10
165.8202449663
 20
130.0745013153
 11
163.5493341153
 21
130.0745013153
  0
LINE
  5
3A2
100
AcDbEntity
  8
26814000
100
AcDbLine
 62
253
  6
CONTINUOUS
 10
146.9202449663
 20
130.0745013153
 11
144.6493341153
 21
130.0745013153
  0
LINE
  5
3A3
100
AcDbEntity
  8
RACCORDO
100
AcDbLine
 62
253
  6
CONTINUOUS
 10
167.0847895408
 20
130.1875956633
 11
169.4847895408
 21
130.1875956633
  0
LINE
  5
3A4
100
AcDbEntity
  8
RACCORDO
100
AcDbLine
 62
253
  6
CONTINUOUS
 10
185.9847895408
 20
130.1875956633
 11
188.3847895408
 21
130.1875956633
  0
LINE
  5
3A5
100
AcDbEntity
  8
26814000
100
AcDbLine
 62
253
  6
CONTINUOUS
 10
165.8216909621
 20
130.3244970845
 11
163.5478881195
 21
130.3244970845
  0
LINE
  5
3A6
100
AcDbEntity
  8
26814000
100
AcDbLine
 62
253
  6
CONTINUOUS
 10
146.9216909621
 20
130.3244970845
 11
144.6478881195
 21
130.3244970845
  0
LINE
  5
3A7
100
AcDbEntity
  8
26814000
100
AcDbLine
 62
7
  6
CONTINUOUS
 10
144.6347895408
 20
130.3375956633
 11
146.9347895408
 21
130.3375956633
  0
LINE
  5
3A8
100
AcDbEntity
  8
26814000
100
AcDbLine
 62
7
  6
CONTINUOUS
 10
163.5347895408
 20
130.3375956633
 11
165.8347895408
 21
130.3375956633
  0
LINE
  5
3A9
100
AcDbEntity
  8
RACCORDO
100
AcDbLine
 62
7
  6
CONTINUOUS
 10
167.3347895408
 20
130.4375956633
 11
169.2347895408
 21
130.4375956633
  0
LINE
  5
3AA
100
AcDbEntity
  8
RACCORDO
100
AcDbLine
 62
7
  6
CONTINUOUS
 10
186.2347895408
 20
130.4375956633
 11
188.1347895408
 21
130.4375956633
  0
LWPOLYLINE
  5
3AB
100
AcDbEntity
  8
RACCORDO
100
AcDbPolyline
 62
253
  6
CONTINUOUS
 90
16
 70
0
 10
188.1347895408
 20
128.5672997393
 10
188.1611268974
 20
128.5672507314
 10
188.1870891391
 20
128.5671213652
 10
188.2123932985
 20
128.5669116407
 10
188.2367519323
 20
128.5666173255
 10
188.25992622
 20
128.566242652
 10
188.2817200743
 20
128.5658003176
 10
188.3018926234
 20
128.565289219
 10
188.3202447549
 20
128.5647104597
 10
188.3366423609
 20
128.5640800475
 10
188.3509040405
 20
128.5633959083
 10
188.3628426005
 20
128.5626601163
 10
188.372318178
 20
128.5618949024
 10
188.3792013041
 20
128.5611076769
 10
188.3833836454
 20
128.5602910294
 10
188.3847895231
 20
128.5594480108
  0
LWPOLYLINE
  5
3AC
100
AcDbEntity
  8
RACCORDO
100
AcDbPolyline
 62
253
  6
CONTINUOUS
 90
11
 70
0
 10
167.0015227898
 20
128.3718815351
 10
166.9929384567
 20
128.3721837364
 10
166.985102528
 20
128.3724075823
 10
166.9781032686
 20
128.3725580457
 10
166.9720115301
 20
128.3726378805
 10
166.9668292604
 20
128.3726492271
 10
166.962534158
 20
128.3725948176
 10
166.9591011465
 20
128.3724803863
 10
166.956492188
 20
128.3723126378
 10
166.9546708043
 20
128.3720981243
 10
166.9536552434
 20
128.3718630558
  0
LWPOLYLINE
  5
3AD
100
AcDbEntity
  8
RACCORDO
100
AcDbPolyline
 62
253
  6
CONTINUOUS
 90
10
 70
0
 10
169.436882931
 20
128.5640686612
 10
169.4205287821
 20
128.5646996218
 10
169.4022041748
 20
128.5652796965
 10
169.3820395083
 20
128.5657924028
 10
169.3602257784
 20
128.5662367351
 10
169.3370056058
 20
128.5666136988
 10
169.312590458
 20
128.5669098278
 10
169.2872265132
 20
128.5671206331
 10
169.2611978458
 20
128.5672506036
 10
169.2347895408
 20
128.5672997393
  0
LINE
  5
3AE
100
AcDbEntity
  8
RACCORDO
100
AcDbLine
 62
253
  6
CONTINUOUS
 10
167.0108042536
 20
128.3714990112
 11
167.0015227898
 21
128.3718815351
  0
LINE
  5
3AF
100
AcDbEntity
  8
RACCORDO
100
AcDbLine
 62
253
  6
CONTINUOUS
 10
167.031150281
 20
128.3705236958
 11
167.0108042536
 21
128.3714990112
  0
LINE
  5
3B0
100
AcDbEntity
  8
RACCORDO
100
AcDbLine
 62
253
  6
CONTINUOUS
 10
167.0726382432
 20
128.368263653
 11
167.031150281
 21
128.3705236958
  0
LWPOLYLINE
  5
3B1
100
AcDbEntity
  8
RACCORDO
100
AcDbPolyline
 62
253
  6
CONTINUOUS
 90
10
 70
0
 10
188.8381439481
 20
127.8665622171
 10
188.8385563372
 20
127.8665214697
 10
188.8389681333
 20
127.8670019842
 10
188.8393793364
 20
127.8680037607
 10
188.8397933146
 20
127.8696087834
 10
188.8402066997
 20
127.871735068
 10
188.8406093877
 20
127.8741366619
 10
188.8410017678
 20
127.8768490047
 10
188.8413834507
 20
127.8798366568
 10
188.8420763148
 20
127.8855161862
  0
LINE
  5
3B2
100
AcDbEntity
  8
RACCORDO
100
AcDbLine
 62
7
  6
CONTINUOUS
 10
188.8630658677
 20
83.9658751622
 11
188.863205313
 21
83.9671444613
  0
LWPOLYLINE
  5
3B3
100
AcDbEntity
  8
RACCORDO
100
AcDbPolyline
 62
253
  6
CONTINUOUS
 90
9
 70
0
 10
188.8659086559
 20
84.0198228433
 10
188.8665443387
 20
84.0255167664
 10
188.8668862924
 20
84.0282844615
 10
188.8672443388
 20
84.0309638996
 10
188.8676188674
 20
84.0335295157
 10
188.8680122697
 20
84.0357216824
 10
188.8684253429
 20
84.0374538571
 10
188.8688572897
 20
84.0388125824
 10
188.8693081102
 20
84.0397978583
  0
LINE
  5
3B4
100
AcDbEntity
  8
DRAFT
100
AcDbLine
 62
7
  6
CONTINUOUS
 10
188.8437701382
 20
84.1125956633
 11
188.832424346
 21
84.0327856987
  0
LINE
  5
3B5
100
AcDbEntity
  8
RACCORDO
100
AcDbLine
 62
253
  6
CONTINUOUS
 10
188.8665843503
 20
83.9875315768
 11
188.859967112
 21
83.9456796295
  0
LWPOLYLINE
  5
3B6
100
AcDbEntity
  8
290140000
100
AcDbPolyline
 62
7
  6
CONTINUOUS
 90
37
 70
0
 10
188.5191021161
 20
127.2515780776
 10
188.5140021123
 20
127.2751877905
 10
188.5080138476
 20
127.2993743746
 10
188.5011622954
 20
127.3237863943
 10
188.4933057586
 20
127.3487042813
 10
188.4844429867
 20
127.3739048141
 10
188.4745241016
 20
127.3993473448
 10
188.4635010213
 20
127.4249842988
 10
188.4514201697
 20
127.4505747407
 10
188.438265724
 20
127.4760551294
 10
188.4240082365
 20
127.5013908465
 10
188.4087134274
 20
127.526393936
 10
188.39241685
 20
127.55096251
 10
188.3750839936
 20
127.5751069633
 10
188.3566906174
 20
127.5988109246
 10
188.3372320641
 20
127.622027755
 10
188.3167160803
 20
127.6446974952
 10
188.2951358794
 20
127.6667777945
 10
188.2724987067
 20
127.6882114832
 10
188.2488145572
 20
127.7089407407
 10
188.2240824504
 20
127.7289178859
 10
188.1983173066
 20
127.7480820582
 10
188.1715378745
 20
127.7663715201
 10
188.1437515392
 20
127.7837330816
 10
188.1149834313
 20
127.8001024796
 10
188.085261756
 20
127.8154157997
 10
188.0546021328
 20
127.8296163749
 10
188.023040607
 20
127.8426381112
 10
187.9906171144
 20
127.8544155369
 10
187.9573577438
 20
127.8648891383
 10
187.9233108694
 20
127.873992522
 10
187.888529922
 20
127.8816603524
 10
187.8530543852
 20
127.8878315997
 10
187.816947028
 20
127.8924416258
 10
187.7802758067
 20
127.895427823
 10
187.743094982
 20
127.8967302089
 10
187.7336781408
 20
127.8967856049
  0
LINE
  5
3B7
100
AcDbEntity
  8
290140000
100
AcDbLine
 62
253
  6
CONTINUOUS
 10
188.534623469
 20
127.0956226327
 11
188.6347895408
 21
126.5954023095
  0
LINE
  5
3B8
100
AcDbEntity
  8
290140000
100
AcDbLine
 62
7
  6
CONTINUOUS
 10
188.5191051682
 20
127.2515786403
 11
188.6193819907
 21
126.7508056209
  0
LWPOLYLINE
  5
3B9
100
AcDbEntity
  8
RACCORDO
100
AcDbPolyline
 62
7
  6
CONTINUOUS
 90
7
 70
0
 10
188.8582203468
 20
127.948480115
 10
188.856346883
 20
127.9600046766
 10
188.8539015756
 20
127.9731568324
 10
188.8508218245
 20
127.987588488
 10
188.8469592237
 20
128.0033715016
 10
188.8421794728
 20
128.0204378127
 10
188.8365116972
 20
128.0382061524
  0
LWPOLYLINE
  5
3BA
100
AcDbEntity
  8
RACCORDO
100
AcDbPolyline
 62
253
  6
CONTINUOUS
 90
3
 70
0
 10
188.8599672057
 20
127.9295111046
 10
188.8665843504
 20
127.8876597488
 10
188.8693081102
 20
127.8353934681
  0
LWPOLYLINE
  5
3BB
100
AcDbEntity
  8
290140000
100
AcDbPolyline
 62
253
  6
CONTINUOUS
 90
3
 70
0
 10
188.5191730381
 20
127.2512400865
 10
188.5302178888
 20
127.1789030649
 10
188.534623469
 20
127.0956226327
  0
LWPOLYLINE
  5
3BC
100
AcDbEntity
  8
RACCORDO
100
AcDbPolyline
 62
7
  6
CONTINUOUS
 90
5
 70
0
 10
188.861895619
 20
127.917622843
 10
188.8623617943
 20
127.9144561044
 10
188.8629772103
 20
127.9099089057
 10
188.8632206008
 20
127.9079174166
 10
188.8631765601
 20
127.9083053656
  0
LINE
  5
3BD
100
AcDbEntity
  8
DRAFT
100
AcDbLine
 62
7
  6
CONTINUOUS
 10
188.832424346
 20
127.8424056279
 11
188.8437701382
 21
127.7625956633
  0
LWPOLYLINE
  5
3BE
100
AcDbEntity
  8
RACCORDO
100
AcDbPolyline
 62
253
  6
CONTINUOUS
 90
7
 70
0
 10
188.8670921708
 20
127.8453249347
 10
188.8674251166
 20
127.8429762156
 10
188.8677717319
 20
127.8407573743
 10
188.8681332188
 20
127.8388695637
 10
188.8685099778
 20
127.8373798345
 10
188.8689016082
 20
127.836221136
 10
188.8693081102
 20
127.8353934681
  0
LWPOLYLINE
  5
3BF
100
AcDbEntity
  8
RACCORDO
100
AcDbPolyline
 62
7
  6
CONTINUOUS
 90
3
 70
0
 10
188.8606735003
 20
127.9306129972
 10
188.859616464
 20
127.9387732248
 10
188.8582203468
 20
127.948480115
  0
LINE
  5
3C0
100
AcDbEntity
  8
RACCORDO
100
AcDbLine
 62
253
  6
CONTINUOUS
 10
188.8661741483
 20
127.8529492062
 11
188.8670921708
 21
127.8453249347
  0
LWPOLYLINE
  5
3C1
100
AcDbEntity
  8
RACCORDO
100
AcDbPolyline
 62
7
  6
CONTINUOUS
 90
3
 70
0
 10
188.8621439539
 20
127.9179062124
 10
188.8614979029
 20
127.9236866816
 10
188.8606735003
 20
127.9306129972
  0
LWPOLYLINE
  5
3C2
100
AcDbEntity
  8
RACCORDO
100
AcDbPolyline
 62
7
  6
CONTINUOUS
 90
9
 70
0
 10
188.3938569854
 20
83.3752606845
 10
188.3994831484
 20
83.3909599122
 10
188.4062475184
 20
83.40583651
 10
188.4140299546
 20
83.4198242208
 10
188.4227068115
 20
83.4328674436
 10
188.4321611093
 20
83.4449337256
 10
188.4422724473
 20
83.4559954859
 10
188.4529106075
 20
83.466027423
 10
188.4639817382
 20
83.4750469649
  0
LWPOLYLINE
  5
3C3
100
AcDbEntity
  8
RACCORDO
100
AcDbPolyline
 62
7
  6
CONTINUOUS
 90
3
 70
0
 10
188.5101674706
 20
83.5011340319
 10
188.5268659319
 20
83.5074538935
 10
188.548231804
 20
83.5163680921
  0
LWPOLYLINE
  5
3C4
100
AcDbEntity
  8
RACCORDO
100
AcDbPolyline
 62
7
  6
CONTINUOUS
 90
5
 70
0
 10
188.5149069892
 20
128.3722343655
 10
188.5045349811
 20
128.376408947
 10
188.4939205141
 20
128.3814135194
 10
188.4831518473
 20
128.3873114339
 10
188.4723204198
 20
128.3941650094
  0
LINE
  5
3C5
100
AcDbEntity
  8
RACCORDO
100
AcDbLine
 62
7
  6
CONTINUOUS
 10
188.8298758779
 20
128.0565856265
 11
188.8221568239
 21
128.0755720751
  0
LINE
  5
3C6
100
AcDbEntity
  8
RACCORDO
100
AcDbLine
 62
7
  6
CONTINUOUS
 10
188.8200408431
 20
128.0803023423
 11
188.8385309074
 21
128.031734859
  0
LINE
  5
3C7
100
AcDbEntity
  8
RACCORDO
100
AcDbLine
 62
7
  6
CONTINUOUS
 10
188.8365116972
 20
128.0382061524
 11
188.8298758779
 21
128.0565856265
  0
LWPOLYLINE
  5
3C8
100
AcDbEntity
  8
RACCORDO
100
AcDbPolyline
 62
7
  6
CONTINUOUS
 90
4
 70
0
 10
188.8385309074
 20
128.031734859
 10
188.8518765269
 20
127.9815081411
 10
188.8599334189
 20
127.9301652025
 10
188.8626144783
 20
127.8782611254
  0
LWPOLYLINE
  5
3C9
100
AcDbEntity
  8
RACCORDO
100
AcDbPolyline
 62
253
  6
CONTINUOUS
 90
5
 70
0
 10
188.8261330259
 20
83.8364237255
 10
188.8023820428
 20
83.7897923421
 10
188.7738852235
 20
83.7459011224
 10
188.7409549048
 20
83.7052311326
 10
188.7378566172
 20
83.7019622467
  0
LWPOLYLINE
  5
3CA
100
AcDbEntity
  8
RACCORDO
100
AcDbPolyline
 62
7
  6
CONTINUOUS
 90
16
 70
0
 10
188.7874513169
 20
83.7331441256
 10
188.8004126596
 20
83.7552462753
 10
188.8119238506
 20
83.7773562745
 10
188.8218997042
 20
83.7990235723
 10
188.8304610588
 20
83.8201418698
 10
188.8377295007
 20
83.8406202516
 10
188.8437249756
 20
83.8600291747
 10
188.8486487247
 20
83.8784617963
 10
188.8526112248
 20
83.8957441165
 10
188.8556208495
 20
83.9110882064
 10
188.8578436076
 20
83.924269987
 10
188.8595077771
 20
83.9356220191
 10
188.8607464958
 20
83.9451715652
 10
188.8616398854
 20
83.952749766
 10
188.8622784307
 20
83.9585223486
 10
188.8630658677
 20
83.9658751622
  0
LWPOLYLINE
  5
3CB
100
AcDbEntity
  8
RACCORDO
100
AcDbPolyline
 62
253
  6
CONTINUOUS
 90
12
 70
0
 10
188.8626142976
 20
83.9969297461
 10
188.8627809858
 20
83.9972017651
 10
188.862953471
 20
83.9976420082
 10
188.8631317534
 20
83.9982504752
 10
188.8633151911
 20
83.9990192707
 10
188.8635044259
 20
83.9999562903
 10
188.863701383
 20
84.0010852207
 10
188.8639059921
 20
84.0024122199
 10
188.8641183235
 20
84.00393113
 10
188.8643405125
 20
84.005647164
 10
188.8645723919
 20
84.0075720804
 10
188.8650683601
 20
84.0119832234
  0
LWPOLYLINE
  5
3CC
100
AcDbEntity
  8
RACCORDO
100
AcDbPolyline
 62
7
  6
CONTINUOUS
 90
3
 70
0
 10
188.7652903146
 20
83.7004261389
 10
188.7730528638
 20
83.7112653963
 10
188.7874513169
 20
83.7331441256
  0
LINE
  5
3CD
100
AcDbEntity
  8
RACCORDO
100
AcDbLine
 62
7
  6
CONTINUOUS
 10
188.7509212305
 20
83.6810762835
 11
188.746940652
 21
83.6756636248
  0
LINE
  5
3CE
100
AcDbEntity
  8
RACCORDO
100
AcDbLine
 62
253
  6
CONTINUOUS
 10
188.8451646929
 20
83.9733837444
 11
188.8529198595
 21
83.9839122299
  0
LINE
  5
3CF
100
AcDbEntity
  8
RACCORDO
100
AcDbLine
 62
7
  6
CONTINUOUS
 10
188.7652903146
 20
83.7004261389
 11
188.7509212305
 21
83.6810762835
  0
LINE
  5
3D0
100
AcDbEntity
  8
RACCORDO
100
AcDbLine
 62
253
  6
CONTINUOUS
 10
188.8529198595
 20
83.9839122299
 11
188.8606758745
 21
83.9943395716
  0
LINE
  5
3D1
100
AcDbEntity
  8
RACCORDO
100
AcDbLine
 62
253
  6
CONTINUOUS
 10
188.8606758745
 20
83.9943395716
 11
188.8626142976
 21
83.9969297461
  0
LINE
  5
3D2
100
AcDbEntity
  8
RACCORDO
100
AcDbLine
 62
7
  6
CONTINUOUS
 10
188.7358270789
 20
83.661223334
 11
188.7469415044
 21
83.6756629888
  0
LINE
  5
3D3
100
AcDbEntity
  8
RACCORDO
100
AcDbLine
 62
253
  6
CONTINUOUS
 10
188.8693081102
 20
84.0397978583
 11
188.8847895408
 21
84.0552792087
  0
LINE
  5
3D4
100
AcDbEntity
  8
RACCORDO
100
AcDbLine
 62
253
  6
CONTINUOUS
 10
188.832424346
 20
84.0029140139
 11
188.8381439482
 21
84.0086291075
  0
LINE
  5
3D5
100
AcDbEntity
  8
RACCORDO
100
AcDbLine
 62
7
  6
CONTINUOUS
 10
188.6994190178
 20
83.6273251239
 11
188.6592301302
 21
83.5943782205
  0
LWPOLYLINE
  5
3D6
100
AcDbEntity
  8
RACCORDO
100
AcDbPolyline
 62
7
  6
CONTINUOUS
 90
5
 70
0
 10
188.4639817382
 20
83.4750469649
 10
188.4753617647
 20
83.4830502226
 10
188.4868660879
 20
83.4900123642
 10
188.4985525159
 20
83.4960563603
 10
188.5101674706
 20
83.5011340319
  0
LWPOLYLINE
  5
3D7
100
AcDbEntity
  8
RACCORDO
100
AcDbPolyline
 62
253
  6
CONTINUOUS
 90
7
 70
0
 10
188.3847895222
 20
83.3157432414
 10
188.3833836454
 20
83.3149002966
 10
188.3792013041
 20
83.3140836488
 10
188.372318178
 20
83.3132964232
 10
188.3628426005
 20
83.3125312096
 10
188.3509040405
 20
83.3117954181
 10
188.3366423609
 20
83.3111112793
  0
LWPOLYLINE
  5
3D8
100
AcDbEntity
  8
RACCORDO
100
AcDbPolyline
 62
7
  6
CONTINUOUS
 90
12
 70
0
 10
188.548231804
 20
83.5163680921
 10
188.5689488786
 20
83.5261543633
 10
188.5889871938
 20
83.5367622153
 10
188.6083262165
 20
83.5481444235
 10
188.6269438527
 20
83.5602516623
 10
188.6448194518
 20
83.573033548
 10
188.661938903
 20
83.586442473
 10
188.6782880886
 20
83.6004292466
 10
188.6938565008
 20
83.6149457893
 10
188.7086392423
 20
83.6299477925
 10
188.7226305029
 20
83.6453887999
 10
188.7358270789
 20
83.661223334
  0
LINE
  5
3D9
100
AcDbEntity
  8
RACCORDO
100
AcDbLine
 62
7
  6
CONTINUOUS
 10
188.5163465614
 20
128.3715492391
 11
188.5632072824
 21
128.3517456345
  0
LWPOLYLINE
  5
3DA
100
AcDbEntity
  8
RACCORDO
100
AcDbPolyline
 62
7
  6
CONTINUOUS
 90
3
 70
0
 10
188.566053897
 20
128.3504741945
 10
188.5210526869
 20
128.3699646832
 10
188.5149069892
 20
128.3722343655
  0
LWPOLYLINE
  5
3DB
100
AcDbEntity
  8
RACCORDO
100
AcDbPolyline
 62
7
  6
CONTINUOUS
 90
5
 70
0
 10
188.5632072824
 20
128.3517456345
 10
188.6078100512
 20
128.3272811049
 10
188.6496928236
 20
128.2984090805
 10
188.6884217322
 20
128.2654286493
 10
188.7235955807
 20
128.2286814587
  0
LINE
  5
3DC
100
AcDbEntity
  8
RACCORDO
100
AcDbLine
 62
7
  6
CONTINUOUS
 10
188.4723204198
 20
128.3941650094
 11
188.4618091109
 21
128.4018121495
  0
LWPOLYLINE
  5
3DD
100
AcDbEntity
  8
RACCORDO
100
AcDbPolyline
 62
7
  6
CONTINUOUS
 90
13
 70
0
 10
188.4618091109
 20
128.4018121495
 10
188.4517646254
 20
128.4101756444
 10
188.4421648999
 20
128.419305057
 10
188.4330976682
 20
128.4291604917
 10
188.424643094
 20
128.4396926852
 10
188.4168417703
 20
128.4508923571
 10
188.409726109
 20
128.4627743844
 10
188.4033637009
 20
128.475307965
 10
188.3978268139
 20
128.4884451935
 10
188.3931712904
 20
128.5021750677
 10
188.3894713775
 20
128.5164416514
 10
188.3867986443
 20
128.5311809414
 10
188.3852185957
 20
128.5463618871
  0
LWPOLYLINE
  5
3DE
100
AcDbEntity
  8
RACCORDO
100
AcDbPolyline
 62
7
  6
CONTINUOUS
 90
4
 70
0
 10
188.6863462292
 20
128.2674012147
 10
188.6490824887
 20
128.2989285076
 10
188.6088626414
 20
128.326713193
 10
188.566053897
 20
128.3504741945
  0
LINE
  5
3DF
100
AcDbEntity
  8
RACCORDO
100
AcDbLine
 62
253
  6
CONTINUOUS
 10
188.832424346
 20
127.8722773127
 11
188.8381439481
 21
127.8665622171
  0
LINE
  5
3E0
100
AcDbEntity
  8
RACCORDO
100
AcDbLine
 62
253
  6
CONTINUOUS
 10
188.8693081102
 20
127.8353934681
 11
188.8847895408
 21
127.8199121179
  0
LINE
  5
3E1
100
AcDbEntity
  8
RACCORDO
100
AcDbLine
 62
7
  6
CONTINUOUS
 10
188.7203053115
 20
128.2324574989
 11
188.6863462292
 21
128.2674012147
  0
LINE
  5
3E2
100
AcDbEntity
  8
RACCORDO
100
AcDbLine
 62
7
  6
CONTINUOUS
 10
188.7567656806
 20
128.1854911952
 11
188.7628310738
 21
128.1780747374
  0
LINE
  5
3E3
100
AcDbEntity
  8
RACCORDO
100
AcDbLine
 62
7
  6
CONTINUOUS
 10
188.744017101
 20
128.2034321275
 11
188.7203053115
 21
128.2324574989
  0
LINE
  5
3E4
100
AcDbEntity
  8
RACCORDO
100
AcDbLine
 62
7
  6
CONTINUOUS
 10
188.7235955807
 20
128.2286814587
 11
188.7440171994
 21
128.2034321982
  0
LINE
  5
3E5
100
AcDbEntity
  8
RACCORDO
100
AcDbLine
 62
7
  6
CONTINUOUS
 10
188.7440171994
 20
128.2034321982
 11
188.7485061143
 21
128.1974037893
  0
LINE
  5
3E6
100
AcDbEntity
  8
RACCORDO
100
AcDbLine
 62
7
  6
CONTINUOUS
 10
188.7644956094
 20
128.1758402444
 11
188.7565426536
 21
128.1865071917
  0
LINE
  5
3E7
100
AcDbEntity
  8
RACCORDO
100
AcDbLine
 62
253
  6
CONTINUOUS
 10
188.85485924
 20
127.8886622304
 11
188.862614274
 21
127.8782616121
  0
LWPOLYLINE
  5
3E8
100
AcDbEntity
  8
RACCORDO
100
AcDbPolyline
 62
7
  6
CONTINUOUS
 90
3
 70
0
 10
188.7565426536
 20
128.1865071917
 10
188.7490487693
 20
128.196663775
 10
188.7485061143
 20
128.1974037893
  0
LWPOLYLINE
  5
3E9
100
AcDbEntity
  8
RACCORDO
100
AcDbPolyline
 62
253
  6
CONTINUOUS
 90
3
 70
0
 10
188.845164695
 20
127.9018075793
 10
188.8471031602
 20
127.8991662727
 10
188.85485924
 20
127.8886622304
  0
LWPOLYLINE
  5
3EA
100
AcDbEntity
  8
RACCORDO
100
AcDbPolyline
 62
7
  6
CONTINUOUS
 90
3
 70
0
 10
188.7644956094
 20
128.1758402444
 10
188.7684804405
 20
128.170382916
 10
188.7966062349
 20
128.1266855148
  0
LINE
  5
3EB
100
AcDbEntity
  8
RACCORDO
100
AcDbLine
 62
7
  6
CONTINUOUS
 10
188.7485061143
 20
128.1974037893
 11
188.75485
 21
128.1885481761
  0
LWPOLYLINE
  5
3EC
100
AcDbEntity
  8
RACCORDO
100
AcDbPolyline
 62
253
  6
CONTINUOUS
 90
14
 70
0
 10
188.862614274
 20
127.8782616121
 10
188.8627580749
 20
127.8780323758
 10
188.8629062704
 20
127.8776792849
 10
188.8630588605
 20
127.8772023392
 10
188.8632152901
 20
127.8766090565
 10
188.8633761142
 20
127.8758919192
 10
188.8635429982
 20
127.8750283737
 10
188.8637160172
 20
127.8740145008
 10
188.863895096
 20
127.8728542198
 10
188.8640816746
 20
127.8715367361
 10
188.8642756201
 20
127.8700578454
 10
188.8644770654
 20
127.8684217519
 10
188.8646878499
 20
127.8666302729
 10
188.8649077797
 20
127.8646718931
  0
LWPOLYLINE
  5
3ED
100
AcDbEntity
  8
RACCORDO
100
AcDbPolyline
 62
7
  6
CONTINUOUS
 90
7
 70
0
 10
188.75485
 20
128.1885481761
 10
188.7818612226
 20
128.1454445458
 10
188.8043494369
 20
128.0998170824
 10
188.8220816853
 20
128.0521384448
 10
188.834874278
 20
128.0029025405
 10
188.8425946953
 20
127.9526194087
 10
188.8451629605
 20
127.9018099369
  0
LINE
  5
3EE
100
AcDbEntity
  8
RACCORDO
100
AcDbLine
 62
7
  6
CONTINUOUS
 10
188.7966062349
 20
128.1266855148
 11
188.8200408431
 21
128.0803023423
  0
LWPOLYLINE
  5
3EF
100
AcDbEntity
  8
RACCORDO
100
AcDbPolyline
 62
7
  6
CONTINUOUS
 90
6
 70
0
 10
188.8221568239
 20
128.0755720751
 10
188.8134395726
 20
128.0947114095
 10
188.803717823
 20
128.1138652665
 10
188.7929088645
 20
128.1330534425
 10
188.7810559595
 20
128.1520729583
 10
188.7681685093
 20
128.1708160041
  0
LINE
  5
3F0
100
AcDbEntity
  8
RACCORDO
100
AcDbLine
 62
253
  6
CONTINUOUS
 10
107.4175782603
 20
129.3489205287
 11
108.1675782603
 21
129.7819332306
  0
LINE
  5
3F1
100
AcDbEntity
  8
RACCORDO
100
AcDbLine
 62
7
  6
CONTINUOUS
 10
107.5425782603
 20
129.1324141777
 11
108.2925782603
 21
129.5654268796
  0
LINE
  5
3F2
100
AcDbEntity
  8
26814000
100
AcDbLine
 62
7
  6
CONTINUOUS
 10
115.4175782603
 20
82.1841383018
 11
115.1238547605
 21
82.1824294684
  0
LINE
  5
3F3
100
AcDbEntity
  8
RACCORDO
100
AcDbLine
 62
7
  6
CONTINUOUS
 10
105.1675782603
 20
81.4375956633
 11
108.1675782603
 21
81.4375956633
  0
LINE
  5
3F4
100
AcDbEntity
  8
RACCORDO
100
AcDbLine
 62
253
  6
CONTINUOUS
 10
104.9175782603
 20
81.6875956633
 11
108.4175782603
 21
81.6875956633
  0
LINE
  5
3F5
100
AcDbEntity
  8
RACCORDO
100
AcDbLine
 62
253
  6
CONTINUOUS
 10
108.4175782603
 20
82.093258096
 11
108.1675782603
 21
82.093258096
  0
LINE
  5
3F6
100
AcDbEntity
  8
RACCORDO
100
AcDbLine
 62
253
  6
CONTINUOUS
 10
105.1675782603
 20
82.093258096
 11
104.9175782603
 21
82.093258096
  0
LINE
  5
3F7
100
AcDbEntity
  8
RACCORDO
100
AcDbLine
 62
7
  6
CONTINUOUS
 10
114.9175782603
 20
82.1375956633
 11
108.4175782603
 21
82.1375956633
  0
LINE
  5
3F8
100
AcDbEntity
  8
RACCORDO
100
AcDbLine
 62
253
  6
CONTINUOUS
 10
106.1675782603
 20
82.9592834998
 11
105.9175782603
 21
82.9592834998
  0
LINE
  5
3F9
100
AcDbEntity
  8
RACCORDO
100
AcDbLine
 62
253
  6
CONTINUOUS
 10
107.1675782603
 20
82.9592834998
 11
107.4175782603
 21
82.9592834998
  0
LWPOLYLINE
  5
3FA
100
AcDbEntity
  8
RACCORDO
100
AcDbPolyline
 62
253
  6
CONTINUOUS
 90
4
 70
0
 10
105.9433209691
 20
83.5036222617
 10
105.9616083944
 20
83.5032450941
 10
105.9802244556
 20
83.5029767134
 10
106.0181094846
 20
83.5026129954
  0
LINE
  5
3FB
100
AcDbEntity
  8
RACCORDO
100
AcDbLine
 62
253
  6
CONTINUOUS
 10
105.9080591237
 20
83.5045620664
 11
105.9433209691
 21
83.5036222617
  0
LINE
  5
3FC
100
AcDbEntity
  8
RACCORDO
100
AcDbLine
 62
253
  6
CONTINUOUS
 10
105.8748884895
 20
83.505702491
 11
105.9080591237
 21
83.5045620664
  0
LINE
  5
3FD
100
AcDbEntity
  8
RACCORDO
100
AcDbLine
 62
253
  6
CONTINUOUS
 10
105.815325504
 20
83.5079735968
 11
105.8748884895
 21
83.505702491
  0
LINE
  5
3FE
100
AcDbEntity
  8
28414000
100
AcDbLine
 62
7
  6
CONTINUOUS
 10
102.1159004876
 20
84.3230243062
 11
102.6131614353
 21
84.2707600746
  0
LINE
  5
3FF
100
AcDbEntity
  8
290140000
100
AcDbLine
 62
7
  6
CONTINUOUS
 10
101.0691143606
 20
83.9302918218
 11
95.3725103149
 21
84.6297468482
  0
LWPOLYLINE
  5
400
100
AcDbEntity
  8
RACCORDO
100
AcDbPolyline
 62
253
  6
CONTINUOUS
 90
16
 70
0
 10
105.9365964882
 20
83.9945689902
 10
105.973221378
 20
83.989264054
 10
105.9900162728
 20
83.9867325295
 10
106.0059595209
 20
83.9843977449
 10
106.0210373319
 20
83.9822907656
 10
106.0352634964
 20
83.9803805262
 10
106.0488333163
 20
83.9787016292
 10
106.061758925
 20
83.9772708559
 10
106.0740281892
 20
83.9760714251
 10
106.0858000118
 20
83.975087596
 10
106.0970840358
 20
83.9743251231
 10
106.1078706181
 20
83.973778252
 10
106.1182897328
 20
83.9734139789
 10
106.1283847046
 20
83.9732213027
 10
106.1381122087
 20
83.9732112245
 10
106.1474722451
 20
83.9733837444
  0
LWPOLYLINE
  5
401
100
AcDbEntity
  8
290140000
100
AcDbPolyline
 62
253
  6
CONTINUOUS
 90
19
 70
0
 10
95.4561203493
 20
85.4252431881
 10
95.3988458049
 20
85.4347346251
 10
95.3431762676
 20
85.4486800325
 10
95.2891117375
 20
85.4670794101
 10
95.2362706839
 20
85.4901221048
 10
95.1850346375
 20
85.5176187698
 10
95.1365481901
 20
85.549001365
 10
95.0909016053
 20
85.5843453142
 10
95.0480046196
 20
85.6235751936
 10
95.0087310338
 20
85.6658966926
 10
94.9731555045
 20
85.7113755893
 10
94.9412033751
 20
85.7599461055
 10
94.9135244776
 20
85.8106165956
 10
94.8902089439
 20
85.8634622995
 10
94.8711666421
 20
85.9184079772
 10
94.8567770079
 20
85.9742362639
 10
94.84716652
 20
86.030541371
 10
94.8422086996
 20
86.0877290871
 10
94.841903547
 20
86.1457994121
  0
LINE
  5
402
100
AcDbEntity
  8
RACCORDO
100
AcDbLine
 62
253
  6
CONTINUOUS
 10
108.1675782603
 20
82.093258096
 11
107.4175782603
 21
82.5262707979
  0
LINE
  5
403
100
AcDbEntity
  8
RACCORDO
100
AcDbLine
 62
7
  6
CONTINUOUS
 10
108.2925782603
 20
82.3097644469
 11
107.5425782603
 21
82.7427771488
  0
LWPOLYLINE
  5
404
100
AcDbEntity
  8
290140000
100
AcDbPolyline
 62
253
  6
CONTINUOUS
 90
16
 70
0
 10
99.9194637486
 20
127.8911189726
 10
99.9176285766
 20
127.8868820096
 10
99.9150498816
 20
127.8739632184
 10
99.9117559054
 20
127.8525040852
 10
99.9077827234
 20
127.8227396297
 10
99.9031738498
 20
127.7849958311
 10
99.8979797614
 20
127.7396860581
 10
99.8922573436
 20
127.6873065418
 10
99.8860692682
 20
127.6284309407
 10
99.8794833067
 20
127.5637040585
 10
99.8725715884
 20
127.4938347815
 10
99.8654098101
 20
127.4195883156
 10
99.8580764074
 20
127.3417778055
 10
99.8506516955
 20
127.2612554292
 10
99.8432169895
 20
127.1789030649
 10
99.8358537141
 20
127.0956226327
  0
LINE
  5
405
100
AcDbEntity
  8
RACCORDO
100
AcDbLine
 62
253
  6
CONTINUOUS
 10
107.2877525759
 20
84.0119832234
 11
107.319024818
 21
84.0171078753
  0
LWPOLYLINE
  5
406
100
AcDbEntity
  8
RACCORDO
100
AcDbPolyline
 62
253
  6
CONTINUOUS
 90
10
 70
0
 10
107.319024818
 20
84.0171078753
 10
107.3536650826
 20
84.0226352494
 10
107.3723113293
 20
84.0255167664
 10
107.3919018465
 20
84.0282844615
 10
107.4124143071
 20
84.0309638996
 10
107.4338710383
 20
84.0335295157
 10
107.4564090423
 20
84.0357216824
 10
107.4800739868
 20
84.0374538571
 10
107.5048202041
 20
84.0388125824
 10
107.5306476943
 20
84.0397978583
  0
LINE
  5
407
100
AcDbEntity
  8
26814000
100
AcDbLine
 62
7
  6
CONTINUOUS
 10
105.4180531614
 20
83.9990462542
 11
104.9175782603
 21
83.9375956633
  0
LINE
  5
408
100
AcDbEntity
  8
DRAFT
100
AcDbLine
 62
7
  6
CONTINUOUS
 10
106.0675782603
 20
84.1125956633
 11
105.4175782603
 21
84.0327856987
  0
LINE
  5
409
100
AcDbEntity
  8
RACCORDO
100
AcDbLine
 62
253
  6
CONTINUOUS
 10
107.4054943347
 20
83.5319436712
 11
107.4818493815
 21
83.5367791805
  0
LWPOLYLINE
  5
40A
100
AcDbEntity
  8
RACCORDO
100
AcDbPolyline
 62
253
  6
CONTINUOUS
 90
5
 70
0
 10
107.4818493815
 20
83.5367791805
 10
107.5094134068
 20
83.5383976716
 10
107.5226536349
 20
83.5390554105
 10
107.5355347429
 20
83.5395572198
 10
107.5480992316
 20
83.539874394
  0
LWPOLYLINE
  5
40B
100
AcDbEntity
  8
RACCORDO
100
AcDbPolyline
 62
253
  6
CONTINUOUS
 90
3
 70
0
 10
107.3546933992
 20
83.529151546
 10
107.3719550067
 20
83.5300479167
 10
107.4054943347
 20
83.5319436712
  0
LINE
  5
40C
100
AcDbEntity
  8
RACCORDO
100
AcDbLine
 62
253
  6
CONTINUOUS
 10
107.3195546213
 20
83.5275441829
 11
107.3546933992
 21
83.529151546
  0
LINE
  5
40D
100
AcDbEntity
  8
RACCORDO
100
AcDbLine
 62
253
  6
CONTINUOUS
 10
107.2840470099
 20
83.5261213019
 11
107.3195546213
 21
83.5275441829
  0
LINE
  5
40E
100
AcDbEntity
  8
RACCORDO
100
AcDbLine
 62
253
  6
CONTINUOUS
 10
107.2486913266
 20
83.5249148228
 11
107.2840470099
 21
83.5261213019
  0
LINE
  5
40F
100
AcDbEntity
  8
RACCORDO
100
AcDbLine
 62
253
  6
CONTINUOUS
 10
107.4175782603
 20
83.3410562106
 11
107.1675782603
 21
83.3332014314
  0
LINE
  5
410
100
AcDbEntity
  8
RACCORDO
100
AcDbLine
 62
253
  6
CONTINUOUS
 10
106.1675782603
 20
83.3157463665
 11
105.9175782603
 21
83.3078915873
  0
LWPOLYLINE
  5
411
100
AcDbEntity
  8
RACCORDO
100
AcDbPolyline
 62
253
  6
CONTINUOUS
 90
12
 70
0
 10
107.1471594298
 20
83.9969297461
 10
107.1567089872
 20
83.9972017651
 10
107.16659066
 20
83.9976420082
 10
107.1768044482
 20
83.9982504752
 10
107.1873135886
 20
83.9990192707
 10
107.1981548444
 20
83.9999562903
 10
107.2094385055
 20
84.0010852207
 10
107.2211605568
 20
84.0024122199
 10
107.2333250135
 20
84.00393113
 10
107.2460542102
 20
84.005647164
 10
107.2593385741
 20
84.0075720804
 10
107.2877525759
 20
84.0119832234
  0
LINE
  5
412
100
AcDbEntity
  8
RACCORDO
100
AcDbLine
 62
253
  6
CONTINUOUS
 10
107.2139700738
 20
83.5239401524
 11
107.2486913266
 21
83.5249148228
  0
LINE
  5
413
100
AcDbEntity
  8
RACCORDO
100
AcDbLine
 62
253
  6
CONTINUOUS
 10
106.1474722451
 20
83.9733837444
 11
106.8139675364
 21
83.9891393257
  0
LINE
  5
414
100
AcDbEntity
  8
RACCORDO
100
AcDbLine
 62
253
  6
CONTINUOUS
 10
106.8139675364
 20
83.9891393257
 11
107.1471594298
 21
83.9969297461
  0
LINE
  5
415
100
AcDbEntity
  8
RACCORDO
100
AcDbLine
 62
253
  6
CONTINUOUS
 10
107.1642681719
 20
83.5228363016
 11
107.2139700738
 21
83.5239401524
  0
LINE
  5
416
100
AcDbEntity
  8
RACCORDO
100
AcDbLine
 62
253
  6
CONTINUOUS
 10
107.1675782603
 20
83.3332014314
 11
106.1675782603
 21
83.3157463665
  0
LINE
  5
417
100
AcDbEntity
  8
RACCORDO
100
AcDbLine
 62
7
  6
CONTINUOUS
 10
105.4175782603
 20
83.5026855334
 11
105.7627394227
 21
83.5087103439
  0
LINE
  5
418
100
AcDbEntity
  8
RACCORDO
100
AcDbLine
 62
7
  6
CONTINUOUS
 10
107.5480975654
 20
83.5398738862
 11
117.4350306667
 21
83.7124509454
  0
LINE
  5
419
100
AcDbEntity
  8
RACCORDO
100
AcDbLine
 62
253
  6
CONTINUOUS
 10
105.4175782603
 20
84.0029140139
 11
105.7452540466
 21
84.0086291075
  0
LINE
  5
41A
100
AcDbEntity
  8
RACCORDO
100
AcDbLine
 62
253
  6
CONTINUOUS
 10
107.5306476943
 20
84.0397978583
 11
108.4175782603
 21
84.0552792087
  0
LINE
  5
41B
100
AcDbEntity
  8
RACCORDO
100
AcDbLine
 62
253
  6
CONTINUOUS
 10
106.1473210756
 20
83.5033787637
 11
107.1642681275
 21
83.5228388086
  0
LWPOLYLINE
  5
41C
100
AcDbEntity
  8
RACCORDO
100
AcDbPolyline
 62
253
  6
CONTINUOUS
 90
3
 70
0
 10
106.0935091989
 20
83.502705942
 10
106.1118410534
 20
83.5028859931
 10
106.1473210756
 20
83.5033787637
  0
LINE
  5
41D
100
AcDbEntity
  8
26814000
100
AcDbLine
 62
7
  6
CONTINUOUS
 10
115.4175782603
 20
83.6074106056
 11
117.4263047957
 21
83.6249404965
  0
LINE
  5
41E
100
AcDbEntity
  8
26814000
100
AcDbLine
 62
253
  6
CONTINUOUS
 10
117.4466111508
 20
83.7129970965
 11
117.8354368215
 21
83.7163903268
  0
LWPOLYLINE
  5
41F
100
AcDbEntity
  8
RACCORDO
100
AcDbPolyline
 62
253
  6
CONTINUOUS
 90
5
 70
0
 10
105.7627629923
 20
83.5087013031
 10
105.7754454911
 20
83.5088050364
 10
105.7883936568
 20
83.5086910787
 10
105.8016833482
 20
83.5083973935
 10
105.815325504
 20
83.5079735968
  0
LINE
  5
420
100
AcDbEntity
  8
DRAFT
100
AcDbLine
 62
7
  6
CONTINUOUS
 10
108.4175782603
 20
85.0375956633
 11
118.4175782603
 21
85.0375956633
  0
LWPOLYLINE
  5
421
100
AcDbEntity
  8
RACCORDO
100
AcDbPolyline
 62
253
  6
CONTINUOUS
 90
4
 70
0
 10
106.0181094846
 20
83.5026129954
 10
106.0371354571
 20
83.5025455287
 10
106.0561002484
 20
83.5025452406
 10
106.0935091989
 20
83.502705942
  0
LWPOLYLINE
  5
422
100
AcDbEntity
  8
RACCORDO
100
AcDbPolyline
 62
253
  6
CONTINUOUS
 90
9
 70
0
 10
105.7452540466
 20
84.0086291075
 10
105.7735507481
 20
84.0084451697
 10
105.800567306
 20
84.0077563175
 10
105.8263037202
 20
84.0065625507
 10
105.8507014086
 20
84.004750248
 10
105.8738189533
 20
84.0024330307
 10
105.8958321008
 20
83.9999517629
 10
105.9167664931
 20
83.9973424018
 10
105.9365964882
 20
83.9945689902
  0
LINE
  5
423
100
AcDbEntity
  8
26814000
100
AcDbLine
 62
7
  6
CONTINUOUS
 10
104.9175782603
 20
83.5594128327
 11
105.4175782603
 21
83.5550493988
  0
LINE
  5
424
100
AcDbEntity
  8
26814000
100
AcDbLine
 62
253
  6
CONTINUOUS
 10
104.9175782603
 20
83.9094261602
 11
105.4175782603
 21
83.9050627263
  0
LINE
  5
425
100
AcDbEntity
  8
26814000
100
AcDbLine
 62
253
  6
CONTINUOUS
 10
118.3167405789
 20
84.2768914782
 11
118.3334119354
 21
84.2766004786
  0
LINE
  5
426
100
AcDbEntity
  8
RACCORDO
100
AcDbLine
 62
7
  6
CONTINUOUS
 10
108.4175782603
 20
84.5375956633
 11
118.3550128127
 21
84.3641370979
  0
LINE
  5
427
100
AcDbEntity
  8
28414000
100
AcDbLine
 62
7
  6
CONTINUOUS
 10
101.2363599018
 20
85.5215268544
 11
101.8327077932
 21
85.4588481653
  0
LINE
  5
428
100
AcDbEntity
  8
290140000
100
AcDbLine
 62
253
  6
CONTINUOUS
 10
101.152724395
 20
84.7257881617
 11
95.4561203493
 21
85.4252431881
  0
LINE
  5
429
100
AcDbEntity
  8
28414000
100
AcDbLine
 62
7
  6
CONTINUOUS
 10
101.9801892174
 20
86.5664895863
 11
101.3617940577
 21
86.7149531288
  0
LWPOLYLINE
  5
42A
100
AcDbEntity
  8
290140000
100
AcDbPolyline
 62
253
  6
CONTINUOUS
 90
16
 70
0
 10
95.3725103149
 20
84.6297468482
 10
95.3715961505
 20
84.6342728899
 10
95.3717597909
 20
84.6474458213
 10
95.3729994395
 20
84.669121334
 10
95.3753015151
 20
84.6990620059
 10
95.3786408008
 20
84.736939885
 10
95.3829807185
 20
84.7823400666
 10
95.3882737314
 20
84.8347652777
 10
95.3944618646
 20
84.8936413181
 10
95.4014773375
 20
84.9583233148
 10
95.4092433111
 20
85.02810283
 10
95.4176747286
 20
85.1022156175
 10
95.4266792447
 20
85.1798499653
 10
95.4361582392
 20
85.260155611
 10
95.4460078983
 20
85.3422530567
 10
95.4561203493
 20
85.4252431881
  0
LINE
  5
42B
100
AcDbEntity
  8
RACCORDO
100
AcDbLine
 62
253
  6
CONTINUOUS
 10
105.1675782603
 20
129.7819332306
 11
105.0425782603
 21
129.5654268796
  0
LINE
  5
42C
100
AcDbEntity
  8
21814000
100
AcDbLine
 62
7
  6
CONTINUOUS
 10
129.233285426
 20
86.5154053652
 11
118.4175782603
 21
86.3266164944
  0
LINE
  5
42D
100
AcDbEntity
  8
21814000
100
AcDbLine
 62
253
  6
CONTINUOUS
 10
129.233285426
 20
87.1087290642
 11
118.4170614325
 21
86.9752287944
  0
LINE
  5
42E
100
AcDbEntity
  8
290140000
100
AcDbLine
 62
253
  6
CONTINUOUS
 10
94.056331487
 20
86.1737958983
 11
94.0606181307
 21
86.1737359527
  0
LINE
  5
42F
100
AcDbEntity
  8
RACCORDO
100
AcDbLine
 62
7
  6
CONTINUOUS
 10
101.7123425383
 20
87.6136165856
 11
105.8764044548
 21
87.5409326145
  0
LINE
  5
430
100
AcDbEntity
  8
26814000
100
AcDbLine
 62
7
  6
CONTINUOUS
 10
101.621391645
 20
87.6300409445
 11
101.4582729206
 21
87.6328881924
  0
LINE
  5
431
100
AcDbEntity
  8
290140000
100
AcDbLine
 62
253
  6
CONTINUOUS
 10
94.0606181307
 20
86.1737359527
 11
94.0946146309
 21
86.1726751565
  0
LINE
  5
432
100
AcDbEntity
  8
290140000
100
AcDbLine
 62
253
  6
CONTINUOUS
 10
94.0946146309
 20
86.1726751565
 11
94.2057772743
 21
86.168841429
  0
LINE
  5
433
100
AcDbEntity
  8
290140000
100
AcDbLine
 62
253
  6
CONTINUOUS
 10
94.2057772743
 20
86.168841429
 11
94.3791760245
 21
86.1626617839
  0
LWPOLYLINE
  5
434
100
AcDbEntity
  8
290140000
100
AcDbPolyline
 62
253
  6
CONTINUOUS
 90
3
 70
0
 10
94.3791760245
 20
86.1626617839
 10
94.7593473784
 20
86.148834399
 10
94.841903547
 20
86.1457994121
  0
LINE
  5
435
100
AcDbEntity
  8
RACCORDO
100
AcDbLine
 62
253
  6
CONTINUOUS
 10
105.1675782603
 20
82.093258096
 11
105.0425782603
 21
82.3097644469
  0
LWPOLYLINE
  5
436
100
AcDbEntity
  8
290140000
100
AcDbPolyline
 62
253
  6
CONTINUOUS
 90
13
 70
0
 10
94.841903547
 20
86.1457994121
 10
94.9857423543
 20
89.52895805
 10
95.1677901115
 20
92.9094138827
 10
95.3880468186
 20
96.2871669101
 10
95.646550532
 20
99.6626508399
 10
95.9432631954
 20
103.0354319645
 10
96.2780706397
 20
106.4042091608
 10
96.6509877868
 20
109.7689810344
 10
97.0619997149
 20
113.1297489798
 10
97.5109474897
 20
116.4852160576
 10
97.9977781331
 20
119.8349499544
 10
98.522544623
 20
123.1793829835
 10
99.0852469597
 20
126.5185151449
  0
LWPOLYLINE
  5
437
100
AcDbEntity
  8
290140000
100
AcDbPolyline
 62
253
  6
CONTINUOUS
 90
19
 70
0
 10
99.0852469597
 20
126.5185151449
 10
99.0976189435
 20
126.5752530491
 10
99.1143584183
 20
126.6301602876
 10
99.1354653841
 20
126.6832368603
 10
99.1611479237
 20
126.7348533917
 10
99.1911979543
 20
126.7846392574
 10
99.2249912272
 20
126.8314825838
 10
99.2626002617
 20
126.8752910358
 10
99.3039525385
 20
126.9161569485
 10
99.3482062515
 20
126.9532454537
 10
99.3954207496
 20
126.9864766887
 10
99.4455366838
 20
127.0159305163
 10
99.4975342014
 20
127.0410116568
 10
99.5514859121
 20
127.0616275678
 10
99.607319206
 20
127.0778707917
 10
99.6637964014
 20
127.0894236754
 10
99.7205049376
 20
127.0961803347
 10
99.7778573751
 20
127.0982466537
 10
99.8358537141
 20
127.0956226327
  0
LINE
  5
438
100
AcDbEntity
  8
RACCORDO
100
AcDbLine
 62
253
  6
CONTINUOUS
 10
105.9175782603
 20
129.3489205287
 11
105.7925782603
 21
129.1324141777
  0
LINE
  5
439
100
AcDbEntity
  8
21814000
100
AcDbLine
 62
253
  6
CONTINUOUS
 10
127.1147301597
 20
91.9804527618
 11
128.4145321634
 21
92.2590242126
  0
LWPOLYLINE
  5
43A
100
AcDbEntity
  8
21814000
100
AcDbPolyline
 62
253
  6
CONTINUOUS
 90
17
 70
0
 10
122.4175782603
 20
89.8880163373
 10
122.8544572922
 20
89.9308592261
 10
123.2746957376
 20
90.0577560201
 10
123.6622868446
 20
90.26387326
 10
124.0080287863
 20
90.546902867
 10
124.2866590291
 20
90.8861645475
 10
124.4940965662
 20
91.2730928503
 10
124.6224401662
 20
91.6929497967
 10
124.6668149644
 20
92.1375956633
 10
124.6239786008
 20
92.5745412442
 10
124.4971011337
 20
92.9948437036
 10
124.2910152865
 20
93.3824938516
 10
124.0080287863
 20
93.7282884595
 10
123.668818777
 20
94.0069611456
 10
123.2819494052
 20
94.2144302812
 10
122.8621564051
 20
94.3427934316
 10
122.4175780636
 20
94.3871749892
  0
LINE
  5
43B
100
AcDbEntity
  8
RACCORDO
100
AcDbLine
 62
253
  6
CONTINUOUS
 10
101.5087915068
 20
88.1135404329
 11
101.7123425383
 21
88.1135404331
  0
LINE
  5
43C
100
AcDbEntity
  8
21814000
100
AcDbLine
 62
253
  6
CONTINUOUS
 10
130.1175782603
 20
88.1581008797
 11
130.1126788864
 21
88.1581008795
  0
LINE
  5
43D
100
AcDbEntity
  8
21814000
100
AcDbLine
 62
253
  6
CONTINUOUS
 10
116.1414934413
 20
88.266022788
 11
130.1134262916
 21
88.266022788
  0
LINE
  5
43E
100
AcDbEntity
  8
21814000
100
AcDbLine
 62
253
  6
CONTINUOUS
 10
130.1120576487
 20
88.1566423209
 11
130.1126605341
 21
88.1566363392
  0
LINE
  5
43F
100
AcDbEntity
  8
RACCORDO
100
AcDbLine
 62
253
  6
CONTINUOUS
 10
101.7123425383
 20
88.1135404331
 11
105.8148896854
 21
88.0419302063
  0
LINE
  5
440
100
AcDbEntity
  8
RACCORDO
100
AcDbLine
 62
253
  6
CONTINUOUS
 10
105.9175782603
 20
82.5262707979
 11
105.7925782603
 21
82.7427771488
  0
LWPOLYLINE
  5
441
100
AcDbEntity
  8
RACCORDO
100
AcDbPolyline
 62
253
  6
CONTINUOUS
 90
5
 70
0
 10
105.7627345851
 20
128.366481064
 10
105.761787102
 20
128.3637495842
 10
105.7607507157
 20
128.3555665513
 10
105.7596369152
 20
128.3420235722
 10
105.7584569266
 20
128.3232718015
  0
LINE
  5
442
100
AcDbEntity
  8
RACCORDO
100
AcDbLine
 62
7
  6
CONTINUOUS
 10
108.4175782603
 20
120.7978933206
 11
118.4175782603
 21
124.4375956633
  0
LINE
  5
443
100
AcDbEntity
  8
RACCORDO
100
AcDbLine
 62
253
  6
CONTINUOUS
 10
118.4175782603
 20
124.9418360436
 11
108.4175782603
 21
121.3947294313
  0
LINE
  5
444
100
AcDbEntity
  8
21814000
100
AcDbLine
 62
253
  6
CONTINUOUS
 10
113.9175782603
 20
121.9375956633
 11
111.0184605614
 21
120.9295306633
  0
LINE
  5
445
100
AcDbEntity
  8
21814000
100
AcDbLine
 62
253
  6
CONTINUOUS
 10
113.303126471
 20
121.1021796633
 11
113.9175782603
 21
121.3111696633
  0
LINE
  5
446
100
AcDbEntity
  8
21814000
100
AcDbLine
 62
253
  6
CONTINUOUS
 10
111.5726157218
 20
120.5440446633
 11
112.8213402613
 21
120.9454646633
  0
LINE
  5
447
100
AcDbEntity
  8
21814000
100
AcDbLine
 62
253
  6
CONTINUOUS
 10
128.4145321634
 20
89.9375956633
 11
127.1147301597
 21
89.9375956633
  0
LINE
  5
448
100
AcDbEntity
  8
21814000
100
AcDbLine
 62
253
  6
CONTINUOUS
 10
128.4145321634
 20
90.5875956633
 11
127.1147301597
 21
90.5875956633
  0
LINE
  5
449
100
AcDbEntity
  8
21814000
100
AcDbLine
 62
253
  6
CONTINUOUS
 10
127.4861021386
 20
90.9590242126
 11
127.3004161491
 21
90.9590242126
  0
LINE
  5
44A
100
AcDbEntity
  8
21814000
100
AcDbLine
 62
253
  6
CONTINUOUS
 10
128.2288461545
 20
91.6090242126
 11
128.0431601457
 21
91.6090242126
  0
LINE
  5
44B
100
AcDbEntity
  8
RACCORDO
100
AcDbLine
 62
253
  6
CONTINUOUS
 10
108.4175782603
 20
90.4804618953
 11
118.4175782603
 21
86.9333552829
  0
LINE
  5
44C
100
AcDbEntity
  8
RACCORDO
100
AcDbLine
 62
7
  6
CONTINUOUS
 10
118.4175782603
 20
87.4375956633
 11
108.4175782603
 21
91.0772980059
  0
LINE
  5
44D
100
AcDbEntity
  8
RACCORDO
100
AcDbLine
 62
253
  6
CONTINUOUS
 10
105.7618033757
 20
83.5114420261
 11
105.7627637896
 21
83.5087107723
  0
LINE
  5
44E
100
AcDbEntity
  8
28414000
100
AcDbLine
 62
7
  6
CONTINUOUS
 10
101.8327077932
 20
85.4588481653
 11
102.1159004876
 21
84.3230243062
  0
LWPOLYLINE
  5
44F
100
AcDbEntity
  8
RACCORDO
100
AcDbPolyline
 62
253
  6
CONTINUOUS
 90
10
 70
0
 10
101.7123425383
 20
87.6136165856
 10
101.7118288421
 20
87.6163655101
 10
101.711372394
 20
87.6245622406
 10
101.7109814766
 20
87.6381153028
 10
101.7106648172
 20
87.6568741903
 10
101.7104264329
 20
87.6806321372
 10
101.7102655929
 20
87.7091293247
 10
101.7101835135
 20
87.7420524309
 10
101.7101833519
 20
87.7790410034
 10
101.7102651821
 20
87.8196946721
  0
LWPOLYLINE
  5
450
100
AcDbEntity
  8
RACCORDO
100
AcDbPolyline
 62
253
  6
CONTINUOUS
 90
16
 70
0
 10
107.5480992474
 20
128.335317411
 10
107.5471394454
 20
128.3325934919
 10
107.5460945213
 20
128.3244200544
 10
107.5449759284
 20
128.3108866828
 10
107.5437959278
 20
128.2921417083
 10
107.5425674531
 20
128.2683905838
 10
107.5413039698
 20
128.2398936314
 10
107.5400193266
 20
128.2069631897
 10
107.5387276043
 20
128.1699601899
 10
107.5374429616
 20
128.1292902004
 10
107.536179479
 20
128.0853989811
 10
107.5349510056
 20
128.0387675982
 10
107.5337710065
 20
127.989907151
 10
107.5326524157
 20
127.9393531703
 10
107.5316074939
 20
127.8876597488
 10
107.5306476945
 20
127.8353934681
  0
LWPOLYLINE
  5
451
100
AcDbEntity
  8
21814000
100
AcDbPolyline
 62
253
  6
CONTINUOUS
 90
17
 70
0
 10
122.4175782603
 20
94.3871749892
 10
121.9806992283
 20
94.3443321005
 10
121.5604607829
 20
94.2174353064
 10
121.1728696759
 20
94.0113180665
 10
120.8271277342
 20
93.7282884595
 10
120.5484974914
 20
93.389026779
 10
120.3410599543
 20
93.0020984762
 10
120.2127163543
 20
92.5822415298
 10
120.1683415561
 20
92.1375956633
 10
120.2111779197
 20
91.7006500824
 10
120.3380553868
 20
91.2803476229
 10
120.544141234
 20
90.8926974749
 10
120.8271277342
 20
90.546902867
 10
121.1663377435
 20
90.268230181
 10
121.5532071153
 20
90.0607610453
 10
121.9730001154
 20
89.932397895
 10
122.4175784569
 20
89.8880163373
  0
LINE
  5
452
100
AcDbEntity
  8
21814000
100
AcDbLine
 62
253
  6
CONTINUOUS
 10
120.7826703828
 20
92.1375956633
 11
124.0524861377
 21
92.1375956633
  0
LINE
  5
453
100
AcDbEntity
  8
21814000
100
AcDbLine
 62
253
  6
CONTINUOUS
 10
111.0183236031
 20
92.7665896633
 11
113.9175782603
 21
92.7665816633
  0
LINE
  5
454
100
AcDbEntity
  8
21814000
100
AcDbLine
 62
253
  6
CONTINUOUS
 10
113.9175712624
 20
93.3466036633
 11
111.0183236031
 21
93.3466106633
  0
LINE
  5
455
100
AcDbEntity
  8
21814000
100
AcDbLine
 62
253
  6
CONTINUOUS
 10
111.0183236031
 20
91.7998816633
 11
113.0146123753
 21
91.1587566633
  0
LINE
  5
456
100
AcDbEntity
  8
21814000
100
AcDbLine
 62
253
  6
CONTINUOUS
 10
113.9175712624
 20
91.4487716633
 11
111.0183236031
 21
92.3799106633
  0
LINE
  5
457
100
AcDbEntity
  8
RACCORDO
100
AcDbLine
 62
253
  6
CONTINUOUS
 10
101.7123425383
 20
88.1135404331
 11
101.7123425383
 21
90.0501991321
  0
LINE
  5
458
100
AcDbEntity
  8
RACCORDO
100
AcDbLine
 62
253
  6
CONTINUOUS
 10
101.7102651821
 20
87.8196946721
 11
101.7106642929
 21
87.9101884611
  0
LINE
  5
459
100
AcDbEntity
  8
RACCORDO
100
AcDbLine
 62
253
  6
CONTINUOUS
 10
101.7106642929
 20
87.9101884611
 11
101.7113720417
 21
88.0095835618
  0
LINE
  5
45A
100
AcDbEntity
  8
RACCORDO
100
AcDbLine
 62
253
  6
CONTINUOUS
 10
101.7113720417
 20
88.0095835618
 11
101.7123425383
 21
88.1135404331
  0
LWPOLYLINE
  5
45B
100
AcDbEntity
  8
26814000
100
AcDbPolyline
 62
7
  6
CONTINUOUS
 90
6
 70
0
 10
118.3360498579
 20
127.6013583238
 10
118.3386378772
 20
127.6041431603
 10
118.3411759936
 20
127.6069453576
 10
118.3436642068
 20
127.6097649156
 10
118.346102517
 20
127.6126018343
 10
118.3484909241
 20
127.6154561137
  0
LINE
  5
45C
100
AcDbEntity
  8
26814000
100
AcDbLine
 62
7
  6
CONTINUOUS
 10
118.3360498579
 20
127.6013583238
 11
118.3222056617
 21
127.5868895355
  0
LINE
  5
45D
100
AcDbEntity
  8
21814000
100
AcDbLine
 62
7
  6
CONTINUOUS
 10
111.0184605614
 20
120.7637838449
 11
111.2725621709
 21
121.0178854545
  0
LINE
  5
45E
100
AcDbEntity
  8
21814000
100
AcDbLine
 62
7
  6
CONTINUOUS
 10
111.0184605614
 20
120.3437624169
 11
111.9164847632
 21
121.2417866187
  0
LINE
  5
45F
100
AcDbEntity
  8
21814000
100
AcDbLine
 62
7
  6
CONTINUOUS
 10
111.214355362
 20
120.1196357895
 11
111.6218217335
 21
120.527102161
  0
LINE
  5
460
100
AcDbEntity
  8
21814000
100
AcDbLine
 62
7
  6
CONTINUOUS
 10
111.6701028339
 20
120.5753832614
 11
112.5604073554
 21
121.4656877829
  0
LINE
  5
461
100
AcDbEntity
  8
21814000
100
AcDbLine
 62
7
  6
CONTINUOUS
 10
111.5228221191
 20
120.0080811186
 11
111.9342638135
 21
120.4195228129
  0
LINE
  5
462
100
AcDbEntity
  8
21814000
100
AcDbLine
 62
7
  6
CONTINUOUS
 10
112.2891141101
 20
120.7743731096
 11
113.2043299476
 21
121.6895889471
  0
LINE
  5
463
100
AcDbEntity
  8
21814000
100
AcDbLine
 62
7
  6
CONTINUOUS
 10
111.8312888763
 20
119.8965264477
 11
112.2467058935
 21
120.3119434649
  0
LINE
  5
464
100
AcDbEntity
  8
21814000
100
AcDbLine
 62
7
  6
CONTINUOUS
 10
112.8213402613
 20
120.8865778327
 11
113.8482525398
 21
121.9134901113
  0
LINE
  5
465
100
AcDbEntity
  8
21814000
100
AcDbLine
 62
7
  6
CONTINUOUS
 10
111.0184605614
 20
118.6636767048
 11
111.2035775198
 21
118.8487936633
  0
LINE
  5
466
100
AcDbEntity
  8
21814000
100
AcDbLine
 62
7
  6
CONTINUOUS
 10
112.1397556334
 20
119.7849717769
 11
112.5591479734
 21
120.2043641169
  0
LINE
  5
467
100
AcDbEntity
  8
21814000
100
AcDbLine
 62
7
  6
CONTINUOUS
 10
112.8213402613
 20
120.4665564047
 11
113.303126471
 21
120.9483426144
  0
LINE
  5
468
100
AcDbEntity
  8
21814000
100
AcDbLine
 62
7
  6
CONTINUOUS
 10
113.5362568236
 20
121.1814729671
 11
113.9175782603
 21
121.5627944037
  0
LINE
  5
469
100
AcDbEntity
  8
21814000
100
AcDbLine
 62
7
  6
CONTINUOUS
 10
111.0411549479
 20
118.2663496633
 11
111.6235989479
 21
118.8487936633
  0
LINE
  5
46A
100
AcDbEntity
  8
21814000
100
AcDbLine
 62
7
  6
CONTINUOUS
 10
112.4482223906
 20
119.673417106
 11
113.303126471
 21
120.5283211864
  0
LINE
  5
46B
100
AcDbEntity
  8
21814000
100
AcDbLine
 62
253
  6
CONTINUOUS
 10
115.6892548548
 20
120.3233098843
 11
115.9606420702
 21
120.4590241053
  0
LINE
  5
46C
100
AcDbEntity
  8
21814000
100
AcDbLine
 62
253
  6
CONTINUOUS
 10
117.0461910166
 20
119.6447383263
 11
116.7748037729
 21
119.5090241053
  0
LINE
  5
46D
100
AcDbEntity
  8
21814000
100
AcDbLine
 62
253
  6
CONTINUOUS
 10
115.6892548548
 20
118.8304527738
 11
115.9606420702
 21
118.9661669948
  0
LINE
  5
46E
100
AcDbEntity
  8
21814000
100
AcDbLine
 62
253
  6
CONTINUOUS
 10
111.0184605614
 20
117.1537346633
 11
113.3158745869
 21
118.2663496633
  0
LINE
  5
46F
100
AcDbEntity
  8
21814000
100
AcDbLine
 62
253
  6
CONTINUOUS
 10
113.9175782603
 20
117.9651416633
 11
111.4912135233
 21
116.8123656633
  0
LINE
  5
470
100
AcDbEntity
  8
21814000
100
AcDbLine
 62
253
  6
CONTINUOUS
 10
111.0183236031
 20
93.9266106633
 11
113.9175712624
 21
93.9266106633
  0
LINE
  5
471
100
AcDbEntity
  8
21814000
100
AcDbLine
 62
253
  6
CONTINUOUS
 10
127.4861021386
 20
94.3947385647
 11
127.3004161491
 21
94.3947385647
  0
LINE
  5
472
100
AcDbEntity
  8
21814000
100
AcDbLine
 62
253
  6
CONTINUOUS
 10
113.9175712624
 20
94.5066326633
 11
112.0057117664
 21
94.5066326633
  0
LINE
  5
473
100
AcDbEntity
  8
21814000
100
AcDbLine
 62
253
  6
CONTINUOUS
 10
127.4861021386
 20
95.4161672689
 11
127.3004161491
 21
95.4161672689
  0
LINE
  5
474
100
AcDbEntity
  8
21814000
100
AcDbLine
 62
253
  6
CONTINUOUS
 10
111.0183236031
 20
95.8865836633
 11
112.90641734
 21
95.3450156633
  0
LWPOLYLINE
  5
475
100
AcDbEntity
  8
26814000
100
AcDbPolyline
 62
7
  6
CONTINUOUS
 90
7
 70
0
 10
118.3222056617
 20
84.2883017911
 10
118.3360498579
 20
84.2738330028
 10
118.3386378772
 20
84.2710481662
 10
118.3411759936
 20
84.2682459689
 10
118.3436642068
 20
84.265426411
 10
118.346102517
 20
84.2625894923
 10
118.3484909241
 20
84.2597352128
  0
LINE
  5
476
100
AcDbEntity
  8
RACCORDO
100
AcDbLine
 62
7
  6
CONTINUOUS
 10
104.9175782603
 20
130.1875956633
 11
104.9175782603
 21
129.7819332306
  0
LINE
  5
477
100
AcDbEntity
  8
RACCORDO
100
AcDbLine
 62
7
  6
CONTINUOUS
 10
104.9175782603
 20
82.093258096
 11
104.9175782603
 21
81.6875956633
  0
LINE
  5
478
100
AcDbEntity
  8
26814000
100
AcDbLine
 62
7
  6
CONTINUOUS
 10
104.9175782603
 20
83.5594128327
 11
104.9175782603
 21
83.9375956633
  0
LINE
  5
479
100
AcDbEntity
  8
26814000
100
AcDbLine
 62
7
  6
CONTINUOUS
 10
104.9175782603
 20
127.9375956633
 11
104.9175782603
 21
128.3157784938
  0
LINE
  5
47A
100
AcDbEntity
  8
RACCORDO
100
AcDbLine
 62
253
  6
CONTINUOUS
 10
105.1675782603
 20
130.4375956633
 11
105.1675782603
 21
129.7819332306
  0
LINE
  5
47B
100
AcDbEntity
  8
RACCORDO
100
AcDbLine
 62
253
  6
CONTINUOUS
 10
105.1675782603
 20
82.093258096
 11
105.1675782603
 21
81.4375956633
  0
LWPOLYLINE
  5
47C
100
AcDbEntity
  8
RACCORDO
100
AcDbPolyline
 62
253
  6
CONTINUOUS
 90
12
 70
0
 10
105.7584569266
 20
128.3232718015
 10
105.7572247685
 20
128.2995180712
 10
105.7559570936
 20
128.2710206622
 10
105.7546687561
 20
128.2380904027
 10
105.7533728163
 20
128.2010891428
 10
105.7520835665
 20
128.1604222823
 10
105.7508150682
 20
128.1165354022
 10
105.7495811774
 20
128.0699093733
 10
105.7483955327
 20
128.021055066
 10
105.7472711223
 20
127.9705077799
 10
105.7462201423
 20
127.9188213811
 10
105.745254042
 20
127.8665622171
  0
LWPOLYLINE
  5
47D
100
AcDbEntity
  8
RACCORDO
100
AcDbPolyline
 62
253
  6
CONTINUOUS
 90
13
 70
0
 10
106.1642985283
 20
128.3715492391
 10
106.1630089831
 20
128.3517456345
 10
106.1616478588
 20
128.3272811049
 10
106.1602292554
 20
128.2984090805
 10
106.1587678684
 20
128.2654286493
 10
106.1572788363
 20
128.2286814587
 10
106.1557775843
 20
128.1885481761
 10
106.154279664
 20
128.1454445458
 10
106.1528005923
 20
128.0998170824
 10
106.1513556912
 20
128.0521384448
 10
106.1499599286
 20
128.0029025405
 10
106.1486277631
 20
127.9526194087
 10
106.147372995
 20
127.9018099369
  0
LINE
  5
47E
100
AcDbEntity
  8
290140000
100
AcDbLine
 62
7
  6
CONTINUOUS
 10
105.6370082054
 20
127.3908986494
 11
101.0691143606
 21
83.9302918218
  0
LINE
  5
47F
100
AcDbEntity
  8
28414000
100
AcDbLine
 62
7
  6
CONTINUOUS
 10
102.6131614353
 20
84.2707600746
 11
102.7412657489
 21
85.4895912026
  0
LINE
  5
480
100
AcDbEntity
  8
DRAFT
100
AcDbLine
 62
7
  6
CONTINUOUS
 10
106.0675782603
 20
125.8912444118
 11
103.6175782603
 21
105.9375956633
  0
LINE
  5
481
100
AcDbEntity
  8
21814000
100
AcDbLine
 62
7
  6
CONTINUOUS
 10
111.4611763759
 20
118.2663496633
 11
112.0436203759
 21
118.8487936633
  0
LINE
  5
482
100
AcDbEntity
  8
21814000
100
AcDbLine
 62
7
  6
CONTINUOUS
 10
112.7566891477
 20
119.5618624351
 11
113.303126471
 21
120.1082997584
  0
LINE
  5
483
100
AcDbEntity
  8
21814000
100
AcDbLine
 62
7
  6
CONTINUOUS
 10
111.8811978039
 20
118.2663496633
 11
112.4636418039
 21
118.8487936633
  0
LINE
  5
484
100
AcDbEntity
  8
21814000
100
AcDbLine
 62
7
  6
CONTINUOUS
 10
113.0651559049
 20
119.4503077642
 11
113.4990951527
 21
119.884247012
  0
LINE
  5
485
100
AcDbEntity
  8
21814000
100
AcDbLine
 62
7
  6
CONTINUOUS
 10
111.0184605614
 20
116.9835909927
 11
111.3483818785
 21
117.3135123099
  0
LINE
  5
486
100
AcDbEntity
  8
21814000
100
AcDbLine
 62
7
  6
CONTINUOUS
 10
112.3012192319
 20
118.2663496633
 11
112.8836632319
 21
118.8487936633
  0
LINE
  5
487
100
AcDbEntity
  8
21814000
100
AcDbLine
 62
7
  6
CONTINUOUS
 10
113.373622662
 20
119.3387530934
 11
113.8095115463
 21
119.7746419776
  0
LINE
  5
488
100
AcDbEntity
  8
21814000
100
AcDbLine
 62
7
  6
CONTINUOUS
 10
111.0184605614
 20
116.5635695647
 11
112.1628348777
 21
117.707943881
  0
LINE
  5
489
100
AcDbEntity
  8
21814000
100
AcDbLine
 62
7
  6
CONTINUOUS
 10
112.72124066
 20
118.2663496633
 11
113.30368466
 21
118.8487936633
  0
LINE
  5
48A
100
AcDbEntity
  8
21814000
100
AcDbLine
 62
7
  6
CONTINUOUS
 10
113.6820894192
 20
119.2271984225
 11
113.9175782603
 21
119.4626872636
  0
LINE
  5
48B
100
AcDbEntity
  8
21814000
100
AcDbLine
 62
7
  6
CONTINUOUS
 10
111.104833088
 20
116.2299206633
 11
111.687278088
 21
116.8123656633
  0
LINE
  5
48C
100
AcDbEntity
  8
21814000
100
AcDbLine
 62
7
  6
CONTINUOUS
 10
111.8647439512
 20
116.9898315265
 11
112.9772878769
 21
118.1023754522
  0
LINE
  5
48D
100
AcDbEntity
  8
21814000
100
AcDbLine
 62
7
  6
CONTINUOUS
 10
113.141262088
 20
118.2663496633
 11
113.723706088
 21
118.8487936633
  0
LINE
  5
48E
100
AcDbEntity
  8
21814000
100
AcDbLine
 62
7
  6
CONTINUOUS
 10
111.524854516
 20
116.2299206633
 11
112.107299516
 21
116.8123656633
  0
LINE
  5
48F
100
AcDbEntity
  8
21814000
100
AcDbLine
 62
7
  6
CONTINUOUS
 10
112.6649435385
 20
117.3700096858
 11
113.9175782603
 21
118.6226444075
  0
LINE
  5
490
100
AcDbEntity
  8
21814000
100
AcDbLine
 62
253
  6
CONTINUOUS
 10
115.4178676395
 20
120.0518814423
 11
115.6892548548
 21
120.3233098843
  0
LINE
  5
491
100
AcDbEntity
  8
21814000
100
AcDbLine
 62
7
  6
CONTINUOUS
 10
111.944875944
 20
116.2299206633
 11
112.527320944
 21
116.8123656633
  0
LINE
  5
492
100
AcDbEntity
  8
21814000
100
AcDbLine
 62
7
  6
CONTINUOUS
 10
113.4651431259
 20
117.7501878451
 11
113.9175782603
 21
118.2026229795
  0
LINE
  5
493
100
AcDbEntity
  8
21814000
100
AcDbLine
 62
253
  6
CONTINUOUS
 10
117.0461910166
 20
118.1518814423
 11
116.7748037729
 21
118.0161669948
  0
LINE
  5
494
100
AcDbEntity
  8
21814000
100
AcDbLine
 62
253
  6
CONTINUOUS
 10
113.9175782603
 20
115.9126696633
 11
111.0184605614
 21
114.9044956633
  0
LINE
  5
495
100
AcDbEntity
  8
21814000
100
AcDbLine
 62
253
  6
CONTINUOUS
 10
113.303126471
 20
115.0771446633
 11
113.9175782603
 21
115.2860266633
  0
LINE
  5
496
100
AcDbEntity
  8
21814000
100
AcDbLine
 62
253
  6
CONTINUOUS
 10
111.5724517717
 20
114.5190666633
 11
112.8213402613
 21
114.9205386633
  0
LINE
  5
497
100
AcDbEntity
  8
21814000
100
AcDbLine
 62
253
  6
CONTINUOUS
 10
123.3598201787
 20
95.9548366633
 11
124.1641721093
 21
95.9548366633
  0
LINE
  5
498
100
AcDbEntity
  8
21814000
100
AcDbLine
 62
253
  6
CONTINUOUS
 10
112.0057117664
 20
96.1833906633
 11
113.9175712624
 21
96.1833986633
  0
LINE
  5
499
100
AcDbEntity
  8
21814000
100
AcDbLine
 62
253
  6
CONTINUOUS
 10
127.4861021386
 20
96.4375956633
 11
127.3004161491
 21
96.4375956633
  0
LINE
  5
49A
100
AcDbEntity
  8
21814000
100
AcDbLine
 62
253
  6
CONTINUOUS
 10
113.9175712624
 20
96.7634196633
 11
111.0183236031
 21
96.7634196633
  0
LINE
  5
49B
100
AcDbEntity
  8
21814000
100
AcDbLine
 62
253
  6
CONTINUOUS
 10
127.7646311615
 20
96.8090240576
 11
128.2288461545
 21
96.8090240576
  0
LINE
  5
49C
100
AcDbEntity
  8
21814000
100
AcDbLine
 62
253
  6
CONTINUOUS
 10
122.8484809731
 20
96.8858716633
 11
121.9866755474
 21
96.8858716633
  0
LINE
  5
49D
100
AcDbEntity
  8
21814000
100
AcDbLine
 62
253
  6
CONTINUOUS
 10
122.1877632801
 20
97.4433426633
 11
122.6473932404
 21
97.4433426633
  0
LINE
  5
49E
100
AcDbEntity
  8
21814000
100
AcDbLine
 62
253
  6
CONTINUOUS
 10
128.2288461545
 20
97.4590240576
 11
127.8574741563
 21
97.4590240576
  0
LWPOLYLINE
  5
49F
100
AcDbEntity
  8
21814000
100
AcDbPolyline
 62
253
  6
CONTINUOUS
 90
22
 70
0
 10
130.2170022891
 20
94.1249251794
 10
130.3658120777
 20
94.098801967
 10
130.5113474097
 20
94.0630128222
 10
130.6536082851
 20
94.0175577448
 10
130.7932828938
 20
93.9621263203
 10
130.9296830458
 20
93.8970289632
 10
131.060744171
 20
93.8231969174
 10
131.1863281942
 20
93.7405220791
 10
131.3065731907
 20
93.649112552
 10
131.4198288155
 20
93.5502238916
 10
131.5260044445
 20
93.4437482387
 10
131.6251907019
 20
93.3297934525
 10
131.7160091159
 20
93.2099386659
 10
131.7983419356
 20
93.084102506
 10
131.872306912
 20
92.9523663458
 10
131.9368788258
 20
92.8165534372
 10
131.9919270276
 20
92.6766091138
 10
132.0375821668
 20
92.5325880421
 10
132.0732109726
 20
92.3864774731
 10
132.0986023548
 20
92.2389398239
 10
132.1139674036
 20
92.0893126775
 10
132.1193061189
 20
91.9375960338
  0
LINE
  5
4A0
100
AcDbEntity
  8
21814000
100
AcDbLine
 62
253
  6
CONTINUOUS
 10
128.4145321634
 20
92.816166959
 11
127.1147301597
 21
93.0947385647
  0
LINE
  5
4A1
100
AcDbEntity
  8
21814000
100
AcDbLine
 62
253
  6
CONTINUOUS
 10
113.9175632648
 20
95.6350156633
 11
112.0057117664
 21
96.1833906633
  0
LINE
  5
4A2
100
AcDbEntity
  8
21814000
100
AcDbLine
 62
253
  6
CONTINUOUS
 10
128.4145321634
 20
92.2590242126
 11
127.4861021386
 21
92.5375956633
  0
LINE
  5
4A3
100
AcDbEntity
  8
21814000
100
AcDbLine
 62
253
  6
CONTINUOUS
 10
113.9175712624
 20
97.1500986633
 11
111.0183166052
 21
98.0812236633
  0
LINE
  5
4A4
100
AcDbEntity
  8
DRAFT
100
AcDbLine
 62
7
  6
CONTINUOUS
 10
103.6175782603
 20
105.9375956633
 11
106.0675782603
 21
85.9839469147
  0
LWPOLYLINE
  5
4A5
100
AcDbEntity
  8
RACCORDO
100
AcDbPolyline
 62
253
  6
CONTINUOUS
 90
13
 70
0
 10
106.1473729951
 20
83.9733813896
 10
106.1486277632
 20
83.9225719178
 10
106.1499599287
 20
83.872288786
 10
106.1513556913
 20
83.8230528817
 10
106.1528005924
 20
83.7753742441
 10
106.154279664
 20
83.7297467807
 10
106.1557775843
 20
83.6866431505
 10
106.1572788363
 20
83.6465098679
 10
106.1587678683
 20
83.6097626772
 10
106.1602292553
 20
83.5767822461
 10
106.1616478587
 20
83.5479102217
 10
106.163008983
 20
83.523445692
 10
106.1642985284
 20
83.5036420874
  0
LWPOLYLINE
  5
4A6
100
AcDbEntity
  8
RACCORDO
100
AcDbPolyline
 62
253
  6
CONTINUOUS
 90
13
 70
0
 10
107.1471695196
 20
83.9969301956
 10
107.1484334773
 20
83.9450258716
 10
107.1497784804
 20
83.8936827039
 10
107.1511900073
 20
83.8434557774
 10
107.1526528135
 20
83.7948881088
 10
107.1541510966
 20
83.7485047759
 10
107.1556686672
 20
83.7048072412
 10
107.1571891242
 20
83.6642679302
 10
107.158696032
 20
83.6273251239
 10
107.160173099
 20
83.5943782205
 10
107.1616043536
 20
83.5657834176
 10
107.1629743172
 20
83.5418498607
 10
107.1642681719
 20
83.5228363016
  0
LWPOLYLINE
  5
4A7
100
AcDbEntity
  8
RACCORDO
100
AcDbPolyline
 62
253
  6
CONTINUOUS
 90
15
 70
0
 10
105.7452540465
 20
84.0086291075
 10
105.7462201862
 20
83.9563699157
 10
105.7472712004
 20
83.9046834941
 10
105.7483956401
 20
83.8541361907
 10
105.7495813092
 20
83.8052818716
 10
105.7508152192
 20
83.7586558368
 10
105.7520837309
 20
83.7147689568
 10
105.7533729882
 20
83.6741021019
 10
105.7546689297
 20
83.6371008521
 10
105.755957263
 20
83.6041706059
 10
105.7572238471
 20
83.5756731937
 10
105.7584549086
 20
83.5519194602
 10
105.7596370372
 20
83.5331677404
 10
105.7607572952
 20
83.5196248841
 10
105.7618033757
 20
83.5114420261
  0
LWPOLYLINE
  5
4A8
100
AcDbEntity
  8
RACCORDO
100
AcDbPolyline
 62
253
  6
CONTINUOUS
 90
16
 70
0
 10
107.5306476943
 20
84.0397978583
 10
107.5316074942
 20
83.9875315768
 10
107.5326524165
 20
83.9358381546
 10
107.5337710078
 20
83.8852841733
 10
107.5349510073
 20
83.8364237255
 10
107.5361794812
 20
83.7897923421
 10
107.5374429642
 20
83.7459011224
 10
107.5387276074
 20
83.7052311326
 10
107.5400193301
 20
83.6682281328
 10
107.5413039738
 20
83.6352976911
 10
107.5425674576
 20
83.606800739
 10
107.5437959327
 20
83.5830496149
 10
107.5449759338
 20
83.564304641
 10
107.546094527
 20
83.5507712701
 10
107.5471394516
 20
83.5425978336
 10
107.548099254
 20
83.5398739157
  0
LINE
  5
4A9
100
AcDbEntity
  8
RACCORDO
100
AcDbLine
 62
253
  6
CONTINUOUS
 10
106.1642985284
 20
83.5036420874
 11
106.1675782603
 21
83.3157463665
  0
LINE
  5
4AA
100
AcDbEntity
  8
RACCORDO
100
AcDbLine
 62
253
  6
CONTINUOUS
 10
107.1642681275
 20
83.5228388086
 11
107.1675782603
 21
83.3332014314
  0
LINE
  5
4AB
100
AcDbEntity
  8
RACCORDO
100
AcDbLine
 62
7
  6
CONTINUOUS
 10
105.4175782603
 20
83.5026855334
 11
105.4175782603
 21
84.0327856987
  0
LINE
  5
4AC
100
AcDbEntity
  8
RACCORDO
100
AcDbLine
 62
7
  6
CONTINUOUS
 10
105.4175782603
 20
127.8424056279
 11
105.4175782603
 21
128.3725057931
  0
LINE
  5
4AD
100
AcDbEntity
  8
RACCORDO
100
AcDbLine
 62
7
  6
CONTINUOUS
 10
105.9175782603
 20
128.9159078268
 11
105.9175782603
 21
128.5672997393
  0
LINE
  5
4AE
100
AcDbEntity
  8
RACCORDO
100
AcDbLine
 62
7
  6
CONTINUOUS
 10
105.9175782603
 20
83.3078915873
 11
105.9175782603
 21
82.9592834998
  0
LINE
  5
4AF
100
AcDbEntity
  8
DRAFT
100
AcDbLine
 62
7
  6
CONTINUOUS
 10
106.0675782603
 20
127.7625956633
 11
106.0675782603
 21
125.8912444118
  0
LINE
  5
4B0
100
AcDbEntity
  8
DRAFT
100
AcDbLine
 62
7
  6
CONTINUOUS
 10
106.0675782603
 20
85.9839469147
 11
106.0675782603
 21
84.1125956633
  0
LINE
  5
4B1
100
AcDbEntity
  8
RACCORDO
100
AcDbLine
 62
253
  6
CONTINUOUS
 10
106.1675782603
 20
128.9159078268
 11
106.1675782603
 21
128.55944496
  0
LINE
  5
4B2
100
AcDbEntity
  8
RACCORDO
100
AcDbLine
 62
253
  6
CONTINUOUS
 10
106.1675782603
 20
83.3157463665
 11
106.1675782603
 21
82.9592834998
  0
LINE
  5
4B3
100
AcDbEntity
  8
RACCORDO
100
AcDbLine
 62
253
  6
CONTINUOUS
 10
107.1675782603
 20
82.9592834998
 11
107.1675782603
 21
83.3332014314
  0
LINE
  5
4B4
100
AcDbEntity
  8
RACCORDO
100
AcDbLine
 62
253
  6
CONTINUOUS
 10
107.1675782603
 20
128.5419898951
 11
107.1675782603
 21
128.9159078268
  0
LINE
  5
4B5
100
AcDbEntity
  8
RACCORDO
100
AcDbLine
 62
253
  6
CONTINUOUS
 10
106.1642985283
 20
128.3715492391
 11
106.1675782603
 21
128.55944496
  0
LINE
  5
4B6
100
AcDbEntity
  8
RACCORDO
100
AcDbLine
 62
253
  6
CONTINUOUS
 10
107.1642681274
 20
128.3523525179
 11
107.1675782603
 21
128.5419898951
  0
LWPOLYLINE
  5
4B7
100
AcDbEntity
  8
RACCORDO
100
AcDbPolyline
 62
253
  6
CONTINUOUS
 90
13
 70
0
 10
107.1642681474
 20
128.3523536568
 10
107.1629797818
 20
128.3333400589
 10
107.1616144065
 20
128.3094064915
 10
107.1601867763
 20
128.2808117068
 10
107.1587123208
 20
128.247864851
 10
107.1572069779
 20
128.2109221214
 10
107.1556870222
 20
128.170382916
 10
107.1541688891
 20
128.1266855148
 10
107.1526689973
 20
128.0803023423
 10
107.1512035716
 20
128.031734859
 10
107.1497884675
 20
127.9815081411
 10
107.1484390003
 20
127.9301652025
 10
107.1471697792
 20
127.8782611254
  0
LINE
  5
4B8
100
AcDbEntity
  8
21814000
100
AcDbLine
 62
7
  6
CONTINUOUS
 10
111.0184605614
 20
114.8834838526
 11
111.0506750119
 21
114.9156983031
  0
LINE
  5
4B9
100
AcDbEntity
  8
21814000
100
AcDbLine
 62
7
  6
CONTINUOUS
 10
112.3648973721
 20
116.2299206633
 11
112.9473423721
 21
116.8123656633
  0
LINE
  5
4BA
100
AcDbEntity
  8
21814000
100
AcDbLine
 62
7
  6
CONTINUOUS
 10
111.0184605614
 20
114.4634624246
 11
111.6946347219
 21
115.139636585
  0
LINE
  5
4BB
100
AcDbEntity
  8
21814000
100
AcDbLine
 62
7
  6
CONTINUOUS
 10
112.7849188001
 20
116.2299206633
 11
113.3673638001
 21
116.8123656633
  0
LINE
  5
4BC
100
AcDbEntity
  8
21814000
100
AcDbLine
 62
253
  6
CONTINUOUS
 10
115.4178676395
 20
118.5590243318
 11
115.6892548548
 21
118.8304527738
  0
LINE
  5
4BD
100
AcDbEntity
  8
21814000
100
AcDbLine
 62
7
  6
CONTINUOUS
 10
111.1080634057
 20
114.1330438408
 11
112.3385944318
 21
115.363574867
  0
LINE
  5
4BE
100
AcDbEntity
  8
21814000
100
AcDbLine
 62
7
  6
CONTINUOUS
 10
113.2049402281
 20
116.2299206633
 11
113.7873852281
 21
116.8123656633
  0
LINE
  5
4BF
100
AcDbEntity
  8
21814000
100
AcDbLine
 62
7
  6
CONTINUOUS
 10
111.4165386804
 20
114.0214976876
 11
111.8265998535
 21
114.4315588607
  0
LINE
  5
4C0
100
AcDbEntity
  8
21814000
100
AcDbLine
 62
7
  6
CONTINUOUS
 10
112.0759705334
 20
114.6809295405
 11
112.9825541418
 21
115.5875131489
  0
LINE
  5
4C1
100
AcDbEntity
  8
21814000
100
AcDbLine
 62
7
  6
CONTINUOUS
 10
113.6249616561
 20
116.2299206633
 11
113.9175782603
 21
116.5225372674
  0
LINE
  5
4C2
100
AcDbEntity
  8
21814000
100
AcDbLine
 62
253
  6
CONTINUOUS
 10
117.3175782603
 20
119.9161672213
 11
117.0461910166
 21
119.6447383263
  0
LINE
  5
4C3
100
AcDbEntity
  8
21814000
100
AcDbLine
 62
7
  6
CONTINUOUS
 10
111.7250139552
 20
113.9099515343
 11
112.1390418313
 21
114.3239794105
  0
LINE
  5
4C4
100
AcDbEntity
  8
21814000
100
AcDbLine
 62
7
  6
CONTINUOUS
 10
112.6949812953
 20
114.8799188744
 11
113.6265138518
 21
115.8114514309
  0
LINE
  5
4C5
100
AcDbEntity
  8
21814000
100
AcDbLine
 62
7
  6
CONTINUOUS
 10
112.03348923
 20
113.798405381
 11
112.4514838092
 21
114.2163999602
  0
LINE
  5
4C6
100
AcDbEntity
  8
21814000
100
AcDbLine
 62
7
  6
CONTINUOUS
 10
112.8213402613
 20
114.5862564124
 11
113.303126471
 21
115.0680426221
  0
LINE
  5
4C7
100
AcDbEntity
  8
21814000
100
AcDbLine
 62
7
  6
CONTINUOUS
 10
113.3169163677
 20
115.0818325188
 11
113.9175782603
 21
115.6824944113
  0
LINE
  5
4C8
100
AcDbEntity
  8
21814000
100
AcDbLine
 62
7
  6
CONTINUOUS
 10
112.3419645047
 20
113.6868592278
 11
112.763925787
 21
114.10882051
  0
LINE
  5
4C9
100
AcDbEntity
  8
21814000
100
AcDbLine
 62
7
  6
CONTINUOUS
 10
112.8213402613
 20
114.1662349843
 11
113.303126471
 21
114.648021194
  0
LINE
  5
4CA
100
AcDbEntity
  8
21814000
100
AcDbLine
 62
253
  6
CONTINUOUS
 10
128.4175782603
 20
119.8275416633
 11
127.1179742227
 21
119.2572086633
  0
LINE
  5
4CB
100
AcDbEntity
  8
21814000
100
AcDbLine
 62
253
  6
CONTINUOUS
 10
122.8484809731
 20
98.3916186633
 11
121.9866755474
 21
98.3916186633
  0
LINE
  5
4CC
100
AcDbEntity
  8
21814000
100
AcDbLine
 62
253
  6
CONTINUOUS
 10
127.4861021386
 20
98.4804530718
 11
127.3004161491
 21
98.4804530718
  0
LINE
  5
4CD
100
AcDbEntity
  8
21814000
100
AcDbLine
 62
253
  6
CONTINUOUS
 10
124.1641721093
 20
99.9203546633
 11
123.3598201787
 21
99.9203546633
  0
LINE
  5
4CE
100
AcDbEntity
  8
21814000
100
AcDbLine
 62
253
  6
CONTINUOUS
 10
113.9175632648
 20
99.9790926633
 11
111.0183166052
 21
99.9790926633
  0
LINE
  5
4CF
100
AcDbEntity
  8
21814000
100
AcDbLine
 62
253
  6
CONTINUOUS
 10
111.9212824902
 20
98.3712456633
 11
112.7965548129
 21
98.0901556633
  0
LINE
  5
4D0
100
AcDbEntity
  8
21814000
100
AcDbLine
 62
253
  6
CONTINUOUS
 10
113.347408979
 20
97.9132336633
 11
113.9175632648
 21
97.7301206633
  0
LINE
  5
4D1
100
AcDbEntity
  8
RACCORDO
100
AcDbLine
 62
7
  6
CONTINUOUS
 10
107.4175782603
 20
82.9592834998
 11
107.4175782603
 21
83.3410562106
  0
LINE
  5
4D2
100
AcDbEntity
  8
RACCORDO
100
AcDbLine
 62
7
  6
CONTINUOUS
 10
107.4175782603
 20
128.5341351159
 11
107.4175782603
 21
128.9159078268
  0
LINE
  5
4D3
100
AcDbEntity
  8
RACCORDO
100
AcDbLine
 62
253
  6
CONTINUOUS
 10
108.1675782603
 20
130.4375956633
 11
108.1675782603
 21
129.7819332306
  0
LINE
  5
4D4
100
AcDbEntity
  8
RACCORDO
100
AcDbLine
 62
253
  6
CONTINUOUS
 10
108.1675782603
 20
82.093258096
 11
108.1675782603
 21
81.4375956633
  0
LINE
  5
4D5
100
AcDbEntity
  8
RACCORDO
100
AcDbLine
 62
7
  6
CONTINUOUS
 10
108.4175782603
 20
130.1875956633
 11
108.4175782603
 21
129.7819332306
  0
LINE
  5
4D6
100
AcDbEntity
  8
RACCORDO
100
AcDbLine
 62
7
  6
CONTINUOUS
 10
108.4175782603
 20
82.093258096
 11
108.4175782603
 21
81.6875956633
  0
LINE
  5
4D7
100
AcDbEntity
  8
RACCORDO
100
AcDbLine
 62
7
  6
CONTINUOUS
 10
108.4175782603
 20
83.5550507282
 11
108.4175782603
 21
128.3201405983
  0
LINE
  5
4D8
100
AcDbEntity
  8
ASSI
100
AcDbLine
 62
7
  6
CONTINUOUS
 10
108.6175782603
 20
120.7662086633
 11
108.6175782603
 21
118.6607646633
  0
LINE
  5
4D9
100
AcDbEntity
  8
ASSI
100
AcDbLine
 62
7
  6
CONTINUOUS
 10
108.6175782603
 20
118.3274266633
 11
108.6175782603
 21
117.8274086633
  0
LINE
  5
4DA
100
AcDbEntity
  8
ASSI
100
AcDbLine
 62
7
  6
CONTINUOUS
 10
108.6175782603
 20
117.3274016633
 11
108.6175782603
 21
114.8818766633
  0
LINE
  5
4DB
100
AcDbEntity
  8
ASSI
100
AcDbLine
 62
7
  6
CONTINUOUS
 10
108.6175782603
 20
114.5485326633
 11
108.6175782603
 21
112.4430896633
  0
LINE
  5
4DC
100
AcDbEntity
  8
ASSI
100
AcDbLine
 62
7
  6
CONTINUOUS
 10
108.6175782603
 20
112.1097456633
 11
108.6175782603
 21
110.1089826633
  0
LINE
  5
4DD
100
AcDbEntity
  8
21814000
100
AcDbLine
 62
253
  6
CONTINUOUS
 10
117.3175782603
 20
118.4233098843
 11
117.0461910166
 21
118.1518814423
  0
LINE
  5
4DE
100
AcDbEntity
  8
21814000
100
AcDbLine
 62
7
  6
CONTINUOUS
 10
112.6504397795
 20
113.5753130745
 11
113.303126471
 21
114.227999766
  0
LINE
  5
4DF
100
AcDbEntity
  8
21814000
100
AcDbLine
 62
7
  6
CONTINUOUS
 10
111.0184605614
 20
111.5233124284
 11
111.2264827963
 21
111.7313346633
  0
LINE
  5
4E0
100
AcDbEntity
  8
21814000
100
AcDbLine
 62
7
  6
CONTINUOUS
 10
112.9589150542
 20
113.4637669213
 11
113.392141307
 21
113.896993174
  0
LINE
  5
4E1
100
AcDbEntity
  8
21814000
100
AcDbLine
 62
7
  6
CONTINUOUS
 10
111.0238982243
 20
111.1087286633
 11
111.6465042243
 21
111.7313346633
  0
LINE
  5
4E2
100
AcDbEntity
  8
21814000
100
AcDbLine
 62
7
  6
CONTINUOUS
 10
113.267390329
 20
113.352220768
 11
113.7025984024
 21
113.7874288413
  0
LINE
  5
4E3
100
AcDbEntity
  8
21814000
100
AcDbLine
 62
7
  6
CONTINUOUS
 10
111.4439196523
 20
111.1087286633
 11
112.0665256523
 21
111.7313346633
  0
LINE
  5
4E4
100
AcDbEntity
  8
21814000
100
AcDbLine
 62
7
  6
CONTINUOUS
 10
113.5758656038
 20
113.2406746147
 11
113.9175782603
 21
113.5823872712
  0
LINE
  5
4E5
100
AcDbEntity
  8
21814000
100
AcDbLine
 62
7
  6
CONTINUOUS
 10
111.8639410803
 20
111.1087286633
 11
112.4865470803
 21
111.7313346633
  0
LINE
  5
4E6
100
AcDbEntity
  8
21814000
100
AcDbLine
 62
7
  6
CONTINUOUS
 10
113.4357920505
 20
112.6805796335
 11
113.5595460803
 21
112.8043336633
  0
LINE
  5
4E7
100
AcDbEntity
  8
21814000
100
AcDbLine
 62
7
  6
CONTINUOUS
 10
113.8843408785
 20
113.1291284615
 11
113.9175782603
 21
113.1623658432
  0
LINE
  5
4E8
100
AcDbEntity
  8
21814000
100
AcDbLine
 62
7
  6
CONTINUOUS
 10
111.0364541009
 20
109.8612202558
 11
111.8937564483
 21
110.7185226032
  0
LINE
  5
4E9
100
AcDbEntity
  8
21814000
100
AcDbLine
 62
7
  6
CONTINUOUS
 10
112.2839625084
 20
111.1087286633
 11
112.9065685084
 21
111.7313346633
  0
LINE
  5
4EA
100
AcDbEntity
  8
21814000
100
AcDbLine
 62
7
  6
CONTINUOUS
 10
113.4357920505
 20
112.2605582054
 11
113.9175782603
 21
112.7423444152
  0
LINE
  5
4EB
100
AcDbEntity
  8
21814000
100
AcDbLine
 62
7
  6
CONTINUOUS
 10
111.0184606858
 20
109.4232054126
 11
112.2610341735
 21
110.6657789004
  0
LINE
  5
4EC
100
AcDbEntity
  8
21814000
100
AcDbLine
 62
7
  6
CONTINUOUS
 10
112.7039839364
 20
111.1087286633
 11
113.3265899364
 21
111.7313346633
  0
LINE
  5
4ED
100
AcDbEntity
  8
21814000
100
AcDbLine
 62
7
  6
CONTINUOUS
 10
113.4357920505
 20
111.8405367774
 11
113.9175782603
 21
112.3223229871
  0
LINE
  5
4EE
100
AcDbEntity
  8
21814000
100
AcDbLine
 62
253
  6
CONTINUOUS
 10
127.1179742227
 20
120.9854616633
 11
127.9146964779
 21
121.4611996633
  0
LINE
  5
4EF
100
AcDbEntity
  8
21814000
100
AcDbLine
 62
253
  6
CONTINUOUS
 10
123.4035658503
 20
102.7130976633
 11
121.4868318394
 21
102.4968586633
  0
LINE
  5
4F0
100
AcDbEntity
  8
21814000
100
AcDbLine
 62
253
  6
CONTINUOUS
 10
111.5546751879
 20
100.5511176633
 11
112.2601892324
 21
100.5511246633
  0
LINE
  5
4F1
100
AcDbEntity
  8
21814000
100
AcDbLine
 62
253
  6
CONTINUOUS
 10
112.796547815
 20
100.5591866633
 11
113.9175632648
 21
100.5591216633
  0
LWPOLYLINE
  5
4F2
100
AcDbEntity
  8
21814000
100
AcDbPolyline
 62
253
  6
CONTINUOUS
 90
51
 70
0
 10
122.4175773827
 20
101.3195602365
 10
122.3673559283
 20
101.3207788268
 10
122.3171470888
 20
101.3243913622
 10
122.2670606431
 20
101.3303329898
 10
122.2172063703
 20
101.3385388567
 10
122.1676940492
 20
101.3489441098
 10
122.1186334589
 20
101.3614838963
 10
122.0701343782
 20
101.3760933631
 10
122.0223065861
 20
101.3927076573
 10
121.9752598617
 20
101.411261926
 10
121.9232525189
 20
101.4344280889
 10
121.8723936421
 20
101.4598538044
 10
121.8226986495
 20
101.4874137004
 10
121.7741829594
 20
101.5169824048
 10
121.7268619903
 20
101.5484345456
 10
121.6807511604
 20
101.5816447508
 10
121.6358658881
 20
101.6164876482
 10
121.5922215917
 20
101.6528378658
 10
121.5437899679
 20
101.6961560323
 10
121.4969787077
 20
101.741173773
 10
121.4517613963
 20
101.7877793174
 10
121.4081116186
 20
101.8358608952
 10
121.3660029596
 20
101.8853067361
 10
121.3254090044
 20
101.9360050697
 10
121.2863033379
 20
101.9878441256
 10
121.242489975
 20
102.0496800636
 10
121.2006211167
 20
102.1128227994
 10
121.1606482577
 20
102.1771763342
 10
121.1225228926
 20
102.2426446692
 10
121.0861965159
 20
102.3091318055
 10
121.0516206222
 20
102.3765417444
 10
121.0187378863
 20
102.4448091761
 10
120.9875246646
 20
102.5138467941
 10
120.9579472926
 20
102.5835973977
 10
120.9299721061
 20
102.6540037859
 10
120.9035654404
 20
102.7250087581
 10
120.8786936312
 20
102.7965551134
 10
120.8508238301
 20
102.8830672914
 10
120.8250713013
 20
102.9702270298
 10
120.8013908887
 20
103.057984437
 10
120.7797374358
 20
103.1462896212
 10
120.7600657863
 20
103.2350926906
 10
120.7405078867
 20
103.3341624753
 10
120.7233172859
 20
103.4337113882
 10
120.7084762621
 20
103.533666844
 10
120.6959670937
 20
103.6339562576
 10
120.6857720591
 20
103.7345070441
 10
120.6778734366
 20
103.8352466183
 10
120.6722535044
 20
103.936102395
 10
120.668894541
 20
104.0370017892
 10
120.6677788247
 20
104.1378722158
  0
LINE
  5
4F3
100
AcDbEntity
  8
21814000
100
AcDbLine
 62
253
  6
CONTINUOUS
 10
111.0183166052
 20
98.0812236633
 11
111.0183166052
 21
98.6612746633
  0
LINE
  5
4F4
100
AcDbEntity
  8
21814000
100
AcDbLine
 62
253
  6
CONTINUOUS
 10
111.0183166052
 20
99.9790926633
 11
111.0183166052
 21
101.3373076633
  0
LINE
  5
4F5
100
AcDbEntity
  8
21814000
100
AcDbLine
 62
253
  6
CONTINUOUS
 10
111.0183236031
 20
96.7634196633
 11
111.0183236031
 21
95.8865836633
  0
LINE
  5
4F6
100
AcDbEntity
  8
21814000
100
AcDbLine
 62
253
  6
CONTINUOUS
 10
111.0183236031
 20
94.8034476633
 11
111.0183236031
 21
93.9266106633
  0
LINE
  5
4F7
100
AcDbEntity
  8
21814000
100
AcDbLine
 62
253
  6
CONTINUOUS
 10
111.0183236031
 20
93.3466106633
 11
111.0183236031
 21
92.7665896633
  0
LINE
  5
4F8
100
AcDbEntity
  8
21814000
100
AcDbLine
 62
253
  6
CONTINUOUS
 10
111.0183236031
 20
92.3799106633
 11
111.0183236031
 21
91.7998816633
  0
LINE
  5
4F9
100
AcDbEntity
  8
21814000
100
AcDbLine
 62
253
  6
CONTINUOUS
 10
111.0183236031
 20
90.5176246633
 11
111.0183236031
 21
90.1307041142
  0
LINE
  5
4FA
100
AcDbEntity
  8
21814000
100
AcDbLine
 62
253
  6
CONTINUOUS
 10
111.0184605614
 20
120.9295306633
 11
111.0184605614
 21
120.1904796633
  0
LINE
  5
4FB
100
AcDbEntity
  8
21814000
100
AcDbLine
 62
253
  6
CONTINUOUS
 10
111.0184605614
 20
114.9044956633
 11
111.0184605614
 21
114.1654446633
  0
LINE
  5
4FC
100
AcDbEntity
  8
21814000
100
AcDbLine
 62
253
  6
CONTINUOUS
 10
111.0184605614
 20
109.5258156633
 11
111.0184605614
 21
108.6383856633
  0
LINE
  5
4FD
100
AcDbEntity
  8
21814000
100
AcDbLine
 62
253
  6
CONTINUOUS
 10
111.0184605614
 20
111.1087286633
 11
111.0184605614
 21
111.7313346633
  0
LINE
  5
4FE
100
AcDbEntity
  8
21814000
100
AcDbLine
 62
253
  6
CONTINUOUS
 10
111.0184605614
 20
116.2299206633
 11
111.0184605614
 21
117.1537346633
  0
LINE
  5
4FF
100
AcDbEntity
  8
21814000
100
AcDbLine
 62
253
  6
CONTINUOUS
 10
111.0184605614
 20
118.2663496633
 11
111.0184605614
 21
118.8487936633
  0
LWPOLYLINE
  5
500
100
AcDbEntity
  8
21814000
100
AcDbPolyline
 62
253
  6
CONTINUOUS
 90
54
 70
0
 10
111.5002468435
 20
109.6242077942
 10
111.5037176268
 20
109.6525173763
 10
111.5071185716
 20
109.680835618
 10
111.5106164104
 20
109.7091493664
 10
111.5128308384
 20
109.7261168931
 10
111.5151844072
 20
109.7430660702
 10
111.5177214812
 20
109.7599848923
 10
111.5204864248
 20
109.7768613536
 10
111.5235236025
 20
109.7936834488
 10
111.5263113325
 20
109.8077139859
 10
111.5293710358
 20
109.8216955151
 10
111.5327528799
 20
109.8356255279
 10
111.5349597397
 20
109.8439341949
 10
111.5373540871
 20
109.8521903251
 10
111.5399899621
 20
109.860360746
 10
111.5429214047
 20
109.8684122851
 10
111.5462024548
 20
109.8763117699
 10
111.5498504017
 20
109.8839865984
 10
111.5538695315
 20
109.8914817881
 10
111.5582321829
 20
109.8988007224
 10
111.5629106947
 20
109.9059467849
 10
111.5678774059
 20
109.9129233592
 10
111.5731046553
 20
109.9197338289
 10
111.5785647816
 20
109.9263815776
 10
111.5842301238
 20
109.9328699888
 10
111.5900730207
 20
109.9392024461
 10
111.5960658111
 20
109.9453823331
 10
111.6048746476
 20
109.9539774251
 10
111.6139331114
 20
109.9622574057
 10
111.62323973
 20
109.9702136353
 10
111.6327930311
 20
109.9778374743
 10
111.6425915421
 20
109.9851202829
 10
111.6526337905
 20
109.9920534216
 10
111.6629183039
 20
109.9986282506
 10
111.6734411067
 20
110.00483715
 10
111.6841867697
 20
110.010675739
 10
111.6951373497
 20
110.0161406732
 10
111.7062749032
 20
110.0212286082
 10
111.717581487
 20
110.0259361995
 10
111.7290391579
 20
110.0302601028
 10
111.7406299727
 20
110.0341969736
 10
111.7532198131
 20
110.0379980193
 10
111.7659293982
 20
110.041369716
 10
111.7787453389
 20
110.0443338616
 10
111.7916542462
 20
110.046912254
 10
111.8046427308
 20
110.0491266912
 10
111.8176974037
 20
110.0509989711
 10
111.8308048759
 20
110.0525508915
 10
111.8439517583
 20
110.0538042504
 10
111.8571246616
 20
110.0547808457
 10
111.870310197
 20
110.0555024753
 10
111.8834949752
 20
110.0559909372
 10
111.8966656071
 20
110.0562680291
 10
111.9098087038
 20
110.0563555491
  0
LINE
  5
501
100
AcDbEntity
  8
21814000
100
AcDbLine
 62
7
  6
CONTINUOUS
 10
111.0184606192
 20
109.0031839181
 11
111.5002468157
 21
109.4849701146
  0
LINE
  5
502
100
AcDbEntity
  8
21814000
100
AcDbLine
 62
7
  6
CONTINUOUS
 10
112.0558008089
 20
110.0405241078
 11
112.5211283553
 21
110.5058516541
  0
LINE
  5
503
100
AcDbEntity
  8
21814000
100
AcDbLine
 62
7
  6
CONTINUOUS
 10
113.1240053644
 20
111.1087286633
 11
113.9175782603
 21
111.9023015591
  0
LINE
  5
504
100
AcDbEntity
  8
21814000
100
AcDbLine
 62
7
  6
CONTINUOUS
 10
111.0736837924
 20
108.6383856633
 11
111.6962897924
 21
109.2609916633
  0
LINE
  5
505
100
AcDbEntity
  8
21814000
100
AcDbLine
 62
7
  6
CONTINUOUS
 10
112.2833305553
 20
109.8480324261
 11
112.6861271798
 21
110.2508290506
  0
LINE
  5
506
100
AcDbEntity
  8
21814000
100
AcDbLine
 62
7
  6
CONTINUOUS
 10
113.5440267924
 20
111.1087286633
 11
113.9175782603
 21
111.4822801311
  0
LINE
  5
507
100
AcDbEntity
  8
21814000
100
AcDbLine
 62
7
  6
CONTINUOUS
 10
111.4937052205
 20
108.6383856633
 11
112.1163112205
 21
109.2609916633
  0
LINE
  5
508
100
AcDbEntity
  8
21814000
100
AcDbLine
 62
7
  6
CONTINUOUS
 10
112.3193702012
 20
109.464050644
 11
112.777004133
 21
109.9216845758
  0
LINE
  5
509
100
AcDbEntity
  8
21814000
100
AcDbLine
 62
7
  6
CONTINUOUS
 10
111.9137266485
 20
108.6383856633
 11
112.8011564109
 21
109.5258154257
  0
LINE
  5
50A
100
AcDbEntity
  8
21814000
100
AcDbLine
 62
7
  6
CONTINUOUS
 10
112.3337480765
 20
108.6383856633
 11
112.9563540765
 21
109.2609916633
  0
LINE
  5
50B
100
AcDbEntity
  8
21814000
100
AcDbLine
 62
7
  6
CONTINUOUS
 10
112.7537695045
 20
108.6383856633
 11
113.3763755045
 21
109.2609916633
  0
LINE
  5
50C
100
AcDbEntity
  8
21814000
100
AcDbLine
 62
7
  6
CONTINUOUS
 10
113.1737909326
 20
108.6383856633
 11
113.7963969326
 21
109.2609916633
  0
LINE
  5
50D
100
AcDbEntity
  8
21814000
100
AcDbLine
 62
253
  6
CONTINUOUS
 10
123.2858727089
 20
104.0946246633
 11
121.2886742139
 21
103.8543586633
  0
LINE
  5
50E
100
AcDbEntity
  8
21814000
100
AcDbLine
 62
7
  6
CONTINUOUS
 10
130.3914315374
 20
104.5615547205
 11
132.1437249831
 21
104.7148605322
  0
LINE
  5
50F
100
AcDbEntity
  8
21814000
100
AcDbLine
 62
7
  6
CONTINUOUS
 10
130.1175782603
 20
102.6375956633
 11
130.3175782603
 21
102.6375956633
  0
LINE
  5
510
100
AcDbEntity
  8
21814000
100
AcDbLine
 62
253
  6
CONTINUOUS
 10
121.2248386633
 20
98.3580546633
 11
122.0866450887
 21
97.9375956633
  0
LINE
  5
511
100
AcDbEntity
  8
21814000
100
AcDbLine
 62
253
  6
CONTINUOUS
 10
127.1147301597
 20
93.9304527618
 11
127.3932591826
 21
93.7447385647
  0
LWPOLYLINE
  5
512
100
AcDbEntity
  8
21814000
100
AcDbPolyline
 62
253
  6
CONTINUOUS
 90
73
 70
0
 10
112.726822059
 20
101.6825716633
 10
112.7131184945
 20
101.7134408144
 10
112.6982240651
 20
101.7438063656
 10
112.6821680545
 20
101.7736180808
 10
112.6649797458
 20
101.8028257243
 10
112.6466884226
 20
101.8313790602
 10
112.6273233683
 20
101.8592278526
 10
112.6069138662
 20
101.8863218656
 10
112.5854891998
 20
101.9126108634
 10
112.5630798287
 20
101.9380479541
 10
112.5397209176
 20
101.9625996225
 10
112.5154488075
 20
101.9862356973
 10
112.4902998392
 20
102.0089260073
 10
112.4643103538
 20
102.0306403811
 10
112.437516692
 20
102.0513486477
 10
112.4099551949
 20
102.0710206356
 10
112.3816622034
 20
102.0896261737
 10
112.3526755853
 20
102.107136741
 10
112.3230393157
 20
102.1235304177
 10
112.2927988967
 20
102.1387869342
 10
112.2619998303
 20
102.1528860208
 10
112.2306876186
 20
102.165807408
 10
112.1989077635
 20
102.1775308262
 10
112.1667057672
 20
102.1880360058
 10
112.1341271316
 20
102.1973026772
 10
112.1012179433
 20
102.2053131076
 10
112.0680266259
 20
102.2120597108
 10
112.0346021878
 20
102.2175374372
 10
112.0009936373
 20
102.2217412373
 10
111.9672499825
 20
102.2246660618
 10
111.9334202318
 20
102.226306861
 10
111.8995533932
 20
102.2266585856
 10
111.8656984752
 20
102.2257161859
 10
111.8319043827
 20
102.2234770839
 10
111.7982196079
 20
102.219948587
 10
111.7646925399
 20
102.2151404738
 10
111.7313715677
 20
102.2090625232
 10
111.6983050804
 20
102.2017245138
 10
111.6655414669
 20
102.1931362244
 10
111.6331291163
 20
102.1833074336
 10
111.6011164176
 20
102.1722479204
 10
111.5695508958
 20
102.1599697809
 10
111.53847662
 20
102.1464943821
 10
111.5079367953
 20
102.1318454084
 10
111.4779746267
 20
102.1160465444
 10
111.4486333192
 20
102.0991214745
 10
111.4199560778
 20
102.0810938832
 10
111.3919861078
 20
102.0619874549
 10
111.364766614
 20
102.0418258743
 10
111.3383392786
 20
102.0206349365
 10
111.3127396916
 20
101.9984488801
 10
111.2880019202
 20
101.9753040546
 10
111.2641600315
 20
101.9512368092
 10
111.2412480926
 20
101.9262834934
 10
111.2193001706
 20
101.9004804565
 10
111.1983503327
 20
101.873864048
 10
111.178432646
 20
101.8464706172
 10
111.15957913
 20
101.8183374414
 10
111.141813614
 20
101.7895055097
 10
111.12515788
 20
101.7600167391
 10
111.1096337096
 20
101.7299130467
 10
111.0952628847
 20
101.6992363494
 10
111.082067187
 20
101.6680285643
 10
111.0700683983
 20
101.6363316083
 10
111.0592883005
 20
101.6041873986
 10
111.0497462935
 20
101.5716404772
 10
111.04145225
 20
101.5387458864
 10
111.0344136612
 20
101.5055612938
 10
111.0286380178
 20
101.4721443667
 10
111.0241328109
 20
101.4385527727
 10
111.0209055314
 20
101.4048441792
 10
111.0189636704
 20
101.3710762535
 10
111.0183147187
 20
101.3373066633
  0
LWPOLYLINE
  5
513
100
AcDbEntity
  8
21814000
100
AcDbPolyline
 62
253
  6
CONTINUOUS
 90
56
 70
0
 10
112.8011567055
 20
109.5258157207
 10
112.798404903
 20
109.5969376861
 10
112.7952983573
 20
109.668045174
 10
112.7916546226
 20
109.739121839
 10
112.7884533365
 20
109.7924283399
 10
112.7847430878
 20
109.8457116179
 10
112.7826398342
 20
109.8723664127
 10
112.7802330437
 20
109.8989935074
 10
112.7773726422
 20
109.9255701823
 10
112.7739085553
 20
109.9520737181
 10
112.769727902
 20
109.9784166623
 10
112.7648036146
 20
110.0046375058
 10
112.7591421595
 20
110.0307095409
 10
112.752750003
 20
110.0566060602
 10
112.7456375343
 20
110.0823566265
 10
112.737911385
 20
110.1079302853
 10
112.7296847982
 20
110.1333531031
 10
112.7210710172
 20
110.1586511466
 10
112.7091210441
 20
110.1921879727
 10
112.6965500425
 20
110.2254878744
 10
112.6832233019
 20
110.2584891531
 10
112.6726406923
 20
110.2830093795
 10
112.6614589376
 20
110.3072645394
 10
112.6495801148
 20
110.3311923866
 10
112.636906301
 20
110.3547306749
 10
112.6234058667
 20
110.3777416416
 10
112.6090334835
 20
110.4002541484
 10
112.5938040675
 20
110.4222184803
 10
112.5777325346
 20
110.4435849219
 10
112.560833801
 20
110.4643037579
 10
112.5431227825
 20
110.484325273
 10
112.5246143953
 20
110.5035997519
 10
112.5053235553
 20
110.5220774793
 10
112.4852008462
 20
110.5397750867
 10
112.4643541347
 20
110.5566152657
 10
112.4428322181
 20
110.5725928588
 10
112.4206838939
 20
110.5877027086
 10
112.3979579595
 20
110.6019396576
 10
112.3747032121
 20
110.6152985484
 10
112.3509684493
 20
110.6277742236
 10
112.3268024682
 20
110.6393615258
 10
112.3022454464
 20
110.6500623416
 10
112.2773396529
 20
110.6598910698
 10
112.2521189264
 20
110.6688695958
 10
112.2266171052
 20
110.6770198048
 10
112.200868028
 20
110.6843635823
 10
112.1749055333
 20
110.6909228136
 10
112.1487634597
 20
110.696719384
 10
112.1224756455
 20
110.701775179
 10
112.0923315026
 20
110.7066713399
 10
112.0620666366
 20
110.7106798917
 10
112.0317061115
 20
110.7138498043
 10
112.0012749916
 20
110.7162300478
 10
111.9707983409
 20
110.7178695921
 10
111.9403012236
 20
110.7188174074
 10
111.9098087038
 20
110.7191224636
  0
LINE
  5
514
100
AcDbEntity
  8
21814000
100
AcDbLine
 62
253
  6
CONTINUOUS
 10
111.5002467711
 20
109.2609916633
 11
111.5002467711
 21
109.6242076633
  0
LINE
  5
515
100
AcDbEntity
  8
21814000
100
AcDbLine
 62
253
  6
CONTINUOUS
 10
111.5546751879
 20
101.2568036633
 11
111.5546751879
 21
100.5511176633
  0
LINE
  5
516
100
AcDbEntity
  8
21814000
100
AcDbLine
 62
253
  6
CONTINUOUS
 10
112.2601892324
 20
100.5511246633
 11
112.2601892324
 21
101.2568036633
  0
LINE
  5
517
100
AcDbEntity
  8
21814000
100
AcDbLine
 62
253
  6
CONTINUOUS
 10
112.3193702012
 20
109.2609916633
 11
112.3193702012
 21
109.6242076633
  0
LINE
  5
518
100
AcDbEntity
  8
21814000
100
AcDbLine
 62
253
  6
CONTINUOUS
 10
112.7965548129
 20
98.0901556633
 11
112.7965548129
 21
98.6523496633
  0
LINE
  5
519
100
AcDbEntity
  8
21814000
100
AcDbLine
 62
253
  6
CONTINUOUS
 10
112.7965548129
 20
101.0654176633
 11
112.796547815
 21
100.5591866633
  0
LINE
  5
51A
100
AcDbEntity
  8
21814000
100
AcDbLine
 62
253
  6
CONTINUOUS
 10
112.8011564109
 20
109.5258156633
 11
112.8011564109
 21
109.2609916633
  0
LINE
  5
51B
100
AcDbEntity
  8
21814000
100
AcDbLine
 62
253
  6
CONTINUOUS
 10
112.8213402613
 20
120.9454646633
 11
112.8213402613
 21
120.1140866633
  0
LINE
  5
51C
100
AcDbEntity
  8
21814000
100
AcDbLine
 62
253
  6
CONTINUOUS
 10
112.8213402613
 20
114.9205386633
 11
112.8213402613
 21
114.0890516633
  0
LINE
  5
51D
100
AcDbEntity
  8
21814000
100
AcDbLine
 62
253
  6
CONTINUOUS
 10
113.303126471
 20
113.9284076633
 11
113.303126471
 21
115.0771446633
  0
LINE
  5
51E
100
AcDbEntity
  8
21814000
100
AcDbLine
 62
253
  6
CONTINUOUS
 10
113.303126471
 20
119.9534416633
 11
113.303126471
 21
121.1021796633
  0
LINE
  5
51F
100
AcDbEntity
  8
21814000
100
AcDbLine
 62
253
  6
CONTINUOUS
 10
113.347408979
 20
98.8292786633
 11
113.347408979
 21
97.9132336633
  0
LINE
  5
520
100
AcDbEntity
  8
21814000
100
AcDbLine
 62
253
  6
CONTINUOUS
 10
113.4357920505
 20
111.7313346633
 11
113.4357920505
 21
112.8043336633
  0
LINE
  5
521
100
AcDbEntity
  8
21814000
100
AcDbLine
 62
7
  6
CONTINUOUS
 10
113.5938123606
 20
108.6383856633
 11
113.9175782603
 21
108.9621515629
  0
LINE
  5
522
100
AcDbEntity
  8
21814000
100
AcDbLine
 62
253
  6
CONTINUOUS
 10
124.4177305651
 20
113.2090244391
 11
124.5605659416
 21
113.304262171
  0
LINE
  5
523
100
AcDbEntity
  8
21814000
100
AcDbLine
 62
7
  6
CONTINUOUS
 10
130.1271732923
 20
104.3375956633
 11
130.3175782603
 21
104.3375956633
  0
LINE
  5
524
100
AcDbEntity
  8
21814000
100
AcDbLine
 62
253
  6
CONTINUOUS
 10
127.3932591826
 20
96.9947382547
 11
127.7646311615
 21
96.8090240576
  0
LINE
  5
525
100
AcDbEntity
  8
21814000
100
AcDbLine
 62
253
  6
CONTINUOUS
 10
127.1147301597
 20
94.9518814661
 11
127.3932591826
 21
94.766166959
  0
LINE
  5
526
100
AcDbEntity
  8
21814000
100
AcDbLine
 62
253
  6
CONTINUOUS
 10
127.1147301597
 20
95.9733098604
 11
127.3932591826
 21
95.7875956633
  0
LINE
  5
527
100
AcDbEntity
  8
21814000
100
AcDbLine
 62
253
  6
CONTINUOUS
 10
128.4145321634
 20
93.7447385647
 11
127.4861021386
 21
94.3947385647
  0
LINE
  5
528
100
AcDbEntity
  8
21814000
100
AcDbLine
 62
253
  6
CONTINUOUS
 10
128.4145321634
 20
94.766166959
 11
127.4861021386
 21
95.4161672689
  0
LINE
  5
529
100
AcDbEntity
  8
21814000
100
AcDbLine
 62
253
  6
CONTINUOUS
 10
120.3122217188
 20
97.6108956633
 11
122.633353518
 21
95.5505506633
  0
LWPOLYLINE
  5
52A
100
AcDbEntity
  8
21814000
100
AcDbPolyline
 62
253
  6
CONTINUOUS
 90
53
 70
0
 10
120.3122217188
 20
97.6108956633
 10
120.3018328193
 20
97.6204294773
 10
120.291744917
 20
97.6303176203
 10
120.2819690003
 20
97.6405461904
 10
120.2725160579
 20
97.6511012856
 10
120.2633970783
 20
97.661969004
 10
120.2546230499
 20
97.6731354434
 10
120.2462049614
 20
97.6845867021
 10
120.2381538013
 20
97.6963088779
 10
120.2304805582
 20
97.7082880689
 10
120.2231962205
 20
97.7205103731
 10
120.2163117768
 20
97.7329618885
 10
120.2098382157
 20
97.7456287131
 10
120.2037865257
 20
97.7584969451
 10
120.1981662779
 20
97.7715525954
 10
120.192981374
 20
97.7847813275
 10
120.1882342982
 20
97.7981687179
 10
120.1839275347
 20
97.8117003432
 10
120.1800635677
 20
97.8253617798
 10
120.1766448814
 20
97.8391386043
 10
120.17367396
 20
97.8530163931
 10
120.1711532878
 20
97.8669807229
 10
120.169085349
 20
97.8810171701
 10
120.1674726277
 20
97.8951113112
 10
120.1663176083
 20
97.9092487227
 10
120.1656227748
 20
97.9234149813
 10
120.1653906117
 20
97.9375956633
 10
120.1656227748
 20
97.9517763453
 10
120.1663176083
 20
97.9659426038
 10
120.1674726277
 20
97.9800800154
 10
120.169085349
 20
97.9941741565
 10
120.1711532878
 20
98.0082106037
 10
120.17367396
 20
98.0221749334
 10
120.1766448814
 20
98.0360527223
 10
120.1800635677
 20
98.0498295467
 10
120.1839275347
 20
98.0634909834
 10
120.1882342982
 20
98.0770226086
 10
120.192981374
 20
98.090409999
 10
120.1981662779
 20
98.1036387311
 10
120.2037865257
 20
98.1166943814
 10
120.2098382157
 20
98.1295626134
 10
120.2163117768
 20
98.1422294381
 10
120.2231962205
 20
98.1546809535
 10
120.2304805582
 20
98.1669032577
 10
120.2381538013
 20
98.1788824487
 10
120.2462049614
 20
98.1906046245
 10
120.2546230499
 20
98.2020558831
 10
120.2633970783
 20
98.2132223226
 10
120.2725160579
 20
98.2240900409
 10
120.2819690003
 20
98.2346451361
 10
120.291744917
 20
98.2448737062
 10
120.3018328193
 20
98.2547618493
 10
120.3122217188
 20
98.2642956633
  0
LINE
  5
52B
100
AcDbEntity
  8
21814000
100
AcDbLine
 62
253
  6
CONTINUOUS
 10
127.3004161491
 20
90.9590242126
 11
127.1147301597
 21
91.1447384872
  0
LINE
  5
52C
100
AcDbEntity
  8
21814000
100
AcDbLine
 62
253
  6
CONTINUOUS
 10
122.4175782603
 20
92.1375956633
 11
121.3847019563
 21
93.4686176633
  0
LINE
  5
52D
100
AcDbEntity
  8
21814000
100
AcDbLine
 62
253
  6
CONTINUOUS
 10
113.9175782603
 20
90.8687276633
 11
113.9175712624
 21
91.4487716633
  0
LINE
  5
52E
100
AcDbEntity
  8
21814000
100
AcDbLine
 62
253
  6
CONTINUOUS
 10
113.9175782603
 20
92.7665816633
 11
113.9175712624
 21
93.3466036633
  0
LINE
  5
52F
100
AcDbEntity
  8
21814000
100
AcDbLine
 62
253
  6
CONTINUOUS
 10
113.9175712624
 20
95.0550086633
 11
113.9175632648
 21
95.6350156633
  0
LINE
  5
530
100
AcDbEntity
  8
21814000
100
AcDbLine
 62
253
  6
CONTINUOUS
 10
113.9175632648
 20
97.7301206633
 11
113.9175712624
 21
97.1500986633
  0
LINE
  5
531
100
AcDbEntity
  8
21814000
100
AcDbLine
 62
253
  6
CONTINUOUS
 10
113.917556267
 20
102.2999766633
 11
113.9175632648
 21
101.6466716633
  0
LINE
  5
532
100
AcDbEntity
  8
21814000
100
AcDbLine
 62
253
  6
CONTINUOUS
 10
113.9175632648
 20
100.5591216633
 11
113.9175632648
 21
99.9790926633
  0
LINE
  5
533
100
AcDbEntity
  8
21814000
100
AcDbLine
 62
253
  6
CONTINUOUS
 10
113.9175712624
 20
93.9266106633
 11
113.9175712624
 21
94.5066326633
  0
LINE
  5
534
100
AcDbEntity
  8
21814000
100
AcDbLine
 62
253
  6
CONTINUOUS
 10
113.9175712624
 20
96.1833986633
 11
113.9175712624
 21
96.7634196633
  0
LINE
  5
535
100
AcDbEntity
  8
21814000
100
AcDbLine
 62
253
  6
CONTINUOUS
 10
113.9175782603
 20
118.8487936633
 11
113.9175782603
 21
117.9651416633
  0
LINE
  5
536
100
AcDbEntity
  8
21814000
100
AcDbLine
 62
253
  6
CONTINUOUS
 10
113.9175782603
 20
116.8123656633
 11
113.9175782603
 21
116.2299206633
  0
LINE
  5
537
100
AcDbEntity
  8
21814000
100
AcDbLine
 62
253
  6
CONTINUOUS
 10
113.9175782603
 20
112.8043336633
 11
113.9175782603
 21
111.1087286633
  0
LINE
  5
538
100
AcDbEntity
  8
21814000
100
AcDbLine
 62
253
  6
CONTINUOUS
 10
113.9175782603
 20
108.6383856633
 11
113.9175782603
 21
109.2609916633
  0
LINE
  5
539
100
AcDbEntity
  8
21814000
100
AcDbLine
 62
253
  6
CONTINUOUS
 10
113.9175782603
 20
113.1171096633
 11
113.9175782603
 21
113.7115596633
  0
LINE
  5
53A
100
AcDbEntity
  8
21814000
100
AcDbLine
 62
253
  6
CONTINUOUS
 10
113.9175782603
 20
115.2860266633
 11
113.9175782603
 21
115.9126696633
  0
LINE
  5
53B
100
AcDbEntity
  8
21814000
100
AcDbLine
 62
253
  6
CONTINUOUS
 10
113.9175782603
 20
119.1420356633
 11
113.9175782603
 21
119.7364846633
  0
LINE
  5
53C
100
AcDbEntity
  8
21814000
100
AcDbLine
 62
253
  6
CONTINUOUS
 10
113.9175782603
 20
121.3111696633
 11
113.9175782603
 21
121.9375956633
  0
LINE
  5
53D
100
AcDbEntity
  8
21814000
100
AcDbLine
 62
253
  6
CONTINUOUS
 10
113.9175712624
 20
99.5924136633
 11
113.9175632648
 21
99.0123846633
  0
LINE
  5
53E
100
AcDbEntity
  8
26814000
100
AcDbLine
 62
7
  6
CONTINUOUS
 10
115.4175782603
 20
129.6910530248
 11
115.4175782603
 21
129.2375956633
  0
LINE
  5
53F
100
AcDbEntity
  8
RACCORDO
100
AcDbLine
 62
7
  6
CONTINUOUS
 10
115.4175782603
 20
129.2375956633
 11
115.4175782603
 21
128.1979551438
  0
LINE
  5
540
100
AcDbEntity
  8
RACCORDO
100
AcDbLine
 62
7
  6
CONTINUOUS
 10
115.4175782603
 20
83.6772361827
 11
115.4175782603
 21
82.6375956633
  0
LINE
  5
541
100
AcDbEntity
  8
26814000
100
AcDbLine
 62
7
  6
CONTINUOUS
 10
115.4175782603
 20
82.6375956633
 11
115.4175782603
 21
82.1841383018
  0
LINE
  5
542
100
AcDbEntity
  8
21814000
100
AcDbLine
 62
253
  6
CONTINUOUS
 10
115.4178676395
 20
118.4233098843
 11
115.4178676395
 21
118.5590243318
  0
LINE
  5
543
100
AcDbEntity
  8
21814000
100
AcDbLine
 62
253
  6
CONTINUOUS
 10
115.4178676395
 20
119.9161672213
 11
115.4178676395
 21
120.0518814423
  0
LWPOLYLINE
  5
544
100
AcDbEntity
  8
21814000
100
AcDbPolyline
 62
7
  6
CONTINUOUS
 90
7
 70
0
 10
129.233285426
 20
117.0558330721
 10
129.2548727729
 20
117.07490713
 10
129.2781557165
 20
117.0919954055
 10
129.3031342566
 20
117.1070978986
 10
129.3298083934
 20
117.1202146094
 10
129.3581781268
 20
117.1313455377
 10
129.3882434568
 20
117.1404906837
  0
LINE
  5
545
100
AcDbEntity
  8
21814000
100
AcDbLine
 62
253
  6
CONTINUOUS
 10
128.4175782603
 20
116.3927766633
 11
127.1179742227
 21
115.3606516633
  0
LINE
  5
546
100
AcDbEntity
  8
21814000
100
AcDbLine
 62
253
  6
CONTINUOUS
 10
124.5605659416
 20
110.2090242006
 11
124.7034013181
 21
110.280452738
  0
LINE
  5
547
100
AcDbEntity
  8
21814000
100
AcDbLine
 62
253
  6
CONTINUOUS
 10
125.2747428688
 20
109.8518813946
 11
125.1319074774
 21
109.7804528572
  0
LINE
  5
548
100
AcDbEntity
  8
21814000
100
AcDbLine
 62
253
  6
CONTINUOUS
 10
124.5605659416
 20
109.4233099319
 11
124.7034013181
 21
109.4947384693
  0
LINE
  5
549
100
AcDbEntity
  8
21814000
100
AcDbLine
 62
253
  6
CONTINUOUS
 10
128.4175782603
 20
111.6778196633
 11
127.1179742227
 21
111.1074856633
  0
LINE
  5
54A
100
AcDbEntity
  8
21814000
100
AcDbLine
 62
253
  6
CONTINUOUS
 10
124.4177305651
 20
108.4233099618
 11
125.4175782603
 21
108.7090242602
  0
LWPOLYLINE
  5
54B
100
AcDbEntity
  8
21814000
100
AcDbPolyline
 62
253
  6
CONTINUOUS
 90
81
 70
0
 10
121.9175782603
 20
108.3410819777
 10
121.9929766889
 20
108.3430005246
 10
122.0683022507
 20
108.3486966318
 10
122.1433556858
 20
108.3580809988
 10
122.2179377348
 20
108.3710643254
 10
122.291849138
 20
108.3875573111
 10
122.3648906357
 20
108.4074706556
 10
122.436933518
 20
108.4307303561
 10
122.5078056315
 20
108.4572156292
 10
122.5774069889
 20
108.486815953
 10
122.6456376028
 20
108.519420806
 10
122.7123974859
 20
108.5549196662
 10
122.7775866508
 20
108.5932020121
 10
122.8410577231
 20
108.6341143954
 10
122.9028218667
 20
108.6775595769
 10
122.9628397951
 20
108.7234022918
 10
123.0210722221
 20
108.7715072751
 10
123.0774798612
 20
108.8217392618
 10
123.1320234263
 20
108.873962987
 10
123.1950266557
 20
108.9391389837
 10
123.2552952034
 20
109.0068246151
 10
123.31284001
 20
109.0768515286
 10
123.3676720159
 20
109.1490513717
 10
123.4198021618
 20
109.2232557916
 10
123.4743649842
 20
109.3075320463
 10
123.5256517783
 20
109.3938961716
 10
123.5736830496
 20
109.482186556
 10
123.6184793035
 20
109.5722415878
 10
123.6600610455
 20
109.6638996555
 10
123.698448781
 20
109.7569991473
 10
123.7336630157
 20
109.8513784518
 10
123.7657242549
 20
109.9468759573
 10
123.7946530041
 20
110.0433300522
 10
123.8235043675
 20
110.1529080079
 10
123.8484328532
 20
110.2633680618
 10
123.8694618948
 20
110.3745842
 10
123.886614926
 20
110.4864304084
 10
123.8999153806
 20
110.598780673
 10
123.9093866922
 20
110.7115089797
 10
123.9150522944
 20
110.8244893145
 10
123.916935621
 20
110.9375956633
 10
123.9150522944
 20
111.0507020121
 10
123.9093866922
 20
111.1636823468
 10
123.8999153806
 20
111.2764106535
 10
123.886614926
 20
111.3887609181
 10
123.8694618948
 20
111.5006071265
 10
123.8484328532
 20
111.6118232647
 10
123.8235043675
 20
111.7222833187
 10
123.7946530041
 20
111.8318612743
 10
123.7657242549
 20
111.9283153692
 10
123.7336630157
 20
112.0238128747
 10
123.698448781
 20
112.1181921792
 10
123.6600610455
 20
112.2112916711
 10
123.6184793035
 20
112.3029497387
 10
123.5736830496
 20
112.3930047705
 10
123.5256517783
 20
112.4812951549
 10
123.4743649842
 20
112.5676592802
 10
123.4198021618
 20
112.6519355349
 10
123.3676720159
 20
112.7261399549
 10
123.31284001
 20
112.7983397979
 10
123.2552952034
 20
112.8683667114
 10
123.1950266557
 20
112.9360523428
 10
123.1320234263
 20
113.0012283396
 10
123.0774798612
 20
113.0534520647
 10
123.0210722221
 20
113.1036840514
 10
122.9628397951
 20
113.1517890347
 10
122.9028218667
 20
113.1976317496
 10
122.8410577231
 20
113.2410769312
 10
122.7775866508
 20
113.2819893145
 10
122.7123974859
 20
113.3202716603
 10
122.6456376028
 20
113.3557705206
 10
122.5774069889
 20
113.3883753735
 10
122.5078056315
 20
113.4179756974
 10
122.436933518
 20
113.4444609705
 10
122.3648906357
 20
113.467720671
 10
122.291849138
 20
113.4876340154
 10
122.2179377348
 20
113.5041270011
 10
122.1433556858
 20
113.5171103277
 10
122.0683022507
 20
113.5264946947
 10
121.9929766889
 20
113.5321908019
 10
121.9175782603
 20
113.5341093488
  0
LWPOLYLINE
  5
54C
100
AcDbEntity
  8
21814000
100
AcDbPolyline
 62
253
  6
CONTINUOUS
 90
51
 70
0
 10
122.4175774786
 20
106.9561841951
 10
122.4677989386
 20
106.9549656046
 10
122.5180077837
 20
106.9513530683
 10
122.5680942349
 20
106.9454114393
 10
122.6179485132
 20
106.9372055706
 10
122.6674608397
 20
106.9268003152
 10
122.7165214353
 20
106.914260526
 10
122.765020521
 20
106.899651056
 10
122.8128483179
 20
106.8830367583
 10
122.859895047
 20
106.8644824858
 10
122.9119023947
 20
106.8413163181
 10
122.9627612762
 20
106.8158905976
 10
123.0124562731
 20
106.7883306963
 10
123.0609719673
 20
106.7587619864
 10
123.1082929405
 20
106.7273098401
 10
123.1544037743
 20
106.6940996294
 10
123.1992890505
 20
106.6592567266
 10
123.2429333509
 20
106.6229065037
 10
123.2913649794
 20
106.5795883314
 10
123.3381762445
 20
106.5345705854
 10
123.3833935614
 20
106.4879650361
 10
123.4270433452
 20
106.4398834539
 10
123.4691520111
 20
106.3904376093
 10
123.5097459743
 20
106.3397392727
 10
123.5488516498
 20
106.2879002146
 10
123.592665025
 20
106.226064275
 10
123.6345338978
 20
106.1629215388
 10
123.6745067739
 20
106.0985680046
 10
123.7126321589
 20
106.0330996714
 10
123.7489585586
 20
105.9666125379
 10
123.7835344787
 20
105.8992026029
 10
123.8164172449
 20
105.8309351761
 10
123.8476305008
 20
105.7618975639
 10
123.8772079108
 20
105.6921469671
 10
123.9051831393
 20
105.6217405864
 10
123.9315898509
 20
105.5507356224
 10
123.95646171
 20
105.4791892761
 10
123.9843315765
 20
105.3926771095
 10
124.0100841769
 20
105.3055173826
 10
124.033764668
 20
105.2177599866
 10
124.0554182066
 20
105.1294548125
 10
124.0750899495
 20
105.0406517514
 10
124.0946479612
 20
104.941581975
 10
124.1118386794
 20
104.8420330678
 10
124.126679821
 20
104.742077615
 10
124.1391891025
 20
104.6417882019
 10
124.1493842407
 20
104.5412374138
 10
124.1572829524
 20
104.4404978359
 10
124.1629029543
 20
104.3396420534
 10
124.1662619632
 20
104.2387426516
 10
124.1673776958
 20
104.1378722158
  0
LINE
  5
54D
100
AcDbEntity
  8
21814000
100
AcDbLine
 62
253
  6
CONTINUOUS
 10
123.2714591004
 20
104.2868366633
 11
121.3307074073
 21
104.8226266633
  0
LINE
  5
54E
100
AcDbEntity
  8
21814000
100
AcDbLine
 62
253
  6
CONTINUOUS
 10
127.1147301597
 20
98.0161672689
 11
127.3932591826
 21
97.8304530718
  0
LINE
  5
54F
100
AcDbEntity
  8
21814000
100
AcDbLine
 62
253
  6
CONTINUOUS
 10
128.4145321634
 20
95.7875956633
 11
127.4861021386
 21
96.4375956633
  0
LINE
  5
550
100
AcDbEntity
  8
21814000
100
AcDbLine
 62
253
  6
CONTINUOUS
 10
128.4145321634
 20
97.8304530718
 11
127.4861021386
 21
98.4804530718
  0
LINE
  5
551
100
AcDbEntity
  8
21814000
100
AcDbLine
 62
253
  6
CONTINUOUS
 10
128.4145321634
 20
91.4233100154
 11
128.2288461545
 21
91.6090242126
  0
LINE
  5
552
100
AcDbEntity
  8
21814000
100
AcDbLine
 62
253
  6
CONTINUOUS
 10
116.9104974089
 20
117.4733098843
 11
116.9104974089
 21
116.5233099975
  0
LINE
  5
553
100
AcDbEntity
  8
21814000
100
AcDbLine
 62
253
  6
CONTINUOUS
 10
117.3175782603
 20
120.0518814423
 11
117.3175782603
 21
119.9161672213
  0
LINE
  5
554
100
AcDbEntity
  8
21814000
100
AcDbLine
 62
253
  6
CONTINUOUS
 10
117.3175782603
 20
118.5590243318
 11
117.3175782603
 21
118.4233098843
  0
LINE
  5
555
100
AcDbEntity
  8
21814000
100
AcDbLine
 62
253
  6
CONTINUOUS
 10
124.8462366946
 20
113.2090244391
 11
124.9890721009
 21
113.3518815138
  0
LINE
  5
556
100
AcDbEntity
  8
21814000
100
AcDbLine
 62
253
  6
CONTINUOUS
 10
125.4175782603
 20
112.9947385885
 11
125.2747428688
 21
112.8518815138
  0
LINE
  5
557
100
AcDbEntity
  8
21814000
100
AcDbLine
 62
253
  6
CONTINUOUS
 10
124.5605659416
 20
111.780452738
 11
124.4177305651
 21
111.6375956633
  0
LINE
  5
558
100
AcDbEntity
  8
21814000
100
AcDbLine
 62
253
  6
CONTINUOUS
 10
112.7268240584
 20
101.6825736633
 11
113.917556267
 21
102.2999766633
  0
LINE
  5
559
100
AcDbEntity
  8
21814000
100
AcDbLine
 62
253
  6
CONTINUOUS
 10
113.9175632648
 20
101.6466716633
 11
112.7965548129
 21
101.0654176633
  0
LINE
  5
55A
100
AcDbEntity
  8
21814000
100
AcDbLine
 62
253
  6
CONTINUOUS
 10
125.2747428688
 20
109.0661670663
 11
125.1319074774
 21
108.9947385289
  0
LINE
  5
55B
100
AcDbEntity
  8
21814000
100
AcDbLine
 62
253
  6
CONTINUOUS
 10
128.4175782603
 20
109.7404646633
 11
127.1179742227
 21
109.1175956633
  0
LWPOLYLINE
  5
55C
100
AcDbEntity
  8
21814000
100
AcDbPolyline
 62
253
  6
CONTINUOUS
 90
38
 70
0
 10
130.3832919186
 20
106.741771172
 10
130.3762040703
 20
106.739668505
 10
130.3689909366
 20
106.7370549582
 10
130.3616525176
 20
106.7339305317
 10
130.354169953
 20
106.7303022759
 10
130.3465621031
 20
106.7261631403
 10
130.3388855488
 20
106.7214919732
 10
130.331133448
 20
106.716267657
 10
130.323312643
 20
106.7105113092
 10
130.3155002413
 20
106.7042651306
 10
130.30770578
 20
106.6975217938
 10
130.2999197222
 20
106.6902886262
 10
130.292190565
 20
106.6826298101
 10
130.2845359718
 20
106.6745592648
 10
130.2769382792
 20
106.6660630711
 10
130.2693929941
 20
106.6571636539
 10
130.2619006742
 20
106.6478648386
 10
130.2544607619
 20
106.6381627999
 10
130.2470670907
 20
106.6280684869
 10
130.2397187384
 20
106.6175841036
 10
130.2324166272
 20
106.6067074461
 10
130.2251573574
 20
106.5954428524
 10
130.2179442693
 20
106.5838007325
 10
130.2107740226
 20
106.5717706763
 10
130.2036331961
 20
106.5593257919
 10
130.1965205091
 20
106.5464710238
 10
130.1894372425
 20
106.5332014273
 10
130.1823738173
 20
106.5194752769
 10
130.1753267461
 20
106.5052931813
 10
130.1682995165
 20
106.4906545317
 10
130.1612930128
 20
106.4755157757
 10
130.1543034831
 20
106.4598762292
 10
130.1473346793
 20
106.4437365764
 10
130.1403987412
 20
106.4270553176
 10
130.1334923268
 20
106.4098328862
 10
130.1266187781
 20
106.3920688488
 10
130.1198002618
 20
106.3737204056
 10
130.1134262916
 20
106.3558904711
  0
LWPOLYLINE
  5
55D
100
AcDbEntity
  8
21814000
100
AcDbPolyline
 62
253
  6
CONTINUOUS
 90
28
 70
0
 10
121.7064242988
 20
112.240422618
 10
121.7154818294
 20
112.2424342018
 10
121.7244452498
 20
112.2448507367
 10
121.7332972811
 20
112.2476782784
 10
121.744702015
 20
112.2520111131
 10
121.755835783
 20
112.2570354818
 10
121.7666487309
 20
112.2627262099
 10
121.7770910048
 20
112.2690581225
 10
121.7871127505
 20
112.2760060449
 10
121.7966641138
 20
112.2835448022
 10
121.8056952407
 20
112.2916492197
 10
121.8141562772
 20
112.3002941226
 10
121.8220222397
 20
112.3094601206
 10
121.8293129175
 20
112.3190856243
 10
121.8360744308
 20
112.3291136145
 10
121.8423528997
 20
112.3394870723
 10
121.8481944447
 20
112.3501489786
 10
121.8536451859
 20
112.3610423145
 10
121.8587512436
 20
112.3721100611
 10
121.863558738
 20
112.3832951992
 10
121.8707525505
 20
112.4013830063
 10
121.8774080909
 20
112.4196040617
 10
121.8836372366
 20
112.4379361282
 10
121.889551865
 20
112.4563569685
 10
121.8952638535
 20
112.4748443455
 10
121.9090755119
 20
112.5212499867
 10
121.9221884976
 20
112.5678922228
 10
121.9345794132
 20
112.6147212133
  0
LINE
  5
55E
100
AcDbEntity
  8
21814000
100
AcDbLine
 62
253
  6
CONTINUOUS
 10
111.0184605614
 20
108.6383856633
 11
113.9175782603
 21
108.6383856633
  0
LINE
  5
55F
100
AcDbEntity
  8
21814000
100
AcDbLine
 62
253
  6
CONTINUOUS
 10
125.1319074774
 20
108.9947385289
 11
124.7034013181
 21
108.9947385289
  0
LINE
  5
560
100
AcDbEntity
  8
21814000
100
AcDbLine
 62
253
  6
CONTINUOUS
 10
127.1179742227
 20
109.1175956633
 11
128.4175782603
 21
109.1175956633
  0
LINE
  5
561
100
AcDbEntity
  8
21814000
100
AcDbLine
 62
253
  6
CONTINUOUS
 10
113.9175782603
 20
109.2609916633
 11
112.8011564109
 21
109.2609916633
  0
LINE
  5
562
100
AcDbEntity
  8
21814000
100
AcDbLine
 62
253
  6
CONTINUOUS
 10
112.3193702012
 20
109.2609916633
 11
111.5002467711
 21
109.2609916633
  0
LINE
  5
563
100
AcDbEntity
  8
21814000
100
AcDbLine
 62
253
  6
CONTINUOUS
 10
124.7034013181
 20
109.4947384693
 11
125.1319074774
 21
109.4947384693
  0
LINE
  5
564
100
AcDbEntity
  8
21814000
100
AcDbLine
 62
253
  6
CONTINUOUS
 10
125.1319074774
 20
109.7804528572
 11
124.7034013181
 21
109.7804528572
  0
LINE
  5
565
100
AcDbEntity
  8
ASSI
100
AcDbLine
 62
7
  6
CONTINUOUS
 10
108.4175782603
 20
110.1089826633
 11
108.6175782603
 21
110.1089826633
  0
LINE
  5
566
100
AcDbEntity
  8
21814000
100
AcDbLine
 62
253
  6
CONTINUOUS
 10
124.7034013181
 20
110.280452738
 11
125.1319074774
 21
110.280452738
  0
LINE
  5
567
100
AcDbEntity
  8
21814000
100
AcDbLine
 62
253
  6
CONTINUOUS
 10
128.4175782603
 20
110.3633316633
 11
127.1179742227
 21
110.3633316633
  0
LWPOLYLINE
  5
568
100
AcDbEntity
  8
21814000
100
AcDbPolyline
 62
253
  6
CONTINUOUS
 90
54
 70
0
 10
111.9098087038
 20
110.0563555491
 10
111.9229518004
 20
110.0562680291
 10
111.9361224324
 20
110.0559909372
 10
111.9493072106
 20
110.0555024753
 10
111.9624927459
 20
110.0547808457
 10
111.9756656493
 20
110.0538042504
 10
111.9888125316
 20
110.0525508915
 10
112.0019200038
 20
110.0509989711
 10
112.0149746768
 20
110.0491266912
 10
112.0279631614
 20
110.046912254
 10
112.0408720686
 20
110.0443338616
 10
112.0536880093
 20
110.041369716
 10
112.0663975945
 20
110.0379980193
 10
112.0789874349
 20
110.0341969736
 10
112.0905782496
 20
110.0302601028
 10
112.1020359205
 20
110.0259361995
 10
112.1133425044
 20
110.0212286082
 10
112.1244800579
 20
110.0161406732
 10
112.1354306378
 20
110.010675739
 10
112.1461763008
 20
110.00483715
 10
112.1566991037
 20
109.9986282506
 10
112.1669836171
 20
109.9920534216
 10
112.1770258655
 20
109.9851202829
 10
112.1868243765
 20
109.9778374743
 10
112.1963776775
 20
109.9702136353
 10
112.2056842962
 20
109.9622574057
 10
112.21474276
 20
109.9539774251
 10
112.2235515964
 20
109.9453823331
 10
112.2295443869
 20
109.9392024461
 10
112.2353872837
 20
109.9328699888
 10
112.2410526259
 20
109.9263815776
 10
112.2465127523
 20
109.9197338289
 10
112.2517400016
 20
109.9129233592
 10
112.2567067128
 20
109.9059467849
 10
112.2613852247
 20
109.8988007224
 10
112.2657478761
 20
109.8914817881
 10
112.2697670058
 20
109.8839865984
 10
112.2734149528
 20
109.8763117699
 10
112.2766960029
 20
109.8684122851
 10
112.2796274454
 20
109.860360746
 10
112.2822633204
 20
109.8521903251
 10
112.2846576679
 20
109.8439341949
 10
112.2868645277
 20
109.8356255279
 10
112.2902463718
 20
109.8216955151
 10
112.293306075
 20
109.8077139859
 10
112.296093805
 20
109.7936834488
 10
112.2991309827
 20
109.7768613536
 10
112.3018959264
 20
109.7599848923
 10
112.3044330004
 20
109.7430660702
 10
112.3067865691
 20
109.7261168931
 10
112.3090009971
 20
109.7091493664
 10
112.312498836
 20
109.680835618
 10
112.3158997808
 20
109.6525173763
 10
112.3193705641
 20
109.6242077942
  0
LINE
  5
569
100
AcDbEntity
  8
21814000
100
AcDbLine
 62
253
  6
CONTINUOUS
 10
127.1147301597
 20
97.2733098604
 11
127.3932591826
 21
96.9947382547
  0
LINE
  5
56A
100
AcDbEntity
  8
RACCORDO
100
AcDbLine
 62
7
  6
CONTINUOUS
 10
118.4175782603
 20
127.1628926859
 11
118.4175782603
 21
124.43788951
  0
LINE
  5
56B
100
AcDbEntity
  8
RACCORDO
100
AcDbLine
 62
7
  6
CONTINUOUS
 10
118.4175782603
 20
87.4373018165
 11
118.4175782603
 21
84.7122986406
  0
LINE
  5
56C
100
AcDbEntity
  8
21814000
100
AcDbLine
 62
253
  6
CONTINUOUS
 10
124.8462366946
 20
112.9947385885
 11
124.7748190362
 21
112.8995003798
  0
LINE
  5
56D
100
AcDbEntity
  8
21814000
100
AcDbLine
 62
253
  6
CONTINUOUS
 10
124.9890721009
 20
110.9947385885
 11
124.8462366946
 21
110.8518812754
  0
LINE
  5
56E
100
AcDbEntity
  8
21814000
100
AcDbLine
 62
253
  6
CONTINUOUS
 10
124.4177305651
 20
110.0661671259
 11
124.5605659416
 21
110.2090242006
  0
LINE
  5
56F
100
AcDbEntity
  8
21814000
100
AcDbLine
 62
253
  6
CONTINUOUS
 10
124.4177305651
 20
109.2804528572
 11
124.5605659416
 21
109.4233099319
  0
LINE
  5
570
100
AcDbEntity
  8
21814000
100
AcDbLine
 62
253
  6
CONTINUOUS
 10
125.4175782603
 20
109.9947384693
 11
125.2747428688
 21
109.8518813946
  0
LINE
  5
571
100
AcDbEntity
  8
21814000
100
AcDbLine
 62
253
  6
CONTINUOUS
 10
125.4175782603
 20
109.2090242006
 11
125.2747428688
 21
109.0661670663
  0
LWPOLYLINE
  5
572
100
AcDbEntity
  8
21814000
100
AcDbPolyline
 62
253
  6
CONTINUOUS
 90
58
 70
0
 10
130.3914315374
 20
106.7117883347
 10
130.3861196307
 20
106.7096681199
 10
130.3807085012
 20
106.7070382686
 10
130.3752006159
 20
106.7038968716
 10
130.369587441
 20
106.7002466114
 10
130.363883221
 20
106.6960806429
 10
130.3581246169
 20
106.6913832771
 10
130.3523094771
 20
106.6861326246
 10
130.3464462559
 20
106.6803473418
 10
130.3405867651
 20
106.674074051
 10
130.334740292
 20
106.667305669
 10
130.3289030509
 20
106.6600478895
 10
130.3231061167
 20
106.6523679886
 10
130.3173645994
 20
106.6442797574
 10
130.311667802
 20
106.6357692086
 10
130.3060077636
 20
106.6268622748
 10
130.3003877911
 20
106.6175619825
 10
130.2948095097
 20
106.6078644898
 10
130.2892629949
 20
106.5977848761
 10
130.2837509492
 20
106.5873241577
 10
130.278276357
 20
106.5764799209
 10
130.2728304629
 20
106.5652614846
 10
130.2674200033
 20
106.5536774848
 10
130.2620448321
 20
106.5417173837
 10
130.2566871264
 20
106.5293608506
 10
130.2513518222
 20
106.516610135
 10
130.2460427591
 20
106.5034599134
 10
130.2407424403
 20
106.4898772473
 10
130.2354559846
 20
106.475859273
 10
130.2301900337
 20
106.4614044458
 10
130.224931694
 20
106.4464804998
 10
130.2196879379
 20
106.4310826372
 10
130.2144670962
 20
106.41520998
 10
130.2092608496
 20
106.3988348753
 10
130.2040789724
 20
106.381953011
 10
130.1989311552
 20
106.3645618659
 10
130.1938118804
 20
106.346635175
 10
130.1887360587
 20
106.3281766639
 10
130.1837132991
 20
106.3091747135
 10
130.1787343989
 20
106.289578304
 10
130.1738168364
 20
106.2693843898
 10
130.1689757695
 20
106.2485864339
 10
130.1642048815
 20
106.2271258189
 10
130.1595269235
 20
106.2049962383
 10
130.1549628715
 20
106.1821927744
 10
130.1505124067
 20
106.1586561032
 10
130.146203183
 20
106.1343632312
 10
130.1420665943
 20
106.1093247034
 10
130.1381180275
 20
106.0835289166
 10
130.1343965469
 20
106.0569722227
 10
130.1309380725
 20
106.0296473641
 10
130.1277661921
 20
106.0015349164
 10
130.1249342012
 20
105.9726619122
 10
130.1224857146
 20
105.9429944865
 10
130.1204546033
 20
105.9124182106
 10
130.1189068758
 20
105.8808929637
 10
130.1179231188
 20
105.8484580881
 10
130.1175782603
 20
105.815119541
  0
LINE
  5
573
100
AcDbEntity
  8
21814000
100
AcDbLine
 62
253
  6
CONTINUOUS
 10
111.0183166052
 20
98.6612746633
 11
113.9175712624
 21
99.5924136633
  0
LWPOLYLINE
  5
574
100
AcDbEntity
  8
21814000
100
AcDbPolyline
 62
253
  6
CONTINUOUS
 90
43
 70
0
 10
129.233285426
 20
117.0558330721
 10
129.2570349133
 20
117.0625438491
 10
129.2811171184
 20
117.0661834264
 10
129.3055130751
 20
117.0667518041
 10
129.3302520675
 20
117.0642807017
 10
129.3552617305
 20
117.0587383997
 10
129.380369971
 20
117.0500297394
 10
129.4055974877
 20
117.0379357382
 10
129.4308759126
 20
117.0226753788
 10
129.4559054178
 20
117.0048104501
 10
129.4805715241
 20
116.984317776
 10
129.504952865
 20
116.9612205326
 10
129.5290451491
 20
116.9361500377
 10
129.5527683886
 20
116.909221306
 10
129.5761690789
 20
116.8803193227
 10
129.5994259407
 20
116.8497303606
 10
129.6225104929
 20
116.8175204068
 10
129.6454026025
 20
116.7836234742
 10
129.6682765855
 20
116.7481278751
 10
129.6911166893
 20
116.7110320964
 10
129.7138645556
 20
116.6723376513
 10
129.7366112066
 20
116.6321373909
 10
129.7593069817
 20
116.5904382974
 10
129.7818997683
 20
116.5472333887
 10
129.8044558192
 20
116.50259457
 10
129.8268759647
 20
116.4565789258
 10
129.8491213021
 20
116.4091293716
 10
129.8713130563
 20
116.3601465588
 10
129.8933145655
 20
116.3096784643
 10
129.9150541804
 20
116.2576771113
 10
129.9366827061
 20
116.2038992211
 10
129.9580210566
 20
116.148308473
 10
129.9789087435
 20
116.0909411878
 10
129.9994141537
 20
116.0316630493
 10
130.0192572188
 20
115.9703979387
 10
130.0381766745
 20
115.9072219748
 10
130.0561018279
 20
115.8422291971
 10
130.0726699724
 20
115.7750434919
 10
130.0873650605
 20
115.706040973
 10
130.0997378809
 20
115.6364440217
 10
130.1092708315
 20
115.5666600983
 10
130.1154058178
 20
115.4962817426
 10
130.1175782603
 20
115.4253089543
  0
LWPOLYLINE
  5
575
100
AcDbEntity
  8
21814000
100
AcDbPolyline
 62
253
  6
CONTINUOUS
 90
88
 70
0
 10
121.6706519503
 20
112.9659852439
 10
121.6547817775
 20
112.9631169323
 10
121.6390023023
 20
112.9597377425
 10
121.6233351079
 20
112.9558381036
 10
121.6078017777
 20
112.9514084447
 10
121.592423895
 20
112.9464391947
 10
121.5772230431
 20
112.9409207829
 10
121.5681763936
 20
112.9373217113
 10
121.5592458106
 20
112.9334610435
 10
121.5504754349
 20
112.9292795223
 10
121.5419094069
 20
112.9247178902
 10
121.5335918674
 20
112.9197168902
 10
121.5256060989
 20
112.9142621655
 10
121.5179394501
 20
112.9083427434
 10
121.5106214885
 20
112.9019873092
 10
121.5036817815
 20
112.8952245483
 10
121.4971498965
 20
112.888083146
 10
121.4910153061
 20
112.8805592514
 10
121.4852768461
 20
112.8727316887
 10
121.4798891409
 20
112.8646500395
 10
121.4748068148
 20
112.8563638854
 10
121.4699844922
 20
112.8479228081
 10
121.4642696691
 20
112.8372206
 10
121.4588818041
 20
112.8263629367
 10
121.4538128791
 20
112.8153587728
 10
121.4490548759
 20
112.8042170629
 10
121.443186912
 20
112.7891651547
 10
121.4378708412
 20
112.7739058018
 10
121.4331202183
 20
112.7584601002
 10
121.4289407702
 20
112.7428446955
 10
121.4253157544
 20
112.7270923516
 10
121.422220182
 20
112.7112315015
 10
121.4196253694
 20
112.6953021076
 10
121.4174745754
 20
112.679305589
 10
121.4157082558
 20
112.6632547527
 10
121.4142668663
 20
112.6471624056
 10
121.4130908625
 20
112.6310413545
 10
121.4121207001
 20
112.6149044063
 10
121.4115102265
 20
112.602789579
 10
121.4110668962
 20
112.5906749489
 10
121.4108754404
 20
112.5785624538
 10
121.4110205904
 20
112.5664540316
 10
121.4115633106
 20
112.5543635822
 10
121.4124728511
 20
112.5422876584
 10
121.4136954512
 20
112.5302347859
 10
121.4151773505
 20
112.5182134903
 10
121.4174864629
 20
112.5022584096
 10
121.4201818227
 20
112.4863747445
 10
121.4232848614
 20
112.4705627312
 10
121.4268170109
 20
112.4548226062
 10
121.4307997031
 20
112.4391546061
 10
121.4352543695
 20
112.4235589671
 10
121.4384948443
 20
112.4132269134
 10
121.4419842473
 20
112.402962302
 10
121.4457530142
 20
112.3928004271
 10
121.4498315804
 20
112.382776583
 10
121.4542503813
 20
112.372926064
 10
121.4590398526
 20
112.3632841642
 10
121.4642304296
 20
112.3538861779
 10
121.4698525479
 20
112.3447673993
 10
121.4759366429
 20
112.3359631226
 10
121.4818524311
 20
112.3282894788
 10
121.4881199891
 20
112.3208782076
 10
121.4946880047
 20
112.3137053436
 10
121.5015051658
 20
112.3067469208
 10
121.5085201601
 20
112.2999789737
 10
121.5157034088
 20
112.2933806445
 10
121.5230583451
 20
112.286992745
 10
121.5306097691
 20
112.280858779
 10
121.5383824809
 20
112.27502225
 10
121.5464012808
 20
112.2695266616
 10
121.5546336925
 20
112.2644395277
 10
121.5631096027
 20
112.2597475284
 10
121.5718047719
 20
112.2554658248
 10
121.5806949606
 20
112.2516095779
 10
121.5897559293
 20
112.248193949
 10
121.5990267478
 20
112.2452110312
 10
121.6084281786
 20
112.2426767159
 10
121.6179423218
 20
112.2405776944
 10
121.6275512778
 20
112.2389006581
 10
121.6372371467
 20
112.2376322986
 10
121.6471093433
 20
112.2367539979
 10
121.6570208545
 20
112.2362889224
 10
121.6669504279
 20
112.2362445207
 10
121.6768768114
 20
112.236628241
 10
121.6867787525
 20
112.2374475318
 10
121.6966349991
 20
112.2387098413
 10
121.7064242988
 20
112.240422618
  0
LWPOLYLINE
  5
576
100
AcDbEntity
  8
21814000
100
AcDbPolyline
 62
253
  6
CONTINUOUS
 90
56
 70
0
 10
111.9098087038
 20
110.7191224636
 10
111.8793161839
 20
110.7188174074
 10
111.8488190666
 20
110.7178695921
 10
111.818342416
 20
110.7162300478
 10
111.787911296
 20
110.7138498043
 10
111.757550771
 20
110.7106798917
 10
111.7272859049
 20
110.7066713399
 10
111.697141762
 20
110.701775179
 10
111.6708539479
 20
110.696719384
 10
111.6447118742
 20
110.6909228136
 10
111.6187493795
 20
110.6843635823
 10
111.5930003023
 20
110.6770198048
 10
111.5674984812
 20
110.6688695958
 10
111.5422777546
 20
110.6598910698
 10
111.5173719612
 20
110.6500623416
 10
111.4928149394
 20
110.6393615258
 10
111.4686489583
 20
110.6277742236
 10
111.4449141954
 20
110.6152985484
 10
111.4216594481
 20
110.6019396576
 10
111.3989335136
 20
110.5877027086
 10
111.3767851894
 20
110.5725928588
 10
111.3552632729
 20
110.5566152657
 10
111.3344165614
 20
110.5397750867
 10
111.3142938522
 20
110.5220774793
 10
111.2950030123
 20
110.5035997519
 10
111.276494625
 20
110.484325273
 10
111.2587836066
 20
110.4643037579
 10
111.2418848729
 20
110.4435849219
 10
111.2258133401
 20
110.4222184803
 10
111.2105839241
 20
110.4002541484
 10
111.1962115409
 20
110.3777416416
 10
111.1827111066
 20
110.3547306749
 10
111.1700372928
 20
110.3311923866
 10
111.15815847
 20
110.3072645394
 10
111.1469767153
 20
110.2830093795
 10
111.1363941056
 20
110.2584891531
 10
111.1230673651
 20
110.2254878744
 10
111.1104963635
 20
110.1921879727
 10
111.0985463903
 20
110.1586511466
 10
111.0899326094
 20
110.1333531031
 10
111.0817060226
 20
110.1079302853
 10
111.0739798732
 20
110.0823566265
 10
111.0668674045
 20
110.0566060602
 10
111.0604752481
 20
110.0307095409
 10
111.054813793
 20
110.0046375058
 10
111.0498895056
 20
109.9784166623
 10
111.0457088523
 20
109.9520737181
 10
111.0422447654
 20
109.9255701823
 10
111.0393843638
 20
109.8989935074
 10
111.0369775733
 20
109.8723664127
 10
111.0348743197
 20
109.8457116179
 10
111.0311640711
 20
109.7924283399
 10
111.027962785
 20
109.739121839
 10
111.0243190503
 20
109.668045174
 10
111.0212125045
 20
109.5969376861
 10
111.018460702
 20
109.5258157207
  0
LINE
  5
577
100
AcDbEntity
  8
21814000
100
AcDbLine
 62
253
  6
CONTINUOUS
 10
124.8462366946
 20
110.5661671259
 11
124.4177305651
 21
110.5661671259
  0
LINE
  5
578
100
AcDbEntity
  8
ASSI
100
AcDbLine
 62
7
  6
CONTINUOUS
 10
108.4175782603
 20
110.6721766633
 11
108.6175782603
 21
110.6721766633
  0
LINE
  5
579
100
AcDbEntity
  8
21814000
100
AcDbLine
 62
253
  6
CONTINUOUS
 10
125.2747428688
 20
110.9947385885
 11
124.9890721009
 21
110.9947385885
  0
LINE
  5
57A
100
AcDbEntity
  8
21814000
100
AcDbLine
 62
253
  6
CONTINUOUS
 10
113.9175782603
 20
111.1087286633
 11
111.0184605614
 21
111.1087286633
  0
LINE
  5
57B
100
AcDbEntity
  8
ASSI
100
AcDbLine
 62
7
  6
CONTINUOUS
 10
108.4175782603
 20
111.1732576633
 11
108.6175782603
 21
111.1732576633
  0
LINE
  5
57C
100
AcDbEntity
  8
21814000
100
AcDbLine
 62
7
  6
CONTINUOUS
 10
130.1175782603
 20
111.4375956633
 11
130.3175782603
 21
111.4375956633
  0
LINE
  5
57D
100
AcDbEntity
  8
ASSI
100
AcDbLine
 62
7
  6
CONTINUOUS
 10
108.4175782603
 20
111.6097206633
 11
108.6175782603
 21
111.6097206633
  0
LINE
  5
57E
100
AcDbEntity
  8
21814000
100
AcDbLine
 62
253
  6
CONTINUOUS
 10
111.0184605614
 20
111.7313346633
 11
113.4357920505
 21
111.7313346633
  0
LINE
  5
57F
100
AcDbEntity
  8
21814000
100
AcDbLine
 62
253
  6
CONTINUOUS
 10
124.7034013181
 20
111.780452738
 11
124.5605659416
 21
111.780452738
  0
LINE
  5
580
100
AcDbEntity
  8
21814000
100
AcDbLine
 62
253
  6
CONTINUOUS
 10
127.1179742227
 20
111.8480026633
 11
128.4175782603
 21
111.8480026633
  0
LINE
  5
581
100
AcDbEntity
  8
ASSI
100
AcDbLine
 62
7
  6
CONTINUOUS
 10
108.4175782603
 20
112.1097456633
 11
108.6175782603
 21
112.1097456633
  0
LINE
  5
582
100
AcDbEntity
  8
21814000
100
AcDbLine
 62
253
  6
CONTINUOUS
 10
125.4175782603
 20
112.3995003798
 11
124.9176544127
 21
112.3995003798
  0
LINE
  5
583
100
AcDbEntity
  8
21814000
100
AcDbLine
 62
253
  6
CONTINUOUS
 10
130.1129072955
 20
111.5358842996
 11
130.1134262916
 21
111.5358842276
  0
LINE
  5
584
100
AcDbEntity
  8
21814000
100
AcDbLine
 62
7
  6
CONTINUOUS
 10
130.3914315374
 20
110.713636606
 11
132.1437249831
 21
110.5603307944
  0
LINE
  5
585
100
AcDbEntity
  8
21814000
100
AcDbLine
 62
253
  6
CONTINUOUS
 10
125.4175782603
 20
108.1375956633
 11
124.4177305651
 21
108.4233099618
  0
LINE
  5
586
100
AcDbEntity
  8
21814000
100
AcDbLine
 62
253
  6
CONTINUOUS
 10
128.4145321634
 20
97.2733098604
 11
128.2288461545
 21
97.4590240576
  0
LWPOLYLINE
  5
587
100
AcDbEntity
  8
21814000
100
AcDbPolyline
 62
253
  6
CONTINUOUS
 90
7
 70
0
 10
130.1134262916
 20
94.2383515816
 10
130.1157821508
 20
94.2352684518
 10
130.1342537711
 20
94.2131735809
 10
130.1536511201
 20
94.1911224718
 10
130.1738424478
 20
94.1690129459
 10
130.1949595041
 20
94.1469471817
 10
130.2170022891
 20
94.1249251794
  0
LWPOLYLINE
  5
588
100
AcDbEntity
  8
21814000
100
AcDbPolyline
 62
253
  6
CONTINUOUS
 90
12
 70
0
 10
121.0715845412
 20
117.402613099
 10
121.0712550751
 20
117.4162528199
 10
121.0710287661
 20
117.4298923328
 10
121.070905661
 20
117.4435307108
 10
121.0708858066
 20
117.4571670272
 10
121.0709692495
 20
117.4708003552
 10
121.0711560364
 20
117.4844297678
 10
121.0714462142
 20
117.4980543384
 10
121.0718398295
 20
117.51167314
 10
121.072336929
 20
117.5252852459
 10
121.0729375595
 20
117.5388897293
 10
121.0736417677
 20
117.5524856633
  0
LINE
  5
589
100
AcDbEntity
  8
21814000
100
AcDbLine
 62
253
  6
CONTINUOUS
 10
120.7826703828
 20
91.8898066633
 11
120.7826703828
 21
92.3853846633
  0
LWPOLYLINE
  5
58A
100
AcDbEntity
  8
21814000
100
AcDbPolyline
 62
253
  6
CONTINUOUS
 90
51
 70
0
 10
120.6677788247
 20
104.1378722158
 10
120.6688945455
 20
104.2387426379
 10
120.6722535216
 20
104.3396420273
 10
120.6778734734
 20
104.4404977987
 10
120.6857721213
 20
104.541237367
 10
120.6959671857
 20
104.6417881469
 10
120.708476387
 20
104.7420775532
 10
120.7233174457
 20
104.8420330006
 10
120.7405080821
 20
104.9415819041
 10
120.7600660167
 20
105.0406516783
 10
120.7797376963
 20
105.1294547381
 10
120.8013911771
 20
105.2177599121
 10
120.8250716144
 20
105.305517309
 10
120.8508241638
 20
105.3926770378
 10
120.8786939807
 20
105.4791892071
 10
120.9035657987
 20
105.5507355563
 10
120.9299724694
 20
105.6217405237
 10
120.9579476573
 20
105.6921469084
 10
120.9875250271
 20
105.7618975099
 10
121.0187382433
 20
105.8309351273
 10
121.0516209706
 20
105.8992025602
 10
121.0861968527
 20
105.9666125019
 10
121.1225232153
 20
106.0330996428
 10
121.1606485643
 20
106.0985679839
 10
121.2006214056
 20
106.1629215264
 10
121.2424902452
 20
106.2260642714
 10
121.2863035888
 20
106.2879002199
 10
121.3254092385
 20
106.3397392857
 10
121.3660031772
 20
106.3904376297
 10
121.4081118202
 20
106.4398834814
 10
121.4517615827
 20
106.48796507
 10
121.49697888
 20
106.5345706249
 10
121.5437901273
 20
106.5795883754
 10
121.59222174
 20
106.6229065508
 10
121.6358660281
 20
106.6592567752
 10
121.6807512934
 20
106.6940996784
 10
121.7268621174
 20
106.7273098883
 10
121.7741830816
 20
106.758762033
 10
121.8226987676
 20
106.7883307404
 10
121.8723937569
 20
106.8158906383
 10
121.9232526309
 20
106.8413163548
 10
121.9752599713
 20
106.8644825178
 10
122.022306694
 20
106.8830367858
 10
122.0701344845
 20
106.8996510788
 10
122.1186335637
 20
106.914260544
 10
122.1676941526
 20
106.9268003286
 10
122.2172064723
 20
106.9372055798
 10
122.2670607437
 20
106.9454114448
 10
122.3171471879
 20
106.9513530709
 10
122.3673560259
 20
106.9549656052
 10
122.4175774786
 20
106.9561841951
  0
LWPOLYLINE
  5
58B
100
AcDbEntity
  8
21814000
100
AcDbPolyline
 62
253
  6
CONTINUOUS
 90
83
 70
0
 10
120.3230534565
 20
121.9375986633
 10
120.3211053457
 20
121.8400304932
 10
120.3229022178
 20
121.7423609942
 10
120.3284342006
 20
121.6447597785
 10
120.3376914219
 20
121.5473964584
 10
120.3506640096
 20
121.4504406462
 10
120.3673420914
 20
121.3540619542
 10
120.3877101742
 20
121.2584234424
 10
120.411730281
 20
121.163661962
 10
120.4393588136
 20
121.0699078117
 10
120.4705521741
 20
120.9772912905
 10
120.5052667644
 20
120.885942697
 10
120.5434589865
 20
120.7959923301
 10
120.5850802755
 20
120.7075697154
 10
120.6300622003
 20
120.620801285
 10
120.6783313628
 20
120.5358126978
 10
120.7298143649
 20
120.4527296128
 10
120.7844378088
 20
120.3716776888
 10
120.8421282963
 20
120.2927825848
 10
120.9028080344
 20
120.2161662284
 10
120.9663816494
 20
120.1419356218
 10
121.0327493723
 20
120.070194036
 10
121.1018114344
 20
120.0010447422
 10
121.1734680669
 20
119.9345910113
 10
121.2476195008
 20
119.8709361144
 10
121.3241624676
 20
119.8101791816
 10
121.402979699
 20
119.7524027803
 10
121.483950427
 20
119.6976853368
 10
121.5669538837
 20
119.6461052776
 10
121.6518693011
 20
119.5977410292
 10
121.7385759112
 20
119.552671018
 10
121.8269505009
 20
119.5109687078
 10
121.9168600776
 20
119.4726877125
 10
122.0081692035
 20
119.4378766829
 10
122.1007424407
 20
119.4065842702
 10
122.1944443516
 20
119.3788591256
 10
122.2891394983
 20
119.3547499
 10
122.3846911884
 20
119.3342998914
 10
122.4809577107
 20
119.3175309845
 10
122.5777960991
 20
119.3044597109
 10
122.6750633877
 20
119.2951026022
 10
122.7726166105
 20
119.28947619
 10
122.8703128016
 20
119.2875970057
 10
122.968008995
 20
119.2894760706
 10
123.0655622247
 20
119.2951023636
 10
123.1628295248
 20
119.3044593535
 10
123.2596679291
 20
119.3175305087
 10
123.3559344719
 20
119.3342992979
 10
123.451486187
 20
119.3547491898
 10
123.5461813631
 20
119.3788582996
 10
123.6398833078
 20
119.4065833298
 10
123.7324565833
 20
119.4378756293
 10
123.8237657517
 20
119.4726865473
 10
123.9136753751
 20
119.5109674328
 10
124.0020500158
 20
119.5526696349
 10
124.0887566809
 20
119.5977395402
 10
124.1736721574
 20
119.6461036848
 10
124.2566756771
 20
119.6976836426
 10
124.337646472
 20
119.7524009871
 10
124.4164637739
 20
119.8101772921
 10
124.4930068148
 20
119.8709341313
 10
124.5671583265
 20
119.9345889377
 10
124.6388150402
 20
120.001042581
 10
124.7078771867
 20
120.0701917904
 10
124.7742449973
 20
120.141933295
 10
124.8378187029
 20
120.2161638239
 10
124.8984985346
 20
120.2927801062
 10
124.9561891185
 20
120.3716751397
 10
125.0108126613
 20
120.452726997
 10
125.0622957649
 20
120.535810019
 10
125.1105650312
 20
120.6207985472
 10
125.1555470619
 20
120.7075669226
 10
125.197168459
 20
120.7959894865
 10
125.2353607909
 20
120.8859398067
 10
125.2700754928
 20
120.9772883578
 10
125.3012689664
 20
121.0699048409
 10
125.3288976136
 20
121.1636589574
 10
125.3529178361
 20
121.2584204085
 10
125.3732860357
 20
121.3540588953
 10
125.3899642352
 20
121.450437567
 10
125.4029369413
 20
121.5473933633
 10
125.4121942815
 20
121.6447566721
 10
125.4177263835
 20
121.7423578811
  0
LWPOLYLINE
  5
58C
100
AcDbEntity
  8
21814000
100
AcDbPolyline
 62
253
  6
CONTINUOUS
 90
83
 70
0
 10
120.3230534565
 20
117.5524856633
 10
120.3211054605
 20
117.4549175309
 10
120.3229024446
 20
117.3572480741
 10
120.3284345364
 20
117.2596469048
 10
120.3376918635
 20
117.1622836352
 10
120.3506645537
 20
117.0653278774
 10
120.3673427345
 20
116.9689492434
 10
120.3877109127
 20
116.8733107931
 10
120.411731111
 20
116.7785493774
 10
120.4393597313
 20
116.6847952949
 10
120.4705531755
 20
116.5921788442
 10
120.5052678455
 20
116.500830324
 10
120.5434601431
 20
116.4108800328
 10
120.5850815035
 20
116.3224574961
 10
120.6300634953
 20
116.2356891458
 10
120.6783327206
 20
116.1507006405
 10
120.7298157812
 20
116.0676176391
 10
120.7844392791
 20
115.9865658
 10
120.8421298163
 20
115.9076707822
 10
120.9028095997
 20
115.8310545128
 10
120.9663832555
 20
115.7568239942
 10
121.0327510149
 20
115.6850824969
 10
121.1018131091
 20
115.615933292
 10
121.1734697692
 20
115.5494796501
 10
121.2476212266
 20
115.4858248421
 10
121.3241642124
 20
115.4250679981
 10
121.4029814587
 20
115.3672916851
 10
121.4839521974
 20
115.3125743293
 10
121.5669556608
 20
115.2609943569
 10
121.6518710808
 20
115.2126301944
 10
121.7385776896
 20
115.1675602679
 10
121.8269522743
 20
115.1258580411
 10
121.9168618421
 20
115.0875771275
 10
122.0081709555
 20
115.052766178
 10
122.1007441768
 20
115.0214738437
 10
122.1944460683
 20
114.9937487754
 10
122.2891411925
 20
114.9696396241
 10
122.3846928569
 20
114.9491896874
 10
122.4809593504
 20
114.93242085
 10
122.5777977074
 20
114.9193496435
 10
122.6750649618
 20
114.9099925992
 10
122.772618148
 20
114.9043662487
 10
122.8703143
 20
114.9024871234
 10
122.9680104521
 20
114.9043662442
 10
123.0655636386
 20
114.9099925902
 10
123.1628308934
 20
114.91934963
 10
123.2596692509
 20
114.9324208321
 10
123.3559357453
 20
114.949189665
 10
123.4514874107
 20
114.9696395972
 10
123.5461825359
 20
114.9937487442
 10
123.6398844287
 20
115.0214738082
 10
123.7324576515
 20
115.0527661383
 10
123.8237667664
 20
115.0875770835
 10
123.9136763361
 20
115.1258579929
 10
124.0020509226
 20
115.1675602156
 10
124.0887575335
 20
115.2126301382
 10
124.1736729557
 20
115.2609942968
 10
124.2566764215
 20
115.3125742653
 10
124.3376471628
 20
115.3672916174
 10
124.4164644117
 20
115.4250679268
 10
124.4930074003
 20
115.4858247672
 10
124.5671588606
 20
115.5494795718
 10
124.6388155239
 20
115.6159332104
 10
124.7078776212
 20
115.6850824121
 10
124.7742453839
 20
115.7568239063
 10
124.8378190432
 20
115.831054422
 10
124.89849883
 20
115.9076706886
 10
124.9561893709
 20
115.9865657038
 10
125.0108128726
 20
116.0676175403
 10
125.062295937
 20
116.1507005394
 10
125.1105651662
 20
116.2356890424
 10
125.155547162
 20
116.3224573906
 10
125.1971685265
 20
116.4108799255
 10
125.2353608283
 20
116.5008302148
 10
125.2700755024
 20
116.5921787334
 10
125.3012689509
 20
116.6847951827
 10
125.3288975756
 20
116.7785492639
 10
125.3529177782
 20
116.8733106785
 10
125.3732859608
 20
116.9689491279
 10
125.3899641461
 20
117.0653277611
 10
125.4029368407
 20
117.1622835184
 10
125.4121941723
 20
117.2596467875
 10
125.4177262687
 20
117.3572479565
  0
LWPOLYLINE
  5
58D
100
AcDbEntity
  8
21814000
100
AcDbPolyline
 62
253
  6
CONTINUOUS
 90
74
 70
0
 10
121.9345794132
 20
112.6147212133
 10
121.9527365394
 20
112.6850783927
 10
121.9589628211
 20
112.7084961963
 10
121.9654348753
 20
112.731829587
 10
121.9723314603
 20
112.7550362415
 10
121.9797250454
 20
112.7780860447
 10
121.9872201738
 20
112.8011094652
 10
121.9908916262
 20
112.8126768118
 10
121.9946243281
 20
112.8242228505
 10
121.9985828574
 20
112.8356905538
 10
122.0029317925
 20
112.847022894
 10
122.0077909038
 20
112.8581194564
 10
122.0132140394
 20
112.8689598284
 10
122.0192144505
 20
112.8794787505
 10
122.0258053885
 20
112.8896109632
 10
122.0330182746
 20
112.8993467647
 10
122.0407793701
 20
112.9086642504
 10
122.0490281893
 20
112.9176007542
 10
122.0577042461
 20
112.92619361
 10
122.0666779106
 20
112.9343952811
 10
122.0760020901
 20
112.9422333833
 10
122.0856666808
 20
112.9496455396
 10
122.095661579
 20
112.9565693727
 10
122.1059766808
 20
112.9629425054
 10
122.1166018826
 20
112.9687025605
 10
122.1275270807
 20
112.9737871608
 10
122.1387421712
 20
112.9781339292
 10
122.1502363434
 20
112.9816980694
 10
122.1619639134
 20
112.9844956048
 10
122.1738782314
 20
112.9865608805
 10
122.1859326476
 20
112.9879282415
 10
122.198080512
 20
112.9886320329
 10
122.210275175
 20
112.9887065997
 10
122.2224699866
 20
112.988186287
 10
122.2346182969
 20
112.9871054398
 10
122.2485002625
 20
112.9852025806
 10
122.2622307498
 20
112.9826065565
 10
122.2757818705
 20
112.9793223361
 10
122.2891257367
 20
112.9753548878
 10
122.30223446
 20
112.9707091799
 10
122.3150801524
 20
112.9653901811
 10
122.3276349258
 20
112.9594028596
 10
122.3398214358
 20
112.9527838127
 10
122.3516587122
 20
112.9455329478
 10
122.3631137683
 20
112.9376764743
 10
122.3741536177
 20
112.9292406018
 10
122.3847452738
 20
112.9202515396
 10
122.3948557502
 20
112.9107354973
 10
122.4044520604
 20
112.9007186842
 10
122.4135400392
 20
112.8901910879
 10
122.4220878096
 20
112.8792255305
 10
122.4301062504
 20
112.8678620244
 10
122.4376062404
 20
112.8561405821
 10
122.4445986582
 20
112.8441012162
 10
122.4510943826
 20
112.831783939
 10
122.4571042923
 20
112.8192287632
 10
122.4640298042
 20
112.8030538296
 10
122.4702154983
 20
112.7865910254
 10
122.4756820769
 20
112.7698693575
 10
122.4804502423
 20
112.7529178325
 10
122.4845406968
 20
112.7357654573
 10
122.4879741425
 20
112.7184412387
 10
122.4907712819
 20
112.7009741833
 10
122.4929528171
 20
112.6833932979
 10
122.4945394505
 20
112.6657275894
 10
122.4955518843
 20
112.6480060644
 10
122.4960108208
 20
112.6302577298
 10
122.4958931817
 20
112.6107260776
 10
122.4951118226
 20
112.5912276261
 10
122.4936484187
 20
112.5717929147
 10
122.491484645
 20
112.5524524824
 10
122.4886021767
 20
112.5332368688
 10
122.4849826887
 20
112.5141766129
 10
122.4806078561
 20
112.4953022542
  0
LWPOLYLINE
  5
58E
100
AcDbEntity
  8
21814000
100
AcDbPolyline
 62
253
  6
CONTINUOUS
 90
45
 70
0
 10
122.4806078561
 20
112.4953022542
 10
122.477612768
 20
112.484079574
 10
122.4743352007
 20
112.4729414073
 10
122.470771196
 20
112.4618943507
 10
122.4669167957
 20
112.4509450007
 10
122.4627680417
 20
112.4400999537
 10
122.459063305
 20
112.4311014418
 10
122.4551467065
 20
112.4221901124
 10
122.4510157042
 20
112.4133753319
 10
122.4466677562
 20
112.4046664665
 10
122.4421003206
 20
112.3960728828
 10
122.4373108556
 20
112.387603947
 10
122.4322968191
 20
112.3792690255
 10
122.4270556694
 20
112.3710774846
 10
122.4215848644
 20
112.3630386908
 10
122.4158818623
 20
112.3551620103
 10
122.4099483158
 20
112.3474600024
 10
122.4037857757
 20
112.33993631
 10
122.3973997664
 20
112.3325979306
 10
122.3907958125
 20
112.3254518614
 10
122.3839794384
 20
112.3185050997
 10
122.3769561685
 20
112.3117646428
 10
122.3697315273
 20
112.3052374881
 10
122.3623110393
 20
112.2989306328
 10
122.3547002289
 20
112.2928510743
 10
122.3469046207
 20
112.2870058097
 10
122.3384630585
 20
112.2810828474
 10
122.3298319113
 20
112.2754271736
 10
122.3210222434
 20
112.2700360151
 10
122.3120451189
 20
112.2649065989
 10
122.302911602
 20
112.2600361517
 10
122.2936327567
 20
112.2554219004
 10
122.2842196472
 20
112.2510610719
 10
122.2746833377
 20
112.2469508931
 10
122.2650348923
 20
112.2430885907
 10
122.2552853751
 20
112.2394713916
 10
122.2454458504
 20
112.2360965227
 10
122.2355273822
 20
112.2329612108
 10
122.2255410347
 20
112.2300626828
 10
122.215497872
 20
112.2273981656
 10
122.2054089583
 20
112.2249648859
 10
122.1952853578
 20
112.2227600707
 10
122.1851381345
 20
112.2207809467
 10
122.1749783527
 20
112.219024741
 10
122.1648170764
 20
112.2174886802
  0
LINE
  5
58F
100
AcDbEntity
  8
21814000
100
AcDbLine
 62
253
  6
CONTINUOUS
 10
121.3307074073
 20
104.8226266633
 11
121.7102107805
 21
106.1152546633
  0
LINE
  5
590
100
AcDbEntity
  8
RACCORDO
100
AcDbLine
 62
253
  6
CONTINUOUS
 10
107.4175782603
 20
82.5262707979
 11
107.5425782603
 21
82.7427771488
  0
LINE
  5
591
100
AcDbEntity
  8
RACCORDO
100
AcDbLine
 62
253
  6
CONTINUOUS
 10
108.1675782603
 20
82.093258096
 11
108.2925782603
 21
82.3097644469
  0
LINE
  5
592
100
AcDbEntity
  8
21814000
100
AcDbLine
 62
253
  6
CONTINUOUS
 10
121.4868318394
 20
102.4968586633
 11
123.2858727089
 21
104.0946246633
  0
LINE
  5
593
100
AcDbEntity
  8
21814000
100
AcDbLine
 62
253
  6
CONTINUOUS
 10
112.7965548129
 20
98.6523496633
 11
111.9212824902
 21
98.3712456633
  0
LINE
  5
594
100
AcDbEntity
  8
21814000
100
AcDbLine
 62
253
  6
CONTINUOUS
 10
113.9175632648
 20
99.0123846633
 11
113.347408979
 21
98.8292786633
  0
LWPOLYLINE
  5
595
100
AcDbEntity
  8
21814000
100
AcDbPolyline
 62
7
  6
CONTINUOUS
 90
76
 70
0
 10
129.3882434568
 20
117.1404906837
 10
129.4775016965
 20
117.1630186755
 10
129.5643079743
 20
117.1854248073
 10
129.6486622903
 20
117.2077090791
 10
129.7305081744
 20
117.2298592075
 10
129.8099020966
 20
117.2518874759
 10
129.8870134667
 20
117.2738307343
 10
129.961852131
 20
117.2956882922
 10
130.0344082433
 20
117.3174608402
 10
130.104821675
 20
117.3391873001
 10
130.1730994265
 20
117.3608653775
 10
130.2392344975
 20
117.3824973668
 10
130.303345758
 20
117.4041290736
 10
130.365441488
 20
117.4257571115
 10
130.4255134074
 20
117.4473848668
 10
130.4836555461
 20
117.4690683041
 10
130.5398786817
 20
117.4908023935
 10
130.5941720364
 20
117.5125921648
 10
130.6465973077
 20
117.5345086717
 10
130.6971698984
 20
117.5565442659
 10
130.7458744055
 20
117.5787065957
 10
130.7927263173
 20
117.6010896605
 10
130.8377517791
 20
117.6236828315
 10
130.8809246455
 20
117.6464967374
 10
130.9221819678
 20
117.6696572638
 10
130.9615680088
 20
117.6931490108
 10
130.9990385057
 20
117.7169873783
 10
131.034397722
 20
117.741344452
 10
131.06774494
 20
117.7662311908
 10
131.0989808775
 20
117.7916366358
 10
131.1276119511
 20
117.8176999963
 10
131.1537477597
 20
117.8445109245
 10
131.1772787044
 20
117.8719797681
 10
131.1973824056
 20
117.8999767805
 10
131.2139915612
 20
117.9285453816
 10
131.2271734734
 20
117.9576421514
 10
131.2363076691
 20
117.9870070832
 10
131.2412369037
 20
118.0166588796
 10
131.2421184217
 20
118.046578838
 10
131.2388034846
 20
118.0764508431
 10
131.2310539106
 20
118.1063302567
 10
131.2191078814
 20
118.136161717
 10
131.2035312025
 20
118.165463023
 10
131.1842141782
 20
118.1941307925
 10
131.1612665041
 20
118.2222684077
 10
131.1355830728
 20
118.2497038141
 10
131.1072792634
 20
118.2763307932
 10
131.0762396967
 20
118.3022555634
 10
131.0430131285
 20
118.3276247261
 10
131.0077065041
 20
118.3524266831
 10
130.9702128782
 20
118.3766730326
 10
130.93076017
 20
118.4005451693
 10
130.8893992225
 20
118.4240584826
 10
130.8460791928
 20
118.4471975832
 10
130.8008754714
 20
118.4700976988
 10
130.7538159546
 20
118.4927707766
 10
130.7048727462
 20
118.5152048694
 10
130.6540375488
 20
118.5374993628
 10
130.6013279504
 20
118.5596621497
 10
130.546726363
 20
118.5816853372
 10
130.4901717243
 20
118.6036446324
 10
130.4316720252
 20
118.6255466328
 10
130.3712192747
 20
118.6473847409
 10
130.3087284375
 20
118.6692148717
 10
130.2442054692
 20
118.6910411549
 10
130.1776444142
 20
118.7128594609
 10
130.1089423703
 20
118.7347133159
 10
130.038114608
 20
118.7566026283
 10
129.9651458568
 20
118.7785274898
 10
129.8898874022
 20
118.8005317007
 10
129.8123491669
 20
118.822616963
 10
129.7325212282
 20
118.8447815747
 10
129.6502251046
 20
118.8670642304
 10
129.5654013022
 20
118.8894778283
 10
129.4781093148
 20
118.9120094703
 10
129.3883491425
 20
118.9346591563
  0
LINE
  5
596
100
AcDbEntity
  8
21814000
100
AcDbLine
 62
7
  6
CONTINUOUS
 10
130.3914315374
 20
114.9615547205
 11
132.1437249831
 21
115.1148605322
  0
LWPOLYLINE
  5
597
100
AcDbEntity
  8
21814000
100
AcDbPolyline
 62
253
  6
CONTINUOUS
 90
81
 70
0
 10
121.9175782603
 20
113.5341093488
 10
121.8421798316
 20
113.5321908019
 10
121.7668542698
 20
113.5264946947
 10
121.6918008347
 20
113.5171103277
 10
121.6172187857
 20
113.5041270011
 10
121.5433073825
 20
113.4876340154
 10
121.4702658848
 20
113.467720671
 10
121.3982230025
 20
113.4444609705
 10
121.327350889
 20
113.4179756974
 10
121.2577495316
 20
113.3883753735
 10
121.1895189177
 20
113.3557705206
 10
121.1227590346
 20
113.3202716603
 10
121.0575698697
 20
113.2819893145
 10
120.9940987974
 20
113.2410769312
 10
120.9323346538
 20
113.1976317496
 10
120.8723167254
 20
113.1517890347
 10
120.8140842984
 20
113.1036840514
 10
120.7576766593
 20
113.0534520647
 10
120.7031330942
 20
113.0012283396
 10
120.6401298648
 20
112.9360523428
 10
120.5798613171
 20
112.8683667114
 10
120.5223165105
 20
112.7983397979
 10
120.4674845046
 20
112.7261399549
 10
120.4153543587
 20
112.6519355349
 10
120.3607915363
 20
112.5676592802
 10
120.3095047422
 20
112.4812951549
 10
120.2614734709
 20
112.3930047705
 10
120.216677217
 20
112.3029497387
 10
120.175095475
 20
112.2112916711
 10
120.1367077395
 20
112.1181921792
 10
120.1014935048
 20
112.0238128747
 10
120.0694322656
 20
111.9283153692
 10
120.0405035164
 20
111.8318612743
 10
120.011652153
 20
111.7222833187
 10
119.9867236673
 20
111.6118232647
 10
119.9656946257
 20
111.5006071265
 10
119.9485415945
 20
111.3887609181
 10
119.9352411399
 20
111.2764106535
 10
119.9257698283
 20
111.1636823468
 10
119.9201042261
 20
111.0507020121
 10
119.9182208995
 20
110.9375956633
 10
119.9201042261
 20
110.8244893145
 10
119.9257698283
 20
110.7115089797
 10
119.9352411399
 20
110.598780673
 10
119.9485415945
 20
110.4864304084
 10
119.9656946257
 20
110.3745842
 10
119.9867236673
 20
110.2633680618
 10
120.011652153
 20
110.1529080079
 10
120.0405035164
 20
110.0433300522
 10
120.0694322656
 20
109.9468759573
 10
120.1014935048
 20
109.8513784518
 10
120.1367077395
 20
109.7569991473
 10
120.175095475
 20
109.6638996555
 10
120.216677217
 20
109.5722415878
 10
120.2614734709
 20
109.482186556
 10
120.3095047422
 20
109.3938961716
 10
120.3607915363
 20
109.3075320463
 10
120.4153543587
 20
109.2232557916
 10
120.4674845046
 20
109.1490513717
 10
120.5223165105
 20
109.0768515286
 10
120.5798613171
 20
109.0068246151
 10
120.6401298648
 20
108.9391389837
 10
120.7031330942
 20
108.873962987
 10
120.7576766593
 20
108.8217392618
 10
120.8140842984
 20
108.7715072751
 10
120.8723167254
 20
108.7234022918
 10
120.9323346538
 20
108.6775595769
 10
120.9940987974
 20
108.6341143954
 10
121.0575698697
 20
108.5932020121
 10
121.1227590346
 20
108.5549196662
 10
121.1895189177
 20
108.519420806
 10
121.2577495316
 20
108.486815953
 10
121.327350889
 20
108.4572156292
 10
121.3982230025
 20
108.4307303561
 10
121.4702658848
 20
108.4074706556
 10
121.5433073825
 20
108.3875573111
 10
121.6172187857
 20
108.3710643254
 10
121.6918008347
 20
108.3580809988
 10
121.7668542698
 20
108.3486966318
 10
121.8421798316
 20
108.3430005246
 10
121.9175782603
 20
108.3410819777
  0
LINE
  5
598
100
AcDbEntity
  8
ASSI
100
AcDbLine
 62
7
  6
CONTINUOUS
 10
108.4175782603
 20
112.4430896633
 11
108.6175782603
 21
112.4430896633
  0
LINE
  5
599
100
AcDbEntity
  8
21814000
100
AcDbLine
 62
253
  6
CONTINUOUS
 10
113.4357920505
 20
112.8043336633
 11
113.9175782603
 21
112.8043336633
  0
LINE
  5
59A
100
AcDbEntity
  8
21814000
100
AcDbLine
 62
253
  6
CONTINUOUS
 10
125.2747428688
 20
112.8518815138
 11
124.9890721009
 21
112.8518815138
  0
LINE
  5
59B
100
AcDbEntity
  8
21814000
100
AcDbLine
 62
253
  6
CONTINUOUS
 10
124.7748190362
 20
112.8995003798
 11
124.5605659416
 21
112.8995003798
  0
LINE
  5
59C
100
AcDbEntity
  8
ASSI
100
AcDbLine
 62
7
  6
CONTINUOUS
 10
108.4175782603
 20
112.9431146633
 11
108.6175782603
 21
112.9431146633
  0
LINE
  5
59D
100
AcDbEntity
  8
21814000
100
AcDbLine
 62
7
  6
CONTINUOUS
 10
130.1175782603
 20
113.0950424724
 11
130.3175782603
 21
113.0950424724
  0
LINE
  5
59E
100
AcDbEntity
  8
ASSI
100
AcDbLine
 62
7
  6
CONTINUOUS
 10
108.4175782603
 20
113.1009646633
 11
108.6175782603
 21
113.1009646633
  0
LINE
  5
59F
100
AcDbEntity
  8
21814000
100
AcDbLine
 62
253
  6
CONTINUOUS
 10
127.1179742227
 20
113.1643506633
 11
128.4175782603
 21
113.1643506633
  0
LINE
  5
5A0
100
AcDbEntity
  8
21814000
100
AcDbLine
 62
253
  6
CONTINUOUS
 10
124.5605659416
 20
113.304262171
 11
124.7748190362
 21
113.304262171
  0
LINE
  5
5A1
100
AcDbEntity
  8
21814000
100
AcDbLine
 62
7
  6
CONTINUOUS
 10
130.1175782603
 20
113.3375956633
 11
130.3175782603
 21
113.3375956633
  0
LINE
  5
5A2
100
AcDbEntity
  8
21814000
100
AcDbLine
 62
253
  6
CONTINUOUS
 10
124.9890721009
 20
113.3518815138
 11
125.2747428688
 21
113.3518815138
  0
LINE
  5
5A3
100
AcDbEntity
  8
ASSI
100
AcDbLine
 62
7
  6
CONTINUOUS
 10
108.4175782603
 20
113.8906576633
 11
108.6175782603
 21
113.8906576633
  0
LINE
  5
5A4
100
AcDbEntity
  8
ASSI
100
AcDbLine
 62
7
  6
CONTINUOUS
 10
108.4175782603
 20
114.0485146633
 11
108.6175782603
 21
114.0485146633
  0
LWPOLYLINE
  5
5A5
100
AcDbEntity
  8
21814000
100
AcDbPolyline
 62
253
  6
CONTINUOUS
 90
73
 70
0
 10
130.3832919186
 20
108.5334201545
 10
130.4691565761
 20
108.5097335223
 10
130.5524199902
 20
108.4862119036
 10
130.6330821609
 20
108.4628552986
 10
130.7110653947
 20
108.4396805843
 10
130.7864473851
 20
108.4166708835
 10
130.8594612124
 20
108.3937755653
 10
130.9301111658
 20
108.3709992543
 10
130.998392956
 20
108.3483373259
 10
131.0645267958
 20
108.3257252755
 10
131.1285225811
 20
108.3031681224
 10
131.1903704161
 20
108.2806608474
 10
131.2502608258
 20
108.2581238879
 10
131.3082197276
 20
108.2355583169
 10
131.3642212042
 20
108.2129630615
 10
131.4183780291
 20
108.1902553404
 10
131.4706982501
 20
108.1674481616
 10
131.5211738194
 20
108.1445285172
 10
131.5698933679
 20
108.1213746019
 10
131.6168868375
 20
108.098000009
 10
131.6621242862
 20
108.0743911452
 10
131.7056045188
 20
108.0503854253
 10
131.7474146914
 20
108.0259704252
 10
131.7874676478
 20
108.0011585689
 10
131.8255007245
 20
107.9758245439
 10
131.8615607957
 20
107.9499946771
 10
131.8956009872
 20
107.9236426416
 10
131.9272180127
 20
107.896564143
 10
131.9565614767
 20
107.8686676053
 10
131.9834817747
 20
107.8400446046
 10
132.0071268072
 20
107.810765575
 10
132.027463991
 20
107.7806031124
 10
132.0445259093
 20
107.749784621
 10
132.0575582118
 20
107.7190627474
 10
132.066307728
 20
107.6887655983
 10
132.0710276285
 20
107.658565067
 10
132.0717230744
 20
107.62822948
 10
132.0683893089
 20
107.5976148354
 10
132.061031089
 20
107.566865135
 10
132.0496678462
 20
107.5361807107
 10
132.0340366041
 20
107.5054318486
 10
132.0144003393
 20
107.4747482625
 10
131.9915674132
 20
107.4447194258
 10
131.9655413433
 20
107.4155312979
 10
131.9363186122
 20
107.3869979194
 10
131.9046970286
 20
107.3591508859
 10
131.8708056748
 20
107.332057215
 10
131.8345154684
 20
107.305649889
 10
131.7962369721
 20
107.2797594511
 10
131.7559953209
 20
107.2543577861
 10
131.7137653798
 20
107.2294730091
 10
131.6698823058
 20
107.2050200083
 10
131.6243739018
 20
107.1809923574
 10
131.577212365
 20
107.1573964826
 10
131.5286494439
 20
107.1341665504
 10
131.4787234805
 20
107.1113050518
 10
131.4273961328
 20
107.0888094958
 10
131.3748041238
 20
107.0666065758
 10
131.3211414958
 20
107.044752078
 10
131.2662142065
 20
107.0231902163
 10
131.2095768519
 20
107.0016803254
 10
131.151110226
 20
106.9801588432
 10
131.0909335349
 20
106.9586893319
 10
131.0289589924
 20
106.9372218131
 10
130.9652009902
 20
106.9157557879
 10
130.8996451366
 20
106.8942917553
 10
130.8321604712
 20
106.8727812335
 10
130.7628216216
 20
106.8512404212
 10
130.6915539601
 20
106.8296531198
 10
130.6180026435
 20
106.8079222519
 10
130.5420493904
 20
106.7860154584
 10
130.4638124822
 20
106.7639650985
 10
130.3832919186
 20
106.741771172
  0
LWPOLYLINE
  5
5A6
100
AcDbEntity
  8
21814000
100
AcDbPolyline
 62
253
  6
CONTINUOUS
 90
73
 70
0
 10
130.3914315374
 20
108.5634029919
 10
130.47729527
 20
108.538991829
 10
130.5605580126
 20
108.5147523477
 10
130.6412197651
 20
108.4906812265
 10
130.7192029182
 20
108.4667891668
 10
130.7945850813
 20
108.4430586361
 10
130.8675990827
 20
108.4194443691
 10
130.9382491269
 20
108.395948731
 10
131.0065310094
 20
108.3725633687
 10
131.0726649453
 20
108.349227781
 10
131.1366608336
 20
108.3259450478
 10
131.1985087754
 20
108.3027068262
 10
131.2583992886
 20
108.2794362579
 10
131.3163582838
 20
108.2561325601
 10
131.3723598503
 20
108.2327919129
 10
131.4265167741
 20
108.2093334892
 10
131.4788371038
 20
108.1857689064
 10
131.5293127907
 20
108.1620822957
 10
131.5780324747
 20
108.1381520127
 10
131.6250261073
 20
108.113990337
 10
131.6702637369
 20
108.0895811102
 10
131.7137441491
 20
108.064760243
 10
131.7555544956
 20
108.0395127427
 10
131.7956076245
 20
108.0138498673
 10
131.8336408658
 20
107.9876463678
 10
131.8697010756
 20
107.9609259568
 10
131.9037413977
 20
107.9336600668
 10
131.935358594
 20
107.9056435356
 10
131.9647024644
 20
107.8767764164
 10
131.991623209
 20
107.8471522189
 10
132.0152681903
 20
107.816852814
 10
132.0356042828
 20
107.7856339371
 10
132.052664612
 20
107.753728712
 10
132.0656959178
 20
107.7219306661
 10
132.0744457543
 20
107.6905699988
 10
132.0791665673
 20
107.6593005883
 10
132.0798624339
 20
107.6278993009
 10
132.0765277377
 20
107.5962095128
 10
132.069168095
 20
107.5643723977
 10
132.0578044316
 20
107.5326115943
 10
132.0421749266
 20
107.5007863548
 10
132.0225414009
 20
107.4690216575
 10
131.9997102435
 20
107.4379421343
 10
131.9736838961
 20
107.4077385139
 10
131.9444599169
 20
107.378209445
 10
131.9128373696
 20
107.349395845
 10
131.8789458769
 20
107.321365524
 10
131.8426558161
 20
107.2940443488
 10
131.8043773824
 20
107.2672633412
 10
131.7641355429
 20
107.2409924581
 10
131.7219053306
 20
107.2152570397
 10
131.6780220396
 20
107.1899728586
 10
131.6325135432
 20
107.1651322876
 10
131.5853519681
 20
107.1407396261
 10
131.5367889885
 20
107.1167297672
 10
131.4868629281
 20
107.0931046302
 10
131.4355354633
 20
107.0698599156
 10
131.3829432978
 20
107.0469219391
 10
131.3292804264
 20
107.0243469173
 10
131.2743528545
 20
107.0020768862
 10
131.2177153011
 20
106.9798662617
 10
131.1592486417
 20
106.9576467597
 10
131.0990720009
 20
106.9354827809
 10
131.0370974721
 20
106.9133267476
 10
130.9733393966
 20
106.8911758835
 10
130.9077834331
 20
106.8690290077
 10
130.8402986504
 20
106.8468405482
 10
130.7709596028
 20
106.8246244675
 10
130.6996917359
 20
106.8023625398
 10
130.6261404554
 20
106.7799600478
 10
130.5501875631
 20
106.7573832884
 10
130.4719512571
 20
106.7346602938
 10
130.3914315374
 20
106.7117883347
  0
LINE
  5
5A7
100
AcDbEntity
  8
21814000
100
AcDbLine
 62
253
  6
CONTINUOUS
 10
112.8213402613
 20
114.0890516633
 11
111.5724517717
 21
114.5190666633
  0
LINE
  5
5A8
100
AcDbEntity
  8
21814000
100
AcDbLine
 62
253
  6
CONTINUOUS
 10
113.9175782603
 20
113.7115596633
 11
113.303126471
 21
113.9284076633
  0
LINE
  5
5A9
100
AcDbEntity
  8
21814000
100
AcDbLine
 62
253
  6
CONTINUOUS
 10
111.0184605614
 20
114.1654446633
 11
113.9175782603
 21
113.1171096633
  0
LINE
  5
5AA
100
AcDbEntity
  8
21814000
100
AcDbLine
 62
253
  6
CONTINUOUS
 10
124.7034013181
 20
108.9947385289
 11
124.5605659416
 21
109.0661670663
  0
LINE
  5
5AB
100
AcDbEntity
  8
21814000
100
AcDbLine
 62
253
  6
CONTINUOUS
 10
125.1319074774
 20
109.4947384693
 11
125.2747428688
 21
109.4233099319
  0
LINE
  5
5AC
100
AcDbEntity
  8
21814000
100
AcDbLine
 62
253
  6
CONTINUOUS
 10
124.7034013181
 20
109.7804528572
 11
124.5605659416
 21
109.8518813946
  0
LINE
  5
5AD
100
AcDbEntity
  8
RACCORDO
100
AcDbLine
 62
253
  6
CONTINUOUS
 10
107.4175782603
 20
129.3489205287
 11
107.5425782603
 21
129.1324141777
  0
LINE
  5
5AE
100
AcDbEntity
  8
RACCORDO
100
AcDbLine
 62
253
  6
CONTINUOUS
 10
108.1675782603
 20
129.7819332306
 11
108.2925782603
 21
129.5654268796
  0
LINE
  5
5AF
100
AcDbEntity
  8
21814000
100
AcDbLine
 62
253
  6
CONTINUOUS
 10
121.9866755474
 20
96.8858716633
 11
121.9866755474
 21
97.2421936633
  0
LINE
  5
5B0
100
AcDbEntity
  8
21814000
100
AcDbLine
 62
253
  6
CONTINUOUS
 10
121.9866755474
 20
98.3916186633
 11
121.9866755474
 21
98.9490896633
  0
LINE
  5
5B1
100
AcDbEntity
  8
21814000
100
AcDbLine
 62
253
  6
CONTINUOUS
 10
122.4175782603
 20
98.7824236633
 11
122.4175782603
 21
98.3916186633
  0
LINE
  5
5B2
100
AcDbEntity
  8
21814000
100
AcDbLine
 62
253
  6
CONTINUOUS
 10
122.4954285787
 20
120.0770956633
 11
122.4954285787
 21
121.5375956633
  0
LINE
  5
5B3
100
AcDbEntity
  8
21814000
100
AcDbLine
 62
253
  6
CONTINUOUS
 10
122.8484809731
 20
98.9490896633
 11
122.8484809731
 21
98.3916186633
  0
LINE
  5
5B4
100
AcDbEntity
  8
21814000
100
AcDbLine
 62
253
  6
CONTINUOUS
 10
122.8484809731
 20
97.2421936633
 11
122.8484809731
 21
96.8858716633
  0
LINE
  5
5B5
100
AcDbEntity
  8
21814000
100
AcDbLine
 62
253
  6
CONTINUOUS
 10
123.2452001389
 20
121.5375956633
 11
123.2452001389
 21
120.0770956633
  0
LINE
  5
5B6
100
AcDbEntity
  8
21814000
100
AcDbLine
 62
253
  6
CONTINUOUS
 10
123.3598201787
 20
95.8772506633
 11
123.3598201787
 21
99.9979406633
  0
LWPOLYLINE
  5
5B7
100
AcDbEntity
  8
21814000
100
AcDbPolyline
 62
253
  6
CONTINUOUS
 90
61
 70
0
 10
123.3598200222
 20
95.8772506633
 10
123.3594970219
 20
95.8606214932
 10
123.3585311411
 20
95.8439863034
 10
123.3569270605
 20
95.8273736782
 10
123.3546894603
 20
95.8108122017
 10
123.3518230211
 20
95.7943304582
 10
123.3483324233
 20
95.7779570318
 10
123.3442223473
 20
95.7617205067
 10
123.3394974737
 20
95.7456494672
 10
123.3341624828
 20
95.7297724974
 10
123.3282220552
 20
95.7141181815
 10
123.3216823241
 20
95.6987135901
 10
123.3145552342
 20
95.6835797385
 10
123.3068541831
 20
95.6687361285
 10
123.2985925685
 20
95.6542022619
 10
123.2897837879
 20
95.6399976405
 10
123.2804412388
 20
95.6261417659
 10
123.2705783189
 20
95.61265414
 10
123.2602084257
 20
95.5995542644
 10
123.2493449569
 20
95.586861641
 10
123.2380013099
 20
95.5745957714
 10
123.2261919953
 20
95.562775335
 10
123.213935975
 20
95.551415721
 10
123.2012533237
 20
95.5405314963
 10
123.1881641164
 20
95.5301372275
 10
123.1746884278
 20
95.5202474816
 10
123.1608463327
 20
95.5108768253
 10
123.1466579059
 20
95.5020398254
 10
123.1321432223
 20
95.4937510487
 10
123.1173223566
 20
95.4860250621
 10
123.1022153837
 20
95.4788764322
 10
123.0868430686
 20
95.47231819
 10
123.0712289376
 20
95.466357223
 10
123.0553972071
 20
95.4609988825
 10
123.0393720938
 20
95.4562485202
 10
123.023177814
 20
95.4521114874
 10
123.0068385843
 20
95.4485931357
 10
122.9903786212
 20
95.4456988166
 10
122.9738221413
 20
95.4434338815
 10
122.9571933609
 20
95.441803682
 10
122.9405164967
 20
95.4408135696
 10
122.9238156414
 20
95.4404675172
 10
122.9071143935
 20
95.4407639834
 10
122.8904362276
 20
95.4417000485
 10
122.8738046184
 20
95.4432727924
 10
122.8572430406
 20
95.4454792954
 10
122.8407749689
 20
95.4483166376
 10
122.824423878
 20
95.451781899
 10
122.8082132426
 20
95.4558721598
 10
122.7921665374
 20
95.4605845002
 10
122.7763072371
 20
95.4659160001
 10
122.7606589839
 20
95.4718616481
 10
122.7452460905
 20
95.4784080655
 10
122.730093037
 20
95.4855397819
 10
122.7152243037
 20
95.4932413271
 10
122.7006643708
 20
95.5014972307
 10
122.6864377184
 20
95.5102920224
 10
122.6725688267
 20
95.5196102319
 10
122.6590821759
 20
95.5294363887
 10
122.6460022463
 20
95.5397550226
 10
122.633353518
 20
95.5505506633
  0
LINE
  5
5B8
100
AcDbEntity
  8
21814000
100
AcDbLine
 62
253
  6
CONTINUOUS
 10
122.6253429586
 20
105.6647586633
 11
122.2947446851
 21
104.5564816633
  0
LINE
  5
5B9
100
AcDbEntity
  8
21814000
100
AcDbLine
 62
253
  6
CONTINUOUS
 10
122.633353518
 20
100.3246406633
 11
120.3122217188
 21
98.2642956633
  0
LINE
  5
5BA
100
AcDbEntity
  8
21814000
100
AcDbLine
 62
253
  6
CONTINUOUS
 10
112.90641734
 20
95.3450156633
 11
111.0183236031
 21
94.8034476633
  0
LINE
  5
5BB
100
AcDbEntity
  8
ASSI
100
AcDbLine
 62
7
  6
CONTINUOUS
 10
108.4175782603
 20
114.5485326633
 11
108.6175782603
 21
114.5485326633
  0
LINE
  5
5BC
100
AcDbEntity
  8
ASSI
100
AcDbLine
 62
7
  6
CONTINUOUS
 10
108.4175782603
 20
114.8818766633
 11
108.6175782603
 21
114.8818766633
  0
LINE
  5
5BD
100
AcDbEntity
  8
21814000
100
AcDbLine
 62
253
  6
CONTINUOUS
 10
127.1179742227
 20
114.9723236633
 11
128.4175782603
 21
114.9723236633
  0
LINE
  5
5BE
100
AcDbEntity
  8
21814000
100
AcDbLine
 62
253
  6
CONTINUOUS
 10
127.1179742227
 20
115.3606516633
 11
128.4175782603
 21
115.3606516633
  0
LINE
  5
5BF
100
AcDbEntity
  8
ASSI
100
AcDbLine
 62
7
  6
CONTINUOUS
 10
108.4175782603
 20
115.3818956633
 11
108.6175782603
 21
115.3818956633
  0
LINE
  5
5C0
100
AcDbEntity
  8
ASSI
100
AcDbLine
 62
7
  6
CONTINUOUS
 10
108.4175782603
 20
115.8546396633
 11
108.6175782603
 21
115.8546396633
  0
LINE
  5
5C1
100
AcDbEntity
  8
21814000
100
AcDbLine
 62
253
  6
CONTINUOUS
 10
115.4178676395
 20
115.9804528304
 11
117.3175782603
 21
115.9804528304
  0
LINE
  5
5C2
100
AcDbEntity
  8
21814000
100
AcDbLine
 62
253
  6
CONTINUOUS
 10
113.9175782603
 20
116.2299206633
 11
111.0184605614
 21
116.2299206633
  0
LINE
  5
5C3
100
AcDbEntity
  8
ASSI
100
AcDbLine
 62
7
  6
CONTINUOUS
 10
108.4175782603
 20
116.3546456633
 11
108.6175782603
 21
116.3546456633
  0
LINE
  5
5C4
100
AcDbEntity
  8
21814000
100
AcDbLine
 62
253
  6
CONTINUOUS
 10
127.1179742227
 20
116.3927766633
 11
128.4175782603
 21
116.3927766633
  0
LINE
  5
5C5
100
AcDbEntity
  8
21814000
100
AcDbLine
 62
253
  6
CONTINUOUS
 10
125.2033251806
 20
112.0661671259
 11
124.4177305651
 21
112.280452738
  0
LINE
  5
5C6
100
AcDbEntity
  8
21814000
100
AcDbLine
 62
253
  6
CONTINUOUS
 10
127.1179742227
 20
111.1074856633
 11
128.4175782603
 21
110.5371526633
  0
LINE
  5
5C7
100
AcDbEntity
  8
21814000
100
AcDbLine
 62
253
  6
CONTINUOUS
 10
127.1179742227
 20
110.3633316633
 11
128.4175782603
 21
109.7404646633
  0
LINE
  5
5C8
100
AcDbEntity
  8
21814000
100
AcDbLine
 62
253
  6
CONTINUOUS
 10
125.1319074774
 20
110.280452738
 11
125.2747428688
 21
110.2090242006
  0
LINE
  5
5C9
100
AcDbEntity
  8
21814000
100
AcDbLine
 62
253
  6
CONTINUOUS
 10
115.9606420702
 20
115.4375956633
 11
115.4178676395
 21
115.9804528304
  0
LINE
  5
5CA
100
AcDbEntity
  8
21814000
100
AcDbLine
 62
253
  6
CONTINUOUS
 10
124.5605659416
 20
109.0661670663
 11
124.4177305651
 21
109.2090242006
  0
LINE
  5
5CB
100
AcDbEntity
  8
21814000
100
AcDbLine
 62
253
  6
CONTINUOUS
 10
115.6892548548
 20
118.1518814423
 11
115.4178676395
 21
118.4233098843
  0
LWPOLYLINE
  5
5CC
100
AcDbEntity
  8
21814000
100
AcDbPolyline
 62
253
  6
CONTINUOUS
 90
46
 70
0
 10
124.6669837485
 20
121.9375984294
 10
124.669226695
 20
121.88113976
 10
124.6696855939
 20
121.8245756095
 10
124.6683647867
 20
121.7679722517
 10
124.6652686151
 20
121.7113959603
 10
124.6604014206
 20
121.6549130092
 10
124.6537675448
 20
121.598589672
 10
124.6453713294
 20
121.5424922226
 10
124.6352171158
 20
121.4866869348
 10
124.6233092459
 20
121.4312400822
 10
124.6096547185
 20
121.3762151886
 10
124.5942711634
 20
121.3216647773
 10
124.5771788674
 20
121.2676386213
 10
124.5583981176
 20
121.2141864939
 10
124.5379492009
 20
121.1613581681
 10
124.5158524045
 20
121.1092034173
 10
124.4921280154
 20
121.0577720144
 10
124.4667963205
 20
121.0071137327
 10
124.4398776069
 20
120.9572783453
 10
124.4113945925
 20
120.9083149355
 10
124.3813797193
 20
120.8602698267
 10
124.3498678602
 20
120.8131886526
 10
124.3168938879
 20
120.7671170466
 10
124.2824926753
 20
120.7221006424
 10
124.2466990952
 20
120.6781850737
 10
124.2095480206
 20
120.6354159738
 10
124.1710743243
 20
120.5938389765
 10
124.1313128791
 20
120.5534997153
 10
124.0902998612
 20
120.5144416582
 10
124.0480766601
 20
120.4766996112
 10
124.0046859686
 20
120.4403062147
 10
123.9601704795
 20
120.4052941089
 10
123.9145728856
 20
120.3716959343
 10
123.8679358797
 20
120.3395443314
 10
123.8203021547
 20
120.3088719403
 10
123.7717144033
 20
120.2797114016
 10
123.7222153184
 20
120.2520953556
 10
123.6718509429
 20
120.2260545989
 10
123.6206807206
 20
120.201612553
 10
123.5687674453
 20
120.1787907956
 10
123.5161739109
 20
120.1576109045
 10
123.4629629113
 20
120.1380944574
 10
123.4091972404
 20
120.1202630319
 10
123.3549396922
 20
120.104138206
 10
123.3002530603
 20
120.0897415572
 10
123.2452001389
 20
120.0770946633
  0
LWPOLYLINE
  5
5CD
100
AcDbEntity
  8
21814000
100
AcDbPolyline
 62
253
  6
CONTINUOUS
 90
77
 70
0
 10
124.6669869561
 20
117.5524855523
 10
124.6695789971
 20
117.4776154977
 10
124.6690441734
 20
117.4026129879
 10
124.6653902591
 20
117.3276322219
 10
124.6586250286
 20
117.2528273989
 10
124.6487562564
 20
117.178352718
 10
124.6357917168
 20
117.1043623782
 10
124.6197448012
 20
117.0310045313
 10
124.6006513701
 20
116.9584031396
 10
124.5785529009
 20
116.886676118
 10
124.5534908711
 20
116.8159413813
 10
124.5255067582
 20
116.7463168445
 10
124.4946420397
 20
116.6779204224
 10
124.460943031
 20
116.6108690256
 10
124.4244754
 20
116.5452755479
 10
124.3853096524
 20
116.4812518783
 10
124.3435162939
 20
116.4189099064
 10
124.2991658302
 20
116.3583615214
 10
124.2523287673
 20
116.2997186126
 10
124.2030798103
 20
116.2430892245
 10
124.1515104632
 20
116.188566022
 10
124.0977164292
 20
116.1362378249
 10
124.0417934117
 20
116.0861934533
 10
123.9838371142
 20
116.0385217272
 10
123.9239432399
 20
115.9933114665
 10
123.8622106735
 20
115.950647174
 10
123.798751024
 20
115.9105960846
 10
123.7336790819
 20
115.8732211158
 10
123.6671096374
 20
115.8385851851
 10
123.5991574809
 20
115.8067512104
 10
123.5299374027
 20
115.7777821091
 10
123.4595661895
 20
115.7517357087
 10
123.3881686136
 20
115.7286494766
 10
123.3158714433
 20
115.7085557896
 10
123.2428014474
 20
115.691487025
 10
123.1690853943
 20
115.6774755597
 10
123.0948500526
 20
115.6665537708
 10
123.0202228695
 20
115.6587486394
 10
122.9453340063
 20
115.6540655614
 10
122.8703143033
 20
115.652504537
 10
122.7952946003
 20
115.654065566
 10
122.7204057375
 20
115.6587486486
 10
122.6457785548
 20
115.6665537847
 10
122.5715432138
 20
115.6774755781
 10
122.4978271616
 20
115.691487048
 10
122.4247571667
 20
115.7085558171
 10
122.3524599977
 20
115.7286495085
 10
122.2810624231
 20
115.7517357451
 10
122.2106912115
 20
115.7777821498
 10
122.1414711351
 20
115.8067512554
 10
122.0735189806
 20
115.8385852343
 10
122.0069495382
 20
115.8732211691
 10
121.9418775984
 20
115.9105961419
 10
121.8784179514
 20
115.9506472353
 10
121.8166853876
 20
115.9933115315
 10
121.7567915162
 20
116.038521796
 10
121.6988352216
 20
116.0861935257
 10
121.6429122072
 20
116.1362379007
 10
121.5891181764
 20
116.1885661011
 10
121.5375488327
 20
116.2430893068
 10
121.4882998792
 20
116.299718698
 10
121.4414628199
 20
116.3583616096
 10
121.39711236
 20
116.4189099974
 10
121.3553190053
 20
116.4812519719
 10
121.3161532616
 20
116.5452756438
 10
121.2796856347
 20
116.6108691239
 10
121.2459866302
 20
116.6779205227
 10
121.2151219158
 20
116.7463169467
 10
121.1871378072
 20
116.8159414852
 10
121.1620757818
 20
116.8866762235
 10
121.139977317
 20
116.9584032465
 10
121.1208838904
 20
117.0310046393
 10
121.1048369794
 20
117.1043624872
 10
121.0918724443
 20
117.1783528278
 10
121.0820036767
 20
117.2528275093
 10
121.0752384508
 20
117.3276323328
 10
121.0715845412
 20
117.402613099
  0
LINE
  5
5CE
100
AcDbEntity
  8
21814000
100
AcDbLine
 62
253
  6
CONTINUOUS
 10
124.0524861377
 20
91.8898066633
 11
124.0524861377
 21
92.3853846633
  0
LINE
  5
5CF
100
AcDbEntity
  8
21814000
100
AcDbLine
 62
253
  6
CONTINUOUS
 10
124.1641721093
 20
95.9548366633
 11
124.1641721093
 21
99.9203546633
  0
LINE
  5
5D0
100
AcDbEntity
  8
21814000
100
AcDbLine
 62
253
  6
CONTINUOUS
 10
124.4177305651
 20
111.6375956633
 11
124.4177305651
 21
111.4233100512
  0
LINE
  5
5D1
100
AcDbEntity
  8
21814000
100
AcDbLine
 62
253
  6
CONTINUOUS
 10
124.4177305651
 20
109.2090242006
 11
124.4177305651
 21
109.2804528572
  0
LINE
  5
5D2
100
AcDbEntity
  8
21814000
100
AcDbLine
 62
253
  6
CONTINUOUS
 10
124.4177305651
 20
109.9947384693
 11
124.4177305651
 21
110.0661671259
  0
LINE
  5
5D3
100
AcDbEntity
  8
21814000
100
AcDbLine
 62
253
  6
CONTINUOUS
 10
124.4177305651
 20
110.5661671259
 11
124.4177305651
 21
110.9947385885
  0
LINE
  5
5D4
100
AcDbEntity
  8
21814000
100
AcDbLine
 62
253
  6
CONTINUOUS
 10
124.4177305651
 20
112.9947385885
 11
124.4177305651
 21
113.2090244391
  0
LINE
  5
5D5
100
AcDbEntity
  8
21814000
100
AcDbLine
 62
253
  6
CONTINUOUS
 10
124.6668149644
 20
92.6728196633
 11
124.6668149644
 21
92.1375956633
  0
LINE
  5
5D6
100
AcDbEntity
  8
21814000
100
AcDbLine
 62
253
  6
CONTINUOUS
 10
124.8462366946
 20
110.8518812754
 11
124.8462366946
 21
110.5661671259
  0
LINE
  5
5D7
100
AcDbEntity
  8
21814000
100
AcDbLine
 62
253
  6
CONTINUOUS
 10
124.8462366946
 20
112.9947385885
 11
124.8462366946
 21
113.2090244391
  0
LINE
  5
5D8
100
AcDbEntity
  8
21814000
100
AcDbLine
 62
253
  6
CONTINUOUS
 10
125.1319074774
 20
108.2328337603
 11
125.1319074774
 21
108.6137861409
  0
LINE
  5
5D9
100
AcDbEntity
  8
21814000
100
AcDbLine
 62
253
  6
CONTINUOUS
 10
125.2033251806
 20
112.5661668875
 11
125.2033251806
 21
112.0661671259
  0
LINE
  5
5DA
100
AcDbEntity
  8
21814000
100
AcDbLine
 62
253
  6
CONTINUOUS
 10
125.4175782603
 20
113.2090244391
 11
125.4175782603
 21
112.9947385885
  0
LINE
  5
5DB
100
AcDbEntity
  8
21814000
100
AcDbLine
 62
253
  6
CONTINUOUS
 10
125.4175782603
 20
111.780452738
 11
125.4175782603
 21
111.280452738
  0
LINE
  5
5DC
100
AcDbEntity
  8
21814000
100
AcDbLine
 62
253
  6
CONTINUOUS
 10
125.4175782603
 20
110.0661671259
 11
125.4175782603
 21
109.9947384693
  0
LINE
  5
5DD
100
AcDbEntity
  8
21814000
100
AcDbLine
 62
253
  6
CONTINUOUS
 10
125.4175782603
 20
109.2804528572
 11
125.4175782603
 21
109.2090242006
  0
LINE
  5
5DE
100
AcDbEntity
  8
21814000
100
AcDbLine
 62
253
  6
CONTINUOUS
 10
125.4175782603
 20
110.5661671259
 11
125.4175782603
 21
110.8518812754
  0
LWPOLYLINE
  5
5DF
100
AcDbEntity
  8
21814000
100
AcDbPolyline
 62
253
  6
CONTINUOUS
 90
51
 70
0
 10
124.1673776958
 20
104.1378722158
 10
124.1662619587
 20
104.0370017845
 10
124.1629029371
 20
103.9361023875
 10
124.1572829155
 20
103.8352466104
 10
124.1493841785
 20
103.7345070383
 10
124.1391890105
 20
103.6339562568
 10
124.126679696
 20
103.5336668511
 10
124.1118385196
 20
103.4337114067
 10
124.0946477658
 20
103.3341625088
 10
124.0750897191
 20
103.2350927429
 10
124.055417946
 20
103.1462896915
 10
124.0337643796
 20
103.0579845276
 10
124.0100838638
 20
102.9702271418
 10
123.9843312428
 20
102.8830674246
 10
123.9564613606
 20
102.7965552667
 10
123.9315894926
 20
102.7250089263
 10
123.905182776
 20
102.6540039673
 10
123.8772075461
 20
102.5835975901
 10
123.8476301383
 20
102.5138469953
 10
123.8164168879
 20
102.4448093837
 10
123.7835341303
 20
102.3765419558
 10
123.7489582218
 20
102.309132018
 10
123.7126318362
 20
102.2426448799
 10
123.6745064673
 20
102.1771765405
 10
123.6345336089
 20
102.1128229987
 10
123.5926647549
 20
102.0496802532
 10
123.5488513989
 20
101.9878443031
 10
123.5097457401
 20
101.9360052352
 10
123.4691517935
 20
101.8853068881
 10
123.4270431436
 20
101.8358610327
 10
123.3833933751
 20
101.7877794398
 10
123.3381760723
 20
101.74117388
 10
123.29136482
 20
101.6961561241
 10
123.2429332025
 20
101.6528379429
 10
123.1992889105
 20
101.6164877133
 10
123.1544036413
 20
101.5816448047
 10
123.1082928134
 20
101.5484345892
 10
123.0609718451
 20
101.516982439
 10
123.012456155
 20
101.4874137261
 10
122.9627611613
 20
101.4598538229
 10
122.9119022827
 20
101.4344281013
 10
122.8598949374
 20
101.4112619336
 10
122.8128482101
 20
101.3927076618
 10
122.7650204148
 20
101.3760933653
 10
122.7165213305
 20
101.361483897
 10
122.6674607363
 20
101.3489441097
 10
122.6179484112
 20
101.3385388562
 10
122.5680941343
 20
101.3303329893
 10
122.5180076846
 20
101.3243913619
 10
122.467798841
 20
101.3207788267
 10
122.4175773827
 20
101.3195602365
  0
LWPOLYLINE
  5
5E0
100
AcDbEntity
  8
21814000
100
AcDbPolyline
 62
253
  6
CONTINUOUS
 90
11
 70
0
 10
125.4177263835
 20
121.7423578811
 10
125.4183849065
 20
121.761891745
 10
125.4188939462
 20
121.7814269835
 10
125.4192534234
 20
121.8009622398
 10
125.4194632593
 20
121.8204961569
 10
125.4195233749
 20
121.8400273779
 10
125.4194336911
 20
121.8595545459
 10
125.4191941291
 20
121.8790763041
 10
125.4188046097
 20
121.8985912955
 10
125.4182650541
 20
121.9180981632
 10
125.4175753833
 20
121.9375955503
  0
LWPOLYLINE
  5
5E1
100
AcDbEntity
  8
21814000
100
AcDbPolyline
 62
253
  6
CONTINUOUS
 90
11
 70
0
 10
125.4177262687
 20
117.3572479565
 10
125.4183847909
 20
117.3767818125
 10
125.4188938299
 20
117.396317043
 10
125.4192533066
 20
117.4158522912
 10
125.419463142
 20
117.4353862003
 10
125.4195232572
 20
117.4549174133
 10
125.4194335733
 20
117.4744445733
 10
125.4191940111
 20
117.4939663235
 10
125.4188044918
 20
117.5134813068
 10
125.4182649364
 20
117.5329881666
 10
125.4175752658
 20
117.5524855457
  0
LINE
  5
5E2
100
AcDbEntity
  8
21814000
100
AcDbLine
 62
253
  6
CONTINUOUS
 10
122.0866450887
 20
97.9375956633
 11
121.2248386633
 21
97.5171366633
  0
LINE
  5
5E3
100
AcDbEntity
  8
21814000
100
AcDbLine
 62
253
  6
CONTINUOUS
 10
112.0057117664
 20
94.5066326633
 11
113.9175712624
 21
95.0550086633
  0
LINE
  5
5E4
100
AcDbEntity
  8
21814000
100
AcDbLine
 62
253
  6
CONTINUOUS
 10
111.4912135233
 20
116.8123656633
 11
113.9175782603
 21
116.8123656633
  0
LINE
  5
5E5
100
AcDbEntity
  8
ASSI
100
AcDbLine
 62
7
  6
CONTINUOUS
 10
108.4175782603
 20
116.8273836633
 11
108.6175782603
 21
116.8273836633
  0
LINE
  5
5E6
100
AcDbEntity
  8
21814000
100
AcDbLine
 62
253
  6
CONTINUOUS
 10
117.3175782603
 20
117.1566432931
 11
116.3677229499
 21
117.1566432931
  0
LINE
  5
5E7
100
AcDbEntity
  8
21814000
100
AcDbLine
 62
253
  6
CONTINUOUS
 10
127.1179742227
 20
117.2863076633
 11
128.4175782603
 21
117.2863076633
  0
LINE
  5
5E8
100
AcDbEntity
  8
ASSI
100
AcDbLine
 62
7
  6
CONTINUOUS
 10
108.4175782603
 20
117.3274016633
 11
108.6175782603
 21
117.3274016633
  0
LINE
  5
5E9
100
AcDbEntity
  8
21814000
100
AcDbLine
 62
253
  6
CONTINUOUS
 10
120.3230504574
 20
117.5524856633
 11
121.0736417677
 21
117.5524856633
  0
LINE
  5
5EA
100
AcDbEntity
  8
21814000
100
AcDbLine
 62
253
  6
CONTINUOUS
 10
124.6669869499
 20
117.5524856633
 11
125.4175782603
 21
117.5524856633
  0
LINE
  5
5EB
100
AcDbEntity
  8
ASSI
100
AcDbLine
 62
7
  6
CONTINUOUS
 10
108.4175782603
 20
117.8274086633
 11
108.6175782603
 21
117.8274086633
  0
LINE
  5
5EC
100
AcDbEntity
  8
21814000
100
AcDbLine
 62
253
  6
CONTINUOUS
 10
116.7748037729
 20
118.0161669948
 11
115.9606420702
 21
118.0161669948
  0
LINE
  5
5ED
100
AcDbEntity
  8
21814000
100
AcDbLine
 62
253
  6
CONTINUOUS
 10
128.4175782603
 20
118.0902476633
 11
127.1179742227
 21
118.0902476633
  0
LINE
  5
5EE
100
AcDbEntity
  8
21814000
100
AcDbLine
 62
253
  6
CONTINUOUS
 10
113.3158745869
 20
118.2663496633
 11
111.0184605614
 21
118.2663496633
  0
LINE
  5
5EF
100
AcDbEntity
  8
ASSI
100
AcDbLine
 62
7
  6
CONTINUOUS
 10
108.4175782603
 20
118.3274266633
 11
108.6175782603
 21
118.3274266633
  0
LINE
  5
5F0
100
AcDbEntity
  8
ASSI
100
AcDbLine
 62
7
  6
CONTINUOUS
 10
108.4175782603
 20
118.6607646633
 11
108.6175782603
 21
118.6607646633
  0
LINE
  5
5F1
100
AcDbEntity
  8
21814000
100
AcDbLine
 62
253
  6
CONTINUOUS
 10
116.9104974089
 20
116.5233099975
 11
115.4178676395
 21
116.9304527738
  0
LINE
  5
5F2
100
AcDbEntity
  8
21814000
100
AcDbLine
 62
253
  6
CONTINUOUS
 10
111.0184605614
 20
120.1904796633
 11
113.9175782603
 21
119.1420356633
  0
LINE
  5
5F3
100
AcDbEntity
  8
21814000
100
AcDbLine
 62
253
  6
CONTINUOUS
 10
115.9606420702
 20
118.0161669948
 11
115.6892548548
 21
118.1518814423
  0
LINE
  5
5F4
100
AcDbEntity
  8
21814000
100
AcDbLine
 62
253
  6
CONTINUOUS
 10
124.4177305651
 20
111.4233100512
 11
124.6319836597
 21
111.280452738
  0
LINE
  5
5F5
100
AcDbEntity
  8
21814000
100
AcDbLine
 62
253
  6
CONTINUOUS
 10
124.5605659416
 20
112.8995003798
 11
124.4177305651
 21
112.9947385885
  0
LINE
  5
5F6
100
AcDbEntity
  8
21814000
100
AcDbLine
 62
253
  6
CONTINUOUS
 10
125.4175782603
 20
111.280452738
 11
124.7034013181
 21
111.780452738
  0
LINE
  5
5F7
100
AcDbEntity
  8
21814000
100
AcDbLine
 62
253
  6
CONTINUOUS
 10
124.5605659416
 20
109.8518813946
 11
124.4177305651
 21
109.9947384693
  0
LINE
  5
5F8
100
AcDbEntity
  8
21814000
100
AcDbLine
 62
253
  6
CONTINUOUS
 10
125.2747428688
 20
109.4233099319
 11
125.4175782603
 21
109.2804528572
  0
LINE
  5
5F9
100
AcDbEntity
  8
21814000
100
AcDbLine
 62
253
  6
CONTINUOUS
 10
115.6892548548
 20
119.6447383263
 11
115.4178676395
 21
119.9161672213
  0
LINE
  5
5FA
100
AcDbEntity
  8
21814000
100
AcDbLine
 62
253
  6
CONTINUOUS
 10
125.2747428688
 20
110.2090242006
 11
125.4175782603
 21
110.0661671259
  0
LINE
  5
5FB
100
AcDbEntity
  8
21814000
100
AcDbLine
 62
253
  6
CONTINUOUS
 10
117.0461910166
 20
118.8304527738
 11
117.3175782603
 21
118.5590243318
  0
LINE
  5
5FC
100
AcDbEntity
  8
21814000
100
AcDbLine
 62
253
  6
CONTINUOUS
 10
125.4175782603
 20
110.8518812754
 11
125.2747428688
 21
110.9947385885
  0
LINE
  5
5FD
100
AcDbEntity
  8
21814000
100
AcDbLine
 62
253
  6
CONTINUOUS
 10
115.9606420702
 20
121.0018814423
 11
115.4178676395
 21
121.5447383263
  0
LWPOLYLINE
  5
5FE
100
AcDbEntity
  8
21814000
100
AcDbPolyline
 62
253
  6
CONTINUOUS
 90
3
 70
0
 10
130.1904012742
 20
94.2054905306
 10
130.2034793243
 20
94.1665900968
 10
130.217002566
 20
94.1249243933
  0
LINE
  5
5FF
100
AcDbEntity
  8
21814000
100
AcDbLine
 62
253
  6
CONTINUOUS
 10
127.1147301597
 20
98.2947382547
 11
127.1147301597
 21
98.0161672689
  0
LINE
  5
600
100
AcDbEntity
  8
21814000
100
AcDbLine
 62
253
  6
CONTINUOUS
 10
127.1147301597
 20
96.2518814661
 11
127.1147301597
 21
95.9733098604
  0
LINE
  5
601
100
AcDbEntity
  8
21814000
100
AcDbLine
 62
253
  6
CONTINUOUS
 10
127.1147301597
 20
95.2304530718
 11
127.1147301597
 21
94.9518814661
  0
LINE
  5
602
100
AcDbEntity
  8
21814000
100
AcDbLine
 62
253
  6
CONTINUOUS
 10
127.1147301597
 20
94.2090243675
 11
127.1147301597
 21
93.9304527618
  0
LINE
  5
603
100
AcDbEntity
  8
21814000
100
AcDbLine
 62
253
  6
CONTINUOUS
 10
127.1147301597
 20
91.1447384872
 11
127.1147301597
 21
91.516167114
  0
LINE
  5
604
100
AcDbEntity
  8
21814000
100
AcDbLine
 62
253
  6
CONTINUOUS
 10
127.1179742227
 20
114.1113376633
 11
127.1179742227
 21
113.1643506633
  0
LINE
  5
605
100
AcDbEntity
  8
21814000
100
AcDbLine
 62
253
  6
CONTINUOUS
 10
127.1179742227
 20
112.2778386633
 11
127.1179742227
 21
111.8480026633
  0
LINE
  5
606
100
AcDbEntity
  8
21814000
100
AcDbLine
 62
253
  6
CONTINUOUS
 10
127.1179742227
 20
117.5624506633
 11
127.1179742227
 21
118.6180426633
  0
LINE
  5
607
100
AcDbEntity
  8
21814000
100
AcDbLine
 62
253
  6
CONTINUOUS
 10
127.6717881281
 20
97.2733098604
 11
127.6717881281
 21
96.8709292032
  0
LINE
  5
608
100
AcDbEntity
  8
21814000
100
AcDbLine
 62
253
  6
CONTINUOUS
 10
127.7677762415
 20
113.1643506633
 11
127.7677762415
 21
114.0449416633
  0
LINE
  5
609
100
AcDbEntity
  8
21814000
100
AcDbLine
 62
253
  6
CONTINUOUS
 10
127.9458809766
 20
118.8938796633
 11
127.9458809766
 21
119.6205366633
  0
LINE
  5
60A
100
AcDbEntity
  8
21814000
100
AcDbLine
 62
253
  6
CONTINUOUS
 10
127.9533197102
 20
110.7408936633
 11
127.9533197102
 21
111.4740786633
  0
LINE
  5
60B
100
AcDbEntity
  8
21814000
100
AcDbLine
 62
253
  6
CONTINUOUS
 10
113.0146123753
 20
91.1587566633
 11
111.0183236031
 21
90.5176246633
  0
LINE
  5
60C
100
AcDbEntity
  8
21814000
100
AcDbLine
 62
253
  6
CONTINUOUS
 10
111.3001791167
 20
90.0281170969
 11
113.9175782603
 21
90.8687276633
  0
LINE
  5
60D
100
AcDbEntity
  8
21814000
100
AcDbLine
 62
253
  6
CONTINUOUS
 10
111.0184605614
 20
118.8487936633
 11
113.9175782603
 21
118.8487936633
  0
LINE
  5
60E
100
AcDbEntity
  8
21814000
100
AcDbLine
 62
253
  6
CONTINUOUS
 10
115.9606420702
 20
118.9661669948
 11
116.7748037729
 21
118.9661669948
  0
LINE
  5
60F
100
AcDbEntity
  8
ASSI
100
AcDbLine
 62
7
  6
CONTINUOUS
 10
108.4175782603
 20
119.4634706633
 11
108.6175782603
 21
119.4634706633
  0
LINE
  5
610
100
AcDbEntity
  8
21814000
100
AcDbLine
 62
253
  6
CONTINUOUS
 10
116.7748037729
 20
119.5090241053
 11
115.9606420702
 21
119.5090241053
  0
LINE
  5
611
100
AcDbEntity
  8
ASSI
100
AcDbLine
 62
7
  6
CONTINUOUS
 10
108.4175782603
 20
119.9635086633
 11
108.6175782603
 21
119.9635086633
  0
LINE
  5
612
100
AcDbEntity
  8
21814000
100
AcDbLine
 62
253
  6
CONTINUOUS
 10
127.1179742227
 20
120.0765136633
 11
128.4175782603
 21
120.0765136633
  0
LINE
  5
613
100
AcDbEntity
  8
21814000
100
AcDbLine
 62
253
  6
CONTINUOUS
 10
115.9606420702
 20
120.4590241053
 11
116.7748037729
 21
120.4590241053
  0
LINE
  5
614
100
AcDbEntity
  8
21814000
100
AcDbLine
 62
253
  6
CONTINUOUS
 10
112.8213402613
 20
120.1140866633
 11
111.5726157218
 21
120.5440446633
  0
LINE
  5
615
100
AcDbEntity
  8
21814000
100
AcDbLine
 62
253
  6
CONTINUOUS
 10
113.9175782603
 20
119.7364846633
 11
113.303126471
 21
119.9534416633
  0
LINE
  5
616
100
AcDbEntity
  8
21814000
100
AcDbLine
 62
253
  6
CONTINUOUS
 10
116.7748037729
 20
118.9661669948
 11
117.0461910166
 21
118.8304527738
  0
LINE
  5
617
100
AcDbEntity
  8
21814000
100
AcDbLine
 62
253
  6
CONTINUOUS
 10
115.9606420702
 20
119.5090241053
 11
115.6892548548
 21
119.6447383263
  0
LINE
  5
618
100
AcDbEntity
  8
21814000
100
AcDbLine
 62
253
  6
CONTINUOUS
 10
116.7748037729
 20
120.4590241053
 11
117.0461910166
 21
120.3233098843
  0
LINE
  5
619
100
AcDbEntity
  8
21814000
100
AcDbLine
 62
253
  6
CONTINUOUS
 10
117.0461910166
 20
120.3233098843
 11
117.3175782603
 21
120.0518814423
  0
LINE
  5
61A
100
AcDbEntity
  8
21814000
100
AcDbLine
 62
253
  6
CONTINUOUS
 10
124.9890721009
 20
112.8518815138
 11
124.8462366946
 21
112.9947385885
  0
LINE
  5
61B
100
AcDbEntity
  8
21814000
100
AcDbLine
 62
253
  6
CONTINUOUS
 10
125.2747428688
 20
113.3518815138
 11
125.4175782603
 21
113.2090244391
  0
LINE
  5
61C
100
AcDbEntity
  8
21814000
100
AcDbLine
 62
253
  6
CONTINUOUS
 10
124.7748190362
 20
113.304262171
 11
124.8462366946
 21
113.2090244391
  0
LWPOLYLINE
  5
61D
100
AcDbEntity
  8
21814000
100
AcDbPolyline
 62
253
  6
CONTINUOUS
 90
4
 70
0
 10
130.1152084192
 20
87.6096837199
 10
130.1139997585
 20
87.6282346957
 10
130.1128971665
 20
87.6498366779
 10
130.1120314711
 20
87.6744823211
  0
LWPOLYLINE
  5
61E
100
AcDbEntity
  8
21814000
100
AcDbPolyline
 62
7
  6
CONTINUOUS
 90
4
 70
0
 10
130.1164011739
 20
87.6024704972
 10
130.1144918801
 20
87.635381613
 10
130.1135446079
 20
87.6558168774
 10
130.1127539642
 20
87.6796960196
  0
LINE
  5
61F
100
AcDbEntity
  8
21814000
100
AcDbLine
 62
7
  6
CONTINUOUS
 10
130.1171587282
 20
87.5881570463
 11
130.1164011739
 21
87.6024704972
  0
LWPOLYLINE
  5
620
100
AcDbEntity
  8
21814000
100
AcDbPolyline
 62
253
  6
CONTINUOUS
 90
10
 70
0
 10
130.1175839863
 20
94.4734291231
 10
130.1184254544
 20
94.4542757535
 10
130.1209275504
 20
94.4336049069
 10
130.1250420128
 20
94.4114516398
 10
130.1307131944
 20
94.387915812
 10
130.1378438359
 20
94.3628874784
 10
130.146280089
 20
94.3359682215
 10
130.1558397039
 20
94.3068551528
 10
130.1664201593
 20
94.2754755658
 10
130.1904012742
 20
94.2054905306
  0
LINE
  5
621
100
AcDbEntity
  8
21814000
100
AcDbLine
 62
253
  6
CONTINUOUS
 10
130.2170021878
 20
94.1249251935
 11
130.2154977929
 21
94.1581938896
  0
LWPOLYLINE
  5
622
100
AcDbEntity
  8
21814000
100
AcDbPolyline
 62
253
  6
CONTINUOUS
 90
3
 70
0
 10
130.1175642383
 20
87.5739229377
 10
130.1172259143
 20
87.5817580266
 10
130.1152084192
 20
87.6096837199
  0
LINE
  5
623
100
AcDbEntity
  8
21814000
100
AcDbLine
 62
253
  6
CONTINUOUS
 10
130.2154977929
 20
94.1581938896
 11
130.212517798
 21
94.2302606718
  0
LINE
  5
624
100
AcDbEntity
  8
21814000
100
AcDbLine
 62
253
  6
CONTINUOUS
 10
130.212517798
 20
94.2302606718
 11
130.2103414629
 21
94.2869871564
  0
LINE
  5
625
100
AcDbEntity
  8
21814000
100
AcDbLine
 62
253
  6
CONTINUOUS
 10
130.2103414629
 20
94.2869871564
 11
130.2083997339
 21
94.3414934517
  0
LINE
  5
626
100
AcDbEntity
  8
21814000
100
AcDbLine
 62
253
  6
CONTINUOUS
 10
130.2083997339
 20
94.3414934517
 11
130.2065227725
 21
94.3991026763
  0
LINE
  5
627
100
AcDbEntity
  8
21814000
100
AcDbLine
 62
7
  6
CONTINUOUS
 10
130.1175581029
 20
87.5739902527
 11
130.1171587282
 21
87.5881570463
  0
LINE
  5
628
100
AcDbEntity
  8
21814000
100
AcDbLine
 62
253
  6
CONTINUOUS
 10
130.2065227725
 20
94.3991026763
 11
130.2059798734
 21
94.4174973191
  0
LINE
  5
629
100
AcDbEntity
  8
21814000
100
AcDbLine
 62
253
  6
CONTINUOUS
 10
130.1120314711
 20
87.6744823211
 11
130.111314115
 21
87.7040799142
  0
LINE
  5
62A
100
AcDbEntity
  8
21814000
100
AcDbLine
 62
7
  6
CONTINUOUS
 10
130.1127539642
 20
87.6796960196
 11
130.112218835
 21
87.7024177883
  0
LINE
  5
62B
100
AcDbEntity
  8
21814000
100
AcDbLine
 62
253
  6
CONTINUOUS
 10
130.2059798734
 20
94.4174973191
 11
130.2057398706
 21
94.4286555088
  0
LWPOLYLINE
  5
62C
100
AcDbEntity
  8
21814000
100
AcDbPolyline
 62
253
  6
CONTINUOUS
 90
3
 70
0
 10
130.111314115
 20
87.7040799142
 10
130.1106970307
 20
87.7365717239
 10
130.1101998539
 20
87.7717186394
  0
LINE
  5
62D
100
AcDbEntity
  8
21814000
100
AcDbLine
 62
7
  6
CONTINUOUS
 10
130.112218835
 20
87.7024177883
 11
130.1114931843
 21
87.7428540593
  0
LWPOLYLINE
  5
62E
100
AcDbEntity
  8
21814000
100
AcDbPolyline
 62
7
  6
CONTINUOUS
 90
9
 70
0
 10
130.1114931843
 20
87.7428540593
 10
130.1109394939
 20
87.7875417523
 10
130.1105830365
 20
87.8360437094
 10
130.1104487136
 20
87.8879026749
 10
130.1105455544
 20
87.9426522806
 10
130.1108706781
 20
87.9997475471
 10
130.111409878
 20
88.0585848763
 10
130.112129273
 20
88.1185782381
 10
130.1130032625
 20
88.1839881169
  0
LWPOLYLINE
  5
62F
100
AcDbEntity
  8
21814000
100
AcDbPolyline
 62
253
  6
CONTINUOUS
 90
10
 70
0
 10
130.1101998539
 20
87.7717186394
 10
130.1098372266
 20
87.8092376975
 10
130.109620392
 20
87.8488798505
 10
130.1095572756
 20
87.8904384123
 10
130.109656392
 20
87.9338790398
 10
130.1099081609
 20
87.9786374753
 10
130.1102875066
 20
88.0236832966
 10
130.1107786822
 20
88.068453329
 10
130.1113742954
 20
88.1128720107
 10
130.1120573766
 20
88.1566423249
  0
LINE
  5
630
100
AcDbEntity
  8
21814000
100
AcDbLine
 62
253
  6
CONTINUOUS
 10
130.1175782603
 20
87.5723845035
 11
130.1175642383
 21
87.5739229377
  0
LINE
  5
631
100
AcDbEntity
  8
21814000
100
AcDbLine
 62
253
  6
CONTINUOUS
 10
128.4145321634
 20
98.4804530718
 11
128.4145321634
 21
97.8304530718
  0
LINE
  5
632
100
AcDbEntity
  8
21814000
100
AcDbLine
 62
253
  6
CONTINUOUS
 10
128.4145321634
 20
96.4375956633
 11
128.4145321634
 21
95.7875956633
  0
LINE
  5
633
100
AcDbEntity
  8
21814000
100
AcDbLine
 62
253
  6
CONTINUOUS
 10
128.4145321634
 20
95.4161672689
 11
128.4145321634
 21
94.766166959
  0
LINE
  5
634
100
AcDbEntity
  8
21814000
100
AcDbLine
 62
253
  6
CONTINUOUS
 10
128.4145321634
 20
94.3947385647
 11
128.4145321634
 21
93.7447385647
  0
LINE
  5
635
100
AcDbEntity
  8
21814000
100
AcDbLine
 62
253
  6
CONTINUOUS
 10
128.4145321634
 20
91.0518813886
 11
128.4145321634
 21
91.4233100154
  0
LINE
  5
636
100
AcDbEntity
  8
21814000
100
AcDbLine
 62
253
  6
CONTINUOUS
 10
128.4145321634
 20
96.9947382547
 11
128.4145321634
 21
97.2733098604
  0
LINE
  5
637
100
AcDbEntity
  8
21814000
100
AcDbLine
 62
253
  6
CONTINUOUS
 10
128.4175782603
 20
111.8480026633
 11
128.4175782603
 21
112.2778386633
  0
LINE
  5
638
100
AcDbEntity
  8
21814000
100
AcDbLine
 62
253
  6
CONTINUOUS
 10
128.4175782603
 20
113.1643506633
 11
128.4175782603
 21
114.1240276633
  0
LINE
  5
639
100
AcDbEntity
  8
21814000
100
AcDbLine
 62
253
  6
CONTINUOUS
 10
128.4175782603
 20
120.0765136633
 11
128.4175782603
 21
120.8234476633
  0
LINE
  5
63A
100
AcDbEntity
  8
21814000
100
AcDbLine
 62
253
  6
CONTINUOUS
 10
129.233285426
 20
125.3597859613
 11
129.233285426
 21
119.0193582544
  0
LINE
  5
63B
100
AcDbEntity
  8
21814000
100
AcDbLine
 62
253
  6
CONTINUOUS
 10
129.233285426
 20
86.5154053652
 11
129.233285426
 21
117.0558330721
  0
LWPOLYLINE
  5
63C
100
AcDbEntity
  8
21814000
100
AcDbPolyline
 62
7
  6
CONTINUOUS
 90
6
 70
0
 10
130.1134394321
 20
111.5472469698
 10
130.1137700189
 20
111.5992423251
 10
130.1145235662
 20
111.6519980458
 10
130.1155591213
 20
111.7050369164
 10
130.1166572367
 20
111.7577743869
 10
130.1174396293
 20
111.8098528802
  0
LINE
  5
63D
100
AcDbEntity
  8
21814000
100
AcDbLine
 62
7
  6
CONTINUOUS
 10
130.1173733539
 20
111.8062560967
 11
130.1175551296
 21
111.827692262
  0
LINE
  5
63E
100
AcDbEntity
  8
21814000
100
AcDbLine
 62
7
  6
CONTINUOUS
 10
130.1145689418
 20
111.6736865407
 11
130.1168516493
 21
111.7740814796
  0
LWPOLYLINE
  5
63F
100
AcDbEntity
  8
21814000
100
AcDbPolyline
 62
253
  6
CONTINUOUS
 90
46
 70
0
 10
130.1175782603
 20
120.6498823722
 10
130.115600856
 20
120.5822282364
 10
130.1100618881
 20
120.5157507357
 10
130.101536763
 20
120.4504498699
 10
130.0906340611
 20
120.3862222012
 10
130.0778423031
 20
120.3231711675
 10
130.0634054382
 20
120.2616070825
 10
130.0476545542
 20
120.2015985751
 10
130.0309460473
 20
120.1430770164
 10
130.0133577632
 20
120.0861468342
 10
129.9951232101
 20
120.0309054642
 10
129.9764656284
 20
119.9772554707
 10
129.9573118783
 20
119.9250089741
 10
129.9377834791
 20
119.8741627673
 10
129.918042389
 20
119.8247200574
 10
129.8979823592
 20
119.776502585
 10
129.8776617249
 20
119.7294567822
 10
129.8572035763
 20
119.6836362169
 10
129.8365462494
 20
119.6390233342
 10
129.8157372341
 20
119.5955893755
 10
129.7948584043
 20
119.5533630995
 10
129.7738728033
 20
119.5124132272
 10
129.7528333153
 20
119.4727458092
 10
129.7317852551
 20
119.434354795
 10
129.7106624229
 20
119.3972907536
 10
129.6895113683
 20
119.3615571776
 10
129.6683580038
 20
119.3271505745
 10
129.6470888913
 20
119.2941110357
 10
129.6257253358
 20
119.2624028901
 10
129.6042963925
 20
119.2320618087
 10
129.5826865629
 20
119.2032348968
 10
129.5609016692
 20
119.1758690184
 10
129.5389722185
 20
119.1500173095
 10
129.5168107908
 20
119.125986283
 10
129.4944252604
 20
119.1037352609
 10
129.4718376919
 20
119.0833049211
 10
129.448976902
 20
119.0651238111
 10
129.4258319417
 20
119.0491741696
 10
129.4024414751
 20
119.0354737579
 10
129.3788071958
 20
119.0245044067
 10
129.3549199946
 20
119.0163395403
 10
129.3308196715
 20
119.0109057344
 10
129.3065825741
 20
119.008464547
 10
129.2822460615
 20
119.0091031643
 10
129.257807738
 20
119.0127344001
 10
129.233285426
 20
119.0193582544
  0
LWPOLYLINE
  5
640
100
AcDbEntity
  8
21814000
100
AcDbPolyline
 62
253
  6
CONTINUOUS
 90
40
 70
0
 10
130.3914315374
 20
120.4185558142
 10
130.3874648162
 20
120.356506543
 10
130.3801520843
 20
120.2950100322
 10
130.3694933415
 20
120.2343661401
 10
130.354967884
 20
120.1749869581
 10
130.3370964156
 20
120.1169982418
 10
130.3174410488
 20
120.0602229475
 10
130.2962238609
 20
120.0048639474
 10
130.2732227745
 20
119.9511120281
 10
130.2493336697
 20
119.8987159821
 10
130.2247212246
 20
119.8478556219
 10
130.1992207611
 20
119.7986327433
 10
130.1732341251
 20
119.7506244566
 10
130.1468373407
 20
119.7038739387
 10
130.1199543837
 20
119.6585220187
 10
130.0927590276
 20
119.6142477803
 10
130.0652644264
 20
119.5710377073
 10
130.0374574261
 20
119.5290304541
 10
130.0094723382
 20
119.4881095178
 10
129.9813191319
 20
119.448286479
 10
129.9529878379
 20
119.4096453928
 10
129.9245828601
 20
119.3721683829
 10
129.8961340324
 20
119.3358943265
 10
129.8676115208
 20
119.3008614309
 10
129.8390302271
 20
119.2670448013
 10
129.8104230677
 20
119.2344687918
 10
129.7817571262
 20
119.2031697719
 10
129.752948555
 20
119.1731357206
 10
129.7240012493
 20
119.1443449757
 10
129.6949113138
 20
119.1168664252
 10
129.665583215
 20
119.0908215042
 10
129.6360086819
 20
119.0661791333
 10
129.6061959855
 20
119.0430102173
 10
129.5760744043
 20
119.0215905398
 10
129.5456387525
 20
119.00190045
 10
129.5148942159
 20
118.9839956363
 10
129.4837856311
 20
118.9682682441
 10
129.4522946102
 20
118.9548611456
 10
129.4204395411
 20
118.9436646405
 10
129.3882204237
 20
118.934692512
  0
LWPOLYLINE
  5
641
100
AcDbEntity
  8
21814000
100
AcDbPolyline
 62
253
  6
CONTINUOUS
 90
13
 70
0
 10
130.1175782603
 20
115.4253089544
 10
130.119867977
 20
115.4539438929
 10
130.1267021458
 20
115.4821416356
 10
130.1379764019
 20
115.5094717593
 10
130.1535186031
 20
115.5355170867
 10
130.1730914675
 20
115.5598800691
 10
130.1963962044
 20
115.5821888508
 10
130.2230770505
 20
115.6021029187
 10
130.252726722
 20
115.6193183243
 10
130.2848926551
 20
115.6335723249
 10
130.3190838678
 20
115.6446473645
 10
130.3547784444
 20
115.6523744034
 10
130.3914315374
 20
115.6566355128
  0
LINE
  5
642
100
AcDbEntity
  8
21814000
100
AcDbLine
 62
253
  6
CONTINUOUS
 10
130.3914315575
 20
108.5634030608
 11
130.3832919186
 21
108.5334201545
  0
LINE
  5
643
100
AcDbEntity
  8
21814000
100
AcDbLine
 62
253
  6
CONTINUOUS
 10
121.3847019563
 20
90.8065736633
 11
122.4175782603
 21
92.1375956633
  0
LINE
  5
644
100
AcDbEntity
  8
21814000
100
AcDbLine
 62
253
  6
CONTINUOUS
 10
127.3004161491
 20
98.4804530718
 11
127.1147301597
 21
98.2947382547
  0
LINE
  5
645
100
AcDbEntity
  8
21814000
100
AcDbLine
 62
253
  6
CONTINUOUS
 10
127.8574741563
 20
97.4590240576
 11
127.6717881281
 21
97.2733098604
  0
LINE
  5
646
100
AcDbEntity
  8
21814000
100
AcDbLine
 62
253
  6
CONTINUOUS
 10
127.3004161491
 20
96.4375956633
 11
127.1147301597
 21
96.2518814661
  0
LWPOLYLINE
  5
647
100
AcDbEntity
  8
21814000
100
AcDbPolyline
 62
253
  6
CONTINUOUS
 90
51
 70
0
 10
121.3847018423
 20
93.4686178101
 10
121.4256897436
 20
93.4994426517
 10
121.4676538164
 20
93.529029194
 10
121.5105450682
 20
93.5573487486
 10
121.5543145066
 20
93.5843726274
 10
121.5989131393
 20
93.6100721419
 10
121.6442919737
 20
93.6344186039
 10
121.6904020175
 20
93.6573833252
 10
121.7371942782
 20
93.6789376174
 10
121.7846197634
 20
93.6990527923
 10
121.8326294806
 20
93.7177001615
 10
121.8811750596
 20
93.7348544229
 10
121.930210619
 20
93.750503818
 10
121.9796908995
 20
93.7646399747
 10
122.0295706419
 20
93.7772545208
 10
122.079804587
 20
93.7883390839
 10
122.1303474754
 20
93.7978852918
 10
122.1811540479
 20
93.8058847724
 10
122.2321790453
 20
93.8123291532
 10
122.2833772083
 20
93.8172100622
 10
122.3347032777
 20
93.820519127
 10
122.3861114008
 20
93.8222502161
 10
122.4375533519
 20
93.822406161
 10
122.4889803115
 20
93.8209920341
 10
122.5403434604
 20
93.8180129075
 10
122.5915939794
 20
93.8134738536
 10
122.6426830492
 20
93.8073799446
 10
122.6935618504
 20
93.7997362528
 10
122.744181564
 20
93.7905478504
 10
122.7944933705
 20
93.7798198097
 10
122.8444484506
 20
93.7675572029
 10
122.8939990263
 20
93.7537671733
 10
122.9431014834
 20
93.7384651479
 10
122.9917132489
 20
93.7216686245
 10
123.0397917499
 20
93.7033951012
 10
123.0872944132
 20
93.6836620757
 10
123.1341786659
 20
93.662487046
 10
123.1804019351
 20
93.6398875101
 10
123.2259216476
 20
93.6158809658
 10
123.2706952305
 20
93.5904849111
 10
123.3146801108
 20
93.5637168438
 10
123.3578338021
 20
93.5355977036
 10
123.4001141654
 20
93.5061621966
 10
123.4414791481
 20
93.4754484705
 10
123.4818866978
 20
93.443494673
 10
123.5212947619
 20
93.4103389519
 10
123.559661288
 20
93.3760194549
 10
123.5969442236
 20
93.3405743298
 10
123.6331015163
 20
93.3040417243
 10
123.6680911135
 20
93.2664597862
 10
123.7018709629
 20
93.2278666633
  0
LINE
  5
648
100
AcDbEntity
  8
RACCORDO
100
AcDbLine
 62
7
  6
CONTINUOUS
 10
105.7925782603
 20
82.7427771488
 11
105.0425782603
 21
82.3097644469
  0
LINE
  5
649
100
AcDbEntity
  8
RACCORDO
100
AcDbLine
 62
253
  6
CONTINUOUS
 10
105.9175782603
 20
82.5262707979
 11
105.1675782603
 21
82.093258096
  0
LINE
  5
64A
100
AcDbEntity
  8
ASSI
100
AcDbLine
 62
7
  6
CONTINUOUS
 10
108.4175782603
 20
120.7662086633
 11
108.6175782603
 21
120.7662086633
  0
LINE
  5
64B
100
AcDbEntity
  8
21814000
100
AcDbLine
 62
253
  6
CONTINUOUS
 10
128.4175782603
 20
121.4611996633
 11
127.9146964779
 21
121.4611996633
  0
LINE
  5
64C
100
AcDbEntity
  8
21814000
100
AcDbLine
 62
253
  6
CONTINUOUS
 10
122.4954285787
 20
121.5375956633
 11
123.2452001389
 21
121.5375956633
  0
LINE
  5
64D
100
AcDbEntity
  8
21814000
100
AcDbLine
 62
7
  6
CONTINUOUS
 10
130.1175782603
 20
121.5375956633
 11
130.3175782603
 21
121.5375956633
  0
LINE
  5
64E
100
AcDbEntity
  8
21814000
100
AcDbLine
 62
253
  6
CONTINUOUS
 10
115.4178676395
 20
121.5447383263
 11
117.3175782603
 21
121.5447383263
  0
LINE
  5
64F
100
AcDbEntity
  8
21814000
100
AcDbLine
 62
253
  6
CONTINUOUS
 10
120.3230504574
 20
121.9375956633
 11
121.0736417677
 21
121.9375956633
  0
LINE
  5
650
100
AcDbEntity
  8
21814000
100
AcDbLine
 62
253
  6
CONTINUOUS
 10
124.6669869499
 20
121.9375956633
 11
125.4175782603
 21
121.9375956633
  0
LINE
  5
651
100
AcDbEntity
  8
21814000
100
AcDbLine
 62
7
  6
CONTINUOUS
 10
130.3914315374
 20
121.113636606
 11
132.1437249831
 21
120.9603307944
  0
LWPOLYLINE
  5
652
100
AcDbEntity
  8
21814000
100
AcDbPolyline
 62
253
  6
CONTINUOUS
 90
46
 70
0
 10
122.4954289011
 20
120.0770914826
 10
122.4403759217
 20
120.0897383576
 10
122.385689231
 20
120.1041349879
 10
122.3314316229
 20
120.120259796
 10
122.2776658913
 20
120.138091204
 10
122.22445483
 20
120.1576076344
 10
122.1718612329
 20
120.1787875094
 10
122.1199478939
 20
120.2016092515
 10
122.0687776067
 20
120.2260512828
 10
122.0184131654
 20
120.2520920258
 10
121.9689140136
 20
120.2797080589
 10
121.9203261942
 20
120.3088685857
 10
121.8726924001
 20
120.3395409659
 10
121.826055324
 20
120.371692559
 10
121.7804576589
 20
120.4052907248
 10
121.7359420974
 20
120.440302823
 10
121.6925513325
 20
120.4766962133
 10
121.6503280569
 20
120.5144382553
 10
121.6093149634
 20
120.5534963086
 10
121.5695534415
 20
120.5938355676
 10
121.5310796675
 20
120.6354125641
 10
121.4939285141
 20
120.6781816647
 10
121.4581348544
 20
120.7220972359
 10
121.4237335611
 20
120.7671136441
 10
121.3907595072
 20
120.8131852558
 10
121.3592475655
 20
120.8602664375
 10
121.3292326089
 20
120.9083115557
 10
121.3007495104
 20
120.957274977
 10
121.2738307117
 20
121.0071103777
 10
121.248498931
 20
121.0577686749
 10
121.2247744552
 20
121.1092000953
 10
121.2026775716
 20
121.1613548659
 10
121.1822285672
 20
121.2141832136
 10
121.163447729
 20
121.2676353653
 10
121.1463553441
 20
121.3216615479
 10
121.1309716995
 20
121.3762119883
 10
121.1173170825
 20
121.4312369134
 10
121.1054091223
 20
121.4866837999
 10
121.0952548184
 20
121.5424891244
 10
121.0868585125
 20
121.598586613
 10
121.0802245461
 20
121.654909992
 10
121.075357261
 20
121.7113929878
 10
121.072260999
 20
121.7679693265
 10
121.0709401016
 20
121.8245727344
 10
121.0713989106
 20
121.881136938
 10
121.0736417677
 20
121.9375956633
  0
LWPOLYLINE
  5
653
100
AcDbEntity
  8
21814000
100
AcDbPolyline
 62
253
  6
CONTINUOUS
 90
37
 70
0
 10
129.3882434568
 20
117.1404906837
 10
129.4226677306
 20
117.1308496275
 10
129.4568181843
 20
117.1185670648
 10
129.4906948178
 20
117.1036609806
 10
129.5243538814
 20
117.0859513897
 10
129.5577391247
 20
117.0656628183
 10
129.5906817977
 20
117.0434177701
 10
129.6230707856
 20
117.0193494289
 10
129.655017203
 20
116.9933685125
 10
129.6866856436
 20
116.9657579975
 10
129.7180686178
 20
116.9366266989
 10
129.749173615
 20
116.9059162646
 10
129.7801876974
 20
116.8736597626
 10
129.811165071
 20
116.8399002871
 10
129.8420515296
 20
116.804660513
 10
129.8728715166
 20
116.7679478254
 10
129.9036592293
 20
116.7298127209
 10
129.9343804703
 20
116.690288532
 10
129.964957091
 20
116.6493632286
 10
129.9953890677
 20
116.6071576339
 10
130.025676424
 20
116.5636562722
 10
130.0557410817
 20
116.5186565723
 10
130.0856103594
 20
116.4723167597
 10
130.1152569385
 20
116.4246250828
 10
130.1445207852
 20
116.3751567914
 10
130.1735180355
 20
116.3240407511
 10
130.2021325533
 20
116.2713739266
 10
130.2298558969
 20
116.2167367048
 10
130.2568709813
 20
116.1603032171
 10
130.2829948915
 20
116.1022391036
 10
130.3071704404
 20
116.0421808905
 10
130.329703093
 20
115.9800496875
 10
130.3502873844
 20
115.9164401398
 10
130.3669497327
 20
115.8520044799
 10
130.3790322773
 20
115.7871083828
 10
130.3871928789
 20
115.7218899512
 10
130.3914315374
 20
115.6566355124
  0
LINE
  5
654
100
AcDbEntity
  8
RACCORDO
100
AcDbLine
 62
7
  6
CONTINUOUS
 10
105.0425782603
 20
129.5654268796
 11
105.7925782603
 21
129.1324141777
  0
LINE
  5
655
100
AcDbEntity
  8
RACCORDO
100
AcDbLine
 62
253
  6
CONTINUOUS
 10
105.1675782603
 20
129.7819332306
 11
105.9175782603
 21
129.3489205287
  0
LINE
  5
656
100
AcDbEntity
  8
21814000
100
AcDbLine
 62
253
  6
CONTINUOUS
 10
130.3914315616
 20
106.7117882515
 11
130.3832919171
 21
106.741771172
  0
LWPOLYLINE
  5
657
100
AcDbEntity
  8
21814000
100
AcDbPolyline
 62
253
  6
CONTINUOUS
 90
13
 70
0
 10
130.1175782603
 20
120.6498823722
 10
130.1198680083
 20
120.6212469582
 10
130.1267022528
 20
120.5930488553
 10
130.1379766011
 20
120.5657184875
 10
130.1535188764
 20
120.5396730349
 10
130.1730917753
 20
120.5153100282
 10
130.1963965157
 20
120.4930012914
 10
130.2230773287
 20
120.4730873321
 10
130.2527269262
 20
120.4558720864
 10
130.2848927834
 20
120.4416182707
 10
130.3190839395
 20
120.4305434392
 10
130.3547784721
 20
120.4228166421
 10
130.3914315374
 20
120.4185558137
  0
LWPOLYLINE
  5
658
100
AcDbEntity
  8
21814000
100
AcDbPolyline
 62
253
  6
CONTINUOUS
 90
6
 70
0
 10
130.1175782603
 20
124.1301630855
 10
130.1142291248
 20
124.1850139156
 10
130.1042066444
 20
124.239456517
 10
130.0875854117
 20
124.2930856996
 10
130.0644891306
 20
124.3455023268
 10
130.0350896956
 20
124.3963162867
  0
LWPOLYLINE
  5
659
100
AcDbEntity
  8
21814000
100
AcDbPolyline
 62
253
  6
CONTINUOUS
 90
58
 70
0
 10
130.1175782603
 20
109.4600717855
 10
130.1179378847
 20
109.4260089425
 10
130.1189582727
 20
109.3930091354
 10
130.1205535432
 20
109.3610775715
 10
130.1226321363
 20
109.3302556785
 10
130.1251192329
 20
109.3004981979
 10
130.1279759138
 20
109.2716789205
 10
130.1311510807
 20
109.2437764501
 10
130.1345865076
 20
109.2168018339
 10
130.1382620228
 20
109.190682116
 10
130.1421389961
 20
109.165413225
 10
130.1461763249
 20
109.1409861533
 10
130.1503679526
 20
109.1173243752
 10
130.1546853733
 20
109.0944257757
 10
130.1590989353
 20
109.0722796998
 10
130.1636137181
 20
109.0508003677
 10
130.1682114903
 20
109.0299746822
 10
130.1728686609
 20
109.0098048078
 10
130.1775912667
 20
108.990230788
 10
130.1823684893
 20
108.971232017
 10
130.1871800095
 20
108.952819827
 10
130.1920225645
 20
108.9349838774
 10
130.1968840772
 20
108.9177199797
 10
130.2017510289
 20
108.9010235716
 10
130.2066205615
 20
108.8848846233
 10
130.2114790567
 20
108.8693108427
 10
130.2163189542
 20
108.8542864011
 10
130.221148998
 20
108.8397669855
 10
130.2259543277
 20
108.8257682465
 10
130.2307333872
 20
108.8122677657
 10
130.235518496
 20
108.7991659508
 10
130.2403021372
 20
108.7864626906
 10
130.2450812235
 20
108.7741538749
 10
130.2498989612
 20
108.762136349
 10
130.2547499101
 20
108.7504078041
 10
130.2596336193
 20
108.7389688399
 10
130.2646049177
 20
108.727723338
 10
130.2696647873
 20
108.7166563129
 10
130.2748105011
 20
108.7057838188
 10
130.2800950094
 20
108.6950590015
 10
130.2855386333
 20
108.6844359357
 10
130.2911223327
 20
108.6739643513
 10
130.2968413269
 20
108.6637421186
 10
130.3027512069
 20
108.6536944603
 10
130.3087967424
 20
108.6439002675
 10
130.3148019536
 20
108.6346838075
 10
130.3206845186
 20
108.6261737809
 10
130.3265160533
 20
108.6182356594
 10
130.3323484917
 20
108.6107961296
 10
130.3381185535
 20
108.6038864531
 10
130.343882746
 20
108.597472528
 10
130.3498777014
 20
108.5913889475
 10
130.3561747974
 20
108.5855238662
 10
130.3627037715
 20
108.5799977792
 10
130.3694922427
 20
108.5749993082
 10
130.3765488313
 20
108.5705948262
 10
130.3838626827
 20
108.5667277221
 10
130.3914315374
 20
108.5634029919
  0
LWPOLYLINE
  5
65A
100
AcDbEntity
  8
21814000
100
AcDbPolyline
 62
253
  6
CONTINUOUS
 90
3
 70
0
 10
130.205739359
 20
89.4465387073
 10
130.2057372267
 20
89.4476906962
 10
130.2058090777
 20
89.4511398789
  0
LINE
  5
65B
100
AcDbEntity
  8
21814000
100
AcDbLine
 62
7
  6
CONTINUOUS
 10
130.1175782603
 20
124.4599230357
 11
130.1175782603
 21
120.6498823722
  0
LINE
  5
65C
100
AcDbEntity
  8
21814000
100
AcDbLine
 62
7
  6
CONTINUOUS
 10
130.1175782603
 20
88.2660227881
 11
130.1175782603
 21
87.4152682909
  0
LINE
  5
65D
100
AcDbEntity
  8
21814000
100
AcDbLine
 62
7
  6
CONTINUOUS
 10
130.3175782603
 20
123.4375956633
 11
130.3175782603
 21
121.5375956633
  0
LINE
  5
65E
100
AcDbEntity
  8
21814000
100
AcDbLine
 62
7
  6
CONTINUOUS
 10
130.3175782603
 20
113.3375956633
 11
130.3175782603
 21
111.4375956633
  0
LINE
  5
65F
100
AcDbEntity
  8
21814000
100
AcDbLine
 62
7
  6
CONTINUOUS
 10
130.3175782603
 20
104.3375956633
 11
130.3175782603
 21
102.6375956633
  0
LINE
  5
660
100
AcDbEntity
  8
21814000
100
AcDbLine
 62
253
  6
CONTINUOUS
 10
130.3914315374
 20
121.113636606
 11
130.3914315374
 21
120.4185558142
  0
LINE
  5
661
100
AcDbEntity
  8
21814000
100
AcDbLine
 62
253
  6
CONTINUOUS
 10
130.3914315374
 20
115.6566355124
 11
130.3914315374
 21
114.9615547205
  0
LINE
  5
662
100
AcDbEntity
  8
21814000
100
AcDbLine
 62
253
  6
CONTINUOUS
 10
130.3914315374
 20
110.713636606
 11
130.3914315374
 21
108.5634029919
  0
LINE
  5
663
100
AcDbEntity
  8
21814000
100
AcDbLine
 62
253
  6
CONTINUOUS
 10
130.3914315374
 20
106.7117883347
 11
130.3914315374
 21
104.5615547205
  0
LINE
  5
664
100
AcDbEntity
  8
21814000
100
AcDbLine
 62
253
  6
CONTINUOUS
 10
132.1437249831
 20
120.9603307944
 11
132.1437249831
 21
115.1148605322
  0
LINE
  5
665
100
AcDbEntity
  8
21814000
100
AcDbLine
 62
253
  6
CONTINUOUS
 10
132.1437249831
 20
110.5603307944
 11
132.1437249831
 21
104.7148605322
  0
LINE
  5
666
100
AcDbEntity
  8
21814000
100
AcDbLine
 62
7
  6
CONTINUOUS
 10
130.1175782603
 20
111.5358842276
 11
130.1175782603
 21
115.4253089543
  0
LWPOLYLINE
  5
667
100
AcDbEntity
  8
21814000
100
AcDbPolyline
 62
7
  6
CONTINUOUS
 90
5
 70
0
 10
130.1129072955
 20
111.5358842996
 10
130.1130186819
 20
111.5705671191
 10
130.1133525471
 20
111.6050717495
 10
130.1138832611
 20
111.6393981908
 10
130.1145689418
 20
111.6736865407
  0
LINE
  5
668
100
AcDbEntity
  8
21814000
100
AcDbLine
 62
253
  6
CONTINUOUS
 10
130.1128248124
 20
88.23077659
 11
130.1129072955
 21
111.5358842996
  0
LWPOLYLINE
  5
669
100
AcDbEntity
  8
21814000
100
AcDbPolyline
 62
7
  6
CONTINUOUS
 90
4
 70
0
 10
130.1130032625
 20
88.1839881169
 10
130.1132543797
 20
88.2133982813
 10
130.1133957524
 20
88.2437168669
 10
130.1134394321
 20
111.5472469698
  0
LINE
  5
66A
100
AcDbEntity
  8
21814000
100
AcDbLine
 62
253
  6
CONTINUOUS
 10
130.112546993
 20
88.1943739882
 11
130.1128248124
 21
88.23077659
  0
LINE
  5
66B
100
AcDbEntity
  8
21814000
100
AcDbLine
 62
253
  6
CONTINUOUS
 10
130.1120573766
 20
88.1566423249
 11
130.112546993
 21
88.1943739882
  0
LINE
  5
66C
100
AcDbEntity
  8
21814000
100
AcDbLine
 62
253
  6
CONTINUOUS
 10
130.2058090777
 20
89.4511398789
 11
130.2064808636
 21
89.4748006997
  0
LINE
  5
66D
100
AcDbEntity
  8
21814000
100
AcDbLine
 62
253
  6
CONTINUOUS
 10
130.2064808636
 20
89.4748006997
 11
130.2078403949
 21
89.5170931821
  0
LINE
  5
66E
100
AcDbEntity
  8
21814000
100
AcDbLine
 62
253
  6
CONTINUOUS
 10
130.2078403949
 20
89.5170931821
 11
130.2098791562
 21
89.5754230217
  0
LINE
  5
66F
100
AcDbEntity
  8
21814000
100
AcDbLine
 62
253
  6
CONTINUOUS
 10
130.2098791562
 20
89.5754230217
 11
130.211593809
 21
89.6213327954
  0
LWPOLYLINE
  5
670
100
AcDbEntity
  8
21814000
100
AcDbPolyline
 62
253
  6
CONTINUOUS
 90
4
 70
0
 10
130.211593809
 20
89.6213327954
 10
130.2146429573
 20
89.6972295948
 10
130.2157762661
 20
89.7236347174
 10
130.2169983756
 20
89.7502684074
  0
LINE
  5
671
100
AcDbEntity
  8
21814000
100
AcDbLine
 62
253
  6
CONTINUOUS
 10
130.1120256663
 20
87.6744827793
 11
130.1126164568
 21
87.6846841177
  0
LWPOLYLINE
  5
672
100
AcDbEntity
  8
21814000
100
AcDbPolyline
 62
253
  6
CONTINUOUS
 90
51
 70
0
 10
123.7018708212
 20
91.0473247835
 10
123.6680909756
 20
91.0087316648
 10
123.6331013822
 20
90.9711497309
 10
123.5969440935
 20
90.9346171294
 10
123.559661162
 20
90.8991720082
 10
123.5212946402
 20
90.8648525151
 10
123.4818865804
 20
90.8316967976
 10
123.4414790352
 20
90.7997430036
 10
123.4001140571
 20
90.7690292809
 10
123.3578336984
 20
90.7395937771
 10
123.3146800118
 20
90.71147464
 10
123.2706951364
 20
90.6847065757
 10
123.2259215584
 20
90.6593105238
 10
123.1804018509
 20
90.6353039822
 10
123.1341785869
 20
90.6127044487
 10
123.0872943393
 20
90.5915294214
 10
123.0397916812
 20
90.5717963981
 10
122.9917131856
 20
90.5535228767
 10
122.9431014254
 20
90.5367263552
 10
122.8939989738
 20
90.5214243315
 10
122.8444484036
 20
90.5076343034
 10
122.7944933289
 20
90.495371698
 10
122.7441815279
 20
90.4846436585
 10
122.69356182
 20
90.4754552571
 10
122.6426830243
 20
90.4678115661
 10
122.5915939602
 20
90.4617176578
 10
122.5403434469
 20
90.4571786043
 10
122.4889803036
 20
90.4541994781
 10
122.4375533497
 20
90.4527853513
 10
122.3861114043
 20
90.4529412963
 10
122.3347032868
 20
90.4546723852
 10
122.2833772231
 20
90.4579814496
 10
122.2321790657
 20
90.462862358
 10
122.1811540739
 20
90.4693067382
 10
122.130347507
 20
90.4773062178
 10
122.0798046242
 20
90.4868524247
 10
122.0295706847
 20
90.4979369866
 10
121.9796909478
 20
90.5105515313
 10
121.9302106728
 20
90.5246876864
 10
121.8811751188
 20
90.5403370799
 10
121.8326295451
 20
90.5574913393
 10
121.7846198332
 20
90.5761387065
 10
121.7371943532
 20
90.5962538791
 10
121.6904020977
 20
90.6178081689
 10
121.644292059
 20
90.6407728877
 10
121.5989132296
 20
90.6651193471
 10
121.5543146019
 20
90.6908188588
 10
121.5105451682
 20
90.7178427345
 10
121.4676539211
 20
90.746162286
 10
121.425689853
 20
90.7757488251
 10
121.3847019563
 20
90.8065736633
  0
LINE
  5
673
100
AcDbEntity
  8
21814000
100
AcDbLine
 62
253
  6
CONTINUOUS
 10
128.2288461545
 20
96.8090240576
 11
128.4145321634
 21
96.9947382547
  0
LINE
  5
674
100
AcDbEntity
  8
21814000
100
AcDbLine
 62
253
  6
CONTINUOUS
 10
127.3004161491
 20
95.4161672689
 11
127.1147301597
 21
95.2304530718
  0
LINE
  5
675
100
AcDbEntity
  8
21814000
100
AcDbLine
 62
253
  6
CONTINUOUS
 10
127.3004161491
 20
94.3947385647
 11
127.1147301597
 21
94.2090243675
  0
LWPOLYLINE
  5
676
100
AcDbEntity
  8
21814000
100
AcDbPolyline
 62
253
  6
CONTINUOUS
 90
34
 70
0
 10
124.9739793778
 20
93.3902266633
 10
124.956644389
 20
93.373282104
 10
124.9397175481
 20
93.3559002217
 10
124.9232099279
 20
93.3380945407
 10
124.9071326012
 20
93.3198785853
 10
124.8914966408
 20
93.3012658798
 10
124.8763131196
 20
93.2822699484
 10
124.8615931102
 20
93.2629043155
 10
124.8473476856
 20
93.2431825053
 10
124.8335879186
 20
93.2231180421
 10
124.8203248819
 20
93.2027244503
 10
124.8075696483
 20
93.1820152541
 10
124.79533232
 20
93.1610037667
 10
124.7836191158
 20
93.1397024568
 10
124.772435284
 20
93.118123582
 10
124.7617860727
 20
93.0962794
 10
124.7516767303
 20
93.0741821684
 10
124.7421125048
 20
93.0518441448
 10
124.7330986446
 20
93.0292775867
 10
124.7246403978
 20
93.0064947519
 10
124.7167430126
 20
92.9835078979
 10
124.7094117373
 20
92.9603292824
 10
124.70265182
 20
92.936971163
 10
124.6964679918
 20
92.9134466457
 10
124.6908629158
 20
92.889772231
 10
124.6858387375
 20
92.8659652676
 10
124.6813976029
 20
92.8420431042
 10
124.6775416577
 20
92.8180230898
 10
124.6742730476
 20
92.7939225731
 10
124.6715939185
 20
92.7697589029
 10
124.6695064162
 20
92.745549428
 10
124.6680126864
 20
92.7213114972
 10
124.667114875
 20
92.6970624594
 10
124.6668151277
 20
92.6728196633
  0
LINE
  5
677
100
AcDbEntity
  8
21814000
100
AcDbLine
 62
253
  6
CONTINUOUS
 10
127.4861021386
 20
92.5375956633
 11
128.4145321634
 21
92.816166959
  0
LINE
  5
678
100
AcDbEntity
  8
28414000
100
AcDbLine
 62
7
  6
CONTINUOUS
 10
105.3443285082
 20
124.6062373424
 11
105.9116232127
 21
124.621092477
  0
LINE
  5
679
100
AcDbEntity
  8
RACCORDO
100
AcDbLine
 62
253
  6
CONTINUOUS
 10
105.2620712321
 20
123.8236116382
 11
105.8148896854
 21
123.8332611202
  0
LINE
  5
67A
100
AcDbEntity
  8
RACCORDO
100
AcDbLine
 62
7
  6
CONTINUOUS
 10
105.3147119205
 20
124.3244543324
 11
105.8764044548
 21
124.3342587121
  0
LINE
  5
67B
100
AcDbEntity
  8
21814000
100
AcDbLine
 62
7
  6
CONTINUOUS
 10
130.1175782603
 20
123.4375956633
 11
130.3175782603
 21
123.4375956633
  0
LINE
  5
67C
100
AcDbEntity
  8
21814000
100
AcDbLine
 62
253
  6
CONTINUOUS
 10
130.1175782603
 20
123.6091685385
 11
116.1414934413
 21
123.6091685385
  0
LINE
  5
67D
100
AcDbEntity
  8
28414000
100
AcDbLine
 62
7
  6
CONTINUOUS
 10
106.0488601962
 20
125.7387980136
 11
105.4697626641
 21
125.7996636168
  0
LINE
  5
67E
100
AcDbEntity
  8
290140000
100
AcDbLine
 62
253
  6
CONTINUOUS
 10
98.5090923972
 20
126.6192894337
 11
99.0852469597
 21
126.5185151449
  0
LWPOLYLINE
  5
67F
100
AcDbEntity
  8
290140000
100
AcDbPolyline
 62
253
  6
CONTINUOUS
 90
4
 70
0
 10
98.3110419047
 20
126.6544563673
 10
98.3152471562
 20
126.6536238009
 10
98.3278515971
 20
126.6513279318
 10
98.5090923972
 20
126.6192894337
  0
LWPOLYLINE
  5
680
100
AcDbEntity
  8
21814000
100
AcDbPolyline
 62
7
  6
CONTINUOUS
 90
7
 70
0
 10
129.3883491425
 20
118.9346591563
 10
129.3581634384
 20
118.9438607465
 10
129.3297144349
 20
118.9550283072
 10
129.3030021319
 20
118.9681618383
 10
129.2780265294
 20
118.9832613399
 10
129.2547876275
 20
119.0003268119
 10
129.233285426
 20
119.0193582544
  0
LINE
  5
681
100
AcDbEntity
  8
21814000
100
AcDbLine
 62
253
  6
CONTINUOUS
 10
127.1179742227
 20
119.2572086633
 11
128.4175782603
 21
118.6868746633
  0
LWPOLYLINE
  5
682
100
AcDbEntity
  8
21814000
100
AcDbPolyline
 62
253
  6
CONTINUOUS
 90
38
 70
0
 10
130.1134262916
 20
108.9193643016
 10
130.1174140643
 20
108.9080573667
 10
130.1238890009
 20
108.8903760719
 10
130.1303886295
 20
108.8733104727
 10
130.136877947
 20
108.8568331286
 10
130.1433496968
 20
108.8409547954
 10
130.1498111353
 20
108.8256647175
 10
130.1562490291
 20
108.810903187
 10
130.1626505741
 20
108.7966875913
 10
130.1690285743
 20
108.7830005431
 10
130.1754082084
 20
108.7697301734
 10
130.1817823377
 20
108.7568761671
 10
130.1881581008
 20
108.7444388392
 10
130.1945820923
 20
108.7323072664
 10
130.2010472014
 20
108.7204776649
 10
130.2075605389
 20
108.7089538183
 10
130.2141900317
 20
108.6976361538
 10
130.2209350183
 20
108.686506958
 10
130.2277961603
 20
108.6755839442
 10
130.2348433697
 20
108.6648206793
 10
130.2421019783
 20
108.6541685382
 10
130.2495466543
 20
108.643676146
 10
130.2571713146
 20
108.6334429453
 10
130.2650544232
 20
108.6233951751
 10
130.2731175161
 20
108.6136065964
 10
130.2811191184
 20
108.6043979342
 10
130.2889592898
 20
108.5959025634
 10
130.2967379707
 20
108.5879871091
 10
130.3045135071
 20
108.5805721723
 10
130.3122011373
 20
108.5736863741
 10
130.3198856229
 20
108.5673010934
 10
130.3278795959
 20
108.561251067
 10
130.3362752669
 20
108.555416043
 10
130.3449804252
 20
108.5499162734
 10
130.3540310696
 20
108.5449472505
 10
130.3634391998
 20
108.5405741384
 10
130.3731928161
 20
108.5367317731
 10
130.3832919186
 20
108.5334201545
  0
LINE
  5
683
100
AcDbEntity
  8
21814000
100
AcDbLine
 62
7
  6
CONTINUOUS
 10
132.4175782603
 20
120.6614375005
 11
132.4175782603
 21
115.41375392
  0
LINE
  5
684
100
AcDbEntity
  8
21814000
100
AcDbLine
 62
7
  6
CONTINUOUS
 10
132.4175782603
 20
110.2614374978
 11
132.4175782603
 21
105.0137539233
  0
LWPOLYLINE
  5
685
100
AcDbEntity
  8
21814000
100
AcDbPolyline
 62
253
  6
CONTINUOUS
 90
22
 70
0
 10
132.1193061189
 20
91.9375960338
 10
132.1139715466
 20
91.7859391302
 10
132.0986185156
 20
91.6363697945
 10
132.073247026
 20
91.4888880266
 10
132.0376466012
 20
91.3428327632
 10
131.9920277178
 20
91.1988650677
 10
131.937021805
 20
91.0589681301
 10
131.8724966797
 20
90.9231941707
 10
131.7985845251
 20
90.7914909692
 10
131.7163133207
 20
90.6656850552
 10
131.6255726081
 20
90.5458640883
 10
131.5264728458
 20
90.4319404089
 10
131.420373388
 20
90.3254775673
 10
131.3071599728
 20
90.2265685591
 10
131.1869468622
 20
90.1351203887
 10
131.061436197
 20
90.0524176206
 10
130.9305851902
 20
89.978597873
 10
130.7944366288
 20
89.9135235276
 10
130.6548210146
 20
89.8580662932
 10
130.5123485149
 20
89.8125167395
 10
130.3664089625
 20
89.7765842969
 10
130.2170023574
 20
89.7502689653
  0
LINE
  5
686
100
AcDbEntity
  8
21814000
100
AcDbLine
 62
253
  6
CONTINUOUS
 10
130.1120314711
 20
87.6744823211
 11
130.1011779638
 21
87.624091142
  0
LINE
  5
687
100
AcDbEntity
  8
21814000
100
AcDbLine
 62
253
  6
CONTINUOUS
 10
128.0431601457
 20
91.6090242126
 11
127.4861021386
 21
90.9590242126
  0
LINE
  5
688
100
AcDbEntity
  8
21814000
100
AcDbLine
 62
253
  6
CONTINUOUS
 10
127.1147301597
 20
91.516167114
 11
127.2075731931
 21
91.6090242126
  0
LINE
  5
689
100
AcDbEntity
  8
21814000
100
AcDbLine
 62
253
  6
CONTINUOUS
 10
127.1147301597
 20
89.9375956633
 11
128.4145321634
 21
90.5875956633
  0
LINE
  5
68A
100
AcDbEntity
  8
DRAFT
100
AcDbLine
 62
7
  6
CONTINUOUS
 10
108.4175782603
 20
126.8375956633
 11
118.4175782603
 21
126.8375956633
  0
LINE
  5
68B
100
AcDbEntity
  8
21814000
100
AcDbLine
 62
253
  6
CONTINUOUS
 10
129.233285426
 20
124.7664622624
 11
118.4170614325
 21
124.8999625321
  0
LINE
  5
68C
100
AcDbEntity
  8
21814000
100
AcDbLine
 62
7
  6
CONTINUOUS
 10
129.233285426
 20
125.3597859613
 11
118.4175782603
 21
125.5485748321
  0
LINE
  5
68D
100
AcDbEntity
  8
290140000
100
AcDbLine
 62
253
  6
CONTINUOUS
 10
99.8358537141
 20
127.0956226327
 11
105.5533981709
 21
126.5954023095
  0
LINE
  5
68E
100
AcDbEntity
  8
290140000
100
AcDbLine
 62
7
  6
CONTINUOUS
 10
99.9194637486
 20
127.8911189726
 11
105.6370082054
 21
127.3908986494
  0
LINE
  5
68F
100
AcDbEntity
  8
DRAFT
100
AcDbLine
 62
7
  6
CONTINUOUS
 10
105.4175782603
 20
127.8424056279
 11
106.0675782603
 21
127.7625956633
  0
LINE
  5
690
100
AcDbEntity
  8
26814000
100
AcDbLine
 62
7
  6
CONTINUOUS
 10
104.9175782603
 20
127.9375956633
 11
105.4180531614
 21
127.8761450723
  0
LWPOLYLINE
  5
691
100
AcDbEntity
  8
RACCORDO
100
AcDbPolyline
 62
253
  6
CONTINUOUS
 90
13
 70
0
 10
107.2785529301
 20
127.8646718931
 10
107.3199906568
 20
127.8579551674
 10
107.3351587497
 20
127.8554659722
 10
107.3511031362
 20
127.8529492062
 10
107.3678557228
 20
127.8503828703
 10
107.385384603
 20
127.8477889636
 10
107.4036966086
 20
127.8453249347
 10
107.4227710628
 20
127.8429762156
 10
107.4426286422
 20
127.8407573743
 10
107.463338209
 20
127.8388695637
 10
107.4849227169
 20
127.8373798345
 10
107.5073592121
 20
127.836221136
 10
107.5306476945
 20
127.8353934681
  0
LINE
  5
692
100
AcDbEntity
  8
21814000
100
AcDbLine
 62
253
  6
CONTINUOUS
 10
127.9146964779
 20
121.4611996633
 11
127.1179742227
 21
121.9369386633
  0
LWPOLYLINE
  5
693
100
AcDbEntity
  8
21814000
100
AcDbPolyline
 62
253
  6
CONTINUOUS
 90
4
 70
0
 10
130.2170014071
 20
89.7502663398
 10
130.2034016984
 20
89.7083664851
 10
130.1902634759
 20
89.6692861475
 10
130.1662131821
 20
89.5991038385
  0
LWPOLYLINE
  5
694
100
AcDbEntity
  8
21814000
100
AcDbPolyline
 62
253
  6
CONTINUOUS
 90
4
 70
0
 10
130.1011779638
 20
87.624091142
 10
130.084655329
 20
87.5744742074
 10
130.0625690236
 20
87.5259499333
 10
130.0350598937
 20
87.478829275
  0
LWPOLYLINE
  5
695
100
AcDbEntity
  8
21814000
100
AcDbPolyline
 62
253
  6
CONTINUOUS
 90
9
 70
0
 10
130.1662131821
 20
89.5991038385
 10
130.1556230649
 20
89.5676972634
 10
130.1460751089
 20
89.5385947172
 10
130.1376756171
 20
89.5117400878
 10
130.1305925521
 20
89.4868159827
 10
130.1249660327
 20
89.4633883796
 10
130.1208874327
 20
89.4413396258
 10
130.1184125364
 20
89.4207878888
 10
130.1175827605
 20
89.4017658599
  0
LINE
  5
696
100
AcDbEntity
  8
21814000
100
AcDbLine
 62
253
  6
CONTINUOUS
 10
128.321689159
 20
90.9590242126
 11
128.4145321634
 21
91.0518813886
  0
LWPOLYLINE
  5
697
100
AcDbEntity
  8
RACCORDO
100
AcDbPolyline
 62
253
  6
CONTINUOUS
 90
14
 70
0
 10
105.9705391794
 20
127.8855161862
 10
106.0050795209
 20
127.8906653644
 10
106.0206040813
 20
127.8928386702
 10
106.0350138622
 20
127.8947773995
 10
106.0486730195
 20
127.8964721948
 10
106.0616227895
 20
127.8979101945
 10
106.0738219361
 20
127.8991042601
 10
106.0855109069
 20
127.9000836192
 10
106.0966935392
 20
127.90084697
 10
106.1073659958
 20
127.9013956143
 10
106.1177572131
 20
127.9017626841
 10
106.1279435031
 20
127.9019592236
 10
106.1378485537
 20
127.9019741886
 10
106.147472365
 20
127.9018075793
  0
LWPOLYLINE
  5
698
100
AcDbEntity
  8
RACCORDO
100
AcDbPolyline
 62
253
  6
CONTINUOUS
 90
8
 70
0
 10
105.870265392
 20
128.3693255538
 10
105.9053708027
 20
128.3705481608
 10
105.9235616305
 20
128.3710738294
 10
105.9421776606
 20
128.3715290872
 10
105.9610099029
 20
128.3719088953
 10
105.9799156262
 20
128.3722097912
 10
105.9989124494
 20
128.3724293796
 10
106.0178852205
 20
128.372568563
  0
LINE
  5
699
100
AcDbEntity
  8
RACCORDO
100
AcDbLine
 62
7
  6
CONTINUOUS
 10
108.4175782603
 20
127.3375956633
 11
118.3550128127
 21
127.5110542286
  0
LINE
  5
69A
100
AcDbEntity
  8
26814000
100
AcDbLine
 62
253
  6
CONTINUOUS
 10
118.3167405789
 20
127.5982998483
 11
118.3334119354
 21
127.5985908479
  0
LINE
  5
69B
100
AcDbEntity
  8
26814000
100
AcDbLine
 62
253
  6
CONTINUOUS
 10
105.4175782603
 20
127.9701286002
 11
104.9175782603
 21
127.9657651664
  0
LINE
  5
69C
100
AcDbEntity
  8
26814000
100
AcDbLine
 62
7
  6
CONTINUOUS
 10
105.4175782603
 20
128.3201419277
 11
104.9175782603
 21
128.3157784938
  0
LINE
  5
69D
100
AcDbEntity
  8
RACCORDO
100
AcDbLine
 62
253
  6
CONTINUOUS
 10
106.0178852205
 20
128.372568563
 11
106.0555476249
 21
128.37264143
  0
LINE
  5
69E
100
AcDbEntity
  8
RACCORDO
100
AcDbLine
 62
253
  6
CONTINUOUS
 10
106.1675782603
 20
128.9159078268
 11
105.9175782603
 21
128.9159078268
  0
LINE
  5
69F
100
AcDbEntity
  8
RACCORDO
100
AcDbLine
 62
253
  6
CONTINUOUS
 10
107.1675782603
 20
128.9159078268
 11
107.4175782603
 21
128.9159078268
  0
LWPOLYLINE
  5
6A0
100
AcDbEntity
  8
RACCORDO
100
AcDbPolyline
 62
253
  6
CONTINUOUS
 90
11
 70
0
 10
105.745254042
 20
127.8665622171
 10
105.7688797996
 20
127.8665214697
 10
105.7924715836
 20
127.8670019842
 10
105.8160293939
 20
127.8680037607
 10
105.8397461861
 20
127.8696087834
 10
105.8634290047
 20
127.871735068
 10
105.8864989827
 20
127.8741366619
 10
105.9089784218
 20
127.8768490047
 10
105.9308450203
 20
127.8798366568
 10
105.9514530067
 20
127.882747346
 10
105.9705391794
 20
127.8855161862
  0
LINE
  5
6A1
100
AcDbEntity
  8
RACCORDO
100
AcDbLine
 62
253
  6
CONTINUOUS
 10
106.0555476249
 20
128.37264143
 11
106.0927129075
 21
128.3724828224
  0
LINE
  5
6A2
100
AcDbEntity
  8
26814000
100
AcDbLine
 62
253
  6
CONTINUOUS
 10
117.4466111508
 20
128.16219423
 11
117.8354368215
 21
128.1588009998
  0
LINE
  5
6A3
100
AcDbEntity
  8
26814000
100
AcDbLine
 62
7
  6
CONTINUOUS
 10
115.4175782603
 20
128.2677807209
 11
117.4263047957
 21
128.25025083
  0
LWPOLYLINE
  5
6A4
100
AcDbEntity
  8
RACCORDO
100
AcDbPolyline
 62
253
  6
CONTINUOUS
 90
7
 70
0
 10
105.7627629457
 20
128.3664889074
 10
105.7732904995
 20
128.3663880473
 10
105.7844369135
 20
128.3664492788
 10
105.7962999018
 20
128.3666636611
 10
105.8091003509
 20
128.3670168996
 10
105.822926994
 20
128.3674891872
 10
105.870265392
 20
128.3693255538
  0
LINE
  5
6A5
100
AcDbEntity
  8
RACCORDO
100
AcDbLine
 62
253
  6
CONTINUOUS
 10
106.0927129075
 20
128.3724828224
 11
106.1290992287
 21
128.3721060078
  0
LINE
  5
6A6
100
AcDbEntity
  8
RACCORDO
100
AcDbLine
 62
253
  6
CONTINUOUS
 10
106.1290992287
 20
128.3721060078
 11
106.1642985034
 21
128.3715487661
  0
LINE
  5
6A7
100
AcDbEntity
  8
RACCORDO
100
AcDbLine
 62
253
  6
CONTINUOUS
 10
107.5306476945
 20
127.8353934681
 11
108.4175782603
 21
127.8199121179
  0
LINE
  5
6A8
100
AcDbEntity
  8
RACCORDO
100
AcDbLine
 62
253
  6
CONTINUOUS
 10
105.4175782603
 20
127.8722773127
 11
105.745254042
 21
127.8665622171
  0
LINE
  5
6A9
100
AcDbEntity
  8
RACCORDO
100
AcDbLine
 62
7
  6
CONTINUOUS
 10
105.4175782603
 20
128.3725057931
 11
105.7627391762
 21
128.3664809869
  0
LINE
  5
6AA
100
AcDbEntity
  8
RACCORDO
100
AcDbLine
 62
7
  6
CONTINUOUS
 10
107.5480993886
 20
128.3353174085
 11
117.4350306667
 21
128.1627403811
  0
LINE
  5
6AB
100
AcDbEntity
  8
RACCORDO
100
AcDbLine
 62
253
  6
CONTINUOUS
 10
106.1675782603
 20
128.55944496
 11
107.1675782603
 21
128.5419898951
  0
LINE
  5
6AC
100
AcDbEntity
  8
RACCORDO
100
AcDbLine
 62
253
  6
CONTINUOUS
 10
106.1642985283
 20
128.3715492391
 11
107.1922979606
 21
128.3517673651
  0
LWPOLYLINE
  5
6AD
100
AcDbEntity
  8
RACCORDO
100
AcDbPolyline
 62
253
  6
CONTINUOUS
 90
4
 70
0
 10
106.147472365
 20
127.9018075793
 10
106.258526958
 20
127.8991662727
 10
106.3695927252
 20
127.8965311169
 10
107.1471580761
 20
127.8782616121
  0
LINE
  5
6AE
100
AcDbEntity
  8
RACCORDO
100
AcDbLine
 62
253
  6
CONTINUOUS
 10
107.1922979606
 20
128.3517673651
 11
107.2216991561
 21
128.3510561149
  0
LWPOLYLINE
  5
6AF
100
AcDbEntity
  8
RACCORDO
100
AcDbPolyline
 62
253
  6
CONTINUOUS
 90
14
 70
0
 10
107.1471580761
 20
127.8782616121
 10
107.1553964246
 20
127.8780323758
 10
107.1638865386
 20
127.8776792849
 10
107.1726284181
 20
127.8772023392
 10
107.1815902622
 20
127.8766090565
 10
107.1908038719
 20
127.8758919192
 10
107.2003646504
 20
127.8750283737
 10
107.2102768992
 20
127.8740145008
 10
107.2205363169
 20
127.8728542198
 10
107.2312254016
 20
127.8715367361
 10
107.2423365274
 20
127.8700578454
 10
107.2538773203
 20
127.8684217519
 10
107.2659531569
 20
127.8666302729
 10
107.2785529301
 20
127.8646718931
  0
LINE
  5
6B0
100
AcDbEntity
  8
RACCORDO
100
AcDbLine
 62
253
  6
CONTINUOUS
 10
107.2216991561
 20
128.3510561149
 11
107.2521122266
 21
128.3501644583
  0
LINE
  5
6B1
100
AcDbEntity
  8
RACCORDO
100
AcDbLine
 62
253
  6
CONTINUOUS
 10
105.9175782603
 20
128.5672997393
 11
106.1675782603
 21
128.55944496
  0
LINE
  5
6B2
100
AcDbEntity
  8
RACCORDO
100
AcDbLine
 62
253
  6
CONTINUOUS
 10
107.1675782603
 20
128.5419898951
 11
107.4175782603
 21
128.5341351159
  0
LINE
  5
6B3
100
AcDbEntity
  8
RACCORDO
100
AcDbLine
 62
253
  6
CONTINUOUS
 10
107.2521122266
 20
128.3501644583
 11
107.283070197
 21
128.3491042335
  0
LINE
  5
6B4
100
AcDbEntity
  8
RACCORDO
100
AcDbLine
 62
253
  6
CONTINUOUS
 10
107.283070197
 20
128.3491042335
 11
107.3143556237
 21
128.3478711694
  0
LINE
  5
6B5
100
AcDbEntity
  8
RACCORDO
100
AcDbLine
 62
253
  6
CONTINUOUS
 10
107.3143556237
 20
128.3478711694
 11
107.3456369806
 21
128.3464678879
  0
LINE
  5
6B6
100
AcDbEntity
  8
RACCORDO
100
AcDbLine
 62
253
  6
CONTINUOUS
 10
107.3456369806
 20
128.3464678879
 11
107.3765127402
 21
128.3449079912
  0
LWPOLYLINE
  5
6B7
100
AcDbEntity
  8
RACCORDO
100
AcDbPolyline
 62
253
  6
CONTINUOUS
 90
5
 70
0
 10
107.5011987982
 20
128.3372469634
 10
107.5133573937
 20
128.3365866432
 10
107.5252182714
 20
128.3360262974
 10
107.5367895728
 20
128.3355953501
 10
107.5480992204
 20
128.3353166865
  0
LINE
  5
6B8
100
AcDbEntity
  8
RACCORDO
100
AcDbLine
 62
253
  6
CONTINUOUS
 10
107.3765127402
 20
128.3449079912
 11
107.4064658557
 21
128.3431828548
  0
LWPOLYLINE
  5
6B9
100
AcDbEntity
  8
RACCORDO
100
AcDbPolyline
 62
253
  6
CONTINUOUS
 90
3
 70
0
 10
107.4064658557
 20
128.3431828548
 10
107.4351097465
 20
128.3414143047
 10
107.4490086404
 20
128.3405199602
  0
LWPOLYLINE
  5
6BA
100
AcDbEntity
  8
RACCORDO
100
AcDbPolyline
 62
253
  6
CONTINUOUS
 90
3
 70
0
 10
107.4490086404
 20
128.3405199602
 10
107.4758553304
 20
128.3387928809
 10
107.5011987982
 20
128.3372469634
  0
LWPOLYLINE
  5
6BB
100
AcDbEntity
  8
21814000
100
AcDbPolyline
 62
253
  6
CONTINUOUS
 90
15
 70
0
 10
130.0350598937
 20
87.478829275
 10
130.0023041451
 20
87.4334152715
 10
129.9645127791
 20
87.3900009008
 10
129.9219287902
 20
87.3488651869
 10
129.8748250535
 20
87.3102716121
 10
129.823503829
 20
87.2744678277
 10
129.76829444
 20
87.2416835831
 10
129.7095511596
 20
87.2121292514
 10
129.6476509376
 20
87.1859944799
 10
129.5829909818
 20
87.1634469729
 10
129.5159862086
 20
87.1446314154
 10
129.447066581
 20
87.1296685452
 10
129.3766743496
 20
87.1186543773
 10
129.3052612142
 20
87.1116595887
 10
129.233285426
 20
87.1087290642
  0
LWPOLYLINE
  5
6BC
100
AcDbEntity
  8
21814000
100
AcDbPolyline
 62
253
  6
CONTINUOUS
 90
6
 70
0
 10
130.2170023574
 20
89.7502689653
 10
130.1892370519
 20
89.7227358554
 10
130.1631135237
 20
89.6950359698
 10
130.1386317727
 20
89.6671693086
 10
130.1155463609
 20
89.6392758235
 10
130.1134262916
 20
89.6365015878
  0
LINE
  5
6BD
100
AcDbEntity
  8
RACCORDO
100
AcDbLine
 62
7
  6
CONTINUOUS
 10
108.4175782603
 20
129.7375956633
 11
114.9175782603
 21
129.7375956633
  0
LINE
  5
6BE
100
AcDbEntity
  8
RACCORDO
100
AcDbLine
 62
253
  6
CONTINUOUS
 10
108.4175782603
 20
129.7819332306
 11
108.1675782603
 21
129.7819332306
  0
LINE
  5
6BF
100
AcDbEntity
  8
RACCORDO
100
AcDbLine
 62
253
  6
CONTINUOUS
 10
105.1675782603
 20
129.7819332306
 11
104.9175782603
 21
129.7819332306
  0
LINE
  5
6C0
100
AcDbEntity
  8
RACCORDO
100
AcDbLine
 62
253
  6
CONTINUOUS
 10
104.9175782603
 20
130.1875956633
 11
108.4175782603
 21
130.1875956633
  0
LINE
  5
6C1
100
AcDbEntity
  8
RACCORDO
100
AcDbLine
 62
7
  6
CONTINUOUS
 10
105.1675782603
 20
130.4375956633
 11
108.1675782603
 21
130.4375956633
  0
LINE
  5
6C2
100
AcDbEntity
  8
26814000
100
AcDbLine
 62
7
  6
CONTINUOUS
 10
115.1238547672
 20
129.6927618581
 11
115.4175782603
 21
129.6910530248
  0
LWPOLYLINE
  5
6C3
100
AcDbEntity
  8
21814000
100
AcDbPolyline
 62
253
  6
CONTINUOUS
 90
14
 70
0
 10
130.0350896956
 20
124.3963162867
 10
129.9996059128
 20
124.4451493953
 10
129.958301871
 20
124.4916382109
 10
129.9114849764
 20
124.5354367395
 10
129.859503665
 20
124.5762190095
 10
129.8027448088
 20
124.613681498
 10
129.7416308369
 20
124.6475453894
 10
129.6766165916
 20
124.6775586511
 10
129.6081859427
 20
124.7034979084
 10
129.536848187
 20
124.725170108
 10
129.4631342575
 20
124.7424139541
 10
129.3875927718
 20
124.7551011091
 10
129.3107859491
 20
124.7631371485
 10
129.233285426
 20
124.7664622638
  0
ARC
  5
6C4
100
AcDbEntity
  8
RACCORDO
100
AcDbCircle
 62
7
  6
CONTINUOUS
 10
167.3347895408
 20
130.1875956633
 40
0.25
100
AcDbArc
 50
90.0
 51
180.0
  0
ARC
  5
6C5
100
AcDbEntity
  8
RACCORDO
100
AcDbCircle
 62
7
  6
CONTINUOUS
 10
169.2347895408
 20
130.1875956633
 40
0.25
100
AcDbArc
 50
0.0
 51
90.0
  0
ARC
  5
6C6
100
AcDbEntity
  8
RACCORDO
100
AcDbCircle
 62
7
  6
CONTINUOUS
 10
188.1347895408
 20
130.1875956633
 40
0.25
100
AcDbArc
 50
0.0
 51
90.0
  0
ARC
  5
6C7
100
AcDbEntity
  8
RACCORDO
100
AcDbCircle
 62
7
  6
CONTINUOUS
 10
186.2347895408
 20
130.1875956633
 40
0.25
100
AcDbArc
 50
90.0
 51
180.0
  0
ARC
  5
6C8
100
AcDbEntity
  8
RACCORDO
100
AcDbCircle
 62
7
  6
CONTINUOUS
 10
169.2347895408
 20
81.6875956633
 40
0.25
100
AcDbArc
 50
270.0
 51
360.0
  0
ARC
  5
6C9
100
AcDbEntity
  8
RACCORDO
100
AcDbCircle
 62
7
  6
CONTINUOUS
 10
167.3347895408
 20
81.6875956633
 40
0.25
100
AcDbArc
 50
180.0
 51
270.0
  0
ARC
  5
6CA
100
AcDbEntity
  8
RACCORDO
100
AcDbCircle
 62
7
  6
CONTINUOUS
 10
186.2347895408
 20
81.6875956633
 40
0.25
100
AcDbArc
 50
180.0
 51
270.0
  0
ARC
  5
6CB
100
AcDbEntity
  8
RACCORDO
100
AcDbCircle
 62
7
  6
CONTINUOUS
 10
188.1347895408
 20
81.6875956633
 40
0.25
100
AcDbArc
 50
270.0
 51
360.0
  0
ARC
  5
6CC
100
AcDbEntity
  8
290140000
100
AcDbCircle
 62
7
  6
CONTINUOUS
 10
95.55531433
 20
86.1185660757
 40
1.5
100
AcDbArc
 50
177.8898991621
 51
263.0
  0
ARC
  5
6CD
100
AcDbEntity
  8
28414000
100
AcDbCircle
 62
7
  6
CONTINUOUS
 10
101.7467438535
 20
85.5941196659
 40
1.0
100
AcDbArc
 50
354.0
 51
76.5
  0
ARC
  5
6CE
100
AcDbEntity
  8
RACCORDO
100
AcDbCircle
 62
253
  6
CONTINUOUS
 10
105.6675782603
 20
82.9592834998
 40
0.5
100
AcDbArc
 50
300.0
 51
360.0
  0
ARC
  5
6CF
100
AcDbEntity
  8
RACCORDO
100
AcDbCircle
 62
253
  6
CONTINUOUS
 10
107.6675782603
 20
82.9592834998
 40
0.5
100
AcDbArc
 50
180.0
 51
240.0
  0
ARC
  5
6D0
100
AcDbEntity
  8
RACCORDO
100
AcDbCircle
 62
7
  6
CONTINUOUS
 10
101.7175782603
 20
87.9135708941
 40
0.3
100
AcDbArc
 50
214.2402507219
 51
269.0
  0
ARC
  5
6D1
100
AcDbEntity
  8
26814000
100
AcDbCircle
 62
7
  6
CONTINUOUS
 10
105.1675782603
 20
82.093258096
 40
0.25
100
AcDbArc
 50
126.345781153
 51
173.5402060087
  0
ARC
  5
6D2
100
AcDbEntity
  8
26814000
100
AcDbCircle
 62
7
  6
CONTINUOUS
 10
108.1675782603
 20
82.093258096
 40
0.25
100
AcDbArc
 50
6.3457783674
 51
10.2164646089
  0
ARC
  5
6D3
100
AcDbEntity
  8
RACCORDO
100
AcDbCircle
 62
7
  6
CONTINUOUS
 10
105.6675782603
 20
82.9592834998
 40
0.25
100
AcDbArc
 50
300.0
 51
360.0
  0
ARC
  5
6D4
100
AcDbEntity
  8
RACCORDO
100
AcDbCircle
 62
7
  6
CONTINUOUS
 10
105.1675782603
 20
81.6875956633
 40
0.25
100
AcDbArc
 50
180.0
 51
270.0
  0
ARC
  5
6D5
100
AcDbEntity
  8
RACCORDO
100
AcDbCircle
 62
7
  6
CONTINUOUS
 10
105.1675782603
 20
82.093258096
 40
0.25
100
AcDbArc
 50
120.0
 51
180.0
  0
ARC
  5
6D6
100
AcDbEntity
  8
RACCORDO
100
AcDbCircle
 62
7
  6
CONTINUOUS
 10
108.1675782603
 20
81.6875956633
 40
0.25
100
AcDbArc
 50
270.0
 51
360.0
  0
ARC
  5
6D7
100
AcDbEntity
  8
RACCORDO
100
AcDbCircle
 62
7
  6
CONTINUOUS
 10
107.6675782603
 20
82.9592834998
 40
0.25
100
AcDbArc
 50
180.0
 51
240.0
  0
ARC
  5
6D8
100
AcDbEntity
  8
RACCORDO
100
AcDbCircle
 62
7
  6
CONTINUOUS
 10
108.1675782603
 20
82.093258096
 40
0.25
100
AcDbArc
 50
0.0
 51
60.0
  0
ARC
  5
6D9
100
AcDbEntity
  8
RACCORDO
100
AcDbCircle
 62
7
  6
CONTINUOUS
 10
107.6175754647
 20
83.3410561618
 40
0.1999987575
100
AcDbArc
 50
90.9991990116
 51
179.9999860206
  0
ARC
  5
6DA
100
AcDbEntity
  8
RACCORDO
100
AcDbCircle
 62
7
  6
CONTINUOUS
 10
105.7175810558
 20
83.3078916361
 40
0.1999987575
100
AcDbArc
 50
359.9999860207
 51
91.0
  0
ARC
  5
6DB
100
AcDbEntity
  8
26814000
100
AcDbCircle
 62
7
  6
CONTINUOUS
 10
117.4175782603
 20
84.6249024196
 40
1.0
100
AcDbArc
 50
270.5
 51
360.0
  0
ARC
  5
6DC
100
AcDbEntity
  8
RACCORDO
100
AcDbCircle
 62
7
  6
CONTINUOUS
 10
117.4175782603
 20
84.7122986406
 40
1.0
100
AcDbArc
 50
271.0
 51
360.0
  0
ARC
  5
6DD
100
AcDbEntity
  8
21814000
100
AcDbCircle
 62
7
  6
CONTINUOUS
 10
129.2175782603
 20
87.4152682909
 40
0.9
100
AcDbArc
 50
271.0
 51
360.0
  0
ARC
  5
6DE
100
AcDbEntity
  8
RACCORDO
100
AcDbCircle
 62
7
  6
CONTINUOUS
 10
114.9175782603
 20
82.6375956633
 40
0.5
100
AcDbArc
 50
270.0
 51
360.0
  0
ARC
  5
6DF
100
AcDbEntity
  8
21814000
100
AcDbCircle
 62
7
  6
CONTINUOUS
 10
129.9088826081
 20
91.9375956633
 40
2.5086956522
100
AcDbArc
 50
276.7959242607
 51
83.2040757388
  0
ARC
  5
6E0
100
AcDbEntity
  8
21814000
100
AcDbCircle
 62
7
  6
CONTINUOUS
 10
130.2175782603
 20
94.5279624327
 40
0.1
100
AcDbArc
 50
189.2473775885
 51
263.2031754299
  0
ARC
  5
6E1
100
AcDbEntity
  8
21814000
100
AcDbCircle
 62
7
  6
CONTINUOUS
 10
130.2175782603
 20
89.3472490688
 40
0.0999982373
100
AcDbArc
 50
96.7981887064
 51
179.0542651601
  0
ARC
  5
6E2
100
AcDbEntity
  8
290140000
100
AcDbCircle
 62
7
  6
CONTINUOUS
 10
99.7887301344
 20
126.3968269254
 40
1.5
100
AcDbArc
 50
85.0
 51
170.1101008379
  0
ARC
  5
6E3
100
AcDbEntity
  8
RACCORDO
100
AcDbCircle
 62
7
  6
CONTINUOUS
 10
114.9175782603
 20
129.2375956633
 40
0.5
100
AcDbArc
 50
0.0
 51
90.0
  0
ARC
  5
6E4
100
AcDbEntity
  8
RACCORDO
100
AcDbCircle
 62
253
  6
CONTINUOUS
 10
107.6675782603
 20
128.9159078268
 40
0.5
100
AcDbArc
 50
120.0
 51
180.0
  0
ARC
  5
6E5
100
AcDbEntity
  8
RACCORDO
100
AcDbCircle
 62
253
  6
CONTINUOUS
 10
105.6675782603
 20
128.9159078268
 40
0.5
100
AcDbArc
 50
0.0
 51
60.0
  0
ARC
  5
6E6
100
AcDbEntity
  8
26814000
100
AcDbCircle
 62
7
  6
CONTINUOUS
 10
105.1675782603
 20
129.7819332306
 40
0.25
100
AcDbArc
 50
186.3457783674
 51
233.5402055509
  0
ARC
  5
6E7
100
AcDbEntity
  8
26814000
100
AcDbCircle
 62
7
  6
CONTINUOUS
 10
108.1675782603
 20
129.7819332306
 40
0.25
100
AcDbArc
 50
349.7835353911
 51
357.1340324625
  0
ARC
  5
6E8
100
AcDbEntity
  8
RACCORDO
100
AcDbCircle
 62
7
  6
CONTINUOUS
 10
105.6675782603
 20
128.9159078268
 40
0.25
100
AcDbArc
 50
0.0
 51
60.0
  0
ARC
  5
6E9
100
AcDbEntity
  8
RACCORDO
100
AcDbCircle
 62
7
  6
CONTINUOUS
 10
105.1675782603
 20
129.7819332306
 40
0.25
100
AcDbArc
 50
180.0
 51
240.0
  0
ARC
  5
6EA
100
AcDbEntity
  8
RACCORDO
100
AcDbCircle
 62
7
  6
CONTINUOUS
 10
108.1675782603
 20
129.7819332306
 40
0.25
100
AcDbArc
 50
300.0
 51
360.0
  0
ARC
  5
6EB
100
AcDbEntity
  8
RACCORDO
100
AcDbCircle
 62
7
  6
CONTINUOUS
 10
107.6675782603
 20
128.9159078268
 40
0.25
100
AcDbArc
 50
120.0
 51
180.0
  0
ARC
  5
6EC
100
AcDbEntity
  8
RACCORDO
100
AcDbCircle
 62
7
  6
CONTINUOUS
 10
105.1675782603
 20
130.1875956633
 40
0.25
100
AcDbArc
 50
90.0
 51
180.0
  0
ARC
  5
6ED
100
AcDbEntity
  8
RACCORDO
100
AcDbCircle
 62
7
  6
CONTINUOUS
 10
108.1675782603
 20
130.1875956633
 40
0.25
100
AcDbArc
 50
0.0
 51
90.0
  0
ARC
  5
6EE
100
AcDbEntity
  8
RACCORDO
100
AcDbCircle
 62
7
  6
CONTINUOUS
 10
105.7175810558
 20
128.5672996905
 40
0.1999987575
100
AcDbArc
 50
268.9991990114
 51
0.0000139793
  0
ARC
  5
6EF
100
AcDbEntity
  8
RACCORDO
100
AcDbCircle
 62
7
  6
CONTINUOUS
 10
107.6175754647
 20
128.5341351647
 40
0.1999987575
100
AcDbArc
 50
180.0000139794
 51
269.0
  0
ARC
  5
6F0
100
AcDbEntity
  8
21814000
100
AcDbCircle
 62
7
  6
CONTINUOUS
 10
132.1175782603
 20
110.261472385
 40
0.3
100
AcDbArc
 50
0.0
 51
85.0
  0
ARC
  5
6F1
100
AcDbEntity
  8
21814000
100
AcDbCircle
 62
7
  6
CONTINUOUS
 10
132.1175782603
 20
105.0137189416
 40
0.3
100
AcDbArc
 50
275.0
 51
360.0
  0
ARC
  5
6F2
100
AcDbEntity
  8
21814000
100
AcDbCircle
 62
7
  6
CONTINUOUS
 10
132.1175782603
 20
115.4137189416
 40
0.3
100
AcDbArc
 50
275.0
 51
360.0
  0
ARC
  5
6F3
100
AcDbEntity
  8
21814000
100
AcDbCircle
 62
7
  6
CONTINUOUS
 10
130.4175782603
 20
114.6626963111
 40
0.3
100
AcDbArc
 50
95.0
 51
180.0
  0
ARC
  5
6F4
100
AcDbEntity
  8
21814000
100
AcDbCircle
 62
7
  6
CONTINUOUS
 10
130.4175782603
 20
111.0124950155
 40
0.3
100
AcDbArc
 50
180.0
 51
265.0
  0
ARC
  5
6F5
100
AcDbEntity
  8
21814000
100
AcDbCircle
 62
7
  6
CONTINUOUS
 10
130.4175782603
 20
104.2626963111
 40
0.3
100
AcDbArc
 50
95.0
 51
180.0
  0
ARC
  5
6F6
100
AcDbEntity
  8
26814000
100
AcDbCircle
 62
7
  6
CONTINUOUS
 10
117.4175782603
 20
127.250288907
 40
1.0
100
AcDbArc
 50
0.0
 51
89.5
  0
ARC
  5
6F7
100
AcDbEntity
  8
RACCORDO
100
AcDbCircle
 62
7
  6
CONTINUOUS
 10
117.4175782603
 20
127.1628926859
 40
1.0
100
AcDbArc
 50
0.0
 51
89.0
  0
ARC
  5
6F8
100
AcDbEntity
  8
21814000
100
AcDbCircle
 62
7
  6
CONTINUOUS
 10
129.2175782603
 20
124.4599230357
 40
0.9
100
AcDbArc
 50
0.0
 51
89.0
  0
ARC
  5
6F9
100
AcDbEntity
  8
21814000
100
AcDbCircle
 62
7
  6
CONTINUOUS
 10
132.1175782603
 20
120.661472385
 40
0.3
100
AcDbArc
 50
0.0
 51
85.0
  0
ARC
  5
6FA
100
AcDbEntity
  8
21814000
100
AcDbCircle
 62
7
  6
CONTINUOUS
 10
130.4175782603
 20
121.4124950155
 40
0.3
100
AcDbArc
 50
180.0
 51
265.0
  0
ARC
  5
6FB
100
AcDbEntity
  8
290140000
100
AcDbCircle
 62
7
  6
CONTINUOUS
 10
393.85290692
 20
75.1278311151
 40
300.0
100
AcDbArc
 50
170.1101008379
 51
177.8898991621
  0
ELLIPSE
  5
6FC
100
AcDbEntity
  8
26814000
100
AcDbEllipse
 62
7
  6
CONTINUOUS
 10
144.4347895408
 20
83.9094261602
 30
0.0
 11
0.0
 21
0.3500133274
 31
0.0
 40
0.9999619231
 41
7.853981634
 42
9.4247779608
  0
ELLIPSE
  5
6FD
100
AcDbEntity
  8
26814000
100
AcDbEllipse
 62
7
  6
CONTINUOUS
 10
166.0347895408
 20
127.9657651664
 30
0.0
 11
-0.0
 21
-0.3500133274
 31
0.0
 40
0.9999619231
 41
7.853981634
 42
9.4247779608
  0
ELLIPSE
  5
6FE
100
AcDbEntity
  8
26814000
100
AcDbEllipse
 62
7
  6
CONTINUOUS
 10
144.4347895408
 20
127.9657651664
 30
0.0
 11
0.0
 21
0.3500133274
 31
0.0
 40
0.9999619231
 41
-0.0
 42
1.5707963268
  0
ELLIPSE
  5
6FF
100
AcDbEntity
  8
26814000
100
AcDbEllipse
 62
7
  6
CONTINUOUS
 10
166.0347895408
 20
83.9094261602
 30
0.0
 11
-0.0
 21
-0.3500133274
 31
0.0
 40
0.9999619231
 41
-0.0
 42
1.5707963268
  0
ELLIPSE
  5
700
100
AcDbEntity
  8
26814000
100
AcDbEllipse
 62
7
  6
CONTINUOUS
 10
165.8216994237
 20
82.093258096
 30
0.0
 11
0.0
 21
0.25
 31
0.0
 40
0.0058178298
 41
0.5235987756
 42
1.5707963268
  0
ELLIPSE
  5
701
100
AcDbEntity
  8
26814000
100
AcDbEllipse
 62
7
  6
CONTINUOUS
 10
163.5478796579
 20
82.093258096
 30
0.0
 11
0.0
 21
0.25
 31
0.0
 40
0.0058178298
 41
-1.5707963268
 42
-0.5235987756
  0
ELLIPSE
  5
702
100
AcDbEntity
  8
26814000
100
AcDbEllipse
 62
7
  6
CONTINUOUS
 10
163.5478796579
 20
81.8006900112
 30
0.0
 11
0.0
 21
0.25
 31
0.0
 40
0.0058178298
 41
-3.1357748894
 42
-1.5707963268
  0
ELLIPSE
  5
703
100
AcDbEntity
  8
26814000
100
AcDbEllipse
 62
7
  6
CONTINUOUS
 10
165.8216994237
 20
81.8006900112
 30
0.0
 11
0.0
 21
0.25
 31
0.0
 40
0.0058178298
 41
-4.7123889804
 42
-3.1474104178
  0
ELLIPSE
  5
704
100
AcDbEntity
  8
26814000
100
AcDbEllipse
 62
7
  6
CONTINUOUS
 10
146.9216994237
 20
82.093258096
 30
0.0
 11
0.0
 21
0.25
 31
0.0
 40
0.0058178298
 41
0.5235987756
 42
1.5707963268
  0
ELLIPSE
  5
705
100
AcDbEntity
  8
26814000
100
AcDbEllipse
 62
7
  6
CONTINUOUS
 10
144.6478796579
 20
82.093258096
 30
0.0
 11
0.0
 21
0.25
 31
0.0
 40
0.0058178298
 41
-1.5707963268
 42
-0.5235987756
  0
ELLIPSE
  5
706
100
AcDbEntity
  8
26814000
100
AcDbEllipse
 62
7
  6
CONTINUOUS
 10
144.6478796579
 20
81.8006900112
 30
0.0
 11
0.0
 21
0.25
 31
0.0
 40
0.0058178298
 41
-3.1357748894
 42
-1.5707963268
  0
ELLIPSE
  5
707
100
AcDbEntity
  8
26814000
100
AcDbEllipse
 62
7
  6
CONTINUOUS
 10
146.9216994237
 20
81.8006900112
 30
0.0
 11
0.0
 21
0.25
 31
0.0
 40
0.0058178298
 41
-4.7123889804
 42
-3.1474104178
  0
ELLIPSE
  5
708
100
AcDbEntity
  8
26814000
100
AcDbEllipse
 62
7
  6
CONTINUOUS
 10
144.6478796579
 20
129.7819332306
 30
0.0
 11
-0.0
 21
0.25
 31
0.0
 40
0.0058178298
 41
-2.617993878
 42
-1.5707963268
  0
ELLIPSE
  5
709
100
AcDbEntity
  8
26814000
100
AcDbEllipse
 62
7
  6
CONTINUOUS
 10
146.9216994237
 20
129.7819332306
 30
0.0
 11
0.0
 21
0.25
 31
0.0
 40
0.0058178298
 41
-4.7123889804
 42
-3.6651914292
  0
ELLIPSE
  5
70A
100
AcDbEntity
  8
26814000
100
AcDbEllipse
 62
7
  6
CONTINUOUS
 10
146.9216994237
 20
130.0745013153
 30
0.0
 11
-0.0
 21
0.25
 31
0.0
 40
0.0058178298
 41
0.0058177642
 42
1.5707963268
  0
ELLIPSE
  5
70B
100
AcDbEntity
  8
26814000
100
AcDbEllipse
 62
7
  6
CONTINUOUS
 10
144.6478796579
 20
130.0745013153
 30
0.0
 11
-0.0
 21
0.25
 31
0.0
 40
0.0058178298
 41
-1.5707963268
 42
-0.0058177642
  0
ELLIPSE
  5
70C
100
AcDbEntity
  8
26814000
100
AcDbEllipse
 62
7
  6
CONTINUOUS
 10
163.5478796579
 20
129.7819332306
 30
0.0
 11
0.0
 21
0.25
 31
0.0
 40
0.0058178298
 41
-2.617993878
 42
-1.5707963268
  0
ELLIPSE
  5
70D
100
AcDbEntity
  8
26814000
100
AcDbEllipse
 62
7
  6
CONTINUOUS
 10
165.8216994237
 20
129.7819332306
 30
0.0
 11
0.0
 21
0.25
 31
0.0
 40
0.0058178298
 41
-4.7123889804
 42
-3.6651914292
  0
ELLIPSE
  5
70E
100
AcDbEntity
  8
26814000
100
AcDbEllipse
 62
7
  6
CONTINUOUS
 10
165.8216994237
 20
130.0745013153
 30
0.0
 11
-0.0
 21
0.25
 31
0.0
 40
0.0058178298
 41
0.0058177642
 42
1.5707963268
  0
ELLIPSE
  5
70F
100
AcDbEntity
  8
26814000
100
AcDbEllipse
 62
7
  6
CONTINUOUS
 10
163.5478796579
 20
130.0745013153
 30
0.0
 11
-0.0
 21
0.25
 31
0.0
 40
0.0058178298
 41
-1.5707963268
 42
-0.0058177642
  0
ELLIPSE
  5
710
100
AcDbEntity
  8
26814000
100
AcDbEllipse
 62
7
  6
CONTINUOUS
 10
151.1388670987
 20
83.5437044707
 30
0.0
 11
0.3
 21
0.0
 31
0.0
 40
0.0087268678
 41
1.5707963268
 42
3.1357748894
  0
ELLIPSE
  5
711
100
AcDbEntity
  8
26814000
100
AcDbEllipse
 62
7
  6
CONTINUOUS
 10
151.1388670987
 20
82.1416681441
 30
0.0
 11
0.3
 21
0.0
 31
0.0
 40
0.0058178298
 41
1.5707963268
 42
3.1357748894
  0
ELLIPSE
  5
712
100
AcDbEntity
  8
26814000
100
AcDbEllipse
 62
7
  6
CONTINUOUS
 10
159.3307119829
 20
82.1416681441
 30
0.0
 11
0.3
 21
0.0
 31
0.0
 40
0.0058178298
 41
0.0058177642
 42
1.5707963268
  0
ELLIPSE
  5
713
100
AcDbEntity
  8
26814000
100
AcDbEllipse
 62
7
  6
CONTINUOUS
 10
159.3307119829
 20
83.5437044707
 30
0.0
 11
0.3
 21
-0.0
 31
0.0
 40
0.0087268678
 41
0.0058177642
 42
1.5707963268
  0
ELLIPSE
  5
714
100
AcDbEntity
  8
26814000
100
AcDbEllipse
 62
7
  6
CONTINUOUS
 10
151.1388670987
 20
129.7335231824
 30
0.0
 11
0.3
 21
0.0
 31
0.0
 40
0.0058178298
 41
-3.1357748894
 42
-1.5707963268
  0
ELLIPSE
  5
715
100
AcDbEntity
  8
26814000
100
AcDbEllipse
 62
7
  6
CONTINUOUS
 10
151.1388670987
 20
128.3314868558
 30
0.0
 11
0.3
 21
0.0
 31
0.0
 40
0.0087268678
 41
-3.1357748894
 42
-1.5707963268
  0
ELLIPSE
  5
716
100
AcDbEntity
  8
26814000
100
AcDbEllipse
 62
7
  6
CONTINUOUS
 10
159.3307119829
 20
128.3314868558
 30
0.0
 11
0.3
 21
0.0
 31
0.0
 40
0.0087268678
 41
-1.5707963268
 42
-0.0058177642
  0
ELLIPSE
  5
717
100
AcDbEntity
  8
26814000
100
AcDbEllipse
 62
7
  6
CONTINUOUS
 10
159.3307119829
 20
129.7335231824
 30
0.0
 11
0.3
 21
0.0
 31
0.0
 40
0.0058178298
 41
-1.5707963268
 42
-0.0058177642
  0
ELLIPSE
  5
718
100
AcDbEntity
  8
RACCORDO
100
AcDbEllipse
 62
7
  6
CONTINUOUS
 10
167.0848657048
 20
84.0551268922
 30
0.0
 11
-0.3536610946
 21
0.3536610946
 31
0.0
 40
0.9996954599
 41
1.0379229264
 42
1.2102374641
  0
ELLIPSE
  5
719
100
AcDbEntity
  8
RACCORDO
100
AcDbEllipse
 62
7
  6
CONTINUOUS
 10
188.3847133768
 20
127.8200644343
 30
0.0
 11
0.3536610946
 21
-0.3536610946
 31
0.0
 40
0.9996954599
 41
0.7852458701
 42
1.2102374641
  0
ELLIPSE
  5
71A
100
AcDbEntity
  8
RACCORDO
100
AcDbEllipse
 62
7
  6
CONTINUOUS
 10
167.0848657048
 20
127.8200644343
 30
0.0
 11
0.3536610946
 21
0.3536610946
 31
0.0
 40
0.9996954599
 41
1.9364067355
 42
2.2018537923
  0
ELLIPSE
  5
71B
100
AcDbEntity
  8
RACCORDO
100
AcDbEllipse
 62
7
  6
CONTINUOUS
 10
188.3847133768
 20
84.0551268922
 30
0.0
 11
0.3536610946
 21
0.3536610946
 31
0.0
 40
0.9996954599
 41
-1.2053429231
 42
-0.7852458701
  0
ELLIPSE
  5
71C
100
AcDbEntity
  8
RACCORDO
100
AcDbEllipse
 62
7
  6
CONTINUOUS
 10
188.3847133768
 20
84.0551268922
 30
0.0
 11
0.3536610946
 21
0.3536610946
 31
0.0
 40
0.9996954599
 41
-1.535543542
 42
-1.2434048153
  0
ELLIPSE
  5
71D
100
AcDbEntity
  8
RACCORDO
100
AcDbEllipse
 62
7
  6
CONTINUOUS
 10
188.332348182
 20
84.0027616974
 30
0.0
 11
-0.3536610946
 21
-0.3536610946
 31
0.0
 40
0.9996954599
 41
7.0684311773
 42
8.6395320906
  0
ELLIPSE
  5
71E
100
AcDbEntity
  8
RACCORDO
100
AcDbEllipse
 62
7
  6
CONTINUOUS
 10
167.1372308996
 20
127.8724296291
 30
0.0
 11
0.3536610946
 21
0.3536610946
 31
0.0
 40
0.9996954599
 41
7.0684311773
 42
8.5903989905
  0
ELLIPSE
  5
71F
100
AcDbEntity
  8
RACCORDO
100
AcDbEllipse
 62
7
  6
CONTINUOUS
 10
167.1372308996
 20
84.0027616974
 30
0.0
 11
0.3536610946
 21
-0.3536610946
 31
0.0
 40
0.9996954599
 41
-2.2105565043
 42
-0.7852458701
  0
ELLIPSE
  5
720
100
AcDbEntity
  8
RACCORDO
100
AcDbEllipse
 62
7
  6
CONTINUOUS
 10
188.332348182
 20
127.8724296291
 30
0.0
 11
-0.3536610946
 21
0.3536610946
 31
0.0
 40
0.9996954599
 41
-2.3563467834
 42
-0.7852458701
  0
ELLIPSE
  5
721
100
AcDbEntity
  8
290140000
100
AcDbEllipse
 62
7
  6
CONTINUOUS
 10
187.8346676784
 20
126.5951599382
 30
0.0
 11
0.7998183719
 21
0.0221571454
 31
0.0
 40
0.9945135036
 41
-0.0275437628
 42
0.1690180924
  0
ELLIPSE
  5
722
100
AcDbEntity
  8
290140000
100
AcDbEllipse
 62
7
  6
CONTINUOUS
 10
187.8346676784
 20
84.726030533
 30
0.0
 11
0.7998183719
 21
-0.0221571454
 31
0.0
 40
0.9945135036
 41
-1.5429479775
 42
0.0275437628
  0
ELLIPSE
  5
723
100
AcDbEntity
  8
290140000
100
AcDbEllipse
 62
7
  6
CONTINUOUS
 10
145.1349114033
 20
126.5951599382
 30
0.0
 11
0.7998183719
 21
-0.0221571454
 31
0.0
 40
0.9945135036
 41
2.9725745606
 42
3.1691364164
  0
ELLIPSE
  5
724
100
AcDbEntity
  8
290140000
100
AcDbEllipse
 62
7
  6
CONTINUOUS
 10
145.1349114033
 20
84.726030533
 30
0.0
 11
0.7998183719
 21
0.0221571454
 31
0.0
 40
0.9945135036
 41
3.1140488908
 42
4.6845406311
  0
ELLIPSE
  5
725
100
AcDbEntity
  8
21814000
100
AcDbEllipse
 62
253
  6
CONTINUOUS
 10
111.9074337097
 20
101.2568006633
 30
0.0
 11
0.0
 21
0.352865
 31
0.0
 40
0.9996954135
 41
-1.5707963268
 42
1.5707963268
  0
ELLIPSE
  5
726
100
AcDbEntity
  8
21814000
100
AcDbEllipse
 62
253
  6
CONTINUOUS
 10
121.9175782603
 20
110.4095126633
 30
0.0
 11
0.0
 21
0.983755
 31
0.0
 40
0.9996954135
 41
-4.7123889804
 42
-1.5707963268
  0
ELLIPSE
  5
727
100
AcDbEntity
  8
21814000
100
AcDbEllipse
 62
253
  6
CONTINUOUS
 10
121.9175782603
 20
111.2505336633
 30
0.0
 11
0.0
 21
0.983755
 31
0.0
 40
0.9996954135
 41
-4.7123889804
 42
-1.5707963268
  0
ELLIPSE
  5
728
100
AcDbEntity
  8
21814000
100
AcDbEllipse
 62
253
  6
CONTINUOUS
 10
121.9175782603
 20
112.0915536633
 30
0.0
 11
0.0
 21
0.983755
 31
0.0
 40
0.9996954135
 41
-4.7123889804
 42
-1.5707963268
  0
ELLIPSE
  5
729
100
AcDbEntity
  8
21814000
100
AcDbEllipse
 62
253
  6
CONTINUOUS
 10
122.6473932404
 20
97.2421936633
 30
0.0
 11
0.0
 21
0.201149
 31
0.0
 40
0.9996954135
 41
-1.5707963268
 42
0.0
  0
ELLIPSE
  5
72A
100
AcDbEntity
  8
21814000
100
AcDbEllipse
 62
253
  6
CONTINUOUS
 10
122.1877632801
 20
97.2421936633
 30
0.0
 11
-0.0
 21
0.201149
 31
0.0
 40
0.9996954135
 41
0.0
 42
1.5707963268
  0
ELLIPSE
  5
72B
100
AcDbEntity
  8
21814000
100
AcDbEllipse
 62
253
  6
CONTINUOUS
 10
122.9231712165
 20
99.9979406633
 30
0.0
 11
0.0
 21
0.436782
 31
0.0
 40
0.9996954135
 41
-1.5707963268
 42
0.7257970211
  0
ELLIPSE
  5
72C
100
AcDbEntity
  8
21814000
100
AcDbEllipse
 62
253
  6
CONTINUOUS
 10
127.7677762415
 20
112.2778386633
 30
0.0
 11
0.0
 21
0.65
 31
0.0
 40
0.9996954135
 41
-1.5707963268
 42
1.5707963268
  0
ENDSEC
  0
SECTION
  2
OBJECTS
  0
DICTIONARY
  5
C
100
AcDbDictionary
280
0
281
1
  3
ACAD_GROUP
350
D
  3
ACAD_MLINESTYLE
350
17
  3
ACAD_LAYOUT
350
1A
  3
ACAD_PLOTSETTINGS
350
19
  3
ACAD_PLOTSTYLENAME
350
E
  0
DICTIONARY
  5
D
102
{ACAD_REACTORS
330
C
102
}
100
AcDbDictionary
280
0
281
1
  0
ACDBDICTIONARYWDFLT
  5
E
102
{ACAD_REACTORS
330
C
102
}
100
AcDbDictionary
281
1
  3
Normal
350
F
100
AcDbDictionaryWithDefault
340
F
  0
DICTIONARY
  5
17
102
{ACAD_REACTORS
330
C
102
}
100
AcDbDictionary
280
0
281
1
  3
Standard
350
18
  0
DICTIONARY
  5
19
102
{ACAD_REACTORS
330
C
102
}
100
AcDbDictionary
281
1
  0
DICTIONARY
  5
1A
102
{ACAD_REACTORS
330
C
102
}
100
AcDbDictionary
281
1
  3
Model
350
72D
  3
Layout1
350
72E
  0
ACDBPLACEHOLDER
  5
F
102
{ACAD_REACTORS
330
E
102
}
  0
MLINESTYLE
  5
18
102
{ACAD_REACTORS
330
17
102
}
100
AcDbMlineStyle
  2
STANDARD
 70
0
  3

 62
256
 51
90.0
 52
90.0
 71
2
 49
0.5
 62
256
  6
BYLAYER
 49
-0.5
 62
256
  6
BYLAYER
  0
LAYOUT
  5
72D
102
{ACAD_REACTORS
330
1A
102
}
100
AcDbPlotSettings
  1

  2
none_device
  4
ISO_A4_(297.00_x_210.00_MM)
  6

 40
0.0
 41
0.0
 42
0.0
 43
0.0
 44
297.0
 45
210.0
 46
0.0
 47
0.0
 48
0.0
 49
0.0
140
0.0
141
0.0
142
1.0
143
1.0
 70
1024
 72
1
 73
0
 74
0
  7

 75
0
147
1.0
148
0.0
149
0.0
100
AcDbLayout
  1
Model
 70
0
 71
0
 10
0.0
 20
0.0
 11
297.0
 21
210.0
 12
0.0
 22
0.0
 32
0.0
 14
0.0
 24
0.0
 34
0.0
 15
0.0
 25
0.0
 35
0.0
146
0.0
 13
0.0
 23
0.0
 33
0.0
 16
1.0
 26
0.0
 36
0.0
 17
0.0
 27
1.0
 37
0.0
 76
0
330
224
345
0
346
0
  0
LAYOUT
  5
72E
102
{ACAD_REACTORS
330
1A
102
}
100
AcDbPlotSettings
  1

  2
none_device
  4
ISO_A4_(297.00_x_210.00_MM)
  6

 40
0.0
 41
0.0
 42
0.0
 43
0.0
 44
297.0
 45
210.0
 46
0.0
 47
0.0
 48
0.0
 49
0.0
140
0.0
141
0.0
142
1.0
143
1.0
 70
0
 72
1
 73
0
 74
0
  7

 75
0
147
1.0
148
0.0
149
0.0
100
AcDbLayout
  1
Layout1
 70
0
 71
1
 10
0.0
 20
0.0
 11
297.0
 21
210.0
 12
0.0
 22
0.0
 32
0.0
 14
0.0
 24
0.0
 34
0.0
 15
0.0
 25
0.0
 35
0.0
146
0.0
 13
0.0
 23
0.0
 33
0.0
 16
1.0
 26
0.0
 36
0.0
 17
0.0
 27
1.0
 37
0.0
 76
0
330
225
345
0
346
0
  0
ENDSEC
  0
EOF
