  0
SECTION
  2
HEADER
  9
$ACADVER
  1
AC1021
  9
$DWGCODEPAGE
  3
ANSI_1252
  9
$EXTMAX
 10
297.0
 20
210.0
 30
0.0
  9
$EXTMIN
 10
0.0
 20
0.0
 30
0.0
  9
$LIMMIN
 10
0.0
 20
0.0
  9
$LIMMAX
 10
297.0
 20
210.0
  9
$VIEWCTR
 10
148.5
 20
105.0
  9
$VIEWSIZE
 40
210.0
  9
$CLAYER
  8
0
  9
$LTSCALE
 40
16.335
  9
$CELTYPE
  6
BYLAYER
  9
$DIMSCALE
 40
1.0
  9
$DIMASZ
 40
3.0
  9
$DIMEXO
 40
0.5
  9
$DIMDLI
 40
11.286
  9
$DIMEXE
 40
1.5
  9
$DIMCEN
 40
2.673
  9
$DIMLFAC
 40
1.0
  9
$DIMBLK
  1
_FILLED
  9
$DIMALT
 70
0
  9
$DIMALTF
 40
0.0393700787
  9
$DIMTXT
 40
3.0
  9
$DIMTOL
 70
1
  9
$DIMLIM
 70
0
  9
$DIMTFAC
 40
1.0
  9
$DIMTP
 40
0.01
  9
$DIMTM
 40
0.01
  9
$DIMGAP
 40
0.625
  9
$DIMDSEP
 70
44
  9
$AUNITS
 70
0
  9
$PDMODE
 70
3
  9
$PDSIZE
 40
3.0
  9
$HANDSEED
  5
5E0
  9
$TILEMODE
 70
1
  9
$MEASUREMENT
 70
1
  9
$INSUNITS
 70
4
  0
ENDSEC
  0
SECTION
  2
CLASSES
  0
CLASS
  1
ACDBDICTIONARYWDFLT
  2
AcDbDictionaryWithDefault
  3
AutoCAD 2000
 90
0
 91
1
280
0
281
0
  0
CLASS
  1
ACDBPLACEHOLDER
  2
AcDbPlaceHolder
  3
AutoCAD 2000
 90
0
 91
1
280
0
281
0
  0
CLASS
  1
LAYOUT
  2
AcDbLayout
  3
AutoCAD 2000
 90
0
 91
0
280
0
281
0
  0
ENDSEC
  0
SECTION
  2
TABLES
  0
TABLE
  2
VPORT
  5
8
100
AcDbSymbolTable
 70
2
  0
VPORT
  5
1F4
100
AcDbSymbolTableRecord
100
AcDbViewportTableRecord
  2
*ACTIVE
 70
0
 10
0.0
 20
0.0
 11
1.0
 21
1.0
 12
148.5
 22
105.0
 13
0.0
 23
0.0
 14
1.0
 24
1.0
 15
0.0
 25
0.0
 16
0.0
 26
0.0
 36
1.0
 17
0.0
 27
0.0
 37
0.0
 40
210.0
 41
1.4142857143
 42
50.0
 43
0.0
 44
0.0
 50
0.0
 51
0.0
 71
0
 72
100
 73
1
 74
1
 75
0
 76
0
 77
0
 78
0
  0
ENDTAB
  0
TABLE
  2
LTYPE
  5
5
100
AcDbSymbolTable
 70
6
  0
LTYPE
  5
14
100
AcDbSymbolTableRecord
100
AcDbLinetypeTableRecord
  2
BYBLOCK
 70
0
  3

 72
65
 73
0
 40
0.0
  0
LTYPE
  5
15
100
AcDbSymbolTableRecord
100
AcDbLinetypeTableRecord
  2
BYLAYER
 70
0
  3

 72
65
 73
0
 40
0.0
  0
LTYPE
  5
16
100
AcDbSymbolTableRecord
100
AcDbLinetypeTableRecord
  2
CONTINUOUS
 70
64
  3
Solid line
 72
65
 73
0
 40
0.0
  0
LTYPE
  5
1F5
100
AcDbSymbolTableRecord
100
AcDbLinetypeTableRecord
  2
CENTER
 70
64
  3
____ _ ____ _ ____ _ ____ _ ____ _ ____ _ ____
 72
65
 73
4
 40
0.6
 49
0.375
 74
0
 49
-0.075
 74
0
 49
0.075
 74
0
 49
-0.075
 74
0
  0
LTYPE
  5
1F6
100
AcDbSymbolTableRecord
100
AcDbLinetypeTableRecord
  2
HIDDEN
 70
64
  3
- - - - - - - - - - - - - - - - - - - -
 72
65
 73
2
 40
0.2
 49
0.1
 74
0
 49
-0.1
 74
0
  0
LTYPE
  5
1F7
100
AcDbSymbolTableRecord
100
AcDbLinetypeTableRecord
  2
PHANTOM
 70
64
  3
_____ _ _ _____ _ _ _____ _ _ _____
 72
65
 73
6
 40
0.8
 49
0.45
 74
0
 49
-0.05
 74
0
 49
0.1
 74
0
 49
-0.05
 74
0
 49
0.1
 74
0
 49
-0.05
 74
0
  0
LTYPE
  5
1F8
100
AcDbSymbolTableRecord
100
AcDbLinetypeTableRecord
  2
DOT
 70
64
  3
. . . . . . . . . . . . . . . . . . . .
 72
65
 73
2
 40
0.2
 49
0.1
 74
0
 49
-0.1
 74
0
  0
LTYPE
  5
1F9
100
AcDbSymbolTableRecord
100
AcDbLinetypeTableRecord
  2
DASHED
 70
64
  3
- - - - - - - - - - - - - - - - - - - -
 72
65
 73
2
 40
0.2
 49
0.1
 74
0
 49
-0.1
 74
0
  0
ENDTAB
  0
TABLE
  2
LAYER
  5
2
100
AcDbSymbolTable
 70
36
  0
LAYER
  5
10
100
AcDbSymbolTableRecord
100
AcDbLayerTableRecord
  2
0
 70
0
 62
7
  6
CONTINUOUS
370
-3
390
F
  0
LAYER
  5
1FA
100
AcDbSymbolTableRecord
100
AcDbLayerTableRecord
  2
DEFAULT_1
 70
0
 62
7
  6
CENTER
370
-3
390
F
  0
LAYER
  5
1FB
100
AcDbSymbolTableRecord
100
AcDbLayerTableRecord
  2
DEFAULT_2
 70
0
 62
7
  6
HIDDEN
370
-3
390
F
  0
LAYER
  5
1FC
100
AcDbSymbolTableRecord
100
AcDbLayerTableRecord
  2
DEFAULT_3
 70
0
 62
7
  6
PHANTOM
370
-3
390
F
  0
LAYER
  5
1FD
100
AcDbSymbolTableRecord
100
AcDbLayerTableRecord
  2
21814000
 70
0
 62
7
  6
CONTINUOUS
370
-3
390
F
  0
LAYER
  5
1FE
100
AcDbSymbolTableRecord
100
AcDbLayerTableRecord
  2
260140000
 70
0
 62
7
  6
CONTINUOUS
370
-3
390
F
  0
LAYER
  5
1FF
100
AcDbSymbolTableRecord
100
AcDbLayerTableRecord
  2
26814000
 70
0
 62
7
  6
CONTINUOUS
370
-3
390
F
  0
LAYER
  5
200
100
AcDbSymbolTableRecord
100
AcDbLayerTableRecord
  2
28414000
 70
0
 62
7
  6
CONTINUOUS
370
-3
390
F
  0
LAYER
  5
201
100
AcDbSymbolTableRecord
100
AcDbLayerTableRecord
  2
290140000
 70
0
 62
7
  6
CONTINUOUS
370
-3
390
F
  0
LAYER
  5
202
100
AcDbSymbolTableRecord
100
AcDbLayerTableRecord
  2
340000230
 70
0
 62
7
  6
CONTINUOUS
370
-3
390
F
  0
LAYER
  5
203
100
AcDbSymbolTableRecord
100
AcDbLayerTableRecord
  2
712140000
 70
0
 62
7
  6
CONTINUOUS
370
-3
390
F
  0
LAYER
  5
204
100
AcDbSymbolTableRecord
100
AcDbLayerTableRecord
  2
715140000
 70
0
 62
7
  6
CONTINUOUS
370
-3
390
F
  0
LAYER
  5
205
100
AcDbSymbolTableRecord
100
AcDbLayerTableRecord
  2
ASSI
 70
0
 62
7
  6
CONTINUOUS
370
-3
390
F
  0
LAYER
  5
206
100
AcDbSymbolTableRecord
100
AcDbLayerTableRecord
  2
COLORE_TOP
 70
0
 62
7
  6
CONTINUOUS
370
-3
390
F
  0
LAYER
  5
207
100
AcDbSymbolTableRecord
100
AcDbLayerTableRecord
  2
COORDINATE
 70
0
 62
7
  6
CONTINUOUS
370
-3
390
F
  0
LAYER
  5
208
100
AcDbSymbolTableRecord
100
AcDbLayerTableRecord
  2
COORD_ORIGINE
 70
0
 62
7
  6
CONTINUOUS
370
-3
390
F
  0
LAYER
  5
209
100
AcDbSymbolTableRecord
100
AcDbLayerTableRecord
  2
COPY_PUBLISH
 70
0
 62
7
  6
CONTINUOUS
370
-3
390
F
  0
LAYER
  5
20A
100
AcDbSymbolTableRecord
100
AcDbLayerTableRecord
  2
COSMETICHE
 70
0
 62
7
  6
CONTINUOUS
370
-3
390
F
  0
LAYER
  5
20B
100
AcDbSymbolTableRecord
100
AcDbLayerTableRecord
  2
COSMETICI
 70
0
 62
7
  6
CONTINUOUS
370
-3
390
F
  0
LAYER
  5
20C
100
AcDbSymbolTableRecord
100
AcDbLayerTableRecord
  2
CURVE
 70
0
 62
7
  6
CONTINUOUS
370
-3
390
F
  0
LAYER
  5
20D
100
AcDbSymbolTableRecord
100
AcDbLayerTableRecord
  2
DRAFT
 70
0
 62
7
  6
CONTINUOUS
370
-3
390
F
  0
LAYER
  5
20E
100
AcDbSymbolTableRecord
100
AcDbLayerTableRecord
  2
IGES
 70
0
 62
7
  6
CONTINUOUS
370
-3
390
F
  0
LAYER
  5
20F
100
AcDbSymbolTableRecord
100
AcDbLayerTableRecord
  2
IMPORT
 70
0
 62
7
  6
CONTINUOUS
370
-3
390
F
  0
LAYER
  5
210
100
AcDbSymbolTableRecord
100
AcDbLayerTableRecord
  2
IMPORTED
 70
0
 62
7
  6
CONTINUOUS
370
-3
390
F
  0
LAYER
  5
211
100
AcDbSymbolTableRecord
100
AcDbLayerTableRecord
  2
IMPORT_IGES
 70
0
 62
7
  6
CONTINUOUS
370
-3
390
F
  0
LAYER
  5
212
100
AcDbSymbolTableRecord
100
AcDbLayerTableRecord
  2
INCISIONI_LASER
 70
0
 62
7
  6
CONTINUOUS
370
-3
390
F
  0
LAYER
  5
213
100
AcDbSymbolTableRecord
100
AcDbLayerTableRecord
  2
INTF_1
 70
0
 62
7
  6
CONTINUOUS
370
-3
390
F
  0
LAYER
  5
214
100
AcDbSymbolTableRecord
100
AcDbLayerTableRecord
  2
INTF_11
 70
0
 62
7
  6
CONTINUOUS
370
-3
390
F
  0
LAYER
  5
215
100
AcDbSymbolTableRecord
100
AcDbLayerTableRecord
  2
INTF_16
 70
0
 62
7
  6
CONTINUOUS
370
-3
390
F
  0
LAYER
  5
216
100
AcDbSymbolTableRecord
100
AcDbLayerTableRecord
  2
INTF_2
 70
0
 62
7
  6
CONTINUOUS
370
-3
390
F
  0
LAYER
  5
217
100
AcDbSymbolTableRecord
100
AcDbLayerTableRecord
  2
NOTE
 70
0
 62
7
  6
CONTINUOUS
370
-3
390
F
  0
LAYER
  5
218
100
AcDbSymbolTableRecord
100
AcDbLayerTableRecord
  2
PIANI
 70
0
 62
7
  6
CONTINUOUS
370
-3
390
F
  0
LAYER
  5
219
100
AcDbSymbolTableRecord
100
AcDbLayerTableRecord
  2
PIANI_DI_RIFERIMENTO
 70
0
 62
7
  6
CONTINUOUS
370
-3
390
F
  0
LAYER
  5
21A
100
AcDbSymbolTableRecord
100
AcDbLayerTableRecord
  2
PIANI_ORIGINE
 70
0
 62
7
  6
CONTINUOUS
370
-3
390
F
  0
LAYER
  5
21B
100
AcDbSymbolTableRecord
100
AcDbLayerTableRecord
  2
PIANI_RIFERIMENTO
 70
0
 62
7
  6
CONTINUOUS
370
-3
390
F
  0
LAYER
  5
21C
100
AcDbSymbolTableRecord
100
AcDbLayerTableRecord
  2
PIANI_SFORMO
 70
0
 62
7
  6
CONTINUOUS
370
-3
390
F
  0
LAYER
  5
21D
100
AcDbSymbolTableRecord
100
AcDbLayerTableRecord
  2
PUNTI
 70
0
 62
7
  6
CONTINUOUS
370
-3
390
F
  0
LAYER
  5
21E
100
AcDbSymbolTableRecord
100
AcDbLayerTableRecord
  2
RACCORDO
 70
0
 62
7
  6
CONTINUOUS
370
-3
390
F
  0
LAYER
  5
21F
100
AcDbSymbolTableRecord
100
AcDbLayerTableRecord
  2
RGB__255__255__255__
 70
0
 62
7
  6
CONTINUOUS
370
-3
390
F
  0
LAYER
  5
220
100
AcDbSymbolTableRecord
100
AcDbLayerTableRecord
  2
RGB____0____0____0__
 70
0
 62
7
  6
CONTINUOUS
370
-3
390
F
  0
LAYER
  5
221
100
AcDbSymbolTableRecord
100
AcDbLayerTableRecord
  2
RINTRACCIABILITA
 70
0
 62
7
  6
CONTINUOUS
370
-3
390
F
  0
LAYER
  5
222
100
AcDbSymbolTableRecord
100
AcDbLayerTableRecord
  2
SIMBOLI
 70
0
 62
7
  6
CONTINUOUS
370
-3
390
F
  0
LAYER
  5
223
100
AcDbSymbolTableRecord
100
AcDbLayerTableRecord
  2
SMUSSO
 70
0
 62
7
  6
CONTINUOUS
370
-3
390
F
  0
LAYER
  5
224
100
AcDbSymbolTableRecord
100
AcDbLayerTableRecord
  2
SNAPLINE
 70
0
 62
7
  6
CONTINUOUS
370
-3
390
F
  0
LAYER
  5
225
100
AcDbSymbolTableRecord
100
AcDbLayerTableRecord
  2
SUPERFICI
 70
0
 62
7
  6
CONTINUOUS
370
-3
390
F
  0
LAYER
  5
226
100
AcDbSymbolTableRecord
100
AcDbLayerTableRecord
  2
TRASH
 70
0
 62
7
  6
CONTINUOUS
370
-3
390
F
  0
LAYER
  5
227
100
AcDbSymbolTableRecord
100
AcDbLayerTableRecord
  2
WHITE
 70
0
 62
7
  6
CONTINUOUS
370
-3
390
F
  0
LAYER
  5
228
100
AcDbSymbolTableRecord
100
AcDbLayerTableRecord
  2
XSEC_DATUMS
 70
0
 62
7
  6
CONTINUOUS
370
-3
390
F
  0
ENDTAB
  0
TABLE
  2
STYLE
  5
3
100
AcDbSymbolTable
 70
1
  0
STYLE
  5
11
100
AcDbSymbolTableRecord
100
AcDbTextStyleTableRecord
  2
STANDARD
 70
0
 40
0.0
 41
0.8
 50
0.0
 71
0
 42
0.2
  3
txt
  4

  0
STYLE
  5
229
100
AcDbSymbolTableRecord
100
AcDbTextStyleTableRecord
  2
TEXTSTYLE_1
 70
0
 40
0.0
 41
0.8
 50
0.0
 71
0
 42
0.2
  3
gdt
  4

  0
ENDTAB
  0
TABLE
  2
VIEW
  5
6
100
AcDbSymbolTable
 70
0
  0
ENDTAB
  0
TABLE
  2
UCS
  5
7
100
AcDbSymbolTable
 70
0
  0
ENDTAB
  0
TABLE
  2
APPID
  5
9
100
AcDbSymbolTable
 70
1
  0
APPID
  5
22A
100
AcDbSymbolTableRecord
100
AcDbRegAppTableRecord
  2
ACAD
 70
0
  0
ENDTAB
  0
TABLE
  2
BLOCK_RECORD
  5
1
100
AcDbSymbolTable
 70
0
  0
BLOCK_RECORD
  5
22B
100
AcDbSymbolTableRecord
100
AcDbBlockTableRecord
  2
*Model_Space
  0
BLOCK_RECORD
  5
22C
100
AcDbSymbolTableRecord
100
AcDbBlockTableRecord
  2
*Paper_Space
  0
BLOCK_RECORD
  5
22D
100
AcDbSymbolTableRecord
100
AcDbBlockTableRecord
  2
_FILLED
  0
BLOCK_RECORD
  5
22E
100
AcDbSymbolTableRecord
100
AcDbBlockTableRecord
  2
*D0
  0
BLOCK_RECORD
  5
22F
100
AcDbSymbolTableRecord
100
AcDbBlockTableRecord
  2
*D1
  0
BLOCK_RECORD
  5
230
100
AcDbSymbolTableRecord
100
AcDbBlockTableRecord
  2
*D2
  0
BLOCK_RECORD
  5
231
100
AcDbSymbolTableRecord
100
AcDbBlockTableRecord
  2
*D3
  0
ENDTAB
  0
TABLE
  2
DIMSTYLE
  5
A
100
AcDbSymbolTable
 70
1
100
AcDbDimStyleTable
 71
0
  0
DIMSTYLE
105
232
100
AcDbSymbolTableRecord
100
AcDbDimStyleTableRecord
  2
STANDARD
 70
0
  3

  4

 40
1.0
 41
3.0
 42
0.5
 43
0.38
 44
1.5
 45
0.0
 46
0.0
 47
0.01
 48
0.01
140
3.0
141
0.09
142
0.0
143
25.4
144
1.0
145
0.0
146
1.0
147
0.625
 71
1.0
 72
0.0
 73
0
 74
0
 75
0
 76
0
 77
1
 78
8
 79
2
170
0
171
1
172
0
173
0
174
0
175
0
176
0
177
0
178
0
270
2
179
2
271
2
272
2
273
2
274
2
275
0
280
0
281
0
282
0
283
1
284
8
285
0
286
0
287
3
288
0
340
11
278
44
341
22D
342
22D
343
22D
344
22D
  0
DIMSTYLE
105
233
100
AcDbSymbolTableRecord
100
AcDbDimStyleTableRecord
  2
DIMSTYLE_1
 70
0
  3

  4

 40
1.0
 41
3.0
 42
0.5
 43
0.38
 44
1.5
 45
0.0
 46
0.0
 47
0.0
 48
0.0
140
3.0
141
0.09
142
0.0
143
25.4
144
1.0
145
0.0
146
1.0
147
0.75
 71
0.0
 72
0.0
 73
0
 74
0
 75
0
 76
0
 77
1
 78
8
 79
2
170
0
171
1
172
0
173
0
174
0
175
0
176
0
177
0
178
0
270
2
179
2
271
2
272
2
273
2
274
2
275
0
280
0
281
0
282
0
283
1
284
8
285
0
286
0
287
3
288
0
340
11
278
44
341
22D
342
22D
343
22D
344
22D
  0
DIMSTYLE
105
234
100
AcDbSymbolTableRecord
100
AcDbDimStyleTableRecord
  2
DIMSTYLE_2
 70
0
  3

  4

 40
1.0
 41
3.0
 42
0.5
 43
0.38
 44
1.5
 45
0.0
 46
0.0
 47
0.0
 48
0.0
140
3.0
141
0.09
142
0.0
143
25.4
144
1.0
145
0.0
146
1.0
147
0.75
 71
0.0
 72
0.0
 73
0
 74
0
 75
0
 76
0
 77
1
 78
8
 79
2
170
0
171
1
172
0
173
0
174
0
175
0
176
0
177
0
178
0
270
2
179
2
271
1
272
1
273
2
274
2
275
0
280
0
281
0
282
0
283
1
284
8
285
0
286
0
287
3
288
0
340
11
278
44
341
22D
342
22D
343
22D
344
22D
  0
ENDTAB
  0
ENDSEC
  0
SECTION
  2
BLOCKS
  0
BLOCK
  5
20
100
AcDbEntity
  8
0
100
AcDbBlockBegin
  2
*Model_Space
 70
0
 10
0.0
 20
0.0
 30
0.0
  3
*Model_Space
  1

  0
ENDBLK
  5
21
100
AcDbEntity
  8
0
100
AcDbBlockEnd
  0
BLOCK
  5
1C
100
AcDbEntity
  8
0
100
AcDbBlockBegin
  2
*Paper_Space
 70
0
 10
0.0
 20
0.0
 30
0.0
  3
*Paper_Space
  1

  0
ENDBLK
  5
1D
100
AcDbEntity
  8
0
100
AcDbBlockEnd
  0
BLOCK
  5
235
100
AcDbEntity
  8
0
100
AcDbBlockBegin
  2
_FILLED
 70
64
 10
0.0
 20
0.0
  3
_FILLED
  1

  0
SOLID
  5
236
100
AcDbEntity
  8
0
  6
BYBLOCK
 62
0
100
AcDbTrace
 10
0.0
 20
0.0
 11
-1.0
 21
0.3166666667
 12
-1.0
 22
-0.3166666667
 13
-1.0
 23
-0.3166666667
  0
ENDBLK
  5
237
100
AcDbEntity
  8
0
  6
BYBLOCK
 62
0
100
AcDbBlockEnd
  0
BLOCK
  5
238
100
AcDbEntity
  8
0
100
AcDbBlockBegin
 62
7
  6
CONTINUOUS
  2
*D0
 70
65
 10
0.0
 20
0.0
  3
*D0
  1

  0
LINE
  5
239
100
AcDbEntity
  8
0
100
AcDbLine
 62
7
  6
CONTINUOUS
 10
144.0055650909
 20
118.0077415176
 11
144.0055650909
 21
136.6838647959
  0
LINE
  5
23A
100
AcDbEntity
  8
0
100
AcDbLine
 62
7
  6
CONTINUOUS
 10
119.0055650909
 20
127.6838647959
 11
119.0055650909
 21
136.6838647959
  0
LINE
  5
23B
100
AcDbEntity
  8
0
100
AcDbLine
 62
7
  6
CONTINUOUS
 10
144.0055650909
 20
135.1838647959
 11
131.5055650909
 21
135.1838647959
  0
LINE
  5
23C
100
AcDbEntity
  8
0
100
AcDbLine
 62
7
  6
CONTINUOUS
 10
119.0055650909
 20
135.1838647959
 11
131.5055650909
 21
135.1838647959
  0
INSERT
  5
23D
100
AcDbEntity
  8
0
100
AcDbBlockReference
 62
7
  6
CONTINUOUS
  2
_FILLED
 10
144.0055650909
 20
135.1838647959
 41
3.0
 42
3.0
 43
3.0
  0
INSERT
  5
23E
100
AcDbEntity
  8
0
100
AcDbBlockReference
 62
7
  6
CONTINUOUS
  2
_FILLED
 10
119.0055650909
 20
135.1838647959
 41
3.0
 42
3.0
 43
3.0
 50
180.0
  0
ENDBLK
  5
23F
100
AcDbEntity
  8
0
  6
BYBLOCK
 62
0
100
AcDbBlockEnd
  0
BLOCK
  5
240
100
AcDbEntity
  8
0
100
AcDbBlockBegin
 62
7
  6
CONTINUOUS
  2
*D1
 70
65
 10
0.0
 20
0.0
  3
*D1
  1

  0
LINE
  5
241
100
AcDbEntity
  8
0
100
AcDbLine
 62
7
  6
CONTINUOUS
 10
155.2708625638
 20
123.2375135445
 11
155.2708625638
 21
136.6838647959
  0
LINE
  5
242
100
AcDbEntity
  8
0
100
AcDbLine
 62
7
  6
CONTINUOUS
 10
177.5708625638
 20
123.2375135445
 11
177.5708625638
 21
136.6838647959
  0
LINE
  5
243
100
AcDbEntity
  8
0
100
AcDbLine
 62
7
  6
CONTINUOUS
 10
155.2708625638
 20
135.1838647959
 11
166.4208625638
 21
135.1838647959
  0
LINE
  5
244
100
AcDbEntity
  8
0
100
AcDbLine
 62
7
  6
CONTINUOUS
 10
177.5708625638
 20
135.1838647959
 11
166.4208625638
 21
135.1838647959
  0
INSERT
  5
245
100
AcDbEntity
  8
0
100
AcDbBlockReference
 62
7
  6
CONTINUOUS
  2
_FILLED
 10
155.2708625638
 20
135.1838647959
 41
3.0
 42
3.0
 43
3.0
 50
180.0
  0
INSERT
  5
246
100
AcDbEntity
  8
0
100
AcDbBlockReference
 62
7
  6
CONTINUOUS
  2
_FILLED
 10
177.5708625638
 20
135.1838647959
 41
3.0
 42
3.0
 43
3.0
  0
ENDBLK
  5
247
100
AcDbEntity
  8
0
  6
BYBLOCK
 62
0
100
AcDbBlockEnd
  0
BLOCK
  5
248
100
AcDbEntity
  8
0
100
AcDbBlockBegin
 62
7
  6
CONTINUOUS
  2
*D2
 70
65
 10
0.0
 20
0.0
  3
*D2
  1

  0
LINE
  5
249
100
AcDbEntity
  8
0
100
AcDbLine
 62
7
  6
CONTINUOUS
 10
177.5208625638
 20
127.1838647959
 11
187.0708625638
 21
127.1838647959
  0
LINE
  5
24A
100
AcDbEntity
  8
0
100
AcDbLine
 62
7
  6
CONTINUOUS
 10
177.5208625638
 20
78.3838647959
 11
187.0708625638
 21
78.3838647959
  0
LINE
  5
24B
100
AcDbEntity
  8
0
100
AcDbLine
 62
7
  6
CONTINUOUS
 10
185.5708625638
 20
127.1838647959
 11
185.5708625638
 21
102.7838647959
  0
LINE
  5
24C
100
AcDbEntity
  8
0
100
AcDbLine
 62
7
  6
CONTINUOUS
 10
185.5708625638
 20
78.3838647959
 11
185.5708625638
 21
102.7838647959
  0
INSERT
  5
24D
100
AcDbEntity
  8
0
100
AcDbBlockReference
 62
7
  6
CONTINUOUS
  2
_FILLED
 10
185.5708625638
 20
127.1838647959
 41
3.0
 42
3.0
 43
3.0
 50
90.0
  0
INSERT
  5
24E
100
AcDbEntity
  8
0
100
AcDbBlockReference
 62
7
  6
CONTINUOUS
  2
_FILLED
 10
185.5708625638
 20
78.3838647959
 41
3.0
 42
3.0
 43
3.0
 50
270.0
  0
ENDBLK
  5
24F
100
AcDbEntity
  8
0
  6
BYBLOCK
 62
0
100
AcDbBlockEnd
  0
BLOCK
  5
250
100
AcDbEntity
  8
0
100
AcDbBlockBegin
 62
7
  6
CONTINUOUS
  2
*D3
 70
65
 10
0.0
 20
0.0
  3
*D3
  1

  0
LINE
  5
251
100
AcDbEntity
  8
0
100
AcDbLine
 62
7
  6
CONTINUOUS
 10
144.0055650909
 20
118.0077415176
 11
144.0055650909
 21
146.7975730783
  0
LINE
  5
252
100
AcDbEntity
  8
0
100
AcDbLine
 62
7
  6
CONTINUOUS
 10
105.6414579242
 20
83.4146937243
 11
105.6414579242
 21
146.7975730783
  0
LINE
  5
253
100
AcDbEntity
  8
0
100
AcDbLine
 62
7
  6
CONTINUOUS
 10
144.0055650909
 20
145.2975730783
 11
124.8235115076
 21
145.2975730783
  0
LINE
  5
254
100
AcDbEntity
  8
0
100
AcDbLine
 62
7
  6
CONTINUOUS
 10
105.6414579242
 20
145.2975730783
 11
124.8235115076
 21
145.2975730783
  0
INSERT
  5
255
100
AcDbEntity
  8
0
100
AcDbBlockReference
 62
7
  6
CONTINUOUS
  2
_FILLED
 10
144.0055650909
 20
145.2975730783
 41
3.0
 42
3.0
 43
3.0
  0
INSERT
  5
256
100
AcDbEntity
  8
0
100
AcDbBlockReference
 62
7
  6
CONTINUOUS
  2
_FILLED
 10
105.6414579242
 20
145.2975730783
 41
3.0
 42
3.0
 43
3.0
 50
180.0
  0
ENDBLK
  5
257
100
AcDbEntity
  8
0
  6
BYBLOCK
 62
0
100
AcDbBlockEnd
  0
ENDSEC
  0
SECTION
  2
ENTITIES
  0
DIMENSION
  5
258
100
AcDbEntity
  8
0
100
AcDbDimension
 62
7
  6
CONTINUOUS
  2
*D0
 10
119.0055650909
 20
135.1838647959
 11
128.4048548642
 21
135.1838647959
 70
160
 71
2
 72
2
 41
0.9
 42
25.0
  3
DIMSTYLE_1
100
AcDbAlignedDimension
 13
144.0055650909
 23
117.5077415176
 14
119.0055650909
 24
127.1838647959
 50
180.0
100
AcDbRotatedDimension
  0
DIMENSION
  5
259
100
AcDbEntity
  8
0
100
AcDbDimension
 62
7
  6
CONTINUOUS
  2
*D1
 10
177.5708625638
 20
135.1838647959
 11
162.1351482781
 21
135.1838647959
 70
160
 71
2
 72
2
 41
0.9
 42
22.3
  3
DIMSTYLE_1
100
AcDbAlignedDimension
 13
155.2708625638
 23
122.7375135445
 14
177.5708625638
 24
122.7375135445
100
AcDbRotatedDimension
  0
DIMENSION
  5
25A
100
AcDbEntity
  8
0
100
AcDbDimension
 62
7
  6
CONTINUOUS
  2
*D2
 10
185.5708625638
 20
78.3838647959
 11
185.5708625638
 21
98.3910076531
 70
160
 71
2
 72
2
 41
0.9
 42
48.8
  3
DIMSTYLE_1
100
AcDbAlignedDimension
 13
177.0208625638
 23
127.1838647959
 14
177.0208625638
 24
78.3838647959
 50
270.0
100
AcDbRotatedDimension
  0
DIMENSION
  5
25B
100
AcDbEntity
  8
0
100
AcDbDimension
 62
7
  6
CONTINUOUS
  2
*D3
 10
105.6414579242
 20
145.2975730783
 11
120.5377972219
 21
145.2975730783
 70
160
 71
2
 72
2
 41
0.9
 42
38.3641071667
  3
DIMSTYLE_2
100
AcDbAlignedDimension
 13
144.0055650909
 23
117.5077415176
 14
105.6414579242
 24
82.9146937243
 50
180.0
100
AcDbRotatedDimension
  0
LWPOLYLINE
  5
25C
100
AcDbEntity
  8
0
100
AcDbPolyline
 62
7
  6
CONTINUOUS
 90
5
 70
0
 43
0.3500000006
 10
169.4208619995
 20
137.6481564331
 10
169.7780088501
 20
137.862440918
 10
169.7780088501
 20
138.5052943726
 10
169.4208619995
 20
138.9338633423
 10
168.5637240601
 20
138.9338633423
  0
LINE
  5
25D
100
AcDbEntity
  8
26814000
100
AcDbLine
 62
7
  6
CONTINUOUS
 10
158.1077639851
 20
127.1707662172
 11
158.1208625638
 21
127.1838647959
  0
LINE
  5
25E
100
AcDbEntity
  8
26814000
100
AcDbLine
 62
7
  6
CONTINUOUS
 10
177.0208625638
 20
78.3838647959
 11
174.7208625638
 21
78.3838647959
  0
LINE
  5
25F
100
AcDbEntity
  8
26814000
100
AcDbLine
 62
7
  6
CONTINUOUS
 10
158.1208625638
 20
78.3838647959
 11
155.8208625638
 21
78.3838647959
  0
LINE
  5
260
100
AcDbEntity
  8
26814000
100
AcDbLine
 62
250
  6
CONTINUOUS
 10
155.8339611425
 20
78.3969633746
 11
158.1077639851
 21
78.3969633746
  0
LINE
  5
261
100
AcDbEntity
  8
26814000
100
AcDbLine
 62
250
  6
CONTINUOUS
 10
174.7339611425
 20
78.3969633746
 11
177.0077639851
 21
78.3969633746
  0
LINE
  5
262
100
AcDbEntity
  8
26814000
100
AcDbLine
 62
250
  6
CONTINUOUS
 10
155.8354071383
 20
78.6469591439
 11
158.1063179892
 21
78.6469591439
  0
LINE
  5
263
100
AcDbEntity
  8
26814000
100
AcDbLine
 62
250
  6
CONTINUOUS
 10
174.7354071383
 20
78.6469591439
 11
177.0063179892
 21
78.6469591439
  0
LINE
  5
264
100
AcDbEntity
  8
26814000
100
AcDbLine
 62
250
  6
CONTINUOUS
 10
177.0063179892
 20
78.9395272286
 11
174.7354071383
 21
78.9395272286
  0
LINE
  5
265
100
AcDbEntity
  8
26814000
100
AcDbLine
 62
250
  6
CONTINUOUS
 10
158.1063179892
 20
78.9395272286
 11
155.8354071383
 21
78.9395272286
  0
LINE
  5
266
100
AcDbEntity
  8
26814000
100
AcDbLine
 62
7
  6
CONTINUOUS
 10
170.8208625638
 20
78.9838647959
 11
162.0208625638
 21
78.9838647959
  0
LINE
  5
267
100
AcDbEntity
  8
26814000
100
AcDbLine
 62
7
  6
CONTINUOUS
 10
170.5167850059
 20
78.9896826257
 11
162.3249401217
 21
78.9896826257
  0
LINE
  5
268
100
AcDbEntity
  8
26814000
100
AcDbLine
 62
250
  6
CONTINUOUS
 10
177.007045218
 20
79.1560335796
 11
174.7346799096
 21
79.1560335796
  0
LINE
  5
269
100
AcDbEntity
  8
26814000
100
AcDbLine
 62
250
  6
CONTINUOUS
 10
158.107045218
 20
79.1560335796
 11
155.8346799096
 21
79.1560335796
  0
LINE
  5
26A
100
AcDbEntity
  8
26814000
100
AcDbLine
 62
7
  6
CONTINUOUS
 10
177.0121358191
 20
79.6612150651
 11
174.7295893085
 21
79.6612150651
  0
LINE
  5
26B
100
AcDbEntity
  8
26814000
100
AcDbLine
 62
7
  6
CONTINUOUS
 10
158.1121358191
 20
79.6612150651
 11
155.8295893085
 21
79.6612150651
  0
LINE
  5
26C
100
AcDbEntity
  8
26814000
100
AcDbLine
 62
7
  6
CONTINUOUS
 10
158.1077639851
 20
78.3969633746
 11
158.1208625638
 21
78.3838647959
  0
LINE
  5
26D
100
AcDbEntity
  8
26814000
100
AcDbLine
 62
7
  6
CONTINUOUS
 10
155.6208625638
 20
80.3838647959
 11
155.8208625638
 21
80.3838647959
  0
LINE
  5
26E
100
AcDbEntity
  8
26814000
100
AcDbLine
 62
7
  6
CONTINUOUS
 10
158.1208625638
 20
80.3838647959
 11
162.0208625638
 21
80.3838647959
  0
LINE
  5
26F
100
AcDbEntity
  8
26814000
100
AcDbLine
 62
7
  6
CONTINUOUS
 10
170.8208625638
 20
80.3838647959
 11
174.7208625638
 21
80.3838647959
  0
LINE
  5
270
100
AcDbEntity
  8
26814000
100
AcDbLine
 62
7
  6
CONTINUOUS
 10
177.0208625638
 20
80.3838647959
 11
177.2208625638
 21
80.3838647959
  0
LINE
  5
271
100
AcDbEntity
  8
26814000
100
AcDbLine
 62
7
  6
CONTINUOUS
 10
162.3249401217
 20
80.3925916637
 11
170.5167850059
 21
80.3925916637
  0
LINE
  5
272
100
AcDbEntity
  8
26814000
100
AcDbLine
 62
7
  6
CONTINUOUS
 10
177.0121358191
 20
80.3969550976
 11
174.7295893085
 21
80.3969550976
  0
LINE
  5
273
100
AcDbEntity
  8
26814000
100
AcDbLine
 62
7
  6
CONTINUOUS
 10
158.1121358191
 20
80.3969550976
 11
155.8295893085
 21
80.3969550976
  0
LINE
  5
274
100
AcDbEntity
  8
26814000
100
AcDbLine
 62
7
  6
CONTINUOUS
 10
155.6208625638
 20
80.4056819654
 11
177.2208625638
 21
80.4056819654
  0
LINE
  5
275
100
AcDbEntity
  8
RACCORDO
100
AcDbLine
 62
7
  6
CONTINUOUS
 10
156.1209539879
 20
80.7765609545
 11
176.7207711397
 21
80.7765609545
  0
LINE
  5
276
100
AcDbEntity
  8
26814000
100
AcDbLine
 62
7
  6
CONTINUOUS
 10
155.2708625638
 20
80.7838647959
 11
156.0135046434
 21
80.7838647959
  0
LINE
  5
277
100
AcDbEntity
  8
26814000
100
AcDbLine
 62
7
  6
CONTINUOUS
 10
176.8282203544
 20
80.7838647959
 11
177.5708625638
 21
80.7838647959
  0
LINE
  5
278
100
AcDbEntity
  8
26814000
100
AcDbLine
 62
7
  6
CONTINUOUS
 10
155.2708625638
 20
80.925067041
 11
155.6561623259
 21
80.925067041
  0
LINE
  5
279
100
AcDbEntity
  8
26814000
100
AcDbLine
 62
7
  6
CONTINUOUS
 10
177.1855627988
 20
80.925067041
 11
177.5708625638
 21
80.925067041
  0
LINE
  5
27A
100
AcDbEntity
  8
RACCORDO
100
AcDbLine
 62
250
  6
CONTINUOUS
 10
176.5709349421
 20
81.4243359408
 11
156.2707901854
 21
81.4243359408
  0
LINE
  5
27B
100
AcDbEntity
  8
26814000
100
AcDbLine
 62
7
  6
CONTINUOUS
 10
155.2708625638
 20
82.8302160474
 11
155.3208625638
 21
82.8302160474
  0
LINE
  5
27C
100
AcDbEntity
  8
26814000
100
AcDbLine
 62
7
  6
CONTINUOUS
 10
177.5208625638
 20
82.8302160474
 11
177.5708625638
 21
82.8302160474
  0
LWPOLYLINE
  5
27D
100
AcDbEntity
  8
RACCORDO
100
AcDbPolyline
 62
250
  6
CONTINUOUS
 90
16
 70
0
 10
155.4891920746
 20
123.4150587645
 10
155.4955770208
 20
123.4291842763
 10
155.5103674858
 20
123.4431369222
 10
155.5334067633
 20
123.4567688725
 10
155.5644507501
 20
123.4699356955
 10
155.6031705322
 20
123.4824978875
 10
155.64915587
 20
123.4943223508
 10
155.7019195445
 20
123.5052838042
 10
155.7609025197
 20
123.5152661101
 10
155.8254798654
 20
123.5241635051
 10
155.8949673788
 20
123.5318817203
 10
155.9686288332
 20
123.5383389808
 10
156.0456837786
 20
123.5434668713
 10
156.1253158107
 20
123.5472110614
 10
156.2066812207
 20
123.5495318812
 10
156.2889179346
 20
123.5504047413
  0
LINE
  5
27E
100
AcDbEntity
  8
26814000
100
AcDbLine
 62
7
  6
CONTINUOUS
 10
158.1208625638
 20
125.1838647959
 11
158.1121358191
 21
125.1707744942
  0
LINE
  5
27F
100
AcDbEntity
  8
26814000
100
AcDbLine
 62
7
  6
CONTINUOUS
 10
158.1121358191
 20
80.3969550976
 11
158.1208625638
 21
80.3838647959
  0
LINE
  5
280
100
AcDbEntity
  8
RACCORDO
100
AcDbLine
 62
250
  6
CONTINUOUS
 10
155.4710643255
 20
123.9914913886
 11
155.3208625638
 21
123.441701723
  0
LINE
  5
281
100
AcDbEntity
  8
26814000
100
AcDbLine
 62
7
  6
CONTINUOUS
 10
170.8167799289
 20
126.5797821611
 11
170.8208625638
 21
126.5838647959
  0
LWPOLYLINE
  5
282
100
AcDbEntity
  8
RACCORDO
100
AcDbPolyline
 62
250
  6
CONTINUOUS
 90
16
 70
0
 10
177.3525330529
 20
82.9425390464
 10
177.3461478379
 20
82.9455366955
 10
177.3313571454
 20
82.9484793888
 10
177.3083176834
 20
82.9513359481
 10
177.2772735562
 20
82.9540761082
 10
177.2385536776
 20
82.9566708369
 10
177.1925682865
 20
82.959092643
 10
177.1398046002
 20
82.9613158673
 10
177.0808216524
 20
82.9633169546
 10
177.01624437
 20
82.9650747033
 10
176.9467569523
 20
82.96657049
 10
176.8730956216
 20
82.9677884668
 10
176.7960408231
 20
82.9687157289
 10
176.7164089558
 20
82.9693424519
 10
176.635043723
 20
82.9696619956
 10
156.206680822
 20
82.9696625982
  0
LINE
  5
283
100
AcDbEntity
  8
26814000
100
AcDbLine
 62
7
  6
CONTINUOUS
 10
170.8167799289
 20
78.9879474308
 11
170.8208625638
 21
78.9838647959
  0
LWPOLYLINE
  5
284
100
AcDbEntity
  8
RACCORDO
100
AcDbPolyline
 62
250
  6
CONTINUOUS
 90
16
 70
0
 10
155.4710643255
 20
82.2213824143
 10
155.4754630644
 20
82.1382977764
 10
155.4885729362
 20
82.056099085
 10
155.5102503793
 20
81.9756866581
 10
155.5402579921
 20
81.8979412521
 10
155.5782671304
 20
81.8237144206
 10
155.6238615041
 20
81.7538191865
 10
155.6765417435
 20
81.6890211244
 10
155.7357308614
 20
81.6300299884
 10
155.8007805644
 20
81.5774919391
 10
155.870978376
 20
81.5319824453
 10
155.9455554247
 20
81.4939999969
 10
156.0236948501
 20
81.4639606467
 10
156.1045407808
 20
81.4421934353
 10
156.1872077124
 20
81.4289367941
 10
156.2707901854
 20
81.4243359406
  0
LWPOLYLINE
  5
285
100
AcDbEntity
  8
26814000
100
AcDbPolyline
 62
7
  6
CONTINUOUS
 90
31
 70
0
 10
155.2708625638
 20
80.7338781234
 10
155.2713422028
 20
80.7155602891
 10
155.2727798082
 20
80.6972926408
 10
155.2751714439
 20
80.679125243
 10
155.2785105589
 20
80.6611078835
 10
155.2827880056
 20
80.643289944
 10
155.2879920657
 20
80.6257202649
 10
155.2941084805
 20
80.6084469994
 10
155.3011204904
 20
80.5915174891
 10
155.3090088822
 20
80.574978142
 10
155.3177520398
 20
80.5588742889
 10
155.3273260038
 20
80.5432500677
 10
155.3377045381
 20
80.5281483112
 10
155.348859201
 20
80.5136104116
 10
155.3607594227
 20
80.4996762162
 10
155.3733725895
 20
80.486383927
 10
155.3866641338
 20
80.4737699785
 10
155.4005976277
 20
80.4618689457
 10
155.4151348829
 20
80.4507134586
 10
155.4302360564
 20
80.4403340959
 10
155.4458597593
 20
80.430759309
 10
155.4619631687
 20
80.4220153511
 10
155.4785021476
 20
80.4141261925
 10
155.4954313649
 20
80.4071134593
 10
155.5127044186
 20
80.4009963814
 10
155.5302739641
 20
80.3957917297
 10
155.5480918448
 20
80.3915137728
 10
155.5661092228
 20
80.3881742433
 10
155.5842767128
 20
80.3857822997
 10
155.6025445174
 20
80.384344502
 10
155.6208625638
 20
80.3838647959
  0
LINE
  5
286
100
AcDbEntity
  8
26814000
100
AcDbLine
 62
7
  6
CONTINUOUS
 10
155.8346799096
 20
79.1560335796
 11
155.8295893085
 21
79.6612150651
  0
LWPOLYLINE
  5
287
100
AcDbEntity
  8
RACCORDO
100
AcDbPolyline
 62
250
  6
CONTINUOUS
 90
21
 70
0
 10
155.4890558707
 20
123.4639763026
 10
155.4888305489
 20
123.5116262546
 10
155.4885161091
 20
123.5580086205
 10
155.4881100742
 20
123.6033636361
 10
155.4876149214
 20
123.6474510655
 10
155.4870380817
 20
123.6895502016
 10
155.4863782079
 20
123.7296173473
 10
155.4856366473
 20
123.7676961995
 10
155.4848248733
 20
123.8031971426
 10
155.4839419979
 20
123.8360727062
 10
155.4829889091
 20
123.8663703605
 10
155.4819797448
 20
123.8936429008
 10
155.4809134795
 20
123.9178488417
 10
155.4797911386
 20
123.9390296686
 10
155.4786299369
 20
123.9568626323
 10
155.4774288255
 20
123.9712926832
 10
155.4761888532
 20
123.982374871
 10
155.474930381
 20
123.9899515955
 10
155.4736601957
 20
123.9939703232
 10
155.4723715106
 20
123.9944835875
 10
155.4710643255
 20
123.9914913886
  0
LINE
  5
288
100
AcDbEntity
  8
26814000
100
AcDbLine
 62
7
  6
CONTINUOUS
 10
155.2708625638
 20
124.812034299
 11
155.2708625638
 21
80.7556952928
  0
LINE
  5
289
100
AcDbEntity
  8
RACCORDO
100
AcDbLine
 62
7
  6
CONTINUOUS
 10
155.3208625638
 20
81.5720270135
 11
155.3208625638
 21
123.441701723
  0
LINE
  5
28A
100
AcDbEntity
  8
26814000
100
AcDbLine
 62
250
  6
CONTINUOUS
 10
155.6208625638
 20
80.3838647959
 11
155.6208625638
 21
80.4056819654
  0
LINE
  5
28B
100
AcDbEntity
  8
26814000
100
AcDbLine
 62
250
  6
CONTINUOUS
 10
155.6208625638
 20
125.1620476264
 11
155.6208625638
 21
125.1838647959
  0
LINE
  5
28C
100
AcDbEntity
  8
26814000
100
AcDbLine
 62
7
  6
CONTINUOUS
 10
155.8208625638
 20
78.3838647959
 11
155.8208625638
 21
80.3838647959
  0
LINE
  5
28D
100
AcDbEntity
  8
26814000
100
AcDbLine
 62
7
  6
CONTINUOUS
 10
155.8208625638
 20
125.1838647959
 11
155.8208625638
 21
127.1838647959
  0
LINE
  5
28E
100
AcDbEntity
  8
26814000
100
AcDbLine
 62
7
  6
CONTINUOUS
 10
155.8295893085
 20
79.6612150651
 11
155.8295893085
 21
80.3969550976
  0
LINE
  5
28F
100
AcDbEntity
  8
26814000
100
AcDbLine
 62
7
  6
CONTINUOUS
 10
155.8295893085
 20
125.1707744942
 11
155.8295893085
 21
125.9065145267
  0
LINE
  5
290
100
AcDbEntity
  8
26814000
100
AcDbLine
 62
7
  6
CONTINUOUS
 10
155.8354071383
 20
78.6469591439
 11
155.8354071383
 21
78.9395272286
  0
LINE
  5
291
100
AcDbEntity
  8
26814000
100
AcDbLine
 62
7
  6
CONTINUOUS
 10
155.8354071383
 20
126.6282023632
 11
155.8354071383
 21
126.920770448
  0
LWPOLYLINE
  5
292
100
AcDbEntity
  8
RACCORDO
100
AcDbPolyline
 62
250
  6
CONTINUOUS
 90
12
 70
0
 10
155.4947337715
 20
86.3340953823
 10
155.49926805
 20
89.7229396627
 10
155.5027949102
 20
93.1090718875
 10
155.5053145506
 20
96.4929292897
 10
155.5068267727
 20
99.8740746364
 10
155.5073309809
 20
103.2511962285
 10
155.5068267793
 20
106.6242918248
 10
155.5053145638
 20
109.9933636666
 10
155.5027949263
 20
113.357106779
 10
155.4992680643
 20
116.7150861702
 10
155.4947337804
 20
120.0677368321
 10
155.4890558707
 20
123.4639763026
  0
LINE
  5
293
100
AcDbEntity
  8
26814000
100
AcDbLine
 62
7
  6
CONTINUOUS
 10
155.8295893085
 20
125.9065145267
 11
155.8346799096
 21
126.4116960123
  0
LWPOLYLINE
  5
294
100
AcDbEntity
  8
26814000
100
AcDbPolyline
 62
7
  6
CONTINUOUS
 90
31
 70
0
 10
155.2708625638
 20
124.8338514685
 10
155.2713422028
 20
124.8521693028
 10
155.2727798082
 20
124.8704369511
 10
155.2751714439
 20
124.8886043488
 10
155.2785105589
 20
124.9066217084
 10
155.2827880056
 20
124.9244396479
 10
155.2879920657
 20
124.9420093269
 10
155.2941084805
 20
124.9592825924
 10
155.3011204904
 20
124.9762121027
 10
155.3090088822
 20
124.9927514498
 10
155.3177520398
 20
125.008855303
 10
155.3273260038
 20
125.0244795241
 10
155.3377045381
 20
125.0395812806
 10
155.348859201
 20
125.0541191803
 10
155.3607594227
 20
125.0680533757
 10
155.3733725895
 20
125.0813456648
 10
155.3866641338
 20
125.0939596133
 10
155.4005976277
 20
125.1058606461
 10
155.4151348829
 20
125.1170161333
 10
155.4302360564
 20
125.1273954959
 10
155.4458597593
 20
125.1369702828
 10
155.4619631687
 20
125.1457142407
 10
155.4785021476
 20
125.1536033994
 10
155.4954313649
 20
125.1606161325
 10
155.5127044186
 20
125.1667332104
 10
155.5302739641
 20
125.1719378622
 10
155.5480918448
 20
125.176215819
 10
155.5661092228
 20
125.1795553486
 10
155.5842767128
 20
125.1819472921
 10
155.6025445174
 20
125.1833850898
 10
155.6208625638
 20
125.1838647959
  0
LWPOLYLINE
  5
295
100
AcDbEntity
  8
RACCORDO
100
AcDbPolyline
 62
250
  6
CONTINUOUS
 90
4
 70
0
 10
155.4710643255
 20
123.9914913886
 10
155.4754631274
 20
124.0747050778
 10
155.4885731671
 20
124.1569833492
 10
155.4990715328
 20
124.2001348477
  0
LWPOLYLINE
  5
296
100
AcDbEntity
  8
RACCORDO
100
AcDbPolyline
 62
250
  6
CONTINUOUS
 90
21
 70
0
 10
156.2944596491
 20
120.1948459654
 10
156.2887803369
 20
123.6548089973
 10
156.2885540122
 20
123.757370256
 10
156.2882389607
 20
123.8575718645
 10
156.2878327812
 20
123.954901789
 10
156.2873378748
 20
124.0488744325
 10
156.2867614445
 20
124.1390309905
 10
156.2861020335
 20
124.2249271402
 10
156.2853610986
 20
124.3061125086
 10
156.2845502135
 20
124.3821535445
 10
156.2836686327
 20
124.4526536024
 10
156.2827171018
 20
124.517276649
 10
156.2817094309
 20
124.5757198876
 10
156.2806444113
 20
124.6276944995
 10
156.2795232518
 20
124.6729209355
 10
156.2783633889
 20
124.7111575337
 10
156.2771645654
 20
124.7422087314
 10
156.2759270384
 20
124.7659245011
 10
156.2746690161
 20
124.7821881961
 10
156.2733965679
 20
124.7909163538
 10
156.2725606096
 20
124.792525035
  0
LWPOLYLINE
  5
297
100
AcDbEntity
  8
RACCORDO
100
AcDbPolyline
 62
250
  6
CONTINUOUS
 90
12
 70
0
 10
156.2887803831
 20
82.8629672103
 10
156.2944596493
 20
86.3695870767
 10
156.2989939385
 20
89.7676501987
 10
156.3025208023
 20
93.1634237234
 10
156.305040435
 20
96.5564706798
 10
156.3065526423
 20
99.9463545325
 10
156.3070568409
 20
103.3326392381
 10
156.3065526421
 20
106.7148890886
 10
156.3050404348
 20
110.0926688951
 10
156.302520802
 20
113.4655441704
 10
156.2989939383
 20
116.8330809734
 10
156.2944596491
 20
120.1948459654
  0
LWPOLYLINE
  5
298
100
AcDbEntity
  8
0
100
AcDbPolyline
 62
7
  6
CONTINUOUS
 90
3
 70
0
 43
0.3500000006
 10
167.5637237549
 20
136.2195871582
 10
167.4922835083
 20
136.0052845459
 10
167.34943927
 20
135.7195779419
  0
LINE
  5
299
100
AcDbEntity
  8
26814000
100
AcDbLine
 62
7
  6
CONTINUOUS
 10
170.8167799289
 20
125.1777407573
 11
170.8208625638
 21
125.1838647959
  0
LINE
  5
29A
100
AcDbEntity
  8
26814000
100
AcDbLine
 62
7
  6
CONTINUOUS
 10
177.0077639851
 20
127.1707662172
 11
177.0208625638
 21
127.1838647959
  0
LINE
  5
29B
100
AcDbEntity
  8
26814000
100
AcDbLine
 62
7
  6
CONTINUOUS
 10
177.0077639851
 20
78.3969633746
 11
177.0208625638
 21
78.3838647959
  0
LINE
  5
29C
100
AcDbEntity
  8
26814000
100
AcDbLine
 62
7
  6
CONTINUOUS
 10
170.8167799289
 20
80.3899888345
 11
170.8208625638
 21
80.3838647959
  0
LINE
  5
29D
100
AcDbEntity
  8
26814000
100
AcDbLine
 62
7
  6
CONTINUOUS
 10
158.1121358191
 20
125.9065145267
 11
158.107045218
 21
126.4116960123
  0
LINE
  5
29E
100
AcDbEntity
  8
26814000
100
AcDbLine
 62
7
  6
CONTINUOUS
 10
158.1063179892
 20
126.920770448
 11
158.1063179892
 21
126.6282023632
  0
LINE
  5
29F
100
AcDbEntity
  8
26814000
100
AcDbLine
 62
7
  6
CONTINUOUS
 10
158.1063179892
 20
78.9395272286
 11
158.1063179892
 21
78.6469591439
  0
LINE
  5
2A0
100
AcDbEntity
  8
26814000
100
AcDbLine
 62
7
  6
CONTINUOUS
 10
158.1121358191
 20
79.6612150651
 11
158.1121358191
 21
80.3969550976
  0
LINE
  5
2A1
100
AcDbEntity
  8
26814000
100
AcDbLine
 62
7
  6
CONTINUOUS
 10
158.1121358191
 20
125.1707744942
 11
158.1121358191
 21
125.9065145267
  0
LINE
  5
2A2
100
AcDbEntity
  8
26814000
100
AcDbLine
 62
7
  6
CONTINUOUS
 10
158.1208625638
 20
78.3838647959
 11
158.1208625638
 21
80.3838647959
  0
LINE
  5
2A3
100
AcDbEntity
  8
26814000
100
AcDbLine
 62
7
  6
CONTINUOUS
 10
158.1208625638
 20
125.1838647959
 11
158.1208625638
 21
127.1838647959
  0
LINE
  5
2A4
100
AcDbEntity
  8
26814000
100
AcDbLine
 62
7
  6
CONTINUOUS
 10
158.107045218
 20
79.1560335796
 11
158.1121358191
 21
79.6612150651
  0
LWPOLYLINE
  5
2A5
100
AcDbEntity
  8
RACCORDO
100
AcDbPolyline
 62
250
  6
CONTINUOUS
 90
21
 70
0
 10
156.2707901854
 20
81.4243359408
 10
156.272103847
 20
81.4401813061
 10
156.2733969488
 20
81.4634881836
 10
156.274669491
 20
81.4941367826
 10
156.2759274999
 20
81.531967821
 10
156.2771649492
 20
81.5767897265
 10
156.2783637596
 20
81.628383621
 10
156.2795237627
 20
81.6864996952
 10
156.280645127
 20
81.7508381488
 10
156.2817102795
 20
81.8210540514
 10
156.2827179605
 20
81.8967716063
 10
156.2836694297
 20
81.977619589
 10
156.2845508942
 20
82.0632190405
 10
156.285361569
 20
82.153158851
 10
156.286102239
 20
82.246968608
 10
156.2867614658
 20
82.3441498239
 10
156.2873378701
 20
82.4441964568
 10
156.2878328311
 20
82.5466144473
 10
156.2882390482
 20
82.6508998957
 10
156.2885540876
 20
82.7565304949
 10
156.2887803831
 20
82.8629672103
  0
LWPOLYLINE
  5
2A6
100
AcDbEntity
  8
RACCORDO
100
AcDbPolyline
 62
250
  6
CONTINUOUS
 90
22
 70
0
 10
155.4710643255
 20
82.2213824143
 10
155.4723725512
 20
82.2288359217
 10
155.4736620813
 20
82.2396479497
 10
155.4749329155
 20
82.2538184984
 10
155.476191777
 20
82.2714536133
 10
155.4774319426
 20
82.2924472489
 10
155.478633244
 20
82.3164812686
 10
155.4797947502
 20
82.3436052813
 10
155.4809173921
 20
82.373769678
 10
155.481983793
 20
82.4065074952
 10
155.4829928508
 20
82.4418505857
 10
155.4839456676
 20
82.4797670968
 10
155.4848281736
 20
82.5196945062
 10
155.4856394463
 20
82.5616702214
 10
155.4863804082
 20
82.6056568349
 10
155.4870397565
 20
82.6509796024
 10
155.4876162156
 20
82.697676087
 10
155.4881110612
 20
82.7457087256
 10
155.4885168174
 20
82.7942900842
 10
155.4888309924
 20
82.8431576849
 10
155.4890560782
 20
82.8925740056
 10
155.4947337715
 20
86.3340953823
  0
LINE
  5
2A7
100
AcDbEntity
  8
RACCORDO
100
AcDbLine
 62
250
  6
CONTINUOUS
 10
155.3208625638
 20
81.5720270135
 11
155.4710643255
 21
82.2213824143
  0
LINE
  5
2A8
100
AcDbEntity
  8
26814000
100
AcDbLine
 62
7
  6
CONTINUOUS
 10
162.0208625638
 20
78.9838647959
 11
162.0208625638
 21
80.3838647959
  0
LINE
  5
2A9
100
AcDbEntity
  8
26814000
100
AcDbLine
 62
7
  6
CONTINUOUS
 10
162.0208625638
 20
125.1838647959
 11
162.0208625638
 21
126.5838647959
  0
LINE
  5
2AA
100
AcDbEntity
  8
26814000
100
AcDbLine
 62
250
  6
CONTINUOUS
 10
162.0249451986
 20
126.5797821611
 11
162.0249451986
 21
125.1777407573
  0
LINE
  5
2AB
100
AcDbEntity
  8
26814000
100
AcDbLine
 62
250
  6
CONTINUOUS
 10
162.0249451986
 20
80.3899888345
 11
162.0249451986
 21
78.9879474308
  0
LINE
  5
2AC
100
AcDbEntity
  8
26814000
100
AcDbLine
 62
250
  6
CONTINUOUS
 10
162.3249401217
 20
126.5780469661
 11
162.3249401217
 21
125.1751379281
  0
LINE
  5
2AD
100
AcDbEntity
  8
26814000
100
AcDbLine
 62
250
  6
CONTINUOUS
 10
162.3249401217
 20
80.3925916637
 11
162.3249401217
 21
78.9896826257
  0
LINE
  5
2AE
100
AcDbEntity
  8
RACCORDO
100
AcDbLine
 62
250
  6
CONTINUOUS
 10
156.1209539879
 20
80.7765609545
 11
156.2707901854
 21
81.4243359408
  0
LINE
  5
2AF
100
AcDbEntity
  8
26814000
100
AcDbLine
 62
7
  6
CONTINUOUS
 10
177.0208625638
 20
125.1838647959
 11
177.0121358191
 21
125.1707744942
  0
LWPOLYLINE
  5
2B0
100
AcDbEntity
  8
0
100
AcDbPolyline
 62
7
  6
CONTINUOUS
 90
2
 70
0
 43
0.3500000006
 10
184.8208666992
 20
99.3910070801
 10
183.3208571777
 20
99.3910070801
  0
LINE
  5
2B1
100
AcDbEntity
  8
26814000
100
AcDbLine
 62
7
  6
CONTINUOUS
 10
177.0121358191
 20
80.3969550976
 11
177.0208625638
 21
80.3838647959
  0
LWPOLYLINE
  5
2B2
100
AcDbEntity
  8
0
100
AcDbPolyline
 62
7
  6
CONTINUOUS
 90
4
 70
0
 43
0.3500000006
 10
184.3922977295
 20
100.7481542358
 10
183.5351416626
 20
100.7481542358
 10
183.1065726929
 20
101.1767232056
 10
183.1065726929
 20
101.8195766602
  0
LWPOLYLINE
  5
2B3
100
AcDbEntity
  8
RACCORDO
100
AcDbPolyline
 62
250
  6
CONTINUOUS
 90
20
 70
0
 10
176.5691645113
 20
124.7925250349
 10
176.5683285597
 20
124.7909163538
 10
176.5670561115
 20
124.7821881961
 10
176.5657980892
 20
124.7659245011
 10
176.5645605622
 20
124.7422087314
 10
176.5633617386
 20
124.7111575337
 10
176.5622018757
 20
124.6729209355
 10
176.5610807162
 20
124.6276944995
 10
176.5600156966
 20
124.5757198876
 10
176.5590080258
 20
124.517276649
 10
176.5580564948
 20
124.4526536024
 10
176.5571749141
 20
124.3821535445
 10
176.556364029
 20
124.3061125086
 10
176.5556230941
 20
124.2249271402
 10
176.554963683
 20
124.1390309905
 10
176.5543872528
 20
124.0488744325
 10
176.5538923464
 20
123.954901789
 10
176.5534861669
 20
123.8575718645
 10
176.5531711153
 20
123.757370256
 10
176.5529447907
 20
123.6548089973
  0
LINE
  5
2B4
100
AcDbEntity
  8
26814000
100
AcDbLine
 62
7
  6
CONTINUOUS
 10
155.2708625638
 20
102.7838647959
 11
155.3208625638
 21
102.7838647959
  0
LINE
  5
2B5
100
AcDbEntity
  8
26814000
100
AcDbLine
 62
7
  6
CONTINUOUS
 10
177.5208625638
 20
102.7838647959
 11
177.5708625638
 21
102.7838647959
  0
LINE
  5
2B6
100
AcDbEntity
  8
26814000
100
AcDbLine
 62
7
  6
CONTINUOUS
 10
155.8295893085
 20
80.3969550976
 11
155.8208625638
 21
80.3838647959
  0
LWPOLYLINE
  5
2B7
100
AcDbEntity
  8
0
100
AcDbPolyline
 62
7
  6
CONTINUOUS
 90
4
 70
0
 43
0.3500000006
 10
184.3922977295
 20
104.8195775757
 10
183.5351416626
 20
104.8195775757
 10
183.1065726929
 20
105.2481465454
 10
183.1065726929
 20
105.8910090637
  0
LINE
  5
2B8
100
AcDbEntity
  8
26814000
100
AcDbLine
 62
7
  6
CONTINUOUS
 10
155.8208625638
 20
125.1838647959
 11
155.8295893085
 21
125.1707744942
  0
LINE
  5
2B9
100
AcDbEntity
  8
26814000
100
AcDbLine
 62
250
  6
CONTINUOUS
 10
170.5167850059
 20
78.9896826257
 11
170.5167850059
 21
80.3925916637
  0
LINE
  5
2BA
100
AcDbEntity
  8
26814000
100
AcDbLine
 62
250
  6
CONTINUOUS
 10
170.5167850059
 20
125.1751379281
 11
170.5167850059
 21
126.5780469661
  0
LINE
  5
2BB
100
AcDbEntity
  8
26814000
100
AcDbLine
 62
250
  6
CONTINUOUS
 10
170.8167799289
 20
78.9879474308
 11
170.8167799289
 21
80.3899888345
  0
LINE
  5
2BC
100
AcDbEntity
  8
26814000
100
AcDbLine
 62
250
  6
CONTINUOUS
 10
170.8167799289
 20
125.1777407573
 11
170.8167799289
 21
126.5797821611
  0
LINE
  5
2BD
100
AcDbEntity
  8
26814000
100
AcDbLine
 62
7
  6
CONTINUOUS
 10
170.8208625638
 20
126.5838647959
 11
170.8208625638
 21
125.1838647959
  0
LINE
  5
2BE
100
AcDbEntity
  8
26814000
100
AcDbLine
 62
7
  6
CONTINUOUS
 10
170.8208625638
 20
80.3838647959
 11
170.8208625638
 21
78.9838647959
  0
LINE
  5
2BF
100
AcDbEntity
  8
RACCORDO
100
AcDbLine
 62
250
  6
CONTINUOUS
 10
176.5709349421
 20
81.4243359408
 11
176.7207711397
 21
80.7765609545
  0
LWPOLYLINE
  5
2C0
100
AcDbEntity
  8
0
100
AcDbPolyline
 62
7
  6
CONTINUOUS
 90
10
 70
0
 43
0.3500000006
 10
184.3208574829
 20
103.7481460876
 10
184.4637198486
 20
103.8195772705
 10
184.5351419678
 20
103.8195772705
 10
184.6780043335
 20
103.6767239685
 10
184.6780043335
 20
103.6052927856
 10
184.6065822144
 20
103.5338616028
 10
184.5351419678
 20
103.5338616028
 10
184.3922977295
 20
103.6052927856
 10
184.3208574829
 20
103.6767239685
 10
184.3208574829
 20
103.7481460876
  0
LWPOLYLINE
  5
2C1
100
AcDbEntity
  8
0
100
AcDbPolyline
 62
7
  6
CONTINUOUS
 90
3
 70
0
 43
0.3500000006
 10
184.5351419678
 20
103.8195772705
 10
184.7494264526
 20
103.7481460876
 10
185.0351511841
 20
103.6052927856
  0
LINE
  5
2C2
100
AcDbEntity
  8
RACCORDO
100
AcDbLine
 62
250
  6
CONTINUOUS
 10
177.3706608021
 20
82.2213824143
 11
177.5208625638
 21
81.5720270135
  0
LINE
  5
2C3
100
AcDbEntity
  8
26814000
100
AcDbLine
 62
7
  6
CONTINUOUS
 10
174.7346799096
 20
79.1560335796
 11
174.7295893085
 21
79.6612150651
  0
LINE
  5
2C4
100
AcDbEntity
  8
26814000
100
AcDbLine
 62
7
  6
CONTINUOUS
 10
174.7208625638
 20
78.3838647959
 11
174.7208625638
 21
80.3838647959
  0
LINE
  5
2C5
100
AcDbEntity
  8
26814000
100
AcDbLine
 62
7
  6
CONTINUOUS
 10
174.7208625638
 20
125.1838647959
 11
174.7208625638
 21
127.1838647959
  0
LINE
  5
2C6
100
AcDbEntity
  8
26814000
100
AcDbLine
 62
7
  6
CONTINUOUS
 10
174.7295893085
 20
79.6612150651
 11
174.7295893085
 21
80.3969550976
  0
LINE
  5
2C7
100
AcDbEntity
  8
26814000
100
AcDbLine
 62
7
  6
CONTINUOUS
 10
174.7295893085
 20
125.1707744942
 11
174.7295893085
 21
125.9065145267
  0
LINE
  5
2C8
100
AcDbEntity
  8
26814000
100
AcDbLine
 62
7
  6
CONTINUOUS
 10
174.7354071383
 20
78.6469591439
 11
174.7354071383
 21
78.9395272286
  0
LINE
  5
2C9
100
AcDbEntity
  8
26814000
100
AcDbLine
 62
7
  6
CONTINUOUS
 10
174.7354071383
 20
126.6282023632
 11
174.7354071383
 21
126.920770448
  0
LINE
  5
2CA
100
AcDbEntity
  8
26814000
100
AcDbLine
 62
7
  6
CONTINUOUS
 10
174.7295893085
 20
125.9065145267
 11
174.7346799096
 21
126.4116960123
  0
LINE
  5
2CB
100
AcDbEntity
  8
26814000
100
AcDbLine
 62
7
  6
CONTINUOUS
 10
162.0249451986
 20
80.3899888345
 11
162.0208625638
 21
80.3838647959
  0
LINE
  5
2CC
100
AcDbEntity
  8
26814000
100
AcDbLine
 62
7
  6
CONTINUOUS
 10
162.0249451986
 20
125.1777407573
 11
162.0208625638
 21
125.1838647959
  0
LINE
  5
2CD
100
AcDbEntity
  8
26814000
100
AcDbLine
 62
7
  6
CONTINUOUS
 10
177.0121358191
 20
125.9065145267
 11
177.007045218
 21
126.4116960123
  0
LWPOLYLINE
  5
2CE
100
AcDbEntity
  8
RACCORDO
100
AcDbPolyline
 62
250
  6
CONTINUOUS
 90
21
 70
0
 10
177.3526690494
 20
82.8925740056
 10
177.3528941351
 20
82.8431576849
 10
177.3532083102
 20
82.7942900842
 10
177.3536140664
 20
82.7457087256
 10
177.3541089119
 20
82.697676087
 10
177.354685371
 20
82.6509796024
 10
177.3553447193
 20
82.6056568349
 10
177.3560856813
 20
82.5616702214
 10
177.356896954
 20
82.5196945062
 10
177.35777946
 20
82.4797670968
 10
177.3587322768
 20
82.4418505857
 10
177.3597413345
 20
82.4065074952
 10
177.3608077355
 20
82.373769678
 10
177.3619303773
 20
82.3436052813
 10
177.3630918836
 20
82.3164812686
 10
177.3642931849
 20
82.292447249
 10
177.3655333506
 20
82.2714536134
 10
177.366792212
 20
82.2538184984
 10
177.3680630463
 20
82.2396479497
 10
177.3693525763
 20
82.2288359217
 10
177.3706608021
 20
82.2213824143
  0
LWPOLYLINE
  5
2CF
100
AcDbEntity
  8
RACCORDO
100
AcDbPolyline
 62
250
  6
CONTINUOUS
 90
22
 70
0
 10
176.5472654783
 20
86.3695870767
 10
176.5529447444
 20
82.8629672103
 10
176.5531710399
 20
82.7565304949
 10
176.5534860794
 20
82.6508998957
 10
176.5538922964
 20
82.5466144473
 10
176.5543872574
 20
82.4441964568
 10
176.5549636617
 20
82.3441498239
 10
176.5556228885
 20
82.246968608
 10
176.5563635586
 20
82.153158851
 10
176.5571742334
 20
82.0632190405
 10
176.5580556978
 20
81.977619589
 10
176.5590071671
 20
81.8967716063
 10
176.560014848
 20
81.8210540514
 10
176.5610800006
 20
81.7508381488
 10
176.5622013649
 20
81.6864996952
 10
176.563361368
 20
81.628383621
 10
176.5645601784
 20
81.5767897265
 10
176.5657976276
 20
81.531967821
 10
176.5670556365
 20
81.4941367826
 10
176.5683281787
 20
81.4634881836
 10
176.5696212806
 20
81.4401813061
 10
176.5709349421
 20
81.4243359408
  0
LINE
  5
2D0
100
AcDbEntity
  8
26814000
100
AcDbLine
 62
7
  6
CONTINUOUS
 10
177.0063179892
 20
126.920770448
 11
177.0063179892
 21
126.6282023632
  0
LINE
  5
2D1
100
AcDbEntity
  8
26814000
100
AcDbLine
 62
7
  6
CONTINUOUS
 10
177.0063179892
 20
78.9395272286
 11
177.0063179892
 21
78.6469591439
  0
LINE
  5
2D2
100
AcDbEntity
  8
26814000
100
AcDbLine
 62
7
  6
CONTINUOUS
 10
177.0121358191
 20
79.6612150651
 11
177.0121358191
 21
80.3969550976
  0
LINE
  5
2D3
100
AcDbEntity
  8
26814000
100
AcDbLine
 62
7
  6
CONTINUOUS
 10
177.0121358191
 20
125.1707744942
 11
177.0121358191
 21
125.9065145267
  0
LINE
  5
2D4
100
AcDbEntity
  8
26814000
100
AcDbLine
 62
7
  6
CONTINUOUS
 10
177.0208625638
 20
78.3838647959
 11
177.0208625638
 21
80.3838647959
  0
LINE
  5
2D5
100
AcDbEntity
  8
26814000
100
AcDbLine
 62
7
  6
CONTINUOUS
 10
177.0208625638
 20
125.1838647959
 11
177.0208625638
 21
127.1838647959
  0
LINE
  5
2D6
100
AcDbEntity
  8
26814000
100
AcDbLine
 62
250
  6
CONTINUOUS
 10
177.2208625638
 20
125.1838647959
 11
177.2208625638
 21
125.1620476264
  0
LINE
  5
2D7
100
AcDbEntity
  8
26814000
100
AcDbLine
 62
250
  6
CONTINUOUS
 10
177.2208625638
 20
80.4056819654
 11
177.2208625638
 21
80.3838647959
  0
LWPOLYLINE
  5
2D8
100
AcDbEntity
  8
RACCORDO
100
AcDbPolyline
 62
250
  6
CONTINUOUS
 90
12
 70
0
 10
177.3469913471
 20
120.0677368321
 10
177.3424570632
 20
116.7150861702
 10
177.3389302012
 20
113.357106779
 10
177.3364105638
 20
109.9933636666
 10
177.3348983482
 20
106.6242918248
 10
177.3343941466
 20
103.2511962285
 10
177.3348983548
 20
99.8740746364
 10
177.3364105769
 20
96.4929292897
 10
177.3389302174
 20
93.1090718875
 10
177.3424570776
 20
89.7229396627
 10
177.3469913561
 20
86.3340953823
 10
177.3526690494
 20
82.8925740056
  0
LWPOLYLINE
  5
2D9
100
AcDbEntity
  8
RACCORDO
100
AcDbPolyline
 62
250
  6
CONTINUOUS
 90
12
 70
0
 10
176.5529447907
 20
123.6548089973
 10
176.5472654784
 20
120.1948459654
 10
176.5427311893
 20
116.8330809734
 10
176.5392043255
 20
113.4655441704
 10
176.5366846928
 20
110.0926688951
 10
176.5351724854
 20
106.7148890886
 10
176.5346682866
 20
103.3326392381
 10
176.5351724853
 20
99.9463545325
 10
176.5366846925
 20
96.5564706798
 10
176.5392043252
 20
93.1634237234
 10
176.542731189
 20
89.7676501987
 10
176.5472654783
 20
86.3695870767
  0
LINE
  5
2DA
100
AcDbEntity
  8
26814000
100
AcDbLine
 62
7
  6
CONTINUOUS
 10
177.007045218
 20
79.1560335796
 11
177.0121358191
 21
79.6612150651
  0
LINE
  5
2DB
100
AcDbEntity
  8
26814000
100
AcDbLine
 62
7
  6
CONTINUOUS
 10
155.8339611425
 20
78.3969633746
 11
155.8208625638
 21
78.3838647959
  0
LINE
  5
2DC
100
AcDbEntity
  8
26814000
100
AcDbLine
 62
7
  6
CONTINUOUS
 10
155.8339611425
 20
127.1707662172
 11
155.8208625638
 21
127.1838647959
  0
LWPOLYLINE
  5
2DD
100
AcDbEntity
  8
RACCORDO
100
AcDbPolyline
 62
250
  6
CONTINUOUS
 90
4
 70
0
 10
177.3706608021
 20
123.9914913886
 10
177.3662620971
 20
124.0747041605
 10
177.3531523158
 20
124.156981687
 10
177.3426536172
 20
124.2001347657
  0
LWPOLYLINE
  5
2DE
100
AcDbEntity
  8
26814000
100
AcDbPolyline
 62
7
  6
CONTINUOUS
 90
31
 70
0
 10
177.5708625638
 20
124.8338514685
 10
177.5703829247
 20
124.8521693028
 10
177.5689453194
 20
124.8704369511
 10
177.5665536837
 20
124.8886043488
 10
177.5632145687
 20
124.9066217084
 10
177.558937122
 20
124.9244396479
 10
177.5537330619
 20
124.9420093269
 10
177.547616647
 20
124.9592825924
 10
177.5406046371
 20
124.9762121027
 10
177.5327162454
 20
124.9927514498
 10
177.5239730878
 20
125.008855303
 10
177.5143991238
 20
125.0244795241
 10
177.5040205895
 20
125.0395812806
 10
177.4928659266
 20
125.0541191803
 10
177.4809657049
 20
125.0680533757
 10
177.4683525381
 20
125.0813456648
 10
177.4550609938
 20
125.0939596133
 10
177.4411274998
 20
125.1058606461
 10
177.4265902447
 20
125.1170161333
 10
177.4114890712
 20
125.1273954959
 10
177.3958653683
 20
125.1369702828
 10
177.3797619588
 20
125.1457142407
 10
177.36322298
 20
125.1536033994
 10
177.3462937626
 20
125.1606161325
 10
177.3290207089
 20
125.1667332104
 10
177.3114511634
 20
125.1719378622
 10
177.2936332828
 20
125.176215819
 10
177.2756159048
 20
125.1795553486
 10
177.2574484147
 20
125.1819472921
 10
177.2391806101
 20
125.1833850898
 10
177.2208625638
 20
125.1838647959
  0
LINE
  5
2DF
100
AcDbEntity
  8
RACCORDO
100
AcDbLine
 62
7
  6
CONTINUOUS
 10
177.5208625638
 20
81.5720270135
 11
177.5208625638
 21
123.441701723
  0
LINE
  5
2E0
100
AcDbEntity
  8
26814000
100
AcDbLine
 62
7
  6
CONTINUOUS
 10
177.5708625638
 20
124.812034299
 11
177.5708625638
 21
80.7556952928
  0
LWPOLYLINE
  5
2E1
100
AcDbEntity
  8
26814000
100
AcDbPolyline
 62
7
  6
CONTINUOUS
 90
31
 70
0
 10
177.5708625638
 20
80.7338781234
 10
177.5703829247
 20
80.7155602891
 10
177.5689453194
 20
80.6972926408
 10
177.5665536837
 20
80.679125243
 10
177.5632145687
 20
80.6611078835
 10
177.558937122
 20
80.643289944
 10
177.5537330619
 20
80.6257202649
 10
177.547616647
 20
80.6084469994
 10
177.5406046371
 20
80.5915174891
 10
177.5327162454
 20
80.574978142
 10
177.5239730878
 20
80.5588742889
 10
177.5143991238
 20
80.5432500677
 10
177.5040205895
 20
80.5281483112
 10
177.4928659266
 20
80.5136104116
 10
177.4809657049
 20
80.4996762162
 10
177.4683525381
 20
80.486383927
 10
177.4550609938
 20
80.4737699785
 10
177.4411274998
 20
80.4618689457
 10
177.4265902447
 20
80.4507134586
 10
177.4114890712
 20
80.4403340959
 10
177.3958653683
 20
80.430759309
 10
177.3797619588
 20
80.4220153511
 10
177.36322298
 20
80.4141261925
 10
177.3462937626
 20
80.4071134593
 10
177.3290207089
 20
80.4009963814
 10
177.3114511634
 20
80.3957917297
 10
177.2936332828
 20
80.3915137728
 10
177.2756159048
 20
80.3881742433
 10
177.2574484147
 20
80.3857822997
 10
177.2391806101
 20
80.384344502
 10
177.2208625638
 20
80.3838647959
  0
LWPOLYLINE
  5
2E2
100
AcDbEntity
  8
RACCORDO
100
AcDbPolyline
 62
250
  6
CONTINUOUS
 90
16
 70
0
 10
177.3706608021
 20
82.2213824143
 10
177.3662620001
 20
82.138297179
 10
177.3531519604
 20
82.0560980024
 10
177.3314742775
 20
81.9756852141
 10
177.3014663877
 20
81.8979395776
 10
177.2634569681
 20
81.8237126427
 10
177.2178623369
 20
81.753817419
 10
177.1651818933
 20
81.6890194708
 10
177.1059926475
 20
81.6300285315
 10
177.0409429008
 20
81.5774907305
 10
176.9707451449
 20
81.5319815156
 10
176.8961682575
 20
81.4939993505
 10
176.8180290812
 20
81.4639602548
 10
176.7371834765
 20
81.4421932475
 10
176.6545169472
 20
81.4289367433
 10
176.5709349421
 20
81.4243359408
  0
LWPOLYLINE
  5
2E3
100
AcDbEntity
  8
0
100
AcDbPolyline
 62
7
  6
CONTINUOUS
 90
13
 70
0
 43
0.3500000006
 10
183.1065726929
 20
105.2481465454
 10
182.892288208
 20
104.9624399414
 10
182.2494347534
 20
104.9624399414
 10
181.8208657837
 20
105.2481465454
 10
181.8208657837
 20
105.8910090637
 10
182.2494347534
 20
106.1767247314
 10
182.892288208
 20
106.1767247314
 10
183.1065726929
 20
105.8910090637
 10
183.5351416626
 20
106.3195780334
 10
184.3922977295
 20
106.3195780334
 10
184.8208666992
 20
105.8910090637
 10
184.8208666992
 20
105.2481465454
 10
184.3922977295
 20
104.8195775757
  0
LWPOLYLINE
  5
2E4
100
AcDbEntity
  8
0
100
AcDbPolyline
 62
7
  6
CONTINUOUS
 90
13
 70
0
 43
0.3500000006
 10
183.1065726929
 20
101.1767232056
 10
182.892288208
 20
100.8910075378
 10
182.2494347534
 20
100.8910075378
 10
181.8208657837
 20
101.1767232056
 10
181.8208657837
 20
101.8195766602
 10
182.2494347534
 20
102.1052923279
 10
182.892288208
 20
102.1052923279
 10
183.1065726929
 20
101.8195766602
 10
183.5351416626
 20
102.2481546936
 10
184.3922977295
 20
102.2481546936
 10
184.8208666992
 20
101.8195766602
 10
184.8208666992
 20
101.1767232056
 10
184.3922977295
 20
100.7481542358
  0
LINE
  5
2E5
100
AcDbEntity
  8
26814000
100
AcDbLine
 62
7
  6
CONTINUOUS
 10
162.0249451986
 20
78.9879474308
 11
162.0208625638
 21
78.9838647959
  0
LWPOLYLINE
  5
2E6
100
AcDbEntity
  8
RACCORDO
100
AcDbPolyline
 62
250
  6
CONTINUOUS
 90
15
 70
0
 10
155.4891920746
 20
82.9425390464
 10
155.4955764376
 20
82.9455367513
 10
155.5103664093
 20
82.9484795021
 10
155.533405287
 20
82.95133612
 10
155.5644489692
 20
82.9540763383
 10
155.6031685421
 20
82.956671124
 10
155.6491537643
 20
82.9590929848
 10
155.7019174132
 20
82.9613162607
 10
155.7609004476
 20
82.9633173955
 10
155.8254779309
 20
82.9650751868
 10
155.8949656518
 20
82.9665710106
 10
155.9686273744
 20
82.9677890183
 10
156.0456826382
 20
82.9687163046
 10
156.1253150276
 20
82.9693430447
 10
156.206680822
 20
82.9696625982
  0
LINE
  5
2E7
100
AcDbEntity
  8
26814000
100
AcDbLine
 62
7
  6
CONTINUOUS
 10
162.0249451986
 20
126.5797821611
 11
162.0208625638
 21
126.5838647959
  0
LWPOLYLINE
  5
2E8
100
AcDbEntity
  8
0
100
AcDbPolyline
 62
7
  6
CONTINUOUS
 90
10
 70
0
 43
0.3500000006
 10
167.4922835083
 20
136.4338716431
 10
167.5637237549
 20
136.2910092773
 10
167.5637237549
 20
136.2195871582
 10
167.4208613892
 20
136.0767247925
 10
167.34943927
 20
136.0767247925
 10
167.2779990234
 20
136.1481469116
 10
167.2779990234
 20
136.2195871582
 10
167.34943927
 20
136.3624313965
 10
167.4208613892
 20
136.4338716431
 10
167.4922835083
 20
136.4338716431
  0
LINE
  5
2E9
100
AcDbEntity
  8
RACCORDO
100
AcDbLine
 62
250
  6
CONTINUOUS
 10
177.5208625638
 20
123.441701723
 11
177.3706608021
 21
123.9914913886
  0
LINE
  5
2EA
100
AcDbEntity
  8
RACCORDO
100
AcDbLine
 62
7
  6
CONTINUOUS
 10
177.4928815343
 20
123.6502493624
 11
177.3425665932
 21
124.2004530426
  0
LWPOLYLINE
  5
2EB
100
AcDbEntity
  8
0
100
AcDbPolyline
 62
7
  6
CONTINUOUS
 90
3
 70
0
 43
0.3500000006
 10
184.1780132446
 20
99.8910072327
 10
184.1780132446
 20
98.3910067749
 10
181.8208657837
 20
99.0338692932
  0
LWPOLYLINE
  5
2EC
100
AcDbEntity
  8
RACCORDO
100
AcDbPolyline
 62
7
  6
CONTINUOUS
 90
27
 70
0
 10
177.3425778871
 20
124.2004006593
 10
177.3333274834
 20
124.2317513998
 10
177.3223028515
 20
124.2641658174
 10
177.3095590683
 20
124.2969653467
 10
177.2950015828
 20
124.3300347557
 10
177.2785191133
 20
124.363293798
 10
177.2603154652
 20
124.3961080872
 10
177.240507253
 20
124.4281796492
 10
177.2189728502
 20
124.4596235941
 10
177.1956314572
 20
124.4904347195
 10
177.1704502134
 20
124.5205204853
 10
177.143446862
 20
124.5497299646
 10
177.1146129355
 20
124.5779495101
 10
177.0839597131
 20
124.6050475606
 10
177.0515102562
 20
124.6308871563
 10
177.0172848533
 20
124.655337738
 10
176.9813255478
 20
124.6782565641
 10
176.9436831001
 20
124.6995010447
 10
176.9044047794
 20
124.7189345419
 10
176.8635661188
 20
124.7364099386
 10
176.8212520394
 20
124.7517824585
 10
176.7775399799
 20
124.7649142886
 10
176.7325409858
 20
124.7756609207
 10
176.686380776
 20
124.7838814154
 10
176.6391774915
 20
124.7894418367
 10
176.5910771507
 20
124.7922090349
 10
176.5691690003
 20
124.7925087949
  0
LINE
  5
2ED
100
AcDbEntity
  8
26814000
100
AcDbLine
 62
7
  6
CONTINUOUS
 10
174.7295893085
 20
80.3969550976
 11
174.7208625638
 21
80.3838647959
  0
LINE
  5
2EE
100
AcDbEntity
  8
26814000
100
AcDbLine
 62
7
  6
CONTINUOUS
 10
174.7208625638
 20
125.1838647959
 11
174.7295893085
 21
125.1707744942
  0
LWPOLYLINE
  5
2EF
100
AcDbEntity
  8
RACCORDO
100
AcDbPolyline
 62
250
  6
CONTINUOUS
 90
16
 70
0
 10
177.3525330529
 20
123.4150587645
 10
177.3461486911
 20
123.4291844244
 10
177.3313587204
 20
123.4431372273
 10
177.3083198436
 20
123.4567693405
 10
177.2772761619
 20
123.4699363292
 10
177.2385565894
 20
123.4824986865
 10
177.1925713675
 20
123.4943233117
 10
177.1398077186
 20
123.5052849206
 10
177.080824684
 20
123.5152673729
 10
177.0162472005
 20
123.5241649026
 10
176.9467594792
 20
123.5318832384
 10
176.8730977561
 20
123.5383406031
 10
176.7960424916
 20
123.5434685799
 10
176.7164101015
 20
123.5472128369
 10
176.6350443064
 20
123.5495337028
 10
176.552807193
 20
123.5504065877
  0
LWPOLYLINE
  5
2F0
100
AcDbEntity
  8
RACCORDO
100
AcDbPolyline
 62
250
  6
CONTINUOUS
 90
22
 70
0
 10
177.3706608021
 20
123.9914913886
 10
177.369353617
 20
123.9944835875
 10
177.3680649318
 20
123.9939703232
 10
177.3667947466
 20
123.9899515954
 10
177.3655362744
 20
123.982374871
 10
177.3642963021
 20
123.9712926832
 10
177.3630951907
 20
123.9568626323
 10
177.3619339889
 20
123.9390296686
 10
177.3608116481
 20
123.9178488417
 10
177.3597453827
 20
123.8936429008
 10
177.3587362185
 20
123.8663703605
 10
177.3577831297
 20
123.8360727061
 10
177.3569002542
 20
123.8031971426
 10
177.3560884803
 20
123.7676961995
 10
177.3553469196
 20
123.7296173472
 10
177.3546870458
 20
123.6895502016
 10
177.3541102062
 20
123.6474510655
 10
177.3536150534
 20
123.603363636
 10
177.3532090185
 20
123.5580086205
 10
177.3528945787
 20
123.5116262546
 10
177.3526692568
 20
123.4639763026
 10
177.3469913471
 20
120.0677368321
  0
LINE
  5
2F1
100
AcDbEntity
  8
26814000
100
AcDbLine
 62
7
  6
CONTINUOUS
 10
155.2708625638
 20
122.7375135445
 11
155.3208625638
 21
122.7375135445
  0
LINE
  5
2F2
100
AcDbEntity
  8
26814000
100
AcDbLine
 62
7
  6
CONTINUOUS
 10
177.5208625638
 20
122.7375135445
 11
177.5708625638
 21
122.7375135445
  0
LINE
  5
2F3
100
AcDbEntity
  8
RACCORDO
100
AcDbLine
 62
250
  6
CONTINUOUS
 10
176.552807193
 20
123.5504065925
 11
156.2889179346
 21
123.5504065925
  0
LINE
  5
2F4
100
AcDbEntity
  8
26814000
100
AcDbLine
 62
7
  6
CONTINUOUS
 10
174.7339611425
 20
78.3969633746
 11
174.7208625638
 21
78.3838647959
  0
LWPOLYLINE
  5
2F5
100
AcDbEntity
  8
RACCORDO
100
AcDbPolyline
 62
7
  6
CONTINUOUS
 90
28
 70
0
 10
156.2725561208
 20
124.7925087946
 10
156.2512364372
 20
124.7922249269
 10
156.2034119207
 20
124.7895172395
 10
156.156467865
 20
124.7840468986
 10
156.1105484679
 20
124.7759441051
 10
156.0657714323
 20
124.7653401877
 10
156.0222607942
 20
124.7523732453
 10
155.9801262814
 20
124.7371849225
 10
155.939445781
 20
124.7199109035
 10
155.9003034727
 20
124.7006934314
 10
155.8627742171
 20
124.6796770186
 10
155.8269060121
 20
124.656996576
 10
155.7927493316
 20
124.6327923834
 10
155.7603462857
 20
124.6072050289
 10
155.7297184592
 20
124.5803640734
 10
155.7008885208
 20
124.5524040387
 10
155.6738687235
 20
124.5234552794
 10
155.6486535785
 20
124.4936330643
 10
155.6252597232
 20
124.4630851518
 10
155.6036559532
 20
124.4319048592
 10
155.5837669647
 20
124.4001065154
 10
155.5654805315
 20
124.3675976063
 10
155.5488997033
 20
124.3346543726
 10
155.5342067643
 20
124.3018520231
 10
155.5212973599
 20
124.2692672787
 10
155.5100854377
 20
124.2370161626
 10
155.5006231859
 20
124.2057252608
 10
155.3488435933
 20
123.6502493625
  0
LINE
  5
2F6
100
AcDbEntity
  8
26814000
100
AcDbLine
 62
7
  6
CONTINUOUS
 10
155.2708625638
 20
124.6426625509
 11
155.8066779993
 21
124.6426625509
  0
LINE
  5
2F7
100
AcDbEntity
  8
26814000
100
AcDbLine
 62
7
  6
CONTINUOUS
 10
177.0350273099
 20
124.6426625509
 11
177.5708625638
 21
124.6426625509
  0
LINE
  5
2F8
100
AcDbEntity
  8
26814000
100
AcDbLine
 62
7
  6
CONTINUOUS
 10
155.2708625638
 20
124.7838647959
 11
156.1554358695
 21
124.7838647959
  0
LINE
  5
2F9
100
AcDbEntity
  8
26814000
100
AcDbLine
 62
7
  6
CONTINUOUS
 10
176.686474099
 20
124.7838647959
 11
177.5708625638
 21
124.7838647959
  0
LINE
  5
2FA
100
AcDbEntity
  8
RACCORDO
100
AcDbLine
 62
7
  6
CONTINUOUS
 10
176.569190625
 20
124.7925250608
 11
156.2725345026
 21
124.7925250608
  0
LINE
  5
2FB
100
AcDbEntity
  8
26814000
100
AcDbLine
 62
7
  6
CONTINUOUS
 10
177.2208625638
 20
125.1620476264
 11
155.6208625638
 21
125.1620476264
  0
LINE
  5
2FC
100
AcDbEntity
  8
26814000
100
AcDbLine
 62
7
  6
CONTINUOUS
 10
177.0121358191
 20
125.1707744942
 11
174.7295893085
 21
125.1707744942
  0
LINE
  5
2FD
100
AcDbEntity
  8
26814000
100
AcDbLine
 62
7
  6
CONTINUOUS
 10
158.1121358191
 20
125.1707744942
 11
155.8295893085
 21
125.1707744942
  0
LINE
  5
2FE
100
AcDbEntity
  8
26814000
100
AcDbLine
 62
7
  6
CONTINUOUS
 10
162.3249401217
 20
125.1751379281
 11
170.5167850059
 21
125.1751379281
  0
LINE
  5
2FF
100
AcDbEntity
  8
26814000
100
AcDbLine
 62
7
  6
CONTINUOUS
 10
155.6208625638
 20
125.1838647959
 11
155.8208625638
 21
125.1838647959
  0
LINE
  5
300
100
AcDbEntity
  8
26814000
100
AcDbLine
 62
7
  6
CONTINUOUS
 10
158.1208625638
 20
125.1838647959
 11
162.0208625638
 21
125.1838647959
  0
LINE
  5
301
100
AcDbEntity
  8
26814000
100
AcDbLine
 62
7
  6
CONTINUOUS
 10
170.8208625638
 20
125.1838647959
 11
174.7208625638
 21
125.1838647959
  0
LINE
  5
302
100
AcDbEntity
  8
26814000
100
AcDbLine
 62
7
  6
CONTINUOUS
 10
177.0208625638
 20
125.1838647959
 11
177.2208625638
 21
125.1838647959
  0
LINE
  5
303
100
AcDbEntity
  8
26814000
100
AcDbLine
 62
7
  6
CONTINUOUS
 10
177.0121358191
 20
125.9065145267
 11
174.7295893085
 21
125.9065145267
  0
LINE
  5
304
100
AcDbEntity
  8
26814000
100
AcDbLine
 62
7
  6
CONTINUOUS
 10
158.1121358191
 20
125.9065145267
 11
155.8295893085
 21
125.9065145267
  0
LINE
  5
305
100
AcDbEntity
  8
26814000
100
AcDbLine
 62
7
  6
CONTINUOUS
 10
174.7339611425
 20
127.1707662172
 11
174.7208625638
 21
127.1838647959
  0
LINE
  5
306
100
AcDbEntity
  8
26814000
100
AcDbLine
 62
250
  6
CONTINUOUS
 10
155.8346799096
 20
126.4116960123
 11
158.107045218
 21
126.4116960123
  0
LINE
  5
307
100
AcDbEntity
  8
26814000
100
AcDbLine
 62
250
  6
CONTINUOUS
 10
174.7346799096
 20
126.4116960123
 11
177.007045218
 21
126.4116960123
  0
LINE
  5
308
100
AcDbEntity
  8
26814000
100
AcDbLine
 62
7
  6
CONTINUOUS
 10
162.3249401217
 20
126.5780469661
 11
170.5167850059
 21
126.5780469661
  0
LINE
  5
309
100
AcDbEntity
  8
26814000
100
AcDbLine
 62
7
  6
CONTINUOUS
 10
162.0208625638
 20
126.5838647959
 11
170.8208625638
 21
126.5838647959
  0
LINE
  5
30A
100
AcDbEntity
  8
26814000
100
AcDbLine
 62
250
  6
CONTINUOUS
 10
155.8354071383
 20
126.6282023632
 11
158.1063179892
 21
126.6282023632
  0
LINE
  5
30B
100
AcDbEntity
  8
26814000
100
AcDbLine
 62
250
  6
CONTINUOUS
 10
174.7354071383
 20
126.6282023632
 11
177.0063179892
 21
126.6282023632
  0
LINE
  5
30C
100
AcDbEntity
  8
26814000
100
AcDbLine
 62
250
  6
CONTINUOUS
 10
177.0063179892
 20
126.920770448
 11
174.7354071383
 21
126.920770448
  0
LINE
  5
30D
100
AcDbEntity
  8
26814000
100
AcDbLine
 62
250
  6
CONTINUOUS
 10
158.1063179892
 20
126.920770448
 11
155.8354071383
 21
126.920770448
  0
LINE
  5
30E
100
AcDbEntity
  8
26814000
100
AcDbLine
 62
250
  6
CONTINUOUS
 10
177.0077639851
 20
127.1707662172
 11
174.7339611425
 21
127.1707662172
  0
LINE
  5
30F
100
AcDbEntity
  8
26814000
100
AcDbLine
 62
250
  6
CONTINUOUS
 10
158.1077639851
 20
127.1707662172
 11
155.8339611425
 21
127.1707662172
  0
LINE
  5
310
100
AcDbEntity
  8
26814000
100
AcDbLine
 62
7
  6
CONTINUOUS
 10
155.8208625638
 20
127.1838647959
 11
158.1208625638
 21
127.1838647959
  0
LINE
  5
311
100
AcDbEntity
  8
26814000
100
AcDbLine
 62
7
  6
CONTINUOUS
 10
174.7208625638
 20
127.1838647959
 11
177.0208625638
 21
127.1838647959
  0
LWPOLYLINE
  5
312
100
AcDbEntity
  8
0
100
AcDbPolyline
 62
7
  6
CONTINUOUS
 90
7
 70
0
 43
0.3500000006
 10
165.9922921143
 20
135.9338624268
 10
164.4922825928
 20
135.9338624268
 10
165.9922921143
 20
138.0767254028
 10
165.9922921143
 20
138.5052943726
 10
165.5637231445
 20
138.9338633423
 10
164.9208696899
 20
138.9338633423
 10
164.4922825928
 20
138.2910098877
  0
LWPOLYLINE
  5
313
100
AcDbEntity
  8
0
100
AcDbPolyline
 62
7
  6
CONTINUOUS
 90
7
 70
0
 43
0.3500000006
 10
163.6351446533
 20
135.9338624268
 10
162.1351532593
 20
135.9338624268
 10
163.6351446533
 20
138.0767254028
 10
163.6351446533
 20
138.5052943726
 10
163.2065756836
 20
138.9338633423
 10
162.563722229
 20
138.9338633423
 10
162.1351532593
 20
138.2910098877
  0
LWPOLYLINE
  5
314
100
AcDbEntity
  8
0
100
AcDbPolyline
 62
7
  6
CONTINUOUS
 90
6
 70
0
 43
0.3500000006
 10
168.5637240601
 20
135.9338624268
 10
169.6351464844
 20
135.9338624268
 10
169.8494309692
 20
136.1481469116
 10
169.8494309692
 20
137.2195874634
 10
169.4208619995
 20
137.6481564331
 10
168.9922930298
 20
137.6481564331
  0
LWPOLYLINE
  5
315
100
AcDbEntity
  8
0
100
AcDbPolyline
 62
7
  6
CONTINUOUS
 90
5
 70
0
 43
0.3500000006
 10
121.3949432373
 20
147.7618547974
 10
121.7520810242
 20
147.9761392822
 10
121.7520810242
 20
148.6189927368
 10
121.3949432373
 20
149.047579834
 10
120.5377962341
 20
149.047579834
  0
LINE
  5
316
100
AcDbEntity
  8
26814000
100
AcDbLine
 62
7
  6
CONTINUOUS
 10
119.8805650909
 20
126.4116960123
 11
119.1305650909
 21
125.9786833104
  0
LINE
  5
317
100
AcDbEntity
  8
26814000
100
AcDbLine
 62
7
  6
CONTINUOUS
 10
119.0055650909
 20
78.3838647959
 11
119.7570195237
 21
78.3882366299
  0
LINE
  5
318
100
AcDbEntity
  8
26814000
100
AcDbLine
 62
7
  6
CONTINUOUS
 10
120.0004687688
 20
78.9896529762
 11
127.0055650909
 21
79.0304074344
  0
LINE
  5
319
100
AcDbEntity
  8
26814000
100
AcDbLine
 62
7
  6
CONTINUOUS
 10
116.7541106581
 20
78.3969633746
 11
119.0055650909
 21
78.3838647959
  0
LINE
  5
31A
100
AcDbEntity
  8
28414000
100
AcDbLine
 62
7
  6
CONTINUOUS
 10
113.7038873182
 20
81.1692934389
 11
114.2011482659
 21
81.1170292072
  0
LINE
  5
31B
100
AcDbEntity
  8
RACCORDO
100
AcDbLine
 62
7
  6
CONTINUOUS
 10
106.9716531036
 20
81.4243359408
 11
112.6571011912
 21
80.7765609545
  0
LINE
  5
31C
100
AcDbEntity
  8
26814000
100
AcDbLine
 62
7
  6
CONTINUOUS
 10
119.1305650909
 20
79.5890462815
 11
119.8805650909
 21
79.1560335796
  0
LINE
  5
31D
100
AcDbEntity
  8
26814000
100
AcDbLine
 62
7
  6
CONTINUOUS
 10
117.6555650909
 20
80.925067041
 11
116.5055650909
 21
80.7838647959
  0
LINE
  5
31E
100
AcDbEntity
  8
0
100
AcDbLine
 62
7
  6
CONTINUOUS
 10
130.0055650909
 20
82.1084154452
 11
120.0055650909
 21
81.9338647959
  0
LINE
  5
31F
100
AcDbEntity
  8
21814000
100
AcDbLine
 62
7
  6
CONTINUOUS
 10
130.0055650909
 20
82.1084154452
 11
120.0055650909
 21
81.9338647959
  0
LINE
  5
320
100
AcDbEntity
  8
26814000
100
AcDbLine
 62
7
  6
CONTINUOUS
 10
119.0055650909
 20
80.3838647959
 11
129.0142916264
 21
80.4712096291
  0
LINE
  5
321
100
AcDbEntity
  8
26814000
100
AcDbLine
 62
250
  6
CONTINUOUS
 10
120.0055650909
 20
80.4804710529
 11
129.4234236522
 21
80.5626594594
  0
LINE
  5
322
100
AcDbEntity
  8
26814000
100
AcDbLine
 62
250
  6
CONTINUOUS
 10
119.0055650909
 20
80.7338781234
 11
120.0055650909
 21
80.7426049911
  0
LINE
  5
323
100
AcDbEntity
  8
26814000
100
AcDbLine
 62
250
  6
CONTINUOUS
 10
120.0055650909
 20
81.5838647959
 11
129.7108008128
 21
81.5838647959
  0
LINE
  5
324
100
AcDbEntity
  8
26814000
100
AcDbLine
 62
7
  6
CONTINUOUS
 10
120.0055650909
 20
81.8838647959
 11
130.0055650909
 21
81.8838647959
  0
LINE
  5
325
100
AcDbEntity
  8
26814000
100
AcDbLine
 62
7
  6
CONTINUOUS
 10
116.5055650909
 20
80.4056819654
 11
119.0055650909
 21
80.3838647959
  0
LINE
  5
326
100
AcDbEntity
  8
26814000
100
AcDbLine
 62
250
  6
CONTINUOUS
 10
116.5055650909
 20
80.7556952928
 11
119.0055650909
 21
80.7338781234
  0
LINE
  5
327
100
AcDbEntity
  8
26814000
100
AcDbLine
 62
250
  6
CONTINUOUS
 10
120.0055650909
 20
81.2959511319
 11
129.921398766
 21
81.1228696112
  0
LINE
  5
328
100
AcDbEntity
  8
26814000
100
AcDbLine
 62
250
  6
CONTINUOUS
 10
120.0055650909
 20
81.5081745561
 11
129.7108008128
 21
81.3387690364
  0
LINE
  5
329
100
AcDbEntity
  8
RACCORDO
100
AcDbLine
 62
250
  6
CONTINUOUS
 10
105.7461591102
 20
82.96657049
 11
105.6803455132
 21
82.9687157289
  0
LINE
  5
32A
100
AcDbEntity
  8
RACCORDO
100
AcDbLine
 62
250
  6
CONTINUOUS
 10
105.8988080529
 20
82.9613158673
 11
105.7461591102
 21
82.96657049
  0
LINE
  5
32B
100
AcDbEntity
  8
RACCORDO
100
AcDbLine
 62
250
  6
CONTINUOUS
 10
106.1791020611
 20
82.9513359481
 11
105.8988080529
 21
82.9613158673
  0
LINE
  5
32C
100
AcDbEntity
  8
RACCORDO
100
AcDbLine
 62
250
  6
CONTINUOUS
 10
106.4211014204
 20
82.9425390464
 11
106.1791020611
 21
82.9513359481
  0
LINE
  5
32D
100
AcDbEntity
  8
28414000
100
AcDbLine
 62
7
  6
CONTINUOUS
 10
112.8243467325
 20
82.3677959871
 11
113.4206946239
 21
82.305117298
  0
LINE
  5
32E
100
AcDbEntity
  8
RACCORDO
100
AcDbLine
 62
250
  6
CONTINUOUS
 10
107.041388836
 20
82.2213824143
 11
112.740708043
 21
81.5720270135
  0
LINE
  5
32F
100
AcDbEntity
  8
28414000
100
AcDbLine
 62
7
  6
CONTINUOUS
 10
113.568176048
 20
83.4127587189
 11
112.9497808884
 21
83.5612222615
  0
LWPOLYLINE
  5
330
100
AcDbEntity
  8
RACCORDO
100
AcDbPolyline
 62
250
  6
CONTINUOUS
 90
22
 70
0
 10
106.4211014204
 20
82.9425390464
 10
106.421071985
 20
82.8925740056
 10
106.4245211454
 20
82.8431576849
 10
106.4314489015
 20
82.7942900842
 10
106.4419233522
 20
82.7457087256
 10
106.4558763987
 20
82.697676087
 10
106.4731037448
 20
82.6509796024
 10
106.4936583228
 20
82.6056568349
 10
106.5174872005
 20
82.5616702214
 10
106.5442272847
 20
82.5196945062
 10
106.5739179256
 20
82.4797670968
 10
106.606519773
 20
82.4418505857
 10
106.6415516835
 20
82.4065074952
 10
106.6790593293
 20
82.373769678
 10
106.7189970381
 20
82.3436052813
 10
106.7607466498
 20
82.3164812686
 10
106.8043491156
 20
82.292447249
 10
106.8497634844
 20
82.2714536134
 10
106.8962487421
 20
82.2538184984
 10
106.9435578844
 20
82.2396479497
 10
106.9919379157
 20
82.2288359217
 10
107.041388836
 20
82.2213824143
  0
LINE
  5
331
100
AcDbEntity
  8
0
100
AcDbLine
 62
7
  6
CONTINUOUS
 10
140.8212722567
 20
83.3616744979
 11
130.0055650909
 21
83.1728856271
  0
LINE
  5
332
100
AcDbEntity
  8
21814000
100
AcDbLine
 62
7
  6
CONTINUOUS
 10
140.8212722567
 20
83.3616744979
 11
130.0055650909
 21
83.1728856271
  0
LINE
  5
333
100
AcDbEntity
  8
0
100
AcDbLine
 62
250
  6
CONTINUOUS
 10
140.8212722567
 20
83.9549981968
 11
120.0055650909
 21
83.6980783583
  0
LINE
  5
334
100
AcDbEntity
  8
21814000
100
AcDbLine
 62
250
  6
CONTINUOUS
 10
140.8212722567
 20
83.9549981968
 11
120.0055650909
 21
83.6980783583
  0
LINE
  5
335
100
AcDbEntity
  8
26814000
100
AcDbLine
 62
7
  6
CONTINUOUS
 10
117.4625656421
 20
84.402070419
 11
113.0462597513
 21
84.4791573251
  0
LWPOLYLINE
  5
336
100
AcDbEntity
  8
RACCORDO
100
AcDbPolyline
 62
250
  6
CONTINUOUS
 90
4
 70
0
 10
105.6803455132
 20
82.9687157289
 10
105.6593886015
 20
82.9693424519
 10
105.646722831
 20
82.9696619956
 10
105.6424823961
 20
82.9696709744
  0
LWPOLYLINE
  5
337
100
AcDbEntity
  8
RACCORDO
100
AcDbPolyline
 62
250
  6
CONTINUOUS
 90
13
 70
0
 10
110.6749346546
 20
123.4150587645
 10
110.1103220235
 20
120.0677368321
 10
109.5838331244
 20
116.7150861702
 10
109.0954679574
 20
113.357106779
 10
108.6451732254
 20
109.9933636666
 10
108.2330022254
 20
106.6242918248
 10
107.8591148491
 20
103.2511962285
 10
107.5235260621
 20
99.8740746364
 10
107.2262208987
 20
96.4929292897
 10
106.9673143534
 20
93.1090718875
 10
106.7468447577
 20
89.7229396627
 10
106.56477378
 20
86.3340953823
 10
106.4211014204
 20
82.9425390464
  0
LINE
  5
338
100
AcDbEntity
  8
INCISIONI_LASER
100
AcDbLine
 62
250
  6
CONTINUOUS
 10
138.7027169903
 20
88.8267218945
 11
140.002518994
 21
89.1052933452
  0
LINE
  5
339
100
AcDbEntity
  8
0
100
AcDbLine
 62
250
  6
CONTINUOUS
 10
141.7055650909
 20
85.0043700124
 11
141.7006657171
 21
85.0043700121
  0
LINE
  5
33A
100
AcDbEntity
  8
21814000
100
AcDbLine
 62
250
  6
CONTINUOUS
 10
141.7055650909
 20
85.0043700124
 11
141.7006657171
 21
85.0043700121
  0
LINE
  5
33B
100
AcDbEntity
  8
0
100
AcDbLine
 62
250
  6
CONTINUOUS
 10
120.0055650909
 20
85.1122919207
 11
141.7014131222
 21
85.1122919207
  0
LINE
  5
33C
100
AcDbEntity
  8
21814000
100
AcDbLine
 62
250
  6
CONTINUOUS
 10
120.0055650909
 20
85.1122919207
 11
141.7014131222
 21
85.1122919207
  0
LINE
  5
33D
100
AcDbEntity
  8
0
100
AcDbLine
 62
250
  6
CONTINUOUS
 10
141.7000444793
 20
85.0029114536
 11
141.7006473648
 21
85.0029054718
  0
LINE
  5
33E
100
AcDbEntity
  8
21814000
100
AcDbLine
 62
250
  6
CONTINUOUS
 10
141.7000444793
 20
85.0029114536
 11
141.7006473648
 21
85.0029054718
  0
LINE
  5
33F
100
AcDbEntity
  8
26814000
100
AcDbLine
 62
250
  6
CONTINUOUS
 10
117.3395361034
 20
85.4040656028
 11
113.1511555367
 21
85.4771740575
  0
LWPOLYLINE
  5
340
100
AcDbEntity
  8
RACCORDO
100
AcDbPolyline
 62
250
  6
CONTINUOUS
 90
16
 70
0
 10
111.4316041967
 20
123.9914913886
 10
111.4397323848
 20
124.0747041605
 10
111.4479996733
 20
124.156981687
 10
111.4563155126
 20
124.2374227899
 10
111.4645888207
 20
124.3151463999
 10
111.4727289802
 20
124.3893011989
 10
111.4806468306
 20
124.4590749464
 10
111.4882556471
 20
124.5237033924
 10
111.4954720881
 20
124.5824786303
 10
111.5022171077
 20
124.634756849
 10
111.5084168255
 20
124.6799654154
 10
111.5140033326
 20
124.717609123
 10
111.5189154345
 20
124.7472756129
 10
111.5230993257
 20
124.7686399178
 10
111.5265091779
 20
124.7814680107
 10
111.52910764
 20
124.7856193581
  0
LWPOLYLINE
  5
341
100
AcDbEntity
  8
RACCORDO
100
AcDbPolyline
 62
250
  6
CONTINUOUS
 90
16
 70
0
 10
107.041388836
 20
82.2213824143
 10
107.0320383967
 20
82.138297179
 10
107.0230184899
 20
82.0560980024
 10
107.0144279109
 20
81.9756852141
 10
107.0063607525
 20
81.8979395776
 10
106.9989053745
 20
81.8237126427
 10
106.9921434359
 20
81.753817419
 10
106.9861490004
 20
81.6890194708
 10
106.9809877251
 20
81.6300285315
 10
106.9767161416
 20
81.5774907305
 10
106.9733810368
 20
81.5319815156
 10
106.9710189401
 20
81.4939993505
 10
106.9696557234
 20
81.4639602548
 10
106.969306318
 20
81.4421932475
 10
106.9699745512
 20
81.4289367433
 10
106.9716531036
 20
81.4243359408
  0
LINE
  5
342
100
AcDbEntity
  8
INCISIONI_LASER
100
AcDbLine
 62
250
  6
CONTINUOUS
 10
125.5055650909
 20
118.7838647959
 11
122.606447392
 21
117.7757997959
  0
LINE
  5
343
100
AcDbEntity
  8
INCISIONI_LASER
100
AcDbLine
 62
250
  6
CONTINUOUS
 10
124.8911133016
 20
117.9484487959
 11
125.5055650909
 21
118.1574387959
  0
LINE
  5
344
100
AcDbEntity
  8
INCISIONI_LASER
100
AcDbLine
 62
250
  6
CONTINUOUS
 10
123.1606025524
 20
117.3903137959
 11
124.4093270919
 21
117.7917337959
  0
LINE
  5
345
100
AcDbEntity
  8
INCISIONI_LASER
100
AcDbLine
 62
250
  6
CONTINUOUS
 10
140.002518994
 20
86.7838647959
 11
138.7027169903
 21
86.7838647959
  0
LINE
  5
346
100
AcDbEntity
  8
RINTRACCIABILITA
100
AcDbLine
 62
7
  6
CONTINUOUS
 10
130.0040420425
 20
86.9338647959
 11
129.0041943473
 21
86.9338647959
  0
LINE
  5
347
100
AcDbEntity
  8
INCISIONI_LASER
100
AcDbLine
 62
250
  6
CONTINUOUS
 10
133.5478070093
 20
87.3011057959
 11
134.3521589399
 21
87.3011057959
  0
LINE
  5
348
100
AcDbEntity
  8
INCISIONI_LASER
100
AcDbLine
 62
250
  6
CONTINUOUS
 10
140.002518994
 20
87.4338647959
 11
138.7027169903
 21
87.4338647959
  0
LINE
  5
349
100
AcDbEntity
  8
INCISIONI_LASER
100
AcDbLine
 62
250
  6
CONTINUOUS
 10
139.0740889693
 20
87.8052933452
 11
138.8884029798
 21
87.8052933452
  0
LINE
  5
34A
100
AcDbEntity
  8
INCISIONI_LASER
100
AcDbLine
 62
250
  6
CONTINUOUS
 10
133.0364678038
 20
88.2321407959
 11
132.174662378
 21
88.2321407959
  0
LINE
  5
34B
100
AcDbEntity
  8
INCISIONI_LASER
100
AcDbLine
 62
250
  6
CONTINUOUS
 10
139.8168329852
 20
88.4552933452
 11
139.6311469764
 21
88.4552933452
  0
LINE
  5
34C
100
AcDbEntity
  8
28414000
100
AcDbLine
 62
7
  6
CONTINUOUS
 10
113.4206946239
 20
82.305117298
 11
113.7038873182
 21
81.1692934389
  0
LWPOLYLINE
  5
34D
100
AcDbEntity
  8
0
100
AcDbPolyline
 62
7
  6
CONTINUOUS
 90
3
 70
0
 43
0.3500000006
 10
125.7520822449
 20
146.3332855225
 10
125.680651062
 20
146.1190010376
 10
125.53779776
 20
145.8332944336
  0
LINE
  5
34E
100
AcDbEntity
  8
INCISIONI_LASER
100
AcDbLine
 62
250
  6
CONTINUOUS
 10
132.3757501108
 20
88.7896117959
 11
132.835380071
 21
88.7896117959
  0
LINE
  5
34F
100
AcDbEntity
  8
INCISIONI_LASER
100
AcDbLine
 62
250
  6
CONTINUOUS
 10
122.6063104338
 20
89.6128587959
 11
125.5055650909
 21
89.6128507959
  0
LINE
  5
350
100
AcDbEntity
  8
0
100
AcDbLine
 62
250
  6
CONTINUOUS
 10
135.7433574825
 20
89.6591678968
 11
135.6744528422
 21
89.6591678968
  0
LINE
  5
351
100
AcDbEntity
  8
INCISIONI_LASER
100
AcDbLine
 62
250
  6
CONTINUOUS
 10
133.0364678038
 20
89.7378877959
 11
132.174662378
 21
89.7378877959
  0
LINE
  5
352
100
AcDbEntity
  8
INCISIONI_LASER
100
AcDbLine
 62
250
  6
CONTINUOUS
 10
125.505558093
 20
90.1928727959
 11
122.6063104338
 21
90.1928797959
  0
LINE
  5
353
100
AcDbEntity
  8
0
100
AcDbLine
 62
250
  6
CONTINUOUS
 10
137.4777619939
 20
87.7372222639
 11
136.2914399343
 21
87.8232547421
  0
LINE
  5
354
100
AcDbEntity
  8
0
100
AcDbLine
 62
250
  6
CONTINUOUS
 10
137.2768593078
 20
88.9375248122
 11
135.839325873
 21
89.052456231
  0
LINE
  5
355
100
AcDbEntity
  8
0
100
AcDbLine
 62
250
  6
CONTINUOUS
 10
136.2907757932
 20
89.6129960262
 11
135.7433574825
 21
89.6591678968
  0
LINE
  5
356
100
AcDbEntity
  8
0
100
AcDbLine
 62
250
  6
CONTINUOUS
 10
137.1905209634
 20
89.5364304423
 11
136.2907757932
 21
89.6129960262
  0
LINE
  5
357
100
AcDbEntity
  8
INCISIONI_LASER
100
AcDbLine
 62
250
  6
CONTINUOUS
 10
122.6063104338
 20
88.6461507959
 11
124.6025992059
 21
88.0050257959
  0
LINE
  5
358
100
AcDbEntity
  8
INCISIONI_LASER
100
AcDbLine
 62
250
  6
CONTINUOUS
 10
125.505558093
 20
88.2950407959
 11
122.6063104338
 21
89.2261797959
  0
LWPOLYLINE
  5
359
100
AcDbEntity
  8
26814000
100
AcDbPolyline
 62
7
  6
CONTINUOUS
 90
6
 70
0
 10
129.9240366885
 20
124.4476274564
 10
129.9266247079
 20
124.450412293
 10
129.9291628242
 20
124.4532144902
 10
129.9316510375
 20
124.4560340482
 10
129.9340893476
 20
124.4588709669
 10
129.9364777547
 20
124.4617252463
  0
LINE
  5
35A
100
AcDbEntity
  8
26814000
100
AcDbLine
 62
7
  6
CONTINUOUS
 10
129.9240366885
 20
124.4476274564
 11
129.9091449502
 21
124.4320648506
  0
LINE
  5
35B
100
AcDbEntity
  8
26814000
100
AcDbLine
 62
7
  6
CONTINUOUS
 10
129.9091449502
 20
124.4320648506
 11
129.8424087307
 21
124.3634507541
  0
LINE
  5
35C
100
AcDbEntity
  8
26814000
100
AcDbLine
 62
7
  6
CONTINUOUS
 10
129.8424087307
 20
124.3634507541
 11
129.7702480733
 21
124.2895585967
  0
LINE
  5
35D
100
AcDbEntity
  8
26814000
100
AcDbLine
 62
7
  6
CONTINUOUS
 10
129.7702480733
 20
124.2895585967
 11
129.7108008128
 21
124.2289605554
  0
LINE
  5
35E
100
AcDbEntity
  8
INCISIONI_LASER
100
AcDbLine
 62
250
  6
CONTINUOUS
 10
127.2772416855
 20
117.1695790169
 11
127.5486289008
 21
117.3052932379
  0
LINE
  5
35F
100
AcDbEntity
  8
INCISIONI_LASER
100
AcDbLine
 62
250
  6
CONTINUOUS
 10
128.6341778472
 20
116.4910074589
 11
128.3627906036
 21
116.3552932379
  0
LINE
  5
360
100
AcDbEntity
  8
INCISIONI_LASER
100
AcDbLine
 62
250
  6
CONTINUOUS
 10
127.2772416855
 20
115.6767219064
 11
127.5486289008
 21
115.8124361274
  0
LINE
  5
361
100
AcDbEntity
  8
INCISIONI_LASER
100
AcDbLine
 62
250
  6
CONTINUOUS
 10
122.606447392
 20
114.0000037959
 11
124.9038614176
 21
115.1126187959
  0
LINE
  5
362
100
AcDbEntity
  8
INCISIONI_LASER
100
AcDbLine
 62
250
  6
CONTINUOUS
 10
125.5055650909
 20
114.8114107959
 11
123.079200354
 21
113.6586347959
  0
LWPOLYLINE
  5
363
100
AcDbEntity
  8
0
100
AcDbPolyline
 62
250
  6
CONTINUOUS
 90
81
 70
0
 10
130.0055650909
 20
92.6873511104
 10
130.0809635196
 20
92.6892696573
 10
130.1562890813
 20
92.6949657644
 10
130.2313425165
 20
92.7043501315
 10
130.3059245655
 20
92.717333458
 10
130.3798359686
 20
92.7338264437
 10
130.4528774663
 20
92.7537397882
 10
130.5249203486
 20
92.7769994887
 10
130.5957924621
 20
92.8034847618
 10
130.6653938195
 20
92.8330850857
 10
130.7336244334
 20
92.8656899386
 10
130.8003843165
 20
92.9011887989
 10
130.8655734815
 20
92.9394711447
 10
130.9290445538
 20
92.980383528
 10
130.9908086973
 20
93.0238287096
 10
131.0508266258
 20
93.0696714245
 10
131.1090590527
 20
93.1177764077
 10
131.1654666919
 20
93.1680083944
 10
131.2200102569
 20
93.2202321196
 10
131.2830134864
 20
93.2854081164
 10
131.3432820341
 20
93.3530937478
 10
131.4008268406
 20
93.4231206613
 10
131.4556588465
 20
93.4953205043
 10
131.5077889924
 20
93.5695249243
 10
131.5623518149
 20
93.653801179
 10
131.613638609
 20
93.7401653043
 10
131.6616698802
 20
93.8284556886
 10
131.7064661341
 20
93.9185107205
 10
131.7480478761
 20
94.0101687881
 10
131.7864356117
 20
94.10326828
 10
131.8216498463
 20
94.1976475845
 10
131.8537110855
 20
94.29314509
 10
131.8826398347
 20
94.3895991848
 10
131.9114911981
 20
94.4991771405
 10
131.9364196838
 20
94.6096371945
 10
131.9574487254
 20
94.7208533327
 10
131.9746017567
 20
94.8326995411
 10
131.9879022113
 20
94.9450498057
 10
131.9973735228
 20
95.0577781123
 10
132.003039125
 20
95.1707584471
 10
132.0049224516
 20
95.2838647959
 10
132.003039125
 20
95.3969711447
 10
131.9973735228
 20
95.5099514795
 10
131.9879022113
 20
95.6226797862
 10
131.9746017567
 20
95.7350300507
 10
131.9574487254
 20
95.8468762592
 10
131.9364196838
 20
95.9580923974
 10
131.9114911981
 20
96.0685524513
 10
131.8826398347
 20
96.178130407
 10
131.8537110855
 20
96.2745845019
 10
131.8216498463
 20
96.3700820074
 10
131.7864356117
 20
96.4644613119
 10
131.7480478761
 20
96.5575608037
 10
131.7064661341
 20
96.6492188714
 10
131.6616698802
 20
96.7392739032
 10
131.613638609
 20
96.8275642876
 10
131.5623518149
 20
96.9139284129
 10
131.5077889924
 20
96.9982046675
 10
131.4556588465
 20
97.0724090875
 10
131.4008268406
 20
97.1446089305
 10
131.3432820341
 20
97.2146358441
 10
131.2830134864
 20
97.2823214755
 10
131.2200102569
 20
97.3474974722
 10
131.1654666919
 20
97.3997211974
 10
131.1090590527
 20
97.4499531841
 10
131.0508266258
 20
97.4980581674
 10
130.9908086973
 20
97.5439008822
 10
130.9290445538
 20
97.5873460638
 10
130.8655734815
 20
97.6282584471
 10
130.8003843165
 20
97.6665407929
 10
130.7336244334
 20
97.7020396532
 10
130.6653938195
 20
97.7346445062
 10
130.5957924621
 20
97.76424483
 10
130.5249203486
 20
97.7907301031
 10
130.4528774663
 20
97.8139898036
 10
130.3798359686
 20
97.8339031481
 10
130.3059245655
 20
97.8503961338
 10
130.2313425165
 20
97.8633794603
 10
130.1562890813
 20
97.8727638274
 10
130.0809635196
 20
97.8784599346
 10
130.0055650909
 20
97.8803784815
  0
LINE
  5
364
100
AcDbEntity
  8
INCISIONI_LASER
100
AcDbLine
 62
250
  6
CONTINUOUS
 10
122.6063104338
 20
90.7728797959
 11
125.505558093
 21
90.7728797959
  0
LINE
  5
365
100
AcDbEntity
  8
INCISIONI_LASER
100
AcDbLine
 62
250
  6
CONTINUOUS
 10
139.0740889693
 20
91.2410076973
 11
138.8884029798
 21
91.2410076973
  0
LINE
  5
366
100
AcDbEntity
  8
INCISIONI_LASER
100
AcDbLine
 62
250
  6
CONTINUOUS
 10
134.3521589399
 20
91.2666237959
 11
133.5478070093
 21
91.2666237959
  0
LINE
  5
367
100
AcDbEntity
  8
INCISIONI_LASER
100
AcDbLine
 62
250
  6
CONTINUOUS
 10
125.505558093
 20
91.3529017959
 11
123.593698597
 21
91.3529017959
  0
LINE
  5
368
100
AcDbEntity
  8
RINTRACCIABILITA
100
AcDbLine
 62
7
  6
CONTINUOUS
 10
129.0041943473
 20
91.4338647959
 11
130.0040420425
 21
91.4338647959
  0
LINE
  5
369
100
AcDbEntity
  8
INCISIONI_LASER
100
AcDbLine
 62
250
  6
CONTINUOUS
 10
139.0740889693
 20
92.2624364016
 11
138.8884029798
 21
92.2624364016
  0
LINE
  5
36A
100
AcDbEntity
  8
INCISIONI_LASER
100
AcDbLine
 62
250
  6
CONTINUOUS
 10
122.6063104338
 20
92.7328527959
 11
124.4944041707
 21
92.1912847959
  0
LINE
  5
36B
100
AcDbEntity
  8
26814000
100
AcDbLine
 62
7
  6
CONTINUOUS
 10
129.7702480733
 20
81.2781709951
 11
129.7256855313
 21
81.3235480493
  0
LINE
  5
36C
100
AcDbEntity
  8
26814000
100
AcDbLine
 62
7
  6
CONTINUOUS
 10
129.7256855313
 20
81.3235480493
 11
129.7108008128
 21
81.3387690364
  0
LINE
  5
36D
100
AcDbEntity
  8
26814000
100
AcDbLine
 62
7
  6
CONTINUOUS
 10
129.9091449502
 20
81.1356647412
 11
129.8699527693
 21
81.1759403555
  0
LINE
  5
36E
100
AcDbEntity
  8
26814000
100
AcDbLine
 62
7
  6
CONTINUOUS
 10
129.8699527693
 20
81.1759403555
 11
129.7702480733
 21
81.2781709951
  0
LWPOLYLINE
  5
36F
100
AcDbEntity
  8
26814000
100
AcDbPolyline
 62
7
  6
CONTINUOUS
 90
7
 70
0
 10
129.9091449502
 20
81.1356647412
 10
129.9240366885
 20
81.1201021354
 10
129.9266247079
 20
81.1173172989
 10
129.9291628242
 20
81.1145151016
 10
129.9316510375
 20
81.1116955436
 10
129.9340893476
 20
81.1088586249
 10
129.9364777547
 20
81.1060043455
  0
LINE
  5
370
100
AcDbEntity
  8
26814000
100
AcDbLine
 62
7
  6
CONTINUOUS
 10
116.5055650909
 20
126.920770448
 11
116.5055650909
 21
126.6282023632
  0
LINE
  5
371
100
AcDbEntity
  8
26814000
100
AcDbLine
 62
7
  6
CONTINUOUS
 10
116.5055650909
 20
78.9395272286
 11
116.5055650909
 21
78.6469591439
  0
LINE
  5
372
100
AcDbEntity
  8
26814000
100
AcDbLine
 62
7
  6
CONTINUOUS
 10
116.5055650909
 20
80.4056819654
 11
116.5055650909
 21
80.7838647959
  0
LINE
  5
373
100
AcDbEntity
  8
26814000
100
AcDbLine
 62
7
  6
CONTINUOUS
 10
116.5055650909
 20
124.7838647959
 11
116.5055650909
 21
125.1620476264
  0
LINE
  5
374
100
AcDbEntity
  8
RACCORDO
100
AcDbLine
 62
7
  6
CONTINUOUS
 10
112.6571011912
 20
80.7765609545
 11
117.224995036
 21
124.2371677821
  0
LINE
  5
375
100
AcDbEntity
  8
28414000
100
AcDbLine
 62
7
  6
CONTINUOUS
 10
114.2011482659
 20
81.1170292072
 11
114.3292525795
 21
82.3358603353
  0
LINE
  5
376
100
AcDbEntity
  8
26814000
100
AcDbLine
 62
7
  6
CONTINUOUS
 10
117.6555650909
 20
122.7375135445
 11
115.2055650909
 21
102.7838647959
  0
LINE
  5
377
100
AcDbEntity
  8
INCISIONI_LASER
100
AcDbLine
 62
7
  6
CONTINUOUS
 10
122.6928199186
 20
113.0761897959
 11
123.2752649186
 21
113.6586347959
  0
LINE
  5
378
100
AcDbEntity
  8
INCISIONI_LASER
100
AcDbLine
 62
7
  6
CONTINUOUS
 10
123.4527307818
 20
113.8361006591
 11
124.5652747076
 21
114.9486445849
  0
LINE
  5
379
100
AcDbEntity
  8
INCISIONI_LASER
100
AcDbLine
 62
7
  6
CONTINUOUS
 10
124.7292489186
 20
115.1126187959
 11
125.3116929186
 21
115.6950627959
  0
LINE
  5
37A
100
AcDbEntity
  8
INCISIONI_LASER
100
AcDbLine
 62
250
  6
CONTINUOUS
 10
127.0058544701
 20
116.8981505749
 11
127.2772416855
 21
117.1695790169
  0
LINE
  5
37B
100
AcDbEntity
  8
INCISIONI_LASER
100
AcDbLine
 62
250
  6
CONTINUOUS
 10
128.6341778472
 20
114.9981505749
 11
128.3627906036
 21
114.8624361274
  0
LINE
  5
37C
100
AcDbEntity
  8
INCISIONI_LASER
100
AcDbLine
 62
250
  6
CONTINUOUS
 10
125.5055650909
 20
112.7589387959
 11
122.606447392
 21
111.7507647959
  0
LINE
  5
37D
100
AcDbEntity
  8
INCISIONI_LASER
100
AcDbLine
 62
250
  6
CONTINUOUS
 10
124.8911133016
 20
111.9234137959
 11
125.5055650909
 21
112.1322957959
  0
LINE
  5
37E
100
AcDbEntity
  8
INCISIONI_LASER
100
AcDbLine
 62
250
  6
CONTINUOUS
 10
123.1604386024
 20
111.3653357959
 11
124.4093270919
 21
111.7668077959
  0
LINE
  5
37F
100
AcDbEntity
  8
INCISIONI_LASER
100
AcDbLine
 62
250
  6
CONTINUOUS
 10
123.593698597
 20
93.0296597959
 11
125.505558093
 21
93.0296677959
  0
LINE
  5
380
100
AcDbEntity
  8
INCISIONI_LASER
100
AcDbLine
 62
250
  6
CONTINUOUS
 10
139.0740889693
 20
93.2838647959
 11
138.8884029798
 21
93.2838647959
  0
LINE
  5
381
100
AcDbEntity
  8
0
100
AcDbLine
 62
250
  6
CONTINUOUS
 10
133.0036260781
 20
93.2853067959
 11
138.0021431335
 21
93.2853067959
  0
LINE
  5
382
100
AcDbEntity
  8
INCISIONI_LASER
100
AcDbLine
 62
250
  6
CONTINUOUS
 10
125.505558093
 20
93.6096887959
 11
122.6063104338
 21
93.6096887959
  0
LINE
  5
383
100
AcDbEntity
  8
INCISIONI_LASER
100
AcDbLine
 62
250
  6
CONTINUOUS
 10
139.3526179922
 20
93.6552931902
 11
139.8168329852
 21
93.6552931902
  0
LINE
  5
384
100
AcDbEntity
  8
0
100
AcDbLine
 62
250
  6
CONTINUOUS
 10
137.4466183904
 20
93.8406557959
 11
135.7805610036
 21
93.8406557959
  0
LINE
  5
385
100
AcDbEntity
  8
0
100
AcDbLine
 62
250
  6
CONTINUOUS
 10
135.2250362605
 20
93.8406557959
 11
133.5589788736
 21
93.8406557959
  0
LINE
  5
386
100
AcDbEntity
  8
INCISIONI_LASER
100
AcDbLine
 62
250
  6
CONTINUOUS
 10
139.8168329852
 20
94.3052931902
 11
139.4454609869
 21
94.3052931902
  0
LINE
  5
387
100
AcDbEntity
  8
INTF_2
100
AcDbLine
 62
7
  6
CONTINUOUS
 10
138.0021420909
 20
94.3963497959
 11
137.4464480909
 21
94.3963497959
  0
LINE
  5
388
100
AcDbEntity
  8
0
100
AcDbLine
 62
250
  6
CONTINUOUS
 10
138.0021431335
 20
94.3963497959
 11
137.4466183904
 21
94.3963497959
  0
LINE
  5
389
100
AcDbEntity
  8
0
100
AcDbLine
 62
250
  6
CONTINUOUS
 10
135.7805610036
 20
94.3963497959
 11
135.2250362605
 21
94.3963497959
  0
LINE
  5
38A
100
AcDbEntity
  8
0
100
AcDbLine
 62
250
  6
CONTINUOUS
 10
133.5589788736
 20
94.3963497959
 11
133.0036260781
 21
94.3963497959
  0
LWPOLYLINE
  5
38B
100
AcDbEntity
  8
0
100
AcDbPolyline
 62
250
  6
CONTINUOUS
 90
22
 70
0
 10
141.8049891197
 20
90.971194312
 10
141.9537989084
 20
90.9450710997
 10
142.0993342404
 20
90.9092819548
 10
142.2415951157
 20
90.8638268774
 10
142.3812697244
 20
90.8083954529
 10
142.5176698764
 20
90.7432980959
 10
142.6487310017
 20
90.6694660501
 10
142.7743150249
 20
90.5867912117
 10
142.8945600213
 20
90.4953816846
 10
143.0078156461
 20
90.3964930242
 10
143.1139912751
 20
90.2900173713
 10
143.2131775325
 20
90.1760625851
 10
143.3039959465
 20
90.0562077986
 10
143.3863287663
 20
89.9303716387
 10
143.4602937426
 20
89.7986354784
 10
143.5248656564
 20
89.6628225698
 10
143.5799138582
 20
89.5228782465
 10
143.6255689974
 20
89.3788571747
 10
143.6611978033
 20
89.2327466058
 10
143.6865891855
 20
89.0852089566
 10
143.7019542342
 20
88.9355818101
 10
143.7072929496
 20
88.7838651664
  0
LWPOLYLINE
  5
38C
100
AcDbEntity
  8
21814000
100
AcDbPolyline
 62
250
  6
CONTINUOUS
 90
22
 70
0
 10
141.8049891197
 20
90.971194312
 10
141.9537989084
 20
90.9450710997
 10
142.0993342404
 20
90.9092819548
 10
142.2415951157
 20
90.8638268774
 10
142.3812697244
 20
90.8083954529
 10
142.5176698764
 20
90.7432980959
 10
142.6487310017
 20
90.6694660501
 10
142.7743150249
 20
90.5867912117
 10
142.8945600213
 20
90.4953816846
 10
143.0078156461
 20
90.3964930242
 10
143.1139912751
 20
90.2900173713
 10
143.2131775325
 20
90.1760625851
 10
143.3039959465
 20
90.0562077986
 10
143.3863287663
 20
89.9303716387
 10
143.4602937426
 20
89.7986354784
 10
143.5248656564
 20
89.6628225698
 10
143.5799138582
 20
89.5228782465
 10
143.6255689974
 20
89.3788571747
 10
143.6611978033
 20
89.2327466058
 10
143.6865891855
 20
89.0852089566
 10
143.7019542342
 20
88.9355818101
 10
143.7072929496
 20
88.7838651664
  0
LINE
  5
38D
100
AcDbEntity
  8
INCISIONI_LASER
100
AcDbLine
 62
250
  6
CONTINUOUS
 10
140.002518994
 20
89.6624360917
 11
138.7027169903
 21
89.9410076973
  0
LINE
  5
38E
100
AcDbEntity
  8
INCISIONI_LASER
100
AcDbLine
 62
250
  6
CONTINUOUS
 10
125.5055500955
 20
92.4812847959
 11
123.593698597
 21
93.0296597959
  0
LINE
  5
38F
100
AcDbEntity
  8
INCISIONI_LASER
100
AcDbLine
 62
250
  6
CONTINUOUS
 10
140.002518994
 20
89.1052933452
 11
139.0740889693
 21
89.3838647959
  0
LINE
  5
390
100
AcDbEntity
  8
INCISIONI_LASER
100
AcDbLine
 62
250
  6
CONTINUOUS
 10
125.505558093
 20
93.9963677959
 11
122.6063034359
 21
94.9274927959
  0
LINE
  5
391
100
AcDbEntity
  8
INCISIONI_LASER
100
AcDbLine
 62
250
  6
CONTINUOUS
 10
131.412825494
 20
89.7043237959
 11
132.2746319194
 21
89.2838647959
  0
LINE
  5
392
100
AcDbEntity
  8
26814000
100
AcDbLine
 62
7
  6
CONTINUOUS
 10
115.2055650909
 20
102.7838647959
 11
117.6555650909
 21
82.8302160474
  0
LINE
  5
393
100
AcDbEntity
  8
26814000
100
AcDbLine
 62
7
  6
CONTINUOUS
 10
117.5055650909
 20
79.6612150651
 11
117.5055650909
 21
80.3969550976
  0
LINE
  5
394
100
AcDbEntity
  8
26814000
100
AcDbLine
 62
7
  6
CONTINUOUS
 10
117.5055650909
 20
125.1707744942
 11
117.5055650909
 21
125.9065145267
  0
LINE
  5
395
100
AcDbEntity
  8
26814000
100
AcDbLine
 62
7
  6
CONTINUOUS
 10
117.6555650909
 20
124.6426625509
 11
117.6555650909
 21
122.7375135445
  0
LINE
  5
396
100
AcDbEntity
  8
26814000
100
AcDbLine
 62
7
  6
CONTINUOUS
 10
117.6555650909
 20
82.8302160474
 11
117.6555650909
 21
80.925067041
  0
LINE
  5
397
100
AcDbEntity
  8
INCISIONI_LASER
100
AcDbLine
 62
250
  6
CONTINUOUS
 10
127.0058544701
 20
115.4052934644
 11
127.2772416855
 21
115.6767219064
  0
LINE
  5
398
100
AcDbEntity
  8
INCISIONI_LASER
100
AcDbLine
 62
250
  6
CONTINUOUS
 10
128.9055650909
 20
116.7624363539
 11
128.6341778472
 21
116.4910074589
  0
LINE
  5
399
100
AcDbEntity
  8
INCISIONI_LASER
100
AcDbLine
 62
250
  6
CONTINUOUS
 10
128.9055650909
 20
115.2695790169
 11
128.6341778472
 21
114.9981505749
  0
LINE
  5
39A
100
AcDbEntity
  8
INCISIONI_LASER
100
AcDbLine
 62
250
  6
CONTINUOUS
 10
140.0055650909
 20
116.6738107959
 11
138.7059610533
 21
116.1034777959
  0
LWPOLYLINE
  5
39B
100
AcDbEntity
  8
0
100
AcDbPolyline
 62
250
  6
CONTINUOUS
 90
28
 70
0
 10
129.7944111295
 20
96.5866917506
 10
129.8034686601
 20
96.5887033344
 10
129.8124320804
 20
96.5911198693
 10
129.8212841118
 20
96.5939474111
 10
129.8326888457
 20
96.5982802457
 10
129.8438226136
 20
96.6033046144
 10
129.8546355616
 20
96.6089953425
 10
129.8650778355
 20
96.6153272552
 10
129.8750995811
 20
96.6222751775
 10
129.8846509445
 20
96.6298139349
 10
129.8936820714
 20
96.6379183524
 10
129.9021431078
 20
96.6465632552
 10
129.9100090704
 20
96.6557292533
 10
129.9172997482
 20
96.6653547569
 10
129.9240612614
 20
96.6753827471
 10
129.9303397304
 20
96.6857562049
 10
129.9361812753
 20
96.6964181113
 10
129.9416320165
 20
96.7073114472
 10
129.9467380742
 20
96.7183791937
 10
129.9515455687
 20
96.7295643319
 10
129.9587393811
 20
96.747652139
 10
129.9653949215
 20
96.7658731944
 10
129.9716240672
 20
96.7842052609
 10
129.9775386957
 20
96.8026261012
 10
129.9832506842
 20
96.8211134782
 10
129.9970623426
 20
96.8675191193
 10
130.0101753283
 20
96.9141613555
 10
130.0225662439
 20
96.960990346
  0
LWPOLYLINE
  5
39C
100
AcDbEntity
  8
0
100
AcDbPolyline
 62
250
  6
CONTINUOUS
 90
88
 70
0
 10
129.7586387809
 20
97.3122543766
 10
129.7427686082
 20
97.3093860649
 10
129.7269891329
 20
97.3060068751
 10
129.7113219386
 20
97.3021072362
 10
129.6957886084
 20
97.2976775773
 10
129.6804107257
 20
97.2927083274
 10
129.6652098737
 20
97.2871899155
 10
129.6561632242
 20
97.2835908439
 10
129.6472326413
 20
97.2797301762
 10
129.6384622655
 20
97.2755486549
 10
129.6298962376
 20
97.2709870229
 10
129.6215786981
 20
97.2659860229
 10
129.6135929295
 20
97.2605312981
 10
129.6059262807
 20
97.254611876
 10
129.5986083191
 20
97.2482564419
 10
129.5916686121
 20
97.241493681
 10
129.5851367272
 20
97.2343522786
 10
129.5790021368
 20
97.2268283841
 10
129.5732636767
 20
97.2190008214
 10
129.5678759715
 20
97.2109191721
 10
129.5627936455
 20
97.202633018
 10
129.5579713229
 20
97.1941919407
 10
129.5522564998
 20
97.1834897327
 10
129.5468686348
 20
97.1726320694
 10
129.5417997098
 20
97.1616279055
 10
129.5370417065
 20
97.1504861955
 10
129.5311737426
 20
97.1354342873
 10
129.5258576719
 20
97.1201749345
 10
129.521107049
 20
97.1047292328
 10
129.5169276009
 20
97.0891138282
 10
129.513302585
 20
97.0733614842
 10
129.5102070126
 20
97.0575006341
 10
129.5076122
 20
97.0415712402
 10
129.5054614061
 20
97.0255747217
 10
129.5036950865
 20
97.0095238854
 10
129.5022536969
 20
96.9934315382
 10
129.5010776931
 20
96.9773104871
 10
129.5001075308
 20
96.9611735389
 10
129.4994970572
 20
96.9490587117
 10
129.4990537268
 20
96.9369440816
 10
129.498862271
 20
96.9248315865
 10
129.499007421
 20
96.9127231643
 10
129.4995501413
 20
96.9006327149
 10
129.5004596817
 20
96.8885567911
 10
129.5016822819
 20
96.8765039185
 10
129.5031641811
 20
96.8644826229
 10
129.5054732936
 20
96.8485275423
 10
129.5081686533
 20
96.8326438771
 10
129.511271692
 20
96.8168318638
 10
129.5148038416
 20
96.8010917389
 10
129.5187865337
 20
96.7854237387
 10
129.5232412002
 20
96.7698280998
 10
129.5264816749
 20
96.759496046
 10
129.529971078
 20
96.7492314346
 10
129.5337398449
 20
96.7390695598
 10
129.537818411
 20
96.7290457157
 10
129.542237212
 20
96.7191951966
 10
129.5470266832
 20
96.7095532968
 10
129.5522172602
 20
96.7001553105
 10
129.5578393785
 20
96.6910365319
 10
129.5639234736
 20
96.6822322553
 10
129.5698392617
 20
96.6745586114
 10
129.5761068198
 20
96.6671473403
 10
129.5826748354
 20
96.6599744762
 10
129.5894919964
 20
96.6530160535
 10
129.5965069907
 20
96.6462481064
 10
129.6036902395
 20
96.6396497771
 10
129.6110451757
 20
96.6332618777
 10
129.6185965997
 20
96.6271279117
 10
129.6263693116
 20
96.6212913827
 10
129.6343881115
 20
96.6157957943
 10
129.6426205232
 20
96.6107086604
 10
129.6510964333
 20
96.6060166611
 10
129.6597916026
 20
96.6017349574
 10
129.6686817913
 20
96.5978787106
 10
129.6777427599
 20
96.5944630817
 10
129.6870135785
 20
96.5914801639
 10
129.6964150092
 20
96.5889458485
 10
129.7059291525
 20
96.586846827
 10
129.7155381084
 20
96.5851697908
 10
129.7252239773
 20
96.5839014313
 10
129.7350961739
 20
96.5830231305
 10
129.7450076851
 20
96.5825580551
 10
129.7549372586
 20
96.5825136534
 10
129.764863642
 20
96.5828973737
 10
129.7747655832
 20
96.5837166644
 10
129.7846218298
 20
96.584978974
 10
129.7944111295
 20
96.5866917506
  0
LINE
  5
39D
100
AcDbEntity
  8
0
100
AcDbLine
 62
250
  6
CONTINUOUS
 10
138.0021431335
 20
94.9516987959
 11
133.0036260781
 21
94.9516987959
  0
LINE
  5
39E
100
AcDbEntity
  8
INCISIONI_LASER
100
AcDbLine
 62
250
  6
CONTINUOUS
 10
139.0740889693
 20
95.3267222044
 11
138.8884029798
 21
95.3267222044
  0
LINE
  5
39F
100
AcDbEntity
  8
0
100
AcDbLine
 62
250
  6
CONTINUOUS
 10
135.2250362605
 20
95.5073927959
 11
133.5589788736
 21
95.5073927959
  0
LINE
  5
3A0
100
AcDbEntity
  8
0
100
AcDbLine
 62
250
  6
CONTINUOUS
 10
135.7805610036
 20
95.5073927959
 11
138.0021431335
 21
95.5073927959
  0
LINE
  5
3A1
100
AcDbEntity
  8
0
100
AcDbLine
 62
250
  6
CONTINUOUS
 10
138.0021431335
 20
96.0630867959
 11
135.7805610036
 21
96.0630867959
  0
LINE
  5
3A2
100
AcDbEntity
  8
0
100
AcDbLine
 62
250
  6
CONTINUOUS
 10
133.5589788736
 20
96.0630867959
 11
135.2250362605
 21
96.0630867959
  0
LINE
  5
3A3
100
AcDbEntity
  8
0
100
AcDbLine
 62
250
  6
CONTINUOUS
 10
133.0036260781
 20
96.6184357959
 11
138.0021431335
 21
96.6184357959
  0
LINE
  5
3A4
100
AcDbEntity
  8
INCISIONI_LASER
100
AcDbLine
 62
250
  6
CONTINUOUS
 10
125.5055500955
 20
96.8253617959
 11
122.6063034359
 21
96.8253617959
  0
LINE
  5
3A5
100
AcDbEntity
  8
INCISIONI_LASER
100
AcDbLine
 62
250
  6
CONTINUOUS
 10
123.5092693209
 20
95.2175147959
 11
124.3845416435
 21
94.9364247959
  0
LINE
  5
3A6
100
AcDbEntity
  8
INCISIONI_LASER
100
AcDbLine
 62
250
  6
CONTINUOUS
 10
124.9353958097
 20
94.7595027959
 11
125.5055500955
 21
94.5763897959
  0
LINE
  5
3A7
100
AcDbEntity
  8
INCISIONI_LASER
100
AcDbLine
 62
250
  6
CONTINUOUS
 10
130.5002085494
 20
88.9571647959
 11
132.8213403487
 21
86.8968197959
  0
LWPOLYLINE
  5
3A8
100
AcDbEntity
  8
INCISIONI_LASER
100
AcDbPolyline
 62
250
  6
CONTINUOUS
 90
53
 70
0
 10
130.5002085494
 20
88.9571647959
 10
130.48981965
 20
88.9666986099
 10
130.4797317476
 20
88.9765867529
 10
130.469955831
 20
88.9868153231
 10
130.4605028886
 20
88.9973704183
 10
130.4513839089
 20
89.0082381366
 10
130.4426098806
 20
89.0194045761
 10
130.4341917921
 20
89.0308558347
 10
130.426140632
 20
89.0425780105
 10
130.4184673888
 20
89.0545572015
 10
130.4111830511
 20
89.0667795057
 10
130.4042986075
 20
89.0792310211
 10
130.3978250463
 20
89.0918978458
 10
130.3917733563
 20
89.1047660777
 10
130.3861531086
 20
89.117821728
 10
130.3809682047
 20
89.1310504602
 10
130.3762211289
 20
89.1444378506
 10
130.3719143653
 20
89.1579694758
 10
130.3680503983
 20
89.1716309124
 10
130.364631712
 20
89.1854077369
 10
130.3616607907
 20
89.1992855258
 10
130.3591401184
 20
89.2132498555
 10
130.3570721796
 20
89.2272863027
 10
130.3554594584
 20
89.2413804438
 10
130.3543044389
 20
89.2555178554
 10
130.3536096055
 20
89.2696841139
 10
130.3533774423
 20
89.2838647959
 10
130.3536096055
 20
89.2980454779
 10
130.3543044389
 20
89.3122117365
 10
130.3554594584
 20
89.326349148
 10
130.3570721796
 20
89.3404432891
 10
130.3591401184
 20
89.3544797363
 10
130.3616607907
 20
89.3684440661
 10
130.364631712
 20
89.3823218549
 10
130.3680503983
 20
89.3960986794
 10
130.3719143653
 20
89.409760116
 10
130.3762211289
 20
89.4232917413
 10
130.3809682047
 20
89.4366791317
 10
130.3861531086
 20
89.4499078638
 10
130.3917733563
 20
89.4629635141
 10
130.3978250463
 20
89.475831746
 10
130.4042986075
 20
89.4884985707
 10
130.4111830511
 20
89.5009500861
 10
130.4184673888
 20
89.5131723903
 10
130.426140632
 20
89.5251515813
 10
130.4341917921
 20
89.5368737571
 10
130.4426098806
 20
89.5483250157
 10
130.4513839089
 20
89.5594914552
 10
130.4605028886
 20
89.5703591735
 10
130.469955831
 20
89.5809142688
 10
130.4797317476
 20
89.5911428389
 10
130.48981965
 20
89.6010309819
 10
130.5002085494
 20
89.6105647959
  0
LINE
  5
3A9
100
AcDbEntity
  8
26814000
100
AcDbLine
 62
7
  6
CONTINUOUS
 10
119.0055650909
 20
78.3838647959
 11
119.0055650909
 21
80.7338781234
  0
LINE
  5
3AA
100
AcDbEntity
  8
26814000
100
AcDbLine
 62
7
  6
CONTINUOUS
 10
119.0055650909
 20
124.8338514685
 11
119.0055650909
 21
127.1838647959
  0
LINE
  5
3AB
100
AcDbEntity
  8
26814000
100
AcDbLine
 62
7
  6
CONTINUOUS
 10
120.0055650909
 20
126.9294971927
 11
120.0055650909
 21
126.6282023632
  0
LINE
  5
3AC
100
AcDbEntity
  8
26814000
100
AcDbLine
 62
7
  6
CONTINUOUS
 10
120.0055650909
 20
78.9395272286
 11
120.0055650909
 21
78.6382323991
  0
LINE
  5
3AD
100
AcDbEntity
  8
0
100
AcDbLine
 62
7
  6
CONTINUOUS
 10
120.0055650909
 20
85.1122919207
 11
120.0055650909
 21
120.4554376712
  0
LINE
  5
3AE
100
AcDbEntity
  8
21814000
100
AcDbLine
 62
7
  6
CONTINUOUS
 10
120.0055650909
 20
85.1122919207
 11
120.0055650909
 21
120.4554376712
  0
LINE
  5
3AF
100
AcDbEntity
  8
26814000
100
AcDbLine
 62
7
  6
CONTINUOUS
 10
120.0055650909
 20
80.3925916637
 11
120.0055650909
 21
125.1751379281
  0
LINE
  5
3B0
100
AcDbEntity
  8
INCISIONI_LASER
100
AcDbLine
 62
250
  6
CONTINUOUS
 10
138.7059610533
 20
117.8317307959
 11
139.5026833086
 21
118.3074687959
  0
LWPOLYLINE
  5
3B1
100
AcDbEntity
  8
0
100
AcDbPolyline
 62
250
  6
CONTINUOUS
 90
81
 70
0
 10
130.0055650909
 20
97.8803784815
 10
129.9301666622
 20
97.8784599346
 10
129.8548411005
 20
97.8727638274
 10
129.7797876653
 20
97.8633794603
 10
129.7052056163
 20
97.8503961338
 10
129.6312942132
 20
97.8339031481
 10
129.5582527155
 20
97.8139898036
 10
129.4862098332
 20
97.7907301031
 10
129.4153377197
 20
97.76424483
 10
129.3457363623
 20
97.7346445062
 10
129.2775057484
 20
97.7020396532
 10
129.2107458653
 20
97.6665407929
 10
129.1455567003
 20
97.6282584471
 10
129.082085628
 20
97.5873460638
 10
129.0203214845
 20
97.5439008822
 10
128.9603035561
 20
97.4980581674
 10
128.9020711291
 20
97.4499531841
 10
128.8456634899
 20
97.3997211974
 10
128.7911199249
 20
97.3474974722
 10
128.7281166954
 20
97.2823214755
 10
128.6678481477
 20
97.2146358441
 10
128.6103033412
 20
97.1446089305
 10
128.5554713353
 20
97.0724090875
 10
128.5033411894
 20
96.9982046675
 10
128.4487783669
 20
96.9139284129
 10
128.3974915728
 20
96.8275642876
 10
128.3494603016
 20
96.7392739032
 10
128.3046640477
 20
96.6492188714
 10
128.2630823057
 20
96.5575608037
 10
128.2246945701
 20
96.4644613119
 10
128.1894803355
 20
96.3700820074
 10
128.1574190963
 20
96.2745845019
 10
128.1284903471
 20
96.178130407
 10
128.0996389837
 20
96.0685524513
 10
128.074710498
 20
95.9580923974
 10
128.0536814564
 20
95.8468762592
 10
128.0365284251
 20
95.7350300507
 10
128.0232279706
 20
95.6226797862
 10
128.013756659
 20
95.5099514795
 10
128.0080910568
 20
95.3969711447
 10
128.0062077302
 20
95.2838647959
 10
128.0080910568
 20
95.1707584471
 10
128.013756659
 20
95.0577781123
 10
128.0232279706
 20
94.9450498057
 10
128.0365284251
 20
94.8326995411
 10
128.0536814564
 20
94.7208533327
 10
128.074710498
 20
94.6096371945
 10
128.0996389837
 20
94.4991771405
 10
128.1284903471
 20
94.3895991848
 10
128.1574190963
 20
94.29314509
 10
128.1894803355
 20
94.1976475845
 10
128.2246945701
 20
94.10326828
 10
128.2630823057
 20
94.0101687881
 10
128.3046640477
 20
93.9185107205
 10
128.3494603016
 20
93.8284556886
 10
128.3974915728
 20
93.7401653043
 10
128.4487783669
 20
93.653801179
 10
128.5033411894
 20
93.5695249243
 10
128.5554713353
 20
93.4953205043
 10
128.6103033412
 20
93.4231206613
 10
128.6678481477
 20
93.3530937478
 10
128.7281166954
 20
93.2854081164
 10
128.7911199249
 20
93.2202321196
 10
128.8456634899
 20
93.1680083944
 10
128.9020711291
 20
93.1177764077
 10
128.9603035561
 20
93.0696714245
 10
129.0203214845
 20
93.0238287096
 10
129.082085628
 20
92.980383528
 10
129.1455567003
 20
92.9394711447
 10
129.2107458653
 20
92.9011887989
 10
129.2775057484
 20
92.8656899386
 10
129.3457363623
 20
92.8330850857
 10
129.4153377197
 20
92.8034847618
 10
129.4862098332
 20
92.7769994887
 10
129.5582527155
 20
92.7537397882
 10
129.6312942132
 20
92.7338264437
 10
129.7052056163
 20
92.717333458
 10
129.7797876653
 20
92.7043501315
 10
129.8548411005
 20
92.6949657644
 10
129.9301666622
 20
92.6892696573
 10
130.0055650909
 20
92.6873511104
  0
LINE
  5
3B2
100
AcDbEntity
  8
0
100
AcDbLine
 62
250
  6
CONTINUOUS
 10
133.0036260781
 20
97.1741297959
 11
138.0021431335
 21
97.1741297959
  0
LINE
  5
3B3
100
AcDbEntity
  8
INCISIONI_LASER
100
AcDbLine
 62
250
  6
CONTINUOUS
 10
123.1426620185
 20
97.3973867959
 11
123.848176063
 21
97.3973937959
  0
LINE
  5
3B4
100
AcDbEntity
  8
26814000
100
AcDbLine
 62
250
  6
CONTINUOUS
 10
114.4236200084
 20
97.5838647959
 11
115.8440448076
 21
97.5838647959
  0
LINE
  5
3B5
100
AcDbEntity
  8
0
100
AcDbLine
 62
250
  6
CONTINUOUS
 10
137.4466183904
 20
97.7294797959
 11
133.5589788736
 21
97.7294797959
  0
LINE
  5
3B6
100
AcDbEntity
  8
26814000
100
AcDbLine
 62
7
  6
CONTINUOUS
 10
114.4446408554
 20
97.7838647959
 11
115.8194878954
 21
97.7838647959
  0
LINE
  5
3B7
100
AcDbEntity
  8
26814000
100
AcDbLine
 62
250
  6
CONTINUOUS
 10
114.4656617025
 20
97.9838647959
 11
115.7949309832
 21
97.9838647959
  0
LINE
  5
3B8
100
AcDbEntity
  8
0
100
AcDbLine
 62
250
  6
CONTINUOUS
 10
138.0021431335
 20
98.2851737959
 11
137.4466183904
 21
98.2851737959
  0
LINE
  5
3B9
100
AcDbEntity
  8
INTF_2
100
AcDbLine
 62
7
  6
CONTINUOUS
 10
138.0021420909
 20
98.2851737959
 11
137.4464480909
 21
98.2851737959
  0
LINE
  5
3BA
100
AcDbEntity
  8
0
100
AcDbLine
 62
250
  6
CONTINUOUS
 10
133.5589788736
 20
98.2851737959
 11
133.0036260781
 21
98.2851737959
  0
LINE
  5
3BB
100
AcDbEntity
  8
INCISIONI_LASER
100
AcDbLine
 62
250
  6
CONTINUOUS
 10
124.3845346457
 20
97.4054557959
 11
125.5055500955
 21
97.4053907959
  0
LINE
  5
3BC
100
AcDbEntity
  8
INCISIONI_LASER
100
AcDbLine
 62
250
  6
CONTINUOUS
 10
122.6063034359
 20
94.9274927959
 11
122.6063034359
 21
95.5075437959
  0
LINE
  5
3BD
100
AcDbEntity
  8
INCISIONI_LASER
100
AcDbLine
 62
250
  6
CONTINUOUS
 10
122.6063034359
 20
96.8253617959
 11
122.6063034359
 21
98.1835767959
  0
LINE
  5
3BE
100
AcDbEntity
  8
INCISIONI_LASER
100
AcDbLine
 62
250
  6
CONTINUOUS
 10
122.6063104338
 20
93.6096887959
 11
122.6063104338
 21
92.7328527959
  0
LINE
  5
3BF
100
AcDbEntity
  8
INCISIONI_LASER
100
AcDbLine
 62
250
  6
CONTINUOUS
 10
122.6063104338
 20
91.6497167959
 11
122.6063104338
 21
90.7728797959
  0
LINE
  5
3C0
100
AcDbEntity
  8
INCISIONI_LASER
100
AcDbLine
 62
250
  6
CONTINUOUS
 10
122.6063104338
 20
90.1928797959
 11
122.6063104338
 21
89.6128587959
  0
LINE
  5
3C1
100
AcDbEntity
  8
INCISIONI_LASER
100
AcDbLine
 62
250
  6
CONTINUOUS
 10
122.6063104338
 20
89.2261797959
 11
122.6063104338
 21
88.6461507959
  0
LINE
  5
3C2
100
AcDbEntity
  8
INCISIONI_LASER
100
AcDbLine
 62
250
  6
CONTINUOUS
 10
122.6063104338
 20
87.3638937959
 11
122.6063104338
 21
86.7838647959
  0
LINE
  5
3C3
100
AcDbEntity
  8
INCISIONI_LASER
100
AcDbLine
 62
250
  6
CONTINUOUS
 10
122.606447392
 20
117.7757997959
 11
122.606447392
 21
117.0367487959
  0
LINE
  5
3C4
100
AcDbEntity
  8
INCISIONI_LASER
100
AcDbLine
 62
250
  6
CONTINUOUS
 10
122.606447392
 20
111.7507647959
 11
122.606447392
 21
111.0117137959
  0
LINE
  5
3C5
100
AcDbEntity
  8
INCISIONI_LASER
100
AcDbLine
 62
250
  6
CONTINUOUS
 10
122.606447392
 20
106.3720847959
 11
122.606447392
 21
105.4846547959
  0
LINE
  5
3C6
100
AcDbEntity
  8
INCISIONI_LASER
100
AcDbLine
 62
250
  6
CONTINUOUS
 10
122.606447392
 20
107.9549977959
 11
122.606447392
 21
108.5776037959
  0
LINE
  5
3C7
100
AcDbEntity
  8
INCISIONI_LASER
100
AcDbLine
 62
250
  6
CONTINUOUS
 10
122.606447392
 20
113.0761897959
 11
122.606447392
 21
114.0000037959
  0
LINE
  5
3C8
100
AcDbEntity
  8
INCISIONI_LASER
100
AcDbLine
 62
250
  6
CONTINUOUS
 10
122.606447392
 20
115.1126187959
 11
122.606447392
 21
115.6950627959
  0
LWPOLYLINE
  5
3C9
100
AcDbEntity
  8
0
100
AcDbPolyline
 62
7
  6
CONTINUOUS
 90
4
 70
0
 43
0.3500000006
 10
122.6806501465
 20
146.4761478882
 10
122.6806501465
 20
147.3332858276
 10
123.1092281799
 20
147.7618547974
 10
123.7520816345
 20
147.7618547974
  0
LWPOLYLINE
  5
3CA
100
AcDbEntity
  8
INCISIONI_LASER
100
AcDbPolyline
 62
250
  6
CONTINUOUS
 90
54
 70
0
 10
123.0882336741
 20
106.4704769268
 10
123.0917044574
 20
106.4987865089
 10
123.0951054022
 20
106.5271047507
 10
123.0986032411
 20
106.5554184991
 10
123.1008176691
 20
106.5723860258
 10
123.1031712379
 20
106.5893352029
 10
123.1057083118
 20
106.6062540249
 10
123.1084732555
 20
106.6231304863
 10
123.1115104332
 20
106.6399525815
 10
123.1142981632
 20
106.6539831186
 10
123.1173578665
 20
106.6679646478
 10
123.1207397105
 20
106.6818946606
 10
123.1229465703
 20
106.6902033276
 10
123.1253409178
 20
106.6984594577
 10
123.1279767928
 20
106.7066298786
 10
123.1309082353
 20
106.7146814177
 10
123.1341892854
 20
106.7225809025
 10
123.1378372324
 20
106.7302557311
 10
123.1418563621
 20
106.7377509207
 10
123.1462190135
 20
106.745069855
 10
123.1508975254
 20
106.7522159176
 10
123.1558642366
 20
106.7591924919
 10
123.1610914859
 20
106.7660029616
 10
123.1665516123
 20
106.7726507103
 10
123.1722169545
 20
106.7791391215
 10
123.1780598514
 20
106.7854715788
 10
123.1840526418
 20
106.7916514657
 10
123.1928614782
 20
106.8002465578
 10
123.201919942
 20
106.8085265384
 10
123.2112265607
 20
106.816482768
 10
123.2207798617
 20
106.8241066069
 10
123.2305783727
 20
106.8313894156
 10
123.2406206211
 20
106.8383225542
 10
123.2509051345
 20
106.8448973833
 10
123.2614279374
 20
106.8511062826
 10
123.2721736004
 20
106.8569448716
 10
123.2831241803
 20
106.8624098058
 10
123.2942617338
 20
106.8674977408
 10
123.3055683177
 20
106.8722053322
 10
123.3170259886
 20
106.8765292354
 10
123.3286168033
 20
106.8804661062
 10
123.3412066437
 20
106.8842671519
 10
123.3539162289
 20
106.8876388486
 10
123.3667321696
 20
106.8906029942
 10
123.3796410768
 20
106.8931813867
 10
123.3926295614
 20
106.8953958239
 10
123.4056842344
 20
106.8972681037
 10
123.4187917066
 20
106.8988200241
 10
123.4319385889
 20
106.9000733831
 10
123.4451114923
 20
106.9010499784
 10
123.4582970276
 20
106.901771608
 10
123.4714818058
 20
106.9022600698
 10
123.4846524378
 20
106.9025371618
 10
123.4977955344
 20
106.9026246818
  0
LINE
  5
3CB
100
AcDbEntity
  8
INCISIONI_LASER
100
AcDbLine
 62
7
  6
CONTINUOUS
 10
123.5017134791
 20
105.4846547959
 11
124.3891432415
 21
106.3720845583
  0
LINE
  5
3CC
100
AcDbEntity
  8
0
100
AcDbLine
 62
7
  6
CONTINUOUS
 10
141.9794183681
 20
101.4078238531
 11
143.7317118137
 21
101.5611296648
  0
LINE
  5
3CD
100
AcDbEntity
  8
21814000
100
AcDbLine
 62
7
  6
CONTINUOUS
 10
141.9794183681
 20
101.4078238531
 11
143.7317118137
 21
101.5611296648
  0
LINE
  5
3CE
100
AcDbEntity
  8
0
100
AcDbLine
 62
7
  6
CONTINUOUS
 10
141.7055650909
 20
99.4838647959
 11
141.9055650909
 21
99.4838647959
  0
LINE
  5
3CF
100
AcDbEntity
  8
21814000
100
AcDbLine
 62
7
  6
CONTINUOUS
 10
141.7055650909
 20
99.4838647959
 11
141.9055650909
 21
99.4838647959
  0
LINE
  5
3D0
100
AcDbEntity
  8
26814000
100
AcDbLine
 62
7
  6
CONTINUOUS
 10
115.4245042524
 20
101.0007484184
 11
114.7839241575
 21
101.0119297855
  0
LINE
  5
3D1
100
AcDbEntity
  8
INCISIONI_LASER
100
AcDbLine
 62
250
  6
CONTINUOUS
 10
138.7027169903
 20
90.7767218945
 11
138.9812460133
 21
90.5910076973
  0
LWPOLYLINE
  5
3D2
100
AcDbEntity
  8
INCISIONI_LASER
100
AcDbPolyline
 62
250
  6
CONTINUOUS
 90
73
 70
0
 10
124.3148088897
 20
98.5288407959
 10
124.3011053251
 20
98.5597099471
 10
124.2862108958
 20
98.5900754982
 10
124.2701548851
 20
98.6198872135
 10
124.2529665765
 20
98.649094857
 10
124.2346752533
 20
98.6776481929
 10
124.2153101989
 20
98.7054969852
 10
124.1949006968
 20
98.7325909983
 10
124.1734760304
 20
98.758879996
 10
124.1510666594
 20
98.7843170868
 10
124.1277077483
 20
98.8088687552
 10
124.1034356382
 20
98.83250483
 10
124.0782866699
 20
98.8551951399
 10
124.0522971844
 20
98.8769095138
 10
124.0255035227
 20
98.8976177803
 10
123.9979420256
 20
98.9172897683
 10
123.9696490341
 20
98.9358953064
 10
123.9406624159
 20
98.9534058737
 10
123.9110261463
 20
98.9697995504
 10
123.8807857273
 20
98.9850560668
 10
123.8499866609
 20
98.9991551534
 10
123.8186744492
 20
99.0120765406
 10
123.7868945942
 20
99.0237999588
 10
123.7546925978
 20
99.0343051384
 10
123.7221139623
 20
99.0435718099
 10
123.6892047739
 20
99.0515822403
 10
123.6560134566
 20
99.0583288434
 10
123.6225890185
 20
99.0638065698
 10
123.588980468
 20
99.06801037
 10
123.5552368132
 20
99.0709351944
 10
123.5214070624
 20
99.0725759937
 10
123.4875402239
 20
99.0729277182
 10
123.4536853058
 20
99.0719853186
 10
123.4198912133
 20
99.0697462166
 10
123.3862064385
 20
99.0662177196
 10
123.3526793705
 20
99.0614096065
 10
123.3193583984
 20
99.0553316558
 10
123.286291911
 20
99.0479936464
 10
123.2535282975
 20
99.039405357
 10
123.2211159469
 20
99.0295765663
 10
123.1891032482
 20
99.018517053
 10
123.1575377265
 20
99.0062389136
 10
123.1264634507
 20
98.9927635147
 10
123.095923626
 20
98.9781145411
 10
123.0659614573
 20
98.9623156771
 10
123.0366201498
 20
98.9453906071
 10
123.0079429085
 20
98.9273630158
 10
122.9799729384
 20
98.9082565876
 10
122.9527534446
 20
98.8880950069
 10
122.9263261092
 20
98.8669040691
 10
122.9007265222
 20
98.8447180128
 10
122.8759887508
 20
98.8215731872
 10
122.8521468621
 20
98.7975059418
 10
122.8292349232
 20
98.772552626
 10
122.8072870013
 20
98.7467495892
 10
122.7863371634
 20
98.7201331807
 10
122.7664194766
 20
98.6927397499
 10
122.7475659606
 20
98.6646065741
 10
122.7298004447
 20
98.6357746424
 10
122.7131447106
 20
98.6062858718
 10
122.6976205403
 20
98.5761821793
 10
122.6832497153
 20
98.545505482
 10
122.6700540176
 20
98.5142976969
 10
122.658055229
 20
98.482600741
 10
122.6472751311
 20
98.4504565313
 10
122.6377331241
 20
98.4179096098
 10
122.6294390807
 20
98.3850150191
 10
122.6224004918
 20
98.3518304264
 10
122.6166248484
 20
98.3184134994
 10
122.6121196415
 20
98.2848219054
 10
122.6088923621
 20
98.2511133118
 10
122.606950501
 20
98.2173453862
 10
122.6063015494
 20
98.1835757959
  0
LWPOLYLINE
  5
3D3
100
AcDbEntity
  8
INCISIONI_LASER
100
AcDbPolyline
 62
250
  6
CONTINUOUS
 90
56
 70
0
 10
124.3891435362
 20
106.3720848534
 10
124.3863917337
 20
106.4432068187
 10
124.383285188
 20
106.5143143067
 10
124.3796414532
 20
106.5853909717
 10
124.3764401671
 20
106.6386974726
 10
124.3727299185
 20
106.6919807505
 10
124.3706266649
 20
106.7186355454
 10
124.3682198744
 20
106.74526264
 10
124.3653594728
 20
106.771839315
 10
124.3618953859
 20
106.7983428508
 10
124.3577147326
 20
106.824685795
 10
124.3527904452
 20
106.8509066384
 10
124.3471289901
 20
106.8769786736
 10
124.3407368337
 20
106.9028751928
 10
124.333624365
 20
106.9286257592
 10
124.3258982156
 20
106.954199418
 10
124.3176716288
 20
106.9796222358
 10
124.3090578479
 20
107.0049202792
 10
124.2971078747
 20
107.0384571054
 10
124.2845368731
 20
107.0717570071
 10
124.2712101326
 20
107.1047582858
 10
124.2606275229
 20
107.1292785121
 10
124.2494457682
 20
107.153533672
 10
124.2375669454
 20
107.1774615193
 10
124.2248931317
 20
107.2009998076
 10
124.2113926973
 20
107.2240107742
 10
124.1970203141
 20
107.2465232811
 10
124.1817908981
 20
107.268487613
 10
124.1657193653
 20
107.2898540546
 10
124.1488206316
 20
107.3105728905
 10
124.1311096132
 20
107.3305944056
 10
124.1126012259
 20
107.3498688845
 10
124.093310386
 20
107.368346612
 10
124.0731876768
 20
107.3860442194
 10
124.0523409653
 20
107.4028843984
 10
124.0308190488
 20
107.4188619914
 10
124.0086707246
 20
107.4339718412
 10
123.9859447901
 20
107.4482087902
 10
123.9626900428
 20
107.4615676811
 10
123.9389552799
 20
107.4740433563
 10
123.9147892989
 20
107.4856306584
 10
123.890232277
 20
107.4963314743
 10
123.8653264836
 20
107.5061602025
 10
123.840105757
 20
107.5151387284
 10
123.8146039359
 20
107.5232889375
 10
123.7888548587
 20
107.530632715
 10
123.762892364
 20
107.5371919463
 10
123.7367502903
 20
107.5429885167
 10
123.7104624762
 20
107.5480443116
 10
123.6803183333
 20
107.5529404726
 10
123.6500534672
 20
107.5569490243
 10
123.6196929422
 20
107.5601189369
 10
123.5892618222
 20
107.5624991804
 10
123.5587851716
 20
107.5641387248
 10
123.5282880543
 20
107.5650865401
 10
123.4977955344
 20
107.5653915963
  0
LINE
  5
3D4
100
AcDbEntity
  8
INCISIONI_LASER
100
AcDbLine
 62
250
  6
CONTINUOUS
 10
123.0882336017
 20
106.1072607959
 11
123.0882336017
 21
106.4704767959
  0
LINE
  5
3D5
100
AcDbEntity
  8
INCISIONI_LASER
100
AcDbLine
 62
250
  6
CONTINUOUS
 10
123.1426620185
 20
98.1030727959
 11
123.1426620185
 21
97.3973867959
  0
LINE
  5
3D6
100
AcDbEntity
  8
INCISIONI_LASER
100
AcDbLine
 62
250
  6
CONTINUOUS
 10
123.848176063
 20
97.3973937959
 11
123.848176063
 21
98.1030727959
  0
LINE
  5
3D7
100
AcDbEntity
  8
INCISIONI_LASER
100
AcDbLine
 62
250
  6
CONTINUOUS
 10
123.9073570318
 20
106.1072607959
 11
123.9073570318
 21
106.4704767959
  0
LINE
  5
3D8
100
AcDbEntity
  8
INCISIONI_LASER
100
AcDbLine
 62
250
  6
CONTINUOUS
 10
124.3845416435
 20
94.9364247959
 11
124.3845416435
 21
95.4986187959
  0
LINE
  5
3D9
100
AcDbEntity
  8
INCISIONI_LASER
100
AcDbLine
 62
250
  6
CONTINUOUS
 10
124.3845416435
 20
97.9116867959
 11
124.3845346457
 21
97.4054557959
  0
LINE
  5
3DA
100
AcDbEntity
  8
INCISIONI_LASER
100
AcDbLine
 62
250
  6
CONTINUOUS
 10
124.3891432415
 20
106.3720847959
 11
124.3891432415
 21
106.1072607959
  0
LINE
  5
3DB
100
AcDbEntity
  8
INCISIONI_LASER
100
AcDbLine
 62
250
  6
CONTINUOUS
 10
124.4093270919
 20
117.7917337959
 11
124.4093270919
 21
116.9603557959
  0
LINE
  5
3DC
100
AcDbEntity
  8
INCISIONI_LASER
100
AcDbLine
 62
250
  6
CONTINUOUS
 10
124.4093270919
 20
111.7668077959
 11
124.4093270919
 21
110.9353207959
  0
LINE
  5
3DD
100
AcDbEntity
  8
INCISIONI_LASER
100
AcDbLine
 62
250
  6
CONTINUOUS
 10
124.8911133016
 20
110.7746767959
 11
124.8911133016
 21
111.9234137959
  0
LINE
  5
3DE
100
AcDbEntity
  8
INCISIONI_LASER
100
AcDbLine
 62
250
  6
CONTINUOUS
 10
124.8911133016
 20
116.7997107959
 11
124.8911133016
 21
117.9484487959
  0
LINE
  5
3DF
100
AcDbEntity
  8
INCISIONI_LASER
100
AcDbLine
 62
250
  6
CONTINUOUS
 10
124.9353958097
 20
95.6755477959
 11
124.9353958097
 21
94.7595027959
  0
LINE
  5
3E0
100
AcDbEntity
  8
INCISIONI_LASER
100
AcDbLine
 62
250
  6
CONTINUOUS
 10
125.0237788812
 20
108.5776037959
 11
125.0237788812
 21
109.6506027959
  0
LINE
  5
3E1
100
AcDbEntity
  8
0
100
AcDbLine
 62
7
  6
CONTINUOUS
 10
141.715160123
 20
101.1838647959
 11
141.9055650909
 21
101.1838647959
  0
LINE
  5
3E2
100
AcDbEntity
  8
21814000
100
AcDbLine
 62
7
  6
CONTINUOUS
 10
141.715160123
 20
101.1838647959
 11
141.9055650909
 21
101.1838647959
  0
LINE
  5
3E3
100
AcDbEntity
  8
INCISIONI_LASER
100
AcDbLine
 62
250
  6
CONTINUOUS
 10
138.9812460133
 20
93.8410073874
 11
139.3526179922
 21
93.6552931902
  0
LINE
  5
3E4
100
AcDbEntity
  8
INCISIONI_LASER
100
AcDbLine
 62
250
  6
CONTINUOUS
 10
138.7027169903
 20
91.7981505988
 11
138.9812460133
 21
91.6124360917
  0
LINE
  5
3E5
100
AcDbEntity
  8
INCISIONI_LASER
100
AcDbLine
 62
250
  6
CONTINUOUS
 10
138.7027169903
 20
92.8195789931
 11
138.9812460133
 21
92.6338647959
  0
LINE
  5
3E6
100
AcDbEntity
  8
INCISIONI_LASER
100
AcDbLine
 62
250
  6
CONTINUOUS
 10
140.002518994
 20
90.5910076973
 11
139.0740889693
 21
91.2410076973
  0
LINE
  5
3E7
100
AcDbEntity
  8
INCISIONI_LASER
100
AcDbLine
 62
250
  6
CONTINUOUS
 10
140.002518994
 20
91.6124360917
 11
139.0740889693
 21
92.2624364016
  0
LINE
  5
3E8
100
AcDbEntity
  8
INCISIONI_LASER
100
AcDbLine
 62
250
  6
CONTINUOUS
 10
138.8884029798
 20
87.8052933452
 11
138.7027169903
 21
87.9910076199
  0
LWPOLYLINE
  5
3E9
100
AcDbEntity
  8
0
100
AcDbPolyline
 62
250
  6
CONTINUOUS
 90
24
 70
0
 10
136.3980345826
 20
89.6038613036
 10
136.3902513787
 20
89.6119726784
 10
136.3825968599
 20
89.6202142253
 10
136.3750834814
 20
89.6285897755
 10
136.3677236985
 20
89.6371031606
 10
136.3605299665
 20
89.6457582116
 10
136.3535147405
 20
89.6545587602
 10
136.3466904759
 20
89.6635086374
 10
136.3400696278
 20
89.6726116748
 10
136.3336646516
 20
89.6818717035
 10
136.328436644
 20
89.6898104528
 10
136.3233792966
 20
89.6978607048
 10
136.3185006569
 20
89.7060194261
 10
136.3138087728
 20
89.7142835831
 10
136.309311692
 20
89.7226501421
 10
136.3050174621
 20
89.7311160697
 10
136.300934131
 20
89.7396783321
 10
136.2970697464
 20
89.7483338959
 10
136.2934262449
 20
89.7570782373
 10
136.289980739
 20
89.7659017953
 10
136.2867042381
 20
89.7747935217
 10
136.2835677516
 20
89.7837423686
 10
136.2805422889
 20
89.7927372879
 10
136.2775988592
 20
89.8017672315
  0
LINE
  5
3EA
100
AcDbEntity
  8
INCISIONI_LASER
100
AcDbLine
 62
250
  6
CONTINUOUS
 10
125.5055650909
 20
87.7149967959
 11
125.505558093
 21
88.2950407959
  0
LINE
  5
3EB
100
AcDbEntity
  8
INCISIONI_LASER
100
AcDbLine
 62
250
  6
CONTINUOUS
 10
125.5055650909
 20
89.6128507959
 11
125.505558093
 21
90.1928727959
  0
LINE
  5
3EC
100
AcDbEntity
  8
INCISIONI_LASER
100
AcDbLine
 62
250
  6
CONTINUOUS
 10
125.505558093
 20
91.9012777959
 11
125.5055500955
 21
92.4812847959
  0
LINE
  5
3ED
100
AcDbEntity
  8
INCISIONI_LASER
100
AcDbLine
 62
250
  6
CONTINUOUS
 10
125.5055500955
 20
94.5763897959
 11
125.505558093
 21
93.9963677959
  0
LINE
  5
3EE
100
AcDbEntity
  8
INCISIONI_LASER
100
AcDbLine
 62
250
  6
CONTINUOUS
 10
125.5055430976
 20
99.1462457959
 11
125.5055500955
 21
98.4929407959
  0
LINE
  5
3EF
100
AcDbEntity
  8
INCISIONI_LASER
100
AcDbLine
 62
250
  6
CONTINUOUS
 10
125.5055500955
 20
97.4053907959
 11
125.5055500955
 21
96.8253617959
  0
LINE
  5
3F0
100
AcDbEntity
  8
INCISIONI_LASER
100
AcDbLine
 62
250
  6
CONTINUOUS
 10
125.505558093
 20
90.7728797959
 11
125.505558093
 21
91.3529017959
  0
LINE
  5
3F1
100
AcDbEntity
  8
INCISIONI_LASER
100
AcDbLine
 62
250
  6
CONTINUOUS
 10
125.505558093
 20
93.0296677959
 11
125.505558093
 21
93.6096887959
  0
LINE
  5
3F2
100
AcDbEntity
  8
INCISIONI_LASER
100
AcDbLine
 62
250
  6
CONTINUOUS
 10
125.5055650909
 20
115.6950627959
 11
125.5055650909
 21
114.8114107959
  0
LINE
  5
3F3
100
AcDbEntity
  8
INCISIONI_LASER
100
AcDbLine
 62
250
  6
CONTINUOUS
 10
125.5055650909
 20
113.6586347959
 11
125.5055650909
 21
113.0761897959
  0
LINE
  5
3F4
100
AcDbEntity
  8
INCISIONI_LASER
100
AcDbLine
 62
250
  6
CONTINUOUS
 10
125.5055650909
 20
109.6506027959
 11
125.5055650909
 21
107.9549977959
  0
LINE
  5
3F5
100
AcDbEntity
  8
INCISIONI_LASER
100
AcDbLine
 62
250
  6
CONTINUOUS
 10
125.5055650909
 20
105.4846547959
 11
125.5055650909
 21
106.1072607959
  0
LINE
  5
3F6
100
AcDbEntity
  8
INCISIONI_LASER
100
AcDbLine
 62
250
  6
CONTINUOUS
 10
125.5055650909
 20
109.9633787959
 11
125.5055650909
 21
110.5578287959
  0
LINE
  5
3F7
100
AcDbEntity
  8
INCISIONI_LASER
100
AcDbLine
 62
250
  6
CONTINUOUS
 10
125.5055650909
 20
112.1322957959
 11
125.5055650909
 21
112.7589387959
  0
LINE
  5
3F8
100
AcDbEntity
  8
INCISIONI_LASER
100
AcDbLine
 62
250
  6
CONTINUOUS
 10
125.5055650909
 20
115.9883047959
 11
125.5055650909
 21
116.5827537959
  0
LINE
  5
3F9
100
AcDbEntity
  8
INCISIONI_LASER
100
AcDbLine
 62
250
  6
CONTINUOUS
 10
125.5055650909
 20
118.1574387959
 11
125.5055650909
 21
118.7838647959
  0
LINE
  5
3FA
100
AcDbEntity
  8
INCISIONI_LASER
100
AcDbLine
 62
250
  6
CONTINUOUS
 10
125.505558093
 20
96.4386827959
 11
125.5055500955
 21
95.8586537959
  0
LINE
  5
3FB
100
AcDbEntity
  8
26814000
100
AcDbLine
 62
250
  6
CONTINUOUS
 10
126.7073104103
 20
126.5390573524
 11
126.7073104103
 21
125.1166526828
  0
LINE
  5
3FC
100
AcDbEntity
  8
26814000
100
AcDbLine
 62
250
  6
CONTINUOUS
 10
126.7073104103
 20
80.4510769091
 11
126.7073104103
 21
79.0286722394
  0
LINE
  5
3FD
100
AcDbEntity
  8
26814000
100
AcDbLine
 62
7
  6
CONTINUOUS
 10
127.0055650909
 20
126.5373221574
 11
127.0055650909
 21
125.1140498536
  0
LINE
  5
3FE
100
AcDbEntity
  8
26814000
100
AcDbLine
 62
7
  6
CONTINUOUS
 10
127.0055650909
 20
80.4536797382
 11
127.0055650909
 21
79.0304074344
  0
LINE
  5
3FF
100
AcDbEntity
  8
INCISIONI_LASER
100
AcDbLine
 62
250
  6
CONTINUOUS
 10
127.0058544701
 20
115.2695790169
 11
127.0058544701
 21
115.4052934644
  0
LINE
  5
400
100
AcDbEntity
  8
INCISIONI_LASER
100
AcDbLine
 62
250
  6
CONTINUOUS
 10
127.0058544701
 20
116.7624363539
 11
127.0058544701
 21
116.8981505749
  0
LWPOLYLINE
  5
401
100
AcDbEntity
  8
0
100
AcDbPolyline
 62
7
  6
CONTINUOUS
 90
7
 70
0
 10
140.8212722567
 20
113.9021022048
 10
140.8428596036
 20
113.9211762627
 10
140.8661425471
 20
113.9382645382
 10
140.8911210873
 20
113.9533670313
 10
140.917795224
 20
113.966483742
 10
140.9461649574
 20
113.9776146704
 10
140.9762302874
 20
113.9867598163
  0
LWPOLYLINE
  5
402
100
AcDbEntity
  8
21814000
100
AcDbPolyline
 62
7
  6
CONTINUOUS
 90
7
 70
0
 10
140.8212722567
 20
113.9021022048
 10
140.8428596036
 20
113.9211762627
 10
140.8661425471
 20
113.9382645382
 10
140.8911210873
 20
113.9533670313
 10
140.917795224
 20
113.966483742
 10
140.9461649574
 20
113.9776146704
 10
140.9762302874
 20
113.9867598163
  0
LINE
  5
403
100
AcDbEntity
  8
INCISIONI_LASER
100
AcDbLine
 62
250
  6
CONTINUOUS
 10
140.0055650909
 20
113.2390457959
 11
138.7059610533
 21
112.2069207959
  0
LINE
  5
404
100
AcDbEntity
  8
INCISIONI_LASER
100
AcDbLine
 62
250
  6
CONTINUOUS
 10
140.0055650909
 20
108.5240887959
 11
138.7059610533
 21
107.9537547959
  0
LINE
  5
405
100
AcDbEntity
  8
26814000
100
AcDbLine
 62
7
  6
CONTINUOUS
 10
115.1570845064
 20
104.5623133444
 11
115.4245042524
 21
104.5669811735
  0
LINE
  5
406
100
AcDbEntity
  8
INCISIONI_LASER
100
AcDbLine
 62
250
  6
CONTINUOUS
 10
138.7027169903
 20
94.8624364016
 11
138.9812460133
 21
94.6767222044
  0
LINE
  5
407
100
AcDbEntity
  8
INCISIONI_LASER
100
AcDbLine
 62
250
  6
CONTINUOUS
 10
140.002518994
 20
92.6338647959
 11
139.0740889693
 21
93.2838647959
  0
LINE
  5
408
100
AcDbEntity
  8
INCISIONI_LASER
100
AcDbLine
 62
250
  6
CONTINUOUS
 10
140.002518994
 20
94.6767222044
 11
139.0740889693
 21
95.3267222044
  0
LINE
  5
409
100
AcDbEntity
  8
INCISIONI_LASER
100
AcDbLine
 62
250
  6
CONTINUOUS
 10
140.002518994
 20
88.269579148
 11
139.8168329852
 21
88.4552933452
  0
LWPOLYLINE
  5
40A
100
AcDbEntity
  8
0
100
AcDbPolyline
 62
7
  6
CONTINUOUS
 90
2
 70
0
 43
0.3500000006
 10
127.7520828552
 20
146.0475789185
 10
127.7520828552
 20
147.5475703125
  0
LINE
  5
40B
100
AcDbEntity
  8
INCISIONI_LASER
100
AcDbLine
 62
250
  6
CONTINUOUS
 10
128.4984842395
 20
114.3195790169
 11
128.4984842395
 21
113.3695791302
  0
LINE
  5
40C
100
AcDbEntity
  8
INCISIONI_LASER
100
AcDbLine
 62
250
  6
CONTINUOUS
 10
128.9055650909
 20
116.8981505749
 11
128.9055650909
 21
116.7624363539
  0
LINE
  5
40D
100
AcDbEntity
  8
INCISIONI_LASER
100
AcDbLine
 62
250
  6
CONTINUOUS
 10
128.9055650909
 20
115.4052934644
 11
128.9055650909
 21
115.2695790169
  0
LINE
  5
40E
100
AcDbEntity
  8
RINTRACCIABILITA
100
AcDbLine
 62
7
  6
CONTINUOUS
 10
129.0041943473
 20
86.9338647959
 11
129.0041943473
 21
91.4338647959
  0
LINE
  5
40F
100
AcDbEntity
  8
INCISIONI_LASER
100
AcDbLine
 62
250
  6
CONTINUOUS
 10
124.3148108891
 20
98.5288427959
 11
125.5055430976
 21
99.1462457959
  0
LINE
  5
410
100
AcDbEntity
  8
INCISIONI_LASER
100
AcDbLine
 62
250
  6
CONTINUOUS
 10
125.5055500955
 20
98.4929407959
 11
124.3845416435
 21
97.9116867959
  0
LINE
  5
411
100
AcDbEntity
  8
INCISIONI_LASER
100
AcDbLine
 62
250
  6
CONTINUOUS
 10
140.0055650909
 20
106.5867337959
 11
138.7059610533
 21
105.9638647959
  0
LWPOLYLINE
  5
412
100
AcDbEntity
  8
0
100
AcDbPolyline
 62
250
  6
CONTINUOUS
 90
38
 70
0
 10
141.9712787493
 20
103.5880403047
 10
141.9641909009
 20
103.5859376377
 10
141.9569777673
 20
103.5833240909
 10
141.9496393483
 20
103.5801996643
 10
141.9421567837
 20
103.5765714085
 10
141.9345489337
 20
103.572432273
 10
141.9268723795
 20
103.5677611058
 10
141.9191202787
 20
103.5625367896
 10
141.9112994736
 20
103.5567804419
 10
141.903487072
 20
103.5505342633
 10
141.8956926107
 20
103.5437909265
 10
141.8879065528
 20
103.5365577588
 10
141.8801773956
 20
103.5288989428
 10
141.8725228024
 20
103.5208283975
 10
141.8649251098
 20
103.5123322037
 10
141.8573798247
 20
103.5034327866
 10
141.8498875049
 20
103.4941339713
 10
141.8424475926
 20
103.4844319325
 10
141.8350539214
 20
103.4743376196
 10
141.8277055691
 20
103.4638532363
 10
141.8204034579
 20
103.4529765788
 10
141.813144188
 20
103.4417119851
 10
141.8059310999
 20
103.4300698651
 10
141.7987608532
 20
103.418039809
 10
141.7916200268
 20
103.4055949246
 10
141.7845073398
 20
103.3927401564
 10
141.7774240731
 20
103.37947056
 10
141.770360648
 20
103.3657444096
 10
141.7633135768
 20
103.3515623139
 10
141.7562863471
 20
103.3369236643
 10
141.7492798434
 20
103.3217849084
 10
141.7422903137
 20
103.3061453619
 10
141.7353215099
 20
103.2900057091
 10
141.7283855719
 20
103.2733244503
 10
141.7214791575
 20
103.2561020189
 10
141.7146056088
 20
103.2383379814
 10
141.7077870924
 20
103.2199895383
 10
141.7014131222
 20
103.2021596038
  0
LWPOLYLINE
  5
413
100
AcDbEntity
  8
21814000
100
AcDbPolyline
 62
250
  6
CONTINUOUS
 90
38
 70
0
 10
141.9712787493
 20
103.5880403047
 10
141.9641909009
 20
103.5859376377
 10
141.9569777673
 20
103.5833240909
 10
141.9496393483
 20
103.5801996643
 10
141.9421567837
 20
103.5765714085
 10
141.9345489337
 20
103.572432273
 10
141.9268723795
 20
103.5677611058
 10
141.9191202787
 20
103.5625367896
 10
141.9112994736
 20
103.5567804419
 10
141.903487072
 20
103.5505342633
 10
141.8956926107
 20
103.5437909265
 10
141.8879065528
 20
103.5365577588
 10
141.8801773956
 20
103.5288989428
 10
141.8725228024
 20
103.5208283975
 10
141.8649251098
 20
103.5123322037
 10
141.8573798247
 20
103.5034327866
 10
141.8498875049
 20
103.4941339713
 10
141.8424475926
 20
103.4844319325
 10
141.8350539214
 20
103.4743376196
 10
141.8277055691
 20
103.4638532363
 10
141.8204034579
 20
103.4529765788
 10
141.813144188
 20
103.4417119851
 10
141.8059310999
 20
103.4300698651
 10
141.7987608532
 20
103.418039809
 10
141.7916200268
 20
103.4055949246
 10
141.7845073398
 20
103.3927401564
 10
141.7774240731
 20
103.37947056
 10
141.770360648
 20
103.3657444096
 10
141.7633135768
 20
103.3515623139
 10
141.7562863471
 20
103.3369236643
 10
141.7492798434
 20
103.3217849084
 10
141.7422903137
 20
103.3061453619
 10
141.7353215099
 20
103.2900057091
 10
141.7283855719
 20
103.2733244503
 10
141.7214791575
 20
103.2561020189
 10
141.7146056088
 20
103.2383379814
 10
141.7077870924
 20
103.2199895383
 10
141.7014131222
 20
103.2021596038
  0
LINE
  5
414
100
AcDbEntity
  8
INCISIONI_LASER
100
AcDbLine
 62
250
  6
CONTINUOUS
 10
122.606447392
 20
105.4846547959
 11
125.5055650909
 21
105.4846547959
  0
LINE
  5
415
100
AcDbEntity
  8
INCISIONI_LASER
100
AcDbLine
 62
250
  6
CONTINUOUS
 10
138.7059610533
 20
105.9638647959
 11
140.0055650909
 21
105.9638647959
  0
LINE
  5
416
100
AcDbEntity
  8
INCISIONI_LASER
100
AcDbLine
 62
250
  6
CONTINUOUS
 10
125.5055650909
 20
106.1072607959
 11
124.3891432415
 21
106.1072607959
  0
LINE
  5
417
100
AcDbEntity
  8
INCISIONI_LASER
100
AcDbLine
 62
250
  6
CONTINUOUS
 10
123.9073570318
 20
106.1072607959
 11
123.0882336017
 21
106.1072607959
  0
LWPOLYLINE
  5
418
100
AcDbEntity
  8
INCISIONI_LASER
100
AcDbPolyline
 62
250
  6
CONTINUOUS
 90
54
 70
0
 10
123.4977955344
 20
106.9026246818
 10
123.5109386311
 20
106.9025371618
 10
123.524109263
 20
106.9022600698
 10
123.5372940412
 20
106.901771608
 10
123.5504795766
 20
106.9010499784
 10
123.5636524799
 20
106.9000733831
 10
123.5767993623
 20
106.8988200241
 10
123.5899068345
 20
106.8972681037
 10
123.6029615074
 20
106.8953958239
 10
123.6159499921
 20
106.8931813867
 10
123.6288588993
 20
106.8906029942
 10
123.64167484
 20
106.8876388486
 10
123.6543844251
 20
106.8842671519
 10
123.6669742656
 20
106.8804661062
 10
123.6785650803
 20
106.8765292354
 10
123.6900227512
 20
106.8722053322
 10
123.701329335
 20
106.8674977408
 10
123.7124668886
 20
106.8624098058
 10
123.7234174685
 20
106.8569448716
 10
123.7341631315
 20
106.8511062826
 10
123.7446859343
 20
106.8448973833
 10
123.7549704477
 20
106.8383225542
 10
123.7650126961
 20
106.8313894156
 10
123.7748112071
 20
106.8241066069
 10
123.7843645082
 20
106.816482768
 10
123.7936711269
 20
106.8085265384
 10
123.8027295906
 20
106.8002465578
 10
123.8115384271
 20
106.7916514657
 10
123.8175312175
 20
106.7854715788
 10
123.8233741144
 20
106.7791391215
 10
123.8290394566
 20
106.7726507103
 10
123.8344995829
 20
106.7660029616
 10
123.8397268323
 20
106.7591924919
 10
123.8446935435
 20
106.7522159176
 10
123.8493720553
 20
106.745069855
 10
123.8537347067
 20
106.7377509207
 10
123.8577538365
 20
106.7302557311
 10
123.8614017835
 20
106.7225809025
 10
123.8646828335
 20
106.7146814177
 10
123.8676142761
 20
106.7066298786
 10
123.8702501511
 20
106.6984594577
 10
123.8726444985
 20
106.6902033276
 10
123.8748513584
 20
106.6818946606
 10
123.8782332024
 20
106.6679646478
 10
123.8812929057
 20
106.6539831186
 10
123.8840806357
 20
106.6399525815
 10
123.8871178134
 20
106.6231304863
 10
123.889882757
 20
106.6062540249
 10
123.892419831
 20
106.5893352029
 10
123.8947733998
 20
106.5723860258
 10
123.8969878278
 20
106.5554184991
 10
123.9004856666
 20
106.5271047507
 10
123.9038866114
 20
106.4987865089
 10
123.9073573947
 20
106.4704769268
  0
LINE
  5
419
100
AcDbEntity
  8
INCISIONI_LASER
100
AcDbLine
 62
250
  6
CONTINUOUS
 10
138.7027169903
 20
94.1195789931
 11
138.9812460133
 21
93.8410073874
  0
LINE
  5
41A
100
AcDbEntity
  8
26814000
100
AcDbLine
 62
250
  6
CONTINUOUS
 10
129.7081830516
 20
81.8838647959
 11
129.7081830516
 21
82.1032246224
  0
LINE
  5
41B
100
AcDbEntity
  8
26814000
100
AcDbLine
 62
250
  6
CONTINUOUS
 10
129.7081830516
 20
123.4645049694
 11
129.7081830516
 21
123.6838647959
  0
LINE
  5
41C
100
AcDbEntity
  8
26814000
100
AcDbLine
 62
250
  6
CONTINUOUS
 10
129.7108008128
 20
124.2289605554
 11
129.7108008128
 21
123.9838647959
  0
LINE
  5
41D
100
AcDbEntity
  8
26814000
100
AcDbLine
 62
250
  6
CONTINUOUS
 10
129.7108008128
 20
81.5838647959
 11
129.7108008128
 21
81.3387690364
  0
LINE
  5
41E
100
AcDbEntity
  8
RINTRACCIABILITA
100
AcDbLine
 62
7
  6
CONTINUOUS
 10
130.0040420425
 20
91.4338647959
 11
130.0040420425
 21
86.9338647959
  0
LINE
  5
41F
100
AcDbEntity
  8
0
100
AcDbLine
 62
7
  6
CONTINUOUS
 10
130.0055650909
 20
83.1728856271
 11
130.0055650909
 21
82.1084154452
  0
LINE
  5
420
100
AcDbEntity
  8
21814000
100
AcDbLine
 62
7
  6
CONTINUOUS
 10
130.0055650909
 20
83.1728856271
 11
130.0055650909
 21
82.1084154452
  0
LINE
  5
421
100
AcDbEntity
  8
26814000
100
AcDbLine
 62
7
  6
CONTINUOUS
 10
130.0055650909
 20
81.4711715522
 11
130.0055650909
 21
82.1084154452
  0
LINE
  5
422
100
AcDbEntity
  8
26814000
100
AcDbLine
 62
7
  6
CONTINUOUS
 10
130.0055650909
 20
123.4593141466
 11
130.0055650909
 21
124.0965580396
  0
LINE
  5
423
100
AcDbEntity
  8
0
100
AcDbLine
 62
7
  6
CONTINUOUS
 10
130.0055650909
 20
122.3948439648
 11
130.0055650909
 21
123.4593141466
  0
LINE
  5
424
100
AcDbEntity
  8
21814000
100
AcDbLine
 62
7
  6
CONTINUOUS
 10
130.0055650909
 20
122.3948439648
 11
130.0055650909
 21
123.4593141466
  0
LWPOLYLINE
  5
425
100
AcDbEntity
  8
0
100
AcDbPolyline
 62
250
  6
CONTINUOUS
 90
58
 70
0
 10
141.9794183681
 20
103.5580574673
 10
141.9741064613
 20
103.5559372525
 10
141.9686953318
 20
103.5533074013
 10
141.9631874465
 20
103.5501660042
 10
141.9575742716
 20
103.546515744
 10
141.9518700517
 20
103.5423497755
 10
141.9461114475
 20
103.5376524098
 10
141.9402963078
 20
103.5324017572
 10
141.9344330866
 20
103.5266164745
 10
141.9285735958
 20
103.5203431837
 10
141.9227271226
 20
103.5135748017
 10
141.9168898815
 20
103.5063170222
 10
141.9110929473
 20
103.4986371213
 10
141.90535143
 20
103.49054889
 10
141.8996546326
 20
103.4820383413
 10
141.8939945942
 20
103.4731314075
 10
141.8883746217
 20
103.4638311151
 10
141.8827963403
 20
103.4541336225
 10
141.8772498256
 20
103.4440540087
 10
141.8717377798
 20
103.4335932903
 10
141.8662631877
 20
103.4227490536
 10
141.8608172935
 20
103.4115306173
 10
141.8554068339
 20
103.3999466174
 10
141.8500316628
 20
103.3879865164
 10
141.8446739571
 20
103.3756299832
 10
141.8393386528
 20
103.3628792677
 10
141.8340295897
 20
103.349729046
 10
141.8287292709
 20
103.33614638
 10
141.8234428153
 20
103.3221284057
 10
141.8181768643
 20
103.3076735784
 10
141.8129185247
 20
103.2927496324
 10
141.8076747685
 20
103.2773517699
 10
141.8024539268
 20
103.2614791126
 10
141.7972476803
 20
103.2451040079
 10
141.7920658031
 20
103.2282221436
 10
141.7869179859
 20
103.2108309986
 10
141.781798711
 20
103.1929043076
 10
141.7767228893
 20
103.1744457966
 10
141.7717001298
 20
103.1554438461
 10
141.7667212295
 20
103.1358474367
 10
141.7618036671
 20
103.1156535224
 10
141.7569626001
 20
103.0948555666
 10
141.7521917122
 20
103.0733949515
 10
141.7475137542
 20
103.051265371
 10
141.7429497022
 20
103.0284619071
 10
141.7384992373
 20
103.0049252358
 10
141.7341900136
 20
102.9806323639
 10
141.7300534249
 20
102.955593836
 10
141.7261048581
 20
102.9297980493
 10
141.7223833776
 20
102.9032413554
 10
141.7189249032
 20
102.8759164968
 10
141.7157530228
 20
102.847804049
 10
141.7129210319
 20
102.8189310448
 10
141.7104725453
 20
102.7892636192
 10
141.708441434
 20
102.7586873432
 10
141.7068937065
 20
102.7271620964
 10
141.7059099495
 20
102.6947272208
 10
141.7055650909
 20
102.6613886737
  0
LWPOLYLINE
  5
426
100
AcDbEntity
  8
21814000
100
AcDbPolyline
 62
250
  6
CONTINUOUS
 90
58
 70
0
 10
141.9794183681
 20
103.5580574673
 10
141.9741064613
 20
103.5559372525
 10
141.9686953318
 20
103.5533074013
 10
141.9631874465
 20
103.5501660042
 10
141.9575742716
 20
103.546515744
 10
141.9518700517
 20
103.5423497755
 10
141.9461114475
 20
103.5376524098
 10
141.9402963078
 20
103.5324017572
 10
141.9344330866
 20
103.5266164745
 10
141.9285735958
 20
103.5203431837
 10
141.9227271226
 20
103.5135748017
 10
141.9168898815
 20
103.5063170222
 10
141.9110929473
 20
103.4986371213
 10
141.90535143
 20
103.49054889
 10
141.8996546326
 20
103.4820383413
 10
141.8939945942
 20
103.4731314075
 10
141.8883746217
 20
103.4638311151
 10
141.8827963403
 20
103.4541336225
 10
141.8772498256
 20
103.4440540087
 10
141.8717377798
 20
103.4335932903
 10
141.8662631877
 20
103.4227490536
 10
141.8608172935
 20
103.4115306173
 10
141.8554068339
 20
103.3999466174
 10
141.8500316628
 20
103.3879865164
 10
141.8446739571
 20
103.3756299832
 10
141.8393386528
 20
103.3628792677
 10
141.8340295897
 20
103.349729046
 10
141.8287292709
 20
103.33614638
 10
141.8234428153
 20
103.3221284057
 10
141.8181768643
 20
103.3076735784
 10
141.8129185247
 20
103.2927496324
 10
141.8076747685
 20
103.2773517699
 10
141.8024539268
 20
103.2614791126
 10
141.7972476803
 20
103.2451040079
 10
141.7920658031
 20
103.2282221436
 10
141.7869179859
 20
103.2108309986
 10
141.781798711
 20
103.1929043076
 10
141.7767228893
 20
103.1744457966
 10
141.7717001298
 20
103.1554438461
 10
141.7667212295
 20
103.1358474367
 10
141.7618036671
 20
103.1156535224
 10
141.7569626001
 20
103.0948555666
 10
141.7521917122
 20
103.0733949515
 10
141.7475137542
 20
103.051265371
 10
141.7429497022
 20
103.0284619071
 10
141.7384992373
 20
103.0049252358
 10
141.7341900136
 20
102.9806323639
 10
141.7300534249
 20
102.955593836
 10
141.7261048581
 20
102.9297980493
 10
141.7223833776
 20
102.9032413554
 10
141.7189249032
 20
102.8759164968
 10
141.7157530228
 20
102.847804049
 10
141.7129210319
 20
102.8189310448
 10
141.7104725453
 20
102.7892636192
 10
141.708441434
 20
102.7586873432
 10
141.7068937065
 20
102.7271620964
 10
141.7059099495
 20
102.6947272208
 10
141.7055650909
 20
102.6613886737
  0
LINE
  5
427
100
AcDbEntity
  8
INCISIONI_LASER
100
AcDbLine
 62
250
  6
CONTINUOUS
 10
122.6063034359
 20
95.5075437959
 11
125.505558093
 21
96.4386827959
  0
LWPOLYLINE
  5
428
100
AcDbEntity
  8
0
100
AcDbPolyline
 62
250
  6
CONTINUOUS
 90
43
 70
0
 10
140.8212722567
 20
113.9021022048
 10
140.845021744
 20
113.9088129817
 10
140.8691039491
 20
113.9124525591
 10
140.8934999057
 20
113.9130209368
 10
140.9182388981
 20
113.9105498344
 10
140.9432485612
 20
113.9050075324
 10
140.9683568016
 20
113.8962988721
 10
140.9935843184
 20
113.8842048709
 10
141.0188627433
 20
113.8689445114
 10
141.0438922485
 20
113.8510795827
 10
141.0685583547
 20
113.8305869086
 10
141.0929396956
 20
113.8074896653
 10
141.1170319797
 20
113.7824191703
 10
141.1407552192
 20
113.7554904386
 10
141.1641559095
 20
113.7265884553
 10
141.1874127713
 20
113.6959994933
 10
141.2104973236
 20
113.6637895394
 10
141.2333894332
 20
113.6298926068
 10
141.2562634161
 20
113.5943970077
 10
141.2791035199
 20
113.5573012291
 10
141.3018513862
 20
113.5186067839
 10
141.3245980373
 20
113.4784065235
 10
141.3472938124
 20
113.43670743
 10
141.3698865989
 20
113.3935025213
 10
141.3924426498
 20
113.3488637026
 10
141.4148627953
 20
113.3028480584
 10
141.4371081328
 20
113.2553985042
 10
141.4592998869
 20
113.2064156915
 10
141.4813013961
 20
113.155947597
 10
141.503041011
 20
113.1039462439
 10
141.5246695367
 20
113.0501683537
 10
141.5460078873
 20
112.9945776057
 10
141.5668955741
 20
112.9372103205
 10
141.5874009844
 20
112.8779321819
 10
141.6072440495
 20
112.8166670714
 10
141.6261635051
 20
112.7534911074
 10
141.6440886585
 20
112.6884983298
 10
141.6606568031
 20
112.6213126246
 10
141.6753518911
 20
112.5523101057
 10
141.6877247116
 20
112.4827131543
 10
141.6972576622
 20
112.412929231
 10
141.7033926484
 20
112.3425508752
 10
141.7055650909
 20
112.271578087
  0
LWPOLYLINE
  5
429
100
AcDbEntity
  8
21814000
100
AcDbPolyline
 62
250
  6
CONTINUOUS
 90
43
 70
0
 10
140.8212722567
 20
113.9021022048
 10
140.845021744
 20
113.9088129817
 10
140.8691039491
 20
113.9124525591
 10
140.8934999057
 20
113.9130209368
 10
140.9182388981
 20
113.9105498344
 10
140.9432485612
 20
113.9050075324
 10
140.9683568016
 20
113.8962988721
 10
140.9935843184
 20
113.8842048709
 10
141.0188627433
 20
113.8689445114
 10
141.0438922485
 20
113.8510795827
 10
141.0685583547
 20
113.8305869086
 10
141.0929396956
 20
113.8074896653
 10
141.1170319797
 20
113.7824191703
 10
141.1407552192
 20
113.7554904386
 10
141.1641559095
 20
113.7265884553
 10
141.1874127713
 20
113.6959994933
 10
141.2104973236
 20
113.6637895394
 10
141.2333894332
 20
113.6298926068
 10
141.2562634161
 20
113.5943970077
 10
141.2791035199
 20
113.5573012291
 10
141.3018513862
 20
113.5186067839
 10
141.3245980373
 20
113.4784065235
 10
141.3472938124
 20
113.43670743
 10
141.3698865989
 20
113.3935025213
 10
141.3924426498
 20
113.3488637026
 10
141.4148627953
 20
113.3028480584
 10
141.4371081328
 20
113.2553985042
 10
141.4592998869
 20
113.2064156915
 10
141.4813013961
 20
113.155947597
 10
141.503041011
 20
113.1039462439
 10
141.5246695367
 20
113.0501683537
 10
141.5460078873
 20
112.9945776057
 10
141.5668955741
 20
112.9372103205
 10
141.5874009844
 20
112.8779321819
 10
141.6072440495
 20
112.8166670714
 10
141.6261635051
 20
112.7534911074
 10
141.6440886585
 20
112.6884983298
 10
141.6606568031
 20
112.6213126246
 10
141.6753518911
 20
112.5523101057
 10
141.6877247116
 20
112.4827131543
 10
141.6972576622
 20
112.412929231
 10
141.7033926484
 20
112.3425508752
 10
141.7055650909
 20
112.271578087
  0
LWPOLYLINE
  5
42A
100
AcDbEntity
  8
INCISIONI_LASER
100
AcDbPolyline
 62
250
  6
CONTINUOUS
 90
56
 70
0
 10
123.4977955344
 20
107.5653915963
 10
123.4673030146
 20
107.5650865401
 10
123.4368058973
 20
107.5641387248
 10
123.4063292466
 20
107.5624991804
 10
123.3758981267
 20
107.5601189369
 10
123.3455376017
 20
107.5569490243
 10
123.3152727356
 20
107.5529404726
 10
123.2851285927
 20
107.5480443116
 10
123.2588407785
 20
107.5429885167
 10
123.2326987049
 20
107.5371919463
 10
123.2067362102
 20
107.530632715
 10
123.180987133
 20
107.5232889375
 10
123.1554853119
 20
107.5151387284
 10
123.1302645853
 20
107.5061602025
 10
123.1053587918
 20
107.4963314743
 10
123.08080177
 20
107.4856306584
 10
123.056635789
 20
107.4740433563
 10
123.0329010261
 20
107.4615676811
 10
123.0096462787
 20
107.4482087902
 10
122.9869203443
 20
107.4339718412
 10
122.9647720201
 20
107.4188619914
 10
122.9432501036
 20
107.4028843984
 10
122.922403392
 20
107.3860442194
 10
122.9022806829
 20
107.368346612
 10
122.8829898429
 20
107.3498688845
 10
122.8644814557
 20
107.3305944056
 10
122.8467704372
 20
107.3105728905
 10
122.8298717036
 20
107.2898540546
 10
122.8138001707
 20
107.268487613
 10
122.7985707547
 20
107.2465232811
 10
122.7841983715
 20
107.2240107742
 10
122.7706979372
 20
107.2009998076
 10
122.7580241234
 20
107.1774615193
 10
122.7461453007
 20
107.153533672
 10
122.7349635459
 20
107.1292785121
 10
122.7243809363
 20
107.1047582858
 10
122.7110541957
 20
107.0717570071
 10
122.6984831941
 20
107.0384571054
 10
122.686533221
 20
107.0049202792
 10
122.67791944
 20
106.9796222358
 10
122.6696928532
 20
106.954199418
 10
122.6619667039
 20
106.9286257592
 10
122.6548542352
 20
106.9028751928
 10
122.6484620787
 20
106.8769786736
 10
122.6428006236
 20
106.8509066384
 10
122.6378763363
 20
106.824685795
 10
122.6336956829
 20
106.7983428508
 10
122.630231596
 20
106.771839315
 10
122.6273711945
 20
106.74526264
 10
122.624964404
 20
106.7186355454
 10
122.6228611504
 20
106.6919807505
 10
122.6191509017
 20
106.6386974726
 10
122.6159496156
 20
106.5853909717
 10
122.6123058809
 20
106.5143143067
 10
122.6091993352
 20
106.4432068187
 10
122.6064475327
 20
106.3720848534
  0
LINE
  5
42B
100
AcDbEntity
  8
INCISIONI_LASER
100
AcDbLine
 62
250
  6
CONTINUOUS
 10
140.0055650909
 20
107.2096007959
 11
138.7059610533
 21
107.2096007959
  0
LINE
  5
42C
100
AcDbEntity
  8
26814000
100
AcDbLine
 62
250
  6
CONTINUOUS
 10
115.7949309832
 20
107.5838647959
 11
115.474662361
 21
107.5838647959
  0
LINE
  5
42D
100
AcDbEntity
  8
26814000
100
AcDbLine
 62
7
  6
CONTINUOUS
 10
115.8194878954
 20
107.7838647959
 11
115.4956832081
 21
107.7838647959
  0
LINE
  5
42E
100
AcDbEntity
  8
INCISIONI_LASER
100
AcDbLine
 62
250
  6
CONTINUOUS
 10
125.5055650909
 20
107.9549977959
 11
122.606447392
 21
107.9549977959
  0
LINE
  5
42F
100
AcDbEntity
  8
26814000
100
AcDbLine
 62
250
  6
CONTINUOUS
 10
115.8440448076
 20
107.9838647959
 11
115.5167040551
 21
107.9838647959
  0
LINE
  5
430
100
AcDbEntity
  8
0
100
AcDbLine
 62
7
  6
CONTINUOUS
 10
141.7055650909
 20
108.2838647959
 11
141.9055650909
 21
108.2838647959
  0
LINE
  5
431
100
AcDbEntity
  8
21814000
100
AcDbLine
 62
7
  6
CONTINUOUS
 10
141.7055650909
 20
108.2838647959
 11
141.9055650909
 21
108.2838647959
  0
LINE
  5
432
100
AcDbEntity
  8
INCISIONI_LASER
100
AcDbLine
 62
250
  6
CONTINUOUS
 10
122.606447392
 20
108.5776037959
 11
125.0237788812
 21
108.5776037959
  0
LINE
  5
433
100
AcDbEntity
  8
INCISIONI_LASER
100
AcDbLine
 62
250
  6
CONTINUOUS
 10
138.7059610533
 20
108.6942717959
 11
140.0055650909
 21
108.6942717959
  0
LINE
  5
434
100
AcDbEntity
  8
0
100
AcDbLine
 62
250
  6
CONTINUOUS
 10
141.7008941262
 20
108.3821534323
 11
141.7014131222
 21
108.3821533602
  0
LINE
  5
435
100
AcDbEntity
  8
21814000
100
AcDbLine
 62
250
  6
CONTINUOUS
 10
141.7008941262
 20
108.3821534323
 11
141.7014131222
 21
108.3821533602
  0
LINE
  5
436
100
AcDbEntity
  8
0
100
AcDbLine
 62
7
  6
CONTINUOUS
 10
141.9794183681
 20
107.5599057387
 11
143.7317118137
 21
107.406599927
  0
LINE
  5
437
100
AcDbEntity
  8
21814000
100
AcDbLine
 62
7
  6
CONTINUOUS
 10
141.9794183681
 20
107.5599057387
 11
143.7317118137
 21
107.406599927
  0
LINE
  5
438
100
AcDbEntity
  8
INCISIONI_LASER
100
AcDbLine
 62
250
  6
CONTINUOUS
 10
140.002518994
 20
94.1195789931
 11
139.8168329852
 21
94.3052931902
  0
LWPOLYLINE
  5
439
100
AcDbEntity
  8
0
100
AcDbPolyline
 62
250
  6
CONTINUOUS
 90
7
 70
0
 10
141.7014131222
 20
91.0846207142
 10
141.7037689814
 20
91.0815375845
 10
141.7222406018
 20
91.0594427136
 10
141.7416379507
 20
91.0373916044
 10
141.7618292784
 20
91.0152820785
 10
141.7829463348
 20
90.9932163144
 10
141.8049891197
 20
90.971194312
  0
LWPOLYLINE
  5
43A
100
AcDbEntity
  8
21814000
100
AcDbPolyline
 62
250
  6
CONTINUOUS
 90
7
 70
0
 10
141.7014131222
 20
91.0846207142
 10
141.7037689814
 20
91.0815375845
 10
141.7222406018
 20
91.0594427136
 10
141.7416379507
 20
91.0373916044
 10
141.7618292784
 20
91.0152820785
 10
141.7829463348
 20
90.9932163144
 10
141.8049891197
 20
90.971194312
  0
LINE
  5
43B
100
AcDbEntity
  8
0
100
AcDbLine
 62
250
  6
CONTINUOUS
 10
135.6744528422
 20
89.6591678968
 11
135.6175027419
 21
89.8041608572
  0
LINE
  5
43C
100
AcDbEntity
  8
INCISIONI_LASER
100
AcDbLine
 62
250
  6
CONTINUOUS
 10
132.174662378
 20
88.2321407959
 11
132.174662378
 21
88.5884627959
  0
LINE
  5
43D
100
AcDbEntity
  8
INCISIONI_LASER
100
AcDbLine
 62
250
  6
CONTINUOUS
 10
132.174662378
 20
89.7378877959
 11
132.174662378
 21
90.2953587959
  0
LINE
  5
43E
100
AcDbEntity
  8
INCISIONI_LASER
100
AcDbLine
 62
250
  6
CONTINUOUS
 10
132.6055650909
 20
90.1286927959
 11
132.6055650909
 21
89.7378877959
  0
LINE
  5
43F
100
AcDbEntity
  8
0
100
AcDbLine
 62
250
  6
CONTINUOUS
 10
133.0036260781
 20
98.2851737959
 11
133.0036260781
 21
97.1741297959
  0
LINE
  5
440
100
AcDbEntity
  8
0
100
AcDbLine
 62
250
  6
CONTINUOUS
 10
133.0036260781
 20
94.3963497959
 11
133.0036260781
 21
93.2853067959
  0
LINE
  5
441
100
AcDbEntity
  8
0
100
AcDbLine
 62
250
  6
CONTINUOUS
 10
133.0036260781
 20
94.9516987959
 11
133.0036260781
 21
96.6184357959
  0
LINE
  5
442
100
AcDbEntity
  8
INCISIONI_LASER
100
AcDbLine
 62
250
  6
CONTINUOUS
 10
133.0364678038
 20
90.2953587959
 11
133.0364678038
 21
89.7378877959
  0
LINE
  5
443
100
AcDbEntity
  8
INCISIONI_LASER
100
AcDbLine
 62
250
  6
CONTINUOUS
 10
133.0364678038
 20
88.5884627959
 11
133.0364678038
 21
88.2321407959
  0
LWPOLYLINE
  5
444
100
AcDbEntity
  8
0
100
AcDbPolyline
 62
250
  6
CONTINUOUS
 90
74
 70
0
 10
130.0225662439
 20
96.960990346
 10
130.04072337
 20
97.0313475253
 10
130.0469496518
 20
97.054765329
 10
130.053421706
 20
97.0780987197
 10
130.0603182909
 20
97.1013053742
 10
130.0677118761
 20
97.1243551773
 10
130.0752070044
 20
97.1473785978
 10
130.0788784569
 20
97.1589459444
 10
130.0826111587
 20
97.1704919831
 10
130.0865696881
 20
97.1819596864
 10
130.0909186232
 20
97.1932920267
 10
130.0957777345
 20
97.204388589
 10
130.10120087
 20
97.2152289611
 10
130.1072012811
 20
97.2257478832
 10
130.1137922192
 20
97.2358800959
 10
130.1210051053
 20
97.2456158974
 10
130.1287662008
 20
97.254933383
 10
130.1370150199
 20
97.2638698868
 10
130.1456910768
 20
97.2724627427
 10
130.1546647413
 20
97.2806644137
 10
130.1639889208
 20
97.288502516
 10
130.1736535115
 20
97.2959146722
 10
130.1836484096
 20
97.3028385053
 10
130.1939635115
 20
97.309211638
 10
130.2045887133
 20
97.3149716931
 10
130.2155139113
 20
97.3200562935
 10
130.2267290018
 20
97.3244030619
 10
130.238223174
 20
97.327967202
 10
130.249950744
 20
97.3307647374
 10
130.2618650621
 20
97.3328300131
 10
130.2739194782
 20
97.3341973741
 10
130.2860673427
 20
97.3349011655
 10
130.2982620056
 20
97.3349757324
 10
130.3104568172
 20
97.3344554197
 10
130.3226051276
 20
97.3333745725
 10
130.3364870932
 20
97.3314717132
 10
130.3502175804
 20
97.3288756892
 10
130.3637687012
 20
97.3255914688
 10
130.3771125673
 20
97.3216240204
 10
130.3902212907
 20
97.3169783126
 10
130.4030669831
 20
97.3116593137
 10
130.4156217564
 20
97.3056719922
 10
130.4278082665
 20
97.2990529453
 10
130.4396455428
 20
97.2918020804
 10
130.4511005989
 20
97.283945607
 10
130.4621404483
 20
97.2755097345
 10
130.4727321045
 20
97.2665206723
 10
130.4828425809
 20
97.2570046299
 10
130.492438891
 20
97.2469878168
 10
130.5015268698
 20
97.2364602206
 10
130.5100746403
 20
97.2254946631
 10
130.5180930811
 20
97.214131157
 10
130.525593071
 20
97.2024097148
 10
130.5325854888
 20
97.1903703488
 10
130.5390812132
 20
97.1780530717
 10
130.5450911229
 20
97.1654978959
 10
130.5520166348
 20
97.1493229622
 10
130.558202329
 20
97.132860158
 10
130.5636689076
 20
97.1161384901
 10
130.568437073
 20
97.0991869652
 10
130.5725275274
 20
97.08203459
 10
130.5759609732
 20
97.0647103713
 10
130.5787581125
 20
97.0472433159
 10
130.5809396478
 20
97.0296624306
 10
130.5825262812
 20
97.0119967221
 10
130.583538715
 20
96.9942751971
 10
130.5839976515
 20
96.9765268624
 10
130.5838800123
 20
96.9569952103
 10
130.5830986532
 20
96.9374967588
 10
130.5816352493
 20
96.9180620473
 10
130.5794714757
 20
96.8987216151
 10
130.5765890073
 20
96.8795060014
 10
130.5729695193
 20
96.8604457456
 10
130.5685946868
 20
96.8415713869
  0
LWPOLYLINE
  5
445
100
AcDbEntity
  8
0
100
AcDbPolyline
 62
250
  6
CONTINUOUS
 90
45
 70
0
 10
130.5685946868
 20
96.8415713869
 10
130.5655995987
 20
96.8303487066
 10
130.5623220314
 20
96.81921054
 10
130.5587580267
 20
96.8081634834
 10
130.5549036264
 20
96.7972141333
 10
130.5507548724
 20
96.7863690863
 10
130.5470501357
 20
96.7773705744
 10
130.5431335371
 20
96.768459245
 10
130.5390025348
 20
96.7596444645
 10
130.5346545869
 20
96.7509355992
 10
130.5300871513
 20
96.7423420155
 10
130.5252976862
 20
96.7338730796
 10
130.5202836498
 20
96.7255381581
 10
130.5150425
 20
96.7173466173
 10
130.5095716951
 20
96.7093078234
 10
130.503868693
 20
96.701431143
 10
130.4979351465
 20
96.693729135
 10
130.4917726063
 20
96.6862054427
 10
130.4853865971
 20
96.6788670632
 10
130.4787826432
 20
96.671720994
 10
130.471966269
 20
96.6647742323
 10
130.4649429991
 20
96.6580337755
 10
130.4577183579
 20
96.6515066208
 10
130.4502978699
 20
96.6451997655
 10
130.4426870596
 20
96.6391202069
 10
130.4348914513
 20
96.6332749424
 10
130.4264498891
 20
96.6273519801
 10
130.417818742
 20
96.6216963062
 10
130.4090090741
 20
96.6163051478
 10
130.4000319496
 20
96.6111757315
 10
130.3908984326
 20
96.6063052844
 10
130.3816195873
 20
96.6016910331
 10
130.3722064778
 20
96.5973302046
 10
130.3626701683
 20
96.5932200257
 10
130.3530217229
 20
96.5893577233
 10
130.3432722058
 20
96.5857405242
 10
130.333432681
 20
96.5823656553
 10
130.3235142128
 20
96.5792303435
 10
130.3135278653
 20
96.5763318155
 10
130.3034847027
 20
96.5736672982
 10
130.293395789
 20
96.5712340186
 10
130.2832721885
 20
96.5690292033
 10
130.2731249652
 20
96.5670500794
 10
130.2629651833
 20
96.5652938736
 10
130.2528039071
 20
96.5637578128
  0
LINE
  5
446
100
AcDbEntity
  8
INCISIONI_LASER
100
AcDbLine
 62
250
  6
CONTINUOUS
 10
124.3845416435
 20
95.4986187959
 11
123.5092693209
 21
95.2175147959
  0
LINE
  5
447
100
AcDbEntity
  8
INCISIONI_LASER
100
AcDbLine
 62
250
  6
CONTINUOUS
 10
125.5055500955
 20
95.8586537959
 11
124.9353958097
 21
95.6755477959
  0
LWPOLYLINE
  5
448
100
AcDbEntity
  8
0
100
AcDbPolyline
 62
7
  6
CONTINUOUS
 90
76
 70
0
 10
140.9762302874
 20
113.9867598163
 10
141.0654885272
 20
114.0092878081
 10
141.152294805
 20
114.0316939399
 10
141.2366491209
 20
114.0539782117
 10
141.318495005
 20
114.0761283401
 10
141.3978889272
 20
114.0981566085
 10
141.4750002974
 20
114.120099867
 10
141.5498389617
 20
114.1419574249
 10
141.6223950739
 20
114.1637299729
 10
141.6928085056
 20
114.1854564328
 10
141.7610862572
 20
114.2071345102
 10
141.8272213282
 20
114.2287664995
 10
141.8913325886
 20
114.2503982062
 10
141.9534283186
 20
114.2720262441
 10
142.0135002381
 20
114.2936539995
 10
142.0716423768
 20
114.3153374367
 10
142.1278655123
 20
114.3370715261
 10
142.1821588671
 20
114.3588612974
 10
142.2345841383
 20
114.3807778044
 10
142.285156729
 20
114.4028133985
 10
142.3338612362
 20
114.4249757284
 10
142.3807131479
 20
114.4473587931
 10
142.4257386098
 20
114.4699519641
 10
142.4689114761
 20
114.49276587
 10
142.5101687985
 20
114.5159263965
 10
142.5495548394
 20
114.5394181434
 10
142.5870253363
 20
114.5632565109
 10
142.6223845526
 20
114.5876135847
 10
142.6557317707
 20
114.6125003234
 10
142.6869677082
 20
114.6379057684
 10
142.7155987818
 20
114.663969129
 10
142.7417345903
 20
114.6907800571
 10
142.765265535
 20
114.7182489008
 10
142.7853692363
 20
114.7462459132
 10
142.8019783919
 20
114.7748145143
 10
142.815160304
 20
114.8039112841
 10
142.8242944998
 20
114.8332762158
 10
142.8292237343
 20
114.8629280123
 10
142.8301052524
 20
114.8928479707
 10
142.8267903152
 20
114.9227199757
 10
142.8190407413
 20
114.9525993894
 10
142.8070947121
 20
114.9824308497
 10
142.7915180332
 20
115.0117321557
 10
142.7722010088
 20
115.0403999252
 10
142.7492533347
 20
115.0685375404
 10
142.7235699035
 20
115.0959729468
 10
142.695266094
 20
115.1225999258
 10
142.6642265274
 20
115.1485246961
 10
142.6309999592
 20
115.1738938587
 10
142.5956933348
 20
115.1986958158
 10
142.5581997089
 20
115.2229421652
 10
142.5187470007
 20
115.246814302
 10
142.4773860532
 20
115.2703276153
 10
142.4340660234
 20
115.2934667159
 10
142.3888623021
 20
115.3163668314
 10
142.3418027853
 20
115.3390399092
 10
142.2928595769
 20
115.361474002
 10
142.2420243794
 20
115.3837684954
 10
142.1893147811
 20
115.4059312823
 10
142.1347131937
 20
115.4279544698
 10
142.0781585549
 20
115.4499137651
 10
142.0196588558
 20
115.4718157654
 10
141.9592061053
 20
115.4936538735
 10
141.8967152682
 20
115.5154840044
 10
141.8321922999
 20
115.5373102876
 10
141.7656312449
 20
115.5591285936
 10
141.6969292009
 20
115.5809824485
 10
141.6261014387
 20
115.602871761
 10
141.5531326874
 20
115.6247966224
 10
141.4778742329
 20
115.6468008333
 10
141.4003359975
 20
115.6688860956
 10
141.3205080588
 20
115.6910507073
 10
141.2382119352
 20
115.713333363
 10
141.1533881328
 20
115.735746961
 10
141.0660961454
 20
115.758278603
 10
140.9763359731
 20
115.780928289
  0
LWPOLYLINE
  5
449
100
AcDbEntity
  8
21814000
100
AcDbPolyline
 62
7
  6
CONTINUOUS
 90
76
 70
0
 10
140.9762302874
 20
113.9867598163
 10
141.0654885272
 20
114.0092878081
 10
141.152294805
 20
114.0316939399
 10
141.2366491209
 20
114.0539782117
 10
141.318495005
 20
114.0761283401
 10
141.3978889272
 20
114.0981566085
 10
141.4750002974
 20
114.120099867
 10
141.5498389617
 20
114.1419574249
 10
141.6223950739
 20
114.1637299729
 10
141.6928085056
 20
114.1854564328
 10
141.7610862572
 20
114.2071345102
 10
141.8272213282
 20
114.2287664995
 10
141.8913325886
 20
114.2503982062
 10
141.9534283186
 20
114.2720262441
 10
142.0135002381
 20
114.2936539995
 10
142.0716423768
 20
114.3153374367
 10
142.1278655123
 20
114.3370715261
 10
142.1821588671
 20
114.3588612974
 10
142.2345841383
 20
114.3807778044
 10
142.285156729
 20
114.4028133985
 10
142.3338612362
 20
114.4249757284
 10
142.3807131479
 20
114.4473587931
 10
142.4257386098
 20
114.4699519641
 10
142.4689114761
 20
114.49276587
 10
142.5101687985
 20
114.5159263965
 10
142.5495548394
 20
114.5394181434
 10
142.5870253363
 20
114.5632565109
 10
142.6223845526
 20
114.5876135847
 10
142.6557317707
 20
114.6125003234
 10
142.6869677082
 20
114.6379057684
 10
142.7155987818
 20
114.663969129
 10
142.7417345903
 20
114.6907800571
 10
142.765265535
 20
114.7182489008
 10
142.7853692363
 20
114.7462459132
 10
142.8019783919
 20
114.7748145143
 10
142.815160304
 20
114.8039112841
 10
142.8242944998
 20
114.8332762158
 10
142.8292237343
 20
114.8629280123
 10
142.8301052524
 20
114.8928479707
 10
142.8267903152
 20
114.9227199757
 10
142.8190407413
 20
114.9525993894
 10
142.8070947121
 20
114.9824308497
 10
142.7915180332
 20
115.0117321557
 10
142.7722010088
 20
115.0403999252
 10
142.7492533347
 20
115.0685375404
 10
142.7235699035
 20
115.0959729468
 10
142.695266094
 20
115.1225999258
 10
142.6642265274
 20
115.1485246961
 10
142.6309999592
 20
115.1738938587
 10
142.5956933348
 20
115.1986958158
 10
142.5581997089
 20
115.2229421652
 10
142.5187470007
 20
115.246814302
 10
142.4773860532
 20
115.2703276153
 10
142.4340660234
 20
115.2934667159
 10
142.3888623021
 20
115.3163668314
 10
142.3418027853
 20
115.3390399092
 10
142.2928595769
 20
115.361474002
 10
142.2420243794
 20
115.3837684954
 10
142.1893147811
 20
115.4059312823
 10
142.1347131937
 20
115.4279544698
 10
142.0781585549
 20
115.4499137651
 10
142.0196588558
 20
115.4718157654
 10
141.9592061053
 20
115.4936538735
 10
141.8967152682
 20
115.5154840044
 10
141.8321922999
 20
115.5373102876
 10
141.7656312449
 20
115.5591285936
 10
141.6969292009
 20
115.5809824485
 10
141.6261014387
 20
115.602871761
 10
141.5531326874
 20
115.6247966224
 10
141.4778742329
 20
115.6468008333
 10
141.4003359975
 20
115.6688860956
 10
141.3205080588
 20
115.6910507073
 10
141.2382119352
 20
115.713333363
 10
141.1533881328
 20
115.735746961
 10
141.0660961454
 20
115.758278603
 10
140.9763359731
 20
115.780928289
  0
LINE
  5
44A
100
AcDbEntity
  8
0
100
AcDbLine
 62
7
  6
CONTINUOUS
 10
141.9794183681
 20
111.8078238531
 11
143.7317118137
 21
111.9611296648
  0
LINE
  5
44B
100
AcDbEntity
  8
21814000
100
AcDbLine
 62
7
  6
CONTINUOUS
 10
141.9794183681
 20
111.8078238531
 11
143.7317118137
 21
111.9611296648
  0
LINE
  5
44C
100
AcDbEntity
  8
INCISIONI_LASER
100
AcDbLine
 62
250
  6
CONTINUOUS
 10
125.0237788812
 20
109.6506027959
 11
125.5055650909
 21
109.6506027959
  0
LINE
  5
44D
100
AcDbEntity
  8
0
100
AcDbLine
 62
7
  6
CONTINUOUS
 10
141.7055650909
 20
109.941311605
 11
141.9055650909
 21
109.941311605
  0
LINE
  5
44E
100
AcDbEntity
  8
21814000
100
AcDbLine
 62
7
  6
CONTINUOUS
 10
141.7055650909
 20
109.941311605
 11
141.9055650909
 21
109.941311605
  0
LINE
  5
44F
100
AcDbEntity
  8
INCISIONI_LASER
100
AcDbLine
 62
250
  6
CONTINUOUS
 10
138.7059610533
 20
110.0106197959
 11
140.0055650909
 21
110.0106197959
  0
LINE
  5
450
100
AcDbEntity
  8
0
100
AcDbLine
 62
7
  6
CONTINUOUS
 10
141.7055650909
 20
110.1838647959
 11
141.9055650909
 21
110.1838647959
  0
LINE
  5
451
100
AcDbEntity
  8
21814000
100
AcDbLine
 62
7
  6
CONTINUOUS
 10
141.7055650909
 20
110.1838647959
 11
141.9055650909
 21
110.1838647959
  0
LWPOLYLINE
  5
452
100
AcDbEntity
  8
0
100
AcDbPolyline
 62
250
  6
CONTINUOUS
 90
73
 70
0
 10
141.9712787493
 20
105.3796892872
 10
142.0571434068
 20
105.3560026549
 10
142.1404068208
 20
105.3324810363
 10
142.2210689915
 20
105.3091244313
 10
142.2990522253
 20
105.2859497169
 10
142.3744342158
 20
105.2629400162
 10
142.4474480431
 20
105.240044698
 10
142.5180979964
 20
105.217268387
 10
142.5863797866
 20
105.1946064585
 10
142.6525136265
 20
105.1719944081
 10
142.7165094118
 20
105.149437255
 10
142.7783572467
 20
105.12692998
 10
142.8382476564
 20
105.1043930205
 10
142.8962065582
 20
105.0818274496
 10
142.9522080348
 20
105.0592321941
 10
143.0063648598
 20
105.0365244731
 10
143.0586850807
 20
105.0137172943
 10
143.1091606501
 20
104.9907976498
 10
143.1578801985
 20
104.9676437345
 10
143.2048736681
 20
104.9442691416
 10
143.2501111169
 20
104.9206602779
 10
143.2935913495
 20
104.896654558
 10
143.335401522
 20
104.8722395578
 10
143.3754544784
 20
104.8474277016
 10
143.4134875551
 20
104.8220936765
 10
143.4495476263
 20
104.7962638098
 10
143.4835878178
 20
104.7699117742
 10
143.5152048433
 20
104.7428332757
 10
143.5445483073
 20
104.714936738
 10
143.5714686054
 20
104.6863137372
 10
143.5951136378
 20
104.6570347076
 10
143.6154508216
 20
104.626872245
 10
143.6325127399
 20
104.5960537536
 10
143.6455450424
 20
104.56533188
 10
143.6542945587
 20
104.5350347309
 10
143.6590144591
 20
104.5048341997
 10
143.659709905
 20
104.4744986127
 10
143.6563761396
 20
104.4438839681
 10
143.6490179196
 20
104.4131342677
 10
143.6376546769
 20
104.3824498434
 10
143.6220234348
 20
104.3517009812
 10
143.6023871699
 20
104.3210173951
 10
143.5795542438
 20
104.2909885585
 10
143.553528174
 20
104.2618004306
 10
143.5243054429
 20
104.2332670521
 10
143.4926838593
 20
104.2054200186
 10
143.4587925054
 20
104.1783263476
 10
143.4225022991
 20
104.1519190217
 10
143.3842238028
 20
104.1260285837
 10
143.3439821516
 20
104.1006269188
 10
143.3017522104
 20
104.0757421418
 10
143.2578691364
 20
104.0512891409
 10
143.2123607324
 20
104.0272614901
 10
143.1651991957
 20
104.0036656153
 10
143.1166362746
 20
103.9804356831
 10
143.0667103112
 20
103.9575741845
 10
143.0153829635
 20
103.9350786284
 10
142.9627909545
 20
103.9128757085
 10
142.9091283265
 20
103.8910212107
 10
142.8542010371
 20
103.8694593489
 10
142.7975636826
 20
103.8479494581
 10
142.7390970567
 20
103.8264279759
 10
142.6789203655
 20
103.8049584646
 10
142.6169458231
 20
103.7834909458
 10
142.5531878208
 20
103.7620249206
 10
142.4876319672
 20
103.7405608879
 10
142.4201473018
 20
103.7190503661
 10
142.3508084522
 20
103.6975095538
 10
142.2795407908
 20
103.6759222524
 10
142.2059894741
 20
103.6541913846
 10
142.1300362211
 20
103.6322845911
 10
142.0517993128
 20
103.6102342311
 10
141.9712787493
 20
103.5880403047
  0
LWPOLYLINE
  5
453
100
AcDbEntity
  8
21814000
100
AcDbPolyline
 62
250
  6
CONTINUOUS
 90
73
 70
0
 10
141.9712787493
 20
105.3796892872
 10
142.0571434068
 20
105.3560026549
 10
142.1404068208
 20
105.3324810363
 10
142.2210689915
 20
105.3091244313
 10
142.2990522253
 20
105.2859497169
 10
142.3744342158
 20
105.2629400162
 10
142.4474480431
 20
105.240044698
 10
142.5180979964
 20
105.217268387
 10
142.5863797866
 20
105.1946064585
 10
142.6525136265
 20
105.1719944081
 10
142.7165094118
 20
105.149437255
 10
142.7783572467
 20
105.12692998
 10
142.8382476564
 20
105.1043930205
 10
142.8962065582
 20
105.0818274496
 10
142.9522080348
 20
105.0592321941
 10
143.0063648598
 20
105.0365244731
 10
143.0586850807
 20
105.0137172943
 10
143.1091606501
 20
104.9907976498
 10
143.1578801985
 20
104.9676437345
 10
143.2048736681
 20
104.9442691416
 10
143.2501111169
 20
104.9206602779
 10
143.2935913495
 20
104.896654558
 10
143.335401522
 20
104.8722395578
 10
143.3754544784
 20
104.8474277016
 10
143.4134875551
 20
104.8220936765
 10
143.4495476263
 20
104.7962638098
 10
143.4835878178
 20
104.7699117742
 10
143.5152048433
 20
104.7428332757
 10
143.5445483073
 20
104.714936738
 10
143.5714686054
 20
104.6863137372
 10
143.5951136378
 20
104.6570347076
 10
143.6154508216
 20
104.626872245
 10
143.6325127399
 20
104.5960537536
 10
143.6455450424
 20
104.56533188
 10
143.6542945587
 20
104.5350347309
 10
143.6590144591
 20
104.5048341997
 10
143.659709905
 20
104.4744986127
 10
143.6563761396
 20
104.4438839681
 10
143.6490179196
 20
104.4131342677
 10
143.6376546769
 20
104.3824498434
 10
143.6220234348
 20
104.3517009812
 10
143.6023871699
 20
104.3210173951
 10
143.5795542438
 20
104.2909885585
 10
143.553528174
 20
104.2618004306
 10
143.5243054429
 20
104.2332670521
 10
143.4926838593
 20
104.2054200186
 10
143.4587925054
 20
104.1783263476
 10
143.4225022991
 20
104.1519190217
 10
143.3842238028
 20
104.1260285837
 10
143.3439821516
 20
104.1006269188
 10
143.3017522104
 20
104.0757421418
 10
143.2578691364
 20
104.0512891409
 10
143.2123607324
 20
104.0272614901
 10
143.1651991957
 20
104.0036656153
 10
143.1166362746
 20
103.9804356831
 10
143.0667103112
 20
103.9575741845
 10
143.0153829635
 20
103.9350786284
 10
142.9627909545
 20
103.9128757085
 10
142.9091283265
 20
103.8910212107
 10
142.8542010371
 20
103.8694593489
 10
142.7975636826
 20
103.8479494581
 10
142.7390970567
 20
103.8264279759
 10
142.6789203655
 20
103.8049584646
 10
142.6169458231
 20
103.7834909458
 10
142.5531878208
 20
103.7620249206
 10
142.4876319672
 20
103.7405608879
 10
142.4201473018
 20
103.7190503661
 10
142.3508084522
 20
103.6975095538
 10
142.2795407908
 20
103.6759222524
 10
142.2059894741
 20
103.6541913846
 10
142.1300362211
 20
103.6322845911
 10
142.0517993128
 20
103.6102342311
 10
141.9712787493
 20
103.5880403047
  0
LWPOLYLINE
  5
454
100
AcDbEntity
  8
0
100
AcDbPolyline
 62
250
  6
CONTINUOUS
 90
73
 70
0
 10
141.9794183681
 20
105.4096721245
 10
142.0652821006
 20
105.3852609616
 10
142.1485448432
 20
105.3610214803
 10
142.2292065958
 20
105.3369503592
 10
142.3071897489
 20
105.3130582994
 10
142.382571912
 20
105.2893277687
 10
142.4555859134
 20
105.2657135017
 10
142.5262359575
 20
105.2422178637
 10
142.59451784
 20
105.2188325014
 10
142.6606517759
 20
105.1954969137
 10
142.7246476643
 20
105.1722141804
 10
142.7864956061
 20
105.1489759589
 10
142.8463861192
 20
105.1257053905
 10
142.9043451144
 20
105.1024016927
 10
142.9603466809
 20
105.0790610456
 10
143.0145036047
 20
105.0556026218
 10
143.0668239344
 20
105.032038039
 10
143.1172996213
 20
105.0083514283
 10
143.1660193053
 20
104.9844211453
 10
143.2130129379
 20
104.9602594697
 10
143.2582505676
 20
104.9358502429
 10
143.3017309797
 20
104.9110293757
 10
143.3435413262
 20
104.8857818754
 10
143.3835944552
 20
104.860119
 10
143.4216276965
 20
104.8339155004
 10
143.4576879062
 20
104.8071950894
 10
143.4917282283
 20
104.7799291995
 10
143.5233454247
 20
104.7519126683
 10
143.552689295
 20
104.723045549
 10
143.5796100396
 20
104.6934213516
 10
143.603255021
 20
104.6631219467
 10
143.6235911134
 20
104.6319030698
 10
143.6406514427
 20
104.5999978446
 10
143.6536827484
 20
104.5681997987
 10
143.6624325849
 20
104.5368391315
 10
143.667153398
 20
104.505569721
 10
143.6678492645
 20
104.4741684335
 10
143.6645145683
 20
104.4424786455
 10
143.6571549256
 20
104.4106415303
 10
143.6457912623
 20
104.3788807269
 10
143.6301617572
 20
104.3470554874
 10
143.6105282316
 20
104.3152907902
 10
143.5876970742
 20
104.284211267
 10
143.5616707268
 20
104.2540076465
 10
143.5324467476
 20
104.2244785777
 10
143.5008242003
 20
104.1956649776
 10
143.4669327076
 20
104.1676346567
 10
143.4306426467
 20
104.1403134815
 10
143.3923642131
 20
104.1135324738
 10
143.3521223736
 20
104.0872615908
 10
143.3098921613
 20
104.0615261723
 10
143.2660088703
 20
104.0362419913
 10
143.2205003739
 20
104.0114014202
 10
143.1733387987
 20
103.9870087588
 10
143.1247758192
 20
103.9629988998
 10
143.0748497588
 20
103.9393737628
 10
143.0235222939
 20
103.9161290483
 10
142.9709301284
 20
103.8931910718
 10
142.9172672571
 20
103.8706160499
 10
142.8623396851
 20
103.8483460189
 10
142.8057021318
 20
103.8261353943
 10
142.7472354724
 20
103.8039158923
 10
142.6870588316
 20
103.7817519135
 10
142.6250843027
 20
103.7595958802
 10
142.5613262273
 20
103.7374450161
 10
142.4957702638
 20
103.7152981404
 10
142.428285481
 20
103.6931096809
 10
142.3589464334
 20
103.6708936002
 10
142.2876785666
 20
103.6486316724
 10
142.2141272861
 20
103.6262291804
 10
142.1381743937
 20
103.6036524211
 10
142.0599380877
 20
103.5809294265
 10
141.9794183681
 20
103.5580574673
  0
LWPOLYLINE
  5
455
100
AcDbEntity
  8
21814000
100
AcDbPolyline
 62
250
  6
CONTINUOUS
 90
73
 70
0
 10
141.9794183681
 20
105.4096721245
 10
142.0652821006
 20
105.3852609616
 10
142.1485448432
 20
105.3610214803
 10
142.2292065958
 20
105.3369503592
 10
142.3071897489
 20
105.3130582994
 10
142.382571912
 20
105.2893277687
 10
142.4555859134
 20
105.2657135017
 10
142.5262359575
 20
105.2422178637
 10
142.59451784
 20
105.2188325014
 10
142.6606517759
 20
105.1954969137
 10
142.7246476643
 20
105.1722141804
 10
142.7864956061
 20
105.1489759589
 10
142.8463861192
 20
105.1257053905
 10
142.9043451144
 20
105.1024016927
 10
142.9603466809
 20
105.0790610456
 10
143.0145036047
 20
105.0556026218
 10
143.0668239344
 20
105.032038039
 10
143.1172996213
 20
105.0083514283
 10
143.1660193053
 20
104.9844211453
 10
143.2130129379
 20
104.9602594697
 10
143.2582505676
 20
104.9358502429
 10
143.3017309797
 20
104.9110293757
 10
143.3435413262
 20
104.8857818754
 10
143.3835944552
 20
104.860119
 10
143.4216276965
 20
104.8339155004
 10
143.4576879062
 20
104.8071950894
 10
143.4917282283
 20
104.7799291995
 10
143.5233454247
 20
104.7519126683
 10
143.552689295
 20
104.723045549
 10
143.5796100396
 20
104.6934213516
 10
143.603255021
 20
104.6631219467
 10
143.6235911134
 20
104.6319030698
 10
143.6406514427
 20
104.5999978446
 10
143.6536827484
 20
104.5681997987
 10
143.6624325849
 20
104.5368391315
 10
143.667153398
 20
104.505569721
 10
143.6678492645
 20
104.4741684335
 10
143.6645145683
 20
104.4424786455
 10
143.6571549256
 20
104.4106415303
 10
143.6457912623
 20
104.3788807269
 10
143.6301617572
 20
104.3470554874
 10
143.6105282316
 20
104.3152907902
 10
143.5876970742
 20
104.284211267
 10
143.5616707268
 20
104.2540076465
 10
143.5324467476
 20
104.2244785777
 10
143.5008242003
 20
104.1956649776
 10
143.4669327076
 20
104.1676346567
 10
143.4306426467
 20
104.1403134815
 10
143.3923642131
 20
104.1135324738
 10
143.3521223736
 20
104.0872615908
 10
143.3098921613
 20
104.0615261723
 10
143.2660088703
 20
104.0362419913
 10
143.2205003739
 20
104.0114014202
 10
143.1733387987
 20
103.9870087588
 10
143.1247758192
 20
103.9629988998
 10
143.0748497588
 20
103.9393737628
 10
143.0235222939
 20
103.9161290483
 10
142.9709301284
 20
103.8931910718
 10
142.9172672571
 20
103.8706160499
 10
142.8623396851
 20
103.8483460189
 10
142.8057021318
 20
103.8261353943
 10
142.7472354724
 20
103.8039158923
 10
142.6870588316
 20
103.7817519135
 10
142.6250843027
 20
103.7595958802
 10
142.5613262273
 20
103.7374450161
 10
142.4957702638
 20
103.7152981404
 10
142.428285481
 20
103.6931096809
 10
142.3589464334
 20
103.6708936002
 10
142.2876785666
 20
103.6486316724
 10
142.2141272861
 20
103.6262291804
 10
142.1381743937
 20
103.6036524211
 10
142.0599380877
 20
103.5809294265
 10
141.9794183681
 20
103.5580574673
  0
LINE
  5
456
100
AcDbEntity
  8
INCISIONI_LASER
100
AcDbLine
 62
250
  6
CONTINUOUS
 10
124.4093270919
 20
110.9353207959
 11
123.1604386024
 21
111.3653357959
  0
LINE
  5
457
100
AcDbEntity
  8
INCISIONI_LASER
100
AcDbLine
 62
250
  6
CONTINUOUS
 10
125.5055650909
 20
110.5578287959
 11
124.8911133016
 21
110.7746767959
  0
LINE
  5
458
100
AcDbEntity
  8
INCISIONI_LASER
100
AcDbLine
 62
250
  6
CONTINUOUS
 10
122.606447392
 20
111.0117137959
 11
125.5055650909
 21
109.9633787959
  0
LINE
  5
459
100
AcDbEntity
  8
0
100
AcDbLine
 62
250
  6
CONTINUOUS
 10
136.2775988592
 20
89.8017672315
 11
136.2683207666
 21
89.8310416133
  0
LWPOLYLINE
  5
45A
100
AcDbEntity
  8
0
100
AcDbPolyline
 62
250
  6
CONTINUOUS
 90
12
 70
0
 10
136.2683207666
 20
89.8310416133
 10
136.261345492
 20
89.8533736993
 10
136.2579365202
 20
89.8645603372
 10
136.254609947
 20
89.8757661489
 10
136.2513882387
 20
89.8869952171
 10
136.2482938613
 20
89.8982516246
 10
136.2453492813
 20
89.9095394543
 10
136.2425769647
 20
89.920862789
 10
136.2399993778
 20
89.9322257114
 10
136.2376389869
 20
89.9436323044
 10
136.2355182581
 20
89.9550866508
 10
136.2336596577
 20
89.9665928334
  0
LINE
  5
45B
100
AcDbEntity
  8
0
100
AcDbLine
 62
250
  6
CONTINUOUS
 10
135.6175027419
 20
89.9832014199
 11
135.6055482019
 21
90.8455192324
  0
LINE
  5
45C
100
AcDbEntity
  8
INCISIONI_LASER
100
AcDbLine
 62
250
  6
CONTINUOUS
 10
133.5478070093
 20
87.2235197959
 11
133.5478070093
 21
91.3442097959
  0
LINE
  5
45D
100
AcDbEntity
  8
0
100
AcDbLine
 62
250
  6
CONTINUOUS
 10
133.5589788736
 20
93.8406557959
 11
133.5589788736
 21
94.3963497959
  0
LINE
  5
45E
100
AcDbEntity
  8
0
100
AcDbLine
 62
250
  6
CONTINUOUS
 10
133.5589788736
 20
95.5073927959
 11
133.5589788736
 21
96.0630867959
  0
LINE
  5
45F
100
AcDbEntity
  8
0
100
AcDbLine
 62
250
  6
CONTINUOUS
 10
133.5589788736
 20
97.7294797959
 11
133.5589788736
 21
98.2851737959
  0
LINE
  5
460
100
AcDbEntity
  8
INCISIONI_LASER
100
AcDbLine
 62
250
  6
CONTINUOUS
 10
134.3521589399
 20
87.3011057959
 11
134.3521589399
 21
91.2666237959
  0
LINE
  5
461
100
AcDbEntity
  8
0
100
AcDbLine
 62
250
  6
CONTINUOUS
 10
135.2250362605
 20
96.0630867959
 11
135.2250362605
 21
95.5073927959
  0
LINE
  5
462
100
AcDbEntity
  8
0
100
AcDbLine
 62
250
  6
CONTINUOUS
 10
135.2250362605
 20
94.3963497959
 11
135.2250362605
 21
93.8406557959
  0
LWPOLYLINE
  5
463
100
AcDbEntity
  8
INCISIONI_LASER
100
AcDbPolyline
 62
250
  6
CONTINUOUS
 90
61
 70
0
 10
133.5478068529
 20
87.2235197959
 10
133.5474838525
 20
87.2068906258
 10
133.5465179718
 20
87.1902554361
 10
133.5449138911
 20
87.1736428108
 10
133.5426762909
 20
87.1570813344
 10
133.5398098517
 20
87.1405995908
 10
133.5363192539
 20
87.1242261644
 10
133.532209178
 20
87.1079896394
 10
133.5274843043
 20
87.0919185998
 10
133.5221493135
 20
87.0760416301
 10
133.5162088858
 20
87.0603873142
 10
133.5096691547
 20
87.0449827227
 10
133.5025420648
 20
87.0298488711
 10
133.4948410138
 20
87.0150052612
 10
133.4865793992
 20
87.0004713946
 10
133.4777706185
 20
86.9862667731
 10
133.4684280695
 20
86.9724108986
 10
133.4585651495
 20
86.9589232726
 10
133.4481952564
 20
86.945823397
 10
133.4373317875
 20
86.9331307736
 10
133.4259881405
 20
86.9208649041
 10
133.4141788259
 20
86.9090444676
 10
133.4019228056
 20
86.8976848537
 10
133.3892401544
 20
86.8868006289
 10
133.376150947
 20
86.8764063602
 10
133.3626752584
 20
86.8665166142
 10
133.3488331633
 20
86.8571459579
 10
133.3346447366
 20
86.8483089581
 10
133.3201300529
 20
86.8400201814
 10
133.3053091873
 20
86.8322941947
 10
133.2902022143
 20
86.8251455648
 10
133.2748298992
 20
86.8185873227
 10
133.2592157682
 20
86.8126263556
 10
133.2433840378
 20
86.8072680152
 10
133.2273589244
 20
86.8025176528
 10
133.2111646446
 20
86.79838062
 10
133.194825415
 20
86.7948622683
 10
133.1783654519
 20
86.7919679492
 10
133.1618089719
 20
86.7897030142
 10
133.1451801915
 20
86.7880728147
 10
133.1285033273
 20
86.7870827022
 10
133.1118024721
 20
86.7867366498
 10
133.0951012241
 20
86.7870331161
 10
133.0784230582
 20
86.7879691811
 10
133.0617914491
 20
86.7895419251
 10
133.0452298713
 20
86.7917484281
 10
133.0287617996
 20
86.7945857702
 10
133.0124107087
 20
86.7980510317
 10
132.9962000733
 20
86.8021412925
 10
132.9801533681
 20
86.8068536328
 10
132.9642940677
 20
86.8121851328
 10
132.9486458146
 20
86.8181307807
 10
132.9332329211
 20
86.8246771981
 10
132.9180798677
 20
86.8318089146
 10
132.9032111344
 20
86.8395104598
 10
132.8886512014
 20
86.8477663634
 10
132.874424549
 20
86.8565611551
 10
132.8605556573
 20
86.8658793645
 10
132.8470690066
 20
86.8757055214
 10
132.833989077
 20
86.8860241553
 10
132.8213403487
 20
86.8968197959
  0
LINE
  5
464
100
AcDbEntity
  8
INCISIONI_LASER
100
AcDbLine
 62
250
  6
CONTINUOUS
 10
124.4944041707
 20
92.1912847959
 11
122.6063104338
 21
91.6497167959
  0
LINE
  5
465
100
AcDbEntity
  8
INCISIONI_LASER
100
AcDbLine
 62
250
  6
CONTINUOUS
 10
138.7059610533
 20
111.8185927959
 11
140.0055650909
 21
111.8185927959
  0
LINE
  5
466
100
AcDbEntity
  8
INCISIONI_LASER
100
AcDbLine
 62
250
  6
CONTINUOUS
 10
138.7059610533
 20
112.2069207959
 11
140.0055650909
 21
112.2069207959
  0
LINE
  5
467
100
AcDbEntity
  8
INCISIONI_LASER
100
AcDbLine
 62
250
  6
CONTINUOUS
 10
127.0058544701
 20
112.826721963
 11
128.9055650909
 21
112.826721963
  0
LINE
  5
468
100
AcDbEntity
  8
INCISIONI_LASER
100
AcDbLine
 62
250
  6
CONTINUOUS
 10
125.5055650909
 20
113.0761897959
 11
122.606447392
 21
113.0761897959
  0
LINE
  5
469
100
AcDbEntity
  8
INCISIONI_LASER
100
AcDbLine
 62
250
  6
CONTINUOUS
 10
138.7059610533
 20
113.2390457959
 11
140.0055650909
 21
113.2390457959
  0
LINE
  5
46A
100
AcDbEntity
  8
INCISIONI_LASER
100
AcDbLine
 62
250
  6
CONTINUOUS
 10
138.7059610533
 20
107.9537547959
 11
140.0055650909
 21
107.3834217959
  0
LINE
  5
46B
100
AcDbEntity
  8
INCISIONI_LASER
100
AcDbLine
 62
250
  6
CONTINUOUS
 10
138.7059610533
 20
107.2096007959
 11
140.0055650909
 21
106.5867337959
  0
LINE
  5
46C
100
AcDbEntity
  8
INCISIONI_LASER
100
AcDbLine
 62
250
  6
CONTINUOUS
 10
127.5486289008
 20
112.2838647959
 11
127.0058544701
 21
112.826721963
  0
LINE
  5
46D
100
AcDbEntity
  8
INCISIONI_LASER
100
AcDbLine
 62
250
  6
CONTINUOUS
 10
127.2772416855
 20
114.9981505749
 11
127.0058544701
 21
115.2695790169
  0
LINE
  5
46E
100
AcDbEntity
  8
0
100
AcDbLine
 62
250
  6
CONTINUOUS
 10
136.2336596577
 20
89.9665928334
 11
136.2092524718
 21
90.5306204318
  0
LWPOLYLINE
  5
46F
100
AcDbEntity
  8
0
100
AcDbPolyline
 62
250
  6
CONTINUOUS
 90
38
 70
0
 10
136.2914399343
 20
87.8232547421
 10
136.2912899492
 20
87.830561555
 10
136.2912776411
 20
87.837875609
 10
136.2914079079
 20
87.845192125
 10
136.2916856472
 20
87.8525063236
 10
136.292115757
 20
87.8598134254
 10
136.2927031348
 20
87.8671086511
 10
136.2934526785
 20
87.8743872214
 10
136.2943692859
 20
87.8816443569
 10
136.2954578547
 20
87.8888752783
 10
136.2967687261
 20
87.8963241732
 10
136.2982649891
 20
87.903737648
 10
136.2999427277
 20
87.9111134576
 10
136.3017980264
 20
87.9184493567
 10
136.3038269694
 20
87.9257431
 10
136.3060256409
 20
87.9329924426
 10
136.3083901253
 20
87.940195139
 10
136.3109165068
 20
87.9473489442
 10
136.3136008696
 20
87.9544516129
 10
136.3164392981
 20
87.9615008999
 10
136.3194278765
 20
87.96849456
 10
136.322562689
 20
87.9754303481
 10
136.32583982
 20
87.982306019
 10
136.3287874642
 20
87.9882034047
 10
136.3318404767
 20
87.9940485528
 10
136.33500064
 20
87.9998358999
 10
136.3382697364
 20
88.0055598827
 10
136.3416495484
 20
88.011214938
 10
136.3451418584
 20
88.0167955026
 10
136.3487484488
 20
88.0222960131
 10
136.3524711022
 20
88.0277109063
 10
136.3563116008
 20
88.033034619
 10
136.3602717273
 20
88.0382615878
 10
136.3643532639
 20
88.0433862495
 10
136.3685579931
 20
88.0484030408
 10
136.3728876973
 20
88.0533063985
 10
136.3773441591
 20
88.0580907592
 10
136.3819291607
 20
88.0627505599
  0
LINE
  5
470
100
AcDbEntity
  8
0
100
AcDbLine
 62
250
  6
CONTINUOUS
 10
135.6175027419
 20
89.8041608572
 11
135.6175027419
 21
89.9832014199
  0
LINE
  5
471
100
AcDbEntity
  8
0
100
AcDbLine
 62
250
  6
CONTINUOUS
 10
135.7805610036
 20
96.0630867959
 11
135.7805610036
 21
95.5073927959
  0
LINE
  5
472
100
AcDbEntity
  8
0
100
AcDbLine
 62
250
  6
CONTINUOUS
 10
135.7805610036
 20
93.8406557959
 11
135.7805610036
 21
94.3963497959
  0
LINE
  5
473
100
AcDbEntity
  8
INTF_2
100
AcDbLine
 62
7
  6
CONTINUOUS
 10
137.4464480909
 20
98.2851737959
 11
137.4464480909
 21
97.7294797959
  0
LINE
  5
474
100
AcDbEntity
  8
INTF_2
100
AcDbLine
 62
7
  6
CONTINUOUS
 10
137.4464480909
 20
94.3963497959
 11
137.4464480909
 21
93.8406557959
  0
LINE
  5
475
100
AcDbEntity
  8
0
100
AcDbLine
 62
250
  6
CONTINUOUS
 10
137.4466183904
 20
98.2851737959
 11
137.4466183904
 21
97.7294797959
  0
LINE
  5
476
100
AcDbEntity
  8
0
100
AcDbLine
 62
250
  6
CONTINUOUS
 10
137.4466183904
 20
94.3963497959
 11
137.4466183904
 21
93.8406557959
  0
LINE
  5
477
100
AcDbEntity
  8
INCISIONI_LASER
100
AcDbLine
 62
250
  6
CONTINUOUS
 10
123.593698597
 20
91.3529017959
 11
125.505558093
 21
91.9012777959
  0
LINE
  5
478
100
AcDbEntity
  8
INCISIONI_LASER
100
AcDbLine
 62
250
  6
CONTINUOUS
 10
123.079200354
 20
113.6586347959
 11
125.5055650909
 21
113.6586347959
  0
LINE
  5
479
100
AcDbEntity
  8
INCISIONI_LASER
100
AcDbLine
 62
250
  6
CONTINUOUS
 10
128.9055650909
 20
114.0029124258
 11
127.9557097805
 21
114.0029124258
  0
LINE
  5
47A
100
AcDbEntity
  8
INCISIONI_LASER
100
AcDbLine
 62
250
  6
CONTINUOUS
 10
138.7059610533
 20
114.1325767959
 11
140.0055650909
 21
114.1325767959
  0
LINE
  5
47B
100
AcDbEntity
  8
INCISIONI_LASER
100
AcDbLine
 62
250
  6
CONTINUOUS
 10
128.3627906036
 20
114.8624361274
 11
127.5486289008
 21
114.8624361274
  0
LINE
  5
47C
100
AcDbEntity
  8
INCISIONI_LASER
100
AcDbLine
 62
250
  6
CONTINUOUS
 10
140.0055650909
 20
114.9365167959
 11
138.7059610533
 21
114.9365167959
  0
LINE
  5
47D
100
AcDbEntity
  8
INCISIONI_LASER
100
AcDbLine
 62
250
  6
CONTINUOUS
 10
124.9038614176
 20
115.1126187959
 11
122.606447392
 21
115.1126187959
  0
LINE
  5
47E
100
AcDbEntity
  8
INCISIONI_LASER
100
AcDbLine
 62
250
  6
CONTINUOUS
 10
128.4984842395
 20
113.3695791302
 11
127.0058544701
 21
113.7767219064
  0
LINE
  5
47F
100
AcDbEntity
  8
INCISIONI_LASER
100
AcDbLine
 62
250
  6
CONTINUOUS
 10
122.606447392
 20
117.0367487959
 11
125.5055650909
 21
115.9883047959
  0
LINE
  5
480
100
AcDbEntity
  8
INCISIONI_LASER
100
AcDbLine
 62
250
  6
CONTINUOUS
 10
127.5486289008
 20
114.8624361274
 11
127.2772416855
 21
114.9981505749
  0
LINE
  5
481
100
AcDbEntity
  8
INCISIONI_LASER
100
AcDbLine
 62
250
  6
CONTINUOUS
 10
127.2772416855
 20
116.4910074589
 11
127.0058544701
 21
116.7624363539
  0
LINE
  5
482
100
AcDbEntity
  8
INCISIONI_LASER
100
AcDbLine
 62
250
  6
CONTINUOUS
 10
128.6341778472
 20
115.6767219064
 11
128.9055650909
 21
115.4052934644
  0
LINE
  5
483
100
AcDbEntity
  8
INCISIONI_LASER
100
AcDbLine
 62
250
  6
CONTINUOUS
 10
127.5486289008
 20
117.8481505749
 11
127.0058544701
 21
118.3910074589
  0
LWPOLYLINE
  5
484
100
AcDbEntity
  8
0
100
AcDbPolyline
 62
250
  6
CONTINUOUS
 90
3
 70
0
 10
141.7783881049
 20
91.0517596633
 10
141.7914661549
 20
91.0128592294
 10
141.8049893966
 20
90.9711935259
  0
LWPOLYLINE
  5
485
100
AcDbEntity
  8
21814000
100
AcDbPolyline
 62
250
  6
CONTINUOUS
 90
3
 70
0
 10
141.7783881049
 20
91.0517596633
 10
141.7914661549
 20
91.0128592294
 10
141.8049893966
 20
90.9711935259
  0
LINE
  5
486
100
AcDbEntity
  8
INTF_2
100
AcDbLine
 62
7
  6
CONTINUOUS
 10
138.0021420909
 20
96.6184357959
 11
138.0021420909
 21
96.0630867959
  0
LINE
  5
487
100
AcDbEntity
  8
INTF_2
100
AcDbLine
 62
7
  6
CONTINUOUS
 10
138.0021420909
 20
95.5073927959
 11
138.0021420909
 21
94.9516987959
  0
LINE
  5
488
100
AcDbEntity
  8
INTF_2
100
AcDbLine
 62
7
  6
CONTINUOUS
 10
138.0021420909
 20
93.2853067959
 11
138.0021420909
 21
94.3963497959
  0
LINE
  5
489
100
AcDbEntity
  8
INTF_2
100
AcDbLine
 62
7
  6
CONTINUOUS
 10
138.0021420909
 20
97.1741297959
 11
138.0021420909
 21
98.2851737959
  0
LINE
  5
48A
100
AcDbEntity
  8
0
100
AcDbLine
 62
250
  6
CONTINUOUS
 10
138.0021431335
 20
96.6184357959
 11
138.0021431335
 21
96.0630867959
  0
LINE
  5
48B
100
AcDbEntity
  8
0
100
AcDbLine
 62
250
  6
CONTINUOUS
 10
138.0021431335
 20
95.5073927959
 11
138.0021431335
 21
94.9516987959
  0
LINE
  5
48C
100
AcDbEntity
  8
0
100
AcDbLine
 62
250
  6
CONTINUOUS
 10
138.0021431335
 20
93.2853067959
 11
138.0021431335
 21
94.3963497959
  0
LINE
  5
48D
100
AcDbEntity
  8
0
100
AcDbLine
 62
250
  6
CONTINUOUS
 10
138.0021431335
 20
97.1741297959
 11
138.0021431335
 21
98.2851737959
  0
LINE
  5
48E
100
AcDbEntity
  8
INCISIONI_LASER
100
AcDbLine
 62
250
  6
CONTINUOUS
 10
138.7027169903
 20
95.1410073874
 11
138.7027169903
 21
94.8624364016
  0
LINE
  5
48F
100
AcDbEntity
  8
INCISIONI_LASER
100
AcDbLine
 62
250
  6
CONTINUOUS
 10
138.7027169903
 20
93.0981505988
 11
138.7027169903
 21
92.8195789931
  0
LINE
  5
490
100
AcDbEntity
  8
INCISIONI_LASER
100
AcDbLine
 62
250
  6
CONTINUOUS
 10
138.7027169903
 20
92.0767222044
 11
138.7027169903
 21
91.7981505988
  0
LINE
  5
491
100
AcDbEntity
  8
INCISIONI_LASER
100
AcDbLine
 62
250
  6
CONTINUOUS
 10
138.7027169903
 20
91.0552935002
 11
138.7027169903
 21
90.7767218945
  0
LINE
  5
492
100
AcDbEntity
  8
INCISIONI_LASER
100
AcDbLine
 62
250
  6
CONTINUOUS
 10
138.7027169903
 20
87.9910076199
 11
138.7027169903
 21
88.3624362466
  0
LINE
  5
493
100
AcDbEntity
  8
INCISIONI_LASER
100
AcDbLine
 62
250
  6
CONTINUOUS
 10
138.7059610533
 20
110.9576067959
 11
138.7059610533
 21
110.0106197959
  0
LINE
  5
494
100
AcDbEntity
  8
INCISIONI_LASER
100
AcDbLine
 62
250
  6
CONTINUOUS
 10
138.7059610533
 20
109.1241077959
 11
138.7059610533
 21
108.6942717959
  0
LINE
  5
495
100
AcDbEntity
  8
INCISIONI_LASER
100
AcDbLine
 62
250
  6
CONTINUOUS
 10
138.7059610533
 20
114.4087197959
 11
138.7059610533
 21
115.4643117959
  0
LINE
  5
496
100
AcDbEntity
  8
INCISIONI_LASER
100
AcDbLine
 62
250
  6
CONTINUOUS
 10
139.2597749587
 20
94.1195789931
 11
139.2597749587
 21
93.7171983359
  0
LINE
  5
497
100
AcDbEntity
  8
INCISIONI_LASER
100
AcDbLine
 62
250
  6
CONTINUOUS
 10
139.3557630721
 20
110.0106197959
 11
139.3557630721
 21
110.8912107959
  0
LINE
  5
498
100
AcDbEntity
  8
INCISIONI_LASER
100
AcDbLine
 62
250
  6
CONTINUOUS
 10
139.5338678073
 20
115.7401487959
 11
139.5338678073
 21
116.4668057959
  0
LINE
  5
499
100
AcDbEntity
  8
INCISIONI_LASER
100
AcDbLine
 62
250
  6
CONTINUOUS
 10
139.5413065409
 20
107.5871627959
 11
139.5413065409
 21
108.3203477959
  0
LWPOLYLINE
  5
49A
100
AcDbEntity
  8
26814000
100
AcDbPolyline
 62
7
  6
CONTINUOUS
 90
4
 70
0
 10
130.0055650909
 20
81.8838191045
 10
130.0052133944
 20
81.8831512116
 10
130.0041823856
 20
81.8818841137
 10
130.0025087849
 20
81.8800178107
  0
LINE
  5
49B
100
AcDbEntity
  8
INCISIONI_LASER
100
AcDbLine
 62
250
  6
CONTINUOUS
 10
132.8213403487
 20
91.6709097959
 11
130.5002085494
 21
89.6105647959
  0
LWPOLYLINE
  5
49C
100
AcDbEntity
  8
0
100
AcDbPolyline
 62
250
  6
CONTINUOUS
 90
79
 70
0
 10
135.761705102
 20
91.5753101484
 10
135.7069847888
 20
91.5573081388
 10
135.6532640928
 20
91.5364177571
 10
135.6006442836
 20
91.5127742278
 10
135.5492266309
 20
91.4865127756
 10
135.4991124042
 20
91.457768625
 10
135.4504028732
 20
91.4266770006
 10
135.4031993075
 20
91.393373127
 10
135.3500487716
 20
91.3518086046
 10
135.2991675671
 20
91.307567445
 10
135.2506286726
 20
91.2608113503
 10
135.2045050669
 20
91.2117020228
 10
135.1608697288
 20
91.1604011647
 10
135.1197956369
 20
91.1070704783
 10
135.0814541826
 20
91.0520614099
 10
135.0456489135
 20
90.9953719643
 10
135.0122993493
 20
90.9371774379
 10
134.9813250096
 20
90.8776531272
 10
134.9526454139
 20
90.8169743286
 10
134.9261800817
 20
90.7553163383
 10
134.8972049804
 20
90.6801577239
 10
134.871216379
 20
90.6039615011
 10
134.8481205474
 20
90.5268505274
 10
134.8278237557
 20
90.44894766
 10
134.8102322738
 20
90.3703757563
 10
134.7920100612
 20
90.2719658171
 10
134.7777088722
 20
90.1728622975
 10
134.7672160811
 20
90.0732152041
 10
134.7604190617
 20
89.9731745431
 10
134.7572051884
 20
89.8728903212
 10
134.7574618351
 20
89.7725125448
 10
134.761076376
 20
89.6721912202
 10
134.7679361852
 20
89.5720763541
 10
134.7796291441
 20
89.4579925228
 10
134.7953292751
 20
89.3444729144
 10
134.814945583
 20
89.2316154194
 10
134.8383870724
 20
89.1195179282
 10
134.8655627481
 20
89.0082783314
 10
134.8963816148
 20
88.8979945194
 10
134.9307526773
 20
88.7887643827
 10
134.9685951621
 20
88.6807052551
 10
135.0099005943
 20
88.5739240315
 10
135.0546716642
 20
88.468547364
 10
135.1029110619
 20
88.3647019048
 10
135.1546214775
 20
88.2625143057
 10
135.2098056011
 20
88.1621112189
 10
135.2684661229
 20
88.0636192965
 10
135.3226184123
 20
87.9791634392
 10
135.3794282563
 20
87.896435215
 10
135.4388922816
 20
87.8156036639
 10
135.5010071148
 20
87.7368378259
 10
135.5657693824
 20
87.660306741
 10
135.6331757111
 20
87.5861794494
 10
135.7032227275
 20
87.514624991
 10
135.7759070581
 20
87.4458124059
 10
135.8362359227
 20
87.3926183486
 10
135.898273971
 20
87.341453141
 10
135.9620289466
 20
87.2924652776
 10
136.0275085931
 20
87.2458032527
 10
136.0947206541
 20
87.2016155608
 10
136.1519988497
 20
87.166833253
 10
136.2104488208
 20
87.1340251024
 10
136.270036165
 20
87.1033472727
 10
136.3307264799
 20
87.0749559274
 10
136.3924853632
 20
87.0490072301
 10
136.4552784126
 20
87.0256573446
 10
136.5194077175
 20
87.0049494345
 10
136.5844249368
 20
86.9871352627
 10
136.6502072696
 20
86.9723234136
 10
136.7166319152
 20
86.9606224718
 10
136.7835760724
 20
86.9521410216
 10
136.8509169405
 20
86.9469876474
 10
136.9085893909
 20
86.9453052973
 10
136.9663032441
 20
86.946204
 10
137.0239004441
 20
86.9497622632
 10
137.0812229349
 20
86.9560585944
 10
137.1381126606
 20
86.9651715012
 10
137.1944115652
 20
86.9771794914
 10
137.2499615928
 20
86.9921610724
  0
LINE
  5
49D
100
AcDbEntity
  8
INCISIONI_LASER
100
AcDbLine
 62
250
  6
CONTINUOUS
 10
124.6025992059
 20
88.0050257959
 11
122.6063104338
 21
87.3638937959
  0
LINE
  5
49E
100
AcDbEntity
  8
INCISIONI_LASER
100
AcDbLine
 62
250
  6
CONTINUOUS
 10
122.6063104338
 20
86.7838647959
 11
125.5055650909
 21
87.7149967959
  0
LINE
  5
49F
100
AcDbEntity
  8
INCISIONI_LASER
100
AcDbLine
 62
250
  6
CONTINUOUS
 10
122.606447392
 20
115.6950627959
 11
125.5055650909
 21
115.6950627959
  0
LINE
  5
4A0
100
AcDbEntity
  8
INCISIONI_LASER
100
AcDbLine
 62
250
  6
CONTINUOUS
 10
127.5486289008
 20
115.8124361274
 11
128.3627906036
 21
115.8124361274
  0
LINE
  5
4A1
100
AcDbEntity
  8
INCISIONI_LASER
100
AcDbLine
 62
250
  6
CONTINUOUS
 10
128.3627906036
 20
116.3552932379
 11
127.5486289008
 21
116.3552932379
  0
LINE
  5
4A2
100
AcDbEntity
  8
INCISIONI_LASER
100
AcDbLine
 62
250
  6
CONTINUOUS
 10
138.7059610533
 20
116.9227827959
 11
140.0055650909
 21
116.9227827959
  0
LINE
  5
4A3
100
AcDbEntity
  8
INCISIONI_LASER
100
AcDbLine
 62
250
  6
CONTINUOUS
 10
127.5486289008
 20
117.3052932379
 11
128.3627906036
 21
117.3052932379
  0
LINE
  5
4A4
100
AcDbEntity
  8
INCISIONI_LASER
100
AcDbLine
 62
250
  6
CONTINUOUS
 10
124.4093270919
 20
116.9603557959
 11
123.1606025524
 21
117.3903137959
  0
LINE
  5
4A5
100
AcDbEntity
  8
INCISIONI_LASER
100
AcDbLine
 62
250
  6
CONTINUOUS
 10
125.5055650909
 20
116.5827537959
 11
124.8911133016
 21
116.7997107959
  0
LINE
  5
4A6
100
AcDbEntity
  8
INCISIONI_LASER
100
AcDbLine
 62
250
  6
CONTINUOUS
 10
128.3627906036
 20
115.8124361274
 11
128.6341778472
 21
115.6767219064
  0
LINE
  5
4A7
100
AcDbEntity
  8
INCISIONI_LASER
100
AcDbLine
 62
250
  6
CONTINUOUS
 10
127.5486289008
 20
116.3552932379
 11
127.2772416855
 21
116.4910074589
  0
LINE
  5
4A8
100
AcDbEntity
  8
INCISIONI_LASER
100
AcDbLine
 62
250
  6
CONTINUOUS
 10
128.3627906036
 20
117.3052932379
 11
128.6341778472
 21
117.1695790169
  0
LINE
  5
4A9
100
AcDbEntity
  8
INCISIONI_LASER
100
AcDbLine
 62
250
  6
CONTINUOUS
 10
128.6341778472
 20
117.1695790169
 11
128.9055650909
 21
116.8981505749
  0
LWPOLYLINE
  5
4AA
100
AcDbEntity
  8
26814000
100
AcDbPolyline
 62
7
  6
CONTINUOUS
 90
5
 70
0
 10
130.0055650909
 20
123.6839104874
 10
130.0052133944
 20
123.6845783802
 10
130.0041823856
 20
123.6858454781
 10
130.0025087849
 20
123.6877117812
 10
129.9973844962
 20
123.6933160478
  0
LWPOLYLINE
  5
4AB
100
AcDbEntity
  8
0
100
AcDbPolyline
 62
250
  6
CONTINUOUS
 90
4
 70
0
 10
141.7031952498
 20
84.4559528525
 10
141.7019865892
 20
84.4745038283
 10
141.7008839972
 20
84.4961058106
 10
141.7000183017
 20
84.5207514538
  0
LWPOLYLINE
  5
4AC
100
AcDbEntity
  8
21814000
100
AcDbPolyline
 62
250
  6
CONTINUOUS
 90
4
 70
0
 10
141.7031952498
 20
84.4559528525
 10
141.7019865892
 20
84.4745038283
 10
141.7008839972
 20
84.4961058106
 10
141.7000183017
 20
84.5207514538
  0
LWPOLYLINE
  5
4AD
100
AcDbEntity
  8
0
100
AcDbPolyline
 62
7
  6
CONTINUOUS
 90
4
 70
0
 10
141.7043880046
 20
84.4487396299
 10
141.7024787108
 20
84.4816507457
 10
141.7015314386
 20
84.50208601
 10
141.7007407949
 20
84.5259651522
  0
LWPOLYLINE
  5
4AE
100
AcDbEntity
  8
21814000
100
AcDbPolyline
 62
7
  6
CONTINUOUS
 90
4
 70
0
 10
141.7043880046
 20
84.4487396299
 10
141.7024787108
 20
84.4816507457
 10
141.7015314386
 20
84.50208601
 10
141.7007407949
 20
84.5259651522
  0
LINE
  5
4AF
100
AcDbEntity
  8
0
100
AcDbLine
 62
7
  6
CONTINUOUS
 10
141.7051455589
 20
84.434426179
 11
141.7043880046
 21
84.4487396299
  0
LINE
  5
4B0
100
AcDbEntity
  8
21814000
100
AcDbLine
 62
7
  6
CONTINUOUS
 10
141.7051455589
 20
84.434426179
 11
141.7043880046
 21
84.4487396299
  0
LWPOLYLINE
  5
4B1
100
AcDbEntity
  8
0
100
AcDbPolyline
 62
250
  6
CONTINUOUS
 90
10
 70
0
 10
141.7055708169
 20
91.3196982558
 10
141.706412285
 20
91.3005448862
 10
141.7089143811
 20
91.2798740395
 10
141.7130288435
 20
91.2577207724
 10
141.718700025
 20
91.2341849447
 10
141.7258306666
 20
91.2091566111
 10
141.7342669197
 20
91.1822373542
 10
141.7438265345
 20
91.1531242854
 10
141.75440699
 20
91.1217446984
 10
141.7783881049
 20
91.0517596633
  0
LWPOLYLINE
  5
4B2
100
AcDbEntity
  8
21814000
100
AcDbPolyline
 62
250
  6
CONTINUOUS
 90
10
 70
0
 10
141.7055708169
 20
91.3196982558
 10
141.706412285
 20
91.3005448862
 10
141.7089143811
 20
91.2798740395
 10
141.7130288435
 20
91.2577207724
 10
141.718700025
 20
91.2341849447
 10
141.7258306666
 20
91.2091566111
 10
141.7342669197
 20
91.1822373542
 10
141.7438265345
 20
91.1531242854
 10
141.75440699
 20
91.1217446984
 10
141.7783881049
 20
91.0517596633
  0
LINE
  5
4B3
100
AcDbEntity
  8
0
100
AcDbLine
 62
250
  6
CONTINUOUS
 10
141.8049890184
 20
90.9711943262
 11
141.8034846235
 21
91.0044630223
  0
LINE
  5
4B4
100
AcDbEntity
  8
21814000
100
AcDbLine
 62
250
  6
CONTINUOUS
 10
141.8049890184
 20
90.9711943262
 11
141.8034846235
 21
91.0044630223
  0
LWPOLYLINE
  5
4B5
100
AcDbEntity
  8
0
100
AcDbPolyline
 62
250
  6
CONTINUOUS
 90
3
 70
0
 10
141.7055510689
 20
84.4201920704
 10
141.7052127449
 20
84.4280271592
 10
141.7031952498
 20
84.4559528525
  0
LWPOLYLINE
  5
4B6
100
AcDbEntity
  8
21814000
100
AcDbPolyline
 62
250
  6
CONTINUOUS
 90
3
 70
0
 10
141.7055510689
 20
84.4201920704
 10
141.7052127449
 20
84.4280271592
 10
141.7031952498
 20
84.4559528525
  0
LINE
  5
4B7
100
AcDbEntity
  8
0
100
AcDbLine
 62
250
  6
CONTINUOUS
 10
141.8034846235
 20
91.0044630223
 11
141.8005046287
 21
91.0765298045
  0
LINE
  5
4B8
100
AcDbEntity
  8
21814000
100
AcDbLine
 62
250
  6
CONTINUOUS
 10
141.8034846235
 20
91.0044630223
 11
141.8005046287
 21
91.0765298045
  0
LINE
  5
4B9
100
AcDbEntity
  8
0
100
AcDbLine
 62
250
  6
CONTINUOUS
 10
141.8005046287
 20
91.0765298045
 11
141.7983282935
 21
91.133256289
  0
LINE
  5
4BA
100
AcDbEntity
  8
21814000
100
AcDbLine
 62
250
  6
CONTINUOUS
 10
141.8005046287
 20
91.0765298045
 11
141.7983282935
 21
91.133256289
  0
LINE
  5
4BB
100
AcDbEntity
  8
0
100
AcDbLine
 62
250
  6
CONTINUOUS
 10
141.7983282935
 20
91.133256289
 11
141.7963865646
 21
91.1877625844
  0
LINE
  5
4BC
100
AcDbEntity
  8
21814000
100
AcDbLine
 62
250
  6
CONTINUOUS
 10
141.7983282935
 20
91.133256289
 11
141.7963865646
 21
91.1877625844
  0
LINE
  5
4BD
100
AcDbEntity
  8
0
100
AcDbLine
 62
250
  6
CONTINUOUS
 10
141.7963865646
 20
91.1877625844
 11
141.7945096032
 21
91.245371809
  0
LINE
  5
4BE
100
AcDbEntity
  8
21814000
100
AcDbLine
 62
250
  6
CONTINUOUS
 10
141.7963865646
 20
91.1877625844
 11
141.7945096032
 21
91.245371809
  0
LINE
  5
4BF
100
AcDbEntity
  8
0
100
AcDbLine
 62
7
  6
CONTINUOUS
 10
141.7055449336
 20
84.4202593854
 11
141.7051455589
 21
84.434426179
  0
LINE
  5
4C0
100
AcDbEntity
  8
21814000
100
AcDbLine
 62
7
  6
CONTINUOUS
 10
141.7055449336
 20
84.4202593854
 11
141.7051455589
 21
84.434426179
  0
LINE
  5
4C1
100
AcDbEntity
  8
0
100
AcDbLine
 62
250
  6
CONTINUOUS
 10
141.7945096032
 20
91.245371809
 11
141.793966704
 21
91.2637664518
  0
LINE
  5
4C2
100
AcDbEntity
  8
21814000
100
AcDbLine
 62
250
  6
CONTINUOUS
 10
141.7945096032
 20
91.245371809
 11
141.793966704
 21
91.2637664518
  0
LINE
  5
4C3
100
AcDbEntity
  8
0
100
AcDbLine
 62
250
  6
CONTINUOUS
 10
141.7000183017
 20
84.5207514538
 11
141.6993009456
 21
84.5503490469
  0
LINE
  5
4C4
100
AcDbEntity
  8
21814000
100
AcDbLine
 62
250
  6
CONTINUOUS
 10
141.7000183017
 20
84.5207514538
 11
141.6993009456
 21
84.5503490469
  0
LINE
  5
4C5
100
AcDbEntity
  8
0
100
AcDbLine
 62
7
  6
CONTINUOUS
 10
141.7007407949
 20
84.5259651522
 11
141.7002056656
 21
84.548686921
  0
LINE
  5
4C6
100
AcDbEntity
  8
21814000
100
AcDbLine
 62
7
  6
CONTINUOUS
 10
141.7007407949
 20
84.5259651522
 11
141.7002056656
 21
84.548686921
  0
LINE
  5
4C7
100
AcDbEntity
  8
0
100
AcDbLine
 62
250
  6
CONTINUOUS
 10
141.793966704
 20
91.2637664518
 11
141.7937267012
 21
91.2749246415
  0
LINE
  5
4C8
100
AcDbEntity
  8
21814000
100
AcDbLine
 62
250
  6
CONTINUOUS
 10
141.793966704
 20
91.2637664518
 11
141.7937267012
 21
91.2749246415
  0
LWPOLYLINE
  5
4C9
100
AcDbEntity
  8
0
100
AcDbPolyline
 62
250
  6
CONTINUOUS
 90
3
 70
0
 10
141.6993009456
 20
84.5503490469
 10
141.6986838614
 20
84.5828408566
 10
141.6981866845
 20
84.6179877721
  0
LWPOLYLINE
  5
4CA
100
AcDbEntity
  8
21814000
100
AcDbPolyline
 62
250
  6
CONTINUOUS
 90
3
 70
0
 10
141.6993009456
 20
84.5503490469
 10
141.6986838614
 20
84.5828408566
 10
141.6981866845
 20
84.6179877721
  0
LINE
  5
4CB
100
AcDbEntity
  8
0
100
AcDbLine
 62
7
  6
CONTINUOUS
 10
141.7002056656
 20
84.548686921
 11
141.6994800149
 21
84.589123192
  0
LINE
  5
4CC
100
AcDbEntity
  8
21814000
100
AcDbLine
 62
7
  6
CONTINUOUS
 10
141.7002056656
 20
84.548686921
 11
141.6994800149
 21
84.589123192
  0
LWPOLYLINE
  5
4CD
100
AcDbEntity
  8
0
100
AcDbPolyline
 62
7
  6
CONTINUOUS
 90
9
 70
0
 10
141.6994800149
 20
84.589123192
 10
141.6989263246
 20
84.6338108849
 10
141.6985698671
 20
84.682312842
 10
141.6984355442
 20
84.7341718076
 10
141.698532385
 20
84.7889214132
 10
141.6988575087
 20
84.8460166798
 10
141.6993967087
 20
84.904854009
 10
141.7001161037
 20
84.9648473707
 10
141.7009900931
 20
85.0302572496
  0
LWPOLYLINE
  5
4CE
100
AcDbEntity
  8
21814000
100
AcDbPolyline
 62
7
  6
CONTINUOUS
 90
9
 70
0
 10
141.6994800149
 20
84.589123192
 10
141.6989263246
 20
84.6338108849
 10
141.6985698671
 20
84.682312842
 10
141.6984355442
 20
84.7341718076
 10
141.698532385
 20
84.7889214132
 10
141.6988575087
 20
84.8460166798
 10
141.6993967087
 20
84.904854009
 10
141.7001161037
 20
84.9648473707
 10
141.7009900931
 20
85.0302572496
  0
LWPOLYLINE
  5
4CF
100
AcDbEntity
  8
0
100
AcDbPolyline
 62
250
  6
CONTINUOUS
 90
10
 70
0
 10
141.6981866845
 20
84.6179877721
 10
141.6978240573
 20
84.6555068301
 10
141.6976072226
 20
84.6951489832
 10
141.6975441063
 20
84.736707545
 10
141.6976432227
 20
84.7801481724
 10
141.6978949916
 20
84.824906608
 10
141.6982743372
 20
84.8699524293
 10
141.6987655128
 20
84.9147224616
 10
141.6993611261
 20
84.9591411434
 10
141.7000442073
 20
85.0029114575
  0
LWPOLYLINE
  5
4D0
100
AcDbEntity
  8
21814000
100
AcDbPolyline
 62
250
  6
CONTINUOUS
 90
10
 70
0
 10
141.6981866845
 20
84.6179877721
 10
141.6978240573
 20
84.6555068301
 10
141.6976072226
 20
84.6951489832
 10
141.6975441063
 20
84.736707545
 10
141.6976432227
 20
84.7801481724
 10
141.6978949916
 20
84.824906608
 10
141.6982743372
 20
84.8699524293
 10
141.6987655128
 20
84.9147224616
 10
141.6993611261
 20
84.9591411434
 10
141.7000442073
 20
85.0029114575
  0
LINE
  5
4D1
100
AcDbEntity
  8
0
100
AcDbLine
 62
250
  6
CONTINUOUS
 10
141.7055650909
 20
84.4186536361
 11
141.7055510689
 21
84.4201920704
  0
LINE
  5
4D2
100
AcDbEntity
  8
21814000
100
AcDbLine
 62
250
  6
CONTINUOUS
 10
141.7055650909
 20
84.4186536361
 11
141.7055510689
 21
84.4201920704
  0
LINE
  5
4D3
100
AcDbEntity
  8
INCISIONI_LASER
100
AcDbLine
 62
250
  6
CONTINUOUS
 10
140.002518994
 20
95.3267222044
 11
140.002518994
 21
94.6767222044
  0
LINE
  5
4D4
100
AcDbEntity
  8
INCISIONI_LASER
100
AcDbLine
 62
250
  6
CONTINUOUS
 10
140.002518994
 20
93.2838647959
 11
140.002518994
 21
92.6338647959
  0
LINE
  5
4D5
100
AcDbEntity
  8
INCISIONI_LASER
100
AcDbLine
 62
250
  6
CONTINUOUS
 10
140.002518994
 20
92.2624364016
 11
140.002518994
 21
91.6124360917
  0
LINE
  5
4D6
100
AcDbEntity
  8
INCISIONI_LASER
100
AcDbLine
 62
250
  6
CONTINUOUS
 10
140.002518994
 20
91.2410076973
 11
140.002518994
 21
90.5910076973
  0
LINE
  5
4D7
100
AcDbEntity
  8
INCISIONI_LASER
100
AcDbLine
 62
250
  6
CONTINUOUS
 10
140.002518994
 20
87.8981505213
 11
140.002518994
 21
88.269579148
  0
LINE
  5
4D8
100
AcDbEntity
  8
INCISIONI_LASER
100
AcDbLine
 62
250
  6
CONTINUOUS
 10
140.002518994
 20
93.8410073874
 11
140.002518994
 21
94.1195789931
  0
LINE
  5
4D9
100
AcDbEntity
  8
INCISIONI_LASER
100
AcDbLine
 62
250
  6
CONTINUOUS
 10
140.0055650909
 20
108.6942717959
 11
140.0055650909
 21
109.1241077959
  0
LINE
  5
4DA
100
AcDbEntity
  8
INCISIONI_LASER
100
AcDbLine
 62
250
  6
CONTINUOUS
 10
140.0055650909
 20
110.0106197959
 11
140.0055650909
 21
110.9702967959
  0
LINE
  5
4DB
100
AcDbEntity
  8
INCISIONI_LASER
100
AcDbLine
 62
250
  6
CONTINUOUS
 10
140.0055650909
 20
116.9227827959
 11
140.0055650909
 21
117.6697167959
  0
LINE
  5
4DC
100
AcDbEntity
  8
0
100
AcDbLine
 62
250
  6
CONTINUOUS
 10
140.8212722567
 20
122.206055094
 11
140.8212722567
 21
115.8656273871
  0
LINE
  5
4DD
100
AcDbEntity
  8
21814000
100
AcDbLine
 62
250
  6
CONTINUOUS
 10
140.8212722567
 20
122.206055094
 11
140.8212722567
 21
115.8656273871
  0
LINE
  5
4DE
100
AcDbEntity
  8
0
100
AcDbLine
 62
250
  6
CONTINUOUS
 10
140.8212722567
 20
83.3616744979
 11
140.8212722567
 21
113.9021022048
  0
LINE
  5
4DF
100
AcDbEntity
  8
21814000
100
AcDbLine
 62
250
  6
CONTINUOUS
 10
140.8212722567
 20
83.3616744979
 11
140.8212722567
 21
113.9021022048
  0
LINE
  5
4E0
100
AcDbEntity
  8
0
100
AcDbLine
 62
7
  6
CONTINUOUS
 10
141.7025557724
 20
108.5199556734
 11
141.70483848
 21
108.6203506123
  0
LINE
  5
4E1
100
AcDbEntity
  8
21814000
100
AcDbLine
 62
7
  6
CONTINUOUS
 10
141.7025557724
 20
108.5199556734
 11
141.70483848
 21
108.6203506123
  0
LWPOLYLINE
  5
4E2
100
AcDbEntity
  8
0
100
AcDbPolyline
 62
250
  6
CONTINUOUS
 90
46
 70
0
 10
141.7055650909
 20
117.4961515048
 10
141.7035876866
 20
117.4284973691
 10
141.6980487188
 20
117.3620198683
 10
141.6895235936
 20
117.2967190026
 10
141.6786208917
 20
117.2324913339
 10
141.6658291338
 20
117.1694403001
 10
141.6513922689
 20
117.1078762152
 10
141.6356413849
 20
117.0478677077
 10
141.6189328779
 20
116.989346149
 10
141.6013445939
 20
116.9324159668
 10
141.5831100408
 20
116.8771745969
 10
141.5644524591
 20
116.8235246034
 10
141.5452987089
 20
116.7712781067
 10
141.5257703098
 20
116.7204319
 10
141.5060292196
 20
116.67098919
 10
141.4859691899
 20
116.6227717177
 10
141.4656485556
 20
116.5757259148
 10
141.445190407
 20
116.5299053495
 10
141.42453308
 20
116.4852924669
 10
141.4037240648
 20
116.4418585082
 10
141.382845235
 20
116.3996322322
 10
141.361859634
 20
116.3586823598
 10
141.340820146
 20
116.3190149419
 10
141.3197720857
 20
116.2806239276
 10
141.2986492536
 20
116.2435598862
 10
141.277498199
 20
116.2078263103
 10
141.2563448344
 20
116.1734197072
 10
141.235075722
 20
116.1403801684
 10
141.2137121665
 20
116.1086720227
 10
141.1922832232
 20
116.0783309414
 10
141.1706733935
 20
116.0495040295
 10
141.1488884999
 20
116.0221381511
 10
141.1269590491
 20
115.9962864422
 10
141.1047976215
 20
115.9722554157
 10
141.082412091
 20
115.9500043935
 10
141.0598245226
 20
115.9295740538
 10
141.0369637327
 20
115.9113929437
 10
141.0138187723
 20
115.8954433023
 10
140.9904283058
 20
115.8817428906
 10
140.9667940264
 20
115.8707735394
 10
140.9429068253
 20
115.8626086729
 10
140.9188065022
 20
115.857174867
 10
140.8945694047
 20
115.8547336797
 10
140.8702328922
 20
115.8553722969
 10
140.8457945686
 20
115.8590035327
 10
140.8212722567
 20
115.8656273871
  0
LWPOLYLINE
  5
4E3
100
AcDbEntity
  8
21814000
100
AcDbPolyline
 62
250
  6
CONTINUOUS
 90
46
 70
0
 10
141.7055650909
 20
117.4961515048
 10
141.7035876866
 20
117.4284973691
 10
141.6980487188
 20
117.3620198683
 10
141.6895235936
 20
117.2967190026
 10
141.6786208917
 20
117.2324913339
 10
141.6658291338
 20
117.1694403001
 10
141.6513922689
 20
117.1078762152
 10
141.6356413849
 20
117.0478677077
 10
141.6189328779
 20
116.989346149
 10
141.6013445939
 20
116.9324159668
 10
141.5831100408
 20
116.8771745969
 10
141.5644524591
 20
116.8235246034
 10
141.5452987089
 20
116.7712781067
 10
141.5257703098
 20
116.7204319
 10
141.5060292196
 20
116.67098919
 10
141.4859691899
 20
116.6227717177
 10
141.4656485556
 20
116.5757259148
 10
141.445190407
 20
116.5299053495
 10
141.42453308
 20
116.4852924669
 10
141.4037240648
 20
116.4418585082
 10
141.382845235
 20
116.3996322322
 10
141.361859634
 20
116.3586823598
 10
141.340820146
 20
116.3190149419
 10
141.3197720857
 20
116.2806239276
 10
141.2986492536
 20
116.2435598862
 10
141.277498199
 20
116.2078263103
 10
141.2563448344
 20
116.1734197072
 10
141.235075722
 20
116.1403801684
 10
141.2137121665
 20
116.1086720227
 10
141.1922832232
 20
116.0783309414
 10
141.1706733935
 20
116.0495040295
 10
141.1488884999
 20
116.0221381511
 10
141.1269590491
 20
115.9962864422
 10
141.1047976215
 20
115.9722554157
 10
141.082412091
 20
115.9500043935
 10
141.0598245226
 20
115.9295740538
 10
141.0369637327
 20
115.9113929437
 10
141.0138187723
 20
115.8954433023
 10
140.9904283058
 20
115.8817428906
 10
140.9667940264
 20
115.8707735394
 10
140.9429068253
 20
115.8626086729
 10
140.9188065022
 20
115.857174867
 10
140.8945694047
 20
115.8547336797
 10
140.8702328922
 20
115.8553722969
 10
140.8457945686
 20
115.8590035327
 10
140.8212722567
 20
115.8656273871
  0
LWPOLYLINE
  5
4E4
100
AcDbEntity
  8
0
100
AcDbPolyline
 62
250
  6
CONTINUOUS
 90
40
 70
0
 10
141.9794183681
 20
117.2648249468
 10
141.9754516469
 20
117.2027756757
 10
141.9681389149
 20
117.1412791648
 10
141.9574801722
 20
117.0806352728
 10
141.9429547146
 20
117.0212560907
 10
141.9250832463
 20
116.9632673745
 10
141.9054278795
 20
116.9064920801
 10
141.8842106915
 20
116.8511330801
 10
141.8612096051
 20
116.7973811607
 10
141.8373205003
 20
116.7449851148
 10
141.8127080552
 20
116.6941247545
 10
141.7872075917
 20
116.6449018759
 10
141.7612209557
 20
116.5968935892
 10
141.7348241713
 20
116.5501430713
 10
141.7079412144
 20
116.5047911514
 10
141.6807458583
 20
116.460516913
 10
141.6532512571
 20
116.41730684
 10
141.6254442568
 20
116.3752995868
 10
141.5974591688
 20
116.3343786504
 10
141.5693059625
 20
116.2945556117
 10
141.5409746686
 20
116.2559145254
 10
141.5125696908
 20
116.2184375155
 10
141.484120863
 20
116.1821634591
 10
141.4555983515
 20
116.1471305636
 10
141.4270170577
 20
116.1133139339
 10
141.3984098984
 20
116.0807379245
 10
141.3697439569
 20
116.0494389046
 10
141.3409353856
 20
116.0194048533
 10
141.31198808
 20
115.9906141083
 10
141.2828981445
 20
115.9631355579
 10
141.2535700456
 20
115.9370906369
 10
141.2239955126
 20
115.912448266
 10
141.1941828162
 20
115.8892793499
 10
141.164061235
 20
115.8678596725
 10
141.1336255832
 20
115.8481695827
 10
141.1028810466
 20
115.8302647689
 10
141.0717724618
 20
115.8145373768
 10
141.0402814409
 20
115.8011302783
 10
141.0084263717
 20
115.7899337731
 10
140.9762072543
 20
115.7809616446
  0
LWPOLYLINE
  5
4E5
100
AcDbEntity
  8
21814000
100
AcDbPolyline
 62
250
  6
CONTINUOUS
 90
40
 70
0
 10
141.9794183681
 20
117.2648249468
 10
141.9754516469
 20
117.2027756757
 10
141.9681389149
 20
117.1412791648
 10
141.9574801722
 20
117.0806352728
 10
141.9429547146
 20
117.0212560907
 10
141.9250832463
 20
116.9632673745
 10
141.9054278795
 20
116.9064920801
 10
141.8842106915
 20
116.8511330801
 10
141.8612096051
 20
116.7973811607
 10
141.8373205003
 20
116.7449851148
 10
141.8127080552
 20
116.6941247545
 10
141.7872075917
 20
116.6449018759
 10
141.7612209557
 20
116.5968935892
 10
141.7348241713
 20
116.5501430713
 10
141.7079412144
 20
116.5047911514
 10
141.6807458583
 20
116.460516913
 10
141.6532512571
 20
116.41730684
 10
141.6254442568
 20
116.3752995868
 10
141.5974591688
 20
116.3343786504
 10
141.5693059625
 20
116.2945556117
 10
141.5409746686
 20
116.2559145254
 10
141.5125696908
 20
116.2184375155
 10
141.484120863
 20
116.1821634591
 10
141.4555983515
 20
116.1471305636
 10
141.4270170577
 20
116.1133139339
 10
141.3984098984
 20
116.0807379245
 10
141.3697439569
 20
116.0494389046
 10
141.3409353856
 20
116.0194048533
 10
141.31198808
 20
115.9906141083
 10
141.2828981445
 20
115.9631355579
 10
141.2535700456
 20
115.9370906369
 10
141.2239955126
 20
115.912448266
 10
141.1941828162
 20
115.8892793499
 10
141.164061235
 20
115.8678596725
 10
141.1336255832
 20
115.8481695827
 10
141.1028810466
 20
115.8302647689
 10
141.0717724618
 20
115.8145373768
 10
141.0402814409
 20
115.8011302783
 10
141.0084263717
 20
115.7899337731
 10
140.9762072543
 20
115.7809616446
  0
LWPOLYLINE
  5
4E6
100
AcDbEntity
  8
0
100
AcDbPolyline
 62
250
  6
CONTINUOUS
 90
13
 70
0
 10
141.7055650909
 20
112.271578087
 10
141.7078548076
 20
112.3002130255
 10
141.7146889764
 20
112.3284107683
 10
141.7259632325
 20
112.355740892
 10
141.7415054338
 20
112.3817862194
 10
141.7610782982
 20
112.4061492017
 10
141.784383035
 20
112.4284579835
 10
141.8110638811
 20
112.4483720514
 10
141.8407135526
 20
112.4655874569
 10
141.8728794858
 20
112.4798414575
 10
141.9070706984
 20
112.4909164971
 10
141.9427652751
 20
112.4986435361
 10
141.9794183681
 20
112.5029046455
  0
LWPOLYLINE
  5
4E7
100
AcDbEntity
  8
21814000
100
AcDbPolyline
 62
250
  6
CONTINUOUS
 90
13
 70
0
 10
141.7055650909
 20
112.271578087
 10
141.7078548076
 20
112.3002130255
 10
141.7146889764
 20
112.3284107683
 10
141.7259632325
 20
112.355740892
 10
141.7415054338
 20
112.3817862194
 10
141.7610782982
 20
112.4061492017
 10
141.784383035
 20
112.4284579835
 10
141.8110638811
 20
112.4483720514
 10
141.8407135526
 20
112.4655874569
 10
141.8728794858
 20
112.4798414575
 10
141.9070706984
 20
112.4909164971
 10
141.9427652751
 20
112.4986435361
 10
141.9794183681
 20
112.5029046455
  0
LINE
  5
4E8
100
AcDbEntity
  8
0
100
AcDbLine
 62
250
  6
CONTINUOUS
 10
141.9794183881
 20
105.4096721935
 11
141.9712787493
 21
105.3796892872
  0
LINE
  5
4E9
100
AcDbEntity
  8
21814000
100
AcDbLine
 62
250
  6
CONTINUOUS
 10
141.9794183881
 20
105.4096721935
 11
141.9712787493
 21
105.3796892872
  0
LINE
  5
4EA
100
AcDbEntity
  8
INCISIONI_LASER
100
AcDbLine
 62
250
  6
CONTINUOUS
 10
138.8884029798
 20
95.3267222044
 11
138.7027169903
 21
95.1410073874
  0
LINE
  5
4EB
100
AcDbEntity
  8
INCISIONI_LASER
100
AcDbLine
 62
250
  6
CONTINUOUS
 10
139.4454609869
 20
94.3052931902
 11
139.2597749587
 21
94.1195789931
  0
LINE
  5
4EC
100
AcDbEntity
  8
INCISIONI_LASER
100
AcDbLine
 62
250
  6
CONTINUOUS
 10
138.8884029798
 20
93.2838647959
 11
138.7027169903
 21
93.0981505988
  0
LINE
  5
4ED
100
AcDbEntity
  8
26814000
100
AcDbLine
 62
7
  6
CONTINUOUS
 10
116.6305650909
 20
79.1560335796
 11
117.5055650909
 21
79.6612150651
  0
LINE
  5
4EE
100
AcDbEntity
  8
INCISIONI_LASER
100
AcDbLine
 62
250
  6
CONTINUOUS
 10
132.2746319194
 20
89.2838647959
 11
131.412825494
 21
88.8634057959
  0
LINE
  5
4EF
100
AcDbEntity
  8
INCISIONI_LASER
100
AcDbLine
 62
250
  6
CONTINUOUS
 10
140.0055650909
 20
118.3074687959
 11
139.5026833086
 21
118.3074687959
  0
LINE
  5
4F0
100
AcDbEntity
  8
0
100
AcDbLine
 62
7
  6
CONTINUOUS
 10
141.7055650909
 20
118.3838647959
 11
141.9055650909
 21
118.3838647959
  0
LINE
  5
4F1
100
AcDbEntity
  8
21814000
100
AcDbLine
 62
7
  6
CONTINUOUS
 10
141.7055650909
 20
118.3838647959
 11
141.9055650909
 21
118.3838647959
  0
LINE
  5
4F2
100
AcDbEntity
  8
INCISIONI_LASER
100
AcDbLine
 62
250
  6
CONTINUOUS
 10
127.0058544701
 20
118.3910074589
 11
128.9055650909
 21
118.3910074589
  0
LINE
  5
4F3
100
AcDbEntity
  8
0
100
AcDbLine
 62
7
  6
CONTINUOUS
 10
141.9794183681
 20
117.9599057387
 11
143.7317118137
 21
117.806599927
  0
LINE
  5
4F4
100
AcDbEntity
  8
21814000
100
AcDbLine
 62
7
  6
CONTINUOUS
 10
141.9794183681
 20
117.9599057387
 11
143.7317118137
 21
117.806599927
  0
LWPOLYLINE
  5
4F5
100
AcDbEntity
  8
0
100
AcDbPolyline
 62
250
  6
CONTINUOUS
 90
37
 70
0
 10
140.9762302875
 20
113.9867598163
 10
141.0106545613
 20
113.9771187601
 10
141.044805015
 20
113.9648361975
 10
141.0786816485
 20
113.9499301132
 10
141.112340712
 20
113.9322205224
 10
141.1457259554
 20
113.911931951
 10
141.1786686283
 20
113.8896869028
 10
141.2110576162
 20
113.8656185616
 10
141.2430040337
 20
113.8396376451
 10
141.2746724743
 20
113.8120271302
 10
141.3060554484
 20
113.7828958316
 10
141.3371604457
 20
113.7521853973
 10
141.368174528
 20
113.7199288952
 10
141.3991519016
 20
113.6861694198
 10
141.4300383602
 20
113.6509296456
 10
141.4608583472
 20
113.6142169581
 10
141.4916460599
 20
113.5760818535
 10
141.522367301
 20
113.5365576646
 10
141.5529439216
 20
113.4956323613
 10
141.5833758983
 20
113.4534267665
 10
141.6136632546
 20
113.4099254049
 10
141.6437279123
 20
113.364925705
 10
141.67359719
 20
113.3185858923
 10
141.7032437692
 20
113.2708942154
 10
141.7325076159
 20
113.2214259241
 10
141.7615048661
 20
113.1703098838
 10
141.790119384
 20
113.1176430593
 10
141.8178427276
 20
113.0630058374
 10
141.844857812
 20
113.0065723498
 10
141.8709817222
 20
112.9485082362
 10
141.8951572711
 20
112.8884500231
 10
141.9176899237
 20
112.8263188202
 10
141.938274215
 20
112.7627092725
 10
141.9549365633
 20
112.6982736125
 10
141.967019108
 20
112.6333775155
 10
141.9751797095
 20
112.5681590839
 10
141.9794183681
 20
112.502904645
  0
LWPOLYLINE
  5
4F6
100
AcDbEntity
  8
21814000
100
AcDbPolyline
 62
250
  6
CONTINUOUS
 90
37
 70
0
 10
140.9762302875
 20
113.9867598163
 10
141.0106545613
 20
113.9771187601
 10
141.044805015
 20
113.9648361975
 10
141.0786816485
 20
113.9499301132
 10
141.112340712
 20
113.9322205224
 10
141.1457259554
 20
113.911931951
 10
141.1786686283
 20
113.8896869028
 10
141.2110576162
 20
113.8656185616
 10
141.2430040337
 20
113.8396376451
 10
141.2746724743
 20
113.8120271302
 10
141.3060554484
 20
113.7828958316
 10
141.3371604457
 20
113.7521853973
 10
141.368174528
 20
113.7199288952
 10
141.3991519016
 20
113.6861694198
 10
141.4300383602
 20
113.6509296456
 10
141.4608583472
 20
113.6142169581
 10
141.4916460599
 20
113.5760818535
 10
141.522367301
 20
113.5365576646
 10
141.5529439216
 20
113.4956323613
 10
141.5833758983
 20
113.4534267665
 10
141.6136632546
 20
113.4099254049
 10
141.6437279123
 20
113.364925705
 10
141.67359719
 20
113.3185858923
 10
141.7032437692
 20
113.2708942154
 10
141.7325076159
 20
113.2214259241
 10
141.7615048661
 20
113.1703098838
 10
141.790119384
 20
113.1176430593
 10
141.8178427276
 20
113.0630058374
 10
141.844857812
 20
113.0065723498
 10
141.8709817222
 20
112.9485082362
 10
141.8951572711
 20
112.8884500231
 10
141.9176899237
 20
112.8263188202
 10
141.938274215
 20
112.7627092725
 10
141.9549365633
 20
112.6982736125
 10
141.967019108
 20
112.6333775155
 10
141.9751797095
 20
112.5681590839
 10
141.9794183681
 20
112.502904645
  0
LINE
  5
4F7
100
AcDbEntity
  8
26814000
100
AcDbLine
 62
7
  6
CONTINUOUS
 10
117.5055650909
 20
125.9065145267
 11
116.6305650909
 21
126.4116960123
  0
LINE
  5
4F8
100
AcDbEntity
  8
0
100
AcDbLine
 62
250
  6
CONTINUOUS
 10
141.9794183922
 20
103.5580573842
 11
141.9712787478
 21
103.5880403047
  0
LINE
  5
4F9
100
AcDbEntity
  8
21814000
100
AcDbLine
 62
250
  6
CONTINUOUS
 10
141.9794183922
 20
103.5580573842
 11
141.9712787478
 21
103.5880403047
  0
LWPOLYLINE
  5
4FA
100
AcDbEntity
  8
0
100
AcDbPolyline
 62
250
  6
CONTINUOUS
 90
13
 70
0
 10
141.7055650909
 20
117.4961515048
 10
141.7078548389
 20
117.4675160909
 10
141.7146890834
 20
117.439317988
 10
141.7259634317
 20
117.4119876201
 10
141.741505707
 20
117.3859421676
 10
141.7610786059
 20
117.3615791608
 10
141.7843833463
 20
117.339270424
 10
141.8110641593
 20
117.3193564647
 10
141.8407137569
 20
117.3021412191
 10
141.8728796141
 20
117.2878874034
 10
141.9070707701
 20
117.2768125718
 10
141.9427653027
 20
117.2690857747
 10
141.9794183681
 20
117.2648249464
  0
LWPOLYLINE
  5
4FB
100
AcDbEntity
  8
21814000
100
AcDbPolyline
 62
250
  6
CONTINUOUS
 90
13
 70
0
 10
141.7055650909
 20
117.4961515048
 10
141.7078548389
 20
117.4675160909
 10
141.7146890834
 20
117.439317988
 10
141.7259634317
 20
117.4119876201
 10
141.741505707
 20
117.3859421676
 10
141.7610786059
 20
117.3615791608
 10
141.7843833463
 20
117.339270424
 10
141.8110641593
 20
117.3193564647
 10
141.8407137569
 20
117.3021412191
 10
141.8728796141
 20
117.2878874034
 10
141.9070707701
 20
117.2768125718
 10
141.9427653027
 20
117.2690857747
 10
141.9794183681
 20
117.2648249464
  0
LWPOLYLINE
  5
4FC
100
AcDbEntity
  8
0
100
AcDbPolyline
 62
250
  6
CONTINUOUS
 90
6
 70
0
 10
141.7055650909
 20
120.9764322181
 10
141.7022159554
 20
121.0312830482
 10
141.6921934751
 20
121.0857256497
 10
141.6755722424
 20
121.1393548322
 10
141.6524759612
 20
121.1917714595
 10
141.6230765263
 20
121.2425854194
  0
LWPOLYLINE
  5
4FD
100
AcDbEntity
  8
21814000
100
AcDbPolyline
 62
250
  6
CONTINUOUS
 90
6
 70
0
 10
141.7055650909
 20
120.9764322181
 10
141.7022159554
 20
121.0312830482
 10
141.6921934751
 20
121.0857256497
 10
141.6755722424
 20
121.1393548322
 10
141.6524759612
 20
121.1917714595
 10
141.6230765263
 20
121.2425854194
  0
LWPOLYLINE
  5
4FE
100
AcDbEntity
  8
0
100
AcDbPolyline
 62
250
  6
CONTINUOUS
 90
58
 70
0
 10
141.7055650909
 20
106.3063409182
 10
141.7059247154
 20
106.2722780752
 10
141.7069451034
 20
106.239278268
 10
141.7085403738
 20
106.2073467041
 10
141.710618967
 20
106.1765248112
 10
141.7131060636
 20
106.1467673305
 10
141.7159627444
 20
106.1179480531
 10
141.7191379114
 20
106.0900455828
 10
141.7225733382
 20
106.0630709665
 10
141.7262488535
 20
106.0369512487
 10
141.7301258268
 20
106.0116823577
 10
141.7341631556
 20
105.987255286
 10
141.7383547833
 20
105.9635935079
 10
141.742672204
 20
105.9406949083
 10
141.747085766
 20
105.9185488324
 10
141.7516005488
 20
105.8970695003
 10
141.756198321
 20
105.8762438149
 10
141.7608554916
 20
105.8560739405
 10
141.7655780974
 20
105.8364999207
 10
141.7703553199
 20
105.8175011496
 10
141.7751668401
 20
105.7990889596
 10
141.7800093951
 20
105.7812530101
 10
141.7848709078
 20
105.7639891124
 10
141.7897378596
 20
105.7472927043
 10
141.7946073921
 20
105.7311537559
 10
141.7994658873
 20
105.7155799754
 10
141.8043057849
 20
105.7005555338
 10
141.8091358286
 20
105.6860361182
 10
141.8139411583
 20
105.6720373791
 10
141.8187202179
 20
105.6585368984
 10
141.8235053267
 20
105.6454350834
 10
141.8282889678
 20
105.6327318232
 10
141.8330680542
 20
105.6204230076
 10
141.8378857919
 20
105.6084054817
 10
141.8427367408
 20
105.5966769367
 10
141.84762045
 20
105.5852379725
 10
141.8525917484
 20
105.5739924707
 10
141.857651618
 20
105.5629254456
 10
141.8627973317
 20
105.5520529515
 10
141.86808184
 20
105.5413281342
 10
141.873525464
 20
105.5307050684
 10
141.8791091634
 20
105.520233484
 10
141.8848281576
 20
105.5100112513
 10
141.8907380376
 20
105.499963593
 10
141.896783573
 20
105.4901694002
 10
141.9027887842
 20
105.4809529401
 10
141.9086713492
 20
105.4724429135
 10
141.914502884
 20
105.4645047921
 10
141.9203353223
 20
105.4570652622
 10
141.9261053842
 20
105.4501555858
 10
141.9318695766
 20
105.4437416606
 10
141.937864532
 20
105.4376580801
 10
141.9441616281
 20
105.4317929989
 10
141.9506906021
 20
105.4262669118
 10
141.9574790734
 20
105.4212684409
 10
141.9645356619
 20
105.4168639588
 10
141.9718495133
 20
105.4129968547
 10
141.9794183681
 20
105.4096721245
  0
LWPOLYLINE
  5
4FF
100
AcDbEntity
  8
21814000
100
AcDbPolyline
 62
250
  6
CONTINUOUS
 90
58
 70
0
 10
141.7055650909
 20
106.3063409182
 10
141.7059247154
 20
106.2722780752
 10
141.7069451034
 20
106.239278268
 10
141.7085403738
 20
106.2073467041
 10
141.710618967
 20
106.1765248112
 10
141.7131060636
 20
106.1467673305
 10
141.7159627444
 20
106.1179480531
 10
141.7191379114
 20
106.0900455828
 10
141.7225733382
 20
106.0630709665
 10
141.7262488535
 20
106.0369512487
 10
141.7301258268
 20
106.0116823577
 10
141.7341631556
 20
105.987255286
 10
141.7383547833
 20
105.9635935079
 10
141.742672204
 20
105.9406949083
 10
141.747085766
 20
105.9185488324
 10
141.7516005488
 20
105.8970695003
 10
141.756198321
 20
105.8762438149
 10
141.7608554916
 20
105.8560739405
 10
141.7655780974
 20
105.8364999207
 10
141.7703553199
 20
105.8175011496
 10
141.7751668401
 20
105.7990889596
 10
141.7800093951
 20
105.7812530101
 10
141.7848709078
 20
105.7639891124
 10
141.7897378596
 20
105.7472927043
 10
141.7946073921
 20
105.7311537559
 10
141.7994658873
 20
105.7155799754
 10
141.8043057849
 20
105.7005555338
 10
141.8091358286
 20
105.6860361182
 10
141.8139411583
 20
105.6720373791
 10
141.8187202179
 20
105.6585368984
 10
141.8235053267
 20
105.6454350834
 10
141.8282889678
 20
105.6327318232
 10
141.8330680542
 20
105.6204230076
 10
141.8378857919
 20
105.6084054817
 10
141.8427367408
 20
105.5966769367
 10
141.84762045
 20
105.5852379725
 10
141.8525917484
 20
105.5739924707
 10
141.857651618
 20
105.5629254456
 10
141.8627973317
 20
105.5520529515
 10
141.86808184
 20
105.5413281342
 10
141.873525464
 20
105.5307050684
 10
141.8791091634
 20
105.520233484
 10
141.8848281576
 20
105.5100112513
 10
141.8907380376
 20
105.499963593
 10
141.896783573
 20
105.4901694002
 10
141.9027887842
 20
105.4809529401
 10
141.9086713492
 20
105.4724429135
 10
141.914502884
 20
105.4645047921
 10
141.9203353223
 20
105.4570652622
 10
141.9261053842
 20
105.4501555858
 10
141.9318695766
 20
105.4437416606
 10
141.937864532
 20
105.4376580801
 10
141.9441616281
 20
105.4317929989
 10
141.9506906021
 20
105.4262669118
 10
141.9574790734
 20
105.4212684409
 10
141.9645356619
 20
105.4168639588
 10
141.9718495133
 20
105.4129968547
 10
141.9794183681
 20
105.4096721245
  0
LWPOLYLINE
  5
500
100
AcDbEntity
  8
0
100
AcDbPolyline
 62
250
  6
CONTINUOUS
 90
3
 70
0
 10
141.7937261897
 20
86.29280784
 10
141.7937240573
 20
86.2939598289
 10
141.7937959084
 20
86.2974090115
  0
LWPOLYLINE
  5
501
100
AcDbEntity
  8
21814000
100
AcDbPolyline
 62
250
  6
CONTINUOUS
 90
3
 70
0
 10
141.7937261897
 20
86.29280784
 10
141.7937240573
 20
86.2939598289
 10
141.7937959084
 20
86.2974090115
  0
LINE
  5
502
100
AcDbEntity
  8
0
100
AcDbLine
 62
7
  6
CONTINUOUS
 10
141.7055650909
 20
121.3061921683
 11
141.7055650909
 21
117.4961515048
  0
LINE
  5
503
100
AcDbEntity
  8
21814000
100
AcDbLine
 62
7
  6
CONTINUOUS
 10
141.7055650909
 20
121.3061921683
 11
141.7055650909
 21
117.4961515048
  0
LINE
  5
504
100
AcDbEntity
  8
0
100
AcDbLine
 62
7
  6
CONTINUOUS
 10
141.7055650909
 20
85.1122919208
 11
141.7055650909
 21
84.2615374235
  0
LINE
  5
505
100
AcDbEntity
  8
21814000
100
AcDbLine
 62
7
  6
CONTINUOUS
 10
141.7055650909
 20
85.1122919208
 11
141.7055650909
 21
84.2615374235
  0
LINE
  5
506
100
AcDbEntity
  8
0
100
AcDbLine
 62
7
  6
CONTINUOUS
 10
141.9055650909
 20
120.2838647959
 11
141.9055650909
 21
118.3838647959
  0
LINE
  5
507
100
AcDbEntity
  8
21814000
100
AcDbLine
 62
7
  6
CONTINUOUS
 10
141.9055650909
 20
120.2838647959
 11
141.9055650909
 21
118.3838647959
  0
LINE
  5
508
100
AcDbEntity
  8
0
100
AcDbLine
 62
7
  6
CONTINUOUS
 10
141.9055650909
 20
110.1838647959
 11
141.9055650909
 21
108.2838647959
  0
LINE
  5
509
100
AcDbEntity
  8
21814000
100
AcDbLine
 62
7
  6
CONTINUOUS
 10
141.9055650909
 20
110.1838647959
 11
141.9055650909
 21
108.2838647959
  0
LINE
  5
50A
100
AcDbEntity
  8
0
100
AcDbLine
 62
7
  6
CONTINUOUS
 10
141.9055650909
 20
101.1838647959
 11
141.9055650909
 21
99.4838647959
  0
LINE
  5
50B
100
AcDbEntity
  8
21814000
100
AcDbLine
 62
7
  6
CONTINUOUS
 10
141.9055650909
 20
101.1838647959
 11
141.9055650909
 21
99.4838647959
  0
LINE
  5
50C
100
AcDbEntity
  8
0
100
AcDbLine
 62
250
  6
CONTINUOUS
 10
141.9794183681
 20
117.9599057387
 11
141.9794183681
 21
117.2648249468
  0
LINE
  5
50D
100
AcDbEntity
  8
21814000
100
AcDbLine
 62
250
  6
CONTINUOUS
 10
141.9794183681
 20
117.9599057387
 11
141.9794183681
 21
117.2648249468
  0
LINE
  5
50E
100
AcDbEntity
  8
0
100
AcDbLine
 62
250
  6
CONTINUOUS
 10
141.9794183681
 20
112.502904645
 11
141.9794183681
 21
111.8078238531
  0
LINE
  5
50F
100
AcDbEntity
  8
21814000
100
AcDbLine
 62
250
  6
CONTINUOUS
 10
141.9794183681
 20
112.502904645
 11
141.9794183681
 21
111.8078238531
  0
LINE
  5
510
100
AcDbEntity
  8
0
100
AcDbLine
 62
250
  6
CONTINUOUS
 10
141.9794183681
 20
107.5599057387
 11
141.9794183681
 21
105.4096721245
  0
LINE
  5
511
100
AcDbEntity
  8
21814000
100
AcDbLine
 62
250
  6
CONTINUOUS
 10
141.9794183681
 20
107.5599057387
 11
141.9794183681
 21
105.4096721245
  0
LINE
  5
512
100
AcDbEntity
  8
0
100
AcDbLine
 62
250
  6
CONTINUOUS
 10
141.9794183681
 20
103.5580574673
 11
141.9794183681
 21
101.4078238531
  0
LINE
  5
513
100
AcDbEntity
  8
21814000
100
AcDbLine
 62
250
  6
CONTINUOUS
 10
141.9794183681
 20
103.5580574673
 11
141.9794183681
 21
101.4078238531
  0
LINE
  5
514
100
AcDbEntity
  8
0
100
AcDbLine
 62
7
  6
CONTINUOUS
 10
141.7055650909
 20
108.3821533602
 11
141.7055650909
 21
112.271578087
  0
LINE
  5
515
100
AcDbEntity
  8
21814000
100
AcDbLine
 62
7
  6
CONTINUOUS
 10
141.7055650909
 20
108.3821533602
 11
141.7055650909
 21
112.271578087
  0
LWPOLYLINE
  5
516
100
AcDbEntity
  8
0
100
AcDbPolyline
 62
7
  6
CONTINUOUS
 90
5
 70
0
 10
141.7008941262
 20
108.3821534323
 10
141.7010055126
 20
108.4168362517
 10
141.7013393778
 20
108.4513408821
 10
141.7018700918
 20
108.4856673234
 10
141.7025557724
 20
108.5199556734
  0
LWPOLYLINE
  5
517
100
AcDbEntity
  8
21814000
100
AcDbPolyline
 62
7
  6
CONTINUOUS
 90
5
 70
0
 10
141.7008941262
 20
108.3821534323
 10
141.7010055126
 20
108.4168362517
 10
141.7013393778
 20
108.4513408821
 10
141.7018700918
 20
108.4856673234
 10
141.7025557724
 20
108.5199556734
  0
LINE
  5
518
100
AcDbEntity
  8
0
100
AcDbLine
 62
250
  6
CONTINUOUS
 10
141.7008116431
 20
85.0770457227
 11
141.7008941262
 21
108.3821534323
  0
LINE
  5
519
100
AcDbEntity
  8
21814000
100
AcDbLine
 62
250
  6
CONTINUOUS
 10
141.7008116431
 20
85.0770457227
 11
141.7008941262
 21
108.3821534323
  0
LWPOLYLINE
  5
51A
100
AcDbEntity
  8
0
100
AcDbPolyline
 62
7
  6
CONTINUOUS
 90
6
 70
0
 10
141.7014262628
 20
108.3935161024
 10
141.7017568496
 20
108.4455114577
 10
141.7025103968
 20
108.4982671785
 10
141.703545952
 20
108.551306049
 10
141.7046440673
 20
108.6040435195
 10
141.70542646
 20
108.6561220128
  0
LWPOLYLINE
  5
51B
100
AcDbEntity
  8
21814000
100
AcDbPolyline
 62
7
  6
CONTINUOUS
 90
6
 70
0
 10
141.7014262628
 20
108.3935161024
 10
141.7017568496
 20
108.4455114577
 10
141.7025103968
 20
108.4982671785
 10
141.703545952
 20
108.551306049
 10
141.7046440673
 20
108.6040435195
 10
141.70542646
 20
108.6561220128
  0
LINE
  5
51C
100
AcDbEntity
  8
0
100
AcDbLine
 62
7
  6
CONTINUOUS
 10
141.7053601846
 20
108.6525252293
 11
141.7055419603
 21
108.6739613946
  0
LINE
  5
51D
100
AcDbEntity
  8
21814000
100
AcDbLine
 62
7
  6
CONTINUOUS
 10
141.7053601846
 20
108.6525252293
 11
141.7055419603
 21
108.6739613946
  0
LWPOLYLINE
  5
51E
100
AcDbEntity
  8
0
100
AcDbPolyline
 62
7
  6
CONTINUOUS
 90
4
 70
0
 10
141.7009900931
 20
85.0302572496
 10
141.7012412104
 20
85.059667414
 10
141.701382583
 20
85.0899859995
 10
141.7014262628
 20
108.3935161024
  0
LWPOLYLINE
  5
51F
100
AcDbEntity
  8
21814000
100
AcDbPolyline
 62
7
  6
CONTINUOUS
 90
4
 70
0
 10
141.7009900931
 20
85.0302572496
 10
141.7012412104
 20
85.059667414
 10
141.701382583
 20
85.0899859995
 10
141.7014262628
 20
108.3935161024
  0
LINE
  5
520
100
AcDbEntity
  8
0
100
AcDbLine
 62
250
  6
CONTINUOUS
 10
141.7005338237
 20
85.0406431208
 11
141.7008116431
 21
85.0770457227
  0
LINE
  5
521
100
AcDbEntity
  8
21814000
100
AcDbLine
 62
250
  6
CONTINUOUS
 10
141.7005338237
 20
85.0406431208
 11
141.7008116431
 21
85.0770457227
  0
LINE
  5
522
100
AcDbEntity
  8
0
100
AcDbLine
 62
250
  6
CONTINUOUS
 10
141.7000442073
 20
85.0029114575
 11
141.7005338237
 21
85.0406431208
  0
LINE
  5
523
100
AcDbEntity
  8
21814000
100
AcDbLine
 62
250
  6
CONTINUOUS
 10
141.7000442073
 20
85.0029114575
 11
141.7005338237
 21
85.0406431208
  0
LINE
  5
524
100
AcDbEntity
  8
0
100
AcDbLine
 62
250
  6
CONTINUOUS
 10
141.7937959084
 20
86.2974090115
 11
141.7944676943
 21
86.3210698324
  0
LINE
  5
525
100
AcDbEntity
  8
21814000
100
AcDbLine
 62
250
  6
CONTINUOUS
 10
141.7937959084
 20
86.2974090115
 11
141.7944676943
 21
86.3210698324
  0
LINE
  5
526
100
AcDbEntity
  8
0
100
AcDbLine
 62
250
  6
CONTINUOUS
 10
141.7944676943
 20
86.3210698324
 11
141.7958272255
 21
86.3633623148
  0
LINE
  5
527
100
AcDbEntity
  8
21814000
100
AcDbLine
 62
250
  6
CONTINUOUS
 10
141.7944676943
 20
86.3210698324
 11
141.7958272255
 21
86.3633623148
  0
LINE
  5
528
100
AcDbEntity
  8
0
100
AcDbLine
 62
250
  6
CONTINUOUS
 10
141.7958272255
 20
86.3633623148
 11
141.7978659868
 21
86.4216921543
  0
LINE
  5
529
100
AcDbEntity
  8
21814000
100
AcDbLine
 62
250
  6
CONTINUOUS
 10
141.7958272255
 20
86.3633623148
 11
141.7978659868
 21
86.4216921543
  0
LINE
  5
52A
100
AcDbEntity
  8
0
100
AcDbLine
 62
250
  6
CONTINUOUS
 10
141.7978659868
 20
86.4216921543
 11
141.7995806396
 21
86.4676019281
  0
LINE
  5
52B
100
AcDbEntity
  8
21814000
100
AcDbLine
 62
250
  6
CONTINUOUS
 10
141.7978659868
 20
86.4216921543
 11
141.7995806396
 21
86.4676019281
  0
LWPOLYLINE
  5
52C
100
AcDbEntity
  8
0
100
AcDbPolyline
 62
250
  6
CONTINUOUS
 90
4
 70
0
 10
141.7995806396
 20
86.4676019281
 10
141.802629788
 20
86.5434987274
 10
141.8037630967
 20
86.5699038501
 10
141.8049852063
 20
86.59653754
  0
LWPOLYLINE
  5
52D
100
AcDbEntity
  8
21814000
100
AcDbPolyline
 62
250
  6
CONTINUOUS
 90
4
 70
0
 10
141.7995806396
 20
86.4676019281
 10
141.802629788
 20
86.5434987274
 10
141.8037630967
 20
86.5699038501
 10
141.8049852063
 20
86.59653754
  0
LINE
  5
52E
100
AcDbEntity
  8
0
100
AcDbLine
 62
250
  6
CONTINUOUS
 10
141.700012497
 20
84.520751912
 11
141.7006032874
 21
84.5309532504
  0
LINE
  5
52F
100
AcDbEntity
  8
21814000
100
AcDbLine
 62
250
  6
CONTINUOUS
 10
141.700012497
 20
84.520751912
 11
141.7006032874
 21
84.5309532504
  0
LWPOLYLINE
  5
530
100
AcDbEntity
  8
26814000
100
AcDbPolyline
 62
7
  6
CONTINUOUS
 90
4
 70
0
 10
130.0025087849
 20
81.8800178107
 10
129.9973844962
 20
81.874413544
 10
129.9940071822
 20
81.870823671
 10
129.9858092688
 20
81.8621886154
  0
LINE
  5
531
100
AcDbEntity
  8
26814000
100
AcDbLine
 62
7
  6
CONTINUOUS
 10
129.9858092688
 20
81.8621886154
 11
129.9645157574
 21
81.8401324268
  0
LINE
  5
532
100
AcDbEntity
  8
26814000
100
AcDbLine
 62
7
  6
CONTINUOUS
 10
129.9645157574
 20
81.8401324268
 11
129.9451144596
 21
81.8202257881
  0
LINE
  5
533
100
AcDbEntity
  8
26814000
100
AcDbLine
 62
7
  6
CONTINUOUS
 10
129.9451144596
 20
81.8202257881
 11
129.8833034363
 21
81.7573540291
  0
LINE
  5
534
100
AcDbEntity
  8
26814000
100
AcDbLine
 62
7
  6
CONTINUOUS
 10
129.8833034363
 20
81.7573540291
 11
129.8032569446
 21
81.6765880597
  0
LINE
  5
535
100
AcDbEntity
  8
INCISIONI_LASER
100
AcDbLine
 62
250
  6
CONTINUOUS
 10
139.8168329852
 20
93.6552931902
 11
140.002518994
 21
93.8410073874
  0
LINE
  5
536
100
AcDbEntity
  8
INCISIONI_LASER
100
AcDbLine
 62
250
  6
CONTINUOUS
 10
138.8884029798
 20
92.2624364016
 11
138.7027169903
 21
92.0767222044
  0
LINE
  5
537
100
AcDbEntity
  8
INCISIONI_LASER
100
AcDbLine
 62
250
  6
CONTINUOUS
 10
138.8884029798
 20
91.2410076973
 11
138.7027169903
 21
91.0552935002
  0
LINE
  5
538
100
AcDbEntity
  8
26814000
100
AcDbLine
 62
7
  6
CONTINUOUS
 10
129.8032569446
 20
81.6765880597
 11
129.7108008128
 21
81.5838647959
  0
LWPOLYLINE
  5
539
100
AcDbEntity
  8
0
100
AcDbPolyline
 62
250
  6
CONTINUOUS
 90
42
 70
0
 10
137.1901888928
 20
88.7051706867
 10
137.1944809393
 20
88.7090653778
 10
137.1986538582
 20
88.7130963897
 10
137.20270705
 20
88.7172565049
 10
137.206639915
 20
88.7215385057
 10
137.2104518535
 20
88.7259351747
 10
137.2141422658
 20
88.7304392943
 10
137.2177105522
 20
88.7350436469
 10
137.221156113
 20
88.7397410148
 10
137.2244783486
 20
88.7445241806
 10
137.2276766592
 20
88.7493859267
 10
137.2307504453
 20
88.7543190356
 10
137.2342256549
 20
88.7602337481
 10
137.2375419618
 20
88.7662299069
 10
137.2407153361
 20
88.7722993093
 10
137.2437617483
 20
88.7784337525
 10
137.2466971684
 20
88.7846250339
 10
137.2495375669
 20
88.7908649508
 10
137.252298914
 20
88.7971453005
 10
137.2546553005
 20
88.8026607847
 10
137.2569491452
 20
88.808203295
 10
137.2591660661
 20
88.8137752514
 10
137.2612916808
 20
88.8193790739
 10
137.2633116071
 20
88.8250171824
 10
137.2652114628
 20
88.8306919968
 10
137.2669768656
 20
88.8364059372
 10
137.2685934332
 20
88.8421614236
 10
137.2701413283
 20
88.8483459337
 10
137.27151173
 20
88.854575698
 10
137.2727127356
 20
88.8608459781
 10
137.2737524424
 20
88.8671520358
 10
137.2746389476
 20
88.8734891325
 10
137.2753803485
 20
88.87985253
 10
137.2759847423
 20
88.8862374898
 10
137.2764602262
 20
88.8926392737
 10
137.2768148976
 20
88.8990531433
 10
137.2770568537
 20
88.9054743603
 10
137.2771941917
 20
88.9118981861
 10
137.2772350088
 20
88.9183198826
 10
137.2771874024
 20
88.9247347114
 10
137.2770594696
 20
88.931137934
 10
137.2768593078
 20
88.9375248122
  0
LINE
  5
53A
100
AcDbEntity
  8
0
100
AcDbLine
 62
250
  6
CONTINUOUS
 10
136.3819291607
 20
88.0627505599
 11
137.1901888928
 21
88.7051706867
  0
LWPOLYLINE
  5
53B
100
AcDbEntity
  8
0
100
AcDbPolyline
 62
250
  6
CONTINUOUS
 90
79
 70
0
 10
137.2499615928
 20
86.9921610724
 10
137.3046578517
 20
87.0101737649
 10
137.3583453921
 20
87.0311018482
 10
137.410923886
 20
87.0548037097
 10
137.4622930053
 20
87.0811377373
 10
137.5123524218
 20
87.1099623184
 10
137.5610018076
 20
87.1411358408
 10
137.6081408346
 20
87.1745166921
 10
137.6612522634
 20
87.2161912519
 10
137.7120911356
 20
87.260530886
 10
137.7605893604
 20
87.307373427
 10
137.8066788469
 20
87.3565567072
 10
137.8502915042
 20
87.4079185592
 10
137.8913592415
 20
87.4612968156
 10
137.9296921064
 20
87.5163073845
 10
137.9655077167
 20
87.5729860595
 10
137.9988813725
 20
87.6311612263
 10
138.0298883737
 20
87.6906612703
 10
138.0586040205
 20
87.751314577
 10
138.0851036128
 20
87.8129495318
 10
138.1141060181
 20
87.8880718217
 10
138.1401133341
 20
87.964238436
 10
138.1632194797
 20
88.0413248583
 10
138.1835183737
 20
88.1192065724
 10
138.201103935
 20
88.1977590619
 10
138.2193139102
 20
88.2961794438
 10
138.2335908975
 20
88.3952937318
 10
138.2440504572
 20
88.4949515375
 10
138.2508081497
 20
88.5950024727
 10
138.2539795353
 20
88.6952961489
 10
138.2536801746
 20
88.7956821777
 10
138.2500256277
 20
88.8960101708
 10
138.2431314552
 20
88.9961297399
 10
138.2314105453
 20
89.1102062508
 10
138.2156953551
 20
89.2237177137
 10
138.196077815
 20
89.3365683998
 10
138.1726498554
 20
89.44866258
 10
138.1455034065
 20
89.5599045254
 10
138.1147303987
 20
89.6701985071
 10
138.0804227625
 20
89.7794487961
 10
138.0426592633
 20
89.8875436668
 10
138.0014442461
 20
89.9943686724
 10
137.9567682399
 20
90.0997931538
 10
137.9086217735
 20
90.2036864519
 10
137.8569953758
 20
90.3059179076
 10
137.8018795756
 20
90.4063568619
 10
137.7432649019
 20
90.5048726556
 10
137.6891371409
 20
90.5893271057
 10
137.6323343344
 20
90.6720443897
 10
137.5728640915
 20
90.7528577939
 10
137.5107340211
 20
90.8316006046
 10
137.4459517322
 20
90.9081061081
 10
137.3785248338
 20
90.9822075907
 10
137.3084609348
 20
91.0537383386
 10
137.2357676443
 20
91.1225316382
 10
137.1754148361
 20
91.1757361727
 10
137.1133582777
 20
91.226915857
 10
137.0495891796
 20
91.2759233576
 10
136.984098752
 20
91.3226113407
 10
136.9168782054
 20
91.3668324729
 10
136.8596117834
 20
91.4016376287
 10
136.801173446
 20
91.4344706249
 10
136.741595839
 20
91.4651701761
 10
136.680911608
 20
91.493574997
 10
136.6191533988
 20
91.5195238021
 10
136.556353857
 20
91.542855306
 10
136.4922411584
 20
91.5635129382
 10
136.427235896
 20
91.5812585176
 10
136.3614642565
 20
91.5959862995
 10
136.2950524263
 20
91.6075905391
 10
136.228126592
 20
91.6159654916
 10
136.1608129402
 20
91.6210054121
 10
136.1031267417
 20
91.6225885092
 10
136.0454051302
 20
91.621589286
 10
135.9878035122
 20
91.6179349363
 10
135.930477294
 20
91.6115526539
 10
135.873581882
 20
91.6023696326
 10
135.8172726825
 20
91.5903130661
 10
135.761705102
 20
91.5753101484
  0
LINE
  5
53C
100
AcDbEntity
  8
INCISIONI_LASER
100
AcDbLine
 62
250
  6
CONTINUOUS
 10
139.0740889693
 20
89.3838647959
 11
140.002518994
 21
89.6624360917
  0
LINE
  5
53D
100
AcDbEntity
  8
28414000
100
AcDbLine
 62
7
  6
CONTINUOUS
 10
116.9323153389
 20
121.452506475
 11
117.4996100433
 21
121.4673616097
  0
LINE
  5
53E
100
AcDbEntity
  8
26814000
100
AcDbLine
 62
250
  6
CONTINUOUS
 10
117.3395361034
 20
120.1636639891
 11
116.7958550972
 21
120.1541740018
  0
LINE
  5
53F
100
AcDbEntity
  8
26814000
100
AcDbLine
 62
7
  6
CONTINUOUS
 10
117.4625656421
 20
121.1656591728
 11
116.9011364739
 21
121.1558593902
  0
LINE
  5
540
100
AcDbEntity
  8
0
100
AcDbLine
 62
7
  6
CONTINUOUS
 10
141.7055650909
 20
120.2838647959
 11
141.9055650909
 21
120.2838647959
  0
LINE
  5
541
100
AcDbEntity
  8
21814000
100
AcDbLine
 62
7
  6
CONTINUOUS
 10
141.7055650909
 20
120.2838647959
 11
141.9055650909
 21
120.2838647959
  0
LINE
  5
542
100
AcDbEntity
  8
0
100
AcDbLine
 62
250
  6
CONTINUOUS
 10
141.7055650909
 20
120.4554376712
 11
120.0055650909
 21
120.4554376712
  0
LINE
  5
543
100
AcDbEntity
  8
21814000
100
AcDbLine
 62
250
  6
CONTINUOUS
 10
141.7055650909
 20
120.4554376712
 11
120.0055650909
 21
120.4554376712
  0
LINE
  5
544
100
AcDbEntity
  8
RACCORDO
100
AcDbLine
 62
250
  6
CONTINUOUS
 10
110.6749346546
 20
123.4150587645
 11
110.4363902354
 21
123.4567693405
  0
LINE
  5
545
100
AcDbEntity
  8
RACCORDO
100
AcDbLine
 62
250
  6
CONTINUOUS
 10
110.4363902354
 20
123.4567693405
 11
110.2224042322
 21
123.4943233117
  0
LINE
  5
546
100
AcDbEntity
  8
RACCORDO
100
AcDbLine
 62
250
  6
CONTINUOUS
 10
110.2224042322
 20
123.4943233117
 11
110.0532377829
 21
123.5241649026
  0
LINE
  5
547
100
AcDbEntity
  8
RACCORDO
100
AcDbLine
 62
250
  6
CONTINUOUS
 10
110.0532377829
 20
123.5241649026
 11
109.973493547
 21
123.5383406031
  0
LWPOLYLINE
  5
548
100
AcDbEntity
  8
RACCORDO
100
AcDbPolyline
 62
250
  6
CONTINUOUS
 90
4
 70
0
 10
109.973493547
 20
123.5383406031
 10
109.9242785143
 20
123.5472128369
 10
109.9118227304
 20
123.5495337028
 10
109.9076729318
 20
123.5504065877
  0
LWPOLYLINE
  5
549
100
AcDbEntity
  8
0
100
AcDbPolyline
 62
7
  6
CONTINUOUS
 90
7
 70
0
 10
140.9763359731
 20
115.780928289
 10
140.9461502691
 20
115.7901298792
 10
140.9177012656
 20
115.8012974398
 10
140.8909889626
 20
115.814430971
 10
140.8660133601
 20
115.8295304726
 10
140.8427744581
 20
115.8465959446
 10
140.8212722567
 20
115.8656273871
  0
LWPOLYLINE
  5
54A
100
AcDbEntity
  8
21814000
100
AcDbPolyline
 62
7
  6
CONTINUOUS
 90
7
 70
0
 10
140.9763359731
 20
115.780928289
 10
140.9461502691
 20
115.7901298792
 10
140.9177012656
 20
115.8012974398
 10
140.8909889626
 20
115.814430971
 10
140.8660133601
 20
115.8295304726
 10
140.8427744581
 20
115.8465959446
 10
140.8212722567
 20
115.8656273871
  0
LINE
  5
54B
100
AcDbEntity
  8
INCISIONI_LASER
100
AcDbLine
 62
250
  6
CONTINUOUS
 10
138.7059610533
 20
116.1034777959
 11
140.0055650909
 21
115.5331437959
  0
LINE
  5
54C
100
AcDbEntity
  8
26814000
100
AcDbLine
 62
7
  6
CONTINUOUS
 10
129.7847447474
 20
123.9097430719
 11
129.7108008128
 21
123.9838647959
  0
LINE
  5
54D
100
AcDbEntity
  8
26814000
100
AcDbLine
 62
7
  6
CONTINUOUS
 10
129.9703797026
 20
123.7215580218
 11
129.7847447474
 21
123.9097430719
  0
LWPOLYLINE
  5
54E
100
AcDbEntity
  8
26814000
100
AcDbPolyline
 62
7
  6
CONTINUOUS
 90
3
 70
0
 10
129.9940071822
 20
123.6969059208
 10
129.9858092688
 20
123.7055409764
 10
129.9703797026
 20
123.7215580218
  0
LINE
  5
54F
100
AcDbEntity
  8
26814000
100
AcDbLine
 62
7
  6
CONTINUOUS
 10
129.9973844962
 20
123.6933160478
 11
129.9940071822
 21
123.6969059208
  0
LWPOLYLINE
  5
550
100
AcDbEntity
  8
0
100
AcDbPolyline
 62
250
  6
CONTINUOUS
 90
38
 70
0
 10
141.7014131222
 20
105.7656334343
 10
141.705400895
 20
105.7543264994
 10
141.7118758315
 20
105.7366452046
 10
141.7183754602
 20
105.7195796053
 10
141.7248647777
 20
105.7031022612
 10
141.7313365274
 20
105.6872239281
 10
141.7377979659
 20
105.6719338501
 10
141.7442358597
 20
105.6571723197
 10
141.7506374047
 20
105.6429567239
 10
141.757015405
 20
105.6292696757
 10
141.7633950391
 20
105.6159993061
 10
141.7697691683
 20
105.6031452997
 10
141.7761449315
 20
105.5907079719
 10
141.782568923
 20
105.578576399
 10
141.789034032
 20
105.5667467975
 10
141.7955473695
 20
105.555222951
 10
141.8021768624
 20
105.5439052865
 10
141.8089218489
 20
105.5327760906
 10
141.8157829909
 20
105.5218530768
 10
141.8228302003
 20
105.511089812
 10
141.8300888089
 20
105.5004376709
 10
141.8375334849
 20
105.4899452787
 10
141.8451581453
 20
105.479712078
 10
141.8530412538
 20
105.4696643078
 10
141.8611043467
 20
105.459875729
 10
141.869105949
 20
105.4506670669
 10
141.8769461205
 20
105.442171696
 10
141.8847248013
 20
105.4342562418
 10
141.8925003378
 20
105.4268413049
 10
141.9001879679
 20
105.4199555068
 10
141.9078724536
 20
105.4135702261
 10
141.9158664265
 20
105.4075201996
 10
141.9242620975
 20
105.4016851757
 10
141.9329672558
 20
105.396185406
 10
141.9420179002
 20
105.3912163831
 10
141.9514260304
 20
105.3868432711
 10
141.9611796468
 20
105.3830009058
 10
141.9712787493
 20
105.3796892872
  0
LWPOLYLINE
  5
551
100
AcDbEntity
  8
21814000
100
AcDbPolyline
 62
250
  6
CONTINUOUS
 90
38
 70
0
 10
141.7014131222
 20
105.7656334343
 10
141.705400895
 20
105.7543264994
 10
141.7118758315
 20
105.7366452046
 10
141.7183754602
 20
105.7195796053
 10
141.7248647777
 20
105.7031022612
 10
141.7313365274
 20
105.6872239281
 10
141.7377979659
 20
105.6719338501
 10
141.7442358597
 20
105.6571723197
 10
141.7506374047
 20
105.6429567239
 10
141.757015405
 20
105.6292696757
 10
141.7633950391
 20
105.6159993061
 10
141.7697691683
 20
105.6031452997
 10
141.7761449315
 20
105.5907079719
 10
141.782568923
 20
105.578576399
 10
141.789034032
 20
105.5667467975
 10
141.7955473695
 20
105.555222951
 10
141.8021768624
 20
105.5439052865
 10
141.8089218489
 20
105.5327760906
 10
141.8157829909
 20
105.5218530768
 10
141.8228302003
 20
105.511089812
 10
141.8300888089
 20
105.5004376709
 10
141.8375334849
 20
105.4899452787
 10
141.8451581453
 20
105.479712078
 10
141.8530412538
 20
105.4696643078
 10
141.8611043467
 20
105.459875729
 10
141.869105949
 20
105.4506670669
 10
141.8769461205
 20
105.442171696
 10
141.8847248013
 20
105.4342562418
 10
141.8925003378
 20
105.4268413049
 10
141.9001879679
 20
105.4199555068
 10
141.9078724536
 20
105.4135702261
 10
141.9158664265
 20
105.4075201996
 10
141.9242620975
 20
105.4016851757
 10
141.9329672558
 20
105.396185406
 10
141.9420179002
 20
105.3912163831
 10
141.9514260304
 20
105.3868432711
 10
141.9611796468
 20
105.3830009058
 10
141.9712787493
 20
105.3796892872
  0
LINE
  5
552
100
AcDbEntity
  8
0
100
AcDbLine
 62
250
  6
CONTINUOUS
 10
143.7317118137
 20
117.806599927
 11
143.7317118137
 21
111.9611296648
  0
LINE
  5
553
100
AcDbEntity
  8
21814000
100
AcDbLine
 62
250
  6
CONTINUOUS
 10
143.7317118137
 20
117.806599927
 11
143.7317118137
 21
111.9611296648
  0
LINE
  5
554
100
AcDbEntity
  8
0
100
AcDbLine
 62
250
  6
CONTINUOUS
 10
143.7317118137
 20
107.406599927
 11
143.7317118137
 21
101.5611296648
  0
LINE
  5
555
100
AcDbEntity
  8
21814000
100
AcDbLine
 62
250
  6
CONTINUOUS
 10
143.7317118137
 20
107.406599927
 11
143.7317118137
 21
101.5611296648
  0
LINE
  5
556
100
AcDbEntity
  8
0
100
AcDbLine
 62
7
  6
CONTINUOUS
 10
144.0055650909
 20
117.5077066331
 11
144.0055650909
 21
112.2600230527
  0
LINE
  5
557
100
AcDbEntity
  8
21814000
100
AcDbLine
 62
7
  6
CONTINUOUS
 10
144.0055650909
 20
117.5077066331
 11
144.0055650909
 21
112.2600230527
  0
LINE
  5
558
100
AcDbEntity
  8
0
100
AcDbLine
 62
7
  6
CONTINUOUS
 10
144.0055650909
 20
107.1077066304
 11
144.0055650909
 21
101.860023056
  0
LINE
  5
559
100
AcDbEntity
  8
21814000
100
AcDbLine
 62
7
  6
CONTINUOUS
 10
144.0055650909
 20
107.1077066304
 11
144.0055650909
 21
101.860023056
  0
LWPOLYLINE
  5
55A
100
AcDbEntity
  8
0
100
AcDbPolyline
 62
250
  6
CONTINUOUS
 90
22
 70
0
 10
143.7072929496
 20
88.7838651664
 10
143.7019583773
 20
88.6322082629
 10
143.6866053463
 20
88.4826389272
 10
143.6612338566
 20
88.3351571593
 10
143.6256334319
 20
88.1891018959
 10
143.5800145484
 20
88.0451342003
 10
143.5250086357
 20
87.9052372627
 10
143.4604835104
 20
87.7694633033
 10
143.3865713558
 20
87.6377601019
 10
143.3043001514
 20
87.5119541879
 10
143.2135594388
 20
87.392133221
 10
143.1144596764
 20
87.2782095415
 10
143.0083602187
 20
87.1717467
 10
142.8951468035
 20
87.0728376917
 10
142.7749336929
 20
86.9813895214
 10
142.6494230277
 20
86.8986867532
 10
142.5185720209
 20
86.8248670057
 10
142.3824234594
 20
86.7597926603
 10
142.2428078452
 20
86.7043354259
 10
142.1003353456
 20
86.6587858722
 10
141.9543957932
 20
86.6228534295
 10
141.804989188
 20
86.5965380979
  0
LWPOLYLINE
  5
55B
100
AcDbEntity
  8
21814000
100
AcDbPolyline
 62
250
  6
CONTINUOUS
 90
22
 70
0
 10
143.7072929496
 20
88.7838651664
 10
143.7019583773
 20
88.6322082629
 10
143.6866053463
 20
88.4826389272
 10
143.6612338566
 20
88.3351571593
 10
143.6256334319
 20
88.1891018959
 10
143.5800145484
 20
88.0451342003
 10
143.5250086357
 20
87.9052372627
 10
143.4604835104
 20
87.7694633033
 10
143.3865713558
 20
87.6377601019
 10
143.3043001514
 20
87.5119541879
 10
143.2135594388
 20
87.392133221
 10
143.1144596764
 20
87.2782095415
 10
143.0083602187
 20
87.1717467
 10
142.8951468035
 20
87.0728376917
 10
142.7749336929
 20
86.9813895214
 10
142.6494230277
 20
86.8986867532
 10
142.5185720209
 20
86.8248670057
 10
142.3824234594
 20
86.7597926603
 10
142.2428078452
 20
86.7043354259
 10
142.1003353456
 20
86.6587858722
 10
141.9543957932
 20
86.6228534295
 10
141.804989188
 20
86.5965380979
  0
LINE
  5
55C
100
AcDbEntity
  8
0
100
AcDbLine
 62
250
  6
CONTINUOUS
 10
141.7000183017
 20
84.5207514538
 11
141.6891647945
 21
84.4703602746
  0
LINE
  5
55D
100
AcDbEntity
  8
21814000
100
AcDbLine
 62
250
  6
CONTINUOUS
 10
141.7000183017
 20
84.5207514538
 11
141.6891647945
 21
84.4703602746
  0
LINE
  5
55E
100
AcDbEntity
  8
INCISIONI_LASER
100
AcDbLine
 62
250
  6
CONTINUOUS
 10
139.6311469764
 20
88.4552933452
 11
139.0740889693
 21
87.8052933452
  0
LINE
  5
55F
100
AcDbEntity
  8
INCISIONI_LASER
100
AcDbLine
 62
250
  6
CONTINUOUS
 10
138.7027169903
 20
88.3624362466
 11
138.7955600238
 21
88.4552933452
  0
LINE
  5
560
100
AcDbEntity
  8
INCISIONI_LASER
100
AcDbLine
 62
250
  6
CONTINUOUS
 10
138.7027169903
 20
86.7838647959
 11
140.002518994
 21
87.4338647959
  0
LINE
  5
561
100
AcDbEntity
  8
26814000
100
AcDbLine
 62
7
  6
CONTINUOUS
 10
120.0055650909
 20
123.6838647959
 11
130.0055650909
 21
123.6838647959
  0
LINE
  5
562
100
AcDbEntity
  8
0
100
AcDbLine
 62
250
  6
CONTINUOUS
 10
140.8212722567
 20
121.612731395
 11
120.0055650909
 21
121.8696512335
  0
LINE
  5
563
100
AcDbEntity
  8
21814000
100
AcDbLine
 62
250
  6
CONTINUOUS
 10
140.8212722567
 20
121.612731395
 11
120.0055650909
 21
121.8696512335
  0
LINE
  5
564
100
AcDbEntity
  8
0
100
AcDbLine
 62
7
  6
CONTINUOUS
 10
140.8212722567
 20
122.206055094
 11
130.0055650909
 21
122.3948439648
  0
LINE
  5
565
100
AcDbEntity
  8
21814000
100
AcDbLine
 62
7
  6
CONTINUOUS
 10
140.8212722567
 20
122.206055094
 11
130.0055650909
 21
122.3948439648
  0
LINE
  5
566
100
AcDbEntity
  8
0
100
AcDbLine
 62
7
  6
CONTINUOUS
 10
130.0055650909
 20
123.4593141466
 11
120.0055650909
 21
123.6338647959
  0
LINE
  5
567
100
AcDbEntity
  8
21814000
100
AcDbLine
 62
7
  6
CONTINUOUS
 10
130.0055650909
 20
123.4593141466
 11
120.0055650909
 21
123.6338647959
  0
LWPOLYLINE
  5
568
100
AcDbEntity
  8
RACCORDO
100
AcDbPolyline
 62
250
  6
CONTINUOUS
 90
22
 70
0
 10
111.4316041967
 20
123.9914913886
 10
111.3817243337
 20
123.9944835875
 10
111.332186408
 20
123.9939703232
 10
111.2829904194
 20
123.9899515954
 10
111.2338702347
 20
123.982374871
 10
111.1850919873
 20
123.9712926832
 10
111.1374540771
 20
123.9568626323
 10
111.0909909901
 20
123.9390296686
 10
111.0456682403
 20
123.9178488417
 10
111.0021807706
 20
123.8936429008
 10
110.9605636016
 20
123.8663703605
 10
110.9207817127
 20
123.8360727061
 10
110.8834249835
 20
123.8031971426
 10
110.8485225282
 20
123.7676961995
 10
110.8160452326
 20
123.7296173472
 10
110.7864956346
 20
123.6895502016
 10
110.7599208809
 20
123.6474510655
 10
110.7362738248
 20
123.603363636
 10
110.7159155644
 20
123.5580086205
 10
110.6989664655
 20
123.5116262546
 10
110.6853061623
 20
123.4639763026
 10
110.6749346546
 20
123.4150587645
  0
LINE
  5
569
100
AcDbEntity
  8
RACCORDO
100
AcDbLine
 62
250
  6
CONTINUOUS
 10
117.1413881842
 20
123.441701723
 11
111.4316041967
 21
123.9914913886
  0
LINE
  5
56A
100
AcDbEntity
  8
RACCORDO
100
AcDbLine
 62
7
  6
CONTINUOUS
 10
117.224995036
 20
124.2371677821
 11
111.52910764
 21
124.7856193581
  0
LINE
  5
56B
100
AcDbEntity
  8
28414000
100
AcDbLine
 62
7
  6
CONTINUOUS
 10
117.6368470268
 20
122.5850671462
 11
117.0577494948
 21
122.6459327495
  0
LINE
  5
56C
100
AcDbEntity
  8
26814000
100
AcDbLine
 62
7
  6
CONTINUOUS
 10
116.5055650909
 20
124.7838647959
 11
117.6555650909
 21
124.6426625509
  0
LINE
  5
56D
100
AcDbEntity
  8
INCISIONI_LASER
100
AcDbLine
 62
250
  6
CONTINUOUS
 10
139.5026833086
 20
118.3074687959
 11
138.7059610533
 21
118.7832077959
  0
LWPOLYLINE
  5
56E
100
AcDbEntity
  8
0
100
AcDbPolyline
 62
7
  6
CONTINUOUS
 90
10
 70
0
 43
0.3500000006
 10
125.680651062
 20
146.5475700073
 10
125.7520822449
 20
146.4047076416
 10
125.7520822449
 20
146.3332855225
 10
125.6092289429
 20
146.1904231567
 10
125.53779776
 20
146.1904231567
 10
125.4663665771
 20
146.2618634033
 10
125.4663665771
 20
146.3332855225
 10
125.53779776
 20
146.4761478882
 10
125.6092289429
 20
146.5475700073
 10
125.680651062
 20
146.5475700073
  0
LWPOLYLINE
  5
56F
100
AcDbEntity
  8
0
100
AcDbPolyline
 62
250
  6
CONTINUOUS
 90
4
 70
0
 10
141.8049882378
 20
86.5965354724
 10
141.791388529
 20
86.5546356178
 10
141.7782503065
 20
86.5155552802
 10
141.7542000128
 20
86.4453729711
  0
LWPOLYLINE
  5
570
100
AcDbEntity
  8
21814000
100
AcDbPolyline
 62
250
  6
CONTINUOUS
 90
4
 70
0
 10
141.8049882378
 20
86.5965354724
 10
141.791388529
 20
86.5546356178
 10
141.7782503065
 20
86.5155552802
 10
141.7542000128
 20
86.4453729711
  0
LWPOLYLINE
  5
571
100
AcDbEntity
  8
0
100
AcDbPolyline
 62
250
  6
CONTINUOUS
 90
4
 70
0
 10
141.6891647945
 20
84.4703602746
 10
141.6726421597
 20
84.42074334
 10
141.6505558543
 20
84.372219066
 10
141.6230467243
 20
84.3250984077
  0
LWPOLYLINE
  5
572
100
AcDbEntity
  8
21814000
100
AcDbPolyline
 62
250
  6
CONTINUOUS
 90
4
 70
0
 10
141.6891647945
 20
84.4703602746
 10
141.6726421597
 20
84.42074334
 10
141.6505558543
 20
84.372219066
 10
141.6230467243
 20
84.3250984077
  0
LWPOLYLINE
  5
573
100
AcDbEntity
  8
0
100
AcDbPolyline
 62
250
  6
CONTINUOUS
 90
9
 70
0
 10
141.7542000128
 20
86.4453729711
 10
141.7436098956
 20
86.413966396
 10
141.7340619396
 20
86.3848638499
 10
141.7256624477
 20
86.3580092205
 10
141.7185793828
 20
86.3330851153
 10
141.7129528633
 20
86.3096575123
 10
141.7088742633
 20
86.2876087584
 10
141.706399367
 20
86.2670570214
 10
141.7055695911
 20
86.2480349925
  0
LWPOLYLINE
  5
574
100
AcDbEntity
  8
21814000
100
AcDbPolyline
 62
250
  6
CONTINUOUS
 90
9
 70
0
 10
141.7542000128
 20
86.4453729711
 10
141.7436098956
 20
86.413966396
 10
141.7340619396
 20
86.3848638499
 10
141.7256624477
 20
86.3580092205
 10
141.7185793828
 20
86.3330851153
 10
141.7129528633
 20
86.3096575123
 10
141.7088742633
 20
86.2876087584
 10
141.706399367
 20
86.2670570214
 10
141.7055695911
 20
86.2480349925
  0
LINE
  5
575
100
AcDbEntity
  8
INCISIONI_LASER
100
AcDbLine
 62
250
  6
CONTINUOUS
 10
139.9096759896
 20
87.8052933452
 11
140.002518994
 21
87.8981505213
  0
LINE
  5
576
100
AcDbEntity
  8
26814000
100
AcDbLine
 62
250
  6
CONTINUOUS
 10
120.0055650909
 20
124.0595550358
 11
129.7108008128
 21
124.2289605554
  0
LINE
  5
577
100
AcDbEntity
  8
26814000
100
AcDbLine
 62
250
  6
CONTINUOUS
 10
120.0055650909
 20
124.27177846
 11
129.921398766
 21
124.4448599806
  0
LINE
  5
578
100
AcDbEntity
  8
26814000
100
AcDbLine
 62
250
  6
CONTINUOUS
 10
119.0055650909
 20
124.8338514685
 11
116.5055650909
 21
124.812034299
  0
LINE
  5
579
100
AcDbEntity
  8
26814000
100
AcDbLine
 62
7
  6
CONTINUOUS
 10
119.0055650909
 20
125.1838647959
 11
116.5055650909
 21
125.1620476264
  0
LINE
  5
57A
100
AcDbEntity
  8
26814000
100
AcDbLine
 62
250
  6
CONTINUOUS
 10
120.0055650909
 20
123.9838647959
 11
129.7108008128
 21
123.9838647959
  0
LINE
  5
57B
100
AcDbEntity
  8
26814000
100
AcDbLine
 62
250
  6
CONTINUOUS
 10
120.0055650909
 20
124.8251246007
 11
119.0055650909
 21
124.8338514685
  0
LINE
  5
57C
100
AcDbEntity
  8
26814000
100
AcDbLine
 62
250
  6
CONTINUOUS
 10
120.0055650909
 20
125.087258539
 11
129.4234236522
 21
125.0050701324
  0
LINE
  5
57D
100
AcDbEntity
  8
26814000
100
AcDbLine
 62
7
  6
CONTINUOUS
 10
119.0055650909
 20
125.1838647959
 11
129.0142916264
 21
125.0965199627
  0
LWPOLYLINE
  5
57E
100
AcDbEntity
  8
0
100
AcDbPolyline
 62
250
  6
CONTINUOUS
 90
15
 70
0
 10
141.6230467243
 20
84.3250984077
 10
141.5902909758
 20
84.2796844041
 10
141.5524996097
 20
84.2362700335
 10
141.5099156208
 20
84.1951343195
 10
141.4628118841
 20
84.1565407448
 10
141.4114906597
 20
84.1207369604
 10
141.3562812706
 20
84.0879527157
 10
141.2975379902
 20
84.058398384
 10
141.2356377683
 20
84.0322636126
 10
141.1709778124
 20
84.0097161055
 10
141.1039730392
 20
83.9909005481
 10
141.0350534117
 20
83.9759376778
 10
140.9646611802
 20
83.9649235099
 10
140.8932480449
 20
83.9579287213
 10
140.8212722567
 20
83.9549981968
  0
LWPOLYLINE
  5
57F
100
AcDbEntity
  8
21814000
100
AcDbPolyline
 62
250
  6
CONTINUOUS
 90
15
 70
0
 10
141.6230467243
 20
84.3250984077
 10
141.5902909758
 20
84.2796844041
 10
141.5524996097
 20
84.2362700335
 10
141.5099156208
 20
84.1951343195
 10
141.4628118841
 20
84.1565407448
 10
141.4114906597
 20
84.1207369604
 10
141.3562812706
 20
84.0879527157
 10
141.2975379902
 20
84.058398384
 10
141.2356377683
 20
84.0322636126
 10
141.1709778124
 20
84.0097161055
 10
141.1039730392
 20
83.9909005481
 10
141.0350534117
 20
83.9759376778
 10
140.9646611802
 20
83.9649235099
 10
140.8932480449
 20
83.9579287213
 10
140.8212722567
 20
83.9549981968
  0
LWPOLYLINE
  5
580
100
AcDbEntity
  8
0
100
AcDbPolyline
 62
250
  6
CONTINUOUS
 90
6
 70
0
 10
141.804989188
 20
86.5965380979
 10
141.7772238826
 20
86.569004988
 10
141.7511003544
 20
86.5413051024
 10
141.7266186033
 20
86.5134384412
 10
141.7035331916
 20
86.4855449562
 10
141.7014131222
 20
86.4827707204
  0
LWPOLYLINE
  5
581
100
AcDbEntity
  8
21814000
100
AcDbPolyline
 62
250
  6
CONTINUOUS
 90
6
 70
0
 10
141.804989188
 20
86.5965380979
 10
141.7772238826
 20
86.569004988
 10
141.7511003544
 20
86.5413051024
 10
141.7266186033
 20
86.5134384412
 10
141.7035331916
 20
86.4855449562
 10
141.7014131222
 20
86.4827707204
  0
LINE
  5
582
100
AcDbEntity
  8
26814000
100
AcDbLine
 62
7
  6
CONTINUOUS
 10
116.7541106581
 20
127.1707662172
 11
119.0055650909
 21
127.1838647959
  0
LINE
  5
583
100
AcDbEntity
  8
26814000
100
AcDbLine
 62
7
  6
CONTINUOUS
 10
120.0004687688
 20
126.5780766156
 11
127.0055650909
 21
126.5373221574
  0
LINE
  5
584
100
AcDbEntity
  8
26814000
100
AcDbLine
 62
7
  6
CONTINUOUS
 10
119.0055650909
 20
127.1838647959
 11
119.7570195237
 21
127.1794929619
  0
LWPOLYLINE
  5
585
100
AcDbEntity
  8
0
100
AcDbPolyline
 62
250
  6
CONTINUOUS
 90
14
 70
0
 10
141.6230765263
 20
121.2425854194
 10
141.5875927434
 20
121.2914185279
 10
141.5462887016
 20
121.3379073435
 10
141.4994718071
 20
121.3817058721
 10
141.4474904957
 20
121.4224881422
 10
141.3907316395
 20
121.4599506306
 10
141.3296176676
 20
121.4938145221
 10
141.2646034222
 20
121.5238277837
 10
141.1961727733
 20
121.549767041
 10
141.1248350177
 20
121.5714392406
 10
141.0511210882
 20
121.5886830867
 10
140.9755796024
 20
121.6013702417
 10
140.8987727798
 20
121.6094062811
 10
140.8212722567
 20
121.6127313965
  0
LWPOLYLINE
  5
586
100
AcDbEntity
  8
21814000
100
AcDbPolyline
 62
250
  6
CONTINUOUS
 90
14
 70
0
 10
141.6230765263
 20
121.2425854194
 10
141.5875927434
 20
121.2914185279
 10
141.5462887016
 20
121.3379073435
 10
141.4994718071
 20
121.3817058721
 10
141.4474904957
 20
121.4224881422
 10
141.3907316395
 20
121.4599506306
 10
141.3296176676
 20
121.4938145221
 10
141.2646034222
 20
121.5238277837
 10
141.1961727733
 20
121.549767041
 10
141.1248350177
 20
121.5714392406
 10
141.0511210882
 20
121.5886830867
 10
140.9755796024
 20
121.6013702417
 10
140.8987727798
 20
121.6094062811
 10
140.8212722567
 20
121.6127313965
  0
LWPOLYLINE
  5
587
100
AcDbEntity
  8
0
100
AcDbPolyline
 62
7
  6
CONTINUOUS
 90
7
 70
0
 43
0.3500000006
 10
129.904852478
 20
135.9338624268
 10
128.4048520203
 20
135.9338624268
 10
129.904852478
 20
138.0767254028
 10
129.904852478
 20
138.5052943726
 10
129.4762835083
 20
138.9338633423
 10
128.8334300537
 20
138.9338633423
 10
128.4048520203
 20
138.2910098877
  0
LWPOLYLINE
  5
588
100
AcDbEntity
  8
0
100
AcDbPolyline
 62
7
  6
CONTINUOUS
 90
8
 70
0
 43
0.3500000006
 10
130.7619994812
 20
135.9338624268
 10
131.6191374207
 20
135.9338624268
 10
132.0477154541
 20
136.3624313965
 10
132.0477154541
 20
137.2195874634
 10
131.6191374207
 20
137.6481564331
 10
130.7619994812
 20
137.6481564331
 10
130.7619994812
 20
138.9338633423
 10
132.0477154541
 20
138.9338633423
  0
LWPOLYLINE
  5
589
100
AcDbEntity
  8
0
100
AcDbPolyline
 62
7
  6
CONTINUOUS
 90
6
 70
0
 43
0.3500000006
 10
120.5377962341
 20
146.0475789185
 10
121.6092277222
 20
146.0475789185
 10
121.823512207
 20
146.2618634033
 10
121.823512207
 20
147.3332858276
 10
121.3949432373
 20
147.7618547974
 10
120.9663652039
 20
147.7618547974
  0
LWPOLYLINE
  5
58A
100
AcDbEntity
  8
0
100
AcDbPolyline
 62
7
  6
CONTINUOUS
 90
3
 70
0
 43
0.3500000006
 10
128.2520830078
 20
146.690432373
 10
126.75208255
 20
146.690432373
 10
127.3949360046
 20
149.047579834
  0
LWPOLYLINE
  5
58B
100
AcDbEntity
  8
0
100
AcDbPolyline
 62
7
  6
CONTINUOUS
 90
13
 70
0
 43
0.3500000006
 10
123.1092281799
 20
147.7618547974
 10
122.8235125122
 20
147.9761392822
 10
122.8235125122
 20
148.6189927368
 10
123.1092281799
 20
149.047579834
 10
123.7520816345
 20
149.047579834
 10
124.0377973022
 20
148.6189927368
 10
124.0377973022
 20
147.9761392822
 10
123.7520816345
 20
147.7618547974
 10
124.1806506042
 20
147.3332858276
 10
124.1806506042
 20
146.4761478882
 10
123.7520816345
 20
146.0475789185
 10
123.1092281799
 20
146.0475789185
 10
122.6806501465
 20
146.4761478882
  0
ARC
  5
58C
100
AcDbEntity
  8
0
100
AcDbCircle
 62
7
  6
CONTINUOUS
 10
141.4968694387
 20
88.7838647959
 40
2.5086956522
100
AcDbArc
 50
276.7959242607
 51
83.2040757388
  0
ARC
  5
58D
100
AcDbEntity
  8
21814000
100
AcDbCircle
 62
7
  6
CONTINUOUS
 10
141.4968694387
 20
88.7838647959
 40
2.5086956522
100
AcDbArc
 50
276.7959242607
 51
83.2040757388
  0
ARC
  5
58E
100
AcDbEntity
  8
RACCORDO
100
AcDbCircle
 62
7
  6
CONTINUOUS
 10
107.1414579242
 20
82.9146937243
 40
1.5
100
AcDbArc
 50
177.8995301032
 51
263.5
  0
ARC
  5
58F
100
AcDbEntity
  8
28414000
100
AcDbCircle
 62
7
  6
CONTINUOUS
 10
113.3347306842
 20
82.4403887985
 40
1.0
100
AcDbArc
 50
354.0
 51
76.5
  0
ARC
  5
590
100
AcDbEntity
  8
26814000
100
AcDbCircle
 62
7
  6
CONTINUOUS
 10
129.0055650909
 20
81.4711715522
 40
1.0
100
AcDbArc
 50
270.5
 51
360.0
  0
ARC
  5
591
100
AcDbEntity
  8
0
100
AcDbCircle
 62
7
  6
CONTINUOUS
 10
140.8055650909
 20
84.2615374235
 40
0.9
100
AcDbArc
 50
271.0
 51
360.0
  0
ARC
  5
592
100
AcDbEntity
  8
21814000
100
AcDbCircle
 62
7
  6
CONTINUOUS
 10
140.8055650909
 20
84.2615374235
 40
0.9
100
AcDbArc
 50
271.0
 51
360.0
  0
ARC
  5
593
100
AcDbEntity
  8
26814000
100
AcDbCircle
 62
7
  6
CONTINUOUS
 10
116.7555650909
 20
78.9395272286
 40
0.25
100
AcDbArc
 50
120.0
 51
180.0
  0
ARC
  5
594
100
AcDbEntity
  8
26814000
100
AcDbCircle
 62
7
  6
CONTINUOUS
 10
116.7555650909
 20
78.6469591439
 40
0.25
100
AcDbArc
 50
180.0
 51
269.6666666667
  0
ARC
  5
595
100
AcDbEntity
  8
26814000
100
AcDbCircle
 62
7
  6
CONTINUOUS
 10
119.7555650909
 20
78.6382323991
 40
0.25
100
AcDbArc
 50
270.3333333333
 51
360.0
  0
ARC
  5
596
100
AcDbEntity
  8
26814000
100
AcDbCircle
 62
7
  6
CONTINUOUS
 10
119.7555650909
 20
78.9395272286
 40
0.25
100
AcDbArc
 50
0.0
 51
60.0
  0
ARC
  5
597
100
AcDbEntity
  8
26814000
100
AcDbCircle
 62
7
  6
CONTINUOUS
 10
119.2555650909
 20
79.8055526324
 40
0.25
100
AcDbArc
 50
180.0
 51
240.0
  0
ARC
  5
598
100
AcDbEntity
  8
0
100
AcDbCircle
 62
7
  6
CONTINUOUS
 10
141.8055650909
 20
91.3742315653
 40
0.1
100
AcDbArc
 50
189.2473775885
 51
263.2031754299
  0
ARC
  5
599
100
AcDbEntity
  8
21814000
100
AcDbCircle
 62
7
  6
CONTINUOUS
 10
141.8055650909
 20
91.3742315653
 40
0.1
100
AcDbArc
 50
189.2473775885
 51
263.2031754299
  0
ARC
  5
59A
100
AcDbEntity
  8
0
100
AcDbCircle
 62
7
  6
CONTINUOUS
 10
141.8055650909
 20
86.1935182014
 40
0.0999982373
100
AcDbArc
 50
96.7981887064
 51
179.0542651601
  0
ARC
  5
59B
100
AcDbEntity
  8
21814000
100
AcDbCircle
 62
7
  6
CONTINUOUS
 10
141.8055650909
 20
86.1935182014
 40
0.0999982373
100
AcDbArc
 50
96.7981887064
 51
179.0542651601
  0
ARC
  5
59C
100
AcDbEntity
  8
RACCORDO
100
AcDbCircle
 62
7
  6
CONTINUOUS
 10
111.3853390086
 20
123.2925250608
 40
1.5
100
AcDbArc
 50
84.5
 51
170.1004698968
  0
ARC
  5
59D
100
AcDbEntity
  8
26814000
100
AcDbCircle
 62
7
  6
CONTINUOUS
 10
129.0055650909
 20
124.0965580396
 40
1.0
100
AcDbArc
 50
0.0
 51
89.5
  0
ARC
  5
59E
100
AcDbEntity
  8
0
100
AcDbCircle
 62
7
  6
CONTINUOUS
 10
140.8055650909
 20
121.3061921683
 40
0.9
100
AcDbArc
 50
0.0
 51
89.0
  0
ARC
  5
59F
100
AcDbEntity
  8
21814000
100
AcDbCircle
 62
7
  6
CONTINUOUS
 10
140.8055650909
 20
121.3061921683
 40
0.9
100
AcDbArc
 50
0.0
 51
89.0
  0
ARC
  5
5A0
100
AcDbEntity
  8
0
100
AcDbCircle
 62
7
  6
CONTINUOUS
 10
143.7055650909
 20
107.1077415176
 40
0.3
100
AcDbArc
 50
0.0
 51
85.0
  0
ARC
  5
5A1
100
AcDbEntity
  8
0
100
AcDbCircle
 62
7
  6
CONTINUOUS
 10
143.7055650909
 20
101.8599880742
 40
0.3
100
AcDbArc
 50
275.0
 51
360.0
  0
ARC
  5
5A2
100
AcDbEntity
  8
0
100
AcDbCircle
 62
7
  6
CONTINUOUS
 10
143.7055650909
 20
117.5077415176
 40
0.3
100
AcDbArc
 50
0.0
 51
85.0
  0
ARC
  5
5A3
100
AcDbEntity
  8
0
100
AcDbCircle
 62
7
  6
CONTINUOUS
 10
143.7055650909
 20
112.2599880742
 40
0.3
100
AcDbArc
 50
275.0
 51
360.0
  0
ARC
  5
5A4
100
AcDbEntity
  8
0
100
AcDbCircle
 62
7
  6
CONTINUOUS
 10
142.0055650909
 20
111.5089654437
 40
0.3
100
AcDbArc
 50
95.0
 51
180.0
  0
ARC
  5
5A5
100
AcDbEntity
  8
0
100
AcDbCircle
 62
7
  6
CONTINUOUS
 10
142.0055650909
 20
118.2587641481
 40
0.3
100
AcDbArc
 50
180.0
 51
265.0
  0
ARC
  5
5A6
100
AcDbEntity
  8
0
100
AcDbCircle
 62
7
  6
CONTINUOUS
 10
142.0055650909
 20
107.8587641481
 40
0.3
100
AcDbArc
 50
180.0
 51
265.0
  0
ARC
  5
5A7
100
AcDbEntity
  8
0
100
AcDbCircle
 62
7
  6
CONTINUOUS
 10
142.0055650909
 20
101.1089654437
 40
0.3
100
AcDbArc
 50
95.0
 51
180.0
  0
ARC
  5
5A8
100
AcDbEntity
  8
21814000
100
AcDbCircle
 62
7
  6
CONTINUOUS
 10
143.7055650909
 20
107.1077415176
 40
0.3
100
AcDbArc
 50
0.0
 51
85.0
  0
ARC
  5
5A9
100
AcDbEntity
  8
21814000
100
AcDbCircle
 62
7
  6
CONTINUOUS
 10
143.7055650909
 20
101.8599880742
 40
0.3
100
AcDbArc
 50
275.0
 51
360.0
  0
ARC
  5
5AA
100
AcDbEntity
  8
21814000
100
AcDbCircle
 62
7
  6
CONTINUOUS
 10
143.7055650909
 20
117.5077415176
 40
0.3
100
AcDbArc
 50
0.0
 51
85.0
  0
ARC
  5
5AB
100
AcDbEntity
  8
21814000
100
AcDbCircle
 62
7
  6
CONTINUOUS
 10
143.7055650909
 20
112.2599880742
 40
0.3
100
AcDbArc
 50
275.0
 51
360.0
  0
ARC
  5
5AC
100
AcDbEntity
  8
21814000
100
AcDbCircle
 62
7
  6
CONTINUOUS
 10
142.0055650909
 20
111.5089654437
 40
0.3
100
AcDbArc
 50
95.0
 51
180.0
  0
ARC
  5
5AD
100
AcDbEntity
  8
21814000
100
AcDbCircle
 62
7
  6
CONTINUOUS
 10
142.0055650909
 20
118.2587641481
 40
0.3
100
AcDbArc
 50
180.0
 51
265.0
  0
ARC
  5
5AE
100
AcDbEntity
  8
21814000
100
AcDbCircle
 62
7
  6
CONTINUOUS
 10
142.0055650909
 20
107.8587641481
 40
0.3
100
AcDbArc
 50
180.0
 51
265.0
  0
ARC
  5
5AF
100
AcDbEntity
  8
21814000
100
AcDbCircle
 62
7
  6
CONTINUOUS
 10
142.0055650909
 20
101.1089654437
 40
0.3
100
AcDbArc
 50
95.0
 51
180.0
  0
ARC
  5
5B0
100
AcDbEntity
  8
26814000
100
AcDbCircle
 62
7
  6
CONTINUOUS
 10
116.7555650909
 20
126.6282023632
 40
0.25
100
AcDbArc
 50
180.0
 51
240.0
  0
ARC
  5
5B1
100
AcDbEntity
  8
26814000
100
AcDbCircle
 62
7
  6
CONTINUOUS
 10
116.7555650909
 20
126.920770448
 40
0.25
100
AcDbArc
 50
90.3333333333
 51
180.0
  0
ARC
  5
5B2
100
AcDbEntity
  8
26814000
100
AcDbCircle
 62
7
  6
CONTINUOUS
 10
119.7555650909
 20
126.9294971927
 40
0.25
100
AcDbArc
 50
0.0
 51
89.6666666667
  0
ARC
  5
5B3
100
AcDbEntity
  8
26814000
100
AcDbCircle
 62
7
  6
CONTINUOUS
 10
119.7555650909
 20
126.6282023632
 40
0.25
100
AcDbArc
 50
300.0
 51
360.0
  0
ARC
  5
5B4
100
AcDbEntity
  8
26814000
100
AcDbCircle
 62
7
  6
CONTINUOUS
 10
119.2555650909
 20
125.7621769594
 40
0.25
100
AcDbArc
 50
120.0
 51
180.0
  0
ARC
  5
5B5
100
AcDbEntity
  8
RACCORDO
100
AcDbCircle
 62
7
  6
CONTINUOUS
 10
405.4408937507
 20
71.9741002478
 40
300.0
100
AcDbArc
 50
170.1004698968
 51
177.8995301032
  0
ELLIPSE
  5
5B6
100
AcDbEntity
  8
RACCORDO
100
AcDbEllipse
 62
7
  6
CONTINUOUS
 10
176.7205883298
 20
123.4415199699
 30
0.0
 11
0.8001209013
 21
0.0157561768
 31
0.0
 40
0.9942144819
 41
-0.0195758142
 42
0.2455426236
  0
ELLIPSE
  5
5B7
100
AcDbEntity
  8
RACCORDO
100
AcDbEllipse
 62
7
  6
CONTINUOUS
 10
156.1211367978
 20
123.4415199699
 30
0.0
 11
0.8001209013
 21
-0.0157561768
 31
0.0
 40
0.9942144819
 41
2.8960500829
 42
3.1611684678
  0
ELLIPSE
  5
5B8
100
AcDbEntity
  8
RACCORDO
100
AcDbEllipse
 62
7
  6
CONTINUOUS
 10
156.1211367978
 20
81.5722087666
 30
0.0
 11
0.8001209013
 21
0.0157561768
 31
0.0
 40
0.9942144819
 41
3.1220168394
 42
4.6925847321
  0
ELLIPSE
  5
5B9
100
AcDbEntity
  8
RACCORDO
100
AcDbEllipse
 62
7
  6
CONTINUOUS
 10
176.7205883298
 20
81.5722087666
 30
0.0
 11
0.8001209013
 21
-0.0157561768
 31
0.0
 40
0.9942144819
 41
-1.5509920785
 42
0.0195758142
  0
ELLIPSE
  5
5BA
100
AcDbEntity
  8
26814000
100
AcDbEllipse
 62
7
  6
CONTINUOUS
 10
155.6208625638
 20
80.7556952928
 30
0.0
 11
0.0
 21
0.3500133274
 31
0.0
 40
0.9999619231
 41
7.853981634
 42
9.4247779608
  0
ELLIPSE
  5
5BB
100
AcDbEntity
  8
26814000
100
AcDbEllipse
 62
7
  6
CONTINUOUS
 10
177.2208625638
 20
124.812034299
 30
0.0
 11
-0.0
 21
-0.3500133274
 31
0.0
 40
0.9999619231
 41
7.853981634
 42
9.4247779608
  0
ELLIPSE
  5
5BC
100
AcDbEntity
  8
26814000
100
AcDbEllipse
 62
7
  6
CONTINUOUS
 10
155.6208625638
 20
124.812034299
 30
0.0
 11
0.0
 21
0.3500133274
 31
0.0
 40
0.9999619231
 41
-0.0
 42
1.5707963268
  0
ELLIPSE
  5
5BD
100
AcDbEntity
  8
26814000
100
AcDbEllipse
 62
7
  6
CONTINUOUS
 10
177.2208625638
 20
80.7556952928
 30
0.0
 11
-0.0
 21
-0.3500133274
 31
0.0
 40
0.9999619231
 41
-0.0
 42
1.5707963268
  0
ELLIPSE
  5
5BE
100
AcDbEntity
  8
26814000
100
AcDbEllipse
 62
7
  6
CONTINUOUS
 10
177.0077724467
 20
78.9395272286
 30
0.0
 11
0.0
 21
0.25
 31
0.0
 40
0.0058178298
 41
0.5235987756
 42
1.5707963268
  0
ELLIPSE
  5
5BF
100
AcDbEntity
  8
26814000
100
AcDbEllipse
 62
7
  6
CONTINUOUS
 10
174.7339526809
 20
78.9395272286
 30
0.0
 11
0.0
 21
0.25
 31
0.0
 40
0.0058178298
 41
-1.5707963268
 42
-0.5235987756
  0
ELLIPSE
  5
5C0
100
AcDbEntity
  8
26814000
100
AcDbEllipse
 62
7
  6
CONTINUOUS
 10
174.7339526809
 20
78.6469591439
 30
0.0
 11
0.0
 21
0.25
 31
0.0
 40
0.0058178298
 41
-3.1357748894
 42
-1.5707963268
  0
ELLIPSE
  5
5C1
100
AcDbEntity
  8
26814000
100
AcDbEllipse
 62
7
  6
CONTINUOUS
 10
177.0077724467
 20
78.6469591439
 30
0.0
 11
0.0
 21
0.25
 31
0.0
 40
0.0058178298
 41
-4.7123889804
 42
-3.1474104178
  0
ELLIPSE
  5
5C2
100
AcDbEntity
  8
26814000
100
AcDbEllipse
 62
7
  6
CONTINUOUS
 10
158.1077724467
 20
78.9395272286
 30
0.0
 11
0.0
 21
0.25
 31
0.0
 40
0.0058178298
 41
0.5235987756
 42
1.5707963268
  0
ELLIPSE
  5
5C3
100
AcDbEntity
  8
26814000
100
AcDbEllipse
 62
7
  6
CONTINUOUS
 10
155.8339526809
 20
78.9395272286
 30
0.0
 11
0.0
 21
0.25
 31
0.0
 40
0.0058178298
 41
-1.5707963268
 42
-0.5235987756
  0
ELLIPSE
  5
5C4
100
AcDbEntity
  8
26814000
100
AcDbEllipse
 62
7
  6
CONTINUOUS
 10
155.8339526809
 20
78.6469591439
 30
0.0
 11
0.0
 21
0.25
 31
0.0
 40
0.0058178298
 41
-3.1357748894
 42
-1.5707963268
  0
ELLIPSE
  5
5C5
100
AcDbEntity
  8
26814000
100
AcDbEllipse
 62
7
  6
CONTINUOUS
 10
158.1077724467
 20
78.6469591439
 30
0.0
 11
0.0
 21
0.25
 31
0.0
 40
0.0058178298
 41
-4.7123889804
 42
-3.1474104178
  0
ELLIPSE
  5
5C6
100
AcDbEntity
  8
26814000
100
AcDbEllipse
 62
7
  6
CONTINUOUS
 10
155.8339526809
 20
126.6282023632
 30
0.0
 11
-0.0
 21
0.25
 31
0.0
 40
0.0058178298
 41
-2.617993878
 42
-1.5707963268
  0
ELLIPSE
  5
5C7
100
AcDbEntity
  8
26814000
100
AcDbEllipse
 62
7
  6
CONTINUOUS
 10
158.1077724467
 20
126.6282023632
 30
0.0
 11
0.0
 21
0.25
 31
0.0
 40
0.0058178298
 41
-4.7123889804
 42
-3.6651914292
  0
ELLIPSE
  5
5C8
100
AcDbEntity
  8
26814000
100
AcDbEllipse
 62
7
  6
CONTINUOUS
 10
158.1077724467
 20
126.920770448
 30
0.0
 11
0.0
 21
0.25
 31
0.0
 40
0.0058178298
 41
0.0058177642
 42
1.5707963268
  0
ELLIPSE
  5
5C9
100
AcDbEntity
  8
26814000
100
AcDbEllipse
 62
7
  6
CONTINUOUS
 10
155.8339526809
 20
126.920770448
 30
0.0
 11
-0.0
 21
0.25
 31
0.0
 40
0.0058178298
 41
-1.5707963268
 42
-0.0058177642
  0
ELLIPSE
  5
5CA
100
AcDbEntity
  8
26814000
100
AcDbEllipse
 62
7
  6
CONTINUOUS
 10
174.7339526809
 20
126.6282023632
 30
0.0
 11
0.0
 21
0.25
 31
0.0
 40
0.0058178298
 41
-2.617993878
 42
-1.5707963268
  0
ELLIPSE
  5
5CB
100
AcDbEntity
  8
26814000
100
AcDbEllipse
 62
7
  6
CONTINUOUS
 10
177.0077724467
 20
126.6282023632
 30
0.0
 11
0.0
 21
0.25
 31
0.0
 40
0.0058178298
 41
-4.7123889804
 42
-3.6651914292
  0
ELLIPSE
  5
5CC
100
AcDbEntity
  8
26814000
100
AcDbEllipse
 62
7
  6
CONTINUOUS
 10
177.0077724467
 20
126.920770448
 30
0.0
 11
-0.0
 21
0.25
 31
0.0
 40
0.0058178298
 41
0.0058177642
 42
1.5707963268
  0
ELLIPSE
  5
5CD
100
AcDbEntity
  8
26814000
100
AcDbEllipse
 62
7
  6
CONTINUOUS
 10
174.7339526809
 20
126.920770448
 30
0.0
 11
0.0
 21
0.25
 31
0.0
 40
0.0058178298
 41
-1.5707963268
 42
-0.0058177642
  0
ELLIPSE
  5
5CE
100
AcDbEntity
  8
26814000
100
AcDbEllipse
 62
7
  6
CONTINUOUS
 10
162.3249401217
 20
80.3899736034
 30
0.0
 11
0.3
 21
-0.0
 31
0.0
 40
0.0087268678
 41
1.5707963268
 42
3.1357748894
  0
ELLIPSE
  5
5CF
100
AcDbEntity
  8
26814000
100
AcDbEllipse
 62
7
  6
CONTINUOUS
 10
162.3249401217
 20
78.9879372768
 30
0.0
 11
0.3
 21
0.0
 31
0.0
 40
0.0058178298
 41
1.5707963268
 42
3.1357748894
  0
ELLIPSE
  5
5D0
100
AcDbEntity
  8
26814000
100
AcDbEllipse
 62
7
  6
CONTINUOUS
 10
170.5167850059
 20
78.9879372768
 30
0.0
 11
0.3
 21
0.0
 31
0.0
 40
0.0058178298
 41
0.0058177642
 42
1.5707963268
  0
ELLIPSE
  5
5D1
100
AcDbEntity
  8
26814000
100
AcDbEllipse
 62
7
  6
CONTINUOUS
 10
170.5167850059
 20
80.3899736034
 30
0.0
 11
0.3
 21
0.0
 31
0.0
 40
0.0087268678
 41
0.0058177642
 42
1.5707963268
  0
ELLIPSE
  5
5D2
100
AcDbEntity
  8
26814000
100
AcDbEllipse
 62
7
  6
CONTINUOUS
 10
162.3249401217
 20
126.5797923151
 30
0.0
 11
0.3
 21
0.0
 31
0.0
 40
0.0058178298
 41
-3.1357748894
 42
-1.5707963268
  0
ELLIPSE
  5
5D3
100
AcDbEntity
  8
26814000
100
AcDbEllipse
 62
7
  6
CONTINUOUS
 10
162.3249401217
 20
125.1777559885
 30
0.0
 11
0.3
 21
0.0
 31
0.0
 40
0.0087268678
 41
-3.1357748894
 42
-1.5707963268
  0
ELLIPSE
  5
5D4
100
AcDbEntity
  8
26814000
100
AcDbEllipse
 62
7
  6
CONTINUOUS
 10
170.5167850059
 20
125.1777559885
 30
0.0
 11
0.3
 21
0.0
 31
0.0
 40
0.0087268678
 41
-1.5707963268
 42
-0.0058177642
  0
ELLIPSE
  5
5D5
100
AcDbEntity
  8
26814000
100
AcDbEllipse
 62
7
  6
CONTINUOUS
 10
170.5167850059
 20
126.5797923151
 30
0.0
 11
0.3
 21
0.0
 31
0.0
 40
0.0058178298
 41
-1.5707963268
 42
-0.0058177642
  0
ELLIPSE
  5
5D6
100
AcDbEntity
  8
INCISIONI_LASER
100
AcDbEllipse
 62
250
  6
CONTINUOUS
 10
132.835380071
 20
88.5884627959
 30
0.0
 11
0.0
 21
0.201149
 31
0.0
 40
0.9996954135
 41
-1.5707963268
 42
0.0
  0
ELLIPSE
  5
5D7
100
AcDbEntity
  8
INCISIONI_LASER
100
AcDbEllipse
 62
250
  6
CONTINUOUS
 10
132.3757501108
 20
88.5884627959
 30
0.0
 11
-0.0
 21
0.201149
 31
0.0
 40
0.9996954135
 41
0.0
 42
1.5707963268
  0
ELLIPSE
  5
5D8
100
AcDbEntity
  8
INCISIONI_LASER
100
AcDbEllipse
 62
250
  6
CONTINUOUS
 10
133.1111580472
 20
91.3442097959
 30
0.0
 11
0.0
 21
0.436782
 31
0.0
 40
0.9996954135
 41
-1.5707963268
 42
0.7257970211
  0
ELLIPSE
  5
5D9
100
AcDbEntity
  8
INCISIONI_LASER
100
AcDbEllipse
 62
250
  6
CONTINUOUS
 10
139.3557630721
 20
109.1241077959
 30
0.0
 11
0.0
 21
0.65
 31
0.0
 40
0.9996954135
 41
-1.5707963268
 42
1.5707963268
  0
ELLIPSE
  5
5DA
100
AcDbEntity
  8
0
100
AcDbEllipse
 62
250
  6
CONTINUOUS
 10
130.0055650909
 20
94.7557817959
 30
0.0
 11
0.0
 21
0.983755
 31
0.0
 40
0.9996954135
 41
-4.7123889804
 42
-1.5707963268
  0
ELLIPSE
  5
5DB
100
AcDbEntity
  8
0
100
AcDbEllipse
 62
250
  6
CONTINUOUS
 10
130.0055650909
 20
95.5968027959
 30
0.0
 11
-0.0
 21
0.983755
 31
0.0
 40
0.9996954135
 41
-4.7123889804
 42
-1.5707963268
  0
ELLIPSE
  5
5DC
100
AcDbEntity
  8
0
100
AcDbEllipse
 62
250
  6
CONTINUOUS
 10
130.0055650909
 20
96.4378227959
 30
0.0
 11
-0.0
 21
0.983755
 31
0.0
 40
0.9996954135
 41
-4.7123889804
 42
-1.5707963268
  0
ELLIPSE
  5
5DD
100
AcDbEntity
  8
INCISIONI_LASER
100
AcDbEllipse
 62
250
  6
CONTINUOUS
 10
123.4954205403
 20
98.1030697959
 30
0.0
 11
0.0
 21
0.352865
 31
0.0
 40
0.9996954135
 41
-1.5707963268
 42
1.5707963268
  0
ENDSEC
  0
SECTION
  2
OBJECTS
  0
DICTIONARY
  5
C
100
AcDbDictionary
280
0
281
1
  3
ACAD_GROUP
350
D
  3
ACAD_MLINESTYLE
350
17
  3
ACAD_LAYOUT
350
1A
  3
ACAD_PLOTSETTINGS
350
19
  3
ACAD_PLOTSTYLENAME
350
E
  0
DICTIONARY
  5
D
102
{ACAD_REACTORS
330
C
102
}
100
AcDbDictionary
280
0
281
1
  0
ACDBDICTIONARYWDFLT
  5
E
102
{ACAD_REACTORS
330
C
102
}
100
AcDbDictionary
281
1
  3
Normal
350
F
100
AcDbDictionaryWithDefault
340
F
  0
DICTIONARY
  5
17
102
{ACAD_REACTORS
330
C
102
}
100
AcDbDictionary
280
0
281
1
  3
Standard
350
18
  0
DICTIONARY
  5
19
102
{ACAD_REACTORS
330
C
102
}
100
AcDbDictionary
281
1
  0
DICTIONARY
  5
1A
102
{ACAD_REACTORS
330
C
102
}
100
AcDbDictionary
281
1
  3
Model
350
5DE
  3
Layout1
350
5DF
  0
ACDBPLACEHOLDER
  5
F
102
{ACAD_REACTORS
330
E
102
}
  0
MLINESTYLE
  5
18
102
{ACAD_REACTORS
330
17
102
}
100
AcDbMlineStyle
  2
STANDARD
 70
0
  3

 62
256
 51
90.0
 52
90.0
 71
2
 49
0.5
 62
256
  6
BYLAYER
 49
-0.5
 62
256
  6
BYLAYER
  0
LAYOUT
  5
5DE
102
{ACAD_REACTORS
330
1A
102
}
100
AcDbPlotSettings
  1

  2
none_device
  4
ISO_A4_(297.00_x_210.00_MM)
  6

 40
0.0
 41
0.0
 42
0.0
 43
0.0
 44
297.0
 45
210.0
 46
0.0
 47
0.0
 48
0.0
 49
0.0
140
0.0
141
0.0
142
1.0
143
1.0
 70
1024
 72
1
 73
0
 74
0
  7

 75
0
147
1.0
148
0.0
149
0.0
100
AcDbLayout
  1
Model
 70
0
 71
0
 10
0.0
 20
0.0
 11
297.0
 21
210.0
 12
0.0
 22
0.0
 32
0.0
 14
0.0
 24
0.0
 34
0.0
 15
0.0
 25
0.0
 35
0.0
146
0.0
 13
0.0
 23
0.0
 33
0.0
 16
1.0
 26
0.0
 36
0.0
 17
0.0
 27
1.0
 37
0.0
 76
0
330
22B
345
0
346
0
  0
LAYOUT
  5
5DF
102
{ACAD_REACTORS
330
1A
102
}
100
AcDbPlotSettings
  1

  2
none_device
  4
ISO_A4_(297.00_x_210.00_MM)
  6

 40
0.0
 41
0.0
 42
0.0
 43
0.0
 44
297.0
 45
210.0
 46
0.0
 47
0.0
 48
0.0
 49
0.0
140
0.0
141
0.0
142
1.0
143
1.0
 70
0
 72
1
 73
0
 74
0
  7

 75
0
147
1.0
148
0.0
149
0.0
100
AcDbLayout
  1
Layout1
 70
0
 71
1
 10
0.0
 20
0.0
 11
297.0
 21
210.0
 12
0.0
 22
0.0
 32
0.0
 14
0.0
 24
0.0
 34
0.0
 15
0.0
 25
0.0
 35
0.0
146
0.0
 13
0.0
 23
0.0
 33
0.0
 16
1.0
 26
0.0
 36
0.0
 17
0.0
 27
1.0
 37
0.0
 76
0
330
22C
345
0
346
0
  0
ENDSEC
  0
EOF
