  0
SECTION
  2
HEADER
  9
$ACADVER
  1
AC1024
  9
$DWGCODEPAGE
  3
ANSI_1252
  9
$EXTMAX
 10
297.0
 20
210.0
 30
0.0
  9
$EXTMIN
 10
0.0
 20
0.0
 30
0.0
  9
$LIMMIN
 10
0.0
 20
0.0
  9
$LIMMAX
 10
297.0
 20
210.0
  9
$VIEWCTR
 10
148.5
 20
105.0
  9
$VIEWSIZE
 40
210.0
  9
$CLAYER
  8
0
  9
$LTSCALE
 40
16.335
  9
$CELTYPE
  6
BYLAYER
  9
$DIMSCALE
 40
1.0
  9
$DIMASZ
 40
3.0
  9
$DIMEXO
 40
0.5
  9
$DIMDLI
 40
11.286
  9
$DIMEXE
 40
1.5
  9
$DIMCEN
 40
2.673
  9
$DIMLFAC
 40
1.0
  9
$DIMBLK
  1
_FILLED
  9
$DIMALT
 70
0
  9
$DIMALTF
 40
0.0393700787
  9
$DIMTXT
 40
3.0
  9
$DIMTOL
 70
1
  9
$DIMLIM
 70
0
  9
$DIMTFAC
 40
1.0
  9
$DIMTP
 40
0.01
  9
$DIMTM
 40
0.01
  9
$DIMGAP
 40
0.625
  9
$DIMDSEP
 70
44
  9
$AUNITS
 70
0
  9
$PDMODE
 70
3
  9
$PDSIZE
 40
3.0
  9
$HANDSEED
  5
630
  9
$TILEMODE
 70
1
  9
$MEASUREMENT
 70
1
  9
$INSUNITS
 70
4
  0
ENDSEC
  0
SECTION
  2
CLASSES
  0
CLASS
  1
ACDBDICTIONARYWDFLT
  2
AcDbDictionaryWithDefault
  3
AutoCAD 2000
 90
0
 91
1
280
0
281
0
  0
CLASS
  1
ACDBPLACEHOLDER
  2
AcDbPlaceHolder
  3
AutoCAD 2000
 90
0
 91
1
280
0
281
0
  0
CLASS
  1
LAYOUT
  2
AcDbLayout
  3
AutoCAD 2000
 90
0
 91
0
280
0
281
0
  0
ENDSEC
  0
SECTION
  2
TABLES
  0
TABLE
  2
VPORT
  5
8
100
AcDbSymbolTable
 70
2
  0
VPORT
  5
1F4
100
AcDbSymbolTableRecord
100
AcDbViewportTableRecord
  2
*ACTIVE
 70
0
 10
0.0
 20
0.0
 11
1.0
 21
1.0
 12
148.5
 22
105.0
 13
0.0
 23
0.0
 14
1.0
 24
1.0
 15
0.0
 25
0.0
 16
0.0
 26
0.0
 36
1.0
 17
0.0
 27
0.0
 37
0.0
 40
210.0
 41
1.4142857143
 42
50.0
 43
0.0
 44
0.0
 50
0.0
 51
0.0
 71
0
 72
100
 73
1
 74
1
 75
0
 76
0
 77
0
 78
0
  0
ENDTAB
  0
TABLE
  2
LTYPE
  5
5
100
AcDbSymbolTable
 70
6
  0
LTYPE
  5
14
100
AcDbSymbolTableRecord
100
AcDbLinetypeTableRecord
  2
BYBLOCK
 70
0
  3

 72
65
 73
0
 40
0.0
  0
LTYPE
  5
15
100
AcDbSymbolTableRecord
100
AcDbLinetypeTableRecord
  2
BYLAYER
 70
0
  3

 72
65
 73
0
 40
0.0
  0
LTYPE
  5
16
100
AcDbSymbolTableRecord
100
AcDbLinetypeTableRecord
  2
CONTINUOUS
 70
64
  3
Solid line
 72
65
 73
0
 40
0.0
  0
LTYPE
  5
1F5
100
AcDbSymbolTableRecord
100
AcDbLinetypeTableRecord
  2
CENTER
 70
64
  3
____ _ ____ _ ____ _ ____ _ ____ _ ____ _ ____
 72
65
 73
4
 40
0.6
 49
0.375
 74
0
 49
-0.075
 74
0
 49
0.075
 74
0
 49
-0.075
 74
0
  0
LTYPE
  5
1F6
100
AcDbSymbolTableRecord
100
AcDbLinetypeTableRecord
  2
HIDDEN
 70
64
  3
- - - - - - - - - - - - - - - - - - - -
 72
65
 73
2
 40
0.2
 49
0.1
 74
0
 49
-0.1
 74
0
  0
LTYPE
  5
1F7
100
AcDbSymbolTableRecord
100
AcDbLinetypeTableRecord
  2
PHANTOM
 70
64
  3
_____ _ _ _____ _ _ _____ _ _ _____
 72
65
 73
6
 40
0.8
 49
0.45
 74
0
 49
-0.05
 74
0
 49
0.1
 74
0
 49
-0.05
 74
0
 49
0.1
 74
0
 49
-0.05
 74
0
  0
LTYPE
  5
1F8
100
AcDbSymbolTableRecord
100
AcDbLinetypeTableRecord
  2
DOT
 70
64
  3
. . . . . . . . . . . . . . . . . . . .
 72
65
 73
2
 40
0.2
 49
0.1
 74
0
 49
-0.1
 74
0
  0
LTYPE
  5
1F9
100
AcDbSymbolTableRecord
100
AcDbLinetypeTableRecord
  2
DASHED
 70
64
  3
- - - - - - - - - - - - - - - - - - - -
 72
65
 73
2
 40
0.2
 49
0.1
 74
0
 49
-0.1
 74
0
  0
ENDTAB
  0
TABLE
  2
LAYER
  5
2
100
AcDbSymbolTable
 70
36
  0
LAYER
  5
10
100
AcDbSymbolTableRecord
100
AcDbLayerTableRecord
  2
0
 70
0
 62
7
  6
CONTINUOUS
370
-3
390
F
  0
LAYER
  5
1FA
100
AcDbSymbolTableRecord
100
AcDbLayerTableRecord
  2
DEFAULT_1
 70
0
 62
7
  6
CENTER
370
-3
390
F
  0
LAYER
  5
1FB
100
AcDbSymbolTableRecord
100
AcDbLayerTableRecord
  2
DEFAULT_2
 70
0
 62
7
  6
HIDDEN
370
-3
390
F
  0
LAYER
  5
1FC
100
AcDbSymbolTableRecord
100
AcDbLayerTableRecord
  2
DEFAULT_3
 70
0
 62
7
  6
PHANTOM
370
-3
390
F
  0
LAYER
  5
1FD
100
AcDbSymbolTableRecord
100
AcDbLayerTableRecord
  2
ASSI
 70
0
 62
7
  6
CONTINUOUS
370
-3
390
F
  0
LAYER
  5
1FE
100
AcDbSymbolTableRecord
100
AcDbLayerTableRecord
  2
COLORE_TOP
 70
0
 62
7
  6
CONTINUOUS
370
-3
390
F
  0
LAYER
  5
1FF
100
AcDbSymbolTableRecord
100
AcDbLayerTableRecord
  2
COORDINATE
 70
0
 62
7
  6
CONTINUOUS
370
-3
390
F
  0
LAYER
  5
200
100
AcDbSymbolTableRecord
100
AcDbLayerTableRecord
  2
COORD_ORIGINE
 70
0
 62
7
  6
CONTINUOUS
370
-3
390
F
  0
LAYER
  5
201
100
AcDbSymbolTableRecord
100
AcDbLayerTableRecord
  2
COPY_PUBLISH
 70
0
 62
7
  6
CONTINUOUS
370
-3
390
F
  0
LAYER
  5
202
100
AcDbSymbolTableRecord
100
AcDbLayerTableRecord
  2
COSMETIC
 70
0
 62
7
  6
CONTINUOUS
370
-3
390
F
  0
LAYER
  5
203
100
AcDbSymbolTableRecord
100
AcDbLayerTableRecord
  2
COSMETICHE
 70
0
 62
7
  6
CONTINUOUS
370
-3
390
F
  0
LAYER
  5
204
100
AcDbSymbolTableRecord
100
AcDbLayerTableRecord
  2
CURVE
 70
0
 62
7
  6
CONTINUOUS
370
-3
390
F
  0
LAYER
  5
205
100
AcDbSymbolTableRecord
100
AcDbLayerTableRecord
  2
DRAFT
 70
0
 62
7
  6
CONTINUOUS
370
-3
390
F
  0
LAYER
  5
206
100
AcDbSymbolTableRecord
100
AcDbLayerTableRecord
  2
IGES
 70
0
 62
7
  6
CONTINUOUS
370
-3
390
F
  0
LAYER
  5
207
100
AcDbSymbolTableRecord
100
AcDbLayerTableRecord
  2
IMPORT
 70
0
 62
7
  6
CONTINUOUS
370
-3
390
F
  0
LAYER
  5
208
100
AcDbSymbolTableRecord
100
AcDbLayerTableRecord
  2
IMPORTED
 70
0
 62
7
  6
CONTINUOUS
370
-3
390
F
  0
LAYER
  5
209
100
AcDbSymbolTableRecord
100
AcDbLayerTableRecord
  2
IMPORT_IGES
 70
0
 62
7
  6
CONTINUOUS
370
-3
390
F
  0
LAYER
  5
20A
100
AcDbSymbolTableRecord
100
AcDbLayerTableRecord
  2
INCISIONI_LASER
 70
0
 62
7
  6
CONTINUOUS
370
-3
390
F
  0
LAYER
  5
20B
100
AcDbSymbolTableRecord
100
AcDbLayerTableRecord
  2
INTF_1
 70
0
 62
7
  6
CONTINUOUS
370
-3
390
F
  0
LAYER
  5
20C
100
AcDbSymbolTableRecord
100
AcDbLayerTableRecord
  2
NOTE
 70
0
 62
7
  6
CONTINUOUS
370
-3
390
F
  0
LAYER
  5
20D
100
AcDbSymbolTableRecord
100
AcDbLayerTableRecord
  2
PIANI
 70
0
 62
7
  6
CONTINUOUS
370
-3
390
F
  0
LAYER
  5
20E
100
AcDbSymbolTableRecord
100
AcDbLayerTableRecord
  2
PIANI_DI_RIFERIMENTO
 70
0
 62
7
  6
CONTINUOUS
370
-3
390
F
  0
LAYER
  5
20F
100
AcDbSymbolTableRecord
100
AcDbLayerTableRecord
  2
PIANI_ORIGINE
 70
0
 62
7
  6
CONTINUOUS
370
-3
390
F
  0
LAYER
  5
210
100
AcDbSymbolTableRecord
100
AcDbLayerTableRecord
  2
PIANI_RIFERIMENTO
 70
0
 62
7
  6
CONTINUOUS
370
-3
390
F
  0
LAYER
  5
211
100
AcDbSymbolTableRecord
100
AcDbLayerTableRecord
  2
PIANI_SFORMO
 70
0
 62
7
  6
CONTINUOUS
370
-3
390
F
  0
LAYER
  5
212
100
AcDbSymbolTableRecord
100
AcDbLayerTableRecord
  2
PUNTI
 70
0
 62
7
  6
CONTINUOUS
370
-3
390
F
  0
LAYER
  5
213
100
AcDbSymbolTableRecord
100
AcDbLayerTableRecord
  2
RACCORDO
 70
0
 62
7
  6
CONTINUOUS
370
-3
390
F
  0
LAYER
  5
214
100
AcDbSymbolTableRecord
100
AcDbLayerTableRecord
  2
RGB____0____0____0__
 70
0
 62
7
  6
CONTINUOUS
370
-3
390
F
  0
LAYER
  5
215
100
AcDbSymbolTableRecord
100
AcDbLayerTableRecord
  2
SMUSSO
 70
0
 62
7
  6
CONTINUOUS
370
-3
390
F
  0
LAYER
  5
216
100
AcDbSymbolTableRecord
100
AcDbLayerTableRecord
  2
SNAPLINE
 70
0
 62
7
  6
CONTINUOUS
370
-3
390
F
  0
LAYER
  5
217
100
AcDbSymbolTableRecord
100
AcDbLayerTableRecord
  2
SUPERFICI
 70
0
 62
7
  6
CONTINUOUS
370
-3
390
F
  0
LAYER
  5
218
100
AcDbSymbolTableRecord
100
AcDbLayerTableRecord
  2
TRASH
 70
0
 62
7
  6
CONTINUOUS
370
-3
390
F
  0
LAYER
  5
219
100
AcDbSymbolTableRecord
100
AcDbLayerTableRecord
  2
XSEC_DATUMS
 70
0
 62
7
  6
CONTINUOUS
370
-3
390
F
  0
ENDTAB
  0
TABLE
  2
STYLE
  5
3
100
AcDbSymbolTable
 70
1
  0
STYLE
  5
11
100
AcDbSymbolTableRecord
100
AcDbTextStyleTableRecord
  2
STANDARD
 70
0
 40
0.0
 41
0.8
 50
0.0
 71
0
 42
0.2
  3
txt
  4

  0
STYLE
  5
21A
100
AcDbSymbolTableRecord
100
AcDbTextStyleTableRecord
  2
TEXTSTYLE_1
 70
0
 40
0.0
 41
0.8
 50
0.0
 71
0
 42
0.2
  3
gdt
  4

  0
ENDTAB
  0
TABLE
  2
VIEW
  5
6
100
AcDbSymbolTable
 70
0
  0
ENDTAB
  0
TABLE
  2
UCS
  5
7
100
AcDbSymbolTable
 70
0
  0
ENDTAB
  0
TABLE
  2
APPID
  5
9
100
AcDbSymbolTable
 70
1
  0
APPID
  5
21B
100
AcDbSymbolTableRecord
100
AcDbRegAppTableRecord
  2
ACAD
 70
0
  0
ENDTAB
  0
TABLE
  2
BLOCK_RECORD
  5
1
100
AcDbSymbolTable
 70
0
  0
BLOCK_RECORD
  5
21C
100
AcDbSymbolTableRecord
100
AcDbBlockTableRecord
  2
*Model_Space
  0
BLOCK_RECORD
  5
21D
100
AcDbSymbolTableRecord
100
AcDbBlockTableRecord
  2
*Paper_Space
  0
BLOCK_RECORD
  5
21E
100
AcDbSymbolTableRecord
100
AcDbBlockTableRecord
  2
_FILLED
  0
BLOCK_RECORD
  5
21F
100
AcDbSymbolTableRecord
100
AcDbBlockTableRecord
  2
*D0
  0
BLOCK_RECORD
  5
220
100
AcDbSymbolTableRecord
100
AcDbBlockTableRecord
  2
*D1
  0
BLOCK_RECORD
  5
221
100
AcDbSymbolTableRecord
100
AcDbBlockTableRecord
  2
*D2
  0
BLOCK_RECORD
  5
222
100
AcDbSymbolTableRecord
100
AcDbBlockTableRecord
  2
*D3
  0
ENDTAB
  0
TABLE
  2
DIMSTYLE
  5
A
100
AcDbSymbolTable
 70
1
100
AcDbDimStyleTable
 71
0
  0
DIMSTYLE
105
223
100
AcDbSymbolTableRecord
100
AcDbDimStyleTableRecord
  2
STANDARD
 70
0
  3

  4

 40
1.0
 41
3.0
 42
0.5
 43
0.38
 44
1.5
 45
0.0
 46
0.0
 47
0.01
 48
0.01
140
3.0
141
0.09
142
0.0
143
25.4
144
1.0
145
0.0
146
1.0
147
0.625
 71
1.0
 72
0.0
 73
0
 74
0
 75
0
 76
0
 77
1
 78
8
 79
2
170
0
171
1
172
0
173
0
174
0
175
0
176
0
177
0
178
0
270
2
179
2
271
2
272
2
273
2
274
2
275
0
280
0
281
0
282
0
283
1
284
8
285
0
286
0
287
3
288
0
340
11
278
44
341
21E
342
21E
343
21E
344
21E
  0
DIMSTYLE
105
224
100
AcDbSymbolTableRecord
100
AcDbDimStyleTableRecord
  2
DIMSTYLE_1
 70
0
  3

  4

 40
1.0
 41
3.0
 42
0.5
 43
0.38
 44
1.5
 45
0.0
 46
0.0
 47
0.0
 48
0.0
140
3.0
141
0.09
142
0.0
143
25.4
144
1.0
145
0.0
146
1.0
147
0.75
 71
0.0
 72
0.0
 73
0
 74
0
 75
0
 76
0
 77
1
 78
8
 79
2
170
0
171
1
172
0
173
0
174
0
175
0
176
0
177
0
178
0
270
2
179
2
271
2
272
2
273
2
274
2
275
0
280
0
281
0
282
0
283
1
284
8
285
0
286
0
287
3
288
0
340
11
278
44
341
21E
342
21E
343
21E
344
21E
  0
DIMSTYLE
105
225
100
AcDbSymbolTableRecord
100
AcDbDimStyleTableRecord
  2
DIMSTYLE_2
 70
0
  3

  4

 40
1.0
 41
3.0
 42
0.5
 43
0.38
 44
1.5
 45
0.0
 46
0.0
 47
0.0
 48
0.0
140
3.0
141
0.09
142
0.0
143
25.4
144
1.0
145
0.0
146
1.0
147
0.75
 71
0.0
 72
0.0
 73
0
 74
0
 75
0
 76
0
 77
1
 78
8
 79
2
170
0
171
1
172
0
173
0
174
0
175
0
176
0
177
0
178
0
270
2
179
2
271
1
272
1
273
2
274
2
275
0
280
0
281
0
282
0
283
1
284
8
285
0
286
0
287
3
288
0
340
11
278
44
341
21E
342
21E
343
21E
344
21E
  0
ENDTAB
  0
ENDSEC
  0
SECTION
  2
BLOCKS
  0
BLOCK
  5
20
100
AcDbEntity
  8
0
100
AcDbBlockBegin
  2
*Model_Space
 70
0
 10
0.0
 20
0.0
 30
0.0
  3
*Model_Space
  1

  0
ENDBLK
  5
21
100
AcDbEntity
  8
0
100
AcDbBlockEnd
  0
BLOCK
  5
1C
100
AcDbEntity
  8
0
100
AcDbBlockBegin
  2
*Paper_Space
 70
0
 10
0.0
 20
0.0
 30
0.0
  3
*Paper_Space
  1

  0
ENDBLK
  5
1D
100
AcDbEntity
  8
0
100
AcDbBlockEnd
  0
BLOCK
  5
226
100
AcDbEntity
  8
0
100
AcDbBlockBegin
  2
_FILLED
 70
64
 10
0.0
 20
0.0
  3
_FILLED
  1

  0
SOLID
  5
227
100
AcDbEntity
  8
0
  6
BYBLOCK
 62
0
100
AcDbTrace
 10
0.0
 20
0.0
 11
-1.0
 21
0.3166666667
 12
-1.0
 22
-0.3166666667
 13
-1.0
 23
-0.3166666667
  0
ENDBLK
  5
228
100
AcDbEntity
  8
0
  6
BYBLOCK
 62
0
100
AcDbBlockEnd
  0
BLOCK
  5
229
100
AcDbEntity
  8
0
100
AcDbBlockBegin
 62
7
  6
CONTINUOUS
  2
*D0
 70
65
 10
0.0
 20
0.0
  3
*D0
  1

  0
LINE
  5
22A
100
AcDbEntity
  8
0
100
AcDbLine
 62
7
  6
CONTINUOUS
 10
29.2398069023
 20
-19.852712366
 11
29.2398069023
 21
33.5009363825
  0
LINE
  5
22B
100
AcDbEntity
  8
0
100
AcDbLine
 62
7
  6
CONTINUOUS
 10
6.9398069023
 20
-19.852712366
 11
6.9398069023
 21
33.5009363825
  0
LINE
  5
22C
100
AcDbEntity
  8
0
100
AcDbLine
 62
7
  6
CONTINUOUS
 10
29.2398069023
 20
32.0009363825
 11
18.0898069023
 21
32.0009363825
  0
LINE
  5
22D
100
AcDbEntity
  8
0
100
AcDbLine
 62
7
  6
CONTINUOUS
 10
6.9398069023
 20
32.0009363825
 11
18.0898069023
 21
32.0009363825
  0
INSERT
  5
22E
100
AcDbEntity
  8
0
100
AcDbBlockReference
 62
7
  6
CONTINUOUS
  2
_FILLED
 10
29.2398069023
 20
32.0009363825
 41
3.0
 42
3.0
 43
3.0
  0
INSERT
  5
22F
100
AcDbEntity
  8
0
100
AcDbBlockReference
 62
7
  6
CONTINUOUS
  2
_FILLED
 10
6.9398069023
 20
32.0009363825
 41
3.0
 42
3.0
 43
3.0
 50
180.0
  0
ENDBLK
  5
230
100
AcDbEntity
  8
0
  6
BYBLOCK
 62
0
100
AcDbBlockEnd
  0
BLOCK
  5
231
100
AcDbEntity
  8
0
100
AcDbBlockBegin
 62
7
  6
CONTINUOUS
  2
*D1
 70
65
 10
0.0
 20
0.0
  3
*D1
  1

  0
LINE
  5
232
100
AcDbEntity
  8
0
100
AcDbLine
 62
7
  6
CONTINUOUS
 10
7.4021714291
 20
-24.7990636175
 11
38.7398069023
 21
-24.7990636175
  0
LINE
  5
233
100
AcDbEntity
  8
0
100
AcDbLine
 62
7
  6
CONTINUOUS
 10
7.2917553686
 20
24.0009363825
 11
38.7398069023
 21
24.0009363825
  0
LINE
  5
234
100
AcDbEntity
  8
0
100
AcDbLine
 62
7
  6
CONTINUOUS
 10
37.2398069023
 20
-24.7990636175
 11
37.2398069023
 21
-0.3990636175
  0
LINE
  5
235
100
AcDbEntity
  8
0
100
AcDbLine
 62
7
  6
CONTINUOUS
 10
37.2398069023
 20
24.0009363825
 11
37.2398069023
 21
-0.3990636175
  0
INSERT
  5
236
100
AcDbEntity
  8
0
100
AcDbBlockReference
 62
7
  6
CONTINUOUS
  2
_FILLED
 10
37.2398069023
 20
-24.7990636175
 41
3.0
 42
3.0
 43
3.0
 50
270.0
  0
INSERT
  5
237
100
AcDbEntity
  8
0
100
AcDbBlockReference
 62
7
  6
CONTINUOUS
  2
_FILLED
 10
37.2398069023
 20
24.0009363825
 41
3.0
 42
3.0
 43
3.0
 50
90.0
  0
ENDBLK
  5
238
100
AcDbEntity
  8
0
  6
BYBLOCK
 62
0
100
AcDbBlockEnd
  0
BLOCK
  5
239
100
AcDbEntity
  8
0
100
AcDbBlockBegin
 62
7
  6
CONTINUOUS
  2
*D2
 70
65
 10
0.0
 20
0.0
  3
*D2
  1

  0
LINE
  5
23A
100
AcDbEntity
  8
0
100
AcDbLine
 62
7
  6
CONTINUOUS
 10
-5.8719863895
 20
13.4177123574
 11
-5.8719863895
 21
33.5036353664
  0
LINE
  5
23B
100
AcDbEntity
  8
0
100
AcDbLine
 62
7
  6
CONTINUOUS
 10
-29.8715354552
 20
22.1421961873
 11
-29.8715354552
 21
33.5036353664
  0
LINE
  5
23C
100
AcDbEntity
  8
0
100
AcDbLine
 62
7
  6
CONTINUOUS
 10
-5.8719863895
 20
32.0036353664
 11
-17.8717609223
 21
32.0036353664
  0
LINE
  5
23D
100
AcDbEntity
  8
0
100
AcDbLine
 62
7
  6
CONTINUOUS
 10
-29.8715354552
 20
32.0036353664
 11
-17.8717609223
 21
32.0036353664
  0
INSERT
  5
23E
100
AcDbEntity
  8
0
100
AcDbBlockReference
 62
7
  6
CONTINUOUS
  2
_FILLED
 10
-5.8719863895
 20
32.0036353664
 41
3.0
 42
3.0
 43
3.0
  0
INSERT
  5
23F
100
AcDbEntity
  8
0
100
AcDbBlockReference
 62
7
  6
CONTINUOUS
  2
_FILLED
 10
-29.8715354552
 20
32.0036353664
 41
3.0
 42
3.0
 43
3.0
 50
180.0
  0
ENDBLK
  5
240
100
AcDbEntity
  8
0
  6
BYBLOCK
 62
0
100
AcDbBlockEnd
  0
BLOCK
  5
241
100
AcDbEntity
  8
0
100
AcDbBlockBegin
 62
7
  6
CONTINUOUS
  2
*D3
 70
65
 10
0.0
 20
0.0
  3
*D3
  1

  0
LINE
  5
242
100
AcDbEntity
  8
0
100
AcDbLine
 62
7
  6
CONTINUOUS
 10
-5.8715354552
 20
14.8813282328
 11
-5.8715354552
 21
43.4889733242
  0
LINE
  5
243
100
AcDbEntity
  8
0
100
AcDbLine
 62
7
  6
CONTINUOUS
 10
-44.5794252647
 20
19.7958246837
 11
-44.5794252647
 21
43.4889733242
  0
LINE
  5
244
100
AcDbEntity
  8
0
100
AcDbLine
 62
7
  6
CONTINUOUS
 10
-5.8715354552
 20
41.9889733242
 11
-25.2254803599
 21
41.9889733242
  0
LINE
  5
245
100
AcDbEntity
  8
0
100
AcDbLine
 62
7
  6
CONTINUOUS
 10
-44.5794252647
 20
41.9889733242
 11
-25.2254803599
 21
41.9889733242
  0
INSERT
  5
246
100
AcDbEntity
  8
0
100
AcDbBlockReference
 62
7
  6
CONTINUOUS
  2
_FILLED
 10
-5.8715354552
 20
41.9889733242
 41
3.0
 42
3.0
 43
3.0
  0
INSERT
  5
247
100
AcDbEntity
  8
0
100
AcDbBlockReference
 62
7
  6
CONTINUOUS
  2
_FILLED
 10
-44.5794252647
 20
41.9889733242
 41
3.0
 42
3.0
 43
3.0
 50
180.0
  0
ENDBLK
  5
248
100
AcDbEntity
  8
0
  6
BYBLOCK
 62
0
100
AcDbBlockEnd
  0
ENDSEC
  0
SECTION
  2
ENTITIES
  0
DIMENSION
  5
249
100
AcDbEntity
  8
0
100
AcDbDimension
 62
7
  6
CONTINUOUS
  2
*D0
 10
6.9398069023
 20
32.0009363825
 11
13.8040926166
 21
32.0009363825
 70
160
 71
2
 72
2
 41
0.9
 42
22.3
  3
DIMSTYLE_1
100
AcDbAlignedDimension
 13
29.2398069023
 23
-20.352712366
 14
6.9398069023
 24
-20.352712366
 50
180.0
100
AcDbRotatedDimension
  0
DIMENSION
  5
24A
100
AcDbEntity
  8
0
100
AcDbDimension
 62
7
  6
CONTINUOUS
  2
*D1
 10
37.2398069023
 20
24.0009363825
 11
37.2398069023
 21
-4.7919207603
 70
160
 71
2
 72
2
 41
0.9
 42
48.8
  3
DIMSTYLE_1
100
AcDbAlignedDimension
 13
6.9021714291
 23
-24.7990636175
 14
6.7917553686
 24
24.0009363825
 50
90.0
100
AcDbRotatedDimension
  0
DIMENSION
  5
24B
100
AcDbEntity
  8
0
100
AcDbDimension
 62
7
  6
CONTINUOUS
  2
*D2
 10
-29.8715354552
 20
32.0036353664
 11
-20.2289037795
 21
32.0036353664
 70
160
 71
2
 72
2
 41
0.9
 42
23.9995490657
  3
DIMSTYLE_1
100
AcDbAlignedDimension
 13
-5.8719863895
 23
12.9177123574
 14
-29.8715354552
 24
21.6421961873
 50
180.0
100
AcDbRotatedDimension
  0
DIMENSION
  5
24C
100
AcDbEntity
  8
0
100
AcDbDimension
 62
7
  6
CONTINUOUS
  2
*D3
 10
-44.5794252647
 20
41.9889733242
 11
-29.5111946456
 21
41.9889733242
 70
160
 71
2
 72
2
 41
0.9
 42
38.7078898095
  3
DIMSTYLE_2
100
AcDbAlignedDimension
 13
-5.8715354552
 23
14.3813282328
 14
-44.5794252647
 24
19.2958246837
 50
180.0
100
AcDbRotatedDimension
  0
LWPOLYLINE
  5
24D
100
AcDbEntity
  8
0
100
AcDbPolyline
 62
7
  6
CONTINUOUS
 90
5
 70
0
 43
0.3500000006
 10
21.0898074875
 20
34.4652236481
 10
21.4469498062
 20
34.6795081329
 10
21.4469498062
 20
35.3223661194
 10
21.0898074875
 20
35.7509350891
 10
20.2326650162
 20
35.7509350891
  0
LINE
  5
24E
100
AcDbEntity
  8
RACCORDO
100
AcDbLine
 62
7
  6
CONTINUOUS
 10
9.7767083236
 20
23.9878378038
 11
9.7898069023
 21
24.0009363825
  0
LINE
  5
24F
100
AcDbEntity
  8
DRAFT
100
AcDbLine
 62
7
  6
CONTINUOUS
 10
28.6898069023
 20
-24.7990636175
 11
26.3898069023
 21
-24.7990636175
  0
LINE
  5
250
100
AcDbEntity
  8
DRAFT
100
AcDbLine
 62
7
  6
CONTINUOUS
 10
9.7898069023
 20
-24.7990636175
 11
7.4898069023
 21
-24.7990636175
  0
LINE
  5
251
100
AcDbEntity
  8
RACCORDO
100
AcDbLine
 62
250
  6
CONTINUOUS
 10
7.502905481
 20
-24.7859650387
 11
9.7767083236
 21
-24.7859650387
  0
LINE
  5
252
100
AcDbEntity
  8
RACCORDO
100
AcDbLine
 62
250
  6
CONTINUOUS
 10
26.402905481
 20
-24.7859650387
 11
28.6767083236
 21
-24.7859650387
  0
LINE
  5
253
100
AcDbEntity
  8
RACCORDO
100
AcDbLine
 62
250
  6
CONTINUOUS
 10
7.5043514768
 20
-24.5359692695
 11
9.7752623278
 21
-24.5359692695
  0
LINE
  5
254
100
AcDbEntity
  8
RACCORDO
100
AcDbLine
 62
250
  6
CONTINUOUS
 10
26.4043514768
 20
-24.5359692695
 11
28.6752623278
 21
-24.5359692695
  0
LINE
  5
255
100
AcDbEntity
  8
RACCORDO
100
AcDbLine
 62
250
  6
CONTINUOUS
 10
28.6752623278
 20
-24.2434011848
 11
26.4043514768
 21
-24.2434011848
  0
LINE
  5
256
100
AcDbEntity
  8
RACCORDO
100
AcDbLine
 62
250
  6
CONTINUOUS
 10
9.7752623278
 20
-24.2434011848
 11
7.5043514768
 21
-24.2434011848
  0
LINE
  5
257
100
AcDbEntity
  8
DRAFT
100
AcDbLine
 62
7
  6
CONTINUOUS
 10
22.4898069023
 20
-24.1990636175
 11
13.6898069023
 21
-24.1990636175
  0
LINE
  5
258
100
AcDbEntity
  8
RACCORDO
100
AcDbLine
 62
7
  6
CONTINUOUS
 10
22.1857293444
 20
-24.1932457877
 11
13.9938844602
 21
-24.1932457877
  0
LINE
  5
259
100
AcDbEntity
  8
RACCORDO
100
AcDbLine
 62
250
  6
CONTINUOUS
 10
28.6759895565
 20
-24.0268948338
 11
26.4036242481
 21
-24.0268948338
  0
LINE
  5
25A
100
AcDbEntity
  8
RACCORDO
100
AcDbLine
 62
250
  6
CONTINUOUS
 10
9.7759895565
 20
-24.0268948338
 11
7.5036242481
 21
-24.0268948338
  0
LINE
  5
25B
100
AcDbEntity
  8
DRAFT
100
AcDbLine
 62
7
  6
CONTINUOUS
 10
28.6810801576
 20
-23.5217133483
 11
26.398533647
 21
-23.5217133483
  0
LINE
  5
25C
100
AcDbEntity
  8
DRAFT
100
AcDbLine
 62
7
  6
CONTINUOUS
 10
9.7810801576
 20
-23.5217133483
 11
7.498533647
 21
-23.5217133483
  0
LINE
  5
25D
100
AcDbEntity
  8
RACCORDO
100
AcDbLine
 62
7
  6
CONTINUOUS
 10
9.7767083236
 20
-24.7859650387
 11
9.7898069023
 21
-24.7990636175
  0
LWPOLYLINE
  5
25E
100
AcDbEntity
  8
RACCORDO
100
AcDbPolyline
 62
7
  6
CONTINUOUS
 90
28
 70
0
 10
28.2377960823
 20
-22.4206431831
 10
28.26064326
 20
-22.4203171606
 10
28.3093549983
 20
-22.4174385743
 10
28.3571338774
 20
-22.4116981617
 10
28.4038297248
 20
-22.4032356454
 10
28.4493233504
 20
-22.3921907646
 10
28.4934852072
 20
-22.3787107898
 10
28.5362012394
 20
-22.3629466193
 10
28.5773949446
 20
-22.3450407988
 10
28.6169796855
 20
-22.3251437561
 10
28.6548783858
 20
-22.3034084187
 10
28.6910453638
 20
-22.2799752477
 10
28.725429166
 20
-22.2549919934
 10
28.7579878655
 20
-22.2286061912
 10
28.7887040452
 20
-22.2009505539
 10
28.8175525739
 20
-22.1721687099
 10
28.8445255716
 20
-22.1423937807
 10
28.8696411551
 20
-22.1117316496
 10
28.8928812892
 20
-22.0803359321
 10
28.9142786319
 20
-22.0483007028
 10
28.9339205791
 20
-22.0156184231
 10
28.9519482342
 20
-21.9821255569
 10
28.9682170643
 20
-21.9481673781
 10
28.9824773378
 20
-21.9145134391
 10
28.9948595226
 20
-21.881244527
 10
29.0054752096
 20
-21.8484798971
 10
29.0142601393
 20
-21.8170361905
 10
29.018847684
 20
-21.7983846025
  0
LINE
  5
25F
100
AcDbEntity
  8
RACCORDO
100
AcDbLine
 62
7
  6
CONTINUOUS
 10
7.2898069023
 20
-22.7990636175
 11
7.4898069023
 21
-22.7990636175
  0
LINE
  5
260
100
AcDbEntity
  8
DRAFT
100
AcDbLine
 62
7
  6
CONTINUOUS
 10
9.7898069023
 20
-22.7990636175
 11
13.6898069023
 21
-22.7990636175
  0
LINE
  5
261
100
AcDbEntity
  8
DRAFT
100
AcDbLine
 62
7
  6
CONTINUOUS
 10
22.4898069023
 20
-22.7990636175
 11
26.3898069023
 21
-22.7990636175
  0
LINE
  5
262
100
AcDbEntity
  8
RACCORDO
100
AcDbLine
 62
7
  6
CONTINUOUS
 10
28.6898069023
 20
-22.7990636175
 11
28.8898069023
 21
-22.7990636175
  0
LINE
  5
263
100
AcDbEntity
  8
RACCORDO
100
AcDbLine
 62
7
  6
CONTINUOUS
 10
13.9938844602
 20
-22.7903367497
 11
22.1857293444
 21
-22.7903367497
  0
LINE
  5
264
100
AcDbEntity
  8
DRAFT
100
AcDbLine
 62
7
  6
CONTINUOUS
 10
28.6810801576
 20
-22.7859733158
 11
26.398533647
 21
-22.7859733158
  0
LINE
  5
265
100
AcDbEntity
  8
DRAFT
100
AcDbLine
 62
7
  6
CONTINUOUS
 10
9.7810801576
 20
-22.7859733158
 11
7.498533647
 21
-22.7859733158
  0
LINE
  5
266
100
AcDbEntity
  8
RACCORDO
100
AcDbLine
 62
7
  6
CONTINUOUS
 10
7.2898069023
 20
-22.777246448
 11
28.8898069023
 21
-22.777246448
  0
LINE
  5
267
100
AcDbEntity
  8
RACCORDO
100
AcDbLine
 62
7
  6
CONTINUOUS
 10
28.2378176372
 20
-22.4206604736
 11
7.9417961674
 21
-22.4206604736
  0
LINE
  5
268
100
AcDbEntity
  8
ASSI
100
AcDbLine
 62
7
  6
CONTINUOUS
 10
6.9398069023
 20
-22.3990636175
 11
7.7576307371
 21
-22.3990636175
  0
LINE
  5
269
100
AcDbEntity
  8
ASSI
100
AcDbLine
 62
7
  6
CONTINUOUS
 10
28.4210142177
 20
-22.3990636175
 11
29.2398069023
 21
-22.3990636175
  0
LINE
  5
26A
100
AcDbEntity
  8
0
100
AcDbLine
 62
7
  6
CONTINUOUS
 10
6.9398069023
 20
-22.2578613724
 11
7.4580835104
 21
-22.2578613724
  0
LINE
  5
26B
100
AcDbEntity
  8
0
100
AcDbLine
 62
7
  6
CONTINUOUS
 10
28.7214801143
 20
-22.2578613724
 11
29.2398069023
 21
-22.2578613724
  0
LINE
  5
26C
100
AcDbEntity
  8
RACCORDO
100
AcDbLine
 62
250
  6
CONTINUOUS
 10
28.2217515315
 20
-21.2042915582
 11
7.9578622731
 21
-21.2042915582
  0
LINE
  5
26D
100
AcDbEntity
  8
0
100
AcDbLine
 62
7
  6
CONTINUOUS
 10
6.9398069023
 20
-20.352712366
 11
6.9898069023
 21
-20.352712366
  0
LINE
  5
26E
100
AcDbEntity
  8
0
100
AcDbLine
 62
7
  6
CONTINUOUS
 10
29.1898069023
 20
-20.352712366
 11
29.2398069023
 21
-20.352712366
  0
LINE
  5
26F
100
AcDbEntity
  8
DRAFT
100
AcDbLine
 62
7
  6
CONTINUOUS
 10
9.7898069023
 20
22.0009363825
 11
9.7810801576
 21
21.9878460809
  0
LINE
  5
270
100
AcDbEntity
  8
DRAFT
100
AcDbLine
 62
7
  6
CONTINUOUS
 10
9.7810801576
 20
-22.7859733158
 11
9.7898069023
 21
-22.7990636175
  0
LWPOLYLINE
  5
271
100
AcDbEntity
  8
RACCORDO
100
AcDbPolyline
 62
250
  6
CONTINUOUS
 90
16
 70
0
 10
7.1581364131
 20
-21.0555737804
 10
7.1645207761
 20
-21.0711087376
 10
7.1793107478
 20
-21.0864520584
 10
7.2023496255
 20
-21.1014411773
 10
7.2333933077
 20
-21.1159172817
 10
7.2721128806
 20
-21.1297269944
 10
7.3180981028
 20
-21.1427239988
 10
7.3708617517
 20
-21.1547705891
 10
7.4298447862
 20
-21.1657391293
 10
7.4944222694
 20
-21.1755134056
 10
7.5639099903
 20
-21.1839898575
 10
7.6375717129
 20
-21.1910786756
 10
7.7146269767
 20
-21.1967047524
 10
7.7942593661
 20
-21.2008084786
 10
7.8756251605
 20
-21.2033463745
 10
7.9578622731
 20
-21.2042915505
  0
LWPOLYLINE
  5
272
100
AcDbEntity
  8
RACCORDO
100
AcDbPolyline
 62
250
  6
CONTINUOUS
 90
22
 70
0
 10
7.140008664
 20
-21.6187129066
 10
7.1413168897
 20
-21.6225744688
 10
7.1426064198
 20
-21.6229226914
 10
7.1438772541
 20
-21.6197575743
 10
7.1451361155
 20
-21.613031354
 10
7.1463762812
 20
-21.6027917941
 10
7.1475775825
 20
-21.5891821855
 10
7.1487390887
 20
-21.5721449786
 10
7.1498617306
 20
-21.5517377232
 10
7.1509281315
 20
-21.5282763585
 10
7.1519371893
 20
-21.5017195743
 10
7.1528900061
 20
-21.4721086809
 10
7.1537725121
 20
-21.4398835494
 10
7.1545837848
 20
-21.4049988792
 10
7.1553247467
 20
-21.3674999709
 10
7.1559840951
 20
-21.327962597
 10
7.1565605542
 20
-21.2863382499
 10
7.1570553997
 20
-21.2426754373
 10
7.1574611559
 20
-21.1976954544
 10
7.1577753309
 20
-21.1516387333
 10
7.1580004167
 20
-21.1042648419
 10
7.16367811
 20
-17.7186235648
  0
LWPOLYLINE
  5
273
100
AcDbEntity
  8
RACCORDO
100
AcDbPolyline
 62
7
  6
CONTINUOUS
 90
31
 70
0
 10
7.160500447
 20
-21.7972453231
 10
7.1620493145
 20
-21.8037919205
 10
7.1693808498
 20
-21.8320494339
 10
7.1782022746
 20
-21.8615869773
 10
7.1884749802
 20
-21.8917201459
 10
7.200308084
 20
-21.9223756903
 10
7.2138186956
 20
-21.9534897808
 10
7.2288106023
 20
-21.9843701939
 10
7.2452065609
 20
-22.0147621224
 10
7.2631152088
 20
-22.0447777895
 10
7.2825234731
 20
-22.0742916999
 10
7.3034071563
 20
-22.1031815436
 10
7.3257933287
 20
-22.1314037363
 10
7.3497403421
 20
-22.1589391472
 10
7.3752658166
 20
-22.1857068461
 10
7.4023469564
 20
-22.2115854439
 10
7.4309829017
 20
-22.2364807787
 10
7.4611558745
 20
-22.2602852652
 10
7.4928395277
 20
-22.2828884281
 10
7.5260115988
 20
-22.3041857078
 10
7.5606299146
 20
-22.324062212
 10
7.5966476088
 20
-22.3424047511
 10
7.6340251435
 20
-22.3591063518
 10
7.6726969799
 20
-22.3740503293
 10
7.7125889273
 20
-22.3871213933
 10
7.7536366262
 20
-22.3982106393
 10
7.7957469614
 20
-22.4072036789
 10
7.8388160413
 20
-22.413989132
 10
7.8827494131
 20
-22.4184611037
 10
7.9274292623
 20
-22.4205139173
 10
7.9418176324
 20
-22.4206431835
  0
LINE
  5
274
100
AcDbEntity
  8
RACCORDO
100
AcDbLine
 62
7
  6
CONTINUOUS
 10
7.0100865296
 20
-21.1469819056
 11
7.1604988424
 21
-21.7972456791
  0
LINE
  5
275
100
AcDbEntity
  8
RACCORDO
100
AcDbLine
 62
250
  6
CONTINUOUS
 10
6.9898069023
 20
-20.9693575058
 11
7.140008664
 21
-21.6187129066
  0
LINE
  5
276
100
AcDbEntity
  8
RACCORDO
100
AcDbLine
 62
7
  6
CONTINUOUS
 10
22.4857242674
 20
23.3968537477
 11
22.4898069023
 21
23.4009363825
  0
LINE
  5
277
100
AcDbEntity
  8
RACCORDO
100
AcDbLine
 62
7
  6
CONTINUOUS
 10
22.4857242674
 20
-24.1949809826
 11
22.4898069023
 21
-24.1990636175
  0
LWPOLYLINE
  5
278
100
AcDbEntity
  8
RACCORDO
100
AcDbPolyline
 62
250
  6
CONTINUOUS
 90
4
 70
0
 10
7.140008664
 20
-21.6187129066
 10
7.1444074029
 20
-21.7017714684
 10
7.1575172747
 20
-21.7838924401
 10
7.1603138316
 20
-21.7964477225
  0
LWPOLYLINE
  5
279
100
AcDbEntity
  8
RACCORDO
100
AcDbPolyline
 62
7
  6
CONTINUOUS
 90
31
 70
0
 10
6.9398069023
 20
-22.44905029
 10
6.9402865413
 20
-22.4673681243
 10
6.9417241467
 20
-22.4856357726
 10
6.9441157824
 20
-22.5038031704
 10
6.9474548974
 20
-22.5218205299
 10
6.9517323441
 20
-22.5396384694
 10
6.9569364042
 20
-22.5572081484
 10
6.963052819
 20
-22.5744814139
 10
6.9700648289
 20
-22.5914109243
 10
6.9779532207
 20
-22.6079502714
 10
6.9866963783
 20
-22.6240541245
 10
6.9962703423
 20
-22.6396783457
 10
7.0066488766
 20
-22.6547801022
 10
7.0178035395
 20
-22.6693180018
 10
7.0297037612
 20
-22.6832521972
 10
7.042316928
 20
-22.6965444863
 10
7.0556084723
 20
-22.7091584348
 10
7.0695419663
 20
-22.7210594676
 10
7.0840792214
 20
-22.7322149548
 10
7.0991803949
 20
-22.7425943174
 10
7.1148040978
 20
-22.7521691044
 10
7.1309075072
 20
-22.7609130623
 10
7.1474464861
 20
-22.7688022209
 10
7.1643757034
 20
-22.7758149541
 10
7.1816487571
 20
-22.781932032
 10
7.1992183027
 20
-22.7871366837
 10
7.2170361833
 20
-22.7914146406
 10
7.2350535613
 20
-22.7947541701
 10
7.2532210513
 20
-22.7971461137
 10
7.2714888559
 20
-22.7985839113
 10
7.2898069023
 20
-22.7990636175
  0
LINE
  5
27A
100
AcDbEntity
  8
RACCORDO
100
AcDbLine
 62
7
  6
CONTINUOUS
 10
7.5036242481
 20
-24.0268948338
 11
7.498533647
 21
-23.5217133483
  0
LWPOLYLINE
  5
27B
100
AcDbEntity
  8
RACCORDO
100
AcDbPolyline
 62
250
  6
CONTINUOUS
 90
21
 70
0
 10
7.1580002092
 20
19.3865390168
 10
7.1577748874
 20
19.4360406032
 10
7.1574604476
 20
19.4850469097
 10
7.1570544127
 20
19.5338190913
 10
7.1565592599
 20
19.582095993
 10
7.1559824202
 20
19.6290941499
 10
7.1553225464
 20
19.6747815904
 10
7.1545809858
 20
19.719190286
 10
7.1537692118
 20
19.7616326863
 10
7.1528863364
 20
19.8020690869
 10
7.1519332476
 20
19.8405391923
 10
7.1509240833
 20
19.8764745651
 10
7.149857818
 20
19.9098426615
 10
7.1487354771
 20
19.9406760255
 10
7.1475742754
 20
19.9685038519
 10
7.146373164
 20
19.9932802597
 10
7.1451331917
 20
20.0150511299
 10
7.1438747195
 20
20.0334833007
 10
7.1426045343
 20
20.0484657182
 10
7.1413158491
 20
20.0601094363
 10
7.140008664
 20
20.068414455
  0
LINE
  5
27C
100
AcDbEntity
  8
RACCORDO
100
AcDbLine
 62
7
  6
CONTINUOUS
 10
6.9398069023
 20
21.6291058856
 11
6.9398069023
 21
21.6009363825
  0
LINE
  5
27D
100
AcDbEntity
  8
ASSI
100
AcDbLine
 62
7
  6
CONTINUOUS
 10
6.9398069023
 20
21.6009363825
 11
6.9398069023
 21
-22.3990636175
  0
LINE
  5
27E
100
AcDbEntity
  8
RACCORDO
100
AcDbLine
 62
7
  6
CONTINUOUS
 10
6.9398069023
 20
-22.3990636175
 11
6.9398069023
 21
-22.4272331206
  0
LINE
  5
27F
100
AcDbEntity
  8
RACCORDO
100
AcDbLine
 62
7
  6
CONTINUOUS
 10
6.9898069023
 20
-20.9693575058
 11
6.9898069023
 21
20.817137791
  0
LINE
  5
280
100
AcDbEntity
  8
RACCORDO
100
AcDbLine
 62
250
  6
CONTINUOUS
 10
7.2898069023
 20
-22.7990636175
 11
7.2898069023
 21
-22.777246448
  0
LINE
  5
281
100
AcDbEntity
  8
RACCORDO
100
AcDbLine
 62
250
  6
CONTINUOUS
 10
7.2898069023
 20
21.9791192131
 11
7.2898069023
 21
22.0009363825
  0
LINE
  5
282
100
AcDbEntity
  8
RACCORDO
100
AcDbLine
 62
7
  6
CONTINUOUS
 10
7.4898069023
 20
-22.7990636175
 11
7.4898069023
 21
-24.7990636175
  0
LINE
  5
283
100
AcDbEntity
  8
RACCORDO
100
AcDbLine
 62
7
  6
CONTINUOUS
 10
7.4898069023
 20
22.0009363825
 11
7.4898069023
 21
24.0009363825
  0
LINE
  5
284
100
AcDbEntity
  8
DRAFT
100
AcDbLine
 62
7
  6
CONTINUOUS
 10
7.498533647
 20
-23.5217133483
 11
7.498533647
 21
-22.7859733158
  0
LINE
  5
285
100
AcDbEntity
  8
DRAFT
100
AcDbLine
 62
7
  6
CONTINUOUS
 10
7.498533647
 20
21.9878460809
 11
7.498533647
 21
22.7235861133
  0
LINE
  5
286
100
AcDbEntity
  8
RACCORDO
100
AcDbLine
 62
7
  6
CONTINUOUS
 10
7.5043514768
 20
-24.5359692695
 11
7.5043514768
 21
-24.2434011848
  0
LINE
  5
287
100
AcDbEntity
  8
RACCORDO
100
AcDbLine
 62
7
  6
CONTINUOUS
 10
7.5043514768
 20
23.4452739498
 11
7.5043514768
 21
23.7378420346
  0
LWPOLYLINE
  5
288
100
AcDbEntity
  8
RACCORDO
100
AcDbPolyline
 62
250
  6
CONTINUOUS
 90
12
 70
0
 10
7.16367811
 20
-17.7186235648
 10
7.1682123885
 20
-14.3756780854
 10
7.1717392487
 20
-11.0267373421
 10
7.1742588891
 20
-7.6713666856
 10
7.1757711113
 20
-4.3100007652
 10
7.1762753194
 20
-0.9439435292
 10
7.1757711178
 20
2.426806205
 10
7.1742589023
 20
5.8022472548
 10
7.1717392648
 20
9.1810721238
 10
7.1682124028
 20
12.5628449801
 10
7.1636781189
 20
15.9480016556
 10
7.1580002092
 20
19.3865390168
  0
LINE
  5
289
100
AcDbEntity
  8
RACCORDO
100
AcDbLine
 62
7
  6
CONTINUOUS
 10
7.498533647
 20
22.7235861133
 11
7.5036242481
 21
23.2287675989
  0
LWPOLYLINE
  5
28A
100
AcDbEntity
  8
RACCORDO
100
AcDbPolyline
 62
7
  6
CONTINUOUS
 90
31
 70
0
 10
6.9398069023
 20
21.6509230551
 10
6.9402865413
 20
21.6692408894
 10
6.9417241467
 20
21.6875085377
 10
6.9441157824
 20
21.7056759355
 10
6.9474548974
 20
21.723693295
 10
6.9517323441
 20
21.7415112345
 10
6.9569364042
 20
21.7590809135
 10
6.963052819
 20
21.776354179
 10
6.9700648289
 20
21.7932836893
 10
6.9779532207
 20
21.8098230365
 10
6.9866963783
 20
21.8259268896
 10
6.9962703423
 20
21.8415511107
 10
7.0066488766
 20
21.8566528673
 10
7.0178035395
 20
21.8711907669
 10
7.0297037612
 20
21.8851249623
 10
7.042316928
 20
21.8984172514
 10
7.0556084723
 20
21.9110311999
 10
7.0695419663
 20
21.9229322327
 10
7.0840792214
 20
21.9340877199
 10
7.0991803949
 20
21.9444670825
 10
7.1148040978
 20
21.9540418695
 10
7.1309075072
 20
21.9627858273
 10
7.1474464861
 20
21.970674986
 10
7.1643757034
 20
21.9776877191
 10
7.1816487571
 20
21.983804797
 10
7.1992183027
 20
21.9890094488
 10
7.2170361833
 20
21.9932874056
 10
7.2350535613
 20
21.9966269352
 10
7.2532210513
 20
21.9990188788
 10
7.2714888559
 20
22.0004566764
 10
7.2898069023
 20
22.0009363825
  0
LWPOLYLINE
  5
28B
100
AcDbEntity
  8
RACCORDO
100
AcDbPolyline
 62
250
  6
CONTINUOUS
 90
16
 70
0
 10
7.140008664
 20
20.068414455
 10
7.1444074659
 20
20.1513238483
 10
7.1575175056
 20
20.2333530865
 10
7.1791951885
 20
20.3136037012
 10
7.2092030784
 20
20.3911967054
 10
7.2472124979
 20
20.4652822208
 10
7.2928071291
 20
20.535048787
 10
7.3454875727
 20
20.5997322489
 10
7.4046768185
 20
20.6586241269
 10
7.4697265652
 20
20.7110793768
 10
7.5399243211
 20
20.7565234548
 10
7.6145012085
 20
20.7944586107
 10
7.6926403848
 20
20.8244693399
 10
7.7734859895
 20
20.846226934
 10
7.8561525188
 20
20.8594930816
 10
7.9397345239
 20
20.8641224781
  0
LWPOLYLINE
  5
28C
100
AcDbEntity
  8
RACCORDO
100
AcDbPolyline
 62
250
  6
CONTINUOUS
 90
22
 70
0
 10
7.9634039876
 20
15.8989403452
 10
7.9577246754
 20
19.4025166775
 10
7.9574983507
 20
19.5090712902
 10
7.9571832992
 20
19.6149494268
 10
7.9567771197
 20
19.7196094744
 10
7.9562822133
 20
19.8225286763
 10
7.955705783
 20
19.9232046253
 10
7.955046372
 20
20.0211422412
 10
7.9543054371
 20
20.1158291558
 10
7.953494552
 20
20.2067594347
 10
7.9526129712
 20
20.293456649
 10
7.9516614403
 20
20.3755052795
 10
7.9506537694
 20
20.4525208766
 10
7.9495887498
 20
20.5241255385
 10
7.9484675903
 20
20.5899371715
 10
7.9473077274
 20
20.6496047933
 10
7.9461089039
 20
20.7028212541
 10
7.9448713769
 20
20.7493269989
 10
7.9436133546
 20
20.7888931699
 10
7.9423409064
 20
20.8213195835
 10
7.9410479628
 20
20.8464388547
 10
7.9397345239
 20
20.8641224781
  0
LWPOLYLINE
  5
28D
100
AcDbEntity
  8
RACCORDO
100
AcDbPolyline
 62
250
  6
CONTINUOUS
 90
12
 70
0
 10
7.9577247216
 20
-21.3082871335
 10
7.9634039878
 20
-17.859120382
 10
7.967938277
 20
-14.5070808737
 10
7.9714651408
 20
-11.148604336
 10
7.9739847735
 20
-7.7841229416
 10
7.9754969808
 20
-4.414069552
 10
7.9760011794
 20
-1.0388776603
 10
7.9754969807
 20
2.3410184528
 10
7.9739847733
 20
5.7251839013
 10
7.9714651405
 20
9.1131833771
 10
7.9679382768
 20
12.5045809944
 10
7.9634039876
 20
15.8989403452
  0
LWPOLYLINE
  5
28E
100
AcDbEntity
  8
0
100
AcDbPolyline
 62
7
  6
CONTINUOUS
 90
3
 70
0
 43
0.3500000006
 10
19.232664711
 20
33.0366498413
 10
19.1612357941
 20
32.8223653564
 10
19.0183779602
 20
32.5366496887
  0
LINE
  5
28F
100
AcDbEntity
  8
RACCORDO
100
AcDbLine
 62
7
  6
CONTINUOUS
 10
22.4857242674
 20
21.9948123439
 11
22.4898069023
 21
22.0009363825
  0
LINE
  5
290
100
AcDbEntity
  8
RACCORDO
100
AcDbLine
 62
7
  6
CONTINUOUS
 10
28.6767083236
 20
23.9878378038
 11
28.6898069023
 21
24.0009363825
  0
LWPOLYLINE
  5
291
100
AcDbEntity
  8
RACCORDO
100
AcDbPolyline
 62
250
  6
CONTINUOUS
 90
16
 70
0
 10
29.0214773915
 20
19.3365421504
 10
29.0150930296
 20
19.3321130409
 10
29.0003030589
 20
19.3277578991
 10
28.9772641821
 20
19.3235228685
 10
28.9462205004
 20
19.31945282
 10
28.9075009279
 20
19.3155908768
 10
28.861515706
 20
19.3119779567
 10
28.8087520572
 20
19.3086523395
 10
28.7497690226
 20
19.3056492607
 10
28.685191539
 20
19.3030005384
 10
28.6157038177
 20
19.3007342365
 10
28.5420420946
 20
19.2988743668
 10
28.4649868301
 20
19.2974406352
 10
28.38535444
 20
19.2964482323
 10
28.3039886449
 20
19.2959076728
 10
28.2217515315
 20
19.2958246842
  0
LINE
  5
292
100
AcDbEntity
  8
RACCORDO
100
AcDbLine
 62
7
  6
CONTINUOUS
 10
28.6767083236
 20
-24.7859650387
 11
28.6898069023
 21
-24.7990636175
  0
LINE
  5
293
100
AcDbEntity
  8
RACCORDO
100
AcDbLine
 62
7
  6
CONTINUOUS
 10
22.4857242674
 20
-22.7929395788
 11
22.4898069023
 21
-22.7990636175
  0
LINE
  5
294
100
AcDbEntity
  8
RACCORDO
100
AcDbLine
 62
7
  6
CONTINUOUS
 10
9.7810801576
 20
22.7235861133
 11
9.7759895565
 21
23.2287675989
  0
LINE
  5
295
100
AcDbEntity
  8
RACCORDO
100
AcDbLine
 62
7
  6
CONTINUOUS
 10
9.7752623278
 20
23.7378420346
 11
9.7752623278
 21
23.4452739498
  0
LINE
  5
296
100
AcDbEntity
  8
RACCORDO
100
AcDbLine
 62
7
  6
CONTINUOUS
 10
9.7752623278
 20
-24.2434011848
 11
9.7752623278
 21
-24.5359692695
  0
LINE
  5
297
100
AcDbEntity
  8
DRAFT
100
AcDbLine
 62
7
  6
CONTINUOUS
 10
9.7810801576
 20
-23.5217133483
 11
9.7810801576
 21
-22.7859733158
  0
LINE
  5
298
100
AcDbEntity
  8
DRAFT
100
AcDbLine
 62
7
  6
CONTINUOUS
 10
9.7810801576
 20
21.9878460809
 11
9.7810801576
 21
22.7235861133
  0
LINE
  5
299
100
AcDbEntity
  8
RACCORDO
100
AcDbLine
 62
7
  6
CONTINUOUS
 10
9.7898069023
 20
-22.7990636175
 11
9.7898069023
 21
-24.7990636175
  0
LINE
  5
29A
100
AcDbEntity
  8
RACCORDO
100
AcDbLine
 62
7
  6
CONTINUOUS
 10
9.7898069023
 20
22.0009363825
 11
9.7898069023
 21
24.0009363825
  0
LINE
  5
29B
100
AcDbEntity
  8
RACCORDO
100
AcDbLine
 62
7
  6
CONTINUOUS
 10
9.7759895565
 20
-24.0268948338
 11
9.7810801576
 21
-23.5217133483
  0
LINE
  5
29C
100
AcDbEntity
  8
RACCORDO
100
AcDbLine
 62
250
  6
CONTINUOUS
 10
7.140008664
 20
20.068414455
 11
6.9898069023
 21
20.817137791
  0
LINE
  5
29D
100
AcDbEntity
  8
RACCORDO
100
AcDbLine
 62
250
  6
CONTINUOUS
 10
7.9397345239
 20
20.8641224781
 11
7.7898983264
 21
21.6110235559
  0
LINE
  5
29E
100
AcDbEntity
  8
DRAFT
100
AcDbLine
 62
7
  6
CONTINUOUS
 10
13.6898069023
 20
-24.1990636175
 11
13.6898069023
 21
-22.7990636175
  0
LINE
  5
29F
100
AcDbEntity
  8
DRAFT
100
AcDbLine
 62
7
  6
CONTINUOUS
 10
13.6898069023
 20
22.0009363825
 11
13.6898069023
 21
23.4009363825
  0
LINE
  5
2A0
100
AcDbEntity
  8
RACCORDO
100
AcDbLine
 62
250
  6
CONTINUOUS
 10
13.6938895371
 20
23.3968537477
 11
13.6938895371
 21
21.9948123439
  0
LINE
  5
2A1
100
AcDbEntity
  8
RACCORDO
100
AcDbLine
 62
250
  6
CONTINUOUS
 10
13.6938895371
 20
-22.7929395788
 11
13.6938895371
 21
-24.1949809826
  0
LINE
  5
2A2
100
AcDbEntity
  8
RACCORDO
100
AcDbLine
 62
250
  6
CONTINUOUS
 10
13.9938844602
 20
23.3951185527
 11
13.9938844602
 21
21.9922095147
  0
LINE
  5
2A3
100
AcDbEntity
  8
RACCORDO
100
AcDbLine
 62
250
  6
CONTINUOUS
 10
13.9938844602
 20
-22.7903367497
 11
13.9938844602
 21
-24.1932457877
  0
LINE
  5
2A4
100
AcDbEntity
  8
DRAFT
100
AcDbLine
 62
7
  6
CONTINUOUS
 10
28.6898069023
 20
22.0009363825
 11
28.6810801576
 21
21.9878460809
  0
LWPOLYLINE
  5
2A5
100
AcDbEntity
  8
0
100
AcDbPolyline
 62
7
  6
CONTINUOUS
 90
2
 70
0
 43
0.3500000006
 10
36.4898076553
 20
-3.7919211731
 10
34.9898071976
 20
-3.7919211731
  0
LINE
  5
2A6
100
AcDbEntity
  8
DRAFT
100
AcDbLine
 62
7
  6
CONTINUOUS
 10
28.6810801576
 20
-22.7859733158
 11
28.6898069023
 21
-22.7990636175
  0
LWPOLYLINE
  5
2A7
100
AcDbEntity
  8
0
100
AcDbPolyline
 62
7
  6
CONTINUOUS
 90
4
 70
0
 43
0.3500000006
 10
36.0612364197
 20
-2.4347774162
 10
35.2040916824
 20
-2.4347774162
 10
34.7755204468
 20
-2.0062061806
 10
34.7755204468
 20
-1.3633493271
  0
LINE
  5
2A8
100
AcDbEntity
  8
ASSI
100
AcDbLine
 62
7
  6
CONTINUOUS
 10
6.9398069023
 20
-0.3990636175
 11
6.9898069023
 21
-0.3990636175
  0
LINE
  5
2A9
100
AcDbEntity
  8
ASSI
100
AcDbLine
 62
7
  6
CONTINUOUS
 10
29.1898069023
 20
-0.3990636175
 11
29.2398069023
 21
-0.3990636175
  0
LINE
  5
2AA
100
AcDbEntity
  8
DRAFT
100
AcDbLine
 62
7
  6
CONTINUOUS
 10
7.498533647
 20
-22.7859733158
 11
7.4898069023
 21
-22.7990636175
  0
LWPOLYLINE
  5
2AB
100
AcDbEntity
  8
0
100
AcDbPolyline
 62
7
  6
CONTINUOUS
 90
4
 70
0
 43
0.3500000006
 10
36.0612364197
 20
1.6366515884
 10
35.2040916824
 20
1.6366515884
 10
34.7755204468
 20
2.0652228241
 10
34.7755204468
 20
2.7080785446
  0
LINE
  5
2AC
100
AcDbEntity
  8
DRAFT
100
AcDbLine
 62
7
  6
CONTINUOUS
 10
7.4898069023
 20
22.0009363825
 11
7.498533647
 21
21.9878460809
  0
LINE
  5
2AD
100
AcDbEntity
  8
RACCORDO
100
AcDbLine
 62
250
  6
CONTINUOUS
 10
22.1857293444
 20
-24.1932457877
 11
22.1857293444
 21
-22.7903367497
  0
LINE
  5
2AE
100
AcDbEntity
  8
RACCORDO
100
AcDbLine
 62
250
  6
CONTINUOUS
 10
22.1857293444
 20
21.9922095147
 11
22.1857293444
 21
23.3951185527
  0
LINE
  5
2AF
100
AcDbEntity
  8
RACCORDO
100
AcDbLine
 62
250
  6
CONTINUOUS
 10
22.4857242674
 20
-24.1949809826
 11
22.4857242674
 21
-22.7929395788
  0
LINE
  5
2B0
100
AcDbEntity
  8
RACCORDO
100
AcDbLine
 62
250
  6
CONTINUOUS
 10
22.4857242674
 20
21.9948123439
 11
22.4857242674
 21
23.3968537477
  0
LINE
  5
2B1
100
AcDbEntity
  8
DRAFT
100
AcDbLine
 62
7
  6
CONTINUOUS
 10
22.4898069023
 20
23.4009363825
 11
22.4898069023
 21
22.0009363825
  0
LINE
  5
2B2
100
AcDbEntity
  8
DRAFT
100
AcDbLine
 62
7
  6
CONTINUOUS
 10
22.4898069023
 20
-22.7990636175
 11
22.4898069023
 21
-24.1990636175
  0
LINE
  5
2B3
100
AcDbEntity
  8
RACCORDO
100
AcDbLine
 62
250
  6
CONTINUOUS
 10
28.3897154782
 20
21.6110235559
 11
28.2398792806
 21
20.8641224781
  0
LINE
  5
2B4
100
AcDbEntity
  8
RACCORDO
100
AcDbLine
 62
250
  6
CONTINUOUS
 10
29.1898069023
 20
20.817137791
 11
29.0396051406
 21
20.068414455
  0
LWPOLYLINE
  5
2B5
100
AcDbEntity
  8
RACCORDO
100
AcDbPolyline
 62
250
  6
CONTINUOUS
 90
20
 70
0
 10
7.9418221889
 20
-22.4206604517
 10
7.9423412873
 20
-22.4200353682
 10
7.9436138295
 20
-22.4131636062
 10
7.9448718384
 20
-22.3987420855
 10
7.9461092877
 20
-22.3768454447
 10
7.9473080982
 20
-22.3475805612
 10
7.9484681012
 20
-22.3110873589
 10
7.9495894655
 20
-22.2675525196
 10
7.9506546181
 20
-22.2172098829
 10
7.951662299
 20
-22.1603312491
 10
7.9526137682
 20
-22.0971976721
 10
7.9534952327
 20
-22.0281051441
 10
7.9543059075
 20
-21.9533837111
 10
7.9550465775
 20
-21.873422488
 10
7.9557058043
 20
-21.788646107
 10
7.9562822086
 20
-21.699496858
 10
7.9567771697
 20
-21.6064158038
 10
7.9571833867
 20
-21.509860981
 10
7.9574984262
 20
-21.410315566
 10
7.9577247216
 20
-21.3082871335
  0
LWPOLYLINE
  5
2B6
100
AcDbEntity
  8
0
100
AcDbPolyline
 62
7
  6
CONTINUOUS
 90
10
 70
0
 43
0.3500000006
 10
35.9898075027
 20
0.5652223663
 10
36.1326630707
 20
0.6366512833
 10
36.2040919876
 20
0.6366512833
 10
36.3469498215
 20
0.4937934494
 10
36.3469498215
 20
0.4223645325
 10
36.2755209045
 20
0.3509356155
 10
36.2040919876
 20
0.3509356155
 10
36.0612364197
 20
0.4223645325
 10
35.9898075027
 20
0.4937934494
 10
35.9898075027
 20
0.5652223663
  0
LWPOLYLINE
  5
2B7
100
AcDbEntity
  8
0
100
AcDbPolyline
 62
7
  6
CONTINUOUS
 90
3
 70
0
 43
0.3500000006
 10
36.2040919876
 20
0.6366512833
 10
36.4183787384
 20
0.5652223663
 10
36.7040921402
 20
0.4223645325
  0
LINE
  5
2B8
100
AcDbEntity
  8
RACCORDO
100
AcDbLine
 62
7
  6
CONTINUOUS
 10
26.4036242481
 20
-24.0268948338
 11
26.398533647
 21
-23.5217133483
  0
LINE
  5
2B9
100
AcDbEntity
  8
RACCORDO
100
AcDbLine
 62
7
  6
CONTINUOUS
 10
26.3898069023
 20
-22.7990636175
 11
26.3898069023
 21
-24.7990636175
  0
LINE
  5
2BA
100
AcDbEntity
  8
RACCORDO
100
AcDbLine
 62
7
  6
CONTINUOUS
 10
26.3898069023
 20
22.0009363825
 11
26.3898069023
 21
24.0009363825
  0
LINE
  5
2BB
100
AcDbEntity
  8
DRAFT
100
AcDbLine
 62
7
  6
CONTINUOUS
 10
26.398533647
 20
-23.5217133483
 11
26.398533647
 21
-22.7859733158
  0
LINE
  5
2BC
100
AcDbEntity
  8
DRAFT
100
AcDbLine
 62
7
  6
CONTINUOUS
 10
26.398533647
 20
21.9878460809
 11
26.398533647
 21
22.7235861133
  0
LINE
  5
2BD
100
AcDbEntity
  8
RACCORDO
100
AcDbLine
 62
7
  6
CONTINUOUS
 10
26.4043514768
 20
-24.5359692695
 11
26.4043514768
 21
-24.2434011848
  0
LINE
  5
2BE
100
AcDbEntity
  8
RACCORDO
100
AcDbLine
 62
7
  6
CONTINUOUS
 10
26.4043514768
 20
23.4452739498
 11
26.4043514768
 21
23.7378420346
  0
LINE
  5
2BF
100
AcDbEntity
  8
RACCORDO
100
AcDbLine
 62
7
  6
CONTINUOUS
 10
26.398533647
 20
22.7235861133
 11
26.4036242481
 21
23.2287675989
  0
LWPOLYLINE
  5
2C0
100
AcDbEntity
  8
RACCORDO
100
AcDbPolyline
 62
250
  6
CONTINUOUS
 90
21
 70
0
 10
28.2398792806
 20
20.8641224781
 10
28.2385658418
 20
20.8464388547
 10
28.2372728982
 20
20.8213195835
 10
28.23600045
 20
20.7888931699
 10
28.2347424277
 20
20.7493269989
 10
28.2335049007
 20
20.7028212541
 10
28.2323060771
 20
20.6496047933
 10
28.2311462142
 20
20.5899371715
 10
28.2300250547
 20
20.5241255385
 10
28.2289600352
 20
20.4525208766
 10
28.2279523643
 20
20.3755052795
 10
28.2270008333
 20
20.293456649
 10
28.2261192526
 20
20.2067594347
 10
28.2253083675
 20
20.1158291558
 10
28.2245674326
 20
20.0211422412
 10
28.2239080215
 20
19.9232046253
 10
28.2233315913
 20
19.8225286764
 10
28.2228366849
 20
19.7196094744
 10
28.2224305054
 20
19.6149494268
 10
28.2221154538
 20
19.5090712902
 10
28.2218891292
 20
19.4025166775
  0
LWPOLYLINE
  5
2C1
100
AcDbEntity
  8
RACCORDO
100
AcDbPolyline
 62
250
  6
CONTINUOUS
 90
22
 70
0
 10
29.0396051406
 20
20.068414455
 10
29.0382979555
 20
20.0601094363
 10
29.0370092703
 20
20.0484657182
 10
29.0357390851
 20
20.0334833007
 10
29.0344806129
 20
20.0150511299
 10
29.0332406406
 20
19.9932802597
 10
29.0320395292
 20
19.9685038519
 10
29.0308783275
 20
19.9406760255
 10
29.0297559866
 20
19.9098426615
 10
29.0286897213
 20
19.8764745651
 10
29.027680557
 20
19.8405391922
 10
29.0267274682
 20
19.8020690869
 10
29.0258445927
 20
19.7616326863
 10
29.0250328188
 20
19.719190286
 10
29.0242912582
 20
19.6747815904
 10
29.0236313843
 20
19.6290941499
 10
29.0230545447
 20
19.582095993
 10
29.0225593919
 20
19.5338190913
 10
29.022153357
 20
19.4850469097
 10
29.0218389172
 20
19.4360406032
 10
29.0216135953
 20
19.3865390168
 10
29.0159356856
 20
15.9480016556
  0
LINE
  5
2C2
100
AcDbEntity
  8
RACCORDO
100
AcDbLine
 62
7
  6
CONTINUOUS
 10
13.6938895371
 20
-22.7929395788
 11
13.6898069023
 21
-22.7990636175
  0
LINE
  5
2C3
100
AcDbEntity
  8
RACCORDO
100
AcDbLine
 62
7
  6
CONTINUOUS
 10
13.6938895371
 20
21.9948123439
 11
13.6898069023
 21
22.0009363825
  0
LINE
  5
2C4
100
AcDbEntity
  8
RACCORDO
100
AcDbLine
 62
7
  6
CONTINUOUS
 10
28.6810801576
 20
22.7235861133
 11
28.6759895565
 21
23.2287675989
  0
LWPOLYLINE
  5
2C5
100
AcDbEntity
  8
RACCORDO
100
AcDbPolyline
 62
250
  6
CONTINUOUS
 90
21
 70
0
 10
29.0216133879
 20
-21.1042648419
 10
29.0218384736
 20
-21.1516387333
 10
29.0221526487
 20
-21.1976954544
 10
29.0225584049
 20
-21.2426754373
 10
29.0230532504
 20
-21.2863382499
 10
29.0236297095
 20
-21.327962597
 10
29.0242890579
 20
-21.3674999709
 10
29.0250300198
 20
-21.4049988792
 10
29.0258412925
 20
-21.4398835494
 10
29.0267237985
 20
-21.4721086809
 10
29.0276766153
 20
-21.5017195743
 10
29.028685673
 20
-21.5282763585
 10
29.029752074
 20
-21.5517377231
 10
29.0308747159
 20
-21.5721449786
 10
29.0320362221
 20
-21.5891821854
 10
29.0332375234
 20
-21.602791794
 10
29.0344776891
 20
-21.613031354
 10
29.0357365505
 20
-21.6197575743
 10
29.0370073848
 20
-21.6229226914
 10
29.0382969148
 20
-21.6225744688
 10
29.0396051406
 20
-21.6187129066
  0
LWPOLYLINE
  5
2C6
100
AcDbEntity
  8
RACCORDO
100
AcDbPolyline
 62
250
  6
CONTINUOUS
 90
21
 70
0
 10
28.2162098168
 20
-17.859120382
 10
28.221889083
 20
-21.3082871335
 10
28.2221153784
 20
-21.410315566
 10
28.2224304179
 20
-21.509860981
 10
28.2228366349
 20
-21.6064158038
 10
28.223331596
 20
-21.699496858
 10
28.2239080002
 20
-21.788646107
 10
28.224567227
 20
-21.873422488
 10
28.2253078971
 20
-21.9533837111
 10
28.2261185719
 20
-22.0281051441
 10
28.2270000364
 20
-22.0971976721
 10
28.2279515056
 20
-22.1603312491
 10
28.2289591865
 20
-22.2172098829
 10
28.2300243391
 20
-22.2675525196
 10
28.2311457034
 20
-22.3110873589
 10
28.2323057065
 20
-22.3475805612
 10
28.2335045169
 20
-22.3768454447
 10
28.2347419661
 20
-22.3987420855
 10
28.235999975
 20
-22.4131636062
 10
28.2372725172
 20
-22.4200353682
 10
28.2377915222
 20
-22.4206604503
  0
LINE
  5
2C7
100
AcDbEntity
  8
RACCORDO
100
AcDbLine
 62
7
  6
CONTINUOUS
 10
28.6752623278
 20
23.7378420346
 11
28.6752623278
 21
23.4452739498
  0
LINE
  5
2C8
100
AcDbEntity
  8
RACCORDO
100
AcDbLine
 62
7
  6
CONTINUOUS
 10
28.6752623278
 20
-24.2434011848
 11
28.6752623278
 21
-24.5359692695
  0
LINE
  5
2C9
100
AcDbEntity
  8
DRAFT
100
AcDbLine
 62
7
  6
CONTINUOUS
 10
28.6810801576
 20
-23.5217133483
 11
28.6810801576
 21
-22.7859733158
  0
LINE
  5
2CA
100
AcDbEntity
  8
DRAFT
100
AcDbLine
 62
7
  6
CONTINUOUS
 10
28.6810801576
 20
21.9878460809
 11
28.6810801576
 21
22.7235861133
  0
LINE
  5
2CB
100
AcDbEntity
  8
RACCORDO
100
AcDbLine
 62
7
  6
CONTINUOUS
 10
28.6898069023
 20
-22.7990636175
 11
28.6898069023
 21
-24.7990636175
  0
LINE
  5
2CC
100
AcDbEntity
  8
RACCORDO
100
AcDbLine
 62
7
  6
CONTINUOUS
 10
28.6898069023
 20
22.0009363825
 11
28.6898069023
 21
24.0009363825
  0
LINE
  5
2CD
100
AcDbEntity
  8
RACCORDO
100
AcDbLine
 62
250
  6
CONTINUOUS
 10
28.8898069023
 20
22.0009363825
 11
28.8898069023
 21
21.9791192131
  0
LINE
  5
2CE
100
AcDbEntity
  8
RACCORDO
100
AcDbLine
 62
250
  6
CONTINUOUS
 10
28.8898069023
 20
-22.777246448
 11
28.8898069023
 21
-22.7990636175
  0
LWPOLYLINE
  5
2CF
100
AcDbEntity
  8
RACCORDO
100
AcDbPolyline
 62
250
  6
CONTINUOUS
 90
12
 70
0
 10
29.0159356856
 20
15.9480016556
 10
29.0114014017
 20
12.5628449801
 10
29.0078745397
 20
9.1810721238
 10
29.0053549023
 20
5.8022472548
 10
29.0038426868
 20
2.426806205
 10
29.0033384851
 20
-0.9439435292
 10
29.0038426933
 20
-4.3100007652
 10
29.0053549154
 20
-7.6713666856
 10
29.0078745559
 20
-11.0267373421
 10
29.0114014161
 20
-14.3756780854
 10
29.0159356946
 20
-17.7186235648
 10
29.0216133879
 20
-21.1042648419
  0
LWPOLYLINE
  5
2D0
100
AcDbEntity
  8
RACCORDO
100
AcDbPolyline
 62
250
  6
CONTINUOUS
 90
12
 70
0
 10
28.2218891292
 20
19.4025166775
 10
28.2162098169
 20
15.8989403452
 10
28.2116755278
 20
12.5045809944
 10
28.208148664
 20
9.1131833771
 10
28.2056290313
 20
5.7251839013
 10
28.2041168239
 20
2.3410184528
 10
28.2036126252
 20
-1.0388776603
 10
28.2041168238
 20
-4.414069552
 10
28.205629031
 20
-7.7841229416
 10
28.2081486638
 20
-11.148604336
 10
28.2116755275
 20
-14.5070808737
 10
28.2162098168
 20
-17.859120382
  0
LINE
  5
2D1
100
AcDbEntity
  8
RACCORDO
100
AcDbLine
 62
7
  6
CONTINUOUS
 10
28.6759895565
 20
-24.0268948338
 11
28.6810801576
 21
-23.5217133483
  0
LINE
  5
2D2
100
AcDbEntity
  8
RACCORDO
100
AcDbLine
 62
7
  6
CONTINUOUS
 10
7.502905481
 20
-24.7859650387
 11
7.4898069023
 21
-24.7990636175
  0
LWPOLYLINE
  5
2D3
100
AcDbEntity
  8
RACCORDO
100
AcDbPolyline
 62
250
  6
CONTINUOUS
 90
16
 70
0
 10
7.1581364131
 20
19.3365421504
 10
7.1645213593
 20
19.3321130971
 10
7.1793118243
 20
19.3277580131
 10
7.2023511018
 20
19.3235230407
 10
7.2333950886
 20
19.31945305
 10
7.2721148707
 20
19.3155911628
 10
7.3181002085
 20
19.3119782962
 10
7.370863883
 20
19.3086527289
 10
7.4298468582
 20
19.3056496955
 10
7.494424204
 20
19.3030010136
 10
7.5639117173
 20
19.3007347461
 10
7.6375731717
 20
19.2988749045
 10
7.7146281171
 20
19.297441194
 10
7.7942601492
 20
19.296448805
 10
7.8756255592
 20
19.2959082521
 10
7.9578622731
 20
19.2958252624
  0
LINE
  5
2D4
100
AcDbEntity
  8
RACCORDO
100
AcDbLine
 62
7
  6
CONTINUOUS
 10
7.502905481
 20
23.9878378038
 11
7.4898069023
 21
24.0009363825
  0
LWPOLYLINE
  5
2D5
100
AcDbEntity
  8
RACCORDO
100
AcDbPolyline
 62
250
  6
CONTINUOUS
 90
16
 70
0
 10
29.0396051406
 20
20.068414455
 10
29.0352064357
 20
20.1513229334
 10
29.0220966543
 20
20.2333514275
 10
29.0004193406
 20
20.313601487
 10
28.9704118779
 20
20.3911941353
 10
28.9324028932
 20
20.4652794891
 10
28.886808661
 20
20.5350460687
 10
28.8341285348
 20
20.5997297031
 10
28.7749394895
 20
20.6586218814
 10
28.7098898133
 20
20.7110775121
 10
28.6396919741
 20
20.7565220189
 10
28.5651148398
 20
20.7944576113
 10
28.4869752793
 20
20.8244687336
 10
28.4061291692
 20
20.8462266435
 10
28.3234620145
 20
20.859493003
 10
28.2398792807
 20
20.8641224784
  0
LWPOLYLINE
  5
2D6
100
AcDbEntity
  8
RACCORDO
100
AcDbPolyline
 62
7
  6
CONTINUOUS
 90
31
 70
0
 10
29.2398069023
 20
21.6509230551
 10
29.2393272633
 20
21.6692408894
 10
29.2378896579
 20
21.6875085377
 10
29.2354980222
 20
21.7056759355
 10
29.2321589072
 20
21.723693295
 10
29.2278814605
 20
21.7415112345
 10
29.2226774004
 20
21.7590809135
 10
29.2165609856
 20
21.776354179
 10
29.2095489756
 20
21.7932836893
 10
29.2016605839
 20
21.8098230365
 10
29.1929174263
 20
21.8259268896
 10
29.1833434623
 20
21.8415511107
 10
29.172964928
 20
21.8566528673
 10
29.1618102651
 20
21.8711907669
 10
29.1499100434
 20
21.8851249623
 10
29.1372968766
 20
21.8984172514
 10
29.1240053323
 20
21.9110311999
 10
29.1100718383
 20
21.9229322327
 10
29.0955345832
 20
21.9340877199
 10
29.0804334097
 20
21.9444670825
 10
29.0648097068
 20
21.9540418695
 10
29.0487062973
 20
21.9627858273
 10
29.0321673185
 20
21.970674986
 10
29.0152381011
 20
21.9776877191
 10
28.9979650474
 20
21.983804797
 10
28.9803955019
 20
21.9890094488
 10
28.9625776213
 20
21.9932874056
 10
28.9445602433
 20
21.9966269352
 10
28.9263927532
 20
21.9990188788
 10
28.9081249486
 20
22.0004566764
 10
28.8898069023
 20
22.0009363825
  0
LINE
  5
2D7
100
AcDbEntity
  8
RACCORDO
100
AcDbLine
 62
7
  6
CONTINUOUS
 10
29.1898069023
 20
-20.9693575058
 11
29.1898069023
 21
20.817137791
  0
LINE
  5
2D8
100
AcDbEntity
  8
RACCORDO
100
AcDbLine
 62
7
  6
CONTINUOUS
 10
29.2398069023
 20
21.6291058856
 11
29.2398069023
 21
21.6009363825
  0
LINE
  5
2D9
100
AcDbEntity
  8
ASSI
100
AcDbLine
 62
7
  6
CONTINUOUS
 10
29.2398069023
 20
21.6009363825
 11
29.2398069023
 21
-22.3990636175
  0
LINE
  5
2DA
100
AcDbEntity
  8
RACCORDO
100
AcDbLine
 62
7
  6
CONTINUOUS
 10
29.2398069023
 20
-22.3990636175
 11
29.2398069023
 21
-22.4272331206
  0
LWPOLYLINE
  5
2DB
100
AcDbEntity
  8
RACCORDO
100
AcDbPolyline
 62
7
  6
CONTINUOUS
 90
31
 70
0
 10
29.2398069023
 20
-22.44905029
 10
29.2393272633
 20
-22.4673681243
 10
29.2378896579
 20
-22.4856357726
 10
29.2354980222
 20
-22.5038031704
 10
29.2321589072
 20
-22.5218205299
 10
29.2278814605
 20
-22.5396384694
 10
29.2226774004
 20
-22.5572081484
 10
29.2165609856
 20
-22.5744814139
 10
29.2095489756
 20
-22.5914109243
 10
29.2016605839
 20
-22.6079502714
 10
29.1929174263
 20
-22.6240541245
 10
29.1833434623
 20
-22.6396783457
 10
29.172964928
 20
-22.6547801022
 10
29.1618102651
 20
-22.6693180018
 10
29.1499100434
 20
-22.6832521972
 10
29.1372968766
 20
-22.6965444863
 10
29.1240053323
 20
-22.7091584348
 10
29.1100718383
 20
-22.7210594676
 10
29.0955345832
 20
-22.7322149548
 10
29.0804334097
 20
-22.7425943174
 10
29.0648097068
 20
-22.7521691044
 10
29.0487062973
 20
-22.7609130623
 10
29.0321673185
 20
-22.7688022209
 10
29.0152381011
 20
-22.7758149541
 10
28.9979650474
 20
-22.781932032
 10
28.9803955019
 20
-22.7871366837
 10
28.9625776213
 20
-22.7914146406
 10
28.9445602433
 20
-22.7947541701
 10
28.9263927532
 20
-22.7971461137
 10
28.9081249486
 20
-22.7985839113
 10
28.8898069023
 20
-22.7990636175
  0
LWPOLYLINE
  5
2DC
100
AcDbEntity
  8
RACCORDO
100
AcDbPolyline
 62
250
  6
CONTINUOUS
 90
4
 70
0
 10
29.0396051406
 20
-21.6187129066
 10
29.0352063387
 20
-21.7017720639
 10
29.0220962989
 20
-21.7838935185
 10
29.0192999539
 20
-21.7964478051
  0
LWPOLYLINE
  5
2DD
100
AcDbEntity
  8
0
100
AcDbPolyline
 62
7
  6
CONTINUOUS
 90
13
 70
0
 43
0.3500000006
 10
34.7755204468
 20
2.0652228241
 10
34.5612359619
 20
1.7795071564
 10
33.9183779755
 20
1.7795071564
 10
33.4898067398
 20
2.0652228241
 10
33.4898067398
 20
2.7080785446
 10
33.9183779755
 20
2.9937942123
 10
34.5612359619
 20
2.9937942123
 10
34.7755204468
 20
2.7080785446
 10
35.2040916824
 20
3.1366497803
 10
36.0612364197
 20
3.1366497803
 10
36.4898076553
 20
2.7080785446
 10
36.4898076553
 20
2.0652228241
 10
36.0612364197
 20
1.6366515884
  0
LWPOLYLINE
  5
2DE
100
AcDbEntity
  8
0
100
AcDbPolyline
 62
7
  6
CONTINUOUS
 90
13
 70
0
 43
0.3500000006
 10
34.7755204468
 20
-2.0062061806
 10
34.5612359619
 20
-2.2919207153
 10
33.9183779755
 20
-2.2919207153
 10
33.4898067398
 20
-2.0062061806
 10
33.4898067398
 20
-1.3633493271
 10
33.9183779755
 20
-1.0776359253
 10
34.5612359619
 20
-1.0776359253
 10
34.7755204468
 20
-1.3633493271
 10
35.2040916824
 20
-0.9347780914
 10
36.0612364197
 20
-0.9347780914
 10
36.4898076553
 20
-1.3633493271
 10
36.4898076553
 20
-2.0062061806
 10
36.0612364197
 20
-2.4347774162
  0
LINE
  5
2DF
100
AcDbEntity
  8
RACCORDO
100
AcDbLine
 62
7
  6
CONTINUOUS
 10
13.6938895371
 20
-24.1949809826
 11
13.6898069023
 21
-24.1990636175
  0
LINE
  5
2E0
100
AcDbEntity
  8
RACCORDO
100
AcDbLine
 62
7
  6
CONTINUOUS
 10
13.6938895371
 20
23.3968537477
 11
13.6898069023
 21
23.4009363825
  0
LINE
  5
2E1
100
AcDbEntity
  8
RACCORDO
100
AcDbLine
 62
250
  6
CONTINUOUS
 10
29.0396051406
 20
-21.6187129066
 11
29.1898069023
 21
-20.9693575058
  0
LINE
  5
2E2
100
AcDbEntity
  8
RACCORDO
100
AcDbLine
 62
7
  6
CONTINUOUS
 10
29.1695272749
 20
-21.1469819055
 11
29.0188492994
 21
-21.7983849637
  0
LWPOLYLINE
  5
2E3
100
AcDbEntity
  8
0
100
AcDbPolyline
 62
7
  6
CONTINUOUS
 90
10
 70
0
 43
0.3500000006
 10
19.1612357941
 20
33.2509343262
 10
19.232664711
 20
33.1080810242
 10
19.232664711
 20
33.0366498413
 10
19.0898068771
 20
32.8937920074
 10
19.0183779602
 20
32.8937920074
 10
18.9469501762
 20
32.9652231903
 10
18.9469501762
 20
33.0366498413
 10
19.0183779602
 20
33.1795076752
 10
19.0898068771
 20
33.2509343262
 10
19.1612357941
 20
33.2509343262
  0
LWPOLYLINE
  5
2E4
100
AcDbEntity
  8
0
100
AcDbPolyline
 62
7
  6
CONTINUOUS
 90
3
 70
0
 43
0.3500000006
 10
35.8469496689
 20
-3.2919210205
 10
35.8469496689
 20
-4.7919203453
 10
33.4898067398
 20
-4.1490634918
  0
LWPOLYLINE
  5
2E5
100
AcDbEntity
  8
RACCORDO
100
AcDbPolyline
 62
250
  6
CONTINUOUS
 90
16
 70
0
 10
29.0214773914
 20
-21.0555737804
 10
29.0150921764
 20
-21.0711084746
 10
29.0003014839
 20
-21.0864515191
 10
28.9772620219
 20
-21.1014403537
 10
28.9462178947
 20
-21.115916171
 10
28.9074980161
 20
-21.129725599
 10
28.861512625
 20
-21.1427223263
 10
28.8087489387
 20
-21.1547686519
 10
28.7497659909
 20
-21.1657369445
 10
28.6851887085
 20
-21.1755109945
 10
28.6157012908
 20
-21.1839872454
 10
28.5420399601
 20
-21.191075891
 10
28.4649851616
 20
-21.1967018269
 10
28.3853532943
 20
-21.2008054462
 10
28.3039880615
 20
-21.2033432708
 10
28.2217515315
 20
-21.2042884123
  0
LINE
  5
2E6
100
AcDbEntity
  8
DRAFT
100
AcDbLine
 62
7
  6
CONTINUOUS
 10
26.398533647
 20
-22.7859733158
 11
26.3898069023
 21
-22.7990636175
  0
LINE
  5
2E7
100
AcDbEntity
  8
RACCORDO
100
AcDbLine
 62
250
  6
CONTINUOUS
 10
28.2217515315
 20
19.2958246827
 11
7.9578622731
 21
19.2958246827
  0
LINE
  5
2E8
100
AcDbEntity
  8
DRAFT
100
AcDbLine
 62
7
  6
CONTINUOUS
 10
26.3898069023
 20
22.0009363825
 11
26.398533647
 21
21.9878460809
  0
LINE
  5
2E9
100
AcDbEntity
  8
0
100
AcDbLine
 62
7
  6
CONTINUOUS
 10
6.9398069023
 20
19.5545851311
 11
6.9898069023
 21
19.5545851311
  0
LINE
  5
2EA
100
AcDbEntity
  8
0
100
AcDbLine
 62
7
  6
CONTINUOUS
 10
29.1898069023
 20
19.5545851311
 11
29.2398069023
 21
19.5545851311
  0
LINE
  5
2EB
100
AcDbEntity
  8
RACCORDO
100
AcDbLine
 62
250
  6
CONTINUOUS
 10
28.2398792806
 20
20.8641224781
 11
7.9397345239
 21
20.8641224781
  0
LINE
  5
2EC
100
AcDbEntity
  8
RACCORDO
100
AcDbLine
 62
7
  6
CONTINUOUS
 10
26.402905481
 20
-24.7859650387
 11
26.3898069023
 21
-24.7990636175
  0
LINE
  5
2ED
100
AcDbEntity
  8
0
100
AcDbLine
 62
7
  6
CONTINUOUS
 10
6.9398069023
 20
21.4597341375
 11
7.3207797746
 21
21.4597341375
  0
LINE
  5
2EE
100
AcDbEntity
  8
0
100
AcDbLine
 62
7
  6
CONTINUOUS
 10
28.8588340036
 20
21.4597341375
 11
29.2398069023
 21
21.4597341375
  0
LINE
  5
2EF
100
AcDbEntity
  8
ASSI
100
AcDbLine
 62
7
  6
CONTINUOUS
 10
6.9398069023
 20
21.6009363825
 11
7.665355464
 21
21.6009363825
  0
LINE
  5
2F0
100
AcDbEntity
  8
ASSI
100
AcDbLine
 62
7
  6
CONTINUOUS
 10
28.5142583924
 20
21.6009363825
 11
29.2398069023
 21
21.6009363825
  0
LINE
  5
2F1
100
AcDbEntity
  8
RACCORDO
100
AcDbLine
 62
7
  6
CONTINUOUS
 10
7.7898983264
 20
21.6110235559
 11
28.3897154782
 21
21.6110235559
  0
LINE
  5
2F2
100
AcDbEntity
  8
RACCORDO
100
AcDbLine
 62
7
  6
CONTINUOUS
 10
28.8898069023
 20
21.9791192131
 11
7.2898069023
 21
21.9791192131
  0
LINE
  5
2F3
100
AcDbEntity
  8
DRAFT
100
AcDbLine
 62
7
  6
CONTINUOUS
 10
28.6810801576
 20
21.9878460809
 11
26.398533647
 21
21.9878460809
  0
LINE
  5
2F4
100
AcDbEntity
  8
DRAFT
100
AcDbLine
 62
7
  6
CONTINUOUS
 10
9.7810801576
 20
21.9878460809
 11
7.498533647
 21
21.9878460809
  0
LINE
  5
2F5
100
AcDbEntity
  8
RACCORDO
100
AcDbLine
 62
7
  6
CONTINUOUS
 10
13.9938844602
 20
21.9922095147
 11
22.1857293444
 21
21.9922095147
  0
LINE
  5
2F6
100
AcDbEntity
  8
RACCORDO
100
AcDbLine
 62
7
  6
CONTINUOUS
 10
7.2898069023
 20
22.0009363825
 11
7.4898069023
 21
22.0009363825
  0
LINE
  5
2F7
100
AcDbEntity
  8
DRAFT
100
AcDbLine
 62
7
  6
CONTINUOUS
 10
9.7898069023
 20
22.0009363825
 11
13.6898069023
 21
22.0009363825
  0
LINE
  5
2F8
100
AcDbEntity
  8
DRAFT
100
AcDbLine
 62
7
  6
CONTINUOUS
 10
22.4898069023
 20
22.0009363825
 11
26.3898069023
 21
22.0009363825
  0
LINE
  5
2F9
100
AcDbEntity
  8
RACCORDO
100
AcDbLine
 62
7
  6
CONTINUOUS
 10
28.6898069023
 20
22.0009363825
 11
28.8898069023
 21
22.0009363825
  0
LINE
  5
2FA
100
AcDbEntity
  8
DRAFT
100
AcDbLine
 62
7
  6
CONTINUOUS
 10
28.6810801576
 20
22.7235861133
 11
26.398533647
 21
22.7235861133
  0
LINE
  5
2FB
100
AcDbEntity
  8
DRAFT
100
AcDbLine
 62
7
  6
CONTINUOUS
 10
9.7810801576
 20
22.7235861133
 11
7.498533647
 21
22.7235861133
  0
LINE
  5
2FC
100
AcDbEntity
  8
RACCORDO
100
AcDbLine
 62
7
  6
CONTINUOUS
 10
26.402905481
 20
23.9878378038
 11
26.3898069023
 21
24.0009363825
  0
LINE
  5
2FD
100
AcDbEntity
  8
RACCORDO
100
AcDbLine
 62
250
  6
CONTINUOUS
 10
7.5036242481
 20
23.2287675989
 11
9.7759895565
 21
23.2287675989
  0
LINE
  5
2FE
100
AcDbEntity
  8
RACCORDO
100
AcDbLine
 62
250
  6
CONTINUOUS
 10
26.4036242481
 20
23.2287675989
 11
28.6759895565
 21
23.2287675989
  0
LINE
  5
2FF
100
AcDbEntity
  8
RACCORDO
100
AcDbLine
 62
7
  6
CONTINUOUS
 10
13.9938844602
 20
23.3951185527
 11
22.1857293444
 21
23.3951185527
  0
LINE
  5
300
100
AcDbEntity
  8
DRAFT
100
AcDbLine
 62
7
  6
CONTINUOUS
 10
13.6898069023
 20
23.4009363825
 11
22.4898069023
 21
23.4009363825
  0
LINE
  5
301
100
AcDbEntity
  8
RACCORDO
100
AcDbLine
 62
250
  6
CONTINUOUS
 10
7.5043514768
 20
23.4452739498
 11
9.7752623278
 21
23.4452739498
  0
LINE
  5
302
100
AcDbEntity
  8
RACCORDO
100
AcDbLine
 62
250
  6
CONTINUOUS
 10
26.4043514768
 20
23.4452739498
 11
28.6752623278
 21
23.4452739498
  0
LINE
  5
303
100
AcDbEntity
  8
RACCORDO
100
AcDbLine
 62
250
  6
CONTINUOUS
 10
28.6752623278
 20
23.7378420346
 11
26.4043514768
 21
23.7378420346
  0
LINE
  5
304
100
AcDbEntity
  8
RACCORDO
100
AcDbLine
 62
250
  6
CONTINUOUS
 10
9.7752623278
 20
23.7378420346
 11
7.5043514768
 21
23.7378420346
  0
LINE
  5
305
100
AcDbEntity
  8
RACCORDO
100
AcDbLine
 62
250
  6
CONTINUOUS
 10
28.6767083236
 20
23.9878378038
 11
26.402905481
 21
23.9878378038
  0
LINE
  5
306
100
AcDbEntity
  8
RACCORDO
100
AcDbLine
 62
250
  6
CONTINUOUS
 10
9.7767083236
 20
23.9878378038
 11
7.502905481
 21
23.9878378038
  0
LINE
  5
307
100
AcDbEntity
  8
DRAFT
100
AcDbLine
 62
7
  6
CONTINUOUS
 10
7.4898069023
 20
24.0009363825
 11
9.7898069023
 21
24.0009363825
  0
LINE
  5
308
100
AcDbEntity
  8
DRAFT
100
AcDbLine
 62
7
  6
CONTINUOUS
 10
26.3898069023
 20
24.0009363825
 11
28.6898069023
 21
24.0009363825
  0
LWPOLYLINE
  5
309
100
AcDbEntity
  8
0
100
AcDbPolyline
 62
7
  6
CONTINUOUS
 90
7
 70
0
 43
0.3500000006
 10
17.6612353363
 20
32.7509341736
 10
16.1612360115
 20
32.7509341736
 10
17.6612353363
 20
34.8937926178
 10
17.6612353363
 20
35.3223661194
 10
17.2326641006
 20
35.7509350891
 10
16.5898072472
 20
35.7509350891
 10
16.1612360115
 20
35.1080771027
  0
LWPOLYLINE
  5
30A
100
AcDbEntity
  8
0
100
AcDbPolyline
 62
7
  6
CONTINUOUS
 90
7
 70
0
 43
0.3500000006
 10
15.3040924072
 20
32.7509341736
 10
13.8040930824
 20
32.7509341736
 10
15.3040924072
 20
34.8937926178
 10
15.3040924072
 20
35.3223661194
 10
14.8755211716
 20
35.7509350891
 10
14.2326643181
 20
35.7509350891
 10
13.8040930824
 20
35.1080771027
  0
LWPOLYLINE
  5
30B
100
AcDbEntity
  8
0
100
AcDbPolyline
 62
7
  6
CONTINUOUS
 90
6
 70
0
 43
0.3500000006
 10
20.2326650162
 20
32.7509341736
 10
21.3040919724
 20
32.7509341736
 10
21.5183787231
 20
32.9652231903
 10
21.5183787231
 20
34.0366501465
 10
21.0898074875
 20
34.4652236481
 10
20.6612362518
 20
34.4652236481
  0
LWPOLYLINE
  5
30C
100
AcDbEntity
  8
0
100
AcDbPolyline
 62
7
  6
CONTINUOUS
 90
5
 70
0
 43
0.3500000006
 10
-28.6540511627
 20
44.4532580566
 10
-28.296908844
 20
44.6675425415
 10
-28.296908844
 20
45.310400528
 10
-28.6540511627
 20
45.7389740295
 10
-29.511193634
 20
45.7389740295
  0
LINE
  5
30D
100
AcDbEntity
  8
RACCORDO
100
AcDbLine
 62
7
  6
CONTINUOUS
 10
-29.9965354552
 20
23.2287675989
 11
-30.7465354552
 21
22.795754897
  0
LINE
  5
30E
100
AcDbEntity
  8
RACCORDO
100
AcDbLine
 62
7
  6
CONTINUOUS
 10
-30.8715354552
 20
-24.7990636175
 11
-30.1200810223
 21
-24.7946917835
  0
LINE
  5
30F
100
AcDbEntity
  8
RACCORDO
100
AcDbLine
 62
7
  6
CONTINUOUS
 10
-22.8715354552
 20
-24.152520979
 11
-29.8766317773
 21
-24.1932754372
  0
LINE
  5
310
100
AcDbEntity
  8
RACCORDO
100
AcDbLine
 62
7
  6
CONTINUOUS
 10
-33.122989888
 20
-24.7859650387
 11
-30.8715354552
 21
-24.7990636175
  0
LINE
  5
311
100
AcDbEntity
  8
RACCORDO
100
AcDbLine
 62
7
  6
CONTINUOUS
 10
-30.7465354552
 20
-23.5938821319
 11
-29.9965354552
 21
-24.0268948338
  0
LINE
  5
312
100
AcDbEntity
  8
ASSI
100
AcDbLine
 62
7
  6
CONTINUOUS
 10
-32.2215354552
 20
-22.2578613724
 11
-33.3715354552
 21
-22.3990636175
  0
LINE
  5
313
100
AcDbEntity
  8
DRAFT
100
AcDbLine
 62
7
  6
CONTINUOUS
 10
-29.8715354552
 20
-21.2490636175
 11
-19.8715354552
 21
-21.0745129682
  0
LINE
  5
314
100
AcDbEntity
  8
ASSI
100
AcDbLine
 62
7
  6
CONTINUOUS
 10
-29.8715354552
 20
-21.2490636175
 11
-19.8715354552
 21
-21.0745129682
  0
LINE
  5
315
100
AcDbEntity
  8
RACCORDO
100
AcDbLine
 62
7
  6
CONTINUOUS
 10
-30.8715354552
 20
-22.7990636175
 11
-20.8628089197
 21
-22.7117187842
  0
LINE
  5
316
100
AcDbEntity
  8
RACCORDO
100
AcDbLine
 62
250
  6
CONTINUOUS
 10
-29.8715354552
 20
-22.7024573605
 11
-20.4536768939
 21
-22.620268954
  0
LINE
  5
317
100
AcDbEntity
  8
RACCORDO
100
AcDbLine
 62
250
  6
CONTINUOUS
 10
-30.8715354552
 20
-22.44905029
 11
-29.8715354552
 21
-22.4403234222
  0
LINE
  5
318
100
AcDbEntity
  8
RACCORDO
100
AcDbLine
 62
250
  6
CONTINUOUS
 10
-29.8715354552
 20
-21.5990636175
 11
-20.1662997332
 21
-21.5990636175
  0
LINE
  5
319
100
AcDbEntity
  8
RACCORDO
100
AcDbLine
 62
7
  6
CONTINUOUS
 10
-29.8715354552
 20
-21.2990636175
 11
-19.8715354552
 21
-21.2990636175
  0
LINE
  5
31A
100
AcDbEntity
  8
RACCORDO
100
AcDbLine
 62
7
  6
CONTINUOUS
 10
-33.3715354552
 20
-22.777246448
 11
-30.8715354552
 21
-22.7990636175
  0
LINE
  5
31B
100
AcDbEntity
  8
RACCORDO
100
AcDbLine
 62
250
  6
CONTINUOUS
 10
-33.3715354552
 20
-22.4272331206
 11
-30.8715354552
 21
-22.44905029
  0
LINE
  5
31C
100
AcDbEntity
  8
RACCORDO
100
AcDbLine
 62
250
  6
CONTINUOUS
 10
-29.8715354552
 20
-21.8869772815
 11
-19.95570178
 21
-22.0600588021
  0
LINE
  5
31D
100
AcDbEntity
  8
RACCORDO
100
AcDbLine
 62
250
  6
CONTINUOUS
 10
-29.8715354552
 20
-21.6747538573
 11
-20.1662997332
 21
-21.844159377
  0
LINE
  5
31E
100
AcDbEntity
  8
DRAFT
100
AcDbLine
 62
7
  6
CONTINUOUS
 10
-32.4734339494
 20
-20.1751694282
 11
-32.2467524481
 21
-20.1473364396
  0
LINE
  5
31F
100
AcDbEntity
  8
RACCORDO
100
AcDbLine
 62
7
  6
CONTINUOUS
 10
-37.9638910876
 20
-22.4110182571
 11
-32.2784429999
 21
-21.7632432708
  0
LINE
  5
320
100
AcDbEntity
  8
RACCORDO
100
AcDbLine
 62
250
  6
CONTINUOUS
 10
-38.075239122
 20
-21.6187129066
 11
-32.375919915
 21
-20.9693575058
  0
LWPOLYLINE
  5
321
100
AcDbEntity
  8
RACCORDO
100
AcDbPolyline
 62
250
  6
CONTINUOUS
 90
52
 70
0
 10
-8.8540830487
 20
-19.3328020368
 10
-8.8290037057
 20
-19.3322698828
 10
-8.8039511381
 20
-19.3312929797
 10
-8.7789411175
 20
-19.3298719425
 10
-8.7539893887
 20
-19.3280076659
 10
-8.7291116599
 20
-19.3257013235
 10
-8.7043235925
 20
-19.3229543671
 10
-8.6796407916
 20
-19.3197685262
 10
-8.6550787961
 20
-19.3161458063
 10
-8.6306530687
 20
-19.3120884881
 10
-8.6063789863
 20
-19.3075991258
 10
-8.5822718305
 20
-19.3026805457
 10
-8.5583467777
 20
-19.2973358442
 10
-8.5346188896
 20
-19.2915683859
 10
-8.5111031039
 20
-19.2853818019
 10
-8.4878142247
 20
-19.2787799867
 10
-8.4647669133
 20
-19.2717670964
 10
-8.4419756789
 20
-19.264347546
 10
-8.4194548695
 20
-19.2565260063
 10
-8.3972186629
 20
-19.2483074013
 10
-8.3752810575
 20
-19.2396969051
 10
-8.3536558641
 20
-19.2306999381
 10
-8.3323566965
 20
-19.2213221644
 10
-8.3113969634
 20
-19.2115694876
 10
-8.2907898598
 20
-19.2014480475
 10
-8.2705483587
 20
-19.1909642159
 10
-8.2506852028
 20
-19.1801245927
 10
-8.231212897
 20
-19.168936002
 10
-8.2121436997
 20
-19.1574054874
 10
-8.1934896157
 20
-19.1455403079
 10
-8.1752623886
 20
-19.133347933
 10
-8.1574734932
 20
-19.1208360383
 10
-8.1401341282
 20
-19.1080125006
 10
-8.1232552094
 20
-19.0948853928
 10
-8.1068473629
 20
-19.0814629789
 10
-8.090920918
 20
-19.0677537089
 10
-8.075485901
 20
-19.0537662133
 10
-8.0605520289
 20
-19.0395092978
 10
-8.0461287031
 20
-19.0249919377
 10
-8.0322250038
 20
-19.0102232722
 10
-8.0188496838
 20
-18.9952125988
 10
-8.0060111635
 20
-18.9799693674
 10
-7.9937175252
 20
-18.9645031741
 10
-7.9819765082
 20
-18.9488237555
 10
-7.970795504
 20
-18.9329409825
 10
-7.9601815515
 20
-18.9168648538
 10
-7.9501413325
 20
-18.9006054902
 10
-7.9406811678
 20
-18.8841731273
 10
-7.9318070129
 20
-18.8675781102
 10
-7.9235244546
 20
-18.850830886
 10
-7.9158387069
 20
-18.8339419977
 10
-7.9087546083
 20
-18.8169220777
  0
LWPOLYLINE
  5
322
100
AcDbEntity
  8
ASSI
100
AcDbPolyline
 62
250
  6
CONTINUOUS
 90
52
 70
0
 10
-8.8540830487
 20
-19.3328020368
 10
-8.8290037057
 20
-19.3322698828
 10
-8.8039511381
 20
-19.3312929797
 10
-8.7789411175
 20
-19.3298719425
 10
-8.7539893887
 20
-19.3280076659
 10
-8.7291116599
 20
-19.3257013235
 10
-8.7043235925
 20
-19.3229543671
 10
-8.6796407916
 20
-19.3197685262
 10
-8.6550787961
 20
-19.3161458063
 10
-8.6306530687
 20
-19.3120884881
 10
-8.6063789863
 20
-19.3075991258
 10
-8.5822718305
 20
-19.3026805457
 10
-8.5583467777
 20
-19.2973358442
 10
-8.5346188896
 20
-19.2915683859
 10
-8.5111031039
 20
-19.2853818019
 10
-8.4878142247
 20
-19.2787799867
 10
-8.4647669133
 20
-19.2717670964
 10
-8.4419756789
 20
-19.264347546
 10
-8.4194548695
 20
-19.2565260063
 10
-8.3972186629
 20
-19.2483074013
 10
-8.3752810575
 20
-19.2396969051
 10
-8.3536558641
 20
-19.2306999381
 10
-8.3323566965
 20
-19.2213221644
 10
-8.3113969634
 20
-19.2115694876
 10
-8.2907898598
 20
-19.2014480475
 10
-8.2705483587
 20
-19.1909642159
 10
-8.2506852028
 20
-19.1801245927
 10
-8.231212897
 20
-19.168936002
 10
-8.2121436997
 20
-19.1574054874
 10
-8.1934896157
 20
-19.1455403079
 10
-8.1752623886
 20
-19.133347933
 10
-8.1574734932
 20
-19.1208360383
 10
-8.1401341282
 20
-19.1080125006
 10
-8.1232552094
 20
-19.0948853928
 10
-8.1068473629
 20
-19.0814629789
 10
-8.090920918
 20
-19.0677537089
 10
-8.075485901
 20
-19.0537662133
 10
-8.0605520289
 20
-19.0395092978
 10
-8.0461287031
 20
-19.0249919377
 10
-8.0322250038
 20
-19.0102232722
 10
-8.0188496838
 20
-18.9952125988
 10
-8.0060111635
 20
-18.9799693674
 10
-7.9937175252
 20
-18.9645031741
 10
-7.9819765082
 20
-18.9488237555
 10
-7.970795504
 20
-18.9329409825
 10
-7.9601815515
 20
-18.9168648538
 10
-7.9501413325
 20
-18.9006054902
 10
-7.9406811678
 20
-18.8841731273
 10
-7.9318070129
 20
-18.8675781102
 10
-7.9235244546
 20
-18.850830886
 10
-7.9158387069
 20
-18.8339419977
 10
-7.9087546083
 20
-18.8169220777
  0
LINE
  5
323
100
AcDbEntity
  8
RACCORDO
100
AcDbLine
 62
7
  6
CONTINUOUS
 10
-8.8540830487
 20
-19.8177324392
 11
-19.8715354552
 21
-20.0100427863
  0
LINE
  5
324
100
AcDbEntity
  8
ASSI
100
AcDbLine
 62
7
  6
CONTINUOUS
 10
-8.8540830487
 20
-19.8177324392
 11
-19.8715354552
 21
-20.0100427863
  0
LINE
  5
325
100
AcDbEntity
  8
RACCORDO
100
AcDbLine
 62
250
  6
CONTINUOUS
 10
-29.8715354552
 20
-19.484760837
 11
-8.8540830487
 21
-19.3328020368
  0
LINE
  5
326
100
AcDbEntity
  8
ASSI
100
AcDbLine
 62
250
  6
CONTINUOUS
 10
-29.8715354552
 20
-19.484760837
 11
-8.8540830487
 21
-19.3328020368
  0
LINE
  5
327
100
AcDbEntity
  8
RACCORDO
100
AcDbLine
 62
7
  6
CONTINUOUS
 10
-32.3893313777
 20
-18.9861242434
 11
-32.6196771615
 21
-18.9841140462
  0
LINE
  5
328
100
AcDbEntity
  8
RACCORDO
100
AcDbLine
 62
7
  6
CONTINUOUS
 10
-32.414534904
 20
-18.7808579944
 11
-32.6451280767
 21
-18.7768329756
  0
LWPOLYLINE
  5
329
100
AcDbEntity
  8
RACCORDO
100
AcDbPolyline
 62
250
  6
CONTINUOUS
 90
13
 70
0
 10
-43.8013817746
 20
19.3365421504
 10
-43.5985398227
 20
15.9480016556
 10
-43.3573525442
 20
12.5628449801
 10
-43.077819939
 20
9.1810721238
 10
-42.7598960866
 20
5.8022472548
 10
-42.4036269075
 20
2.426806205
 10
-42.0091501638
 20
-0.9439435292
 10
-41.5764507692
 20
-4.3100007652
 10
-41.1055438098
 20
-7.6713666856
 10
-40.5966123068
 20
-11.0267373421
 10
-40.0497172669
 20
-14.3756780854
 10
-39.4647976834
 20
-17.7186235648
 10
-38.8418535561
 20
-21.0555737804
  0
LWPOLYLINE
  5
32A
100
AcDbEntity
  8
RACCORDO
100
AcDbPolyline
 62
250
  6
CONTINUOUS
 90
3
 70
0
 10
-39.5900731791
 20
-21.2008054462
 10
-39.6024862085
 20
-21.2033432708
 10
-39.606619981
 20
-21.2042884123
  0
LINE
  5
32B
100
AcDbEntity
  8
RACCORDO
100
AcDbLine
 62
250
  6
CONTINUOUS
 10
-39.5410217424
 20
-21.191075891
 11
-39.5900731791
 21
-21.2008054462
  0
LINE
  5
32C
100
AcDbEntity
  8
RACCORDO
100
AcDbLine
 62
250
  6
CONTINUOUS
 10
-39.4615389734
 20
-21.1755109945
 11
-39.5410217424
 21
-21.191075891
  0
LINE
  5
32D
100
AcDbEntity
  8
RACCORDO
100
AcDbLine
 62
250
  6
CONTINUOUS
 10
-39.2929229287
 20
-21.1427223263
 11
-39.4615389734
 21
-21.1755109945
  0
LINE
  5
32E
100
AcDbEntity
  8
RACCORDO
100
AcDbLine
 62
250
  6
CONTINUOUS
 10
-39.0020070026
 20
-21.0864515191
 11
-39.2929229287
 21
-21.1427223263
  0
LINE
  5
32F
100
AcDbEntity
  8
RACCORDO
100
AcDbLine
 62
250
  6
CONTINUOUS
 10
-38.8418535561
 20
-21.0555737804
 11
-39.0020070026
 21
-21.0864515191
  0
LWPOLYLINE
  5
330
100
AcDbEntity
  8
0
100
AcDbPolyline
 62
250
  6
CONTINUOUS
 90
17
 70
0
 10
-12.3715354552
 20
-16.1486429434
 10
-11.9346564232
 20
-16.1058000547
 10
-11.5144179778
 20
-15.9789032606
 10
-11.1268268708
 20
-15.7727860207
 10
-10.7810849292
 20
-15.4897564137
 10
-10.5024546863
 20
-15.1504947332
 10
-10.2950171492
 20
-14.7635664304
 10
-10.1666735492
 20
-14.343709484
 10
-10.122298751
 20
-13.8990636175
 10
-10.1651351146
 20
-13.4621180366
 10
-10.2920125817
 20
-13.0418155771
 10
-10.4980984289
 20
-12.6541654291
 10
-10.7810849292
 20
-12.3083708212
 10
-11.1202949384
 20
-12.0296981352
 10
-11.5071643102
 20
-11.8222289995
 10
-11.9269573103
 20
-11.6938658492
 10
-12.3715356518
 20
-11.6494842915
  0
LINE
  5
331
100
AcDbEntity
  8
RACCORDO
100
AcDbLine
 62
250
  6
CONTINUOUS
 10
-29.8715354552
 20
-18.0707626662
 11
-8.8540830487
 21
-17.918803866
  0
LINE
  5
332
100
AcDbEntity
  8
ASSI
100
AcDbLine
 62
250
  6
CONTINUOUS
 10
-29.8715354552
 20
-18.0707626662
 11
-8.8540830487
 21
-17.918803866
  0
LINE
  5
333
100
AcDbEntity
  8
DRAFT
100
AcDbLine
 62
250
  6
CONTINUOUS
 10
-8.8540830487
 20
-17.918803866
 11
-7.8752960352
 21
-17.918803866
  0
LINE
  5
334
100
AcDbEntity
  8
ASSI
100
AcDbLine
 62
250
  6
CONTINUOUS
 10
-8.8540830487
 20
-17.918803866
 11
-7.8752960352
 21
-17.918803866
  0
LINE
  5
335
100
AcDbEntity
  8
RACCORDO
100
AcDbLine
 62
7
  6
CONTINUOUS
 10
-7.8727906692
 20
-18.8171292174
 11
-7.8715354552
 21
-18.817136447
  0
LINE
  5
336
100
AcDbEntity
  8
ASSI
100
AcDbLine
 62
7
  6
CONTINUOUS
 10
-7.8727906692
 20
-18.8171292174
 11
-7.8715354552
 21
-18.817136447
  0
LINE
  5
337
100
AcDbEntity
  8
RACCORDO
100
AcDbLine
 62
250
  6
CONTINUOUS
 10
-7.8839696295
 20
-18.3170731237
 11
-7.8715354552
 21
-18.3171447402
  0
LINE
  5
338
100
AcDbEntity
  8
ASSI
100
AcDbLine
 62
250
  6
CONTINUOUS
 10
-7.8839696295
 20
-18.3170731237
 11
-7.8715354552
 21
-18.3171447402
  0
LINE
  5
339
100
AcDbEntity
  8
RACCORDO
100
AcDbLine
 62
250
  6
CONTINUOUS
 10
-32.5375644427
 20
-17.7788628106
 11
-32.7681576154
 21
-17.7748377918
  0
LWPOLYLINE
  5
33A
100
AcDbEntity
  8
RACCORDO
100
AcDbPolyline
 62
250
  6
CONTINUOUS
 90
22
 70
0
 10
-38.8418535561
 20
-21.0555737804
 10
-38.8306425485
 20
-21.1042648419
 10
-38.8161655364
 20
-21.1516387333
 10
-38.7984225199
 20
-21.1976954544
 10
-38.7772881009
 20
-21.2426754373
 10
-38.7528876774
 20
-21.2863382499
 10
-38.7255974436
 20
-21.327962597
 10
-38.6953742737
 20
-21.3674999709
 10
-38.6622612936
 20
-21.4049988792
 10
-38.6267640746
 20
-21.4398835494
 10
-38.5888526901
 20
-21.4721086809
 10
-38.5485570667
 20
-21.5017195743
 10
-38.5064725563
 20
-21.5282763585
 10
-38.4625618226
 20
-21.5517377231
 10
-38.4168622018
 20
-21.5721449786
 10
-38.3700810547
 20
-21.5891821854
 10
-38.3221896392
 20
-21.602791794
 10
-38.2732166974
 20
-21.613031354
 10
-38.223955816
 20
-21.6197575743
 10
-38.1746715242
 20
-21.6229226914
 10
-38.1250992928
 20
-21.6225744688
 10
-38.075239122
 20
-21.6187129066
  0
LINE
  5
33B
100
AcDbEntity
  8
DRAFT
100
AcDbLine
 62
7
  6
CONTINUOUS
 10
-36.5506524834
 20
21.2366198235
 11
-36.8139791865
 21
20.0960265619
  0
LINE
  5
33C
100
AcDbEntity
  8
0
100
AcDbLine
 62
7
  6
CONTINUOUS
 10
-24.3219771056
 20
15.6005413825
 11
-27.2210938048
 21
14.5924763825
  0
LINE
  5
33D
100
AcDbEntity
  8
0
100
AcDbLine
 62
7
  6
CONTINUOUS
 10
-24.9364288948
 20
14.7651253825
 11
-24.3219771056
 21
14.9741153825
  0
LINE
  5
33E
100
AcDbEntity
  8
0
100
AcDbLine
 62
7
  6
CONTINUOUS
 10
-26.6669396441
 20
14.2069903825
 11
-25.4182151046
 21
14.6084103825
  0
LINE
  5
33F
100
AcDbEntity
  8
0
100
AcDbLine
 62
250
  6
CONTINUOUS
 10
-21.5622974285
 20
-14.9679396175
 11
-18.2005885111
 21
-14.6738896175
  0
LINE
  5
340
100
AcDbEntity
  8
0
100
AcDbLine
 62
250
  6
CONTINUOUS
 10
-15.3715354552
 20
-15.9914256175
 11
-16.3903922547
 21
-15.9914256175
  0
LINE
  5
341
100
AcDbEntity
  8
0
100
AcDbLine
 62
250
  6
CONTINUOUS
 10
-21.5622974285
 20
-14.6808476175
 11
-21.9568553263
 21
-14.6808476175
  0
LWPOLYLINE
  5
342
100
AcDbEntity
  8
RACCORDO
100
AcDbPolyline
 62
250
  6
CONTINUOUS
 90
16
 70
0
 10
-43.1937747504
 20
20.068414455
 10
-43.204573688
 20
20.1513229334
 10
-43.2150267059
 20
20.2333514275
 10
-43.225019312
 20
20.313601487
 10
-43.2344420562
 20
20.3911941353
 10
-43.2431917288
 20
20.4652794891
 10
-43.2511724904
 20
20.5350460687
 10
-43.2582969244
 20
20.5997297031
 10
-43.2644869921
 20
20.6586218814
 10
-43.2696748873
 20
20.7110775121
 10
-43.2738037826
 20
20.7565220189
 10
-43.276828449
 20
20.7944576113
 10
-43.2787157521
 20
20.8244687336
 10
-43.2794450167
 20
20.8462266435
 10
-43.2790082518
 20
20.859493003
 10
-43.2774102381
 20
20.8641224784
  0
LWPOLYLINE
  5
343
100
AcDbEntity
  8
RACCORDO
100
AcDbPolyline
 62
250
  6
CONTINUOUS
 90
16
 70
0
 10
-38.075239122
 20
-21.6187129066
 10
-38.0656597989
 20
-21.7017720639
 10
-38.0559577346
 20
-21.7838935185
 10
-38.0462391962
 20
-21.864177792
 10
-38.0366106309
 20
-21.9417455287
 10
-38.0271775007
 20
-22.0157471271
 10
-38.018043127
 20
-22.085372046
 10
-38.0093075588
 20
-22.1498576816
 10
-38.0010664769
 20
-22.2084977213
 10
-37.9934101463
 20
-22.260649879
 10
-37.9864224267
 20
-22.305742931
 10
-37.980179855
 20
-22.3432829718
 10
-37.9747508063
 20
-22.3728588245
 10
-37.9701947451
 20
-22.3941465439
 10
-37.9665615741
 20
-22.4069129651
 10
-37.9638910876
 20
-22.4110182571
  0
LWPOLYLINE
  5
344
100
AcDbEntity
  8
0
100
AcDbPolyline
 62
7
  6
CONTINUOUS
 90
3
 70
0
 43
0.3500000006
 10
-24.2969098892
 20
43.0246887817
 10
-24.3683365402
 20
42.810399765
 10
-24.5111943741
 20
42.5246886292
  0
LINE
  5
345
100
AcDbEntity
  8
0
100
AcDbLine
 62
250
  6
CONTINUOUS
 10
-27.2634450416
 20
-15.7436726175
 11
-25.2681319722
 21
-15.1909456175
  0
LWPOLYLINE
  5
346
100
AcDbEntity
  8
0
100
AcDbPolyline
 62
250
  6
CONTINUOUS
 90
17
 70
0
 10
-18.3217140602
 20
-13.3519556175
 10
-18.2600361794
 20
-13.3459071272
 10
-18.2007075899
 20
-13.3279920414
 10
-18.1459880993
 20
-13.2988927401
 10
-18.0971768067
 20
-13.2589350743
 10
-18.0578402361
 20
-13.2110386546
 10
-18.0285545374
 20
-13.1564127376
 10
-18.0104351938
 20
-13.0971380075
 10
-18.004170431
 20
-13.0343636175
 10
-18.0102180001
 20
-12.9726763414
 10
-18.0281303574
 20
-12.9133387145
 10
-18.0572252266
 20
-12.8586108886
 10
-18.0971768067
 20
-12.8097921606
 10
-18.1450659316
 20
-12.7704495979
 10
-18.1996835288
 20
-12.7411594382
 10
-18.258949231
 20
-12.7230373346
 10
-18.321714088
 20
-12.7167716175
  0
LWPOLYLINE
  5
347
100
AcDbEntity
  8
0
100
AcDbPolyline
 62
250
  6
CONTINUOUS
 90
17
 70
0
 10
-18.3217140602
 20
-13.1748736175
 10
-18.2944263482
 20
-13.1721976263
 10
-18.2681780167
 20
-13.1642715806
 10
-18.2439688564
 20
-13.151397381
 10
-18.2223736187
 20
-13.1337191913
 10
-18.2049702158
 20
-13.1125287144
 10
-18.1920135497
 20
-13.0883609533
 10
-18.1839971356
 20
-13.0621364504
 10
-18.1812254606
 20
-13.0343636175
 10
-18.1839010441
 20
-13.0070717488
 10
-18.1918258827
 20
-12.9808194189
 10
-18.2046981215
 20
-12.9566065709
 10
-18.2223736187
 20
-12.9350080436
 10
-18.2435608682
 20
-12.9176019897
 10
-18.2677249485
 20
-12.9046433499
 10
-18.2939454573
 20
-12.8966257147
 10
-18.3217140725
 20
-12.8938536175
  0
LWPOLYLINE
  5
348
100
AcDbEntity
  8
0
100
AcDbPolyline
 62
250
  6
CONTINUOUS
 90
17
 70
0
 10
-18.3217140602
 20
-12.8938536175
 10
-18.3490017722
 20
-12.8965296086
 10
-18.3752501038
 20
-12.9044556543
 10
-18.399459264
 20
-12.9173298539
 10
-18.4210545017
 20
-12.9350080436
 10
-18.4384579047
 20
-12.9561985205
 10
-18.4514145708
 20
-12.9803662817
 10
-18.4594309848
 20
-13.0065907846
 10
-18.4622026599
 20
-13.0343636175
 10
-18.4595270763
 20
-13.0616554862
 10
-18.4516022378
 20
-13.087907816
 10
-18.438729999
 20
-13.112120664
 10
-18.4210545017
 20
-13.1337191913
 10
-18.3998672522
 20
-13.1511252452
 10
-18.375703172
 20
-13.1640838851
 10
-18.3494826632
 20
-13.1721015202
 10
-18.321714048
 20
-13.1748736175
  0
LWPOLYLINE
  5
349
100
AcDbEntity
  8
0
100
AcDbPolyline
 62
250
  6
CONTINUOUS
 90
17
 70
0
 10
-18.3217140602
 20
-12.7167716175
 10
-18.383391941
 20
-12.7228201078
 10
-18.4427205305
 20
-12.7407351936
 10
-18.4974400212
 20
-12.7698344948
 10
-18.5462513138
 20
-12.8097921606
 10
-18.5855878844
 20
-12.8576885803
 10
-18.6148735831
 20
-12.9123144973
 10
-18.6329929266
 20
-12.9715892274
 10
-18.6392576894
 20
-13.0343636175
 10
-18.6332101203
 20
-13.0960508935
 10
-18.6152977631
 20
-13.1553885204
 10
-18.5862028938
 20
-13.2101163464
 10
-18.5462513138
 20
-13.2589350743
 10
-18.4983621889
 20
-13.298277637
 10
-18.4437445917
 20
-13.3275677967
 10
-18.3844788894
 20
-13.3456899004
 10
-18.3217140325
 20
-13.3519556175
  0
LWPOLYLINE
  5
34A
100
AcDbEntity
  8
0
100
AcDbPolyline
 62
250
  6
CONTINUOUS
 90
17
 70
0
 10
-21.6667585162
 20
-12.8017326175
 10
-21.6293581735
 20
-12.7980649232
 10
-21.5933823982
 20
-12.7872015417
 10
-21.5602014964
 20
-12.7695562558
 10
-21.5306032183
 20
-12.7453266556
 10
-21.5067502388
 20
-12.7162831397
 10
-21.488991925
 20
-12.6831589793
 10
-21.4780046853
 20
-12.6472158634
 10
-21.4742058473
 20
-12.6091506175
 10
-21.477872983
 20
-12.5717445776
 10
-21.4887347099
 20
-12.5357633222
 10
-21.5063773083
 20
-12.5025773661
 10
-21.5306032183
 20
-12.4729745793
 10
-21.5596423107
 20
-12.4491179664
 10
-21.5927614262
 20
-12.4313569474
 10
-21.6286990678
 20
-12.4203680341
 10
-21.666758533
 20
-12.4165686175
  0
LWPOLYLINE
  5
34B
100
AcDbEntity
  8
0
100
AcDbPolyline
 62
250
  6
CONTINUOUS
 90
17
 70
0
 10
-12.3715354552
 20
-11.6494842915
 10
-12.8084144871
 20
-11.6923271803
 10
-13.2286529325
 20
-11.8192239743
 10
-13.6162440395
 20
-12.0253412142
 10
-13.9619859812
 20
-12.3083708212
 10
-14.240616224
 20
-12.6476325017
 10
-14.4480537612
 20
-13.0345608045
 10
-14.5763973612
 20
-13.4544177509
 10
-14.6207721593
 20
-13.8990636175
 10
-14.5779357957
 20
-14.3360091984
 10
-14.4510583287
 20
-14.7563116578
 10
-14.2449724814
 20
-15.1439618058
 10
-13.9619859812
 20
-15.4897564137
 10
-13.6227759719
 20
-15.7684290998
 10
-13.2359066001
 20
-15.9758982354
 10
-12.8161136
 20
-16.1042613857
 10
-12.3715352585
 20
-16.1486429434
  0
LWPOLYLINE
  5
34C
100
AcDbEntity
  8
0
100
AcDbPolyline
 62
250
  6
CONTINUOUS
 90
17
 70
0
 10
-21.6667585162
 20
-12.4165686175
 10
-21.7041588589
 20
-12.4202363117
 10
-21.7401346341
 20
-12.4310996932
 10
-21.7733155359
 20
-12.4487449791
 10
-21.802913814
 20
-12.4729745793
 10
-21.8267667935
 20
-12.5020180952
 10
-21.8445251074
 20
-12.5351422556
 10
-21.855512347
 20
-12.5710853715
 10
-21.859311185
 20
-12.6091506175
 10
-21.8556440493
 20
-12.6465566573
 10
-21.8447823224
 20
-12.6825379127
 10
-21.827139724
 20
-12.7157238688
 10
-21.802913814
 20
-12.7453266556
 10
-21.7738747216
 20
-12.7691832685
 10
-21.7407556062
 20
-12.7869442875
 10
-21.7048179646
 20
-12.7979332008
 10
-21.6667584993
 20
-12.8017326175
  0
LINE
  5
34D
100
AcDbEntity
  8
0
100
AcDbLine
 62
250
  6
CONTINUOUS
 10
-18.004170431
 20
-14.6171806175
 11
-18.2005885111
 21
-14.6171806175
  0
LINE
  5
34E
100
AcDbEntity
  8
0
100
AcDbLine
 62
250
  6
CONTINUOUS
 10
-21.9568553263
 20
-14.5814736175
 11
-21.5622974285
 21
-14.5814736175
  0
LINE
  5
34F
100
AcDbEntity
  8
0
100
AcDbLine
 62
250
  6
CONTINUOUS
 10
-18.2005885111
 20
-14.4995606175
 11
-18.004170431
 21
-14.4995606175
  0
LINE
  5
350
100
AcDbEntity
  8
0
100
AcDbLine
 62
250
  6
CONTINUOUS
 10
-20.5190303473
 20
-14.1109936175
 11
-20.7346335049
 21
-14.1109936175
  0
LINE
  5
351
100
AcDbEntity
  8
0
100
AcDbLine
 62
250
  6
CONTINUOUS
 10
-21.8323542913
 20
-14.0559906175
 11
-22.0498151659
 21
-14.0559906175
  0
LINE
  5
352
100
AcDbEntity
  8
0
100
AcDbLine
 62
250
  6
CONTINUOUS
 10
-14.0064433326
 20
-13.8990636175
 11
-10.7366275777
 21
-13.8990636175
  0
LINE
  5
353
100
AcDbEntity
  8
0
100
AcDbLine
 62
250
  6
CONTINUOUS
 10
-27.2636189886
 20
-13.7918596175
 11
-24.364674237
 21
-13.7918596175
  0
LINE
  5
354
100
AcDbEntity
  8
0
100
AcDbLine
 62
250
  6
CONTINUOUS
 10
-22.0492572509
 20
-13.4829876175
 11
-21.8317963763
 21
-13.4829876175
  0
LINE
  5
355
100
AcDbEntity
  8
0
100
AcDbLine
 62
250
  6
CONTINUOUS
 10
-20.7346335049
 20
-13.2876536175
 11
-20.5190303473
 21
-13.2876536175
  0
LINE
  5
356
100
AcDbEntity
  8
0
100
AcDbLine
 62
250
  6
CONTINUOUS
 10
-24.364674237
 20
-13.1865876175
 11
-27.2636189886
 21
-13.1865876175
  0
LINE
  5
357
100
AcDbEntity
  8
0
100
AcDbLine
 62
250
  6
CONTINUOUS
 10
-20.8270354295
 20
-12.8311766175
 11
-21.1994427015
 21
-12.8311766175
  0
LINE
  5
358
100
AcDbEntity
  8
0
100
AcDbLine
 62
250
  6
CONTINUOUS
 10
-24.364674237
 20
-12.8607516175
 11
-27.2634450416
 21
-12.5989296175
  0
LINE
  5
359
100
AcDbEntity
  8
0
100
AcDbLine
 62
250
  6
CONTINUOUS
 10
-25.2681319722
 20
-15.1909456175
 11
-27.2634450416
 21
-14.6213346175
  0
LWPOLYLINE
  5
35A
100
AcDbEntity
  8
RACCORDO
100
AcDbPolyline
 62
7
  6
CONTINUOUS
 90
7
 70
0
 10
-7.8727906692
 20
-18.8171292174
 10
-7.8732027173
 20
-18.8170110071
 10
-7.8736529927
 20
-18.8166609969
 10
-7.8741414097
 20
-18.8160794087
 10
-7.8746716938
 20
-18.8152665427
 10
-7.8752399504
 20
-18.8142228603
 10
-7.8758346652
 20
-18.8129490019
  0
LWPOLYLINE
  5
35B
100
AcDbEntity
  8
ASSI
100
AcDbPolyline
 62
7
  6
CONTINUOUS
 90
7
 70
0
 10
-7.8727906692
 20
-18.8171292174
 10
-7.8732027173
 20
-18.8170110071
 10
-7.8736529927
 20
-18.8166609969
 10
-7.8741414097
 20
-18.8160794087
 10
-7.8746716938
 20
-18.8152665427
 10
-7.8752399504
 20
-18.8142228603
 10
-7.8758346652
 20
-18.8129490019
  0
LINE
  5
35C
100
AcDbEntity
  8
0
100
AcDbLine
 62
250
  6
CONTINUOUS
 10
-27.2634450416
 20
-14.0164766175
 11
-24.364674237
 21
-14.9485416175
  0
LINE
  5
35D
100
AcDbEntity
  8
RACCORDO
100
AcDbLine
 62
7
  6
CONTINUOUS
 10
-36.8715354552
 20
15.6444928605
 11
-36.8715354552
 21
17.9049335254
  0
LWPOLYLINE
  5
35E
100
AcDbEntity
  8
RACCORDO
100
AcDbPolyline
 62
7
  6
CONTINUOUS
 90
6
 70
0
 10
-19.9530638576
 20
21.264699043
 10
-19.9504758382
 20
21.2674838796
 10
-19.9479377219
 20
21.2702860769
 10
-19.9454495086
 20
21.2731056348
 10
-19.9430111985
 20
21.2759425535
 10
-19.9406227914
 20
21.278796833
  0
LINE
  5
35F
100
AcDbEntity
  8
RACCORDO
100
AcDbLine
 62
7
  6
CONTINUOUS
 10
-19.9530638576
 20
21.264699043
 11
-19.9679555959
 21
21.2491364373
  0
LINE
  5
360
100
AcDbEntity
  8
RACCORDO
100
AcDbLine
 62
7
  6
CONTINUOUS
 10
-19.9679555959
 20
21.2491364373
 11
-20.0346918154
 21
21.1805223408
  0
LINE
  5
361
100
AcDbEntity
  8
RACCORDO
100
AcDbLine
 62
7
  6
CONTINUOUS
 10
-20.0346918154
 20
21.1805223408
 11
-20.1068524728
 21
21.1066301833
  0
LINE
  5
362
100
AcDbEntity
  8
RACCORDO
100
AcDbLine
 62
7
  6
CONTINUOUS
 10
-20.1068524728
 20
21.1066301833
 11
-20.1662997332
 21
21.046032142
  0
LINE
  5
363
100
AcDbEntity
  8
0
100
AcDbLine
 62
7
  6
CONTINUOUS
 10
-27.2210938048
 20
14.2251811149
 11
-26.6580040466
 21
14.7882708731
  0
LINE
  5
364
100
AcDbEntity
  8
0
100
AcDbLine
 62
7
  6
CONTINUOUS
 10
-27.185647134
 20
13.8406063576
 11
-26.014081336
 21
15.0121721556
  0
LINE
  5
365
100
AcDbEntity
  8
0
100
AcDbLine
 62
7
  6
CONTINUOUS
 10
-26.8771804051
 20
13.7290516585
 11
-26.4678066885
 21
14.1384253751
  0
LINE
  5
366
100
AcDbEntity
  8
0
100
AcDbLine
 62
7
  6
CONTINUOUS
 10
-26.2724167777
 20
14.3338152859
 11
-25.3701586254
 21
15.2360734382
  0
LINE
  5
367
100
AcDbEntity
  8
0
100
AcDbLine
 62
7
  6
CONTINUOUS
 10
-26.5687136762
 20
13.6174969593
 11
-26.1553646085
 21
14.0308460271
  0
LINE
  5
368
100
AcDbEntity
  8
0
100
AcDbLine
 62
7
  6
CONTINUOUS
 10
-25.6534055016
 20
14.532805134
 11
-24.7262359148
 21
15.4599747207
  0
LINE
  5
369
100
AcDbEntity
  8
0
100
AcDbLine
 62
7
  6
CONTINUOUS
 10
-26.2602469473
 20
13.5059422602
 11
-25.8429225285
 21
13.9232666791
  0
LINE
  5
36A
100
AcDbEntity
  8
0
100
AcDbLine
 62
7
  6
CONTINUOUS
 10
-25.4182151046
 20
14.347974103
 11
-24.3219771056
 21
15.444212102
  0
LINE
  5
36B
100
AcDbEntity
  8
0
100
AcDbLine
 62
7
  6
CONTINUOUS
 10
-27.2210938048
 20
12.1250739748
 11
-26.834428397
 21
12.5117393825
  0
LINE
  5
36C
100
AcDbEntity
  8
0
100
AcDbLine
 62
7
  6
CONTINUOUS
 10
-25.9517802184
 20
13.3943875611
 11
-25.5304804485
 21
13.815687331
  0
LINE
  5
36D
100
AcDbEntity
  8
0
100
AcDbLine
 62
7
  6
CONTINUOUS
 10
-25.4182151046
 20
13.927952675
 11
-24.9364288948
 21
14.4097388847
  0
LINE
  5
36E
100
AcDbEntity
  8
0
100
AcDbLine
 62
7
  6
CONTINUOUS
 10
-24.3978630539
 20
14.9483047256
 11
-24.3219771056
 21
15.0241906739
  0
LINE
  5
36F
100
AcDbEntity
  8
0
100
AcDbLine
 62
7
  6
CONTINUOUS
 10
-27.2210938048
 20
10.8166803825
 11
-24.9236807789
 21
11.9292953825
  0
LINE
  5
370
100
AcDbEntity
  8
0
100
AcDbLine
 62
7
  6
CONTINUOUS
 10
-24.3219771056
 20
11.6280873825
 11
-26.7483418425
 21
10.4753113825
  0
LINE
  5
371
100
AcDbEntity
  8
0
100
AcDbLine
 62
250
  6
CONTINUOUS
 10
-24.364674237
 20
-10.5121176175
 11
-26.2496259313
 21
-10.6364726175
  0
LINE
  5
372
100
AcDbEntity
  8
0
100
AcDbLine
 62
250
  6
CONTINUOUS
 10
-21.1994427015
 20
-12.4811166175
 11
-20.8270354295
 21
-12.4811166175
  0
LINE
  5
373
100
AcDbEntity
  8
0
100
AcDbLine
 62
250
  6
CONTINUOUS
 10
-16.3903922547
 20
-11.8067016175
 11
-15.3715354552
 21
-11.8067016175
  0
LINE
  5
374
100
AcDbEntity
  8
0
100
AcDbLine
 62
250
  6
CONTINUOUS
 10
-26.2575165272
 20
-12.1510856175
 11
-24.364674237
 21
-12.2817036175
  0
LINE
  5
375
100
AcDbEntity
  8
0
100
AcDbLine
 62
250
  6
CONTINUOUS
 10
-18.6386657796
 20
-13.0184706175
 11
-21.5347496248
 21
-12.7492246175
  0
LINE
  5
376
100
AcDbEntity
  8
0
100
AcDbLine
 62
250
  6
CONTINUOUS
 10
-25.6540383945
 20
-11.3952796175
 11
-27.2634450416
 21
-10.7900086175
  0
LINE
  5
377
100
AcDbEntity
  8
RACCORDO
100
AcDbLine
 62
7
  6
CONTINUOUS
 10
-20.1068524728
 20
-21.9047574183
 11
-20.1514150148
 21
-21.859380364
  0
LINE
  5
378
100
AcDbEntity
  8
RACCORDO
100
AcDbLine
 62
7
  6
CONTINUOUS
 10
-20.1514150148
 20
-21.859380364
 11
-20.1662997332
 21
-21.844159377
  0
LINE
  5
379
100
AcDbEntity
  8
RACCORDO
100
AcDbLine
 62
7
  6
CONTINUOUS
 10
-19.9679555959
 20
-22.0472636722
 11
-20.0071477768
 21
-22.0069880579
  0
LINE
  5
37A
100
AcDbEntity
  8
RACCORDO
100
AcDbLine
 62
7
  6
CONTINUOUS
 10
-20.0071477768
 20
-22.0069880579
 11
-20.1068524728
 21
-21.9047574183
  0
LWPOLYLINE
  5
37B
100
AcDbEntity
  8
RACCORDO
100
AcDbPolyline
 62
7
  6
CONTINUOUS
 90
7
 70
0
 10
-19.9679555959
 20
-22.0472636722
 10
-19.9530638576
 20
-22.062826278
 10
-19.9504758382
 20
-22.0656111145
 10
-19.9479377219
 20
-22.0684133118
 10
-19.9454495086
 20
-22.0712328698
 10
-19.9430111985
 20
-22.0740697885
 10
-19.9406227914
 20
-22.0769240679
  0
LINE
  5
37C
100
AcDbEntity
  8
RACCORDO
100
AcDbLine
 62
7
  6
CONTINUOUS
 10
-33.3715354552
 20
23.7378420346
 11
-33.3715354552
 21
23.4452739498
  0
LINE
  5
37D
100
AcDbEntity
  8
RACCORDO
100
AcDbLine
 62
7
  6
CONTINUOUS
 10
-33.3715354552
 20
-22.3990636175
 11
-33.3715354552
 21
-22.777246448
  0
LINE
  5
37E
100
AcDbEntity
  8
RACCORDO
100
AcDbLine
 62
7
  6
CONTINUOUS
 10
-33.3715354552
 20
-24.2434011848
 11
-33.3715354552
 21
-24.5359692695
  0
LINE
  5
37F
100
AcDbEntity
  8
RACCORDO
100
AcDbLine
 62
7
  6
CONTINUOUS
 10
-33.3715354552
 20
21.6009363825
 11
-33.3715354552
 21
21.9791192131
  0
LINE
  5
380
100
AcDbEntity
  8
ASSI
100
AcDbLine
 62
7
  6
CONTINUOUS
 10
-32.2215354552
 20
19.5545851311
 11
-34.6715354552
 21
-0.3990636175
  0
LINE
  5
381
100
AcDbEntity
  8
0
100
AcDbLine
 62
7
  6
CONTINUOUS
 10
-26.996850969
 20
11.9292953825
 11
-26.414406969
 21
12.5117393825
  0
LINE
  5
382
100
AcDbEntity
  8
0
100
AcDbLine
 62
7
  6
CONTINUOUS
 10
-25.6433134895
 20
13.282832862
 11
-24.9364288948
 21
13.9897174567
  0
LINE
  5
383
100
AcDbEntity
  8
0
100
AcDbLine
 62
7
  6
CONTINUOUS
 10
-26.5768295409
 20
11.9292953825
 11
-25.9943855409
 21
12.5117393825
  0
LINE
  5
384
100
AcDbEntity
  8
0
100
AcDbLine
 62
7
  6
CONTINUOUS
 10
-25.3348467606
 20
13.1712781628
 11
-24.901921699
 21
13.6042032245
  0
LINE
  5
385
100
AcDbEntity
  8
0
100
AcDbLine
 62
7
  6
CONTINUOUS
 10
-26.1568081129
 20
11.9292953825
 11
-25.5743641129
 21
12.5117393825
  0
LINE
  5
386
100
AcDbEntity
  8
0
100
AcDbLine
 62
7
  6
CONTINUOUS
 10
-25.0263800317
 20
13.0597234637
 11
-24.5915053054
 21
13.4945981901
  0
LINE
  5
387
100
AcDbEntity
  8
0
100
AcDbLine
 62
7
  6
CONTINUOUS
 10
-27.2210938048
 20
10.4449882627
 11
-26.5003546584
 21
11.1657274091
  0
LINE
  5
388
100
AcDbEntity
  8
0
100
AcDbLine
 62
7
  6
CONTINUOUS
 10
-25.7367866849
 20
11.9292953825
 11
-25.1543426849
 21
12.5117393825
  0
LINE
  5
389
100
AcDbEntity
  8
0
100
AcDbLine
 62
7
  6
CONTINUOUS
 10
-24.7179133028
 20
12.9481687646
 11
-24.3219771056
 21
13.3441049618
  0
LINE
  5
38A
100
AcDbEntity
  8
0
100
AcDbLine
 62
7
  6
CONTINUOUS
 10
-27.2210938048
 20
10.0249668346
 11
-25.6859013264
 21
11.560159313
  0
LINE
  5
38B
100
AcDbEntity
  8
0
100
AcDbLine
 62
7
  6
CONTINUOUS
 10
-25.3167652569
 20
11.9292953825
 11
-24.7343212569
 21
12.5117393825
  0
LINE
  5
38C
100
AcDbEntity
  8
0
100
AcDbLine
 62
7
  6
CONTINUOUS
 10
-24.4094465739
 20
12.8366140655
 11
-24.3219771056
 21
12.9240835338
  0
LINE
  5
38D
100
AcDbEntity
  8
0
100
AcDbLine
 62
7
  6
CONTINUOUS
 10
-26.9331728288
 20
9.8928663825
 11
-26.3507278288
 21
10.4753113825
  0
LINE
  5
38E
100
AcDbEntity
  8
0
100
AcDbLine
 62
7
  6
CONTINUOUS
 10
-25.9908315146
 20
10.8352076967
 11
-24.3219771056
 21
12.5040621058
  0
LINE
  5
38F
100
AcDbEntity
  8
0
100
AcDbLine
 62
7
  6
CONTINUOUS
 10
-26.5131514008
 20
9.8928663825
 11
-25.9307064008
 21
10.4753113825
  0
LINE
  5
390
100
AcDbEntity
  8
0
100
AcDbLine
 62
7
  6
CONTINUOUS
 10
-25.1906319273
 20
11.215385856
 11
-24.3219771056
 21
12.0840406778
  0
LINE
  5
391
100
AcDbEntity
  8
0
100
AcDbLine
 62
7
  6
CONTINUOUS
 10
-24.3219771056
 20
9.5756153825
 11
-27.2210938048
 21
8.5674413825
  0
LINE
  5
392
100
AcDbEntity
  8
0
100
AcDbLine
 62
7
  6
CONTINUOUS
 10
-24.9364288948
 20
8.7400903825
 11
-24.3219771056
 21
8.9489723825
  0
LINE
  5
393
100
AcDbEntity
  8
0
100
AcDbLine
 62
7
  6
CONTINUOUS
 10
-26.6671035941
 20
8.1820123825
 11
-25.4182151046
 21
8.5834843825
  0
LINE
  5
394
100
AcDbEntity
  8
0
100
AcDbLine
 62
250
  6
CONTINUOUS
 10
-27.2634450416
 20
-10.1911516175
 11
-24.364674237
 21
-9.9200016175
  0
LINE
  5
395
100
AcDbEntity
  8
0
100
AcDbLine
 62
250
  6
CONTINUOUS
 10
-26.4669367212
 20
-8.6340496175
 11
-25.3911664861
 21
-8.9354246175
  0
LINE
  5
396
100
AcDbEntity
  8
0
100
AcDbLine
 62
250
  6
CONTINUOUS
 10
-24.9433719198
 20
-9.0592356175
 11
-24.364674237
 21
-9.2262526175
  0
LINE
  5
397
100
AcDbEntity
  8
0
100
AcDbLine
 62
250
  6
CONTINUOUS
 10
-24.364674237
 20
-9.8249576175
 11
-27.2634450416
 21
-8.9154416175
  0
LINE
  5
398
100
AcDbEntity
  8
0
100
AcDbLine
 62
250
  6
CONTINUOUS
 10
-26.2496259313
 20
-10.6364726175
 11
-24.364674237
 21
-11.3561406175
  0
LINE
  5
399
100
AcDbEntity
  8
RACCORDO
100
AcDbLine
 62
7
  6
CONTINUOUS
 10
-32.2784429999
 20
-21.7632432708
 11
-37.6041333067
 21
21.6110235559
  0
LINE
  5
39A
100
AcDbEntity
  8
ASSI
100
AcDbLine
 62
7
  6
CONTINUOUS
 10
-34.6715354552
 20
-0.3990636175
 11
-32.2215354552
 21
-20.352712366
  0
LINE
  5
39B
100
AcDbEntity
  8
RACCORDO
100
AcDbLine
 62
7
  6
CONTINUOUS
 10
-35.9050230686
 20
20.0811447296
 11
-36.0543794076
 21
21.2975544952
  0
LINE
  5
39C
100
AcDbEntity
  8
DRAFT
100
AcDbLine
 62
7
  6
CONTINUOUS
 10
-32.3715354552
 20
-23.5217133483
 11
-32.3715354552
 21
-22.7859733158
  0
LINE
  5
39D
100
AcDbEntity
  8
DRAFT
100
AcDbLine
 62
7
  6
CONTINUOUS
 10
-32.3715354552
 20
21.9878460809
 11
-32.3715354552
 21
22.7235861133
  0
LINE
  5
39E
100
AcDbEntity
  8
ASSI
100
AcDbLine
 62
7
  6
CONTINUOUS
 10
-32.2215354552
 20
21.4597341375
 11
-32.2215354552
 21
19.5545851311
  0
LINE
  5
39F
100
AcDbEntity
  8
ASSI
100
AcDbLine
 62
7
  6
CONTINUOUS
 10
-32.2215354552
 20
-20.352712366
 11
-32.2215354552
 21
-22.2578613724
  0
LINE
  5
3A0
100
AcDbEntity
  8
0
100
AcDbLine
 62
7
  6
CONTINUOUS
 10
-26.0931299728
 20
9.8928663825
 11
-25.5106849728
 21
10.4753113825
  0
LINE
  5
3A1
100
AcDbEntity
  8
0
100
AcDbLine
 62
7
  6
CONTINUOUS
 10
-24.39043234
 20
11.5955640153
 11
-24.3219771056
 21
11.6640192497
  0
LINE
  5
3A2
100
AcDbEntity
  8
0
100
AcDbLine
 62
7
  6
CONTINUOUS
 10
-27.2210938048
 20
8.3448811225
 11
-26.8798734354
 21
8.6861014919
  0
LINE
  5
3A3
100
AcDbEntity
  8
0
100
AcDbLine
 62
7
  6
CONTINUOUS
 10
-25.6731085448
 20
9.8928663825
 11
-25.0906635448
 21
10.4753113825
  0
LINE
  5
3A4
100
AcDbEntity
  8
0
100
AcDbLine
 62
7
  6
CONTINUOUS
 10
-27.2210938048
 20
7.9248596945
 11
-26.235913607
 21
8.9100398923
  0
LINE
  5
3A5
100
AcDbEntity
  8
0
100
AcDbLine
 62
7
  6
CONTINUOUS
 10
-25.2530871167
 20
9.8928663825
 11
-24.6706421167
 21
10.4753113825
  0
LINE
  5
3A6
100
AcDbEntity
  8
0
100
AcDbLine
 62
7
  6
CONTINUOUS
 10
-26.9834682645
 20
7.7424638068
 11
-26.5754705952
 21
8.150461476
  0
LINE
  5
3A7
100
AcDbEntity
  8
0
100
AcDbLine
 62
7
  6
CONTINUOUS
 10
-26.4855600869
 20
8.2403719843
 11
-25.5919537786
 21
9.1339782926
  0
LINE
  5
3A8
100
AcDbEntity
  8
0
100
AcDbLine
 62
7
  6
CONTINUOUS
 10
-24.8330656887
 20
9.8928663825
 11
-24.3219771056
 21
10.4039549657
  0
LINE
  5
3A9
100
AcDbEntity
  8
0
100
AcDbLine
 62
7
  6
CONTINUOUS
 10
-26.674993018
 20
7.6309176252
 11
-26.2630286174
 21
8.0428820258
  0
LINE
  5
3AA
100
AcDbEntity
  8
0
100
AcDbLine
 62
7
  6
CONTINUOUS
 10
-25.8665493251
 20
8.4393613182
 11
-24.9479939503
 21
9.3579166929
  0
LINE
  5
3AB
100
AcDbEntity
  8
0
100
AcDbLine
 62
7
  6
CONTINUOUS
 10
-24.4130442607
 20
9.8928663825
 11
-24.3219771056
 21
9.9839335376
  0
LINE
  5
3AC
100
AcDbEntity
  8
0
100
AcDbLine
 62
7
  6
CONTINUOUS
 10
-26.3665177715
 20
7.5193714437
 11
-25.9505866396
 21
7.9353025756
  0
LINE
  5
3AD
100
AcDbEntity
  8
0
100
AcDbLine
 62
7
  6
CONTINUOUS
 10
-25.4182151046
 20
8.4676741106
 11
-24.3219771056
 21
9.5639121096
  0
LINE
  5
3AE
100
AcDbEntity
  8
0
100
AcDbLine
 62
7
  6
CONTINUOUS
 10
-26.058042525
 20
7.4078252622
 11
-25.6381446618
 21
7.8277231254
  0
LINE
  5
3AF
100
AcDbEntity
  8
0
100
AcDbLine
 62
7
  6
CONTINUOUS
 10
-25.4182151046
 20
8.0476526826
 11
-24.9364288948
 21
8.5294388923
  0
LINE
  5
3B0
100
AcDbEntity
  8
0
100
AcDbLine
 62
7
  6
CONTINUOUS
 10
-24.6172848449
 20
8.8485829422
 11
-24.3219771056
 21
9.1438906816
  0
LINE
  5
3B1
100
AcDbEntity
  8
0
100
AcDbLine
 62
250
  6
CONTINUOUS
 10
-22.5012296042
 20
8.9752220256
 11
-22.2298423888
 21
9.1245076687
  0
LINE
  5
3B2
100
AcDbEntity
  8
RACCORDO
100
AcDbLine
 62
250
  6
CONTINUOUS
 10
-8.8540830487
 20
13.4285852817
 11
-8.717539566
 21
13.4855884355
  0
LINE
  5
3B3
100
AcDbEntity
  8
ASSI
100
AcDbLine
 62
250
  6
CONTINUOUS
 10
-8.8540830487
 20
13.4285852817
 11
-8.717539566
 21
13.4855884355
  0
LINE
  5
3B4
100
AcDbEntity
  8
RACCORDO
100
AcDbLine
 62
250
  6
CONTINUOUS
 10
-8.717539566
 20
13.4855884355
 11
-8.6169148114
 21
13.5273913046
  0
LINE
  5
3B5
100
AcDbEntity
  8
ASSI
100
AcDbLine
 62
250
  6
CONTINUOUS
 10
-8.717539566
 20
13.4855884355
 11
-8.6169148114
 21
13.5273913046
  0
LINE
  5
3B6
100
AcDbEntity
  8
RACCORDO
100
AcDbLine
 62
250
  6
CONTINUOUS
 10
-8.6169148114
 20
13.5273913046
 11
-8.5517178644
 21
13.5542896606
  0
LINE
  5
3B7
100
AcDbEntity
  8
ASSI
100
AcDbLine
 62
250
  6
CONTINUOUS
 10
-8.6169148114
 20
13.5273913046
 11
-8.5517178644
 21
13.5542896606
  0
LINE
  5
3B8
100
AcDbEntity
  8
RACCORDO
100
AcDbLine
 62
250
  6
CONTINUOUS
 10
-8.5517178644
 20
13.5542896606
 11
-8.4882067858
 21
13.5802976177
  0
LINE
  5
3B9
100
AcDbEntity
  8
ASSI
100
AcDbLine
 62
250
  6
CONTINUOUS
 10
-8.5517178644
 20
13.5542896606
 11
-8.4882067858
 21
13.5802976177
  0
LINE
  5
3BA
100
AcDbEntity
  8
RACCORDO
100
AcDbLine
 62
250
  6
CONTINUOUS
 10
-8.4882067858
 20
13.5802976177
 11
-8.4268388927
 21
13.6051939254
  0
LINE
  5
3BB
100
AcDbEntity
  8
ASSI
100
AcDbLine
 62
250
  6
CONTINUOUS
 10
-8.4882067858
 20
13.5802976177
 11
-8.4268388927
 21
13.6051939254
  0
LWPOLYLINE
  5
3BC
100
AcDbEntity
  8
RACCORDO
100
AcDbPolyline
 62
250
  6
CONTINUOUS
 90
8
 70
0
 10
-8.4268388927
 20
13.6051939254
 10
-8.3678009875
 20
13.6288601869
 10
-8.3392052385
 20
13.6402111435
 10
-8.3112254462
 20
13.651229274
 10
-8.2839130646
 20
13.66189849
 10
-8.2572852415
 20
13.6722113682
 10
-8.2313249288
 20
13.6821681348
 10
-8.2060320698
 20
13.6917664867
  0
LWPOLYLINE
  5
3BD
100
AcDbEntity
  8
ASSI
100
AcDbPolyline
 62
250
  6
CONTINUOUS
 90
8
 70
0
 10
-8.4268388927
 20
13.6051939254
 10
-8.3678009875
 20
13.6288601869
 10
-8.3392052385
 20
13.6402111435
 10
-8.3112254462
 20
13.651229274
 10
-8.2839130646
 20
13.66189849
 10
-8.2572852415
 20
13.6722113682
 10
-8.2313249288
 20
13.6821681348
 10
-8.2060320698
 20
13.6917664867
  0
LINE
  5
3BE
100
AcDbEntity
  8
0
100
AcDbLine
 62
250
  6
CONTINUOUS
 10
-24.364674237
 20
-8.0781596175
 11
-24.9433719198
 21
-8.2349566175
  0
LINE
  5
3BF
100
AcDbEntity
  8
0
100
AcDbLine
 62
250
  6
CONTINUOUS
 10
-25.3911664861
 20
-8.3559196175
 11
-26.4669367212
 21
-8.6340496175
  0
LINE
  5
3C0
100
AcDbEntity
  8
DRAFT
100
AcDbLine
 62
7
  6
CONTINUOUS
 10
-7.8715354552
 20
-6.6792486751
 11
-7.8752960356
 21
-6.6792814932
  0
LINE
  5
3C1
100
AcDbEntity
  8
ASSI
100
AcDbLine
 62
7
  6
CONTINUOUS
 10
-7.8715354552
 20
-6.6792486751
 11
-7.8752960356
 21
-6.6792814932
  0
LINE
  5
3C2
100
AcDbEntity
  8
0
100
AcDbLine
 62
250
  6
CONTINUOUS
 10
-27.2295775344
 20
-7.2624916678
 11
-24.3646747113
 21
-7.2624916678
  0
LINE
  5
3C3
100
AcDbEntity
  8
0
100
AcDbLine
 62
250
  6
CONTINUOUS
 10
-25.9738416849
 20
-6.6797255953
 11
-26.7696105877
 21
-6.6797255953
  0
LINE
  5
3C4
100
AcDbEntity
  8
0
100
AcDbLine
 62
250
  6
CONTINUOUS
 10
-24.3646747113
 20
-6.6596557067
 11
-25.4990931918
 21
-6.6596557067
  0
LINE
  5
3C5
100
AcDbEntity
  8
DRAFT
100
AcDbLine
 62
7
  6
CONTINUOUS
 10
-7.8715354552
 20
-8.5188785598
 11
-7.8752960357
 21
-8.5188457417
  0
LINE
  5
3C6
100
AcDbEntity
  8
ASSI
100
AcDbLine
 62
7
  6
CONTINUOUS
 10
-7.8715354552
 20
-8.5188785598
 11
-7.8752960357
 21
-8.5188457417
  0
LINE
  5
3C7
100
AcDbEntity
  8
RACCORDO
100
AcDbLine
 62
7
  6
CONTINUOUS
 10
-30.8715354552
 20
-22.44905029
 11
-30.8715354552
 21
-24.7990636175
  0
LINE
  5
3C8
100
AcDbEntity
  8
RACCORDO
100
AcDbLine
 62
7
  6
CONTINUOUS
 10
-30.8715354552
 20
21.6509230551
 11
-30.8715354552
 21
24.0009363825
  0
LINE
  5
3C9
100
AcDbEntity
  8
RACCORDO
100
AcDbLine
 62
7
  6
CONTINUOUS
 10
-29.8715354552
 20
23.7465687793
 11
-29.8715354552
 21
23.4452739498
  0
LINE
  5
3CA
100
AcDbEntity
  8
ASSI
100
AcDbLine
 62
7
  6
CONTINUOUS
 10
-29.8715354552
 20
17.2726354313
 11
-29.8715354552
 21
-18.0707626662
  0
LINE
  5
3CB
100
AcDbEntity
  8
RACCORDO
100
AcDbLine
 62
7
  6
CONTINUOUS
 10
-29.8715354552
 20
-24.2434011848
 11
-29.8715354552
 21
-24.5446960142
  0
LINE
  5
3CC
100
AcDbEntity
  8
RACCORDO
100
AcDbLine
 62
7
  6
CONTINUOUS
 10
-29.8715354552
 20
-22.7903367497
 11
-29.8715354552
 21
21.9922095147
  0
LINE
  5
3CD
100
AcDbEntity
  8
0
100
AcDbLine
 62
250
  6
CONTINUOUS
 10
-22.5012296042
 20
10.7666507394
 11
-22.7726168196
 21
10.4680794532
  0
LINE
  5
3CE
100
AcDbEntity
  8
0
100
AcDbLine
 62
250
  6
CONTINUOUS
 10
-22.7726168196
 20
8.6766507394
 11
-22.5012296042
 21
8.9752220256
  0
LINE
  5
3CF
100
AcDbEntity
  8
0
100
AcDbLine
 62
7
  6
CONTINUOUS
 10
-25.7495672784
 20
7.2962790807
 11
-24.9364288948
 21
8.1094174643
  0
LINE
  5
3D0
100
AcDbEntity
  8
0
100
AcDbLine
 62
7
  6
CONTINUOUS
 10
-25.4410920319
 20
7.1847328992
 11
-24.9364288948
 21
7.6893960363
  0
LINE
  5
3D1
100
AcDbEntity
  8
0
100
AcDbLine
 62
7
  6
CONTINUOUS
 10
-27.2210938048
 20
4.9847096983
 11
-26.8115231206
 21
5.3942803825
  0
LINE
  5
3D2
100
AcDbEntity
  8
0
100
AcDbLine
 62
7
  6
CONTINUOUS
 10
-25.1326167854
 20
7.0731867177
 11
-24.6984396201
 21
7.507363883
  0
LINE
  5
3D3
100
AcDbEntity
  8
0
100
AcDbLine
 62
7
  6
CONTINUOUS
 10
-27.0141076925
 20
4.7716743825
 11
-26.3915016925
 21
5.3942803825
  0
LINE
  5
3D4
100
AcDbEntity
  8
0
100
AcDbLine
 62
7
  6
CONTINUOUS
 10
-24.8241415389
 20
6.9616405362
 11
-24.3879825247
 21
7.3977995504
  0
LINE
  5
3D5
100
AcDbEntity
  8
0
100
AcDbLine
 62
7
  6
CONTINUOUS
 10
-26.5940862645
 20
4.7716743825
 11
-25.9714802645
 21
5.3942803825
  0
LINE
  5
3D6
100
AcDbEntity
  8
0
100
AcDbLine
 62
7
  6
CONTINUOUS
 10
-24.5156662924
 20
6.8500943547
 11
-24.3219771056
 21
7.0437835415
  0
LINE
  5
3D7
100
AcDbEntity
  8
0
100
AcDbLine
 62
7
  6
CONTINUOUS
 10
-27.148722594
 20
3.797016625
 11
-26.5909491114
 21
4.3547901076
  0
LINE
  5
3D8
100
AcDbEntity
  8
0
100
AcDbLine
 62
7
  6
CONTINUOUS
 10
-26.1740648365
 20
4.7716743825
 11
-25.5514588365
 21
5.3942803825
  0
LINE
  5
3D9
100
AcDbEntity
  8
0
100
AcDbLine
 62
7
  6
CONTINUOUS
 10
-24.8037623156
 20
6.1419769034
 11
-24.4784598365
 21
6.4672793825
  0
LINE
  5
3DA
100
AcDbEntity
  8
0
100
AcDbLine
 62
7
  6
CONTINUOUS
 10
-27.2168912727
 20
3.3088265183
 11
-26.1561047332
 21
4.3696130578
  0
LINE
  5
3DB
100
AcDbEntity
  8
0
100
AcDbLine
 62
7
  6
CONTINUOUS
 10
-25.7540434085
 20
4.7716743825
 11
-25.1314374085
 21
5.3942803825
  0
LINE
  5
3DC
100
AcDbEntity
  8
0
100
AcDbLine
 62
7
  6
CONTINUOUS
 10
-24.8037623156
 20
5.7219554754
 11
-24.3219771056
 21
6.2037406854
  0
LINE
  5
3DD
100
AcDbEntity
  8
0
100
AcDbLine
 62
250
  6
CONTINUOUS
 10
-21.1442934424
 20
8.2287933118
 11
-21.4156806861
 21
8.0795076687
  0
LINE
  5
3DE
100
AcDbEntity
  8
0
100
AcDbLine
 62
250
  6
CONTINUOUS
 10
-22.5012296042
 20
7.3330792041
 11
-22.2298423888
 21
7.4823648472
  0
LINE
  5
3DF
100
AcDbEntity
  8
0
100
AcDbLine
 62
250
  6
CONTINUOUS
 10
-21.1442934424
 20
6.5866507394
 11
-21.4156806861
 21
6.4373648472
  0
LWPOLYLINE
  5
3E0
100
AcDbEntity
  8
0
100
AcDbPolyline
 62
250
  6
CONTINUOUS
 90
40
 70
0
 10
-25.2032199809
 20
-5.3720906405
 10
-25.2301748371
 20
-5.3795105171
 10
-25.2506253622
 20
-5.3853049986
 10
-25.2710236583
 20
-5.3912809492
 10
-25.2913547322
 20
-5.3974794426
 10
-25.3116035904
 20
-5.4039415528
 10
-25.3325355479
 20
-5.4109725293
 10
-25.353349747
 20
-5.418348008
 10
-25.3740333273
 20
-5.4260837
 10
-25.3945734285
 20
-5.4341953163
 10
-25.4111674619
 20
-5.4410832057
 10
-25.4276459606
 20
-5.4482436417
 10
-25.4439968559
 20
-5.4556899856
 10
-25.4602080791
 20
-5.4634355988
 10
-25.4762675613
 20
-5.4714938427
 10
-25.4920303202
 20
-5.4798075631
 10
-25.5076115318
 20
-5.4884583971
 10
-25.5229907459
 20
-5.497462865
 10
-25.5381475121
 20
-5.5068374872
 10
-25.5530613802
 20
-5.5165987839
 10
-25.564985388
 20
-5.5248265466
 10
-25.5767164631
 20
-5.533329469
 10
-25.5882355473
 20
-5.5421165029
 10
-25.5995235829
 20
-5.5511966002
 10
-25.610561512
 20
-5.5605787124
 10
-25.6213302765
 20
-5.5702717915
 10
-25.630077958
 20
-5.5785870245
 10
-25.6386093887
 20
-5.587126562
 10
-25.6469081933
 20
-5.5958928526
 10
-25.6549579963
 20
-5.6048883448
 10
-25.6627424222
 20
-5.6141154873
 10
-25.6702450958
 20
-5.6235767287
 10
-25.6774496417
 20
-5.6332745175
 10
-25.6842689363
 20
-5.6431034832
 10
-25.6907638105
 20
-5.6531553326
 10
-25.6969177785
 20
-5.663418945
 10
-25.7027143542
 20
-5.6738831998
 10
-25.7081370515
 20
-5.6845369766
 10
-25.7131693845
 20
-5.6953691547
 10
-25.7177948671
 20
-5.7063686135
  0
LWPOLYLINE
  5
3E1
100
AcDbEntity
  8
0
100
AcDbPolyline
 62
250
  6
CONTINUOUS
 90
3
 70
0
 10
-24.3646747113
 20
-5.1505653383
 10
-24.4299782923
 20
-5.1680999658
 10
-24.4953611078
 20
-5.1853388929
  0
LWPOLYLINE
  5
3E2
100
AcDbEntity
  8
0
100
AcDbPolyline
 62
250
  6
CONTINUOUS
 90
6
 70
0
 10
-24.4953611078
 20
-5.1853388929
 10
-24.7570976097
 20
-5.2535208956
 10
-24.8552304279
 20
-5.2791534251
 10
-24.9533183766
 20
-5.3049578025
 10
-25.0513337311
 20
-5.3310342684
 10
-25.2032199809
 20
-5.3720906405
  0
LWPOLYLINE
  5
3E3
100
AcDbEntity
  8
0
100
AcDbPolyline
 62
250
  6
CONTINUOUS
 90
56
 70
0
 10
-26.4243093142
 20
-5.8636443496
 10
-26.4089412699
 20
-5.8635584018
 10
-26.393570043
 20
-5.8637892191
 10
-26.3782047726
 20
-5.8643583896
 10
-26.3628545983
 20
-5.8652875013
 10
-26.3475286593
 20
-5.8665981423
 10
-26.332236095
 20
-5.8683119007
 10
-26.319165459
 20
-5.8701178987
 10
-26.3061414205
 20
-5.8722504777
 10
-26.2931793528
 20
-5.8747242944
 10
-26.280294629
 20
-5.8775540057
 10
-26.2675026223
 20
-5.8807542682
 10
-26.2548187059
 20
-5.8843397387
 10
-26.242258253
 20
-5.888325074
 10
-26.2313744374
 20
-5.8921532425
 10
-26.2206094528
 20
-5.896302051
 10
-26.2099756934
 20
-5.9007743528
 10
-26.1994855533
 20
-5.9055730014
 10
-26.1891138658
 20
-5.9107182562
 10
-26.1789085512
 20
-5.9161877358
 10
-26.1688788404
 20
-5.9219740837
 10
-26.1590339644
 20
-5.928069943
 10
-26.1493802174
 20
-5.9344705317
 10
-26.1399309184
 20
-5.9411687804
 10
-26.1306963238
 20
-5.9481599977
 10
-26.1216866897
 20
-5.9554394922
 10
-26.1129398586
 20
-5.962978694
 10
-26.1044404914
 20
-5.9707959649
 10
-26.0962023006
 20
-5.9788875546
 10
-26.0882389988
 20
-5.9872497129
 10
-26.0805976966
 20
-5.9958369895
 10
-26.0732486797
 20
-6.0046763561
 10
-26.0661982789
 20
-6.0137555321
 10
-26.0594528253
 20
-6.0230622366
 10
-26.0530106211
 20
-6.0325929233
 10
-26.0468746734
 20
-6.0423238417
 10
-26.0410393618
 20
-6.0522395614
 10
-26.0354990658
 20
-6.0623246525
 10
-26.0294563724
 20
-6.0741710005
 10
-26.0237896268
 20
-6.0862055817
 10
-26.0184883018
 20
-6.0984110478
 10
-26.0135418705
 20
-6.1107700504
 10
-26.0089398058
 20
-6.123265241
 10
-26.0046715807
 20
-6.1358792712
 10
-26.0007266681
 20
-6.1485947927
 10
-25.9964636109
 20
-6.1637448177
 10
-25.992621092
 20
-6.1790004123
 10
-25.9891820527
 20
-6.1943494277
 10
-25.9861294341
 20
-6.2097797149
 10
-25.9834461776
 20
-6.2252791249
 10
-25.9811152243
 20
-6.240835509
 10
-25.9787843662
 20
-6.2593566513
 10
-25.9769086499
 20
-6.2779282517
 10
-25.9754710089
 20
-6.29653763
 10
-25.9744543761
 20
-6.3151721059
 10
-25.9738416849
 20
-6.3338189993
  0
LINE
  5
3E4
100
AcDbEntity
  8
0
100
AcDbLine
 62
250
  6
CONTINUOUS
 10
-25.7177948671
 20
-5.7063686135
 11
-25.734924071
 21
-5.7063686135
  0
LINE
  5
3E5
100
AcDbEntity
  8
RACCORDO
100
AcDbLine
 62
250
  6
CONTINUOUS
 10
-34.263154701
 20
-5.5990636175
 11
-34.0330557385
 21
-5.5990636175
  0
LINE
  5
3E6
100
AcDbEntity
  8
RACCORDO
100
AcDbLine
 62
7
  6
CONTINUOUS
 10
-34.2877116132
 20
-5.3990636175
 11
-34.0576126507
 21
-5.3990636175
  0
LINE
  5
3E7
100
AcDbEntity
  8
RACCORDO
100
AcDbLine
 62
250
  6
CONTINUOUS
 10
-34.3122685254
 20
-5.1990636175
 11
-34.0821695628
 21
-5.1990636175
  0
LINE
  5
3E8
100
AcDbEntity
  8
DRAFT
100
AcDbLine
 62
7
  6
CONTINUOUS
 10
-7.8715354552
 20
-5.4188785598
 11
-7.8752960355
 21
-5.4188457417
  0
LINE
  5
3E9
100
AcDbEntity
  8
ASSI
100
AcDbLine
 62
7
  6
CONTINUOUS
 10
-7.8715354552
 20
-5.4188785598
 11
-7.8752960355
 21
-5.4188457417
  0
LWPOLYLINE
  5
3EA
100
AcDbEntity
  8
0
100
AcDbPolyline
 62
250
  6
CONTINUOUS
 90
61
 70
0
 10
-13.4044117592
 20
-15.2300856175
 10
-13.3702172166
 20
-15.2559457984
 10
-13.3353703126
 20
-15.2809313393
 10
-13.2998976395
 20
-15.3050229348
 10
-13.2638251367
 20
-15.3282022327
 10
-13.2271761313
 20
-15.3504546942
 10
-13.1899732977
 20
-15.3717667341
 10
-13.1522397089
 20
-15.3921248996
 10
-13.1140000339
 20
-15.4115162688
 10
-13.0752793404
 20
-15.429928052
 10
-13.0361027829
 20
-15.4473478284
 10
-12.9964958634
 20
-15.463764651
 10
-12.9564841703
 20
-15.4791679414
 10
-12.9160934315
 20
-15.4935474403
 10
-12.8753499307
 20
-15.5068941637
 10
-12.8342800909
 20
-15.5191994468
 10
-12.792910428
 20
-15.5304549681
 10
-12.7512678284
 20
-15.5406537795
 10
-12.7093792717
 20
-15.5497892763
 10
-12.6672718092
 20
-15.5578551995
 10
-12.6249727806
 20
-15.5648466717
 10
-12.5825095978
 20
-15.5707591613
 10
-12.5399097165
 20
-15.5755884877
 10
-12.4972007683
 20
-15.5793318742
 10
-12.4544104286
 20
-15.5819868955
 10
-12.4115663906
 20
-15.5835514793
 10
-12.3686964171
 20
-15.5840249654
 10
-12.3258282884
 20
-15.583407047
 10
-12.2829897754
 20
-15.5816977707
 10
-12.2402086105
 20
-15.5788985969
 10
-12.1975125162
 20
-15.5750113395
 10
-12.1549291787
 20
-15.5700381642
 10
-12.1124861383
 20
-15.5639826433
 10
-12.0702108985
 20
-15.5568487008
 10
-12.0281308997
 20
-15.5486406086
 10
-11.9862733293
 20
-15.5393640303
 10
-11.9446653119
 20
-15.5290249773
 10
-11.9033338819
 20
-15.5176298031
 10
-11.8623057155
 20
-15.5051862288
 10
-11.8216073991
 20
-15.4917023176
 10
-11.781265404
 20
-15.4771864674
 10
-11.741305741
 20
-15.4616484138
 10
-11.7017543056
 20
-15.4450982272
 10
-11.6626368518
 20
-15.4275463011
 10
-11.6239785678
 20
-15.4090043224
 10
-11.5858045
 20
-15.389484301
 10
-11.5481395335
 20
-15.3689985642
 10
-11.5110079085
 20
-15.3475607067
 10
-11.4744337036
 20
-15.3251846407
 10
-11.4384407959
 20
-15.3018845616
 10
-11.403052256
 20
-15.2776757989
 10
-11.3682909529
 20
-15.2525739658
 10
-11.334179595
 20
-15.2265950181
 10
-11.3007402479
 20
-15.1997562829
 10
-11.2679948166
 20
-15.17207543
 10
-11.2359647885
 20
-15.1435701772
 10
-11.2046699803
 20
-15.1142584333
 10
-11.1741297911
 20
-15.0841581551
 10
-11.144364063
 20
-15.0532883665
 10
-11.1153944113
 20
-15.0216723604
 10
-11.0872428942
 20
-14.9893344972
  0
LINE
  5
3EB
100
AcDbEntity
  8
0
100
AcDbLine
 62
250
  6
CONTINUOUS
 10
-17.4609391804
 20
-16.2746856175
 11
-22.4704540908
 21
-11.3380536175
  0
LWPOLYLINE
  5
3EC
100
AcDbEntity
  8
0
100
AcDbPolyline
 62
7
  6
CONTINUOUS
 90
4
 70
0
 43
0.3500000006
 10
-27.3683374557
 20
43.1675466156
 10
-27.3683374557
 20
44.0246890869
 10
-26.9397662201
 20
44.4532580566
 10
-26.2969082336
 20
44.4532580566
  0
LINE
  5
3ED
100
AcDbEntity
  8
0
100
AcDbLine
 62
250
  6
CONTINUOUS
 10
-27.2636189886
 20
-13.1865876175
 11
-27.2636189886
 21
-13.7918596175
  0
LINE
  5
3EE
100
AcDbEntity
  8
0
100
AcDbLine
 62
250
  6
CONTINUOUS
 10
-27.2634450416
 20
-16.4011836175
 11
-27.2634450416
 21
-15.7436726175
  0
LINE
  5
3EF
100
AcDbEntity
  8
0
100
AcDbLine
 62
250
  6
CONTINUOUS
 10
-27.2634450416
 20
-14.6213346175
 11
-27.2634450416
 21
-14.0164766175
  0
LINE
  5
3F0
100
AcDbEntity
  8
0
100
AcDbLine
 62
250
  6
CONTINUOUS
 10
-27.2634450416
 20
-12.5989296175
 11
-27.2634450416
 21
-11.9941586175
  0
LINE
  5
3F1
100
AcDbEntity
  8
0
100
AcDbLine
 62
250
  6
CONTINUOUS
 10
-27.2634450416
 20
-10.7900086175
 11
-27.2634450416
 21
-10.1911516175
  0
LINE
  5
3F2
100
AcDbEntity
  8
0
100
AcDbLine
 62
250
  6
CONTINUOUS
 10
-27.2634450416
 20
-8.9154416175
 11
-27.2634450416
 21
-8.3299136175
  0
LINE
  5
3F3
100
AcDbEntity
  8
0
100
AcDbLine
 62
7
  6
CONTINUOUS
 10
-27.2210938048
 20
14.5924763825
 11
-27.2210938048
 21
13.8534253825
  0
LINE
  5
3F4
100
AcDbEntity
  8
0
100
AcDbLine
 62
7
  6
CONTINUOUS
 10
-27.2210938048
 20
8.5674413825
 11
-27.2210938048
 21
7.8283903825
  0
LINE
  5
3F5
100
AcDbEntity
  8
0
100
AcDbLine
 62
7
  6
CONTINUOUS
 10
-27.2210938048
 20
3.1887613825
 11
-27.2210938048
 21
2.3013313825
  0
LINE
  5
3F6
100
AcDbEntity
  8
0
100
AcDbLine
 62
7
  6
CONTINUOUS
 10
-27.2210938048
 20
4.7716743825
 11
-27.2210938048
 21
5.3942803825
  0
LINE
  5
3F7
100
AcDbEntity
  8
0
100
AcDbLine
 62
7
  6
CONTINUOUS
 10
-27.2210938048
 20
9.8928663825
 11
-27.2210938048
 21
10.8166803825
  0
LINE
  5
3F8
100
AcDbEntity
  8
0
100
AcDbLine
 62
7
  6
CONTINUOUS
 10
-27.2210938048
 20
11.9292953825
 11
-27.2210938048
 21
12.5117393825
  0
LINE
  5
3F9
100
AcDbEntity
  8
0
100
AcDbLine
 62
7
  6
CONTINUOUS
 10
-27.2174757642
 20
3.295372127
 11
-27.2210942343
 21
3.1887613909
  0
LWPOLYLINE
  5
3FA
100
AcDbEntity
  8
0
100
AcDbPolyline
 62
7
  6
CONTINUOUS
 90
58
 70
0
 10
-26.7393080928
 20
3.2871534643
 10
-26.7368085461
 20
3.3083596083
 10
-26.7345402948
 20
3.3295911195
 10
-26.7323497981
 20
3.3508352543
 10
-26.7300835152
 20
3.3720792694
 10
-26.7284567179
 20
3.386218939
 10
-26.7266837088
 20
3.4003416911
 10
-26.7247199777
 20
3.4144363128
 10
-26.7225210141
 20
3.4284915911
 10
-26.7200423076
 20
3.4424963131
 10
-26.7172393479
 20
3.4564392661
 10
-26.7148885815
 20
3.4668886465
 10
-26.7123131169
 20
3.4772861443
 10
-26.7094973022
 20
3.4876212494
 10
-26.7064254853
 20
3.4978834514
 10
-26.7030655547
 20
3.5081098602
 10
-26.6994165303
 20
3.5182369598
 10
-26.6954635714
 20
3.5282496523
 10
-26.6911918375
 20
3.5381328399
 10
-26.6875555997
 20
3.5458914153
 10
-26.6836984373
 20
3.5535431673
 10
-26.6796105618
 20
3.5610727878
 10
-26.6752821847
 20
3.5684649683
 10
-26.6707035176
 20
3.5757044008
 10
-26.6658912977
 20
3.582743985
 10
-26.6608301229
 20
3.5896090555
 10
-26.6555286669
 20
3.5962915721
 10
-26.6499956033
 20
3.6027834943
 10
-26.6442396058
 20
3.6090767817
 10
-26.6367007712
 20
3.6167000279
 10
-26.6288531267
 20
3.6240047268
 10
-26.6207266495
 20
3.6309991244
 10
-26.6123513168
 20
3.637691467
 10
-26.603701884
 20
3.6441279457
 10
-26.5948463987
 20
3.6502756084
 10
-26.5858003493
 20
3.6561430221
 10
-26.5765792239
 20
3.6617387533
 10
-26.5659097047
 20
3.6677745374
 10
-26.5550487933
 20
3.6734693995
 10
-26.5440110523
 20
3.6788219795
 10
-26.5328110444
 20
3.6838309174
 10
-26.5214633321
 20
3.6884948533
 10
-26.5099824781
 20
3.6928124272
 10
-26.4983830449
 20
3.6967822791
 10
-26.4881727786
 20
3.699962048
 10
-26.4778885377
 20
3.7028757542
 10
-26.4675355855
 20
3.7055232601
 10
-26.4571191857
 20
3.7079044281
 10
-26.4466590855
 20
3.7100183703
 10
-26.4361492278
 20
3.7118777326
 10
-26.4255978846
 20
3.7134937017
 10
-26.4150133278
 20
3.7148774641
 10
-26.400857647
 20
3.7163826834
 10
-26.3866671001
 20
3.7175316068
 10
-26.3724511863
 20
3.7183610781
 10
-26.3582194044
 20
3.7189079414
 10
-26.3439812535
 20
3.7192090404
 10
-26.3297462325
 20
3.7193012193
  0
LINE
  5
3FB
100
AcDbEntity
  8
0
100
AcDbLine
 62
250
  6
CONTINUOUS
 10
-22.7726168196
 20
7.0345079179
 11
-22.5012296042
 21
7.3330792041
  0
LINE
  5
3FC
100
AcDbEntity
  8
0
100
AcDbLine
 62
250
  6
CONTINUOUS
 10
-20.8729061988
 20
8.5273650963
 11
-21.1442934424
 21
8.2287933118
  0
LINE
  5
3FD
100
AcDbEntity
  8
0
100
AcDbLine
 62
7
  6
CONTINUOUS
 10
-27.2210940871
 20
2.8846022759
 11
-26.729571196
 21
3.3761251669
  0
LINE
  5
3FE
100
AcDbEntity
  8
0
100
AcDbLine
 62
7
  6
CONTINUOUS
 10
-26.3886621121
 20
3.7170342509
 11
-25.841325689
 21
4.264370674
  0
LINE
  5
3FF
100
AcDbEntity
  8
0
100
AcDbLine
 62
7
  6
CONTINUOUS
 10
-25.3340219804
 20
4.7716743825
 11
-24.3219771056
 21
5.7837192574
  0
LINE
  5
400
100
AcDbEntity
  8
0
100
AcDbLine
 62
7
  6
CONTINUOUS
 10
-27.2210938838
 20
2.4645810512
 11
-26.7393085637
 21
2.9463663712
  0
LINE
  5
401
100
AcDbEntity
  8
0
100
AcDbLine
 62
7
  6
CONTINUOUS
 10
-26.0476311847
 20
3.6380437502
 11
-25.6276860595
 21
4.0579888754
  0
LINE
  5
402
100
AcDbEntity
  8
0
100
AcDbLine
 62
7
  6
CONTINUOUS
 10
-24.9140005524
 20
4.7716743825
 11
-24.3219771056
 21
5.3636978294
  0
LINE
  5
403
100
AcDbEntity
  8
0
100
AcDbLine
 62
7
  6
CONTINUOUS
 10
-26.9643221244
 20
2.3013313825
 11
-26.3417161244
 21
2.9239373825
  0
LINE
  5
404
100
AcDbEntity
  8
0
100
AcDbLine
 62
7
  6
CONTINUOUS
 10
-25.9260069336
 20
3.3396465733
 11
-25.5017036555
 21
3.7639498514
  0
LINE
  5
405
100
AcDbEntity
  8
0
100
AcDbLine
 62
7
  6
CONTINUOUS
 10
-24.4939791244
 20
4.7716743825
 11
-24.3219771056
 21
4.9436764013
  0
LINE
  5
406
100
AcDbEntity
  8
0
100
AcDbLine
 62
7
  6
CONTINUOUS
 10
-26.5443006964
 20
2.3013313825
 11
-25.9216946964
 21
2.9239373825
  0
LINE
  5
407
100
AcDbEntity
  8
0
100
AcDbLine
 62
7
  6
CONTINUOUS
 10
-25.920184165
 20
2.9254479139
 11
-25.446523274
 21
3.3991088049
  0
LINE
  5
408
100
AcDbEntity
  8
0
100
AcDbLine
 62
7
  6
CONTINUOUS
 10
-26.1242792683
 20
2.3013313825
 11
-25.4383979553
 21
2.9872126956
  0
LINE
  5
409
100
AcDbEntity
  8
0
100
AcDbLine
 62
7
  6
CONTINUOUS
 10
-25.7042578403
 20
2.3013313825
 11
-25.0816518403
 21
2.9239373825
  0
LINE
  5
40A
100
AcDbEntity
  8
0
100
AcDbLine
 62
7
  6
CONTINUOUS
 10
-25.2842364123
 20
2.3013313825
 11
-24.6616304123
 21
2.9239373825
  0
LWPOLYLINE
  5
40B
100
AcDbEntity
  8
RACCORDO
100
AcDbPolyline
 62
250
  6
CONTINUOUS
 90
43
 70
0
 10
-8.2060310906
 20
13.6917663166
 10
-8.1815916905
 20
13.7062643485
 10
-8.1571911
 20
13.7214175516
 10
-8.1328293191
 20
13.7372110523
 10
-8.1084556081
 20
13.7536429415
 10
-8.0841207068
 20
13.770682704
 10
-8.0599768335
 20
13.7882725907
 10
-8.0360165352
 20
13.8064122044
 10
-8.0122472651
 20
13.8250672203
 10
-7.9888436007
 20
13.8441318241
 10
-7.9658086732
 20
13.8636011474
 10
-7.9431393514
 20
13.8834466302
 10
-7.9210008195
 20
13.9035326845
 10
-7.8994013409
 20
13.923853281
 10
-7.8783326522
 20
13.9443858168
 10
-7.8579351471
 20
13.9649781654
 10
-7.8382290274
 20
13.9856133771
 10
-7.8191940913
 20
14.0062881022
 10
-7.8009101263
 20
14.026879612
 10
-7.783394501
 20
14.0473698227
 10
-7.7666298467
 20
14.0677643575
 10
-7.7506438455
 20
14.0879832359
 10
-7.7354412991
 20
14.1080217563
 10
-7.7210174058
 20
14.127877437
 10
-7.7073854424
 20
14.1474794479
 10
-7.6945510094
 20
14.1668242883
 10
-7.6825085063
 20
14.1859140164
 10
-7.6712544076
 20
14.2046915536
 10
-7.660794844
 20
14.2231519298
 10
-7.6511236848
 20
14.2413039464
 10
-7.6422190132
 20
14.259115273
 10
-7.6340833203
 20
14.2765842582
 10
-7.6267141149
 20
14.2937195732
 10
-7.6200820062
 20
14.3105067237
 10
-7.6141867065
 20
14.326948573
 10
-7.6090285035
 20
14.3430508682
 10
-7.6045788705
 20
14.3588048157
 10
-7.6008372463
 20
14.3742146892
 10
-7.5978041921
 20
14.3892860586
 10
-7.5954528644
 20
14.4040131377
 10
-7.5937743155
 20
14.4183978232
 10
-7.5927774931
 20
14.4324491702
 10
-7.5924623973
 20
14.4461726145
  0
LWPOLYLINE
  5
40C
100
AcDbEntity
  8
ASSI
100
AcDbPolyline
 62
250
  6
CONTINUOUS
 90
43
 70
0
 10
-8.2060310906
 20
13.6917663166
 10
-8.1815916905
 20
13.7062643485
 10
-8.1571911
 20
13.7214175516
 10
-8.1328293191
 20
13.7372110523
 10
-8.1084556081
 20
13.7536429415
 10
-8.0841207068
 20
13.770682704
 10
-8.0599768335
 20
13.7882725907
 10
-8.0360165352
 20
13.8064122044
 10
-8.0122472651
 20
13.8250672203
 10
-7.9888436007
 20
13.8441318241
 10
-7.9658086732
 20
13.8636011474
 10
-7.9431393514
 20
13.8834466302
 10
-7.9210008195
 20
13.9035326845
 10
-7.8994013409
 20
13.923853281
 10
-7.8783326522
 20
13.9443858168
 10
-7.8579351471
 20
13.9649781654
 10
-7.8382290274
 20
13.9856133771
 10
-7.8191940913
 20
14.0062881022
 10
-7.8009101263
 20
14.026879612
 10
-7.783394501
 20
14.0473698227
 10
-7.7666298467
 20
14.0677643575
 10
-7.7506438455
 20
14.0879832359
 10
-7.7354412991
 20
14.1080217563
 10
-7.7210174058
 20
14.127877437
 10
-7.7073854424
 20
14.1474794479
 10
-7.6945510094
 20
14.1668242883
 10
-7.6825085063
 20
14.1859140164
 10
-7.6712544076
 20
14.2046915536
 10
-7.660794844
 20
14.2231519298
 10
-7.6511236848
 20
14.2413039464
 10
-7.6422190132
 20
14.259115273
 10
-7.6340833203
 20
14.2765842582
 10
-7.6267141149
 20
14.2937195732
 10
-7.6200820062
 20
14.3105067237
 10
-7.6141867065
 20
14.326948573
 10
-7.6090285035
 20
14.3430508682
 10
-7.6045788705
 20
14.3588048157
 10
-7.6008372463
 20
14.3742146892
 10
-7.5978041921
 20
14.3892860586
 10
-7.5954528644
 20
14.4040131377
 10
-7.5937743155
 20
14.4183978232
 10
-7.5927774931
 20
14.4324491702
 10
-7.5924623973
 20
14.4461726145
  0
LWPOLYLINE
  5
40D
100
AcDbEntity
  8
RACCORDO
100
AcDbPolyline
 62
250
  6
CONTINUOUS
 90
25
 70
0
 10
-7.5924622693
 20
-0.1327490656
 10
-7.5107475652
 20
-0.1159130649
 10
-7.4312951089
 20
-0.0993367795
 10
-7.3541049002
 20
-0.0830185757
 10
-7.279260408
 20
-0.0669640052
 10
-7.2066781636
 20
-0.0511641905
 10
-7.1361077606
 20
-0.0355960874
 10
-7.0675378608
 20
-0.0202576298
 10
-7.0009798025
 20
-0.0051480809
 10
-6.9362171947
 20
0.0097531796
 10
-6.8732379163
 20
0.0244485599
 10
-6.8120540884
 20
0.0389380686
 10
-6.7524856824
 20
0.0532383737
 10
-6.694521583
 20
0.0673519002
 10
-6.6381729055
 20
0.081278329
 10
-6.5832929682
 20
0.0950299275
 10
-6.5298746045
 20
0.1086083361
 10
-6.4779249811
 20
0.122013775
 10
-6.4273189161
 20
0.1352561497
 10
-6.3780531351
 20
0.1483361943
 10
-6.3301309125
 20
0.161254831
 10
-6.2834368899
 20
0.174022049
 10
-6.2379326141
 20
0.1866416273
 10
-6.1936565383
 20
0.1991112394
 10
-6.1506086622
 20
0.2114316224
  0
LWPOLYLINE
  5
40E
100
AcDbEntity
  8
ASSI
100
AcDbPolyline
 62
250
  6
CONTINUOUS
 90
25
 70
0
 10
-7.5924622693
 20
-0.1327490656
 10
-7.5107475652
 20
-0.1159130649
 10
-7.4312951089
 20
-0.0993367795
 10
-7.3541049002
 20
-0.0830185757
 10
-7.279260408
 20
-0.0669640052
 10
-7.2066781636
 20
-0.0511641905
 10
-7.1361077606
 20
-0.0355960874
 10
-7.0675378608
 20
-0.0202576298
 10
-7.0009798025
 20
-0.0051480809
 10
-6.9362171947
 20
0.0097531796
 10
-6.8732379163
 20
0.0244485599
 10
-6.8120540884
 20
0.0389380686
 10
-6.7524856824
 20
0.0532383737
 10
-6.694521583
 20
0.0673519002
 10
-6.6381729055
 20
0.081278329
 10
-6.5832929682
 20
0.0950299275
 10
-6.5298746045
 20
0.1086083361
 10
-6.4779249811
 20
0.122013775
 10
-6.4273189161
 20
0.1352561497
 10
-6.3780531351
 20
0.1483361943
 10
-6.3301309125
 20
0.161254831
 10
-6.2834368899
 20
0.174022049
 10
-6.2379326141
 20
0.1866416273
 10
-6.1936565383
 20
0.1991112394
 10
-6.1506086622
 20
0.2114316224
  0
LWPOLYLINE
  5
40F
100
AcDbEntity
  8
RACCORDO
100
AcDbPolyline
 62
250
  6
CONTINUOUS
 90
22
 70
0
 10
-7.5732633216
 20
0.0598355188
 10
-7.4830452383
 20
0.075925565
 10
-7.3955971019
 20
0.0917309703
 10
-7.3109189123
 20
0.1072517346
 10
-7.2291249988
 20
0.1224767374
 10
-7.150101032
 20
0.1374170993
 10
-7.0735040242
 20
0.1521061814
 10
-6.9993142764
 20
0.1665457346
 10
-6.9275514875
 20
0.1807340079
 10
-6.8579317657
 20
0.1946991096
 10
-6.7904361249
 20
0.208443283
 10
-6.7250835513
 20
0.2219642849
 10
-6.6616471122
 20
0.2352834934
 10
-6.6001124678
 20
0.2484027066
 10
-6.540493958
 20
0.2613201264
 10
-6.4826076687
 20
0.2740517374
 10
-6.4264475232
 20
0.2865977538
 10
-6.3720195984
 20
0.2989579613
 10
-6.3191582109
 20
0.3111477009
 10
-6.2678081329
 20
0.3231720864
 10
-6.2180245922
 20
0.3350260039
 10
-6.1698075888
 20
0.3467094536
  0
LWPOLYLINE
  5
410
100
AcDbEntity
  8
ASSI
100
AcDbPolyline
 62
250
  6
CONTINUOUS
 90
22
 70
0
 10
-7.5732633216
 20
0.0598355188
 10
-7.4830452383
 20
0.075925565
 10
-7.3955971019
 20
0.0917309703
 10
-7.3109189123
 20
0.1072517346
 10
-7.2291249988
 20
0.1224767374
 10
-7.150101032
 20
0.1374170993
 10
-7.0735040242
 20
0.1521061814
 10
-6.9993142764
 20
0.1665457346
 10
-6.9275514875
 20
0.1807340079
 10
-6.8579317657
 20
0.1946991096
 10
-6.7904361249
 20
0.208443283
 10
-6.7250835513
 20
0.2219642849
 10
-6.6616471122
 20
0.2352834934
 10
-6.6001124678
 20
0.2484027066
 10
-6.540493958
 20
0.2613201264
 10
-6.4826076687
 20
0.2740517374
 10
-6.4264475232
 20
0.2865977538
 10
-6.3720195984
 20
0.2989579613
 10
-6.3191582109
 20
0.3111477009
 10
-6.2678081329
 20
0.3231720864
 10
-6.2180245922
 20
0.3350260039
 10
-6.1698075888
 20
0.3467094536
  0
LINE
  5
411
100
AcDbEntity
  8
DRAFT
100
AcDbLine
 62
7
  6
CONTINUOUS
 10
-7.5924623973
 20
-2.0795489282
 11
-6.150608513
 21
-1.9787246828
  0
LINE
  5
412
100
AcDbEntity
  8
ASSI
100
AcDbLine
 62
7
  6
CONTINUOUS
 10
-7.5924623973
 20
-2.0795489282
 11
-6.150608513
 21
-1.9787246828
  0
LINE
  5
413
100
AcDbEntity
  8
DRAFT
100
AcDbLine
 62
7
  6
CONTINUOUS
 10
-7.8715354552
 20
-3.5792486751
 11
-7.8752960354
 21
-3.5792814932
  0
LINE
  5
414
100
AcDbEntity
  8
ASSI
100
AcDbLine
 62
7
  6
CONTINUOUS
 10
-7.8715354552
 20
-3.5792486751
 11
-7.8752960354
 21
-3.5792814932
  0
LINE
  5
415
100
AcDbEntity
  8
DRAFT
100
AcDbLine
 62
7
  6
CONTINUOUS
 10
-34.4525962937
 20
-2.182179995
 11
-34.6831894664
 21
-2.1781549762
  0
LWPOLYLINE
  5
416
100
AcDbEntity
  8
0
100
AcDbPolyline
 62
250
  6
CONTINUOUS
 90
21
 70
0
 10
-26.7696105877
 20
-6.6797255953
 10
-26.7735218163
 20
-6.6562743223
 10
-26.7772341271
 20
-6.632788841
 10
-26.7807081999
 20
-6.6092669991
 10
-26.7839047147
 20
-6.5857066446
 10
-26.7867843512
 20
-6.5621056251
 10
-26.7893179535
 20
-6.5384241758
 10
-26.791492617
 20
-6.5147057252
 10
-26.7933067755
 20
-6.4909562303
 10
-26.7947588624
 20
-6.4671816482
 10
-26.7958473114
 20
-6.4433879357
 10
-26.7965713944
 20
-6.4195581467
 10
-26.7969299357
 20
-6.395720351
 10
-26.7969232964
 20
-6.3718797405
 10
-26.7965518381
 20
-6.3480415071
 10
-26.795815922
 20
-6.3242108427
 10
-26.7947174681
 20
-6.3004260867
 10
-26.7932550148
 20
-6.2766608411
 10
-26.7914276541
 20
-6.2529218907
 10
-26.7892344781
 20
-6.2292160202
 10
-26.7866745789
 20
-6.2055500145
  0
LWPOLYLINE
  5
417
100
AcDbEntity
  8
0
100
AcDbPolyline
 62
7
  6
CONTINUOUS
 90
55
 70
0
 10
-25.4383982308
 20
3.1887613909
 10
-25.4420167009
 20
3.295372127
 10
-25.4440482151
 20
3.3486678906
 10
-25.4466461919
 20
3.4019382487
 10
-25.4488466871
 20
3.4374154259
 10
-25.4515297586
 20
3.4728594943
 10
-25.4547870909
 20
3.5082549573
 10
-25.4587030004
 20
3.5436101092
 10
-25.4633156671
 20
3.5788819501
 10
-25.4686549826
 20
3.6140513599
 10
-25.4747536711
 20
3.649118348
 10
-25.4816346232
 20
3.6840401824
 10
-25.4893227038
 20
3.7187933992
 10
-25.4978557583
 20
3.7533927213
 10
-25.5072631638
 20
3.7877646615
 10
-25.5175853422
 20
3.8218743665
 10
-25.5259582013
 20
3.8472719354
 10
-25.5349035508
 20
3.8724735753
 10
-25.5444561307
 20
3.8974506104
 10
-25.554650681
 20
3.922174365
 10
-25.565509715
 20
3.9465904498
 10
-25.5770705711
 20
3.9706832735
 10
-25.5893596696
 20
3.9944109858
 10
-25.6024034311
 20
4.0177317366
 10
-25.6162619275
 20
4.0406657986
 10
-25.6309028286
 20
4.0631108872
 10
-25.6463232135
 20
4.0850292784
 10
-25.6625201614
 20
4.106383248
 10
-25.6794895845
 20
4.1271305733
 10
-25.6972310038
 20
4.1472210357
 10
-25.7157428984
 20
4.1665998209
 10
-25.7350237473
 20
4.1852121144
 10
-25.7550343392
 20
4.2029813054
 10
-25.7757688321
 20
4.2199047991
 10
-25.7971860267
 20
4.2359557075
 10
-25.8192447236
 20
4.2511071426
 10
-25.841951874
 20
4.2653693469
 10
-25.8652087994
 20
4.2787167128
 10
-25.8889623474
 20
4.2911648124
 10
-25.9131593659
 20
4.3027292179
 10
-25.937750666
 20
4.3134244088
 10
-25.9626961249
 20
4.32325759
 10
-25.9879595471
 20
4.3322349536
 10
-26.0135047372
 20
4.3403626914
 10
-26.0391782957
 20
4.3476208369
 10
-26.0650652526
 20
4.3540803421
 10
-26.0911356694
 20
4.3597783222
 10
-26.1173596077
 20
4.3647518925
 10
-26.147444245
 20
4.3695885541
 10
-26.1776615521
 20
4.3735702012
 10
-26.207983189
 20
4.3767372599
 10
-26.2383808155
 20
4.3791301564
 10
-26.2688260917
 20
4.3807893168
 10
-26.2992906774
 20
4.3817551672
 10
-26.3297462325
 20
4.3820681337
  0
LINE
  5
418
100
AcDbEntity
  8
0
100
AcDbLine
 62
7
  6
CONTINUOUS
 10
-26.7393085947
 20
2.9239373825
 11
-26.7393085947
 21
3.2871533825
  0
LINE
  5
419
100
AcDbEntity
  8
0
100
AcDbLine
 62
250
  6
CONTINUOUS
 10
-25.9738416849
 20
-6.3338189993
 11
-25.9738416849
 21
-6.6797255953
  0
LINE
  5
41A
100
AcDbEntity
  8
0
100
AcDbLine
 62
7
  6
CONTINUOUS
 10
-25.920184165
 20
2.9239373825
 11
-25.920184165
 21
3.2871533825
  0
LINE
  5
41B
100
AcDbEntity
  8
0
100
AcDbLine
 62
250
  6
CONTINUOUS
 10
-25.4990931918
 20
-6.6596557067
 11
-25.4990931918
 21
-6.3351236507
  0
LINE
  5
41C
100
AcDbEntity
  8
0
100
AcDbLine
 62
7
  6
CONTINUOUS
 10
-25.4383979553
 20
3.1887613825
 11
-25.4383979553
 21
2.9239373825
  0
LINE
  5
41D
100
AcDbEntity
  8
0
100
AcDbLine
 62
7
  6
CONTINUOUS
 10
-25.4182151046
 20
14.6084103825
 11
-25.4182151046
 21
13.7770323825
  0
LINE
  5
41E
100
AcDbEntity
  8
0
100
AcDbLine
 62
7
  6
CONTINUOUS
 10
-25.4182151046
 20
8.5834843825
 11
-25.4182151046
 21
7.7519973825
  0
LINE
  5
41F
100
AcDbEntity
  8
0
100
AcDbLine
 62
250
  6
CONTINUOUS
 10
-25.3911664861
 20
-8.9354246175
 11
-25.3911664861
 21
-8.3559196175
  0
LWPOLYLINE
  5
420
100
AcDbEntity
  8
0
100
AcDbPolyline
 62
250
  6
CONTINUOUS
 90
46
 70
0
 10
-25.4990931918
 20
-6.3351236507
 10
-25.4989751628
 20
-6.3258117107
 10
-25.4986205256
 20
-6.3165016618
 10
-25.4980284544
 20
-6.3072007115
 10
-25.4971981239
 20
-6.2979160673
 10
-25.4961287083
 20
-6.2886549366
 10
-25.494819382
 20
-6.2794245268
 10
-25.4932607401
 20
-6.2701867766
 10
-25.4914561955
 20
-6.2609948297
 10
-25.4894029657
 20
-6.2518561854
 10
-25.4870982683
 20
-6.2427783431
 10
-25.4845393208
 20
-6.2337688019
 10
-25.4817233408
 20
-6.2248350612
 10
-25.4786514419
 20
-6.2159946173
 10
-25.4753200412
 20
-6.2072474789
 10
-25.4717288886
 20
-6.1986038321
 10
-25.4678777344
 20
-6.1900738633
 10
-25.4637663287
 20
-6.1816677585
 10
-25.4593944215
 20
-6.1733957041
 10
-25.4547477566
 20
-6.165239754
 10
-25.4498496524
 20
-6.1572316657
 10
-25.4447111635
 20
-6.1493741007
 10
-25.4393433445
 20
-6.1416697203
 10
-25.43375725
 20
-6.1341211861
 10
-25.4279639345
 20
-6.1267311592
 10
-25.4219118812
 20
-6.11942902
 10
-25.4156681236
 20
-6.1122919292
 10
-25.4092411473
 20
-6.1053204609
 10
-25.4026394379
 20
-6.0985151888
 10
-25.3958714812
 20
-6.091876687
 10
-25.3889457625
 20
-6.0854055294
 10
-25.3803709041
 20
-6.0778038626
 10
-25.3715868746
 20
-6.0704459298
 10
-25.362602805
 20
-6.0633299012
 10
-25.3534278259
 20
-6.056453947
 10
-25.3440710683
 20
-6.0498162375
 10
-25.3346513767
 20
-6.0434875335
 10
-25.3250714149
 20
-6.0373929666
 10
-25.3153396393
 20
-6.0315356285
 10
-25.3054645063
 20
-6.0259186108
 10
-25.2954544723
 20
-6.0205450049
 10
-25.2853179939
 20
-6.0154179025
 10
-25.2750635273
 20
-6.0105403952
 10
-25.2646995291
 20
-6.0059155744
 10
-25.2542344557
 20
-6.0015465318
 10
-25.2436767634
 20
-5.997436359
  0
LWPOLYLINE
  5
421
100
AcDbEntity
  8
0
100
AcDbPolyline
 62
250
  6
CONTINUOUS
 90
49
 70
0
 10
-26.7866745789
 20
-6.2055500145
 10
-26.7852417701
 20
-6.1944858055
 10
-26.7835111692
 20
-6.1834208892
 10
-26.7814835619
 20
-6.1723673865
 10
-26.7791597336
 20
-6.1613374183
 10
-26.77654047
 20
-6.1503431055
 10
-26.7736265566
 20
-6.1393965689
 10
-26.770418779
 20
-6.1285099294
 10
-26.7669179227
 20
-6.117695308
 10
-26.7631247734
 20
-6.1069648254
 10
-26.7590401165
 20
-6.0963306025
 10
-26.7546647376
 20
-6.0858047603
 10
-26.7499994224
 20
-6.0753994196
 10
-26.7450449563
 20
-6.0651267013
 10
-26.739802125
 20
-6.0549987262
 10
-26.734271714
 20
-6.0450276153
 10
-26.7284545089
 20
-6.0352254894
 10
-26.7223512952
 20
-6.0256044694
 10
-26.7159628586
 20
-6.0161766762
 10
-26.7092899845
 20
-6.0069542306
 10
-26.7023334585
 20
-5.9979492536
 10
-26.6950940663
 20
-5.989173866
 10
-26.6875725933
 20
-5.9806401887
 10
-26.6797698252
 20
-5.9723603425
 10
-26.6716865475
 20
-5.9643464484
 10
-26.6633286153
 20
-5.956611885
 10
-26.6547043576
 20
-5.9491587781
 10
-26.6458269754
 20
-5.9419907075
 10
-26.6367096698
 20
-5.9351112528
 10
-26.6273656419
 20
-5.9285239939
 10
-26.6178080927
 20
-5.9222325105
 10
-26.6080502234
 20
-5.9162403824
 10
-26.598105235
 20
-5.9105511893
 10
-26.5879863287
 20
-5.9051685111
 10
-26.5777067055
 20
-5.9000959274
 10
-26.5672795664
 20
-5.895337018
 10
-26.5567181127
 20
-5.8908953626
 10
-26.5460355453
 20
-5.8867745412
 10
-26.5352450653
 20
-5.8829781333
 10
-26.5243598739
 20
-5.8795097188
 10
-26.5133931721
 20
-5.8763728774
 10
-26.502358161
 20
-5.8735711889
 10
-26.4912680417
 20
-5.871108233
 10
-26.4801360153
 20
-5.8689875895
 10
-26.4689752828
 20
-5.8672128381
 10
-26.4577990454
 20
-5.8657875587
 10
-26.4466205041
 20
-5.864715331
 10
-26.43545286
 20
-5.8639997347
 10
-26.4243093142
 20
-5.8636443496
  0
LWPOLYLINE
  5
422
100
AcDbEntity
  8
0
100
AcDbPolyline
 62
250
  6
CONTINUOUS
 90
30
 70
0
 10
-27.1990579884
 20
-5.7687744427
 10
-27.2112780431
 20
-5.8043199393
 10
-27.222437476
 20
-5.8402289403
 10
-27.2325839182
 20
-5.8764517889
 10
-27.2417650008
 20
-5.9129388283
 10
-27.2500283546
 20
-5.9496404017
 10
-27.2574544075
 20
-5.9866741308
 10
-27.2640637483
 20
-6.0238529578
 10
-27.2699174327
 20
-6.0611556496
 10
-27.2750765166
 20
-6.0985609734
 10
-27.2796020558
 20
-6.1360476964
 10
-27.2844507321
 20
-6.1830043523
 10
-27.2884549479
 20
-6.23003869
 10
-27.2916652117
 20
-6.2771343335
 10
-27.2941320319
 20
-6.3242749069
 10
-27.295897727
 20
-6.3713444197
 10
-27.2969930176
 20
-6.4184333107
 10
-27.2974374759
 20
-6.465532526
 10
-27.2972506741
 20
-6.5126330118
 10
-27.2960572234
 20
-6.5754082577
 10
-27.2938434937
 20
-6.6381561041
 10
-27.2906761993
 20
-6.7008629828
 10
-27.2866189343
 20
-6.763547937
 10
-27.2817353737
 20
-6.8261736768
 10
-27.2760869537
 20
-6.8887355775
 10
-27.2683906262
 20
-6.9636736782
 10
-27.2597870823
 20
-7.0385158266
 10
-27.2503807602
 20
-7.1132645336
 10
-27.2402760982
 20
-7.1879223104
 10
-27.2295775344
 20
-7.2624916678
  0
LINE
  5
423
100
AcDbEntity
  8
0
100
AcDbLine
 62
250
  6
CONTINUOUS
 10
-20.8729061988
 20
6.8852220256
 11
-21.1442934424
 21
6.5866507394
  0
LINE
  5
424
100
AcDbEntity
  8
0
100
AcDbLine
 62
7
  6
CONTINUOUS
 10
-24.8642149843
 20
2.3013313825
 11
-24.3219771056
 21
2.8435692612
  0
LINE
  5
425
100
AcDbEntity
  8
0
100
AcDbLine
 62
7
  6
CONTINUOUS
 10
-24.4441935562
 20
2.3013313825
 11
-24.3219771056
 21
2.4235478332
  0
LWPOLYLINE
  5
426
100
AcDbEntity
  8
RACCORDO
100
AcDbPolyline
 62
250
  6
CONTINUOUS
 90
43
 70
0
 10
-8.343510013
 20
13.8825199544
 10
-8.3247505566
 20
13.8985405303
 10
-8.3059736869
 20
13.915246821
 10
-8.2872021546
 20
13.9326388264
 10
-8.2684446771
 20
13.950750003
 10
-8.2497414384
 20
13.9695468944
 10
-8.2311613696
 20
13.988929131
 10
-8.2127205742
 20
14.0089144638
 10
-8.1944519029
 20
14.0294851418
 10
-8.1764437466
 20
14.050487542
 10
-8.1587146469
 20
14.0719315234
 10
-8.1412895651
 20
14.0938072272
 10
-8.1242573106
 20
14.1159314537
 10
-8.1076332041
 20
14.1383079337
 10
-8.0914355192
 20
14.1609329364
 10
-8.0757457103
 20
14.1836120701
 10
-8.0605810904
 20
14.2063316982
 10
-8.0459436393
 20
14.2291054574
 10
-8.031880636
 20
14.2517798653
 10
-8.0184042238
 20
14.2743368274
 10
-8.0055101844
 20
14.2967944383
 10
-7.9932144784
 20
14.3190534998
 10
-7.9815183569
 20
14.3411085916
 10
-7.970422773
 20
14.3629651339
 10
-7.9599390197
 20
14.3845401899
 10
-7.9500658206
 20
14.4058267237
 10
-7.9408000328
 20
14.4268317711
 10
-7.9321461637
 20
14.4474935021
 10
-7.9241015853
 20
14.4678012952
 10
-7.9166585034
 20
14.4877657719
 10
-7.9098114671
 20
14.5073569672
 10
-7.9035555191
 20
14.5265673994
 10
-7.8978826415
 20
14.5454045501
 10
-7.8927830866
 20
14.563860899
 10
-7.8882505446
 20
14.5819338276
 10
-7.8842782794
 20
14.5996259543
 10
-7.8808573314
 20
14.6169376142
 10
-7.8779813925
 20
14.6338668562
 10
-7.8756438229
 20
14.6504156314
 10
-7.8738367256
 20
14.666590129
 10
-7.8725537248
 20
14.6823924118
 10
-7.8717888541
 20
14.697820417
 10
-7.8715354552
 20
14.7128741445
  0
LWPOLYLINE
  5
427
100
AcDbEntity
  8
ASSI
100
AcDbPolyline
 62
250
  6
CONTINUOUS
 90
43
 70
0
 10
-8.343510013
 20
13.8825199544
 10
-8.3247505566
 20
13.8985405303
 10
-8.3059736869
 20
13.915246821
 10
-8.2872021546
 20
13.9326388264
 10
-8.2684446771
 20
13.950750003
 10
-8.2497414384
 20
13.9695468944
 10
-8.2311613696
 20
13.988929131
 10
-8.2127205742
 20
14.0089144638
 10
-8.1944519029
 20
14.0294851418
 10
-8.1764437466
 20
14.050487542
 10
-8.1587146469
 20
14.0719315234
 10
-8.1412895651
 20
14.0938072272
 10
-8.1242573106
 20
14.1159314537
 10
-8.1076332041
 20
14.1383079337
 10
-8.0914355192
 20
14.1609329364
 10
-8.0757457103
 20
14.1836120701
 10
-8.0605810904
 20
14.2063316982
 10
-8.0459436393
 20
14.2291054574
 10
-8.031880636
 20
14.2517798653
 10
-8.0184042238
 20
14.2743368274
 10
-8.0055101844
 20
14.2967944383
 10
-7.9932144784
 20
14.3190534998
 10
-7.9815183569
 20
14.3411085916
 10
-7.970422773
 20
14.3629651339
 10
-7.9599390197
 20
14.3845401899
 10
-7.9500658206
 20
14.4058267237
 10
-7.9408000328
 20
14.4268317711
 10
-7.9321461637
 20
14.4474935021
 10
-7.9241015853
 20
14.4678012952
 10
-7.9166585034
 20
14.4877657719
 10
-7.9098114671
 20
14.5073569672
 10
-7.9035555191
 20
14.5265673994
 10
-7.8978826415
 20
14.5454045501
 10
-7.8927830866
 20
14.563860899
 10
-7.8882505446
 20
14.5819338276
 10
-7.8842782794
 20
14.5996259543
 10
-7.8808573314
 20
14.6169376142
 10
-7.8779813925
 20
14.6338668562
 10
-7.8756438229
 20
14.6504156314
 10
-7.8738367256
 20
14.666590129
 10
-7.8725537248
 20
14.6823924118
 10
-7.8717888541
 20
14.697820417
 10
-7.8715354552
 20
14.7128741445
  0
LINE
  5
428
100
AcDbEntity
  8
DRAFT
100
AcDbLine
 62
7
  6
CONTINUOUS
 10
-7.8752988907
 20
-1.0592097222
 11
-7.8715354552
 21
-1.0591768792
  0
LINE
  5
429
100
AcDbEntity
  8
ASSI
100
AcDbLine
 62
7
  6
CONTINUOUS
 10
-7.8752988907
 20
-1.0592097222
 11
-7.8715354552
 21
-1.0591768792
  0
LWPOLYLINE
  5
42A
100
AcDbEntity
  8
0
100
AcDbPolyline
 62
250
  6
CONTINUOUS
 90
72
 70
0
 10
-25.734924071
 20
-5.7063686135
 10
-25.7365741344
 20
-5.6972227797
 10
-25.7390771017
 20
-5.6882486554
 10
-25.742326208
 20
-5.6795113537
 10
-25.7462849373
 20
-5.6709229566
 10
-25.7507973266
 20
-5.6626203513
 10
-25.7557562367
 20
-5.6545772755
 10
-25.7640499612
 20
-5.6426127736
 10
-25.7728829635
 20
-5.6310386604
 10
-25.7820641621
 20
-5.6196404753
 10
-25.7914048634
 20
-5.6083746164
 10
-25.8100635023
 20
-5.5863042655
 10
-25.8288948952
 20
-5.5648445802
 10
-25.8479428962
 20
-5.5441120079
 10
-25.8675427093
 20
-5.5238993522
 10
-25.8875735791
 20
-5.504497284
 10
-25.9082818385
 20
-5.4858232226
 10
-25.9297845085
 20
-5.4679195843
 10
-25.9519938451
 20
-5.4508942634
 10
-25.9751433271
 20
-5.4345862268
 10
-25.9989245489
 20
-5.4191973275
 10
-26.0232798271
 20
-5.4047198461
 10
-26.0481514784
 20
-5.3911460634
 10
-26.0736483904
 20
-5.3783926188
 10
-26.0995760285
 20
-5.3665514428
 10
-26.1259005771
 20
-5.355627394
 10
-26.1525882209
 20
-5.345625331
 10
-26.1794238353
 20
-5.3366068124
 10
-26.2065505363
 20
-5.3285031169
 10
-26.233934508
 20
-5.3213145449
 10
-26.2615419346
 20
-5.3150413965
 10
-26.2892538557
 20
-5.3096969301
 10
-26.3171234515
 20
-5.3052503435
 10
-26.34511992
 20
-5.3016894065
 10
-26.3732124594
 20
-5.299001889
 10
-26.4014223045
 20
-5.2971718654
 10
-26.429673982
 20
-5.296186808
 10
-26.4579438192
 20
-5.2960273844
 10
-26.486208144
 20
-5.2966742624
 10
-26.5144414263
 20
-5.2981145951
 10
-26.5426204324
 20
-5.3003620177
 10
-26.5707200675
 20
-5.3034367416
 10
-26.5987152368
 20
-5.3073589778
 10
-26.6265419876
 20
-5.3121423776
 10
-26.6542025221
 20
-5.3178135876
 10
-26.6816598412
 20
-5.3243949945
 10
-26.7088769456
 20
-5.3319089848
 10
-26.7358420442
 20
-5.3403822743
 10
-26.7624903033
 20
-5.3498095587
 10
-26.7887826265
 20
-5.3601880412
 10
-26.814679917
 20
-5.3715149246
 10
-26.8402065725
 20
-5.3838157045
 10
-26.865265411
 20
-5.3970452177
 10
-26.8898248873
 20
-5.4111819265
 10
-26.9138534561
 20
-5.4262042933
 10
-26.9373154407
 20
-5.4420889225
 10
-26.9601808666
 20
-5.4588202334
 10
-26.9824154496
 20
-5.4763810609
 10
-27.0039849054
 20
-5.4947542401
 10
-27.0248216772
 20
-5.5138866983
 10
-27.0449362177
 20
-5.5337780227
 10
-27.0643033384
 20
-5.5543945856
 10
-27.0828978506
 20
-5.5757027594
 10
-27.1007225491
 20
-5.5976987965
 10
-27.1177426268
 20
-5.620311575
 10
-27.1339654504
 20
-5.6435466438
 10
-27.1493053113
 20
-5.6674001304
 10
-27.1608389957
 20
-5.6868729196
 10
-27.1716739304
 20
-5.7067562246
 10
-27.1817172905
 20
-5.7270405662
 10
-27.1908762515
 20
-5.7477164654
 10
-27.1990579884
 20
-5.7687744427
  0
LINE
  5
42B
100
AcDbEntity
  8
0
100
AcDbLine
 62
250
  6
CONTINUOUS
 10
-24.9433719198
 20
-8.2349566175
 11
-24.9433719198
 21
-9.0592356175
  0
LINE
  5
42C
100
AcDbEntity
  8
0
100
AcDbLine
 62
7
  6
CONTINUOUS
 10
-24.9364288948
 20
7.5913533825
 11
-24.9364288948
 21
8.7400903825
  0
LINE
  5
42D
100
AcDbEntity
  8
0
100
AcDbLine
 62
7
  6
CONTINUOUS
 10
-24.9364288948
 20
13.6163873825
 11
-24.9364288948
 21
14.7651253825
  0
LINE
  5
42E
100
AcDbEntity
  8
0
100
AcDbLine
 62
7
  6
CONTINUOUS
 10
-24.8037623156
 20
5.3942803825
 11
-24.8037623156
 21
6.4672793825
  0
LINE
  5
42F
100
AcDbEntity
  8
0
100
AcDbLine
 62
250
  6
CONTINUOUS
 10
-24.3646747113
 20
-7.2624916678
 11
-24.3646747113
 21
-6.6596557067
  0
LINE
  5
430
100
AcDbEntity
  8
0
100
AcDbLine
 62
250
  6
CONTINUOUS
 10
-24.3646747113
 20
-5.7327660618
 11
-24.3646747113
 21
-5.1505653383
  0
LINE
  5
431
100
AcDbEntity
  8
0
100
AcDbLine
 62
250
  6
CONTINUOUS
 10
-24.364674237
 20
-7.4402286175
 11
-24.364674237
 21
-8.0781596175
  0
LINE
  5
432
100
AcDbEntity
  8
0
100
AcDbLine
 62
250
  6
CONTINUOUS
 10
-24.364674237
 20
-9.2262526175
 11
-24.364674237
 21
-9.8249576175
  0
LINE
  5
433
100
AcDbEntity
  8
0
100
AcDbLine
 62
250
  6
CONTINUOUS
 10
-24.364674237
 20
-9.9200016175
 11
-24.364674237
 21
-10.5121176175
  0
LINE
  5
434
100
AcDbEntity
  8
0
100
AcDbLine
 62
250
  6
CONTINUOUS
 10
-24.364674237
 20
-11.3561406175
 11
-24.364674237
 21
-11.4410296175
  0
LINE
  5
435
100
AcDbEntity
  8
0
100
AcDbLine
 62
250
  6
CONTINUOUS
 10
-24.364674237
 20
-12.2817036175
 11
-24.364674237
 21
-12.8607516175
  0
LINE
  5
436
100
AcDbEntity
  8
0
100
AcDbLine
 62
250
  6
CONTINUOUS
 10
-24.364674237
 20
-14.9485416175
 11
-24.364674237
 21
-15.4819376175
  0
LINE
  5
437
100
AcDbEntity
  8
0
100
AcDbLine
 62
250
  6
CONTINUOUS
 10
-24.364674237
 20
-13.7918596175
 11
-24.364674237
 21
-13.1865876175
  0
LINE
  5
438
100
AcDbEntity
  8
0
100
AcDbLine
 62
7
  6
CONTINUOUS
 10
-24.3219771056
 20
12.5117393825
 11
-24.3219771056
 21
11.6280873825
  0
LINE
  5
439
100
AcDbEntity
  8
0
100
AcDbLine
 62
7
  6
CONTINUOUS
 10
-24.3219771056
 20
10.4753113825
 11
-24.3219771056
 21
9.8928663825
  0
LINE
  5
43A
100
AcDbEntity
  8
0
100
AcDbLine
 62
7
  6
CONTINUOUS
 10
-24.3219771056
 20
6.4672793825
 11
-24.3219771056
 21
4.7716743825
  0
LINE
  5
43B
100
AcDbEntity
  8
0
100
AcDbLine
 62
7
  6
CONTINUOUS
 10
-24.3219771056
 20
2.3013313825
 11
-24.3219771056
 21
2.9239373825
  0
LINE
  5
43C
100
AcDbEntity
  8
0
100
AcDbLine
 62
7
  6
CONTINUOUS
 10
-24.3219771056
 20
6.7800553825
 11
-24.3219771056
 21
7.3745053825
  0
LINE
  5
43D
100
AcDbEntity
  8
0
100
AcDbLine
 62
7
  6
CONTINUOUS
 10
-24.3219771056
 20
8.9489723825
 11
-24.3219771056
 21
9.5756153825
  0
LINE
  5
43E
100
AcDbEntity
  8
0
100
AcDbLine
 62
7
  6
CONTINUOUS
 10
-24.3219771056
 20
12.8049813825
 11
-24.3219771056
 21
13.3994303825
  0
LINE
  5
43F
100
AcDbEntity
  8
0
100
AcDbLine
 62
7
  6
CONTINUOUS
 10
-24.3219771056
 20
14.9741153825
 11
-24.3219771056
 21
15.6005413825
  0
LWPOLYLINE
  5
440
100
AcDbEntity
  8
0
100
AcDbPolyline
 62
7
  6
CONTINUOUS
 90
4
 70
0
 43
0.3500000006
 10
-23.296909584
 20
45.0961160431
 10
-23.296909584
 20
45.7389740295
 10
-21.7969091263
 20
45.7389740295
 10
-22.6540515976
 20
42.738973114
  0
LINE
  5
441
100
AcDbEntity
  8
RACCORDO
100
AcDbLine
 62
250
  6
CONTINUOUS
 10
-23.1697901358
 20
23.356128939
 11
-23.1697901358
 21
21.9337242694
  0
LINE
  5
442
100
AcDbEntity
  8
RACCORDO
100
AcDbLine
 62
250
  6
CONTINUOUS
 10
-23.1697901358
 20
-22.7318515043
 11
-23.1697901358
 21
-24.1542561739
  0
LINE
  5
443
100
AcDbEntity
  8
RACCORDO
100
AcDbLine
 62
7
  6
CONTINUOUS
 10
-22.8715354552
 20
23.354393744
 11
-22.8715354552
 21
21.9311214402
  0
LINE
  5
444
100
AcDbEntity
  8
RACCORDO
100
AcDbLine
 62
7
  6
CONTINUOUS
 10
-22.8715354552
 20
-22.7292486751
 11
-22.8715354552
 21
-24.152520979
  0
LWPOLYLINE
  5
445
100
AcDbEntity
  8
RACCORDO
100
AcDbPolyline
 62
250
  6
CONTINUOUS
 90
3
 70
0
 10
-8.8540830487
 20
13.4285852817
 10
-8.8000668926
 20
13.4777917493
 10
-8.7731628709
 20
13.5022369468
  0
LWPOLYLINE
  5
446
100
AcDbEntity
  8
ASSI
100
AcDbPolyline
 62
250
  6
CONTINUOUS
 90
3
 70
0
 10
-8.8540830487
 20
13.4285852817
 10
-8.8000668926
 20
13.4777917493
 10
-8.7731628709
 20
13.5022369468
  0
LINE
  5
447
100
AcDbEntity
  8
RACCORDO
100
AcDbLine
 62
250
  6
CONTINUOUS
 10
-8.7731628709
 20
13.5022369468
 11
-8.6930999425
 21
13.5749403941
  0
LINE
  5
448
100
AcDbEntity
  8
ASSI
100
AcDbLine
 62
250
  6
CONTINUOUS
 10
-8.7731628709
 20
13.5022369468
 11
-8.6930999425
 21
13.5749403941
  0
LINE
  5
449
100
AcDbEntity
  8
RACCORDO
100
AcDbLine
 62
250
  6
CONTINUOUS
 10
-8.6930999425
 20
13.5749403941
 11
-8.641079902
 21
13.6219675179
  0
LINE
  5
44A
100
AcDbEntity
  8
ASSI
100
AcDbLine
 62
250
  6
CONTINUOUS
 10
-8.6930999425
 20
13.5749403941
 11
-8.641079902
 21
13.6219675179
  0
LWPOLYLINE
  5
44B
100
AcDbEntity
  8
RACCORDO
100
AcDbPolyline
 62
250
  6
CONTINUOUS
 90
13
 70
0
 10
-8.641079902
 20
13.6219675179
 10
-8.5903457912
 20
13.6675569321
 10
-8.5655019189
 20
13.6897825251
 10
-8.5410983178
 20
13.7115111467
 10
-8.5171615242
 20
13.732722311
 10
-8.4936838604
 20
13.753436504
 10
-8.4706915907
 20
13.7736010432
 10
-8.4481875505
 20
13.793213932
 10
-8.4261810919
 20
13.812277167
 10
-8.4047052258
 20
13.8307440559
 10
-8.3837719159
 20
13.8485990348
 10
-8.363373255
 20
13.8658576676
 10
-8.343510013
 20
13.8825199544
  0
LWPOLYLINE
  5
44C
100
AcDbEntity
  8
ASSI
100
AcDbPolyline
 62
250
  6
CONTINUOUS
 90
13
 70
0
 10
-8.641079902
 20
13.6219675179
 10
-8.5903457912
 20
13.6675569321
 10
-8.5655019189
 20
13.6897825251
 10
-8.5410983178
 20
13.7115111467
 10
-8.5171615242
 20
13.732722311
 10
-8.4936838604
 20
13.753436504
 10
-8.4706915907
 20
13.7736010432
 10
-8.4481875505
 20
13.793213932
 10
-8.4261810919
 20
13.812277167
 10
-8.4047052258
 20
13.8307440559
 10
-8.3837719159
 20
13.8485990348
 10
-8.363373255
 20
13.8658576676
 10
-8.343510013
 20
13.8825199544
  0
LINE
  5
44D
100
AcDbEntity
  8
DRAFT
100
AcDbLine
 62
7
  6
CONTINUOUS
 10
-35.1191450236
 20
1.3724181087
 11
-34.4525962937
 21
1.3840527601
  0
LINE
  5
44E
100
AcDbEntity
  8
RACCORDO
100
AcDbLine
 62
250
  6
CONTINUOUS
 10
-7.8715354552
 20
0.0598329367
 11
-7.5732633216
 21
0.0598329367
  0
LINE
  5
44F
100
AcDbEntity
  8
ASSI
100
AcDbLine
 62
250
  6
CONTINUOUS
 10
-7.8715354552
 20
0.0598329367
 11
-7.5732633216
 21
0.0598329367
  0
LINE
  5
450
100
AcDbEntity
  8
RACCORDO
100
AcDbLine
 62
250
  6
CONTINUOUS
 10
-5.8715354552
 20
0.3467075035
 11
-6.1698075888
 21
0.3467075035
  0
LINE
  5
451
100
AcDbEntity
  8
ASSI
100
AcDbLine
 62
250
  6
CONTINUOUS
 10
-5.8715354552
 20
0.3467075035
 11
-6.1698075888
 21
0.3467075035
  0
LINE
  5
452
100
AcDbEntity
  8
RACCORDO
100
AcDbLine
 62
250
  6
CONTINUOUS
 10
-5.8715354552
 20
1.6551654566
 11
-6.1698075888
 21
1.6551654566
  0
LINE
  5
453
100
AcDbEntity
  8
ASSI
100
AcDbLine
 62
250
  6
CONTINUOUS
 10
-5.8715354552
 20
1.6551654566
 11
-6.1698075888
 21
1.6551654566
  0
LINE
  5
454
100
AcDbEntity
  8
DRAFT
100
AcDbLine
 62
7
  6
CONTINUOUS
 10
-7.8752988907
 20
0.2610824873
 11
-7.8715354552
 21
0.2610496443
  0
LINE
  5
455
100
AcDbEntity
  8
ASSI
100
AcDbLine
 62
7
  6
CONTINUOUS
 10
-7.8752988907
 20
0.2610824873
 11
-7.8715354552
 21
0.2610496443
  0
LINE
  5
456
100
AcDbEntity
  8
RACCORDO
100
AcDbLine
 62
7
  6
CONTINUOUS
 10
-7.8713248083
 20
0.261047806
 11
-7.5732633216
 21
0.2584466628
  0
LINE
  5
457
100
AcDbEntity
  8
ASSI
100
AcDbLine
 62
7
  6
CONTINUOUS
 10
-7.8707006562
 20
0.2610423591
 11
-7.5732633216
 21
0.2584466628
  0
LINE
  5
458
100
AcDbEntity
  8
0
100
AcDbLine
 62
250
  6
CONTINUOUS
 10
-12.3715354552
 20
-13.8990636175
 11
-13.4044117592
 21
-12.5680416175
  0
LWPOLYLINE
  5
459
100
AcDbEntity
  8
0
100
AcDbPolyline
 62
250
  6
CONTINUOUS
 90
50
 70
0
 10
-21.9976424453
 20
-14.055990947
 10
-21.9959347377
 20
-14.0947858693
 10
-21.9935852966
 20
-14.1335532843
 10
-21.9905812057
 20
-14.1722789603
 10
-21.9869095486
 20
-14.2109486653
 10
-21.9825574092
 20
-14.2495481677
 10
-21.9778852175
 20
-14.2853777933
 10
-21.9725932886
 20
-14.3211197849
 10
-21.9666618771
 20
-14.3567595693
 10
-21.9600712374
 20
-14.3922825728
 10
-21.952801624
 20
-14.4276742222
 10
-21.9455418179
 20
-14.4599036932
 10
-21.93766941
 20
-14.491989636
 10
-21.9291558876
 20
-14.5239105097
 10
-21.919972738
 20
-14.5556447731
 10
-21.9100914484
 20
-14.5871708854
 10
-21.9022437387
 20
-14.6105473831
 10
-21.89396873
 20
-14.6337767873
 10
-21.8852437991
 20
-14.6568399213
 10
-21.8760463227
 20
-14.679717608
 10
-21.8663536778
 20
-14.7023906708
 10
-21.8561432411
 20
-14.7248399326
 10
-21.8467703374
 20
-14.7442686282
 10
-21.8369546646
 20
-14.7634789015
 10
-21.8266666766
 20
-14.7824381208
 10
-21.8158768274
 20
-14.8011136546
 10
-21.8045555709
 20
-14.819472871
 10
-21.7926733611
 20
-14.8374831386
 10
-21.7835957954
 20
-14.8504311896
 10
-21.7741821506
 20
-14.8631402691
 10
-21.7644131532
 20
-14.8755761252
 10
-21.7542695298
 20
-14.8877045061
 10
-21.7437320066
 20
-14.8994911599
 10
-21.7327813103
 20
-14.9109018346
 10
-21.7213981671
 20
-14.9219022786
 10
-21.7113831286
 20
-14.9308861739
 10
-21.7010350606
 20
-14.939493307
 10
-21.6903463842
 20
-14.9476671519
 10
-21.6793095206
 20
-14.9553511824
 10
-21.6679168909
 20
-14.9624888725
 10
-21.6561609162
 20
-14.9690236962
 10
-21.6440340178
 20
-14.9748991275
 10
-21.6342966
 20
-14.9789966765
 10
-21.6243592936
 20
-14.9826310774
 10
-21.614253518
 20
-14.985776689
 10
-21.6040106923
 20
-14.9884078699
 10
-21.5936622356
 20
-14.9904989788
 10
-21.5832395672
 20
-14.9920243744
 10
-21.5727741063
 20
-14.9929584154
 10
-21.562297272
 20
-14.9932754605
  0
LINE
  5
45A
100
AcDbEntity
  8
0
100
AcDbLine
 62
250
  6
CONTINUOUS
 10
-22.7726168196
 20
10.4680794532
 11
-22.7726168196
 21
10.0202220256
  0
LINE
  5
45B
100
AcDbEntity
  8
0
100
AcDbLine
 62
250
  6
CONTINUOUS
 10
-22.7726168196
 20
6.8852220256
 11
-22.7726168196
 21
7.0345079179
  0
LINE
  5
45C
100
AcDbEntity
  8
0
100
AcDbLine
 62
250
  6
CONTINUOUS
 10
-22.7726168196
 20
8.5273650963
 11
-22.7726168196
 21
8.6766507394
  0
LINE
  5
45D
100
AcDbEntity
  8
0
100
AcDbLine
 62
250
  6
CONTINUOUS
 10
-21.9568553263
 20
-14.6808476175
 11
-21.9568553263
 21
-14.5814736175
  0
LINE
  5
45E
100
AcDbEntity
  8
0
100
AcDbLine
 62
250
  6
CONTINUOUS
 10
-21.5622974285
 20
-15.2090366175
 11
-21.5622974285
 21
-12.7711296175
  0
LINE
  5
45F
100
AcDbEntity
  8
0
100
AcDbLine
 62
250
  6
CONTINUOUS
 10
-21.2799870501
 20
5.8402220256
 11
-21.2799870501
 21
4.7952221502
  0
LINE
  5
460
100
AcDbEntity
  8
0
100
AcDbLine
 62
250
  6
CONTINUOUS
 10
-21.1994427015
 20
-12.8311766175
 11
-21.1994427015
 21
-12.4811166175
  0
LINE
  5
461
100
AcDbEntity
  8
0
100
AcDbLine
 62
250
  6
CONTINUOUS
 10
-20.8729061988
 20
10.7666507394
 11
-20.8729061988
 21
9.7216507394
  0
LINE
  5
462
100
AcDbEntity
  8
0
100
AcDbLine
 62
250
  6
CONTINUOUS
 10
-20.8729061988
 20
8.6766507394
 11
-20.8729061988
 21
8.5273650963
  0
LINE
  5
463
100
AcDbEntity
  8
0
100
AcDbLine
 62
250
  6
CONTINUOUS
 10
-20.8729061988
 20
7.0345079179
 11
-20.8729061988
 21
6.8852220256
  0
LINE
  5
464
100
AcDbEntity
  8
0
100
AcDbLine
 62
250
  6
CONTINUOUS
 10
-20.8270354295
 20
-12.4811166175
 11
-20.8270354295
 21
-12.8311766175
  0
LINE
  5
465
100
AcDbEntity
  8
0
100
AcDbLine
 62
250
  6
CONTINUOUS
 10
-22.0498151659
 20
-14.0559906175
 11
-22.0492572509
 21
-13.4829876175
  0
LINE
  5
466
100
AcDbEntity
  8
0
100
AcDbLine
 62
250
  6
CONTINUOUS
 10
-21.8317963763
 20
-13.4829876175
 11
-21.8323542913
 21
-14.0559906175
  0
LWPOLYLINE
  5
467
100
AcDbEntity
  8
RACCORDO
100
AcDbPolyline
 62
250
  6
CONTINUOUS
 90
22
 70
0
 10
-8.2060292948
 20
9.7101050995
 10
-8.213678886
 20
9.7029600428
 10
-8.2212859825
 20
9.6955419536
 10
-8.2288392724
 20
9.6878618629
 10
-8.2363275236
 20
9.6799311913
 10
-8.2437396007
 20
9.6717617322
 10
-8.2510644816
 20
9.6633656338
 10
-8.258291274
 20
9.6547553815
 10
-8.2654092312
 20
9.6459437792
 10
-8.2724077686
 20
9.6369439301
 10
-8.279276479
 20
9.6277692173
 10
-8.2860051483
 20
9.6184332841
 10
-8.2925837708
 20
9.6089500134
 10
-8.2990025637
 20
9.5993335073
 10
-8.305251982
 20
9.5895980659
 10
-8.3113227325
 20
9.5797581662
 10
-8.3172057878
 20
9.5698284407
 10
-8.3228923996
 20
9.5598236552
 10
-8.3283741115
 20
9.5497586873
 10
-8.3336427721
 20
9.5396485041
 10
-8.3386905466
 20
9.5295081398
 10
-8.3435099287
 20
9.5193526737
  0
LWPOLYLINE
  5
468
100
AcDbEntity
  8
ASSI
100
AcDbPolyline
 62
250
  6
CONTINUOUS
 90
22
 70
0
 10
-8.2060292948
 20
9.7101050995
 10
-8.213678886
 20
9.7029600428
 10
-8.2212859825
 20
9.6955419536
 10
-8.2288392724
 20
9.6878618629
 10
-8.2363275236
 20
9.6799311913
 10
-8.2437396007
 20
9.6717617322
 10
-8.2510644816
 20
9.6633656338
 10
-8.258291274
 20
9.6547553815
 10
-8.2654092312
 20
9.6459437792
 10
-8.2724077686
 20
9.6369439301
 10
-8.279276479
 20
9.6277692173
 10
-8.2860051483
 20
9.6184332841
 10
-8.2925837708
 20
9.6089500134
 10
-8.2990025637
 20
9.5993335073
 10
-8.305251982
 20
9.5895980659
 10
-8.3113227325
 20
9.5797581662
 10
-8.3172057878
 20
9.5698284407
 10
-8.3228923996
 20
9.5598236552
 10
-8.3283741115
 20
9.5497586873
 10
-8.3336427721
 20
9.5396485041
 10
-8.3386905466
 20
9.5295081398
 10
-8.3435099287
 20
9.5193526737
  0
LINE
  5
469
100
AcDbEntity
  8
0
100
AcDbLine
 62
7
  6
CONTINUOUS
 10
-27.2210938048
 20
2.3013313825
 11
-24.3219771056
 21
2.3013313825
  0
LINE
  5
46A
100
AcDbEntity
  8
0
100
AcDbLine
 62
7
  6
CONTINUOUS
 10
-24.3219771056
 20
2.9239373825
 11
-25.4383979553
 21
2.9239373825
  0
LINE
  5
46B
100
AcDbEntity
  8
0
100
AcDbLine
 62
7
  6
CONTINUOUS
 10
-25.920184165
 20
2.9239373825
 11
-26.7393085947
 21
2.9239373825
  0
LWPOLYLINE
  5
46C
100
AcDbEntity
  8
0
100
AcDbPolyline
 62
7
  6
CONTINUOUS
 90
58
 70
0
 10
-26.3297462325
 20
3.7193012193
 10
-26.3155112116
 20
3.7192090404
 10
-26.3012730606
 20
3.7189079414
 10
-26.2870412788
 20
3.7183610781
 10
-26.2728253649
 20
3.7175316068
 10
-26.2586348181
 20
3.7163826834
 10
-26.2444791373
 20
3.7148774641
 10
-26.2338945805
 20
3.7134937017
 10
-26.2233432372
 20
3.7118777326
 10
-26.2128333795
 20
3.7100183703
 10
-26.2023732794
 20
3.7079044281
 10
-26.1919568795
 20
3.7055232601
 10
-26.1816039274
 20
3.7028757542
 10
-26.1713196864
 20
3.699962048
 10
-26.1611094202
 20
3.6967822791
 10
-26.149509987
 20
3.6928124272
 10
-26.138029133
 20
3.6884948533
 10
-26.1266814207
 20
3.6838309174
 10
-26.1154814128
 20
3.6788219795
 10
-26.1044436718
 20
3.6734693995
 10
-26.0935827604
 20
3.6677745374
 10
-26.0829132411
 20
3.6617387533
 10
-26.0736921158
 20
3.6561430221
 10
-26.0646460663
 20
3.6502756084
 10
-26.0557905811
 20
3.6441279457
 10
-26.0471411483
 20
3.637691467
 10
-26.0387658155
 20
3.6309991244
 10
-26.0306393383
 20
3.6240047268
 10
-26.0227916939
 20
3.6167000279
 10
-26.0152528593
 20
3.6090767817
 10
-26.0094968617
 20
3.6027834943
 10
-26.0039637981
 20
3.5962915721
 10
-25.9986623422
 20
3.5896090555
 10
-25.9936011674
 20
3.582743985
 10
-25.9887889474
 20
3.5757044008
 10
-25.9842102804
 20
3.5684649683
 10
-25.9798819033
 20
3.5610727878
 10
-25.9757940277
 20
3.5535431673
 10
-25.9719368653
 20
3.5458914153
 10
-25.9683006276
 20
3.5381328399
 10
-25.9640288936
 20
3.5282496523
 10
-25.9600759348
 20
3.5182369598
 10
-25.9564269104
 20
3.5081098602
 10
-25.9530669797
 20
3.4978834514
 10
-25.9499951629
 20
3.4876212494
 10
-25.9471793481
 20
3.4772861443
 10
-25.9446038836
 20
3.4668886465
 10
-25.9422531171
 20
3.4564392661
 10
-25.9394501575
 20
3.4424963131
 10
-25.936971451
 20
3.4284915911
 10
-25.9347724874
 20
3.4144363128
 10
-25.9328087562
 20
3.4003416911
 10
-25.9310357472
 20
3.386218939
 10
-25.9294089499
 20
3.3720792694
 10
-25.927142667
 20
3.3508352543
 10
-25.9249521703
 20
3.3295911195
 10
-25.922683919
 20
3.3083596083
 10
-25.9201843722
 20
3.2871534643
  0
LWPOLYLINE
  5
46D
100
AcDbEntity
  8
RACCORDO
100
AcDbPolyline
 62
250
  6
CONTINUOUS
 90
16
 70
0
 10
-7.5924625504
 20
2.1346211895
 10
-7.6015171605
 20
2.134904984
 10
-7.6105442438
 20
2.1352895753
 10
-7.6195355177
 20
2.1357746099
 10
-7.6284827268
 20
2.1363596417
 10
-7.6373776675
 20
2.1370441338
 10
-7.6462121951
 20
2.1378274591
 10
-7.6549782092
 20
2.1387088995
 10
-7.6636676608
 20
2.1396876456
 10
-7.6722725763
 20
2.1407627995
 10
-7.68078506
 20
2.1419333746
 10
-7.6891973016
 20
2.1431982968
 10
-7.6975015826
 20
2.1445564055
 10
-7.7056902837
 20
2.1460064547
 10
-7.7137558912
 20
2.1475471138
 10
-7.7216910045
 20
2.1491769691
  0
LWPOLYLINE
  5
46E
100
AcDbEntity
  8
ASSI
100
AcDbPolyline
 62
250
  6
CONTINUOUS
 90
16
 70
0
 10
-7.5924625504
 20
2.1346211895
 10
-7.6015171605
 20
2.134904984
 10
-7.6105442438
 20
2.1352895753
 10
-7.6195355177
 20
2.1357746099
 10
-7.6284827268
 20
2.1363596417
 10
-7.6373776675
 20
2.1370441338
 10
-7.6462121951
 20
2.1378274591
 10
-7.6549782092
 20
2.1387088995
 10
-7.6636676608
 20
2.1396876456
 10
-7.6722725763
 20
2.1407627995
 10
-7.68078506
 20
2.1419333746
 10
-7.6891973016
 20
2.1431982968
 10
-7.6975015826
 20
2.1445564055
 10
-7.7056902837
 20
2.1460064547
 10
-7.7137558912
 20
2.1475471138
 10
-7.7216910045
 20
2.1491769691
  0
LWPOLYLINE
  5
46F
100
AcDbEntity
  8
0
100
AcDbPolyline
 62
250
  6
CONTINUOUS
 90
61
 70
0
 10
-11.0872427526
 20
-12.8087926175
 10
-11.1153942728
 20
-12.7764547507
 10
-11.1443639277
 20
-12.7448387412
 10
-11.174129659
 20
-12.7139689491
 10
-11.2046698516
 20
-12.6838686676
 10
-11.2359646632
 20
-12.6545569205
 10
-11.2679946949
 20
-12.6260516645
 10
-11.3007401297
 20
-12.5983708086
 10
-11.3341794805
 20
-12.5715320704
 10
-11.3682908422
 20
-12.5455531198
 10
-11.4030521492
 20
-12.5204512839
 10
-11.438440693
 20
-12.4962425186
 10
-11.4744336047
 20
-12.4729424369
 10
-11.5110078136
 20
-12.4505663684
 10
-11.5481394427
 20
-12.4291285086
 10
-11.5858044133
 20
-12.4086427695
 10
-11.6239784853
 20
-12.389122746
 10
-11.6626367736
 20
-12.3705807652
 10
-11.7017542317
 20
-12.3530288372
 10
-11.7413056715
 20
-12.3364786487
 10
-11.7812653389
 20
-12.3209405934
 10
-11.8216073384
 20
-12.3064247416
 10
-11.8623056593
 20
-12.292940829
 10
-11.9033338302
 20
-12.2804972533
 10
-11.9446652648
 20
-12.2691020778
 10
-11.9862732869
 20
-12.2587630237
 10
-12.0281308618
 20
-12.2494864444
 10
-12.0702108653
 20
-12.2412783513
 10
-12.1124861097
 20
-12.234144408
 10
-12.1549291548
 20
-12.2280888864
 10
-12.197512497
 20
-12.2231157105
 10
-12.240208596
 20
-12.2192284528
 10
-12.2829897657
 20
-12.2164292786
 10
-12.3258282834
 20
-12.2147200021
 10
-12.3686964167
 20
-12.2141020837
 10
-12.411566395
 20
-12.2145755699
 10
-12.4544104378
 20
-12.2161401538
 10
-12.4972007821
 20
-12.2187951754
 10
-12.5399097351
 20
-12.2225385623
 10
-12.5825096211
 20
-12.2273678892
 10
-12.6249728086
 20
-12.2332803795
 10
-12.6672718418
 20
-12.2402718525
 10
-12.7093793089
 20
-12.2483377765
 10
-12.7512678703
 20
-12.2574732744
 10
-12.7929104744
 20
-12.2676720869
 10
-12.834280142
 20
-12.2789276094
 10
-12.8753499862
 20
-12.2912328938
 10
-12.9160934915
 20
-12.3045796187
 10
-12.9564842349
 20
-12.3189591192
 10
-12.9964959323
 20
-12.3343624114
 10
-13.0361028562
 20
-12.3507792358
 10
-13.075279418
 20
-12.3681990141
 10
-13.1140001158
 20
-12.3866107993
 10
-13.152239795
 20
-12.4060021706
 10
-13.1899733879
 20
-12.4263603384
 10
-13.2271762257
 20
-12.4476723806
 10
-13.2638252351
 20
-12.4699248446
 10
-13.2998977419
 20
-12.493104145
 10
-13.335370419
 20
-12.5171957432
 10
-13.3702173268
 20
-12.5421812869
 10
-13.4044118731
 20
-12.5680414706
  0
LINE
  5
470
100
AcDbEntity
  8
0
100
AcDbLine
 62
250
  6
CONTINUOUS
 10
-20.7346335049
 20
-14.1109936175
 11
-20.7346335049
 21
-13.2876536175
  0
LINE
  5
471
100
AcDbEntity
  8
0
100
AcDbLine
 62
250
  6
CONTINUOUS
 10
-20.5190303473
 20
-13.2876536175
 11
-20.5190303473
 21
-14.1109936175
  0
LINE
  5
472
100
AcDbEntity
  8
RACCORDO
100
AcDbLine
 62
250
  6
CONTINUOUS
 10
-20.1689174945
 20
-21.2990636175
 11
-20.1689174945
 21
-21.079703791
  0
LINE
  5
473
100
AcDbEntity
  8
RACCORDO
100
AcDbLine
 62
250
  6
CONTINUOUS
 10
-20.1689174945
 20
20.2815765561
 11
-20.1689174945
 21
20.5009363825
  0
LINE
  5
474
100
AcDbEntity
  8
RACCORDO
100
AcDbLine
 62
250
  6
CONTINUOUS
 10
-20.1662997332
 20
21.046032142
 11
-20.1662997332
 21
20.8009363825
  0
LINE
  5
475
100
AcDbEntity
  8
RACCORDO
100
AcDbLine
 62
250
  6
CONTINUOUS
 10
-20.1662997332
 20
-21.5990636175
 11
-20.1662997332
 21
-21.844159377
  0
LINE
  5
476
100
AcDbEntity
  8
DRAFT
100
AcDbLine
 62
7
  6
CONTINUOUS
 10
-19.8715354552
 20
-20.0100427863
 11
-19.8715354552
 21
-21.0745129682
  0
LINE
  5
477
100
AcDbEntity
  8
ASSI
100
AcDbLine
 62
7
  6
CONTINUOUS
 10
-19.8715354552
 20
-20.0100427863
 11
-19.8715354552
 21
-21.0745129682
  0
LINE
  5
478
100
AcDbEntity
  8
RACCORDO
100
AcDbLine
 62
7
  6
CONTINUOUS
 10
-19.8715354552
 20
-21.0745129682
 11
-19.8715354552
 21
-21.7117568612
  0
LINE
  5
479
100
AcDbEntity
  8
DRAFT
100
AcDbLine
 62
7
  6
CONTINUOUS
 10
-19.8715354552
 20
19.2119155514
 11
-19.8715354552
 21
20.2763857333
  0
LINE
  5
47A
100
AcDbEntity
  8
ASSI
100
AcDbLine
 62
7
  6
CONTINUOUS
 10
-19.8715354552
 20
19.2119155514
 11
-19.8715354552
 21
20.2763857333
  0
LINE
  5
47B
100
AcDbEntity
  8
RACCORDO
100
AcDbLine
 62
7
  6
CONTINUOUS
 10
-19.8715354552
 20
20.2763857333
 11
-19.8715354552
 21
20.9136296262
  0
LWPOLYLINE
  5
47C
100
AcDbEntity
  8
0
100
AcDbPolyline
 62
250
  6
CONTINUOUS
 90
95
 70
0
 10
-18.9187963575
 20
10.4184953825
 10
-18.9207158923
 20
10.332993623
 10
-18.9197683438
 20
10.2474654037
 10
-18.915953696
 20
10.1620208116
 10
-18.9092768169
 20
10.0767549478
 10
-18.8997448272
 20
9.991760061
 10
-18.8873689742
 20
9.907131975
 10
-18.8721626091
 20
9.8229669672
 10
-18.8541433707
 20
9.7393595534
 10
-18.8333310146
 20
9.656403636
 10
-18.8097494753
 20
9.5741924261
 10
-18.7834247613
 20
9.4928186288
 10
-18.7543869992
 20
9.4123736162
 10
-18.7226683502
 20
9.3329480501
 10
-18.6883049966
 20
9.2546310837
 10
-18.651335103
 20
9.1775110426
 10
-18.6118007448
 20
9.1016744514
 10
-18.5697459198
 20
9.0272068713
 10
-18.5252184069
 20
8.9541918117
 10
-18.4782678389
 20
8.8827116928
 10
-18.4289474833
 20
8.8128466321
 10
-18.3773123847
 20
8.7446755359
 10
-18.3234210596
 20
8.6782747697
 10
-18.2673337167
 20
8.6137193716
 10
-18.2091138584
 20
8.5510816113
 10
-18.1488265863
 20
8.4904323209
 10
-18.0865401034
 20
8.4318393496
 10
-18.0223241113
 20
8.3753690047
 10
-17.9562512065
 20
8.3210844094
 10
-17.8883953773
 20
8.2690470482
 10
-17.818833287
 20
8.2193150343
 10
-17.7476428779
 20
8.1719447527
 10
-17.674904535
 20
8.1269890454
 10
-17.6006998039
 20
8.0844989439
 10
-17.5251124301
 20
8.0445217814
 10
-17.4482271955
 20
8.0071030066
 10
-17.3701308291
 20
7.9722842306
 10
-17.2909109678
 20
7.9401051151
 10
-17.2106569341
 20
7.9106013619
 10
-17.1294588257
 20
7.8838066671
 10
-17.0474081565
 20
7.8597506626
 10
-16.9645970798
 20
7.8384609274
 10
-16.8811188893
 20
7.8199608903
 10
-16.7970673793
 20
7.8042718889
 10
-16.7125372036
 20
7.7914110438
 10
-16.6276233754
 20
7.781393355
 10
-16.542421483
 20
7.7742295577
 10
-16.4570273311
 20
7.7699282473
 10
-16.3715370124
 20
7.768493725
 10
-16.2860466919
 20
7.7699281428
 10
-16.2006525347
 20
7.7742293489
 10
-16.1154506336
 20
7.7813930421
 10
-16.0305367931
 20
7.7914106271
 10
-15.9460066018
 20
7.8042713689
 10
-15.8619550725
 20
7.8199602676
 10
-15.7784768595
 20
7.8384602026
 10
-15.6956657567
 20
7.8597498367
 10
-15.6136150582
 20
7.8838057408
 10
-15.5324169171
 20
7.9106003365
 10
-15.4521628473
 20
7.9401039916
 10
-15.3729429468
 20
7.9722830103
 10
-15.2948465378
 20
8.0071016908
 10
-15.2179612575
 20
8.0445203716
 10
-15.1423738349
 20
8.0844974418
 10
-15.0681690519
 20
8.1269874525
 10
-14.9954306541
 20
8.171943071
 10
-14.9242401871
 20
8.2193132656
 10
-14.8546780361
 20
8.2690451945
 10
-14.7868221434
 20
8.3210824728
 10
-14.7207491722
 20
8.3753669873
 10
-14.6565331112
 20
8.4318372538
 10
-14.5942465567
 20
8.490430149
 10
-14.5339592106
 20
8.5510793656
 10
-14.4757392758
 20
8.6137170548
 10
-14.419651854
 20
8.6782723844
 10
-14.3657604478
 20
8.7446730847
 10
-14.3141252659
 20
8.8128441178
 10
-14.264804825
 20
8.8827091182
 10
-14.2178541697
 20
8.9541891797
 10
-14.1733265676
 20
9.027204185
 10
-14.1312716517
 20
9.1016717136
 10
-14.0917372008
 20
9.1775082565
 10
-14.0547672131
 20
9.2546282525
 10
-14.0204037638
 20
9.3329451769
 10
-13.9886850178
 20
9.4123707042
 10
-13.9596471574
 20
9.4928156813
 10
-13.9333223441
 20
9.5741894464
 10
-13.9097407043
 20
9.6564006275
 10
-13.888928247
 20
9.7393565194
 10
-13.8709089065
 20
9.8229639112
 10
-13.8557024385
 20
9.9071289004
 10
-13.8433264822
 20
9.9917569713
 10
-13.8337943887
 20
10.0767518465
 10
-13.8271174055
 20
10.1620177021
 10
-13.8233026533
 20
10.2474622896
  0
LWPOLYLINE
  5
47D
100
AcDbEntity
  8
0
100
AcDbPolyline
 62
250
  6
CONTINUOUS
 90
95
 70
0
 10
-18.9187963575
 20
6.0333823825
 10
-18.9207157915
 20
5.9478806559
 10
-18.9197681445
 20
5.8623524729
 10
-18.9159534004
 20
5.7769079203
 10
-18.9092764275
 20
5.6916420991
 10
-18.8997443466
 20
5.6066472579
 10
-18.8873684049
 20
5.5220192204
 10
-18.8721619538
 20
5.4378542639
 10
-18.8541426322
 20
5.354246904
 10
-18.8333301959
 20
5.271291043
 10
-18.8097485792
 20
5.189079892
 10
-18.7834237909
 20
5.1077061557
 10
-18.7543859575
 20
5.0272612062
 10
-18.7226672404
 20
4.9478357053
 10
-18.6883038217
 20
4.8695188058
 10
-18.6513338665
 20
4.7923988333
 10
-18.6117994498
 20
4.7165623122
 10
-18.5697445696
 20
4.6420948037
 10
-18.5252170049
 20
4.5690798169
 10
-18.4782663883
 20
4.497599772
 10
-18.4289459876
 20
4.4277347862
 10
-18.3773108472
 20
4.3595637658
 10
-18.3234194837
 20
4.2931630761
 10
-18.2673321057
 20
4.228607755
 10
-18.2091122158
 20
4.1659700722
 10
-18.1488249154
 20
4.1053208596
 10
-18.0865384075
 20
4.0467279661
 10
-18.0223223938
 20
3.9902576991
 10
-17.9562494706
 20
3.9359731816
 10
-17.8883936264
 20
3.8839358979
 10
-17.8188315242
 20
3.8342039611
 10
-17.7476411063
 20
3.7868337561
 10
-17.6749027579
 20
3.7418781247
 10
-17.6006980243
 20
3.6993880984
 10
-17.525110651
 20
3.6594110102
 10
-17.4482254198
 20
3.6219923087
 10
-17.3701290597
 20
3.587173605
 10
-17.2909092076
 20
3.5549945604
 10
-17.2106551858
 20
3.5254908769
 10
-17.1294570919
 20
3.4986962502
 10
-17.0474064398
 20
3.4746403125
 10
-16.9645953826
 20
3.4533506422
 10
-16.8811172142
 20
3.4348506685
 10
-16.7970657284
 20
3.4191617287
 10
-16.7125355792
 20
3.4063009432
 10
-16.6276217796
 20
3.3962833121
 10
-16.5424199178
 20
3.3891195705
 10
-16.4570257984
 20
3.3848183136
 10
-16.371535514
 20
3.3833838427
 10
-16.2860452295
 20
3.3848183096
 10
-16.2006511099
 20
3.3891195626
 10
-16.1154492478
 20
3.3962833003
 10
-16.0305354477
 20
3.4063009274
 10
-15.9460052979
 20
3.419161709
 10
-15.8619538114
 20
3.434850645
 10
-15.7784756421
 20
3.4533506149
 10
-15.695664584
 20
3.4746402813
 10
-15.6136139308
 20
3.4986962152
 10
-15.5324158356
 20
3.5254908382
 10
-15.4521618124
 20
3.554994518
 10
-15.3729419588
 20
3.5871735589
 10
-15.2948455971
 20
3.621992259
 10
-15.2179603643
 20
3.659410957
 10
-15.1423729891
 20
3.6993880417
 10
-15.0681682536
 20
3.7418780645
 10
-14.995429903
 20
3.7868336926
 10
-14.924239483
 20
3.8342038943
 10
-14.8546773785
 20
3.8839358279
 10
-14.7868215318
 20
3.9359731085
 10
-14.7207486061
 20
3.9902576229
 10
-14.6565325898
 20
4.046727887
 10
-14.5942460792
 20
4.1053207776
 10
-14.5339587761
 20
4.1659699874
 10
-14.4757388832
 20
4.2286076675
 10
-14.4196515023
 20
4.293162986
 10
-14.3657601358
 20
4.3595636733
 10
-14.3141249922
 20
4.4277346913
 10
-14.2648045883
 20
4.4975996748
 10
-14.2178539684
 20
4.5690797175
 10
-14.1733264003
 20
4.6420947023
 10
-14.1312715167
 20
4.7165622088
 10
-14.0917370965
 20
4.792398728
 10
-14.0547671377
 20
4.8695186989
 10
-14.0204037154
 20
4.9478355967
 10
-13.9886849947
 20
5.0272610962
 10
-13.9596471575
 20
5.1077060443
 10
-13.9333223654
 20
5.1890797794
 10
-13.909740745
 20
5.2712909294
 10
-13.8889283048
 20
5.3542467894
 10
-13.8709089794
 20
5.4378541485
 10
-13.8557025244
 20
5.5220191043
 10
-13.8433265789
 20
5.6066471412
 10
-13.8337944939
 20
5.691641982
 10
-13.8271175171
 20
5.7769078029
 10
-13.8233027692
 20
5.8623523553
  0
LWPOLYLINE
  5
47E
100
AcDbEntity
  8
0
100
AcDbPolyline
 62
250
  6
CONTINUOUS
 90
15
 70
0
 10
-25.2436767634
 20
-5.997436359
 10
-25.2077885378
 20
-5.9842411374
 10
-25.171724168
 20
-5.9715280036
 10
-25.1355044518
 20
-5.9592524109
 10
-25.099150187
 20
-5.9473698126
 10
-25.0626821715
 20
-5.9358356622
 10
-25.026121203
 20
-5.924605413
 10
-24.9710893406
 20
-5.9082124527
 10
-24.915941562
 20
-5.8922351604
 10
-24.8607246402
 20
-5.8765044323
 10
-24.8054853486
 20
-5.8608511647
 10
-24.7502737794
 20
-5.8451285688
 10
-24.6951022947
 20
-5.829264583
 10
-24.6400064934
 20
-5.8132386159
 10
-24.5115539221
 20
-5.7755403627
  0
LWPOLYLINE
  5
47F
100
AcDbEntity
  8
0
100
AcDbPolyline
 62
250
  6
CONTINUOUS
 90
3
 70
0
 10
-24.5115539221
 20
-5.7755403627
 10
-24.4381436525
 20
-5.7540519647
 10
-24.3646747113
 20
-5.7327660618
  0
LWPOLYLINE
  5
480
100
AcDbEntity
  8
0
100
AcDbPolyline
 62
7
  6
CONTINUOUS
 90
54
 70
0
 10
-26.3297462325
 20
4.3820681337
 10
-26.3602017877
 20
4.3817551672
 10
-26.3906663734
 20
4.3807893168
 10
-26.4211116495
 20
4.3791301564
 10
-26.4515092761
 20
4.3767372599
 10
-26.4818309129
 20
4.3735702012
 10
-26.51204822
 20
4.3695885541
 10
-26.5421328574
 20
4.3647518925
 10
-26.5683567956
 20
4.3597783222
 10
-26.5944272125
 20
4.3540803421
 10
-26.6203141694
 20
4.3476208369
 10
-26.6459877278
 20
4.3403626914
 10
-26.671532918
 20
4.3322349536
 10
-26.6967963402
 20
4.32325759
 10
-26.7217417991
 20
4.3134244088
 10
-26.7463330992
 20
4.3027292179
 10
-26.7705301177
 20
4.2911648124
 10
-26.7942836657
 20
4.2787167128
 10
-26.817540591
 20
4.2653693469
 10
-26.8402477415
 20
4.2511071426
 10
-26.8623064383
 20
4.2359557075
 10
-26.8837236329
 20
4.2199047991
 10
-26.9044581259
 20
4.2029813054
 10
-26.9244687178
 20
4.1852121144
 10
-26.9437495666
 20
4.1665998209
 10
-26.9622614612
 20
4.1472210357
 10
-26.9800028805
 20
4.1271305733
 10
-26.9969723036
 20
4.106383248
 10
-27.0131692515
 20
4.0850292784
 10
-27.0285896365
 20
4.0631108872
 10
-27.0432305376
 20
4.0406657986
 10
-27.0570890339
 20
4.0177317366
 10
-27.0701327954
 20
3.9944109858
 10
-27.082421894
 20
3.9706832735
 10
-27.09398275
 20
3.9465904498
 10
-27.104841784
 20
3.922174365
 10
-27.1150363344
 20
3.8974506104
 10
-27.1245889142
 20
3.8724735753
 10
-27.1335342637
 20
3.8472719354
 10
-27.1419071229
 20
3.8218743665
 10
-27.1522293012
 20
3.7877646615
 10
-27.1616367068
 20
3.7533927213
 10
-27.1701697612
 20
3.7187933992
 10
-27.1778578418
 20
3.6840401824
 10
-27.184738794
 20
3.649118348
 10
-27.1908374825
 20
3.6140513599
 10
-27.1961767979
 20
3.5788819501
 10
-27.2007894647
 20
3.5436101092
 10
-27.2047053741
 20
3.5082549573
 10
-27.2079627065
 20
3.4728594943
 10
-27.210645778
 20
3.4374154259
 10
-27.2128462732
 20
3.4019382487
 10
-27.2154442499
 20
3.3486678906
 10
-27.2174757642
 20
3.295372127
  0
LINE
  5
481
100
AcDbEntity
  8
DRAFT
100
AcDbLine
 62
7
  6
CONTINUOUS
 10
-7.8715354552
 20
4.4908231208
 11
-7.8752960352
 21
4.4907903027
  0
LINE
  5
482
100
AcDbEntity
  8
ASSI
100
AcDbLine
 62
7
  6
CONTINUOUS
 10
-7.8715354552
 20
4.4908231208
 11
-7.8752960352
 21
4.4907903027
  0
LINE
  5
483
100
AcDbEntity
  8
0
100
AcDbLine
 62
250
  6
CONTINUOUS
 10
-22.7726168196
 20
4.1980792664
 11
-20.8729061988
 21
4.1980792664
  0
LINE
  5
484
100
AcDbEntity
  8
RACCORDO
100
AcDbLine
 62
250
  6
CONTINUOUS
 10
-34.0821695628
 20
4.4009363825
 11
-35.49100031
 21
4.4009363825
  0
LINE
  5
485
100
AcDbEntity
  8
RACCORDO
100
AcDbLine
 62
7
  6
CONTINUOUS
 10
-34.0576126507
 20
4.6009363825
 11
-35.5155572222
 21
4.6009363825
  0
LINE
  5
486
100
AcDbEntity
  8
0
100
AcDbLine
 62
7
  6
CONTINUOUS
 10
-24.3219771056
 20
4.7716743825
 11
-27.2210938048
 21
4.7716743825
  0
LINE
  5
487
100
AcDbEntity
  8
RACCORDO
100
AcDbLine
 62
250
  6
CONTINUOUS
 10
-34.0330557385
 20
4.8009363825
 11
-35.5401141344
 21
4.8009363825
  0
LINE
  5
488
100
AcDbEntity
  8
0
100
AcDbLine
 62
7
  6
CONTINUOUS
 10
-27.2210938048
 20
5.3942803825
 11
-24.8037623156
 21
5.3942803825
  0
LINE
  5
489
100
AcDbEntity
  8
0
100
AcDbLine
 62
250
  6
CONTINUOUS
 10
-20.8729061988
 20
5.4918887754
 11
-21.8227615092
 21
5.4918887754
  0
LINE
  5
48A
100
AcDbEntity
  8
0
100
AcDbLine
 62
250
  6
CONTINUOUS
 10
-18.9187993566
 20
6.0333823825
 11
-18.1682080462
 21
6.0333823825
  0
LINE
  5
48B
100
AcDbEntity
  8
0
100
AcDbLine
 62
250
  6
CONTINUOUS
 10
-14.5748628641
 20
6.0333823825
 11
-13.8242715537
 21
6.0333823825
  0
LINE
  5
48C
100
AcDbEntity
  8
DRAFT
100
AcDbLine
 62
7
  6
CONTINUOUS
 10
-7.5924623973
 20
4.0814216933
 11
-6.150608513
 21
3.9805974479
  0
LINE
  5
48D
100
AcDbEntity
  8
ASSI
100
AcDbLine
 62
7
  6
CONTINUOUS
 10
-7.5924623973
 20
4.0814216933
 11
-6.150608513
 21
3.9805974479
  0
LWPOLYLINE
  5
48E
100
AcDbEntity
  8
RACCORDO
100
AcDbPolyline
 62
250
  6
CONTINUOUS
 90
22
 70
0
 10
-6.1698075888
 20
1.6551635064
 10
-6.2192839225
 20
1.667148173
 10
-6.2702968937
 20
1.6792877542
 10
-6.3228465023
 20
1.6915822501
 10
-6.3768845201
 20
1.7040274111
 10
-6.4324591752
 20
1.7166274868
 10
-6.4897151524
 20
1.7293952255
 10
-6.5486558851
 20
1.742332143
 10
-6.6092779399
 20
1.7554367234
 10
-6.671715701
 20
1.7687171681
 10
-6.7359753071
 20
1.7821751762
 10
-6.8020506197
 20
1.7958090485
 10
-6.8700576071
 20
1.8096218881
 10
-6.9400008641
 20
1.8236146936
 10
-7.011875796
 20
1.8377864664
 10
-7.0857845878
 20
1.8521373147
 10
-7.1617203295
 20
1.866666142
 10
-7.2396899311
 20
1.8813740447
 10
-7.3198163083
 20
1.8962644201
 10
-7.402140433
 20
1.9113384005
 10
-7.4866213333
 20
1.9265948535
 10
-7.5732590092
 20
1.9420337792
  0
LWPOLYLINE
  5
48F
100
AcDbEntity
  8
ASSI
100
AcDbPolyline
 62
250
  6
CONTINUOUS
 90
22
 70
0
 10
-6.1698075888
 20
1.6551635064
 10
-6.2192839225
 20
1.667148173
 10
-6.2702968937
 20
1.6792877542
 10
-6.3228465023
 20
1.6915822501
 10
-6.3768845201
 20
1.7040274111
 10
-6.4324591752
 20
1.7166274868
 10
-6.4897151524
 20
1.7293952255
 10
-6.5486558851
 20
1.742332143
 10
-6.6092779399
 20
1.7554367234
 10
-6.671715701
 20
1.7687171681
 10
-6.7359753071
 20
1.7821751762
 10
-6.8020506197
 20
1.7958090485
 10
-6.8700576071
 20
1.8096218881
 10
-6.9400008641
 20
1.8236146936
 10
-7.011875796
 20
1.8377864664
 10
-7.0857845878
 20
1.8521373147
 10
-7.1617203295
 20
1.866666142
 10
-7.2396899311
 20
1.8813740447
 10
-7.3198163083
 20
1.8962644201
 10
-7.402140433
 20
1.9113384005
 10
-7.4866213333
 20
1.9265948535
 10
-7.5732590092
 20
1.9420337792
  0
LINE
  5
490
100
AcDbEntity
  8
0
100
AcDbLine
 62
250
  6
CONTINUOUS
 10
-21.2799870501
 20
4.7952221502
 11
-22.7726168196
 21
5.2430792041
  0
LINE
  5
491
100
AcDbEntity
  8
0
100
AcDbLine
 62
250
  6
CONTINUOUS
 10
-22.2298423888
 20
3.6009363825
 11
-22.7726168196
 21
4.1980792664
  0
LWPOLYLINE
  5
492
100
AcDbEntity
  8
0
100
AcDbPolyline
 62
250
  6
CONTINUOUS
 90
13
 70
0
 10
-18.1682357768
 20
5.8338821279
 10
-18.1690782441
 20
5.8504940505
 10
-18.1697672307
 20
5.8671132791
 10
-18.170302654
 20
5.8837384647
 10
-18.1706844318
 20
5.9003682582
 10
-18.1709125022
 20
5.9170012554
 10
-18.1709868856
 20
5.9336358317
 10
-18.1709076227
 20
5.9502703073
 10
-18.1706747546
 20
5.9669030024
 10
-18.170288322
 20
5.9835322373
 10
-18.1697483658
 20
6.0001563321
 10
-18.169054927
 20
6.0167736071
 10
-18.1682080462
 20
6.0333823825
  0
LINE
  5
493
100
AcDbEntity
  8
0
100
AcDbLine
 62
250
  6
CONTINUOUS
 10
-18.2005885111
 20
-14.6738896175
 11
-18.2005885111
 21
-13.3280226175
  0
LINE
  5
494
100
AcDbEntity
  8
0
100
AcDbLine
 62
250
  6
CONTINUOUS
 10
-18.004170431
 20
-14.4995606175
 11
-18.004170431
 21
-14.6171806175
  0
LWPOLYLINE
  5
495
100
AcDbEntity
  8
0
100
AcDbPolyline
 62
7
  6
CONTINUOUS
 90
2
 70
0
 43
0.3500000006
 10
-16.8717614708
 20
32.7536351624
 10
-16.8717614708
 20
34.2536356201
  0
LINE
  5
496
100
AcDbEntity
  8
0
100
AcDbLine
 62
250
  6
CONTINUOUS
 10
-16.7464212352
 20
8.5579923825
 11
-16.7464212352
 21
10.0184923825
  0
LINE
  5
497
100
AcDbEntity
  8
0
100
AcDbLine
 62
250
  6
CONTINUOUS
 10
-27.2634450416
 20
-8.3299136175
 11
-24.364674237
 21
-7.4402286175
  0
LWPOLYLINE
  5
498
100
AcDbEntity
  8
RACCORDO
100
AcDbPolyline
 62
250
  6
CONTINUOUS
 90
10
 70
0
 10
-6.1506085051
 20
9.9159919989
 10
-6.3585024724
 20
9.8944918792
 10
-6.5713329574
 20
9.872667583
 10
-6.7890999602
 20
9.8505157253
 10
-7.0115567228
 20
9.8280486334
 10
-7.2389500032
 20
9.8052474652
 10
-7.4720200751
 20
9.7820614274
 10
-7.7110136965
 20
9.7584706509
 10
-7.9556841093
 20
9.7344869756
 10
-8.2060313137
 20
9.7101065212
  0
LWPOLYLINE
  5
499
100
AcDbEntity
  8
ASSI
100
AcDbPolyline
 62
250
  6
CONTINUOUS
 90
10
 70
0
 10
-6.1506085051
 20
9.9159919989
 10
-6.3585024724
 20
9.8944918792
 10
-6.5713329574
 20
9.872667583
 10
-6.7890999602
 20
9.8505157253
 10
-7.0115567228
 20
9.8280486334
 10
-7.2389500032
 20
9.8052474652
 10
-7.4720200751
 20
9.7820614274
 10
-7.7110136965
 20
9.7584706509
 10
-7.9556841093
 20
9.7344869756
 10
-8.2060313137
 20
9.7101065212
  0
LWPOLYLINE
  5
49A
100
AcDbEntity
  8
RACCORDO
100
AcDbPolyline
 62
250
  6
CONTINUOUS
 90
40
 70
0
 10
-7.5924623973
 20
8.9557001506
 10
-7.6039619565
 20
8.9547850732
 10
-7.6154134904
 20
8.9534763563
 10
-7.6268000388
 20
8.951775938
 10
-7.6381047377
 20
8.9496863368
 10
-7.6493108442
 20
8.9472106474
 10
-7.6604017618
 20
8.9443525366
 10
-7.671361064
 20
8.9411162372
 10
-7.6821725198
 20
8.9375065424
 10
-7.6928201169
 20
8.9335287984
 10
-7.7032880857
 20
8.9291888964
 10
-7.7135609226
 20
8.9244932639
 10
-7.7236234131
 20
8.9194488554
 10
-7.7334606541
 20
8.914063142
 10
-7.7430580764
 20
8.9083441001
 10
-7.7524014655
 20
8.9023001999
 10
-7.7614769836
 20
8.8959403927
 10
-7.7702711894
 20
8.8892740976
 10
-7.7787710583
 20
8.8823111878
 10
-7.7869640015
 20
8.8750619757
 10
-7.7948378849
 20
8.8675371976
 10
-7.802381047
 20
8.8597479982
 10
-7.809582316
 20
8.8517059135
 10
-7.8164310264
 20
8.8434228543
 10
-7.822917035
 20
8.8349110882
 10
-7.8290307357
 20
8.8261832215
 10
-7.8347630738
 20
8.8172521806
 10
-7.8401055596
 20
8.8081311927
 10
-7.8450502804
 20
8.7988337665
 10
-7.849589913
 20
8.7893736719
 10
-7.8537177339
 20
8.7797649197
 10
-7.8574276296
 20
8.7700217409
 10
-7.8607141056
 20
8.7601585657
 10
-7.8635722945
 20
8.7501900018
 10
-7.8659979631
 20
8.7401308131
 10
-7.8679875189
 20
8.7299958979
 10
-7.8695380154
 20
8.7198002663
 10
-7.870647156
 20
8.7095590185
 10
-7.8713132981
 20
8.6992873224
 10
-7.8715354552
 20
8.6890003908
  0
LWPOLYLINE
  5
49B
100
AcDbEntity
  8
ASSI
100
AcDbPolyline
 62
250
  6
CONTINUOUS
 90
40
 70
0
 10
-7.5924623973
 20
8.9557001506
 10
-7.6039619565
 20
8.9547850732
 10
-7.6154134904
 20
8.9534763563
 10
-7.6268000388
 20
8.951775938
 10
-7.6381047377
 20
8.9496863368
 10
-7.6493108442
 20
8.9472106474
 10
-7.6604017618
 20
8.9443525366
 10
-7.671361064
 20
8.9411162372
 10
-7.6821725198
 20
8.9375065424
 10
-7.6928201169
 20
8.9335287984
 10
-7.7032880857
 20
8.9291888964
 10
-7.7135609226
 20
8.9244932639
 10
-7.7236234131
 20
8.9194488554
 10
-7.7334606541
 20
8.914063142
 10
-7.7430580764
 20
8.9083441001
 10
-7.7524014655
 20
8.9023001999
 10
-7.7614769836
 20
8.8959403927
 10
-7.7702711894
 20
8.8892740976
 10
-7.7787710583
 20
8.8823111878
 10
-7.7869640015
 20
8.8750619757
 10
-7.7948378849
 20
8.8675371976
 10
-7.802381047
 20
8.8597479982
 10
-7.809582316
 20
8.8517059135
 10
-7.8164310264
 20
8.8434228543
 10
-7.822917035
 20
8.8349110882
 10
-7.8290307357
 20
8.8261832215
 10
-7.8347630738
 20
8.8172521806
 10
-7.8401055596
 20
8.8081311927
 10
-7.8450502804
 20
8.7988337665
 10
-7.849589913
 20
8.7893736719
 10
-7.8537177339
 20
8.7797649197
 10
-7.8574276296
 20
8.7700217409
 10
-7.8607141056
 20
8.7601585657
 10
-7.8635722945
 20
8.7501900018
 10
-7.8659979631
 20
8.7401308131
 10
-7.8679875189
 20
8.7299958979
 10
-7.8695380154
 20
8.7198002663
 10
-7.870647156
 20
8.7095590185
 10
-7.8713132981
 20
8.6992873224
 10
-7.8715354552
 20
8.6890003908
  0
LINE
  5
49C
100
AcDbEntity
  8
DRAFT
100
AcDbLine
 62
7
  6
CONTINUOUS
 10
-7.5924623973
 20
8.6204510718
 11
-6.150608513
 21
8.7212753172
  0
LINE
  5
49D
100
AcDbEntity
  8
ASSI
100
AcDbLine
 62
7
  6
CONTINUOUS
 10
-7.5924623973
 20
8.6204510718
 11
-6.150608513
 21
8.7212753172
  0
LINE
  5
49E
100
AcDbEntity
  8
0
100
AcDbLine
 62
250
  6
CONTINUOUS
 10
-21.4156806861
 20
6.4373648472
 11
-22.2298423888
 21
6.4373648472
  0
LINE
  5
49F
100
AcDbEntity
  8
0
100
AcDbLine
 62
7
  6
CONTINUOUS
 10
-24.8037623156
 20
6.4672793825
 11
-24.3219771056
 21
6.4672793825
  0
LINE
  5
4A0
100
AcDbEntity
  8
0
100
AcDbLine
 62
250
  6
CONTINUOUS
 10
-22.2298423888
 20
7.4823648472
 11
-21.4156806861
 21
7.4823648472
  0
LINE
  5
4A1
100
AcDbEntity
  8
0
100
AcDbLine
 62
250
  6
CONTINUOUS
 10
-21.4156806861
 20
8.0795076687
 11
-22.2298423888
 21
8.0795076687
  0
LWPOLYLINE
  5
4A2
100
AcDbEntity
  8
RACCORDO
100
AcDbPolyline
 62
250
  6
CONTINUOUS
 90
22
 70
0
 10
-6.1506087276
 20
1.7904413443
 10
-6.2012027699
 20
1.8049055411
 10
-6.2533991561
 20
1.8195488111
 10
-6.3071978861
 20
1.8343722681
 10
-6.3625503956
 20
1.8493742212
 10
-6.419505249
 20
1.8645585515
 10
-6.4782081397
 20
1.8799348682
 10
-6.5386613016
 20
1.8955060115
 10
-6.6008625007
 20
1.9112716293
 10
-6.6649507292
 20
1.9272368189
 10
-6.7309321554
 20
1.9434051582
 10
-6.7988006109
 20
1.9597758186
 10
-6.8686765832
 20
1.9763475477
 10
-6.940563515
 20
1.9931229487
 10
-7.0144579636
 20
2.0101023912
 10
-7.090470088
 20
2.0272815114
 10
-7.1685911188
 20
2.044660185
 10
-7.2488298253
 20
2.0622417027
 10
-7.331322675
 20
2.0800270811
 10
-7.416115157
 20
2.0980178655
 10
-7.5031617821
 20
2.1162159641
 10
-7.5924625504
 20
2.1346230721
  0
LWPOLYLINE
  5
4A3
100
AcDbEntity
  8
ASSI
100
AcDbPolyline
 62
250
  6
CONTINUOUS
 90
22
 70
0
 10
-6.1506087276
 20
1.7904413443
 10
-6.2012027699
 20
1.8049055411
 10
-6.2533991561
 20
1.8195488111
 10
-6.3071978861
 20
1.8343722681
 10
-6.3625503956
 20
1.8493742212
 10
-6.419505249
 20
1.8645585515
 10
-6.4782081397
 20
1.8799348682
 10
-6.5386613016
 20
1.8955060115
 10
-6.6008625007
 20
1.9112716293
 10
-6.6649507292
 20
1.9272368189
 10
-6.7309321554
 20
1.9434051582
 10
-6.7988006109
 20
1.9597758186
 10
-6.8686765832
 20
1.9763475477
 10
-6.940563515
 20
1.9931229487
 10
-7.0144579636
 20
2.0101023912
 10
-7.090470088
 20
2.0272815114
 10
-7.1685911188
 20
2.044660185
 10
-7.2488298253
 20
2.0622417027
 10
-7.331322675
 20
2.0800270811
 10
-7.416115157
 20
2.0980178655
 10
-7.5031617821
 20
2.1162159641
 10
-7.5924625504
 20
2.1346230721
  0
LINE
  5
4A4
100
AcDbEntity
  8
0
100
AcDbLine
 62
7
  6
CONTINUOUS
 10
-25.4182151046
 20
7.7519973825
 11
-26.6671035941
 21
8.1820123825
  0
LINE
  5
4A5
100
AcDbEntity
  8
0
100
AcDbLine
 62
7
  6
CONTINUOUS
 10
-24.3219771056
 20
7.3745053825
 11
-24.9364288948
 21
7.5913533825
  0
LINE
  5
4A6
100
AcDbEntity
  8
0
100
AcDbLine
 62
7
  6
CONTINUOUS
 10
-27.2210938048
 20
7.8283903825
 11
-24.3219771056
 21
6.7800553825
  0
LINE
  5
4A7
100
AcDbEntity
  8
0
100
AcDbLine
 62
250
  6
CONTINUOUS
 10
-22.2298423888
 20
6.4373648472
 11
-22.5012296042
 21
6.5866507394
  0
LINE
  5
4A8
100
AcDbEntity
  8
0
100
AcDbLine
 62
250
  6
CONTINUOUS
 10
-22.5012296042
 20
6.5866507394
 11
-22.7726168196
 21
6.8852220256
  0
LINE
  5
4A9
100
AcDbEntity
  8
0
100
AcDbLine
 62
250
  6
CONTINUOUS
 10
-22.5012296042
 20
8.2287933118
 11
-22.7726168196
 21
8.5273650963
  0
LINE
  5
4AA
100
AcDbEntity
  8
0
100
AcDbLine
 62
250
  6
CONTINUOUS
 10
-21.1442934424
 20
7.3330792041
 11
-20.8729061988
 21
7.0345079179
  0
LINE
  5
4AB
100
AcDbEntity
  8
0
100
AcDbLine
 62
250
  6
CONTINUOUS
 10
-16.3903922547
 20
-15.9914256175
 11
-16.3903922547
 21
-11.8067016175
  0
LINE
  5
4AC
100
AcDbEntity
  8
0
100
AcDbLine
 62
250
  6
CONTINUOUS
 10
-15.9966496751
 20
10.0184923825
 11
-15.9966496751
 21
8.5579923825
  0
LINE
  5
4AD
100
AcDbEntity
  8
0
100
AcDbLine
 62
250
  6
CONTINUOUS
 10
-15.3715354552
 20
-11.8067016175
 11
-15.3715354552
 21
-15.9914256175
  0
LINE
  5
4AE
100
AcDbEntity
  8
0
100
AcDbLine
 62
250
  6
CONTINUOUS
 10
-24.364674237
 20
-11.4410296175
 11
-26.2575165272
 21
-12.1510856175
  0
LINE
  5
4AF
100
AcDbEntity
  8
0
100
AcDbLine
 62
250
  6
CONTINUOUS
 10
-27.2634450416
 20
-11.9941586175
 11
-25.6540383945
 21
-11.3952796175
  0
LWPOLYLINE
  5
4B0
100
AcDbEntity
  8
RACCORDO
100
AcDbPolyline
 62
250
  6
CONTINUOUS
 90
10
 70
0
 10
-6.1662997332
 20
10.2157608924
 10
-6.4308549231
 20
10.1911280027
 10
-6.7035286019
 20
10.1659485537
 10
-6.9843207696
 20
10.1402225455
 10
-7.2726936114
 20
10.1139907666
 10
-7.5691849422
 20
10.0872124285
 10
-7.8754082068
 20
10.0597651648
 10
-8.1919012202
 20
10.0316081869
 10
-8.5181261676
 20
10.0027822835
 10
-8.8540830487
 20
9.9732874546
  0
LWPOLYLINE
  5
4B1
100
AcDbEntity
  8
ASSI
100
AcDbPolyline
 62
250
  6
CONTINUOUS
 90
10
 70
0
 10
-6.1662997332
 20
10.2157608924
 10
-6.4308549231
 20
10.1911280027
 10
-6.7035286019
 20
10.1659485537
 10
-6.9843207696
 20
10.1402225455
 10
-7.2726936114
 20
10.1139907666
 10
-7.5691849422
 20
10.0872124285
 10
-7.8754082068
 20
10.0597651648
 10
-8.1919012202
 20
10.0316081869
 10
-8.5181261676
 20
10.0027822835
 10
-8.8540830487
 20
9.9732874546
  0
LINE
  5
4B2
100
AcDbEntity
  8
0
100
AcDbLine
 62
250
  6
CONTINUOUS
 10
-22.2298423888
 20
9.1245076687
 11
-21.4156806861
 21
9.1245076687
  0
LINE
  5
4B3
100
AcDbEntity
  8
0
100
AcDbLine
 62
7
  6
CONTINUOUS
 10
-24.3219771056
 20
9.8928663825
 11
-27.2210938048
 21
9.8928663825
  0
LINE
  5
4B4
100
AcDbEntity
  8
0
100
AcDbLine
 62
250
  6
CONTINUOUS
 10
-16.7464212352
 20
10.0184923825
 11
-15.9966496751
 21
10.0184923825
  0
LINE
  5
4B5
100
AcDbEntity
  8
RACCORDO
100
AcDbLine
 62
250
  6
CONTINUOUS
 10
-5.8715354552
 20
10.2157608924
 11
-6.1662997332
 21
10.2157608924
  0
LINE
  5
4B6
100
AcDbEntity
  8
ASSI
100
AcDbLine
 62
250
  6
CONTINUOUS
 10
-5.8715354552
 20
10.2157608924
 11
-6.1662997332
 21
10.2157608924
  0
LWPOLYLINE
  5
4B7
100
AcDbEntity
  8
0
100
AcDbPolyline
 62
250
  6
CONTINUOUS
 90
58
 70
0
 10
-16.7464207091
 20
8.5579881584
 10
-16.7900323869
 20
8.5678489499
 10
-16.8333924009
 20
8.5787921662
 10
-16.876469028
 20
8.5908099953
 10
-16.9192316849
 20
8.6038945179
 10
-16.9616543489
 20
8.6180373864
 10
-17.0037121373
 20
8.6332301462
 10
-17.0453800083
 20
8.6494639618
 10
-17.0866322835
 20
8.6667284737
 10
-17.1274431253
 20
8.6850129415
 10
-17.1677869155
 20
8.7043063293
 10
-17.2076389121
 20
8.7245964189
 10
-17.246974592
 20
8.7458706968
 10
-17.2857695792
 20
8.7681163451
 10
-17.3240000851
 20
8.7913193292
 10
-17.3616424681
 20
8.8154653106
 10
-17.3986732805
 20
8.840539665
 10
-17.4350698515
 20
8.8665266264
 10
-17.4708097047
 20
8.8934101431
 10
-17.5058705716
 20
8.9211738915
 10
-17.5402310166
 20
8.9498004597
 10
-17.5738698123
 20
8.9792721638
 10
-17.6067659608
 20
9.0095710644
 10
-17.6388993832
 20
9.0406782009
 10
-17.67025023
 20
9.0725743576
 10
-17.7007988993
 20
9.1052400811
 10
-17.7305267795
 20
9.1386549673
 10
-17.7594155066
 20
9.1727983748
 10
-17.7874469812
 20
9.2076494436
 10
-17.8146041628
 20
9.2431864397
 10
-17.8408702755
 20
9.2793874108
 10
-17.8662288235
 20
9.3162302063
 10
-17.8906644321
 20
9.353691883
 10
-17.9141620064
 20
9.3917492993
 10
-17.936706746
 20
9.4303791372
 10
-17.958285027
 20
9.469557372
 10
-17.9788835198
 20
9.5092598026
 10
-17.9984892012
 20
9.5494620729
 10
-18.0170902744
 20
9.5901392083
 10
-18.0346752488
 20
9.6312660792
 10
-18.0512329511
 20
9.6728174264
 10
-18.0667534764
 20
9.7147674726
 10
-18.0812272367
 20
9.7570903108
 10
-18.0946449704
 20
9.7997599215
 10
-18.1069987212
 20
9.8427498348
 10
-18.1182808593
 20
9.8860334684
 10
-18.1284840868
 20
9.9295841781
 10
-18.1376024336
 20
9.9733750717
 10
-18.1456302615
 20
10.0173791951
 10
-18.1525622751
 20
10.0615694603
 10
-18.1583945491
 20
10.1059182434
 10
-18.1631235009
 20
10.1503977866
 10
-18.1667458735
 20
10.1949805856
 10
-18.1692597133
 20
10.2396401504
 10
-18.170663392
 20
10.2843502445
 10
-18.1709556841
 20
10.329083559
 10
-18.1701369734
 20
10.3738084953
 10
-18.1682080462
 20
10.4184923825
  0
LINE
  5
4B8
100
AcDbEntity
  8
0
100
AcDbLine
 62
250
  6
CONTINUOUS
 10
-21.4156806861
 20
7.4823648472
 11
-21.1442934424
 21
7.3330792041
  0
LINE
  5
4B9
100
AcDbEntity
  8
0
100
AcDbLine
 62
250
  6
CONTINUOUS
 10
-22.2298423888
 20
8.0795076687
 11
-22.5012296042
 21
8.2287933118
  0
LINE
  5
4BA
100
AcDbEntity
  8
0
100
AcDbLine
 62
250
  6
CONTINUOUS
 10
-21.4156806861
 20
9.1245076687
 11
-21.1442934424
 21
8.9752220256
  0
LINE
  5
4BB
100
AcDbEntity
  8
0
100
AcDbLine
 62
250
  6
CONTINUOUS
 10
-22.7726168196
 20
10.0202220256
 11
-22.3655359399
 21
9.7216507394
  0
LINE
  5
4BC
100
AcDbEntity
  8
0
100
AcDbLine
 62
250
  6
CONTINUOUS
 10
-21.1442934424
 20
8.9752220256
 11
-20.8729061988
 21
8.6766507394
  0
LWPOLYLINE
  5
4BD
100
AcDbEntity
  8
RACCORDO
100
AcDbPolyline
 62
7
  6
CONTINUOUS
 90
19
 70
0
 10
-7.8758346652
 20
-18.8129490019
 10
-7.8764556718
 20
-18.8114456544
 10
-7.8771029731
 20
-18.8097135722
 10
-7.8777653098
 20
-18.8077536597
 10
-7.8784424556
 20
-18.805566895
 10
-7.8791344788
 20
-18.8031543439
 10
-7.8798305637
 20
-18.8005171677
 10
-7.8805304165
 20
-18.7976566608
 10
-7.881234179
 20
-18.7945741595
 10
-7.8819316894
 20
-18.7912709821
 10
-7.8826226011
 20
-18.7877486641
 10
-7.8833071145
 20
-18.7840088285
 10
-7.8839758893
 20
-18.7800529951
 10
-7.8846285274
 20
-18.775882923
 10
-7.8852652868
 20
-18.7715005261
 10
-7.8858778116
 20
-18.7669076364
 10
-7.886463272
 20
-18.762106257
 10
-7.8870243647
 20
-18.7570985922
 10
-7.8875610253
 20
-18.7518868943
  0
LWPOLYLINE
  5
4BE
100
AcDbEntity
  8
ASSI
100
AcDbPolyline
 62
7
  6
CONTINUOUS
 90
19
 70
0
 10
-7.8758346652
 20
-18.8129490019
 10
-7.8764556718
 20
-18.8114456544
 10
-7.8771029731
 20
-18.8097135722
 10
-7.8777653098
 20
-18.8077536597
 10
-7.8784424556
 20
-18.805566895
 10
-7.8791344788
 20
-18.8031543439
 10
-7.8798305637
 20
-18.8005171677
 10
-7.8805304165
 20
-18.7976566608
 10
-7.881234179
 20
-18.7945741595
 10
-7.8819316894
 20
-18.7912709821
 10
-7.8826226011
 20
-18.7877486641
 10
-7.8833071145
 20
-18.7840088285
 10
-7.8839758893
 20
-18.7800529951
 10
-7.8846285274
 20
-18.775882923
 10
-7.8852652868
 20
-18.7715005261
 10
-7.8858778116
 20
-18.7669076364
 10
-7.886463272
 20
-18.762106257
 10
-7.8870243647
 20
-18.7570985922
 10
-7.8875610253
 20
-18.7518868943
  0
LWPOLYLINE
  5
4BF
100
AcDbEntity
  8
0
100
AcDbPolyline
 62
250
  6
CONTINUOUS
 90
58
 70
0
 10
-14.5748660655
 20
10.4184951487
 10
-14.5729370676
 20
10.3738113095
 10
-14.5721182859
 20
10.3290864193
 10
-14.5724105066
 20
10.2843531492
 10
-14.5738141136
 20
10.2396430978
 10
-14.5763278813
 20
10.1949835739
 10
-14.5799501817
 20
10.150400814
 10
-14.5846790611
 20
10.1059213083
 10
-14.5905112625
 20
10.0615725609
 10
-14.5974432034
 20
10.0173823297
 10
-14.6054709586
 20
9.9733782386
 10
-14.6145892326
 20
9.9295873757
 10
-14.6247923873
 20
9.886036695
 10
-14.6360744526
 20
9.8427530888
 10
-14.6484281308
 20
9.7997632013
 10
-14.6618457919
 20
9.7570936149
 10
-14.6763194798
 20
9.7147707993
 10
-14.6918399328
 20
9.6728207742
 10
-14.7083975632
 20
9.6312694466
 10
-14.7259824658
 20
9.5901425938
 10
-14.7445834674
 20
9.5494654751
 10
-14.7641890776
 20
9.5092632199
 10
-14.7847874994
 20
9.4695608031
 10
-14.8063657099
 20
9.4303825806
 10
-14.8289103793
 20
9.3917527537
 10
-14.8524078839
 20
9.353695347
 10
-14.8768434231
 20
9.3162336787
 10
-14.9022019022
 20
9.2793908902
 10
-14.9284679464
 20
9.2431899248
 10
-14.95562506
 20
9.2076529333
 10
-14.9836564672
 20
9.1728018678
 10
-15.0125451274
 20
9.1386584624
 10
-15.0422729412
 20
9.1052435771
 10
-15.0728215446
 20
9.0725778535
 10
-15.1041723261
 20
9.0406816955
 10
-15.1363056838
 20
9.0095745566
 10
-15.1692017682
 20
8.9792756527
 10
-15.2028405004
 20
8.9498039443
 10
-15.2372008825
 20
8.9211773706
 10
-15.2722616872
 20
8.8934136158
 10
-15.3080014788
 20
8.8665300919
 10
-15.3443979889
 20
8.8405431223
 10
-15.381428741
 20
8.8154687588
 10
-15.4190710642
 20
8.7913227675
 10
-15.4573015112
 20
8.7681197726
 10
-15.4960964401
 20
8.7458741128
 10
-15.5354320623
 20
8.7245998226
 10
-15.5752840019
 20
8.7043097199
 10
-15.6156277357
 20
8.6850163183
 10
-15.656438522
 20
8.666731836
 10
-15.6976907422
 20
8.6494673089
 10
-15.7393585588
 20
8.6332334775
 10
-15.7814162936
 20
8.6180407013
 10
-15.8238389046
 20
8.6038978158
 10
-15.8666015093
 20
8.5908132756
 10
-15.9096780847
 20
8.5787954283
 10
-15.9530380477
 20
8.5678521932
 10
-15.9966496751
 20
8.5579913825
  0
LWPOLYLINE
  5
4C0
100
AcDbEntity
  8
0
100
AcDbPolyline
 62
250
  6
CONTINUOUS
 90
86
 70
0
 10
-14.5748628579
 20
6.0333822716
 10
-14.5723961537
 20
5.9669028913
 10
-14.5723864806
 20
5.9003681471
 10
-14.5748351397
 20
5.8338820169
 10
-14.5797381738
 20
5.7675343668
 10
-14.5870892483
 20
5.7014123714
 10
-14.5968777782
 20
5.6356065516
 10
-14.6090909972
 20
5.5702078281
 10
-14.6237116664
 20
5.5053053731
 10
-14.6407203445
 20
5.4409877227
 10
-14.6600932552
 20
5.3773426175
 10
-14.6818044721
 20
5.3144572351
 10
-14.7058238056
 20
5.2524172969
 10
-14.7321189635
 20
5.1913077413
 10
-14.760653509
 20
5.1312118311
 10
-14.7913889666
 20
5.07221191
 10
-14.8242828514
 20
5.0143883197
 10
-14.8592907128
 20
4.9578203303
 10
-14.8963642497
 20
4.9025849255
 10
-14.9354532802
 20
4.8487578764
 10
-14.9765039506
 20
4.796412388
 10
-15.0194606216
 20
4.7456203163
 10
-15.0642641812
 20
4.6964506877
 10
-15.1108538365
 20
4.6489710513
 10
-15.1591655405
 20
4.6032458776
 10
-15.2091336785
 20
4.5593380397
 10
-15.2606896183
 20
4.5173071003
 10
-15.3137632819
 20
4.4772109129
 10
-15.3682818268
 20
4.4391038068
 10
-15.4241710948
 20
4.4030383003
 10
-15.4813544306
 20
4.3690631923
 10
-15.5397540009
 20
4.3372253787
 10
-15.5992897568
 20
4.307567862
 10
-15.6598806147
 20
4.2801316594
 10
-15.7214435692
 20
4.2549537418
 10
-15.7838947298
 20
4.2320690237
 10
-15.8471485878
 20
4.2115082426
 10
-15.911118904
 20
4.1933000197
 10
-15.9757181337
 20
4.1774686908
 10
-16.0408581597
 20
4.1640364277
 10
-16.1064498798
 20
4.1530210316
 10
-16.1724037805
 20
4.1444381036
 10
-16.2386296883
 20
4.1382988134
 10
-16.3050371823
 20
4.1346121058
 10
-16.3715355107
 20
4.133382458
 10
-16.438033839
 20
4.1346121099
 10
-16.5044413328
 20
4.1382988216
 10
-16.5706672403
 20
4.1444381159
 10
-16.6366211404
 20
4.153021048
 10
-16.7022128598
 20
4.1640364481
 10
-16.767352885
 20
4.1774687152
 10
-16.8319521137
 20
4.1933000481
 10
-16.8959224288
 20
4.211508275
 10
-16.9591762855
 20
4.23206906
 10
-17.0216274447
 20
4.2549537819
 10
-17.0831903977
 20
4.2801317034
 10
-17.1437812539
 20
4.3075679097
 10
-17.2033170079
 20
4.3372254301
 10
-17.2617165763
 20
4.3690632472
 10
-17.31889991
 20
4.4030383588
 10
-17.3747891758
 20
4.4391038688
 10
-17.4293077183
 20
4.4772109782
 10
-17.4823813795
 20
4.5173071689
 10
-17.5339373166
 20
4.5593381115
 10
-17.5839054519
 20
4.6032459524
 10
-17.6322171531
 20
4.6489711291
 10
-17.6788068054
 20
4.6964507684
 10
-17.7236103621
 20
4.7456203998
 10
-17.7665670299
 20
4.7964124741
 10
-17.8076176971
 20
4.8487579651
 10
-17.8467067242
 20
4.9025850166
 10
-17.8837802577
 20
4.9578204236
 10
-17.9187881157
 20
5.0143884153
 10
-17.9516819968
 20
5.0722120076
 10
-17.9824174509
 20
5.1312119306
 10
-18.0109519927
 20
5.1913078425
 10
-18.0372471468
 20
5.2524173998
 10
-18.0612664764
 20
5.3144573395
 10
-18.0829776895
 20
5.3773427232
 10
-18.1023505962
 20
5.4409878296
 10
-18.1193592704
 20
5.5053054811
 10
-18.1339799355
 20
5.570207937
 10
-18.1461931506
 20
5.6356066612
 10
-18.1559816763
 20
5.7014124815
 10
-18.1633327468
 20
5.7675344775
 10
-18.1682357768
 20
5.8338821279
  0
LINE
  5
4C1
100
AcDbEntity
  8
0
100
AcDbLine
 62
250
  6
CONTINUOUS
 10
-14.0064433326
 20
-14.1468526175
 11
-14.0064433326
 21
-13.6512746175
  0
LWPOLYLINE
  5
4C2
100
AcDbEntity
  8
0
100
AcDbPolyline
 62
250
  6
CONTINUOUS
 90
11
 70
0
 10
-13.8233026533
 20
10.2474622896
 10
-13.8228836967
 20
10.2645645857
 10
-13.822579463
 20
10.2816694662
 10
-13.8223899423
 20
10.2987760205
 10
-13.8223151247
 20
10.3158833379
 10
-13.8223550004
 20
10.3329905077
 10
-13.8225095593
 20
10.3500966192
 10
-13.8227787918
 20
10.3672007618
 10
-13.8231626877
 20
10.3843020249
 10
-13.8236612373
 20
10.4013994977
 10
-13.8242744307
 20
10.4184922696
  0
LWPOLYLINE
  5
4C3
100
AcDbEntity
  8
0
100
AcDbPolyline
 62
250
  6
CONTINUOUS
 90
11
 70
0
 10
-13.8233027692
 20
5.8623523553
 10
-13.8228838131
 20
5.8794546444
 10
-13.8225795799
 20
5.8965595179
 10
-13.8223900596
 20
5.9136660651
 10
-13.8223152423
 20
5.9307733755
 10
-13.8223551181
 20
5.9478805382
 10
-13.8225096772
 20
5.9649866427
 10
-13.8227789097
 20
5.9820907783
 10
-13.8231628056
 20
5.9991920343
 10
-13.8236613551
 20
6.0162895001
 10
-13.8242745482
 20
6.033382265
  0
LWPOLYLINE
  5
4C4
100
AcDbEntity
  8
0
100
AcDbPolyline
 62
250
  6
CONTINUOUS
 90
34
 70
0
 10
-21.7154566881
 20
-12.7955207265
 10
-21.7289853983
 20
-12.8092700285
 10
-21.7421917683
 20
-12.8233535306
 10
-21.7550599771
 20
-12.8377637218
 10
-21.7675742041
 20
-12.8524930911
 10
-21.7797186285
 20
-12.8675341275
 10
-21.7914774296
 20
-12.8828793199
 10
-21.8028347866
 20
-12.8985211574
 10
-21.8137748787
 20
-12.914452129
 10
-21.8242818852
 20
-12.9306647237
 10
-21.8342400585
 20
-12.9469738675
 10
-21.8437685388
 20
-12.9635347031
 10
-21.852877082
 20
-12.9803305849
 10
-21.861575444
 20
-12.9973448675
 10
-21.8698733808
 20
-13.0145609054
 10
-21.8777806485
 20
-13.0319620531
 10
-21.8853070029
 20
-13.0495316652
 10
-21.8924622
 20
-13.0672530961
 10
-21.8992559958
 20
-13.0851097004
 10
-21.9071686395
 20
-13.107338629
 10
-21.9145779882
 20
-13.1297320828
 10
-21.9215176504
 20
-13.1522736148
 10
-21.9280212347
 20
-13.1749467781
 10
-21.9341223495
 20
-13.1977351257
 10
-21.9398546035
 20
-13.2206222104
 10
-21.9452516053
 20
-13.2435915854
 10
-21.9503469633
 20
-13.2666268035
 10
-21.9567109985
 20
-13.2973534822
 10
-21.9626468343
 20
-13.328157555
 10
-21.9682007481
 20
-13.3590289748
 10
-21.9734190173
 20
-13.3899576942
 10
-21.9783479193
 20
-13.4209336663
 10
-21.9830337314
 20
-13.4519468437
 10
-21.987522731
 20
-13.4829871794
  0
LWPOLYLINE
  5
4C5
100
AcDbEntity
  8
RACCORDO
100
AcDbPolyline
 62
7
  6
CONTINUOUS
 90
52
 70
0
 10
-6.1662997332
 20
10.413133415
 10
-6.1573048612
 20
10.4132050709
 10
-6.1483300272
 20
10.4133416988
 10
-6.1393832542
 20
10.4135432988
 10
-6.1304725675
 20
10.4138102697
 10
-6.1216058074
 20
10.4141422126
 10
-6.1127906249
 20
10.414537931
 10
-6.1040347306
 20
10.4149975626
 10
-6.0953458401
 20
10.4155209698
 10
-6.0867314893
 20
10.4161065428
 10
-6.0781991299
 20
10.4167544187
 10
-6.0697561792
 20
10.4174644605
 10
-6.0614099675
 20
10.4182346474
 10
-6.053167631
 20
10.4190651137
 10
-6.0450362284
 20
10.419955725
 10
-6.0370227865
 20
10.4209040585
 10
-6.0291340625
 20
10.421910244
 10
-6.0213767084
 20
10.4229741516
 10
-6.0137573734
 20
10.4240929678
 10
-6.0062823899
 20
10.4252668158
 10
-5.9989579435
 20
10.4264955724
 10
-5.9917902157
 20
10.4277760543
 10
-5.9847850611
 20
10.4291083767
 10
-5.9779481587
 20
10.4304924243
 10
-5.9712851553
 20
10.4319246685
 10
-5.9648013847
 20
10.4334052152
 10
-5.9585019826
 20
10.4349339585
 10
-5.9523920098
 20
10.436507052
 10
-5.9464762446
 20
10.4381245914
 10
-5.9407592492
 20
10.439786481
 10
-5.9352454605
 20
10.4414885877
 10
-5.9299390741
 20
10.443230996
 10
-5.9248440565
 20
10.4450136215
 10
-5.9199641965
 20
10.446832077
 10
-5.9153030884
 20
10.4486864357
 10
-5.9108640885
 20
10.4505766245
 10
-5.9066503268
 20
10.452498037
 10
-5.9026647834
 20
10.4544507361
 10
-5.8989102007
 20
10.4564346588
 10
-5.8953890599
 20
10.4584450103
 10
-5.892103724
 20
10.4604818427
 10
-5.8890563198
 20
10.4625451039
 10
-5.8862486925
 20
10.4646298424
 10
-5.8836825912
 20
10.4667361
 10
-5.8813595318
 20
10.468863835
 10
-5.8792807456
 20
10.4710079711
 10
-5.8774473726
 20
10.473168544
 10
-5.8758603328
 20
10.4753455181
 10
-5.8745202796
 20
10.4775337099
 10
-5.8734277386
 20
10.4797313915
 10
-5.8725830669
 20
10.4819402907
 10
-5.8719863895
 20
10.4841604077
  0
LWPOLYLINE
  5
4C6
100
AcDbEntity
  8
ASSI
100
AcDbPolyline
 62
7
  6
CONTINUOUS
 90
52
 70
0
 10
-6.1662997332
 20
10.413133415
 10
-6.1573048612
 20
10.4132050709
 10
-6.1483300272
 20
10.4133416988
 10
-6.1393832542
 20
10.4135432988
 10
-6.1304725675
 20
10.4138102697
 10
-6.1216058074
 20
10.4141422126
 10
-6.1127906249
 20
10.414537931
 10
-6.1040347306
 20
10.4149975626
 10
-6.0953458401
 20
10.4155209698
 10
-6.0867314893
 20
10.4161065428
 10
-6.0781991299
 20
10.4167544187
 10
-6.0697561792
 20
10.4174644605
 10
-6.0614099675
 20
10.4182346474
 10
-6.053167631
 20
10.4190651137
 10
-6.0450362284
 20
10.419955725
 10
-6.0370227865
 20
10.4209040585
 10
-6.0291340625
 20
10.421910244
 10
-6.0213767084
 20
10.4229741516
 10
-6.0137573734
 20
10.4240929678
 10
-6.0062823899
 20
10.4252668158
 10
-5.9989579435
 20
10.4264955724
 10
-5.9917902157
 20
10.4277760543
 10
-5.9847850611
 20
10.4291083767
 10
-5.9779481587
 20
10.4304924243
 10
-5.9712851553
 20
10.4319246685
 10
-5.9648013847
 20
10.4334052152
 10
-5.9585019826
 20
10.4349339585
 10
-5.9523920098
 20
10.436507052
 10
-5.9464762446
 20
10.4381245914
 10
-5.9407592492
 20
10.439786481
 10
-5.9352454605
 20
10.4414885877
 10
-5.9299390741
 20
10.443230996
 10
-5.9248440565
 20
10.4450136215
 10
-5.9199641965
 20
10.446832077
 10
-5.9153030884
 20
10.4486864357
 10
-5.9108640885
 20
10.4505766245
 10
-5.9066503268
 20
10.452498037
 10
-5.9026647834
 20
10.4544507361
 10
-5.8989102007
 20
10.4564346588
 10
-5.8953890599
 20
10.4584450103
 10
-5.892103724
 20
10.4604818427
 10
-5.8890563198
 20
10.4625451039
 10
-5.8862486925
 20
10.4646298424
 10
-5.8836825912
 20
10.4667361
 10
-5.8813595318
 20
10.468863835
 10
-5.8792807456
 20
10.4710079711
 10
-5.8774473726
 20
10.473168544
 10
-5.8758603328
 20
10.4753455181
 10
-5.8745202796
 20
10.4775337099
 10
-5.8734277386
 20
10.4797313915
 10
-5.8725830669
 20
10.4819402907
 10
-5.8719863895
 20
10.4841604077
  0
LINE
  5
4C7
100
AcDbEntity
  8
0
100
AcDbLine
 62
250
  6
CONTINUOUS
 10
-18.9187993566
 20
10.4184923825
 11
-18.1682080462
 21
10.4184923825
  0
LINE
  5
4C8
100
AcDbEntity
  8
0
100
AcDbLine
 62
250
  6
CONTINUOUS
 10
-14.5748628641
 20
10.4184923825
 11
-13.8242715537
 21
10.4184923825
  0
LINE
  5
4C9
100
AcDbEntity
  8
0
100
AcDbLine
 62
7
  6
CONTINUOUS
 10
-26.7483418425
 20
10.4753113825
 11
-24.3219771056
 21
10.4753113825
  0
LINE
  5
4CA
100
AcDbEntity
  8
0
100
AcDbLine
 62
250
  6
CONTINUOUS
 10
-22.2298423888
 20
10.7666507394
 11
-22.5012296042
 21
10.7666507394
  0
LINE
  5
4CB
100
AcDbEntity
  8
0
100
AcDbLine
 62
7
  6
CONTINUOUS
 10
-24.9236807789
 20
11.9292953825
 11
-27.2210938048
 21
11.9292953825
  0
LINE
  5
4CC
100
AcDbEntity
  8
RACCORDO
100
AcDbLine
 62
7
  6
CONTINUOUS
 10
-6.1662997332
 20
10.413133415
 11
-6.1715354552
 21
10.4132105135
  0
LINE
  5
4CD
100
AcDbEntity
  8
ASSI
100
AcDbLine
 62
7
  6
CONTINUOUS
 10
-6.1662997332
 20
10.413133415
 11
-6.1715354552
 21
10.4132105135
  0
LINE
  5
4CE
100
AcDbEntity
  8
0
100
AcDbLine
 62
7
  6
CONTINUOUS
 10
-27.2210938048
 20
13.8534253825
 11
-24.3219771056
 21
12.8049813825
  0
LINE
  5
4CF
100
AcDbEntity
  8
0
100
AcDbLine
 62
250
  6
CONTINUOUS
 10
-20.8729061988
 20
9.7216507394
 11
-22.2298423888
 21
10.7666507394
  0
LINE
  5
4D0
100
AcDbEntity
  8
0
100
AcDbLine
 62
250
  6
CONTINUOUS
 10
-10.7366275777
 20
-14.1468526175
 11
-10.7366275777
 21
-13.6512746175
  0
LWPOLYLINE
  5
4D1
100
AcDbEntity
  8
RACCORDO
100
AcDbPolyline
 62
7
  6
CONTINUOUS
 90
4
 70
0
 10
-19.8715354552
 20
-21.2991093089
 10
-19.8718871517
 20
-21.2997772018
 10
-19.8729181605
 20
-21.3010442997
 10
-19.8745917612
 20
-21.3029106027
  0
LINE
  5
4D2
100
AcDbEntity
  8
0
100
AcDbLine
 62
250
  6
CONTINUOUS
 10
-22.4467826966
 20
-16.3991936175
 11
-17.4702547614
 21
-11.6675076175
  0
LINE
  5
4D3
100
AcDbEntity
  8
0
100
AcDbLine
 62
250
  6
CONTINUOUS
 10
-24.364674237
 20
-15.4819376175
 11
-27.2634450416
 21
-16.4011836175
  0
LINE
  5
4D4
100
AcDbEntity
  8
RACCORDO
100
AcDbLine
 62
7
  6
CONTINUOUS
 10
-6.1715354552
 20
12.9886622515
 11
-6.1662997332
 21
12.9887393501
  0
LINE
  5
4D5
100
AcDbEntity
  8
ASSI
100
AcDbLine
 62
7
  6
CONTINUOUS
 10
-6.1715354552
 20
12.9886622515
 11
-6.1662997332
 21
12.9887393501
  0
LINE
  5
4D6
100
AcDbEntity
  8
0
100
AcDbLine
 62
7
  6
CONTINUOUS
 10
-27.2210938048
 20
12.5117393825
 11
-24.3219771056
 21
12.5117393825
  0
LINE
  5
4D7
100
AcDbEntity
  8
RACCORDO
100
AcDbLine
 62
250
  6
CONTINUOUS
 10
-5.8715354552
 20
13.1861116885
 11
-6.1662997332
 21
13.1861116885
  0
LINE
  5
4D8
100
AcDbEntity
  8
ASSI
100
AcDbLine
 62
250
  6
CONTINUOUS
 10
-5.8715354552
 20
13.1861116885
 11
-6.1662997332
 21
13.1861116885
  0
LINE
  5
4D9
100
AcDbEntity
  8
0
100
AcDbLine
 62
7
  6
CONTINUOUS
 10
-25.4182151046
 20
13.7770323825
 11
-26.6669396441
 21
14.2069903825
  0
LINE
  5
4DA
100
AcDbEntity
  8
0
100
AcDbLine
 62
7
  6
CONTINUOUS
 10
-24.3219771056
 20
13.3994303825
 11
-24.9364288948
 21
13.6163873825
  0
LWPOLYLINE
  5
4DB
100
AcDbEntity
  8
RACCORDO
100
AcDbPolyline
 62
7
  6
CONTINUOUS
 90
5
 70
0
 10
-19.8715354552
 20
20.500982074
 10
-19.8718871517
 20
20.5016499668
 10
-19.8729181605
 20
20.5029170648
 10
-19.8745917612
 20
20.5047833678
 10
-19.8797160499
 20
20.5103876345
  0
LWPOLYLINE
  5
4DC
100
AcDbEntity
  8
RACCORDO
100
AcDbPolyline
 62
7
  6
CONTINUOUS
 90
17
 70
0
 10
-7.8875610253
 20
-18.7518868943
 10
-7.8883176024
 20
-18.7437643126
 10
-7.8890297422
 20
-18.7352071935
 10
-7.8896972588
 20
-18.7262245942
 10
-7.8903226838
 20
-18.7168248413
 10
-7.8909031356
 20
-18.7070188907
 10
-7.8914303293
 20
-18.6968207948
 10
-7.8919031476
 20
-18.6862458837
 10
-7.8923224328
 20
-18.6753016852
 10
-7.8926828401
 20
-18.6639906047
 10
-7.8929835527
 20
-18.652317544
 10
-7.8932251078
 20
-18.6403001537
 10
-7.8934042053
 20
-18.6279604161
 10
-7.8935198284
 20
-18.6153195949
 10
-7.893572829
 20
-18.6023833279
 10
-7.8935627149
 20
-18.5891503881
 10
-7.8934885209
 20
-18.5756248462
  0
LWPOLYLINE
  5
4DD
100
AcDbEntity
  8
ASSI
100
AcDbPolyline
 62
7
  6
CONTINUOUS
 90
17
 70
0
 10
-7.8875610253
 20
-18.7518868943
 10
-7.8883176024
 20
-18.7437643126
 10
-7.8890297422
 20
-18.7352071935
 10
-7.8896972588
 20
-18.7262245942
 10
-7.8903226838
 20
-18.7168248413
 10
-7.8909031356
 20
-18.7070188907
 10
-7.8914303293
 20
-18.6968207948
 10
-7.8919031476
 20
-18.6862458837
 10
-7.8923224328
 20
-18.6753016852
 10
-7.8926828401
 20
-18.6639906047
 10
-7.8929835527
 20
-18.652317544
 10
-7.8932251078
 20
-18.6403001537
 10
-7.8934042053
 20
-18.6279604161
 10
-7.8935198284
 20
-18.6153195949
 10
-7.893572829
 20
-18.6023833279
 10
-7.8935627149
 20
-18.5891503881
 10
-7.8934885209
 20
-18.5756248462
  0
LINE
  5
4DE
100
AcDbEntity
  8
RACCORDO
100
AcDbLine
 62
250
  6
CONTINUOUS
 10
-8.8532890439
 20
18.3380060337
 11
-8.8540830487
 21
18.5346748018
  0
LINE
  5
4DF
100
AcDbEntity
  8
ASSI
100
AcDbLine
 62
250
  6
CONTINUOUS
 10
-8.8532890439
 20
18.3380060337
 11
-8.8540830487
 21
18.5346748018
  0
LINE
  5
4E0
100
AcDbEntity
  8
RACCORDO
100
AcDbLine
 62
250
  6
CONTINUOUS
 10
-8.853008445
 20
-18.3089211434
 11
-8.8540830487
 21
-17.918803866
  0
LINE
  5
4E1
100
AcDbEntity
  8
ASSI
100
AcDbLine
 62
250
  6
CONTINUOUS
 10
-8.853008445
 20
-18.3089211434
 11
-8.8540830487
 21
-17.918803866
  0
LINE
  5
4E2
100
AcDbEntity
  8
RACCORDO
100
AcDbLine
 62
250
  6
CONTINUOUS
 10
-8.8527578245
 20
18.0824968888
 11
-8.8532890439
 21
18.3380060337
  0
LINE
  5
4E3
100
AcDbEntity
  8
ASSI
100
AcDbLine
 62
250
  6
CONTINUOUS
 10
-8.8527578245
 20
18.0824968888
 11
-8.8532890439
 21
18.3380060337
  0
LINE
  5
4E4
100
AcDbEntity
  8
RACCORDO
100
AcDbLine
 62
250
  6
CONTINUOUS
 10
-8.852650089
 20
-18.6435603266
 11
-8.853008445
 21
-18.3089211434
  0
LINE
  5
4E5
100
AcDbEntity
  8
ASSI
100
AcDbLine
 62
250
  6
CONTINUOUS
 10
-8.852650089
 20
-18.6435603266
 11
-8.853008445
 21
-18.3089211434
  0
LINE
  5
4E6
100
AcDbEntity
  8
0
100
AcDbLine
 62
250
  6
CONTINUOUS
 10
-10.122298751
 20
-13.3638396175
 11
-10.122298751
 21
-13.8990636175
  0
LINE
  5
4E7
100
AcDbEntity
  8
RACCORDO
100
AcDbLine
 62
250
  6
CONTINUOUS
 10
-8.8540830487
 20
-19.8177324392
 11
-8.8540830487
 21
-19.3328020368
  0
LINE
  5
4E8
100
AcDbEntity
  8
ASSI
100
AcDbLine
 62
250
  6
CONTINUOUS
 10
-8.8540830487
 20
-19.8177324392
 11
-8.8540830487
 21
-19.3328020368
  0
LINE
  5
4E9
100
AcDbEntity
  8
RACCORDO
100
AcDbLine
 62
250
  6
CONTINUOUS
 10
-8.8540830487
 20
-17.918803866
 11
-8.8540830487
 21
9.9732874546
  0
LINE
  5
4EA
100
AcDbEntity
  8
ASSI
100
AcDbLine
 62
250
  6
CONTINUOUS
 10
-8.8540830487
 20
-17.918803866
 11
-8.8540830487
 21
9.9732874546
  0
LINE
  5
4EB
100
AcDbEntity
  8
RACCORDO
100
AcDbLine
 62
250
  6
CONTINUOUS
 10
-8.8540830487
 20
13.4285852817
 11
-8.8540830487
 21
17.120676631
  0
LINE
  5
4EC
100
AcDbEntity
  8
ASSI
100
AcDbLine
 62
250
  6
CONTINUOUS
 10
-8.8540830487
 20
13.4285852817
 11
-8.8540830487
 21
17.120676631
  0
LINE
  5
4ED
100
AcDbEntity
  8
RACCORDO
100
AcDbLine
 62
250
  6
CONTINUOUS
 10
-8.8540830487
 20
18.5346748018
 11
-8.8540830487
 21
19.0196052043
  0
LINE
  5
4EE
100
AcDbEntity
  8
ASSI
100
AcDbLine
 62
250
  6
CONTINUOUS
 10
-8.8540830487
 20
18.5346748018
 11
-8.8540830487
 21
19.0196052043
  0
LINE
  5
4EF
100
AcDbEntity
  8
RACCORDO
100
AcDbLine
 62
250
  6
CONTINUOUS
 10
-8.8526860316
 20
17.7634494127
 11
-8.8527578245
 21
18.0824968888
  0
LINE
  5
4F0
100
AcDbEntity
  8
ASSI
100
AcDbLine
 62
250
  6
CONTINUOUS
 10
-8.8526860316
 20
17.7634494127
 11
-8.8527578245
 21
18.0824968888
  0
LINE
  5
4F1
100
AcDbEntity
  8
RACCORDO
100
AcDbLine
 62
250
  6
CONTINUOUS
 10
-8.8528653811
 20
-18.9561816225
 11
-8.852650089
 21
-18.6435603266
  0
LINE
  5
4F2
100
AcDbEntity
  8
ASSI
100
AcDbLine
 62
250
  6
CONTINUOUS
 10
-8.8528653811
 20
-18.9561816225
 11
-8.852650089
 21
-18.6435603266
  0
LINE
  5
4F3
100
AcDbEntity
  8
RACCORDO
100
AcDbLine
 62
250
  6
CONTINUOUS
 10
-8.8531867431
 20
17.4248741792
 11
-8.8526860316
 21
17.7634494127
  0
LINE
  5
4F4
100
AcDbEntity
  8
ASSI
100
AcDbLine
 62
250
  6
CONTINUOUS
 10
-8.8531867431
 20
17.4248741792
 11
-8.8526860316
 21
17.7634494127
  0
LINE
  5
4F5
100
AcDbEntity
  8
RACCORDO
100
AcDbLine
 62
250
  6
CONTINUOUS
 10
-8.8540830487
 20
17.120676631
 11
-8.8531867431
 21
17.4248741792
  0
LINE
  5
4F6
100
AcDbEntity
  8
ASSI
100
AcDbLine
 62
250
  6
CONTINUOUS
 10
-8.8540830487
 20
17.120676631
 11
-8.8531867431
 21
17.4248741792
  0
LINE
  5
4F7
100
AcDbEntity
  8
RACCORDO
100
AcDbLine
 62
250
  6
CONTINUOUS
 10
-8.8535195745
 20
-19.204176938
 11
-8.8528653811
 21
-18.9561816225
  0
LINE
  5
4F8
100
AcDbEntity
  8
ASSI
100
AcDbLine
 62
250
  6
CONTINUOUS
 10
-8.8535195745
 20
-19.204176938
 11
-8.8528653811
 21
-18.9561816225
  0
LINE
  5
4F9
100
AcDbEntity
  8
RACCORDO
100
AcDbLine
 62
250
  6
CONTINUOUS
 10
-8.8540830487
 20
-19.3328020368
 11
-8.8535195745
 21
-19.204176938
  0
LINE
  5
4FA
100
AcDbEntity
  8
ASSI
100
AcDbLine
 62
250
  6
CONTINUOUS
 10
-8.8540830487
 20
-19.3328020368
 11
-8.8535195745
 21
-19.204176938
  0
LINE
  5
4FB
100
AcDbEntity
  8
RACCORDO
100
AcDbLine
 62
7
  6
CONTINUOUS
 10
-33.2465354552
 20
-24.0268948338
 11
-32.3715354552
 21
-23.5217133483
  0
LINE
  5
4FC
100
AcDbEntity
  8
DRAFT
100
AcDbLine
 62
7
  6
CONTINUOUS
 10
-7.5924623973
 20
14.7814216933
 11
-6.150608513
 21
14.6805974479
  0
LINE
  5
4FD
100
AcDbEntity
  8
ASSI
100
AcDbLine
 62
7
  6
CONTINUOUS
 10
-7.5924623973
 20
14.7814216933
 11
-6.150608513
 21
14.6805974479
  0
LWPOLYLINE
  5
4FE
100
AcDbEntity
  8
RACCORDO
100
AcDbPolyline
 62
250
  6
CONTINUOUS
 90
40
 70
0
 10
-7.5924623973
 20
14.4461726145
 10
-7.6039619514
 20
14.4470876915
 10
-7.6154134806
 20
14.4483964078
 10
-7.6268000244
 20
14.4500968252
 10
-7.6381047189
 20
14.4521864252
 10
-7.6493108214
 20
14.454662113
 10
-7.6604017351
 20
14.4575202221
 10
-7.671361034
 20
14.4607565195
 10
-7.6821724867
 20
14.4643662121
 10
-7.692820081
 20
14.4683439538
 10
-7.7032880474
 20
14.4726838534
 10
-7.7135608823
 20
14.4773794834
 10
-7.7236233712
 20
14.4824238893
 10
-7.7334606111
 20
14.4878096002
 10
-7.7430580326
 20
14.4935286395
 10
-7.7524014214
 20
14.4995725373
 10
-7.7614769395
 20
14.5059323421
 10
-7.7702711457
 20
14.5125986349
 10
-7.7787710154
 20
14.5195615426
 10
-7.7869639597
 20
14.5268107529
 10
-7.7948378446
 20
14.5343355293
 10
-7.8023810085
 20
14.5421247274
 10
-7.8095822794
 20
14.550166811
 10
-7.8164309921
 20
14.5584498694
 10
-7.8229170032
 20
14.5669616351
 10
-7.8290307065
 20
14.5756895018
 10
-7.8347630474
 20
14.584620543
 10
-7.8401055359
 20
14.5937415316
 10
-7.8450502596
 20
14.603038959
 10
-7.8495898951
 20
14.6124990552
 10
-7.8537177188
 20
14.6221078094
 10
-7.8574276172
 20
14.6318509906
 10
-7.8607140958
 20
14.6417141687
 10
-7.863572287
 20
14.6516827358
 10
-7.8659979577
 20
14.6617419282
 10
-7.8679875154
 20
14.6718768475
 10
-7.8695380133
 20
14.6820724835
 10
-7.870647155
 20
14.692313736
 10
-7.8713132979
 20
14.7025854372
 10
-7.8715354552
 20
14.7128723743
  0
LWPOLYLINE
  5
4FF
100
AcDbEntity
  8
ASSI
100
AcDbPolyline
 62
250
  6
CONTINUOUS
 90
40
 70
0
 10
-7.5924623973
 20
14.4461726145
 10
-7.6039619514
 20
14.4470876915
 10
-7.6154134806
 20
14.4483964078
 10
-7.6268000244
 20
14.4500968252
 10
-7.6381047189
 20
14.4521864252
 10
-7.6493108214
 20
14.454662113
 10
-7.6604017351
 20
14.4575202221
 10
-7.671361034
 20
14.4607565195
 10
-7.6821724867
 20
14.4643662121
 10
-7.692820081
 20
14.4683439538
 10
-7.7032880474
 20
14.4726838534
 10
-7.7135608823
 20
14.4773794834
 10
-7.7236233712
 20
14.4824238893
 10
-7.7334606111
 20
14.4878096002
 10
-7.7430580326
 20
14.4935286395
 10
-7.7524014214
 20
14.4995725373
 10
-7.7614769395
 20
14.5059323421
 10
-7.7702711457
 20
14.5125986349
 10
-7.7787710154
 20
14.5195615426
 10
-7.7869639597
 20
14.5268107529
 10
-7.7948378446
 20
14.5343355293
 10
-7.8023810085
 20
14.5421247274
 10
-7.8095822794
 20
14.550166811
 10
-7.8164309921
 20
14.5584498694
 10
-7.8229170032
 20
14.5669616351
 10
-7.8290307065
 20
14.5756895018
 10
-7.8347630474
 20
14.584620543
 10
-7.8401055359
 20
14.5937415316
 10
-7.8450502596
 20
14.603038959
 10
-7.8495898951
 20
14.6124990552
 10
-7.8537177188
 20
14.6221078094
 10
-7.8574276172
 20
14.6318509906
 10
-7.8607140958
 20
14.6417141687
 10
-7.863572287
 20
14.6516827358
 10
-7.8659979577
 20
14.6617419282
 10
-7.8679875154
 20
14.6718768475
 10
-7.8695380133
 20
14.6820724835
 10
-7.870647155
 20
14.692313736
 10
-7.8713132979
 20
14.7025854372
 10
-7.8715354552
 20
14.7128723743
  0
LWPOLYLINE
  5
500
100
AcDbEntity
  8
RACCORDO
100
AcDbPolyline
 62
250
  6
CONTINUOUS
 90
13
 70
0
 10
-8.8540830487
 20
13.4285852817
 10
-8.6161210553
 20
13.4077282903
 10
-8.3796237216
 20
13.3868925664
 10
-8.1445910478
 20
13.3660781101
 10
-7.9102701239
 20
13.3452179602
 10
-7.6774138599
 20
13.3243790779
 10
-7.4482809848
 20
13.3037623466
 10
-7.2232500613
 20
13.2833983277
 10
-7.0019425269
 20
13.2632564599
 10
-6.7854814227
 20
13.2434459422
 10
-6.5742410959
 20
13.2240031742
 10
-6.3678471994
 20
13.2048917563
 10
-6.1662997332
 20
13.1861116885
  0
LWPOLYLINE
  5
501
100
AcDbEntity
  8
ASSI
100
AcDbPolyline
 62
250
  6
CONTINUOUS
 90
13
 70
0
 10
-8.8540830487
 20
13.4285852817
 10
-8.6161210553
 20
13.4077282903
 10
-8.3796237216
 20
13.3868925664
 10
-8.1445910478
 20
13.3660781101
 10
-7.9102701239
 20
13.3452179602
 10
-7.6774138599
 20
13.3243790779
 10
-7.4482809848
 20
13.3037623466
 10
-7.2232500613
 20
13.2833983277
 10
-7.0019425269
 20
13.2632564599
 10
-6.7854814227
 20
13.2434459422
 10
-6.5742410959
 20
13.2240031742
 10
-6.3678471994
 20
13.2048917563
 10
-6.1662997332
 20
13.1861116885
  0
LWPOLYLINE
  5
502
100
AcDbEntity
  8
RACCORDO
100
AcDbPolyline
 62
250
  6
CONTINUOUS
 90
10
 70
0
 10
-8.2060310906
 20
13.6917663166
 10
-7.9628597222
 20
13.6681001437
 10
-7.7228354415
 20
13.6445759977
 10
-7.4859582483
 20
13.62119267
 10
-7.2514938999
 20
13.5978696991
 10
-7.020176639
 20
13.5746855599
 10
-6.7942091941
 20
13.5518749857
 10
-6.5743258079
 20
13.5295126358
 10
-6.3597922376
 20
13.5075157748
 10
-6.1506084832
 20
13.4858805862
  0
LWPOLYLINE
  5
503
100
AcDbEntity
  8
ASSI
100
AcDbPolyline
 62
250
  6
CONTINUOUS
 90
10
 70
0
 10
-8.2060310906
 20
13.6917663166
 10
-7.9628597222
 20
13.6681001437
 10
-7.7228354415
 20
13.6445759977
 10
-7.4859582483
 20
13.62119267
 10
-7.2514938999
 20
13.5978696991
 10
-7.020176639
 20
13.5746855599
 10
-6.7942091941
 20
13.5518749857
 10
-6.5743258079
 20
13.5295126358
 10
-6.3597922376
 20
13.5075157748
 10
-6.1506084832
 20
13.4858805862
  0
LWPOLYLINE
  5
504
100
AcDbEntity
  8
RACCORDO
100
AcDbPolyline
 62
250
  6
CONTINUOUS
 90
7
 70
0
 10
-8.2060324795
 20
9.7101062706
 10
-8.2313251764
 20
9.7197045322
 10
-8.2572853632
 20
9.7296612246
 10
-8.2839130968
 20
9.7399740467
 10
-8.3112254375
 20
9.7506432336
 10
-8.3392052258
 20
9.7616613571
 10
-8.3678009708
 20
9.7730123082
  0
LWPOLYLINE
  5
505
100
AcDbEntity
  8
ASSI
100
AcDbPolyline
 62
250
  6
CONTINUOUS
 90
7
 70
0
 10
-8.2060324795
 20
9.7101062706
 10
-8.2313251764
 20
9.7197045322
 10
-8.2572853632
 20
9.7296612246
 10
-8.2839130968
 20
9.7399740467
 10
-8.3112254375
 20
9.7506432336
 10
-8.3392052258
 20
9.7616613571
 10
-8.3678009708
 20
9.7730123082
  0
LINE
  5
506
100
AcDbEntity
  8
RACCORDO
100
AcDbLine
 62
250
  6
CONTINUOUS
 10
-8.3678009708
 20
9.7730123082
 11
-8.4268388438
 21
9.7966785494
  0
LINE
  5
507
100
AcDbEntity
  8
ASSI
100
AcDbLine
 62
250
  6
CONTINUOUS
 10
-8.3678009708
 20
9.7730123082
 11
-8.4268388438
 21
9.7966785494
  0
LINE
  5
508
100
AcDbEntity
  8
RACCORDO
100
AcDbLine
 62
250
  6
CONTINUOUS
 10
-8.4268388438
 20
9.7966785494
 11
-8.4882067009
 21
9.8215748443
  0
LINE
  5
509
100
AcDbEntity
  8
ASSI
100
AcDbLine
 62
250
  6
CONTINUOUS
 10
-8.4268388438
 20
9.7966785494
 11
-8.4882067009
 21
9.8215748443
  0
LINE
  5
50A
100
AcDbEntity
  8
RACCORDO
100
AcDbLine
 62
250
  6
CONTINUOUS
 10
-8.4882067009
 20
9.8215748443
 11
-8.5517177437
 21
9.8475828003
  0
LINE
  5
50B
100
AcDbEntity
  8
ASSI
100
AcDbLine
 62
250
  6
CONTINUOUS
 10
-8.4882067009
 20
9.8215748443
 11
-8.5517177437
 21
9.8475828003
  0
LINE
  5
50C
100
AcDbEntity
  8
RACCORDO
100
AcDbLine
 62
250
  6
CONTINUOUS
 10
-8.5517177437
 20
9.8475828003
 11
-8.6169146708
 21
9.8744811754
  0
LINE
  5
50D
100
AcDbEntity
  8
ASSI
100
AcDbLine
 62
250
  6
CONTINUOUS
 10
-8.5517177437
 20
9.8475828003
 11
-8.6169146708
 21
9.8744811754
  0
LINE
  5
50E
100
AcDbEntity
  8
RACCORDO
100
AcDbLine
 62
250
  6
CONTINUOUS
 10
-8.6169146708
 20
9.8744811754
 11
-8.7175394318
 21
9.9162841185
  0
LINE
  5
50F
100
AcDbEntity
  8
ASSI
100
AcDbLine
 62
250
  6
CONTINUOUS
 10
-8.6169146708
 20
9.8744811754
 11
-8.7175394318
 21
9.9162841185
  0
LWPOLYLINE
  5
510
100
AcDbEntity
  8
RACCORDO
100
AcDbPolyline
 62
250
  6
CONTINUOUS
 90
3
 70
0
 10
-8.7175394318
 20
9.9162841185
 10
-8.7856220927
 20
9.9447089037
 10
-8.8540830487
 20
9.9732874546
  0
LWPOLYLINE
  5
511
100
AcDbEntity
  8
ASSI
100
AcDbPolyline
 62
250
  6
CONTINUOUS
 90
3
 70
0
 10
-8.7175394318
 20
9.9162841185
 10
-8.7856220927
 20
9.9447089037
 10
-8.8540830487
 20
9.9732874546
  0
LINE
  5
512
100
AcDbEntity
  8
RACCORDO
100
AcDbLine
 62
7
  6
CONTINUOUS
 10
-32.3715354552
 20
22.7235861133
 11
-33.2465354552
 21
23.2287675989
  0
LWPOLYLINE
  5
513
100
AcDbEntity
  8
RACCORDO
100
AcDbPolyline
 62
7
  6
CONTINUOUS
 90
10
 70
0
 10
-7.7216910045
 20
2.1491769691
 10
-7.7076997428
 20
2.1278175169
 10
-7.6930588808
 20
2.1060547773
 10
-7.6777684185
 20
2.0838887503
 10
-7.6617959494
 20
2.0613338722
 10
-7.6451738799
 20
2.0383757067
 10
-7.6279994293
 20
2.0149709455
 10
-7.6103050038
 20
1.9911051525
 10
-7.5920581971
 20
1.9667927637
 10
-7.5732590092
 20
1.9420337792
  0
LWPOLYLINE
  5
514
100
AcDbEntity
  8
ASSI
100
AcDbPolyline
 62
7
  6
CONTINUOUS
 90
10
 70
0
 10
-7.7216910045
 20
2.1491769691
 10
-7.7076997428
 20
2.1278175169
 10
-7.6930588808
 20
2.1060547773
 10
-7.6777684185
 20
2.0838887503
 10
-7.6617959494
 20
2.0613338722
 10
-7.6451738799
 20
2.0383757067
 10
-7.6279994293
 20
2.0149709455
 10
-7.6103050038
 20
1.9911051525
 10
-7.5920581971
 20
1.9667927637
 10
-7.5732590092
 20
1.9420337792
  0
LWPOLYLINE
  5
515
100
AcDbEntity
  8
RACCORDO
100
AcDbPolyline
 62
7
  6
CONTINUOUS
 90
28
 70
0
 10
-7.7216910045
 20
2.1491769691
 10
-7.7294963722
 20
2.1616844405
 10
-7.7372144851
 20
2.1748225064
 10
-7.7448453433
 20
2.188591167
 10
-7.7523816787
 20
2.2029520513
 10
-7.7598307594
 20
2.2179435302
 10
-7.7672143895
 20
2.2336807161
 10
-7.7745474404
 20
2.2501695574
 10
-7.7818150409
 20
2.2674041056
 10
-7.7889943811
 20
2.2854816273
 10
-7.7961036124
 20
2.3044306868
 10
-7.8031245836
 20
2.3242227197
 10
-7.8099800312
 20
2.3448692989
 10
-7.8166805679
 20
2.3663959281
 10
-7.8232155811
 20
2.3887771037
 10
-7.8294759696
 20
2.4119478875
 10
-7.8354647839
 20
2.4359142067
 10
-7.8411789734
 20
2.4606701341
 10
-7.846500286
 20
2.4861329497
 10
-7.8514377398
 20
2.5123787788
 10
-7.8559823166
 20
2.5393314961
 10
-7.8599887092
 20
2.5666800059
 10
-7.8634417828
 20
2.5945066555
 10
-7.8663566721
 20
2.6227290976
 10
-7.8686334744
 20
2.6507891947
 10
-7.8702388884
 20
2.6785009008
 10
-7.8712062154
 20
2.7060502618
 10
-7.8715354552
 20
2.7334372778
  0
LWPOLYLINE
  5
516
100
AcDbEntity
  8
ASSI
100
AcDbPolyline
 62
7
  6
CONTINUOUS
 90
28
 70
0
 10
-7.7216910045
 20
2.1491769691
 10
-7.7294963722
 20
2.1616844405
 10
-7.7372144851
 20
2.1748225064
 10
-7.7448453433
 20
2.188591167
 10
-7.7523816787
 20
2.2029520513
 10
-7.7598307594
 20
2.2179435302
 10
-7.7672143895
 20
2.2336807161
 10
-7.7745474404
 20
2.2501695574
 10
-7.7818150409
 20
2.2674041056
 10
-7.7889943811
 20
2.2854816273
 10
-7.7961036124
 20
2.3044306868
 10
-7.8031245836
 20
2.3242227197
 10
-7.8099800312
 20
2.3448692989
 10
-7.8166805679
 20
2.3663959281
 10
-7.8232155811
 20
2.3887771037
 10
-7.8294759696
 20
2.4119478875
 10
-7.8354647839
 20
2.4359142067
 10
-7.8411789734
 20
2.4606701341
 10
-7.846500286
 20
2.4861329497
 10
-7.8514377398
 20
2.5123787788
 10
-7.8559823166
 20
2.5393314961
 10
-7.8599887092
 20
2.5666800059
 10
-7.8634417828
 20
2.5945066555
 10
-7.8663566721
 20
2.6227290976
 10
-7.8686334744
 20
2.6507891947
 10
-7.8702388884
 20
2.6785009008
 10
-7.8712062154
 20
2.7060502618
 10
-7.8715354552
 20
2.7334372778
  0
LINE
  5
517
100
AcDbEntity
  8
RACCORDO
100
AcDbLine
 62
250
  6
CONTINUOUS
 10
-7.5732628157
 20
1.9420344685
 11
-7.5924628978
 21
2.1346231666
  0
LINE
  5
518
100
AcDbEntity
  8
ASSI
100
AcDbLine
 62
250
  6
CONTINUOUS
 10
-7.5732628157
 20
1.9420344685
 11
-7.5924628978
 21
2.1346231666
  0
LWPOLYLINE
  5
519
100
AcDbEntity
  8
RACCORDO
100
AcDbPolyline
 62
250
  6
CONTINUOUS
 90
43
 70
0
 10
-7.5924623973
 20
8.9557001506
 10
-7.5927775106
 20
8.9694237574
 10
-7.5937743502
 20
8.9834752307
 10
-7.5954529162
 20
8.9978600041
 10
-7.5978042582
 20
9.0125871097
 10
-7.6008373266
 20
9.0276584618
 10
-7.604578972
 20
9.0430683356
 10
-7.6090286368
 20
9.0588223308
 10
-7.6141868786
 20
9.0749246944
 10
-7.6200822214
 20
9.0913666127
 10
-7.626714386
 20
9.1081538408
 10
-7.6340836516
 20
9.1252892341
 10
-7.6422193792
 20
9.1427582504
 10
-7.651124029
 20
9.1605695045
 10
-7.6607951408
 20
9.1787213947
 10
-7.6712546955
 20
9.1971817054
 10
-7.6825088411
 20
9.2159592869
 10
-7.6945514294
 20
9.2350491276
 10
-7.7073859969
 20
9.2543941336
 10
-7.721018177
 20
9.2739963978
 10
-7.7354423361
 20
9.2938523901
 10
-7.7506451097
 20
9.3138911616
 10
-7.7666313092
 20
9.3341102157
 10
-7.7833961231
 20
9.3545048595
 10
-7.800911752
 20
9.3749950195
 10
-7.8191954185
 20
9.395586168
 10
-7.8382299
 20
9.4162603555
 10
-7.8579357298
 20
9.4368951989
 10
-7.8783332112
 20
9.4574874923
 10
-7.8994020409
 20
9.4780201594
 10
-7.9210018417
 20
9.4983410251
 10
-7.9431409673
 20
9.5184275507
 10
-7.965811064
 20
9.5382736529
 10
-7.9888466944
 20
9.5577435077
 10
-8.0122509844
 20
9.5768085114
 10
-8.0360208081
 20
9.5954638319
 10
-8.0599813497
 20
9.6136035278
 10
-8.0841250311
 20
9.6311931734
 10
-8.1084594304
 20
9.6482324585
 10
-8.1328324664
 20
9.6646637898
 10
-8.1571934455
 20
9.6804567049
 10
-8.1815930612
 20
9.6956092402
 10
-8.2060313137
 20
9.7101065212
  0
LWPOLYLINE
  5
51A
100
AcDbEntity
  8
ASSI
100
AcDbPolyline
 62
250
  6
CONTINUOUS
 90
43
 70
0
 10
-7.5924623973
 20
8.9557001506
 10
-7.5927775106
 20
8.9694237574
 10
-7.5937743502
 20
8.9834752307
 10
-7.5954529162
 20
8.9978600041
 10
-7.5978042582
 20
9.0125871097
 10
-7.6008373266
 20
9.0276584618
 10
-7.604578972
 20
9.0430683356
 10
-7.6090286368
 20
9.0588223308
 10
-7.6141868786
 20
9.0749246944
 10
-7.6200822214
 20
9.0913666127
 10
-7.626714386
 20
9.1081538408
 10
-7.6340836516
 20
9.1252892341
 10
-7.6422193792
 20
9.1427582504
 10
-7.651124029
 20
9.1605695045
 10
-7.6607951408
 20
9.1787213947
 10
-7.6712546955
 20
9.1971817054
 10
-7.6825088411
 20
9.2159592869
 10
-7.6945514294
 20
9.2350491276
 10
-7.7073859969
 20
9.2543941336
 10
-7.721018177
 20
9.2739963978
 10
-7.7354423361
 20
9.2938523901
 10
-7.7506451097
 20
9.3138911616
 10
-7.7666313092
 20
9.3341102157
 10
-7.7833961231
 20
9.3545048595
 10
-7.800911752
 20
9.3749950195
 10
-7.8191954185
 20
9.395586168
 10
-7.8382299
 20
9.4162603555
 10
-7.8579357298
 20
9.4368951989
 10
-7.8783332112
 20
9.4574874923
 10
-7.8994020409
 20
9.4780201594
 10
-7.9210018417
 20
9.4983410251
 10
-7.9431409673
 20
9.5184275507
 10
-7.965811064
 20
9.5382736529
 10
-7.9888466944
 20
9.5577435077
 10
-8.0122509844
 20
9.5768085114
 10
-8.0360208081
 20
9.5954638319
 10
-8.0599813497
 20
9.6136035278
 10
-8.0841250311
 20
9.6311931734
 10
-8.1084594304
 20
9.6482324585
 10
-8.1328324664
 20
9.6646637898
 10
-8.1571934455
 20
9.6804567049
 10
-8.1815930612
 20
9.6956092402
 10
-8.2060313137
 20
9.7101065212
  0
LWPOLYLINE
  5
51B
100
AcDbEntity
  8
RACCORDO
100
AcDbPolyline
 62
250
  6
CONTINUOUS
 90
43
 70
0
 10
-7.8715354552
 20
8.6889986221
 10
-7.8717888601
 20
8.7040525307
 10
-7.8725537454
 20
8.7194806724
 10
-7.8738367653
 20
8.735283047
 10
-7.8756438785
 20
8.7514575697
 10
-7.8779814577
 20
8.7680063254
 10
-7.8808574084
 20
8.7849355693
 10
-7.8842783787
 20
8.8022472818
 10
-7.888250674
 20
8.8199394825
 10
-7.8927832497
 20
8.8380124853
 10
-7.8978828447
 20
8.8564689199
 10
-7.9035557664
 20
8.8753061566
 10
-7.9098117445
 20
8.8945166196
 10
-7.9166587706
 20
8.9141077297
 10
-7.9241018158
 20
8.934072066
 10
-7.9321463786
 20
8.9543797905
 10
-7.9408002802
 20
8.9750415706
 10
-7.950066136
 20
8.9960467389
 10
-7.9599394369
 20
9.0173334539
 10
-7.9704233488
 20
9.0389087916
 10
-7.9815191357
 20
9.0607656761
 10
-7.9932154381
 20
9.0828210388
 10
-8.0055112931
 20
9.1050802937
 10
-8.0184054479
 20
9.1275380269
 10
-8.03188187
 20
9.1500949278
 10
-8.0459446618
 20
9.1727689268
 10
-8.0605817626
 20
9.1955420935
 10
-8.075746139
 20
9.2182613262
 10
-8.0914359213
 20
9.2409404014
 10
-8.1076337203
 20
9.2635655425
 10
-8.1242580711
 20
9.2859423175
 10
-8.1412907681
 20
9.3080670687
 10
-8.1587164457
 20
9.3299434538
 10
-8.1764460957
 20
9.3513880148
 10
-8.1944547294
 20
9.3723908565
 10
-8.2127238189
 20
9.3929618741
 10
-8.2311648103
 20
9.4129472946
 10
-8.2497447489
 20
9.4323292697
 10
-8.2684476039
 20
9.4511256477
 10
-8.2872045444
 20
9.4692361999
 10
-8.3059754196
 20
9.4866275169
 10
-8.3247514698
 20
9.5033330082
 10
-8.3435099401
 20
9.5193526737
  0
LWPOLYLINE
  5
51C
100
AcDbEntity
  8
ASSI
100
AcDbPolyline
 62
250
  6
CONTINUOUS
 90
43
 70
0
 10
-7.8715354552
 20
8.6889986221
 10
-7.8717888601
 20
8.7040525307
 10
-7.8725537454
 20
8.7194806724
 10
-7.8738367653
 20
8.735283047
 10
-7.8756438785
 20
8.7514575697
 10
-7.8779814577
 20
8.7680063254
 10
-7.8808574084
 20
8.7849355693
 10
-7.8842783787
 20
8.8022472818
 10
-7.888250674
 20
8.8199394825
 10
-7.8927832497
 20
8.8380124853
 10
-7.8978828447
 20
8.8564689199
 10
-7.9035557664
 20
8.8753061566
 10
-7.9098117445
 20
8.8945166196
 10
-7.9166587706
 20
8.9141077297
 10
-7.9241018158
 20
8.934072066
 10
-7.9321463786
 20
8.9543797905
 10
-7.9408002802
 20
8.9750415706
 10
-7.950066136
 20
8.9960467389
 10
-7.9599394369
 20
9.0173334539
 10
-7.9704233488
 20
9.0389087916
 10
-7.9815191357
 20
9.0607656761
 10
-7.9932154381
 20
9.0828210388
 10
-8.0055112931
 20
9.1050802937
 10
-8.0184054479
 20
9.1275380269
 10
-8.03188187
 20
9.1500949278
 10
-8.0459446618
 20
9.1727689268
 10
-8.0605817626
 20
9.1955420935
 10
-8.075746139
 20
9.2182613262
 10
-8.0914359213
 20
9.2409404014
 10
-8.1076337203
 20
9.2635655425
 10
-8.1242580711
 20
9.2859423175
 10
-8.1412907681
 20
9.3080670687
 10
-8.1587164457
 20
9.3299434538
 10
-8.1764460957
 20
9.3513880148
 10
-8.1944547294
 20
9.3723908565
 10
-8.2127238189
 20
9.3929618741
 10
-8.2311648103
 20
9.4129472946
 10
-8.2497447489
 20
9.4323292697
 10
-8.2684476039
 20
9.4511256477
 10
-8.2872045444
 20
9.4692361999
 10
-8.3059754196
 20
9.4866275169
 10
-8.3247514698
 20
9.5033330082
 10
-8.3435099401
 20
9.5193526737
  0
LWPOLYLINE
  5
51D
100
AcDbEntity
  8
RACCORDO
100
AcDbPolyline
 62
250
  6
CONTINUOUS
 90
58
 70
0
 10
-6.1698076874
 20
-14.3990635988
 10
-6.1703932073
 20
-14.3403489808
 10
-6.1721435325
 20
-14.2817039516
 10
-6.175058663
 20
-14.2231285111
 10
-6.1791406728
 20
-14.164599546
 10
-6.1843874879
 20
-14.1061401697
 10
-6.1907928863
 20
-14.0478197221
 10
-6.1983582429
 20
-13.9896383669
 10
-6.2070821828
 20
-13.9315959404
 10
-6.2169543593
 20
-13.8737612905
 10
-6.2279761351
 20
-13.8161346637
 10
-6.2401461475
 20
-13.7587158135
 10
-6.2534499629
 20
-13.7015728482
 10
-6.2678889264
 20
-13.6447060951
 10
-6.2834616928
 20
-13.5881152269
 10
-6.3001497922
 20
-13.5318673702
 10
-6.3179545483
 20
-13.4759629317
 10
-6.3368746374
 20
-13.4204015047
 10
-6.3568876192
 20
-13.3652489958
 10
-6.37799479
 20
-13.3105058912
 10
-6.4001948534
 20
-13.2561717046
 10
-6.4234614805
 20
-13.2023108838
 10
-6.4477959374
 20
-13.1489239885
 10
-6.473196958
 20
-13.0960104589
 10
-6.4996344143
 20
-13.0436330626
 10
-6.5271095367
 20
-12.9917924354
 10
-6.555621095
 20
-12.9404879414
 10
-6.5851352703
 20
-12.8897804417
 10
-6.6156532528
 20
-12.8396706443
 10
-6.6471738524
 20
-12.7901578412
 10
-6.6796596796
 20
-12.7413007687
 10
-6.7131118762
 20
-12.6931002097
 10
-6.7475293003
 20
-12.6455553814
 10
-6.7828711371
 20
-12.5987226725
 10
-6.8191384841
 20
-12.5526029257
 10
-6.8563302438
 20
-12.5071952984
 10
-6.8944023082
 20
-12.4625536507
 10
-6.9333557291
 20
-12.4186788844
 10
-6.9731894548
 20
-12.3755700978
 10
-7.013856222
 20
-12.3332784464
 10
-7.0553570191
 20
-12.2918049022
 10
-7.0976908577
 20
-12.2511484932
 10
-7.1408075094
 20
-12.2113574586
 10
-7.184707894
 20
-12.1724328336
 10
-7.2293910918
 20
-12.134373583
 10
-7.2748041151
 20
-12.097224841
 10
-7.3209477907
 20
-12.0609877104
 10
-7.3678212918
 20
-12.0256610883
 10
-7.4153691498
 20
-11.9912868004
 10
-7.4635938854
 20
-11.9578650305
 10
-7.5124929779
 20
-11.9253955949
 10
-7.5620033965
 20
-11.8939197676
 10
-7.6121131024
 20
-11.8634451921
 10
-7.6628341343
 20
-11.833964225
 10
-7.7141395771
 20
-11.8054952102
 10
-7.7660204589
 20
-11.7780442624
 10
-7.8184857516
 20
-11.751605267
 10
-7.8715354552
 20
-11.726178224
  0
LWPOLYLINE
  5
51E
100
AcDbEntity
  8
ASSI
100
AcDbPolyline
 62
250
  6
CONTINUOUS
 90
58
 70
0
 10
-6.1698076874
 20
-14.3990635988
 10
-6.1703932073
 20
-14.3403489808
 10
-6.1721435325
 20
-14.2817039516
 10
-6.175058663
 20
-14.2231285111
 10
-6.1791406728
 20
-14.164599546
 10
-6.1843874879
 20
-14.1061401697
 10
-6.1907928863
 20
-14.0478197221
 10
-6.1983582429
 20
-13.9896383669
 10
-6.2070821828
 20
-13.9315959404
 10
-6.2169543593
 20
-13.8737612905
 10
-6.2279761351
 20
-13.8161346637
 10
-6.2401461475
 20
-13.7587158135
 10
-6.2534499629
 20
-13.7015728482
 10
-6.2678889264
 20
-13.6447060951
 10
-6.2834616928
 20
-13.5881152269
 10
-6.3001497922
 20
-13.5318673702
 10
-6.3179545483
 20
-13.4759629317
 10
-6.3368746374
 20
-13.4204015047
 10
-6.3568876192
 20
-13.3652489958
 10
-6.37799479
 20
-13.3105058912
 10
-6.4001948534
 20
-13.2561717046
 10
-6.4234614805
 20
-13.2023108838
 10
-6.4477959374
 20
-13.1489239885
 10
-6.473196958
 20
-13.0960104589
 10
-6.4996344143
 20
-13.0436330626
 10
-6.5271095367
 20
-12.9917924354
 10
-6.555621095
 20
-12.9404879414
 10
-6.5851352703
 20
-12.8897804417
 10
-6.6156532528
 20
-12.8396706443
 10
-6.6471738524
 20
-12.7901578412
 10
-6.6796596796
 20
-12.7413007687
 10
-6.7131118762
 20
-12.6931002097
 10
-6.7475293003
 20
-12.6455553814
 10
-6.7828711371
 20
-12.5987226725
 10
-6.8191384841
 20
-12.5526029257
 10
-6.8563302438
 20
-12.5071952984
 10
-6.8944023082
 20
-12.4625536507
 10
-6.9333557291
 20
-12.4186788844
 10
-6.9731894548
 20
-12.3755700978
 10
-7.013856222
 20
-12.3332784464
 10
-7.0553570191
 20
-12.2918049022
 10
-7.0976908577
 20
-12.2511484932
 10
-7.1408075094
 20
-12.2113574586
 10
-7.184707894
 20
-12.1724328336
 10
-7.2293910918
 20
-12.134373583
 10
-7.2748041151
 20
-12.097224841
 10
-7.3209477907
 20
-12.0609877104
 10
-7.3678212918
 20
-12.0256610883
 10
-7.4153691498
 20
-11.9912868004
 10
-7.4635938854
 20
-11.9578650305
 10
-7.5124929779
 20
-11.9253955949
 10
-7.5620033965
 20
-11.8939197676
 10
-7.6121131024
 20
-11.8634451921
 10
-7.6628341343
 20
-11.833964225
 10
-7.7141395771
 20
-11.8054952102
 10
-7.7660204589
 20
-11.7780442624
 10
-7.8184857516
 20
-11.751605267
 10
-7.8715354552
 20
-11.726178224
  0
LINE
  5
51F
100
AcDbEntity
  8
DRAFT
100
AcDbLine
 62
7
  6
CONTINUOUS
 10
-7.8752960363
 20
-17.918803866
 11
-7.8752988907
 21
0.2610824873
  0
LINE
  5
520
100
AcDbEntity
  8
DRAFT
100
AcDbLine
 62
7
  6
CONTINUOUS
 10
-7.8715354552
 20
17.8276757164
 11
-7.8715354552
 21
17.6427914208
  0
LINE
  5
521
100
AcDbEntity
  8
DRAFT
100
AcDbLine
 62
7
  6
CONTINUOUS
 10
-7.8715354552
 20
4.7824172799
 11
-7.8715354552
 21
4.4908231208
  0
LINE
  5
522
100
AcDbEntity
  8
RACCORDO
100
AcDbLine
 62
7
  6
CONTINUOUS
 10
-7.8715354552
 20
-18.8178847441
 11
-7.8715354552
 21
-17.0719490164
  0
LINE
  5
523
100
AcDbEntity
  8
ASSI
100
AcDbLine
 62
7
  6
CONTINUOUS
 10
-7.8715354552
 20
-18.8178847441
 11
-7.8715354552
 21
-17.0719490164
  0
LINE
  5
524
100
AcDbEntity
  8
RACCORDO
100
AcDbLine
 62
7
  6
CONTINUOUS
 10
-7.8715354552
 20
-11.726178224
 11
-7.8715354552
 21
-8.5188785598
  0
LINE
  5
525
100
AcDbEntity
  8
DRAFT
100
AcDbLine
 62
7
  6
CONTINUOUS
 10
-7.8715354552
 20
-8.5188785598
 11
-7.8715354552
 21
0.2610496443
  0
LINE
  5
526
100
AcDbEntity
  8
ASSI
100
AcDbLine
 62
7
  6
CONTINUOUS
 10
-7.8715354552
 20
-11.726178224
 11
-7.8715354552
 21
0.2610496443
  0
LINE
  5
527
100
AcDbEntity
  8
RACCORDO
100
AcDbLine
 62
7
  6
CONTINUOUS
 10
-7.8715354552
 20
2.7334372778
 11
-7.8715354552
 21
4.4908231208
  0
LINE
  5
528
100
AcDbEntity
  8
ASSI
100
AcDbLine
 62
7
  6
CONTINUOUS
 10
-7.8715354552
 20
2.7334372778
 11
-7.8715354552
 21
8.6889991659
  0
LINE
  5
529
100
AcDbEntity
  8
0
100
AcDbLine
 62
250
  6
CONTINUOUS
 10
-7.8715354552
 20
6.6009363825
 11
-7.8715354552
 21
6.7676463918
  0
LINE
  5
52A
100
AcDbEntity
  8
RACCORDO
100
AcDbLine
 62
7
  6
CONTINUOUS
 10
-7.8715354552
 20
14.7128736002
 11
-7.8715354552
 21
18.0197575091
  0
LINE
  5
52B
100
AcDbEntity
  8
ASSI
100
AcDbLine
 62
7
  6
CONTINUOUS
 10
-7.8715354552
 20
14.7128736002
 11
-7.8715354552
 21
18.0197575091
  0
LINE
  5
52C
100
AcDbEntity
  8
RACCORDO
100
AcDbLine
 62
250
  6
CONTINUOUS
 10
-7.5924622693
 20
-0.1327490656
 11
-7.5924623973
 21
-2.0795489282
  0
LINE
  5
52D
100
AcDbEntity
  8
ASSI
100
AcDbLine
 62
250
  6
CONTINUOUS
 10
-7.5924622693
 20
-0.1327490656
 11
-7.5924623973
 21
-2.0795489282
  0
LINE
  5
52E
100
AcDbEntity
  8
RACCORDO
100
AcDbLine
 62
250
  6
CONTINUOUS
 10
-7.5924625504
 20
2.1346230721
 11
-7.5924623973
 21
4.0814216933
  0
LINE
  5
52F
100
AcDbEntity
  8
ASSI
100
AcDbLine
 62
250
  6
CONTINUOUS
 10
-7.5924625504
 20
2.1346230721
 11
-7.5924623973
 21
4.0814216933
  0
LINE
  5
530
100
AcDbEntity
  8
RACCORDO
100
AcDbLine
 62
250
  6
CONTINUOUS
 10
-7.5924623973
 20
8.6204510718
 11
-7.5924623973
 21
8.9557001506
  0
LINE
  5
531
100
AcDbEntity
  8
ASSI
100
AcDbLine
 62
250
  6
CONTINUOUS
 10
-7.5924623973
 20
8.6204510718
 11
-7.5924623973
 21
8.9557001506
  0
LINE
  5
532
100
AcDbEntity
  8
RACCORDO
100
AcDbLine
 62
250
  6
CONTINUOUS
 10
-7.5924623973
 20
14.4461726145
 11
-7.5924623973
 21
14.7814216933
  0
LINE
  5
533
100
AcDbEntity
  8
ASSI
100
AcDbLine
 62
250
  6
CONTINUOUS
 10
-7.5924623973
 20
14.4461726145
 11
-7.5924623973
 21
14.7814216933
  0
LINE
  5
534
100
AcDbEntity
  8
RACCORDO
100
AcDbLine
 62
250
  6
CONTINUOUS
 10
-7.5732633216
 20
0.2584466628
 11
-7.5732633216
 21
0.0598355188
  0
LINE
  5
535
100
AcDbEntity
  8
ASSI
100
AcDbLine
 62
250
  6
CONTINUOUS
 10
-7.5732633216
 20
0.2584466628
 11
-7.5732633216
 21
0.0598355188
  0
LINE
  5
536
100
AcDbEntity
  8
RACCORDO
100
AcDbLine
 62
7
  6
CONTINUOUS
 10
-7.8752960352
 20
0.2610824624
 11
-7.8752760823
 21
4.5151758538
  0
LINE
  5
537
100
AcDbEntity
  8
ASSI
100
AcDbLine
 62
7
  6
CONTINUOUS
 10
-7.8753206907
 20
-17.9457686634
 11
-7.8752760823
 21
4.5151758538
  0
LINE
  5
538
100
AcDbEntity
  8
RACCORDO
100
AcDbLine
 62
7
  6
CONTINUOUS
 10
-7.8754089139
 20
-17.9726822826
 11
-7.8752960363
 21
-17.918803866
  0
LINE
  5
539
100
AcDbEntity
  8
RACCORDO
100
AcDbLine
 62
7
  6
CONTINUOUS
 10
-7.8715778808
 20
4.7706399616
 11
-7.8715354552
 21
8.6889991659
  0
LINE
  5
53A
100
AcDbEntity
  8
ASSI
100
AcDbLine
 62
7
  6
CONTINUOUS
 10
-7.8755607057
 20
-17.9995447236
 11
-7.8753206907
 21
-17.9457686634
  0
LINE
  5
53B
100
AcDbEntity
  8
RACCORDO
100
AcDbLine
 62
7
  6
CONTINUOUS
 10
-7.8752760823
 20
4.5151758538
 11
-7.8751393102
 21
4.5436225755
  0
LINE
  5
53C
100
AcDbEntity
  8
ASSI
100
AcDbLine
 62
7
  6
CONTINUOUS
 10
-7.8752760823
 20
4.5151758538
 11
-7.8751393102
 21
4.5436225755
  0
LINE
  5
53D
100
AcDbEntity
  8
RACCORDO
100
AcDbLine
 62
7
  6
CONTINUOUS
 10
-7.8717852891
 20
4.7463883075
 11
-7.8715778808
 21
4.7706399616
  0
LINE
  5
53E
100
AcDbEntity
  8
ASSI
100
AcDbLine
 62
7
  6
CONTINUOUS
 10
-7.8717852891
 20
4.7463883075
 11
-7.8715778808
 21
4.7706399616
  0
LINE
  5
53F
100
AcDbEntity
  8
RACCORDO
100
AcDbLine
 62
7
  6
CONTINUOUS
 10
-7.8751393102
 20
4.5436225755
 11
-7.8748669319
 21
4.5719864535
  0
LINE
  5
540
100
AcDbEntity
  8
ASSI
100
AcDbLine
 62
7
  6
CONTINUOUS
 10
-7.8751393102
 20
4.5436225755
 11
-7.8748669319
 21
4.5719864535
  0
LINE
  5
541
100
AcDbEntity
  8
RACCORDO
100
AcDbLine
 62
7
  6
CONTINUOUS
 10
-7.8934885209
 20
-18.5756248462
 11
-7.8931523318
 21
-18.5477873146
  0
LINE
  5
542
100
AcDbEntity
  8
ASSI
100
AcDbLine
 62
7
  6
CONTINUOUS
 10
-7.8934885209
 20
-18.5756248462
 11
-7.8931523318
 21
-18.5477873146
  0
LINE
  5
543
100
AcDbEntity
  8
RACCORDO
100
AcDbLine
 62
7
  6
CONTINUOUS
 10
-7.8748669319
 20
4.5719864535
 11
-7.8744839421
 21
4.6001160008
  0
LINE
  5
544
100
AcDbEntity
  8
ASSI
100
AcDbLine
 62
7
  6
CONTINUOUS
 10
-7.8748669319
 20
4.5719864535
 11
-7.8744839421
 21
4.6001160008
  0
LINE
  5
545
100
AcDbEntity
  8
RACCORDO
100
AcDbLine
 62
7
  6
CONTINUOUS
 10
-7.8724031749
 20
4.7084008199
 11
-7.8717852891
 21
4.7463883075
  0
LINE
  5
546
100
AcDbEntity
  8
ASSI
100
AcDbLine
 62
7
  6
CONTINUOUS
 10
-7.8724031749
 20
4.7084008199
 11
-7.8717852891
 21
4.7463883075
  0
LINE
  5
547
100
AcDbEntity
  8
RACCORDO
100
AcDbLine
 62
7
  6
CONTINUOUS
 10
-7.8744839421
 20
4.6001160008
 11
-7.8737479186
 21
4.6416732656
  0
LINE
  5
548
100
AcDbEntity
  8
ASSI
100
AcDbLine
 62
7
  6
CONTINUOUS
 10
-7.8744839421
 20
4.6001160008
 11
-7.8737479186
 21
4.6416732656
  0
LINE
  5
549
100
AcDbEntity
  8
RACCORDO
100
AcDbLine
 62
7
  6
CONTINUOUS
 10
-7.8737479186
 20
4.6416732656
 11
-7.8724031749
 21
4.7084008199
  0
LINE
  5
54A
100
AcDbEntity
  8
ASSI
100
AcDbLine
 62
7
  6
CONTINUOUS
 10
-7.8737479186
 20
4.6416732656
 11
-7.8724031749
 21
4.7084008199
  0
LINE
  5
54B
100
AcDbEntity
  8
RACCORDO
100
AcDbLine
 62
7
  6
CONTINUOUS
 10
-7.8931523318
 20
-18.5477873146
 11
-7.8925698559
 21
-18.5190464422
  0
LINE
  5
54C
100
AcDbEntity
  8
ASSI
100
AcDbLine
 62
7
  6
CONTINUOUS
 10
-7.8931523318
 20
-18.5477873146
 11
-7.8925698559
 21
-18.5190464422
  0
LINE
  5
54D
100
AcDbEntity
  8
RACCORDO
100
AcDbLine
 62
7
  6
CONTINUOUS
 10
-7.8925698559
 20
-18.5190464422
 11
-7.8917539766
 21
-18.4894470268
  0
LINE
  5
54E
100
AcDbEntity
  8
ASSI
100
AcDbLine
 62
7
  6
CONTINUOUS
 10
-7.8925698559
 20
-18.5190464422
 11
-7.8917539766
 21
-18.4894470268
  0
LINE
  5
54F
100
AcDbEntity
  8
RACCORDO
100
AcDbLine
 62
7
  6
CONTINUOUS
 10
-7.8917539766
 20
-18.4894470268
 11
-7.8907161401
 21
-18.4591036239
  0
LINE
  5
550
100
AcDbEntity
  8
ASSI
100
AcDbLine
 62
7
  6
CONTINUOUS
 10
-7.8917539766
 20
-18.4894470268
 11
-7.8907161401
 21
-18.4591036239
  0
LINE
  5
551
100
AcDbEntity
  8
RACCORDO
100
AcDbLine
 62
7
  6
CONTINUOUS
 10
-7.8907161401
 20
-18.4591036239
 11
-7.8894788018
 21
-18.4282020566
  0
LINE
  5
552
100
AcDbEntity
  8
ASSI
100
AcDbLine
 62
7
  6
CONTINUOUS
 10
-7.8907161401
 20
-18.4591036239
 11
-7.8894788018
 21
-18.4282020566
  0
LWPOLYLINE
  5
553
100
AcDbEntity
  8
RACCORDO
100
AcDbPolyline
 62
7
  6
CONTINUOUS
 90
12
 70
0
 10
-7.8826433321
 20
-18.2910481977
 10
-7.8814451294
 20
-18.2649103118
 10
-7.8803752155
 20
-18.2386931382
 10
-7.8794429347
 20
-18.2123929762
 10
-7.8786389427
 20
-18.1860135264
 10
-7.877935206
 20
-18.1595658915
 10
-7.8773298382
 20
-18.1330510193
 10
-7.8768247257
 20
-18.1064679619
 10
-7.8763974937
 20
-18.0798249777
 10
-7.8760454545
 20
-18.0531219036
 10
-7.8757712957
 20
-18.0263589027
 10
-7.8754089139
 20
-17.9726822826
  0
LWPOLYLINE
  5
554
100
AcDbEntity
  8
ASSI
100
AcDbPolyline
 62
7
  6
CONTINUOUS
 90
11
 70
0
 10
-7.8826433321
 20
-18.2910481977
 10
-7.8814451294
 20
-18.2649103118
 10
-7.8803752155
 20
-18.2386931382
 10
-7.8794429347
 20
-18.2123929762
 10
-7.8786389427
 20
-18.1860135264
 10
-7.877935206
 20
-18.1595658915
 10
-7.8773298382
 20
-18.1330510193
 10
-7.8768247257
 20
-18.1064679619
 10
-7.8763974937
 20
-18.0798249777
 10
-7.8760454545
 20
-18.0531219036
 10
-7.8755607057
 20
-17.9995447236
  0
LINE
  5
555
100
AcDbEntity
  8
RACCORDO
100
AcDbLine
 62
7
  6
CONTINUOUS
 10
-7.8894788018
 20
-18.4282020566
 11
-7.8880694853
 21
-18.3968162365
  0
LINE
  5
556
100
AcDbEntity
  8
ASSI
100
AcDbLine
 62
7
  6
CONTINUOUS
 10
-7.8894788018
 20
-18.4282020566
 11
-7.8880694853
 21
-18.3968162365
  0
LINE
  5
557
100
AcDbEntity
  8
RACCORDO
100
AcDbLine
 62
7
  6
CONTINUOUS
 10
-7.8880694853
 20
-18.3968162365
 11
-7.8865095256
 21
-18.3650690443
  0
LINE
  5
558
100
AcDbEntity
  8
ASSI
100
AcDbLine
 62
7
  6
CONTINUOUS
 10
-7.8880694853
 20
-18.3968162365
 11
-7.8865095256
 21
-18.3650690443
  0
LINE
  5
559
100
AcDbEntity
  8
RACCORDO
100
AcDbLine
 62
250
  6
CONTINUOUS
 10
-6.1506084424
 20
13.4858806353
 11
-6.1539484185
 21
13.4180176342
  0
LINE
  5
55A
100
AcDbEntity
  8
ASSI
100
AcDbLine
 62
250
  6
CONTINUOUS
 10
-6.1506084424
 20
13.4858806353
 11
-6.1539484185
 21
13.4180176342
  0
LINE
  5
55B
100
AcDbEntity
  8
RACCORDO
100
AcDbLine
 62
250
  6
CONTINUOUS
 10
-6.1539484185
 20
13.4180176342
 11
-6.1577438351
 21
13.3441453786
  0
LINE
  5
55C
100
AcDbEntity
  8
ASSI
100
AcDbLine
 62
250
  6
CONTINUOUS
 10
-6.1539484185
 20
13.4180176342
 11
-6.1577438351
 21
13.3441453786
  0
LWPOLYLINE
  5
55D
100
AcDbEntity
  8
RACCORDO
100
AcDbPolyline
 62
250
  6
CONTINUOUS
 90
40
 70
0
 10
-7.8715354552
 20
-0.2428858996
 10
-7.8713132989
 20
-0.2386377705
 10
-7.8706471573
 20
-0.2343959238
 10
-7.8695380168
 20
-0.2301666511
 10
-7.8679875202
 20
-0.2259562163
 10
-7.8659979638
 20
-0.2217708552
 10
-7.8635722943
 20
-0.2176167665
 10
-7.8607141042
 20
-0.2135001026
 10
-7.8574276267
 20
-0.2094269606
 10
-7.8537177291
 20
-0.2054033728
 10
-7.849589906
 20
-0.2014352984
 10
-7.845050271
 20
-0.1975286145
 10
-7.8401055474
 20
-0.1936891068
 10
-7.8347630587
 20
-0.1899224619
 10
-7.8290307172
 20
-0.1862342585
 10
-7.8229170129
 20
-0.1826299589
 10
-7.8164310006
 20
-0.1791149012
 10
-7.8095822862
 20
-0.1756942914
 10
-7.8023810131
 20
-0.1723731956
 10
-7.7948378466
 20
-0.1691565325
 10
-7.7869639587
 20
-0.1660490661
 10
-7.7787710108
 20
-0.1630553988
 10
-7.7702711372
 20
-0.1601799642
 10
-7.7614769266
 20
-0.1574270211
 10
-7.7524014036
 20
-0.1548006467
 10
-7.7430580095
 20
-0.1523047307
 10
-7.7334605823
 20
-0.1499429698
 10
-7.7236233363
 20
-0.1477188618
 10
-7.7135608409
 20
-0.1456357007
 10
-7.7032879991
 20
-0.1436965718
 10
-7.6928200255
 20
-0.141904347
 10
-7.6821724237
 20
-0.1402616807
 10
-7.6713609633
 20
-0.1387710057
 10
-7.6604016566
 20
-0.1374345299
 10
-7.6493107348
 20
-0.1362542325
 10
-7.6381046241
 20
-0.1352318617
 10
-7.6267999212
 20
-0.1343689317
 10
-7.6154133691
 20
-0.1336667204
 10
-7.6039618317
 20
-0.133126268
 10
-7.5924622693
 20
-0.1327483747
  0
LWPOLYLINE
  5
55E
100
AcDbEntity
  8
ASSI
100
AcDbPolyline
 62
250
  6
CONTINUOUS
 90
40
 70
0
 10
-7.8715354552
 20
-0.2428858996
 10
-7.8713132989
 20
-0.2386377705
 10
-7.8706471573
 20
-0.2343959238
 10
-7.8695380168
 20
-0.2301666511
 10
-7.8679875202
 20
-0.2259562163
 10
-7.8659979638
 20
-0.2217708552
 10
-7.8635722943
 20
-0.2176167665
 10
-7.8607141042
 20
-0.2135001026
 10
-7.8574276267
 20
-0.2094269606
 10
-7.8537177291
 20
-0.2054033728
 10
-7.849589906
 20
-0.2014352984
 10
-7.845050271
 20
-0.1975286145
 10
-7.8401055474
 20
-0.1936891068
 10
-7.8347630587
 20
-0.1899224619
 10
-7.8290307172
 20
-0.1862342585
 10
-7.8229170129
 20
-0.1826299589
 10
-7.8164310006
 20
-0.1791149012
 10
-7.8095822862
 20
-0.1756942914
 10
-7.8023810131
 20
-0.1723731956
 10
-7.7948378466
 20
-0.1691565325
 10
-7.7869639587
 20
-0.1660490661
 10
-7.7787710108
 20
-0.1630553988
 10
-7.7702711372
 20
-0.1601799642
 10
-7.7614769266
 20
-0.1574270211
 10
-7.7524014036
 20
-0.1548006467
 10
-7.7430580095
 20
-0.1523047307
 10
-7.7334605823
 20
-0.1499429698
 10
-7.7236233363
 20
-0.1477188618
 10
-7.7135608409
 20
-0.1456357007
 10
-7.7032879991
 20
-0.1436965718
 10
-7.6928200255
 20
-0.141904347
 10
-7.6821724237
 20
-0.1402616807
 10
-7.6713609633
 20
-0.1387710057
 10
-7.6604016566
 20
-0.1374345299
 10
-7.6493107348
 20
-0.1362542325
 10
-7.6381046241
 20
-0.1352318617
 10
-7.6267999212
 20
-0.1343689317
 10
-7.6154133691
 20
-0.1336667204
 10
-7.6039618317
 20
-0.133126268
 10
-7.5924622693
 20
-0.1327483747
  0
LINE
  5
55F
100
AcDbEntity
  8
RACCORDO
100
AcDbLine
 62
250
  6
CONTINUOUS
 10
-6.1577438351
 20
13.3441453786
 11
-6.1618965176
 21
13.2661717473
  0
LINE
  5
560
100
AcDbEntity
  8
ASSI
100
AcDbLine
 62
250
  6
CONTINUOUS
 10
-6.1577438351
 20
13.3441453786
 11
-6.1618965176
 21
13.2661717473
  0
LINE
  5
561
100
AcDbEntity
  8
RACCORDO
100
AcDbLine
 62
7
  6
CONTINUOUS
 10
-7.8865095256
 20
-18.3650690443
 11
-7.8826433321
 21
-18.2910481977
  0
LINE
  5
562
100
AcDbEntity
  8
ASSI
100
AcDbLine
 62
7
  6
CONTINUOUS
 10
-7.8865095256
 20
-18.3650690443
 11
-7.8826433321
 21
-18.2910481977
  0
LINE
  5
563
100
AcDbEntity
  8
RACCORDO
100
AcDbLine
 62
250
  6
CONTINUOUS
 10
-6.1618965176
 20
13.2661717473
 11
-6.1662997332
 21
13.1861116885
  0
LINE
  5
564
100
AcDbEntity
  8
ASSI
100
AcDbLine
 62
250
  6
CONTINUOUS
 10
-6.1618965176
 20
13.2661717473
 11
-6.1662997332
 21
13.1861116885
  0
LINE
  5
565
100
AcDbEntity
  8
RACCORDO
100
AcDbLine
 62
250
  6
CONTINUOUS
 10
-7.5732630586
 20
0.0598355653
 11
-7.5924622087
 21
-0.1327490722
  0
LINE
  5
566
100
AcDbEntity
  8
ASSI
100
AcDbLine
 62
250
  6
CONTINUOUS
 10
-7.5732630586
 20
0.0598355653
 11
-7.5924622087
 21
-0.1327490722
  0
LINE
  5
567
100
AcDbEntity
  8
RACCORDO
100
AcDbLine
 62
250
  6
CONTINUOUS
 10
-6.1506089542
 20
1.7904414326
 11
-6.164922615
 21
1.6893947356
  0
LINE
  5
568
100
AcDbEntity
  8
ASSI
100
AcDbLine
 62
250
  6
CONTINUOUS
 10
-6.1506089542
 20
1.7904414326
 11
-6.164922615
 21
1.6893947356
  0
LWPOLYLINE
  5
569
100
AcDbEntity
  8
RACCORDO
100
AcDbPolyline
 62
250
  6
CONTINUOUS
 90
3
 70
0
 10
-6.164922615
 20
1.6893947356
 10
-6.1681771743
 20
1.6665827058
 10
-6.1698078587
 20
1.6551635723
  0
LWPOLYLINE
  5
56A
100
AcDbEntity
  8
ASSI
100
AcDbPolyline
 62
250
  6
CONTINUOUS
 90
3
 70
0
 10
-6.164922615
 20
1.6893947356
 10
-6.1681771743
 20
1.6665827058
 10
-6.1698078587
 20
1.6551635723
  0
LINE
  5
56B
100
AcDbEntity
  8
0
100
AcDbLine
 62
250
  6
CONTINUOUS
 10
-13.4044117592
 20
-15.2300856175
 11
-12.3715354552
 21
-13.8990636175
  0
LWPOLYLINE
  5
56C
100
AcDbEntity
  8
RACCORDO
100
AcDbPolyline
 62
7
  6
CONTINUOUS
 90
4
 70
0
 10
-19.8745917612
 20
-21.3029106027
 10
-19.8797160499
 20
-21.3085148694
 10
-19.8830933639
 20
-21.3121047424
 10
-19.8912912773
 20
-21.3207397979
  0
LINE
  5
56D
100
AcDbEntity
  8
RACCORDO
100
AcDbLine
 62
7
  6
CONTINUOUS
 10
-19.8912912773
 20
-21.3207397979
 11
-19.9125847887
 21
-21.3427959866
  0
LINE
  5
56E
100
AcDbEntity
  8
RACCORDO
100
AcDbLine
 62
7
  6
CONTINUOUS
 10
-19.9125847887
 20
-21.3427959866
 11
-19.9319860864
 21
-21.3627026253
  0
LINE
  5
56F
100
AcDbEntity
  8
RACCORDO
100
AcDbLine
 62
7
  6
CONTINUOUS
 10
-19.9319860864
 20
-21.3627026253
 11
-19.9937971098
 21
-21.4255743843
  0
LINE
  5
570
100
AcDbEntity
  8
RACCORDO
100
AcDbLine
 62
7
  6
CONTINUOUS
 10
-19.9937971098
 20
-21.4255743843
 11
-20.0738436015
 21
-21.5063403537
  0
LINE
  5
571
100
AcDbEntity
  8
RACCORDO
100
AcDbLine
 62
7
  6
CONTINUOUS
 10
-20.0738436015
 20
-21.5063403537
 11
-20.1662997332
 21
-21.5990636175
  0
LINE
  5
572
100
AcDbEntity
  8
RACCORDO
100
AcDbLine
 62
250
  6
CONTINUOUS
 10
-32.5375644427
 20
16.9807355757
 11
-36.8715354552
 21
16.9050858303
  0
LINE
  5
573
100
AcDbEntity
  8
RACCORDO
100
AcDbLine
 62
7
  6
CONTINUOUS
 10
-32.414534904
 20
17.9827307594
 11
-36.8715354552
 21
17.9049335254
  0
LINE
  5
574
100
AcDbEntity
  8
RACCORDO
100
AcDbLine
 62
250
  6
CONTINUOUS
 10
-8.8540830487
 20
17.120676631
 11
-7.8715354552
 21
17.120676631
  0
LINE
  5
575
100
AcDbEntity
  8
ASSI
100
AcDbLine
 62
250
  6
CONTINUOUS
 10
-8.8540830487
 20
17.120676631
 11
-7.8715354552
 21
17.120676631
  0
LINE
  5
576
100
AcDbEntity
  8
RACCORDO
100
AcDbLine
 62
250
  6
CONTINUOUS
 10
-8.8540830487
 20
17.120676631
 11
-29.8715354552
 21
17.2726354313
  0
LINE
  5
577
100
AcDbEntity
  8
ASSI
100
AcDbLine
 62
250
  6
CONTINUOUS
 10
-8.8540830487
 20
17.120676631
 11
-29.8715354552
 21
17.2726354313
  0
LWPOLYLINE
  5
578
100
AcDbEntity
  8
RACCORDO
100
AcDbPolyline
 62
250
  6
CONTINUOUS
 90
11
 70
0
 10
-8.3435099401
 20
9.5193526737
 10
-8.3633731995
 20
9.5360149262
 10
-8.3837718733
 20
9.5532735296
 10
-8.4047051914
 20
9.5711284838
 10
-8.4261810595
 20
9.5895953542
 10
-8.448187515
 20
9.6086585756
 10
-8.470691551
 20
9.6282714514
 10
-8.4936838169
 20
9.6484359768
 10
-8.5171614758
 20
9.6691501567
 10
-8.541098264
 20
9.6903613102
 10
-8.565501859
 20
9.7120899226
  0
LWPOLYLINE
  5
579
100
AcDbEntity
  8
ASSI
100
AcDbPolyline
 62
250
  6
CONTINUOUS
 90
11
 70
0
 10
-8.3435099401
 20
9.5193526737
 10
-8.3633731995
 20
9.5360149262
 10
-8.3837718733
 20
9.5532735296
 10
-8.4047051914
 20
9.5711284838
 10
-8.4261810595
 20
9.5895953542
 10
-8.448187515
 20
9.6086585756
 10
-8.470691551
 20
9.6282714514
 10
-8.4936838169
 20
9.6484359768
 10
-8.5171614758
 20
9.6691501567
 10
-8.541098264
 20
9.6903613102
 10
-8.565501859
 20
9.7120899226
  0
LINE
  5
57A
100
AcDbEntity
  8
RACCORDO
100
AcDbLine
 62
250
  6
CONTINUOUS
 10
-8.565501859
 20
9.7120899226
 11
-8.6155485683
 21
9.7569239306
  0
LINE
  5
57B
100
AcDbEntity
  8
ASSI
100
AcDbLine
 62
250
  6
CONTINUOUS
 10
-8.565501859
 20
9.7120899226
 11
-8.6155485683
 21
9.7569239306
  0
LINE
  5
57C
100
AcDbEntity
  8
RACCORDO
100
AcDbLine
 62
250
  6
CONTINUOUS
 10
-8.6155485683
 20
9.7569239306
 11
-8.6669419283
 21
9.8032687556
  0
LINE
  5
57D
100
AcDbEntity
  8
ASSI
100
AcDbLine
 62
250
  6
CONTINUOUS
 10
-8.6155485683
 20
9.7569239306
 11
-8.6669419283
 21
9.8032687556
  0
LINE
  5
57E
100
AcDbEntity
  8
RACCORDO
100
AcDbLine
 62
250
  6
CONTINUOUS
 10
-8.6669419283
 20
9.8032687556
 11
-8.7195738839
 21
9.8509318094
  0
LINE
  5
57F
100
AcDbEntity
  8
ASSI
100
AcDbLine
 62
250
  6
CONTINUOUS
 10
-8.6669419283
 20
9.8032687556
 11
-8.7195738839
 21
9.8509318094
  0
LWPOLYLINE
  5
580
100
AcDbEntity
  8
RACCORDO
100
AcDbPolyline
 62
250
  6
CONTINUOUS
 90
3
 70
0
 10
-8.7195738839
 20
9.8509318094
 10
-8.8270467923
 20
9.9486314783
 10
-8.8540830487
 20
9.9732874546
  0
LWPOLYLINE
  5
581
100
AcDbEntity
  8
ASSI
100
AcDbPolyline
 62
250
  6
CONTINUOUS
 90
3
 70
0
 10
-8.7195738839
 20
9.8509318094
 10
-8.8270467923
 20
9.9486314783
 10
-8.8540830487
 20
9.9732874546
  0
LINE
  5
582
100
AcDbEntity
  8
RACCORDO
100
AcDbLine
 62
7
  6
CONTINUOUS
 10
-20.0923557987
 20
20.7268146586
 11
-20.1662997332
 21
20.8009363825
  0
LINE
  5
583
100
AcDbEntity
  8
RACCORDO
100
AcDbLine
 62
7
  6
CONTINUOUS
 10
-19.9067208435
 20
20.5386296084
 11
-20.0923557987
 21
20.7268146586
  0
LWPOLYLINE
  5
584
100
AcDbEntity
  8
RACCORDO
100
AcDbPolyline
 62
7
  6
CONTINUOUS
 90
3
 70
0
 10
-19.8830933639
 20
20.5139775075
 10
-19.8912912773
 20
20.522612563
 10
-19.9067208435
 20
20.5386296084
  0
LINE
  5
585
100
AcDbEntity
  8
RACCORDO
100
AcDbLine
 62
7
  6
CONTINUOUS
 10
-19.8797160499
 20
20.5103876345
 11
-19.8830933639
 21
20.5139775075
  0
LWPOLYLINE
  5
586
100
AcDbEntity
  8
RACCORDO
100
AcDbPolyline
 62
250
  6
CONTINUOUS
 90
40
 70
0
 10
-5.8715354552
 20
1.7111456626
 10
-5.8717576143
 20
1.7142042065
 10
-5.8724237594
 20
1.7172582204
 10
-5.8735329039
 20
1.7203031811
 10
-5.875083405
 20
1.7233345789
 10
-5.8770729664
 20
1.7263479242
 10
-5.8794986413
 20
1.729338754
 10
-5.8823568373
 20
1.7323026388
 10
-5.8856433212
 20
1.735235189
 10
-5.8893532255
 20
1.7381320612
 10
-5.8934810557
 20
1.740988965
 10
-5.8980206982
 20
1.7438016693
 10
-5.9029654296
 20
1.7465660083
 10
-5.9083079265
 20
1.7492778879
 10
-5.9140402763
 20
1.7519332916
 10
-5.9201539892
 20
1.7545282867
 10
-5.9266400105
 20
1.7570590298
 10
-5.9334887339
 20
1.7595217728
 10
-5.9406900162
 20
1.7619128682
 10
-5.948233192
 20
1.7642287748
 10
-5.9561070894
 20
1.7664660626
 10
-5.9643000467
 20
1.7686214179
 10
-5.9727999299
 20
1.7706916487
 10
-5.9815941501
 20
1.7726736889
 10
-5.9906696826
 20
1.7745646028
 10
-6.0000130862
 20
1.7763615901
 10
-6.0096105228
 20
1.7780619893
 10
-6.0194477782
 20
1.7796632819
 10
-6.0295102828
 20
1.7811630965
 10
-6.0397831336
 20
1.7825592116
 10
-6.050251116
 20
1.7838495597
 10
-6.0608987264
 20
1.7850322296
 10
-6.0717101952
 20
1.7861054698
 10
-6.0826695101
 20
1.7870676907
 10
-6.0937604397
 20
1.7879174672
 10
-6.104966558
 20
1.7886535408
 10
-6.1162712679
 20
1.7892748213
 10
-6.1276578269
 20
1.7897803886
 10
-6.1391093707
 20
1.7901694939
 10
-6.1506089391
 20
1.7904415608
  0
LWPOLYLINE
  5
587
100
AcDbEntity
  8
ASSI
100
AcDbPolyline
 62
250
  6
CONTINUOUS
 90
40
 70
0
 10
-5.8715354552
 20
1.7111456626
 10
-5.8717576143
 20
1.7142042065
 10
-5.8724237594
 20
1.7172582204
 10
-5.8735329039
 20
1.7203031811
 10
-5.875083405
 20
1.7233345789
 10
-5.8770729664
 20
1.7263479242
 10
-5.8794986413
 20
1.729338754
 10
-5.8823568373
 20
1.7323026388
 10
-5.8856433212
 20
1.735235189
 10
-5.8893532255
 20
1.7381320612
 10
-5.8934810557
 20
1.740988965
 10
-5.8980206982
 20
1.7438016693
 10
-5.9029654296
 20
1.7465660083
 10
-5.9083079265
 20
1.7492778879
 10
-5.9140402763
 20
1.7519332916
 10
-5.9201539892
 20
1.7545282867
 10
-5.9266400105
 20
1.7570590298
 10
-5.9334887339
 20
1.7595217728
 10
-5.9406900162
 20
1.7619128682
 10
-5.948233192
 20
1.7642287748
 10
-5.9561070894
 20
1.7664660626
 10
-5.9643000467
 20
1.7686214179
 10
-5.9727999299
 20
1.7706916487
 10
-5.9815941501
 20
1.7726736889
 10
-5.9906696826
 20
1.7745646028
 10
-6.0000130862
 20
1.7763615901
 10
-6.0096105228
 20
1.7780619893
 10
-6.0194477782
 20
1.7796632819
 10
-6.0295102828
 20
1.7811630965
 10
-6.0397831336
 20
1.7825592116
 10
-6.050251116
 20
1.7838495597
 10
-6.0608987264
 20
1.7850322296
 10
-6.0717101952
 20
1.7861054698
 10
-6.0826695101
 20
1.7870676907
 10
-6.0937604397
 20
1.7879174672
 10
-6.104966558
 20
1.7886535408
 10
-6.1162712679
 20
1.7892748213
 10
-6.1276578269
 20
1.7897803886
 10
-6.1391093707
 20
1.7901694939
 10
-6.1506089391
 20
1.7904415608
  0
LINE
  5
588
100
AcDbEntity
  8
RACCORDO
100
AcDbLine
 62
250
  6
CONTINUOUS
 10
-6.1662997332
 20
10.2157608924
 11
-6.1618965309
 21
10.1357008252
  0
LINE
  5
589
100
AcDbEntity
  8
ASSI
100
AcDbLine
 62
250
  6
CONTINUOUS
 10
-6.1662997332
 20
10.2157608924
 11
-6.1618965309
 21
10.1357008252
  0
LINE
  5
58A
100
AcDbEntity
  8
RACCORDO
100
AcDbLine
 62
250
  6
CONTINUOUS
 10
-6.1618965309
 20
10.1357008252
 11
-6.1577438622
 21
10.0577271862
  0
LINE
  5
58B
100
AcDbEntity
  8
ASSI
100
AcDbLine
 62
250
  6
CONTINUOUS
 10
-6.1618965309
 20
10.1357008252
 11
-6.1577438622
 21
10.0577271862
  0
LINE
  5
58C
100
AcDbEntity
  8
RACCORDO
100
AcDbLine
 62
250
  6
CONTINUOUS
 10
-6.1577438622
 20
10.0577271862
 11
-6.1539484595
 21
9.9838549238
  0
LINE
  5
58D
100
AcDbEntity
  8
ASSI
100
AcDbLine
 62
250
  6
CONTINUOUS
 10
-6.1577438622
 20
10.0577271862
 11
-6.1539484595
 21
9.9838549238
  0
LINE
  5
58E
100
AcDbEntity
  8
RACCORDO
100
AcDbLine
 62
250
  6
CONTINUOUS
 10
-6.1539484595
 20
9.9838549238
 11
-6.1506084731
 21
9.9159918832
  0
LINE
  5
58F
100
AcDbEntity
  8
ASSI
100
AcDbLine
 62
250
  6
CONTINUOUS
 10
-6.1539484595
 20
9.9838549238
 11
-6.1506084731
 21
9.9159918832
  0
LWPOLYLINE
  5
590
100
AcDbEntity
  8
RACCORDO
100
AcDbPolyline
 62
250
  6
CONTINUOUS
 90
40
 70
0
 10
-5.8715354552
 20
13.3066055439
 10
-5.8717576138
 20
13.3135203957
 10
-5.8724237572
 20
13.3204250064
 10
-5.8735328988
 20
13.3273091497
 10
-5.8750833959
 20
13.33416263
 10
-5.8770729522
 20
13.340975297
 10
-5.879498621
 20
13.3477370607
 10
-5.8823568098
 20
13.3544379067
 10
-5.8856432856
 20
13.3610679108
 10
-5.8893531808
 20
13.3676172536
 10
-5.893481001
 20
13.3740762352
 10
-5.8980206327
 20
13.3804352895
 10
-5.9029653524
 20
13.3866849986
 10
-5.9083078368
 20
13.3928161063
 10
-5.9140401736
 20
13.3988195321
 10
-5.9201538727
 20
13.4046863848
 10
-5.9266398795
 20
13.4104079752
 10
-5.9334885881
 20
13.4159758293
 10
-5.940689855
 20
13.421381701
 10
-5.948233015
 20
13.4266175839
 10
-5.9561068962
 20
13.4316757234
 10
-5.9642998371
 20
13.4365486282
 10
-5.9727997036
 20
13.4412290812
 10
-5.9815939069
 20
13.4457101505
 10
-5.9906694225
 20
13.4499851995
 10
-6.000012809
 20
13.4540478965
 10
-6.0096102286
 20
13.4578922246
 10
-6.019447467
 20
13.4615124901
 10
-6.0295099548
 20
13.4649033312
 10
-6.0397827889
 20
13.4680597259
 10
-6.0502507549
 20
13.4709769994
 10
-6.0608983493
 20
13.4736508313
 10
-6.0717098023
 20
13.4760772612
 10
-6.0826691018
 20
13.4782526957
 10
-6.0937600166
 20
13.4801739128
 10
-6.1049661205
 20
13.481838067
 10
-6.1162708166
 20
13.4832426937
 10
-6.1276573624
 20
13.4843857125
 10
-6.1391088937
 20
13.4852654307
 10
-6.1506084503
 20
13.4858805452
  0
LWPOLYLINE
  5
591
100
AcDbEntity
  8
ASSI
100
AcDbPolyline
 62
250
  6
CONTINUOUS
 90
40
 70
0
 10
-5.8715354552
 20
13.3066055439
 10
-5.8717576138
 20
13.3135203957
 10
-5.8724237572
 20
13.3204250064
 10
-5.8735328988
 20
13.3273091497
 10
-5.8750833959
 20
13.33416263
 10
-5.8770729522
 20
13.340975297
 10
-5.879498621
 20
13.3477370607
 10
-5.8823568098
 20
13.3544379067
 10
-5.8856432856
 20
13.3610679108
 10
-5.8893531808
 20
13.3676172536
 10
-5.893481001
 20
13.3740762352
 10
-5.8980206327
 20
13.3804352895
 10
-5.9029653524
 20
13.3866849986
 10
-5.9083078368
 20
13.3928161063
 10
-5.9140401736
 20
13.3988195321
 10
-5.9201538727
 20
13.4046863848
 10
-5.9266398795
 20
13.4104079752
 10
-5.9334885881
 20
13.4159758293
 10
-5.940689855
 20
13.421381701
 10
-5.948233015
 20
13.4266175839
 10
-5.9561068962
 20
13.4316757234
 10
-5.9642998371
 20
13.4365486282
 10
-5.9727997036
 20
13.4412290812
 10
-5.9815939069
 20
13.4457101505
 10
-5.9906694225
 20
13.4499851995
 10
-6.000012809
 20
13.4540478965
 10
-6.0096102286
 20
13.4578922246
 10
-6.019447467
 20
13.4615124901
 10
-6.0295099548
 20
13.4649033312
 10
-6.0397827889
 20
13.4680597259
 10
-6.0502507549
 20
13.4709769994
 10
-6.0608983493
 20
13.4736508313
 10
-6.0717098023
 20
13.4760772612
 10
-6.0826691018
 20
13.4782526957
 10
-6.0937600166
 20
13.4801739128
 10
-6.1049661205
 20
13.481838067
 10
-6.1162708166
 20
13.4832426937
 10
-6.1276573624
 20
13.4843857125
 10
-6.1391088937
 20
13.4852654307
 10
-6.1506084503
 20
13.4858805452
  0
LINE
  5
592
100
AcDbEntity
  8
RACCORDO
100
AcDbLine
 62
7
  6
CONTINUOUS
 10
-5.8717359074
 20
10.4630985356
 11
-5.8719863895
 21
10.4841604077
  0
LINE
  5
593
100
AcDbEntity
  8
ASSI
100
AcDbLine
 62
7
  6
CONTINUOUS
 10
-5.8717359074
 20
10.4630985356
 11
-5.8719863895
 21
10.4841604077
  0
LINE
  5
594
100
AcDbEntity
  8
RACCORDO
100
AcDbLine
 62
7
  6
CONTINUOUS
 10
-5.8715855598
 20
10.4423713655
 11
-5.8717359074
 21
10.4630985356
  0
LINE
  5
595
100
AcDbEntity
  8
ASSI
100
AcDbLine
 62
7
  6
CONTINUOUS
 10
-5.8715855598
 20
10.4423713655
 11
-5.8717359074
 21
10.4630985356
  0
LINE
  5
596
100
AcDbEntity
  8
RACCORDO
100
AcDbLine
 62
250
  6
CONTINUOUS
 10
-6.1715354552
 20
12.9886622515
 11
-6.1715354552
 21
10.4132105135
  0
LINE
  5
597
100
AcDbEntity
  8
ASSI
100
AcDbLine
 62
250
  6
CONTINUOUS
 10
-6.1715354552
 20
12.9886622515
 11
-6.1715354552
 21
10.4132105135
  0
LINE
  5
598
100
AcDbEntity
  8
RACCORDO
100
AcDbLine
 62
250
  6
CONTINUOUS
 10
-6.1698075888
 20
1.6551635064
 11
-6.1698075888
 21
0.3467094536
  0
LINE
  5
599
100
AcDbEntity
  8
ASSI
100
AcDbLine
 62
250
  6
CONTINUOUS
 10
-6.1698075888
 20
1.6551635064
 11
-6.1698075888
 21
0.3467094536
  0
LINE
  5
59A
100
AcDbEntity
  8
RACCORDO
100
AcDbLine
 62
250
  6
CONTINUOUS
 10
-6.1662997332
 20
13.1861116885
 11
-6.1662997332
 21
12.9887393501
  0
LINE
  5
59B
100
AcDbEntity
  8
ASSI
100
AcDbLine
 62
250
  6
CONTINUOUS
 10
-6.1662997332
 20
13.1861116885
 11
-6.1662997332
 21
12.9887393501
  0
LINE
  5
59C
100
AcDbEntity
  8
RACCORDO
100
AcDbLine
 62
250
  6
CONTINUOUS
 10
-6.1662997332
 20
10.413133415
 11
-6.1662997332
 21
10.2157608924
  0
LINE
  5
59D
100
AcDbEntity
  8
ASSI
100
AcDbLine
 62
250
  6
CONTINUOUS
 10
-6.1662997332
 20
10.413133415
 11
-6.1662997332
 21
10.2157608924
  0
LINE
  5
59E
100
AcDbEntity
  8
RACCORDO
100
AcDbLine
 62
250
  6
CONTINUOUS
 10
-6.150608513
 20
14.6805974479
 11
-6.1506084832
 21
13.4858805862
  0
LINE
  5
59F
100
AcDbEntity
  8
ASSI
100
AcDbLine
 62
250
  6
CONTINUOUS
 10
-6.150608513
 20
14.6805974479
 11
-6.1506084832
 21
13.4858805862
  0
LINE
  5
5A0
100
AcDbEntity
  8
RACCORDO
100
AcDbLine
 62
250
  6
CONTINUOUS
 10
-6.1506085051
 20
9.9159919989
 11
-6.150608513
 21
8.7212753172
  0
LINE
  5
5A1
100
AcDbEntity
  8
ASSI
100
AcDbLine
 62
250
  6
CONTINUOUS
 10
-6.1506085051
 20
9.9159919989
 11
-6.150608513
 21
8.7212753172
  0
LINE
  5
5A2
100
AcDbEntity
  8
RACCORDO
100
AcDbLine
 62
250
  6
CONTINUOUS
 10
-6.150608513
 20
3.9805974479
 11
-6.1506087276
 21
1.7904413443
  0
LINE
  5
5A3
100
AcDbEntity
  8
ASSI
100
AcDbLine
 62
250
  6
CONTINUOUS
 10
-6.150608513
 20
3.9805974479
 11
-6.1506087276
 21
1.7904413443
  0
LINE
  5
5A4
100
AcDbEntity
  8
RACCORDO
100
AcDbLine
 62
250
  6
CONTINUOUS
 10
-6.1506086622
 20
0.2114316224
 11
-6.150608513
 21
-1.9787246828
  0
LINE
  5
5A5
100
AcDbEntity
  8
ASSI
100
AcDbLine
 62
250
  6
CONTINUOUS
 10
-6.1506086622
 20
0.2114316224
 11
-6.150608513
 21
-1.9787246828
  0
LINE
  5
5A6
100
AcDbEntity
  8
RACCORDO
100
AcDbLine
 62
7
  6
CONTINUOUS
 10
-5.8719863895
 20
12.9177123574
 11
-5.8719863895
 21
10.4841604077
  0
LINE
  5
5A7
100
AcDbEntity
  8
ASSI
100
AcDbLine
 62
7
  6
CONTINUOUS
 10
-5.8719863895
 20
12.9177123574
 11
-5.8719863895
 21
10.4841604077
  0
LINE
  5
5A8
100
AcDbEntity
  8
RACCORDO
100
AcDbLine
 62
7
  6
CONTINUOUS
 10
-5.8715354552
 20
14.3813271742
 11
-5.8715354552
 21
9.0205455908
  0
LINE
  5
5A9
100
AcDbEntity
  8
ASSI
100
AcDbLine
 62
7
  6
CONTINUOUS
 10
-5.8715354552
 20
14.3813271742
 11
-5.8715354552
 21
9.0205455908
  0
LINE
  5
5AA
100
AcDbEntity
  8
RACCORDO
100
AcDbLine
 62
7
  6
CONTINUOUS
 10
-5.8715354552
 20
3.6813272558
 11
-5.8715354552
 21
-1.6794223957
  0
LINE
  5
5AB
100
AcDbEntity
  8
ASSI
100
AcDbLine
 62
7
  6
CONTINUOUS
 10
-5.8715354552
 20
3.6813272558
 11
-5.8715354552
 21
-1.6794218384
  0
LINE
  5
5AC
100
AcDbEntity
  8
RACCORDO
100
AcDbLine
 62
7
  6
CONTINUOUS
 10
-5.8717359073
 20
12.9387742465
 11
-5.8715855598
 21
12.9595014164
  0
LINE
  5
5AD
100
AcDbEntity
  8
ASSI
100
AcDbLine
 62
7
  6
CONTINUOUS
 10
-5.8717359073
 20
12.9387742465
 11
-5.8715855598
 21
12.9595014164
  0
LINE
  5
5AE
100
AcDbEntity
  8
RACCORDO
100
AcDbLine
 62
7
  6
CONTINUOUS
 10
-5.8719863895
 20
12.9177123574
 11
-5.8717359073
 21
12.9387742465
  0
LINE
  5
5AF
100
AcDbEntity
  8
ASSI
100
AcDbLine
 62
7
  6
CONTINUOUS
 10
-5.8719863895
 20
12.9177123574
 11
-5.8717359073
 21
12.9387742465
  0
LWPOLYLINE
  5
5B0
100
AcDbEntity
  8
RACCORDO
100
AcDbPolyline
 62
250
  6
CONTINUOUS
 90
40
 70
0
 10
-5.8715354552
 20
10.0952670613
 10
-5.8717576158
 20
10.0883522092
 10
-5.8724237613
 20
10.0814475984
 10
-5.8735329048
 20
10.0745634548
 10
-5.8750834039
 20
10.0677099743
 10
-5.8770729621
 20
10.0608973071
 10
-5.8794986327
 20
10.0541355432
 10
-5.8823568234
 20
10.047434697
 10
-5.8856433009
 20
10.0408046928
 10
-5.8893531979
 20
10.0342553499
 10
-5.8934810199
 20
10.0277963681
 10
-5.8980206532
 20
10.0214373137
 10
-5.9029653747
 20
10.0151876045
 10
-5.9083078609
 20
10.0090564968
 10
-5.9140401992
 20
10.0030530709
 10
-5.9201539
 20
9.9971862183
 10
-5.9266399086
 20
9.9914646279
 10
-5.9334886187
 20
9.9858967739
 10
-5.9406898873
 20
9.9804909023
 10
-5.9482330489
 20
9.9752550196
 10
-5.9561069317
 20
9.9701968803
 10
-5.9642998741
 20
9.9653239758
 10
-5.9727997421
 20
9.960643523
 10
-5.9815939469
 20
9.9561624541
 10
-5.990669464
 20
9.9518874055
 10
-6.000012852
 20
9.947824709
 10
-6.0096102729
 20
9.9439803814
 10
-6.0194475126
 20
9.9403601166
 10
-6.0295100016
 20
9.9369692761
 10
-6.039782837
 20
9.9338128821
 10
-6.0502508041
 20
9.9308956093
 10
-6.0608983995
 20
9.9282217784
 10
-6.0717098535
 20
9.9257953493
 10
-6.0826691538
 20
9.9236199157
 10
-6.0937600694
 20
9.9216986997
 10
-6.1049661739
 20
9.9200345465
 10
-6.1162708706
 20
9.9186299209
 10
-6.1276574167
 20
9.9174869032
 10
-6.1391089483
 20
9.9166071863
 10
-6.1506085051
 20
9.915992073
  0
LWPOLYLINE
  5
5B1
100
AcDbEntity
  8
ASSI
100
AcDbPolyline
 62
250
  6
CONTINUOUS
 90
40
 70
0
 10
-5.8715354552
 20
10.0952670613
 10
-5.8717576158
 20
10.0883522092
 10
-5.8724237613
 20
10.0814475984
 10
-5.8735329048
 20
10.0745634548
 10
-5.8750834039
 20
10.0677099743
 10
-5.8770729621
 20
10.0608973071
 10
-5.8794986327
 20
10.0541355432
 10
-5.8823568234
 20
10.047434697
 10
-5.8856433009
 20
10.0408046928
 10
-5.8893531979
 20
10.0342553499
 10
-5.8934810199
 20
10.0277963681
 10
-5.8980206532
 20
10.0214373137
 10
-5.9029653747
 20
10.0151876045
 10
-5.9083078609
 20
10.0090564968
 10
-5.9140401992
 20
10.0030530709
 10
-5.9201539
 20
9.9971862183
 10
-5.9266399086
 20
9.9914646279
 10
-5.9334886187
 20
9.9858967739
 10
-5.9406898873
 20
9.9804909023
 10
-5.9482330489
 20
9.9752550196
 10
-5.9561069317
 20
9.9701968803
 10
-5.9642998741
 20
9.9653239758
 10
-5.9727997421
 20
9.960643523
 10
-5.9815939469
 20
9.9561624541
 10
-5.990669464
 20
9.9518874055
 10
-6.000012852
 20
9.947824709
 10
-6.0096102729
 20
9.9439803814
 10
-6.0194475126
 20
9.9403601166
 10
-6.0295100016
 20
9.9369692761
 10
-6.039782837
 20
9.9338128821
 10
-6.0502508041
 20
9.9308956093
 10
-6.0608983995
 20
9.9282217784
 10
-6.0717098535
 20
9.9257953493
 10
-6.0826691538
 20
9.9236199157
 10
-6.0937600694
 20
9.9216986997
 10
-6.1049661739
 20
9.9200345465
 10
-6.1162708706
 20
9.9186299209
 10
-6.1276574167
 20
9.9174869032
 10
-6.1391089483
 20
9.9166071863
 10
-6.1506085051
 20
9.915992073
  0
LWPOLYLINE
  5
5B2
100
AcDbEntity
  8
RACCORDO
100
AcDbPolyline
 62
250
  6
CONTINUOUS
 90
40
 70
0
 10
-5.8715354552
 20
0.2907273112
 10
-5.871757613
 20
0.2876687767
 10
-5.872423756
 20
0.284614772
 10
-5.8735328976
 20
0.2815698203
 10
-5.8750833952
 20
0.2785384312
 10
-5.8770729523
 20
0.2755250944
 10
-5.8794986223
 20
0.2725342727
 10
-5.8823568128
 20
0.2695703958
 10
-5.8856432907
 20
0.2666378532
 10
-5.8893531884
 20
0.2637409882
 10
-5.8934810115
 20
0.2608840912
 10
-5.8980206466
 20
0.2580713934
 10
-5.9029653701
 20
0.2553070605
 10
-5.9083078587
 20
0.2525951867
 10
-5.9140402001
 20
0.2499397883
 10
-5.9201539042
 20
0.2473447981
 10
-5.9266399164
 20
0.2448140595
 10
-5.9334886307
 20
0.2423513205
 10
-5.9406899037
 20
0.2399602286
 10
-5.9482330701
 20
0.2376443252
 10
-5.956106958
 20
0.2354070401
 10
-5.964299906
 20
0.233251687
 10
-5.9727997797
 20
0.2311814579
 10
-5.9815939906
 20
0.2291994191
 10
-5.9906695139
 20
0.227308506
 10
-6.0000129084
 20
0.2255115191
 10
-6.0096103361
 20
0.2238111199
 10
-6.0194475827
 20
0.2222098268
 10
-6.0295100788
 20
0.2207100112
 10
-6.0397829213
 20
0.2193138946
 10
-6.0502508958
 20
0.2180235447
 10
-6.0608984985
 20
0.2168408724
 10
-6.0717099599
 20
0.2157676295
 10
-6.0826692677
 20
0.2148054054
 10
-6.0937601907
 20
0.2139556253
 10
-6.1049663025
 20
0.2132195476
 10
-6.1162710066
 20
0.2125982627
 10
-6.1276575599
 20
0.2120926905
 10
-6.1391090986
 20
0.21170358
 10
-6.1506086622
 20
0.2114315074
  0
LWPOLYLINE
  5
5B3
100
AcDbEntity
  8
ASSI
100
AcDbPolyline
 62
250
  6
CONTINUOUS
 90
40
 70
0
 10
-5.8715354552
 20
0.2907273112
 10
-5.871757613
 20
0.2876687767
 10
-5.872423756
 20
0.284614772
 10
-5.8735328976
 20
0.2815698203
 10
-5.8750833952
 20
0.2785384312
 10
-5.8770729523
 20
0.2755250944
 10
-5.8794986223
 20
0.2725342727
 10
-5.8823568128
 20
0.2695703958
 10
-5.8856432907
 20
0.2666378532
 10
-5.8893531884
 20
0.2637409882
 10
-5.8934810115
 20
0.2608840912
 10
-5.8980206466
 20
0.2580713934
 10
-5.9029653701
 20
0.2553070605
 10
-5.9083078587
 20
0.2525951867
 10
-5.9140402001
 20
0.2499397883
 10
-5.9201539042
 20
0.2473447981
 10
-5.9266399164
 20
0.2448140595
 10
-5.9334886307
 20
0.2423513205
 10
-5.9406899037
 20
0.2399602286
 10
-5.9482330701
 20
0.2376443252
 10
-5.956106958
 20
0.2354070401
 10
-5.964299906
 20
0.233251687
 10
-5.9727997797
 20
0.2311814579
 10
-5.9815939906
 20
0.2291994191
 10
-5.9906695139
 20
0.227308506
 10
-6.0000129084
 20
0.2255115191
 10
-6.0096103361
 20
0.2238111199
 10
-6.0194475827
 20
0.2222098268
 10
-6.0295100788
 20
0.2207100112
 10
-6.0397829213
 20
0.2193138946
 10
-6.0502508958
 20
0.2180235447
 10
-6.0608984985
 20
0.2168408724
 10
-6.0717099599
 20
0.2157676295
 10
-6.0826692677
 20
0.2148054054
 10
-6.0937601907
 20
0.2139556253
 10
-6.1049663025
 20
0.2132195476
 10
-6.1162710066
 20
0.2125982627
 10
-6.1276575599
 20
0.2120926905
 10
-6.1391090986
 20
0.21170358
 10
-6.1506086622
 20
0.2114315074
  0
LWPOLYLINE
  5
5B4
100
AcDbEntity
  8
0
100
AcDbPolyline
 62
250
  6
CONTINUOUS
 90
37
 70
0
 10
-9.8151343377
 20
-12.6464326175
 10
-9.8310797651
 20
-12.6619840101
 10
-9.8466748501
 20
-12.6778931424
 10
-9.8619103096
 20
-12.6941504627
 10
-9.8767768605
 20
-12.7107464193
 10
-9.8912656616
 20
-12.7276716495
 10
-9.9053696381
 20
-12.7449175467
 10
-9.9190821571
 20
-12.7624756931
 10
-9.9323965858
 20
-12.780337671
 10
-9.945306343
 20
-12.7984948827
 10
-9.9578050561
 20
-12.8169380108
 10
-9.9698864044
 20
-12.8356575579
 10
-9.9815440671
 20
-12.8546440266
 10
-9.9927718909
 20
-12.873887855
 10
-10.0035643918
 20
-12.893379223
 10
-10.0139162532
 20
-12.9131082458
 10
-10.0238221585
 20
-12.9330650388
 10
-10.033276937
 20
-12.9532396359
 10
-10.0422760014
 20
-12.9736217455
 10
-10.0508149107
 20
-12.9942009948
 10
-10.0588892234
 20
-13.0149670109
 10
-10.066494658
 20
-13.0359093714
 10
-10.0736275709
 20
-13.0570174559
 10
-10.080284478
 20
-13.0782805947
 10
-10.0864618955
 20
-13.0996881178
 10
-10.0921565014
 20
-13.1212292788
 10
-10.0973656228
 20
-13.1428930248
 10
-10.1020867486
 20
-13.1646682263
 10
-10.1063173681
 20
-13.1865437535
 10
-10.1100551364
 20
-13.2085085635
 10
-10.1132983732
 20
-13.230551959
 10
-10.1160455642
 20
-13.2526633293
 10
-10.1182951953
 20
-13.2748320638
 10
-10.1200459202
 20
-13.2970471016
 10
-10.1212970647
 20
-13.3192955811
 10
-10.1220481226
 20
-13.3415641903
 10
-10.1222985877
 20
-13.3638396175
  0
LINE
  5
5B5
100
AcDbEntity
  8
RACCORDO
100
AcDbLine
 62
250
  6
CONTINUOUS
 10
-43.8013817746
 20
19.3365421504
 11
-44.0431951539
 21
19.3235228685
  0
LINE
  5
5B6
100
AcDbEntity
  8
RACCORDO
100
AcDbLine
 62
250
  6
CONTINUOUS
 10
-44.0431951539
 20
19.3235228685
 11
-44.2601445151
 21
19.3119779567
  0
LINE
  5
5B7
100
AcDbEntity
  8
RACCORDO
100
AcDbLine
 62
250
  6
CONTINUOUS
 10
-44.2601445151
 20
19.3119779567
 11
-44.4316881366
 21
19.3030005384
  0
LINE
  5
5B8
100
AcDbEntity
  8
RACCORDO
100
AcDbLine
 62
250
  6
CONTINUOUS
 10
-44.4316881366
 20
19.3030005384
 11
-44.5125773717
 21
19.2988743668
  0
LWPOLYLINE
  5
5B9
100
AcDbEntity
  8
RACCORDO
100
AcDbPolyline
 62
250
  6
CONTINUOUS
 90
4
 70
0
 10
-44.5125773717
 20
19.2988743668
 10
-44.5625268446
 20
19.2964482323
 10
-44.5751854688
 20
19.2959076728
 10
-44.5794252647
 20
19.2958246842
  0
LINE
  5
5BA
100
AcDbEntity
  8
RACCORDO
100
AcDbLine
 62
7
  6
CONTINUOUS
 10
-29.8715354552
 20
20.5009363825
 11
-19.8715354552
 21
20.5009363825
  0
LINE
  5
5BB
100
AcDbEntity
  8
RACCORDO
100
AcDbLine
 62
250
  6
CONTINUOUS
 10
-8.8540830487
 20
18.5346748018
 11
-29.8715354552
 21
18.6866336021
  0
LINE
  5
5BC
100
AcDbEntity
  8
ASSI
100
AcDbLine
 62
250
  6
CONTINUOUS
 10
-8.8540830487
 20
18.5346748018
 11
-29.8715354552
 21
18.6866336021
  0
LINE
  5
5BD
100
AcDbEntity
  8
RACCORDO
100
AcDbLine
 62
7
  6
CONTINUOUS
 10
-8.8540830487
 20
19.0196052043
 11
-19.8715354552
 21
19.2119155514
  0
LINE
  5
5BE
100
AcDbEntity
  8
ASSI
100
AcDbLine
 62
7
  6
CONTINUOUS
 10
-8.8540830487
 20
19.0196052043
 11
-19.8715354552
 21
19.2119155514
  0
LINE
  5
5BF
100
AcDbEntity
  8
DRAFT
100
AcDbLine
 62
7
  6
CONTINUOUS
 10
-29.8715354552
 20
20.4509363825
 11
-19.8715354552
 21
20.2763857333
  0
LINE
  5
5C0
100
AcDbEntity
  8
ASSI
100
AcDbLine
 62
7
  6
CONTINUOUS
 10
-29.8715354552
 20
20.4509363825
 11
-19.8715354552
 21
20.2763857333
  0
LWPOLYLINE
  5
5C1
100
AcDbEntity
  8
RACCORDO
100
AcDbPolyline
 62
250
  6
CONTINUOUS
 90
58
 70
0
 10
-8.8540830487
 20
18.5346748018
 10
-8.8268454197
 20
18.5340760281
 10
-8.7996409777
 20
18.5329526777
 10
-8.7724899249
 20
18.5313055847
 10
-8.7454124239
 20
18.5291359723
 10
-8.7184285826
 20
18.5264454516
 10
-8.6915584392
 20
18.5232360207
 10
-8.6648219478
 20
18.5195100629
 10
-8.638238963
 20
18.5152703451
 10
-8.6118292254
 20
18.5105200158
 10
-8.5856123471
 20
18.5052626025
 10
-8.5596077969
 20
18.4995020095
 10
-8.5338348858
 20
18.4932425145
 10
-8.5083127531
 20
18.4864887661
 10
-8.4830603515
 20
18.4792457794
 10
-8.4580964337
 20
18.4715189332
 10
-8.433439538
 20
18.4633139655
 10
-8.4091079747
 20
18.4546369694
 10
-8.3851198126
 20
18.4454943883
 10
-8.3614928654
 20
18.4358930118
 10
-8.3382446787
 20
18.4258399697
 10
-8.3153925166
 20
18.4153427275
 10
-8.2929533493
 20
18.4044090807
 10
-8.2709438403
 20
18.3930471484
 10
-8.2493803339
 20
18.3812653682
 10
-8.2282788433
 20
18.3690724893
 10
-8.2076550386
 20
18.3564775662
 10
-8.1875242352
 20
18.3434899519
 10
-8.1679013823
 20
18.3301192911
 10
-8.1488010518
 20
18.316375513
 10
-8.130237428
 20
18.3022688237
 10
-8.1122242961
 20
18.2878096989
 10
-8.0947750329
 20
18.2730088762
 10
-8.0779025962
 20
18.2578773466
 10
-8.0616195156
 20
18.2424263469
 10
-8.0459378831
 20
18.226667351
 10
-8.0308693438
 20
18.2106120619
 10
-8.0164250879
 20
18.194272402
 10
-8.0026158416
 20
18.1776605055
 10
-7.9894518598
 20
18.1607887083
 10
-7.9769429181
 20
18.1436695396
 10
-7.9650983057
 20
18.1263157122
 10
-7.9539268186
 20
18.108740113
 10
-7.9434367526
 20
18.0909557939
 10
-7.9336358979
 20
18.0729759615
 10
-7.9245315325
 20
18.0548139678
 10
-7.9161304175
 20
18.0364833001
 10
-7.9084387915
 20
18.0179975706
 10
-7.9014623663
 20
17.9993705071
 10
-7.8952063228
 20
17.9806159421
 10
-7.8896753066
 20
17.9617478029
 10
-7.8848734252
 20
17.942780101
 10
-7.8808042445
 20
17.9237269219
 10
-7.8774707862
 20
17.9046024147
 10
-7.8748755257
 20
17.8854207813
 10
-7.8730203904
 20
17.8661962661
 10
-7.8719067579
 20
17.8469431453
 10
-7.8715354552
 20
17.8276757164
  0
LWPOLYLINE
  5
5C2
100
AcDbEntity
  8
ASSI
100
AcDbPolyline
 62
250
  6
CONTINUOUS
 90
58
 70
0
 10
-8.8540830487
 20
18.5346748018
 10
-8.8268454197
 20
18.5340760281
 10
-8.7996409777
 20
18.5329526777
 10
-8.7724899249
 20
18.5313055847
 10
-8.7454124239
 20
18.5291359723
 10
-8.7184285826
 20
18.5264454516
 10
-8.6915584392
 20
18.5232360207
 10
-8.6648219478
 20
18.5195100629
 10
-8.638238963
 20
18.5152703451
 10
-8.6118292254
 20
18.5105200158
 10
-8.5856123471
 20
18.5052626025
 10
-8.5596077969
 20
18.4995020095
 10
-8.5338348858
 20
18.4932425145
 10
-8.5083127531
 20
18.4864887661
 10
-8.4830603515
 20
18.4792457794
 10
-8.4580964337
 20
18.4715189332
 10
-8.433439538
 20
18.4633139655
 10
-8.4091079747
 20
18.4546369694
 10
-8.3851198126
 20
18.4454943883
 10
-8.3614928654
 20
18.4358930118
 10
-8.3382446787
 20
18.4258399697
 10
-8.3153925166
 20
18.4153427275
 10
-8.2929533493
 20
18.4044090807
 10
-8.2709438403
 20
18.3930471484
 10
-8.2493803339
 20
18.3812653682
 10
-8.2282788433
 20
18.3690724893
 10
-8.2076550386
 20
18.3564775662
 10
-8.1875242352
 20
18.3434899519
 10
-8.1679013823
 20
18.3301192911
 10
-8.1488010518
 20
18.316375513
 10
-8.130237428
 20
18.3022688237
 10
-8.1122242961
 20
18.2878096989
 10
-8.0947750329
 20
18.2730088762
 10
-8.0779025962
 20
18.2578773466
 10
-8.0616195156
 20
18.2424263469
 10
-8.0459378831
 20
18.226667351
 10
-8.0308693438
 20
18.2106120619
 10
-8.0164250879
 20
18.194272402
 10
-8.0026158416
 20
18.1776605055
 10
-7.9894518598
 20
18.1607887083
 10
-7.9769429181
 20
18.1436695396
 10
-7.9650983057
 20
18.1263157122
 10
-7.9539268186
 20
18.108740113
 10
-7.9434367526
 20
18.0909557939
 10
-7.9336358979
 20
18.0729759615
 10
-7.9245315325
 20
18.0548139678
 10
-7.9161304175
 20
18.0364833001
 10
-7.9084387915
 20
18.0179975706
 10
-7.9014623663
 20
17.9993705071
 10
-7.8952063228
 20
17.9806159421
 10
-7.8896753066
 20
17.9617478029
 10
-7.8848734252
 20
17.942780101
 10
-7.8808042445
 20
17.9237269219
 10
-7.8774707862
 20
17.9046024147
 10
-7.8748755257
 20
17.8854207813
 10
-7.8730203904
 20
17.8661962661
 10
-7.8719067579
 20
17.8469431453
 10
-7.8715354552
 20
17.8276757164
  0
LINE
  5
5C3
100
AcDbEntity
  8
ASSI
100
AcDbLine
 62
7
  6
CONTINUOUS
 10
-33.3715354552
 20
21.6009363825
 11
-32.2215354552
 21
21.4597341375
  0
LWPOLYLINE
  5
5C4
100
AcDbEntity
  8
0
100
AcDbPolyline
 62
7
  6
CONTINUOUS
 90
10
 70
0
 43
0.3500000006
 10
-24.3683365402
 20
43.2389732666
 10
-24.2969098892
 20
43.0961154327
 10
-24.2969098892
 20
43.0246887817
 10
-24.4397654572
 20
42.8818309479
 10
-24.5111943741
 20
42.8818309479
 10
-24.582623291
 20
42.9532575989
 10
-24.582623291
 20
43.0246887817
 10
-24.5111943741
 20
43.1675466156
 10
-24.4397654572
 20
43.2389732666
 10
-24.3683365402
 20
43.2389732666
  0
LINE
  5
5C5
100
AcDbEntity
  8
RACCORDO
100
AcDbLine
 62
250
  6
CONTINUOUS
 10
-6.1698078587
 20
0.3467093877
 11
-6.1553003953
 21
0.2446778764
  0
LINE
  5
5C6
100
AcDbEntity
  8
ASSI
100
AcDbLine
 62
250
  6
CONTINUOUS
 10
-6.1698078587
 20
0.3467093877
 11
-6.1553003953
 21
0.2446778764
  0
LINE
  5
5C7
100
AcDbEntity
  8
RACCORDO
100
AcDbLine
 62
250
  6
CONTINUOUS
 10
-6.1553003953
 20
0.2446778764
 11
-6.1506088226
 21
0.2114315662
  0
LINE
  5
5C8
100
AcDbEntity
  8
ASSI
100
AcDbLine
 62
250
  6
CONTINUOUS
 10
-6.1553003953
 20
0.2446778764
 11
-6.1506088226
 21
0.2114315662
  0
LWPOLYLINE
  5
5C9
100
AcDbEntity
  8
RACCORDO
100
AcDbPolyline
 62
250
  6
CONTINUOUS
 90
10
 70
0
 10
-7.9087546083
 20
-18.8169220777
 10
-7.9059721033
 20
-18.8097707758
 10
-7.9032958676
 20
-18.8025989146
 10
-7.900726196
 20
-18.7954072835
 10
-7.8982633712
 20
-18.7881966704
 10
-7.8959076644
 20
-18.7809678727
 10
-7.8936593348
 20
-18.7737216967
 10
-7.8915186299
 20
-18.7664589437
 10
-7.8894857855
 20
-18.7591804092
 10
-7.8875610253
 20
-18.7518868943
  0
LWPOLYLINE
  5
5CA
100
AcDbEntity
  8
ASSI
100
AcDbPolyline
 62
250
  6
CONTINUOUS
 90
10
 70
0
 10
-7.9087546083
 20
-18.8169220777
 10
-7.9059721033
 20
-18.8097707758
 10
-7.9032958676
 20
-18.8025989146
 10
-7.900726196
 20
-18.7954072835
 10
-7.8982633712
 20
-18.7881966704
 10
-7.8959076644
 20
-18.7809678727
 10
-7.8936593348
 20
-18.7737216967
 10
-7.8915186299
 20
-18.7664589437
 10
-7.8894857855
 20
-18.7591804092
 10
-7.8875610253
 20
-18.7518868943
  0
LWPOLYLINE
  5
5CB
100
AcDbEntity
  8
RACCORDO
100
AcDbPolyline
 62
250
  6
CONTINUOUS
 90
58
 70
0
 10
-7.8715354552
 20
-17.0719490164
 10
-7.8185983213
 20
-17.0465813988
 10
-7.7662124096
 20
-17.02018542
 10
-7.7143777199
 20
-16.99276108
 10
-7.6630725683
 20
-16.9642959586
 10
-7.6123186388
 20
-16.934802476
 10
-7.5621809833
 20
-16.9043178926
 10
-7.5126619481
 20
-16.8728417858
 10
-7.463759187
 20
-16.8403745782
 10
-7.4155307131
 20
-16.8069547972
 10
-7.3679773443
 20
-16.772581328
 10
-7.3210982627
 20
-16.7372552855
 10
-7.2749490278
 20
-16.7010185414
 10
-7.2295304791
 20
-16.6638699952
 10
-7.1848417771
 20
-16.6258107474
 10
-7.1409359625
 20
-16.5868859704
 10
-7.0978139688
 20
-16.5470946383
 10
-7.0554748625
 20
-16.5064377771
 10
-7.0139688838
 20
-16.464963637
 10
-6.9732970278
 20
-16.4226712537
 10
-6.9334582993
 20
-16.3795615915
 10
-6.8944999535
 20
-16.3356857933
 10
-6.8564230363
 20
-16.2910429525
 10
-6.8192265017
 20
-16.2456339757
 10
-6.7829544665
 20
-16.1995127256
 10
-6.7476080241
 20
-16.1526783526
 10
-6.713186081
 20
-16.1051317064
 10
-6.6797294747
 20
-16.0569291991
 10
-6.6472393512
 20
-16.0080700529
 10
-6.6157145643
 20
-15.9585550456
 10
-6.5851925125
 20
-15.9084429235
 10
-6.5556743862
 20
-15.8577329781
 10
-6.5271589949
 20
-15.8064259179
 10
-6.4996801659
 20
-15.7545826135
 10
-6.4732391302
 20
-15.7022024305
 10
-6.4478346566
 20
-15.6492860034
 10
-6.4234968796
 20
-15.5958961067
 10
-6.4002270643
 20
-15.5420321774
 10
-6.3780239455
 20
-15.4876947785
 10
-6.3569138618
 20
-15.432948374
 10
-6.3368981107
 20
-15.3777924789
 10
-6.3179753948
 20
-15.322227578
 10
-6.3001681608
 20
-15.2663195902
 10
-6.2834777325
 20
-15.2100681081
 10
-6.2679027863
 20
-15.153473539
 10
-6.2534617976
 20
-15.0966030231
 10
-6.2401561122
 20
-15.0394562332
 10
-6.2279843845
 20
-14.9820334966
 10
-6.2169610529
 20
-14.9244029352
 10
-6.2070874802
 20
-14.8665643026
 10
-6.1983623036
 20
-14.8085178454
 10
-6.1907958734
 20
-14.7503324248
 10
-6.1843895646
 20
-14.6920078759
 10
-6.1791420021
 20
-14.6335443636
 10
-6.1750594107
 20
-14.5750112442
 10
-6.1721438652
 20
-14.5164316362
 10
-6.1703932908
 20
-14.4577824211
 10
-6.1698076874
 20
-14.3990635988
  0
LWPOLYLINE
  5
5CC
100
AcDbEntity
  8
ASSI
100
AcDbPolyline
 62
250
  6
CONTINUOUS
 90
58
 70
0
 10
-7.8715354552
 20
-17.0719490164
 10
-7.8185983213
 20
-17.0465813988
 10
-7.7662124096
 20
-17.02018542
 10
-7.7143777199
 20
-16.99276108
 10
-7.6630725683
 20
-16.9642959586
 10
-7.6123186388
 20
-16.934802476
 10
-7.5621809833
 20
-16.9043178926
 10
-7.5126619481
 20
-16.8728417858
 10
-7.463759187
 20
-16.8403745782
 10
-7.4155307131
 20
-16.8069547972
 10
-7.3679773443
 20
-16.772581328
 10
-7.3210982627
 20
-16.7372552855
 10
-7.2749490278
 20
-16.7010185414
 10
-7.2295304791
 20
-16.6638699952
 10
-7.1848417771
 20
-16.6258107474
 10
-7.1409359625
 20
-16.5868859704
 10
-7.0978139688
 20
-16.5470946383
 10
-7.0554748625
 20
-16.5064377771
 10
-7.0139688838
 20
-16.464963637
 10
-6.9732970278
 20
-16.4226712537
 10
-6.9334582993
 20
-16.3795615915
 10
-6.8944999535
 20
-16.3356857933
 10
-6.8564230363
 20
-16.2910429525
 10
-6.8192265017
 20
-16.2456339757
 10
-6.7829544665
 20
-16.1995127256
 10
-6.7476080241
 20
-16.1526783526
 10
-6.713186081
 20
-16.1051317064
 10
-6.6797294747
 20
-16.0569291991
 10
-6.6472393512
 20
-16.0080700529
 10
-6.6157145643
 20
-15.9585550456
 10
-6.5851925125
 20
-15.9084429235
 10
-6.5556743862
 20
-15.8577329781
 10
-6.5271589949
 20
-15.8064259179
 10
-6.4996801659
 20
-15.7545826135
 10
-6.4732391302
 20
-15.7022024305
 10
-6.4478346566
 20
-15.6492860034
 10
-6.4234968796
 20
-15.5958961067
 10
-6.4002270643
 20
-15.5420321774
 10
-6.3780239455
 20
-15.4876947785
 10
-6.3569138618
 20
-15.432948374
 10
-6.3368981107
 20
-15.3777924789
 10
-6.3179753948
 20
-15.322227578
 10
-6.3001681608
 20
-15.2663195902
 10
-6.2834777325
 20
-15.2100681081
 10
-6.2679027863
 20
-15.153473539
 10
-6.2534617976
 20
-15.0966030231
 10
-6.2401561122
 20
-15.0394562332
 10
-6.2279843845
 20
-14.9820334966
 10
-6.2169610529
 20
-14.9244029352
 10
-6.2070874802
 20
-14.8665643026
 10
-6.1983623036
 20
-14.8085178454
 10
-6.1907958734
 20
-14.7503324248
 10
-6.1843895646
 20
-14.6920078759
 10
-6.1791420021
 20
-14.6335443636
 10
-6.1750594107
 20
-14.5750112442
 10
-6.1721438652
 20
-14.5164316362
 10
-6.1703932908
 20
-14.4577824211
 10
-6.1698076874
 20
-14.3990635988
  0
LINE
  5
5CD
100
AcDbEntity
  8
RACCORDO
100
AcDbLine
 62
7
  6
CONTINUOUS
 10
-37.2628991452
 20
18.8318943313
 11
-36.6471892162
 21
18.9911277458
  0
LINE
  5
5CE
100
AcDbEntity
  8
RACCORDO
100
AcDbLine
 62
250
  6
CONTINUOUS
 10
-37.5066563917
 20
20.817137791
 11
-43.1937747504
 21
20.068414455
  0
LINE
  5
5CF
100
AcDbEntity
  8
DRAFT
100
AcDbLine
 62
7
  6
CONTINUOUS
 10
-36.8139791865
 20
20.0960265619
 11
-37.4091423573
 21
20.0229497133
  0
LINE
  5
5D0
100
AcDbEntity
  8
0
100
AcDbLine
 62
7
  6
CONTINUOUS
 10
-36.0543794076
 20
21.2975544952
 11
-36.5506524834
 21
21.2366198235
  0
LINE
  5
5D1
100
AcDbEntity
  8
RACCORDO
100
AcDbLine
 62
250
  6
CONTINUOUS
 10
-29.8715354552
 20
20.8766266224
 11
-20.1662997332
 21
21.046032142
  0
LINE
  5
5D2
100
AcDbEntity
  8
RACCORDO
100
AcDbLine
 62
250
  6
CONTINUOUS
 10
-29.8715354552
 20
21.0888500466
 11
-19.95570178
 21
21.2619315672
  0
LINE
  5
5D3
100
AcDbEntity
  8
RACCORDO
100
AcDbLine
 62
250
  6
CONTINUOUS
 10
-30.8715354552
 20
21.6509230551
 11
-33.3715354552
 21
21.6291058856
  0
LINE
  5
5D4
100
AcDbEntity
  8
RACCORDO
100
AcDbLine
 62
7
  6
CONTINUOUS
 10
-30.8715354552
 20
22.0009363825
 11
-33.3715354552
 21
21.9791192131
  0
LINE
  5
5D5
100
AcDbEntity
  8
RACCORDO
100
AcDbLine
 62
250
  6
CONTINUOUS
 10
-29.8715354552
 20
20.8009363825
 11
-20.1662997332
 21
20.8009363825
  0
LINE
  5
5D6
100
AcDbEntity
  8
RACCORDO
100
AcDbLine
 62
250
  6
CONTINUOUS
 10
-29.8715354552
 20
21.6421961873
 11
-30.8715354552
 21
21.6509230551
  0
LINE
  5
5D7
100
AcDbEntity
  8
RACCORDO
100
AcDbLine
 62
250
  6
CONTINUOUS
 10
-29.8715354552
 20
21.9043301256
 11
-20.4536768939
 21
21.822141719
  0
LINE
  5
5D8
100
AcDbEntity
  8
RACCORDO
100
AcDbLine
 62
7
  6
CONTINUOUS
 10
-20.8628089197
 20
21.9135915493
 11
-30.8715354552
 21
22.0009363825
  0
LWPOLYLINE
  5
5D9
100
AcDbEntity
  8
RACCORDO
100
AcDbPolyline
 62
250
  6
CONTINUOUS
 90
22
 70
0
 10
-8.2060293595
 20
13.6917671071
 10
-8.2136789511
 20
13.6989121913
 10
-8.2212860477
 20
13.7063303073
 10
-8.2288393373
 20
13.7140104242
 10
-8.2363275878
 20
13.7219411213
 10
-8.2437396639
 20
13.7301106052
 10
-8.2510645434
 20
13.7385067277
 10
-8.258291334
 20
13.7471170033
 10
-8.2654092892
 20
13.7559286283
 10
-8.2724078242
 20
13.7649284992
 10
-8.2792765318
 20
13.774103233
 10
-8.2860051981
 20
13.7834391865
 10
-8.2925838173
 20
13.7929224767
 10
-8.2990026065
 20
13.8025390014
 10
-8.3052520209
 20
13.8122744607
 10
-8.3113227672
 20
13.8221143774
 10
-8.317205818
 20
13.8320441191
 10
-8.322892425
 20
13.8420489199
 10
-8.3283741319
 20
13.8521139023
 10
-8.3336427871
 20
13.8622240992
 10
-8.3386905561
 20
13.8723644763
 10
-8.3435099324
 20
13.8825199544
  0
LWPOLYLINE
  5
5DA
100
AcDbEntity
  8
ASSI
100
AcDbPolyline
 62
250
  6
CONTINUOUS
 90
22
 70
0
 10
-8.2060293595
 20
13.6917671071
 10
-8.2136789511
 20
13.6989121913
 10
-8.2212860477
 20
13.7063303073
 10
-8.2288393373
 20
13.7140104242
 10
-8.2363275878
 20
13.7219411213
 10
-8.2437396639
 20
13.7301106052
 10
-8.2510645434
 20
13.7385067277
 10
-8.258291334
 20
13.7471170033
 10
-8.2654092892
 20
13.7559286283
 10
-8.2724078242
 20
13.7649284992
 10
-8.2792765318
 20
13.774103233
 10
-8.2860051981
 20
13.7834391865
 10
-8.2925838173
 20
13.7929224767
 10
-8.2990026065
 20
13.8025390014
 10
-8.3052520209
 20
13.8122744607
 10
-8.3113227672
 20
13.8221143774
 10
-8.317205818
 20
13.8320441191
 10
-8.322892425
 20
13.8420489199
 10
-8.3283741319
 20
13.8521139023
 10
-8.3336427871
 20
13.8622240992
 10
-8.3386905561
 20
13.8723644763
 10
-8.3435099324
 20
13.8825199544
  0
LWPOLYLINE
  5
5DB
100
AcDbEntity
  8
RACCORDO
100
AcDbPolyline
 62
7
  6
CONTINUOUS
 90
52
 70
0
 10
-5.8719863895
 20
12.9177123574
 10
-5.8725830669
 20
12.9199324743
 10
-5.8734277386
 20
12.9221413736
 10
-5.8745202796
 20
12.9243390552
 10
-5.8758603328
 20
12.926527247
 10
-5.8774473726
 20
12.928704221
 10
-5.8792807456
 20
12.930864794
 10
-5.8813595318
 20
12.9330089301
 10
-5.8836825912
 20
12.9351366651
 10
-5.8862486925
 20
12.9372429226
 10
-5.8890563198
 20
12.9393276612
 10
-5.892103724
 20
12.9413909223
 10
-5.8953890599
 20
12.9434277547
 10
-5.8989102007
 20
12.9454381062
 10
-5.9026647834
 20
12.947422029
 10
-5.9066503268
 20
12.9493747281
 10
-5.9108640885
 20
12.9512961406
 10
-5.9153030884
 20
12.9531863294
 10
-5.9199641965
 20
12.9550406881
 10
-5.9248440565
 20
12.9568591436
 10
-5.9299390741
 20
12.958641769
 10
-5.9352454605
 20
12.9603841774
 10
-5.9407592492
 20
12.9620862841
 10
-5.9464762446
 20
12.9637481737
 10
-5.9523920098
 20
12.9653657131
 10
-5.9585019826
 20
12.9669388066
 10
-5.9648013847
 20
12.9684675499
 10
-5.9712851553
 20
12.9699480965
 10
-5.9779481587
 20
12.9713803408
 10
-5.9847850611
 20
12.9727643884
 10
-5.9917902157
 20
12.9740967107
 10
-5.9989579435
 20
12.9753771926
 10
-6.0062823899
 20
12.9766059492
 10
-6.0137573734
 20
12.9777797973
 10
-6.0213767084
 20
12.9788986135
 10
-6.0291340625
 20
12.979962521
 10
-6.0370227865
 20
12.9809687066
 10
-6.0450362284
 20
12.98191704
 10
-6.053167631
 20
12.9828076514
 10
-6.0614099675
 20
12.9836381176
 10
-6.0697561792
 20
12.9844083046
 10
-6.0781991299
 20
12.9851183464
 10
-6.0867314893
 20
12.9857662223
 10
-6.0953458401
 20
12.9863517953
 10
-6.1040347306
 20
12.9868752025
 10
-6.1127906249
 20
12.9873348341
 10
-6.1216058074
 20
12.9877305525
 10
-6.1304725675
 20
12.9880624954
 10
-6.1393832542
 20
12.9883294663
 10
-6.1483300272
 20
12.9885310663
 10
-6.1573048612
 20
12.9886676942
 10
-6.1662997332
 20
12.9887393501
  0
LWPOLYLINE
  5
5DC
100
AcDbEntity
  8
ASSI
100
AcDbPolyline
 62
7
  6
CONTINUOUS
 90
52
 70
0
 10
-5.8719863895
 20
12.9177123574
 10
-5.8725830669
 20
12.9199324743
 10
-5.8734277386
 20
12.9221413736
 10
-5.8745202796
 20
12.9243390552
 10
-5.8758603328
 20
12.926527247
 10
-5.8774473726
 20
12.928704221
 10
-5.8792807456
 20
12.930864794
 10
-5.8813595318
 20
12.9330089301
 10
-5.8836825912
 20
12.9351366651
 10
-5.8862486925
 20
12.9372429226
 10
-5.8890563198
 20
12.9393276612
 10
-5.892103724
 20
12.9413909223
 10
-5.8953890599
 20
12.9434277547
 10
-5.8989102007
 20
12.9454381062
 10
-5.9026647834
 20
12.947422029
 10
-5.9066503268
 20
12.9493747281
 10
-5.9108640885
 20
12.9512961406
 10
-5.9153030884
 20
12.9531863294
 10
-5.9199641965
 20
12.9550406881
 10
-5.9248440565
 20
12.9568591436
 10
-5.9299390741
 20
12.958641769
 10
-5.9352454605
 20
12.9603841774
 10
-5.9407592492
 20
12.9620862841
 10
-5.9464762446
 20
12.9637481737
 10
-5.9523920098
 20
12.9653657131
 10
-5.9585019826
 20
12.9669388066
 10
-5.9648013847
 20
12.9684675499
 10
-5.9712851553
 20
12.9699480965
 10
-5.9779481587
 20
12.9713803408
 10
-5.9847850611
 20
12.9727643884
 10
-5.9917902157
 20
12.9740967107
 10
-5.9989579435
 20
12.9753771926
 10
-6.0062823899
 20
12.9766059492
 10
-6.0137573734
 20
12.9777797973
 10
-6.0213767084
 20
12.9788986135
 10
-6.0291340625
 20
12.979962521
 10
-6.0370227865
 20
12.9809687066
 10
-6.0450362284
 20
12.98191704
 10
-6.053167631
 20
12.9828076514
 10
-6.0614099675
 20
12.9836381176
 10
-6.0697561792
 20
12.9844083046
 10
-6.0781991299
 20
12.9851183464
 10
-6.0867314893
 20
12.9857662223
 10
-6.0953458401
 20
12.9863517953
 10
-6.1040347306
 20
12.9868752025
 10
-6.1127906249
 20
12.9873348341
 10
-6.1216058074
 20
12.9877305525
 10
-6.1304725675
 20
12.9880624954
 10
-6.1393832542
 20
12.9883294663
 10
-6.1483300272
 20
12.9885310663
 10
-6.1573048612
 20
12.9886676942
 10
-6.1662997332
 20
12.9887393501
  0
LWPOLYLINE
  5
5DD
100
AcDbEntity
  8
RACCORDO
100
AcDbPolyline
 62
250
  6
CONTINUOUS
 90
22
 70
0
 10
-43.1937747504
 20
20.068414455
 10
-43.243049294
 20
20.0601094363
 10
-43.2912021066
 20
20.0484657182
 10
-43.3382331881
 20
20.0334833007
 10
-43.3843900335
 20
20.0150511299
 10
-43.4294251479
 20
19.9932802597
 10
-43.4725960463
 20
19.9685038519
 10
-43.5138567434
 20
19.9406760255
 10
-43.5532532247
 20
19.9098426615
 10
-43.5901809615
 20
19.8764745651
 10
-43.6245964984
 20
19.8405391922
 10
-43.6565432908
 20
19.8020690869
 10
-43.6855471767
 20
19.7616326863
 10
-43.7115691098
 20
19.719190286
 10
-43.7346481365
 20
19.6747815904
 10
-43.7544272335
 20
19.6290941499
 10
-43.7708506329
 20
19.582095993
 10
-43.7839741027
 20
19.5338190913
 10
-43.7936079237
 20
19.4850469097
 10
-43.7996888562
 20
19.4360406032
 10
-43.8022801398
 20
19.3865390168
 10
-43.8013817746
 20
19.3365421504
  0
LINE
  5
5DE
100
AcDbEntity
  8
RACCORDO
100
AcDbLine
 62
7
  6
CONTINUOUS
 10
-37.6041333067
 20
21.6110235559
 11
-43.2774102381
 21
20.8641224784
  0
LINE
  5
5DF
100
AcDbEntity
  8
RACCORDO
100
AcDbLine
 62
7
  6
CONTINUOUS
 10
-33.122989888
 20
23.9878378038
 11
-30.8715354552
 21
24.0009363825
  0
LINE
  5
5E0
100
AcDbEntity
  8
RACCORDO
100
AcDbLine
 62
7
  6
CONTINUOUS
 10
-29.8766317773
 20
23.3951482023
 11
-22.8715354552
 21
23.354393744
  0
LINE
  5
5E1
100
AcDbEntity
  8
RACCORDO
100
AcDbLine
 62
7
  6
CONTINUOUS
 10
-30.8715354552
 20
24.0009363825
 11
-30.1200810223
 21
23.9965645485
  0
LWPOLYLINE
  5
5E2
100
AcDbEntity
  8
0
100
AcDbPolyline
 62
7
  6
CONTINUOUS
 90
7
 70
0
 43
0.3500000006
 10
-18.7289042473
 20
32.7536351624
 10
-20.2289035721
 20
32.7536351624
 10
-18.7289042473
 20
34.8964936066
 10
-18.7289042473
 20
35.3250625763
 10
-19.15747435
 20
35.7536360779
 10
-19.8003323364
 20
35.7536360779
 10
-20.2289035721
 20
35.1107780914
  0
LWPOLYLINE
  5
5E3
100
AcDbEntity
  8
0
100
AcDbPolyline
 62
7
  6
CONTINUOUS
 90
3
 70
0
 43
0.3500000006
 10
-16.3717613182
 20
33.3964931488
 10
-17.871760643
 20
33.3964931488
 10
-17.2289037895
 20
35.7536360779
  0
LWPOLYLINE
  5
5E4
100
AcDbEntity
  8
0
100
AcDbPolyline
 62
7
  6
CONTINUOUS
 90
6
 70
0
 43
0.3500000006
 10
-29.511193634
 20
42.738973114
 10
-28.4397666779
 20
42.738973114
 10
-28.2254799271
 20
42.9532575989
 10
-28.2254799271
 20
44.0246890869
 10
-28.6540511627
 20
44.4532580566
 10
-29.0826223984
 20
44.4532580566
  0
LWPOLYLINE
  5
5E5
100
AcDbEntity
  8
0
100
AcDbPolyline
 62
7
  6
CONTINUOUS
 90
13
 70
0
 43
0.3500000006
 10
-26.9397662201
 20
44.4532580566
 10
-27.2254796219
 20
44.6675425415
 10
-27.2254796219
 20
45.310400528
 10
-26.9397662201
 20
45.7389740295
 10
-26.2969082336
 20
45.7389740295
 10
-26.0111948318
 20
45.310400528
 10
-26.0111948318
 20
44.6675425415
 10
-26.2969082336
 20
44.4532580566
 10
-25.868336998
 20
44.0246890869
 10
-25.868336998
 20
43.1675466156
 10
-26.2969082336
 20
42.738973114
 10
-26.9397662201
 20
42.738973114
 10
-27.3683374557
 20
43.1675466156
  0
ARC
  5
5E6
100
AcDbEntity
  8
RACCORDO
100
AcDbCircle
 62
7
  6
CONTINUOUS
 10
-9.1215354552
 20
-14.3990636175
 40
3.25
100
AcDbArc
 50
292.6198649666
 51
67.3801346696
  0
ARC
  5
5E7
100
AcDbEntity
  8
ASSI
100
AcDbCircle
 62
7
  6
CONTINUOUS
 10
-9.1215354552
 20
-14.3990636175
 40
3.25
100
AcDbArc
 50
292.6198649666
 51
67.3801346696
  0
ARC
  5
5E8
100
AcDbEntity
  8
RACCORDO
100
AcDbCircle
 62
7
  6
CONTINUOUS
 10
-38.1336959082
 20
-20.9206604736
 40
1.5
100
AcDbArc
 50
190.8995301032
 51
276.5
  0
ARC
  5
5E9
100
AcDbEntity
  8
RACCORDO
100
AcDbCircle
 62
7
  6
CONTINUOUS
 10
-8.8715354552
 20
-18.8178847441
 40
1.0
100
AcDbArc
 50
271.0
 51
360.0
  0
ARC
  5
5EA
100
AcDbEntity
  8
ASSI
100
AcDbCircle
 62
7
  6
CONTINUOUS
 10
-8.8715354552
 20
-18.8178847441
 40
1.0
100
AcDbArc
 50
271.0
 51
360.0
  0
ARC
  5
5EB
100
AcDbEntity
  8
RACCORDO
100
AcDbCircle
 62
7
  6
CONTINUOUS
 10
-20.8715354552
 20
-21.7117568612
 40
1.0
100
AcDbArc
 50
270.5
 51
360.0
  0
ARC
  5
5EC
100
AcDbEntity
  8
RACCORDO
100
AcDbCircle
 62
7
  6
CONTINUOUS
 10
-7.5715354552
 20
-2.3788181433
 40
0.3
100
AcDbArc
 50
94.0
 51
180.0
  0
ARC
  5
5ED
100
AcDbEntity
  8
RACCORDO
100
AcDbCircle
 62
7
  6
CONTINUOUS
 10
-7.5715354552
 20
4.3806909084
 40
0.3
100
AcDbArc
 50
180.0
 51
266.0
  0
ARC
  5
5EE
100
AcDbEntity
  8
RACCORDO
100
AcDbCircle
 62
7
  6
CONTINUOUS
 10
-6.1715354552
 20
3.6813282328
 40
0.3
100
AcDbArc
 50
0.0
 51
86.0
  0
ARC
  5
5EF
100
AcDbEntity
  8
RACCORDO
100
AcDbCircle
 62
7
  6
CONTINUOUS
 10
-6.1715354552
 20
-1.6794554677
 40
0.3
100
AcDbArc
 50
274.0
 51
360.0
  0
ARC
  5
5F0
100
AcDbEntity
  8
ASSI
100
AcDbCircle
 62
7
  6
CONTINUOUS
 10
-7.5715354552
 20
-2.3788181433
 40
0.3
100
AcDbArc
 50
94.0
 51
180.0
  0
ARC
  5
5F1
100
AcDbEntity
  8
ASSI
100
AcDbCircle
 62
7
  6
CONTINUOUS
 10
-7.5715354552
 20
4.3806909084
 40
0.3
100
AcDbArc
 50
180.0
 51
266.0
  0
ARC
  5
5F2
100
AcDbEntity
  8
ASSI
100
AcDbCircle
 62
7
  6
CONTINUOUS
 10
-6.1715354552
 20
3.6813282328
 40
0.3
100
AcDbArc
 50
0.0
 51
86.0
  0
ARC
  5
5F3
100
AcDbEntity
  8
ASSI
100
AcDbCircle
 62
7
  6
CONTINUOUS
 10
-6.1715354552
 20
-1.6794554677
 40
0.3
100
AcDbArc
 50
274.0
 51
360.0
  0
ARC
  5
5F4
100
AcDbEntity
  8
RACCORDO
100
AcDbCircle
 62
7
  6
CONTINUOUS
 10
-33.1215354552
 20
-24.2434011848
 40
0.25
100
AcDbArc
 50
120.0
 51
180.0
  0
ARC
  5
5F5
100
AcDbEntity
  8
RACCORDO
100
AcDbCircle
 62
7
  6
CONTINUOUS
 10
-33.1215354552
 20
-24.5359692695
 40
0.25
100
AcDbArc
 50
180.0
 51
269.6666666667
  0
ARC
  5
5F6
100
AcDbEntity
  8
RACCORDO
100
AcDbCircle
 62
7
  6
CONTINUOUS
 10
-30.1215354552
 20
-24.5446960142
 40
0.25
100
AcDbArc
 50
270.3333333333
 51
360.0
  0
ARC
  5
5F7
100
AcDbEntity
  8
RACCORDO
100
AcDbCircle
 62
7
  6
CONTINUOUS
 10
-30.1215354552
 20
-24.2434011848
 40
0.25
100
AcDbArc
 50
0.0
 51
60.0
  0
ARC
  5
5F8
100
AcDbEntity
  8
RACCORDO
100
AcDbCircle
 62
7
  6
CONTINUOUS
 10
-30.6215354552
 20
-23.377375781
 40
0.25
100
AcDbArc
 50
180.0
 51
240.0
  0
ARC
  5
5F9
100
AcDbEntity
  8
RACCORDO
100
AcDbCircle
 62
7
  6
CONTINUOUS
 10
-43.0816209524
 20
19.376955186
 40
1.5
100
AcDbArc
 50
97.5
 51
183.1004698968
  0
ARC
  5
5FA
100
AcDbEntity
  8
RACCORDO
100
AcDbCircle
 62
7
  6
CONTINUOUS
 10
-36.8975692203
 20
19.9592753862
 40
1.0
100
AcDbArc
 50
284.5
 51
7.0
  0
ARC
  5
5FB
100
AcDbEntity
  8
RACCORDO
100
AcDbCircle
 62
7
  6
CONTINUOUS
 10
-8.8715354552
 20
18.0197575091
 40
1.0
100
AcDbArc
 50
0.0
 51
89.0
  0
ARC
  5
5FC
100
AcDbEntity
  8
ASSI
100
AcDbCircle
 62
7
  6
CONTINUOUS
 10
-8.8715354552
 20
18.0197575091
 40
1.0
100
AcDbArc
 50
0.0
 51
89.0
  0
ARC
  5
5FD
100
AcDbEntity
  8
RACCORDO
100
AcDbCircle
 62
7
  6
CONTINUOUS
 10
-20.8715354552
 20
20.9136296262
 40
1.0
100
AcDbArc
 50
0.0
 51
89.5
  0
ARC
  5
5FE
100
AcDbEntity
  8
RACCORDO
100
AcDbCircle
 62
7
  6
CONTINUOUS
 10
-7.5715354552
 20
15.0806909084
 40
0.3
100
AcDbArc
 50
180.0
 51
266.0
  0
ARC
  5
5FF
100
AcDbEntity
  8
RACCORDO
100
AcDbCircle
 62
7
  6
CONTINUOUS
 10
-7.5715354552
 20
8.3211818567
 40
0.3
100
AcDbArc
 50
94.0
 51
180.0
  0
ARC
  5
600
100
AcDbEntity
  8
RACCORDO
100
AcDbCircle
 62
7
  6
CONTINUOUS
 10
-6.1715354552
 20
9.0205445323
 40
0.3
100
AcDbArc
 50
274.0
 51
360.0
  0
ARC
  5
601
100
AcDbEntity
  8
RACCORDO
100
AcDbCircle
 62
7
  6
CONTINUOUS
 10
-6.1715354552
 20
14.3813282328
 40
0.3
100
AcDbArc
 50
0.0
 51
86.0
  0
ARC
  5
602
100
AcDbEntity
  8
ASSI
100
AcDbCircle
 62
7
  6
CONTINUOUS
 10
-7.5715354552
 20
15.0806909084
 40
0.3
100
AcDbArc
 50
180.0
 51
266.0
  0
ARC
  5
603
100
AcDbEntity
  8
ASSI
100
AcDbCircle
 62
7
  6
CONTINUOUS
 10
-7.5715354552
 20
8.3211818567
 40
0.3
100
AcDbArc
 50
94.0
 51
180.0
  0
ARC
  5
604
100
AcDbEntity
  8
ASSI
100
AcDbCircle
 62
7
  6
CONTINUOUS
 10
-6.1715354552
 20
9.0205445323
 40
0.3
100
AcDbArc
 50
274.0
 51
360.0
  0
ARC
  5
605
100
AcDbEntity
  8
ASSI
100
AcDbCircle
 62
7
  6
CONTINUOUS
 10
-6.1715354552
 20
14.3813282328
 40
0.3
100
AcDbArc
 50
0.0
 51
86.0
  0
ARC
  5
606
100
AcDbEntity
  8
RACCORDO
100
AcDbCircle
 62
7
  6
CONTINUOUS
 10
-33.1215354552
 20
23.4452739498
 40
0.25
100
AcDbArc
 50
180.0
 51
240.0
  0
ARC
  5
607
100
AcDbEntity
  8
RACCORDO
100
AcDbCircle
 62
7
  6
CONTINUOUS
 10
-33.1215354552
 20
23.7378420346
 40
0.25
100
AcDbArc
 50
90.3333333333
 51
180.0
  0
ARC
  5
608
100
AcDbEntity
  8
RACCORDO
100
AcDbCircle
 62
7
  6
CONTINUOUS
 10
-30.1215354552
 20
23.7465687793
 40
0.25
100
AcDbArc
 50
0.0
 51
89.6666666667
  0
ARC
  5
609
100
AcDbEntity
  8
RACCORDO
100
AcDbCircle
 62
7
  6
CONTINUOUS
 10
-30.1215354552
 20
23.4452739498
 40
0.25
100
AcDbArc
 50
300.0
 51
360.0
  0
ARC
  5
60A
100
AcDbEntity
  8
RACCORDO
100
AcDbCircle
 62
7
  6
CONTINUOUS
 10
-30.6215354552
 20
22.579248546
 40
0.25
100
AcDbArc
 50
120.0
 51
180.0
  0
ARC
  5
60B
100
AcDbEntity
  8
RACCORDO
100
AcDbCircle
 62
7
  6
CONTINUOUS
 10
254.9814427411
 20
35.5219253512
 40
300.0
100
AcDbArc
 50
183.1004698968
 51
190.8995301032
  0
ELLIPSE
  5
60C
100
AcDbEntity
  8
RACCORDO
100
AcDbEllipse
 62
7
  6
CONTINUOUS
 10
7.7900811363
 20
-20.9691761138
 30
0.0
 11
0.8001895183
 21
0.0117351306
 31
0.0
 40
0.9922404883
 41
3.1270420381
 42
3.3525256408
  0
ELLIPSE
  5
60D
100
AcDbEntity
  8
RACCORDO
100
AcDbEllipse
 62
7
  6
CONTINUOUS
 10
7.7900811363
 20
20.816956399
 30
0.0
 11
0.8001895183
 21
-0.0117351306
 31
0.0
 40
0.9922404883
 41
1.5855753763
 42
3.1561432691
  0
ELLIPSE
  5
60E
100
AcDbEntity
  8
RACCORDO
100
AcDbEllipse
 62
7
  6
CONTINUOUS
 10
28.3895326683
 20
20.816956399
 30
0.0
 11
0.8001895183
 21
0.0117351306
 31
0.0
 40
0.9922404883
 41
-0.0145506155
 42
1.5560172772
  0
ELLIPSE
  5
60F
100
AcDbEntity
  8
RACCORDO
100
AcDbEllipse
 62
7
  6
CONTINUOUS
 10
28.3895326683
 20
-20.9691761138
 30
0.0
 11
0.8001895183
 21
-0.0117351306
 31
0.0
 40
0.9922404883
 41
-0.210932951
 42
0.0145506155
  0
ELLIPSE
  5
610
100
AcDbEntity
  8
RACCORDO
100
AcDbEllipse
 62
7
  6
CONTINUOUS
 10
7.2898069023
 20
-22.4272331206
 30
0.0
 11
0.0
 21
0.3500133274
 31
0.0
 40
0.9999619231
 41
7.853981634
 42
9.4247779608
  0
ELLIPSE
  5
611
100
AcDbEntity
  8
RACCORDO
100
AcDbEllipse
 62
7
  6
CONTINUOUS
 10
28.8898069023
 20
21.6291058856
 30
0.0
 11
-0.0
 21
-0.3500133274
 31
0.0
 40
0.9999619231
 41
7.853981634
 42
9.4247779608
  0
ELLIPSE
  5
612
100
AcDbEntity
  8
RACCORDO
100
AcDbEllipse
 62
7
  6
CONTINUOUS
 10
7.2898069023
 20
21.6291058856
 30
0.0
 11
0.0
 21
0.3500133274
 31
0.0
 40
0.9999619231
 41
-0.0
 42
1.5707963268
  0
ELLIPSE
  5
613
100
AcDbEntity
  8
RACCORDO
100
AcDbEllipse
 62
7
  6
CONTINUOUS
 10
28.8898069023
 20
-22.4272331206
 30
0.0
 11
-0.0
 21
-0.3500133274
 31
0.0
 40
0.9999619231
 41
-0.0
 42
1.5707963268
  0
ELLIPSE
  5
614
100
AcDbEntity
  8
RACCORDO
100
AcDbEllipse
 62
7
  6
CONTINUOUS
 10
28.6767167852
 20
-24.2434011848
 30
0.0
 11
0.0
 21
0.25
 31
0.0
 40
0.0058178298
 41
0.5235987756
 42
1.5707963268
  0
ELLIPSE
  5
615
100
AcDbEntity
  8
RACCORDO
100
AcDbEllipse
 62
7
  6
CONTINUOUS
 10
26.4028970194
 20
-24.2434011848
 30
0.0
 11
0.0
 21
0.25
 31
0.0
 40
0.0058178298
 41
-1.5707963268
 42
-0.5235987756
  0
ELLIPSE
  5
616
100
AcDbEntity
  8
RACCORDO
100
AcDbEllipse
 62
7
  6
CONTINUOUS
 10
26.4028970194
 20
-24.5359692695
 30
0.0
 11
0.0
 21
0.25
 31
0.0
 40
0.0058178298
 41
-3.1357748894
 42
-1.5707963268
  0
ELLIPSE
  5
617
100
AcDbEntity
  8
RACCORDO
100
AcDbEllipse
 62
7
  6
CONTINUOUS
 10
28.6767167852
 20
-24.5359692695
 30
0.0
 11
0.0
 21
0.25
 31
0.0
 40
0.0058178298
 41
-4.7123889804
 42
-3.1474104178
  0
ELLIPSE
  5
618
100
AcDbEntity
  8
RACCORDO
100
AcDbEllipse
 62
7
  6
CONTINUOUS
 10
9.7767167852
 20
-24.2434011848
 30
0.0
 11
-0.0
 21
0.25
 31
0.0
 40
0.0058178298
 41
0.5235987756
 42
1.5707963268
  0
ELLIPSE
  5
619
100
AcDbEntity
  8
RACCORDO
100
AcDbEllipse
 62
7
  6
CONTINUOUS
 10
7.5028970194
 20
-24.2434011848
 30
0.0
 11
0.0
 21
0.25
 31
0.0
 40
0.0058178298
 41
-1.5707963268
 42
-0.5235987756
  0
ELLIPSE
  5
61A
100
AcDbEntity
  8
RACCORDO
100
AcDbEllipse
 62
7
  6
CONTINUOUS
 10
7.5028970194
 20
-24.5359692695
 30
0.0
 11
-0.0
 21
0.25
 31
0.0
 40
0.0058178298
 41
-3.1357748894
 42
-1.5707963268
  0
ELLIPSE
  5
61B
100
AcDbEntity
  8
RACCORDO
100
AcDbEllipse
 62
7
  6
CONTINUOUS
 10
9.7767167852
 20
-24.5359692695
 30
0.0
 11
0.0
 21
0.25
 31
0.0
 40
0.0058178298
 41
-4.7123889804
 42
-3.1474104178
  0
ELLIPSE
  5
61C
100
AcDbEntity
  8
RACCORDO
100
AcDbEllipse
 62
7
  6
CONTINUOUS
 10
7.5028970194
 20
23.4452739498
 30
0.0
 11
-0.0
 21
0.25
 31
0.0
 40
0.0058178298
 41
-2.617993878
 42
-1.5707963268
  0
ELLIPSE
  5
61D
100
AcDbEntity
  8
RACCORDO
100
AcDbEllipse
 62
7
  6
CONTINUOUS
 10
9.7767167852
 20
23.4452739498
 30
0.0
 11
-0.0
 21
0.25
 31
0.0
 40
0.0058178298
 41
-4.7123889804
 42
-3.6651914292
  0
ELLIPSE
  5
61E
100
AcDbEntity
  8
RACCORDO
100
AcDbEllipse
 62
7
  6
CONTINUOUS
 10
9.7767167852
 20
23.7378420346
 30
0.0
 11
0.0
 21
0.25
 31
0.0
 40
0.0058178298
 41
0.0058177642
 42
1.5707963268
  0
ELLIPSE
  5
61F
100
AcDbEntity
  8
RACCORDO
100
AcDbEllipse
 62
7
  6
CONTINUOUS
 10
7.5028970194
 20
23.7378420346
 30
0.0
 11
-0.0
 21
0.25
 31
0.0
 40
0.0058178298
 41
-1.5707963268
 42
-0.0058177642
  0
ELLIPSE
  5
620
100
AcDbEntity
  8
RACCORDO
100
AcDbEllipse
 62
7
  6
CONTINUOUS
 10
26.4028970194
 20
23.4452739498
 30
0.0
 11
-0.0
 21
0.25
 31
0.0
 40
0.0058178298
 41
-2.617993878
 42
-1.5707963268
  0
ELLIPSE
  5
621
100
AcDbEntity
  8
RACCORDO
100
AcDbEllipse
 62
7
  6
CONTINUOUS
 10
28.6767167852
 20
23.4452739498
 30
0.0
 11
-0.0
 21
0.25
 31
0.0
 40
0.0058178298
 41
-4.7123889804
 42
-3.6651914292
  0
ELLIPSE
  5
622
100
AcDbEntity
  8
RACCORDO
100
AcDbEllipse
 62
7
  6
CONTINUOUS
 10
28.6767167852
 20
23.7378420346
 30
0.0
 11
0.0
 21
0.25
 31
0.0
 40
0.0058178298
 41
0.0058177642
 42
1.5707963268
  0
ELLIPSE
  5
623
100
AcDbEntity
  8
RACCORDO
100
AcDbEllipse
 62
7
  6
CONTINUOUS
 10
26.4028970194
 20
23.7378420346
 30
0.0
 11
0.0
 21
0.25
 31
0.0
 40
0.0058178298
 41
-1.5707963268
 42
-0.0058177642
  0
ELLIPSE
  5
624
100
AcDbEntity
  8
RACCORDO
100
AcDbEllipse
 62
7
  6
CONTINUOUS
 10
13.9938844602
 20
-22.79295481
 30
0.0
 11
0.3
 21
0.0
 31
0.0
 40
0.0087268678
 41
1.5707963268
 42
3.1357748894
  0
ELLIPSE
  5
625
100
AcDbEntity
  8
RACCORDO
100
AcDbEllipse
 62
7
  6
CONTINUOUS
 10
13.9938844602
 20
-24.1949911366
 30
0.0
 11
0.3
 21
-0.0
 31
0.0
 40
0.0058178298
 41
1.5707963268
 42
3.1357748894
  0
ELLIPSE
  5
626
100
AcDbEntity
  8
RACCORDO
100
AcDbEllipse
 62
7
  6
CONTINUOUS
 10
22.1857293444
 20
-24.1949911366
 30
0.0
 11
0.3
 21
-0.0
 31
0.0
 40
0.0058178298
 41
0.0058177642
 42
1.5707963268
  0
ELLIPSE
  5
627
100
AcDbEntity
  8
RACCORDO
100
AcDbEllipse
 62
7
  6
CONTINUOUS
 10
22.1857293444
 20
-22.79295481
 30
0.0
 11
0.3
 21
0.0
 31
0.0
 40
0.0087268678
 41
0.0058177642
 42
1.5707963268
  0
ELLIPSE
  5
628
100
AcDbEntity
  8
RACCORDO
100
AcDbEllipse
 62
7
  6
CONTINUOUS
 10
13.9938844602
 20
23.3968639017
 30
0.0
 11
0.3
 21
0.0
 31
0.0
 40
0.0058178298
 41
-3.1357748894
 42
-1.5707963268
  0
ELLIPSE
  5
629
100
AcDbEntity
  8
RACCORDO
100
AcDbEllipse
 62
7
  6
CONTINUOUS
 10
13.9938844602
 20
21.9948275751
 30
0.0
 11
0.3
 21
0.0
 31
0.0
 40
0.0087268678
 41
-3.1357748894
 42
-1.5707963268
  0
ELLIPSE
  5
62A
100
AcDbEntity
  8
RACCORDO
100
AcDbEllipse
 62
7
  6
CONTINUOUS
 10
22.1857293444
 20
21.9948275751
 30
0.0
 11
0.3
 21
0.0
 31
0.0
 40
0.0087268678
 41
-1.5707963268
 42
-0.0058177642
  0
ELLIPSE
  5
62B
100
AcDbEntity
  8
RACCORDO
100
AcDbEllipse
 62
7
  6
CONTINUOUS
 10
22.1857293444
 20
23.3968639017
 30
0.0
 11
0.3
 21
-0.0
 31
0.0
 40
0.0058178298
 41
-1.5707963268
 42
-0.0058177642
  0
ELLIPSE
  5
62C
100
AcDbEntity
  8
RACCORDO
100
AcDbEllipse
 62
7
  6
CONTINUOUS
 10
136.269353274
 20
11.7009363825
 30
0.0
 11
160.4118925661
 21
0.0
 31
0.0
 40
0.0174550649
 41
2.6637077142
 42
3.619477593
  0
ELLIPSE
  5
62D
100
AcDbEntity
  8
ASSI
100
AcDbEllipse
 62
7
  6
CONTINUOUS
 10
136.269353274
 20
11.7009363825
 30
0.0
 11
160.4118925661
 21
0.0
 31
0.0
 40
0.0174550649
 41
2.6637077142
 42
3.619477593
  0
ENDSEC
  0
SECTION
  2
OBJECTS
  0
DICTIONARY
  5
C
100
AcDbDictionary
280
0
281
1
  3
ACAD_GROUP
350
D
  3
ACAD_MLINESTYLE
350
17
  3
ACAD_LAYOUT
350
1A
  3
ACAD_PLOTSETTINGS
350
19
  3
ACAD_PLOTSTYLENAME
350
E
  0
DICTIONARY
  5
D
102
{ACAD_REACTORS
330
C
102
}
100
AcDbDictionary
280
0
281
1
  0
ACDBDICTIONARYWDFLT
  5
E
102
{ACAD_REACTORS
330
C
102
}
100
AcDbDictionary
281
1
  3
Normal
350
F
100
AcDbDictionaryWithDefault
340
F
  0
DICTIONARY
  5
17
102
{ACAD_REACTORS
330
C
102
}
100
AcDbDictionary
280
0
281
1
  3
Standard
350
18
  0
DICTIONARY
  5
19
102
{ACAD_REACTORS
330
C
102
}
100
AcDbDictionary
281
1
  0
DICTIONARY
  5
1A
102
{ACAD_REACTORS
330
C
102
}
100
AcDbDictionary
281
1
  3
Model
350
62E
  3
Layout1
350
62F
  0
ACDBPLACEHOLDER
  5
F
102
{ACAD_REACTORS
330
E
102
}
  0
MLINESTYLE
  5
18
102
{ACAD_REACTORS
330
17
102
}
100
AcDbMlineStyle
  2
STANDARD
 70
0
  3

 62
256
 51
90.0
 52
90.0
 71
2
 49
0.5
 62
256
  6
BYLAYER
 49
-0.5
 62
256
  6
BYLAYER
  0
LAYOUT
  5
62E
102
{ACAD_REACTORS
330
1A
102
}
100
AcDbPlotSettings
  1

  2
none_device
  4
ISO_A4_(297.00_x_210.00_MM)
  6

 40
0.0
 41
0.0
 42
0.0
 43
0.0
 44
297.0
 45
210.0
 46
0.0
 47
0.0
 48
0.0
 49
0.0
140
0.0
141
0.0
142
1.0
143
1.0
 70
1024
 72
1
 73
0
 74
0
  7

 75
0
147
1.0
148
0.0
149
0.0
100
AcDbLayout
  1
Model
 70
0
 71
0
 10
0.0
 20
0.0
 11
297.0
 21
210.0
 12
0.0
 22
0.0
 32
0.0
 14
0.0
 24
0.0
 34
0.0
 15
0.0
 25
0.0
 35
0.0
146
0.0
 13
0.0
 23
0.0
 33
0.0
 16
1.0
 26
0.0
 36
0.0
 17
0.0
 27
1.0
 37
0.0
 76
0
330
21C
345
0
346
0
  0
LAYOUT
  5
62F
102
{ACAD_REACTORS
330
1A
102
}
100
AcDbPlotSettings
  1

  2
none_device
  4
ISO_A4_(297.00_x_210.00_MM)
  6

 40
0.0
 41
0.0
 42
0.0
 43
0.0
 44
297.0
 45
210.0
 46
0.0
 47
0.0
 48
0.0
 49
0.0
140
0.0
141
0.0
142
1.0
143
1.0
 70
0
 72
1
 73
0
 74
0
  7

 75
0
147
1.0
148
0.0
149
0.0
100
AcDbLayout
  1
Layout1
 70
0
 71
1
 10
0.0
 20
0.0
 11
297.0
 21
210.0
 12
0.0
 22
0.0
 32
0.0
 14
0.0
 24
0.0
 34
0.0
 15
0.0
 25
0.0
 35
0.0
146
0.0
 13
0.0
 23
0.0
 33
0.0
 16
1.0
 26
0.0
 36
0.0
 17
0.0
 27
1.0
 37
0.0
 76
0
330
21D
345
0
346
0
  0
ENDSEC
  0
EOF
