  0
SECTION
  2
HEADER
  9
$ACADVER
  1
AC1027
  9
$DWGCODEPAGE
  3
ANSI_1252
  9
$EXTMAX
 10
297.0
 20
210.0
 30
0.0
  9
$EXTMIN
 10
0.0
 20
0.0
 30
0.0
  9
$LIMMIN
 10
0.0
 20
0.0
  9
$LIMMAX
 10
297.0
 20
210.0
  9
$VIEWCTR
 10
148.5
 20
105.0
  9
$VIEWSIZE
 40
210.0
  9
$CLAYER
  8
0
  9
$LTSCALE
 40
16.335
  9
$CELTYPE
  6
BYLAYER
  9
$DIMSCALE
 40
1.0
  9
$DIMASZ
 40
3.0
  9
$DIMEXO
 40
0.5
  9
$DIMDLI
 40
11.286
  9
$DIMEXE
 40
1.5
  9
$DIMCEN
 40
2.673
  9
$DIMLFAC
 40
1.0
  9
$DIMBLK
  1
_FILLED
  9
$DIMALT
 70
0
  9
$DIMALTF
 40
0.0393700787
  9
$DIMTXT
 40
3.0
  9
$DIMTOL
 70
1
  9
$DIMLIM
 70
0
  9
$DIMTFAC
 40
1.0
  9
$DIMTP
 40
0.01
  9
$DIMTM
 40
0.01
  9
$DIMGAP
 40
0.625
  9
$DIMDSEP
 70
44
  9
$AUNITS
 70
0
  9
$PDMODE
 70
3
  9
$PDSIZE
 40
3.0
  9
$HANDSEED
  5
675
  9
$TILEMODE
 70
1
  9
$MEASUREMENT
 70
1
  9
$INSUNITS
 70
4
  0
ENDSEC
  0
SECTION
  2
CLASSES
  0
CLASS
  1
ACDBDICTIONARYWDFLT
  2
AcDbDictionaryWithDefault
  3
AutoCAD 2000
 90
0
 91
1
280
0
281
0
  0
CLASS
  1
ACDBPLACEHOLDER
  2
AcDbPlaceHolder
  3
AutoCAD 2000
 90
0
 91
1
280
0
281
0
  0
CLASS
  1
LAYOUT
  2
AcDbLayout
  3
AutoCAD 2000
 90
0
 91
0
280
0
281
0
  0
ENDSEC
  0
SECTION
  2
TABLES
  0
TABLE
  2
VPORT
  5
8
100
AcDbSymbolTable
 70
2
  0
VPORT
  5
1F4
100
AcDbSymbolTableRecord
100
AcDbViewportTableRecord
  2
*ACTIVE
 70
0
 10
0.0
 20
0.0
 11
1.0
 21
1.0
 12
148.5
 22
105.0
 13
0.0
 23
0.0
 14
1.0
 24
1.0
 15
0.0
 25
0.0
 16
0.0
 26
0.0
 36
1.0
 17
0.0
 27
0.0
 37
0.0
 40
210.0
 41
1.4142857143
 42
50.0
 43
0.0
 44
0.0
 50
0.0
 51
0.0
 71
0
 72
100
 73
1
 74
1
 75
0
 76
0
 77
0
 78
0
  0
ENDTAB
  0
TABLE
  2
LTYPE
  5
5
100
AcDbSymbolTable
 70
6
  0
LTYPE
  5
14
100
AcDbSymbolTableRecord
100
AcDbLinetypeTableRecord
  2
BYBLOCK
 70
0
  3

 72
65
 73
0
 40
0.0
  0
LTYPE
  5
15
100
AcDbSymbolTableRecord
100
AcDbLinetypeTableRecord
  2
BYLAYER
 70
0
  3

 72
65
 73
0
 40
0.0
  0
LTYPE
  5
16
100
AcDbSymbolTableRecord
100
AcDbLinetypeTableRecord
  2
CONTINUOUS
 70
64
  3
Solid line
 72
65
 73
0
 40
0.0
  0
LTYPE
  5
1F5
100
AcDbSymbolTableRecord
100
AcDbLinetypeTableRecord
  2
CENTER
 70
64
  3
____ _ ____ _ ____ _ ____ _ ____ _ ____ _ ____
 72
65
 73
4
 40
0.6
 49
0.375
 74
0
 49
-0.075
 74
0
 49
0.075
 74
0
 49
-0.075
 74
0
  0
LTYPE
  5
1F6
100
AcDbSymbolTableRecord
100
AcDbLinetypeTableRecord
  2
HIDDEN
 70
64
  3
- - - - - - - - - - - - - - - - - - - -
 72
65
 73
2
 40
0.2
 49
0.1
 74
0
 49
-0.1
 74
0
  0
LTYPE
  5
1F7
100
AcDbSymbolTableRecord
100
AcDbLinetypeTableRecord
  2
PHANTOM
 70
64
  3
_____ _ _ _____ _ _ _____ _ _ _____
 72
65
 73
6
 40
0.8
 49
0.45
 74
0
 49
-0.05
 74
0
 49
0.1
 74
0
 49
-0.05
 74
0
 49
0.1
 74
0
 49
-0.05
 74
0
  0
LTYPE
  5
1F8
100
AcDbSymbolTableRecord
100
AcDbLinetypeTableRecord
  2
DOT
 70
64
  3
. . . . . . . . . . . . . . . . . . . .
 72
65
 73
2
 40
0.2
 49
0.1
 74
0
 49
-0.1
 74
0
  0
LTYPE
  5
1F9
100
AcDbSymbolTableRecord
100
AcDbLinetypeTableRecord
  2
DASHED
 70
64
  3
- - - - - - - - - - - - - - - - - - - -
 72
65
 73
2
 40
0.2
 49
0.1
 74
0
 49
-0.1
 74
0
  0
ENDTAB
  0
TABLE
  2
LAYER
  5
2
100
AcDbSymbolTable
 70
36
  0
LAYER
  5
10
100
AcDbSymbolTableRecord
100
AcDbLayerTableRecord
  2
0
 70
0
 62
7
  6
CONTINUOUS
370
-3
390
F
  0
LAYER
  5
1FA
100
AcDbSymbolTableRecord
100
AcDbLayerTableRecord
  2
DEFAULT_1
 70
0
 62
7
  6
CENTER
370
-3
390
F
  0
LAYER
  5
1FB
100
AcDbSymbolTableRecord
100
AcDbLayerTableRecord
  2
DEFAULT_2
 70
0
 62
7
  6
HIDDEN
370
-3
390
F
  0
LAYER
  5
1FC
100
AcDbSymbolTableRecord
100
AcDbLayerTableRecord
  2
DEFAULT_3
 70
0
 62
7
  6
PHANTOM
370
-3
390
F
  0
LAYER
  5
1FD
100
AcDbSymbolTableRecord
100
AcDbLayerTableRecord
  2
ASSI
 70
0
 62
7
  6
CONTINUOUS
370
-3
390
F
  0
LAYER
  5
1FE
100
AcDbSymbolTableRecord
100
AcDbLayerTableRecord
  2
COLORE_TOP
 70
0
 62
7
  6
CONTINUOUS
370
-3
390
F
  0
LAYER
  5
1FF
100
AcDbSymbolTableRecord
100
AcDbLayerTableRecord
  2
COORDINATE
 70
0
 62
7
  6
CONTINUOUS
370
-3
390
F
  0
LAYER
  5
200
100
AcDbSymbolTableRecord
100
AcDbLayerTableRecord
  2
COORD_ORIGINE
 70
0
 62
7
  6
CONTINUOUS
370
-3
390
F
  0
LAYER
  5
201
100
AcDbSymbolTableRecord
100
AcDbLayerTableRecord
  2
COPY_PUBLISH
 70
0
 62
7
  6
CONTINUOUS
370
-3
390
F
  0
LAYER
  5
202
100
AcDbSymbolTableRecord
100
AcDbLayerTableRecord
  2
COSMETIC
 70
0
 62
7
  6
CONTINUOUS
370
-3
390
F
  0
LAYER
  5
203
100
AcDbSymbolTableRecord
100
AcDbLayerTableRecord
  2
COSMETICHE
 70
0
 62
7
  6
CONTINUOUS
370
-3
390
F
  0
LAYER
  5
204
100
AcDbSymbolTableRecord
100
AcDbLayerTableRecord
  2
CURVE
 70
0
 62
7
  6
CONTINUOUS
370
-3
390
F
  0
LAYER
  5
205
100
AcDbSymbolTableRecord
100
AcDbLayerTableRecord
  2
DRAFT
 70
0
 62
7
  6
CONTINUOUS
370
-3
390
F
  0
LAYER
  5
206
100
AcDbSymbolTableRecord
100
AcDbLayerTableRecord
  2
IGES
 70
0
 62
7
  6
CONTINUOUS
370
-3
390
F
  0
LAYER
  5
207
100
AcDbSymbolTableRecord
100
AcDbLayerTableRecord
  2
IMPORT
 70
0
 62
7
  6
CONTINUOUS
370
-3
390
F
  0
LAYER
  5
208
100
AcDbSymbolTableRecord
100
AcDbLayerTableRecord
  2
IMPORTED
 70
0
 62
7
  6
CONTINUOUS
370
-3
390
F
  0
LAYER
  5
209
100
AcDbSymbolTableRecord
100
AcDbLayerTableRecord
  2
IMPORT_IGES
 70
0
 62
7
  6
CONTINUOUS
370
-3
390
F
  0
LAYER
  5
20A
100
AcDbSymbolTableRecord
100
AcDbLayerTableRecord
  2
INCISIONI_LASER
 70
0
 62
7
  6
CONTINUOUS
370
-3
390
F
  0
LAYER
  5
20B
100
AcDbSymbolTableRecord
100
AcDbLayerTableRecord
  2
INTF_1
 70
0
 62
7
  6
CONTINUOUS
370
-3
390
F
  0
LAYER
  5
20C
100
AcDbSymbolTableRecord
100
AcDbLayerTableRecord
  2
NOTE
 70
0
 62
7
  6
CONTINUOUS
370
-3
390
F
  0
LAYER
  5
20D
100
AcDbSymbolTableRecord
100
AcDbLayerTableRecord
  2
PIANI
 70
0
 62
7
  6
CONTINUOUS
370
-3
390
F
  0
LAYER
  5
20E
100
AcDbSymbolTableRecord
100
AcDbLayerTableRecord
  2
PIANI_DI_RIFERIMENTO
 70
0
 62
7
  6
CONTINUOUS
370
-3
390
F
  0
LAYER
  5
20F
100
AcDbSymbolTableRecord
100
AcDbLayerTableRecord
  2
PIANI_ORIGINE
 70
0
 62
7
  6
CONTINUOUS
370
-3
390
F
  0
LAYER
  5
210
100
AcDbSymbolTableRecord
100
AcDbLayerTableRecord
  2
PIANI_RIFERIMENTO
 70
0
 62
7
  6
CONTINUOUS
370
-3
390
F
  0
LAYER
  5
211
100
AcDbSymbolTableRecord
100
AcDbLayerTableRecord
  2
PIANI_SFORMO
 70
0
 62
7
  6
CONTINUOUS
370
-3
390
F
  0
LAYER
  5
212
100
AcDbSymbolTableRecord
100
AcDbLayerTableRecord
  2
PUNTI
 70
0
 62
7
  6
CONTINUOUS
370
-3
390
F
  0
LAYER
  5
213
100
AcDbSymbolTableRecord
100
AcDbLayerTableRecord
  2
RACCORDO
 70
0
 62
7
  6
CONTINUOUS
370
-3
390
F
  0
LAYER
  5
214
100
AcDbSymbolTableRecord
100
AcDbLayerTableRecord
  2
RGB____0____0____0__
 70
0
 62
7
  6
CONTINUOUS
370
-3
390
F
  0
LAYER
  5
215
100
AcDbSymbolTableRecord
100
AcDbLayerTableRecord
  2
SMUSSO
 70
0
 62
7
  6
CONTINUOUS
370
-3
390
F
  0
LAYER
  5
216
100
AcDbSymbolTableRecord
100
AcDbLayerTableRecord
  2
SNAPLINE
 70
0
 62
7
  6
CONTINUOUS
370
-3
390
F
  0
LAYER
  5
217
100
AcDbSymbolTableRecord
100
AcDbLayerTableRecord
  2
SUPERFICI
 70
0
 62
7
  6
CONTINUOUS
370
-3
390
F
  0
LAYER
  5
218
100
AcDbSymbolTableRecord
100
AcDbLayerTableRecord
  2
TRASH
 70
0
 62
7
  6
CONTINUOUS
370
-3
390
F
  0
LAYER
  5
219
100
AcDbSymbolTableRecord
100
AcDbLayerTableRecord
  2
XSEC_DATUMS
 70
0
 62
7
  6
CONTINUOUS
370
-3
390
F
  0
ENDTAB
  0
TABLE
  2
STYLE
  5
3
100
AcDbSymbolTable
 70
1
  0
STYLE
  5
11
100
AcDbSymbolTableRecord
100
AcDbTextStyleTableRecord
  2
STANDARD
 70
0
 40
0.0
 41
0.8
 50
0.0
 71
0
 42
0.2
  3
txt
  4

  0
STYLE
  5
21A
100
AcDbSymbolTableRecord
100
AcDbTextStyleTableRecord
  2
TEXTSTYLE_1
 70
0
 40
0.0
 41
0.8
 50
0.0
 71
0
 42
0.2
  3
gdt
  4

  0
ENDTAB
  0
TABLE
  2
VIEW
  5
6
100
AcDbSymbolTable
 70
0
  0
ENDTAB
  0
TABLE
  2
UCS
  5
7
100
AcDbSymbolTable
 70
0
  0
ENDTAB
  0
TABLE
  2
APPID
  5
9
100
AcDbSymbolTable
 70
1
  0
APPID
  5
21B
100
AcDbSymbolTableRecord
100
AcDbRegAppTableRecord
  2
ACAD
 70
0
  0
ENDTAB
  0
TABLE
  2
BLOCK_RECORD
  5
1
100
AcDbSymbolTable
 70
0
  0
BLOCK_RECORD
  5
21C
100
AcDbSymbolTableRecord
100
AcDbBlockTableRecord
  2
*Model_Space
  0
BLOCK_RECORD
  5
21D
100
AcDbSymbolTableRecord
100
AcDbBlockTableRecord
  2
*Paper_Space
  0
BLOCK_RECORD
  5
21E
100
AcDbSymbolTableRecord
100
AcDbBlockTableRecord
  2
_FILLED
  0
BLOCK_RECORD
  5
21F
100
AcDbSymbolTableRecord
100
AcDbBlockTableRecord
  2
*D0
  0
BLOCK_RECORD
  5
220
100
AcDbSymbolTableRecord
100
AcDbBlockTableRecord
  2
*D1
  0
BLOCK_RECORD
  5
221
100
AcDbSymbolTableRecord
100
AcDbBlockTableRecord
  2
*D2
  0
BLOCK_RECORD
  5
222
100
AcDbSymbolTableRecord
100
AcDbBlockTableRecord
  2
*D3
  0
ENDTAB
  0
TABLE
  2
DIMSTYLE
  5
A
100
AcDbSymbolTable
 70
1
100
AcDbDimStyleTable
 71
0
  0
DIMSTYLE
105
223
100
AcDbSymbolTableRecord
100
AcDbDimStyleTableRecord
  2
STANDARD
 70
0
  3

  4

 40
1.0
 41
3.0
 42
0.5
 43
0.38
 44
1.5
 45
0.0
 46
0.0
 47
0.01
 48
0.01
140
3.0
141
0.09
142
0.0
143
25.4
144
1.0
145
0.0
146
1.0
147
0.625
 71
1.0
 72
0.0
 73
0
 74
0
 75
0
 76
0
 77
1
 78
8
 79
2
170
0
171
1
172
0
173
0
174
0
175
0
176
0
177
0
178
0
270
2
179
2
271
2
272
2
273
2
274
2
275
0
280
0
281
0
282
0
283
1
284
8
285
0
286
0
287
3
288
0
340
11
278
44
341
21E
342
21E
343
21E
344
21E
  0
DIMSTYLE
105
224
100
AcDbSymbolTableRecord
100
AcDbDimStyleTableRecord
  2
DIMSTYLE_1
 70
0
  3

  4

 40
1.0
 41
3.0
 42
0.5
 43
0.38
 44
1.5
 45
0.0
 46
0.0
 47
0.0
 48
0.0
140
3.0
141
0.09
142
0.0
143
25.4
144
1.0
145
0.0
146
1.0
147
0.75
 71
0.0
 72
0.0
 73
0
 74
0
 75
0
 76
0
 77
1
 78
8
 79
2
170
0
171
1
172
0
173
0
174
0
175
0
176
0
177
0
178
0
270
2
179
2
271
2
272
2
273
2
274
2
275
0
280
0
281
0
282
0
283
1
284
8
285
0
286
0
287
3
288
0
340
11
278
44
341
21E
342
21E
343
21E
344
21E
  0
DIMSTYLE
105
225
100
AcDbSymbolTableRecord
100
AcDbDimStyleTableRecord
  2
DIMSTYLE_2
 70
0
  3

  4

 40
1.0
 41
3.0
 42
0.5
 43
0.38
 44
1.5
 45
0.0
 46
0.0
 47
0.0
 48
0.0
140
3.0
141
0.09
142
0.0
143
25.4
144
1.0
145
0.0
146
1.0
147
0.75
 71
0.0
 72
0.0
 73
0
 74
0
 75
0
 76
0
 77
1
 78
8
 79
2
170
0
171
1
172
0
173
0
174
0
175
0
176
0
177
0
178
0
270
2
179
2
271
1
272
1
273
2
274
2
275
0
280
0
281
0
282
0
283
1
284
8
285
0
286
0
287
3
288
0
340
11
278
44
341
21E
342
21E
343
21E
344
21E
  0
ENDTAB
  0
ENDSEC
  0
SECTION
  2
BLOCKS
  0
BLOCK
  5
20
100
AcDbEntity
  8
0
100
AcDbBlockBegin
  2
*Model_Space
 70
0
 10
0.0
 20
0.0
 30
0.0
  3
*Model_Space
  1

  0
ENDBLK
  5
21
100
AcDbEntity
  8
0
100
AcDbBlockEnd
  0
BLOCK
  5
1C
100
AcDbEntity
  8
0
100
AcDbBlockBegin
  2
*Paper_Space
 70
0
 10
0.0
 20
0.0
 30
0.0
  3
*Paper_Space
  1

  0
ENDBLK
  5
1D
100
AcDbEntity
  8
0
100
AcDbBlockEnd
  0
BLOCK
  5
226
100
AcDbEntity
  8
0
100
AcDbBlockBegin
  2
_FILLED
 70
64
 10
0.0
 20
0.0
  3
_FILLED
  1

  0
SOLID
  5
227
100
AcDbEntity
  8
0
  6
BYBLOCK
 62
0
100
AcDbTrace
 10
0.0
 20
0.0
 11
-1.0
 21
0.3166666667
 12
-1.0
 22
-0.3166666667
 13
-1.0
 23
-0.3166666667
  0
ENDBLK
  5
228
100
AcDbEntity
  8
0
  6
BYBLOCK
 62
0
100
AcDbBlockEnd
  0
BLOCK
  5
229
100
AcDbEntity
  8
0
100
AcDbBlockBegin
 62
7
  6
CONTINUOUS
  2
*D0
 70
65
 10
0.0
 20
0.0
  3
*D0
  1

  0
LINE
  5
22A
100
AcDbEntity
  8
0
100
AcDbLine
 62
7
  6
CONTINUOUS
 10
-6.2738053427
 20
14.767153551
 11
-6.2738053427
 21
33.3967617007
  0
LINE
  5
22B
100
AcDbEntity
  8
0
100
AcDbLine
 62
7
  6
CONTINUOUS
 10
-30.2738053427
 20
22.0380215055
 11
-30.2738053427
 21
33.3967617007
  0
LINE
  5
22C
100
AcDbEntity
  8
0
100
AcDbLine
 62
7
  6
CONTINUOUS
 10
-6.2738053427
 20
31.8967617007
 11
-18.2738053427
 21
31.8967617007
  0
LINE
  5
22D
100
AcDbEntity
  8
0
100
AcDbLine
 62
7
  6
CONTINUOUS
 10
-30.2738053427
 20
31.8967617007
 11
-18.2738053427
 21
31.8967617007
  0
INSERT
  5
22E
100
AcDbEntity
  8
0
100
AcDbBlockReference
 62
7
  6
CONTINUOUS
  2
_FILLED
 10
-6.2738053427
 20
31.8967617007
 41
3.0
 42
3.0
 43
3.0
  0
INSERT
  5
22F
100
AcDbEntity
  8
0
100
AcDbBlockReference
 62
7
  6
CONTINUOUS
  2
_FILLED
 10
-30.2738053427
 20
31.8967617007
 41
3.0
 42
3.0
 43
3.0
 50
180.0
  0
ENDBLK
  5
230
100
AcDbEntity
  8
0
  6
BYBLOCK
 62
0
100
AcDbBlockEnd
  0
BLOCK
  5
231
100
AcDbEntity
  8
0
100
AcDbBlockBegin
 62
7
  6
CONTINUOUS
  2
*D1
 70
65
 10
0.0
 20
0.0
  3
*D1
  1

  0
LINE
  5
232
100
AcDbEntity
  8
0
100
AcDbLine
 62
7
  6
CONTINUOUS
 10
7.0386872644
 20
19.9504104492
 11
7.0386872644
 21
33.3967617007
  0
LINE
  5
233
100
AcDbEntity
  8
0
100
AcDbLine
 62
7
  6
CONTINUOUS
 10
29.3386872644
 20
21.8555594557
 11
29.3386872644
 21
33.3967617007
  0
LINE
  5
234
100
AcDbEntity
  8
0
100
AcDbLine
 62
7
  6
CONTINUOUS
 10
7.0386872644
 20
31.8967617007
 11
18.1886872644
 21
31.8967617007
  0
LINE
  5
235
100
AcDbEntity
  8
0
100
AcDbLine
 62
7
  6
CONTINUOUS
 10
29.3386872644
 20
31.8967617007
 11
18.1886872644
 21
31.8967617007
  0
INSERT
  5
236
100
AcDbEntity
  8
0
100
AcDbBlockReference
 62
7
  6
CONTINUOUS
  2
_FILLED
 10
7.0386872644
 20
31.8967617007
 41
3.0
 42
3.0
 43
3.0
 50
180.0
  0
INSERT
  5
237
100
AcDbEntity
  8
0
100
AcDbBlockReference
 62
7
  6
CONTINUOUS
  2
_FILLED
 10
29.3386872644
 20
31.8967617007
 41
3.0
 42
3.0
 43
3.0
  0
ENDBLK
  5
238
100
AcDbEntity
  8
0
  6
BYBLOCK
 62
0
100
AcDbBlockEnd
  0
BLOCK
  5
239
100
AcDbEntity
  8
0
100
AcDbBlockBegin
 62
7
  6
CONTINUOUS
  2
*D2
 70
65
 10
0.0
 20
0.0
  3
*D2
  1

  0
LINE
  5
23A
100
AcDbEntity
  8
0
100
AcDbLine
 62
7
  6
CONTINUOUS
 10
29.2886872644
 20
23.8967617007
 11
38.8386872644
 21
23.8967617007
  0
LINE
  5
23B
100
AcDbEntity
  8
0
100
AcDbLine
 62
7
  6
CONTINUOUS
 10
29.2886872644
 20
-24.9032382993
 11
38.8386872644
 21
-24.9032382993
  0
LINE
  5
23C
100
AcDbEntity
  8
0
100
AcDbLine
 62
7
  6
CONTINUOUS
 10
37.3386872644
 20
23.8967617007
 11
37.3386872644
 21
-0.5032382993
  0
LINE
  5
23D
100
AcDbEntity
  8
0
100
AcDbLine
 62
7
  6
CONTINUOUS
 10
37.3386872644
 20
-24.9032382993
 11
37.3386872644
 21
-0.5032382993
  0
INSERT
  5
23E
100
AcDbEntity
  8
0
100
AcDbBlockReference
 62
7
  6
CONTINUOUS
  2
_FILLED
 10
37.3386872644
 20
23.8967617007
 41
3.0
 42
3.0
 43
3.0
 50
90.0
  0
INSERT
  5
23F
100
AcDbEntity
  8
0
100
AcDbBlockReference
 62
7
  6
CONTINUOUS
  2
_FILLED
 10
37.3386872644
 20
-24.9032382993
 41
3.0
 42
3.0
 43
3.0
 50
270.0
  0
ENDBLK
  5
240
100
AcDbEntity
  8
0
  6
BYBLOCK
 62
0
100
AcDbBlockEnd
  0
BLOCK
  5
241
100
AcDbEntity
  8
0
100
AcDbBlockBegin
 62
7
  6
CONTINUOUS
  2
*D3
 70
65
 10
0.0
 20
0.0
  3
*D3
  1

  0
LINE
  5
242
100
AcDbEntity
  8
0
100
AcDbLine
 62
7
  6
CONTINUOUS
 10
-6.2738053427
 20
14.767153551
 11
-6.2738053427
 21
43.4648830019
  0
LINE
  5
243
100
AcDbEntity
  8
0
100
AcDbLine
 62
7
  6
CONTINUOUS
 10
-44.9816951522
 20
19.6916500019
 11
-44.9816951522
 21
43.4648830019
  0
LINE
  5
244
100
AcDbEntity
  8
0
100
AcDbLine
 62
7
  6
CONTINUOUS
 10
-6.2738053427
 20
41.9648830019
 11
-25.6277502475
 21
41.9648830019
  0
LINE
  5
245
100
AcDbEntity
  8
0
100
AcDbLine
 62
7
  6
CONTINUOUS
 10
-44.9816951522
 20
41.9648830019
 11
-25.6277502475
 21
41.9648830019
  0
INSERT
  5
246
100
AcDbEntity
  8
0
100
AcDbBlockReference
 62
7
  6
CONTINUOUS
  2
_FILLED
 10
-6.2738053427
 20
41.9648830019
 41
3.0
 42
3.0
 43
3.0
  0
INSERT
  5
247
100
AcDbEntity
  8
0
100
AcDbBlockReference
 62
7
  6
CONTINUOUS
  2
_FILLED
 10
-44.9816951522
 20
41.9648830019
 41
3.0
 42
3.0
 43
3.0
 50
180.0
  0
ENDBLK
  5
248
100
AcDbEntity
  8
0
  6
BYBLOCK
 62
0
100
AcDbBlockEnd
  0
ENDSEC
  0
SECTION
  2
ENTITIES
  0
DIMENSION
  5
249
100
AcDbEntity
  8
0
100
AcDbDimension
 62
7
  6
CONTINUOUS
  2
*D0
 10
-30.2738053427
 20
31.8967617007
 11
-20.6309481999
 21
31.8967617007
 70
160
 71
2
 72
2
 41
0.9
 42
24.0
  3
DIMSTYLE_1
100
AcDbAlignedDimension
 13
-6.2738053427
 23
14.267153551
 14
-30.2738053427
 24
21.5380215055
 50
180.0
100
AcDbRotatedDimension
  0
DIMENSION
  5
24A
100
AcDbEntity
  8
0
100
AcDbDimension
 62
7
  6
CONTINUOUS
  2
*D1
 10
29.3386872644
 20
31.8967617007
 11
13.9029729787
 21
31.8967617007
 70
160
 71
2
 72
2
 41
0.9
 42
22.3
  3
DIMSTYLE_1
100
AcDbAlignedDimension
 13
7.0386872644
 23
19.4504104492
 14
29.3386872644
 24
21.3555594557
100
AcDbRotatedDimension
  0
DIMENSION
  5
24B
100
AcDbEntity
  8
0
100
AcDbDimension
 62
7
  6
CONTINUOUS
  2
*D2
 10
37.3386872644
 20
-24.9032382993
 11
37.3386872644
 21
-4.8960954422
 70
160
 71
2
 72
2
 41
0.9
 42
48.8
  3
DIMSTYLE_1
100
AcDbAlignedDimension
 13
28.7886872644
 23
23.8967617007
 14
28.7886872644
 24
-24.9032382993
 50
270.0
100
AcDbRotatedDimension
  0
DIMENSION
  5
24C
100
AcDbEntity
  8
0
100
AcDbDimension
 62
7
  6
CONTINUOUS
  2
*D3
 10
-44.9816951522
 20
41.9648830019
 11
-29.9134645332
 21
41.9648830019
 70
160
 71
2
 72
2
 41
0.9
 42
38.7078898095
  3
DIMSTYLE_2
100
AcDbAlignedDimension
 13
-6.2738053427
 23
14.267153551
 14
-44.9816951522
 24
19.1916500019
 50
180.0
100
AcDbRotatedDimension
  0
LWPOLYLINE
  5
24D
100
AcDbEntity
  8
0
100
AcDbPolyline
 62
7
  6
CONTINUOUS
 90
5
 70
0
 43
0.3500000006
 10
21.1886881485
 20
34.3610452423
 10
21.5458304672
 20
34.575334259
 10
21.5458304672
 20
35.2181922455
 10
21.1886881485
 20
35.6467612152
 10
20.3315434113
 20
35.6467612152
  0
LINE
  5
24E
100
AcDbEntity
  8
RACCORDO
100
AcDbLine
 62
7
  6
CONTINUOUS
 10
9.8755886856
 20
23.883663122
 11
9.8886872644
 21
23.8967617007
  0
LINE
  5
24F
100
AcDbEntity
  8
DRAFT
100
AcDbLine
 62
7
  6
CONTINUOUS
 10
28.7886872644
 20
-24.9032382993
 11
26.4886872644
 21
-24.9032382993
  0
LINE
  5
250
100
AcDbEntity
  8
DRAFT
100
AcDbLine
 62
7
  6
CONTINUOUS
 10
9.8886872644
 20
-24.9032382993
 11
7.5886872644
 21
-24.9032382993
  0
LINE
  5
251
100
AcDbEntity
  8
RACCORDO
100
AcDbLine
 62
250
  6
CONTINUOUS
 10
7.6017858431
 20
-24.8901397206
 11
9.8755886856
 21
-24.8901397206
  0
LINE
  5
252
100
AcDbEntity
  8
RACCORDO
100
AcDbLine
 62
250
  6
CONTINUOUS
 10
26.5017858431
 20
-24.8901397206
 11
28.7755886856
 21
-24.8901397206
  0
LINE
  5
253
100
AcDbEntity
  8
RACCORDO
100
AcDbLine
 62
250
  6
CONTINUOUS
 10
7.6032318389
 20
-24.6401439514
 11
9.8741426898
 21
-24.6401439514
  0
LINE
  5
254
100
AcDbEntity
  8
RACCORDO
100
AcDbLine
 62
250
  6
CONTINUOUS
 10
26.5032318389
 20
-24.6401439514
 11
28.7741426898
 21
-24.6401439514
  0
LINE
  5
255
100
AcDbEntity
  8
RACCORDO
100
AcDbLine
 62
250
  6
CONTINUOUS
 10
28.7741426898
 20
-24.3475758666
 11
26.5032318389
 21
-24.3475758666
  0
LINE
  5
256
100
AcDbEntity
  8
RACCORDO
100
AcDbLine
 62
250
  6
CONTINUOUS
 10
9.8741426898
 20
-24.3475758666
 11
7.6032318389
 21
-24.3475758666
  0
LINE
  5
257
100
AcDbEntity
  8
DRAFT
100
AcDbLine
 62
7
  6
CONTINUOUS
 10
22.5886872644
 20
-24.3032382993
 11
13.7886872644
 21
-24.3032382993
  0
LINE
  5
258
100
AcDbEntity
  8
RACCORDO
100
AcDbLine
 62
7
  6
CONTINUOUS
 10
22.2846097065
 20
-24.2974204695
 11
14.0927648223
 21
-24.2974204695
  0
LINE
  5
259
100
AcDbEntity
  8
RACCORDO
100
AcDbLine
 62
250
  6
CONTINUOUS
 10
28.7748699186
 20
-24.1310695156
 11
26.5025046102
 21
-24.1310695156
  0
LINE
  5
25A
100
AcDbEntity
  8
RACCORDO
100
AcDbLine
 62
250
  6
CONTINUOUS
 10
9.8748699186
 20
-24.1310695156
 11
7.6025046102
 21
-24.1310695156
  0
LINE
  5
25B
100
AcDbEntity
  8
DRAFT
100
AcDbLine
 62
7
  6
CONTINUOUS
 10
28.7799605196
 20
-23.6258880301
 11
26.4974140091
 21
-23.6258880301
  0
LINE
  5
25C
100
AcDbEntity
  8
DRAFT
100
AcDbLine
 62
7
  6
CONTINUOUS
 10
9.8799605196
 20
-23.6258880301
 11
7.5974140091
 21
-23.6258880301
  0
LINE
  5
25D
100
AcDbEntity
  8
RACCORDO
100
AcDbLine
 62
7
  6
CONTINUOUS
 10
9.8755886856
 20
-24.8901397206
 11
9.8886872644
 21
-24.9032382993
  0
LWPOLYLINE
  5
25E
100
AcDbEntity
  8
RACCORDO
100
AcDbPolyline
 62
7
  6
CONTINUOUS
 90
28
 70
0
 10
28.3366764444
 20
-22.5248178649
 10
28.3595236221
 20
-22.5244918425
 10
28.4082353604
 20
-22.5216132561
 10
28.4560142395
 20
-22.5158728435
 10
28.5027100869
 20
-22.5074103272
 10
28.5482037125
 20
-22.4963654464
 10
28.5923655693
 20
-22.4828854717
 10
28.6350816015
 20
-22.4671213011
 10
28.6762753066
 20
-22.4492154806
 10
28.7158600476
 20
-22.4293184379
 10
28.7537587479
 20
-22.4075831005
 10
28.7899257259
 20
-22.3841499296
 10
28.8243095281
 20
-22.3591666752
 10
28.8568682276
 20
-22.332780873
 10
28.8875844072
 20
-22.3051252358
 10
28.916432936
 20
-22.2763433918
 10
28.9434059337
 20
-22.2465684625
 10
28.9685215172
 20
-22.2159063314
 10
28.9917616512
 20
-22.184510614
 10
29.013158994
 20
-22.1524753846
 10
29.0328009412
 20
-22.1197931049
 10
29.0508285963
 20
-22.0863002387
 10
29.0670974264
 20
-22.0523420599
 10
29.0813576999
 20
-22.018688121
 10
29.0937398847
 20
-21.9854192088
 10
29.1043555716
 20
-21.9526545789
 10
29.1131405013
 20
-21.9212108723
 10
29.1177280461
 20
-21.9025592844
  0
LINE
  5
25F
100
AcDbEntity
  8
RACCORDO
100
AcDbLine
 62
7
  6
CONTINUOUS
 10
7.3886872644
 20
-22.9032382993
 11
7.5886872644
 21
-22.9032382993
  0
LINE
  5
260
100
AcDbEntity
  8
DRAFT
100
AcDbLine
 62
7
  6
CONTINUOUS
 10
9.8886872644
 20
-22.9032382993
 11
13.7886872644
 21
-22.9032382993
  0
LINE
  5
261
100
AcDbEntity
  8
DRAFT
100
AcDbLine
 62
7
  6
CONTINUOUS
 10
22.5886872644
 20
-22.9032382993
 11
26.4886872644
 21
-22.9032382993
  0
LINE
  5
262
100
AcDbEntity
  8
RACCORDO
100
AcDbLine
 62
7
  6
CONTINUOUS
 10
28.7886872644
 20
-22.9032382993
 11
28.9886872644
 21
-22.9032382993
  0
LINE
  5
263
100
AcDbEntity
  8
RACCORDO
100
AcDbLine
 62
7
  6
CONTINUOUS
 10
14.0927648223
 20
-22.8945114315
 11
22.2846097065
 21
-22.8945114315
  0
LINE
  5
264
100
AcDbEntity
  8
DRAFT
100
AcDbLine
 62
7
  6
CONTINUOUS
 10
28.7799605196
 20
-22.8901479976
 11
26.4974140091
 21
-22.8901479976
  0
LINE
  5
265
100
AcDbEntity
  8
DRAFT
100
AcDbLine
 62
7
  6
CONTINUOUS
 10
9.8799605196
 20
-22.8901479976
 11
7.5974140091
 21
-22.8901479976
  0
LINE
  5
266
100
AcDbEntity
  8
RACCORDO
100
AcDbLine
 62
7
  6
CONTINUOUS
 10
7.3886872644
 20
-22.8814211298
 11
28.9886872644
 21
-22.8814211298
  0
LINE
  5
267
100
AcDbEntity
  8
RACCORDO
100
AcDbLine
 62
7
  6
CONTINUOUS
 10
28.3366979992
 20
-22.5248351555
 11
8.0406765295
 21
-22.5248351555
  0
LINE
  5
268
100
AcDbEntity
  8
ASSI
100
AcDbLine
 62
7
  6
CONTINUOUS
 10
7.0386872644
 20
-22.5032382993
 11
7.8565110992
 21
-22.5032382993
  0
LINE
  5
269
100
AcDbEntity
  8
ASSI
100
AcDbLine
 62
7
  6
CONTINUOUS
 10
28.5198945798
 20
-22.5032382993
 11
29.3386872644
 21
-22.5032382993
  0
LINE
  5
26A
100
AcDbEntity
  8
0
100
AcDbLine
 62
7
  6
CONTINUOUS
 10
7.0386872644
 20
-22.3620360543
 11
7.5569638724
 21
-22.3620360543
  0
LINE
  5
26B
100
AcDbEntity
  8
0
100
AcDbLine
 62
7
  6
CONTINUOUS
 10
28.8203604764
 20
-22.3620360543
 11
29.3386872644
 21
-22.3620360543
  0
LINE
  5
26C
100
AcDbEntity
  8
RACCORDO
100
AcDbLine
 62
250
  6
CONTINUOUS
 10
28.3206318936
 20
-21.30846624
 11
8.0567426352
 21
-21.30846624
  0
LINE
  5
26D
100
AcDbEntity
  8
0
100
AcDbLine
 62
7
  6
CONTINUOUS
 10
7.0386872644
 20
-20.4568870478
 11
7.0886872644
 21
-20.4568870478
  0
LINE
  5
26E
100
AcDbEntity
  8
0
100
AcDbLine
 62
7
  6
CONTINUOUS
 10
29.2886872644
 20
-20.4568870478
 11
29.3386872644
 21
-20.4568870478
  0
LINE
  5
26F
100
AcDbEntity
  8
DRAFT
100
AcDbLine
 62
7
  6
CONTINUOUS
 10
9.8886872644
 20
21.8967617007
 11
9.8799605196
 21
21.883671399
  0
LINE
  5
270
100
AcDbEntity
  8
DRAFT
100
AcDbLine
 62
7
  6
CONTINUOUS
 10
9.8799605196
 20
-22.8901479976
 11
9.8886872644
 21
-22.9032382993
  0
LWPOLYLINE
  5
271
100
AcDbEntity
  8
RACCORDO
100
AcDbPolyline
 62
250
  6
CONTINUOUS
 90
16
 70
0
 10
7.2570167752
 20
-21.1597484622
 10
7.2634011382
 20
-21.1752834194
 10
7.2781911099
 20
-21.1906267402
 10
7.3012299876
 20
-21.2056158591
 10
7.3322736698
 20
-21.2200919635
 10
7.3709932427
 20
-21.2339016762
 10
7.4169784649
 20
-21.2468986806
 10
7.4697421138
 20
-21.2589452709
 10
7.5287251482
 20
-21.2699138111
 10
7.5933026315
 20
-21.2796880874
 10
7.6627903524
 20
-21.2881645394
 10
7.7364520749
 20
-21.2952533574
 10
7.8135073388
 20
-21.3008794342
 10
7.8931397282
 20
-21.3049831605
 10
7.9745055225
 20
-21.3075210564
 10
8.0567426352
 20
-21.3084662324
  0
LWPOLYLINE
  5
272
100
AcDbEntity
  8
RACCORDO
100
AcDbPolyline
 62
250
  6
CONTINUOUS
 90
22
 70
0
 10
7.238889026
 20
-21.7228875884
 10
7.2401972518
 20
-21.7267491506
 10
7.2414867819
 20
-21.7270973732
 10
7.2427576161
 20
-21.7239322562
 10
7.2440164776
 20
-21.7172060358
 10
7.2452566432
 20
-21.7069664759
 10
7.2464579445
 20
-21.6933568673
 10
7.2476194508
 20
-21.6763196605
 10
7.2487420927
 20
-21.655912405
 10
7.2498084936
 20
-21.6324510404
 10
7.2508175514
 20
-21.6058942561
 10
7.2517703682
 20
-21.5762833628
 10
7.2526528741
 20
-21.5440582312
 10
7.2534641469
 20
-21.5091735611
 10
7.2542051088
 20
-21.4716746527
 10
7.2548644571
 20
-21.4321372788
 10
7.2554409162
 20
-21.3905129317
 10
7.2559357618
 20
-21.3468501191
 10
7.256341518
 20
-21.3018701363
 10
7.256655693
 20
-21.2558134151
 10
7.2568807788
 20
-21.2084395238
 10
7.262558472
 20
-17.8227982467
  0
LWPOLYLINE
  5
273
100
AcDbEntity
  8
RACCORDO
100
AcDbPolyline
 62
7
  6
CONTINUOUS
 90
31
 70
0
 10
7.2593808091
 20
-21.9014200049
 10
7.2609296765
 20
-21.9079666023
 10
7.2682612119
 20
-21.9362241158
 10
7.2770826367
 20
-21.9657616591
 10
7.2873553423
 20
-21.9958948278
 10
7.2991884461
 20
-22.0265503721
 10
7.3126990577
 20
-22.0576644626
 10
7.3276909644
 20
-22.0885448757
 10
7.344086923
 20
-22.1189368042
 10
7.3619955709
 20
-22.1489524713
 10
7.3814038351
 20
-22.1784663818
 10
7.4022875184
 20
-22.2073562254
 10
7.4246736908
 20
-22.2355784181
 10
7.4486207042
 20
-22.2631138291
 10
7.4741461787
 20
-22.2898815279
 10
7.5012273184
 20
-22.3157601257
 10
7.5298632638
 20
-22.3406554605
 10
7.5600362366
 20
-22.3644599471
 10
7.5917198898
 20
-22.3870631099
 10
7.6248919609
 20
-22.4083603896
 10
7.6595102767
 20
-22.4282368938
 10
7.6955279709
 20
-22.4465794329
 10
7.7329055056
 20
-22.4632810337
 10
7.771577342
 20
-22.4782250112
 10
7.8114692894
 20
-22.4912960752
 10
7.8525169883
 20
-22.5023853211
 10
7.8946273235
 20
-22.5113783607
 10
7.9376964034
 20
-22.5181638139
 10
7.9816297752
 20
-22.5226357855
 10
8.0263096244
 20
-22.5246885991
 10
8.0406979944
 20
-22.5248178653
  0
LINE
  5
274
100
AcDbEntity
  8
RACCORDO
100
AcDbLine
 62
7
  6
CONTINUOUS
 10
7.1089668917
 20
-21.2511565874
 11
7.2593792044
 21
-21.9014203609
  0
LINE
  5
275
100
AcDbEntity
  8
RACCORDO
100
AcDbLine
 62
250
  6
CONTINUOUS
 10
7.0886872644
 20
-21.0735321877
 11
7.238889026
 21
-21.7228875884
  0
LINE
  5
276
100
AcDbEntity
  8
RACCORDO
100
AcDbLine
 62
7
  6
CONTINUOUS
 10
22.5846046295
 20
23.2926790659
 11
22.5886872644
 21
23.2967617007
  0
LINE
  5
277
100
AcDbEntity
  8
RACCORDO
100
AcDbLine
 62
7
  6
CONTINUOUS
 10
22.5846046295
 20
-24.2991556645
 11
22.5886872644
 21
-24.3032382993
  0
LWPOLYLINE
  5
278
100
AcDbEntity
  8
RACCORDO
100
AcDbPolyline
 62
250
  6
CONTINUOUS
 90
4
 70
0
 10
7.238889026
 20
-21.7228875884
 10
7.243287765
 20
-21.8059461502
 10
7.2563976368
 20
-21.888067122
 10
7.2591941937
 20
-21.9006224044
  0
LWPOLYLINE
  5
279
100
AcDbEntity
  8
RACCORDO
100
AcDbPolyline
 62
7
  6
CONTINUOUS
 90
31
 70
0
 10
7.0386872644
 20
-22.5532249719
 10
7.0391669034
 20
-22.5715428061
 10
7.0406045087
 20
-22.5898104544
 10
7.0429961445
 20
-22.6079778522
 10
7.0463352595
 20
-22.6259952117
 10
7.0506127062
 20
-22.6438131512
 10
7.0558167663
 20
-22.6613828303
 10
7.0619331811
 20
-22.6786560958
 10
7.068945191
 20
-22.6955856061
 10
7.0768335828
 20
-22.7121249532
 10
7.0855767404
 20
-22.7282288063
 10
7.0951507044
 20
-22.7438530275
 10
7.1055292387
 20
-22.758954784
 10
7.1166839016
 20
-22.7734926836
 10
7.1285841232
 20
-22.7874268791
 10
7.1411972901
 20
-22.8007191682
 10
7.1544888343
 20
-22.8133331167
 10
7.1684223283
 20
-22.8252341495
 10
7.1829595835
 20
-22.8363896366
 10
7.198060757
 20
-22.8467689993
 10
7.2136844599
 20
-22.8563437862
 10
7.2297878693
 20
-22.8650877441
 10
7.2463268482
 20
-22.8729769028
 10
7.2632560655
 20
-22.8799896359
 10
7.2805291192
 20
-22.8861067138
 10
7.2980986647
 20
-22.8913113656
 10
7.3159165454
 20
-22.8955893224
 10
7.3339339234
 20
-22.898928852
 10
7.3521014134
 20
-22.9013207955
 10
7.370369218
 20
-22.9027585932
 10
7.3886872644
 20
-22.9032382993
  0
LINE
  5
27A
100
AcDbEntity
  8
RACCORDO
100
AcDbLine
 62
7
  6
CONTINUOUS
 10
7.6025046102
 20
-24.1310695156
 11
7.5974140091
 21
-23.6258880301
  0
LWPOLYLINE
  5
27B
100
AcDbEntity
  8
RACCORDO
100
AcDbPolyline
 62
250
  6
CONTINUOUS
 90
21
 70
0
 10
7.2568805713
 20
19.2823643349
 10
7.2566552495
 20
19.3318659214
 10
7.2563408096
 20
19.3808722279
 10
7.2559347748
 20
19.4296444095
 10
7.255439622
 20
19.4779213112
 10
7.2548627823
 20
19.524919468
 10
7.2542029085
 20
19.5706069085
 10
7.2534613479
 20
19.6150156042
 10
7.2526495739
 20
19.6574580045
 10
7.2517666985
 20
19.6978944051
 10
7.2508136097
 20
19.7363645104
 10
7.2498044454
 20
19.7722998833
 10
7.24873818
 20
19.8056679797
 10
7.2476158392
 20
19.8365013436
 10
7.2464546375
 20
19.8643291701
 10
7.2452535261
 20
19.8891055778
 10
7.2440135538
 20
19.9108764481
 10
7.2427550816
 20
19.9293086189
 10
7.2414848963
 20
19.9442910364
 10
7.2401962112
 20
19.9559347545
 10
7.238889026
 20
19.9642397731
  0
LINE
  5
27C
100
AcDbEntity
  8
RACCORDO
100
AcDbLine
 62
7
  6
CONTINUOUS
 10
7.0386872644
 20
21.5249312038
 11
7.0386872644
 21
21.4967617007
  0
LINE
  5
27D
100
AcDbEntity
  8
ASSI
100
AcDbLine
 62
7
  6
CONTINUOUS
 10
7.0386872644
 20
21.4967617007
 11
7.0386872644
 21
-22.5032382993
  0
LINE
  5
27E
100
AcDbEntity
  8
RACCORDO
100
AcDbLine
 62
7
  6
CONTINUOUS
 10
7.0386872644
 20
-22.5032382993
 11
7.0386872644
 21
-22.5314078024
  0
LINE
  5
27F
100
AcDbEntity
  8
RACCORDO
100
AcDbLine
 62
7
  6
CONTINUOUS
 10
7.0886872644
 20
-21.0735321877
 11
7.0886872644
 21
20.7129631091
  0
LINE
  5
280
100
AcDbEntity
  8
RACCORDO
100
AcDbLine
 62
250
  6
CONTINUOUS
 10
7.3886872644
 20
-22.9032382993
 11
7.3886872644
 21
-22.8814211298
  0
LINE
  5
281
100
AcDbEntity
  8
RACCORDO
100
AcDbLine
 62
250
  6
CONTINUOUS
 10
7.3886872644
 20
21.8749445312
 11
7.3886872644
 21
21.8967617007
  0
LINE
  5
282
100
AcDbEntity
  8
RACCORDO
100
AcDbLine
 62
7
  6
CONTINUOUS
 10
7.5886872644
 20
-22.9032382993
 11
7.5886872644
 21
-24.9032382993
  0
LINE
  5
283
100
AcDbEntity
  8
RACCORDO
100
AcDbLine
 62
7
  6
CONTINUOUS
 10
7.5886872644
 20
21.8967617007
 11
7.5886872644
 21
23.8967617007
  0
LINE
  5
284
100
AcDbEntity
  8
DRAFT
100
AcDbLine
 62
7
  6
CONTINUOUS
 10
7.5974140091
 20
-23.6258880301
 11
7.5974140091
 21
-22.8901479976
  0
LINE
  5
285
100
AcDbEntity
  8
DRAFT
100
AcDbLine
 62
7
  6
CONTINUOUS
 10
7.5974140091
 20
21.883671399
 11
7.5974140091
 21
22.6194114315
  0
LINE
  5
286
100
AcDbEntity
  8
RACCORDO
100
AcDbLine
 62
7
  6
CONTINUOUS
 10
7.6032318389
 20
-24.6401439514
 11
7.6032318389
 21
-24.3475758666
  0
LINE
  5
287
100
AcDbEntity
  8
RACCORDO
100
AcDbLine
 62
7
  6
CONTINUOUS
 10
7.6032318389
 20
23.341099268
 11
7.6032318389
 21
23.6336673528
  0
LWPOLYLINE
  5
288
100
AcDbEntity
  8
RACCORDO
100
AcDbPolyline
 62
250
  6
CONTINUOUS
 90
12
 70
0
 10
7.262558472
 20
-17.8227982467
 10
7.2670927506
 20
-14.4798527673
 10
7.2706196108
 20
-11.130912024
 10
7.2731392512
 20
-7.7755413674
 10
7.2746514733
 20
-4.414175447
 10
7.2751556815
 20
-1.048118211
 10
7.2746514799
 20
2.3226315232
 10
7.2731392644
 20
5.6980725729
 10
7.2706196269
 20
9.076897442
 10
7.2670927649
 20
12.4586702982
 10
7.262558481
 20
15.8438269738
 10
7.2568805713
 20
19.2823643349
  0
LINE
  5
289
100
AcDbEntity
  8
RACCORDO
100
AcDbLine
 62
7
  6
CONTINUOUS
 10
7.5974140091
 20
22.6194114315
 11
7.6025046102
 21
23.1245929171
  0
LWPOLYLINE
  5
28A
100
AcDbEntity
  8
RACCORDO
100
AcDbPolyline
 62
7
  6
CONTINUOUS
 90
31
 70
0
 10
7.0386872644
 20
21.5467483733
 10
7.0391669034
 20
21.5650662075
 10
7.0406045087
 20
21.5833338558
 10
7.0429961445
 20
21.6015012536
 10
7.0463352595
 20
21.6195186131
 10
7.0506127062
 20
21.6373365526
 10
7.0558167663
 20
21.6549062317
 10
7.0619331811
 20
21.6721794972
 10
7.068945191
 20
21.6891090075
 10
7.0768335828
 20
21.7056483546
 10
7.0855767404
 20
21.7217522078
 10
7.0951507044
 20
21.7373764289
 10
7.1055292387
 20
21.7524781854
 10
7.1166839016
 20
21.7670160851
 10
7.1285841232
 20
21.7809502805
 10
7.1411972901
 20
21.7942425696
 10
7.1544888343
 20
21.8068565181
 10
7.1684223283
 20
21.8187575509
 10
7.1829595835
 20
21.829913038
 10
7.198060757
 20
21.8402924007
 10
7.2136844599
 20
21.8498671876
 10
7.2297878693
 20
21.8586111455
 10
7.2463268482
 20
21.8665003042
 10
7.2632560655
 20
21.8735130373
 10
7.2805291192
 20
21.8796301152
 10
7.2980986647
 20
21.884834767
 10
7.3159165454
 20
21.8891127238
 10
7.3339339234
 20
21.8924522534
 10
7.3521014134
 20
21.8948441969
 10
7.370369218
 20
21.8962819946
 10
7.3886872644
 20
21.8967617007
  0
LWPOLYLINE
  5
28B
100
AcDbEntity
  8
RACCORDO
100
AcDbPolyline
 62
250
  6
CONTINUOUS
 90
16
 70
0
 10
7.238889026
 20
19.9642397731
 10
7.243287828
 20
20.0471491665
 10
7.2563978677
 20
20.1291784047
 10
7.2780755506
 20
20.2094290194
 10
7.3080834404
 20
20.2870220236
 10
7.34609286
 20
20.361107539
 10
7.3916874912
 20
20.4308741052
 10
7.4443679348
 20
20.4955575671
 10
7.5035571806
 20
20.5544494451
 10
7.5686069272
 20
20.6069046949
 10
7.6388046832
 20
20.6523487729
 10
7.7133815706
 20
20.6902839289
 10
7.7915207468
 20
20.7202946581
 10
7.8723663516
 20
20.7420522522
 10
7.9550328809
 20
20.7553183997
 10
8.038614886
 20
20.7599477962
  0
LWPOLYLINE
  5
28C
100
AcDbEntity
  8
RACCORDO
100
AcDbPolyline
 62
250
  6
CONTINUOUS
 90
22
 70
0
 10
8.0622843497
 20
15.7947656633
 10
8.0566050375
 20
19.2983419957
 10
8.0563787128
 20
19.4048966084
 10
8.0560636613
 20
19.510774745
 10
8.0556574818
 20
19.6154347925
 10
8.0551625754
 20
19.7183539945
 10
8.0545861451
 20
19.8190299434
 10
8.0539267341
 20
19.9169675594
 10
8.0531857992
 20
20.011654474
 10
8.0523749141
 20
20.1025847529
 10
8.0514933333
 20
20.1892819672
 10
8.0505418024
 20
20.2713305976
 10
8.0495341315
 20
20.3483461948
 10
8.0484691119
 20
20.4199508567
 10
8.0473479524
 20
20.4857624896
 10
8.0461880895
 20
20.5454301114
 10
8.0449892659
 20
20.5986465722
 10
8.043751739
 20
20.645152317
 10
8.0424937167
 20
20.6847184881
 10
8.0412212685
 20
20.7171449016
 10
8.0399283249
 20
20.7422641729
 10
8.038614886
 20
20.7599477962
  0
LWPOLYLINE
  5
28D
100
AcDbEntity
  8
RACCORDO
100
AcDbPolyline
 62
250
  6
CONTINUOUS
 90
12
 70
0
 10
8.0566050837
 20
-21.4124618153
 10
8.0622843499
 20
-17.9632950638
 10
8.0668186391
 20
-14.6112555556
 10
8.0703455029
 20
-11.2527790178
 10
8.0728651356
 20
-7.8882976235
 10
8.0743773429
 20
-4.5182442339
 10
8.0748815415
 20
-1.1430523422
 10
8.0743773427
 20
2.236843771
 10
8.0728651354
 20
5.6210092195
 10
8.0703455026
 20
9.0090086953
 10
8.0668186389
 20
12.4004063126
 10
8.0622843497
 20
15.7947656633
  0
LWPOLYLINE
  5
28E
100
AcDbEntity
  8
0
100
AcDbPolyline
 62
7
  6
CONTINUOUS
 90
3
 70
0
 43
0.3500000006
 10
19.331545372
 20
32.9324759674
 10
19.2601164551
 20
32.7181914825
 10
19.1172586212
 20
32.4324758148
  0
LINE
  5
28F
100
AcDbEntity
  8
RACCORDO
100
AcDbLine
 62
7
  6
CONTINUOUS
 10
22.5846046295
 20
21.8906376621
 11
22.5886872644
 21
21.8967617007
  0
LINE
  5
290
100
AcDbEntity
  8
RACCORDO
100
AcDbLine
 62
7
  6
CONTINUOUS
 10
28.7755886856
 20
23.883663122
 11
28.7886872644
 21
23.8967617007
  0
LWPOLYLINE
  5
291
100
AcDbEntity
  8
RACCORDO
100
AcDbPolyline
 62
250
  6
CONTINUOUS
 90
16
 70
0
 10
29.1203577535
 20
19.2323674686
 10
29.1139733917
 20
19.2279383591
 10
29.099183421
 20
19.2235832172
 10
29.0761445441
 20
19.2193481866
 10
29.0451008625
 20
19.2152781382
 10
29.00638129
 20
19.2114161949
 10
28.9603960681
 20
19.2078032749
 10
28.9076324192
 20
19.2044776577
 10
28.8486493846
 20
19.2014745788
 10
28.7840719011
 20
19.1988258566
 10
28.7145841798
 20
19.1965595547
 10
28.6409224567
 20
19.194699685
 10
28.5638671922
 20
19.1932659533
 10
28.4842348021
 20
19.1922735504
 10
28.402869007
 20
19.191732991
 10
28.3206318936
 20
19.1916500023
  0
LINE
  5
292
100
AcDbEntity
  8
RACCORDO
100
AcDbLine
 62
7
  6
CONTINUOUS
 10
28.7755886856
 20
-24.8901397206
 11
28.7886872644
 21
-24.9032382993
  0
LINE
  5
293
100
AcDbEntity
  8
RACCORDO
100
AcDbLine
 62
7
  6
CONTINUOUS
 10
22.5846046295
 20
-22.8971142607
 11
22.5886872644
 21
-22.9032382993
  0
LINE
  5
294
100
AcDbEntity
  8
RACCORDO
100
AcDbLine
 62
7
  6
CONTINUOUS
 10
9.8799605196
 20
22.6194114315
 11
9.8748699186
 21
23.1245929171
  0
LINE
  5
295
100
AcDbEntity
  8
RACCORDO
100
AcDbLine
 62
7
  6
CONTINUOUS
 10
9.8741426898
 20
23.6336673528
 11
9.8741426898
 21
23.341099268
  0
LINE
  5
296
100
AcDbEntity
  8
RACCORDO
100
AcDbLine
 62
7
  6
CONTINUOUS
 10
9.8741426898
 20
-24.3475758666
 11
9.8741426898
 21
-24.6401439514
  0
LINE
  5
297
100
AcDbEntity
  8
DRAFT
100
AcDbLine
 62
7
  6
CONTINUOUS
 10
9.8799605196
 20
-23.6258880301
 11
9.8799605196
 21
-22.8901479976
  0
LINE
  5
298
100
AcDbEntity
  8
DRAFT
100
AcDbLine
 62
7
  6
CONTINUOUS
 10
9.8799605196
 20
21.883671399
 11
9.8799605196
 21
22.6194114315
  0
LINE
  5
299
100
AcDbEntity
  8
RACCORDO
100
AcDbLine
 62
7
  6
CONTINUOUS
 10
9.8886872644
 20
-22.9032382993
 11
9.8886872644
 21
-24.9032382993
  0
LINE
  5
29A
100
AcDbEntity
  8
RACCORDO
100
AcDbLine
 62
7
  6
CONTINUOUS
 10
9.8886872644
 20
21.8967617007
 11
9.8886872644
 21
23.8967617007
  0
LINE
  5
29B
100
AcDbEntity
  8
RACCORDO
100
AcDbLine
 62
7
  6
CONTINUOUS
 10
9.8748699186
 20
-24.1310695156
 11
9.8799605196
 21
-23.6258880301
  0
LINE
  5
29C
100
AcDbEntity
  8
RACCORDO
100
AcDbLine
 62
250
  6
CONTINUOUS
 10
7.238889026
 20
19.9642397731
 11
7.0886872644
 21
20.7129631091
  0
LINE
  5
29D
100
AcDbEntity
  8
RACCORDO
100
AcDbLine
 62
250
  6
CONTINUOUS
 10
8.038614886
 20
20.7599477962
 11
7.8887786885
 21
21.5068488741
  0
LINE
  5
29E
100
AcDbEntity
  8
DRAFT
100
AcDbLine
 62
7
  6
CONTINUOUS
 10
13.7886872644
 20
-24.3032382993
 11
13.7886872644
 21
-22.9032382993
  0
LINE
  5
29F
100
AcDbEntity
  8
DRAFT
100
AcDbLine
 62
7
  6
CONTINUOUS
 10
13.7886872644
 20
21.8967617007
 11
13.7886872644
 21
23.2967617007
  0
LINE
  5
2A0
100
AcDbEntity
  8
RACCORDO
100
AcDbLine
 62
250
  6
CONTINUOUS
 10
13.7927698992
 20
23.2926790659
 11
13.7927698992
 21
21.8906376621
  0
LINE
  5
2A1
100
AcDbEntity
  8
RACCORDO
100
AcDbLine
 62
250
  6
CONTINUOUS
 10
13.7927698992
 20
-22.8971142607
 11
13.7927698992
 21
-24.2991556645
  0
LINE
  5
2A2
100
AcDbEntity
  8
RACCORDO
100
AcDbLine
 62
250
  6
CONTINUOUS
 10
14.0927648223
 20
23.2909438709
 11
14.0927648223
 21
21.8880348329
  0
LINE
  5
2A3
100
AcDbEntity
  8
RACCORDO
100
AcDbLine
 62
250
  6
CONTINUOUS
 10
14.0927648223
 20
-22.8945114315
 11
14.0927648223
 21
-24.2974204695
  0
LINE
  5
2A4
100
AcDbEntity
  8
DRAFT
100
AcDbLine
 62
7
  6
CONTINUOUS
 10
28.7886872644
 20
21.8967617007
 11
28.7799605196
 21
21.883671399
  0
LWPOLYLINE
  5
2A5
100
AcDbEntity
  8
0
100
AcDbPolyline
 62
7
  6
CONTINUOUS
 90
2
 70
0
 43
0.3500000006
 10
36.5886883163
 20
-3.896095047
 10
35.0886878586
 20
-3.896095047
  0
LINE
  5
2A6
100
AcDbEntity
  8
DRAFT
100
AcDbLine
 62
7
  6
CONTINUOUS
 10
28.7799605196
 20
-22.8901479976
 11
28.7886872644
 21
-22.9032382993
  0
LWPOLYLINE
  5
2A7
100
AcDbEntity
  8
0
100
AcDbPolyline
 62
7
  6
CONTINUOUS
 90
4
 70
0
 43
0.3500000006
 10
36.1601148148
 20
-2.5389524231
 10
35.3029723434
 20
-2.5389524231
 10
34.8744011078
 20
-2.1103811874
 10
34.8744011078
 20
-1.467524334
  0
LINE
  5
2A8
100
AcDbEntity
  8
ASSI
100
AcDbLine
 62
7
  6
CONTINUOUS
 10
7.0386872644
 20
-0.5032382993
 11
7.0886872644
 21
-0.5032382993
  0
LINE
  5
2A9
100
AcDbEntity
  8
ASSI
100
AcDbLine
 62
7
  6
CONTINUOUS
 10
29.2886872644
 20
-0.5032382993
 11
29.3386872644
 21
-0.5032382993
  0
LINE
  5
2AA
100
AcDbEntity
  8
DRAFT
100
AcDbLine
 62
7
  6
CONTINUOUS
 10
7.5974140091
 20
-22.8901479976
 11
7.5886872644
 21
-22.9032382993
  0
LWPOLYLINE
  5
2AB
100
AcDbEntity
  8
0
100
AcDbPolyline
 62
7
  6
CONTINUOUS
 90
4
 70
0
 43
0.3500000006
 10
36.1601148148
 20
1.5324754486
 10
35.3029723434
 20
1.5324754486
 10
34.8744011078
 20
1.9610466843
 10
34.8744011078
 20
2.6039046707
  0
LINE
  5
2AC
100
AcDbEntity
  8
DRAFT
100
AcDbLine
 62
7
  6
CONTINUOUS
 10
7.5886872644
 20
21.8967617007
 11
7.5974140091
 21
21.883671399
  0
LINE
  5
2AD
100
AcDbEntity
  8
RACCORDO
100
AcDbLine
 62
250
  6
CONTINUOUS
 10
22.2846097065
 20
-24.2974204695
 11
22.2846097065
 21
-22.8945114315
  0
LINE
  5
2AE
100
AcDbEntity
  8
RACCORDO
100
AcDbLine
 62
250
  6
CONTINUOUS
 10
22.2846097065
 20
21.8880348329
 11
22.2846097065
 21
23.2909438709
  0
LINE
  5
2AF
100
AcDbEntity
  8
RACCORDO
100
AcDbLine
 62
250
  6
CONTINUOUS
 10
22.5846046295
 20
-24.2991556645
 11
22.5846046295
 21
-22.8971142607
  0
LINE
  5
2B0
100
AcDbEntity
  8
RACCORDO
100
AcDbLine
 62
250
  6
CONTINUOUS
 10
22.5846046295
 20
21.8906376621
 11
22.5846046295
 21
23.2926790659
  0
LINE
  5
2B1
100
AcDbEntity
  8
DRAFT
100
AcDbLine
 62
7
  6
CONTINUOUS
 10
22.5886872644
 20
23.2967617007
 11
22.5886872644
 21
21.8967617007
  0
LINE
  5
2B2
100
AcDbEntity
  8
DRAFT
100
AcDbLine
 62
7
  6
CONTINUOUS
 10
22.5886872644
 20
-22.9032382993
 11
22.5886872644
 21
-24.3032382993
  0
LINE
  5
2B3
100
AcDbEntity
  8
RACCORDO
100
AcDbLine
 62
250
  6
CONTINUOUS
 10
28.4885958403
 20
21.5068488741
 11
28.3387596427
 21
20.7599477962
  0
LINE
  5
2B4
100
AcDbEntity
  8
RACCORDO
100
AcDbLine
 62
250
  6
CONTINUOUS
 10
29.2886872644
 20
20.7129631091
 11
29.1384855027
 21
19.9642397731
  0
LWPOLYLINE
  5
2B5
100
AcDbEntity
  8
RACCORDO
100
AcDbPolyline
 62
250
  6
CONTINUOUS
 90
20
 70
0
 10
8.0407025509
 20
-22.5248351335
 10
8.0412216494
 20
-22.5242100501
 10
8.0424941916
 20
-22.5173382881
 10
8.0437522005
 20
-22.5029167673
 10
8.0449896497
 20
-22.4810201266
 10
8.0461884602
 20
-22.4517552431
 10
8.0473484633
 20
-22.4152620407
 10
8.0484698276
 20
-22.3717272014
 10
8.0495349801
 20
-22.3213845647
 10
8.0505426611
 20
-22.264505931
 10
8.0514941303
 20
-22.2013723539
 10
8.0523755947
 20
-22.1322798259
 10
8.0531862696
 20
-22.0575583929
 10
8.0539269396
 20
-21.9775971699
 10
8.0545861664
 20
-21.8928207888
 10
8.0551625707
 20
-21.8036715398
 10
8.0556575317
 20
-21.7105904856
 10
8.0560637488
 20
-21.6140356628
 10
8.0563787882
 20
-21.5144902478
 10
8.0566050837
 20
-21.4124618153
  0
LWPOLYLINE
  5
2B6
100
AcDbEntity
  8
0
100
AcDbPolyline
 62
7
  6
CONTINUOUS
 90
10
 70
0
 43
0.3500000006
 10
36.0886881638
 20
0.4610484924
 10
36.2315437317
 20
0.5324751434
 10
36.3029726486
 20
0.5324751434
 10
36.4458304825
 20
0.3896195755
 10
36.4458304825
 20
0.3181906586
 10
36.3744015656
 20
0.2467617416
 10
36.3029726486
 20
0.2467617416
 10
36.1601148148
 20
0.3181906586
 10
36.0886881638
 20
0.3896195755
 10
36.0886881638
 20
0.4610484924
  0
LWPOLYLINE
  5
2B7
100
AcDbEntity
  8
0
100
AcDbPolyline
 62
7
  6
CONTINUOUS
 90
3
 70
0
 43
0.3500000006
 10
36.3029726486
 20
0.5324751434
 10
36.5172593994
 20
0.4610484924
 10
36.8029728012
 20
0.3181906586
  0
LINE
  5
2B8
100
AcDbEntity
  8
RACCORDO
100
AcDbLine
 62
7
  6
CONTINUOUS
 10
26.5025046102
 20
-24.1310695156
 11
26.4974140091
 21
-23.6258880301
  0
LINE
  5
2B9
100
AcDbEntity
  8
RACCORDO
100
AcDbLine
 62
7
  6
CONTINUOUS
 10
26.4886872644
 20
-22.9032382993
 11
26.4886872644
 21
-24.9032382993
  0
LINE
  5
2BA
100
AcDbEntity
  8
RACCORDO
100
AcDbLine
 62
7
  6
CONTINUOUS
 10
26.4886872644
 20
21.8967617007
 11
26.4886872644
 21
23.8967617007
  0
LINE
  5
2BB
100
AcDbEntity
  8
DRAFT
100
AcDbLine
 62
7
  6
CONTINUOUS
 10
26.4974140091
 20
-23.6258880301
 11
26.4974140091
 21
-22.8901479976
  0
LINE
  5
2BC
100
AcDbEntity
  8
DRAFT
100
AcDbLine
 62
7
  6
CONTINUOUS
 10
26.4974140091
 20
21.883671399
 11
26.4974140091
 21
22.6194114315
  0
LINE
  5
2BD
100
AcDbEntity
  8
RACCORDO
100
AcDbLine
 62
7
  6
CONTINUOUS
 10
26.5032318389
 20
-24.6401439514
 11
26.5032318389
 21
-24.3475758666
  0
LINE
  5
2BE
100
AcDbEntity
  8
RACCORDO
100
AcDbLine
 62
7
  6
CONTINUOUS
 10
26.5032318389
 20
23.341099268
 11
26.5032318389
 21
23.6336673528
  0
LINE
  5
2BF
100
AcDbEntity
  8
RACCORDO
100
AcDbLine
 62
7
  6
CONTINUOUS
 10
26.4974140091
 20
22.6194114315
 11
26.5025046102
 21
23.1245929171
  0
LWPOLYLINE
  5
2C0
100
AcDbEntity
  8
RACCORDO
100
AcDbPolyline
 62
250
  6
CONTINUOUS
 90
21
 70
0
 10
28.3387596427
 20
20.7599477962
 10
28.3374462039
 20
20.7422641729
 10
28.3361532603
 20
20.7171449016
 10
28.3348808121
 20
20.6847184881
 10
28.3336227898
 20
20.645152317
 10
28.3323852628
 20
20.5986465722
 10
28.3311864392
 20
20.5454301114
 10
28.3300265763
 20
20.4857624896
 10
28.3289054168
 20
20.4199508567
 10
28.3278403972
 20
20.3483461948
 10
28.3268327264
 20
20.2713305976
 10
28.3258811954
 20
20.1892819672
 10
28.3249996147
 20
20.1025847529
 10
28.3241887296
 20
20.011654474
 10
28.3234477947
 20
19.9169675594
 10
28.3227883836
 20
19.8190299434
 10
28.3222119534
 20
19.7183539945
 10
28.321717047
 20
19.6154347925
 10
28.3213108675
 20
19.510774745
 10
28.3209958159
 20
19.4048966084
 10
28.3207694913
 20
19.2983419957
  0
LWPOLYLINE
  5
2C1
100
AcDbEntity
  8
RACCORDO
100
AcDbPolyline
 62
250
  6
CONTINUOUS
 90
22
 70
0
 10
29.1384855027
 20
19.9642397731
 10
29.1371783176
 20
19.9559347544
 10
29.1358896324
 20
19.9442910364
 10
29.1346194472
 20
19.9293086189
 10
29.1333609749
 20
19.9108764481
 10
29.1321210027
 20
19.8891055779
 10
29.1309198913
 20
19.8643291701
 10
29.1297586895
 20
19.8365013437
 10
29.1286363487
 20
19.8056679797
 10
29.1275700833
 20
19.7722998833
 10
29.1265609191
 20
19.7363645104
 10
29.1256078303
 20
19.6978944051
 10
29.1247249548
 20
19.6574580045
 10
29.1239131809
 20
19.6150156042
 10
29.1231716202
 20
19.5706069085
 10
29.1225117464
 20
19.524919468
 10
29.1219349068
 20
19.4779213112
 10
29.1214397539
 20
19.4296444095
 10
29.1210337191
 20
19.3808722279
 10
29.1207192793
 20
19.3318659214
 10
29.1204939574
 20
19.2823643349
 10
29.1148160477
 20
15.8438269738
  0
LINE
  5
2C2
100
AcDbEntity
  8
RACCORDO
100
AcDbLine
 62
7
  6
CONTINUOUS
 10
13.7927698992
 20
-22.8971142607
 11
13.7886872644
 21
-22.9032382993
  0
LINE
  5
2C3
100
AcDbEntity
  8
RACCORDO
100
AcDbLine
 62
7
  6
CONTINUOUS
 10
13.7927698992
 20
21.8906376621
 11
13.7886872644
 21
21.8967617007
  0
LINE
  5
2C4
100
AcDbEntity
  8
RACCORDO
100
AcDbLine
 62
7
  6
CONTINUOUS
 10
28.7799605196
 20
22.6194114315
 11
28.7748699186
 21
23.1245929171
  0
LWPOLYLINE
  5
2C5
100
AcDbEntity
  8
RACCORDO
100
AcDbPolyline
 62
250
  6
CONTINUOUS
 90
21
 70
0
 10
29.12049375
 20
-21.2084395238
 10
29.1207188357
 20
-21.2558134151
 10
29.1210330107
 20
-21.3018701363
 10
29.121438767
 20
-21.3468501191
 10
29.1219336125
 20
-21.3905129318
 10
29.1225100716
 20
-21.4321372789
 10
29.1231694199
 20
-21.4716746527
 10
29.1239103818
 20
-21.5091735611
 10
29.1247216546
 20
-21.5440582312
 10
29.1256041606
 20
-21.5762833628
 10
29.1265569774
 20
-21.6058942561
 10
29.1275660351
 20
-21.6324510404
 10
29.128632436
 20
-21.655912405
 10
29.1297550779
 20
-21.6763196605
 10
29.1309165842
 20
-21.6933568673
 10
29.1321178855
 20
-21.7069664759
 10
29.1333580512
 20
-21.7172060358
 10
29.1346169126
 20
-21.7239322561
 10
29.1358877469
 20
-21.7270973732
 10
29.1371772769
 20
-21.7267491506
 10
29.1384855027
 20
-21.7228875884
  0
LWPOLYLINE
  5
2C6
100
AcDbEntity
  8
RACCORDO
100
AcDbPolyline
 62
250
  6
CONTINUOUS
 90
21
 70
0
 10
28.3150901789
 20
-17.9632950638
 10
28.320769445
 20
-21.4124618153
 10
28.3209957405
 20
-21.5144902478
 10
28.32131078
 20
-21.6140356628
 10
28.321716997
 20
-21.7105904856
 10
28.322211958
 20
-21.8036715398
 10
28.3227883623
 20
-21.8928207888
 10
28.3234475891
 20
-21.9775971699
 10
28.3241882592
 20
-22.0575583929
 10
28.324998934
 20
-22.1322798259
 10
28.3258803984
 20
-22.2013723539
 10
28.3268318677
 20
-22.264505931
 10
28.3278395486
 20
-22.3213845647
 10
28.3289047012
 20
-22.3717272014
 10
28.3300260655
 20
-22.4152620407
 10
28.3311860685
 20
-22.4517552431
 10
28.332384879
 20
-22.4810201266
 10
28.3336223282
 20
-22.5029167673
 10
28.3348803371
 20
-22.5173382881
 10
28.3361528793
 20
-22.5242100501
 10
28.3366718842
 20
-22.5248351322
  0
LINE
  5
2C7
100
AcDbEntity
  8
RACCORDO
100
AcDbLine
 62
7
  6
CONTINUOUS
 10
28.7741426898
 20
23.6336673528
 11
28.7741426898
 21
23.341099268
  0
LINE
  5
2C8
100
AcDbEntity
  8
RACCORDO
100
AcDbLine
 62
7
  6
CONTINUOUS
 10
28.7741426898
 20
-24.3475758666
 11
28.7741426898
 21
-24.6401439514
  0
LINE
  5
2C9
100
AcDbEntity
  8
DRAFT
100
AcDbLine
 62
7
  6
CONTINUOUS
 10
28.7799605196
 20
-23.6258880301
 11
28.7799605196
 21
-22.8901479976
  0
LINE
  5
2CA
100
AcDbEntity
  8
DRAFT
100
AcDbLine
 62
7
  6
CONTINUOUS
 10
28.7799605196
 20
21.883671399
 11
28.7799605196
 21
22.6194114315
  0
LINE
  5
2CB
100
AcDbEntity
  8
RACCORDO
100
AcDbLine
 62
7
  6
CONTINUOUS
 10
28.7886872644
 20
-22.9032382993
 11
28.7886872644
 21
-24.9032382993
  0
LINE
  5
2CC
100
AcDbEntity
  8
RACCORDO
100
AcDbLine
 62
7
  6
CONTINUOUS
 10
28.7886872644
 20
21.8967617007
 11
28.7886872644
 21
23.8967617007
  0
LINE
  5
2CD
100
AcDbEntity
  8
RACCORDO
100
AcDbLine
 62
250
  6
CONTINUOUS
 10
28.9886872644
 20
21.8967617007
 11
28.9886872644
 21
21.8749445312
  0
LINE
  5
2CE
100
AcDbEntity
  8
RACCORDO
100
AcDbLine
 62
250
  6
CONTINUOUS
 10
28.9886872644
 20
-22.8814211298
 11
28.9886872644
 21
-22.9032382993
  0
LWPOLYLINE
  5
2CF
100
AcDbEntity
  8
RACCORDO
100
AcDbPolyline
 62
250
  6
CONTINUOUS
 90
12
 70
0
 10
29.1148160477
 20
15.8438269738
 10
29.1102817638
 20
12.4586702982
 10
29.1067549018
 20
9.076897442
 10
29.1042352644
 20
5.6980725729
 10
29.1027230488
 20
2.3226315232
 10
29.1022188472
 20
-1.048118211
 10
29.1027230554
 20
-4.414175447
 10
29.1042352775
 20
-7.7755413674
 10
29.1067549179
 20
-11.130912024
 10
29.1102817782
 20
-14.4798527673
 10
29.1148160567
 20
-17.8227982467
 10
29.12049375
 20
-21.2084395238
  0
LWPOLYLINE
  5
2D0
100
AcDbEntity
  8
RACCORDO
100
AcDbPolyline
 62
250
  6
CONTINUOUS
 90
12
 70
0
 10
28.3207694913
 20
19.2983419957
 10
28.315090179
 20
15.7947656633
 10
28.3105558899
 20
12.4004063126
 10
28.3070290261
 20
9.0090086953
 10
28.3045093934
 20
5.6210092195
 10
28.302997186
 20
2.236843771
 10
28.3024929872
 20
-1.1430523422
 10
28.3029971859
 20
-4.5182442339
 10
28.3045093931
 20
-7.8882976235
 10
28.3070290258
 20
-11.2527790178
 10
28.3105558896
 20
-14.6112555556
 10
28.3150901789
 20
-17.9632950638
  0
LINE
  5
2D1
100
AcDbEntity
  8
RACCORDO
100
AcDbLine
 62
7
  6
CONTINUOUS
 10
28.7748699186
 20
-24.1310695156
 11
28.7799605196
 21
-23.6258880301
  0
LINE
  5
2D2
100
AcDbEntity
  8
RACCORDO
100
AcDbLine
 62
7
  6
CONTINUOUS
 10
7.6017858431
 20
-24.8901397206
 11
7.5886872644
 21
-24.9032382993
  0
LWPOLYLINE
  5
2D3
100
AcDbEntity
  8
RACCORDO
100
AcDbPolyline
 62
250
  6
CONTINUOUS
 90
16
 70
0
 10
7.2570167752
 20
19.2323674686
 10
7.2634017213
 20
19.2279384153
 10
7.2781921864
 20
19.2235833312
 10
7.3012314639
 20
19.2193483589
 10
7.3322754507
 20
19.2152783682
 10
7.3709952328
 20
19.211416481
 10
7.4169805706
 20
19.2078036144
 10
7.4697442451
 20
19.2044780471
 10
7.5287272203
 20
19.2014750137
 10
7.593304566
 20
19.1988263318
 10
7.6627920794
 20
19.1965600643
 10
7.7364535338
 20
19.1947002226
 10
7.8135084792
 20
19.1932665121
 10
7.8931405112
 20
19.1922741232
 10
7.9745059213
 20
19.1917335702
 10
8.0567426352
 20
19.1916505805
  0
LINE
  5
2D4
100
AcDbEntity
  8
RACCORDO
100
AcDbLine
 62
7
  6
CONTINUOUS
 10
7.6017858431
 20
23.883663122
 11
7.5886872644
 21
23.8967617007
  0
LWPOLYLINE
  5
2D5
100
AcDbEntity
  8
RACCORDO
100
AcDbPolyline
 62
250
  6
CONTINUOUS
 90
16
 70
0
 10
29.1384855027
 20
19.9642397731
 10
29.1340867977
 20
20.0471482515
 10
29.1209770163
 20
20.1291767457
 10
29.0992997026
 20
20.2094268051
 10
29.06929224
 20
20.2870194534
 10
29.0312832553
 20
20.3611048072
 10
28.9856890231
 20
20.4308713869
 10
28.9330088969
 20
20.4955550213
 10
28.8738198516
 20
20.5544471996
 10
28.8087701753
 20
20.6069028302
 10
28.7385723362
 20
20.6523473371
 10
28.6639952019
 20
20.6902829295
 10
28.5858556414
 20
20.7202940518
 10
28.5050095313
 20
20.7420519617
 10
28.4223423766
 20
20.7553183212
 10
28.3387596428
 20
20.7599477966
  0
LWPOLYLINE
  5
2D6
100
AcDbEntity
  8
RACCORDO
100
AcDbPolyline
 62
7
  6
CONTINUOUS
 90
31
 70
0
 10
29.3386872644
 20
21.5467483733
 10
29.3382076253
 20
21.5650662075
 10
29.33677002
 20
21.5833338558
 10
29.3343783843
 20
21.6015012536
 10
29.3310392693
 20
21.6195186131
 10
29.3267618226
 20
21.6373365526
 10
29.3215577625
 20
21.6549062317
 10
29.3154413476
 20
21.6721794972
 10
29.3084293377
 20
21.6891090075
 10
29.3005409459
 20
21.7056483546
 10
29.2917977883
 20
21.7217522078
 10
29.2822238244
 20
21.7373764289
 10
29.2718452901
 20
21.7524781854
 10
29.2606906272
 20
21.7670160851
 10
29.2487904055
 20
21.7809502805
 10
29.2361772387
 20
21.7942425696
 10
29.2228856944
 20
21.8068565181
 10
29.2089522004
 20
21.8187575509
 10
29.1944149453
 20
21.829913038
 10
29.1793137718
 20
21.8402924007
 10
29.1636900688
 20
21.8498671876
 10
29.1475866594
 20
21.8586111455
 10
29.1310476806
 20
21.8665003042
 10
29.1141184632
 20
21.8735130373
 10
29.0968454095
 20
21.8796301152
 10
29.079275864
 20
21.884834767
 10
29.0614579834
 20
21.8891127238
 10
29.0434406054
 20
21.8924522534
 10
29.0252731153
 20
21.8948441969
 10
29.0070053107
 20
21.8962819946
 10
28.9886872644
 20
21.8967617007
  0
LINE
  5
2D7
100
AcDbEntity
  8
RACCORDO
100
AcDbLine
 62
7
  6
CONTINUOUS
 10
29.2886872644
 20
-21.0735321877
 11
29.2886872644
 21
20.7129631091
  0
LINE
  5
2D8
100
AcDbEntity
  8
RACCORDO
100
AcDbLine
 62
7
  6
CONTINUOUS
 10
29.3386872644
 20
21.5249312038
 11
29.3386872644
 21
21.4967617007
  0
LINE
  5
2D9
100
AcDbEntity
  8
ASSI
100
AcDbLine
 62
7
  6
CONTINUOUS
 10
29.3386872644
 20
21.4967617007
 11
29.3386872644
 21
-22.5032382993
  0
LINE
  5
2DA
100
AcDbEntity
  8
RACCORDO
100
AcDbLine
 62
7
  6
CONTINUOUS
 10
29.3386872644
 20
-22.5032382993
 11
29.3386872644
 21
-22.5314078024
  0
LWPOLYLINE
  5
2DB
100
AcDbEntity
  8
RACCORDO
100
AcDbPolyline
 62
7
  6
CONTINUOUS
 90
31
 70
0
 10
29.3386872644
 20
-22.5532249719
 10
29.3382076253
 20
-22.5715428061
 10
29.33677002
 20
-22.5898104544
 10
29.3343783843
 20
-22.6079778522
 10
29.3310392693
 20
-22.6259952117
 10
29.3267618226
 20
-22.6438131512
 10
29.3215577625
 20
-22.6613828303
 10
29.3154413476
 20
-22.6786560958
 10
29.3084293377
 20
-22.6955856061
 10
29.3005409459
 20
-22.7121249532
 10
29.2917977883
 20
-22.7282288063
 10
29.2822238244
 20
-22.7438530275
 10
29.2718452901
 20
-22.758954784
 10
29.2606906272
 20
-22.7734926836
 10
29.2487904055
 20
-22.7874268791
 10
29.2361772387
 20
-22.8007191682
 10
29.2228856944
 20
-22.8133331167
 10
29.2089522004
 20
-22.8252341495
 10
29.1944149453
 20
-22.8363896366
 10
29.1793137718
 20
-22.8467689993
 10
29.1636900688
 20
-22.8563437862
 10
29.1475866594
 20
-22.8650877441
 10
29.1310476806
 20
-22.8729769028
 10
29.1141184632
 20
-22.8799896359
 10
29.0968454095
 20
-22.8861067138
 10
29.079275864
 20
-22.8913113656
 10
29.0614579834
 20
-22.8955893224
 10
29.0434406054
 20
-22.898928852
 10
29.0252731153
 20
-22.9013207955
 10
29.0070053107
 20
-22.9027585932
 10
28.9886872644
 20
-22.9032382993
  0
LWPOLYLINE
  5
2DC
100
AcDbEntity
  8
RACCORDO
100
AcDbPolyline
 62
250
  6
CONTINUOUS
 90
4
 70
0
 10
29.1384855027
 20
-21.7228875884
 10
29.1340867007
 20
-21.8059467457
 10
29.120976661
 20
-21.8880682003
 10
29.118180316
 20
-21.9006224869
  0
LWPOLYLINE
  5
2DD
100
AcDbEntity
  8
0
100
AcDbPolyline
 62
7
  6
CONTINUOUS
 90
13
 70
0
 43
0.3500000006
 10
34.8744011078
 20
1.9610466843
 10
34.6601166229
 20
1.6753332825
 10
34.0172586365
 20
1.6753332825
 10
33.5886874008
 20
1.9610466843
 10
33.5886874008
 20
2.6039046707
 10
34.0172586365
 20
2.8896180725
 10
34.6601166229
 20
2.8896180725
 10
34.8744011078
 20
2.6039046707
 10
35.3029723434
 20
3.0324759064
 10
36.1601148148
 20
3.0324759064
 10
36.5886883163
 20
2.6039046707
 10
36.5886883163
 20
1.9610466843
 10
36.1601148148
 20
1.5324754486
  0
LWPOLYLINE
  5
2DE
100
AcDbEntity
  8
0
100
AcDbPolyline
 62
7
  6
CONTINUOUS
 90
13
 70
0
 43
0.3500000006
 10
34.8744011078
 20
-2.1103811874
 10
34.6601166229
 20
-2.3960957222
 10
34.0172586365
 20
-2.3960957222
 10
33.5886874008
 20
-2.1103811874
 10
33.5886874008
 20
-1.467524334
 10
34.0172586365
 20
-1.1818097992
 10
34.6601166229
 20
-1.1818097992
 10
34.8744011078
 20
-1.467524334
 10
35.3029723434
 20
-1.0389519653
 10
36.1601148148
 20
-1.0389519653
 10
36.5886883163
 20
-1.467524334
 10
36.5886883163
 20
-2.1103811874
 10
36.1601148148
 20
-2.5389524231
  0
LINE
  5
2DF
100
AcDbEntity
  8
RACCORDO
100
AcDbLine
 62
7
  6
CONTINUOUS
 10
13.7927698992
 20
-24.2991556645
 11
13.7886872644
 21
-24.3032382993
  0
LINE
  5
2E0
100
AcDbEntity
  8
RACCORDO
100
AcDbLine
 62
7
  6
CONTINUOUS
 10
13.7927698992
 20
23.2926790659
 11
13.7886872644
 21
23.2967617007
  0
LINE
  5
2E1
100
AcDbEntity
  8
RACCORDO
100
AcDbLine
 62
250
  6
CONTINUOUS
 10
29.1384855027
 20
-21.7228875884
 11
29.2886872644
 21
-21.0735321877
  0
LINE
  5
2E2
100
AcDbEntity
  8
RACCORDO
100
AcDbLine
 62
7
  6
CONTINUOUS
 10
29.268407637
 20
-21.2511565874
 11
29.1177296614
 21
-21.9025596456
  0
LWPOLYLINE
  5
2E3
100
AcDbEntity
  8
0
100
AcDbPolyline
 62
7
  6
CONTINUOUS
 90
10
 70
0
 43
0.3500000006
 10
19.2601164551
 20
33.1467604523
 10
19.331545372
 20
33.0039026184
 10
19.331545372
 20
32.9324759674
 10
19.1886875381
 20
32.7896181335
 10
19.1172586212
 20
32.7896181335
 10
19.0458297043
 20
32.8610493164
 10
19.0458297043
 20
32.9324759674
 10
19.1172586212
 20
33.0753338013
 10
19.1886875381
 20
33.1467604523
 10
19.2601164551
 20
33.1467604523
  0
LWPOLYLINE
  5
2E4
100
AcDbEntity
  8
0
100
AcDbPolyline
 62
7
  6
CONTINUOUS
 90
3
 70
0
 43
0.3500000006
 10
35.9458303299
 20
-3.3960948944
 10
35.9458303299
 20
-4.8960953522
 10
33.5886874008
 20
-4.2532384987
  0
LWPOLYLINE
  5
2E5
100
AcDbEntity
  8
RACCORDO
100
AcDbPolyline
 62
250
  6
CONTINUOUS
 90
16
 70
0
 10
29.1203577535
 20
-21.1597484622
 10
29.1139725385
 20
-21.1752831564
 10
29.099181846
 20
-21.1906262009
 10
29.076142384
 20
-21.2056150355
 10
29.0450982568
 20
-21.2200908528
 10
29.0063783782
 20
-21.2339002809
 10
28.9603929871
 20
-21.2468970082
 10
28.9076293008
 20
-21.2589433338
 10
28.848646353
 20
-21.2699116263
 10
28.7840690706
 20
-21.2796856763
 10
28.7145816529
 20
-21.2881619272
 10
28.6409203222
 20
-21.2952505728
 10
28.5638655237
 20
-21.3008765087
 10
28.4842336564
 20
-21.304980128
 10
28.4028684236
 20
-21.3075179526
 10
28.3206318936
 20
-21.3084630942
  0
LINE
  5
2E6
100
AcDbEntity
  8
DRAFT
100
AcDbLine
 62
7
  6
CONTINUOUS
 10
26.4974140091
 20
-22.8901479976
 11
26.4886872644
 21
-22.9032382993
  0
LINE
  5
2E7
100
AcDbEntity
  8
RACCORDO
100
AcDbLine
 62
250
  6
CONTINUOUS
 10
28.3206318936
 20
19.1916500008
 11
8.0567426352
 21
19.1916500008
  0
LINE
  5
2E8
100
AcDbEntity
  8
DRAFT
100
AcDbLine
 62
7
  6
CONTINUOUS
 10
26.4886872644
 20
21.8967617007
 11
26.4974140091
 21
21.883671399
  0
LINE
  5
2E9
100
AcDbEntity
  8
0
100
AcDbLine
 62
7
  6
CONTINUOUS
 10
7.0386872644
 20
19.4504104492
 11
7.0886872644
 21
19.4504104492
  0
LINE
  5
2EA
100
AcDbEntity
  8
0
100
AcDbLine
 62
7
  6
CONTINUOUS
 10
29.2886872644
 20
19.4504104492
 11
29.3386872644
 21
19.4504104492
  0
LINE
  5
2EB
100
AcDbEntity
  8
RACCORDO
100
AcDbLine
 62
250
  6
CONTINUOUS
 10
28.3387596427
 20
20.7599477962
 11
8.038614886
 21
20.7599477962
  0
LINE
  5
2EC
100
AcDbEntity
  8
RACCORDO
100
AcDbLine
 62
7
  6
CONTINUOUS
 10
26.5017858431
 20
-24.8901397206
 11
26.4886872644
 21
-24.9032382993
  0
LINE
  5
2ED
100
AcDbEntity
  8
0
100
AcDbLine
 62
7
  6
CONTINUOUS
 10
7.0386872644
 20
21.3555594557
 11
7.4196601367
 21
21.3555594557
  0
LINE
  5
2EE
100
AcDbEntity
  8
0
100
AcDbLine
 62
7
  6
CONTINUOUS
 10
28.9577143657
 20
21.3555594557
 11
29.3386872644
 21
21.3555594557
  0
LINE
  5
2EF
100
AcDbEntity
  8
ASSI
100
AcDbLine
 62
7
  6
CONTINUOUS
 10
7.0386872644
 20
21.4967617007
 11
7.7642358261
 21
21.4967617007
  0
LINE
  5
2F0
100
AcDbEntity
  8
ASSI
100
AcDbLine
 62
7
  6
CONTINUOUS
 10
28.6131387545
 20
21.4967617007
 11
29.3386872644
 21
21.4967617007
  0
LINE
  5
2F1
100
AcDbEntity
  8
RACCORDO
100
AcDbLine
 62
7
  6
CONTINUOUS
 10
7.8887786885
 20
21.5068488741
 11
28.4885958403
 21
21.5068488741
  0
LINE
  5
2F2
100
AcDbEntity
  8
RACCORDO
100
AcDbLine
 62
7
  6
CONTINUOUS
 10
28.9886872644
 20
21.8749445312
 11
7.3886872644
 21
21.8749445312
  0
LINE
  5
2F3
100
AcDbEntity
  8
DRAFT
100
AcDbLine
 62
7
  6
CONTINUOUS
 10
28.7799605196
 20
21.883671399
 11
26.4974140091
 21
21.883671399
  0
LINE
  5
2F4
100
AcDbEntity
  8
DRAFT
100
AcDbLine
 62
7
  6
CONTINUOUS
 10
9.8799605196
 20
21.883671399
 11
7.5974140091
 21
21.883671399
  0
LINE
  5
2F5
100
AcDbEntity
  8
RACCORDO
100
AcDbLine
 62
7
  6
CONTINUOUS
 10
14.0927648223
 20
21.8880348329
 11
22.2846097065
 21
21.8880348329
  0
LINE
  5
2F6
100
AcDbEntity
  8
RACCORDO
100
AcDbLine
 62
7
  6
CONTINUOUS
 10
7.3886872644
 20
21.8967617007
 11
7.5886872644
 21
21.8967617007
  0
LINE
  5
2F7
100
AcDbEntity
  8
DRAFT
100
AcDbLine
 62
7
  6
CONTINUOUS
 10
9.8886872644
 20
21.8967617007
 11
13.7886872644
 21
21.8967617007
  0
LINE
  5
2F8
100
AcDbEntity
  8
DRAFT
100
AcDbLine
 62
7
  6
CONTINUOUS
 10
22.5886872644
 20
21.8967617007
 11
26.4886872644
 21
21.8967617007
  0
LINE
  5
2F9
100
AcDbEntity
  8
RACCORDO
100
AcDbLine
 62
7
  6
CONTINUOUS
 10
28.7886872644
 20
21.8967617007
 11
28.9886872644
 21
21.8967617007
  0
LINE
  5
2FA
100
AcDbEntity
  8
DRAFT
100
AcDbLine
 62
7
  6
CONTINUOUS
 10
28.7799605196
 20
22.6194114315
 11
26.4974140091
 21
22.6194114315
  0
LINE
  5
2FB
100
AcDbEntity
  8
DRAFT
100
AcDbLine
 62
7
  6
CONTINUOUS
 10
9.8799605196
 20
22.6194114315
 11
7.5974140091
 21
22.6194114315
  0
LINE
  5
2FC
100
AcDbEntity
  8
RACCORDO
100
AcDbLine
 62
7
  6
CONTINUOUS
 10
26.5017858431
 20
23.883663122
 11
26.4886872644
 21
23.8967617007
  0
LINE
  5
2FD
100
AcDbEntity
  8
RACCORDO
100
AcDbLine
 62
250
  6
CONTINUOUS
 10
7.6025046102
 20
23.1245929171
 11
9.8748699186
 21
23.1245929171
  0
LINE
  5
2FE
100
AcDbEntity
  8
RACCORDO
100
AcDbLine
 62
250
  6
CONTINUOUS
 10
26.5025046102
 20
23.1245929171
 11
28.7748699186
 21
23.1245929171
  0
LINE
  5
2FF
100
AcDbEntity
  8
RACCORDO
100
AcDbLine
 62
7
  6
CONTINUOUS
 10
14.0927648223
 20
23.2909438709
 11
22.2846097065
 21
23.2909438709
  0
LINE
  5
300
100
AcDbEntity
  8
DRAFT
100
AcDbLine
 62
7
  6
CONTINUOUS
 10
13.7886872644
 20
23.2967617007
 11
22.5886872644
 21
23.2967617007
  0
LINE
  5
301
100
AcDbEntity
  8
RACCORDO
100
AcDbLine
 62
250
  6
CONTINUOUS
 10
7.6032318389
 20
23.341099268
 11
9.8741426898
 21
23.341099268
  0
LINE
  5
302
100
AcDbEntity
  8
RACCORDO
100
AcDbLine
 62
250
  6
CONTINUOUS
 10
26.5032318389
 20
23.341099268
 11
28.7741426898
 21
23.341099268
  0
LINE
  5
303
100
AcDbEntity
  8
RACCORDO
100
AcDbLine
 62
250
  6
CONTINUOUS
 10
28.7741426898
 20
23.6336673528
 11
26.5032318389
 21
23.6336673528
  0
LINE
  5
304
100
AcDbEntity
  8
RACCORDO
100
AcDbLine
 62
250
  6
CONTINUOUS
 10
9.8741426898
 20
23.6336673528
 11
7.6032318389
 21
23.6336673528
  0
LINE
  5
305
100
AcDbEntity
  8
RACCORDO
100
AcDbLine
 62
250
  6
CONTINUOUS
 10
28.7755886856
 20
23.883663122
 11
26.5017858431
 21
23.883663122
  0
LINE
  5
306
100
AcDbEntity
  8
RACCORDO
100
AcDbLine
 62
250
  6
CONTINUOUS
 10
9.8755886856
 20
23.883663122
 11
7.6017858431
 21
23.883663122
  0
LINE
  5
307
100
AcDbEntity
  8
DRAFT
100
AcDbLine
 62
7
  6
CONTINUOUS
 10
7.5886872644
 20
23.8967617007
 11
9.8886872644
 21
23.8967617007
  0
LINE
  5
308
100
AcDbEntity
  8
DRAFT
100
AcDbLine
 62
7
  6
CONTINUOUS
 10
26.4886872644
 20
23.8967617007
 11
28.7886872644
 21
23.8967617007
  0
LWPOLYLINE
  5
309
100
AcDbEntity
  8
0
100
AcDbPolyline
 62
7
  6
CONTINUOUS
 90
7
 70
0
 43
0.3500000006
 10
17.7601159973
 20
32.6467602997
 10
16.2601155396
 20
32.6467602997
 10
17.7601159973
 20
34.7896187439
 10
17.7601159973
 20
35.2181922455
 10
17.3315447617
 20
35.6467612152
 10
16.6886867752
 20
35.6467612152
 10
16.2601155396
 20
35.0039032288
  0
LWPOLYLINE
  5
30A
100
AcDbEntity
  8
0
100
AcDbPolyline
 62
7
  6
CONTINUOUS
 90
7
 70
0
 43
0.3500000006
 10
15.4029730682
 20
32.6467602997
 10
13.9029726105
 20
32.6467602997
 10
15.4029730682
 20
34.7896187439
 10
15.4029730682
 20
35.2181922455
 10
14.9744018326
 20
35.6467612152
 10
14.3315438461
 20
35.6467612152
 10
13.9029726105
 20
35.0039032288
  0
LWPOLYLINE
  5
30B
100
AcDbEntity
  8
0
100
AcDbPolyline
 62
7
  6
CONTINUOUS
 90
6
 70
0
 43
0.3500000006
 10
20.3315434113
 20
32.6467602997
 10
21.4029726334
 20
32.6467602997
 10
21.6172593842
 20
32.8610493164
 10
21.6172593842
 20
33.9324762726
 10
21.1886881485
 20
34.3610452423
 10
20.7601169128
 20
34.3610452423
  0
LWPOLYLINE
  5
30C
100
AcDbEntity
  8
0
100
AcDbPolyline
 62
7
  6
CONTINUOUS
 90
5
 70
0
 43
0.3500000006
 10
-29.0563217468
 20
44.429166687
 10
-28.6991794281
 20
44.6434557037
 10
-28.6991794281
 20
45.2863136902
 10
-29.0563217468
 20
45.7148826599
 10
-29.9134642181
 20
45.7148826599
  0
LINE
  5
30D
100
AcDbEntity
  8
RACCORDO
100
AcDbLine
 62
7
  6
CONTINUOUS
 10
-30.3988053427
 20
23.1245929171
 11
-31.1488053427
 21
22.6915802152
  0
LINE
  5
30E
100
AcDbEntity
  8
RACCORDO
100
AcDbLine
 62
7
  6
CONTINUOUS
 10
-31.2738053427
 20
-24.9032382993
 11
-30.5223509099
 21
-24.8988664653
  0
LINE
  5
30F
100
AcDbEntity
  8
RACCORDO
100
AcDbLine
 62
7
  6
CONTINUOUS
 10
-23.2738053427
 20
-24.2566956608
 11
-30.2789016649
 21
-24.297450119
  0
LINE
  5
310
100
AcDbEntity
  8
RACCORDO
100
AcDbLine
 62
7
  6
CONTINUOUS
 10
-33.5252597756
 20
-24.8901397206
 11
-31.2738053427
 21
-24.9032382993
  0
LINE
  5
311
100
AcDbEntity
  8
RACCORDO
100
AcDbLine
 62
7
  6
CONTINUOUS
 10
-31.1488053427
 20
-23.6980568138
 11
-30.3988053427
 21
-24.1310695156
  0
LINE
  5
312
100
AcDbEntity
  8
ASSI
100
AcDbLine
 62
7
  6
CONTINUOUS
 10
-32.6238053427
 20
-22.3620360543
 11
-33.7738053427
 21
-22.5032382993
  0
LINE
  5
313
100
AcDbEntity
  8
DRAFT
100
AcDbLine
 62
7
  6
CONTINUOUS
 10
-30.2738053427
 20
-21.3532382993
 11
-20.2738053427
 21
-21.17868765
  0
LINE
  5
314
100
AcDbEntity
  8
ASSI
100
AcDbLine
 62
7
  6
CONTINUOUS
 10
-30.2738053427
 20
-21.3532382993
 11
-20.2738053427
 21
-21.17868765
  0
LINE
  5
315
100
AcDbEntity
  8
RACCORDO
100
AcDbLine
 62
7
  6
CONTINUOUS
 10
-31.2738053427
 20
-22.9032382993
 11
-21.2650788072
 21
-22.8158934661
  0
LINE
  5
316
100
AcDbEntity
  8
RACCORDO
100
AcDbLine
 62
250
  6
CONTINUOUS
 10
-30.2738053427
 20
-22.8066320423
 11
-20.8559467815
 21
-22.7244436358
  0
LINE
  5
317
100
AcDbEntity
  8
RACCORDO
100
AcDbLine
 62
250
  6
CONTINUOUS
 10
-31.2738053427
 20
-22.5532249719
 11
-30.2738053427
 21
-22.5444981041
  0
LINE
  5
318
100
AcDbEntity
  8
RACCORDO
100
AcDbLine
 62
250
  6
CONTINUOUS
 10
-30.2738053427
 20
-21.7032382993
 11
-20.5685696208
 21
-21.7032382993
  0
LINE
  5
319
100
AcDbEntity
  8
RACCORDO
100
AcDbLine
 62
7
  6
CONTINUOUS
 10
-30.2738053427
 20
-21.4032382993
 11
-20.2738053427
 21
-21.4032382993
  0
LINE
  5
31A
100
AcDbEntity
  8
RACCORDO
100
AcDbLine
 62
7
  6
CONTINUOUS
 10
-33.7738053427
 20
-22.8814211298
 11
-31.2738053427
 21
-22.9032382993
  0
LINE
  5
31B
100
AcDbEntity
  8
RACCORDO
100
AcDbLine
 62
250
  6
CONTINUOUS
 10
-33.7738053427
 20
-22.5314078024
 11
-31.2738053427
 21
-22.5532249719
  0
LINE
  5
31C
100
AcDbEntity
  8
RACCORDO
100
AcDbLine
 62
250
  6
CONTINUOUS
 10
-30.2738053427
 20
-21.9911519634
 11
-20.3579716676
 21
-22.164233484
  0
LINE
  5
31D
100
AcDbEntity
  8
RACCORDO
100
AcDbLine
 62
250
  6
CONTINUOUS
 10
-30.2738053427
 20
-21.7789285391
 11
-20.5685696208
 21
-21.9483340588
  0
LINE
  5
31E
100
AcDbEntity
  8
DRAFT
100
AcDbLine
 62
7
  6
CONTINUOUS
 10
-32.8757038369
 20
-20.27934411
 11
-32.6490223357
 21
-20.2515111214
  0
LINE
  5
31F
100
AcDbEntity
  8
RACCORDO
100
AcDbLine
 62
7
  6
CONTINUOUS
 10
-38.3661609751
 20
-22.515192939
 11
-32.6807128875
 21
-21.8674179526
  0
LINE
  5
320
100
AcDbEntity
  8
RACCORDO
100
AcDbLine
 62
250
  6
CONTINUOUS
 10
-38.4775090096
 20
-21.7228875884
 11
-32.7781898025
 21
-21.0735321877
  0
LWPOLYLINE
  5
321
100
AcDbEntity
  8
RACCORDO
100
AcDbPolyline
 62
250
  6
CONTINUOUS
 90
49
 70
0
 10
-9.2563529363
 20
-19.4369767186
 10
-9.2297068596
 20
-19.4363965329
 10
-9.2030921231
 20
-19.4353143048
 10
-9.1765276416
 20
-19.4337308033
 10
-9.150032294
 20
-19.4316471538
 10
-9.1236249103
 20
-19.4290648372
 10
-9.0973242578
 20
-19.4259856887
 10
-9.071149028
 20
-19.4224118965
 10
-9.0451178234
 20
-19.4183460006
 10
-9.019249144
 20
-19.4137908905
 10
-8.9935613742
 20
-19.4087498034
 10
-8.9680727701
 20
-19.403226322
 10
-8.942801446
 20
-19.3972243718
 10
-8.917765362
 20
-19.3907482182
 10
-8.8929823109
 20
-19.3838024639
 10
-8.8684699056
 20
-19.3763920449
 10
-8.8442455667
 20
-19.3685222279
 10
-8.8203265103
 20
-19.3601986057
 10
-8.7967297352
 20
-19.351427094
 10
-8.7734720114
 20
-19.3422139264
 10
-8.7505698678
 20
-19.3325656507
 10
-8.7280395806
 20
-19.3224891237
 10
-8.7058971619
 20
-19.3119915068
 10
-8.6841583479
 20
-19.3010802603
 10
-8.6628385882
 20
-19.2897631389
 10
-8.6419530344
 20
-19.2780481854
 10
-8.6215165296
 20
-19.2659437255
 10
-8.6015435977
 20
-19.2534583616
 10
-8.5820484333
 20
-19.240600967
 10
-8.5630448912
 20
-19.2273806793
 10
-8.5445464771
 20
-19.2138068938
 10
-8.5265663375
 20
-19.1998892574
 10
-8.5091172507
 20
-19.185637661
 10
-8.4922116175
 20
-19.1710622332
 10
-8.4758614526
 20
-19.1561733324
 10
-8.4600783756
 20
-19.1409815401
 10
-8.4448736036
 20
-19.1254976528
 10
-8.4302579422
 20
-19.1097326747
 10
-8.4162417787
 20
-19.0936978098
 10
-8.4028350742
 20
-19.0774044538
 10
-8.3900473566
 20
-19.0608641862
 10
-8.377887714
 20
-19.044088762
 10
-8.3663647881
 20
-19.0270901032
 10
-8.355486768
 20
-19.0098802906
 10
-8.3452613846
 20
-18.9924715549
 10
-8.3356959051
 20
-18.9748762683
 10
-8.3267971273
 20
-18.9571069354
 10
-8.3185713756
 20
-18.9391761848
 10
-8.3110244958
 20
-18.9210967595
  0
LWPOLYLINE
  5
322
100
AcDbEntity
  8
ASSI
100
AcDbPolyline
 62
250
  6
CONTINUOUS
 90
44
 70
0
 10
-9.2563529363
 20
-19.4369767186
 10
-9.2297068596
 20
-19.4363965329
 10
-9.2030921231
 20
-19.4353143048
 10
-9.1765276416
 20
-19.4337308033
 10
-9.150032294
 20
-19.4316471538
 10
-9.1236249103
 20
-19.4290648372
 10
-9.0973242578
 20
-19.4259856887
 10
-9.071149028
 20
-19.4224118965
 10
-9.0451178234
 20
-19.4183460006
 10
-9.019249144
 20
-19.4137908905
 10
-8.9935613742
 20
-19.4087498034
 10
-8.9680727701
 20
-19.403226322
 10
-8.942801446
 20
-19.3972243718
 10
-8.917765362
 20
-19.3907482182
 10
-8.8929823109
 20
-19.3838024639
 10
-8.8684699056
 20
-19.3763920449
 10
-8.8442455667
 20
-19.3685222279
 10
-8.8203265103
 20
-19.3601986057
 10
-8.7967297352
 20
-19.351427094
 10
-8.7734720114
 20
-19.3422139264
 10
-8.7505698678
 20
-19.3325656507
 10
-8.7280395806
 20
-19.3224891237
 10
-8.7058971619
 20
-19.3119915068
 10
-8.6841583479
 20
-19.3010802603
 10
-8.6628385882
 20
-19.2897631389
 10
-8.6419530344
 20
-19.2780481854
 10
-8.6215165296
 20
-19.2659437255
 10
-8.6015435977
 20
-19.2534583616
 10
-8.5820484333
 20
-19.240600967
 10
-8.5630448912
 20
-19.2273806793
 10
-8.5445464771
 20
-19.2138068938
 10
-8.5265663375
 20
-19.1998892574
 10
-8.5091172507
 20
-19.185637661
 10
-8.4922116175
 20
-19.1710622332
 10
-8.4758614526
 20
-19.1561733324
 10
-8.4600783756
 20
-19.1409815401
 10
-8.4448736036
 20
-19.1254976528
 10
-8.4302579422
 20
-19.1097326747
 10
-8.4162417787
 20
-19.0936978098
 10
-8.4028350742
 20
-19.0774044538
 10
-8.3900473566
 20
-19.0608641862
 10
-8.377887714
 20
-19.044088762
 10
-8.3663647881
 20
-19.0270901032
 10
-8.355486768
 20
-19.0098802906
  0
LINE
  5
323
100
AcDbEntity
  8
RACCORDO
100
AcDbLine
 62
7
  6
CONTINUOUS
 10
-9.2563529363
 20
-19.9219071211
 11
-20.2738053427
 21
-20.1142174682
  0
LINE
  5
324
100
AcDbEntity
  8
ASSI
100
AcDbLine
 62
7
  6
CONTINUOUS
 10
-9.2563529363
 20
-19.9219071211
 11
-20.2738053427
 21
-20.1142174682
  0
LINE
  5
325
100
AcDbEntity
  8
RACCORDO
100
AcDbLine
 62
250
  6
CONTINUOUS
 10
-30.2738053427
 20
-19.5889355188
 11
-9.2563529363
 21
-19.4369767186
  0
LINE
  5
326
100
AcDbEntity
  8
ASSI
100
AcDbLine
 62
250
  6
CONTINUOUS
 10
-30.2738053427
 20
-19.5889355188
 11
-9.2563529363
 21
-19.4369767186
  0
LINE
  5
327
100
AcDbEntity
  8
RACCORDO
100
AcDbLine
 62
7
  6
CONTINUOUS
 10
-32.7916012653
 20
-19.0902989252
 11
-33.021947049
 21
-19.088288728
  0
LINE
  5
328
100
AcDbEntity
  8
RACCORDO
100
AcDbLine
 62
7
  6
CONTINUOUS
 10
-32.8168047916
 20
-18.8850326762
 11
-33.0473979643
 21
-18.8810076574
  0
LWPOLYLINE
  5
329
100
AcDbEntity
  8
RACCORDO
100
AcDbPolyline
 62
250
  6
CONTINUOUS
 90
13
 70
0
 10
-44.2036516622
 20
19.2323674686
 10
-44.0008097103
 20
15.8438269738
 10
-43.7596224317
 20
12.4586702982
 10
-43.4800898266
 20
9.076897442
 10
-43.1621659742
 20
5.6980725729
 10
-42.8058967951
 20
2.3226315232
 10
-42.4114200514
 20
-1.048118211
 10
-41.9787206567
 20
-4.414175447
 10
-41.5078136974
 20
-7.7755413674
 10
-40.9988821943
 20
-11.130912024
 10
-40.4519871545
 20
-14.4798527673
 10
-39.8670675709
 20
-17.8227982467
 10
-39.2441234436
 20
-21.1597484622
  0
LWPOLYLINE
  5
32A
100
AcDbEntity
  8
RACCORDO
100
AcDbPolyline
 62
250
  6
CONTINUOUS
 90
3
 70
0
 10
-39.9923430667
 20
-21.304980128
 10
-40.004756096
 20
-21.3075179526
 10
-40.0088898686
 20
-21.3084630942
  0
LWPOLYLINE
  5
32B
100
AcDbEntity
  8
RACCORDO
100
AcDbPolyline
 62
250
  6
CONTINUOUS
 90
22
 70
0
 10
-7.9947323837
 20
-13.6957296317
 10
-7.9016882606
 20
-13.6770539442
 10
-7.8115089431
 20
-13.6586998627
 10
-7.7241944315
 20
-13.6406649533
 10
-7.639852899
 20
-13.6229546188
 10
-7.5583761723
 20
-13.6055585147
 10
-7.4794397309
 20
-13.5884509357
 10
-7.4030306641
 20
-13.5716295852
 10
-7.3291618826
 20
-13.5550926138
 10
-7.2575475974
 20
-13.5388156286
 10
-7.1881734404
 20
-13.5227958658
 10
-7.1210537798
 20
-13.5070325455
 10
-7.0559459309
 20
-13.4915047885
 10
-6.9928340056
 20
-13.4762091313
 10
-6.9317338922
 20
-13.4611459886
 10
-6.8724505712
 20
-13.4463007293
 10
-6.8149795862
 20
-13.4316727267
 10
-6.7593253937
 20
-13.4172599379
 10
-6.7053063438
 20
-13.403045966
 10
-6.6528618867
 20
-13.3890246453
 10
-6.6020525723
 20
-13.3751998542
 10
-6.5528784006
 20
-13.3615704337
  0
LWPOLYLINE
  5
32C
100
AcDbEntity
  8
ASSI
100
AcDbPolyline
 62
250
  6
CONTINUOUS
 90
22
 70
0
 10
-7.9947323837
 20
-13.6957296317
 10
-7.9016882606
 20
-13.6770539442
 10
-7.8115089431
 20
-13.6586998627
 10
-7.7241944315
 20
-13.6406649533
 10
-7.639852899
 20
-13.6229546188
 10
-7.5583761723
 20
-13.6055585147
 10
-7.4794397309
 20
-13.5884509357
 10
-7.4030306641
 20
-13.5716295852
 10
-7.3291618826
 20
-13.5550926138
 10
-7.2575475974
 20
-13.5388156286
 10
-7.1881734404
 20
-13.5227958658
 10
-7.1210537798
 20
-13.5070325455
 10
-7.0559459309
 20
-13.4915047885
 10
-6.9928340056
 20
-13.4762091313
 10
-6.9317338922
 20
-13.4611459886
 10
-6.8724505712
 20
-13.4463007293
 10
-6.8149795862
 20
-13.4316727267
 10
-6.7593253937
 20
-13.4172599379
 10
-6.7053063438
 20
-13.403045966
 10
-6.6528618867
 20
-13.3890246453
 10
-6.6020525723
 20
-13.3751998542
 10
-6.5528784006
 20
-13.3615704337
  0
LINE
  5
32D
100
AcDbEntity
  8
RACCORDO
100
AcDbLine
 62
250
  6
CONTINUOUS
 10
-39.94329163
 20
-21.2952505728
 11
-39.9923430667
 21
-21.304980128
  0
LINE
  5
32E
100
AcDbEntity
  8
RACCORDO
100
AcDbLine
 62
250
  6
CONTINUOUS
 10
-39.863808861
 20
-21.2796856763
 11
-39.94329163
 21
-21.2952505728
  0
LINE
  5
32F
100
AcDbEntity
  8
RACCORDO
100
AcDbLine
 62
250
  6
CONTINUOUS
 10
-39.6951928162
 20
-21.2468970082
 11
-39.863808861
 21
-21.2796856763
  0
LINE
  5
330
100
AcDbEntity
  8
RACCORDO
100
AcDbLine
 62
250
  6
CONTINUOUS
 10
-39.4042768902
 20
-21.1906262009
 11
-39.6951928162
 21
-21.2468970082
  0
LINE
  5
331
100
AcDbEntity
  8
RACCORDO
100
AcDbLine
 62
250
  6
CONTINUOUS
 10
-39.2441234436
 20
-21.1597484622
 11
-39.4042768902
 21
-21.1906262009
  0
LWPOLYLINE
  5
332
100
AcDbEntity
  8
0
100
AcDbPolyline
 62
250
  6
CONTINUOUS
 90
17
 70
0
 10
-12.7738053427
 20
-16.3228176253
 10
-12.3369263108
 20
-16.2799747365
 10
-11.9166878654
 20
-16.1530779424
 10
-11.5290967584
 20
-15.9469607026
 10
-11.1833548167
 20
-15.6639310955
 10
-10.9047245739
 20
-15.3246694151
 10
-10.6972870368
 20
-14.9377411122
 10
-10.5689434367
 20
-14.5178841658
 10
-10.5245686386
 20
-14.0732382993
 10
-10.5674050022
 20
-13.6362927184
 10
-10.6942824693
 20
-13.2159902589
 10
-10.9003683165
 20
-12.8283401109
 10
-11.1833548167
 20
-12.4825455031
 10
-11.522564826
 20
-12.203872817
 10
-11.9094341978
 20
-11.9964036813
 10
-12.3292271979
 20
-11.868040531
 10
-12.7738055394
 20
-11.8236589733
  0
LINE
  5
333
100
AcDbEntity
  8
DRAFT
100
AcDbLine
 62
7
  6
CONTINUOUS
 10
-7.9947322849
 20
-15.6837236101
 11
-6.5528784006
 21
-15.5828993646
  0
LINE
  5
334
100
AcDbEntity
  8
ASSI
100
AcDbLine
 62
7
  6
CONTINUOUS
 10
-7.9947322849
 20
-15.6837236101
 11
-6.5528784006
 21
-15.5828993646
  0
LINE
  5
335
100
AcDbEntity
  8
RACCORDO
100
AcDbLine
 62
250
  6
CONTINUOUS
 10
-30.2738053427
 20
-18.174937348
 11
-9.2563529363
 21
-18.0229785478
  0
LINE
  5
336
100
AcDbEntity
  8
ASSI
100
AcDbLine
 62
250
  6
CONTINUOUS
 10
-30.2738053427
 20
-18.174937348
 11
-9.2563529363
 21
-18.0229785478
  0
LINE
  5
337
100
AcDbEntity
  8
DRAFT
100
AcDbLine
 62
250
  6
CONTINUOUS
 10
-9.2563529363
 20
-18.0229785478
 11
-8.2775659228
 21
-18.0229785478
  0
LINE
  5
338
100
AcDbEntity
  8
ASSI
100
AcDbLine
 62
250
  6
CONTINUOUS
 10
-9.2563529363
 20
-18.0229785478
 11
-8.2775659228
 21
-18.0229785478
  0
LINE
  5
339
100
AcDbEntity
  8
RACCORDO
100
AcDbLine
 62
250
  6
CONTINUOUS
 10
-8.2862395171
 20
-18.4212478055
 11
-8.2738053427
 21
-18.421319422
  0
LINE
  5
33A
100
AcDbEntity
  8
ASSI
100
AcDbLine
 62
250
  6
CONTINUOUS
 10
-8.2862395171
 20
-18.4212478055
 11
-8.2738053427
 21
-18.421319422
  0
LINE
  5
33B
100
AcDbEntity
  8
RACCORDO
100
AcDbLine
 62
250
  6
CONTINUOUS
 10
-32.9398343302
 20
-17.8830374925
 11
-33.1704275029
 21
-17.8790124737
  0
LWPOLYLINE
  5
33C
100
AcDbEntity
  8
RACCORDO
100
AcDbPolyline
 62
250
  6
CONTINUOUS
 90
22
 70
0
 10
-39.2441234436
 20
-21.1597484622
 10
-39.232912436
 20
-21.2084395238
 10
-39.218435424
 20
-21.2558134151
 10
-39.2006924074
 20
-21.3018701363
 10
-39.1795579884
 20
-21.3468501191
 10
-39.1551575649
 20
-21.3905129318
 10
-39.1278673312
 20
-21.4321372789
 10
-39.0976441613
 20
-21.4716746527
 10
-39.0645311811
 20
-21.5091735611
 10
-39.0290339622
 20
-21.5440582312
 10
-38.9911225776
 20
-21.5762833628
 10
-38.9508269543
 20
-21.6058942561
 10
-38.9087424439
 20
-21.6324510404
 10
-38.8648317101
 20
-21.655912405
 10
-38.8191320894
 20
-21.6763196605
 10
-38.7723509423
 20
-21.6933568673
 10
-38.7244595268
 20
-21.7069664759
 10
-38.6754865849
 20
-21.7172060358
 10
-38.6262257036
 20
-21.7239322561
 10
-38.5769414117
 20
-21.7270973732
 10
-38.5273691804
 20
-21.7267491506
 10
-38.4775090096
 20
-21.7228875884
  0
LINE
  5
33D
100
AcDbEntity
  8
DRAFT
100
AcDbLine
 62
7
  6
CONTINUOUS
 10
-36.9529223709
 20
21.1324451417
 11
-37.2162490741
 21
19.9918518801
  0
LINE
  5
33E
100
AcDbEntity
  8
0
100
AcDbLine
 62
250
  6
CONTINUOUS
 10
-24.7742469931
 20
15.4963667007
 11
-27.6733636923
 21
14.4883017007
  0
LINE
  5
33F
100
AcDbEntity
  8
0
100
AcDbLine
 62
250
  6
CONTINUOUS
 10
-25.3886987824
 20
14.6609507007
 11
-24.7742469931
 21
14.8699407007
  0
LINE
  5
340
100
AcDbEntity
  8
0
100
AcDbLine
 62
250
  6
CONTINUOUS
 10
-27.1192095316
 20
14.1028157007
 11
-25.8704849921
 21
14.5042357007
  0
LWPOLYLINE
  5
341
100
AcDbEntity
  8
RACCORDO
100
AcDbPolyline
 62
250
  6
CONTINUOUS
 90
22
 70
0
 10
-7.9755299278
 20
-13.5825820111
 10
-7.885528876
 20
-13.565965798
 10
-7.7982380859
 20
-13.5496318981
 10
-7.7136575575
 20
-13.5335803114
 10
-7.6318860903
 20
-13.5178197128
 10
-7.5528248848
 20
-13.5023414275
 10
-7.4761775427
 20
-13.4871194301
 10
-7.4019340974
 20
-13.4721535079
 10
-7.3301045155
 20
-13.4574438738
 10
-7.2604222984
 20
-13.4429651412
 10
-7.1928733902
 20
-13.4287159041
 10
-7.1274718468
 20
-13.4146975685
 10
-7.0639933375
 20
-13.4008889666
 10
-7.0024241296
 20
-13.3872883492
 10
-6.9427779557
 20
-13.3738974654
 10
-6.8848716835
 20
-13.3607003955
 10
-6.8287008702
 20
-13.3476971727
 10
-6.7742699586
 20
-13.3348877636
 10
-6.7214091439
 20
-13.3222561489
 10
-6.6700618245
 20
-13.3097969885
 10
-6.620284602
 20
-13.2975156225
 10
-6.5720774763
 20
-13.2854120507
  0
LWPOLYLINE
  5
342
100
AcDbEntity
  8
ASSI
100
AcDbPolyline
 62
250
  6
CONTINUOUS
 90
22
 70
0
 10
-7.9755299278
 20
-13.5825820111
 10
-7.885528876
 20
-13.565965798
 10
-7.7982380859
 20
-13.5496318981
 10
-7.7136575575
 20
-13.5335803114
 10
-7.6318860903
 20
-13.5178197128
 10
-7.5528248848
 20
-13.5023414275
 10
-7.4761775427
 20
-13.4871194301
 10
-7.4019340974
 20
-13.4721535079
 10
-7.3301045155
 20
-13.4574438738
 10
-7.2604222984
 20
-13.4429651412
 10
-7.1928733902
 20
-13.4287159041
 10
-7.1274718468
 20
-13.4146975685
 10
-7.0639933375
 20
-13.4008889666
 10
-7.0024241296
 20
-13.3872883492
 10
-6.9427779557
 20
-13.3738974654
 10
-6.8848716835
 20
-13.3607003955
 10
-6.8287008702
 20
-13.3476971727
 10
-6.7742699586
 20
-13.3348877636
 10
-6.7214091439
 20
-13.3222561489
 10
-6.6700618245
 20
-13.3097969885
 10
-6.620284602
 20
-13.2975156225
 10
-6.5720774763
 20
-13.2854120507
  0
LWPOLYLINE
  5
343
100
AcDbEntity
  8
RACCORDO
100
AcDbPolyline
 62
250
  6
CONTINUOUS
 90
13
 70
0
 10
-8.0884533781
 20
-13.7035469766
 10
-8.0809665774
 20
-13.7024904525
 10
-8.0734024697
 20
-13.7015056191
 10
-8.0657665116
 20
-13.7005931868
 10
-8.0580642119
 20
-13.6997538139
 10
-8.0503011271
 20
-13.6989881058
 10
-8.0424828575
 20
-13.6982966149
 10
-8.034615047
 20
-13.6976798404
 10
-8.0267033679
 20
-13.6971382269
 10
-8.0187535169
 20
-13.6966721644
 10
-8.0107712252
 20
-13.6962819895
 10
-8.0027622549
 20
-13.695967984
 10
-7.9947323837
 20
-13.6957303748
  0
LWPOLYLINE
  5
344
100
AcDbEntity
  8
ASSI
100
AcDbPolyline
 62
250
  6
CONTINUOUS
 90
13
 70
0
 10
-8.0884533781
 20
-13.7035469766
 10
-8.0809665774
 20
-13.7024904525
 10
-8.0734024697
 20
-13.7015056191
 10
-8.0657665116
 20
-13.7005931868
 10
-8.0580642119
 20
-13.6997538139
 10
-8.0503011271
 20
-13.6989881058
 10
-8.0424828575
 20
-13.6982966149
 10
-8.034615047
 20
-13.6976798404
 10
-8.0267033679
 20
-13.6971382269
 10
-8.0187535169
 20
-13.6966721644
 10
-8.0107712252
 20
-13.6962819895
 10
-8.0027622549
 20
-13.695967984
 10
-7.9947323837
 20
-13.6957303748
  0
LINE
  5
345
100
AcDbEntity
  8
0
100
AcDbLine
 62
250
  6
CONTINUOUS
 10
-22.4645673161
 20
-15.0721142993
 11
-19.1028583986
 21
-14.7780642993
  0
LINE
  5
346
100
AcDbEntity
  8
0
100
AcDbLine
 62
250
  6
CONTINUOUS
 10
-16.2738053427
 20
-16.0956002993
 11
-17.2926621423
 21
-16.0956002993
  0
LINE
  5
347
100
AcDbEntity
  8
0
100
AcDbLine
 62
250
  6
CONTINUOUS
 10
-22.4645673161
 20
-14.7850222993
 11
-22.8591252138
 21
-14.7850222993
  0
LWPOLYLINE
  5
348
100
AcDbEntity
  8
RACCORDO
100
AcDbPolyline
 62
250
  6
CONTINUOUS
 90
16
 70
0
 10
-43.596044638
 20
19.9642397731
 10
-43.6068435756
 20
20.0471482515
 10
-43.6172965935
 20
20.1291767457
 10
-43.6272891995
 20
20.2094268051
 10
-43.6367119438
 20
20.2870194534
 10
-43.6454616163
 20
20.3611048072
 10
-43.653442378
 20
20.4308713869
 10
-43.660566812
 20
20.4955550213
 10
-43.6667568796
 20
20.5544471996
 10
-43.6719447749
 20
20.6069028302
 10
-43.6760736701
 20
20.6523473371
 10
-43.6790983365
 20
20.6902829295
 10
-43.6809856396
 20
20.7202940518
 10
-43.6817149042
 20
20.7420519617
 10
-43.6812781394
 20
20.7553183212
 10
-43.6796801256
 20
20.7599477966
  0
LWPOLYLINE
  5
349
100
AcDbEntity
  8
RACCORDO
100
AcDbPolyline
 62
250
  6
CONTINUOUS
 90
16
 70
0
 10
-38.4775090096
 20
-21.7228875884
 10
-38.4679296865
 20
-21.8059467457
 10
-38.4582276222
 20
-21.8880682003
 10
-38.4485090837
 20
-21.9683524738
 10
-38.4388805184
 20
-22.0459202105
 10
-38.4294473883
 20
-22.119921809
 10
-38.4203130146
 20
-22.1895467278
 10
-38.4115774464
 20
-22.2540323634
 10
-38.4033363645
 20
-22.3126724031
 10
-38.3956800338
 20
-22.3648245609
 10
-38.3886923143
 20
-22.4099176129
 10
-38.3824497426
 20
-22.4474576537
 10
-38.3770206938
 20
-22.4770335063
 10
-38.3724646327
 20
-22.4983212257
 10
-38.3688314617
 20
-22.5110876469
 10
-38.3661609751
 20
-22.515192939
  0
LWPOLYLINE
  5
34A
100
AcDbEntity
  8
0
100
AcDbPolyline
 62
7
  6
CONTINUOUS
 90
3
 70
0
 43
0.3500000006
 10
-24.6991782074
 20
43.0005974121
 10
-24.7706071243
 20
42.7863129272
 10
-24.9134649582
 20
42.5005972595
  0
LINE
  5
34B
100
AcDbEntity
  8
0
100
AcDbLine
 62
250
  6
CONTINUOUS
 10
-27.6657149292
 20
-15.8478472993
 11
-25.6704018597
 21
-15.2951202993
  0
LWPOLYLINE
  5
34C
100
AcDbEntity
  8
0
100
AcDbPolyline
 62
250
  6
CONTINUOUS
 90
17
 70
0
 10
-19.2239839478
 20
-13.4561302993
 10
-19.162306067
 20
-13.450081809
 10
-19.1029774775
 20
-13.4321667232
 10
-19.0482579869
 20
-13.403067422
 10
-18.9994466943
 20
-13.3631097561
 10
-18.9601101236
 20
-13.3152133364
 10
-18.9308244249
 20
-13.2605874194
 10
-18.9127050814
 20
-13.2013126893
 10
-18.9064403186
 20
-13.1385382993
 10
-18.9124878877
 20
-13.0768510232
 10
-18.9304002449
 20
-13.0175133963
 10
-18.9594951142
 20
-12.9627855704
 10
-18.9994466943
 20
-12.9139668424
 10
-19.0473358191
 20
-12.8746242797
 10
-19.1019534164
 20
-12.84533412
 10
-19.1612191186
 20
-12.8272120164
 10
-19.2239839756
 20
-12.8209462993
  0
LWPOLYLINE
  5
34D
100
AcDbEntity
  8
0
100
AcDbPolyline
 62
250
  6
CONTINUOUS
 90
17
 70
0
 10
-19.2239839478
 20
-13.2790482993
 10
-19.1966962358
 20
-13.2763723082
 10
-19.1704479043
 20
-13.2684462625
 10
-19.146238744
 20
-13.2555720628
 10
-19.1246435063
 20
-13.2378938731
 10
-19.1072401034
 20
-13.2167033962
 10
-19.0942834372
 20
-13.1925356351
 10
-19.0862670232
 20
-13.1663111322
 10
-19.0834953481
 20
-13.1385382993
 10
-19.0861709317
 20
-13.1112464306
 10
-19.0940957702
 20
-13.0849941007
 10
-19.1069680091
 20
-13.0607812527
 10
-19.1246435063
 20
-13.0391827255
 10
-19.1458307558
 20
-13.0217766715
 10
-19.1699948361
 20
-13.0088180317
 10
-19.1962153448
 20
-13.0008003966
 10
-19.2239839601
 20
-12.9980282993
  0
LWPOLYLINE
  5
34E
100
AcDbEntity
  8
0
100
AcDbPolyline
 62
250
  6
CONTINUOUS
 90
17
 70
0
 10
-19.2239839478
 20
-12.9980282993
 10
-19.2512716598
 20
-13.0007042904
 10
-19.2775199913
 20
-13.0086303361
 10
-19.3017291516
 20
-13.0215045358
 10
-19.3233243893
 20
-13.0391827255
 10
-19.3407277922
 20
-13.0603732024
 10
-19.3536844584
 20
-13.0845409635
 10
-19.3617008724
 20
-13.1107654664
 10
-19.3644725474
 20
-13.1385382993
 10
-19.3617969639
 20
-13.165830168
 10
-19.3538721254
 20
-13.1920824979
 10
-19.3409998865
 20
-13.2162953459
 10
-19.3233243893
 20
-13.2378938731
 10
-19.3021371398
 20
-13.2552999271
 10
-19.2779730595
 20
-13.2682585669
 10
-19.2517525508
 20
-13.276276202
 10
-19.2239839355
 20
-13.2790482993
  0
LWPOLYLINE
  5
34F
100
AcDbEntity
  8
0
100
AcDbPolyline
 62
250
  6
CONTINUOUS
 90
17
 70
0
 10
-19.2239839478
 20
-12.8209462993
 10
-19.2856618286
 20
-12.8269947896
 10
-19.3449904181
 20
-12.8449098754
 10
-19.3997099087
 20
-12.8740091766
 10
-19.4485212013
 20
-12.9139668424
 10
-19.487857772
 20
-12.9618632622
 10
-19.5171434707
 20
-13.0164891792
 10
-19.5352628142
 20
-13.0757639093
 10
-19.541527577
 20
-13.1385382993
 10
-19.5354800079
 20
-13.2002255754
 10
-19.5175676507
 20
-13.2595632023
 10
-19.4884727814
 20
-13.3142910282
 10
-19.4485212013
 20
-13.3631097561
 10
-19.4006320765
 20
-13.4024523189
 10
-19.3460144792
 20
-13.4317424786
 10
-19.286748777
 20
-13.4498645822
 10
-19.22398392
 20
-13.4561302993
  0
LWPOLYLINE
  5
350
100
AcDbEntity
  8
0
100
AcDbPolyline
 62
250
  6
CONTINUOUS
 90
17
 70
0
 10
-22.5690284037
 20
-12.9059072993
 10
-22.531628061
 20
-12.902239605
 10
-22.4956522857
 20
-12.8913762235
 10
-22.462471384
 20
-12.8737309377
 10
-22.4328731059
 20
-12.8495013374
 10
-22.4090201264
 20
-12.8204578215
 10
-22.3912618125
 20
-12.7873336611
 10
-22.3802745729
 20
-12.7513905452
 10
-22.3764757349
 20
-12.7133252993
 10
-22.3801428706
 20
-12.6759192595
 10
-22.3910045975
 20
-12.6399380041
 10
-22.4086471959
 20
-12.606752048
 10
-22.4328731059
 20
-12.5771492612
 10
-22.4619121983
 20
-12.5532926482
 10
-22.4950313137
 20
-12.5355316293
 10
-22.5309689553
 20
-12.5245427159
 10
-22.5690284206
 20
-12.5207432993
  0
LWPOLYLINE
  5
351
100
AcDbEntity
  8
0
100
AcDbPolyline
 62
250
  6
CONTINUOUS
 90
17
 70
0
 10
-12.7738053427
 20
-11.8236589733
 10
-13.2106843747
 20
-11.8665018621
 10
-13.6309228201
 20
-11.9933986562
 10
-14.0185139271
 20
-12.199515896
 10
-14.3642558687
 20
-12.4825455031
 10
-14.6428861116
 20
-12.8218071835
 10
-14.8503236487
 20
-13.2087354864
 10
-14.9786672487
 20
-13.6285924328
 10
-15.0230420469
 20
-14.0732382993
 10
-14.9802056833
 20
-14.5101838802
 10
-14.8533282162
 20
-14.9304863397
 10
-14.647242369
 20
-15.3181364876
 10
-14.3642558687
 20
-15.6639310955
 10
-14.0250458595
 20
-15.9426037816
 10
-13.6381764877
 20
-16.1500729172
 10
-13.2183834876
 20
-16.2784360676
 10
-12.7738051461
 20
-16.3228176253
  0
LWPOLYLINE
  5
352
100
AcDbEntity
  8
0
100
AcDbPolyline
 62
250
  6
CONTINUOUS
 90
17
 70
0
 10
-22.5690284037
 20
-12.5207432993
 10
-22.6064287464
 20
-12.5244109936
 10
-22.6424045217
 20
-12.5352743751
 10
-22.6755854234
 20
-12.5529196609
 10
-22.7051837016
 20
-12.5771492612
 10
-22.729036681
 20
-12.6061927771
 10
-22.7467949949
 20
-12.6393169375
 10
-22.7577822346
 20
-12.6752600534
 10
-22.7615810725
 20
-12.7133252993
 10
-22.7579139369
 20
-12.7507313391
 10
-22.7470522099
 20
-12.7867125945
 10
-22.7294096115
 20
-12.8198985506
 10
-22.7051837016
 20
-12.8495013374
 10
-22.6761446091
 20
-12.8733579504
 10
-22.6430254937
 20
-12.8911189693
 10
-22.6070878521
 20
-12.9021078826
 10
-22.5690283869
 20
-12.9059072993
  0
LWPOLYLINE
  5
353
100
AcDbEntity
  8
RACCORDO
100
AcDbPolyline
 62
250
  6
CONTINUOUS
 90
43
 70
0
 10
-6.5528784006
 20
-13.3615755265
 10
-6.542199058
 20
-13.3613417879
 10
-6.5315598944
 20
-13.3610048367
 10
-6.5209746247
 20
-13.3605682844
 10
-6.5104567602
 20
-13.3600387595
 10
-6.500019891
 20
-13.3594170243
 10
-6.4896774967
 20
-13.3586979623
 10
-6.4794422233
 20
-13.3578850899
 10
-6.4693272593
 20
-13.3569825104
 10
-6.4593462756
 20
-13.3559860202
 10
-6.4495111644
 20
-13.3548991397
 10
-6.4398343203
 20
-13.3537260657
 10
-6.4303294026
 20
-13.3524636014
 10
-6.4210074312
 20
-13.3511152043
 10
-6.4118798779
 20
-13.3496850944
 10
-6.4029601739
 20
-13.3481711629
 10
-6.3942583838
 20
-13.3465767416
 10
-6.3857849592
 20
-13.3449060037
 10
-6.3775528672
 20
-13.3431579941
 10
-6.3695711768
 20
-13.3413358673
 10
-6.3618492391
 20
-13.3394436801
 10
-6.3543992704
 20
-13.3374816679
 10
-6.3472293169
 20
-13.3354527671
 10
-6.3403475896
 20
-13.3333608556
 10
-6.3337652667
 20
-13.3312073689
 10
-6.3274893597
 20
-13.3289949969
 10
-6.3215269195
 20
-13.3267273857
 10
-6.3158878082
 20
-13.3244071482
 10
-6.3105779925
 20
-13.3220367136
 10
-6.3056033567
 20
-13.3196194522
 10
-6.3009721999
 20
-13.3171591003
 10
-6.2966894209
 20
-13.3146578194
 10
-6.2927597409
 20
-13.3121186755
 10
-6.2891897154
 20
-13.3095464523
 10
-6.2859831428
 20
-13.3069430486
 10
-6.283143569
 20
-13.3043112027
 10
-6.2806756843
 20
-13.3016566448
 10
-6.2785821345
 20
-13.2989810187
 10
-6.2768652693
 20
-13.2962867214
 10
-6.2755278718
 20
-13.2935803083
 10
-6.2745714797
 20
-13.2908650702
 10
-6.2739969979
 20
-13.2881411448
 10
-6.2738053427
 20
-13.2854101567
  0
LWPOLYLINE
  5
354
100
AcDbEntity
  8
ASSI
100
AcDbPolyline
 62
250
  6
CONTINUOUS
 90
43
 70
0
 10
-6.5528784006
 20
-13.3615755265
 10
-6.542199058
 20
-13.3613417879
 10
-6.5315598944
 20
-13.3610048367
 10
-6.5209746247
 20
-13.3605682844
 10
-6.5104567602
 20
-13.3600387595
 10
-6.500019891
 20
-13.3594170243
 10
-6.4896774967
 20
-13.3586979623
 10
-6.4794422233
 20
-13.3578850899
 10
-6.4693272593
 20
-13.3569825104
 10
-6.4593462756
 20
-13.3559860202
 10
-6.4495111644
 20
-13.3548991397
 10
-6.4398343203
 20
-13.3537260657
 10
-6.4303294026
 20
-13.3524636014
 10
-6.4210074312
 20
-13.3511152043
 10
-6.4118798779
 20
-13.3496850944
 10
-6.4029601739
 20
-13.3481711629
 10
-6.3942583838
 20
-13.3465767416
 10
-6.3857849592
 20
-13.3449060037
 10
-6.3775528672
 20
-13.3431579941
 10
-6.3695711768
 20
-13.3413358673
 10
-6.3618492391
 20
-13.3394436801
 10
-6.3543992704
 20
-13.3374816679
 10
-6.3472293169
 20
-13.3354527671
 10
-6.3403475896
 20
-13.3333608556
 10
-6.3337652667
 20
-13.3312073689
 10
-6.3274893597
 20
-13.3289949969
 10
-6.3215269195
 20
-13.3267273857
 10
-6.3158878082
 20
-13.3244071482
 10
-6.3105779925
 20
-13.3220367136
 10
-6.3056033567
 20
-13.3196194522
 10
-6.3009721999
 20
-13.3171591003
 10
-6.2966894209
 20
-13.3146578194
 10
-6.2927597409
 20
-13.3121186755
 10
-6.2891897154
 20
-13.3095464523
 10
-6.2859831428
 20
-13.3069430486
 10
-6.283143569
 20
-13.3043112027
 10
-6.2806756843
 20
-13.3016566448
 10
-6.2785821345
 20
-13.2989810187
 10
-6.2768652693
 20
-13.2962867214
 10
-6.2755278718
 20
-13.2935803083
 10
-6.2745714797
 20
-13.2908650702
 10
-6.2739969979
 20
-13.2881411448
 10
-6.2738053427
 20
-13.2854101567
  0
LINE
  5
355
100
AcDbEntity
  8
0
100
AcDbLine
 62
250
  6
CONTINUOUS
 10
-18.9064403186
 20
-14.7213552993
 11
-19.1028583986
 21
-14.7213552993
  0
LINE
  5
356
100
AcDbEntity
  8
0
100
AcDbLine
 62
250
  6
CONTINUOUS
 10
-22.8591252138
 20
-14.6856482993
 11
-22.4645673161
 21
-14.6856482993
  0
LINE
  5
357
100
AcDbEntity
  8
0
100
AcDbLine
 62
250
  6
CONTINUOUS
 10
-19.1028583986
 20
-14.6037352993
 11
-18.9064403186
 21
-14.6037352993
  0
LINE
  5
358
100
AcDbEntity
  8
0
100
AcDbLine
 62
250
  6
CONTINUOUS
 10
-21.4213002349
 20
-14.2151682993
 11
-21.6369033925
 21
-14.2151682993
  0
LINE
  5
359
100
AcDbEntity
  8
0
100
AcDbLine
 62
250
  6
CONTINUOUS
 10
-22.7346241788
 20
-14.1601652993
 11
-22.9520850534
 21
-14.1601652993
  0
LINE
  5
35A
100
AcDbEntity
  8
0
100
AcDbLine
 62
250
  6
CONTINUOUS
 10
-14.4087132202
 20
-14.0732382993
 11
-11.1388974653
 21
-14.0732382993
  0
LINE
  5
35B
100
AcDbEntity
  8
0
100
AcDbLine
 62
250
  6
CONTINUOUS
 10
-27.6658888762
 20
-13.8960342993
 11
-24.7669441246
 21
-13.8960342993
  0
LINE
  5
35C
100
AcDbEntity
  8
0
100
AcDbLine
 62
250
  6
CONTINUOUS
 10
-22.9515271384
 20
-13.5871622993
 11
-22.7340662638
 21
-13.5871622993
  0
LINE
  5
35D
100
AcDbEntity
  8
0
100
AcDbLine
 62
250
  6
CONTINUOUS
 10
-21.6369033925
 20
-13.3918282993
 11
-21.4213002349
 21
-13.3918282993
  0
LINE
  5
35E
100
AcDbEntity
  8
0
100
AcDbLine
 62
250
  6
CONTINUOUS
 10
-24.7669441246
 20
-13.2907622993
 11
-27.6658888762
 21
-13.2907622993
  0
LINE
  5
35F
100
AcDbEntity
  8
RACCORDO
100
AcDbLine
 62
250
  6
CONTINUOUS
 10
-6.2738053427
 20
-13.2854101567
 11
-6.5720774763
 21
-13.2854101567
  0
LINE
  5
360
100
AcDbEntity
  8
ASSI
100
AcDbLine
 62
250
  6
CONTINUOUS
 10
-6.2738053427
 20
-13.2854101567
 11
-6.5720774763
 21
-13.2854101567
  0
LINE
  5
361
100
AcDbEntity
  8
0
100
AcDbLine
 62
250
  6
CONTINUOUS
 10
-21.7293053171
 20
-12.9353512993
 11
-22.101712589
 21
-12.9353512993
  0
LINE
  5
362
100
AcDbEntity
  8
0
100
AcDbLine
 62
250
  6
CONTINUOUS
 10
-24.7669441246
 20
-12.9649262993
 11
-27.6657149292
 21
-12.7031042993
  0
LINE
  5
363
100
AcDbEntity
  8
0
100
AcDbLine
 62
250
  6
CONTINUOUS
 10
-25.6704018597
 20
-15.2951202993
 11
-27.6657149292
 21
-14.7255092993
  0
LWPOLYLINE
  5
364
100
AcDbEntity
  8
RACCORDO
100
AcDbPolyline
 62
7
  6
CONTINUOUS
 90
7
 70
0
 10
-8.2750605567
 20
-18.9213038992
 10
-8.2754726049
 20
-18.921185689
 10
-8.2759228803
 20
-18.9208356787
 10
-8.2764112973
 20
-18.9202540906
 10
-8.2769415813
 20
-18.9194412245
 10
-8.2775098379
 20
-18.9183975421
 10
-8.2781045528
 20
-18.9171236837
  0
LWPOLYLINE
  5
365
100
AcDbEntity
  8
ASSI
100
AcDbPolyline
 62
7
  6
CONTINUOUS
 90
21
 70
0
 10
-8.2750605567
 20
-18.9213038992
 10
-8.2754726049
 20
-18.921185689
 10
-8.2759228803
 20
-18.9208356787
 10
-8.2764112973
 20
-18.9202540906
 10
-8.2769415813
 20
-18.9194412245
 10
-8.2775098379
 20
-18.9183975421
 10
-8.2781045528
 20
-18.9171236837
 10
-8.2787255594
 20
-18.9156203362
 10
-8.2793728606
 20
-18.913888254
 10
-8.2800351974
 20
-18.9119283415
 10
-8.2807123432
 20
-18.9097415768
 10
-8.2814043663
 20
-18.9073290257
 10
-8.2821004512
 20
-18.9046918495
 10
-8.2828003041
 20
-18.9018313426
 10
-8.2835040665
 20
-18.8987488413
 10
-8.2842015769
 20
-18.8954456639
 10
-8.2848924887
 20
-18.8919233458
 10
-8.2855770021
 20
-18.8881835103
 10
-8.2862457768
 20
-18.8842276769
 10
-8.286898415
 20
-18.8800576048
 10
-8.2875351743
 20
-18.875675208
  0
LINE
  5
366
100
AcDbEntity
  8
0
100
AcDbLine
 62
250
  6
CONTINUOUS
 10
-27.6657149292
 20
-14.1206512993
 11
-24.7669441246
 21
-15.0527162993
  0
LINE
  5
367
100
AcDbEntity
  8
RACCORDO
100
AcDbLine
 62
7
  6
CONTINUOUS
 10
-37.2738053427
 20
15.5403181787
 11
-37.2738053427
 21
17.8007588436
  0
LWPOLYLINE
  5
368
100
AcDbEntity
  8
RACCORDO
100
AcDbPolyline
 62
7
  6
CONTINUOUS
 90
6
 70
0
 10
-20.3553337451
 20
21.1605243612
 10
-20.3527457257
 20
21.1633091978
 10
-20.3502076094
 20
21.166111395
 10
-20.3477193962
 20
21.168930953
 10
-20.345281086
 20
21.1717678717
 10
-20.3428926789
 20
21.1746221511
  0
LINE
  5
369
100
AcDbEntity
  8
RACCORDO
100
AcDbLine
 62
7
  6
CONTINUOUS
 10
-20.3553337451
 20
21.1605243612
 11
-20.3702254834
 21
21.1449617554
  0
LINE
  5
36A
100
AcDbEntity
  8
RACCORDO
100
AcDbLine
 62
7
  6
CONTINUOUS
 10
-20.3702254834
 20
21.1449617554
 11
-20.436961703
 21
21.0763476589
  0
LINE
  5
36B
100
AcDbEntity
  8
RACCORDO
100
AcDbLine
 62
7
  6
CONTINUOUS
 10
-20.436961703
 20
21.0763476589
 11
-20.5091223604
 21
21.0024555015
  0
LINE
  5
36C
100
AcDbEntity
  8
RACCORDO
100
AcDbLine
 62
7
  6
CONTINUOUS
 10
-20.5091223604
 20
21.0024555015
 11
-20.5685696208
 21
20.9418574602
  0
LINE
  5
36D
100
AcDbEntity
  8
0
100
AcDbLine
 62
7
  6
CONTINUOUS
 10
-27.6733636923
 20
14.1929326554
 11
-27.2205419465
 21
14.6457544011
  0
LINE
  5
36E
100
AcDbEntity
  8
0
100
AcDbLine
 62
7
  6
CONTINUOUS
 10
-27.6733636923
 20
13.7729112273
 11
-26.5766192359
 21
14.8696556837
  0
LINE
  5
36F
100
AcDbEntity
  8
0
100
AcDbLine
 62
7
  6
CONTINUOUS
 10
-27.3822734227
 20
13.6439800689
 11
-26.9735804618
 21
14.0526730298
  0
LINE
  5
370
100
AcDbEntity
  8
0
100
AcDbLine
 62
7
  6
CONTINUOUS
 10
-26.8306887397
 20
14.1955647519
 11
-25.9326965254
 21
15.0935569663
  0
LINE
  5
371
100
AcDbEntity
  8
0
100
AcDbLine
 62
7
  6
CONTINUOUS
 10
-27.0738066938
 20
13.5324253698
 11
-26.6611383818
 21
13.9450936818
  0
LINE
  5
372
100
AcDbEntity
  8
0
100
AcDbLine
 62
7
  6
CONTINUOUS
 10
-26.2116774635
 20
14.3945546001
 11
-25.2887738148
 21
15.3174582488
  0
LINE
  5
373
100
AcDbEntity
  8
0
100
AcDbLine
 62
7
  6
CONTINUOUS
 10
-26.7653399649
 20
13.4208706706
 11
-26.3486963018
 21
13.8375143338
  0
LINE
  5
374
100
AcDbEntity
  8
0
100
AcDbLine
 62
7
  6
CONTINUOUS
 10
-25.8704849921
 20
14.3157256434
 11
-24.7742469931
 21
15.4119636424
  0
LINE
  5
375
100
AcDbEntity
  8
0
100
AcDbLine
 62
7
  6
CONTINUOUS
 10
-27.6733636923
 20
12.0928255152
 11
-27.3586245068
 21
12.4075647007
  0
LINE
  5
376
100
AcDbEntity
  8
0
100
AcDbLine
 62
7
  6
CONTINUOUS
 10
-26.456873236
 20
13.3093159715
 11
-26.0362542218
 21
13.7299349857
  0
LINE
  5
377
100
AcDbEntity
  8
0
100
AcDbLine
 62
7
  6
CONTINUOUS
 10
-25.8704849921
 20
13.8957042154
 11
-25.3886987824
 21
14.3774904251
  0
LINE
  5
378
100
AcDbEntity
  8
0
100
AcDbLine
 62
7
  6
CONTINUOUS
 10
-24.9591325986
 20
14.807056609
 11
-24.7742469931
 21
14.9919422144
  0
LINE
  5
379
100
AcDbEntity
  8
0
100
AcDbLine
 62
250
  6
CONTINUOUS
 10
-27.6733636923
 20
10.7125057007
 11
-25.3759506665
 21
11.8251207007
  0
LINE
  5
37A
100
AcDbEntity
  8
0
100
AcDbLine
 62
250
  6
CONTINUOUS
 10
-24.7742469931
 20
11.5239127007
 11
-27.2006117301
 21
10.3711367007
  0
LINE
  5
37B
100
AcDbEntity
  8
0
100
AcDbLine
 62
250
  6
CONTINUOUS
 10
-24.7669441246
 20
-10.6162922993
 11
-26.6518958188
 21
-10.7406472993
  0
LINE
  5
37C
100
AcDbEntity
  8
0
100
AcDbLine
 62
250
  6
CONTINUOUS
 10
-22.101712589
 20
-12.5852912993
 11
-21.7293053171
 21
-12.5852912993
  0
LINE
  5
37D
100
AcDbEntity
  8
RACCORDO
100
AcDbLine
 62
250
  6
CONTINUOUS
 10
-6.5720774763
 20
-11.9210664419
 11
-6.2738053427
 21
-11.9210664419
  0
LINE
  5
37E
100
AcDbEntity
  8
ASSI
100
AcDbLine
 62
250
  6
CONTINUOUS
 10
-6.5720774763
 20
-11.9210664419
 11
-6.2738053427
 21
-11.9210664419
  0
LINE
  5
37F
100
AcDbEntity
  8
0
100
AcDbLine
 62
250
  6
CONTINUOUS
 10
-17.2926621423
 20
-11.9108762993
 11
-16.2738053427
 21
-11.9108762993
  0
LWPOLYLINE
  5
380
100
AcDbEntity
  8
RACCORDO
100
AcDbPolyline
 62
250
  6
CONTINUOUS
 90
13
 70
0
 10
-7.9947324317
 20
-11.5107460873
 10
-8.0027623276
 20
-11.5105084767
 10
-8.0107713174
 20
-11.5101944696
 10
-8.0187536233
 20
-11.5098042929
 10
-8.0267034816
 20
-11.5093382289
 10
-8.0346151626
 20
-11.508796614
 10
-8.042482975
 20
-11.5081798382
 10
-8.0503012479
 20
-11.5074883458
 10
-8.0580643359
 20
-11.5067226361
 10
-8.0657666387
 20
-11.5058832615
 10
-8.0734025996
 20
-11.5049708275
 10
-8.0809667101
 20
-11.5039859923
 10
-8.0884535132
 20
-11.5029294665
  0
LWPOLYLINE
  5
381
100
AcDbEntity
  8
ASSI
100
AcDbPolyline
 62
250
  6
CONTINUOUS
 90
13
 70
0
 10
-7.9947324317
 20
-11.5107460873
 10
-8.0027623276
 20
-11.5105084767
 10
-8.0107713174
 20
-11.5101944696
 10
-8.0187536233
 20
-11.5098042929
 10
-8.0267034816
 20
-11.5093382289
 10
-8.0346151626
 20
-11.508796614
 10
-8.042482975
 20
-11.5081798382
 10
-8.0503012479
 20
-11.5074883458
 10
-8.0580643359
 20
-11.5067226361
 10
-8.0657666387
 20
-11.5058832615
 10
-8.0734025996
 20
-11.5049708275
 10
-8.0809667101
 20
-11.5039859923
 10
-8.0884535132
 20
-11.5029294665
  0
LINE
  5
382
100
AcDbEntity
  8
0
100
AcDbLine
 62
250
  6
CONTINUOUS
 10
-26.6597864147
 20
-12.2552602993
 11
-24.7669441246
 21
-12.3858782993
  0
LINE
  5
383
100
AcDbEntity
  8
0
100
AcDbLine
 62
250
  6
CONTINUOUS
 10
-19.5409356672
 20
-13.1226452993
 11
-22.4370195124
 21
-12.8533992993
  0
LINE
  5
384
100
AcDbEntity
  8
0
100
AcDbLine
 62
250
  6
CONTINUOUS
 10
-26.056308282
 20
-11.4994542993
 11
-27.6657149292
 21
-10.8941832993
  0
LINE
  5
385
100
AcDbEntity
  8
RACCORDO
100
AcDbLine
 62
7
  6
CONTINUOUS
 10
-20.5091223604
 20
-22.0089321001
 11
-20.5536849023
 21
-21.9635550459
  0
LINE
  5
386
100
AcDbEntity
  8
RACCORDO
100
AcDbLine
 62
7
  6
CONTINUOUS
 10
-20.5536849023
 20
-21.9635550459
 11
-20.5685696208
 21
-21.9483340588
  0
LINE
  5
387
100
AcDbEntity
  8
RACCORDO
100
AcDbLine
 62
7
  6
CONTINUOUS
 10
-20.3702254834
 20
-22.151438354
 11
-20.4094176643
 21
-22.1111627397
  0
LINE
  5
388
100
AcDbEntity
  8
RACCORDO
100
AcDbLine
 62
7
  6
CONTINUOUS
 10
-20.4094176643
 20
-22.1111627397
 11
-20.5091223604
 21
-22.0089321001
  0
LWPOLYLINE
  5
389
100
AcDbEntity
  8
RACCORDO
100
AcDbPolyline
 62
7
  6
CONTINUOUS
 90
7
 70
0
 10
-20.3702254834
 20
-22.151438354
 10
-20.3553337451
 20
-22.1670009598
 10
-20.3527457257
 20
-22.1697857964
 10
-20.3502076094
 20
-22.1725879936
 10
-20.3477193962
 20
-22.1754075516
 10
-20.345281086
 20
-22.1782444703
 10
-20.3428926789
 20
-22.1810987497
  0
LINE
  5
38A
100
AcDbEntity
  8
RACCORDO
100
AcDbLine
 62
7
  6
CONTINUOUS
 10
-33.7738053427
 20
23.6336673528
 11
-33.7738053427
 21
23.341099268
  0
LINE
  5
38B
100
AcDbEntity
  8
RACCORDO
100
AcDbLine
 62
7
  6
CONTINUOUS
 10
-33.7738053427
 20
-22.5032382993
 11
-33.7738053427
 21
-22.8814211298
  0
LINE
  5
38C
100
AcDbEntity
  8
RACCORDO
100
AcDbLine
 62
7
  6
CONTINUOUS
 10
-33.7738053427
 20
-24.3475758666
 11
-33.7738053427
 21
-24.6401439514
  0
LINE
  5
38D
100
AcDbEntity
  8
RACCORDO
100
AcDbLine
 62
7
  6
CONTINUOUS
 10
-33.7738053427
 20
21.4967617007
 11
-33.7738053427
 21
21.8749445312
  0
LINE
  5
38E
100
AcDbEntity
  8
ASSI
100
AcDbLine
 62
7
  6
CONTINUOUS
 10
-32.6238053427
 20
19.4504104492
 11
-35.0738053427
 21
-0.5032382993
  0
LINE
  5
38F
100
AcDbEntity
  8
0
100
AcDbLine
 62
7
  6
CONTINUOUS
 10
-27.5210470788
 20
11.8251207007
 11
-26.9386030788
 21
12.4075647007
  0
LINE
  5
390
100
AcDbEntity
  8
0
100
AcDbLine
 62
7
  6
CONTINUOUS
 10
-26.1484065071
 20
13.1977612724
 11
-25.3886987824
 21
13.9574689971
  0
LINE
  5
391
100
AcDbEntity
  8
0
100
AcDbLine
 62
7
  6
CONTINUOUS
 10
-27.1010256508
 20
11.8251207007
 11
-26.5185816508
 21
12.4075647007
  0
LINE
  5
392
100
AcDbEntity
  8
0
100
AcDbLine
 62
7
  6
CONTINUOUS
 10
-25.8399397782
 20
13.0862065733
 11
-25.3886987824
 21
13.5374475691
  0
LINE
  5
393
100
AcDbEntity
  8
0
100
AcDbLine
 62
7
  6
CONTINUOUS
 10
-26.6810042228
 20
11.8251207007
 11
-26.0985602228
 21
12.4075647007
  0
LINE
  5
394
100
AcDbEntity
  8
0
100
AcDbLine
 62
7
  6
CONTINUOUS
 10
-25.5314730493
 20
12.9746518741
 11
-25.0969321917
 21
13.4091927318
  0
LINE
  5
395
100
AcDbEntity
  8
0
100
AcDbLine
 62
7
  6
CONTINUOUS
 10
-27.6733636923
 20
10.4127398031
 11
-27.0920949336
 21
10.9940085618
  0
LINE
  5
396
100
AcDbEntity
  8
0
100
AcDbLine
 62
7
  6
CONTINUOUS
 10
-26.2609827947
 20
11.8251207007
 11
-25.6785387947
 21
12.4075647007
  0
LINE
  5
397
100
AcDbEntity
  8
0
100
AcDbLine
 62
7
  6
CONTINUOUS
 10
-25.2230063204
 20
12.863097175
 11
-24.7865157981
 21
13.2995876974
  0
LINE
  5
398
100
AcDbEntity
  8
0
100
AcDbLine
 62
7
  6
CONTINUOUS
 10
-27.6733636923
 20
9.9927183751
 11
-26.2776416016
 21
11.3884404658
  0
LINE
  5
399
100
AcDbEntity
  8
0
100
AcDbLine
 62
7
  6
CONTINUOUS
 10
-25.8409613667
 20
11.8251207007
 11
-25.2585173667
 21
12.4075647007
  0
LINE
  5
39A
100
AcDbEntity
  8
0
100
AcDbLine
 62
7
  6
CONTINUOUS
 10
-24.9145395916
 20
12.7515424759
 11
-24.7742469931
 21
12.8918350743
  0
LINE
  5
39B
100
AcDbEntity
  8
0
100
AcDbLine
 62
7
  6
CONTINUOUS
 10
-27.4573689387
 20
9.7886917007
 11
-26.8749239387
 21
10.3711367007
  0
LINE
  5
39C
100
AcDbEntity
  8
0
100
AcDbLine
 62
7
  6
CONTINUOUS
 10
-26.5801309192
 20
10.6659297202
 11
-25.4631882696
 21
11.7828723698
  0
LINE
  5
39D
100
AcDbEntity
  8
0
100
AcDbLine
 62
7
  6
CONTINUOUS
 10
-25.4209399387
 20
11.8251207007
 11
-24.8384959387
 21
12.4075647007
  0
LINE
  5
39E
100
AcDbEntity
  8
0
100
AcDbLine
 62
7
  6
CONTINUOUS
 10
-27.0373475107
 20
9.7886917007
 11
-26.4549025107
 21
10.3711367007
  0
LINE
  5
39F
100
AcDbEntity
  8
0
100
AcDbLine
 62
7
  6
CONTINUOUS
 10
-25.7799313319
 20
11.0461078795
 11
-24.7742469931
 21
12.0517922182
  0
LINE
  5
3A0
100
AcDbEntity
  8
0
100
AcDbLine
 62
250
  6
CONTINUOUS
 10
-24.7742469931
 20
9.4714407007
 11
-27.6733636923
 21
8.4632667007
  0
LINE
  5
3A1
100
AcDbEntity
  8
0
100
AcDbLine
 62
250
  6
CONTINUOUS
 10
-25.3886987824
 20
8.6359157007
 11
-24.7742469931
 21
8.8447977007
  0
LINE
  5
3A2
100
AcDbEntity
  8
0
100
AcDbLine
 62
250
  6
CONTINUOUS
 10
-27.1193734817
 20
8.0778377007
 11
-25.8704849921
 21
8.4793097007
  0
LINE
  5
3A3
100
AcDbEntity
  8
0
100
AcDbLine
 62
250
  6
CONTINUOUS
 10
-27.6657149292
 20
-10.2953262993
 11
-24.7669441246
 21
-10.0241762993
  0
LINE
  5
3A4
100
AcDbEntity
  8
0
100
AcDbLine
 62
250
  6
CONTINUOUS
 10
-26.8692066087
 20
-8.7382242993
 11
-25.7934363737
 21
-9.0395992993
  0
LINE
  5
3A5
100
AcDbEntity
  8
0
100
AcDbLine
 62
250
  6
CONTINUOUS
 10
-25.3456418074
 20
-9.1634102993
 11
-24.7669441246
 21
-9.3304272993
  0
LINE
  5
3A6
100
AcDbEntity
  8
0
100
AcDbLine
 62
250
  6
CONTINUOUS
 10
-24.7669441246
 20
-9.9291322993
 11
-27.6657149292
 21
-9.0196162993
  0
LINE
  5
3A7
100
AcDbEntity
  8
0
100
AcDbLine
 62
250
  6
CONTINUOUS
 10
-26.6518958188
 20
-10.7406472993
 11
-24.7669441246
 21
-11.4603152993
  0
LINE
  5
3A8
100
AcDbEntity
  8
RACCORDO
100
AcDbLine
 62
7
  6
CONTINUOUS
 10
-32.6807128875
 20
-21.8674179526
 11
-38.0064031943
 21
21.5068488741
  0
LINE
  5
3A9
100
AcDbEntity
  8
ASSI
100
AcDbLine
 62
7
  6
CONTINUOUS
 10
-35.0738053427
 20
-0.5032382993
 11
-32.6238053427
 21
-20.4568870478
  0
LINE
  5
3AA
100
AcDbEntity
  8
RACCORDO
100
AcDbLine
 62
7
  6
CONTINUOUS
 10
-36.3072929562
 20
19.9769700478
 11
-36.4566492951
 21
21.1933798134
  0
LINE
  5
3AB
100
AcDbEntity
  8
DRAFT
100
AcDbLine
 62
7
  6
CONTINUOUS
 10
-32.7738053427
 20
-23.6258880301
 11
-32.7738053427
 21
-22.8901479976
  0
LINE
  5
3AC
100
AcDbEntity
  8
DRAFT
100
AcDbLine
 62
7
  6
CONTINUOUS
 10
-32.7738053427
 20
21.883671399
 11
-32.7738053427
 21
22.6194114315
  0
LINE
  5
3AD
100
AcDbEntity
  8
ASSI
100
AcDbLine
 62
7
  6
CONTINUOUS
 10
-32.6238053427
 20
21.3555594557
 11
-32.6238053427
 21
19.4504104492
  0
LINE
  5
3AE
100
AcDbEntity
  8
ASSI
100
AcDbLine
 62
7
  6
CONTINUOUS
 10
-32.6238053427
 20
-20.4568870478
 11
-32.6238053427
 21
-22.3620360543
  0
LINE
  5
3AF
100
AcDbEntity
  8
0
100
AcDbLine
 62
7
  6
CONTINUOUS
 10
-26.6173260826
 20
9.7886917007
 11
-26.0348810826
 21
10.3711367007
  0
LINE
  5
3B0
100
AcDbEntity
  8
0
100
AcDbLine
 62
7
  6
CONTINUOUS
 10
-24.9797317445
 20
11.4262860388
 11
-24.7742469931
 21
11.6317707902
  0
LINE
  5
3B1
100
AcDbEntity
  8
0
100
AcDbLine
 62
7
  6
CONTINUOUS
 10
-27.6733636923
 20
8.312632663
 11
-27.4424176915
 21
8.5435786638
  0
LINE
  5
3B2
100
AcDbEntity
  8
0
100
AcDbLine
 62
7
  6
CONTINUOUS
 10
-26.1973046546
 20
9.7886917007
 11
-25.6148596546
 21
10.3711367007
  0
LINE
  5
3B3
100
AcDbEntity
  8
0
100
AcDbLine
 62
7
  6
CONTINUOUS
 10
-27.6733636923
 20
7.892611235
 11
-26.7984578631
 21
8.7675170642
  0
LINE
  5
3B4
100
AcDbEntity
  8
0
100
AcDbLine
 62
7
  6
CONTINUOUS
 10
-25.7772832266
 20
9.7886917007
 11
-25.1948382266
 21
10.3711367007
  0
LINE
  5
3B5
100
AcDbEntity
  8
0
100
AcDbLine
 62
7
  6
CONTINUOUS
 10
-27.4885627407
 20
7.6573907586
 11
-27.0812443511
 21
8.0647091482
  0
LINE
  5
3B6
100
AcDbEntity
  8
0
100
AcDbLine
 62
7
  6
CONTINUOUS
 10
-27.0438319608
 20
8.1021215385
 11
-26.1544980348
 21
8.9914554645
  0
LINE
  5
3B7
100
AcDbEntity
  8
0
100
AcDbLine
 62
7
  6
CONTINUOUS
 10
-25.3572617986
 20
9.7886917007
 11
-24.7748167986
 21
10.3711367007
  0
LINE
  5
3B8
100
AcDbEntity
  8
0
100
AcDbLine
 62
7
  6
CONTINUOUS
 10
-27.1800874942
 20
7.5458445771
 11
-26.7688023733
 21
7.957129698
  0
LINE
  5
3B9
100
AcDbEntity
  8
0
100
AcDbLine
 62
7
  6
CONTINUOUS
 10
-26.4248211989
 20
8.3011108723
 11
-25.5105382064
 21
9.2153938648
  0
LINE
  5
3BA
100
AcDbEntity
  8
0
100
AcDbLine
 62
7
  6
CONTINUOUS
 10
-24.9372403705
 20
9.7886917007
 11
-24.7742469931
 21
9.9516850781
  0
LINE
  5
3BB
100
AcDbEntity
  8
0
100
AcDbLine
 62
7
  6
CONTINUOUS
 10
-26.8716122477
 20
7.4342983956
 11
-26.4563603955
 21
7.8495502478
  0
LINE
  5
3BC
100
AcDbEntity
  8
0
100
AcDbLine
 62
7
  6
CONTINUOUS
 10
-25.8704849921
 20
8.4354256511
 11
-24.8665783781
 21
9.4393322652
  0
LINE
  5
3BD
100
AcDbEntity
  8
0
100
AcDbLine
 62
7
  6
CONTINUOUS
 10
-26.5631370012
 20
7.322752214
 11
-26.1439184176
 21
7.7419707976
  0
LINE
  5
3BE
100
AcDbEntity
  8
0
100
AcDbLine
 62
7
  6
CONTINUOUS
 10
-25.8704849921
 20
8.0154042231
 11
-25.3886987824
 21
8.4971904328
  0
LINE
  5
3BF
100
AcDbEntity
  8
0
100
AcDbLine
 62
7
  6
CONTINUOUS
 10
-25.1785253638
 20
8.7073638514
 11
-24.7742469931
 21
9.1116422221
  0
LINE
  5
3C0
100
AcDbEntity
  8
0
100
AcDbLine
 62
250
  6
CONTINUOUS
 10
-22.9034994918
 20
8.7710473438
 11
-22.6321122764
 21
8.9203329869
  0
LINE
  5
3C1
100
AcDbEntity
  8
RACCORDO
100
AcDbLine
 62
250
  6
CONTINUOUS
 10
-9.2563529363
 20
13.3089266482
 11
-9.1207893728
 21
13.3654792622
  0
LINE
  5
3C2
100
AcDbEntity
  8
ASSI
100
AcDbLine
 62
250
  6
CONTINUOUS
 10
-9.2563529363
 20
13.3089266482
 11
-9.1207893728
 21
13.3654792622
  0
LINE
  5
3C3
100
AcDbEntity
  8
RACCORDO
100
AcDbLine
 62
250
  6
CONTINUOUS
 10
-9.1207893728
 20
13.3654792622
 11
-9.0208665484
 21
13.4069626486
  0
LINE
  5
3C4
100
AcDbEntity
  8
ASSI
100
AcDbLine
 62
250
  6
CONTINUOUS
 10
-9.1207893728
 20
13.3654792622
 11
-9.0208665484
 21
13.4069626486
  0
LINE
  5
3C5
100
AcDbEntity
  8
RACCORDO
100
AcDbLine
 62
250
  6
CONTINUOUS
 10
-9.0208665484
 20
13.4069626486
 11
-8.9560959791
 21
13.4336695372
  0
LINE
  5
3C6
100
AcDbEntity
  8
ASSI
100
AcDbLine
 62
250
  6
CONTINUOUS
 10
-9.0208665484
 20
13.4069626486
 11
-8.9560959791
 21
13.4336695372
  0
LINE
  5
3C7
100
AcDbEntity
  8
RACCORDO
100
AcDbLine
 62
250
  6
CONTINUOUS
 10
-8.9560959791
 20
13.4336695372
 11
-8.892981123
 21
13.4595027342
  0
LINE
  5
3C8
100
AcDbEntity
  8
ASSI
100
AcDbLine
 62
250
  6
CONTINUOUS
 10
-8.9560959791
 20
13.4336695372
 11
-8.892981123
 21
13.4595027342
  0
LINE
  5
3C9
100
AcDbEntity
  8
RACCORDO
100
AcDbLine
 62
250
  6
CONTINUOUS
 10
-8.892981123
 20
13.4595027342
 11
-8.8319653171
 21
13.4842475441
  0
LINE
  5
3CA
100
AcDbEntity
  8
ASSI
100
AcDbLine
 62
250
  6
CONTINUOUS
 10
-8.892981123
 20
13.4595027342
 11
-8.8319653171
 21
13.4842475441
  0
LWPOLYLINE
  5
3CB
100
AcDbEntity
  8
RACCORDO
100
AcDbPolyline
 62
250
  6
CONTINUOUS
 90
8
 70
0
 10
-8.8319653171
 20
13.4842475441
 10
-8.7732340487
 20
13.5077865059
 10
-8.7447791832
 20
13.5190810583
 10
-8.716930877
 20
13.5300482143
 10
-8.689737606
 20
13.5406731057
 10
-8.6632155436
 20
13.5509486031
 10
-8.6373486592
 20
13.5608744098
 10
-8.6121369191
 20
13.5704480805
  0
LWPOLYLINE
  5
3CC
100
AcDbEntity
  8
ASSI
100
AcDbPolyline
 62
250
  6
CONTINUOUS
 90
8
 70
0
 10
-8.8319653171
 20
13.4842475441
 10
-8.7732340487
 20
13.5077865059
 10
-8.7447791832
 20
13.5190810583
 10
-8.716930877
 20
13.5300482143
 10
-8.689737606
 20
13.5406731057
 10
-8.6632155436
 20
13.5509486031
 10
-8.6373486592
 20
13.5608744098
 10
-8.6121369191
 20
13.5704480805
  0
LINE
  5
3CD
100
AcDbEntity
  8
0
100
AcDbLine
 62
250
  6
CONTINUOUS
 10
-24.7669441246
 20
-8.1823342993
 11
-25.3456418074
 21
-8.3391312993
  0
LINE
  5
3CE
100
AcDbEntity
  8
0
100
AcDbLine
 62
250
  6
CONTINUOUS
 10
-25.7934363737
 20
-8.4600942993
 11
-26.8692066087
 21
-8.7382242993
  0
LINE
  5
3CF
100
AcDbEntity
  8
DRAFT
100
AcDbLine
 62
7
  6
CONTINUOUS
 10
-8.2775659232
 20
-6.8532711174
 11
-8.2738053427
 21
-6.8532382993
  0
LINE
  5
3D0
100
AcDbEntity
  8
0
100
AcDbLine
 62
250
  6
CONTINUOUS
 10
-27.631847422
 20
-7.3666663497
 11
-24.7669445989
 21
-7.3666663497
  0
LINE
  5
3D1
100
AcDbEntity
  8
0
100
AcDbLine
 62
250
  6
CONTINUOUS
 10
-26.3761115725
 20
-6.7839002772
 11
-27.1718804753
 21
-6.7839002772
  0
LINE
  5
3D2
100
AcDbEntity
  8
0
100
AcDbLine
 62
250
  6
CONTINUOUS
 10
-24.7669445989
 20
-6.7638303886
 11
-25.9013630793
 21
-6.7638303886
  0
LINE
  5
3D3
100
AcDbEntity
  8
DRAFT
100
AcDbLine
 62
7
  6
CONTINUOUS
 10
-8.2775659233
 20
-8.5532054812
 11
-8.2738053427
 21
-8.5532382993
  0
LINE
  5
3D4
100
AcDbEntity
  8
DRAFT
100
AcDbLine
 62
7
  6
CONTINUOUS
 10
-7.9947322849
 20
-9.5227529885
 11
-6.5528784006
 21
-9.6235772339
  0
LINE
  5
3D5
100
AcDbEntity
  8
ASSI
100
AcDbLine
 62
7
  6
CONTINUOUS
 10
-7.9947322849
 20
-9.5227529885
 11
-6.5528784006
 21
-9.6235772339
  0
LWPOLYLINE
  5
3D6
100
AcDbEntity
  8
RACCORDO
100
AcDbPolyline
 62
250
  6
CONTINUOUS
 90
22
 70
0
 10
-6.5720774763
 20
-11.92106147
 10
-6.6218265823
 20
-11.9085767974
 10
-6.6731127547
 20
-11.8959330215
 10
-6.7259359935
 20
-11.8831301423
 10
-6.7802582787
 20
-11.8701700795
 10
-6.8361176303
 20
-11.8570509133
 10
-6.8936281082
 20
-11.8437668846
 10
-6.9527875924
 20
-11.8303182143
 10
-7.0135982029
 20
-11.8167046814
 10
-7.0761803596
 20
-11.8029198642
 10
-7.1405403107
 20
-11.7889621062
 10
-7.206671808
 20
-11.774833064
 10
-7.2746765278
 20
-11.7605312859
 10
-7.3445530563
 20
-11.7460569807
 10
-7.4163028071
 20
-11.7314099397
 10
-7.4900316973
 20
-11.7165880849
 10
-7.5657249729
 20
-11.7015939701
 10
-7.6433973879
 20
-11.6864250414
 10
-7.7231991202
 20
-11.6710715597
 10
-7.8051802294
 20
-11.6555302785
 10
-7.889290656
 20
-11.6398044442
 10
-7.9755304001
 20
-11.6238940568
  0
LWPOLYLINE
  5
3D7
100
AcDbEntity
  8
ASSI
100
AcDbPolyline
 62
250
  6
CONTINUOUS
 90
22
 70
0
 10
-6.5720774763
 20
-11.92106147
 10
-6.6218265823
 20
-11.9085767974
 10
-6.6731127547
 20
-11.8959330215
 10
-6.7259359935
 20
-11.8831301423
 10
-6.7802582787
 20
-11.8701700795
 10
-6.8361176303
 20
-11.8570509133
 10
-6.8936281082
 20
-11.8437668846
 10
-6.9527875924
 20
-11.8303182143
 10
-7.0135982029
 20
-11.8167046814
 10
-7.0761803596
 20
-11.8029198642
 10
-7.1405403107
 20
-11.7889621062
 10
-7.206671808
 20
-11.774833064
 10
-7.2746765278
 20
-11.7605312859
 10
-7.3445530563
 20
-11.7460569807
 10
-7.4163028071
 20
-11.7314099397
 10
-7.4900316973
 20
-11.7165880849
 10
-7.5657249729
 20
-11.7015939701
 10
-7.6433973879
 20
-11.6864250414
 10
-7.7231991202
 20
-11.6710715597
 10
-7.8051802294
 20
-11.6555302785
 10
-7.889290656
 20
-11.6398044442
 10
-7.9755304001
 20
-11.6238940568
  0
LINE
  5
3D8
100
AcDbEntity
  8
0
100
AcDbLine
 62
250
  6
CONTINUOUS
 10
-18.3632090679
 20
-16.3788602993
 11
-23.3727239783
 21
-11.4422282993
  0
LINE
  5
3D9
100
AcDbEntity
  8
RACCORDO
100
AcDbLine
 62
7
  6
CONTINUOUS
 10
-31.2738053427
 20
-22.5532249719
 11
-31.2738053427
 21
-24.9032382993
  0
LINE
  5
3DA
100
AcDbEntity
  8
RACCORDO
100
AcDbLine
 62
7
  6
CONTINUOUS
 10
-31.2738053427
 20
21.5467483733
 11
-31.2738053427
 21
23.8967617007
  0
LINE
  5
3DB
100
AcDbEntity
  8
RACCORDO
100
AcDbLine
 62
7
  6
CONTINUOUS
 10
-30.2738053427
 20
23.6423940975
 11
-30.2738053427
 21
23.341099268
  0
LINE
  5
3DC
100
AcDbEntity
  8
ASSI
100
AcDbLine
 62
7
  6
CONTINUOUS
 10
-30.2738053427
 20
17.1684607494
 11
-30.2738053427
 21
-18.174937348
  0
LINE
  5
3DD
100
AcDbEntity
  8
RACCORDO
100
AcDbLine
 62
7
  6
CONTINUOUS
 10
-30.2738053427
 20
-24.3475758666
 11
-30.2738053427
 21
-24.6488706961
  0
LINE
  5
3DE
100
AcDbEntity
  8
RACCORDO
100
AcDbLine
 62
7
  6
CONTINUOUS
 10
-30.2738053427
 20
-22.8945114315
 11
-30.2738053427
 21
21.8880348329
  0
LINE
  5
3DF
100
AcDbEntity
  8
0
100
AcDbLine
 62
250
  6
CONTINUOUS
 10
-22.089337789
 20
10.5624760576
 11
-22.360725061
 21
10.2639047714
  0
LINE
  5
3E0
100
AcDbEntity
  8
0
100
AcDbLine
 62
250
  6
CONTINUOUS
 10
-23.1748867071
 20
8.4724760576
 11
-22.9034994918
 21
8.7710473438
  0
LINE
  5
3E1
100
AcDbEntity
  8
0
100
AcDbLine
 62
7
  6
CONTINUOUS
 10
-26.2546617546
 20
7.2112060325
 11
-25.3886987824
 21
8.0771690048
  0
LINE
  5
3E2
100
AcDbEntity
  8
0
100
AcDbLine
 62
7
  6
CONTINUOUS
 10
-25.9461865081
 20
7.099659851
 11
-25.3886987824
 21
7.6571475767
  0
LINE
  5
3E3
100
AcDbEntity
  8
0
100
AcDbLine
 62
7
  6
CONTINUOUS
 10
-27.6733636923
 20
4.9524612388
 11
-27.3357192304
 21
5.2901057007
  0
LINE
  5
3E4
100
AcDbEntity
  8
0
100
AcDbLine
 62
7
  6
CONTINUOUS
 10
-25.6377112616
 20
6.9881136695
 11
-25.2038734763
 21
7.4219514548
  0
LINE
  5
3E5
100
AcDbEntity
  8
0
100
AcDbLine
 62
7
  6
CONTINUOUS
 10
-27.5383038024
 20
4.6674997007
 11
-26.9156978024
 21
5.2901057007
  0
LINE
  5
3E6
100
AcDbEntity
  8
0
100
AcDbLine
 62
7
  6
CONTINUOUS
 10
-25.3292360151
 20
6.876567488
 11
-24.893416381
 21
7.3123871221
  0
LINE
  5
3E7
100
AcDbEntity
  8
0
100
AcDbLine
 62
7
  6
CONTINUOUS
 10
-27.1182823744
 20
4.6674997007
 11
-26.4956763744
 21
5.2901057007
  0
LINE
  5
3E8
100
AcDbEntity
  8
0
100
AcDbLine
 62
7
  6
CONTINUOUS
 10
-25.0207607686
 20
6.7650213065
 11
-24.7742469931
 21
7.0115350819
  0
LINE
  5
3E9
100
AcDbEntity
  8
0
100
AcDbLine
 62
7
  6
CONTINUOUS
 10
-27.5627784502
 20
3.8029821969
 11
-27.1462166314
 21
4.2195440157
  0
LINE
  5
3EA
100
AcDbEntity
  8
0
100
AcDbLine
 62
7
  6
CONTINUOUS
 10
-26.6982609463
 20
4.6674997007
 11
-26.0756549463
 21
5.2901057007
  0
LINE
  5
3EB
100
AcDbEntity
  8
0
100
AcDbLine
 62
7
  6
CONTINUOUS
 10
-25.2560322032
 20
6.1097284439
 11
-25.0026559463
 21
6.3631047007
  0
LINE
  5
3EC
100
AcDbEntity
  8
0
100
AcDbLine
 62
7
  6
CONTINUOUS
 10
-27.6659014539
 20
3.2798377651
 11
-26.6722598486
 21
4.2734793704
  0
LINE
  5
3ED
100
AcDbEntity
  8
0
100
AcDbLine
 62
7
  6
CONTINUOUS
 10
-26.2782395183
 20
4.6674997007
 11
-25.6556335183
 21
5.2901057007
  0
LINE
  5
3EE
100
AcDbEntity
  8
0
100
AcDbLine
 62
7
  6
CONTINUOUS
 10
-25.2560322032
 20
5.6897070159
 11
-24.7742469931
 21
6.1714922259
  0
LINE
  5
3EF
100
AcDbEntity
  8
0
100
AcDbLine
 62
250
  6
CONTINUOUS
 10
-21.54656333
 20
8.02461863
 11
-21.8179505737
 21
7.8753329869
  0
LINE
  5
3F0
100
AcDbEntity
  8
0
100
AcDbLine
 62
250
  6
CONTINUOUS
 10
-22.9034994918
 20
7.1289045223
 11
-22.6321122764
 21
7.2781901654
  0
LINE
  5
3F1
100
AcDbEntity
  8
0
100
AcDbLine
 62
250
  6
CONTINUOUS
 10
-21.54656333
 20
6.3824760576
 11
-21.8179505737
 21
6.2331901654
  0
LWPOLYLINE
  5
3F2
100
AcDbEntity
  8
0
100
AcDbPolyline
 62
250
  6
CONTINUOUS
 90
39
 70
0
 10
-25.6213635563
 20
-5.4806590132
 10
-25.6445982772
 20
-5.4871607742
 10
-25.6677752294
 20
-5.493859176
 10
-25.6908738255
 20
-5.5008218018
 10
-25.713873478
 20
-5.5081162346
 10
-25.7349782722
 20
-5.5151896248
 10
-25.7559656016
 20
-5.5226199927
 10
-25.7768196561
 20
-5.5304246561
 10
-25.7975246255
 20
-5.5386209326
 10
-25.8180646996
 20
-5.5472261401
 10
-25.8384240683
 20
-5.5562575961
 10
-25.8585869214
 20
-5.5657326183
 10
-25.8785374489
 20
-5.5756685245
 10
-25.8915269463
 20
-5.5824606395
 10
-25.9044028109
 20
-5.5894720999
 10
-25.9171499905
 20
-5.5967156137
 10
-25.9297534328
 20
-5.6042038891
 10
-25.9421980857
 20
-5.6119496341
 10
-25.9544688968
 20
-5.6199655567
 10
-25.9665508141
 20
-5.628264365
 10
-25.9784287852
 20
-5.636858767
 10
-25.990087758
 20
-5.6457614708
 10
-26.0015126802
 20
-5.6549851844
 10
-26.0126884996
 20
-5.6645426159
 10
-26.023600164
 20
-5.6744464734
 10
-26.0322824202
 20
-5.6827779685
 10
-26.0407612881
 20
-5.6913429149
 10
-26.0490186945
 20
-5.7001364
 10
-26.0570365661
 20
-5.7091535113
 10
-26.0647968296
 20
-5.7183893362
 10
-26.0722814119
 20
-5.727838962
 10
-26.0794722397
 20
-5.7374974763
 10
-26.0863512397
 20
-5.7473599664
 10
-26.0929003387
 20
-5.7574215198
 10
-26.0991014634
 20
-5.7676772239
 10
-26.1049365406
 20
-5.778122166
 10
-26.1103874971
 20
-5.7887514337
 10
-26.1154362595
 20
-5.7995601144
 10
-26.1200647547
 20
-5.8105432954
  0
LINE
  5
3F3
100
AcDbEntity
  8
0
100
AcDbLine
 62
250
  6
CONTINUOUS
 10
-25.551518654
 20
-5.4616577451
 11
-25.6213635563
 21
-5.4806590132
  0
LWPOLYLINE
  5
3F4
100
AcDbEntity
  8
0
100
AcDbPolyline
 62
250
  6
CONTINUOUS
 90
5
 70
0
 10
-24.7669445989
 20
-5.2547400201
 10
-24.8648910472
 20
-5.2810731065
 10
-24.9629501565
 20
-5.3069854189
 10
-25.0610834975
 20
-5.3326204341
 10
-25.2574191576
 20
-5.3836324809
  0
LWPOLYLINE
  5
3F5
100
AcDbEntity
  8
0
100
AcDbPolyline
 62
250
  6
CONTINUOUS
 90
4
 70
0
 10
-25.2574191576
 20
-5.3836324809
 10
-25.3555446182
 20
-5.4092964662
 10
-25.4535905934
 20
-5.435257062
 10
-25.551518654
 20
-5.4616577451
  0
LWPOLYLINE
  5
3F6
100
AcDbEntity
  8
0
100
AcDbPolyline
 62
250
  6
CONTINUOUS
 90
56
 70
0
 10
-26.8265792018
 20
-5.9678190314
 10
-26.812431454
 20
-5.9677230325
 10
-26.7982578867
 20
-5.96788481
 10
-26.784072079
 20
-5.9683247211
 10
-26.7698876096
 20
-5.969063123
 10
-26.7557180576
 20
-5.9701203728
 10
-26.741577002
 20
-5.9715168277
 10
-26.7274780216
 20
-5.9732728449
 10
-26.7134346954
 20
-5.9754087814
 10
-26.6994606023
 20
-5.9779449945
 10
-26.6855693214
 20
-5.9809018414
 10
-26.6717744315
 20
-5.9842996791
 10
-26.6580895116
 20
-5.9881588649
 10
-26.6445281406
 20
-5.9924997558
 10
-26.6329290721
 20
-5.9966483306
 10
-26.6214487334
 20
-6.0011665936
 10
-26.6101036084
 20
-6.0060498829
 10
-26.5989101809
 20
-6.0112935363
 10
-26.5878849347
 20
-6.0168928917
 10
-26.5770443536
 20
-6.0228432869
 10
-26.5664049215
 20
-6.0291400601
 10
-26.5559831222
 20
-6.0357785489
 10
-26.5457954395
 20
-6.0427540913
 10
-26.5358583573
 20
-6.0500620253
 10
-26.5261883593
 20
-6.0576976887
 10
-26.5168019294
 20
-6.0656564195
 10
-26.5077155514
 20
-6.0739335554
 10
-26.4989457091
 20
-6.0825244345
 10
-26.4905088863
 20
-6.0914243947
 10
-26.4823970492
 20
-6.1006515935
 10
-26.4746316989
 20
-6.1101684034
 10
-26.4672079652
 20
-6.1199584023
 10
-26.4601209782
 20
-6.1300051681
 10
-26.4533658676
 20
-6.1402922787
 10
-26.4469377635
 20
-6.1508033118
 10
-26.4408317958
 20
-6.1615218455
 10
-26.4350430945
 20
-6.1724314574
 10
-26.4295667893
 20
-6.1835157256
 10
-26.4243980104
 20
-6.1947582278
 10
-26.4195318875
 20
-6.2061425419
 10
-26.4149635507
 20
-6.2176522457
 10
-26.4106881298
 20
-6.2292709172
 10
-26.4067007548
 20
-6.2409821342
 10
-26.4029965557
 20
-6.2527694745
 10
-26.398676869
 20
-6.2678819286
 10
-26.3947922107
 20
-6.2830825367
 10
-26.3913254871
 20
-6.2983624652
 10
-26.3882596044
 20
-6.3137128804
 10
-26.3855774689
 20
-6.3291249485
 10
-26.3832619871
 20
-6.344589836
 10
-26.381296065
 20
-6.3600987091
 10
-26.3796626091
 20
-6.3756427343
 10
-26.3783445256
 20
-6.3912130777
 10
-26.3773247208
 20
-6.4068009058
 10
-26.376586101
 20
-6.4223973848
 10
-26.3761115725
 20
-6.4379936811
  0
LINE
  5
3F7
100
AcDbEntity
  8
0
100
AcDbLine
 62
250
  6
CONTINUOUS
 10
-26.1200647547
 20
-5.8105432954
 11
-26.1371939585
 21
-5.8105432954
  0
LINE
  5
3F8
100
AcDbEntity
  8
RACCORDO
100
AcDbLine
 62
250
  6
CONTINUOUS
 10
-34.6654245886
 20
-5.7032382993
 11
-34.435325626
 21
-5.7032382993
  0
LINE
  5
3F9
100
AcDbEntity
  8
RACCORDO
100
AcDbLine
 62
7
  6
CONTINUOUS
 10
-34.6899815008
 20
-5.5032382993
 11
-34.4598825382
 21
-5.5032382993
  0
LINE
  5
3FA
100
AcDbEntity
  8
RACCORDO
100
AcDbLine
 62
250
  6
CONTINUOUS
 10
-34.7145384129
 20
-5.3032382993
 11
-34.4844394504
 21
-5.3032382993
  0
LINE
  5
3FB
100
AcDbEntity
  8
DRAFT
100
AcDbLine
 62
7
  6
CONTINUOUS
 10
-8.2775659231
 20
-5.4532054812
 11
-8.2738053427
 21
-5.4532382993
  0
LWPOLYLINE
  5
3FC
100
AcDbEntity
  8
RACCORDO
100
AcDbPolyline
 62
250
  6
CONTINUOUS
 90
22
 70
0
 10
-6.5528784006
 20
-11.8448926734
 10
-6.6036763688
 20
-11.8308250581
 10
-6.6560771004
 20
-11.8165825788
 10
-6.7100805954
 20
-11.8021640903
 10
-6.7656459118
 20
-11.7875692151
 10
-6.8228139916
 20
-11.7727960661
 10
-6.8817076609
 20
-11.7578411166
 10
-6.9423251667
 20
-11.7427031296
 10
-7.0046682621
 20
-11.727380822
 10
-7.0688650329
 20
-11.7118703562
 10
-7.1349229657
 20
-11.6961680671
 10
-7.2028345738
 20
-11.6802748511
 10
-7.2727054835
 20
-11.6641934822
 10
-7.3445317055
 20
-11.647923104
 10
-7.4183172289
 20
-11.6314616144
 10
-7.494179648
 20
-11.6148096969
 10
-7.572101558
 20
-11.5979689036
 10
-7.6521003636
 20
-11.5809345153
 10
-7.734345873
 20
-11.5636975181
 10
-7.8188946888
 20
-11.546253661
 10
-7.9056902083
 20
-11.5286036538
 10
-7.9947324317
 20
-11.5107457555
  0
LWPOLYLINE
  5
3FD
100
AcDbEntity
  8
ASSI
100
AcDbPolyline
 62
250
  6
CONTINUOUS
 90
22
 70
0
 10
-6.5528784006
 20
-11.8448926734
 10
-6.6036763688
 20
-11.8308250581
 10
-6.6560771004
 20
-11.8165825788
 10
-6.7100805954
 20
-11.8021640903
 10
-6.7656459118
 20
-11.7875692151
 10
-6.8228139916
 20
-11.7727960661
 10
-6.8817076609
 20
-11.7578411166
 10
-6.9423251667
 20
-11.7427031296
 10
-7.0046682621
 20
-11.727380822
 10
-7.0688650329
 20
-11.7118703562
 10
-7.1349229657
 20
-11.6961680671
 10
-7.2028345738
 20
-11.6802748511
 10
-7.2727054835
 20
-11.6641934822
 10
-7.3445317055
 20
-11.647923104
 10
-7.4183172289
 20
-11.6314616144
 10
-7.494179648
 20
-11.6148096969
 10
-7.572101558
 20
-11.5979689036
 10
-7.6521003636
 20
-11.5809345153
 10
-7.734345873
 20
-11.5636975181
 10
-7.8188946888
 20
-11.546253661
 10
-7.9056902083
 20
-11.5286036538
 10
-7.9947324317
 20
-11.5107457555
  0
LWPOLYLINE
  5
3FE
100
AcDbEntity
  8
0
100
AcDbPolyline
 62
250
  6
CONTINUOUS
 90
51
 70
0
 10
-13.8066816467
 20
-15.4042602993
 10
-13.76569375
 20
-15.4350851375
 10
-13.7237296818
 20
-15.4646716765
 10
-13.6808384348
 20
-15.492991228
 10
-13.6370690011
 20
-15.5200151038
 10
-13.5924703734
 20
-15.5457146155
 10
-13.547091544
 20
-15.5700610749
 10
-13.5009815053
 20
-15.5930257936
 10
-13.4541892497
 20
-15.6145800835
 10
-13.4067637698
 20
-15.6346952561
 10
-13.3587540579
 20
-15.6533426233
 10
-13.3102084842
 20
-15.6704968827
 10
-13.2611729302
 20
-15.6861462761
 10
-13.2116926551
 20
-15.7002824313
 10
-13.1618129182
 20
-15.7128969759
 10
-13.1115789788
 20
-15.7239815378
 10
-13.0610360959
 20
-15.7335277447
 10
-13.010229529
 20
-15.7415272244
 10
-12.9592045373
 20
-15.7479716045
 10
-12.9080063799
 20
-15.752852513
 10
-12.8566803162
 20
-15.7561615774
 10
-12.8052721987
 20
-15.7578926663
 10
-12.7538302533
 20
-15.7580486112
 10
-12.7024032994
 20
-15.7566344845
 10
-12.6510401561
 20
-15.7536553582
 10
-12.5997896428
 20
-15.7491163048
 10
-12.5487005786
 20
-15.7430223965
 10
-12.497821783
 20
-15.7353787055
 10
-12.447202075
 20
-15.7261903041
 10
-12.3968902741
 20
-15.7154622645
 10
-12.3469351994
 20
-15.7031996592
 10
-12.2973846292
 20
-15.6894096311
 10
-12.2482821775
 20
-15.6741076074
 10
-12.1996704174
 20
-15.6573110858
 10
-12.1515919218
 20
-15.6390375645
 10
-12.1040892637
 20
-15.6193045412
 10
-12.0572050161
 20
-15.5981295138
 10
-12.0109817521
 20
-15.5755299804
 10
-11.9654620446
 20
-15.5515234387
 10
-11.9206884666
 20
-15.5261273868
 10
-11.8767035912
 20
-15.4993593226
 10
-11.8335499045
 20
-15.4712401855
 10
-11.7912695459
 20
-15.4418046817
 10
-11.7499045678
 20
-15.4110909589
 10
-11.7094970226
 20
-15.379137165
 10
-11.6700889628
 20
-15.3459814475
 10
-11.6317224409
 20
-15.3116619543
 10
-11.5944395094
 20
-15.2762168331
 10
-11.5582822208
 20
-15.2396842317
 10
-11.5232926274
 20
-15.2021022978
 10
-11.4895127818
 20
-15.163509179
  0
LWPOLYLINE
  5
3FF
100
AcDbEntity
  8
0
100
AcDbPolyline
 62
7
  6
CONTINUOUS
 90
4
 70
0
 43
0.3500000006
 10
-27.7706080399
 20
43.143455246
 10
-27.7706080399
 20
44.0005977173
 10
-27.3420368042
 20
44.429166687
 10
-26.6991788177
 20
44.429166687
  0
LINE
  5
400
100
AcDbEntity
  8
0
100
AcDbLine
 62
250
  6
CONTINUOUS
 10
-27.6733636923
 20
14.4883017007
 11
-27.6733636923
 21
13.7492507007
  0
LINE
  5
401
100
AcDbEntity
  8
0
100
AcDbLine
 62
250
  6
CONTINUOUS
 10
-27.6733636923
 20
8.4632667007
 11
-27.6733636923
 21
7.7242157007
  0
LINE
  5
402
100
AcDbEntity
  8
0
100
AcDbLine
 62
250
  6
CONTINUOUS
 10
-27.6733636923
 20
3.0845867007
 11
-27.6733636923
 21
2.1971567007
  0
LINE
  5
403
100
AcDbEntity
  8
0
100
AcDbLine
 62
250
  6
CONTINUOUS
 10
-27.6733636923
 20
4.6674997007
 11
-27.6733636923
 21
5.2901057007
  0
LINE
  5
404
100
AcDbEntity
  8
0
100
AcDbLine
 62
250
  6
CONTINUOUS
 10
-27.6733636923
 20
9.7886917007
 11
-27.6733636923
 21
10.7125057007
  0
LINE
  5
405
100
AcDbEntity
  8
0
100
AcDbLine
 62
250
  6
CONTINUOUS
 10
-27.6733636923
 20
11.8251207007
 11
-27.6733636923
 21
12.4075647007
  0
LINE
  5
406
100
AcDbEntity
  8
0
100
AcDbLine
 62
250
  6
CONTINUOUS
 10
-27.6658888762
 20
-13.2907622993
 11
-27.6658888762
 21
-13.8960342993
  0
LINE
  5
407
100
AcDbEntity
  8
0
100
AcDbLine
 62
250
  6
CONTINUOUS
 10
-27.6657149292
 20
-16.5053582993
 11
-27.6657149292
 21
-15.8478472993
  0
LINE
  5
408
100
AcDbEntity
  8
0
100
AcDbLine
 62
250
  6
CONTINUOUS
 10
-27.6657149292
 20
-14.7255092993
 11
-27.6657149292
 21
-14.1206512993
  0
LINE
  5
409
100
AcDbEntity
  8
0
100
AcDbLine
 62
250
  6
CONTINUOUS
 10
-27.6657149292
 20
-12.7031042993
 11
-27.6657149292
 21
-12.0983332993
  0
LINE
  5
40A
100
AcDbEntity
  8
0
100
AcDbLine
 62
250
  6
CONTINUOUS
 10
-27.6657149292
 20
-10.8941832993
 11
-27.6657149292
 21
-10.2953262993
  0
LINE
  5
40B
100
AcDbEntity
  8
0
100
AcDbLine
 62
250
  6
CONTINUOUS
 10
-27.6657149292
 20
-9.0196162993
 11
-27.6657149292
 21
-8.4340882993
  0
LWPOLYLINE
  5
40C
100
AcDbEntity
  8
0
100
AcDbPolyline
 62
250
  6
CONTINUOUS
 90
54
 70
0
 10
-27.1880198645
 20
3.2138275487
 10
-27.183159485
 20
3.2601806365
 10
-27.1814383845
 20
3.2756162148
 10
-27.1795717473
 20
3.2910287475
 10
-27.1775025436
 20
3.3064090428
 10
-27.1751737436
 20
3.3217479087
 10
-27.1725283175
 20
3.3370361532
 10
-27.1695092355
 20
3.3522645842
 10
-27.1671760932
 20
3.3627400737
 10
-27.1646181196
 20
3.3731684984
 10
-27.1618159024
 20
3.3835357059
 10
-27.1587500291
 20
3.3938275441
 10
-27.1554010871
 20
3.4040298606
 10
-27.1517496641
 20
3.4141285033
 10
-27.1477763476
 20
3.4241093199
 10
-27.143461725
 20
3.4339581581
 10
-27.1393600138
 20
3.4425223423
 10
-27.1349782551
 20
3.4509558457
 10
-27.1303169832
 20
3.459241654
 10
-27.1253767324
 20
3.4673627527
 10
-27.120158037
 20
3.4753021275
 10
-27.1146614311
 20
3.483042764
 10
-27.108887449
 20
3.4905676478
 10
-27.102836625
 20
3.4978597646
 10
-27.0965094933
 20
3.5049020999
 10
-27.0898566342
 20
3.5117340559
 10
-27.0829428111
 20
3.5183027568
 10
-27.0757871913
 20
3.5246159591
 10
-27.0684089422
 20
3.5306814194
 10
-27.0608272311
 20
3.5365068943
 10
-27.0530612252
 20
3.5421001404
 10
-27.0451300917
 20
3.5474689142
 10
-27.0370529981
 20
3.5526209724
 10
-27.0288491115
 20
3.5575640714
 10
-27.0181462767
 20
3.5636178909
 10
-27.0072738628
 20
3.5693331127
 10
-26.9962400076
 20
3.5747033752
 10
-26.9850528492
 20
3.5797223167
 10
-26.9737205252
 20
3.5843835753
 10
-26.9622511737
 20
3.5886807894
 10
-26.9506529325
 20
3.5926075973
 10
-26.9381202995
 20
3.5963933924
 10
-26.9254635268
 20
3.5997674745
 10
-26.9126964965
 20
3.6027487851
 10
-26.8998330909
 20
3.6053562655
 10
-26.8868871922
 20
3.6076088568
 10
-26.8738726827
 20
3.6095255003
 10
-26.8608034446
 20
3.6111251375
 10
-26.8476933601
 20
3.6124267095
 10
-26.8345563114
 20
3.6134491577
 10
-26.8214061809
 20
3.6142114232
 10
-26.8082568506
 20
3.6147324475
 10
-26.795122203
 20
3.6150311718
 10
-26.7820161201
 20
3.6151265374
  0
LWPOLYLINE
  5
40D
100
AcDbEntity
  8
0
100
AcDbPolyline
 62
250
  6
CONTINUOUS
 90
3
 70
0
 10
-27.1915779804
 20
3.1829787825
 10
-27.1897291163
 20
3.1983917084
 10
-27.1880198645
 20
3.2138275487
  0
LINE
  5
40E
100
AcDbEntity
  8
0
100
AcDbLine
 62
250
  6
CONTINUOUS
 10
-21.54656333
 20
9.5174760576
 11
-21.2751760863
 21
9.8160473438
  0
LINE
  5
40F
100
AcDbEntity
  8
0
100
AcDbLine
 62
250
  6
CONTINUOUS
 10
-23.1748867071
 20
6.8303332361
 11
-22.9034994918
 21
7.1289045223
  0
LINE
  5
410
100
AcDbEntity
  8
0
100
AcDbLine
 62
250
  6
CONTINUOUS
 10
-21.2751760863
 20
8.3231904145
 11
-21.54656333
 21
8.02461863
  0
LINE
  5
411
100
AcDbEntity
  8
0
100
AcDbLine
 62
7
  6
CONTINUOUS
 10
-27.6733640094
 20
2.8523537816
 11
-27.1682506351
 21
3.3574671559
  0
LINE
  5
412
100
AcDbEntity
  8
0
100
AcDbLine
 62
7
  6
CONTINUOUS
 10
-26.9268490209
 20
3.5988687701
 11
-26.34024609
 21
4.185471701
  0
LINE
  5
413
100
AcDbEntity
  8
0
100
AcDbLine
 62
7
  6
CONTINUOUS
 10
-25.8582180903
 20
4.6674997007
 11
-24.7742469931
 21
5.7514707979
  0
LINE
  5
414
100
AcDbEntity
  8
0
100
AcDbLine
 62
7
  6
CONTINUOUS
 10
-27.6733638061
 20
2.4323325568
 11
-27.1915783519
 21
2.9141180111
  0
LINE
  5
415
100
AcDbEntity
  8
0
100
AcDbLine
 62
7
  6
CONTINUOUS
 10
-26.5437262497
 20
3.5619701133
 11
-26.110355758
 21
3.995340605
  0
LINE
  5
416
100
AcDbEntity
  8
0
100
AcDbLine
 62
7
  6
CONTINUOUS
 10
-25.4381966623
 20
4.6674997007
 11
-24.7742469931
 21
5.3314493698
  0
LINE
  5
417
100
AcDbEntity
  8
0
100
AcDbLine
 62
7
  6
CONTINUOUS
 10
-27.4885182342
 20
2.1971567007
 11
-26.8659122342
 21
2.8197627007
  0
LINE
  5
418
100
AcDbEntity
  8
0
100
AcDbLine
 62
7
  6
CONTINUOUS
 10
-26.3857740458
 20
3.2999008891
 11
-25.9694494889
 21
3.7162254461
  0
LINE
  5
419
100
AcDbEntity
  8
0
100
AcDbLine
 62
7
  6
CONTINUOUS
 10
-25.0181752342
 20
4.6674997007
 11
-24.7742469931
 21
4.9114279418
  0
LINE
  5
41A
100
AcDbEntity
  8
0
100
AcDbLine
 62
7
  6
CONTINUOUS
 10
-27.0684968062
 20
2.1971567007
 11
-26.4458908062
 21
2.8197627007
  0
LINE
  5
41B
100
AcDbEntity
  8
0
100
AcDbLine
 62
7
  6
CONTINUOUS
 10
-26.3724540525
 20
2.8931994544
 11
-25.9039113195
 21
3.3617421874
  0
LINE
  5
41C
100
AcDbEntity
  8
0
100
AcDbLine
 62
7
  6
CONTINUOUS
 10
-26.6484753782
 20
2.1971567007
 11
-25.8906678428
 21
2.9549642361
  0
LINE
  5
41D
100
AcDbEntity
  8
0
100
AcDbLine
 62
7
  6
CONTINUOUS
 10
-26.2284539502
 20
2.1971567007
 11
-25.6058479502
 21
2.8197627007
  0
LINE
  5
41E
100
AcDbEntity
  8
0
100
AcDbLine
 62
7
  6
CONTINUOUS
 10
-25.8084325222
 20
2.1971567007
 11
-25.1858265222
 21
2.8197627007
  0
LWPOLYLINE
  5
41F
100
AcDbEntity
  8
RACCORDO
100
AcDbPolyline
 62
250
  6
CONTINUOUS
 90
43
 70
0
 10
-8.6121363545
 20
13.5704479468
 10
-8.5876841968
 20
13.5849547618
 10
-8.5632184546
 20
13.6001617979
 10
-8.538739128
 20
13.6160533201
 10
-8.5141743358
 20
13.6326393531
 10
-8.4895959591
 20
13.6498752313
 10
-8.4652196418
 20
13.667664083
 10
-8.4410522213
 20
13.6860006002
 10
-8.4170868601
 20
13.7048551544
 10
-8.3935186897
 20
13.7240988691
 10
-8.3703683513
 20
13.7437124295
 10
-8.3476152037
 20
13.7636831413
 10
-8.3253924538
 20
13.7838977934
 10
-8.3037027807
 20
13.8043512546
 10
-8.2825435054
 20
13.8250197198
 10
-8.2620397979
 20
13.8457688857
 10
-8.242201771
 20
13.8665905846
 10
-8.2230193119
 20
13.8874707436
 10
-8.2045872514
 20
13.9082749551
 10
-8.1869216647
 20
13.9289896979
 10
-8.1700064766
 20
13.9496149755
 10
-8.1538882928
 20
13.9700453577
 10
-8.1385814348
 20
13.9902662352
 10
-8.1240715812
 20
14.010286549
 10
-8.1103623735
 20
14.030042785
 10
-8.0974591076
 20
14.0495294175
 10
-8.0853564876
 20
14.0687512246
 10
-8.0740422674
 20
14.0876646298
 10
-8.063518378
 20
14.1062701089
 10
-8.0537828882
 20
14.1245702184
 10
-8.0448177585
 20
14.1425281835
 10
-8.0366259404
 20
14.1601431761
 10
-8.0292044823
 20
14.1774228374
 10
-8.0225264892
 20
14.1943460079
 10
-8.0165931329
 20
14.2109128191
 10
-8.0114032416
 20
14.2271323662
 10
-8.0069264042
 20
14.2429985209
 10
-8.0031616096
 20
14.2585151268
 10
-8.0001098688
 20
14.2736884504
 10
-7.9977438038
 20
14.2885167122
 10
-7.9960542884
 20
14.3030029908
 10
-7.9950504488
 20
14.3171549373
 10
-7.9947322849
 20
14.3309779028
  0
LWPOLYLINE
  5
420
100
AcDbEntity
  8
ASSI
100
AcDbPolyline
 62
250
  6
CONTINUOUS
 90
43
 70
0
 10
-8.6121363545
 20
13.5704479468
 10
-8.5876841968
 20
13.5849547618
 10
-8.5632184546
 20
13.6001617979
 10
-8.538739128
 20
13.6160533201
 10
-8.5141743358
 20
13.6326393531
 10
-8.4895959591
 20
13.6498752313
 10
-8.4652196418
 20
13.667664083
 10
-8.4410522213
 20
13.6860006002
 10
-8.4170868601
 20
13.7048551544
 10
-8.3935186897
 20
13.7240988691
 10
-8.3703683513
 20
13.7437124295
 10
-8.3476152037
 20
13.7636831413
 10
-8.3253924538
 20
13.7838977934
 10
-8.3037027807
 20
13.8043512546
 10
-8.2825435054
 20
13.8250197198
 10
-8.2620397979
 20
13.8457688857
 10
-8.242201771
 20
13.8665905846
 10
-8.2230193119
 20
13.8874707436
 10
-8.2045872514
 20
13.9082749551
 10
-8.1869216647
 20
13.9289896979
 10
-8.1700064766
 20
13.9496149755
 10
-8.1538882928
 20
13.9700453577
 10
-8.1385814348
 20
13.9902662352
 10
-8.1240715812
 20
14.010286549
 10
-8.1103623735
 20
14.030042785
 10
-8.0974591076
 20
14.0495294175
 10
-8.0853564876
 20
14.0687512246
 10
-8.0740422674
 20
14.0876646298
 10
-8.063518378
 20
14.1062701089
 10
-8.0537828882
 20
14.1245702184
 10
-8.0448177585
 20
14.1425281835
 10
-8.0366259404
 20
14.1601431761
 10
-8.0292044823
 20
14.1774228374
 10
-8.0225264892
 20
14.1943460079
 10
-8.0165931329
 20
14.2109128191
 10
-8.0114032416
 20
14.2271323662
 10
-8.0069264042
 20
14.2429985209
 10
-8.0031616096
 20
14.2585151268
 10
-8.0001098688
 20
14.2736884504
 10
-7.9977438038
 20
14.2885167122
 10
-7.9960542884
 20
14.3030029908
 10
-7.9950504488
 20
14.3171549373
 10
-7.9947322849
 20
14.3309779028
  0
LWPOLYLINE
  5
421
100
AcDbEntity
  8
RACCORDO
100
AcDbPolyline
 62
250
  6
CONTINUOUS
 90
22
 70
0
 10
-7.9947321549
 20
-0.1957295838
 10
-7.9019585153
 20
-0.1771091799
 10
-7.8120072357
 20
-0.1588025492
 10
-7.7248783161
 20
-0.1408073067
 10
-7.6406732449
 20
-0.1231278084
 10
-7.5592905336
 20
-0.1057548573
 10
-7.4804257172
 20
-0.0886660652
 10
-7.4040719017
 20
-0.0718603434
 10
-7.3302359811
 20
-0.055334679
 10
-7.2586341727
 20
-0.0390644149
 10
-7.1892515839
 20
-0.0230466674
 10
-7.1221031073
 20
-0.0072808184
 10
-7.0569496383
 20
0.0082538601
 10
-6.9937751612
 20
0.0235608844
 10
-6.9325956916
 20
0.0386397549
 10
-6.8732201715
 20
0.0535047513
 10
-6.8156437843
 20
0.0681566424
 10
-6.7598713465
 20
0.0825973065
 10
-6.70572625
 20
0.096842337
 10
-6.6531496255
 20
0.1108976298
 10
-6.6022003424
 20
0.1247595655
 10
-6.5528784006
 20
0.1384292975
  0
LWPOLYLINE
  5
422
100
AcDbEntity
  8
ASSI
100
AcDbPolyline
 62
250
  6
CONTINUOUS
 90
22
 70
0
 10
-7.9947321549
 20
-0.1957295838
 10
-7.9019585153
 20
-0.1771091799
 10
-7.8120072357
 20
-0.1588025492
 10
-7.7248783161
 20
-0.1408073067
 10
-7.6406732449
 20
-0.1231278084
 10
-7.5592905336
 20
-0.1057548573
 10
-7.4804257172
 20
-0.0886660652
 10
-7.4040719017
 20
-0.0718603434
 10
-7.3302359811
 20
-0.055334679
 10
-7.2586341727
 20
-0.0390644149
 10
-7.1892515839
 20
-0.0230466674
 10
-7.1221031073
 20
-0.0072808184
 10
-7.0569496383
 20
0.0082538601
 10
-6.9937751612
 20
0.0235608844
 10
-6.9325956916
 20
0.0386397549
 10
-6.8732201715
 20
0.0535047513
 10
-6.8156437843
 20
0.0681566424
 10
-6.7598713465
 20
0.0825973065
 10
-6.70572625
 20
0.096842337
 10
-6.6531496255
 20
0.1108976298
 10
-6.6022003424
 20
0.1247595655
 10
-6.5528784006
 20
0.1384292975
  0
LWPOLYLINE
  5
423
100
AcDbEntity
  8
RACCORDO
100
AcDbPolyline
 62
250
  6
CONTINUOUS
 90
22
 70
0
 10
-7.9755332091
 20
-0.0825843206
 10
-7.8857742785
 20
-0.0660128298
 10
-7.7986901694
 20
-0.0497179253
 10
-7.7142808818
 20
-0.0336996071
 10
-7.6326406754
 20
-0.0179659353
 10
-7.5536752906
 20
-0.0025088497
 10
-7.4771019479
 20
0.0126958297
 10
-7.402914551
 20
0.0276476493
 10
-7.3311191962
 20
0.0423470627
 10
-7.2614513933
 20
0.0568196115
 10
-7.1938965979
 20
0.071066816
 10
-7.1284693543
 20
0.0850871559
 10
-7.064948806
 20
0.0989016117
 10
-7.003321084
 20
0.1125119909
 10
-6.9436000573
 20
0.125916486
 10
-6.885606475
 20
0.1391306547
 10
-6.8293355996
 20
0.1521543673
 10
-6.7747921686
 20
0.1649877535
 10
-6.7218111446
 20
0.1776467607
 10
-6.6703375149
 20
0.1901367046
 10
-6.6204262922
 20
0.2024522694
 10
-6.5720774763
 20
0.2145934551
  0
LWPOLYLINE
  5
424
100
AcDbEntity
  8
ASSI
100
AcDbPolyline
 62
250
  6
CONTINUOUS
 90
22
 70
0
 10
-7.9755332091
 20
-0.0825843206
 10
-7.8857742785
 20
-0.0660128298
 10
-7.7986901694
 20
-0.0497179253
 10
-7.7142808818
 20
-0.0336996071
 10
-7.6326406754
 20
-0.0179659353
 10
-7.5536752906
 20
-0.0025088497
 10
-7.4771019479
 20
0.0126958297
 10
-7.402914551
 20
0.0276476493
 10
-7.3311191962
 20
0.0423470627
 10
-7.2614513933
 20
0.0568196115
 10
-7.1938965979
 20
0.071066816
 10
-7.1284693543
 20
0.0850871559
 10
-7.064948806
 20
0.0989016117
 10
-7.003321084
 20
0.1125119909
 10
-6.9436000573
 20
0.125916486
 10
-6.885606475
 20
0.1391306547
 10
-6.8293355996
 20
0.1521543673
 10
-6.7747921686
 20
0.1649877535
 10
-6.7218111446
 20
0.1776467607
 10
-6.6703375149
 20
0.1901367046
 10
-6.6204262922
 20
0.2024522694
 10
-6.5720774763
 20
0.2145934551
  0
LINE
  5
425
100
AcDbEntity
  8
DRAFT
100
AcDbLine
 62
7
  6
CONTINUOUS
 10
-7.9947322849
 20
-2.1837236101
 11
-6.5528784006
 21
-2.0828993646
  0
LINE
  5
426
100
AcDbEntity
  8
ASSI
100
AcDbLine
 62
7
  6
CONTINUOUS
 10
-7.9947322849
 20
-2.1837236101
 11
-6.5528784006
 21
-2.0828993646
  0
LINE
  5
427
100
AcDbEntity
  8
DRAFT
100
AcDbLine
 62
7
  6
CONTINUOUS
 10
-8.277565923
 20
-3.7532711174
 11
-8.2738053427
 21
-3.7532382993
  0
LINE
  5
428
100
AcDbEntity
  8
DRAFT
100
AcDbLine
 62
7
  6
CONTINUOUS
 10
-34.8548661813
 20
-2.2863546768
 11
-35.085459354
 21
-2.282329658
  0
LWPOLYLINE
  5
429
100
AcDbEntity
  8
0
100
AcDbPolyline
 62
250
  6
CONTINUOUS
 90
61
 70
0
 10
-26.2125449765
 20
-5.6905694443
 10
-26.2313034569
 20
-5.669167138
 10
-26.2502820458
 20
-5.6483370958
 10
-26.2698125969
 20
-5.628074034
 10
-26.2897808005
 20
-5.608747942
 10
-26.3105474922
 20
-5.5900682771
 10
-26.3320595202
 20
-5.5721402185
 10
-26.3542637327
 20
-5.5550689452
 10
-26.3774357187
 20
-5.5387163575
 10
-26.4012175681
 20
-5.5233257317
 10
-26.425561908
 20
-5.5088696626
 10
-26.450421366
 20
-5.4953207452
 10
-26.4759128638
 20
-5.4825800331
 10
-26.5018409217
 20
-5.4707399206
 10
-26.5281683874
 20
-5.4598100374
 10
-26.5548581084
 20
-5.4498000129
 10
-26.5816926848
 20
-5.4407755489
 10
-26.6088171145
 20
-5.4326693298
 10
-26.6362004695
 20
-5.4254824686
 10
-26.6638118221
 20
-5.4192160784
 10
-26.6954791807
 20
-5.4132006677
 10
-26.7273595958
 20
-5.4083554635
 10
-26.7594107965
 20
-5.4046566487
 10
-26.7915905115
 20
-5.4020804063
 10
-26.8238564697
 20
-5.4006029195
 10
-26.8561664001
 20
-5.4002003711
 10
-26.8884780315
 20
-5.4008489442
 10
-26.9167216851
 20
-5.4022665178
 10
-26.9449055741
 20
-5.4044930054
 10
-26.9730010018
 20
-5.4075506311
 10
-27.0009792714
 20
-5.4114616187
 10
-27.0288116861
 20
-5.4162481922
 10
-27.0564695492
 20
-5.4219325754
 10
-27.0839241638
 20
-5.4285369923
 10
-27.1111468332
 20
-5.4360836667
 10
-27.1381281501
 20
-5.4445966461
 10
-27.1648059735
 20
-5.4540654508
 10
-27.1911378711
 20
-5.464479873
 10
-27.2170814107
 20
-5.4758297051
 10
-27.2425941599
 20
-5.4881047391
 10
-27.2676336867
 20
-5.5012947673
 10
-27.2921575587
 20
-5.5153895819
 10
-27.3161233437
 20
-5.5303789751
 10
-27.3394967884
 20
-5.5462523204
 10
-27.3622561621
 20
-5.5629834133
 10
-27.3843880866
 20
-5.5805453747
 10
-27.4058791839
 20
-5.5989113255
 10
-27.4267160758
 20
-5.6180543866
 10
-27.4468853842
 20
-5.637947679
 10
-27.466373731
 20
-5.6585643236
 10
-27.4851677382
 20
-5.6798774412
 10
-27.4996640442
 20
-5.6973843976
 10
-27.5136574148
 20
-5.715311141
 10
-27.5270964265
 20
-5.7336502689
 10
-27.5399296556
 20
-5.7523943789
 10
-27.5521056787
 20
-5.7715360684
 10
-27.563573072
 20
-5.7910679352
 10
-27.5742804119
 20
-5.8109825766
 10
-27.584176275
 20
-5.8312725903
 10
-27.5932092375
 20
-5.8519305738
 10
-27.601327876
 20
-5.8729491245
  0
LWPOLYLINE
  5
42A
100
AcDbEntity
  8
0
100
AcDbPolyline
 62
250
  6
CONTINUOUS
 90
23
 70
0
 10
-27.1718804753
 20
-6.7839002772
 10
-27.1754230699
 20
-6.7625714578
 10
-27.1787723604
 20
-6.7412051161
 10
-27.1819156189
 20
-6.7198033312
 10
-27.1848401176
 20
-6.6983681826
 10
-27.1875331287
 20
-6.6769017495
 10
-27.1899819245
 20
-6.6554061113
 10
-27.192173777
 20
-6.6338833471
 10
-27.1940959586
 20
-6.6123355363
 10
-27.1957357413
 20
-6.5907647583
 10
-27.1970803973
 20
-6.5691730923
 10
-27.1981171989
 20
-6.5475626176
 10
-27.1988365067
 20
-6.5259155205
 10
-27.1992372632
 20
-6.504257126
 10
-27.1993221061
 20
-6.4825928978
 10
-27.1990936729
 20
-6.4609282996
 10
-27.1985546012
 20
-6.4392687949
 10
-27.1977075286
 20
-6.4176198474
 10
-27.1965550926
 20
-6.3959869208
 10
-27.1950999309
 20
-6.3743754788
 10
-27.1933446809
 20
-6.3527909849
 10
-27.1912919802
 20
-6.3312389028
 10
-27.1889444665
 20
-6.3097246963
  0
LINE
  5
42B
100
AcDbEntity
  8
0
100
AcDbLine
 62
250
  6
CONTINUOUS
 10
-26.3808727551
 20
3.2601806365
 11
-26.3760123757
 21
3.2138275487
  0
LWPOLYLINE
  5
42C
100
AcDbEntity
  8
0
100
AcDbPolyline
 62
250
  6
CONTINUOUS
 90
54
 70
0
 10
-25.8906681183
 20
3.084586709
 10
-25.89249314
 20
3.1378886784
 10
-25.8942474167
 20
3.1911925129
 10
-25.8962740344
 20
3.24448766
 10
-25.8989160794
 20
3.2977635669
 10
-25.9016896516
 20
3.340342514
 10
-25.9051767525
 20
3.3828728536
 10
-25.9094779463
 20
3.4253250308
 10
-25.9146937975
 20
3.4676694907
 10
-25.9209248701
 20
3.5098766781
 10
-25.9269683265
 20
3.5449632897
 10
-25.9338176035
 20
3.579906494
 10
-25.9415018167
 20
3.6146790134
 10
-25.9500500818
 20
3.6492535701
 10
-25.9594915143
 20
3.6836028865
 10
-25.9698552297
 20
3.7176996847
 10
-25.9794962459
 20
3.7466893467
 10
-25.9898833334
 20
3.7754243577
 10
-26.0010640203
 20
3.8038555009
 10
-26.0130858343
 20
3.8319335591
 10
-26.0259963035
 20
3.8596093155
 10
-26.0398429556
 20
3.8868335531
 10
-26.0546733187
 20
3.9135570548
 10
-26.0685021049
 20
3.9365092178
 10
-26.0831200412
 20
3.9589880349
 10
-26.0985252316
 20
3.9809420195
 10
-26.1147157801
 20
4.0023196853
 10
-26.1316897906
 20
4.0230695459
 10
-26.1494453673
 20
4.0431401149
 10
-26.167980614
 20
4.0624799059
 10
-26.1872936348
 20
4.0810374325
 10
-26.2073544386
 20
4.0987507613
 10
-26.2281415731
 20
4.1156213932
 10
-26.2496070371
 20
4.1316387208
 10
-26.2717028292
 20
4.1467921368
 10
-26.2943809482
 20
4.1610710337
 10
-26.3175933928
 20
4.1744648042
 10
-26.3412921617
 20
4.1869628408
 10
-26.3654292534
 20
4.1985545361
 10
-26.3899601229
 20
4.2092360735
 10
-26.4148459174
 20
4.2190273202
 10
-26.4400511974
 20
4.2279550356
 10
-26.4655405234
 20
4.2360459787
 10
-26.4912784557
 20
4.2433269086
 10
-26.5172295549
 20
4.2498245845
 10
-26.5433583812
 20
4.2555657655
 10
-26.5696294953
 20
4.2605772107
 10
-26.5997422492
 20
4.2654395871
 10
-26.6299704906
 20
4.2694312344
 10
-26.6602905655
 20
4.2725968645
 10
-26.6906788198
 20
4.2749811894
 10
-26.7211115996
 20
4.276628921
 10
-26.751565251
 20
4.2775847712
 10
-26.7820161201
 20
4.2778934519
  0
LINE
  5
42D
100
AcDbEntity
  8
0
100
AcDbLine
 62
250
  6
CONTINUOUS
 10
-27.1915784823
 20
2.8197627007
 11
-27.1915784823
 21
3.1829787007
  0
LINE
  5
42E
100
AcDbEntity
  8
0
100
AcDbLine
 62
250
  6
CONTINUOUS
 10
-26.3761115725
 20
-6.4379936811
 11
-26.3761115725
 21
-6.7839002772
  0
LINE
  5
42F
100
AcDbEntity
  8
0
100
AcDbLine
 62
250
  6
CONTINUOUS
 10
-26.3724540525
 20
2.8197627007
 11
-26.3724540525
 21
3.1829787007
  0
LINE
  5
430
100
AcDbEntity
  8
0
100
AcDbLine
 62
250
  6
CONTINUOUS
 10
-25.9013630793
 20
-6.7638303886
 11
-25.9013630793
 21
-6.4392983326
  0
LINE
  5
431
100
AcDbEntity
  8
0
100
AcDbLine
 62
250
  6
CONTINUOUS
 10
-25.8906678428
 20
3.0845867007
 11
-25.8906678428
 21
2.8197627007
  0
LINE
  5
432
100
AcDbEntity
  8
0
100
AcDbLine
 62
250
  6
CONTINUOUS
 10
-25.8704849921
 20
14.5042357007
 11
-25.8704849921
 21
13.6728577007
  0
LINE
  5
433
100
AcDbEntity
  8
0
100
AcDbLine
 62
250
  6
CONTINUOUS
 10
-25.8704849921
 20
8.4793097007
 11
-25.8704849921
 21
7.6478227007
  0
LINE
  5
434
100
AcDbEntity
  8
0
100
AcDbLine
 62
250
  6
CONTINUOUS
 10
-25.7934363737
 20
-9.0395992993
 11
-25.7934363737
 21
-8.4600942993
  0
LINE
  5
435
100
AcDbEntity
  8
0
100
AcDbLine
 62
250
  6
CONTINUOUS
 10
-25.3886987824
 20
7.4871787007
 11
-25.3886987824
 21
8.6359157007
  0
LINE
  5
436
100
AcDbEntity
  8
0
100
AcDbLine
 62
250
  6
CONTINUOUS
 10
-25.3886987824
 20
13.5122127007
 11
-25.3886987824
 21
14.6609507007
  0
LWPOLYLINE
  5
437
100
AcDbEntity
  8
0
100
AcDbPolyline
 62
250
  6
CONTINUOUS
 90
46
 70
0
 10
-25.9013630793
 20
-6.4392983326
 10
-25.9012491639
 20
-6.4299872763
 10
-25.9009049781
 20
-6.4206681688
 10
-25.9003268628
 20
-6.4113499895
 10
-25.8995111587
 20
-6.4020417178
 10
-25.8984542068
 20
-6.392752333
 10
-25.8971523477
 20
-6.3834908146
 10
-25.8956019222
 20
-6.374266142
 10
-25.8937992713
 20
-6.3650872944
 10
-25.8917407356
 20
-6.3559632514
 10
-25.889422656
 20
-6.3469029922
 10
-25.8868413733
 20
-6.3379154963
 10
-25.8839932283
 20
-6.329009743
 10
-25.8808696205
 20
-6.3201767541
 10
-25.8774801758
 20
-6.3114414253
 10
-25.873830663
 20
-6.3028103311
 10
-25.8699268508
 20
-6.2942900462
 10
-25.8657745079
 20
-6.2858871449
 10
-25.8613794031
 20
-6.2776082019
 10
-25.8567473051
 20
-6.2694597917
 10
-25.8518839825
 20
-6.2614484888
 10
-25.8467952042
 20
-6.2535808677
 10
-25.8414867389
 20
-6.2458635031
 10
-25.8359643553
 20
-6.2383029693
 10
-25.830233822
 20
-6.2309058411
 10
-25.8236369672
 20
-6.2228929936
 10
-25.8168016252
 20
-6.2150882357
 10
-25.8097386404
 20
-6.207490243
 10
-25.8024588574
 20
-6.2000976911
 10
-25.7949731205
 20
-6.1929092555
 10
-25.7872922742
 20
-6.1859236119
 10
-25.7794271628
 20
-6.1791394358
 10
-25.7713886309
 20
-6.172555403
 10
-25.7631875228
 20
-6.1661701889
 10
-25.754834683
 20
-6.1599824691
 10
-25.7463409559
 20
-6.1539909193
 10
-25.7368950252
 20
-6.1476574647
 10
-25.7272998382
 20
-6.1415601413
 10
-25.7175619078
 20
-6.1357016888
 10
-25.7076877466
 20
-6.130084847
 10
-25.6976838675
 20
-6.1247123555
 10
-25.6875567833
 20
-6.119586954
 10
-25.6773130067
 20
-6.114711382
 10
-25.6669590506
 20
-6.1100883794
 10
-25.6565014278
 20
-6.1057206858
 10
-25.645946651
 20
-6.1016110408
  0
LWPOLYLINE
  5
438
100
AcDbEntity
  8
0
100
AcDbPolyline
 62
250
  6
CONTINUOUS
 90
49
 70
0
 10
-27.1889444665
 20
-6.3097246963
 10
-27.1875116577
 20
-6.2986604873
 10
-27.1857810568
 20
-6.287595571
 10
-27.1837534495
 20
-6.2765420684
 10
-27.1814296212
 20
-6.2655121002
 10
-27.1788103576
 20
-6.2545177873
 10
-27.1758964442
 20
-6.2435712507
 10
-27.1726886666
 20
-6.2326846113
 10
-27.1691878103
 20
-6.2218699898
 10
-27.1653946609
 20
-6.2111395072
 10
-27.161310004
 20
-6.2005052844
 10
-27.1569346252
 20
-6.1899794421
 10
-27.15226931
 20
-6.1795741014
 10
-27.1473148439
 20
-6.1693013831
 10
-27.1420720126
 20
-6.159173408
 10
-27.1365416016
 20
-6.1492022971
 10
-27.1307243965
 20
-6.1394001712
 10
-27.1246211828
 20
-6.1297791512
 10
-27.1182327461
 20
-6.120351358
 10
-27.111559872
 20
-6.1111289125
 10
-27.1046033461
 20
-6.1021239355
 10
-27.0973639538
 20
-6.0933485478
 10
-27.0898424809
 20
-6.0848148705
 10
-27.0820397128
 20
-6.0765350244
 10
-27.0739564351
 20
-6.0685211303
 10
-27.0655985029
 20
-6.0607865669
 10
-27.0569742452
 20
-6.05333346
 10
-27.048096863
 20
-6.0461653893
 10
-27.0389795573
 20
-6.0392859346
 10
-27.0296355294
 20
-6.0326986757
 10
-27.0200779803
 20
-6.0264071923
 10
-27.010320111
 20
-6.0204150642
 10
-27.0003751226
 20
-6.0147258712
 10
-26.9902562163
 20
-6.0093431929
 10
-26.979976593
 20
-6.0042706092
 10
-26.969549454
 20
-5.9995116998
 10
-26.9589880002
 20
-5.9950700445
 10
-26.9483054328
 20
-5.990949223
 10
-26.9375149529
 20
-5.9871528151
 10
-26.9266297615
 20
-5.9836844006
 10
-26.9156630597
 20
-5.9805475592
 10
-26.9046280486
 20
-5.9777458707
 10
-26.8935379293
 20
-5.9752829148
 10
-26.8824059029
 20
-5.9731622713
 10
-26.8712451704
 20
-5.97138752
 10
-26.860068933
 20
-5.9699622406
 10
-26.8488903917
 20
-5.9688900128
 10
-26.8377227476
 20
-5.9681744165
 10
-26.8265792018
 20
-5.9678190314
  0
LWPOLYLINE
  5
439
100
AcDbEntity
  8
0
100
AcDbPolyline
 62
250
  6
CONTINUOUS
 90
30
 70
0
 10
-27.601327876
 20
-5.8729491245
 10
-27.6124783347
 20
-5.9052571179
 10
-27.6227356839
 20
-5.9378645079
 10
-27.6321424088
 20
-5.9707435278
 10
-27.6407409945
 20
-6.0038664112
 10
-27.648573926
 20
-6.0372053914
 10
-27.6556836885
 20
-6.0707327019
 10
-27.662112767
 20
-6.1044205761
 10
-27.6679036467
 20
-6.1382412474
 10
-27.6730988125
 20
-6.1721669493
 10
-27.6777407498
 20
-6.2061699151
 10
-27.6818719434
 20
-6.2402223783
 10
-27.6874291318
 20
-6.2939249676
 10
-27.6918803015
 20
-6.3476731874
 10
-27.6952818723
 20
-6.4014587219
 10
-27.6976902639
 20
-6.4552732555
 10
-27.6991618961
 20
-6.5091084725
 10
-27.6997531888
 20
-6.562956057
 10
-27.6995205616
 20
-6.6168076936
 10
-27.6982787738
 20
-6.679578593
 10
-27.6960491947
 20
-6.7423312434
 10
-27.6928870181
 20
-6.8050531901
 10
-27.6888474378
 20
-6.8677319782
 10
-27.6839856476
 20
-6.9303551529
 10
-27.6783568413
 20
-6.9929102593
 10
-27.6706709564
 20
-7.0678623233
 10
-27.6620687178
 20
-7.142706217
 10
-27.6526584797
 20
-7.2174496879
 10
-27.6425485964
 20
-7.292100483
 10
-27.631847422
 20
-7.3666663497
  0
LINE
  5
43A
100
AcDbEntity
  8
0
100
AcDbLine
 62
250
  6
CONTINUOUS
 10
-21.2751760863
 20
6.6810473438
 11
-21.54656333
 21
6.3824760576
  0
LINE
  5
43B
100
AcDbEntity
  8
0
100
AcDbLine
 62
7
  6
CONTINUOUS
 10
-25.3884110941
 20
2.1971567007
 11
-24.7742469931
 21
2.8113208017
  0
LINE
  5
43C
100
AcDbEntity
  8
0
100
AcDbLine
 62
7
  6
CONTINUOUS
 10
-24.9683896661
 20
2.1971567007
 11
-24.7742469931
 21
2.3912993737
  0
LWPOLYLINE
  5
43D
100
AcDbEntity
  8
RACCORDO
100
AcDbPolyline
 62
250
  6
CONTINUOUS
 90
43
 70
0
 10
-8.7487307589
 20
13.7601495112
 10
-8.7299640879
 20
13.776186316
 10
-8.7111359183
 20
13.7929564401
 10
-8.6922708296
 20
13.8104598836
 10
-8.6733642582
 20
13.828744877
 10
-8.654474471
 20
13.8477631897
 10
-8.6357170727
 20
13.8673701303
 10
-8.6171164754
 20
13.8875769471
 10
-8.5986967233
 20
13.9083723918
 10
-8.580563481
 20
13.9295780282
 10
-8.5627471043
 20
13.9511871052
 10
-8.5452571028
 20
13.9732063739
 10
-8.5281590864
 20
13.995477651
 10
-8.511466318
 20
14.0180068568
 10
-8.4951994886
 20
14.0407880711
 10
-8.4794266807
 20
14.0636453495
 10
-8.4641596347
 20
14.0865759888
 10
-8.4494094908
 20
14.1095826922
 10
-8.4352327902
 20
14.132497625
 10
-8.4216397054
 20
14.1553072009
 10
-8.4086297522
 20
14.1780250063
 10
-8.3962339029
 20
14.2005239655
 10
-8.384458338
 20
14.2227863532
 10
-8.3732960492
 20
14.2448298949
 10
-8.3627527196
 20
14.2665806915
 10
-8.3528274557
 20
14.2880297715
 10
-8.3435154555
 20
14.3091861066
 10
-8.3348144678
 20
14.3300027125
 10
-8.3267199968
 20
14.3504756981
 10
-8.3192277275
 20
14.3706089547
 10
-8.3123343217
 20
14.3903671721
 10
-8.306034775
 20
14.4097434714
 10
-8.3003216562
 20
14.4287447316
 10
-8.2951872842
 20
14.4473562792
 10
-8.2906257401
 20
14.4655719984
 10
-8.2866289217
 20
14.4833980051
 10
-8.2831869446
 20
14.5008379726
 10
-8.2802934601
 20
14.5178895826
 10
-8.2779415674
 20
14.5345551535
 10
-8.2761228056
 20
14.5508453136
 10
-8.2748309918
 20
14.5667636055
 10
-8.2740606316
 20
14.5823064867
 10
-8.2738053427
 20
14.597473957
  0
LWPOLYLINE
  5
43E
100
AcDbEntity
  8
ASSI
100
AcDbPolyline
 62
250
  6
CONTINUOUS
 90
43
 70
0
 10
-8.7487307589
 20
13.7601495112
 10
-8.7299640879
 20
13.776186316
 10
-8.7111359183
 20
13.7929564401
 10
-8.6922708296
 20
13.8104598836
 10
-8.6733642582
 20
13.828744877
 10
-8.654474471
 20
13.8477631897
 10
-8.6357170727
 20
13.8673701303
 10
-8.6171164754
 20
13.8875769471
 10
-8.5986967233
 20
13.9083723918
 10
-8.580563481
 20
13.9295780282
 10
-8.5627471043
 20
13.9511871052
 10
-8.5452571028
 20
13.9732063739
 10
-8.5281590864
 20
13.995477651
 10
-8.511466318
 20
14.0180068568
 10
-8.4951994886
 20
14.0407880711
 10
-8.4794266807
 20
14.0636453495
 10
-8.4641596347
 20
14.0865759888
 10
-8.4494094908
 20
14.1095826922
 10
-8.4352327902
 20
14.132497625
 10
-8.4216397054
 20
14.1553072009
 10
-8.4086297522
 20
14.1780250063
 10
-8.3962339029
 20
14.2005239655
 10
-8.384458338
 20
14.2227863532
 10
-8.3732960492
 20
14.2448298949
 10
-8.3627527196
 20
14.2665806915
 10
-8.3528274557
 20
14.2880297715
 10
-8.3435154555
 20
14.3091861066
 10
-8.3348144678
 20
14.3300027125
 10
-8.3267199968
 20
14.3504756981
 10
-8.3192277275
 20
14.3706089547
 10
-8.3123343217
 20
14.3903671721
 10
-8.306034775
 20
14.4097434714
 10
-8.3003216562
 20
14.4287447316
 10
-8.2951872842
 20
14.4473562792
 10
-8.2906257401
 20
14.4655719984
 10
-8.2866289217
 20
14.4833980051
 10
-8.2831869446
 20
14.5008379726
 10
-8.2802934601
 20
14.5178895826
 10
-8.2779415674
 20
14.5345551535
 10
-8.2761228056
 20
14.5508453136
 10
-8.2748309918
 20
14.5667636055
 10
-8.2740606316
 20
14.5823064867
 10
-8.2738053427
 20
14.597473957
  0
LWPOLYLINE
  5
43F
100
AcDbEntity
  8
RACCORDO
100
AcDbPolyline
 62
250
  6
CONTINUOUS
 90
43
 70
0
 10
-6.5528784006
 20
0.1384244735
 10
-6.542199058
 20
0.1386582121
 10
-6.5315598944
 20
0.1389951633
 10
-6.5209746247
 20
0.1394317156
 10
-6.5104567602
 20
0.1399612405
 10
-6.500019891
 20
0.1405829757
 10
-6.4896774967
 20
0.1413020377
 10
-6.4794422233
 20
0.1421149101
 10
-6.4693272593
 20
0.1430174896
 10
-6.4593462756
 20
0.1440139798
 10
-6.4495111644
 20
0.1451008603
 10
-6.4398343203
 20
0.1462739343
 10
-6.4303294026
 20
0.1475363986
 10
-6.4210074312
 20
0.1488847957
 10
-6.4118798779
 20
0.1503149056
 10
-6.4029601739
 20
0.1518288371
 10
-6.3942583838
 20
0.1534232584
 10
-6.3857849592
 20
0.1550939963
 10
-6.3775528672
 20
0.1568420059
 10
-6.3695711768
 20
0.1586641327
 10
-6.3618492391
 20
0.1605563199
 10
-6.3543992704
 20
0.1625183321
 10
-6.3472293169
 20
0.1645472329
 10
-6.3403475896
 20
0.1666391444
 10
-6.3337652667
 20
0.1687926311
 10
-6.3274893597
 20
0.1710050031
 10
-6.3215269195
 20
0.1732726143
 10
-6.3158878082
 20
0.1755928518
 10
-6.3105779925
 20
0.1779632864
 10
-6.3056033567
 20
0.1803805478
 10
-6.3009721999
 20
0.1828408997
 10
-6.2966894209
 20
0.1853421806
 10
-6.2927597409
 20
0.1878813245
 10
-6.2891897154
 20
0.1904535477
 10
-6.2859831428
 20
0.1930569514
 10
-6.283143569
 20
0.1956887973
 10
-6.2806756843
 20
0.1983433552
 10
-6.2785821345
 20
0.2010189813
 10
-6.2768652693
 20
0.2037132786
 10
-6.2755278718
 20
0.2064196917
 10
-6.2745714797
 20
0.2091349298
 10
-6.2739969979
 20
0.2118588552
 10
-6.2738053427
 20
0.2145898433
  0
LWPOLYLINE
  5
440
100
AcDbEntity
  8
ASSI
100
AcDbPolyline
 62
250
  6
CONTINUOUS
 90
43
 70
0
 10
-6.5528784006
 20
0.1384244735
 10
-6.542199058
 20
0.1386582121
 10
-6.5315598944
 20
0.1389951633
 10
-6.5209746247
 20
0.1394317156
 10
-6.5104567602
 20
0.1399612405
 10
-6.500019891
 20
0.1405829757
 10
-6.4896774967
 20
0.1413020377
 10
-6.4794422233
 20
0.1421149101
 10
-6.4693272593
 20
0.1430174896
 10
-6.4593462756
 20
0.1440139798
 10
-6.4495111644
 20
0.1451008603
 10
-6.4398343203
 20
0.1462739343
 10
-6.4303294026
 20
0.1475363986
 10
-6.4210074312
 20
0.1488847957
 10
-6.4118798779
 20
0.1503149056
 10
-6.4029601739
 20
0.1518288371
 10
-6.3942583838
 20
0.1534232584
 10
-6.3857849592
 20
0.1550939963
 10
-6.3775528672
 20
0.1568420059
 10
-6.3695711768
 20
0.1586641327
 10
-6.3618492391
 20
0.1605563199
 10
-6.3543992704
 20
0.1625183321
 10
-6.3472293169
 20
0.1645472329
 10
-6.3403475896
 20
0.1666391444
 10
-6.3337652667
 20
0.1687926311
 10
-6.3274893597
 20
0.1710050031
 10
-6.3215269195
 20
0.1732726143
 10
-6.3158878082
 20
0.1755928518
 10
-6.3105779925
 20
0.1779632864
 10
-6.3056033567
 20
0.1803805478
 10
-6.3009721999
 20
0.1828408997
 10
-6.2966894209
 20
0.1853421806
 10
-6.2927597409
 20
0.1878813245
 10
-6.2891897154
 20
0.1904535477
 10
-6.2859831428
 20
0.1930569514
 10
-6.283143569
 20
0.1956887973
 10
-6.2806756843
 20
0.1983433552
 10
-6.2785821345
 20
0.2010189813
 10
-6.2768652693
 20
0.2037132786
 10
-6.2755278718
 20
0.2064196917
 10
-6.2745714797
 20
0.2091349298
 10
-6.2739969979
 20
0.2118588552
 10
-6.2738053427
 20
0.2145898433
  0
LINE
  5
441
100
AcDbEntity
  8
DRAFT
100
AcDbLine
 62
7
  6
CONTINUOUS
 10
-8.2775687783
 20
-1.1633844041
 11
-8.2738053427
 21
-1.1633515611
  0
LWPOLYLINE
  5
442
100
AcDbEntity
  8
0
100
AcDbPolyline
 62
250
  6
CONTINUOUS
 90
12
 70
0
 10
-26.1371939585
 20
-5.8105432954
 10
-26.1390276493
 20
-5.8004982965
 10
-26.141829327
 20
-5.7907453292
 10
-26.1454963912
 20
-5.7812628131
 10
-26.1499262414
 20
-5.772029168
 10
-26.1550162769
 20
-5.7630228137
 10
-26.1606638972
 20
-5.7542221698
 10
-26.1667665017
 20
-5.7456056561
 10
-26.1732214899
 20
-5.7371516924
 10
-26.1799262612
 20
-5.7288386984
 10
-26.1867782151
 20
-5.7206450937
 10
-26.2125449765
 20
-5.6905694443
  0
LWPOLYLINE
  5
443
100
AcDbEntity
  8
0
100
AcDbPolyline
 62
250
  6
CONTINUOUS
 90
3
 70
0
 10
-26.3760123757
 20
3.2138275487
 10
-26.3743031239
 20
3.1983917084
 10
-26.3724542598
 20
3.1829787825
  0
LWPOLYLINE
  5
444
100
AcDbEntity
  8
0
100
AcDbPolyline
 62
250
  6
CONTINUOUS
 90
57
 70
0
 10
-22.8999123329
 20
-14.1601656289
 10
-22.8982372744
 20
-14.1976363782
 10
-22.8959033759
 20
-14.235184686
 10
-22.8929236169
 20
-14.2727562659
 10
-22.8893109773
 20
-14.3102968317
 10
-22.8850784369
 20
-14.3477520973
 10
-22.8802389752
 20
-14.3850677765
 10
-22.8748055721
 20
-14.4221895829
 10
-22.8687912073
 20
-14.4590632305
 10
-22.8622088605
 20
-14.4956344329
 10
-22.8550715115
 20
-14.531848904
 10
-22.8501943993
 20
-14.5548955022
 10
-22.8450503514
 20
-14.5778022591
 10
-22.8395958891
 20
-14.6005987816
 10
-22.8337875336
 20
-14.6233146766
 10
-22.8275818059
 20
-14.6459795507
 10
-22.8209352273
 20
-14.6686230109
 10
-22.8138043189
 20
-14.691274664
 10
-22.806145602
 20
-14.7139641168
 10
-22.7979155975
 20
-14.736720976
 10
-22.7890708268
 20
-14.7595748486
 10
-22.779567811
 20
-14.7825553413
 10
-22.7693630713
 20
-14.805692061
 10
-22.7584131287
 20
-14.8290146144
 10
-22.752625322
 20
-14.8407917079
 10
-22.7466392804
 20
-14.8525981691
 10
-22.7404553375
 20
-14.8644091235
 10
-22.7340738268
 20
-14.8761996967
 10
-22.7274950818
 20
-14.8879450144
 10
-22.720719436
 20
-14.8996202022
 10
-22.7137472229
 20
-14.9112003857
 10
-22.706578776
 20
-14.9226606905
 10
-22.6992144289
 20
-14.9339762421
 10
-22.6916545151
 20
-14.9451221663
 10
-22.683899368
 20
-14.9560735886
 10
-22.6759493212
 20
-14.9668056347
 10
-22.6678047083
 20
-14.9772934301
 10
-22.6594658626
 20
-14.9875121005
 10
-22.6509331178
 20
-14.9974367714
 10
-22.6422068073
 20
-15.0070425685
 10
-22.6332872647
 20
-15.0163046174
 10
-22.6241748235
 20
-15.0251980437
 10
-22.6148698172
 20
-15.0336979731
 10
-22.6053725792
 20
-15.041779531
 10
-22.5956834432
 20
-15.0494178432
 10
-22.5858027426
 20
-15.0565880353
 10
-22.575730811
 20
-15.0632652328
 10
-22.5654679818
 20
-15.0694245613
 10
-22.5550145886
 20
-15.0750411466
 10
-22.5443709648
 20
-15.0800901141
 10
-22.5335374441
 20
-15.0845465895
 10
-22.5225143599
 20
-15.0883856985
 10
-22.5113020457
 20
-15.0915825666
 10
-22.4999008351
 20
-15.0941123194
 10
-22.4883110615
 20
-15.0959500825
 10
-22.4765330585
 20
-15.0970709816
 10
-22.4645671596
 20
-15.0974501423
  0
LINE
  5
445
100
AcDbEntity
  8
0
100
AcDbLine
 62
250
  6
CONTINUOUS
 10
-25.3456418074
 20
-8.3391312993
 11
-25.3456418074
 21
-9.1634102993
  0
LINE
  5
446
100
AcDbEntity
  8
0
100
AcDbLine
 62
250
  6
CONTINUOUS
 10
-25.2560322032
 20
5.2901057007
 11
-25.2560322032
 21
6.3631047007
  0
LINE
  5
447
100
AcDbEntity
  8
0
100
AcDbLine
 62
250
  6
CONTINUOUS
 10
-24.7742469931
 20
12.4075647007
 11
-24.7742469931
 21
11.5239127007
  0
LINE
  5
448
100
AcDbEntity
  8
0
100
AcDbLine
 62
250
  6
CONTINUOUS
 10
-24.7742469931
 20
10.3711367007
 11
-24.7742469931
 21
9.7886917007
  0
LINE
  5
449
100
AcDbEntity
  8
0
100
AcDbLine
 62
250
  6
CONTINUOUS
 10
-24.7742469931
 20
6.3631047007
 11
-24.7742469931
 21
4.6674997007
  0
LINE
  5
44A
100
AcDbEntity
  8
0
100
AcDbLine
 62
250
  6
CONTINUOUS
 10
-24.7742469931
 20
2.1971567007
 11
-24.7742469931
 21
2.8197627007
  0
LINE
  5
44B
100
AcDbEntity
  8
0
100
AcDbLine
 62
250
  6
CONTINUOUS
 10
-24.7742469931
 20
6.6758807007
 11
-24.7742469931
 21
7.2703307007
  0
LINE
  5
44C
100
AcDbEntity
  8
0
100
AcDbLine
 62
250
  6
CONTINUOUS
 10
-24.7742469931
 20
8.8447977007
 11
-24.7742469931
 21
9.4714407007
  0
LINE
  5
44D
100
AcDbEntity
  8
0
100
AcDbLine
 62
250
  6
CONTINUOUS
 10
-24.7742469931
 20
12.7008067007
 11
-24.7742469931
 21
13.2952557007
  0
LINE
  5
44E
100
AcDbEntity
  8
0
100
AcDbLine
 62
250
  6
CONTINUOUS
 10
-24.7742469931
 20
14.8699407007
 11
-24.7742469931
 21
15.4963667007
  0
LINE
  5
44F
100
AcDbEntity
  8
0
100
AcDbLine
 62
250
  6
CONTINUOUS
 10
-24.7669445989
 20
-7.3666663497
 11
-24.7669445989
 21
-6.7638303886
  0
LINE
  5
450
100
AcDbEntity
  8
0
100
AcDbLine
 62
250
  6
CONTINUOUS
 10
-24.7669445989
 20
-5.8369407437
 11
-24.7669445989
 21
-5.2547400201
  0
LINE
  5
451
100
AcDbEntity
  8
0
100
AcDbLine
 62
250
  6
CONTINUOUS
 10
-24.7669441246
 20
-7.5444032993
 11
-24.7669441246
 21
-8.1823342993
  0
LINE
  5
452
100
AcDbEntity
  8
0
100
AcDbLine
 62
250
  6
CONTINUOUS
 10
-24.7669441246
 20
-9.3304272993
 11
-24.7669441246
 21
-9.9291322993
  0
LINE
  5
453
100
AcDbEntity
  8
0
100
AcDbLine
 62
250
  6
CONTINUOUS
 10
-24.7669441246
 20
-10.0241762993
 11
-24.7669441246
 21
-10.6162922993
  0
LINE
  5
454
100
AcDbEntity
  8
0
100
AcDbLine
 62
250
  6
CONTINUOUS
 10
-24.7669441246
 20
-11.4603152993
 11
-24.7669441246
 21
-11.5452042993
  0
LINE
  5
455
100
AcDbEntity
  8
0
100
AcDbLine
 62
250
  6
CONTINUOUS
 10
-24.7669441246
 20
-12.3858782993
 11
-24.7669441246
 21
-12.9649262993
  0
LINE
  5
456
100
AcDbEntity
  8
0
100
AcDbLine
 62
250
  6
CONTINUOUS
 10
-24.7669441246
 20
-15.0527162993
 11
-24.7669441246
 21
-15.5861122993
  0
LINE
  5
457
100
AcDbEntity
  8
0
100
AcDbLine
 62
250
  6
CONTINUOUS
 10
-24.7669441246
 20
-13.8960342993
 11
-24.7669441246
 21
-13.2907622993
  0
LWPOLYLINE
  5
458
100
AcDbEntity
  8
0
100
AcDbPolyline
 62
7
  6
CONTINUOUS
 90
4
 70
0
 43
0.3500000006
 10
-23.6991779022
 20
45.0720246735
 10
-23.6991779022
 20
45.7148826599
 10
-22.1991797104
 20
45.7148826599
 10
-23.0563221817
 20
42.7148817444
  0
LINE
  5
459
100
AcDbEntity
  8
RACCORDO
100
AcDbLine
 62
250
  6
CONTINUOUS
 10
-23.5720600233
 20
23.2519542572
 11
-23.5720600233
 21
21.8295495875
  0
LINE
  5
45A
100
AcDbEntity
  8
RACCORDO
100
AcDbLine
 62
250
  6
CONTINUOUS
 10
-23.5720600233
 20
-22.8360261861
 11
-23.5720600233
 21
-24.2584308558
  0
LINE
  5
45B
100
AcDbEntity
  8
RACCORDO
100
AcDbLine
 62
7
  6
CONTINUOUS
 10
-23.2738053427
 20
23.2502190622
 11
-23.2738053427
 21
21.8269467584
  0
LINE
  5
45C
100
AcDbEntity
  8
RACCORDO
100
AcDbLine
 62
7
  6
CONTINUOUS
 10
-23.2738053427
 20
-22.833423357
 11
-23.2738053427
 21
-24.2566956608
  0
LINE
  5
45D
100
AcDbEntity
  8
RACCORDO
100
AcDbLine
 62
250
  6
CONTINUOUS
 10
-9.2563529363
 20
13.3089266482
 11
-9.2027185651
 21
13.3577598798
  0
LINE
  5
45E
100
AcDbEntity
  8
ASSI
100
AcDbLine
 62
250
  6
CONTINUOUS
 10
-9.2563529363
 20
13.3089266482
 11
-9.2027185651
 21
13.3577598798
  0
LINE
  5
45F
100
AcDbEntity
  8
RACCORDO
100
AcDbLine
 62
250
  6
CONTINUOUS
 10
-9.2027185651
 20
13.3577598798
 11
-9.0965001725
 21
13.4541825225
  0
LINE
  5
460
100
AcDbEntity
  8
ASSI
100
AcDbLine
 62
250
  6
CONTINUOUS
 10
-9.2027185651
 20
13.3577598798
 11
-9.0965001725
 21
13.4541825225
  0
LINE
  5
461
100
AcDbEntity
  8
RACCORDO
100
AcDbLine
 62
250
  6
CONTINUOUS
 10
-9.0965001725
 20
13.4541825225
 11
-9.0448219849
 21
13.5008813228
  0
LINE
  5
462
100
AcDbEntity
  8
ASSI
100
AcDbLine
 62
250
  6
CONTINUOUS
 10
-9.0965001725
 20
13.4541825225
 11
-9.0448219849
 21
13.5008813228
  0
LWPOLYLINE
  5
463
100
AcDbEntity
  8
RACCORDO
100
AcDbPolyline
 62
250
  6
CONTINUOUS
 90
4
 70
0
 10
-9.0448219849
 20
13.5008813228
 10
-8.9944053601
 20
13.5461705893
 10
-8.9697108069
 20
13.5682568526
 10
-8.9454475234
 20
13.589856243
  0
LWPOLYLINE
  5
464
100
AcDbEntity
  8
ASSI
100
AcDbPolyline
 62
250
  6
CONTINUOUS
 90
4
 70
0
 10
-9.0448219849
 20
13.5008813228
 10
-8.9944053601
 20
13.5461705893
 10
-8.9697108069
 20
13.5682568526
 10
-8.9454475234
 20
13.589856243
  0
LWPOLYLINE
  5
465
100
AcDbEntity
  8
RACCORDO
100
AcDbPolyline
 62
250
  6
CONTINUOUS
 90
9
 70
0
 10
-8.9454475234
 20
13.589856243
 10
-8.8982838153
 20
13.6315560482
 10
-8.8754049546
 20
13.6516217477
 10
-8.8530082424
 20
13.671143625
 10
-8.8311016088
 20
13.6901247357
 10
-8.8097157447
 20
13.7085203523
 10
-8.7888619763
 20
13.7263155659
 10
-8.7685333324
 20
13.7435252856
 10
-8.7487307589
 20
13.7601495112
  0
LWPOLYLINE
  5
466
100
AcDbEntity
  8
ASSI
100
AcDbPolyline
 62
250
  6
CONTINUOUS
 90
9
 70
0
 10
-8.9454475234
 20
13.589856243
 10
-8.8982838153
 20
13.6315560482
 10
-8.8754049546
 20
13.6516217477
 10
-8.8530082424
 20
13.671143625
 10
-8.8311016088
 20
13.6901247357
 10
-8.8097157447
 20
13.7085203523
 10
-8.7888619763
 20
13.7263155659
 10
-8.7685333324
 20
13.7435252856
 10
-8.7487307589
 20
13.7601495112
  0
LINE
  5
467
100
AcDbEntity
  8
DRAFT
100
AcDbLine
 62
7
  6
CONTINUOUS
 10
-35.5214149112
 20
1.2682434269
 11
-34.8548661813
 21
1.2798780783
  0
LINE
  5
468
100
AcDbEntity
  8
RACCORDO
100
AcDbLine
 62
250
  6
CONTINUOUS
 10
-8.2738053427
 20
-0.0825857338
 11
-7.9755332091
 21
-0.0825857338
  0
LINE
  5
469
100
AcDbEntity
  8
ASSI
100
AcDbLine
 62
250
  6
CONTINUOUS
 10
-8.2738053427
 20
-0.0825857338
 11
-7.9755332091
 21
-0.0825857338
  0
LINE
  5
46A
100
AcDbEntity
  8
RACCORDO
100
AcDbLine
 62
250
  6
CONTINUOUS
 10
-6.2738053427
 20
0.2145898433
 11
-6.5720774763
 21
0.2145898433
  0
LINE
  5
46B
100
AcDbEntity
  8
ASSI
100
AcDbLine
 62
250
  6
CONTINUOUS
 10
-6.2738053427
 20
0.2145898433
 11
-6.5720774763
 21
0.2145898433
  0
LINE
  5
46C
100
AcDbEntity
  8
RACCORDO
100
AcDbLine
 62
250
  6
CONTINUOUS
 10
-6.5720774763
 20
1.5789335581
 11
-6.2738053427
 21
1.5789335581
  0
LINE
  5
46D
100
AcDbEntity
  8
ASSI
100
AcDbLine
 62
250
  6
CONTINUOUS
 10
-6.5720774763
 20
1.5789335581
 11
-6.2738053427
 21
1.5789335581
  0
LINE
  5
46E
100
AcDbEntity
  8
DRAFT
100
AcDbLine
 62
7
  6
CONTINUOUS
 10
-8.2775687783
 20
0.1569078055
 11
-8.2738053427
 21
0.1568749625
  0
LINE
  5
46F
100
AcDbEntity
  8
RACCORDO
100
AcDbLine
 62
7
  6
CONTINUOUS
 10
-8.2735946959
 20
0.1568731242
 11
-7.9755332091
 21
0.154271981
  0
LINE
  5
470
100
AcDbEntity
  8
ASSI
100
AcDbLine
 62
7
  6
CONTINUOUS
 10
-8.2735946959
 20
0.1568731242
 11
-7.9755332091
 21
0.154271981
  0
LINE
  5
471
100
AcDbEntity
  8
0
100
AcDbLine
 62
250
  6
CONTINUOUS
 10
-12.7738053427
 20
-14.0732382993
 11
-13.8066816467
 21
-12.7422162993
  0
LINE
  5
472
100
AcDbEntity
  8
0
100
AcDbLine
 62
250
  6
CONTINUOUS
 10
-23.1748867071
 20
6.6810473438
 11
-23.1748867071
 21
6.8303332361
  0
LINE
  5
473
100
AcDbEntity
  8
0
100
AcDbLine
 62
250
  6
CONTINUOUS
 10
-23.1748867071
 20
8.3231904145
 11
-23.1748867071
 21
8.4724760576
  0
LINE
  5
474
100
AcDbEntity
  8
0
100
AcDbLine
 62
250
  6
CONTINUOUS
 10
-22.8591252138
 20
-14.7850222993
 11
-22.8591252138
 21
-14.6856482993
  0
LINE
  5
475
100
AcDbEntity
  8
0
100
AcDbLine
 62
250
  6
CONTINUOUS
 10
-22.4645673161
 20
-15.3132112993
 11
-22.4645673161
 21
-12.8753042993
  0
LINE
  5
476
100
AcDbEntity
  8
0
100
AcDbLine
 62
250
  6
CONTINUOUS
 10
-22.360725061
 20
10.2639047714
 11
-22.360725061
 21
9.6169999858
  0
LINE
  5
477
100
AcDbEntity
  8
0
100
AcDbLine
 62
250
  6
CONTINUOUS
 10
-22.101712589
 20
-12.9353512993
 11
-22.101712589
 21
-12.5852912993
  0
LINE
  5
478
100
AcDbEntity
  8
0
100
AcDbLine
 62
250
  6
CONTINUOUS
 10
-21.7293053171
 20
-12.5852912993
 11
-21.7293053171
 21
-12.9353512993
  0
LINE
  5
479
100
AcDbEntity
  8
0
100
AcDbLine
 62
250
  6
CONTINUOUS
 10
-21.6822569377
 20
5.6360473438
 11
-21.6822569377
 21
4.5910474684
  0
LINE
  5
47A
100
AcDbEntity
  8
0
100
AcDbLine
 62
250
  6
CONTINUOUS
 10
-21.6369033925
 20
-14.2151682993
 11
-21.6369033925
 21
-13.3918282993
  0
LINE
  5
47B
100
AcDbEntity
  8
0
100
AcDbLine
 62
250
  6
CONTINUOUS
 10
-21.4213002349
 20
-13.3918282993
 11
-21.4213002349
 21
-14.2151682993
  0
LINE
  5
47C
100
AcDbEntity
  8
0
100
AcDbLine
 62
250
  6
CONTINUOUS
 10
-21.2751760863
 20
8.4724760576
 11
-21.2751760863
 21
8.3231904145
  0
LINE
  5
47D
100
AcDbEntity
  8
0
100
AcDbLine
 62
250
  6
CONTINUOUS
 10
-21.2751760863
 20
6.8303332361
 11
-21.2751760863
 21
6.6810473438
  0
LINE
  5
47E
100
AcDbEntity
  8
0
100
AcDbLine
 62
250
  6
CONTINUOUS
 10
-21.2751760863
 20
9.8160473438
 11
-21.2751760863
 21
10.2639047714
  0
LINE
  5
47F
100
AcDbEntity
  8
0
100
AcDbLine
 62
250
  6
CONTINUOUS
 10
-22.9520850534
 20
-14.1601652993
 11
-22.9515271384
 21
-13.5871622993
  0
LINE
  5
480
100
AcDbEntity
  8
0
100
AcDbLine
 62
250
  6
CONTINUOUS
 10
-22.7340662638
 20
-13.5871622993
 11
-22.7346241788
 21
-14.1601652993
  0
LWPOLYLINE
  5
481
100
AcDbEntity
  8
RACCORDO
100
AcDbPolyline
 62
250
  6
CONTINUOUS
 90
22
 70
0
 10
-8.6121353257
 20
9.6230745765
 10
-8.6197230905
 20
9.615943696
 10
-8.6272689807
 20
9.6085447071
 10
-8.634761915
 20
9.6008884754
 10
-8.6421908899
 20
9.5929862443
 10
-8.6495449959
 20
9.5848496183
 10
-8.6568134331
 20
9.5764905463
 10
-8.6639855278
 20
9.5679213037
 10
-8.6710507476
 20
9.5591544748
 10
-8.677998717
 20
9.5502029337
 10
-8.6848192328
 20
9.5410798261
 10
-8.691502279
 20
9.5317985493
 10
-8.6980380412
 20
9.5223727333
 10
-8.7044169217
 20
9.51281622
 10
-8.7106295528
 20
9.5031430434
 10
-8.7166668112
 20
9.4933674088
 10
-8.722519831
 20
9.4835036718
 10
-8.728180017
 20
9.4735663177
 10
-8.733639057
 20
9.4635699397
 10
-8.7388889344
 20
9.4535292176
 10
-8.7439219395
 20
9.4434588965
 10
-8.7487306813
 20
9.433373765
  0
LWPOLYLINE
  5
482
100
AcDbEntity
  8
ASSI
100
AcDbPolyline
 62
250
  6
CONTINUOUS
 90
22
 70
0
 10
-8.6121353257
 20
9.6230745765
 10
-8.6197230905
 20
9.615943696
 10
-8.6272689807
 20
9.6085447071
 10
-8.634761915
 20
9.6008884754
 10
-8.6421908899
 20
9.5929862443
 10
-8.6495449959
 20
9.5848496183
 10
-8.6568134331
 20
9.5764905463
 10
-8.6639855278
 20
9.5679213037
 10
-8.6710507476
 20
9.5591544748
 10
-8.677998717
 20
9.5502029337
 10
-8.6848192328
 20
9.5410798261
 10
-8.691502279
 20
9.5317985493
 10
-8.6980380412
 20
9.5223727333
 10
-8.7044169217
 20
9.51281622
 10
-8.7106295528
 20
9.5031430434
 10
-8.7166668112
 20
9.4933674088
 10
-8.722519831
 20
9.4835036718
 10
-8.728180017
 20
9.4735663177
 10
-8.733639057
 20
9.4635699397
 10
-8.7388889344
 20
9.4535292176
 10
-8.7439219395
 20
9.4434588965
 10
-8.7487306813
 20
9.433373765
  0
LINE
  5
483
100
AcDbEntity
  8
0
100
AcDbLine
 62
250
  6
CONTINUOUS
 10
-27.6733636923
 20
2.1971567007
 11
-24.7742469931
 21
2.1971567007
  0
LINE
  5
484
100
AcDbEntity
  8
0
100
AcDbLine
 62
250
  6
CONTINUOUS
 10
-24.7742469931
 20
2.8197627007
 11
-25.8906678428
 21
2.8197627007
  0
LINE
  5
485
100
AcDbEntity
  8
0
100
AcDbLine
 62
250
  6
CONTINUOUS
 10
-26.3724540525
 20
2.8197627007
 11
-27.1915784823
 21
2.8197627007
  0
LWPOLYLINE
  5
486
100
AcDbEntity
  8
0
100
AcDbPolyline
 62
250
  6
CONTINUOUS
 90
53
 70
0
 10
-26.7820161201
 20
3.6151265374
 10
-26.7689100372
 20
3.6150311718
 10
-26.7557753895
 20
3.6147324475
 10
-26.7426260593
 20
3.6142114232
 10
-26.7294759288
 20
3.6134491577
 10
-26.7163388801
 20
3.6124267095
 10
-26.7032287956
 20
3.6111251375
 10
-26.6901595575
 20
3.6095255003
 10
-26.6771450479
 20
3.6076088568
 10
-26.6641991493
 20
3.6053562655
 10
-26.6513357437
 20
3.6027487851
 10
-26.6385687134
 20
3.5997674745
 10
-26.6259119407
 20
3.5963933924
 10
-26.6133793077
 20
3.5926075973
 10
-26.6017810665
 20
3.5886807894
 10
-26.590311715
 20
3.5843835753
 10
-26.578979391
 20
3.5797223167
 10
-26.5677922325
 20
3.5747033752
 10
-26.5567583774
 20
3.5693331127
 10
-26.5458859635
 20
3.5636178909
 10
-26.5351831287
 20
3.5575640714
 10
-26.5269792421
 20
3.5526209724
 10
-26.5189021485
 20
3.5474689142
 10
-26.510971015
 20
3.5421001404
 10
-26.5032050091
 20
3.5365068943
 10
-26.4956232979
 20
3.5306814194
 10
-26.4882450489
 20
3.5246159591
 10
-26.4810894291
 20
3.5183027568
 10
-26.474175606
 20
3.5117340559
 10
-26.4675227468
 20
3.5049020999
 10
-26.4611956152
 20
3.4978597646
 10
-26.4551447912
 20
3.4905676478
 10
-26.4493708091
 20
3.483042764
 10
-26.4438742032
 20
3.4753021275
 10
-26.4386555077
 20
3.4673627527
 10
-26.4337152569
 20
3.459241654
 10
-26.4290539851
 20
3.4509558457
 10
-26.4246722264
 20
3.4425223423
 10
-26.4205705151
 20
3.4339581581
 10
-26.4162558926
 20
3.4241093199
 10
-26.412282576
 20
3.4141285033
 10
-26.408631153
 20
3.4040298606
 10
-26.4052822111
 20
3.3938275441
 10
-26.4022163377
 20
3.3835357059
 10
-26.3994141205
 20
3.3731684984
 10
-26.396856147
 20
3.3627400737
 10
-26.3945230047
 20
3.3522645842
 10
-26.3915039227
 20
3.3370361532
 10
-26.3888584966
 20
3.3217479087
 10
-26.3865296966
 20
3.3064090428
 10
-26.3844604929
 20
3.2910287475
 10
-26.3825938557
 20
3.2756162148
 10
-26.3808727551
 20
3.2601806365
  0
LWPOLYLINE
  5
487
100
AcDbEntity
  8
RACCORDO
100
AcDbPolyline
 62
250
  6
CONTINUOUS
 90
13
 70
0
 10
-7.9947321989
 20
1.9892536978
 10
-8.002762013
 20
1.989491303
 10
-8.0107709471
 20
1.9898053044
 10
-8.0187532233
 20
1.9901954757
 10
-8.0267030862
 20
1.990661536
 10
-8.0346147973
 20
1.9912031492
 10
-8.0424826397
 20
1.991819924
 10
-8.0503009343
 20
1.9925114152
 10
-8.058064044
 20
1.9932771242
 10
-8.0657663683
 20
1.9941164985
 10
-8.0734023507
 20
1.9950289328
 10
-8.0809664824
 20
1.9960137686
 10
-8.0884533065
 20
1.9970702957
  0
LWPOLYLINE
  5
488
100
AcDbEntity
  8
ASSI
100
AcDbPolyline
 62
250
  6
CONTINUOUS
 90
13
 70
0
 10
-7.9947321989
 20
1.9892536978
 10
-8.002762013
 20
1.989491303
 10
-8.0107709471
 20
1.9898053044
 10
-8.0187532233
 20
1.9901954757
 10
-8.0267030862
 20
1.990661536
 10
-8.0346147973
 20
1.9912031492
 10
-8.0424826397
 20
1.991819924
 10
-8.0503009343
 20
1.9925114152
 10
-8.058064044
 20
1.9932771242
 10
-8.0657663683
 20
1.9941164985
 10
-8.0734023507
 20
1.9950289328
 10
-8.0809664824
 20
1.9960137686
 10
-8.0884533065
 20
1.9970702957
  0
LWPOLYLINE
  5
489
100
AcDbEntity
  8
0
100
AcDbPolyline
 62
250
  6
CONTINUOUS
 90
51
 70
0
 10
-11.4895126401
 20
-12.9829672993
 10
-11.5232924894
 20
-12.9443741763
 10
-11.5582820867
 20
-12.9067922382
 10
-11.5944393793
 20
-12.8702596328
 10
-11.631722315
 20
-12.8348145077
 10
-11.6700888411
 20
-12.8004950107
 10
-11.7094969052
 20
-12.7673392896
 10
-11.7499044548
 20
-12.7353854921
 10
-11.7912694375
 20
-12.7046717659
 10
-11.8335498008
 20
-12.6752362589
 10
-11.8767034922
 20
-12.6471171187
 10
-11.9206883725
 20
-12.6203490515
 10
-11.9654619554
 20
-12.5949529968
 10
-12.0109816679
 20
-12.5709464525
 10
-12.0572049371
 20
-12.5483469166
 10
-12.1040891898
 20
-12.5271718869
 10
-12.1515918531
 20
-12.5074388614
 10
-12.1996703541
 20
-12.489165338
 10
-12.2482821196
 20
-12.4723688147
 10
-12.2973845767
 20
-12.4570667892
 10
-12.3469351523
 20
-12.4432767596
 10
-12.3968902325
 20
-12.4310141529
 10
-12.447202039
 20
-12.4202861122
 10
-12.4978217525
 20
-12.4110977098
 10
-12.5487005538
 20
-12.4034540179
 10
-12.5997896236
 20
-12.3973601089
 10
-12.6510401426
 20
-12.392821055
 10
-12.7024032915
 20
-12.3898419285
 10
-12.7538302511
 20
-12.3884278015
 10
-12.8052722022
 20
-12.3885837465
 10
-12.8566803253
 20
-12.3903148356
 10
-12.9080063947
 20
-12.3936239004
 10
-12.9592045577
 20
-12.3985048093
 10
-13.0102295551
 20
-12.4049491902
 10
-13.0610361276
 20
-12.4129486707
 10
-13.111579016
 20
-12.4224948787
 10
-13.161812961
 20
-12.4335794418
 10
-13.2116927034
 20
-12.4461939878
 10
-13.261172984
 20
-12.4603301446
 10
-13.3102085434
 20
-12.4759795397
 10
-13.3587541224
 20
-12.493133801
 10
-13.4067638396
 20
-12.5117811703
 10
-13.4541893248
 20
-12.5318963451
 10
-13.5009815855
 20
-12.5534506373
 10
-13.5470916293
 20
-12.5764153586
 10
-13.5924704637
 20
-12.6007618207
 10
-13.6370690964
 20
-12.6264613352
 10
-13.6808385348
 20
-12.6534852139
 10
-13.7237297866
 20
-12.6818047686
 10
-13.7656938594
 20
-12.7113913109
 10
-13.8066817606
 20
-12.7422161525
  0
LINE
  5
48A
100
AcDbEntity
  8
RACCORDO
100
AcDbLine
 62
250
  6
CONTINUOUS
 10
-20.5711873821
 20
-21.4032382993
 11
-20.5711873821
 21
-21.1838784728
  0
LINE
  5
48B
100
AcDbEntity
  8
RACCORDO
100
AcDbLine
 62
250
  6
CONTINUOUS
 10
-20.5711873821
 20
20.1774018742
 11
-20.5711873821
 21
20.3967617007
  0
LINE
  5
48C
100
AcDbEntity
  8
RACCORDO
100
AcDbLine
 62
250
  6
CONTINUOUS
 10
-20.5685696208
 20
20.9418574602
 11
-20.5685696208
 21
20.6967617007
  0
LINE
  5
48D
100
AcDbEntity
  8
RACCORDO
100
AcDbLine
 62
250
  6
CONTINUOUS
 10
-20.5685696208
 20
-21.7032382993
 11
-20.5685696208
 21
-21.9483340588
  0
LINE
  5
48E
100
AcDbEntity
  8
DRAFT
100
AcDbLine
 62
7
  6
CONTINUOUS
 10
-20.2738053427
 20
-20.1142174682
 11
-20.2738053427
 21
-21.17868765
  0
LINE
  5
48F
100
AcDbEntity
  8
ASSI
100
AcDbLine
 62
7
  6
CONTINUOUS
 10
-20.2738053427
 20
-20.1142174682
 11
-20.2738053427
 21
-21.17868765
  0
LINE
  5
490
100
AcDbEntity
  8
RACCORDO
100
AcDbLine
 62
7
  6
CONTINUOUS
 10
-20.2738053427
 20
-21.17868765
 11
-20.2738053427
 21
-21.815931543
  0
LINE
  5
491
100
AcDbEntity
  8
DRAFT
100
AcDbLine
 62
7
  6
CONTINUOUS
 10
-20.2738053427
 20
19.1077408696
 11
-20.2738053427
 21
20.1722110514
  0
LINE
  5
492
100
AcDbEntity
  8
ASSI
100
AcDbLine
 62
7
  6
CONTINUOUS
 10
-20.2738053427
 20
19.1077408696
 11
-20.2738053427
 21
20.1722110514
  0
LINE
  5
493
100
AcDbEntity
  8
RACCORDO
100
AcDbLine
 62
7
  6
CONTINUOUS
 10
-20.2738053427
 20
20.1722110514
 11
-20.2738053427
 21
20.8094549444
  0
LWPOLYLINE
  5
494
100
AcDbEntity
  8
0
100
AcDbPolyline
 62
250
  6
CONTINUOUS
 90
83
 70
0
 10
-19.3210662451
 20
10.2143207007
 10
-19.3230143558
 20
10.1167525307
 10
-19.3212174837
 20
10.0190830316
 10
-19.3156855009
 20
9.9214818159
 10
-19.3064282796
 20
9.8241184958
 10
-19.293455692
 20
9.7271626836
 10
-19.2767776102
 20
9.6307839916
 10
-19.2564095273
 20
9.5351454799
 10
-19.2323894206
 20
9.4403839994
 10
-19.2047608879
 20
9.3466298492
 10
-19.1735675274
 20
9.2540133279
 10
-19.1388529371
 20
9.1626647344
 10
-19.1006607151
 20
9.0727143675
 10
-19.059039426
 20
8.9842917528
 10
-19.0140575012
 20
8.8975233224
 10
-18.9657883388
 20
8.8125347352
 10
-18.9143053366
 20
8.7294516502
 10
-18.8596818928
 20
8.6483997263
 10
-18.8019914052
 20
8.5695046223
 10
-18.7413116671
 20
8.4928882658
 10
-18.6777380522
 20
8.4186576592
 10
-18.6113703292
 20
8.3469160735
 10
-18.5423082671
 20
8.2777667797
 10
-18.4706516347
 20
8.2113130488
 10
-18.3965002007
 20
8.1476581518
 10
-18.319957234
 20
8.0869012191
 10
-18.2411400026
 20
8.0291248177
 10
-18.1601692745
 20
7.9744073742
 10
-18.0771658178
 20
7.9228273151
 10
-17.9922504004
 20
7.8744630666
 10
-17.9055437904
 20
7.8293930554
 10
-17.8171692006
 20
7.7876907453
 10
-17.7272596239
 20
7.7494097499
 10
-17.6359504981
 20
7.7145987203
 10
-17.5433772608
 20
7.6833063077
 10
-17.44967535
 20
7.655581163
 10
-17.3549802033
 20
7.6314719375
 10
-17.2594285131
 20
7.6110219288
 10
-17.1631619909
 20
7.5942530219
 10
-17.0663236025
 20
7.5811817484
 10
-16.9690563139
 20
7.5718246397
 10
-16.871503091
 20
7.5661982274
 10
-16.7738068999
 20
7.5643190432
 10
-16.6761107065
 20
7.566198108
 10
-16.5785574768
 20
7.5718244011
 10
-16.4812901768
 20
7.5811813909
 10
-16.3844517724
 20
7.5942525461
 10
-16.2881852297
 20
7.6110213354
 10
-16.1926335146
 20
7.6314712272
 10
-16.0979383384
 20
7.6555803371
 10
-16.0042363937
 20
7.6833053672
 10
-15.9116631182
 20
7.7145976667
 10
-15.8203539499
 20
7.7494085847
 10
-15.7304443264
 20
7.7876894702
 10
-15.6420696857
 20
7.8293916723
 10
-15.5553630206
 20
7.8744615776
 10
-15.4704475442
 20
7.9228257223
 10
-15.3874440245
 20
7.97440568
 10
-15.3064732296
 20
8.0291230245
 10
-15.2276559276
 20
8.0868993296
 10
-15.1511128867
 20
8.1476561688
 10
-15.076961375
 20
8.2113109751
 10
-15.0053046614
 20
8.2777646184
 10
-14.9362425148
 20
8.3469138278
 10
-14.8698747042
 20
8.4186553324
 10
-14.8063009986
 20
8.4928858614
 10
-14.745621167
 20
8.5695021437
 10
-14.6879305831
 20
8.6483971772
 10
-14.6333070402
 20
8.7294490344
 10
-14.5818239366
 20
8.8125320565
 10
-14.5335546703
 20
8.8975205846
 10
-14.4885726396
 20
8.9842889601
 10
-14.4469512425
 20
9.0727115239
 10
-14.4087589106
 20
9.1626618441
 10
-14.3740442088
 20
9.2540103952
 10
-14.3428507351
 20
9.3466268784
 10
-14.315222088
 20
9.4403809949
 10
-14.2912018655
 20
9.5351424459
 10
-14.2708336659
 20
9.6307809328
 10
-14.2541554663
 20
9.7271596044
 10
-14.2411827603
 20
9.8241154007
 10
-14.2319254201
 20
9.9214787095
 10
-14.2263933181
 20
10.0190799185
  0
LWPOLYLINE
  5
495
100
AcDbEntity
  8
0
100
AcDbPolyline
 62
250
  6
CONTINUOUS
 90
83
 70
0
 10
-19.3210662451
 20
5.8292077007
 10
-19.3230142411
 20
5.7316395684
 10
-19.321217257
 20
5.6339701115
 10
-19.3156851652
 20
5.5363689423
 10
-19.306427838
 20
5.4390056727
 10
-19.2934551478
 20
5.3420499148
 10
-19.276776967
 20
5.2456712808
 10
-19.2564087889
 20
5.1500328305
 10
-19.2323885906
 20
5.0552714148
 10
-19.2047599702
 20
4.9615173323
 10
-19.173566526
 20
4.8689008816
 10
-19.1388518561
 20
4.7775523614
 10
-19.1006595585
 20
4.6876020703
 10
-19.0590381981
 20
4.5991795335
 10
-19.0140562062
 20
4.5124111832
 10
-18.965786981
 20
4.427422678
 10
-18.9143039204
 20
4.3443396765
 10
-18.8596804224
 20
4.2632878375
 10
-18.8019898852
 20
4.1843928196
 10
-18.7413101019
 20
4.1077765503
 10
-18.6777364461
 20
4.0335460316
 10
-18.6113686867
 20
3.9618045344
 10
-18.5423065925
 20
3.8926553294
 10
-18.4706499323
 20
3.8262016875
 10
-18.396498475
 20
3.7625468796
 10
-18.3199554891
 20
3.7017900356
 10
-18.2411382429
 20
3.6440137225
 10
-18.1601675041
 20
3.5892963667
 10
-18.0771640407
 20
3.5377163944
 10
-17.9922486207
 20
3.4893522318
 10
-17.9055420119
 20
3.4442823053
 10
-17.8171674273
 20
3.4025800785
 10
-17.7272578594
 20
3.3642991649
 10
-17.6359487461
 20
3.3294882155
 10
-17.5433755248
 20
3.2981958812
 10
-17.4496736332
 20
3.2704708128
 10
-17.3549785091
 20
3.2463616615
 10
-17.2594268447
 20
3.2259117248
 10
-17.1631603511
 20
3.2091428875
 10
-17.0663219942
 20
3.1960716809
 10
-16.9690547397
 20
3.1867146367
 10
-16.8715015536
 20
3.1810882862
 10
-16.7738054015
 20
3.1792091608
 10
-16.6761092494
 20
3.1810882817
 10
-16.578556063
 20
3.1867146277
 10
-16.4812888081
 20
3.1960716674
 10
-16.3844504506
 20
3.2091428695
 10
-16.2881839563
 20
3.2259117024
 10
-16.1926322909
 20
3.2463616347
 10
-16.0979371656
 20
3.2704707817
 10
-16.0042352728
 20
3.2981958456
 10
-15.9116620501
 20
3.3294881757
 10
-15.8203529351
 20
3.3642991209
 10
-15.7304433655
 20
3.4025800303
 10
-15.6420687789
 20
3.4442822531
 10
-15.5553621681
 20
3.4893521756
 10
-15.4704467458
 20
3.5377163342
 10
-15.3874432801
 20
3.5892963027
 10
-15.3064725388
 20
3.6440136548
 10
-15.2276552898
 20
3.7017899642
 10
-15.1511123012
 20
3.7625468047
 10
-15.0769608409
 20
3.8262016092
 10
-15.0053041777
 20
3.8926552478
 10
-14.9362420803
 20
3.9618044496
 10
-14.8698743176
 20
4.0335459437
 10
-14.8063006584
 20
4.1077764595
 10
-14.7456208715
 20
4.184392726
 10
-14.6879303306
 20
4.2632877412
 10
-14.633306829
 20
4.3443395777
 10
-14.5818237645
 20
4.4274225768
 10
-14.5335545353
 20
4.5124110798
 10
-14.4885725395
 20
4.5991794281
 10
-14.446951175
 20
4.6876019629
 10
-14.4087588733
 20
4.7775522523
 10
-14.3740441991
 20
4.8689007709
 10
-14.3428507506
 20
4.9615172201
 10
-14.315222126
 20
5.0552713014
 10
-14.2912019233
 20
5.150032716
 10
-14.2708337407
 20
5.2456711653
 10
-14.2541555555
 20
5.3420497985
 10
-14.2411828608
 20
5.4390055558
 10
-14.2319255292
 20
5.536368825
 10
-14.2263934329
 20
5.633969994
  0
LWPOLYLINE
  5
496
100
AcDbEntity
  8
0
100
AcDbPolyline
 62
250
  6
CONTINUOUS
 90
9
 70
0
 10
-25.645946651
 20
-6.1016110408
 10
-25.6067778013
 20
-6.0872486682
 10
-25.5674051248
 20
-6.0734742365
 10
-25.5278521149
 20
-6.0602214677
 10
-25.4881422649
 20
-6.047424084
 10
-25.4482990681
 20
-6.0350158077
 10
-25.4083460181
 20
-6.0229303609
 10
-25.3683066081
 20
-6.0111014659
 10
-25.3282043315
 20
-5.9994628448
  0
LINE
  5
497
100
AcDbEntity
  8
0
100
AcDbLine
 62
250
  6
CONTINUOUS
 10
-24.8771605556
 20
-5.8688694816
 11
-24.7669445989
 21
-5.8369407437
  0
LWPOLYLINE
  5
498
100
AcDbEntity
  8
0
100
AcDbPolyline
 62
250
  6
CONTINUOUS
 90
3
 70
0
 10
-25.2077552361
 20
-5.9650258465
 10
-25.0974612296
 20
-5.933181087
 10
-24.8771605556
 20
-5.8688694816
  0
LINE
  5
499
100
AcDbEntity
  8
0
100
AcDbLine
 62
250
  6
CONTINUOUS
 10
-25.3282043315
 20
-5.9994628448
 11
-25.2077552361
 21
-5.9650258465
  0
LWPOLYLINE
  5
49A
100
AcDbEntity
  8
0
100
AcDbPolyline
 62
250
  6
CONTINUOUS
 90
54
 70
0
 10
-26.7820161201
 20
4.2778934519
 10
-26.8124669891
 20
4.2775847712
 10
-26.8429206406
 20
4.276628921
 10
-26.8733534204
 20
4.2749811894
 10
-26.9037416747
 20
4.2725968645
 10
-26.9340617495
 20
4.2694312344
 10
-26.9642899909
 20
4.2654395871
 10
-26.9944027449
 20
4.2605772107
 10
-27.0206738589
 20
4.2555657655
 10
-27.0468026853
 20
4.2498245845
 10
-27.0727537844
 20
4.2433269086
 10
-27.0984917168
 20
4.2360459787
 10
-27.1239810428
 20
4.2279550356
 10
-27.1491863228
 20
4.2190273202
 10
-27.1740721173
 20
4.2092360735
 10
-27.1986029867
 20
4.1985545361
 10
-27.2227400785
 20
4.1869628408
 10
-27.2464388474
 20
4.1744648042
 10
-27.2696512919
 20
4.1610710337
 10
-27.292329411
 20
4.1467921368
 10
-27.3144252031
 20
4.1316387208
 10
-27.3358906671
 20
4.1156213932
 10
-27.3566778016
 20
4.0987507613
 10
-27.3767386053
 20
4.0810374325
 10
-27.3960516262
 20
4.0624799059
 10
-27.4145868729
 20
4.0431401149
 10
-27.4323424495
 20
4.0230695459
 10
-27.4493164601
 20
4.0023196853
 10
-27.4655070086
 20
3.9809420195
 10
-27.480912199
 20
3.9589880349
 10
-27.4955301353
 20
3.9365092178
 10
-27.5093589215
 20
3.9135570548
 10
-27.5241892845
 20
3.8868335531
 10
-27.5380359367
 20
3.8596093155
 10
-27.5509464059
 20
3.8319335591
 10
-27.5629682199
 20
3.8038555009
 10
-27.5741489068
 20
3.7754243577
 10
-27.5845359943
 20
3.7466893467
 10
-27.5941770104
 20
3.7176996847
 10
-27.6045407259
 20
3.6836028865
 10
-27.6139821584
 20
3.6492535701
 10
-27.6225304234
 20
3.6146790134
 10
-27.6302146367
 20
3.579906494
 10
-27.6370639137
 20
3.5449632897
 10
-27.6431073701
 20
3.5098766781
 10
-27.6493384427
 20
3.4676694907
 10
-27.6545542938
 20
3.4253250308
 10
-27.6588554877
 20
3.3828728536
 10
-27.6623425886
 20
3.340342514
 10
-27.6651161607
 20
3.2977635669
 10
-27.6677582058
 20
3.24448766
 10
-27.6697848235
 20
3.1911925129
 10
-27.6715391002
 20
3.1378886784
 10
-27.6733641218
 20
3.084586709
  0
LINE
  5
49B
100
AcDbEntity
  8
DRAFT
100
AcDbLine
 62
7
  6
CONTINUOUS
 10
-8.2738053427
 20
4.3866484389
 11
-8.2775659228
 21
4.3866156209
  0
LINE
  5
49C
100
AcDbEntity
  8
0
100
AcDbLine
 62
250
  6
CONTINUOUS
 10
-23.1748867071
 20
3.9939045845
 11
-21.2751760863
 21
3.9939045845
  0
LINE
  5
49D
100
AcDbEntity
  8
RACCORDO
100
AcDbLine
 62
250
  6
CONTINUOUS
 10
-34.4844394504
 20
4.2967617007
 11
-35.8932701976
 21
4.2967617007
  0
LINE
  5
49E
100
AcDbEntity
  8
RACCORDO
100
AcDbLine
 62
7
  6
CONTINUOUS
 10
-34.4598825382
 20
4.4967617007
 11
-35.9178271098
 21
4.4967617007
  0
LINE
  5
49F
100
AcDbEntity
  8
0
100
AcDbLine
 62
250
  6
CONTINUOUS
 10
-24.7742469931
 20
4.6674997007
 11
-27.6733636923
 21
4.6674997007
  0
LINE
  5
4A0
100
AcDbEntity
  8
RACCORDO
100
AcDbLine
 62
250
  6
CONTINUOUS
 10
-34.435325626
 20
4.6967617007
 11
-35.942384022
 21
4.6967617007
  0
LINE
  5
4A1
100
AcDbEntity
  8
0
100
AcDbLine
 62
250
  6
CONTINUOUS
 10
-21.2751760863
 20
5.2877140935
 11
-22.2250313967
 21
5.2877140935
  0
LINE
  5
4A2
100
AcDbEntity
  8
0
100
AcDbLine
 62
250
  6
CONTINUOUS
 10
-27.6733636923
 20
5.2901057007
 11
-25.2560322032
 21
5.2901057007
  0
LINE
  5
4A3
100
AcDbEntity
  8
0
100
AcDbLine
 62
250
  6
CONTINUOUS
 10
-19.3210692442
 20
5.8292077007
 11
-18.5704779338
 21
5.8292077007
  0
LINE
  5
4A4
100
AcDbEntity
  8
0
100
AcDbLine
 62
250
  6
CONTINUOUS
 10
-14.9771327517
 20
5.8292077007
 11
-14.2265414413
 21
5.8292077007
  0
LINE
  5
4A5
100
AcDbEntity
  8
DRAFT
100
AcDbLine
 62
7
  6
CONTINUOUS
 10
-7.9947322849
 20
3.9772470115
 11
-6.5528784006
 21
3.8764227661
  0
LINE
  5
4A6
100
AcDbEntity
  8
ASSI
100
AcDbLine
 62
7
  6
CONTINUOUS
 10
-7.9947322849
 20
3.9772470115
 11
-6.5528784006
 21
3.8764227661
  0
LINE
  5
4A7
100
AcDbEntity
  8
0
100
AcDbLine
 62
250
  6
CONTINUOUS
 10
-21.6822569377
 20
4.5910474684
 11
-23.1748867071
 21
5.0389045223
  0
LINE
  5
4A8
100
AcDbEntity
  8
0
100
AcDbLine
 62
250
  6
CONTINUOUS
 10
-22.6321122764
 20
3.3967617007
 11
-23.1748867071
 21
3.9939045845
  0
LWPOLYLINE
  5
4A9
100
AcDbEntity
  8
RACCORDO
100
AcDbPolyline
 62
7
  6
CONTINUOUS
 90
7
 70
0
 10
-8.0884535132
 20
-11.5029294665
 10
-8.0715125197
 20
-11.5219930516
 10
-8.0538197161
 20
-11.5414955087
 10
-8.0353751023
 20
-11.5614368378
 10
-8.0161786784
 20
-11.5818170388
 10
-7.9962304443
 20
-11.6026361118
 10
-7.9755304001
 20
-11.6238940568
  0
LWPOLYLINE
  5
4AA
100
AcDbEntity
  8
ASSI
100
AcDbPolyline
 62
7
  6
CONTINUOUS
 90
7
 70
0
 10
-8.0884535132
 20
-11.5029294665
 10
-8.0715125197
 20
-11.5219930516
 10
-8.0538197161
 20
-11.5414955087
 10
-8.0353751023
 20
-11.5614368378
 10
-8.0161786784
 20
-11.5818170388
 10
-7.9962304443
 20
-11.6026361118
 10
-7.9755304001
 20
-11.6238940568
  0
LWPOLYLINE
  5
4AB
100
AcDbEntity
  8
RACCORDO
100
AcDbPolyline
 62
7
  6
CONTINUOUS
 90
37
 70
0
 10
-8.0884535132
 20
-11.5029294665
 10
-8.0952091681
 20
-11.4948990386
 10
-8.1019036474
 20
-11.4864521136
 10
-8.1085369511
 20
-11.4775886916
 10
-8.1151052123
 20
-11.4683145028
 10
-8.1216122978
 20
-11.458623817
 10
-8.1280698086
 20
-11.4484994428
 10
-8.1344741036
 20
-11.4379576784
 10
-8.1408288238
 20
-11.4269822256
 10
-8.1471564935
 20
-11.4155069994
 10
-8.1534647238
 20
-11.4035300331
 10
-8.1597459036
 20
-11.3910532934
 10
-8.1659997234
 20
-11.3780165957
 10
-8.1722322362
 20
-11.364417306
 10
-8.1784373891
 20
-11.3502580583
 10
-8.1845967138
 20
-11.3354865691
 10
-8.1907125415
 20
-11.3201104089
 10
-8.196782541
 20
-11.3041220074
 10
-8.2027812508
 20
-11.28744637
 10
-8.208718758
 20
-11.270070815
 10
-8.2145849755
 20
-11.252008024
 10
-8.22032418
 20
-11.2332210484
 10
-8.225943138
 20
-11.2137047509
 10
-8.2314350831
 20
-11.1934642688
 10
-8.2367239926
 20
-11.172478064
 10
-8.2418176637
 20
-11.1507399823
 10
-8.2467082993
 20
-11.1282561781
 10
-8.2512964843
 20
-11.105023577
 10
-8.2555955191
 20
-11.0809757155
 10
-8.2595921034
 20
-11.0561790571
 10
-8.2631469214
 20
-11.0308299187
 10
-8.2662548222
 20
-11.0048747849
 10
-8.2689209568
 20
-10.9783671709
 10
-8.2710214624
 20
-10.9516639396
 10
-8.2725150515
 20
-10.9248840451
 10
-8.2734430116
 20
-10.8979085333
 10
-8.2738053427
 20
-10.870737404
  0
LWPOLYLINE
  5
4AC
100
AcDbEntity
  8
ASSI
100
AcDbPolyline
 62
7
  6
CONTINUOUS
 90
37
 70
0
 10
-8.0884535132
 20
-11.5029294665
 10
-8.0952091681
 20
-11.4948990386
 10
-8.1019036474
 20
-11.4864521136
 10
-8.1085369511
 20
-11.4775886916
 10
-8.1151052123
 20
-11.4683145028
 10
-8.1216122978
 20
-11.458623817
 10
-8.1280698086
 20
-11.4484994428
 10
-8.1344741036
 20
-11.4379576784
 10
-8.1408288238
 20
-11.4269822256
 10
-8.1471564935
 20
-11.4155069994
 10
-8.1534647238
 20
-11.4035300331
 10
-8.1597459036
 20
-11.3910532934
 10
-8.1659997234
 20
-11.3780165957
 10
-8.1722322362
 20
-11.364417306
 10
-8.1784373891
 20
-11.3502580583
 10
-8.1845967138
 20
-11.3354865691
 10
-8.1907125415
 20
-11.3201104089
 10
-8.196782541
 20
-11.3041220074
 10
-8.2027812508
 20
-11.28744637
 10
-8.208718758
 20
-11.270070815
 10
-8.2145849755
 20
-11.252008024
 10
-8.22032418
 20
-11.2332210484
 10
-8.225943138
 20
-11.2137047509
 10
-8.2314350831
 20
-11.1934642688
 10
-8.2367239926
 20
-11.172478064
 10
-8.2418176637
 20
-11.1507399823
 10
-8.2467082993
 20
-11.1282561781
 10
-8.2512964843
 20
-11.105023577
 10
-8.2555955191
 20
-11.0809757155
 10
-8.2595921034
 20
-11.0561790571
 10
-8.2631469214
 20
-11.0308299187
 10
-8.2662548222
 20
-11.0048747849
 10
-8.2689209568
 20
-10.9783671709
 10
-8.2710214624
 20
-10.9516639396
 10
-8.2725150515
 20
-10.9248840451
 10
-8.2734430116
 20
-10.8979085333
 10
-8.2738053427
 20
-10.870737404
  0
LWPOLYLINE
  5
4AD
100
AcDbEntity
  8
0
100
AcDbPolyline
 62
250
  6
CONTINUOUS
 90
12
 70
0
 10
-18.5725351604
 20
5.6793351364
 10
-18.5728646265
 20
5.6929748573
 10
-18.5730909354
 20
5.7066143702
 10
-18.5732140405
 20
5.7202527483
 10
-18.573233895
 20
5.7338890647
 10
-18.5731504521
 20
5.7475223926
 10
-18.5729636651
 20
5.7611518053
 10
-18.5726734874
 20
5.7747763758
 10
-18.5722798721
 20
5.7883951775
 10
-18.5717827725
 20
5.8020072834
 10
-18.571182142
 20
5.8156117667
 10
-18.5704779338
 20
5.8292077007
  0
LINE
  5
4AE
100
AcDbEntity
  8
0
100
AcDbLine
 62
250
  6
CONTINUOUS
 10
-19.1028583986
 20
-14.7780642993
 11
-19.1028583986
 21
-13.4321972993
  0
LINE
  5
4AF
100
AcDbEntity
  8
0
100
AcDbLine
 62
250
  6
CONTINUOUS
 10
-18.9064403186
 20
-14.6037352993
 11
-18.9064403186
 21
-14.7213552993
  0
LINE
  5
4B0
100
AcDbEntity
  8
0
100
AcDbLine
 62
250
  6
CONTINUOUS
 10
-17.2926621423
 20
-16.0956002993
 11
-17.2926621423
 21
-11.9108762993
  0
LWPOLYLINE
  5
4B1
100
AcDbEntity
  8
0
100
AcDbPolyline
 62
7
  6
CONTINUOUS
 90
2
 70
0
 43
0.3500000006
 10
-17.2738054619
 20
32.6467602997
 10
-17.2738054619
 20
34.1467607574
  0
LINE
  5
4B2
100
AcDbEntity
  8
0
100
AcDbLine
 62
250
  6
CONTINUOUS
 10
-17.1486911228
 20
8.3538177007
 11
-17.1486911228
 21
9.8143177007
  0
LINE
  5
4B3
100
AcDbEntity
  8
0
100
AcDbLine
 62
250
  6
CONTINUOUS
 10
-27.6657149292
 20
-8.4340882993
 11
-24.7669441246
 21
-7.5444032993
  0
LWPOLYLINE
  5
4B4
100
AcDbEntity
  8
RACCORDO
100
AcDbPolyline
 62
250
  6
CONTINUOUS
 90
10
 70
0
 10
-6.5528783813
 20
9.8307442045
 10
-6.7602527276
 20
9.809130618
 10
-6.9728414792
 20
9.7871677955
 10
-7.190644636
 20
9.7648520116
 10
-7.4134706945
 20
9.7421890925
 10
-7.6415111582
 20
9.7191659767
 10
-7.8753405381
 20
9.6957501209
 10
-8.1151503379
 20
9.6719277002
 10
-8.3607490538
 20
9.6477042064
 10
-8.612136686
 20
9.6230755912
  0
LWPOLYLINE
  5
4B5
100
AcDbEntity
  8
ASSI
100
AcDbPolyline
 62
250
  6
CONTINUOUS
 90
10
 70
0
 10
-6.5528783813
 20
9.8307442045
 10
-6.7602527276
 20
9.809130618
 10
-6.9728414792
 20
9.7871677955
 10
-7.190644636
 20
9.7648520116
 10
-7.4134706945
 20
9.7421890925
 10
-7.6415111582
 20
9.7191659767
 10
-7.8753405381
 20
9.6957501209
 10
-8.1151503379
 20
9.6719277002
 10
-8.3607490538
 20
9.6477042064
 10
-8.612136686
 20
9.6230755912
  0
LWPOLYLINE
  5
4B6
100
AcDbEntity
  8
RACCORDO
100
AcDbPolyline
 62
250
  6
CONTINUOUS
 90
40
 70
0
 10
-7.9947322849
 20
8.8625454986
 10
-8.006231844
 20
8.8616311264
 10
-8.0176833779
 20
8.8603234178
 10
-8.0290699263
 20
8.8586243097
 10
-8.0403746252
 20
8.8565363185
 10
-8.0515807318
 20
8.8540625366
 10
-8.0626716493
 20
8.851206628
 10
-8.0736309516
 20
8.8479728222
 10
-8.0844424074
 20
8.8443659087
 10
-8.0950900045
 20
8.8403912295
 10
-8.1055579732
 20
8.8360546713
 10
-8.1158308101
 20
8.8313626568
 10
-8.1258933006
 20
8.826322135
 10
-8.1357305417
 20
8.8209405713
 10
-8.1453279639
 20
8.8152259359
 10
-8.154671353
 20
8.8091866925
 10
-8.1637468711
 20
8.8028317855
 10
-8.1725410769
 20
8.7961706268
 10
-8.1810409458
 20
8.7892130819
 10
-8.189233889
 20
8.7819694553
 10
-8.1971077724
 20
8.774450475
 10
-8.2046509345
 20
8.7666672771
 10
-8.2118522035
 20
8.7586313889
 10
-8.2187009139
 20
8.7503547118
 10
-8.2251869225
 20
8.741849504
 10
-8.2313006232
 20
8.7331283621
 10
-8.2370329614
 20
8.7242042025
 10
-8.2423754471
 20
8.7150902423
 10
-8.2473201679
 20
8.7057999797
 10
-8.2518598005
 20
8.6963471741
 10
-8.2559876214
 20
8.6867458254
 10
-8.2596975171
 20
8.6770101537
 10
-8.2629839932
 20
8.667154578
 10
-8.265842182
 20
8.6571936948
 10
-8.2682678507
 20
8.6471422567
 10
-8.2702574065
 20
8.6370151504
 10
-8.2718079029
 20
8.6268273745
 10
-8.2729170435
 20
8.6165940176
 10
-8.2735831857
 20
8.6063302358
 10
-8.2738053427
 20
8.5960512302
  0
LWPOLYLINE
  5
4B7
100
AcDbEntity
  8
ASSI
100
AcDbPolyline
 62
250
  6
CONTINUOUS
 90
40
 70
0
 10
-7.9947322849
 20
8.8625454986
 10
-8.006231844
 20
8.8616311264
 10
-8.0176833779
 20
8.8603234178
 10
-8.0290699263
 20
8.8586243097
 10
-8.0403746252
 20
8.8565363185
 10
-8.0515807318
 20
8.8540625366
 10
-8.0626716493
 20
8.851206628
 10
-8.0736309516
 20
8.8479728222
 10
-8.0844424074
 20
8.8443659087
 10
-8.0950900045
 20
8.8403912295
 10
-8.1055579732
 20
8.8360546713
 10
-8.1158308101
 20
8.8313626568
 10
-8.1258933006
 20
8.826322135
 10
-8.1357305417
 20
8.8209405713
 10
-8.1453279639
 20
8.8152259359
 10
-8.154671353
 20
8.8091866925
 10
-8.1637468711
 20
8.8028317855
 10
-8.1725410769
 20
8.7961706268
 10
-8.1810409458
 20
8.7892130819
 10
-8.189233889
 20
8.7819694553
 10
-8.1971077724
 20
8.774450475
 10
-8.2046509345
 20
8.7666672771
 10
-8.2118522035
 20
8.7586313889
 10
-8.2187009139
 20
8.7503547118
 10
-8.2251869225
 20
8.741849504
 10
-8.2313006232
 20
8.7331283621
 10
-8.2370329614
 20
8.7242042025
 10
-8.2423754471
 20
8.7150902423
 10
-8.2473201679
 20
8.7057999797
 10
-8.2518598005
 20
8.6963471741
 10
-8.2559876214
 20
8.6867458254
 10
-8.2596975171
 20
8.6770101537
 10
-8.2629839932
 20
8.667154578
 10
-8.265842182
 20
8.6571936948
 10
-8.2682678507
 20
8.6471422567
 10
-8.2702574065
 20
8.6370151504
 10
-8.2718079029
 20
8.6268273745
 10
-8.2729170435
 20
8.6165940176
 10
-8.2735831857
 20
8.6063302358
 10
-8.2738053427
 20
8.5960512302
  0
LINE
  5
4B8
100
AcDbEntity
  8
DRAFT
100
AcDbLine
 62
7
  6
CONTINUOUS
 10
-7.9947322849
 20
8.5262763899
 11
-6.5528784006
 21
8.6271006354
  0
LINE
  5
4B9
100
AcDbEntity
  8
ASSI
100
AcDbLine
 62
7
  6
CONTINUOUS
 10
-7.9947322849
 20
8.5262763899
 11
-6.5528784006
 21
8.6271006354
  0
LINE
  5
4BA
100
AcDbEntity
  8
0
100
AcDbLine
 62
250
  6
CONTINUOUS
 10
-21.8179505737
 20
6.2331901654
 11
-22.6321122764
 21
6.2331901654
  0
LINE
  5
4BB
100
AcDbEntity
  8
0
100
AcDbLine
 62
250
  6
CONTINUOUS
 10
-25.2560322032
 20
6.3631047007
 11
-24.7742469931
 21
6.3631047007
  0
LINE
  5
4BC
100
AcDbEntity
  8
0
100
AcDbLine
 62
250
  6
CONTINUOUS
 10
-22.6321122764
 20
7.2781901654
 11
-21.8179505737
 21
7.2781901654
  0
LINE
  5
4BD
100
AcDbEntity
  8
0
100
AcDbLine
 62
250
  6
CONTINUOUS
 10
-21.8179505737
 20
7.8753329869
 11
-22.6321122764
 21
7.8753329869
  0
LWPOLYLINE
  5
4BE
100
AcDbEntity
  8
RACCORDO
100
AcDbPolyline
 62
250
  6
CONTINUOUS
 90
22
 70
0
 10
-6.5720774763
 20
1.5789301217
 10
-6.6219222789
 20
1.5914420536
 10
-6.6732977298
 20
1.6041100335
 10
-6.7262038289
 20
1.6169340612
 10
-6.7806029663
 20
1.6299118952
 10
-6.836532752
 20
1.6430457771
 10
-6.8941060157
 20
1.656342432
 10
-6.953321046
 20
1.6698020778
 10
-7.0141795543
 20
1.6834244966
 10
-7.0767995048
 20
1.69721576
 10
-7.1411911958
 20
1.7111782694
 10
-7.2073443291
 20
1.7253096233
 10
-7.2753459744
 20
1.7396086888
 10
-7.3451914099
 20
1.7540744595
 10
-7.4168853574
 20
1.7687079417
 10
-7.4905290518
 20
1.7835110211
 10
-7.5660824592
 20
1.7984765014
 10
-7.6435856135
 20
1.8136115789
 10
-7.7232598511
 20
1.8289397276
 10
-7.8051789508
 20
1.8444687722
 10
-7.8892691338
 20
1.860190888
 10
-7.9755304
 20
1.8761060751
  0
LWPOLYLINE
  5
4BF
100
AcDbEntity
  8
ASSI
100
AcDbPolyline
 62
250
  6
CONTINUOUS
 90
22
 70
0
 10
-6.5720774763
 20
1.5789301217
 10
-6.6219222789
 20
1.5914420536
 10
-6.6732977298
 20
1.6041100335
 10
-6.7262038289
 20
1.6169340612
 10
-6.7806029663
 20
1.6299118952
 10
-6.836532752
 20
1.6430457771
 10
-6.8941060157
 20
1.656342432
 10
-6.953321046
 20
1.6698020778
 10
-7.0141795543
 20
1.6834244966
 10
-7.0767995048
 20
1.69721576
 10
-7.1411911958
 20
1.7111782694
 10
-7.2073443291
 20
1.7253096233
 10
-7.2753459744
 20
1.7396086888
 10
-7.3451914099
 20
1.7540744595
 10
-7.4168853574
 20
1.7687079417
 10
-7.4905290518
 20
1.7835110211
 10
-7.5660824592
 20
1.7984765014
 10
-7.6435856135
 20
1.8136115789
 10
-7.7232598511
 20
1.8289397276
 10
-7.8051789508
 20
1.8444687722
 10
-7.8892691338
 20
1.860190888
 10
-7.9755304
 20
1.8761060751
  0
LWPOLYLINE
  5
4C0
100
AcDbEntity
  8
RACCORDO
100
AcDbPolyline
 62
250
  6
CONTINUOUS
 90
22
 70
0
 10
-6.5528784006
 20
1.6551084333
 10
-6.6037693102
 20
1.6692007202
 10
-6.6562558021
 20
1.6834654742
 10
-6.7103378763
 20
1.6979038344
 10
-6.7659749789
 20
1.712516175
 10
-6.8232076639
 20
1.7273043744
 10
-6.8821575929
 20
1.7422719444
 10
-6.9428235089
 20
1.7574202262
 10
-7.0052066691
 20
1.7727503834
 10
-7.0694325067
 20
1.7882658991
 10
-7.1355136403
 20
1.8039714759
 10
-7.2034374515
 20
1.8198651619
 10
-7.2732915176
 20
1.8359406658
 10
-7.3450666873
 20
1.8521974881
 10
-7.418772112
 20
1.8686390248
 10
-7.4945228232
 20
1.8852650296
 10
-7.5722636821
 20
1.902066489
 10
-7.6520498275
 20
1.9190554912
 10
-7.7341617071
 20
1.9362638436
 10
-7.8186928034
 20
1.9537034999
 10
-7.9055496341
 20
1.9713662364
 10
-7.9947321989
 20
1.9892538775
  0
LWPOLYLINE
  5
4C1
100
AcDbEntity
  8
ASSI
100
AcDbPolyline
 62
250
  6
CONTINUOUS
 90
22
 70
0
 10
-6.5528784006
 20
1.6551084333
 10
-6.6037693102
 20
1.6692007202
 10
-6.6562558021
 20
1.6834654742
 10
-6.7103378763
 20
1.6979038344
 10
-6.7659749789
 20
1.712516175
 10
-6.8232076639
 20
1.7273043744
 10
-6.8821575929
 20
1.7422719444
 10
-6.9428235089
 20
1.7574202262
 10
-7.0052066691
 20
1.7727503834
 10
-7.0694325067
 20
1.7882658991
 10
-7.1355136403
 20
1.8039714759
 10
-7.2034374515
 20
1.8198651619
 10
-7.2732915176
 20
1.8359406658
 10
-7.3450666873
 20
1.8521974881
 10
-7.418772112
 20
1.8686390248
 10
-7.4945228232
 20
1.8852650296
 10
-7.5722636821
 20
1.902066489
 10
-7.6520498275
 20
1.9190554912
 10
-7.7341617071
 20
1.9362638436
 10
-7.8186928034
 20
1.9537034999
 10
-7.9055496341
 20
1.9713662364
 10
-7.9947321989
 20
1.9892538775
  0
LINE
  5
4C2
100
AcDbEntity
  8
0
100
AcDbLine
 62
250
  6
CONTINUOUS
 10
-25.8704849921
 20
7.6478227007
 11
-27.1193734817
 21
8.0778377007
  0
LINE
  5
4C3
100
AcDbEntity
  8
0
100
AcDbLine
 62
250
  6
CONTINUOUS
 10
-24.7742469931
 20
7.2703307007
 11
-25.3886987824
 21
7.4871787007
  0
LINE
  5
4C4
100
AcDbEntity
  8
0
100
AcDbLine
 62
250
  6
CONTINUOUS
 10
-27.6733636923
 20
7.7242157007
 11
-24.7742469931
 21
6.6758807007
  0
LINE
  5
4C5
100
AcDbEntity
  8
0
100
AcDbLine
 62
250
  6
CONTINUOUS
 10
-22.6321122764
 20
6.2331901654
 11
-22.9034994918
 21
6.3824760576
  0
LINE
  5
4C6
100
AcDbEntity
  8
0
100
AcDbLine
 62
250
  6
CONTINUOUS
 10
-22.9034994918
 20
6.3824760576
 11
-23.1748867071
 21
6.6810473438
  0
LINE
  5
4C7
100
AcDbEntity
  8
0
100
AcDbLine
 62
250
  6
CONTINUOUS
 10
-22.9034994918
 20
8.02461863
 11
-23.1748867071
 21
8.3231904145
  0
LINE
  5
4C8
100
AcDbEntity
  8
0
100
AcDbLine
 62
250
  6
CONTINUOUS
 10
-21.54656333
 20
7.1289045223
 11
-21.2751760863
 21
6.8303332361
  0
LINE
  5
4C9
100
AcDbEntity
  8
0
100
AcDbLine
 62
250
  6
CONTINUOUS
 10
-16.3989195627
 20
9.8143177007
 11
-16.3989195627
 21
8.3538177007
  0
LINE
  5
4CA
100
AcDbEntity
  8
0
100
AcDbLine
 62
250
  6
CONTINUOUS
 10
-16.2738053427
 20
-11.9108762993
 11
-16.2738053427
 21
-16.0956002993
  0
LINE
  5
4CB
100
AcDbEntity
  8
0
100
AcDbLine
 62
250
  6
CONTINUOUS
 10
-24.7669441246
 20
-11.5452042993
 11
-26.6597864147
 21
-12.2552602993
  0
LINE
  5
4CC
100
AcDbEntity
  8
0
100
AcDbLine
 62
250
  6
CONTINUOUS
 10
-27.6657149292
 20
-12.0983332993
 11
-26.056308282
 21
-11.4994542993
  0
LWPOLYLINE
  5
4CD
100
AcDbEntity
  8
RACCORDO
100
AcDbPolyline
 62
250
  6
CONTINUOUS
 90
10
 70
0
 10
-6.5685696208
 20
10.1283464697
 10
-6.8319643711
 20
10.1036677937
 10
-7.1038611447
 20
10.0784098758
 10
-7.3842599417
 20
10.0525727161
 10
-7.672747513
 20
10.0261855365
 10
-7.9697371077
 20
9.9992191151
 10
-8.2764684727
 20
9.971585786
 10
-8.5933548569
 20
9.9432563273
 10
-8.9199830115
 20
9.9142599609
 10
-9.2563529363
 20
9.8845966869
  0
LWPOLYLINE
  5
4CE
100
AcDbEntity
  8
ASSI
100
AcDbPolyline
 62
250
  6
CONTINUOUS
 90
10
 70
0
 10
-6.5685696208
 20
10.1283464697
 10
-6.8319643711
 20
10.1036677937
 10
-7.1038611447
 20
10.0784098758
 10
-7.3842599417
 20
10.0525727161
 10
-7.672747513
 20
10.0261855365
 10
-7.9697371077
 20
9.9992191151
 10
-8.2764684727
 20
9.971585786
 10
-8.5933548569
 20
9.9432563273
 10
-8.9199830115
 20
9.9142599609
 10
-9.2563529363
 20
9.8845966869
  0
LWPOLYLINE
  5
4CF
100
AcDbEntity
  8
RACCORDO
100
AcDbPolyline
 62
7
  6
CONTINUOUS
 90
52
 70
0
 10
-6.5685696208
 20
10.3089587331
 10
-6.5592384867
 20
10.3090343935
 10
-6.5499292362
 20
10.3091799367
 10
-6.5406508234
 20
10.3093953625
 10
-6.5314122002
 20
10.309681125
 10
-6.5222221127
 20
10.3100367702
 10
-6.5130890966
 20
10.3104609363
 10
-6.5040217411
 20
10.3109537826
 10
-6.4950286383
 20
10.3115151497
 10
-6.4861181839
 20
10.3121431973
 10
-6.4772986621
 20
10.3128380839
 10
-6.4685783118
 20
10.3135996509
 10
-6.4599652782
 20
10.3144255829
 10
-6.4514674715
 20
10.3153160345
 10
-6.4430927065
 20
10.316270851
 10
-6.4348487621
 20
10.3172872529
 10
-6.4267431001
 20
10.3183653894
 10
-6.4187830529
 20
10.3195051112
 10
-6.4109759444
 20
10.3207031902
 10
-6.4033287335
 20
10.3219597671
 10
-6.3958481997
 20
10.3232747011
 10
-6.3885411051
 20
10.3246443421
 10
-6.3814138421
 20
10.3260688205
 10
-6.3744725926
 20
10.3275480059
 10
-6.3677234826
 20
10.3290778558
 10
-6.3611722897
 20
10.3306584894
 10
-6.3548245553
 20
10.3322897876
 10
-6.3486857121
 20
10.3339673504
 10
-6.3427608837
 20
10.3356912844
 10
-6.3370549376
 20
10.3374614831
 10
-6.3315725728
 20
10.3392732269
 10
-6.3263182296
 20
10.341126609
 10
-6.321296078
 20
10.3430215363
 10
-6.3165100604
 20
10.3449530098
 10
-6.3119639142
 20
10.3469211091
 10
-6.3076610993
 20
10.3489257547
 10
-6.3036047958
 20
10.3509617095
 10
-6.2997980258
 20
10.3530290413
 10
-6.2962435387
 20
10.3551276824
 10
-6.2929437715
 20
10.3572521925
 10
-6.2899010338
 20
10.3594026255
 10
-6.2871173614
 20
10.3615789275
 10
-6.2845944641
 20
10.3637754962
 10
-6.282333943
 20
10.3659923745
 10
-6.2803371339
 20
10.3682295196
 10
-6.2786050543
 20
10.3704812008
 10
-6.2771386099
 20
10.3727474503
 10
-6.2759384503
 20
10.3750282361
 10
-6.2750049383
 20
10.3773177311
 10
-6.2743382878
 20
10.3796139931
 10
-6.273938507
 20
10.3819189645
 10
-6.2738053427
 20
10.3842326451
  0
LWPOLYLINE
  5
4D0
100
AcDbEntity
  8
ASSI
100
AcDbPolyline
 62
7
  6
CONTINUOUS
 90
52
 70
0
 10
-6.5685696208
 20
10.3089587331
 10
-6.5592384867
 20
10.3090343935
 10
-6.5499292362
 20
10.3091799367
 10
-6.5406508234
 20
10.3093953625
 10
-6.5314122002
 20
10.309681125
 10
-6.5222221127
 20
10.3100367702
 10
-6.5130890966
 20
10.3104609363
 10
-6.5040217411
 20
10.3109537826
 10
-6.4950286383
 20
10.3115151497
 10
-6.4861181839
 20
10.3121431973
 10
-6.4772986621
 20
10.3128380839
 10
-6.4685783118
 20
10.3135996509
 10
-6.4599652782
 20
10.3144255829
 10
-6.4514674715
 20
10.3153160345
 10
-6.4430927065
 20
10.316270851
 10
-6.4348487621
 20
10.3172872529
 10
-6.4267431001
 20
10.3183653894
 10
-6.4187830529
 20
10.3195051112
 10
-6.4109759444
 20
10.3207031902
 10
-6.4033287335
 20
10.3219597671
 10
-6.3958481997
 20
10.3232747011
 10
-6.3885411051
 20
10.3246443421
 10
-6.3814138421
 20
10.3260688205
 10
-6.3744725926
 20
10.3275480059
 10
-6.3677234826
 20
10.3290778558
 10
-6.3611722897
 20
10.3306584894
 10
-6.3548245553
 20
10.3322897876
 10
-6.3486857121
 20
10.3339673504
 10
-6.3427608837
 20
10.3356912844
 10
-6.3370549376
 20
10.3374614831
 10
-6.3315725728
 20
10.3392732269
 10
-6.3263182296
 20
10.341126609
 10
-6.321296078
 20
10.3430215363
 10
-6.3165100604
 20
10.3449530098
 10
-6.3119639142
 20
10.3469211091
 10
-6.3076610993
 20
10.3489257547
 10
-6.3036047958
 20
10.3509617095
 10
-6.2997980258
 20
10.3530290413
 10
-6.2962435387
 20
10.3551276824
 10
-6.2929437715
 20
10.3572521925
 10
-6.2899010338
 20
10.3594026255
 10
-6.2871173614
 20
10.3615789275
 10
-6.2845944641
 20
10.3637754962
 10
-6.282333943
 20
10.3659923745
 10
-6.2803371339
 20
10.3682295196
 10
-6.2786050543
 20
10.3704812008
 10
-6.2771386099
 20
10.3727474503
 10
-6.2759384503
 20
10.3750282361
 10
-6.2750049383
 20
10.3773177311
 10
-6.2743382878
 20
10.3796139931
 10
-6.273938507
 20
10.3819189645
 10
-6.2738053427
 20
10.3842326451
  0
LINE
  5
4D1
100
AcDbEntity
  8
0
100
AcDbLine
 62
250
  6
CONTINUOUS
 10
-22.6321122764
 20
8.9203329869
 11
-21.8179505737
 21
8.9203329869
  0
LINE
  5
4D2
100
AcDbEntity
  8
0
100
AcDbLine
 62
250
  6
CONTINUOUS
 10
-22.2250313967
 20
9.5174760576
 11
-21.54656333
 21
9.5174760576
  0
LINE
  5
4D3
100
AcDbEntity
  8
0
100
AcDbLine
 62
250
  6
CONTINUOUS
 10
-24.7742469931
 20
9.7886917007
 11
-27.6733636923
 21
9.7886917007
  0
LINE
  5
4D4
100
AcDbEntity
  8
0
100
AcDbLine
 62
250
  6
CONTINUOUS
 10
-17.1486911228
 20
9.8143177007
 11
-16.3989195627
 21
9.8143177007
  0
LINE
  5
4D5
100
AcDbEntity
  8
RACCORDO
100
AcDbLine
 62
250
  6
CONTINUOUS
 10
-6.2738053427
 20
10.1283464697
 11
-6.5685696208
 21
10.1283464697
  0
LINE
  5
4D6
100
AcDbEntity
  8
ASSI
100
AcDbLine
 62
250
  6
CONTINUOUS
 10
-6.2738053427
 20
10.1283464697
 11
-6.5685696208
 21
10.1283464697
  0
LWPOLYLINE
  5
4D7
100
AcDbEntity
  8
0
100
AcDbPolyline
 62
250
  6
CONTINUOUS
 90
46
 70
0
 10
-17.1486905967
 20
8.3538134766
 10
-17.2037435821
 20
8.3664603463
 10
-17.2584302788
 20
8.3808569717
 10
-17.3126878931
 20
8.3969817752
 10
-17.3664536311
 20
8.4148131789
 10
-17.4196646987
 20
8.4343296054
 10
-17.4722583023
 20
8.4555094768
 10
-17.5241716478
 20
8.4783312155
 10
-17.5753419415
 20
8.5027732439
 10
-17.6257063894
 20
8.5288139843
 10
-17.6752055478
 20
8.5564300152
 10
-17.7237933737
 20
8.5855905401
 10
-17.7714271744
 20
8.6162629186
 10
-17.8180642569
 20
8.6484145105
 10
-17.8636619285
 20
8.6820126754
 10
-17.9081774964
 20
8.7170247729
 10
-17.9515682676
 20
8.7534181628
 10
-17.9937915494
 20
8.7911602048
 10
-18.034804649
 20
8.8302182585
 10
-18.0745661769
 20
8.870557518
 10
-18.1130399568
 20
8.9121345154
 10
-18.1501911158
 20
8.9549036172
 10
-18.1859847812
 20
8.9988191897
 10
-18.2203860798
 20
9.0438355996
 10
-18.253360139
 20
9.0899072133
 10
-18.2848720858
 20
9.1369883972
 10
-18.3148870472
 20
9.1850335178
 10
-18.3433701504
 20
9.2339969417
 10
-18.3702889536
 20
9.2838323453
 10
-18.3956207385
 20
9.3344906456
 10
-18.4193452182
 20
9.3859220692
 10
-18.4414421056
 20
9.4380768433
 10
-18.4618911135
 20
9.4909051946
 10
-18.480671955
 20
9.5443573501
 10
-18.4977643429
 20
9.5983835365
 10
-18.5131479902
 20
9.652933981
 10
-18.5268026097
 20
9.7079589102
 10
-18.538710572
 20
9.7634058011
 10
-18.5488648778
 20
9.8192111299
 10
-18.5572611854
 20
9.8753086229
 10
-18.5638951531
 20
9.9316320065
 10
-18.5687624392
 20
9.9881150068
 10
-18.571858702
 20
10.0446913501
 10
-18.5731795999
 20
10.1012947627
 10
-18.572720791
 20
10.1578589708
 10
-18.5704779338
 20
10.2143177007
  0
LINE
  5
4D8
100
AcDbEntity
  8
0
100
AcDbLine
 62
250
  6
CONTINUOUS
 10
-21.8179505737
 20
7.2781901654
 11
-21.54656333
 21
7.1289045223
  0
LINE
  5
4D9
100
AcDbEntity
  8
0
100
AcDbLine
 62
250
  6
CONTINUOUS
 10
-22.6321122764
 20
7.8753329869
 11
-22.9034994918
 21
8.02461863
  0
LINE
  5
4DA
100
AcDbEntity
  8
0
100
AcDbLine
 62
250
  6
CONTINUOUS
 10
-21.8179505737
 20
8.9203329869
 11
-21.54656333
 21
8.7710473438
  0
LINE
  5
4DB
100
AcDbEntity
  8
0
100
AcDbLine
 62
250
  6
CONTINUOUS
 10
-22.7678058275
 20
9.8160473438
 11
-22.2250313967
 21
9.5174760576
  0
LINE
  5
4DC
100
AcDbEntity
  8
0
100
AcDbLine
 62
250
  6
CONTINUOUS
 10
-23.1748867071
 20
10.2639047714
 11
-22.7678058275
 21
9.8160473438
  0
LINE
  5
4DD
100
AcDbEntity
  8
0
100
AcDbLine
 62
250
  6
CONTINUOUS
 10
-21.54656333
 20
8.7710473438
 11
-21.2751760863
 21
8.4724760576
  0
LINE
  5
4DE
100
AcDbEntity
  8
0
100
AcDbLine
 62
250
  6
CONTINUOUS
 10
-21.2751760863
 20
10.2639047714
 11
-21.54656333
 21
10.5624760576
  0
LWPOLYLINE
  5
4DF
100
AcDbEntity
  8
RACCORDO
100
AcDbPolyline
 62
7
  6
CONTINUOUS
 90
15
 70
0
 10
-8.2781045528
 20
-18.9171236837
 10
-8.2787255594
 20
-18.9156203362
 10
-8.2793728606
 20
-18.913888254
 10
-8.2800351974
 20
-18.9119283415
 10
-8.2807123432
 20
-18.9097415768
 10
-8.2814043663
 20
-18.9073290257
 10
-8.2821004512
 20
-18.9046918495
 10
-8.2828003041
 20
-18.9018313426
 10
-8.2835040665
 20
-18.8987488413
 10
-8.2842015769
 20
-18.8954456639
 10
-8.2848924887
 20
-18.8919233458
 10
-8.2855770021
 20
-18.8881835103
 10
-8.2862457768
 20
-18.8842276769
 10
-8.286898415
 20
-18.8800576048
 10
-8.2875351743
 20
-18.875675208
  0
LWPOLYLINE
  5
4E0
100
AcDbEntity
  8
0
100
AcDbPolyline
 62
250
  6
CONTINUOUS
 90
46
 70
0
 10
-14.977135953
 20
10.2143204669
 10
-14.9748930065
 20
10.1578617975
 10
-14.9744341076
 20
10.101297647
 10
-14.9757549148
 20
10.0446942891
 10
-14.9788510865
 20
9.9881179978
 10
-14.983718281
 20
9.9316350466
 10
-14.9903521567
 20
9.8753117095
 10
-14.9987483722
 20
9.8192142601
 10
-15.0089025857
 20
9.7634089722
 10
-15.0208104557
 20
9.7079621196
 10
-15.034464983
 20
9.652937226
 10
-15.0498485382
 20
9.5983868147
 10
-15.0669408342
 20
9.5443606587
 10
-15.085721584
 20
9.4909085313
 10
-15.1061705006
 20
9.4380802056
 10
-15.128267297
 20
9.3859254547
 10
-15.1519916862
 20
9.3344940519
 10
-15.1773233811
 20
9.2838357702
 10
-15.2042420947
 20
9.2340003828
 10
-15.232725109
 20
9.1850369729
 10
-15.2627399822
 20
9.1369918641
 10
-15.2942518414
 20
9.08991069
 10
-15.3272258137
 20
9.043839084
 10
-15.3616270263
 20
8.9988226799
 10
-15.3974206063
 20
8.9549071111
 10
-15.4345716809
 20
8.9121380113
 10
-15.4730453772
 20
8.8705610139
 10
-15.5128068224
 20
8.8302217527
 10
-15.5538198403
 20
8.7911636957
 10
-15.5960430414
 20
8.7534216487
 10
-15.639433733
 20
8.7170282521
 10
-15.6839492221
 20
8.6820161463
 10
-15.7295468159
 20
8.6484179718
 10
-15.7761838218
 20
8.6162663688
 10
-15.8238175468
 20
8.5855939777
 10
-15.8724052982
 20
8.556433439
 10
-15.9219043831
 20
8.528817393
 10
-15.9722687586
 20
8.5027766363
 10
-16.023438981
 20
8.4783345904
 10
-16.0753522563
 20
8.455512833
 10
-16.1279457907
 20
8.4343329419
 10
-16.1811567902
 20
8.4148164948
 10
-16.2349224611
 20
8.3969850694
 10
-16.2891800094
 20
8.3808602434
 10
-16.3438666412
 20
8.3664635946
 10
-16.3989195627
 20
8.3538167007
  0
LWPOLYLINE
  5
4E1
100
AcDbEntity
  8
0
100
AcDbPolyline
 62
250
  6
CONTINUOUS
 90
77
 70
0
 10
-14.9771327455
 20
5.8292075898
 10
-14.9745407044
 20
5.7543375352
 10
-14.9750755282
 20
5.6793350253
 10
-14.9787294425
 20
5.6043542594
 10
-14.9854946729
 20
5.5295494363
 10
-14.9953634451
 20
5.4550747554
 10
-15.0083279848
 20
5.3810844156
 10
-15.0243749003
 20
5.3077265688
 10
-15.0434683314
 20
5.2351251771
 10
-15.0655668006
 20
5.1633981554
 10
-15.0906288304
 20
5.0926634188
 10
-15.1186129433
 20
5.0230388819
 10
-15.1494776619
 20
4.9546424598
 10
-15.1831766705
 20
4.8875910631
 10
-15.2196443015
 20
4.8219975853
 10
-15.2588100492
 20
4.7579739158
 10
-15.3006034077
 20
4.6956319438
 10
-15.3449538713
 20
4.6350835588
 10
-15.3917909343
 20
4.5764406501
 10
-15.4410398912
 20
4.519811262
 10
-15.4926092384
 20
4.4652880594
 10
-15.5464032723
 20
4.4129598624
 10
-15.6023262898
 20
4.3629154908
 10
-15.6602825873
 20
4.3152437646
 10
-15.7201764616
 20
4.2700335039
 10
-15.781909028
 20
4.2273692115
 10
-15.8453686775
 20
4.187318122
 10
-15.9104406196
 20
4.1499431532
 10
-15.9770100641
 20
4.1153072226
 10
-16.0449622206
 20
4.0834732478
 10
-16.1141822988
 20
4.0545041465
 10
-16.184553512
 20
4.0284577462
 10
-16.255951088
 20
4.005371514
 10
-16.3282482582
 20
3.985277827
 10
-16.4013182542
 20
3.9682090624
 10
-16.4750343073
 20
3.9541975971
 10
-16.549269649
 20
3.9432758083
 10
-16.6238968321
 20
3.9354706768
 10
-16.6987856952
 20
3.9307875988
 10
-16.7738053983
 20
3.9292265744
 10
-16.8488251012
 20
3.9307876035
 10
-16.9237139641
 20
3.9354706861
 10
-16.9983411467
 20
3.9432758222
 10
-17.0725764877
 20
3.9541976156
 10
-17.1462925399
 20
3.9682090854
 10
-17.2193625348
 20
3.9852778546
 10
-17.2916597039
 20
4.005371546
 10
-17.3630572784
 20
4.0284577826
 10
-17.43342849
 20
4.0545041872
 10
-17.5026485664
 20
4.0834732928
 10
-17.570600721
 20
4.1153072718
 10
-17.6371701633
 20
4.1499432065
 10
-17.7022421031
 20
4.1873181794
 10
-17.7657017501
 20
4.2273692727
 10
-17.8274343139
 20
4.270033569
 10
-17.8873281854
 20
4.3152438334
 10
-17.94528448
 20
4.3629155631
 10
-18.0012074943
 20
4.4129599382
 10
-18.0550015251
 20
4.4652881385
 10
-18.1065708689
 20
4.5198113443
 10
-18.1558198223
 20
4.5764407354
 10
-18.2026568817
 20
4.6350836471
 10
-18.2470073416
 20
4.6956320348
 10
-18.2888006962
 20
4.7579740093
 10
-18.3279664399
 20
4.8219976813
 10
-18.3644340669
 20
4.8875911613
 10
-18.3981330714
 20
4.9546425601
 10
-18.4289977857
 20
5.0230389841
 10
-18.4569818943
 20
5.0926635227
 10
-18.4820439198
 20
5.1633982609
 10
-18.5041423845
 20
5.2351252839
 10
-18.5232358111
 20
5.3077266768
 10
-18.5392827222
 20
5.3810845246
 10
-18.5522472572
 20
5.4550748652
 10
-18.5621160249
 20
5.5295495468
 10
-18.5688812507
 20
5.6043543702
 10
-18.5725351604
 20
5.6793351364
  0
LINE
  5
4E2
100
AcDbEntity
  8
0
100
AcDbLine
 62
250
  6
CONTINUOUS
 10
-14.4087132202
 20
-14.3210272993
 11
-14.4087132202
 21
-13.8254492993
  0
LWPOLYLINE
  5
4E3
100
AcDbEntity
  8
0
100
AcDbPolyline
 62
250
  6
CONTINUOUS
 90
11
 70
0
 10
-14.2263933181
 20
10.0190799185
 10
-14.225734795
 20
10.0386137824
 10
-14.2252257554
 20
10.058149021
 10
-14.2248662781
 20
10.0776842772
 10
-14.2246564422
 20
10.0972181943
 10
-14.2245963267
 20
10.1167494153
 10
-14.2246860104
 20
10.1362765834
 10
-14.2249255725
 20
10.1557983415
 10
-14.2253150918
 20
10.1753133329
 10
-14.2258546474
 20
10.1948202006
 10
-14.2265443182
 20
10.2143175878
  0
LWPOLYLINE
  5
4E4
100
AcDbEntity
  8
0
100
AcDbPolyline
 62
250
  6
CONTINUOUS
 90
11
 70
0
 10
-14.2263934329
 20
5.633969994
 10
-14.2257349106
 20
5.6535038499
 10
-14.2252258717
 20
5.6730390804
 10
-14.224866395
 20
5.6925743287
 10
-14.2246565595
 20
5.7121082377
 10
-14.2245964443
 20
5.7316394507
 10
-14.2246861283
 20
5.7511666108
 10
-14.2249256904
 20
5.7706883609
 10
-14.2253152097
 20
5.7902033443
 10
-14.2258547652
 20
5.809710204
 10
-14.2265444358
 20
5.8292075831
  0
LWPOLYLINE
  5
4E5
100
AcDbEntity
  8
0
100
AcDbPolyline
 62
250
  6
CONTINUOUS
 90
37
 70
0
 10
-22.6177265757
 20
-12.8996954083
 10
-22.6308684156
 20
-12.9131303855
 10
-22.643608813
 20
-12.9269413906
 10
-22.6559534652
 20
-12.9411140123
 10
-22.6679080693
 20
-12.9556338391
 10
-22.6794783225
 20
-12.9704864596
 10
-22.6906699221
 20
-12.9856574623
 10
-22.7014885651
 20
-13.0011324359
 10
-22.7119399489
 20
-13.0168969688
 10
-22.7220297705
 20
-13.0329366497
 10
-22.7317637272
 20
-13.0492370671
 10
-22.7411475163
 20
-13.0657838096
 10
-22.7501868348
 20
-13.0825624657
 10
-22.7588873799
 20
-13.099558624
 10
-22.767254849
 20
-13.1167578731
 10
-22.7752949391
 20
-13.1341458014
 10
-22.7830133475
 20
-13.1517079977
 10
-22.7904157713
 20
-13.1694300504
 10
-22.7975079077
 20
-13.1872975482
 10
-22.8042954541
 20
-13.2052960795
 10
-22.8107841074
 20
-13.2234112329
 10
-22.816979565
 20
-13.2416285971
 10
-22.822887524
 20
-13.2599337605
 10
-22.8285136816
 20
-13.2783123118
 10
-22.833863735
 20
-13.2967498394
 10
-22.8389433815
 20
-13.3152319321
 10
-22.8437583181
 20
-13.3337441782
 10
-22.8483142422
 20
-13.3522721664
 10
-22.8526168508
 20
-13.3708014853
 10
-22.8584612347
 20
-13.3978280739
 10
-22.8638399075
 20
-13.4248378429
 10
-22.8688146658
 20
-13.451841839
 10
-22.8734473061
 20
-13.4788511089
 10
-22.877799625
 20
-13.5058766994
 10
-22.8819334191
 20
-13.5329296571
 10
-22.8859104847
 20
-13.5600210288
 10
-22.8897926186
 20
-13.5871618612
  0
LINE
  5
4E6
100
AcDbEntity
  8
0
100
AcDbLine
 62
250
  6
CONTINUOUS
 10
-19.3210692442
 20
10.2143177007
 11
-18.5704779338
 21
10.2143177007
  0
LINE
  5
4E7
100
AcDbEntity
  8
0
100
AcDbLine
 62
250
  6
CONTINUOUS
 10
-14.9771327517
 20
10.2143177007
 11
-14.2265414413
 21
10.2143177007
  0
LINE
  5
4E8
100
AcDbEntity
  8
0
100
AcDbLine
 62
250
  6
CONTINUOUS
 10
-27.2006117301
 20
10.3711367007
 11
-24.7742469931
 21
10.3711367007
  0
LINE
  5
4E9
100
AcDbEntity
  8
0
100
AcDbLine
 62
250
  6
CONTINUOUS
 10
-21.54656333
 20
10.5624760576
 11
-22.089337789
 21
10.5624760576
  0
LINE
  5
4EA
100
AcDbEntity
  8
0
100
AcDbLine
 62
250
  6
CONTINUOUS
 10
-25.3759506665
 20
11.8251207007
 11
-27.6733636923
 21
11.8251207007
  0
LINE
  5
4EB
100
AcDbEntity
  8
RACCORDO
100
AcDbLine
 62
7
  6
CONTINUOUS
 10
-6.5685696208
 20
10.3089587331
 11
-6.5738053427
 21
10.3090358317
  0
LINE
  5
4EC
100
AcDbEntity
  8
ASSI
100
AcDbLine
 62
7
  6
CONTINUOUS
 10
-6.5685696208
 20
10.3089587331
 11
-6.5738053427
 21
10.3090358317
  0
LINE
  5
4ED
100
AcDbEntity
  8
0
100
AcDbLine
 62
250
  6
CONTINUOUS
 10
-27.6733636923
 20
13.7492507007
 11
-24.7742469931
 21
12.7008067007
  0
LINE
  5
4EE
100
AcDbEntity
  8
0
100
AcDbLine
 62
250
  6
CONTINUOUS
 10
-11.1388974653
 20
-14.3210272993
 11
-11.1388974653
 21
-13.8254492993
  0
LWPOLYLINE
  5
4EF
100
AcDbEntity
  8
RACCORDO
100
AcDbPolyline
 62
7
  6
CONTINUOUS
 90
4
 70
0
 10
-20.2738053427
 20
-21.4032839908
 10
-20.2741570392
 20
-21.4039518836
 10
-20.275188048
 20
-21.4052189815
 10
-20.2768616488
 20
-21.4070852845
  0
LINE
  5
4F0
100
AcDbEntity
  8
0
100
AcDbLine
 62
250
  6
CONTINUOUS
 10
-23.3490525842
 20
-16.5033682993
 11
-18.3725246489
 21
-11.7716822993
  0
LINE
  5
4F1
100
AcDbEntity
  8
0
100
AcDbLine
 62
250
  6
CONTINUOUS
 10
-24.7669441246
 20
-15.5861122993
 11
-27.6657149292
 21
-16.5053582993
  0
LINE
  5
4F2
100
AcDbEntity
  8
RACCORDO
100
AcDbLine
 62
7
  6
CONTINUOUS
 10
-6.5738053427
 20
12.8844875697
 11
-6.5685696208
 21
12.8845646683
  0
LINE
  5
4F3
100
AcDbEntity
  8
ASSI
100
AcDbLine
 62
7
  6
CONTINUOUS
 10
-6.5738053427
 20
12.8844875697
 11
-6.5685696208
 21
12.8845646683
  0
LINE
  5
4F4
100
AcDbEntity
  8
0
100
AcDbLine
 62
250
  6
CONTINUOUS
 10
-27.6733636923
 20
12.4075647007
 11
-24.7742469931
 21
12.4075647007
  0
LINE
  5
4F5
100
AcDbEntity
  8
RACCORDO
100
AcDbLine
 62
250
  6
CONTINUOUS
 10
-6.2738053427
 20
13.0651767368
 11
-6.5685696208
 21
13.0651767368
  0
LINE
  5
4F6
100
AcDbEntity
  8
ASSI
100
AcDbLine
 62
250
  6
CONTINUOUS
 10
-6.2738053427
 20
13.0651767368
 11
-6.5685696208
 21
13.0651767368
  0
LINE
  5
4F7
100
AcDbEntity
  8
0
100
AcDbLine
 62
250
  6
CONTINUOUS
 10
-25.8704849921
 20
13.6728577007
 11
-27.1192095316
 21
14.1028157007
  0
LINE
  5
4F8
100
AcDbEntity
  8
0
100
AcDbLine
 62
250
  6
CONTINUOUS
 10
-24.7742469931
 20
13.2952557007
 11
-25.3886987824
 21
13.5122127007
  0
LWPOLYLINE
  5
4F9
100
AcDbEntity
  8
RACCORDO
100
AcDbPolyline
 62
7
  6
CONTINUOUS
 90
7
 70
0
 10
-8.0884533065
 20
1.9970702957
 10
-8.0715235667
 20
1.978018671
 10
-8.053837529
 20
1.9585234148
 10
-8.0353951935
 20
1.9385845271
 10
-8.0161965602
 20
1.918202008
 10
-7.996241629
 20
1.8973758573
 10
-7.9755304
 20
1.8761060751
  0
LWPOLYLINE
  5
4FA
100
AcDbEntity
  8
ASSI
100
AcDbPolyline
 62
7
  6
CONTINUOUS
 90
7
 70
0
 10
-8.0884533065
 20
1.9970702957
 10
-8.0715235667
 20
1.978018671
 10
-8.053837529
 20
1.9585234148
 10
-8.0353951935
 20
1.9385845271
 10
-8.0161965602
 20
1.918202008
 10
-7.996241629
 20
1.8973758573
 10
-7.9755304
 20
1.8761060751
  0
LWPOLYLINE
  5
4FB
100
AcDbEntity
  8
RACCORDO
100
AcDbPolyline
 62
7
  6
CONTINUOUS
 90
5
 70
0
 10
-20.2738053427
 20
20.3968073922
 10
-20.2741570392
 20
20.397475285
 10
-20.275188048
 20
20.3987423829
 10
-20.2768616488
 20
20.4006086859
 10
-20.2819859375
 20
20.4062129526
  0
LWPOLYLINE
  5
4FC
100
AcDbEntity
  8
RACCORDO
100
AcDbPolyline
 62
7
  6
CONTINUOUS
 90
5
 70
0
 10
-8.2875351743
 20
-18.875675208
 10
-8.2881476991
 20
-18.8710823182
 10
-8.2887331595
 20
-18.8662809389
 10
-8.2892942523
 20
-18.8612732741
 10
-8.2898309128
 20
-18.8560615761
  0
LWPOLYLINE
  5
4FD
100
AcDbEntity
  8
ASSI
100
AcDbPolyline
 62
7
  6
CONTINUOUS
 90
5
 70
0
 10
-8.2875351743
 20
-18.875675208
 10
-8.2881476991
 20
-18.8710823182
 10
-8.2887331595
 20
-18.8662809389
 10
-8.2892942523
 20
-18.8612732741
 10
-8.2898309128
 20
-18.8560615761
  0
LWPOLYLINE
  5
4FE
100
AcDbEntity
  8
RACCORDO
100
AcDbPolyline
 62
7
  6
CONTINUOUS
 90
17
 70
0
 10
-8.2898309128
 20
-18.8560615761
 10
-8.29058749
 20
-18.8479389944
 10
-8.2912996297
 20
-18.8393818753
 10
-8.2919671464
 20
-18.8303992759
 10
-8.2925925713
 20
-18.8209995231
 10
-8.2931730231
 20
-18.8111935725
 10
-8.2937002168
 20
-18.8009954767
 10
-8.2941730351
 20
-18.7904205655
 10
-8.2945923204
 20
-18.779476367
 10
-8.2949527277
 20
-18.7681652865
 10
-8.2952534402
 20
-18.7564922258
 10
-8.2954949953
 20
-18.7444748355
 10
-8.2956740929
 20
-18.732135098
 10
-8.295789716
 20
-18.7194942767
 10
-8.2958427166
 20
-18.7065580098
 10
-8.2958326025
 20
-18.69332507
 10
-8.2957584084
 20
-18.6797995281
  0
LWPOLYLINE
  5
4FF
100
AcDbEntity
  8
ASSI
100
AcDbPolyline
 62
7
  6
CONTINUOUS
 90
17
 70
0
 10
-8.2898309128
 20
-18.8560615761
 10
-8.29058749
 20
-18.8479389944
 10
-8.2912996297
 20
-18.8393818753
 10
-8.2919671464
 20
-18.8303992759
 10
-8.2925925713
 20
-18.8209995231
 10
-8.2931730231
 20
-18.8111935725
 10
-8.2937002168
 20
-18.8009954767
 10
-8.2941730351
 20
-18.7904205655
 10
-8.2945923204
 20
-18.779476367
 10
-8.2949527277
 20
-18.7681652865
 10
-8.2952534402
 20
-18.7564922258
 10
-8.2954949953
 20
-18.7444748355
 10
-8.2956740929
 20
-18.732135098
 10
-8.295789716
 20
-18.7194942767
 10
-8.2958427166
 20
-18.7065580098
 10
-8.2958326025
 20
-18.69332507
 10
-8.2957584084
 20
-18.6797995281
  0
LINE
  5
500
100
AcDbEntity
  8
RACCORDO
100
AcDbLine
 62
250
  6
CONTINUOUS
 10
-9.2555589315
 20
18.2338313519
 11
-9.2563529363
 21
18.43050012
  0
LINE
  5
501
100
AcDbEntity
  8
ASSI
100
AcDbLine
 62
250
  6
CONTINUOUS
 10
-9.2555589315
 20
18.2338313519
 11
-9.2563529363
 21
18.43050012
  0
LINE
  5
502
100
AcDbEntity
  8
RACCORDO
100
AcDbLine
 62
250
  6
CONTINUOUS
 10
-9.2552783325
 20
-18.4130958252
 11
-9.2563529363
 21
-18.0229785478
  0
LINE
  5
503
100
AcDbEntity
  8
ASSI
100
AcDbLine
 62
250
  6
CONTINUOUS
 10
-9.2552783325
 20
-18.4130958252
 11
-9.2563529363
 21
-18.0229785478
  0
LINE
  5
504
100
AcDbEntity
  8
RACCORDO
100
AcDbLine
 62
250
  6
CONTINUOUS
 10
-9.2550277121
 20
17.978322207
 11
-9.2555589315
 21
18.2338313519
  0
LINE
  5
505
100
AcDbEntity
  8
ASSI
100
AcDbLine
 62
250
  6
CONTINUOUS
 10
-9.2550277121
 20
17.978322207
 11
-9.2555589315
 21
18.2338313519
  0
LINE
  5
506
100
AcDbEntity
  8
RACCORDO
100
AcDbLine
 62
250
  6
CONTINUOUS
 10
-9.2549199765
 20
-18.7477350085
 11
-9.2552783325
 21
-18.4130958252
  0
LINE
  5
507
100
AcDbEntity
  8
ASSI
100
AcDbLine
 62
250
  6
CONTINUOUS
 10
-9.2549199765
 20
-18.7477350085
 11
-9.2552783325
 21
-18.4130958252
  0
LINE
  5
508
100
AcDbEntity
  8
0
100
AcDbLine
 62
250
  6
CONTINUOUS
 10
-10.5245686386
 20
-13.5380142993
 11
-10.5245686386
 21
-14.0732382993
  0
LINE
  5
509
100
AcDbEntity
  8
RACCORDO
100
AcDbLine
 62
250
  6
CONTINUOUS
 10
-9.2563529363
 20
-19.9219071211
 11
-9.2563529363
 21
-19.4369767186
  0
LINE
  5
50A
100
AcDbEntity
  8
ASSI
100
AcDbLine
 62
250
  6
CONTINUOUS
 10
-9.2563529363
 20
-19.9219071211
 11
-9.2563529363
 21
-19.4369767186
  0
LINE
  5
50B
100
AcDbEntity
  8
RACCORDO
100
AcDbLine
 62
250
  6
CONTINUOUS
 10
-9.2563529363
 20
-18.0229785478
 11
-9.2563529363
 21
9.8845966869
  0
LINE
  5
50C
100
AcDbEntity
  8
ASSI
100
AcDbLine
 62
250
  6
CONTINUOUS
 10
-9.2563529363
 20
-18.0229785478
 11
-9.2563529363
 21
9.8845966869
  0
LINE
  5
50D
100
AcDbEntity
  8
RACCORDO
100
AcDbLine
 62
250
  6
CONTINUOUS
 10
-9.2563529363
 20
13.3089266482
 11
-9.2563529363
 21
17.0165019492
  0
LINE
  5
50E
100
AcDbEntity
  8
ASSI
100
AcDbLine
 62
250
  6
CONTINUOUS
 10
-9.2563529363
 20
13.3089266482
 11
-9.2563529363
 21
17.0165019492
  0
LINE
  5
50F
100
AcDbEntity
  8
RACCORDO
100
AcDbLine
 62
250
  6
CONTINUOUS
 10
-9.2563529363
 20
18.43050012
 11
-9.2563529363
 21
18.9154305225
  0
LINE
  5
510
100
AcDbEntity
  8
ASSI
100
AcDbLine
 62
250
  6
CONTINUOUS
 10
-9.2563529363
 20
18.43050012
 11
-9.2563529363
 21
18.9154305225
  0
LINE
  5
511
100
AcDbEntity
  8
RACCORDO
100
AcDbLine
 62
250
  6
CONTINUOUS
 10
-9.2549559191
 20
17.6592747309
 11
-9.2550277121
 21
17.978322207
  0
LINE
  5
512
100
AcDbEntity
  8
ASSI
100
AcDbLine
 62
250
  6
CONTINUOUS
 10
-9.2549559191
 20
17.6592747309
 11
-9.2550277121
 21
17.978322207
  0
LINE
  5
513
100
AcDbEntity
  8
RACCORDO
100
AcDbLine
 62
250
  6
CONTINUOUS
 10
-9.2551352687
 20
-19.0603563043
 11
-9.2549199765
 21
-18.7477350085
  0
LINE
  5
514
100
AcDbEntity
  8
ASSI
100
AcDbLine
 62
250
  6
CONTINUOUS
 10
-9.2551352687
 20
-19.0603563043
 11
-9.2549199765
 21
-18.7477350085
  0
LINE
  5
515
100
AcDbEntity
  8
RACCORDO
100
AcDbLine
 62
250
  6
CONTINUOUS
 10
-9.2554566307
 20
17.3206994974
 11
-9.2549559191
 21
17.6592747309
  0
LINE
  5
516
100
AcDbEntity
  8
ASSI
100
AcDbLine
 62
250
  6
CONTINUOUS
 10
-9.2554566307
 20
17.3206994974
 11
-9.2549559191
 21
17.6592747309
  0
LINE
  5
517
100
AcDbEntity
  8
RACCORDO
100
AcDbLine
 62
250
  6
CONTINUOUS
 10
-9.2563529363
 20
17.0165019492
 11
-9.2554566307
 21
17.3206994974
  0
LINE
  5
518
100
AcDbEntity
  8
ASSI
100
AcDbLine
 62
250
  6
CONTINUOUS
 10
-9.2563529363
 20
17.0165019492
 11
-9.2554566307
 21
17.3206994974
  0
LINE
  5
519
100
AcDbEntity
  8
RACCORDO
100
AcDbLine
 62
250
  6
CONTINUOUS
 10
-9.2557894621
 20
-19.3083516199
 11
-9.2551352687
 21
-19.0603563043
  0
LINE
  5
51A
100
AcDbEntity
  8
ASSI
100
AcDbLine
 62
250
  6
CONTINUOUS
 10
-9.2557894621
 20
-19.3083516199
 11
-9.2551352687
 21
-19.0603563043
  0
LINE
  5
51B
100
AcDbEntity
  8
RACCORDO
100
AcDbLine
 62
250
  6
CONTINUOUS
 10
-9.2563529363
 20
-19.4369767186
 11
-9.2557894621
 21
-19.3083516199
  0
LINE
  5
51C
100
AcDbEntity
  8
ASSI
100
AcDbLine
 62
250
  6
CONTINUOUS
 10
-9.2563529363
 20
-19.4369767186
 11
-9.2557894621
 21
-19.3083516199
  0
LWPOLYLINE
  5
51D
100
AcDbEntity
  8
0
100
AcDbPolyline
 62
250
  6
CONTINUOUS
 90
34
 70
0
 10
-10.5245684753
 20
-13.5380142993
 10
-10.524268728
 20
-13.5137715032
 10
-10.5233709165
 20
-13.4895224653
 10
-10.5218771868
 20
-13.4652845346
 10
-10.5197896845
 20
-13.4410750597
 10
-10.5171105554
 20
-13.4169113895
 10
-10.5138419453
 20
-13.3928108727
 10
-10.5099860001
 20
-13.3687908583
 10
-10.5055448655
 20
-13.344868695
 10
-10.5005206872
 20
-13.3210617316
 10
-10.4949156111
 20
-13.2973873168
 10
-10.488731783
 20
-13.2738627996
 10
-10.4819718657
 20
-13.2505046802
 10
-10.4746405904
 20
-13.2273260646
 10
-10.4667432052
 20
-13.2043392107
 10
-10.4582849584
 20
-13.1815563758
 10
-10.4492710982
 20
-13.1589898178
 10
-10.4397068727
 20
-13.1366517942
 10
-10.4295975303
 20
-13.1145545625
 10
-10.418948319
 20
-13.0927103805
 10
-10.4077644872
 20
-13.0711315058
 10
-10.396051283
 20
-13.0498301959
 10
-10.3838139547
 20
-13.0288187085
 10
-10.3710587211
 20
-13.0081095122
 10
-10.3577956844
 20
-12.9877159204
 10
-10.3440359173
 20
-12.9676514573
 10
-10.3297904928
 20
-12.9479296471
 10
-10.3150704834
 20
-12.9285640142
 10
-10.2998869622
 20
-12.9095680828
 10
-10.2842510018
 20
-12.8909553773
 10
-10.2681736751
 20
-12.8727394218
 10
-10.2516660549
 20
-12.8549337409
 10
-10.234739214
 20
-12.8375518586
 10
-10.2174042252
 20
-12.8206072993
  0
LINE
  5
51E
100
AcDbEntity
  8
RACCORDO
100
AcDbLine
 62
7
  6
CONTINUOUS
 10
-33.6488053427
 20
-24.1310695156
 11
-32.7738053427
 21
-23.6258880301
  0
LINE
  5
51F
100
AcDbEntity
  8
DRAFT
100
AcDbLine
 62
7
  6
CONTINUOUS
 10
-7.9947322849
 20
14.6672470115
 11
-6.5528784006
 21
14.5664227661
  0
LINE
  5
520
100
AcDbEntity
  8
ASSI
100
AcDbLine
 62
7
  6
CONTINUOUS
 10
-7.9947322849
 20
14.6672470115
 11
-6.5528784006
 21
14.5664227661
  0
LWPOLYLINE
  5
521
100
AcDbEntity
  8
RACCORDO
100
AcDbPolyline
 62
250
  6
CONTINUOUS
 90
40
 70
0
 10
-7.9947322849
 20
14.3309779028
 10
-8.006231839
 20
14.3318922747
 10
-8.017683368
 20
14.3331999827
 10
-8.0290699118
 20
14.3348990898
 10
-8.0403746063
 20
14.3369870798
 10
-8.0515807087
 20
14.3394608601
 10
-8.0626716224
 20
14.342316767
 10
-8.0736309212
 20
14.3455505708
 10
-8.0844423739
 20
14.3491574821
 10
-8.0950899682
 20
14.353132159
 10
-8.1055579346
 20
14.3574687147
 10
-8.1158307695
 20
14.3621607267
 10
-8.1258932584
 20
14.3672012459
 10
-8.1357304983
 20
14.372582807
 10
-8.1453279197
 20
14.3782974398
 10
-8.1546713085
 20
14.3843366807
 10
-8.1637468267
 20
14.3906915853
 10
-8.1725410329
 20
14.3973527418
 10
-8.1810409025
 20
14.4043102845
 10
-8.1892338469
 20
14.4115539093
 10
-8.1971077318
 20
14.4190728879
 10
-8.2046508956
 20
14.4268560844
 10
-8.2118521666
 20
14.4348919716
 10
-8.2187008793
 20
14.4431686479
 10
-8.2251868904
 20
14.4516738553
 10
-8.2313005937
 20
14.4603949972
 10
-8.2370329347
 20
14.4693191571
 10
-8.2423754233
 20
14.4784331181
 10
-8.247320147
 20
14.4877233818
 10
-8.2518597824
 20
14.497176189
 10
-8.2559876062
 20
14.5067775397
 10
-8.2596975046
 20
14.5165132139
 10
-8.2629839832
 20
14.5263687925
 10
-8.2658421745
 20
14.5363296789
 10
-8.2682678452
 20
14.5463811207
 10
-8.2702574029
 20
14.5565082311
 10
-8.2718079008
 20
14.5666960115
 10
-8.2729170426
 20
14.5769293732
 10
-8.2735831854
 20
14.5871931602
 10
-8.2738053427
 20
14.5974721712
  0
LWPOLYLINE
  5
522
100
AcDbEntity
  8
ASSI
100
AcDbPolyline
 62
250
  6
CONTINUOUS
 90
40
 70
0
 10
-7.9947322849
 20
14.3309779028
 10
-8.006231839
 20
14.3318922747
 10
-8.017683368
 20
14.3331999827
 10
-8.0290699118
 20
14.3348990898
 10
-8.0403746063
 20
14.3369870798
 10
-8.0515807087
 20
14.3394608601
 10
-8.0626716224
 20
14.342316767
 10
-8.0736309212
 20
14.3455505708
 10
-8.0844423739
 20
14.3491574821
 10
-8.0950899682
 20
14.353132159
 10
-8.1055579346
 20
14.3574687147
 10
-8.1158307695
 20
14.3621607267
 10
-8.1258932584
 20
14.3672012459
 10
-8.1357304983
 20
14.372582807
 10
-8.1453279197
 20
14.3782974398
 10
-8.1546713085
 20
14.3843366807
 10
-8.1637468267
 20
14.3906915853
 10
-8.1725410329
 20
14.3973527418
 10
-8.1810409025
 20
14.4043102845
 10
-8.1892338469
 20
14.4115539093
 10
-8.1971077318
 20
14.4190728879
 10
-8.2046508956
 20
14.4268560844
 10
-8.2118521666
 20
14.4348919716
 10
-8.2187008793
 20
14.4431686479
 10
-8.2251868904
 20
14.4516738553
 10
-8.2313005937
 20
14.4603949972
 10
-8.2370329347
 20
14.4693191571
 10
-8.2423754233
 20
14.4784331181
 10
-8.247320147
 20
14.4877233818
 10
-8.2518597824
 20
14.497176189
 10
-8.2559876062
 20
14.5067775397
 10
-8.2596975046
 20
14.5165132139
 10
-8.2629839832
 20
14.5263687925
 10
-8.2658421745
 20
14.5363296789
 10
-8.2682678452
 20
14.5463811207
 10
-8.2702574029
 20
14.5565082311
 10
-8.2718079008
 20
14.5666960115
 10
-8.2729170426
 20
14.5769293732
 10
-8.2735831854
 20
14.5871931602
 10
-8.2738053427
 20
14.5974721712
  0
LWPOLYLINE
  5
523
100
AcDbEntity
  8
RACCORDO
100
AcDbPolyline
 62
250
  6
CONTINUOUS
 90
13
 70
0
 10
-9.2563529363
 20
13.3089266482
 10
-9.0166618085
 20
13.2878239103
 10
-8.7787735506
 20
13.2667687807
 10
-8.5426881625
 20
13.2457612595
 10
-8.3076539302
 20
13.2247337388
 10
-8.0744225678
 20
13.2037538264
 10
-7.8452492174
 20
13.1830243462
 10
-7.6205658909
 20
13.1625808856
 10
-7.3999405764
 20
13.1423878572
 10
-7.1843323815
 20
13.1225413219
 10
-6.9740610084
 20
13.1030733003
 10
-6.7688067549
 20
13.0839517719
 10
-6.5685696208
 20
13.0651767368
  0
LWPOLYLINE
  5
524
100
AcDbEntity
  8
ASSI
100
AcDbPolyline
 62
250
  6
CONTINUOUS
 90
13
 70
0
 10
-9.2563529363
 20
13.3089266482
 10
-9.0166618085
 20
13.2878239103
 10
-8.7787735506
 20
13.2667687807
 10
-8.5426881625
 20
13.2457612595
 10
-8.3076539302
 20
13.2247337388
 10
-8.0744225678
 20
13.2037538264
 10
-7.8452492174
 20
13.1830243462
 10
-7.6205658909
 20
13.1625808856
 10
-7.3999405764
 20
13.1423878572
 10
-7.1843323815
 20
13.1225413219
 10
-6.9740610084
 20
13.1030733003
 10
-6.7688067549
 20
13.0839517719
 10
-6.5685696208
 20
13.0651767368
  0
LWPOLYLINE
  5
525
100
AcDbEntity
  8
RACCORDO
100
AcDbPolyline
 62
250
  6
CONTINUOUS
 90
10
 70
0
 10
-8.6121363545
 20
13.5704479468
 10
-8.367139268
 20
13.5464595861
 10
-8.1256751569
 20
13.5226476423
 10
-7.8877440212
 20
13.4990105067
 10
-7.6526596137
 20
13.4754706051
 10
-7.4211081816
 20
13.4521026863
 10
-7.1951484667
 20
13.4291312575
 10
-6.9754667164
 20
13.4066274055
 10
-6.7613766833
 20
13.3845113636
 10
-6.5528783675
 20
13.362779004
  0
LWPOLYLINE
  5
526
100
AcDbEntity
  8
ASSI
100
AcDbPolyline
 62
250
  6
CONTINUOUS
 90
10
 70
0
 10
-8.6121363545
 20
13.5704479468
 10
-8.367139268
 20
13.5464595861
 10
-8.1256751569
 20
13.5226476423
 10
-7.8877440212
 20
13.4990105067
 10
-7.6526596137
 20
13.4754706051
 10
-7.4211081816
 20
13.4521026863
 10
-7.1951484667
 20
13.4291312575
 10
-6.9754667164
 20
13.4066274055
 10
-6.7613766833
 20
13.3845113636
 10
-6.5528783675
 20
13.362779004
  0
LWPOLYLINE
  5
527
100
AcDbEntity
  8
RACCORDO
100
AcDbPolyline
 62
250
  6
CONTINUOUS
 90
7
 70
0
 10
-8.6121374978
 20
9.6230753768
 10
-8.6373490175
 20
9.6326489313
 10
-8.6632157321
 20
9.6425746424
 10
-8.6897376756
 20
9.6528500673
 10
-8.7169308962
 20
9.6634749212
 10
-8.7447792035
 20
9.6744420681
 10
-8.7732340691
 20
9.6857366127
  0
LWPOLYLINE
  5
528
100
AcDbEntity
  8
ASSI
100
AcDbPolyline
 62
250
  6
CONTINUOUS
 90
7
 70
0
 10
-8.6121374978
 20
9.6230753768
 10
-8.6373490175
 20
9.6326489313
 10
-8.6632157321
 20
9.6425746424
 10
-8.6897376756
 20
9.6528500673
 10
-8.7169308962
 20
9.6634749212
 10
-8.7447792035
 20
9.6744420681
 10
-8.7732340691
 20
9.6857366127
  0
LINE
  5
529
100
AcDbEntity
  8
RACCORDO
100
AcDbLine
 62
250
  6
CONTINUOUS
 10
-8.7732340691
 20
9.6857366127
 11
-8.8319652999
 21
9.7092755444
  0
LINE
  5
52A
100
AcDbEntity
  8
ASSI
100
AcDbLine
 62
250
  6
CONTINUOUS
 10
-8.7732340691
 20
9.6857366127
 11
-8.8319652999
 21
9.7092755444
  0
LINE
  5
52B
100
AcDbEntity
  8
RACCORDO
100
AcDbLine
 62
250
  6
CONTINUOUS
 10
-8.8319652999
 20
9.7092755444
 11
-8.8929810614
 21
9.7340203314
  0
LINE
  5
52C
100
AcDbEntity
  8
ASSI
100
AcDbLine
 62
250
  6
CONTINUOUS
 10
-8.8319652999
 20
9.7092755444
 11
-8.8929810614
 21
9.7340203314
  0
LINE
  5
52D
100
AcDbEntity
  8
RACCORDO
100
AcDbLine
 62
250
  6
CONTINUOUS
 10
-8.8929810614
 20
9.7340203314
 11
-8.9560958711
 21
9.7598535177
  0
LINE
  5
52E
100
AcDbEntity
  8
ASSI
100
AcDbLine
 62
250
  6
CONTINUOUS
 10
-8.8929810614
 20
9.7340203314
 11
-8.9560958711
 21
9.7598535177
  0
LINE
  5
52F
100
AcDbEntity
  8
RACCORDO
100
AcDbLine
 62
250
  6
CONTINUOUS
 10
-8.9560958711
 20
9.7598535177
 11
-9.0208664103
 21
9.7865604183
  0
LINE
  5
530
100
AcDbEntity
  8
ASSI
100
AcDbLine
 62
250
  6
CONTINUOUS
 10
-8.9560958711
 20
9.7598535177
 11
-9.0208664103
 21
9.7865604183
  0
LINE
  5
531
100
AcDbEntity
  8
RACCORDO
100
AcDbLine
 62
250
  6
CONTINUOUS
 10
-9.0208664103
 20
9.7865604183
 11
-9.1207892297
 21
9.8280438745
  0
LINE
  5
532
100
AcDbEntity
  8
ASSI
100
AcDbLine
 62
250
  6
CONTINUOUS
 10
-9.0208664103
 20
9.7865604183
 11
-9.1207892297
 21
9.8280438745
  0
LINE
  5
533
100
AcDbEntity
  8
RACCORDO
100
AcDbLine
 62
250
  6
CONTINUOUS
 10
-9.1207892297
 20
9.8280438745
 11
-9.2563529363
 21
9.8845966869
  0
LINE
  5
534
100
AcDbEntity
  8
ASSI
100
AcDbLine
 62
250
  6
CONTINUOUS
 10
-9.1207892297
 20
9.8280438745
 11
-9.2563529363
 21
9.8845966869
  0
LINE
  5
535
100
AcDbEntity
  8
RACCORDO
100
AcDbLine
 62
7
  6
CONTINUOUS
 10
-32.7738053427
 20
22.6194114315
 11
-33.6488053427
 21
23.1245929171
  0
LWPOLYLINE
  5
536
100
AcDbEntity
  8
RACCORDO
100
AcDbPolyline
 62
7
  6
CONTINUOUS
 90
37
 70
0
 10
-8.0884533065
 20
1.9970702957
 10
-8.0952089665
 20
2.0051007145
 10
-8.1019034509
 20
2.0135476311
 10
-8.1085367598
 20
2.0224110455
 10
-8.1151050263
 20
2.0316852274
 10
-8.1216121172
 20
2.0413759071
 10
-8.1280696333
 20
2.0515002755
 10
-8.1344739335
 20
2.0620420347
 10
-8.1408286588
 20
2.0730174825
 10
-8.1471563337
 20
2.0844927043
 10
-8.1534645693
 20
2.0964696666
 10
-8.1597457544
 20
2.1089464029
 10
-8.1659995796
 20
2.1219830978
 10
-8.1722320979
 20
2.1355823852
 10
-8.1784372563
 20
2.1497416312
 10
-8.1845965867
 20
2.1645131192
 10
-8.1907124201
 20
2.1798892786
 10
-8.1967824255
 20
2.19587768
 10
-8.2027811412
 20
2.212553318
 10
-8.2087186546
 20
2.2299288744
 10
-8.2145848783
 20
2.2479916675
 10
-8.2203240894
 20
2.2667786468
 10
-8.2259430543
 20
2.2862949493
 10
-8.2314350064
 20
2.3065354379
 10
-8.2367239231
 20
2.3275216508
 10
-8.2418176016
 20
2.3492597426
 10
-8.2467082447
 20
2.3717435587
 10
-8.2512964372
 20
2.394976174
 10
-8.2555954796
 20
2.4190240521
 10
-8.2595920714
 20
2.4438207294
 10
-8.2631468964
 20
2.4691698897
 10
-8.2662548038
 20
2.4951250486
 10
-8.2689209445
 20
2.5216326905
 10
-8.2710214551
 20
2.5483359525
 10
-8.2725150477
 20
2.5751158802
 10
-8.2734430103
 20
2.6020914281
 10
-8.2738053427
 20
2.629262596
  0
LWPOLYLINE
  5
537
100
AcDbEntity
  8
ASSI
100
AcDbPolyline
 62
7
  6
CONTINUOUS
 90
37
 70
0
 10
-8.0884533065
 20
1.9970702957
 10
-8.0952089665
 20
2.0051007145
 10
-8.1019034509
 20
2.0135476311
 10
-8.1085367598
 20
2.0224110455
 10
-8.1151050263
 20
2.0316852274
 10
-8.1216121172
 20
2.0413759071
 10
-8.1280696333
 20
2.0515002755
 10
-8.1344739335
 20
2.0620420347
 10
-8.1408286588
 20
2.0730174825
 10
-8.1471563337
 20
2.0844927043
 10
-8.1534645693
 20
2.0964696666
 10
-8.1597457544
 20
2.1089464029
 10
-8.1659995796
 20
2.1219830978
 10
-8.1722320979
 20
2.1355823852
 10
-8.1784372563
 20
2.1497416312
 10
-8.1845965867
 20
2.1645131192
 10
-8.1907124201
 20
2.1798892786
 10
-8.1967824255
 20
2.19587768
 10
-8.2027811412
 20
2.212553318
 10
-8.2087186546
 20
2.2299288744
 10
-8.2145848783
 20
2.2479916675
 10
-8.2203240894
 20
2.2667786468
 10
-8.2259430543
 20
2.2862949493
 10
-8.2314350064
 20
2.3065354379
 10
-8.2367239231
 20
2.3275216508
 10
-8.2418176016
 20
2.3492597426
 10
-8.2467082447
 20
2.3717435587
 10
-8.2512964372
 20
2.394976174
 10
-8.2555954796
 20
2.4190240521
 10
-8.2595920714
 20
2.4438207294
 10
-8.2631468964
 20
2.4691698897
 10
-8.2662548038
 20
2.4951250486
 10
-8.2689209445
 20
2.5216326905
 10
-8.2710214551
 20
2.5483359525
 10
-8.2725150477
 20
2.5751158802
 10
-8.2734430103
 20
2.6020914281
 10
-8.2738053427
 20
2.629262596
  0
LINE
  5
538
100
AcDbEntity
  8
RACCORDO
100
AcDbLine
 62
250
  6
CONTINUOUS
 10
-6.5720774763
 20
-13.2854101567
 11
-6.5528784006
 21
-13.3615755265
  0
LINE
  5
539
100
AcDbEntity
  8
ASSI
100
AcDbLine
 62
250
  6
CONTINUOUS
 10
-6.5720774763
 20
-13.2854101567
 11
-6.5528784006
 21
-13.3615755265
  0
LWPOLYLINE
  5
53A
100
AcDbEntity
  8
RACCORDO
100
AcDbPolyline
 62
250
  6
CONTINUOUS
 90
3
 70
0
 10
-7.9755327856
 20
-11.6238936091
 10
-7.9794826158
 20
-11.6008230472
 10
-7.9807958632
 20
-11.593125836
  0
LWPOLYLINE
  5
53B
100
AcDbEntity
  8
ASSI
100
AcDbPolyline
 62
250
  6
CONTINUOUS
 90
3
 70
0
 10
-7.9755327856
 20
-11.6238936091
 10
-7.9794826158
 20
-11.6008230472
 10
-7.9807958632
 20
-11.593125836
  0
LINE
  5
53C
100
AcDbEntity
  8
RACCORDO
100
AcDbLine
 62
250
  6
CONTINUOUS
 10
-7.9807958632
 20
-11.593125836
 11
-7.9847114865
 21
-11.5701174533
  0
LINE
  5
53D
100
AcDbEntity
  8
ASSI
100
AcDbLine
 62
250
  6
CONTINUOUS
 10
-7.9807958632
 20
-11.593125836
 11
-7.9847114865
 21
-11.5701174533
  0
LINE
  5
53E
100
AcDbEntity
  8
RACCORDO
100
AcDbLine
 62
250
  6
CONTINUOUS
 10
-7.9847114865
 20
-11.5701174533
 11
-7.9885598834
 21
-11.5474033412
  0
LINE
  5
53F
100
AcDbEntity
  8
ASSI
100
AcDbLine
 62
250
  6
CONTINUOUS
 10
-7.9847114865
 20
-11.5701174533
 11
-7.9885598834
 21
-11.5474033412
  0
LWPOLYLINE
  5
540
100
AcDbEntity
  8
RACCORDO
100
AcDbPolyline
 62
250
  6
CONTINUOUS
 90
4
 70
0
 10
-7.9885598834
 20
-11.5474033412
 10
-7.9923046054
 20
-11.5251893998
 10
-7.9935247899
 20
-11.5179289102
 10
-7.9947326358
 20
-11.5107456911
  0
LWPOLYLINE
  5
541
100
AcDbEntity
  8
ASSI
100
AcDbPolyline
 62
250
  6
CONTINUOUS
 90
4
 70
0
 10
-7.9885598834
 20
-11.5474033412
 10
-7.9923046054
 20
-11.5251893998
 10
-7.9935247899
 20
-11.5179289102
 10
-7.9947326358
 20
-11.5107456911
  0
LWPOLYLINE
  5
542
100
AcDbEntity
  8
RACCORDO
100
AcDbPolyline
 62
250
  6
CONTINUOUS
 90
43
 70
0
 10
-6.2738053427
 20
-11.9210664419
 10
-6.2739966203
 20
-11.9183693543
 10
-6.2745705996
 20
-11.9156394184
 10
-6.2755268727
 20
-11.9128986532
 10
-6.276864041
 20
-11.9101832904
 10
-6.2785802544
 20
-11.9075000082
 10
-6.280673735
 20
-11.9048222321
 10
-6.2831416695
 20
-11.9021611653
 10
-6.2859805073
 20
-11.8995373112
 10
-6.2891871806
 20
-11.8969320825
 10
-6.2927574332
 20
-11.8943551138
 10
-6.2966862804
 20
-11.891821922
 10
-6.3009693017
 20
-11.8893191116
 10
-6.3056008557
 20
-11.88685522
 10
-6.3105746255
 20
-11.8844424602
 10
-6.315884834
 20
-11.8820707246
 10
-6.3215244985
 20
-11.879747806
 10
-6.3274860537
 20
-11.8774836828
 10
-6.3337624561
 20
-11.8752701839
 10
-6.3403454642
 20
-11.8731146468
 10
-6.3472263311
 20
-11.8710255282
 10
-6.3543968526
 20
-11.8689955905
 10
-6.3618476066
 20
-11.8670319996
 10
-6.3695687479
 20
-11.8651421828
 10
-6.377551047
 20
-11.8633190052
 10
-6.3857839857
 20
-11.8615697692
 10
-6.3942567106
 20
-11.859901243
 10
-6.4029591276
 20
-11.8583056202
 10
-6.4118797037
 20
-11.8567907165
 10
-6.4210066765
 20
-11.8553629484
 10
-6.4303292842
 20
-11.8540130136
 10
-6.4398350532
 20
-11.8527497464
 10
-6.4495114132
 20
-11.8515795004
 10
-6.4593471763
 20
-11.8504904837
 10
-6.4693289988
 20
-11.8494932777
 10
-6.4794435819
 20
-11.8485944776
 10
-6.4896795575
 20
-11.8477784831
 10
-6.5000227697
 20
-11.8470587254
 10
-6.510459221
 20
-11.8464423947
 10
-6.520977539
 20
-11.8459081815
 10
-6.5315640735
 20
-11.8454587859
 10
-6.5422027949
 20
-11.8451185287
 10
-6.5528784006
 20
-11.8449010721
  0
LWPOLYLINE
  5
543
100
AcDbEntity
  8
ASSI
100
AcDbPolyline
 62
250
  6
CONTINUOUS
 90
43
 70
0
 10
-6.2738053427
 20
-11.9210664419
 10
-6.2739966203
 20
-11.9183693543
 10
-6.2745705996
 20
-11.9156394184
 10
-6.2755268727
 20
-11.9128986532
 10
-6.276864041
 20
-11.9101832904
 10
-6.2785802544
 20
-11.9075000082
 10
-6.280673735
 20
-11.9048222321
 10
-6.2831416695
 20
-11.9021611653
 10
-6.2859805073
 20
-11.8995373112
 10
-6.2891871806
 20
-11.8969320825
 10
-6.2927574332
 20
-11.8943551138
 10
-6.2966862804
 20
-11.891821922
 10
-6.3009693017
 20
-11.8893191116
 10
-6.3056008557
 20
-11.88685522
 10
-6.3105746255
 20
-11.8844424602
 10
-6.315884834
 20
-11.8820707246
 10
-6.3215244985
 20
-11.879747806
 10
-6.3274860537
 20
-11.8774836828
 10
-6.3337624561
 20
-11.8752701839
 10
-6.3403454642
 20
-11.8731146468
 10
-6.3472263311
 20
-11.8710255282
 10
-6.3543968526
 20
-11.8689955905
 10
-6.3618476066
 20
-11.8670319996
 10
-6.3695687479
 20
-11.8651421828
 10
-6.377551047
 20
-11.8633190052
 10
-6.3857839857
 20
-11.8615697692
 10
-6.3942567106
 20
-11.859901243
 10
-6.4029591276
 20
-11.8583056202
 10
-6.4118797037
 20
-11.8567907165
 10
-6.4210066765
 20
-11.8553629484
 10
-6.4303292842
 20
-11.8540130136
 10
-6.4398350532
 20
-11.8527497464
 10
-6.4495114132
 20
-11.8515795004
 10
-6.4593471763
 20
-11.8504904837
 10
-6.4693289988
 20
-11.8494932777
 10
-6.4794435819
 20
-11.8485944776
 10
-6.4896795575
 20
-11.8477784831
 10
-6.5000227697
 20
-11.8470587254
 10
-6.510459221
 20
-11.8464423947
 10
-6.520977539
 20
-11.8459081815
 10
-6.5315640735
 20
-11.8454587859
 10
-6.5422027949
 20
-11.8451185287
 10
-6.5528784006
 20
-11.8449010721
  0
LWPOLYLINE
  5
544
100
AcDbEntity
  8
RACCORDO
100
AcDbPolyline
 62
250
  6
CONTINUOUS
 90
43
 70
0
 10
-7.9947322849
 20
8.8625454986
 10
-7.9950504383
 20
8.8763683814
 10
-7.9960542699
 20
8.8905202696
 10
-7.9977437797
 20
8.9050065158
 10
-8.000109841
 20
8.9198347806
 10
-8.0031615805
 20
8.9350081365
 10
-8.006926378
 20
8.9505247806
 10
-8.0114032249
 20
8.9663909756
 10
-8.0165931299
 20
8.9826105692
 10
-8.0225264989
 20
8.9991774194
 10
-8.0292044919
 20
9.0161005979
 10
-8.036625949
 20
9.033380258
 10
-8.0448177962
 20
9.0509952961
 10
-8.0537830026
 20
9.0689533936
 10
-8.0635185992
 20
9.0872536881
 10
-8.0740426039
 20
9.1058593501
 10
-8.085356959
 20
9.1247729372
 10
-8.0974597222
 20
9.1439949235
 10
-8.1103630855
 20
9.1634816669
 10
-8.1240723079
 20
9.1832378899
 10
-8.1385821302
 20
9.2032581141
 10
-8.1538889668
 20
9.2234789161
 10
-8.1700071058
 20
9.2439092213
 10
-8.186922259
 20
9.2645344367
 10
-8.2045879765
 20
9.2852492806
 10
-8.223020448
 20
9.30605389
 10
-8.2422034838
 20
9.3269346265
 10
-8.2620420647
 20
9.3477568521
 10
-8.28254636
 20
9.3685064987
 10
-8.3037062003
 20
9.3891753888
 10
-8.3253960585
 20
9.4096289466
 10
-8.3476184429
 20
9.4298431855
 10
-8.3703708451
 20
9.4498131295
 10
-8.393520213
 20
9.469425799
 10
-8.4170870028
 20
9.4886684102
 10
-8.4410507584
 20
9.5075217306
 10
-8.4652170592
 20
9.5258573972
 10
-8.4895930535
 20
9.5436460584
 10
-8.514171593
 20
9.5608821569
 10
-8.5387368126
 20
9.5774685506
 10
-8.563216757
 20
9.5933604829
 10
-8.5876833815
 20
9.608568074
 10
-8.612136686
 20
9.6230755912
  0
LWPOLYLINE
  5
545
100
AcDbEntity
  8
ASSI
100
AcDbPolyline
 62
250
  6
CONTINUOUS
 90
43
 70
0
 10
-7.9947322849
 20
8.8625454986
 10
-7.9950504383
 20
8.8763683814
 10
-7.9960542699
 20
8.8905202696
 10
-7.9977437797
 20
8.9050065158
 10
-8.000109841
 20
8.9198347806
 10
-8.0031615805
 20
8.9350081365
 10
-8.006926378
 20
8.9505247806
 10
-8.0114032249
 20
8.9663909756
 10
-8.0165931299
 20
8.9826105692
 10
-8.0225264989
 20
8.9991774194
 10
-8.0292044919
 20
9.0161005979
 10
-8.036625949
 20
9.033380258
 10
-8.0448177962
 20
9.0509952961
 10
-8.0537830026
 20
9.0689533936
 10
-8.0635185992
 20
9.0872536881
 10
-8.0740426039
 20
9.1058593501
 10
-8.085356959
 20
9.1247729372
 10
-8.0974597222
 20
9.1439949235
 10
-8.1103630855
 20
9.1634816669
 10
-8.1240723079
 20
9.1832378899
 10
-8.1385821302
 20
9.2032581141
 10
-8.1538889668
 20
9.2234789161
 10
-8.1700071058
 20
9.2439092213
 10
-8.186922259
 20
9.2645344367
 10
-8.2045879765
 20
9.2852492806
 10
-8.223020448
 20
9.30605389
 10
-8.2422034838
 20
9.3269346265
 10
-8.2620420647
 20
9.3477568521
 10
-8.28254636
 20
9.3685064987
 10
-8.3037062003
 20
9.3891753888
 10
-8.3253960585
 20
9.4096289466
 10
-8.3476184429
 20
9.4298431855
 10
-8.3703708451
 20
9.4498131295
 10
-8.393520213
 20
9.469425799
 10
-8.4170870028
 20
9.4886684102
 10
-8.4410507584
 20
9.5075217306
 10
-8.4652170592
 20
9.5258573972
 10
-8.4895930535
 20
9.5436460584
 10
-8.514171593
 20
9.5608821569
 10
-8.5387368126
 20
9.5774685506
 10
-8.563216757
 20
9.5933604829
 10
-8.5876833815
 20
9.608568074
 10
-8.612136686
 20
9.6230755912
  0
LWPOLYLINE
  5
546
100
AcDbEntity
  8
RACCORDO
100
AcDbPolyline
 62
250
  6
CONTINUOUS
 90
43
 70
0
 10
-8.2738053427
 20
8.5960494459
 10
-8.2740606285
 20
8.6112168216
 10
-8.2748309816
 20
8.6267596382
 10
-8.276122787
 20
8.6426778958
 10
-8.2779415434
 20
8.6589680595
 10
-8.280293436
 20
8.6756336642
 10
-8.2831869236
 20
8.6926853145
 10
-8.2866289068
 20
8.7101253259
 10
-8.2906257352
 20
8.7279513829
 10
-8.2951872897
 20
8.7461671434
 10
-8.3003216644
 20
8.7647786968
 10
-8.3060347831
 20
8.7837799538
 10
-8.3123343472
 20
8.8031563048
 10
-8.319227807
 20
8.8229146692
 10
-8.3267201591
 20
8.8430481275
 10
-8.334814721
 20
8.8635213115
 10
-8.3435158086
 20
8.8843381183
 10
-8.3528279159
 20
8.9054946507
 10
-8.3627532589
 20
8.9269438486
 10
-8.3732966052
 20
8.9486946261
 10
-8.3844588672
 20
8.9707380691
 10
-8.3962344099
 20
8.9930003752
 10
-8.4086302298
 20
9.0154992452
 10
-8.4216401599
 20
9.0382169783
 10
-8.4352333329
 20
9.0610266704
 10
-8.4494103339
 20
9.083942048
 10
-8.4641609227
 20
9.1069493846
 10
-8.4794284043
 20
9.1298805962
 10
-8.495201653
 20
9.1527384078
 10
-8.5114689063
 20
9.1755200943
 10
-8.5281618349
 20
9.1980493968
 10
-8.5452595863
 20
9.2203202104
 10
-8.5627490041
 20
9.24233864
 10
-8.5805646287
 20
9.2639467408
 10
-8.5986968303
 20
9.2851511521
 10
-8.617115353
 20
9.3059452347
 10
-8.6357150606
 20
9.3261511258
 10
-8.6544721974
 20
9.3457578696
 10
-8.6733621231
 20
9.364776422
 10
-8.6922690037
 20
9.3830617873
 10
-8.7111344948
 20
9.4005656336
 10
-8.7299632489
 20
9.4173362929
 10
-8.7487306926
 20
9.433373765
  0
LWPOLYLINE
  5
547
100
AcDbEntity
  8
ASSI
100
AcDbPolyline
 62
250
  6
CONTINUOUS
 90
43
 70
0
 10
-8.2738053427
 20
8.5960494459
 10
-8.2740606285
 20
8.6112168216
 10
-8.2748309816
 20
8.6267596382
 10
-8.276122787
 20
8.6426778958
 10
-8.2779415434
 20
8.6589680595
 10
-8.280293436
 20
8.6756336642
 10
-8.2831869236
 20
8.6926853145
 10
-8.2866289068
 20
8.7101253259
 10
-8.2906257352
 20
8.7279513829
 10
-8.2951872897
 20
8.7461671434
 10
-8.3003216644
 20
8.7647786968
 10
-8.3060347831
 20
8.7837799538
 10
-8.3123343472
 20
8.8031563048
 10
-8.319227807
 20
8.8229146692
 10
-8.3267201591
 20
8.8430481275
 10
-8.334814721
 20
8.8635213115
 10
-8.3435158086
 20
8.8843381183
 10
-8.3528279159
 20
8.9054946507
 10
-8.3627532589
 20
8.9269438486
 10
-8.3732966052
 20
8.9486946261
 10
-8.3844588672
 20
8.9707380691
 10
-8.3962344099
 20
8.9930003752
 10
-8.4086302298
 20
9.0154992452
 10
-8.4216401599
 20
9.0382169783
 10
-8.4352333329
 20
9.0610266704
 10
-8.4494103339
 20
9.083942048
 10
-8.4641609227
 20
9.1069493846
 10
-8.4794284043
 20
9.1298805962
 10
-8.495201653
 20
9.1527384078
 10
-8.5114689063
 20
9.1755200943
 10
-8.5281618349
 20
9.1980493968
 10
-8.5452595863
 20
9.2203202104
 10
-8.5627490041
 20
9.24233864
 10
-8.5805646287
 20
9.2639467408
 10
-8.5986968303
 20
9.2851511521
 10
-8.617115353
 20
9.3059452347
 10
-8.6357150606
 20
9.3261511258
 10
-8.6544721974
 20
9.3457578696
 10
-8.6733621231
 20
9.364776422
 10
-8.6922690037
 20
9.3830617873
 10
-8.7111344948
 20
9.4005656336
 10
-8.7299632489
 20
9.4173362929
 10
-8.7487306926
 20
9.433373765
  0
LINE
  5
548
100
AcDbEntity
  8
DRAFT
100
AcDbLine
 62
7
  6
CONTINUOUS
 10
-8.2775659239
 20
-18.0229785478
 11
-8.2775687783
 21
0.1569078055
  0
LINE
  5
549
100
AcDbEntity
  8
DRAFT
100
AcDbLine
 62
7
  6
CONTINUOUS
 10
-8.2738053427
 20
17.7235010346
 11
-8.2738053427
 21
17.538616739
  0
LINE
  5
54A
100
AcDbEntity
  8
DRAFT
100
AcDbLine
 62
7
  6
CONTINUOUS
 10
-8.2738053427
 20
4.396772212
 11
-8.2738053427
 21
4.3866484389
  0
LINE
  5
54B
100
AcDbEntity
  8
RACCORDO
100
AcDbLine
 62
7
  6
CONTINUOUS
 10
-8.2738053427
 20
-18.9189034935
 11
-8.2738053427
 21
-14.3357391946
  0
LINE
  5
54C
100
AcDbEntity
  8
ASSI
100
AcDbLine
 62
7
  6
CONTINUOUS
 10
-8.2738053427
 20
-18.9212488967
 11
-8.2738053427
 21
-14.3357391946
  0
LINE
  5
54D
100
AcDbEntity
  8
RACCORDO
100
AcDbLine
 62
7
  6
CONTINUOUS
 10
-8.2738053427
 20
-10.870737404
 11
-8.2738053427
 21
-8.5532382993
  0
LINE
  5
54E
100
AcDbEntity
  8
DRAFT
100
AcDbLine
 62
7
  6
CONTINUOUS
 10
-8.2738053427
 20
-8.5532382993
 11
-8.2738053427
 21
0.1568749625
  0
LINE
  5
54F
100
AcDbEntity
  8
ASSI
100
AcDbLine
 62
7
  6
CONTINUOUS
 10
-8.2738053427
 20
-10.870737404
 11
-8.2738053427
 21
0.1568749625
  0
LINE
  5
550
100
AcDbEntity
  8
RACCORDO
100
AcDbLine
 62
7
  6
CONTINUOUS
 10
-8.2738053427
 20
2.629262596
 11
-8.2738053427
 21
4.3866484389
  0
LINE
  5
551
100
AcDbEntity
  8
ASSI
100
AcDbLine
 62
7
  6
CONTINUOUS
 10
-8.2738053427
 20
2.629262596
 11
-8.2738053427
 21
4.396772212
  0
LINE
  5
552
100
AcDbEntity
  8
0
100
AcDbLine
 62
250
  6
CONTINUOUS
 10
-8.2738053427
 20
6.4967617007
 11
-8.2738053427
 21
6.6634717126
  0
LINE
  5
553
100
AcDbEntity
  8
RACCORDO
100
AcDbLine
 62
7
  6
CONTINUOUS
 10
-8.2738053427
 20
14.5974734075
 11
-8.2738053427
 21
17.9155828273
  0
LINE
  5
554
100
AcDbEntity
  8
ASSI
100
AcDbLine
 62
7
  6
CONTINUOUS
 10
-8.2738053427
 20
14.5974734075
 11
-8.2738053427
 21
17.9155828273
  0
LINE
  5
555
100
AcDbEntity
  8
RACCORDO
100
AcDbLine
 62
250
  6
CONTINUOUS
 10
-7.9947321549
 20
-0.1957295838
 11
-7.9947322849
 21
-2.1837236101
  0
LINE
  5
556
100
AcDbEntity
  8
ASSI
100
AcDbLine
 62
250
  6
CONTINUOUS
 10
-7.9947321549
 20
-0.1957295838
 11
-7.9947322849
 21
-2.1837236101
  0
LINE
  5
557
100
AcDbEntity
  8
RACCORDO
100
AcDbLine
 62
250
  6
CONTINUOUS
 10
-7.9947323837
 20
-13.6957296317
 11
-7.9947322849
 21
-15.6837236101
  0
LINE
  5
558
100
AcDbEntity
  8
ASSI
100
AcDbLine
 62
250
  6
CONTINUOUS
 10
-7.9947323837
 20
-13.6957296317
 11
-7.9947322849
 21
-15.6837236101
  0
LINE
  5
559
100
AcDbEntity
  8
RACCORDO
100
AcDbLine
 62
250
  6
CONTINUOUS
 10
-7.9947321989
 20
1.9892538775
 11
-7.9947322849
 21
3.9772470115
  0
LINE
  5
55A
100
AcDbEntity
  8
ASSI
100
AcDbLine
 62
250
  6
CONTINUOUS
 10
-7.9947321989
 20
1.9892538775
 11
-7.9947322849
 21
3.9772470115
  0
LINE
  5
55B
100
AcDbEntity
  8
RACCORDO
100
AcDbLine
 62
250
  6
CONTINUOUS
 10
-7.9947322849
 20
8.5262763899
 11
-7.9947322849
 21
8.8625454986
  0
LINE
  5
55C
100
AcDbEntity
  8
ASSI
100
AcDbLine
 62
250
  6
CONTINUOUS
 10
-7.9947322849
 20
8.5262763899
 11
-7.9947322849
 21
8.8625454986
  0
LINE
  5
55D
100
AcDbEntity
  8
RACCORDO
100
AcDbLine
 62
250
  6
CONTINUOUS
 10
-7.9947322849
 20
14.3309779028
 11
-7.9947322849
 21
14.6672470115
  0
LINE
  5
55E
100
AcDbEntity
  8
ASSI
100
AcDbLine
 62
250
  6
CONTINUOUS
 10
-7.9947322849
 20
14.3309779028
 11
-7.9947322849
 21
14.6672470115
  0
LINE
  5
55F
100
AcDbEntity
  8
RACCORDO
100
AcDbLine
 62
250
  6
CONTINUOUS
 10
-7.9947324317
 20
-11.5107457555
 11
-7.9947322849
 21
-9.5227529885
  0
LINE
  5
560
100
AcDbEntity
  8
ASSI
100
AcDbLine
 62
250
  6
CONTINUOUS
 10
-7.9947324317
 20
-11.5107457555
 11
-7.9947322849
 21
-9.5227529885
  0
LINE
  5
561
100
AcDbEntity
  8
RACCORDO
100
AcDbLine
 62
250
  6
CONTINUOUS
 10
-7.9755332091
 20
0.154271981
 11
-7.9755332091
 21
-0.0825843206
  0
LINE
  5
562
100
AcDbEntity
  8
ASSI
100
AcDbLine
 62
250
  6
CONTINUOUS
 10
-7.9755332091
 20
0.154271981
 11
-7.9755332091
 21
-0.0825843206
  0
LINE
  5
563
100
AcDbEntity
  8
ASSI
100
AcDbLine
 62
7
  6
CONTINUOUS
 10
-8.2775904182
 20
-18.04995218
 11
-8.2775659228
 21
-1.1633843791
  0
LINE
  5
564
100
AcDbEntity
  8
RACCORDO
100
AcDbLine
 62
7
  6
CONTINUOUS
 10
-8.2775659228
 20
0.1569077805
 11
-8.2775459699
 21
4.4110011719
  0
LINE
  5
565
100
AcDbEntity
  8
ASSI
100
AcDbLine
 62
7
  6
CONTINUOUS
 10
-8.2775659228
 20
0.1569077805
 11
-8.2775459699
 21
4.4110011719
  0
LINE
  5
566
100
AcDbEntity
  8
RACCORDO
100
AcDbLine
 62
7
  6
CONTINUOUS
 10
-8.2776787883
 20
-18.0768878602
 11
-8.2775659239
 21
-18.0229785478
  0
LINE
  5
567
100
AcDbEntity
  8
RACCORDO
100
AcDbLine
 62
7
  6
CONTINUOUS
 10
-8.2738477683
 20
4.6664652798
 11
-8.2738053427
 21
8.5960499949
  0
LINE
  5
568
100
AcDbEntity
  8
ASSI
100
AcDbLine
 62
7
  6
CONTINUOUS
 10
-8.2738477683
 20
4.6664652798
 11
-8.2738053427
 21
8.5960499949
  0
LINE
  5
569
100
AcDbEntity
  8
ASSI
100
AcDbLine
 62
7
  6
CONTINUOUS
 10
-8.2778310342
 20
-18.1037855885
 11
-8.2775904182
 21
-18.04995218
  0
LINE
  5
56A
100
AcDbEntity
  8
RACCORDO
100
AcDbLine
 62
7
  6
CONTINUOUS
 10
-8.2775459699
 20
4.4110011719
 11
-8.2774091978
 21
4.4394478937
  0
LINE
  5
56B
100
AcDbEntity
  8
ASSI
100
AcDbLine
 62
7
  6
CONTINUOUS
 10
-8.2775459699
 20
4.4110011719
 11
-8.2774091978
 21
4.4394478937
  0
LINE
  5
56C
100
AcDbEntity
  8
RACCORDO
100
AcDbLine
 62
7
  6
CONTINUOUS
 10
-8.2740551767
 20
4.6422136257
 11
-8.2738477683
 21
4.6664652798
  0
LINE
  5
56D
100
AcDbEntity
  8
ASSI
100
AcDbLine
 62
7
  6
CONTINUOUS
 10
-8.2740551767
 20
4.6422136257
 11
-8.2738477683
 21
4.6664652798
  0
LINE
  5
56E
100
AcDbEntity
  8
RACCORDO
100
AcDbLine
 62
7
  6
CONTINUOUS
 10
-8.2774091978
 20
4.4394478937
 11
-8.2771368195
 21
4.4678117716
  0
LINE
  5
56F
100
AcDbEntity
  8
ASSI
100
AcDbLine
 62
7
  6
CONTINUOUS
 10
-8.2774091978
 20
4.4394478937
 11
-8.2771368195
 21
4.4678117716
  0
LWPOLYLINE
  5
570
100
AcDbEntity
  8
RACCORDO
100
AcDbPolyline
 62
7
  6
CONTINUOUS
 90
37
 70
0
 10
-8.2738053427
 20
-14.3357391946
 10
-8.2734411738
 20
-14.3085202481
 10
-8.2725103475
 20
-14.2815025588
 10
-8.2710128637
 20
-14.2546861267
 10
-8.2689070643
 20
-14.2279521143
 10
-8.2662346076
 20
-14.2014193592
 10
-8.2631204681
 20
-14.1754443733
 10
-8.2595597188
 20
-14.1500812367
 10
-8.2555572868
 20
-14.1252758693
 10
-8.2512529284
 20
-14.1012225431
 10
-8.2466600428
 20
-14.0779874249
 10
-8.2417652308
 20
-14.0555043479
 10
-8.2366680513
 20
-14.0337690828
 10
-8.2313763494
 20
-14.0127876742
 10
-8.2258822799
 20
-13.9925540776
 10
-8.2202618661
 20
-13.97304593
 10
-8.2145219938
 20
-13.9542685336
 10
-8.2086557772
 20
-13.9362165863
 10
-8.2027185819
 20
-13.9188518189
 10
-8.1967203646
 20
-13.9021864361
 10
-8.1906511687
 20
-13.8862082332
 10
-8.1845364893
 20
-13.870842327
 10
-8.1783787133
 20
-13.8560812872
 10
-8.1721754538
 20
-13.8419325442
 10
-8.1659450461
 20
-13.8283435061
 10
-8.1596934745
 20
-13.8153166618
 10
-8.1534147547
 20
-13.8028495224
 10
-8.1471092687
 20
-13.7908820296
 10
-8.1407847133
 20
-13.7794163038
 10
-8.1344333918
 20
-13.7684502247
 10
-8.1280325955
 20
-13.7579173722
 10
-8.1215780901
 20
-13.7478007249
 10
-8.1150741099
 20
-13.7381173043
 10
-8.1085106492
 20
-13.7288517547
 10
-8.1018843727
 20
-13.7199989577
 10
-8.0951986156
 20
-13.7115640316
 10
-8.0884533781
 20
-13.7035469766
  0
LWPOLYLINE
  5
571
100
AcDbEntity
  8
ASSI
100
AcDbPolyline
 62
7
  6
CONTINUOUS
 90
37
 70
0
 10
-8.2738053427
 20
-14.3357391946
 10
-8.2734411738
 20
-14.3085202481
 10
-8.2725103475
 20
-14.2815025588
 10
-8.2710128637
 20
-14.2546861267
 10
-8.2689070643
 20
-14.2279521143
 10
-8.2662346076
 20
-14.2014193592
 10
-8.2631204681
 20
-14.1754443733
 10
-8.2595597188
 20
-14.1500812367
 10
-8.2555572868
 20
-14.1252758693
 10
-8.2512529284
 20
-14.1012225431
 10
-8.2466600428
 20
-14.0779874249
 10
-8.2417652308
 20
-14.0555043479
 10
-8.2366680513
 20
-14.0337690828
 10
-8.2313763494
 20
-14.0127876742
 10
-8.2258822799
 20
-13.9925540776
 10
-8.2202618661
 20
-13.97304593
 10
-8.2145219938
 20
-13.9542685336
 10
-8.2086557772
 20
-13.9362165863
 10
-8.2027185819
 20
-13.9188518189
 10
-8.1967203646
 20
-13.9021864361
 10
-8.1906511687
 20
-13.8862082332
 10
-8.1845364893
 20
-13.870842327
 10
-8.1783787133
 20
-13.8560812872
 10
-8.1721754538
 20
-13.8419325442
 10
-8.1659450461
 20
-13.8283435061
 10
-8.1596934745
 20
-13.8153166618
 10
-8.1534147547
 20
-13.8028495224
 10
-8.1471092687
 20
-13.7908820296
 10
-8.1407847133
 20
-13.7794163038
 10
-8.1344333918
 20
-13.7684502247
 10
-8.1280325955
 20
-13.7579173722
 10
-8.1215780901
 20
-13.7478007249
 10
-8.1150741099
 20
-13.7381173043
 10
-8.1085106492
 20
-13.7288517547
 10
-8.1018843727
 20
-13.7199989577
 10
-8.0951986156
 20
-13.7115640316
 10
-8.0884533781
 20
-13.7035469766
  0
LINE
  5
572
100
AcDbEntity
  8
RACCORDO
100
AcDbLine
 62
7
  6
CONTINUOUS
 10
-8.2957584084
 20
-18.6797995281
 11
-8.2954222194
 21
-18.6519619964
  0
LINE
  5
573
100
AcDbEntity
  8
ASSI
100
AcDbLine
 62
7
  6
CONTINUOUS
 10
-8.2957584084
 20
-18.6797995281
 11
-8.2954222194
 21
-18.6519619964
  0
LINE
  5
574
100
AcDbEntity
  8
RACCORDO
100
AcDbLine
 62
7
  6
CONTINUOUS
 10
-8.2771368195
 20
4.4678117716
 11
-8.2767538297
 21
4.495941319
  0
LINE
  5
575
100
AcDbEntity
  8
ASSI
100
AcDbLine
 62
7
  6
CONTINUOUS
 10
-8.2771368195
 20
4.4678117716
 11
-8.2767538297
 21
4.495941319
  0
LINE
  5
576
100
AcDbEntity
  8
RACCORDO
100
AcDbLine
 62
7
  6
CONTINUOUS
 10
-8.2746730625
 20
4.604226138
 11
-8.2740551767
 21
4.6422136257
  0
LINE
  5
577
100
AcDbEntity
  8
ASSI
100
AcDbLine
 62
7
  6
CONTINUOUS
 10
-8.2746730625
 20
4.604226138
 11
-8.2740551767
 21
4.6422136257
  0
LINE
  5
578
100
AcDbEntity
  8
RACCORDO
100
AcDbLine
 62
7
  6
CONTINUOUS
 10
-8.2767538297
 20
4.495941319
 11
-8.2760178061
 21
4.5374985838
  0
LINE
  5
579
100
AcDbEntity
  8
ASSI
100
AcDbLine
 62
7
  6
CONTINUOUS
 10
-8.2767538297
 20
4.495941319
 11
-8.2760178061
 21
4.5374985838
  0
LINE
  5
57A
100
AcDbEntity
  8
RACCORDO
100
AcDbLine
 62
7
  6
CONTINUOUS
 10
-8.2760178061
 20
4.5374985838
 11
-8.2746730625
 21
4.604226138
  0
LINE
  5
57B
100
AcDbEntity
  8
ASSI
100
AcDbLine
 62
7
  6
CONTINUOUS
 10
-8.2760178061
 20
4.5374985838
 11
-8.2746730625
 21
4.604226138
  0
LINE
  5
57C
100
AcDbEntity
  8
RACCORDO
100
AcDbLine
 62
7
  6
CONTINUOUS
 10
-8.2954222194
 20
-18.6519619964
 11
-8.2948397435
 21
-18.623221124
  0
LINE
  5
57D
100
AcDbEntity
  8
ASSI
100
AcDbLine
 62
7
  6
CONTINUOUS
 10
-8.2954222194
 20
-18.6519619964
 11
-8.2948397435
 21
-18.623221124
  0
LINE
  5
57E
100
AcDbEntity
  8
RACCORDO
100
AcDbLine
 62
7
  6
CONTINUOUS
 10
-8.2948397435
 20
-18.623221124
 11
-8.2940238641
 21
-18.5936217086
  0
LINE
  5
57F
100
AcDbEntity
  8
ASSI
100
AcDbLine
 62
7
  6
CONTINUOUS
 10
-8.2948397435
 20
-18.623221124
 11
-8.2940238641
 21
-18.5936217086
  0
LINE
  5
580
100
AcDbEntity
  8
RACCORDO
100
AcDbLine
 62
7
  6
CONTINUOUS
 10
-8.2940238641
 20
-18.5936217086
 11
-8.2929860276
 21
-18.5632783057
  0
LINE
  5
581
100
AcDbEntity
  8
ASSI
100
AcDbLine
 62
7
  6
CONTINUOUS
 10
-8.2940238641
 20
-18.5936217086
 11
-8.2929860276
 21
-18.5632783057
  0
LINE
  5
582
100
AcDbEntity
  8
RACCORDO
100
AcDbLine
 62
7
  6
CONTINUOUS
 10
-8.2929860276
 20
-18.5632783057
 11
-8.2917486893
 21
-18.5323767384
  0
LINE
  5
583
100
AcDbEntity
  8
ASSI
100
AcDbLine
 62
7
  6
CONTINUOUS
 10
-8.2929860276
 20
-18.5632783057
 11
-8.2917486893
 21
-18.5323767384
  0
LWPOLYLINE
  5
584
100
AcDbEntity
  8
RACCORDO
100
AcDbPolyline
 62
7
  6
CONTINUOUS
 90
12
 70
0
 10
-8.2849172476
 20
-18.3953163287
 10
-8.2837220221
 20
-18.3692573165
 10
-8.2826540345
 20
-18.3431044413
 10
-8.2817224358
 20
-18.3168564067
 10
-8.280918075
 20
-18.2905145091
 10
-8.2802134989
 20
-18.2640826369
 10
-8.2796068004
 20
-18.2375555725
 10
-8.2790998866
 20
-18.2109385336
 10
-8.2786710262
 20
-18.1842510616
 10
-8.2783177014
 20
-18.1574888433
 10
-8.2780424299
 20
-18.1306561918
 10
-8.2776787883
 20
-18.0768878602
  0
LWPOLYLINE
  5
585
100
AcDbEntity
  8
ASSI
100
AcDbPolyline
 62
7
  6
CONTINUOUS
 90
11
 70
0
 10
-8.2849172476
 20
-18.3953163287
 10
-8.2837220221
 20
-18.3692573165
 10
-8.2826540345
 20
-18.3431044413
 10
-8.2817224358
 20
-18.3168564067
 10
-8.280918075
 20
-18.2905145091
 10
-8.2802134989
 20
-18.2640826369
 10
-8.2796068004
 20
-18.2375555725
 10
-8.2790998866
 20
-18.2109385336
 10
-8.2786710262
 20
-18.1842510616
 10
-8.2783177014
 20
-18.1574888433
 10
-8.2778310342
 20
-18.1037855885
  0
LINE
  5
586
100
AcDbEntity
  8
RACCORDO
100
AcDbLine
 62
7
  6
CONTINUOUS
 10
-8.2917486893
 20
-18.5323767384
 11
-8.2903393728
 21
-18.5009909184
  0
LINE
  5
587
100
AcDbEntity
  8
ASSI
100
AcDbLine
 62
7
  6
CONTINUOUS
 10
-8.2917486893
 20
-18.5323767384
 11
-8.2903393728
 21
-18.5009909184
  0
LINE
  5
588
100
AcDbEntity
  8
RACCORDO
100
AcDbLine
 62
7
  6
CONTINUOUS
 10
-8.2903393728
 20
-18.5009909184
 11
-8.2887794132
 21
-18.4692437261
  0
LINE
  5
589
100
AcDbEntity
  8
ASSI
100
AcDbLine
 62
7
  6
CONTINUOUS
 10
-8.2903393728
 20
-18.5009909184
 11
-8.2887794132
 21
-18.4692437261
  0
LINE
  5
58A
100
AcDbEntity
  8
RACCORDO
100
AcDbLine
 62
250
  6
CONTINUOUS
 10
-6.5528783238
 20
13.3627790502
 11
-6.5560577605
 21
13.2986459595
  0
LINE
  5
58B
100
AcDbEntity
  8
ASSI
100
AcDbLine
 62
250
  6
CONTINUOUS
 10
-6.5528783238
 20
13.3627790502
 11
-6.5560577605
 21
13.2986459595
  0
LINE
  5
58C
100
AcDbEntity
  8
RACCORDO
100
AcDbLine
 62
250
  6
CONTINUOUS
 10
-6.5560577605
 20
13.2986459595
 11
-6.5596476352
 21
13.2291164135
  0
LINE
  5
58D
100
AcDbEntity
  8
ASSI
100
AcDbLine
 62
250
  6
CONTINUOUS
 10
-6.5560577605
 20
13.2986459595
 11
-6.5596476352
 21
13.2291164135
  0
LINE
  5
58E
100
AcDbEntity
  8
RACCORDO
100
AcDbLine
 62
250
  6
CONTINUOUS
 10
-6.5596476352
 20
13.2291164135
 11
-6.5635644038
 21
13.1557916607
  0
LINE
  5
58F
100
AcDbEntity
  8
ASSI
100
AcDbLine
 62
250
  6
CONTINUOUS
 10
-6.5596476352
 20
13.2291164135
 11
-6.5635644038
 21
13.1557916607
  0
LWPOLYLINE
  5
590
100
AcDbEntity
  8
RACCORDO
100
AcDbPolyline
 62
250
  6
CONTINUOUS
 90
40
 70
0
 10
-8.2738053427
 20
-0.3018660965
 10
-8.2735831866
 20
-0.2977723251
 10
-8.2729170451
 20
-0.2936846067
 10
-8.2718079048
 20
-0.2896090055
 10
-8.2702574084
 20
-0.2855515576
 10
-8.2682678523
 20
-0.2815182724
 10
-8.2658421831
 20
-0.2775151232
 10
-8.2629839932
 20
-0.273548039
 10
-8.259697516
 20
-0.2696228953
 10
-8.2559876186
 20
-0.2657455052
 10
-8.2518597958
 20
-0.2619216115
 10
-8.2473201611
 20
-0.2581568775
 10
-8.2423754377
 20
-0.2544568789
 10
-8.2370329492
 20
-0.2508270957
 10
-8.2313006079
 20
-0.2472729037
 10
-8.2251869039
 20
-0.2437995668
 10
-8.2187008917
 20
-0.2404122292
 10
-8.2118521774
 20
-0.2371159078
 10
-8.2046509044
 20
-0.2339154844
 10
-8.197107738
 20
-0.2308156992
 10
-8.1892338501
 20
-0.227821143
 10
-8.1810409022
 20
-0.2249362509
 10
-8.1725410286
 20
-0.2221652956
 10
-8.1637468179
 20
-0.219512381
 10
-8.1546712948
 20
-0.2169814362
 10
-8.1453279005
 20
-0.2145762096
 10
-8.1357304731
 20
-0.2123002636
 10
-8.1258932269
 20
-0.2101569687
 10
-8.1158307312
 20
-0.2081494995
 10
-8.1055578891
 20
-0.2062808291
 10
-8.0950899152
 20
-0.2045537249
 10
-8.084442313
 20
-0.2029707451
 10
-8.0736308522
 20
-0.2015342339
 10
-8.0626715451
 20
-0.2002463191
 10
-8.0515806228
 20
-0.1991089079
 10
-8.0403745116
 20
-0.1981236851
 10
-8.0290698083
 20
-0.1972921097
 10
-8.0176832557
 20
-0.1966154134
 10
-8.0062317178
 20
-0.1960945983
 10
-7.9947321549
 20
-0.1957304359
  0
LWPOLYLINE
  5
591
100
AcDbEntity
  8
ASSI
100
AcDbPolyline
 62
250
  6
CONTINUOUS
 90
40
 70
0
 10
-8.2738053427
 20
-0.3018660965
 10
-8.2735831866
 20
-0.2977723251
 10
-8.2729170451
 20
-0.2936846067
 10
-8.2718079048
 20
-0.2896090055
 10
-8.2702574084
 20
-0.2855515576
 10
-8.2682678523
 20
-0.2815182724
 10
-8.2658421831
 20
-0.2775151232
 10
-8.2629839932
 20
-0.273548039
 10
-8.259697516
 20
-0.2696228953
 10
-8.2559876186
 20
-0.2657455052
 10
-8.2518597958
 20
-0.2619216115
 10
-8.2473201611
 20
-0.2581568775
 10
-8.2423754377
 20
-0.2544568789
 10
-8.2370329492
 20
-0.2508270957
 10
-8.2313006079
 20
-0.2472729037
 10
-8.2251869039
 20
-0.2437995668
 10
-8.2187008917
 20
-0.2404122292
 10
-8.2118521774
 20
-0.2371159078
 10
-8.2046509044
 20
-0.2339154844
 10
-8.197107738
 20
-0.2308156992
 10
-8.1892338501
 20
-0.227821143
 10
-8.1810409022
 20
-0.2249362509
 10
-8.1725410286
 20
-0.2221652956
 10
-8.1637468179
 20
-0.219512381
 10
-8.1546712948
 20
-0.2169814362
 10
-8.1453279005
 20
-0.2145762096
 10
-8.1357304731
 20
-0.2123002636
 10
-8.1258932269
 20
-0.2101569687
 10
-8.1158307312
 20
-0.2081494995
 10
-8.1055578891
 20
-0.2062808291
 10
-8.0950899152
 20
-0.2045537249
 10
-8.084442313
 20
-0.2029707451
 10
-8.0736308522
 20
-0.2015342339
 10
-8.0626715451
 20
-0.2002463191
 10
-8.0515806228
 20
-0.1991089079
 10
-8.0403745116
 20
-0.1981236851
 10
-8.0290698083
 20
-0.1972921097
 10
-8.0176832557
 20
-0.1966154134
 10
-8.0062317178
 20
-0.1960945983
 10
-7.9947321549
 20
-0.1957304359
  0
LINE
  5
592
100
AcDbEntity
  8
RACCORDO
100
AcDbLine
 62
7
  6
CONTINUOUS
 10
-8.2887794132
 20
-18.4692437261
 11
-8.2849172476
 21
-18.3953163287
  0
LINE
  5
593
100
AcDbEntity
  8
ASSI
100
AcDbLine
 62
7
  6
CONTINUOUS
 10
-8.2887794132
 20
-18.4692437261
 11
-8.2849172476
 21
-18.3953163287
  0
LWPOLYLINE
  5
594
100
AcDbEntity
  8
RACCORDO
100
AcDbPolyline
 62
250
  6
CONTINUOUS
 90
3
 70
0
 10
-6.5635644038
 20
13.1557916607
 10
-6.567719487
 20
13.0803631676
 10
-6.5685696208
 20
13.0651767368
  0
LWPOLYLINE
  5
595
100
AcDbEntity
  8
ASSI
100
AcDbPolyline
 62
250
  6
CONTINUOUS
 90
3
 70
0
 10
-6.5635644038
 20
13.1557916607
 10
-6.567719487
 20
13.0803631676
 10
-6.5685696208
 20
13.0651767368
  0
LINE
  5
596
100
AcDbEntity
  8
RACCORDO
100
AcDbLine
 62
250
  6
CONTINUOUS
 10
-7.9755329605
 20
-0.0825842751
 11
-7.9947318666
 21
-0.1957295469
  0
LINE
  5
597
100
AcDbEntity
  8
ASSI
100
AcDbLine
 62
250
  6
CONTINUOUS
 10
-7.9755329605
 20
-0.0825842751
 11
-7.9947318666
 21
-0.1957295469
  0
LINE
  5
598
100
AcDbEntity
  8
RACCORDO
100
AcDbLine
 62
250
  6
CONTINUOUS
 10
-6.5528784006
 20
1.6550989279
 11
-6.5720774763
 21
1.5789335581
  0
LINE
  5
599
100
AcDbEntity
  8
ASSI
100
AcDbLine
 62
250
  6
CONTINUOUS
 10
-6.5528784006
 20
1.6550989279
 11
-6.5720774763
 21
1.5789335581
  0
LINE
  5
59A
100
AcDbEntity
  8
0
100
AcDbLine
 62
250
  6
CONTINUOUS
 10
-13.8066816467
 20
-15.4042602993
 11
-12.7738053427
 21
-14.0732382993
  0
LWPOLYLINE
  5
59B
100
AcDbEntity
  8
RACCORDO
100
AcDbPolyline
 62
7
  6
CONTINUOUS
 90
4
 70
0
 10
-20.2768616488
 20
-21.4070852845
 10
-20.2819859375
 20
-21.4126895512
 10
-20.2853632515
 20
-21.4162794242
 10
-20.2935611648
 20
-21.4249144798
  0
LINE
  5
59C
100
AcDbEntity
  8
RACCORDO
100
AcDbLine
 62
7
  6
CONTINUOUS
 10
-20.2935611648
 20
-21.4249144798
 11
-20.3148546763
 21
-21.4469706684
  0
LINE
  5
59D
100
AcDbEntity
  8
RACCORDO
100
AcDbLine
 62
7
  6
CONTINUOUS
 10
-20.3148546763
 20
-21.4469706684
 11
-20.334255974
 21
-21.4668773071
  0
LINE
  5
59E
100
AcDbEntity
  8
RACCORDO
100
AcDbLine
 62
7
  6
CONTINUOUS
 10
-20.334255974
 20
-21.4668773071
 11
-20.3960669973
 21
-21.5297490661
  0
LINE
  5
59F
100
AcDbEntity
  8
RACCORDO
100
AcDbLine
 62
7
  6
CONTINUOUS
 10
-20.3960669973
 20
-21.5297490661
 11
-20.4761134891
 21
-21.6105150355
  0
LINE
  5
5A0
100
AcDbEntity
  8
RACCORDO
100
AcDbLine
 62
7
  6
CONTINUOUS
 10
-20.4761134891
 20
-21.6105150355
 11
-20.5685696208
 21
-21.7032382993
  0
LINE
  5
5A1
100
AcDbEntity
  8
RACCORDO
100
AcDbLine
 62
250
  6
CONTINUOUS
 10
-32.9398343302
 20
16.8765608939
 11
-37.2738053427
 21
16.8009111484
  0
LINE
  5
5A2
100
AcDbEntity
  8
RACCORDO
100
AcDbLine
 62
7
  6
CONTINUOUS
 10
-32.8168047916
 20
17.8785560776
 11
-37.2738053427
 21
17.8007588436
  0
LINE
  5
5A3
100
AcDbEntity
  8
RACCORDO
100
AcDbLine
 62
250
  6
CONTINUOUS
 10
-9.2563529363
 20
17.0165019492
 11
-8.2738053427
 21
17.0165019492
  0
LINE
  5
5A4
100
AcDbEntity
  8
ASSI
100
AcDbLine
 62
250
  6
CONTINUOUS
 10
-9.2563529363
 20
17.0165019492
 11
-8.2738053427
 21
17.0165019492
  0
LINE
  5
5A5
100
AcDbEntity
  8
RACCORDO
100
AcDbLine
 62
250
  6
CONTINUOUS
 10
-9.2563529363
 20
17.0165019492
 11
-30.2738053427
 21
17.1684607494
  0
LINE
  5
5A6
100
AcDbEntity
  8
ASSI
100
AcDbLine
 62
250
  6
CONTINUOUS
 10
-9.2563529363
 20
17.0165019492
 11
-30.2738053427
 21
17.1684607494
  0
LWPOLYLINE
  5
5A7
100
AcDbEntity
  8
RACCORDO
100
AcDbPolyline
 62
250
  6
CONTINUOUS
 90
8
 70
0
 10
-8.7487306926
 20
9.433373765
 10
-8.768533285
 20
9.4499979565
 10
-8.7888619431
 20
9.4672076457
 10
-8.8097157209
 20
9.4850028326
 10
-8.831101588
 20
9.5033984274
 10
-8.8530082192
 20
9.52237952
 10
-8.8754049277
 20
9.5419013796
 10
-8.8982837843
 20
9.56196706
  0
LWPOLYLINE
  5
5A8
100
AcDbEntity
  8
ASSI
100
AcDbPolyline
 62
250
  6
CONTINUOUS
 90
8
 70
0
 10
-8.7487306926
 20
9.433373765
 10
-8.768533285
 20
9.4499979565
 10
-8.7888619431
 20
9.4672076457
 10
-8.8097157209
 20
9.4850028326
 10
-8.831101588
 20
9.5033984274
 10
-8.8530082192
 20
9.52237952
 10
-8.8754049277
 20
9.5419013796
 10
-8.8982837843
 20
9.56196706
  0
LWPOLYLINE
  5
5A9
100
AcDbEntity
  8
RACCORDO
100
AcDbPolyline
 62
250
  6
CONTINUOUS
 90
3
 70
0
 10
-8.8982837843
 20
9.56196706
 10
-8.9454474802
 20
9.6036668299
 10
-8.9697107558
 20
9.625266205
  0
LWPOLYLINE
  5
5AA
100
AcDbEntity
  8
ASSI
100
AcDbPolyline
 62
250
  6
CONTINUOUS
 90
3
 70
0
 10
-8.8982837843
 20
9.56196706
 10
-8.9454474802
 20
9.6036668299
 10
-8.9697107558
 20
9.625266205
  0
LINE
  5
5AB
100
AcDbEntity
  8
RACCORDO
100
AcDbLine
 62
250
  6
CONTINUOUS
 10
-8.9697107558
 20
9.625266205
 11
-9.0194521558
 21
9.6698141553
  0
LINE
  5
5AC
100
AcDbEntity
  8
ASSI
100
AcDbLine
 62
250
  6
CONTINUOUS
 10
-8.9697107558
 20
9.625266205
 11
-9.0194521558
 21
9.6698141553
  0
LINE
  5
5AD
100
AcDbEntity
  8
RACCORDO
100
AcDbLine
 62
250
  6
CONTINUOUS
 10
-9.0194521558
 20
9.6698141553
 11
-9.0705163258
 21
9.7158447212
  0
LINE
  5
5AE
100
AcDbEntity
  8
ASSI
100
AcDbLine
 62
250
  6
CONTINUOUS
 10
-9.0194521558
 20
9.6698141553
 11
-9.0705163258
 21
9.7158447212
  0
LINE
  5
5AF
100
AcDbEntity
  8
RACCORDO
100
AcDbLine
 62
250
  6
CONTINUOUS
 10
-9.0705163258
 20
9.7158447212
 11
-9.1227923321
 21
9.763164643
  0
LINE
  5
5B0
100
AcDbEntity
  8
ASSI
100
AcDbLine
 62
250
  6
CONTINUOUS
 10
-9.0705163258
 20
9.7158447212
 11
-9.1227923321
 21
9.763164643
  0
LWPOLYLINE
  5
5B1
100
AcDbEntity
  8
RACCORDO
100
AcDbPolyline
 62
250
  6
CONTINUOUS
 90
3
 70
0
 10
-9.1227923321
 20
9.763164643
 10
-9.2295078515
 20
9.8601281738
 10
-9.2563529363
 20
9.8845966869
  0
LWPOLYLINE
  5
5B2
100
AcDbEntity
  8
ASSI
100
AcDbPolyline
 62
250
  6
CONTINUOUS
 90
3
 70
0
 10
-9.1227923321
 20
9.763164643
 10
-9.2295078515
 20
9.8601281738
 10
-9.2563529363
 20
9.8845966869
  0
LINE
  5
5B3
100
AcDbEntity
  8
RACCORDO
100
AcDbLine
 62
7
  6
CONTINUOUS
 10
-20.4946256863
 20
20.6226399767
 11
-20.5685696208
 21
20.6967617007
  0
LINE
  5
5B4
100
AcDbEntity
  8
RACCORDO
100
AcDbLine
 62
7
  6
CONTINUOUS
 10
-20.308990731
 20
20.4344549266
 11
-20.4946256863
 21
20.6226399767
  0
LWPOLYLINE
  5
5B5
100
AcDbEntity
  8
RACCORDO
100
AcDbPolyline
 62
7
  6
CONTINUOUS
 90
3
 70
0
 10
-20.2853632515
 20
20.4098028256
 10
-20.2935611648
 20
20.4184378812
 10
-20.308990731
 20
20.4344549266
  0
LINE
  5
5B6
100
AcDbEntity
  8
RACCORDO
100
AcDbLine
 62
7
  6
CONTINUOUS
 10
-20.2819859375
 20
20.4062129526
 11
-20.2853632515
 21
20.4098028256
  0
LINE
  5
5B7
100
AcDbEntity
  8
RACCORDO
100
AcDbLine
 62
250
  6
CONTINUOUS
 10
-6.5720774763
 20
0.2145898433
 11
-6.5528784006
 21
0.1384244735
  0
LINE
  5
5B8
100
AcDbEntity
  8
ASSI
100
AcDbLine
 62
250
  6
CONTINUOUS
 10
-6.5720774763
 20
0.2145898433
 11
-6.5528784006
 21
0.1384244735
  0
LINE
  5
5B9
100
AcDbEntity
  8
RACCORDO
100
AcDbLine
 62
250
  6
CONTINUOUS
 10
-7.9755327856
 20
1.8761065227
 11
-7.9860045445
 21
1.9374988856
  0
LINE
  5
5BA
100
AcDbEntity
  8
ASSI
100
AcDbLine
 62
250
  6
CONTINUOUS
 10
-7.9755327856
 20
1.8761065227
 11
-7.9860045445
 21
1.9374988856
  0
LINE
  5
5BB
100
AcDbEntity
  8
RACCORDO
100
AcDbLine
 62
250
  6
CONTINUOUS
 10
-7.9860045445
 20
1.9374988856
 11
-7.9947321413
 21
1.9892538697
  0
LINE
  5
5BC
100
AcDbEntity
  8
ASSI
100
AcDbLine
 62
250
  6
CONTINUOUS
 10
-7.9860045445
 20
1.9374988856
 11
-7.9947321413
 21
1.9892538697
  0
LWPOLYLINE
  5
5BD
100
AcDbEntity
  8
RACCORDO
100
AcDbPolyline
 62
250
  6
CONTINUOUS
 90
43
 70
0
 10
-6.2738053427
 20
1.5789335581
 10
-6.2739966203
 20
1.5816306457
 10
-6.2745705996
 20
1.5843605816
 10
-6.2755268727
 20
1.5871013468
 10
-6.276864041
 20
1.5898167096
 10
-6.2785802544
 20
1.5924999918
 10
-6.280673735
 20
1.5951777679
 10
-6.2831416695
 20
1.5978388347
 10
-6.2859805073
 20
1.6004626888
 10
-6.2891871806
 20
1.6030679175
 10
-6.2927574332
 20
1.6056448862
 10
-6.2966862804
 20
1.608178078
 10
-6.3009693017
 20
1.6106808884
 10
-6.3056008557
 20
1.61314478
 10
-6.3105746255
 20
1.6155575398
 10
-6.315884834
 20
1.6179292754
 10
-6.3215244985
 20
1.620252194
 10
-6.3274860537
 20
1.6225163172
 10
-6.3337624561
 20
1.6247298161
 10
-6.3403454642
 20
1.6268853532
 10
-6.3472263311
 20
1.6289744718
 10
-6.3543968526
 20
1.6310044095
 10
-6.3618476066
 20
1.6329680004
 10
-6.3695687479
 20
1.6348578172
 10
-6.377551047
 20
1.6366809948
 10
-6.3857839857
 20
1.6384302308
 10
-6.3942567106
 20
1.640098757
 10
-6.4029591276
 20
1.6416943798
 10
-6.4118797037
 20
1.6432092835
 10
-6.4210066765
 20
1.6446370516
 10
-6.4303292842
 20
1.6459869864
 10
-6.4398350532
 20
1.6472502536
 10
-6.4495114132
 20
1.6484204996
 10
-6.4593471763
 20
1.6495095163
 10
-6.4693289988
 20
1.6505067223
 10
-6.4794435819
 20
1.6514055224
 10
-6.4896795575
 20
1.6522215169
 10
-6.5000227697
 20
1.6529412746
 10
-6.510459221
 20
1.6535576053
 10
-6.520977539
 20
1.6540918185
 10
-6.5315640735
 20
1.6545412141
 10
-6.5422027949
 20
1.6548814713
 10
-6.5528784006
 20
1.6550989279
  0
LWPOLYLINE
  5
5BE
100
AcDbEntity
  8
ASSI
100
AcDbPolyline
 62
250
  6
CONTINUOUS
 90
43
 70
0
 10
-6.2738053427
 20
1.5789335581
 10
-6.2739966203
 20
1.5816306457
 10
-6.2745705996
 20
1.5843605816
 10
-6.2755268727
 20
1.5871013468
 10
-6.276864041
 20
1.5898167096
 10
-6.2785802544
 20
1.5924999918
 10
-6.280673735
 20
1.5951777679
 10
-6.2831416695
 20
1.5978388347
 10
-6.2859805073
 20
1.6004626888
 10
-6.2891871806
 20
1.6030679175
 10
-6.2927574332
 20
1.6056448862
 10
-6.2966862804
 20
1.608178078
 10
-6.3009693017
 20
1.6106808884
 10
-6.3056008557
 20
1.61314478
 10
-6.3105746255
 20
1.6155575398
 10
-6.315884834
 20
1.6179292754
 10
-6.3215244985
 20
1.620252194
 10
-6.3274860537
 20
1.6225163172
 10
-6.3337624561
 20
1.6247298161
 10
-6.3403454642
 20
1.6268853532
 10
-6.3472263311
 20
1.6289744718
 10
-6.3543968526
 20
1.6310044095
 10
-6.3618476066
 20
1.6329680004
 10
-6.3695687479
 20
1.6348578172
 10
-6.377551047
 20
1.6366809948
 10
-6.3857839857
 20
1.6384302308
 10
-6.3942567106
 20
1.640098757
 10
-6.4029591276
 20
1.6416943798
 10
-6.4118797037
 20
1.6432092835
 10
-6.4210066765
 20
1.6446370516
 10
-6.4303292842
 20
1.6459869864
 10
-6.4398350532
 20
1.6472502536
 10
-6.4495114132
 20
1.6484204996
 10
-6.4593471763
 20
1.6495095163
 10
-6.4693289988
 20
1.6505067223
 10
-6.4794435819
 20
1.6514055224
 10
-6.4896795575
 20
1.6522215169
 10
-6.5000227697
 20
1.6529412746
 10
-6.510459221
 20
1.6535576053
 10
-6.520977539
 20
1.6540918185
 10
-6.5315640735
 20
1.6545412141
 10
-6.5422027949
 20
1.6548814713
 10
-6.5528784006
 20
1.6550989279
  0
LWPOLYLINE
  5
5BF
100
AcDbEntity
  8
RACCORDO
100
AcDbPolyline
 62
7
  6
CONTINUOUS
 90
52
 70
0
 10
-6.2738053427
 20
12.8092907563
 10
-6.273938507
 20
12.8116044369
 10
-6.2743382878
 20
12.8139094083
 10
-6.2750049383
 20
12.8162056703
 10
-6.2759384503
 20
12.8184951654
 10
-6.2771386099
 20
12.8207759511
 10
-6.2786050543
 20
12.8230422006
 10
-6.2803371339
 20
12.8252938818
 10
-6.282333943
 20
12.8275310269
 10
-6.2845944641
 20
12.8297479052
 10
-6.2871173614
 20
12.8319444739
 10
-6.2899010338
 20
12.8341207759
 10
-6.2929437715
 20
12.8362712089
 10
-6.2962435387
 20
12.838395719
 10
-6.2997980258
 20
12.8404943601
 10
-6.3036047958
 20
12.8425616919
 10
-6.3076610993
 20
12.8445976468
 10
-6.3119639142
 20
12.8466022923
 10
-6.3165100604
 20
12.8485703916
 10
-6.321296078
 20
12.8505018651
 10
-6.3263182296
 20
12.8523967924
 10
-6.3315725728
 20
12.8542501745
 10
-6.3370549376
 20
12.8560619183
 10
-6.3427608837
 20
12.857832117
 10
-6.3486857121
 20
12.859556051
 10
-6.3548245553
 20
12.8612336138
 10
-6.3611722897
 20
12.862864912
 10
-6.3677234826
 20
12.8644455456
 10
-6.3744725926
 20
12.8659753955
 10
-6.3814138421
 20
12.8674545809
 10
-6.3885411051
 20
12.8688790593
 10
-6.3958481997
 20
12.8702487003
 10
-6.4033287335
 20
12.8715636343
 10
-6.4109759444
 20
12.8728202112
 10
-6.4187830529
 20
12.8740182902
 10
-6.4267431001
 20
12.875158012
 10
-6.4348487621
 20
12.8762361486
 10
-6.4430927065
 20
12.8772525504
 10
-6.4514674715
 20
12.8782073669
 10
-6.4599652782
 20
12.8790978185
 10
-6.4685783118
 20
12.8799237505
 10
-6.4772986621
 20
12.8806853175
 10
-6.4861181839
 20
12.8813802041
 10
-6.4950286383
 20
12.8820082517
 10
-6.5040217411
 20
12.8825696188
 10
-6.5130890966
 20
12.8830624651
 10
-6.5222221127
 20
12.8834866312
 10
-6.5314122002
 20
12.8838422764
 10
-6.5406508234
 20
12.8841280389
 10
-6.5499292362
 20
12.8843434647
 10
-6.5592384867
 20
12.8844890079
 10
-6.5685696208
 20
12.8845646683
  0
LWPOLYLINE
  5
5C0
100
AcDbEntity
  8
ASSI
100
AcDbPolyline
 62
7
  6
CONTINUOUS
 90
52
 70
0
 10
-6.2738053427
 20
12.8092907563
 10
-6.273938507
 20
12.8116044369
 10
-6.2743382878
 20
12.8139094083
 10
-6.2750049383
 20
12.8162056703
 10
-6.2759384503
 20
12.8184951654
 10
-6.2771386099
 20
12.8207759511
 10
-6.2786050543
 20
12.8230422006
 10
-6.2803371339
 20
12.8252938818
 10
-6.282333943
 20
12.8275310269
 10
-6.2845944641
 20
12.8297479052
 10
-6.2871173614
 20
12.8319444739
 10
-6.2899010338
 20
12.8341207759
 10
-6.2929437715
 20
12.8362712089
 10
-6.2962435387
 20
12.838395719
 10
-6.2997980258
 20
12.8404943601
 10
-6.3036047958
 20
12.8425616919
 10
-6.3076610993
 20
12.8445976468
 10
-6.3119639142
 20
12.8466022923
 10
-6.3165100604
 20
12.8485703916
 10
-6.321296078
 20
12.8505018651
 10
-6.3263182296
 20
12.8523967924
 10
-6.3315725728
 20
12.8542501745
 10
-6.3370549376
 20
12.8560619183
 10
-6.3427608837
 20
12.857832117
 10
-6.3486857121
 20
12.859556051
 10
-6.3548245553
 20
12.8612336138
 10
-6.3611722897
 20
12.862864912
 10
-6.3677234826
 20
12.8644455456
 10
-6.3744725926
 20
12.8659753955
 10
-6.3814138421
 20
12.8674545809
 10
-6.3885411051
 20
12.8688790593
 10
-6.3958481997
 20
12.8702487003
 10
-6.4033287335
 20
12.8715636343
 10
-6.4109759444
 20
12.8728202112
 10
-6.4187830529
 20
12.8740182902
 10
-6.4267431001
 20
12.875158012
 10
-6.4348487621
 20
12.8762361486
 10
-6.4430927065
 20
12.8772525504
 10
-6.4514674715
 20
12.8782073669
 10
-6.4599652782
 20
12.8790978185
 10
-6.4685783118
 20
12.8799237505
 10
-6.4772986621
 20
12.8806853175
 10
-6.4861181839
 20
12.8813802041
 10
-6.4950286383
 20
12.8820082517
 10
-6.5040217411
 20
12.8825696188
 10
-6.5130890966
 20
12.8830624651
 10
-6.5222221127
 20
12.8834866312
 10
-6.5314122002
 20
12.8838422764
 10
-6.5406508234
 20
12.8841280389
 10
-6.5499292362
 20
12.8843434647
 10
-6.5592384867
 20
12.8844890079
 10
-6.5685696208
 20
12.8845646683
  0
LINE
  5
5C1
100
AcDbEntity
  8
RACCORDO
100
AcDbLine
 62
250
  6
CONTINUOUS
 10
-6.5685696208
 20
10.1283464697
 11
-6.5643794187
 21
10.0527038543
  0
LINE
  5
5C2
100
AcDbEntity
  8
ASSI
100
AcDbLine
 62
250
  6
CONTINUOUS
 10
-6.5685696208
 20
10.1283464697
 11
-6.5643794187
 21
10.0527038543
  0
LINE
  5
5C3
100
AcDbEntity
  8
RACCORDO
100
AcDbLine
 62
250
  6
CONTINUOUS
 10
-6.5643794187
 20
10.0527038543
 11
-6.5604073176
 21
9.978821115
  0
LINE
  5
5C4
100
AcDbEntity
  8
ASSI
100
AcDbLine
 62
250
  6
CONTINUOUS
 10
-6.5643794187
 20
10.0527038543
 11
-6.5604073176
 21
9.978821115
  0
LINE
  5
5C5
100
AcDbEntity
  8
RACCORDO
100
AcDbLine
 62
250
  6
CONTINUOUS
 10
-6.5604073176
 20
9.978821115
 11
-6.5567455514
 21
9.9084009758
  0
LINE
  5
5C6
100
AcDbEntity
  8
ASSI
100
AcDbLine
 62
250
  6
CONTINUOUS
 10
-6.5604073176
 20
9.978821115
 11
-6.5567455514
 21
9.9084009758
  0
LWPOLYLINE
  5
5C7
100
AcDbEntity
  8
RACCORDO
100
AcDbPolyline
 62
250
  6
CONTINUOUS
 90
3
 70
0
 10
-6.5567455514
 20
9.9084009758
 10
-6.5534771783
 20
9.8430662519
 10
-6.5528783374
 20
9.8307440891
  0
LWPOLYLINE
  5
5C8
100
AcDbEntity
  8
ASSI
100
AcDbPolyline
 62
250
  6
CONTINUOUS
 90
3
 70
0
 10
-6.5567455514
 20
9.9084009758
 10
-6.5534771783
 20
9.8430662519
 10
-6.5528783374
 20
9.8307440891
  0
LWPOLYLINE
  5
5C9
100
AcDbEntity
  8
RACCORDO
100
AcDbPolyline
 62
250
  6
CONTINUOUS
 90
40
 70
0
 10
-6.2738053427
 20
13.1848076416
 10
-6.2740275013
 20
13.191672209
 10
-6.2746936446
 20
13.1985266095
 10
-6.2758027861
 20
13.2053606917
 10
-6.2773532832
 20
13.2121643337
 10
-6.2793428394
 20
13.2189274593
 10
-6.2817685082
 20
13.2256400517
 10
-6.2846266969
 20
13.2322921695
 10
-6.2879131726
 20
13.2388739604
 10
-6.2916230677
 20
13.2453756766
 10
-6.2957508878
 20
13.2517876887
 10
-6.3002905194
 20
13.2581005003
 10
-6.305235239
 20
13.2643047617
 10
-6.3105777234
 20
13.2703912842
 10
-6.31631006
 20
13.2763510534
 10
-6.322423759
 20
13.2821752425
 10
-6.3289097657
 20
13.2878552257
 10
-6.3357584741
 20
13.2933825906
 10
-6.342959741
 20
13.298749151
 10
-6.3505029008
 20
13.3039469588
 10
-6.3583767818
 20
13.3089683157
 10
-6.3665697226
 20
13.3138057849
 10
-6.3750695888
 20
13.3184522018
 10
-6.383863792
 20
13.322900685
 10
-6.3929393074
 20
13.327144646
 10
-6.4022826937
 20
13.3311777993
 10
-6.4118801131
 20
13.3349941716
 10
-6.4217173512
 20
13.3385881107
 10
-6.4317798388
 20
13.3419542937
 10
-6.4420526727
 20
13.3450877353
 10
-6.4525206385
 20
13.3479837947
 10
-6.4631682325
 20
13.3506381825
 10
-6.4739796853
 20
13.3530469677
 10
-6.4849389846
 20
13.3552065826
 10
-6.4960298991
 20
13.3571138287
 10
-6.5072360027
 20
13.3587658814
 10
-6.5185406986
 20
13.3601602938
 10
-6.5299272441
 20
13.3612950008
 10
-6.5413787751
 20
13.3621683218
 10
-6.5528783314
 20
13.3627789633
  0
LWPOLYLINE
  5
5CA
100
AcDbEntity
  8
ASSI
100
AcDbPolyline
 62
250
  6
CONTINUOUS
 90
40
 70
0
 10
-6.2738053427
 20
13.1848076416
 10
-6.2740275013
 20
13.191672209
 10
-6.2746936446
 20
13.1985266095
 10
-6.2758027861
 20
13.2053606917
 10
-6.2773532832
 20
13.2121643337
 10
-6.2793428394
 20
13.2189274593
 10
-6.2817685082
 20
13.2256400517
 10
-6.2846266969
 20
13.2322921695
 10
-6.2879131726
 20
13.2388739604
 10
-6.2916230677
 20
13.2453756766
 10
-6.2957508878
 20
13.2517876887
 10
-6.3002905194
 20
13.2581005003
 10
-6.305235239
 20
13.2643047617
 10
-6.3105777234
 20
13.2703912842
 10
-6.31631006
 20
13.2763510534
 10
-6.322423759
 20
13.2821752425
 10
-6.3289097657
 20
13.2878552257
 10
-6.3357584741
 20
13.2933825906
 10
-6.342959741
 20
13.298749151
 10
-6.3505029008
 20
13.3039469588
 10
-6.3583767818
 20
13.3089683157
 10
-6.3665697226
 20
13.3138057849
 10
-6.3750695888
 20
13.3184522018
 10
-6.383863792
 20
13.322900685
 10
-6.3929393074
 20
13.327144646
 10
-6.4022826937
 20
13.3311777993
 10
-6.4118801131
 20
13.3349941716
 10
-6.4217173512
 20
13.3385881107
 10
-6.4317798388
 20
13.3419542937
 10
-6.4420526727
 20
13.3450877353
 10
-6.4525206385
 20
13.3479837947
 10
-6.4631682325
 20
13.3506381825
 10
-6.4739796853
 20
13.3530469677
 10
-6.4849389846
 20
13.3552065826
 10
-6.4960298991
 20
13.3571138287
 10
-6.5072360027
 20
13.3587658814
 10
-6.5185406986
 20
13.3601602938
 10
-6.5299272441
 20
13.3612950008
 10
-6.5413787751
 20
13.3621683218
 10
-6.5528783314
 20
13.3627789633
  0
LINE
  5
5CB
100
AcDbEntity
  8
RACCORDO
100
AcDbLine
 62
250
  6
CONTINUOUS
 10
-6.5738053427
 20
10.3090358317
 11
-6.5738053427
 21
12.8844875697
  0
LINE
  5
5CC
100
AcDbEntity
  8
ASSI
100
AcDbLine
 62
250
  6
CONTINUOUS
 10
-6.5738053427
 20
10.3090358317
 11
-6.5738053427
 21
12.8844875697
  0
LINE
  5
5CD
100
AcDbEntity
  8
RACCORDO
100
AcDbLine
 62
250
  6
CONTINUOUS
 10
-6.5720774763
 20
1.5789301217
 11
-6.5720774763
 21
0.2145934551
  0
LINE
  5
5CE
100
AcDbEntity
  8
ASSI
100
AcDbLine
 62
250
  6
CONTINUOUS
 10
-6.5720774763
 20
1.5789301217
 11
-6.5720774763
 21
0.2145934551
  0
LINE
  5
5CF
100
AcDbEntity
  8
RACCORDO
100
AcDbLine
 62
250
  6
CONTINUOUS
 10
-6.5720774763
 20
-11.92106147
 11
-6.5720774763
 21
-13.2854120507
  0
LINE
  5
5D0
100
AcDbEntity
  8
ASSI
100
AcDbLine
 62
250
  6
CONTINUOUS
 10
-6.5720774763
 20
-11.92106147
 11
-6.5720774763
 21
-13.2854120507
  0
LINE
  5
5D1
100
AcDbEntity
  8
RACCORDO
100
AcDbLine
 62
250
  6
CONTINUOUS
 10
-6.5685696208
 20
13.0651767368
 11
-6.5685696208
 21
12.8845646683
  0
LINE
  5
5D2
100
AcDbEntity
  8
ASSI
100
AcDbLine
 62
250
  6
CONTINUOUS
 10
-6.5685696208
 20
13.0651767368
 11
-6.5685696208
 21
12.8845646683
  0
LINE
  5
5D3
100
AcDbEntity
  8
RACCORDO
100
AcDbLine
 62
250
  6
CONTINUOUS
 10
-6.5685696208
 20
10.3089587331
 11
-6.5685696208
 21
10.1283464697
  0
LINE
  5
5D4
100
AcDbEntity
  8
ASSI
100
AcDbLine
 62
250
  6
CONTINUOUS
 10
-6.5685696208
 20
10.3089587331
 11
-6.5685696208
 21
10.1283464697
  0
LINE
  5
5D5
100
AcDbEntity
  8
RACCORDO
100
AcDbLine
 62
250
  6
CONTINUOUS
 10
-6.5528784006
 20
14.5664227661
 11
-6.5528783675
 21
13.362779004
  0
LINE
  5
5D6
100
AcDbEntity
  8
ASSI
100
AcDbLine
 62
250
  6
CONTINUOUS
 10
-6.5528784006
 20
14.5664227661
 11
-6.5528783675
 21
13.362779004
  0
LINE
  5
5D7
100
AcDbEntity
  8
RACCORDO
100
AcDbLine
 62
250
  6
CONTINUOUS
 10
-6.5528783813
 20
9.8307442045
 11
-6.5528784006
 21
8.6271006354
  0
LINE
  5
5D8
100
AcDbEntity
  8
ASSI
100
AcDbLine
 62
250
  6
CONTINUOUS
 10
-6.5528783813
 20
9.8307442045
 11
-6.5528784006
 21
8.6271006354
  0
LINE
  5
5D9
100
AcDbEntity
  8
RACCORDO
100
AcDbLine
 62
250
  6
CONTINUOUS
 10
-6.5528784006
 20
3.8764227661
 11
-6.5528784006
 21
1.6551084333
  0
LINE
  5
5DA
100
AcDbEntity
  8
ASSI
100
AcDbLine
 62
250
  6
CONTINUOUS
 10
-6.5528784006
 20
3.8764227661
 11
-6.5528784006
 21
1.6551084333
  0
LINE
  5
5DB
100
AcDbEntity
  8
RACCORDO
100
AcDbLine
 62
250
  6
CONTINUOUS
 10
-6.5528784006
 20
0.1384292975
 11
-6.5528784006
 21
-2.0828993646
  0
LINE
  5
5DC
100
AcDbEntity
  8
ASSI
100
AcDbLine
 62
250
  6
CONTINUOUS
 10
-6.5528784006
 20
0.1384292975
 11
-6.5528784006
 21
-2.0828993646
  0
LINE
  5
5DD
100
AcDbEntity
  8
RACCORDO
100
AcDbLine
 62
250
  6
CONTINUOUS
 10
-6.5528784006
 20
-9.6235772339
 11
-6.5528784006
 21
-11.8448926734
  0
LINE
  5
5DE
100
AcDbEntity
  8
ASSI
100
AcDbLine
 62
250
  6
CONTINUOUS
 10
-6.5528784006
 20
-9.6235772339
 11
-6.5528784006
 21
-11.8448926734
  0
LINE
  5
5DF
100
AcDbEntity
  8
RACCORDO
100
AcDbLine
 62
250
  6
CONTINUOUS
 10
-6.5528784006
 20
-13.3615704337
 11
-6.5528784006
 21
-15.5828993646
  0
LINE
  5
5E0
100
AcDbEntity
  8
ASSI
100
AcDbLine
 62
250
  6
CONTINUOUS
 10
-6.5528784006
 20
-13.3615704337
 11
-6.5528784006
 21
-15.5828993646
  0
LINE
  5
5E1
100
AcDbEntity
  8
RACCORDO
100
AcDbLine
 62
7
  6
CONTINUOUS
 10
-6.2738053427
 20
14.267152472
 11
-6.2738053427
 21
8.9264154162
  0
LINE
  5
5E2
100
AcDbEntity
  8
ASSI
100
AcDbLine
 62
7
  6
CONTINUOUS
 10
-6.2738053427
 20
14.267152472
 11
-6.2738053427
 21
8.9263816059
  0
LINE
  5
5E3
100
AcDbEntity
  8
RACCORDO
100
AcDbLine
 62
7
  6
CONTINUOUS
 10
-6.2738053427
 20
3.5771379373
 11
-6.2738053427
 21
-1.7836123995
  0
LINE
  5
5E4
100
AcDbEntity
  8
ASSI
100
AcDbLine
 62
7
  6
CONTINUOUS
 10
-6.2738053427
 20
3.5771379373
 11
-6.2738053427
 21
-1.7836123995
  0
LINE
  5
5E5
100
AcDbEntity
  8
RACCORDO
100
AcDbLine
 62
7
  6
CONTINUOUS
 10
-6.2738053427
 20
-9.9228620627
 11
-6.2738053427
 21
-15.2836123995
  0
LINE
  5
5E6
100
AcDbEntity
  8
ASSI
100
AcDbLine
 62
7
  6
CONTINUOUS
 10
-6.2738053427
 20
-9.9228620627
 11
-6.2738053427
 21
-15.2836123995
  0
LWPOLYLINE
  5
5E7
100
AcDbEntity
  8
RACCORDO
100
AcDbPolyline
 62
250
  6
CONTINUOUS
 90
40
 70
0
 10
-6.2738053427
 20
10.0087155889
 10
-6.2740275035
 20
10.001851021
 10
-6.274693649
 20
9.9949966198
 10
-6.2758027928
 20
9.9881625372
 10
-6.277353292
 20
9.9813588946
 10
-6.2793428503
 20
9.9745957686
 10
-6.2817685212
 20
9.9678831758
 10
-6.2846267121
 20
9.9612310577
 10
-6.2879131899
 20
9.9546492664
 10
-6.2916230871
 20
9.94814755
 10
-6.2957509092
 20
9.9417355377
 10
-6.3002905428
 20
9.935422726
 10
-6.3052352644
 20
9.9292184644
 10
-6.3105777507
 20
9.9231319419
 10
-6.3163100892
 20
9.9171721728
 10
-6.32242379
 20
9.9113479838
 10
-6.3289097986
 20
9.9056680007
 10
-6.3357585087
 20
9.900140636
 10
-6.3429597772
 20
9.8947740758
 10
-6.3505029386
 20
9.8895762684
 10
-6.3583768212
 20
9.8845549119
 10
-6.3665697634
 20
9.8797174432
 10
-6.3750696311
 20
9.8750710267
 10
-6.3838638356
 20
9.8706225441
 10
-6.3929393522
 20
9.8663785838
 10
-6.4022827397
 20
9.8623454312
 10
-6.4118801601
 20
9.8585290596
 10
-6.4217173992
 20
9.8549351214
 10
-6.4317798875
 20
9.8515689392
 10
-6.4420527222
 20
9.8484354985
 10
-6.4525206885
 20
9.8455394401
 10
-6.4631682831
 20
9.8428850532
 10
-6.4739797362
 20
9.8404762691
 10
-6.4849390357
 20
9.8383166553
 10
-6.4960299503
 20
9.8364094102
 10
-6.5072360539
 20
9.8347573587
 10
-6.5185407497
 20
9.8333629474
 10
-6.5299272949
 20
9.8322282416
 10
-6.5413788255
 20
9.8313549217
 10
-6.5528783813
 20
9.8307442813
  0
LWPOLYLINE
  5
5E8
100
AcDbEntity
  8
ASSI
100
AcDbPolyline
 62
250
  6
CONTINUOUS
 90
40
 70
0
 10
-6.2738053427
 20
10.0087155889
 10
-6.2740275035
 20
10.001851021
 10
-6.274693649
 20
9.9949966198
 10
-6.2758027928
 20
9.9881625372
 10
-6.277353292
 20
9.9813588946
 10
-6.2793428503
 20
9.9745957686
 10
-6.2817685212
 20
9.9678831758
 10
-6.2846267121
 20
9.9612310577
 10
-6.2879131899
 20
9.9546492664
 10
-6.2916230871
 20
9.94814755
 10
-6.2957509092
 20
9.9417355377
 10
-6.3002905428
 20
9.935422726
 10
-6.3052352644
 20
9.9292184644
 10
-6.3105777507
 20
9.9231319419
 10
-6.3163100892
 20
9.9171721728
 10
-6.32242379
 20
9.9113479838
 10
-6.3289097986
 20
9.9056680007
 10
-6.3357585087
 20
9.900140636
 10
-6.3429597772
 20
9.8947740758
 10
-6.3505029386
 20
9.8895762684
 10
-6.3583768212
 20
9.8845549119
 10
-6.3665697634
 20
9.8797174432
 10
-6.3750696311
 20
9.8750710267
 10
-6.3838638356
 20
9.8706225441
 10
-6.3929393522
 20
9.8663785838
 10
-6.4022827397
 20
9.8623454312
 10
-6.4118801601
 20
9.8585290596
 10
-6.4217173992
 20
9.8549351214
 10
-6.4317798875
 20
9.8515689392
 10
-6.4420527222
 20
9.8484354985
 10
-6.4525206885
 20
9.8455394401
 10
-6.4631682831
 20
9.8428850532
 10
-6.4739797362
 20
9.8404762691
 10
-6.4849390357
 20
9.8383166553
 10
-6.4960299503
 20
9.8364094102
 10
-6.5072360539
 20
9.8347573587
 10
-6.5185407497
 20
9.8333629474
 10
-6.5299272949
 20
9.8322282416
 10
-6.5413788255
 20
9.8313549217
 10
-6.5528783813
 20
9.8307442813
  0
LINE
  5
5E9
100
AcDbEntity
  8
RACCORDO
100
AcDbLine
 62
250
  6
CONTINUOUS
 10
-7.984707835
 20
-13.636337726
 11
-7.9947323506
 21
-13.6957296325
  0
LINE
  5
5EA
100
AcDbEntity
  8
ASSI
100
AcDbLine
 62
250
  6
CONTINUOUS
 10
-7.984707835
 20
-13.636337726
 11
-7.9947323506
 21
-13.6957296325
  0
LINE
  5
5EB
100
AcDbEntity
  8
RACCORDO
100
AcDbLine
 62
250
  6
CONTINUOUS
 10
-7.980792915
 20
-13.6133333742
 11
-7.984707835
 21
-13.636337726
  0
LINE
  5
5EC
100
AcDbEntity
  8
ASSI
100
AcDbLine
 62
250
  6
CONTINUOUS
 10
-7.980792915
 20
-13.6133333742
 11
-7.984707835
 21
-13.636337726
  0
LINE
  5
5ED
100
AcDbEntity
  8
RACCORDO
100
AcDbLine
 62
250
  6
CONTINUOUS
 10
-7.9755327145
 20
-13.5825825345
 11
-7.980792915
 21
-13.6133333742
  0
LINE
  5
5EE
100
AcDbEntity
  8
ASSI
100
AcDbLine
 62
250
  6
CONTINUOUS
 10
-7.9755327145
 20
-13.5825825345
 11
-7.980792915
 21
-13.6133333742
  0
LINE
  5
5EF
100
AcDbEntity
  8
RACCORDO
100
AcDbLine
 62
250
  6
CONTINUOUS
 10
-44.2036516622
 20
19.2323674686
 11
-44.4454650415
 21
19.2193481866
  0
LINE
  5
5F0
100
AcDbEntity
  8
RACCORDO
100
AcDbLine
 62
250
  6
CONTINUOUS
 10
-44.4454650415
 20
19.2193481866
 11
-44.6624144026
 21
19.2078032749
  0
LINE
  5
5F1
100
AcDbEntity
  8
RACCORDO
100
AcDbLine
 62
250
  6
CONTINUOUS
 10
-44.6624144026
 20
19.2078032749
 11
-44.8339580242
 21
19.1988258566
  0
LINE
  5
5F2
100
AcDbEntity
  8
RACCORDO
100
AcDbLine
 62
250
  6
CONTINUOUS
 10
-44.8339580242
 20
19.1988258566
 11
-44.9148472592
 21
19.194699685
  0
LWPOLYLINE
  5
5F3
100
AcDbEntity
  8
RACCORDO
100
AcDbPolyline
 62
250
  6
CONTINUOUS
 90
4
 70
0
 10
-44.9148472592
 20
19.194699685
 10
-44.9647967321
 20
19.1922735504
 10
-44.9774553564
 20
19.191732991
 10
-44.9816951523
 20
19.1916500023
  0
LINE
  5
5F4
100
AcDbEntity
  8
RACCORDO
100
AcDbLine
 62
7
  6
CONTINUOUS
 10
-30.2738053427
 20
20.3967617007
 11
-20.2738053427
 21
20.3967617007
  0
LINE
  5
5F5
100
AcDbEntity
  8
RACCORDO
100
AcDbLine
 62
250
  6
CONTINUOUS
 10
-9.2563529363
 20
18.43050012
 11
-30.2738053427
 21
18.5824589202
  0
LINE
  5
5F6
100
AcDbEntity
  8
ASSI
100
AcDbLine
 62
250
  6
CONTINUOUS
 10
-9.2563529363
 20
18.43050012
 11
-30.2738053427
 21
18.5824589202
  0
LINE
  5
5F7
100
AcDbEntity
  8
RACCORDO
100
AcDbLine
 62
7
  6
CONTINUOUS
 10
-9.2563529363
 20
18.9154305225
 11
-20.2738053427
 21
19.1077408696
  0
LINE
  5
5F8
100
AcDbEntity
  8
ASSI
100
AcDbLine
 62
7
  6
CONTINUOUS
 10
-9.2563529363
 20
18.9154305225
 11
-20.2738053427
 21
19.1077408696
  0
LINE
  5
5F9
100
AcDbEntity
  8
DRAFT
100
AcDbLine
 62
7
  6
CONTINUOUS
 10
-30.2738053427
 20
20.3467617007
 11
-20.2738053427
 21
20.1722110514
  0
LINE
  5
5FA
100
AcDbEntity
  8
ASSI
100
AcDbLine
 62
7
  6
CONTINUOUS
 10
-30.2738053427
 20
20.3467617007
 11
-20.2738053427
 21
20.1722110514
  0
LWPOLYLINE
  5
5FB
100
AcDbEntity
  8
RACCORDO
100
AcDbPolyline
 62
250
  6
CONTINUOUS
 90
46
 70
0
 10
-9.2563529363
 20
18.43050012
 10
-9.2291153072
 20
18.4299013463
 10
-9.2019108652
 20
18.4287779959
 10
-9.1747598125
 20
18.4271309028
 10
-9.1476823115
 20
18.4249612904
 10
-9.1206984701
 20
18.4222707698
 10
-9.0938283268
 20
18.4190613389
 10
-9.0670918354
 20
18.4153353811
 10
-9.0405088505
 20
18.4110956633
 10
-9.014099113
 20
18.4063453339
 10
-8.9878822346
 20
18.4010879207
 10
-8.9618776844
 20
18.3953273276
 10
-8.9361047734
 20
18.3890678327
 10
-8.9105826406
 20
18.3823140842
 10
-8.8853302391
 20
18.3750710976
 10
-8.8603663213
 20
18.3673442514
 10
-8.8357094255
 20
18.3591392837
 10
-8.8113778622
 20
18.3504622875
 10
-8.7873897001
 20
18.3413197065
 10
-8.763762753
 20
18.3317183299
 10
-8.7405145662
 20
18.3216652878
 10
-8.7176624041
 20
18.3111680457
 10
-8.6952232369
 20
18.3002343988
 10
-8.6732137278
 20
18.2888724666
 10
-8.6516502215
 20
18.2770906864
 10
-8.6305487309
 20
18.2648978075
 10
-8.6099249262
 20
18.2523028843
 10
-8.5897941228
 20
18.23931527
 10
-8.5701712698
 20
18.2259446093
 10
-8.5510709394
 20
18.2122008311
 10
-8.5325073155
 20
18.1980941419
 10
-8.5144941837
 20
18.1836350171
 10
-8.4970449204
 20
18.1688341943
 10
-8.4801724837
 20
18.1537026647
 10
-8.4638894032
 20
18.138251665
 10
-8.4482077706
 20
18.1224926692
 10
-8.4331392314
 20
18.10643738
 10
-8.4186949754
 20
18.0900977202
 10
-8.4048857291
 20
18.0734858237
 10
-8.3917217473
 20
18.0566140265
 10
-8.3792128056
 20
18.0394948578
 10
-8.3673681933
 20
18.0221410303
 10
-8.3561967061
 20
18.0045654312
 10
-8.3457066402
 20
17.986781112
 10
-8.3359057855
 20
17.9688012797
 10
-8.3268014201
 20
17.950639286
  0
LWPOLYLINE
  5
5FC
100
AcDbEntity
  8
ASSI
100
AcDbPolyline
 62
250
  6
CONTINUOUS
 90
43
 70
0
 10
-9.2563529363
 20
18.43050012
 10
-9.2291153072
 20
18.4299013463
 10
-9.2019108652
 20
18.4287779959
 10
-9.1747598125
 20
18.4271309028
 10
-9.1476823115
 20
18.4249612904
 10
-9.1206984701
 20
18.4222707698
 10
-9.0938283268
 20
18.4190613389
 10
-9.0670918354
 20
18.4153353811
 10
-9.0405088505
 20
18.4110956633
 10
-9.014099113
 20
18.4063453339
 10
-8.9878822346
 20
18.4010879207
 10
-8.9618776844
 20
18.3953273276
 10
-8.9361047734
 20
18.3890678327
 10
-8.9105826406
 20
18.3823140842
 10
-8.8853302391
 20
18.3750710976
 10
-8.8603663213
 20
18.3673442514
 10
-8.8357094255
 20
18.3591392837
 10
-8.8113778622
 20
18.3504622875
 10
-8.7873897001
 20
18.3413197065
 10
-8.763762753
 20
18.3317183299
 10
-8.7405145662
 20
18.3216652878
 10
-8.7176624041
 20
18.3111680457
 10
-8.6952232369
 20
18.3002343988
 10
-8.6732137278
 20
18.2888724666
 10
-8.6516502215
 20
18.2770906864
 10
-8.6305487309
 20
18.2648978075
 10
-8.6099249262
 20
18.2523028843
 10
-8.5897941228
 20
18.23931527
 10
-8.5701712698
 20
18.2259446093
 10
-8.5510709394
 20
18.2122008311
 10
-8.5325073155
 20
18.1980941419
 10
-8.5144941837
 20
18.1836350171
 10
-8.4970449204
 20
18.1688341943
 10
-8.4801724837
 20
18.1537026647
 10
-8.4638894032
 20
18.138251665
 10
-8.4482077706
 20
18.1224926692
 10
-8.4331392314
 20
18.10643738
 10
-8.4186949754
 20
18.0900977202
 10
-8.4048857291
 20
18.0734858237
 10
-8.3917217473
 20
18.0566140265
 10
-8.3792128056
 20
18.0394948578
 10
-8.3673681933
 20
18.0221410303
 10
-8.3561967061
 20
18.0045654312
  0
LINE
  5
5FD
100
AcDbEntity
  8
ASSI
100
AcDbLine
 62
7
  6
CONTINUOUS
 10
-33.7738053427
 20
21.4967617007
 11
-32.6238053427
 21
21.3555594557
  0
LWPOLYLINE
  5
5FE
100
AcDbEntity
  8
0
100
AcDbPolyline
 62
7
  6
CONTINUOUS
 90
10
 70
0
 43
0.3500000006
 10
-24.7706071243
 20
43.214881897
 10
-24.6991782074
 20
43.0720240631
 10
-24.6991782074
 20
43.0005974121
 10
-24.8420360413
 20
42.8577395782
 10
-24.9134649582
 20
42.8577395782
 10
-24.9848938751
 20
42.9291707611
 10
-24.9848938751
 20
43.0005974121
 10
-24.9134649582
 20
43.143455246
 10
-24.8420360413
 20
43.214881897
 10
-24.7706071243
 20
43.214881897
  0
LINE
  5
5FF
100
AcDbEntity
  8
RACCORDO
100
AcDbLine
 62
250
  6
CONTINUOUS
 10
-6.5528784006
 20
-11.8449010721
 11
-6.5720774763
 21
-11.9210664419
  0
LINE
  5
600
100
AcDbEntity
  8
ASSI
100
AcDbLine
 62
250
  6
CONTINUOUS
 10
-6.5528784006
 20
-11.8449010721
 11
-6.5720774763
 21
-11.9210664419
  0
LWPOLYLINE
  5
601
100
AcDbEntity
  8
ASSI
100
AcDbPolyline
 62
250
  6
CONTINUOUS
 90
3
 70
0
 10
-8.2937885175
 20
-18.8706336257
 10
-8.2917556731
 20
-18.8633550912
 10
-8.2898309128
 20
-18.8560615761
  0
LINE
  5
602
100
AcDbEntity
  8
ASSI
100
AcDbLine
 62
250
  6
CONTINUOUS
 10
-8.2959292224
 20
-18.8778963787
 11
-8.2937885175
 21
-18.8706336257
  0
LWPOLYLINE
  5
603
100
AcDbEntity
  8
ASSI
100
AcDbPolyline
 62
250
  6
CONTINUOUS
 90
6
 70
0
 10
-8.3082419908
 20
-18.9139454576
 10
-8.3055657552
 20
-18.9067735965
 10
-8.3029960836
 20
-18.8995819654
 10
-8.3005332588
 20
-18.8923713524
 10
-8.298177552
 20
-18.8851425547
 10
-8.2959292224
 20
-18.8778963787
  0
LWPOLYLINE
  5
604
100
AcDbEntity
  8
RACCORDO
100
AcDbPolyline
 62
250
  6
CONTINUOUS
 90
10
 70
0
 10
-8.3110244958
 20
-18.9210967595
 10
-8.3082419908
 20
-18.9139454576
 10
-8.3055657552
 20
-18.9067735965
 10
-8.3029960836
 20
-18.8995819654
 10
-8.3005332588
 20
-18.8923713524
 10
-8.298177552
 20
-18.8851425547
 10
-8.2959292224
 20
-18.8778963787
 10
-8.2937885175
 20
-18.8706336257
 10
-8.2917556731
 20
-18.8633550912
 10
-8.2898309128
 20
-18.8560615761
  0
LINE
  5
605
100
AcDbEntity
  8
ASSI
100
AcDbLine
 62
250
  6
CONTINUOUS
 10
-8.3110244958
 20
-18.9210967595
 11
-8.3082419908
 21
-18.9139454576
  0
LWPOLYLINE
  5
606
100
AcDbEntity
  8
RACCORDO
100
AcDbPolyline
 62
7
  6
CONTINUOUS
 90
7
 70
0
 10
-8.0884533781
 20
-13.7035469766
 10
-8.0715147246
 20
-13.6844858138
 10
-8.0538233025
 20
-13.664984785
 10
-8.0353791118
 20
-13.6450438904
 10
-8.0161821524
 20
-13.6246631299
 10
-7.9962324244
 20
-13.6038425034
 10
-7.9755299278
 20
-13.5825820111
  0
LWPOLYLINE
  5
607
100
AcDbEntity
  8
ASSI
100
AcDbPolyline
 62
7
  6
CONTINUOUS
 90
7
 70
0
 10
-8.0884533781
 20
-13.7035469766
 10
-8.0715147246
 20
-13.6844858138
 10
-8.0538233025
 20
-13.664984785
 10
-8.0353791118
 20
-13.6450438904
 10
-8.0161821524
 20
-13.6246631299
 10
-7.9962324244
 20
-13.6038425034
 10
-7.9755299278
 20
-13.5825820111
  0
LINE
  5
608
100
AcDbEntity
  8
RACCORDO
100
AcDbLine
 62
7
  6
CONTINUOUS
 10
-37.6651690328
 20
18.7277196495
 11
-37.0494591038
 21
18.886953064
  0
LINE
  5
609
100
AcDbEntity
  8
RACCORDO
100
AcDbLine
 62
250
  6
CONTINUOUS
 10
-37.9089262792
 20
20.7129631091
 11
-43.596044638
 21
19.9642397731
  0
LINE
  5
60A
100
AcDbEntity
  8
DRAFT
100
AcDbLine
 62
7
  6
CONTINUOUS
 10
-37.2162490741
 20
19.9918518801
 11
-37.8114122448
 21
19.9187750315
  0
LINE
  5
60B
100
AcDbEntity
  8
0
100
AcDbLine
 62
7
  6
CONTINUOUS
 10
-36.4566492951
 20
21.1933798134
 11
-36.9529223709
 21
21.1324451417
  0
LINE
  5
60C
100
AcDbEntity
  8
RACCORDO
100
AcDbLine
 62
250
  6
CONTINUOUS
 10
-30.2738053427
 20
20.7724519405
 11
-20.5685696208
 21
20.9418574602
  0
LINE
  5
60D
100
AcDbEntity
  8
RACCORDO
100
AcDbLine
 62
250
  6
CONTINUOUS
 10
-30.2738053427
 20
20.9846753648
 11
-20.3579716676
 21
21.1577568854
  0
LINE
  5
60E
100
AcDbEntity
  8
RACCORDO
100
AcDbLine
 62
250
  6
CONTINUOUS
 10
-31.2738053427
 20
21.5467483733
 11
-33.7738053427
 21
21.5249312038
  0
LINE
  5
60F
100
AcDbEntity
  8
RACCORDO
100
AcDbLine
 62
7
  6
CONTINUOUS
 10
-31.2738053427
 20
21.8967617007
 11
-33.7738053427
 21
21.8749445312
  0
LINE
  5
610
100
AcDbEntity
  8
RACCORDO
100
AcDbLine
 62
250
  6
CONTINUOUS
 10
-30.2738053427
 20
20.6967617007
 11
-20.5685696208
 21
20.6967617007
  0
LINE
  5
611
100
AcDbEntity
  8
RACCORDO
100
AcDbLine
 62
250
  6
CONTINUOUS
 10
-30.2738053427
 20
21.5380215055
 11
-31.2738053427
 21
21.5467483733
  0
LINE
  5
612
100
AcDbEntity
  8
RACCORDO
100
AcDbLine
 62
250
  6
CONTINUOUS
 10
-30.2738053427
 20
21.8001554438
 11
-20.8559467815
 21
21.7179670372
  0
LINE
  5
613
100
AcDbEntity
  8
RACCORDO
100
AcDbLine
 62
7
  6
CONTINUOUS
 10
-21.2650788072
 20
21.8094168675
 11
-31.2738053427
 21
21.8967617007
  0
LWPOLYLINE
  5
614
100
AcDbEntity
  8
RACCORDO
100
AcDbPolyline
 62
250
  6
CONTINUOUS
 90
22
 70
0
 10
-8.6121353627
 20
13.5704482755
 10
-8.6197231288
 20
13.5775791834
 10
-8.62726902
 20
13.5849781991
 10
-8.6347619551
 20
13.5926344569
 10
-8.6421909304
 20
13.6005367135
 10
-8.6495450363
 20
13.6086733643
 10
-8.6568134733
 20
13.6170324605
 10
-8.6639855674
 20
13.6256017265
 10
-8.6710507862
 20
13.6343685781
 10
-8.6779987543
 20
13.6433201411
 10
-8.6848192686
 20
13.6524432699
 10
-8.6915023128
 20
13.6617245671
 10
-8.6980380729
 20
13.6711504027
 10
-8.7044169508
 20
13.6807069348
 10
-8.7106295791
 20
13.6903801295
 10
-8.7166668344
 20
13.7001557814
 10
-8.7225198509
 20
13.7100195347
 10
-8.7281800332
 20
13.7199569044
 10
-8.7336390692
 20
13.7299532972
 10
-8.7388889423
 20
13.7399940332
 10
-8.7439219429
 20
13.7500643674
 10
-8.7487306799
 20
13.7601495112
  0
LWPOLYLINE
  5
615
100
AcDbEntity
  8
ASSI
100
AcDbPolyline
 62
250
  6
CONTINUOUS
 90
22
 70
0
 10
-8.6121353627
 20
13.5704482755
 10
-8.6197231288
 20
13.5775791834
 10
-8.62726902
 20
13.5849781991
 10
-8.6347619551
 20
13.5926344569
 10
-8.6421909304
 20
13.6005367135
 10
-8.6495450363
 20
13.6086733643
 10
-8.6568134733
 20
13.6170324605
 10
-8.6639855674
 20
13.6256017265
 10
-8.6710507862
 20
13.6343685781
 10
-8.6779987543
 20
13.6433201411
 10
-8.6848192686
 20
13.6524432699
 10
-8.6915023128
 20
13.6617245671
 10
-8.6980380729
 20
13.6711504027
 10
-8.7044169508
 20
13.6807069348
 10
-8.7106295791
 20
13.6903801295
 10
-8.7166668344
 20
13.7001557814
 10
-8.7225198509
 20
13.7100195347
 10
-8.7281800332
 20
13.7199569044
 10
-8.7336390692
 20
13.7299532972
 10
-8.7388889423
 20
13.7399940332
 10
-8.7439219429
 20
13.7500643674
 10
-8.7487306799
 20
13.7601495112
  0
LWPOLYLINE
  5
616
100
AcDbEntity
  8
RACCORDO
100
AcDbPolyline
 62
250
  6
CONTINUOUS
 90
9
 70
0
 10
-8.2974762104
 20
17.8764412603
 10
-8.2919451942
 20
17.8575731211
 10
-8.2871433128
 20
17.8386054191
 10
-8.283074132
 20
17.8195522401
 10
-8.2797406737
 20
17.8004277329
 10
-8.2771454133
 20
17.7812460995
 10
-8.275290278
 20
17.7620215843
 10
-8.2741766455
 20
17.7427684635
 10
-8.2738053427
 20
17.7235010346
  0
LWPOLYLINE
  5
617
100
AcDbEntity
  8
ASSI
100
AcDbPolyline
 62
250
  6
CONTINUOUS
 90
3
 70
0
 10
-8.3267971273
 20
-18.9571069354
 10
-8.3185713756
 20
-18.9391761848
 10
-8.3110244958
 20
-18.9210967595
  0
LWPOLYLINE
  5
618
100
AcDbEntity
  8
ASSI
100
AcDbPolyline
 62
250
  6
CONTINUOUS
 90
4
 70
0
 10
-8.355486768
 20
-19.0098802906
 10
-8.3452613846
 20
-18.9924715549
 10
-8.3356959051
 20
-18.9748762683
 10
-8.3267971273
 20
-18.9571069354
  0
LWPOLYLINE
  5
619
100
AcDbEntity
  8
RACCORDO
100
AcDbPolyline
 62
250
  6
CONTINUOUS
 90
22
 70
0
 10
-43.596044638
 20
19.9642397731
 10
-43.6453191816
 20
19.9559347544
 10
-43.6934719942
 20
19.9442910364
 10
-43.7405030757
 20
19.9293086189
 10
-43.7866599211
 20
19.9108764481
 10
-43.8316950354
 20
19.8891055779
 10
-43.8748659339
 20
19.8643291701
 10
-43.916126631
 20
19.8365013437
 10
-43.9555231122
 20
19.8056679797
 10
-43.9924508491
 20
19.7722998833
 10
-44.0268663859
 20
19.7363645104
 10
-44.0588131783
 20
19.6978944051
 10
-44.0878170643
 20
19.6574580045
 10
-44.1138389974
 20
19.6150156042
 10
-44.136918024
 20
19.5706069085
 10
-44.156697121
 20
19.524919468
 10
-44.1731205205
 20
19.4779213112
 10
-44.1862439903
 20
19.4296444095
 10
-44.1958778113
 20
19.3808722279
 10
-44.2019587438
 20
19.3318659214
 10
-44.2045500274
 20
19.2823643349
 10
-44.2036516622
 20
19.2323674686
  0
LINE
  5
61A
100
AcDbEntity
  8
RACCORDO
100
AcDbLine
 62
7
  6
CONTINUOUS
 10
-38.0064031943
 20
21.5068488741
 11
-43.6796801256
 21
20.7599477966
  0
LINE
  5
61B
100
AcDbEntity
  8
RACCORDO
100
AcDbLine
 62
7
  6
CONTINUOUS
 10
-33.5252597756
 20
23.883663122
 11
-31.2738053427
 21
23.8967617007
  0
LINE
  5
61C
100
AcDbEntity
  8
RACCORDO
100
AcDbLine
 62
7
  6
CONTINUOUS
 10
-30.2789016649
 20
23.2909735204
 11
-23.2738053427
 21
23.2502190622
  0
LINE
  5
61D
100
AcDbEntity
  8
RACCORDO
100
AcDbLine
 62
7
  6
CONTINUOUS
 10
-31.2738053427
 20
23.8967617007
 11
-30.5223509099
 21
23.8923898667
  0
LWPOLYLINE
  5
61E
100
AcDbEntity
  8
ASSI
100
AcDbPolyline
 62
250
  6
CONTINUOUS
 90
4
 70
0
 10
-8.3561967061
 20
18.0045654312
 10
-8.3457066402
 20
17.986781112
 10
-8.3359057855
 20
17.9688012797
 10
-8.3268014201
 20
17.950639286
  0
LWPOLYLINE
  5
61F
100
AcDbEntity
  8
RACCORDO
100
AcDbPolyline
 62
250
  6
CONTINUOUS
 90
5
 70
0
 10
-8.3268014201
 20
17.950639286
 10
-8.318400305
 20
17.9323086182
 10
-8.310708679
 20
17.9138228888
 10
-8.3037322539
 20
17.8951958253
 10
-8.2974762104
 20
17.8764412603
  0
LWPOLYLINE
  5
620
100
AcDbEntity
  8
ASSI
100
AcDbPolyline
 62
250
  6
CONTINUOUS
 90
13
 70
0
 10
-8.3268014201
 20
17.950639286
 10
-8.318400305
 20
17.9323086182
 10
-8.310708679
 20
17.9138228888
 10
-8.3037322539
 20
17.8951958253
 10
-8.2974762104
 20
17.8764412603
 10
-8.2919451942
 20
17.8575731211
 10
-8.2871433128
 20
17.8386054191
 10
-8.283074132
 20
17.8195522401
 10
-8.2797406737
 20
17.8004277329
 10
-8.2771454133
 20
17.7812460995
 10
-8.275290278
 20
17.7620215843
 10
-8.2741766455
 20
17.7427684635
 10
-8.2738053427
 20
17.7235010346
  0
LWPOLYLINE
  5
621
100
AcDbEntity
  8
0
100
AcDbPolyline
 62
7
  6
CONTINUOUS
 90
7
 70
0
 43
0.3500000006
 10
-19.1309471054
 20
32.6467602997
 10
-20.6309475632
 20
32.6467602997
 10
-19.1309471054
 20
34.7896187439
 10
-19.1309471054
 20
35.2181922455
 10
-19.559520607
 20
35.6467612152
 10
-20.2023763275
 20
35.6467612152
 10
-20.6309475632
 20
35.0039032288
  0
LWPOLYLINE
  5
622
100
AcDbEntity
  8
0
100
AcDbPolyline
 62
7
  6
CONTINUOUS
 90
3
 70
0
 43
0.3500000006
 10
-16.7738053093
 20
33.2896182861
 10
-18.2738057671
 20
33.2896182861
 10
-17.6309477806
 20
35.6467612152
  0
LWPOLYLINE
  5
623
100
AcDbEntity
  8
0
100
AcDbPolyline
 62
7
  6
CONTINUOUS
 90
6
 70
0
 43
0.3500000006
 10
-29.9134642181
 20
42.7148817444
 10
-28.842034996
 20
42.7148817444
 10
-28.6277505112
 20
42.9291707611
 10
-28.6277505112
 20
44.0005977173
 10
-29.0563217468
 20
44.429166687
 10
-29.4848929825
 20
44.429166687
  0
LWPOLYLINE
  5
624
100
AcDbEntity
  8
0
100
AcDbPolyline
 62
7
  6
CONTINUOUS
 90
13
 70
0
 43
0.3500000006
 10
-27.3420368042
 20
44.429166687
 10
-27.627750206
 20
44.6434557037
 10
-27.627750206
 20
45.2863136902
 10
-27.3420368042
 20
45.7148826599
 10
-26.6991788177
 20
45.7148826599
 10
-26.413465416
 20
45.2863136902
 10
-26.413465416
 20
44.6434557037
 10
-26.6991788177
 20
44.429166687
 10
-26.2706075821
 20
44.0005977173
 10
-26.2706075821
 20
43.143455246
 10
-26.6991788177
 20
42.7148817444
 10
-27.3420368042
 20
42.7148817444
 10
-27.7706080399
 20
43.143455246
  0
ARC
  5
625
100
AcDbEntity
  8
RACCORDO
100
AcDbCircle
 62
7
  6
CONTINUOUS
 10
-38.5359657958
 20
-21.0248351555
 40
1.5
100
AcDbArc
 50
190.8995301032
 51
276.5
  0
ARC
  5
626
100
AcDbEntity
  8
RACCORDO
100
AcDbCircle
 62
7
  6
CONTINUOUS
 10
-33.5238053427
 20
-24.3475758666
 40
0.25
100
AcDbArc
 50
120.0
 51
180.0
  0
ARC
  5
627
100
AcDbEntity
  8
RACCORDO
100
AcDbCircle
 62
7
  6
CONTINUOUS
 10
-33.5238053427
 20
-24.6401439514
 40
0.25
100
AcDbArc
 50
180.0
 51
269.6666666667
  0
ARC
  5
628
100
AcDbEntity
  8
RACCORDO
100
AcDbCircle
 62
7
  6
CONTINUOUS
 10
-30.5238053427
 20
-24.6488706961
 40
0.25
100
AcDbArc
 50
270.3333333333
 51
360.0
  0
ARC
  5
629
100
AcDbEntity
  8
RACCORDO
100
AcDbCircle
 62
7
  6
CONTINUOUS
 10
-30.5238053427
 20
-24.3475758666
 40
0.25
100
AcDbArc
 50
0.0
 51
60.0
  0
ARC
  5
62A
100
AcDbEntity
  8
RACCORDO
100
AcDbCircle
 62
7
  6
CONTINUOUS
 10
-31.0238053427
 20
-23.4815504628
 40
0.25
100
AcDbArc
 50
180.0
 51
240.0
  0
ARC
  5
62B
100
AcDbEntity
  8
RACCORDO
100
AcDbCircle
 62
7
  6
CONTINUOUS
 10
-9.2738053427
 20
-18.9220594259
 40
1.0
100
AcDbArc
 50
271.0
 51
360.0
  0
ARC
  5
62C
100
AcDbEntity
  8
RACCORDO
100
AcDbCircle
 62
7
  6
CONTINUOUS
 10
-21.2738053427
 20
-21.815931543
 40
1.0
100
AcDbArc
 50
270.5
 51
360.0
  0
ARC
  5
62D
100
AcDbEntity
  8
ASSI
100
AcDbCircle
 62
7
  6
CONTINUOUS
 10
-9.2738053427
 20
-18.9220594259
 40
1.0
100
AcDbArc
 50
271.0
 51
359.9997815346
  0
ARC
  5
62E
100
AcDbEntity
  8
RACCORDO
100
AcDbCircle
 62
7
  6
CONTINUOUS
 10
-7.9738053427
 20
-15.9829928251
 40
0.3
100
AcDbArc
 50
94.0
 51
174.4154959843
  0
ARC
  5
62F
100
AcDbEntity
  8
RACCORDO
100
AcDbCircle
 62
7
  6
CONTINUOUS
 10
-6.5738053427
 20
-15.2836301496
 40
0.3
100
AcDbArc
 50
274.0
 51
360.0
  0
ARC
  5
630
100
AcDbEntity
  8
ASSI
100
AcDbCircle
 62
7
  6
CONTINUOUS
 10
-7.9738053427
 20
-15.9829928251
 40
0.3
100
AcDbArc
 50
94.0
 51
180.0
  0
ARC
  5
631
100
AcDbEntity
  8
ASSI
100
AcDbCircle
 62
7
  6
CONTINUOUS
 10
-6.5738053427
 20
-15.2836301496
 40
0.3
100
AcDbArc
 50
274.0
 51
360.0
  0
ARC
  5
632
100
AcDbEntity
  8
RACCORDO
100
AcDbCircle
 62
7
  6
CONTINUOUS
 10
-7.9738053427
 20
-2.4829928251
 40
0.3
100
AcDbArc
 50
94.0
 51
174.4154945262
  0
ARC
  5
633
100
AcDbEntity
  8
RACCORDO
100
AcDbCircle
 62
7
  6
CONTINUOUS
 10
-7.9738053427
 20
-9.2234837735
 40
0.3
100
AcDbArc
 50
180.0
 51
266.0
  0
ARC
  5
634
100
AcDbEntity
  8
RACCORDO
100
AcDbCircle
 62
7
  6
CONTINUOUS
 10
-7.9738053427
 20
4.2765162265
 40
0.3
100
AcDbArc
 50
180.0
 51
266.0
  0
ARC
  5
635
100
AcDbEntity
  8
RACCORDO
100
AcDbCircle
 62
7
  6
CONTINUOUS
 10
-6.5738053427
 20
-9.922846449
 40
0.3
100
AcDbArc
 50
0.0
 51
86.0
  0
ARC
  5
636
100
AcDbEntity
  8
RACCORDO
100
AcDbCircle
 62
7
  6
CONTINUOUS
 10
-6.5738053427
 20
3.577153551
 40
0.3
100
AcDbArc
 50
0.0
 51
86.0
  0
ARC
  5
637
100
AcDbEntity
  8
RACCORDO
100
AcDbCircle
 62
7
  6
CONTINUOUS
 10
-6.5738053427
 20
-1.7836301496
 40
0.3
100
AcDbArc
 50
274.0
 51
360.0
  0
ARC
  5
638
100
AcDbEntity
  8
ASSI
100
AcDbCircle
 62
7
  6
CONTINUOUS
 10
-7.9738053427
 20
-2.4829928251
 40
0.3
100
AcDbArc
 50
94.0
 51
180.0
  0
ARC
  5
639
100
AcDbEntity
  8
ASSI
100
AcDbCircle
 62
7
  6
CONTINUOUS
 10
-7.9738053427
 20
-9.2234837735
 40
0.3
100
AcDbArc
 50
180.0
 51
266.0
  0
ARC
  5
63A
100
AcDbEntity
  8
ASSI
100
AcDbCircle
 62
7
  6
CONTINUOUS
 10
-7.9738053427
 20
4.2765162265
 40
0.3
100
AcDbArc
 50
180.0
 51
266.0
  0
ARC
  5
63B
100
AcDbEntity
  8
ASSI
100
AcDbCircle
 62
7
  6
CONTINUOUS
 10
-6.5738053427
 20
-9.922846449
 40
0.3
100
AcDbArc
 50
0.0
 51
86.0
  0
ARC
  5
63C
100
AcDbEntity
  8
ASSI
100
AcDbCircle
 62
7
  6
CONTINUOUS
 10
-6.5738053427
 20
3.577153551
 40
0.3
100
AcDbArc
 50
0.0
 51
86.0
  0
ARC
  5
63D
100
AcDbEntity
  8
ASSI
100
AcDbCircle
 62
7
  6
CONTINUOUS
 10
-6.5738053427
 20
-1.7836301496
 40
0.3
100
AcDbArc
 50
274.0
 51
360.0
  0
ARC
  5
63E
100
AcDbEntity
  8
RACCORDO
100
AcDbCircle
 62
7
  6
CONTINUOUS
 10
-43.48389084
 20
19.2727805042
 40
1.5
100
AcDbArc
 50
97.5
 51
183.1004698968
  0
ARC
  5
63F
100
AcDbEntity
  8
RACCORDO
100
AcDbCircle
 62
7
  6
CONTINUOUS
 10
-37.2998391078
 20
19.8551007044
 40
1.0
100
AcDbArc
 50
284.5
 51
7.0
  0
ARC
  5
640
100
AcDbEntity
  8
RACCORDO
100
AcDbCircle
 62
7
  6
CONTINUOUS
 10
-9.2738053427
 20
17.9155828273
 40
1.0
100
AcDbArc
 50
0.0
 51
89.0
  0
ARC
  5
641
100
AcDbEntity
  8
RACCORDO
100
AcDbCircle
 62
7
  6
CONTINUOUS
 10
-21.2738053427
 20
20.8094549444
 40
1.0
100
AcDbArc
 50
0.0
 51
89.5
  0
ARC
  5
642
100
AcDbEntity
  8
ASSI
100
AcDbCircle
 62
7
  6
CONTINUOUS
 10
-9.2738053427
 20
17.9155828273
 40
1.0
100
AcDbArc
 50
0.0
 51
89.0
  0
ARC
  5
643
100
AcDbEntity
  8
RACCORDO
100
AcDbCircle
 62
7
  6
CONTINUOUS
 10
-7.9738053427
 20
14.9665162265
 40
0.3
100
AcDbArc
 50
180.0
 51
266.0
  0
ARC
  5
644
100
AcDbEntity
  8
RACCORDO
100
AcDbCircle
 62
7
  6
CONTINUOUS
 10
-7.9738053427
 20
8.2270071749
 40
0.3
100
AcDbArc
 50
94.0
 51
174.415492489
  0
ARC
  5
645
100
AcDbEntity
  8
RACCORDO
100
AcDbCircle
 62
7
  6
CONTINUOUS
 10
-6.5738053427
 20
8.9263698504
 40
0.3
100
AcDbArc
 50
274.0
 51
360.0
  0
ARC
  5
646
100
AcDbEntity
  8
RACCORDO
100
AcDbCircle
 62
7
  6
CONTINUOUS
 10
-6.5738053427
 20
14.267153551
 40
0.3
100
AcDbArc
 50
0.0
 51
86.0
  0
ARC
  5
647
100
AcDbEntity
  8
ASSI
100
AcDbCircle
 62
7
  6
CONTINUOUS
 10
-7.9738053427
 20
14.9665162265
 40
0.3
100
AcDbArc
 50
180.0
 51
266.0
  0
ARC
  5
648
100
AcDbEntity
  8
ASSI
100
AcDbCircle
 62
7
  6
CONTINUOUS
 10
-7.9738053427
 20
8.2270071749
 40
0.3
100
AcDbArc
 50
94.0
 51
180.0
  0
ARC
  5
649
100
AcDbEntity
  8
ASSI
100
AcDbCircle
 62
7
  6
CONTINUOUS
 10
-6.5738053427
 20
8.9263698504
 40
0.3
100
AcDbArc
 50
274.0
 51
360.0
  0
ARC
  5
64A
100
AcDbEntity
  8
ASSI
100
AcDbCircle
 62
7
  6
CONTINUOUS
 10
-6.5738053427
 20
14.267153551
 40
0.3
100
AcDbArc
 50
0.0
 51
86.0
  0
ARC
  5
64B
100
AcDbEntity
  8
RACCORDO
100
AcDbCircle
 62
7
  6
CONTINUOUS
 10
-33.5238053427
 20
23.341099268
 40
0.25
100
AcDbArc
 50
180.0
 51
240.0
  0
ARC
  5
64C
100
AcDbEntity
  8
RACCORDO
100
AcDbCircle
 62
7
  6
CONTINUOUS
 10
-33.5238053427
 20
23.6336673528
 40
0.25
100
AcDbArc
 50
90.3333333333
 51
180.0
  0
ARC
  5
64D
100
AcDbEntity
  8
RACCORDO
100
AcDbCircle
 62
7
  6
CONTINUOUS
 10
-30.5238053427
 20
23.6423940975
 40
0.25
100
AcDbArc
 50
0.0
 51
89.6666666667
  0
ARC
  5
64E
100
AcDbEntity
  8
RACCORDO
100
AcDbCircle
 62
7
  6
CONTINUOUS
 10
-30.5238053427
 20
23.341099268
 40
0.25
100
AcDbArc
 50
300.0
 51
360.0
  0
ARC
  5
64F
100
AcDbEntity
  8
RACCORDO
100
AcDbCircle
 62
7
  6
CONTINUOUS
 10
-31.0238053427
 20
22.4750738642
 40
0.25
100
AcDbArc
 50
120.0
 51
180.0
  0
ARC
  5
650
100
AcDbEntity
  8
RACCORDO
100
AcDbCircle
 62
7
  6
CONTINUOUS
 10
254.5791728535
 20
35.4177506694
 40
300.0
100
AcDbArc
 50
183.1004698968
 51
190.8995301032
  0
ELLIPSE
  5
651
100
AcDbEntity
  8
RACCORDO
100
AcDbEllipse
 62
7
  6
CONTINUOUS
 10
7.8889614984
 20
-21.0733507957
 30
0.0
 11
0.8001895183
 21
0.0117351306
 31
0.0
 40
0.9922404883
 41
3.1270420381
 42
3.3525256408
  0
ELLIPSE
  5
652
100
AcDbEntity
  8
RACCORDO
100
AcDbEllipse
 62
7
  6
CONTINUOUS
 10
7.8889614984
 20
20.7127817171
 30
0.0
 11
0.8001895183
 21
-0.0117351306
 31
0.0
 40
0.9922404883
 41
1.5855753763
 42
3.1561432691
  0
ELLIPSE
  5
653
100
AcDbEntity
  8
RACCORDO
100
AcDbEllipse
 62
7
  6
CONTINUOUS
 10
28.4884130304
 20
20.7127817171
 30
0.0
 11
0.8001895183
 21
0.0117351306
 31
0.0
 40
0.9922404883
 41
-0.0145506155
 42
1.5560172772
  0
ELLIPSE
  5
654
100
AcDbEntity
  8
RACCORDO
100
AcDbEllipse
 62
7
  6
CONTINUOUS
 10
28.4884130304
 20
-21.0733507957
 30
0.0
 11
0.8001895183
 21
-0.0117351306
 31
0.0
 40
0.9922404883
 41
-0.210932951
 42
0.0145506155
  0
ELLIPSE
  5
655
100
AcDbEntity
  8
RACCORDO
100
AcDbEllipse
 62
7
  6
CONTINUOUS
 10
7.3886872644
 20
-22.5314078024
 30
0.0
 11
-0.0
 21
0.3500133274
 31
0.0
 40
0.9999619231
 41
7.853981634
 42
9.4247779608
  0
ELLIPSE
  5
656
100
AcDbEntity
  8
RACCORDO
100
AcDbEllipse
 62
7
  6
CONTINUOUS
 10
28.9886872644
 20
21.5249312038
 30
0.0
 11
0.0
 21
-0.3500133274
 31
0.0
 40
0.9999619231
 41
7.853981634
 42
9.4247779608
  0
ELLIPSE
  5
657
100
AcDbEntity
  8
RACCORDO
100
AcDbEllipse
 62
7
  6
CONTINUOUS
 10
7.3886872644
 20
21.5249312038
 30
0.0
 11
-0.0
 21
0.3500133274
 31
0.0
 40
0.9999619231
 41
-0.0
 42
1.5707963268
  0
ELLIPSE
  5
658
100
AcDbEntity
  8
RACCORDO
100
AcDbEllipse
 62
7
  6
CONTINUOUS
 10
28.9886872644
 20
-22.5314078024
 30
0.0
 11
0.0
 21
-0.3500133274
 31
0.0
 40
0.9999619231
 41
-0.0
 42
1.5707963268
  0
ELLIPSE
  5
659
100
AcDbEntity
  8
RACCORDO
100
AcDbEllipse
 62
7
  6
CONTINUOUS
 10
28.7755971473
 20
-24.3475758666
 30
0.0
 11
0.0
 21
0.25
 31
0.0
 40
0.0058178298
 41
0.5235987756
 42
1.5707963268
  0
ELLIPSE
  5
65A
100
AcDbEntity
  8
RACCORDO
100
AcDbEllipse
 62
7
  6
CONTINUOUS
 10
26.5017773814
 20
-24.3475758666
 30
0.0
 11
0.0
 21
0.25
 31
0.0
 40
0.0058178298
 41
-1.5707963268
 42
-0.5235987756
  0
ELLIPSE
  5
65B
100
AcDbEntity
  8
RACCORDO
100
AcDbEllipse
 62
7
  6
CONTINUOUS
 10
26.5017773814
 20
-24.6401439514
 30
0.0
 11
0.0
 21
0.25
 31
0.0
 40
0.0058178298
 41
-3.1357748894
 42
-1.5707963268
  0
ELLIPSE
  5
65C
100
AcDbEntity
  8
RACCORDO
100
AcDbEllipse
 62
7
  6
CONTINUOUS
 10
28.7755971473
 20
-24.6401439514
 30
0.0
 11
0.0
 21
0.25
 31
0.0
 40
0.0058178298
 41
-4.7123889804
 42
-3.1474104178
  0
ELLIPSE
  5
65D
100
AcDbEntity
  8
RACCORDO
100
AcDbEllipse
 62
7
  6
CONTINUOUS
 10
9.8755971473
 20
-24.3475758666
 30
0.0
 11
-0.0
 21
0.25
 31
0.0
 40
0.0058178298
 41
0.5235987756
 42
1.5707963268
  0
ELLIPSE
  5
65E
100
AcDbEntity
  8
RACCORDO
100
AcDbEllipse
 62
7
  6
CONTINUOUS
 10
7.6017773814
 20
-24.3475758666
 30
0.0
 11
0.0
 21
0.25
 31
0.0
 40
0.0058178298
 41
-1.5707963268
 42
-0.5235987756
  0
ELLIPSE
  5
65F
100
AcDbEntity
  8
RACCORDO
100
AcDbEllipse
 62
7
  6
CONTINUOUS
 10
7.6017773814
 20
-24.6401439514
 30
0.0
 11
0.0
 21
0.25
 31
0.0
 40
0.0058178298
 41
-3.1357748894
 42
-1.5707963268
  0
ELLIPSE
  5
660
100
AcDbEntity
  8
RACCORDO
100
AcDbEllipse
 62
7
  6
CONTINUOUS
 10
9.8755971473
 20
-24.6401439514
 30
0.0
 11
0.0
 21
0.25
 31
0.0
 40
0.0058178298
 41
-4.7123889804
 42
-3.1474104178
  0
ELLIPSE
  5
661
100
AcDbEntity
  8
RACCORDO
100
AcDbEllipse
 62
7
  6
CONTINUOUS
 10
7.6017773814
 20
23.341099268
 30
0.0
 11
-0.0
 21
0.25
 31
0.0
 40
0.0058178298
 41
-2.617993878
 42
-1.5707963268
  0
ELLIPSE
  5
662
100
AcDbEntity
  8
RACCORDO
100
AcDbEllipse
 62
7
  6
CONTINUOUS
 10
9.8755971473
 20
23.341099268
 30
0.0
 11
0.0
 21
0.25
 31
0.0
 40
0.0058178298
 41
-4.7123889804
 42
-3.6651914292
  0
ELLIPSE
  5
663
100
AcDbEntity
  8
RACCORDO
100
AcDbEllipse
 62
7
  6
CONTINUOUS
 10
9.8755971473
 20
23.6336673528
 30
0.0
 11
0.0
 21
0.25
 31
0.0
 40
0.0058178298
 41
0.0058177642
 42
1.5707963268
  0
ELLIPSE
  5
664
100
AcDbEntity
  8
RACCORDO
100
AcDbEllipse
 62
7
  6
CONTINUOUS
 10
7.6017773814
 20
23.6336673528
 30
0.0
 11
0.0
 21
0.25
 31
0.0
 40
0.0058178298
 41
-1.5707963268
 42
-0.0058177642
  0
ELLIPSE
  5
665
100
AcDbEntity
  8
RACCORDO
100
AcDbEllipse
 62
7
  6
CONTINUOUS
 10
26.5017773814
 20
23.341099268
 30
0.0
 11
0.0
 21
0.25
 31
0.0
 40
0.0058178298
 41
-2.617993878
 42
-1.5707963268
  0
ELLIPSE
  5
666
100
AcDbEntity
  8
RACCORDO
100
AcDbEllipse
 62
7
  6
CONTINUOUS
 10
28.7755971473
 20
23.341099268
 30
0.0
 11
0.0
 21
0.25
 31
0.0
 40
0.0058178298
 41
-4.7123889804
 42
-3.6651914292
  0
ELLIPSE
  5
667
100
AcDbEntity
  8
RACCORDO
100
AcDbEllipse
 62
7
  6
CONTINUOUS
 10
28.7755971473
 20
23.6336673528
 30
0.0
 11
0.0
 21
0.25
 31
0.0
 40
0.0058178298
 41
0.0058177642
 42
1.5707963268
  0
ELLIPSE
  5
668
100
AcDbEntity
  8
RACCORDO
100
AcDbEllipse
 62
7
  6
CONTINUOUS
 10
26.5017773814
 20
23.6336673528
 30
0.0
 11
-0.0
 21
0.25
 31
0.0
 40
0.0058178298
 41
-1.5707963268
 42
-0.0058177642
  0
ELLIPSE
  5
669
100
AcDbEntity
  8
RACCORDO
100
AcDbEllipse
 62
7
  6
CONTINUOUS
 10
14.0927648223
 20
-22.8971294918
 30
0.0
 11
0.3
 21
-0.0
 31
0.0
 40
0.0087268678
 41
1.5707963268
 42
3.1357748894
  0
ELLIPSE
  5
66A
100
AcDbEntity
  8
RACCORDO
100
AcDbEllipse
 62
7
  6
CONTINUOUS
 10
14.0927648223
 20
-24.2991658184
 30
0.0
 11
0.3
 21
0.0
 31
0.0
 40
0.0058178298
 41
1.5707963268
 42
3.1357748894
  0
ELLIPSE
  5
66B
100
AcDbEntity
  8
RACCORDO
100
AcDbEllipse
 62
7
  6
CONTINUOUS
 10
22.2846097065
 20
-24.2991658184
 30
0.0
 11
0.3
 21
-0.0
 31
0.0
 40
0.0058178298
 41
0.0058177642
 42
1.5707963268
  0
ELLIPSE
  5
66C
100
AcDbEntity
  8
RACCORDO
100
AcDbEllipse
 62
7
  6
CONTINUOUS
 10
22.2846097065
 20
-22.8971294918
 30
0.0
 11
0.3
 21
0.0
 31
0.0
 40
0.0087268678
 41
0.0058177642
 42
1.5707963268
  0
ELLIPSE
  5
66D
100
AcDbEntity
  8
RACCORDO
100
AcDbEllipse
 62
7
  6
CONTINUOUS
 10
14.0927648223
 20
23.2926892198
 30
0.0
 11
0.3
 21
-0.0
 31
0.0
 40
0.0058178298
 41
-3.1357748894
 42
-1.5707963268
  0
ELLIPSE
  5
66E
100
AcDbEntity
  8
RACCORDO
100
AcDbEllipse
 62
7
  6
CONTINUOUS
 10
14.0927648223
 20
21.8906528932
 30
0.0
 11
0.3
 21
-0.0
 31
0.0
 40
0.0087268678
 41
-3.1357748894
 42
-1.5707963268
  0
ELLIPSE
  5
66F
100
AcDbEntity
  8
RACCORDO
100
AcDbEllipse
 62
7
  6
CONTINUOUS
 10
22.2846097065
 20
21.8906528932
 30
0.0
 11
0.3
 21
0.0
 31
0.0
 40
0.0087268678
 41
-1.5707963268
 42
-0.0058177642
  0
ELLIPSE
  5
670
100
AcDbEntity
  8
RACCORDO
100
AcDbEllipse
 62
7
  6
CONTINUOUS
 10
22.2846097065
 20
23.2926892198
 30
0.0
 11
0.3
 21
-0.0
 31
0.0
 40
0.0058178298
 41
-1.5707963268
 42
-0.0058177642
  0
ELLIPSE
  5
671
100
AcDbEntity
  8
RACCORDO
100
AcDbEllipse
 62
7
  6
CONTINUOUS
 10
135.8670833865
 20
11.5967617007
 30
0.0
 11
160.4118925661
 21
0.0
 31
0.0
 40
0.0174550649
 41
2.6637077142
 42
3.619477593
  0
ELLIPSE
  5
672
100
AcDbEntity
  8
ASSI
100
AcDbEllipse
 62
7
  6
CONTINUOUS
 10
135.8670833865
 20
11.5967617007
 30
0.0
 11
160.4118925661
 21
0.0
 31
0.0
 40
0.0174550649
 41
2.6637077142
 42
3.619477593
  0
ENDSEC
  0
SECTION
  2
OBJECTS
  0
DICTIONARY
  5
C
100
AcDbDictionary
280
0
281
1
  3
ACAD_GROUP
350
D
  3
ACAD_MLINESTYLE
350
17
  3
ACAD_LAYOUT
350
1A
  3
ACAD_PLOTSETTINGS
350
19
  3
ACAD_PLOTSTYLENAME
350
E
  0
DICTIONARY
  5
D
102
{ACAD_REACTORS
330
C
102
}
100
AcDbDictionary
280
0
281
1
  0
ACDBDICTIONARYWDFLT
  5
E
102
{ACAD_REACTORS
330
C
102
}
100
AcDbDictionary
281
1
  3
Normal
350
F
100
AcDbDictionaryWithDefault
340
F
  0
DICTIONARY
  5
17
102
{ACAD_REACTORS
330
C
102
}
100
AcDbDictionary
280
0
281
1
  3
Standard
350
18
  0
DICTIONARY
  5
19
102
{ACAD_REACTORS
330
C
102
}
100
AcDbDictionary
281
1
  0
DICTIONARY
  5
1A
102
{ACAD_REACTORS
330
C
102
}
100
AcDbDictionary
281
1
  3
Model
350
673
  3
Layout1
350
674
  0
ACDBPLACEHOLDER
  5
F
102
{ACAD_REACTORS
330
E
102
}
  0
MLINESTYLE
  5
18
102
{ACAD_REACTORS
330
17
102
}
100
AcDbMlineStyle
  2
STANDARD
 70
0
  3

 62
256
 51
90.0
 52
90.0
 71
2
 49
0.5
 62
256
  6
BYLAYER
 49
-0.5
 62
256
  6
BYLAYER
  0
LAYOUT
  5
673
102
{ACAD_REACTORS
330
1A
102
}
100
AcDbPlotSettings
  1

  2
none_device
  4
ISO_A4_(297.00_x_210.00_MM)
  6

 40
0.0
 41
0.0
 42
0.0
 43
0.0
 44
297.0
 45
210.0
 46
0.0
 47
0.0
 48
0.0
 49
0.0
140
0.0
141
0.0
142
1.0
143
1.0
 70
1024
 72
1
 73
0
 74
0
  7

 75
0
147
1.0
148
0.0
149
0.0
100
AcDbLayout
  1
Model
 70
0
 71
0
 10
0.0
 20
0.0
 11
297.0
 21
210.0
 12
0.0
 22
0.0
 32
0.0
 14
0.0
 24
0.0
 34
0.0
 15
0.0
 25
0.0
 35
0.0
146
0.0
 13
0.0
 23
0.0
 33
0.0
 16
1.0
 26
0.0
 36
0.0
 17
0.0
 27
1.0
 37
0.0
 76
0
330
21C
345
0
346
0
  0
LAYOUT
  5
674
102
{ACAD_REACTORS
330
1A
102
}
100
AcDbPlotSettings
  1

  2
none_device
  4
ISO_A4_(297.00_x_210.00_MM)
  6

 40
0.0
 41
0.0
 42
0.0
 43
0.0
 44
297.0
 45
210.0
 46
0.0
 47
0.0
 48
0.0
 49
0.0
140
0.0
141
0.0
142
1.0
143
1.0
 70
0
 72
1
 73
0
 74
0
  7

 75
0
147
1.0
148
0.0
149
0.0
100
AcDbLayout
  1
Layout1
 70
0
 71
1
 10
0.0
 20
0.0
 11
297.0
 21
210.0
 12
0.0
 22
0.0
 32
0.0
 14
0.0
 24
0.0
 34
0.0
 15
0.0
 25
0.0
 35
0.0
146
0.0
 13
0.0
 23
0.0
 33
0.0
 16
1.0
 26
0.0
 36
0.0
 17
0.0
 27
1.0
 37
0.0
 76
0
330
21D
345
0
346
0
  0
ENDSEC
  0
EOF
